  0
SECTION
  2
HEADER
  9
$ACADVER
  1
AC1015
  9
$ACADMAINTVER
 70
    20
  9
$DWGCODEPAGE
  3
ANSI_950
  9
$INSBASE
 10
0.0
 20
0.0
 30
0.0
  9
$EXTMIN
 10
2570.232855518588
 20
1245.881323171479
 30
-0.0079985184937641
  9
$EXTMAX
 10
2970.443687448274
 20
1796.022479357155
 30
262.1234512591636
  9
$LIMMIN
 10
0.0
 20
0.0
  9
$LIMMAX
 10
420.0
 20
297.0
  9
$ORTHOMODE
 70
     1
  9
$REGENMODE
 70
     1
  9
$FILLMODE
 70
     1
  9
$QTEXTMODE
 70
     0
  9
$MIRRTEXT
 70
     1
  9
$LTSCALE
 40
1.0
  9
$ATTMODE
 70
     1
  9
$TEXTSIZE
 40
3.0
  9
$TRACEWID
 40
1.0
  9
$TEXTSTYLE
  7
CHINESET
  9
$CLAYER
  8
0
  9
$CELTYPE
  6
ByLayer
  9
$CECOLOR
 62
   256
  9
$CELTSCALE
 40
1.0
  9
$DISPSILH
 70
     0
  9
$DIMSCALE
 40
1.0
  9
$DIMASZ
 40
3.0
  9
$DIMEXO
 40
1.0
  9
$DIMDLI
 40
8.0
  9
$DIMRND
 40
0.0
  9
$DIMDLE
 40
0.0
  9
$DIMEXE
 40
1.5
  9
$DIMTP
 40
0.1
  9
$DIMTM
 40
0.1
  9
$DIMTXT
 40
3.0
  9
$DIMCEN
 40
0.0
  9
$DIMTSZ
 40
0.0
  9
$DIMTOL
 70
     0
  9
$DIMLIM
 70
     0
  9
$DIMTIH
 70
     0
  9
$DIMTOH
 70
     0
  9
$DIMSE1
 70
     0
  9
$DIMSE2
 70
     0
  9
$DIMTAD
 70
     1
  9
$DIMZIN
 70
     8
  9
$DIMBLK
  1

  9
$DIMASO
 70
     1
  9
$DIMSHO
 70
     1
  9
$DIMPOST
  1

  9
$DIMAPOST
  1
"
  9
$DIMALT
 70
     0
  9
$DIMALTD
 70
     2
  9
$DIMALTF
 40
0.0393701
  9
$DIMLFAC
 40
1.0
  9
$DIMTOFL
 70
     1
  9
$DIMTVP
 40
0.0
  9
$DIMTIX
 70
     0
  9
$DIMSOXD
 70
     0
  9
$DIMSAH
 70
     0
  9
$DIMBLK1
  1

  9
$DIMBLK2
  1

  9
$DIMSTYLE
  2
AM_ISO
  9
$DIMCLRD
 70
   256
  9
$DIMCLRE
 70
   256
  9
$DIMCLRT
 70
   256
  9
$DIMTFAC
 40
0.71
  9
$DIMGAP
 40
1.0
  9
$DIMJUST
 70
     0
  9
$DIMSD1
 70
     0
  9
$DIMSD2
 70
     0
  9
$DIMTOLJ
 70
     0
  9
$DIMTZIN
 70
     8
  9
$DIMALTZ
 70
     0
  9
$DIMALTTZ
 70
     0
  9
$DIMUPT
 70
     0
  9
$DIMDEC
 70
     2
  9
$DIMTDEC
 70
     8
  9
$DIMALTU
 70
     2
  9
$DIMALTTD
 70
     2
  9
$DIMTXSTY
  7
CHINESET
  9
$DIMAUNIT
 70
     0
  9
$DIMADEC
 70
     0
  9
$DIMALTRND
 40
0.0
  9
$DIMAZIN
 70
     2
  9
$DIMDSEP
 70
    46
  9
$DIMATFIT
 70
     3
  9
$DIMFRAC
 70
     0
  9
$DIMLDRBLK
  1

  9
$DIMLUNIT
 70
     2
  9
$DIMLWD
 70
    -1
  9
$DIMLWE
 70
    -1
  9
$DIMTMOVE
 70
     0
  9
$LUNITS
 70
     2
  9
$LUPREC
 70
     2
  9
$SKETCHINC
 40
1.0
  9
$FILLETRAD
 40
2.5
  9
$AUNITS
 70
     0
  9
$AUPREC
 70
     0
  9
$MENU
  1
.
  9
$ELEVATION
 40
0.0
  9
$PELEVATION
 40
0.0
  9
$THICKNESS
 40
0.0
  9
$LIMCHECK
 70
     0
  9
$CHAMFERA
 40
2.5
  9
$CHAMFERB
 40
2.5
  9
$CHAMFERC
 40
20.0
  9
$CHAMFERD
 40
0.0
  9
$SKPOLY
 70
     0
  9
$TDCREATE
 40
2453727.710216099
  9
$TDUCREATE
 40
2453727.376882766
  9
$TDUPDATE
 40
2454370.417680301
  9
$TDUUPDATE
 40
2454370.084346968
  9
$TDINDWG
 40
0.1951940394
  9
$TDUSRTIMER
 40
0.1951940394
  9
$USRTIMER
 70
     1
  9
$ANGBASE
 50
0.0
  9
$ANGDIR
 70
     0
  9
$PDMODE
 70
     0
  9
$PDSIZE
 40
0.0
  9
$PLINEWID
 40
0.0
  9
$SPLFRAME
 70
     0
  9
$SPLINETYPE
 70
     6
  9
$SPLINESEGS
 70
     8
  9
$HANDSEED
  5
3051
  9
$SURFTAB1
 70
     6
  9
$SURFTAB2
 70
     6
  9
$SURFTYPE
 70
     6
  9
$SURFU
 70
     6
  9
$SURFV
 70
     6
  9
$UCSBASE
  2

  9
$UCSNAME
  2

  9
$UCSORG
 10
0.0
 20
0.0
 30
0.0
  9
$UCSXDIR
 10
1.0
 20
0.0
 30
0.0
  9
$UCSYDIR
 10
0.0
 20
1.0
 30
0.0
  9
$UCSORTHOREF
  2

  9
$UCSORTHOVIEW
 70
     0
  9
$UCSORGTOP
 10
0.0
 20
0.0
 30
0.0
  9
$UCSORGBOTTOM
 10
0.0
 20
0.0
 30
0.0
  9
$UCSORGLEFT
 10
0.0
 20
0.0
 30
0.0
  9
$UCSORGRIGHT
 10
0.0
 20
0.0
 30
0.0
  9
$UCSORGFRONT
 10
0.0
 20
0.0
 30
0.0
  9
$UCSORGBACK
 10
0.0
 20
0.0
 30
0.0
  9
$PUCSBASE
  2

  9
$PUCSNAME
  2

  9
$PUCSORG
 10
0.0
 20
0.0
 30
0.0
  9
$PUCSXDIR
 10
1.0
 20
0.0
 30
0.0
  9
$PUCSYDIR
 10
0.0
 20
1.0
 30
0.0
  9
$PUCSORTHOREF
  2

  9
$PUCSORTHOVIEW
 70
     0
  9
$PUCSORGTOP
 10
0.0
 20
0.0
 30
0.0
  9
$PUCSORGBOTTOM
 10
0.0
 20
0.0
 30
0.0
  9
$PUCSORGLEFT
 10
0.0
 20
0.0
 30
0.0
  9
$PUCSORGRIGHT
 10
0.0
 20
0.0
 30
0.0
  9
$PUCSORGFRONT
 10
0.0
 20
0.0
 30
0.0
  9
$PUCSORGBACK
 10
0.0
 20
0.0
 30
0.0
  9
$USERI1
 70
     0
  9
$USERI2
 70
     0
  9
$USERI3
 70
     0
  9
$USERI4
 70
     0
  9
$USERI5
 70
     0
  9
$USERR1
 40
0.0
  9
$USERR2
 40
0.0
  9
$USERR3
 40
0.0
  9
$USERR4
 40
0.0
  9
$USERR5
 40
0.0
  9
$WORLDVIEW
 70
     1
  9
$SHADEDGE
 70
     3
  9
$SHADEDIF
 70
    70
  9
$TILEMODE
 70
     1
  9
$MAXACTVP
 70
    64
  9
$PINSBASE
 10
0.0
 20
0.0
 30
0.0
  9
$PLIMCHECK
 70
     0
  9
$PEXTMIN
 10
1.000000000000000E+20
 20
1.000000000000000E+20
 30
1.000000000000000E+20
  9
$PEXTMAX
 10
-1.000000000000000E+20
 20
-1.000000000000000E+20
 30
-1.000000000000000E+20
  9
$PLIMMIN
 10
0.0
 20
0.0
  9
$PLIMMAX
 10
420.0
 20
297.0
  9
$UNITMODE
 70
     0
  9
$VISRETAIN
 70
     1
  9
$PLINEGEN
 70
     0
  9
$PSLTSCALE
 70
     1
  9
$TREEDEPTH
 70
  3020
  9
$CMLSTYLE
  2
Standard
  9
$CMLJUST
 70
     0
  9
$CMLSCALE
 40
20.0
  9
$PROXYGRAPHICS
 70
     1
  9
$MEASUREMENT
 70
     1
  9
$CELWEIGHT
370
    -1
  9
$ENDCAPS
280
     0
  9
$JOINSTYLE
280
     0
  9
$LWDISPLAY
290
     0
  9
$INSUNITS
 70
     4
  9
$HYPERLINKBASE
  1

  9
$STYLESHEET
  1
彩色出圖.ctb
  9
$XEDIT
290
     1
  9
$CEPSNTYPE
380
     0
  9
$PSTYLEMODE
290
     1
  9
$FINGERPRINTGUID
  2
{F71A31A6-E1E4-49B6-91D9-577F95F49260}
  9
$VERSIONGUID
  2
{13E714D4-69A9-4FBE-8BF0-1B8497A77362}
  9
$EXTNAMES
290
     1
  9
$PSVPSCALE
 40
0.0
  9
$OLESTARTUP
290
     0
  0
ENDSEC
  0
SECTION
  2
CLASSES
  0
CLASS
  1
ACDBDICTIONARYWDFLT
  2
AcDbDictionaryWithDefault
  3
ObjectDBX Classes
 90
        0
280
     0
281
     0
  0
CLASS
  1
ACDBPLACEHOLDER
  2
AcDbPlaceHolder
  3
ObjectDBX Classes
 90
        0
280
     0
281
     0
  0
CLASS
  1
LAYOUT
  2
AcDbLayout
  3
ObjectDBX Classes
 90
        0
280
     0
281
     0
  0
CLASS
  1
ACME_DOCUMENT
  2
AcMeDbDoc
  3
AcMeServices
 90
        0
280
     0
281
     0
  0
CLASS
  1
AMGSETTINGSOBJ
  2
AmgSettingsObj
  3
"AcadM|Product Description: AutoCAD Mechanical 2000|Company: Autodesk"
 90
        0
280
     0
281
     0
  0
CLASS
  1
ACMESCOPE
  2
AcMeScope
  3
AcMeServices
 90
        0
280
     0
281
     0
  0
CLASS
  1
ACMECOMMANDHISTORY
  2
AcMeCommandHistory
  3
AcMeServices
 90
        0
280
     0
281
     0
  0
CLASS
  1
ACIMSYSVARMAN
  2
AcImSysVarManager
  3
AcMeServices
 90
        0
280
     0
281
     0
  0
CLASS
  1
ACIMREALSYSVAR
  2
AcImRealSysVar
  3
AcMeServices
 90
        0
280
     0
281
     0
  0
CLASS
  1
ACIMINTSYSVAR
  2
AcImIntSysVar
  3
AcMeServices
 90
        0
280
     0
281
     0
  0
CLASS
  1
ACMEDRAWINGMAN
  2
AcMeDrawingMan
  3
AcMeServices
 90
        0
280
     0
281
     0
  0
CLASS
  1
ACMEVIEW
  2
AcMeView
  3
AcMeServices
 90
        0
280
     0
281
     0
  0
CLASS
  1
ACDBENTITYCACHE
  2
AcMeEntityCache
  3
AcMeServices
 90
        0
280
     0
281
     0
  0
CLASS
  1
GSMANAGER
  2
AcMeGSManager
  3
AcMeServices
 90
        0
280
     0
281
     0
  0
CLASS
  1
AMDTINTERNALREACTOR
  2
AmdtInternalReactor
  3
AcMeServices
 90
        0
280
     0
281
     0
  0
CLASS
  1
ACMESTATEMGR
  2
AcMeStateMgr
  3
AcMeServices
 90
        0
280
     0
281
     0
  0
CLASS
  1
ACGREFMASTER
  2
AcGrefMaster
  3
AcAttribServices
 90
        0
280
     0
281
     0
  0
CLASS
  1
ACME_DATABASE
  2
AcMeDbDatabase
  3
AcMeServices
 90
        0
280
     0
281
     0
  0
CLASS
  1
ACRFINSADJUSTERMGR
  2
AcRfInsAdjusterMgr
  3
AcMeServices
 90
        0
280
     0
281
     0
  0
CLASS
  1
ACGREFACADMASTER
  2
AcGrefacadMaster
  3
AcGrefServices
 90
        0
280
     0
281
     0
  0
CLASS
  1
AMIMASTER
  2
AmiMaster
  3
AmiServices
 90
        0
280
     0
281
     0
  0
CLASS
  1
ACMDATADICTIONARY
  2
AcmDataDictionary
  3
"AcmSymBB|Product Description: AutoCAD Mechanical 2004 DX|Company: Autodesk"
 90
        0
280
     0
281
     0
  0
CLASS
  1
ACMDATAENTRYBLOCK
  2
AcmDataEntryBlock
  3
"AcmSymBB|Product Description: AutoCAD Mechanical 2004 DX|Company: Autodesk"
 90
    32768
280
     0
281
     0
  0
CLASS
  1
ACIMSTRSYSVAR
  2
AcImStrSysVar
  3
AcMeServices
 90
        0
280
     0
281
     0
  0
CLASS
  1
ACMSTANDARDISO
  2
AcmStandardISO
  3
"Amdt_StdImp|Product Description: AutoCAD Mechanical 2004 DX|Company: Autodesk"
 90
        0
280
     0
281
     0
  0
CLASS
  1
AMGOBJPROPCFG
  2
AmgObjPropCfg
  3
"AmgLay|Product Description: AutoCAD Mechanical 2000|Company: Autodesk"
 90
        1
280
     0
281
     0
  0
CLASS
  1
AMDTEDGESTANDARDISO
  2
AmdtEdgeStdISO
  3
"Amdt_StdImp|Product Description: AutoCAD Mechanical 2004 DX|Company: Autodesk"
 90
    32768
280
     0
281
     0
  0
CLASS
  1
ACMSURFSTANDARDISO
  2
AcmSurfTextStdISO
  3
"Amdt_StdImp|Product Description: AutoCAD Mechanical 2004 DX|Company: Autodesk"
 90
        0
280
     0
281
     0
  0
CLASS
  1
ACMFCFSTANDARDISO
  2
AcmFCFStdISO
  3
"Amdt_StdImp|Product Description: AutoCAD Mechanical 2004 DX|Company: Autodesk"
 90
        0
280
     0
281
     0
  0
CLASS
  1
ACMWELDSTANDARDISO
  2
AcmWeldingStdISO
  3
"Amdt_StdImp|Product Description: AutoCAD Mechanical 2004 DX|Company: Autodesk"
 90
        0
280
     0
281
     0
  0
CLASS
  1
ACMIDSTANDARDISO
  2
AcmIdStdISO
  3
"Amdt_StdImp|Product Description: AutoCAD Mechanical 2004 DX|Company: Autodesk"
 90
        0
280
     0
281
     0
  0
CLASS
  1
ACMDATUMSTANDARDISO
  2
AcmDatumStdISO
  3
"Amdt_StdImp|Product Description: AutoCAD Mechanical 2004 DX|Company: Autodesk"
 90
        0
280
     0
281
     0
  0
CLASS
  1
ACMBOMSTANDARDISO
  2
AcmBOMStdISO
  3
"Amdt_StdImp|Product Description: AutoCAD Mechanical 2004 DX|Company: Autodesk"
 90
        0
280
     0
281
     0
  0
CLASS
  1
ACMDETAILSTANDARDISO
  2
AmdtDetailSymStdISO
  3
"Amdt_StdImp|Product Description: AutoCAD Mechanical 2004 DX|Company: Autodesk"
 90
        0
280
     0
281
     0
  0
CLASS
  1
ACMSECTIONSTANDARDISO
  2
AmdtSectionSymStdISO
  3
"Amdt_StdImp|Product Description: AutoCAD Mechanical 2004 DX|Company: Autodesk"
 90
        0
280
     0
281
     0
  0
CLASS
  1
ACMCENTERLINESTANDARDISO
  2
AmdtCenterLineStdISO
  3
"Amdt_StdImp|Product Description: AutoCAD Mechanical 2004 DX|Company: Autodesk"
 90
        0
280
     0
281
     0
  0
CLASS
  1
ACMNOTESTANDARDISO
  2
AmdtNoteStdISO
  3
"Amdt_StdImp|Product Description: AutoCAD Mechanical 2004 DX|Company: Autodesk"
 90
        0
280
     0
281
     0
  0
CLASS
  1
ACAMGLAYSTD
  2
AcAmgLayStd
  3
"AcAmgLayStd|Product Description: AutoCAD Mechanical 2000|Company: Autodesk"
 90
        0
280
     0
281
     0
  0
CLASS
  1
ACAMGDIMSTD
  2
AcAmgDimStd
  3
"AcAmgDimStd|Product Description: AutoCAD Mechanical 2000|Company: Autodesk"
 90
        0
280
     0
281
     0
  0
CLASS
  1
ACAMGHOLECHARTSTDISO
  2
AcAmgHoleChartStdISO
  3
ACMSYMBB_MODULE_NAME
 90
        0
280
     0
281
     0
  0
CLASS
  1
ACAMGTITLESTD
  2
AcAmgTitleStd
  3
"TITLEAPP"
 90
        0
280
     0
281
     0
  0
CLASS
  1
LAYER_INDEX
  2
AcDbLayerIndex
  3
ObjectDBX Classes
 90
    32768
280
     0
281
     0
  0
CLASS
  1
IDBUFFER
  2
AcDbIdBuffer
  3
ObjectDBX Classes
 90
    32768
280
     0
281
     0
  0
CLASS
  1
DICTIONARYVAR
  2
AcDbDictionaryVar
  3
ObjectDBX Classes
 90
        0
280
     0
281
     0
  0
CLASS
  1
AM_DRAWING_MGR
  2
AcDmDwgMgr
  3
AcMechDwgViewMgmt
 90
        0
280
     0
281
     0
  0
CLASS
  1
AM_DWG_DOCUMENT
  2
AcDmDwgDocument
  3
AcMechDwgViewMgmt
 90
        0
280
     0
281
     0
  0
CLASS
  1
AM_DWG_SHEET
  2
AcDmSheet
  3
AcMechDwgViewMgmt
 90
        0
280
     0
281
     0
  0
CLASS
  1
AM_VIEWDIMPARMAP
  2
AcDmViewDimParMap
  3
AcMechDwgViewMgmt
 90
        0
280
     0
281
     0
  0
CLASS
  1
AM_DWGMGR_NAME
  2
AcDmDwgMgrName
  3
AcMechDwgViewMgmt
 90
        0
280
     0
281
     0
  0
CLASS
  1
AMDTMENUSTATEMGR
  2
AmdtMenuStateMgr
  3
McadcomServices
 90
        0
280
     0
281
     0
  0
CLASS
  1
AMDTMCOMMENUSTATE
  2
AmdtMcomMenuState
  3
McadcomServices
 90
        0
280
     0
281
     0
  0
CLASS
  1
MAPIAMMOUDLE
  2
MApiAmModule
  3
MApiAmServices
 90
        0
280
     0
281
     0
  0
CLASS
  1
AMDTADMENUSTATE
  2
AmdtAdMenuState
  3
DesignerServices
 90
        0
280
     0
281
     0
  0
CLASS
  1
ADAPPL
  2
AcAdAppl
  3
DesignerServices
 90
        0
280
     0
281
     0
  0
CLASS
  1
DEPMGR
  2
AcAdDepMgr
  3
DesignerServices
 90
        0
280
     0
281
     0
  0
CLASS
  1
PARAMMGR
  2
AcAdParamMgr
  3
DesignerServices
 90
        0
280
     0
281
     0
  0
CLASS
  1
PARAMSCOPE
  2
AcAdParamScope
  3
DesignerServices
 90
        0
280
     0
281
     0
  0
CLASS
  1
NAMEDAPPL
  2
AcAdNamedAppl
  3
DesignerServices
 90
        0
280
     0
281
     0
  0
CLASS
  1
AMDTDMMENUSTATE
  2
AmdtDmMenuState
  3
AcMechDwgViewMgmt
 90
        0
280
     0
281
     0
  0
CLASS
  1
AMDTAMMENUSTATE
  2
AmdtAmMenuState
  3
DesignerAssemblies
 90
        0
280
     0
281
     0
  0
CLASS
  1
ACAMPROJECT
  2
AcAmProject
  3
DesignerAssemblies
 90
        0
280
     0
281
     0
  0
CLASS
  1
ACAMGRCOMPDEF
  2
AcAmGrCompDef
  3
DesignerAssemblies
 90
        0
280
     0
281
     0
  0
CLASS
  1
ACCMCONTEXT
  2
AcCmContext
  3
DesignerAssemblies
 90
        0
280
     0
281
     0
  0
CLASS
  1
ACAMCOMPDEF
  2
AcAmCompDef
  3
DesignerAssemblies
 90
        0
280
     0
281
     0
  0
CLASS
  1
ACAMCOMPDEFMGR
  2
AcAmCompDefMgr
  3
DesignerAssemblies
 90
        0
280
     0
281
     0
  0
CLASS
  1
AMCONTEXTMGR
  2
AcAmContextMgr
  3
DesignerAssemblies
 90
        0
280
     0
281
     0
  0
CLASS
  1
ACAMCONTEXTMODELER
  2
AcAmContextModeler
  3
DesignerAssemblies
 90
        0
280
     0
281
     0
  0
CLASS
  1
ACMTHREADLINESTANDARDISO
  2
AmdtThreadLineStdISO
  3
"Amdt_StdImp|Product Description: AutoCAD Mechanical 2004 DX|Company: Autodesk"
 90
        0
280
     0
281
     0
  0
CLASS
  1
CATALOGSTATE
  2
AcAmCatalogState
  3
DesignerAssemblies
 90
        0
280
     0
281
     0
  0
CLASS
  1
ACAMGRCOMPDEFSET
  2
AcAmGrCompDefSet
  3
DesignerAssemblies
 90
        0
280
     0
281
     0
  0
CLASS
  1
AMDTBROWSERDBTAB
  2
AmdtBrowserDbTab
  3
McadcomServices
 90
        0
280
     0
281
     0
  0
CLASS
  1
CBROWSERAPPOBJECT
  2
CBrowserAppObject
  3
McadcomServices
 90
        0
280
     0
281
     0
  0
CLASS
  1
DM_PLACEHOLDER
  2
AcDmSelsetPlaceholder
  3
AcMechDwgViewMgmt
 90
        0
280
     0
281
     0
  0
CLASS
  1
TABLESTYLE
  2
AcDbTableStyle
  3
ObjectDBX Classes
 90
     2047
280
     0
281
     0
  0
CLASS
  1
VAACXREFPANELOBJECT
  2
VaAcXREFPanelObject
  3
VAAC_ADDIN
 90
    32768
280
     0
281
     0
  0
CLASS
  1
VAACIMAGEINVENTORY
  2
VaAcImageInventory
  3
VAAC_ADDIN
 90
    32768
280
     0
281
     0
  0
CLASS
  1
AMDTNOTETEMPLATEDB
  2
AmdtNoteTemplateDB
  3
AMDT_STDIMP_MODULE_NAME
 90
        0
280
     0
281
     0
  0
CLASS
  1
ACMBOM
  2
AcmBom
  3
"AcmSymBB|Product Description: AutoCAD Mechanical 2004 DX|Company: Autodesk"
 90
    32768
280
     0
281
     0
  0
CLASS
  1
AMDTFORMULAUPDATEDISPATCHER
  2
AmdtFormulaUpdateDispatcher
  3
AcMeServices
 90
        0
280
     0
281
     0
  0
CLASS
  1
ACMPARTLIST
  2
AcmPartList
  3
"AcmSymBB|Product Description: AutoCAD Mechanical 2004 DX|Company: Autodesk"
 90
    33791
280
     0
281
     1
  0
CLASS
  1
ACAMGFILTERDAT
  2
AcAmgFilterDat
  3
"AcadM|Product Description: AutoCAD Mechanical 2000|Company: Autodesk"
 90
    32768
280
     0
281
     0
  0
CLASS
  1
DIMASSOC
  2
AcDbDimAssoc
  3
"AcDbDimAssoc|Product Desc:     AcDim ARX App For Dimension|Company:          Autodesk, Inc.|WEB Address:      www.autodesk.com"
 90
        0
280
     0
281
     0
  0
CLASS
  1
ACMSTANDARDANSI
  2
AcmStandardANSI
  3
"Amdt_StdImp|Product Description: AutoCAD Mechanical 2004 DX|Company: Autodesk"
 90
    32768
280
     0
281
     0
  0
CLASS
  1
ACMSURFSTANDARDANSI
  2
AcmSurfTextStdANSI
  3
"Amdt_StdImp|Product Description: AutoCAD Mechanical 2004 DX|Company: Autodesk"
 90
    32768
280
     0
281
     0
  0
CLASS
  1
ACMFCFSTANDARDANSI
  2
AcmFCFStdANSI
  3
"Amdt_StdImp|Product Description: AutoCAD Mechanical 2004 DX|Company: Autodesk"
 90
    32768
280
     0
281
     0
  0
CLASS
  1
ACMWELDSTANDARDANSI
  2
AcmWeldingStdANSI
  3
"Amdt_StdImp|Product Description: AutoCAD Mechanical 2004 DX|Company: Autodesk"
 90
    32768
280
     0
281
     0
  0
CLASS
  1
ACMIDSTANDARDANSI
  2
AcmIdStdANSI
  3
"Amdt_StdImp|Product Description: AutoCAD Mechanical 2004 DX|Company: Autodesk"
 90
    32768
280
     0
281
     0
  0
CLASS
  1
ACMDATUMSTANDARDANSI
  2
AcmDatumStdANSI
  3
"Amdt_StdImp|Product Description: AutoCAD Mechanical 2004 DX|Company: Autodesk"
 90
    32768
280
     0
281
     0
  0
CLASS
  1
ACMBOMSTANDARDANSI
  2
AcmBOMStdANSI
  3
"Amdt_StdImp|Product Description: AutoCAD Mechanical 2004 DX|Company: Autodesk"
 90
    32768
280
     0
281
     0
  0
CLASS
  1
ACMDETAILSTANDARDANSI
  2
AmdtDetailSymStdANSI
  3
"Amdt_StdImp|Product Description: AutoCAD Mechanical 2004 DX|Company: Autodesk"
 90
    32768
280
     0
281
     0
  0
CLASS
  1
ACMSECTIONSTANDARDANSI
  2
AmdtSectionSymStdANSI
  3
"Amdt_StdImp|Product Description: AutoCAD Mechanical 2004 DX|Company: Autodesk"
 90
    32768
280
     0
281
     0
  0
CLASS
  1
ACMCENTERLINESTANDARDANSI
  2
AmdtCenterLineStdANSI
  3
"Amdt_StdImp|Product Description: AutoCAD Mechanical 2004 DX|Company: Autodesk"
 90
    32768
280
     0
281
     0
  0
CLASS
  1
ACMTHREADLINESTANDARDANSI
  2
AmdtThreadLineStdANSI
  3
"Amdt_StdImp|Product Description: AutoCAD Mechanical 2004 DX|Company: Autodesk"
 90
    32768
280
     0
281
     0
  0
CLASS
  1
ACMNOTESTANDARDANSI
  2
AmdtNoteStdANSI
  3
"Amdt_StdImp|Product Description: AutoCAD Mechanical 2004 DX|Company: Autodesk"
 90
    32768
280
     0
281
     0
  0
CLASS
  1
ACAMGHOLECHARTSTDANSI
  2
AcAmgHoleChartStdANSI
  3
ACMSYMBB_MODULE_NAME
 90
    32768
280
     0
281
     0
  0
CLASS
  1
AMDTNOTE
  2
AmdtNote
  3
"AcmSymBB|Product Description: AutoCAD Mechanical 2004 DX|Company: Autodesk"
 90
     1023
280
     0
281
     1
  0
CLASS
  1
AMDTEDGESTANDARDISO13715
  2
AmdtEdgeStdISO13715
  3
"Amdt_StdImp|Product Description: AutoCAD Mechanical 2004 DX|Company: Autodesk"
 90
        0
280
     0
281
     0
  0
CLASS
  1
ACRFATTGENMGR
  2
AcRfAttGeneralMgr
  3
AcAttribServices
 90
        0
280
     0
281
     0
  0
CLASS
  1
STDPART2D
  2
AmgStdPart
  3
"AmgStdPart|Product Description: AutoCAD Mechanical 2000|Company: Autodesk"
 90
     1023
280
     0
281
     1
  0
CLASS
  1
ACAMSTDPCOMPDEF
  2
AcAmStdpCompDef
  3
DesignerAssemblies
 90
        0
280
     0
281
     0
  0
CLASS
  1
ACRFOBJATTMGR
  2
AcRfObjAttGroupMgr
  3
AcAttribServices
 90
        0
280
     0
281
     0
  0
CLASS
  1
ACRFMCADAPIATTHOLDER
  2
AcRfMCADAPIAttHolder
  3
AcAttribServices
 90
        0
280
     0
281
     0
  0
CLASS
  1
AMDTSYSATTR
  2
AmdtSystemAttribute
  3
AcAttribServices
 90
        0
280
     0
281
     0
  0
CLASS
  1
ACAMCOMP
  2
AcAmComp
  3
DesignerAssemblies
 90
        0
280
     0
281
     0
  0
CLASS
  1
AC_AM_STDP_VIEW_DEF
  2
AcAmStdpViewDef
  3
DesignerAssemblies
 90
        0
280
     0
281
     0
  0
CLASS
  1
AC_AM_MVD_DEP_MGR
  2
AcAmMVDdepMgr
  3
DesignerAssemblies
 90
        0
280
     0
281
     0
  0
CLASS
  1
AC_AM_MASTER_VIEW_DEF
  2
AcAmMasterViewDef
  3
DesignerAssemblies
 90
        0
280
     0
281
     0
  0
CLASS
  1
AC_AM_DIRTY_NODES
  2
AcAmDirtyNodes
  3
DesignerAssemblies
 90
        0
280
     0
281
     0
  0
CLASS
  1
AC_AM_MAPPER_CACHE
  2
AcAmMapperCache
  3
DesignerAssemblies
 90
        0
280
     0
281
     0
  0
CLASS
  1
ACAMMVDBACKUPOBJECT
  2
AcAmMVDBackupObject
  3
DesignerAssemblies
 90
        0
280
     0
281
     0
  0
CLASS
  1
AC_AM_COMP_VIEW_INST
  2
AcAmCompView
  3
DesignerAssemblies
 90
        0
280
     0
281
     0
  0
CLASS
  1
AC_AM_2D_XREF_MGR
  2
AcAmXrefMgr2d
  3
DesignerAssemblies
 90
        0
280
     0
281
     0
  0
CLASS
  1
SORTENTSTABLE
  2
AcDbSortentsTable
  3
ObjectDBX Classes
 90
        0
280
     0
281
     0
  0
ENDSEC
  0
SECTION
  2
TABLES
  0
TABLE
  2
VPORT
  5
8
330
0
100
AcDbSymbolTable
 70
    18
  0
VPORT
  5
3048
330
8
100
AcDbSymbolTableRecord
100
AcDbViewportTableRecord
  2
*Active
 70
     0
 10
0.0
 20
0.0
 11
1.0
 21
1.0
 12
2770.338271483431
 22
1520.951901264317
 13
0.0
 23
0.0
 14
2.5
 24
2.5
 15
10.0
 25
10.0
 16
0.0
 26
0.0
 36
1.0
 17
0.0
 27
0.0
 37
0.0
 40
554.6199172943788
 41
1.45516304347826
 42
50.0
 43
0.0
 44
0.0
 50
0.0
 51
0.0
 71
     0
 72
   100
 73
     1
 74
     3
 75
     0
 76
     0
 77
     0
 78
     0
281
     0
 65
     1
110
0.0
120
0.0
130
0.0
111
1.0
121
0.0
131
0.0
112
0.0
122
1.0
132
0.0
 79
     0
146
0.0
  0
ENDTAB
  0
TABLE
  2
LTYPE
  5
5
330
0
100
AcDbSymbolTable
 70
    15
  0
LTYPE
  5
14
330
5
100
AcDbSymbolTableRecord
100
AcDbLinetypeTableRecord
  2
ByBlock
 70
     0
  3

 72
    65
 73
     0
 40
0.0
  0
LTYPE
  5
15
330
5
100
AcDbSymbolTableRecord
100
AcDbLinetypeTableRecord
  2
ByLayer
 70
     0
  3

 72
    65
 73
     0
 40
0.0
  0
LTYPE
  5
16
330
5
100
AcDbSymbolTableRecord
100
AcDbLinetypeTableRecord
  2
Continuous
 70
     0
  3
Solid line
 72
    65
 73
     0
 40
0.0
  0
LTYPE
  5
64
330
5
100
AcDbSymbolTableRecord
100
AcDbLinetypeTableRecord
  2
AM_ISO02W050
 70
     0
  3
__ __ __ __ __ __ __ __ __ __ __ __ __ __ __
 72
    65
 73
     2
 40
7.5
 49
6.0
 74
     0
 49
-1.5
 74
     0
  0
LTYPE
  5
65
330
5
100
AcDbSymbolTableRecord
100
AcDbLinetypeTableRecord
  2
AM_ISO08W050
 70
     0
  3
____ . ____ . ____ . ____ . ____ . ____ . ____
 72
    65
 73
     4
 40
18.0
 49
12.0
 74
     0
 49
-1.5
 74
     0
 49
3.0
 74
     0
 49
-1.5
 74
     0
  0
LTYPE
  5
66
330
5
100
AcDbSymbolTableRecord
100
AcDbLinetypeTableRecord
  2
AM_ISO09W050
 70
     0
  3
_____ . . _____ . . _____ . . ____ .. ____
 72
    65
 73
     6
 40
22.5
 49
12.0
 74
     0
 49
-1.5
 74
     0
 49
3.0
 74
     0
 49
-1.5
 74
     0
 49
3.0
 74
     0
 49
-1.5
 74
     0
  0
LTYPE
  5
67
330
5
100
AcDbSymbolTableRecord
100
AcDbLinetypeTableRecord
  2
Amconstr
 70
     0
  3
_______________________
 72
    65
 73
     2
 40
9999.0
 49
9999.0
 74
     0
 49
0.0
 74
     0
  0
LTYPE
  5
68
330
5
100
AcDbSymbolTableRecord
100
AcDbLinetypeTableRecord
  2
AM_ISO08W050x2
 70
     0
  3
__ . __ . __ . __ . __ . __
 72
    65
 73
     4
 40
9.0
 49
6.0
 74
     0
 49
-0.75
 74
     0
 49
1.5
 74
     0
 49
-0.75
 74
     0
  0
LTYPE
  5
69
330
5
100
AcDbSymbolTableRecord
100
AcDbLinetypeTableRecord
  2
AM_ISO02W050x2
 70
     0
  3
 _ _ _ _ _ _ _ _ _ _ _ _
 72
    65
 73
     2
 40
3.75
 49
3.0
 74
     0
 49
-0.75
 74
     0
  0
LTYPE
  5
6C
330
5
100
AcDbSymbolTableRecord
100
AcDbLinetypeTableRecord
  2
Amzigzag
 70
     0
  3
/\/-/\/-/\/-/\/-/\/-/\/
 72
    65
 73
     2
 40
11.0001
 49
0.0001
 74
     4
 75
   135
340
6B
 46
0.04
 50
0.0
 44
0.0
 45
0.0
 49
-11.0
 74
     0
  0
LTYPE
  5
7A
330
5
100
AcDbSymbolTableRecord
100
AcDbLinetypeTableRecord
  2
ACISOWELD
 70
     0
  3
_ _ _ _ _
 72
    65
 73
     2
 40
2.0
 49
2.0
 74
     0
 49
-1.0
 74
     0
  0
LTYPE
  5
7B
330
5
100
AcDbSymbolTableRecord
100
AcDbLinetypeTableRecord
  2
ACISOTGB
 70
     0
  3
__ . . __ . .
 72
    65
 73
     6
 40
9.0
 49
4.0
 74
     0
 49
-1.0
 74
     0
 49
1.0
 74
     0
 49
-1.0
 74
     0
 49
1.0
 74
     0
 49
-1.0
 74
     0
  0
LTYPE
  5
7C
330
5
100
AcDbSymbolTableRecord
100
AcDbLinetypeTableRecord
  2
ACISOTGL
 70
     0
  3
_ _ _ _ _
 72
    65
 73
     2
 40
3.0
 49
2.0
 74
     0
 49
-1.0
 74
     0
  0
LTYPE
  5
7E
330
5
100
AcDbSymbolTableRecord
100
AcDbLinetypeTableRecord
  2
CENTER
 70
     0
  3
__ . __
 72
    65
 73
     4
 40
7.0
 49
4.0
 74
     0
 49
-1.0
 74
     0
 49
1.0
 74
     0
 49
-1.0
 74
     0
  0
LTYPE
  5
D8
330
5
100
AcDbSymbolTableRecord
100
AcDbLinetypeTableRecord
  2
HIDDEN
 70
     0
  3
Hidden __ __ __ __ __ __ __ __ __ __ __ __ __ _
 72
    65
 73
     2
 40
9.524999999999998
 49
6.349999999999999
 74
     0
 49
-3.174999999999999
 74
     0
  0
LTYPE
  5
D9
330
5
100
AcDbSymbolTableRecord
100
AcDbLinetypeTableRecord
  2
PHANTOM2
 70
     0
  3
Phantom (.5x) ___ _ _ ___ _ _ ___ _ _ ___ _ _
 72
    65
 73
     6
 40
31.75
 49
15.875
 74
     0
 49
-3.174999999999999
 74
     0
 49
3.174999999999999
 74
     0
 49
-3.174999999999999
 74
     0
 49
3.174999999999999
 74
     0
 49
-3.174999999999999
 74
     0
  0
ENDTAB
  0
TABLE
  2
LAYER
  5
2
102
{ACAD_XDICTIONARY
360
3F9
102
}
330
0
100
AcDbSymbolTable
 70
     9
  0
LAYER
  5
10
330
2
100
AcDbSymbolTableRecord
100
AcDbLayerTableRecord
  2
0
 70
     0
 62
     7
  6
Continuous
370
    -3
390
F
  0
LAYER
  5
870
330
2
100
AcDbSymbolTableRecord
100
AcDbLayerTableRecord
  2
AM_7
 70
     0
 62
     1
  6
CENTER
370
    25
390
F
  0
LAYER
  5
875
330
2
100
AcDbSymbolTableRecord
100
AcDbLayerTableRecord
  2
AM_5
 70
     0
 62
     5
  6
Continuous
370
    50
390
F
  0
LAYER
  5
885
330
2
100
AcDbSymbolTableRecord
100
AcDbLayerTableRecord
  2
Defpoints
 70
     0
 62
     7
  6
Continuous
290
     0
370
    -3
390
F
  0
LAYER
  5
1364
330
2
100
AcDbSymbolTableRecord
100
AcDbLayerTableRecord
  2
LOGO
 70
     0
 62
     7
  6
Continuous
370
    -3
390
F
  0
ENDTAB
  0
TABLE
  2
STYLE
  5
3
330
0
100
AcDbSymbolTable
 70
     6
  0
STYLE
  5
11
330
3
100
AcDbSymbolTableRecord
100
AcDbTextStyleTableRecord
  2
STANDARD
 70
     0
 40
0.0
 41
1.0
 50
0.0
 71
     0
 42
3.0
  3
ISOCP.SHX
  4
CHINESET.SHX
  0
STYLE
  5
6B
330
3
100
AcDbSymbolTableRecord
100
AcDbTextStyleTableRecord
  2

 70
     1
 40
0.0
 41
1.0
 50
0.0
 71
     0
 42
2.5
  3
ltypeshp.shx
  4

  0
STYLE
  5
6D
330
3
100
AcDbSymbolTableRecord
100
AcDbTextStyleTableRecord
  2
ACISOTS
 70
     0
 40
1.0
 41
1.0
 50
0.0
 71
     0
 42
1.0
  3
isocp.shx
  4
chineset.shx
  0
STYLE
  5
79
330
3
100
AcDbSymbolTableRecord
100
AcDbTextStyleTableRecord
  2
ACISOGDT
 70
     0
 40
0.0
 41
1.0
 50
0.0
 71
     0
 42
2.5
  3
amgdt.shx
  4
chineset.shx
  0
STYLE
  5
60C
330
3
100
AcDbSymbolTableRecord
100
AcDbTextStyleTableRecord
  2
CHINESET
 70
     0
 40
0.0
 41
0.75
 50
0.0
 71
     0
 42
3.0
  3
simplex.shx
  4
CHINESET.SHX
  0
ENDTAB
  0
TABLE
  2
VIEW
  5
6
330
0
100
AcDbSymbolTable
 70
     0
  0
ENDTAB
  0
TABLE
  2
UCS
  5
7
330
0
100
AcDbSymbolTable
 70
     0
  0
ENDTAB
  0
TABLE
  2
APPID
  5
9
330
0
100
AcDbSymbolTable
 70
    24
  0
APPID
  5
12
330
9
100
AcDbSymbolTableRecord
100
AcDbRegAppTableRecord
  2
ACAD
 70
     0
  0
APPID
  5
46
330
9
100
AcDbSymbolTableRecord
100
AcDbRegAppTableRecord
  2
MCAD_NO_VIS
 70
     0
  0
APPID
  5
47
330
9
100
AcDbSymbolTableRecord
100
AcDbRegAppTableRecord
  2
ACAD_TEMP_GRAPHIC
 70
     0
  0
APPID
  5
58
330
9
100
AcDbSymbolTableRecord
100
AcDbRegAppTableRecord
  2
ACATTRIBSERVICES
 70
     0
  0
APPID
  5
EE
330
9
100
AcDbSymbolTableRecord
100
AcDbRegAppTableRecord
  2
AD_DRAW
 70
     0
  0
APPID
  5
10C
330
9
100
AcDbSymbolTableRecord
100
AcDbRegAppTableRecord
  2
DESIGNERASSEMBLIES
 70
     0
  0
APPID
  5
111
330
9
100
AcDbSymbolTableRecord
100
AcDbRegAppTableRecord
  2
ACADM_DIM_EDIT
 70
     0
  0
APPID
  5
112
330
9
100
AcDbSymbolTableRecord
100
AcDbRegAppTableRecord
  2
AMDT_DM_ADJ
 70
     0
  0
APPID
  5
22C
330
9
100
AcDbSymbolTableRecord
100
AcDbRegAppTableRecord
  2
ACAD_DSTYLE_DIMTEXT_FILL
 70
     0
  0
APPID
  5
452
330
9
100
AcDbSymbolTableRecord
100
AcDbRegAppTableRecord
  2
GENIUS_GENOENT_13
 70
     0
  0
APPID
  5
453
330
9
100
AcDbSymbolTableRecord
100
AcDbRegAppTableRecord
  2
GENIUS_GENOBJ-N-CRS_13
 70
     0
  0
APPID
  5
454
330
9
100
AcDbSymbolTableRecord
100
AcDbRegAppTableRecord
  2
GENIUS_GENOLIS_13
 70
     0
  0
APPID
  5
455
330
9
100
AcDbSymbolTableRecord
100
AcDbRegAppTableRecord
  2
GENIUS_GENODEF_13
 70
     0
  0
APPID
  5
456
330
9
100
AcDbSymbolTableRecord
100
AcDbRegAppTableRecord
  2
GENIUS_GENOREF_13
 70
     0
  0
APPID
  5
6F3
330
9
100
AcDbSymbolTableRecord
100
AcDbRegAppTableRecord
  2
ACAD_PSEXT
 70
     0
  0
APPID
  5
872
330
9
100
AcDbSymbolTableRecord
100
AcDbRegAppTableRecord
  2
GENIUS_GENOBJ-N-CEN_13
 70
     0
  0
APPID
  5
873
330
9
100
AcDbSymbolTableRecord
100
AcDbRegAppTableRecord
  2
GENIUS_GENCEN_19
 70
     0
  0
APPID
  5
1365
330
9
100
AcDbSymbolTableRecord
100
AcDbRegAppTableRecord
  2
GENIUS_GENREC_14
 70
     0
  0
APPID
  5
1366
330
9
100
AcDbSymbolTableRecord
100
AcDbRegAppTableRecord
  2
GENIUS_GENOBJ-N-REC_13
 70
     0
  0
APPID
  5
2FF0
330
9
100
AcDbSymbolTableRecord
100
AcDbRegAppTableRecord
  2
GEVID1190771415
 70
     0
  0
APPID
  5
2FF1
330
9
100
AcDbSymbolTableRecord
100
AcDbRegAppTableRecord
  2
GEVDC
 70
     0
  0
APPID
  5
2FFB
330
9
100
AcDbSymbolTableRecord
100
AcDbRegAppTableRecord
  2
AMG_2DHIDE
 70
     0
  0
APPID
  5
2FFC
330
9
100
AcDbSymbolTableRecord
100
AcDbRegAppTableRecord
  2
AMG_2DSTRUCT_BTR
 70
     0
  0
APPID
  5
300D
330
9
100
AcDbSymbolTableRecord
100
AcDbRegAppTableRecord
  2
ACADM_2DVIEW_IGN_NOTIFY
 70
     0
  0
ENDTAB
  0
TABLE
  2
DIMSTYLE
  5
A
330
0
100
AcDbSymbolTable
 70
     9
100
AcDbDimStyleTable
 71
     3
340
81
340
8B
340
86
  0
DIMSTYLE
105
81
330
A
100
AcDbSymbolTableRecord
100
AcDbDimStyleTableRecord
  2
AM_ISO
 70
     0
  4
"
 41
3.0
 42
1.0
 43
8.0
 44
1.5
 47
0.1
 48
0.1
 73
     0
 74
     0
 77
     1
 78
     8
 79
     2
140
3.0
141
0.0
143
0.0393701
146
0.71
147
1.0
172
     1
176
   256
177
   256
178
   256
271
     2
272
     2
283
     0
284
     8
340
60C
371
    -1
372
    -1
  0
DIMSTYLE
105
82
102
{ACAD_REACTORS
330
2330
330
2358
330
23DC
102
}
330
A
100
AcDbSymbolTableRecord
100
AcDbDimStyleTableRecord
  2
AM_ISO$3
 70
     0
  4
"
 41
3.0
 42
1.0
 43
8.0
 44
1.5
 47
0.1
 48
0.1
 73
     0
 77
     1
 78
     8
 79
     2
140
3.0
141
0.0
143
0.0393701
146
0.71
147
1.0
176
   256
177
   256
178
   256
271
     2
272
     2
283
     0
284
     8
288
     1
289
     0
340
60C
371
    -1
372
    -1
  0
DIMSTYLE
105
83
330
A
100
AcDbSymbolTableRecord
100
AcDbDimStyleTableRecord
  2
AM_ISO$4
 70
     0
  4
"
 41
3.0
 42
1.0
 43
8.0
 44
1.5
 47
0.1
 48
0.1
 73
     0
 77
     1
 78
     8
 79
     2
140
3.0
141
0.0
143
0.0393701
146
0.71
147
1.0
176
   256
177
   256
178
   256
271
     2
272
     2
283
     0
284
     8
288
     1
289
     0
340
60C
371
    -1
372
    -1
  0
DIMSTYLE
105
84
330
A
100
AcDbSymbolTableRecord
100
AcDbDimStyleTableRecord
  2
AM_ISO$6
 70
     0
  4
"
 41
3.0
 42
1.0
 43
8.0
 44
1.5
 47
0.1
 48
0.1
 73
     0
 74
     0
 78
     8
 79
     2
140
3.0
141
0.0
143
0.0393701
146
0.71
147
1.0
172
     1
176
   256
177
   256
178
   256
271
     2
272
     2
283
     0
284
     8
340
60C
371
    -1
372
    -1
  0
DIMSTYLE
105
85
330
A
100
AcDbSymbolTableRecord
100
AcDbDimStyleTableRecord
  2
AM_ISO$7
 70
     0
  4
"
 41
3.0
 42
1.0
 43
8.0
 44
1.5
 47
0.1
 48
0.1
 73
     0
 74
     0
 77
     1
 78
     8
 79
     2
140
5.0
141
0.0
143
0.0393701
146
0.71
147
1.0
172
     1
176
   256
177
   256
178
   256
271
     2
272
     2
283
     0
284
     8
340
60C
371
    -1
372
    -1
  0
DIMSTYLE
105
86
330
A
100
AcDbSymbolTableRecord
100
AcDbDimStyleTableRecord
  2
AM_ISO$SF
 70
     0
  4
"
 41
2.5
 42
1.0
 43
10.0
 44
1.0
 47
0.1
 48
0.1
 73
     0
 74
     0
 75
     1
 76
     1
 77
     1
 78
     8
 79
     2
140
3.5
141
0.0
143
0.0393701
146
0.71
147
1.5
172
     1
176
   256
177
   256
178
     2
271
     2
272
     3
274
     4
283
     0
284
     8
340
11
371
    -1
372
    -1
  0
DIMSTYLE
105
8B
330
A
100
AcDbSymbolTableRecord
100
AcDbDimStyleTableRecord
  2
AM_ISO$SH
 70
     0
  4
"
 41
2.5
 42
1.0
 43
10.0
 44
1.0
 47
0.1
 48
0.1
 73
     0
 74
     0
 75
     1
 76
     1
 77
     1
 78
     8
 79
     2
140
3.5
141
0.0
143
0.0393701
144
2.0
146
0.71
147
1.5
172
     1
173
     1
176
   256
177
   256
178
     2
271
     2
272
     3
274
     4
283
     0
284
     8
340
11
343
87
371
    -1
372
    -1
  0
DIMSTYLE
105
40B
102
{ACAD_REACTORS
330
1F7E
330
1FA8
330
1FCE
330
1FF4
330
201E
330
20E2
330
20E5
330
20E8
330
20EB
330
20EE
330
21D7
330
2207
330
2237
330
225D
330
2283
330
22A9
330
22CF
330
22F5
330
2418
330
243E
330
2464
330
248A
330
24FF
330
2C2B
330
2D73
330
2DB8
330
2E5B
330
2E94
102
}
330
A
100
AcDbSymbolTableRecord
100
AcDbDimStyleTableRecord
  2
AM_ISO$0
 70
     0
  4
"
 41
3.0
 42
1.0
 43
8.0
 44
1.5
 47
0.1
 48
0.1
 73
     0
 74
     0
 77
     1
 78
     8
 79
     2
140
3.0
141
0.0
143
0.0393701
146
0.71
147
1.0
172
     1
176
   256
177
   256
178
   256
271
     2
272
     2
283
     0
284
     8
340
60C
371
    -1
372
    -1
  0
ENDTAB
  0
TABLE
  2
BLOCK_RECORD
  5
1
330
0
100
AcDbSymbolTable
 70
    42
  0
BLOCK_RECORD
  5
1F
102
{ACAD_XDICTIONARY
360
8F
102
}
330
1
100
AcDbSymbolTableRecord
100
AcDbBlockTableRecord
  2
*Model_Space
340
22
  0
BLOCK_RECORD
  5
1B
330
1
100
AcDbSymbolTableRecord
100
AcDbBlockTableRecord
  2
*Paper_Space
340
1E
  0
BLOCK_RECORD
  5
23
330
1
100
AcDbSymbolTableRecord
100
AcDbBlockTableRecord
  2
*Paper_Space0
340
26
  0
BLOCK_RECORD
  5
87
330
1
100
AcDbSymbolTableRecord
100
AcDbBlockTableRecord
  2
GENAXEH
340
0
  0
BLOCK_RECORD
  5
1F7F
330
1
100
AcDbSymbolTableRecord
100
AcDbBlockTableRecord
  2
*D3
340
0
  0
BLOCK_RECORD
  5
1FA9
330
1
100
AcDbSymbolTableRecord
100
AcDbBlockTableRecord
  2
*D4
340
0
  0
BLOCK_RECORD
  5
1FCF
330
1
100
AcDbSymbolTableRecord
100
AcDbBlockTableRecord
  2
*D5
340
0
  0
BLOCK_RECORD
  5
1FF5
330
1
100
AcDbSymbolTableRecord
100
AcDbBlockTableRecord
  2
*D6
340
0
  0
BLOCK_RECORD
  5
201F
330
1
100
AcDbSymbolTableRecord
100
AcDbBlockTableRecord
  2
*D7
340
0
  0
BLOCK_RECORD
  5
20F1
330
1
100
AcDbSymbolTableRecord
100
AcDbBlockTableRecord
  2
*D8
340
0
  0
BLOCK_RECORD
  5
20FF
330
1
100
AcDbSymbolTableRecord
100
AcDbBlockTableRecord
  2
*D9
340
0
  0
BLOCK_RECORD
  5
210B
330
1
100
AcDbSymbolTableRecord
100
AcDbBlockTableRecord
  2
*D10
340
0
  0
BLOCK_RECORD
  5
2117
330
1
100
AcDbSymbolTableRecord
100
AcDbBlockTableRecord
  2
*D11
340
0
  0
BLOCK_RECORD
  5
2125
330
1
100
AcDbSymbolTableRecord
100
AcDbBlockTableRecord
  2
*D12
340
0
  0
BLOCK_RECORD
  5
21D8
330
1
100
AcDbSymbolTableRecord
100
AcDbBlockTableRecord
  2
*D13
340
0
  0
BLOCK_RECORD
  5
2208
330
1
100
AcDbSymbolTableRecord
100
AcDbBlockTableRecord
  2
*D14
340
0
  0
BLOCK_RECORD
  5
2238
330
1
100
AcDbSymbolTableRecord
100
AcDbBlockTableRecord
  2
*D15
340
0
  0
BLOCK_RECORD
  5
225E
330
1
100
AcDbSymbolTableRecord
100
AcDbBlockTableRecord
  2
*D16
340
0
  0
BLOCK_RECORD
  5
2284
330
1
100
AcDbSymbolTableRecord
100
AcDbBlockTableRecord
  2
*D17
340
0
  0
BLOCK_RECORD
  5
22AA
330
1
100
AcDbSymbolTableRecord
100
AcDbBlockTableRecord
  2
*D18
340
0
  0
BLOCK_RECORD
  5
22D0
330
1
100
AcDbSymbolTableRecord
100
AcDbBlockTableRecord
  2
*D19
340
0
  0
BLOCK_RECORD
  5
22F6
330
1
100
AcDbSymbolTableRecord
100
AcDbBlockTableRecord
  2
*D20
340
0
  0
BLOCK_RECORD
  5
2331
330
1
100
AcDbSymbolTableRecord
100
AcDbBlockTableRecord
  2
*D21
340
0
  0
BLOCK_RECORD
  5
2359
330
1
100
AcDbSymbolTableRecord
100
AcDbBlockTableRecord
  2
*D22
340
0
  0
BLOCK_RECORD
  5
23DD
330
1
100
AcDbSymbolTableRecord
100
AcDbBlockTableRecord
  2
*D23
340
0
  0
BLOCK_RECORD
  5
2419
330
1
100
AcDbSymbolTableRecord
100
AcDbBlockTableRecord
  2
*D24
340
0
  0
BLOCK_RECORD
  5
243F
330
1
100
AcDbSymbolTableRecord
100
AcDbBlockTableRecord
  2
*D25
340
0
  0
BLOCK_RECORD
  5
2465
330
1
100
AcDbSymbolTableRecord
100
AcDbBlockTableRecord
  2
*D26
340
0
  0
BLOCK_RECORD
  5
248B
330
1
100
AcDbSymbolTableRecord
100
AcDbBlockTableRecord
  2
*D27
340
0
  0
BLOCK_RECORD
  5
2500
330
1
100
AcDbSymbolTableRecord
100
AcDbBlockTableRecord
  2
*D28
340
0
  0
BLOCK_RECORD
  5
2C2C
330
1
100
AcDbSymbolTableRecord
100
AcDbBlockTableRecord
  2
*D29
340
0
  0
BLOCK_RECORD
  5
2C71
330
1
100
AcDbSymbolTableRecord
100
AcDbBlockTableRecord
  2
*S30
340
0
102
{BLKREFS
331
24C5
102
}
  0
BLOCK_RECORD
  5
2C79
330
1
100
AcDbSymbolTableRecord
100
AcDbBlockTableRecord
  2
*S31
340
0
102
{BLKREFS
331
24C8
102
}
  0
BLOCK_RECORD
  5
2D74
330
1
100
AcDbSymbolTableRecord
100
AcDbBlockTableRecord
  2
*D32
340
0
  0
BLOCK_RECORD
  5
2DB9
330
1
100
AcDbSymbolTableRecord
100
AcDbBlockTableRecord
  2
*D33
340
0
  0
BLOCK_RECORD
  5
2E5C
330
1
100
AcDbSymbolTableRecord
100
AcDbBlockTableRecord
  2
*D34
340
0
  0
BLOCK_RECORD
  5
2E95
330
1
100
AcDbSymbolTableRecord
100
AcDbBlockTableRecord
  2
*D35
340
0
  0
BLOCK_RECORD
  5
3012
330
1
100
AcDbSymbolTableRecord
100
AcDbBlockTableRecord
  2
*U40
340
0
  0
ENDTAB
  0
ENDSEC
  0
SECTION
  2
BLOCKS
  0
BLOCK
  5
20
330
1F
100
AcDbEntity
  8
0
100
AcDbBlockBegin
  2
*Model_Space
 70
     0
 10
0.0
 20
0.0
 30
0.0
  3
*Model_Space
  1

  0
ENDBLK
  5
21
330
1F
100
AcDbEntity
  8
0
100
AcDbBlockEnd
  0
BLOCK
  5
1C
330
1B
100
AcDbEntity
 67
     1
  8
0
100
AcDbBlockBegin
  2
*Paper_Space
 70
     0
 10
0.0
 20
0.0
 30
0.0
  3
*Paper_Space
  1

  0
ENDBLK
  5
1D
330
1B
100
AcDbEntity
 67
     1
  8
0
100
AcDbBlockEnd
  0
BLOCK
  5
24
330
23
100
AcDbEntity
  8
0
100
AcDbBlockBegin
  2
*Paper_Space0
 70
     0
 10
0.0
 20
0.0
 30
0.0
  3
*Paper_Space0
  1

  0
ENDBLK
  5
25
330
23
100
AcDbEntity
  8
0
100
AcDbBlockEnd
  0
BLOCK
  5
89
330
87
100
AcDbEntity
  8
0
100
AcDbBlockBegin
  2
GENAXEH
 70
     0
 10
0.0
 20
0.0
 30
0.0
  3
GENAXEH
  1

  0
LINE
  5
88
330
87
100
AcDbEntity
  8
0
100
AcDbLine
 10
-1.0
 20
0.0
 30
0.0
 11
1.0
 21
0.0
 31
0.0
  0
ENDBLK
  5
8A
330
87
100
AcDbEntity
  8
0
100
AcDbBlockEnd
  0
BLOCK
  5
1F8B
330
1F7F
100
AcDbEntity
  8
0
100
AcDbBlockBegin
  2
*D3
 70
     1
 10
0.0
 20
0.0
 30
0.0
  3
*D3
  1

  0
LINE
  5
2B05
330
1F7F
100
AcDbEntity
  8
AM_5
100
AcDbLine
 10
2685.773982606844
 20
1633.364813206626
 30
0.0
 11
2699.023982606844
 21
1633.364813206626
 31
0.0
  0
LINE
  5
2B06
330
1F7F
100
AcDbEntity
  8
AM_5
100
AcDbLine
 10
2686.773982606844
 20
1641.364813206626
 30
0.0
 11
2699.023982606844
 21
1641.364813206626
 31
0.0
  0
LINE
  5
2B07
330
1F7F
100
AcDbEntity
  8
AM_5
100
AcDbLine
 10
2697.523982606844
 20
1630.364813206626
 30
0.0
 11
2697.523982606844
 21
1627.364813206626
 31
0.0
  0
LINE
  5
2B08
330
1F7F
100
AcDbEntity
  8
AM_5
100
AcDbLine
 10
2697.523982606844
 20
1644.364813206626
 30
0.0
 11
2697.523982606844
 21
1647.364813206626
 31
0.0
  0
LINE
  5
2B09
330
1F7F
100
AcDbEntity
  8
AM_5
100
AcDbLine
 10
2697.523982606844
 20
1633.364813206626
 30
0.0
 11
2697.523982606844
 21
1641.364813206626
 31
0.0
  0
SOLID
  5
2B0A
330
1F7F
100
AcDbEntity
  8
AM_5
100
AcDbTrace
 10
2697.023982606844
 20
1630.364813206626
 30
0.0
 11
2698.023982606844
 21
1630.364813206626
 31
0.0
 12
2697.523982606844
 22
1633.364813206626
 32
0.0
 13
2697.523982606844
 23
1633.364813206626
 33
0.0
  0
SOLID
  5
2B0B
330
1F7F
100
AcDbEntity
  8
AM_5
100
AcDbTrace
 10
2697.023982606844
 20
1644.364813206626
 30
0.0
 11
2698.023982606844
 21
1644.364813206626
 31
0.0
 12
2697.523982606844
 22
1641.364813206626
 32
0.0
 13
2697.523982606844
 23
1641.364813206626
 33
0.0
  0
MTEXT
  5
2B0C
330
1F7F
100
AcDbEntity
  8
AM_5
100
AcDbMText
 10
2695.023982606844
 20
1637.364813206626
 30
0.0
 40
3.0
 41
0.0
 71
     5
 72
     1
  1
8
  7
CHINESET
 11
0.0000000000000001
 21
1.0
 31
0.0
 73
     1
 44
1.0
1001
ACAD
1000
MTEXTBEGIN
1070
    73
1070
     1
1070
    44
1040
1.0
1070
    74
1070
     0
1000
MTEXTEND
  0
POINT
  5
2B0D
330
1F7F
100
AcDbEntity
  8
Defpoints
 62
     0
100
AcDbPoint
 10
2684.773982606844
 20
1633.364813206626
 30
0.0
  0
POINT
  5
2B0E
330
1F7F
100
AcDbEntity
  8
Defpoints
 62
     0
100
AcDbPoint
 10
2685.773982606844
 20
1641.364813206626
 30
0.0
  0
POINT
  5
2B0F
330
1F7F
100
AcDbEntity
  8
Defpoints
 62
     0
100
AcDbPoint
 10
2697.523982606844
 20
1641.364813206626
 30
0.0
  0
ENDBLK
  5
1F8C
330
1F7F
100
AcDbEntity
  8
0
100
AcDbBlockEnd
  0
BLOCK
  5
1FB3
330
1FA9
100
AcDbEntity
  8
0
100
AcDbBlockBegin
  2
*D4
 70
     1
 10
0.0
 20
0.0
 30
0.0
  3
*D4
  1

  0
LINE
  5
2B10
330
1FA9
100
AcDbEntity
  8
AM_5
100
AcDbLine
 10
2685.773982606844
 20
1633.364813206626
 30
0.0
 11
2707.023982606844
 21
1633.364813206626
 31
0.0
  0
LINE
  5
2B11
330
1FA9
100
AcDbEntity
  8
AM_5
100
AcDbLine
 10
2683.713537298306
 20
1687.364813206626
 30
0.0
 11
2707.023982606844
 21
1687.364813206626
 31
0.0
  0
LINE
  5
2B12
330
1FA9
100
AcDbEntity
  8
AM_5
100
AcDbLine
 10
2705.523982606844
 20
1636.364813206626
 30
0.0
 11
2705.523982606844
 21
1684.364813206626
 31
0.0
  0
SOLID
  5
2B13
330
1FA9
100
AcDbEntity
  8
AM_5
100
AcDbTrace
 10
2705.023982606844
 20
1636.364813206626
 30
0.0
 11
2706.023982606844
 21
1636.364813206626
 31
0.0
 12
2705.523982606844
 22
1633.364813206626
 32
0.0
 13
2705.523982606844
 23
1633.364813206626
 33
0.0
  0
SOLID
  5
2B14
330
1FA9
100
AcDbEntity
  8
AM_5
100
AcDbTrace
 10
2705.023982606844
 20
1684.364813206626
 30
0.0
 11
2706.023982606844
 21
1684.364813206626
 31
0.0
 12
2705.523982606844
 22
1687.364813206626
 32
0.0
 13
2705.523982606844
 23
1687.364813206626
 33
0.0
  0
MTEXT
  5
2B15
330
1FA9
100
AcDbEntity
  8
AM_5
100
AcDbMText
 10
2703.023982606844
 20
1660.364813206626
 30
0.0
 40
3.0
 41
0.0
 71
     5
 72
     1
  1
54
  7
CHINESET
 11
0.0000000000000001
 21
1.0
 31
0.0
 73
     1
 44
1.0
1001
ACAD
1000
MTEXTBEGIN
1070
    73
1070
     1
1070
    44
1040
1.0
1070
    74
1070
     0
1000
MTEXTEND
  0
POINT
  5
2B16
330
1FA9
100
AcDbEntity
  8
Defpoints
 62
     0
100
AcDbPoint
 10
2684.773982606844
 20
1633.364813206626
 30
0.0
  0
POINT
  5
2B17
330
1FA9
100
AcDbEntity
  8
Defpoints
 62
     0
100
AcDbPoint
 10
2682.713537298306
 20
1687.364813206626
 30
0.0
  0
POINT
  5
2B18
330
1FA9
100
AcDbEntity
  8
Defpoints
 62
     0
100
AcDbPoint
 10
2705.523982606844
 20
1687.364813206626
 30
0.0
  0
ENDBLK
  5
1FB4
330
1FA9
100
AcDbEntity
  8
0
100
AcDbBlockEnd
  0
BLOCK
  5
1FD9
330
1FCF
100
AcDbEntity
  8
0
100
AcDbBlockBegin
  2
*D5
 70
     1
 10
0.0
 20
0.0
 30
0.0
  3
*D5
  1

  0
LINE
  5
2B19
330
1FCF
100
AcDbEntity
  8
AM_5
100
AcDbLine
 10
2685.773982606844
 20
1633.364813206626
 30
0.0
 11
2715.023982606844
 21
1633.364813206626
 31
0.0
  0
LINE
  5
2B1A
330
1FCF
100
AcDbEntity
  8
AM_5
100
AcDbLine
 10
2679.601412171243
 20
1712.364813206626
 30
0.0
 11
2715.023982606844
 21
1712.364813206626
 31
0.0
  0
LINE
  5
2B1B
330
1FCF
100
AcDbEntity
  8
AM_5
100
AcDbLine
 10
2713.523982606844
 20
1636.364813206626
 30
0.0
 11
2713.523982606844
 21
1709.364813206626
 31
0.0
  0
SOLID
  5
2B1C
330
1FCF
100
AcDbEntity
  8
AM_5
100
AcDbTrace
 10
2713.023982606844
 20
1636.364813206626
 30
0.0
 11
2714.023982606844
 21
1636.364813206626
 31
0.0
 12
2713.523982606844
 22
1633.364813206626
 32
0.0
 13
2713.523982606844
 23
1633.364813206626
 33
0.0
  0
SOLID
  5
2B1D
330
1FCF
100
AcDbEntity
  8
AM_5
100
AcDbTrace
 10
2713.023982606844
 20
1709.364813206626
 30
0.0
 11
2714.023982606844
 21
1709.364813206626
 31
0.0
 12
2713.523982606844
 22
1712.364813206626
 32
0.0
 13
2713.523982606844
 23
1712.364813206626
 33
0.0
  0
MTEXT
  5
2B1E
330
1FCF
100
AcDbEntity
  8
AM_5
100
AcDbMText
 10
2711.023982606844
 20
1672.864813206626
 30
0.0
 40
3.0
 41
0.0
 71
     5
 72
     1
  1
79
  7
CHINESET
 11
0.0000000000000001
 21
1.0
 31
0.0
 73
     1
 44
1.0
1001
ACAD
1000
MTEXTBEGIN
1070
    73
1070
     1
1070
    44
1040
1.0
1070
    74
1070
     0
1000
MTEXTEND
  0
POINT
  5
2B1F
330
1FCF
100
AcDbEntity
  8
Defpoints
 62
     0
100
AcDbPoint
 10
2684.773982606844
 20
1633.364813206626
 30
0.0
  0
POINT
  5
2B20
330
1FCF
100
AcDbEntity
  8
Defpoints
 62
     0
100
AcDbPoint
 10
2678.601412171243
 20
1712.364813206626
 30
0.0
  0
POINT
  5
2B21
330
1FCF
100
AcDbEntity
  8
Defpoints
 62
     0
100
AcDbPoint
 10
2713.523982606844
 20
1712.364813206626
 30
0.0
  0
ENDBLK
  5
1FDA
330
1FCF
100
AcDbEntity
  8
0
100
AcDbBlockEnd
  0
BLOCK
  5
2001
330
1FF5
100
AcDbEntity
  8
0
100
AcDbBlockBegin
  2
*D6
 70
     1
 10
0.0
 20
0.0
 30
0.0
  3
*D6
  1

  0
LINE
  5
2B22
330
1FF5
100
AcDbEntity
  8
AM_5
100
AcDbLine
 10
2679.601412171243
 20
1712.364813206626
 30
0.0
 11
2699.023982606844
 21
1712.364813206626
 31
0.0
  0
LINE
  5
2B23
330
1FF5
100
AcDbEntity
  8
AM_5
100
AcDbLine
 10
2682.023982606844
 20
1704.364813206626
 30
0.0
 11
2699.023982606844
 21
1704.364813206626
 31
0.0
  0
LINE
  5
2B24
330
1FF5
100
AcDbEntity
  8
AM_5
100
AcDbLine
 10
2697.523982606844
 20
1715.364813206626
 30
0.0
 11
2697.523982606844
 21
1718.364813206626
 31
0.0
  0
LINE
  5
2B25
330
1FF5
100
AcDbEntity
  8
AM_5
100
AcDbLine
 10
2697.523982606844
 20
1701.364813206626
 30
0.0
 11
2697.523982606844
 21
1698.364813206626
 31
0.0
  0
LINE
  5
2B26
330
1FF5
100
AcDbEntity
  8
AM_5
100
AcDbLine
 10
2697.523982606844
 20
1712.364813206626
 30
0.0
 11
2697.523982606844
 21
1704.364813206626
 31
0.0
  0
SOLID
  5
2B27
330
1FF5
100
AcDbEntity
  8
AM_5
100
AcDbTrace
 10
2697.023982606844
 20
1715.364813206626
 30
0.0
 11
2698.023982606844
 21
1715.364813206626
 31
0.0
 12
2697.523982606844
 22
1712.364813206626
 32
0.0
 13
2697.523982606844
 23
1712.364813206626
 33
0.0
  0
SOLID
  5
2B28
330
1FF5
100
AcDbEntity
  8
AM_5
100
AcDbTrace
 10
2697.023982606844
 20
1701.364813206626
 30
0.0
 11
2698.023982606844
 21
1701.364813206626
 31
0.0
 12
2697.523982606844
 22
1704.364813206626
 32
0.0
 13
2697.523982606844
 23
1704.364813206626
 33
0.0
  0
MTEXT
  5
2B29
330
1FF5
100
AcDbEntity
  8
AM_5
100
AcDbMText
 10
2695.023982606844
 20
1708.364813206626
 30
0.0
 40
3.0
 41
0.0
 71
     5
 72
     1
  1
8
  7
CHINESET
 11
0.0000000000000001
 21
1.0
 31
0.0
 73
     1
 44
1.0
1001
ACAD
1000
MTEXTBEGIN
1070
    73
1070
     1
1070
    44
1040
1.0
1070
    74
1070
     0
1000
MTEXTEND
  0
POINT
  5
2B2A
330
1FF5
100
AcDbEntity
  8
Defpoints
 62
     0
100
AcDbPoint
 10
2678.601412171243
 20
1712.364813206626
 30
0.0
  0
POINT
  5
2B2B
330
1FF5
100
AcDbEntity
  8
Defpoints
 62
     0
100
AcDbPoint
 10
2681.023982606844
 20
1704.364813206626
 30
0.0
  0
POINT
  5
2B2C
330
1FF5
100
AcDbEntity
  8
Defpoints
 62
     0
100
AcDbPoint
 10
2697.523982606844
 20
1704.364813206626
 30
0.0
  0
ENDBLK
  5
2002
330
1FF5
100
AcDbEntity
  8
0
100
AcDbBlockEnd
  0
BLOCK
  5
2029
330
201F
100
AcDbEntity
  8
0
100
AcDbBlockBegin
  2
*D7
 70
     1
 10
0.0
 20
0.0
 30
0.0
  3
*D7
  1

  0
LINE
  5
2B2D
330
201F
100
AcDbEntity
  8
AM_5
100
AcDbLine
 10
2656.273982606844
 20
1640.864813206626
 30
0.0
 11
2656.273982606844
 21
1619.864813206626
 31
0.0
  0
LINE
  5
2B2E
330
201F
100
AcDbEntity
  8
AM_5
100
AcDbLine
 10
2686.273982606844
 20
1640.864813206626
 30
0.0
 11
2686.273982606844
 21
1619.864813206626
 31
0.0
  0
LINE
  5
2B2F
330
201F
100
AcDbEntity
  8
AM_5
100
AcDbLine
 10
2659.273982606844
 20
1621.364813206626
 30
0.0
 11
2683.273982606844
 21
1621.364813206626
 31
0.0
  0
SOLID
  5
2B30
330
201F
100
AcDbEntity
  8
AM_5
100
AcDbTrace
 10
2659.273982606844
 20
1621.864813206626
 30
0.0
 11
2659.273982606844
 21
1620.864813206626
 31
0.0
 12
2656.273982606844
 22
1621.364813206626
 32
0.0
 13
2656.273982606844
 23
1621.364813206626
 33
0.0
  0
SOLID
  5
2B31
330
201F
100
AcDbEntity
  8
AM_5
100
AcDbTrace
 10
2683.273982606844
 20
1621.864813206626
 30
0.0
 11
2683.273982606844
 21
1620.864813206626
 31
0.0
 12
2686.273982606844
 22
1621.364813206626
 32
0.0
 13
2686.273982606844
 23
1621.364813206626
 33
0.0
  0
MTEXT
  5
2B32
330
201F
100
AcDbEntity
  8
AM_5
100
AcDbMText
 10
2671.273982606845
 20
1623.864813206626
 30
0.0
 40
3.0
 41
0.0
 71
     5
 72
     1
  1
M30x1.5
  7
CHINESET
 73
     1
 44
1.0
1001
ACAD
1000
MTEXTBEGIN
1070
    73
1070
     1
1070
    44
1040
1.0
1070
    74
1070
     0
1000
MTEXTEND
  0
POINT
  5
2B33
330
201F
100
AcDbEntity
  8
Defpoints
 62
     0
100
AcDbPoint
 10
2656.273982606844
 20
1641.864813206626
 30
0.0
  0
POINT
  5
2B34
330
201F
100
AcDbEntity
  8
Defpoints
 62
     0
100
AcDbPoint
 10
2686.273982606844
 20
1641.864813206626
 30
0.0
  0
POINT
  5
2B35
330
201F
100
AcDbEntity
  8
Defpoints
 62
     0
100
AcDbPoint
 10
2686.273982606844
 20
1621.364813206626
 30
0.0
  0
ENDBLK
  5
202A
330
201F
100
AcDbEntity
  8
0
100
AcDbBlockEnd
  0
BLOCK
  5
20FD
330
20F1
100
AcDbEntity
  8
0
100
AcDbBlockBegin
  2
*D8
 70
     1
 10
0.0
 20
0.0
 30
0.0
  3
*D8
  1

  0
LINE
  5
2B36
330
20F1
100
AcDbEntity
  8
AM_5
100
AcDbLine
 10
2887.471251272294
 20
1634.123906722951
 30
0.0
 11
2900.721251272294
 21
1634.123906722951
 31
0.0
  0
LINE
  5
2B37
330
20F1
100
AcDbEntity
  8
AM_5
100
AcDbLine
 10
2888.471251272294
 20
1642.123906722951
 30
0.0
 11
2900.721251272294
 21
1642.123906722951
 31
0.0
  0
LINE
  5
2B38
330
20F1
100
AcDbEntity
  8
AM_5
100
AcDbLine
 10
2899.221251272294
 20
1631.123906722951
 30
0.0
 11
2899.221251272294
 21
1628.123906722951
 31
0.0
  0
LINE
  5
2B39
330
20F1
100
AcDbEntity
  8
AM_5
100
AcDbLine
 10
2899.221251272294
 20
1645.123906722951
 30
0.0
 11
2899.221251272294
 21
1648.123906722951
 31
0.0
  0
LINE
  5
2B3A
330
20F1
100
AcDbEntity
  8
AM_5
100
AcDbLine
 10
2899.221251272294
 20
1634.123906722951
 30
0.0
 11
2899.221251272294
 21
1642.123906722951
 31
0.0
  0
SOLID
  5
2B3B
330
20F1
100
AcDbEntity
  8
AM_5
100
AcDbTrace
 10
2898.721251272294
 20
1631.123906722951
 30
0.0
 11
2899.721251272294
 21
1631.123906722951
 31
0.0
 12
2899.221251272294
 22
1634.123906722951
 32
0.0
 13
2899.221251272294
 23
1634.123906722951
 33
0.0
  0
SOLID
  5
2B3C
330
20F1
100
AcDbEntity
  8
AM_5
100
AcDbTrace
 10
2898.721251272294
 20
1645.123906722951
 30
0.0
 11
2899.721251272294
 21
1645.123906722951
 31
0.0
 12
2899.221251272294
 22
1642.123906722951
 32
0.0
 13
2899.221251272294
 23
1642.123906722951
 33
0.0
  0
MTEXT
  5
2B3D
330
20F1
100
AcDbEntity
  8
AM_5
100
AcDbMText
 10
2896.721251272293
 20
1638.123906722952
 30
0.0
 40
3.0
 41
0.0
 71
     5
 72
     1
  1
8
  7
CHINESET
 11
0.0000000000000001
 21
1.0
 31
0.0
 73
     1
 44
1.0
1001
ACAD
1000
MTEXTBEGIN
1070
    73
1070
     1
1070
    44
1040
1.0
1070
    74
1070
     0
1000
MTEXTEND
  0
POINT
  5
2B3E
330
20F1
100
AcDbEntity
  8
Defpoints
 62
     0
100
AcDbPoint
 10
2886.471251272294
 20
1634.123906722951
 30
0.0
  0
POINT
  5
2B3F
330
20F1
100
AcDbEntity
  8
Defpoints
 62
     0
100
AcDbPoint
 10
2887.471251272294
 20
1642.123906722951
 30
0.0
  0
POINT
  5
2B40
330
20F1
100
AcDbEntity
  8
Defpoints
 62
     0
100
AcDbPoint
 10
2899.221251272294
 20
1642.123906722951
 30
0.0
  0
ENDBLK
  5
20FE
330
20F1
100
AcDbEntity
  8
0
100
AcDbBlockEnd
  0
BLOCK
  5
2109
330
20FF
100
AcDbEntity
  8
0
100
AcDbBlockBegin
  2
*D9
 70
     1
 10
0.0
 20
0.0
 30
0.0
  3
*D9
  1

  0
LINE
  5
2B41
330
20FF
100
AcDbEntity
  8
AM_5
100
AcDbLine
 10
2887.471251272294
 20
1634.123906722951
 30
0.0
 11
2908.721251272293
 21
1634.123906722951
 31
0.0
  0
LINE
  5
2B42
330
20FF
100
AcDbEntity
  8
AM_5
100
AcDbLine
 10
2885.410805963756
 20
1688.123906722951
 30
0.0
 11
2908.721251272293
 21
1688.123906722951
 31
0.0
  0
LINE
  5
2B43
330
20FF
100
AcDbEntity
  8
AM_5
100
AcDbLine
 10
2907.221251272293
 20
1637.123906722951
 30
0.0
 11
2907.221251272293
 21
1685.123906722951
 31
0.0
  0
SOLID
  5
2B44
330
20FF
100
AcDbEntity
  8
AM_5
100
AcDbTrace
 10
2906.721251272294
 20
1637.123906722951
 30
0.0
 11
2907.721251272294
 21
1637.123906722951
 31
0.0
 12
2907.221251272293
 22
1634.123906722951
 32
0.0
 13
2907.221251272293
 23
1634.123906722951
 33
0.0
  0
SOLID
  5
2B45
330
20FF
100
AcDbEntity
  8
AM_5
100
AcDbTrace
 10
2906.721251272294
 20
1685.123906722951
 30
0.0
 11
2907.721251272294
 21
1685.123906722951
 31
0.0
 12
2907.221251272293
 22
1688.123906722951
 32
0.0
 13
2907.221251272293
 23
1688.123906722951
 33
0.0
  0
MTEXT
  5
2B46
330
20FF
100
AcDbEntity
  8
AM_5
100
AcDbMText
 10
2904.721251272293
 20
1661.123906722951
 30
0.0
 40
3.0
 41
0.0
 71
     5
 72
     1
  1
54
  7
CHINESET
 11
0.0000000000000001
 21
1.0
 31
0.0
 73
     1
 44
1.0
1001
ACAD
1000
MTEXTBEGIN
1070
    73
1070
     1
1070
    44
1040
1.0
1070
    74
1070
     0
1000
MTEXTEND
  0
POINT
  5
2B47
330
20FF
100
AcDbEntity
  8
Defpoints
 62
     0
100
AcDbPoint
 10
2886.471251272294
 20
1634.123906722951
 30
0.0
  0
POINT
  5
2B48
330
20FF
100
AcDbEntity
  8
Defpoints
 62
     0
100
AcDbPoint
 10
2884.410805963756
 20
1688.123906722951
 30
0.0
  0
POINT
  5
2B49
330
20FF
100
AcDbEntity
  8
Defpoints
 62
     0
100
AcDbPoint
 10
2907.221251272293
 20
1688.123906722951
 30
0.0
  0
ENDBLK
  5
210A
330
20FF
100
AcDbEntity
  8
0
100
AcDbBlockEnd
  0
BLOCK
  5
2115
330
210B
100
AcDbEntity
  8
0
100
AcDbBlockBegin
  2
*D10
 70
     1
 10
0.0
 20
0.0
 30
0.0
  3
*D10
  1

  0
LINE
  5
2B4A
330
210B
100
AcDbEntity
  8
AM_5
100
AcDbLine
 10
2887.471251272294
 20
1634.123906722951
 30
0.0
 11
2916.721251272294
 21
1634.123906722951
 31
0.0
  0
LINE
  5
2B4B
330
210B
100
AcDbEntity
  8
AM_5
100
AcDbLine
 10
2881.17006500153
 20
1705.123906722951
 30
0.0
 11
2916.721251272294
 21
1705.123906722951
 31
0.0
  0
LINE
  5
2B4C
330
210B
100
AcDbEntity
  8
AM_5
100
AcDbLine
 10
2915.221251272294
 20
1637.123906722951
 30
0.0
 11
2915.221251272294
 21
1702.123906722951
 31
0.0
  0
SOLID
  5
2B4D
330
210B
100
AcDbEntity
  8
AM_5
100
AcDbTrace
 10
2914.721251272294
 20
1637.123906722951
 30
0.0
 11
2915.721251272294
 21
1637.123906722951
 31
0.0
 12
2915.221251272294
 22
1634.123906722951
 32
0.0
 13
2915.221251272294
 23
1634.123906722951
 33
0.0
  0
SOLID
  5
2B4E
330
210B
100
AcDbEntity
  8
AM_5
100
AcDbTrace
 10
2914.721251272294
 20
1702.123906722951
 30
0.0
 11
2915.721251272294
 21
1702.123906722951
 31
0.0
 12
2915.221251272294
 22
1705.123906722951
 32
0.0
 13
2915.221251272294
 23
1705.123906722951
 33
0.0
  0
MTEXT
  5
2B4F
330
210B
100
AcDbEntity
  8
AM_5
100
AcDbMText
 10
2912.721251272293
 20
1669.623906722951
 30
0.0
 40
3.0
 41
0.0
 71
     5
 72
     1
  1
71
  7
CHINESET
 11
0.0000000000000001
 21
1.0
 31
0.0
 73
     1
 44
1.0
1001
ACAD
1000
MTEXTBEGIN
1070
    73
1070
     1
1070
    44
1040
1.0
1070
    74
1070
     0
1000
MTEXTEND
  0
POINT
  5
2B50
330
210B
100
AcDbEntity
  8
Defpoints
 62
     0
100
AcDbPoint
 10
2886.471251272294
 20
1634.123906722951
 30
0.0
  0
POINT
  5
2B51
330
210B
100
AcDbEntity
  8
Defpoints
 62
     0
100
AcDbPoint
 10
2880.17006500153
 20
1705.123906722951
 30
0.0
  0
POINT
  5
2B52
330
210B
100
AcDbEntity
  8
Defpoints
 62
     0
100
AcDbPoint
 10
2915.221251272294
 20
1705.123906722951
 30
0.0
  0
ENDBLK
  5
2116
330
210B
100
AcDbEntity
  8
0
100
AcDbBlockEnd
  0
BLOCK
  5
2123
330
2117
100
AcDbEntity
  8
0
100
AcDbBlockBegin
  2
*D11
 70
     1
 10
0.0
 20
0.0
 30
0.0
  3
*D11
  1

  0
LINE
  5
2B53
330
2117
100
AcDbEntity
  8
AM_5
100
AcDbLine
 10
2881.298680836692
 20
1705.123906722951
 30
0.0
 11
2900.721251272294
 21
1705.123906722951
 31
0.0
  0
LINE
  5
2B54
330
2117
100
AcDbEntity
  8
AM_5
100
AcDbLine
 10
2883.721251272294
 20
1697.123906722951
 30
0.0
 11
2900.721251272294
 21
1697.123906722951
 31
0.0
  0
LINE
  5
2B55
330
2117
100
AcDbEntity
  8
AM_5
100
AcDbLine
 10
2899.221251272294
 20
1708.123906722951
 30
0.0
 11
2899.221251272294
 21
1711.123906722951
 31
0.0
  0
LINE
  5
2B56
330
2117
100
AcDbEntity
  8
AM_5
100
AcDbLine
 10
2899.221251272294
 20
1694.123906722951
 30
0.0
 11
2899.221251272294
 21
1691.123906722951
 31
0.0
  0
LINE
  5
2B57
330
2117
100
AcDbEntity
  8
AM_5
100
AcDbLine
 10
2899.221251272294
 20
1705.123906722951
 30
0.0
 11
2899.221251272294
 21
1697.123906722951
 31
0.0
  0
SOLID
  5
2B58
330
2117
100
AcDbEntity
  8
AM_5
100
AcDbTrace
 10
2898.721251272294
 20
1708.123906722951
 30
0.0
 11
2899.721251272294
 21
1708.123906722951
 31
0.0
 12
2899.221251272294
 22
1705.123906722951
 32
0.0
 13
2899.221251272294
 23
1705.123906722951
 33
0.0
  0
SOLID
  5
2B59
330
2117
100
AcDbEntity
  8
AM_5
100
AcDbTrace
 10
2898.721251272294
 20
1694.123906722951
 30
0.0
 11
2899.721251272294
 21
1694.123906722951
 31
0.0
 12
2899.221251272294
 22
1697.123906722951
 32
0.0
 13
2899.221251272294
 23
1697.123906722951
 33
0.0
  0
MTEXT
  5
2B5A
330
2117
100
AcDbEntity
  8
AM_5
100
AcDbMText
 10
2896.721251272293
 20
1701.123906722951
 30
0.0
 40
3.0
 41
0.0
 71
     5
 72
     1
  1
8
  7
CHINESET
 11
0.0000000000000001
 21
1.0
 31
0.0
 73
     1
 44
1.0
1001
ACAD
1000
MTEXTBEGIN
1070
    73
1070
     1
1070
    44
1040
1.0
1070
    74
1070
     0
1000
MTEXTEND
  0
POINT
  5
2B5B
330
2117
100
AcDbEntity
  8
Defpoints
 62
     0
100
AcDbPoint
 10
2880.298680836693
 20
1705.123906722951
 30
0.0
  0
POINT
  5
2B5C
330
2117
100
AcDbEntity
  8
Defpoints
 62
     0
100
AcDbPoint
 10
2882.721251272294
 20
1697.123906722951
 30
0.0
  0
POINT
  5
2B5D
330
2117
100
AcDbEntity
  8
Defpoints
 62
     0
100
AcDbPoint
 10
2899.221251272294
 20
1697.123906722951
 30
0.0
  0
ENDBLK
  5
2124
330
2117
100
AcDbEntity
  8
0
100
AcDbBlockEnd
  0
BLOCK
  5
212F
330
2125
100
AcDbEntity
  8
0
100
AcDbBlockBegin
  2
*D12
 70
     1
 10
0.0
 20
0.0
 30
0.0
  3
*D12
  1

  0
LINE
  5
2B5E
330
2125
100
AcDbEntity
  8
AM_5
100
AcDbLine
 10
2857.971251272294
 20
1641.623906722951
 30
0.0
 11
2857.971251272294
 21
1620.623906722951
 31
0.0
  0
LINE
  5
2B5F
330
2125
100
AcDbEntity
  8
AM_5
100
AcDbLine
 10
2887.971251272294
 20
1641.623906722951
 30
0.0
 11
2887.971251272294
 21
1620.623906722951
 31
0.0
  0
LINE
  5
2B60
330
2125
100
AcDbEntity
  8
AM_5
100
AcDbLine
 10
2860.971251272294
 20
1622.123906722951
 30
0.0
 11
2884.971251272294
 21
1622.123906722951
 31
0.0
  0
SOLID
  5
2B61
330
2125
100
AcDbEntity
  8
AM_5
100
AcDbTrace
 10
2860.971251272294
 20
1622.623906722951
 30
0.0
 11
2860.971251272294
 21
1621.623906722951
 31
0.0
 12
2857.971251272294
 22
1622.123906722951
 32
0.0
 13
2857.971251272294
 23
1622.123906722951
 33
0.0
  0
SOLID
  5
2B62
330
2125
100
AcDbEntity
  8
AM_5
100
AcDbTrace
 10
2884.971251272294
 20
1622.623906722951
 30
0.0
 11
2884.971251272294
 21
1621.623906722951
 31
0.0
 12
2887.971251272294
 22
1622.123906722951
 32
0.0
 13
2887.971251272294
 23
1622.123906722951
 33
0.0
  0
MTEXT
  5
2B63
330
2125
100
AcDbEntity
  8
AM_5
100
AcDbMText
 10
2872.971251272294
 20
1624.623906722951
 30
0.0
 40
3.0
 41
0.0
 71
     5
 72
     1
  1
M30x1.5
  7
CHINESET
 73
     1
 44
1.0
1001
ACAD
1000
MTEXTBEGIN
1070
    73
1070
     1
1070
    44
1040
1.0
1070
    74
1070
     0
1000
MTEXTEND
  0
POINT
  5
2B64
330
2125
100
AcDbEntity
  8
Defpoints
 62
     0
100
AcDbPoint
 10
2857.971251272294
 20
1642.623906722951
 30
0.0
  0
POINT
  5
2B65
330
2125
100
AcDbEntity
  8
Defpoints
 62
     0
100
AcDbPoint
 10
2887.971251272294
 20
1642.623906722951
 30
0.0
  0
POINT
  5
2B66
330
2125
100
AcDbEntity
  8
Defpoints
 62
     0
100
AcDbPoint
 10
2887.971251272294
 20
1622.123906722951
 30
0.0
  0
ENDBLK
  5
2130
330
2125
100
AcDbEntity
  8
0
100
AcDbBlockEnd
  0
BLOCK
  5
21E2
330
21D8
100
AcDbEntity
  8
0
100
AcDbBlockBegin
  2
*D13
 70
     1
 10
0.0
 20
0.0
 30
0.0
  3
*D13
  1

  0
LINE
  5
2B67
330
21D8
100
AcDbEntity
  8
AM_5
100
AcDbLine
 10
2645.273982606844
 20
1475.336902783765
 30
0.0
 11
2645.273982606844
 21
1462.086902783765
 31
0.0
  0
LINE
  5
2B68
330
21D8
100
AcDbEntity
  8
AM_5
100
AcDbLine
 10
2697.273982606844
 20
1475.336902783765
 30
0.0
 11
2697.273982606844
 21
1462.086902783765
 31
0.0
  0
LINE
  5
2B69
330
21D8
100
AcDbEntity
  8
AM_5
100
AcDbLine
 10
2648.273982606844
 20
1463.586902783765
 30
0.0
 11
2694.273982606845
 21
1463.586902783765
 31
0.0
  0
SOLID
  5
2B6A
330
21D8
100
AcDbEntity
  8
AM_5
100
AcDbTrace
 10
2648.273982606844
 20
1464.086902783765
 30
0.0
 11
2648.273982606844
 21
1463.086902783764
 31
0.0
 12
2645.273982606844
 22
1463.586902783765
 32
0.0
 13
2645.273982606844
 23
1463.586902783765
 33
0.0
  0
SOLID
  5
2B6B
330
21D8
100
AcDbEntity
  8
AM_5
100
AcDbTrace
 10
2694.273982606845
 20
1464.086902783765
 30
0.0
 11
2694.273982606845
 21
1463.086902783764
 31
0.0
 12
2697.273982606844
 22
1463.586902783765
 32
0.0
 13
2697.273982606844
 23
1463.586902783765
 33
0.0
  0
MTEXT
  5
2B6C
330
21D8
100
AcDbEntity
  8
AM_5
100
AcDbMText
 10
2671.273982606845
 20
1466.086902783765
 30
0.0
 40
3.0
 41
0.0
 71
     5
 72
     1
  1
52
  7
CHINESET
 73
     1
 44
1.0
1001
ACAD
1000
MTEXTBEGIN
1070
    73
1070
     1
1070
    44
1040
1.0
1070
    74
1070
     0
1000
MTEXTEND
  0
POINT
  5
2B6D
330
21D8
100
AcDbEntity
  8
Defpoints
 62
     0
100
AcDbPoint
 10
2645.273982606844
 20
1476.336902783765
 30
0.0
  0
POINT
  5
2B6E
330
21D8
100
AcDbEntity
  8
Defpoints
 62
     0
100
AcDbPoint
 10
2697.273982606844
 20
1476.336902783765
 30
0.0
  0
POINT
  5
2B6F
330
21D8
100
AcDbEntity
  8
Defpoints
 62
     0
100
AcDbPoint
 10
2697.273982606844
 20
1463.586902783765
 30
0.0
  0
ENDBLK
  5
21E3
330
21D8
100
AcDbEntity
  8
0
100
AcDbBlockEnd
  0
BLOCK
  5
2212
330
2208
100
AcDbEntity
  8
0
100
AcDbBlockBegin
  2
*D14
 70
     1
 10
0.0
 20
0.0
 30
0.0
  3
*D14
  1

  0
LINE
  5
2B70
330
2208
100
AcDbEntity
  8
AM_5
100
AcDbLine
 10
2639.273982606844
 20
1475.586902783765
 30
0.0
 11
2639.273982606844
 21
1454.086902783765
 31
0.0
  0
LINE
  5
2B71
330
2208
100
AcDbEntity
  8
AM_5
100
AcDbLine
 10
2703.273982606845
 20
1475.586902783765
 30
0.0
 11
2703.273982606845
 21
1454.086902783765
 31
0.0
  0
LINE
  5
2B72
330
2208
100
AcDbEntity
  8
AM_5
100
AcDbLine
 10
2642.273982606844
 20
1455.586902783765
 30
0.0
 11
2700.273982606844
 21
1455.586902783765
 31
0.0
  0
SOLID
  5
2B73
330
2208
100
AcDbEntity
  8
AM_5
100
AcDbTrace
 10
2642.273982606844
 20
1456.086902783765
 30
0.0
 11
2642.273982606844
 21
1455.086902783765
 31
0.0
 12
2639.273982606844
 22
1455.586902783765
 32
0.0
 13
2639.273982606844
 23
1455.586902783765
 33
0.0
  0
SOLID
  5
2B74
330
2208
100
AcDbEntity
  8
AM_5
100
AcDbTrace
 10
2700.273982606844
 20
1456.086902783765
 30
0.0
 11
2700.273982606844
 21
1455.086902783765
 31
0.0
 12
2703.273982606845
 22
1455.586902783765
 32
0.0
 13
2703.273982606845
 23
1455.586902783765
 33
0.0
  0
MTEXT
  5
2B75
330
2208
100
AcDbEntity
  8
AM_5
100
AcDbMText
 10
2671.273982606845
 20
1458.086902783765
 30
0.0
 40
3.0
 41
0.0
 71
     5
 72
     1
  1
64
  7
CHINESET
 73
     1
 44
1.0
1001
ACAD
1000
MTEXTBEGIN
1070
    73
1070
     1
1070
    44
1040
1.0
1070
    74
1070
     0
1000
MTEXTEND
  0
POINT
  5
2B76
330
2208
100
AcDbEntity
  8
Defpoints
 62
     0
100
AcDbPoint
 10
2639.273982606844
 20
1476.586902783765
 30
0.0
  0
POINT
  5
2B77
330
2208
100
AcDbEntity
  8
Defpoints
 62
     0
100
AcDbPoint
 10
2703.273982606845
 20
1476.586902783765
 30
0.0
  0
POINT
  5
2B78
330
2208
100
AcDbEntity
  8
Defpoints
 62
     0
100
AcDbPoint
 10
2703.273982606845
 20
1455.586902783765
 30
0.0
  0
ENDBLK
  5
2213
330
2208
100
AcDbEntity
  8
0
100
AcDbBlockEnd
  0
BLOCK
  5
2242
330
2238
100
AcDbEntity
  8
0
100
AcDbBlockBegin
  2
*D15
 70
     1
 10
0.0
 20
0.0
 30
0.0
  3
*D15
  1

  0
LINE
  5
2B79
330
2238
100
AcDbEntity
  8
AM_5
100
AcDbLine
 10
2703.523982606844
 20
1481.586902783765
 30
0.0
 11
2716.773982606844
 21
1481.586902783765
 31
0.0
  0
LINE
  5
2B7A
330
2238
100
AcDbEntity
  8
AM_5
100
AcDbLine
 10
2703.523982606844
 20
1533.586902783764
 30
0.0
 11
2716.773982606844
 21
1533.586902783764
 31
0.0
  0
LINE
  5
2B7B
330
2238
100
AcDbEntity
  8
AM_5
100
AcDbLine
 10
2715.273982606844
 20
1484.586902783765
 30
0.0
 11
2715.273982606844
 21
1530.586902783765
 31
0.0
  0
SOLID
  5
2B7C
330
2238
100
AcDbEntity
  8
AM_5
100
AcDbTrace
 10
2714.773982606844
 20
1484.586902783765
 30
0.0
 11
2715.773982606844
 21
1484.586902783765
 31
0.0
 12
2715.273982606844
 22
1481.586902783765
 32
0.0
 13
2715.273982606844
 23
1481.586902783765
 33
0.0
  0
SOLID
  5
2B7D
330
2238
100
AcDbEntity
  8
AM_5
100
AcDbTrace
 10
2714.773982606844
 20
1530.586902783765
 30
0.0
 11
2715.773982606844
 21
1530.586902783765
 31
0.0
 12
2715.273982606844
 22
1533.586902783764
 32
0.0
 13
2715.273982606844
 23
1533.586902783764
 33
0.0
  0
MTEXT
  5
2B7E
330
2238
100
AcDbEntity
  8
AM_5
100
AcDbMText
 10
2712.773982606844
 20
1507.586902783765
 30
0.0
 40
3.0
 41
0.0
 71
     5
 72
     1
  1
52
  7
CHINESET
 11
0.0000000000000001
 21
1.0
 31
0.0
 73
     1
 44
1.0
1001
ACAD
1000
MTEXTBEGIN
1070
    73
1070
     1
1070
    44
1040
1.0
1070
    74
1070
     0
1000
MTEXTEND
  0
POINT
  5
2B7F
330
2238
100
AcDbEntity
  8
Defpoints
 62
     0
100
AcDbPoint
 10
2702.523982606845
 20
1481.586902783765
 30
0.0
  0
POINT
  5
2B80
330
2238
100
AcDbEntity
  8
Defpoints
 62
     0
100
AcDbPoint
 10
2702.523982606845
 20
1533.586902783764
 30
0.0
  0
POINT
  5
2B81
330
2238
100
AcDbEntity
  8
Defpoints
 62
     0
100
AcDbPoint
 10
2715.273982606844
 20
1533.586902783764
 30
0.0
  0
ENDBLK
  5
2243
330
2238
100
AcDbEntity
  8
0
100
AcDbBlockEnd
  0
BLOCK
  5
2268
330
225E
100
AcDbEntity
  8
0
100
AcDbBlockBegin
  2
*D16
 70
     1
 10
0.0
 20
0.0
 30
0.0
  3
*D16
  1

  0
LINE
  5
2B82
330
225E
100
AcDbEntity
  8
AM_5
100
AcDbLine
 10
2703.273982606845
 20
1475.586902783765
 30
0.0
 11
2724.773982606845
 21
1475.586902783765
 31
0.0
  0
LINE
  5
2B83
330
225E
100
AcDbEntity
  8
AM_5
100
AcDbLine
 10
2703.273982606845
 20
1539.586902783765
 30
0.0
 11
2724.773982606845
 21
1539.586902783765
 31
0.0
  0
LINE
  5
2B84
330
225E
100
AcDbEntity
  8
AM_5
100
AcDbLine
 10
2723.273982606845
 20
1478.586902783765
 30
0.0
 11
2723.273982606845
 21
1536.586902783765
 31
0.0
  0
SOLID
  5
2B85
330
225E
100
AcDbEntity
  8
AM_5
100
AcDbTrace
 10
2722.773982606844
 20
1478.586902783765
 30
0.0
 11
2723.773982606844
 21
1478.586902783765
 31
0.0
 12
2723.273982606845
 22
1475.586902783765
 32
0.0
 13
2723.273982606845
 23
1475.586902783765
 33
0.0
  0
SOLID
  5
2B86
330
225E
100
AcDbEntity
  8
AM_5
100
AcDbTrace
 10
2722.773982606844
 20
1536.586902783765
 30
0.0
 11
2723.773982606844
 21
1536.586902783765
 31
0.0
 12
2723.273982606845
 22
1539.586902783765
 32
0.0
 13
2723.273982606845
 23
1539.586902783765
 33
0.0
  0
MTEXT
  5
2B87
330
225E
100
AcDbEntity
  8
AM_5
100
AcDbMText
 10
2720.773982606844
 20
1507.586902783765
 30
0.0
 40
3.0
 41
0.0
 71
     5
 72
     1
  1
64
  7
CHINESET
 11
0.0000000000000001
 21
1.0
 31
0.0
 73
     1
 44
1.0
1001
ACAD
1000
MTEXTBEGIN
1070
    73
1070
     1
1070
    44
1040
1.0
1070
    74
1070
     0
1000
MTEXTEND
  0
POINT
  5
2B88
330
225E
100
AcDbEntity
  8
Defpoints
 62
     0
100
AcDbPoint
 10
2702.273982606844
 20
1475.586902783765
 30
0.0
  0
POINT
  5
2B89
330
225E
100
AcDbEntity
  8
Defpoints
 62
     0
100
AcDbPoint
 10
2702.273982606844
 20
1539.586902783765
 30
0.0
  0
POINT
  5
2B8A
330
225E
100
AcDbEntity
  8
Defpoints
 62
     0
100
AcDbPoint
 10
2723.273982606845
 20
1539.586902783765
 30
0.0
  0
ENDBLK
  5
2269
330
225E
100
AcDbEntity
  8
0
100
AcDbBlockEnd
  0
BLOCK
  5
228E
330
2284
100
AcDbEntity
  8
0
100
AcDbBlockBegin
  2
*D17
 70
     1
 10
0.0
 20
0.0
 30
0.0
  3
*D17
  1

  0
LINE
  5
2B8B
330
2284
100
AcDbEntity
  8
AM_5
100
AcDbLine
 10
2703.773982606844
 20
1320.010756467503
 30
0.0
 11
2724.773982606845
 21
1320.010756467503
 31
0.0
  0
LINE
  5
2B8C
330
2284
100
AcDbEntity
  8
AM_5
100
AcDbLine
 10
2700.273982606844
 20
1403.010756467503
 30
0.0
 11
2724.773982606845
 21
1403.010756467503
 31
0.0
  0
LINE
  5
2B8D
330
2284
100
AcDbEntity
  8
AM_5
100
AcDbLine
 10
2723.273982606845
 20
1323.010756467503
 30
0.0
 11
2723.273982606845
 21
1400.010756467503
 31
0.0
  0
SOLID
  5
2B8E
330
2284
100
AcDbEntity
  8
AM_5
100
AcDbTrace
 10
2722.773982606844
 20
1323.010756467503
 30
0.0
 11
2723.773982606844
 21
1323.010756467503
 31
0.0
 12
2723.273982606845
 22
1320.010756467503
 32
0.0
 13
2723.273982606845
 23
1320.010756467503
 33
0.0
  0
SOLID
  5
2B8F
330
2284
100
AcDbEntity
  8
AM_5
100
AcDbTrace
 10
2722.773982606844
 20
1400.010756467503
 30
0.0
 11
2723.773982606844
 21
1400.010756467503
 31
0.0
 12
2723.273982606845
 22
1403.010756467503
 32
0.0
 13
2723.273982606845
 23
1403.010756467503
 33
0.0
  0
MTEXT
  5
2B90
330
2284
100
AcDbEntity
  8
AM_5
100
AcDbMText
 10
2720.773982606844
 20
1361.510756467503
 30
0.0
 40
3.0
 41
0.0
 71
     5
 72
     1
  1
83
  7
CHINESET
 11
0.0000000000000001
 21
1.0
 31
0.0
 73
     1
 44
1.0
1001
ACAD
1000
MTEXTBEGIN
1070
    73
1070
     1
1070
    44
1040
1.0
1070
    74
1070
     0
1000
MTEXTEND
  0
POINT
  5
2B91
330
2284
100
AcDbEntity
  8
Defpoints
 62
     0
100
AcDbPoint
 10
2702.773982606844
 20
1320.010756467503
 30
0.0
  0
POINT
  5
2B92
330
2284
100
AcDbEntity
  8
Defpoints
 62
     0
100
AcDbPoint
 10
2699.273982606844
 20
1403.010756467503
 30
0.0
  0
POINT
  5
2B93
330
2284
100
AcDbEntity
  8
Defpoints
 62
     0
100
AcDbPoint
 10
2723.273982606845
 20
1403.010756467503
 30
0.0
  0
ENDBLK
  5
228F
330
2284
100
AcDbEntity
  8
0
100
AcDbBlockEnd
  0
BLOCK
  5
22B4
330
22AA
100
AcDbEntity
  8
0
100
AcDbBlockBegin
  2
*D18
 70
     1
 10
0.0
 20
0.0
 30
0.0
  3
*D18
  1

  0
LINE
  5
2E3F
330
22AA
100
AcDbEntity
  8
AM_5
100
AcDbLine
 10
2703.773982606844
 20
1320.010756467503
 30
0.0
 11
2732.773982606844
 21
1320.010756467503
 31
0.0
  0
LINE
  5
2E40
330
22AA
100
AcDbEntity
  8
AM_5
100
AcDbLine
 10
2685.773982606844
 20
1426.010756467503
 30
0.0
 11
2732.773982606844
 21
1426.010756467503
 31
0.0
  0
LINE
  5
2E41
330
22AA
100
AcDbEntity
  8
AM_5
100
AcDbLine
 10
2731.273982606844
 20
1323.010756467503
 30
0.0
 11
2731.273982606844
 21
1423.010756467503
 31
0.0
  0
SOLID
  5
2E42
330
22AA
100
AcDbEntity
  8
AM_5
100
AcDbTrace
 10
2730.773982606844
 20
1323.010756467503
 30
0.0
 11
2731.773982606844
 21
1323.010756467503
 31
0.0
 12
2731.273982606844
 22
1320.010756467503
 32
0.0
 13
2731.273982606844
 23
1320.010756467503
 33
0.0
  0
SOLID
  5
2E43
330
22AA
100
AcDbEntity
  8
AM_5
100
AcDbTrace
 10
2730.773982606844
 20
1423.010756467503
 30
0.0
 11
2731.773982606844
 21
1423.010756467503
 31
0.0
 12
2731.273982606844
 22
1426.010756467503
 32
0.0
 13
2731.273982606844
 23
1426.010756467503
 33
0.0
  0
MTEXT
  5
2E44
330
22AA
100
AcDbEntity
  8
AM_5
100
AcDbMText
 10
2728.773982606844
 20
1373.010756467503
 30
0.0
 40
3.0
 41
0.0
 71
     5
 72
     1
  1
106
  7
CHINESET
 11
0.0000000000000001
 21
1.0
 31
0.0
 73
     1
 44
1.0
1001
ACAD
1000
MTEXTBEGIN
1070
    73
1070
     1
1070
    44
1040
1.0
1070
    74
1070
     0
1000
MTEXTEND
  0
POINT
  5
2E45
330
22AA
100
AcDbEntity
  8
Defpoints
 62
     0
100
AcDbPoint
 10
2702.773982606844
 20
1320.010756467503
 30
0.0
  0
POINT
  5
2E46
330
22AA
100
AcDbEntity
  8
Defpoints
 62
     0
100
AcDbPoint
 10
2684.773982606844
 20
1426.010756467503
 30
0.0
  0
POINT
  5
2E47
330
22AA
100
AcDbEntity
  8
Defpoints
 62
     0
100
AcDbPoint
 10
2731.273982606844
 20
1426.010756467503
 30
0.0
  0
ENDBLK
  5
22B5
330
22AA
100
AcDbEntity
  8
0
100
AcDbBlockEnd
  0
BLOCK
  5
22DA
330
22D0
100
AcDbEntity
  8
0
100
AcDbBlockBegin
  2
*D19
 70
     1
 10
0.0
 20
0.0
 30
0.0
  3
*D19
  1

  0
LINE
  5
2B9D
330
22D0
100
AcDbEntity
  8
AM_5
100
AcDbLine
 10
2703.773982606844
 20
1320.010756467503
 30
0.0
 11
2716.773982606844
 21
1320.010756467503
 31
0.0
  0
LINE
  5
2B9E
330
22D0
100
AcDbEntity
  8
AM_5
100
AcDbLine
 10
2703.273982606845
 20
1345.010756467503
 30
0.0
 11
2716.773982606844
 21
1345.010756467503
 31
0.0
  0
LINE
  5
2B9F
330
22D0
100
AcDbEntity
  8
AM_5
100
AcDbLine
 10
2715.273982606844
 20
1323.010756467503
 30
0.0
 11
2715.273982606844
 21
1342.010756467503
 31
0.0
  0
SOLID
  5
2BA0
330
22D0
100
AcDbEntity
  8
AM_5
100
AcDbTrace
 10
2714.773982606844
 20
1323.010756467503
 30
0.0
 11
2715.773982606844
 21
1323.010756467503
 31
0.0
 12
2715.273982606844
 22
1320.010756467503
 32
0.0
 13
2715.273982606844
 23
1320.010756467503
 33
0.0
  0
SOLID
  5
2BA1
330
22D0
100
AcDbEntity
  8
AM_5
100
AcDbTrace
 10
2714.773982606844
 20
1342.010756467503
 30
0.0
 11
2715.773982606844
 21
1342.010756467503
 31
0.0
 12
2715.273982606844
 22
1345.010756467503
 32
0.0
 13
2715.273982606844
 23
1345.010756467503
 33
0.0
  0
MTEXT
  5
2BA2
330
22D0
100
AcDbEntity
  8
AM_5
100
AcDbMText
 10
2712.773982606844
 20
1332.510756467503
 30
0.0
 40
3.0
 41
0.0
 71
     5
 72
     1
  1
25
  7
CHINESET
 11
0.0000000000000001
 21
1.0
 31
0.0
 73
     1
 44
1.0
1001
ACAD
1000
MTEXTBEGIN
1070
    73
1070
     1
1070
    44
1040
1.0
1070
    74
1070
     0
1000
MTEXTEND
  0
POINT
  5
2BA3
330
22D0
100
AcDbEntity
  8
Defpoints
 62
     0
100
AcDbPoint
 10
2702.773982606844
 20
1320.010756467503
 30
0.0
  0
POINT
  5
2BA4
330
22D0
100
AcDbEntity
  8
Defpoints
 62
     0
100
AcDbPoint
 10
2702.273982606844
 20
1345.010756467503
 30
0.0
  0
POINT
  5
2BA5
330
22D0
100
AcDbEntity
  8
Defpoints
 62
     0
100
AcDbPoint
 10
2715.273982606844
 20
1345.010756467503
 30
0.0
  0
ENDBLK
  5
22DB
330
22D0
100
AcDbEntity
  8
0
100
AcDbBlockEnd
  0
BLOCK
  5
2300
330
22F6
100
AcDbEntity
  8
0
100
AcDbBlockBegin
  2
*D20
 70
     1
 10
0.0
 20
0.0
 30
0.0
  3
*D20
  1

  0
LINE
  5
2E36
330
22F6
100
AcDbEntity
  8
AM_5
100
AcDbLine
 10
2641.273982606845
 20
1402.010756467503
 30
0.0
 11
2641.273982606845
 21
1439.510756467503
 31
0.0
  0
LINE
  5
2E37
330
22F6
100
AcDbEntity
  8
AM_5
100
AcDbLine
 10
2701.273982606844
 20
1402.010756467503
 30
0.0
 11
2701.273982606844
 21
1439.510756467503
 31
0.0
  0
LINE
  5
2E38
330
22F6
100
AcDbEntity
  8
AM_5
100
AcDbLine
 10
2644.273982606845
 20
1438.010756467503
 30
0.0
 11
2698.273982606844
 21
1438.010756467503
 31
0.0
  0
SOLID
  5
2E39
330
22F6
100
AcDbEntity
  8
AM_5
100
AcDbTrace
 10
2644.273982606845
 20
1438.510756467503
 30
0.0
 11
2644.273982606845
 21
1437.510756467503
 31
0.0
 12
2641.273982606845
 22
1438.010756467503
 32
0.0
 13
2641.273982606845
 23
1438.010756467503
 33
0.0
  0
SOLID
  5
2E3A
330
22F6
100
AcDbEntity
  8
AM_5
100
AcDbTrace
 10
2698.273982606844
 20
1438.510756467503
 30
0.0
 11
2698.273982606844
 21
1437.510756467503
 31
0.0
 12
2701.273982606844
 22
1438.010756467503
 32
0.0
 13
2701.273982606844
 23
1438.010756467503
 33
0.0
  0
MTEXT
  5
2E3B
330
22F6
100
AcDbEntity
  8
AM_5
100
AcDbMText
 10
2671.273982606845
 20
1440.510756467503
 30
0.0
 40
3.0
 41
0.0
 71
     5
 72
     1
  1
M60x1.5
  7
CHINESET
 73
     1
 44
1.0
1001
ACAD
1000
MTEXTBEGIN
1070
    73
1070
     1
1070
    44
1040
1.0
1070
    74
1070
     0
1000
MTEXTEND
  0
POINT
  5
2E3C
330
22F6
100
AcDbEntity
  8
Defpoints
 62
     0
100
AcDbPoint
 10
2641.273982606845
 20
1401.010756467503
 30
0.0
  0
POINT
  5
2E3D
330
22F6
100
AcDbEntity
  8
Defpoints
 62
     0
100
AcDbPoint
 10
2701.273982606844
 20
1401.010756467503
 30
0.0
  0
POINT
  5
2E3E
330
22F6
100
AcDbEntity
  8
Defpoints
 62
     0
100
AcDbPoint
 10
2701.273982606844
 20
1438.010756467503
 30
0.0
  0
ENDBLK
  5
2301
330
22F6
100
AcDbEntity
  8
0
100
AcDbBlockEnd
  0
BLOCK
  5
2337
330
2331
100
AcDbEntity
  8
0
100
AcDbBlockBegin
  2
*D21
 70
     1
 10
0.0
 20
0.0
 30
0.0
  3
*D21
  1

  0
LINE
  5
2BFD
330
2331
100
AcDbEntity
  8
AM_5
100
AcDbLine
 10
2700.899897116583
 20
1538.677604500431
 30
0.0
 11
2706.018407104844
 21
1545.863876408944
 31
0.0
  0
LINE
  5
2BFE
330
2331
100
AcDbEntity
  8
AM_5
100
AcDbLine
 10
2706.018407104844
 20
1545.863876408944
 30
0.0
 11
2713.768407104844
 21
1545.863876408944
 31
0.0
  0
SOLID
  5
2BFF
330
2331
100
AcDbEntity
  8
AM_5
100
AcDbTrace
 10
2700.49264097925
 20
1538.96767766121
 30
0.0
 11
2701.307153253916
 21
1538.387531339652
 31
0.0
 12
2699.159458151909
 22
1536.234067676431
 32
0.0
 13
2699.159458151909
 23
1536.234067676431
 33
0.0
  0
MTEXT
  5
2C00
330
2331
100
AcDbEntity
  8
AM_5
100
AcDbMText
 10
2710.393407104842
 20
1548.363876408943
 30
0.0
 40
3.0
 41
0.0
 71
     5
 72
     1
  1
\U+22056.5
  7
CHINESET
 73
     1
 44
1.0
1001
ACAD
1000
MTEXTBEGIN
1070
    73
1070
     1
1070
    44
1040
1.0
1070
    74
1070
     0
1000
MTEXTEND
  0
POINT
  5
2C01
330
2331
100
AcDbEntity
  8
Defpoints
 62
     0
100
AcDbPoint
 10
2699.159458151909
 20
1536.234067676431
 30
0.0
  0
POINT
  5
2C02
330
2331
100
AcDbEntity
  8
Defpoints
 62
     0
100
AcDbPoint
 10
2695.38850706178
 20
1530.939737891099
 30
0.0
  0
ENDBLK
  5
2338
330
2331
100
AcDbEntity
  8
0
100
AcDbBlockEnd
  0
BLOCK
  5
235F
330
2359
100
AcDbEntity
  8
0
100
AcDbBlockBegin
  2
*D22
 70
     1
 10
0.0
 20
0.0
 30
0.0
  3
*D22
  1

  0
LINE
  5
2E14
330
2359
100
AcDbEntity
  8
AM_5
100
AcDbLine
 10
2666.773222269402
 20
1514.200763712519
 30
0.0
 11
2644.226711134305
 21
1547.33282982934
 31
0.0
  0
LINE
  5
2E15
330
2359
100
AcDbEntity
  8
AM_5
100
AcDbLine
 10
2644.226711134305
 20
1547.33282982934
 30
0.0
 11
2637.440996848591
 21
1547.33282982934
 31
0.0
  0
SOLID
  5
2E16
330
2359
100
AcDbEntity
  8
AM_5
100
AcDbTrace
 10
2667.186588577449
 20
1514.482061233609
 30
0.0
 11
2666.359855961355
 21
1513.919466191429
 31
0.0
 12
2668.461007395943
 22
1511.720565864236
 32
0.0
 13
2668.461007395943
 23
1511.720565864236
 33
0.0
  0
MTEXT
  5
2E17
330
2359
100
AcDbEntity
  8
AM_5
100
AcDbMText
 10
2640.333853991449
 20
1549.832829829341
 30
0.0
 40
3.0
 41
0.0
 71
     5
 72
     1
  1
M10
  7
CHINESET
 73
     1
 44
1.0
1001
ACAD
1000
MTEXTBEGIN
1070
    73
1070
     1
1070
    44
1040
1.0
1070
    74
1070
     0
1000
MTEXTEND
  0
POINT
  5
2E18
330
2359
100
AcDbEntity
  8
Defpoints
 62
     0
100
AcDbPoint
 10
2668.461007395943
 20
1511.720565864236
 30
0.0
  0
POINT
  5
2E19
330
2359
100
AcDbEntity
  8
Defpoints
 62
     0
100
AcDbPoint
 10
2674.086957817747
 20
1503.453239703293
 30
0.0
  0
ENDBLK
  5
2360
330
2359
100
AcDbEntity
  8
0
100
AcDbBlockEnd
  0
BLOCK
  5
23E6
330
23DD
100
AcDbEntity
  8
0
100
AcDbBlockBegin
  2
*D23
 70
     1
 10
0.0
 20
0.0
 30
0.0
  3
*D23
  1

  0
LINE
  5
2C0C
330
23DD
100
AcDbEntity
  8
AM_5
100
AcDbLine
 10
2867.786755377235
 20
1508.229754421693
 30
0.0
 11
2848.326702880509
 21
1531.098762066447
 31
0.0
  0
LINE
  5
2C0D
330
23DD
100
AcDbEntity
  8
AM_5
100
AcDbLine
 10
2848.326702880509
 20
1531.098762066447
 30
0.0
 11
2841.540988594795
 21
1531.098762066446
 31
0.0
  0
SOLID
  5
2C0E
330
23DD
100
AcDbEntity
  8
AM_5
100
AcDbTrace
 10
2868.16754917352
 20
1508.553785415134
 30
0.0
 11
2867.40596158095
 21
1507.905723428252
 31
0.0
 12
2869.730941337882
 22
1505.94499164398
 32
0.0
 13
2869.730941337882
 23
1505.94499164398
 33
0.0
  0
MTEXT
  5
2C0F
330
23DD
100
AcDbEntity
  8
AM_5
100
AcDbMText
 10
2844.433845737652
 20
1533.598762066447
 30
0.0
 40
3.0
 41
0.0
 71
     5
 72
     1
  1
M10
  7
CHINESET
 73
     1
 44
1.0
1001
ACAD
1000
MTEXTBEGIN
1070
    73
1070
     1
1070
    44
1040
1.0
1070
    74
1070
     0
1000
MTEXTEND
  0
POINT
  5
2C10
330
23DD
100
AcDbEntity
  8
Defpoints
 62
     0
100
AcDbPoint
 10
2869.730941337882
 20
1505.94499164398
 30
0.0
  0
POINT
  5
2C11
330
23DD
100
AcDbEntity
  8
Defpoints
 62
     0
100
AcDbPoint
 10
2876.211561206705
 20
1498.329115718271
 30
0.0
  0
ENDBLK
  5
23E7
330
23DD
100
AcDbEntity
  8
0
100
AcDbBlockEnd
  0
BLOCK
  5
2423
330
2419
100
AcDbEntity
  8
0
100
AcDbBlockBegin
  2
*D24
 70
     1
 10
0.0
 20
0.0
 30
0.0
  3
*D24
  1

  0
LINE
  5
2E2D
330
2419
100
AcDbEntity
  8
AM_5
100
AcDbLine
 10
2857.971251272294
 20
1419.010756467503
 30
0.0
 11
2857.971251272294
 21
1439.510756467503
 31
0.0
  0
LINE
  5
2E2E
330
2419
100
AcDbEntity
  8
AM_5
100
AcDbLine
 10
2887.971251272294
 20
1419.010756467503
 30
0.0
 11
2887.971251272294
 21
1439.510756467503
 31
0.0
  0
LINE
  5
2E2F
330
2419
100
AcDbEntity
  8
AM_5
100
AcDbLine
 10
2860.971251272294
 20
1438.010756467503
 30
0.0
 11
2884.971251272294
 21
1438.010756467503
 31
0.0
  0
SOLID
  5
2E30
330
2419
100
AcDbEntity
  8
AM_5
100
AcDbTrace
 10
2860.971251272294
 20
1438.510756467503
 30
0.0
 11
2860.971251272294
 21
1437.510756467503
 31
0.0
 12
2857.971251272294
 22
1438.010756467503
 32
0.0
 13
2857.971251272294
 23
1438.010756467503
 33
0.0
  0
SOLID
  5
2E31
330
2419
100
AcDbEntity
  8
AM_5
100
AcDbTrace
 10
2884.971251272294
 20
1438.510756467503
 30
0.0
 11
2884.971251272294
 21
1437.510756467503
 31
0.0
 12
2887.971251272294
 22
1438.010756467503
 32
0.0
 13
2887.971251272294
 23
1438.010756467503
 33
0.0
  0
MTEXT
  5
2E32
330
2419
100
AcDbEntity
  8
AM_5
100
AcDbMText
 10
2872.971251272294
 20
1440.510756467503
 30
0.0
 40
3.0
 41
0.0
 71
     5
 72
     1
  1
30
  7
CHINESET
 73
     1
 44
1.0
1001
ACAD
1000
MTEXTBEGIN
1070
    73
1070
     1
1070
    44
1040
1.0
1070
    74
1070
     0
1000
MTEXTEND
  0
POINT
  5
2E33
330
2419
100
AcDbEntity
  8
Defpoints
 62
     0
100
AcDbPoint
 10
2857.971251272294
 20
1418.010756467503
 30
0.0
  0
POINT
  5
2E34
330
2419
100
AcDbEntity
  8
Defpoints
 62
     0
100
AcDbPoint
 10
2887.971251272294
 20
1418.010756467503
 30
0.0
  0
POINT
  5
2E35
330
2419
100
AcDbEntity
  8
Defpoints
 62
     0
100
AcDbPoint
 10
2887.971251272294
 20
1438.010756467503
 30
0.0
  0
ENDBLK
  5
2424
330
2419
100
AcDbEntity
  8
0
100
AcDbBlockEnd
  0
BLOCK
  5
2449
330
243F
100
AcDbEntity
  8
0
100
AcDbBlockBegin
  2
*D25
 70
     1
 10
0.0
 20
0.0
 30
0.0
  3
*D25
  1

  0
LINE
  5
2BD3
330
243F
100
AcDbEntity
  8
AM_5
100
AcDbLine
 10
2903.971251272294
 20
1320.010756467503
 30
0.0
 11
2916.471251272294
 21
1320.010756467503
 31
0.0
  0
LINE
  5
2BD4
330
243F
100
AcDbEntity
  8
AM_5
100
AcDbLine
 10
2903.971251272294
 20
1345.010756467503
 30
0.0
 11
2916.471251272294
 21
1345.010756467503
 31
0.0
  0
LINE
  5
2BD5
330
243F
100
AcDbEntity
  8
AM_5
100
AcDbLine
 10
2914.971251272294
 20
1323.010756467503
 30
0.0
 11
2914.971251272294
 21
1342.010756467503
 31
0.0
  0
SOLID
  5
2BD6
330
243F
100
AcDbEntity
  8
AM_5
100
AcDbTrace
 10
2914.471251272294
 20
1323.010756467503
 30
0.0
 11
2915.471251272294
 21
1323.010756467503
 31
0.0
 12
2914.971251272294
 22
1320.010756467503
 32
0.0
 13
2914.971251272294
 23
1320.010756467503
 33
0.0
  0
SOLID
  5
2BD7
330
243F
100
AcDbEntity
  8
AM_5
100
AcDbTrace
 10
2914.471251272294
 20
1342.010756467503
 30
0.0
 11
2915.471251272294
 21
1342.010756467503
 31
0.0
 12
2914.971251272294
 22
1345.010756467503
 32
0.0
 13
2914.971251272294
 23
1345.010756467503
 33
0.0
  0
MTEXT
  5
2BD8
330
243F
100
AcDbEntity
  8
AM_5
100
AcDbMText
 10
2912.471251272294
 20
1332.510756467503
 30
0.0
 40
3.0
 41
0.0
 71
     5
 72
     1
  1
25
  7
CHINESET
 11
0.0000000000000001
 21
1.0
 31
0.0
 73
     1
 44
1.0
1001
ACAD
1000
MTEXTBEGIN
1070
    73
1070
     1
1070
    44
1040
1.0
1070
    74
1070
     0
1000
MTEXTEND
  0
POINT
  5
2BD9
330
243F
100
AcDbEntity
  8
Defpoints
 62
     0
100
AcDbPoint
 10
2902.971251272294
 20
1320.010756467503
 30
0.0
  0
POINT
  5
2BDA
330
243F
100
AcDbEntity
  8
Defpoints
 62
     0
100
AcDbPoint
 10
2902.971251272294
 20
1345.010756467503
 30
0.0
  0
POINT
  5
2BDB
330
243F
100
AcDbEntity
  8
Defpoints
 62
     0
100
AcDbPoint
 10
2914.971251272294
 20
1345.010756467503
 30
0.0
  0
ENDBLK
  5
244A
330
243F
100
AcDbEntity
  8
0
100
AcDbBlockEnd
  0
BLOCK
  5
246F
330
2465
100
AcDbEntity
  8
0
100
AcDbBlockBegin
  2
*D26
 70
     1
 10
0.0
 20
0.0
 30
0.0
  3
*D26
  1

  0
LINE
  5
2BDC
330
2465
100
AcDbEntity
  8
AM_5
100
AcDbLine
 10
2903.971251272294
 20
1345.010756467503
 30
0.0
 11
2916.471251272294
 21
1345.010756467503
 31
0.0
  0
LINE
  5
2BDD
330
2465
100
AcDbEntity
  8
AM_5
100
AcDbLine
 10
2901.971251272294
 20
1403.010756467503
 30
0.0
 11
2916.471251272294
 21
1403.010756467503
 31
0.0
  0
LINE
  5
2BDE
330
2465
100
AcDbEntity
  8
AM_5
100
AcDbLine
 10
2914.971251272294
 20
1348.010756467503
 30
0.0
 11
2914.971251272294
 21
1400.010756467503
 31
0.0
  0
SOLID
  5
2BDF
330
2465
100
AcDbEntity
  8
AM_5
100
AcDbTrace
 10
2914.471251272294
 20
1348.010756467503
 30
0.0
 11
2915.471251272294
 21
1348.010756467503
 31
0.0
 12
2914.971251272294
 22
1345.010756467503
 32
0.0
 13
2914.971251272294
 23
1345.010756467503
 33
0.0
  0
SOLID
  5
2BE0
330
2465
100
AcDbEntity
  8
AM_5
100
AcDbTrace
 10
2914.471251272294
 20
1400.010756467503
 30
0.0
 11
2915.471251272294
 21
1400.010756467503
 31
0.0
 12
2914.971251272294
 22
1403.010756467503
 32
0.0
 13
2914.971251272294
 23
1403.010756467503
 33
0.0
  0
MTEXT
  5
2BE1
330
2465
100
AcDbEntity
  8
AM_5
100
AcDbMText
 10
2912.471251272294
 20
1374.010756467503
 30
0.0
 40
3.0
 41
0.0
 71
     5
 72
     1
  1
58
  7
CHINESET
 11
0.0000000000000001
 21
1.0
 31
0.0
 73
     1
 44
1.0
1001
ACAD
1000
MTEXTBEGIN
1070
    73
1070
     1
1070
    44
1040
1.0
1070
    74
1070
     0
1000
MTEXTEND
  0
POINT
  5
2BE2
330
2465
100
AcDbEntity
  8
Defpoints
 62
     0
100
AcDbPoint
 10
2902.971251272294
 20
1345.010756467503
 30
0.0
  0
POINT
  5
2BE3
330
2465
100
AcDbEntity
  8
Defpoints
 62
     0
100
AcDbPoint
 10
2900.971251272294
 20
1403.010756467503
 30
0.0
  0
POINT
  5
2BE4
330
2465
100
AcDbEntity
  8
Defpoints
 62
     0
100
AcDbPoint
 10
2914.971251272294
 20
1403.010756467503
 30
0.0
  0
ENDBLK
  5
2470
330
2465
100
AcDbEntity
  8
0
100
AcDbBlockEnd
  0
BLOCK
  5
2495
330
248B
100
AcDbEntity
  8
0
100
AcDbBlockBegin
  2
*D27
 70
     1
 10
0.0
 20
0.0
 30
0.0
  3
*D27
  1

  0
LINE
  5
2E24
330
248B
100
AcDbEntity
  8
AM_5
100
AcDbLine
 10
2842.971251272294
 20
1402.010756467503
 30
0.0
 11
2842.971251272294
 21
1447.510757467503
 31
0.0
  0
LINE
  5
2E25
330
248B
100
AcDbEntity
  8
AM_5
100
AcDbLine
 10
2902.971251272294
 20
1402.010756467503
 30
0.0
 11
2902.971251272294
 21
1447.510757467503
 31
0.0
  0
LINE
  5
2E26
330
248B
100
AcDbEntity
  8
AM_5
100
AcDbLine
 10
2845.971251272294
 20
1446.010757467503
 30
0.0
 11
2899.971251272294
 21
1446.010757467503
 31
0.0
  0
SOLID
  5
2E27
330
248B
100
AcDbEntity
  8
AM_5
100
AcDbTrace
 10
2845.971251272294
 20
1446.510757467503
 30
0.0
 11
2845.971251272294
 21
1445.510757467503
 31
0.0
 12
2842.971251272294
 22
1446.010757467503
 32
0.0
 13
2842.971251272294
 23
1446.010757467503
 33
0.0
  0
SOLID
  5
2E28
330
248B
100
AcDbEntity
  8
AM_5
100
AcDbTrace
 10
2899.971251272294
 20
1446.510757467503
 30
0.0
 11
2899.971251272294
 21
1445.510757467503
 31
0.0
 12
2902.971251272294
 22
1446.010757467503
 32
0.0
 13
2902.971251272294
 23
1446.010757467503
 33
0.0
  0
MTEXT
  5
2E29
330
248B
100
AcDbEntity
  8
AM_5
100
AcDbMText
 10
2872.971251272294
 20
1448.510757467503
 30
0.0
 40
3.0
 41
0.0
 71
     5
 72
     1
  1
M60x1.5
  7
CHINESET
 73
     1
 44
1.0
1001
ACAD
1000
MTEXTBEGIN
1070
    73
1070
     1
1070
    44
1040
1.0
1070
    74
1070
     0
1000
MTEXTEND
  0
POINT
  5
2E2A
330
248B
100
AcDbEntity
  8
Defpoints
 62
     0
100
AcDbPoint
 10
2842.971251272294
 20
1401.010756467503
 30
0.0
  0
POINT
  5
2E2B
330
248B
100
AcDbEntity
  8
Defpoints
 62
     0
100
AcDbPoint
 10
2902.971251272294
 20
1401.010756467503
 30
0.0
  0
POINT
  5
2E2C
330
248B
100
AcDbEntity
  8
Defpoints
 62
     0
100
AcDbPoint
 10
2902.971251272294
 20
1446.010757467503
 30
0.0
  0
ENDBLK
  5
2496
330
248B
100
AcDbEntity
  8
0
100
AcDbBlockEnd
  0
BLOCK
  5
250A
330
2500
100
AcDbEntity
  8
0
100
AcDbBlockBegin
  2
*D28
 70
     1
 10
0.0
 20
0.0
 30
0.0
  3
*D28
  1

  0
LINE
  5
2BEE
330
2500
100
AcDbEntity
  8
AM_5
100
AcDbLine
 10
2903.971251272294
 20
1320.010756467503
 30
0.0
 11
2924.471251272294
 21
1320.010756467503
 31
0.0
  0
LINE
  5
2BEF
330
2500
100
AcDbEntity
  8
AM_5
100
AcDbLine
 10
2901.971251272294
 20
1403.010756467503
 30
0.0
 11
2924.471251272294
 21
1403.010756467503
 31
0.0
  0
LINE
  5
2BF0
330
2500
100
AcDbEntity
  8
AM_5
100
AcDbLine
 10
2922.971251272294
 20
1323.010756467503
 30
0.0
 11
2922.971251272294
 21
1400.010756467503
 31
0.0
  0
SOLID
  5
2BF1
330
2500
100
AcDbEntity
  8
AM_5
100
AcDbTrace
 10
2922.471251272293
 20
1323.010756467503
 30
0.0
 11
2923.471251272294
 21
1323.010756467503
 31
0.0
 12
2922.971251272294
 22
1320.010756467503
 32
0.0
 13
2922.971251272294
 23
1320.010756467503
 33
0.0
  0
SOLID
  5
2BF2
330
2500
100
AcDbEntity
  8
AM_5
100
AcDbTrace
 10
2922.471251272293
 20
1400.010756467503
 30
0.0
 11
2923.471251272294
 21
1400.010756467503
 31
0.0
 12
2922.971251272294
 22
1403.010756467503
 32
0.0
 13
2922.971251272294
 23
1403.010756467503
 33
0.0
  0
MTEXT
  5
2BF3
330
2500
100
AcDbEntity
  8
AM_5
100
AcDbMText
 10
2920.471251272293
 20
1361.510756467503
 30
0.0
 40
3.0
 41
0.0
 71
     5
 72
     1
  1
83
  7
CHINESET
 11
0.0000000000000001
 21
1.0
 31
0.0
 73
     1
 44
1.0
1001
ACAD
1000
MTEXTBEGIN
1070
    73
1070
     1
1070
    44
1040
1.0
1070
    74
1070
     0
1000
MTEXTEND
  0
POINT
  5
2BF4
330
2500
100
AcDbEntity
  8
Defpoints
 62
     0
100
AcDbPoint
 10
2902.971251272294
 20
1320.010756467503
 30
0.0
  0
POINT
  5
2BF5
330
2500
100
AcDbEntity
  8
Defpoints
 62
     0
100
AcDbPoint
 10
2900.971251272294
 20
1403.010756467503
 30
0.0
  0
POINT
  5
2BF6
330
2500
100
AcDbEntity
  8
Defpoints
 62
     0
100
AcDbPoint
 10
2922.971251272294
 20
1403.010756467503
 30
0.0
  0
ENDBLK
  5
250B
330
2500
100
AcDbEntity
  8
0
100
AcDbBlockEnd
  0
BLOCK
  5
2C36
330
2C2C
100
AcDbEntity
  8
0
100
AcDbBlockBegin
  2
*D29
 70
     1
 10
0.0
 20
0.0
 30
0.0
  3
*D29
  1

  0
LINE
  5
2F4E
330
2C2C
100
AcDbEntity
  8
AM_5
100
AcDbLine
 10
2881.454566045842
 20
1515.137053681125
 30
0.0
 11
2920.768907708574
 21
1515.137053681125
 31
0.0
  0
LINE
  5
2F4F
330
2C2C
100
AcDbEntity
  8
AM_5
100
AcDbLine
 10
2881.454566045842
 20
1489.137053681125
 30
0.0
 11
2920.768907708574
 21
1489.137053681125
 31
0.0
  0
LINE
  5
2F50
330
2C2C
100
AcDbEntity
  8
AM_5
100
AcDbLine
 10
2919.268907708574
 20
1512.137053681125
 30
0.0
 11
2919.268907708574
 21
1492.137053681125
 31
0.0
  0
SOLID
  5
2F51
330
2C2C
100
AcDbEntity
  8
AM_5
100
AcDbTrace
 10
2918.768907708574
 20
1512.137053681125
 30
0.0
 11
2919.768907708574
 21
1512.137053681125
 31
0.0
 12
2919.268907708574
 22
1515.137053681125
 32
0.0
 13
2919.268907708574
 23
1515.137053681125
 33
0.0
  0
SOLID
  5
2F52
330
2C2C
100
AcDbEntity
  8
AM_5
100
AcDbTrace
 10
2918.768907708574
 20
1492.137053681125
 30
0.0
 11
2919.768907708574
 21
1492.137053681125
 31
0.0
 12
2919.268907708574
 22
1489.137053681125
 32
0.0
 13
2919.268907708574
 23
1489.137053681125
 33
0.0
  0
MTEXT
  5
2F53
330
2C2C
100
AcDbEntity
  8
AM_5
100
AcDbMText
 10
2916.768907708573
 20
1502.137053681126
 30
0.0
 40
3.0
 41
0.0
 71
     5
 72
     1
  1
26
  7
CHINESET
 11
0.0000000000000001
 21
1.0
 31
0.0
 73
     1
 44
1.0
1001
ACAD
1000
MTEXTBEGIN
1070
    73
1070
     1
1070
    44
1040
1.0
1070
    74
1070
     0
1000
MTEXTEND
  0
POINT
  5
2F54
330
2C2C
100
AcDbEntity
  8
Defpoints
 62
     0
100
AcDbPoint
 10
2880.454566045841
 20
1515.137053681125
 30
0.0
  0
POINT
  5
2F55
330
2C2C
100
AcDbEntity
  8
Defpoints
 62
     0
100
AcDbPoint
 10
2880.454566045841
 20
1489.137053681125
 30
0.0
  0
POINT
  5
2F56
330
2C2C
100
AcDbEntity
  8
Defpoints
 62
     0
100
AcDbPoint
 10
2919.268907708574
 20
1489.137053681125
 30
0.0
  0
ENDBLK
  5
2C37
330
2C2C
100
AcDbEntity
  8
0
100
AcDbBlockEnd
  0
BLOCK
  5
2C76
330
2C71
100
AcDbEntity
  8
0
100
AcDbBlockBegin
  2
*S30
 70
     1
 10
0.0
 20
0.0
 30
0.0
  3
*S30
  1

  0
LINE
  5
2C72
330
2C71
100
AcDbEntity
  8
AM_5
 62
     5
100
AcDbLine
 10
2910.074855081004
 20
1307.323474862511
 30
0.0
 11
2895.374855081004
 21
1307.323474862511
 31
0.0
  0
LINE
  5
2C73
330
2C71
100
AcDbEntity
  8
AM_5
 62
     5
100
AcDbLine
 10
2895.374855081004
 20
1307.323474862511
 30
0.0
 11
2879.235214065613
 21
1328.787764507754
 31
0.0
  0
TRACE
  5
2C74
330
2C71
100
AcDbEntity
  8
AM_5
 62
     5
370
    35
100
AcDbTrace
 10
2879.603499615743
 20
1329.064689422041
 30
0.0
 11
2878.866928515483
 21
1328.510839593466
 31
0.0
 12
2877.131760499612
 22
1331.585171002291
 32
0.0
 13
2877.131760499612
 23
1331.585171002291
 33
0.0
  0
MTEXT
  5
2C75
330
2C71
100
AcDbEntity
  8
AM_5
 62
     5
100
AcDbMText
 10
2898.874855081004
 20
1309.073474862511
 30
0.0
 40
3.5
 41
0.0
 71
     7
 72
     5
  1
PT1/8
  7
ACISOTS
 73
     1
 44
1.0
1001
ACAD
1000
MTEXTBEGIN
1070
    73
1070
     1
1070
    44
1040
1.0
1070
    74
1070
     0
1000
MTEXTEND
  0
ENDBLK
  5
2C77
330
2C71
100
AcDbEntity
  8
0
100
AcDbBlockEnd
  0
BLOCK
  5
2C7E
330
2C79
100
AcDbEntity
  8
0
100
AcDbBlockBegin
  2
*S31
 70
     1
 10
0.0
 20
0.0
 30
0.0
  3
*S31
  1

  0
LINE
  5
2C7A
330
2C79
100
AcDbEntity
  8
AM_5
 62
     5
100
AcDbLine
 10
2703.776326511972
 20
1306.164696059738
 30
0.0
 11
2689.076326511973
 21
1306.164696059738
 31
0.0
  0
LINE
  5
2C7B
330
2C79
100
AcDbEntity
  8
AM_5
 62
     5
100
AcDbLine
 10
2689.076326511973
 20
1306.164696059738
 30
0.0
 11
2676.838642624489
 21
1324.86743803209
 31
0.0
  0
TRACE
  5
2C7C
330
2C79
100
AcDbEntity
  8
AM_5
 62
     5
370
    35
100
AcDbTrace
 10
2677.224219908388
 20
1325.119731140851
 30
0.0
 11
2676.453065340589
 21
1324.615144923329
 31
0.0
 12
2674.922286197455
 22
1327.79618828511
 32
0.0
 13
2674.922286197455
 23
1327.79618828511
 33
0.0
  0
MTEXT
  5
2C7D
330
2C79
100
AcDbEntity
  8
AM_5
 62
     5
100
AcDbMText
 10
2692.576326511972
 20
1307.914696059738
 30
0.0
 40
3.5
 41
0.0
 71
     7
 72
     5
  1
PT1/8
  7
ACISOTS
 73
     1
 44
1.0
1001
ACAD
1000
MTEXTBEGIN
1070
    73
1070
     1
1070
    44
1040
1.0
1070
    74
1070
     0
1000
MTEXTEND
  0
ENDBLK
  5
2C7F
330
2C79
100
AcDbEntity
  8
0
100
AcDbBlockEnd
  0
BLOCK
  5
2D7E
330
2D74
100
AcDbEntity
  8
0
100
AcDbBlockBegin
  2
*D32
 70
     1
 10
0.0
 20
0.0
 30
0.0
  3
*D32
  1

  0
LINE
  5
2DF8
330
2D74
100
AcDbEntity
  8
AM_5
100
AcDbLine
 10
2683.631369223168
 20
1687.361889418889
 30
0.0
 11
2699.023982606844
 21
1687.361889418889
 31
0.0
  0
LINE
  5
2DF9
330
2D74
100
AcDbEntity
  8
AM_5
100
AcDbLine
 10
2686.773982606844
 20
1676.364813206626
 30
0.0
 11
2699.023982606844
 21
1676.364813206626
 31
0.0
  0
LINE
  5
2DFA
330
2D74
100
AcDbEntity
  8
AM_5
100
AcDbLine
 10
2697.523982606844
 20
1684.36188941889
 30
0.0
 11
2697.523982606844
 21
1679.364813206626
 31
0.0
  0
SOLID
  5
2DFB
330
2D74
100
AcDbEntity
  8
AM_5
100
AcDbTrace
 10
2697.023982606844
 20
1684.36188941889
 30
0.0
 11
2698.023982606844
 21
1684.36188941889
 31
0.0
 12
2697.523982606844
 22
1687.361889418889
 32
0.0
 13
2697.523982606844
 23
1687.361889418889
 33
0.0
  0
SOLID
  5
2DFC
330
2D74
100
AcDbEntity
  8
AM_5
100
AcDbTrace
 10
2697.023982606844
 20
1679.364813206626
 30
0.0
 11
2698.023982606844
 21
1679.364813206626
 31
0.0
 12
2697.523982606844
 22
1676.364813206626
 32
0.0
 13
2697.523982606844
 23
1676.364813206626
 33
0.0
  0
MTEXT
  5
2DFD
330
2D74
100
AcDbEntity
  8
AM_5
100
AcDbMText
 10
2695.023982606844
 20
1681.863351312758
 30
0.0
 40
3.0
 41
0.0
 71
     5
 72
     1
  1
11
  7
CHINESET
 11
0.0000000000000001
 21
1.0
 31
0.0
 73
     1
 44
1.0
1001
ACAD
1000
MTEXTBEGIN
1070
    73
1070
     1
1070
    44
1040
1.0
1070
    74
1070
     0
1000
MTEXTEND
  0
POINT
  5
2DFE
330
2D74
100
AcDbEntity
  8
Defpoints
 62
     0
100
AcDbPoint
 10
2682.631369223168
 20
1687.361889418889
 30
0.0
  0
POINT
  5
2DFF
330
2D74
100
AcDbEntity
  8
Defpoints
 62
     0
100
AcDbPoint
 10
2685.773982606844
 20
1676.364813206626
 30
0.0
  0
POINT
  5
2E00
330
2D74
100
AcDbEntity
  8
Defpoints
 62
     0
100
AcDbPoint
 10
2697.523982606844
 20
1676.364813206626
 30
0.0
  0
ENDBLK
  5
2D7F
330
2D74
100
AcDbEntity
  8
0
100
AcDbBlockEnd
  0
BLOCK
  5
2DC3
330
2DB9
100
AcDbEntity
  8
0
100
AcDbBlockBegin
  2
*D33
 70
     1
 10
0.0
 20
0.0
 30
0.0
  3
*D33
  1

  0
LINE
  5
2E0B
330
2DB9
100
AcDbEntity
  8
AM_5
100
AcDbLine
 10
2885.410805963756
 20
1688.123906722951
 30
0.0
 11
2900.721251272294
 21
1688.123906722951
 31
0.0
  0
LINE
  5
2E0C
330
2DB9
100
AcDbEntity
  8
AM_5
100
AcDbLine
 10
2888.471251272294
 20
1677.123906722951
 30
0.0
 11
2900.721251272294
 21
1677.123906722951
 31
0.0
  0
LINE
  5
2E0D
330
2DB9
100
AcDbEntity
  8
AM_5
100
AcDbLine
 10
2899.221251272294
 20
1685.123906722951
 30
0.0
 11
2899.221251272294
 21
1680.123906722951
 31
0.0
  0
SOLID
  5
2E0E
330
2DB9
100
AcDbEntity
  8
AM_5
100
AcDbTrace
 10
2898.721251272294
 20
1685.123906722951
 30
0.0
 11
2899.721251272294
 21
1685.123906722951
 31
0.0
 12
2899.221251272294
 22
1688.123906722951
 32
0.0
 13
2899.221251272294
 23
1688.123906722951
 33
0.0
  0
SOLID
  5
2E0F
330
2DB9
100
AcDbEntity
  8
AM_5
100
AcDbTrace
 10
2898.721251272294
 20
1680.123906722951
 30
0.0
 11
2899.721251272294
 21
1680.123906722951
 31
0.0
 12
2899.221251272294
 22
1677.123906722951
 32
0.0
 13
2899.221251272294
 23
1677.123906722951
 33
0.0
  0
MTEXT
  5
2E10
330
2DB9
100
AcDbEntity
  8
AM_5
100
AcDbMText
 10
2896.721251272293
 20
1682.623906722951
 30
0.0
 40
3.0
 41
0.0
 71
     5
 72
     1
  1
11
  7
CHINESET
 11
0.0000000000000001
 21
1.0
 31
0.0
 73
     1
 44
1.0
1001
ACAD
1000
MTEXTBEGIN
1070
    73
1070
     1
1070
    44
1040
1.0
1070
    74
1070
     0
1000
MTEXTEND
  0
POINT
  5
2E11
330
2DB9
100
AcDbEntity
  8
Defpoints
 62
     0
100
AcDbPoint
 10
2884.410805963755
 20
1688.123906722951
 30
0.0
  0
POINT
  5
2E12
330
2DB9
100
AcDbEntity
  8
Defpoints
 62
     0
100
AcDbPoint
 10
2887.471251272294
 20
1677.123906722951
 30
0.0
  0
POINT
  5
2E13
330
2DB9
100
AcDbEntity
  8
Defpoints
 62
     0
100
AcDbPoint
 10
2899.221251272294
 20
1677.123906722951
 30
0.0
  0
ENDBLK
  5
2DC4
330
2DB9
100
AcDbEntity
  8
0
100
AcDbBlockEnd
  0
BLOCK
  5
2E66
330
2E5C
100
AcDbEntity
  8
0
100
AcDbBlockBegin
  2
*D34
 70
     1
 10
0.0
 20
0.0
 30
0.0
  3
*D34
  1

  0
LINE
  5
2E6A
330
2E5C
100
AcDbEntity
  8
AM_5
100
AcDbLine
 10
2887.471251272294
 20
1426.010756467503
 30
0.0
 11
2932.471251272294
 21
1426.010756467503
 31
0.0
  0
LINE
  5
2E6B
330
2E5C
100
AcDbEntity
  8
AM_5
100
AcDbLine
 10
2903.971251272294
 20
1320.010756467503
 30
0.0
 11
2932.471251272294
 21
1320.010756467503
 31
0.0
  0
LINE
  5
2E6C
330
2E5C
100
AcDbEntity
  8
AM_5
100
AcDbLine
 10
2930.971251272294
 20
1423.010756467503
 30
0.0
 11
2930.971251272294
 21
1323.010756467503
 31
0.0
  0
SOLID
  5
2E6D
330
2E5C
100
AcDbEntity
  8
AM_5
100
AcDbTrace
 10
2930.471251272294
 20
1423.010756467503
 30
0.0
 11
2931.471251272294
 21
1423.010756467503
 31
0.0
 12
2930.971251272294
 22
1426.010756467503
 32
0.0
 13
2930.971251272294
 23
1426.010756467503
 33
0.0
  0
SOLID
  5
2E6E
330
2E5C
100
AcDbEntity
  8
AM_5
100
AcDbTrace
 10
2930.471251272294
 20
1323.010756467503
 30
0.0
 11
2931.471251272294
 21
1323.010756467503
 31
0.0
 12
2930.971251272294
 22
1320.010756467503
 32
0.0
 13
2930.971251272294
 23
1320.010756467503
 33
0.0
  0
MTEXT
  5
2E6F
330
2E5C
100
AcDbEntity
  8
AM_5
100
AcDbMText
 10
2928.471251272294
 20
1373.010756467503
 30
0.0
 40
3.0
 41
0.0
 71
     5
 72
     1
  1
106
  7
CHINESET
 11
0.0000000000000001
 21
1.0
 31
0.0
 73
     1
 44
1.0
1001
ACAD
1000
MTEXTBEGIN
1070
    73
1070
     1
1070
    44
1040
1.0
1070
    74
1070
     0
1000
MTEXTEND
  0
POINT
  5
2E70
330
2E5C
100
AcDbEntity
  8
Defpoints
 62
     0
100
AcDbPoint
 10
2886.471251272294
 20
1426.010756467503
 30
0.0
  0
POINT
  5
2E71
330
2E5C
100
AcDbEntity
  8
Defpoints
 62
     0
100
AcDbPoint
 10
2902.971251272294
 20
1320.010756467503
 30
0.0
  0
POINT
  5
2E72
330
2E5C
100
AcDbEntity
  8
Defpoints
 62
     0
100
AcDbPoint
 10
2930.971251272294
 20
1320.010756467503
 30
0.0
  0
ENDBLK
  5
2E67
330
2E5C
100
AcDbEntity
  8
0
100
AcDbBlockEnd
  0
BLOCK
  5
2E9F
330
2E95
100
AcDbEntity
  8
0
100
AcDbBlockBegin
  2
*D35
 70
     1
 10
0.0
 20
0.0
 30
0.0
  3
*D35
  1

  0
LINE
  5
2EA3
330
2E95
100
AcDbEntity
  8
AM_5
100
AcDbLine
 10
2700.273982606844
 20
1403.010756467503
 30
0.0
 11
2716.773982606845
 21
1403.010756467503
 31
0.0
  0
LINE
  5
2EA4
330
2E95
100
AcDbEntity
  8
AM_5
100
AcDbLine
 10
2703.273982606845
 20
1345.010756467503
 30
0.0
 11
2716.773982606845
 21
1345.010756467503
 31
0.0
  0
LINE
  5
2EA5
330
2E95
100
AcDbEntity
  8
AM_5
100
AcDbLine
 10
2715.273982606845
 20
1400.010756467503
 30
0.0
 11
2715.273982606845
 21
1348.010756467503
 31
0.0
  0
SOLID
  5
2EA6
330
2E95
100
AcDbEntity
  8
AM_5
100
AcDbTrace
 10
2714.773982606845
 20
1400.010756467503
 30
0.0
 11
2715.773982606845
 21
1400.010756467503
 31
0.0
 12
2715.273982606845
 22
1403.010756467503
 32
0.0
 13
2715.273982606845
 23
1403.010756467503
 33
0.0
  0
SOLID
  5
2EA7
330
2E95
100
AcDbEntity
  8
AM_5
100
AcDbTrace
 10
2714.773982606845
 20
1348.010756467503
 30
0.0
 11
2715.773982606845
 21
1348.010756467503
 31
0.0
 12
2715.273982606845
 22
1345.010756467503
 32
0.0
 13
2715.273982606845
 23
1345.010756467503
 33
0.0
  0
MTEXT
  5
2EA8
330
2E95
100
AcDbEntity
  8
AM_5
100
AcDbMText
 10
2712.773982606844
 20
1374.010756467503
 30
0.0
 40
3.0
 41
0.0
 71
     5
 72
     1
  1
58
  7
CHINESET
 11
0.0000000000000001
 21
1.0
 31
0.0
 73
     1
 44
1.0
1001
ACAD
1000
MTEXTBEGIN
1070
    73
1070
     1
1070
    44
1040
1.0
1070
    74
1070
     0
1000
MTEXTEND
  0
POINT
  5
2EA9
330
2E95
100
AcDbEntity
  8
Defpoints
 62
     0
100
AcDbPoint
 10
2699.273982606844
 20
1403.010756467503
 30
0.0
  0
POINT
  5
2EAA
330
2E95
100
AcDbEntity
  8
Defpoints
 62
     0
100
AcDbPoint
 10
2702.273982606844
 20
1345.010756467503
 30
0.0
  0
POINT
  5
2EAB
330
2E95
100
AcDbEntity
  8
Defpoints
 62
     0
100
AcDbPoint
 10
2715.273982606845
 20
1345.010756467503
 30
0.0
  0
ENDBLK
  5
2EA0
330
2E95
100
AcDbEntity
  8
0
100
AcDbBlockEnd
  0
BLOCK
  5
3013
330
3012
100
AcDbEntity
  8
0
100
AcDbBlockBegin
  2
*U40
 70
     1
 10
0.0
 20
0.0
 30
0.0
  3
*U40
  1

  0
ENDBLK
  5
3014
330
3012
100
AcDbEntity
  8
0
100
AcDbBlockEnd
  0
ENDSEC
  0
SECTION
  2
ENTITIES
  0
TEXT
  5
1B7A
330
1F
100
AcDbEntity
  8
0
100
AcDbText
 10
2581.446371511081
 20
1780.909493377338
 30
0.0
 40
6.0
  1
MSP-16A
 41
0.75
  7
CHINESET
100
AcDbText
  0
LINE
  5
1CEE
330
1F
100
AcDbEntity
  8
0
100
AcDbLine
 10
2686.273982606844
 20
1641.864813206626
 30
0.0
 11
2686.273982606844
 21
1675.864813206626
 31
0.0
  0
LINE
  5
1CEF
330
1F
100
AcDbEntity
  8
0
100
AcDbLine
 10
2684.773982606844
 20
1633.364813206626
 30
0.0
 11
2657.773982606844
 21
1633.364813206626
 31
0.0
  0
LINE
  5
1CF0
102
{ACAD_REACTORS
330
1FB6
102
}
330
1F
100
AcDbEntity
  8
0
100
AcDbLine
 10
2682.713537298306
 20
1687.364813206626
 30
0.0
 11
2659.960508018921
 21
1687.364813206626
 31
0.0
  0
LINE
  5
1CF1
330
1F
100
AcDbEntity
  8
0
100
AcDbLine
 10
2685.773982606844
 20
1641.364813206626
 30
0.0
 11
2671.273982606845
 21
1641.364813206626
 31
0.0
  0
LINE
  5
1CF2
330
1F
100
AcDbEntity
  8
0
100
AcDbLine
 10
2685.273982606844
 20
1633.864813206626
 30
0.0
 11
2671.273982606845
 21
1633.864813206626
 31
0.0
  0
LINE
  5
1CF3
330
1F
100
AcDbEntity
  8
0
100
AcDbLine
 10
2686.273982606844
 20
1641.864813206626
 30
0.0
 11
2671.273982606845
 21
1641.864813206626
 31
0.0
  0
LINE
  5
1CF4
330
1F
100
AcDbEntity
  8
0
100
AcDbLine
 10
2685.273982606844
 20
1633.864813206626
 30
0.0
 11
2685.273982606844
 21
1641.364813206626
 31
0.0
  0
LINE
  5
1CF5
102
{ACAD_REACTORS
330
1F8E
330
202C
102
}
330
1F
100
AcDbEntity
  8
0
100
AcDbLine
 10
2685.773982606844
 20
1641.364813206626
 30
0.0
 11
2686.273982606844
 21
1641.864813206626
 31
0.0
  0
LINE
  5
1CF6
102
{ACAD_REACTORS
330
1F8E
330
1FB6
330
1FDC
102
}
330
1F
100
AcDbEntity
  8
0
100
AcDbLine
 10
2684.773982606844
 20
1633.364813206626
 30
0.0
 11
2685.273982606844
 21
1633.864813206626
 31
0.0
  0
CIRCLE
  5
1CF9
330
1F
100
AcDbEntity
  8
0
100
AcDbCircle
 10
2671.273982606845
 20
1744.890708573392
 30
0.0
 40
15.0
  0
CIRCLE
  5
1CFA
330
1F
100
AcDbEntity
  8
0
100
AcDbCircle
 10
2671.273982606845
 20
1744.890708573392
 30
0.0
 40
14.25
  0
LINE
  5
1CFB
330
1F
100
AcDbEntity
  8
0
100
AcDbLine
 10
2662.613728569
 20
1755.890708573392
 30
0.0
 11
2657.417576146294
 21
1746.890708573392
 31
0.0
  0
LINE
  5
1CFC
330
1F
100
AcDbEntity
  8
0
100
AcDbLine
 10
2685.130389067396
 20
1742.890708573392
 30
0.0
 11
2679.934236644689
 21
1733.890708573392
 31
0.0
  0
LINE
  5
1CFD
330
1F
100
AcDbEntity
  8
0
100
AcDbLine
 10
2657.417576146294
 20
1742.890708573392
 30
0.0
 11
2662.613728569
 21
1733.890708573392
 31
0.0
  0
LINE
  5
1CFE
330
1F
100
AcDbEntity
  8
0
100
AcDbLine
 10
2679.934236644689
 20
1755.890708573392
 30
0.0
 11
2685.130389067396
 21
1746.890708573392
 31
0.0
  0
LINE
  5
1CFF
330
1F
100
AcDbEntity
  8
0
100
AcDbLine
 10
2676.470135029551
 20
1757.890708573392
 30
0.0
 11
2666.077830184138
 21
1757.890708573392
 31
0.0
  0
LINE
  5
1D00
330
1F
100
AcDbEntity
  8
0
100
AcDbLine
 10
2676.470135029551
 20
1731.890708573392
 30
0.0
 11
2666.077830184138
 21
1731.890708573392
 31
0.0
  0
ARC
  5
1D01
330
1F
100
AcDbEntity
  8
0
100
AcDbCircle
 10
2671.273982606845
 20
1744.890708573392
 30
0.0
 40
14.0
100
AcDbArc
 50
231.7867892982536
 51
308.2132107017465
  0
ARC
  5
1D02
330
1F
100
AcDbEntity
  8
0
100
AcDbCircle
 10
2671.273982606845
 20
1744.890708573392
 30
0.0
 40
14.0
100
AcDbArc
 50
171.7867892982624
 51
188.2132107017375
  0
ARC
  5
1D03
330
1F
100
AcDbEntity
  8
0
100
AcDbCircle
 10
2671.273982606845
 20
1744.890708573392
 30
0.0
 40
14.0
100
AcDbArc
 50
111.7867892982729
 51
128.2132107017464
  0
ARC
  5
1D04
330
1F
100
AcDbEntity
  8
0
100
AcDbCircle
 10
2671.273982606845
 20
1744.890708573392
 30
0.0
 40
14.0
100
AcDbArc
 50
51.78678929825354
 51
68.21321070172704
  0
ARC
  5
1D05
330
1F
100
AcDbEntity
  8
0
100
AcDbCircle
 10
2671.273982606845
 20
1744.890708573392
 30
0.0
 40
14.0
100
AcDbArc
 50
351.7867892982624
 51
8.213210701737587
  0
LINE
  5
1D06
330
1F
100
AcDbEntity
  8
0
100
AcDbLine
 10
2679.934236644689
 20
1685.920642033416
 30
0.0
 11
2679.934236644689
 21
1676.364813206626
 31
0.0
  0
LINE
  5
1D07
330
1F
100
AcDbEntity
  8
0
100
AcDbLine
 10
2685.773982606844
 20
1676.364813206626
 30
0.0
 11
2686.273982606844
 21
1675.864813206626
 31
0.0
  0
LINE
  5
1D08
330
1F
100
AcDbEntity
  8
0
100
AcDbLine
 10
2685.273982606844
 20
1685.822957101849
 30
0.0
 11
2685.273982606844
 21
1676.364813206626
 31
0.0
  0
ARC
  5
1D09
330
1F
100
AcDbEntity
  8
0
100
AcDbCircle
 10
2682.573982606844
 20
1684.224968013774
 30
0.0
 40
3.137446274536813
100
AcDbArc
 50
30.61907537985989
 51
147.2848286280873
  0
ARC
  5
1D0A
330
1F
100
AcDbEntity
  8
0
100
AcDbCircle
 10
2671.273982606845
 20
1669.891145034323
 30
0.0
 40
17.47126925398817
100
AcDbArc
 50
72.69781568966152
 51
90.0
  0
ARC
  5
1D0B
330
1F
100
AcDbEntity
  8
0
100
AcDbCircle
 10
2676.173910414392
 20
1675.456490114762
 30
0.0
 40
11.11928634107948
100
AcDbArc
 50
70.23393871234413
 51
88.47342464481279
  0
LINE
  5
1D0C
102
{ACAD_REACTORS
330
2D81
102
}
330
1F
100
AcDbEntity
  8
0
100
AcDbLine
 10
2685.773982606844
 20
1676.364813206626
 30
0.0
 11
2671.273982606845
 21
1676.364813206626
 31
0.0
  0
LINE
  5
1D0D
330
1F
100
AcDbEntity
  8
0
100
AcDbLine
 10
2686.273982606844
 20
1675.864813206626
 30
0.0
 11
2671.258846268847
 21
1675.864813206626
 31
0.0
  0
ARC
  5
1D0E
330
1F
100
AcDbEntity
  8
0
100
AcDbCircle
 10
2671.273982606845
 20
1669.891145034323
 30
0.0
 40
17.47126925398817
100
AcDbArc
 50
90.0
 51
107.3021843103384
  0
LINE
  5
1D0F
330
1F
100
AcDbEntity
  8
0
100
AcDbLine
 10
2656.273982606844
 20
1675.864813206626
 30
0.0
 11
2671.289118944843
 21
1675.864813206626
 31
0.0
  0
LINE
  5
1D10
330
1F
100
AcDbEntity
  8
0
100
AcDbLine
 10
2656.773982606845
 20
1676.364813206626
 30
0.0
 11
2671.273982606845
 21
1676.364813206626
 31
0.0
  0
LINE
  5
1D11
330
1F
100
AcDbEntity
  8
0
100
AcDbLine
 10
2656.273982606844
 20
1641.864813206626
 30
0.0
 11
2671.273982606845
 21
1641.864813206626
 31
0.0
  0
LINE
  5
1D12
330
1F
100
AcDbEntity
  8
0
100
AcDbLine
 10
2657.273982606844
 20
1633.864813206626
 30
0.0
 11
2671.273982606845
 21
1633.864813206626
 31
0.0
  0
LINE
  5
1D13
330
1F
100
AcDbEntity
  8
0
100
AcDbLine
 10
2656.773982606845
 20
1641.364813206626
 30
0.0
 11
2671.273982606845
 21
1641.364813206626
 31
0.0
  0
LINE
  5
1D14
330
1F
100
AcDbEntity
  8
0
100
AcDbLine
 10
2662.613728569
 20
1685.920642033416
 30
0.0
 11
2662.613728569
 21
1676.364813206626
 31
0.0
  0
LINE
  5
1D15
330
1F
100
AcDbEntity
  8
0
100
AcDbLine
 10
2657.273982606844
 20
1685.822957101849
 30
0.0
 11
2657.273982606844
 21
1676.364813206626
 31
0.0
  0
LINE
  5
1D16
330
1F
100
AcDbEntity
  8
0
100
AcDbLine
 10
2656.273982606844
 20
1641.864813206626
 30
0.0
 11
2656.273982606844
 21
1675.864813206626
 31
0.0
  0
LINE
  5
1D17
330
1F
100
AcDbEntity
  8
0
100
AcDbLine
 10
2657.273982606844
 20
1633.864813206626
 30
0.0
 11
2657.273982606844
 21
1641.364813206626
 31
0.0
  0
LINE
  5
1D18
330
1F
100
AcDbEntity
  8
0
100
AcDbLine
 10
2657.773982606844
 20
1633.364813206626
 30
0.0
 11
2657.273982606844
 21
1633.864813206626
 31
0.0
  0
LINE
  5
1D19
102
{ACAD_REACTORS
330
202C
102
}
330
1F
100
AcDbEntity
  8
0
100
AcDbLine
 10
2656.773982606845
 20
1641.364813206626
 30
0.0
 11
2656.273982606844
 21
1641.864813206626
 31
0.0
  0
LINE
  5
1D1A
330
1F
100
AcDbEntity
  8
0
100
AcDbLine
 10
2656.773982606845
 20
1676.364813206626
 30
0.0
 11
2656.273982606844
 21
1675.864813206626
 31
0.0
  0
ARC
  5
1D1B
330
1F
100
AcDbEntity
  8
0
100
AcDbCircle
 10
2659.973982606845
 20
1684.224968013774
 30
0.0
 40
3.137446274536813
100
AcDbArc
 50
32.71517137191271
 51
149.3809246201401
  0
ARC
  5
1D1C
330
1F
100
AcDbEntity
  8
0
100
AcDbCircle
 10
2666.374054799297
 20
1675.456490114762
 30
0.0
 40
11.11928634107948
100
AcDbArc
 50
91.52657535518722
 51
109.7660612876558
  0
LINE
  5
1D1D
330
1F
100
AcDbEntity
  8
0
100
AcDbLine
 10
2685.523982606844
 20
1641.864813206626
 30
0.0
 11
2685.523982606844
 21
1675.864813206626
 31
0.0
  0
LINE
  5
1D1E
330
1F
100
AcDbEntity
  8
0
100
AcDbLine
 10
2657.023982606844
 20
1641.864813206626
 30
0.0
 11
2657.023982606844
 21
1675.864813206626
 31
0.0
  0
LINE
  5
1D1F
330
1F
100
AcDbEntity
  8
0
100
AcDbLine
 10
2678.601412171242
 20
1712.364813206626
 30
0.0
 11
2663.946553042447
 21
1712.364813206626
 31
0.0
  0
LINE
  5
1D20
330
1F
100
AcDbEntity
  8
0
100
AcDbLine
 10
2679.273982606844
 20
1687.364813206626
 30
0.0
 11
2679.273982606844
 21
1696.364813206626
 31
0.0
  0
LINE
  5
1D21
330
1F
100
AcDbEntity
  8
0
100
AcDbLine
 10
2663.273982606844
 20
1687.364813206626
 30
0.0
 11
2663.273982606844
 21
1696.364813206626
 31
0.0
  0
LINE
  5
1D22
330
1F
100
AcDbEntity
  8
0
100
AcDbLine
 10
2681.023982606844
 20
1704.364813206626
 30
0.0
 11
2661.523982606845
 21
1704.364813206626
 31
0.0
  0
ARC
  5
1D23
330
1F
100
AcDbEntity
  8
0
100
AcDbCircle
 10
2671.273982606845
 20
1744.890708573392
 30
0.0
 40
9.75
100
AcDbArc
 50
359.3321101677017
 51
0.6678898322983144
  0
LINE
  5
1D24
330
1F
100
AcDbEntity
  8
0
100
AcDbLine
 10
2676.050225900481
 20
1736.390708573392
 30
0.0
 11
2666.497739313209
 21
1736.390708573392
 31
0.0
  0
LINE
  5
1D25
330
1F
100
AcDbEntity
  8
0
100
AcDbLine
 10
2681.02332018583
 20
1744.777056600335
 30
0.0
 11
2676.247076892194
 21
1736.504360546448
 31
0.0
  0
LINE
  5
1D26
330
1F
100
AcDbEntity
  8
0
100
AcDbLine
 10
2676.247076892194
 20
1753.277056600335
 30
0.0
 11
2681.02332018583
 21
1745.004360546448
 31
0.0
  0
LINE
  5
1D27
330
1F
100
AcDbEntity
  8
0
100
AcDbLine
 10
2666.497739313209
 20
1753.390708573392
 30
0.0
 11
2676.050225900481
 21
1753.390708573392
 31
0.0
  0
LINE
  5
1D28
330
1F
100
AcDbEntity
  8
0
100
AcDbLine
 10
2661.524645027859
 20
1745.004360546448
 30
0.0
 11
2666.300888321494
 21
1753.277056600335
 31
0.0
  0
LINE
  5
1D29
330
1F
100
AcDbEntity
  8
0
100
AcDbLine
 10
2666.300888321494
 20
1736.504360546448
 30
0.0
 11
2661.524645027859
 21
1744.777056600335
 31
0.0
  0
ARC
  5
1D2A
330
1F
100
AcDbEntity
  8
0
100
AcDbCircle
 10
2671.273982606845
 20
1744.890708573392
 30
0.0
 40
9.75
100
AcDbArc
 50
59.33211016769336
 51
60.66788983229748
  0
ARC
  5
1D2B
330
1F
100
AcDbEntity
  8
0
100
AcDbCircle
 10
2671.273982606845
 20
1744.890708573392
 30
0.0
 40
9.75
100
AcDbArc
 50
119.3321101677025
 51
120.6678898323066
  0
ARC
  5
1D2C
330
1F
100
AcDbEntity
  8
0
100
AcDbCircle
 10
2671.273982606845
 20
1744.890708573392
 30
0.0
 40
9.75
100
AcDbArc
 50
179.3321101677016
 51
180.6678898322983
  0
LINE
  5
1D2D
330
1F
100
AcDbEntity
  8
0
100
AcDbLine
 10
2678.773982606844
 20
1697.364813206626
 30
0.0
 11
2663.773982606844
 21
1697.364813206626
 31
0.0
  0
LINE
  5
1D2E
330
1F
100
AcDbEntity
  8
0
100
AcDbLine
 10
2679.273982606844
 20
1696.364813206626
 30
0.0
 11
2663.273982606844
 21
1696.364813206626
 31
0.0
  0
LINE
  5
1D2F
330
1F
100
AcDbEntity
  8
0
100
AcDbLine
 10
2678.773982606844
 20
1697.364813206626
 30
0.0
 11
2678.773982606844
 21
1704.364813206626
 31
0.0
  0
LINE
  5
1D30
330
1F
100
AcDbEntity
  8
0
100
AcDbLine
 10
2663.773982606844
 20
1697.364813206626
 30
0.0
 11
2663.773982606844
 21
1704.364813206626
 31
0.0
  0
LINE
  5
1D31
102
{ACAD_REACTORS
330
2004
102
}
330
1F
100
AcDbEntity
  8
0
100
AcDbLine
 10
2681.023982606844
 20
1704.364813206626
 30
0.0
 11
2681.023982606844
 21
1711.364813206626
 31
0.0
  0
LINE
  5
1D32
330
1F
100
AcDbEntity
  8
0
100
AcDbLine
 10
2661.523982606845
 20
1704.364813206626
 30
0.0
 11
2661.523982606845
 21
1711.364813206626
 31
0.0
  0
LINE
  5
1D33
330
1F
100
AcDbEntity
  8
0
100
AcDbLine
 10
2679.273982606844
 20
1696.364813206626
 30
0.0
 11
2678.773982606844
 21
1697.364813206626
 31
0.0
  0
LINE
  5
1D34
330
1F
100
AcDbEntity
  8
0
100
AcDbLine
 10
2663.773982606844
 20
1697.364813206626
 30
0.0
 11
2663.273982606844
 21
1696.364813206626
 31
0.0
  0
LINE
  5
1D35
330
1F
100
AcDbEntity
  8
0
100
AcDbLine
 10
2676.050225900481
 20
1711.364813206626
 30
0.0
 11
2676.050225900481
 21
1704.364813206626
 31
0.0
  0
LINE
  5
1D36
330
1F
100
AcDbEntity
  8
0
100
AcDbLine
 10
2666.497739313209
 20
1711.364813206626
 30
0.0
 11
2666.497739313209
 21
1704.364813206626
 31
0.0
  0
ARC
  5
1D37
330
1F
100
AcDbEntity
  8
0
100
AcDbCircle
 10
2671.273982606845
 20
1700.458563206626
 30
0.0
 40
11.90624999999999
100
AcDbArc
 50
66.34964127882202
 51
113.650358721178
  0
ARC
  5
1D38
330
1F
100
AcDbEntity
  8
0
100
AcDbCircle
 10
2678.537104253662
 20
1708.774598988994
 30
0.0
 40
3.590790113156887
100
AcDbArc
 50
46.16600031549389
 51
133.8339996845061
  0
ARC
  5
1D39
330
1F
100
AcDbEntity
  8
0
100
AcDbCircle
 10
2664.010860960027
 20
1708.774598988994
 30
0.0
 40
3.590790113156887
100
AcDbArc
 50
46.16600031549389
 51
133.8339996845061
  0
LINE
  5
1D93
330
1F
100
AcDbEntity
  8
0
100
AcDbLine
 10
2887.971251272294
 20
1642.623906722951
 30
0.0
 11
2887.971251272294
 21
1676.623906722951
 31
0.0
  0
LINE
  5
1D94
330
1F
100
AcDbEntity
  8
0
100
AcDbLine
 10
2886.471251272294
 20
1634.123906722951
 30
0.0
 11
2859.471251272294
 21
1634.123906722951
 31
0.0
  0
LINE
  5
1D95
102
{ACAD_REACTORS
330
2DC6
102
}
330
1F
100
AcDbEntity
  8
0
100
AcDbLine
 10
2884.410805963755
 20
1688.123906722951
 30
0.0
 11
2861.657776684371
 21
1688.123906722951
 31
0.0
  0
LINE
  5
1D96
330
1F
100
AcDbEntity
  8
0
100
AcDbLine
 10
2887.471251272294
 20
1642.123906722951
 30
0.0
 11
2872.971251272294
 21
1642.123906722951
 31
0.0
  0
LINE
  5
1D97
330
1F
100
AcDbEntity
  8
0
100
AcDbLine
 10
2886.971251272294
 20
1634.623906722951
 30
0.0
 11
2872.971251272294
 21
1634.623906722951
 31
0.0
  0
LINE
  5
1D98
330
1F
100
AcDbEntity
  8
0
100
AcDbLine
 10
2887.971251272294
 20
1642.623906722951
 30
0.0
 11
2872.971251272294
 21
1642.623906722951
 31
0.0
  0
LINE
  5
1D99
330
1F
100
AcDbEntity
  8
0
100
AcDbLine
 10
2886.971251272294
 20
1634.623906722951
 30
0.0
 11
2886.971251272294
 21
1642.123906722951
 31
0.0
  0
LINE
  5
1D9A
330
1F
100
AcDbEntity
  8
0
100
AcDbLine
 10
2887.471251272294
 20
1642.123906722951
 30
0.0
 11
2887.971251272294
 21
1642.623906722951
 31
0.0
  0
LINE
  5
1D9B
330
1F
100
AcDbEntity
  8
0
100
AcDbLine
 10
2886.471251272294
 20
1634.123906722951
 30
0.0
 11
2886.971251272294
 21
1634.623906722951
 31
0.0
  0
CIRCLE
  5
1D9E
330
1F
100
AcDbEntity
  8
0
100
AcDbCircle
 10
2872.971251272294
 20
1745.649802089717
 30
0.0
 40
15.0
  0
CIRCLE
  5
1D9F
330
1F
100
AcDbEntity
  8
0
100
AcDbCircle
 10
2872.971251272294
 20
1745.649802089717
 30
0.0
 40
14.25
  0
LINE
  5
1DA0
330
1F
100
AcDbEntity
  8
0
100
AcDbLine
 10
2864.310997234449
 20
1756.649802089717
 30
0.0
 11
2859.114844811742
 21
1747.649802089717
 31
0.0
  0
LINE
  5
1DA1
330
1F
100
AcDbEntity
  8
0
100
AcDbLine
 10
2886.827657732844
 20
1743.649802089717
 30
0.0
 11
2881.631505310138
 21
1734.649802089717
 31
0.0
  0
LINE
  5
1DA2
330
1F
100
AcDbEntity
  8
0
100
AcDbLine
 10
2859.114844811742
 20
1743.649802089717
 30
0.0
 11
2864.310997234449
 21
1734.649802089717
 31
0.0
  0
LINE
  5
1DA3
330
1F
100
AcDbEntity
  8
0
100
AcDbLine
 10
2881.631505310138
 20
1756.649802089717
 30
0.0
 11
2886.827657732844
 21
1747.649802089717
 31
0.0
  0
LINE
  5
1DA4
330
1F
100
AcDbEntity
  8
0
100
AcDbLine
 10
2878.167403695
 20
1758.649802089717
 30
0.0
 11
2867.775098849587
 21
1758.649802089717
 31
0.0
  0
LINE
  5
1DA5
330
1F
100
AcDbEntity
  8
0
100
AcDbLine
 10
2878.167403695
 20
1732.649802089717
 30
0.0
 11
2867.775098849587
 21
1732.649802089717
 31
0.0
  0
ARC
  5
1DA6
330
1F
100
AcDbEntity
  8
0
100
AcDbCircle
 10
2872.971251272294
 20
1745.649802089717
 30
0.0
 40
14.0
100
AcDbArc
 50
231.7867892982536
 51
308.2132107017465
  0
ARC
  5
1DA7
330
1F
100
AcDbEntity
  8
0
100
AcDbCircle
 10
2872.971251272294
 20
1745.649802089717
 30
0.0
 40
14.0
100
AcDbArc
 50
171.7867892982624
 51
188.2132107017375
  0
ARC
  5
1DA8
330
1F
100
AcDbEntity
  8
0
100
AcDbCircle
 10
2872.971251272294
 20
1745.649802089717
 30
0.0
 40
14.0
100
AcDbArc
 50
111.7867892982729
 51
128.2132107017464
  0
ARC
  5
1DA9
330
1F
100
AcDbEntity
  8
0
100
AcDbCircle
 10
2872.971251272294
 20
1745.649802089717
 30
0.0
 40
14.0
100
AcDbArc
 50
51.78678929825354
 51
68.21321070172704
  0
ARC
  5
1DAA
330
1F
100
AcDbEntity
  8
0
100
AcDbCircle
 10
2872.971251272294
 20
1745.649802089717
 30
0.0
 40
14.0
100
AcDbArc
 50
351.7867892982624
 51
8.213210701737587
  0
LINE
  5
1DAB
330
1F
100
AcDbEntity
  8
0
100
AcDbLine
 10
2881.631505310138
 20
1686.679735549741
 30
0.0
 11
2881.631505310138
 21
1677.123906722951
 31
0.0
  0
LINE
  5
1DAC
330
1F
100
AcDbEntity
  8
0
100
AcDbLine
 10
2887.471251272294
 20
1677.123906722951
 30
0.0
 11
2887.971251272294
 21
1676.623906722951
 31
0.0
  0
LINE
  5
1DAD
330
1F
100
AcDbEntity
  8
0
100
AcDbLine
 10
2886.971251272294
 20
1686.582050618174
 30
0.0
 11
2886.971251272294
 21
1677.123906722951
 31
0.0
  0
ARC
  5
1DAE
330
1F
100
AcDbEntity
  8
0
100
AcDbCircle
 10
2884.271251272294
 20
1684.984061530099
 30
0.0
 40
3.137446274536813
100
AcDbArc
 50
30.61907537985989
 51
147.2848286280873
  0
ARC
  5
1DAF
330
1F
100
AcDbEntity
  8
0
100
AcDbCircle
 10
2872.971251272294
 20
1670.650238550648
 30
0.0
 40
17.47126925398817
100
AcDbArc
 50
72.69781568966152
 51
90.0
  0
ARC
  5
1DB0
330
1F
100
AcDbEntity
  8
0
100
AcDbCircle
 10
2877.871179079841
 20
1676.215583631088
 30
0.0
 40
11.11928634107948
100
AcDbArc
 50
70.23393871234413
 51
88.47342464481279
  0
LINE
  5
1DB1
330
1F
100
AcDbEntity
  8
0
100
AcDbLine
 10
2887.471251272294
 20
1677.123906722951
 30
0.0
 11
2872.971251272294
 21
1677.123906722951
 31
0.0
  0
LINE
  5
1DB2
330
1F
100
AcDbEntity
  8
0
100
AcDbLine
 10
2887.971251272294
 20
1676.623906722951
 30
0.0
 11
2872.956114934296
 21
1676.623906722951
 31
0.0
  0
ARC
  5
1DB3
330
1F
100
AcDbEntity
  8
0
100
AcDbCircle
 10
2872.971251272294
 20
1670.650238550648
 30
0.0
 40
17.47126925398817
100
AcDbArc
 50
90.0
 51
107.3021843103384
  0
LINE
  5
1DB4
330
1F
100
AcDbEntity
  8
0
100
AcDbLine
 10
2857.971251272294
 20
1676.623906722951
 30
0.0
 11
2872.986387610291
 21
1676.623906722951
 31
0.0
  0
LINE
  5
1DB5
330
1F
100
AcDbEntity
  8
0
100
AcDbLine
 10
2858.471251272294
 20
1677.123906722951
 30
0.0
 11
2872.971251272294
 21
1677.123906722951
 31
0.0
  0
LINE
  5
1DB6
330
1F
100
AcDbEntity
  8
0
100
AcDbLine
 10
2857.971251272294
 20
1642.623906722951
 30
0.0
 11
2872.971251272294
 21
1642.623906722951
 31
0.0
  0
LINE
  5
1DB7
330
1F
100
AcDbEntity
  8
0
100
AcDbLine
 10
2858.971251272294
 20
1634.623906722951
 30
0.0
 11
2872.971251272294
 21
1634.623906722951
 31
0.0
  0
LINE
  5
1DB8
330
1F
100
AcDbEntity
  8
0
100
AcDbLine
 10
2858.471251272294
 20
1642.123906722951
 30
0.0
 11
2872.971251272294
 21
1642.123906722951
 31
0.0
  0
LINE
  5
1DB9
330
1F
100
AcDbEntity
  8
0
100
AcDbLine
 10
2864.310997234449
 20
1686.679735549741
 30
0.0
 11
2864.310997234449
 21
1677.123906722951
 31
0.0
  0
LINE
  5
1DBA
330
1F
100
AcDbEntity
  8
0
100
AcDbLine
 10
2858.971251272294
 20
1686.582050618174
 30
0.0
 11
2858.971251272294
 21
1677.123906722951
 31
0.0
  0
LINE
  5
1DBB
330
1F
100
AcDbEntity
  8
0
100
AcDbLine
 10
2857.971251272294
 20
1642.623906722951
 30
0.0
 11
2857.971251272294
 21
1676.623906722951
 31
0.0
  0
LINE
  5
1DBC
330
1F
100
AcDbEntity
  8
0
100
AcDbLine
 10
2858.971251272294
 20
1634.623906722951
 30
0.0
 11
2858.971251272294
 21
1642.123906722951
 31
0.0
  0
LINE
  5
1DBD
330
1F
100
AcDbEntity
  8
0
100
AcDbLine
 10
2859.471251272294
 20
1634.123906722951
 30
0.0
 11
2858.971251272294
 21
1634.623906722951
 31
0.0
  0
LINE
  5
1DBE
330
1F
100
AcDbEntity
  8
0
100
AcDbLine
 10
2858.471251272294
 20
1642.123906722951
 30
0.0
 11
2857.971251272294
 21
1642.623906722951
 31
0.0
  0
LINE
  5
1DBF
330
1F
100
AcDbEntity
  8
0
100
AcDbLine
 10
2858.471251272294
 20
1677.123906722951
 30
0.0
 11
2857.971251272294
 21
1676.623906722951
 31
0.0
  0
ARC
  5
1DC0
330
1F
100
AcDbEntity
  8
0
100
AcDbCircle
 10
2861.671251272293
 20
1684.984061530099
 30
0.0
 40
3.137446274536813
100
AcDbArc
 50
32.71517137191271
 51
149.3809246201401
  0
ARC
  5
1DC1
330
1F
100
AcDbEntity
  8
0
100
AcDbCircle
 10
2868.071323464746
 20
1676.215583631088
 30
0.0
 40
11.11928634107948
100
AcDbArc
 50
91.52657535518722
 51
109.7660612876558
  0
LINE
  5
1DC2
330
1F
100
AcDbEntity
  8
0
100
AcDbLine
 10
2887.221251272294
 20
1642.623906722951
 30
0.0
 11
2887.221251272294
 21
1676.623906722951
 31
0.0
  0
LINE
  5
1DC3
330
1F
100
AcDbEntity
  8
0
100
AcDbLine
 10
2858.721251272294
 20
1642.623906722951
 30
0.0
 11
2858.721251272294
 21
1676.623906722951
 31
0.0
  0
LINE
  5
1DC4
330
1F
100
AcDbEntity
  8
0
100
AcDbLine
 10
2880.298680836691
 20
1705.123906722951
 30
0.0
 11
2865.643821707897
 21
1705.123906722951
 31
0.0
  0
LINE
  5
1DC5
330
1F
100
AcDbEntity
  8
0
100
AcDbLine
 10
2880.971251272294
 20
1688.123906722951
 30
0.0
 11
2880.971251272294
 21
1689.123906722951
 31
0.0
  0
LINE
  5
1DC6
330
1F
100
AcDbEntity
  8
0
100
AcDbLine
 10
2864.971251272294
 20
1688.123906722951
 30
0.0
 11
2864.971251272294
 21
1689.123906722951
 31
0.0
  0
LINE
  5
1DC7
330
1F
100
AcDbEntity
  8
0
100
AcDbLine
 10
2882.721251272294
 20
1697.123906722951
 30
0.0
 11
2863.221251272294
 21
1697.123906722951
 31
0.0
  0
ARC
  5
1DC8
330
1F
100
AcDbEntity
  8
0
100
AcDbCircle
 10
2872.971251272294
 20
1745.649802089717
 30
0.0
 40
9.75
100
AcDbArc
 50
359.3321101677017
 51
0.6678898322983144
  0
LINE
  5
1DC9
330
1F
100
AcDbEntity
  8
0
100
AcDbLine
 10
2877.747494565929
 20
1737.149802089717
 30
0.0
 11
2868.195007978658
 21
1737.149802089717
 31
0.0
  0
LINE
  5
1DCA
330
1F
100
AcDbEntity
  8
0
100
AcDbLine
 10
2882.720588851279
 20
1745.536150116661
 30
0.0
 11
2877.944345557644
 21
1737.263454062774
 31
0.0
  0
LINE
  5
1DCB
330
1F
100
AcDbEntity
  8
0
100
AcDbLine
 10
2877.944345557644
 20
1754.036150116661
 30
0.0
 11
2882.720588851279
 21
1745.763454062774
 31
0.0
  0
LINE
  5
1DCC
330
1F
100
AcDbEntity
  8
0
100
AcDbLine
 10
2868.195007978658
 20
1754.149802089717
 30
0.0
 11
2877.747494565929
 21
1754.149802089717
 31
0.0
  0
LINE
  5
1DCD
330
1F
100
AcDbEntity
  8
0
100
AcDbLine
 10
2863.221913693308
 20
1745.763454062774
 30
0.0
 11
2867.998156986944
 21
1754.036150116661
 31
0.0
  0
LINE
  5
1DCE
330
1F
100
AcDbEntity
  8
0
100
AcDbLine
 10
2867.998156986944
 20
1737.263454062774
 30
0.0
 11
2863.221913693308
 21
1745.536150116661
 31
0.0
  0
ARC
  5
1DCF
330
1F
100
AcDbEntity
  8
0
100
AcDbCircle
 10
2872.971251272294
 20
1745.649802089717
 30
0.0
 40
9.75
100
AcDbArc
 50
59.33211016769336
 51
60.66788983229748
  0
ARC
  5
1DD0
330
1F
100
AcDbEntity
  8
0
100
AcDbCircle
 10
2872.971251272294
 20
1745.649802089717
 30
0.0
 40
9.75
100
AcDbArc
 50
119.3321101677025
 51
120.6678898323066
  0
ARC
  5
1DD1
330
1F
100
AcDbEntity
  8
0
100
AcDbCircle
 10
2872.971251272294
 20
1745.649802089717
 30
0.0
 40
9.75
100
AcDbArc
 50
179.3321101677016
 51
180.6678898322983
  0
LINE
  5
1DD2
330
1F
100
AcDbEntity
  8
0
100
AcDbLine
 10
2880.471251272293
 20
1690.123906722951
 30
0.0
 11
2865.471251272294
 21
1690.123906722951
 31
0.0
  0
LINE
  5
1DD3
330
1F
100
AcDbEntity
  8
0
100
AcDbLine
 10
2880.971251272294
 20
1689.123906722951
 30
0.0
 11
2864.971251272294
 21
1689.123906722951
 31
0.0
  0
LINE
  5
1DD4
330
1F
100
AcDbEntity
  8
0
100
AcDbLine
 10
2880.471251272293
 20
1690.123906722951
 30
0.0
 11
2880.471251272293
 21
1697.123906722951
 31
0.0
  0
LINE
  5
1DD5
330
1F
100
AcDbEntity
  8
0
100
AcDbLine
 10
2865.471251272294
 20
1690.123906722951
 30
0.0
 11
2865.471251272294
 21
1697.123906722951
 31
0.0
  0
LINE
  5
1DD6
330
1F
100
AcDbEntity
  8
0
100
AcDbLine
 10
2882.721251272294
 20
1697.123906722951
 30
0.0
 11
2882.721251272294
 21
1704.123906722951
 31
0.0
  0
LINE
  5
1DD7
330
1F
100
AcDbEntity
  8
0
100
AcDbLine
 10
2863.221251272294
 20
1697.123906722951
 30
0.0
 11
2863.221251272294
 21
1704.123906722951
 31
0.0
  0
LINE
  5
1DD8
330
1F
100
AcDbEntity
  8
0
100
AcDbLine
 10
2880.971251272294
 20
1689.123906722951
 30
0.0
 11
2880.471251272293
 21
1690.123906722951
 31
0.0
  0
LINE
  5
1DD9
330
1F
100
AcDbEntity
  8
0
100
AcDbLine
 10
2865.471251272294
 20
1690.123906722951
 30
0.0
 11
2864.971251272294
 21
1689.123906722951
 31
0.0
  0
LINE
  5
1DDA
330
1F
100
AcDbEntity
  8
0
100
AcDbLine
 10
2877.747494565929
 20
1704.123906722951
 30
0.0
 11
2877.747494565929
 21
1697.123906722951
 31
0.0
  0
LINE
  5
1DDB
330
1F
100
AcDbEntity
  8
0
100
AcDbLine
 10
2868.195007978658
 20
1704.123906722951
 30
0.0
 11
2868.195007978658
 21
1697.123906722951
 31
0.0
  0
ARC
  5
1DDC
330
1F
100
AcDbEntity
  8
0
100
AcDbCircle
 10
2872.971251272294
 20
1693.217656722951
 30
0.0
 40
11.90624999999999
100
AcDbArc
 50
66.34964127882202
 51
113.650358721178
  0
ARC
  5
1DDD
330
1F
100
AcDbEntity
  8
0
100
AcDbCircle
 10
2880.234372919111
 20
1701.53369250532
 30
0.0
 40
3.590790113156887
100
AcDbArc
 50
46.16600031549389
 51
133.8339996845061
  0
ARC
  5
1DDE
330
1F
100
AcDbEntity
  8
0
100
AcDbCircle
 10
2865.708129625476
 20
1701.53369250532
 30
0.0
 40
3.590790113156887
100
AcDbArc
 50
46.16600031549389
 51
133.8339996845061
  0
CIRCLE
  5
1E26
102
{ACAD_REACTORS
330
2362
102
}
330
1F
100
AcDbEntity
  8
0
100
AcDbCircle
 10
2671.273982606845
 20
1507.586902783765
 30
0.0
 40
5.0
  0
CIRCLE
  5
1E27
330
1F
100
AcDbEntity
  8
0
100
AcDbCircle
 10
2671.273982606845
 20
1507.586902783765
 30
0.0
 40
4.0
  0
LINE
  5
1E29
330
1F
100
AcDbEntity
  8
0
100
AcDbLine
 10
2639.773982606844
 20
1320.010756467503
 30
0.0
 11
2702.773982606844
 21
1320.010756467503
 31
0.0
  0
LINE
  5
1E2A
330
1F
100
AcDbEntity
  8
0
100
AcDbLine
 10
2640.273982606844
 20
1345.010756467503
 30
0.0
 11
2702.273982606844
 21
1345.010756467503
 31
0.0
  0
LINE
  5
1E2B
330
1F
100
AcDbEntity
  8
0
100
AcDbLine
 10
2643.273982606844
 20
1403.010756467503
 30
0.0
 11
2699.273982606844
 21
1403.010756467503
 31
0.0
  0
LINE
  5
1E2C
330
1F
100
AcDbEntity
  8
0
100
AcDbLine
 10
2657.773982606844
 20
1426.010756467503
 30
0.0
 11
2684.773982606844
 21
1426.010756467503
 31
0.0
  0
LINE
  5
1E2D
330
1F
100
AcDbEntity
  8
0
100
AcDbLine
 10
2703.273982606845
 20
1344.010756467503
 30
0.0
 11
2703.273982606845
 21
1320.510756467503
 31
0.0
  0
LINE
  5
1E2E
330
1F
100
AcDbEntity
  8
0
100
AcDbLine
 10
2639.273982606844
 20
1344.010756467503
 30
0.0
 11
2639.273982606844
 21
1320.510756467503
 31
0.0
  0
LINE
  5
1E2F
330
1F
100
AcDbEntity
  8
0
100
AcDbLine
 10
2701.273982606844
 20
1401.010756467503
 30
0.0
 11
2701.273982606844
 21
1358.010756467503
 31
0.0
  0
LINE
  5
1E30
330
1F
100
AcDbEntity
  8
0
100
AcDbLine
 10
2641.273982606845
 20
1401.010756467503
 30
0.0
 11
2641.273982606845
 21
1358.010756467503
 31
0.0
  0
LINE
  5
1E31
102
{ACAD_REACTORS
330
2291
330
22B7
330
22DD
102
}
330
1F
100
AcDbEntity
  8
0
100
AcDbLine
 10
2703.273982606845
 20
1320.510756467503
 30
0.0
 11
2702.773982606844
 21
1320.010756467503
 31
0.0
  0
LINE
  5
1E32
330
1F
100
AcDbEntity
  8
0
100
AcDbLine
 10
2639.273982606844
 20
1320.510756467503
 30
0.0
 11
2639.773982606844
 21
1320.010756467503
 31
0.0
  0
LINE
  5
1E33
330
1F
100
AcDbEntity
  8
0
100
AcDbLine
 10
2701.273982606844
 20
1358.010756467503
 30
0.0
 11
2701.273982606844
 21
1345.010756467503
 31
0.0
  0
LINE
  5
1E34
330
1F
100
AcDbEntity
  8
0
100
AcDbLine
 10
2641.273982606845
 20
1358.010756467503
 30
0.0
 11
2641.273982606845
 21
1345.010756467503
 31
0.0
  0
LINE
  5
1E35
102
{ACAD_REACTORS
330
2291
330
2EA2
102
}
330
1F
100
AcDbEntity
  8
0
100
AcDbLine
 10
2701.273982606844
 20
1401.010756467503
 30
0.0
 11
2699.273982606844
 21
1403.010756467503
 31
0.0
  0
LINE
  5
1E36
330
1F
100
AcDbEntity
  8
0
100
AcDbLine
 10
2643.273982606844
 20
1403.010756467503
 30
0.0
 11
2641.273982606845
 21
1401.010756467503
 31
0.0
  0
LINE
  5
1E37
330
1F
100
AcDbEntity
  8
0
100
AcDbLine
 10
2700.523982606844
 20
1401.010756467503
 30
0.0
 11
2700.523982606844
 21
1345.010756467503
 31
0.0
  0
LINE
  5
1E38
330
1F
100
AcDbEntity
  8
0
100
AcDbLine
 10
2642.023982606845
 20
1401.010756467503
 30
0.0
 11
2642.023982606844
 21
1345.010756467503
 31
0.0
  0
LINE
  5
1E39
102
{ACAD_REACTORS
330
2303
102
}
330
1F
100
AcDbEntity
  8
0
100
AcDbLine
 10
2641.273982606845
 20
1401.010756467503
 30
0.0
 11
2701.273982606844
 21
1401.010756467503
 31
0.0
  0
LINE
  5
1E3A
330
1F
100
AcDbEntity
  8
0
100
AcDbLine
 10
2686.273982606844
 20
1418.010756467503
 30
0.0
 11
2686.273982606844
 21
1403.010756467503
 31
0.0
  0
LINE
  5
1E3B
330
1F
100
AcDbEntity
  8
0
100
AcDbLine
 10
2656.273982606844
 20
1418.010756467503
 30
0.0
 11
2656.273982606844
 21
1403.010756467503
 31
0.0
  0
LINE
  5
1E3C
330
1F
100
AcDbEntity
  8
0
100
AcDbLine
 10
2657.273982606844
 20
1420.010756467503
 30
0.0
 11
2685.273982606844
 21
1420.010756467503
 31
0.0
  0
LINE
  5
1E3D
330
1F
100
AcDbEntity
  8
0
100
AcDbLine
 10
2656.273982606844
 20
1418.010756467503
 30
0.0
 11
2686.273982606844
 21
1418.010756467503
 31
0.0
  0
LINE
  5
1E3E
330
1F
100
AcDbEntity
  8
0
100
AcDbLine
 10
2685.273982606844
 20
1425.510756467503
 30
0.0
 11
2685.273982606844
 21
1420.010756467503
 31
0.0
  0
LINE
  5
1E3F
330
1F
100
AcDbEntity
  8
0
100
AcDbLine
 10
2657.273982606844
 20
1425.510756467503
 30
0.0
 11
2657.273982606844
 21
1420.010756467503
 31
0.0
  0
LINE
  5
1E40
102
{ACAD_REACTORS
330
22B7
102
}
330
1F
100
AcDbEntity
  8
0
100
AcDbLine
 10
2685.273982606844
 20
1425.510756467503
 30
0.0
 11
2684.773982606844
 21
1426.010756467503
 31
0.0
  0
LINE
  5
1E41
330
1F
100
AcDbEntity
  8
0
100
AcDbLine
 10
2657.773982606844
 20
1426.010756467503
 30
0.0
 11
2657.273982606844
 21
1425.510756467503
 31
0.0
  0
LINE
  5
1E42
330
1F
100
AcDbEntity
  8
0
100
AcDbLine
 10
2686.273982606844
 20
1418.010756467503
 30
0.0
 11
2685.273982606844
 21
1420.010756467503
 31
0.0
  0
LINE
  5
1E43
330
1F
100
AcDbEntity
  8
0
100
AcDbLine
 10
2657.273982606844
 20
1420.010756467503
 30
0.0
 11
2656.273982606844
 21
1418.010756467503
 31
0.0
  0
LINE
  5
1E44
330
1F
100
AcDbEntity
  8
0
  6
HIDDEN
 62
     3
 48
0.3
100
AcDbLine
 10
2676.273982606844
 20
1426.010756467503
 30
0.0
 11
2676.273982606844
 21
1410.59612454925
 31
0.0
  0
LINE
  5
1E45
330
1F
100
AcDbEntity
  8
0
  6
HIDDEN
 62
     3
 48
0.3
100
AcDbLine
 10
2666.273982606844
 20
1426.010756467503
 30
0.0
 11
2666.273982606844
 21
1410.59612454925
 31
0.0
  0
LINE
  5
1E46
330
1F
100
AcDbEntity
  8
0
  6
HIDDEN
 62
     3
 48
0.3
100
AcDbLine
 10
2675.273982606845
 20
1426.010756467503
 30
0.0
 11
2675.273982606845
 21
1410.59612454925
 31
0.0
  0
LINE
  5
1E47
330
1F
100
AcDbEntity
  8
0
  6
HIDDEN
 62
     3
 48
0.3
100
AcDbLine
 10
2667.273982606844
 20
1426.010756467503
 30
0.0
 11
2667.273982606844
 21
1410.59612454925
 31
0.0
  0
CIRCLE
  5
1E4A
330
1F
100
AcDbEntity
  8
0
100
AcDbCircle
 10
2671.349477049719
 20
1331.010756467503
 30
0.0
 40
5.0
  0
CIRCLE
  5
1E4B
330
1F
100
AcDbEntity
  8
0
100
AcDbCircle
 10
2671.349477049719
 20
1331.010756467503
 30
0.0
 40
4.0
  0
LINE
  5
1E4C
330
1F
100
AcDbEntity
  8
0
100
AcDbLine
 10
2703.273982606845
 20
1476.586902783765
 30
0.0
 11
2703.273982606845
 21
1538.586902783765
 31
0.0
  0
LINE
  5
1E4D
330
1F
100
AcDbEntity
  8
0
100
AcDbLine
 10
2640.273982606844
 20
1539.586902783765
 30
0.0
 11
2702.273982606844
 21
1539.586902783765
 31
0.0
  0
LINE
  5
1E4E
330
1F
100
AcDbEntity
  8
0
100
AcDbLine
 10
2639.273982606844
 20
1476.586902783765
 30
0.0
 11
2639.273982606844
 21
1538.586902783765
 31
0.0
  0
LINE
  5
1E4F
330
1F
100
AcDbEntity
  8
0
100
AcDbLine
 10
2640.273982606844
 20
1475.586902783765
 30
0.0
 11
2702.273982606844
 21
1475.586902783765
 31
0.0
  0
CIRCLE
  5
1E50
330
1F
100
AcDbEntity
  8
0
100
AcDbCircle
 10
2671.273982606845
 20
1507.586902783765
 30
0.0
 40
30.0
  0
LINE
  5
1E51
102
{ACAD_REACTORS
330
2215
330
226B
102
}
330
1F
100
AcDbEntity
  8
0
100
AcDbLine
 10
2702.273982606844
 20
1475.586902783765
 30
0.0
 11
2703.273982606845
 21
1476.586902783765
 31
0.0
  0
LINE
  5
1E52
102
{ACAD_REACTORS
330
2215
102
}
330
1F
100
AcDbEntity
  8
0
100
AcDbLine
 10
2640.273982606844
 20
1475.586902783765
 30
0.0
 11
2639.273982606844
 21
1476.586902783765
 31
0.0
  0
LINE
  5
1E53
330
1F
100
AcDbEntity
  8
0
100
AcDbLine
 10
2639.273982606844
 20
1538.586902783765
 30
0.0
 11
2640.273982606844
 21
1539.586902783765
 31
0.0
  0
LINE
  5
1E54
102
{ACAD_REACTORS
330
226B
102
}
330
1F
100
AcDbEntity
  8
0
100
AcDbLine
 10
2702.273982606844
 20
1539.586902783765
 30
0.0
 11
2703.273982606845
 21
1538.586902783765
 31
0.0
  0
CIRCLE
  5
1E55
330
1F
100
AcDbEntity
  8
0
100
AcDbCircle
 10
2671.273982606845
 20
1507.586902783765
 30
0.0
 40
15.0
  0
ARC
  5
1E56
330
1F
100
AcDbEntity
  8
0
100
AcDbCircle
 10
2671.273982606845
 20
1507.586902783765
 30
0.0
 40
14.0
100
AcDbArc
 50
111.7867892982602
 51
248.2132107017378
  0
ARC
  5
1E57
330
1F
100
AcDbEntity
  8
0
100
AcDbCircle
 10
2671.273982606845
 20
1507.586902783765
 30
0.0
 40
14.0
100
AcDbArc
 50
291.7867892982623
 51
68.21321070173983
  0
LINE
  5
1E58
330
1F
100
AcDbEntity
  8
0
100
AcDbLine
 10
2678.757297380392
 20
1520.586902783765
 30
0.0
 11
2663.790667833296
 21
1520.586902783765
 31
0.0
  0
LINE
  5
1E59
330
1F
100
AcDbEntity
  8
0
100
AcDbLine
 10
2678.757297380392
 20
1494.586902783765
 30
0.0
 11
2663.790667833297
 21
1494.586902783764
 31
0.0
  0
LINE
  5
1E5C
330
1F
100
AcDbEntity
  8
0
100
AcDbLine
 10
2639.273982606844
 20
1344.010756467503
 30
0.0
 11
2640.273982606844
 21
1345.010756467503
 31
0.0
  0
LINE
  5
1E5D
102
{ACAD_REACTORS
330
22DD
330
2EA2
102
}
330
1F
100
AcDbEntity
  8
0
100
AcDbLine
 10
2702.273982606844
 20
1345.010756467503
 30
0.0
 11
2703.273982606845
 21
1344.010756467503
 31
0.0
  0
CIRCLE
  5
1E5E
102
{ACAD_REACTORS
330
233A
102
}
330
1F
100
AcDbEntity
  8
0
100
AcDbCircle
 10
2697.273982606844
 20
1533.586902783764
 30
0.0
 40
3.25
  0
CIRCLE
  5
1E5F
330
1F
100
AcDbEntity
  8
0
100
AcDbCircle
 10
2697.273982606844
 20
1481.586902783765
 30
0.0
 40
3.25
  0
CIRCLE
  5
1E60
330
1F
100
AcDbEntity
  8
0
100
AcDbCircle
 10
2645.273982606844
 20
1481.586902783765
 30
0.0
 40
3.25
  0
CIRCLE
  5
1E61
330
1F
100
AcDbEntity
  8
0
100
AcDbCircle
 10
2645.273982606844
 20
1533.586902783764
 30
0.0
 40
3.25
  0
CIRCLE
  5
1E9F
102
{ACAD_REACTORS
330
23E9
102
}
330
1F
100
AcDbEntity
  8
0
100
AcDbCircle
 10
2872.971251272294
 20
1502.137053681125
 30
0.0
 40
5.0
  0
CIRCLE
  5
1EA0
330
1F
100
AcDbEntity
  8
0
100
AcDbCircle
 10
2872.971251272294
 20
1502.137053681125
 30
0.0
 40
4.0
  0
LINE
  5
1EA2
330
1F
100
AcDbEntity
  8
0
100
AcDbLine
 10
2842.971251272294
 20
1320.010756467503
 30
0.0
 11
2902.971251272294
 21
1320.010756467503
 31
0.0
  0
LINE
  5
1EA3
330
1F
100
AcDbEntity
  8
0
100
AcDbLine
 10
2842.971251272294
 20
1345.010756467503
 30
0.0
 11
2902.221251272294
 21
1345.010756467503
 31
0.0
  0
LINE
  5
1EA4
330
1F
100
AcDbEntity
  8
0
100
AcDbLine
 10
2844.971251272294
 20
1403.010756467503
 30
0.0
 11
2900.971251272294
 21
1403.010756467503
 31
0.0
  0
LINE
  5
1EA5
330
1F
100
AcDbEntity
  8
0
100
AcDbLine
 10
2859.471251272294
 20
1426.010756467503
 30
0.0
 11
2886.471251272294
 21
1426.010756467503
 31
0.0
  0
LINE
  5
1EA6
330
1F
100
AcDbEntity
  8
0
100
AcDbLine
 10
2902.971251272294
 20
1401.010756467503
 30
0.0
 11
2902.971251272294
 21
1358.010756467503
 31
0.0
  0
LINE
  5
1EA7
330
1F
100
AcDbEntity
  8
0
100
AcDbLine
 10
2842.971251272294
 20
1401.010756467503
 30
0.0
 11
2842.971251272294
 21
1358.010756467503
 31
0.0
  0
LINE
  5
1EA8
102
{ACAD_REACTORS
330
244C
330
250D
330
2E69
102
}
330
1F
100
AcDbEntity
  8
0
100
AcDbLine
 10
2902.971251272294
 20
1358.010756467503
 30
0.0
 11
2902.971251272294
 21
1320.010756467503
 31
0.0
  0
LINE
  5
1EA9
330
1F
100
AcDbEntity
  8
0
100
AcDbLine
 10
2842.971251272294
 20
1358.010756467503
 30
0.0
 11
2842.971251272294
 21
1320.010756467503
 31
0.0
  0
LINE
  5
1EAA
102
{ACAD_REACTORS
330
2472
330
250D
102
}
330
1F
100
AcDbEntity
  8
0
100
AcDbLine
 10
2902.971251272294
 20
1401.010756467503
 30
0.0
 11
2900.971251272294
 21
1403.010756467503
 31
0.0
  0
LINE
  5
1EAB
330
1F
100
AcDbEntity
  8
0
100
AcDbLine
 10
2844.971251272294
 20
1403.010756467503
 30
0.0
 11
2842.971251272294
 21
1401.010756467503
 31
0.0
  0
LINE
  5
1EAC
330
1F
100
AcDbEntity
  8
0
100
AcDbLine
 10
2902.221251272294
 20
1401.010756467503
 30
0.0
 11
2902.221251272294
 21
1345.010756467503
 31
0.0
  0
LINE
  5
1EAD
330
1F
100
AcDbEntity
  8
0
100
AcDbLine
 10
2843.721251272294
 20
1401.010756467503
 30
0.0
 11
2843.721251272294
 21
1345.010756467503
 31
0.0
  0
LINE
  5
1EAE
102
{ACAD_REACTORS
330
2498
102
}
330
1F
100
AcDbEntity
  8
0
100
AcDbLine
 10
2842.971251272294
 20
1401.010756467503
 30
0.0
 11
2902.971251272294
 21
1401.010756467503
 31
0.0
  0
LINE
  5
1EAF
330
1F
100
AcDbEntity
  8
0
100
AcDbLine
 10
2887.971251272294
 20
1418.010756467503
 30
0.0
 11
2887.971251272294
 21
1403.010756467503
 31
0.0
  0
LINE
  5
1EB0
330
1F
100
AcDbEntity
  8
0
100
AcDbLine
 10
2857.971251272294
 20
1418.010756467503
 30
0.0
 11
2857.971251272294
 21
1403.010756467503
 31
0.0
  0
LINE
  5
1EB1
330
1F
100
AcDbEntity
  8
0
100
AcDbLine
 10
2858.971251272294
 20
1420.010756467503
 30
0.0
 11
2886.971251272294
 21
1420.010756467503
 31
0.0
  0
LINE
  5
1EB2
330
1F
100
AcDbEntity
  8
0
100
AcDbLine
 10
2857.971251272294
 20
1418.010756467503
 30
0.0
 11
2887.971251272294
 21
1418.010756467503
 31
0.0
  0
LINE
  5
1EB3
330
1F
100
AcDbEntity
  8
0
100
AcDbLine
 10
2886.971251272294
 20
1425.510756467503
 30
0.0
 11
2886.971251272294
 21
1420.010756467503
 31
0.0
  0
LINE
  5
1EB4
330
1F
100
AcDbEntity
  8
0
100
AcDbLine
 10
2858.971251272294
 20
1425.510756467503
 30
0.0
 11
2858.971251272294
 21
1420.010756467503
 31
0.0
  0
LINE
  5
1EB5
102
{ACAD_REACTORS
330
2E69
102
}
330
1F
100
AcDbEntity
  8
0
100
AcDbLine
 10
2886.971251272294
 20
1425.510756467503
 30
0.0
 11
2886.471251272294
 21
1426.010756467503
 31
0.0
  0
LINE
  5
1EB6
330
1F
100
AcDbEntity
  8
0
100
AcDbLine
 10
2859.471251272294
 20
1426.010756467503
 30
0.0
 11
2858.971251272294
 21
1425.510756467503
 31
0.0
  0
LINE
  5
1EB7
102
{ACAD_REACTORS
330
2426
102
}
330
1F
100
AcDbEntity
  8
0
100
AcDbLine
 10
2887.971251272294
 20
1418.010756467503
 30
0.0
 11
2886.971251272294
 21
1420.010756467503
 31
0.0
  0
LINE
  5
1EB8
102
{ACAD_REACTORS
330
2426
102
}
330
1F
100
AcDbEntity
  8
0
100
AcDbLine
 10
2858.971251272294
 20
1420.010756467503
 30
0.0
 11
2857.971251272294
 21
1418.010756467503
 31
0.0
  0
LINE
  5
1EB9
330
1F
100
AcDbEntity
  8
0
  6
HIDDEN
 62
     3
 48
0.3
100
AcDbLine
 10
2877.971251272294
 20
1426.010756467503
 30
0.0
 11
2877.971251272294
 21
1410.59612454925
 31
0.0
  0
LINE
  5
1EBA
330
1F
100
AcDbEntity
  8
0
  6
HIDDEN
 62
     3
 48
0.3
100
AcDbLine
 10
2867.971251272294
 20
1426.010756467503
 30
0.0
 11
2867.971251272294
 21
1410.59612454925
 31
0.0
  0
LINE
  5
1EBB
330
1F
100
AcDbEntity
  8
0
  6
HIDDEN
 62
     3
 48
0.3
100
AcDbLine
 10
2876.971251272294
 20
1426.010756467503
 30
0.0
 11
2876.971251272294
 21
1410.59612454925
 31
0.0
  0
LINE
  5
1EBC
330
1F
100
AcDbEntity
  8
0
  6
HIDDEN
 62
     3
 48
0.3
100
AcDbLine
 10
2868.971251272294
 20
1426.010756467503
 30
0.0
 11
2868.971251272294
 21
1410.59612454925
 31
0.0
  0
CIRCLE
  5
1EBF
330
1F
100
AcDbEntity
  8
0
100
AcDbCircle
 10
2873.031996667418
 20
1334.94939405488
 30
0.0
 40
5.0
  0
CIRCLE
  5
1EC0
330
1F
100
AcDbEntity
  8
0
100
AcDbCircle
 10
2873.031996667418
 20
1334.94939405488
 30
0.0
 40
4.0
  0
CIRCLE
  5
1EC1
330
1F
100
AcDbEntity
  8
0
100
AcDbCircle
 10
2872.971251272294
 20
1502.137053681125
 30
0.0
 40
30.0
  0
CIRCLE
  5
1EC2
330
1F
100
AcDbEntity
  8
0
100
AcDbCircle
 10
2872.971251272294
 20
1502.137053681125
 30
0.0
 40
15.0
  0
ARC
  5
1EC3
330
1F
100
AcDbEntity
  8
0
100
AcDbCircle
 10
2872.971251272294
 20
1502.137053681125
 30
0.0
 40
14.0
100
AcDbArc
 50
111.7867892982622
 51
248.2132107017378
  0
ARC
  5
1EC4
330
1F
100
AcDbEntity
  8
0
100
AcDbCircle
 10
2872.971251272294
 20
1502.137053681125
 30
0.0
 40
14.0
100
AcDbArc
 50
291.7867892982623
 51
68.21321070173775
  0
LINE
  5
1EC5
330
1F
100
AcDbEntity
  8
0
100
AcDbLine
 10
2880.454566045841
 20
1515.137053681125
 30
0.0
 11
2865.487936498746
 21
1515.137053681125
 31
0.0
  0
LINE
  5
1EC6
330
1F
100
AcDbEntity
  8
0
100
AcDbLine
 10
2880.454566045841
 20
1489.137053681125
 30
0.0
 11
2865.487936498746
 21
1489.137053681125
 31
0.0
  0
LINE
  5
1ECA
102
{ACAD_REACTORS
330
244C
330
2472
102
}
330
1F
100
AcDbEntity
  8
0
100
AcDbLine
 10
2902.221251272294
 20
1345.010756467503
 30
0.0
 11
2902.971251272294
 21
1345.010756467503
 31
0.0
  0
LINE
  5
1EDC
330
1F
100
AcDbEntity
  8
AM_7
100
AcDbLine
 10
2671.273982606845
 20
1744.890708573392
 30
0.0
 11
2688.273982606844
 21
1744.890708573392
 31
0.0
1001
GENIUS_GENOREF_13
1005
1EE0
  0
LINE
  5
1EDD
330
1F
100
AcDbEntity
  8
AM_7
100
AcDbLine
 10
2671.273982606845
 20
1744.890708573392
 30
0.0
 11
2671.273982606845
 21
1761.890708573392
 31
0.0
1001
GENIUS_GENOREF_13
1005
1EE0
  0
LINE
  5
1EDE
330
1F
100
AcDbEntity
  8
AM_7
100
AcDbLine
 10
2671.273982606845
 20
1744.890708573392
 30
0.0
 11
2654.273982606844
 21
1744.890708573392
 31
0.0
1001
GENIUS_GENOREF_13
1005
1EE0
  0
LINE
  5
1EDF
330
1F
100
AcDbEntity
  8
AM_7
100
AcDbLine
 10
2671.273982606845
 20
1744.890708573392
 30
0.0
 11
2671.273982606845
 21
1727.890708573392
 31
0.0
1001
GENIUS_GENOREF_13
1005
1EE0
  0
POINT
  5
1EE0
330
1F
100
AcDbEntity
  8
0
 60
     1
100
AcDbPoint
 10
0.0
 20
0.0
 30
0.0
1001
GENIUS_GENOBJ-N-CRS_13
1002
{
1000
OWNER
1000
GEN
1002
}
1001
GENIUS_GENODEF_13
1002
{
1000
HIER
1070
    10
1002
}
1002
{
1000
MANEDIT
1070
     0
1002
}
1002
{
1000
NOSEL
1070
     0
1002
}
1002
{
1000
BEHIND
1070
     0
1002
}
1002
{
1000
OTHER
1070
     0
1002
}
1002
{
1000
REACTOR
1002
}
1001
GENIUS_GENOENT_13
1002
{
1000
MYREF
1005
1EE0
1002
}
1002
{
1000
GRP
1005
0
1002
}
1001
GENIUS_GENOLIS_13
1002
{
1000
ENT
1005
1EDF
1005
1EDE
1005
1EDD
1005
1EDC
1002
}
  0
LINE
  5
1EEE
330
1F
100
AcDbEntity
  8
AM_7
100
AcDbLine
 10
2872.971251272294
 20
1745.649802089717
 30
0.0
 11
2889.971251272294
 21
1745.649802089717
 31
0.0
1001
GENIUS_GENOREF_13
1005
1EF2
  0
LINE
  5
1EEF
330
1F
100
AcDbEntity
  8
AM_7
100
AcDbLine
 10
2872.971251272294
 20
1745.649802089717
 30
0.0
 11
2872.971251272294
 21
1762.649802089717
 31
0.0
1001
GENIUS_GENOREF_13
1005
1EF2
  0
LINE
  5
1EF0
330
1F
100
AcDbEntity
  8
AM_7
100
AcDbLine
 10
2872.971251272294
 20
1745.649802089717
 30
0.0
 11
2855.971251272294
 21
1745.649802089717
 31
0.0
1001
GENIUS_GENOREF_13
1005
1EF2
  0
LINE
  5
1EF1
330
1F
100
AcDbEntity
  8
AM_7
100
AcDbLine
 10
2872.971251272294
 20
1745.649802089717
 30
0.0
 11
2872.971251272294
 21
1728.649802089717
 31
0.0
1001
GENIUS_GENOREF_13
1005
1EF2
  0
POINT
  5
1EF2
330
1F
100
AcDbEntity
  8
0
 60
     1
100
AcDbPoint
 10
0.0
 20
0.0
 30
0.0
1001
GENIUS_GENOBJ-N-CRS_13
1002
{
1000
OWNER
1000
GEN
1002
}
1001
GENIUS_GENODEF_13
1002
{
1000
HIER
1070
    10
1002
}
1002
{
1000
MANEDIT
1070
     0
1002
}
1002
{
1000
NOSEL
1070
     0
1002
}
1002
{
1000
BEHIND
1070
     0
1002
}
1002
{
1000
OTHER
1070
     0
1002
}
1002
{
1000
REACTOR
1002
}
1001
GENIUS_GENOLIS_13
1002
{
1000
ENT
1005
1EF1
1005
1EF0
1005
1EEF
1005
1EEE
1002
}
1001
GENIUS_GENOENT_13
1002
{
1000
MYREF
1005
1EF2
1002
}
1002
{
1000
GRP
1005
0
1002
}
  0
LINE
  5
1F00
330
1F
100
AcDbEntity
  8
AM_7
  6
AM_ISO08W050x2
100
AcDbLine
 10
2671.349477049719
 20
1331.010756467503
 30
0.0
 11
2678.34947704972
 21
1331.010756467503
 31
0.0
1001
GENIUS_GENOREF_13
1005
1F04
  0
LINE
  5
1F01
330
1F
100
AcDbEntity
  8
AM_7
  6
AM_ISO08W050x2
100
AcDbLine
 10
2671.349477049719
 20
1331.010756467503
 30
0.0
 11
2671.349477049719
 21
1338.010756467503
 31
0.0
1001
GENIUS_GENOREF_13
1005
1F04
  0
LINE
  5
1F02
330
1F
100
AcDbEntity
  8
AM_7
  6
AM_ISO08W050x2
100
AcDbLine
 10
2671.349477049719
 20
1331.010756467503
 30
0.0
 11
2664.349477049719
 21
1331.010756467503
 31
0.0
1001
GENIUS_GENOREF_13
1005
1F04
  0
LINE
  5
1F03
330
1F
100
AcDbEntity
  8
AM_7
  6
AM_ISO08W050x2
100
AcDbLine
 10
2671.349477049719
 20
1331.010756467503
 30
0.0
 11
2671.349477049719
 21
1324.010756467503
 31
0.0
1001
GENIUS_GENOREF_13
1005
1F04
  0
POINT
  5
1F04
330
1F
100
AcDbEntity
  8
0
 60
     1
100
AcDbPoint
 10
0.0
 20
0.0
 30
0.0
1001
GENIUS_GENODEF_13
1002
{
1000
HIER
1070
    10
1002
}
1002
{
1000
MANEDIT
1070
     0
1002
}
1002
{
1000
NOSEL
1070
     0
1002
}
1002
{
1000
BEHIND
1070
     0
1002
}
1002
{
1000
OTHER
1070
     0
1002
}
1002
{
1000
REACTOR
1002
}
1001
GENIUS_GENOLIS_13
1002
{
1000
ENT
1005
1F03
1005
1F02
1005
1F01
1005
1F00
1002
}
1001
GENIUS_GENOBJ-N-CRS_13
1002
{
1000
OWNER
1000
GEN
1002
}
1001
GENIUS_GENOENT_13
1002
{
1000
MYREF
1005
1F04
1002
}
1002
{
1000
GRP
1005
0
1002
}
  0
LINE
  5
1F12
330
1F
100
AcDbEntity
  8
AM_7
  6
AM_ISO08W050x2
100
AcDbLine
 10
2873.031996667418
 20
1334.94939405488
 30
0.0
 11
2880.031996667418
 21
1334.94939405488
 31
0.0
1001
GENIUS_GENOREF_13
1005
1F16
  0
LINE
  5
1F13
330
1F
100
AcDbEntity
  8
AM_7
  6
AM_ISO08W050x2
100
AcDbLine
 10
2873.031996667418
 20
1334.94939405488
 30
0.0
 11
2873.031996667418
 21
1341.949394054879
 31
0.0
1001
GENIUS_GENOREF_13
1005
1F16
  0
LINE
  5
1F14
330
1F
100
AcDbEntity
  8
AM_7
  6
AM_ISO08W050x2
100
AcDbLine
 10
2873.031996667418
 20
1334.94939405488
 30
0.0
 11
2866.031996667418
 21
1334.94939405488
 31
0.0
1001
GENIUS_GENOREF_13
1005
1F16
  0
LINE
  5
1F15
330
1F
100
AcDbEntity
  8
AM_7
  6
AM_ISO08W050x2
100
AcDbLine
 10
2873.031996667418
 20
1334.94939405488
 30
0.0
 11
2873.031996667418
 21
1327.949394054879
 31
0.0
1001
GENIUS_GENOREF_13
1005
1F16
  0
POINT
  5
1F16
330
1F
100
AcDbEntity
  8
0
 60
     1
100
AcDbPoint
 10
0.0
 20
0.0
 30
0.0
1001
GENIUS_GENOLIS_13
1002
{
1000
ENT
1005
1F15
1005
1F14
1005
1F13
1005
1F12
1002
}
1001
GENIUS_GENOENT_13
1002
{
1000
MYREF
1005
1F16
1002
}
1002
{
1000
GRP
1005
0
1002
}
1001
GENIUS_GENOBJ-N-CRS_13
1002
{
1000
OWNER
1000
GEN
1002
}
1001
GENIUS_GENODEF_13
1002
{
1000
HIER
1070
    10
1002
}
1002
{
1000
MANEDIT
1070
     0
1002
}
1002
{
1000
NOSEL
1070
     0
1002
}
1002
{
1000
BEHIND
1070
     0
1002
}
1002
{
1000
OTHER
1070
     0
1002
}
1002
{
1000
REACTOR
1002
}
  0
LINE
  5
1F23
330
1F
100
AcDbEntity
  8
AM_7
100
AcDbLine
 10
2671.273982606845
 20
1714.364813206626
 30
0.0
 11
2671.273982606845
 21
1631.364813206626
 31
0.0
1001
GENIUS_GENOBJ-N-CEN_13
1002
{
1000
OWNER
1000
GEN
1002
}
1001
GENIUS_GENODEF_13
1002
{
1000
HIER
1070
     0
1002
}
1002
{
1000
MANEDIT
1070
     0
1002
}
1002
{
1000
NOSEL
1070
     0
1002
}
1002
{
1000
BEHIND
1070
     0
1002
}
1002
{
1000
OTHER
1070
     0
1002
}
1002
{
1000
REACTOR
1002
}
1001
GENIUS_GENCEN_19
1002
{
1040
2.0
1002
}
  0
LINE
  5
1F30
330
1F
100
AcDbEntity
  8
AM_7
100
AcDbLine
 10
2872.971251272294
 20
1707.123906722951
 30
0.0
 11
2872.971251272294
 21
1632.123906722951
 31
0.0
1001
GENIUS_GENODEF_13
1002
{
1000
HIER
1070
     0
1002
}
1002
{
1000
MANEDIT
1070
     0
1002
}
1002
{
1000
NOSEL
1070
     0
1002
}
1002
{
1000
BEHIND
1070
     0
1002
}
1002
{
1000
OTHER
1070
     0
1002
}
1002
{
1000
REACTOR
1002
}
1001
GENIUS_GENOBJ-N-CEN_13
1002
{
1000
OWNER
1000
GEN
1002
}
1001
GENIUS_GENCEN_19
1002
{
1040
2.0
1002
}
  0
LINE
  5
1F3D
330
1F
100
AcDbEntity
  8
AM_7
100
AcDbLine
 10
2671.273982606845
 20
1428.010756467503
 30
0.0
 11
2671.273982606845
 21
1318.010756467503
 31
0.0
1001
GENIUS_GENODEF_13
1002
{
1000
HIER
1070
     0
1002
}
1002
{
1000
MANEDIT
1070
     0
1002
}
1002
{
1000
NOSEL
1070
     0
1002
}
1002
{
1000
BEHIND
1070
     0
1002
}
1002
{
1000
OTHER
1070
     0
1002
}
1002
{
1000
REACTOR
1002
}
1001
GENIUS_GENOBJ-N-CEN_13
1002
{
1000
OWNER
1000
GEN
1002
}
1001
GENIUS_GENCEN_19
1002
{
1040
2.0
1002
}
  0
LINE
  5
1F4A
330
1F
100
AcDbEntity
  8
AM_7
100
AcDbLine
 10
2872.971251272294
 20
1428.010756467503
 30
0.0
 11
2872.971251272294
 21
1318.010756467503
 31
0.0
1001
GENIUS_GENOBJ-N-CEN_13
1002
{
1000
OWNER
1000
GEN
1002
}
1001
GENIUS_GENODEF_13
1002
{
1000
HIER
1070
     0
1002
}
1002
{
1000
MANEDIT
1070
     0
1002
}
1002
{
1000
NOSEL
1070
     0
1002
}
1002
{
1000
BEHIND
1070
     0
1002
}
1002
{
1000
OTHER
1070
     0
1002
}
1002
{
1000
REACTOR
1002
}
1001
GENIUS_GENCEN_19
1002
{
1040
2.0
1002
}
  0
LINE
  5
1F58
330
1F
100
AcDbEntity
  8
AM_7
100
AcDbLine
 10
2671.273982606845
 20
1507.586902783765
 30
0.0
 11
2705.273982606844
 21
1507.586902783765
 31
0.0
1001
GENIUS_GENOREF_13
1005
1F5C
  0
LINE
  5
1F59
330
1F
100
AcDbEntity
  8
AM_7
100
AcDbLine
 10
2671.273982606845
 20
1507.586902783765
 30
0.0
 11
2671.273982606845
 21
1541.586902783764
 31
0.0
1001
GENIUS_GENOREF_13
1005
1F5C
  0
LINE
  5
1F5A
330
1F
100
AcDbEntity
  8
AM_7
100
AcDbLine
 10
2671.273982606845
 20
1507.586902783765
 30
0.0
 11
2637.273982606844
 21
1507.586902783765
 31
0.0
1001
GENIUS_GENOREF_13
1005
1F5C
  0
LINE
  5
1F5B
330
1F
100
AcDbEntity
  8
AM_7
100
AcDbLine
 10
2671.273982606845
 20
1507.586902783765
 30
0.0
 11
2671.273982606845
 21
1473.586902783765
 31
0.0
1001
GENIUS_GENOREF_13
1005
1F5C
  0
POINT
  5
1F5C
330
1F
100
AcDbEntity
  8
0
 60
     1
100
AcDbPoint
 10
0.0
 20
0.0
 30
0.0
1001
GENIUS_GENOENT_13
1002
{
1000
MYREF
1005
1F5C
1002
}
1002
{
1000
GRP
1005
0
1002
}
1001
GENIUS_GENOBJ-N-CRS_13
1002
{
1000
OWNER
1000
GEN
1002
}
1001
GENIUS_GENODEF_13
1002
{
1000
HIER
1070
    10
1002
}
1002
{
1000
MANEDIT
1070
     0
1002
}
1002
{
1000
NOSEL
1070
     0
1002
}
1002
{
1000
BEHIND
1070
     0
1002
}
1002
{
1000
OTHER
1070
     0
1002
}
1002
{
1000
REACTOR
1002
}
1001
GENIUS_GENOLIS_13
1002
{
1000
ENT
1005
1F5B
1005
1F5A
1005
1F59
1005
1F58
1002
}
  0
LINE
  5
1F6A
330
1F
100
AcDbEntity
  8
AM_7
100
AcDbLine
 10
2872.971251272294
 20
1502.137053681125
 30
0.0
 11
2904.971251272294
 21
1502.137053681125
 31
0.0
1001
GENIUS_GENOREF_13
1005
1F6E
  0
LINE
  5
1F6B
330
1F
100
AcDbEntity
  8
AM_7
100
AcDbLine
 10
2872.971251272294
 20
1502.137053681125
 30
0.0
 11
2872.971251272294
 21
1534.137053681125
 31
0.0
1001
GENIUS_GENOREF_13
1005
1F6E
  0
LINE
  5
1F6C
330
1F
100
AcDbEntity
  8
AM_7
100
AcDbLine
 10
2872.971251272294
 20
1502.137053681125
 30
0.0
 11
2840.971251272294
 21
1502.137053681125
 31
0.0
1001
GENIUS_GENOREF_13
1005
1F6E
  0
LINE
  5
1F6D
330
1F
100
AcDbEntity
  8
AM_7
100
AcDbLine
 10
2872.971251272294
 20
1502.137053681125
 30
0.0
 11
2872.971251272294
 21
1470.137053681125
 31
0.0
1001
GENIUS_GENOREF_13
1005
1F6E
  0
POINT
  5
1F6E
330
1F
100
AcDbEntity
  8
0
 60
     1
100
AcDbPoint
 10
0.0
 20
0.0
 30
0.0
1001
GENIUS_GENOLIS_13
1002
{
1000
ENT
1005
1F6D
1005
1F6C
1005
1F6B
1005
1F6A
1002
}
1001
GENIUS_GENOENT_13
1002
{
1000
MYREF
1005
1F6E
1002
}
1002
{
1000
GRP
1005
0
1002
}
1001
GENIUS_GENOBJ-N-CRS_13
1002
{
1000
OWNER
1000
GEN
1002
}
1001
GENIUS_GENODEF_13
1002
{
1000
HIER
1070
    10
1002
}
1002
{
1000
MANEDIT
1070
     0
1002
}
1002
{
1000
NOSEL
1070
     0
1002
}
1002
{
1000
BEHIND
1070
     0
1002
}
1002
{
1000
OTHER
1070
     0
1002
}
1002
{
1000
REACTOR
1002
}
  0
DIMENSION
  5
1F7E
102
{ACAD_XDICTIONARY
360
1F8D
102
}
102
{ACAD_REACTORS
330
1F8E
102
}
330
1F
100
AcDbEntity
  8
AM_5
100
AcDbDimension
  2
*D3
 10
2697.523982606844
 20
1641.364813206626
 30
0.0
 11
2695.023982606844
 21
1637.364813206626
 31
0.0
 70
    32
 71
     5
 42
8.0
  3
AM_ISO$0
100
AcDbAlignedDimension
 13
2684.773982606844
 23
1633.364813206626
 33
0.0
 14
2685.773982606844
 24
1641.364813206626
 34
0.0
 50
90.0
100
AcDbRotatedDimension
1001
ACAD
1000
DSTYLE
1002
{
1070
    40
1040
1.0
1070
   144
1040
1.0
1070
   272
1070
     8
1002
}
  0
DIMENSION
  5
1FA8
102
{ACAD_XDICTIONARY
360
1FB5
102
}
102
{ACAD_REACTORS
330
1FB6
102
}
330
1F
100
AcDbEntity
  8
AM_5
100
AcDbDimension
  2
*D4
 10
2705.523982606844
 20
1687.364813206626
 30
0.0
 11
2703.023982606844
 21
1660.364813206626
 31
0.0
 70
    32
 71
     5
 42
54.0
  3
AM_ISO$0
100
AcDbAlignedDimension
 13
2684.773982606844
 23
1633.364813206626
 33
0.0
 14
2682.713537298306
 24
1687.364813206626
 34
0.0
 50
90.0
100
AcDbRotatedDimension
1001
ACAD
1000
DSTYLE
1002
{
1070
    40
1040
1.0
1070
   144
1040
1.0
1070
   272
1070
     8
1002
}
  0
DIMENSION
  5
1FCE
102
{ACAD_XDICTIONARY
360
1FDB
102
}
102
{ACAD_REACTORS
330
1FDC
102
}
330
1F
100
AcDbEntity
  8
AM_5
100
AcDbDimension
  2
*D5
 10
2713.523982606844
 20
1712.364813206626
 30
0.0
 11
2711.023982606844
 21
1672.864813206626
 31
0.0
 70
    32
 71
     5
 42
79.0
  3
AM_ISO$0
100
AcDbAlignedDimension
 13
2684.773982606844
 23
1633.364813206626
 33
0.0
 14
2678.601412171243
 24
1712.364813206626
 34
0.0
 50
90.0
100
AcDbRotatedDimension
1001
ACAD
1000
DSTYLE
1002
{
1070
    40
1040
1.0
1070
   144
1040
1.0
1070
   272
1070
     8
1002
}
  0
DIMENSION
  5
1FF4
102
{ACAD_XDICTIONARY
360
2003
102
}
102
{ACAD_REACTORS
330
2004
102
}
330
1F
100
AcDbEntity
  8
AM_5
100
AcDbDimension
  2
*D6
 10
2697.523982606844
 20
1704.364813206626
 30
0.0
 11
2695.023982606844
 21
1708.364813206626
 31
0.0
 70
    32
 71
     5
 42
8.0
  3
AM_ISO$0
100
AcDbAlignedDimension
 13
2678.601412171243
 23
1712.364813206626
 33
0.0
 14
2681.023982606844
 24
1704.364813206626
 34
0.0
 50
90.0
100
AcDbRotatedDimension
1001
ACAD
1000
DSTYLE
1002
{
1070
    40
1040
1.0
1070
   144
1040
1.0
1070
   272
1070
     8
1002
}
  0
DIMENSION
  5
201E
102
{ACAD_XDICTIONARY
360
202B
102
}
102
{ACAD_REACTORS
330
202C
102
}
330
1F
100
AcDbEntity
  8
AM_5
100
AcDbDimension
  2
*D7
 10
2686.273982606844
 20
1621.364813206626
 30
0.0
 11
2671.273982606845
 21
1623.864813206626
 31
0.0
 70
    32
  1
M<>x1.5
 71
     5
 42
30.0
  3
AM_ISO$0
100
AcDbAlignedDimension
 13
2656.273982606844
 23
1641.864813206626
 33
0.0
 14
2686.273982606844
 24
1641.864813206626
 34
0.0
100
AcDbRotatedDimension
1001
ACAD
1000
DSTYLE
1002
{
1070
    40
1040
1.0
1070
   144
1040
1.0
1070
   272
1070
     8
1002
}
  0
DIMENSION
  5
20E2
330
1F
100
AcDbEntity
  8
AM_5
100
AcDbDimension
  2
*D8
 10
2899.221251272294
 20
1642.123906722951
 30
0.0
 11
2896.721251272293
 21
1638.123906722952
 31
0.0
 70
    32
 71
     5
 42
8.0
  3
AM_ISO$0
100
AcDbAlignedDimension
 13
2886.471251272294
 23
1634.123906722951
 33
0.0
 14
2887.471251272294
 24
1642.123906722951
 34
0.0
 50
90.0
100
AcDbRotatedDimension
1001
ACAD
1000
DSTYLE
1002
{
1070
    40
1040
1.0
1070
   144
1040
1.0
1070
   272
1070
     8
1002
}
  0
DIMENSION
  5
20E5
330
1F
100
AcDbEntity
  8
AM_5
100
AcDbDimension
  2
*D9
 10
2907.221251272293
 20
1688.123906722951
 30
0.0
 11
2904.721251272293
 21
1661.123906722951
 31
0.0
 70
    32
 71
     5
 42
54.0
  3
AM_ISO$0
100
AcDbAlignedDimension
 13
2886.471251272294
 23
1634.123906722951
 33
0.0
 14
2884.410805963756
 24
1688.123906722951
 34
0.0
 50
90.0
100
AcDbRotatedDimension
1001
ACAD
1000
DSTYLE
1002
{
1070
    40
1040
1.0
1070
   144
1040
1.0
1070
   272
1070
     8
1002
}
  0
DIMENSION
  5
20E8
330
1F
100
AcDbEntity
  8
AM_5
100
AcDbDimension
  2
*D10
 10
2915.221251272294
 20
1705.123906722951
 30
0.0
 11
2912.721251272293
 21
1669.623906722951
 31
0.0
 70
    32
 71
     5
 42
71.0
  3
AM_ISO$0
100
AcDbAlignedDimension
 13
2886.471251272294
 23
1634.123906722951
 33
0.0
 14
2880.17006500153
 24
1705.123906722951
 34
0.0
 50
90.0
100
AcDbRotatedDimension
1001
ACAD
1000
DSTYLE
1002
{
1070
    40
1040
1.0
1070
   144
1040
1.0
1070
   272
1070
     8
1002
}
  0
DIMENSION
  5
20EB
330
1F
100
AcDbEntity
  8
AM_5
100
AcDbDimension
  2
*D11
 10
2899.221251272294
 20
1697.123906722951
 30
0.0
 11
2896.721251272293
 21
1701.123906722951
 31
0.0
 70
    32
 71
     5
 42
8.0
  3
AM_ISO$0
100
AcDbAlignedDimension
 13
2880.298680836693
 23
1705.123906722951
 33
0.0
 14
2882.721251272294
 24
1697.123906722951
 34
0.0
 50
90.0
100
AcDbRotatedDimension
1001
ACAD
1000
DSTYLE
1002
{
1070
    40
1040
1.0
1070
   144
1040
1.0
1070
   272
1070
     8
1002
}
  0
DIMENSION
  5
20EE
330
1F
100
AcDbEntity
  8
AM_5
100
AcDbDimension
  2
*D12
 10
2887.971251272294
 20
1622.123906722951
 30
0.0
 11
2872.971251272294
 21
1624.623906722951
 31
0.0
 70
    32
  1
M<>x1.5
 71
     5
 42
30.0
  3
AM_ISO$0
100
AcDbAlignedDimension
 13
2857.971251272294
 23
1642.623906722951
 33
0.0
 14
2887.971251272294
 24
1642.623906722951
 34
0.0
100
AcDbRotatedDimension
1001
ACAD
1000
DSTYLE
1002
{
1070
    40
1040
1.0
1070
   144
1040
1.0
1070
   272
1070
     8
1002
}
  0
LINE
  5
218D
330
1F
100
AcDbEntity
  8
AM_7
  6
AM_ISO08W050x2
100
AcDbLine
 10
2645.273982606844
 20
1481.586902783765
 30
0.0
 11
2650.523982606844
 21
1481.586902783765
 31
0.0
1001
GENIUS_GENOREF_13
1005
2191
  0
LINE
  5
218E
330
1F
100
AcDbEntity
  8
AM_7
  6
AM_ISO08W050x2
100
AcDbLine
 10
2645.273982606844
 20
1481.586902783765
 30
0.0
 11
2645.273982606844
 21
1486.836902783765
 31
0.0
1001
GENIUS_GENOREF_13
1005
2191
  0
LINE
  5
218F
330
1F
100
AcDbEntity
  8
AM_7
  6
AM_ISO08W050x2
100
AcDbLine
 10
2645.273982606844
 20
1481.586902783765
 30
0.0
 11
2640.023982606845
 21
1481.586902783765
 31
0.0
1001
GENIUS_GENOREF_13
1005
2191
  0
LINE
  5
2190
102
{ACAD_REACTORS
330
21E5
102
}
330
1F
100
AcDbEntity
  8
AM_7
  6
AM_ISO08W050x2
100
AcDbLine
 10
2645.273982606844
 20
1481.586902783765
 30
0.0
 11
2645.273982606844
 21
1476.336902783765
 31
0.0
1001
GENIUS_GENOREF_13
1005
2191
  0
POINT
  5
2191
330
1F
100
AcDbEntity
  8
0
 60
     1
100
AcDbPoint
 10
0.0
 20
0.0
 30
0.0
1001
GENIUS_GENODEF_13
1002
{
1000
HIER
1070
    10
1002
}
1002
{
1000
MANEDIT
1070
     0
1002
}
1002
{
1000
NOSEL
1070
     0
1002
}
1002
{
1000
BEHIND
1070
     0
1002
}
1002
{
1000
OTHER
1070
     0
1002
}
1002
{
1000
REACTOR
1002
}
1001
GENIUS_GENOLIS_13
1002
{
1000
ENT
1005
2190
1005
218F
1005
218E
1005
218D
1002
}
1001
GENIUS_GENOENT_13
1002
{
1000
MYREF
1005
2191
1002
}
1002
{
1000
GRP
1005
0
1002
}
1001
GENIUS_GENOBJ-N-CRS_13
1002
{
1000
OWNER
1000
GEN
1002
}
  0
LINE
  5
219F
102
{ACAD_REACTORS
330
2245
102
}
330
1F
100
AcDbEntity
  8
AM_7
  6
AM_ISO08W050x2
100
AcDbLine
 10
2697.273982606844
 20
1481.586902783765
 30
0.0
 11
2702.523982606845
 21
1481.586902783765
 31
0.0
1001
GENIUS_GENOREF_13
1005
21A3
  0
LINE
  5
21A0
330
1F
100
AcDbEntity
  8
AM_7
  6
AM_ISO08W050x2
100
AcDbLine
 10
2697.273982606844
 20
1481.586902783765
 30
0.0
 11
2697.273982606844
 21
1486.836902783765
 31
0.0
1001
GENIUS_GENOREF_13
1005
21A3
  0
LINE
  5
21A1
330
1F
100
AcDbEntity
  8
AM_7
  6
AM_ISO08W050x2
100
AcDbLine
 10
2697.273982606844
 20
1481.586902783765
 30
0.0
 11
2692.023982606845
 21
1481.586902783765
 31
0.0
1001
GENIUS_GENOREF_13
1005
21A3
  0
LINE
  5
21A2
102
{ACAD_REACTORS
330
21E5
102
}
330
1F
100
AcDbEntity
  8
AM_7
  6
AM_ISO08W050x2
100
AcDbLine
 10
2697.273982606844
 20
1481.586902783765
 30
0.0
 11
2697.273982606844
 21
1476.336902783765
 31
0.0
1001
GENIUS_GENOREF_13
1005
21A3
  0
POINT
  5
21A3
330
1F
100
AcDbEntity
  8
0
 60
     1
100
AcDbPoint
 10
0.0
 20
0.0
 30
0.0
1001
GENIUS_GENOENT_13
1002
{
1000
MYREF
1005
21A3
1002
}
1002
{
1000
GRP
1005
0
1002
}
1001
GENIUS_GENODEF_13
1002
{
1000
HIER
1070
    10
1002
}
1002
{
1000
MANEDIT
1070
     0
1002
}
1002
{
1000
NOSEL
1070
     0
1002
}
1002
{
1000
BEHIND
1070
     0
1002
}
1002
{
1000
OTHER
1070
     0
1002
}
1002
{
1000
REACTOR
1002
}
1001
GENIUS_GENOLIS_13
1002
{
1000
ENT
1005
21A2
1005
21A1
1005
21A0
1005
219F
1002
}
1001
GENIUS_GENOBJ-N-CRS_13
1002
{
1000
OWNER
1000
GEN
1002
}
  0
LINE
  5
21B1
102
{ACAD_REACTORS
330
2245
102
}
330
1F
100
AcDbEntity
  8
AM_7
  6
AM_ISO08W050x2
100
AcDbLine
 10
2697.273982606844
 20
1533.586902783764
 30
0.0
 11
2702.523982606845
 21
1533.586902783764
 31
0.0
1001
GENIUS_GENOREF_13
1005
21B5
  0
LINE
  5
21B2
330
1F
100
AcDbEntity
  8
AM_7
  6
AM_ISO08W050x2
100
AcDbLine
 10
2697.273982606844
 20
1533.586902783764
 30
0.0
 11
2697.273982606844
 21
1538.836902783765
 31
0.0
1001
GENIUS_GENOREF_13
1005
21B5
  0
LINE
  5
21B3
330
1F
100
AcDbEntity
  8
AM_7
  6
AM_ISO08W050x2
100
AcDbLine
 10
2697.273982606844
 20
1533.586902783764
 30
0.0
 11
2692.023982606845
 21
1533.586902783764
 31
0.0
1001
GENIUS_GENOREF_13
1005
21B5
  0
LINE
  5
21B4
330
1F
100
AcDbEntity
  8
AM_7
  6
AM_ISO08W050x2
100
AcDbLine
 10
2697.273982606844
 20
1533.586902783764
 30
0.0
 11
2697.273982606844
 21
1528.336902783765
 31
0.0
1001
GENIUS_GENOREF_13
1005
21B5
  0
POINT
  5
21B5
330
1F
100
AcDbEntity
  8
0
 60
     1
100
AcDbPoint
 10
0.0
 20
0.0
 30
0.0
1001
GENIUS_GENOLIS_13
1002
{
1000
ENT
1005
21B4
1005
21B3
1005
21B2
1005
21B1
1002
}
1001
GENIUS_GENODEF_13
1002
{
1000
HIER
1070
    10
1002
}
1002
{
1000
MANEDIT
1070
     0
1002
}
1002
{
1000
NOSEL
1070
     0
1002
}
1002
{
1000
BEHIND
1070
     0
1002
}
1002
{
1000
OTHER
1070
     0
1002
}
1002
{
1000
REACTOR
1002
}
1001
GENIUS_GENOENT_13
1002
{
1000
MYREF
1005
21B5
1002
}
1002
{
1000
GRP
1005
0
1002
}
1001
GENIUS_GENOBJ-N-CRS_13
1002
{
1000
OWNER
1000
GEN
1002
}
  0
LINE
  5
21C3
330
1F
100
AcDbEntity
  8
AM_7
  6
AM_ISO08W050x2
100
AcDbLine
 10
2645.273982606844
 20
1533.586902783764
 30
0.0
 11
2650.523982606844
 21
1533.586902783764
 31
0.0
1001
GENIUS_GENOREF_13
1005
21C7
  0
LINE
  5
21C4
330
1F
100
AcDbEntity
  8
AM_7
  6
AM_ISO08W050x2
100
AcDbLine
 10
2645.273982606844
 20
1533.586902783764
 30
0.0
 11
2645.273982606844
 21
1538.836902783765
 31
0.0
1001
GENIUS_GENOREF_13
1005
21C7
  0
LINE
  5
21C5
330
1F
100
AcDbEntity
  8
AM_7
  6
AM_ISO08W050x2
100
AcDbLine
 10
2645.273982606844
 20
1533.586902783764
 30
0.0
 11
2640.023982606845
 21
1533.586902783764
 31
0.0
1001
GENIUS_GENOREF_13
1005
21C7
  0
LINE
  5
21C6
330
1F
100
AcDbEntity
  8
AM_7
  6
AM_ISO08W050x2
100
AcDbLine
 10
2645.273982606844
 20
1533.586902783764
 30
0.0
 11
2645.273982606844
 21
1528.336902783765
 31
0.0
1001
GENIUS_GENOREF_13
1005
21C7
  0
POINT
  5
21C7
330
1F
100
AcDbEntity
  8
0
 60
     1
100
AcDbPoint
 10
0.0
 20
0.0
 30
0.0
1001
GENIUS_GENOBJ-N-CRS_13
1002
{
1000
OWNER
1000
GEN
1002
}
1001
GENIUS_GENODEF_13
1002
{
1000
HIER
1070
    10
1002
}
1002
{
1000
MANEDIT
1070
     0
1002
}
1002
{
1000
NOSEL
1070
     0
1002
}
1002
{
1000
BEHIND
1070
     0
1002
}
1002
{
1000
OTHER
1070
     0
1002
}
1002
{
1000
REACTOR
1002
}
1001
GENIUS_GENOLIS_13
1002
{
1000
ENT
1005
21C6
1005
21C5
1005
21C4
1005
21C3
1002
}
1001
GENIUS_GENOENT_13
1002
{
1000
MYREF
1005
21C7
1002
}
1002
{
1000
GRP
1005
0
1002
}
  0
DIMENSION
  5
21D7
102
{ACAD_XDICTIONARY
360
21E4
102
}
102
{ACAD_REACTORS
330
21E5
102
}
330
1F
100
AcDbEntity
  8
AM_5
100
AcDbDimension
  2
*D13
 10
2697.273982606844
 20
1463.586902783765
 30
0.0
 11
2671.273982606845
 21
1466.086902783765
 31
0.0
 70
    32
 71
     5
 42
52.0
  3
AM_ISO$0
100
AcDbAlignedDimension
 13
2645.273982606844
 23
1476.336902783765
 33
0.0
 14
2697.273982606844
 24
1476.336902783765
 34
0.0
100
AcDbRotatedDimension
1001
ACAD
1000
DSTYLE
1002
{
1070
    40
1040
1.0
1070
   144
1040
1.0
1070
   272
1070
     8
1002
}
  0
DIMENSION
  5
2207
102
{ACAD_XDICTIONARY
360
2214
102
}
102
{ACAD_REACTORS
330
2215
102
}
330
1F
100
AcDbEntity
  8
AM_5
100
AcDbDimension
  2
*D14
 10
2703.273982606845
 20
1455.586902783765
 30
0.0
 11
2671.273982606845
 21
1458.086902783765
 31
0.0
 70
    32
 71
     5
 42
64.0
  3
AM_ISO$0
100
AcDbAlignedDimension
 13
2639.273982606844
 23
1476.586902783765
 33
0.0
 14
2703.273982606845
 24
1476.586902783765
 34
0.0
100
AcDbRotatedDimension
1001
ACAD
1000
DSTYLE
1002
{
1070
    40
1040
1.0
1070
   144
1040
1.0
1070
   272
1070
     8
1002
}
  0
DIMENSION
  5
2237
102
{ACAD_XDICTIONARY
360
2244
102
}
102
{ACAD_REACTORS
330
2245
102
}
330
1F
100
AcDbEntity
  8
AM_5
100
AcDbDimension
  2
*D15
 10
2715.273982606844
 20
1533.586902783764
 30
0.0
 11
2712.773982606844
 21
1507.586902783765
 31
0.0
 70
    32
 71
     5
 42
52.0
  3
AM_ISO$0
100
AcDbAlignedDimension
 13
2702.523982606845
 23
1481.586902783765
 33
0.0
 14
2702.523982606845
 24
1533.586902783764
 34
0.0
 50
90.0
100
AcDbRotatedDimension
1001
ACAD
1000
DSTYLE
1002
{
1070
    40
1040
1.0
1070
   144
1040
1.0
1070
   272
1070
     8
1002
}
  0
DIMENSION
  5
225D
102
{ACAD_XDICTIONARY
360
226A
102
}
102
{ACAD_REACTORS
330
226B
102
}
330
1F
100
AcDbEntity
  8
AM_5
100
AcDbDimension
  2
*D16
 10
2723.273982606845
 20
1539.586902783765
 30
0.0
 11
2720.773982606844
 21
1507.586902783765
 31
0.0
 70
    32
 71
     5
 42
64.0
  3
AM_ISO$0
100
AcDbAlignedDimension
 13
2702.273982606844
 23
1475.586902783765
 33
0.0
 14
2702.273982606844
 24
1539.586902783765
 34
0.0
 50
90.0
100
AcDbRotatedDimension
1001
ACAD
1000
DSTYLE
1002
{
1070
    40
1040
1.0
1070
   144
1040
1.0
1070
   272
1070
     8
1002
}
  0
DIMENSION
  5
2283
102
{ACAD_XDICTIONARY
360
2290
102
}
102
{ACAD_REACTORS
330
2291
102
}
330
1F
100
AcDbEntity
  8
AM_5
100
AcDbDimension
  2
*D17
 10
2723.273982606845
 20
1403.010756467503
 30
0.0
 11
2720.773982606844
 21
1361.510756467503
 31
0.0
 70
    32
 71
     5
 42
83.0
  3
AM_ISO$0
100
AcDbAlignedDimension
 13
2702.773982606844
 23
1320.010756467503
 33
0.0
 14
2699.273982606844
 24
1403.010756467503
 34
0.0
 50
90.0
100
AcDbRotatedDimension
1001
ACAD
1000
DSTYLE
1002
{
1070
    40
1040
1.0
1070
   144
1040
1.0
1070
   272
1070
     8
1002
}
  0
DIMENSION
  5
22A9
102
{ACAD_XDICTIONARY
360
22B6
102
}
102
{ACAD_REACTORS
330
22B7
102
}
330
1F
100
AcDbEntity
  8
AM_5
100
AcDbDimension
  2
*D18
 10
2731.273982606844
 20
1426.010756467503
 30
0.0
 11
2728.773982606844
 21
1373.010756467503
 31
0.0
 70
    32
 71
     5
 42
106.0
  3
AM_ISO$0
100
AcDbAlignedDimension
 13
2702.773982606844
 23
1320.010756467503
 33
0.0
 14
2684.773982606844
 24
1426.010756467503
 34
0.0
 50
90.0
100
AcDbRotatedDimension
1001
ACAD
1000
DSTYLE
1002
{
1070
    40
1040
1.0
1070
   144
1040
1.0
1070
   272
1070
     8
1002
}
  0
DIMENSION
  5
22CF
102
{ACAD_XDICTIONARY
360
22DC
102
}
102
{ACAD_REACTORS
330
22DD
102
}
330
1F
100
AcDbEntity
  8
AM_5
100
AcDbDimension
  2
*D19
 10
2715.273982606844
 20
1345.010756467503
 30
0.0
 11
2712.773982606844
 21
1332.510756467503
 31
0.0
 70
    32
 71
     5
 42
25.0
  3
AM_ISO$0
100
AcDbAlignedDimension
 13
2702.773982606844
 23
1320.010756467503
 33
0.0
 14
2702.273982606844
 24
1345.010756467503
 34
0.0
 50
90.0
100
AcDbRotatedDimension
1001
ACAD
1000
DSTYLE
1002
{
1070
    40
1040
1.0
1070
   144
1040
1.0
1070
   272
1070
     8
1002
}
  0
DIMENSION
  5
22F5
102
{ACAD_XDICTIONARY
360
2302
102
}
102
{ACAD_REACTORS
330
2303
102
}
330
1F
100
AcDbEntity
  8
AM_5
100
AcDbDimension
  2
*D20
 10
2701.273982606844
 20
1438.010756467503
 30
0.0
 11
2671.273982606845
 21
1440.510756467503
 31
0.0
 70
    32
  1
M<>x1.5
 71
     5
 42
59.99999999999954
  3
AM_ISO$0
100
AcDbAlignedDimension
 13
2641.273982606845
 23
1401.010756467503
 33
0.0
 14
2701.273982606844
 24
1401.010756467503
 34
0.0
100
AcDbRotatedDimension
1001
ACAD
1000
DSTYLE
1002
{
1070
    40
1040
1.0
1070
   144
1040
1.0
1070
   272
1070
     8
1002
}
  0
DIMENSION
  5
2330
102
{ACAD_XDICTIONARY
360
2339
102
}
102
{ACAD_REACTORS
330
233A
102
}
330
1F
100
AcDbEntity
  8
AM_5
100
AcDbDimension
  2
*D21
 10
2695.38850706178
 20
1530.939737891099
 30
0.0
 11
2710.393407104842
 21
1545.863876408944
 31
0.0
 70
   163
 71
     5
 42
6.499999999999545
  3
AM_ISO$3
100
AcDbDiametricDimension
 15
2699.159458151909
 25
1536.234067676431
 35
0.0
 40
0.0
1001
ACAD
1000
DSTYLE
1002
{
1070
    40
1040
1.0
1070
   144
1040
1.0
1070
   272
1070
     8
1002
}
  0
DIMENSION
  5
2358
102
{ACAD_XDICTIONARY
360
2361
102
}
102
{ACAD_REACTORS
330
2362
102
}
330
1F
100
AcDbEntity
  8
AM_5
100
AcDbDimension
  2
*D22
 10
2674.086957817747
 20
1503.453239703293
 30
0.0
 11
2640.333853991449
 21
1547.332829829341
 31
0.0
 70
   163
  1
M<>
 71
     5
 42
10.00000000000045
  3
AM_ISO$3
100
AcDbDiametricDimension
 15
2668.461007395943
 25
1511.720565864236
 35
0.0
 40
0.0
1001
ACAD
1000
DSTYLE
1002
{
1070
     3
1000
<>
1070
   272
1070
     8
1002
}
  0
DIMENSION
  5
23DC
102
{ACAD_XDICTIONARY
360
23E8
102
}
102
{ACAD_REACTORS
330
23E9
102
}
330
1F
100
AcDbEntity
  8
AM_5
100
AcDbDimension
  2
*D23
 10
2876.211561206705
 20
1498.329115718271
 30
0.0
 11
2844.433845737652
 21
1531.098762066447
 31
0.0
 70
   163
  1
M<>
 71
     5
 42
9.99999999999909
  3
AM_ISO$3
100
AcDbDiametricDimension
 15
2869.730941337882
 25
1505.94499164398
 35
0.0
 40
0.0
1001
ACAD
1000
DSTYLE
1002
{
1070
     3
1000
<>
1070
   272
1070
     8
1002
}
  0
DIMENSION
  5
2418
102
{ACAD_XDICTIONARY
360
2425
102
}
102
{ACAD_REACTORS
330
2426
102
}
330
1F
100
AcDbEntity
  8
AM_5
100
AcDbDimension
  2
*D24
 10
2887.971251272294
 20
1438.010756467503
 30
0.0
 11
2872.971251272294
 21
1440.510756467503
 31
0.0
 70
    32
 71
     5
 42
30.0
  3
AM_ISO$0
100
AcDbAlignedDimension
 13
2857.971251272294
 23
1418.010756467503
 33
0.0
 14
2887.971251272294
 24
1418.010756467503
 34
0.0
100
AcDbRotatedDimension
1001
ACAD
1000
DSTYLE
1002
{
1070
    40
1040
1.0
1070
   144
1040
1.0
1070
   272
1070
     8
1002
}
  0
DIMENSION
  5
243E
102
{ACAD_XDICTIONARY
360
244B
102
}
102
{ACAD_REACTORS
330
244C
102
}
330
1F
100
AcDbEntity
  8
AM_5
100
AcDbDimension
  2
*D25
 10
2914.971251272294
 20
1345.010756467503
 30
0.0
 11
2912.471251272294
 21
1332.510756467503
 31
0.0
 70
    32
 71
     5
 42
25.0
  3
AM_ISO$0
100
AcDbAlignedDimension
 13
2902.971251272294
 23
1320.010756467503
 33
0.0
 14
2902.971251272294
 24
1345.010756467503
 34
0.0
 50
90.0
100
AcDbRotatedDimension
1001
ACAD
1000
DSTYLE
1002
{
1070
    40
1040
1.0
1070
   144
1040
1.0
1070
   272
1070
     8
1002
}
  0
DIMENSION
  5
2464
102
{ACAD_XDICTIONARY
360
2471
102
}
102
{ACAD_REACTORS
330
2472
102
}
330
1F
100
AcDbEntity
  8
AM_5
100
AcDbDimension
  2
*D26
 10
2914.971251272294
 20
1403.010756467503
 30
0.0
 11
2912.471251272294
 21
1374.010756467503
 31
0.0
 70
    32
 71
     5
 42
58.0
  3
AM_ISO$0
100
AcDbAlignedDimension
 13
2902.971251272294
 23
1345.010756467503
 33
0.0
 14
2900.971251272294
 24
1403.010756467503
 34
0.0
 50
90.0
100
AcDbRotatedDimension
1001
ACAD
1000
DSTYLE
1002
{
1070
    40
1040
1.0
1070
   144
1040
1.0
1070
   272
1070
     8
1002
}
  0
DIMENSION
  5
248A
102
{ACAD_XDICTIONARY
360
2497
102
}
102
{ACAD_REACTORS
330
2498
102
}
330
1F
100
AcDbEntity
  8
AM_5
100
AcDbDimension
  2
*D27
 10
2902.971251272294
 20
1446.010757467503
 30
0.0
 11
2872.971251272294
 21
1448.510757467503
 31
0.0
 70
    32
  1
M<>x1.5
 71
     5
 42
59.99999999999954
  3
AM_ISO$0
100
AcDbAlignedDimension
 13
2842.971251272294
 23
1401.010756467503
 33
0.0
 14
2902.971251272294
 24
1401.010756467503
 34
0.0
100
AcDbRotatedDimension
1001
ACAD
1000
DSTYLE
1002
{
1070
    40
1040
1.0
1070
   144
1040
1.0
1070
   272
1070
     8
1002
}
  0
INSERT
  5
24C5
330
1F
100
AcDbEntity
  8
AM_5
100
AcDbBlockReference
  2
*S30
 10
0.0
 20
0.0
 30
0.0
  0
INSERT
  5
24C8
330
1F
100
AcDbEntity
  8
AM_5
100
AcDbBlockReference
  2
*S31
 10
0.0
 20
0.0
 30
0.0
  0
DIMENSION
  5
24FF
102
{ACAD_XDICTIONARY
360
250C
102
}
102
{ACAD_REACTORS
330
250D
102
}
330
1F
100
AcDbEntity
  8
AM_5
100
AcDbDimension
  2
*D28
 10
2922.971251272294
 20
1403.010756467503
 30
0.0
 11
2920.471251272293
 21
1361.510756467503
 31
0.0
 70
    32
 71
     5
 42
83.0
  3
AM_ISO$0
100
AcDbAlignedDimension
 13
2902.971251272294
 23
1320.010756467503
 33
0.0
 14
2900.971251272294
 24
1403.010756467503
 34
0.0
 50
90.0
100
AcDbRotatedDimension
1001
ACAD
1000
DSTYLE
1002
{
1070
    40
1040
1.0
1070
   144
1040
1.0
1070
   272
1070
     8
1002
}
  0
TEXT
  5
2671
330
1F
100
AcDbEntity
  8
LOGO
 62
     7
100
AcDbText
 10
2660.657306348962
 20
1268.441092708119
 30
0.0
 40
5.33256108597285
  1
Order example:
 41
0.8
  7
CHINESET
100
AcDbText
  0
TEXT
  5
2672
330
1F
100
AcDbEntity
  8
LOGO
 62
     7
100
AcDbText
 10
2661.614011906272
 20
1275.948234596308
 30
0.0
 40
7.998841628959275
  1
訂購代號:
  7
CHINESET
100
AcDbText
  0
LINE
  5
2673
330
1F
100
AcDbEntity
  8
LOGO
 62
     1
100
AcDbLine
 10
2970.353032551546
 20
1285.961874736749
 30
0.0
 11
2570.353032551546
 21
1285.961874736749
 31
0.0
  0
LINE
  5
2674
330
1F
100
AcDbEntity
  8
LOGO
 62
     1
100
AcDbLine
 10
2658.340290470099
 20
1245.967666591952
 30
0.0
 11
2658.340290470099
 21
1285.961874736749
 31
0.0
  0
TEXT
  5
2675
330
1F
100
AcDbEntity
  8
LOGO
  6
Continuous
 62
     5
100
AcDbText
 10
2584.719131894602
 20
1253.824468425475
 30
0.0
 40
5.999131221719457
  1
金器工業股份有限公司
  7
CHINESET
100
AcDbText
  0
TEXT
  5
2676
330
1F
100
AcDbEntity
  8
LOGO
  6
Continuous
 62
     5
100
AcDbText
 10
2573.699914709886
 20
1247.824161844386
 30
0.0
 40
3.999420814479637
  1
MINDMAN INDUSTRIAL CO., LTD.
 41
0.85
  7
CHINESET
100
AcDbText
  0
LINE
  5
2677
330
1F
100
AcDbEntity
  8
LOGO
 62
     1
100
AcDbLine
 10
2658.340290470099
 20
1277.96303310779
 30
0.0
 11
2599.682118524398
 21
1277.96303310779
 31
0.0
  0
LINE
  5
2678
330
1F
100
AcDbEntity
  8
LOGO
 62
     1
100
AcDbLine
 10
2658.340290470099
 20
1269.96419147883
 30
0.0
 11
2599.682118524398
 21
1269.96419147883
 31
0.0
  0
LINE
  5
2679
330
1F
100
AcDbEntity
  8
LOGO
 62
     1
100
AcDbLine
 10
2658.340290470099
 20
1261.965349849871
 30
0.0
 11
2570.353032551546
 21
1261.965349849871
 31
0.0
  0
LINE
  5
267A
330
1F
100
AcDbEntity
  8
LOGO
 62
     1
100
AcDbLine
 10
2599.682118524398
 20
1261.965349849871
 30
0.0
 11
2599.682118524398
 21
1285.961874736749
 31
0.0
  0
TEXT
  5
267B
330
1F
100
AcDbEntity
  8
LOGO
 62
     6
100
AcDbText
 10
2637.677275713393
 20
1263.965060257111
 30
0.0
 40
3.999420814479637
  1
m/m
  7
CHINESET
 72
     1
 11
2644.723874291285
 21
1265.964770664351
 31
0.0
100
AcDbText
 73
     2
  0
TEXT
  5
267C
330
1F
100
AcDbEntity
  8
LOGO
 62
     6
100
AcDbText
 10
2637.677275713393
 20
1279.96274351503
 30
0.0
 40
3.999420814479637
  1
1 : 1
  7
CHINESET
 72
     1
 11
2644.723874291285
 21
1281.962453922269
 31
0.0
100
AcDbText
 73
     2
  0
LINE
  5
267D
330
1F
100
AcDbEntity
  8
LOGO
 62
     1
100
AcDbLine
 10
2631.677485040235
 20
1261.965349849871
 30
0.0
 11
2631.677485040235
 21
1285.961874736749
 31
0.0
  0
CIRCLE
  5
267E
330
1F
100
AcDbEntity
  8
LOGO
  6
Continuous
 62
     6
100
AcDbCircle
 10
2639.082912917892
 20
1273.972167083699
 30
0.0
 40
2.322157860641262
  0
CIRCLE
  5
267F
330
1F
100
AcDbEntity
  8
LOGO
  6
Continuous
 62
     6
100
AcDbCircle
 10
2639.082912917892
 20
1273.972167083699
 30
0.0
 40
1.360578937331194
  0
LINE
  5
2680
330
1F
100
AcDbEntity
  8
LOGO
 62
     6
100
AcDbLine
 10
2653.675622365964
 20
1271.650009223058
 30
0.0
 11
2653.675622365964
 21
1276.294324944341
 31
0.0
  0
LINE
  5
2681
330
1F
100
AcDbEntity
  8
LOGO
 62
     6
100
AcDbLine
 10
2646.395790771076
 20
1272.611588146368
 30
0.0
 11
2646.395790771076
 21
1275.332746021031
 31
0.0
  0
LINE
  5
2682
330
1F
100
AcDbEntity
  8
LOGO
  6
Continuous
 62
     6
100
AcDbLine
 10
2646.395790771076
 20
1275.332746021031
 30
0.0
 11
2653.675622365964
 21
1276.294324944341
 31
0.0
  0
LINE
  5
2683
330
1F
100
AcDbEntity
  8
LOGO
  6
Continuous
 62
     6
100
AcDbLine
 10
2646.395790771076
 20
1272.611588146368
 30
0.0
 11
2653.675622365964
 21
1271.650009223058
 31
0.0
  0
TEXT
  5
268E
330
1F
100
AcDbEntity
  8
LOGO
 62
     6
100
AcDbText
 10
2602.979855240622
 20
1279.964711733934
 30
262.1154515200996
 40
3.999420814479637
  1
比例 Scale:
 41
0.9
  7
CHINESET
 72
     4
 11
2615.679801782315
 21
1281.962453922269
 31
262.1154515200996
100
AcDbText
  0
TEXT
  5
268F
330
1F
100
AcDbEntity
  8
LOGO
 62
     6
100
AcDbText
 10
2602.749531452645
 20
1272.020160143098
 30
262.1154515200996
 40
3.999420814479637
  1
投影  View:
 41
0.9
  7
CHINESET
 72
     4
 11
2615.679801782315
 21
1273.96361229331
 31
262.1154515200996
100
AcDbText
  0
TEXT
  5
2690
330
1F
100
AcDbEntity
  8
LOGO
 62
     6
100
AcDbText
 10
2603.140546255489
 20
1263.965060257111
 30
262.1154515200996
 40
3.999420814479637
  1
單位  Unit:
 41
0.9
  7
CHINESET
 72
     4
 11
2615.679801782315
 21
1265.964770664351
 31
262.1154515200996
100
AcDbText
  0
LWPOLYLINE
  5
2693
330
1F
100
AcDbEntity
  8
0
 62
     4
100
AcDbPolyline
 90
        4
 70
     1
 43
0.0
 10
2570.353032551546
 20
1285.961874736749
 10
2970.353032551546
 20
1285.961874736749
 10
2970.353032551546
 20
1795.967666591952
 10
2570.353032551546
 20
1795.967666591952
1001
GENIUS_GENREC_14
1002
{
1000
PYDIR
1011
2570.353032551546
1021
1795.967666591952
1031
0.0
1002
}
1002
{
1000
PXDIR
1011
2970.353032551546
1021
1285.961874736749
1031
0.0
1002
}
1002
{
1000
PORI
1011
2570.353032551546
1021
1285.961874736749
1031
0.0
1002
}
1002
{
1000
PINS
1011
2570.353032551546
1021
1285.961874736749
1031
0.0
1002
}
1002
{
1000
PINS2
1011
2970.353032551546
1021
1795.967666591952
1031
0.0
1002
}
1002
{
1000
C
1070
     1
1002
}
1001
GENIUS_GENODEF_13
1002
{
1000
HIER
1070
     0
1002
}
1002
{
1000
MANEDIT
1070
     0
1002
}
1002
{
1000
NOSEL
1070
     0
1002
}
1002
{
1000
BEHIND
1070
     0
1002
}
1002
{
1000
OTHER
1070
     0
1002
}
1002
{
1000
REACTOR
1002
}
1001
GENIUS_GENOBJ-N-REC_13
1002
{
1000
OWNER
1000
GEN
1002
}
  0
SOLID
  5
2694
330
1F
100
AcDbEntity
  8
LOGO
 62
     5
100
AcDbTrace
 10
2574.502495832391
 20
1268.613817681218
 30
0.0
 11
2576.23174044777
 21
1268.613817681218
 31
0.0
 12
2583.446864532626
 22
1285.011826964983
 32
0.0
 13
2585.176109148006
 23
1285.011826964982
 33
0.0
  0
SOLID
  5
2695
330
1F
100
AcDbEntity
  8
LOGO
 62
     5
100
AcDbTrace
 10
2576.94728994379
 20
1268.613817681218
 30
0.0
 11
2578.676534559169
 21
1268.613817681218
 31
0.0
 12
2585.176109148006
 22
1283.699986222282
 32
0.0
 13
2583.446864532626
 23
1277.359422632559
 33
0.0
  0
SOLID
  5
2696
330
1F
100
AcDbEntity
  8
LOGO
 62
     2
100
AcDbTrace
 10
2576.23174044777
 20
1268.613817681218
 30
0.0
 11
2576.94728994379
 21
1268.613817681218
 31
0.0
 12
2585.176109148006
 22
1285.011826964982
 32
0.0
 13
2585.891658644025
 23
1285.011826964982
 33
0.0
  0
SOLID
  5
2697
330
1F
100
AcDbEntity
  8
LOGO
 62
     5
100
AcDbTrace
 10
2571.730092651215
 20
1262.650905214395
 30
0.0
 11
2572.326383897897
 21
1262.650905214395
 31
0.0
 12
2574.005586460157
 22
1265.632361447807
 32
0.0
 13
2574.601877706837
 23
1265.632361447807
 33
0.0
  0
SOLID
  5
2698
330
1F
100
AcDbEntity
  8
LOGO
 62
     5
100
AcDbTrace
 10
2574.005586460157
 20
1265.632361447807
 30
0.0
 11
2574.601877706837
 21
1265.632361447807
 31
0.0
 12
2574.005586460157
 22
1262.650905214395
 32
0.0
 13
2574.601877706837
 23
1262.650905214395
 33
0.0
  0
SOLID
  5
2699
330
1F
100
AcDbEntity
  8
LOGO
 62
     5
100
AcDbTrace
 10
2574.005586460157
 20
1262.650905214395
 30
0.0
 11
2574.601877706837
 21
1262.650905214395
 31
0.0
 12
2576.281080269099
 22
1265.632361447807
 32
0.0
 13
2576.877371515781
 23
1265.632361447807
 33
0.0
  0
SOLID
  5
269A
330
1F
100
AcDbEntity
  8
LOGO
 62
     5
100
AcDbTrace
 10
2576.281080269099
 20
1265.632361447807
 30
0.0
 11
2576.877371515781
 21
1265.632361447807
 31
0.0
 12
2576.281080269099
 22
1262.650905214395
 32
0.0
 13
2576.877371515781
 23
1262.650905214395
 33
0.0
  0
POLYLINE
  5
269B
330
1F
100
AcDbEntity
  8
LOGO
 62
     5
100
AcDb2dPolyline
 66
     1
 10
0.0
 20
0.0
 30
0.0
 40
0.5972468416289592
 41
0.5972468416289592
  0
VERTEX
  5
269C
330
269B
100
AcDbEntity
  8
LOGO
 62
     5
100
AcDbVertex
100
AcDb2dVertex
 10
2596.268559728719
 20
1264.439778954442
 30
0.0
 42
1.0
  0
VERTEX
  5
269D
330
269B
100
AcDbEntity
  8
LOGO
 62
     5
100
AcDbVertex
100
AcDb2dVertex
 10
2594.476819203831
 20
1264.439778954442
 30
0.0
 42
1.0
  0
SEQEND
  5
269E
330
269B
100
AcDbEntity
  8
LOGO
 62
     5
  0
POLYLINE
  5
269F
330
1F
100
AcDbEntity
  8
LOGO
 62
     5
100
AcDb2dPolyline
 66
     1
 10
0.0
 20
0.0
 30
0.0
 70
     1
  0
VERTEX
  5
26A0
330
269F
100
AcDbEntity
  8
LOGO
 62
     5
100
AcDbVertex
100
AcDb2dVertex
 10
2591.0993086178
 20
1264.141633331101
 30
0.0
 42
1.000000057330635
  0
VERTEX
  5
26A1
330
269F
100
AcDbEntity
  8
LOGO
 62
     5
100
AcDbVertex
100
AcDb2dVertex
 10
2592.888182357847
 20
1264.141633331101
 30
0.0
 42
1.000000057330635
  0
SEQEND
  5
26A2
330
269F
100
AcDbEntity
  8
LOGO
 62
     5
  0
CIRCLE
  5
26A3
330
1F
100
AcDbEntity
  8
LOGO
 62
     5
100
AcDbCircle
 10
2591.993745487824
 20
1264.141633331101
 30
0.0
 40
0.8944368700235294
  0
POLYLINE
  5
26A4
330
1F
100
AcDbEntity
  8
LOGO
 62
     5
100
AcDb2dPolyline
 66
     1
 10
0.0
 20
0.0
 30
0.0
 70
     1
 40
0.5972468416289592
 41
0.5972468416289592
  0
VERTEX
  5
26A5
330
26A4
100
AcDbEntity
  8
LOGO
 62
     5
100
AcDbVertex
100
AcDb2dVertex
 10
2590.799251804565
 20
1264.141633331101
 30
0.0
 42
1.0
  0
VERTEX
  5
26A6
330
26A4
100
AcDbEntity
  8
LOGO
 62
     5
100
AcDbVertex
100
AcDb2dVertex
 10
2593.188239171081
 20
1264.141633331101
 30
0.0
 42
1.0
  0
SEQEND
  5
26A7
330
26A4
100
AcDbEntity
  8
LOGO
 62
     5
  0
LINE
  5
26A8
330
1F
100
AcDbEntity
  8
LOGO
 62
     5
100
AcDbLine
 10
2596.565271959639
 20
1262.650905214395
 30
0.0
 11
2596.565271959639
 21
1264.439778954442
 31
0.0
  0
SOLID
  5
26A9
330
1F
100
AcDbEntity
  8
LOGO
 62
     5
100
AcDbTrace
 10
2592.888122728724
 20
1265.632361447807
 30
0.0
 11
2593.484413975406
 21
1265.632361447807
 31
0.0
 12
2592.888122728724
 22
1262.650905214395
 32
0.0
 13
2593.484413975406
 23
1262.650905214395
 33
0.0
  0
SOLID
  5
26AA
330
1F
100
AcDbEntity
  8
LOGO
 62
     5
100
AcDbTrace
 10
2594.180106972908
 20
1262.650905214395
 30
0.0
 11
2594.776398219593
 21
1262.650905214395
 31
0.0
 12
2594.180106972908
 22
1265.632361447807
 32
0.0
 13
2594.776398219593
 23
1265.632361447807
 33
0.0
  0
SOLID
  5
26AB
330
1F
100
AcDbEntity
  8
LOGO
 62
     5
100
AcDbTrace
 10
2595.968980712957
 20
1264.439778954442
 30
0.0
 11
2596.565271959639
 21
1264.439778954442
 31
0.0
 12
2595.968980712957
 22
1262.650905214395
 32
0.0
 13
2596.565271959639
 23
1262.650905214395
 33
0.0
  0
SOLID
  5
26AC
330
1F
100
AcDbEntity
  8
LOGO
 62
     5
100
AcDbTrace
 10
2594.120477848241
 20
1283.699986222282
 30
0.0
 11
2592.391233232862
 21
1277.359422632559
 31
0.0
 12
2594.120477848241
 22
1268.613817681218
 32
0.0
 13
2592.391233232862
 23
1268.613817681218
 33
0.0
  0
SOLID
  5
26AD
330
1F
100
AcDbEntity
  8
LOGO
 62
     5
100
AcDbTrace
 10
2594.83602734426
 20
1268.613817681218
 30
0.0
 11
2596.565271959639
 21
1268.613817681218
 31
0.0
 12
2594.83602734426
 22
1285.011826964982
 32
0.0
 13
2596.565271959639
 23
1285.011826964983
 33
0.0
  0
SOLID
  5
26AE
330
1F
100
AcDbEntity
  8
LOGO
 62
     2
100
AcDbTrace
 10
2594.120477848241
 20
1285.011826964983
 30
0.0
 11
2594.83602734426
 21
1285.011826964982
 31
0.0
 12
2594.120477848241
 22
1268.613817681218
 32
0.0
 13
2594.83602734426
 23
1268.613817681218
 33
0.0
  0
POLYLINE
  5
26AF
330
1F
100
AcDbEntity
  8
LOGO
 62
     5
100
AcDb2dPolyline
 66
     1
 10
0.0
 20
0.0
 30
0.0
 40
0.5972468416289592
 41
0.5972468416289592
  0
VERTEX
  5
26B0
330
26AF
100
AcDbEntity
  8
LOGO
 62
     5
100
AcDbVertex
100
AcDb2dVertex
 10
2587.721678773522
 20
1264.439778954442
 30
0.0
 42
1.0
  0
VERTEX
  5
26B1
330
26AF
100
AcDbEntity
  8
LOGO
 62
     5
100
AcDbVertex
100
AcDb2dVertex
 10
2585.929938248634
 20
1264.439778954442
 30
0.0
 42
1.0
  0
SEQEND
  5
26B2
330
26AF
100
AcDbEntity
  8
LOGO
 62
     5
  0
POLYLINE
  5
26B3
330
1F
100
AcDbEntity
  8
LOGO
 62
     5
100
AcDb2dPolyline
 66
     1
 10
0.0
 20
0.0
 30
0.0
 40
0.5972468416289592
 41
0.5972468416289592
  0
VERTEX
  5
26B4
330
26B3
100
AcDbEntity
  8
LOGO
 62
     5
100
AcDbVertex
100
AcDb2dVertex
 10
2589.510552513567
 20
1264.439778954442
 30
0.0
 42
1.0
  0
VERTEX
  5
26B5
330
26B3
100
AcDbEntity
  8
LOGO
 62
     5
100
AcDbVertex
100
AcDb2dVertex
 10
2587.71881198868
 20
1264.439778954442
 30
0.0
 42
1.0
  0
SEQEND
  5
26B6
330
26B3
100
AcDbEntity
  8
LOGO
 62
     5
  0
POLYLINE
  5
26B7
330
1F
100
AcDbEntity
  8
LOGO
 62
     5
100
AcDb2dPolyline
 66
     1
 10
0.0
 20
0.0
 30
0.0
 40
0.5972468416289592
 41
0.5972468416289592
  0
VERTEX
  5
26B8
330
26B7
100
AcDbEntity
  8
LOGO
 62
     5
100
AcDbVertex
100
AcDb2dVertex
 10
2580.96367155837
 20
1264.439778954442
 30
0.0
 42
1.0
  0
VERTEX
  5
26B9
330
26B7
100
AcDbEntity
  8
LOGO
 62
     5
100
AcDbVertex
100
AcDb2dVertex
 10
2579.171931033484
 20
1264.439778954442
 30
0.0
 42
1.0
  0
SEQEND
  5
26BA
330
26B7
100
AcDbEntity
  8
LOGO
 62
     5
  0
SOLID
  5
26BB
330
1F
100
AcDbEntity
  8
LOGO
 62
     5
100
AcDbTrace
 10
2578.875218802564
 20
1265.632361447807
 30
0.0
 11
2579.471510049244
 21
1265.632361447807
 31
0.0
 12
2578.875218802564
 22
1262.650905214395
 32
0.0
 13
2579.471510049244
 23
1262.650905214395
 33
0.0
  0
SOLID
  5
26BC
330
1F
100
AcDbEntity
  8
LOGO
 62
     5
100
AcDbTrace
 10
2580.66409254261
 20
1264.439778954442
 30
0.0
 11
2581.260383789294
 21
1264.439778954442
 31
0.0
 12
2580.66409254261
 22
1262.650905214395
 32
0.0
 13
2581.260383789294
 23
1262.650905214395
 33
0.0
  0
POLYLINE
  5
26BD
330
1F
100
AcDbEntity
  8
LOGO
 62
     5
100
AcDb2dPolyline
 66
     1
 10
0.0
 20
0.0
 30
0.0
 70
     1
 40
0.5972468416289592
 41
0.5972468416289592
  0
VERTEX
  5
26BE
330
26BD
100
AcDbEntity
  8
LOGO
 62
     5
100
AcDbVertex
100
AcDb2dVertex
 10
2582.252370849369
 20
1264.141633331101
 30
0.0
 42
1.0
  0
VERTEX
  5
26BF
330
26BD
100
AcDbEntity
  8
LOGO
 62
     5
100
AcDbVertex
100
AcDb2dVertex
 10
2584.641358215885
 20
1264.141633331101
 30
0.0
 42
1.0
  0
SEQEND
  5
26C0
330
26BD
100
AcDbEntity
  8
LOGO
 62
     5
  0
SOLID
  5
26C1
330
1F
100
AcDbEntity
  8
LOGO
 62
     5
100
AcDbTrace
 10
2584.341241773526
 20
1266.526798317831
 30
0.0
 11
2584.937533020208
 21
1266.526798317831
 31
0.0
 12
2584.341241773526
 22
1262.650905214395
 32
0.0
 13
2584.937533020208
 23
1262.650905214395
 33
0.0
  0
SOLID
  5
26C2
330
1F
100
AcDbEntity
  8
LOGO
 62
     5
100
AcDbTrace
 10
2585.633226017714
 20
1265.632361447807
 30
0.0
 11
2586.229517264396
 21
1265.632361447807
 31
0.0
 12
2585.633226017714
 22
1262.650905214395
 32
0.0
 13
2586.229517264396
 23
1262.650905214395
 33
0.0
  0
SOLID
  5
26C3
330
1F
100
AcDbEntity
  8
LOGO
 62
     5
100
AcDbTrace
 10
2587.42209975776
 20
1264.439778954442
 30
0.0
 11
2588.018391004442
 21
1264.439778954442
 31
0.0
 12
2587.42209975776
 22
1262.650905214395
 32
0.0
 13
2588.018391004442
 23
1262.650905214395
 33
0.0
  0
SOLID
  5
26C4
330
1F
100
AcDbEntity
  8
LOGO
 62
     5
100
AcDbTrace
 10
2589.210973497806
 20
1264.439778954442
 30
0.0
 11
2589.807264744488
 21
1264.439778954442
 31
0.0
 12
2589.210973497806
 22
1262.650905214394
 32
0.0
 13
2589.807264744488
 23
1262.650905214394
 33
0.0
  0
SOLID
  5
26C5
330
1F
100
AcDbEntity
  8
LOGO
 62
     5
100
AcDbTrace
 10
2577.583234558376
 20
1266.049765320484
 30
0.0
 11
2578.179525805059
 21
1266.049765320484
 31
0.0
 12
2577.583234558376
 22
1266.526798317831
 32
0.0
 13
2578.179525805059
 23
1266.526798317831
 33
0.0
  0
SOLID
  5
26C6
330
1F
100
AcDbEntity
  8
LOGO
 62
     5
100
AcDbTrace
 10
2577.583234558376
 20
1265.632361447807
 30
0.0
 11
2578.179525805059
 21
1265.632361447807
 31
0.0
 12
2577.583234558376
 22
1262.650905214394
 32
0.0
 13
2578.179525805059
 23
1262.650905214395
 33
0.0
  0
SOLID
  5
26C7
330
1F
100
AcDbEntity
  8
LOGO
 62
     5
100
AcDbTrace
 10
2583.446864532626
 20
1268.613817681218
 30
0.0
 11
2585.176109148006
 21
1268.613817681218
 31
0.0
 12
2583.446864532626
 22
1277.359422632559
 32
0.0
 13
2585.176109148006
 23
1283.699986222282
 33
0.0
  0
SOLID
  5
26C8
330
1F
100
AcDbEntity
  8
LOGO
 62
     5
100
AcDbTrace
 10
2585.891658644025
 20
1285.011826964982
 30
0.0
 11
2587.620903259404
 21
1285.011826964983
 31
0.0
 12
2585.891658644025
 22
1269.925658423919
 32
0.0
 13
2587.620903259404
 23
1276.266222013642
 33
0.0
  0
SOLID
  5
26C9
330
1F
100
AcDbEntity
  8
LOGO
 62
     2
100
AcDbTrace
 10
2585.176109148006
 20
1285.011826964982
 30
0.0
 11
2585.891658644025
 21
1285.011826964982
 31
0.0
 12
2585.176109148006
 22
1268.613817681218
 32
0.0
 13
2585.891658644025
 23
1268.613817681218
 33
0.0
  0
SOLID
  5
26CA
330
1F
100
AcDbEntity
  8
LOGO
 62
     5
100
AcDbTrace
 10
2585.891658644025
 20
1269.925658423919
 30
0.0
 11
2587.620903259404
 21
1276.266222013642
 31
0.0
 12
2594.120477848241
 22
1285.011826964983
 32
0.0
 13
2592.391233232862
 23
1285.011826964983
 33
0.0
  0
SOLID
  5
26CB
330
1F
100
AcDbEntity
  8
LOGO
 62
     5
100
AcDbTrace
 10
2585.891658644025
 20
1268.613817681218
 30
0.0
 11
2587.620903259404
 21
1268.613817681218
 31
0.0
 12
2594.120477848241
 22
1283.699986222282
 32
0.0
 13
2592.391233232862
 23
1277.359422632559
 33
0.0
  0
SOLID
  5
26CC
330
1F
100
AcDbEntity
  8
LOGO
 62
     2
100
AcDbTrace
 10
2585.176109148006
 20
1268.613817681218
 30
0.0
 11
2585.891658644025
 21
1268.613817681218
 31
0.0
 12
2594.120477848241
 22
1285.011826964983
 32
0.0
 13
2594.83602734426
 23
1285.011826964982
 33
0.0
  0
TEXT
  5
26CD
330
1F
100
AcDbEntity
  8
0
100
AcDbText
 10
2661.197817181429
 20
1248.095342679795
 30
0.0
 40
4.0
  1
10512261
 41
0.7
  7
CHINESET
 72
     1
 11
2670.331150514762
 21
1248.095342679795
 31
0.0
100
AcDbText
  0
LINE
  5
26CE
330
1F
100
AcDbEntity
  8
LOGO
 62
     1
100
AcDbLine
 10
2682.340290470097
 20
1253.966508220912
 30
0.0
 11
2682.340290470099
 21
1245.967666591952
 31
0.0
  0
LINE
  5
26CF
330
1F
100
AcDbEntity
  8
LOGO
 62
     1
100
AcDbLine
 10
2682.340290470097
 20
1253.966508220912
 30
0.0
 11
2658.340290470099
 21
1253.966508220912
 31
0.0
  0
LWPOLYLINE
  5
26D0
330
1F
100
AcDbEntity
  8
0
 62
     1
100
AcDbPolyline
 90
        4
 70
     1
 43
0.0
 10
2570.353032551546
 20
1285.961874736749
 10
2970.353032551546
 20
1285.961874736749
 10
2970.353032551546
 20
1245.967666591952
 10
2570.353032551546
 20
1245.967666591952
1001
GENIUS_GENREC_14
1002
{
1000
PYDIR
1011
2570.353032551546
1021
1245.967666591952
1031
0.0
1002
}
1002
{
1000
PXDIR
1011
2970.353032551546
1021
1285.961874736749
1031
0.0
1002
}
1002
{
1000
PORI
1011
2570.353032551546
1021
1285.961874736749
1031
0.0
1002
}
1002
{
1000
PINS
1011
2570.353032551546
1021
1285.961874736749
1031
0.0
1002
}
1002
{
1000
PINS2
1011
2970.353032551546
1021
1245.967666591952
1031
0.0
1002
}
1002
{
1000
C
1070
     1
1002
}
1001
GENIUS_GENOBJ-N-REC_13
1002
{
1000
OWNER
1000
GEN
1002
}
1001
GENIUS_GENODEF_13
1002
{
1000
HIER
1070
     0
1002
}
1002
{
1000
MANEDIT
1070
     0
1002
}
1002
{
1000
NOSEL
1070
     0
1002
}
1002
{
1000
BEHIND
1070
     0
1002
}
1002
{
1000
OTHER
1070
     0
1002
}
1002
{
1000
REACTOR
1002
}
  0
LINE
  5
286C
330
1F
100
AcDbEntity
  8
0
 62
     4
100
AcDbLine
 10
2770.353032551546
 20
1795.967666591952
 30
0.0
 11
2770.353032551546
 21
1285.961874736749
 31
0.0
  0
LINE
  5
286D
330
1F
100
AcDbEntity
  8
0
 62
     4
100
AcDbLine
 10
2570.353032551546
 20
1587.555973982745
 30
0.0
 11
2970.353032551546
 21
1587.555973982745
 31
0.0
  0
LINE
  5
2A2C
330
1F
100
AcDbEntity
  8
LOGO
 62
     6
100
AcDbLine
 10
2737.401608916259
 20
1263.965060257111
 30
0.0
 11
2737.401608916259
 21
1249.300517270685
 31
0.0
  0
LINE
  5
2A2D
330
1F
100
AcDbEntity
  8
LOGO
 62
     6
100
AcDbLine
 10
2713.350548740199
 20
1263.965060257111
 30
0.0
 11
2713.350548740199
 21
1249.300517270685
 31
0.0
  0
LINE
  5
2A2E
330
1F
100
AcDbEntity
  8
LOGO
 62
     6
100
AcDbLine
 10
2737.401608916259
 20
1249.300517270685
 30
0.0
 11
2713.350548740199
 21
1249.300517270685
 31
0.0
  0
LINE
  5
2A2F
330
1F
100
AcDbEntity
  8
LOGO
 62
     6
100
AcDbLine
 10
2752.564753102531
 20
1281.962453922269
 30
0.0
 11
2713.350548740199
 21
1281.962453922269
 31
0.0
  0
LINE
  5
2A30
330
1F
100
AcDbEntity
  8
LOGO
 62
     6
100
AcDbLine
 10
2752.564753102531
 20
1269.96419147883
 30
0.0
 11
2713.350548740199
 21
1269.96419147883
 31
0.0
  0
LINE
  5
2A31
330
1F
100
AcDbEntity
  8
LOGO
 62
     6
100
AcDbLine
 10
2713.350548740199
 20
1281.962453922269
 30
0.0
 11
2713.350548740199
 21
1269.96419147883
 31
0.0
  0
LINE
  5
2A32
330
1F
100
AcDbEntity
  8
LOGO
 62
     6
100
AcDbLine
 10
2752.564753102531
 20
1281.962453922269
 30
0.0
 11
2752.564753102531
 21
1269.96419147883
 31
0.0
  0
LINE
  5
2A33
330
1F
100
AcDbEntity
  8
LOGO
 62
     6
100
AcDbLine
 10
2728.073080211604
 20
1269.96419147883
 30
0.0
 11
2728.073080211604
 21
1263.965060257111
 31
0.0
  0
TEXT
  5
2A34
330
1F
100
AcDbEntity
  8
LOGO
  6
Continuous
 62
     7
100
AcDbText
 10
2715.579994173821
 20
1272.46881122244
 30
0.0
 40
7.0
  1
MSP(T)
  7
CHINESET
100
AcDbText
  0
LINE
  5
2A35
330
1F
100
AcDbEntity
  8
LOGO
 62
     6
100
AcDbLine
 10
2737.401608916259
 20
1263.965060257111
 30
0.0
 11
2713.350548740199
 21
1263.965060257111
 31
0.0
  0
TEXT
  5
2A36
330
1F
100
AcDbEntity
  8
LOGO
  6
Continuous
 62
     6
100
AcDbText
 10
2721.905406349908
 20
1251.370386416333
 30
262.1154515200996
 40
3.0
  1
Model
 41
0.8
  7
CHINESET
100
AcDbText
  0
TEXT
  5
2A37
330
1F
100
AcDbEntity
  8
LOGO
 62
     6
100
AcDbText
 10
2721.10690387391
 20
1256.931739870188
 30
262.1154515200996
 40
5.0
  1
型號
  7
CHINESET
100
AcDbText
  0
LINE
  5
2A38
330
1F
100
AcDbEntity
  8
LOGO
 62
     6
100
AcDbLine
 10
2776.031889473249
 20
1263.965060257111
 30
0.0
 11
2776.031889473249
 21
1249.300517270685
 31
0.0
  0
LINE
  5
2A39
330
1F
100
AcDbEntity
  8
LOGO
 62
     6
100
AcDbLine
 10
2758.216097867295
 20
1263.965060257111
 30
0.0
 11
2758.216097867295
 21
1249.300517270685
 31
0.0
  0
LINE
  5
2A3A
330
1F
100
AcDbEntity
  8
LOGO
 62
     6
100
AcDbLine
 10
2776.031889473249
 20
1249.300517270685
 30
0.0
 11
2758.216097867295
 21
1249.300517270685
 31
0.0
  0
LINE
  5
2A3B
330
1F
100
AcDbEntity
  8
LOGO
 62
     6
100
AcDbLine
 10
2777.064711860712
 20
1281.962453922269
 30
0.0
 11
2762.157907393929
 21
1281.962453922269
 31
0.0
  0
LINE
  5
2A3C
330
1F
100
AcDbEntity
  8
LOGO
 62
     6
100
AcDbLine
 10
2777.064711860712
 20
1269.96419147883
 30
0.0
 11
2762.157907393929
 21
1269.96419147883
 31
0.0
  0
LINE
  5
2A3D
330
1F
100
AcDbEntity
  8
LOGO
 62
     6
100
AcDbLine
 10
2762.157907393929
 20
1281.962453922269
 30
0.0
 11
2762.157907393929
 21
1269.96419147883
 31
0.0
  0
LINE
  5
2A3E
330
1F
100
AcDbEntity
  8
LOGO
 62
     6
100
AcDbLine
 10
2777.064711860712
 20
1281.962453922269
 30
0.0
 11
2777.064711860712
 21
1269.96419147883
 31
0.0
  0
LINE
  5
2A3F
330
1F
100
AcDbEntity
  8
LOGO
 62
     6
100
AcDbLine
 10
2776.031889473249
 20
1263.965060257111
 30
0.0
 11
2758.216097867295
 21
1263.965060257111
 31
0.0
  0
TEXT
  5
2A40
330
1F
100
AcDbEntity
  8
LOGO
  6
Continuous
 62
     6
100
AcDbText
 10
2759.667423931245
 20
1251.370386416333
 30
262.1154515200996
 40
3.0
  1
Tube I.D.
 41
0.8
  7
CHINESET
100
AcDbText
  0
TEXT
  5
2A41
330
1F
100
AcDbEntity
  8
LOGO
 62
     6
100
AcDbText
 10
2760.877056253197
 20
1256.931739870188
 30
262.1154515200996
 40
5.0
  1
內徑
  7
CHINESET
100
AcDbText
  0
TEXT
  5
2A42
330
1F
100
AcDbEntity
  8
LOGO
  6
Continuous
 62
     7
100
AcDbText
 10
2767.619084391819
 20
1272.46881122244
 30
0.0
 40
7.0
  1
*
  7
CHINESET
100
AcDbText
  0
LINE
  5
2A43
330
1F
100
AcDbEntity
  8
LOGO
 62
     6
100
AcDbLine
 10
2769.611309627321
 20
1269.96419147883
 30
0.0
 11
2769.611309627321
 21
1263.965060257112
 31
0.0
  0
LINE
  5
2A44
330
1F
100
AcDbEntity
  8
LOGO
 62
     6
100
AcDbLine
 10
2801.504084468486
 20
1263.965060257111
 30
0.0
 11
2801.504084468486
 21
1249.300517270685
 31
0.0
  0
LINE
  5
2A45
330
1F
100
AcDbEntity
  8
LOGO
 62
     6
100
AcDbLine
 10
2780.300844333929
 20
1263.965060257111
 30
0.0
 11
2780.300844333929
 21
1249.300517270685
 31
0.0
  0
LINE
  5
2A46
330
1F
100
AcDbEntity
  8
LOGO
 62
     6
100
AcDbLine
 10
2801.504084468486
 20
1249.300517270685
 30
0.0
 11
2780.300844333929
 21
1249.300517270685
 31
0.0
  0
LINE
  5
2A47
330
1F
100
AcDbEntity
  8
LOGO
 62
     6
100
AcDbLine
 10
2802.241034530626
 20
1281.962453922269
 30
0.0
 11
2778.770152717894
 21
1281.962453922269
 31
0.0
  0
LINE
  5
2A48
330
1F
100
AcDbEntity
  8
LOGO
 62
     6
100
AcDbLine
 10
2802.241034530626
 20
1269.96419147883
 30
0.0
 11
2778.770152717894
 21
1269.96419147883
 31
0.0
  0
LINE
  5
2A49
330
1F
100
AcDbEntity
  8
LOGO
 62
     6
100
AcDbLine
 10
2778.770152717894
 20
1281.962453922269
 30
0.0
 11
2778.770152717894
 21
1269.96419147883
 31
0.0
  0
LINE
  5
2A4A
330
1F
100
AcDbEntity
  8
LOGO
 62
     6
100
AcDbLine
 10
2802.241034530626
 20
1281.962453922269
 30
0.0
 11
2802.241034530626
 21
1269.96419147883
 31
0.0
  0
LINE
  5
2A4B
330
1F
100
AcDbEntity
  8
LOGO
 62
     6
100
AcDbLine
 10
2801.504084468486
 20
1263.965060257111
 30
0.0
 11
2780.300844333929
 21
1263.965060257111
 31
0.0
  0
TEXT
  5
2A4C
330
1F
100
AcDbEntity
  8
LOGO
  6
Continuous
 62
     6
100
AcDbText
 10
2786.085576190432
 20
1251.370386416333
 30
262.1154515200996
 40
3.0
  1
Type
 41
0.8
  7
CHINESET
100
AcDbText
  0
TEXT
  5
2A4D
330
1F
100
AcDbEntity
  8
LOGO
 62
     6
100
AcDbText
 10
2784.50896994517
 20
1256.931739870188
 30
262.1154515200996
 40
5.0
  1
型式
  7
CHINESET
100
AcDbText
  0
TEXT
  5
2A4E
330
1F
100
AcDbEntity
  8
LOGO
  6
Continuous
 62
     7
100
AcDbText
 10
2780.285800762314
 20
1272.46881122244
 30
0.0
 40
7.0
  1
A/B
  7
CHINESET
100
AcDbText
  0
LINE
  5
2A4F
330
1F
100
AcDbEntity
  8
LOGO
 62
     6
100
AcDbLine
 10
2786.223554951285
 20
1269.96419147883
 30
0.0
 11
2786.223554951285
 21
1263.965060257112
 31
0.0
  0
LINE
  5
2A50
330
1F
100
AcDbEntity
  8
LOGO
  6
Continuous
 62
     7
100
AcDbLine
 10
2755.188674379747
 20
1275.920822958802
 30
0.0
 11
2760.486669277626
 21
1275.920822958802
 31
0.0
  0
TEXT
  5
2A55
330
1F
100
AcDbEntity
  8
0
100
AcDbText
 10
2781.446371511081
 20
1780.909493377338
 30
0.0
 40
6.0
  1
MSP-16B
 41
0.75
  7
CHINESET
100
AcDbText
  0
TEXT
  5
2A57
330
1F
100
AcDbEntity
  8
0
100
AcDbText
 10
2581.446371511081
 20
1572.497800768131
 30
0.0
 40
6.0
  1
MSP-30A
 41
0.75
  7
CHINESET
100
AcDbText
  0
TEXT
  5
2A58
330
1F
100
AcDbEntity
  8
0
100
AcDbText
 10
2781.446371511081
 20
1572.497800768131
 30
0.0
 40
6.0
  1
MSPT-30A
 41
0.75
  7
CHINESET
100
AcDbText
  0
DIMENSION
  5
2C2B
330
1F
100
AcDbEntity
  8
AM_5
100
AcDbDimension
  2
*D29
 10
2919.268907708574
 20
1489.137053681125
 30
0.0
 11
2916.768907708573
 21
1502.137053681126
 31
0.0
 70
    32
 71
     5
 42
25.99999999999977
  3
AM_ISO$0
100
AcDbAlignedDimension
 13
2880.454566045841
 23
1515.137053681125
 33
0.0
 14
2880.454566045841
 24
1489.137053681125
 34
0.0
 50
90.00000000000003
100
AcDbRotatedDimension
1001
ACAD
1000
DSTYLE
1002
{
1070
    40
1040
1.0
1070
   144
1040
1.0
1070
   272
1070
     8
1002
}
  0
DIMENSION
  5
2D73
102
{ACAD_XDICTIONARY
360
2D80
102
}
102
{ACAD_REACTORS
330
2D81
102
}
330
1F
100
AcDbEntity
  8
AM_5
100
AcDbDimension
  2
*D32
 10
2697.523982606844
 20
1676.364813206626
 30
0.0
 11
2695.023982606844
 21
1681.863351312758
 31
0.0
 70
    32
 71
     5
 42
10.99707621226389
  3
AM_ISO$0
100
AcDbAlignedDimension
 13
2682.631369223168
 23
1687.361889418889
 33
0.0
 14
2685.773982606844
 24
1676.364813206626
 34
0.0
 50
90.00000000000003
100
AcDbRotatedDimension
1001
ACAD
1000
DSTYLE
1002
{
1070
    40
1040
1.0
1070
   144
1040
1.0
1070
   272
1070
     8
1002
}
  0
DIMENSION
  5
2DB8
102
{ACAD_XDICTIONARY
360
2DC5
102
}
102
{ACAD_REACTORS
330
2DC6
102
}
330
1F
100
AcDbEntity
  8
AM_5
100
AcDbDimension
  2
*D33
 10
2899.221251272294
 20
1677.123906722951
 30
0.0
 11
2896.721251272293
 21
1682.623906722951
 31
0.0
 70
    32
 71
     5
 42
11.0
  3
AM_ISO$0
100
AcDbAlignedDimension
 13
2884.410805963755
 23
1688.123906722951
 33
0.0
 14
2887.471251272294
 24
1677.123906722951
 34
0.0
 50
90.00000000000003
100
AcDbRotatedDimension
1001
ACAD
1000
DSTYLE
1002
{
1070
    40
1040
1.0
1070
   144
1040
1.0
1070
   272
1070
     8
1002
}
  0
DIMENSION
  5
2E5B
102
{ACAD_XDICTIONARY
360
2E68
102
}
102
{ACAD_REACTORS
330
2E69
102
}
330
1F
100
AcDbEntity
  8
AM_5
100
AcDbDimension
  2
*D34
 10
2930.971251272294
 20
1320.010756467503
 30
0.0
 11
2928.471251272294
 21
1373.010756467503
 31
0.0
 70
    32
 71
     5
 42
106.0
  3
AM_ISO$0
100
AcDbAlignedDimension
 13
2886.471251272294
 23
1426.010756467503
 33
0.0
 14
2902.971251272294
 24
1320.010756467503
 34
0.0
 50
90.00000000000003
100
AcDbRotatedDimension
1001
ACAD
1000
DSTYLE
1002
{
1070
    40
1040
1.0
1070
   144
1040
1.0
1070
   272
1070
     8
1002
}
  0
DIMENSION
  5
2E94
102
{ACAD_XDICTIONARY
360
2EA1
102
}
102
{ACAD_REACTORS
330
2EA2
102
}
330
1F
100
AcDbEntity
  8
AM_5
100
AcDbDimension
  2
*D35
 10
2715.273982606845
 20
1345.010756467503
 30
0.0
 11
2712.773982606844
 21
1374.010756467503
 31
0.0
 70
    32
 71
     5
 42
58.0
  3
AM_ISO$0
100
AcDbAlignedDimension
 13
2699.273982606844
 23
1403.010756467503
 33
0.0
 14
2702.273982606844
 24
1345.010756467503
 34
0.0
 50
90.00000000000003
100
AcDbRotatedDimension
1001
ACAD
1000
DSTYLE
1002
{
1070
    40
1040
1.0
1070
   144
1040
1.0
1070
   272
1070
     8
1002
}
  0
LINE
  5
3019
330
1F
100
AcDbEntity
  8
0
  6
HIDDEN
 62
     3
 48
0.3
100
AcDbLine
 10
2674.273982606844
 20
1638.364813206626
 30
0.0
 11
2674.273982606844
 21
1633.364813206626
 31
0.0
1001
GENIUS_GENOBJ-N-CEN_13
1002
{
1000
OWNER
1000
GEN
1002
}
1001
GENIUS_GENODEF_13
1002
{
1000
HIER
1070
     0
1002
}
1002
{
1000
MANEDIT
1070
     0
1002
}
1002
{
1000
NOSEL
1070
     0
1002
}
1002
{
1000
BEHIND
1070
     0
1002
}
1002
{
1000
OTHER
1070
     0
1002
}
1002
{
1000
REACTOR
1002
}
1001
GENIUS_GENCEN_19
1002
{
1040
2.0
1002
}
  0
LINE
  5
301A
330
1F
100
AcDbEntity
  8
0
  6
HIDDEN
 62
     3
 48
0.3
100
AcDbLine
 10
2668.273982606844
 20
1638.364813206626
 30
0.0
 11
2668.273982606844
 21
1633.364813206626
 31
0.0
1001
GENIUS_GENOBJ-N-CEN_13
1002
{
1000
OWNER
1000
GEN
1002
}
1001
GENIUS_GENODEF_13
1002
{
1000
HIER
1070
     0
1002
}
1002
{
1000
MANEDIT
1070
     0
1002
}
1002
{
1000
NOSEL
1070
     0
1002
}
1002
{
1000
BEHIND
1070
     0
1002
}
1002
{
1000
OTHER
1070
     0
1002
}
1002
{
1000
REACTOR
1002
}
1001
GENIUS_GENCEN_19
1002
{
1040
2.0
1002
}
  0
LINE
  5
301B
330
1F
100
AcDbEntity
  8
0
  6
HIDDEN
 62
     3
 48
0.3
100
AcDbLine
 10
2674.273982606844
 20
1638.364813206626
 30
0.0
 11
2668.273982606844
 21
1638.364813206626
 31
0.0
  0
TEXT
  5
301E
330
1F
100
AcDbEntity
  8
AM_5
100
AcDbText
 10
2692.867457119004
 20
1621.81111106532
 30
0.0
 40
3.0
  1
Port
 41
0.75
  7
CHINESET
100
AcDbText
  0
LINE
  5
301F
330
1F
100
AcDbEntity
  8
AM_5
100
AcDbLine
 10
2700.658275392431
 20
1620.817443282551
 30
0.0
 11
2691.402070177313
 21
1620.817443282551
 31
0.0
  0
LINE
  5
3020
330
1F
100
AcDbEntity
  8
AM_5
100
AcDbLine
 10
2691.402070177313
 20
1620.817443282551
 30
0.0
 11
2674.244142314611
 21
1631.51328645544
 31
0.0
  0
TRACE
  5
3021
330
1F
100
AcDbEntity
  8
AM_5
100
AcDbTrace
 10
2674.487900434667
 20
1631.904315397456
 30
0.0
 11
2674.000384194556
 21
1631.122257513424
 31
0.0
 12
2671.273982606845
 22
1633.364813206626
 32
0.0
 13
2671.273982606845
 23
1633.364813206626
 33
0.0
  0
MTEXT
  5
3022
330
1F
100
AcDbEntity
  8
AM_5
 62
     2
100
AcDbMText
 10
2700.658275392431
 20
1618.755101864708
 30
0.0
 40
3.5
 41
0.0
 71
     7
 72
     5
  1

  7
ACISOTS
 73
     1
 44
1.0
1001
ACAD
1000
MTEXTBEGIN
1070
    73
1070
     1
1070
    44
1040
1.0
1070
    74
1070
     0
1000
MTEXTEND
  0
LINE
  5
3024
330
1F
100
AcDbEntity
  8
AM_5
100
AcDbLine
 10
2902.355544057881
 20
1621.576536798876
 30
0.0
 11
2893.099338842762
 21
1621.576536798876
 31
0.0
  0
LINE
  5
3025
330
1F
100
AcDbEntity
  8
AM_5
100
AcDbLine
 10
2893.099338842762
 20
1621.576536798876
 30
0.0
 11
2875.941410980061
 21
1632.272379971765
 31
0.0
  0
TRACE
  5
3026
330
1F
100
AcDbEntity
  8
AM_5
100
AcDbTrace
 10
2876.185169100116
 20
1632.663408913782
 30
0.0
 11
2875.697652860005
 21
1631.881351029749
 31
0.0
 12
2872.971251272294
 22
1634.123906722951
 32
0.0
 13
2872.971251272294
 23
1634.123906722951
 33
0.0
  0
TEXT
  5
3027
330
1F
100
AcDbEntity
  8
AM_5
100
AcDbText
 10
2894.564725784454
 20
1622.570204581645
 30
0.0
 40
3.0
  1
Port
 41
0.75
  7
CHINESET
100
AcDbText
  0
LINE
  5
3028
330
1F
100
AcDbEntity
  8
0
  6
HIDDEN
 62
     3
 48
0.3
100
AcDbLine
 10
2875.971251272293
 20
1639.123906722951
 30
0.0
 11
2875.971251272293
 21
1634.123906722951
 31
0.0
1001
GENIUS_GENOBJ-N-CEN_13
1002
{
1000
OWNER
1000
GEN
1002
}
1001
GENIUS_GENODEF_13
1002
{
1000
HIER
1070
     0
1002
}
1002
{
1000
MANEDIT
1070
     0
1002
}
1002
{
1000
NOSEL
1070
     0
1002
}
1002
{
1000
BEHIND
1070
     0
1002
}
1002
{
1000
OTHER
1070
     0
1002
}
1002
{
1000
REACTOR
1002
}
1001
GENIUS_GENCEN_19
1002
{
1040
2.0
1002
}
  0
LINE
  5
3029
330
1F
100
AcDbEntity
  8
0
  6
HIDDEN
 62
     3
 48
0.3
100
AcDbLine
 10
2869.971251272294
 20
1639.123906722951
 30
0.0
 11
2869.971251272294
 21
1634.123906722951
 31
0.0
1001
GENIUS_GENOBJ-N-CEN_13
1002
{
1000
OWNER
1000
GEN
1002
}
1001
GENIUS_GENODEF_13
1002
{
1000
HIER
1070
     0
1002
}
1002
{
1000
MANEDIT
1070
     0
1002
}
1002
{
1000
NOSEL
1070
     0
1002
}
1002
{
1000
BEHIND
1070
     0
1002
}
1002
{
1000
OTHER
1070
     0
1002
}
1002
{
1000
REACTOR
1002
}
1001
GENIUS_GENCEN_19
1002
{
1040
2.0
1002
}
  0
LINE
  5
302A
330
1F
100
AcDbEntity
  8
0
  6
HIDDEN
 62
     3
 48
0.3
100
AcDbLine
 10
2875.971251272293
 20
1639.123906722951
 30
0.0
 11
2869.971251272294
 21
1639.123906722951
 31
0.0
  0
LINE
  5
302B
330
1F
100
AcDbEntity
  8
0
  6
HIDDEN
 62
     3
 48
0.3
100
AcDbLine
 10
2878.061801747747
 20
1328.00885267989
 30
0.0
 11
2878.061801747747
 21
1320.00885267989
 31
0.0
  0
LINE
  5
302C
330
1F
100
AcDbEntity
  8
0
  6
HIDDEN
 62
     3
 48
0.3
100
AcDbLine
 10
2868.061801747747
 20
1328.00885267989
 30
0.0
 11
2868.061801747747
 21
1320.00885267989
 31
0.0
  0
LINE
  5
302D
330
1F
100
AcDbEntity
  8
0
  6
HIDDEN
 62
     3
 48
0.3
100
AcDbLine
 10
2877.061801747747
 20
1328.00885267989
 30
0.0
 11
2877.061801747747
 21
1320.00885267989
 31
0.0
  0
LINE
  5
302E
330
1F
100
AcDbEntity
  8
0
  6
HIDDEN
 62
     3
 48
0.3
100
AcDbLine
 10
2869.061801747747
 20
1328.00885267989
 30
0.0
 11
2869.061801747747
 21
1320.00885267989
 31
0.0
  0
LINE
  5
302F
330
1F
100
AcDbEntity
  8
0
  6
HIDDEN
 62
     3
 48
0.3
100
AcDbLine
 10
2868.061801747747
 20
1328.00885267989
 30
0.0
 11
2878.061801747747
 21
1328.00885267989
 31
0.0
  0
LINE
  5
3030
330
1F
100
AcDbEntity
  8
0
  6
HIDDEN
 62
     3
 48
0.3
100
AcDbLine
 10
2668.773982606844
 20
1638.364813206626
 30
0.0
 11
2668.773982606844
 21
1633.364813206626
 31
0.0
1001
GENIUS_GENOBJ-N-CEN_13
1002
{
1000
OWNER
1000
GEN
1002
}
1001
GENIUS_GENODEF_13
1002
{
1000
HIER
1070
     0
1002
}
1002
{
1000
MANEDIT
1070
     0
1002
}
1002
{
1000
NOSEL
1070
     0
1002
}
1002
{
1000
BEHIND
1070
     0
1002
}
1002
{
1000
OTHER
1070
     0
1002
}
1002
{
1000
REACTOR
1002
}
1001
GENIUS_GENCEN_19
1002
{
1040
2.0
1002
}
  0
LINE
  5
3031
330
1F
100
AcDbEntity
  8
0
  6
HIDDEN
 62
     3
 48
0.3
100
AcDbLine
 10
2673.773982606844
 20
1638.364813206626
 30
0.0
 11
2673.773982606844
 21
1633.364813206626
 31
0.0
1001
GENIUS_GENOBJ-N-CEN_13
1002
{
1000
OWNER
1000
GEN
1002
}
1001
GENIUS_GENODEF_13
1002
{
1000
HIER
1070
     0
1002
}
1002
{
1000
MANEDIT
1070
     0
1002
}
1002
{
1000
NOSEL
1070
     0
1002
}
1002
{
1000
BEHIND
1070
     0
1002
}
1002
{
1000
OTHER
1070
     0
1002
}
1002
{
1000
REACTOR
1002
}
1001
GENIUS_GENCEN_19
1002
{
1040
2.0
1002
}
  0
LINE
  5
3032
330
1F
100
AcDbEntity
  8
0
  6
HIDDEN
 62
     3
 48
0.3
100
AcDbLine
 10
2870.471251272294
 20
1639.123906722951
 30
0.0
 11
2870.471251272294
 21
1634.123906722951
 31
0.0
1001
GENIUS_GENOBJ-N-CEN_13
1002
{
1000
OWNER
1000
GEN
1002
}
1001
GENIUS_GENODEF_13
1002
{
1000
HIER
1070
     0
1002
}
1002
{
1000
MANEDIT
1070
     0
1002
}
1002
{
1000
NOSEL
1070
     0
1002
}
1002
{
1000
BEHIND
1070
     0
1002
}
1002
{
1000
OTHER
1070
     0
1002
}
1002
{
1000
REACTOR
1002
}
1001
GENIUS_GENCEN_19
1002
{
1040
2.0
1002
}
  0
LINE
  5
3033
330
1F
100
AcDbEntity
  8
0
  6
HIDDEN
 62
     3
 48
0.3
100
AcDbLine
 10
2875.471251272294
 20
1639.123906722951
 30
0.0
 11
2875.471251272294
 21
1634.123906722951
 31
0.0
1001
GENIUS_GENOBJ-N-CEN_13
1002
{
1000
OWNER
1000
GEN
1002
}
1001
GENIUS_GENODEF_13
1002
{
1000
HIER
1070
     0
1002
}
1002
{
1000
MANEDIT
1070
     0
1002
}
1002
{
1000
NOSEL
1070
     0
1002
}
1002
{
1000
BEHIND
1070
     0
1002
}
1002
{
1000
OTHER
1070
     0
1002
}
1002
{
1000
REACTOR
1002
}
1001
GENIUS_GENCEN_19
1002
{
1040
2.0
1002
}
  0
ENDSEC
  0
SECTION
  2
OBJECTS
  0
DICTIONARY
  5
C
330
0
100
AcDbDictionary
281
     1
  3
ACAD_COLOR
350
BE
  3
ACAD_GROUP
350
D
  3
ACAD_LAYOUT
350
1A
  3
ACAD_MATERIAL
350
BD
  3
ACAD_MLINESTYLE
350
17
  3
ACAD_PLOTSETTINGS
350
19
  3
ACAD_PLOTSTYLENAME
350
E
  3
ACAD_TABLESTYLE
350
11A
  3
ACDBHEADERROUNDTRIPXREC
350
304A
  3
AcDbVariableDictionary
350
94
  3
AcmDictionary
350
5B
  3
AMG
350
41
  3
AMGSNAPSETTINGS
350
1B8
  3
DWGPROPS
350
3049
  0
DICTIONARY
  5
3F9
330
2
100
AcDbDictionary
280
     1
281
     1
  3
ACAD_LAYERFILTERS
360
DB4
  3
ACAD_LAYERSTATES
360
1367
  3
ACLYDICTIONARY
360
DB3
  3
AMLAYER_GROUPCOLORS
360
2FEA
  0
DICTIONARY
  5
8F
330
1F
100
AcDbDictionary
280
     1
281
     1
  3
ACAD_SORTENTS
360
3023
  0
DICTIONARY
  5
1F8D
330
1F7E
100
AcDbDictionary
280
     1
281
     1
  3
ACAD_DIMASSOC
360
1F8E
  0
DICTIONARY
  5
1FB5
330
1FA8
100
AcDbDictionary
280
     1
281
     1
  3
ACAD_DIMASSOC
360
1FB6
  0
DICTIONARY
  5
1FDB
330
1FCE
100
AcDbDictionary
280
     1
281
     1
  3
ACAD_DIMASSOC
360
1FDC
  0
DICTIONARY
  5
2003
330
1FF4
100
AcDbDictionary
280
     1
281
     1
  3
ACAD_DIMASSOC
360
2004
  0
DICTIONARY
  5
202B
330
201E
100
AcDbDictionary
280
     1
281
     1
  3
ACAD_DIMASSOC
360
202C
  0
DICTIONARY
  5
21E4
330
21D7
100
AcDbDictionary
280
     1
281
     1
  3
ACAD_DIMASSOC
360
21E5
  0
DICTIONARY
  5
2214
330
2207
100
AcDbDictionary
280
     1
281
     1
  3
ACAD_DIMASSOC
360
2215
  0
DICTIONARY
  5
2244
330
2237
100
AcDbDictionary
280
     1
281
     1
  3
ACAD_DIMASSOC
360
2245
  0
DICTIONARY
  5
226A
330
225D
100
AcDbDictionary
280
     1
281
     1
  3
ACAD_DIMASSOC
360
226B
  0
DICTIONARY
  5
2290
330
2283
100
AcDbDictionary
280
     1
281
     1
  3
ACAD_DIMASSOC
360
2291
  0
DICTIONARY
  5
22B6
330
22A9
100
AcDbDictionary
280
     1
281
     1
  3
ACAD_DIMASSOC
360
22B7
  0
DICTIONARY
  5
22DC
330
22CF
100
AcDbDictionary
280
     1
281
     1
  3
ACAD_DIMASSOC
360
22DD
  0
DICTIONARY
  5
2302
330
22F5
100
AcDbDictionary
280
     1
281
     1
  3
ACAD_DIMASSOC
360
2303
  0
DICTIONARY
  5
2339
330
2330
100
AcDbDictionary
280
     1
281
     1
  3
ACAD_DIMASSOC
360
233A
  0
DICTIONARY
  5
2361
330
2358
100
AcDbDictionary
280
     1
281
     1
  3
ACAD_DIMASSOC
360
2362
  0
DICTIONARY
  5
23E8
330
23DC
100
AcDbDictionary
280
     1
281
     1
  3
ACAD_DIMASSOC
360
23E9
  0
DICTIONARY
  5
2425
330
2418
100
AcDbDictionary
280
     1
281
     1
  3
ACAD_DIMASSOC
360
2426
  0
DICTIONARY
  5
244B
330
243E
100
AcDbDictionary
280
     1
281
     1
  3
ACAD_DIMASSOC
360
244C
  0
DICTIONARY
  5
2471
330
2464
100
AcDbDictionary
280
     1
281
     1
  3
ACAD_DIMASSOC
360
2472
  0
DICTIONARY
  5
2497
330
248A
100
AcDbDictionary
280
     1
281
     1
  3
ACAD_DIMASSOC
360
2498
  0
DICTIONARY
  5
250C
330
24FF
100
AcDbDictionary
280
     1
281
     1
  3
ACAD_DIMASSOC
360
250D
  0
DICTIONARY
  5
2D80
330
2D73
100
AcDbDictionary
280
     1
281
     1
  3
ACAD_DIMASSOC
360
2D81
  0
DICTIONARY
  5
2DC5
330
2DB8
100
AcDbDictionary
280
     1
281
     1
  3
ACAD_DIMASSOC
360
2DC6
  0
DICTIONARY
  5
2E68
330
2E5B
100
AcDbDictionary
280
     1
281
     1
  3
ACAD_DIMASSOC
360
2E69
  0
DICTIONARY
  5
2EA1
330
2E94
100
AcDbDictionary
280
     1
281
     1
  3
ACAD_DIMASSOC
360
2EA2
  0
DICTIONARY
  5
BE
102
{ACAD_REACTORS
330
C
102
}
330
C
100
AcDbDictionary
281
     1
  0
DICTIONARY
  5
D
102
{ACAD_REACTORS
330
C
102
}
330
C
100
AcDbDictionary
281
     1
  0
DICTIONARY
  5
1A
102
{ACAD_REACTORS
330
C
102
}
330
C
100
AcDbDictionary
281
     1
  3
Model
350
22
  3
配置1
350
1E
  3
配置2
350
26
  0
DICTIONARY
  5
BD
102
{ACAD_REACTORS
330
C
102
}
330
C
100
AcDbDictionary
281
     1
  0
DICTIONARY
  5
17
102
{ACAD_REACTORS
330
C
102
}
330
C
100
AcDbDictionary
281
     1
  3
Standard
350
18
  0
DICTIONARY
  5
19
102
{ACAD_REACTORS
330
C
102
}
330
C
100
AcDbDictionary
281
     1
  0
ACDBDICTIONARYWDFLT
  5
E
102
{ACAD_REACTORS
330
C
102
}
330
C
100
AcDbDictionary
281
     1
  3
Normal
350
F
100
AcDbDictionaryWithDefault
340
F
  0
DICTIONARY
  5
11A
102
{ACAD_REACTORS
330
C
102
}
330
C
100
AcDbDictionary
281
     1
  3
Standard
350
11B
  0
DICTIONARY
  5
304A
102
{ACAD_REACTORS
330
C
102
}
330
C
100
AcDbDictionary
281
     1
  0
DICTIONARY
  5
94
102
{ACAD_REACTORS
330
C
102
}
330
C
100
AcDbDictionary
281
     1
  3
CTABLESTYLE
350
138
  3
DIMASSOC
350
96
  3
INDEXCTL
350
95
  3
PROJECTNAME
350
2C8A
  0
DICTIONARY
  5
5B
102
{ACAD_REACTORS
330
C
102
}
330
C
100
AcDbDictionary
281
     1
  3
AcmBOM
350
1B5
  3
AcmStdDictionary
350
61
  3
AMDTSECTSYM_ARROWCOLOR
350
123
  0
DICTIONARY
  5
41
102
{ACAD_REACTORS
330
C
102
}
330
C
100
AcDbDictionary
281
     1
  0
DICTIONARY
  5
1B8
102
{ACAD_REACTORS
330
C
102
}
330
C
100
AcDbDictionary
281
     1
  0
XRECORD
  5
3049
102
{ACAD_REACTORS
330
C
102
}
330
C
100
AcDbXrecord
280
     1
  1
DWGPROPS COOKIE
  2

  3

  4

  6

  7

  8

  9

300
AmdtFileType=84
301
=
302
=
303
=
304
=
305
=
306
=
307
=
308
=
309
=
 40
0.1951934953703704
 41
2453727.710216099
 42
2454370.417680301
  1

 90
        1
  0
DICTIONARY
  5
DB4
102
{ACAD_REACTORS
330
3F9
102
}
330
3F9
100
AcDbDictionary
281
     1
  0
DICTIONARY
  5
1367
102
{ACAD_REACTORS
330
3F9
102
}
330
3F9
100
AcDbDictionary
281
     1
  0
DICTIONARY
  5
DB3
102
{ACAD_REACTORS
330
3F9
102
}
330
3F9
100
AcDbDictionary
281
     1
1001
ACAD
1000
<All
  0
DICTIONARY
  5
2FEA
102
{ACAD_REACTORS
330
3F9
102
}
330
3F9
100
AcDbDictionary
280
     1
281
     1
  0
SORTENTSTABLE
  5
3023
102
{ACAD_REACTORS
330
8F
102
}
330
8F
100
AcDbSortentsTable
330
1F
331
2A50
  5
2D73
331
301E
  5
3028
331
2699
  5
26A4
331
2677
  5
267C
331
2D73
  5
301A
331
26BB
  5
26C3
331
21C5
  5
225D
331
2A3F
  5
2A44
331
2207
  5
22CF
331
1EAE
  5
1EAE
331
1E42
  5
1E42
331
1DC6
  5
1DC6
331
1DA4
  5
1DA4
331
1D32
  5
1D32
331
1D18
  5
1D18
331
2283
  5
2358
331
1FF4
  5
20EB
331
302F
  5
1EDF
331
26AA
  5
26AF
331
2A2E
  5
2A33
331
1E53
  5
1E53
331
1DD7
  5
1DD7
331
1DB5
  5
1DB5
331
1D93
  5
1D93
331
1D29
  5
1D29
331
1D07
  5
1D07
331
1EBF
  5
1EBF
331
1CF6
  5
1CF6
331
2675
  5
267A
331
2697
  5
269F
331
23DC
  5
24C5
331
21C3
  5
2207
331
2A3D
  5
2A42
331
1EAC
  5
1EAC
331
1E40
  5
1E40
331
1E26
  5
1E26
331
1DC4
  5
1DC4
331
1DA2
  5
1DA2
331
1D30
  5
1D30
331
22F5
  5
243E
331
302D
  5
1EDD
331
26A8
  5
26AD
331
21A2
  5
21C3
331
2A2C
  5
2A31
331
1F03
  5
1F23
331
1E51
  5
1E51
331
1E37
  5
1E37
331
1DD5
  5
1DD5
331
1DB3
  5
1DB3
331
1D27
  5
1D27
331
1D05
  5
1D05
331
2A4E
  5
2A58
331
1F3D
  5
1F5B
331
1D16
  5
1D16
331
1CF4
  5
1CF4
331
301A
  5
3021
331
2695
  5
269A
331
2673
  5
2678
331
26B7
  5
26C2
331
218F
  5
21A2
331
2A3B
  5
2A40
331
1EAA
  5
1EAA
331
1E60
  5
1E60
331
1E3E
  5
1E3E
331
1DC2
  5
1DC2
331
1DA0
  5
1DA0
331
20E2
  5
218D
331
302B
  5
1ECA
331
21A0
  5
21B3
331
1F01
  5
1F14
331
1E4F
  5
1E4F
331
1E35
  5
1E35
331
1DD3
  5
1DD3
331
1DB1
  5
1DB1
331
1D25
  5
1D25
331
1D03
  5
1D03
331
2A4C
  5
2A55
331
1EBB
  5
1EBB
331
1D14
  5
1D14
331
1CF2
  5
1CF2
331
2693
  5
2698
331
2671
  5
2676
331
218D
  5
21A0
331
26CF
  5
2A2D
331
2A39
  5
2A3E
331
1EA8
  5
1EA8
331
1E5E
  5
1E5E
331
1E3C
  5
1E3C
331
1DC0
  5
1DC0
331
1F5A
  5
1F6D
331
1ECA
  5
1EEE
331
3029
  5
302E
331
2682
  5
2693
331
26A4
  5
26AC
331
26C6
  5
26CB
331
1E4D
  5
1E4D
331
1E33
  5
1E33
331
1DD1
  5
1DD1
331
1DAF
  5
1DAF
331
1D23
  5
1D23
331
1D01
  5
1D01
331
2A4A
  5
2A4F
331
1EB9
  5
1EB9
331
1D9E
  5
1D9E
331
1D12
  5
1D12
331
1CF0
  5
1CF0
331
2330
  5
2464
331
26B3
  5
26C1
331
26CD
  5
286D
331
2A37
  5
2A3C
331
1EA6
  5
1EA6
331
1E5C
  5
1E5C
331
1E3A
  5
1E3A
331
1F58
  5
1F6B
331
2E5B
  5
301E
331
3027
  5
302C
331
2680
  5
268F
331
26C4
  5
26C9
331
1E4B
  5
1E4B
331
1E31
  5
1E31
331
1DCF
  5
1DCF
331
1DAD
  5
1DAD
331
1D21
  5
1D21
331
1CFF
  5
1CFF
331
2A48
  5
2A4D
331
1EB7
  5
1EB7
331
1DBE
  5
1DBE
331
1D10
  5
1D10
331
1CEE
  5
1CEE
331
26CB
  5
26D0
331
21B3
  5
21C6
331
1F14
  5
1F4A
331
2A35
  5
2A3A
331
1EA4
  5
1EA4
331
1E38
  5
1E38
331
2A57
  5
2E5B
331
2237
  5
22F5
331
1EC6
  5
1EC6
331
1FA8
  5
20E5
331
3025
  5
302A
331
267E
  5
2683
331
286C
  5
2A2F
331
26C2
  5
26C7
331
2A46
  5
2A4B
331
1EB5
  5
1EB5
331
1E2F
  5
1E2F
331
1DCD
  5
1DCD
331
1DAB
  5
1DAB
331
1D39
  5
1D39
331
1D1F
  5
1D1F
331
1EDF
  5
1F00
331
268F
  5
2696
331
1DDE
  5
1DDE
331
1DBC
  5
1DBC
331
1D9A
  5
1D9A
331
1D0E
  5
1D0E
331
1CFD
  5
1CFD
331
26C9
  5
26CE
331
21B1
  5
21C4
331
1F12
  5
1F30
331
2A33
  5
2A38
331
1EA2
  5
1EA2
331
1E58
  5
1E58
331
2A55
  5
2DB8
331
1EC4
  5
1EC4
331
22A9
  5
23DC
331
267C
  5
2681
331
1EF1
  5
1F12
331
2A44
  5
2A49
331
1EB3
  5
1EB3
331
1E47
  5
1E47
331
1E2D
  5
1E2D
331
1DCB
  5
1DCB
331
1DA9
  5
1DA9
331
1D37
  5
1D37
331
1D1D
  5
1D1D
331
1F6D
  5
201E
331
1EDD
  5
1EF0
331
20EB
  5
2190
331
26AF
  5
26BD
331
1DDC
  5
1DDC
331
1DBA
  5
1DBA
331
1D98
  5
1D98
331
1D2E
  5
1D2E
331
1D0C
  5
1D0C
331
1CFB
  5
1CFB
331
2A31
  5
2A36
331
1EA0
  5
1EA0
331
1F4A
  5
1F6A
331
1EC2
  5
1EC2
331
2464
  5
2671
331
225D
  5
2330
331
1FCE
  5
20E8
331
3021
  5
3026
331
267A
  5
267F
331
1EEF
  5
1F02
331
2A42
  5
2A47
331
1EB1
  5
1EB1
331
1E45
  5
1E45
331
1E2B
  5
1E2B
331
1DC9
  5
1DC9
331
1DA7
  5
1DA7
331
1D35
  5
1D35
331
1D1B
  5
1D1B
331
1F6B
  5
1FCE
331
26AD
  5
26BB
331
1E56
  5
1E56
331
1DDA
  5
1DDA
331
1DB8
  5
1DB8
331
1D96
  5
1D96
331
1D2C
  5
1D2C
331
1D0A
  5
1D0A
331
1CF9
  5
1CF9
331
2418
  5
24C8
331
1EC0
  5
1EC0
331
301F
  5
3024
331
201E
  5
20EE
331
2678
  5
267D
331
269A
  5
26A8
331
26BC
  5
26C4
331
21C6
  5
2283
331
2A40
  5
2A45
331
1EAF
  5
1EAF
331
1E43
  5
1E43
331
1E29
  5
1E29
331
1DC7
  5
1DC7
331
1DA5
  5
1DA5
331
1D33
  5
1D33
331
1D19
  5
1D19
331
24C5
  5
2673
331
26AB
  5
26B3
331
2A2F
  5
2A34
331
1E54
  5
1E54
331
1DD8
  5
1DD8
331
1DB6
  5
1DB6
331
1D94
  5
1D94
331
1D2A
  5
1D2A
331
1D08
  5
1D08
331
2676
  5
267B
331
2698
  5
26A3
331
21C4
  5
2237
331
2A3E
  5
2A43
331
1EAD
  5
1EAD
331
1E41
  5
1E41
331
1E27
  5
1E27
331
1DC5
  5
1DC5
331
1DA3
  5
1DA3
331
1D31
  5
1D31
331
20E5
  5
218E
331
302E
  5
1EDE
331
26A9
  5
26AE
331
2A2D
  5
2A32
331
1E52
  5
1E52
331
1DD6
  5
1DD6
331
1DB4
  5
1DB4
331
1D28
  5
1D28
331
1D06
  5
1D06
331
2A4F
  5
2C2B
331
1D17
  5
1D17
331
1CF5
  5
1CF5
331
301B
  5
3022
331
2696
  5
269B
331
2674
  5
2679
331
2190
  5
21B1
331
1E61
  5
1E61
331
1E3F
  5
1E3F
331
1DC3
  5
1DC3
331
1DA1
  5
1DA1
331
1F23
  5
1F59
331
2A3C
  5
2A41
331
1EAB
  5
1EAB
331
302C
  5
1EDC
331
21A1
  5
21B4
331
1F02
  5
1F15
331
1E50
  5
1E50
331
1E36
  5
1E36
331
1DD4
  5
1DD4
331
1DB2
  5
1DB2
331
1D26
  5
1D26
331
1D04
  5
1D04
331
2A4D
  5
2A57
331
1EBC
  5
1EBC
331
1F7E
  5
20E2
331
1D15
  5
1D15
331
1CF3
  5
1CF3
331
1B7A
  5
1B7A
331
3019
  5
3020
331
24C8
  5
2674
331
2694
  5
2699
331
2672
  5
2677
331
218E
  5
21A1
331
26D0
  5
2A2E
331
2A3A
  5
2A3F
331
1EA9
  5
1EA9
331
1E5F
  5
1E5F
331
1E3D
  5
1E3D
331
1DC1
  5
1DC1
331
1F5B
  5
1F7E
331
302A
  5
302F
331
2C2B
  5
3019
331
2683
  5
2694
331
26C7
  5
26CC
331
219F
  5
21B2
331
1F00
  5
1F13
331
1E4E
  5
1E4E
331
1E34
  5
1E34
331
1DD2
  5
1DD2
331
1DB0
  5
1DB0
331
1D24
  5
1D24
331
1D02
  5
1D02
331
2A4B
  5
2A50
331
1EBA
  5
1EBA
331
1D9F
  5
1D9F
331
1D13
  5
1D13
331
1CF1
  5
1CF1
331
26CE
  5
2A2C
331
2A38
  5
2A3D
331
1EA7
  5
1EA7
331
1E5D
  5
1E5D
331
1E3B
  5
1E3B
331
1F59
  5
1F6C
331
3028
  5
302D
331
24FF
  5
2675
331
2681
  5
2690
331
26A3
  5
26AB
331
26C5
  5
26CA
331
21D7
  5
22A9
331
1E4C
  5
1E4C
331
1E32
  5
1E32
331
1DD0
  5
1DD0
331
1DAE
  5
1DAE
331
1D22
  5
1D22
331
1D00
  5
1D00
331
2A49
  5
2A4E
331
1EB8
  5
1EB8
331
22CF
  5
2418
331
1DBF
  5
1DBF
331
1D11
  5
1D11
331
1CEF
  5
1CEF
331
2690
  5
2697
331
26CC
  5
286C
331
21B4
  5
21D7
331
1F15
  5
1F58
331
2A36
  5
2A3B
331
1EA5
  5
1EA5
331
1E39
  5
1E39
331
2A58
  5
2E94
331
2E94
  5
301F
331
3026
  5
302B
331
267F
  5
268E
331
2358
  5
248A
331
286D
  5
2A30
331
26C3
  5
26C8
331
2A47
  5
2A4C
331
1EB6
  5
1EB6
331
1E4A
  5
1E4A
331
1E30
  5
1E30
331
1DCE
  5
1DCE
331
1DAC
  5
1DAC
331
1D20
  5
1D20
331
248A
  5
2672
331
20EE
  5
219F
331
1DBD
  5
1DBD
331
1D9B
  5
1D9B
331
1D0F
  5
1D0F
331
1CFE
  5
1CFE
331
26CA
  5
26CF
331
21B2
  5
21C5
331
1F13
  5
1F3D
331
2A34
  5
2A39
331
1EA3
  5
1EA3
331
1E59
  5
1E59
331
1EC5
  5
1EC5
331
3024
  5
3029
331
267D
  5
2682
331
26C1
  5
26C6
331
269F
  5
26AA
331
2A45
  5
2A4A
331
1EB4
  5
1EB4
331
1E2E
  5
1E2E
331
1DCC
  5
1DCC
331
1DAA
  5
1DAA
331
1D38
  5
1D38
331
1D1E
  5
1D1E
331
243E
  5
24FF
331
1EDE
  5
1EF1
331
268E
  5
2695
331
1DDD
  5
1DDD
331
1DBB
  5
1DBB
331
1D99
  5
1D99
331
1D2F
  5
1D2F
331
1D0D
  5
1D0D
331
1CFC
  5
1CFC
331
2DB8
  5
301B
331
2A32
  5
2A37
331
26C8
  5
26CD
331
1EC3
  5
1EC3
331
3022
  5
3027
331
267B
  5
2680
331
1EF0
  5
1F03
331
2A43
  5
2A48
331
1EB2
  5
1EB2
331
1E46
  5
1E46
331
1E2C
  5
1E2C
331
1DCA
  5
1DCA
331
1DA8
  5
1DA8
331
1D36
  5
1D36
331
1D1C
  5
1D1C
331
1F6C
  5
1FF4
331
1EDC
  5
1EEF
331
26AE
  5
26BC
331
1E57
  5
1E57
331
1DDB
  5
1DDB
331
1DB9
  5
1DB9
331
1D97
  5
1D97
331
1D2D
  5
1D2D
331
1D0B
  5
1D0B
331
1CFA
  5
1CFA
331
2A30
  5
2A35
331
1EC1
  5
1EC1
331
3020
  5
3025
331
2679
  5
267E
331
269B
  5
26A9
331
26BD
  5
26C5
331
1F30
  5
1F5A
331
1EEE
  5
1F01
331
2A41
  5
2A46
331
1EB0
  5
1EB0
331
1E44
  5
1E44
331
1E2A
  5
1E2A
331
1DC8
  5
1DC8
331
1DA6
  5
1DA6
331
1D34
  5
1D34
331
1D1A
  5
1D1A
331
1F6A
  5
1FA8
331
20E8
  5
218F
331
26AC
  5
26B7
331
1E9F
  5
1E9F
331
1E55
  5
1E55
331
1DD9
  5
1DD9
331
1DB7
  5
1DB7
331
1D95
  5
1D95
331
1D2B
  5
1D2B
331
1D09
  5
1D09
  0
DIMASSOC
  5
1F8E
102
{ACAD_REACTORS
330
1F8D
102
}
330
1F8D
100
AcDbDimAssoc
330
1F7E
 90
        3
 70
     0
 71
     0
  1
AcDbOsnapPointRef
 72
    13
331
1CF6
 73
     0
 91
        0
 40
0.0
 10
0.0
 20
0.0
 30
2.000000000000000E+50
 75
     0
  1
AcDbOsnapPointRef
 72
    13
331
1CF5
 73
     0
 91
        0
 40
0.0
 10
0.0
 20
0.0
 30
2.000000000000000E+50
 75
     0
  0
DIMASSOC
  5
1FB6
102
{ACAD_REACTORS
330
1FB5
102
}
330
1FB5
100
AcDbDimAssoc
330
1FA8
 90
        3
 70
     0
 71
     0
  1
AcDbOsnapPointRef
 72
    13
331
1CF6
 73
     0
 91
        0
 40
0.0
 10
0.0
 20
0.0
 30
2.000000000000000E+50
 75
     0
  1
AcDbOsnapPointRef
 72
    13
331
1CF0
 73
     0
 91
        0
 40
0.0
 10
0.0
 20
0.0
 30
2.000000000000000E+50
 75
     0
  0
DIMASSOC
  5
1FDC
102
{ACAD_REACTORS
330
1FDB
102
}
330
1FDB
100
AcDbDimAssoc
330
1FCE
 90
        1
 70
     0
 71
     0
  1
AcDbOsnapPointRef
 72
    13
331
1CF6
 73
     0
 91
        0
 40
0.0
 10
0.0
 20
0.0
 30
2.000000000000000E+50
 75
     0
  0
DIMASSOC
  5
2004
102
{ACAD_REACTORS
330
2003
102
}
330
2003
100
AcDbDimAssoc
330
1FF4
 90
        2
 70
     0
 71
     0
  1
AcDbOsnapPointRef
 72
    13
331
1D31
 73
     0
 91
        0
 40
0.0
 10
0.0
 20
0.0
 30
2.000000000000000E+50
 75
     0
  0
DIMASSOC
  5
202C
102
{ACAD_REACTORS
330
202B
102
}
330
202B
100
AcDbDimAssoc
330
201E
 90
        3
 70
     0
 71
     0
  1
AcDbOsnapPointRef
 72
     1
331
1D19
 73
     0
 91
        0
 40
0.0
 10
0.0
 20
0.0
 30
2.000000000000000E+50
 75
     0
  1
AcDbOsnapPointRef
 72
     1
331
1CF5
 73
     0
 91
        0
 40
0.0
 10
0.0
 20
0.0
 30
2.000000000000000E+50
 75
     0
  0
DIMASSOC
  5
21E5
102
{ACAD_REACTORS
330
21E4
102
}
330
21E4
100
AcDbDimAssoc
330
21D7
 90
        3
 70
     0
 71
     0
  1
AcDbOsnapPointRef
 72
     1
331
2190
 73
     0
 91
        0
 40
0.0
 10
0.0
 20
0.0
 30
2.000000000000000E+50
 75
     0
  1
AcDbOsnapPointRef
 72
     1
331
21A2
 73
     0
 91
        0
 40
0.0
 10
0.0
 20
0.0
 30
2.000000000000000E+50
 75
     0
  0
DIMASSOC
  5
2215
102
{ACAD_REACTORS
330
2214
102
}
330
2214
100
AcDbDimAssoc
330
2207
 90
        3
 70
     0
 71
     0
  1
AcDbOsnapPointRef
 72
     1
331
1E52
 73
     0
 91
        0
 40
0.0
 10
0.0
 20
0.0
 30
2.000000000000000E+50
 75
     0
  1
AcDbOsnapPointRef
 72
     1
331
1E51
 73
     0
 91
        0
 40
0.0
 10
0.0
 20
0.0
 30
2.000000000000000E+50
 75
     0
  0
DIMASSOC
  5
2245
102
{ACAD_REACTORS
330
2244
102
}
330
2244
100
AcDbDimAssoc
330
2237
 90
        3
 70
     0
 71
     0
  1
AcDbOsnapPointRef
 72
     1
331
219F
 73
     0
 91
        0
 40
0.0
 10
0.0
 20
0.0
 30
2.000000000000000E+50
 75
     0
  1
AcDbOsnapPointRef
 72
     1
331
21B1
 73
     0
 91
        0
 40
0.0
 10
0.0
 20
0.0
 30
2.000000000000000E+50
 75
     0
  0
DIMASSOC
  5
226B
102
{ACAD_REACTORS
330
226A
102
}
330
226A
100
AcDbDimAssoc
330
225D
 90
        3
 70
     0
 71
     0
  1
AcDbOsnapPointRef
 72
    13
331
1E51
 73
     0
 91
        0
 40
0.0
 10
0.0
 20
0.0
 30
2.000000000000000E+50
 75
     0
  1
AcDbOsnapPointRef
 72
    13
331
1E54
 73
     0
 91
        0
 40
0.0
 10
0.0
 20
0.0
 30
2.000000000000000E+50
 75
     0
  0
DIMASSOC
  5
2291
102
{ACAD_REACTORS
330
2290
102
}
330
2290
100
AcDbDimAssoc
330
2283
 90
        3
 70
     0
 71
     0
  1
AcDbOsnapPointRef
 72
     1
331
1E31
 73
     0
 91
        0
 40
0.0
 10
0.0
 20
0.0
 30
2.000000000000000E+50
 75
     0
  1
AcDbOsnapPointRef
 72
     1
331
1E35
 73
     0
 91
        0
 40
0.0
 10
0.0
 20
0.0
 30
2.000000000000000E+50
 75
     0
  0
DIMASSOC
  5
22B7
102
{ACAD_REACTORS
330
22B6
102
}
330
22B6
100
AcDbDimAssoc
330
22A9
 90
        3
 70
     0
 71
     0
  1
AcDbOsnapPointRef
 72
     1
331
1E31
 73
     0
 91
        0
 40
0.0
 10
0.0
 20
0.0
 30
2.000000000000000E+50
 75
     0
  1
AcDbOsnapPointRef
 72
     1
331
1E40
 73
     0
 91
        0
 40
0.0
 10
0.0
 20
0.0
 30
2.000000000000000E+50
 75
     0
  0
DIMASSOC
  5
22DD
102
{ACAD_REACTORS
330
22DC
102
}
330
22DC
100
AcDbDimAssoc
330
22CF
 90
        3
 70
     0
 71
     0
  1
AcDbOsnapPointRef
 72
     1
331
1E31
 73
     0
 91
        0
 40
0.0
 10
0.0
 20
0.0
 30
2.000000000000000E+50
 75
     0
  1
AcDbOsnapPointRef
 72
    13
331
1E5D
 73
     0
 91
        0
 40
0.0
 10
0.0
 20
0.0
 30
2.000000000000000E+50
 75
     0
  0
DIMASSOC
  5
2303
102
{ACAD_REACTORS
330
2302
102
}
330
2302
100
AcDbDimAssoc
330
22F5
 90
        3
 70
     0
 71
     0
  1
AcDbOsnapPointRef
 72
    13
331
1E39
 73
     0
 91
        0
 40
0.0
 10
0.0
 20
0.0
 30
2.000000000000000E+50
 75
     0
  1
AcDbOsnapPointRef
 72
     1
331
1E39
 73
     0
 91
        0
 40
0.0
 10
0.0
 20
0.0
 30
2.000000000000000E+50
 75
     0
  0
DIMASSOC
  5
233A
102
{ACAD_REACTORS
330
2339
102
}
330
2339
100
AcDbDimAssoc
330
2330
 90
        2
 70
     0
 71
     0
  1
AcDbOsnapPointRef
 72
     3
331
1E5E
 73
     2
 91
        0
 40
0.0
 10
0.0
 20
0.0
 30
0.0
 75
     0
  0
DIMASSOC
  5
2362
102
{ACAD_REACTORS
330
2361
102
}
330
2361
100
AcDbDimAssoc
330
2358
 90
        2
 70
     0
 71
     0
  1
AcDbOsnapPointRef
 72
     3
331
1E26
 73
     2
 91
        0
 40
0.0
 10
0.0
 20
0.0
 30
0.0
 75
     0
  0
DIMASSOC
  5
23E9
102
{ACAD_REACTORS
330
23E8
102
}
330
23E8
100
AcDbDimAssoc
330
23DC
 90
        2
 70
     0
 71
     0
  1
AcDbOsnapPointRef
 72
     3
331
1E9F
 73
     2
 91
        0
 40
0.0
 10
0.0
 20
0.0
 30
0.0
 75
     0
  0
DIMASSOC
  5
2426
102
{ACAD_REACTORS
330
2425
102
}
330
2425
100
AcDbDimAssoc
330
2418
 90
        3
 70
     0
 71
     0
  1
AcDbOsnapPointRef
 72
     1
331
1EB8
 73
     0
 91
        0
 40
0.0
 10
0.0
 20
0.0
 30
2.000000000000000E+50
 75
     0
  1
AcDbOsnapPointRef
 72
    13
331
1EB7
 73
     0
 91
        0
 40
0.0
 10
0.0
 20
0.0
 30
2.000000000000000E+50
 75
     0
  0
DIMASSOC
  5
244C
102
{ACAD_REACTORS
330
244B
102
}
330
244B
100
AcDbDimAssoc
330
243E
 90
        3
 70
     0
 71
     0
  1
AcDbOsnapPointRef
 72
     1
331
1EA8
 73
     0
 91
        0
 40
0.0
 10
0.0
 20
0.0
 30
2.000000000000000E+50
 75
     0
  1
AcDbOsnapPointRef
 72
     1
331
1ECA
 73
     0
 91
        0
 40
0.0
 10
0.0
 20
0.0
 30
2.000000000000000E+50
 75
     0
  0
DIMASSOC
  5
2472
102
{ACAD_REACTORS
330
2471
102
}
330
2471
100
AcDbDimAssoc
330
2464
 90
        3
 70
     0
 71
     0
  1
AcDbOsnapPointRef
 72
     1
331
1ECA
 73
     0
 91
        0
 40
0.0
 10
0.0
 20
0.0
 30
2.000000000000000E+50
 75
     0
  1
AcDbOsnapPointRef
 72
     1
331
1EAA
 73
     0
 91
        0
 40
0.0
 10
0.0
 20
0.0
 30
2.000000000000000E+50
 75
     0
  0
DIMASSOC
  5
2498
102
{ACAD_REACTORS
330
2497
102
}
330
2497
100
AcDbDimAssoc
330
248A
 90
        3
 70
     0
 71
     0
  1
AcDbOsnapPointRef
 72
    13
331
1EAE
 73
     0
 91
        0
 40
0.0
 10
0.0
 20
0.0
 30
2.000000000000000E+50
 75
     0
  1
AcDbOsnapPointRef
 72
     1
331
1EAE
 73
     0
 91
        0
 40
0.0
 10
0.0
 20
0.0
 30
2.000000000000000E+50
 75
     0
  0
DIMASSOC
  5
250D
102
{ACAD_REACTORS
330
250C
102
}
330
250C
100
AcDbDimAssoc
330
24FF
 90
        3
 70
     0
 71
     0
  1
AcDbOsnapPointRef
 72
     1
331
1EA8
 73
     0
 91
        0
 40
0.0
 10
0.0
 20
0.0
 30
2.000000000000000E+50
 75
     0
  1
AcDbOsnapPointRef
 72
     1
331
1EAA
 73
     0
 91
        0
 40
0.0
 10
0.0
 20
0.0
 30
2.000000000000000E+50
 75
     0
  0
DIMASSOC
  5
2D81
102
{ACAD_REACTORS
330
2D80
102
}
330
2D80
100
AcDbDimAssoc
330
2D73
 90
        2
 70
     0
 71
     0
  1
AcDbOsnapPointRef
 72
    13
331
1D0C
 73
     0
 91
        0
 40
0.0
 10
0.0
 20
0.0
 30
2.000000000000000E+50
 75
     0
  0
DIMASSOC
  5
2DC6
102
{ACAD_REACTORS
330
2DC5
102
}
330
2DC5
100
AcDbDimAssoc
330
2DB8
 90
        1
 70
     0
 71
     0
  1
AcDbOsnapPointRef
 72
    13
331
1D95
 73
     0
 91
        0
 40
0.0
 10
0.0
 20
0.0
 30
2.000000000000000E+50
 75
     0
  0
DIMASSOC
  5
2E69
102
{ACAD_REACTORS
330
2E68
102
}
330
2E68
100
AcDbDimAssoc
330
2E5B
 90
        3
 70
     0
 71
     0
  1
AcDbOsnapPointRef
 72
     1
331
1EB5
 73
     0
 91
        0
 40
0.0
 10
0.0
 20
0.0
 30
2.000000000000000E+50
 75
     0
  1
AcDbOsnapPointRef
 72
     1
331
1EA8
 73
     0
 91
        0
 40
0.0
 10
0.0
 20
0.0
 30
2.000000000000000E+50
 75
     0
  0
DIMASSOC
  5
2EA2
102
{ACAD_REACTORS
330
2EA1
102
}
330
2EA1
100
AcDbDimAssoc
330
2E94
 90
        3
 70
     0
 71
     0
  1
AcDbOsnapPointRef
 72
     1
331
1E35
 73
     0
 91
        0
 40
0.0
 10
0.0
 20
0.0
 30
2.000000000000000E+50
 75
     0
  1
AcDbOsnapPointRef
 72
    13
331
1E5D
 73
     0
 91
        0
 40
0.0
 10
0.0
 20
0.0
 30
2.000000000000000E+50
 75
     0
  0
LAYOUT
  5
22
102
{ACAD_XDICTIONARY
360
304D
102
}
102
{ACAD_REACTORS
330
1A
102
}
330
1A
100
AcDbPlotSettings
  1

  2
\\RD\EPSON Stylus C63 Series單色
  4
A4
  6

 40
3.757083177566528
 41
3.757076978683471
 42
3.757080078125
 43
3.757080078125
 44
209.9733276367187
 45
296.9683227539062
 46
0.0
 47
0.0
 48
0.0
 49
0.0
140
0.0
141
0.0
142
1.0
143
0.3405120737814363
 70
 11952
 72
     1
 73
     0
 74
     0
  7
彩色出圖.ctb
 75
     0
147
2.936753428137963
148
-2047.07469463503
149
-1261.649717473083
100
AcDbLayout
  1
Model
 70
     1
 71
     0
 10
0.0
 20
0.0
 11
12.0
 21
9.0
 12
0.0
 22
0.0
 32
0.0
 14
0.0
 24
0.0
 34
0.0
 15
0.0
 25
0.0
 35
0.0
146
0.0
 13
0.0
 23
0.0
 33
0.0
 16
1.0
 26
0.0
 36
0.0
 17
0.0
 27
1.0
 37
0.0
 76
     0
330
1F
1001
ACAD_PSEXT
1000
\\RD\EPSON Stylus C63 Series單色
1000
EPSON Stylus C63 Series
1000
\\RD
1000

1070
     0
  0
LAYOUT
  5
1E
102
{ACAD_XDICTIONARY
360
304B
102
}
102
{ACAD_REACTORS
330
1A
102
}
330
1A
100
AcDbPlotSettings
  1

  2

  4

  6

 40
0.0
 41
0.0
 42
0.0
 43
0.0
 44
0.0
 45
0.0
 46
0.0
 47
0.0
 48
0.0
 49
0.0
140
0.0
141
0.0
142
1.0
143
1.0
 70
   688
 72
     0
 73
     0
 74
     5
  7
彩色出圖.ctb
 75
    16
147
1.0
148
0.0
149
0.0
100
AcDbLayout
  1
配置1
 70
     1
 71
     1
 10
0.0
 20
0.0
 11
420.0
 21
297.0
 12
0.0
 22
0.0
 32
0.0
 14
1.000000000000000E+20
 24
1.000000000000000E+20
 34
1.000000000000000E+20
 15
-1.000000000000000E+20
 25
-1.000000000000000E+20
 35
-1.000000000000000E+20
146
0.0
 13
0.0
 23
0.0
 33
0.0
 16
1.0
 26
0.0
 36
0.0
 17
0.0
 27
1.0
 37
0.0
 76
     0
330
1B
  0
LAYOUT
  5
26
102
{ACAD_XDICTIONARY
360
304F
102
}
102
{ACAD_REACTORS
330
1A
102
}
330
1A
100
AcDbPlotSettings
  1

  2

  4

  6

 40
0.0
 41
0.0
 42
0.0
 43
0.0
 44
0.0
 45
0.0
 46
0.0
 47
0.0
 48
0.0
 49
0.0
140
0.0
141
0.0
142
1.0
143
1.0
 70
   688
 72
     0
 73
     0
 74
     5
  7
彩色出圖.ctb
 75
    16
147
1.0
148
0.0
149
0.0
100
AcDbLayout
  1
配置2
 70
     1
 71
     2
 10
0.0
 20
0.0
 11
12.0
 21
9.0
 12
0.0
 22
0.0
 32
0.0
 14
0.0
 24
0.0
 34
0.0
 15
0.0
 25
0.0
 35
0.0
146
0.0
 13
0.0
 23
0.0
 33
0.0
 16
1.0
 26
0.0
 36
0.0
 17
0.0
 27
1.0
 37
0.0
 76
     0
330
23
  0
MLINESTYLE
  5
18
102
{ACAD_REACTORS
330
17
102
}
330
17
100
AcDbMlineStyle
  2
STANDARD
 70
     0
  3

 62
   256
 51
90.0
 52
90.0
 71
     2
 49
0.5
 62
   256
  6
BYLAYER
 49
-0.5
 62
   256
  6
BYLAYER
  0
ACDBPLACEHOLDER
  5
F
102
{ACAD_REACTORS
330
E
102
}
330
E
  0
TABLESTYLE
  5
11B
102
{ACAD_REACTORS
330
11A
102
}
330
11A
100
AcDbTableStyle
  3
Standard
 70
     0
 71
     0
 40
1.5
 41
1.5
280
     0
281
     0
  7
STANDARD
140
4.5
170
     2
 62
     0
 63
     7
283
     0
274
    -2
284
     1
 64
     0
275
    -2
285
     1
 65
     0
276
    -2
286
     1
 66
     0
277
    -2
287
     1
 67
     0
278
    -2
288
     1
 68
     0
279
    -2
289
     1
 69
     0
  7
STANDARD
140
6.0
170
     5
 62
     0
 63
     7
283
     0
274
    -2
284
     1
 64
     0
275
    -2
285
     1
 65
     0
276
    -2
286
     1
 66
     0
277
    -2
287
     1
 67
     0
278
    -2
288
     1
 68
     0
279
    -2
289
     1
 69
     0
  7
STANDARD
140
4.5
170
     5
 62
     0
 63
     7
283
     0
274
    -2
284
     1
 64
     0
275
    -2
285
     1
 65
     0
276
    -2
286
     1
 66
     0
277
    -2
287
     1
 67
     0
278
    -2
288
     1
 68
     0
279
    -2
289
     1
 69
     0
  0
DICTIONARYVAR
  5
138
102
{ACAD_REACTORS
330
94
102
}
330
94
100
DictionaryVariables
280
     0
  1
STANDARD
  0
DICTIONARYVAR
  5
96
102
{ACAD_REACTORS
330
94
102
}
330
94
100
DictionaryVariables
280
     0
  1
2
  0
DICTIONARYVAR
  5
95
102
{ACAD_REACTORS
330
94
102
}
330
94
100
DictionaryVariables
280
     0
  1
0
  0
DICTIONARYVAR
  5
2C8A
102
{ACAD_REACTORS
330
94
102
}
330
94
100
DictionaryVariables
280
     0
  1

  0
DICTIONARY
  5
1B5
102
{ACAD_REACTORS
330
5B
102
}
330
5B
100
AcDbDictionary
281
     1
  0
DICTIONARY
  5
61
102
{ACAD_REACTORS
330
5B
102
}
330
5B
100
AcDbDictionary
281
     1
  0
XRECORD
  5
123
102
{ACAD_REACTORS
330
5B
102
}
330
5B
100
AcDbXrecord
280
     1
 90
-1023410169
  0
DICTIONARY
  5
304D
330
22
100
AcDbDictionary
280
     1
281
     1
  3
ACAD_XREC_ROUNDTRIP
360
304E
  0
DICTIONARY
  5
304B
330
1E
100
AcDbDictionary
280
     1
281
     1
  3
ACAD_XREC_ROUNDTRIP
360
304C
  0
DICTIONARY
  5
304F
330
26
100
AcDbDictionary
280
     1
281
     1
  3
ACAD_XREC_ROUNDTRIP
360
3050
  0
XRECORD
  5
304E
102
{ACAD_REACTORS
330
304D
102
}
330
304D
100
AcDbXrecord
280
     1
102
SHADEPLOT
 70
     0
102
SHADEPLOTRESLEVEL
 70
     2
102
SHADEPLOTCUSTOMDPI
 70
   300
  0
XRECORD
  5
304C
102
{ACAD_REACTORS
330
304B
102
}
330
304B
100
AcDbXrecord
280
     1
102
SHADEPLOT
 70
     0
102
SHADEPLOTRESLEVEL
 70
     2
102
SHADEPLOTCUSTOMDPI
 70
   300
  0
XRECORD
  5
3050
102
{ACAD_REACTORS
330
304F
102
}
330
304F
100
AcDbXrecord
280
     1
102
SHADEPLOT
 70
     0
102
SHADEPLOTRESLEVEL
 70
     2
102
SHADEPLOTCUSTOMDPI
 70
   300
  0
ENDSEC
  0
EOF
