  0
SECTION
  2
HEADER
  9
$ACADVER
  1
AC1015
  9
$ACADMAINTVER
 70
    20
  9
$DWGCODEPAGE
  3
ANSI_950
  9
$INSBASE
 10
0.0
 20
0.0
 30
0.0
  9
$EXTMIN
 10
392.8626118148322
 20
242.5571589878776
 30
0.0
  9
$EXTMAX
 10
588.0974430145138
 20
374.9258767152065
 30
148.6194610118964
  9
$LIMMIN
 10
0.0
 20
0.0
  9
$LIMMAX
 10
420.0
 20
297.0
  9
$ORTHOMODE
 70
     0
  9
$REGENMODE
 70
     1
  9
$FILLMODE
 70
     1
  9
$QTEXTMODE
 70
     0
  9
$MIRRTEXT
 70
     1
  9
$LTSCALE
 40
1.0
  9
$ATTMODE
 70
     1
  9
$TEXTSIZE
 40
3.0
  9
$TRACEWID
 40
1.0
  9
$TEXTSTYLE
  7
STANDARD
  9
$CLAYER
  8
AM_REFDIM
  9
$CELTYPE
  6
ByLayer
  9
$CECOLOR
 62
   256
  9
$CELTSCALE
 40
1.0
  9
$DISPSILH
 70
     0
  9
$DIMSCALE
 40
1.5
  9
$DIMASZ
 40
3.0
  9
$DIMEXO
 40
1.0
  9
$DIMDLI
 40
8.0
  9
$DIMRND
 40
0.0
  9
$DIMDLE
 40
0.0
  9
$DIMEXE
 40
1.0
  9
$DIMTP
 40
0.1
  9
$DIMTM
 40
0.1
  9
$DIMTXT
 40
3.5
  9
$DIMCEN
 40
0.0
  9
$DIMTSZ
 40
0.0
  9
$DIMTOL
 70
     0
  9
$DIMLIM
 70
     0
  9
$DIMTIH
 70
     0
  9
$DIMTOH
 70
     0
  9
$DIMSE1
 70
     0
  9
$DIMSE2
 70
     0
  9
$DIMTAD
 70
     1
  9
$DIMZIN
 70
     8
  9
$DIMBLK
  1

  9
$DIMASO
 70
     1
  9
$DIMSHO
 70
     1
  9
$DIMPOST
  1

  9
$DIMAPOST
  1
"
  9
$DIMALT
 70
     0
  9
$DIMALTD
 70
     2
  9
$DIMALTF
 40
0.0393701
  9
$DIMLFAC
 40
1.0
  9
$DIMTOFL
 70
     1
  9
$DIMTVP
 40
0.0
  9
$DIMTIX
 70
     0
  9
$DIMSOXD
 70
     0
  9
$DIMSAH
 70
     0
  9
$DIMBLK1
  1

  9
$DIMBLK2
  1

  9
$DIMSTYLE
  2
AM_ISO
  9
$DIMCLRD
 70
   256
  9
$DIMCLRE
 70
   256
  9
$DIMCLRT
 70
   256
  9
$DIMTFAC
 40
0.6
  9
$DIMGAP
 40
1.0
  9
$DIMJUST
 70
     0
  9
$DIMSD1
 70
     0
  9
$DIMSD2
 70
     0
  9
$DIMTOLJ
 70
     0
  9
$DIMTZIN
 70
     8
  9
$DIMALTZ
 70
     0
  9
$DIMALTTZ
 70
     0
  9
$DIMUPT
 70
     0
  9
$DIMDEC
 70
     1
  9
$DIMTDEC
 70
     8
  9
$DIMALTU
 70
     2
  9
$DIMALTTD
 70
     2
  9
$DIMTXSTY
  7
STANDARD
  9
$DIMAUNIT
 70
     0
  9
$DIMADEC
 70
     0
  9
$DIMALTRND
 40
0.0
  9
$DIMAZIN
 70
     2
  9
$DIMDSEP
 70
    46
  9
$DIMATFIT
 70
     3
  9
$DIMFRAC
 70
     0
  9
$DIMLDRBLK
  1

  9
$DIMLUNIT
 70
     2
  9
$DIMLWD
 70
    -1
  9
$DIMLWE
 70
    -1
  9
$DIMTMOVE
 70
     0
  9
$LUNITS
 70
     2
  9
$LUPREC
 70
     2
  9
$SKETCHINC
 40
1.0
  9
$FILLETRAD
 40
3.75
  9
$AUNITS
 70
     0
  9
$AUPREC
 70
     0
  9
$MENU
  1
.
  9
$ELEVATION
 40
0.0
  9
$PELEVATION
 40
0.0
  9
$THICKNESS
 40
0.0
  9
$LIMCHECK
 70
     0
  9
$CHAMFERA
 40
3.75
  9
$CHAMFERB
 40
3.75
  9
$CHAMFERC
 40
20.0
  9
$CHAMFERD
 40
0.0
  9
$SKPOLY
 70
     0
  9
$TDCREATE
 40
2454392.703168762
  9
$TDUCREATE
 40
2454392.369835428
  9
$TDUPDATE
 40
2456134.603216146
  9
$TDUUPDATE
 40
2456134.269882813
  9
$TDINDWG
 40
0.1195729514
  9
$TDUSRTIMER
 40
0.1195727662
  9
$USRTIMER
 70
     1
  9
$ANGBASE
 50
0.0
  9
$ANGDIR
 70
     0
  9
$PDMODE
 70
     0
  9
$PDSIZE
 40
0.0
  9
$PLINEWID
 40
0.0
  9
$SPLFRAME
 70
     0
  9
$SPLINETYPE
 70
     6
  9
$SPLINESEGS
 70
     8
  9
$HANDSEED
  5
4A14
  9
$SURFTAB1
 70
     6
  9
$SURFTAB2
 70
     6
  9
$SURFTYPE
 70
     6
  9
$SURFU
 70
     6
  9
$SURFV
 70
     6
  9
$UCSBASE
  2

  9
$UCSNAME
  2

  9
$UCSORG
 10
0.0
 20
0.0
 30
0.0
  9
$UCSXDIR
 10
1.0
 20
0.0
 30
0.0
  9
$UCSYDIR
 10
0.0
 20
1.0
 30
0.0
  9
$UCSORTHOREF
  2

  9
$UCSORTHOVIEW
 70
     0
  9
$UCSORGTOP
 10
0.0
 20
0.0
 30
0.0
  9
$UCSORGBOTTOM
 10
0.0
 20
0.0
 30
0.0
  9
$UCSORGLEFT
 10
0.0
 20
0.0
 30
0.0
  9
$UCSORGRIGHT
 10
0.0
 20
0.0
 30
0.0
  9
$UCSORGFRONT
 10
0.0
 20
0.0
 30
0.0
  9
$UCSORGBACK
 10
0.0
 20
0.0
 30
0.0
  9
$PUCSBASE
  2

  9
$PUCSNAME
  2

  9
$PUCSORG
 10
0.0
 20
0.0
 30
0.0
  9
$PUCSXDIR
 10
1.0
 20
0.0
 30
0.0
  9
$PUCSYDIR
 10
0.0
 20
1.0
 30
0.0
  9
$PUCSORTHOREF
  2

  9
$PUCSORTHOVIEW
 70
     0
  9
$PUCSORGTOP
 10
0.0
 20
0.0
 30
0.0
  9
$PUCSORGBOTTOM
 10
0.0
 20
0.0
 30
0.0
  9
$PUCSORGLEFT
 10
0.0
 20
0.0
 30
0.0
  9
$PUCSORGRIGHT
 10
0.0
 20
0.0
 30
0.0
  9
$PUCSORGFRONT
 10
0.0
 20
0.0
 30
0.0
  9
$PUCSORGBACK
 10
0.0
 20
0.0
 30
0.0
  9
$USERI1
 70
     0
  9
$USERI2
 70
     0
  9
$USERI3
 70
     0
  9
$USERI4
 70
     0
  9
$USERI5
 70
     0
  9
$USERR1
 40
0.0
  9
$USERR2
 40
0.0
  9
$USERR3
 40
0.0
  9
$USERR4
 40
0.0
  9
$USERR5
 40
0.0
  9
$WORLDVIEW
 70
     1
  9
$SHADEDGE
 70
     3
  9
$SHADEDIF
 70
    70
  9
$TILEMODE
 70
     1
  9
$MAXACTVP
 70
    64
  9
$PINSBASE
 10
0.0
 20
0.0
 30
0.0
  9
$PLIMCHECK
 70
     0
  9
$PEXTMIN
 10
1.000000000000000E+20
 20
1.000000000000000E+20
 30
1.000000000000000E+20
  9
$PEXTMAX
 10
-1.000000000000000E+20
 20
-1.000000000000000E+20
 30
-1.000000000000000E+20
  9
$PLIMMIN
 10
0.0
 20
0.0
  9
$PLIMMAX
 10
420.0
 20
297.0
  9
$UNITMODE
 70
     0
  9
$VISRETAIN
 70
     1
  9
$PLINEGEN
 70
     0
  9
$PSLTSCALE
 70
     1
  9
$TREEDEPTH
 70
  3020
  9
$CMLSTYLE
  2
Standard
  9
$CMLJUST
 70
     0
  9
$CMLSCALE
 40
20.0
  9
$PROXYGRAPHICS
 70
     1
  9
$MEASUREMENT
 70
     1
  9
$CELWEIGHT
370
    -1
  9
$ENDCAPS
280
     0
  9
$JOINSTYLE
280
     0
  9
$LWDISPLAY
290
     0
  9
$INSUNITS
 70
     4
  9
$HYPERLINKBASE
  1

  9
$STYLESHEET
  1
acad.ctb
  9
$XEDIT
290
     1
  9
$CEPSNTYPE
380
     0
  9
$PSTYLEMODE
290
     1
  9
$FINGERPRINTGUID
  2
{00E4BF2B-312E-4E1D-8C5C-0EEC0927E19E}
  9
$VERSIONGUID
  2
{B54352E4-600B-4A16-ACAD-3E06C49608BE}
  9
$EXTNAMES
290
     1
  9
$PSVPSCALE
 40
0.0
  9
$OLESTARTUP
290
     0
  0
ENDSEC
  0
SECTION
  2
CLASSES
  0
CLASS
  1
ACDBDICTIONARYWDFLT
  2
AcDbDictionaryWithDefault
  3
ObjectDBX Classes
 90
        0
280
     0
281
     0
  0
CLASS
  1
ACDBPLACEHOLDER
  2
AcDbPlaceHolder
  3
ObjectDBX Classes
 90
        0
280
     0
281
     0
  0
CLASS
  1
LAYOUT
  2
AcDbLayout
  3
ObjectDBX Classes
 90
        0
280
     0
281
     0
  0
CLASS
  1
ACME_DOCUMENT
  2
AcMeDbDoc
  3
AcMeServices
 90
        0
280
     0
281
     0
  0
CLASS
  1
AMGSETTINGSOBJ
  2
AmgSettingsObj
  3
"AcadM|Product Description: AutoCAD Mechanical 2000|Company: Autodesk"
 90
        0
280
     0
281
     0
  0
CLASS
  1
ACMESCOPE
  2
AcMeScope
  3
AcMeServices
 90
        0
280
     0
281
     0
  0
CLASS
  1
ACMECOMMANDHISTORY
  2
AcMeCommandHistory
  3
AcMeServices
 90
        0
280
     0
281
     0
  0
CLASS
  1
ACIMSYSVARMAN
  2
AcImSysVarManager
  3
AcMeServices
 90
        0
280
     0
281
     0
  0
CLASS
  1
ACIMREALSYSVAR
  2
AcImRealSysVar
  3
AcMeServices
 90
        0
280
     0
281
     0
  0
CLASS
  1
ACIMINTSYSVAR
  2
AcImIntSysVar
  3
AcMeServices
 90
        0
280
     0
281
     0
  0
CLASS
  1
ACMEDRAWINGMAN
  2
AcMeDrawingMan
  3
AcMeServices
 90
        0
280
     0
281
     0
  0
CLASS
  1
ACMEVIEW
  2
AcMeView
  3
AcMeServices
 90
        0
280
     0
281
     0
  0
CLASS
  1
ACDBENTITYCACHE
  2
AcMeEntityCache
  3
AcMeServices
 90
        0
280
     0
281
     0
  0
CLASS
  1
GSMANAGER
  2
AcMeGSManager
  3
AcMeServices
 90
        0
280
     0
281
     0
  0
CLASS
  1
AMDTINTERNALREACTOR
  2
AmdtInternalReactor
  3
AcMeServices
 90
        0
280
     0
281
     0
  0
CLASS
  1
ACMESTATEMGR
  2
AcMeStateMgr
  3
AcMeServices
 90
        0
280
     0
281
     0
  0
CLASS
  1
ACGREFMASTER
  2
AcGrefMaster
  3
AcAttribServices
 90
        0
280
     0
281
     0
  0
CLASS
  1
ACME_DATABASE
  2
AcMeDbDatabase
  3
AcMeServices
 90
        0
280
     0
281
     0
  0
CLASS
  1
ACRFINSADJUSTERMGR
  2
AcRfInsAdjusterMgr
  3
AcMeServices
 90
        0
280
     0
281
     0
  0
CLASS
  1
ACGREFACADMASTER
  2
AcGrefacadMaster
  3
AcGrefServices
 90
        0
280
     0
281
     0
  0
CLASS
  1
AMIMASTER
  2
AmiMaster
  3
AmiServices
 90
        0
280
     0
281
     0
  0
CLASS
  1
ACMDATADICTIONARY
  2
AcmDataDictionary
  3
"AcmSymBB|Product Description: AutoCAD Mechanical 2004 DX|Company: Autodesk"
 90
        0
280
     0
281
     0
  0
CLASS
  1
ACMDATAENTRYBLOCK
  2
AcmDataEntryBlock
  3
"AcmSymBB|Product Description: AutoCAD Mechanical 2004 DX|Company: Autodesk"
 90
        0
280
     0
281
     0
  0
CLASS
  1
ACIMSTRSYSVAR
  2
AcImStrSysVar
  3
AcMeServices
 90
        0
280
     0
281
     0
  0
CLASS
  1
ACMSTANDARDISO
  2
AcmStandardISO
  3
"Amdt_StdImp|Product Description: AutoCAD Mechanical 2004 DX|Company: Autodesk"
 90
        0
280
     0
281
     0
  0
CLASS
  1
AMGOBJPROPCFG
  2
AmgObjPropCfg
  3
"AmgLay|Product Description: AutoCAD Mechanical 2000|Company: Autodesk"
 90
        1
280
     0
281
     0
  0
CLASS
  1
AMDTEDGESTANDARDISO
  2
AmdtEdgeStdISO
  3
"Amdt_StdImp|Product Description: AutoCAD Mechanical 2004 DX|Company: Autodesk"
 90
    32768
280
     0
281
     0
  0
CLASS
  1
ACMSURFSTANDARDISO
  2
AcmSurfTextStdISO
  3
"Amdt_StdImp|Product Description: AutoCAD Mechanical 2004 DX|Company: Autodesk"
 90
        0
280
     0
281
     0
  0
CLASS
  1
ACMFCFSTANDARDISO
  2
AcmFCFStdISO
  3
"Amdt_StdImp|Product Description: AutoCAD Mechanical 2004 DX|Company: Autodesk"
 90
        0
280
     0
281
     0
  0
CLASS
  1
ACMWELDSTANDARDISO
  2
AcmWeldingStdISO
  3
"Amdt_StdImp|Product Description: AutoCAD Mechanical 2004 DX|Company: Autodesk"
 90
        0
280
     0
281
     0
  0
CLASS
  1
ACMIDSTANDARDISO
  2
AcmIdStdISO
  3
"Amdt_StdImp|Product Description: AutoCAD Mechanical 2004 DX|Company: Autodesk"
 90
        0
280
     0
281
     0
  0
CLASS
  1
ACMDATUMSTANDARDISO
  2
AcmDatumStdISO
  3
"Amdt_StdImp|Product Description: AutoCAD Mechanical 2004 DX|Company: Autodesk"
 90
        0
280
     0
281
     0
  0
CLASS
  1
ACMBOMSTANDARDISO
  2
AcmBOMStdISO
  3
"Amdt_StdImp|Product Description: AutoCAD Mechanical 2004 DX|Company: Autodesk"
 90
        0
280
     0
281
     0
  0
CLASS
  1
ACMDETAILSTANDARDISO
  2
AmdtDetailSymStdISO
  3
"Amdt_StdImp|Product Description: AutoCAD Mechanical 2004 DX|Company: Autodesk"
 90
        0
280
     0
281
     0
  0
CLASS
  1
ACMSECTIONSTANDARDISO
  2
AmdtSectionSymStdISO
  3
"Amdt_StdImp|Product Description: AutoCAD Mechanical 2004 DX|Company: Autodesk"
 90
        0
280
     0
281
     0
  0
CLASS
  1
ACMCENTERLINESTANDARDISO
  2
AmdtCenterLineStdISO
  3
"Amdt_StdImp|Product Description: AutoCAD Mechanical 2004 DX|Company: Autodesk"
 90
        0
280
     0
281
     0
  0
CLASS
  1
ACMNOTESTANDARDISO
  2
AmdtNoteStdISO
  3
"Amdt_StdImp|Product Description: AutoCAD Mechanical 2004 DX|Company: Autodesk"
 90
        0
280
     0
281
     0
  0
CLASS
  1
ACAMGLAYSTD
  2
AcAmgLayStd
  3
"AcAmgLayStd|Product Description: AutoCAD Mechanical 2000|Company: Autodesk"
 90
        0
280
     0
281
     0
  0
CLASS
  1
ACAMGDIMSTD
  2
AcAmgDimStd
  3
"AcAmgDimStd|Product Description: AutoCAD Mechanical 2000|Company: Autodesk"
 90
        0
280
     0
281
     0
  0
CLASS
  1
ACAMGHOLECHARTSTDISO
  2
AcAmgHoleChartStdISO
  3
ACMSYMBB_MODULE_NAME
 90
        0
280
     0
281
     0
  0
CLASS
  1
ACAMGTITLESTD
  2
AcAmgTitleStd
  3
"TITLEAPP"
 90
        0
280
     0
281
     0
  0
CLASS
  1
LAYER_INDEX
  2
AcDbLayerIndex
  3
ObjectDBX Classes
 90
        0
280
     0
281
     0
  0
CLASS
  1
IDBUFFER
  2
AcDbIdBuffer
  3
ObjectDBX Classes
 90
        0
280
     0
281
     0
  0
CLASS
  1
DICTIONARYVAR
  2
AcDbDictionaryVar
  3
ObjectDBX Classes
 90
        0
280
     0
281
     0
  0
CLASS
  1
AM_DRAWING_MGR
  2
AcDmDwgMgr
  3
AcMechDwgViewMgmt
 90
        0
280
     0
281
     0
  0
CLASS
  1
AM_DWG_DOCUMENT
  2
AcDmDwgDocument
  3
AcMechDwgViewMgmt
 90
        0
280
     0
281
     0
  0
CLASS
  1
AM_DWG_SHEET
  2
AcDmSheet
  3
AcMechDwgViewMgmt
 90
        0
280
     0
281
     0
  0
CLASS
  1
AM_VIEWDIMPARMAP
  2
AcDmViewDimParMap
  3
AcMechDwgViewMgmt
 90
        0
280
     0
281
     0
  0
CLASS
  1
AM_DWGMGR_NAME
  2
AcDmDwgMgrName
  3
AcMechDwgViewMgmt
 90
        0
280
     0
281
     0
  0
CLASS
  1
AMDTMENUSTATEMGR
  2
AmdtMenuStateMgr
  3
McadcomServices
 90
        0
280
     0
281
     0
  0
CLASS
  1
AMDTMCOMMENUSTATE
  2
AmdtMcomMenuState
  3
McadcomServices
 90
        0
280
     0
281
     0
  0
CLASS
  1
MAPIAMMOUDLE
  2
MApiAmModule
  3
MApiAmServices
 90
        0
280
     0
281
     0
  0
CLASS
  1
AMDTADMENUSTATE
  2
AmdtAdMenuState
  3
DesignerServices
 90
        0
280
     0
281
     0
  0
CLASS
  1
ADAPPL
  2
AcAdAppl
  3
DesignerServices
 90
        0
280
     0
281
     0
  0
CLASS
  1
DEPMGR
  2
AcAdDepMgr
  3
DesignerServices
 90
        0
280
     0
281
     0
  0
CLASS
  1
PARAMMGR
  2
AcAdParamMgr
  3
DesignerServices
 90
        0
280
     0
281
     0
  0
CLASS
  1
PARAMSCOPE
  2
AcAdParamScope
  3
DesignerServices
 90
        0
280
     0
281
     0
  0
CLASS
  1
NAMEDAPPL
  2
AcAdNamedAppl
  3
DesignerServices
 90
        0
280
     0
281
     0
  0
CLASS
  1
AMDTDMMENUSTATE
  2
AmdtDmMenuState
  3
AcMechDwgViewMgmt
 90
        0
280
     0
281
     0
  0
CLASS
  1
AMDTAMMENUSTATE
  2
AmdtAmMenuState
  3
DesignerAssemblies
 90
        0
280
     0
281
     0
  0
CLASS
  1
ACAMPROJECT
  2
AcAmProject
  3
DesignerAssemblies
 90
        0
280
     0
281
     0
  0
CLASS
  1
ACAMGRCOMPDEF
  2
AcAmGrCompDef
  3
DesignerAssemblies
 90
        0
280
     0
281
     0
  0
CLASS
  1
ACCMCONTEXT
  2
AcCmContext
  3
DesignerAssemblies
 90
        0
280
     0
281
     0
  0
CLASS
  1
ACAMCOMPDEF
  2
AcAmCompDef
  3
DesignerAssemblies
 90
        0
280
     0
281
     0
  0
CLASS
  1
ACAMCOMPDEFMGR
  2
AcAmCompDefMgr
  3
DesignerAssemblies
 90
        0
280
     0
281
     0
  0
CLASS
  1
AMCONTEXTMGR
  2
AcAmContextMgr
  3
DesignerAssemblies
 90
        0
280
     0
281
     0
  0
CLASS
  1
ACAMCONTEXTMODELER
  2
AcAmContextModeler
  3
DesignerAssemblies
 90
        0
280
     0
281
     0
  0
CLASS
  1
ACMTHREADLINESTANDARDISO
  2
AmdtThreadLineStdISO
  3
"Amdt_StdImp|Product Description: AutoCAD Mechanical 2004 DX|Company: Autodesk"
 90
        0
280
     0
281
     0
  0
CLASS
  1
CATALOGSTATE
  2
AcAmCatalogState
  3
DesignerAssemblies
 90
        0
280
     0
281
     0
  0
CLASS
  1
ACAMGRCOMPDEFSET
  2
AcAmGrCompDefSet
  3
DesignerAssemblies
 90
        0
280
     0
281
     0
  0
CLASS
  1
AMDTBROWSERDBTAB
  2
AmdtBrowserDbTab
  3
McadcomServices
 90
        0
280
     0
281
     0
  0
CLASS
  1
CBROWSERAPPOBJECT
  2
CBrowserAppObject
  3
McadcomServices
 90
        0
280
     0
281
     0
  0
CLASS
  1
DM_PLACEHOLDER
  2
AcDmSelsetPlaceholder
  3
AcMechDwgViewMgmt
 90
        0
280
     0
281
     0
  0
CLASS
  1
TABLESTYLE
  2
AcDbTableStyle
  3
ObjectDBX Classes
 90
     2047
280
     0
281
     0
  0
CLASS
  1
VAACXREFPANELOBJECT
  2
VaAcXREFPanelObject
  3
VAAC_ADDIN
 90
    32768
280
     0
281
     0
  0
CLASS
  1
VAACIMAGEINVENTORY
  2
VaAcImageInventory
  3
VAAC_ADDIN
 90
    32768
280
     0
281
     0
  0
CLASS
  1
AMDTNOTETEMPLATEDB
  2
AmdtNoteTemplateDB
  3
AMDT_STDIMP_MODULE_NAME
 90
        0
280
     0
281
     0
  0
CLASS
  1
ACMBOM
  2
AcmBom
  3
"AcmSymBB|Product Description: AutoCAD Mechanical 2004 DX|Company: Autodesk"
 90
    32768
280
     0
281
     0
  0
CLASS
  1
AMDTFORMULAUPDATEDISPATCHER
  2
AmdtFormulaUpdateDispatcher
  3
AcMeServices
 90
    32768
280
     0
281
     0
  0
CLASS
  1
ACMPARTLIST
  2
AcmPartList
  3
"AcmSymBB|Product Description: AutoCAD Mechanical 2004 DX|Company: Autodesk"
 90
    33791
280
     0
281
     1
  0
CLASS
  1
ACAMGFILTERDAT
  2
AcAmgFilterDat
  3
"AcadM|Product Description: AutoCAD Mechanical 2000|Company: Autodesk"
 90
    32768
280
     0
281
     0
  0
CLASS
  1
DIMASSOC
  2
AcDbDimAssoc
  3
"AcDbDimAssoc|Product Desc:     AcDim ARX App For Dimension|Company:          Autodesk, Inc.|WEB Address:      www.autodesk.com"
 90
        0
280
     0
281
     0
  0
CLASS
  1
AMDTNOTE
  2
AmdtNote
  3
"AcmSymBB|Product Description: AutoCAD Mechanical 2004 DX|Company: Autodesk"
 90
    33791
280
     0
281
     1
  0
CLASS
  1
AMDTEDGESTANDARDISO13715
  2
AmdtEdgeStdISO13715
  3
"Amdt_StdImp|Product Description: AutoCAD Mechanical 2004 DX|Company: Autodesk"
 90
        0
280
     0
281
     0
  0
CLASS
  1
ACRFATTGENMGR
  2
AcRfAttGeneralMgr
  3
AcAttribServices
 90
    32768
280
     0
281
     0
  0
CLASS
  1
ASAPP
  2
AcAsAppObject
  3
AutoSurfServices
 90
        0
280
     0
281
     0
  0
CLASS
  1
IM_STATIC_MAN
  2
AcImStaticVarManager
  3
AcMeServices
 90
        0
280
     0
281
     0
  0
CLASS
  1
ACIMDBLSTATICVAR
  2
AcImDblStaticVar
  3
AcMeServices
 90
        0
280
     0
281
     0
  0
CLASS
  1
ACIMSTRSTATICVAR
  2
AcImStrStaticVar
  3
AcMeServices
 90
        0
280
     0
281
     0
  0
CLASS
  1
ACIMINTSTATICVAR
  2
AcImIntStaticVar
  3
AcMeServices
 90
        0
280
     0
281
     0
  0
CLASS
  1
ACASGREFMASTER
  2
AcAsGrefMaster
  3
AutoSurfResolverServices
 90
        0
280
     0
281
     0
  0
CLASS
  1
ACADGREFMODULE
  2
AcAdGrefModule
  3
AdGrefServices
 90
        0
280
     0
281
     0
  0
CLASS
  1
AMDTMAPISURFMOUDULE
  2
AmdtMApiSurfModule
  3
MApiSurfServices
 90
        0
280
     0
281
     0
  0
CLASS
  1
MAPIADMODULE
  2
MApiAdModule
  3
MApiAdServices
 90
        0
280
     0
281
     0
  0
ENDSEC
  0
SECTION
  2
TABLES
  0
TABLE
  2
VPORT
  5
8
330
0
100
AcDbSymbolTable
 70
     3
  0
VPORT
  5
4A0B
330
8
100
AcDbSymbolTableRecord
100
AcDbViewportTableRecord
  2
*Active
 70
     0
 10
0.0
 20
0.0
 11
1.0
 21
1.0
 12
28.57205299560383
 22
14.20145555442684
 13
0.0
 23
0.0
 14
3.75
 24
3.75
 15
15.0
 25
15.0
 16
0.0
 26
0.0
 36
1.0
 17
475.2465220475392
 27
286.8869866440797
 37
0.0
 40
221.19677939794
 41
1.263157894736842
 42
50.0
 43
0.0
 44
0.0
 50
0.0
 51
0.0
 71
     0
 72
  1000
 73
     1
 74
     3
 75
     0
 76
     0
 77
     0
 78
     0
281
     0
 65
     0
110
0.0
120
0.0
130
0.0
111
1.0
121
0.0
131
0.0
112
0.0
122
1.0
132
0.0
 79
     0
146
0.0
  0
ENDTAB
  0
TABLE
  2
LTYPE
  5
5
330
0
100
AcDbSymbolTable
 70
    17
  0
LTYPE
  5
14
330
5
100
AcDbSymbolTableRecord
100
AcDbLinetypeTableRecord
  2
ByBlock
 70
     0
  3

 72
    65
 73
     0
 40
0.0
  0
LTYPE
  5
15
330
5
100
AcDbSymbolTableRecord
100
AcDbLinetypeTableRecord
  2
ByLayer
 70
     0
  3

 72
    65
 73
     0
 40
0.0
  0
LTYPE
  5
16
330
5
100
AcDbSymbolTableRecord
100
AcDbLinetypeTableRecord
  2
Continuous
 70
     0
  3
Solid line
 72
    65
 73
     0
 40
0.0
  0
LTYPE
  5
64
330
5
100
AcDbSymbolTableRecord
100
AcDbLinetypeTableRecord
  2
AM_ISO02W050
 70
     0
  3
__ __ __ __ __ __ __ __ __ __ __ __ __ __ __
 72
    65
 73
     2
 40
7.5
 49
6.0
 74
     0
 49
-1.5
 74
     0
  0
LTYPE
  5
65
330
5
100
AcDbSymbolTableRecord
100
AcDbLinetypeTableRecord
  2
AM_ISO08W050
 70
     0
  3
____ . ____ . ____ . ____ . ____ . ____ . ____
 72
    65
 73
     4
 40
18.0
 49
12.0
 74
     0
 49
-1.5
 74
     0
 49
3.0
 74
     0
 49
-1.5
 74
     0
  0
LTYPE
  5
66
330
5
100
AcDbSymbolTableRecord
100
AcDbLinetypeTableRecord
  2
AM_ISO09W050
 70
     0
  3
_____ . . _____ . . _____ . . ____ .. ____
 72
    65
 73
     6
 40
22.5
 49
12.0
 74
     0
 49
-1.5
 74
     0
 49
3.0
 74
     0
 49
-1.5
 74
     0
 49
3.0
 74
     0
 49
-1.5
 74
     0
  0
LTYPE
  5
67
330
5
100
AcDbSymbolTableRecord
100
AcDbLinetypeTableRecord
  2
Amconstr
 70
     0
  3
_______________________
 72
    65
 73
     2
 40
9999.0
 49
9999.0
 74
     0
 49
0.0
 74
     0
  0
LTYPE
  5
68
330
5
100
AcDbSymbolTableRecord
100
AcDbLinetypeTableRecord
  2
AM_ISO08W050x2
 70
     0
  3
__ . __ . __ . __ . __ . __
 72
    65
 73
     4
 40
9.0
 49
6.0
 74
     0
 49
-0.75
 74
     0
 49
1.5
 74
     0
 49
-0.75
 74
     0
  0
LTYPE
  5
69
330
5
100
AcDbSymbolTableRecord
100
AcDbLinetypeTableRecord
  2
AM_ISO02W050x2
 70
     0
  3
 _ _ _ _ _ _ _ _ _ _ _ _
 72
    65
 73
     2
 40
3.75
 49
3.0
 74
     0
 49
-0.75
 74
     0
  0
LTYPE
  5
6C
330
5
100
AcDbSymbolTableRecord
100
AcDbLinetypeTableRecord
  2
Amzigzag
 70
     0
  3
/\/-/\/-/\/-/\/-/\/-/\/
 72
    65
 73
     2
 40
11.0001
 49
0.0001
 74
     4
 75
   135
340
6B
 46
0.04
 50
0.0
 44
0.0
 45
0.0
 49
-11.0
 74
     0
  0
LTYPE
  5
7A
330
5
100
AcDbSymbolTableRecord
100
AcDbLinetypeTableRecord
  2
ACISOWELD
 70
     0
  3
_ _ _ _ _
 72
    65
 73
     2
 40
2.0
 49
2.0
 74
     0
 49
-1.0
 74
     0
  0
LTYPE
  5
7B
330
5
100
AcDbSymbolTableRecord
100
AcDbLinetypeTableRecord
  2
ACISOTGB
 70
     0
  3
__ . . __ . .
 72
    65
 73
     6
 40
9.0
 49
4.0
 74
     0
 49
-1.0
 74
     0
 49
1.0
 74
     0
 49
-1.0
 74
     0
 49
1.0
 74
     0
 49
-1.0
 74
     0
  0
LTYPE
  5
7C
330
5
100
AcDbSymbolTableRecord
100
AcDbLinetypeTableRecord
  2
ACISOTGL
 70
     0
  3
_ _ _ _ _
 72
    65
 73
     2
 40
3.0
 49
2.0
 74
     0
 49
-1.0
 74
     0
  0
LTYPE
  5
7E
330
5
100
AcDbSymbolTableRecord
100
AcDbLinetypeTableRecord
  2
CENTER
 70
     0
  3
__ . __
 72
    65
 73
     4
 40
7.0
 49
4.0
 74
     0
 49
-1.0
 74
     0
 49
1.0
 74
     0
 49
-1.0
 74
     0
  0
LTYPE
  5
D8
330
5
100
AcDbSymbolTableRecord
100
AcDbLinetypeTableRecord
  2
HIDDEN
 70
     0
  3
Hidden __ __ __ __ __ __ __ __ __ __ __ __ __ _
 72
    65
 73
     2
 40
9.524999999999998
 49
6.349999999999999
 74
     0
 49
-3.174999999999999
 74
     0
  0
LTYPE
  5
D9
330
5
100
AcDbSymbolTableRecord
100
AcDbLinetypeTableRecord
  2
PHANTOM2
 70
     0
  3
Phantom (.5x) ___ _ _ ___ _ _ ___ _ _ ___ _ _
 72
    65
 73
     6
 40
31.75
 49
15.875
 74
     0
 49
-3.174999999999999
 74
     0
 49
3.174999999999999
 74
     0
 49
-3.174999999999999
 74
     0
 49
3.174999999999999
 74
     0
 49
-3.174999999999999
 74
     0
  0
LTYPE
  5
3AFB
330
5
100
AcDbSymbolTableRecord
100
AcDbLinetypeTableRecord
  2
HIDDEN2
 70
     0
  3
Hidden (.5x) _ _ _ _ _ _ _ _ _ _ _ _ _ _ _ _ _
 72
    65
 73
     2
 40
0.1875
 49
0.125
 74
     0
 49
-0.0625
 74
     0
  0
LTYPE
  5
3D45
330
5
100
AcDbSymbolTableRecord
100
AcDbLinetypeTableRecord
  2
ASULTYPE
 70
     0
  3
實線
 72
    65
 73
     2
 40
3.0
 49
2.5
 74
     0
 49
0.5
 74
     0
  0
LTYPE
  5
3D46
330
5
100
AcDbSymbolTableRecord
100
AcDbLinetypeTableRecord
  2
ASVLTYPE
 70
     0
  3
__ __ __ __ __ __ __ __ __ __ __ __ __ __ __ __ __ __ __ __ __
 72
    65
 73
     2
 40
0.75
 49
0.5
 74
     0
 49
-0.25
 74
     0
  0
ENDTAB
  0
TABLE
  2
LAYER
  5
2
102
{ACAD_XDICTIONARY
360
3F9
102
}
330
0
100
AcDbSymbolTable
 70
     9
  0
LAYER
  5
10
330
2
100
AcDbSymbolTableRecord
100
AcDbLayerTableRecord
  2
0
 70
     0
 62
     7
  6
Continuous
370
    -3
390
F
  0
LAYER
  5
ACB
330
2
100
AcDbSymbolTableRecord
100
AcDbLayerTableRecord
  2
AM_VIS
 70
     0
 62
     7
  6
Continuous
370
    50
390
F
  0
LAYER
  5
ACC
330
2
100
AcDbSymbolTableRecord
100
AcDbLayerTableRecord
  2
AM_7
 70
     0
 62
     1
  6
AM_ISO08W050x2
370
    25
390
F
  0
LAYER
  5
13A4
330
2
100
AcDbSymbolTableRecord
100
AcDbLayerTableRecord
  2
Defpoints
 70
     0
 62
     7
  6
Continuous
290
     0
370
    -3
390
F
  0
LAYER
  5
16FA
330
2
100
AcDbSymbolTableRecord
100
AcDbLayerTableRecord
  2
LOGO
 70
     0
 62
     7
  6
Continuous
370
    -3
390
F
  0
LAYER
  5
3455
330
2
100
AcDbSymbolTableRecord
100
AcDbLayerTableRecord
  2
AM_4
 70
     0
 62
     3
  6
ASVLTYPE
370
    25
390
F
  0
LAYER
  5
3456
330
2
100
AcDbSymbolTableRecord
100
AcDbLayerTableRecord
  2
AM_REFDIM
 70
     0
 62
     5
  6
Continuous
370
    25
390
F
  0
LAYER
  5
3AFC
330
2
100
AcDbSymbolTableRecord
100
AcDbLayerTableRecord
  2
AM_HID
 70
     0
 62
     7
  6
AM_ISO02W050
370
    25
390
F
  0
LAYER
  5
3EFF
330
2
100
AcDbSymbolTableRecord
100
AcDbLayerTableRecord
  2
AM_5
 70
     0
 62
     5
  6
Continuous
370
    25
390
F
  0
ENDTAB
  0
TABLE
  2
STYLE
  5
3
330
0
100
AcDbSymbolTable
 70
     6
  0
STYLE
  5
11
330
3
100
AcDbSymbolTableRecord
100
AcDbTextStyleTableRecord
  2
STANDARD
 70
     0
 40
0.0
 41
1.0
 50
0.0
 71
     0
 42
3.0
  3
ISOCP.SHX
  4
CHINESET.SHX
  0
STYLE
  5
6B
330
3
100
AcDbSymbolTableRecord
100
AcDbTextStyleTableRecord
  2

 70
     1
 40
0.0
 41
1.0
 50
0.0
 71
     0
 42
2.5
  3
ltypeshp.shx
  4

  0
STYLE
  5
6D
330
3
100
AcDbSymbolTableRecord
100
AcDbTextStyleTableRecord
  2
ACISOTS
 70
     0
 40
1.0
 41
1.0
 50
0.0
 71
     0
 42
1.0
  3
isocp.shx
  4
chineset.shx
  0
STYLE
  5
79
330
3
100
AcDbSymbolTableRecord
100
AcDbTextStyleTableRecord
  2
ACISOGDT
 70
     0
 40
0.0
 41
1.0
 50
0.0
 71
     0
 42
2.5
  3
amgdt.shx
  4
chineset.shx
  0
STYLE
  5
16FB
330
3
100
AcDbSymbolTableRecord
100
AcDbTextStyleTableRecord
  2
CHINESET
 70
     0
 40
0.0
 41
1.0
 50
0.0
 71
     0
 42
3.0
  3
simplex.shx
  4
CHINESET.SHX
  0
STYLE
  5
3457
330
3
100
AcDbSymbolTableRecord
100
AcDbTextStyleTableRecord
  2
DAYUS
 70
     0
 40
0.0
 41
1.0
 50
0.0
 71
     0
 42
2.5
  3
simplex
  4
dayus
  0
ENDTAB
  0
TABLE
  2
VIEW
  5
6
330
0
100
AcDbSymbolTable
 70
     0
  0
ENDTAB
  0
TABLE
  2
UCS
  5
7
330
0
100
AcDbSymbolTable
 70
     0
  0
ENDTAB
  0
TABLE
  2
APPID
  5
9
330
0
100
AcDbSymbolTable
 70
    23
  0
APPID
  5
12
330
9
100
AcDbSymbolTableRecord
100
AcDbRegAppTableRecord
  2
ACAD
 70
     0
  0
APPID
  5
46
330
9
100
AcDbSymbolTableRecord
100
AcDbRegAppTableRecord
  2
MCAD_NO_VIS
 70
     0
  0
APPID
  5
47
330
9
100
AcDbSymbolTableRecord
100
AcDbRegAppTableRecord
  2
ACAD_TEMP_GRAPHIC
 70
     0
  0
APPID
  5
58
330
9
100
AcDbSymbolTableRecord
100
AcDbRegAppTableRecord
  2
ACATTRIBSERVICES
 70
     0
  0
APPID
  5
EE
330
9
100
AcDbSymbolTableRecord
100
AcDbRegAppTableRecord
  2
AD_DRAW
 70
     0
  0
APPID
  5
10C
330
9
100
AcDbSymbolTableRecord
100
AcDbRegAppTableRecord
  2
DESIGNERASSEMBLIES
 70
     0
  0
APPID
  5
111
330
9
100
AcDbSymbolTableRecord
100
AcDbRegAppTableRecord
  2
ACADM_DIM_EDIT
 70
     0
  0
APPID
  5
112
330
9
100
AcDbSymbolTableRecord
100
AcDbRegAppTableRecord
  2
AMDT_DM_ADJ
 70
     0
  0
APPID
  5
22C
330
9
100
AcDbSymbolTableRecord
100
AcDbRegAppTableRecord
  2
ACAD_DSTYLE_DIMTEXT_FILL
 70
     0
  0
APPID
  5
452
330
9
100
AcDbSymbolTableRecord
100
AcDbRegAppTableRecord
  2
GENIUS_GENOENT_13
 70
     0
  0
APPID
  5
453
330
9
100
AcDbSymbolTableRecord
100
AcDbRegAppTableRecord
  2
GENIUS_GENOBJ-N-CRS_13
 70
     0
  0
APPID
  5
454
330
9
100
AcDbSymbolTableRecord
100
AcDbRegAppTableRecord
  2
GENIUS_GENOLIS_13
 70
     0
  0
APPID
  5
455
330
9
100
AcDbSymbolTableRecord
100
AcDbRegAppTableRecord
  2
GENIUS_GENODEF_13
 70
     0
  0
APPID
  5
456
330
9
100
AcDbSymbolTableRecord
100
AcDbRegAppTableRecord
  2
GENIUS_GENOREF_13
 70
     0
  0
APPID
  5
6F3
330
9
100
AcDbSymbolTableRecord
100
AcDbRegAppTableRecord
  2
ACAD_PSEXT
 70
     0
  0
APPID
  5
808
330
9
100
AcDbSymbolTableRecord
100
AcDbRegAppTableRecord
  2
GENIUS_GENDTOL_13
 70
     0
  0
APPID
  5
16FC
330
9
100
AcDbSymbolTableRecord
100
AcDbRegAppTableRecord
  2
GENIUS_GENREC_14
 70
     0
  0
APPID
  5
16FD
330
9
100
AcDbSymbolTableRecord
100
AcDbRegAppTableRecord
  2
GENIUS_GENOBJ-N-REC_13
 70
     0
  0
APPID
  5
268C
330
9
100
AcDbSymbolTableRecord
100
AcDbRegAppTableRecord
  2
GENIUS_GENDIMSH_14
 70
     0
  0
APPID
  5
3991
330
9
100
AcDbSymbolTableRecord
100
AcDbRegAppTableRecord
  2
GENIUS_GENDIM_13
 70
     0
  0
APPID
  5
3992
330
9
100
AcDbSymbolTableRecord
100
AcDbRegAppTableRecord
  2
GENIUS_GE3DTOL_13
 70
     0
  0
APPID
  5
3A12
330
9
100
AcDbSymbolTableRecord
100
AcDbRegAppTableRecord
  2
ASURF_PCURVE_APPNAME
 70
     0
  0
APPID
  5
3A17
330
9
100
AcDbSymbolTableRecord
100
AcDbRegAppTableRecord
  2
AMG_3D2D_5.0
 70
     0
  0
ENDTAB
  0
TABLE
  2
DIMSTYLE
  5
A
330
0
100
AcDbSymbolTable
 70
    10
100
AcDbDimStyleTable
 71
     3
340
81
340
8B
340
86
  0
DIMSTYLE
105
81
330
A
100
AcDbSymbolTableRecord
100
AcDbDimStyleTableRecord
  2
AM_ISO
 70
     0
  4
"
 40
1.5
 41
3.0
 42
1.0
 43
8.0
 44
1.0
 47
0.1
 48
0.1
 73
     0
 74
     0
 77
     1
 78
     8
 79
     2
140
3.5
141
0.0
143
0.0393701
146
0.6
147
1.0
172
     1
176
   256
177
   256
178
   256
271
     2
272
     2
283
     0
284
     8
340
11
371
    -1
372
    -1
  0
DIMSTYLE
105
82
330
A
100
AcDbSymbolTableRecord
100
AcDbDimStyleTableRecord
  2
AM_ISO$3
 70
     0
  4
"
 40
1.5
 41
3.0
 42
1.0
 43
8.0
 44
1.0
 47
0.1
 48
0.1
 73
     0
 77
     1
 78
     8
 79
     2
140
3.5
141
0.0
143
0.0393701
146
0.6
147
1.0
176
   256
177
   256
178
   256
271
     2
272
     2
283
     0
284
     8
288
     1
289
     0
340
11
371
    -1
372
    -1
  0
DIMSTYLE
105
83
330
A
100
AcDbSymbolTableRecord
100
AcDbDimStyleTableRecord
  2
AM_ISO$4
 70
     0
  4
"
 40
1.5
 41
3.0
 42
1.0
 43
8.0
 44
1.0
 47
0.1
 48
0.1
 73
     0
 77
     1
 78
     8
 79
     2
140
3.5
141
0.0
143
0.0393701
146
0.6
147
1.0
176
   256
177
   256
178
   256
271
     2
272
     2
283
     0
284
     8
288
     1
289
     0
340
11
371
    -1
372
    -1
  0
DIMSTYLE
105
84
330
A
100
AcDbSymbolTableRecord
100
AcDbDimStyleTableRecord
  2
AM_ISO$6
 70
     0
  4
"
 40
1.5
 41
3.0
 42
1.0
 43
8.0
 44
1.0
 47
0.1
 48
0.1
 73
     0
 74
     0
 78
     8
 79
     2
140
3.5
141
0.0
143
0.0393701
146
0.6
147
1.0
172
     1
176
   256
177
   256
178
   256
271
     2
272
     2
283
     0
284
     8
340
11
371
    -1
372
    -1
  0
DIMSTYLE
105
85
330
A
100
AcDbSymbolTableRecord
100
AcDbDimStyleTableRecord
  2
AM_ISO$7
 70
     0
  4
"
 40
1.5
 41
3.0
 42
1.0
 43
8.0
 44
1.0
 47
0.1
 48
0.1
 73
     0
 74
     0
 77
     1
 78
     8
 79
     2
140
3.5
141
0.0
143
0.0393701
146
0.6
147
1.0
172
     1
176
   256
177
   256
178
   256
271
     2
272
     2
283
     0
284
     8
340
11
371
    -1
372
    -1
  0
DIMSTYLE
105
86
330
A
100
AcDbSymbolTableRecord
100
AcDbDimStyleTableRecord
  2
AM_ISO$SF
 70
     0
  4
"
 40
1.5
 41
2.5
 42
1.0
 43
10.0
 44
1.0
 47
0.1
 48
0.1
 73
     0
 74
     0
 75
     1
 76
     1
 77
     1
 78
     8
 79
     2
140
3.5
141
0.0
143
0.0393701
146
0.71
147
1.5
172
     1
176
   256
177
   256
178
     2
271
     2
272
     3
274
     4
283
     0
284
     8
340
11
371
    -1
372
    -1
  0
DIMSTYLE
105
8B
330
A
100
AcDbSymbolTableRecord
100
AcDbDimStyleTableRecord
  2
AM_ISO$SH
 70
     0
  4
"
 40
1.5
 41
2.5
 42
1.0
 43
10.0
 44
1.0
 47
0.1
 48
0.1
 73
     0
 74
     0
 75
     1
 76
     1
 77
     1
 78
     8
 79
     2
140
3.5
141
0.0
143
0.0393701
144
2.0
146
0.71
147
1.5
172
     1
173
     1
176
   256
177
   256
178
     2
271
     2
272
     3
274
     4
283
     0
284
     8
340
11
343
87
371
    -1
372
    -1
  0
DIMSTYLE
105
40B
102
{ACAD_REACTORS
330
47BF
330
4799
330
4738
102
}
330
A
100
AcDbSymbolTableRecord
100
AcDbDimStyleTableRecord
  2
AM_ISO$0
 70
     0
  4
"
 40
1.5
 41
3.0
 42
1.0
 43
8.0
 44
1.0
 47
0.1
 48
0.1
 73
     0
 74
     0
 77
     1
 78
     8
 79
     2
140
3.5
141
0.0
143
0.0393701
146
0.6
147
1.0
172
     1
176
   256
177
   256
178
   256
271
     2
272
     2
283
     0
284
     8
340
11
371
    -1
372
    -1
  0
DIMSTYLE
105
3AFD
330
A
100
AcDbSymbolTableRecord
100
AcDbDimStyleTableRecord
  2
AM_ANSI$0
 70
     0
  4
"
 40
0.8
 41
3.0
 42
1.5
 43
6.4
 44
2.0
 47
0.1
 48
0.1
 73
     0
 74
     0
 77
     3
 78
     8
 79
     2
140
3.0
141
0.0
143
0.0393701
146
0.6
147
0.8
172
     1
176
   256
177
   256
178
   256
271
     2
272
     2
284
     8
340
3457
371
    -1
372
    -1
  0
DIMSTYLE
105
3D53
330
A
100
AcDbSymbolTableRecord
100
AcDbDimStyleTableRecord
  2
ISO-25
 70
     0
 41
2.5
 42
0.625
 43
3.75
 44
1.25
 73
     0
 74
     0
 77
     1
 78
     8
140
2.5
141
2.5
143
0.03937007874016
147
0.625
171
     3
172
     1
271
     2
272
     2
274
     3
278
    44
283
     0
284
     8
340
11
  0
ENDTAB
  0
TABLE
  2
BLOCK_RECORD
  5
1
330
0
100
AcDbSymbolTable
 70
    23
  0
BLOCK_RECORD
  5
1F
102
{ACAD_XDICTIONARY
360
8F
102
}
330
1
100
AcDbSymbolTableRecord
100
AcDbBlockTableRecord
  2
*Model_Space
340
22
  0
BLOCK_RECORD
  5
1B
330
1
100
AcDbSymbolTableRecord
100
AcDbBlockTableRecord
  2
*Paper_Space
340
1E
  0
BLOCK_RECORD
  5
23
330
1
100
AcDbSymbolTableRecord
100
AcDbBlockTableRecord
  2
*Paper_Space0
340
26
  0
BLOCK_RECORD
  5
87
330
1
100
AcDbSymbolTableRecord
100
AcDbBlockTableRecord
  2
GENAXEH
340
0
  0
BLOCK_RECORD
  5
3AEA
330
1
100
AcDbSymbolTableRecord
100
AcDbBlockTableRecord
  2
GENDOT
340
0
  0
BLOCK_RECORD
  5
4296
330
1
100
AcDbSymbolTableRecord
100
AcDbBlockTableRecord
  2
*D13
340
0
  0
BLOCK_RECORD
  5
42A2
102
{ACAD_XDICTIONARY
360
42A4
102
}
330
1
100
AcDbSymbolTableRecord
100
AcDbBlockTableRecord
  2
A$C11A73736
340
0
  0
BLOCK_RECORD
  5
4739
330
1
100
AcDbSymbolTableRecord
100
AcDbBlockTableRecord
  2
*D17
340
0
  0
BLOCK_RECORD
  5
479A
330
1
100
AcDbSymbolTableRecord
100
AcDbBlockTableRecord
  2
*D18
340
0
  0
BLOCK_RECORD
  5
47C0
330
1
100
AcDbSymbolTableRecord
100
AcDbBlockTableRecord
  2
*D19
340
0
  0
ENDTAB
  0
ENDSEC
  0
SECTION
  2
BLOCKS
  0
BLOCK
  5
20
330
1F
100
AcDbEntity
  8
0
100
AcDbBlockBegin
  2
*Model_Space
 70
     0
 10
0.0
 20
0.0
 30
0.0
  3
*Model_Space
  1

  0
ENDBLK
  5
21
330
1F
100
AcDbEntity
  8
0
100
AcDbBlockEnd
  0
BLOCK
  5
1C
330
1B
100
AcDbEntity
 67
     1
  8
0
100
AcDbBlockBegin
  2
*Paper_Space
 70
     0
 10
0.0
 20
0.0
 30
0.0
  3
*Paper_Space
  1

  0
ENDBLK
  5
1D
330
1B
100
AcDbEntity
 67
     1
  8
0
100
AcDbBlockEnd
  0
BLOCK
  5
24
330
23
100
AcDbEntity
  8
0
100
AcDbBlockBegin
  2
*Paper_Space0
 70
     0
 10
0.0
 20
0.0
 30
0.0
  3
*Paper_Space0
  1

  0
ENDBLK
  5
25
330
23
100
AcDbEntity
  8
0
100
AcDbBlockEnd
  0
BLOCK
  5
89
330
87
100
AcDbEntity
  8
0
100
AcDbBlockBegin
  2
GENAXEH
 70
     0
 10
0.0
 20
0.0
 30
0.0
  3
GENAXEH
  1

  0
LINE
  5
88
330
87
100
AcDbEntity
  8
0
100
AcDbLine
 10
-1.0
 20
0.0
 30
0.0
 11
1.0
 21
0.0
 31
0.0
  0
ENDBLK
  5
8A
330
87
100
AcDbEntity
  8
0
100
AcDbBlockEnd
  0
BLOCK
  5
3AEB
330
3AEA
100
AcDbEntity
  8
0
100
AcDbBlockBegin
  2
GENDOT
 70
     0
 10
0.0
 20
0.0
 30
0.0
  3
GENDOT
  1

  0
LINE
  5
3AEC
330
3AEA
100
AcDbEntity
  8
0
100
AcDbLine
 10
0.0
 20
0.0
 30
0.0
 11
-1.0
 21
0.0
 31
0.0
  0
LWPOLYLINE
  5
3AED
330
3AEA
100
AcDbEntity
  8
0
100
AcDbPolyline
 90
        2
 70
     1
 43
0.25
 10
-0.125
 20
0.0
 42
1.0
 10
0.125
 20
0.0
 42
1.0
  0
ENDBLK
  5
3AEE
330
3AEA
100
AcDbEntity
  8
0
100
AcDbBlockEnd
  0
BLOCK
  5
4297
330
4296
100
AcDbEntity
  8
0
 62
     6
100
AcDbBlockBegin
  2
*D13
 70
     1
 10
0.0
 20
0.0
 30
0.0
  3
*D13
  1

  0
LINE
  5
4298
330
4296
100
AcDbEntity
  8
AM_5
100
AcDbLine
 10
142.7610165365147
 20
156.2384599547412
 30
0.0
 11
135.1984654333557
 21
156.2384599547412
 31
0.0
  0
LINE
  5
4299
330
4296
100
AcDbEntity
  8
AM_5
100
AcDbLine
 10
142.7610165365147
 20
170.2384599547412
 30
0.0
 11
135.1984654333557
 21
170.2384599547412
 31
0.0
  0
LINE
  5
429A
330
4296
100
AcDbEntity
  8
AM_5
100
AcDbLine
 10
136.1984654333557
 20
159.2384599547412
 30
0.0
 11
136.1984654333557
 21
167.2384599547412
 31
0.0
  0
SOLID
  5
429B
330
4296
100
AcDbEntity
  8
AM_5
100
AcDbTrace
 10
135.6984654333557
 20
159.2384599547412
 30
0.0
 11
136.6984654333557
 21
159.2384599547412
 31
0.0
 12
136.1984654333557
 22
156.2384599547412
 32
0.0
 13
136.1984654333557
 23
156.2384599547412
 33
0.0
  0
SOLID
  5
429C
330
4296
100
AcDbEntity
  8
AM_5
100
AcDbTrace
 10
135.6984654333557
 20
167.2384599547412
 30
0.0
 11
136.6984654333557
 21
167.2384599547412
 31
0.0
 12
136.1984654333557
 22
170.2384599547412
 32
0.0
 13
136.1984654333557
 23
170.2384599547412
 33
0.0
  0
MTEXT
  5
429D
330
4296
100
AcDbEntity
  8
AM_5
100
AcDbMText
 10
133.4484654333557
 20
163.2384599547412
 30
0.0
 40
3.5
 41
0.0
 71
     5
 72
     1
  1
%%c14
 11
0.0000000000000001
 21
1.0
 31
0.0
 73
     1
 44
1.0
1001
ACAD
1000
MTEXTBEGIN
1070
    73
1070
     1
1070
    44
1040
1.0
1070
    74
1070
     0
1000
MTEXTEND
  0
POINT
  5
429E
330
4296
100
AcDbEntity
  8
Defpoints
 62
     0
100
AcDbPoint
 10
143.7610165365147
 20
156.2384599547412
 30
0.0
  0
POINT
  5
429F
330
4296
100
AcDbEntity
  8
Defpoints
 62
     0
100
AcDbPoint
 10
143.7610165365147
 20
170.2384599547412
 30
0.0
  0
POINT
  5
42A0
330
4296
100
AcDbEntity
  8
Defpoints
 62
     0
100
AcDbPoint
 10
136.1984654333557
 20
170.2384599547412
 30
0.0
  0
ENDBLK
  5
42A1
330
4296
100
AcDbEntity
  8
0
 62
     6
100
AcDbBlockEnd
  0
BLOCK
  5
42A5
330
42A2
100
AcDbEntity
  8
0
100
AcDbBlockBegin
  2
A$C11A73736
 70
     0
 10
0.0
 20
0.0
 30
0.0
  3
A$C11A73736
  1

  0
DIMENSION
  5
42A3
330
42A2
100
AcDbEntity
  8
AM_5
100
AcDbDimension
  2
*D13
 10
4.324999834982122
 20
13.99999985764856
 30
0.0
 11
1.574999834982094
 21
6.999999857648589
 31
0.0
 12
-131.8734655983736
 22
-156.2384600970927
 32
0.0
  1
%%c<>
 71
     5
 42
14.0
  3
AM_ISO$0
100
AcDbAlignedDimension
 13
11.88755093814109
 23
-0.0000001423514391
 33
0.0
 14
11.88755093814109
 24
13.99999985764856
 34
0.0
 50
90.0
100
AcDbRotatedDimension
1001
ACAD
1000
DSTYLE
1002
{
1070
    40
1040
1.0
1070
   144
1040
1.0
1002
}
  0
ENDBLK
  5
42A6
330
42A2
100
AcDbEntity
  8
0
100
AcDbBlockEnd
  0
BLOCK
  5
4743
330
4739
100
AcDbEntity
  8
0
100
AcDbBlockBegin
  2
*D17
 70
     1
 10
0.0
 20
0.0
 30
0.0
  3
*D17
  1

  0
LINE
  5
49AA
330
4739
100
AcDbEntity
  8
AM_5
100
AcDbLine
 10
563.8887427793506
 20
325.193206725233
 30
0.0
 11
563.8887427793506
 21
282.3817441264952
 31
0.0
  0
LINE
  5
49AB
330
4739
100
AcDbEntity
  8
AM_5
100
AcDbLine
 10
431.488742779351
 20
312.1932067252334
 30
0.0
 11
431.488742779351
 21
282.3817441264952
 31
0.0
  0
LINE
  5
49AC
330
4739
100
AcDbEntity
  8
AM_5
100
AcDbLine
 10
559.3887427793506
 20
283.8817441264952
 30
0.0
 11
435.988742779351
 21
283.8817441264952
 31
0.0
  0
SOLID
  5
49AD
330
4739
100
AcDbEntity
  8
AM_5
100
AcDbTrace
 10
559.3887427793506
 20
284.6317441264952
 30
0.0
 11
559.3887427793506
 21
283.1317441264951
 31
0.0
 12
563.8887427793506
 22
283.8817441264952
 32
0.0
 13
563.8887427793506
 23
283.8817441264952
 33
0.0
  0
SOLID
  5
49AE
330
4739
100
AcDbEntity
  8
AM_5
100
AcDbTrace
 10
435.988742779351
 20
284.6317441264952
 30
0.0
 11
435.988742779351
 21
283.1317441264951
 31
0.0
 12
431.488742779351
 22
283.8817441264952
 32
0.0
 13
431.488742779351
 23
283.8817441264952
 33
0.0
  0
MTEXT
  5
49AF
330
4739
100
AcDbEntity
  8
AM_5
100
AcDbMText
 10
497.6887427793509
 20
288.0072608587786
 30
0.0
 40
5.25
 41
0.0
 71
     5
 72
     1
  1
132.4
 73
     1
 44
1.0
1001
ACAD
1000
MTEXTBEGIN
1070
    73
1070
     1
1070
    44
1040
1.0
1070
    74
1070
     0
1000
MTEXTEND
  0
POINT
  5
49B0
330
4739
100
AcDbEntity
  8
Defpoints
 62
     0
100
AcDbPoint
 10
563.8887427793506
 20
326.693206725233
 30
0.0
  0
POINT
  5
49B1
330
4739
100
AcDbEntity
  8
Defpoints
 62
     0
100
AcDbPoint
 10
431.488742779351
 20
313.6932067252334
 30
0.0
  0
POINT
  5
49B2
330
4739
100
AcDbEntity
  8
Defpoints
 62
     0
100
AcDbPoint
 10
431.488742779351
 20
283.8817441264952
 30
0.0
  0
ENDBLK
  5
4744
330
4739
100
AcDbEntity
  8
0
100
AcDbBlockEnd
  0
BLOCK
  5
47A4
330
479A
100
AcDbEntity
  8
0
100
AcDbBlockBegin
  2
*D18
 70
     1
 10
0.0
 20
0.0
 30
0.0
  3
*D18
  1

  0
LINE
  5
49B3
330
479A
100
AcDbEntity
  8
AM_5
100
AcDbLine
 10
563.8887427793506
 20
325.193206725233
 30
0.0
 11
563.8887427793506
 21
294.436112757121
 31
0.0
  0
LINE
  5
49B4
330
479A
100
AcDbEntity
  8
AM_5
100
AcDbLine
 10
455.4887427793506
 20
306.193206725233
 30
0.0
 11
455.4887427793506
 21
294.436112757121
 31
0.0
  0
LINE
  5
49B5
330
479A
100
AcDbEntity
  8
AM_5
100
AcDbLine
 10
559.3887427793506
 20
295.936112757121
 30
0.0
 11
459.9887427793506
 21
295.936112757121
 31
0.0
  0
SOLID
  5
49B6
330
479A
100
AcDbEntity
  8
AM_5
100
AcDbTrace
 10
559.3887427793506
 20
296.686112757121
 30
0.0
 11
559.3887427793506
 21
295.186112757121
 31
0.0
 12
563.8887427793506
 22
295.936112757121
 32
0.0
 13
563.8887427793506
 23
295.936112757121
 33
0.0
  0
SOLID
  5
49B7
330
479A
100
AcDbEntity
  8
AM_5
100
AcDbTrace
 10
459.9887427793506
 20
296.686112757121
 30
0.0
 11
459.9887427793506
 21
295.186112757121
 31
0.0
 12
455.4887427793506
 22
295.936112757121
 32
0.0
 13
455.4887427793506
 23
295.936112757121
 33
0.0
  0
MTEXT
  5
49B8
330
479A
100
AcDbEntity
  8
AM_5
100
AcDbMText
 10
507.1887427793507
 20
300.061112757121
 30
0.0
 40
5.25
 41
0.0
 71
     5
 72
     1
  1
108.4
 73
     1
 44
1.0
1001
ACAD
1000
MTEXTBEGIN
1070
    73
1070
     1
1070
    44
1040
1.0
1070
    74
1070
     0
1000
MTEXTEND
  0
POINT
  5
49B9
330
479A
100
AcDbEntity
  8
Defpoints
 62
     0
100
AcDbPoint
 10
563.8887427793506
 20
326.693206725233
 30
0.0
  0
POINT
  5
49BA
330
479A
100
AcDbEntity
  8
Defpoints
 62
     0
100
AcDbPoint
 10
455.4887427793506
 20
307.6932067252331
 30
0.0
  0
POINT
  5
49BB
330
479A
100
AcDbEntity
  8
Defpoints
 62
     0
100
AcDbPoint
 10
455.4887427793506
 20
295.936112757121
 30
0.0
  0
ENDBLK
  5
47A5
330
479A
100
AcDbEntity
  8
0
100
AcDbBlockEnd
  0
BLOCK
  5
47CA
330
47C0
100
AcDbEntity
  8
0
100
AcDbBlockBegin
  2
*D19
 70
     1
 10
0.0
 20
0.0
 30
0.0
  3
*D19
  1

  0
LINE
  5
49D8
330
47C0
100
AcDbEntity
  8
AM_5
100
AcDbLine
 10
448.9887427793505
 20
345.693206725233
 30
0.0
 11
417.7387417793507
 21
345.693206725233
 31
0.0
  0
LINE
  5
49D9
330
47C0
100
AcDbEntity
  8
AM_5
100
AcDbLine
 10
448.9887427793505
 20
307.6932067252331
 30
0.0
 11
417.7387417793507
 21
307.6932067252331
 31
0.0
  0
LINE
  5
49DA
330
47C0
100
AcDbEntity
  8
AM_5
100
AcDbLine
 10
419.2387417793507
 20
341.1932067252331
 30
0.0
 11
419.2387417793507
 21
312.193206725233
 31
0.0
  0
SOLID
  5
49DB
330
47C0
100
AcDbEntity
  8
AM_5
100
AcDbTrace
 10
418.4887417793507
 20
341.1932067252331
 30
0.0
 11
419.9887417793507
 21
341.1932067252331
 31
0.0
 12
419.2387417793507
 22
345.693206725233
 32
0.0
 13
419.2387417793507
 23
345.693206725233
 33
0.0
  0
SOLID
  5
49DC
330
47C0
100
AcDbEntity
  8
AM_5
100
AcDbTrace
 10
418.4887417793507
 20
312.193206725233
 30
0.0
 11
419.9887417793507
 21
312.193206725233
 31
0.0
 12
419.2387417793507
 22
307.6932067252331
 32
0.0
 13
419.2387417793507
 23
307.6932067252331
 33
0.0
  0
MTEXT
  5
49DD
330
47C0
100
AcDbEntity
  8
AM_5
100
AcDbMText
 10
415.1137417793506
 20
326.6932067252331
 30
0.0
 40
5.25
 41
0.0
 71
     5
 72
     1
  1
%%c38
 11
0.0000000000000001
 21
1.0
 31
0.0
 73
     1
 44
1.0
1001
ACAD
1000
MTEXTBEGIN
1070
    73
1070
     1
1070
    44
1040
1.0
1070
    74
1070
     0
1000
MTEXTEND
  0
POINT
  5
49DE
330
47C0
100
AcDbEntity
  8
Defpoints
 62
     0
100
AcDbPoint
 10
450.4887427793506
 20
345.693206725233
 30
0.0
  0
POINT
  5
49DF
330
47C0
100
AcDbEntity
  8
Defpoints
 62
     0
100
AcDbPoint
 10
450.4887427793506
 20
307.6932067252331
 30
0.0
  0
POINT
  5
49E0
330
47C0
100
AcDbEntity
  8
Defpoints
 62
     0
100
AcDbPoint
 10
419.2387417793507
 20
307.6932067252331
 30
0.0
  0
ENDBLK
  5
47CB
330
47C0
100
AcDbEntity
  8
0
100
AcDbBlockEnd
  0
ENDSEC
  0
SECTION
  2
ENTITIES
  0
TEXT
  5
179B
330
1F
100
AcDbEntity
  8
LOGO
 62
     7
100
AcDbText
 10
444.0651350579663
 20
255.2995915957443
 30
0.0
 40
3.023562135746606
  1
Order example:
 41
0.8
  7
CHINESET
100
AcDbText
  0
TEXT
  5
179C
330
1F
100
AcDbEntity
  8
LOGO
 62
     7
100
AcDbText
 10
444.607587108961
 20
259.5561410463471
 30
0.0
 40
4.535343203619909
  1
訂購代號：
  7
CHINESET
100
AcDbText
  0
LINE
  5
179D
330
1F
100
AcDbEntity
  8
LOGO
 62
     4
100
AcDbLine
 10
442.7513870546514
 20
242.5571589878777
 30
0.0
 11
442.7513870546514
 21
265.2338750059775
 31
0.0
  0
TEXT
  5
179E
330
1F
100
AcDbEntity
  8
LOGO
  6
Continuous
100
AcDbText
 10
401.0081901423444
 20
247.0119656274852
 30
0.0
 40
3.401507402714933
  1
金器工業股份有限公司
  7
CHINESET
100
AcDbText
  0
TEXT
  5
179F
330
1F
100
AcDbEntity
  8
LOGO
  6
Continuous
100
AcDbText
 10
394.7602939986101
 20
243.6097917960078
 30
0.0
 40
2.267671601809954
  1
MINDMAN INDUSTRIAL CO., LTD.
 41
0.85
  7
CHINESET
100
AcDbText
  0
LINE
  5
17A0
330
1F
100
AcDbEntity
  8
LOGO
 62
     4
100
AcDbLine
 10
442.7513870546514
 20
260.6985318023575
 30
0.0
 11
409.4922035614384
 21
260.6985318023575
 31
0.0
  0
LINE
  5
17A1
330
1F
100
AcDbEntity
  8
LOGO
 62
     4
100
AcDbLine
 10
442.7513870546514
 20
256.1631885987375
 30
0.0
 11
409.4922035614384
 21
256.1631885987375
 31
0.0
  0
LINE
  5
17A2
330
1F
100
AcDbEntity
  8
LOGO
 62
     4
100
AcDbLine
 10
442.7513870546514
 20
251.6278453951179
 30
0.0
 11
392.8626118148322
 21
251.6278453951179
 31
0.0
  0
LINE
  5
17A3
330
1F
100
AcDbEntity
  8
LOGO
 62
     4
100
AcDbLine
 10
409.4922035614384
 20
251.6278453951179
 30
0.0
 11
409.4922035614384
 21
265.2338750059775
 31
0.0
  0
TEXT
  5
17A4
330
1F
100
AcDbEntity
  8
LOGO
100
AcDbText
 10
432.2232856694998
 20
252.7616811960225
 30
0.0
 40
2.267671601809954
  1
mm
  7
CHINESET
 72
     1
 11
435.0308790812645
 21
253.8955169969275
 31
0.0
100
AcDbText
 73
     2
  0
TEXT
  5
17A5
330
1F
100
AcDbEntity
  8
LOGO
100
AcDbText
 10
431.0354576875993
 20
261.8323676032624
 30
0.0
 40
2.267671601809954
  1
1 : 1
  7
CHINESET
 72
     1
 11
435.0308790812645
 21
262.9662034041674
 31
0.0
100
AcDbText
 73
     2
  0
LINE
  5
17A6
330
1F
100
AcDbEntity
  8
LOGO
 62
     4
100
AcDbLine
 10
427.6335763759182
 20
251.6278453951179
 30
0.0
 11
427.6335763759182
 21
265.2338750059775
 31
0.0
  0
TEXT
  5
17A7
330
1F
100
AcDbEntity
  8
LOGO
100
AcDbText
 10
411.3620202795379
 20
261.8334835833814
 30
148.6194610118964
 40
2.267671601809954
  1
比例 Scale:
 41
0.9
  7
CHINESET
 72
     4
 11
418.5628899686783
 21
262.9662034041674
 31
148.6194610118964
100
AcDbText
  0
TEXT
  5
17A8
330
1F
100
AcDbEntity
  8
LOGO
100
AcDbText
 10
411.2314266917551
 20
257.3289228313772
 30
148.6194610118964
 40
2.267671601809954
  1
投影  View:
 41
0.9
  7
CHINESET
 72
     4
 11
418.5628899686783
 21
258.4308602005474
 31
148.6194610118964
100
AcDbText
  0
TEXT
  5
17A9
330
1F
100
AcDbEntity
  8
LOGO
100
AcDbText
 10
411.4531320849678
 20
252.7616811960225
 30
148.6194610118964
 40
2.267671601809954
  1
單位  Unit:
 41
0.9
  7
CHINESET
 72
     4
 11
418.5628899686783
 21
253.8955169969275
 31
148.6194610118964
100
AcDbText
  0
LWPOLYLINE
  5
17AA
330
1F
100
AcDbEntity
  8
LOGO
 62
     4
100
AcDbPolyline
 90
        4
 70
     1
 43
0.0
 10
392.8626118148324
 20
265.2338750059775
 10
588.0974430145138
 20
265.2338750059775
 10
588.0974430145138
 20
374.9258767152065
 10
392.8626118148324
 20
374.9258767152065
1001
GENIUS_GENREC_14
1002
{
1000
PYDIR
1011
392.8626118148324
1021
374.9258767152065
1031
0.0
1002
}
1002
{
1000
PXDIR
1011
588.0974430145138
1021
265.2338750059775
1031
0.0
1002
}
1002
{
1000
PORI
1011
392.8626118148324
1021
265.2338750059775
1031
0.0
1002
}
1002
{
1000
PINS
1011
392.8626118148324
1021
265.2338750059775
1031
0.0
1002
}
1002
{
1000
PINS2
1011
588.0974430145138
1021
374.9258767152065
1031
0.0
1002
}
1002
{
1000
C
1070
     1
1002
}
1001
GENIUS_GENODEF_13
1002
{
1000
HIER
1070
     0
1002
}
1002
{
1000
MANEDIT
1070
     0
1002
}
1002
{
1000
NOSEL
1070
     0
1002
}
1002
{
1000
BEHIND
1070
     0
1002
}
1002
{
1000
OTHER
1070
     0
1002
}
1002
{
1000
REACTOR
1002
}
1001
GENIUS_GENOBJ-N-REC_13
1002
{
1000
OWNER
1000
GEN
1002
}
  0
SOLID
  5
17AB
330
1F
100
AcDbEntity
  8
LOGO
 62
     5
100
AcDbTrace
 10
395.2153574950712
 20
255.3975266554915
 30
0.0
 11
396.1958391919908
 21
255.3975266554913
 31
0.0
 12
400.2868145481043
 22
264.6951979193863
 32
0.0
 13
401.2672962450245
 23
264.6951979193858
 33
0.0
  0
SOLID
  5
17AC
330
1F
100
AcDbEntity
  8
LOGO
 62
     5
100
AcDbTrace
 10
396.6015557562345
 20
255.3975266554915
 30
0.0
 11
397.5820374531545
 21
255.3975266554915
 31
0.0
 12
401.2672962450245
 22
263.9513842182744
 32
0.0
 13
400.2868145481043
 23
260.3562846629017
 33
0.0
  0
SOLID
  5
17AD
330
1F
100
AcDbEntity
  8
LOGO
 62
     2
100
AcDbTrace
 10
396.1958391919908
 20
255.3975266554913
 30
0.0
 11
396.6015557562345
 21
255.3975266554915
 31
0.0
 12
401.2672962450245
 22
264.6951979193858
 32
0.0
 13
401.6730128092677
 23
264.6951979193858
 33
0.0
  0
SOLID
  5
17AE
330
1F
100
AcDbEntity
  8
LOGO
 62
     5
100
AcDbTrace
 10
393.6434048913438
 20
252.0165552868028
 30
0.0
 11
393.9815020282131
 21
252.0165552868028
 31
0.0
 12
394.933609881014
 22
253.7070409711471
 32
0.0
 13
395.2717070178822
 23
253.7070409711471
 33
0.0
  0
SOLID
  5
17AF
330
1F
100
AcDbEntity
  8
LOGO
 62
     5
100
AcDbTrace
 10
394.933609881014
 20
253.7070409711471
 30
0.0
 11
395.2717070178822
 21
253.7070409711471
 31
0.0
 12
394.933609881014
 22
252.0165552868028
 32
0.0
 13
395.2717070178822
 23
252.0165552868028
 33
0.0
  0
SOLID
  5
17B0
330
1F
100
AcDbEntity
  8
LOGO
 62
     5
100
AcDbTrace
 10
394.933609881014
 20
252.0165552868028
 30
0.0
 11
395.2717070178822
 21
252.0165552868028
 31
0.0
 12
396.2238148706846
 22
253.7070409711471
 32
0.0
 13
396.5619120075534
 23
253.7070409711471
 33
0.0
  0
SOLID
  5
17B1
330
1F
100
AcDbEntity
  8
LOGO
 62
     5
100
AcDbTrace
 10
396.2238148706846
 20
253.7070409711471
 30
0.0
 11
396.5619120075534
 21
253.7070409711471
 31
0.0
 12
396.2238148706846
 22
252.0165552868028
 32
0.0
 13
396.5619120075534
 23
252.0165552868028
 33
0.0
  0
POLYLINE
  5
17B2
330
1F
100
AcDbEntity
  8
LOGO
 62
     5
100
AcDb2dPolyline
 66
     1
 10
0.0
 20
0.0
 30
0.0
 40
0.3386389592036199
 41
0.3386389592036199
  0
VERTEX
  5
17B3
330
17B2
100
AcDbEntity
  8
LOGO
 62
     5
100
AcDbVertex
100
AcDb2dVertex
 10
407.5567157242885
 20
253.0308466974093
 30
0.0
 42
1.0
  0
VERTEX
  5
17B4
330
17B2
100
AcDbEntity
  8
LOGO
 62
     5
100
AcDbVertex
100
AcDb2dVertex
 10
406.5407988466774
 20
253.0308466974093
 30
0.0
 42
1.0
  0
SEQEND
  5
17B5
330
17B2
100
AcDbEntity
  8
LOGO
 62
     5
  0
POLYLINE
  5
17B6
330
1F
100
AcDbEntity
  8
LOGO
 62
     5
100
AcDb2dPolyline
 66
     1
 10
0.0
 20
0.0
 30
0.0
 70
     1
  0
VERTEX
  5
17B7
330
17B6
100
AcDbEntity
  8
LOGO
 62
     5
100
AcDbVertex
100
AcDb2dVertex
 10
404.6257503443976
 20
252.8617981289747
 30
0.0
 42
1.000000057330635
  0
VERTEX
  5
17B8
330
17B6
100
AcDbEntity
  8
LOGO
 62
     5
100
AcDbVertex
100
AcDb2dVertex
 10
405.6400417550045
 20
252.8617981289747
 30
0.0
 42
1.000000057330635
  0
SEQEND
  5
17B9
330
17B6
100
AcDbEntity
  8
LOGO
 62
     5
  0
CIRCLE
  5
17BA
330
1F
100
AcDbEntity
  8
LOGO
 62
     5
100
AcDbCircle
 10
405.1328960497016
 20
252.8617981289747
 30
0.0
 40
0.5071457053033413
  0
POLYLINE
  5
17BB
330
1F
100
AcDbEntity
  8
LOGO
 62
     5
100
AcDb2dPolyline
 66
     1
 10
0.0
 20
0.0
 30
0.0
 70
     1
 40
0.3386389592036199
 41
0.3386389592036199
  0
VERTEX
  5
17BC
330
17BB
100
AcDbEntity
  8
LOGO
 62
     5
100
AcDbVertex
100
AcDb2dVertex
 10
404.455618131294
 20
252.8617981289747
 30
0.0
 42
1.0
  0
VERTEX
  5
17BD
330
17BB
100
AcDbEntity
  8
LOGO
 62
     5
100
AcDbVertex
100
AcDb2dVertex
 10
405.8101739681085
 20
252.8617981289747
 30
0.0
 42
1.0
  0
SEQEND
  5
17BE
330
17BB
100
AcDbEntity
  8
LOGO
 62
     5
  0
LINE
  5
17BF
330
1F
100
AcDbEntity
  8
LOGO
100
AcDbLine
 10
407.7249515592202
 20
252.0165552868028
 30
0.0
 11
407.7249515592202
 21
253.0308466974093
 31
0.0
  0
SOLID
  5
17C0
330
1F
100
AcDbEntity
  8
LOGO
 62
     5
100
AcDbTrace
 10
405.6400079452921
 20
253.7070409711471
 30
0.0
 11
405.9781050821604
 21
253.7070409711471
 31
0.0
 12
405.6400079452921
 22
252.0165552868028
 32
0.0
 13
405.9781050821604
 23
252.0165552868028
 33
0.0
  0
SOLID
  5
17C1
330
1F
100
AcDbEntity
  8
LOGO
 62
     5
100
AcDbTrace
 10
406.3725630117446
 20
252.0165552868028
 30
0.0
 11
406.7106601486139
 21
252.0165552868028
 31
0.0
 12
406.3725630117446
 22
253.7070409711471
 32
0.0
 13
406.7106601486139
 23
253.7070409711471
 33
0.0
  0
SOLID
  5
17C2
330
1F
100
AcDbEntity
  8
LOGO
 62
     5
100
AcDbTrace
 10
407.386854422352
 20
253.0308466974093
 30
0.0
 11
407.7249515592202
 21
253.0308466974093
 31
0.0
 12
407.386854422352
 22
252.0165552868028
 32
0.0
 13
407.7249515592202
 23
252.0165552868028
 33
0.0
  0
SOLID
  5
17C3
330
1F
100
AcDbEntity
  8
LOGO
 62
     5
100
AcDbTrace
 10
406.3387532980577
 20
263.9513842182744
 30
0.0
 11
405.3582716011385
 21
260.3562846629017
 31
0.0
 12
406.3387532980577
 22
255.3975266554913
 32
0.0
 13
405.3582716011385
 23
255.3975266554913
 33
0.0
  0
SOLID
  5
17C4
330
1F
100
AcDbEntity
  8
LOGO
 62
     5
100
AcDbTrace
 10
406.7444698623011
 20
255.3975266554913
 30
0.0
 11
407.7249515592202
 21
255.3975266554913
 31
0.0
 12
406.7444698623011
 22
264.6951979193858
 32
0.0
 13
407.7249515592202
 23
264.6951979193863
 33
0.0
  0
SOLID
  5
17C5
330
1F
100
AcDbEntity
  8
LOGO
 62
     2
100
AcDbTrace
 10
406.3387532980577
 20
264.6951979193863
 30
0.0
 11
406.7444698623011
 21
264.6951979193858
 31
0.0
 12
406.3387532980577
 22
255.3975266554913
 32
0.0
 13
406.7444698623011
 23
255.3975266554913
 33
0.0
  0
POLYLINE
  5
17C6
330
1F
100
AcDbEntity
  8
LOGO
 62
     5
100
AcDb2dPolyline
 66
     1
 10
0.0
 20
0.0
 30
0.0
 40
0.3386389592036199
 41
0.3386389592036199
  0
VERTEX
  5
17C7
330
17C6
100
AcDbEntity
  8
LOGO
 62
     5
100
AcDbVertex
100
AcDb2dVertex
 10
402.7106342226919
 20
253.0308466974093
 30
0.0
 42
1.0
  0
VERTEX
  5
17C8
330
17C6
100
AcDbEntity
  8
LOGO
 62
     5
100
AcDbVertex
100
AcDb2dVertex
 10
401.694717345081
 20
253.0308466974093
 30
0.0
 42
1.0
  0
SEQEND
  5
17C9
330
17C6
100
AcDbEntity
  8
LOGO
 62
     5
  0
POLYLINE
  5
17CA
330
1F
100
AcDbEntity
  8
LOGO
 62
     5
100
AcDb2dPolyline
 66
     1
 10
0.0
 20
0.0
 30
0.0
 40
0.3386389592036199
 41
0.3386389592036199
  0
VERTEX
  5
17CB
330
17CA
100
AcDbEntity
  8
LOGO
 62
     5
100
AcDbVertex
100
AcDb2dVertex
 10
403.7249256332977
 20
253.0308466974093
 30
0.0
 42
1.0
  0
VERTEX
  5
17CC
330
17CA
100
AcDbEntity
  8
LOGO
 62
     5
100
AcDbVertex
100
AcDb2dVertex
 10
402.7090087556871
 20
253.0308466974093
 30
0.0
 42
1.0
  0
SEQEND
  5
17CD
330
17CA
100
AcDbEntity
  8
LOGO
 62
     5
  0
POLYLINE
  5
17CE
330
1F
100
AcDbEntity
  8
LOGO
 62
     5
100
AcDb2dPolyline
 66
     1
 10
0.0
 20
0.0
 30
0.0
 40
0.3386389592036199
 41
0.3386389592036199
  0
VERTEX
  5
17CF
330
17CE
100
AcDbEntity
  8
LOGO
 62
     5
100
AcDbVertex
100
AcDb2dVertex
 10
398.8788441317012
 20
253.0308466974093
 30
0.0
 42
1.0
  0
VERTEX
  5
17D0
330
17CE
100
AcDbEntity
  8
LOGO
 62
     5
100
AcDbVertex
100
AcDb2dVertex
 10
397.8629272540906
 20
253.0308466974093
 30
0.0
 42
1.0
  0
SEQEND
  5
17D1
330
17CE
100
AcDbEntity
  8
LOGO
 62
     5
  0
SOLID
  5
17D2
330
1F
100
AcDbEntity
  8
LOGO
 62
     5
100
AcDbTrace
 10
397.6946914191584
 20
253.7070409711471
 30
0.0
 11
398.0327885560267
 21
253.7070409711471
 31
0.0
 12
397.6946914191584
 22
252.0165552868028
 32
0.0
 13
398.0327885560267
 23
252.0165552868028
 33
0.0
  0
SOLID
  5
17D3
330
1F
100
AcDbEntity
  8
LOGO
 62
     5
100
AcDbTrace
 10
398.7089828297652
 20
253.0308466974093
 30
0.0
 11
399.0470799666344
 21
253.0308466974093
 31
0.0
 12
398.7089828297652
 22
252.0165552868028
 32
0.0
 13
399.0470799666344
 23
252.0165552868028
 33
0.0
  0
POLYLINE
  5
17D4
330
1F
100
AcDbEntity
  8
LOGO
 62
     5
100
AcDb2dPolyline
 66
     1
 10
0.0
 20
0.0
 30
0.0
 70
     1
 40
0.3386389592036199
 41
0.3386389592036199
  0
VERTEX
  5
17D5
330
17D4
100
AcDbEntity
  8
LOGO
 62
     5
100
AcDbVertex
100
AcDb2dVertex
 10
399.609536629697
 20
252.8617981289747
 30
0.0
 42
1.0
  0
VERTEX
  5
17D6
330
17D4
100
AcDbEntity
  8
LOGO
 62
     5
100
AcDbVertex
100
AcDb2dVertex
 10
400.9640924665119
 20
252.8617981289747
 30
0.0
 42
1.0
  0
SEQEND
  5
17D7
330
17D4
100
AcDbEntity
  8
LOGO
 62
     5
  0
SOLID
  5
17D8
330
1F
100
AcDbEntity
  8
LOGO
 62
     5
100
AcDbTrace
 10
400.7939264436947
 20
254.2141866764506
 30
0.0
 11
401.1320235805635
 21
254.2141866764506
 31
0.0
 12
400.7939264436947
 22
252.0165552868028
 32
0.0
 13
401.1320235805635
 23
252.0165552868028
 33
0.0
  0
SOLID
  5
17D9
330
1F
100
AcDbEntity
  8
LOGO
 62
     5
100
AcDbTrace
 10
401.5264815101493
 20
253.7070409711471
 30
0.0
 11
401.8645786470175
 21
253.7070409711471
 31
0.0
 12
401.5264815101493
 22
252.0165552868028
 32
0.0
 13
401.8645786470175
 23
252.0165552868028
 33
0.0
  0
SOLID
  5
17DA
330
1F
100
AcDbEntity
  8
LOGO
 62
     5
100
AcDbTrace
 10
402.5407729207548
 20
253.0308466974093
 30
0.0
 11
402.8788700576241
 21
253.0308466974093
 31
0.0
 12
402.5407729207548
 22
252.0165552868028
 32
0.0
 13
402.8788700576241
 23
252.0165552868028
 33
0.0
  0
SOLID
  5
17DB
330
1F
100
AcDbEntity
  8
LOGO
 62
     5
100
AcDbTrace
 10
403.5550643313618
 20
253.0308466974093
 30
0.0
 11
403.8931614682304
 21
253.0308466974093
 31
0.0
 12
403.5550643313618
 22
252.0165552868022
 32
0.0
 13
403.8931614682304
 23
252.0165552868022
 33
0.0
  0
SOLID
  5
17DC
330
1F
100
AcDbEntity
  8
LOGO
 62
     5
100
AcDbTrace
 10
396.9621363527044
 20
253.9437089669554
 30
0.0
 11
397.3002334895743
 21
253.9437089669554
 31
0.0
 12
396.9621363527044
 22
254.2141866764506
 32
0.0
 13
397.3002334895743
 23
254.2141866764506
 33
0.0
  0
SOLID
  5
17DD
330
1F
100
AcDbEntity
  8
LOGO
 62
     5
100
AcDbTrace
 10
396.9621363527044
 20
253.7070409711471
 30
0.0
 11
397.3002334895743
 21
253.7070409711471
 31
0.0
 12
396.9621363527044
 22
252.0165552868022
 32
0.0
 13
397.3002334895743
 23
252.0165552868028
 33
0.0
  0
SOLID
  5
17DE
330
1F
100
AcDbEntity
  8
LOGO
 62
     5
100
AcDbTrace
 10
400.2868145481043
 20
255.3975266554915
 30
0.0
 11
401.2672962450245
 21
255.3975266554915
 31
0.0
 12
400.2868145481043
 22
260.3562846629017
 32
0.0
 13
401.2672962450245
 23
263.9513842182744
 33
0.0
  0
SOLID
  5
17DF
330
1F
100
AcDbEntity
  8
LOGO
 62
     5
100
AcDbTrace
 10
401.6730128092677
 20
264.6951979193858
 30
0.0
 11
402.653494506187
 21
264.6951979193863
 31
0.0
 12
401.6730128092677
 22
256.141340356603
 32
0.0
 13
402.653494506187
 23
259.7364399119756
 33
0.0
  0
SOLID
  5
17E0
330
1F
100
AcDbEntity
  8
LOGO
 62
     2
100
AcDbTrace
 10
401.2672962450245
 20
264.6951979193858
 30
0.0
 11
401.6730128092677
 21
264.6951979193858
 31
0.0
 12
401.2672962450245
 22
255.3975266554915
 32
0.0
 13
401.6730128092677
 23
255.3975266554915
 33
0.0
  0
SOLID
  5
17E1
330
1F
100
AcDbEntity
  8
LOGO
 62
     5
100
AcDbTrace
 10
401.6730128092677
 20
256.141340356603
 30
0.0
 11
402.653494506187
 21
259.7364399119756
 31
0.0
 12
406.3387532980577
 22
264.6951979193863
 32
0.0
 13
405.3582716011385
 23
264.6951979193863
 33
0.0
  0
SOLID
  5
17E2
330
1F
100
AcDbEntity
  8
LOGO
 62
     5
100
AcDbTrace
 10
401.6730128092677
 20
255.3975266554915
 30
0.0
 11
402.653494506187
 21
255.3975266554915
 31
0.0
 12
406.3387532980577
 22
263.9513842182744
 32
0.0
 13
405.3582716011385
 23
260.3562846629017
 33
0.0
  0
SOLID
  5
17E3
330
1F
100
AcDbEntity
  8
LOGO
 62
     2
100
AcDbTrace
 10
401.2672962450245
 20
255.3975266554915
 30
0.0
 11
401.6730128092677
 21
255.3975266554915
 31
0.0
 12
406.3387532980577
 22
264.6951979193863
 32
0.0
 13
406.7444698623011
 23
264.6951979193858
 33
0.0
  0
LWPOLYLINE
  5
17E4
330
1F
100
AcDbEntity
  8
LOGO
 62
     4
100
AcDbPolyline
 90
        4
 70
     1
 43
0.0
 10
392.8626118148324
 20
265.2338750059775
 10
588.0974430145138
 20
265.2338750059775
 10
588.0974430145138
 20
242.5571589878776
 10
392.8626118148324
 20
242.5571589878776
1001
GENIUS_GENREC_14
1002
{
1000
PYDIR
1011
392.8626118148324
1021
242.5571589878776
1031
0.0
1002
}
1002
{
1000
PXDIR
1011
588.0974430145138
1021
265.2338750059775
1031
0.0
1002
}
1002
{
1000
PORI
1011
392.8626118148324
1021
265.2338750059775
1031
0.0
1002
}
1002
{
1000
PINS
1011
392.8626118148324
1021
265.2338750059775
1031
0.0
1002
}
1002
{
1000
PINS2
1011
588.0974430145138
1021
242.5571589878776
1031
0.0
1002
}
1002
{
1000
C
1070
     1
1002
}
1001
GENIUS_GENOBJ-N-REC_13
1002
{
1000
OWNER
1000
GEN
1002
}
1001
GENIUS_GENODEF_13
1002
{
1000
HIER
1070
     0
1002
}
1002
{
1000
MANEDIT
1070
     0
1002
}
1002
{
1000
NOSEL
1070
     0
1002
}
1002
{
1000
BEHIND
1070
     0
1002
}
1002
{
1000
OTHER
1070
     0
1002
}
1002
{
1000
REACTOR
1002
}
  0
LINE
  5
17E5
330
1F
100
AcDbEntity
  8
LOGO
 62
     4
100
AcDbLine
 10
493.1698948683167
 20
252.761681196023
 30
0.0
 11
493.1698948683167
 21
244.4468853227194
 31
0.0
  0
LINE
  5
17E6
330
1F
100
AcDbEntity
  8
LOGO
 62
     4
100
AcDbLine
 10
478.0520841895835
 20
252.761681196023
 30
0.0
 11
478.0520841895835
 21
244.4468853227194
 31
0.0
  0
LINE
  5
17E7
330
1F
100
AcDbEntity
  8
LOGO
 62
     4
100
AcDbLine
 10
493.1698948683167
 20
244.4468853227194
 30
0.0
 11
478.0520841895835
 21
244.4468853227194
 31
0.0
  0
LINE
  5
17E8
330
1F
100
AcDbEntity
  8
LOGO
 62
     4
100
AcDbLine
 10
498.9595759684499
 20
262.9662034041674
 30
0.0
 11
473.9422034937981
 21
262.9662034041674
 31
0.0
  0
LINE
  5
17E9
330
1F
100
AcDbEntity
  8
LOGO
 62
     4
100
AcDbLine
 10
498.9595759684499
 20
256.1631885987375
 30
0.0
 11
473.9422034937981
 21
256.1631885987375
 31
0.0
  0
LINE
  5
17EA
330
1F
100
AcDbEntity
  8
LOGO
 62
     4
100
AcDbLine
 10
473.9422034937981
 20
262.9662034041674
 30
0.0
 11
473.9422034937981
 21
256.1631885987375
 31
0.0
  0
LINE
  5
17EB
330
1F
100
AcDbEntity
  8
LOGO
 62
     4
100
AcDbLine
 10
498.9595759684499
 20
262.9662034041674
 30
0.0
 11
498.9595759684499
 21
256.1631885987375
 31
0.0
  0
LINE
  5
17EC
330
1F
100
AcDbEntity
  8
LOGO
 62
     4
100
AcDbLine
 10
486.3997595338703
 20
256.1631885987375
 30
0.0
 11
486.3997595338703
 21
252.761681196023
 31
0.0
  0
TEXT
  5
17ED
330
1F
100
AcDbEntity
  8
LOGO
  6
Continuous
100
AcDbText
 10
476.3124942031452
 20
257.5833079933644
 30
0.0
 40
3.779999999999999
  1
MSLE-06
100
AcDbText
  0
LINE
  5
17EE
330
1F
100
AcDbEntity
  8
LOGO
 62
     4
100
AcDbLine
 10
493.1698948683167
 20
252.761681196023
 30
0.0
 11
478.0520841895835
 21
252.761681196023
 31
0.0
  0
TEXT
  5
17EF
330
1F
100
AcDbEntity
  8
LOGO
  6
Continuous
100
AcDbText
 10
482.9033417741288
 20
245.6205011283018
 30
148.6194610118964
 40
1.700999999999999
  1
Model
 41
0.8
  7
CHINESET
100
AcDbText
  0
TEXT
  5
17F0
330
1F
100
AcDbEntity
  8
LOGO
100
AcDbText
 10
482.4505908702378
 20
248.7737885366375
 30
148.6194610118964
 40
2.834999999999999
  1
型號
  7
CHINESET
100
AcDbText
  0
TEXT
  5
1824
330
1F
100
AcDbEntity
  8
LOGO
100
AcDbText
 10
443.6508784151148
 20
243.7635513296846
 30
0.0
 40
2.267999999999999
  1
01205030
 41
0.7
  7
CHINESET
 72
     1
 11
449.3208784151148
 21
243.7635513296846
 31
0.0
100
AcDbText
  0
LINE
  5
1825
330
1F
100
AcDbEntity
  8
LOGO
 62
     4
100
AcDbLine
 10
456.3593870546502
 20
247.0925021914982
 30
0.0
 11
456.3593870546514
 21
242.5571589878781
 31
0.0
  0
LINE
  5
1826
330
1F
100
AcDbEntity
  8
LOGO
 62
     4
100
AcDbLine
 10
456.3593870546502
 20
247.0925021914982
 30
0.0
 11
442.7513870546514
 21
247.0925021914982
 31
0.0
  0
CIRCLE
  5
1827
330
1F
100
AcDbEntity
  8
LOGO
  6
Continuous
100
AcDbCircle
 10
431.8324539825495
 20
258.4357107666983
 30
0.0
 40
1.316663506983595
  0
CIRCLE
  5
1828
330
1F
100
AcDbEntity
  8
LOGO
  6
Continuous
100
AcDbCircle
 10
431.8324539825495
 20
258.4357107666983
 30
0.0
 40
0.7714482574667873
  0
LINE
  5
1829
330
1F
100
AcDbEntity
  8
LOGO
100
AcDbLine
 10
440.1065202396069
 20
257.1190472597145
 30
0.0
 11
440.1065202396069
 21
259.7523742736822
 31
0.0
  0
LINE
  5
182A
330
1F
100
AcDbEntity
  8
LOGO
100
AcDbLine
 10
435.978855725305
 20
257.6642625092317
 30
0.0
 11
435.978855725305
 21
259.2071590241651
 31
0.0
  0
LINE
  5
182B
330
1F
100
AcDbEntity
  8
LOGO
  6
Continuous
100
AcDbLine
 10
435.978855725305
 20
259.2071590241651
 30
0.0
 11
440.1065202396069
 21
259.7523742736822
 31
0.0
  0
LINE
  5
182C
330
1F
100
AcDbEntity
  8
LOGO
  6
Continuous
100
AcDbLine
 10
435.978855725305
 20
257.6642625092317
 30
0.0
 11
440.1065202396069
 21
257.1190472597145
 31
0.0
  0
LINE
  5
182D
330
1F
100
AcDbEntity
  8
LOGO
  6
AM_ISO08W050x2
 48
0.3
100
AcDbLine
 10
430.017413622689
 20
258.4357107666983
 30
0.0
 11
433.6474943424099
 21
258.4357107666983
 31
0.0
1001
GENIUS_GENOREF_13
1005
1832
  0
LINE
  5
182E
330
1F
100
AcDbEntity
  8
LOGO
  6
AM_ISO08W050x2
 48
0.3
100
AcDbLine
 10
431.8324539825495
 20
256.6206704068378
 30
0.0
 11
431.8324539825495
 21
260.2507511265587
 31
0.0
1001
GENIUS_GENOREF_13
1005
1831
  0
LINE
  5
182F
330
1F
100
AcDbEntity
  8
LOGO
  6
CENTER
 48
0.5
100
AcDbLine
 10
435.6487572920594
 20
258.4357107666983
 30
0.0
 11
440.5221626942581
 21
258.4357107666983
 31
0.0
1001
GENIUS_GENOREF_13
1005
1830
  0
POINT
  5
1830
330
1F
100
AcDbEntity
  8
0
 60
     1
100
AcDbPoint
 10
-1582.868394589036
 20
-798.6687030228181
 30
0.0
1001
GENIUS_GENOBJ-N-CRS_13
1002
{
1000
OWNER
1000
GEN
1002
}
1001
GENIUS_GENOLIS_13
1002
{
1000
ENT
1005
0
1005
0
1005
0
1005
182F
1002
}
1001
GENIUS_GENOENT_13
1002
{
1000
MYREF
1005
1830
1002
}
1002
{
1000
GRP
1005
0
1002
}
1001
GENIUS_GENODEF_13
1002
{
1000
HIER
1070
    10
1002
}
1002
{
1000
MANEDIT
1070
     1
1002
}
1002
{
1000
NOSEL
1070
     0
1002
}
1002
{
1000
BEHIND
1070
     0
1002
}
1002
{
1000
OTHER
1070
     0
1002
}
1002
{
1000
REACTOR
1002
}
  0
POINT
  5
1831
330
1F
100
AcDbEntity
  8
0
 60
     1
100
AcDbPoint
 10
-1594.19297981189
 20
-789.7931165441819
 30
0.0
1001
GENIUS_GENOBJ-N-CRS_13
1002
{
1000
OWNER
1000
GEN
1002
}
1001
GENIUS_GENOLIS_13
1002
{
1000
ENT
1005
0
1005
0
1005
0
1005
182E
1002
}
1001
GENIUS_GENOENT_13
1002
{
1000
MYREF
1005
1831
1002
}
1002
{
1000
GRP
1005
0
1002
}
1001
GENIUS_GENODEF_13
1002
{
1000
HIER
1070
    10
1002
}
1002
{
1000
MANEDIT
1070
     1
1002
}
1002
{
1000
NOSEL
1070
     0
1002
}
1002
{
1000
BEHIND
1070
     0
1002
}
1002
{
1000
OTHER
1070
     0
1002
}
1002
{
1000
REACTOR
1002
}
  0
POINT
  5
1832
330
1F
100
AcDbEntity
  8
0
 60
     1
100
AcDbPoint
 10
-1587.834306114053
 20
-798.6687030228181
 30
0.0
1001
GENIUS_GENOBJ-N-CRS_13
1002
{
1000
OWNER
1000
GEN
1002
}
1001
GENIUS_GENOLIS_13
1002
{
1000
ENT
1005
0
1005
0
1005
0
1005
182D
1002
}
1001
GENIUS_GENOENT_13
1002
{
1000
MYREF
1005
1832
1002
}
1002
{
1000
GRP
1005
0
1002
}
1001
GENIUS_GENODEF_13
1002
{
1000
HIER
1070
    10
1002
}
1002
{
1000
MANEDIT
1070
     1
1002
}
1002
{
1000
NOSEL
1070
     0
1002
}
1002
{
1000
BEHIND
1070
     0
1002
}
1002
{
1000
OTHER
1070
     0
1002
}
1002
{
1000
REACTOR
1002
}
  0
ARC
  5
4495
330
1F
100
AcDbEntity
  8
0
  6
Continuous
 62
     7
370
    15
100
AcDbCircle
 10
544.8887427793506
 20
326.693206725233
 30
0.0
 40
19.0
100
AcDbArc
 50
270.0
 51
89.99999999999998
  0
SPLINE
  5
4496
330
1F
100
AcDbEntity
  8
0
  6
Continuous
 62
     7
370
    15
100
AcDbSpline
210
0.0
220
0.0
230
1.0
 70
    24
 71
     1
 72
     4
 73
     2
 74
     0
 42
0.0000000001
 43
0.0000000001
 40
0.0
 40
0.0
 40
1.0
 40
1.0
 10
450.4887427793506
 20
307.6932067252331
 30
0.0
 10
544.8887427793506
 20
307.6932067252331
 30
0.0
  0
SPLINE
  5
4497
330
1F
100
AcDbEntity
  8
0
  6
Continuous
 62
     7
370
    15
100
AcDbSpline
210
0.0
220
0.0
230
1.0
 70
    24
 71
     1
 72
     4
 73
     2
 74
     0
 42
0.0000000001
 43
0.0000000001
 40
0.0
 40
0.0
 40
1.0
 40
1.0
 10
544.8887427793506
 20
345.693206725233
 30
0.0
 10
450.4887427793506
 20
345.693206725233
 30
0.0
  0
SPLINE
  5
449A
330
1F
100
AcDbEntity
  8
0
  6
Continuous
 62
     7
370
    15
100
AcDbSpline
210
0.0
220
0.0
230
1.0
 70
    24
 71
     1
 72
     4
 73
     2
 74
     0
 42
0.0000000001
 43
0.0000000001
 40
0.0
 40
0.0
 40
1.0
 40
1.0
 10
433.488742779351
 20
339.6932067252329
 30
0.0
 10
433.238742779351
 20
339.2601940233407
 30
0.0
  0
SPLINE
  5
449B
330
1F
100
AcDbEntity
  8
0
  6
Continuous
 62
     7
370
    15
100
AcDbSpline
210
0.0
220
0.0
230
1.0
 70
    24
 71
     1
 72
     4
 73
     2
 74
     0
 42
0.0000000001
 43
0.0000000001
 40
0.0
 40
0.0
 40
1.0
 40
1.0
 10
433.238742779351
 20
314.1262194271257
 30
0.0
 10
433.488742779351
 20
313.6932067252334
 30
0.0
  0
SPLINE
  5
449C
330
1F
100
AcDbEntity
  8
0
  6
Continuous
 62
     7
370
    15
100
AcDbSpline
210
0.0
220
0.0
230
1.0
 70
    24
 71
     1
 72
     4
 73
     2
 74
     0
 42
0.0000000001
 43
0.0000000001
 40
0.0
 40
0.0
 40
1.0
 40
1.0
 10
433.488742779351
 20
313.6932067252334
 30
0.0
 10
434.2387427793509
 20
314.1262194271257
 30
0.0
  0
SPLINE
  5
449D
330
1F
100
AcDbEntity
  8
0
  6
Continuous
 62
     7
370
    15
100
AcDbSpline
210
0.0
220
0.0
230
1.0
 70
    24
 71
     1
 72
     4
 73
     2
 74
     0
 42
0.0000000001
 43
0.0000000001
 40
0.0
 40
0.0
 40
1.0
 40
1.0
 10
434.2387427793509
 20
339.2601940233408
 30
0.0
 10
433.488742779351
 20
339.6932067252329
 30
0.0
  0
SPLINE
  5
449E
330
1F
100
AcDbEntity
  8
0
  6
Continuous
 62
     7
370
    15
100
AcDbSpline
210
0.0
220
0.0
230
1.0
 70
    24
 71
     1
 72
     4
 73
     2
 74
     0
 42
0.0000000001
 43
0.0000000001
 40
0.0
 40
0.0
 40
1.0
 40
1.0
 10
432.4887427793509
 20
313.6932067252334
 30
0.0
 10
433.238742779351
 20
314.1262194271257
 30
0.0
  0
SPLINE
  5
449F
330
1F
100
AcDbEntity
  8
0
  6
Continuous
 62
     7
370
    15
100
AcDbSpline
210
0.0
220
0.0
230
1.0
 70
    24
 71
     1
 72
     4
 73
     2
 74
     0
 42
0.0000000001
 43
0.0000000001
 40
0.0
 40
0.0
 40
1.0
 40
1.0
 10
433.238742779351
 20
339.2601940233407
 30
0.0
 10
432.4887427793509
 20
339.6932067252329
 30
0.0
  0
SPLINE
  5
44A0
330
1F
100
AcDbEntity
  8
0
  6
Continuous
 62
     7
370
    15
100
AcDbSpline
210
0.0
220
0.0
230
1.0
 70
    24
 71
     1
 72
     4
 73
     2
 74
     0
 42
0.0000000001
 43
0.0000000001
 40
0.0
 40
0.0
 40
1.0
 40
1.0
 10
432.4887427793509
 20
339.6932067252329
 30
0.0
 10
432.2387427793509
 20
339.2601940233408
 30
0.0
  0
SPLINE
  5
44A1
330
1F
100
AcDbEntity
  8
0
  6
Continuous
 62
     7
370
    15
100
AcDbSpline
210
0.0
220
0.0
230
1.0
 70
    24
 71
     1
 72
     4
 73
     2
 74
     0
 42
0.0000000001
 43
0.0000000001
 40
0.0
 40
0.0
 40
1.0
 40
1.0
 10
432.2387427793509
 20
314.1262194271257
 30
0.0
 10
432.4887427793509
 20
313.6932067252334
 30
0.0
  0
SPLINE
  5
44A2
330
1F
100
AcDbEntity
  8
0
  6
Continuous
 62
     7
370
    15
100
AcDbSpline
210
0.0
220
0.0
230
1.0
 70
    24
 71
     1
 72
     4
 73
     2
 74
     0
 42
0.0000000001
 43
0.0000000001
 40
0.0
 40
0.0
 40
1.0
 40
1.0
 10
431.4887427793509
 20
313.6932067252334
 30
0.0
 10
432.2387427793509
 20
314.1262194271257
 30
0.0
  0
SPLINE
  5
44A3
330
1F
100
AcDbEntity
  8
0
  6
Continuous
 62
     7
370
    15
100
AcDbSpline
210
0.0
220
0.0
230
1.0
 70
    24
 71
     1
 72
     4
 73
     2
 74
     0
 42
0.0000000001
 43
0.0000000001
 40
0.0
 40
0.0
 40
1.0
 40
1.0
 10
432.2387427793509
 20
339.2601940233408
 30
0.0
 10
431.4887427793509
 20
339.6932067252329
 30
0.0
  0
SPLINE
  5
44A4
330
1F
100
AcDbEntity
  8
0
  6
Continuous
 62
     7
370
    15
100
AcDbSpline
210
0.0
220
0.0
230
1.0
 70
    24
 71
     1
 72
     4
 73
     2
 74
     0
 42
0.0000000001
 43
0.0000000001
 40
0.0
 40
0.0
 40
1.0
 40
1.0
 10
435.4887427793508
 20
339.6932067252327
 30
0.0
 10
435.2387427793508
 20
339.2601940233404
 30
0.0
  0
SPLINE
  5
44A5
330
1F
100
AcDbEntity
  8
0
  6
Continuous
 62
     7
370
    15
100
AcDbSpline
210
0.0
220
0.0
230
1.0
 70
    24
 71
     1
 72
     4
 73
     2
 74
     0
 42
0.0000000001
 43
0.0000000001
 40
0.0
 40
0.0
 40
1.0
 40
1.0
 10
435.2387427793508
 20
314.1262194271259
 30
0.0
 10
435.4887427793508
 20
313.6932067252336
 30
0.0
  0
SPLINE
  5
44A6
330
1F
100
AcDbEntity
  8
0
  6
Continuous
 62
     7
370
    15
100
AcDbSpline
210
0.0
220
0.0
230
1.0
 70
    24
 71
     1
 72
     4
 73
     2
 74
     0
 42
0.0000000001
 43
0.0000000001
 40
0.0
 40
0.0
 40
1.0
 40
1.0
 10
435.4887427793508
 20
313.6932067252336
 30
0.0
 10
436.2387427793508
 20
314.1262194271259
 30
0.0
  0
SPLINE
  5
44A7
330
1F
100
AcDbEntity
  8
0
  6
Continuous
 62
     7
370
    15
100
AcDbSpline
210
0.0
220
0.0
230
1.0
 70
    24
 71
     1
 72
     4
 73
     2
 74
     0
 42
0.0000000001
 43
0.0000000001
 40
0.0
 40
0.0
 40
1.0
 40
1.0
 10
436.2387427793508
 20
339.2601940233405
 30
0.0
 10
435.4887427793508
 20
339.6932067252327
 30
0.0
  0
SPLINE
  5
44A8
330
1F
100
AcDbEntity
  8
0
  6
Continuous
 62
     7
370
    15
100
AcDbSpline
210
0.0
220
0.0
230
1.0
 70
    24
 71
     1
 72
     4
 73
     2
 74
     0
 42
0.0000000001
 43
0.0000000001
 40
0.0
 40
0.0
 40
1.0
 40
1.0
 10
434.4887427793508
 20
339.6932067252327
 30
0.0
 10
434.2387427793509
 20
339.2601940233408
 30
0.0
  0
SPLINE
  5
44A9
330
1F
100
AcDbEntity
  8
0
  6
Continuous
 62
     7
370
    15
100
AcDbSpline
210
0.0
220
0.0
230
1.0
 70
    24
 71
     1
 72
     4
 73
     2
 74
     0
 42
0.0000000001
 43
0.0000000001
 40
0.0
 40
0.0
 40
1.0
 40
1.0
 10
434.2387427793509
 20
314.1262194271257
 30
0.0
 10
434.4887427793508
 20
313.6932067252336
 30
0.0
  0
SPLINE
  5
44AA
330
1F
100
AcDbEntity
  8
0
  6
Continuous
 62
     7
370
    15
100
AcDbSpline
210
0.0
220
0.0
230
1.0
 70
    24
 71
     1
 72
     4
 73
     2
 74
     0
 42
0.0000000001
 43
0.0000000001
 40
0.0
 40
0.0
 40
1.0
 40
1.0
 10
434.4887427793508
 20
313.6932067252336
 30
0.0
 10
435.2387427793508
 20
314.1262194271259
 30
0.0
  0
SPLINE
  5
44AB
330
1F
100
AcDbEntity
  8
0
  6
Continuous
 62
     7
370
    15
100
AcDbSpline
210
0.0
220
0.0
230
1.0
 70
    24
 71
     1
 72
     4
 73
     2
 74
     0
 42
0.0000000001
 43
0.0000000001
 40
0.0
 40
0.0
 40
1.0
 40
1.0
 10
435.2387427793508
 20
339.2601940233404
 30
0.0
 10
434.4887427793508
 20
339.6932067252327
 30
0.0
  0
SPLINE
  5
44AC
330
1F
100
AcDbEntity
  8
0
  6
Continuous
 62
     7
370
    15
100
AcDbSpline
210
0.0
220
0.0
230
1.0
 70
    24
 71
     1
 72
     4
 73
     2
 74
     0
 42
0.0000000001
 43
0.0000000001
 40
0.0
 40
0.0
 40
1.0
 40
1.0
 10
436.4887427793505
 20
313.6932067252339
 30
0.0
 10
437.2387427793506
 20
314.126219427126
 30
0.0
  0
SPLINE
  5
44AD
330
1F
100
AcDbEntity
  8
0
  6
Continuous
 62
     7
370
    15
100
AcDbSpline
210
0.0
220
0.0
230
1.0
 70
    24
 71
     1
 72
     4
 73
     2
 74
     0
 42
0.0000000001
 43
0.0000000001
 40
0.0
 40
0.0
 40
1.0
 40
1.0
 10
437.2387427793506
 20
339.2601940233403
 30
0.0
 10
436.4887427793505
 20
339.6932067252325
 30
0.0
  0
SPLINE
  5
44AE
330
1F
100
AcDbEntity
  8
0
  6
Continuous
 62
     7
370
    15
100
AcDbSpline
210
0.0
220
0.0
230
1.0
 70
    24
 71
     1
 72
     4
 73
     2
 74
     0
 42
0.0000000001
 43
0.0000000001
 40
0.0
 40
0.0
 40
1.0
 40
1.0
 10
436.4887427793505
 20
339.6932067252325
 30
0.0
 10
436.2387427793508
 20
339.2601940233405
 30
0.0
  0
SPLINE
  5
44AF
330
1F
100
AcDbEntity
  8
0
  6
Continuous
 62
     7
370
    15
100
AcDbSpline
210
0.0
220
0.0
230
1.0
 70
    24
 71
     1
 72
     4
 73
     2
 74
     0
 42
0.0000000001
 43
0.0000000001
 40
0.0
 40
0.0
 40
1.0
 40
1.0
 10
436.2387427793508
 20
314.1262194271259
 30
0.0
 10
436.4887427793505
 20
313.6932067252339
 30
0.0
  0
SPLINE
  5
44B0
330
1F
100
AcDbEntity
  8
0
  6
Continuous
 62
     7
370
    15
100
AcDbSpline
210
0.0
220
0.0
230
1.0
 70
    24
 71
     1
 72
     4
 73
     2
 74
     0
 42
0.0000000001
 43
0.0000000001
 40
0.0
 40
0.0
 40
1.0
 40
1.0
 10
438.4887427793506
 20
313.6932067252339
 30
0.0
 10
439.2387427793503
 20
314.1262194271263
 30
0.0
  0
SPLINE
  5
44B1
330
1F
100
AcDbEntity
  8
0
  6
Continuous
 62
     7
370
    15
100
AcDbSpline
210
0.0
220
0.0
230
1.0
 70
    24
 71
     1
 72
     4
 73
     2
 74
     0
 42
0.0000000001
 43
0.0000000001
 40
0.0
 40
0.0
 40
1.0
 40
1.0
 10
439.2387427793503
 20
339.2601940233401
 30
0.0
 10
438.4887427793506
 20
339.6932067252324
 30
0.0
  0
SPLINE
  5
44B2
330
1F
100
AcDbEntity
  8
0
  6
Continuous
 62
     7
370
    15
100
AcDbSpline
210
0.0
220
0.0
230
1.0
 70
    24
 71
     1
 72
     4
 73
     2
 74
     0
 42
0.0000000001
 43
0.0000000001
 40
0.0
 40
0.0
 40
1.0
 40
1.0
 10
438.4887427793506
 20
339.6932067252324
 30
0.0
 10
438.2387427793505
 20
339.2601940233403
 30
0.0
  0
SPLINE
  5
44B3
330
1F
100
AcDbEntity
  8
0
  6
Continuous
 62
     7
370
    15
100
AcDbSpline
210
0.0
220
0.0
230
1.0
 70
    24
 71
     1
 72
     4
 73
     2
 74
     0
 42
0.0000000001
 43
0.0000000001
 40
0.0
 40
0.0
 40
1.0
 40
1.0
 10
438.2387427793505
 20
314.1262194271261
 30
0.0
 10
438.4887427793506
 20
313.6932067252339
 30
0.0
  0
SPLINE
  5
44B4
330
1F
100
AcDbEntity
  8
0
  6
Continuous
 62
     7
370
    15
100
AcDbSpline
210
0.0
220
0.0
230
1.0
 70
    24
 71
     1
 72
     4
 73
     2
 74
     0
 42
0.0000000001
 43
0.0000000001
 40
0.0
 40
0.0
 40
1.0
 40
1.0
 10
437.4887427793506
 20
313.6932067252341
 30
0.0
 10
438.2387427793505
 20
314.1262194271261
 30
0.0
  0
SPLINE
  5
44B5
330
1F
100
AcDbEntity
  8
0
  6
Continuous
 62
     7
370
    15
100
AcDbSpline
210
0.0
220
0.0
230
1.0
 70
    24
 71
     1
 72
     4
 73
     2
 74
     0
 42
0.0000000001
 43
0.0000000001
 40
0.0
 40
0.0
 40
1.0
 40
1.0
 10
438.2387427793505
 20
339.2601940233403
 30
0.0
 10
437.4887427793506
 20
339.6932067252324
 30
0.0
  0
SPLINE
  5
44B6
330
1F
100
AcDbEntity
  8
0
  6
Continuous
 62
     7
370
    15
100
AcDbSpline
210
0.0
220
0.0
230
1.0
 70
    24
 71
     1
 72
     4
 73
     2
 74
     0
 42
0.0000000001
 43
0.0000000001
 40
0.0
 40
0.0
 40
1.0
 40
1.0
 10
437.4887427793506
 20
339.6932067252324
 30
0.0
 10
437.2387427793506
 20
339.2601940233403
 30
0.0
  0
SPLINE
  5
44B7
330
1F
100
AcDbEntity
  8
0
  6
Continuous
 62
     7
370
    15
100
AcDbSpline
210
0.0
220
0.0
230
1.0
 70
    24
 71
     1
 72
     4
 73
     2
 74
     0
 42
0.0000000001
 43
0.0000000001
 40
0.0
 40
0.0
 40
1.0
 40
1.0
 10
437.2387427793506
 20
314.126219427126
 30
0.0
 10
437.4887427793506
 20
313.6932067252341
 30
0.0
  0
SPLINE
  5
44B8
330
1F
100
AcDbEntity
  8
0
  6
Continuous
 62
     7
370
    15
100
AcDbSpline
210
0.0
220
0.0
230
1.0
 70
    24
 71
     1
 72
     4
 73
     2
 74
     0
 42
0.0000000001
 43
0.0000000001
 40
0.0
 40
0.0
 40
1.0
 40
1.0
 10
439.4887427793504
 20
313.6932067252342
 30
0.0
 10
440.2387427793503
 20
314.1262194271263
 30
0.0
  0
SPLINE
  5
44B9
330
1F
100
AcDbEntity
  8
0
  6
Continuous
 62
     7
370
    15
100
AcDbSpline
210
0.0
220
0.0
230
1.0
 70
    24
 71
     1
 72
     4
 73
     2
 74
     0
 42
0.0000000001
 43
0.0000000001
 40
0.0
 40
0.0
 40
1.0
 40
1.0
 10
440.2387427793503
 20
339.26019402334
 30
0.0
 10
439.4887427793504
 20
339.6932067252321
 30
0.0
  0
SPLINE
  5
44BA
330
1F
100
AcDbEntity
  8
0
  6
Continuous
 62
     7
370
    15
100
AcDbSpline
210
0.0
220
0.0
230
1.0
 70
    24
 71
     1
 72
     4
 73
     2
 74
     0
 42
0.0000000001
 43
0.0000000001
 40
0.0
 40
0.0
 40
1.0
 40
1.0
 10
439.4887427793504
 20
339.6932067252321
 30
0.0
 10
439.2387427793503
 20
339.2601940233401
 30
0.0
  0
SPLINE
  5
44BB
330
1F
100
AcDbEntity
  8
0
  6
Continuous
 62
     7
370
    15
100
AcDbSpline
210
0.0
220
0.0
230
1.0
 70
    24
 71
     1
 72
     4
 73
     2
 74
     0
 42
0.0000000001
 43
0.0000000001
 40
0.0
 40
0.0
 40
1.0
 40
1.0
 10
439.2387427793503
 20
314.1262194271263
 30
0.0
 10
439.4887427793504
 20
313.6932067252342
 30
0.0
  0
SPLINE
  5
44BC
330
1F
100
AcDbEntity
  8
0
  6
Continuous
 62
     7
370
    15
100
AcDbSpline
210
0.0
220
0.0
230
1.0
 70
    24
 71
     1
 72
     4
 73
     2
 74
     0
 42
0.0000000001
 43
0.0000000001
 40
0.0
 40
0.0
 40
1.0
 40
1.0
 10
442.4887427793503
 20
313.6932067252343
 30
0.0
 10
443.2387427793504
 20
314.1262194271265
 30
0.0
  0
SPLINE
  5
44BD
330
1F
100
AcDbEntity
  8
0
  6
Continuous
 62
     7
370
    15
100
AcDbSpline
210
0.0
220
0.0
230
1.0
 70
    24
 71
     1
 72
     4
 73
     2
 74
     0
 42
0.0000000001
 43
0.0000000001
 40
0.0
 40
0.0
 40
1.0
 40
1.0
 10
443.2387427793504
 20
339.2601940233399
 30
0.0
 10
442.4887427793503
 20
339.6932067252321
 30
0.0
  0
SPLINE
  5
44BE
330
1F
100
AcDbEntity
  8
0
  6
Continuous
 62
     7
370
    15
100
AcDbSpline
210
0.0
220
0.0
230
1.0
 70
    24
 71
     1
 72
     4
 73
     2
 74
     0
 42
0.0000000001
 43
0.0000000001
 40
0.0
 40
0.0
 40
1.0
 40
1.0
 10
442.4887427793503
 20
339.6932067252321
 30
0.0
 10
442.2387427793501
 20
339.2601940233399
 30
0.0
  0
SPLINE
  5
44BF
330
1F
100
AcDbEntity
  8
0
  6
Continuous
 62
     7
370
    15
100
AcDbSpline
210
0.0
220
0.0
230
1.0
 70
    24
 71
     1
 72
     4
 73
     2
 74
     0
 42
0.0000000001
 43
0.0000000001
 40
0.0
 40
0.0
 40
1.0
 40
1.0
 10
442.2387427793501
 20
314.1262194271265
 30
0.0
 10
442.4887427793503
 20
313.6932067252343
 30
0.0
  0
SPLINE
  5
44C0
330
1F
100
AcDbEntity
  8
0
  6
Continuous
 62
     7
370
    15
100
AcDbSpline
210
0.0
220
0.0
230
1.0
 70
    24
 71
     1
 72
     4
 73
     2
 74
     0
 42
0.0000000001
 43
0.0000000001
 40
0.0
 40
0.0
 40
1.0
 40
1.0
 10
440.4887427793504
 20
313.6932067252343
 30
0.0
 10
441.2387427793503
 20
314.1262194271265
 30
0.0
  0
SPLINE
  5
44C1
330
1F
100
AcDbEntity
  8
0
  6
Continuous
 62
     7
370
    15
100
AcDbSpline
210
0.0
220
0.0
230
1.0
 70
    24
 71
     1
 72
     4
 73
     2
 74
     0
 42
0.0000000001
 43
0.0000000001
 40
0.0
 40
0.0
 40
1.0
 40
1.0
 10
441.2387427793503
 20
339.2601940233399
 30
0.0
 10
440.4887427793504
 20
339.6932067252321
 30
0.0
  0
SPLINE
  5
44C2
330
1F
100
AcDbEntity
  8
0
  6
Continuous
 62
     7
370
    15
100
AcDbSpline
210
0.0
220
0.0
230
1.0
 70
    24
 71
     1
 72
     4
 73
     2
 74
     0
 42
0.0000000001
 43
0.0000000001
 40
0.0
 40
0.0
 40
1.0
 40
1.0
 10
440.4887427793504
 20
339.6932067252321
 30
0.0
 10
440.2387427793503
 20
339.26019402334
 30
0.0
  0
SPLINE
  5
44C3
330
1F
100
AcDbEntity
  8
0
  6
Continuous
 62
     7
370
    15
100
AcDbSpline
210
0.0
220
0.0
230
1.0
 70
    24
 71
     1
 72
     4
 73
     2
 74
     0
 42
0.0000000001
 43
0.0000000001
 40
0.0
 40
0.0
 40
1.0
 40
1.0
 10
440.2387427793503
 20
314.1262194271263
 30
0.0
 10
440.4887427793504
 20
313.6932067252343
 30
0.0
  0
SPLINE
  5
44C4
330
1F
100
AcDbEntity
  8
0
  6
Continuous
 62
     7
370
    15
100
AcDbSpline
210
0.0
220
0.0
230
1.0
 70
    24
 71
     1
 72
     4
 73
     2
 74
     0
 42
0.0000000001
 43
0.0000000001
 40
0.0
 40
0.0
 40
1.0
 40
1.0
 10
441.4887427793503
 20
339.693206725232
 30
0.0
 10
441.2387427793503
 20
339.2601940233399
 30
0.0
  0
SPLINE
  5
44C5
330
1F
100
AcDbEntity
  8
0
  6
Continuous
 62
     7
370
    15
100
AcDbSpline
210
0.0
220
0.0
230
1.0
 70
    24
 71
     1
 72
     4
 73
     2
 74
     0
 42
0.0000000001
 43
0.0000000001
 40
0.0
 40
0.0
 40
1.0
 40
1.0
 10
441.2387427793503
 20
314.1262194271265
 30
0.0
 10
441.4887427793503
 20
313.6932067252344
 30
0.0
  0
SPLINE
  5
44C6
330
1F
100
AcDbEntity
  8
0
  6
Continuous
 62
     7
370
    15
100
AcDbSpline
210
0.0
220
0.0
230
1.0
 70
    24
 71
     1
 72
     4
 73
     2
 74
     0
 42
0.0000000001
 43
0.0000000001
 40
0.0
 40
0.0
 40
1.0
 40
1.0
 10
441.4887427793503
 20
313.6932067252344
 30
0.0
 10
442.2387427793501
 20
314.1262194271265
 30
0.0
  0
SPLINE
  5
44C7
330
1F
100
AcDbEntity
  8
0
  6
Continuous
 62
     7
370
    15
100
AcDbSpline
210
0.0
220
0.0
230
1.0
 70
    24
 71
     1
 72
     4
 73
     2
 74
     0
 42
0.0000000001
 43
0.0000000001
 40
0.0
 40
0.0
 40
1.0
 40
1.0
 10
442.2387427793501
 20
339.2601940233399
 30
0.0
 10
441.4887427793503
 20
339.693206725232
 30
0.0
  0
SPLINE
  5
44C8
330
1F
100
AcDbEntity
  8
0
  6
Continuous
 62
     7
370
    15
100
AcDbSpline
210
0.0
220
0.0
230
1.0
 70
    24
 71
     1
 72
     4
 73
     2
 74
     0
 42
0.0000000001
 43
0.0000000001
 40
0.0
 40
0.0
 40
1.0
 40
1.0
 10
443.4887427793501
 20
313.6932067252345
 30
0.0
 10
444.2387427793502
 20
314.1262194271268
 30
0.0
  0
SPLINE
  5
44C9
330
1F
100
AcDbEntity
  8
0
  6
Continuous
 62
     7
370
    15
100
AcDbSpline
210
0.0
220
0.0
230
1.0
 70
    24
 71
     1
 72
     4
 73
     2
 74
     0
 42
0.0000000001
 43
0.0000000001
 40
0.0
 40
0.0
 40
1.0
 40
1.0
 10
444.2387427793502
 20
339.2601940233396
 30
0.0
 10
443.4887427793501
 20
339.6932067252318
 30
0.0
  0
SPLINE
  5
44CA
330
1F
100
AcDbEntity
  8
0
  6
Continuous
 62
     7
370
    15
100
AcDbSpline
210
0.0
220
0.0
230
1.0
 70
    24
 71
     1
 72
     4
 73
     2
 74
     0
 42
0.0000000001
 43
0.0000000001
 40
0.0
 40
0.0
 40
1.0
 40
1.0
 10
443.4887427793501
 20
339.6932067252318
 30
0.0
 10
443.2387427793504
 20
339.2601940233399
 30
0.0
  0
SPLINE
  5
44CB
330
1F
100
AcDbEntity
  8
0
  6
Continuous
 62
     7
370
    15
100
AcDbSpline
210
0.0
220
0.0
230
1.0
 70
    24
 71
     1
 72
     4
 73
     2
 74
     0
 42
0.0000000001
 43
0.0000000001
 40
0.0
 40
0.0
 40
1.0
 40
1.0
 10
443.2387427793504
 20
314.1262194271265
 30
0.0
 10
443.4887427793501
 20
313.6932067252345
 30
0.0
  0
SPLINE
  5
44CC
330
1F
100
AcDbEntity
  8
0
  6
Continuous
 62
     7
370
    15
100
AcDbSpline
210
0.0
220
0.0
230
1.0
 70
    24
 71
     1
 72
     4
 73
     2
 74
     0
 42
0.0000000001
 43
0.0000000001
 40
0.0
 40
0.0
 40
1.0
 40
1.0
 10
444.48874277935
 20
339.6932067252317
 30
0.0
 10
444.2387427793502
 20
339.2601940233396
 30
0.0
  0
SPLINE
  5
44CD
330
1F
100
AcDbEntity
  8
0
  6
Continuous
 62
     7
370
    15
100
AcDbSpline
210
0.0
220
0.0
230
1.0
 70
    24
 71
     1
 72
     4
 73
     2
 74
     0
 42
0.0000000001
 43
0.0000000001
 40
0.0
 40
0.0
 40
1.0
 40
1.0
 10
444.2387427793502
 20
314.1262194271268
 30
0.0
 10
444.48874277935
 20
313.6932067252346
 30
0.0
  0
SPLINE
  5
44CE
330
1F
100
AcDbEntity
  8
0
  6
Continuous
 62
     7
370
    15
100
AcDbSpline
210
0.0
220
0.0
230
1.0
 70
    24
 71
     1
 72
     4
 73
     2
 74
     0
 42
0.0000000001
 43
0.0000000001
 40
0.0
 40
0.0
 40
1.0
 40
1.0
 10
444.48874277935
 20
313.6932067252346
 30
0.0
 10
445.2387427793499
 20
314.1262194271268
 30
0.0
  0
SPLINE
  5
44CF
330
1F
100
AcDbEntity
  8
0
  6
Continuous
 62
     7
370
    15
100
AcDbSpline
210
0.0
220
0.0
230
1.0
 70
    24
 71
     1
 72
     4
 73
     2
 74
     0
 42
0.0000000001
 43
0.0000000001
 40
0.0
 40
0.0
 40
1.0
 40
1.0
 10
445.2387427793499
 20
339.2601940233395
 30
0.0
 10
444.48874277935
 20
339.6932067252317
 30
0.0
  0
SPLINE
  5
44D0
330
1F
100
AcDbEntity
  8
0
  6
Continuous
 62
     7
370
    15
100
AcDbSpline
210
0.0
220
0.0
230
1.0
 70
    24
 71
     1
 72
     4
 73
     2
 74
     0
 42
0.0000000001
 43
0.0000000001
 40
0.0
 40
0.0
 40
1.0
 40
1.0
 10
445.4887427793499
 20
339.6932067252317
 30
0.0
 10
445.2387427793499
 20
339.2601940233395
 30
0.0
  0
SPLINE
  5
44D1
330
1F
100
AcDbEntity
  8
0
  6
Continuous
 62
     7
370
    15
100
AcDbSpline
210
0.0
220
0.0
230
1.0
 70
    24
 71
     1
 72
     4
 73
     2
 74
     0
 42
0.0000000001
 43
0.0000000001
 40
0.0
 40
0.0
 40
1.0
 40
1.0
 10
445.2387427793499
 20
314.1262194271268
 30
0.0
 10
445.4887427793499
 20
313.6932067252347
 30
0.0
  0
SPLINE
  5
44D2
330
1F
100
AcDbEntity
  8
0
  6
Continuous
 62
     7
370
    15
100
AcDbSpline
210
0.0
220
0.0
230
1.0
 70
    24
 71
     1
 72
     4
 73
     2
 74
     0
 42
0.0000000001
 43
0.0000000001
 40
0.0
 40
0.0
 40
1.0
 40
1.0
 10
445.4887427793499
 20
313.6932067252347
 30
0.0
 10
446.2387427793499
 20
314.1262194271269
 30
0.0
  0
SPLINE
  5
44D3
330
1F
100
AcDbEntity
  8
0
  6
Continuous
 62
     7
370
    15
100
AcDbSpline
210
0.0
220
0.0
230
1.0
 70
    24
 71
     1
 72
     4
 73
     2
 74
     0
 42
0.0000000001
 43
0.0000000001
 40
0.0
 40
0.0
 40
1.0
 40
1.0
 10
446.2387427793499
 20
339.2601940233394
 30
0.0
 10
445.4887427793499
 20
339.6932067252317
 30
0.0
  0
SPLINE
  5
44D4
330
1F
100
AcDbEntity
  8
0
  6
Continuous
 62
     7
370
    15
100
AcDbSpline
210
0.0
220
0.0
230
1.0
 70
    24
 71
     1
 72
     4
 73
     2
 74
     0
 42
0.0000000001
 43
0.0000000001
 40
0.0
 40
0.0
 40
1.0
 40
1.0
 10
446.4887427793499
 20
313.6932067252347
 30
0.0
 10
447.2387427793499
 20
314.126219427127
 30
0.0
  0
SPLINE
  5
44D5
330
1F
100
AcDbEntity
  8
0
  6
Continuous
 62
     7
370
    15
100
AcDbSpline
210
0.0
220
0.0
230
1.0
 70
    24
 71
     1
 72
     4
 73
     2
 74
     0
 42
0.0000000001
 43
0.0000000001
 40
0.0
 40
0.0
 40
1.0
 40
1.0
 10
447.2387427793499
 20
339.2601940233394
 30
0.0
 10
446.4887427793499
 20
339.6932067252316
 30
0.0
  0
SPLINE
  5
44D6
330
1F
100
AcDbEntity
  8
0
  6
Continuous
 62
     7
370
    15
100
AcDbSpline
210
0.0
220
0.0
230
1.0
 70
    24
 71
     1
 72
     4
 73
     2
 74
     0
 42
0.0000000001
 43
0.0000000001
 40
0.0
 40
0.0
 40
1.0
 40
1.0
 10
446.4887427793499
 20
339.6932067252316
 30
0.0
 10
446.2387427793499
 20
339.2601940233394
 30
0.0
  0
SPLINE
  5
44D7
330
1F
100
AcDbEntity
  8
0
  6
Continuous
 62
     7
370
    15
100
AcDbSpline
210
0.0
220
0.0
230
1.0
 70
    24
 71
     1
 72
     4
 73
     2
 74
     0
 42
0.0000000001
 43
0.0000000001
 40
0.0
 40
0.0
 40
1.0
 40
1.0
 10
446.2387427793499
 20
314.1262194271269
 30
0.0
 10
446.4887427793499
 20
313.6932067252347
 30
0.0
  0
SPLINE
  5
44D8
330
1F
100
AcDbEntity
  8
0
  6
Continuous
 62
     7
370
    15
100
AcDbSpline
210
0.0
220
0.0
230
1.0
 70
    24
 71
     1
 72
     4
 73
     2
 74
     0
 42
0.0000000001
 43
0.0000000001
 40
0.0
 40
0.0
 40
1.0
 40
1.0
 10
447.4887427793498
 20
339.6932067252314
 30
0.0
 10
447.2387427793499
 20
339.2601940233394
 30
0.0
  0
SPLINE
  5
44D9
330
1F
100
AcDbEntity
  8
0
  6
Continuous
 62
     7
370
    15
100
AcDbSpline
210
0.0
220
0.0
230
1.0
 70
    24
 71
     1
 72
     4
 73
     2
 74
     0
 42
0.0000000001
 43
0.0000000001
 40
0.0
 40
0.0
 40
1.0
 40
1.0
 10
447.2387427793499
 20
314.126219427127
 30
0.0
 10
447.4887427793498
 20
313.6932067252349
 30
0.0
  0
SPLINE
  5
44DA
330
1F
100
AcDbEntity
  8
0
  6
Continuous
 62
     7
370
    15
100
AcDbSpline
210
0.0
220
0.0
230
1.0
 70
    24
 71
     1
 72
     4
 73
     2
 74
     0
 42
0.0000000001
 43
0.0000000001
 40
0.0
 40
0.0
 40
1.0
 40
1.0
 10
447.4887427793498
 20
313.6932067252349
 30
0.0
 10
448.2387427793496
 20
314.1262194271271
 30
0.0
  0
SPLINE
  5
44DB
330
1F
100
AcDbEntity
  8
0
  6
Continuous
 62
     7
370
    15
100
AcDbSpline
210
0.0
220
0.0
230
1.0
 70
    24
 71
     1
 72
     4
 73
     2
 74
     0
 42
0.0000000001
 43
0.0000000001
 40
0.0
 40
0.0
 40
1.0
 40
1.0
 10
448.2387427793496
 20
339.2601940233392
 30
0.0
 10
447.4887427793498
 20
339.6932067252314
 30
0.0
  0
SPLINE
  5
44DC
330
1F
100
AcDbEntity
  8
0
  6
Continuous
 62
     7
370
    15
100
AcDbSpline
210
0.0
220
0.0
230
1.0
 70
    24
 71
     1
 72
     4
 73
     2
 74
     0
 42
0.0000000001
 43
0.0000000001
 40
0.0
 40
0.0
 40
1.0
 40
1.0
 10
448.4887427793497
 20
339.6932067252314
 30
0.0
 10
448.2387427793496
 20
339.2601940233392
 30
0.0
  0
SPLINE
  5
44DD
330
1F
100
AcDbEntity
  8
0
  6
Continuous
 62
     7
370
    15
100
AcDbSpline
210
0.0
220
0.0
230
1.0
 70
    24
 71
     1
 72
     4
 73
     2
 74
     0
 42
0.0000000001
 43
0.0000000001
 40
0.0
 40
0.0
 40
1.0
 40
1.0
 10
448.2387427793496
 20
314.1262194271271
 30
0.0
 10
448.4887427793497
 20
313.693206725235
 30
0.0
  0
SPLINE
  5
44DE
330
1F
100
AcDbEntity
  8
0
  6
Continuous
 62
     7
370
    15
100
AcDbSpline
210
0.0
220
0.0
230
1.0
 70
    24
 71
     1
 72
     4
 73
     2
 74
     0
 42
0.0000000001
 43
0.0000000001
 40
0.0
 40
0.0
 40
1.0
 40
1.0
 10
448.4887427793497
 20
313.693206725235
 30
0.0
 10
449.2387427793497
 20
314.1262194271273
 30
0.0
  0
SPLINE
  5
44DF
330
1F
100
AcDbEntity
  8
0
  6
Continuous
 62
     7
370
    15
100
AcDbSpline
210
0.0
220
0.0
230
1.0
 70
    24
 71
     1
 72
     4
 73
     2
 74
     0
 42
0.0000000001
 43
0.0000000001
 40
0.0
 40
0.0
 40
1.0
 40
1.0
 10
449.2387427793497
 20
339.2601940233392
 30
0.0
 10
448.4887427793497
 20
339.6932067252314
 30
0.0
  0
SPLINE
  5
44E0
330
1F
100
AcDbEntity
  8
0
  6
Continuous
 62
     7
370
    15
100
AcDbSpline
210
0.0
220
0.0
230
1.0
 70
    24
 71
     1
 72
     4
 73
     2
 74
     0
 42
0.0000000001
 43
0.0000000001
 40
0.0
 40
0.0
 40
1.0
 40
1.0
 10
449.4887427793496
 20
339.6932067252312
 30
0.0
 10
449.2387427793497
 20
339.2601940233392
 30
0.0
  0
SPLINE
  5
44E1
330
1F
100
AcDbEntity
  8
0
  6
Continuous
 62
     7
370
    15
100
AcDbSpline
210
0.0
220
0.0
230
1.0
 70
    24
 71
     1
 72
     4
 73
     2
 74
     0
 42
0.0000000001
 43
0.0000000001
 40
0.0
 40
0.0
 40
1.0
 40
1.0
 10
449.2387427793497
 20
314.1262194271273
 30
0.0
 10
449.4887427793496
 20
313.6932067252351
 30
0.0
  0
SPLINE
  5
44E2
330
1F
100
AcDbEntity
  8
0
  6
Continuous
 62
     7
370
    15
100
AcDbSpline
210
0.0
220
0.0
230
1.0
 70
    24
 71
     1
 72
     4
 73
     2
 74
     0
 42
0.0000000001
 43
0.0000000001
 40
0.0
 40
0.0
 40
1.0
 40
1.0
 10
449.4887427793496
 20
313.6932067252351
 30
0.0
 10
450.2387427793497
 20
314.1262194271271
 30
0.0
  0
SPLINE
  5
44E3
330
1F
100
AcDbEntity
  8
0
  6
Continuous
 62
     7
370
    15
100
AcDbSpline
210
0.0
220
0.0
230
1.0
 70
    24
 71
     1
 72
     4
 73
     2
 74
     0
 42
0.0000000001
 43
0.0000000001
 40
0.0
 40
0.0
 40
1.0
 40
1.0
 10
450.2387427793497
 20
339.260194023339
 30
0.0
 10
449.4887427793496
 20
339.6932067252312
 30
0.0
  0
SPLINE
  5
44E4
330
1F
100
AcDbEntity
  8
0
  6
Continuous
 62
     7
370
    15
100
AcDbSpline
210
0.0
220
0.0
230
1.0
 70
    24
 71
     1
 72
     4
 73
     2
 74
     0
 42
0.0000000001
 43
0.0000000001
 40
0.0
 40
0.0
 40
1.0
 40
1.0
 10
450.4887427793495
 20
339.6932067252311
 30
0.0
 10
450.2387427793497
 20
339.260194023339
 30
0.0
  0
SPLINE
  5
44E5
330
1F
100
AcDbEntity
  8
0
  6
Continuous
 62
     7
370
    15
100
AcDbSpline
210
0.0
220
0.0
230
1.0
 70
    24
 71
     1
 72
     4
 73
     2
 74
     0
 42
0.0000000001
 43
0.0000000001
 40
0.0
 40
0.0
 40
1.0
 40
1.0
 10
450.2387427793497
 20
314.1262194271271
 30
0.0
 10
450.4887427793495
 20
313.6932067252351
 30
0.0
  0
LINE
  5
44F8
330
1F
100
AcDbEntity
  8
0
  6
Continuous
 62
     7
370
    15
100
AcDbLine
 10
455.4887427793506
 20
326.693206725233
 30
0.0
 11
455.4887427793506
 21
345.693206725233
 31
0.0
  0
LINE
  5
44F9
330
1F
100
AcDbEntity
  8
0
  6
Continuous
 62
     7
370
    15
100
AcDbLine
 10
455.4887427793506
 20
307.6932067252331
 30
0.0
 11
455.4887427793506
 21
326.693206725233
 31
0.0
  0
LINE
  5
44FB
330
1F
100
AcDbEntity
  8
0
  6
Continuous
 62
     7
370
    15
100
AcDbLine
 10
433.238742779351
 20
339.2601940233407
 30
0.0
 11
433.238742779351
 21
314.1262194271257
 31
0.0
  0
LINE
  5
44FC
330
1F
100
AcDbEntity
  8
0
  6
Continuous
 62
     7
370
    15
100
AcDbLine
 10
433.488742779351
 20
339.6932067252329
 30
0.0
 11
433.488742779351
 21
313.6932067252334
 31
0.0
  0
LINE
  5
44FD
330
1F
100
AcDbEntity
  8
0
  6
Continuous
 62
     7
370
    15
100
AcDbLine
 10
434.238742779351
 20
339.2601940233408
 30
0.0
 11
434.238742779351
 21
314.1262194271257
 31
0.0
  0
LINE
  5
44FE
330
1F
100
AcDbEntity
  8
0
  6
Continuous
 62
     7
370
    15
100
AcDbLine
 10
432.488742779351
 20
339.6932067252329
 30
0.0
 11
432.488742779351
 21
313.6932067252334
 31
0.0
  0
LINE
  5
44FF
330
1F
100
AcDbEntity
  8
0
  6
Continuous
 62
     7
370
    15
100
AcDbLine
 10
432.2387427793509
 20
339.2601940233408
 30
0.0
 11
432.2387427793509
 21
314.1262194271257
 31
0.0
  0
LINE
  5
4500
102
{ACAD_REACTORS
330
4746
102
}
330
1F
100
AcDbEntity
  8
0
  6
Continuous
 62
     7
370
    15
100
AcDbLine
 10
431.488742779351
 20
339.6932067252329
 30
0.0
 11
431.488742779351
 21
313.6932067252334
 31
0.0
  0
LINE
  5
4501
330
1F
100
AcDbEntity
  8
0
  6
Continuous
 62
     7
370
    15
100
AcDbLine
 10
435.2387427793509
 20
339.2601940233404
 30
0.0
 11
435.2387427793509
 21
314.1262194271259
 31
0.0
  0
LINE
  5
4502
330
1F
100
AcDbEntity
  8
0
  6
Continuous
 62
     7
370
    15
100
AcDbLine
 10
435.4887427793508
 20
339.6932067252327
 30
0.0
 11
435.4887427793508
 21
313.6932067252336
 31
0.0
  0
LINE
  5
4503
330
1F
100
AcDbEntity
  8
0
  6
Continuous
 62
     7
370
    15
100
AcDbLine
 10
436.2387427793509
 20
339.2601940233405
 30
0.0
 11
436.2387427793509
 21
314.1262194271259
 31
0.0
  0
LINE
  5
4504
330
1F
100
AcDbEntity
  8
0
  6
Continuous
 62
     7
370
    15
100
AcDbLine
 10
434.4887427793509
 20
339.6932067252327
 30
0.0
 11
434.4887427793509
 21
313.6932067252336
 31
0.0
  0
LINE
  5
4505
330
1F
100
AcDbEntity
  8
0
  6
Continuous
 62
     7
370
    15
100
AcDbLine
 10
436.4887427793506
 20
339.6932067252325
 30
0.0
 11
436.4887427793506
 21
313.6932067252339
 31
0.0
  0
LINE
  5
4506
330
1F
100
AcDbEntity
  8
0
  6
Continuous
 62
     7
370
    15
100
AcDbLine
 10
437.2387427793507
 20
339.2601940233403
 30
0.0
 11
437.2387427793507
 21
314.126219427126
 31
0.0
  0
LINE
  5
4507
330
1F
100
AcDbEntity
  8
0
  6
Continuous
 62
     7
370
    15
100
AcDbLine
 10
438.4887427793506
 20
339.6932067252324
 30
0.0
 11
438.4887427793506
 21
313.6932067252339
 31
0.0
  0
LINE
  5
4508
330
1F
100
AcDbEntity
  8
0
  6
Continuous
 62
     7
370
    15
100
AcDbLine
 10
439.2387427793504
 20
339.2601940233401
 30
0.0
 11
439.2387427793504
 21
314.1262194271263
 31
0.0
  0
LINE
  5
4509
330
1F
100
AcDbEntity
  8
0
  6
Continuous
 62
     7
370
    15
100
AcDbLine
 10
438.2387427793506
 20
339.2601940233403
 30
0.0
 11
438.2387427793506
 21
314.1262194271261
 31
0.0
  0
LINE
  5
450A
330
1F
100
AcDbEntity
  8
0
  6
Continuous
 62
     7
370
    15
100
AcDbLine
 10
437.4887427793506
 20
339.6932067252324
 30
0.0
 11
437.4887427793506
 21
313.6932067252339
 31
0.0
  0
LINE
  5
450B
330
1F
100
AcDbEntity
  8
0
  6
Continuous
 62
     7
370
    15
100
AcDbLine
 10
439.4887427793505
 20
339.6932067252321
 30
0.0
 11
439.4887427793505
 21
313.6932067252342
 31
0.0
  0
LINE
  5
450C
330
1F
100
AcDbEntity
  8
0
  6
Continuous
 62
     7
370
    15
100
AcDbLine
 10
440.2387427793504
 20
339.26019402334
 30
0.0
 11
440.2387427793504
 21
314.1262194271263
 31
0.0
  0
LINE
  5
450D
330
1F
100
AcDbEntity
  8
0
  6
Continuous
 62
     7
370
    15
100
AcDbLine
 10
442.4887427793503
 20
339.6932067252321
 30
0.0
 11
442.4887427793503
 21
313.6932067252343
 31
0.0
  0
LINE
  5
450E
330
1F
100
AcDbEntity
  8
0
  6
Continuous
 62
     7
370
    15
100
AcDbLine
 10
443.2387427793504
 20
339.2601940233399
 30
0.0
 11
443.2387427793504
 21
314.1262194271265
 31
0.0
  0
LINE
  5
450F
330
1F
100
AcDbEntity
  8
0
  6
Continuous
 62
     7
370
    15
100
AcDbLine
 10
442.2387427793502
 20
339.2601940233399
 30
0.0
 11
442.2387427793502
 21
314.1262194271265
 31
0.0
  0
LINE
  5
4510
330
1F
100
AcDbEntity
  8
0
  6
Continuous
 62
     7
370
    15
100
AcDbLine
 10
440.4887427793504
 20
339.6932067252321
 30
0.0
 11
440.4887427793504
 21
313.6932067252343
 31
0.0
  0
LINE
  5
4511
330
1F
100
AcDbEntity
  8
0
  6
Continuous
 62
     7
370
    15
100
AcDbLine
 10
441.2387427793503
 20
339.2601940233399
 30
0.0
 11
441.2387427793503
 21
314.1262194271265
 31
0.0
  0
LINE
  5
4512
330
1F
100
AcDbEntity
  8
0
  6
Continuous
 62
     7
370
    15
100
AcDbLine
 10
441.4887427793503
 20
339.693206725232
 30
0.0
 11
441.4887427793503
 21
313.6932067252343
 31
0.0
  0
LINE
  5
4513
330
1F
100
AcDbEntity
  8
0
  6
Continuous
 62
     7
370
    15
100
AcDbLine
 10
443.4887427793501
 20
339.6932067252318
 30
0.0
 11
443.4887427793501
 21
313.6932067252345
 31
0.0
  0
LINE
  5
4514
330
1F
100
AcDbEntity
  8
0
  6
Continuous
 62
     7
370
    15
100
AcDbLine
 10
444.2387427793502
 20
339.2601940233396
 30
0.0
 11
444.2387427793502
 21
314.1262194271268
 31
0.0
  0
LINE
  5
4515
330
1F
100
AcDbEntity
  8
0
  6
Continuous
 62
     7
370
    15
100
AcDbLine
 10
444.4887427793501
 20
339.6932067252317
 30
0.0
 11
444.4887427793501
 21
313.6932067252346
 31
0.0
  0
LINE
  5
4516
330
1F
100
AcDbEntity
  8
0
  6
Continuous
 62
     7
370
    15
100
AcDbLine
 10
445.23874277935
 20
339.2601940233395
 30
0.0
 11
445.23874277935
 21
314.1262194271268
 31
0.0
  0
LINE
  5
4517
330
1F
100
AcDbEntity
  8
0
  6
Continuous
 62
     7
370
    15
100
AcDbLine
 10
445.48874277935
 20
339.6932067252317
 30
0.0
 11
445.48874277935
 21
313.6932067252347
 31
0.0
  0
LINE
  5
4518
330
1F
100
AcDbEntity
  8
0
  6
Continuous
 62
     7
370
    15
100
AcDbLine
 10
446.2387427793499
 20
339.2601940233394
 30
0.0
 11
446.2387427793499
 21
314.1262194271269
 31
0.0
  0
LINE
  5
4519
330
1F
100
AcDbEntity
  8
0
  6
Continuous
 62
     7
370
    15
100
AcDbLine
 10
446.4887427793499
 20
339.6932067252316
 30
0.0
 11
446.4887427793499
 21
313.6932067252347
 31
0.0
  0
LINE
  5
451A
330
1F
100
AcDbEntity
  8
0
  6
Continuous
 62
     7
370
    15
100
AcDbLine
 10
447.2387427793499
 20
339.2601940233394
 30
0.0
 11
447.2387427793499
 21
314.126219427127
 31
0.0
  0
LINE
  5
451B
330
1F
100
AcDbEntity
  8
0
  6
Continuous
 62
     7
370
    15
100
AcDbLine
 10
447.4887427793499
 20
339.6932067252314
 30
0.0
 11
447.4887427793499
 21
313.6932067252349
 31
0.0
  0
LINE
  5
451C
330
1F
100
AcDbEntity
  8
0
  6
Continuous
 62
     7
370
    15
100
AcDbLine
 10
448.2387427793498
 20
339.2601940233392
 30
0.0
 11
448.2387427793498
 21
314.1262194271271
 31
0.0
  0
LINE
  5
451D
330
1F
100
AcDbEntity
  8
0
  6
Continuous
 62
     7
370
    15
100
AcDbLine
 10
448.4887427793498
 20
339.6932067252314
 30
0.0
 11
448.4887427793498
 21
313.693206725235
 31
0.0
  0
LINE
  5
451E
330
1F
100
AcDbEntity
  8
0
  6
Continuous
 62
     7
370
    15
100
AcDbLine
 10
449.2387427793497
 20
339.2601940233392
 30
0.0
 11
449.2387427793497
 21
314.1262194271273
 31
0.0
  0
LINE
  5
451F
330
1F
100
AcDbEntity
  8
0
  6
Continuous
 62
     7
370
    15
100
AcDbLine
 10
449.4887427793496
 20
339.6932067252312
 30
0.0
 11
449.4887427793496
 21
313.6932067252351
 31
0.0
  0
LINE
  5
4520
330
1F
100
AcDbEntity
  8
0
  6
Continuous
 62
     7
370
    15
100
AcDbLine
 10
450.2387427793497
 20
339.260194023339
 30
0.0
 11
450.2387427793497
 21
314.1262194271271
 31
0.0
  0
LINE
  5
4521
330
1F
100
AcDbEntity
  8
0
  6
Continuous
 62
     7
370
    15
100
AcDbLine
 10
450.4887427793496
 20
339.6932067252311
 30
0.0
 11
450.4887427793496
 21
313.6932067252351
 31
0.0
  0
DIMENSION
  5
4738
102
{ACAD_XDICTIONARY
360
4745
102
}
102
{ACAD_REACTORS
330
4746
102
}
330
1F
100
AcDbEntity
  8
AM_5
100
AcDbDimension
  2
*D17
 10
431.488742779351
 20
283.8817441264952
 30
0.0
 11
497.6887427793509
 21
283.8817441264952
 31
0.0
 70
   160
 71
     5
 42
132.3999999999996
  3
AM_ISO$0
100
AcDbAlignedDimension
 13
563.8887427793506
 23
326.693206725233
 33
0.0
 14
431.488742779351
 24
313.6932067252334
 34
0.0
100
AcDbRotatedDimension
1001
ACAD
1000
DSTYLE
1002
{
1070
   271
1070
     1
1070
   272
1070
     8
1002
}
  0
LINE
  5
4762
330
1F
100
AcDbEntity
  8
0
  6
Continuous
 62
     7
370
    15
100
AcDbLine
 10
450.4887427793506
 20
307.6932067252331
 30
0.0
 11
450.4887427793506
 21
345.693206725233
 31
0.0
  0
DIMENSION
  5
4799
330
1F
100
AcDbEntity
  8
AM_5
100
AcDbDimension
  2
*D18
 10
455.4887427793506
 20
295.936112757121
 30
0.0
 11
507.1887427793507
 21
295.936112757121
 31
0.0
 70
   160
 71
     5
 42
108.4
  3
AM_ISO$0
100
AcDbAlignedDimension
 13
563.8887427793506
 23
326.693206725233
 33
0.0
 14
455.4887427793506
 24
307.6932067252331
 34
0.0
100
AcDbRotatedDimension
1001
ACAD
1000
DSTYLE
1002
{
1070
    40
1040
1.5
1070
   144
1040
1.0
1070
   271
1070
     1
1070
   272
1070
     8
1002
}
  0
DIMENSION
  5
47BF
330
1F
100
AcDbEntity
  8
AM_5
100
AcDbDimension
  2
*D19
 10
419.2387417793507
 20
307.6932067252331
 30
0.0
 11
415.1137417793506
 21
326.6932067252331
 31
0.0
 70
    32
  1
%%c<>
 71
     5
 42
38.0
  3
AM_ISO$0
100
AcDbAlignedDimension
 13
450.4887427793506
 23
345.693206725233
 33
0.0
 14
450.4887427793506
 24
307.6932067252331
 34
0.0
 50
270.0
100
AcDbRotatedDimension
1001
ACAD
1000
DSTYLE
1002
{
1070
    40
1040
1.5
1070
   144
1040
1.0
1070
   271
1070
     1
1070
   272
1070
     8
1002
}
  0
ENDSEC
  0
SECTION
  2
OBJECTS
  0
DICTIONARY
  5
C
330
0
100
AcDbDictionary
281
     1
  3
ACAD_COLOR
350
BE
  3
ACAD_GROUP
350
D
  3
ACAD_LAYOUT
350
1A
  3
ACAD_MATERIAL
350
BD
  3
ACAD_MLINESTYLE
350
17
  3
ACAD_PLOTSETTINGS
350
19
  3
ACAD_PLOTSTYLENAME
350
E
  3
ACAD_TABLESTYLE
350
11A
  3
ACDBHEADERROUNDTRIPXREC
350
4A0D
  3
AcDbVariableDictionary
350
94
  3
AcmDictionary
350
5B
  3
AMG
350
41
  3
AMGSNAPSETTINGS
350
1B8
  3
DWGPROPS
350
4A0C
  3
MAPISURF_MODULE
350
3A15
  0
DICTIONARY
  5
3F9
330
2
100
AcDbDictionary
280
     1
281
     1
  3
ACAD_LAYERFILTERS
360
481C
  3
ACAD_LAYERSTATES
360
AD2
  3
ACLYDICTIONARY
360
481B
  0
DICTIONARY
  5
8F
330
1F
100
AcDbDictionary
280
     1
281
     1
  3
ACAD_INDEX
360
49E1
  0
DICTIONARY
  5
42A4
330
42A2
100
AcDbDictionary
280
     1
281
     1
  0
DICTIONARY
  5
4745
330
4738
100
AcDbDictionary
280
     1
281
     1
  3
ACAD_DIMASSOC
360
4746
  0
DICTIONARY
  5
BE
102
{ACAD_REACTORS
330
C
102
}
330
C
100
AcDbDictionary
281
     1
  0
DICTIONARY
  5
D
102
{ACAD_REACTORS
330
C
102
}
330
C
100
AcDbDictionary
281
     1
  0
DICTIONARY
  5
1A
102
{ACAD_REACTORS
330
C
102
}
330
C
100
AcDbDictionary
281
     1
  3
Model
350
22
  3
配置1
350
1E
  3
配置2
350
26
  0
DICTIONARY
  5
BD
102
{ACAD_REACTORS
330
C
102
}
330
C
100
AcDbDictionary
281
     1
  0
DICTIONARY
  5
17
102
{ACAD_REACTORS
330
C
102
}
330
C
100
AcDbDictionary
281
     1
  3
Standard
350
18
  0
DICTIONARY
  5
19
102
{ACAD_REACTORS
330
C
102
}
330
C
100
AcDbDictionary
281
     1
  0
ACDBDICTIONARYWDFLT
  5
E
102
{ACAD_REACTORS
330
C
102
}
330
C
100
AcDbDictionary
281
     1
  3
Normal
350
F
100
AcDbDictionaryWithDefault
340
F
  0
DICTIONARY
  5
11A
102
{ACAD_REACTORS
330
C
102
}
330
C
100
AcDbDictionary
281
     1
  3
Standard
350
11B
  0
DICTIONARY
  5
4A0D
102
{ACAD_REACTORS
330
C
102
}
330
C
100
AcDbDictionary
281
     1
  0
DICTIONARY
  5
94
102
{ACAD_REACTORS
330
C
102
}
330
C
100
AcDbDictionary
281
     1
  3
CTABLESTYLE
350
138
  3
DIMASSOC
350
96
  3
INDEXCTL
350
95
  3
PROJECTNAME
350
1B44
  0
DICTIONARY
  5
5B
102
{ACAD_REACTORS
330
C
102
}
330
C
100
AcDbDictionary
281
     1
  3
AcmBOM
350
1B5
  3
AcmStdDictionary
350
61
  3
AMDTSECTSYM_ARROWCOLOR
350
123
  0
DICTIONARY
  5
41
102
{ACAD_REACTORS
330
C
102
}
330
C
100
AcDbDictionary
281
     1
  3
AcMgSettings
350
398F
  0
DICTIONARY
  5
1B8
102
{ACAD_REACTORS
330
C
102
}
330
C
100
AcDbDictionary
281
     1
  0
XRECORD
  5
4A0C
102
{ACAD_REACTORS
330
C
102
}
330
C
100
AcDbXrecord
280
     1
  1
DWGPROPS COOKIE
  2

  3

  4

  6

  7

  8

  9

300
AmdtFileType=84
301
=
302
=
303
=
304
=
305
=
306
=
307
=
308
=
309
=
 40
0.1195727777777778
 41
2454392.703168762
 42
2456134.603216146
  1

 90
        1
  0
DICTIONARY
  5
481C
102
{ACAD_REACTORS
330
3F9
102
}
330
3F9
100
AcDbDictionary
281
     1
  0
DICTIONARY
  5
AD2
102
{ACAD_REACTORS
330
3F9
102
}
330
3F9
100
AcDbDictionary
281
     1
  0
DICTIONARY
  5
481B
102
{ACAD_REACTORS
330
3F9
102
}
330
3F9
100
AcDbDictionary
281
     1
1001
ACAD
1000
<All
  0
DICTIONARY
  5
49E1
102
{ACAD_REACTORS
330
8F
102
}
330
8F
100
AcDbDictionary
281
     1
  3
*A1
350
49E2
  0
DIMASSOC
  5
4746
102
{ACAD_REACTORS
330
4745
102
}
330
4745
100
AcDbDimAssoc
330
4738
 90
        2
 70
     0
 71
     0
  1
AcDbOsnapPointRef
 72
     1
331
4500
 73
     0
 91
        0
 40
0.0
 10
0.0
 20
0.0
 30
2.000000000000000E+50
 75
     0
  0
LAYOUT
  5
22
102
{ACAD_XDICTIONARY
360
4A10
102
}
102
{ACAD_REACTORS
330
1A
102
}
330
1A
100
AcDbPlotSettings
  1

  2
\\RD\EPSON Stylus C63 Series單色
  4
A4
  6

 40
3.757083177566528
 41
3.757076978683471
 42
3.757080078125
 43
3.757080078125
 44
209.9733276367187
 45
296.9683227539062
 46
0.0
 47
0.0
 48
0.0
 49
0.0
140
0.0
141
0.0
142
1.0
143
0.3405120737814363
 70
 11952
 72
     1
 73
     0
 74
     0
  7
單色出圖.ctb
 75
     0
147
2.936753428137963
148
-2047.07469463503
149
-1261.649717473083
100
AcDbLayout
  1
Model
 70
     1
 71
     0
 10
0.0
 20
0.0
 11
12.0
 21
9.0
 12
0.0
 22
0.0
 32
0.0
 14
0.0
 24
0.0
 34
0.0
 15
0.0
 25
0.0
 35
0.0
146
0.0
 13
0.0
 23
0.0
 33
0.0
 16
1.0
 26
0.0
 36
0.0
 17
0.0
 27
1.0
 37
0.0
 76
     0
330
1F
1001
ACAD_PSEXT
1000
\\RD\EPSON Stylus C63 Series單色
1000
EPSON Stylus C63 Series
1000
\\RD
1000

1070
     0
  0
LAYOUT
  5
1E
102
{ACAD_XDICTIONARY
360
4A0E
102
}
102
{ACAD_REACTORS
330
1A
102
}
330
1A
100
AcDbPlotSettings
  1

  2

  4

  6

 40
0.0
 41
0.0
 42
0.0
 43
0.0
 44
0.0
 45
0.0
 46
0.0
 47
0.0
 48
0.0
 49
0.0
140
0.0
141
0.0
142
1.0
143
1.0
 70
   688
 72
     0
 73
     0
 74
     5
  7
單色出圖.ctb
 75
    16
147
1.0
148
0.0
149
0.0
100
AcDbLayout
  1
配置1
 70
     1
 71
     1
 10
0.0
 20
0.0
 11
420.0
 21
297.0
 12
0.0
 22
0.0
 32
0.0
 14
1.000000000000000E+20
 24
1.000000000000000E+20
 34
1.000000000000000E+20
 15
-1.000000000000000E+20
 25
-1.000000000000000E+20
 35
-1.000000000000000E+20
146
0.0
 13
0.0
 23
0.0
 33
0.0
 16
1.0
 26
0.0
 36
0.0
 17
0.0
 27
1.0
 37
0.0
 76
     0
330
1B
  0
LAYOUT
  5
26
102
{ACAD_XDICTIONARY
360
4A12
102
}
102
{ACAD_REACTORS
330
1A
102
}
330
1A
100
AcDbPlotSettings
  1

  2

  4

  6

 40
0.0
 41
0.0
 42
0.0
 43
0.0
 44
0.0
 45
0.0
 46
0.0
 47
0.0
 48
0.0
 49
0.0
140
0.0
141
0.0
142
1.0
143
1.0
 70
   688
 72
     0
 73
     0
 74
     5
  7
單色出圖.ctb
 75
    16
147
1.0
148
0.0
149
0.0
100
AcDbLayout
  1
配置2
 70
     1
 71
     2
 10
0.0
 20
0.0
 11
12.0
 21
9.0
 12
0.0
 22
0.0
 32
0.0
 14
0.0
 24
0.0
 34
0.0
 15
0.0
 25
0.0
 35
0.0
146
0.0
 13
0.0
 23
0.0
 33
0.0
 16
1.0
 26
0.0
 36
0.0
 17
0.0
 27
1.0
 37
0.0
 76
     0
330
23
  0
MLINESTYLE
  5
18
102
{ACAD_REACTORS
330
17
102
}
330
17
100
AcDbMlineStyle
  2
STANDARD
 70
     0
  3

 62
   256
 51
90.0
 52
90.0
 71
     2
 49
0.5
 62
   256
  6
BYLAYER
 49
-0.5
 62
   256
  6
BYLAYER
  0
ACDBPLACEHOLDER
  5
F
102
{ACAD_REACTORS
330
E
102
}
330
E
  0
TABLESTYLE
  5
11B
102
{ACAD_REACTORS
330
11A
102
}
330
11A
100
AcDbTableStyle
  3
Standard
 70
     0
 71
     0
 40
1.5
 41
1.5
280
     0
281
     0
  7
STANDARD
140
4.5
170
     2
 62
     0
 63
     7
283
     0
274
    -2
284
     1
 64
     0
275
    -2
285
     1
 65
     0
276
    -2
286
     1
 66
     0
277
    -2
287
     1
 67
     0
278
    -2
288
     1
 68
     0
279
    -2
289
     1
 69
     0
  7
STANDARD
140
6.0
170
     5
 62
     0
 63
     7
283
     0
274
    -2
284
     1
 64
     0
275
    -2
285
     1
 65
     0
276
    -2
286
     1
 66
     0
277
    -2
287
     1
 67
     0
278
    -2
288
     1
 68
     0
279
    -2
289
     1
 69
     0
  7
STANDARD
140
4.5
170
     5
 62
     0
 63
     7
283
     0
274
    -2
284
     1
 64
     0
275
    -2
285
     1
 65
     0
276
    -2
286
     1
 66
     0
277
    -2
287
     1
 67
     0
278
    -2
288
     1
 68
     0
279
    -2
289
     1
 69
     0
  0
DICTIONARYVAR
  5
138
102
{ACAD_REACTORS
330
94
102
}
330
94
100
DictionaryVariables
280
     0
  1
STANDARD
  0
DICTIONARYVAR
  5
96
102
{ACAD_REACTORS
330
94
102
}
330
94
100
DictionaryVariables
280
     0
  1
2
  0
DICTIONARYVAR
  5
95
102
{ACAD_REACTORS
330
94
102
}
330
94
100
DictionaryVariables
280
     0
  1
1
  0
DICTIONARYVAR
  5
1B44
102
{ACAD_REACTORS
330
94
102
}
330
94
100
DictionaryVariables
280
     0
  1

  0
DICTIONARY
  5
1B5
102
{ACAD_REACTORS
330
5B
102
}
330
5B
100
AcDbDictionary
281
     1
  0
DICTIONARY
  5
61
102
{ACAD_REACTORS
330
5B
102
}
330
5B
100
AcDbDictionary
281
     1
  0
XRECORD
  5
123
102
{ACAD_REACTORS
330
5B
102
}
330
5B
100
AcDbXrecord
280
     1
 90
-1023410169
  0
DICTIONARY
  5
398F
102
{ACAD_REACTORS
330
41
102
}
330
41
100
AcDbDictionary
281
     1
  3
DWGSETTINGS
350
3990
  3
TRANSSETTINGS
350
3993
  0
LAYER_INDEX
  5
49E2
102
{ACAD_REACTORS
330
49E1
102
}
330
49E1
100
AcDbIndex
 40
2456134.603216146
100
AcDbLayerIndex
  8
0
360
49E3
 90
      124
  8
AM_VIS
360
49E4
 90
        0
  8
AM_7
360
49E5
 90
        0
  8
Defpoints
360
49E6
 90
        0
  8
LOGO
360
49E7
 90
       77
  8
AM_4
360
49E8
 90
        0
  8
AM_REFDIM
360
49E9
 90
        0
  8
AM_HID
360
49EA
 90
        0
  8
AM_5
360
49EB
 90
        3
  0
DICTIONARY
  5
4A10
330
22
100
AcDbDictionary
280
     1
281
     1
  3
ACAD_XREC_ROUNDTRIP
360
4A11
  0
DICTIONARY
  5
4A0E
330
1E
100
AcDbDictionary
280
     1
281
     1
  3
ACAD_XREC_ROUNDTRIP
360
4A0F
  0
DICTIONARY
  5
4A12
330
26
100
AcDbDictionary
280
     1
281
     1
  3
ACAD_XREC_ROUNDTRIP
360
4A13
  0
IDBUFFER
  5
49E3
330
0
100
AcDbIdBuffer
330
4517
330
4518
330
4519
330
451A
330
451B
330
451C
330
451D
330
451E
330
451F
330
4520
330
4521
330
4762
330
1830
330
1831
330
1832
330
4495
330
4496
330
4497
330
449A
330
449B
330
449C
330
449D
330
449E
330
449F
330
44A0
330
44A1
330
44A2
330
44A3
330
44A4
330
44A5
330
44A6
330
44A7
330
44A8
330
44A9
330
44AA
330
44AB
330
44AC
330
44AD
330
44AE
330
44AF
330
44B0
330
44B1
330
44B2
330
44B3
330
44B4
330
44B5
330
44B6
330
44B7
330
44B8
330
44B9
330
44BA
330
44BB
330
44BC
330
44BD
330
44BE
330
44BF
330
44C0
330
44C1
330
44C2
330
44C3
330
44C4
330
44C5
330
44C6
330
44C7
330
44C8
330
44C9
330
44CA
330
44CB
330
44CC
330
44CD
330
44CE
330
44CF
330
44D0
330
44D1
330
44D2
330
44D3
330
44D4
330
44D5
330
44D6
330
44D7
330
44D8
330
44D9
330
44DA
330
44DB
330
44DC
330
44DD
330
44DE
330
44DF
330
44E0
330
44E1
330
44E2
330
44E3
330
44E4
330
44E5
330
44F8
330
44F9
330
44FB
330
44FC
330
44FD
330
44FE
330
44FF
330
4500
330
4501
330
4502
330
4503
330
4504
330
4505
330
4506
330
4507
330
4508
330
4509
330
450A
330
450B
330
450C
330
450D
330
450E
330
450F
330
4510
330
4511
330
4512
330
4513
330
4514
330
4515
330
4516
  0
IDBUFFER
  5
49E4
330
0
100
AcDbIdBuffer
  0
IDBUFFER
  5
49E5
330
0
100
AcDbIdBuffer
  0
IDBUFFER
  5
49E6
330
0
100
AcDbIdBuffer
  0
IDBUFFER
  5
49E7
330
0
100
AcDbIdBuffer
330
17E0
330
17E1
330
17E2
330
17E3
330
17E4
330
17E5
330
17E6
330
17E7
330
17E8
330
17E9
330
17EA
330
17EB
330
17EC
330
17ED
330
17EE
330
17EF
330
17F0
330
1824
330
1825
330
1826
330
1827
330
1828
330
1829
330
182A
330
182B
330
182C
330
182D
330
182E
330
182F
330
179B
330
179C
330
179D
330
179E
330
179F
330
17A0
330
17A1
330
17A2
330
17A3
330
17A4
330
17A5
330
17A6
330
17A7
330
17A8
330
17A9
330
17AA
330
17AB
330
17AC
330
17AD
330
17AE
330
17AF
330
17B0
330
17B1
330
17B2
330
17B6
330
17BA
330
17BB
330
17BF
330
17C0
330
17C1
330
17C2
330
17C3
330
17C4
330
17C5
330
17C6
330
17CA
330
17CE
330
17D2
330
17D3
330
17D4
330
17D8
330
17D9
330
17DA
330
17DB
330
17DC
330
17DD
330
17DE
330
17DF
  0
IDBUFFER
  5
49E8
330
0
100
AcDbIdBuffer
  0
IDBUFFER
  5
49E9
330
0
100
AcDbIdBuffer
  0
IDBUFFER
  5
49EA
330
0
100
AcDbIdBuffer
  0
IDBUFFER
  5
49EB
330
0
100
AcDbIdBuffer
330
4738
330
4799
330
47BF
  0
XRECORD
  5
4A11
102
{ACAD_REACTORS
330
4A10
102
}
330
4A10
100
AcDbXrecord
280
     1
102
SHADEPLOT
 70
     0
102
SHADEPLOTRESLEVEL
 70
     2
102
SHADEPLOTCUSTOMDPI
 70
   300
  0
XRECORD
  5
4A0F
102
{ACAD_REACTORS
330
4A0E
102
}
330
4A0E
100
AcDbXrecord
280
     1
102
SHADEPLOT
 70
     0
102
SHADEPLOTRESLEVEL
 70
     2
102
SHADEPLOTCUSTOMDPI
 70
   300
  0
XRECORD
  5
4A13
102
{ACAD_REACTORS
330
4A12
102
}
330
4A12
100
AcDbXrecord
280
     1
102
SHADEPLOT
 70
     0
102
SHADEPLOTRESLEVEL
 70
     2
102
SHADEPLOTCUSTOMDPI
 70
   300
  0
ENDSEC
  0
EOF
