  0
SECTION
  2
HEADER
  9
$ACADVER
  1
AC1015
  9
$ACADMAINTVER
 70
    20
  9
$DWGCODEPAGE
  3
ANSI_950
  9
$INSBASE
 10
0.0
 20
0.0
 30
0.0
  9
$EXTMIN
 10
-51.94491604427696
 20
411.0610158836977
 30
-0.0095985151069726
  9
$EXTMAX
 10
188.0856650475066
 20
741.1719152980463
 30
157.2788708918957
  9
$LIMMIN
 10
0.0
 20
0.0
  9
$LIMMAX
 10
420.0
 20
297.0
  9
$ORTHOMODE
 70
     1
  9
$REGENMODE
 70
     1
  9
$FILLMODE
 70
     1
  9
$QTEXTMODE
 70
     0
  9
$MIRRTEXT
 70
     1
  9
$LTSCALE
 40
2.0
  9
$ATTMODE
 70
     1
  9
$TEXTSIZE
 40
3.0
  9
$TRACEWID
 40
1.0
  9
$TEXTSTYLE
  7
CHINESET
  9
$CLAYER
  8
0
  9
$CELTYPE
  6
ByLayer
  9
$CECOLOR
 62
   256
  9
$CELTSCALE
 40
1.0
  9
$DISPSILH
 70
     0
  9
$DIMSCALE
 40
1.0
  9
$DIMASZ
 40
3.0
  9
$DIMEXO
 40
1.0
  9
$DIMDLI
 40
10.0
  9
$DIMRND
 40
0.0
  9
$DIMDLE
 40
0.0
  9
$DIMEXE
 40
1.5
  9
$DIMTP
 40
0.1
  9
$DIMTM
 40
0.1
  9
$DIMTXT
 40
3.5
  9
$DIMCEN
 40
0.0
  9
$DIMTSZ
 40
0.0
  9
$DIMTOL
 70
     0
  9
$DIMLIM
 70
     0
  9
$DIMTIH
 70
     0
  9
$DIMTOH
 70
     0
  9
$DIMSE1
 70
     0
  9
$DIMSE2
 70
     0
  9
$DIMTAD
 70
     1
  9
$DIMZIN
 70
     8
  9
$DIMBLK
  1

  9
$DIMASO
 70
     1
  9
$DIMSHO
 70
     1
  9
$DIMPOST
  1

  9
$DIMAPOST
  1
"
  9
$DIMALT
 70
     0
  9
$DIMALTD
 70
     2
  9
$DIMALTF
 40
0.0393701
  9
$DIMLFAC
 40
1.0
  9
$DIMTOFL
 70
     1
  9
$DIMTVP
 40
0.0
  9
$DIMTIX
 70
     0
  9
$DIMSOXD
 70
     0
  9
$DIMSAH
 70
     0
  9
$DIMBLK1
  1

  9
$DIMBLK2
  1

  9
$DIMSTYLE
  2
AM_ISO
  9
$DIMCLRD
 70
   256
  9
$DIMCLRE
 70
   256
  9
$DIMCLRT
 70
   256
  9
$DIMTFAC
 40
0.6
  9
$DIMGAP
 40
0.8
  9
$DIMJUST
 70
     0
  9
$DIMSD1
 70
     0
  9
$DIMSD2
 70
     0
  9
$DIMTOLJ
 70
     0
  9
$DIMTZIN
 70
     8
  9
$DIMALTZ
 70
     0
  9
$DIMALTTZ
 70
     0
  9
$DIMUPT
 70
     0
  9
$DIMDEC
 70
     2
  9
$DIMTDEC
 70
     8
  9
$DIMALTU
 70
     2
  9
$DIMALTTD
 70
     2
  9
$DIMTXSTY
  7
CHINESET
  9
$DIMAUNIT
 70
     0
  9
$DIMADEC
 70
     0
  9
$DIMALTRND
 40
0.0
  9
$DIMAZIN
 70
     2
  9
$DIMDSEP
 70
    46
  9
$DIMATFIT
 70
     3
  9
$DIMFRAC
 70
     0
  9
$DIMLDRBLK
  1

  9
$DIMLUNIT
 70
     2
  9
$DIMLWD
 70
    -1
  9
$DIMLWE
 70
    -1
  9
$DIMTMOVE
 70
     0
  9
$LUNITS
 70
     2
  9
$LUPREC
 70
     2
  9
$SKETCHINC
 40
1.0
  9
$FILLETRAD
 40
2.5
  9
$AUNITS
 70
     0
  9
$AUPREC
 70
     0
  9
$MENU
  1
.
  9
$ELEVATION
 40
0.0
  9
$PELEVATION
 40
0.0
  9
$THICKNESS
 40
0.0
  9
$LIMCHECK
 70
     0
  9
$CHAMFERA
 40
2.5
  9
$CHAMFERB
 40
2.5
  9
$CHAMFERC
 40
20.0
  9
$CHAMFERD
 40
0.0
  9
$SKPOLY
 70
     0
  9
$TDCREATE
 40
2454250.401450915
  9
$TDUCREATE
 40
2454250.068117581
  9
$TDUPDATE
 40
2454250.608835891
  9
$TDUUPDATE
 40
2454250.275502558
  9
$TDINDWG
 40
0.2044986921
  9
$TDUSRTIMER
 40
0.2044986921
  9
$USRTIMER
 70
     1
  9
$ANGBASE
 50
0.0
  9
$ANGDIR
 70
     0
  9
$PDMODE
 70
     0
  9
$PDSIZE
 40
0.0
  9
$PLINEWID
 40
0.0
  9
$SPLFRAME
 70
     0
  9
$SPLINETYPE
 70
     6
  9
$SPLINESEGS
 70
     8
  9
$HANDSEED
  5
2A9E
  9
$SURFTAB1
 70
     6
  9
$SURFTAB2
 70
     6
  9
$SURFTYPE
 70
     6
  9
$SURFU
 70
     6
  9
$SURFV
 70
     6
  9
$UCSBASE
  2

  9
$UCSNAME
  2

  9
$UCSORG
 10
0.0
 20
0.0
 30
0.0
  9
$UCSXDIR
 10
1.0
 20
0.0
 30
0.0
  9
$UCSYDIR
 10
0.0
 20
1.0
 30
0.0
  9
$UCSORTHOREF
  2

  9
$UCSORTHOVIEW
 70
     0
  9
$UCSORGTOP
 10
0.0
 20
0.0
 30
0.0
  9
$UCSORGBOTTOM
 10
0.0
 20
0.0
 30
0.0
  9
$UCSORGLEFT
 10
0.0
 20
0.0
 30
0.0
  9
$UCSORGRIGHT
 10
0.0
 20
0.0
 30
0.0
  9
$UCSORGFRONT
 10
0.0
 20
0.0
 30
0.0
  9
$UCSORGBACK
 10
0.0
 20
0.0
 30
0.0
  9
$PUCSBASE
  2

  9
$PUCSNAME
  2

  9
$PUCSORG
 10
0.0
 20
0.0
 30
0.0
  9
$PUCSXDIR
 10
1.0
 20
0.0
 30
0.0
  9
$PUCSYDIR
 10
0.0
 20
1.0
 30
0.0
  9
$PUCSORTHOREF
  2

  9
$PUCSORTHOVIEW
 70
     0
  9
$PUCSORGTOP
 10
0.0
 20
0.0
 30
0.0
  9
$PUCSORGBOTTOM
 10
0.0
 20
0.0
 30
0.0
  9
$PUCSORGLEFT
 10
0.0
 20
0.0
 30
0.0
  9
$PUCSORGRIGHT
 10
0.0
 20
0.0
 30
0.0
  9
$PUCSORGFRONT
 10
0.0
 20
0.0
 30
0.0
  9
$PUCSORGBACK
 10
0.0
 20
0.0
 30
0.0
  9
$USERI1
 70
     0
  9
$USERI2
 70
     0
  9
$USERI3
 70
     0
  9
$USERI4
 70
     0
  9
$USERI5
 70
     0
  9
$USERR1
 40
0.0
  9
$USERR2
 40
0.0
  9
$USERR3
 40
0.0
  9
$USERR4
 40
0.0
  9
$USERR5
 40
0.0
  9
$WORLDVIEW
 70
     1
  9
$SHADEDGE
 70
     3
  9
$SHADEDIF
 70
    70
  9
$TILEMODE
 70
     1
  9
$MAXACTVP
 70
    64
  9
$PINSBASE
 10
0.0
 20
0.0
 30
0.0
  9
$PLIMCHECK
 70
     0
  9
$PEXTMIN
 10
1.000000000000000E+20
 20
1.000000000000000E+20
 30
1.000000000000000E+20
  9
$PEXTMAX
 10
-1.000000000000000E+20
 20
-1.000000000000000E+20
 30
-1.000000000000000E+20
  9
$PLIMMIN
 10
0.0
 20
0.0
  9
$PLIMMAX
 10
420.0
 20
297.0
  9
$UNITMODE
 70
     0
  9
$VISRETAIN
 70
     1
  9
$PLINEGEN
 70
     0
  9
$PSLTSCALE
 70
     1
  9
$TREEDEPTH
 70
  3020
  9
$CMLSTYLE
  2
Standard
  9
$CMLJUST
 70
     0
  9
$CMLSCALE
 40
20.0
  9
$PROXYGRAPHICS
 70
     1
  9
$MEASUREMENT
 70
     1
  9
$CELWEIGHT
370
    -1
  9
$ENDCAPS
280
     0
  9
$JOINSTYLE
280
     0
  9
$LWDISPLAY
290
     0
  9
$INSUNITS
 70
     4
  9
$HYPERLINKBASE
  1

  9
$STYLESHEET
  1
彩色出圖.ctb
  9
$XEDIT
290
     1
  9
$CEPSNTYPE
380
     0
  9
$PSTYLEMODE
290
     1
  9
$FINGERPRINTGUID
  2
{17ED4C26-C79F-4B34-9DCE-7B588AAB4804}
  9
$VERSIONGUID
  2
{59CFC09D-BAAB-4A45-9538-D41E91D91EFA}
  9
$EXTNAMES
290
     1
  9
$PSVPSCALE
 40
0.0
  9
$OLESTARTUP
290
     0
  0
ENDSEC
  0
SECTION
  2
CLASSES
  0
CLASS
  1
ACDBDICTIONARYWDFLT
  2
AcDbDictionaryWithDefault
  3
ObjectDBX Classes
 90
        0
280
     0
281
     0
  0
CLASS
  1
ACDBPLACEHOLDER
  2
AcDbPlaceHolder
  3
ObjectDBX Classes
 90
        0
280
     0
281
     0
  0
CLASS
  1
LAYOUT
  2
AcDbLayout
  3
ObjectDBX Classes
 90
        0
280
     0
281
     0
  0
CLASS
  1
ACME_DOCUMENT
  2
AcMeDbDoc
  3
AcMeServices
 90
        0
280
     0
281
     0
  0
CLASS
  1
AMGSETTINGSOBJ
  2
AmgSettingsObj
  3
"AcadM|Product Description: AutoCAD Mechanical 2000|Company: Autodesk"
 90
        0
280
     0
281
     0
  0
CLASS
  1
ACMESCOPE
  2
AcMeScope
  3
AcMeServices
 90
        0
280
     0
281
     0
  0
CLASS
  1
ACMECOMMANDHISTORY
  2
AcMeCommandHistory
  3
AcMeServices
 90
        0
280
     0
281
     0
  0
CLASS
  1
ACIMSYSVARMAN
  2
AcImSysVarManager
  3
AcMeServices
 90
        0
280
     0
281
     0
  0
CLASS
  1
ACIMREALSYSVAR
  2
AcImRealSysVar
  3
AcMeServices
 90
        0
280
     0
281
     0
  0
CLASS
  1
ACIMINTSYSVAR
  2
AcImIntSysVar
  3
AcMeServices
 90
        0
280
     0
281
     0
  0
CLASS
  1
ACMEDRAWINGMAN
  2
AcMeDrawingMan
  3
AcMeServices
 90
        0
280
     0
281
     0
  0
CLASS
  1
ACMEVIEW
  2
AcMeView
  3
AcMeServices
 90
        0
280
     0
281
     0
  0
CLASS
  1
ACDBENTITYCACHE
  2
AcMeEntityCache
  3
AcMeServices
 90
        0
280
     0
281
     0
  0
CLASS
  1
GSMANAGER
  2
AcMeGSManager
  3
AcMeServices
 90
        0
280
     0
281
     0
  0
CLASS
  1
AMDTINTERNALREACTOR
  2
AmdtInternalReactor
  3
AcMeServices
 90
        0
280
     0
281
     0
  0
CLASS
  1
ACMESTATEMGR
  2
AcMeStateMgr
  3
AcMeServices
 90
        0
280
     0
281
     0
  0
CLASS
  1
ACGREFMASTER
  2
AcGrefMaster
  3
AcAttribServices
 90
        0
280
     0
281
     0
  0
CLASS
  1
ACME_DATABASE
  2
AcMeDbDatabase
  3
AcMeServices
 90
        0
280
     0
281
     0
  0
CLASS
  1
ACRFINSADJUSTERMGR
  2
AcRfInsAdjusterMgr
  3
AcMeServices
 90
        0
280
     0
281
     0
  0
CLASS
  1
ACGREFACADMASTER
  2
AcGrefacadMaster
  3
AcGrefServices
 90
        0
280
     0
281
     0
  0
CLASS
  1
AMIMASTER
  2
AmiMaster
  3
AmiServices
 90
        0
280
     0
281
     0
  0
CLASS
  1
ACMDATADICTIONARY
  2
AcmDataDictionary
  3
"AcmSymBB|Product Description: AutoCAD Mechanical 2004 DX|Company: Autodesk"
 90
        0
280
     0
281
     0
  0
CLASS
  1
ACMDATAENTRYBLOCK
  2
AcmDataEntryBlock
  3
"AcmSymBB|Product Description: AutoCAD Mechanical 2004 DX|Company: Autodesk"
 90
        0
280
     0
281
     0
  0
CLASS
  1
ACIMSTRSYSVAR
  2
AcImStrSysVar
  3
AcMeServices
 90
        0
280
     0
281
     0
  0
CLASS
  1
ACMSTANDARDISO
  2
AcmStandardISO
  3
"Amdt_StdImp|Product Description: AutoCAD Mechanical 2004 DX|Company: Autodesk"
 90
        0
280
     0
281
     0
  0
CLASS
  1
AMGOBJPROPCFG
  2
AmgObjPropCfg
  3
"AmgLay|Product Description: AutoCAD Mechanical 2000|Company: Autodesk"
 90
        1
280
     0
281
     0
  0
CLASS
  1
AMDTEDGESTANDARDISO
  2
AmdtEdgeStdISO
  3
"Amdt_StdImp|Product Description: AutoCAD Mechanical 2004 DX|Company: Autodesk"
 90
        0
280
     0
281
     0
  0
CLASS
  1
ACMSURFSTANDARDISO
  2
AcmSurfTextStdISO
  3
"Amdt_StdImp|Product Description: AutoCAD Mechanical 2004 DX|Company: Autodesk"
 90
        0
280
     0
281
     0
  0
CLASS
  1
ACMFCFSTANDARDISO
  2
AcmFCFStdISO
  3
"Amdt_StdImp|Product Description: AutoCAD Mechanical 2004 DX|Company: Autodesk"
 90
        0
280
     0
281
     0
  0
CLASS
  1
ACMWELDSTANDARDISO
  2
AcmWeldingStdISO
  3
"Amdt_StdImp|Product Description: AutoCAD Mechanical 2004 DX|Company: Autodesk"
 90
        0
280
     0
281
     0
  0
CLASS
  1
ACMIDSTANDARDISO
  2
AcmIdStdISO
  3
"Amdt_StdImp|Product Description: AutoCAD Mechanical 2004 DX|Company: Autodesk"
 90
        0
280
     0
281
     0
  0
CLASS
  1
ACMDATUMSTANDARDISO
  2
AcmDatumStdISO
  3
"Amdt_StdImp|Product Description: AutoCAD Mechanical 2004 DX|Company: Autodesk"
 90
        0
280
     0
281
     0
  0
CLASS
  1
ACMBOMSTANDARDISO
  2
AcmBOMStdISO
  3
"Amdt_StdImp|Product Description: AutoCAD Mechanical 2004 DX|Company: Autodesk"
 90
        0
280
     0
281
     0
  0
CLASS
  1
ACMDETAILSTANDARDISO
  2
AmdtDetailSymStdISO
  3
"Amdt_StdImp|Product Description: AutoCAD Mechanical 2004 DX|Company: Autodesk"
 90
        0
280
     0
281
     0
  0
CLASS
  1
ACMSECTIONSTANDARDISO
  2
AmdtSectionSymStdISO
  3
"Amdt_StdImp|Product Description: AutoCAD Mechanical 2004 DX|Company: Autodesk"
 90
        0
280
     0
281
     0
  0
CLASS
  1
ACMCENTERLINESTANDARDISO
  2
AmdtCenterLineStdISO
  3
"Amdt_StdImp|Product Description: AutoCAD Mechanical 2004 DX|Company: Autodesk"
 90
        0
280
     0
281
     0
  0
CLASS
  1
ACMNOTESTANDARDISO
  2
AmdtNoteStdISO
  3
"Amdt_StdImp|Product Description: AutoCAD Mechanical 2004 DX|Company: Autodesk"
 90
        0
280
     0
281
     0
  0
CLASS
  1
ACAMGLAYSTD
  2
AcAmgLayStd
  3
"AcAmgLayStd|Product Description: AutoCAD Mechanical 2000|Company: Autodesk"
 90
        0
280
     0
281
     0
  0
CLASS
  1
ACAMGDIMSTD
  2
AcAmgDimStd
  3
"AcAmgDimStd|Product Description: AutoCAD Mechanical 2000|Company: Autodesk"
 90
        0
280
     0
281
     0
  0
CLASS
  1
ACAMGHOLECHARTSTDISO
  2
AcAmgHoleChartStdISO
  3
ACMSYMBB_MODULE_NAME
 90
        0
280
     0
281
     0
  0
CLASS
  1
ACAMGTITLESTD
  2
AcAmgTitleStd
  3
"TITLEAPP"
 90
        0
280
     0
281
     0
  0
CLASS
  1
LAYER_INDEX
  2
AcDbLayerIndex
  3
ObjectDBX Classes
 90
    32768
280
     0
281
     0
  0
CLASS
  1
IDBUFFER
  2
AcDbIdBuffer
  3
ObjectDBX Classes
 90
    32768
280
     0
281
     0
  0
CLASS
  1
DICTIONARYVAR
  2
AcDbDictionaryVar
  3
ObjectDBX Classes
 90
        0
280
     0
281
     0
  0
CLASS
  1
AM_DRAWING_MGR
  2
AcDmDwgMgr
  3
AcMechDwgViewMgmt
 90
        0
280
     0
281
     0
  0
CLASS
  1
AM_DWG_DOCUMENT
  2
AcDmDwgDocument
  3
AcMechDwgViewMgmt
 90
        0
280
     0
281
     0
  0
CLASS
  1
AM_DWG_SHEET
  2
AcDmSheet
  3
AcMechDwgViewMgmt
 90
        0
280
     0
281
     0
  0
CLASS
  1
AM_VIEWDIMPARMAP
  2
AcDmViewDimParMap
  3
AcMechDwgViewMgmt
 90
        0
280
     0
281
     0
  0
CLASS
  1
AM_DWGMGR_NAME
  2
AcDmDwgMgrName
  3
AcMechDwgViewMgmt
 90
        0
280
     0
281
     0
  0
CLASS
  1
AMDTMENUSTATEMGR
  2
AmdtMenuStateMgr
  3
McadcomServices
 90
        0
280
     0
281
     0
  0
CLASS
  1
AMDTMCOMMENUSTATE
  2
AmdtMcomMenuState
  3
McadcomServices
 90
        0
280
     0
281
     0
  0
CLASS
  1
MAPIAMMOUDLE
  2
MApiAmModule
  3
MApiAmServices
 90
        0
280
     0
281
     0
  0
CLASS
  1
AMDTADMENUSTATE
  2
AmdtAdMenuState
  3
DesignerServices
 90
        0
280
     0
281
     0
  0
CLASS
  1
ADAPPL
  2
AcAdAppl
  3
DesignerServices
 90
        0
280
     0
281
     0
  0
CLASS
  1
DEPMGR
  2
AcAdDepMgr
  3
DesignerServices
 90
        0
280
     0
281
     0
  0
CLASS
  1
PARAMMGR
  2
AcAdParamMgr
  3
DesignerServices
 90
        0
280
     0
281
     0
  0
CLASS
  1
PARAMSCOPE
  2
AcAdParamScope
  3
DesignerServices
 90
        0
280
     0
281
     0
  0
CLASS
  1
NAMEDAPPL
  2
AcAdNamedAppl
  3
DesignerServices
 90
        0
280
     0
281
     0
  0
CLASS
  1
AMDTDMMENUSTATE
  2
AmdtDmMenuState
  3
AcMechDwgViewMgmt
 90
        0
280
     0
281
     0
  0
CLASS
  1
AMDTAMMENUSTATE
  2
AmdtAmMenuState
  3
DesignerAssemblies
 90
        0
280
     0
281
     0
  0
CLASS
  1
ACAMPROJECT
  2
AcAmProject
  3
DesignerAssemblies
 90
        0
280
     0
281
     0
  0
CLASS
  1
ACAMGRCOMPDEF
  2
AcAmGrCompDef
  3
DesignerAssemblies
 90
        0
280
     0
281
     0
  0
CLASS
  1
ACCMCONTEXT
  2
AcCmContext
  3
DesignerAssemblies
 90
        0
280
     0
281
     0
  0
CLASS
  1
ACAMCOMPDEF
  2
AcAmCompDef
  3
DesignerAssemblies
 90
        0
280
     0
281
     0
  0
CLASS
  1
ACAMCOMPDEFMGR
  2
AcAmCompDefMgr
  3
DesignerAssemblies
 90
        0
280
     0
281
     0
  0
CLASS
  1
AMCONTEXTMGR
  2
AcAmContextMgr
  3
DesignerAssemblies
 90
        0
280
     0
281
     0
  0
CLASS
  1
ACAMCONTEXTMODELER
  2
AcAmContextModeler
  3
DesignerAssemblies
 90
        0
280
     0
281
     0
  0
CLASS
  1
ACMTHREADLINESTANDARDISO
  2
AmdtThreadLineStdISO
  3
"Amdt_StdImp|Product Description: AutoCAD Mechanical 2004 DX|Company: Autodesk"
 90
        0
280
     0
281
     0
  0
CLASS
  1
CATALOGSTATE
  2
AcAmCatalogState
  3
DesignerAssemblies
 90
        0
280
     0
281
     0
  0
CLASS
  1
ACAMGRCOMPDEFSET
  2
AcAmGrCompDefSet
  3
DesignerAssemblies
 90
        0
280
     0
281
     0
  0
CLASS
  1
AMDTBROWSERDBTAB
  2
AmdtBrowserDbTab
  3
McadcomServices
 90
        0
280
     0
281
     0
  0
CLASS
  1
CBROWSERAPPOBJECT
  2
CBrowserAppObject
  3
McadcomServices
 90
        0
280
     0
281
     0
  0
CLASS
  1
DM_PLACEHOLDER
  2
AcDmSelsetPlaceholder
  3
AcMechDwgViewMgmt
 90
        0
280
     0
281
     0
  0
CLASS
  1
TABLESTYLE
  2
AcDbTableStyle
  3
ObjectDBX Classes
 90
     2047
280
     0
281
     0
  0
CLASS
  1
VAACXREFPANELOBJECT
  2
VaAcXREFPanelObject
  3
VAAC_ADDIN
 90
    32768
280
     0
281
     0
  0
CLASS
  1
VAACIMAGEINVENTORY
  2
VaAcImageInventory
  3
VAAC_ADDIN
 90
    32768
280
     0
281
     0
  0
CLASS
  1
AMDTNOTETEMPLATEDB
  2
AmdtNoteTemplateDB
  3
AMDT_STDIMP_MODULE_NAME
 90
        0
280
     0
281
     0
  0
CLASS
  1
ACMBOM
  2
AcmBom
  3
"AcmSymBB|Product Description: AutoCAD Mechanical 2004 DX|Company: Autodesk"
 90
    32768
280
     0
281
     0
  0
CLASS
  1
AMDTFORMULAUPDATEDISPATCHER
  2
AmdtFormulaUpdateDispatcher
  3
AcMeServices
 90
        0
280
     0
281
     0
  0
CLASS
  1
ACMPARTLIST
  2
AcmPartList
  3
"AcmSymBB|Product Description: AutoCAD Mechanical 2004 DX|Company: Autodesk"
 90
    33791
280
     0
281
     1
  0
CLASS
  1
ACAMGFILTERDAT
  2
AcAmgFilterDat
  3
"AcadM|Product Description: AutoCAD Mechanical 2000|Company: Autodesk"
 90
        0
280
     0
281
     0
  0
CLASS
  1
DIMASSOC
  2
AcDbDimAssoc
  3
"AcDbDimAssoc|Product Desc:     AcDim ARX App For Dimension|Company:          Autodesk, Inc.|WEB Address:      www.autodesk.com"
 90
        0
280
     0
281
     0
  0
CLASS
  1
ACMSTANDARDANSI
  2
AcmStandardANSI
  3
"Amdt_StdImp|Product Description: AutoCAD Mechanical 2004 DX|Company: Autodesk"
 90
        0
280
     0
281
     0
  0
CLASS
  1
ACMSURFSTANDARDANSI
  2
AcmSurfTextStdANSI
  3
"Amdt_StdImp|Product Description: AutoCAD Mechanical 2004 DX|Company: Autodesk"
 90
        0
280
     0
281
     0
  0
CLASS
  1
ACMFCFSTANDARDANSI
  2
AcmFCFStdANSI
  3
"Amdt_StdImp|Product Description: AutoCAD Mechanical 2004 DX|Company: Autodesk"
 90
        0
280
     0
281
     0
  0
CLASS
  1
ACMWELDSTANDARDANSI
  2
AcmWeldingStdANSI
  3
"Amdt_StdImp|Product Description: AutoCAD Mechanical 2004 DX|Company: Autodesk"
 90
        0
280
     0
281
     0
  0
CLASS
  1
ACMIDSTANDARDANSI
  2
AcmIdStdANSI
  3
"Amdt_StdImp|Product Description: AutoCAD Mechanical 2004 DX|Company: Autodesk"
 90
        0
280
     0
281
     0
  0
CLASS
  1
ACMDATUMSTANDARDANSI
  2
AcmDatumStdANSI
  3
"Amdt_StdImp|Product Description: AutoCAD Mechanical 2004 DX|Company: Autodesk"
 90
        0
280
     0
281
     0
  0
CLASS
  1
ACMBOMSTANDARDANSI
  2
AcmBOMStdANSI
  3
"Amdt_StdImp|Product Description: AutoCAD Mechanical 2004 DX|Company: Autodesk"
 90
        0
280
     0
281
     0
  0
CLASS
  1
ACMDETAILSTANDARDANSI
  2
AmdtDetailSymStdANSI
  3
"Amdt_StdImp|Product Description: AutoCAD Mechanical 2004 DX|Company: Autodesk"
 90
        0
280
     0
281
     0
  0
CLASS
  1
ACMSECTIONSTANDARDANSI
  2
AmdtSectionSymStdANSI
  3
"Amdt_StdImp|Product Description: AutoCAD Mechanical 2004 DX|Company: Autodesk"
 90
        0
280
     0
281
     0
  0
CLASS
  1
ACMCENTERLINESTANDARDANSI
  2
AmdtCenterLineStdANSI
  3
"Amdt_StdImp|Product Description: AutoCAD Mechanical 2004 DX|Company: Autodesk"
 90
        0
280
     0
281
     0
  0
CLASS
  1
ACMTHREADLINESTANDARDANSI
  2
AmdtThreadLineStdANSI
  3
"Amdt_StdImp|Product Description: AutoCAD Mechanical 2004 DX|Company: Autodesk"
 90
        0
280
     0
281
     0
  0
CLASS
  1
ACMNOTESTANDARDANSI
  2
AmdtNoteStdANSI
  3
"Amdt_StdImp|Product Description: AutoCAD Mechanical 2004 DX|Company: Autodesk"
 90
        0
280
     0
281
     0
  0
CLASS
  1
ACAMGHOLECHARTSTDANSI
  2
AcAmgHoleChartStdANSI
  3
ACMSYMBB_MODULE_NAME
 90
        0
280
     0
281
     0
  0
CLASS
  1
SORTENTSTABLE
  2
AcDbSortentsTable
  3
ObjectDBX Classes
 90
        0
280
     0
281
     0
  0
CLASS
  1
STDPART2D
  2
AmgStdPart
  3
"AmgStdPart|Product Description: AutoCAD Mechanical 2000|Company: Autodesk"
 90
     1023
280
     0
281
     1
  0
CLASS
  1
ACAMSTDPCOMPDEF
  2
AcAmStdpCompDef
  3
DesignerAssemblies
 90
        0
280
     0
281
     0
  0
CLASS
  1
ACRFATTGENMGR
  2
AcRfAttGeneralMgr
  3
AcAttribServices
 90
        0
280
     0
281
     0
  0
CLASS
  1
ACRFOBJATTMGR
  2
AcRfObjAttGroupMgr
  3
AcAttribServices
 90
        0
280
     0
281
     0
  0
CLASS
  1
ACRFMCADAPIATTHOLDER
  2
AcRfMCADAPIAttHolder
  3
AcAttribServices
 90
        0
280
     0
281
     0
  0
CLASS
  1
AMDTSYSATTR
  2
AmdtSystemAttribute
  3
AcAttribServices
 90
        0
280
     0
281
     0
  0
CLASS
  1
ACAMCOMP
  2
AcAmComp
  3
DesignerAssemblies
 90
        0
280
     0
281
     0
  0
CLASS
  1
AC_AM_STDP_VIEW_DEF
  2
AcAmStdpViewDef
  3
DesignerAssemblies
 90
        0
280
     0
281
     0
  0
CLASS
  1
AC_AM_MVD_DEP_MGR
  2
AcAmMVDdepMgr
  3
DesignerAssemblies
 90
        0
280
     0
281
     0
  0
CLASS
  1
AC_AM_MASTER_VIEW_DEF
  2
AcAmMasterViewDef
  3
DesignerAssemblies
 90
        0
280
     0
281
     0
  0
CLASS
  1
AC_AM_DIRTY_NODES
  2
AcAmDirtyNodes
  3
DesignerAssemblies
 90
        0
280
     0
281
     0
  0
CLASS
  1
AC_AM_MAPPER_CACHE
  2
AcAmMapperCache
  3
DesignerAssemblies
 90
        0
280
     0
281
     0
  0
CLASS
  1
ACAMMVDBACKUPOBJECT
  2
AcAmMVDBackupObject
  3
DesignerAssemblies
 90
        0
280
     0
281
     0
  0
CLASS
  1
AC_AM_COMP_VIEW_INST
  2
AcAmCompView
  3
DesignerAssemblies
 90
        0
280
     0
281
     0
  0
CLASS
  1
AC_AM_2D_XREF_MGR
  2
AcAmXrefMgr2d
  3
DesignerAssemblies
 90
        0
280
     0
281
     0
  0
CLASS
  1
AMDTNOTE
  2
AmdtNote
  3
"AcmSymBB|Product Description: AutoCAD Mechanical 2004 DX|Company: Autodesk"
 90
     1023
280
     0
281
     1
  0
ENDSEC
  0
SECTION
  2
TABLES
  0
TABLE
  2
VPORT
  5
8
330
0
100
AcDbSymbolTable
 70
    18
  0
VPORT
  5
2A95
330
8
100
AcDbSymbolTableRecord
100
AcDbViewportTableRecord
  2
*Active
 70
     0
 10
0.0
 20
0.0
 11
1.0
 21
1.0
 12
68.07037450161485
 22
576.1164655908721
 13
0.0
 23
0.0
 14
2.5
 24
2.5
 15
10.0
 25
10.0
 16
0.0
 26
0.0
 36
1.0
 17
0.0
 27
0.0
 37
0.0
 40
332.7983694231491
 41
1.661684782608695
 42
50.0
 43
0.0
 44
0.0
 50
0.0
 51
0.0
 71
     0
 72
   100
 73
     1
 74
     3
 75
     0
 76
     0
 77
     0
 78
     0
281
     0
 65
     1
110
0.0
120
0.0
130
0.0
111
1.0
121
0.0
131
0.0
112
0.0
122
1.0
132
0.0
 79
     0
146
0.0
  0
ENDTAB
  0
TABLE
  2
LTYPE
  5
5
330
0
100
AcDbSymbolTable
 70
    16
  0
LTYPE
  5
14
330
5
100
AcDbSymbolTableRecord
100
AcDbLinetypeTableRecord
  2
ByBlock
 70
     0
  3

 72
    65
 73
     0
 40
0.0
  0
LTYPE
  5
15
330
5
100
AcDbSymbolTableRecord
100
AcDbLinetypeTableRecord
  2
ByLayer
 70
     0
  3

 72
    65
 73
     0
 40
0.0
  0
LTYPE
  5
16
330
5
100
AcDbSymbolTableRecord
100
AcDbLinetypeTableRecord
  2
Continuous
 70
     0
  3
Solid line
 72
    65
 73
     0
 40
0.0
  0
LTYPE
  5
64
330
5
100
AcDbSymbolTableRecord
100
AcDbLinetypeTableRecord
  2
AM_ISO02W050
 70
     0
  3
__ __ __ __ __ __ __ __ __ __ __ __ __ __ __
 72
    65
 73
     2
 40
7.5
 49
6.0
 74
     0
 49
-1.5
 74
     0
  0
LTYPE
  5
65
330
5
100
AcDbSymbolTableRecord
100
AcDbLinetypeTableRecord
  2
AM_ISO08W050
 70
     0
  3
____ . ____ . ____ . ____ . ____ . ____ . ____
 72
    65
 73
     4
 40
18.0
 49
12.0
 74
     0
 49
-1.5
 74
     0
 49
3.0
 74
     0
 49
-1.5
 74
     0
  0
LTYPE
  5
66
330
5
100
AcDbSymbolTableRecord
100
AcDbLinetypeTableRecord
  2
AM_ISO09W050
 70
     0
  3
_____ . . _____ . . _____ . . ____ .. ____
 72
    65
 73
     6
 40
22.5
 49
12.0
 74
     0
 49
-1.5
 74
     0
 49
3.0
 74
     0
 49
-1.5
 74
     0
 49
3.0
 74
     0
 49
-1.5
 74
     0
  0
LTYPE
  5
67
330
5
100
AcDbSymbolTableRecord
100
AcDbLinetypeTableRecord
  2
Amconstr
 70
     0
  3
_______________________
 72
    65
 73
     2
 40
9999.0
 49
9999.0
 74
     0
 49
0.0
 74
     0
  0
LTYPE
  5
68
330
5
100
AcDbSymbolTableRecord
100
AcDbLinetypeTableRecord
  2
AM_ISO08W050x2
 70
     0
  3
__ . __ . __ . __ . __ . __
 72
    65
 73
     4
 40
9.0
 49
6.0
 74
     0
 49
-0.75
 74
     0
 49
1.5
 74
     0
 49
-0.75
 74
     0
  0
LTYPE
  5
69
330
5
100
AcDbSymbolTableRecord
100
AcDbLinetypeTableRecord
  2
AM_ISO02W050x2
 70
     0
  3
 _ _ _ _ _ _ _ _ _ _ _ _
 72
    65
 73
     2
 40
3.75
 49
3.0
 74
     0
 49
-0.75
 74
     0
  0
LTYPE
  5
6C
330
5
100
AcDbSymbolTableRecord
100
AcDbLinetypeTableRecord
  2
Amzigzag
 70
     0
  3
/\/-/\/-/\/-/\/-/\/-/\/
 72
    65
 73
     2
 40
11.0001
 49
0.0001
 74
     4
 75
   135
340
6B
 46
0.04
 50
0.0
 44
0.0
 45
0.0
 49
-11.0
 74
     0
  0
LTYPE
  5
7A
330
5
100
AcDbSymbolTableRecord
100
AcDbLinetypeTableRecord
  2
ACISOWELD
 70
     0
  3
_ _ _ _ _
 72
    65
 73
     2
 40
2.0
 49
2.0
 74
     0
 49
-1.0
 74
     0
  0
LTYPE
  5
7B
330
5
100
AcDbSymbolTableRecord
100
AcDbLinetypeTableRecord
  2
ACISOTGB
 70
     0
  3
__ . . __ . .
 72
    65
 73
     6
 40
9.0
 49
4.0
 74
     0
 49
-1.0
 74
     0
 49
1.0
 74
     0
 49
-1.0
 74
     0
 49
1.0
 74
     0
 49
-1.0
 74
     0
  0
LTYPE
  5
7C
330
5
100
AcDbSymbolTableRecord
100
AcDbLinetypeTableRecord
  2
ACISOTGL
 70
     0
  3
_ _ _ _ _
 72
    65
 73
     2
 40
3.0
 49
2.0
 74
     0
 49
-1.0
 74
     0
  0
LTYPE
  5
7E
330
5
100
AcDbSymbolTableRecord
100
AcDbLinetypeTableRecord
  2
CENTER
 70
     0
  3
__ . __
 72
    65
 73
     4
 40
7.0
 49
4.0
 74
     0
 49
-1.0
 74
     0
 49
1.0
 74
     0
 49
-1.0
 74
     0
  0
LTYPE
  5
D8
330
5
100
AcDbSymbolTableRecord
100
AcDbLinetypeTableRecord
  2
HIDDEN
 70
     0
  3
Hidden __ __ __ __ __ __ __ __ __ __ __ __ __ _
 72
    65
 73
     2
 40
9.524999999999998
 49
6.349999999999999
 74
     0
 49
-3.174999999999999
 74
     0
  0
LTYPE
  5
D9
330
5
100
AcDbSymbolTableRecord
100
AcDbLinetypeTableRecord
  2
PHANTOM2
 70
     0
  3
Phantom (.5x) ___ _ _ ___ _ _ ___ _ _ ___ _ _
 72
    65
 73
     6
 40
31.75
 49
15.875
 74
     0
 49
-3.174999999999999
 74
     0
 49
3.174999999999999
 74
     0
 49
-3.174999999999999
 74
     0
 49
3.174999999999999
 74
     0
 49
-3.174999999999999
 74
     0
  0
LTYPE
  5
C8B
330
5
100
AcDbSymbolTableRecord
100
AcDbLinetypeTableRecord
  2
ACANSTGB
 70
     0
  3
__ . . __ . .
 72
    65
 73
     6
 40
0.35433070866
 49
0.15748031496
 74
     0
 49
-0.03937007874
 74
     0
 49
0.03937007874
 74
     0
 49
-0.03937007874
 74
     0
 49
0.03937007874
 74
     0
 49
-0.03937007874
 74
     0
  0
LTYPE
  5
C8C
330
5
100
AcDbSymbolTableRecord
100
AcDbLinetypeTableRecord
  2
ACANSTGL
 70
     0
  3
_ _ _ _ _
 72
    65
 73
     2
 40
0.11811023622
 49
0.07874015748
 74
     0
 49
-0.03937007874
 74
     0
  0
ENDTAB
  0
TABLE
  2
LAYER
  5
2
102
{ACAD_XDICTIONARY
360
3F9
102
}
330
0
100
AcDbSymbolTable
 70
     9
  0
LAYER
  5
10
330
2
100
AcDbSymbolTableRecord
100
AcDbLayerTableRecord
  2
0
 70
     0
 62
     7
  6
Continuous
370
    -3
390
F
  0
LAYER
  5
8CB
330
2
100
AcDbSymbolTableRecord
100
AcDbLayerTableRecord
  2
AM_5
 70
     0
 62
     5
  6
Continuous
370
    50
390
F
  0
LAYER
  5
939
330
2
100
AcDbSymbolTableRecord
100
AcDbLayerTableRecord
  2
Defpoints
 70
     0
 62
     7
  6
Continuous
290
     0
370
    -3
390
F
  0
LAYER
  5
C8D
330
2
100
AcDbSymbolTableRecord
100
AcDbLayerTableRecord
  2
AM_VIS
 70
     0
 62
     7
  6
Continuous
370
    50
390
F
  0
LAYER
  5
C8F
330
2
100
AcDbSymbolTableRecord
100
AcDbLayerTableRecord
  2
AM_7
 70
     0
 62
     1
  6
CENTER
370
    25
390
F
  0
LAYER
  5
C90
330
2
100
AcDbSymbolTableRecord
100
AcDbLayerTableRecord
  2
AM_4
 70
     0
 62
     3
  6
Continuous
370
    25
390
F
  0
LAYER
  5
13D7
330
2
100
AcDbSymbolTableRecord
100
AcDbLayerTableRecord
  2
AM_0
 70
     0
 62
     7
  6
Continuous
370
    50
390
F
  0
LAYER
  5
28C2
330
2
100
AcDbSymbolTableRecord
100
AcDbLayerTableRecord
  2
LOGO
 70
     0
 62
     7
  6
Continuous
370
    -3
390
F
  0
LAYER
  5
2A3D
330
2
100
AcDbSymbolTableRecord
100
AcDbLayerTableRecord
  2
AM_9
 70
     0
 62
  -253
  6
Continuous
370
     0
390
F
  0
ENDTAB
  0
TABLE
  2
STYLE
  5
3
330
0
100
AcDbSymbolTable
 70
     8
  0
STYLE
  5
11
330
3
100
AcDbSymbolTableRecord
100
AcDbTextStyleTableRecord
  2
STANDARD
 70
     0
 40
0.0
 41
1.0
 50
0.0
 71
     0
 42
3.0
  3
ISOCP.SHX
  4
CHINESET.SHX
  0
STYLE
  5
6B
330
3
100
AcDbSymbolTableRecord
100
AcDbTextStyleTableRecord
  2

 70
     1
 40
0.0
 41
1.0
 50
0.0
 71
     0
 42
2.5
  3
ltypeshp.shx
  4

  0
STYLE
  5
6D
330
3
100
AcDbSymbolTableRecord
100
AcDbTextStyleTableRecord
  2
ACISOTS
 70
     0
 40
1.0
 41
1.0
 50
0.0
 71
     0
 42
1.0
  3
isocp.shx
  4
chineset.shx
  0
STYLE
  5
79
330
3
100
AcDbSymbolTableRecord
100
AcDbTextStyleTableRecord
  2
ACISOGDT
 70
     0
 40
0.0
 41
1.0
 50
0.0
 71
     0
 42
2.5
  3
amgdt.shx
  4
chineset.shx
  0
STYLE
  5
60C
330
3
100
AcDbSymbolTableRecord
100
AcDbTextStyleTableRecord
  2
CHINESET
 70
     0
 40
0.0
 41
0.75
 50
0.0
 71
     0
 42
3.0
  3
simplex.shx
  4
CHINESET.SHX
  0
STYLE
  5
C92
330
3
100
AcDbSymbolTableRecord
100
AcDbTextStyleTableRecord
  2
ACANSTS
 70
     0
 40
1.0
 41
1.0
 50
0.0
 71
     0
 42
2.5
  3
romans.shx
  4
chineset.shx
  0
STYLE
  5
C93
330
3
100
AcDbSymbolTableRecord
100
AcDbTextStyleTableRecord
  2
ACANSGDT
 70
     0
 40
0.0
 41
1.0
 50
0.0
 71
     0
 42
2.5
  3
amgdtans.shx
  4

  0
ENDTAB
  0
TABLE
  2
VIEW
  5
6
330
0
100
AcDbSymbolTable
 70
     0
  0
ENDTAB
  0
TABLE
  2
UCS
  5
7
330
0
100
AcDbSymbolTable
 70
     0
  0
ENDTAB
  0
TABLE
  2
APPID
  5
9
330
0
100
AcDbSymbolTable
 70
    31
  0
APPID
  5
12
330
9
100
AcDbSymbolTableRecord
100
AcDbRegAppTableRecord
  2
ACAD
 70
     0
  0
APPID
  5
46
330
9
100
AcDbSymbolTableRecord
100
AcDbRegAppTableRecord
  2
MCAD_NO_VIS
 70
     0
  0
APPID
  5
47
330
9
100
AcDbSymbolTableRecord
100
AcDbRegAppTableRecord
  2
ACAD_TEMP_GRAPHIC
 70
     0
  0
APPID
  5
58
330
9
100
AcDbSymbolTableRecord
100
AcDbRegAppTableRecord
  2
ACATTRIBSERVICES
 70
     0
  0
APPID
  5
EE
330
9
100
AcDbSymbolTableRecord
100
AcDbRegAppTableRecord
  2
AD_DRAW
 70
     0
  0
APPID
  5
10C
330
9
100
AcDbSymbolTableRecord
100
AcDbRegAppTableRecord
  2
DESIGNERASSEMBLIES
 70
     0
  0
APPID
  5
111
330
9
100
AcDbSymbolTableRecord
100
AcDbRegAppTableRecord
  2
ACADM_DIM_EDIT
 70
     0
  0
APPID
  5
112
330
9
100
AcDbSymbolTableRecord
100
AcDbRegAppTableRecord
  2
AMDT_DM_ADJ
 70
     0
  0
APPID
  5
22C
330
9
100
AcDbSymbolTableRecord
100
AcDbRegAppTableRecord
  2
ACAD_DSTYLE_DIMTEXT_FILL
 70
     0
  0
APPID
  5
452
330
9
100
AcDbSymbolTableRecord
100
AcDbRegAppTableRecord
  2
GENIUS_GENOENT_13
 70
     0
  0
APPID
  5
453
330
9
100
AcDbSymbolTableRecord
100
AcDbRegAppTableRecord
  2
GENIUS_GENOBJ-N-CRS_13
 70
     0
  0
APPID
  5
454
330
9
100
AcDbSymbolTableRecord
100
AcDbRegAppTableRecord
  2
GENIUS_GENOLIS_13
 70
     0
  0
APPID
  5
455
330
9
100
AcDbSymbolTableRecord
100
AcDbRegAppTableRecord
  2
GENIUS_GENODEF_13
 70
     0
  0
APPID
  5
456
330
9
100
AcDbSymbolTableRecord
100
AcDbRegAppTableRecord
  2
GENIUS_GENOREF_13
 70
     0
  0
APPID
  5
6F3
330
9
100
AcDbSymbolTableRecord
100
AcDbRegAppTableRecord
  2
ACAD_PSEXT
 70
     0
  0
APPID
  5
808
330
9
100
AcDbSymbolTableRecord
100
AcDbRegAppTableRecord
  2
GENIUS_GENDTOL_13
 70
     0
  0
APPID
  5
FD3
330
9
100
AcDbSymbolTableRecord
100
AcDbRegAppTableRecord
  2
GENIUS_GENOBJ-N-CEN_13
 70
     0
  0
APPID
  5
FD4
330
9
100
AcDbSymbolTableRecord
100
AcDbRegAppTableRecord
  2
GENIUS_GENCEN_19
 70
     0
  0
APPID
  5
13DE
330
9
100
AcDbSymbolTableRecord
100
AcDbRegAppTableRecord
  2
GEVID1180409223
 70
     0
  0
APPID
  5
13DF
330
9
100
AcDbSymbolTableRecord
100
AcDbRegAppTableRecord
  2
GEVDC
 70
     0
  0
APPID
  5
13E0
330
9
100
AcDbSymbolTableRecord
100
AcDbRegAppTableRecord
  2
GEVRADREF
 70
     0
  0
APPID
  5
13E9
330
9
100
AcDbSymbolTableRecord
100
AcDbRegAppTableRecord
  2
AMG_2DHIDE
 70
     0
  0
APPID
  5
13EA
330
9
100
AcDbSymbolTableRecord
100
AcDbRegAppTableRecord
  2
AMG_2DSTRUCT_BTR
 70
     0
  0
APPID
  5
13FB
330
9
100
AcDbSymbolTableRecord
100
AcDbRegAppTableRecord
  2
ACADM_2DVIEW_IGN_NOTIFY
 70
     0
  0
APPID
  5
1437
330
9
100
AcDbSymbolTableRecord
100
AcDbRegAppTableRecord
  2
GEVID1180409224
 70
     0
  0
APPID
  5
1E57
330
9
100
AcDbSymbolTableRecord
100
AcDbRegAppTableRecord
  2
GENIUS_GENOBJ-N-HTC_13
 70
     0
  0
APPID
  5
1E58
330
9
100
AcDbSymbolTableRecord
100
AcDbRegAppTableRecord
  2
GENIUS_GENHATCH_13
 70
     0
  0
APPID
  5
2868
330
9
100
AcDbSymbolTableRecord
100
AcDbRegAppTableRecord
  2
AcAecLayerStandard
 70
     0
  0
APPID
  5
28C3
330
9
100
AcDbSymbolTableRecord
100
AcDbRegAppTableRecord
  2
GENIUS_GENREC_14
 70
     0
  0
APPID
  5
28C4
330
9
100
AcDbSymbolTableRecord
100
AcDbRegAppTableRecord
  2
GENIUS_GENOBJ-N-REC_13
 70
     0
  0
APPID
  5
2A2A
330
9
100
AcDbSymbolTableRecord
100
AcDbRegAppTableRecord
  2
GEVID1180409225
 70
     0
  0
ENDTAB
  0
TABLE
  2
DIMSTYLE
  5
A
330
0
100
AcDbSymbolTable
 70
    15
100
AcDbDimStyleTable
 71
     3
340
81
340
8B
340
86
  0
DIMSTYLE
105
81
330
A
100
AcDbSymbolTableRecord
100
AcDbDimStyleTableRecord
  2
AM_ISO
 70
     0
  4
"
 41
3.0
 42
1.0
 43
10.0
 44
1.5
 47
0.1
 48
0.1
 73
     0
 74
     0
 77
     1
 78
     8
 79
     2
140
3.5
141
0.0
143
0.0393701
146
0.6
147
0.8
172
     1
176
   256
177
   256
178
   256
271
     2
272
     2
283
     0
284
     8
340
60C
371
    -1
372
    -1
  0
DIMSTYLE
105
82
102
{ACAD_REACTORS
330
1909
330
1A8D
102
}
330
A
100
AcDbSymbolTableRecord
100
AcDbDimStyleTableRecord
  2
AM_ISO$3
 70
     0
  4
"
 41
3.0
 42
1.0
 43
10.0
 44
1.5
 47
0.1
 48
0.1
 73
     0
 77
     1
 78
     8
 79
     2
140
3.5
141
0.0
143
0.0393701
146
0.6
147
0.8
176
   256
177
   256
178
   256
271
     2
272
     2
283
     0
284
     8
288
     1
289
     0
340
60C
371
    -1
372
    -1
  0
DIMSTYLE
105
83
330
A
100
AcDbSymbolTableRecord
100
AcDbDimStyleTableRecord
  2
AM_ISO$4
 70
     0
  4
"
 41
3.0
 42
1.0
 43
10.0
 44
1.5
 47
0.1
 48
0.1
 73
     0
 77
     1
 78
     8
 79
     2
140
3.5
141
0.0
143
0.0393701
146
0.6
147
0.8
176
   256
177
   256
178
   256
271
     2
272
     2
283
     0
284
     8
288
     1
289
     0
340
60C
371
    -1
372
    -1
  0
DIMSTYLE
105
84
330
A
100
AcDbSymbolTableRecord
100
AcDbDimStyleTableRecord
  2
AM_ISO$6
 70
     0
  4
"
 41
3.0
 42
1.0
 43
10.0
 44
1.5
 47
0.1
 48
0.1
 73
     0
 74
     0
 78
     8
 79
     2
140
3.5
141
0.0
143
0.0393701
146
0.6
147
0.8
172
     1
176
   256
177
   256
178
   256
271
     2
272
     2
283
     0
284
     8
340
60C
371
    -1
372
    -1
  0
DIMSTYLE
105
85
330
A
100
AcDbSymbolTableRecord
100
AcDbDimStyleTableRecord
  2
AM_ISO$7
 70
     0
  4
"
 41
3.0
 42
1.0
 43
10.0
 44
1.5
 47
0.1
 48
0.1
 73
     0
 74
     0
 77
     1
 78
     8
 79
     2
140
5.0
141
0.0
143
0.0393701
146
0.6
147
0.8
172
     1
176
   256
177
   256
178
   256
271
     2
272
     2
283
     0
284
     8
340
60C
371
    -1
372
    -1
  0
DIMSTYLE
105
86
330
A
100
AcDbSymbolTableRecord
100
AcDbDimStyleTableRecord
  2
AM_ISO$SF
 70
     0
  4
"
 41
2.5
 42
1.0
 43
10.0
 44
1.0
 47
0.1
 48
0.1
 73
     0
 74
     0
 75
     1
 76
     1
 77
     1
 78
     8
 79
     2
140
3.5
141
0.0
143
0.0393701
146
0.71
147
1.5
172
     1
176
   256
177
   256
178
     2
271
     2
272
     3
274
     4
283
     0
284
     8
340
11
371
    -1
372
    -1
  0
DIMSTYLE
105
8B
330
A
100
AcDbSymbolTableRecord
100
AcDbDimStyleTableRecord
  2
AM_ISO$SH
 70
     0
  4
"
 41
2.5
 42
1.0
 43
10.0
 44
1.0
 47
0.1
 48
0.1
 73
     0
 74
     0
 75
     1
 76
     1
 77
     1
 78
     8
 79
     2
140
3.5
141
0.0
143
0.0393701
144
2.0
146
0.71
147
1.5
172
     1
173
     1
176
   256
177
   256
178
     2
271
     2
272
     3
274
     4
283
     0
284
     8
340
11
343
87
371
    -1
372
    -1
  0
DIMSTYLE
105
40B
102
{ACAD_REACTORS
330
1C38
330
1996
330
1B64
330
1970
330
18BF
330
1833
330
1803
330
1870
330
173D
330
1A16
330
19EC
330
1B1C
330
1ABE
330
23B6
330
271D
102
}
330
A
100
AcDbSymbolTableRecord
100
AcDbDimStyleTableRecord
  2
AM_ISO$0
 70
     0
  4
"
 41
3.0
 42
1.0
 43
10.0
 44
1.5
 47
0.1
 48
0.1
 73
     0
 74
     0
 77
     1
 78
     8
 79
     2
140
3.5
141
0.0
143
0.0393701
146
0.6
147
0.8
172
     1
176
   256
177
   256
178
   256
271
     2
272
     2
283
     0
284
     8
340
60C
371
    -1
372
    -1
  0
DIMSTYLE
105
C95
330
A
100
AcDbSymbolTableRecord
100
AcDbDimStyleTableRecord
  2
AM_ANSI
 70
     0
  4
mm
 40
0.5
 41
0.1
 42
0.05
 43
0.5
 44
0.1
 47
0.1
 48
0.1
 78
     7
 79
     2
140
0.12
141
0.0
146
0.71
147
0.06
176
   256
177
   256
178
     2
274
     4
284
     7
340
11
371
    -1
372
    -1
  0
DIMSTYLE
105
C96
330
A
100
AcDbSymbolTableRecord
100
AcDbDimStyleTableRecord
  2
AM_ANSI$3
 70
     0
  4
mm
 40
0.5
 41
0.1
 42
0.05
 43
0.5
 44
0.1
 47
0.1
 48
0.1
 78
     7
 79
     2
140
0.12
141
0.0
146
0.71
147
0.06
176
   256
177
   256
178
     2
274
     4
284
     7
288
     1
289
     0
340
11
371
    -1
372
    -1
  0
DIMSTYLE
105
C97
330
A
100
AcDbSymbolTableRecord
100
AcDbDimStyleTableRecord
  2
AM_ANSI$4
 70
     0
  4
mm
 40
0.5
 41
0.1
 42
0.05
 43
0.5
 44
0.1
 47
0.1
 48
0.1
 78
     7
 79
     2
140
0.12
141
0.0
146
0.71
147
0.06
176
   256
177
   256
178
     2
274
     4
284
     7
288
     1
289
     0
340
11
371
    -1
372
    -1
  0
DIMSTYLE
105
C98
330
A
100
AcDbSymbolTableRecord
100
AcDbDimStyleTableRecord
  2
AM_ANSI$7
 70
     0
  4
mm
 40
0.5
 41
0.1
 42
0.05
 43
0.5
 44
0.1
 47
0.1
 48
0.1
 78
     7
 79
     2
140
0.24
141
0.0
146
0.71
147
0.06
176
   256
177
   256
178
     2
274
     4
284
     7
340
11
371
    -1
372
    -1
  0
DIMSTYLE
105
C99
330
A
100
AcDbSymbolTableRecord
100
AcDbDimStyleTableRecord
  2
AM_ANSI$SF
 70
     0
  4
mm
 40
0.5
 41
0.1
 42
0.05
 43
0.5
 44
0.1
 47
0.1
 48
0.1
 75
     1
 76
     1
 78
     7
 79
     2
140
0.12
141
0.0
146
0.71
147
0.06
176
   256
177
   256
178
     2
274
     4
284
     7
340
11
371
    -1
372
    -1
  0
DIMSTYLE
105
C9A
330
A
100
AcDbSymbolTableRecord
100
AcDbDimStyleTableRecord
  2
AM_ANSI$SH
 70
     0
  4
mm
 40
0.5
 41
0.1
 42
0.05
 43
0.5
 44
0.1
 47
0.1
 48
0.1
 75
     1
 76
     1
 78
     7
 79
     2
140
0.12
141
0.0
146
0.71
147
0.06
173
     1
176
   256
177
   256
178
     2
274
     4
284
     7
340
11
343
87
371
    -1
372
    -1
  0
ENDTAB
  0
TABLE
  2
BLOCK_RECORD
  5
1
330
0
100
AcDbSymbolTable
 70
    27
  0
BLOCK_RECORD
  5
1F
102
{ACAD_XDICTIONARY
360
8F
102
}
330
1
100
AcDbSymbolTableRecord
100
AcDbBlockTableRecord
  2
*Model_Space
340
22
  0
BLOCK_RECORD
  5
1B
330
1
100
AcDbSymbolTableRecord
100
AcDbBlockTableRecord
  2
*Paper_Space
340
1E
  0
BLOCK_RECORD
  5
23
330
1
100
AcDbSymbolTableRecord
100
AcDbBlockTableRecord
  2
*Paper_Space0
340
26
  0
BLOCK_RECORD
  5
87
330
1
100
AcDbSymbolTableRecord
100
AcDbBlockTableRecord
  2
GENAXEH
340
0
  0
BLOCK_RECORD
  5
13FF
330
1
100
AcDbSymbolTableRecord
100
AcDbBlockTableRecord
  2
*U4
340
0
  0
BLOCK_RECORD
  5
173E
330
1
100
AcDbSymbolTableRecord
100
AcDbBlockTableRecord
  2
*D5
340
0
  0
BLOCK_RECORD
  5
1804
330
1
100
AcDbSymbolTableRecord
100
AcDbBlockTableRecord
  2
*D6
340
0
  0
BLOCK_RECORD
  5
1834
330
1
100
AcDbSymbolTableRecord
100
AcDbBlockTableRecord
  2
*D7
340
0
  0
BLOCK_RECORD
  5
1871
330
1
100
AcDbSymbolTableRecord
100
AcDbBlockTableRecord
  2
*D8
340
0
  0
BLOCK_RECORD
  5
18C0
330
1
100
AcDbSymbolTableRecord
100
AcDbBlockTableRecord
  2
*D9
340
0
  0
BLOCK_RECORD
  5
190A
330
1
100
AcDbSymbolTableRecord
100
AcDbBlockTableRecord
  2
*D10
340
0
  0
BLOCK_RECORD
  5
1971
330
1
100
AcDbSymbolTableRecord
100
AcDbBlockTableRecord
  2
*D11
340
0
  0
BLOCK_RECORD
  5
1997
330
1
100
AcDbSymbolTableRecord
100
AcDbBlockTableRecord
  2
*D12
340
0
  0
BLOCK_RECORD
  5
19ED
330
1
100
AcDbSymbolTableRecord
100
AcDbBlockTableRecord
  2
*D13
340
0
  0
BLOCK_RECORD
  5
1A17
330
1
100
AcDbSymbolTableRecord
100
AcDbBlockTableRecord
  2
*D14
340
0
  0
BLOCK_RECORD
  5
1A8E
330
1
100
AcDbSymbolTableRecord
100
AcDbBlockTableRecord
  2
*D15
340
0
  0
BLOCK_RECORD
  5
1ABF
330
1
100
AcDbSymbolTableRecord
100
AcDbBlockTableRecord
  2
*D16
340
0
  0
BLOCK_RECORD
  5
1B1D
330
1
100
AcDbSymbolTableRecord
100
AcDbBlockTableRecord
  2
*D17
340
0
  0
BLOCK_RECORD
  5
1B65
330
1
100
AcDbSymbolTableRecord
100
AcDbBlockTableRecord
  2
*D18
340
0
  0
BLOCK_RECORD
  5
1C39
330
1
100
AcDbSymbolTableRecord
100
AcDbBlockTableRecord
  2
*D19
340
0
  0
BLOCK_RECORD
  5
23B7
330
1
100
AcDbSymbolTableRecord
100
AcDbBlockTableRecord
  2
*D20
340
0
  0
BLOCK_RECORD
  5
271E
330
1
100
AcDbSymbolTableRecord
100
AcDbBlockTableRecord
  2
*D21
340
0
  0
BLOCK_RECORD
  5
2A84
330
1
100
AcDbSymbolTableRecord
100
AcDbBlockTableRecord
  2
*S25
340
0
  0
BLOCK_RECORD
  5
2A8C
330
1
100
AcDbSymbolTableRecord
100
AcDbBlockTableRecord
  2
*S26
340
0
  0
ENDTAB
  0
ENDSEC
  0
SECTION
  2
BLOCKS
  0
BLOCK
  5
20
330
1F
100
AcDbEntity
  8
0
100
AcDbBlockBegin
  2
*Model_Space
 70
     0
 10
0.0
 20
0.0
 30
0.0
  3
*Model_Space
  1

  0
ENDBLK
  5
21
330
1F
100
AcDbEntity
  8
0
100
AcDbBlockEnd
  0
BLOCK
  5
1C
330
1B
100
AcDbEntity
 67
     1
  8
0
100
AcDbBlockBegin
  2
*Paper_Space
 70
     0
 10
0.0
 20
0.0
 30
0.0
  3
*Paper_Space
  1

  0
ENDBLK
  5
1D
330
1B
100
AcDbEntity
 67
     1
  8
0
100
AcDbBlockEnd
  0
BLOCK
  5
24
330
23
100
AcDbEntity
  8
0
100
AcDbBlockBegin
  2
*Paper_Space0
 70
     0
 10
0.0
 20
0.0
 30
0.0
  3
*Paper_Space0
  1

  0
ENDBLK
  5
25
330
23
100
AcDbEntity
  8
0
100
AcDbBlockEnd
  0
BLOCK
  5
89
330
87
100
AcDbEntity
  8
0
100
AcDbBlockBegin
  2
GENAXEH
 70
     0
 10
0.0
 20
0.0
 30
0.0
  3
GENAXEH
  1

  0
LINE
  5
88
330
87
100
AcDbEntity
  8
0
100
AcDbLine
 10
-1.0
 20
0.0
 30
0.0
 11
1.0
 21
0.0
 31
0.0
  0
ENDBLK
  5
8A
330
87
100
AcDbEntity
  8
0
100
AcDbBlockEnd
  0
BLOCK
  5
1400
330
13FF
100
AcDbEntity
  8
0
100
AcDbBlockBegin
  2
*U4
 70
     1
 10
0.0
 20
0.0
 30
0.0
  3
*U4
  1

  0
ENDBLK
  5
1401
330
13FF
100
AcDbEntity
  8
0
100
AcDbBlockEnd
  0
BLOCK
  5
1748
330
173E
100
AcDbEntity
  8
0
100
AcDbBlockBegin
  2
*D5
 70
     1
 10
0.0
 20
0.0
 30
0.0
  3
*D5
  1

  0
LINE
  5
283C
330
173E
100
AcDbEntity
  8
AM_5
100
AcDbLine
 10
113.1828811902927
 20
479.0950437701829
 30
0.0
 11
135.7328811902926
 21
479.0950437701828
 31
0.0
  0
LINE
  5
283D
330
173E
100
AcDbEntity
  8
AM_5
100
AcDbLine
 10
113.1828811902927
 20
544.0950437701828
 30
0.0
 11
135.7328811902926
 21
544.0950437701828
 31
0.0
  0
LINE
  5
283E
330
173E
100
AcDbEntity
  8
AM_5
100
AcDbLine
 10
134.0828811902926
 20
482.3950437701828
 30
0.0
 11
134.0828811902926
 21
540.7950437701829
 31
0.0
  0
SOLID
  5
283F
330
173E
100
AcDbEntity
  8
AM_5
100
AcDbTrace
 10
133.5328811902926
 20
482.3950437701828
 30
0.0
 11
134.6328811902926
 21
482.3950437701828
 31
0.0
 12
134.0828811902926
 22
479.0950437701828
 32
0.0
 13
134.0828811902926
 23
479.0950437701828
 33
0.0
  0
SOLID
  5
2840
330
173E
100
AcDbEntity
  8
AM_5
100
AcDbTrace
 10
133.5328811902926
 20
540.7950437701829
 30
0.0
 11
134.6328811902926
 21
540.7950437701829
 31
0.0
 12
134.0828811902926
 22
544.0950437701828
 32
0.0
 13
134.0828811902926
 23
544.0950437701828
 33
0.0
  0
MTEXT
  5
2841
330
173E
100
AcDbEntity
  8
AM_5
100
AcDbMText
 10
131.2778811902925
 20
511.5950437701829
 30
0.0
 40
3.85
 41
0.0
 71
     5
 72
     1
  1
65
  7
CHINESET
 11
0.0000000000000001
 21
1.0
 31
0.0
 73
     1
 44
1.0
1001
ACAD
1000
MTEXTBEGIN
1070
    73
1070
     1
1070
    44
1040
1.0
1070
    74
1070
     0
1000
MTEXTEND
  0
POINT
  5
2842
330
173E
100
AcDbEntity
  8
Defpoints
 62
     0
100
AcDbPoint
 10
112.0828811902927
 20
479.0950437701829
 30
0.0
  0
POINT
  5
2843
330
173E
100
AcDbEntity
  8
Defpoints
 62
     0
100
AcDbPoint
 10
112.0828811902927
 20
544.0950437701828
 30
0.0
  0
POINT
  5
2844
330
173E
100
AcDbEntity
  8
Defpoints
 62
     0
100
AcDbPoint
 10
134.0828811902926
 20
544.0950437701828
 30
0.0
  0
ENDBLK
  5
1749
330
173E
100
AcDbEntity
  8
0
100
AcDbBlockEnd
  0
BLOCK
  5
180E
330
1804
100
AcDbEntity
  8
0
100
AcDbBlockBegin
  2
*D6
 70
     1
 10
0.0
 20
0.0
 30
0.0
  3
*D6
  1

  0
LINE
  5
27B0
330
1804
100
AcDbEntity
  8
AM_5
100
AcDbLine
 10
113.1828811902926
 20
544.0950437701828
 30
0.0
 11
125.7328811902927
 21
544.0950437701828
 31
0.0
  0
LINE
  5
27B1
330
1804
100
AcDbEntity
  8
AM_5
100
AcDbLine
 10
106.7981048794424
 20
566.0950437701829
 30
0.0
 11
125.7328811902927
 21
566.0950437701829
 31
0.0
  0
LINE
  5
27B2
330
1804
100
AcDbEntity
  8
AM_5
100
AcDbLine
 10
124.0828811902927
 20
547.3950437701828
 30
0.0
 11
124.0828811902927
 21
562.7950437701829
 31
0.0
  0
SOLID
  5
27B3
330
1804
100
AcDbEntity
  8
AM_5
100
AcDbTrace
 10
123.5328811902927
 20
547.3950437701828
 30
0.0
 11
124.6328811902927
 21
547.3950437701828
 31
0.0
 12
124.0828811902927
 22
544.0950437701828
 32
0.0
 13
124.0828811902927
 23
544.0950437701828
 33
0.0
  0
SOLID
  5
27B4
330
1804
100
AcDbEntity
  8
AM_5
100
AcDbTrace
 10
123.5328811902927
 20
562.7950437701829
 30
0.0
 11
124.6328811902927
 21
562.7950437701829
 31
0.0
 12
124.0828811902927
 22
566.0950437701829
 32
0.0
 13
124.0828811902927
 23
566.0950437701829
 33
0.0
  0
MTEXT
  5
27B5
330
1804
100
AcDbEntity
  8
AM_5
100
AcDbMText
 10
121.2778811902926
 20
555.0950437701828
 30
0.0
 40
3.85
 41
0.0
 71
     5
 72
     1
  1
22
  7
CHINESET
 11
0.0000000000000001
 21
1.0
 31
0.0
 73
     1
 44
1.0
1001
ACAD
1000
MTEXTBEGIN
1070
    73
1070
     1
1070
    44
1040
1.0
1070
    74
1070
     0
1000
MTEXTEND
  0
POINT
  5
27B6
330
1804
100
AcDbEntity
  8
Defpoints
 62
     0
100
AcDbPoint
 10
112.0828811902926
 20
544.0950437701828
 30
0.0
  0
POINT
  5
27B7
330
1804
100
AcDbEntity
  8
Defpoints
 62
     0
100
AcDbPoint
 10
105.6981048794424
 20
566.0950437701829
 30
0.0
  0
POINT
  5
27B8
330
1804
100
AcDbEntity
  8
Defpoints
 62
     0
100
AcDbPoint
 10
124.0828811902927
 20
566.0950437701829
 30
0.0
  0
ENDBLK
  5
180F
330
1804
100
AcDbEntity
  8
0
100
AcDbBlockEnd
  0
BLOCK
  5
183E
330
1834
100
AcDbEntity
  8
0
100
AcDbBlockBegin
  2
*D7
 70
     1
 10
0.0
 20
0.0
 30
0.0
  3
*D7
  1

  0
LINE
  5
282A
330
1834
100
AcDbEntity
  8
AM_5
100
AcDbLine
 10
113.1828811902927
 20
544.0950437701828
 30
0.0
 11
135.7328811902926
 21
544.0950437701828
 31
0.0
  0
LINE
  5
282B
330
1834
100
AcDbEntity
  8
AM_5
100
AcDbLine
 10
96.7981048794425
 20
597.0950437701828
 30
0.0
 11
135.7328811902927
 21
597.0950437701828
 31
0.0
  0
LINE
  5
282C
330
1834
100
AcDbEntity
  8
AM_5
100
AcDbLine
 10
134.0828811902926
 20
547.3950437701828
 30
0.0
 11
134.0828811902927
 21
593.7950437701829
 31
0.0
  0
SOLID
  5
282D
330
1834
100
AcDbEntity
  8
AM_5
100
AcDbTrace
 10
133.5328811902926
 20
547.3950437701828
 30
0.0
 11
134.6328811902926
 21
547.3950437701828
 31
0.0
 12
134.0828811902926
 22
544.0950437701828
 32
0.0
 13
134.0828811902926
 23
544.0950437701828
 33
0.0
  0
SOLID
  5
282E
330
1834
100
AcDbEntity
  8
AM_5
100
AcDbTrace
 10
133.5328811902926
 20
593.7950437701829
 30
0.0
 11
134.6328811902927
 21
593.7950437701829
 31
0.0
 12
134.0828811902927
 22
597.0950437701828
 32
0.0
 13
134.0828811902927
 23
597.0950437701828
 33
0.0
  0
MTEXT
  5
282F
330
1834
100
AcDbEntity
  8
AM_5
100
AcDbMText
 10
131.2778811902925
 20
570.5950437701829
 30
0.0
 40
3.85
 41
0.0
 71
     5
 72
     1
  1
53
  7
CHINESET
 11
0.0000000000000001
 21
1.0
 31
0.0
 73
     1
 44
1.0
1001
ACAD
1000
MTEXTBEGIN
1070
    73
1070
     1
1070
    44
1040
1.0
1070
    74
1070
     0
1000
MTEXTEND
  0
POINT
  5
2830
330
1834
100
AcDbEntity
  8
Defpoints
 62
     0
100
AcDbPoint
 10
112.0828811902927
 20
544.0950437701828
 30
0.0
  0
POINT
  5
2831
330
1834
100
AcDbEntity
  8
Defpoints
 62
     0
100
AcDbPoint
 10
95.6981048794425
 20
597.0950437701828
 30
0.0
  0
POINT
  5
2832
330
1834
100
AcDbEntity
  8
Defpoints
 62
     0
100
AcDbPoint
 10
134.0828811902927
 20
597.0950437701828
 30
0.0
  0
ENDBLK
  5
183F
330
1834
100
AcDbEntity
  8
0
100
AcDbBlockEnd
  0
BLOCK
  5
187B
330
1871
100
AcDbEntity
  8
0
100
AcDbBlockBegin
  2
*D8
 70
     1
 10
0.0
 20
0.0
 30
0.0
  3
*D8
  1

  0
LINE
  5
2821
330
1871
100
AcDbEntity
  8
AM_5
100
AcDbLine
 10
113.1828811902927
 20
479.0950437701829
 30
0.0
 11
145.7328811902926
 21
479.0950437701828
 31
0.0
  0
LINE
  5
2822
330
1871
100
AcDbEntity
  8
AM_5
100
AcDbLine
 10
97.79810487944249
 20
597.0950437701828
 30
0.0
 11
145.7328811902927
 21
597.0950437701828
 31
0.0
  0
LINE
  5
2823
330
1871
100
AcDbEntity
  8
AM_5
100
AcDbLine
 10
144.0828811902926
 20
482.3950437701828
 30
0.0
 11
144.0828811902927
 21
593.7950437701829
 31
0.0
  0
SOLID
  5
2824
330
1871
100
AcDbEntity
  8
AM_5
100
AcDbTrace
 10
143.5328811902926
 20
482.3950437701828
 30
0.0
 11
144.6328811902926
 21
482.3950437701828
 31
0.0
 12
144.0828811902926
 22
479.0950437701828
 32
0.0
 13
144.0828811902926
 23
479.0950437701828
 33
0.0
  0
SOLID
  5
2825
330
1871
100
AcDbEntity
  8
AM_5
100
AcDbTrace
 10
143.5328811902927
 20
593.7950437701829
 30
0.0
 11
144.6328811902927
 21
593.7950437701829
 31
0.0
 12
144.0828811902927
 22
597.0950437701828
 32
0.0
 13
144.0828811902927
 23
597.0950437701828
 33
0.0
  0
MTEXT
  5
2826
330
1871
100
AcDbEntity
  8
AM_5
100
AcDbMText
 10
141.2778811902925
 20
538.0950437701828
 30
0.0
 40
3.85
 41
0.0
 71
     5
 72
     1
  1
118
  7
CHINESET
 11
0.0000000000000001
 21
1.0
 31
0.0
 73
     1
 44
1.0
1001
ACAD
1000
MTEXTBEGIN
1070
    73
1070
     1
1070
    44
1040
1.0
1070
    74
1070
     0
1000
MTEXTEND
  0
POINT
  5
2827
330
1871
100
AcDbEntity
  8
Defpoints
 62
     0
100
AcDbPoint
 10
112.0828811902927
 20
479.0950437701829
 30
0.0
  0
POINT
  5
2828
330
1871
100
AcDbEntity
  8
Defpoints
 62
     0
100
AcDbPoint
 10
96.6981048794425
 20
597.0950437701828
 30
0.0
  0
POINT
  5
2829
330
1871
100
AcDbEntity
  8
Defpoints
 62
     0
100
AcDbPoint
 10
144.0828811902927
 20
597.0950437701828
 30
0.0
  0
ENDBLK
  5
187C
330
1871
100
AcDbEntity
  8
0
100
AcDbBlockEnd
  0
BLOCK
  5
18CC
330
18C0
100
AcDbEntity
  8
0
100
AcDbBlockBegin
  2
*D9
 70
     1
 10
0.0
 20
0.0
 30
0.0
  3
*D9
  1

  0
LINE
  5
279C
330
18C0
100
AcDbEntity
  8
AM_5
100
AcDbLine
 10
96.7981048794425
 20
597.0950437701828
 30
0.0
 11
125.7328811902926
 21
597.0950437701828
 31
0.0
  0
LINE
  5
279D
330
18C0
100
AcDbEntity
  8
AM_5
100
AcDbLine
 10
99.92158026242229
 20
595.0950437701829
 30
0.0
 11
125.7328811902926
 21
595.0950437701829
 31
0.0
  0
LINE
  5
279E
330
18C0
100
AcDbEntity
  8
AM_5
100
AcDbLine
 10
124.0828811902927
 20
600.3950437701828
 30
0.0
 11
124.0828811902927
 21
603.6950437701829
 31
0.0
  0
LINE
  5
279F
330
18C0
100
AcDbEntity
  8
AM_5
100
AcDbLine
 10
124.0828811902927
 20
591.7950437701829
 30
0.0
 11
124.0828811902927
 21
584.8100437701829
 31
0.0
  0
LINE
  5
27A0
330
18C0
100
AcDbEntity
  8
AM_5
100
AcDbLine
 10
124.0828811902927
 20
597.0950437701828
 30
0.0
 11
124.0828811902927
 21
595.0950437701829
 31
0.0
  0
SOLID
  5
27A1
330
18C0
100
AcDbEntity
  8
AM_5
100
AcDbTrace
 10
123.5328811902927
 20
600.3950437701828
 30
0.0
 11
124.6328811902926
 21
600.3950437701828
 31
0.0
 12
124.0828811902927
 22
597.0950437701828
 32
0.0
 13
124.0828811902927
 23
597.0950437701828
 33
0.0
  0
SOLID
  5
27A2
330
18C0
100
AcDbEntity
  8
AM_5
100
AcDbTrace
 10
123.5328811902927
 20
591.7950437701829
 30
0.0
 11
124.6328811902926
 21
591.7950437701829
 31
0.0
 12
124.0828811902927
 22
595.0950437701829
 32
0.0
 13
124.0828811902927
 23
595.0950437701829
 33
0.0
  0
MTEXT
  5
27A3
330
18C0
100
AcDbEntity
  8
AM_5
100
AcDbMText
 10
121.2778811902926
 20
586.6525437701828
 30
0.0
 40
3.85
 41
0.0
 71
     5
 72
     1
  1
2
  7
CHINESET
 11
0.0000000000000001
 21
1.0
 31
0.0
 73
     1
 44
1.0
1001
ACAD
1000
MTEXTBEGIN
1070
    73
1070
     1
1070
    44
1040
1.0
1070
    74
1070
     0
1000
MTEXTEND
  0
POINT
  5
27A4
330
18C0
100
AcDbEntity
  8
Defpoints
 62
     0
100
AcDbPoint
 10
95.6981048794425
 20
597.0950437701828
 30
0.0
  0
POINT
  5
27A5
330
18C0
100
AcDbEntity
  8
Defpoints
 62
     0
100
AcDbPoint
 10
98.8215802624223
 20
595.0950437701829
 30
0.0
  0
POINT
  5
27A6
330
18C0
100
AcDbEntity
  8
Defpoints
 62
     0
100
AcDbPoint
 10
124.0828811902927
 20
595.0950437701829
 30
0.0
  0
ENDBLK
  5
18CD
330
18C0
100
AcDbEntity
  8
0
100
AcDbBlockEnd
  0
BLOCK
  5
1913
330
190A
100
AcDbEntity
  8
0
100
AcDbBlockBegin
  2
*D10
 70
     1
 10
0.0
 20
0.0
 30
0.0
  3
*D10
  1

  0
LINE
  5
2808
330
190A
100
AcDbEntity
  8
AM_5
100
AcDbLine
 10
75.10177202869005
 20
647.8859824720915
 30
0.0
 11
72.81192507318696
 21
645.5097247166336
 31
0.0
  0
LINE
  5
2809
330
190A
100
AcDbEntity
  8
AM_5
100
AcDbLine
 10
112.2944377301946
 20
686.4821690455883
 30
0.0
 11
114.5842846856977
 21
688.8584268010461
 31
0.0
  0
LINE
  5
280A
330
190A
100
AcDbEntity
  8
AM_5
100
AcDbLine
 10
114.5842846856977
 20
688.8584268010461
 30
0.0
 11
122.7517846856978
 21
688.8584268010461
 31
0.0
  0
LINE
  5
280B
330
190A
100
AcDbEntity
  8
AM_5
100
AcDbLine
 10
77.39161898419308
 20
650.2622402275492
 30
0.0
 11
110.0045907746916
 21
684.1059112901305
 31
0.0
  0
SOLID
  5
280C
330
190A
100
AcDbEntity
  8
AM_5
100
AcDbTrace
 10
74.7057290694471
 20
648.267623631342
 30
0.0
 11
75.49781498793305
 21
647.504341312841
 31
0.0
 12
77.39161898419308
 22
650.2622402275492
 32
0.0
 13
77.39161898419308
 23
650.2622402275492
 33
0.0
  0
SOLID
  5
280D
330
190A
100
AcDbEntity
  8
AM_5
100
AcDbTrace
 10
111.8983947709516
 20
686.8638102048389
 30
0.0
 11
112.6904806894376
 21
686.1005278863379
 31
0.0
 12
110.0045907746916
 22
684.1059112901305
 32
0.0
 13
110.0045907746916
 23
684.1059112901305
 33
0.0
  0
MTEXT
  5
280E
330
190A
100
AcDbEntity
  8
AM_5
100
AcDbMText
 10
119.1080346856977
 20
691.6634268010461
 30
0.0
 40
3.85
 41
0.0
 71
     5
 72
     1
  1
\U+220547
  7
CHINESET
 73
     1
 44
1.0
1001
ACAD
1000
MTEXTBEGIN
1070
    73
1070
     1
1070
    44
1040
1.0
1070
    74
1070
     0
1000
MTEXTEND
  0
POINT
  5
280F
330
190A
100
AcDbEntity
  8
Defpoints
 62
     0
100
AcDbPoint
 10
110.0045907746916
 20
684.1059112901305
 30
0.0
  0
POINT
  5
2810
330
190A
100
AcDbEntity
  8
Defpoints
 62
     0
100
AcDbPoint
 10
77.39161898419308
 20
650.2622402275492
 30
0.0
  0
ENDBLK
  5
1914
330
190A
100
AcDbEntity
  8
0
100
AcDbBlockEnd
  0
BLOCK
  5
197B
330
1971
100
AcDbEntity
  8
0
100
AcDbBlockBegin
  2
*D11
 70
     1
 10
0.0
 20
0.0
 30
0.0
  3
*D11
  1

  0
LINE
  5
2793
330
1971
100
AcDbEntity
  8
AM_5
100
AcDbLine
 10
74.8284047343696
 20
669.5275781486161
 30
0.0
 11
54.62606377302984
 21
649.3252371872768
 31
0.0
  0
LINE
  5
2794
330
1971
100
AcDbEntity
  8
AM_5
100
AcDbLine
 10
98.82462953752281
 20
651.0973960805765
 30
0.0
 11
75.83926720862604
 21
628.1120337516802
 31
0.0
  0
LINE
  5
2795
330
1971
100
AcDbEntity
  8
AM_5
100
AcDbLine
 10
58.12624233990323
 20
648.1585109983188
 30
0.0
 11
74.67254101966824
 21
631.6122123185536
 31
0.0
  0
SOLID
  5
2796
330
1971
100
AcDbEntity
  8
AM_5
100
AcDbTrace
 10
58.51515106955588
 20
648.5474197279715
 30
0.0
 11
57.73733361025063
 21
647.7696022686663
 31
0.0
 12
55.79278996198763
 22
650.4919633762344
 32
0.0
 13
55.79278996198763
 23
650.4919633762344
 33
0.0
  0
SOLID
  5
2797
330
1971
100
AcDbEntity
  8
AM_5
100
AcDbTrace
 10
75.0614497493209
 20
632.0011210482062
 30
0.0
 11
74.28363229001565
 21
631.2233035889009
 31
0.0
 12
77.00599339758383
 22
629.278759940638
 32
0.0
 13
77.00599339758383
 23
629.278759940638
 33
0.0
  0
MTEXT
  5
2798
330
1971
100
AcDbEntity
  8
AM_5
100
AcDbMText
 10
68.38282620101409
 20
641.8687961796645
 30
0.0
 40
3.85
 41
0.0
 71
     5
 72
     1
  1
30
  7
CHINESET
 11
0.7071067811865419
 21
-0.7071067811865532
 31
0.0
 73
     1
 44
1.0
1001
ACAD
1000
MTEXTBEGIN
1070
    73
1070
     1
1070
    44
1040
1.0
1070
    74
1070
     0
1000
MTEXTEND
  0
POINT
  5
2799
330
1971
100
AcDbEntity
  8
Defpoints
 62
     0
100
AcDbPoint
 10
75.6062221936748
 20
670.3053956079213
 30
0.0
  0
POINT
  5
279A
330
1971
100
AcDbEntity
  8
Defpoints
 62
     0
100
AcDbPoint
 10
99.60244699682801
 20
651.8752135398817
 30
0.0
  0
POINT
  5
279B
330
1971
100
AcDbEntity
  8
Defpoints
 62
     0
100
AcDbPoint
 10
77.00599339758383
 20
629.278759940638
 30
0.0
  0
ENDBLK
  5
197C
330
1971
100
AcDbEntity
  8
0
100
AcDbBlockEnd
  0
BLOCK
  5
19A1
330
1997
100
AcDbEntity
  8
0
100
AcDbBlockBegin
  2
*D12
 70
     1
 10
0.0
 20
0.0
 30
0.0
  3
*D12
  1

  0
LINE
  5
284B
330
1997
100
AcDbEntity
  8
AM_5
100
AcDbLine
 10
99.59393640275497
 20
678.1840757588399
 30
0.0
 11
135.7328811902929
 21
678.1840757588399
 31
0.0
  0
LINE
  5
284C
330
1997
100
AcDbEntity
  8
AM_5
100
AcDbLine
 10
99.59393640275521
 20
656.1840757588399
 30
0.0
 11
135.7328811902929
 21
656.1840757588399
 31
0.0
  0
LINE
  5
284D
330
1997
100
AcDbEntity
  8
AM_5
100
AcDbLine
 10
134.0828811902929
 20
674.88407575884
 30
0.0
 11
134.0828811902929
 21
659.4840757588398
 31
0.0
  0
SOLID
  5
284E
330
1997
100
AcDbEntity
  8
AM_5
100
AcDbTrace
 10
133.5328811902928
 20
674.88407575884
 30
0.0
 11
134.6328811902929
 21
674.88407575884
 31
0.0
 12
134.0828811902929
 22
678.1840757588399
 32
0.0
 13
134.0828811902929
 23
678.1840757588399
 33
0.0
  0
SOLID
  5
284F
330
1997
100
AcDbEntity
  8
AM_5
100
AcDbTrace
 10
133.5328811902928
 20
659.4840757588398
 30
0.0
 11
134.6328811902929
 21
659.4840757588398
 31
0.0
 12
134.0828811902929
 22
656.1840757588399
 32
0.0
 13
134.0828811902929
 23
656.1840757588399
 33
0.0
  0
MTEXT
  5
2850
330
1997
100
AcDbEntity
  8
AM_5
100
AcDbMText
 10
131.2778811902927
 20
667.1840757588399
 30
0.0
 40
3.85
 41
0.0
 71
     5
 72
     1
  1
22
  7
CHINESET
 11
0.0000000000000001
 21
1.0
 31
0.0
 73
     1
 44
1.0
1001
ACAD
1000
MTEXTBEGIN
1070
    73
1070
     1
1070
    44
1040
1.0
1070
    74
1070
     0
1000
MTEXTEND
  0
POINT
  5
2851
330
1997
100
AcDbEntity
  8
Defpoints
 62
     0
100
AcDbPoint
 10
98.49393640275497
 20
678.1840757588399
 30
0.0
  0
POINT
  5
2852
330
1997
100
AcDbEntity
  8
Defpoints
 62
     0
100
AcDbPoint
 10
98.49393640275522
 20
656.1840757588399
 30
0.0
  0
POINT
  5
2853
330
1997
100
AcDbEntity
  8
Defpoints
 62
     0
100
AcDbPoint
 10
134.0828811902929
 20
656.1840757588399
 30
0.0
  0
ENDBLK
  5
19A2
330
1997
100
AcDbEntity
  8
0
100
AcDbBlockEnd
  0
BLOCK
  5
19F9
330
19ED
100
AcDbEntity
  8
0
100
AcDbBlockBegin
  2
*D13
 70
     1
 10
0.0
 20
0.0
 30
0.0
  3
*D13
  1

  0
LINE
  5
27D4
330
19ED
100
AcDbEntity
  8
AM_5
100
AcDbLine
 10
37.92547162461231
 20
479.0950437701829
 30
0.0
 11
50.47547162461206
 21
479.0950437701829
 31
0.0
  0
LINE
  5
27D5
330
19ED
100
AcDbEntity
  8
AM_5
100
AcDbLine
 10
28.62648224586683
 20
484.5950437701828
 30
0.0
 11
50.47547162461206
 21
484.5950437701828
 31
0.0
  0
LINE
  5
27D6
330
19ED
100
AcDbEntity
  8
AM_5
100
AcDbLine
 10
48.82547162461206
 20
475.7950437701828
 30
0.0
 11
48.82547162461206
 21
472.4950437701828
 31
0.0
  0
LINE
  5
27D7
330
19ED
100
AcDbEntity
  8
AM_5
100
AcDbLine
 10
48.82547162461206
 20
487.8950437701829
 30
0.0
 11
48.82547162461207
 21
499.0050437701829
 31
0.0
  0
LINE
  5
27D8
330
19ED
100
AcDbEntity
  8
AM_5
100
AcDbLine
 10
48.82547162461206
 20
479.0950437701829
 30
0.0
 11
48.82547162461206
 21
484.5950437701828
 31
0.0
  0
SOLID
  5
27D9
330
19ED
100
AcDbEntity
  8
AM_5
100
AcDbTrace
 10
48.27547162461207
 20
475.7950437701828
 30
0.0
 11
49.37547162461206
 21
475.7950437701828
 31
0.0
 12
48.82547162461206
 22
479.0950437701829
 32
0.0
 13
48.82547162461206
 23
479.0950437701829
 33
0.0
  0
SOLID
  5
27DA
330
19ED
100
AcDbEntity
  8
AM_5
100
AcDbTrace
 10
48.27547162461207
 20
487.8950437701829
 30
0.0
 11
49.37547162461206
 21
487.8950437701829
 31
0.0
 12
48.82547162461206
 22
484.5950437701828
 32
0.0
 13
48.82547162461206
 23
484.5950437701828
 33
0.0
  0
MTEXT
  5
27DB
330
19ED
100
AcDbEntity
  8
AM_5
100
AcDbMText
 10
46.02047162461198
 20
495.1000437701829
 30
0.0
 40
3.85
 41
0.0
 71
     5
 72
     1
  1
5.5
  7
CHINESET
 11
0.0000000000000001
 21
1.0
 31
0.0
 73
     1
 44
1.0
1001
ACAD
1000
MTEXTBEGIN
1070
    73
1070
     1
1070
    44
1040
1.0
1070
    74
1070
     0
1000
MTEXTEND
  0
POINT
  5
27DC
330
19ED
100
AcDbEntity
  8
Defpoints
 62
     0
100
AcDbPoint
 10
36.82547162461231
 20
479.0950437701829
 30
0.0
  0
POINT
  5
27DD
330
19ED
100
AcDbEntity
  8
Defpoints
 62
     0
100
AcDbPoint
 10
27.52648224586683
 20
484.5950437701828
 30
0.0
  0
POINT
  5
27DE
330
19ED
100
AcDbEntity
  8
Defpoints
 62
     0
100
AcDbPoint
 10
48.82547162461206
 20
484.5950437701828
 30
0.0
  0
ENDBLK
  5
19FA
330
19ED
100
AcDbEntity
  8
0
100
AcDbBlockEnd
  0
BLOCK
  5
1A21
330
1A17
100
AcDbEntity
  8
0
100
AcDbBlockBegin
  2
*D14
 70
     1
 10
0.0
 20
0.0
 30
0.0
  3
*D14
  1

  0
LINE
  5
27CB
330
1A17
100
AcDbEntity
  8
AM_5
100
AcDbLine
 10
37.92547162461231
 20
544.0950437701828
 30
0.0
 11
50.47547162461206
 21
544.0950437701828
 31
0.0
  0
LINE
  5
27CC
330
1A17
100
AcDbEntity
  8
AM_5
100
AcDbLine
 10
28.62648224586683
 20
519.0950437701828
 30
0.0
 11
50.47547162461205
 21
519.0950437701828
 31
0.0
  0
LINE
  5
27CD
330
1A17
100
AcDbEntity
  8
AM_5
100
AcDbLine
 10
48.82547162461206
 20
540.7950437701829
 30
0.0
 11
48.82547162461205
 21
522.3950437701828
 31
0.0
  0
SOLID
  5
27CE
330
1A17
100
AcDbEntity
  8
AM_5
100
AcDbTrace
 10
48.27547162461206
 20
540.7950437701829
 30
0.0
 11
49.37547162461205
 21
540.7950437701829
 31
0.0
 12
48.82547162461206
 22
544.0950437701828
 32
0.0
 13
48.82547162461206
 23
544.0950437701828
 33
0.0
  0
SOLID
  5
27CF
330
1A17
100
AcDbEntity
  8
AM_5
100
AcDbTrace
 10
48.27547162461205
 20
522.3950437701828
 30
0.0
 11
49.37547162461204
 21
522.3950437701828
 31
0.0
 12
48.82547162461205
 22
519.0950437701828
 32
0.0
 13
48.82547162461205
 23
519.0950437701828
 33
0.0
  0
MTEXT
  5
27D0
330
1A17
100
AcDbEntity
  8
AM_5
100
AcDbMText
 10
46.02047162461197
 20
531.5950437701828
 30
0.0
 40
3.85
 41
0.0
 71
     5
 72
     1
  1
25
  7
CHINESET
 11
0.0000000000000001
 21
1.0
 31
0.0
 73
     1
 44
1.0
1001
ACAD
1000
MTEXTBEGIN
1070
    73
1070
     1
1070
    44
1040
1.0
1070
    74
1070
     0
1000
MTEXTEND
  0
POINT
  5
27D1
330
1A17
100
AcDbEntity
  8
Defpoints
 62
     0
100
AcDbPoint
 10
36.82547162461231
 20
544.0950437701828
 30
0.0
  0
POINT
  5
27D2
330
1A17
100
AcDbEntity
  8
Defpoints
 62
     0
100
AcDbPoint
 10
27.52648224586683
 20
519.0950437701828
 30
0.0
  0
POINT
  5
27D3
330
1A17
100
AcDbEntity
  8
Defpoints
 62
     0
100
AcDbPoint
 10
48.82547162461205
 20
519.0950437701828
 30
0.0
  0
ENDBLK
  5
1A22
330
1A17
100
AcDbEntity
  8
0
100
AcDbBlockEnd
  0
BLOCK
  5
1A94
330
1A8E
100
AcDbEntity
  8
0
100
AcDbBlockBegin
  2
*D15
 70
     1
 10
0.0
 20
0.0
 30
0.0
  3
*D15
  1

  0
LINE
  5
2811
330
1A8E
100
AcDbEntity
  8
AM_5
100
AcDbLine
 10
90.65458451682889
 20
585.5031622214972
 30
0.0
 11
88.64932943289806
 21
582.8822936539474
 31
0.0
  0
LINE
  5
2812
330
1A8E
100
AcDbEntity
  8
AM_5
100
AcDbLine
 10
100.7416252420563
 20
598.6869253188682
 30
0.0
 11
106.3358315852368
 21
605.9985534916235
 31
0.0
  0
LINE
  5
2813
330
1A8E
100
AcDbEntity
  8
AM_5
100
AcDbLine
 10
106.3358315852368
 20
605.9985534916235
 30
0.0
 11
113.9533315852368
 21
605.9985534916235
 31
0.0
  0
LINE
  5
2814
330
1A8E
100
AcDbEntity
  8
AM_5
100
AcDbLine
 10
92.6598396007596
 20
588.1240307890468
 30
0.0
 11
98.73637015812562
 21
596.0660567513186
 31
0.0
  0
SOLID
  5
2815
330
1A8E
100
AcDbEntity
  8
AM_5
100
AcDbTrace
 10
90.21777308890392
 20
585.8373714021523
 30
0.0
 11
91.09139594475383
 21
585.1689530408419
 31
0.0
 12
92.6598396007596
 22
588.1240307890468
 32
0.0
 13
92.6598396007596
 23
588.1240307890468
 33
0.0
  0
SOLID
  5
2816
330
1A8E
100
AcDbEntity
  8
AM_5
100
AcDbTrace
 10
100.3048138141313
 20
599.0211344995234
 30
0.0
 11
101.1784366699812
 21
598.352716138213
 31
0.0
 12
98.73637015812562
 22
596.0660567513186
 32
0.0
 13
98.73637015812562
 23
596.0660567513186
 33
0.0
  0
MTEXT
  5
2817
330
1A8E
100
AcDbEntity
  8
AM_5
100
AcDbMText
 10
110.584581585237
 20
608.8035534916233
 30
0.0
 40
3.85
 41
0.0
 71
     5
 72
     1
  1
\U+220510
  7
CHINESET
 73
     1
 44
1.0
1001
ACAD
1000
MTEXTBEGIN
1070
    73
1070
     1
1070
    44
1040
1.0
1070
    74
1070
     0
1000
MTEXTEND
  0
POINT
  5
2818
330
1A8E
100
AcDbEntity
  8
Defpoints
 62
     0
100
AcDbPoint
 10
98.73637015812562
 20
596.0660567513186
 30
0.0
  0
POINT
  5
2819
330
1A8E
100
AcDbEntity
  8
Defpoints
 62
     0
100
AcDbPoint
 10
92.6598396007596
 20
588.1240307890468
 30
0.0
  0
ENDBLK
  5
1A95
330
1A8E
100
AcDbEntity
  8
0
100
AcDbBlockEnd
  0
BLOCK
  5
1ACB
330
1ABF
100
AcDbEntity
  8
0
100
AcDbBlockBegin
  2
*D16
 70
     1
 10
0.0
 20
0.0
 30
0.0
  3
*D16
  1

  0
LINE
  5
27E9
330
1ABF
100
AcDbEntity
  8
AM_5
100
AcDbLine
 10
89.69810487944252
 20
596.1950437701829
 30
0.0
 11
89.69810487944252
 21
610.7450437701828
 31
0.0
  0
LINE
  5
27EA
330
1ABF
100
AcDbEntity
  8
AM_5
100
AcDbLine
 10
93.69810487944247
 20
599.6920465232975
 30
0.0
 11
93.69810487944247
 21
610.7450437701828
 31
0.0
  0
LINE
  5
27EB
330
1ABF
100
AcDbEntity
  8
AM_5
100
AcDbLine
 10
86.39810487944252
 20
609.0950437701828
 30
0.0
 11
83.09810487944252
 21
609.0950437701828
 31
0.0
  0
LINE
  5
27EC
330
1ABF
100
AcDbEntity
  8
AM_5
100
AcDbLine
 10
96.99810487944247
 20
609.0950437701828
 30
0.0
 11
100.2981048794424
 21
609.0950437701828
 31
0.0
  0
LINE
  5
27ED
330
1ABF
100
AcDbEntity
  8
AM_5
100
AcDbLine
 10
89.69810487944252
 20
609.0950437701828
 30
0.0
 11
93.69810487944247
 21
609.0950437701828
 31
0.0
  0
SOLID
  5
27EE
330
1ABF
100
AcDbEntity
  8
AM_5
100
AcDbTrace
 10
86.39810487944252
 20
609.6450437701828
 30
0.0
 11
86.39810487944252
 21
608.5450437701829
 31
0.0
 12
89.69810487944252
 22
609.0950437701828
 32
0.0
 13
89.69810487944252
 23
609.0950437701828
 33
0.0
  0
SOLID
  5
27EF
330
1ABF
100
AcDbEntity
  8
AM_5
100
AcDbTrace
 10
96.99810487944247
 20
609.6450437701828
 30
0.0
 11
96.99810487944247
 21
608.5450437701829
 31
0.0
 12
93.69810487944247
 22
609.0950437701828
 32
0.0
 13
93.69810487944247
 23
609.0950437701828
 33
0.0
  0
MTEXT
  5
27F0
330
1ABF
100
AcDbEntity
  8
AM_5
100
AcDbMText
 10
91.6981048794425
 20
611.9000437701828
 30
0.0
 40
3.85
 41
0.0
 71
     5
 72
     1
  1
4
  7
CHINESET
 73
     1
 44
1.0
1001
ACAD
1000
MTEXTBEGIN
1070
    73
1070
     1
1070
    44
1040
1.0
1070
    74
1070
     0
1000
MTEXTEND
  0
POINT
  5
27F1
330
1ABF
100
AcDbEntity
  8
Defpoints
 62
     0
100
AcDbPoint
 10
89.69810487944252
 20
595.0950437701829
 30
0.0
  0
POINT
  5
27F2
330
1ABF
100
AcDbEntity
  8
Defpoints
 62
     0
100
AcDbPoint
 10
93.69810487944247
 20
598.5920465232974
 30
0.0
  0
POINT
  5
27F3
330
1ABF
100
AcDbEntity
  8
Defpoints
 62
     0
100
AcDbPoint
 10
93.69810487944247
 20
609.0950437701828
 30
0.0
  0
ENDBLK
  5
1ACC
330
1ABF
100
AcDbEntity
  8
0
100
AcDbBlockEnd
  0
BLOCK
  5
1B27
330
1B1D
100
AcDbEntity
  8
0
100
AcDbBlockBegin
  2
*D17
 70
     1
 10
0.0
 20
0.0
 30
0.0
  3
*D17
  1

  0
LINE
  5
27DF
330
1B1D
100
AcDbEntity
  8
AM_5
100
AcDbLine
 10
81.69810487944246
 20
567.1950437701829
 30
0.0
 11
81.69810487944246
 21
576.832664390963
 31
0.0
  0
LINE
  5
27E0
330
1B1D
100
AcDbEntity
  8
AM_5
100
AcDbLine
 10
105.6981048794424
 20
567.1950437701829
 30
0.0
 11
105.6981048794424
 21
576.832664390963
 31
0.0
  0
LINE
  5
27E1
330
1B1D
100
AcDbEntity
  8
AM_5
100
AcDbLine
 10
102.3981048794424
 20
575.182664390963
 30
0.0
 11
84.99810487944246
 21
575.182664390963
 31
0.0
  0
LINE
  5
27E2
330
1B1D
100
AcDbEntity
  8
AM_5
100
AcDbLine
 10
81.69810487944246
 20
575.182664390963
 30
0.0
 11
69.21310487944246
 21
575.182664390963
 31
0.0
  0
SOLID
  5
27E3
330
1B1D
100
AcDbEntity
  8
AM_5
100
AcDbTrace
 10
102.3981048794424
 20
575.732664390963
 30
0.0
 11
102.3981048794424
 21
574.6326643909631
 31
0.0
 12
105.6981048794424
 22
575.182664390963
 32
0.0
 13
105.6981048794424
 23
575.182664390963
 33
0.0
  0
SOLID
  5
27E4
330
1B1D
100
AcDbEntity
  8
AM_5
100
AcDbTrace
 10
84.99810487944246
 20
575.732664390963
 30
0.0
 11
84.99810487944246
 21
574.6326643909631
 31
0.0
 12
81.69810487944246
 22
575.182664390963
 32
0.0
 13
81.69810487944246
 23
575.182664390963
 33
0.0
  0
MTEXT
  5
27E5
330
1B1D
100
AcDbEntity
  8
AM_5
100
AcDbMText
 10
73.80560487944247
 20
577.987664390963
 30
0.0
 40
3.85
 41
0.0
 71
     5
 72
     1
  1
%%c24
  7
CHINESET
 73
     1
 44
1.0
1001
ACAD
1000
MTEXTBEGIN
1070
    73
1070
     1
1070
    44
1040
1.0
1070
    74
1070
     0
1000
MTEXTEND
  0
POINT
  5
27E6
330
1B1D
100
AcDbEntity
  8
Defpoints
 62
     0
100
AcDbPoint
 10
81.69810487944246
 20
566.0950437701829
 30
0.0
  0
POINT
  5
27E7
330
1B1D
100
AcDbEntity
  8
Defpoints
 62
     0
100
AcDbPoint
 10
105.6981048794424
 20
566.0950437701829
 30
0.0
  0
POINT
  5
27E8
330
1B1D
100
AcDbEntity
  8
Defpoints
 62
     0
100
AcDbPoint
 10
105.6981048794424
 20
575.182664390963
 30
0.0
  0
ENDBLK
  5
1B28
330
1B1D
100
AcDbEntity
  8
0
100
AcDbBlockEnd
  0
BLOCK
  5
1B71
330
1B65
100
AcDbEntity
  8
0
100
AcDbBlockBegin
  2
*D18
 70
     1
 10
0.0
 20
0.0
 30
0.0
  3
*D18
  1

  0
LINE
  5
2788
330
1B65
100
AcDbEntity
  8
AM_5
100
AcDbLine
 10
100.4549591289348
 20
665.1840757588397
 30
0.0
 11
125.7328811902928
 21
665.1840757588397
 31
0.0
  0
LINE
  5
2789
330
1B65
100
AcDbEntity
  8
AM_5
100
AcDbLine
 10
100.4549591289348
 20
669.18407575884
 30
0.0
 11
125.7328811902928
 21
669.18407575884
 31
0.0
  0
LINE
  5
278A
330
1B65
100
AcDbEntity
  8
AM_5
100
AcDbLine
 10
124.0828811902927
 20
661.8840757588397
 30
0.0
 11
124.0828811902927
 21
658.5840757588397
 31
0.0
  0
LINE
  5
278B
330
1B65
100
AcDbEntity
  8
AM_5
100
AcDbLine
 10
124.0828811902928
 20
672.4840757588399
 30
0.0
 11
124.0828811902928
 21
675.7840757588399
 31
0.0
  0
LINE
  5
278C
330
1B65
100
AcDbEntity
  8
AM_5
100
AcDbLine
 10
124.0828811902927
 20
665.1840757588397
 30
0.0
 11
124.0828811902927
 21
669.18407575884
 31
0.0
  0
SOLID
  5
278D
330
1B65
100
AcDbEntity
  8
AM_5
100
AcDbTrace
 10
123.5328811902927
 20
661.8840757588397
 30
0.0
 11
124.6328811902927
 21
661.8840757588397
 31
0.0
 12
124.0828811902927
 22
665.1840757588397
 32
0.0
 13
124.0828811902927
 23
665.1840757588397
 33
0.0
  0
SOLID
  5
278E
330
1B65
100
AcDbEntity
  8
AM_5
100
AcDbTrace
 10
123.5328811902927
 20
672.4840757588399
 30
0.0
 11
124.6328811902928
 21
672.4840757588399
 31
0.0
 12
124.0828811902927
 22
669.18407575884
 32
0.0
 13
124.0828811902927
 23
669.18407575884
 33
0.0
  0
MTEXT
  5
278F
330
1B65
100
AcDbEntity
  8
AM_5
100
AcDbMText
 10
121.2778811902926
 20
667.1840757588398
 30
0.0
 40
3.85
 41
0.0
 71
     5
 72
     1
  1
4
  7
CHINESET
 11
0.0000000000000001
 21
1.0
 31
0.0
 73
     1
 44
1.0
1001
ACAD
1000
MTEXTBEGIN
1070
    73
1070
     1
1070
    44
1040
1.0
1070
    74
1070
     0
1000
MTEXTEND
  0
POINT
  5
2790
330
1B65
100
AcDbEntity
  8
Defpoints
 62
     0
100
AcDbPoint
 10
99.35495912893484
 20
665.1840757588397
 30
0.0
  0
POINT
  5
2791
330
1B65
100
AcDbEntity
  8
Defpoints
 62
     0
100
AcDbPoint
 10
99.35495912893484
 20
669.18407575884
 30
0.0
  0
POINT
  5
2792
330
1B65
100
AcDbEntity
  8
Defpoints
 62
     0
100
AcDbPoint
 10
124.0828811902927
 20
669.18407575884
 30
0.0
  0
ENDBLK
  5
1B72
330
1B65
100
AcDbEntity
  8
0
100
AcDbBlockEnd
  0
BLOCK
  5
1C43
330
1C39
100
AcDbEntity
  8
0
100
AcDbBlockBegin
  2
*D19
 70
     1
 10
0.0
 20
0.0
 30
0.0
  3
*D19
  1

  0
LINE
  5
2776
330
1C39
100
AcDbEntity
  8
AM_5
100
AcDbLine
 10
80.1923653587794
 20
655.2339711567872
 30
0.0
 11
60.71157398746362
 21
674.7147625281029
 31
0.0
  0
LINE
  5
2777
330
1C39
100
AcDbEntity
  8
AM_5
100
AcDbLine
 10
105.6482094814951
 20
680.6898152795029
 30
0.0
 11
86.16741811017931
 21
700.1706066508186
 31
0.0
  0
LINE
  5
2778
330
1C39
100
AcDbEntity
  8
AM_5
100
AcDbLine
 10
64.21175255433701
 20
675.8814887170608
 30
0.0
 11
85.00069192122158
 21
696.6704280839453
 31
0.0
  0
SOLID
  5
2779
330
1C39
100
AcDbEntity
  8
AM_5
100
AcDbTrace
 10
63.82284382468441
 20
676.2703974467133
 30
0.0
 11
64.60066128398961
 21
675.4925799874081
 31
0.0
 12
61.87830017642141
 22
673.5480363391452
 32
0.0
 13
61.87830017642141
 23
673.5480363391452
 33
0.0
  0
SOLID
  5
277A
330
1C39
100
AcDbEntity
  8
AM_5
100
AcDbTrace
 10
84.61178319156898
 20
697.0593368135979
 30
0.0
 11
85.38960065087417
 21
696.2815193542927
 31
0.0
 12
87.33414429913711
 22
699.0038804618609
 32
0.0
 13
87.33414429913711
 23
699.0038804618609
 33
0.0
  0
MTEXT
  5
277B
330
1C39
100
AcDbEntity
  8
AM_5
100
AcDbMText
 10
72.6227877165511
 20
688.2593929217313
 30
0.0
 40
3.85
 41
0.0
 71
     5
 72
     1
  1
36
  7
CHINESET
 11
0.7071067811865476
 21
0.7071067811865475
 31
0.0
 73
     1
 44
1.0
1001
ACAD
1000
MTEXTBEGIN
1070
    73
1070
     1
1070
    44
1040
1.0
1070
    74
1070
     0
1000
MTEXTEND
  0
POINT
  5
277C
330
1C39
100
AcDbEntity
  8
Defpoints
 62
     0
100
AcDbPoint
 10
80.97018281808459
 20
654.456153697482
 30
0.0
  0
POINT
  5
277D
330
1C39
100
AcDbEntity
  8
Defpoints
 62
     0
100
AcDbPoint
 10
106.4260269408003
 20
679.9119978201977
 30
0.0
  0
POINT
  5
277E
330
1C39
100
AcDbEntity
  8
Defpoints
 62
     0
100
AcDbPoint
 10
87.33414429913711
 20
699.0038804618609
 30
0.0
  0
ENDBLK
  5
1C44
330
1C39
100
AcDbEntity
  8
0
100
AcDbBlockEnd
  0
BLOCK
  5
23C1
330
23B7
100
AcDbEntity
  8
0
100
AcDbBlockBegin
  2
*D20
 70
     1
 10
0.0
 20
0.0
 30
0.0
  3
*D20
  1

  0
LINE
  5
27F4
330
23B7
100
AcDbEntity
  8
AM_5
100
AcDbLine
 10
12.44069531376169
 20
595.5950437701829
 30
0.0
 11
12.44069531376169
 21
608.0950437701829
 31
0.0
  0
LINE
  5
27F5
330
23B7
100
AcDbEntity
  8
AM_5
100
AcDbLine
 10
24.4406953137617
 20
595.5950437701829
 30
0.0
 11
24.4406953137617
 21
608.0950437701829
 31
0.0
  0
LINE
  5
27F6
330
23B7
100
AcDbEntity
  8
AM_5
100
AcDbLine
 10
15.44069531376169
 20
606.5950437701829
 30
0.0
 11
21.44069531376169
 21
606.5950437701829
 31
0.0
  0
SOLID
  5
27F7
330
23B7
100
AcDbEntity
  8
AM_5
100
AcDbTrace
 10
15.44069531376169
 20
607.0950437701829
 30
0.0
 11
15.44069531376169
 21
606.0950437701828
 31
0.0
 12
12.44069531376169
 22
606.5950437701829
 32
0.0
 13
12.44069531376169
 23
606.5950437701829
 33
0.0
  0
SOLID
  5
27F8
330
23B7
100
AcDbEntity
  8
AM_5
100
AcDbTrace
 10
21.44069531376169
 20
607.0950437701829
 30
0.0
 11
21.44069531376169
 21
606.0950437701828
 31
0.0
 12
24.4406953137617
 22
606.5950437701829
 32
0.0
 13
24.4406953137617
 23
606.5950437701829
 33
0.0
  0
MTEXT
  5
27F9
330
23B7
100
AcDbEntity
  8
AM_5
100
AcDbMText
 10
18.44069531376169
 20
609.1450437701828
 30
0.0
 40
3.5
 41
0.0
 71
     5
 72
     1
  1
%%c12
  7
CHINESET
 73
     1
 44
1.0
1001
ACAD
1000
MTEXTBEGIN
1070
    73
1070
     1
1070
    44
1040
1.0
1070
    74
1070
     0
1000
MTEXTEND
  0
POINT
  5
27FA
330
23B7
100
AcDbEntity
  8
Defpoints
 62
     0
100
AcDbPoint
 10
12.44069531376169
 20
594.5950437701829
 30
0.0
  0
POINT
  5
27FB
330
23B7
100
AcDbEntity
  8
Defpoints
 62
     0
100
AcDbPoint
 10
24.4406953137617
 20
594.5950437701829
 30
0.0
  0
POINT
  5
27FC
330
23B7
100
AcDbEntity
  8
Defpoints
 62
     0
100
AcDbPoint
 10
24.4406953137617
 20
606.5950437701829
 30
0.0
  0
ENDBLK
  5
23C2
330
23B7
100
AcDbEntity
  8
0
100
AcDbBlockEnd
  0
BLOCK
  5
272A
330
271E
100
AcDbEntity
  8
0
100
AcDbBlockBegin
  2
*D21
 70
     1
 10
0.0
 20
0.0
 30
0.0
  3
*D21
  1

  0
LINE
  5
27FD
330
271E
100
AcDbEntity
  8
AM_5
100
AcDbLine
 10
74.31332897486129
 20
669.5982888267348
 30
0.0
 11
52.31136875608536
 21
669.5982888267348
 31
0.0
  0
LINE
  5
27FE
330
271E
100
AcDbEntity
  8
AM_5
100
AcDbLine
 10
72.54457186907576
 20
662.5982888267348
 30
0.0
 11
52.31136875608536
 21
662.5982888267348
 31
0.0
  0
LINE
  5
27FF
330
271E
100
AcDbEntity
  8
AM_5
100
AcDbLine
 10
53.81136875608536
 20
672.5982888267347
 30
0.0
 11
53.81136875608536
 21
675.5982888267348
 31
0.0
  0
LINE
  5
2800
330
271E
100
AcDbEntity
  8
AM_5
100
AcDbLine
 10
53.81136875608536
 20
659.5982888267347
 30
0.0
 11
53.81136875608536
 21
656.5982888267348
 31
0.0
  0
LINE
  5
2801
330
271E
100
AcDbEntity
  8
AM_5
100
AcDbLine
 10
53.81136875608536
 20
669.5982888267348
 30
0.0
 11
53.81136875608536
 21
662.5982888267348
 31
0.0
  0
SOLID
  5
2802
330
271E
100
AcDbEntity
  8
AM_5
100
AcDbTrace
 10
53.31136875608535
 20
672.5982888267347
 30
0.0
 11
54.31136875608536
 21
672.5982888267347
 31
0.0
 12
53.81136875608536
 22
669.5982888267348
 32
0.0
 13
53.81136875608536
 23
669.5982888267348
 33
0.0
  0
SOLID
  5
2803
330
271E
100
AcDbEntity
  8
AM_5
100
AcDbTrace
 10
53.31136875608535
 20
659.5982888267347
 30
0.0
 11
54.31136875608536
 21
659.5982888267347
 31
0.0
 12
53.81136875608536
 22
662.5982888267348
 32
0.0
 13
53.81136875608536
 23
662.5982888267348
 33
0.0
  0
MTEXT
  5
2804
330
271E
100
AcDbEntity
  8
AM_5
100
AcDbMText
 10
51.26136875608525
 20
666.0982888267348
 30
0.0
 40
3.5
 41
0.0
 71
     5
 72
     1
  1
7
  7
CHINESET
 11
0.0000000000000001
 21
1.0
 31
0.0
 73
     1
 44
1.0
1001
ACAD
1000
MTEXTBEGIN
1070
    73
1070
     1
1070
    44
1040
1.0
1070
    74
1070
     0
1000
MTEXTEND
  0
POINT
  5
2805
330
271E
100
AcDbEntity
  8
Defpoints
 62
     0
100
AcDbPoint
 10
75.31332897486129
 20
669.5982888267348
 30
0.0
  0
POINT
  5
2806
330
271E
100
AcDbEntity
  8
Defpoints
 62
     0
100
AcDbPoint
 10
73.54457186907575
 20
662.5982888267348
 30
0.0
  0
POINT
  5
2807
330
271E
100
AcDbEntity
  8
Defpoints
 62
     0
100
AcDbPoint
 10
53.81136875608536
 20
662.5982888267348
 30
0.0
  0
ENDBLK
  5
272B
330
271E
100
AcDbEntity
  8
0
100
AcDbBlockEnd
  0
BLOCK
  5
2A89
330
2A84
100
AcDbEntity
  8
0
100
AcDbBlockBegin
  2
*S25
 70
     1
 10
0.0
 20
0.0
 30
0.0
  3
*S25
  1

  0
LINE
  5
2A85
330
2A84
100
AcDbEntity
  8
AM_5
 62
     5
100
AcDbLine
 10
139.4712520831331
 20
639.1889754001096
 30
0.0
 11
97.30739780240742
 21
639.1889754001096
 31
0.0
  0
LINE
  5
2A86
330
2A84
100
AcDbEntity
  8
AM_5
 62
     5
100
AcDbLine
 10
97.30739780240742
 20
639.1889754001096
 30
0.0
 11
85.90329790505258
 21
650.0810788355489
 31
0.0
  0
TRACE
  5
2A87
330
2A84
100
AcDbEntity
  8
AM_5
 62
     5
370
    35
100
AcDbTrace
 10
86.25338104307761
 20
650.4476180538074
 30
0.0
 11
85.55321476702756
 21
649.7145396172904
 31
0.0
 12
83.11915611806842
 22
652.7402242828625
 32
0.0
 13
83.11915611806842
 23
652.7402242828625
 33
0.0
  0
MTEXT
  5
2A88
330
2A84
100
AcDbEntity
  8
AM_5
 62
     5
100
AcDbMText
 10
139.4712520831331
 20
642.8833357738898
 30
0.0
 40
3.85
 41
0.0
 71
     7
 72
     5
  1

  7
ACISOTS
 73
     1
 44
1.0
1001
ACAD
1000
MTEXTBEGIN
1070
    73
1070
     1
1070
    44
1040
1.0
1070
    74
1070
     0
1000
MTEXTEND
  0
ENDBLK
  5
2A8A
330
2A84
100
AcDbEntity
  8
0
100
AcDbBlockEnd
  0
BLOCK
  5
2A91
330
2A8C
100
AcDbEntity
  8
0
100
AcDbBlockBegin
  2
*S26
 70
     1
 10
0.0
 20
0.0
 30
0.0
  3
*S26
  1

  0
LINE
  5
2A8D
330
2A8C
100
AcDbEntity
  8
AM_5
 62
     5
100
AcDbLine
 10
58.07427684052407
 20
465.8952422834164
 30
0.0
 11
37.12117646819934
 21
465.8952422834164
 31
0.0
  0
LINE
  5
2A8E
330
2A8C
100
AcDbEntity
  8
AM_5
 62
     5
100
AcDbLine
 10
37.12117646819934
 20
465.8952422834164
 30
0.0
 11
27.141873504213
 21
479.9285628604429
 31
0.0
  0
TRACE
  5
2A8F
330
2A8C
100
AcDbEntity
  8
AM_5
 62
     5
370
    35
100
AcDbTrace
 10
27.55494274871625
 20
480.2223025433196
 30
0.0
 11
26.72880425970974
 21
479.6348231775661
 31
0.0
 12
24.91069908997679
 22
483.0661352872177
 32
0.0
 13
24.91069908997679
 23
483.0661352872177
 33
0.0
  0
MTEXT
  5
2A90
330
2A8C
100
AcDbEntity
  8
AM_5
 62
     5
100
AcDbMText
 10
58.07427684052407
 20
472.6882909182044
 30
0.0
 40
3.85
 41
0.0
 71
     7
 72
     5
  1

  7
ACISOTS
 73
     1
 44
1.0
1001
ACAD
1000
MTEXTBEGIN
1070
    73
1070
     1
1070
    44
1040
1.0
1070
    74
1070
     0
1000
MTEXTEND
  0
ENDBLK
  5
2A92
330
2A8C
100
AcDbEntity
  8
0
100
AcDbBlockEnd
  0
ENDSEC
  0
SECTION
  2
ENTITIES
  0
LINE
  5
1232
330
1F
100
AcDbEntity
  8
AM_VIS
100
AcDbLine
 10
75.54067224993469
 20
479.0950437701829
 30
0.0
 11
75.31332897486141
 21
479.0950437701829
 31
0.0
  0
LINE
  5
1233
330
1F
100
AcDbEntity
  8
AM_VIS
100
AcDbLine
 10
78.77973950145042
 20
479.0950437701829
 30
0.0
 11
75.54067224993469
 21
479.0950437701829
 31
0.0
  0
LINE
  5
1234
330
1F
100
AcDbEntity
  8
AM_VIS
100
AcDbLine
 10
79.41456356008808
 20
479.0950437701829
 30
0.0
 11
78.77973950145042
 21
479.0950437701829
 31
0.0
  0
LINE
  5
1235
330
1F
100
AcDbEntity
  8
AM_VIS
100
AcDbLine
 10
83.3843963804577
 20
479.0950437701829
 30
0.0
 11
82.67728959927115
 21
479.0950437701829
 31
0.0
  0
LINE
  5
1236
330
1F
100
AcDbEntity
  8
AM_VIS
100
AcDbLine
 10
88.69810537392046
 20
479.0950437701829
 30
0.0
 11
88.39810537392049
 21
479.0950437701829
 31
0.0
  0
LINE
  5
1237
330
1F
100
AcDbEntity
  8
AM_VIS
100
AcDbLine
 10
88.90227335612989
 20
544.0950437701828
 30
0.0
 11
88.90227335612989
 21
566.0950437701829
 31
0.0
  0
ARC
  5
1238
330
1F
100
AcDbEntity
  8
AM_VIS
100
AcDbCircle
 10
70.47007231424186
 20
563.8852295576997
 30
0.0
 40
11.35005279746159
100
AcDbArc
 50
0.0495427673009943
 51
8.409002091056002
  0
ARC
  5
1239
330
1F
100
AcDbEntity
  8
AM_VIS
100
AcDbCircle
 10
70.46827394229757
 20
563.9049909706243
 30
0.0
 40
11.35185128448709
100
AcDbArc
 50
351.5916612852873
 51
359.9497938563563
  0
LINE
  5
123A
330
1F
100
AcDbEntity
  8
AM_VIS
100
AcDbLine
 10
98.49393640275534
 20
566.0950437701829
 30
0.0
 11
98.49393640275534
 21
544.0950437701828
 31
0.0
  0
ARC
  5
123B
330
1F
100
AcDbEntity
  8
AM_VIS
100
AcDbCircle
 10
116.8005255423564
 20
563.8950437701828
 30
0.0
 40
11.22435942832809
100
AcDbArc
 50
171.5467891366036
 51
188.4532108633964
  0
ARC
  5
123C
330
1F
100
AcDbEntity
  8
AM_VIS
100
AcDbCircle
 10
89.5419103160601
 20
565.4581819786583
 30
0.0
 40
0.9423677543160906
100
AcDbArc
 50
96.19663247386762
 51
137.4828972621363
  0
SPLINE
  5
123D
330
1F
100
AcDbEntity
  8
AM_VIS
100
AcDbSpline
210
0.0000000000000107
220
0.0000000000000047
230
1.0
 70
     8
 71
     3
 72
    14
 73
    10
 74
     0
 42
0.0000000001
 43
0.0000000001
 40
1.203537386582028
 40
1.203537386582028
 40
1.203537386582028
 40
1.203537386582028
 40
1.236194143304746
 40
1.236194143304746
 40
1.559518028508424
 40
1.559518028508424
 40
1.721179971110263
 40
1.721179971110263
 40
1.882841913712102
 40
1.882841913712102
 40
1.882841913712102
 40
1.882841913712102
 10
85.88082735847526
 20
566.0950437701829
 30
-0.0000000000000036
 10
85.88178384913614
 20
566.1025332542749
 30
-0.0000000000000036
 10
85.88264989198316
 20
566.1099365607297
 30
-0.0000000000000036
 10
85.8910740653442
 20
566.1896525540689
 30
0.0
 10
85.89002966044672
 20
566.2613875604282
 30
0.0
 10
85.86357411433112
 20
566.3386550742341
 30
-0.0000000000000036
 10
85.85066673742934
 20
566.3594620905878
 30
-0.0000000000000036
 10
85.81615172555389
 20
566.3876690963525
 30
-0.0000000000000036
 10
85.7945282918752
 20
566.3950437701828
 30
-0.0000000000000036
 10
85.76903411604767
 20
566.3950437701828
 30
-0.0000000000000036
  0
LINE
  5
123E
330
1F
100
AcDbEntity
  8
AM_VIS
100
AcDbLine
 10
98.49393640275531
 20
566.0950437701829
 30
0.0
 11
88.90227335612989
 21
566.0950437701829
 31
0.0
  0
LINE
  5
123F
330
1F
100
AcDbEntity
  8
AM_VIS
100
AcDbLine
 10
81.69810487944246
 20
565.5450437701829
 30
0.0
 11
81.69810487944246
 21
566.0950437701829
 31
0.0
  0
LINE
  5
1240
330
1F
100
AcDbEntity
  8
AM_VIS
100
AcDbLine
 10
81.69810487944246
 20
544.0950437701828
 30
0.0
 11
81.69810487944246
 21
562.2450437701826
 31
0.0
  0
LINE
  5
1241
330
1F
100
AcDbEntity
  8
AM_VIS
100
AcDbLine
 10
85.88802625344825
 20
566.1981592272284
 30
0.0
 11
85.88802625344825
 21
566.0950437701829
 31
0.0
  0
LINE
  5
1242
330
1F
100
AcDbEntity
  8
AM_VIS
100
AcDbLine
 10
105.6981048794424
 20
565.5450437701829
 30
0.0
 11
105.6981048794424
 21
566.0950437701829
 31
0.0
  0
LINE
  5
1243
330
1F
100
AcDbEntity
  8
AM_VIS
100
AcDbLine
 10
105.6981048794424
 20
544.0950437701828
 30
0.0
 11
105.6981048794424
 21
562.2450437701828
 31
0.0
  0
LINE
  5
1244
330
1F
100
AcDbEntity
  8
AM_VIS
100
AcDbLine
 10
102.6981048794424
 20
566.3950437701828
 30
0.0
 11
102.8981048794425
 21
566.0950437701829
 31
0.0
  0
LINE
  5
1245
330
1F
100
AcDbEntity
  8
AM_VIS
100
AcDbLine
 10
84.69810487944247
 20
566.3950437701828
 30
0.0
 11
84.49810487944246
 21
566.0950437701829
 31
0.0
  0
LINE
  5
1246
330
1F
100
AcDbEntity
  8
AM_VIS
100
AcDbLine
 10
89.44019026908724
 20
566.3950437701828
 30
0.0
 11
102.6981048794424
 21
566.3950437701828
 31
0.0
  0
LINE
  5
1247
330
1F
100
AcDbEntity
  8
AM_VIS
100
AcDbLine
 10
84.69810487944247
 20
566.3950437701828
 30
0.0
 11
85.76903411604769
 21
566.3950437701828
 31
0.0
  0
LINE
  5
1248
330
1F
100
AcDbEntity
  8
AM_VIS
100
AcDbLine
 10
85.76903411604769
 20
566.3950437701828
 30
0.0
 11
89.44019026908724
 21
566.3950437701828
 31
0.0
  0
LINE
  5
1249
102
{ACAD_REACTORS
330
1811
330
1B2A
102
}
330
1F
100
AcDbEntity
  8
AM_VIS
100
AcDbLine
 10
98.49393640275531
 20
566.0950437701829
 30
0.0
 11
105.6981048794424
 21
566.0950437701829
 31
0.0
  0
LINE
  5
124A
102
{ACAD_REACTORS
330
1B2A
102
}
330
1F
100
AcDbEntity
  8
AM_VIS
100
AcDbLine
 10
81.69810487944246
 20
566.0950437701829
 30
0.0
 11
88.90227335612989
 21
566.0950437701829
 31
0.0
  0
LINE
  5
1255
330
1F
100
AcDbEntity
  8
AM_VIS
100
AcDbLine
 10
86.1674172535366
 20
651.8752135398819
 30
0.0
 11
83.3843963804577
 21
649.0921926668029
 31
0.0
  0
LINE
  5
1256
330
1F
100
AcDbEntity
  8
AM_VIS
100
AcDbLine
 10
82.67728959927117
 20
648.7992994479895
 30
0.0
 11
79.41456356008811
 21
648.7992994479895
 31
0.0
  0
LINE
  5
1257
330
1F
100
AcDbEntity
  8
AM_VIS
100
AcDbLine
 10
75.31332897486129
 20
652.9005339450073
 30
0.0
 11
75.31332897486129
 21
669.5982888267348
 31
0.0
  0
LINE
  5
1258
102
{ACAD_REACTORS
330
197E
102
}
330
1F
100
AcDbEntity
  8
AM_VIS
100
AcDbLine
 10
75.6062221936748
 20
670.3053956079213
 30
0.0
 11
90.57678503036081
 21
685.2759584446073
 31
0.0
  0
LINE
  5
1259
330
1F
100
AcDbEntity
  8
AM_VIS
100
AcDbLine
 10
91.28389181154735
 20
685.5688516634208
 30
0.0
 11
107.9816466932748
 21
685.5688516634208
 31
0.0
  0
LINE
  5
125A
330
1F
100
AcDbEntity
  8
AM_VIS
100
AcDbLine
 10
112.0828811902926
 20
681.4676170781936
 30
0.0
 11
112.0828811902926
 21
678.204891039011
 31
0.0
  0
LINE
  5
125B
330
1F
100
AcDbEntity
  8
AM_VIS
100
AcDbLine
 10
111.7899879714792
 20
677.4977842578245
 30
0.0
 11
109.0069671866091
 21
674.7147634729543
 31
0.0
  0
LINE
  5
125C
330
1F
100
AcDbEntity
  8
AM_VIS
100
AcDbLine
 10
109.0069671866092
 20
674.7147634729542
 30
0.0
 11
109.0069671866092
 21
672.484075354587
 31
0.0
  0
LINE
  5
125D
330
1F
100
AcDbEntity
  8
AM_VIS
100
AcDbLine
 10
108.7069671866093
 20
672.1840753545869
 30
0.0
 11
106.5069671866093
 21
672.1840753545869
 31
0.0
  0
LINE
  5
125E
330
1F
100
AcDbEntity
  8
AM_VIS
100
AcDbLine
 10
106.0069671866092
 20
671.6840753545869
 30
0.0
 11
106.0069671866092
 21
663.6840753545869
 31
0.0
  0
LINE
  5
125F
330
1F
100
AcDbEntity
  8
AM_VIS
100
AcDbLine
 10
106.5069671866093
 20
663.1840753545869
 30
0.0
 11
107.5069671866092
 21
663.1840753545869
 31
0.0
  0
LINE
  5
1260
330
1F
100
AcDbEntity
  8
AM_VIS
100
AcDbLine
 10
107.8069671866092
 20
663.484075354587
 30
0.0
 11
107.8069671866092
 21
664.384075137447
 31
0.0
  0
LINE
  5
1261
330
1F
100
AcDbEntity
  8
AM_VIS
100
AcDbLine
 10
108.3069671866092
 20
664.884075137447
 30
0.0
 11
109.0069671866092
 21
664.884075137447
 31
0.0
  0
LINE
  5
1262
330
1F
100
AcDbEntity
  8
AM_VIS
100
AcDbLine
 10
109.0069671866092
 20
664.884075137447
 30
0.0
 11
109.0069671866092
 21
661.2797337296629
 31
0.0
  0
LINE
  5
1263
102
{ACAD_REACTORS
330
197E
102
}
330
1F
100
AcDbEntity
  8
AM_VIS
100
AcDbLine
 10
109.0069671866092
 20
661.2797337296629
 30
0.0
 11
99.60244699682812
 21
651.8752135398817
 31
0.0
  0
LINE
  5
1264
330
1F
100
AcDbEntity
  8
AM_VIS
100
AcDbLine
 10
99.60244699682816
 20
651.8752135398819
 30
0.0
 11
95.99810537392045
 21
651.8752135398819
 31
0.0
  0
LINE
  5
1265
330
1F
100
AcDbEntity
  8
AM_VIS
100
AcDbLine
 10
95.99810537392045
 20
651.8752135398819
 30
0.0
 11
95.99810537392045
 21
652.5752135398818
 31
0.0
  0
LINE
  5
1266
330
1F
100
AcDbEntity
  8
AM_VIS
100
AcDbLine
 10
96.49810537392042
 20
653.0752135398818
 30
0.0
 11
97.39810537392049
 21
653.0752135398818
 31
0.0
  0
LINE
  5
1267
330
1F
100
AcDbEntity
  8
AM_VIS
100
AcDbLine
 10
97.6981053739205
 20
653.3752135398819
 30
0.0
 11
97.6981053739205
 21
654.3752135398817
 31
0.0
  0
LINE
  5
1268
330
1F
100
AcDbEntity
  8
AM_VIS
100
AcDbLine
 10
97.19810537392048
 20
654.8752135398818
 30
0.0
 11
89.19810537392047
 21
654.8752135398818
 31
0.0
  0
LINE
  5
1269
330
1F
100
AcDbEntity
  8
AM_VIS
100
AcDbLine
 10
88.6981053739205
 20
654.3752135398818
 30
0.0
 11
88.6981053739205
 21
652.1752135398818
 31
0.0
  0
LINE
  5
126A
330
1F
100
AcDbEntity
  8
AM_VIS
100
AcDbLine
 10
88.39810537392049
 20
651.8752135398819
 30
0.0
 11
86.16741725353662
 21
651.8752135398819
 31
0.0
  0
ARC
  5
126B
330
1F
100
AcDbEntity
  8
AM_VIS
100
AcDbCircle
 10
82.67728959927115
 20
649.7992994479895
 30
0.0
 40
1.0
100
AcDbArc
 50
269.9999999999992
 51
314.9999999999995
  0
ARC
  5
126C
330
1F
100
AcDbEntity
  8
AM_VIS
100
AcDbCircle
 10
79.41456356008839
 20
649.7992994479893
 30
0.0
 40
1.0
100
AcDbArc
 50
230.593063553384
 51
269.9999999999821
  0
ARC
  5
126D
330
1F
100
AcDbEntity
  8
AM_VIS
100
AcDbCircle
 10
93.69810487944253
 20
667.1840757588396
 30
0.0
 40
23.5
100
AcDbArc
 50
219.4069380069385
 51
230.593063553385
  0
ARC
  5
126E
330
1F
100
AcDbEntity
  8
AM_VIS
100
AcDbCircle
 10
76.31332897486135
 20
652.9005339450073
 30
0.0
 40
1.0
100
AcDbArc
 50
179.9999999999984
 51
219.406936446613
  0
ARC
  5
126F
102
{ACAD_REACTORS
330
197E
102
}
330
1F
100
AcDbEntity
  8
AM_VIS
100
AcDbCircle
 10
76.31332897486135
 20
669.5982888267348
 30
0.0
 40
1.0
100
AcDbArc
 50
134.9999999999994
 51
180.0
  0
ARC
  5
1270
330
1F
100
AcDbEntity
  8
AM_VIS
100
AcDbCircle
 10
91.28389181154735
 20
684.5688516634208
 30
0.0
 40
1.0
100
AcDbArc
 50
89.9999999999992
 51
134.9999999999995
  0
ARC
  5
1271
330
1F
100
AcDbEntity
  8
AM_VIS
100
AcDbCircle
 10
107.9816466932748
 20
684.5688516634208
 30
0.0
 40
1.0
100
AcDbArc
 50
50.59306355338407
 51
89.99999999999836
  0
ARC
  5
1272
330
1F
100
AcDbEntity
  8
AM_VIS
100
AcDbCircle
 10
93.69810487944253
 20
667.1840757588396
 30
0.0
 40
23.5
100
AcDbArc
 50
39.40693644661283
 51
50.59306199305919
  0
ARC
  5
1273
330
1F
100
AcDbEntity
  8
AM_VIS
100
AcDbCircle
 10
111.082881190293
 20
681.4676170781936
 30
0.0
 40
1.0
100
AcDbArc
 50
0.0
 51
39.40693644661328
  0
ARC
  5
1274
330
1F
100
AcDbEntity
  8
AM_VIS
100
AcDbCircle
 10
111.0828811902926
 20
678.204891039011
 30
0.0
 40
1.0
100
AcDbArc
 50
314.9999999999995
 51
0.0
  0
ARC
  5
1275
330
1F
100
AcDbEntity
  8
AM_VIS
100
AcDbCircle
 10
108.7069671866092
 20
672.484075354587
 30
0.0
 40
0.3
100
AcDbArc
 50
270.0000000000012
 51
0.0
  0
ARC
  5
1276
330
1F
100
AcDbEntity
  8
AM_VIS
100
AcDbCircle
 10
106.5069671866093
 20
671.6840753545869
 30
0.0
 40
0.5000000000000001
100
AcDbArc
 50
90.0
 51
179.9999999999984
  0
ARC
  5
1277
330
1F
100
AcDbEntity
  8
AM_VIS
100
AcDbCircle
 10
106.5069671866093
 20
663.6840753545869
 30
0.0
 40
0.5000000000000001
100
AcDbArc
 50
179.9999999999984
 51
270.0
  0
ARC
  5
1278
330
1F
100
AcDbEntity
  8
AM_VIS
100
AcDbCircle
 10
107.5069671866093
 20
663.484075354587
 30
0.0
 40
0.3
100
AcDbArc
 50
270.0
 51
359.9999999999984
  0
ARC
  5
1279
330
1F
100
AcDbEntity
  8
AM_VIS
100
AcDbCircle
 10
108.3069671866092
 20
664.384075137447
 30
0.0
 40
0.5000000000000001
100
AcDbArc
 50
90.0
 51
179.9999999999984
  0
ARC
  5
127A
330
1F
100
AcDbEntity
  8
AM_VIS
100
AcDbCircle
 10
96.49810537392042
 20
652.5752135398818
 30
0.0
 40
0.5000000000000001
100
AcDbArc
 50
90.0
 51
180.0000000000016
  0
ARC
  5
127B
330
1F
100
AcDbEntity
  8
AM_VIS
100
AcDbCircle
 10
97.39810537392049
 20
653.3752135398819
 30
0.0
 40
0.3
100
AcDbArc
 50
270.0
 51
359.9999999999984
  0
ARC
  5
127C
330
1F
100
AcDbEntity
  8
AM_VIS
100
AcDbCircle
 10
97.19810537392048
 20
654.3752135398817
 30
0.0
 40
0.5000000000000001
100
AcDbArc
 50
359.9999999999984
 51
90.0
  0
ARC
  5
127D
330
1F
100
AcDbEntity
  8
AM_VIS
100
AcDbCircle
 10
89.1981053739205
 20
654.3752135398818
 30
0.0
 40
0.5000000000000001
100
AcDbArc
 50
90.00000000000081
 51
180.0
  0
ARC
  5
127E
330
1F
100
AcDbEntity
  8
AM_VIS
100
AcDbCircle
 10
88.39810537392049
 20
652.1752135398818
 30
0.0
 40
0.3
100
AcDbArc
 50
269.9999999999992
 51
359.9999999999951
  0
ARC
  5
127F
330
1F
100
AcDbEntity
  8
AM_VIS
100
AcDbCircle
 10
93.69810487944247
 20
667.1840757588398
 30
0.0
 40
11.1
100
AcDbArc
 50
82.30333245757817
 51
97.69666754242265
  0
ARC
  5
1280
330
1F
100
AcDbEntity
  8
AM_VIS
100
AcDbCircle
 10
93.69810487944247
 20
667.1840757588398
 30
0.0
 40
11.1
100
AcDbArc
 50
262.3033324575774
 51
277.6966675424226
  0
ARC
  5
1285
330
1F
100
AcDbEntity
  8
AM_VIS
100
AcDbCircle
 10
93.69810487944244
 20
667.1840757588397
 30
0.0
 40
11.098
100
AcDbArc
 50
262.3801151216932
 51
277.6198848783064
  0
ARC
  5
1286
330
1F
100
AcDbEntity
  8
AM_VIS
100
AcDbCircle
 10
93.69810487944244
 20
667.1840757588397
 30
0.0
 40
11.098
100
AcDbArc
 50
82.38011512169837
 51
97.61988487830203
  0
ARC
  5
1287
330
1F
100
AcDbEntity
  8
AM_VIS
100
AcDbCircle
 10
88.96707537876224
 20
658.3739267738422
 30
0.0
 40
1.000068263685047
100
AcDbArc
 50
61.76541870974762
 51
96.87785952288763
  0
ARC
  5
1288
330
1F
100
AcDbEntity
  8
AM_VIS
100
AcDbCircle
 10
102.5082538644399
 20
671.9151052595203
 30
0.0
 40
1.000068263684969
100
AcDbArc
 50
173.1221404771129
 51
208.2345812902556
  0
ARC
  5
1289
330
1F
100
AcDbEntity
  8
AM_VIS
100
AcDbCircle
 10
84.88795589444487
 20
662.4530462581595
 30
0.0
 40
1.000068263685039
100
AcDbArc
 50
353.1221404771145
 51
28.2345812902554
  0
ARC
  5
128A
330
1F
100
AcDbEntity
  8
AM_VIS
100
AcDbCircle
 10
98.42913438012267
 20
675.9942247438377
 30
0.0
 40
1.000068263685199
100
AcDbArc
 50
241.7654187097497
 51
276.877859522885
  0
LINE
  5
128B
330
1F
100
AcDbEntity
  8
AM_VIS
100
AcDbLine
 10
98.49393640275531
 20
656.18407575884
 30
0.0
 11
88.90227335612989
 21
656.1840757588397
 31
0.0
  0
LINE
  5
128C
102
{ACAD_REACTORS
330
19A4
102
}
330
1F
100
AcDbEntity
  8
AM_VIS
100
AcDbLine
 10
88.90227335612953
 20
678.1840757588398
 30
0.0
 11
98.49393640275497
 21
678.1840757588399
 31
0.0
  0
ARC
  5
128D
330
1F
100
AcDbEntity
  8
AM_VIS
100
AcDbCircle
 10
93.69810487944247
 20
667.1840757588398
 30
0.0
 40
9.0
100
AcDbArc
 50
241.7641812816118
 51
28.23581871838923
  0
ARC
  5
128E
330
1F
100
AcDbEntity
  8
AM_VIS
100
AcDbCircle
 10
93.69810487944247
 20
667.1840757588398
 30
0.0
 40
9.0
100
AcDbArc
 50
61.7641812816121
 51
208.2358187183892
  0
ARC
  5
128F
330
1F
100
AcDbEntity
  8
AM_VIS
100
AcDbCircle
 10
99.88528921482464
 20
673.3712600942222
 30
0.0
 40
2.0
100
AcDbArc
 50
330.962014162847
 51
119.0379858371529
  0
ARC
  5
1290
330
1F
100
AcDbEntity
  8
AM_VIS
100
AcDbCircle
 10
98.42912111317042
 20
675.9941543848342
 30
0.0
 40
1.0
100
AcDbArc
 50
276.8790969510241
 51
299.037985837153
  0
ARC
  5
1291
330
1F
100
AcDbEntity
  8
AM_VIS
100
AcDbCircle
 10
93.69810487944247
 20
667.1840757588398
 30
0.0
 40
9.199999999999999
100
AcDbArc
 50
58.17949789235147
 51
211.8205021076495
  0
ARC
  5
1292
330
1F
100
AcDbEntity
  8
AM_VIS
100
AcDbCircle
 10
84.88802625344826
 20
662.4530595251116
 30
0.0
 40
0.9999999999999998
100
AcDbArc
 50
330.962014162847
 51
353.120903048976
  0
ARC
  5
1293
330
1F
100
AcDbEntity
  8
AM_VIS
100
AcDbCircle
 10
87.51092054406024
 20
660.9968914234575
 30
0.0
 40
2.0
100
AcDbArc
 50
150.962014162847
 51
299.0379858371527
  0
ARC
  5
1294
330
1F
100
AcDbEntity
  8
AM_VIS
100
AcDbCircle
 10
88.96708864571445
 20
658.3739971328455
 30
0.0
 40
0.9999999999999998
100
AcDbArc
 50
96.8790969510232
 51
119.0379858371526
  0
ARC
  5
1295
330
1F
100
AcDbEntity
  8
AM_VIS
100
AcDbCircle
 10
93.69810487944247
 20
667.1840757588398
 30
0.0
 40
9.199999999999999
100
AcDbArc
 50
238.1794978923512
 51
31.82050210764958
  0
ARC
  5
1296
330
1F
100
AcDbEntity
  8
AM_VIS
100
AcDbCircle
 10
102.5081835054366
 20
671.9150919925681
 30
0.0
 40
1.0
100
AcDbArc
 50
150.962014162847
 51
173.1209030489777
  0
ARC
  5
1297
102
{ACAD_REACTORS
330
19A4
102
}
330
1F
100
AcDbEntity
  8
AM_VIS
100
AcDbCircle
 10
93.69810487944247
 20
667.1840757588398
 30
0.0
 40
12.0
100
AcDbArc
 50
293.5564643091013
 51
66.44353569089901
  0
ARC
  5
1298
330
1F
100
AcDbEntity
  8
AM_VIS
100
AcDbCircle
 10
93.69810487944247
 20
667.1840757588398
 30
0.0
 40
12.0
100
AcDbArc
 50
113.5564643091017
 51
246.4435356908987
  0
ARC
  5
12AB
330
1F
100
AcDbEntity
  8
AM_VIS
100
AcDbCircle
 10
88.96708864571435
 20
658.3739971328457
 30
0.0
 40
1.0
100
AcDbArc
 50
96.87909695101938
 51
119.0379858371522
  0
ARC
  5
12AC
330
1F
100
AcDbEntity
  8
AM_VIS
100
AcDbCircle
 10
87.51092054406019
 20
660.9968914234577
 30
0.0
 40
2.0
100
AcDbArc
 50
150.9620141628468
 51
299.0379858371519
  0
ARC
  5
12AD
330
1F
100
AcDbEntity
  8
AM_VIS
100
AcDbCircle
 10
84.88802625344822
 20
662.4530595251118
 30
0.0
 40
1.0
100
AcDbArc
 50
330.9620141628467
 51
353.1209030489678
  0
ARC
  5
12AE
330
1F
100
AcDbEntity
  8
AM_VIS
100
AcDbCircle
 10
98.4291211131706
 20
675.9941543848341
 30
0.0
 40
1.0
100
AcDbArc
 50
276.8790969510154
 51
299.0379858371522
  0
ARC
  5
12AF
330
1F
100
AcDbEntity
  8
AM_VIS
100
AcDbCircle
 10
99.88528921482478
 20
673.3712600942221
 30
0.0
 40
2.0
100
AcDbArc
 50
330.9620141628469
 51
119.0379858371522
  0
ARC
  5
12B0
330
1F
100
AcDbEntity
  8
AM_VIS
100
AcDbCircle
 10
102.5081835054367
 20
671.915091992568
 30
0.0
 40
1.0
100
AcDbArc
 50
150.9620141628468
 51
173.1209030489727
  0
LINE
  5
12C4
330
1F
100
AcDbEntity
  8
AM_VIS
100
AcDbLine
 10
0.0559194091807172
 20
479.0950437701829
 30
0.0
 11
0.0559194091807172
 21
544.0950437701828
 31
0.0
  0
LINE
  5
12C5
330
1F
100
AcDbEntity
  8
AM_VIS
100
AcDbLine
 10
36.82547162461202
 20
479.0950437701829
 30
0.0
 11
36.82547162461202
 21
544.0950437701828
 31
0.0
  0
LINE
  5
12C6
330
1F
100
AcDbEntity
  8
AM_VIS
100
AcDbLine
 10
32.72423712759417
 20
544.0950437701828
 30
0.0
 11
16.02648224586676
 21
544.0950437701828
 31
0.0
  0
LINE
  5
12C7
330
1F
100
AcDbEntity
  8
AM_VIS
100
AcDbLine
 10
15.3193754646802
 20
544.0950437701828
 30
0.0
 11
0.3488126279942207
 21
544.0950437701828
 31
0.0
  0
LINE
  5
12C8
330
1F
100
AcDbEntity
  8
AM_VIS
100
AcDbLine
 10
0.3488126279941639
 20
479.0950437701829
 30
0.0
 11
15.3193754646802
 21
479.0950437701829
 31
0.0
  0
LINE
  5
12C9
330
1F
100
AcDbEntity
  8
AM_VIS
100
AcDbLine
 10
16.02648224586676
 20
479.0950437701829
 30
0.0
 11
32.72423712759417
 21
479.0950437701829
 31
0.0
  0
CIRCLE
  5
12D0
330
1F
100
AcDbEntity
  8
AM_VIS
100
AcDbCircle
 10
23.02648224586676
 20
532.0950437701829
 30
0.0
 40
3.076499999999999
  0
CIRCLE
  5
12D1
330
1F
100
AcDbEntity
  8
AM_VIS
100
AcDbCircle
 10
23.02648224586676
 20
532.0950437701829
 30
0.0
 40
2.576499999999999
  0
LINE
  5
12D2
102
{ACAD_REACTORS
330
1A24
102
}
330
1F
100
AcDbEntity
  8
AM_VIS
100
AcDbLine
 10
36.59812834953891
 20
544.0950437701828
 30
0.0
 11
36.82547162461231
 21
544.0950437701828
 31
0.0
  0
LINE
  5
12D3
330
1F
100
AcDbEntity
  8
AM_VIS
100
AcDbLine
 10
33.35906118623211
 20
544.0950437701828
 30
0.0
 11
36.59812834953891
 21
544.0950437701828
 31
0.0
  0
LINE
  5
12D4
330
1F
100
AcDbEntity
  8
AM_VIS
100
AcDbLine
 10
32.72423712759417
 20
544.0950437701828
 30
0.0
 11
33.35906118623211
 21
544.0950437701828
 31
0.0
  0
LINE
  5
12D5
330
1F
100
AcDbEntity
  8
AM_VIS
100
AcDbLine
 10
15.3193754646802
 20
544.0950437701828
 30
0.0
 11
16.02648224586676
 21
544.0950437701828
 31
0.0
  0
LINE
  5
12D6
330
1F
100
AcDbEntity
  8
AM_VIS
100
AcDbLine
 10
0.0559194091807172
 20
544.0950437701828
 30
0.0
 11
0.3488126279942207
 21
544.0950437701828
 31
0.0
  0
LINE
  5
12D7
330
1F
100
AcDbEntity
  8
AM_VIS
100
AcDbLine
 10
0.3488126279941639
 20
479.0950437701829
 30
0.0
 11
0.0559194091807172
 21
479.0950437701829
 31
0.0
  0
LINE
  5
12D8
330
1F
100
AcDbEntity
  8
AM_VIS
100
AcDbLine
 10
16.02648224586676
 20
479.0950437701829
 30
0.0
 11
15.3193754646802
 21
479.0950437701829
 31
0.0
  0
LINE
  5
12D9
330
1F
100
AcDbEntity
  8
AM_VIS
100
AcDbLine
 10
33.35906118623211
 20
479.0950437701829
 30
0.0
 11
32.72423712759417
 21
479.0950437701829
 31
0.0
  0
LINE
  5
12DA
330
1F
100
AcDbEntity
  8
AM_VIS
100
AcDbLine
 10
36.59812834953891
 20
479.0950437701829
 30
0.0
 11
33.35906118623211
 21
479.0950437701829
 31
0.0
  0
LINE
  5
12DB
102
{ACAD_REACTORS
330
19FC
102
}
330
1F
100
AcDbEntity
  8
AM_VIS
100
AcDbLine
 10
36.82547162461231
 20
479.0950437701829
 30
0.0
 11
36.59812834953891
 21
479.0950437701829
 31
0.0
  0
LINE
  5
12DC
330
1F
100
AcDbEntity
  8
AM_VIS
100
AcDbLine
 10
29.4406953137617
 20
544.0950437701828
 30
0.0
 11
29.4406953137617
 21
566.0950437701829
 31
0.0
  0
SPLINE
  5
12DD
330
1F
100
AcDbEntity
  8
AM_VIS
100
AcDbSpline
210
0.0
220
0.0
230
1.0
 70
    11
 71
     3
 72
    44
 73
    40
 74
     0
 42
0.0000000001
 43
0.0000000001
 40
0.0
 40
0.0
 40
0.0
 40
0.0
 40
0.2930336550384191
 40
0.2930336550384191
 40
0.5860673100768383
 40
0.5860673100768383
 40
1.000170200786402
 40
1.000170200786402
 40
1.358336864029974
 40
1.358336864029974
 40
1.716503527273545
 40
1.716503527273545
 40
2.423321297456188
 40
2.423321297456188
 40
3.205029370627489
 40
3.205029370627489
 40
3.989085737580173
 40
3.989085737580173
 40
4.774138094516855
 40
4.774138094516855
 40
5.556396246577986
 40
5.556396246577986
 40
6.33868732965616
 40
6.33868732965616
 40
7.123758566006397
 40
7.123758566006397
 40
7.907538582814375
 40
7.907538582814375
 40
8.297055039982382
 40
8.297055039982382
 40
8.68657149715039
 40
8.68657149715039
 40
9.031445253063239
 40
9.031445253063239
 40
9.376319008976087
 40
9.376319008976087
 40
9.818770584999263
 40
9.818770584999263
 40
10.26122216102244
 40
10.26122216102244
 40
10.26122216102244
 40
10.26122216102244
 10
20.14759186548596
 20
563.8950437701828
 30
0.0
 10
20.14759186548596
 20
563.8290437701829
 30
0.0
 10
20.14384511008655
 20
563.7639007940715
 30
0.0
 10
20.12537463352373
 20
563.6199598348209
 30
0.0
 10
20.11012656546798
 20
563.5387746394153
 30
0.0
 10
20.0470693703345
 20
563.3217651193977
 30
0.0
 10
19.98900543947293
 20
563.1839312178848
 30
0.0
 10
19.83869631100495
 20
562.9391988902492
 30
0.0
 10
19.75143819443156
 20
562.8290867661998
 30
0.0
 10
19.54926149166228
 20
562.632773113907
 30
0.0
 10
19.43458077203453
 20
562.5469546343295
 30
0.0
 10
19.08127696745167
 20
562.3430284577913
 30
0.0
 10
18.83505453739615
 20
562.2720350176244
 30
0.0
 10
18.3169798540583
 20
562.2283422832431
 30
0.0
 10
18.04046060681131
 20
562.2695922885651
 30
0.0
 10
17.53641240942164
 20
562.4709387831353
 30
0.0
 10
17.31023697276568
 20
562.6309792883214
 30
0.0
 10
16.95879690092197
 20
563.0347330149107
 30
0.0
 10
16.83389063839037
 20
563.2784999710473
 30
0.0
 10
16.71519883660259
 20
563.7948491592797
 30
0.0
 10
16.72116901334973
 20
564.0660764579043
 30
0.0
 10
16.86220939667927
 20
564.5761587370246
 30
0.0
 10
16.99687920317274
 20
564.8136055393374
 30
0.0
 10
17.3646004794288
 20
565.2027623698083
 30
0.0
 10
17.59769499842218
 20
565.3539348971505
 30
0.0
 10
18.11111745102079
 20
565.5353776324197
 30
0.0
 10
18.38926459915998
 20
565.5655455716166
 30
0.0
 10
18.79712101680587
 20
565.5140597827364
 30
0.0
 10
18.93207168719462
 20
565.4812284901806
 30
0.0
 10
19.19821652138556
 20
565.3800973660838
 30
0.0
 10
19.33037469692685
 20
565.3110545964815
 30
0.0
 10
19.56431395541142
 20
565.1441115317037
 30
0.0
 10
19.66638903409134
 20
565.0509608240143
 30
0.0
 10
19.84117506162028
 20
564.8475231743153
 30
0.0
 10
19.91375364495371
 20
564.7377346028905
 30
0.0
 10
20.04324638969166
 20
564.4848208897441
 30
0.0
 10
20.09015663935087
 20
564.3375195797482
 30
0.0
 10
20.14031288661887
 20
564.0920702995914
 30
0.0
 10
20.14759186548596
 20
563.9946971837598
 30
0.0
 10
20.14759186548596
 20
563.8950437701828
 30
0.0
  0
CIRCLE
  5
12DE
330
1F
100
AcDbEntity
  8
AM_VIS
100
AcDbCircle
 10
18.44069531376181
 20
563.8950437701828
 30
0.0
 40
1.249999999999999
  0
LINE
  5
12DF
330
1F
100
AcDbEntity
  8
AM_VIS
100
AcDbLine
 10
7.44069531376175
 20
566.0950437701829
 30
0.0
 11
7.44069531376175
 21
544.0950437701828
 31
0.0
  0
LINE
  5
12E8
330
1F
100
AcDbEntity
  8
AM_VIS
100
AcDbLine
 10
7.44069531376175
 20
566.0950437701829
 30
0.0
 11
29.44069531376175
 21
566.0950437701829
 31
0.0
  0
LINE
  5
12E9
330
1F
100
AcDbEntity
  8
AM_VIS
100
AcDbLine
 10
24.52687125792329
 20
532.9612937701829
 30
0.0
 11
23.02648224586676
 21
533.8275437701828
 31
0.0
  0
LINE
  5
12EA
330
1F
100
AcDbEntity
  8
AM_VIS
100
AcDbLine
 10
23.02648224586676
 20
533.8275437701828
 30
0.0
 11
21.52609323381023
 21
532.9612937701829
 31
0.0
  0
LINE
  5
12EB
330
1F
100
AcDbEntity
  8
AM_VIS
100
AcDbLine
 10
21.52609323381023
 20
532.9612937701829
 30
0.0
 11
21.52609323381023
 21
531.2287937701828
 31
0.0
  0
LINE
  5
12EC
330
1F
100
AcDbEntity
  8
AM_VIS
100
AcDbLine
 10
21.52609323381023
 20
531.2287937701828
 30
0.0
 11
23.02648224586676
 21
530.3625437701829
 31
0.0
  0
LINE
  5
12ED
330
1F
100
AcDbEntity
  8
AM_VIS
100
AcDbLine
 10
23.02648224586676
 20
530.3625437701829
 30
0.0
 11
24.52687125792329
 21
531.2287937701828
 31
0.0
  0
LINE
  5
12EE
330
1F
100
AcDbEntity
  8
AM_VIS
100
AcDbLine
 10
24.52687125792329
 20
531.2287937701828
 30
0.0
 11
24.52687125792329
 21
532.9612937701829
 31
0.0
  0
LINE
  5
139D
330
1F
100
AcDbEntity
  8
AM_VIS
100
AcDbLine
 10
88.6981053739205
 20
479.0950437701829
 30
0.0
 11
88.6981053739205
 21
544.0950437701828
 31
0.0
  0
LINE
  5
139E
330
1F
100
AcDbEntity
  8
AM_VIS
100
AcDbLine
 10
95.99810537392045
 20
479.0950437701829
 30
0.0
 11
95.99810537392045
 21
544.0950437701828
 31
0.0
  0
LINE
  5
139F
330
1F
100
AcDbEntity
  8
AM_VIS
100
AcDbLine
 10
99.60244699682812
 20
479.0950437701829
 30
0.0
 11
99.60244699682812
 21
544.0950437701828
 31
0.0
  0
LINE
  5
13A0
330
1F
100
AcDbEntity
  8
AM_VIS
100
AcDbLine
 10
109.0069671866092
 20
479.0950437701829
 30
0.0
 11
109.0069671866092
 21
544.0950437701828
 31
0.0
  0
LINE
  5
13A1
102
{ACAD_REACTORS
330
174B
330
1841
330
187E
102
}
330
1F
100
AcDbEntity
  8
AM_VIS
100
AcDbLine
 10
112.0828811902927
 20
479.0950437701829
 30
0.0
 11
112.0828811902927
 21
544.0950437701828
 31
0.0
  0
LINE
  5
13A2
330
1F
100
AcDbEntity
  8
AM_VIS
100
AcDbLine
 10
86.16741725353662
 20
479.0950437701829
 30
0.0
 11
86.16741725353662
 21
544.0950437701828
 31
0.0
  0
LINE
  5
13A3
330
1F
100
AcDbEntity
  8
AM_VIS
100
AcDbLine
 10
75.31332897486129
 20
479.0950437701829
 30
0.0
 11
75.31332897486129
 21
544.0950437701828
 31
0.0
  0
LINE
  5
13A4
330
1F
100
AcDbEntity
  8
AM_VIS
100
AcDbLine
 10
86.1674172535366
 20
544.0950437701828
 30
0.0
 11
83.3843963804577
 21
544.0950437701828
 31
0.0
  0
LINE
  5
13A5
330
1F
100
AcDbEntity
  8
AM_VIS
100
AcDbLine
 10
82.67728959927115
 20
544.0950437701828
 30
0.0
 11
79.41456356008808
 21
544.0950437701828
 31
0.0
  0
LINE
  5
13A6
330
1F
100
AcDbEntity
  8
AM_VIS
100
AcDbLine
 10
111.7899879714792
 20
544.0950437701828
 30
0.0
 11
109.0069671866091
 21
544.0950437701828
 31
0.0
  0
LINE
  5
13A7
330
1F
100
AcDbEntity
  8
AM_VIS
100
AcDbLine
 10
109.0069671866092
 20
544.0950437701828
 30
0.0
 11
99.60244699682812
 21
544.0950437701828
 31
0.0
  0
LINE
  5
13A8
330
1F
100
AcDbEntity
  8
AM_VIS
100
AcDbLine
 10
99.60244699682816
 20
544.0950437701828
 30
0.0
 11
95.99810537392045
 21
544.0950437701828
 31
0.0
  0
LINE
  5
13A9
330
1F
100
AcDbEntity
  8
AM_VIS
100
AcDbLine
 10
95.99810537392045
 20
544.0950437701828
 30
0.0
 11
89.19810537392047
 21
544.0950437701828
 31
0.0
  0
LINE
  5
13AA
330
1F
100
AcDbEntity
  8
AM_VIS
100
AcDbLine
 10
88.39810537392049
 20
544.0950437701828
 30
0.0
 11
86.16741725353662
 21
544.0950437701828
 31
0.0
  0
LINE
  5
13AB
330
1F
100
AcDbEntity
  8
AM_VIS
100
AcDbLine
 10
89.19810537392047
 20
479.0950437701829
 30
0.0
 11
95.99810537392045
 21
479.0950437701829
 31
0.0
  0
LINE
  5
13AC
330
1F
100
AcDbEntity
  8
AM_VIS
100
AcDbLine
 10
95.99810537392045
 20
479.0950437701829
 30
0.0
 11
99.60244699682812
 21
479.0950437701829
 31
0.0
  0
LINE
  5
13AD
330
1F
100
AcDbEntity
  8
AM_VIS
100
AcDbLine
 10
99.60244699682812
 20
479.0950437701829
 30
0.0
 11
109.0069671866092
 21
479.0950437701829
 31
0.0
  0
LINE
  5
13AE
330
1F
100
AcDbEntity
  8
AM_VIS
100
AcDbLine
 10
109.0069671866091
 20
479.0950437701829
 30
0.0
 11
111.7899879714792
 21
479.0950437701829
 31
0.0
  0
LINE
  5
13AF
330
1F
100
AcDbEntity
  8
AM_VIS
100
AcDbLine
 10
79.41456356008808
 20
479.0950437701829
 30
0.0
 11
82.67728959927115
 21
479.0950437701829
 31
0.0
  0
LINE
  5
13B0
330
1F
100
AcDbEntity
  8
AM_VIS
100
AcDbLine
 10
83.38439638045773
 20
479.0950437701829
 30
0.0
 11
86.16741725353662
 21
479.0950437701829
 31
0.0
  0
LINE
  5
13B1
330
1F
100
AcDbEntity
  8
AM_VIS
100
AcDbLine
 10
86.16741725353662
 20
479.0950437701829
 30
0.0
 11
88.39810537392049
 21
479.0950437701829
 31
0.0
  0
LINE
  5
13B2
330
1F
100
AcDbEntity
  8
AM_VIS
100
AcDbLine
 10
82.67728959927115
 20
544.0950437701828
 30
0.0
 11
83.3843963804577
 21
544.0950437701828
 31
0.0
  0
LINE
  5
13B3
330
1F
100
AcDbEntity
  8
AM_VIS
100
AcDbLine
 10
78.77973950145042
 20
544.0950437701828
 30
0.0
 11
79.41456356008808
 21
544.0950437701828
 31
0.0
  0
LINE
  5
13B4
330
1F
100
AcDbEntity
  8
AM_VIS
100
AcDbLine
 10
75.54067224993469
 20
544.0950437701828
 30
0.0
 11
78.77973950145045
 21
544.0950437701828
 31
0.0
  0
LINE
  5
13B5
330
1F
100
AcDbEntity
  8
AM_VIS
100
AcDbLine
 10
75.31332897486135
 20
544.0950437701828
 30
0.0
 11
75.54067224993469
 21
544.0950437701828
 31
0.0
  0
LINE
  5
13B6
102
{ACAD_REACTORS
330
1811
102
}
330
1F
100
AcDbEntity
  8
AM_VIS
100
AcDbLine
 10
111.7899879714792
 20
544.0950437701828
 30
0.0
 11
112.0828811902926
 21
544.0950437701828
 31
0.0
  0
LINE
  5
13B7
330
1F
100
AcDbEntity
  8
AM_VIS
100
AcDbLine
 10
89.19810537392047
 20
544.0950437701828
 30
0.0
 11
88.6981053739205
 21
544.0950437701828
 31
0.0
  0
LINE
  5
13B8
330
1F
100
AcDbEntity
  8
AM_VIS
100
AcDbLine
 10
88.39810537392049
 20
544.0950437701828
 30
0.0
 11
88.69810537392046
 21
544.0950437701828
 31
0.0
  0
LINE
  5
13B9
330
1F
100
AcDbEntity
  8
AM_VIS
100
AcDbLine
 10
88.69810537392046
 20
479.0950437701829
 30
0.0
 11
89.19810537392043
 21
479.0950437701829
 31
0.0
  0
LINE
  5
13BA
330
1F
100
AcDbEntity
  8
AM_VIS
100
AcDbLine
 10
112.0828811902926
 20
479.0950437701829
 30
0.0
 11
111.7899879714792
 21
479.0950437701829
 31
0.0
  0
LINE
  5
13C9
330
1F
100
AcDbEntity
  8
AM_7
100
AcDbLine
 10
93.69810487944247
 20
667.1840757588398
 30
0.0
 11
107.6981048794424
 21
667.1840757588398
 31
0.0
1001
GENIUS_GENOREF_13
1005
13CD
  0
LINE
  5
13CA
330
1F
100
AcDbEntity
  8
AM_7
100
AcDbLine
 10
93.69810487944247
 20
667.1840757588398
 30
0.0
 11
93.69810487944247
 21
681.1840757588399
 31
0.0
1001
GENIUS_GENOREF_13
1005
13CD
  0
LINE
  5
13CB
330
1F
100
AcDbEntity
  8
AM_7
100
AcDbLine
 10
93.69810487944247
 20
667.1840757588398
 30
0.0
 11
79.69810487944247
 21
667.1840757588398
 31
0.0
1001
GENIUS_GENOREF_13
1005
13CD
  0
LINE
  5
13CC
330
1F
100
AcDbEntity
  8
AM_7
100
AcDbLine
 10
93.69810487944247
 20
667.1840757588398
 30
0.0
 11
93.69810487944247
 21
653.1840757588398
 31
0.0
1001
GENIUS_GENOREF_13
1005
13CD
  0
POINT
  5
13CD
330
1F
100
AcDbEntity
  8
0
 60
     1
100
AcDbPoint
 10
0.0
 20
0.0
 30
0.0
1001
GENIUS_GENODEF_13
1002
{
1000
HIER
1070
    10
1002
}
1002
{
1000
MANEDIT
1070
     0
1002
}
1002
{
1000
NOSEL
1070
     0
1002
}
1002
{
1000
BEHIND
1070
     0
1002
}
1002
{
1000
OTHER
1070
     0
1002
}
1002
{
1000
REACTOR
1002
}
1001
GENIUS_GENOLIS_13
1002
{
1000
ENT
1005
13CC
1005
13CB
1005
13CA
1005
13C9
1002
}
1001
GENIUS_GENOENT_13
1002
{
1000
MYREF
1005
13CD
1002
}
1002
{
1000
GRP
1005
0
1002
}
1001
GENIUS_GENOBJ-N-CRS_13
1002
{
1000
OWNER
1000
GEN
1002
}
  0
ARC
  5
140C
330
1F
100
AcDbEntity
  8
AM_4
100
AcDbCircle
 10
106.4260269408003
 20
679.9119978201977
 30
0.0
 40
3.0
100
AcDbArc
 50
260.0
 51
170.0
  0
LINE
  5
140E
330
1F
100
AcDbEntity
  8
AM_7
  6
AM_ISO08W050x2
100
AcDbLine
 10
102.4260269408003
 20
679.9119978201977
 30
0.0
 11
110.4260269408003
 21
679.9119978201977
 31
0.0
  0
LINE
  5
140F
330
1F
100
AcDbEntity
  8
AM_7
  6
AM_ISO08W050x2
100
AcDbLine
 10
106.4260269408003
 20
675.9119978201977
 30
0.0
 11
106.4260269408003
 21
683.9119978201977
 31
0.0
  0
CIRCLE
  5
1410
330
1F
100
AcDbEntity
  8
0
100
AcDbCircle
 10
106.4260269408003
 20
679.9119978201977
 30
0.0
 40
2.75
  0
ARC
  5
1423
330
1F
100
AcDbEntity
  8
AM_4
100
AcDbCircle
 10
80.97018281808459
 20
654.456153697482
 30
0.0
 40
3.0
100
AcDbArc
 50
260.0
 51
170.0
  0
LINE
  5
1424
330
1F
100
AcDbEntity
  8
AM_7
  6
AM_ISO08W050x2
100
AcDbLine
 10
76.9701828180846
 20
654.456153697482
 30
0.0
 11
84.97018281808459
 21
654.456153697482
 31
0.0
  0
LINE
  5
1425
330
1F
100
AcDbEntity
  8
AM_7
  6
AM_ISO08W050x2
100
AcDbLine
 10
80.97018281808459
 20
650.4561536974819
 30
0.0
 11
80.97018281808459
 21
658.456153697482
 31
0.0
  0
CIRCLE
  5
1426
330
1F
100
AcDbEntity
  8
0
100
AcDbCircle
 10
80.97018281808459
 20
654.456153697482
 30
0.0
 40
2.75
  0
ARC
  5
1450
330
1F
100
AcDbEntity
  8
AM_4
100
AcDbCircle
 10
23.02648224586682
 20
519.0950437701828
 30
0.0
 40
2.5
100
AcDbArc
 50
260.0
 51
170.0
  0
CIRCLE
  5
1451
330
1F
100
AcDbEntity
  8
AM_0
100
AcDbCircle
 10
23.02648224586682
 20
519.0950437701828
 30
0.0
 40
2.066987298107819
  0
LINE
  5
1452
102
{ACAD_REACTORS
330
1A24
102
}
330
1F
100
AcDbEntity
  8
AM_7
  6
AM_ISO08W050x2
100
AcDbLine
 10
18.52648224586681
 20
519.0950437701828
 30
0.0
 11
27.52648224586682
 21
519.0950437701828
 31
0.0
  0
LINE
  5
1453
330
1F
100
AcDbEntity
  8
AM_7
  6
AM_ISO08W050x2
100
AcDbLine
 10
23.02648224586682
 20
514.5950437701828
 30
0.0
 11
23.02648224586682
 21
523.5950437701829
 31
0.0
  0
ARC
  5
1454
330
1F
100
AcDbEntity
  8
AM_4
100
AcDbCircle
 10
23.02648224586682
 20
484.5950437701828
 30
0.0
 40
2.5
100
AcDbArc
 50
260.0
 51
170.0
  0
CIRCLE
  5
1455
330
1F
100
AcDbEntity
  8
AM_0
100
AcDbCircle
 10
23.02648224586682
 20
484.5950437701828
 30
0.0
 40
2.066987298107819
  0
LINE
  5
1456
102
{ACAD_REACTORS
330
19FC
102
}
330
1F
100
AcDbEntity
  8
AM_7
  6
AM_ISO08W050x2
100
AcDbLine
 10
18.52648224586681
 20
484.5950437701828
 30
0.0
 11
27.52648224586682
 21
484.5950437701828
 31
0.0
  0
LINE
  5
1457
330
1F
100
AcDbEntity
  8
AM_7
  6
AM_ISO08W050x2
100
AcDbLine
 10
23.02648224586682
 20
480.0950437701828
 30
0.0
 11
23.02648224586682
 21
489.0950437701828
 31
0.0
  0
LINE
  5
1465
330
1F
100
AcDbEntity
  8
AM_7
  6
AM_ISO08W050x2
100
AcDbLine
 10
73.07868656694648
 20
519.0950437701828
 30
0.0
 11
82.07868656694648
 21
519.0950437701828
 31
0.0
  0
LINE
  5
1466
330
1F
100
AcDbEntity
  8
AM_7
  6
AM_ISO08W050x2
100
AcDbLine
 10
73.07868656694648
 20
484.5950437701828
 30
0.0
 11
82.07868656694648
 21
484.5950437701828
 31
0.0
  0
LINE
  5
147D
330
1F
100
AcDbEntity
  8
AM_7
100
AcDbLine
 10
18.49069531376165
 20
599.6348712123888
 30
0.0
 11
18.49069531376165
 21
475.4173445245039
 31
0.0
1001
GENIUS_GENOBJ-N-CEN_13
1002
{
1000
OWNER
1000
GEN
1002
}
1001
GENIUS_GENODEF_13
1002
{
1000
HIER
1070
     0
1002
}
1002
{
1000
MANEDIT
1070
     0
1002
}
1002
{
1000
NOSEL
1070
     0
1002
}
1002
{
1000
BEHIND
1070
     0
1002
}
1002
{
1000
OTHER
1070
     0
1002
}
1002
{
1000
REACTOR
1002
}
1001
GENIUS_GENCEN_19
1002
{
1040
2.0
1002
}
  0
DIMENSION
  5
173D
102
{ACAD_XDICTIONARY
360
174A
102
}
102
{ACAD_REACTORS
330
174B
102
}
330
1F
100
AcDbEntity
  8
AM_5
100
AcDbDimension
  2
*D5
 10
134.0828811902926
 20
544.0950437701828
 30
0.0
 11
131.2778811902925
 21
511.5950437701829
 31
0.0
 70
    32
 71
     5
 42
65.0
  3
AM_ISO$0
100
AcDbAlignedDimension
 13
112.0828811902927
 23
479.0950437701829
 33
0.0
 14
112.0828811902927
 24
544.0950437701828
 34
0.0
 50
90.0
100
AcDbRotatedDimension
1001
ACAD
1000
DSTYLE
1002
{
1070
    40
1040
1.1
1070
   272
1070
     8
1002
}
  0
SPLINE
  5
17B3
330
1F
100
AcDbEntity
  8
AM_VIS
100
AcDbSpline
210
0.0
220
0.0
230
1.0
 70
     8
 71
     3
 72
    14
 73
    10
 74
     0
 42
0.0000000001
 43
0.0000000001
 40
1.882841913712123
 40
1.882841913712123
 40
1.882841913712123
 40
1.882841913712123
 40
2.044503856313963
 40
2.044503856313963
 40
2.206165798915803
 40
2.206165798915803
 40
2.529489684119482
 40
2.529489684119482
 40
2.562146440842182
 40
2.562146440842182
 40
2.562146440842182
 40
2.562146440842182
 10
26.36976607715656
 20
566.3950437701828
 30
0.0
 10
26.34427190132902
 20
566.3950437701828
 30
0.0
 10
26.32264846765031
 20
566.3876690963525
 30
0.0
 10
26.28813345577487
 20
566.3594620905878
 30
0.0
 10
26.27522607887312
 20
566.3386550742341
 30
0.0
 10
26.24877053275753
 20
566.2613875604282
 30
0.0
 10
26.24772612786001
 20
566.1896525540689
 30
0.0
 10
26.25615030122105
 20
566.1099365607297
 30
0.0
 10
26.25701634406806
 20
566.1025332542749
 30
0.0
 10
26.25797283472895
 20
566.0950437701829
 30
0.0
  0
ARC
  5
17B4
330
1F
100
AcDbEntity
  8
AM_VIS
100
AcDbCircle
 10
22.59688987714418
 20
565.4581819786583
 30
0.0
 40
0.9423677543160934
100
AcDbArc
 50
42.51710273786615
 51
83.80336752613382
  0
LINE
  5
17B5
330
1F
100
AcDbEntity
  8
AM_VIS
100
AcDbLine
 10
26.25077393975596
 20
566.0950437701829
 30
0.0
 11
26.25077393975596
 21
566.1981592272284
 31
0.0
  0
LINE
  5
17B6
330
1F
100
AcDbEntity
  8
AM_VIS
100
AcDbLine
 10
27.44069531376169
 20
566.3950437701828
 30
0.0
 11
27.64069531376168
 21
566.0950437701829
 31
0.0
  0
LINE
  5
17B7
330
1F
100
AcDbEntity
  8
AM_VIS
100
AcDbLine
 10
9.440695313761693
 20
566.3950437701828
 30
0.0
 11
9.240695313761705
 21
566.0950437701829
 31
0.0
  0
LINE
  5
17B8
330
1F
100
AcDbEntity
  8
AM_VIS
100
AcDbLine
 10
22.69860992411774
 20
566.3950437701828
 30
0.0
 11
26.36976607715656
 21
566.3950437701828
 31
0.0
  0
LINE
  5
17B9
330
1F
100
AcDbEntity
  8
AM_VIS
100
AcDbLine
 10
26.36976607715656
 20
566.3950437701828
 30
0.0
 11
27.44069531376169
 21
566.3950437701828
 31
0.0
  0
LINE
  5
17BA
330
1F
100
AcDbEntity
  8
AM_VIS
100
AcDbLine
 10
9.440695313761693
 20
566.3950437701828
 30
0.0
 11
22.69860992411702
 21
566.3950437701828
 31
0.0
  0
DIMENSION
  5
1803
102
{ACAD_XDICTIONARY
360
1810
102
}
102
{ACAD_REACTORS
330
1811
102
}
330
1F
100
AcDbEntity
  8
AM_5
100
AcDbDimension
  2
*D6
 10
124.0828811902927
 20
566.0950437701829
 30
0.0
 11
121.2778811902926
 21
555.0950437701828
 31
0.0
 70
    32
 71
     5
 42
22.0
  3
AM_ISO$0
100
AcDbAlignedDimension
 13
112.0828811902926
 23
544.0950437701828
 33
0.0
 14
105.6981048794424
 24
566.0950437701829
 34
0.0
 50
90.0
100
AcDbRotatedDimension
1001
ACAD
1000
DSTYLE
1002
{
1070
    40
1040
1.1
1070
   272
1070
     8
1002
}
  0
DIMENSION
  5
1833
102
{ACAD_XDICTIONARY
360
1840
102
}
102
{ACAD_REACTORS
330
1841
102
}
330
1F
100
AcDbEntity
  8
AM_5
100
AcDbDimension
  2
*D7
 10
134.0828811902927
 20
597.0950437701828
 30
0.0
 11
131.2778811902925
 21
570.5950437701829
 31
0.0
 70
    32
 71
     5
 42
53.0
  3
AM_ISO$0
100
AcDbAlignedDimension
 13
112.0828811902927
 23
544.0950437701828
 33
0.0
 14
95.6981048794425
 24
597.0950437701828
 34
0.0
 50
90.0
100
AcDbRotatedDimension
1001
ACAD
1000
DSTYLE
1002
{
1070
    40
1040
1.1
1070
   272
1070
     8
1002
}
  0
DIMENSION
  5
1870
102
{ACAD_XDICTIONARY
360
187D
102
}
102
{ACAD_REACTORS
330
187E
102
}
330
1F
100
AcDbEntity
  8
AM_5
100
AcDbDimension
  2
*D8
 10
144.0828811902927
 20
597.0950437701828
 30
0.0
 11
141.2778811902925
 21
538.0950437701828
 31
0.0
 70
    32
 71
     5
 42
118.0
  3
AM_ISO$0
100
AcDbAlignedDimension
 13
112.0828811902927
 23
479.0950437701829
 33
0.0
 14
96.6981048794425
 24
597.0950437701828
 34
0.0
 50
90.0
100
AcDbRotatedDimension
1001
ACAD
1000
DSTYLE
1002
{
1070
    40
1040
1.1
1070
   272
1070
     8
1002
}
  0
DIMENSION
  5
18BF
330
1F
100
AcDbEntity
  8
AM_5
100
AcDbDimension
  2
*D9
 10
124.0828811902927
 20
595.0950437701829
 30
0.0
 11
121.2778811902926
 21
586.6525437701828
 31
0.0
 70
    32
 71
     5
 42
2.0
  3
AM_ISO$0
100
AcDbAlignedDimension
 13
95.6981048794425
 23
597.0950437701828
 33
0.0
 14
98.8215802624223
 24
595.0950437701829
 34
0.0
 50
90.0
100
AcDbRotatedDimension
1001
ACAD
1000
DSTYLE
1002
{
1070
    40
1040
1.1
1070
   272
1070
     8
1002
}
  0
DIMENSION
  5
1909
330
1F
100
AcDbEntity
  8
AM_5
100
AcDbDimension
  2
*D10
 10
77.39161898419308
 20
650.2622402275492
 30
0.0
 11
119.1080346856977
 21
688.8584268010462
 31
0.0
 70
   163
 71
     5
 42
47.00000000000045
  3
AM_ISO$3
100
AcDbDiametricDimension
 15
110.0045907746916
 25
684.1059112901305
 35
0.0
 40
0.0
1001
ACAD
1000
DSTYLE
1002
{
1070
    40
1040
1.1
1070
   172
1070
     1
1070
   272
1070
     8
1002
}
  0
DIMENSION
  5
1970
102
{ACAD_XDICTIONARY
360
197D
102
}
102
{ACAD_REACTORS
330
197E
102
}
330
1F
100
AcDbEntity
  8
AM_5
100
AcDbDimension
  2
*D11
 10
77.00599339758383
 20
629.278759940638
 30
0.0
 11
68.38282620101409
 21
641.8687961796645
 31
0.0
 70
    32
 71
     5
 42
29.99999999999995
  3
AM_ISO$0
100
AcDbAlignedDimension
 13
75.6062221936748
 23
670.3053956079213
 33
0.0
 14
99.60244699682807
 24
651.8752135398817
 34
0.0
 50
134.9999999999996
100
AcDbRotatedDimension
1001
ACAD
1000
DSTYLE
1002
{
1070
    40
1040
1.1
1070
   272
1070
     8
1002
}
  0
DIMENSION
  5
1996
102
{ACAD_XDICTIONARY
360
19A3
102
}
102
{ACAD_REACTORS
330
19A4
102
}
330
1F
100
AcDbEntity
  8
AM_5
100
AcDbDimension
  2
*D12
 10
134.0828811902929
 20
656.1840757588399
 30
0.0
 11
131.2778811902927
 21
667.1840757588399
 31
0.0
 70
    32
 71
     5
 42
22.00000000000011
  3
AM_ISO$0
100
AcDbAlignedDimension
 13
98.49393640275497
 23
678.1840757588399
 33
0.0
 14
98.49393640275522
 24
656.1840757588399
 34
0.0
 50
90.00000000000119
100
AcDbRotatedDimension
1001
ACAD
1000
DSTYLE
1002
{
1070
    40
1040
1.1
1070
   272
1070
     8
1002
}
  0
LINE
  5
19BA
330
1F
100
AcDbEntity
  8
0
100
AcDbLine
 10
98.49393640275534
 20
566.0950437701829
 30
0.0
 11
88.90227335612989
 21
544.0950437701828
 31
0.0
  0
LINE
  5
19BB
330
1F
100
AcDbEntity
  8
0
100
AcDbLine
 10
88.8473139995777
 20
566.0950437701829
 30
0.0
 11
98.49393640275534
 21
544.0950437701828
 31
0.0
  0
LINE
  5
19DC
102
{ACAD_REACTORS
330
1ACE
102
}
330
1F
100
AcDbEntity
  8
AM_7
100
AcDbLine
 10
93.69810487944247
 20
598.5920465232974
 30
0.0
 11
93.69810487944247
 21
475.9620472608933
 31
0.0
1001
GENIUS_GENOBJ-N-CEN_13
1002
{
1000
OWNER
1000
GEN
1002
}
1001
GENIUS_GENODEF_13
1002
{
1000
HIER
1070
     0
1002
}
1002
{
1000
MANEDIT
1070
     0
1002
}
1002
{
1000
NOSEL
1070
     0
1002
}
1002
{
1000
BEHIND
1070
     0
1002
}
1002
{
1000
OTHER
1070
     0
1002
}
1002
{
1000
REACTOR
1002
}
1001
GENIUS_GENCEN_19
1002
{
1040
2.0
1002
}
  0
DIMENSION
  5
19EC
102
{ACAD_XDICTIONARY
360
19FB
102
}
102
{ACAD_REACTORS
330
19FC
102
}
330
1F
100
AcDbEntity
  8
AM_5
100
AcDbDimension
  2
*D13
 10
48.82547162461206
 20
484.5950437701828
 30
0.0
 11
46.02047162461198
 21
495.1000437701829
 31
0.0
 70
    32
 71
     5
 42
5.5
  3
AM_ISO$0
100
AcDbAlignedDimension
 13
36.82547162461231
 23
479.0950437701829
 33
0.0
 14
27.52648224586683
 24
484.5950437701828
 34
0.0
 50
90.0
100
AcDbRotatedDimension
1001
ACAD
1000
DSTYLE
1002
{
1070
    40
1040
1.1
1070
   272
1070
     8
1002
}
  0
DIMENSION
  5
1A16
102
{ACAD_XDICTIONARY
360
1A23
102
}
102
{ACAD_REACTORS
330
1A24
102
}
330
1F
100
AcDbEntity
  8
AM_5
100
AcDbDimension
  2
*D14
 10
48.82547162461205
 20
519.0950437701828
 30
0.0
 11
46.02047162461197
 21
531.5950437701828
 31
0.0
 70
    32
 71
     5
 42
25.0
  3
AM_ISO$0
100
AcDbAlignedDimension
 13
36.82547162461231
 23
544.0950437701828
 33
0.0
 14
27.52648224586683
 24
519.0950437701828
 34
0.0
 50
90.0
100
AcDbRotatedDimension
1001
ACAD
1000
DSTYLE
1002
{
1070
    40
1040
1.1
1070
   272
1070
     8
1002
}
  0
DIMENSION
  5
1A8D
330
1F
100
AcDbEntity
  8
AM_5
100
AcDbDimension
  2
*D15
 10
92.6598396007596
 20
588.1240307890468
 30
0.0
 11
110.584581585237
 21
605.9985534916234
 31
0.0
 70
   163
 71
     5
 42
10.0
  3
AM_ISO$3
100
AcDbDiametricDimension
 15
98.73637015812562
 25
596.0660567513186
 35
0.0
 40
0.0
1001
ACAD
1000
DSTYLE
1002
{
1070
    40
1040
1.1
1070
   172
1070
     1
1070
   272
1070
     8
1002
}
  0
DIMENSION
  5
1ABE
102
{ACAD_XDICTIONARY
360
1ACD
102
}
102
{ACAD_REACTORS
330
1ACE
102
}
330
1F
100
AcDbEntity
  8
AM_5
100
AcDbDimension
  2
*D16
 10
93.69810487944247
 20
609.0950437701828
 30
0.0
 11
91.6981048794425
 21
611.9000437701828
 31
0.0
 70
    32
 71
     5
 42
3.999999999999943
  3
AM_ISO$0
100
AcDbAlignedDimension
 13
89.69810487944252
 23
595.0950437701829
 33
0.0
 14
93.69810487944247
 24
598.5920465232974
 34
0.0
100
AcDbRotatedDimension
1001
ACAD
1000
DSTYLE
1002
{
1070
    40
1040
1.1
1070
   272
1070
     8
1002
}
  0
DIMENSION
  5
1B1C
102
{ACAD_XDICTIONARY
360
1B29
102
}
102
{ACAD_REACTORS
330
1B2A
102
}
330
1F
100
AcDbEntity
  8
AM_5
100
AcDbDimension
  2
*D17
 10
105.6981048794424
 20
575.182664390963
 30
0.0
 11
73.80560487944247
 21
575.182664390963
 31
0.0
 70
   160
  1
%%c<>
 71
     5
 42
24.0
  3
AM_ISO$0
100
AcDbAlignedDimension
 13
81.69810487944246
 23
566.0950437701829
 33
0.0
 14
105.6981048794424
 24
566.0950437701829
 34
0.0
100
AcDbRotatedDimension
1001
ACAD
1000
DSTYLE
1002
{
1070
    40
1040
1.1
1070
   272
1070
     8
1002
}
  0
DIMENSION
  5
1B64
330
1F
100
AcDbEntity
  8
AM_5
100
AcDbDimension
  2
*D18
 10
124.0828811902927
 20
669.18407575884
 30
0.0
 11
121.2778811902926
 21
667.1840757588398
 31
0.0
 70
    32
 71
     5
 42
4.000000000000227
  3
AM_ISO$0
100
AcDbAlignedDimension
 13
99.35495912893484
 23
665.1840757588397
 33
0.0
 14
99.35495912893484
 24
669.18407575884
 34
0.0
 50
90.00000000000062
100
AcDbRotatedDimension
1001
ACAD
1000
DSTYLE
1002
{
1070
    40
1040
1.1
1070
   272
1070
     8
1002
}
  0
DIMENSION
  5
1C38
330
1F
100
AcDbEntity
  8
AM_5
100
AcDbDimension
  2
*D19
 10
87.33414429913711
 20
699.0038804618609
 30
0.0
 11
72.6227877165511
 21
688.2593929217313
 31
0.0
 70
    33
 71
     5
 42
36.0
  3
AM_ISO$0
100
AcDbAlignedDimension
 13
80.97018281808463
 23
654.456153697482
 33
0.0
 14
106.4260269408003
 24
679.9119978201977
 34
0.0
1001
ACAD
1000
DSTYLE
1002
{
1070
    40
1040
1.1
1070
   144
1040
1.0
1070
   272
1070
     8
1002
}
  0
INSERT
  5
1D1C
330
1F
100
AcDbEntity
  8
AM_5
100
AcDbBlockReference
  2
*S25
 10
0.0
 20
0.0
 30
0.0
  0
TEXT
  5
1D1E
330
1F
100
AcDbEntity
  8
AM_5
100
AcDbText
 10
98.88124607636271
 20
640.3111454555242
 30
0.0
 40
3.3
  1
2-%%c5.5貫通
 41
0.75
  7
CHINESET
100
AcDbText
  0
TEXT
  5
1D1F
330
1F
100
AcDbEntity
  8
AM_5
100
AcDbText
 10
98.88124607636271
 20
634.6540025983812
 30
0.0
 40
3.3
  1
2x2-M6x1.0x10深 (兩面)
 41
0.75
  7
CHINESET
100
AcDbText
  0
INSERT
  5
1D2A
330
1F
100
AcDbEntity
  8
AM_5
100
AcDbBlockReference
  2
*S26
 10
0.0
 20
0.0
 30
0.0
  0
TEXT
  5
1D2B
330
1F
100
AcDbEntity
  8
AM_5
100
AcDbText
 10
38.69502474215463
 20
467.0174123388309
 30
0.0
 40
3.3
  1
2-M5x0.8
 41
0.75
  7
CHINESET
100
AcDbText
  0
DIMENSION
  5
23B6
330
1F
100
AcDbEntity
  8
AM_5
100
AcDbDimension
  2
*D20
 10
24.4406953137617
 20
606.5950437701829
 30
0.0
 11
18.44069531376169
 21
609.1450437701828
 31
0.0
 70
    32
  1
%%c<>
 71
     5
 42
12.0
  3
AM_ISO$0
100
AcDbAlignedDimension
 13
12.44069531376169
 23
594.5950437701829
 33
0.0
 14
24.4406953137617
 24
594.5950437701829
 34
0.0
 50
0.0000000000000114
100
AcDbRotatedDimension
1001
ACAD
1000
DSTYLE
1002
{
1070
    40
1040
1.0
1070
   144
1040
1.0
1070
   272
1070
     8
1002
}
  0
ARC
  5
250F
330
1F
100
AcDbEntity
  8
AM_VIS
100
AcDbCircle
 10
95.69810487944284
 20
592.0950437701828
 30
0.0
 40
5.0
100
AcDbArc
 50
317.0014406739558
 51
143.1301023541553
  0
LINE
  5
2510
330
1F
100
AcDbEntity
  8
AM_VIS
100
AcDbLine
 10
89.69810487944277
 20
595.0950437701829
 30
0.0
 11
89.69810487944277
 21
594.5950437701829
 31
0.0
  0
LINE
  5
2511
330
1F
100
AcDbEntity
  8
AM_VIS
100
AcDbLine
 10
98.82184674197317
 20
595.0953279998856
 30
0.0
 11
99.355191009139
 21
594.595291095883
 31
0.0
  0
CIRCLE
  5
2512
330
1F
100
AcDbEntity
  8
AM_VIS
100
AcDbCircle
 10
95.69810487944284
 20
592.0950437701828
 30
0.0
 40
1.499999999999991
  0
SPLINE
  5
2513
330
1F
100
AcDbEntity
  8
AM_VIS
100
AcDbSpline
210
0.0
220
0.0
230
1.0
 70
    11
 71
     3
 72
    54
 73
    50
 74
     0
 42
0.0000000001
 43
0.0000000001
 40
0.0
 40
0.0
 40
0.0
 40
0.0
 40
0.3004966394772979
 40
0.3004966394772979
 40
0.6009932789545959
 40
0.6009932789545959
 40
0.8945050512414042
 40
0.8945050512414042
 40
1.188016823528212
 40
1.188016823528212
 40
2.065820407787036
 40
2.065820407787036
 40
2.489937723286537
 40
2.489937723286537
 40
2.914055038786038
 40
2.914055038786038
 40
3.37529873491186
 40
3.37529873491186
 40
3.836542431037682
 40
3.836542431037682
 40
4.739561169708382
 40
4.739561169708382
 40
5.612252976981075
 40
5.612252976981075
 40
6.478717313074765
 40
6.478717313074765
 40
7.344932177054479
 40
7.344932177054479
 40
8.211103059070822
 40
8.211103059070822
 40
9.081326516619483
 40
9.081326516619483
 40
9.528553341920989
 40
9.528553341920989
 40
9.975780167222493
 40
9.975780167222493
 40
10.44229203988687
 40
10.44229203988687
 40
10.90880391255126
 40
10.90880391255126
 40
11.76007147606364
 40
11.76007147606364
 40
12.09090061784247
 40
12.09090061784247
 40
12.4217297596213
 40
12.4217297596213
 40
12.75255890140013
 40
12.75255890140013
 40
13.08338804317896
 40
13.08338804317896
 40
13.08338804317896
 40
13.08338804317896
 10
98.06174124307858
 20
592.0950437701828
 30
0.0
 10
98.06174124307858
 20
592.0220140958488
 30
0.0
 10
98.05752084710224
 20
591.9527352080669
 30
0.0
 10
98.04157585592362
 20
591.8150616843694
 30
0.0
 10
98.02998576682632
 20
591.7469351721797
 30
0.0
 10
97.99603006712278
 20
591.6024526343054
 30
0.0
 10
97.9733014653744
 20
591.5244612774694
 30
0.0
 10
97.91002549565247
 20
591.3569331098474
 30
0.0
 10
97.86974279160659
 20
591.2688722335523
 30
0.0
 10
97.67560928685213
 20
590.9220702562085
 30
0.0
 10
97.45814440099776
 20
590.6813828840377
 30
0.0
 10
97.06785718118641
 20
590.4111364511017
 30
0.0
 10
96.93050115494839
 20
590.336466642165
 30
0.0
 10
96.64994293854386
 20
590.2183994980962
 30
0.0
 10
96.50768804823332
 20
590.1749153623753
 30
0.0
 10
96.2094881302977
 20
590.1126038266169
 30
0.0
 10
96.05333101582141
 20
590.096141924098
 30
0.0
 10
95.73809855108322
 20
590.0940503912416
 30
0.0
 10
95.57799385146642
 20
590.1086746323634
 30
0.0
 10
95.10741708216915
 20
590.2019287299788
 30
0.0
 10
94.80283352585018
 20
590.3296705515528
 30
0.0
 10
94.29055857042033
 20
590.6940709376833
 30
0.0
 10
94.08042428183284
 20
590.92646328874
 30
0.0
 10
93.79056981467755
 20
591.4491434277993
 30
0.0
 10
93.70936481955601
 20
591.7392876679564
 30
0.0
 10
93.68906181578797
 20
592.323312729696
 30
0.0
 10
93.74987171802638
 20
592.6174439615804
 30
0.0
 10
94.00186451621243
 20
593.154093489224
 30
0.0
 10
94.19328231110261
 20
593.3966405944492
 30
0.0
 10
94.66852001703967
 20
593.783897799791
 30
0.0
 10
94.95168459608811
 20
593.9271919559953
 30
0.0
 10
95.40097564778301
 20
594.0517199030209
 30
0.0
 10
95.55672979569198
 20
594.0780509537218
 30
0.0
 10
95.86503226615263
 20
594.1000129595452
 30
0.0
 10
96.01736365315112
 20
594.0959768584048
 30
0.0
 10
96.32670476153402
 20
594.0581031730956
 30
0.0
 10
96.4838124443715
 20
594.0229284126257
 30
0.0
 10
96.7951715997707
 20
593.9169356182889
 30
0.0
 10
96.95028410036593
 20
593.8451707600042
 30
0.0
 10
97.35996998589275
 20
593.593266775964
 30
0.0
 10
97.5865272243463
 20
593.3739823602938
 30
0.0
 10
97.81175383482299
 20
593.0313358812736
 30
0.0
 10
97.8650207662825
 20
592.9315162503061
 30
0.0
 10
97.94922735767938
 20
592.7375460515479
 30
0.0
 10
97.97992841105235
 20
592.6442740645779
 30
0.0
 10
98.02337100020281
 20
592.4781254412918
 30
0.0
 10
98.03736601563503
 20
592.4027625931166
 30
0.0
 10
98.05666308121921
 20
592.2512889316188
 30
0.0
 10
98.06174124307858
 20
592.1754451501328
 30
0.0
 10
98.06174124307858
 20
592.0950437701828
 30
0.0
  0
LINE
  5
2515
330
1F
100
AcDbEntity
  8
AM_VIS
100
AcDbLine
 10
89.69810487944284
 20
594.5950437701829
 30
0.0
 11
89.69810487944284
 21
566.3950437701828
 31
0.0
  0
LINE
  5
2516
330
1F
100
AcDbEntity
  8
AM_VIS
100
AcDbLine
 10
99.35495912893522
 20
594.5950437701829
 30
0.0
 11
99.35495912893522
 21
584.5950437701828
 31
0.0
  0
LINE
  5
2517
330
1F
100
AcDbEntity
  8
AM_VIS
100
AcDbLine
 10
99.35495912893522
 20
584.9381895206904
 30
0.0
 11
99.69810487944284
 21
584.5950437701828
 31
0.0
  0
LINE
  5
2518
330
1F
100
AcDbEntity
  8
AM_VIS
100
AcDbLine
 10
99.69810487944283
 20
566.3950437701827
 30
0.0
 11
99.69810487944284
 21
584.5950437701828
 31
0.0
  0
LINE
  5
251A
330
1F
100
AcDbEntity
  8
AM_VIS
100
AcDbLine
 10
89.69810487944284
 20
595.0950437701829
 30
0.0
 11
98.82158026242263
 21
595.0950437701829
 31
0.0
  0
LINE
  5
251B
330
1F
100
AcDbEntity
  8
AM_VIS
100
AcDbLine
 10
99.69810487944284
 20
584.5950437701828
 30
0.0
 11
99.35495912893522
 21
584.5950437701828
 31
0.0
  0
LINE
  5
25EC
330
1F
100
AcDbEntity
  8
AM_VIS
100
AcDbLine
 10
98.19810487944247
 20
665.18407575884
 30
0.0
 11
98.49810487944248
 21
665.48407575884
 31
0.0
  0
LINE
  5
25ED
330
1F
100
AcDbEntity
  8
AM_VIS
100
AcDbLine
 10
93.19810487944247
 20
665.18407575884
 30
0.0
 11
92.89810487944246
 21
665.48407575884
 31
0.0
  0
LINE
  5
25EE
330
1F
100
AcDbEntity
  8
AM_VIS
100
AcDbLine
 10
93.19810487944247
 20
669.18407575884
 30
0.0
 11
92.89810487944246
 21
668.88407575884
 31
0.0
  0
LINE
  5
25EF
330
1F
100
AcDbEntity
  8
AM_VIS
100
AcDbLine
 10
98.19810487944247
 20
669.18407575884
 30
0.0
 11
98.49810487944248
 21
668.88407575884
 31
0.0
  0
LINE
  5
25F0
330
1F
100
AcDbEntity
  8
AM_VIS
100
AcDbLine
 10
100.3981048794424
 20
665.48407575884
 30
0.0
 11
100.6981048794424
 21
665.78407575884
 31
0.0
  0
LINE
  5
25F1
330
1F
100
AcDbEntity
  8
AM_VIS
100
AcDbLine
 10
90.99810487944248
 20
665.48407575884
 30
0.0
 11
90.69810487944247
 21
665.78407575884
 31
0.0
  0
LINE
  5
25F2
330
1F
100
AcDbEntity
  8
AM_VIS
100
AcDbLine
 10
90.69810487944247
 20
668.58407575884
 30
0.0
 11
90.69810487944247
 21
665.78407575884
 31
0.0
  0
LINE
  5
25F3
330
1F
100
AcDbEntity
  8
AM_VIS
100
AcDbLine
 10
100.6981048794424
 20
668.58407575884
 30
0.0
 11
100.6981048794424
 21
665.78407575884
 31
0.0
  0
LINE
  5
25F4
330
1F
100
AcDbEntity
  8
AM_VIS
100
AcDbLine
 10
90.99810487944248
 20
668.88407575884
 30
0.0
 11
90.69810487944247
 21
668.58407575884
 31
0.0
  0
LINE
  5
25F5
330
1F
100
AcDbEntity
  8
AM_VIS
100
AcDbLine
 10
100.3981048794424
 20
668.88407575884
 30
0.0
 11
100.6981048794424
 21
668.58407575884
 31
0.0
  0
LINE
  5
25F6
330
1F
100
AcDbEntity
  8
AM_VIS
100
AcDbLine
 10
100.3981048794424
 20
665.48407575884
 30
0.0
 11
90.99810487944248
 21
665.48407575884
 31
0.0
  0
LINE
  5
25F9
330
1F
100
AcDbEntity
  8
AM_VIS
100
AcDbLine
 10
90.99810487944248
 20
668.88407575884
 30
0.0
 11
100.3981048794424
 21
668.88407575884
 31
0.0
  0
LINE
  5
25FA
330
1F
100
AcDbEntity
  8
AM_VIS
100
AcDbLine
 10
89.69810487944242
 20
671.6562117138396
 30
0.0
 11
89.69810487944242
 21
670.9589929764754
 31
0.0
  0
LINE
  5
25FB
330
1F
100
AcDbEntity
  8
AM_VIS
100
AcDbLine
 10
89.69810487944247
 20
670.9589929764754
 30
0.0
 11
89.69810487944247
 21
669.18407575884
 31
0.0
  0
LINE
  5
25FC
330
1F
100
AcDbEntity
  8
AM_VIS
100
AcDbLine
 10
89.69810487944247
 20
665.18407575884
 30
0.0
 11
89.69810487944247
 21
663.4091585412046
 31
0.0
  0
LINE
  5
25FD
330
1F
100
AcDbEntity
  8
AM_VIS
100
AcDbLine
 10
89.69810487944242
 20
663.4091585412046
 30
0.0
 11
89.69810487944242
 21
662.7119398038404
 31
0.0
  0
LINE
  5
25FE
330
1F
100
AcDbEntity
  8
AM_VIS
100
AcDbLine
 10
89.69810487944247
 20
669.18407575884
 30
0.0
 11
98.82158026242226
 21
669.18407575884
 31
0.0
  0
LINE
  5
25FF
330
1F
100
AcDbEntity
  8
AM_VIS
100
AcDbLine
 10
98.82158026242226
 20
669.18407575884
 30
0.0
 11
99.35495912893484
 21
669.18407575884
 31
0.0
  0
LINE
  5
2600
330
1F
100
AcDbEntity
  8
AM_VIS
100
AcDbLine
 10
98.82158026242226
 20
665.18407575884
 30
0.0
 11
99.35495912893484
 21
665.18407575884
 31
0.0
  0
LINE
  5
2601
330
1F
100
AcDbEntity
  8
AM_VIS
100
AcDbLine
 10
98.82158026242226
 20
665.18407575884
 30
0.0
 11
89.69810487944247
 21
665.18407575884
 31
0.0
  0
LINE
  5
2602
330
1F
100
AcDbEntity
  8
AM_VIS
100
AcDbLine
 10
89.69810487944247
 20
665.18407575884
 30
0.0
 11
89.69810487944247
 21
669.18407575884
 31
0.0
  0
ARC
  5
2603
330
1F
100
AcDbEntity
  8
AM_VIS
100
AcDbCircle
 10
93.69810487944247
 20
667.1840757588401
 30
0.0
 40
6.0
100
AcDbArc
 50
131.8103148957774
 51
228.1896851042225
  0
ARC
  5
2604
330
1F
100
AcDbEntity
  8
AM_VIS
100
AcDbCircle
 10
93.69810487944247
 20
667.1840757588401
 30
0.0
 40
5.5
100
AcDbArc
 50
21.3236862634984
 51
136.65824177278
  0
ARC
  5
2605
330
1F
100
AcDbEntity
  8
AM_VIS
100
AcDbCircle
 10
93.69810487944247
 20
667.1840757588401
 30
0.0
 40
5.5
100
AcDbArc
 50
223.3417582272199
 51
338.6763137365016
  0
ARC
  5
2606
330
1F
100
AcDbEntity
  8
AM_VIS
100
AcDbCircle
 10
93.69810487944247
 20
667.1840757588401
 30
0.0
 40
5.5
100
AcDbArc
 50
18.00445300008038
 51
21.3236862634984
  0
ARC
  5
2607
330
1F
100
AcDbEntity
  8
AM_VIS
100
AcDbCircle
 10
93.69810487944247
 20
667.1840757588401
 30
0.0
 40
5.5
100
AcDbArc
 50
338.6763137365016
 51
341.9955469999196
  0
ARC
  5
2608
330
1F
100
AcDbEntity
  8
AM_VIS
100
AcDbCircle
 10
93.69810487944247
 20
667.1840757588401
 30
0.0
 40
6.0
100
AcDbArc
 50
340.528779365507
 51
343.5407503717412
  0
ARC
  5
2609
330
1F
100
AcDbEntity
  8
AM_VIS
100
AcDbCircle
 10
93.69810487944247
 20
667.1840757588401
 30
0.0
 40
6.0
100
AcDbArc
 50
16.45924962825873
 51
19.47122063449295
  0
ARC
  5
260A
330
1F
100
AcDbEntity
  8
AM_VIS
100
AcDbCircle
 10
93.69810487944247
 20
667.1840757588401
 30
0.0
 40
6.0
100
AcDbArc
 50
19.47122063449295
 51
131.8103148957774
  0
ARC
  5
260B
330
1F
100
AcDbEntity
  8
AM_VIS
100
AcDbCircle
 10
93.69810487944247
 20
667.1840757588401
 30
0.0
 40
6.0
100
AcDbArc
 50
228.1896851042225
 51
340.528779365507
  0
LINE
  5
263D
330
1F
100
AcDbEntity
  8
AM_VIS
100
AcDbLine
 10
20.49069531376165
 20
594.5950434704291
 30
0.0
 11
20.19069531376164
 21
594.8950434704291
 31
0.0
  0
LINE
  5
263E
330
1F
100
AcDbEntity
  8
AM_VIS
100
AcDbLine
 10
20.49069531376165
 20
589.5950434704291
 30
0.0
 11
20.19069531376164
 21
589.295043470429
 31
0.0
  0
LINE
  5
263F
330
1F
100
AcDbEntity
  8
AM_VIS
100
AcDbLine
 10
16.49069531376165
 20
589.5950434704291
 30
0.0
 11
16.79069531376166
 21
589.295043470429
 31
0.0
  0
LINE
  5
2640
330
1F
100
AcDbEntity
  8
AM_VIS
100
AcDbLine
 10
16.49069531376165
 20
594.5950434704291
 30
0.0
 11
16.79069531376166
 21
594.8950434704291
 31
0.0
  0
LINE
  5
2641
330
1F
100
AcDbEntity
  8
AM_VIS
100
AcDbLine
 10
20.19069531376164
 20
596.795043470429
 30
0.0
 11
19.89069531376162
 21
597.0950434704291
 31
0.0
  0
LINE
  5
2642
330
1F
100
AcDbEntity
  8
AM_VIS
100
AcDbLine
 10
20.19069531376164
 20
587.3950434704291
 30
0.0
 11
19.89069531376162
 21
587.095043470429
 31
0.0
  0
LINE
  5
2643
330
1F
100
AcDbEntity
  8
AM_VIS
100
AcDbLine
 10
17.09069531376167
 20
587.095043470429
 30
0.0
 11
19.89069531376162
 21
587.095043470429
 31
0.0
  0
LINE
  5
2644
330
1F
100
AcDbEntity
  8
AM_VIS
100
AcDbLine
 10
17.09069531376167
 20
597.0950434704291
 30
0.0
 11
19.89069531376162
 21
597.0950434704291
 31
0.0
  0
LINE
  5
2645
330
1F
100
AcDbEntity
  8
AM_VIS
100
AcDbLine
 10
16.79069531376166
 20
587.3950434704291
 30
0.0
 11
17.09069531376167
 21
587.095043470429
 31
0.0
  0
LINE
  5
2646
330
1F
100
AcDbEntity
  8
AM_VIS
100
AcDbLine
 10
16.79069531376166
 20
596.795043470429
 30
0.0
 11
17.09069531376167
 21
597.0950434704291
 31
0.0
  0
LINE
  5
2647
330
1F
100
AcDbEntity
  8
AM_VIS
100
AcDbLine
 10
20.19069531376164
 20
596.795043470429
 30
0.0
 11
20.19069531376164
 21
587.3950434704291
 31
0.0
  0
LINE
  5
264A
330
1F
100
AcDbEntity
  8
AM_VIS
100
AcDbLine
 10
16.79069531376166
 20
587.3950434704291
 30
0.0
 11
16.79069531376166
 21
596.795043470429
 31
0.0
  0
LINE
  5
264B
330
1F
100
AcDbEntity
  8
AM_VIS
100
AcDbLine
 10
14.01707969839265
 20
594.5971043370787
 30
0.0
 11
14.7140194469265
 21
595.0974929119086
 31
0.0
  0
LINE
  5
264C
330
1F
100
AcDbEntity
  8
AM_VIS
100
AcDbLine
 10
14.71577809612625
 20
595.095043470429
 30
0.0
 11
16.49069531376165
 21
595.095043470429
 31
0.0
  0
LINE
  5
264D
330
1F
100
AcDbEntity
  8
AM_VIS
100
AcDbLine
 10
22.96283126876119
 20
579.0950434704291
 30
0.0
 11
14.01855935876205
 21
579.0950434704291
 31
0.0
  0
LINE
  5
264E
330
1F
100
AcDbEntity
  8
AM_VIS
100
AcDbLine
 10
20.49069531376165
 20
595.095043470429
 30
0.0
 11
22.26561253139704
 21
595.095043470429
 31
0.0
  0
LINE
  5
264F
330
1F
100
AcDbEntity
  8
AM_VIS
100
AcDbLine
 10
22.2673711805968
 20
595.0974929119086
 30
0.0
 11
22.96431092913065
 21
594.5971043370787
 31
0.0
  0
LINE
  5
2650
330
1F
100
AcDbEntity
  8
AM_VIS
100
AcDbLine
 10
16.49069531376165
 20
585.0950434704291
 30
0.0
 11
16.49069531376165
 21
595.095043470429
 31
0.0
  0
LINE
  5
2651
330
1F
100
AcDbEntity
  8
AM_VIS
100
AcDbLine
 10
20.49069531376165
 20
595.095043470429
 30
0.0
 11
20.49069531376165
 21
585.0950434704291
 31
0.0
  0
LINE
  5
2652
330
1F
100
AcDbEntity
  8
AM_VIS
100
AcDbLine
 10
20.49069531376165
 20
585.0950434704291
 30
0.0
 11
16.49069531376165
 21
585.0950434704291
 31
0.0
  0
LINE
  5
2653
330
1F
100
AcDbEntity
  8
AM_VIS
100
AcDbLine
 10
14.01855935876205
 20
579.0950434704291
 30
0.0
 11
14.01855935876205
 21
594.5950434704291
 31
0.0
  0
ELLIPSE
  5
2654
330
1F
100
AcDbEntity
  8
AM_VIS
100
AcDbEllipse
 10
18.49069531376165
 20
582.0950434704291
 30
0.0
 11
6.0
 21
0.0
 31
0.0
210
0.0
220
0.0
230
1.0
 40
0.7500000000000001
 41
3.871320309816759
 42
5.553457650952619
  0
LINE
  5
2655
330
1F
100
AcDbEntity
  8
AM_VIS
100
AcDbLine
 10
22.96283126876119
 20
594.5950434704291
 30
0.0
 11
22.96283126876119
 21
579.0950434704291
 31
0.0
  0
LINE
  5
2656
330
1F
100
AcDbEntity
  8
AM_VIS
100
AcDbLine
 10
12.99069531376165
 20
595.095043470429
 30
0.0
 11
12.49069531376165
 21
594.5950434704291
 31
0.0
  0
LINE
  5
2657
330
1F
100
AcDbEntity
  8
AM_VIS
100
AcDbLine
 10
23.99069531376165
 20
595.095043470429
 30
0.0
 11
24.49069531376165
 21
594.5950434704291
 31
0.0
  0
LINE
  5
2658
330
1F
100
AcDbEntity
  8
AM_VIS
100
AcDbLine
 10
24.49069531376165
 20
566.3950437701828
 30
0.0
 11
24.49069531376165
 21
594.5950434704291
 31
0.0
  0
LINE
  5
2659
330
1F
100
AcDbEntity
  8
AM_VIS
100
AcDbLine
 10
12.49069531376165
 20
566.3950437701827
 30
0.0
 11
12.49069531376165
 21
594.5950434704291
 31
0.0
  0
LINE
  5
265A
330
1F
100
AcDbEntity
  8
AM_VIS
100
AcDbLine
 10
12.99069531376165
 20
595.095043470429
 30
0.0
 11
14.71577809612625
 21
595.095043470429
 31
0.0
  0
LINE
  5
265B
330
1F
100
AcDbEntity
  8
AM_VIS
100
AcDbLine
 10
22.26561253139704
 20
595.095043470429
 30
0.0
 11
23.99069531376165
 21
595.095043470429
 31
0.0
  0
LINE
  5
265C
330
1F
100
AcDbEntity
  8
AM_VIS
100
AcDbLine
 10
14.01855935876205
 20
594.5950434704291
 30
0.0
 11
12.49069531376165
 21
594.5950434704291
 31
0.0
  0
LINE
  5
265D
330
1F
100
AcDbEntity
  8
AM_VIS
100
AcDbLine
 10
24.49069531376165
 20
594.5950434704291
 30
0.0
 11
22.96283126876119
 21
594.5950434704291
 31
0.0
  0
LINE
  5
266B
330
1F
100
AcDbEntity
  8
AM_7
  6
AM_ISO08W050x2
100
AcDbLine
 10
95.69810487944264
 20
592.0950437701826
 30
0.0
 11
102.6981048794428
 21
592.0950437701826
 31
0.0
1001
GENIUS_GENOREF_13
1005
266F
  0
LINE
  5
266C
330
1F
100
AcDbEntity
  8
AM_7
  6
AM_ISO08W050x2
100
AcDbLine
 10
95.69810487944264
 20
592.0950437701826
 30
0.0
 11
95.69810487944264
 21
599.0950437701829
 31
0.0
1001
GENIUS_GENOREF_13
1005
266F
  0
LINE
  5
266D
330
1F
100
AcDbEntity
  8
AM_7
  6
AM_ISO08W050x2
100
AcDbLine
 10
95.69810487944264
 20
592.0950437701826
 30
0.0
 11
88.69810487944244
 21
592.0950437701826
 31
0.0
1001
GENIUS_GENOREF_13
1005
266F
  0
LINE
  5
266E
330
1F
100
AcDbEntity
  8
AM_7
  6
AM_ISO08W050x2
100
AcDbLine
 10
95.69810487944264
 20
592.0950437701826
 30
0.0
 11
95.69810487944264
 21
585.0950437701824
 31
0.0
1001
GENIUS_GENOREF_13
1005
266F
  0
POINT
  5
266F
330
1F
100
AcDbEntity
  8
0
 60
     1
100
AcDbPoint
 10
0.0
 20
0.0
 30
0.0
1001
GENIUS_GENODEF_13
1002
{
1000
HIER
1070
    10
1002
}
1002
{
1000
MANEDIT
1070
     0
1002
}
1002
{
1000
NOSEL
1070
     0
1002
}
1002
{
1000
BEHIND
1070
     0
1002
}
1002
{
1000
OTHER
1070
     0
1002
}
1002
{
1000
REACTOR
1002
}
1001
GENIUS_GENOBJ-N-CRS_13
1002
{
1000
OWNER
1000
GEN
1002
}
1001
GENIUS_GENOENT_13
1002
{
1000
MYREF
1005
266F
1002
}
1002
{
1000
GRP
1005
0
1002
}
1001
GENIUS_GENOLIS_13
1002
{
1000
ENT
1005
266E
1005
266D
1005
266C
1005
266B
1002
}
  0
ARC
  5
267B
330
1F
100
AcDbEntity
  8
0
  6
HIDDEN
 62
     3
 48
0.1
100
AcDbCircle
 10
95.69810487944268
 20
592.0950437701826
 30
0.0
 40
5.0
100
AcDbArc
 50
143.1301023541529
 51
317.001440673961
  0
LINE
  5
2681
330
1F
100
AcDbEntity
  8
AM_VIS
100
AcDbLine
 10
15.64547162461202
 20
479.0950437701829
 30
0.0
 11
15.64547162461202
 21
544.0950437701828
 31
0.0
  0
LINE
  5
270D
102
{ACAD_REACTORS
330
272D
102
}
330
1F
100
AcDbEntity
  8
AM_7
  6
AM_ISO08W050x2
100
AcDbLine
 10
73.54457186907575
 20
662.5982888267348
 30
0.0
 11
81.71050609690928
 21
662.5982888267348
 31
0.0
  0
DIMENSION
  5
271D
102
{ACAD_XDICTIONARY
360
272C
102
}
102
{ACAD_REACTORS
330
272D
102
}
330
1F
100
AcDbEntity
  8
AM_5
100
AcDbDimension
  2
*D21
 10
53.81136875608536
 20
662.5982888267348
 30
0.0
 11
51.26136875608525
 21
666.0982888267348
 31
0.0
 70
    32
 71
     5
 42
7.0
  3
AM_ISO$0
100
AcDbAlignedDimension
 13
75.31332897486129
 23
669.5982888267348
 33
0.0
 14
73.54457186907575
 24
662.5982888267348
 34
0.0
 50
90.00000000000003
100
AcDbRotatedDimension
1001
ACAD
1000
DSTYLE
1002
{
1070
    40
1040
1.0
1070
   144
1040
1.0
1070
   272
1070
     8
1002
}
  0
LWPOLYLINE
  5
2962
330
1F
100
AcDbEntity
  8
LOGO
 62
     4
100
AcDbPolyline
 90
        4
 70
     1
 43
0.0
 10
-51.92901688845245
 20
435.1129680634921
 10
188.0709831115474
 20
435.1129680634921
 10
188.0709831115474
 20
741.1164431766138
 10
-51.92901688845245
 20
741.1164431766138
1001
GENIUS_GENREC_14
1002
{
1000
PYDIR
1011
-51.92901688845245
1021
741.1164431766138
1031
0.0
1002
}
1002
{
1000
PXDIR
1011
188.0709831115474
1021
435.1129680634921
1031
0.0
1002
}
1002
{
1000
PORI
1011
-51.92901688845245
1021
435.1129680634921
1031
0.0
1002
}
1002
{
1000
PINS
1011
-51.92901688845245
1021
435.1129680634921
1031
0.0
1002
}
1002
{
1000
PINS2
1011
188.0709831115474
1021
741.1164431766138
1031
0.0
1002
}
1002
{
1000
C
1070
     1
1002
}
1001
GENIUS_GENODEF_13
1002
{
1000
HIER
1070
     0
1002
}
1002
{
1000
MANEDIT
1070
     0
1002
}
1002
{
1000
NOSEL
1070
     0
1002
}
1002
{
1000
BEHIND
1070
     0
1002
}
1002
{
1000
OTHER
1070
     0
1002
}
1002
{
1000
REACTOR
1002
}
1001
GENIUS_GENOBJ-N-REC_13
1002
{
1000
OWNER
1000
GEN
1002
}
  0
LWPOLYLINE
  5
2963
330
1F
100
AcDbEntity
  8
LOGO
 62
     4
100
AcDbPolyline
 90
        4
 70
     1
 43
0.0
 10
-51.92901688845245
 20
435.1129680634921
 10
188.0709831115474
 20
435.1129680634921
 10
188.0709831115474
 20
411.1164431766138
 10
-51.92901688845245
 20
411.1164431766138
1001
GENIUS_GENREC_14
1002
{
1000
PYDIR
1011
-51.92901688845245
1021
411.1164431766138
1031
0.0
1002
}
1002
{
1000
PXDIR
1011
188.0709831115474
1021
435.1129680634921
1031
0.0
1002
}
1002
{
1000
PORI
1011
-51.92901688845245
1021
435.1129680634921
1031
0.0
1002
}
1002
{
1000
PINS
1011
-51.92901688845245
1021
435.1129680634921
1031
0.0
1002
}
1002
{
1000
PINS2
1011
188.0709831115474
1021
411.1164431766138
1031
0.0
1002
}
1002
{
1000
C
1070
     1
1002
}
1001
GENIUS_GENOBJ-N-REC_13
1002
{
1000
OWNER
1000
GEN
1002
}
1001
GENIUS_GENODEF_13
1002
{
1000
HIER
1070
     0
1002
}
1002
{
1000
MANEDIT
1070
     0
1002
}
1002
{
1000
NOSEL
1070
     0
1002
}
1002
{
1000
BEHIND
1070
     0
1002
}
1002
{
1000
OTHER
1070
     0
1002
}
1002
{
1000
REACTOR
1002
}
  0
TEXT
  5
2964
330
1F
100
AcDbEntity
  8
LOGO
 62
     7
100
AcDbText
 10
2.253547389996356
 20
424.600498846314
 30
0.0
 40
3.19953665158371
  1
Order example:
 41
0.8
  7
CHINESET
100
AcDbText
  0
TEXT
  5
2965
330
1F
100
AcDbEntity
  8
LOGO
 62
     7
100
AcDbText
 10
2.827570724382212
 20
429.1047839792271
 30
0.0
 40
4.799304977375564
  1
訂購代號：
  7
CHINESET
100
AcDbText
  0
LINE
  5
2966
330
1F
100
AcDbEntity
  8
LOGO
 62
     4
100
AcDbLine
 10
0.8633378626788044
 20
411.116443176614
 30
0.0
 11
0.8633378626788044
 21
435.1129680634921
 31
0.0
  0
TEXT
  5
2967
330
1F
100
AcDbEntity
  8
LOGO
  6
Continuous
100
AcDbText
 10
-43.30935728261954
 20
415.8305242767276
 30
0.0
 40
3.599478733031674
  1
金器工業股份有限公司
  7
CHINESET
100
AcDbText
  0
TEXT
  5
2968
330
1F
100
AcDbEntity
  8
LOGO
  6
Continuous
100
AcDbText
 10
-49.92088759344949
 20
412.2303403280744
 30
0.0
 40
2.399652488687782
  1
MINDMAN INDUSTRIAL CO., LTD.
 41
0.85
  7
CHINESET
100
AcDbText
  0
LINE
  5
2969
330
1F
100
AcDbEntity
  8
LOGO
 62
     4
100
AcDbLine
 10
0.8633378626788044
 20
430.3136630861165
 30
0.0
 11
-34.33156530474219
 21
430.3136630861165
 31
0.0
  0
LINE
  5
296A
330
1F
100
AcDbEntity
  8
LOGO
 62
     4
100
AcDbLine
 10
0.8633378626788044
 20
425.5143581087408
 30
0.0
 11
-34.33156530474219
 21
425.5143581087408
 31
0.0
  0
LINE
  5
296B
330
1F
100
AcDbEntity
  8
LOGO
 62
     4
100
AcDbLine
 10
0.8633378626788044
 20
420.7150531313655
 30
0.0
 11
-51.92901688845245
 21
420.7150531313655
 31
0.0
  0
LINE
  5
296C
330
1F
100
AcDbEntity
  8
LOGO
 62
     4
100
AcDbLine
 10
-34.33156530474219
 20
420.7150531313655
 30
0.0
 11
-34.33156530474219
 21
435.1129680634921
 31
0.0
  0
TEXT
  5
296D
330
1F
100
AcDbEntity
  8
LOGO
100
AcDbText
 10
-10.27751016393663
 20
421.914879375709
 30
0.0
 40
2.399652488687782
  1
mm
  7
CHINESET
 72
     1
 11
-7.306511844608905
 21
423.1147056200529
 31
0.0
100
AcDbText
 73
     2
  0
TEXT
  5
296E
330
1F
100
AcDbEntity
  8
LOGO
100
AcDbText
 10
-11.53447099134452
 20
431.5134893304602
 30
0.0
 40
2.399652488687782
  1
1 : 1
  7
CHINESET
 72
     1
 11
-7.306511844608905
 21
432.7133155748041
 31
0.0
100
AcDbText
 73
     2
  0
LINE
  5
296F
330
1F
100
AcDbEntity
  8
LOGO
 62
     4
100
AcDbLine
 10
-15.13434539523984
 20
420.7150531313655
 30
0.0
 11
-15.13434539523984
 21
435.1129680634921
 31
0.0
  0
CIRCLE
  5
2970
330
1F
100
AcDbEntity
  8
LOGO
  6
Continuous
100
AcDbCircle
 10
-10.69108866864587
 20
427.9191434716622
 30
0.0
 40
1.393294716384757
  0
CIRCLE
  5
2971
330
1F
100
AcDbEntity
  8
LOGO
  6
Continuous
100
AcDbCircle
 10
-10.69108866864587
 20
427.9191434716622
 30
0.0
 40
0.8163473623987165
  0
LINE
  5
2972
330
1F
100
AcDbEntity
  8
LOGO
100
AcDbLine
 10
-1.935462999802041
 20
426.5258487552772
 30
0.0
 11
-1.935462999802041
 21
429.3124381880472
 31
0.0
  0
LINE
  5
2973
330
1F
100
AcDbEntity
  8
LOGO
100
AcDbLine
 10
-6.303361956735102
 20
427.1027961092636
 30
0.0
 11
-6.303361956735102
 21
428.7354908340611
 31
0.0
  0
LINE
  5
2974
330
1F
100
AcDbEntity
  8
LOGO
  6
Continuous
100
AcDbLine
 10
-6.303361956735102
 20
428.7354908340611
 30
0.0
 11
-1.935462999802041
 21
429.3124381880472
 31
0.0
  0
LINE
  5
2975
330
1F
100
AcDbEntity
  8
LOGO
  6
Continuous
100
AcDbLine
 10
-6.303361956735102
 20
427.1027961092636
 30
0.0
 11
-1.935462999802041
 21
426.5258487552772
 31
0.0
  0
TEXT
  5
2976
330
1F
100
AcDbEntity
  8
LOGO
100
AcDbText
 10
-32.35292327500717
 20
431.5146702618031
 30
157.2692709120597
 40
2.399652488687782
  1
比例 Scale:
 41
0.9
  7
CHINESET
 72
     4
 11
-24.73295534999102
 21
432.7133155748041
 31
157.2692709120597
100
AcDbText
  0
TEXT
  5
2977
330
1F
100
AcDbEntity
  8
LOGO
100
AcDbText
 10
-32.49111754779321
 20
426.7479393073013
 30
157.2692709120597
 40
2.399652488687782
  1
投影  View:
 41
0.9
  7
CHINESET
 72
     4
 11
-24.73295534999102
 21
427.9140105974285
 31
157.2692709120597
100
AcDbText
  0
TEXT
  5
2978
330
1F
100
AcDbEntity
  8
LOGO
100
AcDbText
 10
-32.25650866608669
 20
421.914879375709
 30
157.2692709120597
 40
2.399652488687782
  1
單位  Unit:
 41
0.9
  7
CHINESET
 72
     4
 11
-24.73295534999102
 21
423.1147056200529
 31
157.2692709120597
100
AcDbText
  0
SOLID
  5
2979
330
1F
100
AcDbEntity
  8
LOGO
 62
     5
100
AcDbTrace
 10
-49.43933891994578
 20
424.7041338301736
 30
0.0
 11
-48.40179215071851
 21
424.7041338301733
 31
0.0
 12
-44.07271769980485
 22
434.5429394004327
 32
0.0
 13
-43.03517093057701
 23
434.5429394004321
 33
0.0
  0
SOLID
  5
297A
330
1F
100
AcDbEntity
  8
LOGO
 62
     5
100
AcDbTrace
 10
-47.97246245310612
 20
424.7041338301736
 30
0.0
 11
-46.93491568387884
 21
424.7041338301736
 31
0.0
 12
-43.03517093057701
 22
433.7558349548116
 32
0.0
 13
-44.07271769980485
 23
429.9514968009781
 33
0.0
  0
SOLID
  5
297B
330
1F
100
AcDbEntity
  8
LOGO
 62
     2
100
AcDbTrace
 10
-48.40179215071851
 20
424.7041338301733
 30
0.0
 11
-47.97246245310612
 21
424.7041338301736
 31
0.0
 12
-43.03517093057701
 22
434.5429394004321
 32
0.0
 13
-42.60584123296519
 23
434.5429394004321
 33
0.0
  0
SOLID
  5
297C
330
1F
100
AcDbEntity
  8
LOGO
 62
     5
100
AcDbTrace
 10
-51.10278082865182
 20
421.1263863500797
 30
0.0
 11
-50.74500608064204
 21
421.1263863500797
 31
0.0
 12
-49.73748454328665
 22
422.9152600901265
 32
0.0
 13
-49.37970979527796
 23
422.9152600901265
 33
0.0
  0
SOLID
  5
297D
330
1F
100
AcDbEntity
  8
LOGO
 62
     5
100
AcDbTrace
 10
-49.73748454328665
 20
422.9152600901265
 30
0.0
 11
-49.37970979527796
 21
422.9152600901265
 31
0.0
 12
-49.73748454328665
 22
421.1263863500797
 32
0.0
 13
-49.37970979527796
 23
421.1263863500797
 33
0.0
  0
SOLID
  5
297E
330
1F
100
AcDbEntity
  8
LOGO
 62
     5
100
AcDbTrace
 10
-49.73748454328665
 20
421.1263863500797
 30
0.0
 11
-49.37970979527796
 21
421.1263863500797
 31
0.0
 12
-48.37218825792092
 22
422.9152600901265
 32
0.0
 13
-48.01441350991166
 23
422.9152600901265
 33
0.0
  0
SOLID
  5
297F
330
1F
100
AcDbEntity
  8
LOGO
 62
     5
100
AcDbTrace
 10
-48.37218825792092
 20
422.9152600901265
 30
0.0
 11
-48.01441350991166
 21
422.9152600901265
 31
0.0
 12
-48.37218825792092
 22
421.1263863500797
 32
0.0
 13
-48.01441350991166
 23
421.1263863500797
 33
0.0
  0
POLYLINE
  5
2980
330
1F
100
AcDbEntity
  8
LOGO
 62
     5
100
AcDb2dPolyline
 66
     1
 10
0.0
 20
0.0
 30
0.0
 40
0.3583481049773755
 41
0.3583481049773755
  0
VERTEX
  5
2981
330
2980
100
AcDbEntity
  8
LOGO
 62
     5
100
AcDbVertex
100
AcDb2dVertex
 10
-36.37970058214956
 20
422.1997105941078
 30
0.0
 42
1.0
  0
VERTEX
  5
2982
330
2980
100
AcDbEntity
  8
LOGO
 62
     5
100
AcDbVertex
100
AcDb2dVertex
 10
-37.45474489708192
 20
422.1997105941078
 30
0.0
 42
1.0
  0
SEQEND
  5
2983
330
2980
100
AcDbEntity
  8
LOGO
 62
     5
  0
POLYLINE
  5
2984
330
1F
100
AcDbEntity
  8
LOGO
 62
     5
100
AcDb2dPolyline
 66
     1
 10
0.0
 20
0.0
 30
0.0
 70
     1
  0
VERTEX
  5
2985
330
2984
100
AcDbEntity
  8
LOGO
 62
     5
100
AcDbVertex
100
AcDb2dVertex
 10
-39.48125124870069
 20
422.0208232201029
 30
0.0
 42
1.000000057330635
  0
VERTEX
  5
2986
330
2984
100
AcDbEntity
  8
LOGO
 62
     5
100
AcDbVertex
100
AcDb2dVertex
 10
-38.40792700467239
 20
422.0208232201029
 30
0.0
 42
1.000000057330635
  0
SEQEND
  5
2987
330
2984
100
AcDbEntity
  8
LOGO
 62
     5
  0
CIRCLE
  5
2988
330
1F
100
AcDbEntity
  8
LOGO
 62
     5
100
AcDbCircle
 10
-38.94458912668574
 20
422.0208232201029
 30
0.0
 40
0.5366621220141177
  0
POLYLINE
  5
2989
330
1F
100
AcDbEntity
  8
LOGO
 62
     5
100
AcDb2dPolyline
 66
     1
 10
0.0
 20
0.0
 30
0.0
 70
     1
 40
0.3583481049773755
 41
0.3583481049773755
  0
VERTEX
  5
298A
330
2989
100
AcDbEntity
  8
LOGO
 62
     5
100
AcDbVertex
100
AcDb2dVertex
 10
-39.66128533664102
 20
422.0208232201029
 30
0.0
 42
1.0
  0
VERTEX
  5
298B
330
2989
100
AcDbEntity
  8
LOGO
 62
     5
100
AcDbVertex
100
AcDb2dVertex
 10
-38.22789291673155
 20
422.0208232201029
 30
0.0
 42
1.0
  0
SEQEND
  5
298C
330
2989
100
AcDbEntity
  8
LOGO
 62
     5
  0
LINE
  5
298D
330
1F
100
AcDbEntity
  8
LOGO
100
AcDbLine
 10
-36.2016732435975
 20
421.1263863500797
 30
0.0
 11
-36.2016732435975
 21
422.1997105941078
 31
0.0
  0
SOLID
  5
298E
330
1F
100
AcDbEntity
  8
LOGO
 62
     5
100
AcDbTrace
 10
-38.4079627821456
 20
422.9152600901265
 30
0.0
 11
-38.05018803413691
 21
422.9152600901265
 31
0.0
 12
-38.4079627821456
 22
421.1263863500797
 32
0.0
 13
-38.05018803413691
 23
421.1263863500797
 33
0.0
  0
SOLID
  5
298F
330
1F
100
AcDbEntity
  8
LOGO
 62
     5
100
AcDbTrace
 10
-37.63277223563506
 20
421.1263863500797
 30
0.0
 11
-37.27499748762523
 21
421.1263863500797
 31
0.0
 12
-37.63277223563506
 22
422.9152600901265
 32
0.0
 13
-37.27499748762523
 23
422.9152600901265
 33
0.0
  0
SOLID
  5
2990
330
1F
100
AcDbEntity
  8
LOGO
 62
     5
100
AcDbTrace
 10
-36.55944799160619
 20
422.1997105941078
 30
0.0
 11
-36.2016732435975
 21
422.1997105941078
 31
0.0
 12
-36.55944799160619
 22
421.1263863500797
 32
0.0
 13
-36.2016732435975
 23
421.1263863500797
 33
0.0
  0
SOLID
  5
2991
330
1F
100
AcDbEntity
  8
LOGO
 62
     5
100
AcDbTrace
 10
-37.66854971043609
 20
433.7558349548116
 30
0.0
 11
-38.70609647966279
 21
429.9514968009781
 31
0.0
 12
-37.66854971043609
 22
424.7041338301733
 32
0.0
 13
-38.70609647966279
 23
424.7041338301733
 33
0.0
  0
SOLID
  5
2992
330
1F
100
AcDbEntity
  8
LOGO
 62
     5
100
AcDbTrace
 10
-37.23922001282421
 20
424.7041338301733
 30
0.0
 11
-36.2016732435975
 21
424.7041338301733
 31
0.0
 12
-37.23922001282421
 22
434.5429394004321
 32
0.0
 13
-36.2016732435975
 23
434.5429394004327
 33
0.0
  0
SOLID
  5
2993
330
1F
100
AcDbEntity
  8
LOGO
 62
     2
100
AcDbTrace
 10
-37.66854971043609
 20
434.5429394004327
 30
0.0
 11
-37.23922001282421
 21
434.5429394004321
 31
0.0
 12
-37.66854971043609
 22
424.7041338301733
 32
0.0
 13
-37.23922001282421
 23
424.7041338301733
 33
0.0
  0
POLYLINE
  5
2994
330
1F
100
AcDbEntity
  8
LOGO
 62
     5
100
AcDb2dPolyline
 66
     1
 10
0.0
 20
0.0
 30
0.0
 40
0.3583481049773755
 41
0.3583481049773755
  0
VERTEX
  5
2995
330
2994
100
AcDbEntity
  8
LOGO
 62
     5
100
AcDbVertex
100
AcDb2dVertex
 10
-41.50782915526758
 20
422.1997105941078
 30
0.0
 42
1.0
  0
VERTEX
  5
2996
330
2994
100
AcDbEntity
  8
LOGO
 62
     5
100
AcDbVertex
100
AcDb2dVertex
 10
-42.58287347019989
 20
422.1997105941078
 30
0.0
 42
1.0
  0
SEQEND
  5
2997
330
2994
100
AcDbEntity
  8
LOGO
 62
     5
  0
POLYLINE
  5
2998
330
1F
100
AcDbEntity
  8
LOGO
 62
     5
100
AcDb2dPolyline
 66
     1
 10
0.0
 20
0.0
 30
0.0
 40
0.3583481049773755
 41
0.3583481049773755
  0
VERTEX
  5
2999
330
2998
100
AcDbEntity
  8
LOGO
 62
     5
100
AcDbVertex
100
AcDb2dVertex
 10
-40.43450491124036
 20
422.1997105941078
 30
0.0
 42
1.0
  0
VERTEX
  5
299A
330
2998
100
AcDbEntity
  8
LOGO
 62
     5
100
AcDbVertex
100
AcDb2dVertex
 10
-41.50954922617216
 20
422.1997105941078
 30
0.0
 42
1.0
  0
SEQEND
  5
299B
330
2998
100
AcDbEntity
  8
LOGO
 62
     5
  0
POLYLINE
  5
299C
330
1F
100
AcDbEntity
  8
LOGO
 62
     5
100
AcDb2dPolyline
 66
     1
 10
0.0
 20
0.0
 30
0.0
 40
0.3583481049773755
 41
0.3583481049773755
  0
VERTEX
  5
299D
330
299C
100
AcDbEntity
  8
LOGO
 62
     5
100
AcDbVertex
100
AcDb2dVertex
 10
-45.56263348435834
 20
422.1997105941078
 30
0.0
 42
1.0
  0
VERTEX
  5
299E
330
299C
100
AcDbEntity
  8
LOGO
 62
     5
100
AcDbVertex
100
AcDb2dVertex
 10
-46.63767779929014
 20
422.1997105941078
 30
0.0
 42
1.0
  0
SEQEND
  5
299F
330
299C
100
AcDbEntity
  8
LOGO
 62
     5
  0
SOLID
  5
29A0
330
1F
100
AcDbEntity
  8
LOGO
 62
     5
100
AcDbTrace
 10
-46.81570513784277
 20
422.9152600901265
 30
0.0
 11
-46.45793038983407
 21
422.9152600901265
 31
0.0
 12
-46.81570513784277
 22
421.1263863500797
 32
0.0
 13
-46.45793038983407
 23
421.1263863500797
 33
0.0
  0
SOLID
  5
29A1
330
1F
100
AcDbEntity
  8
LOGO
 62
     5
100
AcDbTrace
 10
-45.74238089381447
 20
422.1997105941078
 30
0.0
 11
-45.38460614580469
 21
422.1997105941078
 31
0.0
 12
-45.74238089381447
 22
421.1263863500797
 32
0.0
 13
-45.38460614580469
 23
421.1263863500797
 33
0.0
  0
POLYLINE
  5
29A2
330
1F
100
AcDbEntity
  8
LOGO
 62
     5
100
AcDb2dPolyline
 66
     1
 10
0.0
 20
0.0
 30
0.0
 70
     1
 40
0.3583481049773755
 41
0.3583481049773755
  0
VERTEX
  5
29A3
330
29A2
100
AcDbEntity
  8
LOGO
 62
     5
100
AcDbVertex
100
AcDb2dVertex
 10
-44.78941390975956
 20
422.0208232201029
 30
0.0
 42
1.0
  0
VERTEX
  5
29A4
330
29A2
100
AcDbEntity
  8
LOGO
 62
     5
100
AcDbVertex
100
AcDb2dVertex
 10
-43.35602148984958
 20
422.0208232201029
 30
0.0
 42
1.0
  0
SEQEND
  5
29A5
330
29A2
100
AcDbEntity
  8
LOGO
 62
     5
  0
SOLID
  5
29A6
330
1F
100
AcDbEntity
  8
LOGO
 62
     5
100
AcDbTrace
 10
-43.53609135526471
 20
423.4519222121409
 30
0.0
 11
-43.17831660725545
 21
423.4519222121409
 31
0.0
 12
-43.53609135526471
 22
421.1263863500797
 32
0.0
 13
-43.17831660725545
 23
421.1263863500797
 33
0.0
  0
SOLID
  5
29A7
330
1F
100
AcDbEntity
  8
LOGO
 62
     5
100
AcDbTrace
 10
-42.76090080875195
 20
422.9152600901265
 30
0.0
 11
-42.40312606074326
 21
422.9152600901265
 31
0.0
 12
-42.76090080875195
 22
421.1263863500797
 32
0.0
 13
-42.40312606074326
 23
421.1263863500797
 33
0.0
  0
SOLID
  5
29A8
330
1F
100
AcDbEntity
  8
LOGO
 62
     5
100
AcDbTrace
 10
-41.68757656472473
 20
422.1997105941078
 30
0.0
 11
-41.32980181671496
 21
422.1997105941078
 31
0.0
 12
-41.68757656472473
 22
421.1263863500797
 32
0.0
 13
-41.32980181671496
 23
421.1263863500797
 33
0.0
  0
SOLID
  5
29A9
330
1F
100
AcDbEntity
  8
LOGO
 62
     5
100
AcDbTrace
 10
-40.61425232069644
 20
422.1997105941078
 30
0.0
 11
-40.25647757268723
 21
422.1997105941078
 31
0.0
 12
-40.61425232069644
 22
421.1263863500792
 32
0.0
 13
-40.25647757268723
 23
421.1263863500792
 33
0.0
  0
SOLID
  5
29AA
330
1F
100
AcDbEntity
  8
LOGO
 62
     5
100
AcDbTrace
 10
-47.59089568435496
 20
423.1657024137332
 30
0.0
 11
-47.23312093634461
 21
423.1657024137332
 31
0.0
 12
-47.59089568435496
 22
423.4519222121409
 32
0.0
 13
-47.23312093634461
 23
423.4519222121409
 33
0.0
  0
SOLID
  5
29AB
330
1F
100
AcDbEntity
  8
LOGO
 62
     5
100
AcDbTrace
 10
-47.59089568435496
 20
422.9152600901265
 30
0.0
 11
-47.23312093634461
 21
422.9152600901265
 31
0.0
 12
-47.59089568435496
 22
421.1263863500792
 32
0.0
 13
-47.23312093634461
 23
421.1263863500797
 33
0.0
  0
SOLID
  5
29AC
330
1F
100
AcDbEntity
  8
LOGO
 62
     5
100
AcDbTrace
 10
-44.07271769980485
 20
424.7041338301736
 30
0.0
 11
-43.03517093057701
 21
424.7041338301736
 31
0.0
 12
-44.07271769980485
 22
429.9514968009781
 32
0.0
 13
-43.03517093057701
 23
433.7558349548116
 33
0.0
  0
SOLID
  5
29AD
330
1F
100
AcDbEntity
  8
LOGO
 62
     5
100
AcDbTrace
 10
-42.60584123296519
 20
434.5429394004321
 30
0.0
 11
-41.56829446373842
 21
434.5429394004327
 31
0.0
 12
-42.60584123296519
 22
425.4912382757941
 32
0.0
 13
-41.56829446373842
 23
429.2955764296277
 33
0.0
  0
SOLID
  5
29AE
330
1F
100
AcDbEntity
  8
LOGO
 62
     2
100
AcDbTrace
 10
-43.03517093057701
 20
434.5429394004321
 30
0.0
 11
-42.60584123296519
 21
434.5429394004321
 31
0.0
 12
-43.03517093057701
 22
424.7041338301736
 32
0.0
 13
-42.60584123296519
 23
424.7041338301736
 33
0.0
  0
SOLID
  5
29AF
330
1F
100
AcDbEntity
  8
LOGO
 62
     5
100
AcDbTrace
 10
-42.60584123296519
 20
425.4912382757941
 30
0.0
 11
-41.56829446373842
 21
429.2955764296277
 31
0.0
 12
-37.66854971043609
 22
434.5429394004327
 32
0.0
 13
-38.70609647966279
 23
434.5429394004327
 33
0.0
  0
SOLID
  5
29B0
330
1F
100
AcDbEntity
  8
LOGO
 62
     5
100
AcDbTrace
 10
-42.60584123296519
 20
424.7041338301736
 30
0.0
 11
-41.56829446373842
 21
424.7041338301736
 31
0.0
 12
-37.66854971043609
 22
433.7558349548116
 32
0.0
 13
-38.70609647966279
 23
429.9514968009781
 33
0.0
  0
SOLID
  5
29B1
330
1F
100
AcDbEntity
  8
LOGO
 62
     2
100
AcDbTrace
 10
-43.03517093057701
 20
424.7041338301736
 30
0.0
 11
-42.60584123296519
 21
424.7041338301736
 31
0.0
 12
-37.66854971043609
 22
434.5429394004327
 32
0.0
 13
-37.23922001282421
 23
434.5429394004321
 33
0.0
  0
LINE
  5
29B2
330
1F
100
AcDbEntity
  8
LOGO
 62
     4
100
AcDbLine
 10
49.86717608265758
 20
421.9148793757095
 30
0.0
 11
49.86717608265758
 21
413.1161535838538
 31
0.0
  0
LINE
  5
29B3
330
1F
100
AcDbEntity
  8
LOGO
 62
     4
100
AcDbLine
 10
33.86949282473893
 20
421.9148793757095
 30
0.0
 11
33.86949282473893
 21
413.1161535838538
 31
0.0
  0
LINE
  5
29B4
330
1F
100
AcDbEntity
  8
LOGO
 62
     4
100
AcDbLine
 10
49.86717608265758
 20
413.1161535838538
 30
0.0
 11
33.86949282473893
 21
413.1161535838538
 31
0.0
  0
LINE
  5
29B5
330
1F
100
AcDbEntity
  8
LOGO
 62
     4
100
AcDbLine
 10
52.73653059042505
 20
432.7133155748041
 30
0.0
 11
33.86949282473893
 21
432.7133155748041
 31
0.0
  0
LINE
  5
29B6
330
1F
100
AcDbEntity
  8
LOGO
 62
     4
100
AcDbLine
 10
52.73653059042505
 20
425.5143581087408
 30
0.0
 11
33.86949282473893
 21
425.5143581087408
 31
0.0
  0
LINE
  5
29B7
330
1F
100
AcDbEntity
  8
LOGO
 62
     4
100
AcDbLine
 10
33.86949282473893
 20
432.7133155748041
 30
0.0
 11
33.86949282473893
 21
425.5143581087408
 31
0.0
  0
LINE
  5
29B8
330
1F
100
AcDbEntity
  8
LOGO
 62
     4
100
AcDbLine
 10
52.73653059042505
 20
432.7133155748041
 30
0.0
 11
52.73653059042505
 21
425.5143581087408
 31
0.0
  0
LINE
  5
29B9
330
1F
100
AcDbEntity
  8
LOGO
 62
     4
100
AcDbLine
 10
42.70301170758199
 20
425.5143581087408
 30
0.0
 11
42.70301170758199
 21
421.9148793757095
 31
0.0
  0
TEXT
  5
29BA
330
1F
100
AcDbEntity
  8
LOGO
  6
Continuous
100
AcDbText
 10
35.14863482067489
 20
427.0171299549068
 30
0.0
 40
4.2
  1
MSBR
  7
CHINESET
100
AcDbText
  0
LINE
  5
29BB
330
1F
100
AcDbEntity
  8
LOGO
 62
     4
100
AcDbLine
 10
49.86717608265758
 20
421.9148793757095
 30
0.0
 11
33.86949282473893
 21
421.9148793757095
 31
0.0
  0
TEXT
  5
29BC
330
1F
100
AcDbEntity
  8
LOGO
  6
Continuous
100
AcDbText
 10
39.00309873431059
 20
414.3580750712428
 30
157.2692709120597
 40
1.799999999999999
  1
Model
 41
0.8
  7
CHINESET
100
AcDbText
  0
TEXT
  5
29BD
330
1F
100
AcDbEntity
  8
LOGO
100
AcDbText
 10
38.52399724871162
 20
417.6948871435556
 30
157.2692709120597
 40
3.0
  1
型號
  7
CHINESET
100
AcDbText
  0
LINE
  5
29BE
330
1F
100
AcDbEntity
  8
LOGO
  6
Continuous
100
AcDbLine
 10
53.5018392676319
 20
429.0883369967237
 30
0.0
 11
56.68063620635933
 21
429.0883369967237
 31
0.0
  0
LINE
  5
29CA
330
1F
100
AcDbEntity
  8
LOGO
 62
     4
100
AcDbLine
 10
67.63294234005042
 20
421.9148793757095
 30
0.0
 11
67.63294234005042
 21
413.1161535838538
 31
0.0
  0
LINE
  5
29CB
330
1F
100
AcDbEntity
  8
LOGO
 62
     4
100
AcDbLine
 10
51.63525908213177
 20
421.9148793757095
 30
0.0
 11
51.63525908213177
 21
413.1161535838538
 31
0.0
  0
LINE
  5
29CC
330
1F
100
AcDbEntity
  8
LOGO
 62
     4
100
AcDbLine
 10
67.63294234005042
 20
413.1161535838538
 30
0.0
 11
51.63525908213177
 21
413.1161535838538
 31
0.0
  0
LINE
  5
29CD
330
1F
100
AcDbEntity
  8
LOGO
 62
     4
100
AcDbLine
 10
66.49697493381541
 20
432.7133155748041
 30
0.0
 11
57.52486822523497
 21
432.7133155748041
 31
0.0
  0
LINE
  5
29CE
330
1F
100
AcDbEntity
  8
LOGO
 62
     4
100
AcDbLine
 10
66.49697493381541
 20
425.5143581087408
 30
0.0
 11
57.52486822523497
 21
425.5143581087408
 31
0.0
  0
LINE
  5
29CF
330
1F
100
AcDbEntity
  8
LOGO
 62
     4
100
AcDbLine
 10
57.52486822523497
 20
432.7133155748041
 30
0.0
 11
57.52486822523497
 21
425.5143581087408
 31
0.0
  0
LINE
  5
29D0
330
1F
100
AcDbEntity
  8
LOGO
 62
     4
100
AcDbLine
 10
66.49697493381541
 20
432.7133155748041
 30
0.0
 11
66.49697493381541
 21
425.5143581087408
 31
0.0
  0
LINE
  5
29D1
330
1F
100
AcDbEntity
  8
LOGO
 62
     4
100
AcDbLine
 10
63.05596049895211
 20
425.5143581087408
 30
0.0
 11
63.05596049895211
 21
421.9148793757095
 31
0.0
  0
TEXT
  5
29D2
330
1F
100
AcDbEntity
  8
LOGO
  6
Continuous
100
AcDbText
 10
58.48303021396862
 20
427.0171299549068
 30
0.0
 40
4.2
  1
20
  7
CHINESET
100
AcDbText
  0
LINE
  5
29D3
330
1F
100
AcDbEntity
  8
LOGO
 62
     4
100
AcDbLine
 10
67.63294234005042
 20
421.9148793757095
 30
0.0
 11
51.63525908213177
 21
421.9148793757095
 31
0.0
  0
LINE
  5
29D4
330
1F
100
AcDbEntity
  8
LOGO
  6
Continuous
100
AcDbLine
 10
67.52098369782055
 20
429.0883369967237
 30
0.0
 11
70.69978063654855
 21
429.0883369967237
 31
0.0
  0
LINE
  5
29D5
330
1F
100
AcDbEntity
  8
LOGO
 62
     4
100
AcDbLine
 10
82.17466453668766
 20
421.9148793757095
 30
0.0
 11
82.17466453668766
 21
413.1161535838538
 31
0.0
  0
LINE
  5
29D6
330
1F
100
AcDbEntity
  8
LOGO
 62
     4
100
AcDbLine
 10
69.1420011545822
 20
421.9148793757095
 30
0.0
 11
69.1420011545822
 21
413.1161535838538
 31
0.0
  0
LINE
  5
29D7
330
1F
100
AcDbEntity
  8
LOGO
 62
     4
100
AcDbLine
 10
82.17466453668766
 20
413.1161535838538
 30
0.0
 11
69.1420011545822
 21
413.1161535838538
 31
0.0
  0
LINE
  5
29D8
330
1F
100
AcDbEntity
  8
LOGO
 62
     4
100
AcDbLine
 10
81.72187138833953
 20
432.7133155748041
 30
0.0
 11
71.70252350633006
 21
432.7133155748041
 31
0.0
  0
LINE
  5
29D9
330
1F
100
AcDbEntity
  8
LOGO
 62
     4
100
AcDbLine
 10
81.72187138833953
 20
425.5143581087408
 30
0.0
 11
71.70252350633006
 21
425.5143581087408
 31
0.0
  0
LINE
  5
29DA
330
1F
100
AcDbEntity
  8
LOGO
 62
     4
100
AcDbLine
 10
71.70252350633006
 20
432.7133155748041
 30
0.0
 11
71.70252350633006
 21
425.5143581087408
 31
0.0
  0
LINE
  5
29DB
330
1F
100
AcDbEntity
  8
LOGO
 62
     4
100
AcDbLine
 10
81.72187138833953
 20
432.7133155748041
 30
0.0
 11
81.72187138833953
 21
425.5143581087408
 31
0.0
  0
LINE
  5
29DC
330
1F
100
AcDbEntity
  8
LOGO
 62
     4
100
AcDbLine
 10
76.7121974473348
 20
425.5143581087408
 30
0.0
 11
76.7121974473348
 21
421.9148793757095
 31
0.0
  0
TEXT
  5
29DD
330
1F
100
AcDbEntity
  8
LOGO
  6
Continuous
100
AcDbText
 10
73.27276994934959
 20
427.0171299549068
 30
0.0
 40
4.2
  1
20
  7
CHINESET
100
AcDbText
  0
LINE
  5
29DE
330
1F
100
AcDbEntity
  8
LOGO
 62
     4
100
AcDbLine
 10
82.17466453668766
 20
421.9148793757095
 30
0.0
 11
69.1420011545822
 21
421.9148793757095
 31
0.0
  0
TEXT
  5
29E1
330
1F
100
AcDbEntity
  8
LOGO
  6
Continuous
100
AcDbText
 10
54.98611988196239
 20
414.3580750712428
 30
157.2692709120597
 40
1.799999999999999
  1
Tube I.D.
 41
0.8
  7
CHINESET
100
AcDbText
  0
TEXT
  5
29E2
330
1F
100
AcDbEntity
  8
LOGO
100
AcDbText
 10
55.71189927513313
 20
417.6948871435556
 30
157.2692709120597
 40
3.0
  1
內徑
  7
CHINESET
100
AcDbText
  0
TEXT
  5
29E3
330
1F
100
AcDbEntity
  8
LOGO
  6
Continuous
100
AcDbText
 10
72.57676979652171
 20
414.3580750712428
 30
157.2692709120597
 40
1.799999999999999
  1
Stroke
 41
0.8
  7
CHINESET
100
AcDbText
  0
TEXT
  5
29E4
330
1F
100
AcDbEntity
  8
LOGO
100
AcDbText
 10
72.45196371361817
 20
417.6948871435556
 30
157.2692709120597
 40
3.0
  1
行程
  7
CHINESET
100
AcDbText
  0
TEXT
  5
29F1
330
1F
100
AcDbEntity
  8
LOGO
100
AcDbText
 10
1.855180572164025
 20
412.3930488293196
 30
0.0
 40
2.399999999999999
  1
10705299
 41
0.7
  7
CHINESET
 72
     1
 11
7.815180572164024
 21
412.3930488293196
 31
0.0
100
AcDbText
  0
LINE
  5
29F2
330
1F
100
AcDbEntity
  8
LOGO
 62
     4
100
AcDbLine
 10
15.26333786267776
 20
415.9157481539902
 30
0.0
 11
15.26333786267884
 21
411.1164431766144
 31
0.0
  0
LINE
  5
29F3
330
1F
100
AcDbEntity
  8
LOGO
 62
     4
100
AcDbLine
 10
15.26333786267776
 20
415.9157481539902
 30
0.0
 11
0.8633378626788044
 21
415.9157481539902
 31
0.0
  0
LINE
  5
29F4
330
1F
100
AcDbEntity
  8
LOGO
  6
AM_ISO08W050x2
 48
0.3
100
AcDbLine
 10
-12.61176629812775
 20
427.9191434716622
 30
0.0
 11
-8.770411039163946
 21
427.9191434716622
 31
0.0
1001
GENIUS_GENOREF_13
1005
29F9
  0
LINE
  5
29F5
330
1F
100
AcDbEntity
  8
LOGO
  6
AM_ISO08W050x2
 48
0.3
100
AcDbLine
 10
-10.69108866864587
 20
425.9984658421804
 30
0.0
 11
-10.69108866864587
 21
429.8398211011441
 31
0.0
1001
GENIUS_GENOREF_13
1005
29F8
  0
LINE
  5
29F6
330
1F
100
AcDbEntity
  8
LOGO
  6
CENTER
 48
0.5
100
AcDbLine
 10
-6.652672468106288
 20
427.9191434716622
 30
0.0
 11
-1.495629714456811
 21
427.9191434716622
 31
0.0
1001
GENIUS_GENOREF_13
1005
29F7
  0
POINT
  5
29F7
330
1F
100
AcDbEntity
  8
0
 60
     1
100
AcDbPoint
 10
-2091.954402045371
 20
-498.8926558584998
 30
0.0
1001
GENIUS_GENOBJ-N-CRS_13
1002
{
1000
OWNER
1000
GEN
1002
}
1001
GENIUS_GENOLIS_13
1002
{
1000
ENT
1005
0
1005
0
1005
0
1005
29F6
1002
}
1001
GENIUS_GENOENT_13
1002
{
1000
MYREF
1005
29F7
1002
}
1002
{
1000
GRP
1005
0
1002
}
1001
GENIUS_GENODEF_13
1002
{
1000
HIER
1070
    10
1002
}
1002
{
1000
MANEDIT
1070
     1
1002
}
1002
{
1000
NOSEL
1070
     0
1002
}
1002
{
1000
BEHIND
1070
     0
1002
}
1002
{
1000
OTHER
1070
     0
1002
}
1002
{
1000
REACTOR
1002
}
  0
POINT
  5
29F8
330
1F
100
AcDbEntity
  8
0
 60
     1
100
AcDbPoint
 10
-2103.278987268226
 20
-490.0170693798635
 30
0.0
1001
GENIUS_GENOBJ-N-CRS_13
1002
{
1000
OWNER
1000
GEN
1002
}
1001
GENIUS_GENOLIS_13
1002
{
1000
ENT
1005
0
1005
0
1005
0
1005
29F5
1002
}
1001
GENIUS_GENOENT_13
1002
{
1000
MYREF
1005
29F8
1002
}
1002
{
1000
GRP
1005
0
1002
}
1001
GENIUS_GENODEF_13
1002
{
1000
HIER
1070
    10
1002
}
1002
{
1000
MANEDIT
1070
     1
1002
}
1002
{
1000
NOSEL
1070
     0
1002
}
1002
{
1000
BEHIND
1070
     0
1002
}
1002
{
1000
OTHER
1070
     0
1002
}
1002
{
1000
REACTOR
1002
}
  0
POINT
  5
29F9
330
1F
100
AcDbEntity
  8
0
 60
     1
100
AcDbPoint
 10
-2096.920313570389
 20
-498.8926558584998
 30
0.0
1001
GENIUS_GENOBJ-N-CRS_13
1002
{
1000
OWNER
1000
GEN
1002
}
1001
GENIUS_GENOLIS_13
1002
{
1000
ENT
1005
0
1005
0
1005
0
1005
29F4
1002
}
1001
GENIUS_GENOENT_13
1002
{
1000
MYREF
1005
29F9
1002
}
1002
{
1000
GRP
1005
0
1002
}
1001
GENIUS_GENODEF_13
1002
{
1000
HIER
1070
    10
1002
}
1002
{
1000
MANEDIT
1070
     1
1002
}
1002
{
1000
NOSEL
1070
     0
1002
}
1002
{
1000
BEHIND
1070
     0
1002
}
1002
{
1000
OTHER
1070
     0
1002
}
1002
{
1000
REACTOR
1002
}
  0
LINE
  5
2A51
330
1F
100
AcDbEntity
  8
AM_4
  6
HIDDEN
 48
0.1
100
AcDbLine
 10
75.63549775850997
 20
664.6652761248426
 30
0.0
 11
75.31332897486129
 21
665.2232888267348
 31
0.0
  0
LINE
  5
2A53
330
1F
100
AcDbEntity
  8
AM_4
  6
HIDDEN
 48
0.1
100
AcDbLine
 10
75.38549775851
 20
665.0982888267348
 30
0.0
 11
80.31332897486128
 21
665.0982888267348
 31
0.0
  0
LINE
  5
2A54
330
1F
100
AcDbEntity
  8
AM_4
  6
HIDDEN
 48
0.1
100
AcDbLine
 10
75.63549775850997
 20
664.6652761248426
 30
0.0
 11
81.44313743172437
 21
664.6652761248426
 31
0.0
  0
LINE
  5
2A55
330
1F
100
AcDbEntity
  8
AM_4
  6
HIDDEN
 48
0.1
100
AcDbLine
 10
75.38549775851
 20
660.0982888267347
 30
0.0
 11
80.31332897486128
 21
660.0982888267347
 31
0.0
  0
LINE
  5
2A56
330
1F
100
AcDbEntity
  8
AM_4
  6
HIDDEN
 48
0.1
100
AcDbLine
 10
75.63549775850997
 20
660.5313015286269
 30
0.0
 11
81.48090214651324
 21
660.5313015286269
 31
0.0
  0
LINE
  5
2A57
330
1F
100
AcDbEntity
  8
AM_4
  6
HIDDEN
 48
0.1
100
AcDbLine
 10
75.63549775850997
 20
664.6652761248426
 30
0.0
 11
75.63549775850997
 21
660.5313015286269
 31
0.0
  0
LINE
  5
2A58
330
1F
100
AcDbEntity
  8
AM_4
  6
HIDDEN
 48
0.1
100
AcDbLine
 10
75.63549775850997
 20
660.5313015286269
 30
0.0
 11
75.31332897486129
 21
659.9732888267348
 31
0.0
  0
LINE
  5
2A59
330
1F
100
AcDbEntity
  8
AM_4
  6
HIDDEN
 48
0.1
100
AcDbLine
 10
80.31332897486128
 20
660.0982888267347
 30
0.0
 11
81.11332897486128
 21
660.5313015286269
 31
0.0
  0
LINE
  5
2A5A
330
1F
100
AcDbEntity
  8
AM_4
  6
HIDDEN
 48
0.1
100
AcDbLine
 10
80.31332897486128
 20
665.0982888267348
 30
0.0
 11
81.11332897486128
 21
664.6652761248426
 31
0.0
  0
LINE
  5
2A5B
330
1F
100
AcDbEntity
  8
AM_4
  6
HIDDEN
 48
0.1
100
AcDbLine
 10
80.31332897486128
 20
660.0982888267347
 30
0.0
 11
80.31332897486128
 21
665.0982888267348
 31
0.0
  0
ENDSEC
  0
SECTION
  2
OBJECTS
  0
DICTIONARY
  5
C
330
0
100
AcDbDictionary
281
     1
  3
ACAD_COLOR
350
BE
  3
ACAD_GROUP
350
D
  3
ACAD_LAYOUT
350
1A
  3
ACAD_MATERIAL
350
BD
  3
ACAD_MLINESTYLE
350
17
  3
ACAD_PLOTSETTINGS
350
19
  3
ACAD_PLOTSTYLENAME
350
E
  3
ACAD_TABLESTYLE
350
11A
  3
ACDBHEADERROUNDTRIPXREC
350
2A97
  3
AcDbVariableDictionary
350
94
  3
AcmDictionary
350
5B
  3
AMG
350
41
  3
AMGSNAPSETTINGS
350
1B8
  3
DWGPROPS
350
2A96
  0
DICTIONARY
  5
3F9
330
2
100
AcDbDictionary
280
     1
281
     1
  3
ACAD_LAYERFILTERS
360
286C
  3
ACAD_LAYERSTATES
360
C9C
  3
ACLYDICTIONARY
360
286B
  3
AMLAYER_GROUPCOLORS
360
13D8
  0
DICTIONARY
  5
8F
330
1F
100
AcDbDictionary
280
     1
281
     1
  3
ACAD_SORTENTS
360
140A
  0
DICTIONARY
  5
174A
330
173D
100
AcDbDictionary
280
     1
281
     1
  3
ACAD_DIMASSOC
360
174B
  0
DICTIONARY
  5
1810
330
1803
100
AcDbDictionary
280
     1
281
     1
  3
ACAD_DIMASSOC
360
1811
  0
DICTIONARY
  5
1840
330
1833
100
AcDbDictionary
280
     1
281
     1
  3
ACAD_DIMASSOC
360
1841
  0
DICTIONARY
  5
187D
330
1870
100
AcDbDictionary
280
     1
281
     1
  3
ACAD_DIMASSOC
360
187E
  0
DICTIONARY
  5
197D
330
1970
100
AcDbDictionary
280
     1
281
     1
  3
ACAD_DIMASSOC
360
197E
  0
DICTIONARY
  5
19A3
330
1996
100
AcDbDictionary
280
     1
281
     1
  3
ACAD_DIMASSOC
360
19A4
  0
DICTIONARY
  5
19FB
330
19EC
100
AcDbDictionary
280
     1
281
     1
  3
ACAD_DIMASSOC
360
19FC
  0
DICTIONARY
  5
1A23
330
1A16
100
AcDbDictionary
280
     1
281
     1
  3
ACAD_DIMASSOC
360
1A24
  0
DICTIONARY
  5
1ACD
330
1ABE
100
AcDbDictionary
280
     1
281
     1
  3
ACAD_DIMASSOC
360
1ACE
  0
DICTIONARY
  5
1B29
330
1B1C
100
AcDbDictionary
280
     1
281
     1
  3
ACAD_DIMASSOC
360
1B2A
  0
DICTIONARY
  5
272C
330
271D
100
AcDbDictionary
280
     1
281
     1
  3
ACAD_DIMASSOC
360
272D
  0
DICTIONARY
  5
BE
102
{ACAD_REACTORS
330
C
102
}
330
C
100
AcDbDictionary
281
     1
  0
DICTIONARY
  5
D
102
{ACAD_REACTORS
330
C
102
}
330
C
100
AcDbDictionary
281
     1
  0
DICTIONARY
  5
1A
102
{ACAD_REACTORS
330
C
102
}
330
C
100
AcDbDictionary
281
     1
  3
Model
350
22
  3
配置1
350
1E
  3
配置2
350
26
  0
DICTIONARY
  5
BD
102
{ACAD_REACTORS
330
C
102
}
330
C
100
AcDbDictionary
281
     1
  0
DICTIONARY
  5
17
102
{ACAD_REACTORS
330
C
102
}
330
C
100
AcDbDictionary
281
     1
  3
Standard
350
18
  0
DICTIONARY
  5
19
102
{ACAD_REACTORS
330
C
102
}
330
C
100
AcDbDictionary
281
     1
  0
ACDBDICTIONARYWDFLT
  5
E
102
{ACAD_REACTORS
330
C
102
}
330
C
100
AcDbDictionary
281
     1
  3
Normal
350
F
100
AcDbDictionaryWithDefault
340
F
  0
DICTIONARY
  5
11A
102
{ACAD_REACTORS
330
C
102
}
330
C
100
AcDbDictionary
281
     1
  3
Standard
350
11B
  0
DICTIONARY
  5
2A97
102
{ACAD_REACTORS
330
C
102
}
330
C
100
AcDbDictionary
281
     1
  0
DICTIONARY
  5
94
102
{ACAD_REACTORS
330
C
102
}
330
C
100
AcDbDictionary
281
     1
  3
CTABLESTYLE
350
138
  3
DIMASSOC
350
96
  3
INDEXCTL
350
95
  3
PROJECTNAME
350
2A94
  0
DICTIONARY
  5
5B
102
{ACAD_REACTORS
330
C
102
}
330
C
100
AcDbDictionary
281
     1
  3
AcmBOM
350
1B5
  3
AcmStdDictionary
350
61
  3
AMDTSECTSYM_ARROWCOLOR
350
123
  0
DICTIONARY
  5
41
102
{ACAD_REACTORS
330
C
102
}
330
C
100
AcDbDictionary
281
     1
  0
DICTIONARY
  5
1B8
102
{ACAD_REACTORS
330
C
102
}
330
C
100
AcDbDictionary
281
     1
  0
XRECORD
  5
2A96
102
{ACAD_REACTORS
330
C
102
}
330
C
100
AcDbXrecord
280
     1
  1
DWGPROPS COOKIE
  2

  3

  4

  6

  7

  8

  9

300
AmdtFileType=84
301
=
302
=
303
=
304
=
305
=
306
=
307
=
308
=
309
=
 40
0.2044985185185185
 41
2454250.401450915
 42
2454250.608835891
  1

 90
        1
  0
DICTIONARY
  5
286C
102
{ACAD_REACTORS
330
3F9
102
}
330
3F9
100
AcDbDictionary
281
     1
  0
DICTIONARY
  5
C9C
102
{ACAD_REACTORS
330
3F9
102
}
330
3F9
100
AcDbDictionary
281
     1
  0
DICTIONARY
  5
286B
102
{ACAD_REACTORS
330
3F9
102
}
330
3F9
100
AcDbDictionary
281
     1
1001
ACAD
1000
<All
  0
DICTIONARY
  5
13D8
102
{ACAD_REACTORS
330
3F9
102
}
330
3F9
100
AcDbDictionary
280
     1
281
     1
  0
SORTENTSTABLE
  5
140A
102
{ACAD_REACTORS
330
8F
102
}
330
8F
100
AcDbSortentsTable
330
1F
331
1970
  5
1970
331
1423
  5
1423
331
17BA
  5
17BA
331
125D
  5
125D
331
1294
  5
1294
331
12EB
  5
12EB
331
1265
  5
1265
331
12AC
  5
12AC
331
126D
  5
126D
331
13A3
  5
13A3
331
1236
  5
1236
331
2518
  5
2518
331
29A1
  5
29A1
331
2962
  5
2962
331
264F
  5
264F
331
29A9
  5
29A9
331
296A
  5
296A
331
2657
  5
2657
331
25F0
  5
25F0
331
29B1
  5
29B1
331
2972
  5
2972
331
297A
  5
297A
331
13AD
  5
13AD
331
1453
  5
1453
331
13B5
  5
13B5
331
12C4
  5
12C4
331
1909
  5
1909
331
140C
  5
140C
331
123E
  5
123E
331
1275
  5
1275
331
1D1E
  5
1D1E
331
1246
  5
1246
331
127D
  5
127D
331
1285
  5
1285
331
12D4
  5
12D4
331
1256
  5
1256
331
128D
  5
128D
331
12DC
  5
12DC
331
29B9
  5
29B9
331
29D1
  5
29D1
331
2A57
  5
2A57
331
29D9
  5
29D9
331
2600
  5
2600
331
2608
  5
2608
331
2992
  5
2992
331
2640
  5
2640
331
2511
  5
2511
331
17B3
  5
17B3
331
1424
  5
1424
331
12EC
  5
12EC
331
1803
  5
1803
331
125E
  5
125E
331
1295
  5
1295
331
1266
  5
1266
331
12AD
  5
12AD
331
126E
  5
126E
331
13A4
  5
13A4
331
1237
  5
1237
331
29E1
  5
29E1
331
29F1
  5
29F1
331
29A2
  5
29A2
331
2963
  5
2963
331
2650
  5
2650
331
29AA
  5
29AA
331
296B
  5
296B
331
2658
  5
2658
331
25F1
  5
25F1
331
29B2
  5
29B2
331
2973
  5
2973
331
25F9
  5
25F9
331
297B
  5
297B
331
1454
  5
1454
331
13AE
  5
13AE
331
13B6
  5
13B6
331
1833
  5
1833
331
123F
  5
123F
331
1276
  5
1276
331
12C5
  5
12C5
331
1D1F
  5
1D1F
331
1247
  5
1247
331
127E
  5
127E
331
12D5
  5
12D5
331
1286
  5
1286
331
1257
  5
1257
331
128E
  5
128E
331
12DD
  5
12DD
331
29BA
  5
29BA
331
29CA
  5
29CA
331
29D2
  5
29D2
331
2A58
  5
2A58
331
29DA
  5
29DA
331
2601
  5
2601
331
2609
  5
2609
331
2993
  5
2993
331
2641
  5
2641
331
2512
  5
2512
331
17B4
  5
17B4
331
1425
  5
1425
331
125F
  5
125F
331
1296
  5
1296
331
12ED
  5
12ED
331
1267
  5
1267
331
139D
  5
139D
331
12AE
  5
12AE
331
126F
  5
126F
331
13A5
  5
13A5
331
29E2
  5
29E2
331
29F2
  5
29F2
331
251A
  5
251A
331
2964
  5
2964
331
2651
  5
2651
331
29AB
  5
29AB
331
296C
  5
296C
331
2659
  5
2659
331
25F2
  5
25F2
331
29B3
  5
29B3
331
2974
  5
2974
331
25FA
  5
25FA
331
297C
  5
297C
331
1455
  5
1455
331
13AF
  5
13AF
331
1C38
  5
1C38
331
19BA
  5
19BA
331
1465
  5
1465
331
13B7
  5
13B7
331
147D
  5
147D
331
1238
  5
1238
331
12C6
  5
12C6
331
173D
  5
173D
331
140E
  5
140E
331
1240
  5
1240
331
1277
  5
1277
331
1248
  5
1248
331
127F
  5
127F
331
1287
  5
1287
331
12D6
  5
12D6
331
12DE
  5
12DE
331
128F
  5
128F
331
29BB
  5
29BB
331
29CB
  5
29CB
331
2A51
  5
2A51
331
29D3
  5
29D3
331
2A59
  5
2A59
331
29DB
  5
29DB
331
2602
  5
2602
331
2984
  5
2984
331
260A
  5
260A
331
2681
  5
2681
331
2994
  5
2994
331
2642
  5
2642
331
2513
  5
2513
331
299C
  5
299C
331
17B5
  5
17B5
331
1426
  5
1426
331
1258
  5
1258
331
12EE
  5
12EE
331
1260
  5
1260
331
1297
  5
1297
331
1268
  5
1268
331
139E
  5
139E
331
12AF
  5
12AF
331
13A6
  5
13A6
331
29E3
  5
29E3
331
29F3
  5
29F3
331
264A
  5
264A
331
251B
  5
251B
331
2965
  5
2965
331
2652
  5
2652
331
29AC
  5
29AC
331
296D
  5
296D
331
265A
  5
265A
331
25F3
  5
25F3
331
29B4
  5
29B4
331
2975
  5
2975
331
25FB
  5
25FB
331
297D
  5
297D
331
13A8
  5
13A8
331
1456
  5
1456
331
13B0
  5
13B0
331
19BB
  5
19BB
331
1466
  5
1466
331
13B8
  5
13B8
331
1239
  5
1239
331
1270
  5
1270
331
140F
  5
140F
331
1241
  5
1241
331
1278
  5
1278
331
12C7
  5
12C7
331
1249
  5
1249
331
1280
  5
1280
331
12D7
  5
12D7
331
1288
  5
1288
331
12DF
  5
12DF
331
29BC
  5
29BC
331
29CC
  5
29CC
331
29D4
  5
29D4
331
2A5A
  5
2A5A
331
29DC
  5
29DC
331
2603
  5
2603
331
260B
  5
260B
331
298D
  5
298D
331
2643
  5
2643
331
17B6
  5
17B6
331
1259
  5
1259
331
1290
  5
1290
331
1261
  5
1261
331
1298
  5
1298
331
1269
  5
1269
331
139F
  5
139F
331
1232
  5
1232
331
12B0
  5
12B0
331
13A7
  5
13A7
331
29E4
  5
29E4
331
29F4
  5
29F4
331
264B
  5
264B
331
2966
  5
2966
331
2653
  5
2653
331
25EC
  5
25EC
331
29AD
  5
29AD
331
296E
  5
296E
331
265B
  5
265B
331
25F4
  5
25F4
331
29B5
  5
29B5
331
2976
  5
2976
331
25FC
  5
25FC
331
297E
  5
297E
331
13A9
  5
13A9
331
1457
  5
1457
331
13B1
  5
13B1
331
13B9
  5
13B9
331
19DC
  5
19DC
331
123A
  5
123A
331
1271
  5
1271
331
13C9
  5
13C9
331
1279
  5
1279
331
19EC
  5
19EC
331
1242
  5
1242
331
12C8
  5
12C8
331
124A
  5
124A
331
12D0
  5
12D0
331
1289
  5
1289
331
12D8
  5
12D8
331
29BD
  5
29BD
331
29CD
  5
29CD
331
2A53
  5
2A53
331
29D5
  5
29D5
331
2A5B
  5
2A5B
331
29DD
  5
29DD
331
266B
  5
266B
331
2604
  5
2604
331
267B
  5
267B
331
298E
  5
298E
331
2644
  5
2644
331
2515
  5
2515
331
1410
  5
1410
331
1D2A
  5
1D2A
331
17B7
  5
17B7
331
12E8
  5
12E8
331
125A
  5
125A
331
1291
  5
1291
331
1262
  5
1262
331
126A
  5
126A
331
13A0
  5
13A0
331
1233
  5
1233
331
29F5
  5
29F5
331
264C
  5
264C
331
29A6
  5
29A6
331
2967
  5
2967
331
2654
  5
2654
331
25ED
  5
25ED
331
29AE
  5
29AE
331
296F
  5
296F
331
265C
  5
265C
331
25F5
  5
25F5
331
29B6
  5
29B6
331
2977
  5
2977
331
25FD
  5
25FD
331
297F
  5
297F
331
13AA
  5
13AA
331
1450
  5
1450
331
13B2
  5
13B2
331
13BA
  5
13BA
331
123B
  5
123B
331
1272
  5
1272
331
13CA
  5
13CA
331
1243
  5
1243
331
127A
  5
127A
331
12C9
  5
12C9
331
12D1
  5
12D1
331
128A
  5
128A
331
12D9
  5
12D9
331
29BE
  5
29BE
331
29CE
  5
29CE
331
2A54
  5
2A54
331
29D6
  5
29D6
331
29DE
  5
29DE
331
266C
  5
266C
331
2605
  5
2605
331
23B6
  5
23B6
331
298F
  5
298F
331
263D
  5
263D
331
2645
  5
2645
331
2516
  5
2516
331
1D2B
  5
1D2B
331
1B1C
  5
1B1C
331
17B8
  5
17B8
331
125B
  5
125B
331
1292
  5
1292
331
12E9
  5
12E9
331
1B64
  5
1B64
331
1996
  5
1996
331
1263
  5
1263
331
126B
  5
126B
331
13A1
  5
13A1
331
1234
  5
1234
331
29F6
  5
29F6
331
264D
  5
264D
331
29A7
  5
29A7
331
2968
  5
2968
331
2655
  5
2655
331
25EE
  5
25EE
331
29AF
  5
29AF
331
2970
  5
2970
331
265D
  5
265D
331
25F6
  5
25F6
331
29B7
  5
29B7
331
2978
  5
2978
331
25FE
  5
25FE
331
13AB
  5
13AB
331
1451
  5
1451
331
1A8D
  5
1A8D
331
18BF
  5
18BF
331
13B3
  5
13B3
331
13CB
  5
13CB
331
123C
  5
123C
331
1273
  5
1273
331
127B
  5
127B
331
1D1C
  5
1D1C
331
1244
  5
1244
331
12D2
  5
12D2
331
128B
  5
128B
331
12DA
  5
12DA
331
29CF
  5
29CF
331
2A55
  5
2A55
331
29D7
  5
29D7
331
2980
  5
2980
331
266D
  5
266D
331
2606
  5
2606
331
2988
  5
2988
331
2990
  5
2990
331
263E
  5
263E
331
250F
  5
250F
331
2998
  5
2998
331
270D
  5
270D
331
2646
  5
2646
331
2517
  5
2517
331
1870
  5
1870
331
1A16
  5
1A16
331
17B9
  5
17B9
331
12EA
  5
12EA
331
125C
  5
125C
331
1293
  5
1293
331
1264
  5
1264
331
12AB
  5
12AB
331
126C
  5
126C
331
13A2
  5
13A2
331
1235
  5
1235
331
29A0
  5
29A0
331
271D
  5
271D
331
264E
  5
264E
331
29A8
  5
29A8
331
2969
  5
2969
331
2656
  5
2656
331
25EF
  5
25EF
331
29B0
  5
29B0
331
2971
  5
2971
331
2979
  5
2979
331
25FF
  5
25FF
331
13AC
  5
13AC
331
1452
  5
1452
331
13B4
  5
13B4
331
1ABE
  5
1ABE
331
13CC
  5
13CC
331
123D
  5
123D
331
1274
  5
1274
331
1245
  5
1245
331
127C
  5
127C
331
12D3
  5
12D3
331
128C
  5
128C
331
1255
  5
1255
331
12DB
  5
12DB
331
29B8
  5
29B8
331
29D0
  5
29D0
331
2A56
  5
2A56
331
29D8
  5
29D8
331
266E
  5
266E
331
2607
  5
2607
331
2989
  5
2989
331
2991
  5
2991
331
263F
  5
263F
331
2510
  5
2510
331
2647
  5
2647
  0
DIMASSOC
  5
174B
102
{ACAD_REACTORS
330
174A
102
}
330
174A
100
AcDbDimAssoc
330
173D
 90
        3
 70
     0
 71
     0
  1
AcDbOsnapPointRef
 72
    13
331
13A1
 73
     0
 91
        0
 40
0.0
 10
0.0
 20
0.0
 30
2.000000000000000E+50
 75
     0
  1
AcDbOsnapPointRef
 72
     1
331
13A1
 73
     0
 91
        0
 40
0.0
 10
0.0
 20
0.0
 30
2.000000000000000E+50
 75
     0
  0
DIMASSOC
  5
1811
102
{ACAD_REACTORS
330
1810
102
}
330
1810
100
AcDbDimAssoc
330
1803
 90
        3
 70
     0
 71
     0
  1
AcDbOsnapPointRef
 72
     1
331
13B6
 73
     0
 91
        0
 40
0.0
 10
0.0
 20
0.0
 30
2.000000000000000E+50
 75
     0
  1
AcDbOsnapPointRef
 72
     1
331
1249
 73
     0
 91
        0
 40
0.0
 10
0.0
 20
0.0
 30
2.000000000000000E+50
 75
     0
  0
DIMASSOC
  5
1841
102
{ACAD_REACTORS
330
1840
102
}
330
1840
100
AcDbDimAssoc
330
1833
 90
        1
 70
     0
 71
     0
  1
AcDbOsnapPointRef
 72
     1
331
13A1
 73
     0
 91
        0
 40
0.0
 10
0.0
 20
0.0
 30
2.000000000000000E+50
 75
     0
  0
DIMASSOC
  5
187E
102
{ACAD_REACTORS
330
187D
102
}
330
187D
100
AcDbDimAssoc
330
1870
 90
        1
 70
     0
 71
     0
  1
AcDbOsnapPointRef
 72
    13
331
13A1
 73
     0
 91
        0
 40
0.0
 10
0.0
 20
0.0
 30
2.000000000000000E+50
 75
     0
  0
DIMASSOC
  5
197E
102
{ACAD_REACTORS
330
197D
102
}
330
197D
100
AcDbDimAssoc
330
1970
 90
        3
 70
     0
 71
     1
  1
AcDbOsnapPointRef
 72
     6
331
1258
 73
     0
 91
        0
 40
0.0000000000000007
 10
0.0
 20
0.0
 30
0.0
332
126F
 74
     0
 92
        0
 75
     0
  1
AcDbOsnapPointRef
 72
     1
331
1263
 73
     0
 91
        0
 40
0.0
 10
0.0
 20
0.0
 30
2.000000000000000E+50
 75
     0
  0
DIMASSOC
  5
19A4
102
{ACAD_REACTORS
330
19A3
102
}
330
19A3
100
AcDbDimAssoc
330
1996
 90
        3
 70
     0
 71
     0
  1
AcDbOsnapPointRef
 72
     1
331
128C
 73
     0
 91
        0
 40
0.0
 10
0.0
 20
0.0
 30
2.000000000000000E+50
 75
     0
  1
AcDbOsnapPointRef
 72
    13
331
1297
 73
     0
 91
        0
 40
0.0
 10
0.0
 20
0.0
 30
2.000000000000000E+50
 75
     0
  0
DIMASSOC
  5
19FC
102
{ACAD_REACTORS
330
19FB
102
}
330
19FB
100
AcDbDimAssoc
330
19EC
 90
        3
 70
     0
 71
     0
  1
AcDbOsnapPointRef
 72
    13
331
12DB
 73
     0
 91
        0
 40
0.0
 10
0.0
 20
0.0
 30
2.000000000000000E+50
 75
     0
  1
AcDbOsnapPointRef
 72
     1
331
1456
 73
     0
 91
        0
 40
0.0
 10
0.0
 20
0.0
 30
2.000000000000000E+50
 75
     0
  0
DIMASSOC
  5
1A24
102
{ACAD_REACTORS
330
1A23
102
}
330
1A23
100
AcDbDimAssoc
330
1A16
 90
        3
 70
     0
 71
     0
  1
AcDbOsnapPointRef
 72
     1
331
12D2
 73
     0
 91
        0
 40
0.0
 10
0.0
 20
0.0
 30
2.000000000000000E+50
 75
     0
  1
AcDbOsnapPointRef
 72
     1
331
1452
 73
     0
 91
        0
 40
0.0
 10
0.0
 20
0.0
 30
2.000000000000000E+50
 75
     0
  0
DIMASSOC
  5
1ACE
102
{ACAD_REACTORS
330
1ACD
102
}
330
1ACD
100
AcDbDimAssoc
330
1ABE
 90
        2
 70
     0
 71
     0
  1
AcDbOsnapPointRef
 72
    13
331
19DC
 73
     0
 91
        0
 40
0.0
 10
0.0
 20
0.0
 30
2.000000000000000E+50
 75
     0
  0
DIMASSOC
  5
1B2A
102
{ACAD_REACTORS
330
1B29
102
}
330
1B29
100
AcDbDimAssoc
330
1B1C
 90
        3
 70
     0
 71
     0
  1
AcDbOsnapPointRef
 72
    13
331
124A
 73
     0
 91
        0
 40
0.0
 10
0.0
 20
0.0
 30
2.000000000000000E+50
 75
     0
  1
AcDbOsnapPointRef
 72
     1
331
1249
 73
     0
 91
        0
 40
0.0
 10
0.0
 20
0.0
 30
2.000000000000000E+50
 75
     0
  0
DIMASSOC
  5
272D
102
{ACAD_REACTORS
330
272C
102
}
330
272C
100
AcDbDimAssoc
330
271D
 90
        2
 70
     0
 71
     0
  1
AcDbOsnapPointRef
 72
    13
331
270D
 73
     0
 91
        0
 40
0.0
 10
0.0
 20
0.0
 30
2.000000000000000E+50
 75
     0
  0
LAYOUT
  5
22
102
{ACAD_XDICTIONARY
360
2A9A
102
}
102
{ACAD_REACTORS
330
1A
102
}
330
1A
100
AcDbPlotSettings
  1

  2
\\RD\EPSON Stylus C63 Series單色
  4
A4
  6

 40
3.757083177566528
 41
3.757076978683471
 42
3.757080078125
 43
3.757080078125
 44
209.9733276367187
 45
296.9683227539062
 46
0.0
 47
0.0
 48
0.0
 49
0.0
140
0.0
141
0.0
142
1.0
143
0.3405120737814363
 70
 11952
 72
     1
 73
     0
 74
     0
  7
單色出圖.ctb
 75
     0
147
2.936753428137963
148
-2047.07469463503
149
-1261.649717473083
100
AcDbLayout
  1
Model
 70
     1
 71
     0
 10
0.0
 20
0.0
 11
12.0
 21
9.0
 12
0.0
 22
0.0
 32
0.0
 14
0.0
 24
0.0
 34
0.0
 15
0.0
 25
0.0
 35
0.0
146
0.0
 13
0.0
 23
0.0
 33
0.0
 16
1.0
 26
0.0
 36
0.0
 17
0.0
 27
1.0
 37
0.0
 76
     0
330
1F
1001
ACAD_PSEXT
1000
\\RD\EPSON Stylus C63 Series單色
1000
EPSON Stylus C63 Series
1000
\\RD
1000

1070
     0
  0
LAYOUT
  5
1E
102
{ACAD_XDICTIONARY
360
2A98
102
}
102
{ACAD_REACTORS
330
1A
102
}
330
1A
100
AcDbPlotSettings
  1

  2

  4

  6

 40
0.0
 41
0.0
 42
0.0
 43
0.0
 44
0.0
 45
0.0
 46
0.0
 47
0.0
 48
0.0
 49
0.0
140
0.0
141
0.0
142
1.0
143
1.0
 70
   688
 72
     0
 73
     0
 74
     5
  7
單色出圖.ctb
 75
    16
147
1.0
148
0.0
149
0.0
100
AcDbLayout
  1
配置1
 70
     1
 71
     1
 10
0.0
 20
0.0
 11
420.0
 21
297.0
 12
0.0
 22
0.0
 32
0.0
 14
1.000000000000000E+20
 24
1.000000000000000E+20
 34
1.000000000000000E+20
 15
-1.000000000000000E+20
 25
-1.000000000000000E+20
 35
-1.000000000000000E+20
146
0.0
 13
0.0
 23
0.0
 33
0.0
 16
1.0
 26
0.0
 36
0.0
 17
0.0
 27
1.0
 37
0.0
 76
     0
330
1B
  0
LAYOUT
  5
26
102
{ACAD_XDICTIONARY
360
2A9C
102
}
102
{ACAD_REACTORS
330
1A
102
}
330
1A
100
AcDbPlotSettings
  1

  2

  4

  6

 40
0.0
 41
0.0
 42
0.0
 43
0.0
 44
0.0
 45
0.0
 46
0.0
 47
0.0
 48
0.0
 49
0.0
140
0.0
141
0.0
142
1.0
143
1.0
 70
   688
 72
     0
 73
     0
 74
     5
  7
單色出圖.ctb
 75
    16
147
1.0
148
0.0
149
0.0
100
AcDbLayout
  1
配置2
 70
     1
 71
     2
 10
0.0
 20
0.0
 11
12.0
 21
9.0
 12
0.0
 22
0.0
 32
0.0
 14
0.0
 24
0.0
 34
0.0
 15
0.0
 25
0.0
 35
0.0
146
0.0
 13
0.0
 23
0.0
 33
0.0
 16
1.0
 26
0.0
 36
0.0
 17
0.0
 27
1.0
 37
0.0
 76
     0
330
23
  0
MLINESTYLE
  5
18
102
{ACAD_REACTORS
330
17
102
}
330
17
100
AcDbMlineStyle
  2
STANDARD
 70
     0
  3

 62
   256
 51
90.0
 52
90.0
 71
     2
 49
0.5
 62
   256
  6
BYLAYER
 49
-0.5
 62
   256
  6
BYLAYER
  0
ACDBPLACEHOLDER
  5
F
102
{ACAD_REACTORS
330
E
102
}
330
E
  0
TABLESTYLE
  5
11B
102
{ACAD_REACTORS
330
11A
102
}
330
11A
100
AcDbTableStyle
  3
Standard
 70
     0
 71
     0
 40
1.5
 41
1.5
280
     0
281
     0
  7
STANDARD
140
4.5
170
     2
 62
     0
 63
     7
283
     0
274
    -2
284
     1
 64
     0
275
    -2
285
     1
 65
     0
276
    -2
286
     1
 66
     0
277
    -2
287
     1
 67
     0
278
    -2
288
     1
 68
     0
279
    -2
289
     1
 69
     0
  7
STANDARD
140
6.0
170
     5
 62
     0
 63
     7
283
     0
274
    -2
284
     1
 64
     0
275
    -2
285
     1
 65
     0
276
    -2
286
     1
 66
     0
277
    -2
287
     1
 67
     0
278
    -2
288
     1
 68
     0
279
    -2
289
     1
 69
     0
  7
STANDARD
140
4.5
170
     5
 62
     0
 63
     7
283
     0
274
    -2
284
     1
 64
     0
275
    -2
285
     1
 65
     0
276
    -2
286
     1
 66
     0
277
    -2
287
     1
 67
     0
278
    -2
288
     1
 68
     0
279
    -2
289
     1
 69
     0
  0
DICTIONARYVAR
  5
138
102
{ACAD_REACTORS
330
94
102
}
330
94
100
DictionaryVariables
280
     0
  1
STANDARD
  0
DICTIONARYVAR
  5
96
102
{ACAD_REACTORS
330
94
102
}
330
94
100
DictionaryVariables
280
     0
  1
2
  0
DICTIONARYVAR
  5
95
102
{ACAD_REACTORS
330
94
102
}
330
94
100
DictionaryVariables
280
     0
  1
0
  0
DICTIONARYVAR
  5
2A94
102
{ACAD_REACTORS
330
94
102
}
330
94
100
DictionaryVariables
280
     0
  1

  0
DICTIONARY
  5
1B5
102
{ACAD_REACTORS
330
5B
102
}
330
5B
100
AcDbDictionary
281
     1
  0
DICTIONARY
  5
61
102
{ACAD_REACTORS
330
5B
102
}
330
5B
100
AcDbDictionary
281
     1
  0
XRECORD
  5
123
102
{ACAD_REACTORS
330
5B
102
}
330
5B
100
AcDbXrecord
280
     1
 90
-1023410169
  0
DICTIONARY
  5
2A9A
330
22
100
AcDbDictionary
280
     1
281
     1
  3
ACAD_XREC_ROUNDTRIP
360
2A9B
  0
DICTIONARY
  5
2A98
330
1E
100
AcDbDictionary
280
     1
281
     1
  3
ACAD_XREC_ROUNDTRIP
360
2A99
  0
DICTIONARY
  5
2A9C
330
26
100
AcDbDictionary
280
     1
281
     1
  3
ACAD_XREC_ROUNDTRIP
360
2A9D
  0
XRECORD
  5
2A9B
102
{ACAD_REACTORS
330
2A9A
102
}
330
2A9A
100
AcDbXrecord
280
     1
102
SHADEPLOT
 70
     0
102
SHADEPLOTRESLEVEL
 70
     2
102
SHADEPLOTCUSTOMDPI
 70
   300
  0
XRECORD
  5
2A99
102
{ACAD_REACTORS
330
2A98
102
}
330
2A98
100
AcDbXrecord
280
     1
102
SHADEPLOT
 70
     0
102
SHADEPLOTRESLEVEL
 70
     2
102
SHADEPLOTCUSTOMDPI
 70
   300
  0
XRECORD
  5
2A9D
102
{ACAD_REACTORS
330
2A9C
102
}
330
2A9C
100
AcDbXrecord
280
     1
102
SHADEPLOT
 70
     0
102
SHADEPLOTRESLEVEL
 70
     2
102
SHADEPLOTCUSTOMDPI
 70
   300
  0
ENDSEC
  0
EOF
