  0
SECTION
  2
HEADER
  9
$ACADVER
  1
AC1015
  9
$ACADMAINTVER
 70
    20
  9
$DWGCODEPAGE
  3
ANSI_950
  9
$INSBASE
 10
0.0
 20
0.0
 30
0.0
  9
$EXTMIN
 10
105.5781890425875
 20
79.23384229377652
 30
0.0
  9
$EXTMAX
 10
287.8066131194677
 20
258.985979390809
 30
131.0577257600498
  9
$LIMMIN
 10
0.0
 20
0.0
  9
$LIMMAX
 10
420.0
 20
297.0
  9
$ORTHOMODE
 70
     0
  9
$REGENMODE
 70
     1
  9
$FILLMODE
 70
     1
  9
$QTEXTMODE
 70
     0
  9
$MIRRTEXT
 70
     1
  9
$LTSCALE
 40
1.0
  9
$ATTMODE
 70
     1
  9
$TEXTSIZE
 40
3.0
  9
$TRACEWID
 40
1.0
  9
$TEXTSTYLE
  7
CHINESET
  9
$CLAYER
  8
0
  9
$CELTYPE
  6
ByLayer
  9
$CECOLOR
 62
   256
  9
$CELTSCALE
 40
1.0
  9
$DISPSILH
 70
     0
  9
$DIMSCALE
 40
1.0
  9
$DIMASZ
 40
3.0
  9
$DIMEXO
 40
1.5
  9
$DIMDLI
 40
8.0
  9
$DIMRND
 40
0.0
  9
$DIMDLE
 40
0.0
  9
$DIMEXE
 40
1.5
  9
$DIMTP
 40
0.1
  9
$DIMTM
 40
0.1
  9
$DIMTXT
 40
3.0
  9
$DIMCEN
 40
0.0
  9
$DIMTSZ
 40
0.0
  9
$DIMTOL
 70
     0
  9
$DIMLIM
 70
     0
  9
$DIMTIH
 70
     0
  9
$DIMTOH
 70
     0
  9
$DIMSE1
 70
     0
  9
$DIMSE2
 70
     0
  9
$DIMTAD
 70
     1
  9
$DIMZIN
 70
     8
  9
$DIMBLK
  1

  9
$DIMASO
 70
     1
  9
$DIMSHO
 70
     1
  9
$DIMPOST
  1

  9
$DIMAPOST
  1
"
  9
$DIMALT
 70
     0
  9
$DIMALTD
 70
     2
  9
$DIMALTF
 40
0.0393701
  9
$DIMLFAC
 40
1.0
  9
$DIMTOFL
 70
     1
  9
$DIMTVP
 40
0.0
  9
$DIMTIX
 70
     0
  9
$DIMSOXD
 70
     0
  9
$DIMSAH
 70
     0
  9
$DIMBLK1
  1

  9
$DIMBLK2
  1

  9
$DIMSTYLE
  2
AM_ISO
  9
$DIMCLRD
 70
   256
  9
$DIMCLRE
 70
   256
  9
$DIMCLRT
 70
   256
  9
$DIMTFAC
 40
0.6
  9
$DIMGAP
 40
1.0
  9
$DIMJUST
 70
     0
  9
$DIMSD1
 70
     0
  9
$DIMSD2
 70
     0
  9
$DIMTOLJ
 70
     0
  9
$DIMTZIN
 70
     8
  9
$DIMALTZ
 70
     0
  9
$DIMALTTZ
 70
     0
  9
$DIMUPT
 70
     0
  9
$DIMDEC
 70
     2
  9
$DIMTDEC
 70
     8
  9
$DIMALTU
 70
     2
  9
$DIMALTTD
 70
     2
  9
$DIMTXSTY
  7
CHINESET
  9
$DIMAUNIT
 70
     0
  9
$DIMADEC
 70
     0
  9
$DIMALTRND
 40
0.0
  9
$DIMAZIN
 70
     2
  9
$DIMDSEP
 70
    46
  9
$DIMATFIT
 70
     3
  9
$DIMFRAC
 70
     0
  9
$DIMLDRBLK
  1

  9
$DIMLUNIT
 70
     2
  9
$DIMLWD
 70
    -1
  9
$DIMLWE
 70
    -1
  9
$DIMTMOVE
 70
     0
  9
$LUNITS
 70
     2
  9
$LUPREC
 70
     2
  9
$SKETCHINC
 40
1.0
  9
$FILLETRAD
 40
2.5
  9
$AUNITS
 70
     0
  9
$AUPREC
 70
     0
  9
$MENU
  1
.
  9
$ELEVATION
 40
0.0
  9
$PELEVATION
 40
0.0
  9
$THICKNESS
 40
0.0
  9
$LIMCHECK
 70
     0
  9
$CHAMFERA
 40
2.5
  9
$CHAMFERB
 40
2.5
  9
$CHAMFERC
 40
20.0
  9
$CHAMFERD
 40
0.0
  9
$SKPOLY
 70
     0
  9
$TDCREATE
 40
2454190.707994063
  9
$TDUCREATE
 40
2454190.374660729
  9
$TDUPDATE
 40
2456245.496807176
  9
$TDUUPDATE
 40
2456245.163473843
  9
$TDINDWG
 40
0.0320437269
  9
$TDUSRTIMER
 40
0.0320437269
  9
$USRTIMER
 70
     1
  9
$ANGBASE
 50
0.0
  9
$ANGDIR
 70
     0
  9
$PDMODE
 70
     0
  9
$PDSIZE
 40
0.0
  9
$PLINEWID
 40
0.0
  9
$SPLFRAME
 70
     0
  9
$SPLINETYPE
 70
     6
  9
$SPLINESEGS
 70
     8
  9
$HANDSEED
  5
1E6B
  9
$SURFTAB1
 70
     6
  9
$SURFTAB2
 70
     6
  9
$SURFTYPE
 70
     6
  9
$SURFU
 70
     6
  9
$SURFV
 70
     6
  9
$UCSBASE
  2

  9
$UCSNAME
  2

  9
$UCSORG
 10
0.0
 20
0.0
 30
0.0
  9
$UCSXDIR
 10
1.0
 20
0.0
 30
0.0
  9
$UCSYDIR
 10
0.0
 20
1.0
 30
0.0
  9
$UCSORTHOREF
  2

  9
$UCSORTHOVIEW
 70
     0
  9
$UCSORGTOP
 10
0.0
 20
0.0
 30
0.0
  9
$UCSORGBOTTOM
 10
0.0
 20
0.0
 30
0.0
  9
$UCSORGLEFT
 10
0.0
 20
0.0
 30
0.0
  9
$UCSORGRIGHT
 10
0.0
 20
0.0
 30
0.0
  9
$UCSORGFRONT
 10
0.0
 20
0.0
 30
0.0
  9
$UCSORGBACK
 10
0.0
 20
0.0
 30
0.0
  9
$PUCSBASE
  2

  9
$PUCSNAME
  2

  9
$PUCSORG
 10
0.0
 20
0.0
 30
0.0
  9
$PUCSXDIR
 10
1.0
 20
0.0
 30
0.0
  9
$PUCSYDIR
 10
0.0
 20
1.0
 30
0.0
  9
$PUCSORTHOREF
  2

  9
$PUCSORTHOVIEW
 70
     0
  9
$PUCSORGTOP
 10
0.0
 20
0.0
 30
0.0
  9
$PUCSORGBOTTOM
 10
0.0
 20
0.0
 30
0.0
  9
$PUCSORGLEFT
 10
0.0
 20
0.0
 30
0.0
  9
$PUCSORGRIGHT
 10
0.0
 20
0.0
 30
0.0
  9
$PUCSORGFRONT
 10
0.0
 20
0.0
 30
0.0
  9
$PUCSORGBACK
 10
0.0
 20
0.0
 30
0.0
  9
$USERI1
 70
     0
  9
$USERI2
 70
     0
  9
$USERI3
 70
     0
  9
$USERI4
 70
     0
  9
$USERI5
 70
     0
  9
$USERR1
 40
0.0
  9
$USERR2
 40
0.0
  9
$USERR3
 40
0.0
  9
$USERR4
 40
0.0
  9
$USERR5
 40
0.0
  9
$WORLDVIEW
 70
     1
  9
$SHADEDGE
 70
     3
  9
$SHADEDIF
 70
    70
  9
$TILEMODE
 70
     1
  9
$MAXACTVP
 70
    64
  9
$PINSBASE
 10
0.0
 20
0.0
 30
0.0
  9
$PLIMCHECK
 70
     0
  9
$PEXTMIN
 10
1.000000000000000E+20
 20
1.000000000000000E+20
 30
1.000000000000000E+20
  9
$PEXTMAX
 10
-1.000000000000000E+20
 20
-1.000000000000000E+20
 30
-1.000000000000000E+20
  9
$PLIMMIN
 10
0.0
 20
0.0
  9
$PLIMMAX
 10
420.0
 20
297.0
  9
$UNITMODE
 70
     0
  9
$VISRETAIN
 70
     1
  9
$PLINEGEN
 70
     0
  9
$PSLTSCALE
 70
     1
  9
$TREEDEPTH
 70
  3020
  9
$CMLSTYLE
  2
Standard
  9
$CMLJUST
 70
     0
  9
$CMLSCALE
 40
20.0
  9
$PROXYGRAPHICS
 70
     1
  9
$MEASUREMENT
 70
     1
  9
$CELWEIGHT
370
    -1
  9
$ENDCAPS
280
     0
  9
$JOINSTYLE
280
     0
  9
$LWDISPLAY
290
     0
  9
$INSUNITS
 70
     4
  9
$HYPERLINKBASE
  1

  9
$STYLESHEET
  1
彩色出圖.ctb
  9
$XEDIT
290
     1
  9
$CEPSNTYPE
380
     0
  9
$PSTYLEMODE
290
     1
  9
$FINGERPRINTGUID
  2
{0520EE89-6E3B-4F1C-8382-74071CD60FEB}
  9
$VERSIONGUID
  2
{D14EE5A4-D637-4667-BB80-97760107C4CB}
  9
$EXTNAMES
290
     1
  9
$PSVPSCALE
 40
0.0
  9
$OLESTARTUP
290
     0
  0
ENDSEC
  0
SECTION
  2
CLASSES
  0
CLASS
  1
ACDBDICTIONARYWDFLT
  2
AcDbDictionaryWithDefault
  3
ObjectDBX Classes
 90
        0
280
     0
281
     0
  0
CLASS
  1
ACDBPLACEHOLDER
  2
AcDbPlaceHolder
  3
ObjectDBX Classes
 90
        0
280
     0
281
     0
  0
CLASS
  1
LAYOUT
  2
AcDbLayout
  3
ObjectDBX Classes
 90
        0
280
     0
281
     0
  0
CLASS
  1
ACME_DOCUMENT
  2
AcMeDbDoc
  3
AcMeServices
 90
        0
280
     0
281
     0
  0
CLASS
  1
AMGSETTINGSOBJ
  2
AmgSettingsObj
  3
"AcadM|Product Description: AutoCAD Mechanical 2000|Company: Autodesk"
 90
        0
280
     0
281
     0
  0
CLASS
  1
ACMESCOPE
  2
AcMeScope
  3
AcMeServices
 90
        0
280
     0
281
     0
  0
CLASS
  1
ACMECOMMANDHISTORY
  2
AcMeCommandHistory
  3
AcMeServices
 90
        0
280
     0
281
     0
  0
CLASS
  1
ACIMSYSVARMAN
  2
AcImSysVarManager
  3
AcMeServices
 90
        0
280
     0
281
     0
  0
CLASS
  1
ACIMREALSYSVAR
  2
AcImRealSysVar
  3
AcMeServices
 90
        0
280
     0
281
     0
  0
CLASS
  1
ACIMINTSYSVAR
  2
AcImIntSysVar
  3
AcMeServices
 90
        0
280
     0
281
     0
  0
CLASS
  1
ACMEDRAWINGMAN
  2
AcMeDrawingMan
  3
AcMeServices
 90
        0
280
     0
281
     0
  0
CLASS
  1
ACMEVIEW
  2
AcMeView
  3
AcMeServices
 90
        0
280
     0
281
     0
  0
CLASS
  1
ACDBENTITYCACHE
  2
AcMeEntityCache
  3
AcMeServices
 90
        0
280
     0
281
     0
  0
CLASS
  1
GSMANAGER
  2
AcMeGSManager
  3
AcMeServices
 90
        0
280
     0
281
     0
  0
CLASS
  1
AMDTINTERNALREACTOR
  2
AmdtInternalReactor
  3
AcMeServices
 90
        0
280
     0
281
     0
  0
CLASS
  1
ACMESTATEMGR
  2
AcMeStateMgr
  3
AcMeServices
 90
        0
280
     0
281
     0
  0
CLASS
  1
ACGREFMASTER
  2
AcGrefMaster
  3
AcAttribServices
 90
        0
280
     0
281
     0
  0
CLASS
  1
ACME_DATABASE
  2
AcMeDbDatabase
  3
AcMeServices
 90
        0
280
     0
281
     0
  0
CLASS
  1
ACRFINSADJUSTERMGR
  2
AcRfInsAdjusterMgr
  3
AcMeServices
 90
        0
280
     0
281
     0
  0
CLASS
  1
ACGREFACADMASTER
  2
AcGrefacadMaster
  3
AcGrefServices
 90
        0
280
     0
281
     0
  0
CLASS
  1
AMIMASTER
  2
AmiMaster
  3
AmiServices
 90
        0
280
     0
281
     0
  0
CLASS
  1
ACMDATADICTIONARY
  2
AcmDataDictionary
  3
"AcmSymBB|Product Description: AutoCAD Mechanical 2004 DX|Company: Autodesk"
 90
        0
280
     0
281
     0
  0
CLASS
  1
ACMDATAENTRYBLOCK
  2
AcmDataEntryBlock
  3
"AcmSymBB|Product Description: AutoCAD Mechanical 2004 DX|Company: Autodesk"
 90
        0
280
     0
281
     0
  0
CLASS
  1
ACIMSTRSYSVAR
  2
AcImStrSysVar
  3
AcMeServices
 90
        0
280
     0
281
     0
  0
CLASS
  1
ACMSTANDARDISO
  2
AcmStandardISO
  3
"Amdt_StdImp|Product Description: AutoCAD Mechanical 2004 DX|Company: Autodesk"
 90
        0
280
     0
281
     0
  0
CLASS
  1
AMGOBJPROPCFG
  2
AmgObjPropCfg
  3
"AmgLay|Product Description: AutoCAD Mechanical 2000|Company: Autodesk"
 90
        1
280
     0
281
     0
  0
CLASS
  1
AMDTEDGESTANDARDISO
  2
AmdtEdgeStdISO
  3
"Amdt_StdImp|Product Description: AutoCAD Mechanical 2004 DX|Company: Autodesk"
 90
    32768
280
     0
281
     0
  0
CLASS
  1
ACMSURFSTANDARDISO
  2
AcmSurfTextStdISO
  3
"Amdt_StdImp|Product Description: AutoCAD Mechanical 2004 DX|Company: Autodesk"
 90
        0
280
     0
281
     0
  0
CLASS
  1
ACMFCFSTANDARDISO
  2
AcmFCFStdISO
  3
"Amdt_StdImp|Product Description: AutoCAD Mechanical 2004 DX|Company: Autodesk"
 90
        0
280
     0
281
     0
  0
CLASS
  1
ACMWELDSTANDARDISO
  2
AcmWeldingStdISO
  3
"Amdt_StdImp|Product Description: AutoCAD Mechanical 2004 DX|Company: Autodesk"
 90
        0
280
     0
281
     0
  0
CLASS
  1
ACMIDSTANDARDISO
  2
AcmIdStdISO
  3
"Amdt_StdImp|Product Description: AutoCAD Mechanical 2004 DX|Company: Autodesk"
 90
        0
280
     0
281
     0
  0
CLASS
  1
ACMDATUMSTANDARDISO
  2
AcmDatumStdISO
  3
"Amdt_StdImp|Product Description: AutoCAD Mechanical 2004 DX|Company: Autodesk"
 90
        0
280
     0
281
     0
  0
CLASS
  1
ACMBOMSTANDARDISO
  2
AcmBOMStdISO
  3
"Amdt_StdImp|Product Description: AutoCAD Mechanical 2004 DX|Company: Autodesk"
 90
        0
280
     0
281
     0
  0
CLASS
  1
ACMDETAILSTANDARDISO
  2
AmdtDetailSymStdISO
  3
"Amdt_StdImp|Product Description: AutoCAD Mechanical 2004 DX|Company: Autodesk"
 90
        0
280
     0
281
     0
  0
CLASS
  1
ACMSECTIONSTANDARDISO
  2
AmdtSectionSymStdISO
  3
"Amdt_StdImp|Product Description: AutoCAD Mechanical 2004 DX|Company: Autodesk"
 90
        0
280
     0
281
     0
  0
CLASS
  1
ACMCENTERLINESTANDARDISO
  2
AmdtCenterLineStdISO
  3
"Amdt_StdImp|Product Description: AutoCAD Mechanical 2004 DX|Company: Autodesk"
 90
        0
280
     0
281
     0
  0
CLASS
  1
ACMNOTESTANDARDISO
  2
AmdtNoteStdISO
  3
"Amdt_StdImp|Product Description: AutoCAD Mechanical 2004 DX|Company: Autodesk"
 90
        0
280
     0
281
     0
  0
CLASS
  1
ACAMGLAYSTD
  2
AcAmgLayStd
  3
"AcAmgLayStd|Product Description: AutoCAD Mechanical 2000|Company: Autodesk"
 90
        0
280
     0
281
     0
  0
CLASS
  1
ACAMGDIMSTD
  2
AcAmgDimStd
  3
"AcAmgDimStd|Product Description: AutoCAD Mechanical 2000|Company: Autodesk"
 90
        0
280
     0
281
     0
  0
CLASS
  1
ACAMGHOLECHARTSTDISO
  2
AcAmgHoleChartStdISO
  3
ACMSYMBB_MODULE_NAME
 90
        0
280
     0
281
     0
  0
CLASS
  1
ACAMGTITLESTD
  2
AcAmgTitleStd
  3
"TITLEAPP"
 90
        0
280
     0
281
     0
  0
CLASS
  1
LAYER_INDEX
  2
AcDbLayerIndex
  3
ObjectDBX Classes
 90
        0
280
     0
281
     0
  0
CLASS
  1
IDBUFFER
  2
AcDbIdBuffer
  3
ObjectDBX Classes
 90
        0
280
     0
281
     0
  0
CLASS
  1
DICTIONARYVAR
  2
AcDbDictionaryVar
  3
ObjectDBX Classes
 90
        0
280
     0
281
     0
  0
CLASS
  1
AM_DRAWING_MGR
  2
AcDmDwgMgr
  3
AcMechDwgViewMgmt
 90
        0
280
     0
281
     0
  0
CLASS
  1
AM_DWG_DOCUMENT
  2
AcDmDwgDocument
  3
AcMechDwgViewMgmt
 90
        0
280
     0
281
     0
  0
CLASS
  1
AM_DWG_SHEET
  2
AcDmSheet
  3
AcMechDwgViewMgmt
 90
        0
280
     0
281
     0
  0
CLASS
  1
AM_VIEWDIMPARMAP
  2
AcDmViewDimParMap
  3
AcMechDwgViewMgmt
 90
        0
280
     0
281
     0
  0
CLASS
  1
AM_DWGMGR_NAME
  2
AcDmDwgMgrName
  3
AcMechDwgViewMgmt
 90
        0
280
     0
281
     0
  0
CLASS
  1
AMDTMENUSTATEMGR
  2
AmdtMenuStateMgr
  3
McadcomServices
 90
        0
280
     0
281
     0
  0
CLASS
  1
AMDTMCOMMENUSTATE
  2
AmdtMcomMenuState
  3
McadcomServices
 90
        0
280
     0
281
     0
  0
CLASS
  1
MAPIAMMOUDLE
  2
MApiAmModule
  3
MApiAmServices
 90
        0
280
     0
281
     0
  0
CLASS
  1
AMDTADMENUSTATE
  2
AmdtAdMenuState
  3
DesignerServices
 90
        0
280
     0
281
     0
  0
CLASS
  1
ADAPPL
  2
AcAdAppl
  3
DesignerServices
 90
        0
280
     0
281
     0
  0
CLASS
  1
DEPMGR
  2
AcAdDepMgr
  3
DesignerServices
 90
        0
280
     0
281
     0
  0
CLASS
  1
PARAMMGR
  2
AcAdParamMgr
  3
DesignerServices
 90
        0
280
     0
281
     0
  0
CLASS
  1
PARAMSCOPE
  2
AcAdParamScope
  3
DesignerServices
 90
        0
280
     0
281
     0
  0
CLASS
  1
NAMEDAPPL
  2
AcAdNamedAppl
  3
DesignerServices
 90
        0
280
     0
281
     0
  0
CLASS
  1
AMDTDMMENUSTATE
  2
AmdtDmMenuState
  3
AcMechDwgViewMgmt
 90
        0
280
     0
281
     0
  0
CLASS
  1
AMDTAMMENUSTATE
  2
AmdtAmMenuState
  3
DesignerAssemblies
 90
        0
280
     0
281
     0
  0
CLASS
  1
ACAMPROJECT
  2
AcAmProject
  3
DesignerAssemblies
 90
        0
280
     0
281
     0
  0
CLASS
  1
ACAMGRCOMPDEF
  2
AcAmGrCompDef
  3
DesignerAssemblies
 90
        0
280
     0
281
     0
  0
CLASS
  1
ACCMCONTEXT
  2
AcCmContext
  3
DesignerAssemblies
 90
        0
280
     0
281
     0
  0
CLASS
  1
ACAMCOMPDEF
  2
AcAmCompDef
  3
DesignerAssemblies
 90
        0
280
     0
281
     0
  0
CLASS
  1
ACAMCOMPDEFMGR
  2
AcAmCompDefMgr
  3
DesignerAssemblies
 90
        0
280
     0
281
     0
  0
CLASS
  1
AMCONTEXTMGR
  2
AcAmContextMgr
  3
DesignerAssemblies
 90
        0
280
     0
281
     0
  0
CLASS
  1
ACAMCONTEXTMODELER
  2
AcAmContextModeler
  3
DesignerAssemblies
 90
        0
280
     0
281
     0
  0
CLASS
  1
ACMTHREADLINESTANDARDISO
  2
AmdtThreadLineStdISO
  3
"Amdt_StdImp|Product Description: AutoCAD Mechanical 2004 DX|Company: Autodesk"
 90
        0
280
     0
281
     0
  0
CLASS
  1
CATALOGSTATE
  2
AcAmCatalogState
  3
DesignerAssemblies
 90
        0
280
     0
281
     0
  0
CLASS
  1
ACAMGRCOMPDEFSET
  2
AcAmGrCompDefSet
  3
DesignerAssemblies
 90
        0
280
     0
281
     0
  0
CLASS
  1
AMDTBROWSERDBTAB
  2
AmdtBrowserDbTab
  3
McadcomServices
 90
        0
280
     0
281
     0
  0
CLASS
  1
CBROWSERAPPOBJECT
  2
CBrowserAppObject
  3
McadcomServices
 90
        0
280
     0
281
     0
  0
CLASS
  1
DM_PLACEHOLDER
  2
AcDmSelsetPlaceholder
  3
AcMechDwgViewMgmt
 90
        0
280
     0
281
     0
  0
CLASS
  1
TABLESTYLE
  2
AcDbTableStyle
  3
ObjectDBX Classes
 90
     2047
280
     0
281
     0
  0
CLASS
  1
VAACXREFPANELOBJECT
  2
VaAcXREFPanelObject
  3
VAAC_ADDIN
 90
    32768
280
     0
281
     0
  0
CLASS
  1
VAACIMAGEINVENTORY
  2
VaAcImageInventory
  3
VAAC_ADDIN
 90
    32768
280
     0
281
     0
  0
CLASS
  1
AMDTNOTETEMPLATEDB
  2
AmdtNoteTemplateDB
  3
AMDT_STDIMP_MODULE_NAME
 90
        0
280
     0
281
     0
  0
CLASS
  1
ACMBOM
  2
AcmBom
  3
"AcmSymBB|Product Description: AutoCAD Mechanical 2004 DX|Company: Autodesk"
 90
    32768
280
     0
281
     0
  0
CLASS
  1
AMDTFORMULAUPDATEDISPATCHER
  2
AmdtFormulaUpdateDispatcher
  3
AcMeServices
 90
    32768
280
     0
281
     0
  0
CLASS
  1
ACMPARTLIST
  2
AcmPartList
  3
"AcmSymBB|Product Description: AutoCAD Mechanical 2004 DX|Company: Autodesk"
 90
    33791
280
     0
281
     1
  0
CLASS
  1
ACAMGFILTERDAT
  2
AcAmgFilterDat
  3
"AcadM|Product Description: AutoCAD Mechanical 2000|Company: Autodesk"
 90
    32768
280
     0
281
     0
  0
CLASS
  1
DIMASSOC
  2
AcDbDimAssoc
  3
"AcDbDimAssoc|Product Desc:     AcDim ARX App For Dimension|Company:          Autodesk, Inc.|WEB Address:      www.autodesk.com"
 90
    32768
280
     0
281
     0
  0
CLASS
  1
AMDTNOTE
  2
AmdtNote
  3
"AcmSymBB|Product Description: AutoCAD Mechanical 2004 DX|Company: Autodesk"
 90
    33791
280
     0
281
     1
  0
CLASS
  1
STDPART2D
  2
AmgStdPart
  3
"AmgStdPart|Product Description: AutoCAD Mechanical 2000|Company: Autodesk"
 90
    33791
280
     0
281
     1
  0
CLASS
  1
ACAMSTDPCOMPDEF
  2
AcAmStdpCompDef
  3
DesignerAssemblies
 90
    32768
280
     0
281
     0
  0
CLASS
  1
ACRFATTGENMGR
  2
AcRfAttGeneralMgr
  3
AcAttribServices
 90
    32768
280
     0
281
     0
  0
CLASS
  1
ACRFOBJATTMGR
  2
AcRfObjAttGroupMgr
  3
AcAttribServices
 90
    32768
280
     0
281
     0
  0
CLASS
  1
ACRFMCADAPIATTHOLDER
  2
AcRfMCADAPIAttHolder
  3
AcAttribServices
 90
    32768
280
     0
281
     0
  0
CLASS
  1
AMDTSYSATTR
  2
AmdtSystemAttribute
  3
AcAttribServices
 90
    32768
280
     0
281
     0
  0
CLASS
  1
ACAMCOMP
  2
AcAmComp
  3
DesignerAssemblies
 90
    32768
280
     0
281
     0
  0
CLASS
  1
AC_AM_STDP_VIEW_DEF
  2
AcAmStdpViewDef
  3
DesignerAssemblies
 90
    32768
280
     0
281
     0
  0
CLASS
  1
AC_AM_MVD_DEP_MGR
  2
AcAmMVDdepMgr
  3
DesignerAssemblies
 90
    32768
280
     0
281
     0
  0
CLASS
  1
AC_AM_MASTER_VIEW_DEF
  2
AcAmMasterViewDef
  3
DesignerAssemblies
 90
    32768
280
     0
281
     0
  0
CLASS
  1
AC_AM_DIRTY_NODES
  2
AcAmDirtyNodes
  3
DesignerAssemblies
 90
    32768
280
     0
281
     0
  0
CLASS
  1
AC_AM_MAPPER_CACHE
  2
AcAmMapperCache
  3
DesignerAssemblies
 90
    32768
280
     0
281
     0
  0
CLASS
  1
ACAMMVDBACKUPOBJECT
  2
AcAmMVDBackupObject
  3
DesignerAssemblies
 90
    32768
280
     0
281
     0
  0
CLASS
  1
AC_AM_COMP_VIEW_INST
  2
AcAmCompView
  3
DesignerAssemblies
 90
    32768
280
     0
281
     0
  0
CLASS
  1
AC_AM_2D_XREF_MGR
  2
AcAmXrefMgr2d
  3
DesignerAssemblies
 90
    32768
280
     0
281
     0
  0
CLASS
  1
SORTENTSTABLE
  2
AcDbSortentsTable
  3
ObjectDBX Classes
 90
        0
280
     0
281
     0
  0
CLASS
  1
ASAPP
  2
AcAsAppObject
  3
AutoSurfServices
 90
        0
280
     0
281
     0
  0
CLASS
  1
IM_STATIC_MAN
  2
AcImStaticVarManager
  3
AcMeServices
 90
        0
280
     0
281
     0
  0
CLASS
  1
ACIMDBLSTATICVAR
  2
AcImDblStaticVar
  3
AcMeServices
 90
        0
280
     0
281
     0
  0
CLASS
  1
ACIMSTRSTATICVAR
  2
AcImStrStaticVar
  3
AcMeServices
 90
        0
280
     0
281
     0
  0
CLASS
  1
ACIMINTSTATICVAR
  2
AcImIntStaticVar
  3
AcMeServices
 90
        0
280
     0
281
     0
  0
CLASS
  1
ACASGREFMASTER
  2
AcAsGrefMaster
  3
AutoSurfResolverServices
 90
        0
280
     0
281
     0
  0
CLASS
  1
ACADGREFMODULE
  2
AcAdGrefModule
  3
AdGrefServices
 90
        0
280
     0
281
     0
  0
CLASS
  1
AMDTMAPISURFMOUDULE
  2
AmdtMApiSurfModule
  3
MApiSurfServices
 90
        0
280
     0
281
     0
  0
CLASS
  1
MAPIADMODULE
  2
MApiAdModule
  3
MApiAdServices
 90
        0
280
     0
281
     0
  0
CLASS
  1
AMDTEDGESTANDARDISO13715
  2
AmdtEdgeStdISO13715
  3
"Amdt_StdImp|Product Description: AutoCAD Mechanical 2004 DX|Company: Autodesk"
 90
        0
280
     0
281
     0
  0
ENDSEC
  0
SECTION
  2
TABLES
  0
TABLE
  2
VPORT
  5
8
330
0
100
AcDbSymbolTable
 70
     3
  0
VPORT
  5
1E62
330
8
100
AcDbSymbolTableRecord
100
AcDbViewportTableRecord
  2
*Active
 70
     0
 10
0.0
 20
0.0
 11
1.0
 21
1.0
 12
-16.37793934209298
 22
-28.57062729404928
 13
0.0
 23
0.0
 14
2.5
 24
2.5
 15
10.0
 25
10.0
 16
0.0
 26
0.0
 36
1.0
 17
196.7019662944391
 27
210.8122041419015
 37
0.0
 40
361.1914416236522
 41
1.263157894736842
 42
50.0
 43
0.0
 44
0.0
 50
0.0
 51
0.0
 71
     0
 72
   100
 73
     1
 74
     3
 75
     0
 76
     0
 77
     0
 78
     0
281
     0
 65
     0
110
0.0
120
0.0
130
0.0
111
1.0
121
0.0
131
0.0
112
0.0
122
1.0
132
0.0
 79
     0
146
0.0
  0
ENDTAB
  0
TABLE
  2
LTYPE
  5
5
330
0
100
AcDbSymbolTable
 70
    16
  0
LTYPE
  5
14
330
5
100
AcDbSymbolTableRecord
100
AcDbLinetypeTableRecord
  2
ByBlock
 70
     0
  3

 72
    65
 73
     0
 40
0.0
  0
LTYPE
  5
15
330
5
100
AcDbSymbolTableRecord
100
AcDbLinetypeTableRecord
  2
ByLayer
 70
     0
  3

 72
    65
 73
     0
 40
0.0
  0
LTYPE
  5
16
330
5
100
AcDbSymbolTableRecord
100
AcDbLinetypeTableRecord
  2
Continuous
 70
     0
  3
Solid line
 72
    65
 73
     0
 40
0.0
  0
LTYPE
  5
64
330
5
100
AcDbSymbolTableRecord
100
AcDbLinetypeTableRecord
  2
AM_ISO02W050
 70
     0
  3
__ __ __ __ __ __ __ __ __ __ __ __ __ __ __
 72
    65
 73
     2
 40
7.5
 49
6.0
 74
     0
 49
-1.5
 74
     0
  0
LTYPE
  5
65
330
5
100
AcDbSymbolTableRecord
100
AcDbLinetypeTableRecord
  2
AM_ISO08W050
 70
     0
  3
____ . ____ . ____ . ____ . ____ . ____ . ____
 72
    65
 73
     4
 40
18.0
 49
12.0
 74
     0
 49
-1.5
 74
     0
 49
3.0
 74
     0
 49
-1.5
 74
     0
  0
LTYPE
  5
66
330
5
100
AcDbSymbolTableRecord
100
AcDbLinetypeTableRecord
  2
AM_ISO09W050
 70
     0
  3
_____ . . _____ . . _____ . . ____ .. ____
 72
    65
 73
     6
 40
22.5
 49
12.0
 74
     0
 49
-1.5
 74
     0
 49
3.0
 74
     0
 49
-1.5
 74
     0
 49
3.0
 74
     0
 49
-1.5
 74
     0
  0
LTYPE
  5
67
330
5
100
AcDbSymbolTableRecord
100
AcDbLinetypeTableRecord
  2
Amconstr
 70
     0
  3
_______________________
 72
    65
 73
     2
 40
9999.0
 49
9999.0
 74
     0
 49
0.0
 74
     0
  0
LTYPE
  5
68
330
5
100
AcDbSymbolTableRecord
100
AcDbLinetypeTableRecord
  2
AM_ISO08W050x2
 70
     0
  3
__ . __ . __ . __ . __ . __
 72
    65
 73
     4
 40
9.0
 49
6.0
 74
     0
 49
-0.75
 74
     0
 49
1.5
 74
     0
 49
-0.75
 74
     0
  0
LTYPE
  5
69
330
5
100
AcDbSymbolTableRecord
100
AcDbLinetypeTableRecord
  2
AM_ISO02W050x2
 70
     0
  3
 _ _ _ _ _ _ _ _ _ _ _ _
 72
    65
 73
     2
 40
3.75
 49
3.0
 74
     0
 49
-0.75
 74
     0
  0
LTYPE
  5
6C
330
5
100
AcDbSymbolTableRecord
100
AcDbLinetypeTableRecord
  2
Amzigzag
 70
     0
  3
/\/-/\/-/\/-/\/-/\/-/\/
 72
    65
 73
     2
 40
11.0001
 49
0.0001
 74
     4
 75
   135
340
6B
 46
0.04
 50
0.0
 44
0.0
 45
0.0
 49
-11.0
 74
     0
  0
LTYPE
  5
7A
330
5
100
AcDbSymbolTableRecord
100
AcDbLinetypeTableRecord
  2
ACISOWELD
 70
     0
  3
_ _ _ _ _
 72
    65
 73
     2
 40
2.0
 49
2.0
 74
     0
 49
-1.0
 74
     0
  0
LTYPE
  5
7B
330
5
100
AcDbSymbolTableRecord
100
AcDbLinetypeTableRecord
  2
ACISOTGB
 70
     0
  3
__ . . __ . .
 72
    65
 73
     6
 40
9.0
 49
4.0
 74
     0
 49
-1.0
 74
     0
 49
1.0
 74
     0
 49
-1.0
 74
     0
 49
1.0
 74
     0
 49
-1.0
 74
     0
  0
LTYPE
  5
7C
330
5
100
AcDbSymbolTableRecord
100
AcDbLinetypeTableRecord
  2
ACISOTGL
 70
     0
  3
_ _ _ _ _
 72
    65
 73
     2
 40
3.0
 49
2.0
 74
     0
 49
-1.0
 74
     0
  0
LTYPE
  5
7E
330
5
100
AcDbSymbolTableRecord
100
AcDbLinetypeTableRecord
  2
CENTER
 70
     0
  3
__ . __
 72
    65
 73
     4
 40
7.0
 49
4.0
 74
     0
 49
-1.0
 74
     0
 49
1.0
 74
     0
 49
-1.0
 74
     0
  0
LTYPE
  5
D8
330
5
100
AcDbSymbolTableRecord
100
AcDbLinetypeTableRecord
  2
HIDDEN
 70
     0
  3
Hidden __ __ __ __ __ __ __ __ __ __ __ __ __ _
 72
    65
 73
     2
 40
9.524999999999998
 49
6.349999999999999
 74
     0
 49
-3.174999999999999
 74
     0
  0
LTYPE
  5
D9
330
5
100
AcDbSymbolTableRecord
100
AcDbLinetypeTableRecord
  2
PHANTOM2
 70
     0
  3
Phantom (.5x) ___ _ _ ___ _ _ ___ _ _ ___ _ _
 72
    65
 73
     6
 40
31.75
 49
15.875
 74
     0
 49
-3.174999999999999
 74
     0
 49
3.174999999999999
 74
     0
 49
-3.174999999999999
 74
     0
 49
3.174999999999999
 74
     0
 49
-3.174999999999999
 74
     0
  0
LTYPE
  5
1908
330
5
100
AcDbSymbolTableRecord
100
AcDbLinetypeTableRecord
  2
ASULTYPE
 70
     0
  3
實線
 72
    65
 73
     2
 40
3.0
 49
2.5
 74
     0
 49
0.5
 74
     0
  0
LTYPE
  5
1909
330
5
100
AcDbSymbolTableRecord
100
AcDbLinetypeTableRecord
  2
ASVLTYPE
 70
     0
  3
__ __ __ __ __ __ __ __ __ __ __ __ __ __ __ __ __ __ __ __ __
 72
    65
 73
     2
 40
0.75
 49
0.5
 74
     0
 49
-0.25
 74
     0
  0
ENDTAB
  0
TABLE
  2
LAYER
  5
2
102
{ACAD_XDICTIONARY
360
3F9
102
}
330
0
100
AcDbSymbolTable
 70
     7
  0
LAYER
  5
10
330
2
100
AcDbSymbolTableRecord
100
AcDbLayerTableRecord
  2
0
 70
     0
 62
     7
  6
Continuous
370
    -3
390
F
  0
LAYER
  5
8CB
330
2
100
AcDbSymbolTableRecord
100
AcDbLayerTableRecord
  2
AM_5
 70
     0
 62
     5
  6
Continuous
370
    50
390
F
  0
LAYER
  5
939
330
2
100
AcDbSymbolTableRecord
100
AcDbLayerTableRecord
  2
Defpoints
 70
     0
 62
     7
  6
Continuous
290
     0
370
    -3
390
F
  0
LAYER
  5
C77
330
2
100
AcDbSymbolTableRecord
100
AcDbLayerTableRecord
  2
AM_VIS
 70
     0
 62
     7
  6
Continuous
370
    50
390
F
  0
LAYER
  5
1546
330
2
100
AcDbSymbolTableRecord
100
AcDbLayerTableRecord
  2
AM_7
 70
     0
 62
     1
  6
CENTER
370
    25
390
F
  0
LAYER
  5
1630
330
2
100
AcDbSymbolTableRecord
100
AcDbLayerTableRecord
  2
AM_0N
 70
     0
 62
     7
  6
Continuous
370
    50
390
F
  0
LAYER
  5
16AD
330
2
100
AcDbSymbolTableRecord
100
AcDbLayerTableRecord
  2
LOGO
 70
     0
 62
     7
  6
Continuous
370
    -3
390
F
  0
ENDTAB
  0
TABLE
  2
STYLE
  5
3
330
0
100
AcDbSymbolTable
 70
     7
  0
STYLE
  5
11
330
3
100
AcDbSymbolTableRecord
100
AcDbTextStyleTableRecord
  2
STANDARD
 70
     0
 40
0.0
 41
1.0
 50
0.0
 71
     0
 42
3.0
  3
ISOCP.SHX
  4
CHINESET.SHX
  0
STYLE
  5
6B
330
3
100
AcDbSymbolTableRecord
100
AcDbTextStyleTableRecord
  2

 70
     1
 40
0.0
 41
1.0
 50
0.0
 71
     0
 42
2.5
  3
ltypeshp.shx
  4

  0
STYLE
  5
6D
330
3
100
AcDbSymbolTableRecord
100
AcDbTextStyleTableRecord
  2
ACISOTS
 70
     0
 40
1.0
 41
1.0
 50
0.0
 71
     0
 42
1.0
  3
isocp.shx
  4
chineset.shx
  0
STYLE
  5
79
330
3
100
AcDbSymbolTableRecord
100
AcDbTextStyleTableRecord
  2
ACISOGDT
 70
     0
 40
0.0
 41
1.0
 50
0.0
 71
     0
 42
2.5
  3
amgdt.shx
  4
chineset.shx
  0
STYLE
  5
60C
330
3
100
AcDbSymbolTableRecord
100
AcDbTextStyleTableRecord
  2
CHINESET
 70
     0
 40
0.0
 41
1.0
 50
0.0
 71
     0
 42
3.0
  3
simplex.shx
  4
CHINESET.SHX
  0
STYLE
  5
1696
330
3
100
AcDbSymbolTableRecord
100
AcDbTextStyleTableRecord
  2
Arial
 70
     0
 40
0.0
 41
1.0
 50
0.0
 71
     0
 42
1.2
  3
arial.ttf
  4

1001
ACAD
1000
Arial
1071
       34
  0
STYLE
  5
1A08
330
3
100
AcDbSymbolTableRecord
100
AcDbTextStyleTableRecord
  2
STANDARD0
 70
     0
 40
3.5
 41
1.0
 50
0.0
 71
     0
 42
2.5
  3
isocp.shx
  4
chineset.shx
  0
ENDTAB
  0
TABLE
  2
VIEW
  5
6
330
0
100
AcDbSymbolTable
 70
     0
  0
ENDTAB
  0
TABLE
  2
UCS
  5
7
330
0
100
AcDbSymbolTable
 70
     0
  0
ENDTAB
  0
TABLE
  2
APPID
  5
9
330
0
100
AcDbSymbolTable
 70
    30
  0
APPID
  5
12
330
9
100
AcDbSymbolTableRecord
100
AcDbRegAppTableRecord
  2
ACAD
 70
     0
  0
APPID
  5
46
330
9
100
AcDbSymbolTableRecord
100
AcDbRegAppTableRecord
  2
MCAD_NO_VIS
 70
     0
  0
APPID
  5
47
330
9
100
AcDbSymbolTableRecord
100
AcDbRegAppTableRecord
  2
ACAD_TEMP_GRAPHIC
 70
     0
  0
APPID
  5
58
330
9
100
AcDbSymbolTableRecord
100
AcDbRegAppTableRecord
  2
ACATTRIBSERVICES
 70
     0
  0
APPID
  5
EE
330
9
100
AcDbSymbolTableRecord
100
AcDbRegAppTableRecord
  2
AD_DRAW
 70
     0
  0
APPID
  5
10C
330
9
100
AcDbSymbolTableRecord
100
AcDbRegAppTableRecord
  2
DESIGNERASSEMBLIES
 70
     0
  0
APPID
  5
111
330
9
100
AcDbSymbolTableRecord
100
AcDbRegAppTableRecord
  2
ACADM_DIM_EDIT
 70
     0
  0
APPID
  5
112
330
9
100
AcDbSymbolTableRecord
100
AcDbRegAppTableRecord
  2
AMDT_DM_ADJ
 70
     0
  0
APPID
  5
22C
330
9
100
AcDbSymbolTableRecord
100
AcDbRegAppTableRecord
  2
ACAD_DSTYLE_DIMTEXT_FILL
 70
     0
  0
APPID
  5
452
330
9
100
AcDbSymbolTableRecord
100
AcDbRegAppTableRecord
  2
GENIUS_GENOENT_13
 70
     0
  0
APPID
  5
453
330
9
100
AcDbSymbolTableRecord
100
AcDbRegAppTableRecord
  2
GENIUS_GENOBJ-N-CRS_13
 70
     0
  0
APPID
  5
454
330
9
100
AcDbSymbolTableRecord
100
AcDbRegAppTableRecord
  2
GENIUS_GENOLIS_13
 70
     0
  0
APPID
  5
455
330
9
100
AcDbSymbolTableRecord
100
AcDbRegAppTableRecord
  2
GENIUS_GENODEF_13
 70
     0
  0
APPID
  5
456
330
9
100
AcDbSymbolTableRecord
100
AcDbRegAppTableRecord
  2
GENIUS_GENOREF_13
 70
     0
  0
APPID
  5
6F3
330
9
100
AcDbSymbolTableRecord
100
AcDbRegAppTableRecord
  2
ACAD_PSEXT
 70
     0
  0
APPID
  5
808
330
9
100
AcDbSymbolTableRecord
100
AcDbRegAppTableRecord
  2
GENIUS_GENDTOL_13
 70
     0
  0
APPID
  5
1548
330
9
100
AcDbSymbolTableRecord
100
AcDbRegAppTableRecord
  2
GENIUS_GENOBJ-N-CEN_13
 70
     0
  0
APPID
  5
1549
330
9
100
AcDbSymbolTableRecord
100
AcDbRegAppTableRecord
  2
GENIUS_GENCEN_19
 70
     0
  0
APPID
  5
162C
330
9
100
AcDbSymbolTableRecord
100
AcDbRegAppTableRecord
  2
GEVID1176253404
 70
     0
  0
APPID
  5
162D
330
9
100
AcDbSymbolTableRecord
100
AcDbRegAppTableRecord
  2
GEVMK
 70
     0
  0
APPID
  5
162E
330
9
100
AcDbSymbolTableRecord
100
AcDbRegAppTableRecord
  2
GEVDC
 70
     0
  0
APPID
  5
1646
330
9
100
AcDbSymbolTableRecord
100
AcDbRegAppTableRecord
  2
AMG_2DHIDE
 70
     0
  0
APPID
  5
1647
330
9
100
AcDbSymbolTableRecord
100
AcDbRegAppTableRecord
  2
AMG_2DSTRUCT_BTR
 70
     0
  0
APPID
  5
1658
330
9
100
AcDbSymbolTableRecord
100
AcDbRegAppTableRecord
  2
ACADM_2DVIEW_IGN_NOTIFY
 70
     0
  0
APPID
  5
16AE
330
9
100
AcDbSymbolTableRecord
100
AcDbRegAppTableRecord
  2
GENIUS_GENREC_14
 70
     0
  0
APPID
  5
16AF
330
9
100
AcDbSymbolTableRecord
100
AcDbRegAppTableRecord
  2
GENIUS_GENOBJ-N-REC_13
 70
     0
  0
APPID
  5
1889
330
9
100
AcDbSymbolTableRecord
100
AcDbRegAppTableRecord
  2
GENIUS_GENDIM_13
 70
     0
  0
APPID
  5
188A
330
9
100
AcDbSymbolTableRecord
100
AcDbRegAppTableRecord
  2
GENIUS_GE3DTOL_13
 70
     0
  0
APPID
  5
190A
330
9
100
AcDbSymbolTableRecord
100
AcDbRegAppTableRecord
  2
ASURF_PCURVE_APPNAME
 70
     0
  0
APPID
  5
190F
330
9
100
AcDbSymbolTableRecord
100
AcDbRegAppTableRecord
  2
AMG_3D2D_5.0
 70
     0
  0
ENDTAB
  0
TABLE
  2
DIMSTYLE
  5
A
330
0
100
AcDbSymbolTable
 70
    10
100
AcDbDimStyleTable
 71
     3
340
81
340
8B
340
86
  0
DIMSTYLE
105
81
330
A
100
AcDbSymbolTableRecord
100
AcDbDimStyleTableRecord
  2
AM_ISO
 70
     0
  4
"
 41
3.0
 42
1.5
 43
8.0
 44
1.5
 47
0.1
 48
0.1
 73
     0
 74
     0
 77
     1
 78
     8
 79
     2
140
3.0
141
0.0
143
0.0393701
146
0.6
147
1.0
172
     1
176
   256
177
   256
178
   256
271
     2
272
     2
283
     0
284
     8
340
60C
371
    -1
372
    -1
  0
DIMSTYLE
105
82
330
A
100
AcDbSymbolTableRecord
100
AcDbDimStyleTableRecord
  2
AM_ISO$3
 70
     0
  4
"
 41
3.0
 42
1.5
 43
8.0
 44
1.5
 47
0.1
 48
0.1
 73
     0
 77
     1
 78
     8
 79
     2
140
3.0
141
0.0
143
0.0393701
146
0.6
147
1.0
176
   256
177
   256
178
   256
271
     2
272
     2
283
     0
284
     8
288
     1
289
     0
340
60C
371
    -1
372
    -1
  0
DIMSTYLE
105
83
330
A
100
AcDbSymbolTableRecord
100
AcDbDimStyleTableRecord
  2
AM_ISO$4
 70
     0
  4
"
 41
3.0
 42
1.5
 43
8.0
 44
1.5
 47
0.1
 48
0.1
 73
     0
 77
     1
 78
     8
 79
     2
140
3.0
141
0.0
143
0.0393701
146
0.6
147
1.0
176
   256
177
   256
178
   256
271
     2
272
     2
283
     0
284
     8
288
     1
289
     0
340
60C
371
    -1
372
    -1
  0
DIMSTYLE
105
84
330
A
100
AcDbSymbolTableRecord
100
AcDbDimStyleTableRecord
  2
AM_ISO$6
 70
     0
  4
"
 41
3.0
 42
1.5
 43
8.0
 44
1.5
 47
0.1
 48
0.1
 73
     0
 74
     0
 78
     8
 79
     2
140
3.0
141
0.0
143
0.0393701
146
0.6
147
1.0
172
     1
176
   256
177
   256
178
   256
271
     2
272
     2
283
     0
284
     8
340
60C
371
    -1
372
    -1
  0
DIMSTYLE
105
85
330
A
100
AcDbSymbolTableRecord
100
AcDbDimStyleTableRecord
  2
AM_ISO$7
 70
     0
  4
"
 41
3.0
 42
1.5
 43
8.0
 44
1.5
 47
0.1
 48
0.1
 73
     0
 74
     0
 77
     1
 78
     8
 79
     2
140
5.0
141
0.0
143
0.0393701
146
0.6
147
1.0
172
     1
176
   256
177
   256
178
   256
271
     2
272
     2
283
     0
284
     8
340
60C
371
    -1
372
    -1
  0
DIMSTYLE
105
86
330
A
100
AcDbSymbolTableRecord
100
AcDbDimStyleTableRecord
  2
AM_ISO$SF
 70
     0
  4
"
 41
2.5
 42
1.0
 43
10.0
 44
1.0
 47
0.1
 48
0.1
 73
     0
 74
     0
 75
     1
 76
     1
 77
     1
 78
     8
 79
     2
140
3.5
141
0.0
143
0.0393701
146
0.71
147
1.5
172
     1
176
   256
177
   256
178
     2
271
     2
272
     3
274
     4
283
     0
284
     8
340
11
371
    -1
372
    -1
  0
DIMSTYLE
105
8B
330
A
100
AcDbSymbolTableRecord
100
AcDbDimStyleTableRecord
  2
AM_ISO$SH
 70
     0
  4
"
 41
2.5
 42
1.0
 43
10.0
 44
1.0
 47
0.1
 48
0.1
 73
     0
 74
     0
 75
     1
 76
     1
 77
     1
 78
     8
 79
     2
140
3.5
141
0.0
143
0.0393701
144
2.0
146
0.71
147
1.5
172
     1
173
     1
176
   256
177
   256
178
     2
271
     2
272
     3
274
     4
283
     0
284
     8
340
11
343
87
371
    -1
372
    -1
  0
DIMSTYLE
105
40B
102
{ACAD_REACTORS
330
1C9E
330
1C9F
330
1CA0
330
1CA1
330
1CA2
330
1CA3
330
1CA4
330
1CA5
330
1CA6
330
1CA7
102
}
330
A
100
AcDbSymbolTableRecord
100
AcDbDimStyleTableRecord
  2
AM_ISO$0
 70
     0
  4
"
 41
3.0
 42
1.5
 43
8.0
 44
1.5
 47
0.1
 48
0.1
 73
     0
 74
     0
 77
     1
 78
     8
 79
     2
140
3.0
141
0.0
143
0.0393701
146
0.6
147
1.0
172
     1
176
   256
177
   256
178
   256
271
     2
272
     2
283
     0
284
     8
340
60C
371
    -1
372
    -1
  0
DIMSTYLE
105
1A09
330
A
100
AcDbSymbolTableRecord
100
AcDbDimStyleTableRecord
  2
ISO-25
 70
     0
 41
2.5
 42
0.625
 43
3.75
 44
1.25
 73
     0
 74
     0
 77
     1
 78
     8
140
2.5
141
2.5
143
0.03937007874016
147
0.625
171
     3
172
     1
271
     2
272
     2
274
     3
278
    44
283
     0
284
     8
340
11
  0
DIMSTYLE
105
1A0A
330
A
100
AcDbSymbolTableRecord
100
AcDbDimStyleTableRecord
  2
ISO-25$0
 70
     0
 41
2.5
 42
0.625
 43
3.75
 44
1.25
 73
     0
 74
     0
 77
     1
 78
     8
140
2.5
141
2.5
143
0.03937007874016
147
0.625
171
     3
172
     1
271
     2
272
     2
274
     3
278
    44
283
     0
284
     8
340
11
  0
ENDTAB
  0
TABLE
  2
BLOCK_RECORD
  5
1
330
0
100
AcDbSymbolTable
 70
    31
  0
BLOCK_RECORD
  5
1F
102
{ACAD_XDICTIONARY
360
8F
102
}
330
1
100
AcDbSymbolTableRecord
100
AcDbBlockTableRecord
  2
*Model_Space
340
22
  0
BLOCK_RECORD
  5
1B
330
1
100
AcDbSymbolTableRecord
100
AcDbBlockTableRecord
  2
*Paper_Space
340
1E
  0
BLOCK_RECORD
  5
23
330
1
100
AcDbSymbolTableRecord
100
AcDbBlockTableRecord
  2
*Paper_Space0
340
26
  0
BLOCK_RECORD
  5
87
330
1
100
AcDbSymbolTableRecord
100
AcDbBlockTableRecord
  2
GENAXEH
340
0
  0
BLOCK_RECORD
  5
1962
330
1
100
AcDbSymbolTableRecord
100
AcDbBlockTableRecord
  2
SW_CENTERMARKSYMBOL_0
340
0
102
{BLKREFS
331
1C9A
102
}
  0
BLOCK_RECORD
  5
196D
330
1
100
AcDbSymbolTableRecord
100
AcDbBlockTableRecord
  2
SW_CENTERMARKSYMBOL_1
340
0
102
{BLKREFS
331
1C9B
102
}
  0
BLOCK_RECORD
  5
1978
330
1
100
AcDbSymbolTableRecord
100
AcDbBlockTableRecord
  2
SW_CENTERMARKSYMBOL_2
340
0
102
{BLKREFS
331
1C9C
102
}
  0
BLOCK_RECORD
  5
1983
330
1
100
AcDbSymbolTableRecord
100
AcDbBlockTableRecord
  2
SW_CENTERMARKSYMBOL_3
340
0
102
{BLKREFS
331
1C9D
102
}
  0
BLOCK_RECORD
  5
1CA8
330
1
100
AcDbSymbolTableRecord
100
AcDbBlockTableRecord
  2
*D21
340
0
  0
BLOCK_RECORD
  5
1CB4
330
1
100
AcDbSymbolTableRecord
100
AcDbBlockTableRecord
  2
*D22
340
0
  0
BLOCK_RECORD
  5
1CC0
330
1
100
AcDbSymbolTableRecord
100
AcDbBlockTableRecord
  2
*D23
340
0
  0
BLOCK_RECORD
  5
1CCC
330
1
100
AcDbSymbolTableRecord
100
AcDbBlockTableRecord
  2
*D24
340
0
  0
BLOCK_RECORD
  5
1CD8
330
1
100
AcDbSymbolTableRecord
100
AcDbBlockTableRecord
  2
*D25
340
0
  0
BLOCK_RECORD
  5
1CE4
330
1
100
AcDbSymbolTableRecord
100
AcDbBlockTableRecord
  2
*D26
340
0
  0
BLOCK_RECORD
  5
1CF0
330
1
100
AcDbSymbolTableRecord
100
AcDbBlockTableRecord
  2
*D27
340
0
  0
BLOCK_RECORD
  5
1CFC
330
1
100
AcDbSymbolTableRecord
100
AcDbBlockTableRecord
  2
*D28
340
0
  0
BLOCK_RECORD
  5
1D08
330
1
100
AcDbSymbolTableRecord
100
AcDbBlockTableRecord
  2
*D29
340
0
  0
BLOCK_RECORD
  5
1D14
330
1
100
AcDbSymbolTableRecord
100
AcDbBlockTableRecord
  2
*D30
340
0
  0
ENDTAB
  0
ENDSEC
  0
SECTION
  2
BLOCKS
  0
BLOCK
  5
20
330
1F
100
AcDbEntity
  8
0
100
AcDbBlockBegin
  2
*Model_Space
 70
     0
 10
0.0
 20
0.0
 30
0.0
  3
*Model_Space
  1

  0
ENDBLK
  5
21
330
1F
100
AcDbEntity
  8
0
100
AcDbBlockEnd
  0
BLOCK
  5
1C
330
1B
100
AcDbEntity
 67
     1
  8
0
100
AcDbBlockBegin
  2
*Paper_Space
 70
     0
 10
0.0
 20
0.0
 30
0.0
  3
*Paper_Space
  1

  0
ENDBLK
  5
1D
330
1B
100
AcDbEntity
 67
     1
  8
0
100
AcDbBlockEnd
  0
BLOCK
  5
24
330
23
100
AcDbEntity
  8
0
100
AcDbBlockBegin
  2
*Paper_Space0
 70
     0
 10
0.0
 20
0.0
 30
0.0
  3
*Paper_Space0
  1

  0
ENDBLK
  5
25
330
23
100
AcDbEntity
  8
0
100
AcDbBlockEnd
  0
BLOCK
  5
89
330
87
100
AcDbEntity
  8
0
100
AcDbBlockBegin
  2
GENAXEH
 70
     0
 10
0.0
 20
0.0
 30
0.0
  3
GENAXEH
  1

  0
LINE
  5
88
330
87
100
AcDbEntity
  8
0
100
AcDbLine
 10
-1.0
 20
0.0
 30
0.0
 11
1.0
 21
0.0
 31
0.0
  0
ENDBLK
  5
8A
330
87
100
AcDbEntity
  8
0
100
AcDbBlockEnd
  0
BLOCK
  5
1963
330
1962
100
AcDbEntity
  8
0
100
AcDbBlockBegin
  2
SW_CENTERMARKSYMBOL_0
 70
     0
 10
0.0
 20
0.0
 30
0.0
  3
SW_CENTERMARKSYMBOL_0
  1

  0
LINE
  5
1964
330
1962
100
AcDbEntity
  8
0
  6
Continuous
 62
     0
370
     0
100
AcDbLine
 10
0.0
 20
0.0
 30
0.0
 11
0.0
 21
2.500000000000002
 31
0.0
  0
LINE
  5
1965
330
1962
100
AcDbEntity
  8
0
  6
Continuous
 62
     0
370
     0
100
AcDbLine
 10
0.0
 20
0.0
 30
0.0
 11
-2.500000000000002
 21
0.0
 31
0.0
  0
LINE
  5
1966
330
1962
100
AcDbEntity
  8
0
  6
Continuous
 62
     0
370
     0
100
AcDbLine
 10
0.0
 20
0.0
 30
0.0
 11
0.0
 21
-2.500000000000002
 31
0.0
  0
LINE
  5
1967
330
1962
100
AcDbEntity
  8
0
  6
Continuous
 62
     0
370
     0
100
AcDbLine
 10
0.0
 20
0.0
 30
0.0
 11
2.500000000000002
 21
0.0
 31
0.0
  0
LINE
  5
1968
330
1962
100
AcDbEntity
  8
0
  6
Continuous
 62
     0
370
     0
100
AcDbLine
 10
0.0
 20
5.000000000000004
 30
0.0
 11
0.0
 21
7.3
 31
0.0
  0
LINE
  5
1969
330
1962
100
AcDbEntity
  8
0
  6
Continuous
 62
     0
370
     0
100
AcDbLine
 10
-4.99999999999999
 20
0.0
 30
0.0
 11
-7.299999999999987
 21
0.0
 31
0.0
  0
LINE
  5
196A
330
1962
100
AcDbEntity
  8
0
  6
Continuous
 62
     0
370
     0
100
AcDbLine
 10
0.0
 20
-5.000000000000004
 30
0.0
 11
0.0
 21
-7.3
 31
0.0
  0
LINE
  5
196B
330
1962
100
AcDbEntity
  8
0
  6
Continuous
 62
     0
370
     0
100
AcDbLine
 10
5.000000000000004
 20
0.0
 30
0.0
 11
7.3
 21
0.0
 31
0.0
  0
ENDBLK
  5
196C
330
1962
100
AcDbEntity
  8
0
100
AcDbBlockEnd
  0
BLOCK
  5
196E
330
196D
100
AcDbEntity
  8
0
100
AcDbBlockBegin
  2
SW_CENTERMARKSYMBOL_1
 70
     0
 10
0.0
 20
0.0
 30
0.0
  3
SW_CENTERMARKSYMBOL_1
  1

  0
LINE
  5
196F
330
196D
100
AcDbEntity
  8
0
  6
Continuous
 62
     0
370
     0
100
AcDbLine
 10
0.0
 20
0.0
 30
0.0
 11
0.0
 21
2.500000000000002
 31
0.0
  0
LINE
  5
1970
330
196D
100
AcDbEntity
  8
0
  6
Continuous
 62
     0
370
     0
100
AcDbLine
 10
0.0
 20
0.0
 30
0.0
 11
-2.500000000000002
 21
0.0
 31
0.0
  0
LINE
  5
1971
330
196D
100
AcDbEntity
  8
0
  6
Continuous
 62
     0
370
     0
100
AcDbLine
 10
0.0
 20
0.0
 30
0.0
 11
0.0
 21
-2.500000000000002
 31
0.0
  0
LINE
  5
1972
330
196D
100
AcDbEntity
  8
0
  6
Continuous
 62
     0
370
     0
100
AcDbLine
 10
0.0
 20
0.0
 30
0.0
 11
2.500000000000002
 21
0.0
 31
0.0
  0
LINE
  5
1973
330
196D
100
AcDbEntity
  8
0
  6
Continuous
 62
     0
370
     0
100
AcDbLine
 10
0.0
 20
2.500000000000002
 30
0.0
 11
0.0
 21
3.750000000000003
 31
0.0
  0
LINE
  5
1974
330
196D
100
AcDbEntity
  8
0
  6
Continuous
 62
     0
370
     0
100
AcDbLine
 10
-2.500000000000002
 20
0.0
 30
0.0
 11
-3.750000000000003
 21
0.0
 31
0.0
  0
LINE
  5
1975
330
196D
100
AcDbEntity
  8
0
  6
Continuous
 62
     0
370
     0
100
AcDbLine
 10
0.0
 20
-2.500000000000002
 30
0.0
 11
0.0
 21
-3.750000000000003
 31
0.0
  0
LINE
  5
1976
330
196D
100
AcDbEntity
  8
0
  6
Continuous
 62
     0
370
     0
100
AcDbLine
 10
2.500000000000002
 20
0.0
 30
0.0
 11
3.750000000000003
 21
0.0
 31
0.0
  0
ENDBLK
  5
1977
330
196D
100
AcDbEntity
  8
0
100
AcDbBlockEnd
  0
BLOCK
  5
1979
330
1978
100
AcDbEntity
  8
0
100
AcDbBlockBegin
  2
SW_CENTERMARKSYMBOL_2
 70
     0
 10
0.0
 20
0.0
 30
0.0
  3
SW_CENTERMARKSYMBOL_2
  1

  0
LINE
  5
197A
330
1978
100
AcDbEntity
  8
0
  6
Continuous
 62
     0
370
     0
100
AcDbLine
 10
0.0
 20
0.0
 30
0.0
 11
0.0
 21
2.500000000000002
 31
0.0
  0
LINE
  5
197B
330
1978
100
AcDbEntity
  8
0
  6
Continuous
 62
     0
370
     0
100
AcDbLine
 10
0.0
 20
0.0
 30
0.0
 11
-2.500000000000002
 21
0.0
 31
0.0
  0
LINE
  5
197C
330
1978
100
AcDbEntity
  8
0
  6
Continuous
 62
     0
370
     0
100
AcDbLine
 10
0.0
 20
0.0
 30
0.0
 11
0.0
 21
-2.500000000000002
 31
0.0
  0
LINE
  5
197D
330
1978
100
AcDbEntity
  8
0
  6
Continuous
 62
     0
370
     0
100
AcDbLine
 10
0.0
 20
0.0
 30
0.0
 11
2.500000000000002
 21
0.0
 31
0.0
  0
LINE
  5
197E
330
1978
100
AcDbEntity
  8
0
  6
Continuous
 62
     0
370
     0
100
AcDbLine
 10
0.0
 20
2.500000000000002
 30
0.0
 11
0.0
 21
3.749999999999975
 31
0.0
  0
LINE
  5
197F
330
1978
100
AcDbEntity
  8
0
  6
Continuous
 62
     0
370
     0
100
AcDbLine
 10
-2.500000000000002
 20
0.0
 30
0.0
 11
-3.750000000000003
 21
0.0
 31
0.0
  0
LINE
  5
1980
330
1978
100
AcDbEntity
  8
0
  6
Continuous
 62
     0
370
     0
100
AcDbLine
 10
0.0
 20
-2.500000000000002
 30
0.0
 11
0.0
 21
-3.750000000000003
 31
0.0
  0
LINE
  5
1981
330
1978
100
AcDbEntity
  8
0
  6
Continuous
 62
     0
370
     0
100
AcDbLine
 10
2.500000000000002
 20
0.0
 30
0.0
 11
3.750000000000003
 21
0.0
 31
0.0
  0
ENDBLK
  5
1982
330
1978
100
AcDbEntity
  8
0
100
AcDbBlockEnd
  0
BLOCK
  5
1984
330
1983
100
AcDbEntity
  8
0
100
AcDbBlockBegin
  2
SW_CENTERMARKSYMBOL_3
 70
     0
 10
0.0
 20
0.0
 30
0.0
  3
SW_CENTERMARKSYMBOL_3
  1

  0
LINE
  5
1985
330
1983
100
AcDbEntity
  8
0
  6
Continuous
 62
     0
370
     0
100
AcDbLine
 10
0.0
 20
0.0
 30
0.0
 11
0.0
 21
2.500000000000002
 31
0.0
  0
LINE
  5
1986
330
1983
100
AcDbEntity
  8
0
  6
Continuous
 62
     0
370
     0
100
AcDbLine
 10
0.0
 20
0.0
 30
0.0
 11
-2.500000000000002
 21
0.0
 31
0.0
  0
LINE
  5
1987
330
1983
100
AcDbEntity
  8
0
  6
Continuous
 62
     0
370
     0
100
AcDbLine
 10
0.0
 20
0.0
 30
0.0
 11
0.0
 21
-2.500000000000002
 31
0.0
  0
LINE
  5
1988
330
1983
100
AcDbEntity
  8
0
  6
Continuous
 62
     0
370
     0
100
AcDbLine
 10
0.0
 20
0.0
 30
0.0
 11
2.500000000000002
 21
0.0
 31
0.0
  0
LINE
  5
1989
330
1983
100
AcDbEntity
  8
0
  6
Continuous
 62
     0
370
     0
100
AcDbLine
 10
0.0
 20
2.500000000000002
 30
0.0
 11
0.0
 21
4.500000000000003
 31
0.0
  0
LINE
  5
198A
330
1983
100
AcDbEntity
  8
0
  6
Continuous
 62
     0
370
     0
100
AcDbLine
 10
-2.500000000000002
 20
0.0
 30
0.0
 11
-4.499999999999976
 21
0.0
 31
0.0
  0
LINE
  5
198B
330
1983
100
AcDbEntity
  8
0
  6
Continuous
 62
     0
370
     0
100
AcDbLine
 10
0.0
 20
-2.500000000000002
 30
0.0
 11
0.0
 21
-4.500000000000003
 31
0.0
  0
LINE
  5
198C
330
1983
100
AcDbEntity
  8
0
  6
Continuous
 62
     0
370
     0
100
AcDbLine
 10
2.500000000000002
 20
0.0
 30
0.0
 11
4.500000000000003
 21
0.0
 31
0.0
  0
ENDBLK
  5
198D
330
1983
100
AcDbEntity
  8
0
100
AcDbBlockEnd
  0
BLOCK
  5
1CB2
330
1CA8
100
AcDbEntity
  8
0
100
AcDbBlockBegin
  2
*D21
 70
     1
 10
0.0
 20
0.0
 30
0.0
  3
*D21
  1

  0
LINE
  5
1DDA
330
1CA8
100
AcDbEntity
  8
AM_5
100
AcDbLine
 10
182.6271773944146
 20
150.4618993296201
 30
0.0
 11
190.574796027424
 21
150.4618993296201
 31
0.0
  0
LINE
  5
1DDB
330
1CA8
100
AcDbEntity
  8
AM_5
100
AcDbLine
 10
182.6271773944146
 20
120.4619000001723
 30
0.0
 11
190.574796027424
 21
120.4619000001723
 31
0.0
  0
LINE
  5
1DDC
330
1CA8
100
AcDbEntity
  8
AM_5
100
AcDbLine
 10
189.074796027424
 20
147.4618993296201
 30
0.0
 11
189.074796027424
 21
123.4619000001723
 31
0.0
  0
SOLID
  5
1DDD
330
1CA8
100
AcDbEntity
  8
AM_5
100
AcDbTrace
 10
188.574796027424
 20
147.4618993296201
 30
0.0
 11
189.574796027424
 21
147.4618993296201
 31
0.0
 12
189.074796027424
 22
150.4618993296201
 32
0.0
 13
189.074796027424
 23
150.4618993296201
 33
0.0
  0
SOLID
  5
1DDE
330
1CA8
100
AcDbEntity
  8
AM_5
100
AcDbTrace
 10
188.574796027424
 20
123.4619000001723
 30
0.0
 11
189.574796027424
 21
123.4619000001723
 31
0.0
 12
189.074796027424
 22
120.4619000001723
 32
0.0
 13
189.074796027424
 23
120.4619000001723
 33
0.0
  0
MTEXT
  5
1DDF
330
1CA8
100
AcDbEntity
  8
AM_5
100
AcDbMText
 10
186.574796027424
 20
135.4618996648964
 30
0.0
 40
3.0
 41
0.0
 71
     5
 72
     1
  1
30
  7
CHINESET
 11
0.0000000000000001
 21
1.0
 31
0.0
 73
     1
 44
1.0
1001
ACAD
1000
MTEXTBEGIN
1070
    73
1070
     1
1070
    44
1040
1.0
1070
    74
1070
     0
1000
MTEXTEND
  0
POINT
  5
1DE0
330
1CA8
100
AcDbEntity
  8
Defpoints
 62
     0
100
AcDbPoint
 10
181.1271773944146
 20
150.4618993296201
 30
0.0
  0
POINT
  5
1DE1
330
1CA8
100
AcDbEntity
  8
Defpoints
 62
     0
100
AcDbPoint
 10
181.1271773944146
 20
120.4619000001723
 30
0.0
  0
POINT
  5
1DE2
330
1CA8
100
AcDbEntity
  8
Defpoints
 62
     0
100
AcDbPoint
 10
189.074796027424
 20
120.4619000001723
 30
0.0
  0
ENDBLK
  5
1CB3
330
1CA8
100
AcDbEntity
  8
0
100
AcDbBlockEnd
  0
BLOCK
  5
1CBE
330
1CB4
100
AcDbEntity
  8
0
100
AcDbBlockBegin
  2
*D22
 70
     1
 10
0.0
 20
0.0
 30
0.0
  3
*D22
  1

  0
LINE
  5
1DE3
330
1CB4
100
AcDbEntity
  8
AM_5
100
AcDbLine
 10
152.6271770442373
 20
150.4618996648962
 30
0.0
 11
152.6271770442373
 21
157.5373439277099
 31
0.0
  0
LINE
  5
1DE4
330
1CB4
100
AcDbEntity
  8
AM_5
100
AcDbLine
 10
182.6271767089612
 20
150.4619000150735
 30
0.0
 11
182.6271767089612
 21
157.5373439277099
 31
0.0
  0
LINE
  5
1DE5
330
1CB4
100
AcDbEntity
  8
AM_5
100
AcDbLine
 10
155.6271770442373
 20
156.0373439277099
 30
0.0
 11
179.6271767089612
 21
156.0373439277099
 31
0.0
  0
SOLID
  5
1DE6
330
1CB4
100
AcDbEntity
  8
AM_5
100
AcDbTrace
 10
155.6271770442373
 20
156.5373439277099
 30
0.0
 11
155.6271770442373
 21
155.5373439277099
 31
0.0
 12
152.6271770442373
 22
156.0373439277099
 32
0.0
 13
152.6271770442373
 23
156.0373439277099
 33
0.0
  0
SOLID
  5
1DE7
330
1CB4
100
AcDbEntity
  8
AM_5
100
AcDbTrace
 10
179.6271767089612
 20
156.5373439277099
 30
0.0
 11
179.6271767089612
 21
155.5373439277099
 31
0.0
 12
182.6271767089612
 22
156.0373439277099
 32
0.0
 13
182.6271767089612
 23
156.0373439277099
 33
0.0
  0
MTEXT
  5
1DE8
330
1CB4
100
AcDbEntity
  8
AM_5
100
AcDbMText
 10
167.6271768765992
 20
158.5373439277099
 30
0.0
 40
3.0
 41
0.0
 71
     5
 72
     1
  1
30
  7
CHINESET
 73
     1
 44
1.0
1001
ACAD
1000
MTEXTBEGIN
1070
    73
1070
     1
1070
    44
1040
1.0
1070
    74
1070
     0
1000
MTEXTEND
  0
POINT
  5
1DE9
330
1CB4
100
AcDbEntity
  8
Defpoints
 62
     0
100
AcDbPoint
 10
152.6271770442373
 20
148.9618996648962
 30
0.0
  0
POINT
  5
1DEA
330
1CB4
100
AcDbEntity
  8
Defpoints
 62
     0
100
AcDbPoint
 10
182.6271767089612
 20
148.9619000150735
 30
0.0
  0
POINT
  5
1DEB
330
1CB4
100
AcDbEntity
  8
Defpoints
 62
     0
100
AcDbPoint
 10
182.6271767089612
 20
156.0373439277099
 30
0.0
  0
ENDBLK
  5
1CBF
330
1CB4
100
AcDbEntity
  8
0
100
AcDbBlockEnd
  0
BLOCK
  5
1CCA
330
1CC0
100
AcDbEntity
  8
0
100
AcDbBlockBegin
  2
*D23
 70
     1
 10
0.0
 20
0.0
 30
0.0
  3
*D23
  1

  0
LINE
  5
1DEC
330
1CC0
100
AcDbEntity
  8
AM_5
100
AcDbLine
 10
172.1271770703143
 20
214.9951966034611
 30
0.0
 11
191.3189023604559
 21
214.9951966034611
 31
0.0
  0
LINE
  5
1DED
330
1CC0
100
AcDbEntity
  8
AM_5
100
AcDbLine
 10
172.1271770703143
 20
205.9951960595687
 30
0.0
 11
191.3189023604559
 21
205.9951960595687
 31
0.0
  0
LINE
  5
1DEE
330
1CC0
100
AcDbEntity
  8
AM_5
100
AcDbLine
 10
189.8189023604558
 20
211.9951966034611
 30
0.0
 11
189.8189023604558
 21
208.9951960595687
 31
0.0
  0
SOLID
  5
1DEF
330
1CC0
100
AcDbEntity
  8
AM_5
100
AcDbTrace
 10
189.3189023604558
 20
211.9951966034611
 30
0.0
 11
190.3189023604559
 21
211.9951966034611
 31
0.0
 12
189.8189023604558
 22
214.9951966034611
 32
0.0
 13
189.8189023604558
 23
214.9951966034611
 33
0.0
  0
SOLID
  5
1DF0
330
1CC0
100
AcDbEntity
  8
AM_5
100
AcDbTrace
 10
189.3189023604558
 20
208.9951960595687
 30
0.0
 11
190.3189023604559
 21
208.9951960595687
 31
0.0
 12
189.8189023604558
 22
205.9951960595687
 32
0.0
 13
189.8189023604558
 23
205.9951960595687
 33
0.0
  0
MTEXT
  5
1DF1
330
1CC0
100
AcDbEntity
  8
AM_5
100
AcDbMText
 10
187.3189023604558
 20
210.4951963315151
 30
0.0
 40
3.0
 41
0.0
 71
     5
 72
     1
  1
9
  7
CHINESET
 11
0.0000000000000001
 21
1.0
 31
0.0
 73
     1
 44
1.0
1001
ACAD
1000
MTEXTBEGIN
1070
    73
1070
     1
1070
    44
1040
1.0
1070
    74
1070
     0
1000
MTEXTEND
  0
POINT
  5
1DF2
330
1CC0
100
AcDbEntity
  8
Defpoints
 62
     0
100
AcDbPoint
 10
170.6271770703143
 20
214.9951966034611
 30
0.0
  0
POINT
  5
1DF3
330
1CC0
100
AcDbEntity
  8
Defpoints
 62
     0
100
AcDbPoint
 10
170.6271770703143
 20
205.9951960595687
 30
0.0
  0
POINT
  5
1DF4
330
1CC0
100
AcDbEntity
  8
Defpoints
 62
     0
100
AcDbPoint
 10
189.8189023604558
 20
205.9951960595687
 30
0.0
  0
ENDBLK
  5
1CCB
330
1CC0
100
AcDbEntity
  8
0
100
AcDbBlockEnd
  0
BLOCK
  5
1CD6
330
1CCC
100
AcDbEntity
  8
0
100
AcDbBlockBegin
  2
*D24
 70
     1
 10
0.0
 20
0.0
 30
0.0
  3
*D24
  1

  0
LINE
  5
1DF5
330
1CCC
100
AcDbEntity
  8
AM_5
100
AcDbLine
 10
160.1271772118754
 20
199.9951971846064
 30
0.0
 11
160.1271772118754
 21
182.3702216915789
 31
0.0
  0
LINE
  5
1DF6
330
1CCC
100
AcDbEntity
  8
AM_5
100
AcDbLine
 10
175.1271768765992
 20
199.9951971846064
 30
0.0
 11
175.1271768765992
 21
182.3702216915789
 31
0.0
  0
LINE
  5
1DF7
330
1CCC
100
AcDbEntity
  8
AM_5
100
AcDbLine
 10
163.1271772118754
 20
183.8702216915789
 30
0.0
 11
172.1271768765992
 21
183.8702216915789
 31
0.0
  0
SOLID
  5
1DF8
330
1CCC
100
AcDbEntity
  8
AM_5
100
AcDbTrace
 10
163.1271772118754
 20
184.3702216915789
 30
0.0
 11
163.1271772118754
 21
183.3702216915789
 31
0.0
 12
160.1271772118754
 22
183.8702216915789
 32
0.0
 13
160.1271772118754
 23
183.8702216915789
 33
0.0
  0
SOLID
  5
1DF9
330
1CCC
100
AcDbEntity
  8
AM_5
100
AcDbTrace
 10
172.1271768765992
 20
184.3702216915789
 30
0.0
 11
172.1271768765992
 21
183.3702216915789
 31
0.0
 12
175.1271768765992
 22
183.8702216915789
 32
0.0
 13
175.1271768765992
 23
183.8702216915789
 33
0.0
  0
MTEXT
  5
1DFA
330
1CCC
100
AcDbEntity
  8
AM_5
100
AcDbMText
 10
167.6271770442373
 20
186.370221691579
 30
0.0
 40
3.0
 41
0.0
 71
     5
 72
     1
  1
15
  7
CHINESET
 73
     1
 44
1.0
1001
ACAD
1000
MTEXTBEGIN
1070
    73
1070
     1
1070
    44
1040
1.0
1070
    74
1070
     0
1000
MTEXTEND
  0
POINT
  5
1DFB
330
1CCC
100
AcDbEntity
  8
Defpoints
 62
     0
100
AcDbPoint
 10
160.1271772118754
 20
201.4951971846064
 30
0.0
  0
POINT
  5
1DFC
330
1CCC
100
AcDbEntity
  8
Defpoints
 62
     0
100
AcDbPoint
 10
175.1271768765992
 20
201.4951971846064
 30
0.0
  0
POINT
  5
1DFD
330
1CCC
100
AcDbEntity
  8
Defpoints
 62
     0
100
AcDbPoint
 10
175.1271768765992
 20
183.8702216915789
 30
0.0
  0
ENDBLK
  5
1CD7
330
1CCC
100
AcDbEntity
  8
0
100
AcDbBlockEnd
  0
BLOCK
  5
1CE2
330
1CD8
100
AcDbEntity
  8
0
100
AcDbBlockBegin
  2
*D25
 70
     1
 10
0.0
 20
0.0
 30
0.0
  3
*D25
  1

  0
LINE
  5
1DFE
330
1CD8
100
AcDbEntity
  8
AM_5
100
AcDbLine
 10
157.1271771857983
 20
199.9951971846064
 30
0.0
 11
157.1271771857983
 21
175.7434950133442
 31
0.0
  0
LINE
  5
1DFF
330
1CD8
100
AcDbEntity
  8
AM_5
100
AcDbLine
 10
178.1271769026763
 20
199.9951971846064
 30
0.0
 11
178.1271769026763
 21
175.7434950133442
 31
0.0
  0
LINE
  5
1E00
330
1CD8
100
AcDbEntity
  8
AM_5
100
AcDbLine
 10
160.1271771857983
 20
177.2434950133442
 30
0.0
 11
175.1271769026763
 21
177.2434950133442
 31
0.0
  0
SOLID
  5
1E01
330
1CD8
100
AcDbEntity
  8
AM_5
100
AcDbTrace
 10
160.1271771857983
 20
177.7434950133442
 30
0.0
 11
160.1271771857983
 21
176.7434950133442
 31
0.0
 12
157.1271771857983
 22
177.2434950133442
 32
0.0
 13
157.1271771857983
 23
177.2434950133442
 33
0.0
  0
SOLID
  5
1E02
330
1CD8
100
AcDbEntity
  8
AM_5
100
AcDbTrace
 10
175.1271769026763
 20
177.7434950133442
 30
0.0
 11
175.1271769026763
 21
176.7434950133442
 31
0.0
 12
178.1271769026763
 22
177.2434950133442
 32
0.0
 13
178.1271769026763
 23
177.2434950133442
 33
0.0
  0
MTEXT
  5
1E03
330
1CD8
100
AcDbEntity
  8
AM_5
100
AcDbMText
 10
167.6344995087571
 20
179.7434950133442
 30
0.0
 40
3.0
 41
0.0
 71
     5
 72
     1
  1
21
  7
CHINESET
 73
     1
 44
1.0
1001
ACAD
1000
MTEXTBEGIN
1070
    73
1070
     1
1070
    44
1040
1.0
1070
    74
1070
     0
1000
MTEXTEND
  0
POINT
  5
1E04
330
1CD8
100
AcDbEntity
  8
Defpoints
 62
     0
100
AcDbPoint
 10
157.1271771857983
 20
201.4951971846064
 30
0.0
  0
POINT
  5
1E05
330
1CD8
100
AcDbEntity
  8
Defpoints
 62
     0
100
AcDbPoint
 10
178.1271769026763
 20
201.4951971846064
 30
0.0
  0
POINT
  5
1E06
330
1CD8
100
AcDbEntity
  8
Defpoints
 62
     0
100
AcDbPoint
 10
178.1271769026763
 20
177.2434950133442
 30
0.0
  0
ENDBLK
  5
1CE3
330
1CD8
100
AcDbEntity
  8
0
100
AcDbBlockEnd
  0
BLOCK
  5
1CEE
330
1CE4
100
AcDbEntity
  8
0
100
AcDbBlockBegin
  2
*D26
 70
     1
 10
0.0
 20
0.0
 30
0.0
  3
*D26
  1

  0
LINE
  5
1E07
330
1CE4
100
AcDbEntity
  8
AM_5
100
AcDbLine
 10
234.1846593961594
 20
227.9451964097461
 30
0.0
 11
234.1846593961594
 21
239.9451964097461
 31
0.0
  0
LINE
  5
1E08
330
1CE4
100
AcDbEntity
  8
AM_5
100
AcDbLine
 10
214.1846593961594
 20
207.9451964097461
 30
0.0
 11
214.1846593961594
 21
239.9451964097461
 31
0.0
  0
LINE
  5
1E09
330
1CE4
100
AcDbEntity
  8
AM_5
100
AcDbLine
 10
231.1846593961594
 20
238.4451964097461
 30
0.0
 11
217.1846593961594
 21
238.4451964097461
 31
0.0
  0
SOLID
  5
1E0A
330
1CE4
100
AcDbEntity
  8
AM_5
100
AcDbTrace
 10
231.1846593961594
 20
238.9451964097461
 30
0.0
 11
231.1846593961594
 21
237.9451964097461
 31
0.0
 12
234.1846593961594
 22
238.4451964097461
 32
0.0
 13
234.1846593961594
 23
238.4451964097461
 33
0.0
  0
SOLID
  5
1E0B
330
1CE4
100
AcDbEntity
  8
AM_5
100
AcDbTrace
 10
217.1846593961594
 20
238.9451964097461
 30
0.0
 11
217.1846593961594
 21
237.9451964097461
 31
0.0
 12
214.1846593961594
 22
238.4451964097461
 32
0.0
 13
214.1846593961594
 23
238.4451964097461
 33
0.0
  0
MTEXT
  5
1E0C
330
1CE4
100
AcDbEntity
  8
AM_5
100
AcDbMText
 10
224.1846593961594
 20
240.9451964097461
 30
0.0
 40
3.0
 41
0.0
 71
     5
 72
     1
  1
20
  7
CHINESET
 73
     1
 44
1.0
1001
ACAD
1000
MTEXTBEGIN
1070
    73
1070
     1
1070
    44
1040
1.0
1070
    74
1070
     0
1000
MTEXTEND
  0
POINT
  5
1E0D
330
1CE4
100
AcDbEntity
  8
Defpoints
 62
     0
100
AcDbPoint
 10
234.1846593961594
 20
226.4451964097461
 30
0.0
  0
POINT
  5
1E0E
330
1CE4
100
AcDbEntity
  8
Defpoints
 62
     0
100
AcDbPoint
 10
214.1846593961594
 20
206.4451964097461
 30
0.0
  0
POINT
  5
1E0F
330
1CE4
100
AcDbEntity
  8
Defpoints
 62
     0
100
AcDbPoint
 10
214.1846593961594
 20
238.4451964097461
 30
0.0
  0
ENDBLK
  5
1CEF
330
1CE4
100
AcDbEntity
  8
0
100
AcDbBlockEnd
  0
BLOCK
  5
1CFA
330
1CF0
100
AcDbEntity
  8
0
100
AcDbBlockBegin
  2
*D27
 70
     1
 10
0.0
 20
0.0
 30
0.0
  3
*D27
  1

  0
LINE
  5
1E10
330
1CF0
100
AcDbEntity
  8
AM_5
100
AcDbLine
 10
219.4346593961594
 20
202.6951964097461
 30
0.0
 11
251.4346593961594
 21
202.6951964097461
 31
0.0
  0
LINE
  5
1E11
330
1CF0
100
AcDbEntity
  8
AM_5
100
AcDbLine
 10
239.4346593961594
 20
222.6951964097461
 30
0.0
 11
251.4346593961594
 21
222.6951964097461
 31
0.0
  0
LINE
  5
1E12
330
1CF0
100
AcDbEntity
  8
AM_5
100
AcDbLine
 10
249.9346593961594
 20
205.6951964097461
 30
0.0
 11
249.9346593961594
 21
219.6951964097461
 31
0.0
  0
SOLID
  5
1E13
330
1CF0
100
AcDbEntity
  8
AM_5
100
AcDbTrace
 10
249.4346593961594
 20
205.6951964097461
 30
0.0
 11
250.4346593961594
 21
205.6951964097461
 31
0.0
 12
249.9346593961594
 22
202.6951964097461
 32
0.0
 13
249.9346593961594
 23
202.6951964097461
 33
0.0
  0
SOLID
  5
1E14
330
1CF0
100
AcDbEntity
  8
AM_5
100
AcDbTrace
 10
249.4346593961594
 20
219.6951964097461
 30
0.0
 11
250.4346593961594
 21
219.6951964097461
 31
0.0
 12
249.9346593961594
 22
222.6951964097461
 32
0.0
 13
249.9346593961594
 23
222.6951964097461
 33
0.0
  0
MTEXT
  5
1E15
330
1CF0
100
AcDbEntity
  8
AM_5
100
AcDbMText
 10
247.4346593961594
 20
212.6951964097461
 30
0.0
 40
3.0
 41
0.0
 71
     5
 72
     1
  1
20
  7
CHINESET
 11
0.0000000000000001
 21
1.0
 31
0.0
 73
     1
 44
1.0
1001
ACAD
1000
MTEXTBEGIN
1070
    73
1070
     1
1070
    44
1040
1.0
1070
    74
1070
     0
1000
MTEXTEND
  0
POINT
  5
1E16
330
1CF0
100
AcDbEntity
  8
Defpoints
 62
     0
100
AcDbPoint
 10
217.9346593961594
 20
202.6951964097461
 30
0.0
  0
POINT
  5
1E17
330
1CF0
100
AcDbEntity
  8
Defpoints
 62
     0
100
AcDbPoint
 10
237.9346593961594
 20
222.6951964097461
 30
0.0
  0
POINT
  5
1E18
330
1CF0
100
AcDbEntity
  8
Defpoints
 62
     0
100
AcDbPoint
 10
249.9346593961594
 20
222.6951964097461
 30
0.0
  0
ENDBLK
  5
1CFB
330
1CF0
100
AcDbEntity
  8
0
100
AcDbBlockEnd
  0
BLOCK
  5
1D06
330
1CFC
100
AcDbEntity
  8
0
100
AcDbBlockBegin
  2
*D28
 70
     1
 10
0.0
 20
0.0
 30
0.0
  3
*D28
  1

  0
LINE
  5
1E19
330
1CFC
100
AcDbEntity
  8
AM_5
100
AcDbLine
 10
209.1846593961594
 20
150.4619000150735
 30
0.0
 11
209.1846593961594
 21
157.5373439277099
 31
0.0
  0
LINE
  5
1E1A
330
1CFC
100
AcDbEntity
  8
AM_5
100
AcDbLine
 10
230.9846596166966
 20
151.9618993296201
 30
0.0
 11
230.9846596166966
 21
157.5373439277099
 31
0.0
  0
LINE
  5
1E1B
330
1CFC
100
AcDbEntity
  8
AM_5
100
AcDbLine
 10
212.1846593961594
 20
156.0373439277099
 30
0.0
 11
227.9846596166966
 21
156.0373439277099
 31
0.0
  0
SOLID
  5
1E1C
330
1CFC
100
AcDbEntity
  8
AM_5
100
AcDbTrace
 10
212.1846593961594
 20
156.5373439277099
 30
0.0
 11
212.1846593961594
 21
155.5373439277099
 31
0.0
 12
209.1846593961594
 22
156.0373439277099
 32
0.0
 13
209.1846593961594
 23
156.0373439277099
 33
0.0
  0
SOLID
  5
1E1D
330
1CFC
100
AcDbEntity
  8
AM_5
100
AcDbTrace
 10
227.9846596166966
 20
156.5373439277099
 30
0.0
 11
227.9846596166966
 21
155.5373439277099
 31
0.0
 12
230.9846596166966
 22
156.0373439277099
 32
0.0
 13
230.9846596166966
 23
156.0373439277099
 33
0.0
  0
MTEXT
  5
1E1E
330
1CFC
100
AcDbEntity
  8
AM_5
100
AcDbMText
 10
220.084659506428
 20
158.5373439277099
 30
0.0
 40
3.0
 41
0.0
 71
     5
 72
     1
  1
21.8
  7
CHINESET
 73
     1
 44
1.0
1001
ACAD
1000
MTEXTBEGIN
1070
    73
1070
     1
1070
    44
1040
1.0
1070
    74
1070
     0
1000
MTEXTEND
  0
POINT
  5
1E1F
330
1CFC
100
AcDbEntity
  8
Defpoints
 62
     0
100
AcDbPoint
 10
209.1846593961594
 20
148.9619000150735
 30
0.0
  0
POINT
  5
1E20
330
1CFC
100
AcDbEntity
  8
Defpoints
 62
     0
100
AcDbPoint
 10
230.9846596166966
 20
150.4618993296201
 30
0.0
  0
POINT
  5
1E21
330
1CFC
100
AcDbEntity
  8
Defpoints
 62
     0
100
AcDbPoint
 10
230.9846596166966
 20
156.0373439277099
 30
0.0
  0
ENDBLK
  5
1D07
330
1CFC
100
AcDbEntity
  8
0
100
AcDbBlockEnd
  0
BLOCK
  5
1D12
330
1D08
100
AcDbEntity
  8
0
100
AcDbBlockBegin
  2
*D29
 70
     1
 10
0.0
 20
0.0
 30
0.0
  3
*D29
  1

  0
LINE
  5
1E22
330
1D08
100
AcDbEntity
  8
AM_5
100
AcDbLine
 10
209.1846593961594
 20
150.4619000150735
 30
0.0
 11
209.1846593961594
 21
165.1444130659051
 31
0.0
  0
LINE
  5
1E23
330
1D08
100
AcDbEntity
  8
AM_5
100
AcDbLine
 10
245.9846592814205
 20
140.8958742066199
 30
0.0
 11
245.9846592814205
 21
165.1444130659051
 31
0.0
  0
LINE
  5
1E24
330
1D08
100
AcDbEntity
  8
AM_5
100
AcDbLine
 10
212.1846593961594
 20
163.6444130659051
 30
0.0
 11
242.9846592814205
 21
163.6444130659051
 31
0.0
  0
SOLID
  5
1E25
330
1D08
100
AcDbEntity
  8
AM_5
100
AcDbTrace
 10
212.1846593961594
 20
164.1444130659051
 30
0.0
 11
212.1846593961594
 21
163.1444130659051
 31
0.0
 12
209.1846593961594
 22
163.6444130659051
 32
0.0
 13
209.1846593961594
 23
163.6444130659051
 33
0.0
  0
SOLID
  5
1E26
330
1D08
100
AcDbEntity
  8
AM_5
100
AcDbTrace
 10
242.9846592814205
 20
164.1444130659051
 30
0.0
 11
242.9846592814205
 21
163.1444130659051
 31
0.0
 12
245.9846592814205
 22
163.6444130659051
 32
0.0
 13
245.9846592814205
 23
163.6444130659051
 33
0.0
  0
MTEXT
  5
1E27
330
1D08
100
AcDbEntity
  8
AM_5
100
AcDbMText
 10
227.58465933879
 20
166.1444130659051
 30
0.0
 40
3.0
 41
0.0
 71
     5
 72
     1
  1
36.8
  7
CHINESET
 73
     1
 44
1.0
1001
ACAD
1000
MTEXTBEGIN
1070
    73
1070
     1
1070
    44
1040
1.0
1070
    74
1070
     0
1000
MTEXTEND
  0
POINT
  5
1E28
330
1D08
100
AcDbEntity
  8
Defpoints
 62
     0
100
AcDbPoint
 10
209.1846593961594
 20
148.9619000150735
 30
0.0
  0
POINT
  5
1E29
330
1D08
100
AcDbEntity
  8
Defpoints
 62
     0
100
AcDbPoint
 10
245.9846592814205
 20
139.3958742066199
 30
0.0
  0
POINT
  5
1E2A
330
1D08
100
AcDbEntity
  8
Defpoints
 62
     0
100
AcDbPoint
 10
245.9846592814205
 20
163.6444130659051
 30
0.0
  0
ENDBLK
  5
1D13
330
1D08
100
AcDbEntity
  8
0
100
AcDbBlockEnd
  0
BLOCK
  5
1D20
330
1D14
100
AcDbEntity
  8
0
100
AcDbBlockBegin
  2
*D30
 70
     1
 10
0.0
 20
0.0
 30
0.0
  3
*D30
  1

  0
LINE
  5
1E2B
330
1D14
100
AcDbEntity
  8
AM_5
100
AcDbLine
 10
164.6271770181603
 20
204.4951960595688
 30
0.0
 11
164.6271770181603
 21
189.2364681564847
 31
0.0
  0
LINE
  5
1E2C
330
1D14
100
AcDbEntity
  8
AM_5
100
AcDbLine
 10
170.6271770703143
 20
204.4951960595688
 30
0.0
 11
170.6271770703143
 21
189.2364681564847
 31
0.0
  0
LINE
  5
1E2D
330
1D14
100
AcDbEntity
  8
AM_5
100
AcDbLine
 10
161.6271770181603
 20
190.7364681564847
 30
0.0
 11
158.6271770181603
 21
190.7364681564847
 31
0.0
  0
LINE
  5
1E2E
330
1D14
100
AcDbEntity
  8
AM_5
100
AcDbLine
 10
173.6271770703143
 20
190.7364681564847
 30
0.0
 11
176.6271770703143
 21
190.7364681564847
 31
0.0
  0
LINE
  5
1E2F
330
1D14
100
AcDbEntity
  8
AM_5
100
AcDbLine
 10
164.6271770181603
 20
190.7364681564847
 30
0.0
 11
170.6271770703143
 21
190.7364681564847
 31
0.0
  0
SOLID
  5
1E30
330
1D14
100
AcDbEntity
  8
AM_5
100
AcDbTrace
 10
161.6271770181603
 20
191.2364681564847
 30
0.0
 11
161.6271770181603
 21
190.2364681564847
 31
0.0
 12
164.6271770181603
 22
190.7364681564847
 32
0.0
 13
164.6271770181603
 23
190.7364681564847
 33
0.0
  0
SOLID
  5
1E31
330
1D14
100
AcDbEntity
  8
AM_5
100
AcDbTrace
 10
173.6271770703143
 20
191.2364681564847
 30
0.0
 11
173.6271770703143
 21
190.2364681564847
 31
0.0
 12
170.6271770703143
 22
190.7364681564847
 32
0.0
 13
170.6271770703143
 23
190.7364681564847
 33
0.0
  0
MTEXT
  5
1E32
330
1D14
100
AcDbEntity
  8
AM_5
100
AcDbMText
 10
167.6271770442373
 20
193.2364681564847
 30
0.0
 40
3.0
 41
0.0
 71
     5
 72
     1
  1
6
  7
CHINESET
 73
     1
 44
1.0
1001
ACAD
1000
MTEXTBEGIN
1070
    73
1070
     1
1070
    44
1040
1.0
1070
    74
1070
     0
1000
MTEXTEND
  0
POINT
  5
1E33
330
1D14
100
AcDbEntity
  8
Defpoints
 62
     0
100
AcDbPoint
 10
164.6271770181603
 20
205.9951960595687
 30
0.0
  0
POINT
  5
1E34
330
1D14
100
AcDbEntity
  8
Defpoints
 62
     0
100
AcDbPoint
 10
170.6271770703143
 20
205.9951960595687
 30
0.0
  0
POINT
  5
1E35
330
1D14
100
AcDbEntity
  8
Defpoints
 62
     0
100
AcDbPoint
 10
170.6271770703143
 20
190.7364681564847
 30
0.0
  0
ENDBLK
  5
1D21
330
1D14
100
AcDbEntity
  8
0
100
AcDbBlockEnd
  0
ENDSEC
  0
SECTION
  2
ENTITIES
  0
LWPOLYLINE
  5
174D
330
1F
100
AcDbEntity
  8
LOGO
 62
     4
100
AcDbPolyline
 90
        4
 70
     1
 43
0.0
 10
105.5781890425875
 20
99.23094636617506
 10
287.8066131194677
 20
99.23094636617506
 10
287.8066131194677
 20
258.985979390809
 10
105.5781890425875
 20
258.985979390809
1001
GENIUS_GENREC_14
1002
{
1000
PYDIR
1011
105.5781890425875
1021
258.985979390809
1031
0.0
1002
}
1002
{
1000
PXDIR
1011
287.8066131194677
1021
99.23094636617506
1031
0.0
1002
}
1002
{
1000
PORI
1011
105.5781890425875
1021
99.23094636617506
1031
0.0
1002
}
1002
{
1000
PINS
1011
105.5781890425875
1021
99.23094636617506
1031
0.0
1002
}
1002
{
1000
PINS2
1011
287.8066131194677
1021
258.985979390809
1031
0.0
1002
}
1002
{
1000
C
1070
     1
1002
}
1001
GENIUS_GENODEF_13
1002
{
1000
HIER
1070
     0
1002
}
1002
{
1000
MANEDIT
1070
     0
1002
}
1002
{
1000
NOSEL
1070
     0
1002
}
1002
{
1000
BEHIND
1070
     0
1002
}
1002
{
1000
OTHER
1070
     0
1002
}
1002
{
1000
REACTOR
1002
}
1001
GENIUS_GENOBJ-N-REC_13
1002
{
1000
OWNER
1000
GEN
1002
}
  0
LWPOLYLINE
  5
174E
330
1F
100
AcDbEntity
  8
LOGO
 62
     4
100
AcDbPolyline
 90
        4
 70
     1
 43
0.0
 10
105.5781890425875
 20
99.23094636617506
 10
287.8066131194677
 20
99.23094636617506
 10
287.8066131194677
 20
79.23384229377652
 10
105.5781890425875
 20
79.23384229377652
1001
GENIUS_GENREC_14
1002
{
1000
PYDIR
1011
105.5781890425875
1021
79.23384229377652
1031
0.0
1002
}
1002
{
1000
PXDIR
1011
287.8066131194677
1021
99.23094636617506
1031
0.0
1002
}
1002
{
1000
PORI
1011
105.5781890425875
1021
99.23094636617506
1031
0.0
1002
}
1002
{
1000
PINS
1011
105.5781890425875
1021
99.23094636617506
1031
0.0
1002
}
1002
{
1000
PINS2
1011
287.8066131194677
1021
79.23384229377652
1031
0.0
1002
}
1002
{
1000
C
1070
     1
1002
}
1001
GENIUS_GENOBJ-N-REC_13
1002
{
1000
OWNER
1000
GEN
1002
}
1001
GENIUS_GENODEF_13
1002
{
1000
HIER
1070
     0
1002
}
1002
{
1000
MANEDIT
1070
     0
1002
}
1002
{
1000
NOSEL
1070
     0
1002
}
1002
{
1000
BEHIND
1070
     0
1002
}
1002
{
1000
OTHER
1070
     0
1002
}
1002
{
1000
REACTOR
1002
}
  0
TEXT
  5
174F
330
1F
100
AcDbEntity
  8
LOGO
 62
     7
100
AcDbText
 10
150.7303259412948
 20
90.47055535186004
 30
0.0
 40
2.666280542986425
  1
Order example:
 41
0.8
  7
CHINESET
100
AcDbText
  0
TEXT
  5
1750
330
1F
100
AcDbEntity
  8
LOGO
 62
     7
100
AcDbText
 10
151.2086787199497
 20
94.22412629595427
 30
0.0
 40
3.999420814479637
  1
訂購代號：
  7
CHINESET
100
AcDbText
  0
LINE
  5
1751
330
1F
100
AcDbEntity
  8
LOGO
 62
     4
100
AcDbLine
 10
149.5718180018635
 20
79.23384229377674
 30
0.0
 11
149.5718180018635
 21
99.23094636617506
 31
0.0
  0
TEXT
  5
1752
330
1F
100
AcDbEntity
  8
LOGO
  6
Continuous
100
AcDbText
 10
112.7612387141149
 20
83.16224321053809
 30
0.0
 40
2.999565610859728
  1
金器工業股份有限公司
  7
CHINESET
100
AcDbText
  0
TEXT
  5
1753
330
1F
100
AcDbEntity
  8
LOGO
  6
Continuous
100
AcDbText
 10
107.2516301217566
 20
80.16208991999368
 30
0.0
 40
1.999710407239818
  1
MINDMAN INDUSTRIAL CO., LTD.
 41
0.85
  7
CHINESET
100
AcDbText
  0
LINE
  5
1754
330
1F
100
AcDbEntity
  8
LOGO
 62
     4
100
AcDbLine
 10
149.5718180018635
 20
95.2315255516954
 30
0.0
 11
120.2427320290127
 21
95.2315255516954
 31
0.0
  0
LINE
  5
1755
330
1F
100
AcDbEntity
  8
LOGO
 62
     4
100
AcDbLine
 10
149.5718180018635
 20
91.23210473721574
 30
0.0
 11
120.2427320290127
 21
91.23210473721574
 31
0.0
  0
LINE
  5
1756
330
1F
100
AcDbEntity
  8
LOGO
 62
     4
100
AcDbLine
 10
149.5718180018635
 20
87.23268392273629
 30
0.0
 11
105.5781890425875
 21
87.23268392273629
 31
0.0
  0
LINE
  5
1757
330
1F
100
AcDbEntity
  8
LOGO
 62
     4
100
AcDbLine
 10
120.2427320290127
 20
87.23268392273629
 30
0.0
 11
120.2427320290127
 21
99.23094636617506
 31
0.0
  0
TEXT
  5
1758
330
1F
100
AcDbEntity
  8
LOGO
100
AcDbText
 10
140.287777979684
 20
88.23253912635587
 30
0.0
 40
1.999710407239818
  1
mm
  7
CHINESET
 72
     1
 11
142.7636099124571
 21
89.23239432997579
 31
0.0
100
AcDbText
 73
     2
  0
TEXT
  5
1759
330
1F
100
AcDbEntity
  8
LOGO
100
AcDbText
 10
139.2403106235107
 20
96.23138075531521
 30
0.0
 40
1.999710407239818
  1
1 : 1
  7
CHINESET
 72
     1
 11
142.7636099124571
 21
97.23123595893511
 31
0.0
100
AcDbText
 73
     2
  0
LINE
  5
175A
330
1F
100
AcDbEntity
  8
LOGO
 62
     4
100
AcDbLine
 10
136.2404152869313
 20
87.23268392273629
 30
0.0
 11
136.2404152869313
 21
99.23094636617506
 31
0.0
  0
CIRCLE
  5
175B
330
1F
100
AcDbEntity
  8
LOGO
  6
Continuous
100
AcDbCircle
 10
139.9431292257596
 20
93.23609253965022
 30
0.0
 40
1.161078930320631
  0
CIRCLE
  5
175C
330
1F
100
AcDbEntity
  8
LOGO
  6
Continuous
100
AcDbCircle
 10
139.9431292257596
 20
93.23609253965022
 30
0.0
 40
0.6802894686655972
  0
LINE
  5
175D
330
1F
100
AcDbEntity
  8
LOGO
100
AcDbLine
 10
147.2394839497962
 20
92.07501360932937
 30
0.0
 11
147.2394839497962
 21
94.39717146997109
 31
0.0
  0
LINE
  5
175E
330
1F
100
AcDbEntity
  8
LOGO
100
AcDbLine
 10
143.5995681523519
 20
92.55580307098474
 30
0.0
 11
143.5995681523519
 21
93.91638200831593
 31
0.0
  0
LINE
  5
175F
330
1F
100
AcDbEntity
  8
LOGO
  6
Continuous
100
AcDbLine
 10
143.5995681523519
 20
93.91638200831593
 30
0.0
 11
147.2394839497962
 21
94.39717146997109
 31
0.0
  0
LINE
  5
1760
330
1F
100
AcDbEntity
  8
LOGO
  6
Continuous
100
AcDbLine
 10
143.5995681523519
 20
92.55580307098474
 30
0.0
 11
147.2394839497962
 21
92.07501360932937
 31
0.0
  0
TEXT
  5
1761
330
1F
100
AcDbEntity
  8
LOGO
100
AcDbText
 10
121.8916003871252
 20
96.23236486476759
 30
131.0577257600498
 40
1.999710407239818
  1
比例 Scale:
 41
0.9
  7
CHINESET
 72
     4
 11
128.241573657972
 21
97.23123595893511
 31
131.0577257600498
100
AcDbText
  0
TEXT
  5
1762
330
1F
100
AcDbEntity
  8
LOGO
100
AcDbText
 10
121.7764384931368
 20
92.26008906934946
 30
131.0577257600498
 40
1.999710407239818
  1
投影  View:
 41
0.9
  7
CHINESET
 72
     4
 11
128.241573657972
 21
93.23181514445545
 31
131.0577257600498
100
AcDbText
  0
TEXT
  5
1763
330
1F
100
AcDbEntity
  8
LOGO
100
AcDbText
 10
121.9719458945589
 20
88.23253912635587
 30
131.0577257600498
 40
1.999710407239818
  1
單位  Unit:
 41
0.9
  7
CHINESET
 72
     4
 11
128.241573657972
 21
89.23239432997579
 31
131.0577257600498
100
AcDbText
  0
SOLID
  5
1764
330
1F
100
AcDbEntity
  8
LOGO
 62
     5
100
AcDbTrace
 10
107.6529206830097
 20
90.5569178384097
 30
0.0
 11
108.5175429906991
 21
90.55691783840947
 31
0.0
 12
112.1251050331272
 22
98.75592248029224
 32
0.0
 13
112.989727340817
 23
98.75592248029178
 33
0.0
  0
SOLID
  5
1765
330
1F
100
AcDbEntity
  8
LOGO
 62
     5
100
AcDbTrace
 10
108.8753177387094
 20
90.5569178384097
 30
0.0
 11
109.7399400463988
 21
90.5569178384097
 31
0.0
 12
112.989727340817
 22
98.10000210894131
 32
0.0
 13
112.1251050331272
 23
94.92972031408006
 33
0.0
  0
SOLID
  5
1766
330
1F
100
AcDbEntity
  8
LOGO
 62
     2
100
AcDbTrace
 10
108.5175429906991
 20
90.55691783840947
 30
0.0
 11
108.8753177387094
 21
90.5569178384097
 31
0.0
 12
112.989727340817
 22
98.75592248029178
 32
0.0
 13
113.3475020888269
 23
98.75592248029178
 33
0.0
  0
SOLID
  5
1767
330
1F
100
AcDbEntity
  8
LOGO
 62
     5
100
AcDbTrace
 10
106.2667190924213
 20
87.57546160499813
 30
0.0
 11
106.5648647157628
 21
87.57546160499813
 31
0.0
 12
107.4044659968923
 22
89.06618972170381
 32
0.0
 13
107.7026116202329
 23
89.06618972170381
 33
0.0
  0
SOLID
  5
1768
330
1F
100
AcDbEntity
  8
LOGO
 62
     5
100
AcDbTrace
 10
107.4044659968923
 20
89.06618972170381
 30
0.0
 11
107.7026116202329
 21
89.06618972170381
 31
0.0
 12
107.4044659968923
 22
87.57546160499813
 32
0.0
 13
107.7026116202329
 23
87.57546160499813
 33
0.0
  0
SOLID
  5
1769
330
1F
100
AcDbEntity
  8
LOGO
 62
     5
100
AcDbTrace
 10
107.4044659968923
 20
87.57546160499813
 30
0.0
 11
107.7026116202329
 21
87.57546160499813
 31
0.0
 12
108.5422129013637
 22
89.06618972170381
 32
0.0
 13
108.8403585247048
 23
89.06618972170381
 33
0.0
  0
SOLID
  5
176A
330
1F
100
AcDbEntity
  8
LOGO
 62
     5
100
AcDbTrace
 10
108.5422129013637
 20
89.06618972170381
 30
0.0
 11
108.8403585247048
 21
89.06618972170381
 31
0.0
 12
108.5422129013637
 22
87.57546160499813
 32
0.0
 13
108.8403585247048
 23
87.57546160499813
 33
0.0
  0
POLYLINE
  5
176B
330
1F
100
AcDbEntity
  8
LOGO
 62
     5
100
AcDb2dPolyline
 66
     1
 10
0.0
 20
0.0
 30
0.0
 40
0.2986234208144796
 41
0.2986234208144796
  0
VERTEX
  5
176C
330
176B
100
AcDbEntity
  8
LOGO
 62
     5
100
AcDbVertex
100
AcDb2dVertex
 10
118.5359526311732
 20
88.46989847502149
 30
0.0
 42
1.0
  0
VERTEX
  5
176D
330
176B
100
AcDbEntity
  8
LOGO
 62
     5
100
AcDbVertex
100
AcDb2dVertex
 10
117.6400823687296
 20
88.46989847502149
 30
0.0
 42
1.0
  0
SEQEND
  5
176E
330
176B
100
AcDbEntity
  8
LOGO
 62
     5
  0
POLYLINE
  5
176F
330
1F
100
AcDbEntity
  8
LOGO
 62
     5
100
AcDb2dPolyline
 66
     1
 10
0.0
 20
0.0
 30
0.0
 70
     1
  0
VERTEX
  5
1770
330
176F
100
AcDbEntity
  8
LOGO
 62
     5
100
AcDbVertex
100
AcDb2dVertex
 10
115.9513270757139
 20
88.32082566335074
 30
0.0
 42
1.000000057330635
  0
VERTEX
  5
1771
330
176F
100
AcDbEntity
  8
LOGO
 62
     5
100
AcDbVertex
100
AcDb2dVertex
 10
116.8457639457375
 20
88.32082566335074
 30
0.0
 42
1.000000057330635
  0
SEQEND
  5
1772
330
176F
100
AcDbEntity
  8
LOGO
 62
     5
  0
CIRCLE
  5
1773
330
1F
100
AcDbEntity
  8
LOGO
 62
     5
100
AcDbCircle
 10
116.3985455107264
 20
88.32082566335074
 30
0.0
 40
0.4472184350117648
  0
POLYLINE
  5
1774
330
1F
100
AcDbEntity
  8
LOGO
 62
     5
100
AcDb2dPolyline
 66
     1
 10
0.0
 20
0.0
 30
0.0
 70
     1
 40
0.2986234208144796
 41
0.2986234208144796
  0
VERTEX
  5
1775
330
1774
100
AcDbEntity
  8
LOGO
 62
     5
100
AcDbVertex
100
AcDb2dVertex
 10
115.801298669097
 20
88.32082566335074
 30
0.0
 42
1.0
  0
VERTEX
  5
1776
330
1774
100
AcDbEntity
  8
LOGO
 62
     5
100
AcDbVertex
100
AcDb2dVertex
 10
116.9957923523549
 20
88.32082566335074
 30
0.0
 42
1.0
  0
SEQEND
  5
1777
330
1774
100
AcDbEntity
  8
LOGO
 62
     5
  0
LINE
  5
1778
330
1F
100
AcDbEntity
  8
LOGO
100
AcDbLine
 10
118.6843087466333
 20
87.57546160499813
 30
0.0
 11
118.6843087466333
 21
88.46989847502149
 31
0.0
  0
SOLID
  5
1779
330
1F
100
AcDbEntity
  8
LOGO
 62
     5
100
AcDbTrace
 10
116.8457341311765
 20
89.06618972170381
 30
0.0
 11
117.1438797545171
 21
89.06618972170381
 31
0.0
 12
116.8457341311765
 22
87.57546160499813
 32
0.0
 13
117.1438797545171
 23
87.57546160499813
 33
0.0
  0
SOLID
  5
177A
330
1F
100
AcDbEntity
  8
LOGO
 62
     5
100
AcDbTrace
 10
117.4917262532686
 20
87.57546160499813
 30
0.0
 11
117.7898718766101
 21
87.57546160499813
 31
0.0
 12
117.4917262532686
 22
89.06618972170381
 32
0.0
 13
117.7898718766101
 23
89.06618972170381
 33
0.0
  0
SOLID
  5
177B
330
1F
100
AcDbEntity
  8
LOGO
 62
     5
100
AcDbTrace
 10
118.3861631232927
 20
88.46989847502149
 30
0.0
 11
118.6843087466333
 21
88.46989847502149
 31
0.0
 12
118.3861631232927
 22
87.57546160499813
 32
0.0
 13
118.6843087466333
 23
87.57546160499813
 33
0.0
  0
SOLID
  5
177C
330
1F
100
AcDbEntity
  8
LOGO
 62
     5
100
AcDbTrace
 10
117.4619116909344
 20
98.10000210894131
 30
0.0
 11
116.5972893832455
 21
94.92972031408006
 31
0.0
 12
117.4619116909344
 22
90.55691783840947
 32
0.0
 13
116.5972893832455
 23
90.55691783840947
 33
0.0
  0
SOLID
  5
177D
330
1F
100
AcDbEntity
  8
LOGO
 62
     5
100
AcDbTrace
 10
117.8196864389443
 20
90.55691783840947
 30
0.0
 11
118.6843087466333
 21
90.55691783840947
 31
0.0
 12
117.8196864389443
 22
98.75592248029178
 32
0.0
 13
118.6843087466333
 23
98.75592248029224
 33
0.0
  0
SOLID
  5
177E
330
1F
100
AcDbEntity
  8
LOGO
 62
     2
100
AcDbTrace
 10
117.4619116909344
 20
98.75592248029224
 30
0.0
 11
117.8196864389443
 21
98.75592248029178
 31
0.0
 12
117.4619116909344
 22
90.55691783840947
 32
0.0
 13
117.8196864389443
 23
90.55691783840947
 33
0.0
  0
POLYLINE
  5
177F
330
1F
100
AcDbEntity
  8
LOGO
 62
     5
100
AcDb2dPolyline
 66
     1
 10
0.0
 20
0.0
 30
0.0
 40
0.2986234208144796
 41
0.2986234208144796
  0
VERTEX
  5
1780
330
177F
100
AcDbEntity
  8
LOGO
 62
     5
100
AcDbVertex
100
AcDb2dVertex
 10
114.2625121535749
 20
88.46989847502149
 30
0.0
 42
1.0
  0
VERTEX
  5
1781
330
177F
100
AcDbEntity
  8
LOGO
 62
     5
100
AcDbVertex
100
AcDb2dVertex
 10
113.3666418911313
 20
88.46989847502149
 30
0.0
 42
1.0
  0
SEQEND
  5
1782
330
177F
100
AcDbEntity
  8
LOGO
 62
     5
  0
POLYLINE
  5
1783
330
1F
100
AcDbEntity
  8
LOGO
 62
     5
100
AcDb2dPolyline
 66
     1
 10
0.0
 20
0.0
 30
0.0
 40
0.2986234208144796
 41
0.2986234208144796
  0
VERTEX
  5
1784
330
1783
100
AcDbEntity
  8
LOGO
 62
     5
100
AcDbVertex
100
AcDb2dVertex
 10
115.1569490235976
 20
88.46989847502149
 30
0.0
 42
1.0
  0
VERTEX
  5
1785
330
1783
100
AcDbEntity
  8
LOGO
 62
     5
100
AcDbVertex
100
AcDb2dVertex
 10
114.2610787611544
 20
88.46989847502149
 30
0.0
 42
1.0
  0
SEQEND
  5
1786
330
1783
100
AcDbEntity
  8
LOGO
 62
     5
  0
POLYLINE
  5
1787
330
1F
100
AcDbEntity
  8
LOGO
 62
     5
100
AcDb2dPolyline
 66
     1
 10
0.0
 20
0.0
 30
0.0
 40
0.2986234208144796
 41
0.2986234208144796
  0
VERTEX
  5
1788
330
1787
100
AcDbEntity
  8
LOGO
 62
     5
100
AcDbVertex
100
AcDb2dVertex
 10
110.8835085459992
 20
88.46989847502149
 30
0.0
 42
1.0
  0
VERTEX
  5
1789
330
1787
100
AcDbEntity
  8
LOGO
 62
     5
100
AcDbVertex
100
AcDb2dVertex
 10
109.987638283556
 20
88.46989847502149
 30
0.0
 42
1.0
  0
SEQEND
  5
178A
330
1787
100
AcDbEntity
  8
LOGO
 62
     5
  0
SOLID
  5
178B
330
1F
100
AcDbEntity
  8
LOGO
 62
     5
100
AcDbTrace
 10
109.8392821680955
 20
89.06618972170381
 30
0.0
 11
110.1374277914361
 21
89.06618972170381
 31
0.0
 12
109.8392821680955
 22
87.57546160499813
 32
0.0
 13
110.1374277914361
 23
87.57546160499813
 33
0.0
  0
SOLID
  5
178C
330
1F
100
AcDbEntity
  8
LOGO
 62
     5
100
AcDbTrace
 10
110.7337190381191
 20
88.46989847502149
 30
0.0
 11
111.0318646614606
 21
88.46989847502149
 31
0.0
 12
110.7337190381191
 22
87.57546160499813
 32
0.0
 13
111.0318646614606
 23
87.57546160499813
 33
0.0
  0
POLYLINE
  5
178D
330
1F
100
AcDbEntity
  8
LOGO
 62
     5
100
AcDb2dPolyline
 66
     1
 10
0.0
 20
0.0
 30
0.0
 70
     1
 40
0.2986234208144796
 41
0.2986234208144796
  0
VERTEX
  5
178E
330
178D
100
AcDbEntity
  8
LOGO
 62
     5
100
AcDbVertex
100
AcDb2dVertex
 10
111.5278581914982
 20
88.32082566335074
 30
0.0
 42
1.0
  0
VERTEX
  5
178F
330
178D
100
AcDbEntity
  8
LOGO
 62
     5
100
AcDbVertex
100
AcDb2dVertex
 10
112.7223518747565
 20
88.32082566335074
 30
0.0
 42
1.0
  0
SEQEND
  5
1790
330
178D
100
AcDbEntity
  8
LOGO
 62
     5
  0
SOLID
  5
1791
330
1F
100
AcDbEntity
  8
LOGO
 62
     5
100
AcDbTrace
 10
112.5722936535773
 20
89.51340815671583
 30
0.0
 11
112.8704392769183
 21
89.51340815671583
 31
0.0
 12
112.5722936535773
 22
87.57546160499813
 32
0.0
 13
112.8704392769183
 23
87.57546160499813
 33
0.0
  0
SOLID
  5
1792
330
1F
100
AcDbEntity
  8
LOGO
 62
     5
100
AcDbTrace
 10
113.2182857756712
 20
89.06618972170381
 30
0.0
 11
113.5164313990118
 21
89.06618972170381
 31
0.0
 12
113.2182857756712
 22
87.57546160499813
 32
0.0
 13
113.5164313990118
 23
87.57546160499813
 33
0.0
  0
SOLID
  5
1793
330
1F
100
AcDbEntity
  8
LOGO
 62
     5
100
AcDbTrace
 10
114.1127226456939
 20
88.46989847502149
 30
0.0
 11
114.4108682690354
 21
88.46989847502149
 31
0.0
 12
114.1127226456939
 22
87.57546160499813
 32
0.0
 13
114.4108682690354
 23
87.57546160499813
 33
0.0
  0
SOLID
  5
1794
330
1F
100
AcDbEntity
  8
LOGO
 62
     5
100
AcDbTrace
 10
115.0071595157175
 20
88.46989847502149
 30
0.0
 11
115.3053051390585
 21
88.46989847502149
 31
0.0
 12
115.0071595157175
 22
87.57546160499769
 32
0.0
 13
115.3053051390585
 23
87.57546160499769
 33
0.0
  0
SOLID
  5
1795
330
1F
100
AcDbEntity
  8
LOGO
 62
     5
100
AcDbTrace
 10
109.193290046002
 20
89.27489165804272
 30
0.0
 11
109.491435669344
 21
89.27489165804272
 31
0.0
 12
109.193290046002
 22
89.51340815671583
 32
0.0
 13
109.491435669344
 23
89.51340815671583
 33
0.0
  0
SOLID
  5
1796
330
1F
100
AcDbEntity
  8
LOGO
 62
     5
100
AcDbTrace
 10
109.193290046002
 20
89.06618972170381
 30
0.0
 11
109.491435669344
 21
89.06618972170381
 31
0.0
 12
109.193290046002
 22
87.57546160499769
 32
0.0
 13
109.491435669344
 23
87.57546160499813
 33
0.0
  0
SOLID
  5
1797
330
1F
100
AcDbEntity
  8
LOGO
 62
     5
100
AcDbTrace
 10
112.1251050331272
 20
90.5569178384097
 30
0.0
 11
112.989727340817
 21
90.5569178384097
 31
0.0
 12
112.1251050331272
 22
94.92972031408006
 32
0.0
 13
112.989727340817
 23
98.10000210894131
 33
0.0
  0
SOLID
  5
1798
330
1F
100
AcDbEntity
  8
LOGO
 62
     5
100
AcDbTrace
 10
113.3475020888269
 20
98.75592248029178
 30
0.0
 11
114.2121243965158
 21
98.75592248029224
 31
0.0
 12
113.3475020888269
 22
91.21283820976017
 32
0.0
 13
114.2121243965158
 23
94.38312000462142
 33
0.0
  0
SOLID
  5
1799
330
1F
100
AcDbEntity
  8
LOGO
 62
     2
100
AcDbTrace
 10
112.989727340817
 20
98.75592248029178
 30
0.0
 11
113.3475020888269
 21
98.75592248029178
 31
0.0
 12
112.989727340817
 22
90.5569178384097
 32
0.0
 13
113.3475020888269
 23
90.5569178384097
 33
0.0
  0
SOLID
  5
179A
330
1F
100
AcDbEntity
  8
LOGO
 62
     5
100
AcDbTrace
 10
113.3475020888269
 20
91.21283820976017
 30
0.0
 11
114.2121243965158
 21
94.38312000462142
 31
0.0
 12
117.4619116909344
 22
98.75592248029224
 32
0.0
 13
116.5972893832455
 23
98.75592248029224
 33
0.0
  0
SOLID
  5
179B
330
1F
100
AcDbEntity
  8
LOGO
 62
     5
100
AcDbTrace
 10
113.3475020888269
 20
90.5569178384097
 30
0.0
 11
114.2121243965158
 21
90.5569178384097
 31
0.0
 12
117.4619116909344
 22
98.10000210894131
 32
0.0
 13
116.5972893832455
 23
94.92972031408006
 33
0.0
  0
SOLID
  5
179C
330
1F
100
AcDbEntity
  8
LOGO
 62
     2
100
AcDbTrace
 10
112.989727340817
 20
90.5569178384097
 30
0.0
 11
113.3475020888269
 21
90.5569178384097
 31
0.0
 12
117.4619116909344
 22
98.75592248029224
 32
0.0
 13
117.8196864389443
 23
98.75592248029178
 33
0.0
  0
LINE
  5
179D
330
1F
100
AcDbEntity
  8
LOGO
 62
     4
100
AcDbLine
 10
190.4083498518458
 20
88.23253912635626
 30
0.0
 11
190.4083498518458
 21
80.90026763314321
 31
0.0
  0
LINE
  5
179E
330
1F
100
AcDbEntity
  8
LOGO
 62
     4
100
AcDbLine
 10
177.0769471369136
 20
88.23253912635626
 30
0.0
 11
177.0769471369136
 21
80.90026763314321
 31
0.0
  0
LINE
  5
179F
330
1F
100
AcDbEntity
  8
LOGO
 62
     4
100
AcDbLine
 10
190.4083498518458
 20
80.90026763314321
 30
0.0
 11
177.0769471369136
 21
80.90026763314321
 31
0.0
  0
LINE
  5
17A0
330
1F
100
AcDbEntity
  8
LOGO
 62
     4
100
AcDbLine
 10
189.9386283447264
 20
97.23123595893511
 30
0.0
 11
177.0769471369136
 21
97.23123595893511
 31
0.0
  0
LINE
  5
17A1
330
1F
100
AcDbEntity
  8
LOGO
 62
     4
100
AcDbLine
 10
189.9386283447264
 20
91.23210473721574
 30
0.0
 11
177.0769471369136
 21
91.23210473721574
 31
0.0
  0
LINE
  5
17A2
330
1F
100
AcDbEntity
  8
LOGO
 62
     4
100
AcDbLine
 10
177.0769471369136
 20
97.23123595893511
 30
0.0
 11
177.0769471369136
 21
91.23210473721574
 31
0.0
  0
LINE
  5
17A3
330
1F
100
AcDbEntity
  8
LOGO
 62
     4
100
AcDbLine
 10
189.9386283447264
 20
97.23123595893511
 30
0.0
 11
189.9386283447264
 21
91.23210473721574
 31
0.0
  0
LINE
  5
17A4
330
1F
100
AcDbEntity
  8
LOGO
 62
     4
100
AcDbLine
 10
184.4382128726162
 20
91.23210473721574
 30
0.0
 11
184.4382128726162
 21
88.23253912635626
 31
0.0
  0
TEXT
  5
17A5
330
1F
100
AcDbEntity
  8
LOGO
  6
Continuous
100
AcDbText
 10
178.1428988001936
 20
92.48441460902071
 30
0.0
 40
3.5
  1
MPG
  7
CHINESET
100
AcDbText
  0
LINE
  5
17A6
330
1F
100
AcDbEntity
  8
LOGO
 62
     4
100
AcDbLine
 10
190.4083498518458
 20
88.23253912635626
 30
0.0
 11
177.0769471369136
 21
88.23253912635626
 31
0.0
  0
TEXT
  5
17A7
330
1F
100
AcDbEntity
  8
LOGO
  6
Continuous
100
AcDbText
 10
181.3549520615566
 20
81.93520220596733
 30
131.0577257600498
 40
1.5
  1
Model
 41
0.8
  7
CHINESET
100
AcDbText
  0
TEXT
  5
17A8
330
1F
100
AcDbEntity
  8
LOGO
100
AcDbText
 10
180.9557008235575
 20
84.7158789328947
 30
131.0577257600498
 40
2.5
  1
型號
  7
CHINESET
100
AcDbText
  0
LINE
  5
17A9
330
1F
100
AcDbEntity
  8
LOGO
  6
Continuous
100
AcDbLine
 10
190.7727186893386
 20
94.21042047720138
 30
0.0
 11
193.4217161382781
 21
94.21042047720138
 31
0.0
  0
TEXT
  5
17B2
330
1F
100
AcDbEntity
  8
LOGO
  6
Continuous
100
AcDbText
 10
195.5297804537916
 20
92.48441460902071
 30
0.0
 40
3.5
  1
60P
  7
CHINESET
100
AcDbText
  0
LINE
  5
17B4
330
1F
100
AcDbEntity
  8
LOGO
  6
Continuous
100
AcDbLine
 10
205.9686761377687
 20
94.21042047720138
 30
0.0
 11
208.6176735867083
 21
94.21042047720138
 31
0.0
  0
TEXT
  5
17DC
330
1F
100
AcDbEntity
  8
LOGO
100
AcDbText
 10
150.8983535931012
 20
80.2976803376981
 30
0.0
 40
2.0
  1
1121113B
 41
0.7
  7
CHINESET
 72
     1
 11
155.3650202597679
 21
80.2976803376981
 31
0.0
100
AcDbText
  0
LINE
  5
17DD
330
1F
100
AcDbEntity
  8
LOGO
 62
     4
100
AcDbLine
 10
161.5718180018626
 20
83.23326310825686
 30
0.0
 11
161.5718180018635
 21
79.23384229377697
 31
0.0
  0
LINE
  5
17DE
330
1F
100
AcDbEntity
  8
LOGO
 62
     4
100
AcDbLine
 10
161.5718180018626
 20
83.23326310825686
 30
0.0
 11
149.5718180018635
 21
83.23326310825686
 31
0.0
  0
LINE
  5
17DF
330
1F
100
AcDbEntity
  8
LOGO
  6
AM_ISO08W050x2
 48
0.3
100
AcDbLine
 10
138.3425645345247
 20
93.23609253965022
 30
0.0
 11
141.5436939169946
 21
93.23609253965022
 31
0.0
1001
GENIUS_GENOREF_13
1005
17E4
  0
LINE
  5
17E0
330
1F
100
AcDbEntity
  8
LOGO
  6
AM_ISO08W050x2
 48
0.3
100
AcDbLine
 10
139.9431292257596
 20
91.63552784841531
 30
0.0
 11
139.9431292257596
 21
94.83665723088515
 31
0.0
1001
GENIUS_GENOREF_13
1005
17E3
  0
LINE
  5
17E1
330
1F
100
AcDbEntity
  8
LOGO
  6
CENTER
 48
0.5
100
AcDbLine
 10
143.3084760595426
 20
93.23609253965022
 30
0.0
 11
147.6060116875838
 21
93.23609253965022
 31
0.0
1001
GENIUS_GENOREF_13
1005
17E2
  0
POINT
  5
17E2
330
1F
100
AcDbEntity
  8
0
 60
     1
100
AcDbPoint
 10
-1966.762970697395
 20
-858.8994600119495
 30
0.0
1001
GENIUS_GENOBJ-N-CRS_13
1002
{
1000
OWNER
1000
GEN
1002
}
1001
GENIUS_GENOLIS_13
1002
{
1000
ENT
1005
0
1005
0
1005
0
1005
17E1
1002
}
1001
GENIUS_GENOENT_13
1002
{
1000
MYREF
1005
17E2
1002
}
1002
{
1000
GRP
1005
0
1002
}
1001
GENIUS_GENODEF_13
1002
{
1000
HIER
1070
    10
1002
}
1002
{
1000
MANEDIT
1070
     1
1002
}
1002
{
1000
NOSEL
1070
     0
1002
}
1002
{
1000
BEHIND
1070
     0
1002
}
1002
{
1000
OTHER
1070
     0
1002
}
1002
{
1000
REACTOR
1002
}
  0
POINT
  5
17E3
330
1F
100
AcDbEntity
  8
0
 60
     1
100
AcDbPoint
 10
-1978.08755592025
 20
-850.0238735333132
 30
0.0
1001
GENIUS_GENOBJ-N-CRS_13
1002
{
1000
OWNER
1000
GEN
1002
}
1001
GENIUS_GENOLIS_13
1002
{
1000
ENT
1005
0
1005
0
1005
0
1005
17E0
1002
}
1001
GENIUS_GENOENT_13
1002
{
1000
MYREF
1005
17E3
1002
}
1002
{
1000
GRP
1005
0
1002
}
1001
GENIUS_GENODEF_13
1002
{
1000
HIER
1070
    10
1002
}
1002
{
1000
MANEDIT
1070
     1
1002
}
1002
{
1000
NOSEL
1070
     0
1002
}
1002
{
1000
BEHIND
1070
     0
1002
}
1002
{
1000
OTHER
1070
     0
1002
}
1002
{
1000
REACTOR
1002
}
  0
POINT
  5
17E4
330
1F
100
AcDbEntity
  8
0
 60
     1
100
AcDbPoint
 10
-1971.728882222413
 20
-858.8994600119495
 30
0.0
1001
GENIUS_GENOBJ-N-CRS_13
1002
{
1000
OWNER
1000
GEN
1002
}
1001
GENIUS_GENOLIS_13
1002
{
1000
ENT
1005
0
1005
0
1005
0
1005
17DF
1002
}
1001
GENIUS_GENOENT_13
1002
{
1000
MYREF
1005
17E4
1002
}
1002
{
1000
GRP
1005
0
1002
}
1001
GENIUS_GENODEF_13
1002
{
1000
HIER
1070
    10
1002
}
1002
{
1000
MANEDIT
1070
     1
1002
}
1002
{
1000
NOSEL
1070
     0
1002
}
1002
{
1000
BEHIND
1070
     0
1002
}
1002
{
1000
OTHER
1070
     0
1002
}
1002
{
1000
REACTOR
1002
}
  0
CIRCLE
  5
1B5C
330
1F
100
AcDbEntity
  8
0
  6
Continuous
 62
     7
370
    15
100
AcDbCircle
 10
167.6271770442373
 20
125.9618996648962
 30
0.0
 40
2.298157604881936
  0
ARC
  5
1B5D
330
1F
100
AcDbEntity
  8
0
  6
Continuous
 62
     7
370
    15
100
AcDbCircle
 10
157.1271770442373
 20
142.4618996648962
 30
0.0
 40
1.000000000000014
100
AcDbArc
 50
90.0
 51
180.0
  0
LINE
  5
1B5E
330
1F
100
AcDbEntity
  8
0
  6
Continuous
 62
     7
370
    15
100
AcDbLine
 10
180.6271773124582
 20
148.9619000150735
 30
0.0
 11
154.6271767760164
 21
148.9619000150735
 31
0.0
  0
LINE
  5
1B5F
330
1F
100
AcDbEntity
  8
0
  6
Continuous
 62
     7
370
    15
100
AcDbLine
 10
178.1271769026763
 20
143.4619000448758
 30
0.0
 11
157.1271771857983
 21
143.4619000448758
 31
0.0
  0
ARC
  5
1B60
330
1F
100
AcDbEntity
  8
0
  6
Continuous
 62
     7
370
    15
100
AcDbCircle
 10
178.1271770442373
 20
142.4618996648962
 30
0.0
 40
1.0
100
AcDbArc
 50
0.0
 51
90.0
  0
LINE
  5
1B61
330
1F
100
AcDbEntity
  8
0
  6
Continuous
 62
     7
370
    15
100
AcDbLine
 10
179.127177066589
 20
132.4618996388192
 30
0.0
 11
179.127177066589
 21
142.461899880963
 31
0.0
  0
ARC
  5
1B62
330
1F
100
AcDbEntity
  8
0
  6
Continuous
 62
     7
370
    15
100
AcDbCircle
 10
178.1271770442373
 20
132.4618996648962
 30
0.0
 40
1.0
100
AcDbArc
 50
270.0
 51
0.0
  0
LINE
  5
1B63
330
1F
100
AcDbEntity
  8
0
  6
Continuous
 62
     7
370
    15
100
AcDbLine
 10
157.1271771857983
 20
131.4618994749064
 30
0.0
 11
178.1271769026763
 21
131.4618994749064
 31
0.0
  0
ARC
  5
1B64
330
1F
100
AcDbEntity
  8
0
  6
Continuous
 62
     7
370
    15
100
AcDbCircle
 10
157.1271770442373
 20
132.4618996648962
 30
0.0
 40
1.000000000000014
100
AcDbArc
 50
180.0
 51
270.0
  0
LINE
  5
1B65
330
1F
100
AcDbEntity
  8
0
  6
Continuous
 62
     7
370
    15
100
AcDbLine
 10
156.1271770218856
 20
142.461899880963
 30
0.0
 11
156.1271770218856
 21
132.4618996388192
 31
0.0
  0
ARC
  5
1B66
330
1F
100
AcDbEntity
  8
0
  6
Continuous
 62
     7
370
    15
100
AcDbCircle
 10
180.6271770442373
 20
122.4618996648962
 30
0.0
 40
0.5000000000000285
100
AcDbArc
 50
270.0
 51
0.0
  0
LINE
  5
1B67
330
1F
100
AcDbEntity
  8
0
  6
Continuous
 62
     7
370
    15
100
AcDbLine
 10
154.6271767760164
 20
121.9618993147189
 30
0.0
 11
180.6271773124582
 21
121.9618993147189
 31
0.0
  0
ARC
  5
1B68
330
1F
100
AcDbEntity
  8
0
  6
Continuous
 62
     7
370
    15
100
AcDbCircle
 10
180.6271770442373
 20
148.4618996648962
 30
0.0
 40
0.5000000000000285
100
AcDbArc
 50
0.0
 51
90.0
  0
LINE
  5
1B69
330
1F
100
AcDbEntity
  8
0
  6
Continuous
 62
     7
370
    15
100
AcDbLine
 10
181.1271773944146
 20
122.4618993966753
 30
0.0
 11
181.1271773944146
 21
148.4618999331171
 31
0.0
  0
ARC
  5
1B6A
330
1F
100
AcDbEntity
  8
0
  6
Continuous
 62
     7
370
    15
100
AcDbCircle
 10
154.6271770442373
 20
148.4618996648962
 30
0.0
 40
0.5
100
AcDbArc
 50
90.0
 51
180.0
  0
LINE
  5
1B6B
330
1F
100
AcDbEntity
  8
0
  6
Continuous
 62
     7
370
    15
100
AcDbLine
 10
154.12717669406
 20
148.4618999331171
 30
0.0
 11
154.12717669406
 21
122.4618993966753
 31
0.0
  0
ARC
  5
1B6C
330
1F
100
AcDbEntity
  8
0
  6
Continuous
 62
     7
370
    15
100
AcDbCircle
 10
154.6271770442373
 20
122.4618996648962
 30
0.0
 40
0.5
100
AcDbArc
 50
180.0
 51
270.0
  0
ARC
  5
1B6D
330
1F
100
AcDbEntity
  8
0
  6
Continuous
 62
     7
370
    15
100
AcDbCircle
 10
181.1271770442373
 20
148.9618996648962
 30
0.0
 40
1.5
100
AcDbArc
 50
0.0
 51
90.0
  0
LINE
  5
1B6E
330
1F
100
AcDbEntity
  8
0
  6
Continuous
 62
     7
370
    15
100
AcDbLine
 10
181.1271773944146
 20
120.4619000001723
 30
0.0
 11
154.12717669406
 21
120.4619000001723
 31
0.0
  0
LINE
  5
1B6F
330
1F
100
AcDbEntity
  8
0
  6
Continuous
 62
     7
370
    15
100
AcDbLine
 10
154.12717669406
 20
150.4618993296201
 30
0.0
 11
181.1271773944146
 21
150.4618993296201
 31
0.0
  0
ARC
  5
1B70
330
1F
100
AcDbEntity
  8
0
  6
Continuous
 62
     7
370
    15
100
AcDbCircle
 10
181.1271770442373
 20
121.9618996648963
 30
0.0
 40
1.5
100
AcDbArc
 50
270.0
 51
0.0
  0
ARC
  5
1B71
330
1F
100
AcDbEntity
  8
0
  6
Continuous
 62
     7
370
    15
100
AcDbCircle
 10
154.1271770442373
 20
121.9618996648963
 30
0.0
 40
1.5
100
AcDbArc
 50
180.0
 51
270.0
  0
LINE
  5
1B72
330
1F
100
AcDbEntity
  8
0
  6
Continuous
 62
     7
370
    15
100
AcDbLine
 10
182.6271767089612
 20
148.9619000150735
 30
0.0
 11
182.6271767089612
 21
121.9618993147189
 31
0.0
  0
LINE
  5
1B73
330
1F
100
AcDbEntity
  8
0
  6
Continuous
 62
     7
370
    15
100
AcDbLine
 10
152.6271773795134
 20
121.9618993147189
 30
0.0
 11
152.6271773795134
 21
148.9619000150735
 31
0.0
  0
ARC
  5
1B74
330
1F
100
AcDbEntity
  8
0
  6
Continuous
 62
     7
370
    15
100
AcDbCircle
 10
154.1271770442373
 20
148.9618996648962
 30
0.0
 40
1.5
100
AcDbArc
 50
90.0
 51
180.0
  0
ARC
  5
1B75
330
1F
100
AcDbEntity
  8
0
  6
Continuous
 62
     7
370
    15
100
AcDbCircle
 10
238.2346596166966
 20
130.4118996648962
 30
0.0
 40
0.25
100
AcDbArc
 50
90.0
 51
180.0
  0
ARC
  5
1B76
330
1F
100
AcDbEntity
  8
0
  6
Continuous
 62
     7
370
    15
100
AcDbCircle
 10
238.2346596166966
 20
140.5118996648962
 30
0.0
 40
0.25
100
AcDbArc
 50
180.0
 51
270.0
  0
ARC
  5
1B77
330
1F
100
AcDbEntity
  8
0
  6
Continuous
 62
     7
370
    15
100
AcDbCircle
 10
245.3403220493993
 20
130.9118996648962
 30
0.0
 40
0.25
100
AcDbArc
 50
270.0
 51
330.0000000000039
  0
ARC
  5
1B78
330
1F
100
AcDbEntity
  8
0
  6
Continuous
 62
     7
370
    15
100
AcDbCircle
 10
245.3403220493993
 20
140.0118996648962
 30
0.0
 40
0.25
100
AcDbArc
 50
29.99999999999609
 51
90.0
  0
SPLINE
  5
1B79
330
1F
100
AcDbEntity
  8
0
  6
Continuous
 62
     7
370
    15
100
AcDbSpline
210
0.0
220
0.0
230
1.0
 70
    24
 71
     1
 72
     4
 73
     2
 74
     0
 42
0.0000000001
 43
0.0000000001
 40
0.0
 40
0.0
 40
1.0
 40
1.0
 10
238.2346594080804
 20
140.261899892884
 30
0.0
 10
245.3403218955276
 20
140.261899892884
 30
0.0
  0
SPLINE
  5
1B7A
330
1F
100
AcDbEntity
  8
0
  6
Continuous
 62
     7
370
    15
100
AcDbSpline
210
0.0
220
0.0
230
1.0
 70
    24
 71
     1
 72
     4
 73
     2
 74
     0
 42
0.0000000001
 43
0.0000000001
 40
0.0
 40
0.0
 40
1.0
 40
1.0
 10
245.3403218955276
 20
130.6618994369084
 30
0.0
 10
238.2346594080804
 20
130.6618994369084
 30
0.0
  0
SPLINE
  5
1B7B
330
1F
100
AcDbEntity
  8
0
  6
Continuous
 62
     7
370
    15
100
AcDbSpline
210
0.0
220
0.0
230
1.0
 70
    24
 71
     1
 72
     4
 73
     2
 74
     0
 42
0.0000000001
 43
0.0000000001
 40
0.0
 40
0.0
 40
1.0
 40
1.0
 10
245.5568283170936
 20
140.1368996395642
 30
0.0
 10
245.9846592814205
 20
139.3958742066199
 30
0.0
  0
SPLINE
  5
1B7C
330
1F
100
AcDbEntity
  8
0
  6
Continuous
 62
     7
370
    15
100
AcDbSpline
210
0.0
220
0.0
230
1.0
 70
    24
 71
     1
 72
     4
 73
     2
 74
     0
 42
0.0000000001
 43
0.0000000001
 40
0.0
 40
0.0
 40
1.0
 40
1.0
 10
245.9846592814205
 20
131.5279251231725
 30
0.0
 10
245.5568283170936
 20
130.7868996902282
 30
0.0
  0
ARC
  5
1B7D
330
1F
100
AcDbEntity
  8
0
  6
Continuous
 62
     7
370
    15
100
AcDbCircle
 10
214.0119174197652
 20
127.1589867350675
 30
0.0
 40
5.000000000000025
100
AcDbArc
 50
167.2783911680974
 51
177.3911885186863
  0
ARC
  5
1B7E
330
1F
100
AcDbEntity
  8
0
  6
Continuous
 62
     7
370
    15
100
AcDbCircle
 10
214.0119174197652
 20
124.764812594725
 30
0.0
 40
5.000000000000025
100
AcDbArc
 50
182.6088114813136
 51
192.7216088319011
  0
ARC
  5
1B7F
330
1F
100
AcDbEntity
  8
0
  6
Continuous
 62
     7
370
    15
100
AcDbCircle
 10
240.2846596166968
 20
125.9618996648962
 30
0.0
 40
31.30000000000021
100
AcDbArc
 50
180.0
 51
182.608811481312
  0
ARC
  5
1B80
330
1F
100
AcDbEntity
  8
0
  6
Continuous
 62
     7
370
    15
100
AcDbCircle
 10
240.2846596166968
 20
125.9618996648962
 30
0.0
 40
31.30000000000021
100
AcDbArc
 50
177.3911885186863
 51
180.0
  0
LINE
  5
1B81
330
1F
100
AcDbEntity
  8
0
  6
Continuous
 62
     7
370
    15
100
AcDbLine
 10
227.9846595906196
 20
132.211899597841
 30
0.0
 11
227.9846595906196
 21
138.7118997319514
 31
0.0
  0
LINE
  5
1B82
330
1F
100
AcDbEntity
  8
0
  6
Continuous
 62
     7
370
    15
100
AcDbLine
 10
229.4846596036581
 20
138.7118997319514
 30
0.0
 11
227.9846595906196
 21
138.7118997319514
 31
0.0
  0
LINE
  5
1B83
330
1F
100
AcDbEntity
  8
0
  6
Continuous
 62
     7
370
    15
100
AcDbLine
 10
229.4846596036581
 20
132.211899597841
 30
0.0
 11
229.4846596036581
 21
138.7118997319514
 31
0.0
  0
LINE
  5
1B84
330
1F
100
AcDbEntity
  8
0
  6
Continuous
 62
     7
370
    15
100
AcDbLine
 10
229.4846596036581
 20
132.211899597841
 30
0.0
 11
227.9846595906196
 21
132.211899597841
 31
0.0
  0
LINE
  5
1B85
330
1F
100
AcDbEntity
  8
0
  6
Continuous
 62
     7
370
    15
100
AcDbLine
 10
223.4846597843347
 20
132.4618996388192
 30
0.0
 11
224.4846594825862
 21
132.4618996388192
 31
0.0
  0
LINE
  5
1B86
330
1F
100
AcDbEntity
  8
0
  6
Continuous
 62
     7
370
    15
100
AcDbLine
 10
222.4846591547606
 20
132.4618996388192
 30
0.0
 11
223.4846597843347
 21
132.4618996388192
 31
0.0
  0
LINE
  5
1B87
330
1F
100
AcDbEntity
  8
0
  6
Continuous
 62
     7
370
    15
100
AcDbLine
 10
221.4846599221704
 20
132.4618996388192
 30
0.0
 11
222.4846591547606
 21
132.4618996388192
 31
0.0
  0
LINE
  5
1B88
330
1F
100
AcDbEntity
  8
0
  6
Continuous
 62
     7
370
    15
100
AcDbLine
 10
220.4846597582577
 20
132.4618996388192
 30
0.0
 11
221.4846599221704
 21
132.4618996388192
 31
0.0
  0
LINE
  5
1B89
330
1F
100
AcDbEntity
  8
0
  6
Continuous
 62
     7
370
    15
100
AcDbLine
 10
219.4846595943449
 20
132.4618996388192
 30
0.0
 11
220.4846597582577
 21
132.4618996388192
 31
0.0
  0
LINE
  5
1B8A
330
1F
100
AcDbEntity
  8
0
  6
Continuous
 62
     7
370
    15
100
AcDbLine
 10
218.4846594304321
 20
132.4618996388192
 30
0.0
 11
219.4846595943449
 21
132.4618996388192
 31
0.0
  0
LINE
  5
1B8B
330
1F
100
AcDbEntity
  8
0
  6
Continuous
 62
     7
370
    15
100
AcDbLine
 10
217.4846592665193
 20
132.4618996388192
 30
0.0
 11
218.4846594304321
 21
132.4618996388192
 31
0.0
  0
LINE
  5
1B8C
330
1F
100
AcDbEntity
  8
0
  6
Continuous
 62
     7
370
    15
100
AcDbLine
 10
217.4846592665193
 20
138.4618996909732
 30
0.0
 11
217.4846592665193
 21
132.4618996388192
 31
0.0
  0
LINE
  5
1B8D
330
1F
100
AcDbEntity
  8
0
  6
Continuous
 62
     7
370
    15
100
AcDbLine
 10
217.4846592665193
 20
138.4618996909732
 30
0.0
 11
218.4846594304321
 21
138.4618996909732
 31
0.0
  0
LINE
  5
1B8E
330
1F
100
AcDbEntity
  8
0
  6
Continuous
 62
     7
370
    15
100
AcDbLine
 10
218.4846594304321
 20
138.4618996909732
 30
0.0
 11
219.4846595943449
 21
138.4618996909732
 31
0.0
  0
LINE
  5
1B8F
330
1F
100
AcDbEntity
  8
0
  6
Continuous
 62
     7
370
    15
100
AcDbLine
 10
219.4846595943449
 20
138.4618996909732
 30
0.0
 11
220.4846597582577
 21
138.4618996909732
 31
0.0
  0
LINE
  5
1B90
330
1F
100
AcDbEntity
  8
0
  6
Continuous
 62
     7
370
    15
100
AcDbLine
 10
220.4846597582577
 20
138.4618996909732
 30
0.0
 11
221.4846599221704
 21
138.4618996909732
 31
0.0
  0
LINE
  5
1B91
330
1F
100
AcDbEntity
  8
0
  6
Continuous
 62
     7
370
    15
100
AcDbLine
 10
221.4846599221704
 20
138.4618996909732
 30
0.0
 11
222.4846591547606
 21
138.4618996909732
 31
0.0
  0
LINE
  5
1B92
330
1F
100
AcDbEntity
  8
0
  6
Continuous
 62
     7
370
    15
100
AcDbLine
 10
222.4846591547606
 20
138.4618996909732
 30
0.0
 11
223.4846597843347
 21
138.4618996909732
 31
0.0
  0
LINE
  5
1B93
330
1F
100
AcDbEntity
  8
0
  6
Continuous
 62
     7
370
    15
100
AcDbLine
 10
223.4846597843347
 20
138.4618996909732
 30
0.0
 11
224.4846594825862
 21
138.4618996909732
 31
0.0
  0
LINE
  5
1B94
330
1F
100
AcDbEntity
  8
0
  6
Continuous
 62
     7
370
    15
100
AcDbLine
 10
224.4846594825862
 20
138.4618996909732
 30
0.0
 11
225.4846596464989
 21
138.4618996909732
 31
0.0
  0
LINE
  5
1B95
330
1F
100
AcDbEntity
  8
0
  6
Continuous
 62
     7
370
    15
100
AcDbLine
 10
225.4846596464989
 20
138.4618996909732
 30
0.0
 11
226.4846598104117
 21
138.4618996909732
 31
0.0
  0
LINE
  5
1B96
330
1F
100
AcDbEntity
  8
0
  6
Continuous
 62
     7
370
    15
100
AcDbLine
 10
226.4846598104117
 20
132.4618996388192
 30
0.0
 11
226.4846598104117
 21
138.4618996909732
 31
0.0
  0
LINE
  5
1B97
330
1F
100
AcDbEntity
  8
0
  6
Continuous
 62
     7
370
    15
100
AcDbLine
 10
225.4846596464989
 20
132.4618996388192
 30
0.0
 11
226.4846598104117
 21
132.4618996388192
 31
0.0
  0
LINE
  5
1B98
330
1F
100
AcDbEntity
  8
0
  6
Continuous
 62
     7
370
    15
100
AcDbLine
 10
224.4846594825862
 20
132.4618996388192
 30
0.0
 11
225.4846596464989
 21
132.4618996388192
 31
0.0
  0
LINE
  5
1B99
330
1F
100
AcDbEntity
  8
0
  6
Continuous
 62
     7
370
    15
100
AcDbLine
 10
213.9846586928246
 20
142.9618994972581
 30
0.0
 11
212.984660391557
 21
142.9618994972581
 31
0.0
  0
LINE
  5
1B9A
330
1F
100
AcDbEntity
  8
0
  6
Continuous
 62
     7
370
    15
100
AcDbLine
 10
212.984660391557
 20
145.9618995233352
 30
0.0
 11
212.984660391557
 21
142.9618994972581
 31
0.0
  0
LINE
  5
1B9B
330
1F
100
AcDbEntity
  8
0
  6
Continuous
 62
     7
370
    15
100
AcDbLine
 10
213.9846586928246
 20
145.9618995233352
 30
0.0
 11
212.984660391557
 21
145.9618995233352
 31
0.0
  0
LINE
  5
1B9C
330
1F
100
AcDbEntity
  8
0
  6
Continuous
 62
     7
370
    15
100
AcDbLine
 10
213.9846586928246
 20
145.9618995233352
 30
0.0
 11
213.9846586928246
 21
142.9618994972581
 31
0.0
  0
LINE
  5
1B9D
330
1F
100
AcDbEntity
  8
0
  6
Continuous
 62
     7
370
    15
100
AcDbLine
 10
229.7246595684914
 20
121.9618993147189
 30
0.0
 11
229.7246595684914
 21
129.7018995775754
 31
0.0
  0
LINE
  5
1B9E
330
1F
100
AcDbEntity
  8
0
  6
Continuous
 62
     7
370
    15
100
AcDbLine
 10
229.7246595684914
 20
129.7018995775754
 30
0.0
 11
230.9846596166966
 21
130.9618998586113
 31
0.0
  0
LINE
  5
1B9F
330
1F
100
AcDbEntity
  8
0
  6
Continuous
 62
     7
370
    15
100
AcDbLine
 10
230.9846596166966
 20
130.9618998586113
 30
0.0
 11
230.9846596166966
 21
139.9618994711811
 31
0.0
  0
LINE
  5
1BA0
330
1F
100
AcDbEntity
  8
0
  6
Continuous
 62
     7
370
    15
100
AcDbLine
 10
230.9846596166966
 20
139.9618994711811
 30
0.0
 11
229.7246595684914
 21
141.221899752217
 31
0.0
  0
LINE
  5
1BA1
330
1F
100
AcDbEntity
  8
0
  6
Continuous
 62
     7
370
    15
100
AcDbLine
 10
229.7246595684914
 20
141.221899752217
 30
0.0
 11
229.7246595684914
 21
148.9619000150735
 31
0.0
  0
LINE
  5
1BA2
330
1F
100
AcDbEntity
  8
0
  6
Continuous
 62
     7
370
    15
100
AcDbLine
 10
213.9846586928246
 20
124.9618998064572
 30
0.0
 11
212.984660391557
 21
124.9618998064572
 31
0.0
  0
LINE
  5
1BA3
330
1F
100
AcDbEntity
  8
0
  6
Continuous
 62
     7
370
    15
100
AcDbLine
 10
212.984660391557
 20
127.9618998325342
 30
0.0
 11
212.984660391557
 21
124.9618998064572
 31
0.0
  0
LINE
  5
1BA4
330
1F
100
AcDbEntity
  8
0
  6
Continuous
 62
     7
370
    15
100
AcDbLine
 10
213.9846586928246
 20
127.9618998325342
 30
0.0
 11
212.984660391557
 21
127.9618998325342
 31
0.0
  0
LINE
  5
1BA5
330
1F
100
AcDbEntity
  8
0
  6
Continuous
 62
     7
370
    15
100
AcDbLine
 10
213.9846586928246
 20
127.9618998325342
 30
0.0
 11
213.9846586928246
 21
124.9618998064572
 31
0.0
  0
LINE
  5
1BA6
330
1F
100
AcDbEntity
  8
0
  6
Continuous
 62
     7
370
    15
100
AcDbLine
 10
229.8246596314488
 20
148.9619000150735
 30
0.0
 11
229.8246596314488
 21
141.2633207893843
 31
0.0
  0
LINE
  5
1BA7
330
1F
100
AcDbEntity
  8
0
  6
Continuous
 62
     7
370
    15
100
AcDbLine
 10
229.8246596314488
 20
141.2633207893843
 30
0.0
 11
230.9846596166966
 21
140.1033208041364
 31
0.0
  0
LINE
  5
1BA8
330
1F
100
AcDbEntity
  8
0
  6
Continuous
 62
     7
370
    15
100
AcDbLine
 10
230.9846596166966
 20
148.9619000150735
 30
0.0
 11
230.9846596166966
 21
140.1033208041364
 31
0.0
  0
LINE
  5
1BA9
330
1F
100
AcDbEntity
  8
0
  6
Continuous
 62
     7
370
    15
100
AcDbLine
 10
230.9846596166966
 20
148.9619000150735
 30
0.0
 11
230.9846596166966
 21
150.4618993296201
 31
0.0
  0
LINE
  5
1BAA
330
1F
100
AcDbEntity
  8
0
  6
Continuous
 62
     7
370
    15
100
AcDbLine
 10
230.9846596166966
 20
150.4618993296201
 30
0.0
 11
229.8246596314488
 21
150.4618993296201
 31
0.0
  0
LINE
  5
1BAB
330
1F
100
AcDbEntity
  8
0
  6
Continuous
 62
     7
370
    15
100
AcDbLine
 10
229.8246596314488
 20
150.4618993296201
 30
0.0
 11
229.8246596314488
 21
148.9619000150735
 31
0.0
  0
LINE
  5
1BAC
330
1F
100
AcDbEntity
  8
0
  6
Continuous
 62
     7
370
    15
100
AcDbLine
 10
229.8246596314488
 20
129.6604785404081
 30
0.0
 11
229.8246596314488
 21
121.9618993147189
 31
0.0
  0
LINE
  5
1BAD
330
1F
100
AcDbEntity
  8
0
  6
Continuous
 62
     7
370
    15
100
AcDbLine
 10
230.9846596166966
 20
130.8204785256559
 30
0.0
 11
229.8246596314488
 21
129.6604785404081
 31
0.0
  0
LINE
  5
1BAE
330
1F
100
AcDbEntity
  8
0
  6
Continuous
 62
     7
370
    15
100
AcDbLine
 10
230.9846596166966
 20
130.8204785256559
 30
0.0
 11
230.9846596166966
 21
121.9618993147189
 31
0.0
  0
LINE
  5
1BAF
330
1F
100
AcDbEntity
  8
0
  6
Continuous
 62
     7
370
    15
100
AcDbLine
 10
229.8246596314488
 20
120.4619000001723
 30
0.0
 11
230.9846596166966
 21
120.4619000001723
 31
0.0
  0
LINE
  5
1BB0
330
1F
100
AcDbEntity
  8
0
  6
Continuous
 62
     7
370
    15
100
AcDbLine
 10
229.8246596314488
 20
121.9618993147189
 30
0.0
 11
229.8246596314488
 21
120.4619000001723
 31
0.0
  0
LINE
  5
1BB1
330
1F
100
AcDbEntity
  8
0
  6
Continuous
 62
     7
370
    15
100
AcDbLine
 10
230.9846596166966
 20
120.4619000001723
 30
0.0
 11
230.9846596166966
 21
121.9618993147189
 31
0.0
  0
LINE
  5
1BB2
330
1F
100
AcDbEntity
  8
0
  6
Continuous
 62
     7
370
    15
100
AcDbLine
 10
229.7246595684914
 20
150.4618993296201
 30
0.0
 11
210.684658710706
 21
150.4618993296201
 31
0.0
  0
LINE
  5
1BB3
330
1F
100
AcDbEntity
  8
0
  6
Continuous
 62
     7
370
    15
100
AcDbLine
 10
229.7246595684914
 20
148.9619000150735
 30
0.0
 11
229.7246595684914
 21
150.4618993296201
 31
0.0
  0
LINE
  5
1BB4
330
1F
100
AcDbEntity
  8
0
  6
Continuous
 62
     7
370
    15
100
AcDbLine
 10
210.684658710706
 20
120.4619000001723
 30
0.0
 11
229.7246595684914
 21
120.4619000001723
 31
0.0
  0
LINE
  5
1BB5
330
1F
100
AcDbEntity
  8
0
  6
Continuous
 62
     7
370
    15
100
AcDbLine
 10
229.7246595684914
 20
120.4619000001723
 30
0.0
 11
229.7246595684914
 21
121.9618993147189
 31
0.0
  0
LINE
  5
1BB6
330
1F
100
AcDbEntity
  8
0
  6
Continuous
 62
     7
370
    15
100
AcDbLine
 10
225.4846596464989
 20
132.4618996388192
 30
0.0
 11
225.4846596464989
 21
138.4618996909732
 31
0.0
  0
LINE
  5
1BB7
330
1F
100
AcDbEntity
  8
0
  6
Continuous
 62
     7
370
    15
100
AcDbLine
 10
218.4846594304321
 20
132.4618996388192
 30
0.0
 11
218.4846594304321
 21
138.4618996909732
 31
0.0
  0
LINE
  5
1BB8
330
1F
100
AcDbEntity
  8
0
  6
Continuous
 62
     7
370
    15
100
AcDbLine
 10
219.4846595943449
 20
132.4618996388192
 30
0.0
 11
219.4846595943449
 21
138.4618996909732
 31
0.0
  0
LINE
  5
1BB9
330
1F
100
AcDbEntity
  8
0
  6
Continuous
 62
     7
370
    15
100
AcDbLine
 10
220.4846597582577
 20
132.4618996388192
 30
0.0
 11
220.4846597582577
 21
138.4618996909732
 31
0.0
  0
LINE
  5
1BBA
330
1F
100
AcDbEntity
  8
0
  6
Continuous
 62
     7
370
    15
100
AcDbLine
 10
222.4846591547606
 20
132.4618996388192
 30
0.0
 11
222.4846591547606
 21
138.4618996909732
 31
0.0
  0
LINE
  5
1BBB
330
1F
100
AcDbEntity
  8
0
  6
Continuous
 62
     7
370
    15
100
AcDbLine
 10
221.4846599221704
 20
132.4618996388192
 30
0.0
 11
221.4846599221704
 21
138.4618996909732
 31
0.0
  0
LINE
  5
1BBC
330
1F
100
AcDbEntity
  8
0
  6
Continuous
 62
     7
370
    15
100
AcDbLine
 10
223.4846597843347
 20
132.4618996388192
 30
0.0
 11
223.4846597843347
 21
138.4618996909732
 31
0.0
  0
LINE
  5
1BBD
330
1F
100
AcDbEntity
  8
0
  6
Continuous
 62
     7
370
    15
100
AcDbLine
 10
209.1846593961594
 20
148.9619000150735
 30
0.0
 11
209.1846593961594
 21
148.4618999331171
 31
0.0
  0
LINE
  5
1BBE
330
1F
100
AcDbEntity
  8
0
  6
Continuous
 62
     7
370
    15
100
AcDbLine
 10
209.1846593961594
 20
148.4618999331171
 30
0.0
 11
209.1846593961594
 21
122.4618993966753
 31
0.0
  0
LINE
  5
1BBF
330
1F
100
AcDbEntity
  8
0
  6
Continuous
 62
     7
370
    15
100
AcDbLine
 10
209.1846593961594
 20
122.4618993966753
 30
0.0
 11
209.1846593961594
 21
121.9618993147189
 31
0.0
  0
ARC
  5
1BC0
330
1F
100
AcDbEntity
  8
0
  6
Continuous
 62
     7
370
    15
100
AcDbCircle
 10
210.6846596166966
 20
148.9618996648962
 30
0.0
 40
1.5
100
AcDbArc
 50
90.0
 51
180.0
  0
ARC
  5
1BC1
330
1F
100
AcDbEntity
  8
0
  6
Continuous
 62
     7
370
    15
100
AcDbCircle
 10
210.6846596166966
 20
121.9618996648962
 30
0.0
 40
1.5
100
AcDbArc
 50
180.0
 51
270.0
  0
LINE
  5
1BC2
330
1F
100
AcDbEntity
  8
0
  6
Continuous
 62
     7
370
    15
100
AcDbLine
 10
224.4846594825862
 20
132.4618996388192
 30
0.0
 11
224.4846594825862
 21
138.4618996909732
 31
0.0
  0
LINE
  5
1BC3
330
1F
100
AcDbEntity
  8
0
  6
Continuous
 62
     7
370
    15
100
AcDbLine
 10
228.884659691575
 20
138.7118997319514
 30
0.0
 11
228.884659691575
 21
132.211899597841
 31
0.0
  0
LINE
  5
1BC4
330
1F
100
AcDbEntity
  8
0
  6
Continuous
 62
     7
370
    15
100
AcDbLine
 10
209.1346604124186
 20
148.4618999331171
 30
0.0
 11
209.1346604124186
 21
122.4618993966753
 31
0.0
  0
LINE
  5
1BC5
330
1F
100
AcDbEntity
  8
0
  6
Continuous
 62
     7
370
    15
100
AcDbLine
 10
209.1346604124186
 20
148.9619000150735
 30
0.0
 11
209.1846593961594
 21
148.9619000150735
 31
0.0
  0
LINE
  5
1BC6
330
1F
100
AcDbEntity
  8
0
  6
Continuous
 62
     7
370
    15
100
AcDbLine
 10
209.1346604124186
 20
148.9619000150735
 30
0.0
 11
209.1346604124186
 21
148.4618999331171
 31
0.0
  0
LINE
  5
1BC7
330
1F
100
AcDbEntity
  8
0
  6
Continuous
 62
     7
370
    15
100
AcDbLine
 10
209.1346604124186
 20
121.9618993147189
 30
0.0
 11
209.1846593961594
 21
121.9618993147189
 31
0.0
  0
LINE
  5
1BC8
330
1F
100
AcDbEntity
  8
0
  6
Continuous
 62
     7
370
    15
100
AcDbLine
 10
209.1346604124186
 20
122.4618993966753
 30
0.0
 11
209.1346604124186
 21
121.9618993147189
 31
0.0
  0
LINE
  5
1BC9
330
1F
100
AcDbEntity
  8
0
  6
Continuous
 62
     7
370
    15
100
AcDbLine
 10
230.9846596166966
 20
140.1033208041364
 30
0.0
 11
230.9846596166966
 21
139.9618994711811
 31
0.0
  0
LINE
  5
1BCA
330
1F
100
AcDbEntity
  8
0
  6
Continuous
 62
     7
370
    15
100
AcDbLine
 10
230.9846596166966
 20
130.9618998586113
 30
0.0
 11
230.9846596166966
 21
130.8204785256559
 31
0.0
  0
ELLIPSE
  5
1BCB
330
1F
100
AcDbEntity
  8
0
  6
Continuous
 62
     7
370
    15
100
AcDbEllipse
 10
226.4209511177118
 20
135.4618996648963
 30
0.0
 11
-10.98037078130455
 21
-4.548218497501411
 31
0.0
210
0.0
220
0.0
230
-1.0
 40
0.5993709352028287
 41
3.38494013112719
 42
3.7463072550339
  0
ELLIPSE
  5
1BCC
330
1F
100
AcDbEntity
  8
0
  6
Continuous
 62
     7
370
    15
100
AcDbEllipse
 10
226.4209511177118
 20
135.4618996648963
 30
0.0
 11
-10.9803707813046
 21
4.548218497501636
 31
0.0
210
0.0
220
0.0
230
-1.0
 40
0.5993709352028232
 41
2.5368780521457
 42
2.89824517605241
  0
LINE
  5
1BCD
330
1F
100
AcDbEntity
  8
0
  6
Continuous
 62
     7
370
    15
100
AcDbLine
 10
237.9846598327635
 20
132.6334725401277
 30
0.0
 11
237.9846598327635
 21
138.2903267896647
 31
0.0
  0
LINE
  5
1BCE
330
1F
100
AcDbEntity
  8
0
  6
Continuous
 62
     7
370
    15
100
AcDbLine
 10
237.0039562069354
 20
129.4618996127421
 30
0.0
 11
230.9846596166966
 21
129.4618996127421
 31
0.0
  0
ELLIPSE
  5
1BCF
330
1F
100
AcDbEntity
  8
0
  6
Continuous
 62
     7
370
    15
100
AcDbEllipse
 10
226.4209511177118
 20
129.4618996648962
 30
0.0
 11
-10.98037078130457
 21
-4.548218497501551
 31
0.0
210
0.0
220
0.0
230
-1.0
 40
0.5993709352028244
 41
3.384940131127196
 42
3.746307255033906
  0
LINE
  5
1BD0
330
1F
100
AcDbEntity
  8
0
  6
Continuous
 62
     7
370
    15
100
AcDbLine
 10
237.7346597917853
 20
132.6334725401277
 30
0.0
 11
237.7346597917853
 21
132.2903267375106
 31
0.0
  0
LINE
  5
1BD1
330
1F
100
AcDbEntity
  8
0
  6
Continuous
 62
     7
370
    15
100
AcDbLine
 10
237.0039562069354
 20
135.4618996648962
 30
0.0
 11
230.9846596166966
 21
135.4618996648962
 31
0.0
  0
LINE
  5
1BD2
330
1F
100
AcDbEntity
  8
0
  6
Continuous
 62
     7
370
    15
100
AcDbLine
 10
237.7346597917853
 20
138.6334725922818
 30
0.0
 11
237.7346597917853
 21
138.2903267896647
 31
0.0
  0
ELLIPSE
  5
1BD3
330
1F
100
AcDbEntity
  8
0
  6
Continuous
 62
     7
370
    15
100
AcDbEllipse
 10
226.4209511177118
 20
141.4618996648961
 30
0.0
 11
-10.98037078130451
 21
4.548218497501466
 31
0.0
210
0.0
220
0.0
230
-1.0
 40
0.5993709352028321
 41
2.536878052145703
 42
2.898245176052411
  0
LINE
  5
1BD4
330
1F
100
AcDbEntity
  8
0
  6
Continuous
 62
     7
370
    15
100
AcDbLine
 10
237.0039562069354
 20
141.4618997170502
 30
0.0
 11
230.9846596166966
 21
141.4618997170502
 31
0.0
  0
LINE
  5
1BD5
330
1F
100
AcDbEntity
  8
0
  6
Continuous
 62
     7
370
    15
100
AcDbLine
 10
237.9846598327635
 20
138.2903267896647
 30
0.0
 11
237.9846598327635
 21
138.3834725513036
 31
0.0
  0
LINE
  5
1BD6
330
1F
100
AcDbEntity
  8
0
  6
Continuous
 62
     7
370
    15
100
AcDbLine
 10
237.9846598327635
 20
132.5403267784888
 30
0.0
 11
237.9846598327635
 21
132.6334725401277
 31
0.0
  0
LINE
  5
1BD7
330
1F
100
AcDbEntity
  8
0
  6
Continuous
 62
     7
370
    15
100
AcDbLine
 10
237.0039562069354
 20
129.4618996127421
 30
0.0
 11
237.7346597917853
 21
129.4618996127421
 31
0.0
  0
LINE
  5
1BD8
330
1F
100
AcDbEntity
  8
0
  6
Continuous
 62
     7
370
    15
100
AcDbLine
 10
237.7346597917853
 20
129.4618996127421
 30
0.0
 11
237.9846598327635
 21
129.7118996537203
 31
0.0
  0
LINE
  5
1BD9
330
1F
100
AcDbEntity
  8
0
  6
Continuous
 62
     7
370
    15
100
AcDbLine
 10
237.9846598327635
 20
129.7118996537203
 30
0.0
 11
237.9846598327635
 21
132.5403267784888
 31
0.0
  0
LINE
  5
1BDA
330
1F
100
AcDbEntity
  8
0
  6
Continuous
 62
     7
370
    15
100
AcDbLine
 10
237.9846598327635
 20
141.2118996760721
 30
0.0
 11
237.7346597917853
 21
141.4618997170502
 31
0.0
  0
LINE
  5
1BDB
330
1F
100
AcDbEntity
  8
0
  6
Continuous
 62
     7
370
    15
100
AcDbLine
 10
237.7346597917853
 20
141.4618997170502
 30
0.0
 11
237.0039562069354
 21
141.4618997170502
 31
0.0
  0
LINE
  5
1BDC
330
1F
100
AcDbEntity
  8
0
  6
Continuous
 62
     7
370
    15
100
AcDbLine
 10
237.9846598327635
 20
138.3834725513036
 30
0.0
 11
237.9846598327635
 21
141.2118996760721
 31
0.0
  0
LINE
  5
1BDD
330
1F
100
AcDbEntity
  8
0
  6
Continuous
 62
     7
370
    15
100
AcDbLine
 10
245.9846592814205
 20
135.4618996648962
 30
0.0
 11
245.9846592814205
 21
139.3958742066199
 31
0.0
  0
LINE
  5
1BDE
330
1F
100
AcDbEntity
  8
0
  6
Continuous
 62
     7
370
    15
100
AcDbLine
 10
245.9846592814205
 20
131.5279251231725
 30
0.0
 11
245.9846592814205
 21
135.4618996648962
 31
0.0
  0
LINE
  5
1BDF
330
1F
100
AcDbEntity
  8
0
  6
Continuous
 62
     7
370
    15
100
AcDbLine
 10
238.2346594080804
 20
135.4618996648962
 30
0.0
 11
238.2346594080804
 21
140.261899892884
 31
0.0
  0
LINE
  5
1BE0
330
1F
100
AcDbEntity
  8
0
  6
Continuous
 62
     7
370
    15
100
AcDbLine
 10
238.2346594080804
 20
130.6618994369084
 30
0.0
 11
238.2346594080804
 21
135.4618996648962
 31
0.0
  0
LINE
  5
1BE1
330
1F
100
AcDbEntity
  8
0
  6
Continuous
 62
     7
370
    15
100
AcDbLine
 10
245.3403218955276
 20
135.4618996648962
 30
0.0
 11
245.3403218955276
 21
130.6618994369084
 31
0.0
  0
LINE
  5
1BE2
330
1F
100
AcDbEntity
  8
0
  6
Continuous
 62
     7
370
    15
100
AcDbLine
 10
245.3403218955276
 20
140.261899892884
 30
0.0
 11
245.3403218955276
 21
135.4618996648962
 31
0.0
  0
LINE
  5
1BE3
330
1F
100
AcDbEntity
  8
0
  6
Continuous
 62
     7
370
    15
100
AcDbLine
 10
245.5568283170936
 20
130.7868996902282
 30
0.0
 11
245.5568283170936
 21
140.1368996395642
 31
0.0
  0
ARC
  5
1BE4
330
1F
100
AcDbEntity
  8
0
  6
Continuous
 62
     7
370
    15
100
AcDbCircle
 10
162.5771770442374
 20
226.745196409746
 30
0.0
 40
0.25
100
AcDbArc
 50
270.0
 51
0.0
  0
ARC
  5
1BE5
330
1F
100
AcDbEntity
  8
0
  6
Continuous
 62
     7
370
    15
100
AcDbCircle
 10
172.6771770442373
 20
226.745196409746
 30
0.0
 40
0.25
100
AcDbArc
 50
180.0
 51
270.0
  0
ARC
  5
1BE6
330
1F
100
AcDbEntity
  8
0
  6
Continuous
 62
     7
370
    15
100
AcDbCircle
 10
163.0771770442374
 20
233.8508588424486
 30
0.0
 40
0.2500000000000142
100
AcDbArc
 50
119.9999999999997
 51
180.0
  0
ARC
  5
1BE7
330
1F
100
AcDbEntity
  8
0
  6
Continuous
 62
     7
370
    15
100
AcDbCircle
 10
172.1771770442373
 20
233.8508588424486
 30
0.0
 40
0.25
100
AcDbArc
 50
0.0
 51
60.00000000000028
  0
SPLINE
  5
1BE8
330
1F
100
AcDbEntity
  8
0
  6
Continuous
 62
     7
370
    15
100
AcDbSpline
210
0.0
220
0.0
230
1.0
 70
    24
 71
     1
 72
     4
 73
     2
 74
     0
 42
0.0000000001
 43
0.0000000001
 40
0.0
 40
0.0
 40
1.0
 40
1.0
 10
172.4271772722251
 20
226.7451962011298
 30
0.0
 10
172.4271772722251
 20
233.850858688577
 30
0.0
  0
SPLINE
  5
1BE9
330
1F
100
AcDbEntity
  8
0
  6
Continuous
 62
     7
370
    15
100
AcDbSpline
210
0.0
220
0.0
230
1.0
 70
    24
 71
     1
 72
     4
 73
     2
 74
     0
 42
0.0000000001
 43
0.0000000001
 40
0.0
 40
0.0
 40
1.0
 40
1.0
 10
162.8271768162495
 20
233.850858688577
 30
0.0
 10
162.8271768162495
 20
226.7451962011298
 30
0.0
  0
SPLINE
  5
1BEA
330
1F
100
AcDbEntity
  8
0
  6
Continuous
 62
     7
370
    15
100
AcDbSpline
210
0.0
220
0.0
230
1.0
 70
    24
 71
     1
 72
     4
 73
     2
 74
     0
 42
0.0000000001
 43
0.0000000001
 40
0.0
 40
0.0
 40
1.0
 40
1.0
 10
172.3021770189053
 20
234.067365110143
 30
0.0
 10
171.561151585961
 20
234.4951960744699
 30
0.0
  0
SPLINE
  5
1BEB
330
1F
100
AcDbEntity
  8
0
  6
Continuous
 62
     7
370
    15
100
AcDbSpline
210
0.0
220
0.0
230
1.0
 70
    24
 71
     1
 72
     4
 73
     2
 74
     0
 42
0.0000000001
 43
0.0000000001
 40
0.0
 40
0.0
 40
1.0
 40
1.0
 10
163.6932025025136
 20
234.4951960744699
 30
0.0
 10
162.9521770695693
 20
234.067365110143
 30
0.0
  0
SPLINE
  5
1BEC
330
1F
100
AcDbEntity
  8
0
  6
Continuous
 62
     7
370
    15
100
AcDbSpline
210
0.0
220
0.0
230
1.0
 70
    24
 71
     1
 72
     4
 73
     2
 74
     0
 42
0.0000000001
 43
0.0000000001
 40
0.0
 40
0.0
 40
1.0
 40
1.0
 10
174.5553802060432
 20
225.5144929999848
 30
0.0
 10
173.4229618045038
 20
226.4951966258129
 30
0.0
  0
SPLINE
  5
1BED
330
1F
100
AcDbEntity
  8
0
  6
Continuous
 62
     7
370
    15
100
AcDbSpline
210
0.0
220
0.0
230
1.0
 70
    24
 71
     1
 72
     4
 73
     2
 74
     0
 42
0.0000000001
 43
0.0000000001
 40
0.0
 40
0.0
 40
1.0
 40
1.0
 10
161.8313922839708
 20
226.4951966258129
 30
0.0
 10
160.6989738824314
 20
225.5144929999848
 30
0.0
  0
ARC
  5
1BEE
330
1F
100
AcDbEntity
  8
0
  6
Continuous
 62
     7
370
    15
100
AcDbCircle
 10
168.8242641144085
 20
202.5224542128145
 30
0.0
 40
4.999999999999998
100
AcDbArc
 50
272.6088114813169
 51
282.7216088319062
  0
ARC
  5
1BEF
330
1F
100
AcDbEntity
  8
0
  6
Continuous
 62
     7
370
    15
100
AcDbCircle
 10
166.4300899740661
 20
202.5224542128145
 30
0.0
 40
4.999999999999998
100
AcDbArc
 50
257.2783911680939
 51
267.3911885186831
  0
ARC
  5
1BF0
330
1F
100
AcDbEntity
  8
0
  6
Continuous
 62
     7
370
    15
100
AcDbCircle
 10
167.6271770442373
 20
228.7951964097463
 30
0.0
 40
31.30000000000021
100
AcDbArc
 50
267.3911885186831
 51
270.0
  0
ARC
  5
1BF1
330
1F
100
AcDbEntity
  8
0
  6
Continuous
 62
     7
370
    15
100
AcDbCircle
 10
167.6271770442373
 20
228.7951964097463
 30
0.0
 40
31.30000000000021
100
AcDbArc
 50
270.0
 51
272.6088114813169
  0
LINE
  5
1BF2
330
1F
100
AcDbEntity
  8
0
  6
Continuous
 62
     7
370
    15
100
AcDbLine
 10
157.1271771857983
 20
202.495195485874
 30
0.0
 11
157.1271771857983
 21
201.4951971846064
 31
0.0
  0
LINE
  5
1BF3
330
1F
100
AcDbEntity
  8
0
  6
Continuous
 62
     7
370
    15
100
AcDbLine
 10
160.1271772118754
 20
201.4951971846064
 30
0.0
 11
157.1271771857983
 21
201.4951971846064
 31
0.0
  0
LINE
  5
1BF4
330
1F
100
AcDbEntity
  8
0
  6
Continuous
 62
     7
370
    15
100
AcDbLine
 10
160.1271772118754
 20
202.495195485874
 30
0.0
 11
160.1271772118754
 21
201.4951971846064
 31
0.0
  0
LINE
  5
1BF5
330
1F
100
AcDbEntity
  8
0
  6
Continuous
 62
     7
370
    15
100
AcDbLine
 10
160.1271772118754
 20
202.495195485874
 30
0.0
 11
157.1271771857983
 21
202.495195485874
 31
0.0
  0
LINE
  5
1BF6
330
1F
100
AcDbEntity
  8
0
  6
Continuous
 62
     7
370
    15
100
AcDbLine
 10
154.12717669406
 20
218.2351963615408
 30
0.0
 11
181.1271773944146
 21
218.2351963615408
 31
0.0
  0
LINE
  5
1BF7
330
1F
100
AcDbEntity
  8
0
  6
Continuous
 62
     7
370
    15
100
AcDbLine
 10
175.1271768765992
 20
202.495195485874
 30
0.0
 11
175.1271768765992
 21
201.4951971846064
 31
0.0
  0
LINE
  5
1BF8
330
1F
100
AcDbEntity
  8
0
  6
Continuous
 62
     7
370
    15
100
AcDbLine
 10
178.1271769026763
 20
201.4951971846064
 30
0.0
 11
175.1271768765992
 21
201.4951971846064
 31
0.0
  0
LINE
  5
1BF9
330
1F
100
AcDbEntity
  8
0
  6
Continuous
 62
     7
370
    15
100
AcDbLine
 10
178.1271769026763
 20
202.495195485874
 30
0.0
 11
178.1271769026763
 21
201.4951971846064
 31
0.0
  0
LINE
  5
1BFA
330
1F
100
AcDbEntity
  8
0
  6
Continuous
 62
     7
370
    15
100
AcDbLine
 10
178.1271769026763
 20
202.495195485874
 30
0.0
 11
175.1271768765992
 21
202.495195485874
 31
0.0
  0
LINE
  5
1BFB
330
1F
100
AcDbEntity
  8
0
  6
Continuous
 62
     7
370
    15
100
AcDbLine
 10
164.6271770181603
 20
214.9951966034611
 30
0.0
 11
164.6271770181603
 21
213.9951964395483
 31
0.0
  0
LINE
  5
1BFC
330
1F
100
AcDbEntity
  8
0
  6
Continuous
 62
     7
370
    15
100
AcDbLine
 10
164.6271770181603
 20
213.9951964395483
 30
0.0
 11
164.6271770181603
 21
212.9951962756356
 31
0.0
  0
LINE
  5
1BFD
330
1F
100
AcDbEntity
  8
0
  6
Continuous
 62
     7
370
    15
100
AcDbLine
 10
164.6271770181603
 20
212.9951962756356
 30
0.0
 11
164.6271770181603
 21
211.9951965773841
 31
0.0
  0
LINE
  5
1BFE
330
1F
100
AcDbEntity
  8
0
  6
Continuous
 62
     7
370
    15
100
AcDbLine
 10
164.6271770181603
 20
211.9951965773841
 30
0.0
 11
164.6271770181603
 21
210.99519594781
 31
0.0
  0
LINE
  5
1BFF
330
1F
100
AcDbEntity
  8
0
  6
Continuous
 62
     7
370
    15
100
AcDbLine
 10
164.6271770181603
 20
210.99519594781
 30
0.0
 11
164.6271770181603
 21
209.9951967152198
 31
0.0
  0
LINE
  5
1C00
330
1F
100
AcDbEntity
  8
0
  6
Continuous
 62
     7
370
    15
100
AcDbLine
 10
164.6271770181603
 20
209.9951967152198
 30
0.0
 11
164.6271770181603
 21
208.995196551307
 31
0.0
  0
LINE
  5
1C01
330
1F
100
AcDbEntity
  8
0
  6
Continuous
 62
     7
370
    15
100
AcDbLine
 10
164.6271770181603
 20
208.995196551307
 30
0.0
 11
164.6271770181603
 21
207.9951963873943
 31
0.0
  0
LINE
  5
1C02
330
1F
100
AcDbEntity
  8
0
  6
Continuous
 62
     7
370
    15
100
AcDbLine
 10
164.6271770181603
 20
207.9951963873943
 30
0.0
 11
164.6271770181603
 21
206.9951962234815
 31
0.0
  0
LINE
  5
1C03
330
1F
100
AcDbEntity
  8
0
  6
Continuous
 62
     7
370
    15
100
AcDbLine
 10
164.6271770181603
 20
206.9951962234815
 30
0.0
 11
164.6271770181603
 21
205.9951960595687
 31
0.0
  0
LINE
  5
1C04
330
1F
100
AcDbEntity
  8
0
  6
Continuous
 62
     7
370
    15
100
AcDbLine
 10
170.6271770703143
 20
205.9951960595687
 30
0.0
 11
164.6271770181603
 21
205.9951960595687
 31
0.0
  0
LINE
  5
1C05
330
1F
100
AcDbEntity
  8
0
  6
Continuous
 62
     7
370
    15
100
AcDbLine
 10
170.6271770703143
 20
206.9951962234815
 30
0.0
 11
170.6271770703143
 21
205.9951960595687
 31
0.0
  0
LINE
  5
1C06
330
1F
100
AcDbEntity
  8
0
  6
Continuous
 62
     7
370
    15
100
AcDbLine
 10
170.6271770703143
 20
207.9951963873943
 30
0.0
 11
170.6271770703143
 21
206.9951962234815
 31
0.0
  0
LINE
  5
1C07
330
1F
100
AcDbEntity
  8
0
  6
Continuous
 62
     7
370
    15
100
AcDbLine
 10
170.6271770703143
 20
208.995196551307
 30
0.0
 11
170.6271770703143
 21
207.9951963873943
 31
0.0
  0
LINE
  5
1C08
330
1F
100
AcDbEntity
  8
0
  6
Continuous
 62
     7
370
    15
100
AcDbLine
 10
170.6271770703143
 20
209.9951967152198
 30
0.0
 11
170.6271770703143
 21
208.995196551307
 31
0.0
  0
LINE
  5
1C09
330
1F
100
AcDbEntity
  8
0
  6
Continuous
 62
     7
370
    15
100
AcDbLine
 10
170.6271770703143
 20
210.99519594781
 30
0.0
 11
170.6271770703143
 21
209.9951967152198
 31
0.0
  0
LINE
  5
1C0A
330
1F
100
AcDbEntity
  8
0
  6
Continuous
 62
     7
370
    15
100
AcDbLine
 10
170.6271770703143
 20
211.9951965773841
 30
0.0
 11
170.6271770703143
 21
210.99519594781
 31
0.0
  0
LINE
  5
1C0B
330
1F
100
AcDbEntity
  8
0
  6
Continuous
 62
     7
370
    15
100
AcDbLine
 10
170.6271770703143
 20
212.9951962756356
 30
0.0
 11
170.6271770703143
 21
211.9951965773841
 31
0.0
  0
LINE
  5
1C0C
330
1F
100
AcDbEntity
  8
0
  6
Continuous
 62
     7
370
    15
100
AcDbLine
 10
170.6271770703143
 20
213.9951964395483
 30
0.0
 11
170.6271770703143
 21
212.9951962756356
 31
0.0
  0
LINE
  5
1C0D
330
1F
100
AcDbEntity
  8
0
  6
Continuous
 62
     7
370
    15
100
AcDbLine
 10
170.6271770703143
 20
214.9951966034611
 30
0.0
 11
170.6271770703143
 21
213.9951964395483
 31
0.0
  0
LINE
  5
1C0E
330
1F
100
AcDbEntity
  8
0
  6
Continuous
 62
     7
370
    15
100
AcDbLine
 10
170.6271770703143
 20
214.9951966034611
 30
0.0
 11
164.6271770181603
 21
214.9951966034611
 31
0.0
  0
LINE
  5
1C0F
330
1F
100
AcDbEntity
  8
0
  6
Continuous
 62
     7
370
    15
100
AcDbLine
 10
181.1271773944146
 20
218.3351964244982
 30
0.0
 11
181.1271773944146
 21
219.495196409746
 31
0.0
  0
LINE
  5
1C10
330
1F
100
AcDbEntity
  8
0
  6
Continuous
 62
     7
370
    15
100
AcDbLine
 10
181.1271773944146
 20
219.495196409746
 30
0.0
 11
182.6271767089612
 21
219.495196409746
 31
0.0
  0
LINE
  5
1C11
330
1F
100
AcDbEntity
  8
0
  6
Continuous
 62
     7
370
    15
100
AcDbLine
 10
182.6271767089612
 20
219.495196409746
 30
0.0
 11
182.6271767089612
 21
218.3351964244982
 31
0.0
  0
LINE
  5
1C12
330
1F
100
AcDbEntity
  8
0
  6
Continuous
 62
     7
370
    15
100
AcDbLine
 10
182.6271767089612
 20
218.3351964244982
 30
0.0
 11
181.1271773944146
 21
218.3351964244982
 31
0.0
  0
LINE
  5
1C13
330
1F
100
AcDbEntity
  8
0
  6
Continuous
 62
     7
370
    15
100
AcDbLine
 10
181.1271773944146
 20
219.495196409746
 30
0.0
 11
154.12717669406
 21
219.495196409746
 31
0.0
  0
LINE
  5
1C14
330
1F
100
AcDbEntity
  8
0
  6
Continuous
 62
     7
370
    15
100
AcDbLine
 10
154.12717669406
 20
218.3351964244982
 30
0.0
 11
181.1271773944146
 21
218.3351964244982
 31
0.0
  0
LINE
  5
1C15
330
1F
100
AcDbEntity
  8
0
  6
Continuous
 62
     7
370
    15
100
AcDbLine
 10
154.12717669406
 20
219.495196409746
 30
0.0
 11
154.12717669406
 21
218.3351964244982
 31
0.0
  0
LINE
  5
1C16
330
1F
100
AcDbEntity
  8
0
  6
Continuous
 62
     7
370
    15
100
AcDbLine
 10
152.6271773795134
 20
199.1951955037554
 30
0.0
 11
152.6271773795134
 21
218.2351963615408
 31
0.0
  0
LINE
  5
1C17
330
1F
100
AcDbEntity
  8
0
  6
Continuous
 62
     7
370
    15
100
AcDbLine
 10
152.6271773795134
 20
218.2351963615408
 30
0.0
 11
154.12717669406
 21
218.2351963615408
 31
0.0
  0
LINE
  5
1C18
330
1F
100
AcDbEntity
  8
0
  6
Continuous
 62
     7
370
    15
100
AcDbLine
 10
152.6271773795134
 20
218.3351964244982
 30
0.0
 11
152.6271773795134
 21
219.495196409746
 31
0.0
  0
LINE
  5
1C19
330
1F
100
AcDbEntity
  8
0
  6
Continuous
 62
     7
370
    15
100
AcDbLine
 10
152.6271773795134
 20
219.495196409746
 30
0.0
 11
154.12717669406
 21
219.495196409746
 31
0.0
  0
LINE
  5
1C1A
330
1F
100
AcDbEntity
  8
0
  6
Continuous
 62
     7
370
    15
100
AcDbLine
 10
154.12717669406
 20
218.3351964244982
 30
0.0
 11
152.6271773795134
 21
218.3351964244982
 31
0.0
  0
LINE
  5
1C1B
330
1F
100
AcDbEntity
  8
0
  6
Continuous
 62
     7
370
    15
100
AcDbLine
 10
182.6271767089612
 20
218.2351963615408
 30
0.0
 11
182.6271767089612
 21
199.1951955037554
 31
0.0
  0
LINE
  5
1C1C
330
1F
100
AcDbEntity
  8
0
  6
Continuous
 62
     7
370
    15
100
AcDbLine
 10
181.1271773944146
 20
218.2351963615408
 30
0.0
 11
182.6271767089612
 21
218.2351963615408
 31
0.0
  0
LINE
  5
1C1D
330
1F
100
AcDbEntity
  8
0
  6
Continuous
 62
     7
370
    15
100
AcDbLine
 10
170.6271770703143
 20
206.9951962234815
 30
0.0
 11
164.6271770181603
 21
206.9951962234815
 31
0.0
  0
LINE
  5
1C1E
330
1F
100
AcDbEntity
  8
0
  6
Continuous
 62
     7
370
    15
100
AcDbLine
 10
170.6271770703143
 20
208.995196551307
 30
0.0
 11
164.6271770181603
 21
208.995196551307
 31
0.0
  0
LINE
  5
1C1F
330
1F
100
AcDbEntity
  8
0
  6
Continuous
 62
     7
370
    15
100
AcDbLine
 10
170.6271770703143
 20
210.99519594781
 30
0.0
 11
164.6271770181603
 21
210.99519594781
 31
0.0
  0
LINE
  5
1C20
330
1F
100
AcDbEntity
  8
0
  6
Continuous
 62
     7
370
    15
100
AcDbLine
 10
170.6271770703143
 20
209.9951967152198
 30
0.0
 11
164.6271770181603
 21
209.9951967152198
 31
0.0
  0
LINE
  5
1C21
330
1F
100
AcDbEntity
  8
0
  6
Continuous
 62
     7
370
    15
100
AcDbLine
 10
170.6271770703143
 20
207.9951963873943
 30
0.0
 11
164.6271770181603
 21
207.9951963873943
 31
0.0
  0
LINE
  5
1C22
330
1F
100
AcDbEntity
  8
0
  6
Continuous
 62
     7
370
    15
100
AcDbLine
 10
170.6271770703143
 20
213.9951964395483
 30
0.0
 11
164.6271770181603
 21
213.9951964395483
 31
0.0
  0
LINE
  5
1C23
330
1F
100
AcDbEntity
  8
0
  6
Continuous
 62
     7
370
    15
100
AcDbLine
 10
170.6271770703143
 20
212.9951962756356
 30
0.0
 11
164.6271770181603
 21
212.9951962756356
 31
0.0
  0
LINE
  5
1C24
330
1F
100
AcDbEntity
  8
0
  6
Continuous
 62
     7
370
    15
100
AcDbLine
 10
170.6271770703143
 20
211.9951965773841
 30
0.0
 11
164.6271770181603
 21
211.9951965773841
 31
0.0
  0
LINE
  5
1C25
330
1F
100
AcDbEntity
  8
0
  6
Continuous
 62
     7
370
    15
100
AcDbLine
 10
181.1271773944146
 20
197.6951961892089
 30
0.0
 11
180.6271773124582
 21
197.6951961892089
 31
0.0
  0
LINE
  5
1C26
330
1F
100
AcDbEntity
  8
0
  6
Continuous
 62
     7
370
    15
100
AcDbLine
 10
180.6271773124582
 20
197.6951961892089
 30
0.0
 11
154.6271767760164
 21
197.6951961892089
 31
0.0
  0
LINE
  5
1C27
330
1F
100
AcDbEntity
  8
0
  6
Continuous
 62
     7
370
    15
100
AcDbLine
 10
154.6271767760164
 20
197.6951961892089
 30
0.0
 11
154.12717669406
 21
197.6951961892089
 31
0.0
  0
ARC
  5
1C28
330
1F
100
AcDbEntity
  8
0
  6
Continuous
 62
     7
370
    15
100
AcDbCircle
 10
181.1271770442373
 20
199.195196409746
 30
0.0
 40
1.5
100
AcDbArc
 50
270.0
 51
0.0
  0
ARC
  5
1C29
330
1F
100
AcDbEntity
  8
0
  6
Continuous
 62
     7
370
    15
100
AcDbCircle
 10
154.1271770442373
 20
199.195196409746
 30
0.0
 40
1.5
100
AcDbArc
 50
180.0
 51
270.0
  0
LINE
  5
1C2A
330
1F
100
AcDbEntity
  8
0
  6
Continuous
 62
     7
370
    15
100
AcDbLine
 10
181.1271773944146
 20
197.645197205468
 30
0.0
 11
181.1271773944146
 21
197.6951961892089
 31
0.0
  0
LINE
  5
1C2B
330
1F
100
AcDbEntity
  8
0
  6
Continuous
 62
     7
370
    15
100
AcDbLine
 10
181.1271773944146
 20
197.645197205468
 30
0.0
 11
180.6271773124582
 21
197.645197205468
 31
0.0
  0
LINE
  5
1C2C
330
1F
100
AcDbEntity
  8
0
  6
Continuous
 62
     7
370
    15
100
AcDbLine
 10
180.6271773124582
 20
197.645197205468
 30
0.0
 11
180.6271773124582
 21
197.6951961892089
 31
0.0
  0
LINE
  5
1C2D
330
1F
100
AcDbEntity
  8
0
  6
Continuous
 62
     7
370
    15
100
AcDbLine
 10
180.6271773124582
 20
197.645197205468
 30
0.0
 11
154.6271767760164
 21
197.645197205468
 31
0.0
  0
LINE
  5
1C2E
330
1F
100
AcDbEntity
  8
0
  6
Continuous
 62
     7
370
    15
100
AcDbLine
 10
154.6271767760164
 20
197.645197205468
 30
0.0
 11
154.6271767760164
 21
197.6951961892089
 31
0.0
  0
LINE
  5
1C2F
330
1F
100
AcDbEntity
  8
0
  6
Continuous
 62
     7
370
    15
100
AcDbLine
 10
154.12717669406
 20
197.645197205468
 30
0.0
 11
154.12717669406
 21
197.6951961892089
 31
0.0
  0
LINE
  5
1C30
330
1F
100
AcDbEntity
  8
0
  6
Continuous
 62
     7
370
    15
100
AcDbLine
 10
154.6271767760164
 20
197.645197205468
 30
0.0
 11
154.12717669406
 21
197.645197205468
 31
0.0
  0
ELLIPSE
  5
1C31
330
1F
100
AcDbEntity
  8
0
  6
Continuous
 62
     7
370
    15
100
AcDbEllipse
 10
171.091278659375
 20
214.9314879107612
 30
0.0
 11
-6.110100926607671
 21
10.58300524425851
 31
0.0000000000000364
210
0.0
220
-0.0000000000000035
230
1.0
 40
0.6546536707079721
 41
5.560451059366195
 42
5.921818183272911
  0
LINE
  5
1C32
330
1F
100
AcDbEntity
  8
0
  6
Continuous
 62
     7
370
    15
100
AcDbLine
 10
167.6809547674612
 20
226.4951966258129
 30
0.0
 11
172.5799341978974
 21
226.4951966258129
 31
0.0
  0
ELLIPSE
  5
1C33
330
1F
100
AcDbEntity
  8
0
  6
Continuous
 62
     7
370
    15
100
AcDbEllipse
 10
171.091278659375
 20
214.9314879107611
 30
0.0
 11
1.900349924924682
 21
11.29150262212931
 31
0.0
210
0.0
220
0.0
230
1.0
 40
0.3728246932726879
 41
0.0626639155840332
 42
0.4240310394907515
  0
LINE
  5
1C34
330
1F
100
AcDbEntity
  8
0
  6
Continuous
 62
     7
370
    15
100
AcDbLine
 10
167.5733993210134
 20
226.4951966258129
 30
0.0
 11
167.6809547674612
 21
226.4951966258129
 31
0.0
  0
LINE
  5
1C35
330
1F
100
AcDbEntity
  8
0
  6
Continuous
 62
     7
370
    15
100
AcDbLine
 10
167.8252923333322
 20
226.2451965848347
 30
0.0
 11
167.4290617551424
 21
226.2451965848347
 31
0.0
  0
ELLIPSE
  5
1C36
330
1F
100
AcDbEntity
  8
0
  6
Continuous
 62
     7
370
    15
100
AcDbEllipse
 10
164.1630754290994
 20
214.9314879107612
 30
0.0
 11
-6.110100926607828
 21
-10.58300524425852
 31
-0.0000000000000373
210
-0.0000000000000002
220
-0.0000000000000034
230
1.0
 40
0.6546536707079685
 41
3.502959777496513
 42
3.864326901403221
  0
ELLIPSE
  5
1C37
330
1F
100
AcDbEntity
  8
0
  6
Continuous
 62
     7
370
    15
100
AcDbEllipse
 10
164.1630754290994
 20
214.9314879107612
 30
0.0
 11
-1.900349924924626
 21
11.29150262212926
 31
0.0
210
0.0
220
0.0
230
1.0
 40
0.3728246932726917
 41
5.859154267688873
 42
6.220521391595591
  0
LINE
  5
1C38
330
1F
100
AcDbEntity
  8
0
  6
Continuous
 62
     7
370
    15
100
AcDbLine
 10
162.6744198905772
 20
226.4951966258129
 30
0.0
 11
167.5733993210134
 21
226.4951966258129
 31
0.0
  0
ELLIPSE
  5
1C39
330
1F
100
AcDbEntity
  8
0
  6
Continuous
 62
     7
370
    15
100
AcDbEllipse
 10
174.5553802745129
 20
214.9314879107612
 30
0.0
 11
-1.900349924924682
 21
11.29150262212928
 31
0.0
210
0.0
220
0.0
230
1.0
 40
0.3728246932726917
 41
5.85915426768887
 42
6.220521391595591
  0
LINE
  5
1C3A
330
1F
100
AcDbEntity
  8
0
  6
Continuous
 62
     7
370
    15
100
AcDbLine
 10
174.5553802060432
 20
225.5144929999848
 30
0.0
 11
174.5553802060432
 21
219.495196409746
 31
0.0
  0
LINE
  5
1C3B
330
1F
100
AcDbEntity
  8
0
  6
Continuous
 62
     7
370
    15
100
AcDbLine
 10
171.0912786251402
 20
225.5144929999848
 30
0.0
 11
171.0912786251402
 21
219.495196409746
 31
0.0
  0
LINE
  5
1C3C
330
1F
100
AcDbEntity
  8
0
  6
Continuous
 62
     7
370
    15
100
AcDbLine
 10
172.9223870965189
 20
226.2451965848347
 30
0.0
 11
172.7242719674951
 21
226.2451965848347
 31
0.0
  0
LINE
  5
1C3D
330
1F
100
AcDbEntity
  8
0
  6
Continuous
 62
     7
370
    15
100
AcDbLine
 10
160.6989738824314
 20
225.5144929999848
 30
0.0
 11
160.6989738824314
 21
219.495196409746
 31
0.0
  0
ELLIPSE
  5
1C3E
330
1F
100
AcDbEntity
  8
0
  6
Continuous
 62
     7
370
    15
100
AcDbEllipse
 10
160.6989738139617
 20
214.9314879107612
 30
0.0
 11
1.900349924924597
 21
11.29150262212926
 31
0.0
210
0.0
220
0.0
230
1.0
 40
0.3728246932726909
 41
0.0626639155840288
 42
0.4240310394907427
  0
LINE
  5
1C3F
330
1F
100
AcDbEntity
  8
0
  6
Continuous
 62
     7
370
    15
100
AcDbLine
 10
162.5300821209795
 20
226.2451965848347
 30
0.0
 11
162.3319669919557
 21
226.2451965848347
 31
0.0
  0
LINE
  5
1C40
330
1F
100
AcDbEntity
  8
0
  6
Continuous
 62
     7
370
    15
100
AcDbLine
 10
164.1630754633344
 20
225.5144929999848
 30
0.0
 11
164.1630754633344
 21
219.495196409746
 31
0.0
  0
LINE
  5
1C41
330
1F
100
AcDbEntity
  8
0
  6
Continuous
 62
     7
370
    15
100
AcDbLine
 10
182.6271767089612
 20
218.3351964244982
 30
0.0
 11
182.6271767089612
 21
218.2351963615408
 31
0.0
  0
LINE
  5
1C42
330
1F
100
AcDbEntity
  8
0
  6
Continuous
 62
     7
370
    15
100
AcDbLine
 10
152.6271773795134
 20
218.3351964244982
 30
0.0
 11
152.6271773795134
 21
218.2351963615408
 31
0.0
  0
LINE
  5
1C43
330
1F
100
AcDbEntity
  8
0
  6
Continuous
 62
     7
370
    15
100
AcDbLine
 10
163.6932025025136
 20
234.4951960744699
 30
0.0
 11
171.561151585961
 21
234.4951960744699
 31
0.0
  0
LINE
  5
1C44
330
1F
100
AcDbEntity
  8
0
  6
Continuous
 62
     7
370
    15
100
AcDbLine
 10
162.6206420654899
 20
226.4951966258129
 30
0.0
 11
162.6744198905772
 21
226.4951966258129
 31
0.0
  0
LINE
  5
1C45
330
1F
100
AcDbEntity
  8
0
  6
Continuous
 62
     7
370
    15
100
AcDbLine
 10
172.5799341978974
 20
226.4951966258129
 30
0.0
 11
172.6337120229847
 21
226.4951966258129
 31
0.0
  0
LINE
  5
1C46
330
1F
100
AcDbEntity
  8
0
  6
Continuous
 62
     7
370
    15
100
AcDbLine
 10
172.6337120229847
 20
226.4951966258129
 30
0.0
 11
173.4229618045038
 21
226.4951966258129
 31
0.0
  0
LINE
  5
1C47
330
1F
100
AcDbEntity
  8
0
  6
Continuous
 62
     7
370
    15
100
AcDbLine
 10
161.8313922839708
 20
226.4951966258129
 30
0.0
 11
162.6206420654899
 21
226.4951966258129
 31
0.0
  0
LINE
  5
1C48
330
1F
100
AcDbEntity
  8
0
  6
Continuous
 62
     7
370
    15
100
AcDbLine
 10
180.8271769727117
 20
219.495196409746
 30
0.0
 11
181.627177476371
 21
219.495196409746
 31
0.0
  0
LINE
  5
1C49
330
1F
100
AcDbEntity
  8
0
  6
Continuous
 62
     7
370
    15
100
AcDbLine
 10
154.4271771157629
 20
219.495196409746
 30
0.0
 11
153.6271766121036
 21
219.495196409746
 31
0.0
  0
LINE
  5
1C4A
330
1F
100
AcDbEntity
  8
0
  6
Continuous
 62
     7
370
    15
100
AcDbLine
 10
162.8271768162495
 20
226.7451962011298
 30
0.0
 11
172.4271772722251
 21
226.7451962011298
 31
0.0
  0
LINE
  5
1C4B
330
1F
100
AcDbEntity
  8
0
  6
Continuous
 62
     7
370
    15
100
AcDbLine
 10
172.4271772722251
 20
233.850858688577
 30
0.0
 11
162.8271768162495
 21
233.850858688577
 31
0.0
  0
LINE
  5
1C4C
330
1F
100
AcDbEntity
  8
0
  6
Continuous
 62
     7
370
    15
100
AcDbLine
 10
162.9521770695693
 20
234.067365110143
 30
0.0
 11
172.3021770189053
 21
234.067365110143
 31
0.0
  0
CIRCLE
  5
1C4D
330
1F
100
AcDbEntity
  8
0
  6
Continuous
 62
     7
370
    15
100
AcDbCircle
 10
224.1846593961594
 20
212.695196409746
 30
0.0
 40
3.0
  0
CIRCLE
  5
1C4E
330
1F
100
AcDbEntity
  8
0
  6
Continuous
 62
     7
370
    15
100
AcDbCircle
 10
224.1846593961594
 20
212.695196409746
 30
0.0
 40
3.933974596215563
  0
CIRCLE
  5
1C4F
330
1F
100
AcDbEntity
  8
0
  6
Continuous
 62
     7
370
    15
100
AcDbCircle
 10
224.1846593961594
 20
212.695196409746
 30
0.0
 40
4.674999999999982
  0
CIRCLE
  5
1C50
330
1F
100
AcDbEntity
  8
0
  6
Continuous
 62
     7
370
    15
100
AcDbCircle
 10
224.1846593961594
 20
212.695196409746
 30
0.0
 40
2.0
  0
CIRCLE
  5
1C51
330
1F
100
AcDbEntity
  8
0
  6
Continuous
 62
     7
370
    15
100
AcDbCircle
 10
224.1846593961594
 20
212.695196409746
 30
0.0
 40
4.800000000000011
  0
CIRCLE
  5
1C52
330
1F
100
AcDbEntity
  8
0
  6
Continuous
 62
     7
370
    15
100
AcDbCircle
 10
224.1846593961594
 20
212.695196409746
 30
0.0
 40
5.050000000000011
  0
LINE
  5
1C53
330
1F
100
AcDbEntity
  8
0
  6
Continuous
 62
     7
370
    15
100
AcDbLine
 10
224.2384371202887
 20
218.445196409746
 30
0.0
 11
224.1308816720301
 21
218.445196409746
 31
0.0
  0
LINE
  5
1C54
330
1F
100
AcDbEntity
  8
0
  6
Continuous
 62
     7
370
    15
100
AcDbLine
 10
223.9865441047326
 20
218.695196409746
 30
0.0
 11
224.3827746875862
 21
218.695196409746
 31
0.0
  0
LINE
  5
1C55
330
1F
100
AcDbEntity
  8
0
  6
Continuous
 62
     7
370
    15
100
AcDbLine
 10
220.7205577810217
 20
206.695196409746
 30
0.0
 11
219.0875646191663
 21
209.5236235344923
 31
0.0
  0
ELLIPSE
  5
1C56
330
1F
100
AcDbEntity
  8
0
  6
Continuous
 62
     7
370
    15
100
AcDbEllipse
 10
227.3968679957408
 20
218.2589049087306
 30
0.0
 11
6.110100926607714
 21
10.58300524425823
 31
0.0
210
0.0
220
0.0
230
1.0
 40
0.6546536707079867
 41
2.780225529683078
 42
3.502959777496524
  0
LINE
  5
1C57
330
1F
100
AcDbEntity
  8
0
  6
Continuous
 62
     7
370
    15
100
AcDbLine
 10
223.9865441047326
 20
206.695196409746
 30
0.0
 11
220.7205577810217
 21
206.695196409746
 31
0.0
  0
LINE
  5
1C58
330
1F
100
AcDbEntity
  8
0
  6
Continuous
 62
     7
370
    15
100
AcDbLine
 10
224.1308816720301
 20
206.945196409746
 30
0.0
 11
224.2384371202887
 21
206.945196409746
 31
0.0
  0
LINE
  5
1C59
330
1F
100
AcDbEntity
  8
0
  6
Continuous
 62
     7
370
    15
100
AcDbLine
 10
224.3827746875862
 20
206.695196409746
 30
0.0
 11
223.9865441047326
 21
206.695196409746
 31
0.0
  0
LINE
  5
1C5A
330
1F
100
AcDbEntity
  8
0
  6
Continuous
 62
     7
370
    15
100
AcDbLine
 10
229.1374166058552
 20
209.7736235344923
 30
0.0
 11
229.1911943299846
 21
209.8667692849998
 31
0.0
  0
LINE
  5
1C5B
330
1F
100
AcDbEntity
  8
0
  6
Continuous
 62
     7
370
    15
100
AcDbLine
 10
229.4798694645793
 20
209.8667692849998
 30
0.0
 11
229.2817541731527
 21
209.5236235344923
 31
0.0
  0
LINE
  5
1C5C
330
1F
100
AcDbEntity
  8
0
  6
Continuous
 62
     7
370
    15
100
AcDbLine
 10
219.1781244623343
 20
209.8667692849998
 30
0.0
 11
219.2319021864636
 21
209.7736235344923
 31
0.0
  0
LINE
  5
1C5D
330
1F
100
AcDbEntity
  8
0
  6
Continuous
 62
     7
370
    15
100
AcDbLine
 10
219.0875646191663
 20
209.5236235344923
 30
0.0
 11
218.8894493277395
 21
209.8667692849998
 31
0.0
  0
LINE
  5
1C5E
330
1F
100
AcDbEntity
  8
0
  6
Continuous
 62
     7
370
    15
100
AcDbLine
 10
229.4798694645793
 20
215.5236235344922
 30
0.0
 11
231.112862626435
 21
212.695196409746
 31
0.0
  0
LINE
  5
1C5F
330
1F
100
AcDbEntity
  8
0
  6
Continuous
 62
     7
370
    15
100
AcDbLine
 10
231.112862626435
 20
212.695196409746
 30
0.0
 11
229.4798694645793
 21
209.8667692849998
 31
0.0
  0
ELLIPSE
  5
1C60
330
1F
100
AcDbEntity
  8
0
  6
Continuous
 62
     7
370
    15
100
AcDbEllipse
 10
217.7602421969967
 20
212.695196409746
 30
0.0
 11
12.22020185321544
 21
0.0000000000001421
 31
0.0
210
0.0
220
0.0
230
1.0
 40
0.6546536707079842
 41
5.921818183272884
 42
6.644552431086307
  0
LINE
  5
1C61
330
1F
100
AcDbEntity
  8
0
  6
Continuous
 62
     7
370
    15
100
AcDbLine
 10
218.8894493277395
 20
215.5236235344923
 30
0.0
 11
219.0875646191663
 21
215.8667692849998
 31
0.0
  0
LINE
  5
1C62
330
1F
100
AcDbEntity
  8
0
  6
Continuous
 62
     7
370
    15
100
AcDbLine
 10
219.2319021864636
 20
215.6167692849997
 30
0.0
 11
219.1781244623343
 21
215.5236235344923
 31
0.0
  0
LINE
  5
1C63
330
1F
100
AcDbEntity
  8
0
  6
Continuous
 62
     7
370
    15
100
AcDbLine
 10
229.2817541731527
 20
209.5236235344923
 30
0.0
 11
227.6487610112971
 21
206.695196409746
 31
0.0
  0
LINE
  5
1C64
330
1F
100
AcDbEntity
  8
0
  6
Continuous
 62
     7
370
    15
100
AcDbLine
 10
227.6487610112971
 20
206.695196409746
 30
0.0
 11
224.3827746875862
 21
206.695196409746
 31
0.0
  0
ELLIPSE
  5
1C65
330
1F
100
AcDbEntity
  8
0
  6
Continuous
 62
     7
370
    15
100
AcDbEllipse
 10
220.9724507965781
 20
218.2589049087306
 30
0.0
 11
6.11010092660766
 21
-10.58300524425823
 31
0.0
210
0.0
220
0.0
230
1.0
 40
0.6546536707079859
 41
5.921818183272891
 42
6.644552431086322
  0
LINE
  5
1C66
330
1F
100
AcDbEntity
  8
0
  6
Continuous
 62
     7
370
    15
100
AcDbLine
 10
220.7205577810217
 20
218.695196409746
 30
0.0
 11
223.9865441047326
 21
218.695196409746
 31
0.0
  0
ELLIPSE
  5
1C67
330
1F
100
AcDbEntity
  8
0
  6
Continuous
 62
     7
370
    15
100
AcDbEllipse
 10
227.3968679957408
 20
207.1314879107613
 30
0.0
 11
6.11010092660766
 21
-10.58300524425823
 31
0.0
210
0.0
220
0.0
230
1.0
 40
0.6546536707079866
 41
2.780225529683083
 42
3.502959777496528
  0
LINE
  5
1C68
330
1F
100
AcDbEntity
  8
0
  6
Continuous
 62
     7
370
    15
100
AcDbLine
 10
219.0875646191663
 20
215.8667692849998
 30
0.0
 11
220.7205577810217
 21
218.695196409746
 31
0.0
  0
LINE
  5
1C69
330
1F
100
AcDbEntity
  8
0
  6
Continuous
 62
     7
370
    15
100
AcDbLine
 10
224.3827746875862
 20
218.695196409746
 30
0.0
 11
227.6487610112971
 21
218.695196409746
 31
0.0
  0
LINE
  5
1C6A
330
1F
100
AcDbEntity
  8
0
  6
Continuous
 62
     7
370
    15
100
AcDbLine
 10
227.6487610112971
 20
218.695196409746
 30
0.0
 11
229.2817541731525
 21
215.8667692849999
 31
0.0
  0
ELLIPSE
  5
1C6B
330
1F
100
AcDbEntity
  8
0
  6
Continuous
 62
     7
370
    15
100
AcDbEllipse
 10
220.9724507965781
 20
207.1314879107613
 30
0.0
 11
6.1101009266078
 21
10.58300524425823
 31
0.0
210
0.0
220
0.0
230
1.0
 40
0.6546536707079833
 41
5.921818183272899
 42
6.644552431086324
  0
LINE
  5
1C6C
330
1F
100
AcDbEntity
  8
0
  6
Continuous
 62
     7
370
    15
100
AcDbLine
 10
229.1911943299846
 20
215.5236235344922
 30
0.0
 11
229.1374166058552
 21
215.6167692849999
 31
0.0
  0
LINE
  5
1C6D
330
1F
100
AcDbEntity
  8
0
  6
Continuous
 62
     7
370
    15
100
AcDbLine
 10
229.2817541731525
 20
215.8667692849999
 30
0.0
 11
229.4798694645793
 21
215.5236235344922
 31
0.0
  0
LINE
  5
1C6E
330
1F
100
AcDbEntity
  8
0
  6
Continuous
 62
     7
370
    15
100
AcDbLine
 10
217.2564561658838
 20
212.695196409746
 30
0.0
 11
218.8894493277395
 21
215.5236235344923
 31
0.0
  0
ELLIPSE
  5
1C6F
330
1F
100
AcDbEntity
  8
0
  6
Continuous
 62
     7
370
    15
100
AcDbEllipse
 10
230.6090765953221
 20
212.6951964097461
 30
0.0
 11
12.2202018532154
 21
0.0000000000000284
 31
0.0
210
0.0
220
0.0
230
1.0
 40
0.6546536707079865
 41
2.780225529683078
 42
3.502959777496524
  0
LINE
  5
1C70
330
1F
100
AcDbEntity
  8
0
  6
Continuous
 62
     7
370
    15
100
AcDbLine
 10
218.8894493277395
 20
209.8667692849998
 30
0.0
 11
217.2564561658838
 21
212.695196409746
 31
0.0
  0
CIRCLE
  5
1C71
330
1F
100
AcDbEntity
  8
0
  6
Continuous
 62
     7
370
    15
100
AcDbCircle
 10
214.1846593961594
 20
202.6951964097461
 30
0.0
 40
1.749999999999985
  0
CIRCLE
  5
1C72
330
1F
100
AcDbEntity
  8
0
  6
Continuous
 62
     7
370
    15
100
AcDbCircle
 10
234.1846593961594
 20
222.6951964097461
 30
0.0
 40
1.75
  0
CIRCLE
  5
1C73
330
1F
100
AcDbEntity
  8
0
  6
Continuous
 62
     7
370
    15
100
AcDbCircle
 10
224.1846593961594
 20
203.6951964097461
 30
0.0
 40
2.0
  0
ARC
  5
1C74
330
1F
100
AcDbEntity
  8
0
  6
Continuous
 62
     7
370
    15
100
AcDbCircle
 10
237.6846593961594
 20
199.195196409746
 30
0.0
 40
1.500000000000028
100
AcDbArc
 50
270.0
 51
0.0
  0
LINE
  5
1C75
330
1F
100
AcDbEntity
  8
0
  6
Continuous
 62
     7
370
    15
100
AcDbLine
 10
237.6846593961594
 20
197.695196409746
 30
0.0
 11
210.6846593961594
 21
197.695196409746
 31
0.0
  0
ARC
  5
1C76
330
1F
100
AcDbEntity
  8
0
  6
Continuous
 62
     7
370
    15
100
AcDbCircle
 10
210.6846593961594
 20
199.195196409746
 30
0.0
 40
1.5
100
AcDbArc
 50
180.0
 51
270.0
  0
LINE
  5
1C77
330
1F
100
AcDbEntity
  8
0
  6
Continuous
 62
     7
370
    15
100
AcDbLine
 10
210.9846593961594
 20
217.3366177659834
 30
0.0
 11
209.1846593961594
 21
217.3366177659834
 31
0.0
  0
LINE
  5
1C78
330
1F
100
AcDbEntity
  8
0
  6
Continuous
 62
     7
370
    15
100
AcDbLine
 10
209.1846593961594
 20
217.3366177659834
 30
0.0
 11
209.1846593961594
 21
226.1951964097461
 31
0.0
  0
ARC
  5
1C79
330
1F
100
AcDbEntity
  8
0
  6
Continuous
 62
     7
370
    15
100
AcDbCircle
 10
210.6846593961594
 20
226.1951964097461
 30
0.0
 40
1.5
100
AcDbArc
 50
90.0
 51
180.0
  0
LINE
  5
1C7A
330
1F
100
AcDbEntity
  8
0
  6
Continuous
 62
     7
370
    15
100
AcDbLine
 10
210.6846593961594
 20
227.6951964097461
 30
0.0
 11
237.6846593961594
 21
227.6951964097461
 31
0.0
  0
ARC
  5
1C7B
330
1F
100
AcDbEntity
  8
0
  6
Continuous
 62
     7
370
    15
100
AcDbCircle
 10
237.6846593961594
 20
226.1951964097461
 30
0.0
 40
1.5
100
AcDbArc
 50
0.0
 51
90.0
  0
LINE
  5
1C7C
330
1F
100
AcDbEntity
  8
0
  6
Continuous
 62
     7
370
    15
100
AcDbLine
 10
239.1846593961594
 20
226.1951964097461
 30
0.0
 11
239.1846593961594
 21
217.3366177659834
 31
0.0
  0
LINE
  5
1C7D
330
1F
100
AcDbEntity
  8
0
  6
Continuous
 62
     7
370
    15
100
AcDbLine
 10
237.3846593961594
 20
217.3366177659834
 30
0.0
 11
239.1846593961594
 21
217.3366177659834
 31
0.0
  0
LINE
  5
1C7E
330
1F
100
AcDbEntity
  8
0
  6
Continuous
 62
     7
370
    15
100
AcDbLine
 10
209.1846593961594
 20
199.195196409746
 30
0.0
 11
209.1846593961594
 21
208.0537750535087
 31
0.0
  0
LINE
  5
1C7F
330
1F
100
AcDbEntity
  8
0
  6
Continuous
 62
     7
370
    15
100
AcDbLine
 10
237.3846593961594
 20
217.3366177659834
 30
0.0
 11
237.3846593961594
 21
208.0537750535087
 31
0.0
  0
LINE
  5
1C80
330
1F
100
AcDbEntity
  8
0
  6
Continuous
 62
     7
370
    15
100
AcDbLine
 10
239.1846593961594
 20
208.0537750535087
 30
0.0
 11
239.1846593961594
 21
199.195196409746
 31
0.0
  0
LINE
  5
1C81
330
1F
100
AcDbEntity
  8
0
  6
Continuous
 62
     7
370
    15
100
AcDbLine
 10
237.3846593961594
 20
208.0537750535087
 30
0.0
 11
239.1846593961594
 21
208.0537750535087
 31
0.0
  0
LINE
  5
1C82
330
1F
100
AcDbEntity
  8
0
  6
Continuous
 62
     7
370
    15
100
AcDbLine
 10
210.9846593961594
 20
208.0537750535087
 30
0.0
 11
210.9846593961594
 21
217.3366177659834
 31
0.0
  0
LINE
  5
1C83
330
1F
100
AcDbEntity
  8
0
  6
Continuous
 62
     7
370
    15
100
AcDbLine
 10
210.9846593961594
 20
208.0537750535087
 30
0.0
 11
209.1846593961594
 21
208.0537750535087
 31
0.0
  0
CIRCLE
  5
1C84
330
1F
100
AcDbEntity
  8
0
  6
Continuous
 62
     7
370
    15
100
AcDbCircle
 10
214.1846593961594
 20
202.6951964097461
 30
0.0
 40
1.25
  0
CIRCLE
  5
1C85
330
1F
100
AcDbEntity
  8
0
  6
Continuous
 62
     7
370
    15
100
AcDbCircle
 10
224.1846593961594
 20
203.6951964097461
 30
0.0
 40
0.4000000000000057
  0
CIRCLE
  5
1C86
330
1F
100
AcDbEntity
  8
0
  6
Continuous
 62
     7
370
    15
100
AcDbCircle
 10
224.1846593961594
 20
203.6951964097461
 30
0.0
 40
0.5044690702083017
  0
CIRCLE
  5
1C87
330
1F
100
AcDbEntity
  8
0
  6
Continuous
 62
     7
370
    15
100
AcDbCircle
 10
234.1846593961594
 20
222.6951964097461
 30
0.0
 40
1.25
  0
CIRCLE
  5
1C88
330
1F
100
AcDbEntity
  8
0
  6
Continuous
 62
     7
370
    15
100
AcDbCircle
 10
224.1846593961594
 20
203.6951964097461
 30
0.0
 40
1.30142482868166
  0
LINE
  5
1C89
330
1F
100
AcDbEntity
  8
0
  6
Continuous
 62
     7
370
    15
100
AcDbLine
 10
210.1846593961594
 20
217.195196409746
 30
0.0
 11
209.1846593961594
 21
217.195196409746
 31
0.0
  0
LINE
  5
1C8A
330
1F
100
AcDbEntity
  8
0
  6
Continuous
 62
     7
370
    15
100
AcDbLine
 10
210.1846593961594
 20
208.1951964097461
 30
0.0
 11
210.1846593961594
 21
217.195196409746
 31
0.0
  0
LINE
  5
1C8B
330
1F
100
AcDbEntity
  8
0
  6
Continuous
 62
     7
370
    15
100
AcDbLine
 10
210.1846593961594
 20
208.1951964097461
 30
0.0
 11
209.1846593961594
 21
208.1951964097461
 31
0.0
  0
LINE
  5
1C8C
330
1F
100
AcDbEntity
  8
0
  6
Continuous
 62
     7
370
    15
100
AcDbLine
 10
209.1846593961594
 20
208.1951964097461
 30
0.0
 11
209.1846593961594
 21
217.195196409746
 31
0.0
  0
LINE
  5
1C8D
330
1F
100
AcDbEntity
  8
0
  6
Continuous
 62
     7
370
    15
100
AcDbLine
 10
238.1846593961594
 20
217.195196409746
 30
0.0
 11
239.1846593961594
 21
217.195196409746
 31
0.0
  0
LINE
  5
1C8E
330
1F
100
AcDbEntity
  8
0
  6
Continuous
 62
     7
370
    15
100
AcDbLine
 10
238.1846593961594
 20
217.195196409746
 30
0.0
 11
238.1846593961594
 21
217.3366177659834
 31
0.0
  0
LINE
  5
1C8F
330
1F
100
AcDbEntity
  8
0
  6
Continuous
 62
     7
370
    15
100
AcDbLine
 10
239.1846593961594
 20
217.195196409746
 30
0.0
 11
239.1846593961594
 21
217.3366177659834
 31
0.0
  0
LINE
  5
1C90
330
1F
100
AcDbEntity
  8
0
  6
Continuous
 62
     7
370
    15
100
AcDbLine
 10
210.1846593961594
 20
217.195196409746
 30
0.0
 11
210.1846593961594
 21
217.3366177659834
 31
0.0
  0
LINE
  5
1C91
330
1F
100
AcDbEntity
  8
0
  6
Continuous
 62
     7
370
    15
100
AcDbLine
 10
209.1846593961594
 20
217.195196409746
 30
0.0
 11
209.1846593961594
 21
217.3366177659834
 31
0.0
  0
LINE
  5
1C92
330
1F
100
AcDbEntity
  8
0
  6
Continuous
 62
     7
370
    15
100
AcDbLine
 10
210.1846593961594
 20
208.0537750535087
 30
0.0
 11
210.1846593961594
 21
208.1951964097461
 31
0.0
  0
LINE
  5
1C93
330
1F
100
AcDbEntity
  8
0
  6
Continuous
 62
     7
370
    15
100
AcDbLine
 10
209.1846593961594
 20
208.0537750535087
 30
0.0
 11
209.1846593961594
 21
208.1951964097461
 31
0.0
  0
LINE
  5
1C94
330
1F
100
AcDbEntity
  8
0
  6
Continuous
 62
     7
370
    15
100
AcDbLine
 10
238.1846593961594
 20
208.195196409746
 30
0.0
 11
239.1846593961594
 21
208.195196409746
 31
0.0
  0
LINE
  5
1C95
330
1F
100
AcDbEntity
  8
0
  6
Continuous
 62
     7
370
    15
100
AcDbLine
 10
238.1846593961594
 20
208.0537750535087
 30
0.0
 11
238.1846593961594
 21
208.195196409746
 31
0.0
  0
LINE
  5
1C96
330
1F
100
AcDbEntity
  8
0
  6
Continuous
 62
     7
370
    15
100
AcDbLine
 10
239.1846593961594
 20
208.0537750535087
 30
0.0
 11
239.1846593961594
 21
208.195196409746
 31
0.0
  0
LINE
  5
1C97
330
1F
100
AcDbEntity
  8
0
  6
Continuous
 62
     7
370
    15
100
AcDbLine
 10
238.1846593961594
 20
208.195196409746
 30
0.0
 11
238.1846593961594
 21
217.195196409746
 31
0.0
  0
LINE
  5
1C98
330
1F
100
AcDbEntity
  8
0
  6
Continuous
 62
     7
370
    15
100
AcDbLine
 10
239.1846593961594
 20
208.195196409746
 30
0.0
 11
239.1846593961594
 21
217.195196409746
 31
0.0
  0
CIRCLE
  5
1C99
330
1F
100
AcDbEntity
  8
0
  6
Continuous
 62
     7
370
    15
100
AcDbCircle
 10
224.1846593961594
 20
203.6951964097461
 30
0.0
 40
1.5
  0
INSERT
  5
1C9A
330
1F
100
AcDbEntity
  8
AM_7
100
AcDbBlockReference
  2
SW_CENTERMARKSYMBOL_0
 10
224.1846593961594
 20
212.695196409746
 30
0.0
  0
INSERT
  5
1C9B
330
1F
100
AcDbEntity
  8
AM_7
100
AcDbBlockReference
  2
SW_CENTERMARKSYMBOL_1
 10
234.1846593961594
 20
222.6951964097461
 30
0.0
  0
INSERT
  5
1C9C
330
1F
100
AcDbEntity
  8
AM_7
100
AcDbBlockReference
  2
SW_CENTERMARKSYMBOL_2
 10
214.1846593961594
 20
202.6951964097461
 30
0.0
  0
INSERT
  5
1C9D
330
1F
100
AcDbEntity
  8
AM_7
100
AcDbBlockReference
  2
SW_CENTERMARKSYMBOL_3
 10
224.1846593961594
 20
203.6951964097461
 30
0.0
  0
DIMENSION
  5
1C9E
330
1F
100
AcDbEntity
  8
AM_5
100
AcDbDimension
  2
*D21
 10
189.074796027424
 20
120.4619000001723
 30
0.0
 11
189.074796027424
 21
135.4618996648964
 31
0.0
 70
   160
 71
     5
 42
29.99999932944773
  3
AM_ISO$0
100
AcDbAlignedDimension
 13
181.1271773944146
 23
150.4618993296201
 33
0.0
 14
181.1271773944146
 24
120.4619000001723
 34
0.0
 50
90.0
100
AcDbRotatedDimension
1001
ACAD
1000
DSTYLE
1002
{
1070
   147
1040
1.0
1070
   271
1070
     0
1070
   272
1070
     4
1070
   279
1070
     0
1070
   285
1070
     0
1002
}
  0
DIMENSION
  5
1C9F
330
1F
100
AcDbEntity
  8
AM_5
100
AcDbDimension
  2
*D22
 10
182.6271767089612
 20
156.0373439277099
 30
0.0
 11
167.6271768765992
 21
158.5373439277099
 31
0.0
 70
    32
 71
     5
 42
29.99999966472387
  3
AM_ISO$0
100
AcDbAlignedDimension
 13
152.6271770442373
 23
148.9618996648962
 33
0.0
 14
182.6271767089612
 24
148.9619000150735
 34
0.0
100
AcDbRotatedDimension
1001
ACAD
1000
DSTYLE
1002
{
1070
   147
1040
1.0
1070
   271
1070
     0
1070
   272
1070
     4
1070
   279
1070
     0
1070
   285
1070
     0
1002
}
  0
DIMENSION
  5
1CA0
330
1F
100
AcDbEntity
  8
AM_5
100
AcDbDimension
  2
*D23
 10
189.8189023604558
 20
205.9951960595687
 30
0.0
 11
189.8189023604558
 21
210.4951963315151
 31
0.0
 70
   160
 71
     5
 42
9.000000543892383
  3
AM_ISO$0
100
AcDbAlignedDimension
 13
170.6271770703143
 23
214.9951966034611
 33
0.0
 14
170.6271770703143
 24
205.9951960595687
 34
0.0
 50
90.0
100
AcDbRotatedDimension
1001
ACAD
1000
DSTYLE
1002
{
1070
   147
1040
1.0
1070
   271
1070
     0
1070
   272
1070
     4
1070
   279
1070
     0
1070
   285
1070
     0
1002
}
  0
DIMENSION
  5
1CA1
330
1F
100
AcDbEntity
  8
AM_5
100
AcDbDimension
  2
*D24
 10
175.1271768765992
 20
183.8702216915789
 30
0.0
 11
167.6271770442373
 21
183.8702216915789
 31
0.0
 70
   160
 71
     5
 42
14.99999966472387
  3
AM_ISO$0
100
AcDbAlignedDimension
 13
160.1271772118754
 23
201.4951971846064
 33
0.0
 14
175.1271768765992
 24
201.4951971846064
 34
0.0
100
AcDbRotatedDimension
1001
ACAD
1000
DSTYLE
1002
{
1070
   147
1040
1.0
1070
   271
1070
     0
1070
   272
1070
     4
1070
   279
1070
     0
1070
   285
1070
     0
1002
}
  0
DIMENSION
  5
1CA2
330
1F
100
AcDbEntity
  8
AM_5
100
AcDbDimension
  2
*D25
 10
178.1271769026763
 20
177.2434950133442
 30
0.0
 11
167.6344995087571
 21
177.2434950133442
 31
0.0
 70
   160
 71
     5
 42
20.99999971687794
  3
AM_ISO$0
100
AcDbAlignedDimension
 13
157.1271771857983
 23
201.4951971846064
 33
0.0
 14
178.1271769026763
 24
201.4951971846064
 34
0.0
100
AcDbRotatedDimension
1001
ACAD
1000
DSTYLE
1002
{
1070
   147
1040
1.0
1070
   271
1070
     0
1070
   272
1070
     4
1070
   279
1070
     0
1070
   285
1070
     0
1002
}
  0
DIMENSION
  5
1CA3
330
1F
100
AcDbEntity
  8
AM_5
100
AcDbDimension
  2
*D26
 10
214.1846593961594
 20
238.4451964097461
 30
0.0
 11
224.1846593961594
 21
240.9451964097461
 31
0.0
 70
    32
 71
     5
 42
20.0
  3
AM_ISO$0
100
AcDbAlignedDimension
 13
234.1846593961594
 23
226.4451964097461
 33
0.0
 14
214.1846593961594
 24
206.4451964097461
 34
0.0
100
AcDbRotatedDimension
1001
ACAD
1000
DSTYLE
1002
{
1070
   147
1040
1.0
1070
   271
1070
     0
1070
   272
1070
     4
1070
   279
1070
     0
1070
   285
1070
     0
1002
}
  0
DIMENSION
  5
1CA4
330
1F
100
AcDbEntity
  8
AM_5
100
AcDbDimension
  2
*D27
 10
249.9346593961594
 20
222.6951964097461
 30
0.0
 11
247.4346593961594
 21
212.6951964097461
 31
0.0
 70
    32
 71
     5
 42
20.0
  3
AM_ISO$0
100
AcDbAlignedDimension
 13
217.9346593961594
 23
202.6951964097461
 33
0.0
 14
237.9346593961594
 24
222.6951964097461
 34
0.0
 50
90.0
100
AcDbRotatedDimension
1001
ACAD
1000
DSTYLE
1002
{
1070
   147
1040
1.0
1070
   271
1070
     0
1070
   272
1070
     4
1070
   279
1070
     0
1070
   285
1070
     0
1002
}
  0
DIMENSION
  5
1CA5
330
1F
100
AcDbEntity
  8
AM_5
100
AcDbDimension
  2
*D28
 10
230.9846596166966
 20
156.0373439277099
 30
0.0
 11
220.084659506428
 21
158.5373439277099
 31
0.0
 70
    32
 71
     5
 42
21.80000022053719
  3
AM_ISO$0
100
AcDbAlignedDimension
 13
209.1846593961594
 23
148.9619000150735
 33
0.0
 14
230.9846596166966
 24
150.4618993296201
 34
0.0
100
AcDbRotatedDimension
1001
ACAD
1000
DSTYLE
1002
{
1070
   147
1040
1.0
1070
   271
1070
     1
1070
   272
1070
     4
1070
   279
1070
     0
1070
   285
1070
     0
1002
}
  0
DIMENSION
  5
1CA6
330
1F
100
AcDbEntity
  8
AM_5
100
AcDbDimension
  2
*D29
 10
245.9846592814205
 20
163.6444130659051
 30
0.0
 11
227.58465933879
 21
163.6444130659051
 31
0.0
 70
   160
 71
     5
 42
36.79999988526106
  3
AM_ISO$0
100
AcDbAlignedDimension
 13
209.1846593961594
 23
148.9619000150735
 33
0.0
 14
245.9846592814205
 24
139.3958742066199
 34
0.0
100
AcDbRotatedDimension
1001
ACAD
1000
DSTYLE
1002
{
1070
   147
1040
1.0
1070
   271
1070
     1
1070
   272
1070
     4
1070
   279
1070
     0
1070
   285
1070
     0
1002
}
  0
DIMENSION
  5
1CA7
330
1F
100
AcDbEntity
  8
AM_5
100
AcDbDimension
  2
*D30
 10
170.6271770703143
 20
190.7364681564847
 30
0.0
 11
167.6271770442373
 21
190.7364681564847
 31
0.0
 70
   160
 71
     5
 42
6.000000052154064
  3
AM_ISO$0
100
AcDbAlignedDimension
 13
164.6271770181603
 23
205.9951960595687
 33
0.0
 14
170.6271770703143
 24
205.9951960595687
 34
0.0
100
AcDbRotatedDimension
1001
ACAD
1000
DSTYLE
1002
{
1070
   147
1040
1.0
1070
   271
1070
     0
1070
   272
1070
     4
1070
   279
1070
     0
1070
   285
1070
     0
1002
}
  0
TEXT
  5
1E38
330
1F
100
AcDbEntity
  8
LOGO
  6
Continuous
100
AcDbText
 10
210.0629347319599
 20
92.48441460902071
 30
0.0
 40
3.5
  1
F1
  7
CHINESET
100
AcDbText
  0
ENDSEC
  0
SECTION
  2
OBJECTS
  0
DICTIONARY
  5
C
330
0
100
AcDbDictionary
281
     1
  3
ACAD_COLOR
350
BE
  3
ACAD_GROUP
350
D
  3
ACAD_LAYOUT
350
1A
  3
ACAD_MATERIAL
350
BD
  3
ACAD_MLINESTYLE
350
17
  3
ACAD_PLOTSETTINGS
350
19
  3
ACAD_PLOTSTYLENAME
350
E
  3
ACAD_TABLESTYLE
350
11A
  3
ACDBHEADERROUNDTRIPXREC
350
1E64
  3
AcDbVariableDictionary
350
94
  3
AcmDictionary
350
5B
  3
AMG
350
41
  3
AMGSNAPSETTINGS
350
1B8
  3
DWGPROPS
350
1E63
  3
MAPISURF_MODULE
350
190D
  0
DICTIONARY
  5
3F9
330
2
100
AcDbDictionary
280
     1
281
     1
  3
ACAD_LAYERFILTERS
360
5B7
  3
ACAD_LAYERSTATES
360
C78
  3
ACLYDICTIONARY
360
5B6
  0
DICTIONARY
  5
8F
330
1F
100
AcDbDictionary
280
     1
281
     1
  3
ACAD_INDEX
360
1E3B
  3
ACAD_SORTENTS
360
166C
  0
DICTIONARY
  5
BE
102
{ACAD_REACTORS
330
C
102
}
330
C
100
AcDbDictionary
281
     1
  0
DICTIONARY
  5
D
102
{ACAD_REACTORS
330
C
102
}
330
C
100
AcDbDictionary
281
     1
  0
DICTIONARY
  5
1A
102
{ACAD_REACTORS
330
C
102
}
330
C
100
AcDbDictionary
281
     1
  3
Model
350
22
  3
配置1
350
1E
  3
配置2
350
26
  0
DICTIONARY
  5
BD
102
{ACAD_REACTORS
330
C
102
}
330
C
100
AcDbDictionary
281
     1
  0
DICTIONARY
  5
17
102
{ACAD_REACTORS
330
C
102
}
330
C
100
AcDbDictionary
281
     1
  3
Standard
350
18
  0
DICTIONARY
  5
19
102
{ACAD_REACTORS
330
C
102
}
330
C
100
AcDbDictionary
281
     1
  0
ACDBDICTIONARYWDFLT
  5
E
102
{ACAD_REACTORS
330
C
102
}
330
C
100
AcDbDictionary
281
     1
  3
Normal
350
F
100
AcDbDictionaryWithDefault
340
F
  0
DICTIONARY
  5
11A
102
{ACAD_REACTORS
330
C
102
}
330
C
100
AcDbDictionary
281
     1
  3
Standard
350
11B
  0
DICTIONARY
  5
1E64
102
{ACAD_REACTORS
330
C
102
}
330
C
100
AcDbDictionary
281
     1
  0
DICTIONARY
  5
94
102
{ACAD_REACTORS
330
C
102
}
330
C
100
AcDbDictionary
281
     1
  3
CTABLESTYLE
350
138
  3
DIMASSOC
350
96
  3
INDEXCTL
350
95
  3
PROJECTNAME
350
187D
  0
DICTIONARY
  5
5B
102
{ACAD_REACTORS
330
C
102
}
330
C
100
AcDbDictionary
281
     1
  3
AcmBOM
350
1B5
  3
AcmStdDictionary
350
61
  3
AMDTSECTSYM_ARROWCOLOR
350
123
  0
DICTIONARY
  5
41
102
{ACAD_REACTORS
330
C
102
}
330
C
100
AcDbDictionary
281
     1
  3
AcMgSettings
350
1887
  0
DICTIONARY
  5
1B8
102
{ACAD_REACTORS
330
C
102
}
330
C
100
AcDbDictionary
281
     1
  0
XRECORD
  5
1E63
102
{ACAD_REACTORS
330
C
102
}
330
C
100
AcDbXrecord
280
     1
  1
DWGPROPS COOKIE
  2

  3

  4

  6

  7

  8

  9

300
AmdtFileType=84
301
=
302
=
303
=
304
=
305
=
306
=
307
=
308
=
309
=
 40
0.0320435416666667
 41
2454190.707994063
 42
2456245.496807176
  1

 90
        1
  0
DICTIONARY
  5
5B7
102
{ACAD_REACTORS
330
3F9
102
}
330
3F9
100
AcDbDictionary
281
     1
  0
DICTIONARY
  5
C78
102
{ACAD_REACTORS
330
3F9
102
}
330
3F9
100
AcDbDictionary
281
     1
  0
DICTIONARY
  5
5B6
102
{ACAD_REACTORS
330
3F9
102
}
330
3F9
100
AcDbDictionary
281
     1
1001
ACAD
1000
<All
  0
DICTIONARY
  5
1E3B
102
{ACAD_REACTORS
330
8F
102
}
330
8F
100
AcDbDictionary
281
     1
  3
*A1
350
1E3C
  0
SORTENTSTABLE
  5
166C
102
{ACAD_REACTORS
330
8F
102
}
330
8F
100
AcDbSortentsTable
330
1F
  0
LAYOUT
  5
22
102
{ACAD_XDICTIONARY
360
1E67
102
}
102
{ACAD_REACTORS
330
1A
102
}
330
1A
100
AcDbPlotSettings
  1

  2
\\RD\EPSON Stylus C63 Series單色
  4
A4
  6

 40
3.757083177566528
 41
3.757076978683471
 42
3.757080078125
 43
3.757080078125
 44
209.9733276367187
 45
296.9683227539062
 46
0.0
 47
0.0
 48
0.0
 49
0.0
140
0.0
141
0.0
142
1.0
143
0.3405120737814363
 70
 11952
 72
     1
 73
     0
 74
     0
  7
彩色出圖.ctb
 75
     0
147
2.936753428137963
148
-2047.07469463503
149
-1261.649717473083
100
AcDbLayout
  1
Model
 70
     1
 71
     0
 10
0.0
 20
0.0
 11
12.0
 21
9.0
 12
0.0
 22
0.0
 32
0.0
 14
0.0
 24
0.0
 34
0.0
 15
0.0
 25
0.0
 35
0.0
146
0.0
 13
0.0
 23
0.0
 33
0.0
 16
1.0
 26
0.0
 36
0.0
 17
0.0
 27
1.0
 37
0.0
 76
     0
330
1F
1001
ACAD_PSEXT
1000
\\RD\EPSON Stylus C63 Series單色
1000
EPSON Stylus C63 Series
1000
\\RD
1000

1070
     0
  0
LAYOUT
  5
1E
102
{ACAD_XDICTIONARY
360
1E65
102
}
102
{ACAD_REACTORS
330
1A
102
}
330
1A
100
AcDbPlotSettings
  1

  2

  4

  6

 40
0.0
 41
0.0
 42
0.0
 43
0.0
 44
0.0
 45
0.0
 46
0.0
 47
0.0
 48
0.0
 49
0.0
140
0.0
141
0.0
142
1.0
143
1.0
 70
   688
 72
     0
 73
     0
 74
     5
  7
彩色出圖.ctb
 75
    16
147
1.0
148
0.0
149
0.0
100
AcDbLayout
  1
配置1
 70
     1
 71
     1
 10
0.0
 20
0.0
 11
420.0
 21
297.0
 12
0.0
 22
0.0
 32
0.0
 14
1.000000000000000E+20
 24
1.000000000000000E+20
 34
1.000000000000000E+20
 15
-1.000000000000000E+20
 25
-1.000000000000000E+20
 35
-1.000000000000000E+20
146
0.0
 13
0.0
 23
0.0
 33
0.0
 16
1.0
 26
0.0
 36
0.0
 17
0.0
 27
1.0
 37
0.0
 76
     0
330
1B
  0
LAYOUT
  5
26
102
{ACAD_XDICTIONARY
360
1E69
102
}
102
{ACAD_REACTORS
330
1A
102
}
330
1A
100
AcDbPlotSettings
  1

  2

  4

  6

 40
0.0
 41
0.0
 42
0.0
 43
0.0
 44
0.0
 45
0.0
 46
0.0
 47
0.0
 48
0.0
 49
0.0
140
0.0
141
0.0
142
1.0
143
1.0
 70
   688
 72
     0
 73
     0
 74
     5
  7
彩色出圖.ctb
 75
    16
147
1.0
148
0.0
149
0.0
100
AcDbLayout
  1
配置2
 70
     1
 71
     2
 10
0.0
 20
0.0
 11
12.0
 21
9.0
 12
0.0
 22
0.0
 32
0.0
 14
0.0
 24
0.0
 34
0.0
 15
0.0
 25
0.0
 35
0.0
146
0.0
 13
0.0
 23
0.0
 33
0.0
 16
1.0
 26
0.0
 36
0.0
 17
0.0
 27
1.0
 37
0.0
 76
     0
330
23
  0
MLINESTYLE
  5
18
102
{ACAD_REACTORS
330
17
102
}
330
17
100
AcDbMlineStyle
  2
STANDARD
 70
     0
  3

 62
   256
 51
90.0
 52
90.0
 71
     2
 49
0.5
 62
   256
  6
BYLAYER
 49
-0.5
 62
   256
  6
BYLAYER
  0
ACDBPLACEHOLDER
  5
F
102
{ACAD_REACTORS
330
E
102
}
330
E
  0
TABLESTYLE
  5
11B
102
{ACAD_REACTORS
330
11A
102
}
330
11A
100
AcDbTableStyle
  3
Standard
 70
     0
 71
     0
 40
1.5
 41
1.5
280
     0
281
     0
  7
STANDARD
140
4.5
170
     2
 62
     0
 63
     7
283
     0
274
    -2
284
     1
 64
     0
275
    -2
285
     1
 65
     0
276
    -2
286
     1
 66
     0
277
    -2
287
     1
 67
     0
278
    -2
288
     1
 68
     0
279
    -2
289
     1
 69
     0
  7
STANDARD
140
6.0
170
     5
 62
     0
 63
     7
283
     0
274
    -2
284
     1
 64
     0
275
    -2
285
     1
 65
     0
276
    -2
286
     1
 66
     0
277
    -2
287
     1
 67
     0
278
    -2
288
     1
 68
     0
279
    -2
289
     1
 69
     0
  7
STANDARD
140
4.5
170
     5
 62
     0
 63
     7
283
     0
274
    -2
284
     1
 64
     0
275
    -2
285
     1
 65
     0
276
    -2
286
     1
 66
     0
277
    -2
287
     1
 67
     0
278
    -2
288
     1
 68
     0
279
    -2
289
     1
 69
     0
  0
DICTIONARYVAR
  5
138
102
{ACAD_REACTORS
330
94
102
}
330
94
100
DictionaryVariables
280
     0
  1
STANDARD
  0
DICTIONARYVAR
  5
96
102
{ACAD_REACTORS
330
94
102
}
330
94
100
DictionaryVariables
280
     0
  1
2
  0
DICTIONARYVAR
  5
95
102
{ACAD_REACTORS
330
94
102
}
330
94
100
DictionaryVariables
280
     0
  1
1
  0
DICTIONARYVAR
  5
187D
102
{ACAD_REACTORS
330
94
102
}
330
94
100
DictionaryVariables
280
     0
  1

  0
DICTIONARY
  5
1B5
102
{ACAD_REACTORS
330
5B
102
}
330
5B
100
AcDbDictionary
281
     1
  0
DICTIONARY
  5
61
102
{ACAD_REACTORS
330
5B
102
}
330
5B
100
AcDbDictionary
281
     1
  0
XRECORD
  5
123
102
{ACAD_REACTORS
330
5B
102
}
330
5B
100
AcDbXrecord
280
     1
 90
-1023410169
  0
DICTIONARY
  5
1887
102
{ACAD_REACTORS
330
41
102
}
330
41
100
AcDbDictionary
281
     1
  3
DWGSETTINGS
350
1888
  3
TRANSSETTINGS
350
188B
  0
LAYER_INDEX
  5
1E3C
102
{ACAD_REACTORS
330
1E3B
102
}
330
1E3B
100
AcDbIndex
 40
2456245.496807176
100
AcDbLayerIndex
  8
0
360
1E3D
 90
      321
  8
AM_5
360
1E3E
 90
       10
  8
Defpoints
360
1E3F
 90
        0
  8
AM_VIS
360
1E40
 90
        0
  8
AM_7
360
1E41
 90
        4
  8
AM_0N
360
1E42
 90
        0
  8
LOGO
360
1E43
 90
       81
  0
DICTIONARY
  5
1E67
330
22
100
AcDbDictionary
280
     1
281
     1
  3
ACAD_XREC_ROUNDTRIP
360
1E68
  0
DICTIONARY
  5
1E65
330
1E
100
AcDbDictionary
280
     1
281
     1
  3
ACAD_XREC_ROUNDTRIP
360
1E66
  0
DICTIONARY
  5
1E69
330
26
100
AcDbDictionary
280
     1
281
     1
  3
ACAD_XREC_ROUNDTRIP
360
1E6A
  0
IDBUFFER
  5
1E3D
330
0
100
AcDbIdBuffer
330
1C49
330
1C4A
330
1C4B
330
1C4C
330
1C4D
330
1C4E
330
1C4F
330
1C50
330
1C51
330
1C52
330
1C53
330
1C54
330
1C55
330
1C56
330
1C57
330
1C58
330
1C59
330
1C5A
330
1C5B
330
1C5C
330
1C5D
330
1C5E
330
1C5F
330
1C60
330
1C61
330
1C62
330
1C63
330
1C64
330
1C65
330
1C66
330
1C67
330
1C68
330
1C69
330
1C6A
330
1C6B
330
1C6C
330
1C6D
330
1C6E
330
1C6F
330
1C70
330
1C71
330
1C72
330
1C73
330
1C74
330
1C75
330
1C76
330
1C77
330
1C78
330
1C79
330
1C7A
330
1C7B
330
1C7C
330
1C7D
330
1C7E
330
1C7F
330
1C80
330
1C81
330
1C82
330
1C83
330
1C84
330
1C85
330
1C86
330
1C87
330
1C88
330
1C89
330
1C8A
330
1C8B
330
1C8C
330
1C8D
330
1C8E
330
1C8F
330
1C90
330
1C91
330
1C92
330
1C93
330
1C94
330
1C95
330
1C96
330
1C97
330
1C98
330
1C99
330
17E2
330
17E3
330
17E4
330
1B5C
330
1B5D
330
1B5E
330
1B5F
330
1B60
330
1B61
330
1B62
330
1B63
330
1B64
330
1B65
330
1B66
330
1B67
330
1B68
330
1B69
330
1B6A
330
1B6B
330
1B6C
330
1B6D
330
1B6E
330
1B6F
330
1B70
330
1B71
330
1B72
330
1B73
330
1B74
330
1B75
330
1B76
330
1B77
330
1B78
330
1B79
330
1B7A
330
1B7B
330
1B7C
330
1B7D
330
1B7E
330
1B7F
330
1B80
330
1B81
330
1B82
330
1B83
330
1B84
330
1B85
330
1B86
330
1B87
330
1B88
330
1B89
330
1B8A
330
1B8B
330
1B8C
330
1B8D
330
1B8E
330
1B8F
330
1B90
330
1B91
330
1B92
330
1B93
330
1B94
330
1B95
330
1B96
330
1B97
330
1B98
330
1B99
330
1B9A
330
1B9B
330
1B9C
330
1B9D
330
1B9E
330
1B9F
330
1BA0
330
1BA1
330
1BA2
330
1BA3
330
1BA4
330
1BA5
330
1BA6
330
1BA7
330
1BA8
330
1BA9
330
1BAA
330
1BAB
330
1BAC
330
1BAD
330
1BAE
330
1BAF
330
1BB0
330
1BB1
330
1BB2
330
1BB3
330
1BB4
330
1BB5
330
1BB6
330
1BB7
330
1BB8
330
1BB9
330
1BBA
330
1BBB
330
1BBC
330
1BBD
330
1BBE
330
1BBF
330
1BC0
330
1BC1
330
1BC2
330
1BC3
330
1BC4
330
1BC5
330
1BC6
330
1BC7
330
1BC8
330
1BC9
330
1BCA
330
1BCB
330
1BCC
330
1BCD
330
1BCE
330
1BCF
330
1BD0
330
1BD1
330
1BD2
330
1BD3
330
1BD4
330
1BD5
330
1BD6
330
1BD7
330
1BD8
330
1BD9
330
1BDA
330
1BDB
330
1BDC
330
1BDD
330
1BDE
330
1BDF
330
1BE0
330
1BE1
330
1BE2
330
1BE3
330
1BE4
330
1BE5
330
1BE6
330
1BE7
330
1BE8
330
1BE9
330
1BEA
330
1BEB
330
1BEC
330
1BED
330
1BEE
330
1BEF
330
1BF0
330
1BF1
330
1BF2
330
1BF3
330
1BF4
330
1BF5
330
1BF6
330
1BF7
330
1BF8
330
1BF9
330
1BFA
330
1BFB
330
1BFC
330
1BFD
330
1BFE
330
1BFF
330
1C00
330
1C01
330
1C02
330
1C03
330
1C04
330
1C05
330
1C06
330
1C07
330
1C08
330
1C09
330
1C0A
330
1C0B
330
1C0C
330
1C0D
330
1C0E
330
1C0F
330
1C10
330
1C11
330
1C12
330
1C13
330
1C14
330
1C15
330
1C16
330
1C17
330
1C18
330
1C19
330
1C1A
330
1C1B
330
1C1C
330
1C1D
330
1C1E
330
1C1F
330
1C20
330
1C21
330
1C22
330
1C23
330
1C24
330
1C25
330
1C26
330
1C27
330
1C28
330
1C29
330
1C2A
330
1C2B
330
1C2C
330
1C2D
330
1C2E
330
1C2F
330
1C30
330
1C31
330
1C32
330
1C33
330
1C34
330
1C35
330
1C36
330
1C37
330
1C38
330
1C39
330
1C3A
330
1C3B
330
1C3C
330
1C3D
330
1C3E
330
1C3F
330
1C40
330
1C41
330
1C42
330
1C43
330
1C44
330
1C45
330
1C46
330
1C47
330
1C48
  0
IDBUFFER
  5
1E3E
330
0
100
AcDbIdBuffer
330
1C9E
330
1C9F
330
1CA0
330
1CA1
330
1CA2
330
1CA3
330
1CA4
330
1CA5
330
1CA6
330
1CA7
  0
IDBUFFER
  5
1E3F
330
0
100
AcDbIdBuffer
  0
IDBUFFER
  5
1E40
330
0
100
AcDbIdBuffer
  0
IDBUFFER
  5
1E41
330
0
100
AcDbIdBuffer
330
1C9A
330
1C9B
330
1C9C
330
1C9D
  0
IDBUFFER
  5
1E42
330
0
100
AcDbIdBuffer
  0
IDBUFFER
  5
1E43
330
0
100
AcDbIdBuffer
330
1792
330
1793
330
1794
330
1795
330
1796
330
1797
330
1798
330
1799
330
179A
330
179B
330
179C
330
179D
330
179E
330
179F
330
17A0
330
17A1
330
17A2
330
17A3
330
17A4
330
17A5
330
17A6
330
17A7
330
17A8
330
17A9
330
17B2
330
17B4
330
17DC
330
17DD
330
17DE
330
17DF
330
17E0
330
17E1
330
1E38
330
174D
330
174E
330
174F
330
1750
330
1751
330
1752
330
1753
330
1754
330
1755
330
1756
330
1757
330
1758
330
1759
330
175A
330
175B
330
175C
330
175D
330
175E
330
175F
330
1760
330
1761
330
1762
330
1763
330
1764
330
1765
330
1766
330
1767
330
1768
330
1769
330
176A
330
176B
330
176F
330
1773
330
1774
330
1778
330
1779
330
177A
330
177B
330
177C
330
177D
330
177E
330
177F
330
1783
330
1787
330
178B
330
178C
330
178D
330
1791
  0
XRECORD
  5
1E68
102
{ACAD_REACTORS
330
1E67
102
}
330
1E67
100
AcDbXrecord
280
     1
102
SHADEPLOT
 70
     0
102
SHADEPLOTRESLEVEL
 70
     2
102
SHADEPLOTCUSTOMDPI
 70
   300
  0
XRECORD
  5
1E66
102
{ACAD_REACTORS
330
1E65
102
}
330
1E65
100
AcDbXrecord
280
     1
102
SHADEPLOT
 70
     0
102
SHADEPLOTRESLEVEL
 70
     2
102
SHADEPLOTCUSTOMDPI
 70
   300
  0
XRECORD
  5
1E6A
102
{ACAD_REACTORS
330
1E69
102
}
330
1E69
100
AcDbXrecord
280
     1
102
SHADEPLOT
 70
     0
102
SHADEPLOTRESLEVEL
 70
     2
102
SHADEPLOTCUSTOMDPI
 70
   300
  0
ENDSEC
  0
EOF
