  0
SECTION
  2
HEADER
  9
$ACADVER
  1
AC1015
  9
$ACADMAINTVER
 70
    20
  9
$DWGCODEPAGE
  3
ANSI_950
  9
$INSBASE
 10
0.0
 20
0.0
 30
0.0
  9
$EXTMIN
 10
153.492139246762
 20
317.2586012233232
 30
-0.003999259258137
  9
$EXTMAX
 10
428.5790821342049
 20
517.3135727269015
 30
131.0617256295817
  9
$LIMMIN
 10
0.0
 20
0.0
  9
$LIMMAX
 10
420.0
 20
297.0
  9
$ORTHOMODE
 70
     1
  9
$REGENMODE
 70
     1
  9
$FILLMODE
 70
     1
  9
$QTEXTMODE
 70
     0
  9
$MIRRTEXT
 70
     1
  9
$LTSCALE
 40
1.0
  9
$ATTMODE
 70
     1
  9
$TEXTSIZE
 40
3.0
  9
$TRACEWID
 40
1.0
  9
$TEXTSTYLE
  7
STANDARD
  9
$CLAYER
  8
0
  9
$CELTYPE
  6
ByLayer
  9
$CECOLOR
 62
   256
  9
$CELTSCALE
 40
1.0
  9
$DISPSILH
 70
     0
  9
$DIMSCALE
 40
1.0
  9
$DIMASZ
 40
3.0
  9
$DIMEXO
 40
1.5
  9
$DIMDLI
 40
8.0
  9
$DIMRND
 40
0.0
  9
$DIMDLE
 40
0.0
  9
$DIMEXE
 40
1.5
  9
$DIMTP
 40
0.1
  9
$DIMTM
 40
0.1
  9
$DIMTXT
 40
3.5
  9
$DIMCEN
 40
0.0
  9
$DIMTSZ
 40
0.0
  9
$DIMTOL
 70
     0
  9
$DIMLIM
 70
     0
  9
$DIMTIH
 70
     0
  9
$DIMTOH
 70
     0
  9
$DIMSE1
 70
     0
  9
$DIMSE2
 70
     0
  9
$DIMTAD
 70
     1
  9
$DIMZIN
 70
     8
  9
$DIMBLK
  1

  9
$DIMASO
 70
     1
  9
$DIMSHO
 70
     1
  9
$DIMPOST
  1

  9
$DIMAPOST
  1
"
  9
$DIMALT
 70
     0
  9
$DIMALTD
 70
     2
  9
$DIMALTF
 40
0.0393701
  9
$DIMLFAC
 40
1.0
  9
$DIMTOFL
 70
     1
  9
$DIMTVP
 40
0.0
  9
$DIMTIX
 70
     0
  9
$DIMSOXD
 70
     0
  9
$DIMSAH
 70
     0
  9
$DIMBLK1
  1

  9
$DIMBLK2
  1

  9
$DIMSTYLE
  2
AM_ISO
  9
$DIMCLRD
 70
   256
  9
$DIMCLRE
 70
   256
  9
$DIMCLRT
 70
   256
  9
$DIMTFAC
 40
0.6
  9
$DIMGAP
 40
1.0
  9
$DIMJUST
 70
     0
  9
$DIMSD1
 70
     0
  9
$DIMSD2
 70
     0
  9
$DIMTOLJ
 70
     0
  9
$DIMTZIN
 70
     8
  9
$DIMALTZ
 70
     0
  9
$DIMALTTZ
 70
     0
  9
$DIMUPT
 70
     0
  9
$DIMDEC
 70
     2
  9
$DIMTDEC
 70
     2
  9
$DIMALTU
 70
     2
  9
$DIMALTTD
 70
     2
  9
$DIMTXSTY
  7
STANDARD
  9
$DIMAUNIT
 70
     0
  9
$DIMADEC
 70
     0
  9
$DIMALTRND
 40
0.0
  9
$DIMAZIN
 70
     2
  9
$DIMDSEP
 70
    46
  9
$DIMATFIT
 70
     3
  9
$DIMFRAC
 70
     0
  9
$DIMLDRBLK
  1

  9
$DIMLUNIT
 70
     2
  9
$DIMLWD
 70
    -1
  9
$DIMLWE
 70
    -1
  9
$DIMTMOVE
 70
     0
  9
$LUNITS
 70
     2
  9
$LUPREC
 70
     2
  9
$SKETCHINC
 40
1.0
  9
$FILLETRAD
 40
2.5
  9
$AUNITS
 70
     0
  9
$AUPREC
 70
     0
  9
$MENU
  1
.
  9
$ELEVATION
 40
0.0
  9
$PELEVATION
 40
0.0
  9
$THICKNESS
 40
0.0
  9
$LIMCHECK
 70
     0
  9
$CHAMFERA
 40
2.5
  9
$CHAMFERB
 40
2.5
  9
$CHAMFERC
 40
20.0
  9
$CHAMFERD
 40
0.0
  9
$SKPOLY
 70
     0
  9
$TDCREATE
 40
2454431.596737917
  9
$TDUCREATE
 40
2454431.263404584
  9
$TDUPDATE
 40
2454431.623154294
  9
$TDUUPDATE
 40
2454431.289820961
  9
$TDINDWG
 40
0.0264179977
  9
$TDUSRTIMER
 40
0.0264179977
  9
$USRTIMER
 70
     1
  9
$ANGBASE
 50
0.0
  9
$ANGDIR
 70
     0
  9
$PDMODE
 70
     0
  9
$PDSIZE
 40
0.0
  9
$PLINEWID
 40
0.0
  9
$SPLFRAME
 70
     0
  9
$SPLINETYPE
 70
     6
  9
$SPLINESEGS
 70
     8
  9
$HANDSEED
  5
1735
  9
$SURFTAB1
 70
     6
  9
$SURFTAB2
 70
     6
  9
$SURFTYPE
 70
     6
  9
$SURFU
 70
     6
  9
$SURFV
 70
     6
  9
$UCSBASE
  2

  9
$UCSNAME
  2

  9
$UCSORG
 10
0.0
 20
0.0
 30
0.0
  9
$UCSXDIR
 10
1.0
 20
0.0
 30
0.0
  9
$UCSYDIR
 10
0.0
 20
1.0
 30
0.0
  9
$UCSORTHOREF
  2

  9
$UCSORTHOVIEW
 70
     0
  9
$UCSORGTOP
 10
0.0
 20
0.0
 30
0.0
  9
$UCSORGBOTTOM
 10
0.0
 20
0.0
 30
0.0
  9
$UCSORGLEFT
 10
0.0
 20
0.0
 30
0.0
  9
$UCSORGRIGHT
 10
0.0
 20
0.0
 30
0.0
  9
$UCSORGFRONT
 10
0.0
 20
0.0
 30
0.0
  9
$UCSORGBACK
 10
0.0
 20
0.0
 30
0.0
  9
$PUCSBASE
  2

  9
$PUCSNAME
  2

  9
$PUCSORG
 10
0.0
 20
0.0
 30
0.0
  9
$PUCSXDIR
 10
1.0
 20
0.0
 30
0.0
  9
$PUCSYDIR
 10
0.0
 20
1.0
 30
0.0
  9
$PUCSORTHOREF
  2

  9
$PUCSORTHOVIEW
 70
     0
  9
$PUCSORGTOP
 10
0.0
 20
0.0
 30
0.0
  9
$PUCSORGBOTTOM
 10
0.0
 20
0.0
 30
0.0
  9
$PUCSORGLEFT
 10
0.0
 20
0.0
 30
0.0
  9
$PUCSORGRIGHT
 10
0.0
 20
0.0
 30
0.0
  9
$PUCSORGFRONT
 10
0.0
 20
0.0
 30
0.0
  9
$PUCSORGBACK
 10
0.0
 20
0.0
 30
0.0
  9
$USERI1
 70
     0
  9
$USERI2
 70
     0
  9
$USERI3
 70
     0
  9
$USERI4
 70
     0
  9
$USERI5
 70
     0
  9
$USERR1
 40
0.0
  9
$USERR2
 40
0.0
  9
$USERR3
 40
0.0
  9
$USERR4
 40
0.0
  9
$USERR5
 40
0.0
  9
$WORLDVIEW
 70
     1
  9
$SHADEDGE
 70
     3
  9
$SHADEDIF
 70
    70
  9
$TILEMODE
 70
     1
  9
$MAXACTVP
 70
    64
  9
$PINSBASE
 10
0.0
 20
0.0
 30
0.0
  9
$PLIMCHECK
 70
     0
  9
$PEXTMIN
 10
1.000000000000000E+20
 20
1.000000000000000E+20
 30
1.000000000000000E+20
  9
$PEXTMAX
 10
-1.000000000000000E+20
 20
-1.000000000000000E+20
 30
-1.000000000000000E+20
  9
$PLIMMIN
 10
0.0
 20
0.0
  9
$PLIMMAX
 10
420.0
 20
297.0
  9
$UNITMODE
 70
     0
  9
$VISRETAIN
 70
     1
  9
$PLINEGEN
 70
     0
  9
$PSLTSCALE
 70
     1
  9
$TREEDEPTH
 70
  3020
  9
$CMLSTYLE
  2
Standard
  9
$CMLJUST
 70
     0
  9
$CMLSCALE
 40
20.0
  9
$PROXYGRAPHICS
 70
     1
  9
$MEASUREMENT
 70
     1
  9
$CELWEIGHT
370
    -1
  9
$ENDCAPS
280
     0
  9
$JOINSTYLE
280
     0
  9
$LWDISPLAY
290
     0
  9
$INSUNITS
 70
     4
  9
$HYPERLINKBASE
  1

  9
$STYLESHEET
  1
彩色出圖.ctb
  9
$XEDIT
290
     1
  9
$CEPSNTYPE
380
     0
  9
$PSTYLEMODE
290
     1
  9
$FINGERPRINTGUID
  2
{47C3110A-96C9-459C-8753-A5672B4C87C1}
  9
$VERSIONGUID
  2
{D5935514-44FE-4474-A7C2-617CD9CC5683}
  9
$EXTNAMES
290
     1
  9
$PSVPSCALE
 40
0.0
  9
$OLESTARTUP
290
     0
  0
ENDSEC
  0
SECTION
  2
CLASSES
  0
CLASS
  1
ACDBDICTIONARYWDFLT
  2
AcDbDictionaryWithDefault
  3
ObjectDBX Classes
 90
        0
280
     0
281
     0
  0
CLASS
  1
ACDBPLACEHOLDER
  2
AcDbPlaceHolder
  3
ObjectDBX Classes
 90
        0
280
     0
281
     0
  0
CLASS
  1
LAYOUT
  2
AcDbLayout
  3
ObjectDBX Classes
 90
        0
280
     0
281
     0
  0
CLASS
  1
ACME_DOCUMENT
  2
AcMeDbDoc
  3
AcMeServices
 90
        0
280
     0
281
     0
  0
CLASS
  1
AMGSETTINGSOBJ
  2
AmgSettingsObj
  3
"AcadM|Product Description: AutoCAD Mechanical 2000|Company: Autodesk"
 90
        0
280
     0
281
     0
  0
CLASS
  1
ACMESCOPE
  2
AcMeScope
  3
AcMeServices
 90
        0
280
     0
281
     0
  0
CLASS
  1
ACMECOMMANDHISTORY
  2
AcMeCommandHistory
  3
AcMeServices
 90
        0
280
     0
281
     0
  0
CLASS
  1
ACIMSYSVARMAN
  2
AcImSysVarManager
  3
AcMeServices
 90
        0
280
     0
281
     0
  0
CLASS
  1
ACIMREALSYSVAR
  2
AcImRealSysVar
  3
AcMeServices
 90
        0
280
     0
281
     0
  0
CLASS
  1
ACIMINTSYSVAR
  2
AcImIntSysVar
  3
AcMeServices
 90
        0
280
     0
281
     0
  0
CLASS
  1
ACMEDRAWINGMAN
  2
AcMeDrawingMan
  3
AcMeServices
 90
        0
280
     0
281
     0
  0
CLASS
  1
ACMEVIEW
  2
AcMeView
  3
AcMeServices
 90
        0
280
     0
281
     0
  0
CLASS
  1
ACDBENTITYCACHE
  2
AcMeEntityCache
  3
AcMeServices
 90
        0
280
     0
281
     0
  0
CLASS
  1
GSMANAGER
  2
AcMeGSManager
  3
AcMeServices
 90
        0
280
     0
281
     0
  0
CLASS
  1
AMDTINTERNALREACTOR
  2
AmdtInternalReactor
  3
AcMeServices
 90
        0
280
     0
281
     0
  0
CLASS
  1
ACMESTATEMGR
  2
AcMeStateMgr
  3
AcMeServices
 90
        0
280
     0
281
     0
  0
CLASS
  1
ACGREFMASTER
  2
AcGrefMaster
  3
AcAttribServices
 90
        0
280
     0
281
     0
  0
CLASS
  1
ACME_DATABASE
  2
AcMeDbDatabase
  3
AcMeServices
 90
        0
280
     0
281
     0
  0
CLASS
  1
ACRFINSADJUSTERMGR
  2
AcRfInsAdjusterMgr
  3
AcMeServices
 90
        0
280
     0
281
     0
  0
CLASS
  1
ACGREFACADMASTER
  2
AcGrefacadMaster
  3
AcGrefServices
 90
        0
280
     0
281
     0
  0
CLASS
  1
AMIMASTER
  2
AmiMaster
  3
AmiServices
 90
        0
280
     0
281
     0
  0
CLASS
  1
ACMDATADICTIONARY
  2
AcmDataDictionary
  3
"AcmSymBB|Product Description: AutoCAD Mechanical 2004 DX|Company: Autodesk"
 90
        0
280
     0
281
     0
  0
CLASS
  1
ACMDATAENTRYBLOCK
  2
AcmDataEntryBlock
  3
"AcmSymBB|Product Description: AutoCAD Mechanical 2004 DX|Company: Autodesk"
 90
        0
280
     0
281
     0
  0
CLASS
  1
ACIMSTRSYSVAR
  2
AcImStrSysVar
  3
AcMeServices
 90
        0
280
     0
281
     0
  0
CLASS
  1
ACMSTANDARDISO
  2
AcmStandardISO
  3
"Amdt_StdImp|Product Description: AutoCAD Mechanical 2004 DX|Company: Autodesk"
 90
        0
280
     0
281
     0
  0
CLASS
  1
AMGOBJPROPCFG
  2
AmgObjPropCfg
  3
"AmgLay|Product Description: AutoCAD Mechanical 2000|Company: Autodesk"
 90
        1
280
     0
281
     0
  0
CLASS
  1
AMDTEDGESTANDARDISO
  2
AmdtEdgeStdISO
  3
"Amdt_StdImp|Product Description: AutoCAD Mechanical 2004 DX|Company: Autodesk"
 90
        0
280
     0
281
     0
  0
CLASS
  1
ACMSURFSTANDARDISO
  2
AcmSurfTextStdISO
  3
"Amdt_StdImp|Product Description: AutoCAD Mechanical 2004 DX|Company: Autodesk"
 90
        0
280
     0
281
     0
  0
CLASS
  1
ACMFCFSTANDARDISO
  2
AcmFCFStdISO
  3
"Amdt_StdImp|Product Description: AutoCAD Mechanical 2004 DX|Company: Autodesk"
 90
        0
280
     0
281
     0
  0
CLASS
  1
ACMWELDSTANDARDISO
  2
AcmWeldingStdISO
  3
"Amdt_StdImp|Product Description: AutoCAD Mechanical 2004 DX|Company: Autodesk"
 90
        0
280
     0
281
     0
  0
CLASS
  1
ACMIDSTANDARDISO
  2
AcmIdStdISO
  3
"Amdt_StdImp|Product Description: AutoCAD Mechanical 2004 DX|Company: Autodesk"
 90
        0
280
     0
281
     0
  0
CLASS
  1
ACMDATUMSTANDARDISO
  2
AcmDatumStdISO
  3
"Amdt_StdImp|Product Description: AutoCAD Mechanical 2004 DX|Company: Autodesk"
 90
        0
280
     0
281
     0
  0
CLASS
  1
ACMBOMSTANDARDISO
  2
AcmBOMStdISO
  3
"Amdt_StdImp|Product Description: AutoCAD Mechanical 2004 DX|Company: Autodesk"
 90
        0
280
     0
281
     0
  0
CLASS
  1
ACMDETAILSTANDARDISO
  2
AmdtDetailSymStdISO
  3
"Amdt_StdImp|Product Description: AutoCAD Mechanical 2004 DX|Company: Autodesk"
 90
        0
280
     0
281
     0
  0
CLASS
  1
ACMSECTIONSTANDARDISO
  2
AmdtSectionSymStdISO
  3
"Amdt_StdImp|Product Description: AutoCAD Mechanical 2004 DX|Company: Autodesk"
 90
        0
280
     0
281
     0
  0
CLASS
  1
ACMCENTERLINESTANDARDISO
  2
AmdtCenterLineStdISO
  3
"Amdt_StdImp|Product Description: AutoCAD Mechanical 2004 DX|Company: Autodesk"
 90
        0
280
     0
281
     0
  0
CLASS
  1
ACMNOTESTANDARDISO
  2
AmdtNoteStdISO
  3
"Amdt_StdImp|Product Description: AutoCAD Mechanical 2004 DX|Company: Autodesk"
 90
        0
280
     0
281
     0
  0
CLASS
  1
ACAMGLAYSTD
  2
AcAmgLayStd
  3
"AcAmgLayStd|Product Description: AutoCAD Mechanical 2000|Company: Autodesk"
 90
        0
280
     0
281
     0
  0
CLASS
  1
ACAMGDIMSTD
  2
AcAmgDimStd
  3
"AcAmgDimStd|Product Description: AutoCAD Mechanical 2000|Company: Autodesk"
 90
        0
280
     0
281
     0
  0
CLASS
  1
ACAMGHOLECHARTSTDISO
  2
AcAmgHoleChartStdISO
  3
ACMSYMBB_MODULE_NAME
 90
        0
280
     0
281
     0
  0
CLASS
  1
ACAMGTITLESTD
  2
AcAmgTitleStd
  3
"TITLEAPP"
 90
        0
280
     0
281
     0
  0
CLASS
  1
LAYER_INDEX
  2
AcDbLayerIndex
  3
ObjectDBX Classes
 90
    32768
280
     0
281
     0
  0
CLASS
  1
IDBUFFER
  2
AcDbIdBuffer
  3
ObjectDBX Classes
 90
    32768
280
     0
281
     0
  0
CLASS
  1
DICTIONARYVAR
  2
AcDbDictionaryVar
  3
ObjectDBX Classes
 90
        0
280
     0
281
     0
  0
CLASS
  1
AM_DRAWING_MGR
  2
AcDmDwgMgr
  3
AcMechDwgViewMgmt
 90
        0
280
     0
281
     0
  0
CLASS
  1
AM_DWG_DOCUMENT
  2
AcDmDwgDocument
  3
AcMechDwgViewMgmt
 90
        0
280
     0
281
     0
  0
CLASS
  1
AM_DWG_SHEET
  2
AcDmSheet
  3
AcMechDwgViewMgmt
 90
        0
280
     0
281
     0
  0
CLASS
  1
AM_VIEWDIMPARMAP
  2
AcDmViewDimParMap
  3
AcMechDwgViewMgmt
 90
        0
280
     0
281
     0
  0
CLASS
  1
AM_DWGMGR_NAME
  2
AcDmDwgMgrName
  3
AcMechDwgViewMgmt
 90
        0
280
     0
281
     0
  0
CLASS
  1
AMDTMENUSTATEMGR
  2
AmdtMenuStateMgr
  3
McadcomServices
 90
        0
280
     0
281
     0
  0
CLASS
  1
AMDTMCOMMENUSTATE
  2
AmdtMcomMenuState
  3
McadcomServices
 90
        0
280
     0
281
     0
  0
CLASS
  1
MAPIAMMOUDLE
  2
MApiAmModule
  3
MApiAmServices
 90
        0
280
     0
281
     0
  0
CLASS
  1
AMDTADMENUSTATE
  2
AmdtAdMenuState
  3
DesignerServices
 90
        0
280
     0
281
     0
  0
CLASS
  1
ADAPPL
  2
AcAdAppl
  3
DesignerServices
 90
        0
280
     0
281
     0
  0
CLASS
  1
DEPMGR
  2
AcAdDepMgr
  3
DesignerServices
 90
        0
280
     0
281
     0
  0
CLASS
  1
PARAMMGR
  2
AcAdParamMgr
  3
DesignerServices
 90
        0
280
     0
281
     0
  0
CLASS
  1
PARAMSCOPE
  2
AcAdParamScope
  3
DesignerServices
 90
        0
280
     0
281
     0
  0
CLASS
  1
NAMEDAPPL
  2
AcAdNamedAppl
  3
DesignerServices
 90
        0
280
     0
281
     0
  0
CLASS
  1
AMDTDMMENUSTATE
  2
AmdtDmMenuState
  3
AcMechDwgViewMgmt
 90
        0
280
     0
281
     0
  0
CLASS
  1
AMDTAMMENUSTATE
  2
AmdtAmMenuState
  3
DesignerAssemblies
 90
        0
280
     0
281
     0
  0
CLASS
  1
ACAMPROJECT
  2
AcAmProject
  3
DesignerAssemblies
 90
        0
280
     0
281
     0
  0
CLASS
  1
ACAMGRCOMPDEF
  2
AcAmGrCompDef
  3
DesignerAssemblies
 90
        0
280
     0
281
     0
  0
CLASS
  1
ACCMCONTEXT
  2
AcCmContext
  3
DesignerAssemblies
 90
        0
280
     0
281
     0
  0
CLASS
  1
ACAMCOMPDEF
  2
AcAmCompDef
  3
DesignerAssemblies
 90
        0
280
     0
281
     0
  0
CLASS
  1
ACAMCOMPDEFMGR
  2
AcAmCompDefMgr
  3
DesignerAssemblies
 90
        0
280
     0
281
     0
  0
CLASS
  1
AMCONTEXTMGR
  2
AcAmContextMgr
  3
DesignerAssemblies
 90
        0
280
     0
281
     0
  0
CLASS
  1
ACAMCONTEXTMODELER
  2
AcAmContextModeler
  3
DesignerAssemblies
 90
        0
280
     0
281
     0
  0
CLASS
  1
ACMTHREADLINESTANDARDISO
  2
AmdtThreadLineStdISO
  3
"Amdt_StdImp|Product Description: AutoCAD Mechanical 2004 DX|Company: Autodesk"
 90
        0
280
     0
281
     0
  0
CLASS
  1
CATALOGSTATE
  2
AcAmCatalogState
  3
DesignerAssemblies
 90
        0
280
     0
281
     0
  0
CLASS
  1
ACAMGRCOMPDEFSET
  2
AcAmGrCompDefSet
  3
DesignerAssemblies
 90
        0
280
     0
281
     0
  0
CLASS
  1
AMDTBROWSERDBTAB
  2
AmdtBrowserDbTab
  3
McadcomServices
 90
        0
280
     0
281
     0
  0
CLASS
  1
CBROWSERAPPOBJECT
  2
CBrowserAppObject
  3
McadcomServices
 90
        0
280
     0
281
     0
  0
CLASS
  1
DM_PLACEHOLDER
  2
AcDmSelsetPlaceholder
  3
AcMechDwgViewMgmt
 90
        0
280
     0
281
     0
  0
CLASS
  1
TABLESTYLE
  2
AcDbTableStyle
  3
ObjectDBX Classes
 90
     2047
280
     0
281
     0
  0
CLASS
  1
VAACXREFPANELOBJECT
  2
VaAcXREFPanelObject
  3
VAAC_ADDIN
 90
    32768
280
     0
281
     0
  0
CLASS
  1
VAACIMAGEINVENTORY
  2
VaAcImageInventory
  3
VAAC_ADDIN
 90
    32768
280
     0
281
     0
  0
CLASS
  1
AMDTNOTETEMPLATEDB
  2
AmdtNoteTemplateDB
  3
AMDT_STDIMP_MODULE_NAME
 90
        0
280
     0
281
     0
  0
CLASS
  1
ACMBOM
  2
AcmBom
  3
"AcmSymBB|Product Description: AutoCAD Mechanical 2004 DX|Company: Autodesk"
 90
    32768
280
     0
281
     0
  0
CLASS
  1
AMDTFORMULAUPDATEDISPATCHER
  2
AmdtFormulaUpdateDispatcher
  3
AcMeServices
 90
        0
280
     0
281
     0
  0
CLASS
  1
ACMPARTLIST
  2
AcmPartList
  3
"AcmSymBB|Product Description: AutoCAD Mechanical 2004 DX|Company: Autodesk"
 90
    33791
280
     0
281
     1
  0
CLASS
  1
ACAMGFILTERDAT
  2
AcAmgFilterDat
  3
"AcadM|Product Description: AutoCAD Mechanical 2000|Company: Autodesk"
 90
        0
280
     0
281
     0
  0
CLASS
  1
DIMASSOC
  2
AcDbDimAssoc
  3
"AcDbDimAssoc|Product Desc:     AcDim ARX App For Dimension|Company:          Autodesk, Inc.|WEB Address:      www.autodesk.com"
 90
        0
280
     0
281
     0
  0
CLASS
  1
SORTENTSTABLE
  2
AcDbSortentsTable
  3
ObjectDBX Classes
 90
        0
280
     0
281
     0
  0
CLASS
  1
ACDBDIMENSIONRES
  2
AcDbDimensionRes
  3
"AcDbDimensionRes|Product Description: AutoCAD Mechanical 2000|Company: Autodesk"
 90
        0
280
     0
281
     0
  0
CLASS
  1
AMDTNOTE
  2
AmdtNote
  3
"AcmSymBB|Product Description: AutoCAD Mechanical 2004 DX|Company: Autodesk"
 90
     1023
280
     0
281
     1
  0
CLASS
  1
ACRFATTGENMGR
  2
AcRfAttGeneralMgr
  3
AcAttribServices
 90
        0
280
     0
281
     0
  0
ENDSEC
  0
SECTION
  2
TABLES
  0
TABLE
  2
VPORT
  5
8
330
0
100
AcDbSymbolTable
 70
   138
  0
VPORT
  5
172C
330
8
100
AcDbSymbolTableRecord
100
AcDbViewportTableRecord
  2
*Active
 70
     0
 10
0.0
 20
0.0
 11
1.0
 21
1.0
 12
291.0356106904835
 22
417.2860869751124
 13
0.0
 23
0.0
 14
2.5
 24
2.5
 15
10.0
 25
10.0
 16
0.0
 26
0.0
 36
1.0
 17
0.0
 27
0.0
 37
0.0
 40
201.7015144789165
 41
1.399725274725274
 42
50.0
 43
0.0
 44
0.0
 50
0.0
 51
0.0
 71
     0
 72
   100
 73
     1
 74
     3
 75
     0
 76
     0
 77
     0
 78
     0
281
     0
 65
     1
110
0.0
120
0.0
130
0.0
111
1.0
121
0.0
131
0.0
112
0.0
122
1.0
132
0.0
 79
     0
146
0.0
  0
ENDTAB
  0
TABLE
  2
LTYPE
  5
5
330
0
100
AcDbSymbolTable
 70
    15
  0
LTYPE
  5
14
330
5
100
AcDbSymbolTableRecord
100
AcDbLinetypeTableRecord
  2
ByBlock
 70
     0
  3

 72
    65
 73
     0
 40
0.0
  0
LTYPE
  5
15
330
5
100
AcDbSymbolTableRecord
100
AcDbLinetypeTableRecord
  2
ByLayer
 70
     0
  3

 72
    65
 73
     0
 40
0.0
  0
LTYPE
  5
16
330
5
100
AcDbSymbolTableRecord
100
AcDbLinetypeTableRecord
  2
Continuous
 70
     0
  3
Solid line
 72
    65
 73
     0
 40
0.0
  0
LTYPE
  5
64
330
5
100
AcDbSymbolTableRecord
100
AcDbLinetypeTableRecord
  2
AM_ISO02W050
 70
     0
  3
__ __ __ __ __ __ __ __ __ __ __ __ __ __ __
 72
    65
 73
     2
 40
7.5
 49
6.0
 74
     0
 49
-1.5
 74
     0
  0
LTYPE
  5
65
330
5
100
AcDbSymbolTableRecord
100
AcDbLinetypeTableRecord
  2
AM_ISO08W050
 70
     0
  3
____ . ____ . ____ . ____ . ____ . ____ . ____
 72
    65
 73
     4
 40
18.0
 49
12.0
 74
     0
 49
-1.5
 74
     0
 49
3.0
 74
     0
 49
-1.5
 74
     0
  0
LTYPE
  5
66
330
5
100
AcDbSymbolTableRecord
100
AcDbLinetypeTableRecord
  2
AM_ISO09W050
 70
     0
  3
_____ . . _____ . . _____ . . ____ .. ____
 72
    65
 73
     6
 40
22.5
 49
12.0
 74
     0
 49
-1.5
 74
     0
 49
3.0
 74
     0
 49
-1.5
 74
     0
 49
3.0
 74
     0
 49
-1.5
 74
     0
  0
LTYPE
  5
67
330
5
100
AcDbSymbolTableRecord
100
AcDbLinetypeTableRecord
  2
Amconstr
 70
     0
  3
_______________________
 72
    65
 73
     2
 40
9999.0
 49
9999.0
 74
     0
 49
0.0
 74
     0
  0
LTYPE
  5
68
330
5
100
AcDbSymbolTableRecord
100
AcDbLinetypeTableRecord
  2
AM_ISO08W050x2
 70
     0
  3
__ . __ . __ . __ . __ . __
 72
    65
 73
     4
 40
9.0
 49
6.0
 74
     0
 49
-0.75
 74
     0
 49
1.5
 74
     0
 49
-0.75
 74
     0
  0
LTYPE
  5
69
330
5
100
AcDbSymbolTableRecord
100
AcDbLinetypeTableRecord
  2
AM_ISO02W050x2
 70
     0
  3
 _ _ _ _ _ _ _ _ _ _ _ _
 72
    65
 73
     2
 40
3.75
 49
3.0
 74
     0
 49
-0.75
 74
     0
  0
LTYPE
  5
6C
330
5
100
AcDbSymbolTableRecord
100
AcDbLinetypeTableRecord
  2
Amzigzag
 70
     0
  3
/\/-/\/-/\/-/\/-/\/-/\/
 72
    65
 73
     2
 40
11.0001
 49
0.0001
 74
     4
 75
   135
340
6B
 46
0.04
 50
0.0
 44
0.0
 45
0.0
 49
-11.0
 74
     0
  0
LTYPE
  5
7A
330
5
100
AcDbSymbolTableRecord
100
AcDbLinetypeTableRecord
  2
ACISOWELD
 70
     0
  3
_ _ _ _ _
 72
    65
 73
     2
 40
2.0
 49
2.0
 74
     0
 49
-1.0
 74
     0
  0
LTYPE
  5
7B
330
5
100
AcDbSymbolTableRecord
100
AcDbLinetypeTableRecord
  2
ACISOTGB
 70
     0
  3
__ . . __ . .
 72
    65
 73
     6
 40
9.0
 49
4.0
 74
     0
 49
-1.0
 74
     0
 49
1.0
 74
     0
 49
-1.0
 74
     0
 49
1.0
 74
     0
 49
-1.0
 74
     0
  0
LTYPE
  5
7C
330
5
100
AcDbSymbolTableRecord
100
AcDbLinetypeTableRecord
  2
ACISOTGL
 70
     0
  3
_ _ _ _ _
 72
    65
 73
     2
 40
3.0
 49
2.0
 74
     0
 49
-1.0
 74
     0
  0
LTYPE
  5
7E
330
5
100
AcDbSymbolTableRecord
100
AcDbLinetypeTableRecord
  2
CENTER
 70
     0
  3
__ . __
 72
    65
 73
     4
 40
7.0
 49
4.0
 74
     0
 49
-1.0
 74
     0
 49
1.0
 74
     0
 49
-1.0
 74
     0
  0
LTYPE
  5
D8
330
5
100
AcDbSymbolTableRecord
100
AcDbLinetypeTableRecord
  2
HIDDEN
 70
     0
  3
Hidden __ __ __ __ __ __ __ __ __ __ __ __ __ _
 72
    65
 73
     2
 40
9.524999999999998
 49
6.349999999999999
 74
     0
 49
-3.174999999999999
 74
     0
  0
LTYPE
  5
D9
330
5
100
AcDbSymbolTableRecord
100
AcDbLinetypeTableRecord
  2
PHANTOM2
 70
     0
  3
Phantom (.5x) ___ _ _ ___ _ _ ___ _ _ ___ _ _
 72
    65
 73
     6
 40
31.75
 49
15.875
 74
     0
 49
-3.174999999999999
 74
     0
 49
3.174999999999999
 74
     0
 49
-3.174999999999999
 74
     0
 49
3.174999999999999
 74
     0
 49
-3.174999999999999
 74
     0
  0
LTYPE
  5
B92
330
5
100
AcDbSymbolTableRecord
100
AcDbLinetypeTableRecord
  2
DASHED
 70
     0
  3
Dashed __ __ __ __ __ __ __ __ __ __ __ __ __ _
 72
    65
 73
     2
 40
19.05
 49
12.7
 74
     0
 49
-6.349999999999999
 74
     0
  0
ENDTAB
  0
TABLE
  2
LAYER
  5
2
102
{ACAD_XDICTIONARY
360
3F9
102
}
330
0
100
AcDbSymbolTable
 70
    13
  0
LAYER
  5
10
330
2
100
AcDbSymbolTableRecord
100
AcDbLayerTableRecord
  2
0
 70
     0
 62
     7
  6
Continuous
370
    -3
390
F
  0
LAYER
  5
B93
330
2
100
AcDbSymbolTableRecord
100
AcDbLayerTableRecord
  2
DEFPOINTS
 70
     0
 62
     7
  6
Continuous
290
     0
370
    -3
390
F
  0
LAYER
  5
B95
330
2
100
AcDbSymbolTableRecord
100
AcDbLayerTableRecord
  2
DIM
 70
     0
 62
     5
  6
Continuous
370
    -3
390
F
  0
LAYER
  5
B96
330
2
100
AcDbSymbolTableRecord
100
AcDbLayerTableRecord
  2
1
 70
     0
 62
     3
  6
DASHED
370
    -3
390
F
1001
AcAecLayerStandard
1000

1000

  0
LAYER
  5
10A7
330
2
100
AcDbSymbolTableRecord
100
AcDbLayerTableRecord
  2
AM_5
 70
     0
 62
     5
  6
Continuous
370
    50
390
F
  0
LAYER
  5
11C3
330
2
100
AcDbSymbolTableRecord
100
AcDbLayerTableRecord
  2
AM_7
 70
     0
 62
     1
  6
CENTER
370
    25
390
F
  0
LAYER
  5
1519
330
2
100
AcDbSymbolTableRecord
100
AcDbLayerTableRecord
  2
LOGO
 70
     0
 62
     7
  6
Continuous
370
    -3
390
F
  0
ENDTAB
  0
TABLE
  2
STYLE
  5
3
330
0
100
AcDbSymbolTable
 70
    10
  0
STYLE
  5
11
330
3
100
AcDbSymbolTableRecord
100
AcDbTextStyleTableRecord
  2
STANDARD
 70
     0
 40
0.0
 41
1.0
 50
0.0
 71
     0
 42
3.0
  3
ISOCP.SHX
  4
CHINESET.SHX
  0
STYLE
  5
6B
330
3
100
AcDbSymbolTableRecord
100
AcDbTextStyleTableRecord
  2

 70
     1
 40
0.0
 41
1.0
 50
0.0
 71
     0
 42
2.5
  3
ltypeshp.shx
  4

  0
STYLE
  5
6D
330
3
100
AcDbSymbolTableRecord
100
AcDbTextStyleTableRecord
  2
ACISOTS
 70
     0
 40
1.0
 41
1.0
 50
0.0
 71
     0
 42
1.0
  3
isocp.shx
  4
chineset.shx
  0
STYLE
  5
79
330
3
100
AcDbSymbolTableRecord
100
AcDbTextStyleTableRecord
  2
ACISOGDT
 70
     0
 40
0.0
 41
1.0
 50
0.0
 71
     0
 42
2.5
  3
amgdt.shx
  4
chineset.shx
  0
STYLE
  5
151A
330
3
100
AcDbSymbolTableRecord
100
AcDbTextStyleTableRecord
  2
CHINESET
 70
     0
 40
0.0
 41
1.0
 50
0.0
 71
     0
 42
3.0
  3
simplex.shx
  4
CHINESET.SHX
  0
ENDTAB
  0
TABLE
  2
VIEW
  5
6
330
0
100
AcDbSymbolTable
 70
     0
  0
ENDTAB
  0
TABLE
  2
UCS
  5
7
330
0
100
AcDbSymbolTable
 70
     0
  0
ENDTAB
  0
TABLE
  2
APPID
  5
9
330
0
100
AcDbSymbolTable
 70
    28
  0
APPID
  5
12
330
9
100
AcDbSymbolTableRecord
100
AcDbRegAppTableRecord
  2
ACAD
 70
     0
  0
APPID
  5
46
330
9
100
AcDbSymbolTableRecord
100
AcDbRegAppTableRecord
  2
MCAD_NO_VIS
 70
     0
  0
APPID
  5
47
330
9
100
AcDbSymbolTableRecord
100
AcDbRegAppTableRecord
  2
ACAD_TEMP_GRAPHIC
 70
     0
  0
APPID
  5
58
330
9
100
AcDbSymbolTableRecord
100
AcDbRegAppTableRecord
  2
ACATTRIBSERVICES
 70
     0
  0
APPID
  5
EE
330
9
100
AcDbSymbolTableRecord
100
AcDbRegAppTableRecord
  2
AD_DRAW
 70
     0
  0
APPID
  5
10C
330
9
100
AcDbSymbolTableRecord
100
AcDbRegAppTableRecord
  2
DESIGNERASSEMBLIES
 70
     0
  0
APPID
  5
111
330
9
100
AcDbSymbolTableRecord
100
AcDbRegAppTableRecord
  2
ACADM_DIM_EDIT
 70
     0
  0
APPID
  5
112
330
9
100
AcDbSymbolTableRecord
100
AcDbRegAppTableRecord
  2
AMDT_DM_ADJ
 70
     0
  0
APPID
  5
22C
330
9
100
AcDbSymbolTableRecord
100
AcDbRegAppTableRecord
  2
ACAD_DSTYLE_DIMTEXT_FILL
 70
     0
  0
APPID
  5
452
330
9
100
AcDbSymbolTableRecord
100
AcDbRegAppTableRecord
  2
GENIUS_GENOENT_13
 70
     0
  0
APPID
  5
453
330
9
100
AcDbSymbolTableRecord
100
AcDbRegAppTableRecord
  2
GENIUS_GENOBJ-N-CRS_13
 70
     0
  0
APPID
  5
454
330
9
100
AcDbSymbolTableRecord
100
AcDbRegAppTableRecord
  2
GENIUS_GENOLIS_13
 70
     0
  0
APPID
  5
455
330
9
100
AcDbSymbolTableRecord
100
AcDbRegAppTableRecord
  2
GENIUS_GENODEF_13
 70
     0
  0
APPID
  5
456
330
9
100
AcDbSymbolTableRecord
100
AcDbRegAppTableRecord
  2
GENIUS_GENOREF_13
 70
     0
  0
APPID
  5
6F3
330
9
100
AcDbSymbolTableRecord
100
AcDbRegAppTableRecord
  2
ACAD_PSEXT
 70
     0
  0
APPID
  5
808
330
9
100
AcDbSymbolTableRecord
100
AcDbRegAppTableRecord
  2
GENIUS_GENDTOL_13
 70
     0
  0
APPID
  5
B98
330
9
100
AcDbSymbolTableRecord
100
AcDbRegAppTableRecord
  2
ACAD_DSTYLE_DIMEXT_LENGTH
 70
     0
  0
APPID
  5
B99
330
9
100
AcDbSymbolTableRecord
100
AcDbRegAppTableRecord
  2
ACAD_DSTYLE_DIMEXT_ENABLED
 70
     0
  0
APPID
  5
B9A
330
9
100
AcDbSymbolTableRecord
100
AcDbRegAppTableRecord
  2
ACAD_DSTYLE_DIM_EXT1_LINETYPE
 70
     0
  0
APPID
  5
B9B
330
9
100
AcDbSymbolTableRecord
100
AcDbRegAppTableRecord
  2
ACAD_DSTYLE_DIMJOGGED_JOGANGLE_SYMBOL
 70
     0
  0
APPID
  5
B9C
330
9
100
AcDbSymbolTableRecord
100
AcDbRegAppTableRecord
  2
ACAD_DSTYLE_DIMARC_LENGTH_SYMBOL
 70
     0
  0
APPID
  5
B9D
330
9
100
AcDbSymbolTableRecord
100
AcDbRegAppTableRecord
  2
AcAecLayerStandard
 70
     0
  0
APPID
  5
11C5
330
9
100
AcDbSymbolTableRecord
100
AcDbRegAppTableRecord
  2
GENIUS_GENOBJ-N-CEN_13
 70
     0
  0
APPID
  5
11C6
330
9
100
AcDbSymbolTableRecord
100
AcDbRegAppTableRecord
  2
GENIUS_GENCEN_19
 70
     0
  0
APPID
  5
12D0
330
9
100
AcDbSymbolTableRecord
100
AcDbRegAppTableRecord
  2
GENIUS_GENOBJ-N-HTC_13
 70
     0
  0
APPID
  5
12D1
330
9
100
AcDbSymbolTableRecord
100
AcDbRegAppTableRecord
  2
GENIUS_GENHATCH_13
 70
     0
  0
APPID
  5
151B
330
9
100
AcDbSymbolTableRecord
100
AcDbRegAppTableRecord
  2
GENIUS_GENREC_14
 70
     0
  0
APPID
  5
151C
330
9
100
AcDbSymbolTableRecord
100
AcDbRegAppTableRecord
  2
GENIUS_GENOBJ-N-REC_13
 70
     0
  0
ENDTAB
  0
TABLE
  2
DIMSTYLE
  5
A
330
0
100
AcDbSymbolTable
 70
    11
100
AcDbDimStyleTable
 71
     4
340
81
340
B97
340
8B
340
86
  0
DIMSTYLE
105
81
330
A
100
AcDbSymbolTableRecord
100
AcDbDimStyleTableRecord
  2
AM_ISO
 70
     0
  4
"
 41
3.0
 42
1.5
 43
8.0
 44
1.5
 47
0.1
 48
0.1
 73
     0
 74
     0
 77
     1
 78
     8
 79
     2
140
3.5
141
0.0
143
0.0393701
146
0.6
147
1.0
172
     1
176
   256
177
   256
178
   256
271
     2
272
     2
283
     0
284
     8
340
11
371
    -1
372
    -1
  0
DIMSTYLE
105
82
330
A
100
AcDbSymbolTableRecord
100
AcDbDimStyleTableRecord
  2
AM_ISO$3
 70
     0
  4
"
 41
3.0
 42
1.5
 43
8.0
 44
1.5
 47
0.1
 48
0.1
 73
     0
 77
     1
 78
     8
 79
     2
140
3.5
141
0.0
143
0.0393701
146
0.6
147
1.0
176
   256
177
   256
178
   256
271
     2
272
     2
283
     0
284
     8
288
     1
289
     0
340
11
371
    -1
372
    -1
  0
DIMSTYLE
105
83
330
A
100
AcDbSymbolTableRecord
100
AcDbDimStyleTableRecord
  2
AM_ISO$4
 70
     0
  4
"
 41
3.0
 42
1.5
 43
8.0
 44
1.5
 47
0.1
 48
0.1
 73
     0
 77
     1
 78
     8
 79
     2
140
3.5
141
0.0
143
0.0393701
146
0.6
147
1.0
176
   256
177
   256
178
   256
271
     2
272
     2
283
     0
284
     8
288
     1
289
     0
340
11
371
    -1
372
    -1
  0
DIMSTYLE
105
84
330
A
100
AcDbSymbolTableRecord
100
AcDbDimStyleTableRecord
  2
AM_ISO$6
 70
     0
  4
"
 41
3.0
 42
1.5
 43
8.0
 44
1.5
 47
0.1
 48
0.1
 73
     0
 74
     0
 78
     8
 79
     2
140
3.5
141
0.0
143
0.0393701
146
0.6
147
1.0
172
     1
176
   256
177
   256
178
   256
271
     2
272
     2
283
     0
284
     8
340
11
371
    -1
372
    -1
  0
DIMSTYLE
105
85
330
A
100
AcDbSymbolTableRecord
100
AcDbDimStyleTableRecord
  2
AM_ISO$7
 70
     0
  4
"
 41
3.0
 42
1.5
 43
8.0
 44
1.5
 47
0.1
 48
0.1
 73
     0
 74
     0
 77
     1
 78
     8
 79
     2
140
5.0
141
0.0
143
0.0393701
146
0.6
147
1.0
172
     1
176
   256
177
   256
178
   256
271
     2
272
     2
283
     0
284
     8
340
11
371
    -1
372
    -1
  0
DIMSTYLE
105
86
330
A
100
AcDbSymbolTableRecord
100
AcDbDimStyleTableRecord
  2
AM_ISO$SF
 70
     0
  4
"
 41
2.5
 42
1.0
 43
10.0
 44
1.0
 47
0.1
 48
0.1
 73
     0
 74
     0
 75
     1
 76
     1
 77
     1
 78
     8
 79
     2
140
3.5
141
0.0
143
0.0393701
146
0.71
147
1.5
172
     1
176
   256
177
   256
178
     2
271
     2
272
     3
274
     4
283
     0
284
     8
340
11
371
    -1
372
    -1
  0
DIMSTYLE
105
8B
330
A
100
AcDbSymbolTableRecord
100
AcDbDimStyleTableRecord
  2
AM_ISO$SH
 70
     0
  4
"
 41
2.5
 42
1.0
 43
10.0
 44
1.0
 47
0.1
 48
0.1
 73
     0
 74
     0
 75
     1
 76
     1
 77
     1
 78
     8
 79
     2
140
3.5
141
0.0
143
0.0393701
144
2.0
146
0.71
147
1.5
172
     1
173
     1
176
   256
177
   256
178
     2
271
     2
272
     3
274
     4
283
     0
284
     8
340
11
343
87
371
    -1
372
    -1
  0
DIMSTYLE
105
40B
102
{ACAD_REACTORS
330
1108
330
113F
102
}
330
A
100
AcDbSymbolTableRecord
100
AcDbDimStyleTableRecord
  2
AM_ISO$0
 70
     0
  4
"
 41
3.0
 42
1.5
 43
8.0
 44
1.5
 47
0.1
 48
0.1
 73
     0
 74
     0
 77
     1
 78
     8
 79
     2
140
3.5
141
0.0
143
0.0393701
146
0.6
147
1.0
172
     1
176
   256
177
   256
178
   256
271
     2
272
     2
283
     0
284
     8
340
11
371
    -1
372
    -1
  0
DIMSTYLE
105
B97
102
{ACAD_REACTORS
330
D13
330
D14
330
D15
330
D16
330
D17
330
D1C
330
D21
330
D22
330
C1E
330
C1F
330
C20
330
C21
330
C22
330
C23
330
C28
330
C29
330
DA8
330
DA9
330
DAB
330
DAC
330
E9D
330
E9E
330
E9F
330
EA0
102
}
330
A
100
AcDbSymbolTableRecord
100
AcDbDimStyleTableRecord
  2
ISO-25
 70
     0
 41
3.5
 42
3.0
 43
1.199999999999999
 44
0.7
 73
     0
 74
     0
 77
     1
 78
     8
140
3.5
141
0.0
143
0.03937007874016
147
1.5
171
     3
172
     1
271
     1
272
     1
274
     3
283
     0
284
     8
340
11
371
     5
372
     9
1001
ACAD_DSTYLE_DIMEXT_LENGTH
1070
   378
1040
1.25
1001
ACAD_DSTYLE_DIMEXT_ENABLED
1070
   383
1070
     0
1001
ACAD_DSTYLE_DIMARC_LENGTH_SYMBOL
1070
   379
1070
     0
1001
ACAD_DSTYLE_DIMJOGGED_JOGANGLE_SYMBOL
1070
   384
1040
1.570796326794896
1001
ACAD_DSTYLE_DIM_EXT1_LINETYPE
1070
   381
1005
14
  0
ENDTAB
  0
TABLE
  2
BLOCK_RECORD
  5
1
330
0
100
AcDbSymbolTable
 70
    52
  0
BLOCK_RECORD
  5
1F
102
{ACAD_XDICTIONARY
360
8F
102
}
330
1
100
AcDbSymbolTableRecord
100
AcDbBlockTableRecord
  2
*Model_Space
340
22
  0
BLOCK_RECORD
  5
1B
330
1
100
AcDbSymbolTableRecord
100
AcDbBlockTableRecord
  2
*Paper_Space
340
1E
  0
BLOCK_RECORD
  5
23
330
1
100
AcDbSymbolTableRecord
100
AcDbBlockTableRecord
  2
*Paper_Space0
340
26
  0
BLOCK_RECORD
  5
87
330
1
100
AcDbSymbolTableRecord
100
AcDbBlockTableRecord
  2
GENAXEH
340
0
  0
BLOCK_RECORD
  5
EAE
330
1
100
AcDbSymbolTableRecord
100
AcDbBlockTableRecord
  2
*D20
340
0
  0
BLOCK_RECORD
  5
EBA
330
1
100
AcDbSymbolTableRecord
100
AcDbBlockTableRecord
  2
*D21
340
0
  0
BLOCK_RECORD
  5
ED2
330
1
100
AcDbSymbolTableRecord
100
AcDbBlockTableRecord
  2
*D23
340
0
  0
BLOCK_RECORD
  5
EDE
330
1
100
AcDbSymbolTableRecord
100
AcDbBlockTableRecord
  2
*D24
340
0
  0
BLOCK_RECORD
  5
F12
330
1
100
AcDbSymbolTableRecord
100
AcDbBlockTableRecord
  2
*D28
340
0
  0
BLOCK_RECORD
  5
F1E
330
1
100
AcDbSymbolTableRecord
100
AcDbBlockTableRecord
  2
*D29
340
0
  0
BLOCK_RECORD
  5
F2A
330
1
100
AcDbSymbolTableRecord
100
AcDbBlockTableRecord
  2
*D30
340
0
  0
BLOCK_RECORD
  5
F36
330
1
100
AcDbSymbolTableRecord
100
AcDbBlockTableRecord
  2
*D31
340
0
  0
BLOCK_RECORD
  5
1109
330
1
100
AcDbSymbolTableRecord
100
AcDbBlockTableRecord
  2
*D36
340
0
  0
BLOCK_RECORD
  5
1144
330
1
100
AcDbSymbolTableRecord
100
AcDbBlockTableRecord
  2
*D37
340
0
  0
BLOCK_RECORD
  5
16FA
330
1
100
AcDbSymbolTableRecord
100
AcDbBlockTableRecord
  2
*S46
340
0
  0
BLOCK_RECORD
  5
1702
330
1
100
AcDbSymbolTableRecord
100
AcDbBlockTableRecord
  2
*S47
340
0
  0
BLOCK_RECORD
  5
170A
330
1
100
AcDbSymbolTableRecord
100
AcDbBlockTableRecord
  2
*S48
340
0
  0
BLOCK_RECORD
  5
1712
330
1
100
AcDbSymbolTableRecord
100
AcDbBlockTableRecord
  2
*S49
340
0
  0
BLOCK_RECORD
  5
171A
330
1
100
AcDbSymbolTableRecord
100
AcDbBlockTableRecord
  2
*S50
340
0
  0
BLOCK_RECORD
  5
1722
330
1
100
AcDbSymbolTableRecord
100
AcDbBlockTableRecord
  2
*S51
340
0
  0
ENDTAB
  0
ENDSEC
  0
SECTION
  2
BLOCKS
  0
BLOCK
  5
20
330
1F
100
AcDbEntity
  8
0
100
AcDbBlockBegin
  2
*Model_Space
 70
     0
 10
0.0
 20
0.0
 30
0.0
  3
*Model_Space
  1

  0
ENDBLK
  5
21
330
1F
100
AcDbEntity
  8
0
100
AcDbBlockEnd
  0
BLOCK
  5
1C
330
1B
100
AcDbEntity
 67
     1
  8
0
100
AcDbBlockBegin
  2
*Paper_Space
 70
     0
 10
0.0
 20
0.0
 30
0.0
  3
*Paper_Space
  1

  0
ENDBLK
  5
1D
330
1B
100
AcDbEntity
 67
     1
  8
0
100
AcDbBlockEnd
  0
BLOCK
  5
24
330
23
100
AcDbEntity
  8
0
100
AcDbBlockBegin
  2
*Paper_Space0
 70
     0
 10
0.0
 20
0.0
 30
0.0
  3
*Paper_Space0
  1

  0
ENDBLK
  5
25
330
23
100
AcDbEntity
  8
0
100
AcDbBlockEnd
  0
BLOCK
  5
89
330
87
100
AcDbEntity
  8
0
100
AcDbBlockBegin
  2
GENAXEH
 70
     0
 10
0.0
 20
0.0
 30
0.0
  3
GENAXEH
  1

  0
LINE
  5
88
330
87
100
AcDbEntity
  8
0
100
AcDbLine
 10
-1.0
 20
0.0
 30
0.0
 11
1.0
 21
0.0
 31
0.0
  0
ENDBLK
  5
8A
330
87
100
AcDbEntity
  8
0
100
AcDbBlockEnd
  0
BLOCK
  5
EB8
330
EAE
100
AcDbEntity
  8
0
100
AcDbBlockBegin
  2
*D20
 70
     1
 10
0.0
 20
0.0
 30
0.0
  3
*D20
  1

  0
LINE
  5
1684
330
EAE
100
AcDbEntity
  8
DIM
 62
     0
370
     9
100
AcDbLine
 10
201.8755097715279
 20
468.1282833079372
 30
0.0
 11
189.4855096125477
 21
468.1282833079372
 31
0.0
  0
LINE
  5
1685
330
EAE
100
AcDbEntity
  8
DIM
 62
     0
370
     9
100
AcDbLine
 10
199.1855096125495
 20
426.1282834322384
 30
0.0
 11
189.4855096125477
 21
426.1282834322384
 31
0.0
  0
LINE
  5
1686
330
EAE
100
AcDbEntity
  8
DIM
 62
     0
370
     5
100
AcDbLine
 10
190.1855096125477
 20
464.6282833079372
 30
0.0
 11
190.1855096125477
 21
429.6282834322384
 31
0.0
  0
SOLID
  5
1687
330
EAE
100
AcDbEntity
  8
DIM
 62
     0
100
AcDbTrace
 10
189.6021762792144
 20
464.6282833079372
 30
0.0
 11
190.768842945881
 21
464.6282833079372
 31
0.0
 12
190.1855096125477
 22
468.1282833079372
 32
0.0
 13
190.1855096125477
 23
468.1282833079372
 33
0.0
  0
SOLID
  5
1688
330
EAE
100
AcDbEntity
  8
DIM
 62
     0
100
AcDbTrace
 10
189.6021762792143
 20
429.6282834322384
 30
0.0
 11
190.768842945881
 21
429.6282834322384
 31
0.0
 12
190.1855096125477
 22
426.1282834322384
 32
0.0
 13
190.1855096125477
 23
426.1282834322384
 33
0.0
  0
MTEXT
  5
1689
330
EAE
100
AcDbEntity
  8
DIM
 62
     0
100
AcDbMText
 10
186.9351651243586
 20
447.1282833700879
 30
0.0
 40
3.5
 41
0.0
 71
     5
 72
     1
  1
42
 11
0.0000000000000001
 21
1.0
 31
0.0
 73
     1
 44
1.0
1001
ACAD
1000
MTEXTBEGIN
1070
    73
1070
     1
1070
    44
1040
1.0
1070
    74
1070
     0
1000
MTEXTEND
  0
POINT
  5
168A
330
EAE
100
AcDbEntity
  8
DEFPOINTS
 62
     0
100
AcDbPoint
 10
204.8755097715278
 20
468.1282833079372
 30
0.0
  0
POINT
  5
168B
330
EAE
100
AcDbEntity
  8
DEFPOINTS
 62
     0
100
AcDbPoint
 10
202.1855096125495
 20
426.1282834322384
 30
0.0
  0
POINT
  5
168C
330
EAE
100
AcDbEntity
  8
DEFPOINTS
 62
     0
100
AcDbPoint
 10
190.1855096125477
 20
426.1282834322384
 30
0.0
  0
ENDBLK
  5
EB9
330
EAE
100
AcDbEntity
  8
0
100
AcDbBlockEnd
  0
BLOCK
  5
EC4
330
EBA
100
AcDbEntity
  8
0
100
AcDbBlockBegin
  2
*D21
 70
     1
 10
0.0
 20
0.0
 30
0.0
  3
*D21
  1

  0
LINE
  5
168D
330
EBA
100
AcDbEntity
  8
DIM
 62
     0
370
     9
100
AcDbLine
 10
199.175510002064
 20
426.138283042722
 30
0.0
 11
189.4855096125477
 21
426.138283042722
 31
0.0
  0
LINE
  5
168E
330
EBA
100
AcDbEntity
  8
DIM
 62
     0
370
     9
100
AcDbLine
 10
203.4755097715273
 20
412.1282833079373
 30
0.0
 11
189.4855096125477
 21
412.1282833079373
 31
0.0
  0
LINE
  5
168F
330
EBA
100
AcDbEntity
  8
DIM
 62
     0
370
     5
100
AcDbLine
 10
190.1855096125477
 20
422.638283042722
 30
0.0
 11
190.1855096125477
 21
415.6282833079372
 31
0.0
  0
SOLID
  5
1690
330
EBA
100
AcDbEntity
  8
DIM
 62
     0
100
AcDbTrace
 10
189.6021762792143
 20
422.638283042722
 30
0.0
 11
190.768842945881
 21
422.638283042722
 31
0.0
 12
190.1855096125477
 22
426.138283042722
 32
0.0
 13
190.1855096125477
 23
426.138283042722
 33
0.0
  0
SOLID
  5
1691
330
EBA
100
AcDbEntity
  8
DIM
 62
     0
100
AcDbTrace
 10
189.6021762792143
 20
415.6282833079372
 30
0.0
 11
190.768842945881
 21
415.6282833079372
 31
0.0
 12
190.1855096125477
 22
412.1282833079373
 32
0.0
 13
190.1855096125477
 23
412.1282833079373
 33
0.0
  0
MTEXT
  5
1692
330
EBA
100
AcDbEntity
  8
DIM
 62
     0
100
AcDbMText
 10
186.9355096125476
 20
419.1332831753297
 30
0.0
 40
3.5
 41
0.0
 71
     5
 72
     1
  1
14
 11
0.0000000000000001
 21
1.0
 31
0.0
 73
     1
 44
1.0
1001
ACAD
1000
MTEXTBEGIN
1070
    73
1070
     1
1070
    44
1040
1.0
1070
    74
1070
     0
1000
MTEXTEND
  0
POINT
  5
1693
330
EBA
100
AcDbEntity
  8
DEFPOINTS
 62
     0
100
AcDbPoint
 10
202.175510002064
 20
426.138283042722
 30
0.0
  0
POINT
  5
1694
330
EBA
100
AcDbEntity
  8
DEFPOINTS
 62
     0
100
AcDbPoint
 10
206.4755097715273
 20
412.1282833079373
 30
0.0
  0
POINT
  5
1695
330
EBA
100
AcDbEntity
  8
DEFPOINTS
 62
     0
100
AcDbPoint
 10
190.1855096125477
 20
412.1282833079373
 30
0.0
  0
ENDBLK
  5
EC5
330
EBA
100
AcDbEntity
  8
0
100
AcDbBlockEnd
  0
BLOCK
  5
EDC
330
ED2
100
AcDbEntity
  8
0
100
AcDbBlockBegin
  2
*D23
 70
     1
 10
0.0
 20
0.0
 30
0.0
  3
*D23
  1

  0
LINE
  5
1696
330
ED2
100
AcDbEntity
  8
DIM
 62
     0
370
     9
100
AcDbLine
 10
219.8755097715278
 20
412.1282833079373
 30
0.0
 11
248.8755097715271
 21
412.1282833079373
 31
0.0
  0
LINE
  5
1697
330
ED2
100
AcDbEntity
  8
DIM
 62
     0
370
     9
100
AcDbLine
 10
240.7755097715275
 20
435.6282833079372
 30
0.0
 11
248.8755097715271
 21
435.6282833079372
 31
0.0
  0
LINE
  5
1698
330
ED2
100
AcDbEntity
  8
DIM
 62
     0
370
     5
100
AcDbLine
 10
248.1755097715271
 20
415.6282833079372
 30
0.0
 11
248.1755097715271
 21
432.1282833079372
 31
0.0
  0
SOLID
  5
1699
330
ED2
100
AcDbEntity
  8
DIM
 62
     0
100
AcDbTrace
 10
247.5921764381938
 20
415.6282833079372
 30
0.0
 11
248.7588431048604
 21
415.6282833079372
 31
0.0
 12
248.1755097715271
 22
412.1282833079373
 32
0.0
 13
248.1755097715271
 23
412.1282833079373
 33
0.0
  0
SOLID
  5
169A
330
ED2
100
AcDbEntity
  8
DIM
 62
     0
100
AcDbTrace
 10
247.5921764381938
 20
432.1282833079372
 30
0.0
 11
248.7588431048604
 21
432.1282833079372
 31
0.0
 12
248.1755097715271
 22
435.6282833079372
 32
0.0
 13
248.1755097715271
 23
435.6282833079372
 33
0.0
  0
MTEXT
  5
169B
330
ED2
100
AcDbEntity
  8
DIM
 62
     0
100
AcDbMText
 10
244.9251652833381
 20
423.8782833079373
 30
0.0
 40
3.5
 41
0.0
 71
     5
 72
     1
  1
23.5
 11
0.0000000000000001
 21
1.0
 31
0.0
 73
     1
 44
1.0
1001
ACAD
1000
MTEXTBEGIN
1070
    73
1070
     1
1070
    44
1040
1.0
1070
    74
1070
     0
1000
MTEXTEND
  0
POINT
  5
169C
330
ED2
100
AcDbEntity
  8
DEFPOINTS
 62
     0
100
AcDbPoint
 10
216.8755097715278
 20
412.1282833079373
 30
0.0
  0
POINT
  5
169D
330
ED2
100
AcDbEntity
  8
DEFPOINTS
 62
     0
100
AcDbPoint
 10
237.7755097715275
 20
435.6282833079372
 30
0.0
  0
POINT
  5
169E
330
ED2
100
AcDbEntity
  8
DEFPOINTS
 62
     0
100
AcDbPoint
 10
248.1755097715271
 20
435.6282833079372
 30
0.0
  0
ENDBLK
  5
EDD
330
ED2
100
AcDbEntity
  8
0
100
AcDbBlockEnd
  0
BLOCK
  5
EE8
330
EDE
100
AcDbEntity
  8
0
100
AcDbBlockBegin
  2
*D24
 70
     1
 10
0.0
 20
0.0
 30
0.0
  3
*D24
  1

  0
LINE
  5
169F
330
EDE
100
AcDbEntity
  8
DIM
 62
     0
370
     9
100
AcDbLine
 10
211.6755097715271
 20
407.3282833079371
 30
0.0
 11
211.6755097715271
 21
399.4282833079373
 31
0.0
  0
LINE
  5
16A0
330
EDE
100
AcDbEntity
  8
DIM
 62
     0
370
     9
100
AcDbLine
 10
236.1755097715271
 20
424.5282833079373
 30
0.0
 11
236.1755097715271
 21
399.4282833079373
 31
0.0
  0
LINE
  5
16A1
330
EDE
100
AcDbEntity
  8
DIM
 62
     0
370
     5
100
AcDbLine
 10
215.1755097715271
 20
400.1282833079373
 30
0.0
 11
232.6755097715271
 21
400.1282833079373
 31
0.0
  0
SOLID
  5
16A2
330
EDE
100
AcDbEntity
  8
DIM
 62
     0
100
AcDbTrace
 10
215.1755097715271
 20
400.7116166412705
 30
0.0
 11
215.1755097715271
 21
399.544949974604
 31
0.0
 12
211.6755097715271
 22
400.1282833079373
 32
0.0
 13
211.6755097715271
 23
400.1282833079373
 33
0.0
  0
SOLID
  5
16A3
330
EDE
100
AcDbEntity
  8
DIM
 62
     0
100
AcDbTrace
 10
232.6755097715271
 20
400.7116166412705
 30
0.0
 11
232.6755097715271
 21
399.544949974604
 31
0.0
 12
236.1755097715271
 22
400.1282833079373
 32
0.0
 13
236.1755097715271
 23
400.1282833079373
 33
0.0
  0
MTEXT
  5
16A4
330
EDE
100
AcDbEntity
  8
DIM
 62
     0
100
AcDbMText
 10
223.9255097715271
 20
403.3786277961262
 30
0.0
 40
3.5
 41
0.0
 71
     5
 72
     1
  1
24.5
 73
     1
 44
1.0
1001
ACAD
1000
MTEXTBEGIN
1070
    73
1070
     1
1070
    44
1040
1.0
1070
    74
1070
     0
1000
MTEXTEND
  0
POINT
  5
16A5
330
EDE
100
AcDbEntity
  8
DEFPOINTS
 62
     0
100
AcDbPoint
 10
211.6755097715271
 20
410.328283307937
 30
0.0
  0
POINT
  5
16A6
330
EDE
100
AcDbEntity
  8
DEFPOINTS
 62
     0
100
AcDbPoint
 10
236.1755097715271
 20
427.5282833079374
 30
0.0
  0
POINT
  5
16A7
330
EDE
100
AcDbEntity
  8
DEFPOINTS
 62
     0
100
AcDbPoint
 10
236.1755097715271
 20
400.1282833079373
 30
0.0
  0
ENDBLK
  5
EE9
330
EDE
100
AcDbEntity
  8
0
100
AcDbBlockEnd
  0
BLOCK
  5
F1C
330
F12
100
AcDbEntity
  8
0
100
AcDbBlockBegin
  2
*D28
 70
     1
 10
0.0
 20
0.0
 30
0.0
  3
*D28
  1

  0
LINE
  5
14E7
330
F12
100
AcDbEntity
  8
DIM
 62
     0
370
     9
100
AcDbLine
 10
336.175563448443
 20
389.9282833079375
 30
0.0
 11
321.2855634484425
 21
389.9282833079375
 31
0.0
  0
LINE
  5
14E8
330
F12
100
AcDbEntity
  8
DIM
 62
     0
370
     9
100
AcDbLine
 10
340.175563448443
 20
468.1282833079372
 30
0.0
 11
321.2855634484425
 21
468.1282833079372
 31
0.0
  0
LINE
  5
14E9
330
F12
100
AcDbEntity
  8
DIM
 62
     0
370
     5
100
AcDbLine
 10
321.9855634484425
 20
393.4282833079375
 30
0.0
 11
321.9855634484425
 21
464.6282833079372
 31
0.0
  0
SOLID
  5
14EA
330
F12
100
AcDbEntity
  8
DIM
 62
     0
100
AcDbTrace
 10
321.4022301151091
 20
393.4282833079375
 30
0.0
 11
322.5688967817758
 21
393.4282833079375
 31
0.0
 12
321.9855634484425
 22
389.9282833079375
 32
0.0
 13
321.9855634484425
 23
389.9282833079375
 33
0.0
  0
SOLID
  5
14EB
330
F12
100
AcDbEntity
  8
DIM
 62
     0
100
AcDbTrace
 10
321.4022301151091
 20
464.6282833079372
 30
0.0
 11
322.5688967817758
 21
464.6282833079372
 31
0.0
 12
321.9855634484425
 22
468.1282833079372
 32
0.0
 13
321.9855634484425
 23
468.1282833079372
 33
0.0
  0
MTEXT
  5
14EC
330
F12
100
AcDbEntity
  8
DIM
 62
     0
100
AcDbMText
 10
318.7352189602533
 20
429.0282833079374
 30
0.0
 40
3.5
 41
0.0
 71
     5
 72
     1
  1
78.2
 11
0.0000000000000001
 21
1.0
 31
0.0
 73
     1
 44
1.0
1001
ACAD
1000
MTEXTBEGIN
1070
    73
1070
     1
1070
    44
1040
1.0
1070
    74
1070
     0
1000
MTEXTEND
  0
POINT
  5
14ED
330
F12
100
AcDbEntity
  8
DEFPOINTS
 62
     0
100
AcDbPoint
 10
339.175563448443
 20
389.9282833079375
 30
0.0
  0
POINT
  5
14EE
330
F12
100
AcDbEntity
  8
DEFPOINTS
 62
     0
100
AcDbPoint
 10
343.175563448443
 20
468.1282833079372
 30
0.0
  0
POINT
  5
14EF
330
F12
100
AcDbEntity
  8
DEFPOINTS
 62
     0
100
AcDbPoint
 10
321.9855634484425
 20
468.1282833079372
 30
0.0
  0
ENDBLK
  5
F1D
330
F12
100
AcDbEntity
  8
0
100
AcDbBlockEnd
  0
BLOCK
  5
F28
330
F1E
100
AcDbEntity
  8
0
100
AcDbBlockBegin
  2
*D29
 70
     1
 10
0.0
 20
0.0
 30
0.0
  3
*D29
  1

  0
LINE
  5
14F0
330
F1E
100
AcDbEntity
  8
DIM
 62
     0
370
     9
100
AcDbLine
 10
336.175563448443
 20
389.9282833079375
 30
0.0
 11
321.2855634484425
 21
389.9282833079375
 31
0.0
  0
LINE
  5
14F1
330
F1E
100
AcDbEntity
  8
DIM
 62
     0
370
     9
100
AcDbLine
 10
340.5005634484428
 20
375.9282833079375
 30
0.0
 11
321.2855634484425
 21
375.9282833079375
 31
0.0
  0
LINE
  5
14F2
330
F1E
100
AcDbEntity
  8
DIM
 62
     0
370
     5
100
AcDbLine
 10
321.9855634484425
 20
386.4282833079375
 30
0.0
 11
321.9855634484425
 21
379.4282833079375
 31
0.0
  0
SOLID
  5
14F3
330
F1E
100
AcDbEntity
  8
DIM
 62
     0
100
AcDbTrace
 10
321.4022301151092
 20
386.4282833079375
 30
0.0
 11
322.5688967817758
 21
386.4282833079375
 31
0.0
 12
321.9855634484425
 22
389.9282833079375
 32
0.0
 13
321.9855634484425
 23
389.9282833079375
 33
0.0
  0
SOLID
  5
14F4
330
F1E
100
AcDbEntity
  8
DIM
 62
     0
100
AcDbTrace
 10
321.4022301151091
 20
379.4282833079375
 30
0.0
 11
322.5688967817758
 21
379.4282833079375
 31
0.0
 12
321.9855634484425
 22
375.9282833079375
 32
0.0
 13
321.9855634484425
 23
375.9282833079375
 33
0.0
  0
MTEXT
  5
14F5
330
F1E
100
AcDbEntity
  8
DIM
 62
     0
100
AcDbMText
 10
318.7355634484424
 20
382.9282833079375
 30
0.0
 40
3.5
 41
0.0
 71
     5
 72
     1
  1
14
 11
0.0000000000000001
 21
1.0
 31
0.0
 73
     1
 44
1.0
1001
ACAD
1000
MTEXTBEGIN
1070
    73
1070
     1
1070
    44
1040
1.0
1070
    74
1070
     0
1000
MTEXTEND
  0
POINT
  5
14F6
330
F1E
100
AcDbEntity
  8
DEFPOINTS
 62
     0
100
AcDbPoint
 10
339.175563448443
 20
389.9282833079375
 30
0.0
  0
POINT
  5
14F7
330
F1E
100
AcDbEntity
  8
DEFPOINTS
 62
     0
100
AcDbPoint
 10
343.5005634484428
 20
375.9282833079375
 30
0.0
  0
POINT
  5
14F8
330
F1E
100
AcDbEntity
  8
DEFPOINTS
 62
     0
100
AcDbPoint
 10
321.9855634484425
 20
375.9282833079375
 30
0.0
  0
ENDBLK
  5
F29
330
F1E
100
AcDbEntity
  8
0
100
AcDbBlockEnd
  0
BLOCK
  5
F34
330
F2A
100
AcDbEntity
  8
0
100
AcDbBlockBegin
  2
*D30
 70
     1
 10
0.0
 20
0.0
 30
0.0
  3
*D30
  1

  0
LINE
  5
14F9
330
F2A
100
AcDbEntity
  8
DIM
 62
     0
370
     9
100
AcDbLine
 10
349.9755634484432
 20
369.7248825650155
 30
0.0
 11
349.9755634484432
 21
363.2282833079375
 31
0.0
  0
LINE
  5
14FA
330
F2A
100
AcDbEntity
  8
DIM
 62
     0
370
     9
100
AcDbLine
 10
391.9755634484431
 20
405.4282833079374
 30
0.0
 11
391.9755634484431
 21
363.2282833079375
 31
0.0
  0
LINE
  5
14FB
330
F2A
100
AcDbEntity
  8
DIM
 62
     0
370
     5
100
AcDbLine
 10
353.4755634484432
 20
363.9282833079375
 30
0.0
 11
388.4755634484432
 21
363.9282833079375
 31
0.0
  0
SOLID
  5
14FC
330
F2A
100
AcDbEntity
  8
DIM
 62
     0
100
AcDbTrace
 10
353.4755634484432
 20
364.5116166412708
 30
0.0
 11
353.4755634484432
 21
363.3449499746042
 31
0.0
 12
349.9755634484432
 22
363.9282833079375
 32
0.0
 13
349.9755634484432
 23
363.9282833079375
 33
0.0
  0
SOLID
  5
14FD
330
F2A
100
AcDbEntity
  8
DIM
 62
     0
100
AcDbTrace
 10
388.4755634484432
 20
364.5116166412708
 30
0.0
 11
388.4755634484432
 21
363.3449499746042
 31
0.0
 12
391.9755634484431
 22
363.9282833079375
 32
0.0
 13
391.9755634484431
 23
363.9282833079375
 33
0.0
  0
MTEXT
  5
14FE
330
F2A
100
AcDbEntity
  8
DIM
 62
     0
100
AcDbMText
 10
370.9755634484432
 20
367.1786277961265
 30
0.0
 40
3.5
 41
0.0
 71
     5
 72
     1
  1
42
 73
     1
 44
1.0
1001
ACAD
1000
MTEXTBEGIN
1070
    73
1070
     1
1070
    44
1040
1.0
1070
    74
1070
     0
1000
MTEXTEND
  0
POINT
  5
14FF
330
F2A
100
AcDbEntity
  8
DEFPOINTS
 62
     0
100
AcDbPoint
 10
349.9755634484432
 20
372.7248825650155
 30
0.0
  0
POINT
  5
1500
330
F2A
100
AcDbEntity
  8
DEFPOINTS
 62
     0
100
AcDbPoint
 10
391.9755634484431
 20
408.4282833079375
 30
0.0
  0
POINT
  5
1501
330
F2A
100
AcDbEntity
  8
DEFPOINTS
 62
     0
100
AcDbPoint
 10
391.9755634484431
 20
363.9282833079375
 30
0.0
  0
ENDBLK
  5
F35
330
F2A
100
AcDbEntity
  8
0
100
AcDbBlockEnd
  0
BLOCK
  5
F40
330
F36
100
AcDbEntity
  8
0
100
AcDbBlockBegin
  2
*D31
 70
     1
 10
0.0
 20
0.0
 30
0.0
  3
*D31
  1

  0
LINE
  5
1502
330
F36
100
AcDbEntity
  8
DIM
 62
     0
370
     9
100
AcDbLine
 10
359.4505634484426
 20
375.9282833079375
 30
0.0
 11
404.6555489881617
 21
375.9282833079374
 31
0.0
  0
LINE
  5
1503
330
F36
100
AcDbEntity
  8
DIM
 62
     0
370
     9
100
AcDbLine
 10
396.9755634484432
 20
421.1282833079373
 30
0.0
 11
404.6555489881618
 21
421.1282833079373
 31
0.0
  0
LINE
  5
1504
330
F36
100
AcDbEntity
  8
DIM
 62
     0
370
     5
100
AcDbLine
 10
403.9555489881617
 20
379.4282833079374
 30
0.0
 11
403.9555489881618
 21
417.6282833079373
 31
0.0
  0
SOLID
  5
1505
330
F36
100
AcDbEntity
  8
DIM
 62
     0
100
AcDbTrace
 10
403.3722156548284
 20
379.4282833079374
 30
0.0
 11
404.5388823214951
 21
379.4282833079374
 31
0.0
 12
403.9555489881617
 22
375.9282833079374
 32
0.0
 13
403.9555489881617
 23
375.9282833079374
 33
0.0
  0
SOLID
  5
1506
330
F36
100
AcDbEntity
  8
DIM
 62
     0
100
AcDbTrace
 10
403.3722156548285
 20
417.6282833079373
 30
0.0
 11
404.5388823214952
 21
417.6282833079373
 31
0.0
 12
403.9555489881618
 22
421.1282833079373
 32
0.0
 13
403.9555489881618
 23
421.1282833079373
 33
0.0
  0
MTEXT
  5
1507
330
F36
100
AcDbEntity
  8
DIM
 62
     0
100
AcDbMText
 10
400.7052044999727
 20
398.5282833079383
 30
0.0
 40
3.5
 41
0.0
 71
     5
 72
     1
  1
45.2
 11
0.0000000000000001
 21
1.0
 31
0.0
 73
     1
 44
1.0
1001
ACAD
1000
MTEXTBEGIN
1070
    73
1070
     1
1070
    44
1040
1.0
1070
    74
1070
     0
1000
MTEXTEND
  0
POINT
  5
1508
330
F36
100
AcDbEntity
  8
DEFPOINTS
 62
     0
100
AcDbPoint
 10
356.4505634484426
 20
375.9282833079375
 30
0.0
  0
POINT
  5
1509
330
F36
100
AcDbEntity
  8
DEFPOINTS
 62
     0
100
AcDbPoint
 10
393.9755634484432
 20
421.1282833079373
 30
0.0
  0
POINT
  5
150A
330
F36
100
AcDbEntity
  8
DEFPOINTS
 62
     0
100
AcDbPoint
 10
403.9555489881618
 20
421.1282833079373
 30
0.0
  0
ENDBLK
  5
F41
330
F36
100
AcDbEntity
  8
0
100
AcDbBlockEnd
  0
BLOCK
  5
1113
330
1109
100
AcDbEntity
  8
0
100
AcDbBlockBegin
  2
*D36
 70
     1
 10
0.0
 20
0.0
 30
0.0
  3
*D36
  1

  0
LINE
  5
150B
330
1109
100
AcDbEntity
  8
AM_5
100
AcDbLine
 10
335.9755634484431
 20
467.5282833079369
 30
0.0
 11
335.9755634484431
 21
481.6282833079372
 31
0.0
  0
LINE
  5
150C
330
1109
100
AcDbEntity
  8
AM_5
100
AcDbLine
 10
363.9755634484432
 20
467.5282833079369
 30
0.0
 11
363.9755634484432
 21
481.6282833079372
 31
0.0
  0
LINE
  5
150D
330
1109
100
AcDbEntity
  8
AM_5
100
AcDbLine
 10
338.9755634484432
 20
480.1282833079373
 30
0.0
 11
360.9755634484431
 21
480.1282833079373
 31
0.0
  0
SOLID
  5
150E
330
1109
100
AcDbEntity
  8
AM_5
100
AcDbTrace
 10
338.9755634484432
 20
480.6282833079372
 30
0.0
 11
338.9755634484432
 21
479.6282833079373
 31
0.0
 12
335.9755634484431
 22
480.1282833079373
 32
0.0
 13
335.9755634484431
 23
480.1282833079373
 33
0.0
  0
SOLID
  5
150F
330
1109
100
AcDbEntity
  8
AM_5
100
AcDbTrace
 10
360.9755634484431
 20
480.6282833079372
 30
0.0
 11
360.9755634484431
 21
479.6282833079373
 31
0.0
 12
363.9755634484432
 22
480.1282833079373
 32
0.0
 13
363.9755634484432
 23
480.1282833079373
 33
0.0
  0
MTEXT
  5
1510
330
1109
100
AcDbEntity
  8
AM_5
100
AcDbMText
 10
349.9755634484432
 20
482.8786277961262
 30
0.0
 40
3.5
 41
0.0
 71
     5
 72
     1
  1
%%c28
 73
     1
 44
1.0
1001
ACAD
1000
MTEXTBEGIN
1070
    73
1070
     1
1070
    44
1040
1.0
1070
    74
1070
     0
1000
MTEXTEND
  0
POINT
  5
1511
330
1109
100
AcDbEntity
  8
DEFPOINTS
 62
     0
100
AcDbPoint
 10
335.9755634484431
 20
466.0282833079369
 30
0.0
  0
POINT
  5
1512
330
1109
100
AcDbEntity
  8
DEFPOINTS
 62
     0
100
AcDbPoint
 10
363.9755634484432
 20
466.0282833079369
 30
0.0
  0
POINT
  5
1513
330
1109
100
AcDbEntity
  8
DEFPOINTS
 62
     0
100
AcDbPoint
 10
363.9755634484432
 20
480.1282833079373
 30
0.0
  0
ENDBLK
  5
1114
330
1109
100
AcDbEntity
  8
0
100
AcDbBlockEnd
  0
BLOCK
  5
114E
330
1144
100
AcDbEntity
  8
0
100
AcDbBlockBegin
  2
*D37
 70
     1
 10
0.0
 20
0.0
 30
0.0
  3
*D37
  1

  0
LINE
  5
16A8
330
1144
100
AcDbEntity
  8
AM_5
100
AcDbLine
 10
202.6755097715271
 20
468.428283307937
 30
0.0
 11
202.6755097715271
 21
481.6282833079372
 31
0.0
  0
LINE
  5
16A9
330
1144
100
AcDbEntity
  8
AM_5
100
AcDbLine
 10
220.6755097715271
 20
468.428283307937
 30
0.0
 11
220.6755097715271
 21
481.6282833079372
 31
0.0
  0
LINE
  5
16AA
330
1144
100
AcDbEntity
  8
AM_5
100
AcDbLine
 10
205.6755097715271
 20
480.1282833079373
 30
0.0
 11
217.6755097715271
 21
480.1282833079373
 31
0.0
  0
SOLID
  5
16AB
330
1144
100
AcDbEntity
  8
AM_5
100
AcDbTrace
 10
205.6755097715271
 20
480.6282833079372
 30
0.0
 11
205.6755097715271
 21
479.6282833079373
 31
0.0
 12
202.6755097715271
 22
480.1282833079373
 32
0.0
 13
202.6755097715271
 23
480.1282833079373
 33
0.0
  0
SOLID
  5
16AC
330
1144
100
AcDbEntity
  8
AM_5
100
AcDbTrace
 10
217.6755097715271
 20
480.6282833079372
 30
0.0
 11
217.6755097715271
 21
479.6282833079373
 31
0.0
 12
220.6755097715271
 22
480.1282833079373
 32
0.0
 13
220.6755097715271
 23
480.1282833079373
 33
0.0
  0
MTEXT
  5
16AD
330
1144
100
AcDbEntity
  8
AM_5
100
AcDbMText
 10
211.6755097715271
 20
482.8782833079372
 30
0.0
 40
3.5
 41
0.0
 71
     5
 72
     1
  1
%%c18
 73
     1
 44
1.0
1001
ACAD
1000
MTEXTBEGIN
1070
    73
1070
     1
1070
    44
1040
1.0
1070
    74
1070
     0
1000
MTEXTEND
  0
POINT
  5
16AE
330
1144
100
AcDbEntity
  8
DEFPOINTS
 62
     0
100
AcDbPoint
 10
202.6755097715271
 20
466.928283307937
 30
0.0
  0
POINT
  5
16AF
330
1144
100
AcDbEntity
  8
DEFPOINTS
 62
     0
100
AcDbPoint
 10
220.6755097715271
 20
466.928283307937
 30
0.0
  0
POINT
  5
16B0
330
1144
100
AcDbEntity
  8
DEFPOINTS
 62
     0
100
AcDbPoint
 10
220.6755097715271
 20
480.1282833079373
 30
0.0
  0
ENDBLK
  5
114F
330
1144
100
AcDbEntity
  8
0
100
AcDbBlockEnd
  0
BLOCK
  5
16FF
330
16FA
100
AcDbEntity
  8
0
100
AcDbBlockBegin
  2
*S46
 70
     1
 10
0.0
 20
0.0
 30
0.0
  3
*S46
  1

  0
LINE
  5
16FB
330
16FA
100
AcDbEntity
  8
AM_5
 62
     5
100
AcDbLine
 10
325.9787012741115
 20
365.4154176136657
 30
0.0
 11
340.0632562801375
 21
365.4154176136657
 31
0.0
  0
LINE
  5
16FC
330
16FA
100
AcDbEntity
  8
AM_5
 62
     5
100
AcDbLine
 10
340.0632562801375
 20
365.4154176136657
 30
0.0
 11
347.5744957547907
 21
373.3817417452493
 31
0.0
  0
TRACE
  5
16FD
330
16FA
100
AcDbEntity
  8
AM_5
 62
     5
370
    35
100
AcDbTrace
 10
347.9097543102329
 20
373.0656351879139
 30
0.0
 11
347.2392371993486
 21
373.6978483025847
 31
0.0
 12
349.9755634484432
 22
375.9282833079375
 32
0.0
 13
349.9755634484432
 23
375.9282833079375
 33
0.0
  0
MTEXT
  5
16FE
330
16FA
100
AcDbEntity
  8
AM_5
 62
     5
100
AcDbMText
 10
325.9787012741115
 20
371.5136611098119
 30
0.0
 40
3.5
 41
0.0
 71
     9
 72
     5
  1

  7
ACISOTS
 73
     1
 44
1.0
1001
ACAD
1000
MTEXTBEGIN
1070
    73
1070
     1
1070
    44
1040
1.0
1070
    74
1070
     0
1000
MTEXTEND
  0
ENDBLK
  5
1700
330
16FA
100
AcDbEntity
  8
0
100
AcDbBlockEnd
  0
BLOCK
  5
1707
330
1702
100
AcDbEntity
  8
0
100
AcDbBlockBegin
  2
*S47
 70
     1
 10
0.0
 20
0.0
 30
0.0
  3
*S47
  1

  0
LINE
  5
1703
330
1702
100
AcDbEntity
  8
AM_5
 62
     5
100
AcDbLine
 10
415.2522113586387
 20
431.8128590717748
 30
0.0
 11
401.3979707162666
 21
431.8128590717748
 31
0.0
  0
LINE
  5
1704
330
1702
100
AcDbEntity
  8
AM_5
 62
     5
100
AcDbLine
 10
401.3979707162666
 20
431.8128590717748
 30
0.0
 11
394.2905263523149
 21
423.7533445936405
 31
0.0
  0
TRACE
  5
1705
330
1702
100
AcDbEntity
  8
AM_5
 62
     5
370
    35
100
AcDbTrace
 10
393.9449304792741
 20
424.0581152403975
 30
0.0
 11
394.6361222253558
 21
423.4485739468833
 31
0.0
 12
391.9755634484431
 22
421.1282833079373
 32
0.0
 13
391.9755634484431
 23
421.1282833079373
 33
0.0
  0
MTEXT
  5
1706
330
1702
100
AcDbEntity
  8
AM_5
 62
     5
100
AcDbMText
 10
415.2522113586387
 20
438.6462229048991
 30
0.0
 40
3.500000000000001
 41
0.0
 71
     9
 72
     5
  1

  7
ACISOTS
210
0.0
220
0.0
230
-1.0
 11
-1.0
 21
0.0
 31
0.0
 73
     1
 44
1.0
1001
ACAD
1000
MTEXTBEGIN
1070
    73
1070
     1
1070
    44
1040
1.0
1070
    74
1070
     0
1000
MTEXTEND
  0
ENDBLK
  5
1708
330
1702
100
AcDbEntity
  8
0
100
AcDbBlockEnd
  0
BLOCK
  5
170F
330
170A
100
AcDbEntity
  8
0
100
AcDbBlockBegin
  2
*S48
 70
     1
 10
0.0
 20
0.0
 30
0.0
  3
*S48
  1

  0
LINE
  5
170B
330
170A
100
AcDbEntity
  8
AM_5
 62
     5
100
AcDbLine
 10
384.3364290464235
 20
480.0040886034753
 30
0.0
 11
370.4821884040514
 21
480.0040886034753
 31
0.0
  0
LINE
  5
170C
330
170A
100
AcDbEntity
  8
AM_5
 62
     5
100
AcDbLine
 10
370.4821884040514
 20
480.0040886034753
 30
0.0
 11
353.0043281506481
 21
469.8823028000403
 31
0.0
  0
TRACE
  5
170D
330
170A
100
AcDbEntity
  8
AM_5
 62
     5
370
    35
100
AcDbTrace
 10
352.7734071047261
 20
470.2810472359111
 30
0.0
 11
353.2352491965701
 21
469.4835583641696
 31
0.0
 12
349.9755634484432
 22
468.1282833079372
 32
0.0
 13
349.9755634484432
 23
468.1282833079372
 33
0.0
  0
MTEXT
  5
170E
330
170A
100
AcDbEntity
  8
AM_5
 62
     5
100
AcDbMText
 10
384.3364290464235
 20
486.8374524365996
 30
0.0
 40
3.500000000000001
 41
0.0
 71
     9
 72
     5
  1

  7
ACISOTS
210
0.0
220
0.0
230
-1.0
 11
-1.0
 21
0.0
 31
0.0
 73
     1
 44
1.0
1001
ACAD
1000
MTEXTBEGIN
1070
    73
1070
     1
1070
    44
1040
1.0
1070
    74
1070
     0
1000
MTEXTEND
  0
ENDBLK
  5
1710
330
170A
100
AcDbEntity
  8
0
100
AcDbBlockEnd
  0
BLOCK
  5
1717
330
1712
100
AcDbEntity
  8
0
100
AcDbBlockBegin
  2
*S49
 70
     1
 10
0.0
 20
0.0
 30
0.0
  3
*S49
  1

  0
LINE
  5
1713
330
1712
100
AcDbEntity
  8
AM_5
 62
     5
100
AcDbLine
 10
238.884334564097
 20
479.6570381905819
 30
0.0
 11
225.0300939217249
 21
479.6570381905819
 31
0.0
  0
LINE
  5
1714
330
1712
100
AcDbEntity
  8
AM_5
 62
     5
100
AcDbLine
 10
225.0300939217249
 20
479.6570381905819
 30
0.0
 11
214.3248563511332
 21
470.4154131033641
 31
0.0
  0
TRACE
  5
1715
330
1712
100
AcDbEntity
  8
AM_5
 62
     5
370
    35
100
AcDbTrace
 10
214.0237500026022
 20
470.7642061959877
 30
0.0
 11
214.6259626996643
 21
470.0666200107405
 31
0.0
 12
211.6755097715271
 22
468.1282833079372
 32
0.0
 13
211.6755097715271
 23
468.1282833079372
 33
0.0
  0
MTEXT
  5
1716
330
1712
100
AcDbEntity
  8
AM_5
 62
     5
100
AcDbMText
 10
238.884334564097
 20
486.4904020237061
 30
0.0
 40
3.500000000000001
 41
0.0
 71
     9
 72
     5
  1

  7
ACISOTS
210
0.0
220
0.0
230
-1.0
 11
-1.0
 21
0.0
 31
0.0
 73
     1
 44
1.0
1001
ACAD
1000
MTEXTBEGIN
1070
    73
1070
     1
1070
    44
1040
1.0
1070
    74
1070
     0
1000
MTEXTEND
  0
ENDBLK
  5
1718
330
1712
100
AcDbEntity
  8
0
100
AcDbBlockEnd
  0
BLOCK
  5
171F
330
171A
100
AcDbEntity
  8
0
100
AcDbBlockBegin
  2
*S50
 70
     1
 10
0.0
 20
0.0
 30
0.0
  3
*S50
  1

  0
LINE
  5
171B
330
171A
100
AcDbEntity
  8
AM_5
 62
     5
100
AcDbLine
 10
189.9721017202057
 20
400.7692663574171
 30
0.0
 11
204.0566567262317
 21
400.7692663574171
 31
0.0
  0
LINE
  5
171C
330
171A
100
AcDbEntity
  8
AM_5
 62
     5
100
AcDbLine
 10
204.0566567262317
 20
400.7692663574171
 30
0.0
 11
209.7258864691194
 21
409.2215722836508
 31
0.0
  0
TRACE
  5
171D
330
171A
100
AcDbEntity
  8
AM_5
 62
     5
370
    35
100
AcDbTrace
 10
210.1085622335241
 20
408.9648995076794
 30
0.0
 11
209.3432107047146
 21
409.4782450596222
 31
0.0
 12
211.6755097715271
 22
412.1282833079373
 32
0.0
 13
211.6755097715271
 23
412.1282833079373
 33
0.0
  0
MTEXT
  5
171E
330
171A
100
AcDbEntity
  8
AM_5
 62
     5
100
AcDbMText
 10
189.9721017202057
 20
406.8675098535633
 30
0.0
 40
3.5
 41
0.0
 71
     9
 72
     5
  1

  7
ACISOTS
 73
     1
 44
1.0
1001
ACAD
1000
MTEXTBEGIN
1070
    73
1070
     1
1070
    44
1040
1.0
1070
    74
1070
     0
1000
MTEXTEND
  0
ENDBLK
  5
1720
330
171A
100
AcDbEntity
  8
0
100
AcDbBlockEnd
  0
BLOCK
  5
1727
330
1722
100
AcDbEntity
  8
0
100
AcDbBlockBegin
  2
*S51
 70
     1
 10
0.0
 20
0.0
 30
0.0
  3
*S51
  1

  0
LINE
  5
1723
330
1722
100
AcDbEntity
  8
AM_5
 62
     5
100
AcDbLine
 10
259.4521576817227
 20
446.3128590717748
 30
0.0
 11
245.5979170393506
 21
446.3128590717748
 31
0.0
  0
LINE
  5
1724
330
1722
100
AcDbEntity
  8
AM_5
 62
     5
100
AcDbLine
 10
245.5979170393506
 20
446.3128590717748
 30
0.0
 11
238.4904726753989
 21
438.2533445936404
 31
0.0
  0
TRACE
  5
1725
330
1722
100
AcDbEntity
  8
AM_5
 62
     5
370
    35
100
AcDbTrace
 10
238.144876802358
 20
438.5581152403975
 30
0.0
 11
238.8360685484398
 21
437.9485739468833
 31
0.0
 12
236.1755097715271
 22
435.6282833079372
 32
0.0
 13
236.1755097715271
 23
435.6282833079372
 33
0.0
  0
MTEXT
  5
1726
330
1722
100
AcDbEntity
  8
AM_5
 62
     5
100
AcDbMText
 10
259.4521576817227
 20
453.146222904899
 30
0.0
 40
3.500000000000001
 41
0.0
 71
     9
 72
     5
  1

  7
ACISOTS
210
0.0
220
0.0
230
-1.0
 11
-1.0
 21
0.0
 31
0.0
 73
     1
 44
1.0
1001
ACAD
1000
MTEXTBEGIN
1070
    73
1070
     1
1070
    44
1040
1.0
1070
    74
1070
     0
1000
MTEXTEND
  0
ENDBLK
  5
1728
330
1722
100
AcDbEntity
  8
0
100
AcDbBlockEnd
  0
ENDSEC
  0
SECTION
  2
ENTITIES
  0
LINE
  5
D2A
330
1F
100
AcDbEntity
  8
0
370
    20
100
AcDbLine
 10
221.1755093911164
 20
427.1282835963487
 30
0.0
 11
235.7755097715275
 21
427.1282833079372
 31
0.0
  0
LINE
  5
D2B
330
1F
100
AcDbEntity
  8
0
370
    20
100
AcDbLine
 10
235.7755097715275
 20
444.1282833079372
 30
0.0
 11
221.1755093911164
 21
444.1282831229125
 31
0.0
  0
LINE
  5
D2C
330
1F
100
AcDbEntity
  8
0
370
    20
100
AcDbLine
 10
235.7755097715275
 20
427.1282833079372
 30
0.0
 11
236.1755097715271
 21
427.5282833079374
 31
0.0
  0
LINE
  5
D2D
330
1F
100
AcDbEntity
  8
0
370
    20
100
AcDbLine
 10
236.1755097715271
 20
443.7282833079372
 30
0.0
 11
235.7755097715275
 21
444.1282833079372
 31
0.0
  0
LINE
  5
D2E
330
1F
100
AcDbEntity
  8
0
370
    20
100
AcDbLine
 10
202.6755097715271
 20
466.928283307937
 30
0.0
 11
202.6755097715271
 21
466.3282833079371
 31
0.0
  0
LINE
  5
D2F
330
1F
100
AcDbEntity
  8
0
370
    20
100
AcDbLine
 10
220.6755097715271
 20
466.3282833079371
 30
0.0
 11
220.6755097715271
 21
466.928283307937
 31
0.0
  0
LINE
  5
D30
330
1F
100
AcDbEntity
  8
0
370
    20
100
AcDbLine
 10
220.6755097715271
 20
466.928283307937
 30
0.0
 11
220.4755097715273
 21
467.1282833079373
 31
0.0
  0
LINE
  5
D31
330
1F
100
AcDbEntity
  8
0
370
    20
100
AcDbLine
 10
202.8755097715278
 20
467.1282833079373
 30
0.0
 11
202.6755097715271
 21
466.928283307937
 31
0.0
  0
LINE
  5
D32
330
1F
100
AcDbEntity
  8
0
370
    20
100
AcDbLine
 10
202.6755097715271
 20
466.3282833079371
 30
0.0
 11
202.8755097715278
 21
466.1282833079373
 31
0.0
  0
LINE
  5
D33
330
1F
100
AcDbEntity
  8
0
370
    20
100
AcDbLine
 10
220.4755097715273
 20
466.1282833079373
 30
0.0
 11
220.6755097715271
 21
466.3282833079371
 31
0.0
  0
LINE
  5
D34
330
1F
100
AcDbEntity
  8
0
370
    20
100
AcDbLine
 10
204.6755097715271
 20
467.928283307937
 30
0.0
 11
204.6755099461847
 21
467.128283633404
 31
0.0
  0
LINE
  5
D35
330
1F
100
AcDbEntity
  8
0
370
    20
100
AcDbLine
 10
218.6755099126571
 20
467.128283633404
 30
0.0
 11
218.6755097715271
 21
467.928283307937
 31
0.0
  0
LINE
  5
D36
330
1F
100
AcDbEntity
  8
0
370
    20
100
AcDbLine
 10
218.6755097715271
 20
467.928283307937
 30
0.0
 11
218.4755097715273
 21
468.1282833079372
 31
0.0
  0
LINE
  5
D37
330
1F
100
AcDbEntity
  8
0
370
    20
100
AcDbLine
 10
204.8755097715278
 20
468.1282833079372
 30
0.0
 11
204.6755097715271
 21
467.928283307937
 31
0.0
  0
LINE
  5
D38
330
1F
100
AcDbEntity
  8
0
370
    20
100
AcDbLine
 10
201.2855102100842
 20
446.1282829852035
 30
0.0
 11
202.8255098292106
 21
445.128283286952
 31
0.0
  0
LINE
  5
D39
330
1F
100
AcDbEntity
  8
0
370
    20
100
AcDbLine
 10
220.5255095639699
 20
445.128283286952
 30
0.0
 11
222.0655101144188
 21
446.1282829852035
 31
0.0
  0
LINE
  5
D3A
330
1F
100
AcDbEntity
  8
0
370
    20
100
AcDbLine
 10
222.0655101144188
 20
450.1282836408546
 30
0.0
 11
220.5255097715275
 21
451.1282833079373
 31
0.0
  0
LINE
  5
D3B
330
1F
100
AcDbEntity
  8
0
370
    20
100
AcDbLine
 10
220.5255097715275
 20
451.1282833079373
 30
0.0
 11
220.5255097715275
 21
465.928283307937
 31
0.0
  0
LINE
  5
D3C
330
1F
100
AcDbEntity
  8
0
370
    20
100
AcDbLine
 10
202.8255097715276
 20
465.928283307937
 30
0.0
 11
202.8255097715276
 21
451.1282833079373
 31
0.0
  0
LINE
  5
D3D
330
1F
100
AcDbEntity
  8
0
370
    20
100
AcDbLine
 10
220.5255097715275
 20
465.928283307937
 30
0.0
 11
220.3255099037164
 21
466.1282834694913
 31
0.0
  0
LINE
  5
D3E
330
1F
100
AcDbEntity
  8
0
370
    20
100
AcDbLine
 10
203.0255094894641
 20
466.1282834694913
 30
0.0
 11
202.8255097715276
 21
465.928283307937
 31
0.0
  0
LINE
  5
D3F
330
1F
100
AcDbEntity
  8
0
370
    20
100
AcDbLine
 10
219.1755097715271
 20
425.428283307937
 30
0.0
 11
219.1755099946135
 21
426.1282834322384
 31
0.0
  0
LINE
  5
D40
330
1F
100
AcDbEntity
  8
0
370
    20
100
AcDbLine
 10
204.175509398567
 20
426.1282834322384
 30
0.0
 11
204.1755097715271
 21
425.428283307937
 31
0.0
  0
LINE
  5
D41
330
1F
100
AcDbEntity
  8
0
370
    20
100
AcDbLine
 10
204.1755097715271
 20
425.428283307937
 30
0.0
 11
204.4755097715273
 21
425.1282833079373
 31
0.0
  0
LINE
  5
D42
330
1F
100
AcDbEntity
  8
0
370
    20
100
AcDbLine
 10
218.8755097715278
 20
425.1282833079373
 30
0.0
 11
219.1755097715271
 21
425.428283307937
 31
0.0
  0
LINE
  5
D43
330
1F
100
AcDbEntity
  8
0
370
    20
100
AcDbLine
 10
204.7108606228106
 20
425.1282832683256
 30
0.0
 11
205.0604985115273
 21
413.9932945679371
 31
0.0
  0
LINE
  5
D44
330
1F
100
AcDbEntity
  8
0
370
    20
100
AcDbLine
 10
218.2905210315279
 20
413.9932945679371
 30
0.0
 11
218.6401587703698
 21
425.1282832683256
 31
0.0
  0
LINE
  5
D45
330
1F
100
AcDbEntity
  8
0
370
    20
100
AcDbLine
 10
205.0604985115273
 20
413.9932945679371
 30
0.0
 11
206.1755097715271
 21
412.8782833079372
 31
0.0
  0
LINE
  5
D46
330
1F
100
AcDbEntity
  8
0
370
    20
100
AcDbLine
 10
217.1755097715271
 20
412.8782833079372
 30
0.0
 11
218.2905210315279
 21
413.9932945679371
 31
0.0
  0
LINE
  5
D47
330
1F
100
AcDbEntity
  8
0
370
    20
100
AcDbLine
 10
217.1755097715271
 20
412.4282833079369
 30
0.0
 11
217.1755097715271
 21
412.8782833079372
 31
0.0
  0
LINE
  5
D48
330
1F
100
AcDbEntity
  8
0
370
    20
100
AcDbLine
 10
206.1755097715271
 20
412.8782833079372
 30
0.0
 11
206.1755097715271
 21
412.4282833079369
 31
0.0
  0
LINE
  5
D49
330
1F
100
AcDbEntity
  8
0
370
    20
100
AcDbLine
 10
206.1755097715271
 20
412.4282833079369
 30
0.0
 11
206.4755097715273
 21
412.1282833079373
 31
0.0
  0
LINE
  5
D4A
330
1F
100
AcDbEntity
  8
0
370
    20
100
AcDbLine
 10
216.8755097715278
 20
412.1282833079373
 30
0.0
 11
217.1755097715271
 21
412.4282833079369
 31
0.0
  0
LINE
  5
D4B
330
1F
100
AcDbEntity
  8
0
370
    20
100
AcDbLine
 10
211.5855097679854
 20
445.128283286952
 30
0.0
 11
211.7655097707142
 21
445.128283286952
 31
0.0
  0
SPLINE
  5
D4C
330
1F
100
AcDbEntity
  8
0
370
    20
100
AcDbSpline
210
0.0
220
0.0
230
1.0
 70
    28
 71
     3
 72
    11
 73
     7
 74
     0
 42
0.0000000001
 43
0.0000000001
 40
0.0
 40
0.0
 40
0.0
 40
0.0
 40
0.2500040781114499
 40
0.4999822175157648
 40
0.7500017421948252
 40
1.0
 40
1.0
 40
1.0
 40
1.0
 10
211.7655097707142
 20
445.128283286952
 30
0.0
 41
1.0
 10
211.7655097707142
 20
445.1281329359213
 30
0.0
 41
1.0
 10
211.7655097707142
 20
445.1278322494592
 30
0.0
 41
1.0
 10
211.7655097707142
 20
445.1255195066306
 30
0.0
 41
1.0
 10
211.7655097707142
 20
445.122214477487
 30
0.0
 41
1.0
 10
211.7655097707142
 20
445.1195935958764
 30
0.0
 41
1.0
 10
211.7655097707142
 20
445.1182832108071
 30
0.0
 41
1.0
  0
LINE
  5
D4D
330
1F
100
AcDbEntity
  8
0
370
    20
100
AcDbLine
 10
211.7655097707142
 20
445.1182832108071
 30
0.0
 11
211.5855097679854
 21
445.1182832108071
 31
0.0
  0
SPLINE
  5
D4E
330
1F
100
AcDbEntity
  8
0
370
    20
100
AcDbSpline
210
0.0
220
0.0
230
1.0
 70
    28
 71
     3
 72
    11
 73
     7
 74
     0
 42
0.0000000001
 43
0.0000000001
 40
0.0
 40
0.0
 40
0.0
 40
0.0
 40
0.2500040781114499
 40
0.4999822175157648
 40
0.7500017421948252
 40
1.0
 40
1.0
 40
1.0
 40
1.0
 10
211.5855097679854
 20
445.128283286952
 30
0.0
 41
1.0
 10
211.5855097679854
 20
445.1281329359213
 30
0.0
 41
1.0
 10
211.5855097679854
 20
445.1278322494592
 30
0.0
 41
1.0
 10
211.5855097679854
 20
445.1255195066306
 30
0.0
 41
1.0
 10
211.5855097679854
 20
445.122214477487
 30
0.0
 41
1.0
 10
211.5855097679854
 20
445.1195935958764
 30
0.0
 41
1.0
 10
211.5855097679854
 20
445.1182832108071
 30
0.0
 41
1.0
  0
SPLINE
  5
D4F
330
1F
100
AcDbEntity
  8
0
370
    20
100
AcDbSpline
210
0.0
220
0.0
230
1.0
 70
    12
 71
     3
 72
    14
 73
    10
 74
     0
 42
0.0000000001
 43
0.0000000001
 40
0.0
 40
0.0
 40
0.0
 40
0.0
 40
0.1184782110408918
 40
0.2373460870972353
 40
0.3578856612852602
 40
0.4797692611111616
 40
0.6470678425684858
 40
0.8201997966569759
 40
1.0
 40
1.0
 40
1.0
 40
1.0
 10
218.5304070615643
 20
442.4831804917386
 30
0.0
 41
1.0
 10
218.3160623710413
 20
442.6850654053274
 30
0.0
 41
1.0
 10
217.8866680280766
 20
443.0894992152526
 30
0.0
 41
1.0
 10
217.1635940929221
 20
443.6101940574659
 30
0.0
 41
1.0
 10
216.3880855081519
 20
444.0635063373925
 30
0.0
 41
1.0
 10
215.4598343647616
 20
444.4845519038268
 30
0.0
 41
1.0
 10
214.3633325948471
 20
444.8335405671233
 30
0.0
 41
1.0
 10
213.0892120529073
 20
445.0745751619407
 30
0.0
 41
1.0
 10
212.2122668236519
 20
445.1035314955885
 30
0.0
 41
1.0
 10
211.7655097707142
 20
445.1182832108071
 30
0.0
 41
1.0
  0
SPLINE
  5
D50
330
1F
100
AcDbEntity
  8
0
370
    20
100
AcDbSpline
210
0.0
220
0.0
230
1.0
 70
    12
 71
     3
 72
    14
 73
    10
 74
     0
 42
0.0000000001
 43
0.0000000001
 40
0.0
 40
0.0
 40
0.0
 40
0.0
 40
0.1797679634740045
 40
0.3528691619568722
 40
0.5202304103343848
 40
0.6420434372396246
 40
0.7626535615637881
 40
0.8814871260823784
 40
1.0
 40
1.0
 40
1.0
 40
1.0
 10
221.1655097806328
 20
435.7182833464077
 30
0.0
 41
1.0
 10
221.1507454060988
 20
436.1649584298216
 30
0.0
 41
1.0
 10
221.1217641996139
 20
437.0417434770867
 30
0.0
 41
1.0
 10
220.8808628201899
 20
438.3158852990247
 30
0.0
 41
1.0
 10
220.5318886853887
 20
439.412296547143
 30
0.0
 41
1.0
 10
220.1108178530934
 20
440.3407037769863
 30
0.0
 41
1.0
 10
219.6575564932285
 20
441.1161444940127
 30
0.0
 41
1.0
 10
219.1368137104467
 20
441.839401137178
 30
0.0
 41
1.0
 10
218.7323604522074
 20
442.2687807589532
 30
0.0
 41
1.0
 10
218.5304070615643
 20
442.4831804917386
 30
0.0
 41
1.0
  0
LINE
  5
D51
330
1F
100
AcDbEntity
  8
0
370
    20
100
AcDbLine
 10
221.1655097806328
 20
435.5382833727827
 30
0.0
 11
221.1655097806328
 21
435.7182833464077
 31
0.0
  0
SPLINE
  5
D52
330
1F
100
AcDbEntity
  8
0
370
    20
100
AcDbSpline
210
0.0
220
0.0
230
1.0
 70
    12
 71
     3
 72
    14
 73
    10
 74
     0
 42
0.0000000001
 43
0.0000000001
 40
0.0
 40
0.0
 40
0.0
 40
0.0
 40
0.1184782080092117
 40
0.2373460810239041
 40
0.3578856206410248
 40
0.4797693001233063
 40
0.6470678475425008
 40
0.8201997858616447
 40
1.0
 40
1.0
 40
1.0
 40
1.0
 10
218.5304070615643
 20
428.7733857617905
 30
0.0
 41
1.0
 10
218.7322919632992
 20
428.9877304591064
 30
0.0
 41
1.0
 10
219.136725749477
 20
429.4171248156809
 30
0.0
 41
1.0
 10
219.6574207252691
 20
430.1401985844105
 30
0.0
 41
1.0
 10
220.1107323850723
 20
430.9157076710127
 30
0.0
 41
1.0
 10
220.531778477883
 20
431.8439585974994
 30
0.0
 41
1.0
 10
220.8807673139894
 20
432.9404604899779
 30
0.0
 41
1.0
 10
221.1218009993248
 20
434.2145811022025
 30
0.0
 41
1.0
 10
221.1507578174864
 20
435.0915263018229
 30
0.0
 41
1.0
 10
221.1655097806328
 20
435.5382833727827
 30
0.0
 41
1.0
  0
SPLINE
  5
D53
330
1F
100
AcDbEntity
  8
0
370
    20
100
AcDbSpline
210
0.0
220
0.0
230
1.0
 70
    12
 71
     3
 72
    14
 73
    10
 74
     0
 42
0.0000000001
 43
0.0000000001
 40
0.0
 40
0.0
 40
0.0
 40
0.0
 40
0.1797679739259197
 40
0.3528691673642168
 40
0.5202304257382796
 40
0.6420434517974348
 40
0.7626535752838689
 40
0.8814871874027231
 40
1.0
 40
1.0
 40
1.0
 40
1.0
 10
211.7655097707142
 20
426.138283042722
 30
0.0
 41
1.0
 10
212.2121848844694
 20
426.1530474130601
 30
0.0
 41
1.0
 10
213.0889699537514
 20
426.1820286100665
 30
0.0
 41
1.0
 10
214.3631118068409
 20
426.4229300334969
 30
0.0
 41
1.0
 10
215.4595231172265
 20
426.7719040891139
 30
0.0
 41
1.0
 10
216.3879302845056
 20
427.1929750535451
 30
0.0
 41
1.0
 10
217.1633713972937
 20
427.646236086911
 30
0.0
 41
1.0
 10
217.8866269353642
 20
428.1669802851467
 30
0.0
 41
1.0
 10
218.3160071375208
 20
428.5714328234486
 30
0.0
 41
1.0
 10
218.5304070615643
 20
428.7733857617905
 30
0.0
 41
1.0
  0
LINE
  5
D54
330
1F
100
AcDbEntity
  8
0
370
    20
100
AcDbLine
 10
211.5855097679854
 20
426.138283042722
 30
0.0
 11
211.7655097707142
 21
426.138283042722
 31
0.0
  0
SPLINE
  5
D55
330
1F
100
AcDbEntity
  8
0
370
    20
100
AcDbSpline
210
0.0
220
0.0
230
1.0
 70
    12
 71
     3
 72
    14
 73
    10
 74
     0
 42
0.0000000001
 43
0.0000000001
 40
0.0
 40
0.0
 40
0.0
 40
0.0
 40
0.1184781303976247
 40
0.2373461014667963
 40
0.3578855979416908
 40
0.4797692314960073
 40
0.6470677854943819
 40
0.8201997774609194
 40
0.9999999999999998
 40
0.9999999999999998
 40
0.9999999999999998
 40
0.9999999999999998
 10
204.8206127972775
 20
428.7733857617905
 30
0.0
 41
1.0
 10
205.0349573520228
 20
428.5715010311665
 30
0.0
 41
1.0
 10
205.4643517412554
 20
428.1670672880069
 30
0.0
 41
1.0
 10
206.1874253335194
 20
427.6463722986083
 30
0.0
 41
1.0
 10
206.9629342458742
 20
427.1930605064091
 30
0.0
 41
1.0
 10
207.8911847027688
 20
426.7720139485151
 30
0.0
 41
1.0
 10
208.987687119103
 20
426.4230270973676
 30
0.0
 41
1.0
 10
210.2618073516954
 20
426.1819914202102
 30
0.0
 41
1.0
 10
211.1387526860539
 20
426.1530348683151
 30
0.0
 41
1.0
 10
211.5855097679854
 20
426.138283042722
 30
0.0
 41
1.0
  0
SPLINE
  5
D56
330
1F
100
AcDbEntity
  8
0
370
    20
100
AcDbSpline
210
0.0
220
0.0
230
1.0
 70
    12
 71
     3
 72
    14
 73
    10
 74
     0
 42
0.0000000001
 43
0.0000000001
 40
0.0
 40
0.0
 40
0.0
 40
0.0
 40
0.1797679559110079
 40
0.3528691511270261
 40
0.5202303666031522
 40
0.6420433830979887
 40
0.7626535511190397
 40
0.8814870665643748
 40
1.0
 40
1.0
 40
1.0
 40
1.0
 10
202.1855096125477
 20
435.5382833727827
 30
0.0
 41
1.0
 10
202.2002739883923
 20
435.0916082697541
 30
0.0
 41
1.0
 10
202.2292551977793
 20
434.2148231740103
 30
0.0
 41
1.0
 10
202.4701565508016
 20
432.9406813526312
 30
0.0
 41
1.0
 10
202.8191306805605
 20
431.8442700956453
 30
0.0
 41
1.0
 10
203.2402017416238
 20
430.915862917028
 30
0.0
 41
1.0
 10
203.6934624430036
 20
430.1404217172604
 30
0.0
 41
1.0
 10
204.2142066432538
 20
429.4171658563378
 30
0.0
 41
1.0
 10
204.6186595097209
 20
428.9877858065371
 30
0.0
 41
1.0
 10
204.8206127972775
 20
428.7733857617905
 30
0.0
 41
1.0
  0
LINE
  5
D57
330
1F
100
AcDbEntity
  8
0
370
    20
100
AcDbLine
 10
202.1855096125477
 20
435.7182833464077
 30
0.0
 11
202.1855096125477
 21
435.5382833727827
 31
0.0
  0
SPLINE
  5
D58
330
1F
100
AcDbEntity
  8
0
370
    20
100
AcDbSpline
210
0.0
220
0.0
230
1.0
 70
    12
 71
     3
 72
    14
 73
    10
 74
     0
 42
0.0000000001
 43
0.0000000001
 40
0.0
 40
0.0
 40
0.0
 40
0.0
 40
0.1184781867861017
 40
0.237346123892471
 40
0.3578856385351401
 40
0.4797692916121504
 40
0.6470678455647604
 40
0.8201997906379832
 40
1.0
 40
1.0
 40
1.0
 40
1.0
 10
204.8206127972775
 20
442.4831804917386
 30
0.0
 41
1.0
 10
204.6187279075724
 20
442.2688358645014
 30
0.0
 41
1.0
 10
204.2142939999997
 20
441.8394414938421
 30
0.0
 41
1.0
 10
203.6935987549144
 20
441.1163678806416
 30
0.0
 41
1.0
 10
203.2402870211075
 20
440.3408588141411
 30
0.0
 41
1.0
 10
202.8192408493081
 20
439.4126080635634
 30
0.0
 41
1.0
 10
202.4702520924269
 20
438.3161061937991
 30
0.0
 41
1.0
 10
202.2292183959584
 20
437.0419855887936
 30
0.0
 41
1.0
 10
202.2002615760897
 20
436.1650403983304
 30
0.0
 41
1.0
 10
202.1855096125477
 20
435.7182833464077
 30
0.0
 41
1.0
  0
SPLINE
  5
D59
330
1F
100
AcDbEntity
  8
0
370
    20
100
AcDbSpline
210
0.0
220
0.0
230
1.0
 70
    12
 71
     3
 72
    14
 73
    10
 74
     0
 42
0.0000000001
 43
0.0000000001
 40
0.0
 40
0.0
 40
0.0
 40
0.0
 40
0.17976796059386
 40
0.3528691673553597
 40
0.5202304574090065
 40
0.6420434020929814
 40
0.7626535584495899
 40
0.8814871487597994
 40
1.0
 40
1.0
 40
1.0
 40
1.0
 10
211.5855097679854
 20
445.1182832108071
 30
0.0
 41
1.0
 10
211.1388346730286
 20
445.1035190873714
 30
0.0
 41
1.0
 10
210.262049575644
 20
445.0745383728641
 30
0.0
 41
1.0
 10
208.9879077818845
 20
444.8336360543281
 30
0.0
 41
1.0
 10
207.8914966304013
 20
444.4846621234898
 30
0.0
 41
1.0
 10
206.9630891462697
 20
444.06359181775
 30
0.0
 41
1.0
 10
206.1876489253167
 20
443.610329743142
 30
0.0
 41
1.0
 10
205.4643919359854
 20
443.0895873212699
 30
0.0
 41
1.0
 10
205.0350124289383
 20
442.6851339150021
 30
0.0
 41
1.0
 10
204.8206127972775
 20
442.4831804917386
 30
0.0
 41
1.0
  0
SPLINE
  5
D5A
330
1F
100
AcDbEntity
  8
0
370
    20
100
AcDbSpline
210
0.0
220
0.0
230
1.0
 70
    28
 71
     3
 72
    11
 73
     7
 74
     0
 42
0.0000000001
 43
0.0000000001
 40
0.0
 40
0.0
 40
0.0
 40
0.0
 40
0.2500017698299223
 40
0.5
 40
0.7499982301700776
 40
1.0
 40
1.0
 40
1.0
 40
1.0
 10
221.1655097806328
 20
435.7182833464077
 30
0.0
 41
1.0
 10
221.1668201972829
 20
435.7182833464077
 30
0.0
 41
1.0
 10
221.1694410120311
 20
435.7182833464077
 30
0.0
 41
1.0
 10
221.1727455622698
 20
435.7182833464077
 30
0.0
 41
1.0
 10
221.1750590239266
 20
435.7182833464077
 30
0.0
 41
1.0
 10
221.175359268011
 20
435.7182833464077
 30
0.0
 41
1.0
 10
221.1755093911164
 20
435.7182833464077
 30
0.0
 41
1.0
  0
LINE
  5
D5B
330
1F
100
AcDbEntity
  8
0
370
    20
100
AcDbLine
 10
221.1755093911164
 20
435.7182833464077
 30
0.0
 11
221.1755093911164
 21
435.5382833727827
 31
0.0
  0
SPLINE
  5
D5C
330
1F
100
AcDbEntity
  8
0
370
    20
100
AcDbSpline
210
0.0
220
0.0
230
1.0
 70
    28
 71
     3
 72
    11
 73
     7
 74
     0
 42
0.0000000001
 43
0.0000000001
 40
0.0
 40
0.0
 40
0.0
 40
0.0
 40
0.2500017698299223
 40
0.5
 40
0.7499982301700776
 40
1.0
 40
1.0
 40
1.0
 40
1.0
 10
221.1655097806328
 20
435.5382833727827
 30
0.0
 41
1.0
 10
221.1668201972829
 20
435.5382833727827
 30
0.0
 41
1.0
 10
221.1694410120311
 20
435.5382833727827
 30
0.0
 41
1.0
 10
221.1727455622698
 20
435.5382833727827
 30
0.0
 41
1.0
 10
221.1750590239266
 20
435.5382833727827
 30
0.0
 41
1.0
 10
221.175359268011
 20
435.5382833727827
 30
0.0
 41
1.0
 10
221.1755093911164
 20
435.5382833727827
 30
0.0
 41
1.0
  0
LINE
  5
D5D
330
1F
100
AcDbEntity
  8
0
370
    20
100
AcDbLine
 10
202.175510002064
 20
435.5382833727827
 30
0.0
 11
202.175510002064
 21
435.7182833464077
 31
0.0
  0
SPLINE
  5
D5E
330
1F
100
AcDbEntity
  8
0
370
    20
100
AcDbSpline
210
0.0
220
0.0
230
1.0
 70
    28
 71
     3
 72
    11
 73
     7
 74
     0
 42
0.0000000001
 43
0.0000000001
 40
0.0
 40
0.0
 40
0.0
 40
0.0
 40
0.2500017698299223
 40
0.5
 40
0.7499982301700776
 40
1.0
 40
1.0
 40
1.0
 40
1.0
 10
202.175510002064
 20
435.7182833464077
 30
0.0
 41
1.0
 10
202.1756601251694
 20
435.7182833464077
 30
0.0
 41
1.0
 10
202.1759603692538
 20
435.7182833464077
 30
0.0
 41
1.0
 10
202.1782738309106
 20
435.7182833464077
 30
0.0
 41
1.0
 10
202.1815783811493
 20
435.7182833464077
 30
0.0
 41
1.0
 10
202.1841991958967
 20
435.7182833464077
 30
0.0
 41
1.0
 10
202.1855096125477
 20
435.7182833464077
 30
0.0
 41
1.0
  0
SPLINE
  5
D5F
330
1F
100
AcDbEntity
  8
0
370
    20
100
AcDbSpline
210
0.0
220
0.0
230
1.0
 70
    28
 71
     3
 72
    11
 73
     7
 74
     0
 42
0.0000000001
 43
0.0000000001
 40
0.0
 40
0.0
 40
0.0
 40
0.0
 40
0.2500017698299223
 40
0.5
 40
0.7499982301700776
 40
1.0
 40
1.0
 40
1.0
 40
1.0
 10
202.175510002064
 20
435.5382833727827
 30
0.0
 41
1.0
 10
202.1756601251694
 20
435.5382833727827
 30
0.0
 41
1.0
 10
202.1759603692538
 20
435.5382833727827
 30
0.0
 41
1.0
 10
202.1782738309106
 20
435.5382833727827
 30
0.0
 41
1.0
 10
202.1815783811493
 20
435.5382833727827
 30
0.0
 41
1.0
 10
202.1841991958967
 20
435.5382833727827
 30
0.0
 41
1.0
 10
202.1855096125477
 20
435.5382833727827
 30
0.0
 41
1.0
  0
SPLINE
  5
D60
330
1F
100
AcDbEntity
  8
0
370
    20
100
AcDbSpline
210
0.0
220
0.0
230
1.0
 70
    28
 71
     3
 72
    11
 73
     7
 74
     0
 42
0.0000000001
 43
0.0000000001
 40
0.0
 40
0.0
 40
0.0
 40
0.0
 40
0.2500017698299223
 40
0.5
 40
0.7499982301700776
 40
1.0
 40
1.0
 40
1.0
 40
1.0
 10
211.7655097707142
 20
426.138283042722
 30
0.0
 41
1.0
 10
211.7655097707142
 20
426.136972626071
 30
0.0
 41
1.0
 10
211.7655097707142
 20
426.1343518113236
 30
0.0
 41
1.0
 10
211.7655097707142
 20
426.1310472610845
 30
0.0
 41
1.0
 10
211.7655097707142
 20
426.1287337994282
 30
0.0
 41
1.0
 10
211.7655097707142
 20
426.1284335553433
 30
0.0
 41
1.0
 10
211.7655097707142
 20
426.1282834322384
 30
0.0
 41
1.0
  0
LINE
  5
D61
330
1F
100
AcDbEntity
  8
0
370
    20
100
AcDbLine
 10
211.7655097707142
 20
426.1282834322384
 30
0.0
 11
211.5855097679854
 21
426.1282834322384
 31
0.0
  0
SPLINE
  5
D62
330
1F
100
AcDbEntity
  8
0
370
    20
100
AcDbSpline
210
0.0
220
0.0
230
1.0
 70
    28
 71
     3
 72
    11
 73
     7
 74
     0
 42
0.0000000001
 43
0.0000000001
 40
0.0
 40
0.0
 40
0.0
 40
0.0
 40
0.2500017698299223
 40
0.5
 40
0.7499982301700776
 40
1.0
 40
1.0
 40
1.0
 40
1.0
 10
211.5855097679854
 20
426.138283042722
 30
0.0
 41
1.0
 10
211.5855097679854
 20
426.136972626071
 30
0.0
 41
1.0
 10
211.5855097679854
 20
426.1343518113236
 30
0.0
 41
1.0
 10
211.5855097679854
 20
426.1310472610845
 30
0.0
 41
1.0
 10
211.5855097679854
 20
426.1287337994282
 30
0.0
 41
1.0
 10
211.5855097679854
 20
426.1284335553433
 30
0.0
 41
1.0
 10
211.5855097679854
 20
426.1282834322384
 30
0.0
 41
1.0
  0
SPLINE
  5
D63
330
1F
100
AcDbEntity
  8
0
370
    20
100
AcDbSpline
210
0.0
220
0.0
230
1.0
 70
    28
 71
     3
 72
    14
 73
    10
 74
     0
 42
0.0000000001
 43
0.0000000001
 40
0.0
 40
0.0
 40
0.0
 40
0.0
 40
0.1184781667476898
 40
0.2373460771996065
 40
0.3578856174211679
 40
0.4797692975146301
 40
0.6470678457727365
 40
0.8201997849600438
 40
1.0
 40
1.0
 40
1.0
 40
1.0
 10
202.175510002064
 20
428.7733857617905
 30
0.0
 41
1.0
 10
202.175510002064
 20
428.9877305075338
 30
0.0
 41
1.0
 10
202.175510002064
 20
429.4171251037465
 30
0.0
 41
1.0
 10
202.175510002064
 20
430.1401984100354
 30
0.0
 41
1.0
 10
202.175510002064
 20
430.9157076967432
 30
0.0
 41
1.0
 10
202.175510002064
 20
431.8439585876632
 30
0.0
 41
1.0
 10
202.175510002064
 20
432.9404604930506
 30
0.0
 41
1.0
 10
202.175510002064
 20
434.2145811013884
 30
0.0
 41
1.0
 10
202.175510002064
 20
435.0915263015482
 30
0.0
 41
1.0
 10
202.175510002064
 20
435.5382833727827
 30
0.0
 41
1.0
  0
SPLINE
  5
D64
330
1F
100
AcDbEntity
  8
0
370
    20
100
AcDbSpline
210
0.0
220
0.0
230
1.0
 70
    28
 71
     3
 72
    14
 73
    10
 74
     0
 42
0.0000000001
 43
0.0000000001
 40
0.0
 40
0.0
 40
0.0
 40
0.0
 40
0.1184781285524098
 40
0.2373460977702949
 40
0.3578855923678701
 40
0.4797692240239334
 40
0.6470678136693957
 40
0.8201997802611836
 40
1.0
 40
1.0
 40
1.0
 40
1.0
 10
204.8206127972775
 20
445.128283286952
 30
0.0
 41
1.0
 10
205.034957351619
 20
445.128283286952
 30
0.0
 41
1.0
 10
205.4643517400431
 20
445.128283286952
 30
0.0
 41
1.0
 10
206.1874253384161
 20
445.128283286952
 30
0.0
 41
1.0
 10
206.9629342271349
 20
445.128283286952
 30
0.0
 41
1.0
 10
207.8911848713909
 20
445.128283286952
 30
0.0
 41
1.0
 10
208.9876868076511
 20
445.128283286952
 30
0.0
 41
1.0
 10
210.2618074950791
 20
445.128283286952
 30
0.0
 41
1.0
 10
211.1387527154278
 20
445.128283286952
 30
0.0
 41
1.0
 10
211.5855097679854
 20
445.128283286952
 30
0.0
 41
1.0
  0
SPLINE
  5
D65
330
1F
100
AcDbEntity
  8
0
370
    20
100
AcDbSpline
210
0.0
220
0.0
230
1.0
 70
    28
 71
     3
 72
    14
 73
    10
 74
     0
 42
0.0000000001
 43
0.0000000001
 40
0.0
 40
0.0
 40
0.0
 40
0.0
 40
0.1184781498894451
 40
0.2373460919711076
 40
0.3578856116590347
 40
0.4797692698375628
 40
0.6470678307925604
 40
0.8201997831123309
 40
1.0
 40
1.0
 40
1.0
 40
1.0
 10
221.1755093911164
 20
442.4831804917386
 30
0.0
 41
1.0
 10
221.1755093911164
 20
442.2688358417046
 30
0.0
 41
1.0
 10
221.1755093911164
 20
441.839441349404
 30
0.0
 41
1.0
 10
221.1755093911164
 20
441.1163678969402
 30
0.0
 41
1.0
 10
221.1755093911164
 20
440.3408588097405
 30
0.0
 41
1.0
 10
221.1755093911164
 20
439.4126080652455
 30
0.0
 41
1.0
 10
221.1755093911164
 20
438.3161061932733
 30
0.0
 41
1.0
 10
221.1755093911164
 20
437.0419855889332
 30
0.0
 41
1.0
 10
221.1755093911164
 20
436.1650403983772
 30
0.0
 41
1.0
 10
221.1755093911164
 20
435.7182833464077
 30
0.0
 41
1.0
  0
SPLINE
  5
D66
330
1F
100
AcDbEntity
  8
0
370
    20
100
AcDbSpline
210
0.0
220
0.0
230
1.0
 70
    28
 71
     3
 72
    14
 73
    10
 74
     0
 42
0.0000000001
 43
0.0000000001
 40
0.0
 40
0.0
 40
0.0
 40
0.0
 40
0.1184781713510123
 40
0.2373460864213944
 40
0.3578856313263703
 40
0.4797692592450495
 40
0.6470678437605443
 40
0.8201997896746785
 40
1.0
 40
1.0
 40
1.0
 40
1.0
 10
218.5304070615643
 20
426.1282834322384
 30
0.0
 41
1.0
 10
218.3160623152466
 20
426.1282834322384
 30
0.0
 41
1.0
 10
217.8866677178852
 20
426.1282834322384
 30
0.0
 41
1.0
 10
217.1635944202784
 20
426.1282834322384
 30
0.0
 41
1.0
 10
216.3880852221395
 20
426.1282834322384
 30
0.0
 41
1.0
 10
215.4598345472863
 20
426.1282834322384
 30
0.0
 41
1.0
 10
214.3633326130724
 20
426.1282834322384
 30
0.0
 41
1.0
 10
213.089211989561
 20
426.1282834322384
 30
0.0
 41
1.0
 10
212.2122668147653
 20
426.1282834322384
 30
0.0
 41
1.0
 10
211.7655097707142
 20
426.1282834322384
 30
0.0
 41
1.0
  0
SPLINE
  5
D67
330
1F
100
AcDbEntity
  8
0
370
    20
100
AcDbSpline
210
0.0
220
0.0
230
1.0
 70
    28
 71
     3
 72
    14
 73
    10
 74
     0
 42
0.0000000001
 43
0.0000000001
 40
0.0
 40
0.0
 40
0.0
 40
0.0
 40
0.1797679730239508
 40
0.352869165593729
 40
0.5202304231280724
 40
0.6420434485760421
 40
0.7626535714573262
 40
0.8814871461410412
 40
1.0
 40
1.0
 40
1.0
 40
1.0
 10
211.7655097707142
 20
445.128283286952
 30
0.0
 41
1.0
 10
212.2121848841947
 20
445.128283286952
 30
0.0
 41
1.0
 10
213.0889699529365
 20
445.128283286952
 30
0.0
 41
1.0
 10
214.3631118099141
 20
445.128283286952
 30
0.0
 41
1.0
 10
215.4595231073866
 20
445.128283286952
 30
0.0
 41
1.0
 10
216.3879303102298
 20
445.128283286952
 30
0.0
 41
1.0
 10
217.1633712228516
 20
445.128283286952
 30
0.0
 41
1.0
 10
217.8866272234276
 20
445.128283286952
 30
0.0
 41
1.0
 10
218.3160071859742
 20
445.128283286952
 30
0.0
 41
1.0
 10
218.5304070615643
 20
445.128283286952
 30
0.0
 41
1.0
  0
SPLINE
  5
D68
330
1F
100
AcDbEntity
  8
0
370
    20
100
AcDbSpline
210
0.0
220
0.0
230
1.0
 70
    28
 71
     3
 72
    14
 73
    10
 74
     0
 42
0.0000000001
 43
0.0000000001
 40
0.0
 40
0.0
 40
0.0
 40
0.0
 40
0.1797679643759834
 40
0.3528691637273798
 40
0.5202304129446212
 40
0.6420434404610531
 40
0.7626535653903734
 40
0.8814871673440805
 40
1.0
 40
1.0
 40
1.0
 40
1.0
 10
202.175510002064
 20
435.7182833464077
 30
0.0
 41
1.0
 10
202.175510002064
 20
436.1649584300963
 30
0.0
 41
1.0
 10
202.175510002064
 20
437.0417434779007
 30
0.0
 41
1.0
 10
202.175510002064
 20
438.3158852959519
 30
0.0
 41
1.0
 10
202.175510002064
 20
439.4122965569827
 30
0.0
 41
1.0
 10
202.175510002064
 20
440.3407037512616
 30
0.0
 41
1.0
 10
202.175510002064
 20
441.1161446684542
 30
0.0
 41
1.0
 10
202.175510002064
 20
441.8394008491146
 30
0.0
 41
1.0
 10
202.175510002064
 20
442.2687807104995
 30
0.0
 41
1.0
 10
202.175510002064
 20
442.4831804917386
 30
0.0
 41
1.0
  0
SPLINE
  5
D69
330
1F
100
AcDbEntity
  8
0
370
    20
100
AcDbSpline
210
0.0
220
0.0
230
1.0
 70
    28
 71
     3
 72
    14
 73
    10
 74
     0
 42
0.0000000001
 43
0.0000000001
 40
0.0
 40
0.0
 40
0.0
 40
0.0
 40
0.1797679675759295
 40
0.3528691661663499
 40
0.5202304592790338
 40
0.6420434320526074
 40
0.7626535591288391
 40
0.8814871884499613
 40
1.0
 40
1.0
 40
1.0
 40
1.0
 10
211.5855097679854
 20
426.1282834322384
 30
0.0
 41
1.0
 10
211.1388346819116
 20
426.1282834322384
 30
0.0
 41
1.0
 10
210.2620496389712
 20
426.1282834322384
 30
0.0
 41
1.0
 10
208.9879077636673
 20
426.1282834322384
 30
0.0
 41
1.0
 10
207.8914964478139
 20
426.1282834322384
 30
0.0
 41
1.0
 10
206.9630894322494
 20
426.1282834322384
 30
0.0
 41
1.0
 10
206.1876485979468
 20
426.1282834322384
 30
0.0
 41
1.0
 10
205.4643922461686
 20
426.1282834322384
 30
0.0
 41
1.0
 10
205.0350124847577
 20
426.1282834322384
 30
0.0
 41
1.0
 10
204.8206127972775
 20
426.1282834322384
 30
0.0
 41
1.0
  0
SPLINE
  5
D6A
330
1F
100
AcDbEntity
  8
0
370
    20
100
AcDbSpline
210
0.0
220
0.0
230
1.0
 70
    28
 71
     3
 72
    14
 73
    10
 74
     0
 42
0.0000000001
 43
0.0000000001
 40
0.0
 40
0.0
 40
0.0
 40
0.0
 40
0.1797679634354311
 40
0.3528691658968265
 40
0.5202303883780754
 40
0.6420434099715554
 40
0.7626535830409028
 40
0.8814871034601704
 40
0.9999999999999998
 40
0.9999999999999998
 40
0.9999999999999998
 40
0.9999999999999998
 10
221.1755093911164
 20
435.5382833727827
 30
0.0
 41
1.0
 10
221.1755093911164
 20
435.0916082697072
 30
0.0
 41
1.0
 10
221.1755093911164
 20
434.2148231738707
 30
0.0
 41
1.0
 10
221.1755093911164
 20
432.9406813531565
 30
0.0
 41
1.0
 10
221.1755093911164
 20
431.8442700939632
 30
0.0
 41
1.0
 10
221.1755093911164
 20
430.9158629214245
 30
0.0
 41
1.0
 10
221.1755093911164
 20
430.1404217009613
 30
0.0
 41
1.0
 10
221.1755093911164
 20
429.4171660007392
 30
0.0
 41
1.0
 10
221.1755093911164
 20
428.9877858293417
 30
0.0
 41
1.0
 10
221.1755093911164
 20
428.7733857617905
 30
0.0
 41
1.0
  0
SPLINE
  5
D6B
330
1F
100
AcDbEntity
  8
0
370
    20
100
AcDbSpline
210
0.0
220
0.0
230
1.0
 70
    12
 71
     3
 72
    11
 73
     7
 74
     0
 42
0.0000000001
 43
0.0000000001
 40
0.0
 40
0.0
 40
0.0
 40
0.0
 40
0.2652354022853069
 40
0.5135653146690981
 40
0.7560821398477698
 40
1.0
 40
1.0
 40
1.0
 40
1.0
 10
221.1755093911164
 20
428.7733857617905
 30
0.0
 41
1.0
 10
221.1705472301786
 20
428.5865893886303
 30
0.0
 41
1.0
 10
221.1609391849428
 20
428.2249026102655
 30
0.0
 41
1.0
 10
221.0363113763291
 20
427.7027220758055
 30
0.0
 41
1.0
 10
220.7912220191814
 20
427.2402988911846
 30
0.0
 41
1.0
 10
220.5597866784213
 20
426.9870475074295
 30
0.0
 41
1.0
 10
220.4437357166284
 20
426.8600571067264
 30
0.0
 41
1.0
  0
SPLINE
  5
D6C
330
1F
100
AcDbEntity
  8
0
370
    20
100
AcDbSpline
210
0.0
220
0.0
230
1.0
 70
    12
 71
     3
 72
    11
 73
     7
 74
     0
 42
0.0000000001
 43
0.0000000001
 40
0.0
 40
0.0
 40
0.0
 40
0.0
 40
0.2652354472288492
 40
0.5135652693825973
 40
0.7560826038562336
 40
1.0
 40
1.0
 40
1.0
 40
1.0
 10
218.5304070615643
 20
445.128283286952
 30
0.0
 41
1.0
 10
218.7172034053805
 20
445.1233206282214
 30
0.0
 41
1.0
 10
219.0788900337469
 20
445.1137116216037
 30
0.0
 41
1.0
 10
219.6010712050887
 20
444.9890854693536
 30
0.0
 41
1.0
 10
220.0634943292119
 20
444.7439958061492
 30
0.0
 41
1.0
 10
220.3167456172963
 20
444.512560383666
 30
0.0
 41
1.0
 10
220.4437357166284
 20
444.396509612464
 30
0.0
 41
1.0
  0
SPLINE
  5
D6D
330
1F
100
AcDbEntity
  8
0
370
    20
100
AcDbSpline
210
0.0
220
0.0
230
1.0
 70
    12
 71
     3
 72
    11
 73
     7
 74
     0
 42
0.0000000001
 43
0.0000000001
 40
0.0
 40
0.0
 40
0.0
 40
0.0
 40
0.2652356108364878
 40
0.5135651657513267
 40
0.7560823450353357
 40
1.0
 40
1.0
 40
1.0
 40
1.0
 10
202.175510002064
 20
442.4831804917386
 30
0.0
 41
1.0
 10
202.1804726212671
 20
442.6699770019474
 30
0.0
 41
1.0
 10
202.1900815434841
 20
443.031663656408
 30
0.0
 41
1.0
 10
202.3147080275907
 20
443.5538446246465
 30
0.0
 41
1.0
 10
202.559797035446
 20
444.0162680797344
 30
0.0
 41
1.0
 10
202.7912326903746
 20
444.2695193928735
 30
0.0
 41
1.0
 10
202.9072836765521
 20
444.396509612464
 30
0.0
 41
1.0
  0
SPLINE
  5
D6E
330
1F
100
AcDbEntity
  8
0
370
    20
100
AcDbSpline
210
0.0
220
0.0
230
1.0
 70
    12
 71
     3
 72
    11
 73
     7
 74
     0
 42
0.0000000001
 43
0.0000000001
 40
0.0
 40
0.0
 40
0.0
 40
0.0
 40
0.2439178794219808
 40
0.48643472375972
 40
0.7347645492294383
 40
1.0
 40
1.0
 40
1.0
 40
1.0
 10
202.9072836765521
 20
426.8600571067264
 30
0.0
 41
1.0
 10
202.7912327452717
 20
426.9870475141389
 30
0.0
 41
1.0
 10
202.5597974653595
 20
427.2402989112739
 30
0.0
 41
1.0
 10
202.3147076857652
 20
427.7027219281428
 30
0.0
 41
1.0
 10
202.1900816817427
 20
428.2249027980225
 30
0.0
 41
1.0
 10
202.180472665675
 20
428.5865894208401
 30
0.0
 41
1.0
 10
202.175510002064
 20
428.7733857617905
 30
0.0
 41
1.0
  0
SPLINE
  5
D6F
330
1F
100
AcDbEntity
  8
0
370
    20
100
AcDbSpline
210
0.0
220
0.0
230
1.0
 70
    12
 71
     3
 72
    11
 73
     7
 74
     0
 42
0.0000000001
 43
0.0000000001
 40
0.0
 40
0.0
 40
0.0
 40
0.0
 40
0.2439173424145053
 40
0.4864346234672813
 40
0.7347643909198145
 40
1.0
 40
1.0
 40
1.0
 40
1.0
 10
202.9072836765521
 20
444.396509612464
 30
0.0
 41
1.0
 10
203.0342737758905
 20
444.5125603836437
 30
0.0
 41
1.0
 10
203.2875250639885
 20
444.7439958060828
 30
0.0
 41
1.0
 10
203.7499481880108
 20
444.9890854696215
 30
0.0
 41
1.0
 10
204.2721295118866
 20
445.1137116568512
 30
0.0
 41
1.0
 10
204.6338162973265
 20
445.1233206389116
 30
0.0
 41
1.0
 10
204.8206127972775
 20
445.128283286952
 30
0.0
 41
1.0
  0
SPLINE
  5
D70
330
1F
100
AcDbEntity
  8
0
370
    20
100
AcDbSpline
210
0.0
220
0.0
230
1.0
 70
    12
 71
     3
 72
    11
 73
     7
 74
     0
 42
0.0000000001
 43
0.0000000001
 40
0.0
 40
0.0
 40
0.0
 40
0.0
 40
0.243917635694908
 40
0.4864347958197998
 40
0.7347644376487763
 40
1.0
 40
1.0
 40
1.0
 40
1.0
 10
220.4437357166284
 20
444.396509612464
 30
0.0
 41
1.0
 10
220.5597867333175
 20
444.2695193995829
 30
0.0
 41
1.0
 10
220.7912224490959
 20
444.0162680998242
 30
0.0
 41
1.0
 10
221.0363110345018
 20
443.5538444769832
 30
0.0
 41
1.0
 10
221.1609393232014
 20
443.0316638441651
 30
0.0
 41
1.0
 10
221.1705472745865
 20
442.6699770341571
 30
0.0
 41
1.0
 10
221.1755093911164
 20
442.4831804917386
 30
0.0
 41
1.0
  0
SPLINE
  5
D71
330
1F
100
AcDbEntity
  8
0
370
    20
100
AcDbSpline
210
0.0
220
0.0
230
1.0
 70
    12
 71
     3
 72
    11
 73
     7
 74
     0
 42
0.0000000001
 43
0.0000000001
 40
0.0
 40
0.0
 40
0.0
 40
0.0
 40
0.2652355988753969
 40
0.5135653567735842
 40
0.7560825251210149
 40
1.0
 40
1.0
 40
1.0
 40
1.0
 10
204.8206127972775
 20
426.1282834322384
 30
0.0
 41
1.0
 10
204.6338162895775
 20
426.1332460667578
 30
0.0
 41
1.0
 10
204.2721294891347
 20
426.1428550226384
 30
0.0
 41
1.0
 10
203.7499483428704
 20
426.2674813781696
 30
0.0
 41
1.0
 10
203.2875247954602
 20
426.5125703484501
 30
0.0
 41
1.0
 10
203.0342737287068
 20
426.7440061081307
 30
0.0
 41
1.0
 10
202.9072836765521
 20
426.8600571067264
 30
0.0
 41
1.0
  0
SPLINE
  5
D72
330
1F
100
AcDbEntity
  8
0
370
    20
100
AcDbSpline
210
0.0
220
0.0
230
1.0
 70
    12
 71
     3
 72
    11
 73
     7
 74
     0
 42
0.0000000001
 43
0.0000000001
 40
0.0
 40
0.0
 40
0.0
 40
0.0
 40
0.2439175286082732
 40
0.4864347503765377
 40
0.7347645629759354
 40
1.0
 40
1.0
 40
1.0
 40
1.0
 10
220.4437357166284
 20
426.8600571067264
 30
0.0
 41
1.0
 10
220.3167456644809
 20
426.7440061081084
 30
0.0
 41
1.0
 10
220.0634945977403
 20
426.5125703483837
 30
0.0
 41
1.0
 10
219.6010710502291
 20
426.2674813784375
 30
0.0
 41
1.0
 10
219.0788900564979
 20
426.1428550578858
 30
0.0
 41
1.0
 10
218.7172034131285
 20
426.133246077448
 30
0.0
 41
1.0
 10
218.5304070615643
 20
426.1282834322384
 30
0.0
 41
1.0
  0
LINE
  5
D74
330
1F
100
AcDbEntity
  8
0
370
    20
100
AcDbLine
 10
236.1755097715271
 20
443.7282833079372
 30
0.0
 11
236.1755097715271
 21
427.5282833079374
 31
0.0
  0
SPLINE
  5
D75
330
1F
100
AcDbEntity
  8
0
370
    20
100
AcDbSpline
210
0.0
220
0.0
230
1.0
 70
    12
 71
     3
 72
    11
 73
     7
 74
     0
 42
0.0000000001
 43
0.0000000001
 40
0.0
 40
0.0
 40
0.0
 40
0.0
 40
0.2499982578051748
 40
0.5000177824842353
 40
0.7499959218885499
 40
1.0
 40
1.0
 40
1.0
 40
1.0
 10
202.175510002064
 20
445.1182832108071
 30
0.0
 41
1.0
 10
202.1756601624496
 20
445.1195935958764
 30
0.0
 41
1.0
 10
202.1759604959965
 20
445.122214477487
 30
0.0
 41
1.0
 10
202.1782735162254
 20
445.1255195066306
 30
0.0
 41
1.0
 10
202.1815786033243
 20
445.1278322494592
 30
0.0
 41
1.0
 10
202.1841992308213
 20
445.1281329359213
 30
0.0
 41
1.0
 10
202.1855096125477
 20
445.128283286952
 30
0.0
 41
1.0
  0
SPLINE
  5
D76
330
1F
100
AcDbEntity
  8
0
370
    20
100
AcDbSpline
210
0.0
220
0.0
230
1.0
 70
    28
 71
     3
 72
    14
 73
    10
 74
     0
 42
0.0000000001
 43
0.0000000001
 40
0.0
 40
0.0
 40
0.0
 40
0.0
 40
0.1184782100399329
 40
0.2373460850920254
 40
0.3578856582616761
 40
0.4797692855130641
 40
0.6470678357997624
 40
0.8201997884255536
 40
1.0
 40
1.0
 40
1.0
 40
1.0
 10
202.175510002064
 20
442.4831804917386
 30
0.0
 41
1.0
 10
202.175510002064
 20
442.6850654060123
 30
0.0
 41
1.0
 10
202.175510002064
 20
443.0894992173086
 30
0.0
 41
1.0
 10
202.175510002064
 20
443.6101940491604
 30
0.0
 41
1.0
 10
202.175510002064
 20
444.0635064048747
 30
0.0
 41
1.0
 10
202.175510002064
 20
444.4845517882828
 30
0.0
 41
1.0
 10
202.175510002064
 20
444.8335406252709
 30
0.0
 41
1.0
 10
202.175510002064
 20
445.0745751548257
 30
0.0
 41
1.0
 10
202.175510002064
 20
445.1035314929269
 30
0.0
 41
1.0
 10
202.175510002064
 20
445.1182832108071
 30
0.0
 41
1.0
  0
SPLINE
  5
D77
330
1F
100
AcDbEntity
  8
0
370
    20
100
AcDbSpline
210
0.0
220
0.0
230
1.0
 70
    28
 71
     3
 72
    14
 73
    10
 74
     0
 42
0.0000000001
 43
0.0000000001
 40
0.0
 40
0.0
 40
0.0
 40
0.0
 40
0.1797679586946328
 40
0.3528691584688144
 40
0.5202303783519567
 40
0.6420433695988283
 40
0.7626535407958299
 40
0.8814871098745665
 40
1.0
 40
1.0
 40
1.0
 40
1.0
 10
202.1855096125477
 20
445.128283286952
 30
0.0
 41
1.0
 10
202.2002739876056
 20
445.128283286952
 30
0.0
 41
1.0
 10
202.2292551956019
 20
445.128283286952
 30
0.0
 41
1.0
 10
202.4701565625213
 20
445.128283286952
 30
0.0
 41
1.0
 10
202.8191306215334
 20
445.128283286952
 30
0.0
 41
1.0
 10
203.2402017780718
 20
445.128283286952
 30
0.0
 41
1.0
 10
203.6934626010601
 20
445.128283286952
 30
0.0
 41
1.0
 10
204.2142063547875
 20
445.128283286952
 30
0.0
 41
1.0
 10
204.6186594687346
 20
445.128283286952
 30
0.0
 41
1.0
 10
204.8206127972775
 20
445.128283286952
 30
0.0
 41
1.0
  0
SPLINE
  5
D78
330
1F
100
AcDbEntity
  8
0
370
    20
100
AcDbSpline
210
0.0
220
0.0
230
1.0
 70
    12
 71
     3
 72
    11
 73
     7
 74
     0
 42
0.0000000001
 43
0.0000000001
 40
0.0
 40
0.0
 40
0.0
 40
0.0
 40
0.2500040781114499
 40
0.4999822175157648
 40
0.7500017421948252
 40
1.0
 40
1.0
 40
1.0
 40
1.0
 10
221.1655097806328
 20
445.128283286952
 30
0.0
 41
1.0
 10
221.1668201623592
 20
445.1281329359213
 30
0.0
 41
1.0
 10
221.1694407898552
 20
445.1278322494592
 30
0.0
 41
1.0
 10
221.172745876955
 20
445.1255195066306
 30
0.0
 41
1.0
 10
221.1750588971839
 20
445.122214477487
 30
0.0
 41
1.0
 10
221.1753592307308
 20
445.1195935958764
 30
0.0
 41
1.0
 10
221.1755093911164
 20
445.1182832108071
 30
0.0
 41
1.0
  0
SPLINE
  5
D79
330
1F
100
AcDbEntity
  8
0
370
    20
100
AcDbSpline
210
0.0
220
0.0
230
1.0
 70
    28
 71
     3
 72
    14
 73
    10
 74
     0
 42
0.0000000001
 43
0.0000000001
 40
0.0
 40
0.0
 40
0.0
 40
0.0
 40
0.1797679592369976
 40
0.3528691744276445
 40
0.5202303982568836
 40
0.6420433665128127
 40
0.7626535720384786
 40
0.8814871070802315
 40
1.0
 40
1.0
 40
1.0
 40
1.0
 10
221.1755093911164
 20
445.1182832108071
 30
0.0
 41
1.0
 10
221.1755093911164
 20
445.1035190796197
 30
0.0
 41
1.0
 10
221.1755093911164
 20
445.0745383490972
 30
0.0
 41
1.0
 10
221.1755093911164
 20
444.8336361603334
 30
0.0
 41
1.0
 10
221.1755093911164
 20
444.4846620011941
 30
0.0
 41
1.0
 10
221.1755093911164
 20
444.0635917280807
 30
0.0
 41
1.0
 10
221.1755093911164
 20
443.6103300466672
 30
0.0
 41
1.0
 10
221.1755093911164
 20
443.089587016234
 30
0.0
 41
1.0
 10
221.1755093911164
 20
442.6851338684979
 30
0.0
 41
1.0
 10
221.1755093911164
 20
442.4831804917386
 30
0.0
 41
1.0
  0
SPLINE
  5
D7A
330
1F
100
AcDbEntity
  8
0
370
    20
100
AcDbSpline
210
0.0
220
0.0
230
1.0
 70
    28
 71
     3
 72
    14
 73
    10
 74
     0
 42
0.0000000001
 43
0.0000000001
 40
0.0
 40
0.0
 40
0.0
 40
0.0
 40
0.1184782116115775
 40
0.2373460882404836
 40
0.3578856315226455
 40
0.4797692862556257
 40
0.6470678387615832
 40
0.8201997823448563
 40
0.9999999999999998
 40
0.9999999999999998
 40
0.9999999999999998
 40
0.9999999999999998
 10
218.5304070615643
 20
445.128283286952
 30
0.0
 41
1.0
 10
218.7322919626907
 20
445.128283286952
 30
0.0
 41
1.0
 10
219.1367257476498
 20
445.128283286952
 30
0.0
 41
1.0
 10
219.6574207326515
 20
445.128283286952
 30
0.0
 41
1.0
 10
220.1107323211221
 20
445.128283286952
 30
0.0
 41
1.0
 10
220.531778547402
 20
445.128283286952
 30
0.0
 41
1.0
 10
220.8807672989882
 20
445.128283286952
 30
0.0
 41
1.0
 10
221.1218010023725
 20
445.128283286952
 30
0.0
 41
1.0
 10
221.1507578185668
 20
445.128283286952
 30
0.0
 41
1.0
 10
221.1655097806328
 20
445.128283286952
 30
0.0
 41
1.0
  0
SPLINE
  5
D7B
330
1F
100
AcDbEntity
  8
0
370
    20
100
AcDbSpline
210
0.0
220
0.0
230
1.0
 70
    12
 71
     3
 72
    11
 73
     7
 74
     0
 42
0.0000000001
 43
0.0000000001
 40
0.0
 40
0.0
 40
0.0
 40
0.0
 40
0.2500017698299223
 40
0.5
 40
0.7499982301700776
 40
1.0
 40
1.0
 40
1.0
 40
1.0
 10
202.1855096125477
 20
426.1282834322384
 30
0.0
 41
1.0
 10
202.1841991958967
 20
426.1284335553433
 30
0.0
 41
1.0
 10
202.1815783811493
 20
426.1287337994282
 30
0.0
 41
1.0
 10
202.1782738309106
 20
426.1310472610845
 30
0.0
 41
1.0
 10
202.1759603692538
 20
426.1343518113236
 30
0.0
 41
1.0
 10
202.1756601251694
 20
426.136972626071
 30
0.0
 41
1.0
 10
202.175510002064
 20
426.138283042722
 30
0.0
 41
1.0
  0
SPLINE
  5
D7C
330
1F
100
AcDbEntity
  8
0
370
    20
100
AcDbSpline
210
0.0
220
0.0
230
1.0
 70
    28
 71
     3
 72
    14
 73
    10
 74
     0
 42
0.0000000001
 43
0.0000000001
 40
0.0
 40
0.0
 40
0.0
 40
0.0
 40
0.1184782072467021
 40
0.2373461163375428
 40
0.3578856551788874
 40
0.4797693054215316
 40
0.6470678517640155
 40
0.820199788968906
 40
1.0
 40
1.0
 40
1.0
 40
1.0
 10
204.8206127972775
 20
426.1282834322384
 30
0.0
 41
1.0
 10
204.6187279311911
 20
426.1282834322384
 30
0.0
 41
1.0
 10
204.2142941536516
 20
426.1282834322384
 30
0.0
 41
1.0
 10
203.6935985986096
 20
426.1282834322384
 30
0.0
 41
1.0
 10
203.2402871012576
 20
426.1282834322384
 30
0.0
 41
1.0
 10
202.8192408346161
 20
426.1282834322384
 30
0.0
 41
1.0
 10
202.4702520976792
 20
426.1282834322384
 30
0.0
 41
1.0
 10
202.2292183898839
 20
426.1282834322384
 30
0.0
 41
1.0
 10
202.2002615743016
 20
426.1282834322384
 30
0.0
 41
1.0
 10
202.1855096125477
 20
426.1282834322384
 30
0.0
 41
1.0
  0
SPLINE
  5
D7D
330
1F
100
AcDbEntity
  8
0
370
    20
100
AcDbSpline
210
0.0
220
0.0
230
1.0
 70
    28
 71
     3
 72
    14
 73
    10
 74
     0
 42
0.0000000001
 43
0.0000000001
 40
0.0
 40
0.0
 40
0.0
 40
0.0
 40
0.1797679671210282
 40
0.3528691750091093
 40
0.5202304027370967
 40
0.6420433996937982
 40
0.7626535765442487
 40
0.8814871880320612
 40
1.0
 40
1.0
 40
1.0
 40
1.0
 10
202.175510002064
 20
426.138283042722
 30
0.0
 41
1.0
 10
202.175510002064
 20
426.1530474173638
 30
0.0
 41
1.0
 10
202.175510002064
 20
426.1820286245439
 30
0.0
 41
1.0
 10
202.175510002064
 20
426.4229299973464
 30
0.0
 41
1.0
 10
202.175510002064
 20
426.7719040368166
 30
0.0
 41
1.0
 10
202.175510002064
 20
427.1929752471756
 30
0.0
 41
1.0
 10
202.175510002064
 20
427.6462359331332
 30
0.0
 41
1.0
 10
202.175510002064
 20
428.166980303775
 30
0.0
 41
1.0
 10
202.175510002064
 20
428.5714328296527
 30
0.0
 41
1.0
 10
202.175510002064
 20
428.7733857617905
 30
0.0
 41
1.0
  0
SPLINE
  5
D7E
330
1F
100
AcDbEntity
  8
0
370
    20
100
AcDbSpline
210
0.0
220
0.0
230
1.0
 70
    12
 71
     3
 72
    11
 73
     7
 74
     0
 42
0.0000000001
 43
0.0000000001
 40
0.0
 40
0.0
 40
0.0
 40
0.0
 40
0.2500017698299223
 40
0.5
 40
0.7499982301700776
 40
1.0
 40
1.0
 40
1.0
 40
1.0
 10
221.1755093911164
 20
426.138283042722
 30
0.0
 41
1.0
 10
221.175359268011
 20
426.136972626071
 30
0.0
 41
1.0
 10
221.1750590239266
 20
426.1343518113236
 30
0.0
 41
1.0
 10
221.1727455622698
 20
426.1310472610845
 30
0.0
 41
1.0
 10
221.1694410120311
 20
426.1287337994282
 30
0.0
 41
1.0
 10
221.1668201972829
 20
426.1284335553433
 30
0.0
 41
1.0
 10
221.1655097806328
 20
426.1282834322384
 30
0.0
 41
1.0
  0
SPLINE
  5
D7F
330
1F
100
AcDbEntity
  8
0
370
    20
100
AcDbSpline
210
0.0
220
0.0
230
1.0
 70
    28
 71
     3
 72
    14
 73
    10
 74
     0
 42
0.0000000001
 43
0.0000000001
 40
0.0
 40
0.0
 40
0.0
 40
0.0
 40
0.1797679653170832
 40
0.3528691714681193
 40
0.5202303975166615
 40
0.6420433932509875
 40
0.7626535688911328
 40
0.8814871055086845
 40
1.0
 40
1.0
 40
1.0
 40
1.0
 10
221.1655097806328
 20
426.1282834322384
 30
0.0
 41
1.0
 10
221.1507454052629
 20
426.1282834322384
 30
0.0
 41
1.0
 10
221.1217641966545
 20
426.1282834322384
 30
0.0
 41
1.0
 10
220.880862834147
 20
426.1282834322384
 30
0.0
 41
1.0
 10
220.5318887604775
 20
426.1282834322384
 30
0.0
 41
1.0
 10
220.1108176443089
 20
426.1282834322384
 30
0.0
 41
1.0
 10
219.6575567300901
 20
426.1282834322384
 30
0.0
 41
1.0
 10
219.1368135465812
 20
426.1282834322384
 30
0.0
 41
1.0
 10
218.7323604251763
 20
426.1282834322384
 30
0.0
 41
1.0
 10
218.5304070615643
 20
426.1282834322384
 30
0.0
 41
1.0
  0
SPLINE
  5
D80
330
1F
100
AcDbEntity
  8
0
370
    20
100
AcDbSpline
210
0.0
220
0.0
230
1.0
 70
    28
 71
     3
 72
    14
 73
    10
 74
     0
 42
0.0000000001
 43
0.0000000001
 40
0.0
 40
0.0
 40
0.0
 40
0.0
 40
0.1184781721952705
 40
0.2373460881126882
 40
0.3578856338766113
 40
0.4797692911190264
 40
0.6470678088168028
 40
0.8201997786429904
 40
1.0
 40
1.0
 40
1.0
 40
1.0
 10
221.1755093911164
 20
428.7733857617905
 30
0.0
 41
1.0
 10
221.1755093911164
 20
428.5715010777413
 30
0.0
 41
1.0
 10
221.1755093911164
 20
428.1670675933197
 30
0.0
 41
1.0
 10
221.1755093911164
 20
427.6463719940412
 30
0.0
 41
1.0
 10
221.1755093911164
 20
427.1930606002298
 30
0.0
 41
1.0
 10
221.1755093911164
 20
426.7720140226485
 30
0.0
 41
1.0
 10
221.1755093911164
 20
426.4230270691174
 30
0.0
 41
1.0
 10
221.1755093911164
 20
426.1819914154886
 30
0.0
 41
1.0
 10
221.1755093911164
 20
426.1530348673033
 30
0.0
 41
1.0
 10
221.1755093911164
 20
426.138283042722
 30
0.0
 41
1.0
  0
LINE
  5
D84
330
1F
100
AcDbEntity
  8
0
370
    20
100
AcDbLine
 10
202.8755097715278
 20
467.1282833079373
 30
0.0
 11
220.4755097715273
 21
467.1282833079373
 31
0.0
  0
LINE
  5
D85
330
1F
100
AcDbEntity
  8
0
370
    20
100
AcDbLine
 10
211.6755097715271
 20
466.1282833079373
 30
0.0
 11
202.8755097715278
 21
466.1282833079373
 31
0.0
  0
LINE
  5
D86
330
1F
100
AcDbEntity
  8
0
370
    20
100
AcDbLine
 10
220.4755097715273
 20
466.1282833079373
 30
0.0
 11
211.6755097715271
 21
466.1282833079373
 31
0.0
  0
LINE
  5
D88
330
1F
100
AcDbEntity
  8
0
370
    20
100
AcDbLine
 10
204.8755097715278
 20
468.1282833079372
 30
0.0
 11
218.4755097715273
 21
468.1282833079372
 31
0.0
  0
ARC
  5
D89
330
1F
100
AcDbEntity
  8
0
370
    20
100
AcDbCircle
 10
211.6755099294209
 20
460.9685530004155
 30
0.0
 40
15.72328333637434
100
AcDbArc
 50
250.7068394793487
 51
289.2931605206513
  0
LINE
  5
D8A
330
1F
100
AcDbEntity
  8
0
370
    20
100
AcDbLine
 10
206.4805099533372
 20
450.1282836408546
 30
0.0
 11
206.4805099533372
 21
446.1282829852035
 31
0.0
  0
ARC
  5
D8B
330
1F
100
AcDbEntity
  8
0
370
    20
100
AcDbCircle
 10
211.6755099294209
 20
435.292033288693
 30
0.0
 40
15.71948947210171
100
AcDbArc
 50
70.701998690332
 51
109.298001309668
  0
LINE
  5
D8C
330
1F
100
AcDbEntity
  8
0
370
    20
100
AcDbLine
 10
216.8705099055045
 20
450.1282836408546
 30
0.0
 11
216.8705099055045
 21
446.1282829852035
 31
0.0
  0
ARC
  5
D8D
330
1F
100
AcDbEntity
  8
0
370
    20
100
AcDbCircle
 10
203.8830100817107
 20
449.5418813363513
 30
0.0
 40
4.289482403048054
100
AcDbArc
 50
232.7315063254236
 51
307.2684936745765
  0
ARC
  5
D8E
330
1F
100
AcDbEntity
  8
0
370
    20
100
AcDbCircle
 10
219.4680100099617
 20
449.5418818432778
 30
0.0
 40
4.289482947454282
100
AcDbArc
 50
232.7315079507584
 51
307.2684920492416
  0
ARC
  5
D8F
330
1F
100
AcDbEntity
  8
0
370
    20
100
AcDbCircle
 10
203.8957486438443
 20
446.7652818205098
 30
0.0
 40
4.241553049378418
100
AcDbArc
 50
52.45456885572011
 51
124.8608850301046
  0
ARC
  5
D90
330
1F
100
AcDbEntity
  8
0
370
    20
100
AcDbCircle
 10
171.7742027533426
 20
497.2886747501035
 30
0.0
 40
55.63241365720668
100
AcDbArc
 50
302.2632390239678
 51
303.9280478063238
  0
LINE
  5
D91
330
1F
100
AcDbEntity
  8
0
370
    20
100
AcDbLine
 10
220.5255097715275
 20
451.1282833079373
 30
0.0
 11
202.8255097715276
 21
451.1282833079373
 31
0.0
  0
ARC
  5
D92
330
1F
100
AcDbEntity
  8
0
370
    20
100
AcDbCircle
 10
219.4680100099617
 20
446.7146846600082
 30
0.0
 40
4.289483045156899
100
AcDbArc
 50
52.73150894381184
 51
127.2684910561881
  0
LINE
  5
D93
330
1F
100
AcDbEntity
  8
0
370
    20
100
AcDbLine
 10
222.0655101144188
 20
450.1282836408546
 30
0.0
 11
222.0655101144188
 21
446.1282829852035
 31
0.0
  0
LINE
  5
D94
330
1F
100
AcDbEntity
  8
0
370
    20
100
AcDbLine
 10
201.2855102100842
 20
450.1282836408546
 30
0.0
 11
201.2855102100842
 21
446.1282829852035
 31
0.0
  0
ELLIPSE
  5
D95
330
1F
100
AcDbEntity
  8
0
370
    20
100
AcDbEllipse
 10
201.285509776931
 20
450.6282833079373
 30
0.0
 11
-0.0000000000003199
 21
0.5
 31
0.0
210
0.0
220
0.0
230
1.0
 40
0.5773502685885954
 41
3.141592634869895
 42
3.840949876535639
  0
LINE
  5
D99
330
1F
100
AcDbEntity
  8
0
370
    20
100
AcDbLine
 10
211.6755097715271
 20
425.1282833079373
 30
0.0
 11
204.4755097715273
 21
425.1282833079373
 31
0.0
  0
LINE
  5
D9A
330
1F
100
AcDbEntity
  8
0
370
    20
100
AcDbLine
 10
218.8755097715278
 20
425.1282833079373
 30
0.0
 11
211.6755097715271
 21
425.1282833079373
 31
0.0
  0
LINE
  5
D9B
330
1F
100
AcDbEntity
  8
0
370
    20
100
AcDbLine
 10
218.2905210315279
 20
413.9932945679371
 30
0.0
 11
205.0604985115273
 21
413.9932945679371
 31
0.0
  0
LINE
  5
D9C
330
1F
100
AcDbEntity
  8
0
370
    20
100
AcDbLine
 10
217.1755097715271
 20
412.8782833079372
 30
0.0
 11
206.1755097715271
 21
412.8782833079372
 31
0.0
  0
LINE
  5
D9F
330
1F
100
AcDbEntity
  8
0
370
    20
100
AcDbLine
 10
211.6755097715271
 20
412.1282833079373
 30
0.0
 11
206.4755097715273
 21
412.1282833079373
 31
0.0
  0
LINE
  5
DA0
330
1F
100
AcDbEntity
  8
0
370
    20
100
AcDbLine
 10
216.8755097715278
 20
412.1282833079373
 30
0.0
 11
211.6755097715271
 21
412.1282833079373
 31
0.0
  0
LINE
  5
DA1
330
1F
100
AcDbEntity
  8
0
370
    20
100
AcDbLine
 10
221.1855097715273
 20
435.6493796000028
 30
0.0
 11
221.1855097715273
 21
435.605695983893
 31
0.0
  0
LINE
  5
DA2
330
1F
100
AcDbEntity
  8
AM_7
100
AcDbLine
 10
237.7755097715275
 20
435.6282833079372
 30
0.0
 11
200.1312726634282
 21
435.6282833079372
 31
0.0
  0
LINE
  5
DA3
330
1F
100
AcDbEntity
  8
1
  6
HIDDEN
 48
0.5
370
    18
100
AcDbLine
 10
236.175509771528
 20
429.8782833079372
 30
0.0
 11
221.1755093911164
 21
429.8782833079372
 31
0.0
  0
LINE
  5
DA4
330
1F
100
AcDbEntity
  8
1
  6
HIDDEN
 48
0.5
370
    18
100
AcDbLine
 10
236.175509771528
 20
430.6782833079374
 30
0.0
 11
221.1755093911164
 21
430.6782833079374
 31
0.0
  0
LINE
  5
DA5
330
1F
100
AcDbEntity
  8
1
  6
HIDDEN
 48
0.5
370
    18
100
AcDbLine
 10
236.175509771528
 20
441.3782833079372
 30
0.0
 11
221.1755093911164
 21
441.3782833079372
 31
0.0
  0
LINE
  5
DA6
330
1F
100
AcDbEntity
  8
1
  6
HIDDEN
 48
0.5
370
    18
100
AcDbLine
 10
236.175509771528
 20
440.5782833079375
 30
0.0
 11
221.1755093911164
 21
440.5782833079371
 31
0.0
  0
LINE
  5
DA7
330
1F
100
AcDbEntity
  8
AM_7
100
AcDbLine
 10
211.6755097715271
 20
410.328283307937
 30
0.0
 11
211.6755097715271
 21
470.1282833079373
 31
0.0
  0
DIMENSION
  5
DA8
330
1F
100
AcDbEntity
  8
DIM
100
AcDbDimension
  2
*D20
 10
190.1855096125477
 20
426.1282834322384
 30
0.0
 11
186.9351651243586
 21
447.1282833700879
 31
0.0
 70
    32
 71
     5
 42
41.9999998756989
  3
ISO-25
100
AcDbAlignedDimension
 13
204.8755097715278
 23
468.1282833079372
 33
0.0
 14
202.1855096125495
 24
426.1282834322384
 34
0.0
 50
90.0
100
AcDbRotatedDimension
  0
DIMENSION
  5
DA9
330
1F
100
AcDbEntity
  8
DIM
100
AcDbDimension
  2
*D21
 10
190.1855096125477
 20
412.1282833079373
 30
0.0
 11
186.9355096125476
 21
419.1332831753297
 31
0.0
 70
    32
 71
     5
 42
14.00999973478474
  3
ISO-25
100
AcDbAlignedDimension
 13
202.175510002064
 23
426.138283042722
 33
0.0
 14
206.4755097715273
 24
412.1282833079373
 34
0.0
 50
90.0
100
AcDbRotatedDimension
  0
DIMENSION
  5
DAB
330
1F
100
AcDbEntity
  8
DIM
100
AcDbDimension
  2
*D23
 10
248.1755097715271
 20
435.6282833079372
 30
0.0
 11
248.1755097715271
 21
423.8782833079373
 31
0.0
 70
   160
 71
     5
 42
23.5
  3
ISO-25
100
AcDbAlignedDimension
 13
216.8755097715278
 23
412.1282833079373
 33
0.0
 14
237.7755097715275
 24
435.6282833079372
 34
0.0
 50
90.0
100
AcDbRotatedDimension
  0
DIMENSION
  5
DAC
330
1F
100
AcDbEntity
  8
DIM
100
AcDbDimension
  2
*D24
 10
236.1755097715271
 20
400.1282833079373
 30
0.0
 11
223.9255097715271
 21
400.1282833079373
 31
0.0
 70
   160
 71
     5
 42
24.5
  3
ISO-25
100
AcDbAlignedDimension
 13
211.6755097715271
 23
410.328283307937
 33
0.0
 14
236.1755097715271
 24
427.5282833079374
 34
0.0
100
AcDbRotatedDimension
  0
LINE
  5
DAE
330
1F
100
AcDbEntity
  8
1
  6
HIDDEN
 48
0.5
370
    18
100
AcDbLine
 10
207.3755097715278
 20
468.1282833079372
 30
0.0
 11
207.8755097715279
 21
461.063218914836
 31
0.0
  0
LINE
  5
DAF
330
1F
100
AcDbEntity
  8
1
  6
HIDDEN
 48
0.5
370
    18
100
AcDbLine
 10
207.874262330199
 20
468.1635804072217
 30
0.0
 11
208.374262330199
 21
461.0985160141204
 31
0.0
  0
LINE
  5
DB0
330
1F
100
AcDbEntity
  8
1
  6
HIDDEN
 48
0.5
370
    18
100
AcDbLine
 10
215.9755097715282
 20
468.1282833079372
 30
0.0
 11
215.4755097715282
 21
461.063218914836
 31
0.0
  0
LINE
  5
DB1
330
1F
100
AcDbEntity
  8
1
  6
HIDDEN
 48
0.5
370
    18
100
AcDbLine
 10
215.4767572128552
 20
468.1635804072217
 30
0.0
 11
214.9767572128552
 21
461.0985160141204
 31
0.0
  0
LINE
  5
DB5
330
1F
100
AcDbEntity
  8
0
370
    20
100
AcDbLine
 10
385.7755634484433
 20
435.1282833079372
 30
0.0
 11
383.175563448443
 21
435.1282833079372
 31
0.0
  0
LINE
  5
DB6
330
1F
100
AcDbEntity
  8
0
370
    20
100
AcDbLine
 10
383.175563448443
 20
407.1282833079372
 30
0.0
 11
385.7755634484433
 21
407.1282833079372
 31
0.0
  0
LINE
  5
DB7
330
1F
100
AcDbEntity
  8
0
370
    20
100
AcDbLine
 10
385.7755634484433
 20
407.1282833079372
 30
0.0
 11
385.9755634484431
 21
407.3282833079371
 31
0.0
  0
LINE
  5
DB8
330
1F
100
AcDbEntity
  8
0
370
    20
100
AcDbLine
 10
385.9755634484431
 20
434.9282833079374
 30
0.0
 11
385.7755634484433
 21
435.1282833079372
 31
0.0
  0
LINE
  5
DB9
330
1F
100
AcDbEntity
  8
0
370
    20
100
AcDbLine
 10
383.175563448443
 20
435.1282833079372
 30
0.0
 11
382.9755634484432
 21
434.9282833079374
 31
0.0
  0
LINE
  5
DBA
330
1F
100
AcDbEntity
  8
0
370
    20
100
AcDbLine
 10
382.9755634484432
 20
407.3282833079371
 30
0.0
 11
383.175563448443
 21
407.1282833079372
 31
0.0
  0
LINE
  5
DBB
330
1F
100
AcDbEntity
  8
0
370
    20
100
AcDbLine
 10
337.9755634484431
 20
387.7282833079367
 30
0.0
 11
337.9755634484431
 21
385.1282833079373
 31
0.0
  0
LINE
  5
DBC
330
1F
100
AcDbEntity
  8
0
370
    20
100
AcDbLine
 10
361.9755634484432
 20
385.1282833079373
 30
0.0
 11
361.9755634484432
 21
387.7282833079367
 31
0.0
  0
LINE
  5
DBD
330
1F
100
AcDbEntity
  8
0
370
    20
100
AcDbLine
 10
337.9755634484431
 20
385.1282833079373
 30
0.0
 11
338.175563448443
 21
384.9282833079375
 31
0.0
  0
LINE
  5
DBE
330
1F
100
AcDbEntity
  8
0
370
    20
100
AcDbLine
 10
361.7755634484433
 20
384.9282833079375
 30
0.0
 11
361.9755634484432
 21
385.1282833079373
 31
0.0
  0
LINE
  5
DBF
330
1F
100
AcDbEntity
  8
0
370
    20
100
AcDbLine
 10
361.9755634484432
 20
387.7282833079367
 30
0.0
 11
361.7755634484433
 21
387.9282833079375
 31
0.0
  0
LINE
  5
DC0
330
1F
100
AcDbEntity
  8
0
370
    20
100
AcDbLine
 10
338.175563448443
 20
387.9282833079375
 30
0.0
 11
337.9755634484431
 21
387.7282833079367
 31
0.0
  0
LINE
  5
DC1
330
1F
100
AcDbEntity
  8
0
370
    20
100
AcDbLine
 10
390.8410701694852
 20
406.4632833079373
 30
0.0
 11
391.9755634484431
 21
408.4282833079375
 31
0.0
  0
LINE
  5
DC2
330
1F
100
AcDbEntity
  8
0
370
    20
100
AcDbLine
 10
391.9755634484431
 20
433.8282833079371
 30
0.0
 11
390.8410701694852
 21
435.7932833079372
 31
0.0
  0
LINE
  5
DC3
330
1F
100
AcDbEntity
  8
0
370
    20
100
AcDbLine
 10
365.9855634484425
 20
406.1282833079372
 30
0.0
 11
382.7755634484433
 21
406.1282833079372
 31
0.0
  0
LINE
  5
DC4
330
1F
100
AcDbEntity
  8
0
370
    20
100
AcDbLine
 10
382.7755634484433
 20
436.1282833079372
 30
0.0
 11
365.9855634484425
 21
436.1282833079372
 31
0.0
  0
LINE
  5
DC5
330
1F
100
AcDbEntity
  8
0
370
    20
100
AcDbLine
 10
382.7755634484433
 20
406.1282833079372
 30
0.0
 11
382.9755634484432
 21
406.328283307937
 31
0.0
  0
LINE
  5
DC6
330
1F
100
AcDbEntity
  8
0
370
    20
100
AcDbLine
 10
382.9755634484432
 20
435.9282833079374
 30
0.0
 11
382.7755634484433
 21
436.1282833079372
 31
0.0
  0
LINE
  5
DC7
330
1F
100
AcDbEntity
  8
0
370
    20
100
AcDbLine
 10
363.9755634484432
 20
466.0282833079369
 30
0.0
 11
363.7755634484433
 21
466.2282833079367
 31
0.0
  0
LINE
  5
DC8
330
1F
100
AcDbEntity
  8
0
370
    20
100
AcDbLine
 10
336.175563448443
 20
466.2282833079367
 30
0.0
 11
335.9755634484431
 21
466.0282833079369
 31
0.0
  0
LINE
  5
DC9
102
{ACAD_REACTORS
330
1116
102
}
330
1F
100
AcDbEntity
  8
0
370
    20
100
AcDbLine
 10
335.9755634484431
 20
466.0282833079369
 30
0.0
 11
335.9755634484431
 21
465.3282833079371
 31
0.0
  0
LINE
  5
DCA
102
{ACAD_REACTORS
330
1116
102
}
330
1F
100
AcDbEntity
  8
0
370
    20
100
AcDbLine
 10
363.9755634484432
 20
465.3282833079371
 30
0.0
 11
363.9755634484432
 21
466.0282833079369
 31
0.0
  0
LINE
  5
DCB
330
1F
100
AcDbEntity
  8
0
370
    20
100
AcDbLine
 10
335.9755634484431
 20
465.3282833079371
 30
0.0
 11
336.175563448443
 21
465.1282833079372
 31
0.0
  0
LINE
  5
DCC
330
1F
100
AcDbEntity
  8
0
370
    20
100
AcDbLine
 10
363.7755634484433
 20
465.1282833079372
 30
0.0
 11
363.9755634484432
 21
465.3282833079371
 31
0.0
  0
LINE
  5
DCD
330
1F
100
AcDbEntity
  8
0
370
    20
100
AcDbLine
 10
342.9755634484432
 20
467.9282833079374
 30
0.0
 11
342.9755634484432
 21
466.2282833079367
 31
0.0
  0
LINE
  5
DCE
330
1F
100
AcDbEntity
  8
0
370
    20
100
AcDbLine
 10
356.9755634484431
 20
466.2282833079367
 30
0.0
 11
356.9755634484431
 21
467.9282833079374
 31
0.0
  0
LINE
  5
DCF
330
1F
100
AcDbEntity
  8
0
370
    20
100
AcDbLine
 10
356.9755634484431
 20
467.9282833079374
 30
0.0
 11
356.7755634484433
 21
468.1282833079372
 31
0.0
  0
LINE
  5
DD0
330
1F
100
AcDbEntity
  8
0
370
    20
100
AcDbLine
 10
343.175563448443
 20
468.1282833079372
 30
0.0
 11
342.9755634484432
 21
467.9282833079374
 31
0.0
  0
LINE
  5
DD1
330
1F
100
AcDbEntity
  8
0
370
    20
100
AcDbLine
 10
340.7255634484432
 20
389.9282833079375
 30
0.0
 11
340.7255634484432
 21
389.7282833079367
 31
0.0
  0
LINE
  5
DD2
330
1F
100
AcDbEntity
  8
0
370
    20
100
AcDbLine
 10
359.2255634484431
 20
389.7282833079367
 30
0.0
 11
359.2255634484431
 21
389.9282833079375
 31
0.0
  0
LINE
  5
DD3
330
1F
100
AcDbEntity
  8
0
370
    20
100
AcDbLine
 10
341.858563448443
 20
384.9282833079375
 30
0.0
 11
342.4237508138408
 21
377.0050959425386
 31
0.0
  0
LINE
  5
DD4
330
1F
100
AcDbEntity
  8
0
370
    20
100
AcDbLine
 10
357.5273760830446
 20
377.0050959425386
 30
0.0
 11
358.0925634484424
 21
384.9282833079375
 31
0.0
  0
LINE
  5
DD5
330
1F
100
AcDbEntity
  8
0
370
    20
100
AcDbLine
 10
342.4237508138408
 20
377.0050959425386
 30
0.0
 11
343.5005634484428
 21
375.9282833079375
 31
0.0
  0
LINE
  5
DD6
330
1F
100
AcDbEntity
  8
0
370
    20
100
AcDbLine
 10
356.4505634484426
 20
375.9282833079375
 30
0.0
 11
357.5273760830446
 21
377.0050959425386
 31
0.0
  0
LINE
  5
DD7
330
1F
100
AcDbEntity
  8
0
370
    20
100
AcDbLine
 10
362.675563448443
 20
389.5282833079369
 30
0.0
 11
362.4755634484432
 21
389.7282833079367
 31
0.0
  0
LINE
  5
DD8
330
1F
100
AcDbEntity
  8
0
370
    20
100
AcDbLine
 10
362.4755634484432
 20
387.9282833079375
 30
0.0
 11
362.675563448443
 21
388.1282833079373
 31
0.0
  0
LINE
  5
DD9
330
1F
100
AcDbEntity
  8
0
370
    20
100
AcDbLine
 10
337.4755634484432
 20
389.7282833079367
 30
0.0
 11
337.2755634484434
 21
389.5282833079369
 31
0.0
  0
LINE
  5
DDA
330
1F
100
AcDbEntity
  8
0
370
    20
100
AcDbLine
 10
337.2755634484434
 20
388.1282833079373
 30
0.0
 11
337.4755634484432
 21
387.9282833079375
 31
0.0
  0
LINE
  5
DDB
330
1F
100
AcDbEntity
  8
0
370
    20
100
AcDbLine
 10
334.4755634484432
 20
391.1282833079373
 30
0.0
 11
334.675563448443
 21
390.9282833079375
 31
0.0
  0
LINE
  5
DDC
330
1F
100
AcDbEntity
  8
0
370
    20
100
AcDbLine
 10
365.2755634484433
 20
390.9282833079375
 30
0.0
 11
365.4755634484431
 21
391.1282833079373
 31
0.0
  0
LINE
  5
DDD
330
1F
100
AcDbEntity
  8
0
370
    20
100
AcDbLine
 10
334.4755634484432
 20
404.9282833079375
 30
0.0
 11
334.4755634484432
 21
391.1282833079373
 31
0.0
  0
LINE
  5
DDE
330
1F
100
AcDbEntity
  8
0
370
    20
100
AcDbLine
 10
365.4755634484431
 20
391.1282833079373
 30
0.0
 11
365.4755634484431
 21
404.9282833079375
 31
0.0
  0
LINE
  5
DDF
330
1F
100
AcDbEntity
  8
0
370
    20
100
AcDbLine
 10
365.4755634484431
 20
404.9282833079375
 30
0.0
 11
365.2755634484433
 21
405.1282833079373
 31
0.0
  0
LINE
  5
DE0
330
1F
100
AcDbEntity
  8
0
370
    20
100
AcDbLine
 10
334.675563448443
 20
405.1282833079373
 30
0.0
 11
334.4755634484432
 21
404.9282833079375
 31
0.0
  0
LINE
  5
DE1
330
1F
100
AcDbEntity
  8
0
370
    20
100
AcDbLine
 10
338.9755634484432
 20
390.9282833079375
 30
0.0
 11
338.9755634484432
 21
390.1282833079373
 31
0.0
  0
LINE
  5
DE2
330
1F
100
AcDbEntity
  8
0
370
    20
100
AcDbLine
 10
360.9755634484431
 20
390.1282833079373
 30
0.0
 11
360.9755634484431
 21
390.9282833079375
 31
0.0
  0
LINE
  5
DE3
330
1F
100
AcDbEntity
  8
0
370
    20
100
AcDbLine
 10
338.9755634484432
 20
390.1282833079373
 30
0.0
 11
339.175563448443
 21
389.9282833079375
 31
0.0
  0
LINE
  5
DE4
330
1F
100
AcDbEntity
  8
0
370
    20
100
AcDbLine
 10
360.7755634484433
 20
389.9282833079375
 30
0.0
 11
360.9755634484431
 21
390.1282833079373
 31
0.0
  0
LINE
  5
DE5
330
1F
100
AcDbEntity
  8
0
370
    20
100
AcDbLine
 10
363.9755634484432
 20
447.1271583061321
 30
0.0
 11
363.9755634484432
 21
464.9282833079365
 31
0.0
  0
LINE
  5
DE6
330
1F
100
AcDbEntity
  8
0
370
    20
100
AcDbLine
 10
363.9755634484432
 20
444.9282833079374
 30
0.0
 11
363.9755634484432
 21
445.3397713466525
 31
0.0
  0
LINE
  5
DE7
330
1F
100
AcDbEntity
  8
0
370
    20
100
AcDbLine
 10
335.9755634484431
 20
464.9282833079365
 30
0.0
 11
335.9755634484431
 21
444.9282833079374
 31
0.0
  0
LINE
  5
DE8
330
1F
100
AcDbEntity
  8
0
370
    20
100
AcDbLine
 10
363.9755634484432
 20
464.9282833079365
 30
0.0
 11
363.7755634484433
 21
465.1282833079372
 31
0.0
  0
LINE
  5
DE9
330
1F
100
AcDbEntity
  8
0
370
    20
100
AcDbLine
 10
336.175563448443
 20
465.1282833079372
 30
0.0
 11
335.9755634484431
 21
464.9282833079365
 31
0.0
  0
LINE
  5
DEA
330
1F
100
AcDbEntity
  8
0
370
    20
100
AcDbLine
 10
366.1389211803039
 20
443.679268139093
 30
0.0
 11
363.9755634484432
 21
444.9282833079374
 31
0.0
  0
LINE
  5
DEB
330
1F
100
AcDbEntity
  8
0
370
    20
100
AcDbLine
 10
335.9755634484431
 20
444.9282833079374
 30
0.0
 11
333.8122057165815
 21
443.679268139093
 31
0.0
  0
LINE
  5
DEC
330
1F
100
AcDbEntity
  8
0
370
    20
100
AcDbLine
 10
363.9755634484432
 20
437.1282833079373
 30
0.0
 11
366.1388961803045
 21
438.3772840430244
 31
0.0
  0
LINE
  5
DED
330
1F
100
AcDbEntity
  8
0
370
    20
100
AcDbLine
 10
333.8122307165818
 20
438.3772840430244
 30
0.0
 11
335.9755634484431
 21
437.1282833079373
 31
0.0
  0
LINE
  5
DF0
330
1F
100
AcDbEntity
  8
0
370
    20
100
AcDbLine
 10
385.9755634484431
 20
434.8261432850119
 30
0.0
 11
385.9755634484431
 21
429.4329224784929
 31
0.0
  0
LINE
  5
DF1
330
1F
100
AcDbEntity
  8
0
370
    20
100
AcDbLine
 10
385.9755634484431
 20
426.5258435860483
 30
0.0
 11
385.9755634484431
 21
415.7357233138196
 31
0.0
  0
LINE
  5
DF2
330
1F
100
AcDbEntity
  8
0
370
    20
100
AcDbLine
 10
385.9755634484431
 20
412.8279836089737
 30
0.0
 11
385.9755634484431
 21
407.4310841432639
 31
0.0
  0
LINE
  5
DF5
330
1F
100
AcDbEntity
  8
0
370
    20
100
AcDbLine
 10
361.7755634484433
 20
384.9282833079375
 30
0.0
 11
338.175563448443
 21
384.9282833079375
 31
0.0
  0
LINE
  5
DF6
330
1F
100
AcDbEntity
  8
0
370
    20
100
AcDbLine
 10
338.3132462047938
 20
387.9282833079375
 30
0.0
 11
342.5878806920914
 21
387.9282833079375
 31
0.0
  0
LINE
  5
DF7
330
1F
100
AcDbEntity
  8
0
370
    20
100
AcDbLine
 10
345.7009289611447
 20
387.9282833079375
 30
0.0
 11
354.2501979357417
 21
387.9282833079375
 31
0.0
  0
LINE
  5
DF8
330
1F
100
AcDbEntity
  8
0
370
    20
100
AcDbLine
 10
357.363246204794
 20
387.9282833079375
 30
0.0
 11
361.6378806920925
 21
387.9282833079375
 31
0.0
  0
ARC
  5
DF9
330
1F
100
AcDbEntity
  8
0
370
    20
100
AcDbCircle
 10
367.2933688804365
 20
421.1307834499335
 30
0.0
 40
24.66218023445202
100
AcDbArc
 50
342.7095209939568
 51
17.29047900604318
  0
LINE
  5
DFA
330
1F
100
AcDbEntity
  8
0
370
    20
100
AcDbLine
 10
385.9755634484431
 20
413.8007835919312
 30
0.0
 11
390.8410701694852
 21
413.8007835919312
 31
0.0
  0
LINE
  5
DFB
330
1F
100
AcDbEntity
  8
0
370
    20
100
AcDbLine
 10
385.9755634484431
 20
413.8007835919312
 30
0.0
 11
385.9755634484431
 21
415.7357233138196
 31
0.0
  0
LINE
  5
DFC
330
1F
100
AcDbEntity
  8
0
370
    20
100
AcDbLine
 10
385.9755634484431
 20
426.5258435860483
 30
0.0
 11
385.9755634484431
 21
428.4607833079368
 31
0.0
  0
LINE
  5
DFD
330
1F
100
AcDbEntity
  8
0
370
    20
100
AcDbLine
 10
385.9755634484431
 20
428.4607833079368
 30
0.0
 11
390.8410701694852
 21
428.4607833079368
 31
0.0
  0
LINE
  5
DFE
330
1F
100
AcDbEntity
  8
0
370
    20
100
AcDbLine
 10
391.9755634484431
 20
408.4282833079375
 30
0.0
 11
391.9755634484431
 21
433.8282833079371
 31
0.0
  0
LINE
  5
DFF
330
1F
100
AcDbEntity
  8
0
370
    20
100
AcDbLine
 10
390.8410701694852
 20
428.4607833079368
 30
0.0
 11
390.8410701694852
 21
428.4657824555676
 31
0.0
  0
ARC
  5
E00
330
1F
100
AcDbEntity
  8
0
370
    20
100
AcDbCircle
 10
385.3056414392145
 20
432.1295328817519
 30
0.0
 40
6.638074902656199
100
AcDbArc
 50
326.5005032944155
 51
33.49949670558384
  0
LINE
  5
E01
330
1F
100
AcDbEntity
  8
0
370
    20
100
AcDbLine
 10
390.8410701694852
 20
435.7932833079372
 30
0.0
 11
390.8410701694852
 21
435.7932821715736
 31
0.0
  0
LINE
  5
E02
330
1F
100
AcDbEntity
  8
0
370
    20
100
AcDbLine
 10
390.8410701694852
 20
406.4632833079373
 30
0.0
 11
390.8410701694852
 21
406.4632844443009
 31
0.0
  0
ARC
  5
E03
330
1F
100
AcDbEntity
  8
0
370
    20
100
AcDbCircle
 10
385.2974554374364
 20
410.1295338761189
 30
0.0
 40
6.646280854259335
100
AcDbArc
 50
326.5214878683619
 51
33.47851213163881
  0
LINE
  5
E04
330
1F
100
AcDbEntity
  8
0
370
    20
100
AcDbLine
 10
390.8410701694852
 20
413.7957833079368
 30
0.0
 11
390.8410701694852
 21
413.8007835919312
 31
0.0
  0
LINE
  5
E05
330
1F
100
AcDbEntity
  8
0
370
    20
100
AcDbLine
 10
385.9755634484431
 20
413.7957833079368
 30
0.0
 11
390.8410701694852
 21
413.7957833079368
 31
0.0
  0
LINE
  5
E06
330
1F
100
AcDbEntity
  8
0
370
    20
100
AcDbLine
 10
385.9755634484431
 20
413.7957833079368
 30
0.0
 11
385.9755634484431
 21
413.8007835919312
 31
0.0
  0
LINE
  5
E07
330
1F
100
AcDbEntity
  8
0
370
    20
100
AcDbLine
 10
385.9755634484431
 20
428.4657824555676
 30
0.0
 11
390.8410701694852
 21
428.4657824555676
 31
0.0
  0
LINE
  5
E08
330
1F
100
AcDbEntity
  8
0
370
    20
100
AcDbLine
 10
385.9755634484431
 20
428.4607833079368
 30
0.0
 11
385.9755634484431
 21
428.4657824555676
 31
0.0
  0
LINE
  5
E09
330
1F
100
AcDbEntity
  8
0
370
    20
100
AcDbLine
 10
385.9755634484431
 20
406.4632844443009
 30
0.0
 11
390.8410701694852
 21
406.4632844443009
 31
0.0
  0
LINE
  5
E0A
330
1F
100
AcDbEntity
  8
0
370
    20
100
AcDbLine
 10
385.9755634484431
 20
406.4632844443009
 30
0.0
 11
385.9755634484431
 21
407.4310841432639
 31
0.0
  0
LINE
  5
E0B
330
1F
100
AcDbEntity
  8
0
370
    20
100
AcDbLine
 10
385.9755634484431
 20
412.8279836089737
 30
0.0
 11
385.9755634484431
 21
413.7957833079368
 31
0.0
  0
LINE
  5
E0C
330
1F
100
AcDbEntity
  8
0
370
    20
100
AcDbLine
 10
385.9755634484431
 20
435.7932833079372
 30
0.0
 11
390.8410701694852
 21
435.7932833079372
 31
0.0
  0
LINE
  5
E0D
330
1F
100
AcDbEntity
  8
0
370
    20
100
AcDbLine
 10
385.9755634484431
 20
428.4657824555676
 30
0.0
 11
385.9755634484431
 21
429.4329224784929
 31
0.0
  0
LINE
  5
E0E
330
1F
100
AcDbEntity
  8
0
370
    20
100
AcDbLine
 10
385.9755634484431
 20
434.8261432850119
 30
0.0
 11
385.9755634484431
 21
435.7932833079372
 31
0.0
  0
LINE
  5
E0F
330
1F
100
AcDbEntity
  8
0
370
    20
100
AcDbLine
 10
385.9755634484431
 20
406.4632833079373
 30
0.0
 11
390.8410701694852
 21
406.4632833079373
 31
0.0
  0
LINE
  5
E10
330
1F
100
AcDbEntity
  8
0
370
    20
100
AcDbLine
 10
385.9755634484431
 20
406.4632833079373
 30
0.0
 11
385.9755634484431
 21
406.4632844443009
 31
0.0
  0
LINE
  5
E11
330
1F
100
AcDbEntity
  8
0
370
    20
100
AcDbLine
 10
338.9855634484425
 20
437.1282833079373
 30
0.0
 11
360.9655634484429
 21
437.1282833079373
 31
0.0
  0
SPLINE
  5
E12
330
1F
100
AcDbEntity
  8
0
370
    20
100
AcDbSpline
210
0.0
220
0.0
230
1.0
 70
    28
 71
     3
 72
    11
 73
     7
 74
     0
 42
0.0000000001
 43
0.0000000001
 40
0.0
 40
0.0
 40
0.0
 40
0.0
 40
0.2499999999999962
 40
0.4999999999999383
 40
0.7500000000000037
 40
1.0
 40
1.0
 40
1.0
 40
1.0
 10
360.9655634484429
 20
437.1282833079373
 30
0.0
 41
1.0
 10
360.9655634484429
 20
437.1281329922091
 30
0.0
 41
1.0
 10
360.9655634484429
 20
437.1278323607535
 30
0.0
 41
1.0
 10
360.9655634484429
 20
437.1255198686218
 30
0.0
 41
1.0
 10
360.9655634484429
 20
437.1222144192512
 30
0.0
 41
1.0
 10
360.9655634484429
 20
437.1195936783748
 30
0.0
 41
1.0
 10
360.9655634484429
 20
437.118283307937
 30
0.0
 41
1.0
  0
LINE
  5
E13
330
1F
100
AcDbEntity
  8
0
370
    20
100
AcDbLine
 10
360.9655634484429
 20
437.118283307937
 30
0.0
 11
338.9855634484425
 21
437.118283307937
 31
0.0
  0
SPLINE
  5
E14
330
1F
100
AcDbEntity
  8
0
370
    20
100
AcDbSpline
210
0.0
220
0.0
230
1.0
 70
    28
 71
     3
 72
    11
 73
     7
 74
     0
 42
0.0000000001
 43
0.0000000001
 40
0.0
 40
0.0
 40
0.0
 40
0.0
 40
0.2499999999999654
 40
0.5
 40
0.7500000000000348
 40
1.0
 40
1.0
 40
1.0
 40
1.0
 10
338.9855634484425
 20
437.1282833079373
 30
0.0
 41
1.0
 10
338.9855634484425
 20
437.1281329922091
 30
0.0
 41
1.0
 10
338.9855634484425
 20
437.1278323607535
 30
0.0
 41
1.0
 10
338.9855634484425
 20
437.1255198686218
 30
0.0
 41
1.0
 10
338.9855634484425
 20
437.1222144192512
 30
0.0
 41
1.0
 10
338.9855634484425
 20
437.1195936783748
 30
0.0
 41
1.0
 10
338.9855634484425
 20
437.118283307937
 30
0.0
 41
1.0
  0
SPLINE
  5
E15
330
1F
100
AcDbEntity
  8
0
370
    20
100
AcDbSpline
210
0.0
220
0.0
230
1.0
 70
    12
 71
     3
 72
    11
 73
     7
 74
     0
 42
0.0000000001
 43
0.0000000001
 40
0.0
 40
0.0
 40
0.0
 40
0.0
 40
0.2678065798683993
 40
0.5203513370286436
 40
0.7627199674126687
 40
1.0
 40
1.0
 40
1.0
 40
1.0
 10
360.9655634484429
 20
405.1382833079365
 30
0.0
 41
1.0
 10
361.3196571697977
 20
405.155537920859
 30
0.0
 41
1.0
 10
362.0076654384188
 20
405.1890638368692
 30
0.0
 41
1.0
 10
362.9800891898226
 20
405.4758683790201
 30
0.0
 41
1.0
 10
363.8533307150551
 20
405.9100392028055
 30
0.0
 41
1.0
 10
364.3287334351949
 20
406.3314591755257
 30
0.0
 41
1.0
 10
364.5639130189934
 20
406.5399337373861
 30
0.0
 41
1.0
  0
LINE
  5
E16
330
1F
100
AcDbEntity
  8
0
370
    20
100
AcDbLine
 10
338.9855634484425
 20
405.1382833079365
 30
0.0
 11
360.9655634484429
 21
405.1382833079365
 31
0.0
  0
SPLINE
  5
E17
330
1F
100
AcDbEntity
  8
0
370
    20
100
AcDbSpline
210
0.0
220
0.0
230
1.0
 70
    12
 71
     3
 72
    11
 73
     7
 74
     0
 42
0.0000000001
 43
0.0000000001
 40
0.0
 40
0.0
 40
0.0
 40
0.0
 40
0.2372800325873316
 40
0.4796486629713556
 40
0.7321934201315993
 40
1.0
 40
1.0
 40
1.0
 40
1.0
 10
335.3872138778929
 20
406.5399337373861
 30
0.0
 41
1.0
 10
335.6223934616906
 20
406.3314591755257
 30
0.0
 41
1.0
 10
336.0977961818303
 20
405.9100392028055
 30
0.0
 41
1.0
 10
336.9710377070628
 20
405.4758683790201
 30
0.0
 41
1.0
 10
337.9434614584666
 20
405.1890638368692
 30
0.0
 41
1.0
 10
338.6314697270877
 20
405.155537920859
 30
0.0
 41
1.0
 10
338.9855634484425
 20
405.1382833079365
 30
0.0
 41
1.0
  0
SPLINE
  5
E18
330
1F
100
AcDbEntity
  8
0
370
    20
100
AcDbSpline
210
0.0
220
0.0
230
1.0
 70
    12
 71
     3
 72
    11
 73
     7
 74
     0
 42
0.0000000001
 43
0.0000000001
 40
0.0
 40
0.0
 40
0.0
 40
0.0
 40
0.2678065798683998
 40
0.5203513370286438
 40
0.7627199674126675
 40
1.0
 40
1.0
 40
1.0
 40
1.0
 10
333.9855634484425
 20
410.1382833079366
 30
0.0
 41
1.0
 10
334.002818061364
 20
409.7841895865818
 30
0.0
 41
1.0
 10
334.0363439773751
 20
409.0961813179607
 30
0.0
 41
1.0
 10
334.3231485195261
 20
408.1237575665569
 30
0.0
 41
1.0
 10
334.7573193433114
 20
407.2505160413244
 30
0.0
 41
1.0
 10
335.1787393160316
 20
406.7751133211847
 30
0.0
 41
1.0
 10
335.3872138778929
 20
406.5399337373861
 30
0.0
 41
1.0
  0
LINE
  5
E19
330
1F
100
AcDbEntity
  8
0
370
    20
100
AcDbLine
 10
333.9855634484425
 20
432.1182833079371
 30
0.0
 11
333.9855634484425
 21
410.1382833079366
 31
0.0
  0
SPLINE
  5
E1A
330
1F
100
AcDbEntity
  8
0
370
    20
100
AcDbSpline
210
0.0
220
0.0
230
1.0
 70
    12
 71
     3
 72
    11
 73
     7
 74
     0
 42
0.0000000001
 43
0.0000000001
 40
0.0
 40
0.0
 40
0.0
 40
0.0
 40
0.2372800325873323
 40
0.4796486629713556
 40
0.7321934201315993
 40
1.0
 40
1.0
 40
1.0
 40
1.0
 10
335.3872138778929
 20
435.7166328784875
 30
0.0
 41
1.0
 10
335.1787393160316
 20
435.4814532946899
 30
0.0
 41
1.0
 10
334.7573193433114
 20
435.0060505745501
 30
0.0
 41
1.0
 10
334.3231485195261
 20
434.1328090493167
 30
0.0
 41
1.0
 10
334.0363439773751
 20
433.1603852979129
 30
0.0
 41
1.0
 10
334.002818061364
 20
432.4723770292917
 30
0.0
 41
1.0
 10
333.9855634484425
 20
432.1182833079371
 30
0.0
 41
1.0
  0
SPLINE
  5
E1B
330
1F
100
AcDbEntity
  8
0
370
    20
100
AcDbSpline
210
0.0
220
0.0
230
1.0
 70
    12
 71
     3
 72
    11
 73
     7
 74
     0
 42
0.0000000001
 43
0.0000000001
 40
0.0
 40
0.0
 40
0.0
 40
0.0
 40
0.2678065798684006
 40
0.5203513370286443
 40
0.7627199674126685
 40
1.0
 40
1.0
 40
1.0
 40
1.0
 10
338.9855634484425
 20
437.118283307937
 30
0.0
 41
1.0
 10
338.6314697270877
 20
437.1010286950155
 30
0.0
 41
1.0
 10
337.9434614584666
 20
437.0675027790054
 30
0.0
 41
1.0
 10
336.9710377070628
 20
436.7806982368534
 30
0.0
 41
1.0
 10
336.0977961818303
 20
436.3465274130682
 30
0.0
 41
1.0
 10
335.6223934616906
 20
435.9251074403479
 30
0.0
 41
1.0
 10
335.3872138778929
 20
435.7166328784875
 30
0.0
 41
1.0
  0
SPLINE
  5
E1C
330
1F
100
AcDbEntity
  8
0
370
    20
100
AcDbSpline
210
0.0
220
0.0
230
1.0
 70
    12
 71
     3
 72
    11
 73
     7
 74
     0
 42
0.0000000001
 43
0.0000000001
 40
0.0
 40
0.0
 40
0.0
 40
0.0
 40
0.2372800325873321
 40
0.4796486629713557
 40
0.7321934201315993
 40
1.0
 40
1.0
 40
1.0
 40
1.0
 10
364.5639130189934
 20
435.7166328784875
 30
0.0
 41
1.0
 10
364.3287334351949
 20
435.9251074403479
 30
0.0
 41
1.0
 10
363.8533307150551
 20
436.3465274130682
 30
0.0
 41
1.0
 10
362.9800891898226
 20
436.7806982368534
 30
0.0
 41
1.0
 10
362.0076654384188
 20
437.0675027790054
 30
0.0
 41
1.0
 10
361.3196571697977
 20
437.1010286950155
 30
0.0
 41
1.0
 10
360.9655634484429
 20
437.118283307937
 30
0.0
 41
1.0
  0
SPLINE
  5
E1D
330
1F
100
AcDbEntity
  8
0
370
    20
100
AcDbSpline
210
0.0
220
0.0
230
1.0
 70
    12
 71
     3
 72
    11
 73
     7
 74
     0
 42
0.0000000001
 43
0.0000000001
 40
0.0
 40
0.0
 40
0.0
 40
0.0
 40
0.2678065798684006
 40
0.5203513370286443
 40
0.7627199674126685
 40
1.0
 40
1.0
 40
1.0
 40
1.0
 10
365.9655634484429
 20
432.1182833079371
 30
0.0
 41
1.0
 10
365.9483088355214
 20
432.4723770292917
 30
0.0
 41
1.0
 10
365.9147829195112
 20
433.1603852979129
 30
0.0
 41
1.0
 10
365.6279783773594
 20
434.1328090493167
 30
0.0
 41
1.0
 10
365.1938075535741
 20
435.0060505745501
 30
0.0
 41
1.0
 10
364.7723875808538
 20
435.4814532946899
 30
0.0
 41
1.0
 10
364.5639130189934
 20
435.7166328784875
 30
0.0
 41
1.0
  0
LINE
  5
E1E
330
1F
100
AcDbEntity
  8
0
370
    20
100
AcDbLine
 10
365.9655634484429
 20
410.1382833079366
 30
0.0
 11
365.9655634484429
 21
432.1182833079371
 31
0.0
  0
SPLINE
  5
E1F
330
1F
100
AcDbEntity
  8
0
370
    20
100
AcDbSpline
210
0.0
220
0.0
230
1.0
 70
    12
 71
     3
 72
    11
 73
     7
 74
     0
 42
0.0000000001
 43
0.0000000001
 40
0.0
 40
0.0
 40
0.0
 40
0.0
 40
0.2372800325873314
 40
0.4796486629713561
 40
0.7321934201315994
 40
1.0
 40
1.0
 40
1.0
 40
1.0
 10
364.5639130189934
 20
406.5399337373861
 30
0.0
 41
1.0
 10
364.7723875808538
 20
406.7751133211847
 30
0.0
 41
1.0
 10
365.1938075535741
 20
407.2505160413244
 30
0.0
 41
1.0
 10
365.6279783773594
 20
408.1237575665569
 30
0.0
 41
1.0
 10
365.9147829195112
 20
409.0961813179607
 30
0.0
 41
1.0
 10
365.9483088355214
 20
409.7841895865818
 30
0.0
 41
1.0
 10
365.9655634484429
 20
410.1382833079366
 30
0.0
 41
1.0
  0
SPLINE
  5
E20
330
1F
100
AcDbEntity
  8
0
370
    20
100
AcDbSpline
210
0.0
220
0.0
230
1.0
 70
    28
 71
     3
 72
    11
 73
     7
 74
     0
 42
0.0000000001
 43
0.0000000001
 40
0.0
 40
0.0
 40
0.0
 40
0.0
 40
0.2500000000000162
 40
0.5000000000001018
 40
0.7499999999999404
 40
1.0
 40
1.0
 40
1.0
 40
1.0
 10
365.9655634484429
 20
432.1182833079371
 30
0.0
 41
1.0
 10
365.9668738188807
 20
432.1182833079371
 30
0.0
 41
1.0
 10
365.9694945597571
 20
432.1182833079371
 30
0.0
 41
1.0
 10
365.9728000091286
 20
432.1182833079371
 30
0.0
 41
1.0
 10
365.9751125012594
 20
432.1182833079371
 30
0.0
 41
1.0
 10
365.9754131327149
 20
432.1182833079371
 30
0.0
 41
1.0
 10
365.9755634484432
 20
432.1182833079371
 30
0.0
 41
1.0
  0
LINE
  5
E21
330
1F
100
AcDbEntity
  8
0
370
    20
100
AcDbLine
 10
365.9755634484432
 20
432.1182833079371
 30
0.0
 11
365.9755634484432
 21
410.1382833079366
 31
0.0
  0
SPLINE
  5
E22
330
1F
100
AcDbEntity
  8
0
370
    20
100
AcDbSpline
210
0.0
220
0.0
230
1.0
 70
    28
 71
     3
 72
    11
 73
     7
 74
     0
 42
0.0000000001
 43
0.0000000001
 40
0.0
 40
0.0
 40
0.0
 40
0.0
 40
0.2500000000000162
 40
0.5000000000001018
 40
0.7499999999999404
 40
1.0
 40
1.0
 40
1.0
 40
1.0
 10
365.9655634484429
 20
410.1382833079366
 30
0.0
 41
1.0
 10
365.9668738188807
 20
410.1382833079366
 30
0.0
 41
1.0
 10
365.9694945597571
 20
410.1382833079366
 30
0.0
 41
1.0
 10
365.9728000091286
 20
410.1382833079366
 30
0.0
 41
1.0
 10
365.9751125012594
 20
410.1382833079366
 30
0.0
 41
1.0
 10
365.9754131327149
 20
410.1382833079366
 30
0.0
 41
1.0
 10
365.9755634484432
 20
410.1382833079366
 30
0.0
 41
1.0
  0
LINE
  5
E23
330
1F
100
AcDbEntity
  8
0
370
    20
100
AcDbLine
 10
333.9755634484431
 20
410.1382833079366
 30
0.0
 11
333.9755634484431
 21
432.1182833079371
 31
0.0
  0
SPLINE
  5
E24
330
1F
100
AcDbEntity
  8
0
370
    20
100
AcDbSpline
210
0.0
220
0.0
230
1.0
 70
    28
 71
     3
 72
    11
 73
     7
 74
     0
 42
0.0000000001
 43
0.0000000001
 40
0.0
 40
0.0
 40
0.0
 40
0.0
 40
0.2499999999999038
 40
0.5000000000000618
 40
0.7500000000000963
 40
1.0
 40
1.0
 40
1.0
 40
1.0
 10
333.9755634484431
 20
432.1182833079371
 30
0.0
 41
1.0
 10
333.9757137641705
 20
432.1182833079371
 30
0.0
 41
1.0
 10
333.9760143956259
 20
432.1182833079371
 30
0.0
 41
1.0
 10
333.9783268877577
 20
432.1182833079371
 30
0.0
 41
1.0
 10
333.9816323371283
 20
432.1182833079371
 30
0.0
 41
1.0
 10
333.9842530780047
 20
432.1182833079371
 30
0.0
 41
1.0
 10
333.9855634484425
 20
432.1182833079371
 30
0.0
 41
1.0
  0
SPLINE
  5
E25
330
1F
100
AcDbEntity
  8
0
370
    20
100
AcDbSpline
210
0.0
220
0.0
230
1.0
 70
    28
 71
     3
 72
    11
 73
     7
 74
     0
 42
0.0000000001
 43
0.0000000001
 40
0.0
 40
0.0
 40
0.0
 40
0.0
 40
0.2499999999999654
 40
0.5
 40
0.7500000000000348
 40
1.0
 40
1.0
 40
1.0
 40
1.0
 10
333.9755634484431
 20
410.1382833079366
 30
0.0
 41
1.0
 10
333.9757137641705
 20
410.1382833079366
 30
0.0
 41
1.0
 10
333.9760143956259
 20
410.1382833079366
 30
0.0
 41
1.0
 10
333.9783268877577
 20
410.1382833079366
 30
0.0
 41
1.0
 10
333.9816323371283
 20
410.1382833079366
 30
0.0
 41
1.0
 10
333.9842530780047
 20
410.1382833079366
 30
0.0
 41
1.0
 10
333.9855634484425
 20
410.1382833079366
 30
0.0
 41
1.0
  0
SPLINE
  5
E26
330
1F
100
AcDbEntity
  8
0
370
    20
100
AcDbSpline
210
0.0
220
0.0
230
1.0
 70
    28
 71
     3
 72
    11
 73
     7
 74
     0
 42
0.0000000001
 43
0.0000000001
 40
0.0
 40
0.0
 40
0.0
 40
0.0
 40
0.2499999999999654
 40
0.5
 40
0.7500000000000348
 40
1.0
 40
1.0
 40
1.0
 40
1.0
 10
360.9655634484429
 20
405.1382833079365
 30
0.0
 41
1.0
 10
360.9655634484429
 20
405.1369729374988
 30
0.0
 41
1.0
 10
360.9655634484429
 20
405.1343521966224
 30
0.0
 41
1.0
 10
360.9655634484429
 20
405.1310467472518
 30
0.0
 41
1.0
 10
360.9655634484429
 20
405.1287342551209
 30
0.0
 41
1.0
 10
360.9655634484429
 20
405.1284336236646
 30
0.0
 41
1.0
 10
360.9655634484429
 20
405.1282833079373
 30
0.0
 41
1.0
  0
LINE
  5
E27
330
1F
100
AcDbEntity
  8
0
370
    20
100
AcDbLine
 10
360.9655634484429
 20
405.1282833079373
 30
0.0
 11
338.9855634484425
 21
405.1282833079373
 31
0.0
  0
SPLINE
  5
E28
330
1F
100
AcDbEntity
  8
0
370
    20
100
AcDbSpline
210
0.0
220
0.0
230
1.0
 70
    28
 71
     3
 72
    11
 73
     7
 74
     0
 42
0.0000000001
 43
0.0000000001
 40
0.0
 40
0.0
 40
0.0
 40
0.0
 40
0.2499999999999654
 40
0.5
 40
0.7500000000000348
 40
1.0
 40
1.0
 40
1.0
 40
1.0
 10
338.9855634484425
 20
405.1382833079365
 30
0.0
 41
1.0
 10
338.9855634484425
 20
405.1369729374988
 30
0.0
 41
1.0
 10
338.9855634484425
 20
405.1343521966224
 30
0.0
 41
1.0
 10
338.9855634484425
 20
405.1310467472518
 30
0.0
 41
1.0
 10
338.9855634484425
 20
405.1287342551209
 30
0.0
 41
1.0
 10
338.9855634484425
 20
405.1284336236646
 30
0.0
 41
1.0
 10
338.9855634484425
 20
405.1282833079373
 30
0.0
 41
1.0
  0
SPLINE
  5
E29
330
1F
100
AcDbEntity
  8
0
370
    20
100
AcDbSpline
210
0.0
220
0.0
230
1.0
 70
    28
 71
     3
 72
    11
 73
     7
 74
     0
 42
0.0000000001
 43
0.0000000001
 40
0.0
 40
0.0
 40
0.0
 40
0.0
 40
0.2372800325873317
 40
0.4796486629713563
 40
0.7321934201316002
 40
1.0
 40
1.0
 40
1.0
 40
1.0
 10
335.3872138778929
 20
437.1282833079373
 30
0.0
 41
1.0
 10
335.6223934616906
 20
437.1282833079373
 30
0.0
 41
1.0
 10
336.0977961818303
 20
437.1282833079373
 30
0.0
 41
1.0
 10
336.9710377070628
 20
437.1282833079373
 30
0.0
 41
1.0
 10
337.9434614584666
 20
437.1282833079373
 30
0.0
 41
1.0
 10
338.6314697270877
 20
437.1282833079373
 30
0.0
 41
1.0
 10
338.9855634484425
 20
437.1282833079373
 30
0.0
 41
1.0
  0
SPLINE
  5
E2A
330
1F
100
AcDbEntity
  8
0
370
    20
100
AcDbSpline
210
0.0
220
0.0
230
1.0
 70
    28
 71
     3
 72
    11
 73
     7
 74
     0
 42
0.0000000001
 43
0.0000000001
 40
0.0
 40
0.0
 40
0.0
 40
0.0
 40
0.2372800325873317
 40
0.4796486629713563
 40
0.7321934201316002
 40
1.0
 40
1.0
 40
1.0
 40
1.0
 10
365.9755634484432
 20
435.7166328784875
 30
0.0
 41
1.0
 10
365.9755634484432
 20
435.4814532946899
 30
0.0
 41
1.0
 10
365.9755634484432
 20
435.0060505745501
 30
0.0
 41
1.0
 10
365.9755634484432
 20
434.1328090493167
 30
0.0
 41
1.0
 10
365.9755634484432
 20
433.1603852979129
 30
0.0
 41
1.0
 10
365.9755634484432
 20
432.4723770292917
 30
0.0
 41
1.0
 10
365.9755634484432
 20
432.1182833079371
 30
0.0
 41
1.0
  0
SPLINE
  5
E2B
330
1F
100
AcDbEntity
  8
0
370
    20
100
AcDbSpline
210
0.0
220
0.0
230
1.0
 70
    28
 71
     3
 72
    11
 73
     7
 74
     0
 42
0.0000000001
 43
0.0000000001
 40
0.0
 40
0.0
 40
0.0
 40
0.0
 40
0.2372800325873307
 40
0.4796486629713563
 40
0.7321934201316007
 40
1.0
 40
1.0
 40
1.0
 40
1.0
 10
364.5639130189934
 20
405.1282833079373
 30
0.0
 41
1.0
 10
364.3287334351949
 20
405.1282833079373
 30
0.0
 41
1.0
 10
363.8533307150551
 20
405.1282833079373
 30
0.0
 41
1.0
 10
362.9800891898226
 20
405.1282833079373
 30
0.0
 41
1.0
 10
362.0076654384188
 20
405.1282833079373
 30
0.0
 41
1.0
 10
361.3196571697977
 20
405.1282833079373
 30
0.0
 41
1.0
 10
360.9655634484429
 20
405.1282833079373
 30
0.0
 41
1.0
  0
SPLINE
  5
E2C
330
1F
100
AcDbEntity
  8
0
370
    20
100
AcDbSpline
210
0.0
220
0.0
230
1.0
 70
    28
 71
     3
 72
    11
 73
     7
 74
     0
 42
0.0000000001
 43
0.0000000001
 40
0.0
 40
0.0
 40
0.0
 40
0.0
 40
0.2372800325873314
 40
0.4796486629713554
 40
0.7321934201316007
 40
1.0
 40
1.0
 40
1.0
 40
1.0
 10
333.9755634484431
 20
406.5399337373861
 30
0.0
 41
1.0
 10
333.9755634484431
 20
406.7751133211847
 30
0.0
 41
1.0
 10
333.9755634484431
 20
407.2505160413244
 30
0.0
 41
1.0
 10
333.9755634484431
 20
408.1237575665569
 30
0.0
 41
1.0
 10
333.9755634484431
 20
409.0961813179607
 30
0.0
 41
1.0
 10
333.9755634484431
 20
409.7841895865818
 30
0.0
 41
1.0
 10
333.9755634484431
 20
410.1382833079366
 30
0.0
 41
1.0
  0
SPLINE
  5
E2D
330
1F
100
AcDbEntity
  8
0
370
    20
100
AcDbSpline
210
0.0
220
0.0
230
1.0
 70
    28
 71
     3
 72
    11
 73
     7
 74
     0
 42
0.0000000001
 43
0.0000000001
 40
0.0
 40
0.0
 40
0.0
 40
0.0
 40
0.2678065798684008
 40
0.5203513370286446
 40
0.762719967412669
 40
1.0
 40
1.0
 40
1.0
 40
1.0
 10
338.9855634484425
 20
405.1282833079373
 30
0.0
 41
1.0
 10
338.6314697270877
 20
405.1282833079373
 30
0.0
 41
1.0
 10
337.9434614584666
 20
405.1282833079373
 30
0.0
 41
1.0
 10
336.9710377070628
 20
405.1282833079373
 30
0.0
 41
1.0
 10
336.0977961818303
 20
405.1282833079373
 30
0.0
 41
1.0
 10
335.6223934616906
 20
405.1282833079373
 30
0.0
 41
1.0
 10
335.3872138778929
 20
405.1282833079373
 30
0.0
 41
1.0
  0
SPLINE
  5
E2E
330
1F
100
AcDbEntity
  8
0
370
    20
100
AcDbSpline
210
0.0
220
0.0
230
1.0
 70
    28
 71
     3
 72
    11
 73
     7
 74
     0
 42
0.0000000001
 43
0.0000000001
 40
0.0
 40
0.0
 40
0.0
 40
0.0
 40
0.2678065798684007
 40
0.5203513370286445
 40
0.7627199674126696
 40
1.0
 40
1.0
 40
1.0
 40
1.0
 10
360.9655634484429
 20
437.1282833079373
 30
0.0
 41
1.0
 10
361.3196571697977
 20
437.1282833079373
 30
0.0
 41
1.0
 10
362.0076654384188
 20
437.1282833079373
 30
0.0
 41
1.0
 10
362.9800891898226
 20
437.1282833079373
 30
0.0
 41
1.0
 10
363.8533307150551
 20
437.1282833079373
 30
0.0
 41
1.0
 10
364.3287334351949
 20
437.1282833079373
 30
0.0
 41
1.0
 10
364.5639130189934
 20
437.1282833079373
 30
0.0
 41
1.0
  0
SPLINE
  5
E2F
330
1F
100
AcDbEntity
  8
0
370
    20
100
AcDbSpline
210
0.0
220
0.0
230
1.0
 70
    28
 71
     3
 72
    11
 73
     7
 74
     0
 42
0.0000000001
 43
0.0000000001
 40
0.0
 40
0.0
 40
0.0
 40
0.0
 40
0.2678065798684008
 40
0.5203513370286446
 40
0.762719967412669
 40
1.0
 40
1.0
 40
1.0
 40
1.0
 10
365.9755634484432
 20
410.1382833079366
 30
0.0
 41
1.0
 10
365.9755634484432
 20
409.7841895865818
 30
0.0
 41
1.0
 10
365.9755634484432
 20
409.0961813179607
 30
0.0
 41
1.0
 10
365.9755634484432
 20
408.1237575665569
 30
0.0
 41
1.0
 10
365.9755634484432
 20
407.2505160413244
 30
0.0
 41
1.0
 10
365.9755634484432
 20
406.7751133211847
 30
0.0
 41
1.0
 10
365.9755634484432
 20
406.5399337373861
 30
0.0
 41
1.0
  0
SPLINE
  5
E30
330
1F
100
AcDbEntity
  8
0
370
    20
100
AcDbSpline
210
0.0
220
0.0
230
1.0
 70
    28
 71
     3
 72
    11
 73
     7
 74
     0
 42
0.0000000001
 43
0.0000000001
 40
0.0
 40
0.0
 40
0.0
 40
0.0
 40
0.2678065798684008
 40
0.5203513370286446
 40
0.762719967412669
 40
1.0
 40
1.0
 40
1.0
 40
1.0
 10
333.9755634484431
 20
432.1182833079371
 30
0.0
 41
1.0
 10
333.9755634484431
 20
432.4723770292917
 30
0.0
 41
1.0
 10
333.9755634484431
 20
433.1603852979129
 30
0.0
 41
1.0
 10
333.9755634484431
 20
434.1328090493167
 30
0.0
 41
1.0
 10
333.9755634484431
 20
435.0060505745501
 30
0.0
 41
1.0
 10
333.9755634484431
 20
435.4814532946899
 30
0.0
 41
1.0
 10
333.9755634484431
 20
435.7166328784875
 30
0.0
 41
1.0
  0
SPLINE
  5
E31
330
1F
100
AcDbEntity
  8
0
370
    20
100
AcDbSpline
210
0.0
220
0.0
230
1.0
 70
    12
 71
     3
 72
    11
 73
     7
 74
     0
 42
0.0000000001
 43
0.0000000001
 40
0.0
 40
0.0
 40
0.0
 40
0.0
 40
0.2439176399005562
 40
0.486434808449322
 40
0.7347644754698182
 40
0.9999999999999998
 40
0.9999999999999998
 40
0.9999999999999998
 40
0.9999999999999998
 10
334.366099687511
 20
405.5188195470051
 30
0.0
 41
1.0
 10
334.4338724762615
 20
405.4568850361999
 30
0.0
 41
1.0
 10
334.5690289312311
 20
405.3333716162102
 30
0.0
 41
1.0
 10
334.8158170725124
 20
405.202571267802
 30
0.0
 41
1.0
 10
335.0944969298084
 20
405.1360598006027
 30
0.0
 41
1.0
 10
335.2875235056813
 20
405.1309317417004
 30
0.0
 41
1.0
 10
335.3872138778929
 20
405.1282833079373
 30
0.0
 41
1.0
  0
SPLINE
  5
E32
330
1F
100
AcDbEntity
  8
0
370
    20
100
AcDbSpline
210
0.0
220
0.0
230
1.0
 70
    12
 71
     3
 72
    11
 73
     7
 74
     0
 42
0.0000000001
 43
0.0000000001
 40
0.0
 40
0.0
 40
0.0
 40
0.0
 40
0.2652355245301844
 40
0.5135651915506802
 40
0.7560823600994416
 40
1.0
 40
1.0
 40
1.0
 40
1.0
 10
364.5639130189934
 20
437.1282833079373
 30
0.0
 41
1.0
 10
364.6636033912041
 20
437.1256348741741
 30
0.0
 41
1.0
 10
364.8566299670779
 20
437.1205068152709
 30
0.0
 41
1.0
 10
365.1353098243731
 20
437.0539953480726
 30
0.0
 41
1.0
 10
365.3820979656543
 20
436.9231949996644
 30
0.0
 41
1.0
 10
365.5172544206248
 20
436.7996815796738
 30
0.0
 41
1.0
 10
365.5850272093744
 20
436.7377470688685
 30
0.0
 41
1.0
  0
SPLINE
  5
E33
330
1F
100
AcDbEntity
  8
0
370
    20
100
AcDbSpline
210
0.0
220
0.0
230
1.0
 70
    12
 71
     3
 72
    11
 73
     7
 74
     0
 42
0.0000000001
 43
0.0000000001
 40
0.0
 40
0.0
 40
0.0
 40
0.0
 40
0.2439176399005638
 40
0.4864348084493295
 40
0.7347644754698246
 40
1.0
 40
1.0
 40
1.0
 40
1.0
 10
334.366099687511
 20
436.7377470688685
 30
0.0
 41
1.0
 10
334.3041651767058
 20
436.6699742801189
 30
0.0
 41
1.0
 10
334.1806517567161
 20
436.5348178251484
 30
0.0
 41
1.0
 10
334.0498514083078
 20
436.2880296838672
 30
0.0
 41
1.0
 10
333.9833399411086
 20
436.009349826572
 30
0.0
 41
1.0
 10
333.9782118822063
 20
435.8163232506982
 30
0.0
 41
1.0
 10
333.9755634484431
 20
435.7166328784875
 30
0.0
 41
1.0
  0
SPLINE
  5
E34
330
1F
100
AcDbEntity
  8
0
370
    20
100
AcDbSpline
210
0.0
220
0.0
230
1.0
 70
    12
 71
     3
 72
    11
 73
     7
 74
     0
 42
0.0000000001
 43
0.0000000001
 40
0.0
 40
0.0
 40
0.0
 40
0.0
 40
0.2439176399005619
 40
0.4864348084493233
 40
0.734764475469817
 40
1.0
 40
1.0
 40
1.0
 40
1.0
 10
365.5850272093744
 20
436.7377470688685
 30
0.0
 41
1.0
 10
365.6469617201797
 20
436.6699742801189
 30
0.0
 41
1.0
 10
365.7704751401702
 20
436.5348178251484
 30
0.0
 41
1.0
 10
365.9012754885785
 20
436.2880296838672
 30
0.0
 41
1.0
 10
365.9677869557768
 20
436.009349826572
 30
0.0
 41
1.0
 10
365.97291501468
 20
435.8163232506982
 30
0.0
 41
1.0
 10
365.9755634484432
 20
435.7166328784875
 30
0.0
 41
1.0
  0
SPLINE
  5
E35
330
1F
100
AcDbEntity
  8
0
370
    20
100
AcDbSpline
210
0.0
220
0.0
230
1.0
 70
    12
 71
     3
 72
    11
 73
     7
 74
     0
 42
0.0000000001
 43
0.0000000001
 40
0.0
 40
0.0
 40
0.0
 40
0.0
 40
0.2652355245301847
 40
0.5135651915506829
 40
0.7560823600994427
 40
1.0
 40
1.0
 40
1.0
 40
1.0
 10
335.3872138778929
 20
437.1282833079373
 30
0.0
 41
1.0
 10
335.2875235056813
 20
437.1256348741741
 30
0.0
 41
1.0
 10
335.0944969298084
 20
437.1205068152709
 30
0.0
 41
1.0
 10
334.8158170725124
 20
437.0539953480726
 30
0.0
 41
1.0
 10
334.5690289312311
 20
436.9231949996644
 30
0.0
 41
1.0
 10
334.4338724762615
 20
436.7996815796738
 30
0.0
 41
1.0
 10
334.366099687511
 20
436.7377470688685
 30
0.0
 41
1.0
  0
SPLINE
  5
E36
330
1F
100
AcDbEntity
  8
0
370
    20
100
AcDbSpline
210
0.0
220
0.0
230
1.0
 70
    12
 71
     3
 72
    11
 73
     7
 74
     0
 42
0.0000000001
 43
0.0000000001
 40
0.0
 40
0.0
 40
0.0
 40
0.0
 40
0.2439176399005563
 40
0.4864348084493224
 40
0.7347644754698179
 40
1.0
 40
1.0
 40
1.0
 40
1.0
 10
365.5850272093744
 20
405.5188195470051
 30
0.0
 41
1.0
 10
365.6469617201797
 20
405.5865923357556
 30
0.0
 41
1.0
 10
365.7704751401702
 20
405.7217487907252
 30
0.0
 41
1.0
 10
365.9012754885785
 20
405.9685369320065
 30
0.0
 41
1.0
 10
365.9677869557768
 20
406.2472167893025
 30
0.0
 41
1.0
 10
365.97291501468
 20
406.4402433651763
 30
0.0
 41
1.0
 10
365.9755634484432
 20
406.5399337373861
 30
0.0
 41
1.0
  0
SPLINE
  5
E37
330
1F
100
AcDbEntity
  8
0
370
    20
100
AcDbSpline
210
0.0
220
0.0
230
1.0
 70
    12
 71
     3
 72
    11
 73
     7
 74
     0
 42
0.0000000001
 43
0.0000000001
 40
0.0
 40
0.0
 40
0.0
 40
0.0
 40
0.2652355245301812
 40
0.5135651915506804
 40
0.7560823600994332
 40
1.0
 40
1.0
 40
1.0
 40
1.0
 10
364.5639130189934
 20
405.1282833079373
 30
0.0
 41
1.0
 10
364.6636033912041
 20
405.1309317417004
 30
0.0
 41
1.0
 10
364.8566299670779
 20
405.1360598006027
 30
0.0
 41
1.0
 10
365.1353098243731
 20
405.202571267802
 30
0.0
 41
1.0
 10
365.3820979656543
 20
405.3333716162102
 30
0.0
 41
1.0
 10
365.5172544206248
 20
405.4568850361999
 30
0.0
 41
1.0
 10
365.5850272093744
 20
405.5188195470051
 30
0.0
 41
1.0
  0
SPLINE
  5
E38
330
1F
100
AcDbEntity
  8
0
370
    20
100
AcDbSpline
210
0.0
220
0.0
230
1.0
 70
    12
 71
     3
 72
    11
 73
     7
 74
     0
 42
0.0000000001
 43
0.0000000001
 40
0.0
 40
0.0
 40
0.0
 40
0.0
 40
0.2652355245301833
 40
0.5135651915506818
 40
0.7560823600994365
 40
1.0
 40
1.0
 40
1.0
 40
1.0
 10
333.9755634484431
 20
406.5399337373861
 30
0.0
 41
1.0
 10
333.9782118822063
 20
406.4402433651763
 30
0.0
 41
1.0
 10
333.9833399411086
 20
406.2472167893025
 30
0.0
 41
1.0
 10
334.0498514083078
 20
405.9685369320065
 30
0.0
 41
1.0
 10
334.1806517567161
 20
405.7217487907252
 30
0.0
 41
1.0
 10
334.3041651767058
 20
405.5865923357556
 30
0.0
 41
1.0
 10
334.366099687511
 20
405.5188195470051
 30
0.0
 41
1.0
  0
LINE
  5
E3B
330
1F
100
AcDbEntity
  8
0
370
    20
100
AcDbLine
 10
382.9755634484432
 20
421.1282833079373
 30
0.0
 11
382.9755634484432
 21
406.328283307937
 31
0.0
  0
LINE
  5
E3C
330
1F
100
AcDbEntity
  8
0
370
    20
100
AcDbLine
 10
382.9755634484432
 20
435.9282833079374
 30
0.0
 11
382.9755634484432
 21
421.1282833079373
 31
0.0
  0
SPLINE
  5
E3D
330
1F
100
AcDbEntity
  8
0
370
    20
100
AcDbSpline
210
0.0
220
0.0
230
1.0
 70
    12
 71
     3
 72
    11
 73
     7
 74
     0
 42
0.0000000001
 43
0.0000000001
 40
0.0
 40
0.0
 40
0.0
 40
0.0
 40
0.2499999999999654
 40
0.5
 40
0.7500000000000348
 40
1.0
 40
1.0
 40
1.0
 40
1.0
 10
333.9855634484425
 20
405.1282833079373
 30
0.0
 41
1.0
 10
333.9842530780047
 20
405.1284336236646
 30
0.0
 41
1.0
 10
333.9816323371283
 20
405.1287342551209
 30
0.0
 41
1.0
 10
333.9783268877577
 20
405.1310467472518
 30
0.0
 41
1.0
 10
333.9760143956259
 20
405.1343521966224
 30
0.0
 41
1.0
 10
333.9757137641705
 20
405.1369729374988
 30
0.0
 41
1.0
 10
333.9755634484431
 20
405.1382833079365
 30
0.0
 41
1.0
  0
SPLINE
  5
E3E
330
1F
100
AcDbEntity
  8
0
370
    20
100
AcDbSpline
210
0.0
220
0.0
230
1.0
 70
    28
 71
     3
 72
    11
 73
     7
 74
     0
 42
0.0000000001
 43
0.0000000001
 40
0.0
 40
0.0
 40
0.0
 40
0.0
 40
0.2372800325873324
 40
0.4796486629713565
 40
0.7321934201316003
 40
1.0
 40
1.0
 40
1.0
 40
1.0
 10
335.3872138778929
 20
405.1282833079373
 30
0.0
 41
1.0
 10
335.1787393160316
 20
405.1282833079373
 30
0.0
 41
1.0
 10
334.7573193433114
 20
405.1282833079373
 30
0.0
 41
1.0
 10
334.3231485195261
 20
405.1282833079373
 30
0.0
 41
1.0
 10
334.0363439773751
 20
405.1282833079373
 30
0.0
 41
1.0
 10
334.002818061364
 20
405.1282833079373
 30
0.0
 41
1.0
 10
333.9855634484425
 20
405.1282833079373
 30
0.0
 41
1.0
  0
SPLINE
  5
E3F
330
1F
100
AcDbEntity
  8
0
370
    20
100
AcDbSpline
210
0.0
220
0.0
230
1.0
 70
    28
 71
     3
 72
    11
 73
     7
 74
     0
 42
0.0000000001
 43
0.0000000001
 40
0.0
 40
0.0
 40
0.0
 40
0.0
 40
0.2678065798684006
 40
0.5203513370286443
 40
0.7627199674126678
 40
1.0
 40
1.0
 40
1.0
 40
1.0
 10
333.9755634484431
 20
405.1382833079365
 30
0.0
 41
1.0
 10
333.9755634484431
 20
405.155537920859
 30
0.0
 41
1.0
 10
333.9755634484431
 20
405.1890638368692
 30
0.0
 41
1.0
 10
333.9755634484431
 20
405.4758683790201
 30
0.0
 41
1.0
 10
333.9755634484431
 20
405.9100392028055
 30
0.0
 41
1.0
 10
333.9755634484431
 20
406.3314591755257
 30
0.0
 41
1.0
 10
333.9755634484431
 20
406.5399337373861
 30
0.0
 41
1.0
  0
SPLINE
  5
E40
330
1F
100
AcDbEntity
  8
0
370
    20
100
AcDbSpline
210
0.0
220
0.0
230
1.0
 70
    12
 71
     3
 72
    11
 73
     7
 74
     0
 42
0.0000000001
 43
0.0000000001
 40
0.0
 40
0.0
 40
0.0
 40
0.0
 40
0.2499999999999636
 40
0.50000000000004
 40
0.7499999999999928
 40
1.0
 40
1.0
 40
1.0
 40
1.0
 10
365.9755634484432
 20
405.1382833079365
 30
0.0
 41
1.0
 10
365.9754131327149
 20
405.1369729374988
 30
0.0
 41
1.0
 10
365.9751125012594
 20
405.1343521966224
 30
0.0
 41
1.0
 10
365.9728000091286
 20
405.1310467472518
 30
0.0
 41
1.0
 10
365.9694945597571
 20
405.1287342551209
 30
0.0
 41
1.0
 10
365.9668738188807
 20
405.1284336236646
 30
0.0
 41
1.0
 10
365.9655634484429
 20
405.1282833079373
 30
0.0
 41
1.0
  0
SPLINE
  5
E41
330
1F
100
AcDbEntity
  8
0
370
    20
100
AcDbSpline
210
0.0
220
0.0
230
1.0
 70
    28
 71
     3
 72
    11
 73
     7
 74
     0
 42
0.0000000001
 43
0.0000000001
 40
0.0
 40
0.0
 40
0.0
 40
0.0
 40
0.2678065798684006
 40
0.5203513370286443
 40
0.7627199674126678
 40
1.0
 40
1.0
 40
1.0
 40
1.0
 10
365.9655634484429
 20
405.1282833079373
 30
0.0
 41
1.0
 10
365.9483088355214
 20
405.1282833079373
 30
0.0
 41
1.0
 10
365.9147829195112
 20
405.1282833079373
 30
0.0
 41
1.0
 10
365.6279783773594
 20
405.1282833079373
 30
0.0
 41
1.0
 10
365.1938075535741
 20
405.1282833079373
 30
0.0
 41
1.0
 10
364.7723875808538
 20
405.1282833079373
 30
0.0
 41
1.0
 10
364.5639130189934
 20
405.1282833079373
 30
0.0
 41
1.0
  0
SPLINE
  5
E42
330
1F
100
AcDbEntity
  8
0
370
    20
100
AcDbSpline
210
0.0
220
0.0
230
1.0
 70
    28
 71
     3
 72
    11
 73
     7
 74
     0
 42
0.0000000001
 43
0.0000000001
 40
0.0
 40
0.0
 40
0.0
 40
0.0
 40
0.2372800325873322
 40
0.4796486629713565
 40
0.7321934201316002
 40
1.0
 40
1.0
 40
1.0
 40
1.0
 10
365.9755634484432
 20
406.5399337373861
 30
0.0
 41
1.0
 10
365.9755634484432
 20
406.3314591755257
 30
0.0
 41
1.0
 10
365.9755634484432
 20
405.9100392028055
 30
0.0
 41
1.0
 10
365.9755634484432
 20
405.4758683790201
 30
0.0
 41
1.0
 10
365.9755634484432
 20
405.1890638368692
 30
0.0
 41
1.0
 10
365.9755634484432
 20
405.155537920859
 30
0.0
 41
1.0
 10
365.9755634484432
 20
405.1382833079365
 30
0.0
 41
1.0
  0
SPLINE
  5
E43
330
1F
100
AcDbEntity
  8
0
370
    20
100
AcDbSpline
210
0.0
220
0.0
230
1.0
 70
    12
 71
     3
 72
    11
 73
     7
 74
     0
 42
0.0000000001
 43
0.0000000001
 40
0.0
 40
0.0
 40
0.0
 40
0.0
 40
0.2499999999999654
 40
0.5
 40
0.7500000000000348
 40
1.0
 40
1.0
 40
1.0
 40
1.0
 10
333.9755634484431
 20
437.118283307937
 30
0.0
 41
1.0
 10
333.9757137641705
 20
437.1195936783748
 30
0.0
 41
1.0
 10
333.9760143956259
 20
437.1222144192512
 30
0.0
 41
1.0
 10
333.9783268877577
 20
437.1255198686218
 30
0.0
 41
1.0
 10
333.9816323371283
 20
437.1278323607535
 30
0.0
 41
1.0
 10
333.9842530780047
 20
437.1281329922091
 30
0.0
 41
1.0
 10
333.9855634484425
 20
437.1282833079373
 30
0.0
 41
1.0
  0
SPLINE
  5
E44
330
1F
100
AcDbEntity
  8
0
370
    20
100
AcDbSpline
210
0.0
220
0.0
230
1.0
 70
    28
 71
     3
 72
    11
 73
     7
 74
     0
 42
0.0000000001
 43
0.0000000001
 40
0.0
 40
0.0
 40
0.0
 40
0.0
 40
0.2678065798684007
 40
0.5203513370286445
 40
0.7627199674126678
 40
1.0
 40
1.0
 40
1.0
 40
1.0
 10
333.9855634484425
 20
437.1282833079373
 30
0.0
 41
1.0
 10
334.002818061364
 20
437.1282833079373
 30
0.0
 41
1.0
 10
334.0363439773751
 20
437.1282833079373
 30
0.0
 41
1.0
 10
334.3231485195261
 20
437.1282833079373
 30
0.0
 41
1.0
 10
334.7573193433114
 20
437.1282833079373
 30
0.0
 41
1.0
 10
335.1787393160316
 20
437.1282833079373
 30
0.0
 41
1.0
 10
335.3872138778929
 20
437.1282833079373
 30
0.0
 41
1.0
  0
SPLINE
  5
E45
330
1F
100
AcDbEntity
  8
0
370
    20
100
AcDbSpline
210
0.0
220
0.0
230
1.0
 70
    28
 71
     3
 72
    11
 73
     7
 74
     0
 42
0.0000000001
 43
0.0000000001
 40
0.0
 40
0.0
 40
0.0
 40
0.0
 40
0.2372800325873321
 40
0.4796486629713564
 40
0.7321934201316003
 40
1.0
 40
1.0
 40
1.0
 40
1.0
 10
333.9755634484431
 20
435.7166328784875
 30
0.0
 41
1.0
 10
333.9755634484431
 20
435.9251074403479
 30
0.0
 41
1.0
 10
333.9755634484431
 20
436.3465274130682
 30
0.0
 41
1.0
 10
333.9755634484431
 20
436.7806982368534
 30
0.0
 41
1.0
 10
333.9755634484431
 20
437.0675027790054
 30
0.0
 41
1.0
 10
333.9755634484431
 20
437.1010286950155
 30
0.0
 41
1.0
 10
333.9755634484431
 20
437.118283307937
 30
0.0
 41
1.0
  0
SPLINE
  5
E46
330
1F
100
AcDbEntity
  8
0
370
    20
100
AcDbSpline
210
0.0
220
0.0
230
1.0
 70
    12
 71
     3
 72
    11
 73
     7
 74
     0
 42
0.0000000001
 43
0.0000000001
 40
0.0
 40
0.0
 40
0.0
 40
0.0
 40
0.2500000000000162
 40
0.5000000000001018
 40
0.7499999999999404
 40
1.0
 40
1.0
 40
1.0
 40
1.0
 10
365.9655634484429
 20
437.1282833079373
 30
0.0
 41
1.0
 10
365.9668738188807
 20
437.1281329922091
 30
0.0
 41
1.0
 10
365.9694945597571
 20
437.1278323607535
 30
0.0
 41
1.0
 10
365.9728000091286
 20
437.1255198686218
 30
0.0
 41
1.0
 10
365.9751125012594
 20
437.1222144192512
 30
0.0
 41
1.0
 10
365.9754131327149
 20
437.1195936783748
 30
0.0
 41
1.0
 10
365.9755634484432
 20
437.118283307937
 30
0.0
 41
1.0
  0
SPLINE
  5
E47
330
1F
100
AcDbEntity
  8
0
370
    20
100
AcDbSpline
210
0.0
220
0.0
230
1.0
 70
    28
 71
     3
 72
    11
 73
     7
 74
     0
 42
0.0000000001
 43
0.0000000001
 40
0.0
 40
0.0
 40
0.0
 40
0.0
 40
0.2678065798684007
 40
0.5203513370286445
 40
0.7627199674126679
 40
1.0
 40
1.0
 40
1.0
 40
1.0
 10
365.9755634484432
 20
437.118283307937
 30
0.0
 41
1.0
 10
365.9755634484432
 20
437.1010286950155
 30
0.0
 41
1.0
 10
365.9755634484432
 20
437.0675027790054
 30
0.0
 41
1.0
 10
365.9755634484432
 20
436.7806982368534
 30
0.0
 41
1.0
 10
365.9755634484432
 20
436.3465274130682
 30
0.0
 41
1.0
 10
365.9755634484432
 20
435.9251074403479
 30
0.0
 41
1.0
 10
365.9755634484432
 20
435.7166328784875
 30
0.0
 41
1.0
  0
SPLINE
  5
E48
330
1F
100
AcDbEntity
  8
0
370
    20
100
AcDbSpline
210
0.0
220
0.0
230
1.0
 70
    28
 71
     3
 72
    11
 73
     7
 74
     0
 42
0.0000000001
 43
0.0000000001
 40
0.0
 40
0.0
 40
0.0
 40
0.0
 40
0.2372800325873322
 40
0.4796486629713565
 40
0.7321934201316002
 40
1.0
 40
1.0
 40
1.0
 40
1.0
 10
364.5639130189934
 20
437.1282833079373
 30
0.0
 41
1.0
 10
364.7723875808538
 20
437.1282833079373
 30
0.0
 41
1.0
 10
365.1938075535741
 20
437.1282833079373
 30
0.0
 41
1.0
 10
365.6279783773594
 20
437.1282833079373
 30
0.0
 41
1.0
 10
365.9147829195112
 20
437.1282833079373
 30
0.0
 41
1.0
 10
365.9483088355214
 20
437.1282833079373
 30
0.0
 41
1.0
 10
365.9655634484429
 20
437.1282833079373
 30
0.0
 41
1.0
  0
LINE
  5
E49
330
1F
100
AcDbEntity
  8
0
370
    20
100
AcDbLine
 10
336.175563448443
 20
466.2282833079367
 30
0.0
 11
363.7755634484433
 21
466.2282833079367
 31
0.0
  0
LINE
  5
E4D
330
1F
100
AcDbEntity
  8
0
370
    20
100
AcDbLine
 10
337.2212640686817
 20
465.1282833079372
 30
0.0
 11
336.175563448443
 21
465.1282833079372
 31
0.0
  0
LINE
  5
E4E
330
1F
100
AcDbEntity
  8
0
370
    20
100
AcDbLine
 10
363.7755634484433
 20
465.1282833079372
 30
0.0
 11
337.2212640686817
 21
465.1282833079372
 31
0.0
  0
LINE
  5
E50
330
1F
100
AcDbEntity
  8
0
370
    20
100
AcDbLine
 10
343.175563448443
 20
468.1282833079372
 30
0.0
 11
356.7755634484433
 21
468.1282833079372
 31
0.0
  0
LINE
  5
E51
330
1F
100
AcDbEntity
  8
0
370
    20
100
AcDbLine
 10
356.3255634484426
 20
389.5282833079369
 30
0.0
 11
356.3255634484426
 21
388.1282833079373
 31
0.0
  0
LINE
  5
E52
330
1F
100
AcDbEntity
  8
0
370
    20
100
AcDbLine
 10
356.5306097450998
 20
389.7282833079367
 30
0.0
 11
356.3255634484426
 21
389.5282833079369
 31
0.0
  0
LINE
  5
E53
330
1F
100
AcDbEntity
  8
0
370
    20
100
AcDbLine
 10
356.5306097450998
 20
389.7282833079367
 30
0.0
 11
362.4705171517858
 21
389.7282833079367
 31
0.0
  0
LINE
  5
E54
330
1F
100
AcDbEntity
  8
0
370
    20
100
AcDbLine
 10
362.675563448443
 20
389.5282833079369
 30
0.0
 11
362.4705171517858
 21
389.7282833079367
 31
0.0
  0
LINE
  5
E55
330
1F
100
AcDbEntity
  8
0
370
    20
100
AcDbLine
 10
362.675563448443
 20
389.5282833079369
 30
0.0
 11
362.675563448443
 21
388.1282833079373
 31
0.0
  0
LWPOLYLINE
  5
E56
330
1F
100
AcDbEntity
  8
0
370
    20
100
AcDbPolyline
 90
        3
 70
   128
 43
0.0
 10
362.4705171517858
 20
387.9282833079375
 10
362.5732855871634
 20
388.027250938943
 10
362.675563448443
 20
388.1282833079373
  0
LINE
  5
E57
330
1F
100
AcDbEntity
  8
0
370
    20
100
AcDbLine
 10
356.5306097450998
 20
387.9282833079375
 30
0.0
 11
357.363246204794
 21
387.9282833079375
 31
0.0
  0
LINE
  5
E58
330
1F
100
AcDbEntity
  8
0
370
    20
100
AcDbLine
 10
361.6378806920925
 20
387.9282833079375
 30
0.0
 11
362.4705171517858
 21
387.9282833079375
 31
0.0
  0
LINE
  5
E59
330
1F
100
AcDbEntity
  8
0
370
    20
100
AcDbLine
 10
356.3255634484426
 20
388.1282833079373
 30
0.0
 11
356.5306097450998
 21
387.9282833079375
 31
0.0
  0
LINE
  5
E5A
330
1F
100
AcDbEntity
  8
0
370
    20
100
AcDbLine
 10
343.6255634484428
 20
389.5282833079369
 30
0.0
 11
343.6255634484428
 21
388.1282833079373
 31
0.0
  0
LINE
  5
E5B
330
1F
100
AcDbEntity
  8
0
370
    20
100
AcDbLine
 10
344.0356560417572
 20
389.7282833079367
 30
0.0
 11
343.6255634484428
 21
389.5282833079369
 31
0.0
  0
LINE
  5
E5C
330
1F
100
AcDbEntity
  8
0
370
    20
100
AcDbLine
 10
356.3255634484426
 20
389.5282833079369
 30
0.0
 11
355.9154708551282
 21
389.7282833079367
 31
0.0
  0
LINE
  5
E5D
330
1F
100
AcDbEntity
  8
0
370
    20
100
AcDbLine
 10
355.9154708551282
 20
387.9282833079375
 30
0.0
 11
356.3255634484426
 21
388.1282833079373
 31
0.0
  0
LINE
  5
E5E
330
1F
100
AcDbEntity
  8
0
370
    20
100
AcDbLine
 10
343.6255634484428
 20
388.1282833079373
 30
0.0
 11
344.0356560417572
 21
387.9282833079375
 31
0.0
  0
LINE
  5
E5F
330
1F
100
AcDbEntity
  8
0
370
    20
100
AcDbLine
 10
344.0356560417572
 20
387.9282833079375
 30
0.0
 11
345.7009289611447
 21
387.9282833079375
 31
0.0
  0
LINE
  5
E60
330
1F
100
AcDbEntity
  8
0
370
    20
100
AcDbLine
 10
354.2501979357417
 20
387.9282833079375
 30
0.0
 11
355.9154708551282
 21
387.9282833079375
 31
0.0
  0
LINE
  5
E61
330
1F
100
AcDbEntity
  8
0
370
    20
100
AcDbLine
 10
344.0356560417572
 20
389.7282833079367
 30
0.0
 11
355.9154708551282
 21
389.7282833079367
 31
0.0
  0
LINE
  5
E62
330
1F
100
AcDbEntity
  8
0
370
    20
100
AcDbLine
 10
356.5306097450998
 20
387.9282833079375
 30
0.0
 11
355.9154708551282
 21
387.9282833079375
 31
0.0
  0
LINE
  5
E63
330
1F
100
AcDbEntity
  8
0
370
    20
100
AcDbLine
 10
355.9154708551282
 20
389.7282833079367
 30
0.0
 11
356.5306097450998
 21
389.7282833079367
 31
0.0
  0
LINE
  5
E64
330
1F
100
AcDbEntity
  8
0
370
    20
100
AcDbLine
 10
343.4205171517856
 20
387.9282833079375
 30
0.0
 11
343.6255634484428
 21
388.1282833079373
 31
0.0
  0
LINE
  5
E65
330
1F
100
AcDbEntity
  8
0
370
    20
100
AcDbLine
 10
344.0356560417572
 20
387.9282833079375
 30
0.0
 11
343.4205171517856
 21
387.9282833079375
 31
0.0
  0
LINE
  5
E66
330
1F
100
AcDbEntity
  8
0
370
    20
100
AcDbLine
 10
343.6255634484428
 20
389.5282833079369
 30
0.0
 11
343.4205171517856
 21
389.7282833079367
 31
0.0
  0
LINE
  5
E67
330
1F
100
AcDbEntity
  8
0
370
    20
100
AcDbLine
 10
343.4205171517856
 20
389.7282833079367
 30
0.0
 11
344.0356560417572
 21
389.7282833079367
 31
0.0
  0
LINE
  5
E68
330
1F
100
AcDbEntity
  8
0
370
    20
100
AcDbLine
 10
337.2755634484434
 20
389.5282833079369
 30
0.0
 11
337.2755634484434
 21
388.1282833079373
 31
0.0
  0
LINE
  5
E69
330
1F
100
AcDbEntity
  8
0
370
    20
100
AcDbLine
 10
337.4806097450996
 20
389.7282833079367
 30
0.0
 11
337.2755634484434
 21
389.5282833079369
 31
0.0
  0
LWPOLYLINE
  5
E6A
330
1F
100
AcDbEntity
  8
0
370
    20
100
AcDbPolyline
 90
        3
 70
   128
 43
0.0
 10
337.2755634484434
 20
388.1282833079373
 10
337.3778310152197
 20
388.0272609817299
 10
337.4806097450996
 20
387.9282833079375
  0
LINE
  5
E6B
330
1F
100
AcDbEntity
  8
0
370
    20
100
AcDbLine
 10
337.4806097450996
 20
387.9282833079375
 30
0.0
 11
338.3132462047938
 21
387.9282833079375
 31
0.0
  0
LINE
  5
E6C
330
1F
100
AcDbEntity
  8
0
370
    20
100
AcDbLine
 10
342.5878806920914
 20
387.9282833079375
 30
0.0
 11
343.4205171517856
 21
387.9282833079375
 31
0.0
  0
LINE
  5
E6D
330
1F
100
AcDbEntity
  8
0
370
    20
100
AcDbLine
 10
337.4806097450996
 20
389.7282833079367
 30
0.0
 11
343.4205171517856
 21
389.7282833079367
 31
0.0
  0
LINE
  5
E6E
330
1F
100
AcDbEntity
  8
0
370
    20
100
AcDbLine
 10
342.4237508138408
 20
377.0050959425386
 30
0.0
 11
357.5273760830446
 21
377.0050959425386
 31
0.0
  0
LINE
  5
E6F
330
1F
100
AcDbEntity
  8
0
370
    20
100
AcDbLine
 10
349.9755634484432
 20
375.9282833079375
 30
0.0
 11
343.5005634484428
 21
375.9282833079375
 31
0.0
  0
LINE
  5
E70
330
1F
100
AcDbEntity
  8
0
370
    20
100
AcDbLine
 10
356.4505634484426
 20
375.9282833079375
 30
0.0
 11
349.9755634484432
 21
375.9282833079375
 31
0.0
  0
LINE
  5
E71
330
1F
100
AcDbEntity
  8
0
370
    20
100
AcDbLine
 10
362.4705171517858
 20
389.7282833079367
 30
0.0
 11
362.4755634484432
 21
389.7282833079367
 31
0.0
  0
LINE
  5
E72
330
1F
100
AcDbEntity
  8
0
370
    20
100
AcDbLine
 10
362.4755634484432
 20
387.9282833079375
 30
0.0
 11
362.4705171517858
 21
387.9282833079375
 31
0.0
  0
LINE
  5
E73
330
1F
100
AcDbEntity
  8
0
370
    20
100
AcDbLine
 10
337.4755634484432
 20
389.7282833079367
 30
0.0
 11
337.4806097450996
 21
389.7282833079367
 31
0.0
  0
LINE
  5
E74
330
1F
100
AcDbEntity
  8
0
370
    20
100
AcDbLine
 10
337.4806097450996
 20
387.9282833079375
 30
0.0
 11
337.4755634484432
 21
387.9282833079375
 31
0.0
  0
LINE
  5
E77
330
1F
100
AcDbEntity
  8
0
370
    20
100
AcDbLine
 10
335.8349271795773
 20
390.9282833079375
 30
0.0
 11
334.675563448443
 21
390.9282833079375
 31
0.0
  0
LINE
  5
E78
330
1F
100
AcDbEntity
  8
0
370
    20
100
AcDbLine
 10
365.2755634484433
 20
390.9282833079375
 30
0.0
 11
335.8349271795773
 21
390.9282833079375
 31
0.0
  0
LINE
  5
E7C
330
1F
100
AcDbEntity
  8
0
370
    20
100
AcDbLine
 10
339.9939378468912
 20
389.9282833079375
 30
0.0
 11
339.175563448443
 21
389.9282833079375
 31
0.0
  0
LINE
  5
E7D
330
1F
100
AcDbEntity
  8
0
370
    20
100
AcDbLine
 10
360.7755634484433
 20
389.9282833079375
 30
0.0
 11
339.9939378468912
 21
389.9282833079375
 31
0.0
  0
ARC
  5
E7E
330
1F
100
AcDbEntity
  8
0
370
    20
100
AcDbCircle
 10
349.4963303031359
 20
466.8662055560331
 30
0.0
 40
29.74667787999207
100
AcDbArc
 50
271.3901856311569
 51
286.7208723276913
  0
ARC
  5
E7F
330
1F
100
AcDbEntity
  8
0
370
    20
100
AcDbCircle
 10
362.421110753286
 20
445.3050771029499
 30
0.0
 40
8.188992367622056
100
AcDbArc
 50
237.7779946336064
 51
266.872258654109
  0
LINE
  5
E80
330
1F
100
AcDbEntity
  8
0
370
    20
100
AcDbLine
 10
358.054729943306
 20
443.6792824240334
 30
0.0
 11
358.054729943306
 21
438.3772841918413
 31
0.0
  0
ARC
  5
E81
330
1F
100
AcDbEntity
  8
0
370
    20
100
AcDbCircle
 10
350.3437058649211
 20
466.2005494370902
 30
0.0
 40
29.07878282323967
100
AcDbArc
 50
253.1019713559439
 51
268.7869706852111
  0
LINE
  5
E82
330
1F
100
AcDbEntity
  8
0
370
    20
100
AcDbLine
 10
341.8913972114447
 20
438.3772841918413
 30
0.0
 11
341.8913972114447
 21
443.6792824240334
 31
0.0
  0
ARC
  5
E83
330
1F
100
AcDbEntity
  8
0
370
    20
100
AcDbCircle
 10
350.4497968516157
 20
415.1903610598388
 30
0.0
 40
29.74667787999369
100
AcDbArc
 50
91.39018563115698
 51
106.7208723276915
  0
SPLINE
  5
E84
330
1F
100
AcDbEntity
  8
0
370
    20
100
AcDbSpline
210
0.0
220
0.0
230
1.0
 70
    28
 71
     1
 72
     4
 73
     2
 74
     0
 42
0.0000000001
 43
0.0000000001
 40
0.0
 40
0.0
 40
1.0
 40
1.0
 10
350.2180125477476
 20
444.9282833079374
 30
0.0
 41
1.0
 10
349.7281146070031
 20
444.9282833079374
 30
0.0
 41
1.0
  0
ARC
  5
E85
330
1F
100
AcDbEntity
  8
0
370
    20
100
AcDbCircle
 10
349.6024212898297
 20
415.8560171787818
 30
0.0
 40
29.07878282324137
100
AcDbArc
 50
73.10197135594385
 51
88.786970685185
  0
ARC
  5
E86
330
1F
100
AcDbEntity
  8
0
370
    20
100
AcDbCircle
 10
337.5274876101753
 20
436.7601093132194
 30
0.0
 40
8.180382848342709
100
AcDbArc
 50
57.76044617686272
 51
86.86929398620636
  0
LINE
  5
E87
330
1F
100
AcDbEntity
  8
0
370
    20
100
AcDbLine
 10
349.7281146070031
 20
444.9282833079374
 30
0.0
 11
337.9742505646332
 21
444.9282833079374
 31
0.0
  0
ARC
  5
E88
330
1F
100
AcDbEntity
  8
0
370
    20
100
AcDbCircle
 10
362.5139362705791
 20
436.4601877316332
 30
0.0
 40
8.485272491030057
100
AcDbArc
 50
93.646284934826
 51
121.7034617774528
  0
LINE
  5
E89
330
1F
100
AcDbEntity
  8
0
370
    20
100
AcDbLine
 10
361.974300692053
 20
444.9282833079374
 30
0.0
 11
350.2180125477476
 21
444.9282833079374
 31
0.0
  0
ARC
  5
E8A
330
1F
100
AcDbEntity
  8
0
370
    20
100
AcDbCircle
 10
337.4346538886989
 20
445.5876046552945
 30
0.0
 40
8.47651356576118
100
AcDbArc
 50
273.649794314614
 51
301.7204655223074
  0
SPLINE
  5
E8B
330
1F
100
AcDbEntity
  8
0
370
    20
100
AcDbSpline
210
0.0
220
0.0
230
1.0
 70
    28
 71
     1
 72
     4
 73
     2
 74
     0
 42
0.0000000001
 43
0.0000000001
 40
0.0
 40
0.0
 40
1.0
 40
1.0
 10
337.9742505646332
 20
444.9282833079374
 30
0.0
 41
1.0
 10
337.7293773633933
 20
444.9282833079374
 30
0.0
 41
1.0
  0
LINE
  5
E8C
330
1F
100
AcDbEntity
  8
0
370
    20
100
AcDbLine
 10
337.7293773633933
 20
444.9282833079374
 30
0.0
 11
335.9755634484431
 21
444.9282833079374
 31
0.0
  0
LINE
  5
E8D
330
1F
100
AcDbEntity
  8
0
370
    20
100
AcDbLine
 10
363.9755634484432
 20
444.9282833079374
 30
0.0
 11
362.2193254315566
 21
444.9282833079374
 31
0.0
  0
SPLINE
  5
E8E
330
1F
100
AcDbEntity
  8
0
370
    20
100
AcDbSpline
210
0.0
220
0.0
230
1.0
 70
    28
 71
     1
 72
     4
 73
     2
 74
     0
 42
0.0000000001
 43
0.0000000001
 40
0.0
 40
0.0
 40
1.0
 40
1.0
 10
362.2193254315566
 20
444.9282833079374
 30
0.0
 41
1.0
 10
361.974300692053
 20
444.9282833079374
 30
0.0
 41
1.0
  0
LWPOLYLINE
  5
E8F
330
1F
100
AcDbEntity
  8
0
370
    20
100
AcDbPolyline
 90
       11
 70
   128
 43
0.0
 10
363.9748317202862
 20
445.3397713466525
 10
363.9751822289522
 20
445.3342329740086
 10
363.970050372624
 20
445.4185523210777
 10
363.9610009954017
 20
445.5938832922662
 10
363.9519715746815
 20
445.841005486233
 10
363.9469372998615
 20
446.1319126895029
 10
363.948107640163
 20
446.4332008268817
 10
363.9549472013109
 20
446.7111602176552
 10
363.964475172394
 20
446.9351434217429
 10
363.9725274995212
 20
447.0797541807129
 10
363.9754930262447
 20
447.1271583061321
  0
LINE
  5
E91
330
1F
100
AcDbEntity
  8
0
370
    20
100
AcDbLine
 10
336.175563448443
 20
465.1282833079372
 30
0.0
 11
363.7755634484433
 21
465.1282833079372
 31
0.0
  0
ARC
  5
E92
330
1F
100
AcDbEntity
  8
0
370
    20
100
AcDbCircle
 10
361.7725153703236
 20
436.7514895129248
 30
0.0
 40
8.188992367621871
100
AcDbArc
 50
57.77799463360635
 51
86.87225865410892
  0
LINE
  5
E93
330
1F
100
AcDbEntity
  8
0
370
    20
100
AcDbLine
 10
366.1388961803045
 20
438.3772841918413
 30
0.0
 11
366.1388961803045
 21
443.6792824240334
 31
0.0
  0
ARC
  5
E94
330
1F
100
AcDbEntity
  8
0
370
    20
100
AcDbCircle
 10
361.6796898530315
 20
445.5963788842406
 30
0.0
 40
8.485272491029716
100
AcDbArc
 50
273.6462849348259
 51
301.7034617774528
  0
LINE
  5
E95
330
1F
100
AcDbEntity
  8
0
370
    20
100
AcDbLine
 10
333.8122307165818
 20
438.3772841918413
 30
0.0
 11
333.8122307165818
 21
443.6792824240334
 31
0.0
  0
ARC
  5
E96
330
1F
100
AcDbEntity
  8
0
370
    20
100
AcDbCircle
 10
338.2689740393275
 20
436.4689619605793
 30
0.0
 40
8.476513565761226
100
AcDbArc
 50
93.64979431461405
 51
121.7204655223075
  0
ARC
  5
E97
330
1F
100
AcDbEntity
  8
0
370
    20
100
AcDbCircle
 10
338.1761403178511
 20
445.2964573026544
 30
0.0
 40
8.180382848342473
100
AcDbArc
 50
237.7604461768627
 51
266.8692939862063
  0
LINE
  5
E98
330
1F
100
AcDbEntity
  8
0
370
    20
100
AcDbLine
 10
365.9855634484425
 20
436.1282833079372
 30
0.0
 11
365.9855634484425
 21
435.8519370174768
 31
0.0
  0
LINE
  5
E99
330
1F
100
AcDbEntity
  8
0
370
    20
100
AcDbLine
 10
365.9855634484425
 20
432.015826816381
 30
0.0
 11
365.9855634484425
 21
410.2226135209353
 31
0.0
  0
LINE
  5
E9A
330
1F
100
AcDbEntity
  8
0
370
    20
100
AcDbLine
 10
365.9855634484425
 20
406.3637761178457
 30
0.0
 11
365.9855634484425
 21
406.1282833079372
 31
0.0
  0
LINE
  5
E9B
330
1F
100
AcDbEntity
  8
AM_7
100
AcDbLine
 10
349.9755634484432
 20
372.7248825650155
 30
0.0
 11
349.9755634484432
 21
471.5759307989498
 31
0.0
  0
LINE
  5
E9C
330
1F
100
AcDbEntity
  8
AM_7
100
AcDbLine
 10
329.5550313878798
 20
421.1282833079373
 30
0.0
 11
393.9755634484432
 21
421.1282833079373
 31
0.0
  0
DIMENSION
  5
E9D
330
1F
100
AcDbEntity
  8
DIM
100
AcDbDimension
  2
*D28
 10
321.9855634484425
 20
468.1282833079372
 30
0.0
 11
318.7352189602533
 21
429.0282833079374
 31
0.0
 70
    32
 71
     5
 42
78.19999999999982
  3
ISO-25
100
AcDbAlignedDimension
 13
339.175563448443
 23
389.9282833079375
 33
0.0
 14
343.175563448443
 24
468.1282833079372
 34
0.0
 50
90.0
100
AcDbRotatedDimension
  0
DIMENSION
  5
E9E
330
1F
100
AcDbEntity
  8
DIM
100
AcDbDimension
  2
*D29
 10
321.9855634484425
 20
375.9282833079375
 30
0.0
 11
318.7355634484424
 21
382.9282833079375
 31
0.0
 70
    32
 71
     5
 42
14.0
  3
ISO-25
100
AcDbAlignedDimension
 13
339.175563448443
 23
389.9282833079375
 33
0.0
 14
343.5005634484428
 24
375.9282833079375
 34
0.0
 50
90.0
100
AcDbRotatedDimension
  0
DIMENSION
  5
E9F
330
1F
100
AcDbEntity
  8
DIM
100
AcDbDimension
  2
*D30
 10
391.9755634484431
 20
363.9282833079375
 30
0.0
 11
370.9755634484432
 21
363.9282833079375
 31
0.0
 70
   160
 71
     5
 42
42.0
  3
ISO-25
100
AcDbAlignedDimension
 13
349.9755634484432
 23
372.7248825650155
 33
0.0
 14
391.9755634484431
 24
408.4282833079375
 34
0.0
100
AcDbRotatedDimension
  0
DIMENSION
  5
EA0
330
1F
100
AcDbEntity
  8
DIM
100
AcDbDimension
  2
*D31
 10
403.9555489881618
 20
421.1282833079373
 30
0.0
 11
403.9555489881617
 21
398.5282833079383
 31
0.0
 70
   160
 71
     5
 42
45.19999999999988
  3
ISO-25
100
AcDbAlignedDimension
 13
356.4505634484426
 23
375.9282833079375
 33
0.0
 14
393.9755634484432
 24
421.1282833079373
 34
0.0
 50
90.0
100
AcDbRotatedDimension
  0
LINE
  5
EA2
330
1F
100
AcDbEntity
  8
1
  6
HIDDEN
 48
0.5
370
    18
100
AcDbLine
 10
345.6755634484439
 20
468.1282833079372
 30
0.0
 11
346.1755634484439
 21
461.063218914836
 31
0.0
  0
LINE
  5
EA3
330
1F
100
AcDbEntity
  8
1
  6
HIDDEN
 48
0.5
370
    18
100
AcDbLine
 10
346.1743160071151
 20
468.1635804072217
 30
0.0
 11
346.6743160071151
 21
461.0985160141204
 31
0.0
  0
LINE
  5
EA4
330
1F
100
AcDbEntity
  8
1
  6
HIDDEN
 48
0.5
370
    18
100
AcDbLine
 10
354.2755634484442
 20
468.1282833079372
 30
0.0
 11
353.7755634484442
 21
461.063218914836
 31
0.0
  0
LINE
  5
EA5
330
1F
100
AcDbEntity
  8
1
  6
HIDDEN
 48
0.5
370
    18
100
AcDbLine
 10
353.7768108897712
 20
468.1635804072217
 30
0.0
 11
353.2768108897712
 21
461.0985160141204
 31
0.0
  0
LINE
  5
EA7
330
1F
100
AcDbEntity
  8
1
  6
HIDDEN
 48
0.5
370
    18
100
AcDbLine
 10
391.9755634484441
 20
413.3782833079372
 30
0.0
 11
376.9755630680324
 21
413.3782833079372
 31
0.0
  0
LINE
  5
EA8
330
1F
100
AcDbEntity
  8
1
  6
HIDDEN
 48
0.5
370
    18
100
AcDbLine
 10
391.9755634484441
 20
414.1782833079374
 30
0.0
 11
376.9755630680324
 21
414.1782833079374
 31
0.0
  0
LINE
  5
EA9
330
1F
100
AcDbEntity
  8
1
  6
HIDDEN
 48
0.5
370
    18
100
AcDbLine
 10
391.9755634484441
 20
428.8782833079372
 30
0.0
 11
376.9755630680324
 21
428.8782833079372
 31
0.0
  0
LINE
  5
EAA
330
1F
100
AcDbEntity
  8
1
  6
HIDDEN
 48
0.5
370
    18
100
AcDbLine
 10
391.9755634484441
 20
428.0782833079375
 30
0.0
 11
376.9755630680324
 21
428.0782833079371
 31
0.0
  0
INSERT
  5
10A9
330
1F
100
AcDbEntity
  8
AM_5
100
AcDbBlockReference
  2
*S46
 10
0.0
 20
0.0
 30
0.0
  0
TEXT
  5
10AC
330
1F
100
AcDbEntity
  8
DIM
100
AcDbText
 10
326.8383733699181
 20
366.5210935258889
 30
0.0
 40
3.5
  1
PF3/8
100
AcDbText
  0
TEXT
  5
10AF
330
1F
100
AcDbEntity
  8
DIM
100
AcDbText
 10
402.2273577097862
 20
433.1511501011289
 30
0.0
 40
3.5
  1
PF3/8
100
AcDbText
  0
INSERT
  5
10B0
330
1F
100
AcDbEntity
  8
AM_5
100
AcDbBlockReference
  2
*S47
 10
0.0
 20
0.0
 30
0.0
  0
DIMENSION
  5
1108
102
{ACAD_XDICTIONARY
360
1115
102
}
102
{ACAD_REACTORS
330
1116
102
}
330
1F
100
AcDbEntity
  8
AM_5
100
AcDbDimension
  2
*D36
 10
363.9755634484432
 20
480.1282833079373
 30
0.0
 11
349.9755634484432
 21
482.8786277961262
 31
0.0
 70
    32
  1
%%c<>
 71
     5
 42
28.0
  3
AM_ISO$0
100
AcDbAlignedDimension
 13
335.9755634484431
 23
466.0282833079369
 33
0.0
 14
363.9755634484432
 24
466.0282833079369
 34
0.0
100
AcDbRotatedDimension
1001
ACAD
1000
DSTYLE
1002
{
1070
    40
1040
1.0
1070
   144
1040
1.0
1070
   272
1070
     8
1002
}
  0
TEXT
  5
112C
330
1F
100
AcDbEntity
  8
DIM
100
AcDbText
 10
371.311575397571
 20
481.3423796328294
 30
0.0
 40
3.5
  1
PT1/8
100
AcDbText
  0
INSERT
  5
112D
330
1F
100
AcDbEntity
  8
AM_5
100
AcDbBlockReference
  2
*S48
 10
0.0
 20
0.0
 30
0.0
  0
DIMENSION
  5
113F
330
1F
100
AcDbEntity
  8
AM_5
100
AcDbDimension
  2
*D37
 10
220.6755097715271
 20
480.1282833079373
 30
0.0
 11
211.6755097715271
 21
482.8782833079372
 31
0.0
 70
    32
  1
%%c<>
 71
     5
 42
18.0
  3
AM_ISO$0
100
AcDbAlignedDimension
 13
202.6755097715271
 23
466.928283307937
 33
0.0
 14
220.6755097715271
 24
466.928283307937
 34
0.0
100
AcDbRotatedDimension
1001
ACAD
1000
DSTYLE
1002
{
1070
    40
1040
1.0
1070
   144
1040
1.0
1070
   272
1070
     8
1002
}
  0
TEXT
  5
1142
330
1F
100
AcDbEntity
  8
DIM
100
AcDbText
 10
225.8594809152445
 20
480.9953292199359
 30
0.0
 40
3.5
  1
PT1/8
100
AcDbText
  0
INSERT
  5
1143
330
1F
100
AcDbEntity
  8
AM_5
100
AcDbBlockReference
  2
*S49
 10
0.0
 20
0.0
 30
0.0
  0
INSERT
  5
116C
330
1F
100
AcDbEntity
  8
AM_5
100
AcDbBlockReference
  2
*S50
 10
0.0
 20
0.0
 30
0.0
  0
TEXT
  5
116D
330
1F
100
AcDbEntity
  8
DIM
100
AcDbText
 10
190.8317738160124
 20
401.8749422696402
 30
0.0
 40
3.5
  1
PT1/4
100
AcDbText
  0
TEXT
  5
11B4
330
1F
100
AcDbEntity
  8
DIM
100
AcDbText
 10
246.4273040328702
 20
447.6511501011288
 30
0.0
 40
3.5
  1
PF1/4
100
AcDbText
  0
INSERT
  5
11B5
330
1F
100
AcDbEntity
  8
AM_5
100
AcDbBlockReference
  2
*S51
 10
0.0
 20
0.0
 30
0.0
  0
TEXT
  5
138D
330
1F
100
AcDbEntity
  8
0
100
AcDbText
 10
160.8491492368812
 20
504.7425862351444
 30
0.0
 40
6.0
  1
MPC-02
100
AcDbText
  0
TEXT
  5
138E
330
1F
100
AcDbEntity
  8
0
100
AcDbText
 10
298.6139326610587
 20
504.7425862351444
 30
0.0
 40
6.0
  1
MPC-04
100
AcDbText
  0
TEXT
  5
15BA
330
1F
100
AcDbEntity
  8
LOGO
 62
     7
100
AcDbText
 10
198.6807168492603
 20
328.5296596620509
 30
0.0
 40
2.666280542986425
  1
Order example:
 41
0.8
  7
CHINESET
100
AcDbText
  0
TEXT
  5
15BB
330
1F
100
AcDbEntity
  8
LOGO
 62
     7
100
AcDbText
 10
199.1590696279152
 20
332.2832306061451
 30
0.0
 40
3.999420814479637
  1
訂購代號：
  7
CHINESET
100
AcDbText
  0
LINE
  5
15BC
330
1F
100
AcDbEntity
  8
LOGO
 62
     4
100
AcDbLine
 10
197.522208909829
 20
317.2929466039676
 30
0.0
 11
197.522208909829
 21
337.2900506763659
 31
0.0
  0
TEXT
  5
15BD
330
1F
100
AcDbEntity
  8
LOGO
  6
Continuous
100
AcDbText
 10
160.7116296220804
 20
321.221347520729
 30
0.0
 40
2.999565610859728
  1
金器工業股份有限公司
  7
CHINESET
100
AcDbText
  0
TEXT
  5
15BE
330
1F
100
AcDbEntity
  8
LOGO
  6
Continuous
100
AcDbText
 10
155.2020210297221
 20
318.2211942301846
 30
0.0
 40
1.999710407239818
  1
MINDMAN INDUSTRIAL CO., LTD.
 41
0.85
  7
CHINESET
100
AcDbText
  0
LINE
  5
15BF
330
1F
100
AcDbEntity
  8
LOGO
 62
     4
100
AcDbLine
 10
197.522208909829
 20
333.2906298618862
 30
0.0
 11
168.1931229369781
 21
333.2906298618862
 31
0.0
  0
LINE
  5
15C0
330
1F
100
AcDbEntity
  8
LOGO
 62
     4
100
AcDbLine
 10
197.522208909829
 20
329.2912090474066
 30
0.0
 11
168.1931229369781
 21
329.2912090474066
 31
0.0
  0
LINE
  5
15C1
330
1F
100
AcDbEntity
  8
LOGO
 62
     4
100
AcDbLine
 10
197.522208909829
 20
325.2917882329271
 30
0.0
 11
153.528579950553
 21
325.2917882329271
 31
0.0
  0
LINE
  5
15C2
330
1F
100
AcDbEntity
  8
LOGO
 62
     4
100
AcDbLine
 10
168.1931229369781
 20
325.2917882329271
 30
0.0
 11
168.1931229369781
 21
337.2900506763659
 31
0.0
  0
TEXT
  5
15C3
330
1F
100
AcDbEntity
  8
LOGO
100
AcDbText
 10
188.2381688876495
 20
326.2916434365467
 30
0.0
 40
1.999710407239818
  1
mm
  7
CHINESET
 72
     1
 11
190.7140008204226
 21
327.2914986401667
 31
0.0
100
AcDbText
 73
     2
  0
TEXT
  5
15C4
330
1F
100
AcDbEntity
  8
LOGO
100
AcDbText
 10
187.1907015314762
 20
334.290485065506
 30
0.0
 40
1.999710407239818
  1
1 : 1
  7
CHINESET
 72
     1
 11
190.7140008204226
 21
335.290340269126
 31
0.0
100
AcDbText
 73
     2
  0
LINE
  5
15C5
330
1F
100
AcDbEntity
  8
LOGO
 62
     4
100
AcDbLine
 10
184.1908061948968
 20
325.2917882329271
 30
0.0
 11
184.1908061948968
 21
337.2900506763659
 31
0.0
  0
TEXT
  5
15C6
330
1F
100
AcDbEntity
  8
LOGO
100
AcDbText
 10
169.8419912950907
 20
334.2914691749584
 30
131.0577257600498
 40
1.999710407239818
  1
比例 Scale:
 41
0.9
  7
CHINESET
 72
     4
 11
176.1919645659375
 21
335.290340269126
 31
131.0577257600498
100
AcDbText
  0
TEXT
  5
15C7
330
1F
100
AcDbEntity
  8
LOGO
100
AcDbText
 10
169.7268294011023
 20
330.3191933795403
 30
131.0577257600498
 40
1.999710407239818
  1
投影  View:
 41
0.9
  7
CHINESET
 72
     4
 11
176.1919645659375
 21
331.2909194546463
 31
131.0577257600498
100
AcDbText
  0
TEXT
  5
15C8
330
1F
100
AcDbEntity
  8
LOGO
100
AcDbText
 10
169.9223368025244
 20
326.2916434365467
 30
131.0577257600498
 40
1.999710407239818
  1
單位  Unit:
 41
0.9
  7
CHINESET
 72
     4
 11
176.1919645659375
 21
327.2914986401667
 31
131.0577257600498
100
AcDbText
  0
LWPOLYLINE
  5
15C9
330
1F
100
AcDbEntity
  8
LOGO
 62
     4
100
AcDbPolyline
 90
        4
 70
     1
 43
0.0
 10
153.528579950553
 20
337.2900506763659
 10
428.5285799505529
 20
337.2900506763659
 10
428.5285799505529
 20
517.2929466039672
 10
153.528579950553
 20
517.2929466039672
1001
GENIUS_GENREC_14
1002
{
1000
PYDIR
1011
153.528579950553
1021
517.2929466039672
1031
0.0
1002
}
1002
{
1000
PXDIR
1011
428.5285799505529
1021
337.2900506763659
1031
0.0
1002
}
1002
{
1000
PORI
1011
153.528579950553
1021
337.2900506763659
1031
0.0
1002
}
1002
{
1000
PINS
1011
153.528579950553
1021
337.2900506763659
1031
0.0
1002
}
1002
{
1000
PINS2
1011
428.5285799505529
1021
517.2929466039672
1031
0.0
1002
}
1002
{
1000
C
1070
     1
1002
}
1001
GENIUS_GENODEF_13
1002
{
1000
HIER
1070
     0
1002
}
1002
{
1000
MANEDIT
1070
     0
1002
}
1002
{
1000
NOSEL
1070
     0
1002
}
1002
{
1000
BEHIND
1070
     0
1002
}
1002
{
1000
OTHER
1070
     0
1002
}
1002
{
1000
REACTOR
1002
}
1001
GENIUS_GENOBJ-N-REC_13
1002
{
1000
OWNER
1000
GEN
1002
}
  0
SOLID
  5
15CA
330
1F
100
AcDbEntity
  8
LOGO
 62
     5
100
AcDbTrace
 10
155.6033115909752
 20
328.6160221486006
 30
0.0
 11
156.4679338986645
 21
328.6160221486003
 31
0.0
 12
160.0754959410926
 22
336.8150267904831
 32
0.0
 13
160.9401182487825
 23
336.8150267904827
 33
0.0
  0
SOLID
  5
15CB
330
1F
100
AcDbEntity
  8
LOGO
 62
     5
100
AcDbTrace
 10
156.8257086466749
 20
328.6160221486006
 30
0.0
 11
157.6903309543643
 21
328.6160221486006
 31
0.0
 12
160.9401182487825
 22
336.1591064191322
 32
0.0
 13
160.0754959410926
 23
332.9888246242709
 33
0.0
  0
SOLID
  5
15CC
330
1F
100
AcDbEntity
  8
LOGO
 62
     2
100
AcDbTrace
 10
156.4679338986645
 20
328.6160221486003
 30
0.0
 11
156.8257086466749
 21
328.6160221486006
 31
0.0
 12
160.9401182487825
 22
336.8150267904827
 32
0.0
 13
161.2978929967924
 23
336.8150267904827
 33
0.0
  0
SOLID
  5
15CD
330
1F
100
AcDbEntity
  8
LOGO
 62
     5
100
AcDbTrace
 10
154.2171100003868
 20
325.634565915189
 30
0.0
 11
154.5152556237283
 21
325.634565915189
 31
0.0
 12
155.3548569048578
 22
327.1252940318947
 32
0.0
 13
155.6530025281984
 23
327.1252940318947
 33
0.0
  0
SOLID
  5
15CE
330
1F
100
AcDbEntity
  8
LOGO
 62
     5
100
AcDbTrace
 10
155.3548569048578
 20
327.1252940318947
 30
0.0
 11
155.6530025281984
 21
327.1252940318947
 31
0.0
 12
155.3548569048578
 22
325.634565915189
 32
0.0
 13
155.6530025281984
 23
325.634565915189
 33
0.0
  0
SOLID
  5
15CF
330
1F
100
AcDbEntity
  8
LOGO
 62
     5
100
AcDbTrace
 10
155.3548569048578
 20
325.634565915189
 30
0.0
 11
155.6530025281984
 21
325.634565915189
 31
0.0
 12
156.4926038093292
 22
327.1252940318947
 32
0.0
 13
156.7907494326703
 23
327.1252940318947
 33
0.0
  0
SOLID
  5
15D0
330
1F
100
AcDbEntity
  8
LOGO
 62
     5
100
AcDbTrace
 10
156.4926038093292
 20
327.1252940318947
 30
0.0
 11
156.7907494326703
 21
327.1252940318947
 31
0.0
 12
156.4926038093292
 22
325.634565915189
 32
0.0
 13
156.7907494326703
 23
325.634565915189
 33
0.0
  0
POLYLINE
  5
15D1
330
1F
100
AcDbEntity
  8
LOGO
 62
     5
100
AcDb2dPolyline
 66
     1
 10
0.0
 20
0.0
 30
0.0
 40
0.2986234208144796
 41
0.2986234208144796
  0
VERTEX
  5
15D2
330
15D1
100
AcDbEntity
  8
LOGO
 62
     5
100
AcDbVertex
100
AcDb2dVertex
 10
166.4863435391387
 20
326.5290027852123
 30
0.0
 42
1.0
  0
VERTEX
  5
15D3
330
15D1
100
AcDbEntity
  8
LOGO
 62
     5
100
AcDbVertex
100
AcDb2dVertex
 10
165.5904732766951
 20
326.5290027852123
 30
0.0
 42
1.0
  0
SEQEND
  5
15D4
330
15D1
100
AcDbEntity
  8
LOGO
 62
     5
  0
POLYLINE
  5
15D5
330
1F
100
AcDbEntity
  8
LOGO
 62
     5
100
AcDb2dPolyline
 66
     1
 10
0.0
 20
0.0
 30
0.0
 70
     1
  0
VERTEX
  5
15D6
330
15D5
100
AcDbEntity
  8
LOGO
 62
     5
100
AcDbVertex
100
AcDb2dVertex
 10
163.9017179836794
 20
326.3799299735416
 30
0.0
 42
1.000000057330635
  0
VERTEX
  5
15D7
330
15D5
100
AcDbEntity
  8
LOGO
 62
     5
100
AcDbVertex
100
AcDb2dVertex
 10
164.796154853703
 20
326.3799299735416
 30
0.0
 42
1.000000057330635
  0
SEQEND
  5
15D8
330
15D5
100
AcDbEntity
  8
LOGO
 62
     5
  0
CIRCLE
  5
15D9
330
1F
100
AcDbEntity
  8
LOGO
 62
     5
100
AcDbCircle
 10
164.3489364186919
 20
326.3799299735416
 30
0.0
 40
0.4472184350117648
  0
POLYLINE
  5
15DA
330
1F
100
AcDbEntity
  8
LOGO
 62
     5
100
AcDb2dPolyline
 66
     1
 10
0.0
 20
0.0
 30
0.0
 70
     1
 40
0.2986234208144796
 41
0.2986234208144796
  0
VERTEX
  5
15DB
330
15DA
100
AcDbEntity
  8
LOGO
 62
     5
100
AcDbVertex
100
AcDb2dVertex
 10
163.7516895770625
 20
326.3799299735416
 30
0.0
 42
1.0
  0
VERTEX
  5
15DC
330
15DA
100
AcDbEntity
  8
LOGO
 62
     5
100
AcDbVertex
100
AcDb2dVertex
 10
164.9461832603203
 20
326.3799299735416
 30
0.0
 42
1.0
  0
SEQEND
  5
15DD
330
15DA
100
AcDbEntity
  8
LOGO
 62
     5
  0
LINE
  5
15DE
330
1F
100
AcDbEntity
  8
LOGO
100
AcDbLine
 10
166.6346996545987
 20
325.634565915189
 30
0.0
 11
166.6346996545987
 21
326.5290027852123
 31
0.0
  0
SOLID
  5
15DF
330
1F
100
AcDbEntity
  8
LOGO
 62
     5
100
AcDbTrace
 10
164.796125039142
 20
327.1252940318947
 30
0.0
 11
165.0942706624826
 21
327.1252940318947
 31
0.0
 12
164.796125039142
 22
325.634565915189
 32
0.0
 13
165.0942706624826
 23
325.634565915189
 33
0.0
  0
SOLID
  5
15E0
330
1F
100
AcDbEntity
  8
LOGO
 62
     5
100
AcDbTrace
 10
165.4421171612341
 20
325.634565915189
 30
0.0
 11
165.7402627845756
 21
325.634565915189
 31
0.0
 12
165.4421171612341
 22
327.1252940318947
 32
0.0
 13
165.7402627845756
 23
327.1252940318947
 33
0.0
  0
SOLID
  5
15E1
330
1F
100
AcDbEntity
  8
LOGO
 62
     5
100
AcDbTrace
 10
166.3365540312581
 20
326.5290027852123
 30
0.0
 11
166.6346996545987
 21
326.5290027852123
 31
0.0
 12
166.3365540312581
 22
325.634565915189
 32
0.0
 13
166.6346996545987
 23
325.634565915189
 33
0.0
  0
SOLID
  5
15E2
330
1F
100
AcDbEntity
  8
LOGO
 62
     5
100
AcDbTrace
 10
165.4123025988999
 20
336.1591064191322
 30
0.0
 11
164.547680291211
 21
332.9888246242709
 31
0.0
 12
165.4123025988999
 22
328.6160221486003
 32
0.0
 13
164.547680291211
 23
328.6160221486003
 33
0.0
  0
SOLID
  5
15E3
330
1F
100
AcDbEntity
  8
LOGO
 62
     5
100
AcDbTrace
 10
165.7700773469098
 20
328.6160221486003
 30
0.0
 11
166.6346996545987
 21
328.6160221486003
 31
0.0
 12
165.7700773469098
 22
336.8150267904827
 32
0.0
 13
166.6346996545987
 23
336.8150267904831
 33
0.0
  0
SOLID
  5
15E4
330
1F
100
AcDbEntity
  8
LOGO
 62
     2
100
AcDbTrace
 10
165.4123025988999
 20
336.8150267904831
 30
0.0
 11
165.7700773469098
 21
336.8150267904827
 31
0.0
 12
165.4123025988999
 22
328.6160221486003
 32
0.0
 13
165.7700773469098
 23
328.6160221486003
 33
0.0
  0
POLYLINE
  5
15E5
330
1F
100
AcDbEntity
  8
LOGO
 62
     5
100
AcDb2dPolyline
 66
     1
 10
0.0
 20
0.0
 30
0.0
 40
0.2986234208144796
 41
0.2986234208144796
  0
VERTEX
  5
15E6
330
15E5
100
AcDbEntity
  8
LOGO
 62
     5
100
AcDbVertex
100
AcDb2dVertex
 10
162.2129030615403
 20
326.5290027852123
 30
0.0
 42
1.0
  0
VERTEX
  5
15E7
330
15E5
100
AcDbEntity
  8
LOGO
 62
     5
100
AcDbVertex
100
AcDb2dVertex
 10
161.3170327990967
 20
326.5290027852123
 30
0.0
 42
1.0
  0
SEQEND
  5
15E8
330
15E5
100
AcDbEntity
  8
LOGO
 62
     5
  0
POLYLINE
  5
15E9
330
1F
100
AcDbEntity
  8
LOGO
 62
     5
100
AcDb2dPolyline
 66
     1
 10
0.0
 20
0.0
 30
0.0
 40
0.2986234208144796
 41
0.2986234208144796
  0
VERTEX
  5
15EA
330
15E9
100
AcDbEntity
  8
LOGO
 62
     5
100
AcDbVertex
100
AcDb2dVertex
 10
163.107339931563
 20
326.5290027852123
 30
0.0
 42
1.0
  0
VERTEX
  5
15EB
330
15E9
100
AcDbEntity
  8
LOGO
 62
     5
100
AcDbVertex
100
AcDb2dVertex
 10
162.2114696691198
 20
326.5290027852123
 30
0.0
 42
1.0
  0
SEQEND
  5
15EC
330
15E9
100
AcDbEntity
  8
LOGO
 62
     5
  0
POLYLINE
  5
15ED
330
1F
100
AcDbEntity
  8
LOGO
 62
     5
100
AcDb2dPolyline
 66
     1
 10
0.0
 20
0.0
 30
0.0
 40
0.2986234208144796
 41
0.2986234208144796
  0
VERTEX
  5
15EE
330
15ED
100
AcDbEntity
  8
LOGO
 62
     5
100
AcDbVertex
100
AcDb2dVertex
 10
158.8338994539647
 20
326.5290027852123
 30
0.0
 42
1.0
  0
VERTEX
  5
15EF
330
15ED
100
AcDbEntity
  8
LOGO
 62
     5
100
AcDbVertex
100
AcDb2dVertex
 10
157.9380291915215
 20
326.5290027852123
 30
0.0
 42
1.0
  0
SEQEND
  5
15F0
330
15ED
100
AcDbEntity
  8
LOGO
 62
     5
  0
SOLID
  5
15F1
330
1F
100
AcDbEntity
  8
LOGO
 62
     5
100
AcDbTrace
 10
157.789673076061
 20
327.1252940318947
 30
0.0
 11
158.0878186994016
 21
327.1252940318947
 31
0.0
 12
157.789673076061
 22
325.634565915189
 32
0.0
 13
158.0878186994016
 23
325.634565915189
 33
0.0
  0
SOLID
  5
15F2
330
1F
100
AcDbEntity
  8
LOGO
 62
     5
100
AcDbTrace
 10
158.6841099460846
 20
326.5290027852123
 30
0.0
 11
158.9822555694261
 21
326.5290027852123
 31
0.0
 12
158.6841099460846
 22
325.634565915189
 32
0.0
 13
158.9822555694261
 23
325.634565915189
 33
0.0
  0
POLYLINE
  5
15F3
330
1F
100
AcDbEntity
  8
LOGO
 62
     5
100
AcDb2dPolyline
 66
     1
 10
0.0
 20
0.0
 30
0.0
 70
     1
 40
0.2986234208144796
 41
0.2986234208144796
  0
VERTEX
  5
15F4
330
15F3
100
AcDbEntity
  8
LOGO
 62
     5
100
AcDbVertex
100
AcDb2dVertex
 10
159.4782490994637
 20
326.3799299735416
 30
0.0
 42
1.0
  0
VERTEX
  5
15F5
330
15F3
100
AcDbEntity
  8
LOGO
 62
     5
100
AcDbVertex
100
AcDb2dVertex
 10
160.672742782722
 20
326.3799299735416
 30
0.0
 42
1.0
  0
SEQEND
  5
15F6
330
15F3
100
AcDbEntity
  8
LOGO
 62
     5
  0
SOLID
  5
15F7
330
1F
100
AcDbEntity
  8
LOGO
 62
     5
100
AcDbTrace
 10
160.5226845615427
 20
327.5725124669067
 30
0.0
 11
160.8208301848838
 21
327.5725124669067
 31
0.0
 12
160.5226845615427
 22
325.634565915189
 32
0.0
 13
160.8208301848838
 23
325.634565915189
 33
0.0
  0
SOLID
  5
15F8
330
1F
100
AcDbEntity
  8
LOGO
 62
     5
100
AcDbTrace
 10
161.1686766836367
 20
327.1252940318947
 30
0.0
 11
161.4668223069773
 21
327.1252940318947
 31
0.0
 12
161.1686766836367
 22
325.634565915189
 32
0.0
 13
161.4668223069773
 23
325.634565915189
 33
0.0
  0
SOLID
  5
15F9
330
1F
100
AcDbEntity
  8
LOGO
 62
     5
100
AcDbTrace
 10
162.0631135536594
 20
326.5290027852123
 30
0.0
 11
162.3612591770009
 21
326.5290027852123
 31
0.0
 12
162.0631135536594
 22
325.634565915189
 32
0.0
 13
162.3612591770009
 23
325.634565915189
 33
0.0
  0
SOLID
  5
15FA
330
1F
100
AcDbEntity
  8
LOGO
 62
     5
100
AcDbTrace
 10
162.9575504236829
 20
326.5290027852123
 30
0.0
 11
163.255696047024
 21
326.5290027852123
 31
0.0
 12
162.9575504236829
 22
325.6345659151886
 32
0.0
 13
163.255696047024
 23
325.6345659151886
 33
0.0
  0
SOLID
  5
15FB
330
1F
100
AcDbEntity
  8
LOGO
 62
     5
100
AcDbTrace
 10
157.1436809539675
 20
327.3339959682336
 30
0.0
 11
157.4418265773095
 21
327.3339959682336
 31
0.0
 12
157.1436809539675
 22
327.5725124669067
 32
0.0
 13
157.4418265773095
 23
327.5725124669067
 33
0.0
  0
SOLID
  5
15FC
330
1F
100
AcDbEntity
  8
LOGO
 62
     5
100
AcDbTrace
 10
157.1436809539675
 20
327.1252940318947
 30
0.0
 11
157.4418265773095
 21
327.1252940318947
 31
0.0
 12
157.1436809539675
 22
325.6345659151886
 32
0.0
 13
157.4418265773095
 23
325.634565915189
 33
0.0
  0
SOLID
  5
15FD
330
1F
100
AcDbEntity
  8
LOGO
 62
     5
100
AcDbTrace
 10
160.0754959410926
 20
328.6160221486006
 30
0.0
 11
160.9401182487825
 21
328.6160221486006
 31
0.0
 12
160.0754959410926
 22
332.9888246242709
 32
0.0
 13
160.9401182487825
 23
336.1591064191322
 33
0.0
  0
SOLID
  5
15FE
330
1F
100
AcDbEntity
  8
LOGO
 62
     5
100
AcDbTrace
 10
161.2978929967924
 20
336.8150267904827
 30
0.0
 11
162.1625153044813
 21
336.8150267904831
 31
0.0
 12
161.2978929967924
 22
329.2719425199511
 32
0.0
 13
162.1625153044813
 23
332.4422243148123
 33
0.0
  0
SOLID
  5
15FF
330
1F
100
AcDbEntity
  8
LOGO
 62
     2
100
AcDbTrace
 10
160.9401182487825
 20
336.8150267904827
 30
0.0
 11
161.2978929967924
 21
336.8150267904827
 31
0.0
 12
160.9401182487825
 22
328.6160221486006
 32
0.0
 13
161.2978929967924
 23
328.6160221486006
 33
0.0
  0
SOLID
  5
1600
330
1F
100
AcDbEntity
  8
LOGO
 62
     5
100
AcDbTrace
 10
161.2978929967924
 20
329.2719425199511
 30
0.0
 11
162.1625153044813
 21
332.4422243148123
 31
0.0
 12
165.4123025988999
 22
336.8150267904831
 32
0.0
 13
164.547680291211
 23
336.8150267904831
 33
0.0
  0
SOLID
  5
1601
330
1F
100
AcDbEntity
  8
LOGO
 62
     5
100
AcDbTrace
 10
161.2978929967924
 20
328.6160221486006
 30
0.0
 11
162.1625153044813
 21
328.6160221486006
 31
0.0
 12
165.4123025988999
 22
336.1591064191322
 32
0.0
 13
164.547680291211
 23
332.9888246242709
 33
0.0
  0
SOLID
  5
1602
330
1F
100
AcDbEntity
  8
LOGO
 62
     2
100
AcDbTrace
 10
160.9401182487825
 20
328.6160221486006
 30
0.0
 11
161.2978929967924
 21
328.6160221486006
 31
0.0
 12
165.4123025988999
 22
336.8150267904831
 32
0.0
 13
165.7700773469098
 23
336.8150267904827
 33
0.0
  0
LWPOLYLINE
  5
1603
330
1F
100
AcDbEntity
  8
LOGO
 62
     4
100
AcDbPolyline
 90
        4
 70
     1
 43
0.0
 10
153.528579950553
 20
337.2900506763659
 10
428.5285799505529
 20
337.2900506763659
 10
428.5285799505529
 20
317.2929466039674
 10
153.528579950553
 20
317.2929466039674
1001
GENIUS_GENREC_14
1002
{
1000
PYDIR
1011
153.528579950553
1021
317.2929466039674
1031
0.0
1002
}
1002
{
1000
PXDIR
1011
428.5285799505529
1021
337.2900506763659
1031
0.0
1002
}
1002
{
1000
PORI
1011
153.528579950553
1021
337.2900506763659
1031
0.0
1002
}
1002
{
1000
PINS
1011
153.528579950553
1021
337.2900506763659
1031
0.0
1002
}
1002
{
1000
PINS2
1011
428.5285799505529
1021
317.2929466039674
1031
0.0
1002
}
1002
{
1000
C
1070
     1
1002
}
1001
GENIUS_GENOBJ-N-REC_13
1002
{
1000
OWNER
1000
GEN
1002
}
1001
GENIUS_GENODEF_13
1002
{
1000
HIER
1070
     0
1002
}
1002
{
1000
MANEDIT
1070
     0
1002
}
1002
{
1000
NOSEL
1070
     0
1002
}
1002
{
1000
BEHIND
1070
     0
1002
}
1002
{
1000
OTHER
1070
     0
1002
}
1002
{
1000
REACTOR
1002
}
  0
LINE
  5
1604
330
1F
100
AcDbEntity
  8
LOGO
 62
     4
100
AcDbLine
 10
238.3587407598113
 20
326.2916434365471
 30
0.0
 11
238.3587407598113
 21
318.9593719433341
 31
0.0
  0
LINE
  5
1605
330
1F
100
AcDbEntity
  8
LOGO
 62
     4
100
AcDbLine
 10
225.0273380448791
 20
326.2916434365471
 30
0.0
 11
225.0273380448791
 21
318.9593719433341
 31
0.0
  0
LINE
  5
1606
330
1F
100
AcDbEntity
  8
LOGO
 62
     4
100
AcDbLine
 10
238.3587407598113
 20
318.9593719433341
 30
0.0
 11
225.0273380448791
 21
318.9593719433341
 31
0.0
  0
LINE
  5
1607
330
1F
100
AcDbEntity
  8
LOGO
 62
     4
100
AcDbLine
 10
248.3348618559019
 20
335.290340269126
 30
0.0
 11
225.0273380448791
 21
335.290340269126
 31
0.0
  0
LINE
  5
1608
330
1F
100
AcDbEntity
  8
LOGO
 62
     4
100
AcDbLine
 10
248.3348618559019
 20
329.2912090474066
 30
0.0
 11
225.0273380448791
 21
329.2912090474066
 31
0.0
  0
LINE
  5
1609
330
1F
100
AcDbEntity
  8
LOGO
 62
     4
100
AcDbLine
 10
225.0273380448791
 20
335.290340269126
 30
0.0
 11
225.0273380448791
 21
329.2912090474066
 31
0.0
  0
LINE
  5
160A
330
1F
100
AcDbEntity
  8
LOGO
 62
     4
100
AcDbLine
 10
248.3348618559019
 20
335.290340269126
 30
0.0
 11
248.3348618559019
 21
329.2912090474066
 31
0.0
  0
LINE
  5
160B
330
1F
100
AcDbEntity
  8
LOGO
 62
     4
100
AcDbLine
 10
232.3886037805817
 20
329.2912090474066
 30
0.0
 11
232.3886037805817
 21
326.2916434365471
 31
0.0
  0
TEXT
  5
160C
330
1F
100
AcDbEntity
  8
LOGO
  6
Continuous
100
AcDbText
 10
226.0932897081591
 20
330.5435189192116
 30
0.0
 40
3.5
  1
MPC-02
  7
CHINESET
100
AcDbText
  0
LINE
  5
160D
330
1F
100
AcDbEntity
  8
LOGO
 62
     4
100
AcDbLine
 10
238.3587407598113
 20
326.2916434365471
 30
0.0
 11
225.0273380448791
 21
326.2916434365471
 31
0.0
  0
TEXT
  5
160E
330
1F
100
AcDbEntity
  8
LOGO
  6
Continuous
100
AcDbText
 10
229.3053429695222
 20
319.9943065161582
 30
131.0577257600498
 40
1.5
  1
Model
 41
0.8
  7
CHINESET
100
AcDbText
  0
TEXT
  5
160F
330
1F
100
AcDbEntity
  8
LOGO
100
AcDbText
 10
228.906091731523
 20
322.7749832430856
 30
131.0577257600498
 40
2.5
  1
型號
  7
CHINESET
100
AcDbText
  0
TEXT
  5
1643
330
1F
100
AcDbEntity
  8
LOGO
100
AcDbText
 10
198.6154111677334
 20
318.356784647889
 30
0.0
 40
2.0
  1
10711266
 41
0.7
  7
CHINESET
 72
     1
 11
203.3154111677334
 21
318.356784647889
 31
0.0
100
AcDbText
  0
LINE
  5
1644
330
1F
100
AcDbEntity
  8
LOGO
 62
     4
100
AcDbLine
 10
209.5222089098281
 20
321.2923674184477
 30
0.0
 11
209.522208909829
 21
317.2929466039678
 31
0.0
  0
LINE
  5
1645
330
1F
100
AcDbEntity
  8
LOGO
 62
     4
100
AcDbLine
 10
209.5222089098281
 20
321.2923674184477
 30
0.0
 11
197.522208909829
 21
321.2923674184477
 31
0.0
  0
CIRCLE
  5
1646
330
1F
100
AcDbEntity
  8
LOGO
  6
Continuous
100
AcDbCircle
 10
187.8935201337251
 20
331.2951968498411
 30
0.0
 40
1.161078930320631
  0
CIRCLE
  5
1647
330
1F
100
AcDbEntity
  8
LOGO
  6
Continuous
100
AcDbCircle
 10
187.8935201337251
 20
331.2951968498411
 30
0.0
 40
0.6802894686655972
  0
LINE
  5
1648
330
1F
100
AcDbEntity
  8
LOGO
100
AcDbLine
 10
195.1898748577616
 20
330.1341179195202
 30
0.0
 11
195.1898748577616
 21
332.4562757801619
 31
0.0
  0
LINE
  5
1649
330
1F
100
AcDbEntity
  8
LOGO
100
AcDbLine
 10
191.5499590603174
 20
330.6149073811756
 30
0.0
 11
191.5499590603174
 21
331.9754863185068
 31
0.0
  0
LINE
  5
164A
330
1F
100
AcDbEntity
  8
LOGO
  6
Continuous
100
AcDbLine
 10
191.5499590603174
 20
331.9754863185068
 30
0.0
 11
195.1898748577616
 21
332.4562757801619
 31
0.0
  0
LINE
  5
164B
330
1F
100
AcDbEntity
  8
LOGO
  6
Continuous
100
AcDbLine
 10
191.5499590603174
 20
330.6149073811756
 30
0.0
 11
195.1898748577616
 21
330.1341179195202
 31
0.0
  0
LINE
  5
164C
330
1F
100
AcDbEntity
  8
LOGO
  6
AM_ISO08W050x2
 48
0.3
100
AcDbLine
 10
186.2929554424902
 20
331.2951968498411
 30
0.0
 11
189.49408482496
 21
331.2951968498411
 31
0.0
1001
GENIUS_GENOREF_13
1005
1651
  0
LINE
  5
164D
330
1F
100
AcDbEntity
  8
LOGO
  6
AM_ISO08W050x2
 48
0.3
100
AcDbLine
 10
187.8935201337251
 20
329.6946321586062
 30
0.0
 11
187.8935201337251
 21
332.895761541076
 31
0.0
1001
GENIUS_GENOREF_13
1005
1650
  0
LINE
  5
164E
330
1F
100
AcDbEntity
  8
LOGO
  6
CENTER
 48
0.5
100
AcDbLine
 10
191.2588669675081
 20
331.2951968498411
 30
0.0
 11
195.5564025955493
 21
331.2951968498411
 31
0.0
1001
GENIUS_GENOREF_13
1005
164F
  0
POINT
  5
164F
330
1F
100
AcDbEntity
  8
0
 60
     1
100
AcDbPoint
 10
-1587.463481086323
 20
-619.723778201365
 30
0.0
1001
GENIUS_GENOBJ-N-CRS_13
1002
{
1000
OWNER
1000
GEN
1002
}
1001
GENIUS_GENOLIS_13
1002
{
1000
ENT
1005
0
1005
0
1005
0
1005
164E
1002
}
1001
GENIUS_GENOENT_13
1002
{
1000
MYREF
1005
164F
1002
}
1002
{
1000
GRP
1005
0
1002
}
1001
GENIUS_GENODEF_13
1002
{
1000
HIER
1070
    10
1002
}
1002
{
1000
MANEDIT
1070
     1
1002
}
1002
{
1000
NOSEL
1070
     0
1002
}
1002
{
1000
BEHIND
1070
     0
1002
}
1002
{
1000
OTHER
1070
     0
1002
}
1002
{
1000
REACTOR
1002
}
  0
POINT
  5
1650
330
1F
100
AcDbEntity
  8
0
 60
     1
100
AcDbPoint
 10
-1598.788066309178
 20
-610.8481917227287
 30
0.0
1001
GENIUS_GENOBJ-N-CRS_13
1002
{
1000
OWNER
1000
GEN
1002
}
1001
GENIUS_GENOLIS_13
1002
{
1000
ENT
1005
0
1005
0
1005
0
1005
164D
1002
}
1001
GENIUS_GENOENT_13
1002
{
1000
MYREF
1005
1650
1002
}
1002
{
1000
GRP
1005
0
1002
}
1001
GENIUS_GENODEF_13
1002
{
1000
HIER
1070
    10
1002
}
1002
{
1000
MANEDIT
1070
     1
1002
}
1002
{
1000
NOSEL
1070
     0
1002
}
1002
{
1000
BEHIND
1070
     0
1002
}
1002
{
1000
OTHER
1070
     0
1002
}
1002
{
1000
REACTOR
1002
}
  0
POINT
  5
1651
330
1F
100
AcDbEntity
  8
0
 60
     1
100
AcDbPoint
 10
-1592.429392611341
 20
-619.723778201365
 30
0.0
1001
GENIUS_GENOBJ-N-CRS_13
1002
{
1000
OWNER
1000
GEN
1002
}
1001
GENIUS_GENOLIS_13
1002
{
1000
ENT
1005
0
1005
0
1005
0
1005
164C
1002
}
1001
GENIUS_GENOENT_13
1002
{
1000
MYREF
1005
1651
1002
}
1002
{
1000
GRP
1005
0
1002
}
1001
GENIUS_GENODEF_13
1002
{
1000
HIER
1070
    10
1002
}
1002
{
1000
MANEDIT
1070
     1
1002
}
1002
{
1000
NOSEL
1070
     0
1002
}
1002
{
1000
BEHIND
1070
     0
1002
}
1002
{
1000
OTHER
1070
     0
1002
}
1002
{
1000
REACTOR
1002
}
  0
LINE
  5
1652
330
1F
100
AcDbEntity
  8
LOGO
 62
     4
100
AcDbLine
 10
291.028579950553
 20
517.2929466039672
 30
0.0
 11
291.028579950553
 21
337.2900506763659
 31
0.0
  0
ENDSEC
  0
SECTION
  2
OBJECTS
  0
DICTIONARY
  5
C
330
0
100
AcDbDictionary
281
     1
  3
ACAD_COLOR
350
BE
  3
ACAD_GROUP
350
D
  3
ACAD_LAYOUT
350
1A
  3
ACAD_MATERIAL
350
BD
  3
ACAD_MLINESTYLE
350
17
  3
ACAD_PLOTSETTINGS
350
19
  3
ACAD_PLOTSTYLENAME
350
E
  3
ACAD_TABLESTYLE
350
11A
  3
ACDBHEADERROUNDTRIPXREC
350
172E
  3
AcDbVariableDictionary
350
94
  3
AcmDictionary
350
5B
  3
AMG
350
41
  3
AMGSNAPSETTINGS
350
1B8
  3
DWGPROPS
350
172D
  0
DICTIONARY
  5
3F9
330
2
100
AcDbDictionary
280
     1
281
     1
  3
ACAD_LAYERFILTERS
360
1431
  3
ACAD_LAYERSTATES
360
B9E
  3
ACLYDICTIONARY
360
1430
  0
DICTIONARY
  5
8F
330
1F
100
AcDbDictionary
280
     1
281
     1
  0
DICTIONARY
  5
1115
330
1108
100
AcDbDictionary
280
     1
281
     1
  3
ACAD_DIMASSOC
360
1116
  0
DICTIONARY
  5
BE
102
{ACAD_REACTORS
330
C
102
}
330
C
100
AcDbDictionary
281
     1
  0
DICTIONARY
  5
D
102
{ACAD_REACTORS
330
C
102
}
330
C
100
AcDbDictionary
281
     1
  0
DICTIONARY
  5
1A
102
{ACAD_REACTORS
330
C
102
}
330
C
100
AcDbDictionary
281
     1
  3
Model
350
22
  3
配置1
350
1E
  3
配置2
350
26
  0
DICTIONARY
  5
BD
102
{ACAD_REACTORS
330
C
102
}
330
C
100
AcDbDictionary
281
     1
  0
DICTIONARY
  5
17
102
{ACAD_REACTORS
330
C
102
}
330
C
100
AcDbDictionary
281
     1
  3
Standard
350
18
  0
DICTIONARY
  5
19
102
{ACAD_REACTORS
330
C
102
}
330
C
100
AcDbDictionary
281
     1
  0
ACDBDICTIONARYWDFLT
  5
E
102
{ACAD_REACTORS
330
C
102
}
330
C
100
AcDbDictionary
281
     1
  3
Normal
350
F
100
AcDbDictionaryWithDefault
340
F
  0
DICTIONARY
  5
11A
102
{ACAD_REACTORS
330
C
102
}
330
C
100
AcDbDictionary
281
     1
  3
Standard
350
11B
  0
DICTIONARY
  5
172E
102
{ACAD_REACTORS
330
C
102
}
330
C
100
AcDbDictionary
281
     1
  0
DICTIONARY
  5
94
102
{ACAD_REACTORS
330
C
102
}
330
C
100
AcDbDictionary
281
     1
  3
CTABLESTYLE
350
138
  3
DIMASSOC
350
96
  3
INDEXCTL
350
95
  3
PROJECTNAME
350
172B
  0
DICTIONARY
  5
5B
102
{ACAD_REACTORS
330
C
102
}
330
C
100
AcDbDictionary
281
     1
  3
AcmBOM
350
1B5
  3
AcmStdDictionary
350
61
  3
AMDTSECTSYM_ARROWCOLOR
350
123
  0
DICTIONARY
  5
41
102
{ACAD_REACTORS
330
C
102
}
330
C
100
AcDbDictionary
281
     1
  0
DICTIONARY
  5
1B8
102
{ACAD_REACTORS
330
C
102
}
330
C
100
AcDbDictionary
281
     1
  0
XRECORD
  5
172D
102
{ACAD_REACTORS
330
C
102
}
330
C
100
AcDbXrecord
280
     1
  1
DWGPROPS COOKIE
  2

  3

  4

  6

  7

  8

  9

300
AmdtFileType=84
301
=
302
=
303
=
304
=
305
=
306
=
307
=
308
=
309
=
 40
0.0264167361111111
 41
2454431.596737917
 42
2454431.623154294
  1

 90
        1
  0
DICTIONARY
  5
1431
102
{ACAD_REACTORS
330
3F9
102
}
330
3F9
100
AcDbDictionary
281
     1
  0
DICTIONARY
  5
B9E
102
{ACAD_REACTORS
330
3F9
102
}
330
3F9
100
AcDbDictionary
281
     1
  0
DICTIONARY
  5
1430
102
{ACAD_REACTORS
330
3F9
102
}
330
3F9
100
AcDbDictionary
281
     1
1001
ACAD
1000
<All
  0
DIMASSOC
  5
1116
102
{ACAD_REACTORS
330
1115
102
}
330
1115
100
AcDbDimAssoc
330
1108
 90
        3
 70
     0
 71
     0
  1
AcDbOsnapPointRef
 72
    13
331
DC9
 73
     0
 91
        0
 40
0.0
 10
0.0
 20
0.0
 30
2.000000000000000E+50
 75
     0
  1
AcDbOsnapPointRef
 72
     1
331
DCA
 73
     0
 91
        0
 40
0.0
 10
0.0
 20
0.0
 30
2.000000000000000E+50
 75
     0
  0
LAYOUT
  5
22
102
{ACAD_XDICTIONARY
360
1731
102
}
102
{ACAD_REACTORS
330
1A
102
}
330
1A
100
AcDbPlotSettings
  1

  2
\\RD\EPSON Stylus C63 Series單色
  4
A4
  6

 40
3.757083177566528
 41
3.757076978683471
 42
3.757080078125
 43
3.757080078125
 44
209.9733276367187
 45
296.9683227539062
 46
0.0
 47
0.0
 48
0.0
 49
0.0
140
0.0
141
0.0
142
1.0
143
0.3405120737814363
 70
 11952
 72
     1
 73
     0
 74
     0
  7
彩色出圖.ctb
 75
     0
147
2.936753428137963
148
-2047.07469463503
149
-1261.649717473083
100
AcDbLayout
  1
Model
 70
     1
 71
     0
 10
0.0
 20
0.0
 11
12.0
 21
9.0
 12
0.0
 22
0.0
 32
0.0
 14
0.0
 24
0.0
 34
0.0
 15
0.0
 25
0.0
 35
0.0
146
0.0
 13
0.0
 23
0.0
 33
0.0
 16
1.0
 26
0.0
 36
0.0
 17
0.0
 27
1.0
 37
0.0
 76
     0
330
1F
1001
ACAD_PSEXT
1000
\\RD\EPSON Stylus C63 Series單色
1000
EPSON Stylus C63 Series
1000
\\RD
1000

1070
     0
  0
LAYOUT
  5
1E
102
{ACAD_XDICTIONARY
360
172F
102
}
102
{ACAD_REACTORS
330
1A
102
}
330
1A
100
AcDbPlotSettings
  1

  2

  4

  6

 40
0.0
 41
0.0
 42
0.0
 43
0.0
 44
0.0
 45
0.0
 46
0.0
 47
0.0
 48
0.0
 49
0.0
140
0.0
141
0.0
142
1.0
143
1.0
 70
   688
 72
     0
 73
     0
 74
     5
  7
彩色出圖.ctb
 75
    16
147
1.0
148
0.0
149
0.0
100
AcDbLayout
  1
配置1
 70
     1
 71
     1
 10
0.0
 20
0.0
 11
420.0
 21
297.0
 12
0.0
 22
0.0
 32
0.0
 14
1.000000000000000E+20
 24
1.000000000000000E+20
 34
1.000000000000000E+20
 15
-1.000000000000000E+20
 25
-1.000000000000000E+20
 35
-1.000000000000000E+20
146
0.0
 13
0.0
 23
0.0
 33
0.0
 16
1.0
 26
0.0
 36
0.0
 17
0.0
 27
1.0
 37
0.0
 76
     0
330
1B
  0
LAYOUT
  5
26
102
{ACAD_XDICTIONARY
360
1733
102
}
102
{ACAD_REACTORS
330
1A
102
}
330
1A
100
AcDbPlotSettings
  1

  2

  4

  6

 40
0.0
 41
0.0
 42
0.0
 43
0.0
 44
0.0
 45
0.0
 46
0.0
 47
0.0
 48
0.0
 49
0.0
140
0.0
141
0.0
142
1.0
143
1.0
 70
   688
 72
     0
 73
     0
 74
     5
  7
彩色出圖.ctb
 75
    16
147
1.0
148
0.0
149
0.0
100
AcDbLayout
  1
配置2
 70
     1
 71
     2
 10
0.0
 20
0.0
 11
12.0
 21
9.0
 12
0.0
 22
0.0
 32
0.0
 14
0.0
 24
0.0
 34
0.0
 15
0.0
 25
0.0
 35
0.0
146
0.0
 13
0.0
 23
0.0
 33
0.0
 16
1.0
 26
0.0
 36
0.0
 17
0.0
 27
1.0
 37
0.0
 76
     0
330
23
  0
MLINESTYLE
  5
18
102
{ACAD_REACTORS
330
17
102
}
330
17
100
AcDbMlineStyle
  2
STANDARD
 70
     0
  3

 62
   256
 51
90.0
 52
90.0
 71
     2
 49
0.5
 62
   256
  6
BYLAYER
 49
-0.5
 62
   256
  6
BYLAYER
  0
ACDBPLACEHOLDER
  5
F
102
{ACAD_REACTORS
330
E
102
}
330
E
  0
TABLESTYLE
  5
11B
102
{ACAD_REACTORS
330
11A
102
}
330
11A
100
AcDbTableStyle
  3
Standard
 70
     0
 71
     0
 40
1.5
 41
1.5
280
     0
281
     0
  7
STANDARD
140
4.5
170
     2
 62
     0
 63
     7
283
     0
274
    -2
284
     1
 64
     0
275
    -2
285
     1
 65
     0
276
    -2
286
     1
 66
     0
277
    -2
287
     1
 67
     0
278
    -2
288
     1
 68
     0
279
    -2
289
     1
 69
     0
  7
STANDARD
140
6.0
170
     5
 62
     0
 63
     7
283
     0
274
    -2
284
     1
 64
     0
275
    -2
285
     1
 65
     0
276
    -2
286
     1
 66
     0
277
    -2
287
     1
 67
     0
278
    -2
288
     1
 68
     0
279
    -2
289
     1
 69
     0
  7
STANDARD
140
4.5
170
     5
 62
     0
 63
     7
283
     0
274
    -2
284
     1
 64
     0
275
    -2
285
     1
 65
     0
276
    -2
286
     1
 66
     0
277
    -2
287
     1
 67
     0
278
    -2
288
     1
 68
     0
279
    -2
289
     1
 69
     0
  0
DICTIONARYVAR
  5
138
102
{ACAD_REACTORS
330
94
102
}
330
94
100
DictionaryVariables
280
     0
  1
STANDARD
  0
DICTIONARYVAR
  5
96
102
{ACAD_REACTORS
330
94
102
}
330
94
100
DictionaryVariables
280
     0
  1
2
  0
DICTIONARYVAR
  5
95
102
{ACAD_REACTORS
330
94
102
}
330
94
100
DictionaryVariables
280
     0
  1
0
  0
DICTIONARYVAR
  5
172B
102
{ACAD_REACTORS
330
94
102
}
330
94
100
DictionaryVariables
280
     0
  1

  0
DICTIONARY
  5
1B5
102
{ACAD_REACTORS
330
5B
102
}
330
5B
100
AcDbDictionary
281
     1
  0
DICTIONARY
  5
61
102
{ACAD_REACTORS
330
5B
102
}
330
5B
100
AcDbDictionary
281
     1
  0
XRECORD
  5
123
102
{ACAD_REACTORS
330
5B
102
}
330
5B
100
AcDbXrecord
280
     1
 90
-1023410169
  0
DICTIONARY
  5
1731
330
22
100
AcDbDictionary
280
     1
281
     1
  3
ACAD_XREC_ROUNDTRIP
360
1732
  0
DICTIONARY
  5
172F
330
1E
100
AcDbDictionary
280
     1
281
     1
  3
ACAD_XREC_ROUNDTRIP
360
1730
  0
DICTIONARY
  5
1733
330
26
100
AcDbDictionary
280
     1
281
     1
  3
ACAD_XREC_ROUNDTRIP
360
1734
  0
XRECORD
  5
1732
102
{ACAD_REACTORS
330
1731
102
}
330
1731
100
AcDbXrecord
280
     1
102
SHADEPLOT
 70
     0
102
SHADEPLOTRESLEVEL
 70
     2
102
SHADEPLOTCUSTOMDPI
 70
   300
  0
XRECORD
  5
1730
102
{ACAD_REACTORS
330
172F
102
}
330
172F
100
AcDbXrecord
280
     1
102
SHADEPLOT
 70
     0
102
SHADEPLOTRESLEVEL
 70
     2
102
SHADEPLOTCUSTOMDPI
 70
   300
  0
XRECORD
  5
1734
102
{ACAD_REACTORS
330
1733
102
}
330
1733
100
AcDbXrecord
280
     1
102
SHADEPLOT
 70
     0
102
SHADEPLOTRESLEVEL
 70
     2
102
SHADEPLOTCUSTOMDPI
 70
   300
  0
ENDSEC
  0
EOF
