  0
SECTION
  2
HEADER
  9
$ACADVER
  1
AC1015
  9
$ACADMAINTVER
 70
    20
  9
$DWGCODEPAGE
  3
ANSI_950
  9
$INSBASE
 10
0.0
 20
0.0
 30
0.0
  9
$EXTMIN
 10
310.1628915947181
 20
92.44124831972362
 30
-19.51226911832668
  9
$EXTMAX
 10
846.4541985333589
 20
413.1770085511114
 30
255.574560478331
  9
$LIMMIN
 10
0.0
 20
0.0
  9
$LIMMAX
 10
420.0
 20
297.0
  9
$ORTHOMODE
 70
     0
  9
$REGENMODE
 70
     1
  9
$FILLMODE
 70
     1
  9
$QTEXTMODE
 70
     0
  9
$MIRRTEXT
 70
     1
  9
$LTSCALE
 40
1.0
  9
$ATTMODE
 70
     1
  9
$TEXTSIZE
 40
3.0
  9
$TRACEWID
 40
1.0
  9
$TEXTSTYLE
  7
STANDARD
  9
$CLAYER
  8
0
  9
$CELTYPE
  6
ByLayer
  9
$CECOLOR
 62
   256
  9
$CELTSCALE
 40
1.0
  9
$DISPSILH
 70
     0
  9
$DIMSCALE
 40
1.0
  9
$DIMASZ
 40
2.5
  9
$DIMEXO
 40
1.0
  9
$DIMDLI
 40
6.0
  9
$DIMRND
 40
0.0
  9
$DIMDLE
 40
0.0
  9
$DIMEXE
 40
1.5
  9
$DIMTP
 40
0.1
  9
$DIMTM
 40
0.1
  9
$DIMTXT
 40
3.0
  9
$DIMCEN
 40
0.0
  9
$DIMTSZ
 40
0.0
  9
$DIMTOL
 70
     0
  9
$DIMLIM
 70
     0
  9
$DIMTIH
 70
     0
  9
$DIMTOH
 70
     0
  9
$DIMSE1
 70
     0
  9
$DIMSE2
 70
     0
  9
$DIMTAD
 70
     1
  9
$DIMZIN
 70
     8
  9
$DIMBLK
  1

  9
$DIMASO
 70
     1
  9
$DIMSHO
 70
     1
  9
$DIMPOST
  1

  9
$DIMAPOST
  1
"
  9
$DIMALT
 70
     0
  9
$DIMALTD
 70
     2
  9
$DIMALTF
 40
0.0393701
  9
$DIMLFAC
 40
1.0
  9
$DIMTOFL
 70
     1
  9
$DIMTVP
 40
0.0
  9
$DIMTIX
 70
     0
  9
$DIMSOXD
 70
     0
  9
$DIMSAH
 70
     0
  9
$DIMBLK1
  1

  9
$DIMBLK2
  1

  9
$DIMSTYLE
  2
AM_ISO
  9
$DIMCLRD
 70
   256
  9
$DIMCLRE
 70
   256
  9
$DIMCLRT
 70
   256
  9
$DIMTFAC
 40
0.6
  9
$DIMGAP
 40
0.7
  9
$DIMJUST
 70
     0
  9
$DIMSD1
 70
     0
  9
$DIMSD2
 70
     0
  9
$DIMTOLJ
 70
     0
  9
$DIMTZIN
 70
     8
  9
$DIMALTZ
 70
     0
  9
$DIMALTTZ
 70
     0
  9
$DIMUPT
 70
     0
  9
$DIMDEC
 70
     2
  9
$DIMTDEC
 70
     8
  9
$DIMALTU
 70
     2
  9
$DIMALTTD
 70
     2
  9
$DIMTXSTY
  7
STANDARD
  9
$DIMAUNIT
 70
     0
  9
$DIMADEC
 70
     0
  9
$DIMALTRND
 40
0.0
  9
$DIMAZIN
 70
     2
  9
$DIMDSEP
 70
    46
  9
$DIMATFIT
 70
     3
  9
$DIMFRAC
 70
     0
  9
$DIMLDRBLK
  1

  9
$DIMLUNIT
 70
     2
  9
$DIMLWD
 70
    -1
  9
$DIMLWE
 70
    -1
  9
$DIMTMOVE
 70
     0
  9
$LUNITS
 70
     2
  9
$LUPREC
 70
     2
  9
$SKETCHINC
 40
1.0
  9
$FILLETRAD
 40
0.5
  9
$AUNITS
 70
     0
  9
$AUPREC
 70
     0
  9
$MENU
  1
.
  9
$ELEVATION
 40
0.0
  9
$PELEVATION
 40
0.0
  9
$THICKNESS
 40
0.0
  9
$LIMCHECK
 70
     0
  9
$CHAMFERA
 40
0.0
  9
$CHAMFERB
 40
0.0
  9
$CHAMFERC
 40
20.0
  9
$CHAMFERD
 40
0.0
  9
$SKPOLY
 70
     0
  9
$TDCREATE
 40
2453893.405110127
  9
$TDUCREATE
 40
2453893.071776794
  9
$TDUPDATE
 40
2454253.502095266
  9
$TDUUPDATE
 40
2454253.168761933
  9
$TDINDWG
 40
0.1394345139
  9
$TDUSRTIMER
 40
0.1394345139
  9
$USRTIMER
 70
     1
  9
$ANGBASE
 50
0.0
  9
$ANGDIR
 70
     0
  9
$PDMODE
 70
     0
  9
$PDSIZE
 40
0.0
  9
$PLINEWID
 40
0.0
  9
$SPLFRAME
 70
     0
  9
$SPLINETYPE
 70
     6
  9
$SPLINESEGS
 70
     8
  9
$HANDSEED
  5
2B6F
  9
$SURFTAB1
 70
     6
  9
$SURFTAB2
 70
     6
  9
$SURFTYPE
 70
     6
  9
$SURFU
 70
     6
  9
$SURFV
 70
     6
  9
$UCSBASE
  2

  9
$UCSNAME
  2

  9
$UCSORG
 10
0.0
 20
0.0
 30
0.0
  9
$UCSXDIR
 10
1.0
 20
0.0
 30
0.0
  9
$UCSYDIR
 10
0.0
 20
1.0
 30
0.0
  9
$UCSORTHOREF
  2

  9
$UCSORTHOVIEW
 70
     0
  9
$UCSORGTOP
 10
0.0
 20
0.0
 30
0.0
  9
$UCSORGBOTTOM
 10
0.0
 20
0.0
 30
0.0
  9
$UCSORGLEFT
 10
0.0
 20
0.0
 30
0.0
  9
$UCSORGRIGHT
 10
0.0
 20
0.0
 30
0.0
  9
$UCSORGFRONT
 10
0.0
 20
0.0
 30
0.0
  9
$UCSORGBACK
 10
0.0
 20
0.0
 30
0.0
  9
$PUCSBASE
  2

  9
$PUCSNAME
  2

  9
$PUCSORG
 10
0.0
 20
0.0
 30
0.0
  9
$PUCSXDIR
 10
1.0
 20
0.0
 30
0.0
  9
$PUCSYDIR
 10
0.0
 20
1.0
 30
0.0
  9
$PUCSORTHOREF
  2

  9
$PUCSORTHOVIEW
 70
     0
  9
$PUCSORGTOP
 10
0.0
 20
0.0
 30
0.0
  9
$PUCSORGBOTTOM
 10
0.0
 20
0.0
 30
0.0
  9
$PUCSORGLEFT
 10
0.0
 20
0.0
 30
0.0
  9
$PUCSORGRIGHT
 10
0.0
 20
0.0
 30
0.0
  9
$PUCSORGFRONT
 10
0.0
 20
0.0
 30
0.0
  9
$PUCSORGBACK
 10
0.0
 20
0.0
 30
0.0
  9
$USERI1
 70
     0
  9
$USERI2
 70
     0
  9
$USERI3
 70
     0
  9
$USERI4
 70
     0
  9
$USERI5
 70
     0
  9
$USERR1
 40
0.0
  9
$USERR2
 40
0.0
  9
$USERR3
 40
0.0
  9
$USERR4
 40
0.0
  9
$USERR5
 40
0.0
  9
$WORLDVIEW
 70
     1
  9
$SHADEDGE
 70
     3
  9
$SHADEDIF
 70
    70
  9
$TILEMODE
 70
     1
  9
$MAXACTVP
 70
    64
  9
$PINSBASE
 10
0.0
 20
0.0
 30
0.0
  9
$PLIMCHECK
 70
     0
  9
$PEXTMIN
 10
1.000000000000000E+20
 20
1.000000000000000E+20
 30
1.000000000000000E+20
  9
$PEXTMAX
 10
-1.000000000000000E+20
 20
-1.000000000000000E+20
 30
-1.000000000000000E+20
  9
$PLIMMIN
 10
0.0
 20
0.0
  9
$PLIMMAX
 10
420.0
 20
297.0
  9
$UNITMODE
 70
     0
  9
$VISRETAIN
 70
     1
  9
$PLINEGEN
 70
     0
  9
$PSLTSCALE
 70
     1
  9
$TREEDEPTH
 70
  3020
  9
$CMLSTYLE
  2
Standard
  9
$CMLJUST
 70
     0
  9
$CMLSCALE
 40
20.0
  9
$PROXYGRAPHICS
 70
     1
  9
$MEASUREMENT
 70
     1
  9
$CELWEIGHT
370
    -1
  9
$ENDCAPS
280
     0
  9
$JOINSTYLE
280
     0
  9
$LWDISPLAY
290
     0
  9
$INSUNITS
 70
     4
  9
$HYPERLINKBASE
  1

  9
$STYLESHEET
  1
彩色出圖.ctb
  9
$XEDIT
290
     1
  9
$CEPSNTYPE
380
     0
  9
$PSTYLEMODE
290
     1
  9
$FINGERPRINTGUID
  2
{03EB763F-4B33-40CA-A485-DA6785BD5963}
  9
$VERSIONGUID
  2
{5DCD3C0C-77A5-4168-87D1-B0BCE7C67161}
  9
$EXTNAMES
290
     1
  9
$PSVPSCALE
 40
0.0
  9
$OLESTARTUP
290
     0
  0
ENDSEC
  0
SECTION
  2
CLASSES
  0
CLASS
  1
ACDBDICTIONARYWDFLT
  2
AcDbDictionaryWithDefault
  3
ObjectDBX Classes
 90
        0
280
     0
281
     0
  0
CLASS
  1
ACDBPLACEHOLDER
  2
AcDbPlaceHolder
  3
ObjectDBX Classes
 90
        0
280
     0
281
     0
  0
CLASS
  1
LAYOUT
  2
AcDbLayout
  3
ObjectDBX Classes
 90
        0
280
     0
281
     0
  0
CLASS
  1
ACME_DOCUMENT
  2
AcMeDbDoc
  3
AcMeServices
 90
        0
280
     0
281
     0
  0
CLASS
  1
AMGSETTINGSOBJ
  2
AmgSettingsObj
  3
"AcadM|Product Description: AutoCAD Mechanical 2000|Company: Autodesk"
 90
        0
280
     0
281
     0
  0
CLASS
  1
ACMESCOPE
  2
AcMeScope
  3
AcMeServices
 90
        0
280
     0
281
     0
  0
CLASS
  1
ACMECOMMANDHISTORY
  2
AcMeCommandHistory
  3
AcMeServices
 90
        0
280
     0
281
     0
  0
CLASS
  1
ACIMSYSVARMAN
  2
AcImSysVarManager
  3
AcMeServices
 90
        0
280
     0
281
     0
  0
CLASS
  1
ACIMREALSYSVAR
  2
AcImRealSysVar
  3
AcMeServices
 90
        0
280
     0
281
     0
  0
CLASS
  1
ACIMINTSYSVAR
  2
AcImIntSysVar
  3
AcMeServices
 90
        0
280
     0
281
     0
  0
CLASS
  1
ACMEDRAWINGMAN
  2
AcMeDrawingMan
  3
AcMeServices
 90
        0
280
     0
281
     0
  0
CLASS
  1
ACMEVIEW
  2
AcMeView
  3
AcMeServices
 90
        0
280
     0
281
     0
  0
CLASS
  1
ACDBENTITYCACHE
  2
AcMeEntityCache
  3
AcMeServices
 90
        0
280
     0
281
     0
  0
CLASS
  1
GSMANAGER
  2
AcMeGSManager
  3
AcMeServices
 90
        0
280
     0
281
     0
  0
CLASS
  1
AMDTINTERNALREACTOR
  2
AmdtInternalReactor
  3
AcMeServices
 90
        0
280
     0
281
     0
  0
CLASS
  1
ACMESTATEMGR
  2
AcMeStateMgr
  3
AcMeServices
 90
        0
280
     0
281
     0
  0
CLASS
  1
ACGREFMASTER
  2
AcGrefMaster
  3
AcAttribServices
 90
        0
280
     0
281
     0
  0
CLASS
  1
ACME_DATABASE
  2
AcMeDbDatabase
  3
AcMeServices
 90
        0
280
     0
281
     0
  0
CLASS
  1
ACRFINSADJUSTERMGR
  2
AcRfInsAdjusterMgr
  3
AcMeServices
 90
        0
280
     0
281
     0
  0
CLASS
  1
ACGREFACADMASTER
  2
AcGrefacadMaster
  3
AcGrefServices
 90
        0
280
     0
281
     0
  0
CLASS
  1
AMIMASTER
  2
AmiMaster
  3
AmiServices
 90
        0
280
     0
281
     0
  0
CLASS
  1
ACMDATADICTIONARY
  2
AcmDataDictionary
  3
"AcmSymBB|Product Description: AutoCAD Mechanical 2004 DX|Company: Autodesk"
 90
        0
280
     0
281
     0
  0
CLASS
  1
ACMDATAENTRYBLOCK
  2
AcmDataEntryBlock
  3
"AcmSymBB|Product Description: AutoCAD Mechanical 2004 DX|Company: Autodesk"
 90
    32768
280
     0
281
     0
  0
CLASS
  1
ACIMSTRSYSVAR
  2
AcImStrSysVar
  3
AcMeServices
 90
        0
280
     0
281
     0
  0
CLASS
  1
ACMSTANDARDISO
  2
AcmStandardISO
  3
"Amdt_StdImp|Product Description: AutoCAD Mechanical 2004 DX|Company: Autodesk"
 90
        0
280
     0
281
     0
  0
CLASS
  1
AMGOBJPROPCFG
  2
AmgObjPropCfg
  3
"AmgLay|Product Description: AutoCAD Mechanical 2000|Company: Autodesk"
 90
        1
280
     0
281
     0
  0
CLASS
  1
AMDTEDGESTANDARDISO
  2
AmdtEdgeStdISO
  3
"Amdt_StdImp|Product Description: AutoCAD Mechanical 2004 DX|Company: Autodesk"
 90
    32768
280
     0
281
     0
  0
CLASS
  1
ACMSURFSTANDARDISO
  2
AcmSurfTextStdISO
  3
"Amdt_StdImp|Product Description: AutoCAD Mechanical 2004 DX|Company: Autodesk"
 90
        0
280
     0
281
     0
  0
CLASS
  1
ACMFCFSTANDARDISO
  2
AcmFCFStdISO
  3
"Amdt_StdImp|Product Description: AutoCAD Mechanical 2004 DX|Company: Autodesk"
 90
        0
280
     0
281
     0
  0
CLASS
  1
ACMWELDSTANDARDISO
  2
AcmWeldingStdISO
  3
"Amdt_StdImp|Product Description: AutoCAD Mechanical 2004 DX|Company: Autodesk"
 90
        0
280
     0
281
     0
  0
CLASS
  1
ACMIDSTANDARDISO
  2
AcmIdStdISO
  3
"Amdt_StdImp|Product Description: AutoCAD Mechanical 2004 DX|Company: Autodesk"
 90
        0
280
     0
281
     0
  0
CLASS
  1
ACMDATUMSTANDARDISO
  2
AcmDatumStdISO
  3
"Amdt_StdImp|Product Description: AutoCAD Mechanical 2004 DX|Company: Autodesk"
 90
        0
280
     0
281
     0
  0
CLASS
  1
ACMBOMSTANDARDISO
  2
AcmBOMStdISO
  3
"Amdt_StdImp|Product Description: AutoCAD Mechanical 2004 DX|Company: Autodesk"
 90
        0
280
     0
281
     0
  0
CLASS
  1
ACMDETAILSTANDARDISO
  2
AmdtDetailSymStdISO
  3
"Amdt_StdImp|Product Description: AutoCAD Mechanical 2004 DX|Company: Autodesk"
 90
        0
280
     0
281
     0
  0
CLASS
  1
ACMSECTIONSTANDARDISO
  2
AmdtSectionSymStdISO
  3
"Amdt_StdImp|Product Description: AutoCAD Mechanical 2004 DX|Company: Autodesk"
 90
        0
280
     0
281
     0
  0
CLASS
  1
ACMCENTERLINESTANDARDISO
  2
AmdtCenterLineStdISO
  3
"Amdt_StdImp|Product Description: AutoCAD Mechanical 2004 DX|Company: Autodesk"
 90
        0
280
     0
281
     0
  0
CLASS
  1
ACMNOTESTANDARDISO
  2
AmdtNoteStdISO
  3
"Amdt_StdImp|Product Description: AutoCAD Mechanical 2004 DX|Company: Autodesk"
 90
        0
280
     0
281
     0
  0
CLASS
  1
ACAMGLAYSTD
  2
AcAmgLayStd
  3
"AcAmgLayStd|Product Description: AutoCAD Mechanical 2000|Company: Autodesk"
 90
        0
280
     0
281
     0
  0
CLASS
  1
ACAMGDIMSTD
  2
AcAmgDimStd
  3
"AcAmgDimStd|Product Description: AutoCAD Mechanical 2000|Company: Autodesk"
 90
        0
280
     0
281
     0
  0
CLASS
  1
ACAMGHOLECHARTSTDISO
  2
AcAmgHoleChartStdISO
  3
ACMSYMBB_MODULE_NAME
 90
        0
280
     0
281
     0
  0
CLASS
  1
ACAMGTITLESTD
  2
AcAmgTitleStd
  3
"TITLEAPP"
 90
        0
280
     0
281
     0
  0
CLASS
  1
LAYER_INDEX
  2
AcDbLayerIndex
  3
ObjectDBX Classes
 90
    32768
280
     0
281
     0
  0
CLASS
  1
IDBUFFER
  2
AcDbIdBuffer
  3
ObjectDBX Classes
 90
    32768
280
     0
281
     0
  0
CLASS
  1
DICTIONARYVAR
  2
AcDbDictionaryVar
  3
ObjectDBX Classes
 90
        0
280
     0
281
     0
  0
CLASS
  1
AM_DRAWING_MGR
  2
AcDmDwgMgr
  3
AcMechDwgViewMgmt
 90
        0
280
     0
281
     0
  0
CLASS
  1
AM_DWG_DOCUMENT
  2
AcDmDwgDocument
  3
AcMechDwgViewMgmt
 90
        0
280
     0
281
     0
  0
CLASS
  1
AM_DWG_SHEET
  2
AcDmSheet
  3
AcMechDwgViewMgmt
 90
        0
280
     0
281
     0
  0
CLASS
  1
AM_VIEWDIMPARMAP
  2
AcDmViewDimParMap
  3
AcMechDwgViewMgmt
 90
        0
280
     0
281
     0
  0
CLASS
  1
AM_DWGMGR_NAME
  2
AcDmDwgMgrName
  3
AcMechDwgViewMgmt
 90
        0
280
     0
281
     0
  0
CLASS
  1
AMDTMENUSTATEMGR
  2
AmdtMenuStateMgr
  3
McadcomServices
 90
        0
280
     0
281
     0
  0
CLASS
  1
AMDTMCOMMENUSTATE
  2
AmdtMcomMenuState
  3
McadcomServices
 90
        0
280
     0
281
     0
  0
CLASS
  1
MAPIAMMOUDLE
  2
MApiAmModule
  3
MApiAmServices
 90
        0
280
     0
281
     0
  0
CLASS
  1
AMDTADMENUSTATE
  2
AmdtAdMenuState
  3
DesignerServices
 90
        0
280
     0
281
     0
  0
CLASS
  1
ADAPPL
  2
AcAdAppl
  3
DesignerServices
 90
        0
280
     0
281
     0
  0
CLASS
  1
DEPMGR
  2
AcAdDepMgr
  3
DesignerServices
 90
        0
280
     0
281
     0
  0
CLASS
  1
PARAMMGR
  2
AcAdParamMgr
  3
DesignerServices
 90
        0
280
     0
281
     0
  0
CLASS
  1
PARAMSCOPE
  2
AcAdParamScope
  3
DesignerServices
 90
        0
280
     0
281
     0
  0
CLASS
  1
NAMEDAPPL
  2
AcAdNamedAppl
  3
DesignerServices
 90
        0
280
     0
281
     0
  0
CLASS
  1
AMDTDMMENUSTATE
  2
AmdtDmMenuState
  3
AcMechDwgViewMgmt
 90
        0
280
     0
281
     0
  0
CLASS
  1
AMDTAMMENUSTATE
  2
AmdtAmMenuState
  3
DesignerAssemblies
 90
        0
280
     0
281
     0
  0
CLASS
  1
ACAMPROJECT
  2
AcAmProject
  3
DesignerAssemblies
 90
        0
280
     0
281
     0
  0
CLASS
  1
ACAMGRCOMPDEF
  2
AcAmGrCompDef
  3
DesignerAssemblies
 90
        0
280
     0
281
     0
  0
CLASS
  1
ACCMCONTEXT
  2
AcCmContext
  3
DesignerAssemblies
 90
        0
280
     0
281
     0
  0
CLASS
  1
ACAMCOMPDEF
  2
AcAmCompDef
  3
DesignerAssemblies
 90
        0
280
     0
281
     0
  0
CLASS
  1
ACAMCOMPDEFMGR
  2
AcAmCompDefMgr
  3
DesignerAssemblies
 90
        0
280
     0
281
     0
  0
CLASS
  1
AMCONTEXTMGR
  2
AcAmContextMgr
  3
DesignerAssemblies
 90
        0
280
     0
281
     0
  0
CLASS
  1
ACAMCONTEXTMODELER
  2
AcAmContextModeler
  3
DesignerAssemblies
 90
        0
280
     0
281
     0
  0
CLASS
  1
ACMTHREADLINESTANDARDISO
  2
AmdtThreadLineStdISO
  3
"Amdt_StdImp|Product Description: AutoCAD Mechanical 2004 DX|Company: Autodesk"
 90
        0
280
     0
281
     0
  0
CLASS
  1
CATALOGSTATE
  2
AcAmCatalogState
  3
DesignerAssemblies
 90
        0
280
     0
281
     0
  0
CLASS
  1
ACAMGRCOMPDEFSET
  2
AcAmGrCompDefSet
  3
DesignerAssemblies
 90
        0
280
     0
281
     0
  0
CLASS
  1
AMDTBROWSERDBTAB
  2
AmdtBrowserDbTab
  3
McadcomServices
 90
        0
280
     0
281
     0
  0
CLASS
  1
CBROWSERAPPOBJECT
  2
CBrowserAppObject
  3
McadcomServices
 90
        0
280
     0
281
     0
  0
CLASS
  1
DM_PLACEHOLDER
  2
AcDmSelsetPlaceholder
  3
AcMechDwgViewMgmt
 90
        0
280
     0
281
     0
  0
CLASS
  1
TABLESTYLE
  2
AcDbTableStyle
  3
ObjectDBX Classes
 90
     2047
280
     0
281
     0
  0
CLASS
  1
VAACXREFPANELOBJECT
  2
VaAcXREFPanelObject
  3
VAAC_ADDIN
 90
    32768
280
     0
281
     0
  0
CLASS
  1
VAACIMAGEINVENTORY
  2
VaAcImageInventory
  3
VAAC_ADDIN
 90
    32768
280
     0
281
     0
  0
CLASS
  1
AMDTNOTETEMPLATEDB
  2
AmdtNoteTemplateDB
  3
AMDT_STDIMP_MODULE_NAME
 90
        0
280
     0
281
     0
  0
CLASS
  1
ACMBOM
  2
AcmBom
  3
"AcmSymBB|Product Description: AutoCAD Mechanical 2004 DX|Company: Autodesk"
 90
    32768
280
     0
281
     0
  0
CLASS
  1
AMDTFORMULAUPDATEDISPATCHER
  2
AmdtFormulaUpdateDispatcher
  3
AcMeServices
 90
    32768
280
     0
281
     0
  0
CLASS
  1
ACMPARTLIST
  2
AcmPartList
  3
"AcmSymBB|Product Description: AutoCAD Mechanical 2004 DX|Company: Autodesk"
 90
    33791
280
     0
281
     1
  0
CLASS
  1
ACAMGFILTERDAT
  2
AcAmgFilterDat
  3
"AcadM|Product Description: AutoCAD Mechanical 2000|Company: Autodesk"
 90
    32768
280
     0
281
     0
  0
CLASS
  1
DIMASSOC
  2
AcDbDimAssoc
  3
"AcDbDimAssoc|Product Desc:     AcDim ARX App For Dimension|Company:          Autodesk, Inc.|WEB Address:      www.autodesk.com"
 90
        0
280
     0
281
     0
  0
CLASS
  1
SORTENTSTABLE
  2
AcDbSortentsTable
  3
ObjectDBX Classes
 90
        0
280
     0
281
     0
  0
CLASS
  1
ACRFATTGENMGR
  2
AcRfAttGeneralMgr
  3
AcAttribServices
 90
        0
280
     0
281
     0
  0
CLASS
  1
AMDTEDGESTANDARDISO13715
  2
AmdtEdgeStdISO13715
  3
"Amdt_StdImp|Product Description: AutoCAD Mechanical 2004 DX|Company: Autodesk"
 90
        0
280
     0
281
     0
  0
CLASS
  1
ACMSTANDARDANSI
  2
AcmStandardANSI
  3
"Amdt_StdImp|Product Description: AutoCAD Mechanical 2004 DX|Company: Autodesk"
 90
    32768
280
     0
281
     0
  0
CLASS
  1
ACMSURFSTANDARDANSI
  2
AcmSurfTextStdANSI
  3
"Amdt_StdImp|Product Description: AutoCAD Mechanical 2004 DX|Company: Autodesk"
 90
    32768
280
     0
281
     0
  0
CLASS
  1
ACMFCFSTANDARDANSI
  2
AcmFCFStdANSI
  3
"Amdt_StdImp|Product Description: AutoCAD Mechanical 2004 DX|Company: Autodesk"
 90
    32768
280
     0
281
     0
  0
CLASS
  1
ACMWELDSTANDARDANSI
  2
AcmWeldingStdANSI
  3
"Amdt_StdImp|Product Description: AutoCAD Mechanical 2004 DX|Company: Autodesk"
 90
    32768
280
     0
281
     0
  0
CLASS
  1
ACMIDSTANDARDANSI
  2
AcmIdStdANSI
  3
"Amdt_StdImp|Product Description: AutoCAD Mechanical 2004 DX|Company: Autodesk"
 90
    32768
280
     0
281
     0
  0
CLASS
  1
ACMDATUMSTANDARDANSI
  2
AcmDatumStdANSI
  3
"Amdt_StdImp|Product Description: AutoCAD Mechanical 2004 DX|Company: Autodesk"
 90
    32768
280
     0
281
     0
  0
CLASS
  1
ACMBOMSTANDARDANSI
  2
AcmBOMStdANSI
  3
"Amdt_StdImp|Product Description: AutoCAD Mechanical 2004 DX|Company: Autodesk"
 90
    32768
280
     0
281
     0
  0
CLASS
  1
ACMDETAILSTANDARDANSI
  2
AmdtDetailSymStdANSI
  3
"Amdt_StdImp|Product Description: AutoCAD Mechanical 2004 DX|Company: Autodesk"
 90
    32768
280
     0
281
     0
  0
CLASS
  1
ACMSECTIONSTANDARDANSI
  2
AmdtSectionSymStdANSI
  3
"Amdt_StdImp|Product Description: AutoCAD Mechanical 2004 DX|Company: Autodesk"
 90
    32768
280
     0
281
     0
  0
CLASS
  1
ACMCENTERLINESTANDARDANSI
  2
AmdtCenterLineStdANSI
  3
"Amdt_StdImp|Product Description: AutoCAD Mechanical 2004 DX|Company: Autodesk"
 90
    32768
280
     0
281
     0
  0
CLASS
  1
ACMTHREADLINESTANDARDANSI
  2
AmdtThreadLineStdANSI
  3
"Amdt_StdImp|Product Description: AutoCAD Mechanical 2004 DX|Company: Autodesk"
 90
    32768
280
     0
281
     0
  0
CLASS
  1
ACMNOTESTANDARDANSI
  2
AmdtNoteStdANSI
  3
"Amdt_StdImp|Product Description: AutoCAD Mechanical 2004 DX|Company: Autodesk"
 90
    32768
280
     0
281
     0
  0
CLASS
  1
ACAMGHOLECHARTSTDANSI
  2
AcAmgHoleChartStdANSI
  3
ACMSYMBB_MODULE_NAME
 90
    32768
280
     0
281
     0
  0
ENDSEC
  0
SECTION
  2
TABLES
  0
TABLE
  2
VPORT
  5
8
330
0
100
AcDbSymbolTable
 70
    14
  0
VPORT
  5
2B66
330
8
100
AcDbSymbolTableRecord
100
AcDbViewportTableRecord
  2
*Active
 70
     0
 10
0.0
 20
0.0
 11
1.0
 21
1.0
 12
578.3085450640385
 22
252.8091284354175
 13
0.0
 23
0.0
 14
2.5
 24
2.5
 15
10.0
 25
10.0
 16
0.0
 26
0.0
 36
1.0
 17
0.0
 27
0.0
 37
0.0
 40
324.3206961700096
 41
1.661684782608695
 42
50.0
 43
0.0
 44
0.0
 50
0.0
 51
0.0
 71
     0
 72
   100
 73
     1
 74
     3
 75
     0
 76
     0
 77
     0
 78
     0
281
     0
 65
     1
110
0.0
120
0.0
130
0.0
111
1.0
121
0.0
131
0.0
112
0.0
122
1.0
132
0.0
 79
     0
146
0.0
  0
ENDTAB
  0
TABLE
  2
LTYPE
  5
5
330
0
100
AcDbSymbolTable
 70
    16
  0
LTYPE
  5
14
330
5
100
AcDbSymbolTableRecord
100
AcDbLinetypeTableRecord
  2
ByBlock
 70
     0
  3

 72
    65
 73
     0
 40
0.0
  0
LTYPE
  5
15
330
5
100
AcDbSymbolTableRecord
100
AcDbLinetypeTableRecord
  2
ByLayer
 70
     0
  3

 72
    65
 73
     0
 40
0.0
  0
LTYPE
  5
16
330
5
100
AcDbSymbolTableRecord
100
AcDbLinetypeTableRecord
  2
Continuous
 70
     0
  3
Solid line
 72
    65
 73
     0
 40
0.0
  0
LTYPE
  5
64
330
5
100
AcDbSymbolTableRecord
100
AcDbLinetypeTableRecord
  2
AM_ISO02W050
 70
     0
  3
__ __ __ __ __ __ __ __ __ __ __ __ __ __ __
 72
    65
 73
     2
 40
7.5
 49
6.0
 74
     0
 49
-1.5
 74
     0
  0
LTYPE
  5
65
330
5
100
AcDbSymbolTableRecord
100
AcDbLinetypeTableRecord
  2
AM_ISO08W050
 70
     0
  3
____ . ____ . ____ . ____ . ____ . ____ . ____
 72
    65
 73
     4
 40
18.0
 49
12.0
 74
     0
 49
-1.5
 74
     0
 49
3.0
 74
     0
 49
-1.5
 74
     0
  0
LTYPE
  5
66
330
5
100
AcDbSymbolTableRecord
100
AcDbLinetypeTableRecord
  2
AM_ISO09W050
 70
     0
  3
_____ . . _____ . . _____ . . ____ .. ____
 72
    65
 73
     6
 40
22.5
 49
12.0
 74
     0
 49
-1.5
 74
     0
 49
3.0
 74
     0
 49
-1.5
 74
     0
 49
3.0
 74
     0
 49
-1.5
 74
     0
  0
LTYPE
  5
67
330
5
100
AcDbSymbolTableRecord
100
AcDbLinetypeTableRecord
  2
Amconstr
 70
     0
  3
_______________________
 72
    65
 73
     2
 40
9999.0
 49
9999.0
 74
     0
 49
0.0
 74
     0
  0
LTYPE
  5
68
330
5
100
AcDbSymbolTableRecord
100
AcDbLinetypeTableRecord
  2
AM_ISO08W050x2
 70
     0
  3
__ . __ . __ . __ . __ . __
 72
    65
 73
     4
 40
9.0
 49
6.0
 74
     0
 49
-0.75
 74
     0
 49
1.5
 74
     0
 49
-0.75
 74
     0
  0
LTYPE
  5
69
330
5
100
AcDbSymbolTableRecord
100
AcDbLinetypeTableRecord
  2
AM_ISO02W050x2
 70
     0
  3
 _ _ _ _ _ _ _ _ _ _ _ _
 72
    65
 73
     2
 40
3.75
 49
3.0
 74
     0
 49
-0.75
 74
     0
  0
LTYPE
  5
6C
330
5
100
AcDbSymbolTableRecord
100
AcDbLinetypeTableRecord
  2
Amzigzag
 70
     0
  3
/\/-/\/-/\/-/\/-/\/-/\/
 72
    65
 73
     2
 40
11.0001
 49
0.0001
 74
     4
 75
   135
340
6B
 46
0.04
 50
0.0
 44
0.0
 45
0.0
 49
-11.0
 74
     0
  0
LTYPE
  5
7A
330
5
100
AcDbSymbolTableRecord
100
AcDbLinetypeTableRecord
  2
ACISOWELD
 70
     0
  3
_ _ _ _ _
 72
    65
 73
     2
 40
2.0
 49
2.0
 74
     0
 49
-1.0
 74
     0
  0
LTYPE
  5
7B
330
5
100
AcDbSymbolTableRecord
100
AcDbLinetypeTableRecord
  2
ACISOTGB
 70
     0
  3
__ . . __ . .
 72
    65
 73
     6
 40
9.0
 49
4.0
 74
     0
 49
-1.0
 74
     0
 49
1.0
 74
     0
 49
-1.0
 74
     0
 49
1.0
 74
     0
 49
-1.0
 74
     0
  0
LTYPE
  5
7C
330
5
100
AcDbSymbolTableRecord
100
AcDbLinetypeTableRecord
  2
ACISOTGL
 70
     0
  3
_ _ _ _ _
 72
    65
 73
     2
 40
3.0
 49
2.0
 74
     0
 49
-1.0
 74
     0
  0
LTYPE
  5
7E
330
5
100
AcDbSymbolTableRecord
100
AcDbLinetypeTableRecord
  2
CENTER
 70
     0
  3
__ . __
 72
    65
 73
     4
 40
7.0
 49
4.0
 74
     0
 49
-1.0
 74
     0
 49
1.0
 74
     0
 49
-1.0
 74
     0
  0
LTYPE
  5
D8
330
5
100
AcDbSymbolTableRecord
100
AcDbLinetypeTableRecord
  2
HIDDEN
 70
     0
  3
Hidden __ __ __ __ __ __ __ __ __ __ __ __ __ _
 72
    65
 73
     2
 40
9.524999999999998
 49
6.349999999999999
 74
     0
 49
-3.174999999999999
 74
     0
  0
LTYPE
  5
D9
330
5
100
AcDbSymbolTableRecord
100
AcDbLinetypeTableRecord
  2
PHANTOM2
 70
     0
  3
Phantom (.5x) ___ _ _ ___ _ _ ___ _ _ ___ _ _
 72
    65
 73
     6
 40
31.75
 49
15.875
 74
     0
 49
-3.174999999999999
 74
     0
 49
3.174999999999999
 74
     0
 49
-3.174999999999999
 74
     0
 49
3.174999999999999
 74
     0
 49
-3.174999999999999
 74
     0
  0
ENDTAB
  0
TABLE
  2
LAYER
  5
2
102
{ACAD_XDICTIONARY
360
3F9
102
}
330
0
100
AcDbSymbolTable
 70
     6
  0
LAYER
  5
10
330
2
100
AcDbSymbolTableRecord
100
AcDbLayerTableRecord
  2
0
 70
     0
 62
     7
  6
Continuous
370
    -3
390
F
  0
LAYER
  5
A46
330
2
100
AcDbSymbolTableRecord
100
AcDbLayerTableRecord
  2
AM_VIS
 70
     0
 62
     7
  6
Continuous
370
    50
390
F
  0
LAYER
  5
ABD
330
2
100
AcDbSymbolTableRecord
100
AcDbLayerTableRecord
  2
AM_5
 70
     0
 62
     5
  6
Continuous
370
    50
390
F
  0
LAYER
  5
AD4
330
2
100
AcDbSymbolTableRecord
100
AcDbLayerTableRecord
  2
AM_7
 70
     0
 62
     1
  6
CENTER
370
    25
390
F
  0
LAYER
  5
B32
330
2
100
AcDbSymbolTableRecord
100
AcDbLayerTableRecord
  2
Defpoints
 70
     0
 62
     7
  6
Continuous
290
     0
370
    -3
390
F
  0
LAYER
  5
13FB
330
2
100
AcDbSymbolTableRecord
100
AcDbLayerTableRecord
  2
LOGO
 70
     0
 62
     7
  6
Continuous
370
    -3
390
F
  0
ENDTAB
  0
TABLE
  2
STYLE
  5
3
330
0
100
AcDbSymbolTable
 70
     8
  0
STYLE
  5
11
330
3
100
AcDbSymbolTableRecord
100
AcDbTextStyleTableRecord
  2
STANDARD
 70
     0
 40
0.0
 41
1.0
 50
0.0
 71
     0
 42
3.0
  3
ISOCP.SHX
  4
CHINESET.SHX
  0
STYLE
  5
6B
330
3
100
AcDbSymbolTableRecord
100
AcDbTextStyleTableRecord
  2

 70
     1
 40
0.0
 41
1.0
 50
0.0
 71
     0
 42
2.5
  3
ltypeshp.shx
  4

  0
STYLE
  5
6D
330
3
100
AcDbSymbolTableRecord
100
AcDbTextStyleTableRecord
  2
ACISOTS
 70
     0
 40
1.0
 41
1.0
 50
0.0
 71
     0
 42
1.0
  3
isocp.shx
  4
chineset.shx
  0
STYLE
  5
79
330
3
100
AcDbSymbolTableRecord
100
AcDbTextStyleTableRecord
  2
ACISOGDT
 70
     0
 40
0.0
 41
1.0
 50
0.0
 71
     0
 42
2.5
  3
amgdt.shx
  4
chineset.shx
  0
STYLE
  5
13FC
330
3
100
AcDbSymbolTableRecord
100
AcDbTextStyleTableRecord
  2
CHINESET
 70
     0
 40
0.0
 41
1.0
 50
0.0
 71
     0
 42
3.0
  3
simplex.shx
  4
CHINESET.SHX
  0
ENDTAB
  0
TABLE
  2
VIEW
  5
6
330
0
100
AcDbSymbolTable
 70
     0
  0
ENDTAB
  0
TABLE
  2
UCS
  5
7
330
0
100
AcDbSymbolTable
 70
     0
  0
ENDTAB
  0
TABLE
  2
APPID
  5
9
330
0
100
AcDbSymbolTable
 70
    21
  0
APPID
  5
12
330
9
100
AcDbSymbolTableRecord
100
AcDbRegAppTableRecord
  2
ACAD
 70
     0
  0
APPID
  5
46
330
9
100
AcDbSymbolTableRecord
100
AcDbRegAppTableRecord
  2
MCAD_NO_VIS
 70
     0
  0
APPID
  5
47
330
9
100
AcDbSymbolTableRecord
100
AcDbRegAppTableRecord
  2
ACAD_TEMP_GRAPHIC
 70
     0
  0
APPID
  5
58
330
9
100
AcDbSymbolTableRecord
100
AcDbRegAppTableRecord
  2
ACATTRIBSERVICES
 70
     0
  0
APPID
  5
EE
330
9
100
AcDbSymbolTableRecord
100
AcDbRegAppTableRecord
  2
AD_DRAW
 70
     0
  0
APPID
  5
10C
330
9
100
AcDbSymbolTableRecord
100
AcDbRegAppTableRecord
  2
DESIGNERASSEMBLIES
 70
     0
  0
APPID
  5
111
330
9
100
AcDbSymbolTableRecord
100
AcDbRegAppTableRecord
  2
ACADM_DIM_EDIT
 70
     0
  0
APPID
  5
112
330
9
100
AcDbSymbolTableRecord
100
AcDbRegAppTableRecord
  2
AMDT_DM_ADJ
 70
     0
  0
APPID
  5
22C
330
9
100
AcDbSymbolTableRecord
100
AcDbRegAppTableRecord
  2
ACAD_DSTYLE_DIMTEXT_FILL
 70
     0
  0
APPID
  5
452
330
9
100
AcDbSymbolTableRecord
100
AcDbRegAppTableRecord
  2
GENIUS_GENOENT_13
 70
     0
  0
APPID
  5
453
330
9
100
AcDbSymbolTableRecord
100
AcDbRegAppTableRecord
  2
GENIUS_GENOBJ-N-CRS_13
 70
     0
  0
APPID
  5
454
330
9
100
AcDbSymbolTableRecord
100
AcDbRegAppTableRecord
  2
GENIUS_GENOLIS_13
 70
     0
  0
APPID
  5
455
330
9
100
AcDbSymbolTableRecord
100
AcDbRegAppTableRecord
  2
GENIUS_GENODEF_13
 70
     0
  0
APPID
  5
456
330
9
100
AcDbSymbolTableRecord
100
AcDbRegAppTableRecord
  2
GENIUS_GENOREF_13
 70
     0
  0
APPID
  5
6F3
330
9
100
AcDbSymbolTableRecord
100
AcDbRegAppTableRecord
  2
ACAD_PSEXT
 70
     0
  0
APPID
  5
808
330
9
100
AcDbSymbolTableRecord
100
AcDbRegAppTableRecord
  2
GENIUS_GENDTOL_13
 70
     0
  0
APPID
  5
1257
330
9
100
AcDbSymbolTableRecord
100
AcDbRegAppTableRecord
  2
AcAecLayerStandard
 70
     0
  0
APPID
  5
13F7
330
9
100
AcDbSymbolTableRecord
100
AcDbRegAppTableRecord
  2
GENIUS_GENREC_14
 70
     0
  0
APPID
  5
13F8
330
9
100
AcDbSymbolTableRecord
100
AcDbRegAppTableRecord
  2
GENIUS_GENOBJ-N-REC_13
 70
     0
  0
APPID
  5
2A3E
330
9
100
AcDbSymbolTableRecord
100
AcDbRegAppTableRecord
  2
GENIUS_GENOBJ-N-CEN_13
 70
     0
  0
APPID
  5
2A3F
330
9
100
AcDbSymbolTableRecord
100
AcDbRegAppTableRecord
  2
GENIUS_GENCEN_19
 70
     0
  0
ENDTAB
  0
TABLE
  2
DIMSTYLE
  5
A
330
0
100
AcDbSymbolTable
 70
    15
100
AcDbDimStyleTable
 71
     3
340
81
340
8B
340
86
  0
DIMSTYLE
105
81
330
A
100
AcDbSymbolTableRecord
100
AcDbDimStyleTableRecord
  2
AM_ISO
 70
     0
  4
"
 41
2.5
 42
1.0
 43
6.0
 44
1.5
 47
0.1
 48
0.1
 73
     0
 74
     0
 77
     1
 78
     8
 79
     2
140
3.0
141
0.0
143
0.0393701
146
0.6
147
0.7
172
     1
176
   256
177
   256
178
   256
271
     2
272
     2
283
     0
284
     8
340
11
371
    -1
372
    -1
  0
DIMSTYLE
105
82
330
A
100
AcDbSymbolTableRecord
100
AcDbDimStyleTableRecord
  2
AM_ISO$3
 70
     0
  4
"
 41
2.5
 42
1.0
 43
6.0
 44
1.5
 47
0.1
 48
0.1
 73
     0
 77
     1
 78
     8
 79
     2
140
3.0
141
0.0
143
0.0393701
146
0.6
147
0.7
176
   256
177
   256
178
   256
271
     2
272
     2
283
     0
284
     8
288
     1
289
     0
340
11
371
    -1
372
    -1
  0
DIMSTYLE
105
83
330
A
100
AcDbSymbolTableRecord
100
AcDbDimStyleTableRecord
  2
AM_ISO$4
 70
     0
  4
"
 41
2.5
 42
1.0
 43
6.0
 44
1.5
 47
0.1
 48
0.1
 73
     0
 77
     1
 78
     8
 79
     2
140
3.0
141
0.0
143
0.0393701
146
0.6
147
0.7
176
   256
177
   256
178
   256
271
     2
272
     2
283
     0
284
     8
288
     1
289
     0
340
11
371
    -1
372
    -1
  0
DIMSTYLE
105
84
330
A
100
AcDbSymbolTableRecord
100
AcDbDimStyleTableRecord
  2
AM_ISO$6
 70
     0
  4
"
 41
2.5
 42
1.0
 43
6.0
 44
1.5
 47
0.1
 48
0.1
 73
     0
 74
     0
 78
     8
 79
     2
140
3.0
141
0.0
143
0.0393701
146
0.6
147
0.7
172
     1
176
   256
177
   256
178
   256
271
     2
272
     2
283
     0
284
     8
340
11
371
    -1
372
    -1
  0
DIMSTYLE
105
85
330
A
100
AcDbSymbolTableRecord
100
AcDbDimStyleTableRecord
  2
AM_ISO$7
 70
     0
  4
"
 41
2.5
 42
1.0
 43
6.0
 44
1.5
 47
0.1
 48
0.1
 73
     0
 74
     0
 77
     1
 78
     8
 79
     2
140
5.0
141
0.0
143
0.0393701
146
0.6
147
0.7
172
     1
176
   256
177
   256
178
   256
271
     2
272
     2
283
     0
284
     8
340
11
371
    -1
372
    -1
  0
DIMSTYLE
105
86
330
A
100
AcDbSymbolTableRecord
100
AcDbDimStyleTableRecord
  2
AM_ISO$SF
 70
     0
  4
"
 41
2.5
 42
1.0
 43
10.0
 44
1.0
 47
0.1
 48
0.1
 73
     0
 74
     0
 75
     1
 76
     1
 77
     1
 78
     8
 79
     2
140
3.5
141
0.0
143
0.0393701
146
0.71
147
1.5
172
     1
176
   256
177
   256
178
     2
271
     2
272
     3
274
     4
283
     0
284
     8
340
11
371
    -1
372
    -1
  0
DIMSTYLE
105
8B
330
A
100
AcDbSymbolTableRecord
100
AcDbDimStyleTableRecord
  2
AM_ISO$SH
 70
     0
  4
"
 41
2.5
 42
1.0
 43
10.0
 44
1.0
 47
0.1
 48
0.1
 73
     0
 74
     0
 75
     1
 76
     1
 77
     1
 78
     8
 79
     2
140
3.5
141
0.0
143
0.0393701
144
2.0
146
0.71
147
1.5
172
     1
173
     1
176
   256
177
   256
178
     2
271
     2
272
     3
274
     4
283
     0
284
     8
340
11
343
87
371
    -1
372
    -1
  0
DIMSTYLE
105
40B
102
{ACAD_REACTORS
330
137B
330
132E
330
13AE
330
1C1A
330
1C8C
330
1CB2
330
1CDC
330
1D06
330
1D30
330
1C40
330
1C66
330
1DA3
330
204A
330
2074
330
209E
330
20EA
330
2115
330
23CD
330
23CE
330
23CF
330
23D0
330
241D
330
2420
330
241E
330
241F
102
}
330
A
100
AcDbSymbolTableRecord
100
AcDbDimStyleTableRecord
  2
AM_ISO$0
 70
     0
  4
"
 41
2.5
 42
1.0
 43
6.0
 44
1.5
 47
0.1
 48
0.1
 73
     0
 74
     0
 77
     1
 78
     8
 79
     2
140
3.0
141
0.0
143
0.0393701
146
0.6
147
0.7
172
     1
176
   256
177
   256
178
   256
271
     2
272
     2
283
     0
284
     8
340
11
371
    -1
372
    -1
  0
ENDTAB
  0
TABLE
  2
BLOCK_RECORD
  5
1
330
0
100
AcDbSymbolTable
 70
    29
  0
BLOCK_RECORD
  5
1F
102
{ACAD_XDICTIONARY
360
8F
102
}
330
1
100
AcDbSymbolTableRecord
100
AcDbBlockTableRecord
  2
*Model_Space
340
22
  0
BLOCK_RECORD
  5
1B
330
1
100
AcDbSymbolTableRecord
100
AcDbBlockTableRecord
  2
*Paper_Space
340
1E
  0
BLOCK_RECORD
  5
23
330
1
100
AcDbSymbolTableRecord
100
AcDbBlockTableRecord
  2
*Paper_Space0
340
26
  0
BLOCK_RECORD
  5
87
330
1
100
AcDbSymbolTableRecord
100
AcDbBlockTableRecord
  2
GENAXEH
340
0
  0
BLOCK_RECORD
  5
132F
330
1
100
AcDbSymbolTableRecord
100
AcDbBlockTableRecord
  2
*D2
340
0
  0
BLOCK_RECORD
  5
137C
330
1
100
AcDbSymbolTableRecord
100
AcDbBlockTableRecord
  2
*D3
340
0
  0
BLOCK_RECORD
  5
13AF
330
1
100
AcDbSymbolTableRecord
100
AcDbBlockTableRecord
  2
*D4
340
0
  0
BLOCK_RECORD
  5
1C1B
330
1
100
AcDbSymbolTableRecord
100
AcDbBlockTableRecord
  2
*D5
340
0
  0
BLOCK_RECORD
  5
1C41
330
1
100
AcDbSymbolTableRecord
100
AcDbBlockTableRecord
  2
*D6
340
0
  0
BLOCK_RECORD
  5
1C67
330
1
100
AcDbSymbolTableRecord
100
AcDbBlockTableRecord
  2
*D7
340
0
  0
BLOCK_RECORD
  5
1C8D
330
1
100
AcDbSymbolTableRecord
100
AcDbBlockTableRecord
  2
*D8
340
0
  0
BLOCK_RECORD
  5
1CB3
330
1
100
AcDbSymbolTableRecord
100
AcDbBlockTableRecord
  2
*D9
340
0
  0
BLOCK_RECORD
  5
1CDD
330
1
100
AcDbSymbolTableRecord
100
AcDbBlockTableRecord
  2
*D10
340
0
  0
BLOCK_RECORD
  5
1D07
330
1
100
AcDbSymbolTableRecord
100
AcDbBlockTableRecord
  2
*D11
340
0
  0
BLOCK_RECORD
  5
1D31
330
1
100
AcDbSymbolTableRecord
100
AcDbBlockTableRecord
  2
*D12
340
0
  0
BLOCK_RECORD
  5
1DA4
330
1
100
AcDbSymbolTableRecord
100
AcDbBlockTableRecord
  2
*D13
340
0
  0
BLOCK_RECORD
  5
204B
330
1
100
AcDbSymbolTableRecord
100
AcDbBlockTableRecord
  2
*D14
340
0
  0
BLOCK_RECORD
  5
2075
330
1
100
AcDbSymbolTableRecord
100
AcDbBlockTableRecord
  2
*D15
340
0
  0
BLOCK_RECORD
  5
209F
330
1
100
AcDbSymbolTableRecord
100
AcDbBlockTableRecord
  2
*D16
340
0
  0
BLOCK_RECORD
  5
20EB
330
1
100
AcDbSymbolTableRecord
100
AcDbBlockTableRecord
  2
*D17
340
0
  0
BLOCK_RECORD
  5
2116
330
1
100
AcDbSymbolTableRecord
100
AcDbBlockTableRecord
  2
*D18
340
0
  0
BLOCK_RECORD
  5
2421
330
1
100
AcDbSymbolTableRecord
100
AcDbBlockTableRecord
  2
*D19
340
0
  0
BLOCK_RECORD
  5
242D
330
1
100
AcDbSymbolTableRecord
100
AcDbBlockTableRecord
  2
*D20
340
0
  0
BLOCK_RECORD
  5
2439
330
1
100
AcDbSymbolTableRecord
100
AcDbBlockTableRecord
  2
*D21
340
0
  0
BLOCK_RECORD
  5
2446
330
1
100
AcDbSymbolTableRecord
100
AcDbBlockTableRecord
  2
*D22
340
0
  0
BLOCK_RECORD
  5
2452
330
1
100
AcDbSymbolTableRecord
100
AcDbBlockTableRecord
  2
*D23
340
0
  0
BLOCK_RECORD
  5
245E
330
1
100
AcDbSymbolTableRecord
100
AcDbBlockTableRecord
  2
*D24
340
0
  0
BLOCK_RECORD
  5
246A
330
1
100
AcDbSymbolTableRecord
100
AcDbBlockTableRecord
  2
*D25
340
0
  0
BLOCK_RECORD
  5
2476
330
1
100
AcDbSymbolTableRecord
100
AcDbBlockTableRecord
  2
*D26
340
0
  0
ENDTAB
  0
ENDSEC
  0
SECTION
  2
BLOCKS
  0
BLOCK
  5
20
330
1F
100
AcDbEntity
  8
0
100
AcDbBlockBegin
  2
*Model_Space
 70
     0
 10
0.0
 20
0.0
 30
0.0
  3
*Model_Space
  1

  0
ENDBLK
  5
21
330
1F
100
AcDbEntity
  8
0
100
AcDbBlockEnd
  0
BLOCK
  5
1C
330
1B
100
AcDbEntity
 67
     1
  8
0
100
AcDbBlockBegin
  2
*Paper_Space
 70
     0
 10
0.0
 20
0.0
 30
0.0
  3
*Paper_Space
  1

  0
ENDBLK
  5
1D
330
1B
100
AcDbEntity
 67
     1
  8
0
100
AcDbBlockEnd
  0
BLOCK
  5
24
330
23
100
AcDbEntity
  8
0
100
AcDbBlockBegin
  2
*Paper_Space0
 70
     0
 10
0.0
 20
0.0
 30
0.0
  3
*Paper_Space0
  1

  0
ENDBLK
  5
25
330
23
100
AcDbEntity
  8
0
100
AcDbBlockEnd
  0
BLOCK
  5
89
330
87
100
AcDbEntity
  8
0
100
AcDbBlockBegin
  2
GENAXEH
 70
     0
 10
0.0
 20
0.0
 30
0.0
  3
GENAXEH
  1

  0
LINE
  5
88
330
87
100
AcDbEntity
  8
0
100
AcDbLine
 10
-1.0
 20
0.0
 30
0.0
 11
1.0
 21
0.0
 31
0.0
  0
ENDBLK
  5
8A
330
87
100
AcDbEntity
  8
0
100
AcDbBlockEnd
  0
BLOCK
  5
1339
330
132F
100
AcDbEntity
  8
0
100
AcDbBlockBegin
  2
*D2
 70
     1
 10
0.0
 20
0.0
 30
0.0
  3
*D2
  1

  0
LINE
  5
2A6F
330
132F
100
AcDbEntity
  8
AM_5
100
AcDbLine
 10
365.333440818782
 20
278.9297546117363
 30
0.0
 11
365.333440818782
 21
269.2003049143029
 31
0.0
  0
LINE
  5
2A70
330
132F
100
AcDbEntity
  8
AM_5
100
AcDbLine
 10
396.3334408187821
 20
278.9297546117363
 30
0.0
 11
396.3334408187821
 21
269.2003049143029
 31
0.0
  0
LINE
  5
2A71
330
132F
100
AcDbEntity
  8
AM_5
100
AcDbLine
 10
367.833440818782
 20
270.7003049143029
 30
0.0
 11
393.8334408187821
 21
270.7003049143029
 31
0.0
  0
SOLID
  5
2A72
330
132F
100
AcDbEntity
  8
AM_5
100
AcDbTrace
 10
367.833440818782
 20
271.1169715809696
 30
0.0
 11
367.833440818782
 21
270.2836382476363
 31
0.0
 12
365.333440818782
 22
270.7003049143029
 32
0.0
 13
365.333440818782
 23
270.7003049143029
 33
0.0
  0
SOLID
  5
2A73
330
132F
100
AcDbEntity
  8
AM_5
100
AcDbTrace
 10
393.8334408187821
 20
271.1169715809696
 30
0.0
 11
393.8334408187821
 21
270.2836382476363
 31
0.0
 12
396.3334408187821
 22
270.7003049143029
 32
0.0
 13
396.3334408187821
 23
270.7003049143029
 33
0.0
  0
MTEXT
  5
2A74
330
132F
100
AcDbEntity
  8
AM_5
100
AcDbMText
 10
380.833440818782
 20
272.9003049143029
 30
0.0
 40
3.0
 41
0.0
 71
     5
 72
     1
  1
31
 73
     1
 44
1.0
1001
ACAD
1000
MTEXTBEGIN
1070
    73
1070
     1
1070
    44
1040
1.0
1070
    74
1070
     0
1000
MTEXTEND
  0
POINT
  5
2A75
330
132F
100
AcDbEntity
  8
Defpoints
 62
     0
100
AcDbPoint
 10
365.333440818782
 20
279.9297546117363
 30
0.0
  0
POINT
  5
2A76
330
132F
100
AcDbEntity
  8
Defpoints
 62
     0
100
AcDbPoint
 10
396.3334408187821
 20
279.9297546117363
 30
0.0
  0
POINT
  5
2A77
330
132F
100
AcDbEntity
  8
Defpoints
 62
     0
100
AcDbPoint
 10
396.3334408187821
 20
270.7003049143029
 30
0.0
  0
ENDBLK
  5
133A
330
132F
100
AcDbEntity
  8
0
100
AcDbBlockEnd
  0
BLOCK
  5
1386
330
137C
100
AcDbEntity
  8
0
100
AcDbBlockBegin
  2
*D3
 70
     1
 10
0.0
 20
0.0
 30
0.0
  3
*D3
  1

  0
LINE
  5
2A8F
330
137C
100
AcDbEntity
  8
AM_5
100
AcDbLine
 10
416.4858066486947
 20
257.5838519796927
 30
0.0
 11
416.4858066486947
 21
267.4310636459094
 31
0.0
  0
LINE
  5
2A90
330
137C
100
AcDbEntity
  8
AM_5
100
AcDbLine
 10
452.9858066486948
 20
249.5838519796929
 30
0.0
 11
452.9858066486948
 21
267.4310636459094
 31
0.0
  0
LINE
  5
2A91
330
137C
100
AcDbEntity
  8
AM_5
100
AcDbLine
 10
418.9858066486947
 20
265.9310636459094
 30
0.0
 11
450.4858066486948
 21
265.9310636459094
 31
0.0
  0
SOLID
  5
2A92
330
137C
100
AcDbEntity
  8
AM_5
100
AcDbTrace
 10
418.9858066486947
 20
266.3477303125761
 30
0.0
 11
418.9858066486947
 21
265.5143969792427
 31
0.0
 12
416.4858066486947
 22
265.9310636459094
 32
0.0
 13
416.4858066486947
 23
265.9310636459094
 33
0.0
  0
SOLID
  5
2A93
330
137C
100
AcDbEntity
  8
AM_5
100
AcDbTrace
 10
450.4858066486948
 20
266.3477303125761
 30
0.0
 11
450.4858066486948
 21
265.5143969792427
 31
0.0
 12
452.9858066486948
 22
265.9310636459094
 32
0.0
 13
452.9858066486948
 23
265.9310636459094
 33
0.0
  0
MTEXT
  5
2A94
330
137C
100
AcDbEntity
  8
AM_5
100
AcDbMText
 10
434.7358066486948
 20
268.1310636459094
 30
0.0
 40
3.0
 41
0.0
 71
     5
 72
     1
  1
36.5
 73
     1
 44
1.0
1001
ACAD
1000
MTEXTBEGIN
1070
    73
1070
     1
1070
    44
1040
1.0
1070
    74
1070
     0
1000
MTEXTEND
  0
POINT
  5
2A95
330
137C
100
AcDbEntity
  8
Defpoints
 62
     0
100
AcDbPoint
 10
416.4858066486947
 20
256.5838519796927
 30
0.0
  0
POINT
  5
2A96
330
137C
100
AcDbEntity
  8
Defpoints
 62
     0
100
AcDbPoint
 10
452.9858066486948
 20
248.5838519796929
 30
0.0
  0
POINT
  5
2A97
330
137C
100
AcDbEntity
  8
Defpoints
 62
     0
100
AcDbPoint
 10
452.9858066486948
 20
265.9310636459094
 30
0.0
  0
ENDBLK
  5
1387
330
137C
100
AcDbEntity
  8
0
100
AcDbBlockEnd
  0
BLOCK
  5
13B9
330
13AF
100
AcDbEntity
  8
0
100
AcDbBlockBegin
  2
*D4
 70
     1
 10
0.0
 20
0.0
 30
0.0
  3
*D4
  1

  0
LINE
  5
29F1
330
13AF
100
AcDbEntity
  8
AM_5
100
AcDbLine
 10
365.333440818782
 20
226.5838519796927
 30
0.0
 11
352.833440818782
 21
226.5838519796927
 31
0.0
  0
LINE
  5
29F2
330
13AF
100
AcDbEntity
  8
AM_5
100
AcDbLine
 10
365.333440818782
 20
257.5838519796927
 30
0.0
 11
352.833440818782
 21
257.5838519796927
 31
0.0
  0
LINE
  5
29F3
330
13AF
100
AcDbEntity
  8
AM_5
100
AcDbLine
 10
354.333440818782
 20
229.0838519796927
 30
0.0
 11
354.333440818782
 21
255.0838519796926
 31
0.0
  0
SOLID
  5
29F4
330
13AF
100
AcDbEntity
  8
AM_5
100
AcDbTrace
 10
353.9167741521153
 20
229.0838519796927
 30
0.0
 11
354.7501074854487
 21
229.0838519796927
 31
0.0
 12
354.333440818782
 22
226.5838519796927
 32
0.0
 13
354.333440818782
 23
226.5838519796927
 33
0.0
  0
SOLID
  5
29F5
330
13AF
100
AcDbEntity
  8
AM_5
100
AcDbTrace
 10
353.9167741521153
 20
255.0838519796926
 30
0.0
 11
354.7501074854487
 21
255.0838519796926
 31
0.0
 12
354.333440818782
 22
257.5838519796927
 32
0.0
 13
354.333440818782
 23
257.5838519796927
 33
0.0
  0
MTEXT
  5
29F6
330
13AF
100
AcDbEntity
  8
AM_5
100
AcDbMText
 10
352.1334408187819
 20
242.0838519796927
 30
0.0
 40
3.0
 41
0.0
 71
     5
 72
     1
  1
31
 11
0.0000000000000001
 21
1.0
 31
0.0
 73
     1
 44
1.0
1001
ACAD
1000
MTEXTBEGIN
1070
    73
1070
     1
1070
    44
1040
1.0
1070
    74
1070
     0
1000
MTEXTEND
  0
POINT
  5
29F7
330
13AF
100
AcDbEntity
  8
Defpoints
 62
     0
100
AcDbPoint
 10
366.333440818782
 20
226.5838519796927
 30
0.0
  0
POINT
  5
29F8
330
13AF
100
AcDbEntity
  8
Defpoints
 62
     0
100
AcDbPoint
 10
366.333440818782
 20
257.5838519796927
 30
0.0
  0
POINT
  5
29F9
330
13AF
100
AcDbEntity
  8
Defpoints
 62
     0
100
AcDbPoint
 10
354.333440818782
 20
257.5838519796927
 30
0.0
  0
ENDBLK
  5
13BA
330
13AF
100
AcDbEntity
  8
0
100
AcDbBlockEnd
  0
BLOCK
  5
1C25
330
1C1B
100
AcDbEntity
  8
0
100
AcDbBlockBegin
  2
*D5
 70
     1
 10
0.0
 20
0.0
 30
0.0
  3
*D5
  1

  0
LINE
  5
2955
330
1C1B
100
AcDbEntity
  8
AM_5
100
AcDbLine
 10
534.6225018245397
 20
304.1738644612681
 30
0.0
 11
534.6225018245397
 21
293.6738644612681
 31
0.0
  0
LINE
  5
2956
330
1C1B
100
AcDbEntity
  8
AM_5
100
AcDbLine
 10
547.6225018245397
 20
319.0738644612681
 30
0.0
 11
547.6225018245397
 21
293.6738644612681
 31
0.0
  0
LINE
  5
2957
330
1C1B
100
AcDbEntity
  8
AM_5
100
AcDbLine
 10
537.1225018245397
 20
295.1738644612681
 30
0.0
 11
545.1225018245398
 21
295.1738644612681
 31
0.0
  0
SOLID
  5
2958
330
1C1B
100
AcDbEntity
  8
AM_5
100
AcDbTrace
 10
537.1225018245397
 20
295.5905311279348
 30
0.0
 11
537.1225018245397
 21
294.7571977946014
 31
0.0
 12
534.6225018245397
 22
295.1738644612681
 32
0.0
 13
534.6225018245397
 23
295.1738644612681
 33
0.0
  0
SOLID
  5
2959
330
1C1B
100
AcDbEntity
  8
AM_5
100
AcDbTrace
 10
545.1225018245398
 20
295.5905311279348
 30
0.0
 11
545.1225018245398
 21
294.7571977946014
 31
0.0
 12
547.6225018245397
 22
295.1738644612681
 32
0.0
 13
547.6225018245397
 23
295.1738644612681
 33
0.0
  0
MTEXT
  5
295A
330
1C1B
100
AcDbEntity
  8
AM_5
100
AcDbMText
 10
541.1225018245398
 20
297.373864461268
 30
0.0
 40
3.0
 41
0.0
 71
     5
 72
     1
  1
13
 73
     1
 44
1.0
1001
ACAD
1000
MTEXTBEGIN
1070
    73
1070
     1
1070
    44
1040
1.0
1070
    74
1070
     0
1000
MTEXTEND
  0
POINT
  5
295B
330
1C1B
100
AcDbEntity
  8
Defpoints
 62
     0
100
AcDbPoint
 10
534.6225018245397
 20
305.1738644612681
 30
0.0
  0
POINT
  5
295C
330
1C1B
100
AcDbEntity
  8
Defpoints
 62
     0
100
AcDbPoint
 10
547.6225018245397
 20
320.0738644612682
 30
0.0
  0
POINT
  5
295D
330
1C1B
100
AcDbEntity
  8
Defpoints
 62
     0
100
AcDbPoint
 10
547.6225018245397
 20
295.1738644612681
 30
0.0
  0
ENDBLK
  5
1C26
330
1C1B
100
AcDbEntity
  8
0
100
AcDbBlockEnd
  0
BLOCK
  5
1C4B
330
1C41
100
AcDbEntity
  8
0
100
AcDbBlockBegin
  2
*D6
 70
     1
 10
0.0
 20
0.0
 30
0.0
  3
*D6
  1

  0
LINE
  5
295E
330
1C41
100
AcDbEntity
  8
AM_5
100
AcDbLine
 10
537.2225018245398
 20
305.1738644612681
 30
0.0
 11
559.1225018245397
 21
305.1738644612681
 31
0.0
  0
LINE
  5
295F
330
1C41
100
AcDbEntity
  8
AM_5
100
AcDbLine
 10
546.6225018245397
 20
318.0738644612682
 30
0.0
 11
559.1225018245397
 21
318.0738644612682
 31
0.0
  0
LINE
  5
2960
330
1C41
100
AcDbEntity
  8
AM_5
100
AcDbLine
 10
557.6225018245398
 20
307.6738644612681
 30
0.0
 11
557.6225018245398
 21
315.5738644612682
 31
0.0
  0
SOLID
  5
2961
330
1C41
100
AcDbEntity
  8
AM_5
100
AcDbTrace
 10
557.2058351578731
 20
307.6738644612681
 30
0.0
 11
558.0391684912064
 21
307.6738644612681
 31
0.0
 12
557.6225018245398
 22
305.1738644612681
 32
0.0
 13
557.6225018245398
 23
305.1738644612681
 33
0.0
  0
SOLID
  5
2962
330
1C41
100
AcDbEntity
  8
AM_5
100
AcDbTrace
 10
557.2058351578731
 20
315.5738644612682
 30
0.0
 11
558.0391684912064
 21
315.5738644612682
 31
0.0
 12
557.6225018245398
 22
318.0738644612682
 32
0.0
 13
557.6225018245398
 23
318.0738644612682
 33
0.0
  0
MTEXT
  5
2963
330
1C41
100
AcDbEntity
  8
AM_5
100
AcDbMText
 10
555.4222065489491
 20
311.6238644612682
 30
0.0
 40
3.0
 41
0.0
 71
     5
 72
     1
  1
12.9
 11
0.0000000000000001
 21
1.0
 31
0.0
 73
     1
 44
1.0
1001
ACAD
1000
MTEXTBEGIN
1070
    73
1070
     1
1070
    44
1040
1.0
1070
    74
1070
     0
1000
MTEXTEND
  0
POINT
  5
2964
330
1C41
100
AcDbEntity
  8
Defpoints
 62
     0
100
AcDbPoint
 10
536.2225018245397
 20
305.1738644612681
 30
0.0
  0
POINT
  5
2965
330
1C41
100
AcDbEntity
  8
Defpoints
 62
     0
100
AcDbPoint
 10
545.6225018245397
 20
318.0738644612682
 30
0.0
  0
POINT
  5
2966
330
1C41
100
AcDbEntity
  8
Defpoints
 62
     0
100
AcDbPoint
 10
557.6225018245398
 20
318.0738644612682
 30
0.0
  0
ENDBLK
  5
1C4C
330
1C41
100
AcDbEntity
  8
0
100
AcDbBlockEnd
  0
BLOCK
  5
1C71
330
1C67
100
AcDbEntity
  8
0
100
AcDbBlockBegin
  2
*D7
 70
     1
 10
0.0
 20
0.0
 30
0.0
  3
*D7
  1

  0
LINE
  5
2967
330
1C67
100
AcDbEntity
  8
AM_5
100
AcDbLine
 10
546.6225018245397
 20
318.0738644612682
 30
0.0
 11
559.1225018245397
 21
318.0738644612682
 31
0.0
  0
LINE
  5
2968
330
1C67
100
AcDbEntity
  8
AM_5
100
AcDbLine
 10
548.6225018245398
 20
355.1738644612684
 30
0.0
 11
559.1225018245397
 21
355.1738644612684
 31
0.0
  0
LINE
  5
2969
330
1C67
100
AcDbEntity
  8
AM_5
100
AcDbLine
 10
557.6225018245398
 20
320.5738644612682
 30
0.0
 11
557.6225018245398
 21
352.6738644612684
 31
0.0
  0
SOLID
  5
296A
330
1C67
100
AcDbEntity
  8
AM_5
100
AcDbTrace
 10
557.2058351578731
 20
320.5738644612682
 30
0.0
 11
558.0391684912064
 21
320.5738644612682
 31
0.0
 12
557.6225018245398
 22
318.0738644612682
 32
0.0
 13
557.6225018245398
 23
318.0738644612682
 33
0.0
  0
SOLID
  5
296B
330
1C67
100
AcDbEntity
  8
AM_5
100
AcDbTrace
 10
557.2058351578731
 20
352.6738644612684
 30
0.0
 11
558.0391684912064
 21
352.6738644612684
 31
0.0
 12
557.6225018245398
 22
355.1738644612684
 32
0.0
 13
557.6225018245398
 23
355.1738644612684
 33
0.0
  0
MTEXT
  5
296C
330
1C67
100
AcDbEntity
  8
AM_5
100
AcDbMText
 10
555.4225018245396
 20
336.6238644612683
 30
0.0
 40
3.0
 41
0.0
 71
     5
 72
     1
  1
37.1
 11
0.0000000000000001
 21
1.0
 31
0.0
 73
     1
 44
1.0
1001
ACAD
1000
MTEXTBEGIN
1070
    73
1070
     1
1070
    44
1040
1.0
1070
    74
1070
     0
1000
MTEXTEND
  0
POINT
  5
296D
330
1C67
100
AcDbEntity
  8
Defpoints
 62
     0
100
AcDbPoint
 10
545.6225018245397
 20
318.0738644612682
 30
0.0
  0
POINT
  5
296E
330
1C67
100
AcDbEntity
  8
Defpoints
 62
     0
100
AcDbPoint
 10
547.6225018245397
 20
355.1738644612684
 30
0.0
  0
POINT
  5
296F
330
1C67
100
AcDbEntity
  8
Defpoints
 62
     0
100
AcDbPoint
 10
557.6225018245398
 20
355.1738644612684
 30
0.0
  0
ENDBLK
  5
1C72
330
1C67
100
AcDbEntity
  8
0
100
AcDbBlockEnd
  0
BLOCK
  5
1C97
330
1C8D
100
AcDbEntity
  8
0
100
AcDbBlockBegin
  2
*D8
 70
     1
 10
0.0
 20
0.0
 30
0.0
  3
*D8
  1

  0
LINE
  5
2970
330
1C8D
100
AcDbEntity
  8
AM_5
100
AcDbLine
 10
587.5786278372299
 20
307.2992599232671
 30
0.0
 11
587.5786278372299
 21
293.6738644612682
 31
0.0
  0
LINE
  5
2971
330
1C8D
100
AcDbEntity
  8
AM_5
100
AcDbLine
 10
607.57862783723
 20
307.3892599232672
 30
0.0
 11
607.57862783723
 21
293.6738644612682
 31
0.0
  0
LINE
  5
2972
330
1C8D
100
AcDbEntity
  8
AM_5
100
AcDbLine
 10
590.0786278372298
 20
295.1738644612682
 30
0.0
 11
605.0786278372299
 21
295.1738644612682
 31
0.0
  0
SOLID
  5
2973
330
1C8D
100
AcDbEntity
  8
AM_5
100
AcDbTrace
 10
590.0786278372298
 20
295.5905311279348
 30
0.0
 11
590.0786278372298
 21
294.7571977946015
 31
0.0
 12
587.5786278372299
 22
295.1738644612682
 32
0.0
 13
587.5786278372299
 23
295.1738644612682
 33
0.0
  0
SOLID
  5
2974
330
1C8D
100
AcDbEntity
  8
AM_5
100
AcDbTrace
 10
605.0786278372299
 20
295.5905311279348
 30
0.0
 11
605.0786278372299
 21
294.7571977946015
 31
0.0
 12
607.57862783723
 22
295.1738644612682
 32
0.0
 13
607.57862783723
 23
295.1738644612682
 33
0.0
  0
MTEXT
  5
2975
330
1C8D
100
AcDbEntity
  8
AM_5
100
AcDbMText
 10
597.5786278372299
 20
297.3741597368587
 30
0.0
 40
3.0
 41
0.0
 71
     5
 72
     1
  1
20
 73
     1
 44
1.0
1001
ACAD
1000
MTEXTBEGIN
1070
    73
1070
     1
1070
    44
1040
1.0
1070
    74
1070
     0
1000
MTEXTEND
  0
POINT
  5
2976
330
1C8D
100
AcDbEntity
  8
Defpoints
 62
     0
100
AcDbPoint
 10
587.5786278372299
 20
308.2992599232671
 30
0.0
  0
POINT
  5
2977
330
1C8D
100
AcDbEntity
  8
Defpoints
 62
     0
100
AcDbPoint
 10
607.57862783723
 20
308.3892599232672
 30
0.0
  0
POINT
  5
2978
330
1C8D
100
AcDbEntity
  8
Defpoints
 62
     0
100
AcDbPoint
 10
607.57862783723
 20
295.1738644612682
 30
0.0
  0
ENDBLK
  5
1C98
330
1C8D
100
AcDbEntity
  8
0
100
AcDbBlockEnd
  0
BLOCK
  5
1CBF
330
1CB3
100
AcDbEntity
  8
0
100
AcDbBlockBegin
  2
*D9
 70
     1
 10
0.0
 20
0.0
 30
0.0
  3
*D9
  1

  0
LINE
  5
2979
330
1CB3
100
AcDbEntity
  8
AM_5
100
AcDbLine
 10
586.5734695278081
 20
309.0738644612681
 30
0.0
 11
570.5734695278082
 21
309.0738644612681
 31
0.0
  0
LINE
  5
297A
330
1CB3
100
AcDbEntity
  8
AM_5
100
AcDbLine
 10
586.5734695278081
 20
313.2738644612682
 30
0.0
 11
570.5734695278082
 21
313.2738644612682
 31
0.0
  0
LINE
  5
297B
330
1CB3
100
AcDbEntity
  8
AM_5
100
AcDbLine
 10
572.0734695278082
 20
306.5738644612681
 30
0.0
 11
572.0734695278082
 21
304.0738644612682
 31
0.0
  0
LINE
  5
297C
330
1CB3
100
AcDbEntity
  8
AM_5
100
AcDbLine
 10
572.0734695278082
 20
315.7738644612682
 30
0.0
 11
572.0734695278082
 21
324.3540416266225
 31
0.0
  0
LINE
  5
297D
330
1CB3
100
AcDbEntity
  8
AM_5
100
AcDbLine
 10
572.0734695278082
 20
309.0738644612681
 30
0.0
 11
572.0734695278082
 21
313.2738644612682
 31
0.0
  0
SOLID
  5
297E
330
1CB3
100
AcDbEntity
  8
AM_5
100
AcDbTrace
 10
571.6568028611415
 20
306.5738644612681
 30
0.0
 11
572.4901361944748
 21
306.5738644612681
 31
0.0
 12
572.0734695278082
 22
309.0738644612681
 32
0.0
 13
572.0734695278082
 23
309.0738644612681
 33
0.0
  0
SOLID
  5
297F
330
1CB3
100
AcDbEntity
  8
AM_5
100
AcDbTrace
 10
571.6568028611415
 20
315.7738644612682
 30
0.0
 11
572.4901361944748
 21
315.7738644612682
 31
0.0
 12
572.0734695278082
 22
313.2738644612682
 32
0.0
 13
572.0734695278082
 23
313.2738644612682
 33
0.0
  0
MTEXT
  5
2980
330
1CB3
100
AcDbEntity
  8
AM_5
100
AcDbMText
 10
569.8731742522176
 20
321.3139530439454
 30
0.0
 40
3.0
 41
0.0
 71
     5
 72
     1
  1
4.2
 11
0.0000000000000001
 21
1.0
 31
0.0
 73
     1
 44
1.0
1001
ACAD
1000
MTEXTBEGIN
1070
    73
1070
     1
1070
    44
1040
1.0
1070
    74
1070
     0
1000
MTEXTEND
  0
POINT
  5
2981
330
1CB3
100
AcDbEntity
  8
Defpoints
 62
     0
100
AcDbPoint
 10
587.5734695278081
 20
309.0738644612681
 30
0.0
  0
POINT
  5
2982
330
1CB3
100
AcDbEntity
  8
Defpoints
 62
     0
100
AcDbPoint
 10
587.5734695278081
 20
313.2738644612682
 30
0.0
  0
POINT
  5
2983
330
1CB3
100
AcDbEntity
  8
Defpoints
 62
     0
100
AcDbPoint
 10
572.0734695278082
 20
313.2738644612682
 30
0.0
  0
ENDBLK
  5
1CC0
330
1CB3
100
AcDbEntity
  8
0
100
AcDbBlockEnd
  0
BLOCK
  5
1CE9
330
1CDD
100
AcDbEntity
  8
0
100
AcDbBlockBegin
  2
*D10
 70
     1
 10
0.0
 20
0.0
 30
0.0
  3
*D10
  1

  0
LINE
  5
2984
330
1CDD
100
AcDbEntity
  8
AM_5
100
AcDbLine
 10
582.5734695278082
 20
305.1738644612682
 30
0.0
 11
564.5734695278082
 21
305.1738644612682
 31
0.0
  0
LINE
  5
2985
330
1CDD
100
AcDbEntity
  8
AM_5
100
AcDbLine
 10
583.9482769644673
 20
311.1738644612682
 30
0.0
 11
564.5734695278082
 21
311.1738644612682
 31
0.0
  0
LINE
  5
2986
330
1CDD
100
AcDbEntity
  8
AM_5
100
AcDbLine
 10
566.0734695278082
 20
302.6738644612682
 30
0.0
 11
566.0734695278082
 21
300.1738644612682
 31
0.0
  0
LINE
  5
2987
330
1CDD
100
AcDbEntity
  8
AM_5
100
AcDbLine
 10
566.0734695278082
 20
313.6738644612682
 30
0.0
 11
566.0734695278082
 21
316.1738644612682
 31
0.0
  0
LINE
  5
2988
330
1CDD
100
AcDbEntity
  8
AM_5
100
AcDbLine
 10
566.0734695278082
 20
305.1738644612682
 30
0.0
 11
566.0734695278082
 21
311.1738644612682
 31
0.0
  0
SOLID
  5
2989
330
1CDD
100
AcDbEntity
  8
AM_5
100
AcDbTrace
 10
565.6568028611416
 20
302.6738644612682
 30
0.0
 11
566.4901361944749
 21
302.6738644612682
 31
0.0
 12
566.0734695278082
 22
305.1738644612682
 32
0.0
 13
566.0734695278082
 23
305.1738644612682
 33
0.0
  0
SOLID
  5
298A
330
1CDD
100
AcDbEntity
  8
AM_5
100
AcDbTrace
 10
565.6568028611416
 20
313.6738644612682
 30
0.0
 11
566.4901361944749
 21
313.6738644612682
 31
0.0
 12
566.0734695278082
 22
311.1738644612682
 32
0.0
 13
566.0734695278082
 23
311.1738644612682
 33
0.0
  0
MTEXT
  5
298B
330
1CDD
100
AcDbEntity
  8
AM_5
100
AcDbMText
 10
563.873469527808
 20
308.1738644612682
 30
0.0
 40
3.0
 41
0.0
 71
     5
 72
     1
  1
6
 11
0.0000000000000001
 21
1.0
 31
0.0
 73
     1
 44
1.0
1001
ACAD
1000
MTEXTBEGIN
1070
    73
1070
     1
1070
    44
1040
1.0
1070
    74
1070
     0
1000
MTEXTEND
  0
POINT
  5
298C
330
1CDD
100
AcDbEntity
  8
Defpoints
 62
     0
100
AcDbPoint
 10
583.5734695278082
 20
305.1738644612682
 30
0.0
  0
POINT
  5
298D
330
1CDD
100
AcDbEntity
  8
Defpoints
 62
     0
100
AcDbPoint
 10
584.9482769644673
 20
311.1738644612682
 30
0.0
  0
POINT
  5
298E
330
1CDD
100
AcDbEntity
  8
Defpoints
 62
     0
100
AcDbPoint
 10
566.0734695278082
 20
311.1738644612682
 30
0.0
  0
ENDBLK
  5
1CEA
330
1CDD
100
AcDbEntity
  8
0
100
AcDbBlockEnd
  0
BLOCK
  5
1D13
330
1D07
100
AcDbEntity
  8
0
100
AcDbBlockBegin
  2
*D11
 70
     1
 10
0.0
 20
0.0
 30
0.0
  3
*D11
  1

  0
LINE
  5
298F
330
1D07
100
AcDbEntity
  8
AM_5
100
AcDbLine
 10
608.5734695278081
 20
308.7638644612682
 30
0.0
 11
624.5734695278081
 21
308.7638644612682
 31
0.0
  0
LINE
  5
2990
330
1D07
100
AcDbEntity
  8
AM_5
100
AcDbLine
 10
608.57862783723
 20
313.7638569192625
 30
0.0
 11
624.5734695278081
 21
313.7638569192625
 31
0.0
  0
LINE
  5
2991
330
1D07
100
AcDbEntity
  8
AM_5
100
AcDbLine
 10
623.0734695278081
 20
306.2638644612682
 30
0.0
 11
623.0734695278081
 21
303.7638644612682
 31
0.0
  0
LINE
  5
2992
330
1D07
100
AcDbEntity
  8
AM_5
100
AcDbLine
 10
623.0734695278081
 20
316.2638569192625
 30
0.0
 11
623.0734695278081
 21
318.7638569192625
 31
0.0
  0
LINE
  5
2993
330
1D07
100
AcDbEntity
  8
AM_5
100
AcDbLine
 10
623.0734695278081
 20
308.7638644612682
 30
0.0
 11
623.0734695278081
 21
313.7638569192625
 31
0.0
  0
SOLID
  5
2994
330
1D07
100
AcDbEntity
  8
AM_5
100
AcDbTrace
 10
622.6568028611414
 20
306.2638644612682
 30
0.0
 11
623.4901361944747
 21
306.2638644612682
 31
0.0
 12
623.0734695278081
 22
308.7638644612682
 32
0.0
 13
623.0734695278081
 23
308.7638644612682
 33
0.0
  0
SOLID
  5
2995
330
1D07
100
AcDbEntity
  8
AM_5
100
AcDbTrace
 10
622.6568028611414
 20
316.2638569192625
 30
0.0
 11
623.4901361944747
 21
316.2638569192625
 31
0.0
 12
623.0734695278081
 22
313.7638569192625
 32
0.0
 13
623.0734695278081
 23
313.7638569192625
 33
0.0
  0
MTEXT
  5
2996
330
1D07
100
AcDbEntity
  8
AM_5
100
AcDbMText
 10
620.873469527808
 20
311.2638606902654
 30
0.0
 40
3.0
 41
0.0
 71
     5
 72
     1
  1
5
 11
0.0000000000000001
 21
1.0
 31
0.0
 73
     1
 44
1.0
1001
ACAD
1000
MTEXTBEGIN
1070
    73
1070
     1
1070
    44
1040
1.0
1070
    74
1070
     0
1000
MTEXTEND
  0
POINT
  5
2997
330
1D07
100
AcDbEntity
  8
Defpoints
 62
     0
100
AcDbPoint
 10
607.5734695278081
 20
308.7638644612682
 30
0.0
  0
POINT
  5
2998
330
1D07
100
AcDbEntity
  8
Defpoints
 62
     0
100
AcDbPoint
 10
607.57862783723
 20
313.7638569192625
 30
0.0
  0
POINT
  5
2999
330
1D07
100
AcDbEntity
  8
Defpoints
 62
     0
100
AcDbPoint
 10
623.0734695278081
 20
313.7638569192625
 30
0.0
  0
ENDBLK
  5
1D14
330
1D07
100
AcDbEntity
  8
0
100
AcDbBlockEnd
  0
BLOCK
  5
1D3B
330
1D31
100
AcDbEntity
  8
0
100
AcDbBlockBegin
  2
*D12
 70
     1
 10
0.0
 20
0.0
 30
0.0
  3
*D12
  1

  0
LINE
  5
299A
330
1D31
100
AcDbEntity
  8
AM_5
100
AcDbLine
 10
582.0734695278082
 20
305.6738644612682
 30
0.0
 11
582.0734695278082
 21
287.6738644612682
 31
0.0
  0
LINE
  5
299B
330
1D31
100
AcDbEntity
  8
AM_5
100
AcDbLine
 10
613.0734695278081
 20
305.6738644612682
 30
0.0
 11
613.0734695278081
 21
287.6738644612682
 31
0.0
  0
LINE
  5
299C
330
1D31
100
AcDbEntity
  8
AM_5
100
AcDbLine
 10
584.5734695278082
 20
289.1738644612682
 30
0.0
 11
610.5734695278081
 21
289.1738644612682
 31
0.0
  0
SOLID
  5
299D
330
1D31
100
AcDbEntity
  8
AM_5
100
AcDbTrace
 10
584.5734695278082
 20
289.5905311279349
 30
0.0
 11
584.5734695278082
 21
288.7571977946015
 31
0.0
 12
582.0734695278082
 22
289.1738644612682
 32
0.0
 13
582.0734695278082
 23
289.1738644612682
 33
0.0
  0
SOLID
  5
299E
330
1D31
100
AcDbEntity
  8
AM_5
100
AcDbTrace
 10
610.5734695278081
 20
289.5905311279349
 30
0.0
 11
610.5734695278081
 21
288.7571977946015
 31
0.0
 12
613.0734695278081
 22
289.1738644612682
 32
0.0
 13
613.0734695278081
 23
289.1738644612682
 33
0.0
  0
MTEXT
  5
299F
330
1D31
100
AcDbEntity
  8
AM_5
100
AcDbMText
 10
597.5734695278081
 20
291.3738644612682
 30
0.0
 40
3.0
 41
0.0
 71
     5
 72
     1
  1
31
 73
     1
 44
1.0
1001
ACAD
1000
MTEXTBEGIN
1070
    73
1070
     1
1070
    44
1040
1.0
1070
    74
1070
     0
1000
MTEXTEND
  0
POINT
  5
29A0
330
1D31
100
AcDbEntity
  8
Defpoints
 62
     0
100
AcDbPoint
 10
582.0734695278082
 20
306.6738644612682
 30
0.0
  0
POINT
  5
29A1
330
1D31
100
AcDbEntity
  8
Defpoints
 62
     0
100
AcDbPoint
 10
613.0734695278081
 20
306.6738644612682
 30
0.0
  0
POINT
  5
29A2
330
1D31
100
AcDbEntity
  8
Defpoints
 62
     0
100
AcDbPoint
 10
613.0734695278081
 20
289.1738644612682
 30
0.0
  0
ENDBLK
  5
1D3C
330
1D31
100
AcDbEntity
  8
0
100
AcDbBlockEnd
  0
BLOCK
  5
1DAE
330
1DA4
100
AcDbEntity
  8
0
100
AcDbBlockBegin
  2
*D13
 70
     1
 10
0.0
 20
0.0
 30
0.0
  3
*D13
  1

  0
LINE
  5
29A3
330
1DA4
100
AcDbEntity
  8
AM_5
100
AcDbLine
 10
612.5734695278081
 20
305.1738644612682
 30
0.0
 11
630.5734695278081
 21
305.1738644612682
 31
0.0
  0
LINE
  5
29A4
330
1DA4
100
AcDbEntity
  8
AM_5
100
AcDbLine
 10
612.5734695278081
 20
355.1738644612682
 30
0.0
 11
630.5734695278081
 21
355.1738644612682
 31
0.0
  0
LINE
  5
29A5
330
1DA4
100
AcDbEntity
  8
AM_5
100
AcDbLine
 10
629.0734695278081
 20
307.6738644612682
 30
0.0
 11
629.0734695278081
 21
352.6738644612682
 31
0.0
  0
SOLID
  5
29A6
330
1DA4
100
AcDbEntity
  8
AM_5
100
AcDbTrace
 10
628.6568028611415
 20
307.6738644612682
 30
0.0
 11
629.4901361944747
 21
307.6738644612682
 31
0.0
 12
629.0734695278081
 22
305.1738644612682
 32
0.0
 13
629.0734695278081
 23
305.1738644612682
 33
0.0
  0
SOLID
  5
29A7
330
1DA4
100
AcDbEntity
  8
AM_5
100
AcDbTrace
 10
628.6568028611415
 20
352.6738644612682
 30
0.0
 11
629.4901361944747
 21
352.6738644612682
 31
0.0
 12
629.0734695278081
 22
355.1738644612682
 32
0.0
 13
629.0734695278081
 23
355.1738644612682
 33
0.0
  0
MTEXT
  5
29A8
330
1DA4
100
AcDbEntity
  8
AM_5
100
AcDbMText
 10
626.8734695278079
 20
330.1738644612683
 30
0.0
 40
3.0
 41
0.0
 71
     5
 72
     1
  1
50
 11
0.0000000000000001
 21
1.0
 31
0.0
 73
     1
 44
1.0
1001
ACAD
1000
MTEXTBEGIN
1070
    73
1070
     1
1070
    44
1040
1.0
1070
    74
1070
     0
1000
MTEXTEND
  0
POINT
  5
29A9
330
1DA4
100
AcDbEntity
  8
Defpoints
 62
     0
100
AcDbPoint
 10
611.5734695278081
 20
305.1738644612682
 30
0.0
  0
POINT
  5
29AA
330
1DA4
100
AcDbEntity
  8
Defpoints
 62
     0
100
AcDbPoint
 10
611.5734695278081
 20
355.1738644612682
 30
0.0
  0
POINT
  5
29AB
330
1DA4
100
AcDbEntity
  8
Defpoints
 62
     0
100
AcDbPoint
 10
629.0734695278081
 20
355.1738644612682
 30
0.0
  0
ENDBLK
  5
1DAF
330
1DA4
100
AcDbEntity
  8
0
100
AcDbBlockEnd
  0
BLOCK
  5
2057
330
204B
100
AcDbEntity
  8
0
100
AcDbBlockBegin
  2
*D14
 70
     1
 10
0.0
 20
0.0
 30
0.0
  3
*D14
  1

  0
LINE
  5
29AC
330
204B
100
AcDbEntity
  8
AM_5
100
AcDbLine
 10
770.8805680691125
 20
356.6424140638711
 30
0.0
 11
783.3805680691125
 21
356.6424140638711
 31
0.0
  0
LINE
  5
29AD
330
204B
100
AcDbEntity
  8
AM_5
100
AcDbLine
 10
770.8805680691125
 20
361.6424140638711
 30
0.0
 11
783.3805680691125
 21
361.6424140638711
 31
0.0
  0
LINE
  5
29AE
330
204B
100
AcDbEntity
  8
AM_5
100
AcDbLine
 10
781.8805680691125
 20
354.1424140638711
 30
0.0
 11
781.8805680691125
 21
351.6424140638711
 31
0.0
  0
LINE
  5
29AF
330
204B
100
AcDbEntity
  8
AM_5
100
AcDbLine
 10
781.8805680691125
 20
364.1424140638711
 30
0.0
 11
781.8805680691125
 21
366.6424140638711
 31
0.0
  0
LINE
  5
29B0
330
204B
100
AcDbEntity
  8
AM_5
100
AcDbLine
 10
781.8805680691125
 20
356.6424140638711
 30
0.0
 11
781.8805680691125
 21
361.6424140638711
 31
0.0
  0
SOLID
  5
29B1
330
204B
100
AcDbEntity
  8
AM_5
100
AcDbTrace
 10
781.4639014024459
 20
354.1424140638711
 30
0.0
 11
782.2972347357791
 21
354.1424140638711
 31
0.0
 12
781.8805680691125
 22
356.6424140638711
 32
0.0
 13
781.8805680691125
 23
356.6424140638711
 33
0.0
  0
SOLID
  5
29B2
330
204B
100
AcDbEntity
  8
AM_5
100
AcDbTrace
 10
781.4639014024459
 20
364.1424140638711
 30
0.0
 11
782.2972347357791
 21
364.1424140638711
 31
0.0
 12
781.8805680691125
 22
361.6424140638711
 32
0.0
 13
781.8805680691125
 23
361.6424140638711
 33
0.0
  0
MTEXT
  5
29B3
330
204B
100
AcDbEntity
  8
AM_5
100
AcDbMText
 10
779.6805680691123
 20
359.1424140638712
 30
0.0
 40
3.0
 41
0.0
 71
     5
 72
     1
  1
5
 11
0.0000000000000001
 21
1.0
 31
0.0
 73
     1
 44
1.0
1001
ACAD
1000
MTEXTBEGIN
1070
    73
1070
     1
1070
    44
1040
1.0
1070
    74
1070
     0
1000
MTEXTEND
  0
POINT
  5
29B4
330
204B
100
AcDbEntity
  8
Defpoints
 62
     0
100
AcDbPoint
 10
769.8805680691125
 20
356.6424140638711
 30
0.0
  0
POINT
  5
29B5
330
204B
100
AcDbEntity
  8
Defpoints
 62
     0
100
AcDbPoint
 10
769.8805680691125
 20
361.6424140638711
 30
0.0
  0
POINT
  5
29B6
330
204B
100
AcDbEntity
  8
Defpoints
 62
     0
100
AcDbPoint
 10
781.8805680691125
 20
361.6424140638711
 30
0.0
  0
ENDBLK
  5
2058
330
204B
100
AcDbEntity
  8
0
100
AcDbBlockEnd
  0
BLOCK
  5
2081
330
2075
100
AcDbEntity
  8
0
100
AcDbBlockBegin
  2
*D15
 70
     1
 10
0.0
 20
0.0
 30
0.0
  3
*D15
  1

  0
LINE
  5
29B7
330
2075
100
AcDbEntity
  8
AM_5
100
AcDbLine
 10
743.8805680691123
 20
361.2372557544495
 30
0.0
 11
731.3805680691123
 21
361.2372557544495
 31
0.0
  0
LINE
  5
29B8
330
2075
100
AcDbEntity
  8
AM_5
100
AcDbLine
 10
743.8805680691123
 20
357.0372557544495
 30
0.0
 11
731.3805680691123
 21
357.0372557544495
 31
0.0
  0
LINE
  5
29B9
330
2075
100
AcDbEntity
  8
AM_5
100
AcDbLine
 10
732.8805680691123
 20
363.7372557544495
 30
0.0
 11
732.8805680691123
 21
366.2372557544495
 31
0.0
  0
LINE
  5
29BA
330
2075
100
AcDbEntity
  8
AM_5
100
AcDbLine
 10
732.8805680691123
 20
354.5372557544494
 30
0.0
 11
732.8805680691123
 21
345.9570785890952
 31
0.0
  0
LINE
  5
29BB
330
2075
100
AcDbEntity
  8
AM_5
100
AcDbLine
 10
732.8805680691123
 20
361.2372557544495
 30
0.0
 11
732.8805680691123
 21
357.0372557544495
 31
0.0
  0
SOLID
  5
29BC
330
2075
100
AcDbEntity
  8
AM_5
100
AcDbTrace
 10
732.4639014024456
 20
363.7372557544495
 30
0.0
 11
733.2972347357789
 21
363.7372557544495
 31
0.0
 12
732.8805680691123
 22
361.2372557544495
 32
0.0
 13
732.8805680691123
 23
361.2372557544495
 33
0.0
  0
SOLID
  5
29BD
330
2075
100
AcDbEntity
  8
AM_5
100
AcDbTrace
 10
732.4639014024456
 20
354.5372557544494
 30
0.0
 11
733.2972347357789
 21
354.5372557544494
 31
0.0
 12
732.8805680691123
 22
357.0372557544495
 32
0.0
 13
732.8805680691123
 23
357.0372557544495
 33
0.0
  0
MTEXT
  5
29BE
330
2075
100
AcDbEntity
  8
AM_5
100
AcDbMText
 10
730.6802727935217
 20
348.9971671717724
 30
0.0
 40
3.0
 41
0.0
 71
     5
 72
     1
  1
4.2
 11
0.0000000000000001
 21
1.0
 31
0.0
 73
     1
 44
1.0
1001
ACAD
1000
MTEXTBEGIN
1070
    73
1070
     1
1070
    44
1040
1.0
1070
    74
1070
     0
1000
MTEXTEND
  0
POINT
  5
29BF
330
2075
100
AcDbEntity
  8
Defpoints
 62
     0
100
AcDbPoint
 10
744.8805680691123
 20
361.2372557544495
 30
0.0
  0
POINT
  5
29C0
330
2075
100
AcDbEntity
  8
Defpoints
 62
     0
100
AcDbPoint
 10
744.8805680691123
 20
357.0372557544495
 30
0.0
  0
POINT
  5
29C1
330
2075
100
AcDbEntity
  8
Defpoints
 62
     0
100
AcDbPoint
 10
732.8805680691123
 20
357.0372557544495
 30
0.0
  0
ENDBLK
  5
2082
330
2075
100
AcDbEntity
  8
0
100
AcDbBlockEnd
  0
BLOCK
  5
20A9
330
209F
100
AcDbEntity
  8
0
100
AcDbBlockBegin
  2
*D16
 70
     1
 10
0.0
 20
0.0
 30
0.0
  3
*D16
  1

  0
LINE
  5
29C2
330
209F
100
AcDbEntity
  8
AM_5
100
AcDbLine
 10
744.8805680691123
 20
363.0118602924505
 30
0.0
 11
744.8805680691123
 21
375.5118602924505
 31
0.0
  0
LINE
  5
29C3
330
209F
100
AcDbEntity
  8
AM_5
100
AcDbLine
 10
769.8805680691123
 20
363.0118602924505
 30
0.0
 11
769.8805680691123
 21
375.5118602924505
 31
0.0
  0
LINE
  5
29C4
330
209F
100
AcDbEntity
  8
AM_5
100
AcDbLine
 10
747.3805680691123
 20
374.0118602924505
 30
0.0
 11
767.3805680691123
 21
374.0118602924505
 31
0.0
  0
SOLID
  5
29C5
330
209F
100
AcDbEntity
  8
AM_5
100
AcDbTrace
 10
747.3805680691123
 20
374.4285269591172
 30
0.0
 11
747.3805680691123
 21
373.5951936257838
 31
0.0
 12
744.8805680691123
 22
374.0118602924505
 32
0.0
 13
744.8805680691123
 23
374.0118602924505
 33
0.0
  0
SOLID
  5
29C6
330
209F
100
AcDbEntity
  8
AM_5
100
AcDbTrace
 10
767.3805680691123
 20
374.4285269591172
 30
0.0
 11
767.3805680691123
 21
373.5951936257838
 31
0.0
 12
769.8805680691123
 22
374.0118602924505
 32
0.0
 13
769.8805680691123
 23
374.0118602924505
 33
0.0
  0
MTEXT
  5
29C7
330
209F
100
AcDbEntity
  8
AM_5
100
AcDbMText
 10
757.3805680691123
 20
376.2121555680411
 30
0.0
 40
3.0
 41
0.0
 71
     5
 72
     1
  1
25
 73
     1
 44
1.0
1001
ACAD
1000
MTEXTBEGIN
1070
    73
1070
     1
1070
    44
1040
1.0
1070
    74
1070
     0
1000
MTEXTEND
  0
POINT
  5
29C8
330
209F
100
AcDbEntity
  8
Defpoints
 62
     0
100
AcDbPoint
 10
744.8805680691123
 20
362.0118602924505
 30
0.0
  0
POINT
  5
29C9
330
209F
100
AcDbEntity
  8
Defpoints
 62
     0
100
AcDbPoint
 10
769.8805680691123
 20
362.0118602924505
 30
0.0
  0
POINT
  5
29CA
330
209F
100
AcDbEntity
  8
Defpoints
 62
     0
100
AcDbPoint
 10
769.8805680691123
 20
374.0118602924505
 30
0.0
  0
ENDBLK
  5
20AA
330
209F
100
AcDbEntity
  8
0
100
AcDbBlockEnd
  0
BLOCK
  5
20F5
330
20EB
100
AcDbEntity
  8
0
100
AcDbBlockBegin
  2
*D17
 70
     1
 10
0.0
 20
0.0
 30
0.0
  3
*D17
  1

  0
LINE
  5
29CB
330
20EB
100
AcDbEntity
  8
AM_5
100
AcDbLine
 10
736.3857263785341
 20
292.1572336096193
 30
0.0
 11
723.8857263785341
 21
292.1572336096193
 31
0.0
  0
LINE
  5
29CC
330
20EB
100
AcDbEntity
  8
AM_5
100
AcDbLine
 10
742.8857263785341
 20
337.6572336096193
 30
0.0
 11
723.8857263785341
 21
337.6572336096193
 31
0.0
  0
LINE
  5
29CD
330
20EB
100
AcDbEntity
  8
AM_5
100
AcDbLine
 10
725.3857263785342
 20
294.6572336096193
 30
0.0
 11
725.3857263785342
 21
335.1572336096193
 31
0.0
  0
SOLID
  5
29CE
330
20EB
100
AcDbEntity
  8
AM_5
100
AcDbTrace
 10
724.9690597118675
 20
294.6572336096193
 30
0.0
 11
725.8023930452008
 21
294.6572336096193
 31
0.0
 12
725.3857263785342
 22
292.1572336096193
 32
0.0
 13
725.3857263785342
 23
292.1572336096193
 33
0.0
  0
SOLID
  5
29CF
330
20EB
100
AcDbEntity
  8
AM_5
100
AcDbTrace
 10
724.9690597118675
 20
335.1572336096193
 30
0.0
 11
725.8023930452008
 21
335.1572336096193
 31
0.0
 12
725.3857263785342
 22
337.6572336096193
 32
0.0
 13
725.3857263785342
 23
337.6572336096193
 33
0.0
  0
MTEXT
  5
29D0
330
20EB
100
AcDbEntity
  8
AM_5
100
AcDbMText
 10
723.1857263785339
 20
314.9072336096194
 30
0.0
 40
3.0
 41
0.0
 71
     5
 72
     1
  1
45.5
 11
0.0000000000000001
 21
1.0
 31
0.0
 73
     1
 44
1.0
1001
ACAD
1000
MTEXTBEGIN
1070
    73
1070
     1
1070
    44
1040
1.0
1070
    74
1070
     0
1000
MTEXTEND
  0
POINT
  5
29D1
330
20EB
100
AcDbEntity
  8
Defpoints
 62
     0
100
AcDbPoint
 10
737.3857263785342
 20
292.1572336096193
 30
0.0
  0
POINT
  5
29D2
330
20EB
100
AcDbEntity
  8
Defpoints
 62
     0
100
AcDbPoint
 10
743.8857263785341
 20
337.6572336096193
 30
0.0
  0
POINT
  5
29D3
330
20EB
100
AcDbEntity
  8
Defpoints
 62
     0
100
AcDbPoint
 10
725.3857263785342
 20
337.6572336096193
 30
0.0
  0
ENDBLK
  5
20F6
330
20EB
100
AcDbEntity
  8
0
100
AcDbBlockEnd
  0
BLOCK
  5
2120
330
2116
100
AcDbEntity
  8
0
100
AcDbBlockBegin
  2
*D18
 70
     1
 10
0.0
 20
0.0
 30
0.0
  3
*D18
  1

  0
LINE
  5
29D4
330
2116
100
AcDbEntity
  8
AM_5
100
AcDbLine
 10
737.3857263785342
 20
291.1572336096193
 30
0.0
 11
737.3857263785342
 21
278.6572336096193
 31
0.0
  0
LINE
  5
29D5
330
2116
100
AcDbEntity
  8
AM_5
100
AcDbLine
 10
777.3857263785341
 20
291.1572336096193
 30
0.0
 11
777.3857263785341
 21
278.6572336096193
 31
0.0
  0
LINE
  5
29D6
330
2116
100
AcDbEntity
  8
AM_5
100
AcDbLine
 10
739.8857263785341
 20
280.1572336096193
 30
0.0
 11
774.8857263785342
 21
280.1572336096193
 31
0.0
  0
SOLID
  5
29D7
330
2116
100
AcDbEntity
  8
AM_5
100
AcDbTrace
 10
739.8857263785341
 20
280.573900276286
 30
0.0
 11
739.8857263785341
 21
279.7405669429526
 31
0.0
 12
737.3857263785342
 22
280.1572336096193
 32
0.0
 13
737.3857263785342
 23
280.1572336096193
 33
0.0
  0
SOLID
  5
29D8
330
2116
100
AcDbEntity
  8
AM_5
100
AcDbTrace
 10
774.8857263785342
 20
280.573900276286
 30
0.0
 11
774.8857263785342
 21
279.7405669429526
 31
0.0
 12
777.3857263785341
 22
280.1572336096193
 32
0.0
 13
777.3857263785341
 23
280.1572336096193
 33
0.0
  0
MTEXT
  5
29D9
330
2116
100
AcDbEntity
  8
AM_5
100
AcDbMText
 10
757.3857263785342
 20
282.3572336096193
 30
0.0
 40
3.0
 41
0.0
 71
     5
 72
     1
  1
40
 73
     1
 44
1.0
1001
ACAD
1000
MTEXTBEGIN
1070
    73
1070
     1
1070
    44
1040
1.0
1070
    74
1070
     0
1000
MTEXTEND
  0
POINT
  5
29DA
330
2116
100
AcDbEntity
  8
Defpoints
 62
     0
100
AcDbPoint
 10
737.3857263785342
 20
292.1572336096193
 30
0.0
  0
POINT
  5
29DB
330
2116
100
AcDbEntity
  8
Defpoints
 62
     0
100
AcDbPoint
 10
777.3857263785341
 20
292.1572336096193
 30
0.0
  0
POINT
  5
29DC
330
2116
100
AcDbEntity
  8
Defpoints
 62
     0
100
AcDbPoint
 10
777.3857263785341
 20
280.1572336096193
 30
0.0
  0
ENDBLK
  5
2121
330
2116
100
AcDbEntity
  8
0
100
AcDbBlockEnd
  0
BLOCK
  5
242B
330
2421
100
AcDbEntity
  8
0
100
AcDbBlockBegin
  2
*D19
 70
     1
 10
0.0
 20
0.0
 30
0.0
  3
*D19
  1

  0
LINE
  5
28E7
330
2421
100
AcDbEntity
  8
AM_5
100
AcDbLine
 10
572.510009315539
 20
197.5151629601287
 30
0.0
 11
572.510009315539
 21
211.0917865305818
 31
0.0
  0
LINE
  5
28E8
330
2421
100
AcDbEntity
  8
AM_5
100
AcDbLine
 10
530.1100093155389
 20
197.5151629601287
 30
0.0
 11
530.1100093155389
 21
211.0917865305818
 31
0.0
  0
LINE
  5
28E9
330
2421
100
AcDbEntity
  8
AM_5
100
AcDbLine
 10
570.010009315539
 20
209.5917865305818
 30
0.0
 11
532.6100093155389
 21
209.5917865305818
 31
0.0
  0
SOLID
  5
28EA
330
2421
100
AcDbEntity
  8
AM_5
100
AcDbTrace
 10
570.010009315539
 20
210.0084531972484
 30
0.0
 11
570.010009315539
 21
209.1751198639151
 31
0.0
 12
572.510009315539
 22
209.5917865305818
 32
0.0
 13
572.510009315539
 23
209.5917865305818
 33
0.0
  0
SOLID
  5
28EB
330
2421
100
AcDbEntity
  8
AM_5
100
AcDbTrace
 10
532.6100093155389
 20
210.0084531972484
 30
0.0
 11
532.6100093155389
 21
209.1751198639151
 31
0.0
 12
530.1100093155389
 22
209.5917865305818
 32
0.0
 13
530.1100093155389
 23
209.5917865305818
 33
0.0
  0
MTEXT
  5
28EC
330
2421
100
AcDbEntity
  8
AM_5
100
AcDbMText
 10
551.9964631702589
 20
211.7920818061723
 30
0.0
 40
3.0
 41
0.0
 71
     5
 72
     1
  1
42.4
 73
     1
 44
1.0
1001
ACAD
1000
MTEXTBEGIN
1070
    73
1070
     1
1070
    44
1040
1.0
1070
    74
1070
     0
1000
MTEXTEND
  0
POINT
  5
28ED
330
2421
100
AcDbEntity
  8
Defpoints
 62
     0
100
AcDbPoint
 10
572.510009315539
 20
196.5151629601287
 30
0.0
  0
POINT
  5
28EE
330
2421
100
AcDbEntity
  8
Defpoints
 62
     0
100
AcDbPoint
 10
530.1100093155389
 20
196.5151629601287
 30
0.0
  0
POINT
  5
28EF
330
2421
100
AcDbEntity
  8
Defpoints
 62
     0
100
AcDbPoint
 10
530.1100093155389
 20
209.5917865305818
 30
0.0
  0
ENDBLK
  5
242C
330
2421
100
AcDbEntity
  8
0
100
AcDbBlockEnd
  0
BLOCK
  5
2437
330
242D
100
AcDbEntity
  8
0
100
AcDbBlockBegin
  2
*D20
 70
     1
 10
0.0
 20
0.0
 30
0.0
  3
*D20
  1

  0
LINE
  5
28F0
330
242D
100
AcDbEntity
  8
AM_5
100
AcDbLine
 10
571.510009315539
 20
198.5151629601287
 30
0.0
 11
584.594749369716
 21
198.5151629601286
 31
0.0
  0
LINE
  5
28F1
330
242D
100
AcDbEntity
  8
AM_5
100
AcDbLine
 10
571.510009315539
 20
156.1151629601287
 30
0.0
 11
584.594749369716
 21
156.1151629601287
 31
0.0
  0
LINE
  5
28F2
330
242D
100
AcDbEntity
  8
AM_5
100
AcDbLine
 10
583.094749369716
 20
196.0151629601286
 30
0.0
 11
583.094749369716
 21
158.6151629601287
 31
0.0
  0
SOLID
  5
28F3
330
242D
100
AcDbEntity
  8
AM_5
100
AcDbTrace
 10
582.6780827030494
 20
196.0151629601286
 30
0.0
 11
583.5114160363827
 21
196.0151629601286
 31
0.0
 12
583.094749369716
 22
198.5151629601286
 32
0.0
 13
583.094749369716
 23
198.5151629601286
 33
0.0
  0
SOLID
  5
28F4
330
242D
100
AcDbEntity
  8
AM_5
100
AcDbTrace
 10
582.6780827030494
 20
158.6151629601287
 30
0.0
 11
583.5114160363827
 21
158.6151629601287
 31
0.0
 12
583.094749369716
 22
156.1151629601287
 32
0.0
 13
583.094749369716
 23
156.1151629601287
 33
0.0
  0
MTEXT
  5
28F5
330
242D
100
AcDbEntity
  8
AM_5
100
AcDbMText
 10
580.8944540941255
 20
178.3192547675386
 30
0.0
 40
3.0
 41
0.0
 71
     5
 72
     1
  1
42.4
 11
0.0000000000000001
 21
1.0
 31
0.0
 73
     1
 44
1.0
1001
ACAD
1000
MTEXTBEGIN
1070
    73
1070
     1
1070
    44
1040
1.0
1070
    74
1070
     0
1000
MTEXTEND
  0
POINT
  5
28F6
330
242D
100
AcDbEntity
  8
Defpoints
 62
     0
100
AcDbPoint
 10
570.510009315539
 20
198.5151629601287
 30
0.0
  0
POINT
  5
28F7
330
242D
100
AcDbEntity
  8
Defpoints
 62
     0
100
AcDbPoint
 10
570.510009315539
 20
156.1151629601287
 30
0.0
  0
POINT
  5
28F8
330
242D
100
AcDbEntity
  8
Defpoints
 62
     0
100
AcDbPoint
 10
583.094749369716
 20
156.1151629601287
 30
0.0
  0
ENDBLK
  5
2438
330
242D
100
AcDbEntity
  8
0
100
AcDbBlockEnd
  0
BLOCK
  5
2444
330
2439
100
AcDbEntity
  8
0
100
AcDbBlockBegin
  2
*D21
 70
     1
 10
0.0
 20
0.0
 30
0.0
  3
*D21
  1

  0
LINE
  5
28F9
330
2439
100
AcDbEntity
  8
AM_5
100
AcDbLine
 10
601.4354562526584
 20
199.5151629601287
 30
0.0
 11
601.4354562526584
 21
211.0270783289985
 31
0.0
  0
LINE
  5
28FA
330
2439
100
AcDbEntity
  8
AM_5
100
AcDbLine
 10
594.4354562526585
 20
198.5151629601287
 30
0.0
 11
594.4354562526585
 21
211.0270783289985
 31
0.0
  0
LINE
  5
28FB
330
2439
100
AcDbEntity
  8
AM_5
100
AcDbLine
 10
598.9354562526584
 20
209.5270783289985
 30
0.0
 11
596.9354562526584
 21
209.5270783289985
 31
0.0
  0
SOLID
  5
28FC
330
2439
100
AcDbEntity
  8
AM_5
100
AcDbTrace
 10
598.9354562526584
 20
209.9437449956652
 30
0.0
 11
598.9354562526584
 21
209.1104116623319
 31
0.0
 12
601.4354562526584
 22
209.5270783289985
 32
0.0
 13
601.4354562526584
 23
209.5270783289985
 33
0.0
  0
SOLID
  5
28FD
330
2439
100
AcDbEntity
  8
AM_5
100
AcDbTrace
 10
596.9354562526584
 20
209.9437449956652
 30
0.0
 11
596.9354562526584
 21
209.1104116623319
 31
0.0
 12
594.4354562526585
 22
209.5270783289985
 32
0.0
 13
594.4354562526585
 23
209.5270783289985
 33
0.0
  0
MTEXT
  5
28FE
330
2439
100
AcDbEntity
  8
AM_5
100
AcDbMText
 10
598.1186618537915
 20
211.7270783289985
 30
0.0
 40
3.0
 41
0.0
 71
     5
 72
     1
  1
7
 73
     1
 44
1.0
1001
ACAD
1000
MTEXTBEGIN
1070
    73
1070
     1
1070
    44
1040
1.0
1070
    74
1070
     0
1000
MTEXTEND
  0
POINT
  5
28FF
330
2439
100
AcDbEntity
  8
Defpoints
 62
     0
100
AcDbPoint
 10
601.4354562526584
 20
198.5151629601287
 30
0.0
  0
POINT
  5
2900
330
2439
100
AcDbEntity
  8
Defpoints
 62
     0
100
AcDbPoint
 10
594.4354562526585
 20
197.5151629601287
 30
0.0
  0
POINT
  5
2901
330
2439
100
AcDbEntity
  8
Defpoints
 62
     0
100
AcDbPoint
 10
594.4354562526585
 20
209.5270783289985
 30
0.0
  0
ENDBLK
  5
2445
330
2439
100
AcDbEntity
  8
0
100
AcDbBlockEnd
  0
BLOCK
  5
2450
330
2446
100
AcDbEntity
  8
0
100
AcDbBlockBegin
  2
*D22
 70
     1
 10
0.0
 20
0.0
 30
0.0
  3
*D22
  1

  0
LINE
  5
2902
330
2446
100
AcDbEntity
  8
AM_5
100
AcDbLine
 10
598.9354562526586
 20
153.6151629601287
 30
0.0
 11
612.7457097170029
 21
153.6151629601287
 31
0.0
  0
LINE
  5
2903
330
2446
100
AcDbEntity
  8
AM_5
100
AcDbLine
 10
598.9354562526586
 20
201.0151629601288
 30
0.0
 11
612.7457097170029
 21
201.0151629601288
 31
0.0
  0
LINE
  5
2904
330
2446
100
AcDbEntity
  8
AM_5
100
AcDbLine
 10
611.2457097170029
 20
156.1151629601287
 30
0.0
 11
611.2457097170029
 21
198.5151629601287
 31
0.0
  0
SOLID
  5
2905
330
2446
100
AcDbEntity
  8
AM_5
100
AcDbTrace
 10
610.8290430503362
 20
156.1151629601287
 30
0.0
 11
611.6623763836695
 21
156.1151629601287
 31
0.0
 12
611.2457097170029
 22
153.6151629601287
 32
0.0
 13
611.2457097170029
 23
153.6151629601287
 33
0.0
  0
SOLID
  5
2906
330
2446
100
AcDbEntity
  8
AM_5
100
AcDbTrace
 10
610.8290430503362
 20
198.5151629601287
 30
0.0
 11
611.6623763836695
 21
198.5151629601287
 31
0.0
 12
611.2457097170029
 22
201.0151629601288
 32
0.0
 13
611.2457097170029
 23
201.0151629601288
 33
0.0
  0
MTEXT
  5
2907
330
2446
100
AcDbEntity
  8
AM_5
100
AcDbMText
 10
609.0457097170029
 20
177.6223012389294
 30
0.0
 40
3.0
 41
0.0
 71
     5
 72
     1
  1
47.4
 11
0.0000000000000001
 21
1.0
 31
0.0
 73
     1
 44
1.0
1001
ACAD
1000
MTEXTBEGIN
1070
    73
1070
     1
1070
    44
1040
1.0
1070
    74
1070
     0
1000
MTEXTEND
  0
POINT
  5
2908
330
2446
100
AcDbEntity
  8
Defpoints
 62
     0
100
AcDbPoint
 10
597.9354562526586
 20
153.6151629601287
 30
0.0
  0
POINT
  5
2909
330
2446
100
AcDbEntity
  8
Defpoints
 62
     0
100
AcDbPoint
 10
597.9354562526586
 20
201.0151629601288
 30
0.0
  0
POINT
  5
290A
330
2446
100
AcDbEntity
  8
Defpoints
 62
     0
100
AcDbPoint
 10
611.2457097170029
 20
201.0151629601288
 30
0.0
  0
ENDBLK
  5
2451
330
2446
100
AcDbEntity
  8
0
100
AcDbBlockEnd
  0
BLOCK
  5
245C
330
2452
100
AcDbEntity
  8
0
100
AcDbBlockBegin
  2
*D23
 70
     1
 10
0.0
 20
0.0
 30
0.0
  3
*D23
  1

  0
LINE
  5
290B
330
2452
100
AcDbEntity
  8
AM_5
100
AcDbLine
 10
724.5640876007509
 20
195.0651629601287
 30
0.0000000000000018
 11
756.3939653422951
 21
195.0651629601287
 31
0.0000000000000018
  0
LINE
  5
290C
330
2452
100
AcDbEntity
  8
AM_5
100
AcDbLine
 10
724.5640876007509
 20
159.5651629601287
 30
0.0000000000000018
 11
756.3939653422951
 21
159.5651629601287
 31
0.0000000000000018
  0
LINE
  5
290D
330
2452
100
AcDbEntity
  8
AM_5
100
AcDbLine
 10
754.8939653422951
 20
192.5651629601287
 30
0.0000000000000018
 11
754.8939653422951
 21
162.0651629601287
 31
0.0000000000000018
  0
SOLID
  5
290E
330
2452
100
AcDbEntity
  8
AM_5
100
AcDbTrace
 10
754.4772986756285
 20
192.5651629601287
 30
0.0000000000000018
 11
755.3106320089617
 21
192.5651629601287
 31
0.0000000000000018
 12
754.8939653422951
 22
195.0651629601287
 32
0.0000000000000018
 13
754.8939653422951
 23
195.0651629601287
 33
0.0000000000000018
  0
SOLID
  5
290F
330
2452
100
AcDbEntity
  8
AM_5
100
AcDbTrace
 10
754.4772986756285
 20
162.0651629601287
 30
0.0000000000000018
 11
755.3106320089617
 21
162.0651629601287
 31
0.0000000000000018
 12
754.8939653422951
 22
159.5651629601287
 32
0.0000000000000018
 13
754.8939653422951
 23
159.5651629601287
 33
0.0000000000000018
  0
MTEXT
  5
2910
330
2452
100
AcDbEntity
  8
AM_5
100
AcDbMText
 10
752.693965342295
 20
177.2570950452099
 30
0.0000000000000018
 40
3.0
 41
0.0
 71
     5
 72
     1
  1
35.5
 11
0.0000000000000001
 21
1.0
 31
0.0
 73
     1
 44
1.0
1001
ACAD
1000
MTEXTBEGIN
1070
    73
1070
     1
1070
    44
1040
1.0
1070
    74
1070
     0
1000
MTEXTEND
  0
POINT
  5
2911
330
2452
100
AcDbEntity
  8
Defpoints
 62
     0
100
AcDbPoint
 10
723.564087600751
 20
195.0651629601287
 30
-3.249999999999346
  0
POINT
  5
2912
330
2452
100
AcDbEntity
  8
Defpoints
 62
     0
100
AcDbPoint
 10
723.564087600751
 20
159.5651629601287
 30
-3.249999999999946
  0
POINT
  5
2913
330
2452
100
AcDbEntity
  8
Defpoints
 62
     0
100
AcDbPoint
 10
754.8939653422951
 20
159.5651629601287
 30
0.0000000000000018
  0
ENDBLK
  5
245D
330
2452
100
AcDbEntity
  8
0
100
AcDbBlockEnd
  0
BLOCK
  5
2468
330
245E
100
AcDbEntity
  8
0
100
AcDbBlockBegin
  2
*D24
 70
     1
 10
0.0
 20
0.0
 30
0.0
  3
*D24
  1

  0
LINE
  5
2914
330
245E
100
AcDbEntity
  8
AM_5
100
AcDbLine
 10
693.7844691695957
 20
197.3151629601287
 30
0.0000000000000018
 11
704.0147211397878
 21
197.3151629601287
 31
0.0000000000000018
  0
LINE
  5
2915
330
245E
100
AcDbEntity
  8
AM_5
100
AcDbLine
 10
693.9383122387944
 20
157.3177192007387
 30
0.0000000000000018
 11
704.0147211397878
 21
157.3177192007386
 31
0.0000000000000018
  0
LINE
  5
2916
330
245E
100
AcDbEntity
  8
AM_5
100
AcDbLine
 10
702.5147211397877
 20
194.8151629601287
 30
0.0000000000000018
 11
702.5147211397877
 21
159.8177192007387
 31
0.0000000000000018
  0
SOLID
  5
2917
330
245E
100
AcDbEntity
  8
AM_5
100
AcDbTrace
 10
702.0980544731211
 20
194.8151629601287
 30
0.0000000000000018
 11
702.9313878064543
 21
194.8151629601287
 31
0.0000000000000018
 12
702.5147211397877
 22
197.3151629601287
 32
0.0000000000000018
 13
702.5147211397877
 23
197.3151629601287
 33
0.0000000000000018
  0
SOLID
  5
2918
330
245E
100
AcDbEntity
  8
AM_5
100
AcDbTrace
 10
702.0980544731211
 20
159.8177192007387
 30
0.0000000000000018
 11
702.9313878064543
 21
159.8177192007387
 31
0.0000000000000018
 12
702.5147211397877
 22
157.3177192007387
 32
0.0000000000000018
 13
702.5147211397877
 23
157.3177192007387
 33
0.0000000000000018
  0
MTEXT
  5
2919
330
245E
100
AcDbEntity
  8
AM_5
100
AcDbMText
 10
700.3147211397877
 20
178.5850407124745
 30
0.0000000000000018
 40
3.0
 41
0.0
 71
     5
 72
     1
  1
40
 11
0.0000000000000001
 21
1.0
 31
0.0
 73
     1
 44
1.0
1001
ACAD
1000
MTEXTBEGIN
1070
    73
1070
     1
1070
    44
1040
1.0
1070
    74
1070
     0
1000
MTEXTEND
  0
POINT
  5
291A
330
245E
100
AcDbEntity
  8
Defpoints
 62
     0
100
AcDbPoint
 10
692.7844691695956
 20
197.3151629601287
 30
-0.499999999999996
  0
POINT
  5
291B
330
245E
100
AcDbEntity
  8
Defpoints
 62
     0
100
AcDbPoint
 10
692.9383122387944
 20
157.3177192007387
 30
0.0000000000000041
  0
POINT
  5
291C
330
245E
100
AcDbEntity
  8
Defpoints
 62
     0
100
AcDbPoint
 10
702.5147211397877
 20
157.3177192007387
 30
0.0000000000000018
  0
ENDBLK
  5
2469
330
245E
100
AcDbEntity
  8
0
100
AcDbBlockEnd
  0
BLOCK
  5
2474
330
246A
100
AcDbEntity
  8
0
100
AcDbBlockBegin
  2
*D25
 70
     1
 10
0.0
 20
0.0
 30
0.0
  3
*D25
  1

  0
LINE
  5
291D
330
246A
100
AcDbEntity
  8
AM_5
100
AcDbLine
 10
654.2844691695957
 20
196.8151629601287
 30
0.0000000000000018
 11
654.2844691695957
 21
210.8151629601287
 31
0.0000000000000018
  0
LINE
  5
291E
330
246A
100
AcDbEntity
  8
AM_5
100
AcDbLine
 10
694.2844691695957
 20
196.8151629601287
 30
0.0000000000000018
 11
694.2844691695957
 21
210.8151629601287
 31
0.0000000000000018
  0
LINE
  5
291F
330
246A
100
AcDbEntity
  8
AM_5
100
AcDbLine
 10
656.7844691695957
 20
209.3151629601288
 30
0.0000000000000018
 11
691.7844691695957
 21
209.3151629601288
 31
0.0000000000000018
  0
SOLID
  5
2920
330
246A
100
AcDbEntity
  8
AM_5
100
AcDbTrace
 10
656.7844691695957
 20
209.7318296267954
 30
0.0000000000000018
 11
656.7844691695957
 21
208.8984962934621
 31
0.0000000000000018
 12
654.2844691695957
 22
209.3151629601288
 32
0.0000000000000018
 13
654.2844691695957
 23
209.3151629601288
 33
0.0000000000000018
  0
SOLID
  5
2921
330
246A
100
AcDbEntity
  8
AM_5
100
AcDbTrace
 10
691.7844691695957
 20
209.7318296267954
 30
0.0000000000000018
 11
691.7844691695957
 21
208.8984962934621
 31
0.0000000000000018
 12
694.2844691695957
 22
209.3151629601288
 32
0.0000000000000018
 13
694.2844691695957
 23
209.3151629601288
 33
0.0000000000000018
  0
MTEXT
  5
2922
330
246A
100
AcDbEntity
  8
AM_5
100
AcDbMText
 10
674.8780007689449
 20
211.5151629601287
 30
0.0000000000000018
 40
3.0
 41
0.0
 71
     5
 72
     1
  1
40
 73
     1
 44
1.0
1001
ACAD
1000
MTEXTBEGIN
1070
    73
1070
     1
1070
    44
1040
1.0
1070
    74
1070
     0
1000
MTEXTEND
  0
POINT
  5
2923
330
246A
100
AcDbEntity
  8
Defpoints
 62
     0
100
AcDbPoint
 10
654.2844691695957
 20
195.8151629601287
 30
-0.4999999999999889
  0
POINT
  5
2924
330
246A
100
AcDbEntity
  8
Defpoints
 62
     0
100
AcDbPoint
 10
694.2844691695957
 20
195.8151629601287
 30
-0.4999999999999958
  0
POINT
  5
2925
330
246A
100
AcDbEntity
  8
Defpoints
 62
     0
100
AcDbPoint
 10
694.2844691695957
 20
209.3151629601288
 30
0.0000000000000018
  0
ENDBLK
  5
2475
330
246A
100
AcDbEntity
  8
0
100
AcDbBlockEnd
  0
BLOCK
  5
2482
330
2476
100
AcDbEntity
  8
0
100
AcDbBlockBegin
  2
*D26
 70
     1
 10
0.0
 20
0.0
 30
0.0
  3
*D26
  1

  0
LINE
  5
2926
330
2476
100
AcDbEntity
  8
AM_5
100
AcDbLine
 10
719.064087600751
 20
198.3151629601287
 30
0.0000000000000018
 11
719.064087600751
 21
210.8151629601287
 31
0.0000000000000018
  0
LINE
  5
2927
330
2476
100
AcDbEntity
  8
AM_5
100
AcDbLine
 10
723.564087600751
 20
196.0651629601287
 30
0.0000000000000018
 11
723.564087600751
 21
210.8151629601287
 31
0.0000000000000018
  0
LINE
  5
2928
330
2476
100
AcDbEntity
  8
AM_5
100
AcDbLine
 10
716.5640876007509
 20
209.3151629601288
 30
0.0000000000000018
 11
714.064087600751
 21
209.3151629601288
 31
0.0000000000000018
  0
LINE
  5
2929
330
2476
100
AcDbEntity
  8
AM_5
100
AcDbLine
 10
726.064087600751
 20
209.3151629601288
 30
0.0000000000000018
 11
736.8456297200504
 21
209.3151629601288
 31
0.0000000000000018
  0
LINE
  5
292A
330
2476
100
AcDbEntity
  8
AM_5
100
AcDbLine
 10
719.064087600751
 20
209.3151629601288
 30
0.0000000000000018
 11
723.564087600751
 21
209.3151629601288
 31
0.0000000000000018
  0
SOLID
  5
292B
330
2476
100
AcDbEntity
  8
AM_5
100
AcDbTrace
 10
716.5640876007509
 20
209.7318296267954
 30
0.0000000000000018
 11
716.5640876007509
 21
208.8984962934621
 31
0.0000000000000018
 12
719.064087600751
 22
209.3151629601288
 32
0.0000000000000018
 13
719.064087600751
 23
209.3151629601288
 33
0.0000000000000018
  0
SOLID
  5
292C
330
2476
100
AcDbEntity
  8
AM_5
100
AcDbTrace
 10
726.064087600751
 20
209.7318296267954
 30
0.0000000000000018
 11
726.064087600751
 21
208.8984962934621
 31
0.0000000000000018
 12
723.564087600751
 22
209.3151629601288
 32
0.0000000000000018
 13
723.564087600751
 23
209.3151629601288
 33
0.0000000000000018
  0
MTEXT
  5
292D
330
2476
100
AcDbEntity
  8
AM_5
100
AcDbMText
 10
733.8334976856945
 20
211.5151629601287
 30
0.0000000000000018
 40
3.0
 41
0.0
 71
     5
 72
     1
  1
4.5
 73
     1
 44
1.0
1001
ACAD
1000
MTEXTBEGIN
1070
    73
1070
     1
1070
    44
1040
1.0
1070
    74
1070
     0
1000
MTEXTEND
  0
POINT
  5
292E
330
2476
100
AcDbEntity
  8
Defpoints
 62
     0
100
AcDbPoint
 10
719.064087600751
 20
197.3151629601287
 30
-0.9999999999999484
  0
POINT
  5
292F
330
2476
100
AcDbEntity
  8
Defpoints
 62
     0
100
AcDbPoint
 10
723.564087600751
 20
195.0651629601287
 30
-3.249999999999346
  0
POINT
  5
2930
330
2476
100
AcDbEntity
  8
Defpoints
 62
     0
100
AcDbPoint
 10
723.564087600751
 20
209.3151629601288
 30
0.0000000000000018
  0
ENDBLK
  5
2483
330
2476
100
AcDbEntity
  8
0
100
AcDbBlockEnd
  0
ENDSEC
  0
SECTION
  2
ENTITIES
  0
TEXT
  5
D5F
330
1F
100
AcDbEntity
  8
0
100
AcDbText
 10
522.04876386519
 20
373.5097861511625
 30
0.0
 40
6.0
  1
BT-1
100
AcDbText
  0
TEXT
  5
10FB
330
1F
100
AcDbEntity
  8
0
100
AcDbText
 10
697.4726206531475
 20
373.5097861511625
 30
0.0
 40
6.0
  1
BT-2
100
AcDbText
  0
LINE
  5
12A3
330
1F
100
AcDbEntity
  8
AM_7
100
AcDbLine
 10
380.833440818782
 20
227.3854604621793
 30
0.0
 11
380.833440818782
 21
199.5838519796926
 31
0.0
  0
LINE
  5
12A4
330
1F
100
AcDbEntity
  8
AM_7
100
AcDbLine
 10
428.4858066486947
 20
229.5838519796927
 30
0.0
 11
428.4858066486947
 21
199.5838519796926
 31
0.0
  0
LINE
  5
12A5
330
1F
100
AcDbEntity
  8
AM_VIS
100
AcDbLine
 10
395.333440818782
 20
226.5838519796927
 30
0.0
 11
366.333440818782
 21
226.5838519796927
 31
0.0
  0
LINE
  5
12A6
330
1F
100
AcDbEntity
  8
AM_VIS
100
AcDbLine
 10
365.3334408187819
 20
227.5838519796927
 30
0.0
 11
365.3334408187819
 21
256.5838519796927
 31
0.0
  0
LINE
  5
12A7
330
1F
100
AcDbEntity
  8
AM_VIS
100
AcDbLine
 10
366.333440818782
 20
257.5838519796927
 30
0.0
 11
395.333440818782
 21
257.5838519796927
 31
0.0
  0
LINE
  5
12A8
330
1F
100
AcDbEntity
  8
AM_VIS
100
AcDbLine
 10
396.3334408187821
 20
256.5838519796927
 30
0.0
 11
396.3334408187821
 21
227.5838519796927
 31
0.0
  0
LINE
  5
12A9
330
1F
100
AcDbEntity
  8
AM_VIS
100
AcDbLine
 10
376.933440818782
 20
226.5838519796927
 30
0.0
 11
376.933440818782
 21
222.5838519796927
 31
0.0
  0
LINE
  5
12AA
330
1F
100
AcDbEntity
  8
AM_VIS
100
AcDbLine
 10
384.733440818782
 20
226.5838519796927
 30
0.0
 11
384.733440818782
 21
222.5838519796927
 31
0.0
  0
LINE
  5
12AB
330
1F
100
AcDbEntity
  8
AM_VIS
100
AcDbLine
 10
378.833440818782
 20
222.5838519796927
 30
0.0
 11
378.833440818782
 21
202.5838519796927
 31
0.0
  0
LINE
  5
12AC
330
1F
100
AcDbEntity
  8
AM_VIS
100
AcDbLine
 10
382.833440818782
 20
222.5838519796927
 30
0.0
 11
382.833440818782
 21
202.5838519796927
 31
0.0
  0
LINE
  5
12AD
330
1F
100
AcDbEntity
  8
AM_VIS
100
AcDbLine
 10
384.733440818782
 20
222.5838519796927
 30
0.0
 11
376.933440818782
 21
222.5838519796927
 31
0.0
  0
ARC
  5
12AF
102
{ACAD_REACTORS
330
13BC
102
}
330
1F
100
AcDbEntity
  8
AM_VIS
100
AcDbCircle
 10
366.333440818782
 20
256.5838519796927
 30
0.0
 40
0.9999999999999998
100
AcDbArc
 50
90.0
 51
180.0
  0
ARC
  5
12B0
102
{ACAD_REACTORS
330
13BC
102
}
330
1F
100
AcDbEntity
  8
AM_VIS
100
AcDbCircle
 10
366.333440818782
 20
227.5838519796927
 30
0.0
 40
0.9999999999999998
100
AcDbArc
 50
180.0
 51
270.0
  0
ARC
  5
12B1
330
1F
100
AcDbEntity
  8
AM_VIS
100
AcDbCircle
 10
395.333440818782
 20
256.5838519796927
 30
0.0
 40
0.9999999999999998
100
AcDbArc
 50
0.0
 51
90.0
  0
ARC
  5
12B2
330
1F
100
AcDbEntity
  8
AM_VIS
100
AcDbCircle
 10
395.333440818782
 20
227.5838519796927
 30
0.0
 40
0.9999999999999998
100
AcDbArc
 50
270.0
 51
0.0
  0
LINE
  5
12B3
330
1F
100
AcDbEntity
  8
AM_VIS
100
AcDbLine
 10
387.0834408187819
 20
306.5297546117363
 30
0.0
 11
387.083440818782
 21
314.4297546117363
 31
0.0
  0
LINE
  5
12B4
330
1F
100
AcDbEntity
  8
AM_VIS
100
AcDbLine
 10
374.5834408187819
 20
314.4297546117363
 30
0.0
 11
374.5834408187819
 21
306.5297546117363
 31
0.0
  0
LINE
  5
12B5
330
1F
100
AcDbEntity
  8
AM_VIS
100
AcDbLine
 10
384.0834408187819
 20
315.4297546117363
 30
0.0
 11
377.5834408187819
 21
315.4297546117363
 31
0.0
  0
LINE
  5
12B6
330
1F
100
AcDbEntity
  8
AM_VIS
100
AcDbLine
 10
365.333440818782
 20
305.5297546117363
 30
0.0
 11
365.3334408187819
 21
279.9297546117363
 31
0.0
  0
LINE
  5
12B7
330
1F
100
AcDbEntity
  8
AM_VIS
100
AcDbLine
 10
366.3334408187819
 20
278.9297546117363
 30
0.0
 11
395.333440818782
 21
278.9297546117363
 31
0.0
  0
LINE
  5
12B8
330
1F
100
AcDbEntity
  8
AM_VIS
100
AcDbLine
 10
395.333440818782
 20
306.5297546117363
 30
0.0
 11
366.333440818782
 21
306.5297546117363
 31
0.0
  0
LINE
  5
12B9
330
1F
100
AcDbEntity
  8
AM_VIS
100
AcDbLine
 10
396.3334408187821
 20
279.9297546117363
 30
0.0
 11
396.3334408187821
 21
305.5297546117363
 31
0.0
  0
LINE
  5
12BA
330
1F
100
AcDbEntity
  8
AM_VIS
100
AcDbLine
 10
384.0834408187819
 20
315.4297546117363
 30
0.0
 11
386.083440818782
 21
315.4297546117363
 31
0.0
  0
LINE
  5
12BB
330
1F
100
AcDbEntity
  8
AM_VIS
100
AcDbLine
 10
375.5834408187819
 20
315.4297546117363
 30
0.0
 11
377.5834408187819
 21
315.4297546117363
 31
0.0
  0
LINE
  5
12BE
330
1F
100
AcDbEntity
  8
AM_VIS
100
AcDbLine
 10
395.333440818782
 20
306.5297546117363
 30
0.0
 11
395.3334408187821
 21
306.5297546117363
 31
0.0
  0
LINE
  5
12C0
330
1F
100
AcDbEntity
  8
AM_VIS
100
AcDbLine
 10
444.0858066486948
 20
226.5838519796929
 30
0.0
 11
451.9858066486949
 21
226.5838519796929
 31
0.0
  0
LINE
  5
12C1
330
1F
100
AcDbEntity
  8
AM_VIS
100
AcDbLine
 10
451.9858066486948
 20
249.5838519796929
 30
0.0
 11
444.0858066486948
 21
249.5838519796929
 31
0.0
  0
LINE
  5
12C2
330
1F
100
AcDbEntity
  8
AM_VIS
100
AcDbLine
 10
452.9858066486949
 20
227.5838519796929
 30
0.0
 11
452.9858066486948
 21
246.5838519796929
 31
0.0
  0
LINE
  5
12C3
330
1F
100
AcDbEntity
  8
AM_VIS
100
AcDbLine
 10
443.0858066486948
 20
257.5838519796927
 30
0.0
 11
417.4858066486947
 21
257.5838519796927
 31
0.0
  0
LINE
  5
12C4
330
1F
100
AcDbEntity
  8
AM_VIS
100
AcDbLine
 10
416.4858066486947
 20
256.5838519796927
 30
0.0
 11
416.4858066486947
 21
227.5838519796927
 31
0.0
  0
LINE
  5
12C5
330
1F
100
AcDbEntity
  8
AM_VIS
100
AcDbLine
 10
444.0858066486948
 20
227.5838519796927
 30
0.0
 11
444.0858066486947
 21
256.5838519796927
 31
0.0
  0
LINE
  5
12C6
330
1F
100
AcDbEntity
  8
AM_VIS
100
AcDbLine
 10
417.4858066486947
 20
226.5838519796927
 30
0.0
 11
444.0858066486947
 21
226.5838519796927
 31
0.0
  0
LINE
  5
12C7
330
1F
100
AcDbEntity
  8
AM_VIS
100
AcDbLine
 10
424.5858066486948
 20
226.5838519796927
 30
0.0
 11
424.5858066486948
 21
222.5838519796927
 31
0.0
  0
LINE
  5
12C8
330
1F
100
AcDbEntity
  8
AM_VIS
100
AcDbLine
 10
432.3858066486947
 20
226.5838519796927
 30
0.0
 11
432.3858066486947
 21
222.5838519796927
 31
0.0
  0
LINE
  5
12C9
330
1F
100
AcDbEntity
  8
AM_VIS
100
AcDbLine
 10
426.4858066486947
 20
222.5838519796927
 30
0.0
 11
426.4858066486947
 21
202.5838519796927
 31
0.0
  0
LINE
  5
12CA
330
1F
100
AcDbEntity
  8
AM_VIS
100
AcDbLine
 10
430.4858066486947
 20
222.5838519796927
 30
0.0
 11
430.4858066486947
 21
202.5838519796927
 31
0.0
  0
LINE
  5
12CB
102
{ACAD_REACTORS
330
1389
102
}
330
1F
100
AcDbEntity
  8
AM_VIS
100
AcDbLine
 10
452.9858066486948
 20
248.5838519796929
 30
0.0
 11
452.9858066486948
 21
246.5838519796929
 31
0.0
  0
LINE
  5
12CC
330
1F
100
AcDbEntity
  8
AM_VIS
100
AcDbLine
 10
432.3858066486947
 20
222.5838519796927
 30
0.0
 11
424.5858066486947
 21
222.5838519796927
 31
0.0
  0
LINE
  5
12D1
330
1F
100
AcDbEntity
  8
AM_VIS
100
AcDbLine
 10
444.0858066486948
 20
227.5838519796927
 30
0.0
 11
444.0858066486948
 21
226.5838519796927
 31
0.0
  0
SPLINE
  5
12D2
330
1F
100
AcDbEntity
  8
AM_VIS
100
AcDbSpline
210
0.0
220
0.0
230
1.0
 70
     8
 71
     3
 72
    10
 73
     6
 74
     4
 42
0.0000000001
 43
0.0000000001
 44
0.0000000001
 40
0.0
 40
0.0
 40
0.0
 40
0.0
 40
1.133860590174991
 40
2.78127610826139
 40
4.340147039536107
 40
4.340147039536107
 40
4.340147039536107
 40
4.340147039536107
 10
378.833440818782
 20
202.5838519796927
 30
0.0
 10
379.1968660502271
 20
202.79763948316
 30
0.0
 10
380.0883212450863
 20
203.3220444062967
 30
0.0
 10
381.2588633544779
 20
201.7258274749787
 30
0.0
 10
382.3183344241604
 20
202.3031583211463
 30
0.0
 10
382.833440818782
 20
202.5838519796927
 30
0.0
 11
378.833440818782
 21
202.5838519796927
 31
0.0
 11
379.9002254386774
 21
202.9680529852959
 31
0.0
 11
381.3341529864897
 21
202.1569859863019
 31
0.0
 11
382.833440818782
 21
202.5838519796927
 31
0.0
  0
SPLINE
  5
12D3
330
1F
100
AcDbEntity
  8
AM_VIS
100
AcDbSpline
210
0.0
220
0.0
230
1.0
 70
     8
 71
     3
 72
    10
 73
     6
 74
     4
 42
0.0000000001
 43
0.0000000001
 44
0.0000000001
 40
0.0
 40
0.0
 40
0.0
 40
0.0
 40
1.133860590175098
 40
2.781276108261497
 40
4.340147039536105
 40
4.340147039536105
 40
4.340147039536105
 40
4.340147039536105
 10
426.4858066486947
 20
202.5838519796927
 30
0.0
 10
426.8492318801398
 20
202.79763948316
 30
0.0
 10
427.7406870749989
 20
203.3220444062967
 30
0.0
 10
428.9112291843905
 20
201.7258274749787
 30
0.0
 10
429.9707002540732
 20
202.3031583211463
 30
0.0
 10
430.4858066486947
 20
202.5838519796927
 30
0.0
 11
426.4858066486947
 21
202.5838519796927
 31
0.0
 11
427.5525912685902
 21
202.9680529852959
 31
0.0
 11
428.9865188164025
 21
202.1569859863019
 31
0.0
 11
430.4858066486947
 21
202.5838519796927
 31
0.0
  0
TEXT
  5
12D4
330
1F
100
AcDbEntity
  8
0
100
AcDbText
 10
317.4769127697118
 20
397.1937553533991
 30
0.0
 40
6.0
  1
MP23
100
AcDbText
  0
DIMENSION
  5
132E
330
1F
100
AcDbEntity
  8
AM_5
100
AcDbDimension
  2
*D2
 10
396.3334408187821
 20
270.7003049143029
 30
0.0
 11
380.833440818782
 21
270.7003049143029
 31
0.0
 70
   160
 71
     5
 42
31.00000000000006
  3
AM_ISO$0
100
AcDbAlignedDimension
 13
365.333440818782
 23
279.9297546117363
 33
0.0
 14
396.3334408187821
 24
279.9297546117363
 34
0.0
100
AcDbRotatedDimension
  0
DIMENSION
  5
137B
102
{ACAD_XDICTIONARY
360
1388
102
}
102
{ACAD_REACTORS
330
1389
102
}
330
1F
100
AcDbEntity
  8
AM_5
100
AcDbDimension
  2
*D3
 10
452.9858066486948
 20
265.9310636459094
 30
0.0
 11
434.7358066486948
 21
268.1310636459094
 31
0.0
 70
    32
 71
     5
 42
36.50000000000011
  3
AM_ISO$0
100
AcDbAlignedDimension
 13
416.4858066486947
 23
256.5838519796927
 33
0.0
 14
452.9858066486948
 24
248.5838519796929
 34
0.0
100
AcDbRotatedDimension
  0
DIMENSION
  5
13AE
102
{ACAD_XDICTIONARY
360
13BB
102
}
102
{ACAD_REACTORS
330
13BC
102
}
330
1F
100
AcDbEntity
  8
AM_5
100
AcDbDimension
  2
*D4
 10
354.333440818782
 20
257.5838519796927
 30
0.0
 11
352.1334408187819
 21
242.0838519796927
 31
0.0
 70
    32
 71
     5
 42
30.99999999999997
  3
AM_ISO$0
100
AcDbAlignedDimension
 13
366.333440818782
 23
226.5838519796927
 33
0.0
 14
366.333440818782
 24
257.5838519796927
 34
0.0
 50
90.0
100
AcDbRotatedDimension
  0
LINE
  5
13C9
330
1F
100
AcDbEntity
  8
AM_VIS
100
AcDbLine
 10
368.3334408187819
 20
252.5838519796927
 30
0.0
 11
393.3334408187819
 21
252.5838519796927
 31
0.0
  0
LINE
  5
13CC
330
1F
100
AcDbEntity
  8
AM_VIS
100
AcDbLine
 10
367.8334408187819
 20
237.0838519796927
 30
0.0
 11
367.8334408187819
 21
252.0838519796927
 31
0.0
  0
LINE
  5
13CD
330
1F
100
AcDbEntity
  8
AM_VIS
100
AcDbLine
 10
393.8334408187819
 20
252.0838519796927
 30
0.0
 11
393.8334408187819
 21
237.0838519796927
 31
0.0
  0
LINE
  5
13CE
330
1F
100
AcDbEntity
  8
AM_VIS
100
AcDbLine
 10
368.8334408187819
 20
240.0838519796927
 30
0.0
 11
392.833440818782
 21
240.0838519796927
 31
0.0
  0
LINE
  5
13CF
330
1F
100
AcDbEntity
  8
AM_VIS
100
AcDbLine
 10
368.3334408187819
 20
236.5838519796927
 30
0.0
 11
393.3334408187819
 21
236.5838519796927
 31
0.0
  0
LINE
  5
13D4
330
1F
100
AcDbEntity
  8
AM_VIS
100
AcDbLine
 10
393.8334408187819
 20
232.3338519796926
 30
0.0
 11
384.2521394015763
 21
232.3338519796926
 31
0.0
  0
LINE
  5
13D5
330
1F
100
AcDbEntity
  8
AM_VIS
100
AcDbLine
 10
393.833440818782
 20
234.8338519796927
 30
0.0
 11
382.1324789244586
 21
234.8338519796927
 31
0.0
  0
LINE
  5
13D6
330
1F
100
AcDbEntity
  8
0
100
AcDbLine
 10
393.833440818782
 20
234.8338519796927
 30
0.0
 11
393.8334408187819
 21
232.3338519796926
 31
0.0
  0
LINE
  5
13D7
330
1F
100
AcDbEntity
  8
0
100
AcDbLine
 10
367.833440818782
 20
234.8338519796927
 30
0.0
 11
367.8334408187819
 21
232.3338519796926
 31
0.0
  0
TEXT
  5
13DB
330
1F
100
AcDbEntity
  8
0
100
AcDbText
 10
378.138218653792
 20
230.4061079293823
 30
0.0
 40
2.299999999999999
  1
SET
100
AcDbText
  0
SOLID
  5
142F
330
1F
100
AcDbEntity
  8
LOGO
 62
     5
100
AcDbTrace
 10
366.991426277768
 20
254.0814144345512
 30
0.0
 11
367.3492010257778
 21
254.0814144345512
 31
0.0
 12
368.3567225631332
 22
255.870288174598
 32
0.0
 13
368.7144973111419
 23
255.870288174598
 33
0.0
  0
SOLID
  5
1430
330
1F
100
AcDbEntity
  8
LOGO
 62
     5
100
AcDbTrace
 10
368.3567225631332
 20
255.870288174598
 30
0.0
 11
368.7144973111419
 21
255.870288174598
 31
0.0
 12
368.3567225631332
 22
254.0814144345512
 32
0.0
 13
368.7144973111419
 23
254.0814144345512
 33
0.0
  0
SOLID
  5
1431
330
1F
100
AcDbEntity
  8
LOGO
 62
     5
100
AcDbTrace
 10
368.3567225631332
 20
254.0814144345512
 30
0.0
 11
368.7144973111419
 21
254.0814144345512
 31
0.0
 12
369.7220188484989
 22
255.870288174598
 32
0.0
 13
370.0797935965082
 23
255.870288174598
 33
0.0
  0
SOLID
  5
1432
330
1F
100
AcDbEntity
  8
LOGO
 62
     5
100
AcDbTrace
 10
369.7220188484989
 20
255.870288174598
 30
0.0
 11
370.0797935965082
 21
255.870288174598
 31
0.0
 12
369.7220188484989
 22
254.0814144345512
 32
0.0
 13
370.0797935965082
 23
254.0814144345512
 33
0.0
  0
POLYLINE
  5
1433
330
1F
100
AcDbEntity
  8
LOGO
 62
     5
100
AcDb2dPolyline
 66
     1
 10
0.0
 20
0.0
 30
0.0
 40
0.3583481049773755
 41
0.3583481049773755
  0
VERTEX
  5
1434
330
1433
100
AcDbEntity
  8
LOGO
 62
     5
100
AcDbVertex
100
AcDb2dVertex
 10
381.7145065242703
 20
255.1547386785793
 30
0.0
 42
1.0
  0
VERTEX
  5
1435
330
1433
100
AcDbEntity
  8
LOGO
 62
     5
100
AcDbVertex
100
AcDb2dVertex
 10
380.639462209338
 20
255.1547386785793
 30
0.0
 42
1.0
  0
SEQEND
  5
1436
330
1433
100
AcDbEntity
  8
LOGO
 62
     5
  0
POLYLINE
  5
1437
330
1F
100
AcDbEntity
  8
LOGO
 62
     5
100
AcDb2dPolyline
 66
     1
 10
0.0
 20
0.0
 30
0.0
 70
     1
  0
VERTEX
  5
1438
330
1437
100
AcDbEntity
  8
LOGO
 62
     5
100
AcDbVertex
100
AcDb2dVertex
 10
378.6129558577191
 20
254.9758513045743
 30
0.0
 42
1.000000057330635
  0
VERTEX
  5
1439
330
1437
100
AcDbEntity
  8
LOGO
 62
     5
100
AcDbVertex
100
AcDb2dVertex
 10
379.6862801017474
 20
254.9758513045743
 30
0.0
 42
1.000000057330635
  0
SEQEND
  5
143A
330
1437
100
AcDbEntity
  8
LOGO
 62
     5
  0
CIRCLE
  5
143B
330
1F
100
AcDbEntity
  8
LOGO
 62
     5
100
AcDbCircle
 10
379.1496179797341
 20
254.9758513045743
 30
0.0
 40
0.5366621220141177
  0
POLYLINE
  5
143C
330
1F
100
AcDbEntity
  8
LOGO
 62
     5
100
AcDb2dPolyline
 66
     1
 10
0.0
 20
0.0
 30
0.0
 70
     1
 40
0.3583481049773755
 41
0.3583481049773755
  0
VERTEX
  5
143D
330
143C
100
AcDbEntity
  8
LOGO
 62
     5
100
AcDbVertex
100
AcDb2dVertex
 10
378.4329217697789
 20
254.9758513045743
 30
0.0
 42
1.0
  0
VERTEX
  5
143E
330
143C
100
AcDbEntity
  8
LOGO
 62
     5
100
AcDbVertex
100
AcDb2dVertex
 10
379.8663141896883
 20
254.9758513045743
 30
0.0
 42
1.0
  0
SEQEND
  5
143F
330
143C
100
AcDbEntity
  8
LOGO
 62
     5
  0
LINE
  5
1440
330
1F
100
AcDbEntity
  8
LOGO
100
AcDbLine
 10
381.8925338628223
 20
254.0814144345512
 30
0.0
 11
381.8925338628223
 21
255.1547386785793
 31
0.0
  0
SOLID
  5
1441
330
1F
100
AcDbEntity
  8
LOGO
 62
     5
100
AcDbTrace
 10
379.6862443242743
 20
255.870288174598
 30
0.0
 11
380.0440190722829
 21
255.870288174598
 31
0.0
 12
379.6862443242743
 22
254.0814144345512
 32
0.0
 13
380.0440190722829
 23
254.0814144345512
 33
0.0
  0
SOLID
  5
1442
330
1F
100
AcDbEntity
  8
LOGO
 62
     5
100
AcDbTrace
 10
380.4614348707848
 20
254.0814144345512
 30
0.0
 11
380.8192096187946
 21
254.0814144345512
 31
0.0
 12
380.4614348707848
 22
255.870288174598
 32
0.0
 13
380.8192096187946
 23
255.870288174598
 33
0.0
  0
SOLID
  5
1443
330
1F
100
AcDbEntity
  8
LOGO
 62
     5
100
AcDbTrace
 10
381.5347591148137
 20
255.1547386785793
 30
0.0
 11
381.8925338628223
 21
255.1547386785793
 31
0.0
 12
381.5347591148137
 22
254.0814144345512
 32
0.0
 13
381.8925338628223
 23
254.0814144345512
 33
0.0
  0
POLYLINE
  5
1444
330
1F
100
AcDbEntity
  8
LOGO
 62
     5
100
AcDb2dPolyline
 66
     1
 10
0.0
 20
0.0
 30
0.0
 40
0.3583481049773755
 41
0.3583481049773755
  0
VERTEX
  5
1445
330
1444
100
AcDbEntity
  8
LOGO
 62
     5
100
AcDbVertex
100
AcDb2dVertex
 10
376.5863779511524
 20
255.1547386785793
 30
0.0
 42
1.0
  0
VERTEX
  5
1446
330
1444
100
AcDbEntity
  8
LOGO
 62
     5
100
AcDbVertex
100
AcDb2dVertex
 10
375.51133363622
 20
255.1547386785793
 30
0.0
 42
1.0
  0
SEQEND
  5
1447
330
1444
100
AcDbEntity
  8
LOGO
 62
     5
  0
POLYLINE
  5
1448
330
1F
100
AcDbEntity
  8
LOGO
 62
     5
100
AcDb2dPolyline
 66
     1
 10
0.0
 20
0.0
 30
0.0
 40
0.3583481049773755
 41
0.3583481049773755
  0
VERTEX
  5
1449
330
1448
100
AcDbEntity
  8
LOGO
 62
     5
100
AcDbVertex
100
AcDb2dVertex
 10
377.6597021951795
 20
255.1547386785793
 30
0.0
 42
1.0
  0
VERTEX
  5
144A
330
1448
100
AcDbEntity
  8
LOGO
 62
     5
100
AcDbVertex
100
AcDb2dVertex
 10
376.5846578802477
 20
255.1547386785793
 30
0.0
 42
1.0
  0
SEQEND
  5
144B
330
1448
100
AcDbEntity
  8
LOGO
 62
     5
  0
POLYLINE
  5
144C
330
1F
100
AcDbEntity
  8
LOGO
 62
     5
100
AcDb2dPolyline
 66
     1
 10
0.0
 20
0.0
 30
0.0
 40
0.3583481049773755
 41
0.3583481049773755
  0
VERTEX
  5
144D
330
144C
100
AcDbEntity
  8
LOGO
 62
     5
100
AcDbVertex
100
AcDb2dVertex
 10
372.5315736220615
 20
255.1547386785793
 30
0.0
 42
1.0
  0
VERTEX
  5
144E
330
144C
100
AcDbEntity
  8
LOGO
 62
     5
100
AcDbVertex
100
AcDb2dVertex
 10
371.4565293071297
 20
255.1547386785793
 30
0.0
 42
1.0
  0
SEQEND
  5
144F
330
144C
100
AcDbEntity
  8
LOGO
 62
     5
  0
SOLID
  5
1450
330
1F
100
AcDbEntity
  8
LOGO
 62
     5
100
AcDbTrace
 10
371.2785019685771
 20
255.870288174598
 30
0.0
 11
371.6362767165858
 21
255.870288174598
 31
0.0
 12
371.2785019685771
 22
254.0814144345512
 32
0.0
 13
371.6362767165858
 23
254.0814144345512
 33
0.0
  0
SOLID
  5
1451
330
1F
100
AcDbEntity
  8
LOGO
 62
     5
100
AcDbTrace
 10
372.3518262126054
 20
255.1547386785793
 30
0.0
 11
372.7096009606153
 21
255.1547386785793
 31
0.0
 12
372.3518262126054
 22
254.0814144345512
 32
0.0
 13
372.7096009606153
 23
254.0814144345512
 33
0.0
  0
POLYLINE
  5
1452
330
1F
100
AcDbEntity
  8
LOGO
 62
     5
100
AcDb2dPolyline
 66
     1
 10
0.0
 20
0.0
 30
0.0
 70
     1
 40
0.3583481049773755
 41
0.3583481049773755
  0
VERTEX
  5
1453
330
1452
100
AcDbEntity
  8
LOGO
 62
     5
100
AcDbVertex
100
AcDb2dVertex
 10
373.3047931966603
 20
254.9758513045743
 30
0.0
 42
1.0
  0
VERTEX
  5
1454
330
1452
100
AcDbEntity
  8
LOGO
 62
     5
100
AcDbVertex
100
AcDb2dVertex
 10
374.7381856165703
 20
254.9758513045743
 30
0.0
 42
1.0
  0
SEQEND
  5
1455
330
1452
100
AcDbEntity
  8
LOGO
 62
     5
  0
SOLID
  5
1456
330
1F
100
AcDbEntity
  8
LOGO
 62
     5
100
AcDbTrace
 10
374.5581157511551
 20
256.4069502966124
 30
0.0
 11
374.9158904991645
 21
256.4069502966124
 31
0.0
 12
374.5581157511551
 22
254.0814144345512
 32
0.0
 13
374.9158904991645
 23
254.0814144345512
 33
0.0
  0
SOLID
  5
1457
330
1F
100
AcDbEntity
  8
LOGO
 62
     5
100
AcDbTrace
 10
375.3333062976679
 20
255.870288174598
 30
0.0
 11
375.6910810456766
 21
255.870288174598
 31
0.0
 12
375.3333062976679
 22
254.0814144345512
 32
0.0
 13
375.6910810456766
 23
254.0814144345512
 33
0.0
  0
SOLID
  5
1458
330
1F
100
AcDbEntity
  8
LOGO
 62
     5
100
AcDbTrace
 10
376.4066305416951
 20
255.1547386785793
 30
0.0
 11
376.7644052897049
 21
255.1547386785793
 31
0.0
 12
376.4066305416951
 22
254.0814144345512
 32
0.0
 13
376.7644052897049
 23
254.0814144345512
 33
0.0
  0
SOLID
  5
1459
330
1F
100
AcDbEntity
  8
LOGO
 62
     5
100
AcDbTrace
 10
377.4799547857234
 20
255.1547386785793
 30
0.0
 11
377.8377295337327
 21
255.1547386785793
 31
0.0
 12
377.4799547857234
 22
254.0814144345507
 32
0.0
 13
377.8377295337327
 23
254.0814144345507
 33
0.0
  0
SOLID
  5
145A
330
1F
100
AcDbEntity
  8
LOGO
 62
     5
100
AcDbTrace
 10
370.503311422065
 20
256.1207304982047
 30
0.0
 11
370.8610861700753
 21
256.1207304982047
 31
0.0
 12
370.503311422065
 22
256.4069502966124
 32
0.0
 13
370.8610861700753
 23
256.4069502966124
 33
0.0
  0
SOLID
  5
145B
330
1F
100
AcDbEntity
  8
LOGO
 62
     5
100
AcDbTrace
 10
370.503311422065
 20
255.870288174598
 30
0.0
 11
370.8610861700753
 21
255.870288174598
 31
0.0
 12
370.503311422065
 22
254.0814144345507
 32
0.0
 13
370.8610861700753
 23
254.0814144345512
 33
0.0
  0
LINE
  5
147A
330
1F
100
AcDbEntity
  8
AM_VIS
100
AcDbLine
 10
368.3334408187819
 20
240.5838519796926
 30
0.0
 11
368.3334408187819
 21
251.5838519796927
 31
0.0
  0
LINE
  5
1480
330
1F
100
AcDbEntity
  8
AM_VIS
100
AcDbLine
 10
368.8334408187819
 20
252.0838519796927
 30
0.0
 11
392.8334408187819
 21
252.0838519796927
 31
0.0
  0
LINE
  5
1486
330
1F
100
AcDbEntity
  8
AM_VIS
100
AcDbLine
 10
393.3334408187819
 20
251.5838519796927
 30
0.0
 11
393.333440818782
 21
240.5838519796926
 31
0.0
  0
ARC
  5
1488
330
1F
100
AcDbEntity
  8
AM_VIS
100
AcDbCircle
 10
368.3334408187819
 20
252.0838519796927
 30
0.0
 40
0.5
100
AcDbArc
 50
90.00000000000005
 51
180.0
  0
ARC
  5
1489
330
1F
100
AcDbEntity
  8
AM_VIS
100
AcDbCircle
 10
368.8334408187819
 20
251.5838519796927
 30
0.0
 40
0.5
100
AcDbArc
 50
90.00000000000005
 51
180.0
  0
ARC
  5
148A
330
1F
100
AcDbEntity
  8
AM_VIS
100
AcDbCircle
 10
392.8334408187819
 20
251.5838519796927
 30
0.0
 40
0.5
100
AcDbArc
 50
0.0000000000000636
 51
90.0000000000001
  0
ARC
  5
148B
330
1F
100
AcDbEntity
  8
AM_VIS
100
AcDbCircle
 10
393.3334408187819
 20
252.0838519796927
 30
0.0
 40
0.5
100
AcDbArc
 50
0.0
 51
90.0000000000001
  0
ARC
  5
148C
330
1F
100
AcDbEntity
  8
AM_VIS
100
AcDbCircle
 10
392.833440818782
 20
240.5838519796926
 30
0.0
 40
0.5
100
AcDbArc
 50
270.0000000000001
 51
0.0000000000000636
  0
ARC
  5
148D
330
1F
100
AcDbEntity
  8
AM_VIS
100
AcDbCircle
 10
368.8334408187819
 20
240.5838519796926
 30
0.0
 40
0.5
100
AcDbArc
 50
180.0
 51
270.0000000000001
  0
ARC
  5
148E
330
1F
100
AcDbEntity
  8
AM_VIS
100
AcDbCircle
 10
368.3334408187819
 20
237.0838519796927
 30
0.0
 40
0.5
100
AcDbArc
 50
180.0
 51
270.0
  0
ARC
  5
148F
330
1F
100
AcDbEntity
  8
AM_VIS
100
AcDbCircle
 10
393.3334408187819
 20
237.0838519796927
 30
0.0
 40
0.5
100
AcDbArc
 50
270.0
 51
0.0
  0
TEXT
  5
154D
330
1F
100
AcDbEntity
  8
LOGO
 62
     7
100
AcDbText
 10
398.2129115025127
 20
114.3589788814173
 30
0.0
 40
5.199247058823528
  1
Order example:
 41
0.8
  7
CHINESET
100
AcDbText
  0
TEXT
  5
154E
330
1F
100
AcDbEntity
  8
LOGO
 62
     7
100
AcDbText
 10
399.1456994208897
 20
121.6784422224011
 30
0.0
 40
7.798870588235293
  1
訂購代號：
  7
CHINESET
100
AcDbText
  0
LINE
  5
154F
330
1F
100
AcDbEntity
  8
LOGO
 62
     4
100
AcDbLine
 10
395.9538210206218
 20
92.44738841815493
 30
0.0
 11
395.9538210206218
 21
131.4417413593316
 31
0.0
  0
TEXT
  5
1550
330
1F
100
AcDbEntity
  8
LOGO
  6
Continuous
100
AcDbText
 10
324.173191409512
 20
100.1077702058395
 30
0.0
 40
5.84915294117647
  1
金器工業股份有限公司
  7
CHINESET
100
AcDbText
  0
TEXT
  5
1551
330
1F
100
AcDbEntity
  8
LOGO
  6
Continuous
100
AcDbText
 10
313.4294546544133
 20
94.25747128927799
 30
0.0
 40
3.899435294117646
  1
MINDMAN INDUSTRIAL CO., LTD.
 41
0.85
  7
CHINESET
100
AcDbText
  0
LINE
  5
1552
330
1F
100
AcDbEntity
  8
LOGO
 62
     4
100
AcDbLine
 10
395.9538210206218
 20
123.6428707710963
 30
0.0
 11
338.7621033735626
 21
123.6428707710963
 31
0.0
  0
LINE
  5
1553
330
1F
100
AcDbEntity
  8
LOGO
 62
     4
100
AcDbLine
 10
395.9538210206218
 20
115.8440001828609
 30
0.0
 11
338.7621033735626
 21
115.8440001828609
 31
0.0
  0
LINE
  5
1554
330
1F
100
AcDbEntity
  8
LOGO
 62
     4
100
AcDbLine
 10
395.9538210206218
 20
108.0451295946261
 30
0.0
 11
310.1662445500334
 21
108.0451295946261
 31
0.0
  0
LINE
  5
1555
330
1F
100
AcDbEntity
  8
LOGO
 62
     4
100
AcDbLine
 10
338.7621033735626
 20
108.0451295946261
 30
0.0
 11
338.7621033735626
 21
131.4417413593316
 31
0.0
  0
TEXT
  5
1556
330
1F
100
AcDbEntity
  8
LOGO
100
AcDbText
 10
377.8499429773717
 20
109.9948472416842
 30
0.0
 40
3.899435294117646
  1
mm
  7
CHINESET
 72
     1
 11
382.6778152462793
 21
111.944564888743
 31
0.0
100
AcDbText
 73
     2
  0
TEXT
  5
1557
330
1F
100
AcDbEntity
  8
LOGO
100
AcDbText
 10
375.8073816328339
 20
125.5925884181549
 30
0.0
 40
3.899435294117646
  1
1 : 1
  7
CHINESET
 72
     1
 11
382.6778152462793
 21
127.5423060652137
 31
0.0
100
AcDbText
 73
     2
  0
LINE
  5
1558
330
1F
100
AcDbEntity
  8
LOGO
 62
     4
100
AcDbLine
 10
369.957585726504
 20
108.0451295946261
 30
0.0
 11
369.957585726504
 21
131.4417413593316
 31
0.0
  0
TEXT
  5
1559
330
1F
100
AcDbEntity
  8
LOGO
100
AcDbText
 10
341.977396671882
 20
125.5945074315871
 30
255.5625652320971
 40
3.899435294117646
  1
比例 Scale:
 41
0.9
  7
CHINESET
 72
     4
 11
354.3598445500332
 21
127.5423060652137
 31
255.5625652320971
100
AcDbText
  0
TEXT
  5
155A
330
1F
100
AcDbEntity
  8
LOGO
100
AcDbText
 10
341.7528309786046
 20
117.8485696305217
 30
255.5625652320971
 40
3.899435294117646
  1
投影  View:
 41
0.9
  7
CHINESET
 72
     4
 11
354.3598445500332
 21
119.7434354769784
 31
255.5625652320971
100
AcDbText
  0
TEXT
  5
155B
330
1F
100
AcDbEntity
  8
LOGO
100
AcDbText
 10
342.1340704113778
 20
109.9948472416842
 30
255.5625652320971
 40
3.899435294117646
  1
單位  Unit:
 41
0.9
  7
CHINESET
 72
     4
 11
354.3598445500332
 21
111.944564888743
 31
255.5625652320971
100
AcDbText
  0
LWPOLYLINE
  5
155C
330
1F
100
AcDbEntity
  8
LOGO
 62
     4
100
AcDbPolyline
 90
        4
 70
     1
 43
0.0
 10
310.1662445500334
 20
131.4417413593316
 10
846.4162445500333
 20
131.4417413593316
 10
846.4162445500333
 20
413.1567842136623
 10
310.1662445500334
 20
413.1567842136623
1001
GENIUS_GENREC_14
1002
{
1000
PYDIR
1011
310.1662445500334
1021
413.1567842136623
1031
0.0
1002
}
1002
{
1000
PXDIR
1011
846.4162445500333
1021
131.4417413593316
1031
0.0
1002
}
1002
{
1000
PORI
1011
310.1662445500334
1021
131.4417413593316
1031
0.0
1002
}
1002
{
1000
PINS
1011
310.1662445500334
1021
131.4417413593316
1031
0.0
1002
}
1002
{
1000
PINS2
1011
846.4162445500333
1021
413.1567842136623
1031
0.0
1002
}
1002
{
1000
C
1070
     1
1002
}
1001
GENIUS_GENODEF_13
1002
{
1000
HIER
1070
     0
1002
}
1002
{
1000
MANEDIT
1070
     0
1002
}
1002
{
1000
NOSEL
1070
     0
1002
}
1002
{
1000
BEHIND
1070
     0
1002
}
1002
{
1000
OTHER
1070
     0
1002
}
1002
{
1000
REACTOR
1002
}
1001
GENIUS_GENOBJ-N-REC_13
1002
{
1000
OWNER
1000
GEN
1002
}
  0
SOLID
  5
155D
330
1F
100
AcDbEntity
  8
LOGO
 62
     5
100
AcDbTrace
 10
314.2119712488567
 20
114.5273857301892
 30
0.0
 11
315.897984748851
 21
114.5273857301887
 31
0.0
 12
322.9327307315858
 22
130.5154447818601
 32
0.0
 13
324.618744231581
 23
130.5154447818592
 33
0.0
  0
SOLID
  5
155E
330
1F
100
AcDbEntity
  8
LOGO
 62
     5
100
AcDbTrace
 10
316.5956455074712
 20
114.5273857301892
 30
0.0
 11
318.2816590074655
 21
114.5273857301892
 31
0.0
 12
324.618744231581
 22
129.2364000577258
 32
0.0
 13
322.9327307315858
 23
123.0543505577464
 33
0.0
  0
SOLID
  5
155F
330
1F
100
AcDbEntity
  8
LOGO
 62
     2
100
AcDbTrace
 10
315.897984748851
 20
114.5273857301887
 30
0.0
 11
316.5956455074712
 21
114.5273857301892
 31
0.0
 12
324.618744231581
 22
130.5154447818592
 32
0.0
 13
325.3164049902003
 23
130.5154447818592
 33
0.0
  0
SOLID
  5
1560
330
1F
100
AcDbEntity
  8
LOGO
 62
     5
100
AcDbTrace
 10
311.5088781472094
 20
108.7135460750366
 30
0.0
 11
312.0902621127253
 21
108.7135460750366
 31
0.0
 12
313.7274846109278
 22
111.6204659026127
 32
0.0
 13
314.308868576442
 23
111.6204659026127
 33
0.0
  0
SOLID
  5
1561
330
1F
100
AcDbEntity
  8
LOGO
 62
     5
100
AcDbTrace
 10
313.7274846109278
 20
111.6204659026127
 30
0.0
 11
314.308868576442
 21
111.6204659026127
 31
0.0
 12
313.7274846109278
 22
108.7135460750366
 32
0.0
 13
314.308868576442
 23
108.7135460750366
 33
0.0
  0
SOLID
  5
1562
330
1F
100
AcDbEntity
  8
LOGO
 62
     5
100
AcDbTrace
 10
313.7274846109278
 20
108.7135460750366
 30
0.0
 11
314.308868576442
 21
108.7135460750366
 31
0.0
 12
315.9460910746471
 22
111.6204659026127
 32
0.0
 13
316.5274750401622
 23
111.6204659026127
 33
0.0
  0
SOLID
  5
1563
330
1F
100
AcDbEntity
  8
LOGO
 62
     5
100
AcDbTrace
 10
315.9460910746471
 20
111.6204659026127
 30
0.0
 11
316.5274750401622
 21
111.6204659026127
 31
0.0
 12
315.9460910746471
 22
108.7135460750366
 32
0.0
 13
316.5274750401622
 23
108.7135460750366
 33
0.0
  0
POLYLINE
  5
1564
330
1F
100
AcDbEntity
  8
LOGO
 62
     5
100
AcDb2dPolyline
 66
     1
 10
0.0
 20
0.0
 30
0.0
 40
0.5823156705882352
 41
0.5823156705882352
  0
VERTEX
  5
1565
330
1564
100
AcDbEntity
  8
LOGO
 62
     5
100
AcDbVertex
100
AcDb2dVertex
 10
335.4338835477756
 20
110.4576979715822
 30
0.0
 42
1.0
  0
VERTEX
  5
1566
330
1564
100
AcDbEntity
  8
LOGO
 62
     5
100
AcDbVertex
100
AcDb2dVertex
 10
333.6869365360106
 20
110.4576979715822
 30
0.0
 42
1.0
  0
SEQEND
  5
1567
330
1564
100
AcDbEntity
  8
LOGO
 62
     5
  0
POLYLINE
  5
1568
330
1F
100
AcDbEntity
  8
LOGO
 62
     5
100
AcDb2dPolyline
 66
     1
 10
0.0
 20
0.0
 30
0.0
 70
     1
  0
VERTEX
  5
1569
330
1568
100
AcDbEntity
  8
LOGO
 62
     5
100
AcDbVertex
100
AcDb2dVertex
 10
330.39386371463
 20
110.1670059888242
 30
0.0
 42
1.000000057330635
  0
VERTEX
  5
156A
330
1568
100
AcDbEntity
  8
LOGO
 62
     5
100
AcDbVertex
100
AcDb2dVertex
 10
332.138015611176
 20
110.1670059888242
 30
0.0
 42
1.000000057330635
  0
SEQEND
  5
156B
330
1568
100
AcDbEntity
  8
LOGO
 62
     5
  0
CIRCLE
  5
156C
330
1F
100
AcDbEntity
  8
LOGO
 62
     5
100
AcDbCircle
 10
331.2659396629043
 20
110.1670059888242
 30
0.0
 40
0.8720759482729413
  0
POLYLINE
  5
156D
330
1F
100
AcDbEntity
  8
LOGO
 62
     5
100
AcDb2dPolyline
 66
     1
 10
0.0
 20
0.0
 30
0.0
 70
     1
 40
0.5823156705882352
 41
0.5823156705882352
  0
VERTEX
  5
156E
330
156D
100
AcDbEntity
  8
LOGO
 62
     5
100
AcDbVertex
100
AcDb2dVertex
 10
330.1013083217271
 20
110.1670059888242
 30
0.0
 42
1.0
  0
VERTEX
  5
156F
330
156D
100
AcDbEntity
  8
LOGO
 62
     5
100
AcDbVertex
100
AcDb2dVertex
 10
332.4305710040799
 20
110.1670059888242
 30
0.0
 42
1.0
  0
SEQEND
  5
1570
330
156D
100
AcDbEntity
  8
LOGO
 62
     5
  0
LINE
  5
1571
330
1F
100
AcDbEntity
  8
LOGO
100
AcDbLine
 10
335.7231779729227
 20
108.7135460750366
 30
0.0
 11
335.7231779729227
 21
110.4576979715822
 31
0.0
  0
SOLID
  5
1572
330
1F
100
AcDbEntity
  8
LOGO
 62
     5
100
AcDbTrace
 10
332.137957472782
 20
111.6204659026127
 30
0.0
 11
332.7193414382962
 21
111.6204659026127
 31
0.0
 12
332.137957472782
 22
108.7135460750366
 32
0.0
 13
332.7193414382962
 23
108.7135460750366
 33
0.0
  0
SOLID
  5
1573
330
1F
100
AcDbEntity
  8
LOGO
 62
     5
100
AcDbTrace
 10
333.3976421108618
 20
108.7135460750366
 30
0.0
 11
333.9790260763777
 21
108.7135460750366
 31
0.0
 12
333.3976421108618
 22
111.6204659026127
 32
0.0
 13
333.9790260763777
 23
111.6204659026127
 33
0.0
  0
SOLID
  5
1574
330
1F
100
AcDbEntity
  8
LOGO
 62
     5
100
AcDbTrace
 10
335.1417940074086
 20
110.4576979715822
 30
0.0
 11
335.7231779729227
 21
110.4576979715822
 31
0.0
 12
335.1417940074086
 22
108.7135460750366
 32
0.0
 13
335.7231779729227
 23
108.7135460750366
 33
0.0
  0
SOLID
  5
1575
330
1F
100
AcDbEntity
  8
LOGO
 62
     5
100
AcDbTrace
 10
333.33950371431
 20
129.2364000577258
 30
0.0
 11
331.6534902143166
 21
123.0543505577464
 31
0.0
 12
333.33950371431
 22
114.5273857301887
 32
0.0
 13
331.6534902143166
 23
114.5273857301887
 33
0.0
  0
SOLID
  5
1576
330
1F
100
AcDbEntity
  8
LOGO
 62
     5
100
AcDbTrace
 10
334.0371644729293
 20
114.5273857301887
 30
0.0
 11
335.7231779729227
 21
114.5273857301887
 31
0.0
 12
334.0371644729293
 22
130.5154447818592
 32
0.0
 13
335.7231779729227
 23
130.5154447818601
 33
0.0
  0
SOLID
  5
1577
330
1F
100
AcDbEntity
  8
LOGO
 62
     2
100
AcDbTrace
 10
333.33950371431
 20
130.5154447818601
 30
0.0
 11
334.0371644729293
 21
130.5154447818592
 31
0.0
 12
333.33950371431
 22
114.5273857301887
 32
0.0
 13
334.0371644729293
 23
114.5273857301887
 33
0.0
  0
POLYLINE
  5
1578
330
1F
100
AcDbEntity
  8
LOGO
 62
     5
100
AcDb2dPolyline
 66
     1
 10
0.0
 20
0.0
 30
0.0
 40
0.5823156705882352
 41
0.5823156705882352
  0
VERTEX
  5
1579
330
1578
100
AcDbEntity
  8
LOGO
 62
     5
100
AcDbVertex
100
AcDb2dVertex
 10
327.1006746164589
 20
110.4576979715822
 30
0.0
 42
1.0
  0
VERTEX
  5
157A
330
1578
100
AcDbEntity
  8
LOGO
 62
     5
100
AcDbVertex
100
AcDb2dVertex
 10
325.3537276046938
 20
110.4576979715822
 30
0.0
 42
1.0
  0
SEQEND
  5
157B
330
1578
100
AcDbEntity
  8
LOGO
 62
     5
  0
POLYLINE
  5
157C
330
1F
100
AcDbEntity
  8
LOGO
 62
     5
100
AcDb2dPolyline
 66
     1
 10
0.0
 20
0.0
 30
0.0
 40
0.5823156705882352
 41
0.5823156705882352
  0
VERTEX
  5
157D
330
157C
100
AcDbEntity
  8
LOGO
 62
     5
100
AcDbVertex
100
AcDb2dVertex
 10
328.8448265130031
 20
110.4576979715822
 30
0.0
 42
1.0
  0
VERTEX
  5
157E
330
157C
100
AcDbEntity
  8
LOGO
 62
     5
100
AcDbVertex
100
AcDb2dVertex
 10
327.097879501239
 20
110.4576979715822
 30
0.0
 42
1.0
  0
SEQEND
  5
157F
330
157C
100
AcDbEntity
  8
LOGO
 62
     5
  0
POLYLINE
  5
1580
330
1F
100
AcDbEntity
  8
LOGO
 62
     5
100
AcDb2dPolyline
 66
     1
 10
0.0
 20
0.0
 30
0.0
 40
0.5823156705882352
 41
0.5823156705882352
  0
VERTEX
  5
1581
330
1580
100
AcDbEntity
  8
LOGO
 62
     5
100
AcDbVertex
100
AcDb2dVertex
 10
320.5116175816863
 20
110.4576979715822
 30
0.0
 42
1.0
  0
VERTEX
  5
1582
330
1580
100
AcDbEntity
  8
LOGO
 62
     5
100
AcDbVertex
100
AcDb2dVertex
 10
318.7646705699222
 20
110.4576979715822
 30
0.0
 42
1.0
  0
SEQEND
  5
1583
330
1580
100
AcDbEntity
  8
LOGO
 62
     5
  0
SOLID
  5
1584
330
1F
100
AcDbEntity
  8
LOGO
 62
     5
100
AcDbTrace
 10
318.4753761447741
 20
111.6204659026127
 30
0.0
 11
319.0567601102884
 21
111.6204659026127
 31
0.0
 12
318.4753761447741
 22
108.7135460750366
 32
0.0
 13
319.0567601102884
 23
108.7135460750366
 33
0.0
  0
SOLID
  5
1585
330
1F
100
AcDbEntity
  8
LOGO
 62
     5
100
AcDbTrace
 10
320.2195280413201
 20
110.4576979715822
 30
0.0
 11
320.8009120068361
 21
110.4576979715822
 31
0.0
 12
320.2195280413201
 22
108.7135460750366
 32
0.0
 13
320.8009120068361
 23
108.7135460750366
 33
0.0
  0
POLYLINE
  5
1586
330
1F
100
AcDbEntity
  8
LOGO
 62
     5
100
AcDb2dPolyline
 66
     1
 10
0.0
 20
0.0
 30
0.0
 70
     1
 40
0.5823156705882352
 41
0.5823156705882352
  0
VERTEX
  5
1587
330
1586
100
AcDbEntity
  8
LOGO
 62
     5
100
AcDbVertex
100
AcDb2dVertex
 10
321.7680993904094
 20
110.1670059888242
 30
0.0
 42
1.0
  0
VERTEX
  5
1588
330
1586
100
AcDbEntity
  8
LOGO
 62
     5
100
AcDbVertex
100
AcDb2dVertex
 10
324.0973620727631
 20
110.1670059888242
 30
0.0
 42
1.0
  0
SEQEND
  5
1589
330
1586
100
AcDbEntity
  8
LOGO
 62
     5
  0
SOLID
  5
158A
330
1F
100
AcDbEntity
  8
LOGO
 62
     5
100
AcDbTrace
 10
323.8047485414635
 20
112.4925418508861
 30
0.0
 11
324.3861325069785
 21
112.4925418508861
 31
0.0
 12
323.8047485414635
 22
108.7135460750366
 32
0.0
 13
324.3861325069785
 23
108.7135460750366
 33
0.0
  0
SOLID
  5
158B
330
1F
100
AcDbEntity
  8
LOGO
 62
     5
100
AcDbTrace
 10
325.0644331795467
 20
111.6204659026127
 30
0.0
 11
325.6458171450609
 21
111.6204659026127
 31
0.0
 12
325.0644331795467
 22
108.7135460750366
 32
0.0
 13
325.6458171450609
 23
108.7135460750366
 33
0.0
  0
SOLID
  5
158C
330
1F
100
AcDbEntity
  8
LOGO
 62
     5
100
AcDbTrace
 10
326.8085850760909
 20
110.4576979715822
 30
0.0
 11
327.3899690416068
 21
110.4576979715822
 31
0.0
 12
326.8085850760909
 22
108.7135460750366
 32
0.0
 13
327.3899690416068
 23
108.7135460750366
 33
0.0
  0
SOLID
  5
158D
330
1F
100
AcDbEntity
  8
LOGO
 62
     5
100
AcDbTrace
 10
328.5527369726369
 20
110.4576979715822
 30
0.0
 11
329.134120938152
 21
110.4576979715822
 31
0.0
 12
328.5527369726369
 22
108.7135460750357
 32
0.0
 13
329.134120938152
 23
108.7135460750357
 33
0.0
  0
SOLID
  5
158E
330
1F
100
AcDbEntity
  8
LOGO
 62
     5
100
AcDbTrace
 10
317.2156915066918
 20
112.0274346784736
 30
0.0
 11
317.7970754722086
 21
112.0274346784736
 31
0.0
 12
317.2156915066918
 22
112.4925418508861
 32
0.0
 13
317.7970754722086
 23
112.4925418508861
 33
0.0
  0
SOLID
  5
158F
330
1F
100
AcDbEntity
  8
LOGO
 62
     5
100
AcDbTrace
 10
317.2156915066918
 20
111.6204659026127
 30
0.0
 11
317.7970754722086
 21
111.6204659026127
 31
0.0
 12
317.2156915066918
 22
108.7135460750357
 32
0.0
 13
317.7970754722086
 23
108.7135460750366
 33
0.0
  0
SOLID
  5
1590
330
1F
100
AcDbEntity
  8
LOGO
 62
     5
100
AcDbTrace
 10
322.9327307315858
 20
114.5273857301892
 30
0.0
 11
324.618744231581
 21
114.5273857301892
 31
0.0
 12
322.9327307315858
 22
123.0543505577464
 32
0.0
 13
324.618744231581
 23
129.2364000577258
 33
0.0
  0
SOLID
  5
1591
330
1F
100
AcDbEntity
  8
LOGO
 62
     5
100
AcDbTrace
 10
325.3164049902003
 20
130.5154447818592
 30
0.0
 11
327.0024184901937
 21
130.5154447818601
 31
0.0
 12
325.3164049902003
 22
115.8064304543226
 32
0.0
 13
327.0024184901937
 23
121.988479954302
 33
0.0
  0
SOLID
  5
1592
330
1F
100
AcDbEntity
  8
LOGO
 62
     2
100
AcDbTrace
 10
324.618744231581
 20
130.5154447818592
 30
0.0
 11
325.3164049902003
 21
130.5154447818592
 31
0.0
 12
324.618744231581
 22
114.5273857301892
 32
0.0
 13
325.3164049902003
 23
114.5273857301892
 33
0.0
  0
SOLID
  5
1593
330
1F
100
AcDbEntity
  8
LOGO
 62
     5
100
AcDbTrace
 10
325.3164049902003
 20
115.8064304543226
 30
0.0
 11
327.0024184901937
 21
121.988479954302
 31
0.0
 12
333.33950371431
 22
130.5154447818601
 32
0.0
 13
331.6534902143166
 23
130.5154447818601
 33
0.0
  0
SOLID
  5
1594
330
1F
100
AcDbEntity
  8
LOGO
 62
     5
100
AcDbTrace
 10
325.3164049902003
 20
114.5273857301892
 30
0.0
 11
327.0024184901937
 21
114.5273857301892
 31
0.0
 12
333.33950371431
 22
129.2364000577258
 32
0.0
 13
331.6534902143166
 23
123.0543505577464
 33
0.0
  0
SOLID
  5
1595
330
1F
100
AcDbEntity
  8
LOGO
 62
     2
100
AcDbTrace
 10
324.618744231581
 20
114.5273857301892
 30
0.0
 11
325.3164049902003
 21
114.5273857301892
 31
0.0
 12
333.33950371431
 22
130.5154447818601
 32
0.0
 13
334.0371644729293
 23
130.5154447818592
 33
0.0
  0
LWPOLYLINE
  5
1596
330
1F
100
AcDbEntity
  8
LOGO
 62
     4
100
AcDbPolyline
 90
        4
 70
     1
 43
0.0
 10
310.1662445500334
 20
131.4417413593316
 10
846.4162445500333
 20
131.4417413593316
 10
846.4162445500333
 20
92.44738841815449
 10
310.1662445500334
 20
92.44738841815449
1001
GENIUS_GENREC_14
1002
{
1000
PYDIR
1011
310.1662445500334
1021
92.44738841815449
1031
0.0
1002
}
1002
{
1000
PXDIR
1011
846.4162445500333
1021
131.4417413593316
1031
0.0
1002
}
1002
{
1000
PORI
1011
310.1662445500334
1021
131.4417413593316
1031
0.0
1002
}
1002
{
1000
PINS
1011
310.1662445500334
1021
131.4417413593316
1031
0.0
1002
}
1002
{
1000
PINS2
1011
846.4162445500333
1021
92.44738841815449
1031
0.0
1002
}
1002
{
1000
C
1070
     1
1002
}
1001
GENIUS_GENOBJ-N-REC_13
1002
{
1000
OWNER
1000
GEN
1002
}
1001
GENIUS_GENODEF_13
1002
{
1000
HIER
1070
     0
1002
}
1002
{
1000
MANEDIT
1070
     0
1002
}
1002
{
1000
NOSEL
1070
     0
1002
}
1002
{
1000
BEHIND
1070
     0
1002
}
1002
{
1000
OTHER
1070
     0
1002
}
1002
{
1000
REACTOR
1002
}
  0
LINE
  5
1597
330
1F
100
AcDbEntity
  8
LOGO
 62
     4
100
AcDbLine
 10
467.7097866298087
 20
109.994847241685
 30
0.0
 11
467.7097866298087
 21
95.69691782991956
 31
0.0
  0
LINE
  5
1598
330
1F
100
AcDbEntity
  8
LOGO
 62
     4
100
AcDbLine
 10
449.5888228339693
 20
109.994847241685
 30
0.0
 11
449.5888228339693
 21
95.69691782991956
 31
0.0
  0
LINE
  5
1599
330
1F
100
AcDbEntity
  8
LOGO
 62
     4
100
AcDbLine
 10
467.7097866298087
 20
95.69691782991956
 30
0.0
 11
449.5888228339693
 21
95.69691782991956
 31
0.0
  0
LINE
  5
159A
330
1F
100
AcDbEntity
  8
LOGO
 62
     4
100
AcDbLine
 10
480.2477592032094
 20
127.5423060652137
 30
0.0
 11
449.5888228339693
 21
127.5423060652137
 31
0.0
  0
LINE
  5
159B
330
1F
100
AcDbEntity
  8
LOGO
 62
     4
100
AcDbLine
 10
480.2477592032094
 20
115.8440001828609
 30
0.0
 11
449.5888228339693
 21
115.8440001828609
 31
0.0
  0
LINE
  5
159C
330
1F
100
AcDbEntity
  8
LOGO
 62
     4
100
AcDbLine
 10
449.5888228339693
 20
127.5423060652137
 30
0.0
 11
449.5888228339693
 21
115.8440001828609
 31
0.0
  0
LINE
  5
159D
330
1F
100
AcDbEntity
  8
LOGO
 62
     4
100
AcDbLine
 10
480.2477592032094
 20
127.5423060652137
 30
0.0
 11
480.2477592032094
 21
115.8440001828609
 31
0.0
  0
LINE
  5
159E
330
1F
100
AcDbEntity
  8
LOGO
 62
     4
100
AcDbLine
 10
463.9432910185894
 20
115.8440001828609
 30
0.0
 11
463.9432910185894
 21
109.994847241685
 31
0.0
  0
TEXT
  5
159F
330
1F
100
AcDbEntity
  8
LOGO
  6
Continuous
 62
     7
100
AcDbText
 10
452.1658172749067
 20
118.2860044328807
 30
0.0
 40
6.825
  1
MP23
  7
CHINESET
100
AcDbText
  0
LINE
  5
15A0
330
1F
100
AcDbEntity
  8
LOGO
 62
     4
100
AcDbLine
 10
467.7097866298087
 20
109.994847241685
 30
0.0
 11
449.5888228339693
 21
109.994847241685
 31
0.0
  0
TEXT
  5
15A1
330
1F
100
AcDbEntity
  8
LOGO
  6
Continuous
100
AcDbText
 10
453.73458474042
 20
97.71504024692658
 30
255.5625652320971
 40
2.925
  1
Model
 41
0.8
  7
CHINESET
100
AcDbText
  0
TEXT
  5
15A2
330
1F
100
AcDbEntity
  8
LOGO
100
AcDbText
 10
452.9560448263217
 20
103.1373598644349
 30
255.5625652320971
 40
4.875
  1
型號
  7
CHINESET
100
AcDbText
  0
LINE
  5
15A4
330
1F
100
AcDbEntity
  8
LOGO
 62
     4
100
AcDbLine
 10
504.0579798828156
 20
109.994847241685
 30
0.0
 11
504.0579798828156
 21
95.69691782991956
 31
0.0
  0
LINE
  5
15A5
330
1F
100
AcDbEntity
  8
LOGO
 62
     4
100
AcDbLine
 10
470.4943025963147
 20
109.994847241685
 30
0.0
 11
470.4943025963147
 21
95.69691782991956
 31
0.0
  0
LINE
  5
15A6
330
1F
100
AcDbEntity
  8
LOGO
 62
     4
100
AcDbLine
 10
504.0579798828156
 20
95.69691782991956
 30
0.0
 11
470.4943025963147
 21
95.69691782991956
 31
0.0
  0
LINE
  5
15A7
330
1F
100
AcDbEntity
  8
LOGO
 62
     4
100
AcDbLine
 10
492.3428453065207
 20
127.5423060652137
 30
0.0
 11
482.232914649594
 21
127.5423060652137
 31
0.0
  0
LINE
  5
15A8
330
1F
100
AcDbEntity
  8
LOGO
 62
     4
100
AcDbLine
 10
492.3428453065207
 20
115.8440001828609
 30
0.0
 11
482.232914649594
 21
115.8440001828609
 31
0.0
  0
LINE
  5
15A9
330
1F
100
AcDbEntity
  8
LOGO
 62
     4
100
AcDbLine
 10
482.232914649594
 20
127.5423060652137
 30
0.0
 11
482.232914649594
 21
115.8440001828609
 31
0.0
  0
LINE
  5
15AA
330
1F
100
AcDbEntity
  8
LOGO
 62
     4
100
AcDbLine
 10
492.3428453065207
 20
127.5423060652137
 30
0.0
 11
492.3428453065207
 21
115.8440001828609
 31
0.0
  0
TEXT
  5
15AC
330
1F
100
AcDbEntity
  8
LOGO
  6
Continuous
 62
     7
100
AcDbText
 10
484.7218920490603
 20
118.2860044328807
 30
0.0
 40
6.825
  1
P
  7
CHINESET
100
AcDbText
  0
LINE
  5
15AD
330
1F
100
AcDbEntity
  8
LOGO
 62
     4
100
AcDbLine
 10
504.0579798828156
 20
109.994847241685
 30
0.0
 11
470.4943025963147
 21
109.994847241685
 31
0.0
  0
LINE
  5
15AE
330
1F
100
AcDbEntity
  8
LOGO
  6
Continuous
 62
     7
100
AcDbLine
 10
494.3673306459756
 20
121.6517158758329
 30
0.0
 11
499.5328756714078
 21
121.6517158758329
 31
0.0
  0
LINE
  5
15BA
330
1F
100
AcDbEntity
  8
LOGO
 62
     4
100
AcDbLine
 10
531.279521222269
 20
109.994847241685
 30
0.0
 11
531.279521222269
 21
95.69691782991956
 31
0.0
  0
LINE
  5
15BB
330
1F
100
AcDbEntity
  8
LOGO
 62
     4
100
AcDbLine
 10
506.7661685973226
 20
109.994847241685
 30
0.0
 11
506.7661685973226
 21
95.69691782991956
 31
0.0
  0
LINE
  5
15BC
330
1F
100
AcDbEntity
  8
LOGO
 62
     4
100
AcDbLine
 10
531.279521222269
 20
95.69691782991956
 30
0.0
 11
506.7661685973226
 21
95.69691782991956
 31
0.0
  0
LINE
  5
15BD
330
1F
100
AcDbEntity
  8
LOGO
 62
     4
100
AcDbLine
 10
516.6924033941022
 20
127.5423060652137
 30
0.0
 11
501.4990348152427
 21
127.5423060652137
 31
0.0
  0
LINE
  5
15BE
330
1F
100
AcDbEntity
  8
LOGO
 62
     4
100
AcDbLine
 10
516.6924033941022
 20
115.8440001828609
 30
0.0
 11
501.4990348152427
 21
115.8440001828609
 31
0.0
  0
LINE
  5
15BF
330
1F
100
AcDbEntity
  8
LOGO
 62
     4
100
AcDbLine
 10
501.4990348152427
 20
127.5423060652137
 30
0.0
 11
501.4990348152427
 21
115.8440001828609
 31
0.0
  0
LINE
  5
15C0
330
1F
100
AcDbEntity
  8
LOGO
 62
     4
100
AcDbLine
 10
516.6924033941022
 20
127.5423060652137
 30
0.0
 11
516.6924033941022
 21
115.8440001828609
 31
0.0
  0
LINE
  5
15C1
330
1F
100
AcDbEntity
  8
LOGO
 62
     4
100
AcDbLine
 10
509.0957191046725
 20
115.8440001828609
 30
0.0
 11
509.0957191046725
 21
112.919423712273
 31
0.0
  0
TEXT
  5
15C2
330
1F
100
AcDbEntity
  8
LOGO
  6
Continuous
 62
     7
100
AcDbText
 10
505.6941575388825
 20
118.2860044328807
 30
0.0
 40
6.825
  1
F1
  7
CHINESET
100
AcDbText
  0
LINE
  5
15C3
330
1F
100
AcDbEntity
  8
LOGO
 62
     4
100
AcDbLine
 10
531.279521222269
 20
109.994847241685
 30
0.0
 11
506.7661685973226
 21
109.994847241685
 31
0.0
  0
TEXT
  5
15C4
330
1F
100
AcDbEntity
  8
LOGO
  6
Continuous
100
AcDbText
 10
473.4159144546409
 20
97.71504024692658
 30
255.5625652320971
 40
2.925
  1
Pressure range
 41
0.8
  7
CHINESET
100
AcDbText
  0
TEXT
  5
15C5
330
1F
100
AcDbEntity
  8
LOGO
100
AcDbText
 10
478.0710988713727
 20
103.1373598644349
 30
255.5625652320971
 40
4.875
  1
壓力類型
  7
CHINESET
100
AcDbText
  0
TEXT
  5
15C8
330
1F
100
AcDbEntity
  8
LOGO
  6
Continuous
100
AcDbText
 10
511.5216645069265
 20
97.71504024692658
 30
255.5625652320971
 40
2.925
  1
Port size
 41
0.8
  7
CHINESET
100
AcDbText
  0
TEXT
  5
15C9
330
1F
100
AcDbEntity
  8
LOGO
100
AcDbText
 10
509.2573969672649
 20
103.1373598644349
 30
255.5625652320971
 40
4.875
  1
配管口徑
  7
CHINESET
100
AcDbText
  0
LINE
  5
15CA
330
1F
100
AcDbEntity
  8
LOGO
 62
     4
100
AcDbLine
 10
546.3138297753999
 20
127.5423060652137
 30
0.0
 11
527.8194209557624
 21
127.5423060652137
 31
0.0
  0
LINE
  5
15CB
330
1F
100
AcDbEntity
  8
LOGO
 62
     4
100
AcDbLine
 10
546.3138297753999
 20
115.8440001828609
 30
0.0
 11
527.8194209557624
 21
115.8440001828609
 31
0.0
  0
LINE
  5
15CC
330
1F
100
AcDbEntity
  8
LOGO
 62
     4
100
AcDbLine
 10
527.8194209557624
 20
127.5423060652137
 30
0.0
 11
527.8194209557624
 21
115.8440001828609
 31
0.0
  0
LINE
  5
15CD
330
1F
100
AcDbEntity
  8
LOGO
 62
     4
100
AcDbLine
 10
546.3138297753999
 20
127.5423060652137
 30
0.0
 11
546.3138297753999
 21
115.8440001828609
 31
0.0
  0
TEXT
  5
15CE
330
1F
100
AcDbEntity
  8
LOGO
  6
Continuous
 62
     7
100
AcDbText
 10
535.2263083108265
 20
118.2860044328807
 30
0.0
 40
6.825
  1
*
  7
CHINESET
100
AcDbText
  0
LINE
  5
15CF
330
1F
100
AcDbEntity
  8
LOGO
 62
     4
100
AcDbLine
 10
572.540271455554
 20
109.994847241685
 30
0.0
 11
572.540271455554
 21
95.69691782991956
 31
0.0
  0
LINE
  5
15D0
330
1F
100
AcDbEntity
  8
LOGO
 62
     4
100
AcDbLine
 10
534.7595703791232
 20
109.994847241685
 30
0.0
 11
534.7595703791232
 21
95.69691782991956
 31
0.0
  0
LINE
  5
15D1
330
1F
100
AcDbEntity
  8
LOGO
 62
     4
100
AcDbLine
 10
572.540271455554
 20
95.69691782991956
 30
0.0
 11
534.7595703791232
 21
95.69691782991956
 31
0.0
  0
LINE
  5
15D2
330
1F
100
AcDbEntity
  8
LOGO
 62
     4
100
AcDbLine
 10
572.540271455554
 20
109.994847241685
 30
0.0
 11
534.7595703791232
 21
109.994847241685
 31
0.0
  0
TEXT
  5
15D3
330
1F
100
AcDbEntity
  8
LOGO
  6
Continuous
100
AcDbText
 10
538.3518117096279
 20
97.71504024692658
 30
255.5625652320971
 40
2.925
  1
Option spare part
 41
0.8
  7
CHINESET
100
AcDbText
  0
TEXT
  5
15D4
330
1F
100
AcDbEntity
  8
LOGO
100
AcDbText
 10
543.4498584616988
 20
103.1373598644349
 30
255.5625652320971
 40
4.875
  1
安裝配件
  7
CHINESET
100
AcDbText
  0
LINE
  5
15D5
330
1F
100
AcDbEntity
  8
LOGO
 62
     4
100
AcDbLine
 10
553.6499209173387
 20
112.919423712273
 30
0.0
 11
553.6499209173387
 21
109.994847241685
 31
0.0
  0
TEXT
  5
15D6
330
1F
100
AcDbEntity
  8
LOGO
100
AcDbText
 10
397.7605654235352
 20
94.52187260380156
 30
0.0
 40
3.9
  1
10706012
 41
0.7
  7
CHINESET
 72
     1
 11
407.2505654235352
 21
94.52187260380156
 31
0.0
100
AcDbText
  0
LINE
  5
15D7
330
1F
100
AcDbEntity
  8
LOGO
 62
     4
100
AcDbLine
 10
419.35382102062
 20
100.2462590063911
 30
0.0
 11
419.3538210206217
 21
92.44738841815538
 31
0.0
  0
LINE
  5
15D8
330
1F
100
AcDbEntity
  8
LOGO
 62
     4
100
AcDbLine
 10
419.35382102062
 20
100.2462590063911
 30
0.0
 11
395.9538210206218
 21
100.2462590063911
 31
0.0
  0
CIRCLE
  5
15D9
330
1F
100
AcDbEntity
  8
LOGO
  6
Continuous
100
AcDbCircle
 10
377.1778779072192
 20
119.7517763976082
 30
0.0
 40
2.264103914125231
  0
CIRCLE
  5
15DA
330
1F
100
AcDbEntity
  8
LOGO
  6
Continuous
100
AcDbCircle
 10
377.1778779072192
 20
119.7517763976082
 30
0.0
 40
1.326564463897914
  0
LINE
  5
15DB
330
1F
100
AcDbEntity
  8
LOGO
100
AcDbLine
 10
391.4057696190904
 20
117.4876724834825
 30
0.0
 11
391.4057696190904
 21
122.0158803117339
 31
0.0
  0
LINE
  5
15DC
330
1F
100
AcDbEntity
  8
LOGO
100
AcDbLine
 10
384.3079338140741
 20
118.4252119337105
 30
0.0
 11
384.3079338140741
 21
121.0783408615063
 31
0.0
  0
LINE
  5
15DD
330
1F
100
AcDbEntity
  8
LOGO
  6
Continuous
100
AcDbLine
 10
384.3079338140741
 20
121.0783408615063
 30
0.0
 11
391.4057696190904
 21
122.0158803117339
 31
0.0
  0
LINE
  5
15DE
330
1F
100
AcDbEntity
  8
LOGO
  6
Continuous
100
AcDbLine
 10
384.3079338140741
 20
118.4252119337105
 30
0.0
 11
391.4057696190904
 21
117.4876724834825
 31
0.0
  0
LINE
  5
15DF
330
1F
100
AcDbEntity
  8
LOGO
  6
AM_ISO08W050x2
 48
0.3
100
AcDbLine
 10
374.056776759311
 20
119.7517763976082
 30
0.0
 11
380.2989790551272
 21
119.7517763976082
 31
0.0
1001
GENIUS_GENOREF_13
1005
15E4
  0
LINE
  5
15E0
330
1F
100
AcDbEntity
  8
LOGO
  6
AM_ISO08W050x2
 48
0.3
100
AcDbLine
 10
377.1778779072192
 20
116.6306752497001
 30
0.0
 11
377.1778779072192
 21
122.8728775455163
 31
0.0
1001
GENIUS_GENOREF_13
1005
15E3
  0
LINE
  5
15E1
330
1F
100
AcDbEntity
  8
LOGO
  6
CENTER
 48
0.5
100
AcDbLine
 10
383.7403042330959
 20
119.7517763976082
 30
0.0
 11
392.1204987077764
 21
119.7517763976082
 31
0.0
1001
GENIUS_GENOREF_13
1005
15E2
  0
POINT
  5
15E2
330
1F
100
AcDbEntity
  8
0
 60
     1
100
AcDbPoint
 10
-1589.908685686106
 20
-827.8405997347217
 30
0.0
1001
GENIUS_GENOBJ-N-CRS_13
1002
{
1000
OWNER
1000
GEN
1002
}
1001
GENIUS_GENOLIS_13
1002
{
1000
ENT
1005
0
1005
0
1005
0
1005
15E1
1002
}
1001
GENIUS_GENOENT_13
1002
{
1000
MYREF
1005
15E2
1002
}
1002
{
1000
GRP
1005
0
1002
}
1001
GENIUS_GENODEF_13
1002
{
1000
HIER
1070
    10
1002
}
1002
{
1000
MANEDIT
1070
     1
1002
}
1002
{
1000
NOSEL
1070
     0
1002
}
1002
{
1000
BEHIND
1070
     0
1002
}
1002
{
1000
OTHER
1070
     0
1002
}
1002
{
1000
REACTOR
1002
}
  0
POINT
  5
15E3
330
1F
100
AcDbEntity
  8
0
 60
     1
100
AcDbPoint
 10
-1601.23327090896
 20
-818.9650132560855
 30
0.0
1001
GENIUS_GENOBJ-N-CRS_13
1002
{
1000
OWNER
1000
GEN
1002
}
1001
GENIUS_GENOLIS_13
1002
{
1000
ENT
1005
0
1005
0
1005
0
1005
15E0
1002
}
1001
GENIUS_GENOENT_13
1002
{
1000
MYREF
1005
15E3
1002
}
1002
{
1000
GRP
1005
0
1002
}
1001
GENIUS_GENODEF_13
1002
{
1000
HIER
1070
    10
1002
}
1002
{
1000
MANEDIT
1070
     1
1002
}
1002
{
1000
NOSEL
1070
     0
1002
}
1002
{
1000
BEHIND
1070
     0
1002
}
1002
{
1000
OTHER
1070
     0
1002
}
1002
{
1000
REACTOR
1002
}
  0
POINT
  5
15E4
330
1F
100
AcDbEntity
  8
0
 60
     1
100
AcDbPoint
 10
-1594.874597211124
 20
-827.8405997347217
 30
0.0
1001
GENIUS_GENOBJ-N-CRS_13
1002
{
1000
OWNER
1000
GEN
1002
}
1001
GENIUS_GENOLIS_13
1002
{
1000
ENT
1005
0
1005
0
1005
0
1005
15DF
1002
}
1001
GENIUS_GENOENT_13
1002
{
1000
MYREF
1005
15E4
1002
}
1002
{
1000
GRP
1005
0
1002
}
1001
GENIUS_GENODEF_13
1002
{
1000
HIER
1070
    10
1002
}
1002
{
1000
MANEDIT
1070
     1
1002
}
1002
{
1000
NOSEL
1070
     0
1002
}
1002
{
1000
BEHIND
1070
     0
1002
}
1002
{
1000
OTHER
1070
     0
1002
}
1002
{
1000
REACTOR
1002
}
  0
LINE
  5
16CF
330
1F
100
AcDbEntity
  8
LOGO
 62
     4
100
AcDbLine
 10
488.9162445500334
 20
413.1567842136622
 30
0.0
 11
488.9162445500334
 21
131.4417413593316
 31
0.0
  0
LINE
  5
16D0
330
1F
100
AcDbEntity
  8
LOGO
 62
     4
100
AcDbLine
 10
667.6662445500333
 20
413.1567842136622
 30
0.0
 11
667.6662445500332
 21
265.5294905320454
 31
0.0
  0
LINE
  5
1743
330
1F
100
AcDbEntity
  8
LOGO
 62
     4
100
AcDbLine
 10
487.2878799780574
 20
115.8440001828609
 30
0.0
 11
487.2878799780576
 21
109.994847241685
 31
0.0
  0
LINE
  5
1750
330
1F
100
AcDbEntity
  8
LOGO
 62
     4
100
AcDbLine
 10
519.0228449097958
 20
109.994847241685
 30
0.0
 11
519.0228449097957
 21
112.919423712273
 31
0.0
  0
LINE
  5
1751
330
1F
100
AcDbEntity
  8
LOGO
 62
     4
100
AcDbLine
 10
509.0957191046725
 20
112.919423712273
 30
0.0
 11
519.0228449097957
 21
112.919423712273
 31
0.0
  0
LINE
  5
1753
330
1F
100
AcDbEntity
  8
LOGO
  6
Continuous
 62
     7
100
AcDbLine
 10
519.8269947682781
 20
121.6517158758329
 30
0.0
 11
524.9925397937111
 21
121.6517158758329
 31
0.0
  0
LINE
  5
1757
330
1F
100
AcDbEntity
  8
LOGO
 62
     4
100
AcDbLine
 10
537.0666253655811
 20
115.8440001828609
 30
0.0
 11
537.0666253655811
 21
112.919423712273
 31
0.0
  0
LINE
  5
1758
330
1F
100
AcDbEntity
  8
LOGO
 62
     4
100
AcDbLine
 10
537.0666253655811
 20
112.919423712273
 30
0.0
 11
553.6499209173387
 21
112.919423712273
 31
0.0
  0
LINE
  5
1A96
330
1F
100
AcDbEntity
  8
0
 62
     7
370
    50
100
AcDbLine
 10
547.6225018245397
 20
355.1738644612684
 30
0.0
 11
547.6225018245397
 21
320.0738644612682
 31
0.0
  0
LINE
  5
1A97
330
1F
100
AcDbEntity
  8
0
 62
     7
370
    50
100
AcDbLine
 10
546.0225018245397
 20
355.1738644612684
 30
0.0
 11
546.0225018245397
 21
320.1738644612682
 31
0.0
  0
LINE
  5
1A98
330
1F
100
AcDbEntity
  8
0
 62
     7
370
    50
100
AcDbLine
 10
534.6225018245397
 20
317.6738644612682
 30
0.0
 11
534.6225018245397
 21
305.1738644612681
 31
0.0
  0
ARC
  5
1A99
330
1F
100
AcDbEntity
  8
0
 62
     7
370
    50
100
AcDbCircle
 10
536.6225018245398
 20
317.6738644612682
 30
0.0
 40
2.0
100
AcDbArc
 50
90.0
 51
180.0
  0
LINE
  5
1A9A
102
{ACAD_REACTORS
330
1C4E
102
}
330
1F
100
AcDbEntity
  8
0
 62
     7
370
    50
100
AcDbLine
 10
536.2225018245397
 20
317.5738644612682
 30
0.0
 11
536.2225018245397
 21
305.1738644612681
 31
0.0
  0
ARC
  5
1A9B
330
1F
100
AcDbEntity
  8
0
 62
     7
370
    50
100
AcDbCircle
 10
536.7225018245398
 20
317.5738644612682
 30
0.0
 40
0.5
100
AcDbArc
 50
90.0
 51
180.0
  0
LINE
  5
1A9C
330
1F
100
AcDbEntity
  8
0
 62
     7
370
    50
100
AcDbLine
 10
536.6225018245398
 20
319.6738644612682
 30
0.0
 11
545.5225018245397
 21
319.6738644612682
 31
0.0
  0
ARC
  5
1A9D
330
1F
100
AcDbEntity
  8
0
 62
     7
370
    50
100
AcDbCircle
 10
545.5225018245397
 20
320.1738644612682
 30
0.0
 40
0.5
100
AcDbArc
 50
270.0
 51
0.0
  0
LINE
  5
1A9E
330
1F
100
AcDbEntity
  8
0
 62
     7
370
    50
100
AcDbLine
 10
536.7225018245398
 20
318.0738644612682
 30
0.0
 11
545.6225018245397
 21
318.0738644612682
 31
0.0
  0
ARC
  5
1A9F
102
{ACAD_REACTORS
330
1C28
330
1C4E
330
1C74
102
}
330
1F
100
AcDbEntity
  8
0
 62
     7
370
    50
100
AcDbCircle
 10
545.6225018245397
 20
320.0738644612682
 30
0.0
 40
2.0
100
AcDbArc
 50
270.0
 51
0.0
  0
LINE
  5
1AA0
102
{ACAD_REACTORS
330
1C28
102
}
330
1F
100
AcDbEntity
  8
0
 62
     7
370
    50
100
AcDbLine
 10
534.6225018245397
 20
305.1738644612681
 30
0.0
 11
536.2225018245396
 21
305.1738644612681
 31
0.0
  0
LINE
  5
1AA1
102
{ACAD_REACTORS
330
1C74
102
}
330
1F
100
AcDbEntity
  8
0
 62
     7
370
    50
100
AcDbLine
 10
546.0225018245397
 20
355.1738644612684
 30
0.0
 11
547.6225018245397
 21
355.1738644612684
 31
0.0
  0
LINE
  5
1AA2
330
1F
100
AcDbEntity
  8
0
 62
     7
370
    50
100
AcDbLine
 10
546.0225018245397
 20
353.6738644612684
 30
0.0
 11
547.6225018245397
 21
353.6738644612684
 31
0.0
  0
LINE
  5
1AA3
330
1F
100
AcDbEntity
  8
0
 62
     7
370
    50
100
AcDbLine
 10
546.0225018245397
 20
334.3964919094017
 30
0.0
 11
547.6225018245397
 21
334.3964919094017
 31
0.0
  0
LINE
  5
1AA4
330
1F
100
AcDbEntity
  8
0
 62
     7
370
    50
100
AcDbLine
 10
546.0225018245397
 20
335.8964919094017
 30
0.0
 11
547.6225018245397
 21
335.8964919094017
 31
0.0
  0
LINE
  5
1AA5
330
1F
100
AcDbEntity
  8
AM_7
  6
AM_ISO08W050x2
100
AcDbLine
 10
584.9482769644673
 20
329.6738644612682
 30
0.0
 11
590.2089787099924
 21
329.6738644612682
 31
0.0
  0
LINE
  5
1AA6
330
1F
100
AcDbEntity
  8
AM_7
  6
AM_ISO08W050x2
100
AcDbLine
 10
607.5734695278081
 20
352.5521160324706
 30
0.0
 11
607.5734695278081
 21
346.8029069564685
 31
0.0
  0
LINE
  5
1AA7
330
1F
100
AcDbEntity
  8
AM_7
  6
AM_ISO08W050x2
100
AcDbLine
 10
604.9482769644673
 20
349.6738644612682
 30
0.0
 11
610.2089787099924
 21
349.6738644612682
 31
0.0
  0
LINE
  5
1AA8
330
1F
100
AcDbEntity
  8
AM_7
  6
AM_ISO08W050x2
100
AcDbLine
 10
604.9482769644673
 20
329.6738644612682
 30
0.0
 11
610.2089787099924
 21
329.6738644612682
 31
0.0
  0
LINE
  5
1AA9
330
1F
100
AcDbEntity
  8
0
 62
     7
370
    50
100
AcDbLine
 10
611.5734695278081
 20
355.1738644612682
 30
0.0
 11
605.3234695278081
 21
355.1738644612682
 31
0.0
  0
LINE
  5
1AAA
330
1F
100
AcDbEntity
  8
0
 62
     7
370
    50
100
AcDbLine
 10
603.6234695278082
 20
317.8738644612682
 30
0.0
 11
591.5234695278082
 21
317.8738644612682
 31
0.0
  0
ARC
  5
1AAB
330
1F
100
AcDbEntity
  8
0
 62
     7
370
    50
100
AcDbCircle
 10
591.5234695278082
 20
318.0738644612682
 30
0.0
 40
0.2
100
AcDbArc
 50
180.0
 51
270.0
  0
ARC
  5
1AAC
330
1F
100
AcDbEntity
  8
0
 62
     7
370
    50
100
AcDbCircle
 10
603.6234695278082
 20
318.0738644612682
 30
0.0
 40
0.2
100
AcDbArc
 50
270.0
 51
0.0
  0
LINE
  5
1AAD
330
1F
100
AcDbEntity
  8
0
 62
     7
370
    50
100
AcDbLine
 10
603.8234695278081
 20
353.6738644612682
 30
0.0
 11
603.8234695278081
 21
334.0775114944695
 31
0.0
  0
LINE
  5
1AAE
330
1F
100
AcDbEntity
  8
0
 62
     7
370
    50
100
AcDbLine
 10
605.3234695278081
 20
355.1738644612682
 30
0.0
 11
603.8234695278081
 21
353.6738644612682
 31
0.0
  0
ARC
  5
1AAF
330
1F
100
AcDbEntity
  8
0
 62
     7
370
    50
100
AcDbCircle
 10
605.3234695278081
 20
334.0775114944695
 30
0.0
 40
1.5
100
AcDbArc
 50
180.0
 51
270.0
  0
LINE
  5
1AB0
330
1F
100
AcDbEntity
  8
0
 62
     7
370
    50
100
AcDbLine
 10
603.8234695278081
 20
325.3029069564685
 30
0.0
 11
603.8234695278082
 21
318.0738644612682
 31
0.0
  0
ARC
  5
1AB1
330
1F
100
AcDbEntity
  8
0
 62
     7
370
    50
100
AcDbCircle
 10
605.3234695278081
 20
325.3029069564685
 30
0.0
 40
1.5
100
AcDbArc
 50
90.0
 51
180.0
  0
LINE
  5
1AB2
330
1F
100
AcDbEntity
  8
0
 62
     7
370
    50
100
AcDbLine
 10
591.3234695278081
 20
334.3964919094016
 30
0.0
 11
591.3234695278082
 21
318.0738644612682
 31
0.0
  0
LINE
  5
1AB3
330
1F
100
AcDbEntity
  8
0
 62
     7
370
    50
100
AcDbLine
 10
589.8234695278081
 20
335.8964919094016
 30
0.0
 11
591.3234695278081
 21
334.3964919094016
 31
0.0
  0
LINE
  5
1AB4
102
{ACAD_REACTORS
330
1D3E
102
}
330
1F
100
AcDbEntity
  8
0
 62
     7
370
    50
100
AcDbLine
 10
613.0734695278081
 20
353.6738644612682
 30
0.0
 11
613.0734695278081
 21
306.6738644612682
 31
0.0
  0
LINE
  5
1AB5
102
{ACAD_REACTORS
330
1DB1
102
}
330
1F
100
AcDbEntity
  8
0
 62
     7
370
    50
100
AcDbLine
 10
611.5734695278081
 20
355.1738644612682
 30
0.0
 11
613.0734695278081
 21
353.6738644612682
 31
0.0
  0
CIRCLE
  5
1AB6
330
1F
100
AcDbEntity
  8
0
 62
     7
370
    50
100
AcDbCircle
 10
607.5734695278081
 20
349.6738644612682
 30
0.0
 40
2.1
  0
CIRCLE
  5
1AB7
330
1F
100
AcDbEntity
  8
0
 62
     7
370
    50
100
AcDbCircle
 10
587.5734695278081
 20
329.6738644612682
 30
0.0
 40
2.1
  0
ARC
  5
1AB8
330
1F
100
AcDbEntity
  8
0
 62
     7
370
    50
100
AcDbCircle
 10
607.5870372091531
 20
329.6902092254691
 30
0.0
 40
2.887334146674491
100
AcDbArc
 50
269.7307641927693
 51
90.26923580722423
  0
LINE
  5
1AB9
330
1F
100
AcDbEntity
  8
0
 62
     7
370
    50
100
AcDbLine
 10
607.5734695278081
 20
332.5775114944696
 30
0.0
 11
605.3234695278081
 21
332.5775114944696
 31
0.0
  0
LINE
  5
1ABA
330
1F
100
AcDbEntity
  8
0
 62
     7
370
    50
100
AcDbLine
 10
607.5734695278081
 20
326.8029069564685
 30
0.0
 11
605.3234695278081
 21
326.8029069564685
 31
0.0
  0
LINE
  5
1ABB
330
1F
100
AcDbEntity
  8
0
 62
     7
370
    50
100
AcDbLine
 10
589.8234695278081
 20
335.8964919094016
 30
0.0
 11
583.5734695278081
 21
335.8964919094017
 31
0.0
  0
LINE
  5
1ABC
330
1F
100
AcDbEntity
  8
AM_7
  6
AM_ISO08W050x2
100
AcDbLine
 10
607.5734695278083
 20
332.5521160324706
 30
0.0
 11
607.5734695278083
 21
326.8029069564685
 31
0.0
  0
LINE
  5
1ABD
330
1F
100
AcDbEntity
  8
AM_7
  6
AM_ISO08W050x2
100
AcDbLine
 10
587.5786278372299
 20
332.5484689992692
 30
0.0
 11
587.5786278372299
 21
326.7992599232672
 31
0.0
  0
LINE
  5
1ABE
330
1F
100
AcDbEntity
  8
0
 62
     7
 48
2.0
370
    50
100
AcDbLine
 10
582.0734695278081
 20
334.3964919094017
 30
0.0
 11
582.0734695278082
 21
306.6738644612682
 31
0.0
  0
LINE
  5
1ABF
330
1F
100
AcDbEntity
  8
0
 62
     7
 48
2.0
370
    50
100
AcDbLine
 10
583.5734695278081
 20
335.8964919094017
 30
0.0
 11
582.0734695278081
 21
334.3964919094017
 31
0.0
  0
LINE
  5
1AC0
330
1F
100
AcDbEntity
  8
0
 62
     7
370
    50
100
AcDbLine
 10
611.5734695278081
 20
305.1738644612682
 30
0.0
 11
583.5734695278082
 21
305.1738644612682
 31
0.0
  0
ARC
  5
1AC1
102
{ACAD_REACTORS
330
1DB1
102
}
330
1F
100
AcDbEntity
  8
0
 62
     7
370
    50
100
AcDbCircle
 10
611.5734695278081
 20
306.6738644612682
 30
0.0
 40
1.5
100
AcDbArc
 50
270.0
 51
0.0
  0
ARC
  5
1AC2
102
{ACAD_REACTORS
330
1CEC
330
1D3E
102
}
330
1F
100
AcDbEntity
  8
0
 62
     7
370
    50
100
AcDbCircle
 10
583.5734695278082
 20
306.6738644612682
 30
0.0
 40
1.5
100
AcDbArc
 50
180.0
 51
270.0
  0
LINE
  5
1AC3
330
1F
100
AcDbEntity
  8
0
 62
     7
370
    50
100
AcDbLine
 10
591.3234695278081
 20
318.0738644612682
 30
0.0
 11
582.0734695278081
 21
318.0738644612682
 31
0.0
  0
LINE
  5
1AC4
330
1F
100
AcDbEntity
  8
0
 62
     7
370
    50
100
AcDbLine
 10
613.0734695278081
 20
318.0738644612682
 30
0.0
 11
603.8234695278082
 21
318.0738644612682
 31
0.0
  0
LINE
  5
1AC5
102
{ACAD_REACTORS
330
1CEC
102
}
330
1F
100
AcDbEntity
  8
AM_7
  6
AM_ISO08W050x2
100
AcDbLine
 10
584.9482769644673
 20
311.1738644612682
 30
0.0
 11
590.2089787099924
 21
311.1738644612682
 31
0.0
  0
LINE
  5
1AC6
102
{ACAD_REACTORS
330
1C9A
102
}
330
1F
100
AcDbEntity
  8
AM_7
  6
AM_ISO08W050x2
100
AcDbLine
 10
587.5786278372299
 20
314.0484689992692
 30
0.0
 11
587.5786278372299
 21
308.2992599232671
 31
0.0
  0
LINE
  5
1AC7
330
1F
100
AcDbEntity
  8
AM_7
  6
AM_ISO08W050x2
100
AcDbLine
 10
604.9482769644673
 20
311.2638644612681
 30
0.0
 11
610.2089787099924
 21
311.2638644612682
 31
0.0
  0
LINE
  5
1AC8
102
{ACAD_REACTORS
330
1C9A
330
1D16
102
}
330
1F
100
AcDbEntity
  8
AM_7
  6
AM_ISO08W050x2
100
AcDbLine
 10
607.57862783723
 20
314.1384689992692
 30
0.0
 11
607.57862783723
 21
308.3892599232672
 31
0.0
  0
ELLIPSE
  5
1AC9
102
{ACAD_REACTORS
330
1CC2
102
}
330
1F
100
AcDbEntity
  8
0
 62
     7
370
    50
100
AcDbEllipse
 10
587.5734695278081
 20
311.1738644612682
 30
0.0
 11
2.5
 21
0.0
 31
0.0
210
0.0
220
0.0
230
-1.0
 40
0.8400000000000034
 41
0.0
 42
6.283185307179586
  0
ELLIPSE
  5
1ACA
102
{ACAD_REACTORS
330
1D16
102
}
330
1F
100
AcDbEntity
  8
0
 62
     7
370
    50
100
AcDbEllipse
 10
607.5734695278081
 20
311.2638644612682
 30
0.0
 11
0.0000000000000002
 21
-2.5
 31
0.0
210
0.0
220
0.0
230
-1.0
 40
0.8400000000000034
 41
0.0
 42
6.283185307179586
  0
LINE
  5
1ACB
330
1F
100
AcDbEntity
  8
0
 62
     7
370
    50
100
AcDbLine
 10
608.4484695278081
 20
316.5132042894884
 30
0.0
 11
606.8878093560283
 21
318.0738644612682
 31
0.0
  0
LINE
  5
1ACC
330
1F
100
AcDbEntity
  8
0
 62
     7
370
    50
100
AcDbLine
 10
608.4484695278081
 20
316.5132042894884
 30
0.0
 11
608.4484695278081
 21
318.0738644612682
 31
0.0
  0
LINE
  5
1ACD
330
1F
100
AcDbEntity
  8
0
 62
     7
370
    50
100
AcDbLine
 10
608.4484695278081
 20
316.5132042894884
 30
0.0
 11
610.0091296995879
 21
318.0738644612682
 31
0.0
  0
LINE
  5
1ACE
330
1F
100
AcDbEntity
  8
0
 62
     7
370
    50
100
AcDbLine
 10
586.6984695278081
 20
316.5132042894884
 30
0.0
 11
585.1378093560283
 21
318.0738644612682
 31
0.0
  0
LINE
  5
1ACF
330
1F
100
AcDbEntity
  8
0
 62
     7
370
    50
100
AcDbLine
 10
586.6984695278081
 20
316.5132042894884
 30
0.0
 11
586.6984695278081
 21
318.0738644612682
 31
0.0
  0
LINE
  5
1AD0
330
1F
100
AcDbEntity
  8
0
 62
     7
370
    50
100
AcDbLine
 10
586.6984695278081
 20
316.5132042894884
 30
0.0
 11
588.2591296995879
 21
318.0738644612682
 31
0.0
  0
LINE
  5
1AD1
330
1F
100
AcDbEntity
  8
0
 62
     7
370
    50
100
AcDbLine
 10
536.2225018245397
 20
316.5132042894884
 30
0.0
 11
537.7831619963195
 21
318.0738644612682
 31
0.0
  0
LINE
  5
1AD8
330
1F
100
AcDbEntity
  8
AM_7
  6
AM_ISO08W050x2
100
AcDbLine
 10
770.0109189418749
 20
312.1572336096193
 30
0.0
 11
764.7502171963499
 21
312.1572336096193
 31
0.0
  0
LINE
  5
1AD9
330
1F
100
AcDbEntity
  8
AM_7
  6
AM_ISO08W050x2
100
AcDbLine
 10
747.3857263785341
 20
335.0354851808219
 30
0.0
 11
747.3857263785341
 21
329.2862761048196
 31
0.0
  0
LINE
  5
1ADA
330
1F
100
AcDbEntity
  8
AM_7
  6
AM_ISO08W050x2
100
AcDbLine
 10
750.0109189418749
 20
332.1572336096193
 30
0.0
 11
744.7502171963499
 21
332.1572336096195
 31
0.0
  0
LINE
  5
1ADB
330
1F
100
AcDbEntity
  8
AM_7
  6
AM_ISO08W050x2
100
AcDbLine
 10
750.0109189418749
 20
312.1572336096193
 30
0.0
 11
744.7502171963499
 21
312.1572336096193
 31
0.0
  0
LINE
  5
1ADC
330
1F
100
AcDbEntity
  8
0
 62
     7
370
    50
100
AcDbLine
 10
743.8857263785341
 20
337.6572336096193
 30
0.0
 11
749.6357263785341
 21
337.6572336096193
 31
0.0
  0
LINE
  5
1ADD
102
{ACAD_REACTORS
330
20F8
102
}
330
1F
100
AcDbEntity
  8
0
 62
     7
370
    50
100
AcDbLine
 10
741.8857263785342
 20
335.6572336096193
 30
0.0
 11
743.8857263785341
 21
337.6572336096193
 31
0.0
  0
LINE
  5
1ADE
330
1F
100
AcDbEntity
  8
0
 62
     7
370
    50
100
AcDbLine
 10
737.3857263785342
 20
292.1572336096193
 30
0.0
 11
777.3857263785341
 21
292.1572336096193
 31
0.0
  0
LINE
  5
1ADF
330
1F
100
AcDbEntity
  8
0
 62
     7
370
    50
100
AcDbLine
 10
753.1357263785341
 20
293.7572336096195
 30
0.0
 11
761.6357263785341
 21
293.7572336096195
 31
0.0
  0
LINE
  5
1AE0
330
1F
100
AcDbEntity
  8
0
 62
     7
370
    50
100
AcDbLine
 10
737.3857263785342
 20
293.7572336096195
 30
0.0
 11
777.3857263785341
 21
293.7572336096195
 31
0.0
  0
LINE
  5
1AE1
102
{ACAD_REACTORS
330
20F8
330
2123
102
}
330
1F
100
AcDbEntity
  8
0
 62
     7
370
    50
100
AcDbLine
 10
737.3857263785342
 20
312.1608806428207
 30
0.0
 11
737.3857263785342
 21
292.1572336096193
 31
0.0
  0
LINE
  5
1AE2
102
{ACAD_REACTORS
330
2123
102
}
330
1F
100
AcDbEntity
  8
0
 62
     7
370
    50
100
AcDbLine
 10
777.3857263785341
 20
312.1608806428207
 30
0.0
 11
777.3857263785341
 21
292.1572336096193
 31
0.0
  0
LINE
  5
1AE3
330
1F
100
AcDbEntity
  8
0
 62
     7
370
    50
100
AcDbLine
 10
751.1357263785342
 20
336.1572336096193
 30
0.0
 11
751.1357263785342
 21
316.5608806428207
 31
0.0
  0
ARC
  5
1AE4
330
1F
100
AcDbEntity
  8
0
 62
     7
370
    50
100
AcDbCircle
 10
749.6357263785341
 20
336.1572336096193
 30
0.0
 40
1.5
100
AcDbArc
 50
0.0
 51
89.99999999999998
  0
ARC
  5
1AE5
330
1F
100
AcDbEntity
  8
0
 62
     7
370
    50
100
AcDbCircle
 10
749.6357263785341
 20
316.5608806428207
 30
0.0
 40
1.5
100
AcDbArc
 50
270.0
 51
0.0
  0
LINE
  5
1AE6
330
1F
100
AcDbEntity
  8
0
 62
     7
370
    50
100
AcDbLine
 10
751.1357263785342
 20
307.7862761048197
 30
0.0
 11
751.1357263785342
 21
293.7572336096195
 31
0.0
  0
ARC
  5
1AE7
330
1F
100
AcDbEntity
  8
0
 62
     7
370
    50
100
AcDbCircle
 10
749.6357263785341
 20
307.7862761048197
 30
0.0
 40
1.5
100
AcDbArc
 50
0.0
 51
89.99999999999998
  0
LINE
  5
1AE8
330
1F
100
AcDbEntity
  8
0
 62
     7
370
    50
100
AcDbLine
 10
763.6357263785342
 20
316.8798610577527
 30
0.0
 11
763.6357263785342
 21
293.7572336096195
 31
0.0
  0
ARC
  5
1AE9
330
1F
100
AcDbEntity
  8
0
 62
     7
370
    50
100
AcDbCircle
 10
765.1357263785341
 20
316.8798610577527
 30
0.0
 40
1.5
100
AcDbArc
 50
89.99999999999998
 51
180.0
  0
LINE
  5
1AEA
330
1F
100
AcDbEntity
  8
0
 62
     7
370
    50
100
AcDbLine
 10
741.8857263785342
 20
335.6572336096193
 30
0.0
 11
741.8857263785342
 21
319.1572336096193
 31
0.0
  0
CIRCLE
  5
1AEB
330
1F
100
AcDbEntity
  8
0
 62
     7
370
    50
100
AcDbCircle
 10
747.3857263785341
 20
332.1572336096193
 30
0.0
 40
2.1
  0
CIRCLE
  5
1AEC
330
1F
100
AcDbEntity
  8
0
 62
     7
370
    50
100
AcDbCircle
 10
767.3857263785341
 20
312.1572336096193
 30
0.0
 40
2.1
  0
ARC
  5
1AED
330
1F
100
AcDbEntity
  8
0
 62
     7
370
    50
100
AcDbCircle
 10
747.3857263785341
 20
312.1608806428207
 30
0.0
 40
2.9
100
AcDbArc
 50
89.99999999999998
 51
277.5881189249718
  0
LINE
  5
1AEE
330
1F
100
AcDbEntity
  8
0
 62
     7
370
    50
100
AcDbLine
 10
747.3857263785341
 20
315.0608806428207
 30
0.0
 11
749.6357263785341
 21
315.0608806428207
 31
0.0
  0
LINE
  5
1AEF
330
1F
100
AcDbEntity
  8
0
 62
     7
370
    50
100
AcDbLine
 10
747.3857263785341
 20
309.2862761048197
 30
0.0
 11
749.6357263785341
 21
309.2862761048197
 31
0.0
  0
LINE
  5
1AF0
330
1F
100
AcDbEntity
  8
0
 62
     7
370
    50
100
AcDbLine
 10
765.1357263785341
 20
318.3798610577527
 30
0.0
 11
773.3857263785341
 21
318.3798610577527
 31
0.0
  0
LINE
  5
1AF1
330
1F
100
AcDbEntity
  8
0
 62
     7
370
    50
100
AcDbLine
 10
741.8857263785342
 20
319.1572336096193
 30
0.0
 11
737.3857263785342
 21
312.1608806428207
 31
0.0
  0
LINE
  5
1AF2
330
1F
100
AcDbEntity
  8
0
 62
     7
370
    50
100
AcDbLine
 10
773.3857263785341
 20
318.3798610577527
 30
0.0
 11
777.3857263785341
 21
312.1608806428207
 31
0.0
  0
LINE
  5
1AF3
330
1F
100
AcDbEntity
  8
AM_7
  6
AM_ISO08W050x2
100
AcDbLine
 10
747.3857263785339
 20
315.0354851808219
 30
0.0
 11
747.3857263785339
 21
309.2862761048197
 31
0.0
  0
LINE
  5
1AF4
330
1F
100
AcDbEntity
  8
AM_7
  6
AM_ISO08W050x2
100
AcDbLine
 10
767.3805680691125
 20
315.0318381476203
 30
0.0
 11
767.3805680691125
 21
309.2826290716183
 31
0.0
  0
LINE
  5
1AF5
330
1F
100
AcDbEntity
  8
0
 62
     7
370
    50
100
AcDbLine
 10
738.885726378534
 20
350.1372557544495
 30
0.0
 11
775.8857263785341
 21
350.1372557544495
 31
0.0
  0
LINE
  5
1AF6
330
1F
100
AcDbEntity
  8
0
 62
     7
370
    50
100
AcDbLine
 10
751.3357263785342
 20
362.1372557544495
 30
0.0
 11
763.4357263785341
 21
362.1372557544495
 31
0.0
  0
ARC
  5
1AF7
330
1F
100
AcDbEntity
  8
0
 62
     7
370
    50
100
AcDbCircle
 10
751.335726378534
 20
362.3372557544493
 30
0.0
 40
0.2
100
AcDbArc
 50
180.0
 51
270.0
  0
ARC
  5
1AF8
330
1F
100
AcDbEntity
  8
0
 62
     7
370
    50
100
AcDbCircle
 10
763.4357263785341
 20
362.3372557544493
 30
0.0
 40
0.2
100
AcDbArc
 50
270.0
 51
0.0
  0
ARC
  5
1AF9
330
1F
100
AcDbEntity
  8
0
 62
     7
370
    50
100
AcDbCircle
 10
738.885726378534
 20
351.6372557544495
 30
0.0
 40
1.5
100
AcDbArc
 50
180.0
 51
270.0
  0
ARC
  5
1AFA
330
1F
100
AcDbEntity
  8
0
 62
     7
370
    50
100
AcDbCircle
 10
775.8857263785339
 20
351.6372557544495
 30
0.0
 40
1.5
100
AcDbArc
 50
270.0
 51
0.0
  0
LINE
  5
1AFB
330
1F
100
AcDbEntity
  8
0
 62
     7
370
    50
100
AcDbLine
 10
777.3857263785341
 20
351.6372557544495
 30
0.0
 11
777.3857263785341
 21
370.1372557544492
 31
0.0
  0
LINE
  5
1AFC
330
1F
100
AcDbEntity
  8
0
 62
     7
370
    50
100
AcDbLine
 10
777.3857263785341
 20
370.1372557544492
 30
0.0
 11
763.6357263785342
 21
370.1372557544492
 31
0.0
  0
LINE
  5
1AFD
330
1F
100
AcDbEntity
  8
0
 62
     7
370
    50
100
AcDbLine
 10
751.1357263785342
 20
370.1372557544492
 30
0.0
 11
737.3857263785342
 21
370.1372557544492
 31
0.0
  0
LINE
  5
1AFE
330
1F
100
AcDbEntity
  8
0
 62
     7
370
    50
100
AcDbLine
 10
777.3857263785341
 20
368.5372557544493
 30
0.0
 11
763.6357263785342
 21
368.5372557544493
 31
0.0
  0
LINE
  5
1AFF
330
1F
100
AcDbEntity
  8
0
 62
     7
370
    50
100
AcDbLine
 10
751.1357263785342
 20
368.5372557544493
 30
0.0
 11
737.3857263785342
 21
368.5372557544493
 31
0.0
  0
LINE
  5
1B00
330
1F
100
AcDbEntity
  8
0
 62
     7
370
    50
100
AcDbLine
 10
737.3857263785342
 20
370.1372557544492
 30
0.0
 11
737.3857263785339
 21
351.6372557544495
 31
0.0
  0
LINE
  5
1B01
330
1F
100
AcDbEntity
  8
0
 62
     7
370
    50
100
AcDbLine
 10
741.8857263785342
 20
368.5372557544493
 30
0.0
 11
741.8857263785342
 21
370.1372557544492
 31
0.0
  0
LINE
  5
1B02
330
1F
100
AcDbEntity
  8
0
 62
     7
370
    50
100
AcDbLine
 10
751.1357263785342
 20
362.3372557544493
 30
0.0
 11
751.1357263785342
 21
370.1372557544492
 31
0.0
  0
LINE
  5
1B03
330
1F
100
AcDbEntity
  8
0
 62
     7
370
    50
100
AcDbLine
 10
763.6357263785339
 20
362.3372557544493
 30
0.0
 11
763.6357263785342
 21
370.1372557544492
 31
0.0
  0
LINE
  5
1B04
330
1F
100
AcDbEntity
  8
0
 62
     7
370
    50
100
AcDbLine
 10
774.4937070012081
 20
368.5372557544493
 30
0.0
 11
774.4937070012081
 21
370.1372557544492
 31
0.0
  0
LINE
  5
1B05
330
1F
100
AcDbEntity
  8
AM_7
  6
AM_ISO08W050x2
100
AcDbLine
 10
772.5109189418749
 20
359.1372557544495
 30
0.0
 11
767.2502171963499
 21
359.1372557544495
 31
0.0
  0
LINE
  5
1B06
102
{ACAD_REACTORS
330
20AC
102
}
330
1F
100
AcDbEntity
  8
AM_7
  6
AM_ISO08W050x2
100
AcDbLine
 10
769.8805680691123
 20
362.0118602924505
 30
0.0
 11
769.8805680691123
 21
356.2626512164483
 31
0.0
  0
LINE
  5
1B07
330
1F
100
AcDbEntity
  8
AM_7
  6
AM_ISO08W050x2
100
AcDbLine
 10
747.5109189418749
 20
359.1372557544495
 30
0.0
 11
742.2502171963499
 21
359.1372557544495
 31
0.0
  0
LINE
  5
1B08
102
{ACAD_REACTORS
330
20AC
102
}
330
1F
100
AcDbEntity
  8
AM_7
  6
AM_ISO08W050x2
100
AcDbLine
 10
744.8805680691123
 20
362.0118602924505
 30
0.0
 11
744.8805680691123
 21
356.2626512164483
 31
0.0
  0
ELLIPSE
  5
1B09
102
{ACAD_REACTORS
330
2084
102
}
330
1F
100
AcDbEntity
  8
0
 62
     7
370
    50
100
AcDbEllipse
 10
744.8805680691123
 20
359.1372557544495
 30
0.0
 11
-2.5
 21
0.0000000000000006
 31
0.0
210
0.0
220
0.0
230
1.0
 40
0.8399999999999977
 41
0.0
 42
6.283185307179586
  0
ELLIPSE
  5
1B0A
102
{ACAD_REACTORS
330
205A
102
}
330
1F
100
AcDbEntity
  8
0
 62
     7
370
    50
100
AcDbEllipse
 10
769.8805680691125
 20
359.1424140638711
 30
0.0
 11
-0.0000000000000008
 21
-2.5
 31
0.0
210
0.0
220
0.0
230
1.0
 40
0.8399999999999977
 41
0.0
 42
6.283185307179586
  0
LINE
  5
1B0B
330
1F
100
AcDbEntity
  8
0
 62
     7
370
    50
100
AcDbLine
 10
744.2607263785341
 20
296.878553953179
 30
0.0
 11
747.3820467220937
 21
293.7572336096195
 31
0.0
  0
LINE
  5
1B0C
330
1F
100
AcDbEntity
  8
0
 62
     7
370
    50
100
AcDbLine
 10
770.5107263785341
 20
296.878553953179
 30
0.0
 11
770.5107263785341
 21
293.7572336096195
 31
0.0
  0
LINE
  5
1B0D
330
1F
100
AcDbEntity
  8
0
 62
     7
370
    50
100
AcDbLine
 10
744.2607263785341
 20
296.878553953179
 30
0.0
 11
744.2607263785341
 21
293.7572336096195
 31
0.0
  0
LINE
  5
1B0E
330
1F
100
AcDbEntity
  8
0
 62
     7
370
    50
100
AcDbLine
 10
744.2607263785341
 20
296.878553953179
 30
0.0
 11
741.1394060349746
 21
293.7572336096195
 31
0.0
  0
LINE
  5
1B0F
330
1F
100
AcDbEntity
  8
0
 62
     7
370
    50
100
AcDbLine
 10
770.5107263785341
 20
296.878553953179
 30
0.0
 11
773.6320467220937
 21
293.7572336096195
 31
0.0
  0
LINE
  5
1B10
330
1F
100
AcDbEntity
  8
0
 62
     7
370
    50
100
AcDbLine
 10
770.5107263785341
 20
296.878553953179
 30
0.0
 11
767.3894060349746
 21
293.7572336096195
 31
0.0
  0
DIMENSION
  5
1C1A
102
{ACAD_XDICTIONARY
360
1C27
102
}
102
{ACAD_REACTORS
330
1C28
102
}
330
1F
100
AcDbEntity
  8
AM_5
100
AcDbDimension
  2
*D5
 10
547.6225018245397
 20
295.1738644612681
 30
0.0
 11
541.1225018245398
 21
297.373864461268
 31
0.0
 70
    32
 71
     5
 42
13.0
  3
AM_ISO$0
100
AcDbAlignedDimension
 13
534.6225018245397
 23
305.1738644612681
 33
0.0
 14
547.6225018245397
 24
320.0738644612682
 34
0.0
100
AcDbRotatedDimension
1001
ACAD
1000
DSTYLE
1002
{
1070
    40
1040
1.0
1070
   144
1040
1.0
1070
   272
1070
     8
1002
}
  0
DIMENSION
  5
1C40
102
{ACAD_XDICTIONARY
360
1C4D
102
}
102
{ACAD_REACTORS
330
1C4E
102
}
330
1F
100
AcDbEntity
  8
AM_5
100
AcDbDimension
  2
*D6
 10
557.6225018245398
 20
318.0738644612682
 30
0.0
 11
555.4222065489491
 21
311.6238644612682
 31
0.0
 70
    32
 71
     5
 42
12.90000000000009
  3
AM_ISO$0
100
AcDbAlignedDimension
 13
536.2225018245397
 23
305.1738644612681
 33
0.0
 14
545.6225018245397
 24
318.0738644612682
 34
0.0
 50
90.0
100
AcDbRotatedDimension
1001
ACAD
1000
DSTYLE
1002
{
1070
    40
1040
1.0
1070
   144
1040
1.0
1070
   272
1070
     8
1002
}
  0
DIMENSION
  5
1C66
102
{ACAD_XDICTIONARY
360
1C73
102
}
102
{ACAD_REACTORS
330
1C74
102
}
330
1F
100
AcDbEntity
  8
AM_5
100
AcDbDimension
  2
*D7
 10
557.6225018245398
 20
355.1738644612684
 30
0.0
 11
555.4225018245396
 21
336.6238644612683
 31
0.0
 70
    32
 71
     5
 42
37.10000000000025
  3
AM_ISO$0
100
AcDbAlignedDimension
 13
545.6225018245397
 23
318.0738644612682
 33
0.0
 14
547.6225018245397
 24
355.1738644612684
 34
0.0
 50
90.0
100
AcDbRotatedDimension
1001
ACAD
1000
DSTYLE
1002
{
1070
    40
1040
1.0
1070
   144
1040
1.0
1070
   272
1070
     8
1002
}
  0
DIMENSION
  5
1C8C
102
{ACAD_XDICTIONARY
360
1C99
102
}
102
{ACAD_REACTORS
330
1C9A
102
}
330
1F
100
AcDbEntity
  8
AM_5
100
AcDbDimension
  2
*D8
 10
607.57862783723
 20
295.1738644612682
 30
0.0
 11
597.5786278372299
 21
297.3741597368587
 31
0.0
 70
    32
 71
     5
 42
20.00000000000011
  3
AM_ISO$0
100
AcDbAlignedDimension
 13
587.5786278372299
 23
308.2992599232671
 33
0.0
 14
607.57862783723
 24
308.3892599232672
 34
0.0
100
AcDbRotatedDimension
1001
ACAD
1000
DSTYLE
1002
{
1070
    40
1040
1.0
1070
   144
1040
1.0
1070
   272
1070
     8
1002
}
  0
DIMENSION
  5
1CB2
102
{ACAD_XDICTIONARY
360
1CC1
102
}
102
{ACAD_REACTORS
330
1CC2
102
}
330
1F
100
AcDbEntity
  8
AM_5
100
AcDbDimension
  2
*D9
 10
572.0734695278082
 20
313.2738644612682
 30
0.0
 11
569.8731742522176
 21
321.3139530439454
 31
0.0
 70
    32
 71
     5
 42
4.200000000000045
  3
AM_ISO$0
100
AcDbAlignedDimension
 13
587.5734695278081
 23
309.0738644612681
 33
0.0
 14
587.5734695278081
 24
313.2738644612682
 34
0.0
 50
90.0
100
AcDbRotatedDimension
1001
ACAD
1000
DSTYLE
1002
{
1070
    40
1040
1.0
1070
   144
1040
1.0
1070
   272
1070
     8
1002
}
  0
DIMENSION
  5
1CDC
102
{ACAD_XDICTIONARY
360
1CEB
102
}
102
{ACAD_REACTORS
330
1CEC
102
}
330
1F
100
AcDbEntity
  8
AM_5
100
AcDbDimension
  2
*D10
 10
566.0734695278082
 20
311.1738644612682
 30
0.0
 11
563.873469527808
 21
308.1738644612682
 31
0.0
 70
    32
 71
     5
 42
6.0
  3
AM_ISO$0
100
AcDbAlignedDimension
 13
583.5734695278082
 23
305.1738644612682
 33
0.0
 14
584.9482769644673
 24
311.1738644612682
 34
0.0
 50
90.0
100
AcDbRotatedDimension
1001
ACAD
1000
DSTYLE
1002
{
1070
    40
1040
1.0
1070
   144
1040
1.0
1070
   272
1070
     8
1002
}
  0
DIMENSION
  5
1D06
102
{ACAD_XDICTIONARY
360
1D15
102
}
102
{ACAD_REACTORS
330
1D16
102
}
330
1F
100
AcDbEntity
  8
AM_5
100
AcDbDimension
  2
*D11
 10
623.0734695278081
 20
313.7638569192625
 30
0.0
 11
620.873469527808
 21
311.2638606902654
 31
0.0
 70
    32
 71
     5
 42
4.999992457994267
  3
AM_ISO$0
100
AcDbAlignedDimension
 13
607.5734695278081
 23
308.7638644612682
 33
0.0
 14
607.57862783723
 24
313.7638569192625
 34
0.0
 50
90.0
100
AcDbRotatedDimension
1001
ACAD
1000
DSTYLE
1002
{
1070
    40
1040
1.0
1070
   144
1040
1.0
1070
   272
1070
     8
1002
}
  0
DIMENSION
  5
1D30
102
{ACAD_XDICTIONARY
360
1D3D
102
}
102
{ACAD_REACTORS
330
1D3E
102
}
330
1F
100
AcDbEntity
  8
AM_5
100
AcDbDimension
  2
*D12
 10
613.0734695278081
 20
289.1738644612682
 30
0.0
 11
597.5734695278081
 21
291.3738644612682
 31
0.0
 70
    32
 71
     5
 42
30.99999999999989
  3
AM_ISO$0
100
AcDbAlignedDimension
 13
582.0734695278082
 23
306.6738644612682
 33
0.0
 14
613.0734695278081
 24
306.6738644612682
 34
0.0
100
AcDbRotatedDimension
1001
ACAD
1000
DSTYLE
1002
{
1070
    40
1040
1.0
1070
   144
1040
1.0
1070
   272
1070
     8
1002
}
  0
DIMENSION
  5
1DA3
102
{ACAD_XDICTIONARY
360
1DB0
102
}
102
{ACAD_REACTORS
330
1DB1
102
}
330
1F
100
AcDbEntity
  8
AM_5
100
AcDbDimension
  2
*D13
 10
629.0734695278081
 20
355.1738644612682
 30
0.0
 11
626.8734695278079
 21
330.1738644612683
 31
0.0
 70
    32
 71
     5
 42
50.0
  3
AM_ISO$0
100
AcDbAlignedDimension
 13
611.5734695278081
 23
305.1738644612682
 33
0.0
 14
611.5734695278081
 24
355.1738644612682
 34
0.0
 50
90.0
100
AcDbRotatedDimension
1001
ACAD
1000
DSTYLE
1002
{
1070
    40
1040
1.0
1070
   144
1040
1.0
1070
   272
1070
     8
1002
}
  0
DIMENSION
  5
204A
102
{ACAD_XDICTIONARY
360
2059
102
}
102
{ACAD_REACTORS
330
205A
102
}
330
1F
100
AcDbEntity
  8
AM_5
100
AcDbDimension
  2
*D14
 10
781.8805680691125
 20
361.6424140638711
 30
0.0
 11
779.6805680691123
 21
359.1424140638712
 31
0.0
 70
    32
 71
     5
 42
5.0
  3
AM_ISO$0
100
AcDbAlignedDimension
 13
769.8805680691125
 23
356.6424140638711
 33
0.0
 14
769.8805680691125
 24
361.6424140638711
 34
0.0
 50
90.0
100
AcDbRotatedDimension
1001
ACAD
1000
DSTYLE
1002
{
1070
    40
1040
1.0
1070
   144
1040
1.0
1002
}
  0
DIMENSION
  5
2074
102
{ACAD_XDICTIONARY
360
2083
102
}
102
{ACAD_REACTORS
330
2084
102
}
330
1F
100
AcDbEntity
  8
AM_5
100
AcDbDimension
  2
*D15
 10
732.8805680691123
 20
357.0372557544495
 30
0.0
 11
730.6802727935217
 21
348.9971671717724
 31
0.0
 70
    32
 71
     5
 42
4.200000000000045
  3
AM_ISO$0
100
AcDbAlignedDimension
 13
744.8805680691123
 23
361.2372557544495
 33
0.0
 14
744.8805680691123
 24
357.0372557544495
 34
0.0
 50
90.0
100
AcDbRotatedDimension
1001
ACAD
1000
DSTYLE
1002
{
1070
    40
1040
1.0
1070
   144
1040
1.0
1002
}
  0
DIMENSION
  5
209E
102
{ACAD_XDICTIONARY
360
20AB
102
}
102
{ACAD_REACTORS
330
20AC
102
}
330
1F
100
AcDbEntity
  8
AM_5
100
AcDbDimension
  2
*D16
 10
769.8805680691123
 20
374.0118602924505
 30
0.0
 11
757.3805680691123
 21
376.2121555680411
 31
0.0
 70
    32
 71
     5
 42
25.0
  3
AM_ISO$0
100
AcDbAlignedDimension
 13
744.8805680691123
 23
362.0118602924505
 33
0.0
 14
769.8805680691123
 24
362.0118602924505
 34
0.0
100
AcDbRotatedDimension
1001
ACAD
1000
DSTYLE
1002
{
1070
    40
1040
1.0
1070
   144
1040
1.0
1002
}
  0
DIMENSION
  5
20EA
102
{ACAD_XDICTIONARY
360
20F7
102
}
102
{ACAD_REACTORS
330
20F8
102
}
330
1F
100
AcDbEntity
  8
AM_5
100
AcDbDimension
  2
*D17
 10
725.3857263785342
 20
337.6572336096193
 30
0.0
 11
723.1857263785339
 21
314.9072336096194
 31
0.0
 70
    32
 71
     5
 42
45.49999999999999
  3
AM_ISO$0
100
AcDbAlignedDimension
 13
737.3857263785342
 23
292.1572336096193
 33
0.0
 14
743.8857263785341
 24
337.6572336096193
 34
0.0
 50
90.0
100
AcDbRotatedDimension
1001
ACAD
1000
DSTYLE
1002
{
1070
    40
1040
1.0
1070
   144
1040
1.0
1002
}
  0
DIMENSION
  5
2115
102
{ACAD_XDICTIONARY
360
2122
102
}
102
{ACAD_REACTORS
330
2123
102
}
330
1F
100
AcDbEntity
  8
AM_5
100
AcDbDimension
  2
*D18
 10
777.3857263785341
 20
280.1572336096193
 30
0.0
 11
757.3857263785342
 21
282.3572336096193
 31
0.0
 70
    32
 71
     5
 42
40.0
  3
AM_ISO$0
100
AcDbAlignedDimension
 13
737.3857263785342
 23
292.1572336096193
 33
0.0
 14
777.3857263785341
 24
292.1572336096193
 34
0.0
100
AcDbRotatedDimension
1001
ACAD
1000
DSTYLE
1002
{
1070
    40
1040
1.0
1070
   144
1040
1.0
1002
}
  0
LINE
  5
237C
330
1F
100
AcDbEntity
  8
0
 62
     7
370
    50
100
AcDbLine
 10
821.2721305193554
 20
191.8151629601288
 30
-0.2000000000000002
 11
813.2721305193554
 21
191.8151629601288
 31
-0.1999999999892048
  0
LINE
  5
237D
330
1F
100
AcDbEntity
  8
0
 62
     7
370
    50
100
AcDbLine
 10
813.2721305193554
 20
191.8151629601288
 30
-0.1999999999892048
 11
813.2721305193552
 21
187.3151629601287
 31
0.0000000000000568
  0
LINE
  5
237E
330
1F
100
AcDbEntity
  8
0
 62
     7
370
    50
100
AcDbLine
 10
813.2721305193552
 20
187.3151629601287
 30
0.0000000000000568
 11
811.7726389633221
 21
185.8156714040955
 31
0.2142519848186493
  0
LINE
  5
237F
330
1F
100
AcDbEntity
  8
0
 62
     7
370
    50
100
AcDbLine
 10
822.2721305193553
 20
190.8151629601287
 30
-0.2000000000000002
 11
822.2721305193553
 21
181.3151629601287
 31
-0.1999999999958022
  0
LINE
  5
2380
330
1F
100
AcDbEntity
  8
0
 62
     7
370
    50
100
AcDbLine
 10
822.2721305193553
 20
181.3151629601287
 30
-0.1999999999958022
 11
813.8721305193552
 21
181.3151629601287
 31
0.0000000000000568
  0
LINE
  5
2381
330
1F
100
AcDbEntity
  8
0
 62
     7
370
    50
100
AcDbLine
 10
813.8721305193552
 20
180.1151629601287
 30
0.0000000000000568
 11
822.7721305193556
 21
180.1151629601287
 31
0.0000000000000568
  0
LINE
  5
2382
330
1F
100
AcDbEntity
  8
0
 62
     7
370
    50
100
AcDbLine
 10
822.9721305193557
 20
179.9151629601287
 30
0.0
 11
822.9721305193557
 21
174.7151629601288
 31
0.0
  0
LINE
  5
2383
330
1F
100
AcDbEntity
  8
0
 62
     7
370
    50
100
AcDbLine
 10
822.7721305193556
 20
174.5151629601288
 30
0.0
 11
813.8721305193552
 21
174.5151629601287
 31
0.0000000000000568
  0
LINE
  5
2384
330
1F
100
AcDbEntity
  8
0
 62
     7
370
    50
100
AcDbLine
 10
813.8721305193552
 20
173.3151629601287
 30
0.0000000000000568
 11
822.2721305193552
 21
173.3151629601287
 31
0.0000000000000586
  0
LINE
  5
2385
330
1F
100
AcDbEntity
  8
0
 62
     7
370
    50
100
AcDbLine
 10
822.2721305193552
 20
173.3151629601287
 30
0.0000000000000586
 11
822.272130519355
 21
163.8151629601287
 31
0.0000000000000586
  0
LINE
  5
2386
330
1F
100
AcDbEntity
  8
0
 62
     7
370
    50
100
AcDbLine
 10
821.272130519355
 20
162.8151629601287
 30
-0.2000000000000002
 11
813.272130519355
 21
162.8151629601287
 31
-0.2000000000000002
  0
LINE
  5
2387
330
1F
100
AcDbEntity
  8
0
 62
     7
370
    50
100
AcDbLine
 10
813.272130519355
 20
162.8151629601287
 30
-0.2000000000000002
 11
813.2721305193552
 21
167.3151629601286
 31
0.0000000000000568
  0
LINE
  5
2388
330
1F
100
AcDbEntity
  8
0
 62
     7
370
    50
100
AcDbLine
 10
813.2721305193552
 20
167.3151629601286
 30
0.0000000000000568
 11
811.7721305193553
 21
168.8151629601287
 31
0.0000000000000568
  0
LINE
  5
2389
330
1F
100
AcDbEntity
  8
0
 62
     7
370
    50
100
AcDbLine
 10
811.7721305193553
 20
168.8151629601287
 30
0.0000000000000568
 11
811.7721305193553
 21
185.8151629601287
 31
-0.5999999999999944
  0
LINE
  5
238A
330
1F
100
AcDbEntity
  8
0
 62
     7
370
    50
100
AcDbLine
 10
810.2721305193558
 20
180.1151629601286
 30
2.900000000000403
 11
809.2721305193558
 21
180.1151629601286
 31
2.900000000000403
  0
LINE
  5
238B
330
1F
100
AcDbEntity
  8
0
 62
     7
370
    50
100
AcDbLine
 10
809.2721305193558
 20
180.1151629601286
 30
2.900000000000403
 11
809.2721305193556
 21
174.5151629601286
 31
2.900000000000403
  0
LINE
  5
238C
330
1F
100
AcDbEntity
  8
0
 62
     7
370
    50
100
AcDbLine
 10
809.2721305193556
 20
174.5151629601286
 30
2.900000000000403
 11
810.2721305193551
 21
174.5151629601286
 31
-0.7999999999999999
  0
LINE
  5
238D
330
1F
100
AcDbEntity
  8
0
 62
     7
370
    50
100
AcDbLine
 10
810.2721305193551
 20
174.5151629601286
 30
-0.7999999999999999
 11
810.2721305193551
 21
185.8151629601286
 31
-3.000000000000113
  0
LINE
  5
238E
330
1F
100
AcDbEntity
  8
0
 62
     7
370
    50
100
AcDbLine
 10
810.2721305193558
 20
174.5151629601286
 30
2.900000000000403
 11
810.2721305193551
 21
168.8151629601287
 31
2.900000000000484
  0
ARC
  5
238F
330
1F
100
AcDbEntity
  8
0
 62
     7
370
    50
100
AcDbCircle
 10
821.272130519355
 20
163.8151629601287
 30
0.0
 40
1.00012861447044
100
AcDbArc
 50
269.0811189928836
 51
0.9188810071164507
  0
ARC
  5
2390
330
1F
100
AcDbEntity
  8
0
 62
     7
370
    50
100
AcDbCircle
 10
813.8721305193552
 20
173.9151629601287
 30
0.0000000000000568
 40
0.6000000000000105
100
AcDbArc
 50
90.0
 51
270.0
  0
ARC
  5
2391
330
1F
100
AcDbEntity
  8
0
 62
     7
370
    50
100
AcDbCircle
 10
813.8721305193552
 20
180.7151629601287
 30
0.0000000000000568
 40
0.6000000000000081
100
AcDbArc
 50
90.0
 51
270.0
  0
ARC
  5
2392
330
1F
100
AcDbEntity
  8
0
 62
     7
370
    50
100
AcDbCircle
 10
822.7721305193556
 20
179.9151629601287
 30
0.0
 40
0.2000000000000028
100
AcDbArc
 50
0.0
 51
90.0
  0
ARC
  5
2393
330
1F
100
AcDbEntity
  8
0
 62
     7
370
    50
100
AcDbCircle
 10
822.7721305193556
 20
174.7151629601288
 30
0.0
 40
0.2000000000000104
100
AcDbArc
 50
270.0
 51
0.0
  0
ARC
  5
2394
330
1F
100
AcDbEntity
  8
0
 62
     7
370
    50
100
AcDbCircle
 10
804.7721305193556
 20
186.9295744207287
 30
2.900000000000403
 40
6.999999999999829
100
AcDbArc
 50
0.0
 51
58.67853631766518
  0
ARC
  5
2395
330
1F
100
AcDbEntity
  8
0
 62
     7
370
    50
100
AcDbCircle
 10
804.7721305193556
 20
186.9295744207287
 30
2.900000000000403
 40
5.481828982210629
100
AcDbArc
 50
0.0
 51
58.11840159359898
  0
ARC
  5
2396
330
1F
100
AcDbEntity
  8
0
 62
     7
370
    50
100
AcDbCircle
 10
807.4721305193557
 20
192.5651629601286
 30
2.900000000000403
 40
0.9999999999999904
100
AcDbArc
 50
20.13666203715095
 51
281.26305186908
  0
LINE
  5
2397
330
1F
100
AcDbEntity
  8
0
 62
     7
370
    50
100
AcDbLine
 10
810.2721305193551
 20
185.8151629601286
 30
-0.5999999999999944
 11
810.2539595015665
 21
186.9295744207287
 31
2.900000000000403
  0
LINE
  5
2398
330
1F
100
AcDbEntity
  8
0
 62
     7
370
    50
100
AcDbLine
 10
811.7721305193553
 20
185.8151629601288
 30
-0.5999999999999944
 11
811.7721305193558
 21
186.9295744207287
 31
2.900000000000403
  0
ARC
  5
2399
330
1F
100
AcDbEntity
  8
0
 62
     7
370
    50
100
AcDbCircle
 10
804.7721305193556
 20
167.7007514995286
 30
2.900000000000403
 40
6.993005729958497
100
AcDbArc
 50
301.2474263253657
 51
0.0
  0
ARC
  5
239A
330
1F
100
AcDbEntity
  8
0
 62
     7
370
    50
100
AcDbCircle
 10
804.7721305193556
 20
167.7007514995286
 30
2.900000000000403
 40
5.494353951313939
100
AcDbArc
 50
301.85133079213
 51
0.0
  0
ARC
  5
239B
330
1F
100
AcDbEntity
  8
0
 62
     7
370
    50
100
AcDbCircle
 10
807.4721305193557
 20
162.0651629601286
 30
2.900000000000403
 40
0.9888981329068542
100
AcDbArc
 50
78.36342234172412
 51
339.7065478989816
  0
LINE
  5
239C
330
1F
100
AcDbEntity
  8
0
 62
     7
370
    50
100
AcDbLine
 10
810.2721305193551
 20
168.8151629601287
 30
2.900000000000484
 11
810.2664844706696
 21
167.7007514995286
 31
2.900000000000403
  0
LINE
  5
239D
330
1F
100
AcDbEntity
  8
0
 62
     7
370
    50
100
AcDbLine
 10
811.7721305193553
 20
168.8151629601287
 30
0.0000000000000568
 11
811.7721305193553
 21
167.7007514995286
 31
0.0000000000000568
  0
ARC
  5
239E
330
1F
100
AcDbEntity
  8
0
 62
     7
370
    50
100
AcDbCircle
 10
821.2172896731201
 20
190.7603221138935
 30
-0.2000000000000002
 40
1.05626546346181
100
AcDbArc
 50
357.0238897865246
 51
87.02388978652477
  0
LWPOLYLINE
  5
239F
330
1F
100
AcDbEntity
  8
0
 62
     7
370
    50
100
AcDbPolyline
 90
        8
 70
     1
 43
0.0
 10
533.310009315539
 20
158.3151629601287
 10
569.310009315539
 20
158.3151629601287
 42
0.4142135623730946
 10
570.310009315539
 20
159.3151629601287
 10
570.310009315539
 20
195.3151629601286
 42
0.4142135623730946
 10
569.310009315539
 20
196.3151629601286
 10
533.3100093155389
 20
196.3151629601287
 42
0.4142135623730958
 10
532.3100093155388
 20
195.3151629601287
 10
532.310009315539
 20
159.3151629601287
 42
0.4142135623730948
  0
LWPOLYLINE
  5
23A0
330
1F
100
AcDbEntity
  8
0
 62
     7
370
    50
100
AcDbPolyline
 90
        8
 70
     1
 43
0.0
 10
532.1100093155389
 20
156.1151629601287
 10
570.510009315539
 20
156.1151629601287
 42
0.4142135623730948
 10
572.510009315539
 20
158.1151629601287
 10
572.510009315539
 20
196.5151629601287
 42
0.4142135623730947
 10
570.510009315539
 20
198.5151629601287
 10
532.1100093155389
 20
198.5151629601287
 42
0.4142135623730959
 10
530.1100093155389
 20
196.5151629601287
 10
530.1100093155389
 20
158.1151629601287
 42
0.4142135623730948
  0
LWPOLYLINE
  5
23A1
330
1F
100
AcDbEntity
  8
0
 62
     7
370
    50
100
AcDbPolyline
 90
        6
 70
     1
 43
0.0
 10
546.3100093155389
 20
198.5151629601287
 10
556.310009315539
 20
198.5151629601287
 10
556.310009315539
 20
199.5151629601287
 42
0.4142135623730951
 10
554.8100093155389
 20
201.0151629601288
 10
547.8100093155389
 20
201.0151629601287
 42
0.414213562373094
 10
546.3100093155389
 20
199.5151629601287
  0
LWPOLYLINE
  5
23A2
330
1F
100
AcDbEntity
  8
0
 62
     7
370
    50
100
AcDbPolyline
 90
        6
 70
     1
 43
0.0
 10
546.3100093155389
 20
156.1151629601287
 10
556.310009315539
 20
156.1151629601287
 10
556.310009315539
 20
155.1151629601287
 42
-0.4142135623730951
 10
554.8100093155389
 20
153.6151629601287
 10
547.8100093155389
 20
153.6151629601287
 42
-0.414213562373094
 10
546.3100093155389
 20
155.1151629601287
  0
LINE
  5
23A3
330
1F
100
AcDbEntity
  8
0
 62
     7
370
    50
100
AcDbLine
 10
601.4354562526584
 20
198.5151629601287
 30
0.0
 11
595.4354562526584
 21
198.5151629601287
 31
0.0
  0
LINE
  5
23A4
330
1F
100
AcDbEntity
  8
0
 62
     7
370
    50
100
AcDbLine
 10
594.4354562526585
 20
197.5151629601287
 30
0.0
 11
594.4354562526585
 21
157.1151629601287
 31
0.0
  0
ARC
  5
23A5
330
1F
100
AcDbEntity
  8
0
 62
     7
370
    50
100
AcDbCircle
 10
595.4354562526584
 20
157.1151629601287
 30
0.0
 40
1.0
100
AcDbArc
 50
180.0
 51
270.0
  0
ARC
  5
23A6
330
1F
100
AcDbEntity
  8
0
 62
     7
370
    50
100
AcDbCircle
 10
595.4354562526584
 20
197.5151629601287
 30
0.0
 40
1.0
100
AcDbArc
 50
90.0
 51
180.0
  0
LINE
  5
23A7
330
1F
100
AcDbEntity
  8
0
 62
     7
370
    50
100
AcDbLine
 10
595.4354562526584
 20
156.1151629601287
 30
0.0
 11
601.4354562526584
 21
156.1151629601287
 31
0.0
  0
LINE
  5
23A8
330
1F
100
AcDbEntity
  8
0
 62
     7
370
    50
100
AcDbLine
 10
601.4354562526584
 20
198.5151629601287
 30
0.0
 11
601.4354562526584
 21
190.3151629601287
 31
0.0
  0
LINE
  5
23A9
330
1F
100
AcDbEntity
  8
0
 62
     7
370
    50
100
AcDbLine
 10
601.4354562526584
 20
189.2651629601287
 30
0.0
 11
601.4354562526584
 21
185.3651629601287
 31
0.0
  0
LINE
  5
23AA
330
1F
100
AcDbEntity
  8
0
 62
     7
370
    50
100
AcDbLine
 10
601.4354562526584
 20
184.3151629601287
 30
0.0
 11
601.4354562526584
 21
170.3151629601287
 31
0.0
  0
LINE
  5
23AB
330
1F
100
AcDbEntity
  8
0
 62
     7
370
    50
100
AcDbLine
 10
601.4354562526584
 20
169.2651629601287
 30
0.0
 11
601.4354562526584
 21
165.3651629601287
 31
0.0
  0
LINE
  5
23AC
330
1F
100
AcDbEntity
  8
0
 62
     7
370
    50
100
AcDbLine
 10
601.4354562526584
 20
164.3151629601287
 30
0.0
 11
601.4354562526584
 21
156.1151629601287
 31
0.0
  0
LINE
  5
23AD
330
1F
100
AcDbEntity
  8
0
 62
     7
370
    50
100
AcDbLine
 10
598.2354562526584
 20
189.8151629601287
 30
0.0
 11
598.2354562526584
 21
189.7651629601287
 31
0.0
  0
ARC
  5
23AE
330
1F
100
AcDbEntity
  8
0
 62
     7
370
    50
100
AcDbCircle
 10
598.7354562526584
 20
189.8151629601287
 30
0.0
 40
0.5
100
AcDbArc
 50
90.0
 51
179.9999999999967
  0
LINE
  5
23AF
330
1F
100
AcDbEntity
  8
0
 62
     7
370
    50
100
AcDbLine
 10
598.2354562526584
 20
184.8651629601287
 30
0.0
 11
598.2354562526584
 21
184.8151629601287
 31
0.0
  0
ARC
  5
23B0
330
1F
100
AcDbEntity
  8
0
 62
     7
370
    50
100
AcDbCircle
 10
598.7354562526584
 20
184.8651629601287
 30
0.0
 40
0.5
100
AcDbArc
 50
90.0
 51
180.0
  0
LINE
  5
23B1
330
1F
100
AcDbEntity
  8
0
 62
     7
370
    50
100
AcDbLine
 10
598.7354562526584
 20
189.2651629601287
 30
0.0
 11
601.4354562526584
 21
189.2651629601287
 31
0.0
  0
ARC
  5
23B2
330
1F
100
AcDbEntity
  8
0
 62
     7
370
    50
100
AcDbCircle
 10
598.7354562526584
 20
189.7651629601287
 30
0.0
 40
0.5
100
AcDbArc
 50
180.0
 51
270.0
  0
LINE
  5
23B3
330
1F
100
AcDbEntity
  8
0
 62
     7
370
    50
100
AcDbLine
 10
598.7354562526584
 20
185.3651629601287
 30
0.0
 11
601.4354562526584
 21
185.3651629601287
 31
0.0
  0
LINE
  5
23B4
330
1F
100
AcDbEntity
  8
0
 62
     7
370
    50
100
AcDbLine
 10
598.7354562526584
 20
190.3151629601287
 30
0.0
 11
601.4354562526584
 21
190.3151629601287
 31
0.0
  0
LINE
  5
23B5
330
1F
100
AcDbEntity
  8
0
 62
     7
370
    50
100
AcDbLine
 10
598.7354562526584
 20
184.3151629601287
 30
0.0
 11
601.4354562526584
 21
184.3151629601287
 31
0.0
  0
ARC
  5
23B6
330
1F
100
AcDbEntity
  8
0
 62
     7
370
    50
100
AcDbCircle
 10
598.7354562526584
 20
184.8151629601287
 30
0.0
 40
0.5
100
AcDbArc
 50
180.0000000000032
 51
270.0
  0
LINE
  5
23B7
330
1F
100
AcDbEntity
  8
0
 62
     7
370
    50
100
AcDbLine
 10
599.9354562526584
 20
185.3651629601287
 30
0.0
 11
601.4354562526584
 21
185.3651629601287
 31
0.0
  0
LINE
  5
23B8
330
1F
100
AcDbEntity
  8
0
 62
     7
370
    50
100
AcDbLine
 10
601.4354562526584
 20
185.3651629601287
 30
0.0
 11
601.4354562526584
 21
189.2651629601287
 31
0.0
  0
LINE
  5
23B9
330
1F
100
AcDbEntity
  8
0
 62
     7
370
    50
100
AcDbLine
 10
601.4354562526584
 20
189.2651629601287
 30
0.0
 11
599.9354562526584
 21
189.2651629601287
 31
0.0
  0
LINE
  5
23BA
330
1F
100
AcDbEntity
  8
0
 62
     7
370
    50
100
AcDbLine
 10
598.2354562526587
 20
164.8151629601287
 30
0.0
 11
598.2354562526587
 21
164.8651629601287
 31
0.0
  0
ARC
  5
23BB
330
1F
100
AcDbEntity
  8
0
 62
     7
370
    50
100
AcDbCircle
 10
598.7354562526586
 20
164.8151629601287
 30
0.0
 40
0.5
100
AcDbArc
 50
180.0
 51
270.0
  0
LINE
  5
23BC
330
1F
100
AcDbEntity
  8
0
 62
     7
370
    50
100
AcDbLine
 10
598.2354562526587
 20
169.7651629601287
 30
0.0
 11
598.2354562526584
 21
169.8151629601287
 31
0.0
  0
ARC
  5
23BD
330
1F
100
AcDbEntity
  8
0
 62
     7
370
    50
100
AcDbCircle
 10
598.7354562526586
 20
169.7651629601287
 30
0.0
 40
0.5
100
AcDbArc
 50
179.9999999999967
 51
270.0
  0
LINE
  5
23BE
330
1F
100
AcDbEntity
  8
0
 62
     7
370
    50
100
AcDbLine
 10
598.7354562526586
 20
165.3651629601287
 30
0.0
 11
601.4354562526584
 21
165.3651629601287
 31
0.0
  0
ARC
  5
23BF
330
1F
100
AcDbEntity
  8
0
 62
     7
370
    50
100
AcDbCircle
 10
598.7354562526586
 20
164.8651629601287
 30
0.0
 40
0.5
100
AcDbArc
 50
90.0
 51
180.0
  0
LINE
  5
23C0
330
1F
100
AcDbEntity
  8
0
 62
     7
370
    50
100
AcDbLine
 10
598.7354562526586
 20
169.2651629601287
 30
0.0
 11
601.4354562526584
 21
169.2651629601288
 31
0.0
  0
LINE
  5
23C1
330
1F
100
AcDbEntity
  8
0
 62
     7
370
    50
100
AcDbLine
 10
598.7354562526586
 20
164.3151629601287
 30
0.0
 11
601.4354562526584
 21
164.3151629601287
 31
0.0
  0
LINE
  5
23C2
330
1F
100
AcDbEntity
  8
0
 62
     7
370
    50
100
AcDbLine
 10
598.7354562526584
 20
170.3151629601287
 30
0.0
 11
601.4354562526584
 21
170.3151629601287
 31
0.0
  0
ARC
  5
23C3
330
1F
100
AcDbEntity
  8
0
 62
     7
370
    50
100
AcDbCircle
 10
598.7354562526584
 20
169.8151629601287
 30
0.0
 40
0.5
100
AcDbArc
 50
90.0
 51
179.9999999999967
  0
LINE
  5
23C4
330
1F
100
AcDbEntity
  8
0
 62
     7
370
    50
100
AcDbLine
 10
599.9354562526584
 20
169.2651629601287
 30
0.0
 11
601.4354562526584
 21
169.2651629601287
 31
0.0
  0
LINE
  5
23C5
330
1F
100
AcDbEntity
  8
0
 62
     7
370
    50
100
AcDbLine
 10
601.4354562526584
 20
169.2651629601287
 30
0.0
 11
601.4354562526587
 21
165.3651629601287
 31
0.0
  0
LINE
  5
23C6
330
1F
100
AcDbEntity
  8
0
 62
     7
370
    50
100
AcDbLine
 10
601.4354562526587
 20
165.3651629601287
 30
0.0
 11
599.9354562526584
 21
165.3651629601287
 31
0.0
  0
LINE
  5
23C7
330
1F
100
AcDbEntity
  8
0
 62
     7
370
    50
100
AcDbLine
 10
596.5354562526584
 20
201.0151629601288
 30
0.0
 11
597.9354562526585
 21
201.0151629601288
 31
0.0
  0
LINE
  5
23C8
330
1F
100
AcDbEntity
  8
0
 62
     7
370
    50
100
AcDbLine
 10
596.5354562526585
 20
198.5151629601287
 30
0.0
 11
596.5354562526585
 21
201.0151629601288
 31
0.0
  0
LINE
  5
23C9
330
1F
100
AcDbEntity
  8
0
 62
     7
370
    50
100
AcDbLine
 10
597.9354562526585
 20
198.5151629601287
 30
0.0
 11
597.9354562526585
 21
201.0151629601288
 31
0.0
  0
LINE
  5
23CA
330
1F
100
AcDbEntity
  8
0
 62
     7
370
    50
100
AcDbLine
 10
596.5354562526585
 20
153.6151629601287
 30
0.0
 11
597.9354562526586
 21
153.6151629601287
 31
0.0
  0
LINE
  5
23CB
330
1F
100
AcDbEntity
  8
0
 62
     7
370
    50
100
AcDbLine
 10
596.5354562526585
 20
156.1151629601287
 30
0.0
 11
596.5354562526585
 21
153.6151629601287
 31
0.0
  0
LINE
  5
23CC
330
1F
100
AcDbEntity
  8
0
 62
     7
370
    50
100
AcDbLine
 10
597.9354562526586
 20
156.1151629601287
 30
0.0
 11
597.9354562526586
 21
153.6151629601287
 31
0.0
  0
DIMENSION
  5
23CD
330
1F
100
AcDbEntity
  8
AM_5
100
AcDbDimension
  2
*D19
 10
530.1100093155389
 20
209.5917865305818
 30
0.0
 11
551.9964631702589
 21
209.5917865305818
 31
0.0
 70
   160
 71
     5
 42
42.40000000000009
  3
AM_ISO$0
100
AcDbAlignedDimension
 13
572.510009315539
 23
196.5151629601287
 33
0.0
 14
530.1100093155389
 24
196.5151629601287
 34
0.0
100
AcDbRotatedDimension
  0
DIMENSION
  5
23CE
330
1F
100
AcDbEntity
  8
AM_5
100
AcDbDimension
  2
*D20
 10
583.094749369716
 20
156.1151629601287
 30
0.0
 11
583.094749369716
 21
178.3192547675386
 31
0.0
 70
   160
 71
     5
 42
42.39999999999997
  3
AM_ISO$0
100
AcDbAlignedDimension
 13
570.510009315539
 23
198.5151629601287
 33
0.0
 14
570.510009315539
 24
156.1151629601287
 34
0.0
 50
90.0
100
AcDbRotatedDimension
  0
DIMENSION
  5
23CF
330
1F
100
AcDbEntity
  8
AM_5
100
AcDbDimension
  2
*D21
 10
594.4354562526585
 20
209.5270783289985
 30
0.0
 11
598.1186618537915
 21
209.5270783289985
 31
0.0
 70
   160
 71
     5
 42
7.0
  3
AM_ISO$0
100
AcDbAlignedDimension
 13
601.4354562526584
 23
198.5151629601287
 33
0.0
 14
594.4354562526585
 24
197.5151629601287
 34
0.0
100
AcDbRotatedDimension
  0
DIMENSION
  5
23D0
330
1F
100
AcDbEntity
  8
AM_5
100
AcDbDimension
  2
*D22
 10
611.2457097170029
 20
201.0151629601288
 30
0.0
 11
611.2457097170029
 21
177.6223012389294
 31
0.0
 70
   160
 71
     5
 42
47.40000000000003
  3
AM_ISO$0
100
AcDbAlignedDimension
 13
597.9354562526586
 23
153.6151629601287
 33
0.0
 14
597.9354562526586
 24
201.0151629601288
 34
0.0
 50
90.0
100
AcDbRotatedDimension
  0
LINE
  5
23D1
330
1F
100
AcDbEntity
  8
0
 62
     7
370
    50
100
AcDbLine
 10
728.764087600751
 20
180.3151629601287
 30
-1.749999999999973
 11
736.764087600751
 21
180.3151629601287
 31
-1.749999999999957
  0
LINE
  5
23D2
330
1F
100
AcDbEntity
  8
0
 62
     7
370
    50
100
AcDbLine
 10
736.764087600751
 20
180.3151629601287
 30
-1.749999999999957
 11
736.764087600751
 21
174.3151629601287
 31
-1.749999999999956
  0
LINE
  5
23D3
330
1F
100
AcDbEntity
  8
0
 62
     7
370
    50
100
AcDbLine
 10
736.764087600751
 20
174.3151629601287
 30
-1.749999999999956
 11
728.764087600751
 21
174.3151629601287
 31
-1.749999999999973
  0
LINE
  5
23D4
330
1F
100
AcDbEntity
  8
0
 62
     7
370
    50
100
AcDbLine
 10
728.764087600751
 20
174.3151629601287
 30
-1.749999999999973
 11
728.764087600751
 21
180.3151629601287
 31
-1.749999999999959
  0
LINE
  5
23D5
330
1F
100
AcDbEntity
  8
0
 62
     7
370
    50
100
AcDbLine
 10
735.7191068443837
 20
180.3151629601287
 30
-1.74999999999997
 11
735.7191068443837
 21
174.3151629601287
 31
-1.749999999999969
  0
LINE
  5
23D6
330
1F
100
AcDbEntity
  8
0
 62
     7
370
    50
100
AcDbLine
 10
734.7191068443837
 20
180.3151629601287
 30
-1.749999999999972
 11
734.7191068443837
 21
174.3151629601287
 31
-1.74999999999997
  0
LINE
  5
23D7
330
1F
100
AcDbEntity
  8
0
 62
     7
370
    50
100
AcDbLine
 10
733.7191068443837
 20
180.3151629601287
 30
-1.749999999999785
 11
733.7191068443837
 21
174.3151629601287
 31
-1.749999999999784
  0
LINE
  5
23D8
330
1F
100
AcDbEntity
  8
0
 62
     7
370
    50
100
AcDbLine
 10
732.7191068443838
 20
180.3151629601287
 30
-1.749999999999972
 11
732.7191068443838
 21
174.3151629601287
 31
-1.74999999999997
  0
LINE
  5
23D9
330
1F
100
AcDbEntity
  8
0
 62
     7
370
    50
100
AcDbLine
 10
731.7191068443837
 20
180.3151629601287
 30
-1.749999999999972
 11
731.7191068443837
 21
174.3151629601287
 31
-1.74999999999997
  0
LINE
  5
23DA
330
1F
100
AcDbEntity
  8
0
 62
     7
370
    50
100
AcDbLine
 10
730.7191068443837
 20
180.3151629601287
 30
-1.749999999999972
 11
730.7191068443837
 21
174.3151629601287
 31
-1.74999999999997
  0
LINE
  5
23DB
330
1F
100
AcDbEntity
  8
0
 62
     7
370
    50
100
AcDbLine
 10
729.7191068443837
 20
180.3151629601287
 30
-1.749999999999972
 11
729.7191068443837
 21
174.3151629601287
 31
-1.74999999999997
  0
LINE
  5
23DC
330
1F
100
AcDbEntity
  8
0
 62
     7
370
    50
100
AcDbLine
 10
719.064087600751
 20
181.3151629601287
 30
-3.999999999999948
 11
746.0640876007509
 21
181.3151629601287
 31
-1.749999999999941
  0
LINE
  5
23DD
330
1F
100
AcDbEntity
  8
0
 62
     7
370
    50
100
AcDbLine
 10
719.064087600751
 20
173.3151629601287
 30
-2.749999999999962
 11
746.0640876007509
 21
173.3151629601287
 31
-1.749999999999941
  0
LINE
  5
23DE
330
1F
100
AcDbEntity
  8
0
 62
     7
370
    50
100
AcDbLine
 10
746.0640876007509
 20
184.3151629601287
 30
-1.749999999999941
 11
746.0640876007509
 21
170.3151629601287
 31
-1.749999999999609
  0
LINE
  5
23DF
330
1F
100
AcDbEntity
  8
0
 62
     7
370
    50
100
AcDbLine
 10
745.5640876007509
 20
184.3151629601287
 30
-2.749999999999941
 11
745.5640876007509
 21
170.3151629601287
 31
-1.749999999999941
  0
LINE
  5
23E0
330
1F
100
AcDbEntity
  8
0
 62
     7
370
    50
100
AcDbLine
 10
746.0640876007509
 20
170.3151629601287
 30
-1.749999999999609
 11
720.064087600751
 21
170.3151629601287
 31
-1.749999999999614
  0
LINE
  5
23E1
330
1F
100
AcDbEntity
  8
0
 62
     7
370
    50
100
AcDbLine
 10
746.0640876007509
 20
184.3151629601287
 30
-1.749999999999941
 11
720.064087600751
 21
184.3151629601287
 31
-1.749999999999605
  0
LINE
  5
23E2
330
1F
100
AcDbEntity
  8
0
 62
     7
370
    50
100
AcDbLine
 10
720.064087600751
 20
167.3151629601287
 30
-1.750000000000003
 11
746.0611747834596
 21
167.3151629601287
 31
-3.372497023170055
  0
LINE
  5
23E3
330
1F
100
AcDbEntity
  8
0
 62
     7
370
    50
100
AcDbLine
 10
746.0611747834596
 20
167.3151629601287
 30
-3.372497023170055
 11
746.0611747834596
 21
162.8151629601287
 31
-2.799999999999939
  0
LINE
  5
23E4
330
1F
100
AcDbEntity
  8
0
 62
     7
370
    50
100
AcDbLine
 10
746.0611747834596
 20
162.8151629601287
 30
-2.799999999999939
 11
729.8640876007511
 21
162.8151629601287
 31
-2.799999999999949
  0
LINE
  5
23E5
330
1F
100
AcDbEntity
  8
0
 62
     7
370
    50
100
AcDbLine
 10
720.064087600751
 20
187.3151629601287
 30
-1.749999999999946
 11
746.0640876007509
 21
187.3151629601287
 31
-1.74999999999994
  0
LINE
  5
23E6
330
1F
100
AcDbEntity
  8
0
 62
     7
370
    50
100
AcDbLine
 10
746.0640876007509
 20
187.3151629601287
 30
-1.74999999999994
 11
746.0640876007509
 21
191.8151629601288
 31
-2.799999999999938
  0
LINE
  5
23E7
330
1F
100
AcDbEntity
  8
0
 62
     7
370
    50
100
AcDbLine
 10
746.0640876007509
 20
191.8151629601288
 30
-2.799999999999938
 11
729.8640876007511
 21
191.8151629601288
 31
-2.699999999999942
  0
LINE
  5
23E8
330
1F
100
AcDbEntity
  8
0
 62
     7
370
    50
100
AcDbLine
 10
737.214087600751
 20
191.8151629601288
 30
-3.99999999999995
 11
737.1640876007511
 21
187.3151629601287
 31
-2.69999999999994
  0
LINE
  5
23E9
330
1F
100
AcDbEntity
  8
0
 62
     7
370
    50
100
AcDbLine
 10
719.064087600751
 20
195.0651629601287
 30
-3.249999999999948
 11
723.564087600751
 21
195.0651629601287
 31
-3.249999999999346
  0
LINE
  5
23EA
330
1F
100
AcDbEntity
  8
0
 62
     7
370
    50
100
AcDbLine
 10
723.564087600751
 20
195.0651629601287
 30
-3.249999999999346
 11
723.564087600751
 21
187.3151629601287
 31
-1.749999999999946
  0
LINE
  5
23EB
330
1F
100
AcDbEntity
  8
0
 62
     7
370
    50
100
AcDbLine
 10
723.564087600751
 20
193.8651515535952
 30
-3.795223710956868
 11
728.8640876007511
 21
193.8651515535952
 31
-3.795223710956867
  0
LINE
  5
23EC
330
1F
100
AcDbEntity
  8
0
 62
     7
370
    50
100
AcDbLine
 10
728.8640876007511
 20
193.8651515535952
 30
-3.795223710956867
 11
728.8640876007511
 21
192.8151629601287
 31
-2.699999999999942
  0
LINE
  5
23ED
330
1F
100
AcDbEntity
  8
0
 62
     7
370
    50
100
AcDbLine
 10
719.064087600751
 20
159.5651629601287
 30
-3.249999999999948
 11
723.564087600751
 21
159.5651629601287
 31
-3.249999999999946
  0
LINE
  5
23EE
330
1F
100
AcDbEntity
  8
0
 62
     7
370
    50
100
AcDbLine
 10
723.564087600751
 20
159.5651629601287
 30
-3.249999999999946
 11
723.564087600751
 21
167.3151629601287
 31
-1.749999999999946
  0
LINE
  5
23EF
330
1F
100
AcDbEntity
  8
0
 62
     7
370
    50
100
AcDbLine
 10
723.564087600751
 20
160.6901629601287
 30
-19.49999999999997
 11
728.8640876007511
 21
160.6901629601281
 31
-5.450000000001539
  0
LINE
  5
23F0
330
1F
100
AcDbEntity
  8
0
 62
     7
370
    50
100
AcDbLine
 10
728.8640876007511
 20
160.6901629601281
 30
-5.450000000001539
 11
728.8640876007511
 21
161.8151629601287
 31
-2.799999999999956
  0
LINE
  5
23F1
330
1F
100
AcDbEntity
  8
0
 62
     7
370
    50
100
AcDbLine
 10
719.064087600751
 20
197.3151629601287
 30
-0.9999999999999483
 11
719.064087600751
 21
157.3151629601287
 31
-0.9999999999999616
  0
LINE
  5
23F2
330
1F
100
AcDbEntity
  8
0
 62
     7
370
    50
100
AcDbLine
 10
719.064087600751
 20
157.3151629601287
 30
-0.9999999999999616
 11
715.064087600751
 21
157.3151629601287
 31
-0.9999999999999625
  0
LINE
  5
23F3
330
1F
100
AcDbEntity
  8
0
 62
     7
370
    50
100
AcDbLine
 10
715.064087600751
 20
157.3151629601287
 30
-0.9999999999999625
 11
715.064087600751
 21
197.3151629601287
 31
-0.9999999999999477
  0
LINE
  5
23F4
330
1F
100
AcDbEntity
  8
0
 62
     7
370
    50
100
AcDbLine
 10
715.064087600751
 20
197.3151629601287
 30
-0.9999999999999477
 11
719.064087600751
 21
197.3151629601287
 31
-0.9999999999999468
  0
LINE
  5
23F5
330
1F
100
AcDbEntity
  8
0
 62
     7
370
    50
100
AcDbLine
 10
719.064087600751
 20
189.8151629601287
 30
0.0500000000000274
 11
717.064087600751
 21
189.8151629601287
 31
0.050000000000027
  0
LINE
  5
23F6
330
1F
100
AcDbEntity
  8
0
 62
     7
370
    50
100
AcDbLine
 10
717.064087600751
 20
189.8151629601287
 30
0.050000000000027
 11
717.064087600751
 21
184.8151629601287
 31
0.050000000000027
  0
LINE
  5
23F7
330
1F
100
AcDbEntity
  8
0
 62
     7
370
    50
100
AcDbLine
 10
717.064087600751
 20
184.8151629601287
 30
0.050000000000027
 11
719.064087600751
 21
184.8151629601287
 31
0.0500000000000274
  0
LINE
  5
23F8
330
1F
100
AcDbEntity
  8
0
 62
     7
370
    50
100
AcDbLine
 10
719.064087600751
 20
169.8151629601287
 30
0.0500000000000274
 11
717.064087600751
 21
169.8151629601287
 31
0.050000000000027
  0
LINE
  5
23F9
330
1F
100
AcDbEntity
  8
0
 62
     7
370
    50
100
AcDbLine
 10
717.064087600751
 20
169.8151629601287
 30
0.050000000000027
 11
717.064087600751
 21
164.8151629601287
 31
0.050000000000027
  0
LINE
  5
23FA
330
1F
100
AcDbEntity
  8
0
 62
     7
370
    50
100
AcDbLine
 10
717.064087600751
 20
164.8151629601287
 30
0.050000000000027
 11
719.064087600751
 21
164.8151629601287
 31
0.0500000000000274
  0
ARC
  5
23FB
330
1F
100
AcDbEntity
  8
0
 62
     7
370
    50
100
AcDbCircle
 10
729.8640876007511
 20
161.8151629601288
 30
-2.799999999999956
 40
0.9999999999999964
100
AcDbArc
 50
90.0
 51
180.0
  0
ARC
  5
23FC
330
1F
100
AcDbEntity
  8
0
 62
     7
370
    50
100
AcDbCircle
 10
720.064087600751
 20
169.3151629601288
 30
-1.749999999999946
 40
1.000000000000008
100
AcDbArc
 50
90.0
 51
180.0
  0
ARC
  5
23FD
330
1F
100
AcDbEntity
  8
0
 62
     7
370
    50
100
AcDbCircle
 10
720.064087600751
 20
168.3151629601288
 30
-1.750000000000003
 40
1.0
100
AcDbArc
 50
180.0
 51
270.0
  0
ARC
  5
23FE
330
1F
100
AcDbEntity
  8
0
 62
     7
370
    50
100
AcDbCircle
 10
720.064087600751
 20
186.3151629601287
 30
-1.74999999999996
 40
1.000000000000002
100
AcDbArc
 50
90.0
 51
180.0
  0
ARC
  5
23FF
330
1F
100
AcDbEntity
  8
0
 62
     7
370
    50
100
AcDbCircle
 10
720.064087600751
 20
185.3151629601287
 30
-1.749999999999605
 40
1.0
100
AcDbArc
 50
180.0
 51
270.0
  0
ARC
  5
2400
330
1F
100
AcDbEntity
  8
0
 62
     7
370
    50
100
AcDbCircle
 10
729.8640876007511
 20
192.8151629601287
 30
-2.700000000000084
 40
1.000000000000006
100
AcDbArc
 50
180.0
 51
270.0
  0
LINE
  5
2401
330
1F
100
AcDbEntity
  8
0
 62
     7
370
    50
100
AcDbLine
 10
694.2844691695957
 20
195.8151629601287
 30
-0.4999999999999958
 11
694.2844691695957
 21
158.8151629601287
 31
-0.4999999999999958
  0
LINE
  5
2402
330
1F
100
AcDbEntity
  8
0
 62
     7
370
    50
100
AcDbLine
 10
692.7844691695956
 20
157.3151629601287
 30
-0.4999999999999959
 11
655.7844691695956
 21
157.3151629601287
 31
-0.4999999999997007
  0
LINE
  5
2403
330
1F
100
AcDbEntity
  8
0
 62
     7
370
    50
100
AcDbLine
 10
654.2844691695957
 20
158.8151629601287
 30
-0.5000000000000005
 11
654.2844691695957
 21
195.8151629601287
 31
-0.4999999999999889
  0
LINE
  5
2404
330
1F
100
AcDbEntity
  8
0
 62
     7
370
    50
100
AcDbLine
 10
655.7844691695956
 20
197.3151629601287
 30
-0.5000000000000004
 11
692.7844691695956
 21
197.3151629601287
 31
-0.499999999999996
  0
LINE
  5
2405
330
1F
100
AcDbEntity
  8
0
 62
     7
370
    50
100
AcDbLine
 10
693.7844691695957
 20
195.8151629601287
 30
0.0000000000000042
 11
693.7844691695957
 21
158.8151629601287
 31
0.0000000000000042
  0
LINE
  5
2406
330
1F
100
AcDbEntity
  8
0
 62
     7
370
    50
100
AcDbLine
 10
692.7844691695956
 20
157.8151629601287
 30
-0.4999999999999943
 11
655.7844691695956
 21
157.8151629601287
 31
-0.4999999999996991
  0
LINE
  5
2407
330
1F
100
AcDbEntity
  8
0
 62
     7
370
    50
100
AcDbLine
 10
654.7844691695956
 20
158.8151629601287
 30
-0.5000000000000028
 11
654.7844691695956
 21
195.8151629601287
 31
-0.4999999999999913
  0
LINE
  5
2408
330
1F
100
AcDbEntity
  8
0
 62
     7
370
    50
100
AcDbLine
 10
655.7844691695956
 20
196.8151629601287
 30
-0.5000000000000004
 11
692.7844691695956
 21
196.8151629601287
 31
-0.499999999999996
  0
ARC
  5
2409
330
1F
100
AcDbEntity
  8
0
 62
     7
370
    50
100
AcDbCircle
 10
692.6505213872326
 20
195.6812151777657
 30
-0.499999999999996
 40
1.639428974944831
100
AcDbArc
 50
355.3134858574705
 51
85.31348585747073
  0
ARC
  5
240A
330
1F
100
AcDbEntity
  8
0
 62
     7
370
    50
100
AcDbCircle
 10
692.7255361048808
 20
195.7562298954141
 30
-0.499999999999996
 40
1.06057170510174
100
AcDbArc
 50
356.8145897548433
 51
86.81458975483376
  0
ARC
  5
240B
330
1F
100
AcDbEntity
  8
0
 62
     7
370
    50
100
AcDbCircle
 10
655.7844691695956
 20
195.8151629601287
 30
-0.5000000000000004
 40
1.0
100
AcDbArc
 50
90.0
 51
180.0
  0
ARC
  5
240C
330
1F
100
AcDbEntity
  8
0
 62
     7
370
    50
100
AcDbCircle
 10
655.8850928390154
 20
195.714539290709
 30
-0.0000000000000006
 40
1.603783418655517
100
AcDbArc
 50
86.40281802476705
 51
176.4028180247865
  0
ARC
  5
240D
330
1F
100
AcDbEntity
  8
0
 62
     7
370
    50
100
AcDbCircle
 10
655.7844691695954
 20
158.8151629601288
 30
-0.0000000000000004
 40
1.0
100
AcDbArc
 50
180.0
 51
270.0
  0
ARC
  5
240E
330
1F
100
AcDbEntity
  8
0
 62
     7
370
    50
100
AcDbCircle
 10
655.7844691695954
 20
158.8151629601288
 30
-0.0000000000000004
 40
1.489658854008439
100
AcDbArc
 50
180.2402604123873
 51
270.0
  0
ARC
  5
240F
330
1F
100
AcDbEntity
  8
0
 62
     7
370
    50
100
AcDbCircle
 10
692.7844691695955
 20
158.8151629601288
 30
0.0000000000000041
 40
0.9999999999999829
100
AcDbArc
 50
270.0
 51
0.0
  0
ARC
  5
2410
330
1F
100
AcDbEntity
  8
0
 62
     7
370
    50
100
AcDbCircle
 10
692.7844691695955
 20
158.8151629601288
 30
0.0000000000000041
 40
1.505325713085539
100
AcDbArc
 50
265.1789748440438
 51
4.821025155962761
  0
LINE
  5
2411
330
1F
100
AcDbEntity
  8
0
 62
     7
370
    50
100
AcDbLine
 10
656.2844691695957
 20
195.3151629601287
 30
-0.0000000000000004
 11
692.2844691695956
 21
195.3151629601287
 31
0.000000000000004
  0
LINE
  5
2412
330
1F
100
AcDbEntity
  8
0
 62
     7
370
    50
100
AcDbLine
 10
692.2844691695956
 20
195.3151629601287
 30
0.000000000000004
 11
692.2844691695956
 21
159.3151629601287
 31
0.000000000000004
  0
LINE
  5
2413
330
1F
100
AcDbEntity
  8
0
 62
     7
370
    50
100
AcDbLine
 10
692.2844691695956
 20
159.3151629601287
 30
0.000000000000004
 11
656.2844691695957
 21
159.3151629601287
 31
-0.0000000000000004
  0
LINE
  5
2414
330
1F
100
AcDbEntity
  8
0
 62
     7
370
    50
100
AcDbLine
 10
656.2844691695957
 20
159.3151629601287
 30
-0.0000000000000004
 11
656.2844691695957
 21
195.3151629601287
 31
-0.0000000000000004
  0
LINE
  5
2415
330
1F
100
AcDbEntity
  8
0
 62
     7
370
    50
100
AcDbLine
 10
656.2844691695957
 20
195.3151629601287
 30
-0.0000000000000004
 11
659.2844691695956
 21
192.3151629601287
 31
0.0
  0
LINE
  5
2416
330
1F
100
AcDbEntity
  8
0
 62
     7
370
    50
100
AcDbLine
 10
659.2844691695956
 20
192.3151629601287
 30
0.0
 11
689.2844691695956
 21
192.3151629601287
 31
0.0000000000000037
  0
LINE
  5
2417
330
1F
100
AcDbEntity
  8
0
 62
     7
370
    50
100
AcDbLine
 10
689.2844691695956
 20
192.3151629601287
 30
0.0000000000000037
 11
689.2844691695956
 21
162.3151629601287
 31
0.0000000000000037
  0
LINE
  5
2418
330
1F
100
AcDbEntity
  8
0
 62
     7
370
    50
100
AcDbLine
 10
689.2844691695956
 20
162.3151629601287
 30
0.0000000000000037
 11
659.2844691695956
 21
162.3151629601287
 31
0.0
  0
LINE
  5
2419
330
1F
100
AcDbEntity
  8
0
 62
     7
370
    50
100
AcDbLine
 10
659.2844691695956
 20
162.3151629601287
 30
0.0
 11
659.2844691695956
 21
192.3151629601287
 31
0.0
  0
LINE
  5
241A
330
1F
100
AcDbEntity
  8
0
 62
     7
370
    50
100
AcDbLine
 10
692.2844691695956
 20
195.3151629601287
 30
0.000000000000004
 11
689.2844691695956
 21
192.3151629601287
 31
0.0000000000000037
  0
LINE
  5
241B
330
1F
100
AcDbEntity
  8
0
 62
     7
370
    50
100
AcDbLine
 10
692.2844691695956
 20
159.3151629601287
 30
0.000000000000004
 11
689.2844691695956
 21
162.3151629601287
 31
0.0000000000000037
  0
LINE
  5
241C
330
1F
100
AcDbEntity
  8
0
 62
     7
370
    50
100
AcDbLine
 10
656.2844691695957
 20
159.3151629601287
 30
-0.0000000000000004
 11
659.2844691695956
 21
162.3151629601287
 31
0.0
  0
DIMENSION
  5
241D
330
1F
100
AcDbEntity
  8
AM_5
100
AcDbDimension
  2
*D23
 10
754.8939653422951
 20
159.5651629601287
 30
0.0000000000000018
 11
754.8939653422951
 21
177.2570950452099
 31
0.0000000000000018
 70
   160
 71
     5
 42
35.5
  3
AM_ISO$0
100
AcDbAlignedDimension
 13
723.564087600751
 23
195.0651629601287
 33
-3.249999999999346
 14
723.564087600751
 24
159.5651629601287
 34
-3.249999999999946
 50
90.0
100
AcDbRotatedDimension
  0
DIMENSION
  5
241E
330
1F
100
AcDbEntity
  8
AM_5
100
AcDbDimension
  2
*D24
 10
702.5147211397877
 20
157.3177192007387
 30
0.0000000000000018
 11
702.5147211397877
 21
178.5850407124745
 31
0.0000000000000018
 70
   160
 71
     5
 42
39.99744375939008
  3
AM_ISO$0
100
AcDbAlignedDimension
 13
692.7844691695956
 23
197.3151629601287
 33
-0.499999999999996
 14
692.9383122387944
 24
157.3177192007387
 34
0.0000000000000041
 50
90.0
100
AcDbRotatedDimension
  0
DIMENSION
  5
241F
330
1F
100
AcDbEntity
  8
AM_5
100
AcDbDimension
  2
*D25
 10
694.2844691695957
 20
209.3151629601288
 30
0.0000000000000018
 11
674.8780007689449
 21
209.3151629601288
 31
0.0000000000000018
 70
   160
 71
     5
 42
40.0
  3
AM_ISO$0
100
AcDbAlignedDimension
 13
654.2844691695957
 23
195.8151629601287
 33
-0.4999999999999889
 14
694.2844691695957
 24
195.8151629601287
 34
-0.4999999999999958
 50
180.0
100
AcDbRotatedDimension
  0
DIMENSION
  5
2420
330
1F
100
AcDbEntity
  8
AM_5
100
AcDbDimension
  2
*D26
 10
723.564087600751
 20
209.3151629601288
 30
0.0000000000000018
 11
733.8334976856945
 21
209.3151629601288
 31
0.0000000000000018
 70
   160
 71
     5
 42
4.5
  3
AM_ISO$0
100
AcDbAlignedDimension
 13
719.064087600751
 23
197.3151629601287
 33
-0.9999999999999484
 14
723.564087600751
 24
195.0651629601287
 34
-3.249999999999346
 50
180.0
100
AcDbRotatedDimension
  0
LINE
  5
269D
330
1F
100
AcDbEntity
  8
LOGO
 62
     4
100
AcDbLine
 10
488.9162445500334
 20
265.5294905320454
 30
0.0
 11
846.4162445500333
 21
265.5294905320454
 31
0.0
  0
TEXT
  5
294C
330
1F
100
AcDbEntity
  8
0
100
AcDbText
 10
516.0501616532412
 20
224.6271583665619
 30
0.0
 40
6.0
  1
FPC-1
100
AcDbText
  0
TEXT
  5
294E
330
1F
100
AcDbEntity
  8
0
100
AcDbText
 10
644.4104352484412
 20
224.6271583665619
 30
0.0
 40
6.0
  1
PA-1
100
AcDbText
  0
TEXT
  5
2950
330
1F
100
AcDbEntity
  8
0
100
AcDbText
 10
792.7029204847594
 20
224.6271583665619
 30
0.0
 40
6.0
  1
PA-2
100
AcDbText
  0
TEXT
  5
2952
330
1F
100
AcDbEntity
  8
0
100
AcDbText
 10
496.3082874878134
 20
251.1633682360552
 30
0.0
 40
6.0
  1
Panel type
100
AcDbText
  0
TEXT
  5
29DD
330
1F
100
AcDbEntity
  8
0
100
AcDbText
 10
496.3082874878134
 20
398.790661917672
 30
0.0
 40
6.0
  1
Mounting bracket
100
AcDbText
  0
ARC
  5
2A09
330
1F
100
AcDbEntity
  8
AM_VIS
100
AcDbCircle
 10
366.333440818782
 20
305.5297546117363
 30
0.0
 40
1.0
100
AcDbArc
 50
90.0
 51
180.0
  0
ARC
  5
2A0A
330
1F
100
AcDbEntity
  8
AM_VIS
100
AcDbCircle
 10
395.3334408187821
 20
305.5297546117363
 30
0.0
 40
1.0
100
AcDbArc
 50
0.0
 51
90.0
  0
ARC
  5
2A14
330
1F
100
AcDbEntity
  8
AM_VIS
100
AcDbCircle
 10
395.333440818782
 20
279.9297546117363
 30
0.0
 40
1.0
100
AcDbArc
 50
270.0
 51
359.9999999999999
  0
ARC
  5
2A15
330
1F
100
AcDbEntity
  8
AM_VIS
100
AcDbCircle
 10
366.3334408187819
 20
279.9297546117363
 30
0.0
 40
1.0
100
AcDbArc
 50
179.9999999999999
 51
270.0
  0
LINE
  5
2A3D
330
1F
100
AcDbEntity
  8
AM_7
  6
AM_ISO08W050x2
100
AcDbLine
 10
380.8334408187818
 20
318.4297546117363
 30
0.0
 11
380.8334408187821
 21
303.5297546117363
 31
0.0
1001
GENIUS_GENODEF_13
1002
{
1000
HIER
1070
     0
1002
}
1002
{
1000
MANEDIT
1070
     0
1002
}
1002
{
1000
NOSEL
1070
     0
1002
}
1002
{
1000
BEHIND
1070
     0
1002
}
1002
{
1000
OTHER
1070
     0
1002
}
1002
{
1000
REACTOR
1002
}
1001
GENIUS_GENOBJ-N-CEN_13
1002
{
1000
OWNER
1000
GEN
1002
}
1001
GENIUS_GENCEN_19
1002
{
1040
3.0
1002
}
  0
ARC
  5
2A40
330
1F
100
AcDbEntity
  8
AM_VIS
100
AcDbCircle
 10
375.5834408187819
 20
314.4297546117363
 30
0.0
 40
1.0
100
AcDbArc
 50
90.0
 51
180.0
  0
ARC
  5
2A41
330
1F
100
AcDbEntity
  8
AM_VIS
100
AcDbCircle
 10
386.083440818782
 20
314.4297546117363
 30
0.0
 40
1.0
100
AcDbArc
 50
0.0
 51
90.0
  0
ARC
  5
2A78
330
1F
100
AcDbEntity
  8
AM_VIS
100
AcDbCircle
 10
417.4858066486947
 20
256.5838519796927
 30
0.0
 40
1.0
100
AcDbArc
 50
90.0
 51
180.0
  0
ARC
  5
2A82
330
1F
100
AcDbEntity
  8
AM_VIS
100
AcDbCircle
 10
443.0858066486948
 20
256.5838519796927
 30
0.0
 40
1.0
100
AcDbArc
 50
0.0
 51
90.0
  0
ARC
  5
2A83
330
1F
100
AcDbEntity
  8
AM_VIS
100
AcDbCircle
 10
451.9858066486948
 20
248.5838519796929
 30
0.0
 40
1.0
100
AcDbArc
 50
0.0
 51
90.0
  0
ARC
  5
2A8D
330
1F
100
AcDbEntity
  8
AM_VIS
100
AcDbCircle
 10
451.9858066486949
 20
227.5838519796929
 30
0.0
 40
1.0
100
AcDbArc
 50
270.0
 51
0.0
  0
ARC
  5
2A8E
330
1F
100
AcDbEntity
  8
AM_VIS
100
AcDbCircle
 10
417.4858066486947
 20
227.5838519796927
 30
0.0
 40
1.0
100
AcDbArc
 50
180.0
 51
270.0
  0
LINE
  5
2B35
330
1F
100
AcDbEntity
  8
AM_VIS
100
AcDbLine
 10
393.8334408187819
 20
228.3338519796926
 30
0.0
 11
382.1324789244585
 21
228.3338519796926
 31
0.0
  0
LINE
  5
2B36
330
1F
100
AcDbEntity
  8
AM_VIS
100
AcDbLine
 10
393.833440818782
 20
230.8338519796927
 30
0.0
 11
384.2521394015763
 21
230.8338519796927
 31
0.0
  0
LINE
  5
2B37
330
1F
100
AcDbEntity
  8
0
100
AcDbLine
 10
393.833440818782
 20
230.8338519796927
 30
0.0
 11
393.8334408187819
 21
228.3338519796926
 31
0.0
  0
LINE
  5
2B38
330
1F
100
AcDbEntity
  8
0
100
AcDbLine
 10
367.833440818782
 20
230.8338519796927
 30
0.0
 11
367.8334408187819
 21
228.3338519796927
 31
0.0
  0
CIRCLE
  5
2B3C
330
1F
100
AcDbEntity
  8
0
100
AcDbCircle
 10
380.833440818782
 20
231.5838519796927
 30
0.0
 40
3.5
  0
LINE
  5
2B3D
330
1F
100
AcDbEntity
  8
AM_VIS
100
AcDbLine
 10
377.4147422359876
 20
232.3338519796926
 30
0.0
 11
367.8334408187819
 21
232.3338519796926
 31
0.0
  0
LINE
  5
2B3E
330
1F
100
AcDbEntity
  8
AM_VIS
100
AcDbLine
 10
377.4147422359876
 20
230.8338519796927
 30
0.0
 11
367.833440818782
 21
230.8338519796927
 31
0.0
  0
LINE
  5
2B3F
330
1F
100
AcDbEntity
  8
AM_VIS
100
AcDbLine
 10
379.5344027131053
 20
234.8338519796927
 30
0.0
 11
367.833440818782
 21
234.8338519796927
 31
0.0
  0
LINE
  5
2B40
330
1F
100
AcDbEntity
  8
AM_VIS
100
AcDbLine
 10
379.5344027131054
 20
228.3338519796926
 30
0.0
 11
367.8334408187819
 21
228.3338519796927
 31
0.0
  0
CIRCLE
  5
2B41
330
1F
100
AcDbEntity
  8
0
100
AcDbCircle
 10
380.833440818782
 20
231.5838519796927
 30
0.0
 40
3.25
  0
ENDSEC
  0
SECTION
  2
OBJECTS
  0
DICTIONARY
  5
C
330
0
100
AcDbDictionary
281
     1
  3
ACAD_COLOR
350
BE
  3
ACAD_GROUP
350
D
  3
ACAD_LAYOUT
350
1A
  3
ACAD_MATERIAL
350
BD
  3
ACAD_MLINESTYLE
350
17
  3
ACAD_PLOTSETTINGS
350
19
  3
ACAD_PLOTSTYLENAME
350
E
  3
ACAD_TABLESTYLE
350
11A
  3
ACDBHEADERROUNDTRIPXREC
350
2B68
  3
AcDbVariableDictionary
350
94
  3
AcmDictionary
350
5B
  3
AMG
350
41
  3
AMGSNAPSETTINGS
350
1B8
  3
DWGPROPS
350
2B67
  0
DICTIONARY
  5
3F9
330
2
100
AcDbDictionary
280
     1
281
     1
  3
ACAD_LAYERFILTERS
360
125B
  3
ACAD_LAYERSTATES
360
A47
  3
ACLYDICTIONARY
360
125A
  0
DICTIONARY
  5
8F
330
1F
100
AcDbDictionary
280
     1
281
     1
  3
ACAD_SORTENTS
360
146A
  0
DICTIONARY
  5
1388
330
137B
100
AcDbDictionary
280
     1
281
     1
  3
ACAD_DIMASSOC
360
1389
  0
DICTIONARY
  5
13BB
330
13AE
100
AcDbDictionary
280
     1
281
     1
  3
ACAD_DIMASSOC
360
13BC
  0
DICTIONARY
  5
1C27
330
1C1A
100
AcDbDictionary
280
     1
281
     1
  3
ACAD_DIMASSOC
360
1C28
  0
DICTIONARY
  5
1C4D
330
1C40
100
AcDbDictionary
280
     1
281
     1
  3
ACAD_DIMASSOC
360
1C4E
  0
DICTIONARY
  5
1C73
330
1C66
100
AcDbDictionary
280
     1
281
     1
  3
ACAD_DIMASSOC
360
1C74
  0
DICTIONARY
  5
1C99
330
1C8C
100
AcDbDictionary
280
     1
281
     1
  3
ACAD_DIMASSOC
360
1C9A
  0
DICTIONARY
  5
1CC1
330
1CB2
100
AcDbDictionary
280
     1
281
     1
  3
ACAD_DIMASSOC
360
1CC2
  0
DICTIONARY
  5
1CEB
330
1CDC
100
AcDbDictionary
280
     1
281
     1
  3
ACAD_DIMASSOC
360
1CEC
  0
DICTIONARY
  5
1D15
330
1D06
100
AcDbDictionary
280
     1
281
     1
  3
ACAD_DIMASSOC
360
1D16
  0
DICTIONARY
  5
1D3D
330
1D30
100
AcDbDictionary
280
     1
281
     1
  3
ACAD_DIMASSOC
360
1D3E
  0
DICTIONARY
  5
1DB0
330
1DA3
100
AcDbDictionary
280
     1
281
     1
  3
ACAD_DIMASSOC
360
1DB1
  0
DICTIONARY
  5
2059
330
204A
100
AcDbDictionary
280
     1
281
     1
  3
ACAD_DIMASSOC
360
205A
  0
DICTIONARY
  5
2083
330
2074
100
AcDbDictionary
280
     1
281
     1
  3
ACAD_DIMASSOC
360
2084
  0
DICTIONARY
  5
20AB
330
209E
100
AcDbDictionary
280
     1
281
     1
  3
ACAD_DIMASSOC
360
20AC
  0
DICTIONARY
  5
20F7
330
20EA
100
AcDbDictionary
280
     1
281
     1
  3
ACAD_DIMASSOC
360
20F8
  0
DICTIONARY
  5
2122
330
2115
100
AcDbDictionary
280
     1
281
     1
  3
ACAD_DIMASSOC
360
2123
  0
DICTIONARY
  5
BE
102
{ACAD_REACTORS
330
C
102
}
330
C
100
AcDbDictionary
281
     1
  0
DICTIONARY
  5
D
102
{ACAD_REACTORS
330
C
102
}
330
C
100
AcDbDictionary
281
     1
  0
DICTIONARY
  5
1A
102
{ACAD_REACTORS
330
C
102
}
330
C
100
AcDbDictionary
281
     1
  3
Model
350
22
  3
配置1
350
1E
  3
配置2
350
26
  0
DICTIONARY
  5
BD
102
{ACAD_REACTORS
330
C
102
}
330
C
100
AcDbDictionary
281
     1
  0
DICTIONARY
  5
17
102
{ACAD_REACTORS
330
C
102
}
330
C
100
AcDbDictionary
281
     1
  3
Standard
350
18
  0
DICTIONARY
  5
19
102
{ACAD_REACTORS
330
C
102
}
330
C
100
AcDbDictionary
281
     1
  0
ACDBDICTIONARYWDFLT
  5
E
102
{ACAD_REACTORS
330
C
102
}
330
C
100
AcDbDictionary
281
     1
  3
Normal
350
F
100
AcDbDictionaryWithDefault
340
F
  0
DICTIONARY
  5
11A
102
{ACAD_REACTORS
330
C
102
}
330
C
100
AcDbDictionary
281
     1
  3
Standard
350
11B
  0
DICTIONARY
  5
2B68
102
{ACAD_REACTORS
330
C
102
}
330
C
100
AcDbDictionary
281
     1
  0
DICTIONARY
  5
94
102
{ACAD_REACTORS
330
C
102
}
330
C
100
AcDbDictionary
281
     1
  3
CTABLESTYLE
350
138
  3
DIMASSOC
350
96
  3
INDEXCTL
350
95
  3
PROJECTNAME
350
176E
  0
DICTIONARY
  5
5B
102
{ACAD_REACTORS
330
C
102
}
330
C
100
AcDbDictionary
281
     1
  3
AcmBOM
350
1B5
  3
AcmStdDictionary
350
61
  3
AMDTSECTSYM_ARROWCOLOR
350
123
  0
DICTIONARY
  5
41
102
{ACAD_REACTORS
330
C
102
}
330
C
100
AcDbDictionary
281
     1
  0
DICTIONARY
  5
1B8
102
{ACAD_REACTORS
330
C
102
}
330
C
100
AcDbDictionary
281
     1
  0
XRECORD
  5
2B67
102
{ACAD_REACTORS
330
C
102
}
330
C
100
AcDbXrecord
280
     1
  1
DWGPROPS COOKIE
  2

  3

  4

  6

  7

  8

  9

300
AmdtFileType=84
301
=
302
=
303
=
304
=
305
=
306
=
307
=
308
=
309
=
 40
0.1394341550925926
 41
2453893.405110127
 42
2454253.502095266
  1

 90
        1
  0
DICTIONARY
  5
125B
102
{ACAD_REACTORS
330
3F9
102
}
330
3F9
100
AcDbDictionary
281
     1
  0
DICTIONARY
  5
A47
102
{ACAD_REACTORS
330
3F9
102
}
330
3F9
100
AcDbDictionary
281
     1
  0
DICTIONARY
  5
125A
102
{ACAD_REACTORS
330
3F9
102
}
330
3F9
100
AcDbDictionary
281
     1
1001
ACAD
1000
<All
  0
SORTENTSTABLE
  5
146A
102
{ACAD_REACTORS
330
8F
102
}
330
8F
100
AcDbSortentsTable
330
1F
331
12AA
  5
12AA
331
1AF8
  5
1B05
331
1AB9
  5
1AC6
331
15AC
  5
15B9
331
156D
  5
1586
331
1437
  5
148E
331
1486
  5
13F6
331
12B2
  5
12B2
331
23E9
  5
23F6
331
23B2
  5
23BF
331
1B00
  5
1B0D
331
1AC1
  5
1ACE
331
1575
  5
158E
331
148E
  5
1432
331
12BA
  5
12BF
331
23F1
  5
23FE
331
23BA
  5
23C7
331
1B08
  5
1CB2
331
1AC9
  5
1ADC
331
15BC
  5
15C9
331
12C2
  5
12C9
331
23F9
  5
2406
331
23C2
  5
23CF
331
2383
  5
2390
331
1B10
  5
20EA
331
1AD1
  5
1AE4
331
1A9A
  5
1AA7
331
1743
  5
1926
331
15C4
  5
15D1
331
1585
  5
1595
331
154E
  5
155B
331
2401
  5
240E
331
23CA
  5
23D7
331
238B
  5
2398
331
2B37
  5
2B3E
331
2B3F
  5
1444
331
10FB
  5
10FB
331
12CA
  5
12FF
331
1AD9
  5
1AE6
331
1AA2
  5
1AAF
331
1753
  5
1929
331
15CC
  5
15D9
331
158D
  5
159A
331
1556
  5
1563
331
1457
  5
1555
331
12D2
  5
13D0
331
2409
  5
2416
331
23D2
  5
23DF
331
2393
  5
23A0
331
1D06
  5
2381
331
1AE1
  5
1AEE
331
1AAA
  5
1AB7
331
15D4
  5
15E1
331
1595
  5
15A2
331
155E
  5
1574
331
2411
  5
241E
331
23DA
  5
23E7
331
239B
  5
23A8
331
1AE9
  5
1AF6
331
1AB2
  5
1ABF
331
15DC
  5
1758
331
159D
  5
15AC
331
12A3
  5
12A3
331
13C9
  5
13DE
331
2419
  5
29DD
331
23E2
  5
23EF
331
23A3
  5
23B0
331
1AF1
  5
1AFE
331
15A5
  5
15B3
331
2A82
  5
12CF
331
294E
  5
2A83
331
23AB
  5
23B8
331
1430
  5
148A
331
12AB
  5
12AB
331
1C40
  5
237C
331
1AF9
  5
1B06
331
1ABA
  5
1AC7
331
15AD
  5
15BA
331
12B3
  5
12B3
331
23EA
  5
23F7
331
23B3
  5
23C0
331
1B01
  5
1B0E
331
1AC2
  5
1ACF
331
1576
  5
158F
331
1440
  5
1491
331
12BB
  5
12C2
331
148F
  5
13E8
331
23F2
  5
23FF
331
23BB
  5
23C8
331
237C
  5
2389
331
1B09
  5
1CDC
331
1ACA
  5
1ADD
331
15BD
  5
15CA
331
1448
  5
154F
331
12C3
  5
12CA
331
23FA
  5
2407
331
23C3
  5
23D0
331
2384
  5
2391
331
1A9B
  5
1AA8
331
15C5
  5
15D2
331
1586
  5
1596
331
154F
  5
155C
331
2402
  5
240F
331
23CB
  5
23D8
331
238C
  5
2399
331
2B38
  5
2B3F
331
1450
  5
1551
331
12CB
  5
1300
331
1ADA
  5
1AE7
331
1AA3
  5
1AB0
331
15CD
  5
15DA
331
158E
  5
159B
331
1557
  5
1564
331
1458
  5
1556
331
12D3
  5
13D1
331
240A
  5
2417
331
23D3
  5
23E0
331
2394
  5
23A1
331
1AE2
  5
1AEF
331
1AAB
  5
1AB8
331
15D5
  5
16CF
331
1596
  5
15A4
331
155F
  5
1575
331
2412
  5
241F
331
23DB
  5
23E8
331
239C
  5
23A9
331
1AEA
  5
1AF7
331
1AB3
  5
1AC0
331
15DD
  5
191F
331
159E
  5
15AD
331
12A4
  5
12A4
331
2B40
  5
2B38
331
241A
  5
2A09
331
23E3
  5
23F0
331
23A4
  5
23B1
331
2115
  5
2388
331
1AF2
  5
1AFF
331
15A6
  5
15B4
331
2A83
  5
132E
331
23AC
  5
23B9
331
2A14
  5
12BA
331
1431
  5
148B
331
1480
  5
13E2
331
12AC
  5
12AC
331
1AFA
  5
1B07
331
1ABB
  5
1AC8
331
15AE
  5
15BB
331
1488
  5
13E1
331
12B4
  5
12B5
331
23EB
  5
23F8
331
23B4
  5
23C1
331
1B02
  5
1B0F
331
1AC3
  5
1AD0
331
1577
  5
1590
331
1441
  5
1492
331
137B
  5
13DA
331
23F3
  5
2400
331
23BC
  5
23C9
331
237D
  5
238A
331
209E
  5
2386
331
1B0A
  5
1D06
331
1ACB
  5
1ADE
331
15BE
  5
15CB
331
12C4
  5
12CC
331
23FB
  5
2408
331
23C4
  5
23D1
331
2385
  5
2392
331
1A9C
  5
1AA9
331
2403
  5
2410
331
23CC
  5
23D9
331
238D
  5
239A
331
29DD
  5
2B35
331
1550
  5
155D
331
1451
  5
1552
331
12CC
  5
137B
331
1C1A
  5
2115
331
1ADB
  5
1AE8
331
1AA4
  5
1AB1
331
15CE
  5
15DB
331
158F
  5
159C
331
1558
  5
1568
331
1459
  5
1557
331
12D4
  5
13D4
331
240B
  5
2418
331
23D4
  5
23E1
331
2395
  5
23A2
331
1AE3
  5
1AF0
331
1AAC
  5
1AB9
331
15D6
  5
16D0
331
1597
  5
15A5
331
1560
  5
1576
331
2413
  5
2420
331
23DC
  5
23E9
331
239D
  5
23AA
331
1D30
  5
2382
331
1AEB
  5
1AF8
331
1AB4
  5
1AC1
331
15DE
  5
1920
331
159F
  5
15AE
331
12A5
  5
12A5
331
241B
  5
2A0A
331
23E4
  5
23F1
331
23A5
  5
23B2
331
1AF3
  5
1B00
331
15A7
  5
15B5
331
23AD
  5
23BA
331
2A15
  5
12B8
331
2A3D
  5
2B36
331
1568
  5
1584
331
1432
  5
148C
331
12AD
  5
12AD
331
1AFB
  5
1B08
331
1ABC
  5
1AC9
331
13DB
  5
1488
331
12B5
  5
12B6
331
1489
  5
13E3
331
23EC
  5
23F9
331
23B5
  5
23C2
331
1B03
  5
1B10
331
1AC4
  5
1AD1
331
1578
  5
1591
331
1442
  5
1493
331
2950
  5
2A8D
331
23F4
  5
2401
331
23BD
  5
23CA
331
237E
  5
238B
331
1B0B
  5
1D30
331
1ACC
  5
1ADF
331
15BF
  5
15CC
331
1580
  5
1593
331
12C5
  5
12CE
331
23FC
  5
2409
331
23C5
  5
23D2
331
2386
  5
2393
331
1A9D
  5
1AAA
331
2404
  5
2411
331
23CD
  5
23DA
331
238E
  5
239B
331
1551
  5
155E
331
1452
  5
1553
331
1ADC
  5
1AE9
331
1AA5
  5
1AB2
331
15CF
  5
15DC
331
1590
  5
159D
331
1559
  5
156C
331
145A
  5
1558
331
240C
  5
2419
331
23D5
  5
23E2
331
2396
  5
23A3
331
1AE4
  5
1AF1
331
1AAD
  5
1ABA
331
15D7
  5
1743
331
1598
  5
15A6
331
1561
  5
1577
331
2414
  5
269D
331
23DD
  5
23EA
331
239E
  5
23AB
331
1AEC
  5
1AF9
331
1AB5
  5
1AC2
331
15DF
  5
1921
331
15A0
  5
15AF
331
13CC
  5
13E4
331
12A6
  5
12A6
331
147A
  5
13E5
331
241C
  5
2A14
331
23E5
  5
23F2
331
23A6
  5
23B3
331
1CB2
  5
237F
331
1AF4
  5
1B01
331
23AE
  5
23BB
331
2A8D
  5
12C7
331
15A8
  5
15B6
331
1433
  5
148D
331
13D4
  5
143B
331
1AFC
  5
1B09
331
1ABD
  5
1ACA
331
1571
  5
158A
331
143B
  5
148F
331
12B6
  5
12B7
331
148A
  5
13F9
331
23ED
  5
23FA
331
23B6
  5
23C3
331
1B04
  5
1C1A
331
1AC5
  5
1AD8
331
16CF
  5
1924
331
1443
  5
154D
331
12BE
  5
12C5
331
23F5
  5
2402
331
23BE
  5
23CB
331
237F
  5
238C
331
1B0C
  5
1DA3
331
1ACD
  5
1AE0
331
1A96
  5
1AA3
331
15C0
  5
15CD
331
12C6
  5
12D0
331
D5F
  5
D5F
331
23FD
  5
240A
331
23C6
  5
23D3
331
2387
  5
2394
331
1A9E
  5
1AAB
331
2405
  5
2412
331
23CE
  5
23DB
331
238F
  5
239C
331
15C8
  5
15D5
331
1552
  5
155F
331
1ADD
  5
1AEA
331
1AA6
  5
1AB3
331
1757
  5
1AA1
331
15D0
  5
15DD
331
1591
  5
159E
331
155A
  5
156D
331
145B
  5
1559
331
240D
  5
241A
331
23D6
  5
23E3
331
2397
  5
23A4
331
1AE5
  5
1AF2
331
1AAE
  5
1ABB
331
15D8
  5
1750
331
1599
  5
15A7
331
1562
  5
1578
331
2415
  5
294C
331
23DE
  5
23EB
331
239F
  5
23AC
331
1AED
  5
1AFA
331
1AB6
  5
1AC3
331
15A1
  5
15B0
331
12A7
  5
12A7
331
13CD
  5
13E7
331
241D
  5
2A15
331
23E6
  5
23F3
331
23A7
  5
23B4
331
1AF5
  5
1B02
331
23AF
  5
23BC
331
2A8E
  5
12D1
331
15E0
  5
1922
331
15A9
  5
15B7
331
13D5
  5
1441
331
132E
  5
13D7
331
12AF
  5
12AF
331
1AFD
  5
1B0A
331
1ABE
  5
1ACB
331
1572
  5
158B
331
143C
  5
1490
331
12B7
  5
12B9
331
148B
  5
13E0
331
23EE
  5
23FB
331
23B7
  5
23C4
331
1B05
  5
1C40
331
1AC6
  5
1AD9
331
16D0
  5
1925
331
1444
  5
154E
331
2952
  5
2A8E
331
23F6
  5
2403
331
23BF
  5
23CC
331
2380
  5
238D
331
1B0D
  5
204A
331
1ACE
  5
1AE1
331
1A97
  5
1AA4
331
15C1
  5
15CE
331
144C
  5
1550
331
12C7
  5
12D2
331
23FE
  5
240B
331
23C7
  5
23D4
331
2388
  5
2395
331
1A9F
  5
1AAC
331
2406
  5
2413
331
23CF
  5
23DC
331
2B3C
  5
2B40
331
1750
  5
1927
331
15C9
  5
15D6
331
158A
  5
1597
331
1553
  5
1560
331
2390
  5
239D
331
204A
  5
2384
331
1C8C
  5
237E
331
1ADE
  5
1AEB
331
1AA7
  5
1AB4
331
1758
  5
1AA2
331
15D1
  5
15DE
331
1592
  5
159F
331
155B
  5
1571
331
13AE
  5
13DB
331
240E
  5
241B
331
23D7
  5
23E4
331
2398
  5
23A5
331
1AE6
  5
1AF3
331
1AAF
  5
1ABC
331
15D9
  5
1751
331
159A
  5
15A8
331
1563
  5
157C
331
2416
  5
294E
331
23DF
  5
23EC
331
23A0
  5
23AD
331
1AEE
  5
1AFB
331
1AB7
  5
1AC4
331
15A2
  5
15B1
331
13CE
  5
142F
331
241E
  5
2A3D
331
23E7
  5
23F4
331
23A8
  5
23B5
331
1AF6
  5
1B03
331
12A8
  5
12A8
331
15E1
  5
1923
331
15AA
  5
15B8
331
13D6
  5
1450
331
12B0
  5
12B0
331
23B0
  5
23BD
331
1AFE
  5
1B0B
331
1ABF
  5
1ACC
331
1573
  5
158C
331
12B8
  5
12BB
331
148C
  5
1430
331
23EF
  5
23FC
331
23B8
  5
23C5
331
1DA3
  5
2383
331
1B06
  5
1C66
331
1AC7
  5
1ADA
331
15BA
  5
15C7
331
12C0
  5
12C6
331
23F7
  5
2404
331
23C0
  5
23CD
331
2381
  5
238E
331
1CDC
  5
2380
331
1B0E
  5
2074
331
1ACF
  5
1AE2
331
1A98
  5
1AA5
331
15C2
  5
15CF
331
2A40
  5
12C4
331
269D
  5
2A78
331
23FF
  5
240C
331
23C8
  5
23D5
331
2389
  5
2396
331
20EA
  5
2387
331
2407
  5
2414
331
2B35
  5
2B37
331
2A78
  5
12CB
331
2B3D
  5
1440
331
12C8
  5
12D3
331
1AA0
  5
1AAD
331
1751
  5
1928
331
15CA
  5
15D7
331
158B
  5
1598
331
1554
  5
1561
331
23D0
  5
23DD
331
2391
  5
239E
331
1ADF
  5
1AEC
331
1AA8
  5
1AB5
331
15D2
  5
15DF
331
1593
  5
15A0
331
155C
  5
1572
331
240F
  5
241C
331
23D8
  5
23E5
331
2399
  5
23A6
331
1AE7
  5
1AF4
331
1AB0
  5
1ABD
331
15DA
  5
1753
331
159B
  5
15A9
331
1564
  5
1580
331
2417
  5
2950
331
23E0
  5
23ED
331
23A1
  5
23AE
331
1AEF
  5
1AFC
331
13CF
  5
1431
331
294C
  5
2A82
331
241F
  5
2A40
331
23A9
  5
23B6
331
1AF7
  5
1B04
331
2A09
  5
12BC
331
12A9
  5
12A9
331
1AB8
  5
1AC5
331
156C
  5
1585
331
13D7
  5
1486
331
12B1
  5
12B1
331
23E8
  5
23F5
331
23B1
  5
23BE
331
1AFF
  5
1B0C
331
1AC0
  5
1ACD
331
1574
  5
158D
331
148D
  5
13E6
331
12B9
  5
12BD
331
23F0
  5
23FD
331
23B9
  5
23C6
331
1B07
  5
1C8C
331
1AC8
  5
1ADB
331
15BB
  5
15C8
331
157C
  5
1592
331
12C1
  5
12C8
331
23F8
  5
2405
331
23C1
  5
23CE
331
2382
  5
238F
331
1C66
  5
237D
331
1B0F
  5
209E
331
1AD0
  5
1AE3
331
1A99
  5
1AA6
331
15C3
  5
15D0
331
2A41
  5
12B4
331
154D
  5
155A
331
1584
  5
1594
331
2400
  5
240D
331
23C9
  5
23D6
331
238A
  5
2397
331
2B36
  5
2B3C
331
2B3E
  5
2B3D
331
12C9
  5
12D4
331
1AD8
  5
1AE5
331
1AA1
  5
1AAE
331
15CB
  5
15D8
331
158C
  5
1599
331
1555
  5
1562
331
1456
  5
1554
331
12D1
  5
13CF
331
2408
  5
2415
331
23D1
  5
23DE
331
2392
  5
239F
331
1AE0
  5
1AED
331
1AA9
  5
1AB6
331
15D3
  5
15E0
331
1594
  5
15A1
331
155D
  5
1573
331
2410
  5
241D
331
23D9
  5
23E6
331
239A
  5
23A7
331
1AE8
  5
1AF5
331
1AB1
  5
1ABE
331
15DB
  5
1757
331
159C
  5
15AA
331
142F
  5
1489
331
2418
  5
2952
331
23E1
  5
23EE
331
23A2
  5
23AF
331
1AF0
  5
1AFD
331
15A4
  5
15B2
331
2420
  5
2A41
331
23AA
  5
23B7
331
2074
  5
2385
331
2A0A
  5
12BE
  0
DIMASSOC
  5
1389
102
{ACAD_REACTORS
330
1388
102
}
330
1388
100
AcDbDimAssoc
330
137B
 90
        2
 70
     0
 71
     0
  1
AcDbOsnapPointRef
 72
    13
331
12CB
 73
     0
 91
        0
 40
0.0
 10
0.0
 20
0.0
 30
2.000000000000000E+50
 75
     0
  0
DIMASSOC
  5
13BC
102
{ACAD_REACTORS
330
13BB
102
}
330
13BB
100
AcDbDimAssoc
330
13AE
 90
        3
 70
     0
 71
     0
  1
AcDbOsnapPointRef
 72
     1
331
12B0
 73
     0
 91
        0
 40
0.0
 10
0.0
 20
0.0
 30
2.000000000000000E+50
 75
     0
  1
AcDbOsnapPointRef
 72
    13
331
12AF
 73
     0
 91
        0
 40
0.0
 10
0.0
 20
0.0
 30
2.000000000000000E+50
 75
     0
  0
DIMASSOC
  5
1C28
102
{ACAD_REACTORS
330
1C27
102
}
330
1C27
100
AcDbDimAssoc
330
1C1A
 90
        3
 70
     0
 71
     0
  1
AcDbOsnapPointRef
 72
    13
331
1AA0
 73
     0
 91
        0
 40
0.0
 10
0.0
 20
0.0
 30
2.000000000000000E+50
 75
     0
  1
AcDbOsnapPointRef
 72
     1
331
1A9F
 73
     0
 91
        0
 40
0.0
 10
0.0
 20
0.0
 30
2.000000000000000E+50
 75
     0
  0
DIMASSOC
  5
1C4E
102
{ACAD_REACTORS
330
1C4D
102
}
330
1C4D
100
AcDbDimAssoc
330
1C40
 90
        3
 70
     0
 71
     0
  1
AcDbOsnapPointRef
 72
     1
331
1A9A
 73
     0
 91
        0
 40
0.0
 10
0.0
 20
0.0
 30
2.000000000000000E+50
 75
     0
  1
AcDbOsnapPointRef
 72
    13
331
1A9F
 73
     0
 91
        0
 40
0.0
 10
0.0
 20
0.0
 30
2.000000000000000E+50
 75
     0
  0
DIMASSOC
  5
1C74
102
{ACAD_REACTORS
330
1C73
102
}
330
1C73
100
AcDbDimAssoc
330
1C66
 90
        3
 70
     0
 71
     0
  1
AcDbOsnapPointRef
 72
    13
331
1A9F
 73
     0
 91
        0
 40
0.0
 10
0.0
 20
0.0
 30
2.000000000000000E+50
 75
     0
  1
AcDbOsnapPointRef
 72
     1
331
1AA1
 73
     0
 91
        0
 40
0.0
 10
0.0
 20
0.0
 30
2.000000000000000E+50
 75
     0
  0
DIMASSOC
  5
1C9A
102
{ACAD_REACTORS
330
1C99
102
}
330
1C99
100
AcDbDimAssoc
330
1C8C
 90
        3
 70
     0
 71
     0
  1
AcDbOsnapPointRef
 72
     1
331
1AC6
 73
     0
 91
        0
 40
0.0
 10
0.0
 20
0.0
 30
2.000000000000000E+50
 75
     0
  1
AcDbOsnapPointRef
 72
     1
331
1AC8
 73
     0
 91
        0
 40
0.0
 10
0.0
 20
0.0
 30
2.000000000000000E+50
 75
     0
  0
DIMASSOC
  5
1CC2
102
{ACAD_REACTORS
330
1CC1
102
}
330
1CC1
100
AcDbDimAssoc
330
1CB2
 90
        3
 70
     0
 71
     0
  1
AcDbOsnapPointRef
 72
     5
331
1AC9
 73
     0
 91
        0
 40
1.570796326794896
 10
0.0
 20
6.283185307179586
 30
2.000000000000000E+50
 75
     0
  1
AcDbOsnapPointRef
 72
     5
331
1AC9
 73
     0
 91
        0
 40
4.712388980384689
 10
0.0
 20
6.283185307179586
 30
2.000000000000000E+50
 75
     0
  0
DIMASSOC
  5
1CEC
102
{ACAD_REACTORS
330
1CEB
102
}
330
1CEB
100
AcDbDimAssoc
330
1CDC
 90
        3
 70
     0
 71
     0
  1
AcDbOsnapPointRef
 72
     1
331
1AC2
 73
     0
 91
        0
 40
0.0
 10
0.0
 20
0.0
 30
2.000000000000000E+50
 75
     0
  1
AcDbOsnapPointRef
 72
    13
331
1AC5
 73
     0
 91
        0
 40
0.0
 10
0.0
 20
0.0
 30
2.000000000000000E+50
 75
     0
  0
DIMASSOC
  5
1D16
102
{ACAD_REACTORS
330
1D15
102
}
330
1D15
100
AcDbDimAssoc
330
1D06
 90
        3
 70
     0
 71
     0
  1
AcDbOsnapPointRef
 72
     5
331
1ACA
 73
     0
 91
        0
 40
0.0
 10
0.0
 20
6.283185307179586
 30
2.000000000000000E+50
 75
     0
  1
AcDbOsnapPointRef
 72
     6
331
1ACA
 73
     0
 91
        0
 40
3.144048993879823
 10
0.0
 20
6.283185307179586
 30
2.000000000000000E+50
332
1AC8
 74
     0
 92
        0
 75
     0
  0
DIMASSOC
  5
1D3E
102
{ACAD_REACTORS
330
1D3D
102
}
330
1D3D
100
AcDbDimAssoc
330
1D30
 90
        3
 70
     0
 71
     0
  1
AcDbOsnapPointRef
 72
    13
331
1AC2
 73
     0
 91
        0
 40
0.0
 10
0.0
 20
0.0
 30
2.000000000000000E+50
 75
     0
  1
AcDbOsnapPointRef
 72
     1
331
1AB4
 73
     0
 91
        0
 40
0.0
 10
0.0
 20
0.0
 30
2.000000000000000E+50
 75
     0
  0
DIMASSOC
  5
1DB1
102
{ACAD_REACTORS
330
1DB0
102
}
330
1DB0
100
AcDbDimAssoc
330
1DA3
 90
        3
 70
     0
 71
     0
  1
AcDbOsnapPointRef
 72
    13
331
1AC1
 73
     0
 91
        0
 40
0.0
 10
0.0
 20
0.0
 30
2.000000000000000E+50
 75
     0
  1
AcDbOsnapPointRef
 72
    13
331
1AB5
 73
     0
 91
        0
 40
0.0
 10
0.0
 20
0.0
 30
2.000000000000000E+50
 75
     0
  0
DIMASSOC
  5
205A
102
{ACAD_REACTORS
330
2059
102
}
330
2059
100
AcDbDimAssoc
330
204A
 90
        3
 70
     0
 71
     0
  1
AcDbOsnapPointRef
 72
     5
331
1B0A
 73
     0
 91
        0
 40
0.0
 10
0.0
 20
6.283185307179586
 30
2.000000000000000E+50
 75
     0
  1
AcDbOsnapPointRef
 72
     5
331
1B0A
 73
     0
 91
        0
 40
3.141592653589793
 10
0.0
 20
6.283185307179586
 30
2.000000000000000E+50
 75
     0
  0
DIMASSOC
  5
2084
102
{ACAD_REACTORS
330
2083
102
}
330
2083
100
AcDbDimAssoc
330
2074
 90
        3
 70
     0
 71
     0
  1
AcDbOsnapPointRef
 72
     5
331
1B09
 73
     0
 91
        0
 40
4.712388980384689
 10
0.0
 20
6.283185307179586
 30
2.000000000000000E+50
 75
     0
  1
AcDbOsnapPointRef
 72
     5
331
1B09
 73
     0
 91
        0
 40
1.570796326794896
 10
0.0
 20
6.283185307179586
 30
2.000000000000000E+50
 75
     0
  0
DIMASSOC
  5
20AC
102
{ACAD_REACTORS
330
20AB
102
}
330
20AB
100
AcDbDimAssoc
330
209E
 90
        3
 70
     0
 71
     0
  1
AcDbOsnapPointRef
 72
    13
331
1B08
 73
     0
 91
        0
 40
0.0
 10
0.0
 20
0.0
 30
2.000000000000000E+50
 75
     0
  1
AcDbOsnapPointRef
 72
    13
331
1B06
 73
     0
 91
        0
 40
0.0
 10
0.0
 20
0.0
 30
2.000000000000000E+50
 75
     0
  0
DIMASSOC
  5
20F8
102
{ACAD_REACTORS
330
20F7
102
}
330
20F7
100
AcDbDimAssoc
330
20EA
 90
        3
 70
     0
 71
     0
  1
AcDbOsnapPointRef
 72
     1
331
1AE1
 73
     0
 91
        0
 40
0.0
 10
0.0
 20
0.0
 30
2.000000000000000E+50
 75
     0
  1
AcDbOsnapPointRef
 72
     1
331
1ADD
 73
     0
 91
        0
 40
0.0
 10
0.0
 20
0.0
 30
2.000000000000000E+50
 75
     0
  0
DIMASSOC
  5
2123
102
{ACAD_REACTORS
330
2122
102
}
330
2122
100
AcDbDimAssoc
330
2115
 90
        3
 70
     0
 71
     0
  1
AcDbOsnapPointRef
 72
     1
331
1AE1
 73
     0
 91
        0
 40
0.0
 10
0.0
 20
0.0
 30
2.000000000000000E+50
 75
     0
  1
AcDbOsnapPointRef
 72
     1
331
1AE2
 73
     0
 91
        0
 40
0.0
 10
0.0
 20
0.0
 30
2.000000000000000E+50
 75
     0
  0
LAYOUT
  5
22
102
{ACAD_XDICTIONARY
360
2B6B
102
}
102
{ACAD_REACTORS
330
1A
102
}
330
1A
100
AcDbPlotSettings
  1

  2
\\RD\EPSON Stylus C63 Series單色
  4
A4
  6

 40
3.757083177566528
 41
3.757076978683471
 42
3.757080078125
 43
3.757080078125
 44
209.9733276367187
 45
296.9683227539062
 46
0.0
 47
0.0
 48
0.0
 49
0.0
140
0.0
141
0.0
142
1.0
143
0.3405120737814363
 70
 11952
 72
     1
 73
     0
 74
     0
  7
彩色出圖.ctb
 75
     0
147
2.936753428137963
148
-2047.07469463503
149
-1261.649717473083
100
AcDbLayout
  1
Model
 70
     1
 71
     0
 10
0.0
 20
0.0
 11
12.0
 21
9.0
 12
0.0
 22
0.0
 32
0.0
 14
0.0
 24
0.0
 34
0.0
 15
0.0
 25
0.0
 35
0.0
146
0.0
 13
0.0
 23
0.0
 33
0.0
 16
1.0
 26
0.0
 36
0.0
 17
0.0
 27
1.0
 37
0.0
 76
     0
330
1F
1001
ACAD_PSEXT
1000
\\RD\EPSON Stylus C63 Series單色
1000
EPSON Stylus C63 Series
1000
\\RD
1000

1070
     0
  0
LAYOUT
  5
1E
102
{ACAD_XDICTIONARY
360
2B69
102
}
102
{ACAD_REACTORS
330
1A
102
}
330
1A
100
AcDbPlotSettings
  1

  2

  4

  6

 40
0.0
 41
0.0
 42
0.0
 43
0.0
 44
0.0
 45
0.0
 46
0.0
 47
0.0
 48
0.0
 49
0.0
140
0.0
141
0.0
142
1.0
143
1.0
 70
   688
 72
     0
 73
     0
 74
     5
  7
彩色出圖.ctb
 75
    16
147
1.0
148
0.0
149
0.0
100
AcDbLayout
  1
配置1
 70
     1
 71
     1
 10
0.0
 20
0.0
 11
420.0
 21
297.0
 12
0.0
 22
0.0
 32
0.0
 14
1.000000000000000E+20
 24
1.000000000000000E+20
 34
1.000000000000000E+20
 15
-1.000000000000000E+20
 25
-1.000000000000000E+20
 35
-1.000000000000000E+20
146
0.0
 13
0.0
 23
0.0
 33
0.0
 16
1.0
 26
0.0
 36
0.0
 17
0.0
 27
1.0
 37
0.0
 76
     0
330
1B
  0
LAYOUT
  5
26
102
{ACAD_XDICTIONARY
360
2B6D
102
}
102
{ACAD_REACTORS
330
1A
102
}
330
1A
100
AcDbPlotSettings
  1

  2

  4

  6

 40
0.0
 41
0.0
 42
0.0
 43
0.0
 44
0.0
 45
0.0
 46
0.0
 47
0.0
 48
0.0
 49
0.0
140
0.0
141
0.0
142
1.0
143
1.0
 70
   688
 72
     0
 73
     0
 74
     5
  7
彩色出圖.ctb
 75
    16
147
1.0
148
0.0
149
0.0
100
AcDbLayout
  1
配置2
 70
     1
 71
     2
 10
0.0
 20
0.0
 11
12.0
 21
9.0
 12
0.0
 22
0.0
 32
0.0
 14
0.0
 24
0.0
 34
0.0
 15
0.0
 25
0.0
 35
0.0
146
0.0
 13
0.0
 23
0.0
 33
0.0
 16
1.0
 26
0.0
 36
0.0
 17
0.0
 27
1.0
 37
0.0
 76
     0
330
23
  0
MLINESTYLE
  5
18
102
{ACAD_REACTORS
330
17
102
}
330
17
100
AcDbMlineStyle
  2
STANDARD
 70
     0
  3

 62
   256
 51
90.0
 52
90.0
 71
     2
 49
0.5
 62
   256
  6
BYLAYER
 49
-0.5
 62
   256
  6
BYLAYER
  0
ACDBPLACEHOLDER
  5
F
102
{ACAD_REACTORS
330
E
102
}
330
E
  0
TABLESTYLE
  5
11B
102
{ACAD_REACTORS
330
11A
102
}
330
11A
100
AcDbTableStyle
  3
Standard
 70
     0
 71
     0
 40
1.5
 41
1.5
280
     0
281
     0
  7
STANDARD
140
4.5
170
     2
 62
     0
 63
     7
283
     0
274
    -2
284
     1
 64
     0
275
    -2
285
     1
 65
     0
276
    -2
286
     1
 66
     0
277
    -2
287
     1
 67
     0
278
    -2
288
     1
 68
     0
279
    -2
289
     1
 69
     0
  7
STANDARD
140
6.0
170
     5
 62
     0
 63
     7
283
     0
274
    -2
284
     1
 64
     0
275
    -2
285
     1
 65
     0
276
    -2
286
     1
 66
     0
277
    -2
287
     1
 67
     0
278
    -2
288
     1
 68
     0
279
    -2
289
     1
 69
     0
  7
STANDARD
140
4.5
170
     5
 62
     0
 63
     7
283
     0
274
    -2
284
     1
 64
     0
275
    -2
285
     1
 65
     0
276
    -2
286
     1
 66
     0
277
    -2
287
     1
 67
     0
278
    -2
288
     1
 68
     0
279
    -2
289
     1
 69
     0
  0
DICTIONARYVAR
  5
138
102
{ACAD_REACTORS
330
94
102
}
330
94
100
DictionaryVariables
280
     0
  1
STANDARD
  0
DICTIONARYVAR
  5
96
102
{ACAD_REACTORS
330
94
102
}
330
94
100
DictionaryVariables
280
     0
  1
2
  0
DICTIONARYVAR
  5
95
102
{ACAD_REACTORS
330
94
102
}
330
94
100
DictionaryVariables
280
     0
  1
0
  0
DICTIONARYVAR
  5
176E
102
{ACAD_REACTORS
330
94
102
}
330
94
100
DictionaryVariables
280
     0
  1

  0
DICTIONARY
  5
1B5
102
{ACAD_REACTORS
330
5B
102
}
330
5B
100
AcDbDictionary
281
     1
  0
DICTIONARY
  5
61
102
{ACAD_REACTORS
330
5B
102
}
330
5B
100
AcDbDictionary
281
     1
  0
XRECORD
  5
123
102
{ACAD_REACTORS
330
5B
102
}
330
5B
100
AcDbXrecord
280
     1
 90
-1023410169
  0
DICTIONARY
  5
2B6B
330
22
100
AcDbDictionary
280
     1
281
     1
  3
ACAD_XREC_ROUNDTRIP
360
2B6C
  0
DICTIONARY
  5
2B69
330
1E
100
AcDbDictionary
280
     1
281
     1
  3
ACAD_XREC_ROUNDTRIP
360
2B6A
  0
DICTIONARY
  5
2B6D
330
26
100
AcDbDictionary
280
     1
281
     1
  3
ACAD_XREC_ROUNDTRIP
360
2B6E
  0
XRECORD
  5
2B6C
102
{ACAD_REACTORS
330
2B6B
102
}
330
2B6B
100
AcDbXrecord
280
     1
102
SHADEPLOT
 70
     0
102
SHADEPLOTRESLEVEL
 70
     2
102
SHADEPLOTCUSTOMDPI
 70
   300
  0
XRECORD
  5
2B6A
102
{ACAD_REACTORS
330
2B69
102
}
330
2B69
100
AcDbXrecord
280
     1
102
SHADEPLOT
 70
     0
102
SHADEPLOTRESLEVEL
 70
     2
102
SHADEPLOTCUSTOMDPI
 70
   300
  0
XRECORD
  5
2B6E
102
{ACAD_REACTORS
330
2B6D
102
}
330
2B6D
100
AcDbXrecord
280
     1
102
SHADEPLOT
 70
     0
102
SHADEPLOTRESLEVEL
 70
     2
102
SHADEPLOTCUSTOMDPI
 70
   300
  0
ENDSEC
  0
EOF
