  0
SECTION
  2
HEADER
  9
$ACADVER
  1
AC1015
  9
$ACADMAINTVER
 70
    20
  9
$DWGCODEPAGE
  3
ANSI_950
  9
$INSBASE
 10
0.0
 20
0.0
 30
0.0
  9
$EXTMIN
 10
94.45654267863279
 20
76.06649031022982
 30
-0.003999259246882
  9
$EXTMAX
 10
301.2976622754948
 20
225.3870625518881
 30
154.1292132455804
  9
$LIMMIN
 10
0.0
 20
0.0
  9
$LIMMAX
 10
420.0
 20
297.0
  9
$ORTHOMODE
 70
     1
  9
$REGENMODE
 70
     1
  9
$FILLMODE
 70
     1
  9
$QTEXTMODE
 70
     0
  9
$MIRRTEXT
 70
     1
  9
$LTSCALE
 40
1.0
  9
$ATTMODE
 70
     1
  9
$TEXTSIZE
 40
3.0
  9
$TRACEWID
 40
1.0
  9
$TEXTSTYLE
  7
CHINESET
  9
$CLAYER
  8
0
  9
$CELTYPE
  6
ByLayer
  9
$CECOLOR
 62
   256
  9
$CELTSCALE
 40
1.0
  9
$DISPSILH
 70
     0
  9
$DIMSCALE
 40
1.0
  9
$DIMASZ
 40
3.0
  9
$DIMEXO
 40
1.0
  9
$DIMDLI
 40
8.0
  9
$DIMRND
 40
0.0
  9
$DIMDLE
 40
0.0
  9
$DIMEXE
 40
1.5
  9
$DIMTP
 40
0.1
  9
$DIMTM
 40
0.1
  9
$DIMTXT
 40
3.5
  9
$DIMCEN
 40
0.0
  9
$DIMTSZ
 40
0.0
  9
$DIMTOL
 70
     0
  9
$DIMLIM
 70
     0
  9
$DIMTIH
 70
     0
  9
$DIMTOH
 70
     0
  9
$DIMSE1
 70
     0
  9
$DIMSE2
 70
     0
  9
$DIMTAD
 70
     1
  9
$DIMZIN
 70
     8
  9
$DIMBLK
  1

  9
$DIMASO
 70
     1
  9
$DIMSHO
 70
     1
  9
$DIMPOST
  1

  9
$DIMAPOST
  1
"
  9
$DIMALT
 70
     0
  9
$DIMALTD
 70
     2
  9
$DIMALTF
 40
0.0393701
  9
$DIMLFAC
 40
1.0
  9
$DIMTOFL
 70
     1
  9
$DIMTVP
 40
0.0
  9
$DIMTIX
 70
     0
  9
$DIMSOXD
 70
     0
  9
$DIMSAH
 70
     0
  9
$DIMBLK1
  1

  9
$DIMBLK2
  1

  9
$DIMSTYLE
  2
AM_ISO
  9
$DIMCLRD
 70
   256
  9
$DIMCLRE
 70
   256
  9
$DIMCLRT
 70
   256
  9
$DIMTFAC
 40
0.6
  9
$DIMGAP
 40
0.8
  9
$DIMJUST
 70
     0
  9
$DIMSD1
 70
     0
  9
$DIMSD2
 70
     0
  9
$DIMTOLJ
 70
     0
  9
$DIMTZIN
 70
     8
  9
$DIMALTZ
 70
     0
  9
$DIMALTTZ
 70
     0
  9
$DIMUPT
 70
     0
  9
$DIMDEC
 70
     2
  9
$DIMTDEC
 70
     8
  9
$DIMALTU
 70
     2
  9
$DIMALTTD
 70
     2
  9
$DIMTXSTY
  7
CHINESET
  9
$DIMAUNIT
 70
     0
  9
$DIMADEC
 70
     0
  9
$DIMALTRND
 40
0.0
  9
$DIMAZIN
 70
     2
  9
$DIMDSEP
 70
    46
  9
$DIMATFIT
 70
     3
  9
$DIMFRAC
 70
     0
  9
$DIMLDRBLK
  1

  9
$DIMLUNIT
 70
     2
  9
$DIMLWD
 70
    -1
  9
$DIMLWE
 70
    -1
  9
$DIMTMOVE
 70
     0
  9
$LUNITS
 70
     2
  9
$LUPREC
 70
     2
  9
$SKETCHINC
 40
1.0
  9
$FILLETRAD
 40
2.5
  9
$AUNITS
 70
     0
  9
$AUPREC
 70
     0
  9
$MENU
  1
.
  9
$ELEVATION
 40
0.0
  9
$PELEVATION
 40
0.0
  9
$THICKNESS
 40
0.0
  9
$LIMCHECK
 70
     0
  9
$CHAMFERA
 40
2.5
  9
$CHAMFERB
 40
2.5
  9
$CHAMFERC
 40
20.0
  9
$CHAMFERD
 40
0.0
  9
$SKPOLY
 70
     0
  9
$TDCREATE
 40
2453885.344806667
  9
$TDUCREATE
 40
2453885.011473333
  9
$TDUPDATE
 40
2453885.382053484
  9
$TDUUPDATE
 40
2453885.048720150
  9
$TDINDWG
 40
0.0344028472
  9
$TDUSRTIMER
 40
0.0344028472
  9
$USRTIMER
 70
     1
  9
$ANGBASE
 50
0.0
  9
$ANGDIR
 70
     0
  9
$PDMODE
 70
     0
  9
$PDSIZE
 40
0.0
  9
$PLINEWID
 40
0.0
  9
$SPLFRAME
 70
     0
  9
$SPLINETYPE
 70
     6
  9
$SPLINESEGS
 70
     8
  9
$HANDSEED
  5
11C8
  9
$SURFTAB1
 70
     6
  9
$SURFTAB2
 70
     6
  9
$SURFTYPE
 70
     6
  9
$SURFU
 70
     6
  9
$SURFV
 70
     6
  9
$UCSBASE
  2

  9
$UCSNAME
  2

  9
$UCSORG
 10
0.0
 20
0.0
 30
0.0
  9
$UCSXDIR
 10
1.0
 20
0.0
 30
0.0
  9
$UCSYDIR
 10
0.0
 20
1.0
 30
0.0
  9
$UCSORTHOREF
  2

  9
$UCSORTHOVIEW
 70
     0
  9
$UCSORGTOP
 10
0.0
 20
0.0
 30
0.0
  9
$UCSORGBOTTOM
 10
0.0
 20
0.0
 30
0.0
  9
$UCSORGLEFT
 10
0.0
 20
0.0
 30
0.0
  9
$UCSORGRIGHT
 10
0.0
 20
0.0
 30
0.0
  9
$UCSORGFRONT
 10
0.0
 20
0.0
 30
0.0
  9
$UCSORGBACK
 10
0.0
 20
0.0
 30
0.0
  9
$PUCSBASE
  2

  9
$PUCSNAME
  2

  9
$PUCSORG
 10
0.0
 20
0.0
 30
0.0
  9
$PUCSXDIR
 10
1.0
 20
0.0
 30
0.0
  9
$PUCSYDIR
 10
0.0
 20
1.0
 30
0.0
  9
$PUCSORTHOREF
  2

  9
$PUCSORTHOVIEW
 70
     0
  9
$PUCSORGTOP
 10
0.0
 20
0.0
 30
0.0
  9
$PUCSORGBOTTOM
 10
0.0
 20
0.0
 30
0.0
  9
$PUCSORGLEFT
 10
0.0
 20
0.0
 30
0.0
  9
$PUCSORGRIGHT
 10
0.0
 20
0.0
 30
0.0
  9
$PUCSORGFRONT
 10
0.0
 20
0.0
 30
0.0
  9
$PUCSORGBACK
 10
0.0
 20
0.0
 30
0.0
  9
$USERI1
 70
     0
  9
$USERI2
 70
     0
  9
$USERI3
 70
     0
  9
$USERI4
 70
     0
  9
$USERI5
 70
     0
  9
$USERR1
 40
0.0
  9
$USERR2
 40
0.0
  9
$USERR3
 40
0.0
  9
$USERR4
 40
0.0
  9
$USERR5
 40
0.0
  9
$WORLDVIEW
 70
     1
  9
$SHADEDGE
 70
     3
  9
$SHADEDIF
 70
    70
  9
$TILEMODE
 70
     1
  9
$MAXACTVP
 70
    64
  9
$PINSBASE
 10
0.0
 20
0.0
 30
0.0
  9
$PLIMCHECK
 70
     0
  9
$PEXTMIN
 10
1.000000000000000E+20
 20
1.000000000000000E+20
 30
1.000000000000000E+20
  9
$PEXTMAX
 10
-1.000000000000000E+20
 20
-1.000000000000000E+20
 30
-1.000000000000000E+20
  9
$PLIMMIN
 10
0.0
 20
0.0
  9
$PLIMMAX
 10
420.0
 20
297.0
  9
$UNITMODE
 70
     0
  9
$VISRETAIN
 70
     1
  9
$PLINEGEN
 70
     0
  9
$PSLTSCALE
 70
     1
  9
$TREEDEPTH
 70
  3020
  9
$CMLSTYLE
  2
Standard
  9
$CMLJUST
 70
     0
  9
$CMLSCALE
 40
20.0
  9
$PROXYGRAPHICS
 70
     1
  9
$MEASUREMENT
 70
     1
  9
$CELWEIGHT
370
    -1
  9
$ENDCAPS
280
     0
  9
$JOINSTYLE
280
     0
  9
$LWDISPLAY
290
     0
  9
$INSUNITS
 70
     4
  9
$HYPERLINKBASE
  1

  9
$STYLESHEET
  1
彩色出圖.ctb
  9
$XEDIT
290
     1
  9
$CEPSNTYPE
380
     0
  9
$PSTYLEMODE
290
     1
  9
$FINGERPRINTGUID
  2
{17F6BB79-452D-4961-BAE6-942E28B1C68E}
  9
$VERSIONGUID
  2
{4CDFA00F-3BCB-445D-8242-553B5B2EC4C9}
  9
$EXTNAMES
290
     1
  9
$PSVPSCALE
 40
0.0
  9
$OLESTARTUP
290
     0
  0
ENDSEC
  0
SECTION
  2
CLASSES
  0
CLASS
  1
ACDBDICTIONARYWDFLT
  2
AcDbDictionaryWithDefault
  3
ObjectDBX Classes
 90
        0
280
     0
281
     0
  0
CLASS
  1
ACDBPLACEHOLDER
  2
AcDbPlaceHolder
  3
ObjectDBX Classes
 90
        0
280
     0
281
     0
  0
CLASS
  1
LAYOUT
  2
AcDbLayout
  3
ObjectDBX Classes
 90
        0
280
     0
281
     0
  0
CLASS
  1
ACME_DOCUMENT
  2
AcMeDbDoc
  3
AcMeServices
 90
        0
280
     0
281
     0
  0
CLASS
  1
AMGSETTINGSOBJ
  2
AmgSettingsObj
  3
"AcadM|Product Description: AutoCAD Mechanical 2000|Company: Autodesk"
 90
        0
280
     0
281
     0
  0
CLASS
  1
ACMESCOPE
  2
AcMeScope
  3
AcMeServices
 90
        0
280
     0
281
     0
  0
CLASS
  1
ACMECOMMANDHISTORY
  2
AcMeCommandHistory
  3
AcMeServices
 90
        0
280
     0
281
     0
  0
CLASS
  1
ACIMSYSVARMAN
  2
AcImSysVarManager
  3
AcMeServices
 90
        0
280
     0
281
     0
  0
CLASS
  1
ACIMREALSYSVAR
  2
AcImRealSysVar
  3
AcMeServices
 90
        0
280
     0
281
     0
  0
CLASS
  1
ACIMINTSYSVAR
  2
AcImIntSysVar
  3
AcMeServices
 90
        0
280
     0
281
     0
  0
CLASS
  1
ACMEDRAWINGMAN
  2
AcMeDrawingMan
  3
AcMeServices
 90
        0
280
     0
281
     0
  0
CLASS
  1
ACMEVIEW
  2
AcMeView
  3
AcMeServices
 90
        0
280
     0
281
     0
  0
CLASS
  1
ACDBENTITYCACHE
  2
AcMeEntityCache
  3
AcMeServices
 90
        0
280
     0
281
     0
  0
CLASS
  1
GSMANAGER
  2
AcMeGSManager
  3
AcMeServices
 90
        0
280
     0
281
     0
  0
CLASS
  1
AMDTINTERNALREACTOR
  2
AmdtInternalReactor
  3
AcMeServices
 90
        0
280
     0
281
     0
  0
CLASS
  1
ACMESTATEMGR
  2
AcMeStateMgr
  3
AcMeServices
 90
        0
280
     0
281
     0
  0
CLASS
  1
ACGREFMASTER
  2
AcGrefMaster
  3
AcAttribServices
 90
        0
280
     0
281
     0
  0
CLASS
  1
ACME_DATABASE
  2
AcMeDbDatabase
  3
AcMeServices
 90
        0
280
     0
281
     0
  0
CLASS
  1
ACRFINSADJUSTERMGR
  2
AcRfInsAdjusterMgr
  3
AcMeServices
 90
        0
280
     0
281
     0
  0
CLASS
  1
ACGREFACADMASTER
  2
AcGrefacadMaster
  3
AcGrefServices
 90
        0
280
     0
281
     0
  0
CLASS
  1
AMIMASTER
  2
AmiMaster
  3
AmiServices
 90
        0
280
     0
281
     0
  0
CLASS
  1
ACMDATADICTIONARY
  2
AcmDataDictionary
  3
"AcmSymBB|Product Description: AutoCAD Mechanical 2004 DX|Company: Autodesk"
 90
        0
280
     0
281
     0
  0
CLASS
  1
ACMDATAENTRYBLOCK
  2
AcmDataEntryBlock
  3
"AcmSymBB|Product Description: AutoCAD Mechanical 2004 DX|Company: Autodesk"
 90
        0
280
     0
281
     0
  0
CLASS
  1
ACIMSTRSYSVAR
  2
AcImStrSysVar
  3
AcMeServices
 90
        0
280
     0
281
     0
  0
CLASS
  1
ACMSTANDARDISO
  2
AcmStandardISO
  3
"Amdt_StdImp|Product Description: AutoCAD Mechanical 2004 DX|Company: Autodesk"
 90
        0
280
     0
281
     0
  0
CLASS
  1
AMGOBJPROPCFG
  2
AmgObjPropCfg
  3
"AmgLay|Product Description: AutoCAD Mechanical 2000|Company: Autodesk"
 90
        1
280
     0
281
     0
  0
CLASS
  1
AMDTEDGESTANDARDISO
  2
AmdtEdgeStdISO
  3
"Amdt_StdImp|Product Description: AutoCAD Mechanical 2004 DX|Company: Autodesk"
 90
        0
280
     0
281
     0
  0
CLASS
  1
ACMSURFSTANDARDISO
  2
AcmSurfTextStdISO
  3
"Amdt_StdImp|Product Description: AutoCAD Mechanical 2004 DX|Company: Autodesk"
 90
        0
280
     0
281
     0
  0
CLASS
  1
ACMFCFSTANDARDISO
  2
AcmFCFStdISO
  3
"Amdt_StdImp|Product Description: AutoCAD Mechanical 2004 DX|Company: Autodesk"
 90
        0
280
     0
281
     0
  0
CLASS
  1
ACMWELDSTANDARDISO
  2
AcmWeldingStdISO
  3
"Amdt_StdImp|Product Description: AutoCAD Mechanical 2004 DX|Company: Autodesk"
 90
        0
280
     0
281
     0
  0
CLASS
  1
ACMIDSTANDARDISO
  2
AcmIdStdISO
  3
"Amdt_StdImp|Product Description: AutoCAD Mechanical 2004 DX|Company: Autodesk"
 90
        0
280
     0
281
     0
  0
CLASS
  1
ACMDATUMSTANDARDISO
  2
AcmDatumStdISO
  3
"Amdt_StdImp|Product Description: AutoCAD Mechanical 2004 DX|Company: Autodesk"
 90
        0
280
     0
281
     0
  0
CLASS
  1
ACMBOMSTANDARDISO
  2
AcmBOMStdISO
  3
"Amdt_StdImp|Product Description: AutoCAD Mechanical 2004 DX|Company: Autodesk"
 90
        0
280
     0
281
     0
  0
CLASS
  1
ACMDETAILSTANDARDISO
  2
AmdtDetailSymStdISO
  3
"Amdt_StdImp|Product Description: AutoCAD Mechanical 2004 DX|Company: Autodesk"
 90
        0
280
     0
281
     0
  0
CLASS
  1
ACMSECTIONSTANDARDISO
  2
AmdtSectionSymStdISO
  3
"Amdt_StdImp|Product Description: AutoCAD Mechanical 2004 DX|Company: Autodesk"
 90
        0
280
     0
281
     0
  0
CLASS
  1
ACMCENTERLINESTANDARDISO
  2
AmdtCenterLineStdISO
  3
"Amdt_StdImp|Product Description: AutoCAD Mechanical 2004 DX|Company: Autodesk"
 90
        0
280
     0
281
     0
  0
CLASS
  1
ACMNOTESTANDARDISO
  2
AmdtNoteStdISO
  3
"Amdt_StdImp|Product Description: AutoCAD Mechanical 2004 DX|Company: Autodesk"
 90
        0
280
     0
281
     0
  0
CLASS
  1
ACAMGLAYSTD
  2
AcAmgLayStd
  3
"AcAmgLayStd|Product Description: AutoCAD Mechanical 2000|Company: Autodesk"
 90
        0
280
     0
281
     0
  0
CLASS
  1
ACAMGDIMSTD
  2
AcAmgDimStd
  3
"AcAmgDimStd|Product Description: AutoCAD Mechanical 2000|Company: Autodesk"
 90
        0
280
     0
281
     0
  0
CLASS
  1
ACAMGHOLECHARTSTDISO
  2
AcAmgHoleChartStdISO
  3
ACMSYMBB_MODULE_NAME
 90
        0
280
     0
281
     0
  0
CLASS
  1
ACAMGTITLESTD
  2
AcAmgTitleStd
  3
"TITLEAPP"
 90
        0
280
     0
281
     0
  0
CLASS
  1
LAYER_INDEX
  2
AcDbLayerIndex
  3
ObjectDBX Classes
 90
    32768
280
     0
281
     0
  0
CLASS
  1
IDBUFFER
  2
AcDbIdBuffer
  3
ObjectDBX Classes
 90
    32768
280
     0
281
     0
  0
CLASS
  1
DICTIONARYVAR
  2
AcDbDictionaryVar
  3
ObjectDBX Classes
 90
        0
280
     0
281
     0
  0
CLASS
  1
AM_DRAWING_MGR
  2
AcDmDwgMgr
  3
AcMechDwgViewMgmt
 90
        0
280
     0
281
     0
  0
CLASS
  1
AM_DWG_DOCUMENT
  2
AcDmDwgDocument
  3
AcMechDwgViewMgmt
 90
        0
280
     0
281
     0
  0
CLASS
  1
AM_DWG_SHEET
  2
AcDmSheet
  3
AcMechDwgViewMgmt
 90
        0
280
     0
281
     0
  0
CLASS
  1
AM_VIEWDIMPARMAP
  2
AcDmViewDimParMap
  3
AcMechDwgViewMgmt
 90
        0
280
     0
281
     0
  0
CLASS
  1
AM_DWGMGR_NAME
  2
AcDmDwgMgrName
  3
AcMechDwgViewMgmt
 90
        0
280
     0
281
     0
  0
CLASS
  1
AMDTMENUSTATEMGR
  2
AmdtMenuStateMgr
  3
McadcomServices
 90
        0
280
     0
281
     0
  0
CLASS
  1
AMDTMCOMMENUSTATE
  2
AmdtMcomMenuState
  3
McadcomServices
 90
        0
280
     0
281
     0
  0
CLASS
  1
MAPIAMMOUDLE
  2
MApiAmModule
  3
MApiAmServices
 90
        0
280
     0
281
     0
  0
CLASS
  1
AMDTADMENUSTATE
  2
AmdtAdMenuState
  3
DesignerServices
 90
        0
280
     0
281
     0
  0
CLASS
  1
ADAPPL
  2
AcAdAppl
  3
DesignerServices
 90
        0
280
     0
281
     0
  0
CLASS
  1
DEPMGR
  2
AcAdDepMgr
  3
DesignerServices
 90
        0
280
     0
281
     0
  0
CLASS
  1
PARAMMGR
  2
AcAdParamMgr
  3
DesignerServices
 90
        0
280
     0
281
     0
  0
CLASS
  1
PARAMSCOPE
  2
AcAdParamScope
  3
DesignerServices
 90
        0
280
     0
281
     0
  0
CLASS
  1
NAMEDAPPL
  2
AcAdNamedAppl
  3
DesignerServices
 90
        0
280
     0
281
     0
  0
CLASS
  1
AMDTDMMENUSTATE
  2
AmdtDmMenuState
  3
AcMechDwgViewMgmt
 90
        0
280
     0
281
     0
  0
CLASS
  1
AMDTAMMENUSTATE
  2
AmdtAmMenuState
  3
DesignerAssemblies
 90
        0
280
     0
281
     0
  0
CLASS
  1
ACAMPROJECT
  2
AcAmProject
  3
DesignerAssemblies
 90
        0
280
     0
281
     0
  0
CLASS
  1
ACAMGRCOMPDEF
  2
AcAmGrCompDef
  3
DesignerAssemblies
 90
        0
280
     0
281
     0
  0
CLASS
  1
ACCMCONTEXT
  2
AcCmContext
  3
DesignerAssemblies
 90
        0
280
     0
281
     0
  0
CLASS
  1
ACAMCOMPDEF
  2
AcAmCompDef
  3
DesignerAssemblies
 90
        0
280
     0
281
     0
  0
CLASS
  1
ACAMCOMPDEFMGR
  2
AcAmCompDefMgr
  3
DesignerAssemblies
 90
        0
280
     0
281
     0
  0
CLASS
  1
AMCONTEXTMGR
  2
AcAmContextMgr
  3
DesignerAssemblies
 90
        0
280
     0
281
     0
  0
CLASS
  1
ACAMCONTEXTMODELER
  2
AcAmContextModeler
  3
DesignerAssemblies
 90
        0
280
     0
281
     0
  0
CLASS
  1
ACMTHREADLINESTANDARDISO
  2
AmdtThreadLineStdISO
  3
"Amdt_StdImp|Product Description: AutoCAD Mechanical 2004 DX|Company: Autodesk"
 90
        0
280
     0
281
     0
  0
CLASS
  1
CATALOGSTATE
  2
AcAmCatalogState
  3
DesignerAssemblies
 90
        0
280
     0
281
     0
  0
CLASS
  1
ACAMGRCOMPDEFSET
  2
AcAmGrCompDefSet
  3
DesignerAssemblies
 90
        0
280
     0
281
     0
  0
CLASS
  1
AMDTBROWSERDBTAB
  2
AmdtBrowserDbTab
  3
McadcomServices
 90
        0
280
     0
281
     0
  0
CLASS
  1
CBROWSERAPPOBJECT
  2
CBrowserAppObject
  3
McadcomServices
 90
        0
280
     0
281
     0
  0
CLASS
  1
DM_PLACEHOLDER
  2
AcDmSelsetPlaceholder
  3
AcMechDwgViewMgmt
 90
        0
280
     0
281
     0
  0
CLASS
  1
TABLESTYLE
  2
AcDbTableStyle
  3
ObjectDBX Classes
 90
     2047
280
     0
281
     0
  0
CLASS
  1
VAACXREFPANELOBJECT
  2
VaAcXREFPanelObject
  3
VAAC_ADDIN
 90
    32768
280
     0
281
     0
  0
CLASS
  1
VAACIMAGEINVENTORY
  2
VaAcImageInventory
  3
VAAC_ADDIN
 90
    32768
280
     0
281
     0
  0
CLASS
  1
AMDTNOTETEMPLATEDB
  2
AmdtNoteTemplateDB
  3
AMDT_STDIMP_MODULE_NAME
 90
        0
280
     0
281
     0
  0
CLASS
  1
ACMBOM
  2
AcmBom
  3
"AcmSymBB|Product Description: AutoCAD Mechanical 2004 DX|Company: Autodesk"
 90
    32768
280
     0
281
     0
  0
CLASS
  1
AMDTFORMULAUPDATEDISPATCHER
  2
AmdtFormulaUpdateDispatcher
  3
AcMeServices
 90
        0
280
     0
281
     0
  0
CLASS
  1
ACMPARTLIST
  2
AcmPartList
  3
"AcmSymBB|Product Description: AutoCAD Mechanical 2004 DX|Company: Autodesk"
 90
    33791
280
     0
281
     1
  0
CLASS
  1
ACAMGFILTERDAT
  2
AcAmgFilterDat
  3
"AcadM|Product Description: AutoCAD Mechanical 2000|Company: Autodesk"
 90
        0
280
     0
281
     0
  0
CLASS
  1
DIMASSOC
  2
AcDbDimAssoc
  3
"AcDbDimAssoc|Product Desc:     AcDim ARX App For Dimension|Company:          Autodesk, Inc.|WEB Address:      www.autodesk.com"
 90
        0
280
     0
281
     0
  0
CLASS
  1
SORTENTSTABLE
  2
AcDbSortentsTable
  3
ObjectDBX Classes
 90
        0
280
     0
281
     0
  0
CLASS
  1
AMDTNOTE
  2
AmdtNote
  3
"AcmSymBB|Product Description: AutoCAD Mechanical 2004 DX|Company: Autodesk"
 90
     1023
280
     0
281
     1
  0
CLASS
  1
ACRFATTGENMGR
  2
AcRfAttGeneralMgr
  3
AcAttribServices
 90
        0
280
     0
281
     0
  0
ENDSEC
  0
SECTION
  2
TABLES
  0
TABLE
  2
VPORT
  5
8
330
0
100
AcDbSymbolTable
 70
    13
  0
VPORT
  5
11BF
330
8
100
AcDbSymbolTableRecord
100
AcDbViewportTableRecord
  2
*Active
 70
     0
 10
0.0
 20
0.0
 11
1.0
 21
1.0
 12
197.8771024770638
 22
150.7267764310589
 13
0.0
 23
0.0
 14
2.5
 24
2.5
 15
10.0
 25
10.0
 16
0.0
 26
0.0
 36
1.0
 17
0.0
 27
0.0
 37
0.0
 40
151.0014792462548
 41
1.81766917293233
 42
50.0
 43
0.0
 44
0.0
 50
0.0
 51
0.0
 71
     0
 72
   100
 73
     1
 74
     3
 75
     0
 76
     0
 77
     0
 78
     0
281
     0
 65
     1
110
0.0
120
0.0
130
0.0
111
1.0
121
0.0
131
0.0
112
0.0
122
1.0
132
0.0
 79
     0
146
0.0
  0
ENDTAB
  0
TABLE
  2
LTYPE
  5
5
330
0
100
AcDbSymbolTable
 70
    14
  0
LTYPE
  5
14
330
5
100
AcDbSymbolTableRecord
100
AcDbLinetypeTableRecord
  2
ByBlock
 70
     0
  3

 72
    65
 73
     0
 40
0.0
  0
LTYPE
  5
15
330
5
100
AcDbSymbolTableRecord
100
AcDbLinetypeTableRecord
  2
ByLayer
 70
     0
  3

 72
    65
 73
     0
 40
0.0
  0
LTYPE
  5
16
330
5
100
AcDbSymbolTableRecord
100
AcDbLinetypeTableRecord
  2
Continuous
 70
     0
  3
Solid line
 72
    65
 73
     0
 40
0.0
  0
LTYPE
  5
64
330
5
100
AcDbSymbolTableRecord
100
AcDbLinetypeTableRecord
  2
AM_ISO02W050
 70
     0
  3
__ __ __ __ __ __ __ __ __ __ __ __ __ __ __
 72
    65
 73
     2
 40
7.5
 49
6.0
 74
     0
 49
-1.5
 74
     0
  0
LTYPE
  5
65
330
5
100
AcDbSymbolTableRecord
100
AcDbLinetypeTableRecord
  2
AM_ISO08W050
 70
     0
  3
____ . ____ . ____ . ____ . ____ . ____ . ____
 72
    65
 73
     4
 40
18.0
 49
12.0
 74
     0
 49
-1.5
 74
     0
 49
3.0
 74
     0
 49
-1.5
 74
     0
  0
LTYPE
  5
66
330
5
100
AcDbSymbolTableRecord
100
AcDbLinetypeTableRecord
  2
AM_ISO09W050
 70
     0
  3
_____ . . _____ . . _____ . . ____ .. ____
 72
    65
 73
     6
 40
22.5
 49
12.0
 74
     0
 49
-1.5
 74
     0
 49
3.0
 74
     0
 49
-1.5
 74
     0
 49
3.0
 74
     0
 49
-1.5
 74
     0
  0
LTYPE
  5
67
330
5
100
AcDbSymbolTableRecord
100
AcDbLinetypeTableRecord
  2
Amconstr
 70
     0
  3
_______________________
 72
    65
 73
     2
 40
9999.0
 49
9999.0
 74
     0
 49
0.0
 74
     0
  0
LTYPE
  5
68
330
5
100
AcDbSymbolTableRecord
100
AcDbLinetypeTableRecord
  2
AM_ISO08W050x2
 70
     0
  3
__ . __ . __ . __ . __ . __
 72
    65
 73
     4
 40
9.0
 49
6.0
 74
     0
 49
-0.75
 74
     0
 49
1.5
 74
     0
 49
-0.75
 74
     0
  0
LTYPE
  5
69
330
5
100
AcDbSymbolTableRecord
100
AcDbLinetypeTableRecord
  2
AM_ISO02W050x2
 70
     0
  3
 _ _ _ _ _ _ _ _ _ _ _ _
 72
    65
 73
     2
 40
3.75
 49
3.0
 74
     0
 49
-0.75
 74
     0
  0
LTYPE
  5
6C
330
5
100
AcDbSymbolTableRecord
100
AcDbLinetypeTableRecord
  2
Amzigzag
 70
     0
  3
/\/-/\/-/\/-/\/-/\/-/\/
 72
    65
 73
     2
 40
11.0001
 49
0.0001
 74
     4
 75
   135
340
6B
 46
0.04
 50
0.0
 44
0.0
 45
0.0
 49
-11.0
 74
     0
  0
LTYPE
  5
7A
330
5
100
AcDbSymbolTableRecord
100
AcDbLinetypeTableRecord
  2
ACISOWELD
 70
     0
  3
_ _ _ _ _
 72
    65
 73
     2
 40
2.0
 49
2.0
 74
     0
 49
-1.0
 74
     0
  0
LTYPE
  5
7B
330
5
100
AcDbSymbolTableRecord
100
AcDbLinetypeTableRecord
  2
ACISOTGB
 70
     0
  3
__ . . __ . .
 72
    65
 73
     6
 40
9.0
 49
4.0
 74
     0
 49
-1.0
 74
     0
 49
1.0
 74
     0
 49
-1.0
 74
     0
 49
1.0
 74
     0
 49
-1.0
 74
     0
  0
LTYPE
  5
7C
330
5
100
AcDbSymbolTableRecord
100
AcDbLinetypeTableRecord
  2
ACISOTGL
 70
     0
  3
_ _ _ _ _
 72
    65
 73
     2
 40
3.0
 49
2.0
 74
     0
 49
-1.0
 74
     0
  0
LTYPE
  5
7E
330
5
100
AcDbSymbolTableRecord
100
AcDbLinetypeTableRecord
  2
CENTER
 70
     0
  3
__ . __
 72
    65
 73
     4
 40
7.0
 49
4.0
 74
     0
 49
-1.0
 74
     0
 49
1.0
 74
     0
 49
-1.0
 74
     0
  0
LTYPE
  5
D8
330
5
100
AcDbSymbolTableRecord
100
AcDbLinetypeTableRecord
  2
HIDDEN
 70
     0
  3
Hidden __ __ __ __ __ __ __ __ __ __ __ __ __ _
 72
    65
 73
     2
 40
9.524999999999998
 49
6.349999999999999
 74
     0
 49
-3.174999999999999
 74
     0
  0
LTYPE
  5
D9
330
5
100
AcDbSymbolTableRecord
100
AcDbLinetypeTableRecord
  2
PHANTOM2
 70
     0
  3
Phantom (.5x) ___ _ _ ___ _ _ ___ _ _ ___ _ _
 72
    65
 73
     6
 40
31.75
 49
15.875
 74
     0
 49
-3.174999999999999
 74
     0
 49
3.174999999999999
 74
     0
 49
-3.174999999999999
 74
     0
 49
3.174999999999999
 74
     0
 49
-3.174999999999999
 74
     0
  0
ENDTAB
  0
TABLE
  2
LAYER
  5
2
102
{ACAD_XDICTIONARY
360
3F9
102
}
330
0
100
AcDbSymbolTable
 70
     8
  0
LAYER
  5
10
330
2
100
AcDbSymbolTableRecord
100
AcDbLayerTableRecord
  2
0
 70
     0
 62
     7
  6
Continuous
370
    -3
390
F
  0
LAYER
  5
C26
330
2
100
AcDbSymbolTableRecord
100
AcDbLayerTableRecord
  2
AM_4
 70
     0
 62
     3
  6
Continuous
370
    25
390
F
  0
LAYER
  5
C27
330
2
100
AcDbSymbolTableRecord
100
AcDbLayerTableRecord
  2
AM_VIS
 70
     0
 62
     7
  6
Continuous
370
    50
390
F
  0
LAYER
  5
D2F
330
2
100
AcDbSymbolTableRecord
100
AcDbLayerTableRecord
  2
AM_7
 70
     0
 62
     1
  6
CENTER
370
    25
390
F
  0
LAYER
  5
D96
330
2
100
AcDbSymbolTableRecord
100
AcDbLayerTableRecord
  2
AM_5
 70
     0
 62
     5
  6
Continuous
370
    50
390
F
  0
LAYER
  5
DA6
330
2
100
AcDbSymbolTableRecord
100
AcDbLayerTableRecord
  2
Defpoints
 70
     0
 62
     7
  6
Continuous
290
     0
370
    -3
390
F
  0
LAYER
  5
1037
330
2
100
AcDbSymbolTableRecord
100
AcDbLayerTableRecord
  2
LOGO
 70
     0
 62
     7
  6
Continuous
370
    -3
390
F
  0
ENDTAB
  0
TABLE
  2
STYLE
  5
3
330
0
100
AcDbSymbolTable
 70
     6
  0
STYLE
  5
11
330
3
100
AcDbSymbolTableRecord
100
AcDbTextStyleTableRecord
  2
STANDARD
 70
     0
 40
0.0
 41
1.0
 50
0.0
 71
     0
 42
3.0
  3
ISOCP.SHX
  4
CHINESET.SHX
  0
STYLE
  5
6B
330
3
100
AcDbSymbolTableRecord
100
AcDbTextStyleTableRecord
  2

 70
     1
 40
0.0
 41
1.0
 50
0.0
 71
     0
 42
2.5
  3
ltypeshp.shx
  4

  0
STYLE
  5
6D
330
3
100
AcDbSymbolTableRecord
100
AcDbTextStyleTableRecord
  2
ACISOTS
 70
     0
 40
1.0
 41
1.0
 50
0.0
 71
     0
 42
1.0
  3
isocp.shx
  4
chineset.shx
  0
STYLE
  5
79
330
3
100
AcDbSymbolTableRecord
100
AcDbTextStyleTableRecord
  2
ACISOGDT
 70
     0
 40
0.0
 41
1.0
 50
0.0
 71
     0
 42
2.5
  3
amgdt.shx
  4
chineset.shx
  0
STYLE
  5
60C
330
3
100
AcDbSymbolTableRecord
100
AcDbTextStyleTableRecord
  2
CHINESET
 70
     0
 40
0.0
 41
0.75
 50
0.0
 71
     0
 42
3.0
  3
simplex.shx
  4
CHINESET.SHX
  0
ENDTAB
  0
TABLE
  2
VIEW
  5
6
330
0
100
AcDbSymbolTable
 70
     0
  0
ENDTAB
  0
TABLE
  2
UCS
  5
7
330
0
100
AcDbSymbolTable
 70
     0
  0
ENDTAB
  0
TABLE
  2
APPID
  5
9
330
0
100
AcDbSymbolTable
 70
    21
  0
APPID
  5
12
330
9
100
AcDbSymbolTableRecord
100
AcDbRegAppTableRecord
  2
ACAD
 70
     0
  0
APPID
  5
46
330
9
100
AcDbSymbolTableRecord
100
AcDbRegAppTableRecord
  2
MCAD_NO_VIS
 70
     0
  0
APPID
  5
47
330
9
100
AcDbSymbolTableRecord
100
AcDbRegAppTableRecord
  2
ACAD_TEMP_GRAPHIC
 70
     0
  0
APPID
  5
58
330
9
100
AcDbSymbolTableRecord
100
AcDbRegAppTableRecord
  2
ACATTRIBSERVICES
 70
     0
  0
APPID
  5
EE
330
9
100
AcDbSymbolTableRecord
100
AcDbRegAppTableRecord
  2
AD_DRAW
 70
     0
  0
APPID
  5
10C
330
9
100
AcDbSymbolTableRecord
100
AcDbRegAppTableRecord
  2
DESIGNERASSEMBLIES
 70
     0
  0
APPID
  5
111
330
9
100
AcDbSymbolTableRecord
100
AcDbRegAppTableRecord
  2
ACADM_DIM_EDIT
 70
     0
  0
APPID
  5
112
330
9
100
AcDbSymbolTableRecord
100
AcDbRegAppTableRecord
  2
AMDT_DM_ADJ
 70
     0
  0
APPID
  5
22C
330
9
100
AcDbSymbolTableRecord
100
AcDbRegAppTableRecord
  2
ACAD_DSTYLE_DIMTEXT_FILL
 70
     0
  0
APPID
  5
452
330
9
100
AcDbSymbolTableRecord
100
AcDbRegAppTableRecord
  2
GENIUS_GENOENT_13
 70
     0
  0
APPID
  5
453
330
9
100
AcDbSymbolTableRecord
100
AcDbRegAppTableRecord
  2
GENIUS_GENOBJ-N-CRS_13
 70
     0
  0
APPID
  5
454
330
9
100
AcDbSymbolTableRecord
100
AcDbRegAppTableRecord
  2
GENIUS_GENOLIS_13
 70
     0
  0
APPID
  5
455
330
9
100
AcDbSymbolTableRecord
100
AcDbRegAppTableRecord
  2
GENIUS_GENODEF_13
 70
     0
  0
APPID
  5
456
330
9
100
AcDbSymbolTableRecord
100
AcDbRegAppTableRecord
  2
GENIUS_GENOREF_13
 70
     0
  0
APPID
  5
6F3
330
9
100
AcDbSymbolTableRecord
100
AcDbRegAppTableRecord
  2
ACAD_PSEXT
 70
     0
  0
APPID
  5
808
330
9
100
AcDbSymbolTableRecord
100
AcDbRegAppTableRecord
  2
GENIUS_GENDTOL_13
 70
     0
  0
APPID
  5
D66
330
9
100
AcDbSymbolTableRecord
100
AcDbRegAppTableRecord
  2
GENIUS_GENOBJ-N-CEN_13
 70
     0
  0
APPID
  5
D67
330
9
100
AcDbSymbolTableRecord
100
AcDbRegAppTableRecord
  2
GENIUS_GENCEN_19
 70
     0
  0
APPID
  5
1001
330
9
100
AcDbSymbolTableRecord
100
AcDbRegAppTableRecord
  2
AcAecLayerStandard
 70
     0
  0
APPID
  5
1038
330
9
100
AcDbSymbolTableRecord
100
AcDbRegAppTableRecord
  2
GENIUS_GENREC_14
 70
     0
  0
APPID
  5
1039
330
9
100
AcDbSymbolTableRecord
100
AcDbRegAppTableRecord
  2
GENIUS_GENOBJ-N-REC_13
 70
     0
  0
ENDTAB
  0
TABLE
  2
DIMSTYLE
  5
A
330
0
100
AcDbSymbolTable
 70
     9
100
AcDbDimStyleTable
 71
     3
340
81
340
8B
340
86
  0
DIMSTYLE
105
81
330
A
100
AcDbSymbolTableRecord
100
AcDbDimStyleTableRecord
  2
AM_ISO
 70
     0
  4
"
 41
3.0
 42
1.0
 43
8.0
 44
1.5
 47
0.1
 48
0.1
 73
     0
 74
     0
 77
     1
 78
     8
 79
     2
140
3.5
141
0.0
143
0.0393701
146
0.6
147
0.8
172
     1
176
   256
177
   256
178
   256
271
     2
272
     2
283
     0
284
     8
340
60C
371
    -1
372
    -1
  0
DIMSTYLE
105
82
102
{ACAD_REACTORS
330
F0C
102
}
330
A
100
AcDbSymbolTableRecord
100
AcDbDimStyleTableRecord
  2
AM_ISO$3
 70
     0
  4
"
 41
3.0
 42
1.0
 43
8.0
 44
1.5
 47
0.1
 48
0.1
 73
     0
 77
     1
 78
     8
 79
     2
140
3.5
141
0.0
143
0.0393701
146
0.6
147
0.8
176
   256
177
   256
178
   256
271
     2
272
     2
283
     0
284
     8
288
     1
289
     0
340
60C
371
    -1
372
    -1
  0
DIMSTYLE
105
83
330
A
100
AcDbSymbolTableRecord
100
AcDbDimStyleTableRecord
  2
AM_ISO$4
 70
     0
  4
"
 41
3.0
 42
1.0
 43
8.0
 44
1.5
 47
0.1
 48
0.1
 73
     0
 77
     1
 78
     8
 79
     2
140
3.5
141
0.0
143
0.0393701
146
0.6
147
0.8
176
   256
177
   256
178
   256
271
     2
272
     2
283
     0
284
     8
288
     1
289
     0
340
60C
371
    -1
372
    -1
  0
DIMSTYLE
105
84
330
A
100
AcDbSymbolTableRecord
100
AcDbDimStyleTableRecord
  2
AM_ISO$6
 70
     0
  4
"
 41
3.0
 42
1.0
 43
8.0
 44
1.5
 47
0.1
 48
0.1
 73
     0
 74
     0
 78
     8
 79
     2
140
3.5
141
0.0
143
0.0393701
146
0.6
147
0.8
172
     1
176
   256
177
   256
178
   256
271
     2
272
     2
283
     0
284
     8
340
60C
371
    -1
372
    -1
  0
DIMSTYLE
105
85
330
A
100
AcDbSymbolTableRecord
100
AcDbDimStyleTableRecord
  2
AM_ISO$7
 70
     0
  4
"
 41
3.0
 42
1.0
 43
8.0
 44
1.5
 47
0.1
 48
0.1
 73
     0
 74
     0
 77
     1
 78
     8
 79
     2
140
5.0
141
0.0
143
0.0393701
146
0.6
147
0.8
172
     1
176
   256
177
   256
178
   256
271
     2
272
     2
283
     0
284
     8
340
60C
371
    -1
372
    -1
  0
DIMSTYLE
105
86
330
A
100
AcDbSymbolTableRecord
100
AcDbDimStyleTableRecord
  2
AM_ISO$SF
 70
     0
  4
"
 41
2.5
 42
1.0
 43
10.0
 44
1.0
 47
0.1
 48
0.1
 73
     0
 74
     0
 75
     1
 76
     1
 77
     1
 78
     8
 79
     2
140
3.5
141
0.0
143
0.0393701
146
0.71
147
1.5
172
     1
176
   256
177
   256
178
     2
271
     2
272
     3
274
     4
283
     0
284
     8
340
11
371
    -1
372
    -1
  0
DIMSTYLE
105
8B
330
A
100
AcDbSymbolTableRecord
100
AcDbDimStyleTableRecord
  2
AM_ISO$SH
 70
     0
  4
"
 41
2.5
 42
1.0
 43
10.0
 44
1.0
 47
0.1
 48
0.1
 73
     0
 74
     0
 75
     1
 76
     1
 77
     1
 78
     8
 79
     2
140
3.5
141
0.0
143
0.0393701
144
2.0
146
0.71
147
1.5
172
     1
173
     1
176
   256
177
   256
178
     2
271
     2
272
     3
274
     4
283
     0
284
     8
340
11
343
87
371
    -1
372
    -1
  0
DIMSTYLE
105
40B
102
{ACAD_REACTORS
330
DCC
330
DF2
330
E18
330
E3E
330
E64
330
E8E
330
EEA
102
}
330
A
100
AcDbSymbolTableRecord
100
AcDbDimStyleTableRecord
  2
AM_ISO$0
 70
     0
  4
"
 41
3.0
 42
1.0
 43
8.0
 44
1.5
 47
0.1
 48
0.1
 73
     0
 74
     0
 77
     1
 78
     8
 79
     2
140
3.5
141
0.0
143
0.0393701
146
0.6
147
0.8
172
     1
176
   256
177
   256
178
   256
271
     2
272
     2
283
     0
284
     8
340
60C
371
    -1
372
    -1
  0
ENDTAB
  0
TABLE
  2
BLOCK_RECORD
  5
1
330
0
100
AcDbSymbolTable
 70
    16
  0
BLOCK_RECORD
  5
1F
102
{ACAD_XDICTIONARY
360
8F
102
}
330
1
100
AcDbSymbolTableRecord
100
AcDbBlockTableRecord
  2
*Model_Space
340
22
  0
BLOCK_RECORD
  5
1B
330
1
100
AcDbSymbolTableRecord
100
AcDbBlockTableRecord
  2
*Paper_Space
340
1E
  0
BLOCK_RECORD
  5
23
330
1
100
AcDbSymbolTableRecord
100
AcDbBlockTableRecord
  2
*Paper_Space0
340
26
  0
BLOCK_RECORD
  5
87
330
1
100
AcDbSymbolTableRecord
100
AcDbBlockTableRecord
  2
GENAXEH
340
0
  0
BLOCK_RECORD
  5
DCD
330
1
100
AcDbSymbolTableRecord
100
AcDbBlockTableRecord
  2
*D3
340
0
  0
BLOCK_RECORD
  5
DF3
330
1
100
AcDbSymbolTableRecord
100
AcDbBlockTableRecord
  2
*D4
340
0
  0
BLOCK_RECORD
  5
E19
330
1
100
AcDbSymbolTableRecord
100
AcDbBlockTableRecord
  2
*D5
340
0
  0
BLOCK_RECORD
  5
E3F
330
1
100
AcDbSymbolTableRecord
100
AcDbBlockTableRecord
  2
*D6
340
0
  0
BLOCK_RECORD
  5
E65
330
1
100
AcDbSymbolTableRecord
100
AcDbBlockTableRecord
  2
*D7
340
0
  0
BLOCK_RECORD
  5
E8F
330
1
100
AcDbSymbolTableRecord
100
AcDbBlockTableRecord
  2
*D8
340
0
  0
BLOCK_RECORD
  5
EEB
330
1
100
AcDbSymbolTableRecord
100
AcDbBlockTableRecord
  2
*D9
340
0
  0
BLOCK_RECORD
  5
F0D
330
1
100
AcDbSymbolTableRecord
100
AcDbBlockTableRecord
  2
*D10
340
0
  0
BLOCK_RECORD
  5
11A5
330
1
100
AcDbSymbolTableRecord
100
AcDbBlockTableRecord
  2
*S13
340
0
  0
BLOCK_RECORD
  5
11AD
330
1
100
AcDbSymbolTableRecord
100
AcDbBlockTableRecord
  2
*S14
340
0
  0
BLOCK_RECORD
  5
11B5
330
1
100
AcDbSymbolTableRecord
100
AcDbBlockTableRecord
  2
*S15
340
0
  0
ENDTAB
  0
ENDSEC
  0
SECTION
  2
BLOCKS
  0
BLOCK
  5
20
330
1F
100
AcDbEntity
  8
0
100
AcDbBlockBegin
  2
*Model_Space
 70
     0
 10
0.0
 20
0.0
 30
0.0
  3
*Model_Space
  1

  0
ENDBLK
  5
21
330
1F
100
AcDbEntity
  8
0
100
AcDbBlockEnd
  0
BLOCK
  5
1C
330
1B
100
AcDbEntity
 67
     1
  8
0
100
AcDbBlockBegin
  2
*Paper_Space
 70
     0
 10
0.0
 20
0.0
 30
0.0
  3
*Paper_Space
  1

  0
ENDBLK
  5
1D
330
1B
100
AcDbEntity
 67
     1
  8
0
100
AcDbBlockEnd
  0
BLOCK
  5
24
330
23
100
AcDbEntity
  8
0
100
AcDbBlockBegin
  2
*Paper_Space0
 70
     0
 10
0.0
 20
0.0
 30
0.0
  3
*Paper_Space0
  1

  0
ENDBLK
  5
25
330
23
100
AcDbEntity
  8
0
100
AcDbBlockEnd
  0
BLOCK
  5
89
330
87
100
AcDbEntity
  8
0
100
AcDbBlockBegin
  2
GENAXEH
 70
     0
 10
0.0
 20
0.0
 30
0.0
  3
GENAXEH
  1

  0
LINE
  5
88
330
87
100
AcDbEntity
  8
0
100
AcDbLine
 10
-1.0
 20
0.0
 30
0.0
 11
1.0
 21
0.0
 31
0.0
  0
ENDBLK
  5
8A
330
87
100
AcDbEntity
  8
0
100
AcDbBlockEnd
  0
BLOCK
  5
DD7
330
DCD
100
AcDbEntity
  8
0
100
AcDbBlockBegin
  2
*D3
 70
     1
 10
0.0
 20
0.0
 30
0.0
  3
*D3
  1

  0
LINE
  5
FDB
330
DCD
100
AcDbEntity
  8
AM_5
100
AcDbLine
 10
136.9552065759076
 20
159.9210712465537
 30
0.0
 11
127.182031508588
 21
159.9210712465537
 31
0.0
  0
LINE
  5
FDC
330
DCD
100
AcDbEntity
  8
AM_5
100
AcDbLine
 10
136.9552065759076
 20
136.4210712465537
 30
0.0
 11
127.182031508588
 21
136.4210712465537
 31
0.0
  0
LINE
  5
FDD
330
DCD
100
AcDbEntity
  8
AM_5
100
AcDbLine
 10
128.682031508588
 20
156.9210712465537
 30
0.0
 11
128.682031508588
 21
139.4210712465536
 31
0.0
  0
SOLID
  5
FDE
330
DCD
100
AcDbEntity
  8
AM_5
100
AcDbTrace
 10
128.182031508588
 20
156.9210712465537
 30
0.0
 11
129.182031508588
 21
156.9210712465537
 31
0.0
 12
128.682031508588
 22
159.9210712465537
 32
0.0
 13
128.682031508588
 23
159.9210712465537
 33
0.0
  0
SOLID
  5
FDF
330
DCD
100
AcDbEntity
  8
AM_5
100
AcDbTrace
 10
128.182031508588
 20
139.4210712465536
 30
0.0
 11
129.182031508588
 21
139.4210712465536
 31
0.0
 12
128.682031508588
 22
136.4210712465537
 32
0.0
 13
128.682031508588
 23
136.4210712465537
 33
0.0
  0
MTEXT
  5
FE0
330
DCD
100
AcDbEntity
  8
AM_5
100
AcDbMText
 10
126.132031508588
 20
148.1710712465537
 30
0.0
 40
3.5
 41
0.0
 71
     5
 72
     1
  1
23.5
  7
CHINESET
 11
0.0000000000000001
 21
1.0
 31
0.0
 73
     1
 44
1.0
1001
ACAD
1000
MTEXTBEGIN
1070
    73
1070
     1
1070
    44
1040
1.0
1070
    74
1070
     0
1000
MTEXTEND
  0
POINT
  5
FE1
330
DCD
100
AcDbEntity
  8
Defpoints
 62
     0
100
AcDbPoint
 10
137.9552065759076
 20
159.9210712465537
 30
0.0
  0
POINT
  5
FE2
330
DCD
100
AcDbEntity
  8
Defpoints
 62
     0
100
AcDbPoint
 10
137.9552065759076
 20
136.4210712465537
 30
0.0
  0
POINT
  5
FE3
330
DCD
100
AcDbEntity
  8
Defpoints
 62
     0
100
AcDbPoint
 10
128.682031508588
 20
136.4210712465537
 30
0.0
  0
ENDBLK
  5
DD8
330
DCD
100
AcDbEntity
  8
0
100
AcDbBlockEnd
  0
BLOCK
  5
DFD
330
DF3
100
AcDbEntity
  8
0
100
AcDbBlockBegin
  2
*D4
 70
     1
 10
0.0
 20
0.0
 30
0.0
  3
*D4
  1

  0
LINE
  5
E01
330
DF3
100
AcDbEntity
  8
AM_5
100
AcDbLine
 10
175.7403429334813
 20
142.6178977872335
 30
0.0
 11
175.7403429334813
 21
122.9210712465536
 31
0.0
  0
LINE
  5
E02
330
DF3
100
AcDbEntity
  8
AM_5
100
AcDbLine
 10
184.2403429334813
 20
135.4210712465536
 30
0.0
 11
184.2403429334813
 21
122.9210712465536
 31
0.0
  0
LINE
  5
E03
330
DF3
100
AcDbEntity
  8
AM_5
100
AcDbLine
 10
178.7403429334813
 20
124.4210712465536
 30
0.0
 11
181.2403429334813
 21
124.4210712465536
 31
0.0
  0
SOLID
  5
E04
330
DF3
100
AcDbEntity
  8
AM_5
100
AcDbTrace
 10
178.7403429334813
 20
124.9210712465536
 30
0.0
 11
178.7403429334813
 21
123.9210712465536
 31
0.0
 12
175.7403429334813
 22
124.4210712465536
 32
0.0
 13
175.7403429334813
 23
124.4210712465536
 33
0.0
  0
SOLID
  5
E05
330
DF3
100
AcDbEntity
  8
AM_5
100
AcDbTrace
 10
181.2403429334813
 20
124.9210712465536
 30
0.0
 11
181.2403429334813
 21
123.9210712465536
 31
0.0
 12
184.2403429334813
 22
124.4210712465536
 32
0.0
 13
184.2403429334813
 23
124.4210712465536
 33
0.0
  0
MTEXT
  5
E06
330
DF3
100
AcDbEntity
  8
AM_5
100
AcDbMText
 10
179.9903429334813
 20
126.9710712465536
 30
0.0
 40
3.5
 41
0.0
 71
     5
 72
     1
  1
8.5
  7
CHINESET
 73
     1
 44
1.0
1001
ACAD
1000
MTEXTBEGIN
1070
    73
1070
     1
1070
    44
1040
1.0
1070
    74
1070
     0
1000
MTEXTEND
  0
POINT
  5
E07
330
DF3
100
AcDbEntity
  8
Defpoints
 62
     0
100
AcDbPoint
 10
175.7403429334813
 20
143.6178977872335
 30
0.0
  0
POINT
  5
E08
330
DF3
100
AcDbEntity
  8
Defpoints
 62
     0
100
AcDbPoint
 10
184.2403429334813
 20
136.4210712465536
 30
0.0
  0
POINT
  5
E09
330
DF3
100
AcDbEntity
  8
Defpoints
 62
     0
100
AcDbPoint
 10
184.2403429334813
 20
124.4210712465536
 30
0.0
  0
ENDBLK
  5
DFE
330
DF3
100
AcDbEntity
  8
0
100
AcDbBlockEnd
  0
BLOCK
  5
E23
330
E19
100
AcDbEntity
  8
0
100
AcDbBlockBegin
  2
*D5
 70
     1
 10
0.0
 20
0.0
 30
0.0
  3
*D5
  1

  0
LINE
  5
E27
330
E19
100
AcDbEntity
  8
AM_5
100
AcDbLine
 10
184.2403429334813
 20
135.4210712465536
 30
0.0
 11
184.2403429334813
 21
122.9210712465536
 31
0.0
  0
LINE
  5
E28
330
E19
100
AcDbEntity
  8
AM_5
100
AcDbLine
 10
228.7403429334813
 20
135.4210712465536
 30
0.0
 11
228.7403429334813
 21
122.9210712465536
 31
0.0
  0
LINE
  5
E29
330
E19
100
AcDbEntity
  8
AM_5
100
AcDbLine
 10
187.2403429334813
 20
124.4210712465536
 30
0.0
 11
225.7403429334813
 21
124.4210712465536
 31
0.0
  0
SOLID
  5
E2A
330
E19
100
AcDbEntity
  8
AM_5
100
AcDbTrace
 10
187.2403429334813
 20
124.9210712465536
 30
0.0
 11
187.2403429334813
 21
123.9210712465536
 31
0.0
 12
184.2403429334813
 22
124.4210712465536
 32
0.0
 13
184.2403429334813
 23
124.4210712465536
 33
0.0
  0
SOLID
  5
E2B
330
E19
100
AcDbEntity
  8
AM_5
100
AcDbTrace
 10
225.7403429334813
 20
124.9210712465536
 30
0.0
 11
225.7403429334813
 21
123.9210712465536
 31
0.0
 12
228.7403429334813
 22
124.4210712465536
 32
0.0
 13
228.7403429334813
 23
124.4210712465536
 33
0.0
  0
MTEXT
  5
E2C
330
E19
100
AcDbEntity
  8
AM_5
100
AcDbMText
 10
206.4903429334813
 20
126.9710712465536
 30
0.0
 40
3.5
 41
0.0
 71
     5
 72
     1
  1
44.5
  7
CHINESET
 73
     1
 44
1.0
1001
ACAD
1000
MTEXTBEGIN
1070
    73
1070
     1
1070
    44
1040
1.0
1070
    74
1070
     0
1000
MTEXTEND
  0
POINT
  5
E2D
330
E19
100
AcDbEntity
  8
Defpoints
 62
     0
100
AcDbPoint
 10
184.2403429334813
 20
136.4210712465536
 30
0.0
  0
POINT
  5
E2E
330
E19
100
AcDbEntity
  8
Defpoints
 62
     0
100
AcDbPoint
 10
228.7403429334813
 20
136.4210712465536
 30
0.0
  0
POINT
  5
E2F
330
E19
100
AcDbEntity
  8
Defpoints
 62
     0
100
AcDbPoint
 10
228.7403429334813
 20
124.4210712465536
 30
0.0
  0
ENDBLK
  5
E24
330
E19
100
AcDbEntity
  8
0
100
AcDbBlockEnd
  0
BLOCK
  5
E49
330
E3F
100
AcDbEntity
  8
0
100
AcDbBlockBegin
  2
*D6
 70
     1
 10
0.0
 20
0.0
 30
0.0
  3
*D6
  1

  0
LINE
  5
E4D
330
E3F
100
AcDbEntity
  8
AM_5
100
AcDbLine
 10
175.7403429334813
 20
142.6178977872335
 30
0.0
 11
175.7403429334813
 21
114.9210712465534
 31
0.0
  0
LINE
  5
E4E
330
E3F
100
AcDbEntity
  8
AM_5
100
AcDbLine
 10
228.7403429334813
 20
135.4210712465536
 30
0.0
 11
228.7403429334813
 21
114.9210712465534
 31
0.0
  0
LINE
  5
E4F
330
E3F
100
AcDbEntity
  8
AM_5
100
AcDbLine
 10
178.7403429334813
 20
116.4210712465534
 30
0.0
 11
225.7403429334813
 21
116.4210712465534
 31
0.0
  0
SOLID
  5
E50
330
E3F
100
AcDbEntity
  8
AM_5
100
AcDbTrace
 10
178.7403429334813
 20
116.9210712465534
 30
0.0
 11
178.7403429334813
 21
115.9210712465534
 31
0.0
 12
175.7403429334813
 22
116.4210712465534
 32
0.0
 13
175.7403429334813
 23
116.4210712465534
 33
0.0
  0
SOLID
  5
E51
330
E3F
100
AcDbEntity
  8
AM_5
100
AcDbTrace
 10
225.7403429334813
 20
116.9210712465534
 30
0.0
 11
225.7403429334813
 21
115.9210712465534
 31
0.0
 12
228.7403429334813
 22
116.4210712465534
 32
0.0
 13
228.7403429334813
 23
116.4210712465534
 33
0.0
  0
MTEXT
  5
E52
330
E3F
100
AcDbEntity
  8
AM_5
100
AcDbMText
 10
202.2403429334813
 20
118.9710712465534
 30
0.0
 40
3.5
 41
0.0
 71
     5
 72
     1
  1
53
  7
CHINESET
 73
     1
 44
1.0
1001
ACAD
1000
MTEXTBEGIN
1070
    73
1070
     1
1070
    44
1040
1.0
1070
    74
1070
     0
1000
MTEXTEND
  0
POINT
  5
E53
330
E3F
100
AcDbEntity
  8
Defpoints
 62
     0
100
AcDbPoint
 10
175.7403429334813
 20
143.6178977872335
 30
0.0
  0
POINT
  5
E54
330
E3F
100
AcDbEntity
  8
Defpoints
 62
     0
100
AcDbPoint
 10
228.7403429334813
 20
136.4210712465536
 30
0.0
  0
POINT
  5
E55
330
E3F
100
AcDbEntity
  8
Defpoints
 62
     0
100
AcDbPoint
 10
228.7403429334813
 20
116.4210712465534
 30
0.0
  0
ENDBLK
  5
E4A
330
E3F
100
AcDbEntity
  8
0
100
AcDbBlockEnd
  0
BLOCK
  5
E6F
330
E65
100
AcDbEntity
  8
0
100
AcDbBlockBegin
  2
*D7
 70
     1
 10
0.0
 20
0.0
 30
0.0
  3
*D7
  1

  0
LINE
  5
FA7
330
E65
100
AcDbEntity
  8
AM_5
100
AcDbLine
 10
184.0403429334813
 20
141.6210712465537
 30
0.0
 11
167.342809275379
 21
141.6210712465537
 31
0.0
  0
LINE
  5
FA8
330
E65
100
AcDbEntity
  8
AM_5
100
AcDbLine
 10
184.0403429334813
 20
154.7210712465537
 30
0.0
 11
167.342809275379
 21
154.7210712465537
 31
0.0
  0
LINE
  5
FA9
330
E65
100
AcDbEntity
  8
AM_5
100
AcDbLine
 10
168.842809275379
 20
144.6210712465537
 30
0.0
 11
168.842809275379
 21
151.7210712465537
 31
0.0
  0
SOLID
  5
FAA
330
E65
100
AcDbEntity
  8
AM_5
100
AcDbTrace
 10
168.3428092753791
 20
144.6210712465537
 30
0.0
 11
169.3428092753791
 21
144.6210712465537
 31
0.0
 12
168.842809275379
 22
141.6210712465537
 32
0.0
 13
168.842809275379
 23
141.6210712465537
 33
0.0
  0
SOLID
  5
FAB
330
E65
100
AcDbEntity
  8
AM_5
100
AcDbTrace
 10
168.3428092753791
 20
151.7210712465537
 30
0.0
 11
169.3428092753791
 21
151.7210712465537
 31
0.0
 12
168.842809275379
 22
154.7210712465537
 32
0.0
 13
168.842809275379
 23
154.7210712465537
 33
0.0
  0
MTEXT
  5
FAC
330
E65
100
AcDbEntity
  8
AM_5
100
AcDbMText
 10
166.292809275379
 20
148.1710712465537
 30
0.0
 40
3.5
 41
0.0
 71
     5
 72
     1
  1
13.1
  7
CHINESET
 11
0.0000000000000001
 21
1.0
 31
0.0
 73
     1
 44
1.0
1001
ACAD
1000
MTEXTBEGIN
1070
    73
1070
     1
1070
    44
1040
1.0
1070
    74
1070
     0
1000
MTEXTEND
  0
POINT
  5
FAD
330
E65
100
AcDbEntity
  8
Defpoints
 62
     0
100
AcDbPoint
 10
185.0403429334813
 20
141.6210712465537
 30
0.0
  0
POINT
  5
FAE
330
E65
100
AcDbEntity
  8
Defpoints
 62
     0
100
AcDbPoint
 10
185.0403429334813
 20
154.7210712465537
 30
0.0
  0
POINT
  5
FAF
330
E65
100
AcDbEntity
  8
Defpoints
 62
     0
100
AcDbPoint
 10
168.842809275379
 20
154.7210712465537
 30
0.0
  0
ENDBLK
  5
E70
330
E65
100
AcDbEntity
  8
0
100
AcDbBlockEnd
  0
BLOCK
  5
E99
330
E8F
100
AcDbEntity
  8
0
100
AcDbBlockBegin
  2
*D8
 70
     1
 10
0.0
 20
0.0
 30
0.0
  3
*D8
  1

  0
LINE
  5
FB3
330
E8F
100
AcDbEntity
  8
AM_5
100
AcDbLine
 10
231.2403429334813
 20
138.9210712465537
 30
0.0
 11
231.2403429334813
 21
114.9210712465534
 31
0.0
  0
LINE
  5
FB4
330
E8F
100
AcDbEntity
  8
AM_5
100
AcDbLine
 10
251.2403429334813
 20
139.4210712465536
 30
0.0
 11
251.2403429334813
 21
114.9210712465534
 31
0.0
  0
LINE
  5
FB5
330
E8F
100
AcDbEntity
  8
AM_5
100
AcDbLine
 10
234.2403429334813
 20
116.4210712465534
 30
0.0
 11
248.2403429334813
 21
116.4210712465534
 31
0.0
  0
SOLID
  5
FB6
330
E8F
100
AcDbEntity
  8
AM_5
100
AcDbTrace
 10
234.2403429334813
 20
116.9210712465534
 30
0.0
 11
234.2403429334813
 21
115.9210712465534
 31
0.0
 12
231.2403429334813
 22
116.4210712465534
 32
0.0
 13
231.2403429334813
 23
116.4210712465534
 33
0.0
  0
SOLID
  5
FB7
330
E8F
100
AcDbEntity
  8
AM_5
100
AcDbTrace
 10
248.2403429334813
 20
116.9210712465534
 30
0.0
 11
248.2403429334813
 21
115.9210712465534
 31
0.0
 12
251.2403429334813
 22
116.4210712465534
 32
0.0
 13
251.2403429334813
 23
116.4210712465534
 33
0.0
  0
MTEXT
  5
FB8
330
E8F
100
AcDbEntity
  8
AM_5
100
AcDbMText
 10
241.2403429334813
 20
118.9710712465534
 30
0.0
 40
3.5
 41
0.0
 71
     5
 72
     1
  1
L
  7
CHINESET
 73
     1
 44
1.0
1001
ACAD
1000
MTEXTBEGIN
1070
    73
1070
     1
1070
    44
1040
1.0
1070
    74
1070
     0
1000
MTEXTEND
  0
POINT
  5
FB9
330
E8F
100
AcDbEntity
  8
Defpoints
 62
     0
100
AcDbPoint
 10
231.2403429334813
 20
139.9210712465537
 30
0.0
  0
POINT
  5
FBA
330
E8F
100
AcDbEntity
  8
Defpoints
 62
     0
100
AcDbPoint
 10
251.2403429334813
 20
140.4210712465537
 30
0.0
  0
POINT
  5
FBB
330
E8F
100
AcDbEntity
  8
Defpoints
 62
     0
100
AcDbPoint
 10
251.2403429334813
 20
116.4210712465534
 30
0.0
  0
ENDBLK
  5
E9A
330
E8F
100
AcDbEntity
  8
0
100
AcDbBlockEnd
  0
BLOCK
  5
EF5
330
EEB
100
AcDbEntity
  8
0
100
AcDbBlockBegin
  2
*D9
 70
     1
 10
0.0
 20
0.0
 30
0.0
  3
*D9
  1

  0
LINE
  5
F53
330
EEB
100
AcDbEntity
  8
AM_5
100
AcDbLine
 10
137.9552065759076
 20
135.4210712465537
 30
0.0
 11
137.9552065759076
 21
122.9210712465537
 31
0.0
  0
LINE
  5
F54
330
EEB
100
AcDbEntity
  8
AM_5
100
AcDbLine
 10
153.4552065759076
 20
135.4210712465537
 30
0.0
 11
153.4552065759076
 21
122.9210712465537
 31
0.0
  0
LINE
  5
F55
330
EEB
100
AcDbEntity
  8
AM_5
100
AcDbLine
 10
140.9552065759076
 20
124.4210712465537
 30
0.0
 11
150.4552065759076
 21
124.4210712465537
 31
0.0
  0
SOLID
  5
F56
330
EEB
100
AcDbEntity
  8
AM_5
100
AcDbTrace
 10
140.9552065759076
 20
124.9210712465536
 30
0.0
 11
140.9552065759076
 21
123.9210712465537
 31
0.0
 12
137.9552065759076
 22
124.4210712465537
 32
0.0
 13
137.9552065759076
 23
124.4210712465537
 33
0.0
  0
SOLID
  5
F57
330
EEB
100
AcDbEntity
  8
AM_5
100
AcDbTrace
 10
150.4552065759076
 20
124.9210712465536
 30
0.0
 11
150.4552065759076
 21
123.9210712465537
 31
0.0
 12
153.4552065759076
 22
124.4210712465537
 32
0.0
 13
153.4552065759076
 23
124.4210712465537
 33
0.0
  0
MTEXT
  5
F58
330
EEB
100
AcDbEntity
  8
AM_5
100
AcDbMText
 10
145.7052065759076
 20
126.9710712465537
 30
0.0
 40
3.5
 41
0.0
 71
     5
 72
     1
  1
15.5
  7
CHINESET
 73
     1
 44
1.0
1001
ACAD
1000
MTEXTBEGIN
1070
    73
1070
     1
1070
    44
1040
1.0
1070
    74
1070
     0
1000
MTEXTEND
  0
POINT
  5
F59
330
EEB
100
AcDbEntity
  8
Defpoints
 62
     0
100
AcDbPoint
 10
137.9552065759076
 20
136.4210712465537
 30
0.0
  0
POINT
  5
F5A
330
EEB
100
AcDbEntity
  8
Defpoints
 62
     0
100
AcDbPoint
 10
153.4552065759076
 20
136.4210712465537
 30
0.0
  0
POINT
  5
F5B
330
EEB
100
AcDbEntity
  8
Defpoints
 62
     0
100
AcDbPoint
 10
153.4552065759076
 20
124.4210712465537
 30
0.0
  0
ENDBLK
  5
EF6
330
EEB
100
AcDbEntity
  8
0
100
AcDbBlockEnd
  0
BLOCK
  5
F16
330
F0D
100
AcDbEntity
  8
0
100
AcDbBlockBegin
  2
*D10
 70
     1
 10
0.0
 20
0.0
 30
0.0
  3
*D10
  1

  0
LINE
  5
FF8
330
F0D
100
AcDbEntity
  8
AM_5
100
AcDbLine
 10
186.4226547149791
 20
159.2325785067519
 30
0.0
 11
184.692624763332
 21
165.1558633761332
 31
0.0
  0
LINE
  5
FF9
330
F0D
100
AcDbEntity
  8
AM_5
100
AcDbLine
 10
184.692624763332
 20
165.1558633761332
 30
0.0
 11
160.0176247633321
 21
165.1558633761332
 31
0.0
  0
SOLID
  5
FFA
330
F0D
100
AcDbEntity
  8
AM_5
100
AcDbTrace
 10
186.9026022958513
 20
159.3727581044649
 30
0.0
 11
185.942707134107
 21
159.0923989090389
 31
0.0
 12
187.2637323012572
 22
156.3528930215191
 32
0.0
 13
187.2637323012572
 23
156.3528930215191
 33
0.0
  0
MTEXT
  5
FFB
330
F0D
100
AcDbEntity
  8
AM_5
100
AcDbMText
 10
171.955124763332
 20
167.7058633761332
 30
0.0
 40
3.5
 41
0.0
 71
     5
 72
     1
  1
2-\U+22053.4 thru
  7
CHINESET
 73
     1
 44
1.0
1001
ACAD
1000
MTEXTBEGIN
1070
    73
1070
     1
1070
    44
1040
1.0
1070
    74
1070
     0
1000
MTEXTEND
  0
POINT
  5
FFC
330
F0D
100
AcDbEntity
  8
Defpoints
 62
     0
100
AcDbPoint
 10
187.2637323012572
 20
156.3528930215191
 30
0.0
  0
POINT
  5
FFD
330
F0D
100
AcDbEntity
  8
Defpoints
 62
     0
100
AcDbPoint
 10
188.2169535657056
 20
153.0892494715885
 30
0.0
  0
ENDBLK
  5
F17
330
F0D
100
AcDbEntity
  8
0
100
AcDbBlockEnd
  0
BLOCK
  5
11AA
330
11A5
100
AcDbEntity
  8
0
100
AcDbBlockBegin
  2
*S13
 70
     1
 10
0.0
 20
0.0
 30
0.0
  3
*S13
  1

  0
LINE
  5
11A6
330
11A5
100
AcDbEntity
  8
AM_5
 62
     5
100
AcDbLine
 10
160.1572467375259
 20
202.61904925496
 30
0.0
 11
172.3677694075716
 21
202.61904925496
 31
0.0
  0
LINE
  5
11A7
330
11A5
100
AcDbEntity
  8
AM_5
 62
     5
100
AcDbLine
 10
172.3677694075716
 20
202.61904925496
 30
0.0
 11
177.42548533357
 21
197.9229166330694
 31
0.0
  0
TRACE
  5
11A8
330
11A5
100
AcDbEntity
  8
AM_5
 62
     5
370
    35
100
AcDbTrace
 10
177.1119559279768
 20
197.5852467255916
 30
0.0
 11
177.7390147391631
 21
198.2605865405471
 31
0.0
 12
179.9903429334813
 22
195.5414243504497
 32
0.0
 13
179.9903429334813
 23
195.5414243504497
 33
0.0
  0
MTEXT
  5
11A9
330
11A5
100
AcDbEntity
  8
AM_5
 62
     5
100
AcDbMText
 10
171.3572467375259
 20
203.4633918161068
 30
0.0
 40
3.5
 41
0.0
 71
     9
 72
     5
  1
PT1/8
  7
ACISOTS
 73
     1
 44
1.0
1001
ACAD
1000
MTEXTBEGIN
1070
    73
1070
     1
1070
    44
1040
1.0
1070
    74
1070
     0
1000
MTEXTEND
  0
ENDBLK
  5
11AB
330
11A5
100
AcDbEntity
  8
0
100
AcDbBlockEnd
  0
BLOCK
  5
11B2
330
11AD
100
AcDbEntity
  8
0
100
AcDbBlockBegin
  2
*S14
 70
     1
 10
0.0
 20
0.0
 30
0.0
  3
*S14
  1

  0
LINE
  5
11AE
330
11AD
100
AcDbEntity
  8
AM_5
 62
     5
100
AcDbLine
 10
132.4760760872858
 20
164.6849896466341
 30
0.0
 11
138.1815735041621
 21
164.6849896466341
 31
0.0
  0
LINE
  5
11AF
330
11AD
100
AcDbEntity
  8
AM_5
 62
     5
100
AcDbLine
 10
138.1815735041621
 20
164.6849896466341
 30
0.0
 11
142.5935572424071
 21
153.7155314120536
 31
0.0
  0
TRACE
  5
11B0
330
11AD
100
AcDbEntity
  8
AM_5
 62
     5
370
    35
100
AcDbTrace
 10
142.1660562733275
 20
153.5435878863727
 30
0.0
 11
143.0210582114868
 21
153.8874749377345
 31
0.0
 12
143.8995979905816
 22
150.468339153485
 32
0.0
 13
143.8995979905816
 23
150.468339153485
 33
0.0
  0
MTEXT
  5
11B1
330
11AD
100
AcDbEntity
  8
AM_5
 62
     5
100
AcDbMText
 10
137.1710508341164
 20
165.5293322077809
 30
0.0
 40
3.5
 41
0.0
 71
     9
 72
     5
  1
M5
  7
ACISOTS
 73
     1
 44
1.0
1001
ACAD
1000
MTEXTBEGIN
1070
    73
1070
     1
1070
    44
1040
1.0
1070
    74
1070
     0
1000
MTEXTEND
  0
ENDBLK
  5
11B3
330
11AD
100
AcDbEntity
  8
0
100
AcDbBlockEnd
  0
BLOCK
  5
11BA
330
11B5
100
AcDbEntity
  8
0
100
AcDbBlockBegin
  2
*S15
 70
     1
 10
0.0
 20
0.0
 30
0.0
  3
*S15
  1

  0
LINE
  5
11B6
330
11B5
100
AcDbEntity
  8
AM_5
 62
     5
100
AcDbLine
 10
250.758000407972
 20
175.9949904857914
 30
0.0
 11
232.1863372480146
 21
175.9949904857914
 31
0.0
  0
LINE
  5
11B7
330
11B5
100
AcDbEntity
  8
AM_5
 62
     5
100
AcDbLine
 10
232.1863372480146
 20
175.9949904857914
 30
0.0
 11
227.6911050226989
 21
182.1178888708085
 31
0.0
  0
TRACE
  5
11B8
330
11B5
100
AcDbEntity
  8
AM_5
 62
     5
370
    35
100
AcDbTrace
 10
228.0625355463783
 20
182.3905810428026
 30
0.0
 11
227.3196744990196
 21
181.8451966988144
 31
0.0
 12
225.6198023265252
 22
184.9391838112257
 32
0.0
 13
225.6198023265252
 23
184.9391838112257
 33
0.0
  0
MTEXT
  5
11B9
330
11B5
100
AcDbEntity
  8
AM_5
 62
     5
100
AcDbMText
 10
233.608000407972
 20
176.6292410655464
 30
0.0
 40
3.5
 41
0.0
 71
     7
 72
     5
  1
indicator
  7
ACISOTS
 73
     1
 44
1.0
1001
ACAD
1000
MTEXTBEGIN
1070
    73
1070
     1
1070
    44
1040
1.0
1070
    74
1070
     0
1000
MTEXTEND
  0
ENDBLK
  5
11BB
330
11B5
100
AcDbEntity
  8
0
100
AcDbBlockEnd
  0
ENDSEC
  0
SECTION
  2
ENTITIES
  0
ARC
  5
CA3
330
1F
100
AcDbEntity
  8
AM_4
100
AcDbCircle
 10
145.7052065759076
 20
148.1710712465537
 30
0.0
 40
2.62
100
AcDbArc
 50
259.9999999999998
 51
190.0000000000002
  0
LINE
  5
CB6
330
1F
100
AcDbEntity
  8
AM_VIS
100
AcDbLine
 10
184.2403429334813
 20
136.4210712465537
 30
0.0
 11
184.2403429334813
 21
159.9210712465537
 31
0.0
  0
LINE
  5
CB7
102
{ACAD_REACTORS
330
E00
330
E26
330
E4C
102
}
330
1F
100
AcDbEntity
  8
AM_VIS
100
AcDbLine
 10
228.7403429334813
 20
136.4210712465536
 30
0.0
 11
184.2403429334813
 21
136.4210712465536
 31
0.0
  0
LINE
  5
CB8
330
1F
100
AcDbEntity
  8
AM_VIS
100
AcDbLine
 10
184.2403429334813
 20
159.9210712465537
 30
0.0
 11
227.7403429334813
 21
159.9210712465537
 31
0.0
  0
LINE
  5
CB9
330
1F
100
AcDbEntity
  8
AM_VIS
100
AcDbLine
 10
228.7403429334813
 20
158.9210712465536
 30
0.0
 11
228.7403429334813
 21
136.4210712465537
 31
0.0
  0
LINE
  5
CBA
330
1F
100
AcDbEntity
  8
AM_VIS
100
AcDbLine
 10
227.7403429334813
 20
159.9210712465537
 30
0.0
 11
228.7403429334813
 21
158.9210712465536
 31
0.0
  0
LINE
  5
CBB
330
1F
100
AcDbEntity
  8
AM_VIS
100
AcDbLine
 10
175.7403429334813
 20
143.6178977872335
 30
0.0
 11
184.2403429334813
 21
143.3210712465537
 31
0.0
  0
LINE
  5
CBC
330
1F
100
AcDbEntity
  8
AM_VIS
100
AcDbLine
 10
175.7403429334813
 20
152.7242447058738
 30
0.0
 11
184.2403429334813
 21
153.0210712465537
 31
0.0
  0
LINE
  5
CBD
330
1F
100
AcDbEntity
  8
AM_VIS
100
AcDbLine
 10
228.7403429334813
 20
139.9210712465537
 30
0.0
 11
231.2403429334813
 21
139.9210712465537
 31
0.0
  0
LINE
  5
CBE
330
1F
100
AcDbEntity
  8
AM_VIS
100
AcDbLine
 10
228.7403429334813
 20
144.9210712465537
 30
0.0
 11
231.2403429334813
 21
144.9210712465537
 31
0.0
  0
LINE
  5
CBF
330
1F
100
AcDbEntity
  8
AM_VIS
100
AcDbLine
 10
231.2403429334813
 20
140.4210712465537
 30
0.0
 11
237.1596195988777
 21
140.4210712465537
 31
0.0
  0
LINE
  5
CC0
330
1F
100
AcDbEntity
  8
AM_VIS
100
AcDbLine
 10
231.2403429334813
 20
144.4210712465537
 30
0.0
 11
236.7076987287037
 21
144.4210712465537
 31
0.0
  0
CIRCLE
  5
CC1
102
{ACAD_REACTORS
330
F19
102
}
330
1F
100
AcDbEntity
  8
AM_VIS
100
AcDbCircle
 10
187.7403429334813
 20
154.7210712465537
 30
0.0
 40
1.7
  0
CIRCLE
  5
CC2
330
1F
100
AcDbEntity
  8
AM_VIS
100
AcDbCircle
 10
187.7403429334813
 20
141.6210712465537
 30
0.0
 40
1.7
  0
LINE
  5
CC3
102
{ACAD_REACTORS
330
E00
330
E4C
102
}
330
1F
100
AcDbEntity
  8
AM_VIS
100
AcDbLine
 10
175.7403429334813
 20
143.6178977872335
 30
0.0
 11
175.7403429334813
 21
152.7242447058738
 31
0.0
  0
LINE
  5
CC4
102
{ACAD_REACTORS
330
E9C
102
}
330
1F
100
AcDbEntity
  8
AM_VIS
100
AcDbLine
 10
231.2403429334813
 20
144.9210712465537
 30
0.0
 11
231.2403429334813
 21
139.9210712465537
 31
0.0
  0
LINE
  5
CC5
102
{ACAD_REACTORS
330
E9C
102
}
330
1F
100
AcDbEntity
  8
AM_VIS
100
AcDbLine
 10
251.2403429334813
 20
144.4210712465537
 30
0.0
 11
251.2403429334813
 21
140.4210712465537
 31
0.0
  0
LINE
  5
CC6
330
1F
100
AcDbEntity
  8
AM_VIS
100
AcDbLine
 10
184.2403429334813
 20
183.0898376207897
 30
0.0
 11
227.7403429334813
 21
183.0898376207897
 31
0.0
  0
LINE
  5
CC7
330
1F
100
AcDbEntity
  8
AM_VIS
100
AcDbLine
 10
184.2403429334813
 20
198.5898376207897
 30
0.0
 11
184.2403429334813
 21
183.0898376207897
 31
0.0
  0
LINE
  5
CC8
330
1F
100
AcDbEntity
  8
AM_VIS
100
AcDbLine
 10
227.7403429334813
 20
198.5898376207897
 30
0.0
 11
184.2403429334813
 21
198.5898376207897
 31
0.0
  0
LINE
  5
CC9
330
1F
100
AcDbEntity
  8
AM_VIS
100
AcDbLine
 10
227.7403429334813
 20
198.5898376207897
 30
0.0
 11
227.7403429334813
 21
183.0898376207897
 31
0.0
  0
LINE
  5
CCA
330
1F
100
AcDbEntity
  8
AM_VIS
100
AcDbLine
 10
228.7403429334813
 20
198.5898376207897
 30
0.0
 11
227.7403429334813
 21
198.5898376207897
 31
0.0
  0
LINE
  5
CCB
330
1F
100
AcDbEntity
  8
AM_VIS
100
AcDbLine
 10
228.7403429334813
 20
183.0898376207897
 30
0.0
 11
228.7403429334813
 21
198.5898376207897
 31
0.0
  0
LINE
  5
CCC
330
1F
100
AcDbEntity
  8
AM_VIS
100
AcDbLine
 10
227.7403429334813
 20
183.0898376207897
 30
0.0
 11
228.7403429334813
 21
183.0898376207897
 31
0.0
  0
LINE
  5
CCD
330
1F
100
AcDbEntity
  8
AM_VIS
100
AcDbLine
 10
175.7403429334813
 20
186.2866641614695
 30
0.0
 11
184.2403429334813
 21
185.9898376207897
 31
0.0
  0
LINE
  5
CCE
330
1F
100
AcDbEntity
  8
AM_VIS
100
AcDbLine
 10
175.7403429334813
 20
195.3930110801098
 30
0.0
 11
184.2403429334813
 21
195.6898376207897
 31
0.0
  0
LINE
  5
CCF
330
1F
100
AcDbEntity
  8
AM_VIS
100
AcDbLine
 10
228.7403429334813
 20
192.5898376207897
 30
0.0
 11
231.2403429334813
 21
192.5898376207897
 31
0.0
  0
LINE
  5
CD0
330
1F
100
AcDbEntity
  8
AM_VIS
100
AcDbLine
 10
228.7403429334813
 20
197.5898376207897
 30
0.0
 11
231.2403429334813
 21
197.5898376207897
 31
0.0
  0
LINE
  5
CD1
330
1F
100
AcDbEntity
  8
AM_VIS
100
AcDbLine
 10
231.2403429334813
 20
193.0898376207897
 30
0.0
 11
237.1596195988777
 21
193.0898376207897
 31
0.0
  0
LINE
  5
CD2
330
1F
100
AcDbEntity
  8
AM_VIS
100
AcDbLine
 10
231.2403429334813
 20
197.0898376207897
 30
0.0
 11
236.7076987287037
 21
197.0898376207897
 31
0.0
  0
LINE
  5
CD3
330
1F
100
AcDbEntity
  8
AM_VIS
100
AcDbLine
 10
175.7403429334813
 20
186.2866641614695
 30
0.0
 11
175.7403429334813
 21
195.3930110801098
 31
0.0
  0
LINE
  5
CD4
330
1F
100
AcDbEntity
  8
AM_VIS
100
AcDbLine
 10
231.2403429334813
 20
197.5898376207897
 30
0.0
 11
231.2403429334813
 21
192.5898376207897
 31
0.0
  0
LINE
  5
CD5
330
1F
100
AcDbEntity
  8
AM_VIS
100
AcDbLine
 10
251.2403429334813
 20
197.0898376207897
 30
0.0
 11
251.2403429334813
 21
193.0898376207897
 31
0.0
  0
LINE
  5
CD6
330
1F
100
AcDbEntity
  8
AM_VIS
100
AcDbLine
 10
153.4552065759076
 20
136.4210712465537
 30
0.0
 11
153.4552065759076
 21
159.9210712465537
 31
0.0
  0
LINE
  5
CD7
102
{ACAD_REACTORS
330
EF8
102
}
330
1F
100
AcDbEntity
  8
AM_VIS
100
AcDbLine
 10
137.9552065759076
 20
136.4210712465537
 30
0.0
 11
153.4552065759076
 21
136.4210712465537
 31
0.0
  0
LINE
  5
CD8
330
1F
100
AcDbEntity
  8
AM_VIS
100
AcDbLine
 10
137.9552065759076
 20
159.9210712465537
 30
0.0
 11
153.4552065759076
 21
159.9210712465537
 31
0.0
  0
LINE
  5
CD9
102
{ACAD_REACTORS
330
DDA
330
EF8
102
}
330
1F
100
AcDbEntity
  8
AM_VIS
100
AcDbLine
 10
137.9552065759076
 20
159.9210712465537
 30
0.0
 11
137.9552065759076
 21
136.4210712465537
 31
0.0
  0
CIRCLE
  5
CDA
330
1F
100
AcDbEntity
  8
AM_VIS
100
AcDbCircle
 10
145.7052065759076
 20
148.1710712465537
 30
0.0
 40
4.849999999999999
  0
CIRCLE
  5
CDB
330
1F
100
AcDbEntity
  8
AM_VIS
100
AcDbCircle
 10
145.7052065759076
 20
148.1710712465537
 30
0.0
 40
4.553173459320143
  0
CIRCLE
  5
CDC
330
1F
100
AcDbEntity
  8
AM_VIS
100
AcDbCircle
 10
145.7052065759076
 20
148.1710712465537
 30
0.0
 40
2.166999999999999
  0
LINE
  5
CF5
330
1F
100
AcDbEntity
  8
AM_VIS
100
AcDbLine
 10
223.497702246362
 20
159.9210712465537
 30
0.0
 11
228.7403429334813
 21
154.6784305594344
 31
0.0
  0
LINE
  5
CF8
330
1F
100
AcDbEntity
  8
AM_VIS
100
AcDbLine
 10
191.2403429334813
 20
136.4210712465537
 30
0.0
 11
191.2403429334813
 21
159.9210712465537
 31
0.0
  0
LINE
  5
D42
330
1F
100
AcDbEntity
  8
AM_7
  6
AM_ISO08W050x2
100
AcDbLine
 10
187.7403429334813
 20
154.7210712465537
 30
0.0
 11
190.4403429334813
 21
154.7210712465537
 31
0.0
1001
GENIUS_GENOREF_13
1005
D46
  0
LINE
  5
D43
330
1F
100
AcDbEntity
  8
AM_7
  6
AM_ISO08W050x2
100
AcDbLine
 10
187.7403429334813
 20
154.7210712465537
 30
0.0
 11
187.7403429334813
 21
157.4210712465537
 31
0.0
1001
GENIUS_GENOREF_13
1005
D46
  0
LINE
  5
D44
102
{ACAD_REACTORS
330
E72
102
}
330
1F
100
AcDbEntity
  8
AM_7
  6
AM_ISO08W050x2
100
AcDbLine
 10
187.7403429334813
 20
154.7210712465537
 30
0.0
 11
185.0403429334813
 21
154.7210712465537
 31
0.0
1001
GENIUS_GENOREF_13
1005
D46
  0
LINE
  5
D45
330
1F
100
AcDbEntity
  8
AM_7
  6
AM_ISO08W050x2
100
AcDbLine
 10
187.7403429334813
 20
154.7210712465537
 30
0.0
 11
187.7403429334813
 21
152.0210712465537
 31
0.0
1001
GENIUS_GENOREF_13
1005
D46
  0
POINT
  5
D46
330
1F
100
AcDbEntity
  8
0
 60
     1
100
AcDbPoint
 10
0.0
 20
0.0
 30
0.0
1001
GENIUS_GENODEF_13
1002
{
1000
HIER
1070
    10
1002
}
1002
{
1000
MANEDIT
1070
     0
1002
}
1002
{
1000
NOSEL
1070
     0
1002
}
1002
{
1000
BEHIND
1070
     0
1002
}
1002
{
1000
OTHER
1070
     0
1002
}
1002
{
1000
REACTOR
1002
}
1001
GENIUS_GENOLIS_13
1002
{
1000
ENT
1005
D45
1005
D44
1005
D43
1005
D42
1002
}
1001
GENIUS_GENOENT_13
1002
{
1000
MYREF
1005
D46
1002
}
1002
{
1000
GRP
1005
0
1002
}
1001
GENIUS_GENOBJ-N-CRS_13
1002
{
1000
OWNER
1000
GEN
1002
}
  0
LINE
  5
D54
330
1F
100
AcDbEntity
  8
AM_7
  6
AM_ISO08W050x2
100
AcDbLine
 10
187.7403429334813
 20
141.6210712465537
 30
0.0
 11
190.4403429334813
 21
141.6210712465537
 31
0.0
1001
GENIUS_GENOREF_13
1005
D58
  0
LINE
  5
D55
330
1F
100
AcDbEntity
  8
AM_7
  6
AM_ISO08W050x2
100
AcDbLine
 10
187.7403429334813
 20
141.6210712465537
 30
0.0
 11
187.7403429334813
 21
144.3210712465537
 31
0.0
1001
GENIUS_GENOREF_13
1005
D58
  0
LINE
  5
D56
102
{ACAD_REACTORS
330
E72
102
}
330
1F
100
AcDbEntity
  8
AM_7
  6
AM_ISO08W050x2
100
AcDbLine
 10
187.7403429334813
 20
141.6210712465537
 30
0.0
 11
185.0403429334813
 21
141.6210712465537
 31
0.0
1001
GENIUS_GENOREF_13
1005
D58
  0
LINE
  5
D57
330
1F
100
AcDbEntity
  8
AM_7
  6
AM_ISO08W050x2
100
AcDbLine
 10
187.7403429334813
 20
141.6210712465537
 30
0.0
 11
187.7403429334813
 21
138.9210712465537
 31
0.0
1001
GENIUS_GENOREF_13
1005
D58
  0
POINT
  5
D58
330
1F
100
AcDbEntity
  8
0
 60
     1
100
AcDbPoint
 10
0.0
 20
0.0
 30
0.0
1001
GENIUS_GENODEF_13
1002
{
1000
HIER
1070
    10
1002
}
1002
{
1000
MANEDIT
1070
     0
1002
}
1002
{
1000
NOSEL
1070
     0
1002
}
1002
{
1000
BEHIND
1070
     0
1002
}
1002
{
1000
OTHER
1070
     0
1002
}
1002
{
1000
REACTOR
1002
}
1001
GENIUS_GENOBJ-N-CRS_13
1002
{
1000
OWNER
1000
GEN
1002
}
1001
GENIUS_GENOENT_13
1002
{
1000
MYREF
1005
D58
1002
}
1002
{
1000
GRP
1005
0
1002
}
1001
GENIUS_GENOLIS_13
1002
{
1000
ENT
1005
D57
1005
D56
1005
D55
1005
D54
1002
}
  0
LINE
  5
D65
330
1F
100
AcDbEntity
  8
AM_7
100
AcDbLine
 10
174.7403429334813
 20
148.1710712465537
 30
0.0
 11
186.7318316394458
 21
148.1710712465537
 31
0.0
1001
GENIUS_GENOBJ-N-CEN_13
1002
{
1000
OWNER
1000
GEN
1002
}
1001
GENIUS_GENODEF_13
1002
{
1000
HIER
1070
     0
1002
}
1002
{
1000
MANEDIT
1070
     0
1002
}
1002
{
1000
NOSEL
1070
     0
1002
}
1002
{
1000
BEHIND
1070
     0
1002
}
1002
{
1000
OTHER
1070
     0
1002
}
1002
{
1000
REACTOR
1002
}
1001
GENIUS_GENCEN_19
1002
{
1040
1.0
1002
}
  0
LINE
  5
D74
330
1F
100
AcDbEntity
  8
AM_7
100
AcDbLine
 10
174.7403429334813
 20
190.8398376207897
 30
0.0
 11
185.2403429334813
 21
190.8398376207897
 31
0.0
1001
GENIUS_GENOBJ-N-CEN_13
1002
{
1000
OWNER
1000
GEN
1002
}
1001
GENIUS_GENODEF_13
1002
{
1000
HIER
1070
     0
1002
}
1002
{
1000
MANEDIT
1070
     0
1002
}
1002
{
1000
NOSEL
1070
     0
1002
}
1002
{
1000
BEHIND
1070
     0
1002
}
1002
{
1000
OTHER
1070
     0
1002
}
1002
{
1000
REACTOR
1002
}
1001
GENIUS_GENCEN_19
1002
{
1040
1.0
1002
}
  0
LINE
  5
D81
330
1F
100
AcDbEntity
  8
AM_7
100
AcDbLine
 10
252.2403429334813
 20
142.4210712465536
 30
0.0
 11
227.8823842510029
 21
142.4210712465536
 31
0.0
1001
GENIUS_GENODEF_13
1002
{
1000
HIER
1070
     0
1002
}
1002
{
1000
MANEDIT
1070
     0
1002
}
1002
{
1000
NOSEL
1070
     0
1002
}
1002
{
1000
BEHIND
1070
     0
1002
}
1002
{
1000
OTHER
1070
     0
1002
}
1002
{
1000
REACTOR
1002
}
1001
GENIUS_GENOBJ-N-CEN_13
1002
{
1000
OWNER
1000
GEN
1002
}
1001
GENIUS_GENCEN_19
1002
{
1040
1.0
1002
}
  0
LINE
  5
D8E
330
1F
100
AcDbEntity
  8
AM_7
100
AcDbLine
 10
252.2403429334813
 20
195.0898376207897
 30
0.0
 11
226.5981624182374
 21
195.0898376207897
 31
0.0
1001
GENIUS_GENODEF_13
1002
{
1000
HIER
1070
     0
1002
}
1002
{
1000
MANEDIT
1070
     0
1002
}
1002
{
1000
NOSEL
1070
     0
1002
}
1002
{
1000
BEHIND
1070
     0
1002
}
1002
{
1000
OTHER
1070
     0
1002
}
1002
{
1000
REACTOR
1002
}
1001
GENIUS_GENOBJ-N-CEN_13
1002
{
1000
OWNER
1000
GEN
1002
}
1001
GENIUS_GENCEN_19
1002
{
1040
1.0
1002
}
  0
LINE
  5
D8F
330
1F
100
AcDbEntity
  8
0
100
AcDbLine
 10
223.497702246362
 20
183.0898376207897
 30
0.0
 11
223.497702246362
 21
198.5898376207897
 31
0.0
  0
DIMENSION
  5
DCC
102
{ACAD_XDICTIONARY
360
DD9
102
}
102
{ACAD_REACTORS
330
DDA
102
}
330
1F
100
AcDbEntity
  8
AM_5
100
AcDbDimension
  2
*D3
 10
128.682031508588
 20
136.4210712465537
 30
0.0
 11
126.132031508588
 21
148.1710712465537
 31
0.0
 70
    32
 71
     5
 42
23.5
  3
AM_ISO$0
100
AcDbAlignedDimension
 13
137.9552065759076
 23
159.9210712465537
 33
0.0
 14
137.9552065759076
 24
136.4210712465537
 34
0.0
 50
90.0
100
AcDbRotatedDimension
1001
ACAD
1000
DSTYLE
1002
{
1070
    40
1040
1.0
1070
   144
1040
1.0
1070
   272
1070
     8
1002
}
  0
DIMENSION
  5
DF2
102
{ACAD_XDICTIONARY
360
DFF
102
}
102
{ACAD_REACTORS
330
E00
102
}
330
1F
100
AcDbEntity
  8
AM_5
100
AcDbDimension
  2
*D4
 10
184.2403429334813
 20
124.4210712465536
 30
0.0
 11
179.9903429334813
 21
126.9710712465536
 31
0.0
 70
    32
 71
     5
 42
8.5
  3
AM_ISO$0
100
AcDbAlignedDimension
 13
175.7403429334813
 23
143.6178977872335
 33
0.0
 14
184.2403429334813
 24
136.4210712465536
 34
0.0
 50
0.0000000000001132
100
AcDbRotatedDimension
1001
ACAD
1000
DSTYLE
1002
{
1070
    40
1040
1.0
1070
   144
1040
1.0
1070
   272
1070
     8
1002
}
  0
DIMENSION
  5
E18
102
{ACAD_XDICTIONARY
360
E25
102
}
102
{ACAD_REACTORS
330
E26
102
}
330
1F
100
AcDbEntity
  8
AM_5
100
AcDbDimension
  2
*D5
 10
228.7403429334813
 20
124.4210712465536
 30
0.0
 11
206.4903429334813
 21
126.9710712465536
 31
0.0
 70
    32
 71
     5
 42
44.5
  3
AM_ISO$0
100
AcDbAlignedDimension
 13
184.2403429334813
 23
136.4210712465536
 33
0.0
 14
228.7403429334813
 24
136.4210712465536
 34
0.0
 50
0.0000000000001132
100
AcDbRotatedDimension
1001
ACAD
1000
DSTYLE
1002
{
1070
    40
1040
1.0
1070
   144
1040
1.0
1070
   272
1070
     8
1002
}
  0
DIMENSION
  5
E3E
102
{ACAD_XDICTIONARY
360
E4B
102
}
102
{ACAD_REACTORS
330
E4C
102
}
330
1F
100
AcDbEntity
  8
AM_5
100
AcDbDimension
  2
*D6
 10
228.7403429334813
 20
116.4210712465534
 30
0.0
 11
202.2403429334813
 21
118.9710712465534
 31
0.0
 70
    32
 71
     5
 42
53.0
  3
AM_ISO$0
100
AcDbAlignedDimension
 13
175.7403429334813
 23
143.6178977872335
 33
0.0
 14
228.7403429334813
 24
136.4210712465536
 34
0.0
 50
0.0000000000001132
100
AcDbRotatedDimension
1001
ACAD
1000
DSTYLE
1002
{
1070
    40
1040
1.0
1070
   144
1040
1.0
1070
   272
1070
     8
1002
}
  0
DIMENSION
  5
E64
102
{ACAD_XDICTIONARY
360
E71
102
}
102
{ACAD_REACTORS
330
E72
102
}
330
1F
100
AcDbEntity
  8
AM_5
100
AcDbDimension
  2
*D7
 10
168.842809275379
 20
154.7210712465537
 30
0.0
 11
166.292809275379
 21
148.1710712465537
 31
0.0
 70
    32
 71
     5
 42
13.09999999999999
  3
AM_ISO$0
100
AcDbAlignedDimension
 13
185.0403429334813
 23
141.6210712465537
 33
0.0
 14
185.0403429334813
 24
154.7210712465537
 34
0.0
 50
90.00000000000003
100
AcDbRotatedDimension
1001
ACAD
1000
DSTYLE
1002
{
1070
    40
1040
1.0
1070
   144
1040
1.0
1070
   272
1070
     8
1002
}
  0
DIMENSION
  5
E8E
102
{ACAD_XDICTIONARY
360
E9B
102
}
102
{ACAD_REACTORS
330
E9C
102
}
330
1F
100
AcDbEntity
  8
AM_5
100
AcDbDimension
  2
*D8
 10
251.2403429334813
 20
116.4210712465534
 30
0.0
 11
241.2403429334813
 21
118.9710712465534
 31
0.0
 70
    32
  1
L
 71
     5
 42
20.0
  3
AM_ISO$0
100
AcDbAlignedDimension
 13
231.2403429334813
 23
139.9210712465537
 33
0.0
 14
251.2403429334813
 24
140.4210712465537
 34
0.0
 50
0.0000000000001132
100
AcDbRotatedDimension
1001
ACAD
1000
DSTYLE
1002
{
1070
    40
1040
1.0
1070
   144
1040
1.0
1070
   272
1070
     8
1002
}
  0
LINE
  5
ECD
330
1F
100
AcDbEntity
  8
AM_VIS
 62
     3
100
AcDbLine
 10
175.7403429334813
 20
152.2242447058738
 30
0.0
 11
184.2403429334813
 21
152.5210712465537
 31
0.0
  0
LINE
  5
ECE
330
1F
100
AcDbEntity
  8
AM_VIS
 62
     3
100
AcDbLine
 10
175.7403429334813
 20
144.1178977872335
 30
0.0
 11
184.2403429334813
 21
143.8210712465537
 31
0.0
  0
LINE
  5
ECF
330
1F
100
AcDbEntity
  8
AM_VIS
 62
     3
100
AcDbLine
 10
175.7403429334813
 20
194.8930110801098
 30
0.0
 11
184.2403429334813
 21
195.1898376207897
 31
0.0
  0
LINE
  5
ED0
330
1F
100
AcDbEntity
  8
AM_VIS
 62
     3
100
AcDbLine
 10
175.7403429334813
 20
186.7866641614695
 30
0.0
 11
184.2403429334813
 21
186.4898376207897
 31
0.0
  0
DIMENSION
  5
EEA
102
{ACAD_XDICTIONARY
360
EF7
102
}
102
{ACAD_REACTORS
330
EF8
102
}
330
1F
100
AcDbEntity
  8
AM_5
100
AcDbDimension
  2
*D9
 10
153.4552065759076
 20
124.4210712465537
 30
0.0
 11
145.7052065759076
 21
126.9710712465537
 31
0.0
 70
    32
 71
     5
 42
15.5
  3
AM_ISO$0
100
AcDbAlignedDimension
 13
137.9552065759076
 23
136.4210712465537
 33
0.0
 14
153.4552065759076
 24
136.4210712465537
 34
0.0
 50
0.0000000000001132
100
AcDbRotatedDimension
1001
ACAD
1000
DSTYLE
1002
{
1070
    40
1040
1.0
1070
   144
1040
1.0
1070
   272
1070
     8
1002
}
  0
INSERT
  5
F05
330
1F
100
AcDbEntity
  8
AM_5
100
AcDbBlockReference
  2
*S13
 10
0.0
 20
0.0
 30
0.0
  0
DIMENSION
  5
F0C
102
{ACAD_XDICTIONARY
360
F18
102
}
102
{ACAD_REACTORS
330
F19
102
}
330
1F
100
AcDbEntity
  8
AM_5
100
AcDbDimension
  2
*D10
 10
188.2169535657056
 20
153.0892494715885
 30
0.0
 11
171.955124763332
 21
165.1558633761332
 31
0.0
 70
   163
  1
2-<> thru
 71
     5
 42
3.399999999999991
  3
AM_ISO$3
100
AcDbDiametricDimension
 15
187.2637323012572
 25
156.3528930215191
 35
0.0
 40
0.0
1001
ACAD
1000
DSTYLE
1002
{
1070
    40
1040
1.0
1070
   144
1040
1.0
1070
   272
1070
     8
1002
}
  0
INSERT
  5
F5D
330
1F
100
AcDbEntity
  8
AM_5
100
AcDbBlockReference
  2
*S14
 10
0.0
 20
0.0
 30
0.0
  0
LINE
  5
F90
330
1F
100
AcDbEntity
  8
AM_7
100
AcDbLine
 10
145.7052065759076
 20
148.1710712465537
 30
0.0
 11
151.5552065759076
 21
148.1710712465537
 31
0.0
1001
GENIUS_GENOREF_13
1005
F94
  0
LINE
  5
F91
330
1F
100
AcDbEntity
  8
AM_7
100
AcDbLine
 10
145.7052065759076
 20
148.1710712465537
 30
0.0
 11
145.7052065759076
 21
154.0210712465537
 31
0.0
1001
GENIUS_GENOREF_13
1005
F94
  0
LINE
  5
F92
330
1F
100
AcDbEntity
  8
AM_7
100
AcDbLine
 10
145.7052065759076
 20
148.1710712465537
 30
0.0
 11
139.8552065759076
 21
148.1710712465537
 31
0.0
1001
GENIUS_GENOREF_13
1005
F94
  0
LINE
  5
F93
330
1F
100
AcDbEntity
  8
AM_7
100
AcDbLine
 10
145.7052065759076
 20
148.1710712465537
 30
0.0
 11
145.7052065759076
 21
142.3210712465537
 31
0.0
1001
GENIUS_GENOREF_13
1005
F94
  0
POINT
  5
F94
330
1F
100
AcDbEntity
  8
0
 60
     1
100
AcDbPoint
 10
0.0
 20
0.0
 30
0.0
1001
GENIUS_GENOENT_13
1002
{
1000
MYREF
1005
F94
1002
}
1002
{
1000
GRP
1005
0
1002
}
1001
GENIUS_GENOLIS_13
1002
{
1000
ENT
1005
F93
1005
F92
1005
F91
1005
F90
1002
}
1001
GENIUS_GENOBJ-N-CRS_13
1002
{
1000
OWNER
1000
GEN
1002
}
1001
GENIUS_GENODEF_13
1002
{
1000
HIER
1070
    10
1002
}
1002
{
1000
MANEDIT
1070
     0
1002
}
1002
{
1000
NOSEL
1070
     0
1002
}
1002
{
1000
BEHIND
1070
     0
1002
}
1002
{
1000
OTHER
1070
     0
1002
}
1002
{
1000
REACTOR
1002
}
  0
INSERT
  5
FB0
330
1F
100
AcDbEntity
  8
AM_5
100
AcDbBlockReference
  2
*S15
 10
0.0
 20
0.0
 30
0.0
  0
SPLINE
  5
FBC
330
1F
100
AcDbEntity
  8
0
100
AcDbSpline
210
0.0
220
0.0
230
1.0
 70
     8
 71
     3
 72
    10
 73
     6
 74
     0
 42
0.0000000001
 43
0.0000000001
 40
1.090203416053066
 40
1.090203416053066
 40
1.090203416053066
 40
1.090203416053066
 40
2.31322540138396
 40
3.987711229665411
 40
5.405091274369596
 40
5.405091274369596
 40
5.405091274369596
 40
5.405091274369596
 10
236.7076987287037
 20
144.4210712465536
 30
0.0
 10
236.6016858901378
 20
144.0165436254325
 30
0.0
 10
236.5195371043746
 20
143.0775767479349
 30
0.0
 10
237.6624020701004
 20
141.8246317479762
 30
0.0
 10
237.3861779633963
 20
140.8660512948132
 30
0.0
 10
237.1596195988955
 20
140.4210712465885
 30
0.0
  0
SPLINE
  5
FBD
330
1F
100
AcDbEntity
  8
0
100
AcDbSpline
210
0.0
220
0.0
230
1.0
 70
     8
 71
     3
 72
    10
 73
     6
 74
     0
 42
0.0000000001
 43
0.0000000001
 40
1.090203416053066
 40
1.090203416053066
 40
1.090203416053066
 40
1.090203416053066
 40
2.31322540138396
 40
3.987711229665411
 40
5.405091274369596
 40
5.405091274369596
 40
5.405091274369596
 40
5.405091274369596
 10
237.7076987287038
 20
144.4210712465536
 30
0.0
 10
237.6016858901378
 20
144.0165436254325
 30
0.0
 10
237.5195371043746
 20
143.0775767479349
 30
0.0
 10
238.6624020701004
 20
141.8246317479762
 30
0.0
 10
238.3861779633963
 20
140.8660512948132
 30
0.0
 10
238.1596195988954
 20
140.4210712465885
 30
0.0
  0
LINE
  5
FBE
330
1F
100
AcDbEntity
  8
AM_VIS
100
AcDbLine
 10
237.7076987287038
 20
144.4210712465537
 30
0.0
 11
251.2403429334813
 21
144.4210712465537
 31
0.0
  0
LINE
  5
FBF
330
1F
100
AcDbEntity
  8
AM_VIS
100
AcDbLine
 10
238.1596195988778
 20
140.4210712465537
 30
0.0
 11
251.2403429334813
 21
140.4210712465537
 31
0.0
  0
SPLINE
  5
FC0
330
1F
100
AcDbEntity
  8
0
100
AcDbSpline
210
0.0
220
0.0
230
1.0
 70
     8
 71
     3
 72
    10
 73
     6
 74
     0
 42
0.0000000001
 43
0.0000000001
 40
1.090203416053066
 40
1.090203416053066
 40
1.090203416053066
 40
1.090203416053066
 40
2.31322540138396
 40
3.987711229665411
 40
5.405091274369596
 40
5.405091274369596
 40
5.405091274369596
 40
5.405091274369596
 10
236.7076987287037
 20
197.0898376207896
 30
0.0
 10
236.6016858901378
 20
196.6853099996686
 30
0.0
 10
236.5195371043746
 20
195.7463431221709
 30
0.0
 10
237.6624020701004
 20
194.4933981222122
 30
0.0
 10
237.3861779633963
 20
193.5348176690492
 30
0.0
 10
237.1596195988955
 20
193.0898376208245
 30
0.0
  0
SPLINE
  5
FC1
330
1F
100
AcDbEntity
  8
0
100
AcDbSpline
210
0.0
220
0.0
230
1.0
 70
     8
 71
     3
 72
    10
 73
     6
 74
     0
 42
0.0000000001
 43
0.0000000001
 40
1.090203416053066
 40
1.090203416053066
 40
1.090203416053066
 40
1.090203416053066
 40
2.31322540138396
 40
3.987711229665411
 40
5.405091274369596
 40
5.405091274369596
 40
5.405091274369596
 40
5.405091274369596
 10
237.7076987287038
 20
197.0898376207896
 30
0.0
 10
237.6016858901378
 20
196.6853099996686
 30
0.0
 10
237.5195371043746
 20
195.7463431221709
 30
0.0
 10
238.6624020701004
 20
194.4933981222122
 30
0.0
 10
238.3861779633963
 20
193.5348176690492
 30
0.0
 10
238.1596195988954
 20
193.0898376208245
 30
0.0
  0
LINE
  5
FC2
330
1F
100
AcDbEntity
  8
AM_VIS
100
AcDbLine
 10
237.7076987287038
 20
197.0898376207897
 30
0.0
 11
251.2403429334813
 21
197.0898376207897
 31
0.0
  0
LINE
  5
FC3
330
1F
100
AcDbEntity
  8
AM_VIS
100
AcDbLine
 10
238.1596195988778
 20
193.0898376207897
 30
0.0
 11
251.2403429334813
 21
193.0898376207897
 31
0.0
  0
LINE
  5
FDA
330
1F
100
AcDbEntity
  8
0
100
AcDbLine
 10
191.2403429334813
 20
198.5898376207897
 30
0.0
 11
191.2403429334813
 21
183.0898376207897
 31
0.0
  0
TEXT
  5
10D7
330
1F
100
AcDbEntity
  8
LOGO
 62
     7
100
AcDbText
 10
147.5757869564202
 20
89.2981203638847
 30
0.0
 40
3.135545918552035
  1
Order example:
 41
0.8
  7
CHINESET
100
AcDbText
  0
TEXT
  5
10D8
330
1F
100
AcDbEntity
  8
LOGO
 62
     7
100
AcDbText
 10
148.1383298241183
 20
93.71231979413954
 30
0.0
 40
4.703318877828053
  1
訂購代號：
  7
CHINESET
100
AcDbText
  0
LINE
  5
10D9
330
1F
100
AcDbEntity
  8
LOGO
 62
     4
100
AcDbLine
 10
146.213381619649
 20
76.08374580757875
 30
0.0
 11
146.213381619649
 21
99.60034019671917
 31
0.0
  0
TEXT
  5
10DA
330
1F
100
AcDbEntity
  8
LOGO
  6
Continuous
100
AcDbText
 10
102.9241403772566
 20
80.7035452856901
 30
0.0
 40
3.52748915837104
  1
金器工業股份有限公司
  7
CHINESET
100
AcDbText
  0
TEXT
  5
10DB
330
1F
100
AcDbEntity
  8
LOGO
  6
Continuous
100
AcDbText
 10
96.44484067264324
 20
77.17536501600986
 30
0.0
 40
2.351659438914026
  1
MINDMAN INDUSTRIAL CO., LTD.
 41
0.85
  7
CHINESET
100
AcDbText
  0
LINE
  5
10DC
330
1F
100
AcDbEntity
  8
LOGO
 62
     4
100
AcDbLine
 10
146.213381619649
 20
94.8970213188911
 30
0.0
 11
111.7223765155764
 21
94.8970213188911
 31
0.0
  0
LINE
  5
10DD
330
1F
100
AcDbEntity
  8
LOGO
 62
     4
100
AcDbLine
 10
146.213381619649
 20
90.19370244106301
 30
0.0
 11
111.7223765155764
 21
90.19370244106301
 31
0.0
  0
LINE
  5
10DE
330
1F
100
AcDbEntity
  8
LOGO
 62
     4
100
AcDbLine
 10
146.213381619649
 20
85.49038356323519
 30
0.0
 11
94.47687396354035
 21
85.49038356323519
 31
0.0
  0
LINE
  5
10DF
330
1F
100
AcDbEntity
  8
LOGO
 62
     4
100
AcDbLine
 10
111.7223765155764
 20
85.49038356323519
 30
0.0
 11
111.7223765155764
 21
99.60034019671917
 31
0.0
  0
TEXT
  5
10E0
330
1F
100
AcDbEntity
  8
LOGO
100
AcDbText
 10
135.2953505535658
 20
86.66621328269179
 30
0.0
 40
2.351659438914026
  1
mm
  7
CHINESET
 72
     1
 11
138.206928906507
 21
87.84204300214881
 31
0.0
100
AcDbText
 73
     2
  0
TEXT
  5
10E1
330
1F
100
AcDbEntity
  8
LOGO
100
AcDbText
 10
134.0635289427061
 20
96.07285103834799
 30
0.0
 40
2.351659438914026
  1
1 : 1
  7
CHINESET
 72
     1
 11
138.206928906507
 21
97.248680757805
 31
0.0
100
AcDbText
 73
     2
  0
LINE
  5
10E2
330
1F
100
AcDbEntity
  8
LOGO
 62
     4
100
AcDbLine
 10
130.5356520268887
 20
85.49038356323519
 30
0.0
 11
130.5356520268887
 21
99.60034019671917
 31
0.0
  0
TEXT
  5
10E3
330
1F
100
AcDbEntity
  8
LOGO
100
AcDbText
 10
113.6614457047167
 20
96.074008351064
 30
154.1238854938185
 40
2.351659438914026
  1
比例 Scale:
 41
0.9
  7
CHINESET
 72
     4
 11
121.1290142712325
 21
97.248680757805
 31
154.1238854938185
100
AcDbText
  0
TEXT
  5
10E4
330
1F
100
AcDbEntity
  8
LOGO
100
AcDbText
 10
113.5260153173864
 20
91.40261201565229
 30
154.1238854938185
 40
2.351659438914026
  1
投影  View:
 41
0.9
  7
CHINESET
 72
     4
 11
121.1290142712325
 21
92.54536187997693
 31
154.1238854938185
100
AcDbText
  0
TEXT
  5
10E5
330
1F
100
AcDbEntity
  8
LOGO
100
AcDbText
 10
113.7559320214588
 20
86.66621328269179
 30
154.1238854938185
 40
2.351659438914026
  1
單位  Unit:
 41
0.9
  7
CHINESET
 72
     4
 11
121.1290142712325
 21
87.84204300214881
 31
154.1238854938185
100
AcDbText
  0
LWPOLYLINE
  5
10E6
330
1F
100
AcDbEntity
  8
LOGO
 62
     4
100
AcDbPolyline
 90
        4
 70
     1
 43
0.0
 10
94.47687396354035
 20
99.60034019671917
 10
301.2936114472386
 20
99.60034019671917
 10
301.2936114472386
 20
225.3670065448292
 10
94.47687396354035
 20
225.3670065448292
1001
GENIUS_GENREC_14
1002
{
1000
PYDIR
1011
94.47687396354035
1021
225.3670065448292
1031
0.0
1002
}
1002
{
1000
PXDIR
1011
301.2936114472386
1021
99.60034019671917
1031
0.0
1002
}
1002
{
1000
PORI
1011
94.47687396354035
1021
99.60034019671917
1031
0.0
1002
}
1002
{
1000
PINS
1011
94.47687396354035
1021
99.60034019671917
1031
0.0
1002
}
1002
{
1000
PINS2
1011
301.2936114472386
1021
225.3670065448292
1031
0.0
1002
}
1002
{
1000
C
1070
     1
1002
}
1001
GENIUS_GENODEF_13
1002
{
1000
HIER
1070
     0
1002
}
1002
{
1000
MANEDIT
1070
     0
1002
}
1002
{
1000
NOSEL
1070
     0
1002
}
1002
{
1000
BEHIND
1070
     0
1002
}
1002
{
1000
OTHER
1070
     0
1002
}
1002
{
1000
REACTOR
1002
}
1001
GENIUS_GENOBJ-N-REC_13
1002
{
1000
OWNER
1000
GEN
1002
}
  0
SOLID
  5
10E7
330
1F
100
AcDbEntity
  8
LOGO
 62
     5
100
AcDbTrace
 10
96.91675837267691
 20
89.39968264806712
 30
0.0
 11
97.93355420651963
 21
89.39968264806681
 31
0.0
 12
102.176047168415
 22
99.04171210692096
 32
0.0
 13
103.1928430022583
 23
99.04171210692044
 33
0.0
  0
SOLID
  5
10E8
330
1F
100
AcDbEntity
  8
LOGO
 62
     5
100
AcDbTrace
 10
98.35429731017978
 20
89.39968264806712
 30
0.0
 11
99.37109314402249
 21
89.39968264806712
 31
0.0
 12
103.1928430022583
 22
98.27034975021229
 32
0.0
 13
102.176047168415
 23
94.54209835945544
 33
0.0
  0
SOLID
  5
10E9
330
1F
100
AcDbEntity
  8
LOGO
 62
     2
100
AcDbTrace
 10
97.93355420651963
 20
89.39968264806681
 30
0.0
 11
98.35429731017978
 21
89.39968264806712
 31
0.0
 12
103.1928430022583
 22
99.04171210692044
 32
0.0
 13
103.6135861059178
 23
99.04171210692044
 33
0.0
  0
SOLID
  5
10EA
330
1F
100
AcDbEntity
  8
LOGO
 62
     5
100
AcDbTrace
 10
95.28658530214498
 20
85.8934901175751
 30
0.0
 11
95.63720455519456
 21
85.8934901175751
 31
0.0
 12
96.62457566180286
 22
87.64658638282098
 32
0.0
 13
96.97519491485136
 23
87.64658638282098
 33
0.0
  0
SOLID
  5
10EB
330
1F
100
AcDbEntity
  8
LOGO
 62
     5
100
AcDbTrace
 10
96.62457566180286
 20
87.64658638282098
 30
0.0
 11
96.97519491485136
 21
87.64658638282098
 31
0.0
 12
96.62457566180286
 22
85.8934901175751
 32
0.0
 13
96.97519491485136
 23
85.8934901175751
 33
0.0
  0
SOLID
  5
10EC
330
1F
100
AcDbEntity
  8
LOGO
 62
     5
100
AcDbTrace
 10
96.62457566180286
 20
85.8934901175751
 30
0.0
 11
96.97519491485136
 21
85.8934901175751
 31
0.0
 12
97.96256602146126
 22
87.64658638282098
 32
0.0
 13
98.31318527451035
 23
87.64658638282098
 33
0.0
  0
SOLID
  5
10ED
330
1F
100
AcDbEntity
  8
LOGO
 62
     5
100
AcDbTrace
 10
97.96256602146126
 20
87.64658638282098
 30
0.0
 11
98.31318527451035
 21
87.64658638282098
 31
0.0
 12
97.96256602146126
 22
85.8934901175751
 32
0.0
 13
98.31318527451035
 23
85.8934901175751
 33
0.0
  0
POLYLINE
  5
10EE
330
1F
100
AcDbEntity
  8
LOGO
 62
     5
100
AcDb2dPolyline
 66
     1
 10
0.0
 20
0.0
 30
0.0
 40
0.3511811428778279
 41
0.3511811428778279
  0
VERTEX
  5
10EF
330
10EE
100
AcDbEntity
  8
LOGO
 62
     5
100
AcDbVertex
100
AcDb2dVertex
 10
109.7152039437172
 20
86.94534787672257
 30
0.0
 42
1.0
  0
VERTEX
  5
10F0
330
10EE
100
AcDbEntity
  8
LOGO
 62
     5
100
AcDbVertex
100
AcDb2dVertex
 10
108.6616605150834
 20
86.94534787672257
 30
0.0
 42
1.0
  0
SEQEND
  5
10F1
330
10EE
100
AcDbEntity
  8
LOGO
 62
     5
  0
POLYLINE
  5
10F2
330
1F
100
AcDbEntity
  8
LOGO
 62
     5
100
AcDb2dPolyline
 66
     1
 10
0.0
 20
0.0
 30
0.0
 70
     1
  0
VERTEX
  5
10F3
330
10F2
100
AcDbEntity
  8
LOGO
 62
     5
100
AcDbVertex
100
AcDb2dVertex
 10
106.6756842904971
 20
86.77003825019779
 30
0.0
 42
1.000000057330635
  0
VERTEX
  5
10F4
330
10F2
100
AcDbEntity
  8
LOGO
 62
     5
100
AcDbVertex
100
AcDb2dVertex
 10
107.7275420496448
 20
86.77003825019779
 30
0.0
 42
1.000000057330635
  0
SEQEND
  5
10F5
330
10F2
100
AcDbEntity
  8
LOGO
 62
     5
  0
CIRCLE
  5
10F6
330
1F
100
AcDbEntity
  8
LOGO
 62
     5
100
AcDbCircle
 10
107.2016131700717
 20
86.77003825019779
 30
0.0
 40
0.5259288795738354
  0
POLYLINE
  5
10F7
330
1F
100
AcDbEntity
  8
LOGO
 62
     5
100
AcDb2dPolyline
 66
     1
 10
0.0
 20
0.0
 30
0.0
 70
     1
 40
0.3511811428778279
 41
0.3511811428778279
  0
VERTEX
  5
10F8
330
10F7
100
AcDbEntity
  8
LOGO
 62
     5
100
AcDbVertex
100
AcDb2dVertex
 10
106.4992508843155
 20
86.77003825019779
 30
0.0
 42
1.0
  0
VERTEX
  5
10F9
330
10F7
100
AcDbEntity
  8
LOGO
 62
     5
100
AcDbVertex
100
AcDb2dVertex
 10
107.9039754558268
 20
86.77003825019779
 30
0.0
 42
1.0
  0
SEQEND
  5
10FA
330
10F7
100
AcDbEntity
  8
LOGO
 62
     5
  0
LINE
  5
10FB
330
1F
100
AcDbEntity
  8
LOGO
100
AcDbLine
 10
109.8896707354982
 20
85.8934901175751
 30
0.0
 11
109.8896707354982
 21
86.94534787672257
 31
0.0
  0
SOLID
  5
10FC
330
1F
100
AcDbEntity
  8
LOGO
 62
     5
100
AcDbTrace
 10
107.727506987721
 20
87.64658638282098
 30
0.0
 11
108.0781262407696
 21
87.64658638282098
 31
0.0
 12
107.727506987721
 22
85.8934901175751
 32
0.0
 13
108.0781262407696
 23
85.8934901175751
 33
0.0
  0
SOLID
  5
10FD
330
1F
100
AcDbEntity
  8
LOGO
 62
     5
100
AcDbTrace
 10
108.4871937233014
 20
85.8934901175751
 30
0.0
 11
108.837812976351
 21
85.8934901175751
 31
0.0
 12
108.4871937233014
 22
87.64658638282098
 32
0.0
 13
108.837812976351
 23
87.64658638282098
 33
0.0
  0
SOLID
  5
10FE
330
1F
100
AcDbEntity
  8
LOGO
 62
     5
100
AcDbTrace
 10
109.5390514824497
 20
86.94534787672257
 30
0.0
 11
109.8896707354982
 21
86.94534787672257
 31
0.0
 12
109.5390514824497
 22
85.8934901175751
 32
0.0
 13
109.8896707354982
 23
85.8934901175751
 33
0.0
  0
SOLID
  5
10FF
330
1F
100
AcDbEntity
  8
LOGO
 62
     5
100
AcDbTrace
 10
108.4521317979964
 20
98.27034975021229
 30
0.0
 11
107.4353359641542
 21
94.54209835945544
 31
0.0
 12
108.4521317979964
 22
89.39968264806681
 32
0.0
 13
107.4353359641542
 23
89.39968264806681
 33
0.0
  0
SOLID
  5
1100
330
1F
100
AcDbEntity
  8
LOGO
 62
     5
100
AcDbTrace
 10
108.872874901656
 20
89.39968264806681
 30
0.0
 11
109.8896707354982
 21
89.39968264806681
 31
0.0
 12
108.872874901656
 22
99.04171210692044
 32
0.0
 13
109.8896707354982
 23
99.04171210692096
 33
0.0
  0
SOLID
  5
1101
330
1F
100
AcDbEntity
  8
LOGO
 62
     2
100
AcDbTrace
 10
108.4521317979964
 20
99.04171210692096
 30
0.0
 11
108.872874901656
 21
99.04171210692044
 31
0.0
 12
108.4521317979964
 22
89.39968264806681
 32
0.0
 13
108.872874901656
 23
89.39968264806681
 33
0.0
  0
POLYLINE
  5
1102
330
1F
100
AcDbEntity
  8
LOGO
 62
     5
100
AcDb2dPolyline
 66
     1
 10
0.0
 20
0.0
 30
0.0
 40
0.3511811428778279
 41
0.3511811428778279
  0
VERTEX
  5
1103
330
1102
100
AcDbEntity
  8
LOGO
 62
     5
100
AcDbVertex
100
AcDb2dVertex
 10
104.6896379420615
 20
86.94534787672257
 30
0.0
 42
1.0
  0
VERTEX
  5
1104
330
1102
100
AcDbEntity
  8
LOGO
 62
     5
100
AcDbVertex
100
AcDb2dVertex
 10
103.6360945134278
 20
86.94534787672257
 30
0.0
 42
1.0
  0
SEQEND
  5
1105
330
1102
100
AcDbEntity
  8
LOGO
 62
     5
  0
POLYLINE
  5
1106
330
1F
100
AcDbEntity
  8
LOGO
 62
     5
100
AcDb2dPolyline
 66
     1
 10
0.0
 20
0.0
 30
0.0
 40
0.3511811428778279
 41
0.3511811428778279
  0
VERTEX
  5
1107
330
1106
100
AcDbEntity
  8
LOGO
 62
     5
100
AcDbVertex
100
AcDb2dVertex
 10
105.7414957012082
 20
86.94534787672257
 30
0.0
 42
1.0
  0
VERTEX
  5
1108
330
1106
100
AcDbEntity
  8
LOGO
 62
     5
100
AcDbVertex
100
AcDb2dVertex
 10
104.687952272575
 20
86.94534787672257
 30
0.0
 42
1.0
  0
SEQEND
  5
1109
330
1106
100
AcDbEntity
  8
LOGO
 62
     5
  0
POLYLINE
  5
110A
330
1F
100
AcDbEntity
  8
LOGO
 62
     5
100
AcDb2dPolyline
 66
     1
 10
0.0
 20
0.0
 30
0.0
 40
0.3511811428778279
 41
0.3511811428778279
  0
VERTEX
  5
110B
330
110A
100
AcDbEntity
  8
LOGO
 62
     5
100
AcDbVertex
100
AcDb2dVertex
 10
100.7159296995526
 20
86.94534787672257
 30
0.0
 42
1.0
  0
VERTEX
  5
110C
330
110A
100
AcDbEntity
  8
LOGO
 62
     5
100
AcDbVertex
100
AcDb2dVertex
 10
99.66238627091943
 20
86.94534787672257
 30
0.0
 42
1.0
  0
SEQEND
  5
110D
330
110A
100
AcDbEntity
  8
LOGO
 62
     5
  0
SOLID
  5
110E
330
1F
100
AcDbEntity
  8
LOGO
 62
     5
100
AcDbTrace
 10
99.48791947913784
 20
87.64658638282098
 30
0.0
 11
99.83853873218635
 21
87.64658638282098
 31
0.0
 12
99.48791947913784
 22
85.8934901175751
 32
0.0
 13
99.83853873218635
 23
85.8934901175751
 33
0.0
  0
SOLID
  5
110F
330
1F
100
AcDbEntity
  8
LOGO
 62
     5
100
AcDbTrace
 10
100.5397772382855
 20
86.94534787672257
 30
0.0
 11
100.8903964913351
 21
86.94534787672257
 31
0.0
 12
100.5397772382855
 22
85.8934901175751
 32
0.0
 13
100.8903964913351
 23
85.8934901175751
 33
0.0
  0
POLYLINE
  5
1110
330
1F
100
AcDbEntity
  8
LOGO
 62
     5
100
AcDb2dPolyline
 66
     1
 10
0.0
 20
0.0
 30
0.0
 70
     1
 40
0.3511811428778279
 41
0.3511811428778279
  0
VERTEX
  5
1111
330
1110
100
AcDbEntity
  8
LOGO
 62
     5
100
AcDbVertex
100
AcDb2dVertex
 10
101.4736848826594
 20
86.77003825019779
 30
0.0
 42
1.0
  0
VERTEX
  5
1112
330
1110
100
AcDbEntity
  8
LOGO
 62
     5
100
AcDbVertex
100
AcDb2dVertex
 10
102.8784094541711
 20
86.77003825019779
 30
0.0
 42
1.0
  0
SEQEND
  5
1113
330
1110
100
AcDbEntity
  8
LOGO
 62
     5
  0
SOLID
  5
1114
330
1F
100
AcDbEntity
  8
LOGO
 62
     5
100
AcDbTrace
 10
102.7019409860643
 20
88.17251526239511
 30
0.0
 11
103.0525602391134
 21
88.17251526239511
 31
0.0
 12
102.7019409860643
 22
85.8934901175751
 32
0.0
 13
103.0525602391134
 23
85.8934901175751
 33
0.0
  0
SOLID
  5
1115
330
1F
100
AcDbEntity
  8
LOGO
 62
     5
100
AcDbTrace
 10
103.4616277216468
 20
87.64658638282098
 30
0.0
 11
103.8122469746953
 21
87.64658638282098
 31
0.0
 12
103.4616277216468
 22
85.8934901175751
 32
0.0
 13
103.8122469746953
 23
85.8934901175751
 33
0.0
  0
SOLID
  5
1116
330
1F
100
AcDbEntity
  8
LOGO
 62
     5
100
AcDbTrace
 10
104.5134854807935
 20
86.94534787672257
 30
0.0
 11
104.8641047338431
 21
86.94534787672257
 31
0.0
 12
104.5134854807935
 22
85.8934901175751
 32
0.0
 13
104.8641047338431
 23
85.8934901175751
 33
0.0
  0
SOLID
  5
1117
330
1F
100
AcDbEntity
  8
LOGO
 62
     5
100
AcDbTrace
 10
105.5653432399412
 20
86.94534787672257
 30
0.0
 11
105.9159624929902
 21
86.94534787672257
 31
0.0
 12
105.5653432399412
 22
85.89349011757461
 32
0.0
 13
105.9159624929902
 23
85.89349011757461
 33
0.0
  0
SOLID
  5
1118
330
1F
100
AcDbEntity
  8
LOGO
 62
     5
100
AcDbTrace
 10
98.72823274355591
 20
87.89201985995555
 30
0.0
 11
99.07885199660604
 21
87.89201985995555
 31
0.0
 12
98.72823274355591
 22
88.17251526239511
 32
0.0
 13
99.07885199660604
 23
88.17251526239511
 33
0.0
  0
SOLID
  5
1119
330
1F
100
AcDbEntity
  8
LOGO
 62
     5
100
AcDbTrace
 10
98.72823274355591
 20
87.64658638282098
 30
0.0
 11
99.07885199660604
 21
87.64658638282098
 31
0.0
 12
98.72823274355591
 22
85.89349011757461
 32
0.0
 13
99.07885199660604
 23
85.8934901175751
 33
0.0
  0
SOLID
  5
111A
330
1F
100
AcDbEntity
  8
LOGO
 62
     5
100
AcDbTrace
 10
102.176047168415
 20
89.39968264806712
 30
0.0
 11
103.1928430022583
 21
89.39968264806712
 31
0.0
 12
102.176047168415
 22
94.54209835945544
 32
0.0
 13
103.1928430022583
 23
98.27034975021229
 33
0.0
  0
SOLID
  5
111B
330
1F
100
AcDbEntity
  8
LOGO
 62
     5
100
AcDbTrace
 10
103.6135861059178
 20
99.04171210692044
 30
0.0
 11
104.6303819397601
 21
99.04171210692096
 31
0.0
 12
103.6135861059178
 22
90.17104500477527
 32
0.0
 13
104.6303819397601
 23
93.89929639553212
 33
0.0
  0
SOLID
  5
111C
330
1F
100
AcDbEntity
  8
LOGO
 62
     2
100
AcDbTrace
 10
103.1928430022583
 20
99.04171210692044
 30
0.0
 11
103.6135861059178
 21
99.04171210692044
 31
0.0
 12
103.1928430022583
 22
89.39968264806712
 32
0.0
 13
103.6135861059178
 23
89.39968264806712
 33
0.0
  0
SOLID
  5
111D
330
1F
100
AcDbEntity
  8
LOGO
 62
     5
100
AcDbTrace
 10
103.6135861059178
 20
90.17104500477527
 30
0.0
 11
104.6303819397601
 21
93.89929639553212
 31
0.0
 12
108.4521317979964
 22
99.04171210692096
 32
0.0
 13
107.4353359641542
 23
99.04171210692096
 33
0.0
  0
SOLID
  5
111E
330
1F
100
AcDbEntity
  8
LOGO
 62
     5
100
AcDbTrace
 10
103.6135861059178
 20
89.39968264806712
 30
0.0
 11
104.6303819397601
 21
89.39968264806712
 31
0.0
 12
108.4521317979964
 22
98.27034975021229
 32
0.0
 13
107.4353359641542
 23
94.54209835945544
 33
0.0
  0
SOLID
  5
111F
330
1F
100
AcDbEntity
  8
LOGO
 62
     2
100
AcDbTrace
 10
103.1928430022583
 20
89.39968264806712
 30
0.0
 11
103.6135861059178
 21
89.39968264806712
 31
0.0
 12
108.4521317979964
 22
99.04171210692096
 32
0.0
 13
108.872874901656
 23
99.04171210692044
 33
0.0
  0
LWPOLYLINE
  5
1120
330
1F
100
AcDbEntity
  8
LOGO
 62
     4
100
AcDbPolyline
 90
        4
 70
     1
 43
0.0
 10
94.47687396354035
 20
99.60034019671917
 10
301.2936114472386
 20
99.60034019671917
 10
301.2936114472386
 20
76.08374580757846
 10
94.47687396354035
 20
76.08374580757846
1001
GENIUS_GENREC_14
1002
{
1000
PYDIR
1011
94.47687396354035
1021
76.08374580757846
1031
0.0
1002
}
1002
{
1000
PXDIR
1011
301.2936114472386
1021
99.60034019671917
1031
0.0
1002
}
1002
{
1000
PORI
1011
94.47687396354035
1021
99.60034019671917
1031
0.0
1002
}
1002
{
1000
PINS
1011
94.47687396354035
1021
99.60034019671917
1031
0.0
1002
}
1002
{
1000
PINS2
1011
301.2936114472386
1021
76.08374580757846
1031
0.0
1002
}
1002
{
1000
C
1070
     1
1002
}
1001
GENIUS_GENOBJ-N-REC_13
1002
{
1000
OWNER
1000
GEN
1002
}
1001
GENIUS_GENODEF_13
1002
{
1000
HIER
1070
     0
1002
}
1002
{
1000
MANEDIT
1070
     0
1002
}
1002
{
1000
NOSEL
1070
     0
1002
}
1002
{
1000
BEHIND
1070
     0
1002
}
1002
{
1000
OTHER
1070
     0
1002
}
1002
{
1000
REACTOR
1002
}
  0
LINE
  5
1121
330
1F
100
AcDbEntity
  8
LOGO
 62
     4
100
AcDbLine
 10
194.2371430752281
 20
86.66621328269226
 30
0.0
 11
194.2371430752281
 21
78.04346200667374
 31
0.0
  0
LINE
  5
1122
330
1F
100
AcDbEntity
  8
LOGO
 62
     4
100
AcDbLine
 10
178.5594134824679
 20
86.66621328269226
 30
0.0
 11
178.5594134824679
 21
78.04346200667374
 31
0.0
  0
LINE
  5
1123
330
1F
100
AcDbEntity
  8
LOGO
 62
     4
100
AcDbLine
 10
194.2371430752281
 20
78.04346200667374
 30
0.0
 11
178.5594134824679
 21
78.04346200667374
 31
0.0
  0
LINE
  5
1124
330
1F
100
AcDbEntity
  8
LOGO
 62
     4
100
AcDbLine
 10
195.8731104928403
 20
97.248680757805
 30
0.0
 11
178.5594134824679
 21
97.248680757805
 31
0.0
  0
LINE
  5
1125
330
1F
100
AcDbEntity
  8
LOGO
 62
     4
100
AcDbLine
 10
195.8731104928403
 20
90.19370244106301
 30
0.0
 11
178.5594134824679
 21
90.19370244106301
 31
0.0
  0
LINE
  5
1126
330
1F
100
AcDbEntity
  8
LOGO
 62
     4
100
AcDbLine
 10
178.5594134824679
 20
97.248680757805
 30
0.0
 11
178.5594134824679
 21
90.19370244106301
 31
0.0
  0
LINE
  5
1127
330
1F
100
AcDbEntity
  8
LOGO
 62
     4
100
AcDbLine
 10
195.8731104928403
 20
97.248680757805
 30
0.0
 11
195.8731104928403
 21
90.19370244106301
 31
0.0
  0
LINE
  5
1128
330
1F
100
AcDbEntity
  8
LOGO
 62
     4
100
AcDbLine
 10
187.2162619876541
 20
90.19370244106301
 30
0.0
 11
187.2162619876541
 21
86.66621328269226
 31
0.0
  0
TEXT
  5
1129
330
1F
100
AcDbEntity
  8
LOGO
  6
Continuous
 62
     7
100
AcDbText
 10
182.1463759243307
 20
91.66641885030568
 30
0.0
 40
4.115999999999998
  1
MP1
  7
CHINESET
100
AcDbText
  0
LINE
  5
112A
330
1F
100
AcDbEntity
  8
LOGO
 62
     4
100
AcDbLine
 10
194.2371430752281
 20
86.66621328269226
 30
0.0
 11
178.5594134824679
 21
86.66621328269226
 31
0.0
  0
TEXT
  5
112B
330
1F
100
AcDbEntity
  8
LOGO
  6
Continuous
100
AcDbText
 10
183.5903472738481
 20
79.2605450643149
 30
154.1238854938185
 40
1.763999999999999
  1
Model
 41
0.8
  7
CHINESET
100
AcDbText
  0
TEXT
  5
112C
330
1F
100
AcDbEntity
  8
LOGO
100
AcDbText
 10
183.1208278179612
 20
82.53062089518145
 30
154.1238854938185
 40
2.939999999999999
  1
型號
  7
CHINESET
100
AcDbText
  0
LINE
  5
112D
330
1F
100
AcDbEntity
  8
LOGO
  6
Continuous
 62
     7
100
AcDbLine
 10
196.6231129965029
 20
93.69620175128611
 30
0.0
 11
199.7383339964559
 21
93.69620175128611
 31
0.0
  0
LINE
  5
112E
330
1F
100
AcDbEntity
  8
LOGO
 62
     4
100
AcDbLine
 10
216.6224022441976
 20
86.66621328269226
 30
0.0
 11
216.6224022441976
 21
78.04346200667374
 31
0.0
  0
LINE
  5
112F
330
1F
100
AcDbEntity
  8
LOGO
 62
     4
100
AcDbLine
 10
196.3809230191078
 20
86.66621328269226
 30
0.0
 11
196.3809230191078
 21
78.04346200667374
 31
0.0
  0
LINE
  5
1130
330
1F
100
AcDbEntity
  8
LOGO
 62
     4
100
AcDbLine
 10
216.6224022441976
 20
78.04346200667374
 30
0.0
 11
196.3809230191078
 21
78.04346200667374
 31
0.0
  0
LINE
  5
1131
330
1F
100
AcDbEntity
  8
LOGO
 62
     4
100
AcDbLine
 10
213.3614324411964
 20
97.248680757805
 30
0.0
 11
200.7210220088423
 21
97.248680757805
 31
0.0
  0
LINE
  5
1132
330
1F
100
AcDbEntity
  8
LOGO
 62
     4
100
AcDbLine
 10
213.3614324411964
 20
90.19370244106301
 30
0.0
 11
200.7210220088423
 21
90.19370244106301
 31
0.0
  0
LINE
  5
1133
330
1F
100
AcDbEntity
  8
LOGO
 62
     4
100
AcDbLine
 10
200.7210220088423
 20
97.248680757805
 30
0.0
 11
200.7210220088423
 21
90.19370244106301
 31
0.0
  0
LINE
  5
1134
330
1F
100
AcDbEntity
  8
LOGO
 62
     4
100
AcDbLine
 10
213.3614324411964
 20
97.248680757805
 30
0.0
 11
213.3614324411964
 21
90.19370244106301
 31
0.0
  0
LINE
  5
1135
330
1F
100
AcDbEntity
  8
LOGO
 62
     4
100
AcDbLine
 10
207.0412272250193
 20
90.19370244106301
 30
0.0
 11
207.0412272250193
 21
86.66621328269226
 31
0.0
  0
LINE
  5
1137
330
1F
100
AcDbEntity
  8
LOGO
 62
     4
100
AcDbLine
 10
216.6224022441976
 20
86.66621328269226
 30
0.0
 11
196.3809230191078
 21
86.66621328269226
 31
0.0
  0
LINE
  5
1138
330
1F
100
AcDbEntity
  8
LOGO
  6
Continuous
 62
     7
100
AcDbLine
 10
214.6681912573029
 20
93.69620175128611
 30
0.0
 11
217.7834122572558
 21
93.69620175128611
 31
0.0
  0
LINE
  5
1139
330
1F
100
AcDbEntity
  8
LOGO
 62
     4
100
AcDbLine
 10
238.5956807490685
 20
86.66621328269226
 30
0.0
 11
238.5956807490685
 21
78.04346200667374
 31
0.0
  0
LINE
  5
113A
330
1F
100
AcDbEntity
  8
LOGO
 62
     4
100
AcDbLine
 10
219.1217483655125
 20
86.66621328269226
 30
0.0
 11
219.1217483655125
 21
78.04346200667374
 31
0.0
  0
LINE
  5
113B
330
1F
100
AcDbEntity
  8
LOGO
 62
     4
100
AcDbLine
 10
238.5956807490685
 20
78.04346200667374
 30
0.0
 11
219.1217483655125
 21
78.04346200667374
 31
0.0
  0
LINE
  5
113C
330
1F
100
AcDbEntity
  8
LOGO
 62
     4
100
AcDbLine
 10
230.8212698995792
 20
97.248680757805
 30
0.0
 11
218.7661002696422
 21
97.248680757805
 31
0.0
  0
LINE
  5
113D
330
1F
100
AcDbEntity
  8
LOGO
 62
     4
100
AcDbLine
 10
230.8212698995792
 20
90.19370244106301
 30
0.0
 11
218.7661002696422
 21
90.19370244106301
 31
0.0
  0
LINE
  5
113E
330
1F
100
AcDbEntity
  8
LOGO
 62
     4
100
AcDbLine
 10
218.7661002696422
 20
97.248680757805
 30
0.0
 11
218.7661002696422
 21
90.19370244106301
 31
0.0
  0
LINE
  5
113F
330
1F
100
AcDbEntity
  8
LOGO
 62
     4
100
AcDbLine
 10
230.8212698995792
 20
97.248680757805
 30
0.0
 11
230.8212698995792
 21
90.19370244106301
 31
0.0
  0
LINE
  5
1140
330
1F
100
AcDbEntity
  8
LOGO
 62
     4
100
AcDbLine
 10
225.7075848525742
 20
90.19370244106301
 30
0.0
 11
225.7075848525742
 21
86.66621328269226
 31
0.0
  0
LINE
  5
1142
330
1F
100
AcDbEntity
  8
LOGO
 62
     4
100
AcDbLine
 10
238.5956807490685
 20
86.66621328269226
 30
0.0
 11
219.1217483655125
 21
86.66621328269226
 31
0.0
  0
TEXT
  5
114E
330
1F
100
AcDbEntity
  8
LOGO
  6
Continuous
100
AcDbText
 10
198.1517809863707
 20
79.2605450643149
 30
154.1238854938185
 40
1.763999999999999
  1
Pressure range
 41
0.8
  7
CHINESET
100
AcDbText
  0
TEXT
  5
114F
330
1F
100
AcDbEntity
  8
LOGO
100
AcDbText
 10
200.8200635494775
 20
82.53062089518145
 30
154.1238854938185
 40
2.939999999999999
  1
壓力範圍
  7
CHINESET
100
AcDbText
  0
TEXT
  5
1150
330
1F
100
AcDbEntity
  8
LOGO
  6
Continuous
100
AcDbText
 10
220.9388798047679
 20
79.2605450643149
 30
154.1238854938185
 40
1.763999999999999
  1
Output method
 41
0.8
  7
CHINESET
100
AcDbText
  0
TEXT
  5
1151
330
1F
100
AcDbEntity
  8
LOGO
100
AcDbText
 10
222.6814913575175
 20
82.53062089518145
 30
154.1238854938185
 40
2.939999999999999
  1
輸出型式
  7
CHINESET
100
AcDbText
  0
TEXT
  5
1160
330
1F
100
AcDbEntity
  8
LOGO
100
AcDbText
 10
147.1461874749445
 20
77.33481934723028
 30
0.0
 40
2.351999999999999
  1
10605282
 41
0.7
  7
CHINESET
 72
     1
 11
153.0261874749445
 21
77.33481934723028
 31
0.0
100
AcDbText
  0
LINE
  5
1161
330
1F
100
AcDbEntity
  8
LOGO
 62
     4
100
AcDbLine
 10
160.3253816196479
 20
80.78706468540739
 30
0.0
 11
160.325381619649
 21
76.08374580757905
 31
0.0
  0
LINE
  5
1162
330
1F
100
AcDbEntity
  8
LOGO
 62
     4
100
AcDbLine
 10
160.3253816196479
 20
80.78706468540739
 30
0.0
 11
146.213381619649
 21
80.78706468540739
 31
0.0
  0
CIRCLE
  5
1163
330
1F
100
AcDbEntity
  8
LOGO
  6
Continuous
100
AcDbCircle
 10
134.8900436189508
 20
92.55039209672595
 30
0.0
 40
1.365428822057062
  0
CIRCLE
  5
1164
330
1F
100
AcDbEntity
  8
LOGO
  6
Continuous
100
AcDbCircle
 10
134.8900436189508
 20
92.55039209672595
 30
0.0
 40
0.800020415150742
  0
LINE
  5
1165
330
1F
100
AcDbEntity
  8
LOGO
100
AcDbLine
 10
143.4705567744177
 20
91.18496327466862
 30
0.0
 11
143.4705567744177
 21
93.9158209187833
 31
0.0
  0
LINE
  5
1166
330
1F
100
AcDbEntity
  8
LOGO
100
AcDbLine
 10
139.1900157966233
 20
91.75037168157535
 30
0.0
 11
139.1900157966233
 21
93.35041251187684
 31
0.0
  0
LINE
  5
1167
330
1F
100
AcDbEntity
  8
LOGO
  6
Continuous
100
AcDbLine
 10
139.1900157966233
 20
93.35041251187684
 30
0.0
 11
143.4705567744177
 21
93.9158209187833
 31
0.0
  0
LINE
  5
1168
330
1F
100
AcDbEntity
  8
LOGO
  6
Continuous
100
AcDbLine
 10
139.1900157966233
 20
91.75037168157535
 30
0.0
 11
143.4705567744177
 21
91.18496327466862
 31
0.0
  0
LINE
  5
1169
330
1F
100
AcDbEntity
  8
LOGO
  6
AM_ISO08W050x2
 48
0.3
100
AcDbLine
 10
133.0077795420586
 20
92.55039209672595
 30
0.0
 11
136.7723076958431
 21
92.55039209672595
 31
0.0
1001
GENIUS_GENOREF_13
1005
116E
  0
LINE
  5
116A
330
1F
100
AcDbEntity
  8
LOGO
  6
AM_ISO08W050x2
 48
0.3
100
AcDbLine
 10
134.8900436189508
 20
90.66812801983369
 30
0.0
 11
134.8900436189508
 21
94.43265617361827
 31
0.0
1001
GENIUS_GENOREF_13
1005
116D
  0
LINE
  5
116B
330
1F
100
AcDbEntity
  8
LOGO
  6
CENTER
 48
0.5
100
AcDbLine
 10
138.8476914954796
 20
92.55039209672595
 30
0.0
 11
143.901593394056
 21
92.55039209672595
 31
0.0
1001
GENIUS_GENOREF_13
1005
116C
  0
POINT
  5
116C
330
1F
100
AcDbEntity
  8
0
 60
     1
100
AcDbPoint
 10
-1755.137592972802
 20
-806.6335382024572
 30
0.0
1001
GENIUS_GENOBJ-N-CRS_13
1002
{
1000
OWNER
1000
GEN
1002
}
1001
GENIUS_GENOLIS_13
1002
{
1000
ENT
1005
0
1005
0
1005
0
1005
116B
1002
}
1001
GENIUS_GENOENT_13
1002
{
1000
MYREF
1005
116C
1002
}
1002
{
1000
GRP
1005
0
1002
}
1001
GENIUS_GENODEF_13
1002
{
1000
HIER
1070
    10
1002
}
1002
{
1000
MANEDIT
1070
     1
1002
}
1002
{
1000
NOSEL
1070
     0
1002
}
1002
{
1000
BEHIND
1070
     0
1002
}
1002
{
1000
OTHER
1070
     0
1002
}
1002
{
1000
REACTOR
1002
}
  0
POINT
  5
116D
330
1F
100
AcDbEntity
  8
0
 60
     1
100
AcDbPoint
 10
-1766.462178195657
 20
-797.757951723821
 30
0.0
1001
GENIUS_GENOBJ-N-CRS_13
1002
{
1000
OWNER
1000
GEN
1002
}
1001
GENIUS_GENOLIS_13
1002
{
1000
ENT
1005
0
1005
0
1005
0
1005
116A
1002
}
1001
GENIUS_GENOENT_13
1002
{
1000
MYREF
1005
116D
1002
}
1002
{
1000
GRP
1005
0
1002
}
1001
GENIUS_GENODEF_13
1002
{
1000
HIER
1070
    10
1002
}
1002
{
1000
MANEDIT
1070
     1
1002
}
1002
{
1000
NOSEL
1070
     0
1002
}
1002
{
1000
BEHIND
1070
     0
1002
}
1002
{
1000
OTHER
1070
     0
1002
}
1002
{
1000
REACTOR
1002
}
  0
POINT
  5
116E
330
1F
100
AcDbEntity
  8
0
 60
     1
100
AcDbPoint
 10
-1760.10350449782
 20
-806.6335382024572
 30
0.0
1001
GENIUS_GENOBJ-N-CRS_13
1002
{
1000
OWNER
1000
GEN
1002
}
1001
GENIUS_GENOLIS_13
1002
{
1000
ENT
1005
0
1005
0
1005
0
1005
1169
1002
}
1001
GENIUS_GENOENT_13
1002
{
1000
MYREF
1005
116E
1002
}
1002
{
1000
GRP
1005
0
1002
}
1001
GENIUS_GENODEF_13
1002
{
1000
HIER
1070
    10
1002
}
1002
{
1000
MANEDIT
1070
     1
1002
}
1002
{
1000
NOSEL
1070
     0
1002
}
1002
{
1000
BEHIND
1070
     0
1002
}
1002
{
1000
OTHER
1070
     0
1002
}
1002
{
1000
REACTOR
1002
}
  0
ENDSEC
  0
SECTION
  2
OBJECTS
  0
DICTIONARY
  5
C
330
0
100
AcDbDictionary
281
     1
  3
ACAD_COLOR
350
BE
  3
ACAD_GROUP
350
D
  3
ACAD_LAYOUT
350
1A
  3
ACAD_MATERIAL
350
BD
  3
ACAD_MLINESTYLE
350
17
  3
ACAD_PLOTSETTINGS
350
19
  3
ACAD_PLOTSTYLENAME
350
E
  3
ACAD_TABLESTYLE
350
11A
  3
ACDBHEADERROUNDTRIPXREC
350
11C1
  3
AcDbVariableDictionary
350
94
  3
AcmDictionary
350
5B
  3
AMG
350
41
  3
AMGSNAPSETTINGS
350
1B8
  3
DWGPROPS
350
11C0
  0
DICTIONARY
  5
3F9
330
2
100
AcDbDictionary
280
     1
281
     1
  3
ACAD_LAYERFILTERS
360
1005
  3
ACAD_LAYERSTATES
360
C2C
  3
ACLYDICTIONARY
360
1004
  0
DICTIONARY
  5
8F
330
1F
100
AcDbDictionary
280
     1
281
     1
  3
ACAD_SORTENTS
360
CF6
  0
DICTIONARY
  5
DD9
330
DCC
100
AcDbDictionary
280
     1
281
     1
  3
ACAD_DIMASSOC
360
DDA
  0
DICTIONARY
  5
DFF
330
DF2
100
AcDbDictionary
280
     1
281
     1
  3
ACAD_DIMASSOC
360
E00
  0
DICTIONARY
  5
E25
330
E18
100
AcDbDictionary
280
     1
281
     1
  3
ACAD_DIMASSOC
360
E26
  0
DICTIONARY
  5
E4B
330
E3E
100
AcDbDictionary
280
     1
281
     1
  3
ACAD_DIMASSOC
360
E4C
  0
DICTIONARY
  5
E71
330
E64
100
AcDbDictionary
280
     1
281
     1
  3
ACAD_DIMASSOC
360
E72
  0
DICTIONARY
  5
E9B
330
E8E
100
AcDbDictionary
280
     1
281
     1
  3
ACAD_DIMASSOC
360
E9C
  0
DICTIONARY
  5
EF7
330
EEA
100
AcDbDictionary
280
     1
281
     1
  3
ACAD_DIMASSOC
360
EF8
  0
DICTIONARY
  5
F18
330
F0C
100
AcDbDictionary
280
     1
281
     1
  3
ACAD_DIMASSOC
360
F19
  0
DICTIONARY
  5
BE
102
{ACAD_REACTORS
330
C
102
}
330
C
100
AcDbDictionary
281
     1
  0
DICTIONARY
  5
D
102
{ACAD_REACTORS
330
C
102
}
330
C
100
AcDbDictionary
281
     1
  0
DICTIONARY
  5
1A
102
{ACAD_REACTORS
330
C
102
}
330
C
100
AcDbDictionary
281
     1
  3
Model
350
22
  3
配置1
350
1E
  3
配置2
350
26
  0
DICTIONARY
  5
BD
102
{ACAD_REACTORS
330
C
102
}
330
C
100
AcDbDictionary
281
     1
  0
DICTIONARY
  5
17
102
{ACAD_REACTORS
330
C
102
}
330
C
100
AcDbDictionary
281
     1
  3
Standard
350
18
  0
DICTIONARY
  5
19
102
{ACAD_REACTORS
330
C
102
}
330
C
100
AcDbDictionary
281
     1
  0
ACDBDICTIONARYWDFLT
  5
E
102
{ACAD_REACTORS
330
C
102
}
330
C
100
AcDbDictionary
281
     1
  3
Normal
350
F
100
AcDbDictionaryWithDefault
340
F
  0
DICTIONARY
  5
11A
102
{ACAD_REACTORS
330
C
102
}
330
C
100
AcDbDictionary
281
     1
  3
Standard
350
11B
  0
DICTIONARY
  5
11C1
102
{ACAD_REACTORS
330
C
102
}
330
C
100
AcDbDictionary
281
     1
  0
DICTIONARY
  5
94
102
{ACAD_REACTORS
330
C
102
}
330
C
100
AcDbDictionary
281
     1
  3
CTABLESTYLE
350
138
  3
DIMASSOC
350
96
  3
INDEXCTL
350
95
  3
PROJECTNAME
350
11BE
  0
DICTIONARY
  5
5B
102
{ACAD_REACTORS
330
C
102
}
330
C
100
AcDbDictionary
281
     1
  3
AcmBOM
350
1B5
  3
AcmStdDictionary
350
61
  3
AMDTSECTSYM_ARROWCOLOR
350
123
  0
DICTIONARY
  5
41
102
{ACAD_REACTORS
330
C
102
}
330
C
100
AcDbDictionary
281
     1
  0
DICTIONARY
  5
1B8
102
{ACAD_REACTORS
330
C
102
}
330
C
100
AcDbDictionary
281
     1
  0
XRECORD
  5
11C0
102
{ACAD_REACTORS
330
C
102
}
330
C
100
AcDbXrecord
280
     1
  1
DWGPROPS COOKIE
  2

  3

  4

  6

  7

  8

  9

300
AmdtFileType=84
301
=
302
=
303
=
304
=
305
=
306
=
307
=
308
=
309
=
 40
0.0344026736111111
 41
2453885.344806667
 42
2453885.382053484
  1

 90
        1
  0
DICTIONARY
  5
1005
102
{ACAD_REACTORS
330
3F9
102
}
330
3F9
100
AcDbDictionary
281
     1
  0
DICTIONARY
  5
C2C
102
{ACAD_REACTORS
330
3F9
102
}
330
3F9
100
AcDbDictionary
281
     1
  0
DICTIONARY
  5
1004
102
{ACAD_REACTORS
330
3F9
102
}
330
3F9
100
AcDbDictionary
281
     1
1001
ACAD
1000
<All
  0
SORTENTSTABLE
  5
CF6
102
{ACAD_REACTORS
330
8F
102
}
330
8F
100
AcDbSortentsTable
330
1F
331
CCF
  5
CD2
331
E8E
  5
ED0
331
CB6
  5
CB6
331
F90
  5
FB0
331
CBC
  5
CBD
331
CD5
  5
CDA
331
D55
  5
D74
331
F0C
  5
F92
331
CC2
  5
CC5
331
CDB
  5
CE0
331
FBD
  5
FC1
331
D74
  5
D90
331
FC3
  5
CD5
331
E3E
  5
ECE
331
FB0
  5
FBF
331
DF2
  5
E8E
331
D8E
  5
DF2
331
CA3
  5
CA3
331
CCA
  5
CCD
331
CB7
  5
CB7
331
CD0
  5
CD3
331
CBD
  5
CBE
331
CD6
  5
CDB
331
F91
  5
FBC
331
D56
  5
D81
331
CC3
  5
CC6
331
CDC
  5
CE1
331
FBE
  5
CC3
331
ECD
  5
EEA
331
D8F
  5
E18
331
CCB
  5
CCE
331
CB8
  5
CB8
331
CD1
  5
CD4
331
CBE
  5
CBF
331
CD7
  5
CDC
331
CF8
  5
D45
331
F92
  5
FBD
331
CC4
  5
CC7
331
D57
  5
D8E
331
FBF
  5
CC1
331
D42
  5
D54
331
ECE
  5
F05
331
CCC
  5
CCF
331
CD2
  5
CD6
331
EEA
  5
F90
331
CB9
  5
CB9
331
F93
  5
FBE
331
CBF
  5
CC0
331
CD8
  5
CDD
331
CC5
  5
CC8
331
FC0
  5
FC2
331
D43
  5
D55
331
DCC
  5
E64
331
ECF
  5
F0C
331
CCD
  5
CD0
331
CBA
  5
CBA
331
CD3
  5
CD8
331
CC0
  5
CC2
331
CD9
  5
CDE
331
CC6
  5
CC9
331
FC1
  5
FC3
331
D65
  5
D8F
331
F5D
  5
F93
331
D44
  5
D56
331
ED0
  5
F5D
331
CC8
  5
CCB
331
CCE
  5
CD1
331
E64
  5
ECF
331
CD4
  5
CD9
331
CF5
  5
CBB
331
CBB
  5
CBC
331
F05
  5
F91
331
CC1
  5
CC4
331
CDA
  5
CDF
331
D54
  5
D65
331
CC7
  5
CCA
331
FBC
  5
FC0
331
D81
  5
DCC
331
FC2
  5
CD7
331
D45
  5
D57
331
E18
  5
ECD
331
CC9
  5
CCC
  0
DIMASSOC
  5
DDA
102
{ACAD_REACTORS
330
DD9
102
}
330
DD9
100
AcDbDimAssoc
330
DCC
 90
        3
 70
     0
 71
     0
  1
AcDbOsnapPointRef
 72
    13
331
CD9
 73
     0
 91
        0
 40
0.0
 10
0.0
 20
0.0
 30
2.000000000000000E+50
 75
     0
  1
AcDbOsnapPointRef
 72
     1
331
CD9
 73
     0
 91
        0
 40
0.0
 10
0.0
 20
0.0
 30
2.000000000000000E+50
 75
     0
  0
DIMASSOC
  5
E00
102
{ACAD_REACTORS
330
DFF
102
}
330
DFF
100
AcDbDimAssoc
330
DF2
 90
        3
 70
     0
 71
     0
  1
AcDbOsnapPointRef
 72
    13
331
CC3
 73
     0
 91
        0
 40
0.0
 10
0.0
 20
0.0
 30
2.000000000000000E+50
 75
     0
  1
AcDbOsnapPointRef
 72
     1
331
CB7
 73
     0
 91
        0
 40
0.0
 10
0.0
 20
0.0
 30
2.000000000000000E+50
 75
     0
  0
DIMASSOC
  5
E26
102
{ACAD_REACTORS
330
E25
102
}
330
E25
100
AcDbDimAssoc
330
E18
 90
        3
 70
     0
 71
     0
  1
AcDbOsnapPointRef
 72
     1
331
CB7
 73
     0
 91
        0
 40
0.0
 10
0.0
 20
0.0
 30
2.000000000000000E+50
 75
     0
  1
AcDbOsnapPointRef
 72
    13
331
CB7
 73
     0
 91
        0
 40
0.0
 10
0.0
 20
0.0
 30
2.000000000000000E+50
 75
     0
  0
DIMASSOC
  5
E4C
102
{ACAD_REACTORS
330
E4B
102
}
330
E4B
100
AcDbDimAssoc
330
E3E
 90
        3
 70
     0
 71
     0
  1
AcDbOsnapPointRef
 72
    13
331
CC3
 73
     0
 91
        0
 40
0.0
 10
0.0
 20
0.0
 30
2.000000000000000E+50
 75
     0
  1
AcDbOsnapPointRef
 72
    13
331
CB7
 73
     0
 91
        0
 40
0.0
 10
0.0
 20
0.0
 30
2.000000000000000E+50
 75
     0
  0
DIMASSOC
  5
E72
102
{ACAD_REACTORS
330
E71
102
}
330
E71
100
AcDbDimAssoc
330
E64
 90
        3
 70
     0
 71
     0
  1
AcDbOsnapPointRef
 72
     1
331
D56
 73
     0
 91
        0
 40
0.0
 10
0.0
 20
0.0
 30
2.000000000000000E+50
 75
     0
  1
AcDbOsnapPointRef
 72
     1
331
D44
 73
     0
 91
        0
 40
0.0
 10
0.0
 20
0.0
 30
2.000000000000000E+50
 75
     0
  0
DIMASSOC
  5
E9C
102
{ACAD_REACTORS
330
E9B
102
}
330
E9B
100
AcDbDimAssoc
330
E8E
 90
        3
 70
     0
 71
     0
  1
AcDbOsnapPointRef
 72
     1
331
CC4
 73
     0
 91
        0
 40
0.0
 10
0.0
 20
0.0
 30
2.000000000000000E+50
 75
     0
  1
AcDbOsnapPointRef
 72
     1
331
CC5
 73
     0
 91
        0
 40
0.0
 10
0.0
 20
0.0
 30
2.000000000000000E+50
 75
     0
  0
DIMASSOC
  5
EF8
102
{ACAD_REACTORS
330
EF7
102
}
330
EF7
100
AcDbDimAssoc
330
EEA
 90
        3
 70
     0
 71
     0
  1
AcDbOsnapPointRef
 72
     1
331
CD9
 73
     0
 91
        0
 40
0.0
 10
0.0
 20
0.0
 30
2.000000000000000E+50
 75
     0
  1
AcDbOsnapPointRef
 72
     1
331
CD7
 73
     0
 91
        0
 40
0.0
 10
0.0
 20
0.0
 30
2.000000000000000E+50
 75
     0
  0
DIMASSOC
  5
F19
102
{ACAD_REACTORS
330
F18
102
}
330
F18
100
AcDbDimAssoc
330
F0C
 90
        2
 70
     0
 71
     0
  1
AcDbOsnapPointRef
 72
     3
331
CC1
 73
     2
 91
        0
 40
0.0
 10
0.0
 20
0.0
 30
0.0
 75
     0
  0
LAYOUT
  5
22
102
{ACAD_XDICTIONARY
360
11C4
102
}
102
{ACAD_REACTORS
330
1A
102
}
330
1A
100
AcDbPlotSettings
  1

  2
\\RD\EPSON Stylus C63 Series單色
  4
A4
  6

 40
3.757083177566528
 41
3.757076978683471
 42
3.757080078125
 43
3.757080078125
 44
209.9733276367187
 45
296.9683227539062
 46
0.0
 47
0.0
 48
0.0
 49
0.0
140
0.0
141
0.0
142
1.0
143
0.3405120737814363
 70
 11952
 72
     1
 73
     0
 74
     0
  7
彩色出圖.ctb
 75
     0
147
2.936753428137963
148
-2047.07469463503
149
-1261.649717473083
100
AcDbLayout
  1
Model
 70
     1
 71
     0
 10
0.0
 20
0.0
 11
12.0
 21
9.0
 12
0.0
 22
0.0
 32
0.0
 14
0.0
 24
0.0
 34
0.0
 15
0.0
 25
0.0
 35
0.0
146
0.0
 13
0.0
 23
0.0
 33
0.0
 16
1.0
 26
0.0
 36
0.0
 17
0.0
 27
1.0
 37
0.0
 76
     0
330
1F
1001
ACAD_PSEXT
1000
\\RD\EPSON Stylus C63 Series單色
1000
EPSON Stylus C63 Series
1000
\\RD
1000

1070
     0
  0
LAYOUT
  5
1E
102
{ACAD_XDICTIONARY
360
11C2
102
}
102
{ACAD_REACTORS
330
1A
102
}
330
1A
100
AcDbPlotSettings
  1

  2

  4

  6

 40
0.0
 41
0.0
 42
0.0
 43
0.0
 44
0.0
 45
0.0
 46
0.0
 47
0.0
 48
0.0
 49
0.0
140
0.0
141
0.0
142
1.0
143
1.0
 70
   688
 72
     0
 73
     0
 74
     5
  7
彩色出圖.ctb
 75
    16
147
1.0
148
0.0
149
0.0
100
AcDbLayout
  1
配置1
 70
     1
 71
     1
 10
0.0
 20
0.0
 11
420.0
 21
297.0
 12
0.0
 22
0.0
 32
0.0
 14
1.000000000000000E+20
 24
1.000000000000000E+20
 34
1.000000000000000E+20
 15
-1.000000000000000E+20
 25
-1.000000000000000E+20
 35
-1.000000000000000E+20
146
0.0
 13
0.0
 23
0.0
 33
0.0
 16
1.0
 26
0.0
 36
0.0
 17
0.0
 27
1.0
 37
0.0
 76
     0
330
1B
  0
LAYOUT
  5
26
102
{ACAD_XDICTIONARY
360
11C6
102
}
102
{ACAD_REACTORS
330
1A
102
}
330
1A
100
AcDbPlotSettings
  1

  2

  4

  6

 40
0.0
 41
0.0
 42
0.0
 43
0.0
 44
0.0
 45
0.0
 46
0.0
 47
0.0
 48
0.0
 49
0.0
140
0.0
141
0.0
142
1.0
143
1.0
 70
   688
 72
     0
 73
     0
 74
     5
  7
彩色出圖.ctb
 75
    16
147
1.0
148
0.0
149
0.0
100
AcDbLayout
  1
配置2
 70
     1
 71
     2
 10
0.0
 20
0.0
 11
12.0
 21
9.0
 12
0.0
 22
0.0
 32
0.0
 14
0.0
 24
0.0
 34
0.0
 15
0.0
 25
0.0
 35
0.0
146
0.0
 13
0.0
 23
0.0
 33
0.0
 16
1.0
 26
0.0
 36
0.0
 17
0.0
 27
1.0
 37
0.0
 76
     0
330
23
  0
MLINESTYLE
  5
18
102
{ACAD_REACTORS
330
17
102
}
330
17
100
AcDbMlineStyle
  2
STANDARD
 70
     0
  3

 62
   256
 51
90.0
 52
90.0
 71
     2
 49
0.5
 62
   256
  6
BYLAYER
 49
-0.5
 62
   256
  6
BYLAYER
  0
ACDBPLACEHOLDER
  5
F
102
{ACAD_REACTORS
330
E
102
}
330
E
  0
TABLESTYLE
  5
11B
102
{ACAD_REACTORS
330
11A
102
}
330
11A
100
AcDbTableStyle
  3
Standard
 70
     0
 71
     0
 40
1.5
 41
1.5
280
     0
281
     0
  7
STANDARD
140
4.5
170
     2
 62
     0
 63
     7
283
     0
274
    -2
284
     1
 64
     0
275
    -2
285
     1
 65
     0
276
    -2
286
     1
 66
     0
277
    -2
287
     1
 67
     0
278
    -2
288
     1
 68
     0
279
    -2
289
     1
 69
     0
  7
STANDARD
140
6.0
170
     5
 62
     0
 63
     7
283
     0
274
    -2
284
     1
 64
     0
275
    -2
285
     1
 65
     0
276
    -2
286
     1
 66
     0
277
    -2
287
     1
 67
     0
278
    -2
288
     1
 68
     0
279
    -2
289
     1
 69
     0
  7
STANDARD
140
4.5
170
     5
 62
     0
 63
     7
283
     0
274
    -2
284
     1
 64
     0
275
    -2
285
     1
 65
     0
276
    -2
286
     1
 66
     0
277
    -2
287
     1
 67
     0
278
    -2
288
     1
 68
     0
279
    -2
289
     1
 69
     0
  0
DICTIONARYVAR
  5
138
102
{ACAD_REACTORS
330
94
102
}
330
94
100
DictionaryVariables
280
     0
  1
STANDARD
  0
DICTIONARYVAR
  5
96
102
{ACAD_REACTORS
330
94
102
}
330
94
100
DictionaryVariables
280
     0
  1
2
  0
DICTIONARYVAR
  5
95
102
{ACAD_REACTORS
330
94
102
}
330
94
100
DictionaryVariables
280
     0
  1
0
  0
DICTIONARYVAR
  5
11BE
102
{ACAD_REACTORS
330
94
102
}
330
94
100
DictionaryVariables
280
     0
  1

  0
DICTIONARY
  5
1B5
102
{ACAD_REACTORS
330
5B
102
}
330
5B
100
AcDbDictionary
281
     1
  0
DICTIONARY
  5
61
102
{ACAD_REACTORS
330
5B
102
}
330
5B
100
AcDbDictionary
281
     1
  0
XRECORD
  5
123
102
{ACAD_REACTORS
330
5B
102
}
330
5B
100
AcDbXrecord
280
     1
 90
-1023410169
  0
DICTIONARY
  5
11C4
330
22
100
AcDbDictionary
280
     1
281
     1
  3
ACAD_XREC_ROUNDTRIP
360
11C5
  0
DICTIONARY
  5
11C2
330
1E
100
AcDbDictionary
280
     1
281
     1
  3
ACAD_XREC_ROUNDTRIP
360
11C3
  0
DICTIONARY
  5
11C6
330
26
100
AcDbDictionary
280
     1
281
     1
  3
ACAD_XREC_ROUNDTRIP
360
11C7
  0
XRECORD
  5
11C5
102
{ACAD_REACTORS
330
11C4
102
}
330
11C4
100
AcDbXrecord
280
     1
102
SHADEPLOT
 70
     0
102
SHADEPLOTRESLEVEL
 70
     2
102
SHADEPLOTCUSTOMDPI
 70
   300
  0
XRECORD
  5
11C3
102
{ACAD_REACTORS
330
11C2
102
}
330
11C2
100
AcDbXrecord
280
     1
102
SHADEPLOT
 70
     0
102
SHADEPLOTRESLEVEL
 70
     2
102
SHADEPLOTCUSTOMDPI
 70
   300
  0
XRECORD
  5
11C7
102
{ACAD_REACTORS
330
11C6
102
}
330
11C6
100
AcDbXrecord
280
     1
102
SHADEPLOT
 70
     0
102
SHADEPLOTRESLEVEL
 70
     2
102
SHADEPLOTCUSTOMDPI
 70
   300
  0
ENDSEC
  0
EOF
