  0
SECTION
  2
HEADER
  9
$ACADVER
  1
AC1015
  9
$ACADMAINTVER
 70
    20
  9
$DWGCODEPAGE
  3
ANSI_950
  9
$INSBASE
 10
0.0
 20
0.0
 30
0.0
  9
$EXTMIN
 10
1590.897267673892
 20
160.5755524938245
 30
-0.0000000000000142
  9
$EXTMAX
 10
2190.505350345765
 20
614.1755524938242
 30
297.238922023793
  9
$LIMMIN
 10
0.0
 20
0.0
  9
$LIMMAX
 10
420.0
 20
297.0
  9
$ORTHOMODE
 70
     0
  9
$REGENMODE
 70
     1
  9
$FILLMODE
 70
     1
  9
$QTEXTMODE
 70
     0
  9
$MIRRTEXT
 70
     1
  9
$LTSCALE
 40
1.0
  9
$ATTMODE
 70
     1
  9
$TEXTSIZE
 40
3.0
  9
$TRACEWID
 40
1.0
  9
$TEXTSTYLE
  7
STANDARD
  9
$CLAYER
  8
0
  9
$CELTYPE
  6
ByLayer
  9
$CECOLOR
 62
   256
  9
$CELTSCALE
 40
1.0
  9
$DISPSILH
 70
     0
  9
$DIMSCALE
 40
1.0
  9
$DIMASZ
 40
3.5
  9
$DIMEXO
 40
1.5
  9
$DIMDLI
 40
8.0
  9
$DIMRND
 40
0.0
  9
$DIMDLE
 40
0.0
  9
$DIMEXE
 40
1.5
  9
$DIMTP
 40
0.1
  9
$DIMTM
 40
0.1
  9
$DIMTXT
 40
3.5
  9
$DIMCEN
 40
0.0
  9
$DIMTSZ
 40
0.0
  9
$DIMTOL
 70
     0
  9
$DIMLIM
 70
     0
  9
$DIMTIH
 70
     0
  9
$DIMTOH
 70
     0
  9
$DIMSE1
 70
     0
  9
$DIMSE2
 70
     0
  9
$DIMTAD
 70
     1
  9
$DIMZIN
 70
     8
  9
$DIMBLK
  1

  9
$DIMASO
 70
     1
  9
$DIMSHO
 70
     1
  9
$DIMPOST
  1

  9
$DIMAPOST
  1
"
  9
$DIMALT
 70
     0
  9
$DIMALTD
 70
     2
  9
$DIMALTF
 40
0.0393701
  9
$DIMLFAC
 40
1.0
  9
$DIMTOFL
 70
     1
  9
$DIMTVP
 40
0.0
  9
$DIMTIX
 70
     0
  9
$DIMSOXD
 70
     0
  9
$DIMSAH
 70
     0
  9
$DIMBLK1
  1

  9
$DIMBLK2
  1

  9
$DIMSTYLE
  2
AM_ISO
  9
$DIMCLRD
 70
   256
  9
$DIMCLRE
 70
   256
  9
$DIMCLRT
 70
   256
  9
$DIMTFAC
 40
0.71
  9
$DIMGAP
 40
1.0
  9
$DIMJUST
 70
     0
  9
$DIMSD1
 70
     0
  9
$DIMSD2
 70
     0
  9
$DIMTOLJ
 70
     0
  9
$DIMTZIN
 70
     8
  9
$DIMALTZ
 70
     0
  9
$DIMALTTZ
 70
     0
  9
$DIMUPT
 70
     0
  9
$DIMDEC
 70
     2
  9
$DIMTDEC
 70
     8
  9
$DIMALTU
 70
     2
  9
$DIMALTTD
 70
     2
  9
$DIMTXSTY
  7
STANDARD
  9
$DIMAUNIT
 70
     0
  9
$DIMADEC
 70
     0
  9
$DIMALTRND
 40
0.0
  9
$DIMAZIN
 70
     2
  9
$DIMDSEP
 70
    46
  9
$DIMATFIT
 70
     3
  9
$DIMFRAC
 70
     0
  9
$DIMLDRBLK
  1

  9
$DIMLUNIT
 70
     2
  9
$DIMLWD
 70
    -1
  9
$DIMLWE
 70
    -1
  9
$DIMTMOVE
 70
     0
  9
$LUNITS
 70
     2
  9
$LUPREC
 70
     2
  9
$SKETCHINC
 40
1.0
  9
$FILLETRAD
 40
0.5
  9
$AUNITS
 70
     0
  9
$AUPREC
 70
     0
  9
$MENU
  1
.
  9
$ELEVATION
 40
0.0
  9
$PELEVATION
 40
0.0
  9
$THICKNESS
 40
0.0
  9
$LIMCHECK
 70
     0
  9
$CHAMFERA
 40
2.5
  9
$CHAMFERB
 40
2.5
  9
$CHAMFERC
 40
20.0
  9
$CHAMFERD
 40
0.0
  9
$SKPOLY
 70
     0
  9
$TDCREATE
 40
2453229.426093924
  9
$TDUCREATE
 40
2453229.092760591
  9
$TDUPDATE
 40
2456890.440523901
  9
$TDUUPDATE
 40
2456890.107190567
  9
$TDINDWG
 40
0.4451765278
  9
$TDUSRTIMER
 40
0.4451765278
  9
$USRTIMER
 70
     1
  9
$ANGBASE
 50
0.0
  9
$ANGDIR
 70
     0
  9
$PDMODE
 70
     0
  9
$PDSIZE
 40
0.0
  9
$PLINEWID
 40
0.0
  9
$SPLFRAME
 70
     0
  9
$SPLINETYPE
 70
     6
  9
$SPLINESEGS
 70
     8
  9
$HANDSEED
  5
73D9
  9
$SURFTAB1
 70
     6
  9
$SURFTAB2
 70
     6
  9
$SURFTYPE
 70
     6
  9
$SURFU
 70
     6
  9
$SURFV
 70
     6
  9
$UCSBASE
  2

  9
$UCSNAME
  2

  9
$UCSORG
 10
0.0
 20
0.0
 30
0.0
  9
$UCSXDIR
 10
1.0
 20
0.0
 30
0.0
  9
$UCSYDIR
 10
0.0
 20
1.0
 30
0.0
  9
$UCSORTHOREF
  2

  9
$UCSORTHOVIEW
 70
     0
  9
$UCSORGTOP
 10
0.0
 20
0.0
 30
0.0
  9
$UCSORGBOTTOM
 10
0.0
 20
0.0
 30
0.0
  9
$UCSORGLEFT
 10
0.0
 20
0.0
 30
0.0
  9
$UCSORGRIGHT
 10
0.0
 20
0.0
 30
0.0
  9
$UCSORGFRONT
 10
0.0
 20
0.0
 30
0.0
  9
$UCSORGBACK
 10
0.0
 20
0.0
 30
0.0
  9
$PUCSBASE
  2

  9
$PUCSNAME
  2

  9
$PUCSORG
 10
0.0
 20
0.0
 30
0.0
  9
$PUCSXDIR
 10
1.0
 20
0.0
 30
0.0
  9
$PUCSYDIR
 10
0.0
 20
1.0
 30
0.0
  9
$PUCSORTHOREF
  2

  9
$PUCSORTHOVIEW
 70
     0
  9
$PUCSORGTOP
 10
0.0
 20
0.0
 30
0.0
  9
$PUCSORGBOTTOM
 10
0.0
 20
0.0
 30
0.0
  9
$PUCSORGLEFT
 10
0.0
 20
0.0
 30
0.0
  9
$PUCSORGRIGHT
 10
0.0
 20
0.0
 30
0.0
  9
$PUCSORGFRONT
 10
0.0
 20
0.0
 30
0.0
  9
$PUCSORGBACK
 10
0.0
 20
0.0
 30
0.0
  9
$USERI1
 70
     0
  9
$USERI2
 70
     0
  9
$USERI3
 70
     0
  9
$USERI4
 70
     0
  9
$USERI5
 70
     0
  9
$USERR1
 40
0.0
  9
$USERR2
 40
0.0
  9
$USERR3
 40
0.0
  9
$USERR4
 40
0.0
  9
$USERR5
 40
0.0
  9
$WORLDVIEW
 70
     1
  9
$SHADEDGE
 70
     3
  9
$SHADEDIF
 70
    70
  9
$TILEMODE
 70
     1
  9
$MAXACTVP
 70
    48
  9
$PINSBASE
 10
0.0
 20
0.0
 30
0.0
  9
$PLIMCHECK
 70
     0
  9
$PEXTMIN
 10
1.000000000000000E+20
 20
1.000000000000000E+20
 30
1.000000000000000E+20
  9
$PEXTMAX
 10
-1.000000000000000E+20
 20
-1.000000000000000E+20
 30
-1.000000000000000E+20
  9
$PLIMMIN
 10
0.0
 20
0.0
  9
$PLIMMAX
 10
420.0
 20
297.0
  9
$UNITMODE
 70
     0
  9
$VISRETAIN
 70
     1
  9
$PLINEGEN
 70
     0
  9
$PSLTSCALE
 70
     1
  9
$TREEDEPTH
 70
  3020
  9
$CMLSTYLE
  2
Standard
  9
$CMLJUST
 70
     0
  9
$CMLSCALE
 40
20.0
  9
$PROXYGRAPHICS
 70
     1
  9
$MEASUREMENT
 70
     1
  9
$CELWEIGHT
370
    -1
  9
$ENDCAPS
280
     0
  9
$JOINSTYLE
280
     0
  9
$LWDISPLAY
290
     0
  9
$INSUNITS
 70
     4
  9
$HYPERLINKBASE
  1

  9
$STYLESHEET
  1
單色出圖.ctb
  9
$XEDIT
290
     1
  9
$CEPSNTYPE
380
     0
  9
$PSTYLEMODE
290
     1
  9
$FINGERPRINTGUID
  2
{83CC3F96-1E22-4B35-B707-B045C3365130}
  9
$VERSIONGUID
  2
{CE4E17C1-E790-40B7-BF0C-3A250AE155D4}
  9
$EXTNAMES
290
     1
  9
$PSVPSCALE
 40
0.0
  9
$OLESTARTUP
290
     0
  0
ENDSEC
  0
SECTION
  2
CLASSES
  0
CLASS
  1
ACDBDICTIONARYWDFLT
  2
AcDbDictionaryWithDefault
  3
ObjectDBX Classes
 90
        0
280
     0
281
     0
  0
CLASS
  1
ACDBPLACEHOLDER
  2
AcDbPlaceHolder
  3
ObjectDBX Classes
 90
        0
280
     0
281
     0
  0
CLASS
  1
LAYOUT
  2
AcDbLayout
  3
ObjectDBX Classes
 90
        0
280
     0
281
     0
  0
CLASS
  1
AMGSETTINGSOBJ
  2
AmgSettingsObj
  3
"AcadM|Product Description: AutoCAD Mechanical 2000|Company: Autodesk"
 90
        0
280
     0
281
     0
  0
CLASS
  1
ACME_DOCUMENT
  2
AcMeDbDoc
  3
AcMeServices
 90
        0
280
     0
281
     0
  0
CLASS
  1
ACMESCOPE
  2
AcMeScope
  3
AcMeServices
 90
        0
280
     0
281
     0
  0
CLASS
  1
ACMECOMMANDHISTORY
  2
AcMeCommandHistory
  3
AcMeServices
 90
        0
280
     0
281
     0
  0
CLASS
  1
ACIMSYSVARMAN
  2
AcImSysVarManager
  3
AcMeServices
 90
        0
280
     0
281
     0
  0
CLASS
  1
ACIMREALSYSVAR
  2
AcImRealSysVar
  3
AcMeServices
 90
        0
280
     0
281
     0
  0
CLASS
  1
ACIMINTSYSVAR
  2
AcImIntSysVar
  3
AcMeServices
 90
        0
280
     0
281
     0
  0
CLASS
  1
ACMEDRAWINGMAN
  2
AcMeDrawingMan
  3
AcMeServices
 90
        0
280
     0
281
     0
  0
CLASS
  1
ACMEVIEW
  2
AcMeView
  3
AcMeServices
 90
        0
280
     0
281
     0
  0
CLASS
  1
ACDBENTITYCACHE
  2
AcMeEntityCache
  3
AcMeServices
 90
        0
280
     0
281
     0
  0
CLASS
  1
GSMANAGER
  2
AcMeGSManager
  3
AcMeServices
 90
        0
280
     0
281
     0
  0
CLASS
  1
AMDTINTERNALREACTOR
  2
AmdtInternalReactor
  3
AcMeServices
 90
        0
280
     0
281
     0
  0
CLASS
  1
ACMESTATEMGR
  2
AcMeStateMgr
  3
AcMeServices
 90
        0
280
     0
281
     0
  0
CLASS
  1
ACGREFMASTER
  2
AcGrefMaster
  3
AcAttribServices
 90
        0
280
     0
281
     0
  0
CLASS
  1
ACME_DATABASE
  2
AcMeDbDatabase
  3
AcMeServices
 90
        0
280
     0
281
     0
  0
CLASS
  1
ACRFINSADJUSTERMGR
  2
AcRfInsAdjusterMgr
  3
AcMeServices
 90
        0
280
     0
281
     0
  0
CLASS
  1
ACGREFACADMASTER
  2
AcGrefacadMaster
  3
AcGrefServices
 90
        0
280
     0
281
     0
  0
CLASS
  1
AMIMASTER
  2
AmiMaster
  3
AmiServices
 90
        0
280
     0
281
     0
  0
CLASS
  1
ACMDATADICTIONARY
  2
AcmDataDictionary
  3
"AcmSymBB|Product Description: AutoCAD Mechanical 2004 DX|Company: Autodesk"
 90
        0
280
     0
281
     0
  0
CLASS
  1
ACMDATAENTRYBLOCK
  2
AcmDataEntryBlock
  3
"AcmSymBB|Product Description: AutoCAD Mechanical 2004 DX|Company: Autodesk"
 90
        0
280
     0
281
     0
  0
CLASS
  1
ACIMSTRSYSVAR
  2
AcImStrSysVar
  3
AcMeServices
 90
        0
280
     0
281
     0
  0
CLASS
  1
ACMSTANDARDISO
  2
AcmStandardISO
  3
"Amdt_StdImp|Product Description: AutoCAD Mechanical 2004 DX|Company: Autodesk"
 90
        0
280
     0
281
     0
  0
CLASS
  1
AMGOBJPROPCFG
  2
AmgObjPropCfg
  3
"AmgLay|Product Description: AutoCAD Mechanical 2000|Company: Autodesk"
 90
        1
280
     0
281
     0
  0
CLASS
  1
AMDTEDGESTANDARDISO
  2
AmdtEdgeStdISO
  3
"Amdt_StdImp|Product Description: AutoCAD Mechanical 2004 DX|Company: Autodesk"
 90
    32768
280
     0
281
     0
  0
CLASS
  1
ACMSURFSTANDARDISO
  2
AcmSurfTextStdISO
  3
"Amdt_StdImp|Product Description: AutoCAD Mechanical 2004 DX|Company: Autodesk"
 90
        0
280
     0
281
     0
  0
CLASS
  1
ACMFCFSTANDARDISO
  2
AcmFCFStdISO
  3
"Amdt_StdImp|Product Description: AutoCAD Mechanical 2004 DX|Company: Autodesk"
 90
        0
280
     0
281
     0
  0
CLASS
  1
ACMWELDSTANDARDISO
  2
AcmWeldingStdISO
  3
"Amdt_StdImp|Product Description: AutoCAD Mechanical 2004 DX|Company: Autodesk"
 90
        0
280
     0
281
     0
  0
CLASS
  1
ACMIDSTANDARDISO
  2
AcmIdStdISO
  3
"Amdt_StdImp|Product Description: AutoCAD Mechanical 2004 DX|Company: Autodesk"
 90
        0
280
     0
281
     0
  0
CLASS
  1
ACMDATUMSTANDARDISO
  2
AcmDatumStdISO
  3
"Amdt_StdImp|Product Description: AutoCAD Mechanical 2004 DX|Company: Autodesk"
 90
        0
280
     0
281
     0
  0
CLASS
  1
ACMBOMSTANDARDISO
  2
AcmBOMStdISO
  3
"Amdt_StdImp|Product Description: AutoCAD Mechanical 2004 DX|Company: Autodesk"
 90
        0
280
     0
281
     0
  0
CLASS
  1
ACMDETAILSTANDARDISO
  2
AmdtDetailSymStdISO
  3
"Amdt_StdImp|Product Description: AutoCAD Mechanical 2004 DX|Company: Autodesk"
 90
        0
280
     0
281
     0
  0
CLASS
  1
ACMSECTIONSTANDARDISO
  2
AmdtSectionSymStdISO
  3
"Amdt_StdImp|Product Description: AutoCAD Mechanical 2004 DX|Company: Autodesk"
 90
        0
280
     0
281
     0
  0
CLASS
  1
ACMCENTERLINESTANDARDISO
  2
AmdtCenterLineStdISO
  3
"Amdt_StdImp|Product Description: AutoCAD Mechanical 2004 DX|Company: Autodesk"
 90
        0
280
     0
281
     0
  0
CLASS
  1
ACMNOTESTANDARDISO
  2
AmdtNoteStdISO
  3
"Amdt_StdImp|Product Description: AutoCAD Mechanical 2004 DX|Company: Autodesk"
 90
        0
280
     0
281
     0
  0
CLASS
  1
ACAMGLAYSTD
  2
AcAmgLayStd
  3
"AcAmgLayStd|Product Description: AutoCAD Mechanical 2000|Company: Autodesk"
 90
        0
280
     0
281
     0
  0
CLASS
  1
ACAMGDIMSTD
  2
AcAmgDimStd
  3
"AcAmgDimStd|Product Description: AutoCAD Mechanical 2000|Company: Autodesk"
 90
        0
280
     0
281
     0
  0
CLASS
  1
ACAMGHOLECHARTSTDISO
  2
AcAmgHoleChartStdISO
  3
ACMSYMBB_MODULE_NAME
 90
        0
280
     0
281
     0
  0
CLASS
  1
ACAMGTITLESTD
  2
AcAmgTitleStd
  3
"TITLEAPP"
 90
        0
280
     0
281
     0
  0
CLASS
  1
ACAMGFILTERDAT
  2
AcAmgFilterDat
  3
"AcadM|Product Description: AutoCAD Mechanical 2000|Company: Autodesk"
 90
    32768
280
     0
281
     0
  0
CLASS
  1
DIMASSOC
  2
AcDbDimAssoc
  3
"AcDbDimAssoc|Product Desc:     AcDim ARX App For Dimension|Company:          Autodesk, Inc.|WEB Address:      www.autodesk.com"
 90
        0
280
     0
281
     0
  0
CLASS
  1
LAYER_INDEX
  2
AcDbLayerIndex
  3
ObjectDBX Classes
 90
        0
280
     0
281
     0
  0
CLASS
  1
IDBUFFER
  2
AcDbIdBuffer
  3
ObjectDBX Classes
 90
        0
280
     0
281
     0
  0
CLASS
  1
DICTIONARYVAR
  2
AcDbDictionaryVar
  3
ObjectDBX Classes
 90
        0
280
     0
281
     0
  0
CLASS
  1
AMDTFORMULAUPDATEDISPATCHER
  2
AmdtFormulaUpdateDispatcher
  3
AcMeServices
 90
    32768
280
     0
281
     0
  0
CLASS
  1
AMDTNOTE
  2
AmdtNote
  3
"AcmSymBB|Product Description: AutoCAD Mechanical 2004 DX|Company: Autodesk"
 90
    33791
280
     0
281
     1
  0
CLASS
  1
TABLESTYLE
  2
AcDbTableStyle
  3
ObjectDBX Classes
 90
     2047
280
     0
281
     0
  0
CLASS
  1
AM_DRAWING_MGR
  2
AcDmDwgMgr
  3
AcMechDwgViewMgmt
 90
        0
280
     0
281
     0
  0
CLASS
  1
AM_DWG_DOCUMENT
  2
AcDmDwgDocument
  3
AcMechDwgViewMgmt
 90
        0
280
     0
281
     0
  0
CLASS
  1
AM_DWG_SHEET
  2
AcDmSheet
  3
AcMechDwgViewMgmt
 90
        0
280
     0
281
     0
  0
CLASS
  1
AM_VIEWDIMPARMAP
  2
AcDmViewDimParMap
  3
AcMechDwgViewMgmt
 90
        0
280
     0
281
     0
  0
CLASS
  1
AM_DWGMGR_NAME
  2
AcDmDwgMgrName
  3
AcMechDwgViewMgmt
 90
        0
280
     0
281
     0
  0
CLASS
  1
AMDTMENUSTATEMGR
  2
AmdtMenuStateMgr
  3
McadcomServices
 90
        0
280
     0
281
     0
  0
CLASS
  1
AMDTMCOMMENUSTATE
  2
AmdtMcomMenuState
  3
McadcomServices
 90
        0
280
     0
281
     0
  0
CLASS
  1
MAPIAMMOUDLE
  2
MApiAmModule
  3
MApiAmServices
 90
        0
280
     0
281
     0
  0
CLASS
  1
AMDTADMENUSTATE
  2
AmdtAdMenuState
  3
DesignerServices
 90
        0
280
     0
281
     0
  0
CLASS
  1
ADAPPL
  2
AcAdAppl
  3
DesignerServices
 90
        0
280
     0
281
     0
  0
CLASS
  1
DEPMGR
  2
AcAdDepMgr
  3
DesignerServices
 90
        0
280
     0
281
     0
  0
CLASS
  1
PARAMMGR
  2
AcAdParamMgr
  3
DesignerServices
 90
        0
280
     0
281
     0
  0
CLASS
  1
PARAMSCOPE
  2
AcAdParamScope
  3
DesignerServices
 90
        0
280
     0
281
     0
  0
CLASS
  1
NAMEDAPPL
  2
AcAdNamedAppl
  3
DesignerServices
 90
        0
280
     0
281
     0
  0
CLASS
  1
AMDTDMMENUSTATE
  2
AmdtDmMenuState
  3
AcMechDwgViewMgmt
 90
        0
280
     0
281
     0
  0
CLASS
  1
AMDTAMMENUSTATE
  2
AmdtAmMenuState
  3
DesignerAssemblies
 90
        0
280
     0
281
     0
  0
CLASS
  1
ACAMPROJECT
  2
AcAmProject
  3
DesignerAssemblies
 90
        0
280
     0
281
     0
  0
CLASS
  1
ACAMGRCOMPDEF
  2
AcAmGrCompDef
  3
DesignerAssemblies
 90
        0
280
     0
281
     0
  0
CLASS
  1
ACCMCONTEXT
  2
AcCmContext
  3
DesignerAssemblies
 90
        0
280
     0
281
     0
  0
CLASS
  1
ACAMCOMPDEF
  2
AcAmCompDef
  3
DesignerAssemblies
 90
        0
280
     0
281
     0
  0
CLASS
  1
ACAMCOMPDEFMGR
  2
AcAmCompDefMgr
  3
DesignerAssemblies
 90
        0
280
     0
281
     0
  0
CLASS
  1
AMCONTEXTMGR
  2
AcAmContextMgr
  3
DesignerAssemblies
 90
        0
280
     0
281
     0
  0
CLASS
  1
ACAMCONTEXTMODELER
  2
AcAmContextModeler
  3
DesignerAssemblies
 90
        0
280
     0
281
     0
  0
CLASS
  1
CATALOGSTATE
  2
AcAmCatalogState
  3
DesignerAssemblies
 90
        0
280
     0
281
     0
  0
CLASS
  1
ACAMGRCOMPDEFSET
  2
AcAmGrCompDefSet
  3
DesignerAssemblies
 90
        0
280
     0
281
     0
  0
CLASS
  1
AMDTBROWSERDBTAB
  2
AmdtBrowserDbTab
  3
McadcomServices
 90
        0
280
     0
281
     0
  0
CLASS
  1
CBROWSERAPPOBJECT
  2
CBrowserAppObject
  3
McadcomServices
 90
        0
280
     0
281
     0
  0
CLASS
  1
DM_PLACEHOLDER
  2
AcDmSelsetPlaceholder
  3
AcMechDwgViewMgmt
 90
        0
280
     0
281
     0
  0
CLASS
  1
AMDTEDGESTANDARDISO13715
  2
AmdtEdgeStdISO13715
  3
"Amdt_StdImp|Product Description: AutoCAD Mechanical 2004 DX|Company: Autodesk"
 90
        0
280
     0
281
     0
  0
CLASS
  1
ACMTHREADLINESTANDARDISO
  2
AmdtThreadLineStdISO
  3
"Amdt_StdImp|Product Description: AutoCAD Mechanical 2004 DX|Company: Autodesk"
 90
        0
280
     0
281
     0
  0
CLASS
  1
AMDTNOTETEMPLATEDB
  2
AmdtNoteTemplateDB
  3
AMDT_STDIMP_MODULE_NAME
 90
        0
280
     0
281
     0
  0
CLASS
  1
ACRFATTGENMGR
  2
AcRfAttGeneralMgr
  3
AcAttribServices
 90
    32768
280
     0
281
     0
  0
CLASS
  1
ASAPP
  2
AcAsAppObject
  3
AutoSurfServices
 90
        0
280
     0
281
     0
  0
CLASS
  1
IM_STATIC_MAN
  2
AcImStaticVarManager
  3
AcMeServices
 90
        0
280
     0
281
     0
  0
CLASS
  1
ACIMDBLSTATICVAR
  2
AcImDblStaticVar
  3
AcMeServices
 90
        0
280
     0
281
     0
  0
CLASS
  1
ACIMSTRSTATICVAR
  2
AcImStrStaticVar
  3
AcMeServices
 90
        0
280
     0
281
     0
  0
CLASS
  1
ACIMINTSTATICVAR
  2
AcImIntStaticVar
  3
AcMeServices
 90
        0
280
     0
281
     0
  0
CLASS
  1
ACASGREFMASTER
  2
AcAsGrefMaster
  3
AutoSurfResolverServices
 90
        0
280
     0
281
     0
  0
CLASS
  1
ACADGREFMODULE
  2
AcAdGrefModule
  3
AdGrefServices
 90
        0
280
     0
281
     0
  0
CLASS
  1
AMDTMAPISURFMOUDULE
  2
AmdtMApiSurfModule
  3
MApiSurfServices
 90
        0
280
     0
281
     0
  0
CLASS
  1
MAPIADMODULE
  2
MApiAdModule
  3
MApiAdServices
 90
        0
280
     0
281
     0
  0
CLASS
  1
SORTENTSTABLE
  2
AcDbSortentsTable
  3
ObjectDBX Classes
 90
        0
280
     0
281
     0
  0
CLASS
  1
ADPART
  2
AcAdPart
  3
DesignerServices
 90
    32768
280
     0
281
     1
  0
CLASS
  1
ADBASE
  2
AcAdBase
  3
DesignerServices
 90
    32768
280
     0
281
     0
  0
CLASS
  1
BODYID
  2
AcAdBodyId
  3
DesignerServices
 90
    32768
280
     0
281
     0
  0
CLASS
  1
WORKPLANEDISPLAYMGR
  2
AcAdDisplayMgr
  3
DesignerServices
 90
    32768
280
     0
281
     0
  0
CLASS
  1
ACCMBODY
  2
AcCmBody
  3
DesignerAssemblies
 90
    32768
280
     0
281
     0
  0
CLASS
  1
ACAMCOMPENT
  2
AcAmCompEnt
  3
DesignerAssemblies
 90
    32768
280
     0
281
     1
  0
CLASS
  1
ACAMCOMPFEEDBACK
  2
AcAmCompFeedback
  3
DesignerAssemblies
 90
    32768
280
     0
281
     0
  0
CLASS
  1
ACAMCOMP
  2
AcAmComp
  3
DesignerAssemblies
 90
    32768
280
     0
281
     0
  0
CLASS
  1
ACAMCOMPENTCLONE
  2
AcAmCompEntClone
  3
DesignerAssemblies
 90
    32768
280
     0
281
     1
  0
CLASS
  1
ACAMCLONEREACTOR
  2
AcAmGrCompCloneReactor
  3
DesignerAssemblies
 90
    32768
280
     0
281
     0
  0
CLASS
  1
ADDATUMPLANEABS
  2
AcAdDatumPlaneAbs
  3
DesignerServices
 90
    32768
280
     0
281
     0
  0
CLASS
  1
ADDATUMAXISABS
  2
AcAdDatumAxisAbs
  3
DesignerServices
 90
    32768
280
     0
281
     0
  0
CLASS
  1
ADDATUMORIENTEDPLANE
  2
AcAdDatumOrientedPlane
  3
DesignerServices
 90
    32768
280
     0
281
     0
  0
CLASS
  1
ACAD_LINE
  2
AcAdLine
  3
DesignerServices
 90
    32768
280
     0
281
     1
  0
CLASS
  1
ACADLINEACAD
  2
AcAdVirtualBoundedLineAcad
  3
DesignerServices
 90
    32768
280
     0
281
     0
  0
CLASS
  1
ACADREFLINEACAD
  2
AcAdVirtualReferenceLine
  3
DesignerServices
 90
    32768
280
     0
281
     0
  0
CLASS
  1
ACADCONSLINE
  2
AcAdConstrainedLine
  3
DesignerServices
 90
    32768
280
     0
281
     0
  0
CLASS
  1
ACADCONSGROUP
  2
AcAdConstraintGroup
  3
DesignerServices
 90
    32768
280
     0
281
     0
  0
CLASS
  1
ACADIMPPTACAD
  2
AcAdVirtualImplicitPoint
  3
DesignerServices
 90
    32768
280
     0
281
     0
  0
CLASS
  1
ACADCONSPOINT
  2
AcAdConstrainedPoint
  3
DesignerServices
 90
    32768
280
     0
281
     0
  0
CLASS
  1
ADPCURCNS
  2
AcAdPointCurveConstr
  3
DesignerServices
 90
    32768
280
     0
281
     0
  0
CLASS
  1
ADPROJCNS
  2
AcAdProjectionConstr
  3
DesignerServices
 90
    32768
280
     0
281
     0
  0
CLASS
  1
ADVERCNS
  2
AcAdVerticalConstr
  3
DesignerServices
 90
    32768
280
     0
281
     0
  0
CLASS
  1
ADHORCNS
  2
AcAdHorizontalConstr
  3
DesignerServices
 90
    32768
280
     0
281
     0
  0
CLASS
  1
ADCOLNCNS
  2
AcAdColinearConstr
  3
DesignerServices
 90
    32768
280
     0
281
     0
  0
CLASS
  1
ADPARCNS
  2
AcAdParallelConstr
  3
DesignerServices
 90
    32768
280
     0
281
     0
  0
ENDSEC
  0
SECTION
  2
TABLES
  0
TABLE
  2
VPORT
  5
8
330
0
100
AcDbSymbolTable
 70
     6
  0
VPORT
  5
73CE
330
8
100
AcDbSymbolTableRecord
100
AcDbViewportTableRecord
  2
*Active
 70
     0
 10
0.0
 20
0.0
 11
1.0
 21
1.0
 12
587.8668734367059
 22
-67.16815334724362
 13
0.0
 23
0.0
 14
2.5
 24
2.5
 15
10.0
 25
10.0
 16
0.0
 26
0.0
 36
1.0
 17
1248.473340879117
 27
495.068632219338
 37
0.0
 40
605.9549379307876
 41
1.312169312169312
 42
50.0
 43
0.0
 44
0.0
 50
0.0
 51
0.0
 71
     0
 72
   100
 73
     1
 74
     3
 75
     0
 76
     0
 77
     0
 78
     0
281
     0
 65
     0
110
0.0
120
0.0
130
0.0
111
1.0
121
0.0
131
0.0
112
0.0
122
1.0
132
0.0
 79
     0
146
0.0
  0
ENDTAB
  0
TABLE
  2
LTYPE
  5
5
330
0
100
AcDbSymbolTable
 70
    17
  0
LTYPE
  5
14
330
5
100
AcDbSymbolTableRecord
100
AcDbLinetypeTableRecord
  2
ByBlock
 70
     0
  3

 72
    65
 73
     0
 40
0.0
  0
LTYPE
  5
15
330
5
100
AcDbSymbolTableRecord
100
AcDbLinetypeTableRecord
  2
ByLayer
 70
     0
  3

 72
    65
 73
     0
 40
0.0
  0
LTYPE
  5
16
330
5
100
AcDbSymbolTableRecord
100
AcDbLinetypeTableRecord
  2
Continuous
 70
     0
  3
Solid line
 72
    65
 73
     0
 40
0.0
  0
LTYPE
  5
4D
330
5
100
AcDbSymbolTableRecord
100
AcDbLinetypeTableRecord
  2
AM_ISO02W050
 70
     0
  3
__ __ __ __ __ __ __ __ __ __ __ __ __ __ __
 72
    65
 73
     2
 40
7.5
 49
6.0
 74
     0
 49
-1.5
 74
     0
  0
LTYPE
  5
4E
330
5
100
AcDbSymbolTableRecord
100
AcDbLinetypeTableRecord
  2
AM_ISO08W050
 70
     0
  3
____ . ____ . ____ . ____ . ____ . ____ . ____
 72
    65
 73
     4
 40
18.0
 49
12.0
 74
     0
 49
-1.5
 74
     0
 49
3.0
 74
     0
 49
-1.5
 74
     0
  0
LTYPE
  5
4F
330
5
100
AcDbSymbolTableRecord
100
AcDbLinetypeTableRecord
  2
AM_ISO09W050
 70
     0
  3
_____ . . _____ . . _____ . . ____ .. ____
 72
    65
 73
     6
 40
22.5
 49
12.0
 74
     0
 49
-1.5
 74
     0
 49
3.0
 74
     0
 49
-1.5
 74
     0
 49
3.0
 74
     0
 49
-1.5
 74
     0
  0
LTYPE
  5
50
330
5
100
AcDbSymbolTableRecord
100
AcDbLinetypeTableRecord
  2
Amconstr
 70
     0
  3
_______________________
 72
    65
 73
     2
 40
9999.0
 49
9999.0
 74
     0
 49
0.0
 74
     0
  0
LTYPE
  5
51
330
5
100
AcDbSymbolTableRecord
100
AcDbLinetypeTableRecord
  2
AM_ISO08W050x2
 70
     0
  3
__ . __ . __ . __ . __ . __
 72
    65
 73
     4
 40
9.0
 49
6.0
 74
     0
 49
-0.75
 74
     0
 49
1.5
 74
     0
 49
-0.75
 74
     0
  0
LTYPE
  5
52
330
5
100
AcDbSymbolTableRecord
100
AcDbLinetypeTableRecord
  2
AM_ISO02W050x2
 70
     0
  3
 _ _ _ _ _ _ _ _ _ _ _ _
 72
    65
 73
     2
 40
3.75
 49
3.0
 74
     0
 49
-0.75
 74
     0
  0
LTYPE
  5
55
330
5
100
AcDbSymbolTableRecord
100
AcDbLinetypeTableRecord
  2
Amzigzag
 70
     0
  3
/\/-/\/-/\/-/\/-/\/-/\/
 72
    65
 73
     2
 40
11.0001
 49
0.0001
 74
     4
 75
   135
340
54
 46
0.04
 50
0.0
 44
0.0
 45
0.0
 49
-11.0
 74
     0
  0
LTYPE
  5
63
330
5
100
AcDbSymbolTableRecord
100
AcDbLinetypeTableRecord
  2
ACISOWELD
 70
     0
  3
_ _ _ _ _
 72
    65
 73
     2
 40
2.0
 49
2.0
 74
     0
 49
-1.0
 74
     0
  0
LTYPE
  5
64
330
5
100
AcDbSymbolTableRecord
100
AcDbLinetypeTableRecord
  2
ACISOTGB
 70
     0
  3
__ . . __ . .
 72
    65
 73
     6
 40
9.0
 49
4.0
 74
     0
 49
-1.0
 74
     0
 49
1.0
 74
     0
 49
-1.0
 74
     0
 49
1.0
 74
     0
 49
-1.0
 74
     0
  0
LTYPE
  5
65
330
5
100
AcDbSymbolTableRecord
100
AcDbLinetypeTableRecord
  2
ACISOTGL
 70
     0
  3
_ _ _ _ _
 72
    65
 73
     2
 40
3.0
 49
2.0
 74
     0
 49
-1.0
 74
     0
  0
LTYPE
  5
68
330
5
100
AcDbSymbolTableRecord
100
AcDbLinetypeTableRecord
  2
CENTER
 70
     0
  3
__ . __
 72
    65
 73
     4
 40
7.0
 49
4.0
 74
     0
 49
-1.0
 74
     0
 49
1.0
 74
     0
 49
-1.0
 74
     0
  0
LTYPE
  5
D47
330
5
100
AcDbSymbolTableRecord
100
AcDbLinetypeTableRecord
  2
HIDDEN2
 70
     0
  3
Hidden (.5x) _ _ _ _ _ _ _ _ _ _ _ _ _ _ _ _ _
 72
    65
 73
     2
 40
0.1875
 49
0.125
 74
     0
 49
-0.0625
 74
     0
  0
LTYPE
  5
2B41
330
5
100
AcDbSymbolTableRecord
100
AcDbLinetypeTableRecord
  2
HIDDEN
 70
     0
  3
Hidden __ __ __ __ __ __ __ __ __ __ __ __ __ _
 72
    65
 73
     2
 40
0.375
 49
0.25
 74
     0
 49
-0.125
 74
     0
  0
LTYPE
  5
2D83
330
5
100
AcDbSymbolTableRecord
100
AcDbLinetypeTableRecord
  2
PHANTOM2
 70
     0
  3
Phantom (.5x) ___ _ _ ___ _ _ ___ _ _ ___ _ _
 72
    65
 73
     6
 40
31.75
 49
15.875
 74
     0
 49
-3.174999999999999
 74
     0
 49
3.174999999999999
 74
     0
 49
-3.174999999999999
 74
     0
 49
3.174999999999999
 74
     0
 49
-3.174999999999999
 74
     0
  0
LTYPE
  5
73AF
330
5
100
AcDbSymbolTableRecord
100
AcDbLinetypeTableRecord
  2
ASULTYPE
 70
     0
  3
實線
 72
    65
 73
     2
 40
3.0
 49
2.5
 74
     0
 49
0.5
 74
     0
  0
LTYPE
  5
73B0
330
5
100
AcDbSymbolTableRecord
100
AcDbLinetypeTableRecord
  2
ASVLTYPE
 70
     0
  3
__ __ __ __ __ __ __ __ __ __ __ __ __ __ __ __ __ __ __ __ __
 72
    65
 73
     2
 40
0.75
 49
0.5
 74
     0
 49
-0.25
 74
     0
  0
ENDTAB
  0
TABLE
  2
LAYER
  5
2
102
{ACAD_XDICTIONARY
360
2DFC
102
}
330
0
100
AcDbSymbolTable
 70
     7
  0
LAYER
  5
10
330
2
100
AcDbSymbolTableRecord
100
AcDbLayerTableRecord
  2
0
 70
     0
 62
     7
  6
Continuous
370
    -3
390
F
  0
LAYER
  5
87
330
2
100
AcDbSymbolTableRecord
100
AcDbLayerTableRecord
  2
AM_5
 70
     0
 62
     5
  6
Continuous
370
    25
390
F
  0
LAYER
  5
97
330
2
100
AcDbSymbolTableRecord
100
AcDbLayerTableRecord
  2
Defpoints
 70
     0
 62
     7
  6
Continuous
290
     0
370
    -3
390
F
  0
LAYER
  5
14A
330
2
100
AcDbSymbolTableRecord
100
AcDbLayerTableRecord
  2
AM_7
 70
     0
 62
     1
  6
AM_ISO08W050
370
    25
390
F
  0
LAYER
  5
494
330
2
100
AcDbSymbolTableRecord
100
AcDbLayerTableRecord
  2
AM_VIS
 70
     2
 62
     7
  6
Continuous
370
    50
390
F
  0
LAYER
  5
D48
330
2
100
AcDbSymbolTableRecord
100
AcDbLayerTableRecord
  2
AM_4
 70
     0
 62
     3
  6
Continuous
370
    25
390
F
  0
LAYER
  5
180F
330
2
100
AcDbSymbolTableRecord
100
AcDbLayerTableRecord
  2
LOGO
 70
     0
 62
     7
  6
Continuous
370
    -3
390
F
  0
ENDTAB
  0
TABLE
  2
STYLE
  5
3
330
0
100
AcDbSymbolTable
 70
     6
  0
STYLE
  5
11
330
3
100
AcDbSymbolTableRecord
100
AcDbTextStyleTableRecord
  2
STANDARD
 70
     0
 40
0.0
 41
1.0
 50
0.0
 71
     0
 42
3.0
  3
ISOCP.SHX
  4
CHINESET.SHX
  0
STYLE
  5
54
330
3
100
AcDbSymbolTableRecord
100
AcDbTextStyleTableRecord
  2

 70
     1
 40
0.0
 41
1.0
 50
0.0
 71
     0
 42
2.5
  3
ltypeshp.shx
  4

  0
STYLE
  5
56
330
3
100
AcDbSymbolTableRecord
100
AcDbTextStyleTableRecord
  2
ACISOTS
 70
     0
 40
1.0
 41
1.0
 50
0.0
 71
     0
 42
2.5
  3
isocp.shx
  4
chineset.shx
  0
STYLE
  5
62
330
3
100
AcDbSymbolTableRecord
100
AcDbTextStyleTableRecord
  2
ACISOGDT
 70
     0
 40
0.0
 41
1.0
 50
0.0
 71
     0
 42
2.5
  3
amgdt.shx
  4

  0
STYLE
  5
499
330
3
100
AcDbSymbolTableRecord
100
AcDbTextStyleTableRecord
  2
CHINESET
 70
     0
 40
0.0
 41
1.0
 50
0.0
 71
     0
 42
2.5
  3
simplex.shx
  4
CHINESET.shx
  0
STYLE
  5
31F3
330
3
100
AcDbSymbolTableRecord
100
AcDbTextStyleTableRecord
  2
DAYUS
 70
     0
 40
0.0
 41
1.0
 50
0.0
 71
     0
 42
4.0
  3
simplex.shx
  4
dayus.shx
  0
ENDTAB
  0
TABLE
  2
VIEW
  5
6
330
0
100
AcDbSymbolTable
 70
     0
  0
ENDTAB
  0
TABLE
  2
UCS
  5
7
330
0
100
AcDbSymbolTable
 70
     0
  0
ENDTAB
  0
TABLE
  2
APPID
  5
9
330
0
100
AcDbSymbolTable
 70
    24
  0
APPID
  5
12
330
9
100
AcDbSymbolTableRecord
100
AcDbRegAppTableRecord
  2
ACAD
 70
     0
  0
APPID
  5
30
330
9
100
AcDbSymbolTableRecord
100
AcDbRegAppTableRecord
  2
MCAD_NO_VIS
 70
     0
  0
APPID
  5
31
330
9
100
AcDbSymbolTableRecord
100
AcDbRegAppTableRecord
  2
ACAD_TEMP_GRAPHIC
 70
     0
  0
APPID
  5
42
330
9
100
AcDbSymbolTableRecord
100
AcDbRegAppTableRecord
  2
ACATTRIBSERVICES
 70
     0
  0
APPID
  5
E0
330
9
100
AcDbSymbolTableRecord
100
AcDbRegAppTableRecord
  2
GENIUS_GENDTOL_13
 70
     0
  0
APPID
  5
150
330
9
100
AcDbSymbolTableRecord
100
AcDbRegAppTableRecord
  2
GENIUS_GENODEF_13
 70
     0
  0
APPID
  5
151
330
9
100
AcDbSymbolTableRecord
100
AcDbRegAppTableRecord
  2
GENIUS_GENOBJ-N-CRS_13
 70
     0
  0
APPID
  5
152
330
9
100
AcDbSymbolTableRecord
100
AcDbRegAppTableRecord
  2
GENIUS_GENOENT_13
 70
     0
  0
APPID
  5
153
330
9
100
AcDbSymbolTableRecord
100
AcDbRegAppTableRecord
  2
GENIUS_GENOLIS_13
 70
     0
  0
APPID
  5
154
330
9
100
AcDbSymbolTableRecord
100
AcDbRegAppTableRecord
  2
GENIUS_GENOREF_13
 70
     0
  0
APPID
  5
6B1
330
9
100
AcDbSymbolTableRecord
100
AcDbRegAppTableRecord
  2
GENIUS_GENDIMSH_14
 70
     0
  0
APPID
  5
2B45
330
9
100
AcDbSymbolTableRecord
100
AcDbRegAppTableRecord
  2
GENIUS_GENOBJ-N-CEN_13
 70
     0
  0
APPID
  5
2D85
330
9
100
AcDbSymbolTableRecord
100
AcDbRegAppTableRecord
  2
AD_DRAW
 70
     0
  0
APPID
  5
2DA3
330
9
100
AcDbSymbolTableRecord
100
AcDbRegAppTableRecord
  2
DESIGNERASSEMBLIES
 70
     0
  0
APPID
  5
2DA8
330
9
100
AcDbSymbolTableRecord
100
AcDbRegAppTableRecord
  2
ACADM_DIM_EDIT
 70
     0
  0
APPID
  5
2DA9
330
9
100
AcDbSymbolTableRecord
100
AcDbRegAppTableRecord
  2
AMDT_DM_ADJ
 70
     0
  0
APPID
  5
2DFA
330
9
100
AcDbSymbolTableRecord
100
AcDbRegAppTableRecord
  2
GENIUS_GENREC_14
 70
     0
  0
APPID
  5
2DFB
330
9
100
AcDbSymbolTableRecord
100
AcDbRegAppTableRecord
  2
GENIUS_GENOBJ-N-REC_13
 70
     0
  0
APPID
  5
300E
330
9
100
AcDbSymbolTableRecord
100
AcDbRegAppTableRecord
  2
GENIUS_GENDIM_13
 70
     0
  0
APPID
  5
300F
330
9
100
AcDbSymbolTableRecord
100
AcDbRegAppTableRecord
  2
GENIUS_GE3DTOL_13
 70
     0
  0
APPID
  5
308F
330
9
100
AcDbSymbolTableRecord
100
AcDbRegAppTableRecord
  2
ASURF_PCURVE_APPNAME
 70
     0
  0
APPID
  5
3094
330
9
100
AcDbSymbolTableRecord
100
AcDbRegAppTableRecord
  2
AMG_3D2D_5.0
 70
     0
  0
APPID
  5
31F8
330
9
100
AcDbSymbolTableRecord
100
AcDbRegAppTableRecord
  2
ACAD_PSEXT
 70
     0
  0
APPID
  5
5590
330
9
100
AcDbSymbolTableRecord
100
AcDbRegAppTableRecord
  2
ACAD_DSTYLE_DIMTEXT_FILL
 70
     0
  0
ENDTAB
  0
TABLE
  2
DIMSTYLE
  5
A
330
0
100
AcDbSymbolTable
 70
    10
100
AcDbDimStyleTable
 71
     1
340
6B
  0
DIMSTYLE
105
6B
330
A
100
AcDbSymbolTableRecord
100
AcDbDimStyleTableRecord
  2
AM_ISO
 70
     0
  4
"
 41
3.5
 42
1.5
 43
8.0
 44
1.5
 47
0.1
 48
0.1
 73
     0
 74
     0
 77
     1
 78
     8
 79
     2
140
3.5
141
0.0
143
0.0393701
146
0.71
147
1.0
172
     1
176
   256
177
   256
178
   256
271
     2
272
     2
283
     0
284
     8
340
11
371
    -1
372
    -1
  0
DIMSTYLE
105
6C
102
{ACAD_REACTORS
330
70E9
102
}
330
A
100
AcDbSymbolTableRecord
100
AcDbDimStyleTableRecord
  2
AM_ISO$3
 70
     0
  4
"
 41
3.5
 42
1.5
 43
8.0
 44
1.5
 47
0.1
 48
0.1
 73
     0
 77
     1
 78
     8
 79
     2
140
3.5
141
0.0
143
0.0393701
146
0.71
147
1.0
176
   256
177
   256
178
   256
271
     2
272
     2
283
     0
284
     8
288
     1
289
     0
340
11
371
    -1
372
    -1
  0
DIMSTYLE
105
6D
102
{ACAD_REACTORS
330
7285
102
}
330
A
100
AcDbSymbolTableRecord
100
AcDbDimStyleTableRecord
  2
AM_ISO$4
 70
     0
  4
"
 41
3.5
 42
1.5
 43
8.0
 44
1.5
 47
0.1
 48
0.1
 73
     0
 77
     1
 78
     8
 79
     2
140
3.5
141
0.0
143
0.0393701
146
0.71
147
1.0
176
   256
177
   256
178
   256
271
     2
272
     2
283
     0
284
     8
288
     1
289
     0
340
11
371
    -1
372
    -1
  0
DIMSTYLE
105
6E
330
A
100
AcDbSymbolTableRecord
100
AcDbDimStyleTableRecord
  2
AM_ISO$6
 70
     0
  4
"
 41
3.5
 42
1.5
 43
8.0
 44
1.5
 47
0.1
 48
0.1
 73
     0
 74
     0
 78
     8
 79
     2
140
3.5
141
0.0
143
0.0393701
146
0.71
147
1.0
172
     1
176
   256
177
   256
178
   256
271
     2
272
     2
283
     0
284
     8
340
11
371
    -1
372
    -1
  0
DIMSTYLE
105
6F
102
{ACAD_REACTORS
330
5504
330
7121
330
72EC
330
72EE
102
}
330
A
100
AcDbSymbolTableRecord
100
AcDbDimStyleTableRecord
  2
AM_ISO$7
 70
     0
  4
"
 41
3.5
 42
1.5
 43
8.0
 44
1.5
 47
0.1
 48
0.1
 73
     0
 74
     0
 77
     1
 78
     8
 79
     2
140
3.5
141
0.0
143
0.0393701
146
0.71
147
1.0
172
     1
176
   256
177
   256
178
   256
271
     2
272
     2
283
     0
284
     8
340
11
371
    -1
372
    -1
  0
DIMSTYLE
105
70
330
A
100
AcDbSymbolTableRecord
100
AcDbDimStyleTableRecord
  2
AM_ISO$SF
 70
     0
  4
"
 41
2.5
 42
1.0
 43
10.0
 44
1.0
 47
0.1
 48
0.1
 73
     0
 74
     0
 75
     1
 76
     1
 77
     1
 78
     8
 79
     2
140
3.5
141
0.0
143
0.0393701
146
0.71
147
1.5
172
     1
176
   256
177
   256
178
     2
271
     2
272
     3
274
     4
283
     0
284
     8
340
11
371
    -1
372
    -1
  0
DIMSTYLE
105
75
330
A
100
AcDbSymbolTableRecord
100
AcDbDimStyleTableRecord
  2
AM_ISO$SH
 70
     0
  4
"
 41
2.5
 42
1.0
 43
10.0
 44
1.0
 47
0.1
 48
0.1
 73
     0
 74
     0
 75
     1
 76
     1
 77
     1
 78
     8
 79
     2
140
3.5
141
0.0
143
0.0393701
144
2.0
146
0.71
147
1.5
172
     1
173
     1
176
   256
177
   256
178
     2
271
     2
272
     3
274
     4
283
     0
284
     8
340
11
341
71
343
71
371
    -1
372
    -1
  0
DIMSTYLE
105
31F5
102
{ACAD_REACTORS
330
5759
330
572B
330
577F
330
6F47
330
6F71
330
6F9B
330
6FF6
330
7020
330
7089
330
70C9
330
7134
330
7167
330
7191
330
71BF
330
71E9
330
7217
330
72CB
330
7300
330
7333
330
7366
102
}
330
A
100
AcDbSymbolTableRecord
100
AcDbDimStyleTableRecord
  2
AM_ISO$0
 70
     0
  4
"
 41
3.0
 42
1.0
 43
15.0
 44
1.0
 47
0.1
 48
0.1
 73
     0
 74
     0
 77
     1
 78
     8
 79
     2
140
3.5
141
0.0
143
0.0393701
146
0.71
147
1.0
172
     1
176
   256
177
   256
178
   256
271
     2
272
     2
283
     0
284
     8
340
11
371
    -1
372
    -1
  0
DIMSTYLE
105
31F6
330
A
100
AcDbSymbolTableRecord
100
AcDbDimStyleTableRecord
  2
AM_ANSI$7
 70
     0
  4
"
 40
1.333333333333333
 41
3.0
 42
1.5
 43
9.0
 44
2.0
 47
0.1
 48
0.1
 73
     0
 74
     0
 77
     3
 78
     8
 79
     2
140
5.0
141
0.0
143
0.0393701
146
0.6
147
0.8
172
     1
176
   256
177
   256
178
   256
271
     2
272
     2
284
     8
340
31F3
371
    -1
372
    -1
  0
DIMSTYLE
105
3E6F
330
A
100
AcDbSymbolTableRecord
100
AcDbDimStyleTableRecord
  2
AM_ANSI
 70
     0
  4
"
 40
1.25
 41
3.0
 42
1.5
 43
9.0
 44
2.0
 47
0.1
 48
0.1
 73
     0
 74
     0
 77
     3
 78
     8
 79
     2
140
3.0
141
0.0
143
0.0393701
146
0.6
147
0.8
172
     1
176
   256
177
   256
178
   256
271
     2
272
     2
284
     8
340
31F3
371
    -1
372
    -1
  0
ENDTAB
  0
TABLE
  2
BLOCK_RECORD
  5
1
330
0
100
AcDbSymbolTable
 70
    26
  0
BLOCK_RECORD
  5
1F
102
{ACAD_XDICTIONARY
360
159
102
}
330
1
100
AcDbSymbolTableRecord
100
AcDbBlockTableRecord
  2
*Model_Space
340
22
  0
BLOCK_RECORD
  5
1B
102
{ACAD_XDICTIONARY
360
2CA5
102
}
330
1
100
AcDbSymbolTableRecord
100
AcDbBlockTableRecord
  2
*Paper_Space
340
1E
  0
BLOCK_RECORD
  5
23
102
{ACAD_XDICTIONARY
360
2CA7
102
}
330
1
100
AcDbSymbolTableRecord
100
AcDbBlockTableRecord
  2
*Paper_Space0
340
26
  0
BLOCK_RECORD
  5
71
330
1
100
AcDbSymbolTableRecord
100
AcDbBlockTableRecord
  2
GENAXEH
340
0
  0
BLOCK_RECORD
  5
30E8
330
1
100
AcDbSymbolTableRecord
100
AcDbBlockTableRecord
  2
_DotSmall
340
0
  0
BLOCK_RECORD
  5
572C
330
1
100
AcDbSymbolTableRecord
100
AcDbBlockTableRecord
  2
*D4
340
0
  0
BLOCK_RECORD
  5
575A
330
1
100
AcDbSymbolTableRecord
100
AcDbBlockTableRecord
  2
*D5
340
0
  0
BLOCK_RECORD
  5
5780
330
1
100
AcDbSymbolTableRecord
100
AcDbBlockTableRecord
  2
*D6
340
0
  0
BLOCK_RECORD
  5
6F48
330
1
100
AcDbSymbolTableRecord
100
AcDbBlockTableRecord
  2
*D7
340
0
  0
BLOCK_RECORD
  5
6F72
330
1
100
AcDbSymbolTableRecord
100
AcDbBlockTableRecord
  2
*D8
340
0
  0
BLOCK_RECORD
  5
6F9C
330
1
100
AcDbSymbolTableRecord
100
AcDbBlockTableRecord
  2
*D9
340
0
  0
BLOCK_RECORD
  5
6FF7
330
1
100
AcDbSymbolTableRecord
100
AcDbBlockTableRecord
  2
*D10
340
0
  0
BLOCK_RECORD
  5
7021
330
1
100
AcDbSymbolTableRecord
100
AcDbBlockTableRecord
  2
*D11
340
0
  0
BLOCK_RECORD
  5
708A
330
1
100
AcDbSymbolTableRecord
100
AcDbBlockTableRecord
  2
*D12
340
0
  0
BLOCK_RECORD
  5
70CA
330
1
100
AcDbSymbolTableRecord
100
AcDbBlockTableRecord
  2
*D13
340
0
  0
BLOCK_RECORD
  5
70EA
330
1
100
AcDbSymbolTableRecord
100
AcDbBlockTableRecord
  2
*D14
340
0
  0
BLOCK_RECORD
  5
7135
330
1
100
AcDbSymbolTableRecord
100
AcDbBlockTableRecord
  2
*D15
340
0
  0
BLOCK_RECORD
  5
7168
330
1
100
AcDbSymbolTableRecord
100
AcDbBlockTableRecord
  2
*D16
340
0
  0
BLOCK_RECORD
  5
7192
330
1
100
AcDbSymbolTableRecord
100
AcDbBlockTableRecord
  2
*D17
340
0
  0
BLOCK_RECORD
  5
71C0
330
1
100
AcDbSymbolTableRecord
100
AcDbBlockTableRecord
  2
*D18
340
0
  0
BLOCK_RECORD
  5
71EA
330
1
100
AcDbSymbolTableRecord
100
AcDbBlockTableRecord
  2
*D19
340
0
  0
BLOCK_RECORD
  5
7218
330
1
100
AcDbSymbolTableRecord
100
AcDbBlockTableRecord
  2
*D20
340
0
  0
BLOCK_RECORD
  5
7286
330
1
100
AcDbSymbolTableRecord
100
AcDbBlockTableRecord
  2
*D21
340
0
  0
BLOCK_RECORD
  5
72CC
330
1
100
AcDbSymbolTableRecord
100
AcDbBlockTableRecord
  2
*D22
340
0
  0
BLOCK_RECORD
  5
7301
330
1
100
AcDbSymbolTableRecord
100
AcDbBlockTableRecord
  2
*D23
340
0
  0
BLOCK_RECORD
  5
7334
330
1
100
AcDbSymbolTableRecord
100
AcDbBlockTableRecord
  2
*D24
340
0
  0
BLOCK_RECORD
  5
7367
330
1
100
AcDbSymbolTableRecord
100
AcDbBlockTableRecord
  2
*D25
340
0
  0
ENDTAB
  0
ENDSEC
  0
SECTION
  2
BLOCKS
  0
BLOCK
  5
20
330
1F
100
AcDbEntity
  8
0
100
AcDbBlockBegin
  2
*Model_Space
 70
     0
 10
0.0
 20
0.0
 30
0.0
  3
*Model_Space
  1

  0
ENDBLK
  5
21
330
1F
100
AcDbEntity
  8
0
100
AcDbBlockEnd
  0
BLOCK
  5
1C
330
1B
100
AcDbEntity
 67
     1
  8
0
100
AcDbBlockBegin
  2
*Paper_Space
 70
     0
 10
0.0
 20
0.0
 30
0.0
  3
*Paper_Space
  1

  0
ENDBLK
  5
1D
330
1B
100
AcDbEntity
 67
     1
  8
0
100
AcDbBlockEnd
  0
BLOCK
  5
24
330
23
100
AcDbEntity
  8
0
100
AcDbBlockBegin
  2
*Paper_Space0
 70
     0
 10
0.0
 20
0.0
 30
0.0
  3
*Paper_Space0
  1

  0
ENDBLK
  5
25
330
23
100
AcDbEntity
  8
0
100
AcDbBlockEnd
  0
BLOCK
  5
73
330
71
100
AcDbEntity
  8
0
100
AcDbBlockBegin
  2
GENAXEH
 70
     0
 10
0.0
 20
0.0
 30
0.0
  3
GENAXEH
  1

  0
LINE
  5
72
330
71
100
AcDbEntity
  8
0
100
AcDbLine
 10
-1.0
 20
0.0
 30
0.0
 11
1.0
 21
0.0
 31
0.0
  0
ENDBLK
  5
74
330
71
100
AcDbEntity
  8
0
100
AcDbBlockEnd
  0
BLOCK
  5
30E9
330
30E8
100
AcDbEntity
  8
0
100
AcDbBlockBegin
  2
_DotSmall
 70
     0
 10
0.0
 20
0.0
 30
0.0
  3
_DotSmall
  1

  0
LWPOLYLINE
  5
30EA
330
30E8
100
AcDbEntity
  8
0
  6
ByBlock
 62
     0
100
AcDbPolyline
 90
        2
 70
     1
 43
0.5
 10
-0.0625
 20
0.0
 42
1.0
 10
0.0625
 20
0.0
 42
1.0
  0
ENDBLK
  5
30EB
330
30E8
100
AcDbEntity
  8
0
100
AcDbBlockEnd
  0
BLOCK
  5
5736
330
572C
100
AcDbEntity
  8
0
100
AcDbBlockBegin
  2
*D4
 70
     1
 10
0.0
 20
0.0
 30
0.0
  3
*D4
  1

  0
LINE
  5
6F1C
330
572C
100
AcDbEntity
  8
AM_5
100
AcDbLine
 10
1662.824651978018
 20
506.6076968850471
 30
0.0
 11
1650.824650978018
 21
506.6076968850471
 31
0.0
  0
LINE
  5
6F1D
330
572C
100
AcDbEntity
  8
AM_5
100
AcDbLine
 10
1662.824651978018
 20
492.6076968850471
 30
0.0
 11
1650.824650978018
 21
492.6076968850471
 31
0.0
  0
LINE
  5
6F1E
330
572C
100
AcDbEntity
  8
AM_5
100
AcDbLine
 10
1651.824650978018
 20
503.6076968850472
 30
0.0
 11
1651.824650978018
 21
495.6076968850472
 31
0.0
  0
SOLID
  5
6F1F
330
572C
100
AcDbEntity
  8
AM_5
100
AcDbTrace
 10
1651.324650978018
 20
503.6076968850472
 30
0.0
 11
1652.324650978018
 21
503.6076968850472
 31
0.0
 12
1651.824650978018
 22
506.6076968850471
 32
0.0
 13
1651.824650978018
 23
506.6076968850471
 33
0.0
  0
SOLID
  5
6F20
330
572C
100
AcDbEntity
  8
AM_5
100
AcDbTrace
 10
1651.324650978018
 20
495.6076968850472
 30
0.0
 11
1652.324650978018
 21
495.6076968850472
 31
0.0
 12
1651.824650978018
 22
492.6076968850471
 32
0.0
 13
1651.824650978018
 23
492.6076968850471
 33
0.0
  0
MTEXT
  5
6F21
330
572C
100
AcDbEntity
  8
AM_5
100
AcDbMText
 10
1649.074650978018
 20
499.6076968850474
 30
0.0
 40
3.5
 41
0.0
 71
     5
 72
     1
  1
%%c14
 11
0.0000000000000001
 21
1.0
 31
0.0
 73
     1
 44
1.0
1001
ACAD
1000
MTEXTBEGIN
1070
    73
1070
     1
1070
    44
1040
1.0
1070
    74
1070
     0
1000
MTEXTEND
  0
POINT
  5
6F22
330
572C
100
AcDbEntity
  8
Defpoints
 62
     0
100
AcDbPoint
 10
1663.824651978018
 20
506.6076968850471
 30
0.0
  0
POINT
  5
6F23
330
572C
100
AcDbEntity
  8
Defpoints
 62
     0
100
AcDbPoint
 10
1663.824651978018
 20
492.6076968850471
 30
0.0
  0
POINT
  5
6F24
330
572C
100
AcDbEntity
  8
Defpoints
 62
     0
100
AcDbPoint
 10
1651.824650978018
 20
492.6076968850471
 30
0.0
  0
ENDBLK
  5
5737
330
572C
100
AcDbEntity
  8
0
100
AcDbBlockEnd
  0
BLOCK
  5
5764
330
575A
100
AcDbEntity
  8
0
100
AcDbBlockBegin
  2
*D5
 70
     1
 10
0.0
 20
0.0
 30
0.0
  3
*D5
  1

  0
LINE
  5
6F25
330
575A
100
AcDbEntity
  8
AM_5
100
AcDbLine
 10
1670.824651978018
 20
507.1076968850471
 30
0.0
 11
1642.824650978018
 21
507.1076968850472
 31
0.0
  0
LINE
  5
6F26
330
575A
100
AcDbEntity
  8
AM_5
100
AcDbLine
 10
1670.824651978018
 20
492.1076968850472
 30
0.0
 11
1642.824650978018
 21
492.1076968850472
 31
0.0
  0
LINE
  5
6F27
330
575A
100
AcDbEntity
  8
AM_5
100
AcDbLine
 10
1643.824650978018
 20
504.1076968850472
 30
0.0
 11
1643.824650978018
 21
495.1076968850472
 31
0.0
  0
SOLID
  5
6F28
330
575A
100
AcDbEntity
  8
AM_5
100
AcDbTrace
 10
1643.324650978018
 20
504.1076968850472
 30
0.0
 11
1644.324650978018
 21
504.1076968850472
 31
0.0
 12
1643.824650978018
 22
507.1076968850472
 32
0.0
 13
1643.824650978018
 23
507.1076968850472
 33
0.0
  0
SOLID
  5
6F29
330
575A
100
AcDbEntity
  8
AM_5
100
AcDbTrace
 10
1643.324650978018
 20
495.1076968850472
 30
0.0
 11
1644.324650978018
 21
495.1076968850472
 31
0.0
 12
1643.824650978018
 22
492.1076968850472
 32
0.0
 13
1643.824650978018
 23
492.1076968850472
 33
0.0
  0
MTEXT
  5
6F2A
330
575A
100
AcDbEntity
  8
AM_5
100
AcDbMText
 10
1641.074650978018
 20
499.6076968850474
 30
0.0
 40
3.5
 41
0.0
 71
     5
 72
     1
  1
%%c15
 11
0.0000000000000001
 21
1.0
 31
0.0
 73
     1
 44
1.0
1001
ACAD
1000
MTEXTBEGIN
1070
    73
1070
     1
1070
    44
1040
1.0
1070
    74
1070
     0
1000
MTEXTEND
  0
POINT
  5
6F2B
330
575A
100
AcDbEntity
  8
Defpoints
 62
     0
100
AcDbPoint
 10
1671.824651978018
 20
507.1076968850471
 30
0.0
  0
POINT
  5
6F2C
330
575A
100
AcDbEntity
  8
Defpoints
 62
     0
100
AcDbPoint
 10
1671.824651978018
 20
492.1076968850472
 30
0.0
  0
POINT
  5
6F2D
330
575A
100
AcDbEntity
  8
Defpoints
 62
     0
100
AcDbPoint
 10
1643.824650978018
 20
492.1076968850472
 30
0.0
  0
ENDBLK
  5
5765
330
575A
100
AcDbEntity
  8
0
100
AcDbBlockEnd
  0
BLOCK
  5
578A
330
5780
100
AcDbEntity
  8
0
100
AcDbBlockBegin
  2
*D6
 70
     1
 10
0.0
 20
0.0
 30
0.0
  3
*D6
  1

  0
LINE
  5
6F2E
330
5780
100
AcDbEntity
  8
AM_5
100
AcDbLine
 10
1678.824651978018
 20
519.6076968850471
 30
0.0
 11
1634.824650978018
 21
519.6076968850471
 31
0.0
  0
LINE
  5
6F2F
330
5780
100
AcDbEntity
  8
AM_5
100
AcDbLine
 10
1678.824651978018
 20
479.6076968850472
 30
0.0
 11
1634.824650978018
 21
479.6076968850472
 31
0.0
  0
LINE
  5
6F30
330
5780
100
AcDbEntity
  8
AM_5
100
AcDbLine
 10
1635.824650978018
 20
516.6076968850472
 30
0.0
 11
1635.824650978018
 21
482.6076968850472
 31
0.0
  0
SOLID
  5
6F31
330
5780
100
AcDbEntity
  8
AM_5
100
AcDbTrace
 10
1635.324650978018
 20
516.6076968850472
 30
0.0
 11
1636.324650978018
 21
516.6076968850472
 31
0.0
 12
1635.824650978018
 22
519.6076968850471
 32
0.0
 13
1635.824650978018
 23
519.6076968850471
 33
0.0
  0
SOLID
  5
6F32
330
5780
100
AcDbEntity
  8
AM_5
100
AcDbTrace
 10
1635.324650978018
 20
482.6076968850472
 30
0.0
 11
1636.324650978018
 21
482.6076968850472
 31
0.0
 12
1635.824650978018
 22
479.6076968850472
 32
0.0
 13
1635.824650978018
 23
479.6076968850472
 33
0.0
  0
MTEXT
  5
6F33
330
5780
100
AcDbEntity
  8
AM_5
100
AcDbMText
 10
1633.074650978018
 20
499.6076968850474
 30
0.0
 40
3.5
 41
0.0
 71
     5
 72
     1
  1
%%c40
 11
0.0000000000000001
 21
1.0
 31
0.0
 73
     1
 44
1.0
1001
ACAD
1000
MTEXTBEGIN
1070
    73
1070
     1
1070
    44
1040
1.0
1070
    74
1070
     0
1000
MTEXTEND
  0
POINT
  5
6F34
330
5780
100
AcDbEntity
  8
Defpoints
 62
     0
100
AcDbPoint
 10
1679.824651978018
 20
519.6076968850471
 30
0.0
  0
POINT
  5
6F35
330
5780
100
AcDbEntity
  8
Defpoints
 62
     0
100
AcDbPoint
 10
1679.824651978018
 20
479.6076968850472
 30
0.0
  0
POINT
  5
6F36
330
5780
100
AcDbEntity
  8
Defpoints
 62
     0
100
AcDbPoint
 10
1635.824650978018
 20
479.6076968850472
 30
0.0
  0
ENDBLK
  5
578B
330
5780
100
AcDbEntity
  8
0
100
AcDbBlockEnd
  0
BLOCK
  5
6F52
330
6F48
100
AcDbEntity
  8
0
100
AcDbBlockBegin
  2
*D7
 70
     1
 10
0.0
 20
0.0
 30
0.0
  3
*D7
  1

  0
LINE
  5
6FC0
330
6F48
100
AcDbEntity
  8
AM_5
100
AcDbLine
 10
1746.837106663745
 20
339.3511596362961
 30
0.0
 11
1746.837106663745
 21
363.0721034449348
 31
0.0
  0
LINE
  5
6FC1
330
6F48
100
AcDbEntity
  8
AM_5
100
AcDbLine
 10
1792.837106663745
 20
339.3511596362962
 30
0.0
 11
1792.837106663745
 21
363.0721034449348
 31
0.0
  0
LINE
  5
6FC2
330
6F48
100
AcDbEntity
  8
AM_5
100
AcDbLine
 10
1749.837106663745
 20
362.0721034449348
 30
0.0
 11
1789.837106663745
 21
362.0721034449348
 31
0.0
  0
SOLID
  5
6FC3
330
6F48
100
AcDbEntity
  8
AM_5
100
AcDbTrace
 10
1749.837106663745
 20
362.5721034449348
 30
0.0
 11
1749.837106663745
 21
361.5721034449348
 31
0.0
 12
1746.837106663745
 22
362.0721034449348
 32
0.0
 13
1746.837106663745
 23
362.0721034449348
 33
0.0
  0
SOLID
  5
6FC4
330
6F48
100
AcDbEntity
  8
AM_5
100
AcDbTrace
 10
1789.837106663745
 20
362.5721034449348
 30
0.0
 11
1789.837106663745
 21
361.5721034449348
 31
0.0
 12
1792.837106663745
 22
362.0721034449348
 32
0.0
 13
1792.837106663745
 23
362.0721034449348
 33
0.0
  0
MTEXT
  5
6FC5
330
6F48
100
AcDbEntity
  8
AM_5
100
AcDbMText
 10
1769.837106663745
 20
364.8221034449348
 30
0.0
 40
3.5
 41
0.0
 71
     5
 72
     1
  1
46
 73
     1
 44
1.0
1001
ACAD
1000
MTEXTBEGIN
1070
    73
1070
     1
1070
    44
1040
1.0
1070
    74
1070
     0
1000
MTEXTEND
  0
POINT
  5
6FC6
330
6F48
100
AcDbEntity
  8
Defpoints
 62
     0
100
AcDbPoint
 10
1746.837106663745
 20
338.3511596362961
 30
0.0
  0
POINT
  5
6FC7
330
6F48
100
AcDbEntity
  8
Defpoints
 62
     0
100
AcDbPoint
 10
1792.837106663745
 20
338.3511596362962
 30
0.0
  0
POINT
  5
6FC8
330
6F48
100
AcDbEntity
  8
Defpoints
 62
     0
100
AcDbPoint
 10
1792.837106663745
 20
362.0721034449348
 30
0.0
  0
ENDBLK
  5
6F53
330
6F48
100
AcDbEntity
  8
0
100
AcDbBlockEnd
  0
BLOCK
  5
6F7C
330
6F72
100
AcDbEntity
  8
0
100
AcDbBlockBegin
  2
*D8
 70
     1
 10
0.0
 20
0.0
 30
0.0
  3
*D8
  1

  0
LINE
  5
6FB7
330
6F72
100
AcDbEntity
  8
AM_5
100
AcDbLine
 10
1748.837106663745
 20
350.0721034449348
 30
0.0
 11
1733.837106663745
 21
350.0721034449348
 31
0.0
  0
LINE
  5
6FB8
330
6F72
100
AcDbEntity
  8
AM_5
100
AcDbLine
 10
1748.837106663745
 20
300.0721034449348
 30
0.0
 11
1733.837106663745
 21
300.0721034449348
 31
0.0
  0
LINE
  5
6FB9
330
6F72
100
AcDbEntity
  8
AM_5
100
AcDbLine
 10
1734.837106663745
 20
347.0721034449348
 30
0.0
 11
1734.837106663745
 21
303.0721034449348
 31
0.0
  0
SOLID
  5
6FBA
330
6F72
100
AcDbEntity
  8
AM_5
100
AcDbTrace
 10
1734.337106663745
 20
347.0721034449348
 30
0.0
 11
1735.337106663745
 21
347.0721034449348
 31
0.0
 12
1734.837106663745
 22
350.0721034449348
 32
0.0
 13
1734.837106663745
 23
350.0721034449348
 33
0.0
  0
SOLID
  5
6FBB
330
6F72
100
AcDbEntity
  8
AM_5
100
AcDbTrace
 10
1734.337106663745
 20
303.0721034449348
 30
0.0
 11
1735.337106663745
 21
303.0721034449348
 31
0.0
 12
1734.837106663745
 22
300.0721034449348
 32
0.0
 13
1734.837106663745
 23
300.0721034449348
 33
0.0
  0
MTEXT
  5
6FBC
330
6F72
100
AcDbEntity
  8
AM_5
100
AcDbMText
 10
1732.087106663745
 20
325.0721034449351
 30
0.0
 40
3.5
 41
0.0
 71
     5
 72
     1
  1
50
 11
0.0000000000000001
 21
1.0
 31
0.0
 73
     1
 44
1.0
1001
ACAD
1000
MTEXTBEGIN
1070
    73
1070
     1
1070
    44
1040
1.0
1070
    74
1070
     0
1000
MTEXTEND
  0
POINT
  5
6FBD
330
6F72
100
AcDbEntity
  8
Defpoints
 62
     0
100
AcDbPoint
 10
1749.837106663745
 20
350.0721034449348
 30
0.0
  0
POINT
  5
6FBE
330
6F72
100
AcDbEntity
  8
Defpoints
 62
     0
100
AcDbPoint
 10
1749.837106663745
 20
300.0721034449348
 30
0.0
  0
POINT
  5
6FBF
330
6F72
100
AcDbEntity
  8
Defpoints
 62
     0
100
AcDbPoint
 10
1734.837106663745
 20
300.0721034449348
 30
0.0
  0
ENDBLK
  5
6F7D
330
6F72
100
AcDbEntity
  8
0
100
AcDbBlockEnd
  0
BLOCK
  5
6FA6
330
6F9C
100
AcDbEntity
  8
0
100
AcDbBlockBegin
  2
*D9
 70
     1
 10
0.0
 20
0.0
 30
0.0
  3
*D9
  1

  0
LINE
  5
7071
330
6F9C
100
AcDbEntity
  8
AM_5
100
AcDbLine
 10
1749.837106663745
 20
299.0721034449348
 30
0.0
 11
1749.837106663745
 21
279.0677326581608
 31
0.0
  0
LINE
  5
7072
330
6F9C
100
AcDbEntity
  8
AM_5
100
AcDbLine
 10
1789.837106663745
 20
299.0721034449348
 30
0.0
 11
1789.837106663745
 21
279.0677326581608
 31
0.0
  0
LINE
  5
7073
330
6F9C
100
AcDbEntity
  8
AM_5
100
AcDbLine
 10
1752.837106663745
 20
280.0677326581608
 30
0.0
 11
1786.837106663745
 21
280.0677326581608
 31
0.0
  0
SOLID
  5
7074
330
6F9C
100
AcDbEntity
  8
AM_5
100
AcDbTrace
 10
1752.837106663745
 20
280.5677326581608
 30
0.0
 11
1752.837106663745
 21
279.5677326581608
 31
0.0
 12
1749.837106663745
 22
280.0677326581608
 32
0.0
 13
1749.837106663745
 23
280.0677326581608
 33
0.0
  0
SOLID
  5
7075
330
6F9C
100
AcDbEntity
  8
AM_5
100
AcDbTrace
 10
1786.837106663745
 20
280.5677326581608
 30
0.0
 11
1786.837106663745
 21
279.5677326581608
 31
0.0
 12
1789.837106663745
 22
280.0677326581608
 32
0.0
 13
1789.837106663745
 23
280.0677326581608
 33
0.0
  0
MTEXT
  5
7076
330
6F9C
100
AcDbEntity
  8
AM_5
100
AcDbMText
 10
1769.837106663745
 20
282.8177326581608
 30
0.0
 40
3.5
 41
0.0
 71
     5
 72
     1
  1
40
 73
     1
 44
1.0
1001
ACAD
1000
MTEXTBEGIN
1070
    73
1070
     1
1070
    44
1040
1.0
1070
    74
1070
     0
1000
MTEXTEND
  0
POINT
  5
7077
330
6F9C
100
AcDbEntity
  8
Defpoints
 62
     0
100
AcDbPoint
 10
1749.837106663745
 20
300.0721034449348
 30
0.0
  0
POINT
  5
7078
330
6F9C
100
AcDbEntity
  8
Defpoints
 62
     0
100
AcDbPoint
 10
1789.837106663745
 20
300.0721034449348
 30
0.0
  0
POINT
  5
7079
330
6F9C
100
AcDbEntity
  8
Defpoints
 62
     0
100
AcDbPoint
 10
1789.837106663745
 20
280.0677326581608
 30
0.0
  0
ENDBLK
  5
6FA7
330
6F9C
100
AcDbEntity
  8
0
100
AcDbBlockEnd
  0
BLOCK
  5
7001
330
6FF7
100
AcDbEntity
  8
0
100
AcDbBlockBegin
  2
*D10
 70
     1
 10
0.0
 20
0.0
 30
0.0
  3
*D10
  1

  0
LINE
  5
7068
330
6FF7
100
AcDbEntity
  8
AM_5
100
AcDbLine
 10
1858.687106663745
 20
302.0721034449348
 30
0.0
 11
1858.687106663745
 21
279.067732658161
 31
0.0
  0
LINE
  5
7069
330
6FF7
100
AcDbEntity
  8
AM_5
100
AcDbLine
 10
1868.687106663745
 20
302.0721034449348
 30
0.0
 11
1868.687106663745
 21
279.067732658161
 31
0.0
  0
LINE
  5
706A
330
6FF7
100
AcDbEntity
  8
AM_5
100
AcDbLine
 10
1861.687106663745
 20
280.067732658161
 30
0.0
 11
1865.687106663745
 21
280.067732658161
 31
0.0
  0
SOLID
  5
706B
330
6FF7
100
AcDbEntity
  8
AM_5
100
AcDbTrace
 10
1861.687106663745
 20
280.567732658161
 30
0.0
 11
1861.687106663745
 21
279.567732658161
 31
0.0
 12
1858.687106663745
 22
280.067732658161
 32
0.0
 13
1858.687106663745
 23
280.067732658161
 33
0.0
  0
SOLID
  5
706C
330
6FF7
100
AcDbEntity
  8
AM_5
100
AcDbTrace
 10
1865.687106663745
 20
280.567732658161
 30
0.0
 11
1865.687106663745
 21
279.567732658161
 31
0.0
 12
1868.687106663745
 22
280.067732658161
 32
0.0
 13
1868.687106663745
 23
280.067732658161
 33
0.0
  0
MTEXT
  5
706D
330
6FF7
100
AcDbEntity
  8
AM_5
100
AcDbMText
 10
1863.687106663745
 20
282.817732658161
 30
0.0
 40
3.5
 41
0.0
 71
     5
 72
     1
  1
10
 73
     1
 44
1.0
1001
ACAD
1000
MTEXTBEGIN
1070
    73
1070
     1
1070
    44
1040
1.0
1070
    74
1070
     0
1000
MTEXTEND
  0
POINT
  5
706E
330
6FF7
100
AcDbEntity
  8
Defpoints
 62
     0
100
AcDbPoint
 10
1858.687106663745
 20
303.0721034449348
 30
0.0
  0
POINT
  5
706F
330
6FF7
100
AcDbEntity
  8
Defpoints
 62
     0
100
AcDbPoint
 10
1868.687106663745
 20
303.0721034449348
 30
0.0
  0
POINT
  5
7070
330
6FF7
100
AcDbEntity
  8
Defpoints
 62
     0
100
AcDbPoint
 10
1868.687106663745
 20
280.067732658161
 30
0.0
  0
ENDBLK
  5
7002
330
6FF7
100
AcDbEntity
  8
0
100
AcDbBlockEnd
  0
BLOCK
  5
702D
330
7021
100
AcDbEntity
  8
0
100
AcDbBlockBegin
  2
*D11
 70
     1
 10
0.0
 20
0.0
 30
0.0
  3
*D11
  1

  0
LINE
  5
705D
330
7021
100
AcDbEntity
  8
AM_5
100
AcDbLine
 10
1901.687106663745
 20
300.7721034449347
 30
0.0
 11
1901.687106663745
 21
279.0677326581611
 31
0.0
  0
LINE
  5
705E
330
7021
100
AcDbEntity
  8
AM_5
100
AcDbLine
 10
1908.687106663745
 20
299.0721034449348
 30
0.0
 11
1908.687106663745
 21
279.0677326581611
 31
0.0
  0
LINE
  5
705F
330
7021
100
AcDbEntity
  8
AM_5
100
AcDbLine
 10
1898.687106663745
 20
280.067732658161
 30
0.0
 11
1895.687106663745
 21
280.067732658161
 31
0.0
  0
LINE
  5
7060
330
7021
100
AcDbEntity
  8
AM_5
100
AcDbLine
 10
1911.687106663745
 20
280.067732658161
 30
0.0
 11
1914.687106663745
 21
280.067732658161
 31
0.0
  0
LINE
  5
7061
330
7021
100
AcDbEntity
  8
AM_5
100
AcDbLine
 10
1901.687106663745
 20
280.067732658161
 30
0.0
 11
1908.687106663745
 21
280.067732658161
 31
0.0
  0
SOLID
  5
7062
330
7021
100
AcDbEntity
  8
AM_5
100
AcDbTrace
 10
1898.687106663745
 20
280.567732658161
 30
0.0
 11
1898.687106663745
 21
279.5677326581611
 31
0.0
 12
1901.687106663745
 22
280.067732658161
 32
0.0
 13
1901.687106663745
 23
280.067732658161
 33
0.0
  0
SOLID
  5
7063
330
7021
100
AcDbEntity
  8
AM_5
100
AcDbTrace
 10
1911.687106663745
 20
280.567732658161
 30
0.0
 11
1911.687106663745
 21
279.5677326581611
 31
0.0
 12
1908.687106663745
 22
280.067732658161
 32
0.0
 13
1908.687106663745
 23
280.067732658161
 33
0.0
  0
MTEXT
  5
7064
330
7021
100
AcDbEntity
  8
AM_5
100
AcDbMText
 10
1905.187106663745
 20
282.817732658161
 30
0.0
 40
3.5
 41
0.0
 71
     5
 72
     1
  1
7
 73
     1
 44
1.0
1001
ACAD
1000
MTEXTBEGIN
1070
    73
1070
     1
1070
    44
1040
1.0
1070
    74
1070
     0
1000
MTEXTEND
  0
POINT
  5
7065
330
7021
100
AcDbEntity
  8
Defpoints
 62
     0
100
AcDbPoint
 10
1901.687106663745
 20
301.7721034449347
 30
0.0
  0
POINT
  5
7066
330
7021
100
AcDbEntity
  8
Defpoints
 62
     0
100
AcDbPoint
 10
1908.687106663745
 20
300.0721034449348
 30
0.0
  0
POINT
  5
7067
330
7021
100
AcDbEntity
  8
Defpoints
 62
     0
100
AcDbPoint
 10
1908.687106663745
 20
280.067732658161
 30
0.0
  0
ENDBLK
  5
702E
330
7021
100
AcDbEntity
  8
0
100
AcDbBlockEnd
  0
BLOCK
  5
7094
330
708A
100
AcDbEntity
  8
0
100
AcDbBlockBegin
  2
*D12
 70
     1
 10
0.0
 20
0.0
 30
0.0
  3
*D12
  1

  0
LINE
  5
73BC
330
708A
100
AcDbEntity
  8
AM_5
100
AcDbLine
 10
2118.746998954473
 20
325.0721034449348
 30
0.0
 11
2132.032062830917
 21
325.0721034449348
 31
0.0
  0
LINE
  5
73BD
330
708A
100
AcDbEntity
  8
AM_5
100
AcDbLine
 10
2059.157461733072
 20
291.5720968184116
 30
0.0
 11
2132.032062830917
 21
291.5720968184116
 31
0.0
  0
LINE
  5
73BE
330
708A
100
AcDbEntity
  8
AM_5
100
AcDbLine
 10
2131.032062830918
 20
322.0721034449348
 30
0.0
 11
2131.032062830918
 21
294.5720968184117
 31
0.0
  0
SOLID
  5
73BF
330
708A
100
AcDbEntity
  8
AM_5
100
AcDbTrace
 10
2130.532062830917
 20
322.0721034449348
 30
0.0
 11
2131.532062830917
 21
322.0721034449348
 31
0.0
 12
2131.032062830918
 22
325.0721034449348
 32
0.0
 13
2131.032062830918
 23
325.0721034449348
 33
0.0
  0
SOLID
  5
73C0
330
708A
100
AcDbEntity
  8
AM_5
100
AcDbTrace
 10
2130.532062830917
 20
294.5720968184117
 30
0.0
 11
2131.532062830917
 21
294.5720968184117
 31
0.0
 12
2131.032062830918
 22
291.5720968184116
 32
0.0
 13
2131.032062830918
 23
291.5720968184116
 33
0.0
  0
MTEXT
  5
73C1
330
708A
100
AcDbEntity
  8
AM_5
100
AcDbMText
 10
2128.107062830917
 20
308.3221001316736
 30
0.0
 40
3.5
 41
0.0
 71
     5
 72
     1
  1
(31)
 11
0.0000000000000001
 21
1.0
 31
0.0
 73
     1
 44
1.0
1001
ACAD
1000
MTEXTBEGIN
1070
    73
1070
     1
1070
    44
1040
1.0
1070
    74
1070
     0
1000
MTEXTEND
  0
POINT
  5
73C2
330
708A
100
AcDbEntity
  8
Defpoints
 62
     0
100
AcDbPoint
 10
2117.746998954473
 20
325.0721034449348
 30
0.0
  0
POINT
  5
73C3
330
708A
100
AcDbEntity
  8
Defpoints
 62
     0
100
AcDbPoint
 10
2058.157461733072
 20
291.5720968184116
 30
0.0
  0
POINT
  5
73C4
330
708A
100
AcDbEntity
  8
Defpoints
 62
     0
100
AcDbPoint
 10
2131.032062830918
 20
291.5720968184116
 30
0.0
  0
ENDBLK
  5
7095
330
708A
100
AcDbEntity
  8
0
100
AcDbBlockEnd
  0
BLOCK
  5
70D4
330
70CA
100
AcDbEntity
  8
0
100
AcDbBlockBegin
  2
*D13
 70
     1
 10
0.0
 20
0.0
 30
0.0
  3
*D13
  1

  0
LINE
  5
70D8
330
70CA
100
AcDbEntity
  8
AM_5
100
AcDbLine
 10
1907.987106663745
 20
343.0721034449348
 30
0.0
 11
1919.987106663745
 21
343.0721034449348
 31
0.0
  0
LINE
  5
70D9
330
70CA
100
AcDbEntity
  8
AM_5
100
AcDbLine
 10
1907.987106663745
 20
307.0721034449348
 30
0.0
 11
1919.987106663745
 21
307.0721034449348
 31
0.0
  0
LINE
  5
70DA
330
70CA
100
AcDbEntity
  8
AM_5
100
AcDbLine
 10
1918.987106663745
 20
340.0721034449348
 30
0.0
 11
1918.987106663745
 21
310.0721034449348
 31
0.0
  0
SOLID
  5
70DB
330
70CA
100
AcDbEntity
  8
AM_5
100
AcDbTrace
 10
1918.487106663745
 20
340.0721034449348
 30
0.0
 11
1919.487106663744
 21
340.0721034449348
 31
0.0
 12
1918.987106663745
 22
343.0721034449348
 32
0.0
 13
1918.987106663745
 23
343.0721034449348
 33
0.0
  0
SOLID
  5
70DC
330
70CA
100
AcDbEntity
  8
AM_5
100
AcDbTrace
 10
1918.487106663745
 20
310.0721034449348
 30
0.0
 11
1919.487106663744
 21
310.0721034449348
 31
0.0
 12
1918.987106663745
 22
307.0721034449348
 32
0.0
 13
1918.987106663745
 23
307.0721034449348
 33
0.0
  0
MTEXT
  5
70DD
330
70CA
100
AcDbEntity
  8
AM_5
100
AcDbMText
 10
1916.237106663745
 20
325.0721034449351
 30
0.0
 40
3.5
 41
0.0
 71
     5
 72
     1
  1
36
 11
0.0000000000000001
 21
1.0
 31
0.0
 73
     1
 44
1.0
1001
ACAD
1000
MTEXTBEGIN
1070
    73
1070
     1
1070
    44
1040
1.0
1070
    74
1070
     0
1000
MTEXTEND
  0
POINT
  5
70DE
330
70CA
100
AcDbEntity
  8
Defpoints
 62
     0
100
AcDbPoint
 10
1906.987106663745
 20
343.0721034449348
 30
0.0
  0
POINT
  5
70DF
330
70CA
100
AcDbEntity
  8
Defpoints
 62
     0
100
AcDbPoint
 10
1906.987106663745
 20
307.0721034449348
 30
0.0
  0
POINT
  5
70E0
330
70CA
100
AcDbEntity
  8
Defpoints
 62
     0
100
AcDbPoint
 10
1918.987106663745
 20
307.0721034449348
 30
0.0
  0
ENDBLK
  5
70D5
330
70CA
100
AcDbEntity
  8
0
100
AcDbBlockEnd
  0
BLOCK
  5
70F3
330
70EA
100
AcDbEntity
  8
0
100
AcDbBlockBegin
  2
*D14
 70
     1
 10
0.0
 20
0.0
 30
0.0
  3
*D14
  1

  0
LINE
  5
711B
330
70EA
100
AcDbEntity
  8
AM_5
100
AcDbLine
 10
1904.204218875251
 20
349.3890763049912
 30
0.0
 11
1907.083834298374
 21
356.6157912651431
 31
0.0
  0
LINE
  5
711C
330
70EA
100
AcDbEntity
  8
AM_5
100
AcDbLine
 10
1907.083834298374
 20
356.6157912651431
 30
0.0
 11
1933.72271225113
 21
356.6157912651431
 31
0.0
  0
SOLID
  5
711D
330
70EA
100
AcDbEntity
  8
AM_5
100
AcDbTrace
 10
1903.662321693628
 20
349.6050050486251
 30
0.0
 11
1904.746116056873
 21
349.1731475613572
 31
0.0
 12
1902.908646413446
 22
346.1376932152563
 32
0.0
 13
1902.908646413446
 23
346.1376932152563
 33
0.0
  0
MTEXT
  5
711E
330
70EA
100
AcDbEntity
  8
AM_5
100
AcDbMText
 10
1920.903273274752
 20
359.366135753332
 30
0.0
 40
3.5
 41
0.0
 71
     5
 72
     1
  1
2-\U+22056.6 THRU
 73
     1
 44
1.0
1001
ACAD
1000
MTEXTBEGIN
1070
    73
1070
     1
1070
    44
1040
1.0
1070
    74
1070
     0
1000
MTEXTEND
  0
POINT
  5
711F
330
70EA
100
AcDbEntity
  8
Defpoints
 62
     0
100
AcDbPoint
 10
1902.908646413446
 20
346.1376932152563
 30
0.0
  0
POINT
  5
7120
330
70EA
100
AcDbEntity
  8
Defpoints
 62
     0
100
AcDbPoint
 10
1900.465566914044
 20
340.0065136746127
 30
0.0
  0
ENDBLK
  5
70F4
330
70EA
100
AcDbEntity
  8
0
100
AcDbBlockEnd
  0
BLOCK
  5
713F
330
7135
100
AcDbEntity
  8
0
100
AcDbBlockBegin
  2
*D15
 70
     1
 10
0.0
 20
0.0
 30
0.0
  3
*D15
  1

  0
LINE
  5
714C
330
7135
100
AcDbEntity
  8
AM_5
100
AcDbLine
 10
1844.687106663745
 20
462.7511596362961
 30
0.0
 11
1832.687106663745
 21
462.7511596362961
 31
0.0
  0
LINE
  5
714D
330
7135
100
AcDbEntity
  8
AM_5
100
AcDbLine
 10
1844.687106663745
 20
432.7511596362962
 30
0.0
 11
1832.687106663745
 21
432.7511596362962
 31
0.0
  0
LINE
  5
714E
330
7135
100
AcDbEntity
  8
AM_5
100
AcDbLine
 10
1833.687106663745
 20
459.7511596362961
 30
0.0
 11
1833.687106663745
 21
435.7511596362961
 31
0.0
  0
SOLID
  5
714F
330
7135
100
AcDbEntity
  8
AM_5
100
AcDbTrace
 10
1833.187106663745
 20
459.7511596362961
 30
0.0
 11
1834.187106663745
 21
459.7511596362961
 31
0.0
 12
1833.687106663745
 22
462.7511596362961
 32
0.0
 13
1833.687106663745
 23
462.7511596362961
 33
0.0
  0
SOLID
  5
7150
330
7135
100
AcDbEntity
  8
AM_5
100
AcDbTrace
 10
1833.187106663745
 20
435.7511596362961
 30
0.0
 11
1834.187106663745
 21
435.7511596362961
 31
0.0
 12
1833.687106663745
 22
432.7511596362962
 32
0.0
 13
1833.687106663745
 23
432.7511596362962
 33
0.0
  0
MTEXT
  5
7151
330
7135
100
AcDbEntity
  8
AM_5
100
AcDbMText
 10
1830.937106663745
 20
447.7511596362965
 30
0.0
 40
3.5
 41
0.0
 71
     5
 72
     1
  1
%%c30
 11
0.0000000000000001
 21
1.0
 31
0.0
 73
     1
 44
1.0
1001
ACAD
1000
MTEXTBEGIN
1070
    73
1070
     1
1070
    44
1040
1.0
1070
    74
1070
     0
1000
MTEXTEND
  0
POINT
  5
7152
330
7135
100
AcDbEntity
  8
Defpoints
 62
     0
100
AcDbPoint
 10
1845.687106663745
 20
462.7511596362961
 30
0.0
  0
POINT
  5
7153
330
7135
100
AcDbEntity
  8
Defpoints
 62
     0
100
AcDbPoint
 10
1845.687106663745
 20
432.7511596362962
 30
0.0
  0
POINT
  5
7154
330
7135
100
AcDbEntity
  8
Defpoints
 62
     0
100
AcDbPoint
 10
1833.687106663745
 20
432.7511596362962
 30
0.0
  0
ENDBLK
  5
7140
330
7135
100
AcDbEntity
  8
0
100
AcDbBlockEnd
  0
BLOCK
  5
7172
330
7168
100
AcDbEntity
  8
0
100
AcDbBlockBegin
  2
*D16
 70
     1
 10
0.0
 20
0.0
 30
0.0
  3
*D16
  1

  0
LINE
  5
7277
330
7168
100
AcDbEntity
  8
AM_5
100
AcDbLine
 10
1844.687106663745
 20
432.7511596362962
 30
0.0
 11
1844.687106663745
 21
403.7511596362957
 31
0.0
  0
LINE
  5
7278
330
7168
100
AcDbEntity
  8
AM_5
100
AcDbLine
 10
1871.687106663745
 20
426.7511596362961
 30
0.0
 11
1871.687106663745
 21
403.7511596362957
 31
0.0
  0
LINE
  5
7279
330
7168
100
AcDbEntity
  8
AM_5
100
AcDbLine
 10
1847.687106663745
 20
404.7511596362957
 30
0.0
 11
1868.687106663745
 21
404.7511596362957
 31
0.0
  0
SOLID
  5
727A
330
7168
100
AcDbEntity
  8
AM_5
100
AcDbTrace
 10
1847.687106663745
 20
405.2511596362957
 30
0.0
 11
1847.687106663745
 21
404.2511596362957
 31
0.0
 12
1844.687106663745
 22
404.7511596362957
 32
0.0
 13
1844.687106663745
 23
404.7511596362957
 33
0.0
  0
SOLID
  5
727B
330
7168
100
AcDbEntity
  8
AM_5
100
AcDbTrace
 10
1868.687106663745
 20
405.2511596362957
 30
0.0
 11
1868.687106663745
 21
404.2511596362957
 31
0.0
 12
1871.687106663745
 22
404.7511596362957
 32
0.0
 13
1871.687106663745
 23
404.7511596362957
 33
0.0
  0
MTEXT
  5
727C
330
7168
100
AcDbEntity
  8
AM_5
100
AcDbMText
 10
1858.187106663745
 20
407.5015041244847
 30
0.0
 40
3.5
 41
0.0
 71
     5
 72
     1
  1
27
 73
     1
 44
1.0
1001
ACAD
1000
MTEXTBEGIN
1070
    73
1070
     1
1070
    44
1040
1.0
1070
    74
1070
     0
1000
MTEXTEND
  0
POINT
  5
727D
330
7168
100
AcDbEntity
  8
Defpoints
 62
     0
100
AcDbPoint
 10
1844.687106663745
 20
433.7511596362961
 30
0.0
  0
POINT
  5
727E
330
7168
100
AcDbEntity
  8
Defpoints
 62
     0
100
AcDbPoint
 10
1871.687106663745
 20
427.7511596362962
 30
0.0
  0
POINT
  5
727F
330
7168
100
AcDbEntity
  8
Defpoints
 62
     0
100
AcDbPoint
 10
1871.687106663745
 20
404.7511596362957
 30
0.0
  0
ENDBLK
  5
7173
330
7168
100
AcDbEntity
  8
0
100
AcDbBlockEnd
  0
BLOCK
  5
719C
330
7192
100
AcDbEntity
  8
0
100
AcDbBlockBegin
  2
*D17
 70
     1
 10
0.0
 20
0.0
 30
0.0
  3
*D17
  1

  0
LINE
  5
726E
330
7192
100
AcDbEntity
  8
AM_5
100
AcDbLine
 10
1871.687106663745
 20
426.7511596362961
 30
0.0
 11
1871.687106663745
 21
403.7511596362957
 31
0.0
  0
LINE
  5
726F
330
7192
100
AcDbEntity
  8
AM_5
100
AcDbLine
 10
2116.687106663745
 20
440.1929580192055
 30
0.0
 11
2116.687106663745
 21
403.7511596362957
 31
0.0
  0
LINE
  5
7270
330
7192
100
AcDbEntity
  8
AM_5
100
AcDbLine
 10
1874.687106663745
 20
404.7511596362957
 30
0.0
 11
2113.687106663745
 21
404.7511596362957
 31
0.0
  0
SOLID
  5
7271
330
7192
100
AcDbEntity
  8
AM_5
100
AcDbTrace
 10
1874.687106663745
 20
405.2511596362957
 30
0.0
 11
1874.687106663745
 21
404.2511596362957
 31
0.0
 12
1871.687106663745
 22
404.7511596362957
 32
0.0
 13
1871.687106663745
 23
404.7511596362957
 33
0.0
  0
SOLID
  5
7272
330
7192
100
AcDbEntity
  8
AM_5
100
AcDbTrace
 10
2113.687106663745
 20
405.2511596362957
 30
0.0
 11
2113.687106663745
 21
404.2511596362957
 31
0.0
 12
2116.687106663745
 22
404.7511596362957
 32
0.0
 13
2116.687106663745
 23
404.7511596362957
 33
0.0
  0
MTEXT
  5
7273
330
7192
100
AcDbEntity
  8
AM_5
100
AcDbMText
 10
1994.187106663745
 20
407.5015041244847
 30
0.0
 40
3.5
 41
0.0
 71
     5
 72
     1
  1
245
 73
     1
 44
1.0
1001
ACAD
1000
MTEXTBEGIN
1070
    73
1070
     1
1070
    44
1040
1.0
1070
    74
1070
     0
1000
MTEXTEND
  0
POINT
  5
7274
330
7192
100
AcDbEntity
  8
Defpoints
 62
     0
100
AcDbPoint
 10
1871.687106663745
 20
427.7511596362962
 30
0.0
  0
POINT
  5
7275
330
7192
100
AcDbEntity
  8
Defpoints
 62
     0
100
AcDbPoint
 10
2116.687106663745
 20
441.1929580192055
 30
0.0
  0
POINT
  5
7276
330
7192
100
AcDbEntity
  8
Defpoints
 62
     0
100
AcDbPoint
 10
2116.687106663745
 20
404.7511596362957
 30
0.0
  0
ENDBLK
  5
719D
330
7192
100
AcDbEntity
  8
0
100
AcDbBlockEnd
  0
BLOCK
  5
71CA
330
71C0
100
AcDbEntity
  8
0
100
AcDbBlockBegin
  2
*D18
 70
     1
 10
0.0
 20
0.0
 30
0.0
  3
*D18
  1

  0
LINE
  5
7265
330
71C0
100
AcDbEntity
  8
AM_5
100
AcDbLine
 10
1856.687106663745
 20
431.2511596362961
 30
0.0
 11
1856.687106663745
 21
411.7511596362957
 31
0.0
  0
LINE
  5
7266
330
71C0
100
AcDbEntity
  8
AM_5
100
AcDbLine
 10
1871.687106663745
 20
426.7511596362961
 30
0.0
 11
1871.687106663745
 21
411.7511596362957
 31
0.0
  0
LINE
  5
7267
330
71C0
100
AcDbEntity
  8
AM_5
100
AcDbLine
 10
1859.687106663745
 20
412.7511596362957
 30
0.0
 11
1868.687106663745
 21
412.7511596362957
 31
0.0
  0
SOLID
  5
7268
330
71C0
100
AcDbEntity
  8
AM_5
100
AcDbTrace
 10
1859.687106663745
 20
413.2511596362958
 30
0.0
 11
1859.687106663745
 21
412.2511596362957
 31
0.0
 12
1856.687106663745
 22
412.7511596362957
 32
0.0
 13
1856.687106663745
 23
412.7511596362957
 33
0.0
  0
SOLID
  5
7269
330
71C0
100
AcDbEntity
  8
AM_5
100
AcDbTrace
 10
1868.687106663745
 20
413.2511596362958
 30
0.0
 11
1868.687106663745
 21
412.2511596362957
 31
0.0
 12
1871.687106663745
 22
412.7511596362957
 32
0.0
 13
1871.687106663745
 23
412.7511596362957
 33
0.0
  0
MTEXT
  5
726A
330
71C0
100
AcDbEntity
  8
AM_5
100
AcDbMText
 10
1864.187106663745
 20
415.5011596362958
 30
0.0
 40
3.5
 41
0.0
 71
     5
 72
     1
  1
15
 73
     1
 44
1.0
1001
ACAD
1000
MTEXTBEGIN
1070
    73
1070
     1
1070
    44
1040
1.0
1070
    74
1070
     0
1000
MTEXTEND
  0
POINT
  5
726B
330
71C0
100
AcDbEntity
  8
Defpoints
 62
     0
100
AcDbPoint
 10
1856.687106663745
 20
432.2511596362962
 30
0.0
  0
POINT
  5
726C
330
71C0
100
AcDbEntity
  8
Defpoints
 62
     0
100
AcDbPoint
 10
1871.687106663745
 20
427.7511596362962
 30
0.0
  0
POINT
  5
726D
330
71C0
100
AcDbEntity
  8
Defpoints
 62
     0
100
AcDbPoint
 10
1871.687106663745
 20
412.7511596362957
 30
0.0
  0
ENDBLK
  5
71CB
330
71C0
100
AcDbEntity
  8
0
100
AcDbBlockEnd
  0
BLOCK
  5
71F4
330
71EA
100
AcDbEntity
  8
0
100
AcDbBlockBegin
  2
*D19
 70
     1
 10
0.0
 20
0.0
 30
0.0
  3
*D19
  1

  0
LINE
  5
725C
330
71EA
100
AcDbEntity
  8
AM_5
100
AcDbLine
 10
1871.687106663745
 20
426.7511596362962
 30
0.0
 11
1871.687106663745
 21
411.7511596362957
 31
0.0
  0
LINE
  5
725D
330
71EA
100
AcDbEntity
  8
AM_5
100
AcDbLine
 10
1908.687106663745
 20
426.7511596362961
 30
0.0
 11
1908.687106663745
 21
411.7511596362957
 31
0.0
  0
LINE
  5
725E
330
71EA
100
AcDbEntity
  8
AM_5
100
AcDbLine
 10
1874.687106663745
 20
412.7511596362957
 30
0.0
 11
1905.687106663745
 21
412.7511596362957
 31
0.0
  0
SOLID
  5
725F
330
71EA
100
AcDbEntity
  8
AM_5
100
AcDbTrace
 10
1874.687106663745
 20
413.2511596362957
 30
0.0
 11
1874.687106663745
 21
412.2511596362957
 31
0.0
 12
1871.687106663745
 22
412.7511596362957
 32
0.0
 13
1871.687106663745
 23
412.7511596362957
 33
0.0
  0
SOLID
  5
7260
330
71EA
100
AcDbEntity
  8
AM_5
100
AcDbTrace
 10
1905.687106663745
 20
413.2511596362957
 30
0.0
 11
1905.687106663745
 21
412.2511596362957
 31
0.0
 12
1908.687106663745
 22
412.7511596362957
 32
0.0
 13
1908.687106663745
 23
412.7511596362957
 33
0.0
  0
MTEXT
  5
7261
330
71EA
100
AcDbEntity
  8
AM_5
100
AcDbMText
 10
1890.187106663745
 20
415.5011596362957
 30
0.0
 40
3.5
 41
0.0
 71
     5
 72
     1
  1
37
 73
     1
 44
1.0
1001
ACAD
1000
MTEXTBEGIN
1070
    73
1070
     1
1070
    44
1040
1.0
1070
    74
1070
     0
1000
MTEXTEND
  0
POINT
  5
7262
330
71EA
100
AcDbEntity
  8
Defpoints
 62
     0
100
AcDbPoint
 10
1871.687106663745
 20
427.7511596362962
 30
0.0
  0
POINT
  5
7263
330
71EA
100
AcDbEntity
  8
Defpoints
 62
     0
100
AcDbPoint
 10
1908.687106663745
 20
427.7511596362962
 30
0.0
  0
POINT
  5
7264
330
71EA
100
AcDbEntity
  8
Defpoints
 62
     0
100
AcDbPoint
 10
1908.687106663745
 20
412.7511596362957
 30
0.0
  0
ENDBLK
  5
71F5
330
71EA
100
AcDbEntity
  8
0
100
AcDbBlockEnd
  0
BLOCK
  5
7222
330
7218
100
AcDbEntity
  8
0
100
AcDbBlockBegin
  2
*D20
 70
     1
 10
0.0
 20
0.0
 30
0.0
  3
*D20
  1

  0
LINE
  5
7253
330
7218
100
AcDbEntity
  8
AM_5
100
AcDbLine
 10
1844.687106663745
 20
432.7511596362962
 30
0.0
 11
1844.687106663745
 21
395.7511596362962
 31
0.0
  0
LINE
  5
7254
330
7218
100
AcDbEntity
  8
AM_5
100
AcDbLine
 10
2116.687106663745
 20
440.1929580192055
 30
0.0
 11
2116.687106663745
 21
395.7511596362962
 31
0.0
  0
LINE
  5
7255
330
7218
100
AcDbEntity
  8
AM_5
100
AcDbLine
 10
1847.687106663745
 20
396.7511596362962
 30
0.0
 11
2113.687106663745
 21
396.7511596362962
 31
0.0
  0
SOLID
  5
7256
330
7218
100
AcDbEntity
  8
AM_5
100
AcDbTrace
 10
1847.687106663745
 20
397.2511596362961
 30
0.0
 11
1847.687106663745
 21
396.2511596362962
 31
0.0
 12
1844.687106663745
 22
396.7511596362962
 32
0.0
 13
1844.687106663745
 23
396.7511596362962
 33
0.0
  0
SOLID
  5
7257
330
7218
100
AcDbEntity
  8
AM_5
100
AcDbTrace
 10
2113.687106663745
 20
397.2511596362961
 30
0.0
 11
2113.687106663745
 21
396.2511596362962
 31
0.0
 12
2116.687106663745
 22
396.7511596362962
 32
0.0
 13
2116.687106663745
 23
396.7511596362962
 33
0.0
  0
MTEXT
  5
7258
330
7218
100
AcDbEntity
  8
AM_5
100
AcDbMText
 10
1980.687106663745
 20
399.5015041244852
 30
0.0
 40
3.5
 41
0.0
 71
     5
 72
     1
  1
272
 73
     1
 44
1.0
1001
ACAD
1000
MTEXTBEGIN
1070
    73
1070
     1
1070
    44
1040
1.0
1070
    74
1070
     0
1000
MTEXTEND
  0
POINT
  5
7259
330
7218
100
AcDbEntity
  8
Defpoints
 62
     0
100
AcDbPoint
 10
1844.687106663745
 20
433.7511596362961
 30
0.0
  0
POINT
  5
725A
330
7218
100
AcDbEntity
  8
Defpoints
 62
     0
100
AcDbPoint
 10
2116.687106663745
 20
441.1929580192055
 30
0.0
  0
POINT
  5
725B
330
7218
100
AcDbEntity
  8
Defpoints
 62
     0
100
AcDbPoint
 10
2116.687106663745
 20
396.7511596362962
 30
0.0
  0
ENDBLK
  5
7223
330
7218
100
AcDbEntity
  8
0
100
AcDbBlockEnd
  0
BLOCK
  5
728D
330
7286
100
AcDbEntity
  8
0
100
AcDbBlockBegin
  2
*D21
 70
     1
 10
0.0
 20
0.0
 30
0.0
  3
*D21
  1

  0
LINE
  5
73C6
330
7286
100
AcDbEntity
  8
AM_5
100
AcDbLine
 10
1893.55141049131
 20
456.588672029937
 30
0.0
 11
1913.435657011567
 21
478.9335965031057
 31
0.0
  0
LINE
  5
73C7
330
7286
100
AcDbEntity
  8
AM_5
100
AcDbLine
 10
1913.435657011567
 20
478.9335965031057
 30
0.0
 11
1939.634279058811
 21
478.9335965031056
 31
0.0
  0
SOLID
  5
73C8
330
7286
100
AcDbEntity
  8
AM_5
100
AcDbTrace
 10
1893.115635718448
 20
456.9764582147281
 30
0.0
 11
1893.987185264172
 21
456.2008858451458
 31
0.0
 12
1891.224693382563
 22
453.9740233927652
 32
0.0
 13
1891.224693382563
 23
453.9740233927652
 33
0.0
  0
MTEXT
  5
73C9
330
7286
100
AcDbEntity
  8
AM_5
100
AcDbMText
 10
1927.034968035189
 20
481.8585965031053
 30
0.0
 40
3.5
 41
0.0
 71
     5
 72
     1
  1
Rc3/8(PORT)
 73
     1
 44
1.0
1001
ACAD
1000
MTEXTBEGIN
1070
    73
1070
     1
1070
    44
1040
1.0
1070
    74
1070
     0
1000
MTEXTEND
  0
POINT
  5
73CA
330
7286
100
AcDbEntity
  8
Defpoints
 62
     0
100
AcDbPoint
 10
1891.224693382563
 20
453.9740233927652
 30
0.0
  0
POINT
  5
73CB
330
7286
100
AcDbEntity
  8
Defpoints
 62
     0
100
AcDbPoint
 10
1885.687106663745
 20
447.7511596362967
 30
0.0
  0
ENDBLK
  5
728E
330
7286
100
AcDbEntity
  8
0
100
AcDbBlockEnd
  0
BLOCK
  5
72D6
330
72CC
100
AcDbEntity
  8
0
100
AcDbBlockBegin
  2
*D22
 70
     1
 10
0.0
 20
0.0
 30
0.0
  3
*D22
  1

  0
LINE
  5
72DA
330
72CC
100
AcDbEntity
  8
AM_5
100
AcDbLine
 10
1908.687106663745
 20
468.7511596362961
 30
0.0
 11
1908.687106663745
 21
480.7511606362961
 31
0.0
  0
LINE
  5
72DB
330
72CC
100
AcDbEntity
  8
AM_5
100
AcDbLine
 10
1885.687106663745
 20
458.0011596362961
 30
0.0
 11
1885.687106663745
 21
480.7511606362961
 31
0.0
  0
LINE
  5
72DC
330
72CC
100
AcDbEntity
  8
AM_5
100
AcDbLine
 10
1905.687106663745
 20
479.7511606362961
 30
0.0
 11
1888.687106663745
 21
479.7511606362961
 31
0.0
  0
SOLID
  5
72DD
330
72CC
100
AcDbEntity
  8
AM_5
100
AcDbTrace
 10
1905.687106663745
 20
480.2511606362961
 30
0.0
 11
1905.687106663745
 21
479.2511606362961
 31
0.0
 12
1908.687106663745
 22
479.7511606362961
 32
0.0
 13
1908.687106663745
 23
479.7511606362961
 33
0.0
  0
SOLID
  5
72DE
330
72CC
100
AcDbEntity
  8
AM_5
100
AcDbTrace
 10
1888.687106663745
 20
480.2511606362961
 30
0.0
 11
1888.687106663745
 21
479.2511606362961
 31
0.0
 12
1885.687106663745
 22
479.7511606362961
 32
0.0
 13
1885.687106663745
 23
479.7511606362961
 33
0.0
  0
MTEXT
  5
72DF
330
72CC
100
AcDbEntity
  8
AM_5
100
AcDbMText
 10
1897.187106663745
 20
482.5015051244851
 30
0.0
 40
3.5
 41
0.0
 71
     5
 72
     1
  1
23
 73
     1
 44
1.0
1001
ACAD
1000
MTEXTBEGIN
1070
    73
1070
     1
1070
    44
1040
1.0
1070
    74
1070
     0
1000
MTEXTEND
  0
POINT
  5
72E0
330
72CC
100
AcDbEntity
  8
Defpoints
 62
     0
100
AcDbPoint
 10
1908.687106663745
 20
467.7511596362961
 30
0.0
  0
POINT
  5
72E1
330
72CC
100
AcDbEntity
  8
Defpoints
 62
     0
100
AcDbPoint
 10
1885.687106663745
 20
457.0011596362961
 30
0.0
  0
POINT
  5
72E2
330
72CC
100
AcDbEntity
  8
Defpoints
 62
     0
100
AcDbPoint
 10
1885.687106663745
 20
479.7511606362961
 30
0.0
  0
ENDBLK
  5
72D7
330
72CC
100
AcDbEntity
  8
0
100
AcDbBlockEnd
  0
BLOCK
  5
730B
330
7301
100
AcDbEntity
  8
0
100
AcDbBlockBegin
  2
*D23
 70
     1
 10
0.0
 20
0.0
 30
0.0
  3
*D23
  1

  0
LINE
  5
7318
330
7301
100
AcDbEntity
  8
AM_5
100
AcDbLine
 10
2081.187106663745
 20
463.7511596362961
 30
0.0
 11
2128.746999954473
 21
463.7511596362961
 31
0.0
  0
LINE
  5
7319
330
7301
100
AcDbEntity
  8
AM_5
100
AcDbLine
 10
2081.187106663745
 20
431.7511596362961
 30
0.0
 11
2128.746999954473
 21
431.7511596362961
 31
0.0
  0
LINE
  5
731A
330
7301
100
AcDbEntity
  8
AM_5
100
AcDbLine
 10
2127.746999954473
 20
460.7511596362961
 30
0.0
 11
2127.746999954473
 21
434.7511596362961
 31
0.0
  0
SOLID
  5
731B
330
7301
100
AcDbEntity
  8
AM_5
100
AcDbTrace
 10
2127.246999954473
 20
460.7511596362961
 30
0.0
 11
2128.246999954473
 21
460.7511596362961
 31
0.0
 12
2127.746999954473
 22
463.7511596362961
 32
0.0
 13
2127.746999954473
 23
463.7511596362961
 33
0.0
  0
SOLID
  5
731C
330
7301
100
AcDbEntity
  8
AM_5
100
AcDbTrace
 10
2127.246999954473
 20
434.7511596362961
 30
0.0
 11
2128.246999954473
 21
434.7511596362961
 31
0.0
 12
2127.746999954473
 22
431.7511596362961
 32
0.0
 13
2127.746999954473
 23
431.7511596362961
 33
0.0
  0
MTEXT
  5
731D
330
7301
100
AcDbEntity
  8
AM_5
100
AcDbMText
 10
2124.996655466284
 20
447.7511596362965
 30
0.0
 40
3.5
 41
0.0
 71
     5
 72
     1
  1
%%c32
 11
0.0000000000000001
 21
1.0
 31
0.0
 73
     1
 44
1.0
1001
ACAD
1000
MTEXTBEGIN
1070
    73
1070
     1
1070
    44
1040
1.0
1070
    74
1070
     0
1000
MTEXTEND
  0
POINT
  5
731E
330
7301
100
AcDbEntity
  8
Defpoints
 62
     0
100
AcDbPoint
 10
2080.187106663745
 20
463.7511596362961
 30
0.0
  0
POINT
  5
731F
330
7301
100
AcDbEntity
  8
Defpoints
 62
     0
100
AcDbPoint
 10
2080.187106663745
 20
431.7511596362961
 30
0.0
  0
POINT
  5
7320
330
7301
100
AcDbEntity
  8
Defpoints
 62
     0
100
AcDbPoint
 10
2127.746999954473
 20
431.7511596362961
 30
0.0
  0
ENDBLK
  5
730C
330
7301
100
AcDbEntity
  8
0
100
AcDbBlockEnd
  0
BLOCK
  5
733E
330
7334
100
AcDbEntity
  8
0
100
AcDbBlockBegin
  2
*D24
 70
     1
 10
0.0
 20
0.0
 30
0.0
  3
*D24
  1

  0
LINE
  5
7390
330
7334
100
AcDbEntity
  8
AM_5
100
AcDbLine
 10
1663.824651978018
 20
491.6076968850472
 30
0.0
 11
1663.824651978018
 21
466.6076968850472
 31
0.0
  0
LINE
  5
7391
330
7334
100
AcDbEntity
  8
AM_5
100
AcDbLine
 10
1678.824651978018
 20
479.6076968850472
 30
0.0
 11
1678.824651978018
 21
466.6076968850472
 31
0.0
  0
LINE
  5
7392
330
7334
100
AcDbEntity
  8
AM_5
100
AcDbLine
 10
1666.824651978017
 20
467.6076968850472
 30
0.0
 11
1675.824651978018
 21
467.6076968850472
 31
0.0
  0
SOLID
  5
7393
330
7334
100
AcDbEntity
  8
AM_5
100
AcDbTrace
 10
1666.824651978017
 20
468.1076968850472
 30
0.0
 11
1666.824651978017
 21
467.1076968850472
 31
0.0
 12
1663.824651978018
 22
467.6076968850472
 32
0.0
 13
1663.824651978018
 23
467.6076968850472
 33
0.0
  0
SOLID
  5
7394
330
7334
100
AcDbEntity
  8
AM_5
100
AcDbTrace
 10
1675.824651978018
 20
468.1076968850472
 30
0.0
 11
1675.824651978018
 21
467.1076968850472
 31
0.0
 12
1678.824651978018
 22
467.6076968850472
 32
0.0
 13
1678.824651978018
 23
467.6076968850472
 33
0.0
  0
MTEXT
  5
7395
330
7334
100
AcDbEntity
  8
AM_5
100
AcDbMText
 10
1672.20219607011
 20
470.3576968850472
 30
0.0
 40
3.5
 41
0.0
 71
     5
 72
     1
  1
15
 73
     1
 44
1.0
1001
ACAD
1000
MTEXTBEGIN
1070
    73
1070
     1
1070
    44
1040
1.0
1070
    74
1070
     0
1000
MTEXTEND
  0
POINT
  5
7396
330
7334
100
AcDbEntity
  8
Defpoints
 62
     0
100
AcDbPoint
 10
1663.824651978018
 20
492.6076968850471
 30
0.0
  0
POINT
  5
7397
330
7334
100
AcDbEntity
  8
Defpoints
 62
     0
100
AcDbPoint
 10
1678.824651978018
 20
480.6076968850471
 30
0.0
  0
POINT
  5
7398
330
7334
100
AcDbEntity
  8
Defpoints
 62
     0
100
AcDbPoint
 10
1678.824651978018
 20
467.6076968850472
 30
0.0
  0
ENDBLK
  5
733F
330
7334
100
AcDbEntity
  8
0
100
AcDbBlockEnd
  0
BLOCK
  5
7371
330
7367
100
AcDbEntity
  8
0
100
AcDbBlockBegin
  2
*D25
 70
     1
 10
0.0
 20
0.0
 30
0.0
  3
*D25
  1

  0
LINE
  5
7387
330
7367
100
AcDbEntity
  8
AM_5
100
AcDbLine
 10
1663.824651978018
 20
491.6076968850472
 30
0.0
 11
1663.824651978018
 21
458.6076968850473
 31
0.0
  0
LINE
  5
7388
330
7367
100
AcDbEntity
  8
AM_5
100
AcDbLine
 10
1744.824651978017
 20
473.6076968850471
 30
0.0
 11
1744.824651978017
 21
458.6076968850473
 31
0.0
  0
LINE
  5
7389
330
7367
100
AcDbEntity
  8
AM_5
100
AcDbLine
 10
1666.824651978017
 20
459.6076968850473
 30
0.0
 11
1741.824651978018
 21
459.6076968850473
 31
0.0
  0
SOLID
  5
738A
330
7367
100
AcDbEntity
  8
AM_5
100
AcDbTrace
 10
1666.824651978017
 20
460.1076968850473
 30
0.0
 11
1666.824651978017
 21
459.1076968850473
 31
0.0
 12
1663.824651978018
 22
459.6076968850473
 32
0.0
 13
1663.824651978018
 23
459.6076968850473
 33
0.0
  0
SOLID
  5
738B
330
7367
100
AcDbEntity
  8
AM_5
100
AcDbTrace
 10
1741.824651978018
 20
460.1076968850473
 30
0.0
 11
1741.824651978018
 21
459.1076968850473
 31
0.0
 12
1744.824651978017
 22
459.6076968850473
 32
0.0
 13
1744.824651978017
 23
459.6076968850473
 33
0.0
  0
MTEXT
  5
738C
330
7367
100
AcDbEntity
  8
AM_5
100
AcDbMText
 10
1704.324651978017
 20
462.3576968850473
 30
0.0
 40
3.5
 41
0.0
 71
     5
 72
     1
  1
81
 73
     1
 44
1.0
1001
ACAD
1000
MTEXTBEGIN
1070
    73
1070
     1
1070
    44
1040
1.0
1070
    74
1070
     0
1000
MTEXTEND
  0
POINT
  5
738D
330
7367
100
AcDbEntity
  8
Defpoints
 62
     0
100
AcDbPoint
 10
1663.824651978018
 20
492.6076968850471
 30
0.0
  0
POINT
  5
738E
330
7367
100
AcDbEntity
  8
Defpoints
 62
     0
100
AcDbPoint
 10
1744.824651978017
 20
474.6076968850472
 30
0.0
  0
POINT
  5
738F
330
7367
100
AcDbEntity
  8
Defpoints
 62
     0
100
AcDbPoint
 10
1744.824651978017
 20
459.6076968850473
 30
0.0
  0
ENDBLK
  5
7372
330
7367
100
AcDbEntity
  8
0
100
AcDbBlockEnd
  0
ENDSEC
  0
SECTION
  2
ENTITIES
  0
TEXT
  5
18EC
330
1F
100
AcDbEntity
  8
LOGO
  6
Continuous
 62
     7
100
AcDbText
 10
466.8848434021445
 20
-19.43800514375071
 30
0.0
 40
13.27245374673802
  1

  7
CHINESET
 72
     1
 11
466.8848434021445
 21
-12.8017782703817
 31
0.0
100
AcDbText
 73
     2
  0
TEXT
  5
3E08
330
1F
100
AcDbEntity
  8
LOGO
 62
     7
100
AcDbText
 10
1693.30231416016
 20
186.0604177095579
 30
0.0
 40
6.047124271493212
  1
Order example:
 41
0.8
  7
CHINESET
100
AcDbText
  0
TEXT
  5
3E09
330
1F
100
AcDbEntity
  8
LOGO
 62
     7
100
AcDbText
 10
1694.387218262149
 20
194.5735166107637
 30
0.0
 40
9.070686407239819
  1
訂購代號：
  7
CHINESET
100
AcDbText
  0
LINE
  5
3E0A
330
1F
100
AcDbEntity
  8
LOGO
 62
     4
100
AcDbLine
 10
1690.67481815353
 20
160.575552493825
 30
0.0
 11
1690.67481815353
 21
205.9289845300244
 31
0.0
  0
TEXT
  5
3E0B
330
1F
100
AcDbEntity
  8
LOGO
  6
Continuous
100
AcDbText
 10
1607.188424328916
 20
169.4851657730397
 30
0.0
 40
6.803014805429865
  1
金器工業股份有限公司
  7
CHINESET
100
AcDbText
  0
TEXT
  5
3E0C
330
1F
100
AcDbEntity
  8
LOGO
  6
Continuous
100
AcDbText
 10
1594.692632041448
 20
162.680818110085
 30
0.0
 40
4.535343203619909
  1
MINDMAN INDUSTRIAL CO., LTD.
 41
0.85
  7
CHINESET
100
AcDbText
  0
LINE
  5
3E0D
330
1F
100
AcDbEntity
  8
LOGO
 62
     4
100
AcDbLine
 10
1690.67481815353
 20
196.8582981227846
 30
0.0
 11
1624.156451167104
 21
196.8582981227846
 31
0.0
  0
LINE
  5
3E0E
330
1F
100
AcDbEntity
  8
LOGO
 62
     4
100
AcDbLine
 10
1690.67481815353
 20
187.7876117155447
 30
0.0
 11
1624.156451167104
 21
187.7876117155447
 31
0.0
  0
LINE
  5
3E0F
330
1F
100
AcDbEntity
  8
LOGO
 62
     4
100
AcDbLine
 10
1690.67481815353
 20
178.7169253083053
 30
0.0
 11
1590.897267673892
 21
178.7169253083053
 31
0.0
  0
LINE
  5
3E10
330
1F
100
AcDbEntity
  8
LOGO
 62
     4
100
AcDbLine
 10
1624.156451167104
 20
178.7169253083053
 30
0.0
 11
1624.156451167104
 21
205.9289845300244
 31
0.0
  0
TEXT
  5
3E11
330
1F
100
AcDbEntity
  8
LOGO
100
AcDbText
 10
1669.618615383226
 20
180.9845969101145
 30
0.0
 40
4.535343203619909
  1
mm
  7
CHINESET
 72
     1
 11
1675.233802206756
 21
183.2522685119245
 31
0.0
100
AcDbText
 73
     2
  0
TEXT
  5
3E12
330
1F
100
AcDbEntity
  8
LOGO
100
AcDbText
 10
1667.242959419425
 20
199.1259697245943
 30
0.0
 40
4.535343203619909
  1
1 : 1
  7
CHINESET
 72
     1
 11
1675.233802206756
 21
201.3936413264042
 31
0.0
100
AcDbText
 73
     2
  0
LINE
  5
3E13
330
1F
100
AcDbEntity
  8
LOGO
 62
     4
100
AcDbLine
 10
1660.439196796064
 20
178.7169253083053
 30
0.0
 11
1660.439196796064
 21
205.9289845300244
 31
0.0
  0
TEXT
  5
3E14
330
1F
100
AcDbEntity
  8
LOGO
100
AcDbText
 10
1627.896084603303
 20
199.1282016848322
 30
297.238922023793
 40
4.535343203619909
  1
比例 Scale:
 41
0.9
  7
CHINESET
 72
     4
 11
1642.297823981584
 21
201.3936413264042
 31
297.238922023793
100
AcDbText
  0
TEXT
  5
3E15
330
1F
100
AcDbEntity
  8
LOGO
100
AcDbText
 10
1627.634897427738
 20
190.1190801808239
 30
297.238922023793
 40
4.535343203619909
  1
投影  View:
 41
0.9
  7
CHINESET
 72
     4
 11
1642.297823981584
 21
192.3229549191643
 31
297.238922023793
100
AcDbText
  0
TEXT
  5
3E16
330
1F
100
AcDbEntity
  8
LOGO
100
AcDbText
 10
1628.078308214163
 20
180.9845969101145
 30
297.238922023793
 40
4.535343203619909
  1
單位  Unit:
 41
0.9
  7
CHINESET
 72
     4
 11
1642.297823981584
 21
183.2522685119245
 31
297.238922023793
100
AcDbText
  0
LWPOLYLINE
  5
3E17
330
1F
100
AcDbEntity
  8
LOGO
 62
     4
100
AcDbPolyline
 90
        4
 70
     1
 43
0.0
 10
1590.897267673892
 20
205.9289845300244
 10
2190.505350345765
 20
205.9289845300244
 10
2190.505350345765
 20
614.1755524938242
 10
1590.897267673892
 20
614.1755524938242
1001
GENIUS_GENREC_14
1002
{
1000
PYDIR
1011
1590.897267673892
1021
614.1755524938242
1031
0.0
1002
}
1002
{
1000
PXDIR
1011
2190.505350345765
1021
205.9289845300244
1031
0.0
1002
}
1002
{
1000
PORI
1011
1590.897267673892
1021
205.9289845300244
1031
0.0
1002
}
1002
{
1000
PINS
1011
1590.897267673892
1021
205.9289845300244
1031
0.0
1002
}
1002
{
1000
PINS2
1011
2190.505350345765
1021
614.1755524938242
1031
0.0
1002
}
1002
{
1000
C
1070
     1
1002
}
1001
GENIUS_GENODEF_13
1002
{
1000
HIER
1070
     0
1002
}
1002
{
1000
MANEDIT
1070
     0
1002
}
1002
{
1000
NOSEL
1070
     0
1002
}
1002
{
1000
BEHIND
1070
     0
1002
}
1002
{
1000
OTHER
1070
     0
1002
}
1002
{
1000
REACTOR
1002
}
1001
GENIUS_GENOBJ-N-REC_13
1002
{
1000
OWNER
1000
GEN
1002
}
  0
SOLID
  5
3E18
330
1F
100
AcDbEntity
  8
LOGO
 62
     5
100
AcDbTrace
 10
1595.602759034369
 20
186.2562878290525
 30
0.0
 11
1597.563722428209
 21
186.2562878290521
 31
0.0
 12
1605.745673140436
 22
204.8516303568422
 32
0.0
 13
1607.706636534276
 23
204.8516303568411
 33
0.0
  0
SOLID
  5
3E19
330
1F
100
AcDbEntity
  8
LOGO
 62
     5
100
AcDbTrace
 10
1598.375155556696
 20
186.2562878290525
 30
0.0
 11
1600.336118950536
 21
186.2562878290525
 31
0.0
 12
1607.706636534276
 22
203.3640029546183
 32
0.0
 13
1605.745673140436
 23
196.1738038438729
 33
0.0
  0
SOLID
  5
3E1A
330
1F
100
AcDbEntity
  8
LOGO
 62
     2
100
AcDbTrace
 10
1597.563722428209
 20
186.2562878290521
 30
0.0
 11
1598.375155556696
 21
186.2562878290525
 31
0.0
 12
1607.706636534276
 22
204.8516303568411
 32
0.0
 13
1608.518069662763
 23
204.8516303568411
 33
0.0
  0
SOLID
  5
3E1B
330
1F
100
AcDbEntity
  8
LOGO
 62
     5
100
AcDbTrace
 10
1592.458853826915
 20
179.4943450916752
 30
0.0
 11
1593.135048100653
 21
179.4943450916752
 31
0.0
 12
1595.039263806255
 22
182.8753164603636
 32
0.0
 13
1595.715458079991
 23
182.8753164603636
 33
0.0
  0
SOLID
  5
3E1C
330
1F
100
AcDbEntity
  8
LOGO
 62
     5
100
AcDbTrace
 10
1595.039263806255
 20
182.8753164603636
 30
0.0
 11
1595.715458079991
 21
182.8753164603636
 31
0.0
 12
1595.039263806255
 22
179.4943450916752
 32
0.0
 13
1595.715458079991
 23
179.4943450916752
 33
0.0
  0
SOLID
  5
3E1D
330
1F
100
AcDbEntity
  8
LOGO
 62
     5
100
AcDbTrace
 10
1595.039263806255
 20
179.4943450916752
 30
0.0
 11
1595.715458079991
 21
179.4943450916752
 31
0.0
 12
1597.619673785596
 22
182.8753164603636
 32
0.0
 13
1598.295868059334
 23
182.8753164603636
 33
0.0
  0
SOLID
  5
3E1E
330
1F
100
AcDbEntity
  8
LOGO
 62
     5
100
AcDbTrace
 10
1597.619673785596
 20
182.8753164603636
 30
0.0
 11
1598.295868059334
 21
182.8753164603636
 31
0.0
 12
1597.619673785596
 22
179.4943450916752
 32
0.0
 13
1598.295868059334
 23
179.4943450916752
 33
0.0
  0
POLYLINE
  5
3E1F
330
1F
100
AcDbEntity
  8
LOGO
 62
     5
100
AcDb2dPolyline
 66
     1
 10
0.0
 20
0.0
 30
0.0
 40
0.6772779184072397
 41
0.6772779184072397
  0
VERTEX
  5
3E20
330
3E1F
100
AcDbEntity
  8
LOGO
 62
     5
100
AcDbVertex
100
AcDb2dVertex
 10
1620.285475492804
 20
181.5229279128881
 30
0.0
 42
1.0
  0
VERTEX
  5
3E21
330
3E1F
100
AcDbEntity
  8
LOGO
 62
     5
100
AcDbVertex
100
AcDb2dVertex
 10
1618.253641737582
 20
181.5229279128881
 30
0.0
 42
1.0
  0
SEQEND
  5
3E22
330
3E1F
100
AcDbEntity
  8
LOGO
 62
     5
  0
POLYLINE
  5
3E23
330
1F
100
AcDbEntity
  8
LOGO
 62
     5
100
AcDb2dPolyline
 66
     1
 10
0.0
 20
0.0
 30
0.0
 70
     1
  0
VERTEX
  5
3E24
330
3E23
100
AcDbEntity
  8
LOGO
 62
     5
100
AcDbVertex
100
AcDb2dVertex
 10
1614.423544733023
 20
181.1848307760189
 30
0.0
 42
1.000000057330635
  0
VERTEX
  5
3E25
330
3E23
100
AcDbEntity
  8
LOGO
 62
     5
100
AcDbVertex
100
AcDb2dVertex
 10
1616.452127554236
 20
181.1848307760189
 30
0.0
 42
1.000000057330635
  0
SEQEND
  5
3E26
330
3E23
100
AcDbEntity
  8
LOGO
 62
     5
  0
CIRCLE
  5
3E27
330
1F
100
AcDbEntity
  8
LOGO
 62
     5
100
AcDbCircle
 10
1615.437836143631
 20
181.1848307760189
 30
0.0
 40
1.014291410606682
  0
POLYLINE
  5
3E28
330
1F
100
AcDbEntity
  8
LOGO
 62
     5
100
AcDb2dPolyline
 66
     1
 10
0.0
 20
0.0
 30
0.0
 70
     1
 40
0.6772779184072397
 41
0.6772779184072397
  0
VERTEX
  5
3E29
330
3E28
100
AcDbEntity
  8
LOGO
 62
     5
100
AcDbVertex
100
AcDb2dVertex
 10
1614.083280306815
 20
181.1848307760189
 30
0.0
 42
1.0
  0
VERTEX
  5
3E2A
330
3E28
100
AcDbEntity
  8
LOGO
 62
     5
100
AcDbVertex
100
AcDb2dVertex
 10
1616.792391980444
 20
181.1848307760189
 30
0.0
 42
1.0
  0
SEQEND
  5
3E2B
330
3E28
100
AcDbEntity
  8
LOGO
 62
     5
  0
LINE
  5
3E2C
330
1F
100
AcDbEntity
  8
LOGO
100
AcDbLine
 10
1620.621947162668
 20
179.4943450916752
 30
0.0
 11
1620.621947162668
 21
181.5229279128881
 31
0.0
  0
SOLID
  5
3E2D
330
1F
100
AcDbEntity
  8
LOGO
 62
     5
100
AcDbTrace
 10
1616.452059934811
 20
182.8753164603636
 30
0.0
 11
1617.128254208548
 21
182.8753164603636
 31
0.0
 12
1616.452059934811
 22
179.4943450916752
 32
0.0
 13
1617.128254208548
 23
179.4943450916752
 33
0.0
  0
SOLID
  5
3E2E
330
1F
100
AcDbEntity
  8
LOGO
 62
     5
100
AcDbTrace
 10
1617.917170067717
 20
179.4943450916752
 30
0.0
 11
1618.593364341455
 21
179.4943450916752
 31
0.0
 12
1617.917170067717
 22
182.8753164603636
 32
0.0
 13
1618.593364341455
 23
182.8753164603636
 33
0.0
  0
SOLID
  5
3E2F
330
1F
100
AcDbEntity
  8
LOGO
 62
     5
100
AcDbTrace
 10
1619.945752888931
 20
181.5229279128881
 30
0.0
 11
1620.621947162668
 21
181.5229279128881
 31
0.0
 12
1619.945752888931
 22
179.4943450916752
 32
0.0
 13
1620.621947162668
 23
179.4943450916752
 33
0.0
  0
SOLID
  5
3E30
330
1F
100
AcDbEntity
  8
LOGO
 62
     5
100
AcDbTrace
 10
1617.849550640343
 20
203.3640029546183
 30
0.0
 11
1615.888587246504
 21
196.1738038438729
 31
0.0
 12
1617.849550640343
 22
186.2562878290521
 32
0.0
 13
1615.888587246504
 23
186.2562878290521
 33
0.0
  0
SOLID
  5
3E31
330
1F
100
AcDbEntity
  8
LOGO
 62
     5
100
AcDbTrace
 10
1618.660983768829
 20
186.2562878290521
 30
0.0
 11
1620.621947162668
 21
186.2562878290521
 31
0.0
 12
1618.660983768829
 22
204.8516303568411
 32
0.0
 13
1620.621947162668
 23
204.8516303568422
 33
0.0
  0
SOLID
  5
3E32
330
1F
100
AcDbEntity
  8
LOGO
 62
     2
100
AcDbTrace
 10
1617.849550640343
 20
204.8516303568422
 30
0.0
 11
1618.660983768829
 21
204.8516303568411
 31
0.0
 12
1617.849550640343
 22
186.2562878290521
 32
0.0
 13
1618.660983768829
 23
186.2562878290521
 33
0.0
  0
POLYLINE
  5
3E33
330
1F
100
AcDbEntity
  8
LOGO
 62
     5
100
AcDb2dPolyline
 66
     1
 10
0.0
 20
0.0
 30
0.0
 40
0.6772779184072397
 41
0.6772779184072397
  0
VERTEX
  5
3E34
330
3E33
100
AcDbEntity
  8
LOGO
 62
     5
100
AcDbVertex
100
AcDb2dVertex
 10
1610.593312489611
 20
181.5229279128881
 30
0.0
 42
1.0
  0
VERTEX
  5
3E35
330
3E33
100
AcDbEntity
  8
LOGO
 62
     5
100
AcDbVertex
100
AcDb2dVertex
 10
1608.561478734389
 20
181.5229279128881
 30
0.0
 42
1.0
  0
SEQEND
  5
3E36
330
3E33
100
AcDbEntity
  8
LOGO
 62
     5
  0
POLYLINE
  5
3E37
330
1F
100
AcDbEntity
  8
LOGO
 62
     5
100
AcDb2dPolyline
 66
     1
 10
0.0
 20
0.0
 30
0.0
 40
0.6772779184072397
 41
0.6772779184072397
  0
VERTEX
  5
3E38
330
3E37
100
AcDbEntity
  8
LOGO
 62
     5
100
AcDbVertex
100
AcDb2dVertex
 10
1612.621895310823
 20
181.5229279128881
 30
0.0
 42
1.0
  0
VERTEX
  5
3E39
330
3E37
100
AcDbEntity
  8
LOGO
 62
     5
100
AcDbVertex
100
AcDb2dVertex
 10
1610.590061555601
 20
181.5229279128881
 30
0.0
 42
1.0
  0
SEQEND
  5
3E3A
330
3E37
100
AcDbEntity
  8
LOGO
 62
     5
  0
POLYLINE
  5
3E3B
330
1F
100
AcDbEntity
  8
LOGO
 62
     5
100
AcDb2dPolyline
 66
     1
 10
0.0
 20
0.0
 30
0.0
 40
0.6772779184072397
 41
0.6772779184072397
  0
VERTEX
  5
3E3C
330
3E3B
100
AcDbEntity
  8
LOGO
 62
     5
100
AcDbVertex
100
AcDb2dVertex
 10
1602.92973230763
 20
181.5229279128881
 30
0.0
 42
1.0
  0
VERTEX
  5
3E3D
330
3E3B
100
AcDbEntity
  8
LOGO
 62
     5
100
AcDbVertex
100
AcDb2dVertex
 10
1600.897898552409
 20
181.5229279128881
 30
0.0
 42
1.0
  0
SEQEND
  5
3E3E
330
3E3B
100
AcDbEntity
  8
LOGO
 62
     5
  0
SOLID
  5
3E3F
330
1F
100
AcDbEntity
  8
LOGO
 62
     5
100
AcDbTrace
 10
1600.561426882544
 20
182.8753164603636
 30
0.0
 11
1601.23762115628
 21
182.8753164603636
 31
0.0
 12
1600.561426882544
 22
179.4943450916752
 32
0.0
 13
1601.23762115628
 23
179.4943450916752
 33
0.0
  0
SOLID
  5
3E40
330
1F
100
AcDbEntity
  8
LOGO
 62
     5
100
AcDbTrace
 10
1602.590009703757
 20
181.5229279128881
 30
0.0
 11
1603.266203977496
 21
181.5229279128881
 31
0.0
 12
1602.590009703757
 22
179.4943450916752
 32
0.0
 13
1603.266203977496
 23
179.4943450916752
 33
0.0
  0
POLYLINE
  5
3E41
330
1F
100
AcDbEntity
  8
LOGO
 62
     5
100
AcDb2dPolyline
 66
     1
 10
0.0
 20
0.0
 30
0.0
 70
     1
 40
0.6772779184072397
 41
0.6772779184072397
  0
VERTEX
  5
3E42
330
3E41
100
AcDbEntity
  8
LOGO
 62
     5
100
AcDbVertex
100
AcDb2dVertex
 10
1604.391117303621
 20
181.1848307760189
 30
0.0
 42
1.0
  0
VERTEX
  5
3E43
330
3E41
100
AcDbEntity
  8
LOGO
 62
     5
100
AcDbVertex
100
AcDb2dVertex
 10
1607.100228977251
 20
181.1848307760189
 30
0.0
 42
1.0
  0
SEQEND
  5
3E44
330
3E41
100
AcDbEntity
  8
LOGO
 62
     5
  0
SOLID
  5
3E45
330
1F
100
AcDbEntity
  8
LOGO
 62
     5
100
AcDbTrace
 10
1606.759896931617
 20
183.8896078709708
 30
0.0
 11
1607.436091205354
 21
183.8896078709708
 31
0.0
 12
1606.759896931617
 22
179.4943450916752
 32
0.0
 13
1607.436091205354
 23
179.4943450916752
 33
0.0
  0
SOLID
  5
3E46
330
1F
100
AcDbEntity
  8
LOGO
 62
     5
100
AcDbTrace
 10
1608.225007064526
 20
182.8753164603636
 30
0.0
 11
1608.901201338262
 21
182.8753164603636
 31
0.0
 12
1608.225007064526
 22
179.4943450916752
 32
0.0
 13
1608.901201338262
 23
179.4943450916752
 33
0.0
  0
SOLID
  5
3E47
330
1F
100
AcDbEntity
  8
LOGO
 62
     5
100
AcDbTrace
 10
1610.253589885737
 20
181.5229279128881
 30
0.0
 11
1610.929784159475
 21
181.5229279128881
 31
0.0
 12
1610.253589885737
 22
179.4943450916752
 32
0.0
 13
1610.929784159475
 23
179.4943450916752
 33
0.0
  0
SOLID
  5
3E48
330
1F
100
AcDbEntity
  8
LOGO
 62
     5
100
AcDbTrace
 10
1612.282172706951
 20
181.5229279128881
 30
0.0
 11
1612.958366980688
 21
181.5229279128881
 31
0.0
 12
1612.282172706951
 22
179.4943450916742
 32
0.0
 13
1612.958366980688
 23
179.4943450916742
 33
0.0
  0
SOLID
  5
3E49
330
1F
100
AcDbEntity
  8
LOGO
 62
     5
100
AcDbTrace
 10
1599.096316749636
 20
183.3486524519802
 30
0.0
 11
1599.772511023375
 21
183.3486524519802
 31
0.0
 12
1599.096316749636
 22
183.8896078709708
 32
0.0
 13
1599.772511023375
 23
183.8896078709708
 33
0.0
  0
SOLID
  5
3E4A
330
1F
100
AcDbEntity
  8
LOGO
 62
     5
100
AcDbTrace
 10
1599.096316749636
 20
182.8753164603636
 30
0.0
 11
1599.772511023375
 21
182.8753164603636
 31
0.0
 12
1599.096316749636
 22
179.4943450916742
 32
0.0
 13
1599.772511023375
 23
179.4943450916752
 33
0.0
  0
SOLID
  5
3E4B
330
1F
100
AcDbEntity
  8
LOGO
 62
     5
100
AcDbTrace
 10
1605.745673140436
 20
186.2562878290525
 30
0.0
 11
1607.706636534276
 21
186.2562878290525
 31
0.0
 12
1605.745673140436
 22
196.1738038438729
 32
0.0
 13
1607.706636534276
 23
203.3640029546183
 33
0.0
  0
SOLID
  5
3E4C
330
1F
100
AcDbEntity
  8
LOGO
 62
     5
100
AcDbTrace
 10
1608.518069662763
 20
204.8516303568411
 30
0.0
 11
1610.479033056601
 21
204.8516303568422
 31
0.0
 12
1608.518069662763
 22
187.7439152312754
 32
0.0
 13
1610.479033056601
 23
194.9341143420207
 33
0.0
  0
SOLID
  5
3E4D
330
1F
100
AcDbEntity
  8
LOGO
 62
     2
100
AcDbTrace
 10
1607.706636534276
 20
204.8516303568411
 30
0.0
 11
1608.518069662763
 21
204.8516303568411
 31
0.0
 12
1607.706636534276
 22
186.2562878290525
 32
0.0
 13
1608.518069662763
 23
186.2562878290525
 33
0.0
  0
SOLID
  5
3E4E
330
1F
100
AcDbEntity
  8
LOGO
 62
     5
100
AcDbTrace
 10
1608.518069662763
 20
187.7439152312754
 30
0.0
 11
1610.479033056601
 21
194.9341143420207
 31
0.0
 12
1617.849550640343
 22
204.8516303568422
 32
0.0
 13
1615.888587246504
 23
204.8516303568422
 33
0.0
  0
SOLID
  5
3E4F
330
1F
100
AcDbEntity
  8
LOGO
 62
     5
100
AcDbTrace
 10
1608.518069662763
 20
186.2562878290525
 30
0.0
 11
1610.479033056601
 21
186.2562878290525
 31
0.0
 12
1617.849550640343
 22
203.3640029546183
 32
0.0
 13
1615.888587246504
 23
196.1738038438729
 33
0.0
  0
SOLID
  5
3E50
330
1F
100
AcDbEntity
  8
LOGO
 62
     2
100
AcDbTrace
 10
1607.706636534276
 20
186.2562878290525
 30
0.0
 11
1608.518069662763
 21
186.2562878290525
 31
0.0
 12
1617.849550640343
 22
204.8516303568422
 32
0.0
 13
1618.660983768829
 23
204.8516303568411
 33
0.0
  0
LWPOLYLINE
  5
3E51
330
1F
100
AcDbEntity
  8
LOGO
 62
     4
100
AcDbPolyline
 90
        4
 70
     1
 43
0.0
 10
1590.897267673892
 20
205.9289845300244
 10
2190.505350345765
 20
205.9289845300244
 10
2190.505350345765
 20
160.5755524938245
 10
1590.897267673892
 20
160.5755524938245
1001
GENIUS_GENREC_14
1002
{
1000
PYDIR
1011
1590.897267673892
1021
160.5755524938245
1031
0.0
1002
}
1002
{
1000
PXDIR
1011
2190.505350345765
1021
205.9289845300244
1031
0.0
1002
}
1002
{
1000
PORI
1011
1590.897267673892
1021
205.9289845300244
1031
0.0
1002
}
1002
{
1000
PINS
1011
1590.897267673892
1021
205.9289845300244
1031
0.0
1002
}
1002
{
1000
PINS2
1011
2190.505350345765
1021
160.5755524938245
1031
0.0
1002
}
1002
{
1000
C
1070
     1
1002
}
1001
GENIUS_GENOBJ-N-REC_13
1002
{
1000
OWNER
1000
GEN
1002
}
1001
GENIUS_GENODEF_13
1002
{
1000
HIER
1070
     0
1002
}
1002
{
1000
MANEDIT
1070
     0
1002
}
1002
{
1000
NOSEL
1070
     0
1002
}
1002
{
1000
BEHIND
1070
     0
1002
}
1002
{
1000
OTHER
1070
     0
1002
}
1002
{
1000
REACTOR
1002
}
  0
LINE
  5
3E52
330
1F
100
AcDbEntity
  8
LOGO
 62
     4
100
AcDbLine
 10
1797.554573458642
 20
180.9845969101154
 30
0.0
 11
1797.554573458642
 21
164.3550051635081
 31
0.0
  0
LINE
  5
3E53
330
1F
100
AcDbEntity
  8
LOGO
 62
     4
100
AcDbLine
 10
1767.318952101176
 20
180.9845969101154
 30
0.0
 11
1767.318952101176
 21
164.3550051635081
 31
0.0
  0
LINE
  5
3E54
330
1F
100
AcDbEntity
  8
LOGO
 62
     4
100
AcDbLine
 10
1797.554573458642
 20
164.3550051635081
 30
0.0
 11
1767.318952101176
 21
164.3550051635081
 31
0.0
  0
LINE
  5
3E55
330
1F
100
AcDbEntity
  8
LOGO
 62
     4
100
AcDbLine
 10
1812.231095989721
 20
201.3936413264042
 30
0.0
 11
1753.056451031823
 21
201.3936413264042
 31
0.0
  0
LINE
  5
3E56
330
1F
100
AcDbEntity
  8
LOGO
 62
     4
100
AcDbLine
 10
1812.231095989721
 20
187.7876117155447
 30
0.0
 11
1753.056451031823
 21
187.7876117155447
 31
0.0
  0
LINE
  5
3E57
330
1F
100
AcDbEntity
  8
LOGO
 62
     4
100
AcDbLine
 10
1753.056451031823
 20
201.3936413264042
 30
0.0
 11
1753.056451031823
 21
187.7876117155447
 31
0.0
  0
LINE
  5
3E58
330
1F
100
AcDbEntity
  8
LOGO
 62
     4
100
AcDbLine
 10
1812.231095989721
 20
201.3936413264042
 30
0.0
 11
1812.231095989721
 21
187.7876117155447
 31
0.0
  0
LINE
  5
3E59
330
1F
100
AcDbEntity
  8
LOGO
 62
     4
100
AcDbLine
 10
1782.159853421854
 20
187.7876117155447
 30
0.0
 11
1782.159853421854
 21
180.9845969101154
 31
0.0
  0
TEXT
  5
3E5A
330
1F
100
AcDbEntity
  8
LOGO
  6
Continuous
100
AcDbText
 10
1756.667149356236
 20
191.6718583593836
 30
0.0
 40
7.0
  1
MJC-600K
  7
CHINESET
100
AcDbText
  0
LINE
  5
3E5B
330
1F
100
AcDbEntity
  8
LOGO
 62
     4
100
AcDbLine
 10
1797.554573458642
 20
180.9845969101154
 30
0.0
 11
1767.318952101176
 21
180.9845969101154
 31
0.0
  0
TEXT
  5
3E5C
330
1F
100
AcDbEntity
  8
LOGO
  6
Continuous
100
AcDbText
 10
1777.021467270267
 20
166.7022367746733
 30
297.238922023793
 40
3.401999999999999
  1
Model
 41
0.8
  7
CHINESET
100
AcDbText
  0
TEXT
  5
3E5D
330
1F
100
AcDbEntity
  8
LOGO
100
AcDbText
 10
1776.115965462484
 20
173.0088115913445
 30
297.238922023793
 40
5.669999999999999
  1
型號
  7
CHINESET
100
AcDbText
  0
TEXT
  5
3E5E
330
1F
100
AcDbEntity
  8
LOGO
100
AcDbText
 10
1692.473800874457
 20
162.9883371774386
 30
0.0
 40
4.536
  1
01004300
 41
0.7
  7
CHINESET
 72
     1
 11
1703.813800874457
 21
162.9883371774386
 31
0.0
100
AcDbText
  0
LINE
  5
3E5F
330
1F
100
AcDbEntity
  8
LOGO
 62
     4
100
AcDbLine
 10
1717.890818153528
 20
169.6462389010659
 30
0.0
 11
1717.89081815353
 21
160.5755524938255
 31
0.0
  0
LINE
  5
3E60
330
1F
100
AcDbEntity
  8
LOGO
 62
     4
100
AcDbLine
 10
1717.890818153528
 20
169.6462389010659
 30
0.0
 11
1690.67481815353
 21
169.6462389010659
 31
0.0
  0
CIRCLE
  5
3E61
330
1F
100
AcDbEntity
  8
LOGO
  6
Continuous
100
AcDbCircle
 10
1668.836952009326
 20
192.332656051466
 30
0.0
 40
2.633327013967192
  0
CIRCLE
  5
3E62
330
1F
100
AcDbEntity
  8
LOGO
  6
Continuous
100
AcDbCircle
 10
1668.836952009326
 20
192.332656051466
 30
0.0
 40
1.542896514933574
  0
LINE
  5
3E63
330
1F
100
AcDbEntity
  8
LOGO
100
AcDbLine
 10
1685.385084523441
 20
189.6993290374984
 30
0.0
 11
1685.385084523441
 21
194.9659830654337
 31
0.0
  0
LINE
  5
3E64
330
1F
100
AcDbEntity
  8
LOGO
100
AcDbLine
 10
1677.129755494838
 20
190.7897595365327
 30
0.0
 11
1677.129755494838
 21
193.8755525663999
 31
0.0
  0
LINE
  5
3E65
330
1F
100
AcDbEntity
  8
LOGO
  6
Continuous
100
AcDbLine
 10
1677.129755494838
 20
193.8755525663999
 30
0.0
 11
1685.385084523441
 21
194.9659830654337
 31
0.0
  0
LINE
  5
3E66
330
1F
100
AcDbEntity
  8
LOGO
  6
Continuous
100
AcDbLine
 10
1677.129755494838
 20
190.7897595365327
 30
0.0
 11
1685.385084523441
 21
189.6993290374984
 31
0.0
  0
LINE
  5
3E67
330
1F
100
AcDbEntity
  8
LOGO
  6
AM_ISO08W050x2
 48
0.3
100
AcDbLine
 10
1665.206871289605
 20
192.332656051466
 30
0.0
 11
1672.467032729047
 21
192.332656051466
 31
0.0
1001
GENIUS_GENOREF_13
1005
3E6C
  0
LINE
  5
3E68
330
1F
100
AcDbEntity
  8
LOGO
  6
AM_ISO08W050x2
 48
0.3
100
AcDbLine
 10
1668.836952009326
 20
188.7025753317452
 30
0.0
 11
1668.836952009326
 21
195.9627367711869
 31
0.0
1001
GENIUS_GENOREF_13
1005
3E6B
  0
LINE
  5
3E69
330
1F
100
AcDbEntity
  8
LOGO
  6
CENTER
 48
0.5
100
AcDbLine
 10
1676.469558628346
 20
192.332656051466
 30
0.0
 11
1686.216369432744
 21
192.332656051466
 31
0.0
1001
GENIUS_GENOREF_13
1005
3E6A
  0
POINT
  5
3E6A
330
1F
100
AcDbEntity
  8
0
 60
     1
100
AcDbPoint
 10
202.438319745158
 20
-733.0932690936419
 30
0.0
1001
GENIUS_GENOBJ-N-CRS_13
1002
{
1000
OWNER
1000
GEN
1002
}
1001
GENIUS_GENOLIS_13
1002
{
1000
ENT
1005
0
1005
0
1005
0
1005
3E69
1002
}
1001
GENIUS_GENOENT_13
1002
{
1000
MYREF
1005
3E6A
1002
}
1002
{
1000
GRP
1005
0
1002
}
1001
GENIUS_GENODEF_13
1002
{
1000
HIER
1070
    10
1002
}
1002
{
1000
MANEDIT
1070
     1
1002
}
1002
{
1000
NOSEL
1070
     0
1002
}
1002
{
1000
BEHIND
1070
     0
1002
}
1002
{
1000
OTHER
1070
     0
1002
}
1002
{
1000
REACTOR
1002
}
  0
POINT
  5
3E6B
330
1F
100
AcDbEntity
  8
0
 60
     1
100
AcDbPoint
 10
191.1137345223032
 20
-724.2176826150057
 30
0.0
1001
GENIUS_GENOBJ-N-CRS_13
1002
{
1000
OWNER
1000
GEN
1002
}
1001
GENIUS_GENOLIS_13
1002
{
1000
ENT
1005
0
1005
0
1005
0
1005
3E68
1002
}
1001
GENIUS_GENOENT_13
1002
{
1000
MYREF
1005
3E6B
1002
}
1002
{
1000
GRP
1005
0
1002
}
1001
GENIUS_GENODEF_13
1002
{
1000
HIER
1070
    10
1002
}
1002
{
1000
MANEDIT
1070
     1
1002
}
1002
{
1000
NOSEL
1070
     0
1002
}
1002
{
1000
BEHIND
1070
     0
1002
}
1002
{
1000
OTHER
1070
     0
1002
}
1002
{
1000
REACTOR
1002
}
  0
POINT
  5
3E6C
330
1F
100
AcDbEntity
  8
0
 60
     1
100
AcDbPoint
 10
197.4724082201401
 20
-733.0932690936419
 30
0.0
1001
GENIUS_GENOBJ-N-CRS_13
1002
{
1000
OWNER
1000
GEN
1002
}
1001
GENIUS_GENOLIS_13
1002
{
1000
ENT
1005
0
1005
0
1005
0
1005
3E67
1002
}
1001
GENIUS_GENOENT_13
1002
{
1000
MYREF
1005
3E6C
1002
}
1002
{
1000
GRP
1005
0
1002
}
1001
GENIUS_GENODEF_13
1002
{
1000
HIER
1070
    10
1002
}
1002
{
1000
MANEDIT
1070
     1
1002
}
1002
{
1000
NOSEL
1070
     0
1002
}
1002
{
1000
BEHIND
1070
     0
1002
}
1002
{
1000
OTHER
1070
     0
1002
}
1002
{
1000
REACTOR
1002
}
  0
LINE
  5
4F51
330
1F
100
AcDbEntity
  8
AM_7
100
AcDbLine
 10
1884.937106663745
 20
447.7511596362961
 30
0.0
 11
1886.437106663745
 21
447.7511596362961
 31
0.0
  0
LINE
  5
4F52
330
1F
100
AcDbEntity
  8
AM_7
100
AcDbLine
 10
1885.687106663745
 20
447.0011596362962
 30
0.0
 11
1885.687106663745
 21
448.5011596362961
 31
0.0
  0
LINE
  5
4F53
330
1F
100
AcDbEntity
  8
AM_7
100
AcDbLine
 10
1876.437106663745
 20
447.7511596362961
 30
0.0
 11
1884.137106663745
 21
447.7511596362961
 31
0.0
  0
LINE
  5
4F54
330
1F
100
AcDbEntity
  8
AM_7
100
AcDbLine
 10
1887.237106663745
 20
447.7511596362961
 30
0.0
 11
1894.937106663745
 21
447.7511596362961
 31
0.0
  0
LINE
  5
4F55
330
1F
100
AcDbEntity
  8
AM_7
100
AcDbLine
 10
1885.687106663745
 20
438.5011596362962
 30
0.0
 11
1885.687106663745
 21
446.2011596362962
 31
0.0
  0
LINE
  5
4F56
102
{ACAD_REACTORS
330
72D9
102
}
330
1F
100
AcDbEntity
  8
AM_7
100
AcDbLine
 10
1885.687106663745
 20
449.301159636296
 30
0.0
 11
1885.687106663745
 21
457.0011596362961
 31
0.0
  0
LINE
  5
4F57
330
1F
100
AcDbEntity
  8
AM_7
100
AcDbLine
 10
1875.687106663745
 20
447.7511596362961
 30
0.0
 11
1901.187106663745
 21
447.7511596362961
 31
0.0
  0
LINE
  5
4F58
330
1F
100
AcDbEntity
  8
AM_7
100
AcDbLine
 10
2085.758903433469
 20
447.7511596362961
 30
0.0
 11
1906.687106663745
 21
447.7511596362961
 31
0.0
  0
ARC
  5
4F59
330
1F
100
AcDbEntity
  8
0
 62
     3
100
AcDbCircle
 10
1885.687106663745
 20
447.7511596362961
 30
0.0
 40
8.33
100
AcDbArc
 50
250.1668353033957
 51
193.8881380534549
  0
LINE
  5
4F5A
330
1F
100
AcDbEntity
  8
AM_7
100
AcDbLine
 10
1843.687106663745
 20
447.7511596362961
 30
0.0
 11
1873.687106663745
 21
447.7511596362961
 31
0.0
  0
LINE
  5
4F5B
330
1F
100
AcDbEntity
  8
AM_7
100
AcDbLine
 10
2029.937106663745
 20
447.7511596362961
 30
0.0
 11
2031.437106663745
 21
447.7511596362961
 31
0.0
  0
LINE
  5
4F5C
330
1F
100
AcDbEntity
  8
AM_7
100
AcDbLine
 10
2030.687106663745
 20
447.0011596362962
 30
0.0
 11
2030.687106663745
 21
448.5011596362961
 31
0.0
  0
LINE
  5
4F5D
330
1F
100
AcDbEntity
  8
AM_7
100
AcDbLine
 10
2027.612106663745
 20
447.7511596362961
 30
0.0
 11
2029.137106663745
 21
447.7511596362961
 31
0.0
  0
LINE
  5
4F5E
330
1F
100
AcDbEntity
  8
AM_7
100
AcDbLine
 10
2032.237106663745
 20
447.7511596362961
 30
0.0
 11
2033.762106663745
 21
447.7511596362961
 31
0.0
  0
LINE
  5
4F5F
330
1F
100
AcDbEntity
  8
AM_7
100
AcDbLine
 10
2030.687106663745
 20
444.6761596362961
 30
0.0
 11
2030.687106663745
 21
446.2011596362961
 31
0.0
  0
LINE
  5
4F60
330
1F
100
AcDbEntity
  8
AM_7
100
AcDbLine
 10
2030.687106663745
 20
449.301159636296
 30
0.0
 11
2030.687106663745
 21
450.826159636296
 31
0.0
  0
LINE
  5
4F61
330
1F
100
AcDbEntity
  8
AM_7
100
AcDbLine
 10
2117.746998954473
 20
447.7511596362961
 30
0.0
 11
2085.61530989402
 21
447.7511596362961
 31
0.0
  0
LINE
  5
4F62
330
1F
100
AcDbEntity
  8
AM_7
100
AcDbLine
 10
1661.824651978018
 20
499.6076968850472
 30
0.0
 11
1769.897496997582
 21
499.6076968850472
 31
0.0
  0
LINE
  5
4F63
330
1F
100
AcDbEntity
  8
AM_7
100
AcDbLine
 10
1758.824651978018
 20
525.4076968850471
 30
0.0
 11
1758.824651978018
 21
507.2951888205276
 31
0.0
  0
LINE
  5
4F64
330
1F
100
AcDbEntity
  8
AM_4
  6
HIDDEN2
100
AcDbLine
 10
1730.824651978017
 20
499.6076968850472
 30
0.0
 11
1742.824651978018
 21
499.6076968850472
 31
0.0
  0
LINE
  5
4F65
330
1F
100
AcDbEntity
  8
AM_4
  6
HIDDEN2
100
AcDbLine
 10
1730.824651978017
 20
499.6076968850472
 30
0.0
 11
1742.824651978018
 21
499.6076968850472
 31
0.0
  0
LINE
  5
4F67
330
1F
100
AcDbEntity
  8
AM_4
  6
HIDDEN2
100
AcDbLine
 10
1730.074651978017
 20
512.6076968850472
 30
0.0
 11
1741.824651978018
 21
512.6076968850472
 31
0.0
  0
LINE
  5
4F68
330
1F
100
AcDbEntity
  8
AM_4
  6
HIDDEN2
100
AcDbLine
 10
1741.824651978018
 20
499.6076968850472
 30
0.0
 11
1741.824651978018
 21
512.6076968850472
 31
0.0
  0
LINE
  5
4F69
330
1F
100
AcDbEntity
  8
AM_4
  6
HIDDEN2
100
AcDbLine
 10
1750.494651978018
 20
524.4876968850473
 30
0.0
 11
1750.494651978018
 21
514.6076968850471
 31
0.0
  0
LINE
  5
4F6A
330
1F
100
AcDbEntity
  8
AM_4
  6
HIDDEN2
100
AcDbLine
 10
1767.154651978017
 20
524.4876968850473
 30
0.0
 11
1767.154651978017
 21
514.6076968850471
 31
0.0
  0
LINE
  5
4F6B
330
1F
100
AcDbEntity
  8
AM_4
  6
HIDDEN2
100
AcDbLine
 10
1750.494651978018
 20
514.6076968850471
 30
0.0
 11
1767.154651978017
 21
514.6076968850471
 31
0.0
  0
LINE
  5
4F6D
330
1F
100
AcDbEntity
  8
AM_4
  6
HIDDEN2
100
AcDbLine
 10
1718.244651978018
 20
507.937696885047
 30
0.0
 11
1729.824651978018
 21
507.937696885047
 31
0.0
  0
LINE
  5
4F6E
330
1F
100
AcDbEntity
  8
AM_4
  6
HIDDEN2
100
AcDbLine
 10
1729.824651978017
 20
499.6076968850472
 30
0.0
 11
1729.824651978018
 21
507.937696885047
 31
0.0
  0
LINE
  5
4F6F
330
1F
100
AcDbEntity
  8
AM_4
  6
HIDDEN2
100
AcDbLine
 10
1739.824651978018
 20
511.8576968850471
 30
0.0
 11
1732.824651978017
 21
511.8576968850471
 31
0.0
  0
LINE
  5
4F70
330
1F
100
AcDbEntity
  8
AM_4
  6
HIDDEN2
100
AcDbLine
 10
1744.574651978018
 20
516.1076968850472
 30
0.0
 11
1728.824651978017
 21
516.1076968850472
 31
0.0
  0
LINE
  5
4F72
330
1F
100
AcDbEntity
  8
AM_4
  6
HIDDEN2
100
AcDbLine
 10
1728.824651978017
 20
516.1076968850472
 30
0.0
 11
1728.824651978017
 21
499.6076968850472
 31
0.0
  0
LINE
  5
4F73
330
1F
100
AcDbEntity
  8
AM_VIS
100
AcDbLine
 10
1764.247974606045
 20
510.6992562058104
 30
0.0
 11
1766.079630617561
 21
511.6985714816142
 31
0.0
  0
ARC
  5
4F74
330
1F
100
AcDbEntity
  8
AM_VIS
100
AcDbCircle
 10
1762.615522837696
 20
529.8701675971395
 30
0.0
 40
21.2550269749939
100
AcDbArc
 50
238.7048010742152
 51
249.5267882751505
  0
LINE
  5
4F75
330
1F
100
AcDbEntity
  8
AM_VIS
100
AcDbLine
 10
1729.824651978018
 20
512.8576968850471
 30
0.0
 11
1729.824651978018
 21
515.1076968850471
 31
0.0
  0
LINE
  5
4F76
330
1F
100
AcDbEntity
  8
AM_VIS
100
AcDbLine
 10
1729.824651978018
 20
515.1076968850471
 30
0.0
 11
1730.824651978017
 21
516.1076968850472
 31
0.0
  0
LINE
  5
4F77
330
1F
100
AcDbEntity
  8
AM_VIS
100
AcDbLine
 10
1730.824651978017
 20
516.1076968850472
 30
0.0
 11
1742.824651978018
 21
516.1076968850472
 31
0.0
  0
LINE
  5
4F78
330
1F
100
AcDbEntity
  8
AM_VIS
100
AcDbLine
 10
1742.824651978018
 20
516.1076968850472
 30
0.0
 11
1742.824651978018
 21
515.1076968850471
 31
0.0
  0
LINE
  5
4F79
330
1F
100
AcDbEntity
  8
AM_VIS
100
AcDbLine
 10
1742.824651978018
 20
515.1076968850471
 30
0.0
 11
1744.824651978017
 21
515.1076968850471
 31
0.0
  0
LINE
  5
4F7A
330
1F
100
AcDbEntity
  8
AM_VIS
100
AcDbLine
 10
1744.824651978017
 20
515.1076968850471
 30
0.0
 11
1744.824651978017
 21
524.6076968850472
 31
0.0
  0
LINE
  5
4F7B
330
1F
100
AcDbEntity
  8
AM_VIS
100
AcDbLine
 10
1744.824651978017
 20
524.6076968850472
 30
0.0
 11
1750.374651978018
 21
524.6076968850472
 31
0.0
  0
LINE
  5
4F7C
330
1F
100
AcDbEntity
  8
AM_VIS
100
AcDbLine
 10
1750.374651978018
 20
524.6076968850472
 30
0.0
 11
1751.574651978017
 21
523.4076968850471
 31
0.0
  0
LINE
  5
4F7D
330
1F
100
AcDbEntity
  8
AM_VIS
100
AcDbLine
 10
1751.574651978017
 20
523.4076968850471
 30
0.0
 11
1751.574651978017
 21
511.707696885047
 31
0.0
  0
LINE
  5
4F7E
330
1F
100
AcDbEntity
  8
AM_VIS
100
AcDbLine
 10
1751.574651978017
 20
511.707696885047
 30
0.0
 11
1744.824651978017
 21
511.707696885047
 31
0.0
  0
LINE
  5
4F7F
330
1F
100
AcDbEntity
  8
AM_VIS
100
AcDbLine
 10
1744.824651978017
 20
511.707696885047
 30
0.0
 11
1744.824651978017
 21
511.8576968850471
 31
0.0
  0
LINE
  5
4F80
330
1F
100
AcDbEntity
  8
AM_VIS
100
AcDbLine
 10
1744.824651978017
 20
511.8576968850471
 30
0.0
 11
1730.824651978017
 21
511.8576968850471
 31
0.0
  0
LINE
  5
4F81
330
1F
100
AcDbEntity
  8
AM_VIS
100
AcDbLine
 10
1730.824651978017
 20
511.8576968850471
 30
0.0
 11
1729.824651978018
 21
512.8576968850471
 31
0.0
  0
LINE
  5
4F82
330
1F
100
AcDbEntity
  8
AM_VIS
100
AcDbLine
 10
1770.639090206145
 20
510.7076968850471
 30
0.0
 11
1768.824651978018
 21
510.7076968850471
 31
0.0
  0
LINE
  5
4F83
330
1F
100
AcDbEntity
  8
AM_VIS
100
AcDbLine
 10
1768.824651978018
 20
510.7076968850471
 30
0.0
 11
1767.824651978018
 21
511.707696885047
 31
0.0
  0
LINE
  5
4F84
330
1F
100
AcDbEntity
  8
AM_VIS
100
AcDbLine
 10
1767.824651978018
 20
511.707696885047
 30
0.0
 11
1766.074651978018
 21
511.707696885047
 31
0.0
  0
LINE
  5
4F85
330
1F
100
AcDbEntity
  8
AM_VIS
100
AcDbLine
 10
1766.074651978018
 20
511.7076968850473
 30
0.0
 11
1766.074651978018
 21
523.4076968850471
 31
0.0
  0
LINE
  5
4F86
330
1F
100
AcDbEntity
  8
AM_VIS
100
AcDbLine
 10
1766.074651978018
 20
523.4076968850471
 30
0.0
 11
1767.274651978017
 21
524.6076968850472
 31
0.0
  0
LINE
  5
4F87
330
1F
100
AcDbEntity
  8
AM_VIS
100
AcDbLine
 10
1767.274651978017
 20
524.6076968850472
 30
0.0
 11
1772.84419323903
 21
524.6076968850472
 31
0.0
  0
LINE
  5
4F88
330
1F
100
AcDbEntity
  8
AM_VIS
100
AcDbLine
 10
1744.824651978017
 20
474.6076968850472
 30
0.0
 11
1744.824651978018
 21
499.6076968850472
 31
0.0
  0
LINE
  5
4F94
102
{ACAD_REACTORS
330
7374
102
}
330
1F
100
AcDbEntity
  8
AM_VIS
100
AcDbLine
 10
1770.07625506263
 20
474.6076968850472
 30
0.0
 11
1744.824651978017
 21
474.6076968850472
 31
0.0
  0
LINE
  5
4F96
330
1F
100
AcDbEntity
  8
AM_VIS
100
AcDbLine
 10
1730.824651978017
 20
511.6076968850471
 30
0.0
 11
1730.824651978017
 21
511.8576968850471
 31
0.0
  0
LINE
  5
4F97
330
1F
100
AcDbEntity
  8
AM_VIS
100
AcDbLine
 10
1744.824651978017
 20
511.707696885047
 30
0.0
 11
1744.824651978017
 21
511.6076968850471
 31
0.0
  0
LINE
  5
4F9A
330
1F
100
AcDbEntity
  8
AM_VIS
100
AcDbLine
 10
1767.824651978018
 20
510.7076968850471
 30
0.0
 11
1767.824651978018
 21
511.707696885047
 31
0.0
  0
LINE
  5
4F9B
330
1F
100
AcDbEntity
  8
AM_VIS
100
AcDbLine
 10
1767.274651978017
 20
524.6076968850472
 30
0.0
 11
1750.374651978018
 21
524.6076968850472
 31
0.0
  0
LINE
  5
4F9C
330
1F
100
AcDbEntity
  8
AM_VIS
100
AcDbLine
 10
1751.574651978017
 20
523.4076968850471
 30
0.0
 11
1766.074651978018
 21
523.4076968850471
 31
0.0
  0
LINE
  5
4FA1
330
1F
100
AcDbEntity
  8
AM_VIS
100
AcDbLine
 10
1768.9234511657
 20
505.8076968850472
 30
0.0
 11
1758.824651978018
 21
505.8076968850472
 31
0.0
  0
LINE
  5
4FA2
330
1F
100
AcDbEntity
  8
AM_VIS
100
AcDbLine
 10
1758.824651978018
 20
505.8076968850472
 30
0.0
 11
1758.824651978018
 21
510.1076968850471
 31
0.0
  0
LINE
  5
4FA3
330
1F
100
AcDbEntity
  8
AM_VIS
100
AcDbLine
 10
1758.824651978018
 20
510.1076968850471
 30
0.0
 11
1759.424651978018
 21
510.7076968850471
 31
0.0
  0
LINE
  5
4FA4
330
1F
100
AcDbEntity
  8
AM_VIS
100
AcDbLine
 10
1759.424651978018
 20
510.7076968850471
 30
0.0
 11
1770.639090206145
 21
510.7076968850472
 31
0.0
  0
LINE
  5
4FA5
330
1F
100
AcDbEntity
  8
AM_VIS
100
AcDbLine
 10
1758.824651978018
 20
499.6076968850472
 30
0.0
 11
1758.824651978018
 21
505.8076968850472
 31
0.0
  0
LINE
  5
4FB5
330
1F
100
AcDbEntity
  8
AM_VIS
100
AcDbLine
 10
1748.824651978017
 20
505.457696885047
 30
0.0
 11
1748.824651978017
 21
511.5576968850472
 31
0.0
  0
LINE
  5
4FB6
330
1F
100
AcDbEntity
  8
AM_VIS
100
AcDbLine
 10
1748.824651978017
 20
511.5576968850472
 30
0.0
 11
1750.824651978018
 21
511.5576968850472
 31
0.0
  0
LINE
  5
4FB7
330
1F
100
AcDbEntity
  8
AM_VIS
100
AcDbLine
 10
1750.824651978018
 20
511.5576968850472
 30
0.0
 11
1750.824651978018
 21
509.957696885047
 31
0.0
  0
LINE
  5
4FB8
330
1F
100
AcDbEntity
  8
AM_VIS
100
AcDbLine
 10
1750.824651978018
 20
509.957696885047
 30
0.0
 11
1758.824651978018
 21
509.957696885047
 31
0.0
  0
LINE
  5
4FB9
330
1F
100
AcDbEntity
  8
AM_VIS
100
AcDbLine
 10
1758.824651978018
 20
509.957696885047
 30
0.0
 11
1758.824651978018
 21
507.9215407613777
 31
0.0
  0
LINE
  5
4FBA
330
1F
100
AcDbEntity
  8
AM_VIS
100
AcDbLine
 10
1758.824651978018
 20
507.9215407613777
 30
0.0
 11
1757.424651978018
 21
507.9215407613777
 31
0.0
  0
LINE
  5
4FBB
330
1F
100
AcDbEntity
  8
AM_VIS
100
AcDbLine
 10
1757.424651978018
 20
507.9215407613777
 30
0.0
 11
1757.424651978018
 21
506.8076968850472
 31
0.0
  0
LINE
  5
4FBC
330
1F
100
AcDbEntity
  8
AM_VIS
100
AcDbLine
 10
1757.424651978018
 20
506.8076968850472
 30
0.0
 11
1756.824651978018
 21
506.8076968850472
 31
0.0
  0
LINE
  5
4FBD
330
1F
100
AcDbEntity
  8
AM_VIS
100
AcDbLine
 10
1756.824651978018
 20
506.8076968850472
 30
0.0
 11
1756.824651978018
 21
502.2576968850472
 31
0.0
  0
LINE
  5
4FBE
330
1F
100
AcDbEntity
  8
AM_VIS
100
AcDbLine
 10
1756.824651978018
 20
502.2576968850472
 30
0.0
 11
1754.824651978018
 21
502.2576968850472
 31
0.0
  0
LINE
  5
4FBF
330
1F
100
AcDbEntity
  8
AM_VIS
100
AcDbLine
 10
1754.824651978018
 20
502.2576968850472
 30
0.0
 11
1753.824651978018
 21
503.2576968850472
 31
0.0
  0
LINE
  5
4FC0
330
1F
100
AcDbEntity
  8
AM_VIS
100
AcDbLine
 10
1753.824651978018
 20
503.2576968850472
 30
0.0
 11
1753.824651978018
 21
503.8576968850471
 31
0.0
  0
LINE
  5
4FC1
330
1F
100
AcDbEntity
  8
AM_VIS
100
AcDbLine
 10
1753.824651978018
 20
503.8576968850471
 30
0.0
 11
1743.824651978018
 21
503.8576968850471
 31
0.0
  0
LINE
  5
4FC2
330
1F
100
AcDbEntity
  8
AM_VIS
100
AcDbLine
 10
1743.824651978018
 20
503.8576968850471
 30
0.0
 11
1743.824651978018
 21
505.457696885047
 31
0.0
  0
LINE
  5
4FC3
330
1F
100
AcDbEntity
  8
AM_VIS
100
AcDbLine
 10
1743.824651978018
 20
505.457696885047
 30
0.0
 11
1748.824651978017
 21
505.457696885047
 31
0.0
  0
LINE
  5
4FC5
330
1F
100
AcDbEntity
  8
AM_VIS
100
AcDbLine
 10
1758.824651978018
 20
501.8443316928205
 30
0.0
 11
1757.424651978018
 21
501.8443316928205
 31
0.0
  0
LINE
  5
4FC6
330
1F
100
AcDbEntity
  8
AM_VIS
100
AcDbLine
 10
1758.824651978018
 20
502.4580219452838
 30
0.0
 11
1757.424651978018
 21
502.4580219452838
 31
0.0
  0
LINE
  5
4FC7
330
1F
100
AcDbEntity
  8
AM_VIS
100
AcDbLine
 10
1743.824651978018
 20
499.6076968850471
 30
0.0
 11
1743.824651978018
 21
503.8576968850471
 31
0.0
  0
LINE
  5
4FC8
330
1F
100
AcDbEntity
  8
AM_VIS
100
AcDbLine
 10
1753.824651978018
 20
503.2576968850472
 30
0.0
 11
1753.824651978018
 21
499.6076968850472
 31
0.0
  0
LINE
  5
4FC9
330
1F
100
AcDbEntity
  8
AM_VIS
100
AcDbLine
 10
1754.824651978018
 20
499.6076968850472
 30
0.0
 11
1754.824651978018
 21
502.2576968850472
 31
0.0
  0
LINE
  5
4FCA
330
1F
100
AcDbEntity
  8
AM_VIS
100
AcDbLine
 10
1756.824651978018
 20
499.6076968850472
 30
0.0
 11
1756.824651978018
 21
502.2576968850472
 31
0.0
  0
LINE
  5
4FCC
330
1F
100
AcDbEntity
  8
AM_VIS
100
AcDbLine
 10
1757.424651978018
 20
505.8430797922953
 30
0.0
 11
1757.424651978018
 21
501.4668663005094
 31
0.0
  0
LINE
  5
4FCD
330
1F
100
AcDbEntity
  8
AM_VIS
100
AcDbLine
 10
1757.424651978018
 20
506.8076968850472
 30
0.0
 11
1757.424651978018
 21
506.5612019784954
 31
0.0
  0
LINE
  5
4FE3
330
1F
100
AcDbEntity
  8
AM_VIS
100
AcDbLine
 10
1727.824651978018
 20
514.6076968850471
 30
0.0
 11
1729.824651978018
 21
514.6076968850471
 31
0.0
  0
LINE
  5
4FE4
330
1F
100
AcDbEntity
  8
AM_VIS
100
AcDbLine
 10
1729.824651978018
 20
514.6076968850471
 30
0.0
 11
1729.824651978018
 21
511.6076968850471
 31
0.0
  0
LINE
  5
4FE5
330
1F
100
AcDbEntity
  8
AM_VIS
100
AcDbLine
 10
1729.824651978018
 20
511.6076968850471
 30
0.0
 11
1732.824651978017
 21
511.6076968850471
 31
0.0
  0
LINE
  5
4FE6
330
1F
100
AcDbEntity
  8
AM_VIS
100
AcDbLine
 10
1732.824651978017
 20
511.6076968850471
 30
0.0
 11
1732.824651978017
 21
512.6076968850472
 31
0.0
  0
LINE
  5
4FE7
330
1F
100
AcDbEntity
  8
AM_VIS
100
AcDbLine
 10
1732.824651978017
 20
512.6076968850472
 30
0.0
 11
1739.824651978018
 21
512.6076968850472
 31
0.0
  0
LINE
  5
4FE8
330
1F
100
AcDbEntity
  8
AM_VIS
100
AcDbLine
 10
1739.824651978018
 20
512.6076968850472
 30
0.0
 11
1740.824651978018
 21
511.6076968850471
 31
0.0
  0
LINE
  5
4FE9
330
1F
100
AcDbEntity
  8
AM_VIS
100
AcDbLine
 10
1740.824651978018
 20
511.6076968850471
 30
0.0
 11
1746.324651978017
 21
511.6076968850471
 31
0.0
  0
LINE
  5
4FEA
330
1F
100
AcDbEntity
  8
AM_VIS
100
AcDbLine
 10
1746.324651978017
 20
511.6076968850471
 30
0.0
 11
1746.824651978017
 21
511.1076968850471
 31
0.0
  0
LINE
  5
4FEB
330
1F
100
AcDbEntity
  8
AM_VIS
100
AcDbLine
 10
1746.824651978017
 20
511.1076968850471
 30
0.0
 11
1746.824651978017
 21
509.5076968850472
 31
0.0
  0
LINE
  5
4FEC
330
1F
100
AcDbEntity
  8
AM_VIS
100
AcDbLine
 10
1746.824651978017
 20
509.5076968850472
 30
0.0
 11
1748.324651978018
 21
509.5076968850472
 31
0.0
  0
LINE
  5
4FED
330
1F
100
AcDbEntity
  8
AM_VIS
100
AcDbLine
 10
1748.324651978018
 20
509.5076968850472
 30
0.0
 11
1748.824651978017
 21
509.0076968850472
 31
0.0
  0
LINE
  5
4FEE
330
1F
100
AcDbEntity
  8
AM_VIS
100
AcDbLine
 10
1748.824651978017
 20
509.0076968850472
 30
0.0
 11
1748.824651978017
 21
505.8076968850472
 31
0.0
  0
LINE
  5
4FEF
330
1F
100
AcDbEntity
  8
AM_VIS
100
AcDbLine
 10
1748.824651978017
 20
505.8076968850472
 30
0.0
 11
1748.624651978018
 21
505.6076968850471
 31
0.0
  0
LINE
  5
4FF0
330
1F
100
AcDbEntity
  8
AM_VIS
100
AcDbLine
 10
1748.624651978018
 20
505.6076968850471
 30
0.0
 11
1743.575727751802
 21
505.6076968850471
 31
0.0
  0
LINE
  5
4FF1
330
1F
100
AcDbEntity
  8
AM_VIS
100
AcDbLine
 10
1743.575727751802
 20
505.6076968850471
 30
0.0
 11
1742.824651978018
 21
506.8576968850472
 31
0.0
  0
LINE
  5
4FF2
330
1F
100
AcDbEntity
  8
AM_VIS
100
AcDbLine
 10
1742.824651978018
 20
506.8576968850472
 30
0.0
 11
1719.324651978018
 21
506.8576968850472
 31
0.0
  0
LINE
  5
4FF3
330
1F
100
AcDbEntity
  8
AM_VIS
100
AcDbLine
 10
1719.324651978018
 20
506.8576968850472
 30
0.0
 11
1717.824651978018
 21
508.3576968850471
 31
0.0
  0
LINE
  5
4FF4
330
1F
100
AcDbEntity
  8
AM_VIS
100
AcDbLine
 10
1717.824651978018
 20
508.3576968850471
 30
0.0
 11
1717.824651978018
 21
512.6076968850472
 31
0.0
  0
LINE
  5
4FF5
330
1F
100
AcDbEntity
  8
AM_VIS
100
AcDbLine
 10
1717.824651978018
 20
512.6076968850472
 30
0.0
 11
1727.824651978018
 21
512.6076968850472
 31
0.0
  0
LINE
  5
4FF6
330
1F
100
AcDbEntity
  8
AM_VIS
100
AcDbLine
 10
1727.824651978018
 20
512.6076968850472
 30
0.0
 11
1727.824651978018
 21
514.6076968850471
 31
0.0
  0
LINE
  5
4FF7
330
1F
100
AcDbEntity
  8
AM_VIS
100
AcDbLine
 10
1742.824651978017
 20
499.6076968850472
 30
0.0
 11
1742.824651978018
 21
506.8576968850472
 31
0.0
  0
LINE
  5
4FF8
330
1F
100
AcDbEntity
  8
AM_VIS
100
AcDbLine
 10
1719.324651978018
 20
499.6076968850472
 30
0.0
 11
1719.324651978018
 21
506.8576968850472
 31
0.0
  0
LINE
  5
4FF9
330
1F
100
AcDbEntity
  8
AM_VIS
100
AcDbLine
 10
1717.824651978018
 20
508.3576968850471
 30
0.0
 11
1717.824651978018
 21
499.6076968850471
 31
0.0
  0
LINE
  5
4FFA
330
1F
100
AcDbEntity
  8
AM_VIS
100
AcDbLine
 10
1743.575727751802
 20
505.6076968850471
 30
0.0
 11
1743.575727751802
 21
499.6076968850472
 31
0.0
  0
LINE
  5
4FFB
330
1F
100
AcDbEntity
  8
AM_VIS
100
AcDbLine
 10
1748.624651978018
 20
505.6076968850471
 30
0.0
 11
1748.624651978018
 21
505.457696885047
 31
0.0
  0
LINE
  5
5003
330
1F
100
AcDbEntity
  8
AM_VIS
100
AcDbLine
 10
1744.824651978017
 20
480.6076968850471
 30
0.0
 11
1743.824651978018
 21
479.6076968850472
 31
0.0
  0
LINE
  5
5004
102
{ACAD_REACTORS
330
578D
102
}
330
1F
100
AcDbEntity
  8
AM_VIS
100
AcDbLine
 10
1743.824651978018
 20
479.6076968850472
 30
0.0
 11
1679.824651978018
 21
479.6076968850472
 31
0.0
  0
LINE
  5
5005
330
1F
100
AcDbEntity
  8
AM_VIS
100
AcDbLine
 10
1679.824651978018
 20
479.6076968850472
 30
0.0
 11
1678.824651978018
 21
480.6076968850471
 31
0.0
  0
LINE
  5
5006
102
{ACAD_REACTORS
330
7341
102
}
330
1F
100
AcDbEntity
  8
AM_VIS
100
AcDbLine
 10
1678.824651978018
 20
480.6076968850471
 30
0.0
 11
1678.824651978018
 21
499.6076968850472
 31
0.0
  0
LINE
  5
5007
330
1F
100
AcDbEntity
  8
AM_VIS
100
AcDbLine
 10
1678.824651978018
 20
492.6076968850471
 30
0.0
 11
1671.824651978018
 21
492.6076968850471
 31
0.0
  0
LINE
  5
5008
330
1F
100
AcDbEntity
  8
AM_VIS
100
AcDbLine
 10
1671.824651978018
 20
499.6076968850471
 30
0.0
 11
1671.824651978018
 21
492.1076968850472
 31
0.0
  0
LINE
  5
5009
102
{ACAD_REACTORS
330
5767
102
}
330
1F
100
AcDbEntity
  8
AM_VIS
100
AcDbLine
 10
1671.824651978018
 20
492.1076968850472
 30
0.0
 11
1663.824651978018
 21
492.6076968850471
 31
0.0
  0
LINE
  5
500A
102
{ACAD_REACTORS
330
5739
330
7341
330
7374
102
}
330
1F
100
AcDbEntity
  8
AM_VIS
100
AcDbLine
 10
1663.824651978018
 20
492.6076968850471
 30
0.0
 11
1663.824651978018
 21
494.3576968850472
 31
0.0
  0
LINE
  5
500D
330
1F
100
AcDbEntity
  8
AM_VIS
100
AcDbLine
 10
1683.824651978017
 20
508.6076968850472
 30
0.0
 11
1683.824651978017
 21
504.8576968850471
 31
0.0
  0
LINE
  5
500E
330
1F
100
AcDbEntity
  8
AM_VIS
100
AcDbLine
 10
1683.824651978017
 20
504.8576968850471
 30
0.0
 11
1663.824651978018
 21
504.8576968850471
 31
0.0
  0
LINE
  5
500F
330
1F
100
AcDbEntity
  8
AM_VIS
100
AcDbLine
 10
1663.824651978018
 20
504.8576968850471
 30
0.0
 11
1663.824651978018
 21
506.6076968850471
 31
0.0
  0
LINE
  5
5010
102
{ACAD_REACTORS
330
5739
330
5767
102
}
330
1F
100
AcDbEntity
  8
AM_VIS
100
AcDbLine
 10
1663.824651978018
 20
506.6076968850471
 30
0.0
 11
1671.824651978018
 21
507.1076968850471
 31
0.0
  0
LINE
  5
5011
330
1F
100
AcDbEntity
  8
AM_VIS
100
AcDbLine
 10
1671.824651978018
 20
507.1076968850471
 30
0.0
 11
1671.824651978018
 21
506.6076968850471
 31
0.0
  0
LINE
  5
5012
330
1F
100
AcDbEntity
  8
AM_VIS
100
AcDbLine
 10
1671.824651978018
 20
506.6076968850471
 30
0.0
 11
1678.824651978018
 21
506.6076968850471
 31
0.0
  0
LINE
  5
5013
330
1F
100
AcDbEntity
  8
AM_VIS
100
AcDbLine
 10
1678.824651978018
 20
506.6076968850471
 30
0.0
 11
1678.824651978018
 21
518.6076968850471
 31
0.0
  0
LINE
  5
5014
330
1F
100
AcDbEntity
  8
AM_VIS
100
AcDbLine
 10
1678.824651978018
 20
518.6076968850471
 30
0.0
 11
1679.824651978018
 21
519.6076968850471
 31
0.0
  0
LINE
  5
5015
102
{ACAD_REACTORS
330
578D
102
}
330
1F
100
AcDbEntity
  8
AM_VIS
100
AcDbLine
 10
1679.824651978018
 20
519.6076968850471
 30
0.0
 11
1743.824651978018
 21
519.6076968850471
 31
0.0
  0
LINE
  5
5016
330
1F
100
AcDbEntity
  8
AM_VIS
100
AcDbLine
 10
1743.824651978018
 20
519.6076968850471
 30
0.0
 11
1744.824651978017
 21
518.6076968850471
 31
0.0
  0
LINE
  5
5017
330
1F
100
AcDbEntity
  8
AM_VIS
100
AcDbLine
 10
1744.824651978017
 20
518.6076968850471
 30
0.0
 11
1744.824651978017
 21
516.3576968850471
 31
0.0
  0
LINE
  5
5018
330
1F
100
AcDbEntity
  8
AM_VIS
100
AcDbLine
 10
1744.824651978017
 20
516.3576968850471
 30
0.0
 11
1743.824651978018
 21
515.3576968850472
 31
0.0
  0
LINE
  5
5019
330
1F
100
AcDbEntity
  8
AM_VIS
100
AcDbLine
 10
1743.824651978018
 20
515.3576968850472
 30
0.0
 11
1714.824651978017
 21
515.3576968850472
 31
0.0
  0
LINE
  5
501A
330
1F
100
AcDbEntity
  8
AM_VIS
100
AcDbLine
 10
1714.824651978017
 20
515.3576968850472
 30
0.0
 11
1714.824651978017
 21
510.6076968850471
 31
0.0
  0
LINE
  5
501B
330
1F
100
AcDbEntity
  8
AM_VIS
100
AcDbLine
 10
1714.824651978017
 20
510.6076968850471
 30
0.0
 11
1713.824651978018
 21
509.6076968850471
 31
0.0
  0
LINE
  5
501C
330
1F
100
AcDbEntity
  8
AM_VIS
100
AcDbLine
 10
1713.824651978018
 20
509.6076968850471
 30
0.0
 11
1684.824651978018
 21
509.6076968850471
 31
0.0
  0
LINE
  5
501D
330
1F
100
AcDbEntity
  8
AM_VIS
100
AcDbLine
 10
1714.824651978017
 20
499.6076968850472
 30
0.0
 11
1714.824651978017
 21
510.6076968850471
 31
0.0
  0
LINE
  5
501E
330
1F
100
AcDbEntity
  8
AM_VIS
100
AcDbLine
 10
1713.824651978018
 20
509.6076968850471
 30
0.0
 11
1713.824651978018
 21
499.6076968850471
 31
0.0
  0
LINE
  5
501F
330
1F
100
AcDbEntity
  8
AM_VIS
100
AcDbLine
 10
1743.824651978018
 20
515.3576968850472
 30
0.0
 11
1743.824651978018
 21
515.1076968850471
 31
0.0
  0
LINE
  5
5021
330
1F
100
AcDbEntity
  8
AM_VIS
100
AcDbLine
 10
1683.824651978017
 20
504.8576968850471
 30
0.0
 11
1683.824651978017
 21
499.6076968850472
 31
0.0
  0
LINE
  5
5022
330
1F
100
AcDbEntity
  8
AM_VIS
100
AcDbLine
 10
1663.824651978018
 20
494.3576968850472
 30
0.0
 11
1663.824651978018
 21
504.8576968850471
 31
0.0
  0
ARC
  5
5024
330
1F
100
AcDbEntity
  8
AM_VIS
100
AcDbCircle
 10
1684.824651978018
 20
508.6076968850472
 30
0.0
 40
1.0
100
AcDbArc
 50
90.0
 51
180.0
  0
CIRCLE
  5
5025
330
1F
100
AcDbEntity
  8
AM_VIS
100
AcDbCircle
 10
1747.824651978018
 20
510.7076968850471
 30
0.0
 40
1.199999999999999
  0
POLYLINE
  5
5027
330
1F
100
AcDbEntity
  8
AM_4
100
AcDb2dPolyline
 66
     1
 10
0.0
 20
0.0
 30
0.0
 70
     4
 75
     6
  0
VERTEX
  5
5028
330
5027
100
AcDbEntity
  8
AM_4
100
AcDbVertex
100
AcDb2dVertex
 10
1774.962628357515
 20
529.4736993968821
 30
0.0
 70
    16
  0
VERTEX
  5
5029
330
5027
100
AcDbEntity
  8
AM_4
100
AcDbVertex
100
AcDb2dVertex
 10
1774.962628357515
 20
529.4736993968821
 30
0.0
 70
     8
  0
VERTEX
  5
502A
330
5027
100
AcDbEntity
  8
AM_4
100
AcDbVertex
100
AcDb2dVertex
 10
1773.507648054388
 20
526.3924886666749
 30
0.0
 70
     8
  0
VERTEX
  5
502B
330
5027
100
AcDbEntity
  8
AM_4
100
AcDbVertex
100
AcDb2dVertex
 10
1772.510444451544
 20
523.7098631829725
 30
0.0
 70
     8
  0
VERTEX
  5
502C
330
5027
100
AcDbEntity
  8
AM_4
100
AcDbVertex
100
AcDb2dVertex
 10
1771.882674674772
 20
521.3747451534046
 30
0.0
 70
     8
  0
VERTEX
  5
502D
330
5027
100
AcDbEntity
  8
AM_4
100
AcDbVertex
100
AcDb2dVertex
 10
1771.535995849859
 20
519.3360567856008
 30
0.0
 70
     8
  0
VERTEX
  5
502E
330
5027
100
AcDbEntity
  8
AM_4
100
AcDbVertex
100
AcDb2dVertex
 10
1771.382065102596
 20
517.5427202871907
 30
0.0
 70
     8
  0
VERTEX
  5
502F
330
5027
100
AcDbEntity
  8
AM_4
100
AcDbVertex
100
AcDb2dVertex
 10
1771.33253955877
 20
515.9436578658038
 30
0.0
 70
     8
  0
VERTEX
  5
5030
330
5027
100
AcDbEntity
  8
AM_4
100
AcDbVertex
100
AcDb2dVertex
 10
1771.299076344171
 20
514.4877917290697
 30
0.0
 70
     8
  0
VERTEX
  5
5031
330
5027
100
AcDbEntity
  8
AM_4
100
AcDbVertex
100
AcDb2dVertex
 10
1771.193332584587
 20
513.1240440846182
 30
0.0
 70
     8
  0
VERTEX
  5
5032
330
5027
100
AcDbEntity
  8
AM_4
100
AcDbVertex
100
AcDb2dVertex
 10
1770.949348575532
 20
511.8097385813151
 30
0.0
 70
     8
  0
VERTEX
  5
5033
330
5027
100
AcDbEntity
  8
AM_4
100
AcDbVertex
100
AcDb2dVertex
 10
1770.590697291413
 20
510.5358046329719
 30
0.0
 70
     8
  0
VERTEX
  5
5034
330
5027
100
AcDbEntity
  8
AM_4
100
AcDbVertex
100
AcDb2dVertex
 10
1770.163334876358
 20
509.3015730946359
 30
0.0
 70
     8
  0
VERTEX
  5
5035
330
5027
100
AcDbEntity
  8
AM_4
100
AcDbVertex
100
AcDb2dVertex
 10
1769.7132174745
 20
508.1063748213554
 30
0.0
 70
     8
  0
VERTEX
  5
5036
330
5027
100
AcDbEntity
  8
AM_4
100
AcDbVertex
100
AcDb2dVertex
 10
1769.286301229969
 20
506.9495406681777
 30
0.0
 70
     8
  0
VERTEX
  5
5037
330
5027
100
AcDbEntity
  8
AM_4
100
AcDbVertex
100
AcDb2dVertex
 10
1768.928542286895
 20
505.830401490151
 30
0.0
 70
     8
  0
VERTEX
  5
5038
330
5027
100
AcDbEntity
  8
AM_4
100
AcDbVertex
100
AcDb2dVertex
 10
1768.68589678941
 20
504.7482881423226
 30
0.0
 70
     8
  0
VERTEX
  5
5039
330
5027
100
AcDbEntity
  8
AM_4
100
AcDbVertex
100
AcDb2dVertex
 10
1768.604320881643
 20
503.7025314797403
 30
0.0
 70
     8
  0
VERTEX
  5
503A
330
5027
100
AcDbEntity
  8
AM_4
100
AcDbVertex
100
AcDb2dVertex
 10
1768.713559640888
 20
502.692462358318
 30
0.0
 70
     8
  0
VERTEX
  5
503B
330
5027
100
AcDbEntity
  8
AM_4
100
AcDbVertex
100
AcDb2dVertex
 10
1768.978513877087
 20
501.7174116374325
 30
0.0
 70
     8
  0
VERTEX
  5
503C
330
5027
100
AcDbEntity
  8
AM_4
100
AcDbVertex
100
AcDb2dVertex
 10
1769.347873333345
 20
500.7767101773271
 30
0.0
 70
     8
  0
VERTEX
  5
503D
330
5027
100
AcDbEntity
  8
AM_4
100
AcDbVertex
100
AcDb2dVertex
 10
1769.770327752769
 20
499.8696888382447
 30
0.0
 70
     8
  0
VERTEX
  5
503E
330
5027
100
AcDbEntity
  8
AM_4
100
AcDbVertex
100
AcDb2dVertex
 10
1770.194566878461
 20
498.9956784804282
 30
0.0
 70
     8
  0
VERTEX
  5
503F
330
5027
100
AcDbEntity
  8
AM_4
100
AcDbVertex
100
AcDb2dVertex
 10
1770.569280453528
 20
498.1540099641207
 30
0.0
 70
     8
  0
VERTEX
  5
5040
330
5027
100
AcDbEntity
  8
AM_4
100
AcDbVertex
100
AcDb2dVertex
 10
1770.843158221074
 20
497.3440141495652
 30
0.0
 70
     8
  0
VERTEX
  5
5041
330
5027
100
AcDbEntity
  8
AM_4
100
AcDbVertex
100
AcDb2dVertex
 10
1770.964889924206
 20
496.5650218970048
 30
0.0
 70
     8
  0
VERTEX
  5
5042
330
5027
100
AcDbEntity
  8
AM_4
100
AcDbVertex
100
AcDb2dVertex
 10
1770.900956580218
 20
495.8109365848643
 30
0.0
 70
     8
  0
VERTEX
  5
5043
330
5027
100
AcDbEntity
  8
AM_4
100
AcDbVertex
100
AcDb2dVertex
 10
1770.689004303175
 20
495.053951664296
 30
0.0
 70
     8
  0
VERTEX
  5
5044
330
5027
100
AcDbEntity
  8
AM_4
100
AcDbVertex
100
AcDb2dVertex
 10
1770.384470481331
 20
494.2608331046343
 30
0.0
 70
     8
  0
VERTEX
  5
5045
330
5027
100
AcDbEntity
  8
AM_4
100
AcDbVertex
100
AcDb2dVertex
 10
1770.042792502939
 20
493.3983468752132
 30
0.0
 70
     8
  0
VERTEX
  5
5046
330
5027
100
AcDbEntity
  8
AM_4
100
AcDbVertex
100
AcDb2dVertex
 10
1769.719407756254
 20
492.4332589453674
 30
0.0
 70
     8
  0
VERTEX
  5
5047
330
5027
100
AcDbEntity
  8
AM_4
100
AcDbVertex
100
AcDb2dVertex
 10
1769.469753629531
 20
491.3323352844306
 30
0.0
 70
     8
  0
VERTEX
  5
5048
330
5027
100
AcDbEntity
  8
AM_4
100
AcDbVertex
100
AcDb2dVertex
 10
1769.349267511024
 20
490.0623418617373
 30
0.0
 70
     8
  0
VERTEX
  5
5049
330
5027
100
AcDbEntity
  8
AM_4
100
AcDbVertex
100
AcDb2dVertex
 10
1769.413386788987
 20
488.5900446466219
 30
0.0
 70
     8
  0
VERTEX
  5
504A
330
5027
100
AcDbEntity
  8
AM_4
100
AcDbVertex
100
AcDb2dVertex
 10
1769.687357596556
 20
486.8893099442829
 30
0.0
 70
     8
  0
VERTEX
  5
504B
330
5027
100
AcDbEntity
  8
AM_4
100
AcDbVertex
100
AcDb2dVertex
 10
1770.075661046386
 20
484.9624054033784
 30
0.0
 70
     8
  0
VERTEX
  5
504C
330
5027
100
AcDbEntity
  8
AM_4
100
AcDbVertex
100
AcDb2dVertex
 10
1770.452586996014
 20
482.8186990084309
 30
0.0
 70
     8
  0
VERTEX
  5
504D
330
5027
100
AcDbEntity
  8
AM_4
100
AcDbVertex
100
AcDb2dVertex
 10
1770.692425302978
 20
480.4675587439625
 30
0.0
 70
     8
  0
VERTEX
  5
504E
330
5027
100
AcDbEntity
  8
AM_4
100
AcDbVertex
100
AcDb2dVertex
 10
1770.669465824814
 20
477.9183525944959
 30
0.0
 70
     8
  0
VERTEX
  5
504F
330
5027
100
AcDbEntity
  8
AM_4
100
AcDbVertex
100
AcDb2dVertex
 10
1770.257998419059
 20
475.1804485445534
 30
0.0
 70
     8
  0
VERTEX
  5
5050
330
5027
100
AcDbEntity
  8
AM_4
100
AcDbVertex
100
AcDb2dVertex
 10
1769.33231294325
 20
472.2632145786574
 30
0.0
 70
     8
  0
VERTEX
  5
5051
330
5027
100
AcDbEntity
  8
AM_4
100
AcDbVertex
100
AcDb2dVertex
 10
1767.766699254924
 20
469.1760186813304
 30
0.0
 70
     8
  0
VERTEX
  5
5052
330
5027
100
AcDbEntity
  8
AM_4
100
AcDbVertex
100
AcDb2dVertex
 10
1770.393784949503
 20
520.6802879722157
 30
0.0
 70
    16
  0
VERTEX
  5
5053
330
5027
100
AcDbEntity
  8
AM_4
100
AcDbVertex
100
AcDb2dVertex
 10
1772.906649056006
 20
512.6862766188898
 30
0.0
 70
    16
  0
VERTEX
  5
5054
330
5027
100
AcDbEntity
  8
AM_4
100
AcDbVertex
100
AcDb2dVertex
 10
1766.396046387251
 20
503.3218643832716
 30
0.0
 70
    16
  0
VERTEX
  5
5055
330
5027
100
AcDbEntity
  8
AM_4
100
AcDbVertex
100
AcDb2dVertex
 10
1773.135090684848
 20
496.2414547264658
 30
0.0
 70
    16
  0
VERTEX
  5
5056
330
5027
100
AcDbEntity
  8
AM_4
100
AcDbVertex
100
AcDb2dVertex
 10
1766.852930418591
 20
491.1024480928942
 30
0.0
 70
    16
  0
VERTEX
  5
5057
330
5027
100
AcDbEntity
  8
AM_4
100
AcDbVertex
100
AcDb2dVertex
 10
1772.906649056006
 20
477.6268298854237
 30
0.0
 70
    16
  0
VERTEX
  5
5058
330
5027
100
AcDbEntity
  8
AM_4
100
AcDbVertex
100
AcDb2dVertex
 10
1767.766699254924
 20
469.1760186813304
 30
0.0
 70
    16
  0
SEQEND
  5
5059
330
5027
100
AcDbEntity
  8
AM_4
  0
LINE
  5
505A
330
1F
100
AcDbEntity
  8
AM_7
100
AcDbLine
 10
1843.687106663745
 20
325.0721034449348
 30
0.0
 11
1873.687106663745
 21
325.0721034449348
 31
0.0
  0
LINE
  5
505B
330
1F
100
AcDbEntity
  8
AM_7
100
AcDbLine
 10
1900.937106663745
 20
307.0721034449348
 30
0.0
 11
1902.437106663745
 21
307.0721034449348
 31
0.0
  0
LINE
  5
505C
330
1F
100
AcDbEntity
  8
AM_7
100
AcDbLine
 10
1901.687106663745
 20
306.3221034449348
 30
0.0
 11
1901.687106663745
 21
307.8221034449348
 31
0.0
  0
LINE
  5
505D
330
1F
100
AcDbEntity
  8
AM_7
100
AcDbLine
 10
1896.387106663745
 20
307.0721034449348
 30
0.0
 11
1900.137106663745
 21
307.0721034449348
 31
0.0
  0
LINE
  5
505E
102
{ACAD_REACTORS
330
70D7
102
}
330
1F
100
AcDbEntity
  8
AM_7
100
AcDbLine
 10
1903.237106663745
 20
307.0721034449348
 30
0.0
 11
1906.987106663745
 21
307.0721034449348
 31
0.0
  0
LINE
  5
505F
102
{ACAD_REACTORS
330
7030
102
}
330
1F
100
AcDbEntity
  8
AM_7
100
AcDbLine
 10
1901.687106663745
 20
301.7721034449347
 30
0.0
 11
1901.687106663745
 21
305.5221034449347
 31
0.0
  0
LINE
  5
5060
330
1F
100
AcDbEntity
  8
AM_7
100
AcDbLine
 10
1901.687106663745
 20
308.6221034449347
 30
0.0
 11
1901.687106663745
 21
312.3721034449348
 31
0.0
  0
LINE
  5
5061
330
1F
100
AcDbEntity
  8
AM_7
100
AcDbLine
 10
1900.937106663745
 20
343.0721034449348
 30
0.0
 11
1902.437106663745
 21
343.0721034449348
 31
0.0
  0
LINE
  5
5062
330
1F
100
AcDbEntity
  8
AM_7
100
AcDbLine
 10
1901.687106663745
 20
342.3221034449348
 30
0.0
 11
1901.687106663745
 21
343.8221034449348
 31
0.0
  0
LINE
  5
5063
330
1F
100
AcDbEntity
  8
AM_7
100
AcDbLine
 10
1896.387106663745
 20
343.0721034449348
 30
0.0
 11
1900.137106663745
 21
343.0721034449348
 31
0.0
  0
LINE
  5
5064
102
{ACAD_REACTORS
330
70D7
102
}
330
1F
100
AcDbEntity
  8
AM_7
100
AcDbLine
 10
1903.237106663745
 20
343.0721034449348
 30
0.0
 11
1906.987106663745
 21
343.0721034449348
 31
0.0
  0
LINE
  5
5065
330
1F
100
AcDbEntity
  8
AM_7
100
AcDbLine
 10
1901.687106663745
 20
337.7721034449347
 30
0.0
 11
1901.687106663745
 21
341.5221034449347
 31
0.0
  0
LINE
  5
5066
330
1F
100
AcDbEntity
  8
AM_7
100
AcDbLine
 10
1901.687106663745
 20
344.6221034449347
 30
0.0
 11
1901.687106663745
 21
348.3721034449347
 31
0.0
  0
LINE
  5
5067
330
1F
100
AcDbEntity
  8
AM_7
100
AcDbLine
 10
2085.758903433469
 20
325.0721034449348
 30
0.0
 11
1921.743683000357
 21
325.0721034449348
 31
0.0
  0
LINE
  5
5068
330
1F
100
AcDbEntity
  8
AM_7
100
AcDbLine
 10
2030.687106663745
 20
307.0721034449348
 30
0.0
 11
2030.687106663745
 21
311.5111034449348
 31
0.0
  0
LINE
  5
5069
330
1F
100
AcDbEntity
  8
AM_7
100
AcDbLine
 10
2030.687106663745
 20
343.0721034449348
 30
0.0
 11
2030.687106663745
 21
338.6331034449348
 31
0.0
  0
LINE
  5
506A
330
1F
100
AcDbEntity
  8
AM_7
100
AcDbLine
 10
2048.687106663745
 20
325.5721034449348
 30
0.0
 11
2048.687106663745
 21
290.0721034449348
 31
0.0
  0
LINE
  5
506B
102
{ACAD_REACTORS
330
7097
102
}
330
1F
100
AcDbEntity
  8
AM_7
100
AcDbLine
 10
2117.746998954473
 20
325.0721034449348
 30
0.0
 11
2085.61530989402
 21
325.0721034449348
 31
0.0
  0
LINE
  5
506E
330
1F
100
AcDbEntity
  8
AM_7
100
AcDbLine
 10
1769.837106663745
 20
303.0721034449348
 30
0.0
 11
1769.837106663745
 21
290.0721034449348
 31
0.0
  0
LINE
  5
506F
330
1F
100
AcDbEntity
  8
AM_7
100
AcDbLine
 10
1769.837106663745
 20
330.0721034449348
 30
0.0
 11
1769.837106663745
 21
301.5721034449348
 31
0.0
  0
LINE
  5
5070
330
1F
100
AcDbEntity
  8
AM_7
100
AcDbLine
 10
1769.087106663745
 20
325.0721034449348
 30
0.0
 11
1770.587106663745
 21
325.0721034449348
 31
0.0
  0
LINE
  5
5071
330
1F
100
AcDbEntity
  8
AM_7
100
AcDbLine
 10
1769.837106663745
 20
324.3221034449348
 30
0.0
 11
1769.837106663745
 21
325.8221034449348
 31
0.0
  0
LINE
  5
5072
330
1F
100
AcDbEntity
  8
AM_7
100
AcDbLine
 10
1743.337106663745
 20
325.0721034449348
 30
0.0
 11
1768.287106663745
 21
325.0721034449348
 31
0.0
  0
LINE
  5
5073
330
1F
100
AcDbEntity
  8
AM_7
100
AcDbLine
 10
1771.387106663745
 20
325.0721034449348
 30
0.0
 11
1796.337106663745
 21
325.0721034449348
 31
0.0
  0
LINE
  5
5074
330
1F
100
AcDbEntity
  8
AM_7
100
AcDbLine
 10
1769.837106663745
 20
298.5721034449348
 30
0.0
 11
1769.837106663745
 21
323.5221034449347
 31
0.0
  0
LINE
  5
5075
330
1F
100
AcDbEntity
  8
AM_7
100
AcDbLine
 10
1769.837106663745
 20
326.6221034449348
 30
0.0
 11
1769.837106663745
 21
351.5721034449348
 31
0.0
  0
ARC
  5
5076
330
1F
100
AcDbEntity
  8
0
 62
     3
100
AcDbCircle
 10
1769.837106663745
 20
325.0721034449348
 30
0.0
 40
15.75
100
AcDbArc
 50
249.4621404346046
 51
209.725125046939
  0
CIRCLE
  5
5077
330
1F
100
AcDbEntity
  8
AM_4
  6
HIDDEN2
100
AcDbCircle
 10
1769.837106663745
 20
325.0721034449348
 30
0.0
 40
8.33
  0
LINE
  5
507A
102
{ACAD_REACTORS
330
72D9
102
}
330
1F
100
AcDbEntity
  8
AM_VIS
100
AcDbLine
 10
1908.687106663745
 20
467.7511596362961
 30
0.0
 11
1871.687106663745
 21
467.7511596362961
 31
0.0
  0
LINE
  5
507B
330
1F
100
AcDbEntity
  8
AM_VIS
100
AcDbLine
 10
1908.687106663745
 20
427.7511596362962
 30
0.0
 11
1908.687106663745
 21
467.7511596362961
 31
0.0
  0
LINE
  5
507C
102
{ACAD_REACTORS
330
71F7
102
}
330
1F
100
AcDbEntity
  8
AM_VIS
100
AcDbLine
 10
1908.687106663745
 20
427.7511596362962
 30
0.0
 11
1871.687106663745
 21
427.7511596362962
 31
0.0
  0
LINE
  5
507D
102
{ACAD_REACTORS
330
7175
330
719F
330
71CD
330
71F7
102
}
330
1F
100
AcDbEntity
  8
AM_VIS
100
AcDbLine
 10
1871.687106663745
 20
467.7511596362961
 30
0.0
 11
1871.687106663745
 21
427.7511596362962
 31
0.0
  0
LINE
  5
507E
330
1F
100
AcDbEntity
  8
AM_VIS
100
AcDbLine
 10
1869.687106663745
 20
432.2511596362962
 30
0.0
 11
1871.687106663745
 21
432.2511596362962
 31
0.0
  0
LINE
  5
507F
330
1F
100
AcDbEntity
  8
AM_VIS
100
AcDbLine
 10
1869.687106663745
 20
463.2511596362961
 30
0.0
 11
1871.687106663745
 21
463.2511596362961
 31
0.0
  0
LINE
  5
5080
330
1F
100
AcDbEntity
  8
AM_VIS
100
AcDbLine
 10
1857.687106663745
 20
431.2511596362961
 30
0.0
 11
1858.687106663745
 21
431.2511596362961
 31
0.0
  0
LINE
  5
5081
330
1F
100
AcDbEntity
  8
AM_VIS
100
AcDbLine
 10
1868.687106663745
 20
431.2511596362961
 30
0.0
 11
1869.687106663745
 21
431.2511596362961
 31
0.0
  0
LINE
  5
5082
330
1F
100
AcDbEntity
  8
AM_VIS
100
AcDbLine
 10
1857.687106663745
 20
464.2511596362961
 30
0.0
 11
1858.687106663745
 21
464.2511596362961
 31
0.0
  0
LINE
  5
5083
330
1F
100
AcDbEntity
  8
AM_VIS
100
AcDbLine
 10
1868.687106663745
 20
464.2511596362961
 30
0.0
 11
1869.687106663745
 21
464.2511596362961
 31
0.0
  0
LINE
  5
5084
330
1F
100
AcDbEntity
  8
AM_VIS
100
AcDbLine
 10
1856.687106663745
 20
432.2511596362962
 30
0.0
 11
1857.687106663745
 21
431.2511596362961
 31
0.0
  0
LINE
  5
5085
330
1F
100
AcDbEntity
  8
AM_VIS
100
AcDbLine
 10
1856.687106663745
 20
463.2511596362961
 30
0.0
 11
1857.687106663745
 21
464.2511596362961
 31
0.0
  0
LINE
  5
5086
330
1F
100
AcDbEntity
  8
AM_VIS
100
AcDbLine
 10
1869.687106663745
 20
431.2511596362961
 30
0.0
 11
1869.687106663745
 21
464.2511596362961
 31
0.0
  0
LINE
  5
5087
330
1F
100
AcDbEntity
  8
AM_VIS
100
AcDbLine
 10
1857.687106663745
 20
431.2511596362961
 30
0.0
 11
1857.687106663745
 21
464.2511596362961
 31
0.0
  0
LINE
  5
5088
102
{ACAD_REACTORS
330
71CD
102
}
330
1F
100
AcDbEntity
  8
AM_VIS
100
AcDbLine
 10
1856.687106663745
 20
432.2511596362962
 30
0.0
 11
1856.687106663745
 21
463.2511596362961
 31
0.0
  0
CIRCLE
  5
508A
330
1F
100
AcDbEntity
  8
AM_VIS
100
AcDbCircle
 10
1885.687106663745
 20
447.7511596362961
 30
0.0
 40
7.25
  0
LINE
  5
5093
330
1F
100
AcDbEntity
  8
AM_VIS
100
AcDbLine
 10
1854.687106663745
 20
440.2678448627482
 30
0.0
 11
1845.687106663745
 21
440.2678448627482
 31
0.0
  0
LINE
  5
5094
330
1F
100
AcDbEntity
  8
AM_VIS
100
AcDbLine
 10
1845.687106663745
 20
455.234474409844
 30
0.0
 11
1854.687106663745
 21
455.234474409844
 31
0.0
  0
SPLINE
  5
5095
330
1F
100
AcDbEntity
  8
AM_VIS
100
AcDbSpline
210
0.0
220
0.0
230
1.0
 70
    12
 71
     2
 72
     6
 73
     3
 74
     0
 42
0.0000000001
 43
0.0000000001
 40
0.0
 40
0.0
 40
0.0
 40
2.497117740428237
 40
2.497117740428237
 40
2.497117740428237
 10
1844.687106663745
 20
452.9473120590028
 30
0.0
 41
1.0
 10
1845.096915084106
 20
454.0514594007881
 30
0.0
 41
1.003124638744587
 10
1845.687106663745
 20
455.234474409844
 30
0.0
 41
1.0
  0
SPLINE
  5
5096
330
1F
100
AcDbEntity
  8
AM_VIS
100
AcDbSpline
210
0.0
220
0.0
230
1.0
 70
    12
 71
     2
 72
     6
 73
     3
 74
     0
 42
0.0000000001
 43
0.0000000001
 40
0.0
 40
0.0
 40
0.0
 40
2.497117740428237
 40
2.497117740428237
 40
2.497117740428237
 10
1845.687106663745
 20
440.2678448627482
 30
0.0
 41
1.0
 10
1845.096915084106
 20
441.4508598718041
 30
0.0
 41
1.003124638744587
 10
1844.687106663745
 20
442.5550072135895
 30
0.0
 41
1.0
  0
LINE
  5
5097
330
1F
100
AcDbEntity
  8
AM_VIS
100
AcDbLine
 10
1844.687106663745
 20
442.5550072135895
 30
0.0
 11
1844.687106663745
 21
452.9473120590028
 31
0.0
  0
LINE
  5
5098
102
{ACAD_REACTORS
330
7142
102
}
330
1F
100
AcDbEntity
  8
AM_VIS
100
AcDbLine
 10
1845.687106663745
 20
432.7511596362962
 30
0.0
 11
1856.687106663745
 21
432.7511596362962
 31
0.0
  0
LINE
  5
5099
102
{ACAD_REACTORS
330
7142
102
}
330
1F
100
AcDbEntity
  8
AM_VIS
100
AcDbLine
 10
1845.687106663745
 20
462.7511596362961
 30
0.0
 11
1856.687106663745
 21
462.7511596362961
 31
0.0
  0
LINE
  5
509A
330
1F
100
AcDbEntity
  8
AM_VIS
100
AcDbLine
 10
1844.687106663745
 20
461.7511596362962
 30
0.0
 11
1845.687106663745
 21
462.7511596362961
 31
0.0
  0
LINE
  5
509B
330
1F
100
AcDbEntity
  8
AM_VIS
100
AcDbLine
 10
1844.687106663745
 20
433.7511596362961
 30
0.0
 11
1845.687106663745
 21
432.7511596362962
 31
0.0
  0
LINE
  5
509C
330
1F
100
AcDbEntity
  8
AM_VIS
100
AcDbLine
 10
1854.687106663745
 20
440.2678448627483
 30
0.0
 11
1854.687106663745
 21
455.234474409844
 31
0.0
  0
LINE
  5
509D
330
1F
100
AcDbEntity
  8
AM_VIS
100
AcDbLine
 10
1845.687106663745
 20
462.7511596362961
 30
0.0
 11
1845.687106663745
 21
455.234474409844
 31
0.0
  0
LINE
  5
509E
330
1F
100
AcDbEntity
  8
AM_VIS
100
AcDbLine
 10
1845.687106663745
 20
440.2678448627482
 30
0.0
 11
1845.687106663745
 21
432.7511596362962
 31
0.0
  0
LINE
  5
509F
330
1F
100
AcDbEntity
  8
AM_VIS
100
AcDbLine
 10
1844.687106663745
 20
452.9473120590028
 30
0.0
 11
1844.687106663745
 21
461.7511596362962
 31
0.0
  0
LINE
  5
50A0
102
{ACAD_REACTORS
330
7175
330
7225
102
}
330
1F
100
AcDbEntity
  8
AM_VIS
100
AcDbLine
 10
1844.687106663745
 20
433.7511596362961
 30
0.0
 11
1844.687106663745
 21
442.5550072135895
 31
0.0
  0
LINE
  5
50A1
330
1F
100
AcDbEntity
  8
AM_VIS
100
AcDbLine
 10
2011.387106663745
 20
463.601159636296
 30
0.0
 11
1908.687106663745
 21
463.601159636296
 31
0.0
  0
LINE
  5
50A2
330
1F
100
AcDbEntity
  8
AM_VIS
100
AcDbLine
 10
2011.387106663745
 20
431.9011596362961
 30
0.0
 11
1908.687106663745
 21
431.9011596362961
 31
0.0
  0
LINE
  5
50A3
330
1F
100
AcDbEntity
  8
AM_VIS
100
AcDbLine
 10
2011.687106663745
 20
463.3011596362961
 30
0.0
 11
2011.387106663745
 21
463.601159636296
 31
0.0
  0
LINE
  5
50A4
330
1F
100
AcDbEntity
  8
AM_VIS
100
AcDbLine
 10
2011.687106663745
 20
432.2011596362962
 30
0.0
 11
2011.387106663745
 21
431.9011596362961
 31
0.0
  0
LINE
  5
50A5
330
1F
100
AcDbEntity
  8
AM_VIS
100
AcDbLine
 10
2011.387106663745
 20
431.9011596362961
 30
0.0
 11
2011.387106663745
 21
463.601159636296
 31
0.0
  0
LINE
  5
50A6
330
1F
100
AcDbEntity
  8
AM_VIS
100
AcDbLine
 10
2011.687106663745
 20
463.3011596362961
 30
0.0
 11
2011.687106663745
 21
432.2011596362962
 31
0.0
  0
LINE
  5
50A7
330
1F
100
AcDbEntity
  8
AM_VIS
100
AcDbLine
 10
2025.189902967866
 20
439.1619384063434
 30
0.0
 11
2025.690121835659
 21
440.1338346715199
 31
0.0
  0
LINE
  5
50A8
330
1F
100
AcDbEntity
  8
AM_VIS
100
AcDbLine
 10
2025.187106663745
 20
439.1633776176373
 30
0.0
 11
2017.687106663745
 21
439.1633776176373
 31
0.0
  0
LINE
  5
50A9
330
1F
100
AcDbEntity
  8
AM_VIS
100
AcDbLine
 10
2017.687106663745
 20
456.3389416549549
 30
0.0
 11
2025.187106663745
 21
456.3389416549549
 31
0.0
  0
LINE
  5
50AA
330
1F
100
AcDbEntity
  8
AM_VIS
100
AcDbLine
 10
2025.189902967866
 20
456.3403808662488
 30
0.0
 11
2025.690121835659
 21
455.3684846010723
 31
0.0
  0
LINE
  5
50AB
330
1F
100
AcDbEntity
  8
AM_VIS
100
AcDbLine
 10
2012.687106663745
 20
432.2511596362962
 30
0.0
 11
2013.187106663745
 21
431.7511596362961
 31
0.0
  0
LINE
  5
50AC
330
1F
100
AcDbEntity
  8
AM_VIS
100
AcDbLine
 10
2012.687106663745
 20
463.2511596362961
 30
0.0
 11
2013.187106663745
 21
463.7511596362961
 31
0.0
  0
LINE
  5
50AD
330
1F
100
AcDbEntity
  8
AM_VIS
100
AcDbLine
 10
2013.187106663745
 20
431.7511596362961
 30
0.0
 11
2025.187106663745
 21
431.7511596362961
 31
0.0
  0
LINE
  5
50AE
330
1F
100
AcDbEntity
  8
AM_VIS
100
AcDbLine
 10
2013.187106663745
 20
463.7511596362961
 30
0.0
 11
2025.187106663745
 21
463.7511596362961
 31
0.0
  0
LINE
  5
50AF
330
1F
100
AcDbEntity
  8
AM_VIS
100
AcDbLine
 10
2025.687106663745
 20
432.2511596362962
 30
0.0
 11
2025.187106663745
 21
431.7511596362961
 31
0.0
  0
LINE
  5
50B0
330
1F
100
AcDbEntity
  8
AM_VIS
100
AcDbLine
 10
2011.687106663745
 20
435.0011596362961
 30
0.0
 11
2012.687106663745
 21
435.0011596362961
 31
0.0
  0
LINE
  5
50B1
330
1F
100
AcDbEntity
  8
AM_VIS
100
AcDbLine
 10
2011.687106663745
 20
460.5011596362961
 30
0.0
 11
2012.687106663745
 21
460.5011596362961
 31
0.0
  0
LINE
  5
50B2
330
1F
100
AcDbEntity
  8
AM_VIS
100
AcDbLine
 10
2025.687106663745
 20
463.2511596362961
 30
0.0
 11
2025.187106663745
 21
463.7511596362961
 31
0.0
  0
LINE
  5
50B3
330
1F
100
AcDbEntity
  8
AM_VIS
100
AcDbLine
 10
2012.687106663745
 20
432.2511596362962
 30
0.0
 11
2012.687106663745
 21
463.2511596362961
 31
0.0
  0
LINE
  5
50B4
330
1F
100
AcDbEntity
  8
AM_VIS
100
AcDbLine
 10
2013.187106663745
 20
463.7511596362961
 30
0.0
 11
2013.187106663745
 21
431.7511596362961
 31
0.0
  0
LINE
  5
50B5
330
1F
100
AcDbEntity
  8
AM_VIS
100
AcDbLine
 10
2025.187106663745
 20
431.7511596362961
 30
0.0
 11
2025.187106663745
 21
439.1633776176373
 31
0.0
  0
LINE
  5
50B6
330
1F
100
AcDbEntity
  8
AM_VIS
100
AcDbLine
 10
2017.687106663745
 20
456.3389416549549
 30
0.0
 11
2017.687106663745
 21
439.1633776176373
 31
0.0
  0
LINE
  5
50B7
330
1F
100
AcDbEntity
  8
AM_VIS
100
AcDbLine
 10
2025.187106663745
 20
456.3389416549549
 30
0.0
 11
2025.187106663745
 21
463.7511596362961
 31
0.0
  0
LINE
  5
50B8
330
1F
100
AcDbEntity
  8
AM_VIS
100
AcDbLine
 10
2025.687106663745
 20
440.1353865304322
 30
0.0
 11
2025.687106663745
 21
432.2511596362962
 31
0.0
  0
LINE
  5
50B9
330
1F
100
AcDbEntity
  8
AM_VIS
100
AcDbLine
 10
2025.687106663745
 20
463.2511596362961
 30
0.0
 11
2025.687106663745
 21
455.36693274216
 31
0.0
  0
LINE
  5
50BA
330
1F
100
AcDbEntity
  8
AM_VIS
100
AcDbLine
 10
2080.189902967866
 20
439.1619384063434
 30
0.0
 11
2080.690121835659
 21
440.1338346715199
 31
0.0
  0
LINE
  5
50BB
330
1F
100
AcDbEntity
  8
AM_VIS
100
AcDbLine
 10
2080.189902967866
 20
456.3403808662488
 30
0.0
 11
2080.690121835659
 21
455.3684846010723
 31
0.0
  0
ARC
  5
50BC
330
1F
100
AcDbEntity
  8
AM_VIS
100
AcDbCircle
 10
2030.687106663745
 20
447.61884420602
 30
0.0
 40
2.154067634288467
100
AcDbArc
 50
3.5216588095747
 51
176.4783411904253
  0
ARC
  5
50BD
330
1F
100
AcDbEntity
  8
AM_VIS
100
AcDbCircle
 10
2030.687106663745
 20
447.8834750665722
 30
0.0
 40
2.154067634288467
100
AcDbArc
 50
183.5216588095747
 51
356.4783411904253
  0
LINE
  5
50BE
330
1F
100
AcDbEntity
  8
AM_VIS
100
AcDbLine
 10
2065.687106663745
 20
456.3389416549549
 30
0.0
 11
2080.187106663745
 21
456.3389416549549
 31
0.0
  0
LINE
  5
50BF
330
1F
100
AcDbEntity
  8
AM_VIS
100
AcDbLine
 10
2080.187106663745
 20
439.1633776176373
 30
0.0
 11
2065.687106663745
 21
439.1633776176373
 31
0.0
  0
LINE
  5
50C0
330
1F
100
AcDbEntity
  8
AM_VIS
100
AcDbLine
 10
2080.687106663745
 20
455.36693274216
 30
0.0
 11
2080.687106663745
 21
440.1353865304322
 31
0.0
  0
LINE
  5
50C1
330
1F
100
AcDbEntity
  8
AM_VIS
100
AcDbLine
 10
2025.687106663745
 20
432.2511596362962
 30
0.0
 11
2026.187106663745
 21
431.7511596362961
 31
0.0
  0
LINE
  5
50C2
330
1F
100
AcDbEntity
  8
AM_VIS
100
AcDbLine
 10
2025.687106663745
 20
463.2511596362961
 30
0.0
 11
2026.187106663745
 21
463.7511596362961
 31
0.0
  0
LINE
  5
50C3
330
1F
100
AcDbEntity
  8
AM_VIS
100
AcDbLine
 10
2080.687106663745
 20
432.2511596362962
 30
0.0
 11
2080.187106663745
 21
431.7511596362961
 31
0.0
  0
LINE
  5
50C4
330
1F
100
AcDbEntity
  8
AM_VIS
100
AcDbLine
 10
2080.687106663745
 20
463.2511596362961
 30
0.0
 11
2080.187106663745
 21
463.7511596362961
 31
0.0
  0
LINE
  5
50C5
102
{ACAD_REACTORS
330
730E
102
}
330
1F
100
AcDbEntity
  8
AM_VIS
100
AcDbLine
 10
2080.187106663745
 20
463.7511596362961
 30
0.0
 11
2026.187106663745
 21
463.7511596362961
 31
0.0
  0
LINE
  5
50C6
102
{ACAD_REACTORS
330
730E
102
}
330
1F
100
AcDbEntity
  8
AM_VIS
100
AcDbLine
 10
2080.187106663745
 20
431.7511596362961
 30
0.0
 11
2026.187106663745
 21
431.7511596362961
 31
0.0
  0
LINE
  5
50C7
330
1F
100
AcDbEntity
  8
AM_VIS
100
AcDbLine
 10
2025.687106663745
 20
432.2511596362962
 30
0.0
 11
2025.687106663745
 21
463.2511596362961
 31
0.0
  0
LINE
  5
50C8
330
1F
100
AcDbEntity
  8
AM_VIS
100
AcDbLine
 10
2026.187106663745
 20
463.7511596362961
 30
0.0
 11
2026.187106663745
 21
431.7511596362961
 31
0.0
  0
LINE
  5
50C9
330
1F
100
AcDbEntity
  8
AM_VIS
100
AcDbLine
 10
2080.187106663745
 20
456.3389416549549
 30
0.0
 11
2080.187106663745
 21
463.7511596362961
 31
0.0
  0
LINE
  5
50CA
330
1F
100
AcDbEntity
  8
AM_VIS
100
AcDbLine
 10
2065.687106663745
 20
456.3389416549549
 30
0.0
 11
2065.687106663745
 21
439.1633776176373
 31
0.0
  0
LINE
  5
50CB
330
1F
100
AcDbEntity
  8
AM_VIS
100
AcDbLine
 10
2080.187106663745
 20
431.7511596362961
 30
0.0
 11
2080.187106663745
 21
439.1633776176373
 31
0.0
  0
LINE
  5
50CC
330
1F
100
AcDbEntity
  8
AM_VIS
100
AcDbLine
 10
2080.687106663745
 20
440.1353865304322
 30
0.0
 11
2080.687106663745
 21
432.2511596362962
 31
0.0
  0
LINE
  5
50CD
330
1F
100
AcDbEntity
  8
AM_VIS
100
AcDbLine
 10
2080.687106663745
 20
463.2511596362961
 30
0.0
 11
2080.687106663745
 21
455.36693274216
 31
0.0
  0
LINE
  5
50CE
330
1F
100
AcDbEntity
  8
AM_VIS
100
AcDbLine
 10
1861.318734074906
 20
470.7511596362961
 30
0.0
 11
1866.055479252583
 21
470.7511596362961
 31
0.0
  0
SPLINE
  5
50CF
330
1F
100
AcDbEntity
  8
AM_VIS
100
AcDbSpline
210
0.0
220
0.0
230
1.0
 70
    12
 71
     2
 72
     6
 73
     3
 74
     0
 42
0.0000000001
 43
0.0000000001
 40
0.7545396902518135
 40
0.7545396902518135
 40
0.7545396902518135
 40
27.90437399000611
 40
27.90437399000611
 40
27.90437399000611
 10
1866.055479252582
 20
447.751159636296
 30
0.0
 41
1.008916554647276
 10
1869.888812585916
 20
459.2511596362908
 30
0.0
 41
1.164996488830897
 10
1866.055479252583
 20
470.7511596362961
 30
0.0
 41
1.008916554647449
  0
LINE
  5
50D0
330
1F
100
AcDbEntity
  8
AM_VIS
100
AcDbLine
 10
1866.055479252583
 20
470.7511596362961
 30
0.0
 11
1868.109756394555
 21
470.7511596362961
 31
0.0
  0
LINE
  5
50D1
330
1F
100
AcDbEntity
  8
AM_VIS
100
AcDbLine
 10
1866.055479252583
 20
424.7511596362961
 30
0.0
 11
1868.109756394554
 21
424.7511596362961
 31
0.0
  0
LINE
  5
50D2
330
1F
100
AcDbEntity
  8
AM_VIS
100
AcDbLine
 10
1861.318734074906
 20
447.7511596362961
 30
0.0
 11
1866.055479252583
 21
447.7511596362961
 31
0.0
  0
SPLINE
  5
50D3
330
1F
100
AcDbEntity
  8
AM_VIS
100
AcDbSpline
210
0.0
220
0.0
230
1.0
 70
    12
 71
     2
 72
     6
 73
     3
 74
     0
 42
0.0000000001
 43
0.0000000001
 40
0.7545396902517659
 40
0.7545396902517659
 40
0.7545396902517659
 40
27.90437399000606
 40
27.90437399000606
 40
27.90437399000606
 10
1866.055479252582
 20
424.7511596362961
 30
0.0
 41
1.008916554647275
 10
1869.888812585915
 20
436.2511596362906
 30
0.0
 41
1.164996488830898
 10
1866.055479252583
 20
447.7511596362961
 30
0.0
 41
1.008916554647449
  0
LINE
  5
50D4
330
1F
100
AcDbEntity
  8
AM_VIS
100
AcDbLine
 10
1861.318734074906
 20
424.7511596362961
 30
0.0
 11
1866.055479252583
 21
424.7511596362961
 31
0.0
  0
LINE
  5
50D5
330
1F
100
AcDbEntity
  8
AM_VIS
100
AcDbLine
 10
1859.264456932935
 20
470.7511596362961
 30
0.0
 11
1861.318734074906
 21
470.7511596362961
 31
0.0
  0
SPLINE
  5
50D6
330
1F
100
AcDbEntity
  8
AM_VIS
100
AcDbSpline
210
0.0
220
0.0
230
1.0
 70
    12
 71
     2
 72
     6
 73
     3
 74
     0
 42
0.0000000001
 43
0.0000000001
 40
0.7545396902517593
 40
0.7545396902517593
 40
0.7545396902517593
 40
27.90437399000606
 40
27.90437399000606
 40
27.90437399000606
 10
1861.318734074906
 20
470.7511596362961
 30
0.0
 41
1.008916554647275
 10
1857.485400741576
 20
459.2511596363016
 30
0.0
 41
1.164996488830897
 10
1861.318734074908
 20
447.7511596362961
 30
0.0
 41
1.008916554647449
  0
SPLINE
  5
50D7
330
1F
100
AcDbEntity
  8
AM_VIS
100
AcDbSpline
210
0.0
220
0.0
230
1.0
 70
    12
 71
     2
 72
     6
 73
     3
 74
     0
 42
0.0000000001
 43
0.0000000001
 40
0.7545396902518231
 40
0.7545396902518231
 40
0.7545396902518231
 40
27.90437399000612
 40
27.90437399000612
 40
27.90437399000612
 10
1861.318734074906
 20
447.751159636296
 30
0.0
 41
1.008916554647276
 10
1857.485400741574
 20
436.2511596363015
 30
0.0
 41
1.164996488830895
 10
1861.318734074906
 20
424.7511596362963
 30
0.0
 41
1.008916554647449
  0
LINE
  5
50D8
330
1F
100
AcDbEntity
  8
AM_VIS
100
AcDbLine
 10
1859.264456932935
 20
424.7511596362961
 30
0.0
 11
1861.318734074906
 21
424.7511596362961
 31
0.0
  0
LINE
  5
50D9
330
1F
100
AcDbEntity
  8
AM_VIS
100
AcDbLine
 10
1868.687106663745
 20
469.7511596362962
 30
0.0
 11
1868.109756394555
 21
470.7511596362966
 31
0.0
  0
LINE
  5
50DA
330
1F
100
AcDbEntity
  8
AM_VIS
100
AcDbLine
 10
1868.687106663745
 20
425.7511596362961
 30
0.0
 11
1868.109756394555
 21
424.7511596362957
 31
0.0
  0
LINE
  5
50DB
330
1F
100
AcDbEntity
  8
AM_VIS
100
AcDbLine
 10
1858.687106663745
 20
425.7511596362961
 30
0.0
 11
1859.264456932934
 21
424.7511596362957
 31
0.0
  0
LINE
  5
50DC
330
1F
100
AcDbEntity
  8
AM_VIS
100
AcDbLine
 10
1858.687106663745
 20
469.7511596362962
 30
0.0
 11
1859.264456932934
 21
470.7511596362966
 31
0.0
  0
LINE
  5
50DD
330
1F
100
AcDbEntity
  8
AM_VIS
100
AcDbLine
 10
1868.687106663745
 20
425.7511596362961
 30
0.0
 11
1868.687106663745
 21
469.7511596362962
 31
0.0
  0
LINE
  5
50DE
330
1F
100
AcDbEntity
  8
AM_VIS
100
AcDbLine
 10
1858.687106663745
 20
469.7511596362962
 30
0.0
 11
1858.687106663745
 21
425.7511596362961
 31
0.0
  0
LINE
  5
50DF
330
1F
100
AcDbEntity
  8
AM_VIS
100
AcDbLine
 10
2031.687366005116
 20
448.3286596362961
 30
0.0
 11
2030.687106663745
 21
448.9061596362961
 31
0.0
  0
LINE
  5
50E0
330
1F
100
AcDbEntity
  8
AM_VIS
100
AcDbLine
 10
2030.687106663745
 20
448.9061596362961
 30
0.0
 11
2029.686847322374
 21
448.3286596362961
 31
0.0
  0
LINE
  5
50E1
330
1F
100
AcDbEntity
  8
AM_VIS
100
AcDbLine
 10
2029.686847322374
 20
448.3286596362961
 30
0.0
 11
2029.686847322374
 21
447.173659636296
 31
0.0
  0
LINE
  5
50E2
330
1F
100
AcDbEntity
  8
AM_VIS
100
AcDbLine
 10
2029.686847322374
 20
447.173659636296
 30
0.0
 11
2030.687106663745
 21
446.596159636296
 31
0.0
  0
LINE
  5
50E3
330
1F
100
AcDbEntity
  8
AM_VIS
100
AcDbLine
 10
2030.687106663745
 20
446.596159636296
 30
0.0
 11
2031.687366005116
 21
447.173659636296
 31
0.0
  0
LINE
  5
50E4
330
1F
100
AcDbEntity
  8
AM_VIS
100
AcDbLine
 10
2031.687366005116
 20
447.173659636296
 30
0.0
 11
2031.687366005116
 21
448.3286596362961
 31
0.0
  0
CIRCLE
  5
50E5
330
1F
100
AcDbEntity
  8
AM_VIS
100
AcDbCircle
 10
2030.687106663745
 20
447.7511596362961
 30
0.0
 40
1.57058500000005
  0
LINE
  5
50E6
330
1F
100
AcDbEntity
  8
AM_VIS
100
AcDbLine
 10
2087.615309894021
 20
459.7511596362961
 30
0.0
 11
2083.758903433469
 21
459.7511596362961
 31
0.0
  0
SPLINE
  5
50E7
330
1F
100
AcDbEntity
  8
AM_VIS
100
AcDbSpline
210
0.0
220
0.0
230
1.0
 70
    12
 71
     2
 72
     6
 73
     3
 74
     0
 42
0.0000000001
 43
0.0000000001
 40
10.67930694799421
 40
10.67930694799421
 40
10.67930694799421
 40
19.44152500070193
 40
19.44152500070193
 40
19.44152500070193
 10
2087.615309894021
 20
447.7511596362962
 30
0.0
 41
1.094194143152402
 10
2088.687106663745
 20
450.9665499454722
 30
0.0
 41
1.085739542740696
 10
2088.687106663745
 20
453.7511596362961
 30
0.0
 41
1.0
  0
SPLINE
  5
50E8
330
1F
100
AcDbEntity
  8
AM_VIS
100
AcDbSpline
210
0.0
220
0.0
230
1.0
 70
    12
 71
     2
 72
     6
 73
     3
 74
     0
 42
0.0000000001
 43
0.0000000001
 40
19.44152500070193
 40
19.44152500070193
 40
19.44152500070193
 40
28.20374305340969
 40
28.20374305340969
 40
28.20374305340969
 10
2088.687106663745
 20
453.7511596362961
 30
0.0
 41
1.0
 10
2088.687106663745
 20
456.5357693271199
 30
0.0000000000000036
 41
1.085739542740697
 10
2087.615309894021
 20
459.7511596362961
 30
0.0
 41
1.094194143152403
  0
LINE
  5
50E9
330
1F
100
AcDbEntity
  8
AM_VIS
100
AcDbLine
 10
2087.615309894021
 20
459.7511596362961
 30
0.0
 11
2088.687106663745
 21
459.7511596362961
 31
0.0
  0
LINE
  5
50EA
330
1F
100
AcDbEntity
  8
AM_VIS
100
AcDbLine
 10
2087.615309894021
 20
435.7511596362961
 30
0.0
 11
2088.687106663745
 21
435.7511596362961
 31
0.0
  0
LINE
  5
50EB
330
1F
100
AcDbEntity
  8
AM_VIS
100
AcDbLine
 10
2087.615309894021
 20
447.7511596362961
 30
0.0
 11
2083.758903433469
 21
447.7511596362961
 31
0.0
  0
SPLINE
  5
50EC
330
1F
100
AcDbEntity
  8
AM_VIS
100
AcDbSpline
210
0.0
220
0.0
230
1.0
 70
    12
 71
     2
 72
     6
 73
     3
 74
     0
 42
0.0000000001
 43
0.0000000001
 40
19.44152500070193
 40
19.44152500070193
 40
19.44152500070193
 40
28.20374305340966
 40
28.20374305340966
 40
28.20374305340966
 10
2088.687106663745
 20
441.7511596362961
 30
0.0
 41
1.0
 10
2088.687106663742
 20
444.5357693271198
 30
0.0
 41
1.0857395427407
 10
2087.615309894021
 20
447.7511596362964
 30
0.0
 41
1.094194143152407
  0
SPLINE
  5
50ED
330
1F
100
AcDbEntity
  8
AM_VIS
100
AcDbSpline
210
-0.0000000000000115
220
0.0000000000000027
230
1.0
 70
    12
 71
     2
 72
     6
 73
     3
 74
     0
 42
0.0000000001
 43
0.0000000001
 40
10.67930694799419
 40
10.67930694799419
 40
10.67930694799419
 40
19.44152500070193
 40
19.44152500070193
 40
19.44152500070193
 10
2087.615309894021
 20
435.751159636296
 30
0.0000000000000036
 41
1.094194143152408
 10
2088.687106663743
 20
438.9665499454719
 30
0.0000000000000036
 41
1.085739542740701
 10
2088.687106663745
 20
441.7511596362961
 30
0.0
 41
1.0
  0
LINE
  5
50EE
330
1F
100
AcDbEntity
  8
AM_VIS
100
AcDbLine
 10
2087.615309894021
 20
435.7511596362961
 30
0.0
 11
2083.758903433469
 21
435.7511596362961
 31
0.0
  0
LINE
  5
50EF
330
1F
100
AcDbEntity
  8
AM_VIS
100
AcDbLine
 10
2082.687106663745
 20
435.7511596362961
 30
0.0
 11
2083.758903433469
 21
435.7511596362961
 31
0.0
  0
SPLINE
  5
50F0
330
1F
100
AcDbEntity
  8
AM_VIS
100
AcDbSpline
210
0.0
220
0.0
230
1.0
 70
    12
 71
     2
 72
     6
 73
     3
 74
     0
 42
0.0000000001
 43
0.0000000001
 40
19.44152500070194
 40
19.44152500070194
 40
19.44152500070194
 40
28.20374305340969
 40
28.20374305340969
 40
28.20374305340969
 10
2082.687106663745
 20
441.7511596362961
 30
0.0
 41
1.0
 10
2082.687106663745
 20
438.9665499454722
 30
0.0
 41
1.085739542740699
 10
2083.758903433469
 20
435.7511596362964
 30
0.0
 41
1.094194143152405
  0
SPLINE
  5
50F1
330
1F
100
AcDbEntity
  8
AM_VIS
100
AcDbSpline
210
-0.0000000000000121
220
-0.0000000000000028
230
1.0
 70
    12
 71
     2
 72
     6
 73
     3
 74
     0
 42
0.0000000001
 43
0.0000000001
 40
19.44152500070194
 40
19.44152500070194
 40
19.44152500070194
 40
28.20374305340966
 40
28.20374305340966
 40
28.20374305340966
 10
2082.687106663745
 20
453.7511596362961
 30
0.0
 41
1.0
 10
2082.687106663745
 20
450.9665499454722
 30
0.0
 41
1.085739542740697
 10
2083.75890343347
 20
447.7511596362961
 30
-0.0000000000000036
 41
1.094194143152403
  0
SPLINE
  5
50F2
330
1F
100
AcDbEntity
  8
AM_VIS
100
AcDbSpline
210
0.0
220
0.0
230
1.0
 70
    12
 71
     2
 72
     6
 73
     3
 74
     0
 42
0.0000000001
 43
0.0000000001
 40
10.67930694799421
 40
10.67930694799421
 40
10.67930694799421
 40
19.44152500070194
 40
19.44152500070194
 40
19.44152500070194
 10
2083.758903433469
 20
447.7511596362958
 30
0.0
 41
1.094194143152403
 10
2082.687106663746
 20
444.53576932712
 30
0.0
 41
1.085739542740697
 10
2082.687106663745
 20
441.7511596362961
 30
0.0
 41
1.0
  0
LINE
  5
50F3
330
1F
100
AcDbEntity
  8
AM_VIS
100
AcDbLine
 10
2082.687106663745
 20
459.7511596362961
 30
0.0
 11
2083.758903433469
 21
459.7511596362961
 31
0.0
  0
SPLINE
  5
50F4
330
1F
100
AcDbEntity
  8
AM_VIS
100
AcDbSpline
210
0.0
220
0.0
230
1.0
 70
    12
 71
     2
 72
     6
 73
     3
 74
     0
 42
0.0000000001
 43
0.0000000001
 40
10.67930694799416
 40
10.67930694799416
 40
10.67930694799416
 40
19.44152500070194
 40
19.44152500070194
 40
19.44152500070194
 10
2083.758903433469
 20
459.7511596362959
 30
0.0
 41
1.094194143152404
 10
2082.687106663744
 20
456.5357693271199
 30
0.0000000000000036
 41
1.085739542740698
 10
2082.687106663745
 20
453.7511596362961
 30
0.0
 41
1.0
  0
LINE
  5
50F5
330
1F
100
AcDbEntity
  8
AM_VIS
100
AcDbLine
 10
2080.687106663745
 20
437.3449143214084
 30
0.0
 11
2082.687106663745
 21
437.2511596362961
 31
0.0
  0
LINE
  5
50F6
330
1F
100
AcDbEntity
  8
AM_VIS
100
AcDbLine
 10
2080.687106663745
 20
458.1574049511837
 30
0.0
 11
2082.687106663745
 21
458.2511596362961
 31
0.0
  0
LINE
  5
50F7
330
1F
100
AcDbEntity
  8
AM_VIS
100
AcDbLine
 10
2115.746998954473
 20
455.3075660988524
 30
0.0
 11
2091.687106663745
 21
456.7511596362961
 31
0.0
  0
LINE
  5
50F8
330
1F
100
AcDbEntity
  8
AM_VIS
100
AcDbLine
 10
2115.746998954473
 20
440.1947531737397
 30
0.0
 11
2091.687106663745
 21
438.7511596362961
 31
0.0
  0
LINE
  5
50F9
330
1F
100
AcDbEntity
  8
AM_VIS
100
AcDbLine
 10
2088.687106663745
 20
437.7511596362961
 30
0.0
 11
2091.187106663745
 21
437.7511596362961
 31
0.0
  0
LINE
  5
50FA
330
1F
100
AcDbEntity
  8
AM_VIS
100
AcDbLine
 10
2088.687106663745
 20
457.7511596362962
 30
0.0
 11
2091.187106663745
 21
457.7511596362962
 31
0.0
  0
LINE
  5
50FB
330
1F
100
AcDbEntity
  8
AM_VIS
100
AcDbLine
 10
2088.687106663745
 20
441.7511596362961
 30
0.0
 11
2088.687106663745
 21
453.7511596362961
 31
0.0
  0
LINE
  5
50FC
330
1F
100
AcDbEntity
  8
AM_VIS
100
AcDbLine
 10
2088.687106663745
 20
435.7511596362961
 30
0.0
 11
2088.687106663745
 21
441.7511596362961
 31
0.0
  0
LINE
  5
50FD
330
1F
100
AcDbEntity
  8
AM_VIS
100
AcDbLine
 10
2088.687106663745
 20
453.7511596362961
 30
0.0
 11
2088.687106663745
 21
459.7511596362961
 31
0.0
  0
LINE
  5
50FE
330
1F
100
AcDbEntity
  8
AM_VIS
100
AcDbLine
 10
2082.687106663745
 20
441.7511596362961
 30
0.0
 11
2082.687106663745
 21
435.7511596362961
 31
0.0
  0
LINE
  5
50FF
330
1F
100
AcDbEntity
  8
AM_VIS
100
AcDbLine
 10
2082.687106663745
 20
453.7511596362961
 30
0.0
 11
2082.687106663745
 21
441.7511596362961
 31
0.0
  0
LINE
  5
5100
330
1F
100
AcDbEntity
  8
AM_VIS
100
AcDbLine
 10
2082.687106663745
 20
459.7511596362961
 30
0.0
 11
2082.687106663745
 21
453.7511596362961
 31
0.0
  0
LINE
  5
5101
102
{ACAD_REACTORS
330
719F
330
7225
102
}
330
1F
100
AcDbEntity
  8
AM_VIS
100
AcDbLine
 10
2116.687106663745
 20
454.3093612533867
 30
0.0
 11
2116.687106663745
 21
441.1929580192055
 31
0.0
  0
LINE
  5
5102
330
1F
100
AcDbEntity
  8
AM_VIS
100
AcDbLine
 10
2091.687106663745
 20
457.2511596362962
 30
0.0
 11
2091.687106663745
 21
438.2511596362961
 31
0.0
  0
ARC
  5
5103
330
1F
100
AcDbEntity
  8
AM_VIS
100
AcDbCircle
 10
2115.687106663745
 20
441.1929580192055
 30
0.0
 40
1.0
100
AcDbArc
 50
273.4336303624495
 51
0.0
  0
ARC
  5
5104
330
1F
100
AcDbEntity
  8
AM_VIS
100
AcDbCircle
 10
2115.687106663745
 20
454.3093612533867
 30
0.0
 40
1.0
100
AcDbArc
 50
0.0
 51
86.56636963755053
  0
ARC
  5
5105
330
1F
100
AcDbEntity
  8
AM_VIS
100
AcDbCircle
 10
2091.187106663745
 20
438.2511596362961
 30
0.0
 40
0.5
100
AcDbArc
 50
270.0
 51
0.0
  0
ARC
  5
5106
330
1F
100
AcDbEntity
  8
AM_VIS
100
AcDbCircle
 10
2091.187106663745
 20
457.2511596362962
 30
0.0
 40
0.5
100
AcDbArc
 50
0.0
 51
90.0
  0
LINE
  5
5107
330
1F
100
AcDbEntity
  8
AM_VIS
100
AcDbLine
 10
1908.687106663745
 20
300.0721034449348
 30
0.0
 11
1908.687106663745
 21
350.0721034449348
 31
0.0
  0
LINE
  5
5108
102
{ACAD_REACTORS
330
7030
102
}
330
1F
100
AcDbEntity
  8
AM_VIS
100
AcDbLine
 10
1908.687106663745
 20
300.0721034449348
 30
0.0
 11
1871.687106663745
 21
300.0721034449348
 31
0.0
  0
LINE
  5
5109
330
1F
100
AcDbEntity
  8
AM_VIS
100
AcDbLine
 10
1871.687106663745
 20
350.0721034449348
 30
0.0
 11
1871.687106663745
 21
300.0721034449348
 31
0.0
  0
LINE
  5
510A
330
1F
100
AcDbEntity
  8
AM_VIS
100
AcDbLine
 10
1908.687106663745
 20
350.0721034449348
 30
0.0
 11
1871.687106663745
 21
350.0721034449348
 31
0.0
  0
LINE
  5
510B
330
1F
100
AcDbEntity
  8
AM_VIS
100
AcDbLine
 10
1869.687106663745
 20
309.5721034449348
 30
0.0
 11
1871.687106663745
 21
309.5721034449348
 31
0.0
  0
LINE
  5
510C
330
1F
100
AcDbEntity
  8
AM_VIS
100
AcDbLine
 10
1869.687106663745
 20
340.5721034449348
 30
0.0
 11
1871.687106663745
 21
340.5721034449348
 31
0.0
  0
LINE
  5
510D
330
1F
100
AcDbEntity
  8
AM_VIS
100
AcDbLine
 10
1857.687106663745
 20
308.5721034449348
 30
0.0
 11
1858.687106663745
 21
308.5721034449348
 31
0.0
  0
LINE
  5
510E
330
1F
100
AcDbEntity
  8
AM_VIS
100
AcDbLine
 10
1868.687106663745
 20
308.5721034449348
 30
0.0
 11
1869.687106663745
 21
308.5721034449348
 31
0.0
  0
LINE
  5
510F
102
{ACAD_REACTORS
330
7124
102
}
330
1F
100
AcDbEntity
  8
AM_VIS
100
AcDbLine
 10
1857.687106663745
 20
341.5721034449348
 30
0.0
 11
1858.687106663745
 21
341.5721034449348
 31
0.0
  0
LINE
  5
5110
330
1F
100
AcDbEntity
  8
AM_VIS
100
AcDbLine
 10
1868.687106663745
 20
341.5721034449348
 30
0.0
 11
1869.687106663745
 21
341.5721034449348
 31
0.0
  0
LINE
  5
5111
330
1F
100
AcDbEntity
  8
AM_VIS
100
AcDbLine
 10
1856.687106663745
 20
309.5721034449348
 30
0.0
 11
1857.687106663745
 21
308.5721034449348
 31
0.0
  0
LINE
  5
5112
330
1F
100
AcDbEntity
  8
AM_VIS
100
AcDbLine
 10
1856.687106663745
 20
340.5721034449348
 30
0.0
 11
1857.687106663745
 21
341.5721034449348
 31
0.0
  0
LINE
  5
5113
330
1F
100
AcDbEntity
  8
AM_VIS
100
AcDbLine
 10
1869.687106663745
 20
308.5721034449348
 30
0.0
 11
1869.687106663745
 21
341.5721034449348
 31
0.0
  0
LINE
  5
5114
330
1F
100
AcDbEntity
  8
AM_VIS
100
AcDbLine
 10
1857.687106663745
 20
308.5721034449348
 30
0.0
 11
1857.687106663745
 21
341.5721034449348
 31
0.0
  0
LINE
  5
5115
330
1F
100
AcDbEntity
  8
AM_VIS
100
AcDbLine
 10
1856.687106663745
 20
309.5721034449347
 30
0.0
 11
1856.687106663745
 21
340.5721034449348
 31
0.0
  0
CIRCLE
  5
5116
330
1F
100
AcDbEntity
  8
AM_VIS
100
AcDbCircle
 10
1901.687106663745
 20
307.0721034449348
 30
0.0
 40
3.299999999999999
  0
CIRCLE
  5
5117
102
{ACAD_REACTORS
330
70F6
102
}
330
1F
100
AcDbEntity
  8
AM_VIS
100
AcDbCircle
 10
1901.687106663745
 20
343.0721034449348
 30
0.0
 40
3.299999999999999
  0
LINE
  5
5118
330
1F
100
AcDbEntity
  8
AM_VIS
100
AcDbLine
 10
1854.687106663745
 20
338.0721034449348
 30
0.0
 11
1845.687106663745
 21
338.0721034449348
 31
0.0
  0
LINE
  5
5119
330
1F
100
AcDbEntity
  8
AM_VIS
100
AcDbLine
 10
1844.687106663745
 20
338.0721034449348
 30
0.0
 11
1845.687106663745
 21
338.0721034449348
 31
0.0
  0
LINE
  5
511A
330
1F
100
AcDbEntity
  8
AM_VIS
100
AcDbLine
 10
1844.687106663745
 20
312.0721034449348
 30
0.0
 11
1845.687106663745
 21
312.0721034449348
 31
0.0
  0
LINE
  5
511B
330
1F
100
AcDbEntity
  8
AM_VIS
100
AcDbLine
 10
1845.687106663745
 20
312.0721034449348
 30
0.0
 11
1854.687106663745
 21
312.0721034449348
 31
0.0
  0
LINE
  5
511C
330
1F
100
AcDbEntity
  8
AM_VIS
100
AcDbLine
 10
1854.687106663745
 20
310.0721034449348
 30
0.0
 11
1856.687106663745
 21
310.0721034449348
 31
0.0
  0
LINE
  5
511D
330
1F
100
AcDbEntity
  8
AM_VIS
100
AcDbLine
 10
1854.687106663745
 20
340.0721034449348
 30
0.0
 11
1856.687106663745
 21
340.0721034449348
 31
0.0
  0
LINE
  5
511E
330
1F
100
AcDbEntity
  8
AM_VIS
100
AcDbLine
 10
1854.687106663745
 20
338.0721034449348
 30
0.0
 11
1854.687106663745
 21
340.0721034449348
 31
0.0
  0
LINE
  5
511F
330
1F
100
AcDbEntity
  8
AM_VIS
100
AcDbLine
 10
1845.687106663745
 20
338.0721034449348
 30
0.0
 11
1845.687106663745
 21
312.0721034449348
 31
0.0
  0
LINE
  5
5120
330
1F
100
AcDbEntity
  8
AM_VIS
100
AcDbLine
 10
1844.687106663745
 20
312.0721034449348
 30
0.0
 11
1844.687106663745
 21
338.0721034449348
 31
0.0
  0
LINE
  5
5121
330
1F
100
AcDbEntity
  8
AM_VIS
100
AcDbLine
 10
1854.687106663745
 20
310.0721034449348
 30
0.0
 11
1854.687106663745
 21
312.0721034449348
 31
0.0
  0
LINE
  5
5122
330
1F
100
AcDbEntity
  8
AM_VIS
100
AcDbLine
 10
2011.387106663745
 20
341.0721034449348
 30
0.0
 11
1908.687106663745
 21
341.0721034449348
 31
0.0
  0
LINE
  5
5123
330
1F
100
AcDbEntity
  8
AM_VIS
100
AcDbLine
 10
2011.387106663745
 20
309.0721034449348
 30
0.0
 11
1908.687106663745
 21
309.0721034449348
 31
0.0
  0
LINE
  5
5124
330
1F
100
AcDbEntity
  8
AM_VIS
100
AcDbLine
 10
2011.687106663745
 20
340.7721034449348
 30
0.0
 11
2011.387106663745
 21
341.0721034449348
 31
0.0
  0
LINE
  5
5125
330
1F
100
AcDbEntity
  8
AM_VIS
100
AcDbLine
 10
2011.687106663745
 20
309.3721034449349
 30
0.0
 11
2011.387106663745
 21
309.0721034449348
 31
0.0
  0
LINE
  5
5126
330
1F
100
AcDbEntity
  8
AM_VIS
100
AcDbLine
 10
2011.387106663745
 20
309.0721034449348
 30
0.0
 11
2011.387106663745
 21
341.0721034449348
 31
0.0
  0
LINE
  5
5127
330
1F
100
AcDbEntity
  8
AM_VIS
100
AcDbLine
 10
2011.687106663745
 20
340.7721034449348
 30
0.0
 11
2011.687106663745
 21
309.3721034449349
 31
0.0
  0
LINE
  5
5128
330
1F
100
AcDbEntity
  8
AM_VIS
100
AcDbLine
 10
2025.187106663745
 20
338.5721034449348
 30
0.0
 11
2025.687106663745
 21
338.5721034449348
 31
0.0
  0
LINE
  5
5129
330
1F
100
AcDbEntity
  8
AM_VIS
100
AcDbLine
 10
2025.187106663745
 20
338.5721034449348
 30
0.0
 11
2017.687106663745
 21
338.5721034449348
 31
0.0
  0
LINE
  5
512A
330
1F
100
AcDbEntity
  8
AM_VIS
100
AcDbLine
 10
2017.687106663745
 20
311.5721034449348
 30
0.0
 11
2025.187106663745
 21
311.5721034449348
 31
0.0
  0
LINE
  5
512B
330
1F
100
AcDbEntity
  8
AM_VIS
100
AcDbLine
 10
2025.187106663745
 20
311.5721034449348
 30
0.0
 11
2025.687106663745
 21
311.5721034449348
 31
0.0
  0
LINE
  5
512C
330
1F
100
AcDbEntity
  8
AM_VIS
100
AcDbLine
 10
2012.687106663745
 20
309.5721034449348
 30
0.0
 11
2013.187106663745
 21
309.0721034449348
 31
0.0
  0
LINE
  5
512D
330
1F
100
AcDbEntity
  8
AM_VIS
100
AcDbLine
 10
2012.687106663745
 20
340.5721034449348
 30
0.0
 11
2013.187106663745
 21
341.0721034449348
 31
0.0
  0
LINE
  5
512E
330
1F
100
AcDbEntity
  8
AM_VIS
100
AcDbLine
 10
2013.187106663745
 20
309.0721034449348
 30
0.0
 11
2017.687106663745
 21
309.0721034449348
 31
0.0
  0
LINE
  5
512F
330
1F
100
AcDbEntity
  8
AM_VIS
100
AcDbLine
 10
2013.187106663745
 20
341.0721034449348
 30
0.0
 11
2017.687106663745
 21
341.0721034449348
 31
0.0
  0
LINE
  5
5130
330
1F
100
AcDbEntity
  8
AM_VIS
100
AcDbLine
 10
2011.687106663745
 20
312.3221034449348
 30
0.0
 11
2012.687106663745
 21
312.3221034449348
 31
0.0
  0
LINE
  5
5131
330
1F
100
AcDbEntity
  8
AM_VIS
100
AcDbLine
 10
2011.687106663745
 20
337.8221034449348
 30
0.0
 11
2012.687106663745
 21
337.8221034449348
 31
0.0
  0
LINE
  5
5132
330
1F
100
AcDbEntity
  8
AM_VIS
100
AcDbLine
 10
2012.687106663745
 20
309.5721034449348
 30
0.0
 11
2012.687106663745
 21
340.5721034449348
 31
0.0
  0
LINE
  5
5133
330
1F
100
AcDbEntity
  8
AM_VIS
100
AcDbLine
 10
2013.187106663745
 20
341.0721034449348
 30
0.0
 11
2013.187106663745
 21
309.0721034449348
 31
0.0
  0
LINE
  5
5134
330
1F
100
AcDbEntity
  8
AM_VIS
100
AcDbLine
 10
2025.187106663745
 20
311.5721034449348
 30
0.0
 11
2025.187106663745
 21
338.5721034449348
 31
0.0
  0
LINE
  5
5135
330
1F
100
AcDbEntity
  8
AM_VIS
100
AcDbLine
 10
2017.687106663745
 20
341.0721034449348
 30
0.0
 11
2017.687106663745
 21
338.5721034449348
 31
0.0
  0
LINE
  5
5136
330
1F
100
AcDbEntity
  8
AM_VIS
100
AcDbLine
 10
2025.687106663745
 20
338.5721034449348
 30
0.0
 11
2025.687106663745
 21
311.5721034449348
 31
0.0
  0
LINE
  5
5137
330
1F
100
AcDbEntity
  8
AM_VIS
100
AcDbLine
 10
2017.687106663745
 20
311.5721034449348
 30
0.0
 11
2017.687106663745
 21
309.0721034449348
 31
0.0
  0
LINE
  5
5138
330
1F
100
AcDbEntity
  8
AM_VIS
100
AcDbLine
 10
2080.187106663745
 20
338.5721034449348
 30
0.0
 11
2080.687106663745
 21
338.5721034449348
 31
0.0
  0
LINE
  5
5139
330
1F
100
AcDbEntity
  8
AM_VIS
100
AcDbLine
 10
2061.687106663745
 20
309.0721034449348
 30
0.0
 11
2059.187106663745
 21
311.5721034449348
 31
0.0
  0
LINE
  5
513A
330
1F
100
AcDbEntity
  8
AM_VIS
100
AcDbLine
 10
2038.187106663745
 20
311.5721034449348
 30
0.0
 11
2059.187106663745
 21
311.5721034449348
 31
0.0
  0
LINE
  5
513B
330
1F
100
AcDbEntity
  8
AM_VIS
100
AcDbLine
 10
2038.187106663745
 20
311.5721034449348
 30
0.0
 11
2035.687106663745
 21
309.0721034449348
 31
0.0
  0
LINE
  5
513E
330
1F
100
AcDbEntity
  8
AM_VIS
100
AcDbLine
 10
2080.187106663745
 20
338.5721034449348
 30
0.0
 11
2065.687106663745
 21
338.5721034449348
 31
0.0
  0
LINE
  5
513F
330
1F
100
AcDbEntity
  8
AM_VIS
100
AcDbLine
 10
2080.187106663745
 20
311.5721034449348
 30
0.0
 11
2080.687106663745
 21
311.5721034449348
 31
0.0
  0
LINE
  5
5140
330
1F
100
AcDbEntity
  8
AM_VIS
100
AcDbLine
 10
2065.687106663745
 20
311.5721034449348
 30
0.0
 11
2080.187106663745
 21
311.5721034449348
 31
0.0
  0
LINE
  5
5141
330
1F
100
AcDbEntity
  8
AM_VIS
100
AcDbLine
 10
2025.687106663745
 20
309.5721034449348
 30
0.0
 11
2026.187106663745
 21
309.0721034449348
 31
0.0
  0
LINE
  5
5142
330
1F
100
AcDbEntity
  8
AM_VIS
100
AcDbLine
 10
2025.687106663745
 20
340.5721034449348
 30
0.0
 11
2026.187106663745
 21
341.0721034449348
 31
0.0
  0
LINE
  5
5144
330
1F
100
AcDbEntity
  8
AM_VIS
100
AcDbLine
 10
2065.687106663745
 20
341.0721034449348
 30
0.0
 11
2026.187106663745
 21
341.0721034449348
 31
0.0
  0
LINE
  5
5146
330
1F
100
AcDbEntity
  8
AM_VIS
100
AcDbLine
 10
2035.687106663745
 20
309.0721034449348
 30
0.0
 11
2026.187106663745
 21
309.0721034449348
 31
0.0
  0
LINE
  5
5147
330
1F
100
AcDbEntity
  8
AM_VIS
100
AcDbLine
 10
2065.687106663745
 20
309.0721034449348
 30
0.0
 11
2061.687106663745
 21
309.0721034449348
 31
0.0
  0
LINE
  5
5148
330
1F
100
AcDbEntity
  8
AM_VIS
100
AcDbLine
 10
2025.687106663745
 20
309.5721034449348
 30
0.0
 11
2025.687106663745
 21
340.5721034449348
 31
0.0
  0
LINE
  5
5149
330
1F
100
AcDbEntity
  8
AM_VIS
100
AcDbLine
 10
2026.187106663745
 20
341.0721034449348
 30
0.0
 11
2026.187106663745
 21
309.0721034449348
 31
0.0
  0
LINE
  5
514A
330
1F
100
AcDbEntity
  8
AM_VIS
100
AcDbLine
 10
2065.687106663745
 20
341.0721034449348
 30
0.0
 11
2065.687106663745
 21
338.5721034449348
 31
0.0
  0
LINE
  5
514B
330
1F
100
AcDbEntity
  8
AM_VIS
100
AcDbLine
 10
2080.187106663745
 20
311.5721034449348
 30
0.0
 11
2080.187106663745
 21
338.5721034449348
 31
0.0
  0
LINE
  5
514C
330
1F
100
AcDbEntity
  8
AM_VIS
100
AcDbLine
 10
2065.687106663745
 20
311.5721034449348
 30
0.0
 11
2065.687106663745
 21
309.0721034449348
 31
0.0
  0
LINE
  5
514D
330
1F
100
AcDbEntity
  8
AM_VIS
100
AcDbLine
 10
2080.687106663745
 20
338.5721034449348
 30
0.0
 11
2080.687106663745
 21
311.5721034449348
 31
0.0
  0
LINE
  5
514E
102
{ACAD_REACTORS
330
7097
102
}
330
1F
100
AcDbEntity
  8
AM_VIS
100
AcDbLine
 10
2058.157461733072
 20
291.5720968184116
 30
0.0
 11
2058.687106663745
 21
292.1001724238927
 31
0.0
  0
LINE
  5
514F
330
1F
100
AcDbEntity
  8
AM_VIS
100
AcDbLine
 10
2038.715265210065
 20
292.0720973106685
 30
0.0
 11
2039.216751594418
 21
291.5720968184118
 31
0.0
  0
LINE
  5
5155
330
1F
100
AcDbEntity
  8
AM_VIS
100
AcDbLine
 10
2038.715271326156
 20
301.1002681073451
 30
0.0
 11
2038.715271326156
 21
292.0721034449348
 31
0.0
  0
LINE
  5
5233
330
1F
100
AcDbEntity
  8
AM_VIS
100
AcDbLine
 10
2041.437106663745
 20
303.5721034449348
 30
0.0
 11
2041.437106663745
 21
301.5721034449348
 31
0.0
  0
LINE
  5
5234
330
1F
100
AcDbEntity
  8
AM_VIS
100
AcDbLine
 10
2055.937106663745
 20
303.5721034449348
 30
0.0
 11
2055.937106663745
 21
301.5721034449348
 31
0.0
  0
LINE
  5
5235
330
1F
100
AcDbEntity
  8
AM_VIS
100
AcDbLine
 10
2040.687106663745
 20
311.5721034449348
 30
0.0
 11
2040.687106663745
 21
309.5721034449348
 31
0.0
  0
LINE
  5
5236
330
1F
100
AcDbEntity
  8
AM_VIS
100
AcDbLine
 10
2040.687106663745
 20
304.5721034449348
 30
0.0
 11
2040.687106663745
 21
303.5721034449348
 31
0.0
  0
LINE
  5
5237
330
1F
100
AcDbEntity
  8
AM_VIS
100
AcDbLine
 10
2056.687106663745
 20
311.5721034449348
 30
0.0
 11
2056.687106663745
 21
309.5721034449348
 31
0.0
  0
LINE
  5
5238
330
1F
100
AcDbEntity
  8
AM_VIS
100
AcDbLine
 10
2056.687106663745
 20
304.5721034449348
 30
0.0
 11
2056.687106663745
 21
303.5721034449348
 31
0.0
  0
LINE
  5
523B
330
1F
100
AcDbEntity
  8
AM_VIS
100
AcDbLine
 10
2039.187106663745
 20
301.5721034449348
 30
0.0
 11
2038.715271326156
 21
301.100268107345
 31
0.0
  0
LINE
  5
523C
330
1F
100
AcDbEntity
  8
AM_VIS
100
AcDbLine
 10
2058.187106663745
 20
301.5721034449348
 30
0.0
 11
2058.687106663745
 21
301.0721034449348
 31
0.0
  0
LINE
  5
523D
330
1F
100
AcDbEntity
  8
AM_VIS
100
AcDbLine
 10
2040.687106663745
 20
303.5721034449348
 30
0.0
 11
2056.687106663745
 21
303.5721034449348
 31
0.0
  0
LINE
  5
523E
330
1F
100
AcDbEntity
  8
AM_VIS
100
AcDbLine
 10
2058.157455126183
 20
291.5721034449348
 30
0.0
 11
2039.216758201307
 21
291.5721034449348
 31
0.0
  0
LINE
  5
5285
330
1F
100
AcDbEntity
  8
AM_VIS
100
AcDbLine
 10
2039.187106663745
 20
301.5721034449348
 30
0.0
 11
2058.187106663745
 21
301.5721034449348
 31
0.0
  0
LINE
  5
536D
330
1F
100
AcDbEntity
  8
AM_VIS
100
AcDbLine
 10
2039.187106663745
 20
309.5721034449348
 30
0.0
 11
2038.687106663745
 21
309.0721034449348
 31
0.0
  0
LINE
  5
536E
330
1F
100
AcDbEntity
  8
AM_VIS
100
AcDbLine
 10
2058.187106663745
 20
309.5721034449348
 30
0.0
 11
2058.687106663745
 21
309.0721034449348
 31
0.0
  0
LINE
  5
536F
330
1F
100
AcDbEntity
  8
AM_VIS
100
AcDbLine
 10
2058.687106663745
 20
305.0721034449348
 30
0.0
 11
2058.687106663745
 21
309.0721034449348
 31
0.0
  0
LINE
  5
5371
330
1F
100
AcDbEntity
  8
AM_VIS
100
AcDbLine
 10
2058.187106663745
 20
304.5721034449348
 30
0.0
 11
2058.687106663745
 21
305.0721034449348
 31
0.0
  0
LINE
  5
5372
330
1F
100
AcDbEntity
  8
AM_VIS
100
AcDbLine
 10
2039.187106663745
 20
304.5721034449348
 30
0.0
 11
2038.687106663745
 21
305.0721034449348
 31
0.0
  0
LINE
  5
5373
330
1F
100
AcDbEntity
  8
AM_VIS
100
AcDbLine
 10
2039.187106663745
 20
309.5721034449348
 30
0.0
 11
2058.187106663745
 21
309.5721034449348
 31
0.0
  0
LINE
  5
53BC
330
1F
100
AcDbEntity
  8
AM_VIS
100
AcDbLine
 10
2058.187106663745
 20
304.5721034449348
 30
0.0
 11
2039.187106663745
 21
304.5721034449348
 31
0.0
  0
SPLINE
  5
53BD
330
1F
100
AcDbEntity
  8
AM_VIS
100
AcDbSpline
210
0.0
220
0.0000000000000011
230
1.0
 70
    12
 71
     2
 72
     6
 73
     3
 74
     0
 42
0.0000000001
 43
0.0000000001
 40
0.7545396902517641
 40
0.7545396902517641
 40
0.7545396902517641
 40
27.90437399000604
 40
27.90437399000604
 40
27.90437399000604
 10
1866.055479252582
 20
298.5139910622119
 30
0.0
 41
1.008916554647275
 10
1869.888812585915
 20
305.1535191578896
 30
0.0
 41
1.164996488830901
 10
1866.055479252583
 20
311.7930472535734
 30
-0.0000000000000142
 41
1.008916554647448
  0
LINE
  5
53BE
330
1F
100
AcDbEntity
  8
AM_VIS
100
AcDbLine
 10
1861.318734074906
 20
298.513991062212
 30
0.0
 11
1866.055479252583
 21
298.513991062212
 31
0.0
  0
SPLINE
  5
53BF
330
1F
100
AcDbEntity
  8
AM_VIS
100
AcDbSpline
210
0.0
220
0.0
230
1.0
 70
    12
 71
     2
 72
     6
 73
     3
 74
     0
 42
0.0000000001
 43
0.0000000001
 40
0.7545396902517428
 40
0.7545396902517428
 40
0.7545396902517428
 40
27.90437399000602
 40
27.90437399000602
 40
27.90437399000602
 10
1866.055479252581
 20
311.7930472535733
 30
0.0
 41
1.008916554647274
 10
1869.888812585916
 20
325.0721034449284
 30
0.0
 41
1.164996488830897
 10
1866.055479252583
 20
338.3511596362962
 30
0.0
 41
1.008916554647449
  0
LINE
  5
53C0
330
1F
100
AcDbEntity
  8
AM_VIS
100
AcDbLine
 10
1861.318734074906
 20
311.7930472535734
 30
0.0
 11
1866.055479252583
 21
311.7930472535734
 31
0.0
  0
LINE
  5
53C1
330
1F
100
AcDbEntity
  8
AM_VIS
100
AcDbLine
 10
1861.318734074906
 20
351.6302158276575
 30
0.0
 11
1866.055479252583
 21
351.6302158276575
 31
0.0
  0
SPLINE
  5
53C2
330
1F
100
AcDbEntity
  8
AM_VIS
100
AcDbSpline
210
0.0
220
0.0
230
1.0
 70
    12
 71
     2
 72
     6
 73
     3
 74
     0
 42
0.0000000001
 43
0.0000000001
 40
0.7545396902517659
 40
0.7545396902517659
 40
0.7545396902517659
 40
27.90437399000606
 40
27.90437399000606
 40
27.90437399000606
 10
1866.055479252582
 20
338.3511596362958
 30
0.0
 41
1.008916554647275
 10
1869.888812585915
 20
344.9906877319735
 30
0.0
 41
1.164996488830898
 10
1866.055479252583
 20
351.6302158276575
 30
0.0
 41
1.008916554647449
  0
LINE
  5
53C3
330
1F
100
AcDbEntity
  8
AM_VIS
100
AcDbLine
 10
1861.318734074906
 20
338.3511596362962
 30
0.0
 11
1866.055479252583
 21
338.3511596362962
 31
0.0
  0
SPLINE
  5
53C4
330
1F
100
AcDbEntity
  8
AM_VIS
100
AcDbSpline
210
0.0
220
0.0
230
1.0
 70
    12
 71
     2
 72
     6
 73
     3
 74
     0
 42
0.0000000001
 43
0.0000000001
 40
0.7545396902518231
 40
0.7545396902518231
 40
0.7545396902518231
 40
27.90437399000612
 40
27.90437399000612
 40
27.90437399000612
 10
1861.318734074906
 20
351.6302158276573
 30
0.0
 41
1.008916554647276
 10
1857.485400741574
 20
344.99068773198
 30
0.0000000000000142
 41
1.164996488830895
 10
1861.318734074906
 20
338.3511596362962
 30
0.0
 41
1.008916554647449
  0
SPLINE
  5
53C5
330
1F
100
AcDbEntity
  8
AM_VIS
100
AcDbSpline
210
0.0
220
-0.0000000000000005
230
1.0
 70
    12
 71
     2
 72
     6
 73
     3
 74
     0
 42
0.0000000001
 43
0.0000000001
 40
0.7545396902517712
 40
0.7545396902517712
 40
0.7545396902517712
 40
27.90437399000606
 40
27.90437399000606
 40
27.90437399000606
 10
1861.318734074906
 20
338.3511596362958
 30
0.0
 41
1.008916554647275
 10
1857.485400741575
 20
325.0721034449413
 30
0.0
 41
1.164996488830898
 10
1861.318734074907
 20
311.7930472535734
 30
-0.0000000000000142
 41
1.008916554647448
  0
SPLINE
  5
53C6
330
1F
100
AcDbEntity
  8
AM_VIS
100
AcDbSpline
210
0.0
220
0.0
230
1.0
 70
    12
 71
     2
 72
     6
 73
     3
 74
     0
 42
0.0000000001
 43
0.0000000001
 40
0.7545396902517416
 40
0.7545396902517416
 40
0.7545396902517416
 40
27.90437399000602
 40
27.90437399000602
 40
27.90437399000602
 10
1861.318734074906
 20
311.7930472535735
 30
0.0
 41
1.008916554647275
 10
1857.485400741575
 20
305.1535191578959
 30
0.0
 41
1.1649964888309
 10
1861.318734074906
 20
298.513991062212
 30
0.0
 41
1.008916554647449
  0
LINE
  5
53C7
330
1F
100
AcDbEntity
  8
AM_VIS
100
AcDbLine
 10
1868.687106663745
 20
347.0721034449348
 30
0.0
 11
1866.055479252583
 21
351.6302158276575
 31
0.0
  0
LINE
  5
53C8
330
1F
100
AcDbEntity
  8
AM_VIS
100
AcDbLine
 10
1868.687106663745
 20
303.0721034449348
 30
0.0
 11
1866.055479252583
 21
298.513991062212
 31
0.0
  0
LINE
  5
53C9
330
1F
100
AcDbEntity
  8
AM_VIS
100
AcDbLine
 10
1858.687106663745
 20
303.0721034449348
 30
0.0
 11
1861.318734074906
 21
298.513991062212
 31
0.0
  0
LINE
  5
53CA
330
1F
100
AcDbEntity
  8
AM_VIS
100
AcDbLine
 10
1858.687106663745
 20
347.0721034449348
 30
0.0
 11
1861.318734074906
 21
351.6302158276575
 31
0.0
  0
LINE
  5
53CB
102
{ACAD_REACTORS
330
7004
102
}
330
1F
100
AcDbEntity
  8
AM_VIS
100
AcDbLine
 10
1868.687106663745
 20
303.0721034449348
 30
0.0
 11
1868.687106663745
 21
347.0721034449348
 31
0.0
  0
LINE
  5
53CC
102
{ACAD_REACTORS
330
7004
102
}
330
1F
100
AcDbEntity
  8
AM_VIS
100
AcDbLine
 10
1858.687106663745
 20
347.0721034449348
 30
0.0
 11
1858.687106663745
 21
303.0721034449348
 31
0.0
  0
SPLINE
  5
53D3
330
1F
100
AcDbEntity
  8
AM_VIS
100
AcDbSpline
210
0.0
220
0.0
230
1.0
 70
    12
 71
     2
 72
     6
 73
     3
 74
     0
 42
0.0000000001
 43
0.0000000001
 40
19.44152500070193
 40
19.44152500070193
 40
19.44152500070193
 40
28.20374305340968
 40
28.20374305340968
 40
28.20374305340968
 10
2088.687106663745
 20
314.6797985995215
 30
0.0
 41
1.0
 10
2088.687106663745
 20
316.2874937541068
 30
0.0
 41
1.085739542740694
 10
2087.615309894021
 20
318.1439002146593
 30
0.0
 41
1.0941941431524
  0
SPLINE
  5
53D4
330
1F
100
AcDbEntity
  8
AM_VIS
100
AcDbSpline
210
0.0
220
0.0
230
1.0
 70
    12
 71
     2
 72
     6
 73
     3
 74
     0
 42
0.0000000001
 43
0.0000000001
 40
10.67930694799419
 40
10.67930694799419
 40
10.67930694799419
 40
19.44152500070193
 40
19.44152500070193
 40
19.44152500070193
 10
2087.615309894021
 20
311.2156969843838
 30
0.0
 41
1.094194143152401
 10
2088.687106663745
 20
313.0721034449364
 30
0.0
 41
1.085739542740695
 10
2088.687106663745
 20
314.6797985995215
 30
0.0
 41
1.0
  0
LINE
  5
53D5
330
1F
100
AcDbEntity
  8
AM_VIS
100
AcDbLine
 10
2087.615309894021
 20
311.2156969843838
 30
0.0
 11
2083.758903433469
 21
311.2156969843838
 31
0.0
  0
SPLINE
  5
53D6
330
1F
100
AcDbEntity
  8
AM_VIS
100
AcDbSpline
210
0.0
220
0.0
230
1.0
 70
    12
 71
     2
 72
     6
 73
     3
 74
     0
 42
0.0000000001
 43
0.0000000001
 40
19.44152500070193
 40
19.44152500070193
 40
19.44152500070193
 40
28.20374305340966
 40
28.20374305340966
 40
28.20374305340966
 10
2088.687106663745
 20
325.0721034449348
 30
0.0
 41
1.0
 10
2088.687106663745
 20
328.2874937541052
 30
0.0
 41
1.085739542740695
 10
2087.615309894021
 20
332.0003066752104
 30
0.0
 41
1.094194143152401
  0
SPLINE
  5
53D7
330
1F
100
AcDbEntity
  8
AM_VIS
100
AcDbSpline
210
0.0
220
0.0
230
1.0
 70
    12
 71
     2
 72
     6
 73
     3
 74
     0
 42
0.0000000001
 43
0.0000000001
 40
10.67930694799418
 40
10.67930694799418
 40
10.67930694799418
 40
19.44152500070193
 40
19.44152500070193
 40
19.44152500070193
 10
2087.615309894021
 20
318.1439002146593
 30
0.0
 41
1.094194143152404
 10
2088.687106663744
 20
321.8567131357643
 30
0.0
 41
1.085739542740698
 10
2088.687106663745
 20
325.0721034449348
 30
0.0
 41
1.0
  0
LINE
  5
53D8
330
1F
100
AcDbEntity
  8
AM_VIS
100
AcDbLine
 10
2087.615309894021
 20
318.1439002146593
 30
0.0
 11
2083.758903433469
 21
318.1439002146593
 31
0.0
  0
LINE
  5
53D9
330
1F
100
AcDbEntity
  8
AM_VIS
100
AcDbLine
 10
2087.615309894021
 20
338.9285099054859
 30
0.0
 11
2083.758903433469
 21
338.9285099054859
 31
0.0
  0
SPLINE
  5
53DA
330
1F
100
AcDbEntity
  8
AM_VIS
100
AcDbSpline
210
-0.0000000000000023
220
-0.0000000000000009
230
-1.0
 70
    12
 71
     2
 72
     6
 73
     3
 74
     0
 42
0.0000000001
 43
0.0000000001
 40
19.44152500070193
 40
19.44152500070193
 40
19.44152500070193
 40
28.20374305340966
 40
28.20374305340966
 40
28.20374305340966
 10
2088.687106663745
 20
335.464408290348
 30
0.0
 41
1.0
 10
2088.687106663742
 20
337.0721034449331
 30
0.0000000000000142
 41
1.0857395427407
 10
2087.615309894021
 20
338.9285099054859
 30
0.0
 41
1.094194143152407
  0
SPLINE
  5
53DB
330
1F
100
AcDbEntity
  8
AM_VIS
100
AcDbSpline
210
-0.0000000000000023
220
0.0000000000000009
230
-1.0
 70
    12
 71
     2
 72
     6
 73
     3
 74
     0
 42
0.0000000001
 43
0.0000000001
 40
10.67930694799419
 40
10.67930694799419
 40
10.67930694799419
 40
19.44152500070193
 40
19.44152500070193
 40
19.44152500070193
 10
2087.615309894021
 20
332.0003066752103
 30
0.0
 41
1.094194143152408
 10
2088.687106663743
 20
333.8567131357629
 30
0.0000000000000142
 41
1.085739542740701
 10
2088.687106663745
 20
335.464408290348
 30
0.0
 41
1.0
  0
LINE
  5
53DC
330
1F
100
AcDbEntity
  8
AM_VIS
100
AcDbLine
 10
2087.615309894021
 20
332.0003066752103
 30
0.0
 11
2083.758903433469
 21
332.0003066752103
 31
0.0
  0
SPLINE
  5
53DD
330
1F
100
AcDbEntity
  8
AM_VIS
100
AcDbSpline
210
0.0
220
0.0
230
1.0
 70
    12
 71
     2
 72
     6
 73
     3
 74
     0
 42
0.0000000001
 43
0.0000000001
 40
19.44152500070193
 40
19.44152500070193
 40
19.44152500070193
 40
28.20374305340967
 40
28.20374305340967
 40
28.20374305340967
 10
2082.687106663745
 20
314.6797985995215
 30
0.0
 41
1.0
 10
2082.687106663744
 20
313.0721034449364
 30
0.0
 41
1.085739542740695
 10
2083.758903433469
 20
311.2156969843838
 30
0.0
 41
1.0941941431524
  0
SPLINE
  5
53DE
330
1F
100
AcDbEntity
  8
AM_VIS
100
AcDbSpline
210
0.0
220
0.0
230
1.0
 70
    12
 71
     2
 72
     6
 73
     3
 74
     0
 42
0.0000000001
 43
0.0000000001
 40
10.67930694799418
 40
10.67930694799418
 40
10.67930694799418
 40
19.44152500070193
 40
19.44152500070193
 40
19.44152500070193
 10
2083.758903433469
 20
318.1439002146593
 30
0.0
 41
1.094194143152401
 10
2082.687106663745
 20
316.2874937541066
 30
0.0
 41
1.085739542740695
 10
2082.687106663745
 20
314.6797985995215
 30
0.0
 41
1.0
  0
SPLINE
  5
53DF
330
1F
100
AcDbEntity
  8
AM_VIS
100
AcDbSpline
210
0.0000000000000023
220
0.0000000000000005
230
1.0
 70
    12
 71
     2
 72
     6
 73
     3
 74
     0
 42
0.0000000001
 43
0.0000000001
 40
19.44152500070194
 40
19.44152500070194
 40
19.44152500070194
 40
28.20374305340969
 40
28.20374305340969
 40
28.20374305340969
 10
2082.687106663745
 20
325.0721034449348
 30
0.0
 41
1.0
 10
2082.687106663745
 20
321.8567131357645
 30
-0.0000000000000142
 41
1.085739542740697
 10
2083.758903433469
 20
318.1439002146593
 30
0.0
 41
1.094194143152404
  0
SPLINE
  5
53E0
330
1F
100
AcDbEntity
  8
AM_VIS
100
AcDbSpline
210
0.0
220
0.0
230
1.0
 70
    12
 71
     2
 72
     6
 73
     3
 74
     0
 42
0.0000000001
 43
0.0000000001
 40
10.6793069479942
 40
10.6793069479942
 40
10.6793069479942
 40
19.44152500070194
 40
19.44152500070194
 40
19.44152500070194
 10
2083.75890343347
 20
332.0003066752104
 30
0.0
 41
1.094194143152401
 10
2082.687106663744
 20
328.2874937541052
 30
0.0
 41
1.085739542740695
 10
2082.687106663745
 20
325.0721034449348
 30
0.0
 41
1.0
  0
SPLINE
  5
53E1
330
1F
100
AcDbEntity
  8
AM_VIS
100
AcDbSpline
210
0.0
220
0.0
230
1.0
 70
    12
 71
     2
 72
     6
 73
     3
 74
     0
 42
0.0000000001
 43
0.0000000001
 40
19.44152500070194
 40
19.44152500070194
 40
19.44152500070194
 40
28.20374305340969
 40
28.20374305340969
 40
28.20374305340969
 10
2082.687106663745
 20
335.464408290348
 30
0.0
 41
1.0
 10
2082.687106663745
 20
333.856713135763
 30
0.0
 41
1.085739542740699
 10
2083.758903433469
 20
332.0003066752103
 30
0.0
 41
1.094194143152405
  0
SPLINE
  5
53E2
330
1F
100
AcDbEntity
  8
AM_VIS
100
AcDbSpline
210
0.0
220
0.0
230
1.0
 70
    12
 71
     2
 72
     6
 73
     3
 74
     0
 42
0.0000000001
 43
0.0000000001
 40
10.67930694799421
 40
10.67930694799421
 40
10.67930694799421
 40
19.44152500070194
 40
19.44152500070194
 40
19.44152500070194
 10
2083.758903433469
 20
338.9285099054857
 30
0.0
 41
1.094194143152403
 10
2082.687106663746
 20
337.0721034449333
 30
0.0
 41
1.085739542740697
 10
2082.687106663745
 20
335.464408290348
 30
0.0
 41
1.0
  0
LINE
  5
53E3
330
1F
100
AcDbEntity
  8
AM_VIS
100
AcDbLine
 10
2088.687106663745
 20
337.0721034449348
 30
0.0
 11
2087.615309894021
 21
338.9285099054859
 31
0.0
  0
LINE
  5
53E4
330
1F
100
AcDbEntity
  8
AM_VIS
100
AcDbLine
 10
2088.687106663745
 20
313.0721034449348
 30
0.0
 11
2087.615309894021
 21
311.2156969843838
 31
0.0
  0
LINE
  5
53E5
330
1F
100
AcDbEntity
  8
AM_VIS
100
AcDbLine
 10
2082.687106663745
 20
313.0721034449348
 30
0.0
 11
2083.758903433469
 21
311.2156969843838
 31
0.0
  0
LINE
  5
53E6
330
1F
100
AcDbEntity
  8
AM_VIS
100
AcDbLine
 10
2082.687106663745
 20
337.0721034449348
 30
0.0
 11
2083.758903433469
 21
338.9285099054859
 31
0.0
  0
LINE
  5
53E7
330
1F
100
AcDbEntity
  8
AM_VIS
100
AcDbLine
 10
2080.687106663745
 20
314.6658581300471
 30
0.0
 11
2082.687106663745
 21
314.5721034449348
 31
0.0
  0
LINE
  5
53E8
330
1F
100
AcDbEntity
  8
AM_VIS
100
AcDbLine
 10
2080.687106663745
 20
335.4783487598224
 30
0.0
 11
2082.687106663745
 21
335.5721034449348
 31
0.0
  0
LINE
  5
53E9
330
1F
100
AcDbEntity
  8
AM_VIS
100
AcDbLine
 10
2115.746998954473
 20
332.6285099074911
 30
0.0
 11
2091.687106663745
 21
334.0721034449348
 31
0.0
  0
LINE
  5
53EA
330
1F
100
AcDbEntity
  8
AM_VIS
100
AcDbLine
 10
2115.746998954473
 20
317.5156969823785
 30
0.0
 11
2091.687106663745
 21
316.0721034449348
 31
0.0
  0
LINE
  5
53EB
330
1F
100
AcDbEntity
  8
AM_VIS
100
AcDbLine
 10
2088.687106663745
 20
315.0721034449348
 30
0.0
 11
2091.187106663745
 21
315.0721034449348
 31
0.0
  0
LINE
  5
53EC
330
1F
100
AcDbEntity
  8
AM_VIS
100
AcDbLine
 10
2088.687106663745
 20
335.0721034449348
 30
0.0
 11
2091.187106663745
 21
335.0721034449348
 31
0.0
  0
LINE
  5
53ED
330
1F
100
AcDbEntity
  8
AM_VIS
100
AcDbLine
 10
2088.687106663745
 20
335.464408290348
 30
0.0
 11
2088.687106663745
 21
337.0721034449348
 31
0.0
  0
LINE
  5
53EE
330
1F
100
AcDbEntity
  8
AM_VIS
100
AcDbLine
 10
2088.687106663745
 20
325.0721034449348
 30
0.0
 11
2088.687106663745
 21
335.464408290348
 31
0.0
  0
LINE
  5
53EF
330
1F
100
AcDbEntity
  8
AM_VIS
100
AcDbLine
 10
2088.687106663745
 20
314.6797985995215
 30
0.0
 11
2088.687106663745
 21
325.0721034449348
 31
0.0
  0
LINE
  5
53F0
330
1F
100
AcDbEntity
  8
AM_VIS
100
AcDbLine
 10
2088.687106663745
 20
313.0721034449348
 30
0.0
 11
2088.687106663745
 21
314.6797985995215
 31
0.0
  0
LINE
  5
53F1
330
1F
100
AcDbEntity
  8
AM_VIS
100
AcDbLine
 10
2082.687106663745
 20
314.6797985995215
 30
0.0
 11
2082.687106663745
 21
313.0721034449348
 31
0.0
  0
LINE
  5
53F2
330
1F
100
AcDbEntity
  8
AM_VIS
100
AcDbLine
 10
2082.687106663745
 20
325.0721034449348
 30
0.0
 11
2082.687106663745
 21
314.6797985995215
 31
0.0
  0
LINE
  5
53F3
330
1F
100
AcDbEntity
  8
AM_VIS
100
AcDbLine
 10
2082.687106663745
 20
335.464408290348
 30
0.0
 11
2082.687106663745
 21
325.0721034449348
 31
0.0
  0
LINE
  5
53F4
330
1F
100
AcDbEntity
  8
AM_VIS
100
AcDbLine
 10
2082.687106663745
 20
337.0721034449348
 30
0.0
 11
2082.687106663745
 21
335.464408290348
 31
0.0
  0
LINE
  5
53F5
330
1F
100
AcDbEntity
  8
AM_VIS
100
AcDbLine
 10
2116.687106663745
 20
331.6303050620254
 30
0.0
 11
2116.687106663745
 21
318.5139018278443
 31
0.0
  0
LINE
  5
53F6
330
1F
100
AcDbEntity
  8
AM_VIS
100
AcDbLine
 10
2091.687106663745
 20
334.5721034449348
 30
0.0
 11
2091.687106663745
 21
315.5721034449348
 31
0.0
  0
ARC
  5
53F7
330
1F
100
AcDbEntity
  8
AM_VIS
100
AcDbCircle
 10
2115.687106663745
 20
318.5139018278443
 30
0.0
 40
1.0
100
AcDbArc
 50
273.4336303624495
 51
0.0
  0
ARC
  5
53F8
330
1F
100
AcDbEntity
  8
AM_VIS
100
AcDbCircle
 10
2115.687106663745
 20
331.6303050620254
 30
0.0
 40
1.0
100
AcDbArc
 50
0.0
 51
86.56636963755053
  0
ARC
  5
53F9
330
1F
100
AcDbEntity
  8
AM_VIS
100
AcDbCircle
 10
2091.187106663745
 20
315.5721034449348
 30
0.0
 40
0.5
100
AcDbArc
 50
270.0
 51
0.0
  0
ARC
  5
53FA
330
1F
100
AcDbEntity
  8
AM_VIS
100
AcDbCircle
 10
2091.187106663745
 20
334.5721034449348
 30
0.0
 40
0.5
100
AcDbArc
 50
0.0
 51
90.0
  0
LINE
  5
53FB
102
{ACAD_REACTORS
330
6FA9
102
}
330
1F
100
AcDbEntity
  8
AM_VIS
100
AcDbLine
 10
1749.837106663745
 20
300.0721034449348
 30
0.0
 11
1749.837106663745
 21
310.0609964460044
 31
0.0
  0
LINE
  5
53FC
330
1F
100
AcDbEntity
  8
AM_VIS
100
AcDbLine
 10
1749.837106663745
 20
340.083210443865
 30
0.0
 11
1749.837106663745
 21
350.0721034449348
 31
0.0
  0
LINE
  5
53FD
330
1F
100
AcDbEntity
  8
AM_VIS
100
AcDbLine
 10
1789.837106663745
 20
300.0721034449348
 30
0.0
 11
1772.535836474523
 21
300.0721034449348
 31
0.0
  0
LINE
  5
53FE
102
{ACAD_REACTORS
330
6F7F
102
}
330
1F
100
AcDbEntity
  8
AM_VIS
100
AcDbLine
 10
1767.138376852967
 20
300.0721034449348
 30
0.0
 11
1749.837106663745
 21
300.0721034449348
 31
0.0
  0
LINE
  5
53FF
330
1F
100
AcDbEntity
  8
AM_VIS
100
AcDbLine
 10
1789.837106663745
 20
350.0721034449348
 30
0.0
 11
1789.837106663745
 21
340.083210443865
 31
0.0
  0
LINE
  5
5400
102
{ACAD_REACTORS
330
6FA9
102
}
330
1F
100
AcDbEntity
  8
AM_VIS
100
AcDbLine
 10
1789.837106663745
 20
310.0609964460044
 30
0.0
 11
1789.837106663745
 21
300.0721034449348
 31
0.0
  0
LINE
  5
5401
102
{ACAD_REACTORS
330
6F7F
102
}
330
1F
100
AcDbEntity
  8
AM_VIS
100
AcDbLine
 10
1749.837106663745
 20
350.0721034449348
 30
0.0
 11
1767.138376852967
 21
350.0721034449348
 31
0.0
  0
LINE
  5
5402
330
1F
100
AcDbEntity
  8
AM_VIS
100
AcDbLine
 10
1772.535836474523
 20
350.0721034449348
 30
0.0
 11
1789.837106663745
 21
350.0721034449348
 31
0.0
  0
CIRCLE
  5
5405
330
1F
100
AcDbEntity
  8
AM_VIS
100
AcDbCircle
 10
1769.837106663745
 20
325.0721034449348
 30
0.0
 40
5.850000000000001
  0
CIRCLE
  5
5406
330
1F
100
AcDbEntity
  8
AM_VIS
100
AcDbCircle
 10
1769.837106663745
 20
325.0721034449348
 30
0.0
 40
4.25
  0
CIRCLE
  5
5407
330
1F
100
AcDbEntity
  8
AM_VIS
100
AcDbCircle
 10
1769.837106663745
 20
325.0721034449348
 30
0.0
 40
3.649999999999999
  0
CIRCLE
  5
5408
330
1F
100
AcDbEntity
  8
AM_VIS
100
AcDbCircle
 10
1769.837106663745
 20
325.0721034449348
 30
0.0
 40
2.649999999999999
  0
LINE
  5
5409
330
1F
100
AcDbEntity
  8
AM_VIS
100
AcDbLine
 10
1762.353791890197
 20
338.0721034449348
 30
0.0
 11
1764.640954241038
 21
338.0721034449348
 31
0.0
  0
LINE
  5
540A
330
1F
100
AcDbEntity
  8
AM_VIS
100
AcDbLine
 10
1775.033259086451
 20
338.0721034449348
 30
0.0
 11
1777.320421437293
 21
338.0721034449348
 31
0.0
  0
LINE
  5
540B
330
1F
100
AcDbEntity
  8
AM_VIS
100
AcDbLine
 10
1775.033259086451
 20
338.0721034449348
 30
0.0
 11
1764.640954241038
 21
338.0721034449348
 31
0.0
  0
LINE
  5
540C
330
1F
100
AcDbEntity
  8
AM_VIS
100
AcDbLine
 10
1764.640954241038
 20
312.0721034449348
 30
0.0
 11
1775.033259086451
 21
312.0721034449348
 31
0.0
  0
LINE
  5
540D
330
1F
100
AcDbEntity
  8
AM_VIS
100
AcDbLine
 10
1775.033259086451
 20
312.0721034449348
 30
0.0
 11
1777.320421437293
 21
312.0721034449348
 31
0.0
  0
LINE
  5
540E
330
1F
100
AcDbEntity
  8
AM_VIS
100
AcDbLine
 10
1762.353791890197
 20
312.0721034449348
 30
0.0
 11
1764.640954241038
 21
312.0721034449348
 31
0.0
  0
CIRCLE
  5
540F
330
1F
100
AcDbEntity
  8
AM_VIS
100
AcDbCircle
 10
1769.837106663745
 20
325.0721034449348
 30
0.0
 40
7.25
  0
ARC
  5
5410
330
1F
100
AcDbEntity
  8
AM_VIS
100
AcDbCircle
 10
1769.837106663745
 20
325.0721034449348
 30
0.0
 40
15.0
100
AcDbArc
 50
60.07356513338243
 51
119.9264348666176
  0
ARC
  5
5411
330
1F
100
AcDbEntity
  8
AM_VIS
100
AcDbCircle
 10
1769.837106663745
 20
325.0721034449348
 30
0.0
 40
15.0
100
AcDbArc
 50
119.9264348666176
 51
240.0735651333824
  0
ARC
  5
5412
330
1F
100
AcDbEntity
  8
AM_VIS
100
AcDbCircle
 10
1769.837106663745
 20
325.0721034449348
 30
0.0
 40
15.0
100
AcDbArc
 50
299.9264348666176
 51
60.07356513338243
  0
ARC
  5
5413
330
1F
100
AcDbEntity
  8
AM_VIS
100
AcDbCircle
 10
1769.837106663745
 20
325.0721034449348
 30
0.0
 40
14.0
100
AcDbArc
 50
111.7867892982705
 51
248.2132107017295
  0
ARC
  5
5414
330
1F
100
AcDbEntity
  8
AM_VIS
100
AcDbCircle
 10
1769.837106663745
 20
325.0721034449348
 30
0.0
 40
14.0
100
AcDbArc
 50
291.7867892982705
 51
68.21321070172946
  0
CIRCLE
  5
5415
330
1F
100
AcDbEntity
  8
AM_VIS
100
AcDbCircle
 10
1769.837106663745
 20
325.0721034449348
 30
0.0
 40
8.75
  0
ARC
  5
5416
330
1F
100
AcDbEntity
  8
AM_VIS
100
AcDbCircle
 10
1769.837106663745
 20
325.0721034449348
 30
0.0
 40
15.0
100
AcDbArc
 50
240.0735651333824
 51
299.9264348666176
  0
CIRCLE
  5
5417
330
1F
100
AcDbEntity
  8
AM_VIS
100
AcDbCircle
 10
1769.837106663745
 20
325.0721034449348
 30
0.0
 40
6.0
  0
LINE
  5
5418
330
1F
100
AcDbEntity
  8
AM_VIS
100
AcDbLine
 10
1770.637106663745
 20
322.5457424256028
 30
0.0
 11
1770.637106663745
 21
327.5984644642667
 31
0.0
  0
LINE
  5
5419
330
1F
100
AcDbEntity
  8
AM_VIS
100
AcDbLine
 10
1769.037106663745
 20
327.5984644642667
 30
0.0
 11
1769.037106663745
 21
322.5457424256028
 31
0.0
  0
LINE
  5
541A
330
1F
100
AcDbEntity
  8
AM_VIS
100
AcDbLine
 10
1770.587106663745
 20
292.5721034449348
 30
0.0
 11
1770.587106663745
 21
291.5721034449348
 31
0.0
  0
LINE
  5
541E
330
1F
100
AcDbEntity
  8
AM_VIS
100
AcDbLine
 10
1779.83273587697
 20
292.0677326581609
 30
0.0
 11
1779.83273587697
 21
300.0721034449348
 31
0.0
  0
LINE
  5
541F
330
1F
100
AcDbEntity
  8
AM_VIS
100
AcDbLine
 10
1769.087106663745
 20
292.5721034449348
 30
0.0
 11
1769.087106663745
 21
291.5721034449348
 31
0.0
  0
LINE
  5
548D
330
1F
100
AcDbEntity
  8
AM_VIS
100
AcDbLine
 10
1770.587106663745
 20
292.5721034449348
 30
0.0
 11
1769.087106663745
 21
292.5721034449348
 31
0.0
  0
LINE
  5
54BA
330
1F
100
AcDbEntity
  8
AM_VIS
100
AcDbLine
 10
1759.841477450519
 20
300.0721034449348
 30
0.0
 11
1759.841477450519
 21
292.0721034449348
 31
0.0
  0
LINE
  5
54BB
330
1F
100
AcDbEntity
  8
AM_VIS
100
AcDbLine
 10
1759.841130972437
 20
292.0717620699032
 30
0.0
 11
1760.136735972603
 21
291.7717382134615
 31
0.0
  0
LINE
  5
54BC
330
1F
100
AcDbEntity
  8
AM_VIS
100
AcDbLine
 10
1779.337106663745
 20
291.5721034449348
 30
0.0
 11
1779.83273587697
 21
292.0677326581608
 31
0.0
  0
LINE
  5
54BD
330
1F
100
AcDbEntity
  8
AM_VIS
100
AcDbLine
 10
1760.337106663745
 20
291.5721034449348
 30
0.0
 11
1760.137106663744
 21
291.7721034449348
 31
0.0
  0
LINE
  5
54BE
330
1F
100
AcDbEntity
  8
AM_VIS
100
AcDbLine
 10
1772.02171189124
 20
323.5721034449348
 30
0.0
 11
1770.637106663745
 21
323.5721034449348
 31
0.0
  0
LINE
  5
54BF
330
1F
100
AcDbEntity
  8
AM_VIS
100
AcDbLine
 10
1769.037106663745
 20
323.5721034449348
 30
0.0
 11
1767.65250143625
 21
323.5721034449348
 31
0.0
  0
LINE
  5
54C0
330
1F
100
AcDbEntity
  8
AM_VIS
100
AcDbLine
 10
1767.23470392781
 20
324.5721034449348
 30
0.0
 11
1769.037106663745
 21
324.5721034449348
 31
0.0
  0
LINE
  5
54C1
330
1F
100
AcDbEntity
  8
AM_VIS
100
AcDbLine
 10
1770.637106663745
 20
324.5721034449348
 30
0.0
 11
1772.43950939968
 21
324.5721034449348
 31
0.0
  0
LINE
  5
54C2
330
1F
100
AcDbEntity
  8
AM_VIS
100
AcDbLine
 10
1779.337106663745
 20
291.5721034449348
 30
0.0
 11
1770.587106663745
 21
291.5721034449348
 31
0.0
  0
LINE
  5
54E8
330
1F
100
AcDbEntity
  8
AM_VIS
100
AcDbLine
 10
1769.087106663745
 20
291.5721034449348
 30
0.0
 11
1760.337106663745
 21
291.5721034449348
 31
0.0
  0
LINE
  5
54E9
330
1F
100
AcDbEntity
  8
AM_VIS
100
AcDbLine
 10
1746.837106663745
 20
338.3511596362961
 30
0.0
 11
1746.837106663745
 21
311.7930472535734
 31
0.0
  0
LINE
  5
54EA
102
{ACAD_REACTORS
330
6F55
102
}
330
1F
100
AcDbEntity
  8
AM_VIS
100
AcDbLine
 10
1746.837106663745
 20
338.3511596362961
 30
0.0
 11
1769.837106663745
 21
351.6302158276575
 31
0.0
  0
LINE
  5
54EB
330
1F
100
AcDbEntity
  8
AM_VIS
100
AcDbLine
 10
1769.837106663745
 20
351.6302158276575
 30
0.0
 11
1792.837106663745
 21
338.3511596362962
 31
0.0
  0
LINE
  5
54EC
102
{ACAD_REACTORS
330
6F55
102
}
330
1F
100
AcDbEntity
  8
AM_VIS
100
AcDbLine
 10
1792.837106663745
 20
338.3511596362962
 30
0.0
 11
1792.837106663745
 21
311.7930472535734
 31
0.0
  0
LINE
  5
54ED
330
1F
100
AcDbEntity
  8
AM_VIS
100
AcDbLine
 10
1769.837106663745
 20
298.513991062212
 30
0.0
 11
1792.837106663745
 21
311.7930472535734
 31
0.0
  0
LINE
  5
54EE
330
1F
100
AcDbEntity
  8
AM_VIS
100
AcDbLine
 10
1746.837106663745
 20
311.7930472535734
 30
0.0
 11
1769.837106663745
 21
298.513991062212
 31
0.0
  0
CIRCLE
  5
54EF
330
1F
100
AcDbEntity
  8
AM_VIS
100
AcDbCircle
 10
1769.837106663745
 20
325.0721034449348
 30
0.0
 40
22.0
  0
LWPOLYLINE
  5
54F2
330
1F
100
AcDbEntity
  8
0
100
AcDbPolyline
 90
        4
 70
     1
 43
0.0
 10
1610.60779389587
 20
559.4190121235905
 10
1794.668458935483
 20
559.4190121235905
 10
1794.668458935483
 20
438.625873557356
 10
1610.60779389587
 20
438.625873557356
  0
LEADER
  5
5504
330
1F
100
AcDbEntity
  8
AM_5
100
AcDbLeader
  3
AM_ISO$7
 76
     3
 10
1724.034651978018
 20
507.937696885047
 30
0.0
 10
1705.456918551827
 20
531.6731510727343
 30
0.0
 10
1649.33473195262
 20
531.6731510727343
 30
0.0
1001
ACAD
1000
DSTYLE
1002
{
1070
    40
1040
1.5
1070
    41
1040
3.0
1070
    42
1040
1.0
1070
    43
1040
15.0
1070
    44
1040
1.0
1070
   140
1040
3.5
1070
   141
1040
0.0
1070
   147
1040
1.0
1002
}
  0
TEXT
  5
5505
330
1F
100
AcDbEntity
  8
AM_5
100
AcDbText
 10
1649.175167156433
 20
533.6720701233233
 30
0.0
 40
5.0
  1
Rc3/8(Cool air out)
100
AcDbText
  0
LEADER
  5
5506
330
1F
100
AcDbEntity
  8
AM_5
100
AcDbLeader
  3
AM_ANSI$7
 76
     3
 10
1691.226836442508
 20
486.7253806526938
 30
0.0
 10
1703.963944747415
 20
467.5052062587335
 30
0.0
 10
1728.24355727598
 20
467.5052062587335
 30
0.0
1001
ACAD
1000
DSTYLE
1002
{
1070
    41
1040
4.0
1070
   341
1005
30E8
1070
   147
1040
0.8
1070
    77
1070
     0
1002
}
  0
TEXT
  5
5507
330
1F
100
AcDbEntity
  8
AM_5
100
AcDbText
 10
1704.758434901016
 20
468.5744280138415
 30
0.0
 40
5.0
  1
Silencer
100
AcDbText
  0
DIMENSION
  5
572B
102
{ACAD_XDICTIONARY
360
5738
102
}
102
{ACAD_REACTORS
330
5739
102
}
330
1F
100
AcDbEntity
  8
AM_5
100
AcDbDimension
  2
*D4
 10
1651.824650978018
 20
492.6076968850471
 30
0.0
 11
1649.074650978018
 21
499.6076968850474
 31
0.0
 70
    32
  1
%%c<>
 71
     5
 42
14.0
  3
AM_ISO$0
100
AcDbAlignedDimension
 13
1663.824651978018
 23
506.6076968850471
 33
0.0
 14
1663.824651978018
 24
492.6076968850471
 34
0.0
 50
90.0
100
AcDbRotatedDimension
  0
DIMENSION
  5
5759
102
{ACAD_XDICTIONARY
360
5766
102
}
102
{ACAD_REACTORS
330
5767
102
}
330
1F
100
AcDbEntity
  8
AM_5
100
AcDbDimension
  2
*D5
 10
1643.824650978018
 20
492.1076968850472
 30
0.0
 11
1641.074650978018
 21
499.6076968850474
 31
0.0
 70
    32
  1
%%c<>
 71
     5
 42
15.0
  3
AM_ISO$0
100
AcDbAlignedDimension
 13
1671.824651978018
 23
507.1076968850471
 33
0.0
 14
1671.824651978018
 24
492.1076968850472
 34
0.0
 50
90.0
100
AcDbRotatedDimension
  0
DIMENSION
  5
577F
102
{ACAD_XDICTIONARY
360
578C
102
}
102
{ACAD_REACTORS
330
578D
102
}
330
1F
100
AcDbEntity
  8
AM_5
100
AcDbDimension
  2
*D6
 10
1635.824650978018
 20
479.6076968850472
 30
0.0
 11
1633.074650978018
 21
499.6076968850474
 31
0.0
 70
    32
  1
%%c<>
 71
     5
 42
39.99999999999995
  3
AM_ISO$0
100
AcDbAlignedDimension
 13
1679.824651978018
 23
519.6076968850471
 33
0.0
 14
1679.824651978018
 24
479.6076968850472
 34
0.0
 50
90.0
100
AcDbRotatedDimension
  0
LINE
  5
67EB
330
1F
100
AcDbEntity
  8
AM_VIS
100
AcDbLine
 10
1760.841477450519
 20
300.0721034449348
 30
0.0
 11
1760.841477450519
 21
291.5721034449348
 31
0.0
  0
LINE
  5
682F
330
1F
100
AcDbEntity
  8
AM_VIS
100
AcDbLine
 10
1762.041477450519
 20
300.0721034449348
 30
0.0
 11
1762.041477450519
 21
291.5721034449348
 31
0.0
  0
LINE
  5
6830
330
1F
100
AcDbEntity
  8
AM_VIS
100
AcDbLine
 10
1763.24147745052
 20
300.0721034449348
 30
0.0
 11
1763.24147745052
 21
291.5721034449348
 31
0.0
  0
LINE
  5
6831
330
1F
100
AcDbEntity
  8
AM_VIS
100
AcDbLine
 10
1764.441477450519
 20
300.0721034449348
 30
0.0
 11
1764.441477450519
 21
291.5721034449348
 31
0.0
  0
LINE
  5
6832
330
1F
100
AcDbEntity
  8
AM_VIS
100
AcDbLine
 10
1765.64147745052
 20
300.0721034449348
 30
0.0
 11
1765.64147745052
 21
291.5721034449348
 31
0.0
  0
LINE
  5
6833
330
1F
100
AcDbEntity
  8
AM_VIS
100
AcDbLine
 10
1766.841477450519
 20
300.0721034449348
 30
0.0
 11
1766.841477450519
 21
291.5721034449348
 31
0.0
  0
LINE
  5
6834
330
1F
100
AcDbEntity
  8
AM_VIS
100
AcDbLine
 10
1768.041477450519
 20
299.5506980718326
 30
0.0
 11
1768.041477450519
 21
291.5721034449348
 31
0.0
  0
LINE
  5
6835
330
1F
100
AcDbEntity
  8
AM_VIS
100
AcDbLine
 10
1769.24147745052
 20
298.8578777488046
 30
0.0
 11
1769.24147745052
 21
292.5721034449348
 31
0.0
  0
LINE
  5
6836
330
1F
100
AcDbEntity
  8
AM_VIS
100
AcDbLine
 10
1770.441477450519
 20
298.8629246986463
 30
0.0
 11
1770.441477450519
 21
292.5721034449348
 31
0.0
  0
LINE
  5
6837
330
1F
100
AcDbEntity
  8
AM_VIS
100
AcDbLine
 10
1771.64147745052
 20
299.5557450216741
 30
0.0
 11
1771.641477450519
 21
291.5721034449348
 31
0.0
  0
LINE
  5
6838
330
1F
100
AcDbEntity
  8
AM_VIS
100
AcDbLine
 10
1772.841477450519
 20
300.0721034449348
 30
0.0
 11
1772.841477450519
 21
291.5721034449348
 31
0.0
  0
LINE
  5
6839
330
1F
100
AcDbEntity
  8
AM_VIS
100
AcDbLine
 10
1774.041477450519
 20
300.0721034449348
 30
0.0
 11
1774.041477450519
 21
291.5721034449348
 31
0.0
  0
LINE
  5
683A
330
1F
100
AcDbEntity
  8
AM_VIS
100
AcDbLine
 10
1775.24147745052
 20
300.0721034449348
 30
0.0
 11
1775.24147745052
 21
291.5721034449348
 31
0.0
  0
LINE
  5
683B
330
1F
100
AcDbEntity
  8
AM_VIS
100
AcDbLine
 10
1776.441477450519
 20
300.0721034449348
 30
0.0
 11
1776.441477450519
 21
291.5721034449348
 31
0.0
  0
LINE
  5
683C
330
1F
100
AcDbEntity
  8
AM_VIS
100
AcDbLine
 10
1777.64147745052
 20
300.0721034449348
 30
0.0
 11
1777.64147745052
 21
291.5721034449348
 31
0.0
  0
LINE
  5
683D
330
1F
100
AcDbEntity
  8
AM_VIS
100
AcDbLine
 10
1778.841477450519
 20
300.0721034449348
 30
0.0
 11
1778.841477450519
 21
291.5721034449348
 31
0.0
  0
LINE
  5
683E
330
1F
100
AcDbEntity
  8
0
100
AcDbLine
 10
2058.687106663745
 20
301.0721034449348
 30
0.0
 11
2058.687106663745
 21
292.1001724238929
 31
0.0
  0
LINE
  5
6840
330
1F
100
AcDbEntity
  8
0
100
AcDbLine
 10
2038.687106663745
 20
305.0721034449348
 30
0.0
 11
2038.687106663745
 21
309.0721034449349
 31
0.0
  0
LINE
  5
6853
330
1F
100
AcDbEntity
  8
AM_VIS
100
AcDbLine
 10
2039.915271326155
 20
301.5721034449348
 30
0.0
 11
2039.915271326155
 21
291.5721034449348
 31
0.0
  0
LINE
  5
6854
330
1F
100
AcDbEntity
  8
0
100
AcDbLine
 10
2039.887106663745
 20
304.5721034449348
 30
0.0
 11
2039.887106663745
 21
309.5721034449348
 31
0.0
  0
LINE
  5
6855
330
1F
100
AcDbEntity
  8
AM_VIS
100
AcDbLine
 10
2041.115271326155
 20
301.5721034449348
 30
0.0
 11
2041.115271326154
 21
291.5721034449348
 31
0.0
  0
LINE
  5
6856
330
1F
100
AcDbEntity
  8
0
100
AcDbLine
 10
2041.087106663745
 20
304.5721034449348
 30
0.0
 11
2041.087106663745
 21
309.5721034449348
 31
0.0
  0
LINE
  5
6857
330
1F
100
AcDbEntity
  8
AM_VIS
100
AcDbLine
 10
2042.315271326155
 20
301.5721034449348
 30
0.0
 11
2042.315271326155
 21
291.5721034449348
 31
0.0
  0
LINE
  5
6858
330
1F
100
AcDbEntity
  8
0
100
AcDbLine
 10
2042.287106663745
 20
304.5721034449348
 30
0.0
 11
2042.287106663745
 21
309.5721034449348
 31
0.0
  0
LINE
  5
6859
330
1F
100
AcDbEntity
  8
AM_VIS
100
AcDbLine
 10
2043.515271326155
 20
301.5721034449348
 30
0.0
 11
2043.515271326155
 21
291.5721034449348
 31
0.0
  0
LINE
  5
685A
330
1F
100
AcDbEntity
  8
0
100
AcDbLine
 10
2043.487106663745
 20
304.5721034449348
 30
0.0
 11
2043.487106663745
 21
309.5721034449348
 31
0.0
  0
LINE
  5
685B
330
1F
100
AcDbEntity
  8
AM_VIS
100
AcDbLine
 10
2044.715271326155
 20
301.5721034449348
 30
0.0
 11
2044.715271326155
 21
291.5721034449348
 31
0.0
  0
LINE
  5
685C
330
1F
100
AcDbEntity
  8
0
100
AcDbLine
 10
2044.687106663745
 20
304.5721034449348
 30
0.0
 11
2044.687106663745
 21
309.5721034449348
 31
0.0
  0
LINE
  5
685D
330
1F
100
AcDbEntity
  8
AM_VIS
100
AcDbLine
 10
2045.915271326155
 20
301.5721034449348
 30
0.0
 11
2045.915271326155
 21
291.5721034449348
 31
0.0
  0
LINE
  5
685E
330
1F
100
AcDbEntity
  8
0
100
AcDbLine
 10
2045.887106663745
 20
304.5721034449348
 30
0.0
 11
2045.887106663745
 21
309.5721034449348
 31
0.0
  0
LINE
  5
685F
330
1F
100
AcDbEntity
  8
AM_VIS
100
AcDbLine
 10
2047.115271326155
 20
301.5721034449348
 30
0.0
 11
2047.115271326155
 21
291.5721034449348
 31
0.0
  0
LINE
  5
6860
330
1F
100
AcDbEntity
  8
0
100
AcDbLine
 10
2047.087106663745
 20
304.5721034449348
 30
0.0
 11
2047.087106663745
 21
309.5721034449348
 31
0.0
  0
LINE
  5
6861
330
1F
100
AcDbEntity
  8
AM_VIS
100
AcDbLine
 10
2048.315271326155
 20
301.5721034449348
 30
0.0
 11
2048.315271326154
 21
291.5721034449348
 31
0.0
  0
LINE
  5
6862
330
1F
100
AcDbEntity
  8
0
100
AcDbLine
 10
2048.287106663745
 20
304.5721034449348
 30
0.0
 11
2048.287106663745
 21
309.5721034449348
 31
0.0
  0
LINE
  5
6863
330
1F
100
AcDbEntity
  8
AM_VIS
100
AcDbLine
 10
2049.515271326155
 20
301.5721034449348
 30
0.0
 11
2049.515271326155
 21
291.5721034449348
 31
0.0
  0
LINE
  5
6864
330
1F
100
AcDbEntity
  8
0
100
AcDbLine
 10
2049.487106663745
 20
304.5721034449348
 30
0.0
 11
2049.487106663745
 21
309.5721034449348
 31
0.0
  0
LINE
  5
6865
330
1F
100
AcDbEntity
  8
AM_VIS
100
AcDbLine
 10
2050.715271326156
 20
301.5721034449348
 30
0.0
 11
2050.715271326155
 21
291.5721034449348
 31
0.0
  0
LINE
  5
6866
330
1F
100
AcDbEntity
  8
0
100
AcDbLine
 10
2050.687106663745
 20
304.5721034449348
 30
0.0
 11
2050.687106663745
 21
309.5721034449348
 31
0.0
  0
LINE
  5
6867
330
1F
100
AcDbEntity
  8
AM_VIS
100
AcDbLine
 10
2051.915271326155
 20
301.5721034449348
 30
0.0
 11
2051.915271326155
 21
291.5721034449348
 31
0.0
  0
LINE
  5
6868
330
1F
100
AcDbEntity
  8
0
100
AcDbLine
 10
2051.887106663745
 20
304.5721034449348
 30
0.0
 11
2051.887106663745
 21
309.5721034449348
 31
0.0
  0
LINE
  5
6869
330
1F
100
AcDbEntity
  8
AM_VIS
100
AcDbLine
 10
2053.115271326155
 20
301.5721034449348
 30
0.0
 11
2053.115271326154
 21
291.5721034449348
 31
0.0
  0
LINE
  5
686A
330
1F
100
AcDbEntity
  8
0
100
AcDbLine
 10
2053.087106663745
 20
304.5721034449348
 30
0.0
 11
2053.087106663745
 21
309.5721034449348
 31
0.0
  0
LINE
  5
686B
330
1F
100
AcDbEntity
  8
AM_VIS
100
AcDbLine
 10
2054.315271326155
 20
301.5721034449348
 30
0.0
 11
2054.315271326155
 21
291.5721034449348
 31
0.0
  0
LINE
  5
686C
330
1F
100
AcDbEntity
  8
0
100
AcDbLine
 10
2054.287106663745
 20
304.5721034449348
 30
0.0
 11
2054.287106663745
 21
309.5721034449348
 31
0.0
  0
LINE
  5
686D
330
1F
100
AcDbEntity
  8
AM_VIS
100
AcDbLine
 10
2055.515271326155
 20
301.5721034449348
 30
0.0
 11
2055.515271326155
 21
291.5721034449348
 31
0.0
  0
LINE
  5
686E
330
1F
100
AcDbEntity
  8
0
100
AcDbLine
 10
2055.487106663745
 20
304.5721034449348
 30
0.0
 11
2055.487106663745
 21
309.5721034449348
 31
0.0
  0
LINE
  5
686F
330
1F
100
AcDbEntity
  8
AM_VIS
100
AcDbLine
 10
2056.715271326155
 20
301.5721034449348
 30
0.0
 11
2056.715271326155
 21
291.5721034449348
 31
0.0
  0
LINE
  5
6870
330
1F
100
AcDbEntity
  8
0
100
AcDbLine
 10
2056.687106663745
 20
304.5721034449348
 30
0.0
 11
2056.687106663745
 21
309.5721034449348
 31
0.0
  0
LINE
  5
6871
330
1F
100
AcDbEntity
  8
AM_VIS
100
AcDbLine
 10
2057.915271326155
 20
301.5721034449348
 30
0.0
 11
2057.915271326155
 21
291.5721034449348
 31
0.0
  0
LINE
  5
6872
330
1F
100
AcDbEntity
  8
0
100
AcDbLine
 10
2057.887106663745
 20
304.5721034449348
 30
0.0
 11
2057.887106663745
 21
309.5721034449348
 31
0.0
  0
DIMENSION
  5
6F47
102
{ACAD_XDICTIONARY
360
6F54
102
}
102
{ACAD_REACTORS
330
6F55
102
}
330
1F
100
AcDbEntity
  8
AM_5
100
AcDbDimension
  2
*D7
 10
1792.837106663745
 20
362.0721034449348
 30
0.0
 11
1769.837106663745
 21
364.8221034449348
 31
0.0
 70
    32
 71
     5
 42
46.0
  3
AM_ISO$0
100
AcDbAlignedDimension
 13
1746.837106663745
 23
338.3511596362961
 33
0.0
 14
1792.837106663745
 24
338.3511596362962
 34
0.0
100
AcDbRotatedDimension
1001
ACAD
1000
DSTYLE
1002
{
1070
   272
1070
     8
1002
}
  0
DIMENSION
  5
6F71
102
{ACAD_XDICTIONARY
360
6F7E
102
}
102
{ACAD_REACTORS
330
6F7F
102
}
330
1F
100
AcDbEntity
  8
AM_5
100
AcDbDimension
  2
*D8
 10
1734.837106663745
 20
300.0721034449348
 30
0.0
 11
1732.087106663745
 21
325.0721034449351
 31
0.0
 70
    32
 71
     5
 42
50.0
  3
AM_ISO$0
100
AcDbAlignedDimension
 13
1749.837106663745
 23
350.0721034449348
 33
0.0
 14
1749.837106663745
 24
300.0721034449348
 34
0.0
 50
90.00000000000003
100
AcDbRotatedDimension
1001
ACAD
1000
DSTYLE
1002
{
1070
   272
1070
     8
1002
}
  0
DIMENSION
  5
6F9B
102
{ACAD_XDICTIONARY
360
6FA8
102
}
102
{ACAD_REACTORS
330
6FA9
102
}
330
1F
100
AcDbEntity
  8
AM_5
100
AcDbDimension
  2
*D9
 10
1789.837106663745
 20
280.0677326581608
 30
0.0
 11
1769.837106663745
 21
282.8177326581608
 31
0.0
 70
    32
 71
     5
 42
40.0
  3
AM_ISO$0
100
AcDbAlignedDimension
 13
1749.837106663745
 23
300.0721034449348
 33
0.0
 14
1789.837106663745
 24
300.0721034449348
 34
0.0
 50
0.0000000000001132
100
AcDbRotatedDimension
1001
ACAD
1000
DSTYLE
1002
{
1070
   272
1070
     8
1002
}
  0
DIMENSION
  5
6FF6
102
{ACAD_XDICTIONARY
360
7003
102
}
102
{ACAD_REACTORS
330
7004
102
}
330
1F
100
AcDbEntity
  8
AM_5
100
AcDbDimension
  2
*D10
 10
1868.687106663745
 20
280.067732658161
 30
0.0
 11
1863.687106663745
 21
282.817732658161
 31
0.0
 70
    32
 71
     5
 42
10.0
  3
AM_ISO$0
100
AcDbAlignedDimension
 13
1858.687106663745
 23
303.0721034449348
 33
0.0
 14
1868.687106663745
 24
303.0721034449348
 34
0.0
 50
0.0000000000001132
100
AcDbRotatedDimension
1001
ACAD
1000
DSTYLE
1002
{
1070
   272
1070
     8
1002
}
  0
DIMENSION
  5
7020
102
{ACAD_XDICTIONARY
360
702F
102
}
102
{ACAD_REACTORS
330
7030
102
}
330
1F
100
AcDbEntity
  8
AM_5
100
AcDbDimension
  2
*D11
 10
1908.687106663745
 20
280.067732658161
 30
0.0
 11
1905.187106663745
 21
282.817732658161
 31
0.0
 70
    32
 71
     5
 42
7.0
  3
AM_ISO$0
100
AcDbAlignedDimension
 13
1901.687106663745
 23
301.7721034449347
 33
0.0
 14
1908.687106663745
 24
300.0721034449348
 34
0.0
 50
0.0000000000001132
100
AcDbRotatedDimension
1001
ACAD
1000
DSTYLE
1002
{
1070
   272
1070
     8
1002
}
  0
DIMENSION
  5
7089
102
{ACAD_XDICTIONARY
360
7096
102
}
102
{ACAD_REACTORS
330
7097
102
}
330
1F
100
AcDbEntity
  8
AM_5
100
AcDbDimension
  2
*D12
 10
2131.032062830918
 20
291.5720968184116
 30
0.0
 11
2128.107062830917
 21
308.3221001316736
 31
0.0
 70
    32
  1
(31)
 71
     5
 42
33.50000662652315
  3
AM_ISO$0
100
AcDbAlignedDimension
 13
2117.746998954473
 23
325.0721034449348
 33
0.0
 14
2058.157461733072
 24
291.5720968184116
 34
0.0
 50
90.00000000000003
100
AcDbRotatedDimension
1001
ACAD
1000
DSTYLE
1002
{
1070
   272
1070
     8
1002
}
  0
DIMENSION
  5
70C9
102
{ACAD_XDICTIONARY
360
70D6
102
}
102
{ACAD_REACTORS
330
70D7
102
}
330
1F
100
AcDbEntity
  8
AM_5
100
AcDbDimension
  2
*D13
 10
1918.987106663745
 20
307.0721034449348
 30
0.0
 11
1916.237106663745
 21
325.0721034449351
 31
0.0
 70
    32
 71
     5
 42
36.0
  3
AM_ISO$0
100
AcDbAlignedDimension
 13
1906.987106663745
 23
343.0721034449348
 33
0.0
 14
1906.987106663745
 24
307.0721034449348
 34
0.0
 50
90.00000000000003
100
AcDbRotatedDimension
1001
ACAD
1000
DSTYLE
1002
{
1070
   272
1070
     8
1002
}
  0
LINE
  5
70E4
330
1F
100
AcDbEntity
  8
AM_7
100
AcDbLine
 10
1911.665733227722
 20
325.0721034449348
 30
0.0
 11
1906.687106663745
 21
325.0721034449348
 31
0.0
  0
DIMENSION
  5
70E9
102
{ACAD_XDICTIONARY
360
70F5
102
}
102
{ACAD_REACTORS
330
70F6
102
}
330
1F
100
AcDbEntity
  8
AM_5
100
AcDbDimension
  2
*D14
 10
1900.465566914044
 20
340.0065136746127
 30
0.0
 11
1920.903273274752
 21
356.615791265143
 31
0.0
 70
   163
  1
2-<> THRU
 71
     5
 42
6.600000000000591
  3
AM_ISO$3
100
AcDbDiametricDimension
 15
1902.908646413446
 25
346.1376932152563
 35
0.0
 40
0.0
1001
ACAD
1000
DSTYLE
1002
{
1070
   272
1070
     8
1002
}
  0
LEADER
  5
7121
102
{ACAD_XDICTIONARY
360
7123
102
}
102
{ACAD_REACTORS
330
7124
102
}
330
1F
100
AcDbEntity
  8
AM_5
100
AcDbLeader
  3
AM_ISO$7
 73
     0
 75
     1
 40
3.5
 41
14.84497474683058
 76
     3
 10
1858.262528421151
 20
341.5721034449348
 30
0.0
 10
1853.960814286035
 20
353.8529594934191
 30
0.0
 10
1850.460814286035
 20
353.8529594934191
 30
0.0
340
7122
1001
ACAD
1000
DSTYLE
1002
{
1070
    74
1070
     1
1070
   172
1070
     0
1070
   272
1070
     8
1070
   288
1070
     1
1070
   289
1070
     0
1002
}
  0
MTEXT
  5
7122
102
{ACAD_REACTORS
330
7121
102
}
330
1F
100
AcDbEntity
  8
AM_5
100
AcDbMText
 10
1849.460814286034
 20
354.8529594934191
 30
0.0
 40
3.5
 41
0.0
 71
     9
 72
     1
  1
M33*1.5
 73
     1
 44
1.0
1001
ACAD
1000
MTEXTBEGIN
1070
    73
1070
     1
1070
    44
1040
1.0
1070
    74
1070
     0
1000
MTEXTEND
  0
DIMENSION
  5
7134
102
{ACAD_XDICTIONARY
360
7141
102
}
102
{ACAD_REACTORS
330
7142
102
}
330
1F
100
AcDbEntity
  8
AM_5
100
AcDbDimension
  2
*D15
 10
1833.687106663745
 20
432.7511596362962
 30
0.0
 11
1830.937106663745
 21
447.7511596362965
 31
0.0
 70
    32
  1
%%c<>
 71
     5
 42
30.0
  3
AM_ISO$0
100
AcDbAlignedDimension
 13
1845.687106663745
 23
462.7511596362961
 33
0.0
 14
1845.687106663745
 24
432.7511596362962
 34
0.0
 50
90.0
100
AcDbRotatedDimension
1001
ACAD
1000
DSTYLE
1002
{
1070
   272
1070
     8
1002
}
  0
DIMENSION
  5
7167
102
{ACAD_XDICTIONARY
360
7174
102
}
102
{ACAD_REACTORS
330
7175
102
}
330
1F
100
AcDbEntity
  8
AM_5
100
AcDbDimension
  2
*D16
 10
1871.687106663745
 20
404.7511596362957
 30
0.0
 11
1858.187106663745
 21
407.5015041244847
 31
0.0
 70
    32
 71
     5
 42
27.0
  3
AM_ISO$0
100
AcDbAlignedDimension
 13
1844.687106663745
 23
433.7511596362961
 33
0.0
 14
1871.687106663745
 24
427.7511596362962
 34
0.0
 50
0.0000000000001132
100
AcDbRotatedDimension
1001
ACAD
1000
DSTYLE
1002
{
1070
   174
1070
     1
1070
   272
1070
     8
1002
}
  0
DIMENSION
  5
7191
102
{ACAD_XDICTIONARY
360
719E
102
}
102
{ACAD_REACTORS
330
719F
102
}
330
1F
100
AcDbEntity
  8
AM_5
100
AcDbDimension
  2
*D17
 10
2116.687106663745
 20
404.7511596362957
 30
0.0
 11
1994.187106663745
 21
407.5015041244847
 31
0.0
 70
    32
 71
     5
 42
245.0
  3
AM_ISO$0
100
AcDbAlignedDimension
 13
1871.687106663745
 23
427.7511596362962
 33
0.0
 14
2116.687106663745
 24
441.1929580192055
 34
0.0
100
AcDbRotatedDimension
1001
ACAD
1000
DSTYLE
1002
{
1070
   174
1070
     1
1070
   272
1070
     8
1002
}
  0
DIMENSION
  5
71BF
102
{ACAD_XDICTIONARY
360
71CC
102
}
102
{ACAD_REACTORS
330
71CD
102
}
330
1F
100
AcDbEntity
  8
AM_5
100
AcDbDimension
  2
*D18
 10
1871.687106663745
 20
412.7511596362957
 30
0.0
 11
1864.187106663745
 21
415.5011596362958
 31
0.0
 70
    32
 71
     5
 42
15.0
  3
AM_ISO$0
100
AcDbAlignedDimension
 13
1856.687106663745
 23
432.2511596362962
 33
0.0
 14
1871.687106663745
 24
427.7511596362962
 34
0.0
 50
0.0000000000001132
100
AcDbRotatedDimension
1001
ACAD
1000
DSTYLE
1002
{
1070
   174
1070
     1
1070
   272
1070
     8
1002
}
  0
DIMENSION
  5
71E9
102
{ACAD_XDICTIONARY
360
71F6
102
}
102
{ACAD_REACTORS
330
71F7
102
}
330
1F
100
AcDbEntity
  8
AM_5
100
AcDbDimension
  2
*D19
 10
1908.687106663745
 20
412.7511596362957
 30
0.0
 11
1890.187106663745
 21
415.5011596362957
 31
0.0
 70
    32
 71
     5
 42
37.0
  3
AM_ISO$0
100
AcDbAlignedDimension
 13
1871.687106663745
 23
427.7511596362962
 33
0.0
 14
1908.687106663745
 24
427.7511596362962
 34
0.0
100
AcDbRotatedDimension
1001
ACAD
1000
DSTYLE
1002
{
1070
   174
1070
     1
1070
   272
1070
     8
1002
}
  0
DIMENSION
  5
7217
102
{ACAD_XDICTIONARY
360
7224
102
}
102
{ACAD_REACTORS
330
7225
102
}
330
1F
100
AcDbEntity
  8
AM_5
100
AcDbDimension
  2
*D20
 10
2116.687106663745
 20
396.7511596362962
 30
0.0
 11
1980.687106663745
 21
399.5015041244852
 31
0.0
 70
    32
 71
     5
 42
272.0
  3
AM_ISO$0
100
AcDbAlignedDimension
 13
1844.687106663745
 23
433.7511596362961
 33
0.0
 14
2116.687106663745
 24
441.1929580192055
 34
0.0
 50
0.0000000000001132
100
AcDbRotatedDimension
1001
ACAD
1000
DSTYLE
1002
{
1070
   272
1070
     8
1002
}
  0
DIMENSION
  5
7285
330
1F
100
AcDbEntity
  8
AM_5
100
AcDbDimension
  2
*D21
 10
1885.687106663745
 20
447.7511596362967
 30
0.0
 11
1927.034968035189
 21
478.9335965031053
 31
0.0
 70
   164
  1
Rc3/8(PORT)
 71
     5
 42
8.329999999999699
  3
AM_ISO$4
100
AcDbRadialDimension
 15
1891.224693382563
 25
453.9740233927652
 35
0.0
 40
0.0
1001
ACAD
1000
DSTYLE
1002
{
1070
   272
1070
     8
1002
}
  0
DIMENSION
  5
72CB
102
{ACAD_XDICTIONARY
360
72D8
102
}
102
{ACAD_REACTORS
330
72D9
102
}
330
1F
100
AcDbEntity
  8
AM_5
100
AcDbDimension
  2
*D22
 10
1885.687106663745
 20
479.7511606362961
 30
0.0
 11
1897.187106663745
 21
482.5015051244851
 31
0.0
 70
    32
 71
     5
 42
23.0
  3
AM_ISO$0
100
AcDbAlignedDimension
 13
1908.687106663745
 23
467.7511596362961
 33
0.0
 14
1885.687106663745
 24
457.0011596362961
 34
0.0
100
AcDbRotatedDimension
1001
ACAD
1000
DSTYLE
1002
{
1070
   272
1070
     8
1002
}
  0
LINE
  5
72E6
330
1F
100
AcDbEntity
  8
0
100
AcDbLine
 10
1854.687106663745
 20
455.234474409844
 30
0.0
 11
1845.687106663745
 21
440.2678448627482
 31
0.0
  0
LINE
  5
72E7
330
1F
100
AcDbEntity
  8
0
100
AcDbLine
 10
1854.687106663745
 20
440.2678448627482
 30
0.0
 11
1845.687106663745
 21
455.234474409844
 31
0.0
  0
LINE
  5
72E8
330
1F
100
AcDbEntity
  8
0
100
AcDbLine
 10
2065.687106663745
 20
456.3389416549549
 30
0.0
 11
2080.187106663745
 21
439.1633776176373
 31
0.0
  0
LINE
  5
72E9
330
1F
100
AcDbEntity
  8
0
100
AcDbLine
 10
2065.687106663745
 20
439.1633776176373
 30
0.0
 11
2080.187106663745
 21
456.3389416549549
 31
0.0
  0
LEADER
  5
72EC
330
1F
100
AcDbEntity
  8
AM_5
100
AcDbLeader
  3
AM_ISO$7
 73
     0
 75
     1
 40
3.500688976377952
 41
4.1125
 76
     3
 10
1850.928045957477
 20
452.5439739995428
 30
0.0
 10
1842.849151842291
 20
475.9195122038984
 30
0.0
 10
1839.849151842291
 20
475.9195122038984
 30
0.0
340
72ED
213
-1.641775404051259
223
0.057404829681218
233
0.0
1001
ACAD
1000
DSTYLE
1002
{
1070
    41
1040
3.0
1070
    42
1040
1.0
1070
    43
1040
15.0
1070
    44
1040
1.0
1070
   272
1070
     8
1002
}
  0
MTEXT
  5
72ED
102
{ACAD_REACTORS
330
72EC
102
}
330
1F
100
AcDbEntity
  8
AM_5
100
AcDbMText
 10
1840.490927246342
 20
476.8621073742171
 30
0.0
 40
3.5
 41
0.0
 71
     9
 72
     1
  1
26
 73
     1
 44
1.0
1001
ACAD
1000
MTEXTBEGIN
1070
    73
1070
     1
1070
    44
1040
1.0
1070
    74
1070
     0
1000
MTEXTEND
  0
LEADER
  5
72EE
330
1F
100
AcDbEntity
  8
AM_5
100
AcDbLeader
  3
AM_ISO$7
 73
     0
 74
     0
 75
     1
 40
3.500688976377952
 41
3.938877952755904
 76
     3
 10
2072.857601328962
 20
454.0957397321029
 30
0.0
 10
2083.843147151332
 20
480.2316220658806
 30
0.0
 10
2086.843147151332
 20
480.2316220658806
 30
0.0
340
72EF
1001
ACAD
1000
DSTYLE
1002
{
1070
    41
1040
3.0
1070
    42
1040
1.0
1070
    43
1040
15.0
1070
    44
1040
1.0
1070
   174
1070
     1
1070
   272
1070
     8
1002
}
  0
MTEXT
  5
72EF
102
{ACAD_REACTORS
330
72EE
102
}
330
1F
100
AcDbEntity
  8
AM_5
100
AcDbMText
 10
2087.843147151332
 20
481.2316220658806
 30
0.0
 40
3.5
 41
0.0
 71
     7
 72
     1
  1
27
 73
     1
 44
1.0
1001
ACAD
1000
MTEXTBEGIN
1070
    73
1070
     1
1070
    44
1040
1.0
1070
    74
1070
     0
1000
MTEXTEND
  0
DIMENSION
  5
7300
102
{ACAD_XDICTIONARY
360
730D
102
}
102
{ACAD_REACTORS
330
730E
102
}
330
1F
100
AcDbEntity
  8
AM_5
100
AcDbDimension
  2
*D23
 10
2127.746999954473
 20
431.7511596362961
 30
0.0
 11
2124.996655466284
 21
447.7511596362965
 31
0.0
 70
    32
  1
%%c<>
 71
     5
 42
32.0
  3
AM_ISO$0
100
AcDbAlignedDimension
 13
2080.187106663745
 23
463.7511596362961
 33
0.0
 14
2080.187106663745
 24
431.7511596362961
 34
0.0
 50
90.0
100
AcDbRotatedDimension
1001
ACAD
1000
DSTYLE
1002
{
1070
   272
1070
     8
1002
}
  0
DIMENSION
  5
7333
102
{ACAD_XDICTIONARY
360
7340
102
}
102
{ACAD_REACTORS
330
7341
102
}
330
1F
100
AcDbEntity
  8
AM_5
100
AcDbDimension
  2
*D24
 10
1678.824651978018
 20
467.6076968850472
 30
0.0
 11
1672.20219607011
 21
467.6076968850472
 31
0.0
 70
   160
 71
     5
 42
15.0
  3
AM_ISO$0
100
AcDbAlignedDimension
 13
1663.824651978018
 23
492.6076968850471
 33
0.0
 14
1678.824651978018
 24
480.6076968850471
 34
0.0
 50
0.0000000000001132
100
AcDbRotatedDimension
1001
ACAD
1000
DSTYLE
1002
{
1070
   272
1070
     8
1002
}
  0
DIMENSION
  5
7366
102
{ACAD_XDICTIONARY
360
7373
102
}
102
{ACAD_REACTORS
330
7374
102
}
330
1F
100
AcDbEntity
  8
AM_5
100
AcDbDimension
  2
*D25
 10
1744.824651978017
 20
459.6076968850473
 30
0.0
 11
1704.324651978017
 21
462.3576968850473
 31
0.0
 70
    32
 71
     5
 42
81.0
  3
AM_ISO$0
100
AcDbAlignedDimension
 13
1663.824651978018
 23
492.6076968850471
 33
0.0
 14
1744.824651978017
 24
474.6076968850472
 34
0.0
 50
0.0000000000001132
100
AcDbRotatedDimension
1001
ACAD
1000
DSTYLE
1002
{
1070
   272
1070
     8
1002
}
  0
VIEWPORT
  5
67EA
102
{ACAD_XDICTIONARY
360
73D7
102
}
330
1B
100
AcDbEntity
 67
     1
  8
0
100
AcDbViewport
 10
128.5
 20
97.5
 30
0.0
 40
314.2260000000001
 41
320.1290895953758
 68
     1
 69
     1
 12
128.5
 22
97.5
 13
0.0
 23
0.0
 14
10.0
 24
10.0
 15
10.0
 25
10.0
 16
0.0
 26
0.0
 36
1.0
 17
0.0
 27
0.0
 37
0.0
 42
50.0
 43
0.0
 44
0.0
 45
320.1290895953758
 50
0.0
 51
0.0
 72
   100
 90
    32800
  1

281
     0
 71
     1
 74
     0
110
0.0
120
0.0
130
0.0
111
1.0
121
0.0
131
0.0
112
0.0
122
1.0
132
0.0
 79
     0
146
0.0
  0
ENDSEC
  0
SECTION
  2
OBJECTS
  0
DICTIONARY
  5
C
330
0
100
AcDbDictionary
281
     1
  3
ACAD_COLOR
350
2D4A
  3
ACAD_GROUP
350
D
  3
ACAD_LAYOUT
350
1A
  3
ACAD_MATERIAL
350
2D49
  3
ACAD_MLINESTYLE
350
17
  3
ACAD_PLOTSETTINGS
350
19
  3
ACAD_PLOTSTYLENAME
350
E
  3
ACAD_TABLESTYLE
350
2D4B
  3
AcadDim
350
72F0
  3
ACDBHEADERROUNDTRIPXREC
350
73D0
  3
AcDbVariableDictionary
350
161
  3
AcmDictionary
350
45
  3
AMG
350
2B
  3
AMGSNAPSETTINGS
350
7D
  3
DWGPROPS
350
73CF
  3
MAPISURF_MODULE
350
3092
  0
DICTIONARY
  5
2DFC
330
2
100
AcDbDictionary
280
     1
281
     1
  3
ACAD_LAYERSTATES
360
2DFD
  0
DICTIONARY
  5
159
330
1F
100
AcDbDictionary
280
     1
281
     1
  3
ACAD_INDEX
360
15A
  3
ACAD_LAYOUTSELFREF
360
2CE5
  3
ACAD_SORTENTS
360
6A5C
  0
DICTIONARY
  5
2CA5
330
1B
100
AcDbDictionary
280
     1
281
     1
  3
ACAD_LAYOUTSELFREF
360
2CE4
  0
DICTIONARY
  5
2CA7
330
23
100
AcDbDictionary
280
     1
281
     1
  3
ACAD_LAYOUTSELFREF
360
2CE6
  0
DICTIONARY
  5
5738
330
572B
100
AcDbDictionary
280
     1
281
     1
  3
ACAD_DIMASSOC
360
5739
  0
DICTIONARY
  5
5766
330
5759
100
AcDbDictionary
280
     1
281
     1
  3
ACAD_DIMASSOC
360
5767
  0
DICTIONARY
  5
578C
330
577F
100
AcDbDictionary
280
     1
281
     1
  3
ACAD_DIMASSOC
360
578D
  0
DICTIONARY
  5
6F54
330
6F47
100
AcDbDictionary
280
     1
281
     1
  3
ACAD_DIMASSOC
360
6F55
  0
DICTIONARY
  5
6F7E
330
6F71
100
AcDbDictionary
280
     1
281
     1
  3
ACAD_DIMASSOC
360
6F7F
  0
DICTIONARY
  5
6FA8
330
6F9B
100
AcDbDictionary
280
     1
281
     1
  3
ACAD_DIMASSOC
360
6FA9
  0
DICTIONARY
  5
7003
330
6FF6
100
AcDbDictionary
280
     1
281
     1
  3
ACAD_DIMASSOC
360
7004
  0
DICTIONARY
  5
702F
330
7020
100
AcDbDictionary
280
     1
281
     1
  3
ACAD_DIMASSOC
360
7030
  0
DICTIONARY
  5
7096
330
7089
100
AcDbDictionary
280
     1
281
     1
  3
ACAD_DIMASSOC
360
7097
  0
DICTIONARY
  5
70D6
330
70C9
100
AcDbDictionary
280
     1
281
     1
  3
ACAD_DIMASSOC
360
70D7
  0
DICTIONARY
  5
70F5
330
70E9
100
AcDbDictionary
280
     1
281
     1
  3
ACAD_DIMASSOC
360
70F6
  0
DICTIONARY
  5
7123
330
7121
100
AcDbDictionary
280
     1
281
     1
  3
ACAD_DIMASSOC
360
7124
  0
DICTIONARY
  5
7141
330
7134
100
AcDbDictionary
280
     1
281
     1
  3
ACAD_DIMASSOC
360
7142
  0
DICTIONARY
  5
7174
330
7167
100
AcDbDictionary
280
     1
281
     1
  3
ACAD_DIMASSOC
360
7175
  0
DICTIONARY
  5
719E
330
7191
100
AcDbDictionary
280
     1
281
     1
  3
ACAD_DIMASSOC
360
719F
  0
DICTIONARY
  5
71CC
330
71BF
100
AcDbDictionary
280
     1
281
     1
  3
ACAD_DIMASSOC
360
71CD
  0
DICTIONARY
  5
71F6
330
71E9
100
AcDbDictionary
280
     1
281
     1
  3
ACAD_DIMASSOC
360
71F7
  0
DICTIONARY
  5
7224
330
7217
100
AcDbDictionary
280
     1
281
     1
  3
ACAD_DIMASSOC
360
7225
  0
DICTIONARY
  5
72D8
330
72CB
100
AcDbDictionary
280
     1
281
     1
  3
ACAD_DIMASSOC
360
72D9
  0
DICTIONARY
  5
730D
330
7300
100
AcDbDictionary
280
     1
281
     1
  3
ACAD_DIMASSOC
360
730E
  0
DICTIONARY
  5
7340
330
7333
100
AcDbDictionary
280
     1
281
     1
  3
ACAD_DIMASSOC
360
7341
  0
DICTIONARY
  5
7373
330
7366
100
AcDbDictionary
280
     1
281
     1
  3
ACAD_DIMASSOC
360
7374
  0
DICTIONARY
  5
73D7
330
67EA
100
AcDbDictionary
280
     1
281
     1
  3
ACAD_XREC_ROUNDTRIP
360
73D8
  0
DICTIONARY
  5
2D4A
102
{ACAD_REACTORS
330
C
102
}
330
C
100
AcDbDictionary
281
     1
  0
DICTIONARY
  5
D
102
{ACAD_REACTORS
330
C
102
}
330
C
100
AcDbDictionary
281
     1
  0
DICTIONARY
  5
1A
102
{ACAD_REACTORS
330
C
102
}
330
C
100
AcDbDictionary
281
     1
  3
Layout1
350
1E
  3
Layout2
350
26
  3
Model
350
22
  0
DICTIONARY
  5
2D49
102
{ACAD_REACTORS
330
C
102
}
330
C
100
AcDbDictionary
281
     1
  0
DICTIONARY
  5
17
102
{ACAD_REACTORS
330
C
102
}
330
C
100
AcDbDictionary
281
     1
  3
Standard
350
18
  0
DICTIONARY
  5
19
102
{ACAD_REACTORS
330
C
102
}
330
C
100
AcDbDictionary
281
     1
  0
ACDBDICTIONARYWDFLT
  5
E
102
{ACAD_REACTORS
330
C
102
}
330
C
100
AcDbDictionary
281
     1
  3
Normal
350
F
100
AcDbDictionaryWithDefault
340
F
  0
DICTIONARY
  5
2D4B
102
{ACAD_REACTORS
330
C
102
}
330
C
100
AcDbDictionary
281
     1
  3
Standard
350
2D4C
  0
XRECORD
  5
72F0
102
{ACAD_REACTORS
330
C
102
}
330
C
100
AcDbXrecord
280
     1
 90
   990106
  3

 60
     0
 61
     0
 62
     4
 63
     4
 64
     1
 65
     0
 66
     0
 67
     3
 68
     0
 69
     0
 70
     0
 71
     0
 72
     0
 40
0.0
170
     2
340
72EF
  0
DICTIONARY
  5
73D0
102
{ACAD_REACTORS
330
C
102
}
330
C
100
AcDbDictionary
281
     1
  0
DICTIONARY
  5
161
102
{ACAD_REACTORS
330
C
102
}
330
C
100
AcDbDictionary
281
     1
  3
CTABLESTYLE
350
2DF7
  3
DIMASSOC
350
164
  3
HIDETEXT
350
163
  3
INDEXCTL
350
162
  3
PROJECTNAME
350
3004
  0
DICTIONARY
  5
45
102
{ACAD_REACTORS
330
C
102
}
330
C
100
AcDbDictionary
281
     1
  3
AcmStdDictionary
350
4A
  3
AMDTSECTSYM_ARROWCOLOR
350
2DBE
  0
DICTIONARY
  5
2B
102
{ACAD_REACTORS
330
C
102
}
330
C
100
AcDbDictionary
281
     1
  3
AcMgSettings
350
300C
  0
DICTIONARY
  5
7D
102
{ACAD_REACTORS
330
C
102
}
330
C
100
AcDbDictionary
281
     1
  0
XRECORD
  5
73CF
102
{ACAD_REACTORS
330
C
102
}
330
C
100
AcDbXrecord
280
     1
  1
DWGPROPS COOKIE
  2

  3

  4

  6

  7

  8

  9

300
AmdtFileType=84
301
=
302
=
303
=
304
=
305
=
306
=
307
=
308
=
309
=
 40
0.4451763425925927
 41
2453229.426093924
 42
2456890.440523901
  1

 90
        1
  0
DICTIONARY
  5
2DFD
102
{ACAD_REACTORS
330
2DFC
102
}
330
2DFC
100
AcDbDictionary
281
     1
  0
DICTIONARY
  5
15A
102
{ACAD_REACTORS
330
159
102
}
330
159
100
AcDbDictionary
281
     1
  3
*A1
350
15B
  0
XRECORD
  5
2CE5
102
{ACAD_REACTORS
330
159
102
}
330
159
100
AcDbXrecord
280
     1
340
1F
  0
SORTENTSTABLE
  5
6A5C
102
{ACAD_REACTORS
330
159
102
}
330
159
100
AcDbSortentsTable
330
1F
331
682F
  5
6831
331
53FD
  5
53FE
331
5759
  5
577F
331
53BF
  5
53C0
331
53DE
  5
53DF
331
6856
  5
6858
331
6857
  5
6859
331
53FE
  5
53FF
331
6830
  5
6832
331
53DF
  5
53E0
331
6858
  5
685A
331
53FF
  5
5400
331
6831
  5
6833
331
6859
  5
685B
331
6832
  5
6834
331
685A
  5
685C
331
6833
  5
6835
331
685B
  5
685D
331
6834
  5
6836
331
6835
  5
6837
331
685C
  5
685E
331
6836
  5
6838
331
685D
  5
685F
331
6837
  5
6839
331
685E
  5
6860
331
685F
  5
6861
331
3E18
  5
3E18
331
3E19
  5
3E19
331
3E1A
  5
3E1A
331
3E58
  5
3E58
331
3E59
  5
3E59
331
4F58
  5
4F58
331
3E1B
  5
3E1B
331
4F70
  5
4F70
331
3E5A
  5
3E5A
331
4F59
  5
4F59
331
3E1C
  5
3E1C
331
3E3B
  5
3E3B
331
3E1D
  5
3E1D
331
3E5B
  5
3E5B
331
4F5A
  5
4F5A
331
4FB8
  5
4FB8
331
4F72
  5
4F72
331
3E1E
  5
3E1E
331
3E5C
  5
3E5C
331
4F5B
  5
4F5B
331
4FB9
  5
4FB9
331
4F73
  5
4F73
331
3E1F
  5
3E1F
331
3E5D
  5
3E5D
331
4F5C
  5
4F5C
331
4FE8
  5
4FE8
331
18EC
  5
18EC
331
3E08
  5
3E08
331
4FBA
  5
4FBA
331
4F74
  5
4F74
331
3E5E
  5
3E5E
331
4F5D
  5
4F5D
331
4FE9
  5
4FE9
331
3E09
  5
3E09
331
3E3F
  5
3E3F
331
4FEA
  5
4FEA
331
4F94
  5
4F94
331
4FBB
  5
4FBB
331
4F75
  5
4F75
331
3E0A
  5
3E0A
331
3E40
  5
3E40
331
3E5F
  5
3E5F
331
4F5E
  5
4F5E
331
4FEB
  5
4FEB
331
5021
  5
5021
331
4FBC
  5
4FBC
331
4F76
  5
4F76
331
3E0B
  5
3E0B
331
3E41
  5
3E41
331
3E60
  5
3E60
331
4F5F
  5
4F5F
331
5060
  5
5060
331
5022
  5
5022
331
4FEC
  5
4FEC
331
4F96
  5
4F96
331
4FBD
  5
4FBD
331
4F60
  5
4F60
331
3E0C
  5
3E0C
331
3E23
  5
3E23
331
3E61
  5
3E61
331
4F77
  5
4F77
331
5003
  5
5003
331
5004
  5
5004
331
4FED
  5
4FED
331
5061
  5
5061
331
4F78
  5
4F78
331
4F61
  5
4F61
331
4F97
  5
4F97
331
3E0D
  5
3E0D
331
3E62
  5
3E62
331
4FBE
  5
4FBE
331
5062
  5
5062
331
5005
  5
5005
331
4FBF
  5
4FBF
331
4F79
  5
4F79
331
4FEE
  5
4FEE
331
3E63
  5
3E63
331
3E0E
  5
3E0E
331
4F62
  5
4F62
331
5024
  5
5024
331
5098
  5
5099
331
5099
  5
509A
331
507A
  5
507B
331
50B8
  5
50B9
331
5063
  5
5063
331
5006
  5
5006
331
4F7A
  5
4F7A
331
4FC0
  5
4FC0
331
4FEF
  5
4FEF
331
3E64
  5
3E64
331
3E0F
  5
3E0F
331
3E45
  5
3E45
331
4F63
  5
4F63
331
5025
  5
5025
331
50D8
  5
50D9
331
509A
  5
509B
331
507B
  5
507C
331
50B9
  5
50BA
331
5007
  5
5007
331
4FC1
  5
4FC1
331
4FF0
  5
4FF0
331
5064
  5
5064
331
4F7B
  5
4F7B
331
3E65
  5
3E65
331
3E27
  5
3E27
331
3E10
  5
3E10
331
3E46
  5
3E46
331
4F64
  5
4F64
331
4F9A
  5
4F9A
331
50D9
  5
50DA
331
509B
  5
509C
331
507C
  5
507D
331
50BA
  5
50BB
331
50F0
  5
50F1
331
5027
  5
5027
331
5008
  5
5008
331
4FC2
  5
4FC2
331
4FF1
  5
4FF1
331
5065
  5
5065
331
4F7C
  5
4F7C
331
3E66
  5
3E66
331
3E28
  5
3E28
331
3E11
  5
3E11
331
3E47
  5
3E47
331
4F65
  5
4F65
331
4F9B
  5
4F9B
331
5110
  5
5111
331
50DA
  5
50DB
331
509C
  5
509D
331
5066
  5
5066
331
5009
  5
5009
331
507D
  5
507E
331
4F9C
  5
4F9C
331
3E48
  5
3E48
331
3E67
  5
3E67
331
4F7D
  5
4F7D
331
4FC3
  5
4FC3
331
4FF2
  5
4FF2
331
50BB
  5
50BC
331
3E12
  5
3E12
331
50F1
  5
50F2
331
6F71
  5
6F9B
331
5130
  5
5131
331
50F2
  5
50F3
331
50DB
  5
50DC
331
5111
  5
5112
331
509D
  5
509E
331
5067
  5
5067
331
500A
  5
500A
331
507E
  5
507F
331
4F67
  5
4F67
331
4F7E
  5
4F7E
331
3E13
  5
3E13
331
3E49
  5
3E49
331
3E68
  5
3E68
331
4FF3
  5
4FF3
331
50BC
  5
50BD
331
5131
  5
5132
331
50F3
  5
50F4
331
50BD
  5
50BE
331
50DC
  5
50DD
331
509E
  5
509F
331
5112
  5
5113
331
4FF4
  5
4FF4
331
5068
  5
5069
331
4F68
  5
4F68
331
4F7F
  5
4F7F
331
3E14
  5
3E14
331
3E4A
  5
3E4A
331
3E69
  5
3E69
331
4FC5
  5
4FC5
331
507F
  5
5080
331
7020
  5
7089
331
5132
  5
5133
331
50F4
  5
50F5
331
50BE
  5
50BF
331
50DD
  5
50DE
331
5080
  5
5081
331
4FC6
  5
4FC6
331
4F80
  5
4F80
331
4FF5
  5
4FF5
331
5069
  5
506A
331
4F69
  5
4F69
331
3E4B
  5
3E4B
331
509F
  5
50A0
331
5113
  5
5114
331
3E15
  5
3E15
331
3E2C
  5
3E2C
331
53C0
  5
53C1
331
5133
  5
5134
331
50F5
  5
50F6
331
50BF
  5
50C0
331
50DE
  5
50DF
331
5081
  5
5082
331
506A
  5
506B
331
50A0
  5
50A1
331
5114
  5
5115
331
4FC7
  5
4FC7
331
4F81
  5
4F81
331
4FF6
  5
4FF6
331
4F6A
  5
4F6A
331
3E2D
  5
3E2D
331
3E16
  5
3E16
331
3E4C
  5
3E4C
331
500D
  5
500D
331
53C1
  5
53C2
331
5115
  5
5116
331
50F6
  5
50F7
331
5134
  5
5135
331
50C0
  5
50C1
331
50DF
  5
50E0
331
53E0
  5
53E1
331
5082
  5
5083
331
500E
  5
500E
331
4FC8
  5
4FC8
331
4FF7
  5
4FF7
331
506B
  5
506E
331
50A1
  5
50A2
331
4F82
  5
4F82
331
4F6B
  5
4F6B
331
3E2E
  5
3E2E
331
3E17
  5
3E17
331
3E4D
  5
3E4D
331
4FA1
  5
4FA1
331
7089
  5
70C9
331
5400
  5
5401
331
53C2
  5
53C3
331
5116
  5
5117
331
50F7
  5
50F8
331
5135
  5
5136
331
50C1
  5
50C2
331
50E0
  5
50E1
331
53E1
  5
53E2
331
500F
  5
500F
331
5083
  5
5084
331
4FC9
  5
4FC9
331
4FF8
  5
4FF8
331
50A2
  5
50A3
331
4F83
  5
4F83
331
3E2F
  5
3E2F
331
3E4E
  5
3E4E
331
4FA2
  5
4FA2
331
5418
  5
5419
331
53E2
  5
53E3
331
5401
  5
5402
331
5155
  5
5233
331
53C3
  5
53C4
331
5117
  5
5118
331
50E1
  5
50E2
331
50A3
  5
50A4
331
5010
  5
5010
331
5084
  5
5085
331
50C2
  5
50C3
331
50F8
  5
50F9
331
5136
  5
5137
331
4FA3
  5
4FA3
331
4FCA
  5
4FCA
331
4F84
  5
4F84
331
4F6D
  5
4F6D
331
4FF9
  5
4FF9
331
3E30
  5
3E30
331
3E4F
  5
3E4F
331
5419
  5
541A
331
53E3
  5
53E4
331
5402
  5
5405
331
5285
  5
536D
331
53C4
  5
53C5
331
54E8
  5
54E9
331
5118
  5
5119
331
50E2
  5
50E3
331
50A4
  5
50A5
331
5085
  5
5086
331
50C3
  5
50C4
331
50F9
  5
50FA
331
5011
  5
5011
331
506E
  5
506F
331
5137
  5
5138
331
4FA4
  5
4FA4
331
4F85
  5
4F85
331
3E50
  5
3E50
331
3E31
  5
3E31
331
4F6E
  5
4F6E
331
4FFA
  5
4FFA
331
53E4
  5
53E5
331
541A
  5
541E
331
5138
  5
5139
331
5119
  5
511A
331
53C5
  5
53C6
331
54E9
  5
54EA
331
50E3
  5
50E4
331
50A5
  5
50A6
331
506F
  5
5070
331
4FFB
  5
4FFB
331
5012
  5
5012
331
4FA5
  5
4FA5
331
4FCC
  5
4FCC
331
5086
  5
5087
331
4F6F
  5
4F6F
331
3E51
  5
3E51
331
3E32
  5
3E32
331
4F86
  5
4F86
331
50C4
  5
50C5
331
50FA
  5
50FB
331
54EA
  5
54EB
331
53E5
  5
53E6
331
5139
  5
513A
331
50FB
  5
50FC
331
50E4
  5
50E5
331
511A
  5
511B
331
53C6
  5
53C7
331
50A6
  5
50A7
331
5070
  5
5071
331
5013
  5
5013
331
4FCD
  5
4FCD
331
5087
  5
5088
331
3E52
  5
3E52
331
4F51
  5
4F51
331
3E33
  5
3E33
331
4F87
  5
4F87
331
50C5
  5
50C6
331
54EB
  5
54EC
331
53E6
  5
53E7
331
5405
  5
5406
331
513A
  5
513B
331
50FC
  5
50FD
331
50C6
  5
50C7
331
50E5
  5
50E6
331
50A7
  5
50A8
331
511B
  5
511C
331
53C7
  5
53C8
331
5071
  5
5072
331
5014
  5
5014
331
5088
  5
508A
331
3E53
  5
3E53
331
4F52
  5
4F52
331
4F88
  5
4F88
331
572B
  5
5759
331
54EC
  5
54ED
331
6838
  5
683A
331
53C8
  5
53C9
331
513B
  5
513E
331
53E7
  5
53E8
331
50FD
  5
50FE
331
50C7
  5
50C8
331
50E6
  5
50E7
331
5072
  5
5073
331
50A8
  5
50A9
331
511C
  5
511D
331
3E54
  5
3E54
331
4F53
  5
4F53
331
5015
  5
5015
331
5406
  5
5407
331
6860
  5
6862
331
54ED
  5
54EE
331
6839
  5
683B
331
5407
  5
5408
331
53C9
  5
53CA
331
53E8
  5
53E9
331
541E
  5
541F
331
5233
  5
5234
331
50FE
  5
50FF
331
50C8
  5
50C9
331
50E7
  5
50E8
331
508A
  5
5093
331
5073
  5
5074
331
50A9
  5
50AA
331
511D
  5
511E
331
3E55
  5
3E55
331
4F54
  5
4F54
331
5016
  5
5016
331
6F47
  5
6F71
331
6861
  5
6863
331
54EE
  5
54EF
331
683A
  5
683C
331
5408
  5
5409
331
53CA
  5
53CB
331
53E9
  5
53EA
331
541F
  5
548D
331
511E
  5
511F
331
50E8
  5
50E9
331
50C9
  5
50CA
331
50FF
  5
5100
331
5017
  5
5017
331
5074
  5
5075
331
50AA
  5
50AB
331
3E37
  5
3E37
331
3E56
  5
3E56
331
4F55
  5
4F55
331
5234
  5
5235
331
6862
  5
6864
331
5409
  5
540A
331
54EF
  5
54F2
331
5235
  5
5236
331
53CB
  5
53CC
331
511F
  5
5120
331
50E9
  5
50EA
331
50CA
  5
50CB
331
5100
  5
5101
331
513E
  5
513F
331
53EA
  5
53EB
331
4F56
  5
4F56
331
5018
  5
5018
331
3E57
  5
3E57
331
5075
  5
5076
331
50AB
  5
50AC
331
683B
  5
683D
331
6FF6
  5
7020
331
683C
  5
683E
331
53EB
  5
53EC
331
540A
  5
540B
331
53CC
  5
53D3
331
6863
  5
6865
331
5236
  5
5237
331
5120
  5
5121
331
50EA
  5
50EB
331
5076
  5
5077
331
50AC
  5
50AD
331
4F57
  5
4F57
331
4FE3
  5
4FE3
331
5019
  5
5019
331
50CB
  5
50CC
331
5101
  5
5102
331
513F
  5
5140
331
536D
  5
536E
331
683D
  5
6840
331
536E
  5
536F
331
53EC
  5
53ED
331
5140
  5
5141
331
5237
  5
5238
331
5121
  5
5122
331
540B
  5
540C
331
6864
  5
6866
331
50EB
  5
50EC
331
5077
  5
507A
331
50AD
  5
50AE
331
4FB5
  5
4FB5
331
4FE4
  5
4FE4
331
501A
  5
501A
331
50CC
  5
50CD
331
5102
  5
5103
331
70E4
  5
5068
331
683E
  5
6853
331
6865
  5
6867
331
536F
  5
5371
331
53ED
  5
53EE
331
540C
  5
540D
331
5141
  5
5142
331
5122
  5
5123
331
5238
  5
523B
331
54F2
  5
5504
331
50EC
  5
50ED
331
50AE
  5
50AF
331
4FB6
  5
4FB6
331
4FE5
  5
4FE5
331
501B
  5
501B
331
50CD
  5
50CE
331
5103
  5
5104
331
6F9B
  5
6FF6
331
5142
  5
5144
331
53EE
  5
53EF
331
5104
  5
5105
331
50CE
  5
50CF
331
50AF
  5
50B0
331
50ED
  5
50EE
331
5123
  5
5124
331
540D
  5
540E
331
6866
  5
6868
331
505A
  5
505A
331
4FB7
  5
4FB7
331
4FE6
  5
4FE6
331
501C
  5
501C
331
6840
  5
6854
331
548D
  5
54BA
331
5371
  5
5372
331
53EF
  5
53F0
331
5105
  5
5106
331
50CF
  5
50D0
331
50EE
  5
50EF
331
5124
  5
5125
331
50B0
  5
50B1
331
540E
  5
540F
331
6867
  5
6869
331
505B
  5
505B
331
4FE7
  5
4FE7
331
501D
  5
501D
331
5372
  5
5373
331
53F0
  5
53F1
331
540F
  5
5410
331
5144
  5
5146
331
5106
  5
5107
331
50D0
  5
50D1
331
50EF
  5
50F0
331
5125
  5
5126
331
505C
  5
505C
331
501E
  5
501E
331
50B1
  5
50B2
331
523B
  5
523C
331
6868
  5
686A
331
70C9
  5
70E4
331
6869
  5
686B
331
67EB
  5
6830
331
5410
  5
5411
331
523C
  5
523D
331
5373
  5
53BC
331
53F1
  5
53F2
331
50D1
  5
50D2
331
5107
  5
5108
331
5126
  5
5127
331
505D
  5
505D
331
501F
  5
501F
331
5093
  5
5094
331
50B2
  5
50B3
331
686A
  5
686C
331
5411
  5
5412
331
523D
  5
523E
331
53D3
  5
53D4
331
5146
  5
5147
331
53F2
  5
53F3
331
50B3
  5
50B4
331
50D2
  5
50D3
331
505E
  5
505E
331
5094
  5
5095
331
5108
  5
5109
331
5127
  5
5128
331
686B
  5
686D
331
5412
  5
5413
331
523E
  5
5285
331
53D4
  5
53D5
331
5128
  5
5129
331
5147
  5
5148
331
50B4
  5
50B5
331
50D3
  5
50D4
331
505F
  5
505F
331
5095
  5
5096
331
5109
  5
510A
331
53F3
  5
53F4
331
54BA
  5
54BB
331
577F
  5
682F
331
686C
  5
686E
331
53F4
  5
53F5
331
53D5
  5
53D6
331
5413
  5
5414
331
5129
  5
512A
331
5148
  5
5149
331
50B5
  5
50B6
331
50D4
  5
50D5
331
5096
  5
5097
331
510A
  5
510B
331
54BB
  5
54BC
331
686D
  5
686F
331
53F5
  5
53F6
331
53D6
  5
53D7
331
5414
  5
5415
331
510B
  5
510C
331
512A
  5
512B
331
50B6
  5
50B7
331
50D5
  5
50D6
331
5097
  5
5098
331
5149
  5
514A
331
54BC
  5
54BD
331
686E
  5
6870
331
53F6
  5
53F7
331
514A
  5
514B
331
53D7
  5
53D8
331
510C
  5
510D
331
512B
  5
512C
331
5415
  5
5416
331
50B7
  5
50B8
331
50D6
  5
50D7
331
5504
  5
5505
331
54BD
  5
54BE
331
686F
  5
6871
331
53F7
  5
53F8
331
5416
  5
5417
331
514B
  5
514C
331
510D
  5
510E
331
512C
  5
512D
331
50D7
  5
50D8
331
53D8
  5
53D9
331
5505
  5
5506
331
5417
  5
5418
331
53D9
  5
53DA
331
514C
  5
514D
331
53F8
  5
53F9
331
54BE
  5
54BF
331
6870
  5
6872
331
510E
  5
510F
331
512D
  5
512E
331
5506
  5
5507
331
53DA
  5
53DB
331
514D
  5
514E
331
53F9
  5
53FA
331
54BF
  5
54C0
331
6871
  5
6899
331
510F
  5
5110
331
512E
  5
512F
331
6872
  5
6F47
331
5507
  5
572B
331
6853
  5
6855
331
53DB
  5
53DC
331
53FA
  5
53FB
331
512F
  5
5130
331
514E
  5
514F
331
53BC
  5
53BD
331
54C0
  5
54C1
331
54C1
  5
54C2
331
6854
  5
6856
331
53DC
  5
53DD
331
53FB
  5
53FC
331
514F
  5
5155
331
53BD
  5
53BE
331
54C2
  5
54E8
331
6855
  5
6857
331
53DD
  5
53DE
331
53FC
  5
53FD
331
53BE
  5
53BF
  0
XRECORD
  5
2CE4
102
{ACAD_REACTORS
330
2CA5
102
}
330
2CA5
100
AcDbXrecord
280
     1
340
1B
  0
XRECORD
  5
2CE6
102
{ACAD_REACTORS
330
2CA7
102
}
330
2CA7
100
AcDbXrecord
280
     1
340
23
  0
DIMASSOC
  5
5739
102
{ACAD_REACTORS
330
5738
102
}
330
5738
100
AcDbDimAssoc
330
572B
 90
        3
 70
     0
 71
     0
  1
AcDbOsnapPointRef
 72
    13
331
5010
 73
     0
 91
        0
 40
0.0
 10
0.0
 20
0.0
 30
2.000000000000000E+50
 75
     0
  1
AcDbOsnapPointRef
 72
    13
331
500A
 73
     0
 91
        0
 40
0.0
 10
0.0
 20
0.0
 30
2.000000000000000E+50
 75
     0
  0
DIMASSOC
  5
5767
102
{ACAD_REACTORS
330
5766
102
}
330
5766
100
AcDbDimAssoc
330
5759
 90
        3
 70
     0
 71
     0
  1
AcDbOsnapPointRef
 72
     1
331
5010
 73
     0
 91
        0
 40
0.0
 10
0.0
 20
0.0
 30
2.000000000000000E+50
 75
     0
  1
AcDbOsnapPointRef
 72
    13
331
5009
 73
     0
 91
        0
 40
0.0
 10
0.0
 20
0.0
 30
2.000000000000000E+50
 75
     0
  0
DIMASSOC
  5
578D
102
{ACAD_REACTORS
330
578C
102
}
330
578C
100
AcDbDimAssoc
330
577F
 90
        3
 70
     0
 71
     0
  1
AcDbOsnapPointRef
 72
    13
331
5015
 73
     0
 91
        0
 40
0.0
 10
0.0
 20
0.0
 30
2.000000000000000E+50
 75
     0
  1
AcDbOsnapPointRef
 72
     1
331
5004
 73
     0
 91
        0
 40
0.0
 10
0.0
 20
0.0
 30
2.000000000000000E+50
 75
     0
  0
DIMASSOC
  5
6F55
102
{ACAD_REACTORS
330
6F54
102
}
330
6F54
100
AcDbDimAssoc
330
6F47
 90
        3
 70
     0
 71
     0
  1
AcDbOsnapPointRef
 72
    13
331
54EA
 73
     0
 91
        0
 40
0.0
 10
0.0
 20
0.0
 30
2.000000000000000E+50
 75
     0
  1
AcDbOsnapPointRef
 72
    13
331
54EC
 73
     0
 91
        0
 40
0.0
 10
0.0
 20
0.0
 30
2.000000000000000E+50
 75
     0
  0
DIMASSOC
  5
6F7F
102
{ACAD_REACTORS
330
6F7E
102
}
330
6F7E
100
AcDbDimAssoc
330
6F71
 90
        3
 70
     0
 71
     0
  1
AcDbOsnapPointRef
 72
    13
331
5401
 73
     0
 91
        0
 40
0.0
 10
0.0
 20
0.0
 30
2.000000000000000E+50
 75
     0
  1
AcDbOsnapPointRef
 72
     1
331
53FE
 73
     0
 91
        0
 40
0.0
 10
0.0
 20
0.0
 30
2.000000000000000E+50
 75
     0
  0
DIMASSOC
  5
6FA9
102
{ACAD_REACTORS
330
6FA8
102
}
330
6FA8
100
AcDbDimAssoc
330
6F9B
 90
        3
 70
     0
 71
     0
  1
AcDbOsnapPointRef
 72
    13
331
53FB
 73
     0
 91
        0
 40
0.0
 10
0.0
 20
0.0
 30
2.000000000000000E+50
 75
     0
  1
AcDbOsnapPointRef
 72
     1
331
5400
 73
     0
 91
        0
 40
0.0
 10
0.0
 20
0.0
 30
2.000000000000000E+50
 75
     0
  0
DIMASSOC
  5
7004
102
{ACAD_REACTORS
330
7003
102
}
330
7003
100
AcDbDimAssoc
330
6FF6
 90
        3
 70
     0
 71
     0
  1
AcDbOsnapPointRef
 72
     1
331
53CC
 73
     0
 91
        0
 40
0.0
 10
0.0
 20
0.0
 30
2.000000000000000E+50
 75
     0
  1
AcDbOsnapPointRef
 72
    13
331
53CB
 73
     0
 91
        0
 40
0.0
 10
0.0
 20
0.0
 30
2.000000000000000E+50
 75
     0
  0
DIMASSOC
  5
7030
102
{ACAD_REACTORS
330
702F
102
}
330
702F
100
AcDbDimAssoc
330
7020
 90
        3
 70
     0
 71
     0
  1
AcDbOsnapPointRef
 72
    13
331
505F
 73
     0
 91
        0
 40
0.0
 10
0.0
 20
0.0
 30
2.000000000000000E+50
 75
     0
  1
AcDbOsnapPointRef
 72
    13
331
5108
 73
     0
 91
        0
 40
0.0
 10
0.0
 20
0.0
 30
2.000000000000000E+50
 75
     0
  0
DIMASSOC
  5
7097
102
{ACAD_REACTORS
330
7096
102
}
330
7096
100
AcDbDimAssoc
330
7089
 90
        3
 70
     0
 71
     0
  1
AcDbOsnapPointRef
 72
    13
331
506B
 73
     0
 91
        0
 40
0.0
 10
0.0
 20
0.0
 30
2.000000000000000E+50
 75
     0
  1
AcDbOsnapPointRef
 72
    13
331
514E
 73
     0
 91
        0
 40
0.0
 10
0.0
 20
0.0
 30
2.000000000000000E+50
 75
     0
  0
DIMASSOC
  5
70D7
102
{ACAD_REACTORS
330
70D6
102
}
330
70D6
100
AcDbDimAssoc
330
70C9
 90
        3
 70
     0
 71
     0
  1
AcDbOsnapPointRef
 72
     1
331
5064
 73
     0
 91
        0
 40
0.0
 10
0.0
 20
0.0
 30
2.000000000000000E+50
 75
     0
  1
AcDbOsnapPointRef
 72
     1
331
505E
 73
     0
 91
        0
 40
0.0
 10
0.0
 20
0.0
 30
2.000000000000000E+50
 75
     0
  0
DIMASSOC
  5
70F6
102
{ACAD_REACTORS
330
70F5
102
}
330
70F5
100
AcDbDimAssoc
330
70E9
 90
        2
 70
     0
 71
     0
  1
AcDbOsnapPointRef
 72
     3
331
5117
 73
     0
 91
        0
 40
0.0
 10
0.0
 20
0.0
 30
0.0
 75
     0
  0
DIMASSOC
  5
7124
102
{ACAD_REACTORS
330
7123
102
}
330
7123
100
AcDbDimAssoc
330
7121
 90
        1
 70
     0
 71
     0
  1
AcDbOsnapPointRef
 72
    10
331
510F
 73
     2
 91
        0
 40
0.575421757406275
 10
0.0
 20
0.0
 30
0.0
 75
     0
  0
DIMASSOC
  5
7142
102
{ACAD_REACTORS
330
7141
102
}
330
7141
100
AcDbDimAssoc
330
7134
 90
        3
 70
     0
 71
     0
  1
AcDbOsnapPointRef
 72
    13
331
5099
 73
     0
 91
        0
 40
0.0
 10
0.0
 20
0.0
 30
2.000000000000000E+50
 75
     0
  1
AcDbOsnapPointRef
 72
    13
331
5098
 73
     0
 91
        0
 40
0.0
 10
0.0
 20
0.0
 30
2.000000000000000E+50
 75
     0
  0
DIMASSOC
  5
7175
102
{ACAD_REACTORS
330
7174
102
}
330
7174
100
AcDbDimAssoc
330
7167
 90
        3
 70
     0
 71
     0
  1
AcDbOsnapPointRef
 72
    13
331
50A0
 73
     0
 91
        0
 40
0.0
 10
0.0
 20
0.0
 30
2.000000000000000E+50
 75
     0
  1
AcDbOsnapPointRef
 72
     1
331
507D
 73
     0
 91
        0
 40
0.0
 10
0.0
 20
0.0
 30
2.000000000000000E+50
 75
     0
  0
DIMASSOC
  5
719F
102
{ACAD_REACTORS
330
719E
102
}
330
719E
100
AcDbDimAssoc
330
7191
 90
        3
 70
     0
 71
     0
  1
AcDbOsnapPointRef
 72
     1
331
507D
 73
     0
 91
        0
 40
0.0
 10
0.0
 20
0.0
 30
2.000000000000000E+50
 75
     0
  1
AcDbOsnapPointRef
 72
     1
331
5101
 73
     0
 91
        0
 40
0.0
 10
0.0
 20
0.0
 30
2.000000000000000E+50
 75
     0
  0
DIMASSOC
  5
71CD
102
{ACAD_REACTORS
330
71CC
102
}
330
71CC
100
AcDbDimAssoc
330
71BF
 90
        3
 70
     0
 71
     0
  1
AcDbOsnapPointRef
 72
    13
331
5088
 73
     0
 91
        0
 40
0.0
 10
0.0
 20
0.0
 30
2.000000000000000E+50
 75
     0
  1
AcDbOsnapPointRef
 72
     1
331
507D
 73
     0
 91
        0
 40
0.0
 10
0.0
 20
0.0
 30
2.000000000000000E+50
 75
     0
  0
DIMASSOC
  5
71F7
102
{ACAD_REACTORS
330
71F6
102
}
330
71F6
100
AcDbDimAssoc
330
71E9
 90
        3
 70
     0
 71
     0
  1
AcDbOsnapPointRef
 72
     1
331
507D
 73
     0
 91
        0
 40
0.0
 10
0.0
 20
0.0
 30
2.000000000000000E+50
 75
     0
  1
AcDbOsnapPointRef
 72
    13
331
507C
 73
     0
 91
        0
 40
0.0
 10
0.0
 20
0.0
 30
2.000000000000000E+50
 75
     0
  0
DIMASSOC
  5
7225
102
{ACAD_REACTORS
330
7224
102
}
330
7224
100
AcDbDimAssoc
330
7217
 90
        3
 70
     0
 71
     0
  1
AcDbOsnapPointRef
 72
    13
331
50A0
 73
     0
 91
        0
 40
0.0
 10
0.0
 20
0.0
 30
2.000000000000000E+50
 75
     0
  1
AcDbOsnapPointRef
 72
     1
331
5101
 73
     0
 91
        0
 40
0.0
 10
0.0
 20
0.0
 30
2.000000000000000E+50
 75
     0
  0
DIMASSOC
  5
72D9
102
{ACAD_REACTORS
330
72D8
102
}
330
72D8
100
AcDbDimAssoc
330
72CB
 90
        3
 70
     0
 71
     0
  1
AcDbOsnapPointRef
 72
    13
331
507A
 73
     0
 91
        0
 40
0.0
 10
0.0
 20
0.0
 30
2.000000000000000E+50
 75
     0
  1
AcDbOsnapPointRef
 72
     1
331
4F56
 73
     0
 91
        0
 40
0.0
 10
0.0
 20
0.0
 30
2.000000000000000E+50
 75
     0
  0
DIMASSOC
  5
730E
102
{ACAD_REACTORS
330
730D
102
}
330
730D
100
AcDbDimAssoc
330
7300
 90
        3
 70
     0
 71
     0
  1
AcDbOsnapPointRef
 72
    13
331
50C5
 73
     0
 91
        0
 40
0.0
 10
0.0
 20
0.0
 30
2.000000000000000E+50
 75
     0
  1
AcDbOsnapPointRef
 72
    13
331
50C6
 73
     0
 91
        0
 40
0.0
 10
0.0
 20
0.0
 30
2.000000000000000E+50
 75
     0
  0
DIMASSOC
  5
7341
102
{ACAD_REACTORS
330
7340
102
}
330
7340
100
AcDbDimAssoc
330
7333
 90
        3
 70
     0
 71
     0
  1
AcDbOsnapPointRef
 72
    13
331
500A
 73
     0
 91
        0
 40
0.0
 10
0.0
 20
0.0
 30
2.000000000000000E+50
 75
     0
  1
AcDbOsnapPointRef
 72
    13
331
5006
 73
     0
 91
        0
 40
0.0
 10
0.0
 20
0.0
 30
2.000000000000000E+50
 75
     0
  0
DIMASSOC
  5
7374
102
{ACAD_REACTORS
330
7373
102
}
330
7373
100
AcDbDimAssoc
330
7366
 90
        3
 70
     0
 71
     0
  1
AcDbOsnapPointRef
 72
    13
331
500A
 73
     0
 91
        0
 40
0.0
 10
0.0
 20
0.0
 30
2.000000000000000E+50
 75
     0
  1
AcDbOsnapPointRef
 72
     1
331
4F94
 73
     0
 91
        0
 40
0.0
 10
0.0
 20
0.0
 30
2.000000000000000E+50
 75
     0
  0
XRECORD
  5
73D8
102
{ACAD_REACTORS
330
73D7
102
}
330
73D7
100
AcDbXrecord
280
     1
102
SHADEPLOT
 70
     0
  0
LAYOUT
  5
1E
102
{ACAD_XDICTIONARY
360
73D1
102
}
102
{ACAD_REACTORS
330
1A
102
}
330
1A
100
AcDbPlotSettings
  1

  2
none_device
  4
ISO_A4_(210.00_x_297.00_MM)
  6

 40
7.5
 41
20.0
 42
7.5
 43
20.0
 44
210.0
 45
297.0
 46
0.0
 47
0.0
 48
0.0
 49
0.0
140
0.0
141
0.0
142
1.0
143
1.0
 70
   688
 72
     1
 73
     1
 74
     5
  7
單色出圖.ctb
 75
    16
147
1.0
148
0.0
149
0.0
100
AcDbLayout
  1
Layout1
 70
     1
 71
     1
 10
0.0
 20
0.0
 11
420.0
 21
297.0
 12
0.0
 22
0.0
 32
0.0
 14
1.000000000000000E+20
 24
1.000000000000000E+20
 34
1.000000000000000E+20
 15
-1.000000000000000E+20
 25
-1.000000000000000E+20
 35
-1.000000000000000E+20
146
0.0
 13
0.0
 23
0.0
 33
0.0
 16
1.0
 26
0.0
 36
0.0
 17
0.0
 27
1.0
 37
0.0
 76
     0
330
1B
331
67EA
1001
ACAD_PSEXT
1000
無
1000
無
1000
不適用
1000
除非另選一新建的繪圖機規劃名稱，否則配置將不會出圖。
1070
     0
  0
LAYOUT
  5
26
102
{ACAD_XDICTIONARY
360
73D5
102
}
102
{ACAD_REACTORS
330
1A
102
}
330
1A
100
AcDbPlotSettings
  1

  2
自動 RD 上的 Epson Stylus Photo 750 單色
  4

  6

 40
0.0
 41
0.0
 42
0.0
 43
0.0
 44
0.0
 45
0.0
 46
0.0
 47
0.0
 48
0.0
 49
0.0
140
0.0
141
0.0
142
1.0
143
1.0
 70
   688
 72
     0
 73
     0
 74
     5
  7
單色出圖.ctb
 75
    16
147
1.0
148
0.0
149
0.0
100
AcDbLayout
  1
Layout2
 70
     1
 71
     2
 10
0.0
 20
0.0
 11
12.0
 21
9.0
 12
0.0
 22
0.0
 32
0.0
 14
0.0
 24
0.0
 34
0.0
 15
0.0
 25
0.0
 35
0.0
146
0.0
 13
0.0
 23
0.0
 33
0.0
 16
1.0
 26
0.0
 36
0.0
 17
0.0
 27
1.0
 37
0.0
 76
     0
330
23
  0
LAYOUT
  5
22
102
{ACAD_XDICTIONARY
360
73D3
102
}
102
{ACAD_REACTORS
330
1A
102
}
330
1A
100
AcDbPlotSettings
  1

  2
DWF eView (optimized for viewing).pc3
  4
ISO_A1_(841.00_x_594.00_MM)
  6

 40
5.793749809265136
 41
17.79375076293945
 42
5.79376220703125
 43
17.79376220703125
 44
841.0
 45
594.0
 46
107.35
 47
0.0
 48
0.0
 49
0.0
140
0.0
141
0.0
142
1.0
143
0.8888929188736598
 70
 11924
 72
     1
 73
     0
 74
     1
  7
單色出圖.ctb
 75
     0
147
1.124994899573648
148
-112.3790785371866
149
-140.1352246441952
100
AcDbLayout
  1
Model
 70
     1
 71
     0
 10
0.0
 20
0.0
 11
12.0
 21
9.0
 12
0.0
 22
0.0
 32
0.0
 14
0.0
 24
0.0
 34
0.0
 15
0.0
 25
0.0
 35
0.0
146
0.0
 13
0.0
 23
0.0
 33
0.0
 16
1.0
 26
0.0
 36
0.0
 17
0.0
 27
1.0
 37
0.0
 76
     0
330
1F
  0
MLINESTYLE
  5
18
102
{ACAD_REACTORS
330
17
102
}
330
17
100
AcDbMlineStyle
  2
STANDARD
 70
     0
  3

 62
   256
 51
90.0
 52
90.0
 71
     2
 49
0.5
 62
   256
  6
BYLAYER
 49
-0.5
 62
   256
  6
BYLAYER
  0
ACDBPLACEHOLDER
  5
F
102
{ACAD_REACTORS
330
E
102
}
330
E
  0
TABLESTYLE
  5
2D4C
102
{ACAD_REACTORS
330
2D4B
102
}
330
2D4B
100
AcDbTableStyle
  3
Standard
 70
     0
 71
     0
 40
1.5
 41
1.5
280
     0
281
     0
  7
STANDARD
140
4.5
170
     2
 62
     0
 63
     7
283
     0
274
    -2
284
     1
 64
     0
275
    -2
285
     1
 65
     0
276
    -2
286
     1
 66
     0
277
    -2
287
     1
 67
     0
278
    -2
288
     1
 68
     0
279
    -2
289
     1
 69
     0
  7
STANDARD
140
6.0
170
     5
 62
     0
 63
     7
283
     0
274
    -2
284
     1
 64
     0
275
    -2
285
     1
 65
     0
276
    -2
286
     1
 66
     0
277
    -2
287
     1
 67
     0
278
    -2
288
     1
 68
     0
279
    -2
289
     1
 69
     0
  7
STANDARD
140
4.5
170
     5
 62
     0
 63
     7
283
     0
274
    -2
284
     1
 64
     0
275
    -2
285
     1
 65
     0
276
    -2
286
     1
 66
     0
277
    -2
287
     1
 67
     0
278
    -2
288
     1
 68
     0
279
    -2
289
     1
 69
     0
  0
DICTIONARYVAR
  5
2DF7
102
{ACAD_REACTORS
330
161
102
}
330
161
100
DictionaryVariables
280
     0
  1
STANDARD
  0
DICTIONARYVAR
  5
164
102
{ACAD_REACTORS
330
161
102
}
330
161
100
DictionaryVariables
280
     0
  1
2
  0
DICTIONARYVAR
  5
163
102
{ACAD_REACTORS
330
161
102
}
330
161
100
DictionaryVariables
280
     0
  1
1
  0
DICTIONARYVAR
  5
162
102
{ACAD_REACTORS
330
161
102
}
330
161
100
DictionaryVariables
280
     0
  1
1
  0
DICTIONARYVAR
  5
3004
102
{ACAD_REACTORS
330
161
102
}
330
161
100
DictionaryVariables
280
     0
  1

  0
DICTIONARY
  5
4A
102
{ACAD_REACTORS
330
45
102
}
330
45
100
AcDbDictionary
281
     1
  0
XRECORD
  5
2DBE
102
{ACAD_REACTORS
330
45
102
}
330
45
100
AcDbXrecord
280
     1
 90
-1023410169
  0
DICTIONARY
  5
300C
102
{ACAD_REACTORS
330
2B
102
}
330
2B
100
AcDbDictionary
281
     1
  3
DWGSETTINGS
350
300D
  3
TRANSSETTINGS
350
3010
  0
LAYER_INDEX
  5
15B
102
{ACAD_REACTORS
330
15A
102
}
330
15A
100
AcDbIndex
 40
2456890.440523901
100
AcDbLayerIndex
  8
0
360
15C
 90
       28
  8
AM_5
360
15D
 90
       32
  8
Defpoints
360
15E
 90
        0
  8
AM_7
360
15F
 90
       45
  8
AM_VIS
360
4D5
 90
      470
  8
AM_4
360
11F1
 90
       14
  8
LOGO
360
18F9
 90
       78
  0
DICTIONARY
  5
73D1
330
1E
100
AcDbDictionary
280
     1
281
     1
  3
ACAD_XREC_ROUNDTRIP
360
73D2
  0
DICTIONARY
  5
73D5
330
26
100
AcDbDictionary
280
     1
281
     1
  3
ACAD_XREC_ROUNDTRIP
360
73D6
  0
DICTIONARY
  5
73D3
330
22
100
AcDbDictionary
280
     1
281
     1
  3
ACAD_XREC_ROUNDTRIP
360
73D4
  0
IDBUFFER
  5
15C
330
0
100
AcDbIdBuffer
330
72E9
330
72E8
330
72E7
330
72E6
330
3E6A
330
3E6B
330
3E6C
330
4F59
330
5076
330
54F2
330
683E
330
6840
330
6854
330
6856
330
6858
330
685A
330
685C
330
685E
330
6860
330
6862
330
6864
330
6866
330
6868
330
686A
330
686C
330
686E
330
6870
330
6872
  0
IDBUFFER
  5
15D
330
0
100
AcDbIdBuffer
330
7366
330
7333
330
7300
330
72EF
330
72EE
330
72ED
330
72EC
330
72CB
330
7285
330
7217
330
71E9
330
71BF
330
7191
330
7167
330
7134
330
7122
330
7121
330
70E9
330
70C9
330
7089
330
7020
330
6FF6
330
6F9B
330
6F71
330
6F47
330
577F
330
5759
330
572B
330
5507
330
5506
330
5505
330
5504
  0
IDBUFFER
  5
15E
330
0
100
AcDbIdBuffer
  0
IDBUFFER
  5
15F
330
0
100
AcDbIdBuffer
330
70E4
330
5075
330
5074
330
5073
330
5072
330
5071
330
5070
330
506F
330
506E
330
506B
330
506A
330
5069
330
5068
330
5067
330
5066
330
5065
330
5064
330
5063
330
5062
330
5061
330
5060
330
505F
330
505E
330
505D
330
505C
330
505B
330
505A
330
4F63
330
4F62
330
4F61
330
4F60
330
4F5F
330
4F5E
330
4F5D
330
4F5C
330
4F5B
330
4F5A
330
4F58
330
4F57
330
4F56
330
4F55
330
4F54
330
4F51
330
4F52
330
4F53
  0
IDBUFFER
  5
4D5
330
0
100
AcDbIdBuffer
330
6871
330
686F
330
686D
330
686B
330
6869
330
6867
330
6865
330
6863
330
6861
330
685F
330
685D
330
685B
330
6859
330
6857
330
6855
330
6853
330
683D
330
683C
330
683B
330
683A
330
6839
330
6838
330
6837
330
6836
330
6835
330
6834
330
6833
330
6832
330
6831
330
6830
330
682F
330
67EB
330
54EF
330
54EE
330
54ED
330
54EC
330
54EB
330
54EA
330
54E9
330
54E8
330
54C2
330
54C1
330
54C0
330
54BF
330
54BE
330
54BD
330
54BC
330
54BB
330
54BA
330
548D
330
541F
330
541E
330
541A
330
5419
330
5418
330
5417
330
5416
330
5415
330
5414
330
5413
330
5412
330
5411
330
5410
330
540F
330
540E
330
540D
330
540C
330
540B
330
540A
330
5409
330
5408
330
5407
330
5406
330
5405
330
5402
330
5401
330
5400
330
53FF
330
53FE
330
53FD
330
53FC
330
53FB
330
53FA
330
53F9
330
53F8
330
53F7
330
53F6
330
53F5
330
53F4
330
53F3
330
53F2
330
53F1
330
53F0
330
53EF
330
53EE
330
53ED
330
53EC
330
53EB
330
53EA
330
53E9
330
53E8
330
53E7
330
53E6
330
53E5
330
53E4
330
53E3
330
53E2
330
53E1
330
53E0
330
53DF
330
53DE
330
53DD
330
53DC
330
53DB
330
53DA
330
53D9
330
53D8
330
53D7
330
53D6
330
53D5
330
53D4
330
53D3
330
53CC
330
53CB
330
53CA
330
53C9
330
53C8
330
53C7
330
53C6
330
53C5
330
53C4
330
53C3
330
53C2
330
53C1
330
53C0
330
53BF
330
53BE
330
53BD
330
53BC
330
5373
330
5372
330
5371
330
536F
330
536E
330
536D
330
5285
330
523E
330
523D
330
523C
330
523B
330
5238
330
5237
330
5236
330
5235
330
5234
330
5233
330
5155
330
514F
330
514E
330
514D
330
514C
330
514B
330
514A
330
5149
330
5148
330
5147
330
5146
330
5144
330
5142
330
5141
330
5140
330
513F
330
513E
330
513B
330
513A
330
5139
330
5138
330
5137
330
5136
330
5135
330
5134
330
5133
330
5132
330
5131
330
5130
330
512F
330
512E
330
512D
330
512C
330
512B
330
512A
330
5129
330
5128
330
5127
330
5126
330
5125
330
5124
330
5123
330
5122
330
5121
330
5120
330
511F
330
511E
330
511D
330
511C
330
511B
330
511A
330
5119
330
5118
330
5117
330
5116
330
5115
330
5114
330
5113
330
5112
330
5111
330
5110
330
510F
330
510E
330
510D
330
510C
330
510B
330
510A
330
5109
330
5108
330
5107
330
5106
330
5105
330
5104
330
5103
330
5102
330
5101
330
5100
330
50FF
330
50FE
330
50FD
330
50FC
330
50FB
330
50FA
330
50F9
330
50F8
330
50F7
330
50F6
330
50F5
330
50F4
330
50F3
330
50F2
330
50F1
330
50F0
330
50EF
330
50EE
330
50ED
330
50EC
330
50EB
330
50EA
330
50E9
330
50E8
330
50E7
330
50E6
330
50E5
330
50E4
330
50E3
330
50E2
330
50E1
330
50E0
330
50DF
330
50DE
330
50DD
330
50DC
330
50DB
330
50DA
330
50D9
330
50D8
330
50D7
330
50D6
330
50D5
330
50D4
330
50D3
330
50D2
330
50D1
330
50D0
330
50CF
330
50CE
330
50CD
330
50CC
330
50CB
330
50CA
330
50C9
330
50C8
330
50C7
330
50C6
330
50C5
330
50C4
330
50C3
330
50C2
330
50C1
330
50C0
330
50BF
330
50BE
330
50BD
330
50BC
330
50BB
330
50BA
330
50B9
330
50B8
330
50B7
330
50B6
330
50B5
330
50B4
330
50B3
330
50B2
330
50B1
330
50B0
330
50AF
330
50AE
330
50AD
330
50AC
330
50AB
330
50AA
330
50A9
330
50A8
330
50A7
330
50A6
330
50A5
330
50A4
330
50A3
330
50A2
330
50A1
330
50A0
330
509F
330
509E
330
509D
330
509C
330
509B
330
509A
330
5099
330
5098
330
5097
330
5096
330
5095
330
5094
330
5093
330
508A
330
5088
330
5087
330
5086
330
5085
330
5084
330
5083
330
5082
330
5081
330
5080
330
507F
330
507E
330
507D
330
507C
330
507B
330
507A
330
5025
330
5024
330
5022
330
5021
330
501F
330
501E
330
501D
330
501C
330
501B
330
501A
330
5019
330
5018
330
5017
330
5016
330
5015
330
5014
330
5013
330
5012
330
5011
330
5010
330
500F
330
500E
330
500D
330
500A
330
5009
330
5008
330
5007
330
5006
330
5005
330
5004
330
5003
330
4FFB
330
4FFA
330
4FF9
330
4FF8
330
4FF7
330
4FF6
330
4FF5
330
4FF4
330
4FF3
330
4FF2
330
4FF1
330
4FF0
330
4FEF
330
4FEE
330
4FED
330
4FEC
330
4FEB
330
4FEA
330
4FE9
330
4FE8
330
4FE7
330
4FE6
330
4FE5
330
4FE4
330
4FE3
330
4FCD
330
4FCC
330
4FCA
330
4FC9
330
4FC8
330
4FC7
330
4FC6
330
4FC5
330
4FC3
330
4FC2
330
4FC1
330
4FC0
330
4FBF
330
4FBE
330
4FBD
330
4FBC
330
4FBB
330
4FBA
330
4FB9
330
4FB8
330
4FB7
330
4FB6
330
4FB5
330
4FA5
330
4FA4
330
4FA3
330
4FA2
330
4FA1
330
4F9C
330
4F9B
330
4F9A
330
4F97
330
4F96
330
4F94
330
4F88
330
4F87
330
4F86
330
4F85
330
4F84
330
4F83
330
4F82
330
4F81
330
4F80
330
4F7F
330
4F7E
330
4F7D
330
4F7C
330
4F7B
330
4F7A
330
4F79
330
4F78
330
4F77
330
4F76
330
4F75
330
4F74
330
4F73
  0
IDBUFFER
  5
11F1
330
0
100
AcDbIdBuffer
330
5077
330
5027
330
4F72
330
4F70
330
4F6F
330
4F6E
330
4F6D
330
4F6B
330
4F6A
330
4F69
330
4F68
330
4F67
330
4F65
330
4F64
  0
IDBUFFER
  5
18F9
330
0
100
AcDbIdBuffer
330
18EC
330
3E69
330
3E68
330
3E67
330
3E66
330
3E65
330
3E64
330
3E63
330
3E62
330
3E61
330
3E60
330
3E5F
330
3E5E
330
3E5D
330
3E5C
330
3E5B
330
3E5A
330
3E59
330
3E58
330
3E57
330
3E56
330
3E55
330
3E54
330
3E53
330
3E52
330
3E51
330
3E50
330
3E4F
330
3E4E
330
3E4D
330
3E4C
330
3E4B
330
3E4A
330
3E49
330
3E48
330
3E47
330
3E46
330
3E45
330
3E41
330
3E40
330
3E3F
330
3E3B
330
3E37
330
3E33
330
3E32
330
3E31
330
3E30
330
3E2F
330
3E2E
330
3E2D
330
3E2C
330
3E28
330
3E27
330
3E23
330
3E1F
330
3E1E
330
3E1D
330
3E1C
330
3E1B
330
3E1A
330
3E19
330
3E18
330
3E17
330
3E16
330
3E15
330
3E14
330
3E13
330
3E12
330
3E11
330
3E10
330
3E0F
330
3E0E
330
3E0D
330
3E0C
330
3E0B
330
3E0A
330
3E09
330
3E08
  0
XRECORD
  5
73D2
102
{ACAD_REACTORS
330
73D1
102
}
330
73D1
100
AcDbXrecord
280
     1
102
SHADEPLOT
 70
     0
102
SHADEPLOTRESLEVEL
 70
     2
102
SHADEPLOTCUSTOMDPI
 70
   300
  0
XRECORD
  5
73D6
102
{ACAD_REACTORS
330
73D5
102
}
330
73D5
100
AcDbXrecord
280
     1
102
SHADEPLOT
 70
     0
102
SHADEPLOTRESLEVEL
 70
     2
102
SHADEPLOTCUSTOMDPI
 70
   300
  0
XRECORD
  5
73D4
102
{ACAD_REACTORS
330
73D3
102
}
330
73D3
100
AcDbXrecord
280
     1
102
SHADEPLOT
 70
     0
102
SHADEPLOTRESLEVEL
 70
     2
102
SHADEPLOTCUSTOMDPI
 70
   300
  0
ENDSEC
  0
EOF
