  0
SECTION
  2
HEADER
  9
$ACADVER
  1
AC1015
  9
$ACADMAINTVER
 70
    20
  9
$DWGCODEPAGE
  3
ANSI_950
  9
$INSBASE
 10
0.0
 20
0.0
 30
0.0
  9
$EXTMIN
 10
1559.692777366452
 20
128.8736319465694
 30
-0.0000000000000036
  9
$EXTMAX
 10
2159.300860038325
 20
582.4736319465691
 30
297.238922023793
  9
$LIMMIN
 10
0.0
 20
0.0
  9
$LIMMAX
 10
420.0
 20
297.0
  9
$ORTHOMODE
 70
     0
  9
$REGENMODE
 70
     1
  9
$FILLMODE
 70
     1
  9
$QTEXTMODE
 70
     0
  9
$MIRRTEXT
 70
     1
  9
$LTSCALE
 40
1.0
  9
$ATTMODE
 70
     1
  9
$TEXTSIZE
 40
3.0
  9
$TRACEWID
 40
1.0
  9
$TEXTSTYLE
  7
STANDARD
  9
$CLAYER
  8
0
  9
$CELTYPE
  6
ByLayer
  9
$CECOLOR
 62
   256
  9
$CELTSCALE
 40
1.0
  9
$DISPSILH
 70
     0
  9
$DIMSCALE
 40
1.0
  9
$DIMASZ
 40
3.5
  9
$DIMEXO
 40
1.5
  9
$DIMDLI
 40
8.0
  9
$DIMRND
 40
0.0
  9
$DIMDLE
 40
0.0
  9
$DIMEXE
 40
1.5
  9
$DIMTP
 40
0.1
  9
$DIMTM
 40
0.1
  9
$DIMTXT
 40
3.5
  9
$DIMCEN
 40
0.0
  9
$DIMTSZ
 40
0.0
  9
$DIMTOL
 70
     0
  9
$DIMLIM
 70
     0
  9
$DIMTIH
 70
     0
  9
$DIMTOH
 70
     0
  9
$DIMSE1
 70
     0
  9
$DIMSE2
 70
     0
  9
$DIMTAD
 70
     1
  9
$DIMZIN
 70
     8
  9
$DIMBLK
  1

  9
$DIMASO
 70
     1
  9
$DIMSHO
 70
     1
  9
$DIMPOST
  1

  9
$DIMAPOST
  1
"
  9
$DIMALT
 70
     0
  9
$DIMALTD
 70
     2
  9
$DIMALTF
 40
0.0393701
  9
$DIMLFAC
 40
1.0
  9
$DIMTOFL
 70
     1
  9
$DIMTVP
 40
0.0
  9
$DIMTIX
 70
     0
  9
$DIMSOXD
 70
     0
  9
$DIMSAH
 70
     0
  9
$DIMBLK1
  1

  9
$DIMBLK2
  1

  9
$DIMSTYLE
  2
AM_ISO
  9
$DIMCLRD
 70
   256
  9
$DIMCLRE
 70
   256
  9
$DIMCLRT
 70
   256
  9
$DIMTFAC
 40
0.71
  9
$DIMGAP
 40
1.0
  9
$DIMJUST
 70
     0
  9
$DIMSD1
 70
     0
  9
$DIMSD2
 70
     0
  9
$DIMTOLJ
 70
     0
  9
$DIMTZIN
 70
     8
  9
$DIMALTZ
 70
     0
  9
$DIMALTTZ
 70
     0
  9
$DIMUPT
 70
     0
  9
$DIMDEC
 70
     2
  9
$DIMTDEC
 70
     8
  9
$DIMALTU
 70
     2
  9
$DIMALTTD
 70
     2
  9
$DIMTXSTY
  7
STANDARD
  9
$DIMAUNIT
 70
     0
  9
$DIMADEC
 70
     0
  9
$DIMALTRND
 40
0.0
  9
$DIMAZIN
 70
     2
  9
$DIMDSEP
 70
    46
  9
$DIMATFIT
 70
     3
  9
$DIMFRAC
 70
     0
  9
$DIMLDRBLK
  1

  9
$DIMLUNIT
 70
     2
  9
$DIMLWD
 70
    -1
  9
$DIMLWE
 70
    -1
  9
$DIMTMOVE
 70
     0
  9
$LUNITS
 70
     2
  9
$LUPREC
 70
     2
  9
$SKETCHINC
 40
1.0
  9
$FILLETRAD
 40
0.5
  9
$AUNITS
 70
     0
  9
$AUPREC
 70
     0
  9
$MENU
  1
.
  9
$ELEVATION
 40
0.0
  9
$PELEVATION
 40
0.0
  9
$THICKNESS
 40
0.0
  9
$LIMCHECK
 70
     0
  9
$CHAMFERA
 40
2.5
  9
$CHAMFERB
 40
2.5
  9
$CHAMFERC
 40
20.0
  9
$CHAMFERD
 40
0.0
  9
$SKPOLY
 70
     0
  9
$TDCREATE
 40
2453229.426093924
  9
$TDUCREATE
 40
2453229.092760591
  9
$TDUPDATE
 40
2456890.429466679
  9
$TDUUPDATE
 40
2456890.096133345
  9
$TDINDWG
 40
0.4275982639
  9
$TDUSRTIMER
 40
0.4275982639
  9
$USRTIMER
 70
     1
  9
$ANGBASE
 50
0.0
  9
$ANGDIR
 70
     0
  9
$PDMODE
 70
     0
  9
$PDSIZE
 40
0.0
  9
$PLINEWID
 40
0.0
  9
$SPLFRAME
 70
     0
  9
$SPLINETYPE
 70
     6
  9
$SPLINESEGS
 70
     8
  9
$HANDSEED
  5
73E9
  9
$SURFTAB1
 70
     6
  9
$SURFTAB2
 70
     6
  9
$SURFTYPE
 70
     6
  9
$SURFU
 70
     6
  9
$SURFV
 70
     6
  9
$UCSBASE
  2

  9
$UCSNAME
  2

  9
$UCSORG
 10
0.0
 20
0.0
 30
0.0
  9
$UCSXDIR
 10
1.0
 20
0.0
 30
0.0
  9
$UCSYDIR
 10
0.0
 20
1.0
 30
0.0
  9
$UCSORTHOREF
  2

  9
$UCSORTHOVIEW
 70
     0
  9
$UCSORGTOP
 10
0.0
 20
0.0
 30
0.0
  9
$UCSORGBOTTOM
 10
0.0
 20
0.0
 30
0.0
  9
$UCSORGLEFT
 10
0.0
 20
0.0
 30
0.0
  9
$UCSORGRIGHT
 10
0.0
 20
0.0
 30
0.0
  9
$UCSORGFRONT
 10
0.0
 20
0.0
 30
0.0
  9
$UCSORGBACK
 10
0.0
 20
0.0
 30
0.0
  9
$PUCSBASE
  2

  9
$PUCSNAME
  2

  9
$PUCSORG
 10
0.0
 20
0.0
 30
0.0
  9
$PUCSXDIR
 10
1.0
 20
0.0
 30
0.0
  9
$PUCSYDIR
 10
0.0
 20
1.0
 30
0.0
  9
$PUCSORTHOREF
  2

  9
$PUCSORTHOVIEW
 70
     0
  9
$PUCSORGTOP
 10
0.0
 20
0.0
 30
0.0
  9
$PUCSORGBOTTOM
 10
0.0
 20
0.0
 30
0.0
  9
$PUCSORGLEFT
 10
0.0
 20
0.0
 30
0.0
  9
$PUCSORGRIGHT
 10
0.0
 20
0.0
 30
0.0
  9
$PUCSORGFRONT
 10
0.0
 20
0.0
 30
0.0
  9
$PUCSORGBACK
 10
0.0
 20
0.0
 30
0.0
  9
$USERI1
 70
     0
  9
$USERI2
 70
     0
  9
$USERI3
 70
     0
  9
$USERI4
 70
     0
  9
$USERI5
 70
     0
  9
$USERR1
 40
0.0
  9
$USERR2
 40
0.0
  9
$USERR3
 40
0.0
  9
$USERR4
 40
0.0
  9
$USERR5
 40
0.0
  9
$WORLDVIEW
 70
     1
  9
$SHADEDGE
 70
     3
  9
$SHADEDIF
 70
    70
  9
$TILEMODE
 70
     1
  9
$MAXACTVP
 70
    48
  9
$PINSBASE
 10
0.0
 20
0.0
 30
0.0
  9
$PLIMCHECK
 70
     0
  9
$PEXTMIN
 10
1.000000000000000E+20
 20
1.000000000000000E+20
 30
1.000000000000000E+20
  9
$PEXTMAX
 10
-1.000000000000000E+20
 20
-1.000000000000000E+20
 30
-1.000000000000000E+20
  9
$PLIMMIN
 10
0.0
 20
0.0
  9
$PLIMMAX
 10
420.0
 20
297.0
  9
$UNITMODE
 70
     0
  9
$VISRETAIN
 70
     1
  9
$PLINEGEN
 70
     0
  9
$PSLTSCALE
 70
     1
  9
$TREEDEPTH
 70
  3020
  9
$CMLSTYLE
  2
Standard
  9
$CMLJUST
 70
     0
  9
$CMLSCALE
 40
20.0
  9
$PROXYGRAPHICS
 70
     1
  9
$MEASUREMENT
 70
     1
  9
$CELWEIGHT
370
    -1
  9
$ENDCAPS
280
     0
  9
$JOINSTYLE
280
     0
  9
$LWDISPLAY
290
     0
  9
$INSUNITS
 70
     4
  9
$HYPERLINKBASE
  1

  9
$STYLESHEET
  1
單色出圖.ctb
  9
$XEDIT
290
     1
  9
$CEPSNTYPE
380
     0
  9
$PSTYLEMODE
290
     1
  9
$FINGERPRINTGUID
  2
{83CC3F96-1E22-4B35-B707-B045C3365130}
  9
$VERSIONGUID
  2
{00478F8D-3914-4C1B-8E72-149175C1B6C4}
  9
$EXTNAMES
290
     1
  9
$PSVPSCALE
 40
0.0
  9
$OLESTARTUP
290
     0
  0
ENDSEC
  0
SECTION
  2
CLASSES
  0
CLASS
  1
ACDBDICTIONARYWDFLT
  2
AcDbDictionaryWithDefault
  3
ObjectDBX Classes
 90
        0
280
     0
281
     0
  0
CLASS
  1
ACDBPLACEHOLDER
  2
AcDbPlaceHolder
  3
ObjectDBX Classes
 90
        0
280
     0
281
     0
  0
CLASS
  1
LAYOUT
  2
AcDbLayout
  3
ObjectDBX Classes
 90
        0
280
     0
281
     0
  0
CLASS
  1
AMGSETTINGSOBJ
  2
AmgSettingsObj
  3
"AcadM|Product Description: AutoCAD Mechanical 2000|Company: Autodesk"
 90
        0
280
     0
281
     0
  0
CLASS
  1
ACME_DOCUMENT
  2
AcMeDbDoc
  3
AcMeServices
 90
        0
280
     0
281
     0
  0
CLASS
  1
ACMESCOPE
  2
AcMeScope
  3
AcMeServices
 90
        0
280
     0
281
     0
  0
CLASS
  1
ACMECOMMANDHISTORY
  2
AcMeCommandHistory
  3
AcMeServices
 90
        0
280
     0
281
     0
  0
CLASS
  1
ACIMSYSVARMAN
  2
AcImSysVarManager
  3
AcMeServices
 90
        0
280
     0
281
     0
  0
CLASS
  1
ACIMREALSYSVAR
  2
AcImRealSysVar
  3
AcMeServices
 90
        0
280
     0
281
     0
  0
CLASS
  1
ACIMINTSYSVAR
  2
AcImIntSysVar
  3
AcMeServices
 90
        0
280
     0
281
     0
  0
CLASS
  1
ACMEDRAWINGMAN
  2
AcMeDrawingMan
  3
AcMeServices
 90
        0
280
     0
281
     0
  0
CLASS
  1
ACMEVIEW
  2
AcMeView
  3
AcMeServices
 90
        0
280
     0
281
     0
  0
CLASS
  1
ACDBENTITYCACHE
  2
AcMeEntityCache
  3
AcMeServices
 90
        0
280
     0
281
     0
  0
CLASS
  1
GSMANAGER
  2
AcMeGSManager
  3
AcMeServices
 90
        0
280
     0
281
     0
  0
CLASS
  1
AMDTINTERNALREACTOR
  2
AmdtInternalReactor
  3
AcMeServices
 90
        0
280
     0
281
     0
  0
CLASS
  1
ACMESTATEMGR
  2
AcMeStateMgr
  3
AcMeServices
 90
        0
280
     0
281
     0
  0
CLASS
  1
ACGREFMASTER
  2
AcGrefMaster
  3
AcAttribServices
 90
        0
280
     0
281
     0
  0
CLASS
  1
ACME_DATABASE
  2
AcMeDbDatabase
  3
AcMeServices
 90
        0
280
     0
281
     0
  0
CLASS
  1
ACRFINSADJUSTERMGR
  2
AcRfInsAdjusterMgr
  3
AcMeServices
 90
        0
280
     0
281
     0
  0
CLASS
  1
ACGREFACADMASTER
  2
AcGrefacadMaster
  3
AcGrefServices
 90
        0
280
     0
281
     0
  0
CLASS
  1
AMIMASTER
  2
AmiMaster
  3
AmiServices
 90
        0
280
     0
281
     0
  0
CLASS
  1
ACMDATADICTIONARY
  2
AcmDataDictionary
  3
"AcmSymBB|Product Description: AutoCAD Mechanical 2004 DX|Company: Autodesk"
 90
        0
280
     0
281
     0
  0
CLASS
  1
ACMDATAENTRYBLOCK
  2
AcmDataEntryBlock
  3
"AcmSymBB|Product Description: AutoCAD Mechanical 2004 DX|Company: Autodesk"
 90
        0
280
     0
281
     0
  0
CLASS
  1
ACIMSTRSYSVAR
  2
AcImStrSysVar
  3
AcMeServices
 90
        0
280
     0
281
     0
  0
CLASS
  1
ACMSTANDARDISO
  2
AcmStandardISO
  3
"Amdt_StdImp|Product Description: AutoCAD Mechanical 2004 DX|Company: Autodesk"
 90
        0
280
     0
281
     0
  0
CLASS
  1
AMGOBJPROPCFG
  2
AmgObjPropCfg
  3
"AmgLay|Product Description: AutoCAD Mechanical 2000|Company: Autodesk"
 90
        1
280
     0
281
     0
  0
CLASS
  1
AMDTEDGESTANDARDISO
  2
AmdtEdgeStdISO
  3
"Amdt_StdImp|Product Description: AutoCAD Mechanical 2004 DX|Company: Autodesk"
 90
    32768
280
     0
281
     0
  0
CLASS
  1
ACMSURFSTANDARDISO
  2
AcmSurfTextStdISO
  3
"Amdt_StdImp|Product Description: AutoCAD Mechanical 2004 DX|Company: Autodesk"
 90
        0
280
     0
281
     0
  0
CLASS
  1
ACMFCFSTANDARDISO
  2
AcmFCFStdISO
  3
"Amdt_StdImp|Product Description: AutoCAD Mechanical 2004 DX|Company: Autodesk"
 90
        0
280
     0
281
     0
  0
CLASS
  1
ACMWELDSTANDARDISO
  2
AcmWeldingStdISO
  3
"Amdt_StdImp|Product Description: AutoCAD Mechanical 2004 DX|Company: Autodesk"
 90
        0
280
     0
281
     0
  0
CLASS
  1
ACMIDSTANDARDISO
  2
AcmIdStdISO
  3
"Amdt_StdImp|Product Description: AutoCAD Mechanical 2004 DX|Company: Autodesk"
 90
        0
280
     0
281
     0
  0
CLASS
  1
ACMDATUMSTANDARDISO
  2
AcmDatumStdISO
  3
"Amdt_StdImp|Product Description: AutoCAD Mechanical 2004 DX|Company: Autodesk"
 90
        0
280
     0
281
     0
  0
CLASS
  1
ACMBOMSTANDARDISO
  2
AcmBOMStdISO
  3
"Amdt_StdImp|Product Description: AutoCAD Mechanical 2004 DX|Company: Autodesk"
 90
        0
280
     0
281
     0
  0
CLASS
  1
ACMDETAILSTANDARDISO
  2
AmdtDetailSymStdISO
  3
"Amdt_StdImp|Product Description: AutoCAD Mechanical 2004 DX|Company: Autodesk"
 90
        0
280
     0
281
     0
  0
CLASS
  1
ACMSECTIONSTANDARDISO
  2
AmdtSectionSymStdISO
  3
"Amdt_StdImp|Product Description: AutoCAD Mechanical 2004 DX|Company: Autodesk"
 90
        0
280
     0
281
     0
  0
CLASS
  1
ACMCENTERLINESTANDARDISO
  2
AmdtCenterLineStdISO
  3
"Amdt_StdImp|Product Description: AutoCAD Mechanical 2004 DX|Company: Autodesk"
 90
        0
280
     0
281
     0
  0
CLASS
  1
ACMNOTESTANDARDISO
  2
AmdtNoteStdISO
  3
"Amdt_StdImp|Product Description: AutoCAD Mechanical 2004 DX|Company: Autodesk"
 90
        0
280
     0
281
     0
  0
CLASS
  1
ACAMGLAYSTD
  2
AcAmgLayStd
  3
"AcAmgLayStd|Product Description: AutoCAD Mechanical 2000|Company: Autodesk"
 90
        0
280
     0
281
     0
  0
CLASS
  1
ACAMGDIMSTD
  2
AcAmgDimStd
  3
"AcAmgDimStd|Product Description: AutoCAD Mechanical 2000|Company: Autodesk"
 90
        0
280
     0
281
     0
  0
CLASS
  1
ACAMGHOLECHARTSTDISO
  2
AcAmgHoleChartStdISO
  3
ACMSYMBB_MODULE_NAME
 90
        0
280
     0
281
     0
  0
CLASS
  1
ACAMGTITLESTD
  2
AcAmgTitleStd
  3
"TITLEAPP"
 90
        0
280
     0
281
     0
  0
CLASS
  1
ACAMGFILTERDAT
  2
AcAmgFilterDat
  3
"AcadM|Product Description: AutoCAD Mechanical 2000|Company: Autodesk"
 90
    32768
280
     0
281
     0
  0
CLASS
  1
DIMASSOC
  2
AcDbDimAssoc
  3
"AcDbDimAssoc|Product Desc:     AcDim ARX App For Dimension|Company:          Autodesk, Inc.|WEB Address:      www.autodesk.com"
 90
        0
280
     0
281
     0
  0
CLASS
  1
LAYER_INDEX
  2
AcDbLayerIndex
  3
ObjectDBX Classes
 90
        0
280
     0
281
     0
  0
CLASS
  1
IDBUFFER
  2
AcDbIdBuffer
  3
ObjectDBX Classes
 90
        0
280
     0
281
     0
  0
CLASS
  1
DICTIONARYVAR
  2
AcDbDictionaryVar
  3
ObjectDBX Classes
 90
        0
280
     0
281
     0
  0
CLASS
  1
AMDTFORMULAUPDATEDISPATCHER
  2
AmdtFormulaUpdateDispatcher
  3
AcMeServices
 90
    32768
280
     0
281
     0
  0
CLASS
  1
AMDTNOTE
  2
AmdtNote
  3
"AcmSymBB|Product Description: AutoCAD Mechanical 2004 DX|Company: Autodesk"
 90
    33791
280
     0
281
     1
  0
CLASS
  1
TABLESTYLE
  2
AcDbTableStyle
  3
ObjectDBX Classes
 90
     2047
280
     0
281
     0
  0
CLASS
  1
AM_DRAWING_MGR
  2
AcDmDwgMgr
  3
AcMechDwgViewMgmt
 90
        0
280
     0
281
     0
  0
CLASS
  1
AM_DWG_DOCUMENT
  2
AcDmDwgDocument
  3
AcMechDwgViewMgmt
 90
        0
280
     0
281
     0
  0
CLASS
  1
AM_DWG_SHEET
  2
AcDmSheet
  3
AcMechDwgViewMgmt
 90
        0
280
     0
281
     0
  0
CLASS
  1
AM_VIEWDIMPARMAP
  2
AcDmViewDimParMap
  3
AcMechDwgViewMgmt
 90
        0
280
     0
281
     0
  0
CLASS
  1
AM_DWGMGR_NAME
  2
AcDmDwgMgrName
  3
AcMechDwgViewMgmt
 90
        0
280
     0
281
     0
  0
CLASS
  1
AMDTMENUSTATEMGR
  2
AmdtMenuStateMgr
  3
McadcomServices
 90
        0
280
     0
281
     0
  0
CLASS
  1
AMDTMCOMMENUSTATE
  2
AmdtMcomMenuState
  3
McadcomServices
 90
        0
280
     0
281
     0
  0
CLASS
  1
MAPIAMMOUDLE
  2
MApiAmModule
  3
MApiAmServices
 90
        0
280
     0
281
     0
  0
CLASS
  1
AMDTADMENUSTATE
  2
AmdtAdMenuState
  3
DesignerServices
 90
        0
280
     0
281
     0
  0
CLASS
  1
ADAPPL
  2
AcAdAppl
  3
DesignerServices
 90
        0
280
     0
281
     0
  0
CLASS
  1
DEPMGR
  2
AcAdDepMgr
  3
DesignerServices
 90
        0
280
     0
281
     0
  0
CLASS
  1
PARAMMGR
  2
AcAdParamMgr
  3
DesignerServices
 90
        0
280
     0
281
     0
  0
CLASS
  1
PARAMSCOPE
  2
AcAdParamScope
  3
DesignerServices
 90
        0
280
     0
281
     0
  0
CLASS
  1
NAMEDAPPL
  2
AcAdNamedAppl
  3
DesignerServices
 90
        0
280
     0
281
     0
  0
CLASS
  1
AMDTDMMENUSTATE
  2
AmdtDmMenuState
  3
AcMechDwgViewMgmt
 90
        0
280
     0
281
     0
  0
CLASS
  1
AMDTAMMENUSTATE
  2
AmdtAmMenuState
  3
DesignerAssemblies
 90
        0
280
     0
281
     0
  0
CLASS
  1
ACAMPROJECT
  2
AcAmProject
  3
DesignerAssemblies
 90
        0
280
     0
281
     0
  0
CLASS
  1
ACAMGRCOMPDEF
  2
AcAmGrCompDef
  3
DesignerAssemblies
 90
        0
280
     0
281
     0
  0
CLASS
  1
ACCMCONTEXT
  2
AcCmContext
  3
DesignerAssemblies
 90
        0
280
     0
281
     0
  0
CLASS
  1
ACAMCOMPDEF
  2
AcAmCompDef
  3
DesignerAssemblies
 90
        0
280
     0
281
     0
  0
CLASS
  1
ACAMCOMPDEFMGR
  2
AcAmCompDefMgr
  3
DesignerAssemblies
 90
        0
280
     0
281
     0
  0
CLASS
  1
AMCONTEXTMGR
  2
AcAmContextMgr
  3
DesignerAssemblies
 90
        0
280
     0
281
     0
  0
CLASS
  1
ACAMCONTEXTMODELER
  2
AcAmContextModeler
  3
DesignerAssemblies
 90
        0
280
     0
281
     0
  0
CLASS
  1
CATALOGSTATE
  2
AcAmCatalogState
  3
DesignerAssemblies
 90
        0
280
     0
281
     0
  0
CLASS
  1
ACAMGRCOMPDEFSET
  2
AcAmGrCompDefSet
  3
DesignerAssemblies
 90
        0
280
     0
281
     0
  0
CLASS
  1
AMDTBROWSERDBTAB
  2
AmdtBrowserDbTab
  3
McadcomServices
 90
        0
280
     0
281
     0
  0
CLASS
  1
CBROWSERAPPOBJECT
  2
CBrowserAppObject
  3
McadcomServices
 90
        0
280
     0
281
     0
  0
CLASS
  1
DM_PLACEHOLDER
  2
AcDmSelsetPlaceholder
  3
AcMechDwgViewMgmt
 90
        0
280
     0
281
     0
  0
CLASS
  1
AMDTEDGESTANDARDISO13715
  2
AmdtEdgeStdISO13715
  3
"Amdt_StdImp|Product Description: AutoCAD Mechanical 2004 DX|Company: Autodesk"
 90
        0
280
     0
281
     0
  0
CLASS
  1
ACMTHREADLINESTANDARDISO
  2
AmdtThreadLineStdISO
  3
"Amdt_StdImp|Product Description: AutoCAD Mechanical 2004 DX|Company: Autodesk"
 90
        0
280
     0
281
     0
  0
CLASS
  1
AMDTNOTETEMPLATEDB
  2
AmdtNoteTemplateDB
  3
AMDT_STDIMP_MODULE_NAME
 90
        0
280
     0
281
     0
  0
CLASS
  1
ACRFATTGENMGR
  2
AcRfAttGeneralMgr
  3
AcAttribServices
 90
    32768
280
     0
281
     0
  0
CLASS
  1
ASAPP
  2
AcAsAppObject
  3
AutoSurfServices
 90
        0
280
     0
281
     0
  0
CLASS
  1
IM_STATIC_MAN
  2
AcImStaticVarManager
  3
AcMeServices
 90
        0
280
     0
281
     0
  0
CLASS
  1
ACIMDBLSTATICVAR
  2
AcImDblStaticVar
  3
AcMeServices
 90
        0
280
     0
281
     0
  0
CLASS
  1
ACIMSTRSTATICVAR
  2
AcImStrStaticVar
  3
AcMeServices
 90
        0
280
     0
281
     0
  0
CLASS
  1
ACIMINTSTATICVAR
  2
AcImIntStaticVar
  3
AcMeServices
 90
        0
280
     0
281
     0
  0
CLASS
  1
ACASGREFMASTER
  2
AcAsGrefMaster
  3
AutoSurfResolverServices
 90
        0
280
     0
281
     0
  0
CLASS
  1
ACADGREFMODULE
  2
AcAdGrefModule
  3
AdGrefServices
 90
        0
280
     0
281
     0
  0
CLASS
  1
AMDTMAPISURFMOUDULE
  2
AmdtMApiSurfModule
  3
MApiSurfServices
 90
        0
280
     0
281
     0
  0
CLASS
  1
MAPIADMODULE
  2
MApiAdModule
  3
MApiAdServices
 90
        0
280
     0
281
     0
  0
CLASS
  1
SORTENTSTABLE
  2
AcDbSortentsTable
  3
ObjectDBX Classes
 90
        0
280
     0
281
     0
  0
CLASS
  1
ADPART
  2
AcAdPart
  3
DesignerServices
 90
    32768
280
     0
281
     1
  0
CLASS
  1
ADBASE
  2
AcAdBase
  3
DesignerServices
 90
    32768
280
     0
281
     0
  0
CLASS
  1
BODYID
  2
AcAdBodyId
  3
DesignerServices
 90
    32768
280
     0
281
     0
  0
CLASS
  1
WORKPLANEDISPLAYMGR
  2
AcAdDisplayMgr
  3
DesignerServices
 90
    32768
280
     0
281
     0
  0
CLASS
  1
ACCMBODY
  2
AcCmBody
  3
DesignerAssemblies
 90
    32768
280
     0
281
     0
  0
CLASS
  1
ACAMCOMPENT
  2
AcAmCompEnt
  3
DesignerAssemblies
 90
    32768
280
     0
281
     1
  0
CLASS
  1
ACAMCOMPFEEDBACK
  2
AcAmCompFeedback
  3
DesignerAssemblies
 90
    32768
280
     0
281
     0
  0
CLASS
  1
ACAMCOMP
  2
AcAmComp
  3
DesignerAssemblies
 90
    32768
280
     0
281
     0
  0
CLASS
  1
ACAMCOMPENTCLONE
  2
AcAmCompEntClone
  3
DesignerAssemblies
 90
    32768
280
     0
281
     1
  0
CLASS
  1
ACAMCLONEREACTOR
  2
AcAmGrCompCloneReactor
  3
DesignerAssemblies
 90
    32768
280
     0
281
     0
  0
CLASS
  1
ADDATUMPLANEABS
  2
AcAdDatumPlaneAbs
  3
DesignerServices
 90
    32768
280
     0
281
     0
  0
CLASS
  1
ADDATUMAXISABS
  2
AcAdDatumAxisAbs
  3
DesignerServices
 90
    32768
280
     0
281
     0
  0
CLASS
  1
ADDATUMORIENTEDPLANE
  2
AcAdDatumOrientedPlane
  3
DesignerServices
 90
    32768
280
     0
281
     0
  0
CLASS
  1
ACAD_LINE
  2
AcAdLine
  3
DesignerServices
 90
    32768
280
     0
281
     1
  0
CLASS
  1
ACADLINEACAD
  2
AcAdVirtualBoundedLineAcad
  3
DesignerServices
 90
    32768
280
     0
281
     0
  0
CLASS
  1
ACADREFLINEACAD
  2
AcAdVirtualReferenceLine
  3
DesignerServices
 90
    32768
280
     0
281
     0
  0
CLASS
  1
ACADCONSLINE
  2
AcAdConstrainedLine
  3
DesignerServices
 90
    32768
280
     0
281
     0
  0
CLASS
  1
ACADCONSGROUP
  2
AcAdConstraintGroup
  3
DesignerServices
 90
    32768
280
     0
281
     0
  0
CLASS
  1
ACADIMPPTACAD
  2
AcAdVirtualImplicitPoint
  3
DesignerServices
 90
    32768
280
     0
281
     0
  0
CLASS
  1
ACADCONSPOINT
  2
AcAdConstrainedPoint
  3
DesignerServices
 90
    32768
280
     0
281
     0
  0
CLASS
  1
ADPCURCNS
  2
AcAdPointCurveConstr
  3
DesignerServices
 90
    32768
280
     0
281
     0
  0
CLASS
  1
ADPROJCNS
  2
AcAdProjectionConstr
  3
DesignerServices
 90
    32768
280
     0
281
     0
  0
CLASS
  1
ADVERCNS
  2
AcAdVerticalConstr
  3
DesignerServices
 90
    32768
280
     0
281
     0
  0
CLASS
  1
ADHORCNS
  2
AcAdHorizontalConstr
  3
DesignerServices
 90
    32768
280
     0
281
     0
  0
CLASS
  1
ADCOLNCNS
  2
AcAdColinearConstr
  3
DesignerServices
 90
    32768
280
     0
281
     0
  0
CLASS
  1
ADPARCNS
  2
AcAdParallelConstr
  3
DesignerServices
 90
    32768
280
     0
281
     0
  0
ENDSEC
  0
SECTION
  2
TABLES
  0
TABLE
  2
VPORT
  5
8
330
0
100
AcDbSymbolTable
 70
     7
  0
VPORT
  5
73DE
330
8
100
AcDbSymbolTableRecord
100
AcDbViewportTableRecord
  2
*Active
 70
     0
 10
0.0
 20
0.0
 11
1.0
 21
1.0
 12
611.8609786523145
 22
-77.68583035932249
 13
0.0
 23
0.0
 14
2.5
 24
2.5
 15
10.0
 25
10.0
 16
0.0
 26
0.0
 36
1.0
 17
1248.473340879117
 27
495.068632219338
 37
0.0
 40
681.0827366020387
 41
1.263157894736842
 42
50.0
 43
0.0
 44
0.0
 50
0.0
 51
0.0
 71
     0
 72
   100
 73
     1
 74
     3
 75
     0
 76
     0
 77
     0
 78
     0
281
     0
 65
     0
110
0.0
120
0.0
130
0.0
111
1.0
121
0.0
131
0.0
112
0.0
122
1.0
132
0.0
 79
     0
146
0.0
  0
ENDTAB
  0
TABLE
  2
LTYPE
  5
5
330
0
100
AcDbSymbolTable
 70
    17
  0
LTYPE
  5
14
330
5
100
AcDbSymbolTableRecord
100
AcDbLinetypeTableRecord
  2
ByBlock
 70
     0
  3

 72
    65
 73
     0
 40
0.0
  0
LTYPE
  5
15
330
5
100
AcDbSymbolTableRecord
100
AcDbLinetypeTableRecord
  2
ByLayer
 70
     0
  3

 72
    65
 73
     0
 40
0.0
  0
LTYPE
  5
16
330
5
100
AcDbSymbolTableRecord
100
AcDbLinetypeTableRecord
  2
Continuous
 70
     0
  3
Solid line
 72
    65
 73
     0
 40
0.0
  0
LTYPE
  5
4D
330
5
100
AcDbSymbolTableRecord
100
AcDbLinetypeTableRecord
  2
AM_ISO02W050
 70
     0
  3
__ __ __ __ __ __ __ __ __ __ __ __ __ __ __
 72
    65
 73
     2
 40
7.5
 49
6.0
 74
     0
 49
-1.5
 74
     0
  0
LTYPE
  5
4E
330
5
100
AcDbSymbolTableRecord
100
AcDbLinetypeTableRecord
  2
AM_ISO08W050
 70
     0
  3
____ . ____ . ____ . ____ . ____ . ____ . ____
 72
    65
 73
     4
 40
18.0
 49
12.0
 74
     0
 49
-1.5
 74
     0
 49
3.0
 74
     0
 49
-1.5
 74
     0
  0
LTYPE
  5
4F
330
5
100
AcDbSymbolTableRecord
100
AcDbLinetypeTableRecord
  2
AM_ISO09W050
 70
     0
  3
_____ . . _____ . . _____ . . ____ .. ____
 72
    65
 73
     6
 40
22.5
 49
12.0
 74
     0
 49
-1.5
 74
     0
 49
3.0
 74
     0
 49
-1.5
 74
     0
 49
3.0
 74
     0
 49
-1.5
 74
     0
  0
LTYPE
  5
50
330
5
100
AcDbSymbolTableRecord
100
AcDbLinetypeTableRecord
  2
Amconstr
 70
     0
  3
_______________________
 72
    65
 73
     2
 40
9999.0
 49
9999.0
 74
     0
 49
0.0
 74
     0
  0
LTYPE
  5
51
330
5
100
AcDbSymbolTableRecord
100
AcDbLinetypeTableRecord
  2
AM_ISO08W050x2
 70
     0
  3
__ . __ . __ . __ . __ . __
 72
    65
 73
     4
 40
9.0
 49
6.0
 74
     0
 49
-0.75
 74
     0
 49
1.5
 74
     0
 49
-0.75
 74
     0
  0
LTYPE
  5
52
330
5
100
AcDbSymbolTableRecord
100
AcDbLinetypeTableRecord
  2
AM_ISO02W050x2
 70
     0
  3
 _ _ _ _ _ _ _ _ _ _ _ _
 72
    65
 73
     2
 40
3.75
 49
3.0
 74
     0
 49
-0.75
 74
     0
  0
LTYPE
  5
55
330
5
100
AcDbSymbolTableRecord
100
AcDbLinetypeTableRecord
  2
Amzigzag
 70
     0
  3
/\/-/\/-/\/-/\/-/\/-/\/
 72
    65
 73
     2
 40
11.0001
 49
0.0001
 74
     4
 75
   135
340
54
 46
0.04
 50
0.0
 44
0.0
 45
0.0
 49
-11.0
 74
     0
  0
LTYPE
  5
63
330
5
100
AcDbSymbolTableRecord
100
AcDbLinetypeTableRecord
  2
ACISOWELD
 70
     0
  3
_ _ _ _ _
 72
    65
 73
     2
 40
2.0
 49
2.0
 74
     0
 49
-1.0
 74
     0
  0
LTYPE
  5
64
330
5
100
AcDbSymbolTableRecord
100
AcDbLinetypeTableRecord
  2
ACISOTGB
 70
     0
  3
__ . . __ . .
 72
    65
 73
     6
 40
9.0
 49
4.0
 74
     0
 49
-1.0
 74
     0
 49
1.0
 74
     0
 49
-1.0
 74
     0
 49
1.0
 74
     0
 49
-1.0
 74
     0
  0
LTYPE
  5
65
330
5
100
AcDbSymbolTableRecord
100
AcDbLinetypeTableRecord
  2
ACISOTGL
 70
     0
  3
_ _ _ _ _
 72
    65
 73
     2
 40
3.0
 49
2.0
 74
     0
 49
-1.0
 74
     0
  0
LTYPE
  5
68
330
5
100
AcDbSymbolTableRecord
100
AcDbLinetypeTableRecord
  2
CENTER
 70
     0
  3
__ . __
 72
    65
 73
     4
 40
7.0
 49
4.0
 74
     0
 49
-1.0
 74
     0
 49
1.0
 74
     0
 49
-1.0
 74
     0
  0
LTYPE
  5
D47
330
5
100
AcDbSymbolTableRecord
100
AcDbLinetypeTableRecord
  2
HIDDEN2
 70
     0
  3
Hidden (.5x) _ _ _ _ _ _ _ _ _ _ _ _ _ _ _ _ _
 72
    65
 73
     2
 40
0.1875
 49
0.125
 74
     0
 49
-0.0625
 74
     0
  0
LTYPE
  5
2B41
330
5
100
AcDbSymbolTableRecord
100
AcDbLinetypeTableRecord
  2
HIDDEN
 70
     0
  3
Hidden __ __ __ __ __ __ __ __ __ __ __ __ __ _
 72
    65
 73
     2
 40
0.375
 49
0.25
 74
     0
 49
-0.125
 74
     0
  0
LTYPE
  5
2D83
330
5
100
AcDbSymbolTableRecord
100
AcDbLinetypeTableRecord
  2
PHANTOM2
 70
     0
  3
Phantom (.5x) ___ _ _ ___ _ _ ___ _ _ ___ _ _
 72
    65
 73
     6
 40
31.75
 49
15.875
 74
     0
 49
-3.174999999999999
 74
     0
 49
3.174999999999999
 74
     0
 49
-3.174999999999999
 74
     0
 49
3.174999999999999
 74
     0
 49
-3.174999999999999
 74
     0
  0
LTYPE
  5
73C5
330
5
100
AcDbSymbolTableRecord
100
AcDbLinetypeTableRecord
  2
ASULTYPE
 70
     0
  3
實線
 72
    65
 73
     2
 40
3.0
 49
2.5
 74
     0
 49
0.5
 74
     0
  0
LTYPE
  5
73C6
330
5
100
AcDbSymbolTableRecord
100
AcDbLinetypeTableRecord
  2
ASVLTYPE
 70
     0
  3
__ __ __ __ __ __ __ __ __ __ __ __ __ __ __ __ __ __ __ __ __
 72
    65
 73
     2
 40
0.75
 49
0.5
 74
     0
 49
-0.25
 74
     0
  0
ENDTAB
  0
TABLE
  2
LAYER
  5
2
102
{ACAD_XDICTIONARY
360
2DFC
102
}
330
0
100
AcDbSymbolTable
 70
     7
  0
LAYER
  5
10
330
2
100
AcDbSymbolTableRecord
100
AcDbLayerTableRecord
  2
0
 70
     0
 62
     7
  6
Continuous
370
    -3
390
F
  0
LAYER
  5
87
330
2
100
AcDbSymbolTableRecord
100
AcDbLayerTableRecord
  2
AM_5
 70
     0
 62
     5
  6
Continuous
370
    25
390
F
  0
LAYER
  5
97
330
2
100
AcDbSymbolTableRecord
100
AcDbLayerTableRecord
  2
Defpoints
 70
     0
 62
     7
  6
Continuous
290
     0
370
    -3
390
F
  0
LAYER
  5
14A
330
2
100
AcDbSymbolTableRecord
100
AcDbLayerTableRecord
  2
AM_7
 70
     0
 62
     1
  6
AM_ISO08W050
370
    25
390
F
  0
LAYER
  5
494
330
2
100
AcDbSymbolTableRecord
100
AcDbLayerTableRecord
  2
AM_VIS
 70
     2
 62
     7
  6
Continuous
370
    50
390
F
  0
LAYER
  5
D48
330
2
100
AcDbSymbolTableRecord
100
AcDbLayerTableRecord
  2
AM_4
 70
     0
 62
     3
  6
Continuous
370
    25
390
F
  0
LAYER
  5
180F
330
2
100
AcDbSymbolTableRecord
100
AcDbLayerTableRecord
  2
LOGO
 70
     0
 62
     7
  6
Continuous
370
    -3
390
F
  0
ENDTAB
  0
TABLE
  2
STYLE
  5
3
330
0
100
AcDbSymbolTable
 70
     6
  0
STYLE
  5
11
330
3
100
AcDbSymbolTableRecord
100
AcDbTextStyleTableRecord
  2
STANDARD
 70
     0
 40
0.0
 41
1.0
 50
0.0
 71
     0
 42
3.0
  3
ISOCP.SHX
  4
CHINESET.SHX
  0
STYLE
  5
54
330
3
100
AcDbSymbolTableRecord
100
AcDbTextStyleTableRecord
  2

 70
     1
 40
0.0
 41
1.0
 50
0.0
 71
     0
 42
2.5
  3
ltypeshp.shx
  4

  0
STYLE
  5
56
330
3
100
AcDbSymbolTableRecord
100
AcDbTextStyleTableRecord
  2
ACISOTS
 70
     0
 40
1.0
 41
1.0
 50
0.0
 71
     0
 42
2.5
  3
isocp.shx
  4
chineset.shx
  0
STYLE
  5
62
330
3
100
AcDbSymbolTableRecord
100
AcDbTextStyleTableRecord
  2
ACISOGDT
 70
     0
 40
0.0
 41
1.0
 50
0.0
 71
     0
 42
2.5
  3
amgdt.shx
  4

  0
STYLE
  5
499
330
3
100
AcDbSymbolTableRecord
100
AcDbTextStyleTableRecord
  2
CHINESET
 70
     0
 40
0.0
 41
1.0
 50
0.0
 71
     0
 42
2.5
  3
simplex.shx
  4
CHINESET.shx
  0
STYLE
  5
31F3
330
3
100
AcDbSymbolTableRecord
100
AcDbTextStyleTableRecord
  2
DAYUS
 70
     0
 40
0.0
 41
1.0
 50
0.0
 71
     0
 42
4.0
  3
simplex.shx
  4
dayus.shx
  0
ENDTAB
  0
TABLE
  2
VIEW
  5
6
330
0
100
AcDbSymbolTable
 70
     0
  0
ENDTAB
  0
TABLE
  2
UCS
  5
7
330
0
100
AcDbSymbolTable
 70
     0
  0
ENDTAB
  0
TABLE
  2
APPID
  5
9
330
0
100
AcDbSymbolTable
 70
    24
  0
APPID
  5
12
330
9
100
AcDbSymbolTableRecord
100
AcDbRegAppTableRecord
  2
ACAD
 70
     0
  0
APPID
  5
30
330
9
100
AcDbSymbolTableRecord
100
AcDbRegAppTableRecord
  2
MCAD_NO_VIS
 70
     0
  0
APPID
  5
31
330
9
100
AcDbSymbolTableRecord
100
AcDbRegAppTableRecord
  2
ACAD_TEMP_GRAPHIC
 70
     0
  0
APPID
  5
42
330
9
100
AcDbSymbolTableRecord
100
AcDbRegAppTableRecord
  2
ACATTRIBSERVICES
 70
     0
  0
APPID
  5
E0
330
9
100
AcDbSymbolTableRecord
100
AcDbRegAppTableRecord
  2
GENIUS_GENDTOL_13
 70
     0
  0
APPID
  5
150
330
9
100
AcDbSymbolTableRecord
100
AcDbRegAppTableRecord
  2
GENIUS_GENODEF_13
 70
     0
  0
APPID
  5
151
330
9
100
AcDbSymbolTableRecord
100
AcDbRegAppTableRecord
  2
GENIUS_GENOBJ-N-CRS_13
 70
     0
  0
APPID
  5
152
330
9
100
AcDbSymbolTableRecord
100
AcDbRegAppTableRecord
  2
GENIUS_GENOENT_13
 70
     0
  0
APPID
  5
153
330
9
100
AcDbSymbolTableRecord
100
AcDbRegAppTableRecord
  2
GENIUS_GENOLIS_13
 70
     0
  0
APPID
  5
154
330
9
100
AcDbSymbolTableRecord
100
AcDbRegAppTableRecord
  2
GENIUS_GENOREF_13
 70
     0
  0
APPID
  5
6B1
330
9
100
AcDbSymbolTableRecord
100
AcDbRegAppTableRecord
  2
GENIUS_GENDIMSH_14
 70
     0
  0
APPID
  5
2B45
330
9
100
AcDbSymbolTableRecord
100
AcDbRegAppTableRecord
  2
GENIUS_GENOBJ-N-CEN_13
 70
     0
  0
APPID
  5
2D85
330
9
100
AcDbSymbolTableRecord
100
AcDbRegAppTableRecord
  2
AD_DRAW
 70
     0
  0
APPID
  5
2DA3
330
9
100
AcDbSymbolTableRecord
100
AcDbRegAppTableRecord
  2
DESIGNERASSEMBLIES
 70
     0
  0
APPID
  5
2DA8
330
9
100
AcDbSymbolTableRecord
100
AcDbRegAppTableRecord
  2
ACADM_DIM_EDIT
 70
     0
  0
APPID
  5
2DA9
330
9
100
AcDbSymbolTableRecord
100
AcDbRegAppTableRecord
  2
AMDT_DM_ADJ
 70
     0
  0
APPID
  5
2DFA
330
9
100
AcDbSymbolTableRecord
100
AcDbRegAppTableRecord
  2
GENIUS_GENREC_14
 70
     0
  0
APPID
  5
2DFB
330
9
100
AcDbSymbolTableRecord
100
AcDbRegAppTableRecord
  2
GENIUS_GENOBJ-N-REC_13
 70
     0
  0
APPID
  5
300E
330
9
100
AcDbSymbolTableRecord
100
AcDbRegAppTableRecord
  2
GENIUS_GENDIM_13
 70
     0
  0
APPID
  5
300F
330
9
100
AcDbSymbolTableRecord
100
AcDbRegAppTableRecord
  2
GENIUS_GE3DTOL_13
 70
     0
  0
APPID
  5
308F
330
9
100
AcDbSymbolTableRecord
100
AcDbRegAppTableRecord
  2
ASURF_PCURVE_APPNAME
 70
     0
  0
APPID
  5
3094
330
9
100
AcDbSymbolTableRecord
100
AcDbRegAppTableRecord
  2
AMG_3D2D_5.0
 70
     0
  0
APPID
  5
31F8
330
9
100
AcDbSymbolTableRecord
100
AcDbRegAppTableRecord
  2
ACAD_PSEXT
 70
     0
  0
APPID
  5
5590
330
9
100
AcDbSymbolTableRecord
100
AcDbRegAppTableRecord
  2
ACAD_DSTYLE_DIMTEXT_FILL
 70
     0
  0
ENDTAB
  0
TABLE
  2
DIMSTYLE
  5
A
330
0
100
AcDbSymbolTable
 70
    10
100
AcDbDimStyleTable
 71
     1
340
6B
  0
DIMSTYLE
105
6B
102
{ACAD_REACTORS
330
5518
102
}
330
A
100
AcDbSymbolTableRecord
100
AcDbDimStyleTableRecord
  2
AM_ISO
 70
     0
  4
"
 41
3.5
 42
1.5
 43
8.0
 44
1.5
 47
0.1
 48
0.1
 73
     0
 74
     0
 77
     1
 78
     8
 79
     2
140
3.5
141
0.0
143
0.0393701
146
0.71
147
1.0
172
     1
176
   256
177
   256
178
   256
271
     2
272
     2
283
     0
284
     8
340
11
371
    -1
372
    -1
  0
DIMSTYLE
105
6C
102
{ACAD_REACTORS
330
7020
102
}
330
A
100
AcDbSymbolTableRecord
100
AcDbDimStyleTableRecord
  2
AM_ISO$3
 70
     0
  4
"
 41
3.5
 42
1.5
 43
8.0
 44
1.5
 47
0.1
 48
0.1
 73
     0
 77
     1
 78
     8
 79
     2
140
3.5
141
0.0
143
0.0393701
146
0.71
147
1.0
176
   256
177
   256
178
   256
271
     2
272
     2
283
     0
284
     8
288
     1
289
     0
340
11
371
    -1
372
    -1
  0
DIMSTYLE
105
6D
102
{ACAD_REACTORS
330
731D
102
}
330
A
100
AcDbSymbolTableRecord
100
AcDbDimStyleTableRecord
  2
AM_ISO$4
 70
     0
  4
"
 41
3.5
 42
1.5
 43
8.0
 44
1.5
 47
0.1
 48
0.1
 73
     0
 77
     1
 78
     8
 79
     2
140
3.5
141
0.0
143
0.0393701
146
0.71
147
1.0
176
   256
177
   256
178
   256
271
     2
272
     2
283
     0
284
     8
288
     1
289
     0
340
11
371
    -1
372
    -1
  0
DIMSTYLE
105
6E
330
A
100
AcDbSymbolTableRecord
100
AcDbDimStyleTableRecord
  2
AM_ISO$6
 70
     0
  4
"
 41
3.5
 42
1.5
 43
8.0
 44
1.5
 47
0.1
 48
0.1
 73
     0
 74
     0
 78
     8
 79
     2
140
3.5
141
0.0
143
0.0393701
146
0.71
147
1.0
172
     1
176
   256
177
   256
178
   256
271
     2
272
     2
283
     0
284
     8
340
11
371
    -1
372
    -1
  0
DIMSTYLE
105
6F
102
{ACAD_REACTORS
330
54FE
330
70A0
330
70A5
330
7316
330
7357
102
}
330
A
100
AcDbSymbolTableRecord
100
AcDbDimStyleTableRecord
  2
AM_ISO$7
 70
     0
  4
"
 41
3.5
 42
1.5
 43
8.0
 44
1.5
 47
0.1
 48
0.1
 73
     0
 74
     0
 77
     1
 78
     8
 79
     2
140
3.5
141
0.0
143
0.0393701
146
0.71
147
1.0
172
     1
176
   256
177
   256
178
   256
271
     2
272
     2
283
     0
284
     8
340
11
371
    -1
372
    -1
  0
DIMSTYLE
105
70
330
A
100
AcDbSymbolTableRecord
100
AcDbDimStyleTableRecord
  2
AM_ISO$SF
 70
     0
  4
"
 41
2.5
 42
1.0
 43
10.0
 44
1.0
 47
0.1
 48
0.1
 73
     0
 74
     0
 75
     1
 76
     1
 77
     1
 78
     8
 79
     2
140
3.5
141
0.0
143
0.0393701
146
0.71
147
1.5
172
     1
176
   256
177
   256
178
     2
271
     2
272
     3
274
     4
283
     0
284
     8
340
11
371
    -1
372
    -1
  0
DIMSTYLE
105
75
330
A
100
AcDbSymbolTableRecord
100
AcDbDimStyleTableRecord
  2
AM_ISO$SH
 70
     0
  4
"
 41
2.5
 42
1.0
 43
10.0
 44
1.0
 47
0.1
 48
0.1
 73
     0
 74
     0
 75
     1
 76
     1
 77
     1
 78
     8
 79
     2
140
3.5
141
0.0
143
0.0393701
144
2.0
146
0.71
147
1.5
172
     1
173
     1
176
   256
177
   256
178
     2
271
     2
272
     3
274
     4
283
     0
284
     8
340
11
341
71
343
71
371
    -1
372
    -1
  0
DIMSTYLE
105
31F5
102
{ACAD_REACTORS
330
554B
330
5575
330
56D7
330
5701
330
6F0A
330
6F34
330
6F5E
330
6FB9
330
6FE3
330
706D
330
70BB
330
70FB
330
7125
330
7153
330
724C
330
7276
330
72C7
330
72F2
330
7369
102
}
330
A
100
AcDbSymbolTableRecord
100
AcDbDimStyleTableRecord
  2
AM_ISO$0
 70
     0
  4
"
 41
3.0
 42
1.0
 43
15.0
 44
1.0
 47
0.1
 48
0.1
 73
     0
 74
     0
 77
     1
 78
     8
 79
     2
140
3.5
141
0.0
143
0.0393701
146
0.71
147
1.0
172
     1
176
   256
177
   256
178
   256
271
     2
272
     2
283
     0
284
     8
340
11
371
    -1
372
    -1
  0
DIMSTYLE
105
31F6
330
A
100
AcDbSymbolTableRecord
100
AcDbDimStyleTableRecord
  2
AM_ANSI$7
 70
     0
  4
"
 40
1.333333333333333
 41
3.0
 42
1.5
 43
9.0
 44
2.0
 47
0.1
 48
0.1
 73
     0
 74
     0
 77
     3
 78
     8
 79
     2
140
5.0
141
0.0
143
0.0393701
146
0.6
147
0.8
172
     1
176
   256
177
   256
178
   256
271
     2
272
     2
284
     8
340
31F3
371
    -1
372
    -1
  0
DIMSTYLE
105
3E6F
330
A
100
AcDbSymbolTableRecord
100
AcDbDimStyleTableRecord
  2
AM_ANSI
 70
     0
  4
"
 40
1.25
 41
3.0
 42
1.5
 43
9.0
 44
2.0
 47
0.1
 48
0.1
 73
     0
 74
     0
 77
     3
 78
     8
 79
     2
140
3.0
141
0.0
143
0.0393701
146
0.6
147
0.8
172
     1
176
   256
177
   256
178
   256
271
     2
272
     2
284
     8
340
31F3
371
    -1
372
    -1
  0
ENDTAB
  0
TABLE
  2
BLOCK_RECORD
  5
1
330
0
100
AcDbSymbolTable
 70
    26
  0
BLOCK_RECORD
  5
1F
102
{ACAD_XDICTIONARY
360
159
102
}
330
1
100
AcDbSymbolTableRecord
100
AcDbBlockTableRecord
  2
*Model_Space
340
22
  0
BLOCK_RECORD
  5
1B
102
{ACAD_XDICTIONARY
360
2CA5
102
}
330
1
100
AcDbSymbolTableRecord
100
AcDbBlockTableRecord
  2
*Paper_Space
340
1E
  0
BLOCK_RECORD
  5
23
102
{ACAD_XDICTIONARY
360
2CA7
102
}
330
1
100
AcDbSymbolTableRecord
100
AcDbBlockTableRecord
  2
*Paper_Space0
340
26
  0
BLOCK_RECORD
  5
71
330
1
100
AcDbSymbolTableRecord
100
AcDbBlockTableRecord
  2
GENAXEH
340
0
  0
BLOCK_RECORD
  5
30E8
330
1
100
AcDbSymbolTableRecord
100
AcDbBlockTableRecord
  2
_DotSmall
340
0
  0
BLOCK_RECORD
  5
5519
330
1
100
AcDbSymbolTableRecord
100
AcDbBlockTableRecord
  2
*D4
340
0
  0
BLOCK_RECORD
  5
554C
330
1
100
AcDbSymbolTableRecord
100
AcDbBlockTableRecord
  2
*D5
340
0
  0
BLOCK_RECORD
  5
5576
330
1
100
AcDbSymbolTableRecord
100
AcDbBlockTableRecord
  2
*D6
340
0
  0
BLOCK_RECORD
  5
56D8
330
1
100
AcDbSymbolTableRecord
100
AcDbBlockTableRecord
  2
*D7
340
0
  0
BLOCK_RECORD
  5
5702
330
1
100
AcDbSymbolTableRecord
100
AcDbBlockTableRecord
  2
*D8
340
0
  0
BLOCK_RECORD
  5
6F0B
330
1
100
AcDbSymbolTableRecord
100
AcDbBlockTableRecord
  2
*D9
340
0
  0
BLOCK_RECORD
  5
6F35
330
1
100
AcDbSymbolTableRecord
100
AcDbBlockTableRecord
  2
*D10
340
0
  0
BLOCK_RECORD
  5
6F5F
330
1
100
AcDbSymbolTableRecord
100
AcDbBlockTableRecord
  2
*D11
340
0
  0
BLOCK_RECORD
  5
6FBA
330
1
100
AcDbSymbolTableRecord
100
AcDbBlockTableRecord
  2
*D12
340
0
  0
BLOCK_RECORD
  5
6FE4
330
1
100
AcDbSymbolTableRecord
100
AcDbBlockTableRecord
  2
*D13
340
0
  0
BLOCK_RECORD
  5
7021
330
1
100
AcDbSymbolTableRecord
100
AcDbBlockTableRecord
  2
*D14
340
0
  0
BLOCK_RECORD
  5
706E
330
1
100
AcDbSymbolTableRecord
100
AcDbBlockTableRecord
  2
*D15
340
0
  0
BLOCK_RECORD
  5
70BC
330
1
100
AcDbSymbolTableRecord
100
AcDbBlockTableRecord
  2
*D16
340
0
  0
BLOCK_RECORD
  5
70FC
330
1
100
AcDbSymbolTableRecord
100
AcDbBlockTableRecord
  2
*D17
340
0
  0
BLOCK_RECORD
  5
7126
330
1
100
AcDbSymbolTableRecord
100
AcDbBlockTableRecord
  2
*D18
340
0
  0
BLOCK_RECORD
  5
7154
330
1
100
AcDbSymbolTableRecord
100
AcDbBlockTableRecord
  2
*D19
340
0
  0
BLOCK_RECORD
  5
724D
330
1
100
AcDbSymbolTableRecord
100
AcDbBlockTableRecord
  2
*D20
340
0
  0
BLOCK_RECORD
  5
7277
330
1
100
AcDbSymbolTableRecord
100
AcDbBlockTableRecord
  2
*D21
340
0
  0
BLOCK_RECORD
  5
72C8
330
1
100
AcDbSymbolTableRecord
100
AcDbBlockTableRecord
  2
*D22
340
0
  0
BLOCK_RECORD
  5
72F3
330
1
100
AcDbSymbolTableRecord
100
AcDbBlockTableRecord
  2
*D23
340
0
  0
BLOCK_RECORD
  5
731E
330
1
100
AcDbSymbolTableRecord
100
AcDbBlockTableRecord
  2
*D24
340
0
  0
BLOCK_RECORD
  5
736A
330
1
100
AcDbSymbolTableRecord
100
AcDbBlockTableRecord
  2
*D25
340
0
  0
ENDTAB
  0
ENDSEC
  0
SECTION
  2
BLOCKS
  0
BLOCK
  5
20
330
1F
100
AcDbEntity
  8
0
100
AcDbBlockBegin
  2
*Model_Space
 70
     0
 10
0.0
 20
0.0
 30
0.0
  3
*Model_Space
  1

  0
ENDBLK
  5
21
330
1F
100
AcDbEntity
  8
0
100
AcDbBlockEnd
  0
BLOCK
  5
1C
330
1B
100
AcDbEntity
 67
     1
  8
0
100
AcDbBlockBegin
  2
*Paper_Space
 70
     0
 10
0.0
 20
0.0
 30
0.0
  3
*Paper_Space
  1

  0
ENDBLK
  5
1D
330
1B
100
AcDbEntity
 67
     1
  8
0
100
AcDbBlockEnd
  0
BLOCK
  5
24
330
23
100
AcDbEntity
  8
0
100
AcDbBlockBegin
  2
*Paper_Space0
 70
     0
 10
0.0
 20
0.0
 30
0.0
  3
*Paper_Space0
  1

  0
ENDBLK
  5
25
330
23
100
AcDbEntity
  8
0
100
AcDbBlockEnd
  0
BLOCK
  5
73
330
71
100
AcDbEntity
  8
0
100
AcDbBlockBegin
  2
GENAXEH
 70
     0
 10
0.0
 20
0.0
 30
0.0
  3
GENAXEH
  1

  0
LINE
  5
72
330
71
100
AcDbEntity
  8
0
100
AcDbLine
 10
-1.0
 20
0.0
 30
0.0
 11
1.0
 21
0.0
 31
0.0
  0
ENDBLK
  5
74
330
71
100
AcDbEntity
  8
0
100
AcDbBlockEnd
  0
BLOCK
  5
30E9
330
30E8
100
AcDbEntity
  8
0
100
AcDbBlockBegin
  2
_DotSmall
 70
     0
 10
0.0
 20
0.0
 30
0.0
  3
_DotSmall
  1

  0
LWPOLYLINE
  5
30EA
330
30E8
100
AcDbEntity
  8
0
  6
ByBlock
 62
     0
100
AcDbPolyline
 90
        2
 70
     1
 43
0.5
 10
-0.0625
 20
0.0
 42
1.0
 10
0.0625
 20
0.0
 42
1.0
  0
ENDBLK
  5
30EB
330
30E8
100
AcDbEntity
  8
0
100
AcDbBlockEnd
  0
BLOCK
  5
5523
330
5519
100
AcDbEntity
  8
0
100
AcDbBlockBegin
  2
*D4
 70
     1
 10
0.0
 20
0.0
 30
0.0
  3
*D4
  1

  0
LINE
  5
71BF
330
5519
100
AcDbEntity
  8
AM_5
100
AcDbLine
 10
1630.950038065133
 20
457.9920312175243
 30
0.0
 11
1618.950038065133
 21
457.9920312175243
 31
0.0
  0
LINE
  5
71C0
330
5519
100
AcDbEntity
  8
AM_5
100
AcDbLine
 10
1630.950038065133
 20
471.9920312175243
 30
0.0
 11
1618.950038065133
 21
471.9920312175243
 31
0.0
  0
LINE
  5
71C1
330
5519
100
AcDbEntity
  8
AM_5
100
AcDbLine
 10
1620.450038065133
 20
461.4920312175243
 30
0.0
 11
1620.450038065133
 21
468.4920312175243
 31
0.0
  0
SOLID
  5
71C2
330
5519
100
AcDbEntity
  8
AM_5
100
AcDbTrace
 10
1619.8667047318
 20
461.4920312175243
 30
0.0
 11
1621.033371398466
 21
461.4920312175243
 31
0.0
 12
1620.450038065133
 22
457.9920312175243
 32
0.0
 13
1620.450038065133
 23
457.9920312175243
 33
0.0
  0
SOLID
  5
71C3
330
5519
100
AcDbEntity
  8
AM_5
100
AcDbTrace
 10
1619.8667047318
 20
468.4920312175243
 30
0.0
 11
1621.033371398466
 21
468.4920312175243
 31
0.0
 12
1620.450038065133
 22
471.9920312175243
 32
0.0
 13
1620.450038065133
 23
471.9920312175243
 33
0.0
  0
MTEXT
  5
71C4
330
5519
100
AcDbEntity
  8
AM_5
100
AcDbMText
 10
1617.700038065133
 20
464.9920312175246
 30
0.0
 40
3.5
 41
0.0
 71
     5
 72
     1
  1
%%c14
 11
0.0000000000000001
 21
1.0
 31
0.0
 73
     1
 44
1.0
1001
ACAD
1000
MTEXTBEGIN
1070
    73
1070
     1
1070
    44
1040
1.0
1070
    74
1070
     0
1000
MTEXTEND
  0
POINT
  5
71C5
330
5519
100
AcDbEntity
  8
Defpoints
 62
     0
100
AcDbPoint
 10
1632.450038065133
 20
457.9920312175243
 30
0.0
  0
POINT
  5
71C6
330
5519
100
AcDbEntity
  8
Defpoints
 62
     0
100
AcDbPoint
 10
1632.450038065133
 20
471.9920312175243
 30
0.0
  0
POINT
  5
71C7
330
5519
100
AcDbEntity
  8
Defpoints
 62
     0
100
AcDbPoint
 10
1620.450038065133
 20
471.9920312175243
 30
0.0
  0
ENDBLK
  5
5524
330
5519
100
AcDbEntity
  8
0
100
AcDbBlockEnd
  0
BLOCK
  5
5556
330
554C
100
AcDbEntity
  8
0
100
AcDbBlockBegin
  2
*D5
 70
     1
 10
0.0
 20
0.0
 30
0.0
  3
*D5
  1

  0
LINE
  5
71C8
330
554C
100
AcDbEntity
  8
AM_5
100
AcDbLine
 10
1639.450038065133
 20
472.4920312175243
 30
0.0
 11
1611.450038065133
 21
472.4920312175243
 31
0.0
  0
LINE
  5
71C9
330
554C
100
AcDbEntity
  8
AM_5
100
AcDbLine
 10
1639.450038065133
 20
457.4920312175243
 30
0.0
 11
1611.450038065133
 21
457.4920312175243
 31
0.0
  0
LINE
  5
71CA
330
554C
100
AcDbEntity
  8
AM_5
100
AcDbLine
 10
1612.450038065133
 20
469.4920312175243
 30
0.0
 11
1612.450038065133
 21
460.4920312175243
 31
0.0
  0
SOLID
  5
71CB
330
554C
100
AcDbEntity
  8
AM_5
100
AcDbTrace
 10
1611.950038065133
 20
469.4920312175243
 30
0.0
 11
1612.950038065133
 21
469.4920312175243
 31
0.0
 12
1612.450038065133
 22
472.4920312175243
 32
0.0
 13
1612.450038065133
 23
472.4920312175243
 33
0.0
  0
SOLID
  5
71CC
330
554C
100
AcDbEntity
  8
AM_5
100
AcDbTrace
 10
1611.950038065133
 20
460.4920312175243
 30
0.0
 11
1612.950038065133
 21
460.4920312175243
 31
0.0
 12
1612.450038065133
 22
457.4920312175243
 32
0.0
 13
1612.450038065133
 23
457.4920312175243
 33
0.0
  0
MTEXT
  5
71CD
330
554C
100
AcDbEntity
  8
AM_5
100
AcDbMText
 10
1609.700038065133
 20
464.9920312175246
 30
0.0
 40
3.5
 41
0.0
 71
     5
 72
     1
  1
%%c15
 11
0.0000000000000001
 21
1.0
 31
0.0
 73
     1
 44
1.0
1001
ACAD
1000
MTEXTBEGIN
1070
    73
1070
     1
1070
    44
1040
1.0
1070
    74
1070
     0
1000
MTEXTEND
  0
POINT
  5
71CE
330
554C
100
AcDbEntity
  8
Defpoints
 62
     0
100
AcDbPoint
 10
1640.450038065133
 20
472.4920312175243
 30
0.0
  0
POINT
  5
71CF
330
554C
100
AcDbEntity
  8
Defpoints
 62
     0
100
AcDbPoint
 10
1640.450038065133
 20
457.4920312175243
 30
0.0
  0
POINT
  5
71D0
330
554C
100
AcDbEntity
  8
Defpoints
 62
     0
100
AcDbPoint
 10
1612.450038065133
 20
457.4920312175243
 30
0.0
  0
ENDBLK
  5
5557
330
554C
100
AcDbEntity
  8
0
100
AcDbBlockEnd
  0
BLOCK
  5
5580
330
5576
100
AcDbEntity
  8
0
100
AcDbBlockBegin
  2
*D6
 70
     1
 10
0.0
 20
0.0
 30
0.0
  3
*D6
  1

  0
LINE
  5
71D1
330
5576
100
AcDbEntity
  8
AM_5
100
AcDbLine
 10
1647.450038065133
 20
444.9920312175243
 30
0.0
 11
1603.450038065133
 21
444.9920312175243
 31
0.0
  0
LINE
  5
71D2
330
5576
100
AcDbEntity
  8
AM_5
100
AcDbLine
 10
1647.450038065133
 20
484.9920312175243
 30
0.0
 11
1603.450038065133
 21
484.9920312175243
 31
0.0
  0
LINE
  5
71D3
330
5576
100
AcDbEntity
  8
AM_5
100
AcDbLine
 10
1604.450038065133
 20
447.9920312175243
 30
0.0
 11
1604.450038065133
 21
481.9920312175244
 31
0.0
  0
SOLID
  5
71D4
330
5576
100
AcDbEntity
  8
AM_5
100
AcDbTrace
 10
1603.950038065133
 20
447.9920312175243
 30
0.0
 11
1604.950038065133
 21
447.9920312175243
 31
0.0
 12
1604.450038065133
 22
444.9920312175243
 32
0.0
 13
1604.450038065133
 23
444.9920312175243
 33
0.0
  0
SOLID
  5
71D5
330
5576
100
AcDbEntity
  8
AM_5
100
AcDbTrace
 10
1603.950038065133
 20
481.9920312175244
 30
0.0
 11
1604.950038065133
 21
481.9920312175244
 31
0.0
 12
1604.450038065133
 22
484.9920312175243
 32
0.0
 13
1604.450038065133
 23
484.9920312175243
 33
0.0
  0
MTEXT
  5
71D6
330
5576
100
AcDbEntity
  8
AM_5
100
AcDbMText
 10
1601.700038065133
 20
464.9920312175246
 30
0.0
 40
3.5
 41
0.0
 71
     5
 72
     1
  1
%%c40
 11
0.0000000000000001
 21
1.0
 31
0.0
 73
     1
 44
1.0
1001
ACAD
1000
MTEXTBEGIN
1070
    73
1070
     1
1070
    44
1040
1.0
1070
    74
1070
     0
1000
MTEXTEND
  0
POINT
  5
71D7
330
5576
100
AcDbEntity
  8
Defpoints
 62
     0
100
AcDbPoint
 10
1648.450038065133
 20
444.9920312175243
 30
0.0
  0
POINT
  5
71D8
330
5576
100
AcDbEntity
  8
Defpoints
 62
     0
100
AcDbPoint
 10
1648.450038065133
 20
484.9920312175243
 30
0.0
  0
POINT
  5
71D9
330
5576
100
AcDbEntity
  8
Defpoints
 62
     0
100
AcDbPoint
 10
1604.450038065133
 20
484.9920312175243
 30
0.0
  0
ENDBLK
  5
5581
330
5576
100
AcDbEntity
  8
0
100
AcDbBlockEnd
  0
BLOCK
  5
56E2
330
56D8
100
AcDbEntity
  8
0
100
AcDbBlockBegin
  2
*D7
 70
     1
 10
0.0
 20
0.0
 30
0.0
  3
*D7
  1

  0
LINE
  5
71DA
330
56D8
100
AcDbEntity
  8
AM_5
100
AcDbLine
 10
1632.450038065133
 20
456.9920312175243
 30
0.0
 11
1632.450038065133
 21
431.9920302175243
 31
0.0
  0
LINE
  5
71DB
330
56D8
100
AcDbEntity
  8
AM_5
100
AcDbLine
 10
1647.450038065133
 20
444.9920312175243
 30
0.0
 11
1647.450038065133
 21
431.9920302175243
 31
0.0
  0
LINE
  5
71DC
330
56D8
100
AcDbEntity
  8
AM_5
100
AcDbLine
 10
1635.450038065133
 20
432.9920302175243
 30
0.0
 11
1644.450038065133
 21
432.9920302175243
 31
0.0
  0
SOLID
  5
71DD
330
56D8
100
AcDbEntity
  8
AM_5
100
AcDbTrace
 10
1635.450038065133
 20
433.4920302175243
 30
0.0
 11
1635.450038065133
 21
432.4920302175243
 31
0.0
 12
1632.450038065133
 22
432.9920302175243
 32
0.0
 13
1632.450038065133
 23
432.9920302175243
 33
0.0
  0
SOLID
  5
71DE
330
56D8
100
AcDbEntity
  8
AM_5
100
AcDbTrace
 10
1644.450038065133
 20
433.4920302175243
 30
0.0
 11
1644.450038065133
 21
432.4920302175243
 31
0.0
 12
1647.450038065133
 22
432.9920302175243
 32
0.0
 13
1647.450038065133
 23
432.9920302175243
 33
0.0
  0
MTEXT
  5
71DF
330
56D8
100
AcDbEntity
  8
AM_5
100
AcDbMText
 10
1639.950038065133
 20
435.7420302175243
 30
0.0
 40
3.5
 41
0.0
 71
     5
 72
     1
  1
15
 73
     1
 44
1.0
1001
ACAD
1000
MTEXTBEGIN
1070
    73
1070
     1
1070
    44
1040
1.0
1070
    74
1070
     0
1000
MTEXTEND
  0
POINT
  5
71E0
330
56D8
100
AcDbEntity
  8
Defpoints
 62
     0
100
AcDbPoint
 10
1632.450038065133
 20
457.9920312175243
 30
0.0
  0
POINT
  5
71E1
330
56D8
100
AcDbEntity
  8
Defpoints
 62
     0
100
AcDbPoint
 10
1647.450038065133
 20
445.9920312175243
 30
0.0
  0
POINT
  5
71E2
330
56D8
100
AcDbEntity
  8
Defpoints
 62
     0
100
AcDbPoint
 10
1647.450038065133
 20
432.9920302175243
 30
0.0
  0
ENDBLK
  5
56E3
330
56D8
100
AcDbEntity
  8
0
100
AcDbBlockEnd
  0
BLOCK
  5
570C
330
5702
100
AcDbEntity
  8
0
100
AcDbBlockBegin
  2
*D8
 70
     1
 10
0.0
 20
0.0
 30
0.0
  3
*D8
  1

  0
LINE
  5
71E3
330
5702
100
AcDbEntity
  8
AM_5
100
AcDbLine
 10
1632.450038065133
 20
456.9920312175243
 30
0.0
 11
1632.450038065133
 21
419.1948872588246
 31
0.0
  0
LINE
  5
71E4
330
5702
100
AcDbEntity
  8
AM_5
100
AcDbLine
 10
1713.450038065133
 20
438.9920312175243
 30
0.0
 11
1713.450038065133
 21
419.1948872588246
 31
0.0
  0
LINE
  5
71E5
330
5702
100
AcDbEntity
  8
AM_5
100
AcDbLine
 10
1635.450038065133
 20
420.1948872588246
 30
0.0
 11
1710.450038065133
 21
420.1948872588246
 31
0.0
  0
SOLID
  5
71E6
330
5702
100
AcDbEntity
  8
AM_5
100
AcDbTrace
 10
1635.450038065133
 20
420.6948872588246
 30
0.0
 11
1635.450038065133
 21
419.6948872588246
 31
0.0
 12
1632.450038065133
 22
420.1948872588246
 32
0.0
 13
1632.450038065133
 23
420.1948872588246
 33
0.0
  0
SOLID
  5
71E7
330
5702
100
AcDbEntity
  8
AM_5
100
AcDbTrace
 10
1710.450038065133
 20
420.6948872588246
 30
0.0
 11
1710.450038065133
 21
419.6948872588246
 31
0.0
 12
1713.450038065133
 22
420.1948872588246
 32
0.0
 13
1713.450038065133
 23
420.1948872588246
 33
0.0
  0
MTEXT
  5
71E8
330
5702
100
AcDbEntity
  8
AM_5
100
AcDbMText
 10
1672.950038065133
 20
422.9448872588246
 30
0.0
 40
3.5
 41
0.0
 71
     5
 72
     1
  1
81
 73
     1
 44
1.0
1001
ACAD
1000
MTEXTBEGIN
1070
    73
1070
     1
1070
    44
1040
1.0
1070
    74
1070
     0
1000
MTEXTEND
  0
POINT
  5
71E9
330
5702
100
AcDbEntity
  8
Defpoints
 62
     0
100
AcDbPoint
 10
1632.450038065133
 20
457.9920312175243
 30
0.0
  0
POINT
  5
71EA
330
5702
100
AcDbEntity
  8
Defpoints
 62
     0
100
AcDbPoint
 10
1713.450038065133
 20
439.9920312175244
 30
0.0
  0
POINT
  5
71EB
330
5702
100
AcDbEntity
  8
Defpoints
 62
     0
100
AcDbPoint
 10
1713.450038065133
 20
420.1948872588246
 30
0.0
  0
ENDBLK
  5
570D
330
5702
100
AcDbEntity
  8
0
100
AcDbBlockEnd
  0
BLOCK
  5
6F15
330
6F0B
100
AcDbEntity
  8
0
100
AcDbBlockBegin
  2
*D9
 70
     1
 10
0.0
 20
0.0
 30
0.0
  3
*D9
  1

  0
LINE
  5
71EC
330
6F0B
100
AcDbEntity
  8
AM_5
100
AcDbLine
 10
1719.501488650688
 20
313.080476289242
 30
0.0
 11
1704.501488650688
 21
313.080476289242
 31
0.0
  0
LINE
  5
71ED
330
6F0B
100
AcDbEntity
  8
AM_5
100
AcDbLine
 10
1719.501488650688
 20
263.080476289242
 30
0.0
 11
1704.501488650688
 21
263.080476289242
 31
0.0
  0
LINE
  5
71EE
330
6F0B
100
AcDbEntity
  8
AM_5
100
AcDbLine
 10
1705.501488650688
 20
310.080476289242
 30
0.0
 11
1705.501488650688
 21
266.080476289242
 31
0.0
  0
SOLID
  5
71EF
330
6F0B
100
AcDbEntity
  8
AM_5
100
AcDbTrace
 10
1705.001488650688
 20
310.080476289242
 30
0.0
 11
1706.001488650688
 21
310.080476289242
 31
0.0
 12
1705.501488650688
 22
313.080476289242
 32
0.0
 13
1705.501488650688
 23
313.080476289242
 33
0.0
  0
SOLID
  5
71F0
330
6F0B
100
AcDbEntity
  8
AM_5
100
AcDbTrace
 10
1705.001488650688
 20
266.080476289242
 30
0.0
 11
1706.001488650688
 21
266.080476289242
 31
0.0
 12
1705.501488650688
 22
263.080476289242
 32
0.0
 13
1705.501488650688
 23
263.080476289242
 33
0.0
  0
MTEXT
  5
71F1
330
6F0B
100
AcDbEntity
  8
AM_5
100
AcDbMText
 10
1702.751488650688
 20
288.0804762892422
 30
0.0
 40
3.5
 41
0.0
 71
     5
 72
     1
  1
50
 11
0.0000000000000001
 21
1.0
 31
0.0
 73
     1
 44
1.0
1001
ACAD
1000
MTEXTBEGIN
1070
    73
1070
     1
1070
    44
1040
1.0
1070
    74
1070
     0
1000
MTEXTEND
  0
POINT
  5
71F2
330
6F0B
100
AcDbEntity
  8
Defpoints
 62
     0
100
AcDbPoint
 10
1720.501488650688
 20
313.080476289242
 30
0.0
  0
POINT
  5
71F3
330
6F0B
100
AcDbEntity
  8
Defpoints
 62
     0
100
AcDbPoint
 10
1720.501488650688
 20
263.080476289242
 30
0.0
  0
POINT
  5
71F4
330
6F0B
100
AcDbEntity
  8
Defpoints
 62
     0
100
AcDbPoint
 10
1705.501488650688
 20
263.080476289242
 30
0.0
  0
ENDBLK
  5
6F16
330
6F0B
100
AcDbEntity
  8
0
100
AcDbBlockEnd
  0
BLOCK
  5
6F3F
330
6F35
100
AcDbEntity
  8
0
100
AcDbBlockBegin
  2
*D10
 70
     1
 10
0.0
 20
0.0
 30
0.0
  3
*D10
  1

  0
LINE
  5
71F5
330
6F35
100
AcDbEntity
  8
AM_5
100
AcDbLine
 10
1717.501488650688
 20
302.3595324806033
 30
0.0
 11
1717.501488650688
 21
326.080476289242
 31
0.0
  0
LINE
  5
71F6
330
6F35
100
AcDbEntity
  8
AM_5
100
AcDbLine
 10
1763.501488650688
 20
302.3595324806033
 30
0.0
 11
1763.501488650688
 21
326.080476289242
 31
0.0
  0
LINE
  5
71F7
330
6F35
100
AcDbEntity
  8
AM_5
100
AcDbLine
 10
1720.501488650688
 20
325.080476289242
 30
0.0
 11
1760.501488650688
 21
325.080476289242
 31
0.0
  0
SOLID
  5
71F8
330
6F35
100
AcDbEntity
  8
AM_5
100
AcDbTrace
 10
1720.501488650688
 20
325.580476289242
 30
0.0
 11
1720.501488650688
 21
324.580476289242
 31
0.0
 12
1717.501488650688
 22
325.080476289242
 32
0.0
 13
1717.501488650688
 23
325.080476289242
 33
0.0
  0
SOLID
  5
71F9
330
6F35
100
AcDbEntity
  8
AM_5
100
AcDbTrace
 10
1760.501488650688
 20
325.580476289242
 30
0.0
 11
1760.501488650688
 21
324.580476289242
 31
0.0
 12
1763.501488650688
 22
325.080476289242
 32
0.0
 13
1763.501488650688
 23
325.080476289242
 33
0.0
  0
MTEXT
  5
71FA
330
6F35
100
AcDbEntity
  8
AM_5
100
AcDbMText
 10
1740.501488650688
 20
327.830476289242
 30
0.0
 40
3.5
 41
0.0
 71
     5
 72
     1
  1
46
 73
     1
 44
1.0
1001
ACAD
1000
MTEXTBEGIN
1070
    73
1070
     1
1070
    44
1040
1.0
1070
    74
1070
     0
1000
MTEXTEND
  0
POINT
  5
71FB
330
6F35
100
AcDbEntity
  8
Defpoints
 62
     0
100
AcDbPoint
 10
1717.501488650688
 20
301.3595324806033
 30
0.0
  0
POINT
  5
71FC
330
6F35
100
AcDbEntity
  8
Defpoints
 62
     0
100
AcDbPoint
 10
1763.501488650688
 20
301.3595324806033
 30
0.0
  0
POINT
  5
71FD
330
6F35
100
AcDbEntity
  8
Defpoints
 62
     0
100
AcDbPoint
 10
1763.501488650688
 20
325.080476289242
 30
0.0
  0
ENDBLK
  5
6F40
330
6F35
100
AcDbEntity
  8
0
100
AcDbBlockEnd
  0
BLOCK
  5
6F69
330
6F5F
100
AcDbEntity
  8
0
100
AcDbBlockBegin
  2
*D11
 70
     1
 10
0.0
 20
0.0
 30
0.0
  3
*D11
  1

  0
LINE
  5
71FE
330
6F5F
100
AcDbEntity
  8
AM_5
100
AcDbLine
 10
1720.501488650688
 20
262.080476289242
 30
0.0
 11
1720.501488650688
 21
242.0797832567953
 31
0.0
  0
LINE
  5
71FF
330
6F5F
100
AcDbEntity
  8
AM_5
100
AcDbLine
 10
1760.501488650688
 20
262.080476289242
 30
0.0
 11
1760.501488650688
 21
242.0797832567953
 31
0.0
  0
LINE
  5
7200
330
6F5F
100
AcDbEntity
  8
AM_5
100
AcDbLine
 10
1723.501488650688
 20
243.0797832567953
 30
0.0
 11
1757.501488650688
 21
243.0797832567953
 31
0.0
  0
SOLID
  5
7201
330
6F5F
100
AcDbEntity
  8
AM_5
100
AcDbTrace
 10
1723.501488650688
 20
243.5797832567953
 30
0.0
 11
1723.501488650688
 21
242.5797832567953
 31
0.0
 12
1720.501488650688
 22
243.0797832567953
 32
0.0
 13
1720.501488650688
 23
243.0797832567953
 33
0.0
  0
SOLID
  5
7202
330
6F5F
100
AcDbEntity
  8
AM_5
100
AcDbTrace
 10
1757.501488650688
 20
243.5797832567953
 30
0.0
 11
1757.501488650688
 21
242.5797832567953
 31
0.0
 12
1760.501488650688
 22
243.0797832567953
 32
0.0
 13
1760.501488650688
 23
243.0797832567953
 33
0.0
  0
MTEXT
  5
7203
330
6F5F
100
AcDbEntity
  8
AM_5
100
AcDbMText
 10
1740.501488650688
 20
245.8297832567953
 30
0.0
 40
3.5
 41
0.0
 71
     5
 72
     1
  1
40
 73
     1
 44
1.0
1001
ACAD
1000
MTEXTBEGIN
1070
    73
1070
     1
1070
    44
1040
1.0
1070
    74
1070
     0
1000
MTEXTEND
  0
POINT
  5
7204
330
6F5F
100
AcDbEntity
  8
Defpoints
 62
     0
100
AcDbPoint
 10
1720.501488650688
 20
263.080476289242
 30
0.0
  0
POINT
  5
7205
330
6F5F
100
AcDbEntity
  8
Defpoints
 62
     0
100
AcDbPoint
 10
1760.501488650688
 20
263.080476289242
 30
0.0
  0
POINT
  5
7206
330
6F5F
100
AcDbEntity
  8
Defpoints
 62
     0
100
AcDbPoint
 10
1760.501488650688
 20
243.0797832567953
 30
0.0
  0
ENDBLK
  5
6F6A
330
6F5F
100
AcDbEntity
  8
0
100
AcDbBlockEnd
  0
BLOCK
  5
6FC4
330
6FBA
100
AcDbEntity
  8
0
100
AcDbBlockBegin
  2
*D12
 70
     1
 10
0.0
 20
0.0
 30
0.0
  3
*D12
  1

  0
LINE
  5
7207
330
6FBA
100
AcDbEntity
  8
AM_5
100
AcDbLine
 10
1829.875628822868
 20
265.080476289242
 30
0.0
 11
1829.875628822868
 21
242.0797832567952
 31
0.0
  0
LINE
  5
7208
330
6FBA
100
AcDbEntity
  8
AM_5
100
AcDbLine
 10
1839.875628822868
 20
265.080476289242
 30
0.0
 11
1839.875628822868
 21
242.0797832567952
 31
0.0
  0
LINE
  5
7209
330
6FBA
100
AcDbEntity
  8
AM_5
100
AcDbLine
 10
1832.875628822868
 20
243.0797832567952
 30
0.0
 11
1836.875628822868
 21
243.0797832567952
 31
0.0
  0
SOLID
  5
720A
330
6FBA
100
AcDbEntity
  8
AM_5
100
AcDbTrace
 10
1832.875628822868
 20
243.5797832567952
 30
0.0
 11
1832.875628822868
 21
242.5797832567952
 31
0.0
 12
1829.875628822868
 22
243.0797832567952
 32
0.0
 13
1829.875628822868
 23
243.0797832567952
 33
0.0
  0
SOLID
  5
720B
330
6FBA
100
AcDbEntity
  8
AM_5
100
AcDbTrace
 10
1836.875628822868
 20
243.5797832567952
 30
0.0
 11
1836.875628822868
 21
242.5797832567952
 31
0.0
 12
1839.875628822868
 22
243.0797832567952
 32
0.0
 13
1839.875628822868
 23
243.0797832567952
 33
0.0
  0
MTEXT
  5
720C
330
6FBA
100
AcDbEntity
  8
AM_5
100
AcDbMText
 10
1834.875628822868
 20
245.8297832567952
 30
0.0
 40
3.5
 41
0.0
 71
     5
 72
     1
  1
10
 73
     1
 44
1.0
1001
ACAD
1000
MTEXTBEGIN
1070
    73
1070
     1
1070
    44
1040
1.0
1070
    74
1070
     0
1000
MTEXTEND
  0
POINT
  5
720D
330
6FBA
100
AcDbEntity
  8
Defpoints
 62
     0
100
AcDbPoint
 10
1829.875628822868
 20
266.080476289242
 30
0.0
  0
POINT
  5
720E
330
6FBA
100
AcDbEntity
  8
Defpoints
 62
     0
100
AcDbPoint
 10
1839.875628822868
 20
266.080476289242
 30
0.0
  0
POINT
  5
720F
330
6FBA
100
AcDbEntity
  8
Defpoints
 62
     0
100
AcDbPoint
 10
1839.875628822868
 20
243.0797832567952
 30
0.0
  0
ENDBLK
  5
6FC5
330
6FBA
100
AcDbEntity
  8
0
100
AcDbBlockEnd
  0
BLOCK
  5
6FF0
330
6FE4
100
AcDbEntity
  8
0
100
AcDbBlockBegin
  2
*D13
 70
     1
 10
0.0
 20
0.0
 30
0.0
  3
*D13
  1

  0
LINE
  5
7210
330
6FE4
100
AcDbEntity
  8
AM_5
100
AcDbLine
 10
1879.875628822868
 20
262.080476289242
 30
0.0
 11
1879.875628822868
 21
242.0797832567953
 31
0.0
  0
LINE
  5
7211
330
6FE4
100
AcDbEntity
  8
AM_5
100
AcDbLine
 10
1872.875628822869
 20
263.7804762892419
 30
0.0
 11
1872.875628822869
 21
242.0797832567953
 31
0.0
  0
LINE
  5
7212
330
6FE4
100
AcDbEntity
  8
AM_5
100
AcDbLine
 10
1882.875628822868
 20
243.0797832567953
 30
0.0
 11
1885.875628822869
 21
243.0797832567953
 31
0.0
  0
LINE
  5
7213
330
6FE4
100
AcDbEntity
  8
AM_5
100
AcDbLine
 10
1869.875628822869
 20
243.0797832567953
 30
0.0
 11
1866.875628822869
 21
243.0797832567953
 31
0.0
  0
LINE
  5
7214
330
6FE4
100
AcDbEntity
  8
AM_5
100
AcDbLine
 10
1879.875628822868
 20
243.0797832567953
 30
0.0
 11
1872.875628822869
 21
243.0797832567953
 31
0.0
  0
SOLID
  5
7215
330
6FE4
100
AcDbEntity
  8
AM_5
100
AcDbTrace
 10
1882.875628822868
 20
243.5797832567953
 30
0.0
 11
1882.875628822868
 21
242.5797832567953
 31
0.0
 12
1879.875628822868
 22
243.0797832567953
 32
0.0
 13
1879.875628822868
 23
243.0797832567953
 33
0.0
  0
SOLID
  5
7216
330
6FE4
100
AcDbEntity
  8
AM_5
100
AcDbTrace
 10
1869.875628822869
 20
243.5797832567953
 30
0.0
 11
1869.875628822869
 21
242.5797832567953
 31
0.0
 12
1872.875628822869
 22
243.0797832567953
 32
0.0
 13
1872.875628822869
 23
243.0797832567953
 33
0.0
  0
MTEXT
  5
7217
330
6FE4
100
AcDbEntity
  8
AM_5
100
AcDbMText
 10
1876.375628822868
 20
245.8297832567953
 30
0.0
 40
3.5
 41
0.0
 71
     5
 72
     1
  1
7
 73
     1
 44
1.0
1001
ACAD
1000
MTEXTBEGIN
1070
    73
1070
     1
1070
    44
1040
1.0
1070
    74
1070
     0
1000
MTEXTEND
  0
POINT
  5
7218
330
6FE4
100
AcDbEntity
  8
Defpoints
 62
     0
100
AcDbPoint
 10
1879.875628822868
 20
263.080476289242
 30
0.0
  0
POINT
  5
7219
330
6FE4
100
AcDbEntity
  8
Defpoints
 62
     0
100
AcDbPoint
 10
1872.875628822869
 20
264.780476289242
 30
0.0
  0
POINT
  5
721A
330
6FE4
100
AcDbEntity
  8
Defpoints
 62
     0
100
AcDbPoint
 10
1872.875628822869
 20
243.0797832567953
 30
0.0
  0
ENDBLK
  5
6FF1
330
6FE4
100
AcDbEntity
  8
0
100
AcDbBlockEnd
  0
BLOCK
  5
702A
330
7021
100
AcDbEntity
  8
0
100
AcDbBlockBegin
  2
*D14
 70
     1
 10
0.0
 20
0.0
 30
0.0
  3
*D14
  1

  0
LINE
  5
7233
330
7021
100
AcDbEntity
  8
AM_5
100
AcDbLine
 10
1875.142991686585
 20
312.4913315866446
 30
0.0
 11
1878.070912678069
 21
320.7698820114552
 31
0.0
  0
LINE
  5
7234
330
7021
100
AcDbEntity
  8
AM_5
100
AcDbLine
 10
1878.070912678069
 20
320.7698820114552
 30
0.0
 11
1904.709790630825
 21
320.7698820114552
 31
0.0
  0
SOLID
  5
7235
330
7021
100
AcDbEntity
  8
AM_5
100
AcDbTrace
 10
1874.593040864504
 20
312.6858357538753
 30
0.0
 11
1875.692942508667
 21
312.296827419414
 31
0.0
 12
1873.975966683201
 22
309.191626654158
 32
0.0
 13
1873.975966683201
 23
309.191626654158
 33
0.0
  0
MTEXT
  5
7236
330
7021
100
AcDbEntity
  8
AM_5
100
AcDbMText
 10
1891.890351654447
 20
323.520226499644
 30
0.0
 40
3.5
 41
0.0
 71
     5
 72
     1
  1
2-\U+22056.6 THRU
 73
     1
 44
1.0
1001
ACAD
1000
MTEXTBEGIN
1070
    73
1070
     1
1070
    44
1040
1.0
1070
    74
1070
     0
1000
MTEXTEND
  0
POINT
  5
7237
330
7021
100
AcDbEntity
  8
Defpoints
 62
     0
100
AcDbPoint
 10
1873.975966683201
 20
309.191626654158
 30
0.0
  0
POINT
  5
7238
330
7021
100
AcDbEntity
  8
Defpoints
 62
     0
100
AcDbPoint
 10
1871.775290962534
 20
302.9693259243254
 30
0.0
  0
ENDBLK
  5
702B
330
7021
100
AcDbEntity
  8
0
100
AcDbBlockEnd
  0
BLOCK
  5
7078
330
706E
100
AcDbEntity
  8
0
100
AcDbBlockBegin
  2
*D15
 70
     1
 10
0.0
 20
0.0
 30
0.0
  3
*D15
  1

  0
LINE
  5
7221
330
706E
100
AcDbEntity
  8
AM_5
100
AcDbLine
 10
1879.175628822869
 20
306.080476289242
 30
0.0
 11
1895.419500814425
 21
306.080476289242
 31
0.0
  0
LINE
  5
7222
330
706E
100
AcDbEntity
  8
AM_5
100
AcDbLine
 10
1879.175628822869
 20
270.080476289242
 30
0.0
 11
1895.419500814425
 21
270.080476289242
 31
0.0
  0
LINE
  5
7223
330
706E
100
AcDbEntity
  8
AM_5
100
AcDbLine
 10
1894.419500814425
 20
303.080476289242
 30
0.0
 11
1894.419500814425
 21
273.080476289242
 31
0.0
  0
SOLID
  5
7224
330
706E
100
AcDbEntity
  8
AM_5
100
AcDbTrace
 10
1893.919500814425
 20
303.080476289242
 30
0.0
 11
1894.919500814425
 21
303.080476289242
 31
0.0
 12
1894.419500814425
 22
306.080476289242
 32
0.0
 13
1894.419500814425
 23
306.080476289242
 33
0.0
  0
SOLID
  5
7225
330
706E
100
AcDbEntity
  8
AM_5
100
AcDbTrace
 10
1893.919500814425
 20
273.080476289242
 30
0.0
 11
1894.919500814425
 21
273.080476289242
 31
0.0
 12
1894.419500814425
 22
270.080476289242
 32
0.0
 13
1894.419500814425
 23
270.080476289242
 33
0.0
  0
MTEXT
  5
7226
330
706E
100
AcDbEntity
  8
AM_5
100
AcDbMText
 10
1891.669500814425
 20
288.0804762892422
 30
0.0
 40
3.5
 41
0.0
 71
     5
 72
     1
  1
36
 11
0.0000000000000001
 21
1.0
 31
0.0
 73
     1
 44
1.0
1001
ACAD
1000
MTEXTBEGIN
1070
    73
1070
     1
1070
    44
1040
1.0
1070
    74
1070
     0
1000
MTEXTEND
  0
POINT
  5
7227
330
706E
100
AcDbEntity
  8
Defpoints
 62
     0
100
AcDbPoint
 10
1878.175628822869
 20
306.080476289242
 30
0.0
  0
POINT
  5
7228
330
706E
100
AcDbEntity
  8
Defpoints
 62
     0
100
AcDbPoint
 10
1878.175628822869
 20
270.080476289242
 30
0.0
  0
POINT
  5
7229
330
706E
100
AcDbEntity
  8
Defpoints
 62
     0
100
AcDbPoint
 10
1894.419500814425
 20
270.080476289242
 30
0.0
  0
ENDBLK
  5
7079
330
706E
100
AcDbEntity
  8
0
100
AcDbBlockEnd
  0
BLOCK
  5
70C6
330
70BC
100
AcDbEntity
  8
0
100
AcDbBlockBegin
  2
*D16
 70
     1
 10
0.0
 20
0.0
 30
0.0
  3
*D16
  1

  0
LINE
  5
722A
330
70BC
100
AcDbEntity
  8
AM_5
100
AcDbLine
 10
2029.903793485279
 20
254.580476289242
 30
0.0
 11
2101.935521113597
 21
254.580476289242
 31
0.0
  0
LINE
  5
722B
330
70BC
100
AcDbEntity
  8
AM_5
100
AcDbLine
 10
2089.935521113597
 20
288.080476289242
 30
0.0
 11
2101.935521113597
 21
288.080476289242
 31
0.0
  0
LINE
  5
722C
330
70BC
100
AcDbEntity
  8
AM_5
100
AcDbLine
 10
2100.935521113597
 20
257.580476289242
 30
0.0
 11
2100.935521113597
 21
285.080476289242
 31
0.0
  0
SOLID
  5
722D
330
70BC
100
AcDbEntity
  8
AM_5
100
AcDbTrace
 10
2100.435521113597
 20
257.580476289242
 30
0.0
 11
2101.435521113597
 21
257.580476289242
 31
0.0
 12
2100.935521113597
 22
254.580476289242
 32
0.0
 13
2100.935521113597
 23
254.580476289242
 33
0.0
  0
SOLID
  5
722E
330
70BC
100
AcDbEntity
  8
AM_5
100
AcDbTrace
 10
2100.435521113597
 20
285.080476289242
 30
0.0
 11
2101.435521113597
 21
285.080476289242
 31
0.0
 12
2100.935521113597
 22
288.080476289242
 32
0.0
 13
2100.935521113597
 23
288.080476289242
 33
0.0
  0
MTEXT
  5
722F
330
70BC
100
AcDbEntity
  8
AM_5
100
AcDbMText
 10
2098.010521113597
 20
271.3304762892424
 30
0.0
 40
3.5
 41
0.0
 71
     5
 72
     1
  1
(31)
 11
0.0000000000000001
 21
1.0
 31
0.0
 73
     1
 44
1.0
1001
ACAD
1000
MTEXTBEGIN
1070
    73
1070
     1
1070
    44
1040
1.0
1070
    74
1070
     0
1000
MTEXTEND
  0
POINT
  5
7230
330
70BC
100
AcDbEntity
  8
Defpoints
 62
     0
100
AcDbPoint
 10
2028.903793485279
 20
254.580476289242
 30
0.0
  0
POINT
  5
7231
330
70BC
100
AcDbEntity
  8
Defpoints
 62
     0
100
AcDbPoint
 10
2088.935521113597
 20
288.080476289242
 30
0.0
  0
POINT
  5
7232
330
70BC
100
AcDbEntity
  8
Defpoints
 62
     0
100
AcDbPoint
 10
2100.935521113597
 20
288.080476289242
 30
0.0
  0
ENDBLK
  5
70C7
330
70BC
100
AcDbEntity
  8
0
100
AcDbBlockEnd
  0
BLOCK
  5
7106
330
70FC
100
AcDbEntity
  8
0
100
AcDbBlockBegin
  2
*D17
 70
     1
 10
0.0
 20
0.0
 30
0.0
  3
*D17
  1

  0
LINE
  5
716E
330
70FC
100
AcDbEntity
  8
AM_5
100
AcDbLine
 10
1827.875628822868
 20
411.372578108167
 30
0.0
 11
1827.875628822868
 21
394.872578108167
 31
0.0
  0
LINE
  5
716F
330
70FC
100
AcDbEntity
  8
AM_5
100
AcDbLine
 10
1842.875628822868
 20
406.8725781081671
 30
0.0
 11
1842.875628822868
 21
394.872578108167
 31
0.0
  0
LINE
  5
7170
330
70FC
100
AcDbEntity
  8
AM_5
100
AcDbLine
 10
1830.875628822868
 20
395.872578108167
 30
0.0
 11
1839.875628822868
 21
395.872578108167
 31
0.0
  0
SOLID
  5
7171
330
70FC
100
AcDbEntity
  8
AM_5
100
AcDbTrace
 10
1830.875628822868
 20
396.372578108167
 30
0.0
 11
1830.875628822868
 21
395.372578108167
 31
0.0
 12
1827.875628822868
 22
395.872578108167
 32
0.0
 13
1827.875628822868
 23
395.872578108167
 33
0.0
  0
SOLID
  5
7172
330
70FC
100
AcDbEntity
  8
AM_5
100
AcDbTrace
 10
1839.875628822868
 20
396.372578108167
 30
0.0
 11
1839.875628822868
 21
395.372578108167
 31
0.0
 12
1842.875628822868
 22
395.872578108167
 32
0.0
 13
1842.875628822868
 23
395.872578108167
 33
0.0
  0
MTEXT
  5
7173
330
70FC
100
AcDbEntity
  8
AM_5
100
AcDbMText
 10
1835.375628822868
 20
398.6225781081671
 30
0.0
 40
3.5
 41
0.0
 71
     5
 72
     1
  1
15
 73
     1
 44
1.0
1001
ACAD
1000
MTEXTBEGIN
1070
    73
1070
     1
1070
    44
1040
1.0
1070
    74
1070
     0
1000
MTEXTEND
  0
POINT
  5
7174
330
70FC
100
AcDbEntity
  8
Defpoints
 62
     0
100
AcDbPoint
 10
1827.875628822868
 20
412.372578108167
 30
0.0
  0
POINT
  5
7175
330
70FC
100
AcDbEntity
  8
Defpoints
 62
     0
100
AcDbPoint
 10
1842.875628822868
 20
407.872578108167
 30
0.0
  0
POINT
  5
7176
330
70FC
100
AcDbEntity
  8
Defpoints
 62
     0
100
AcDbPoint
 10
1842.875628822868
 20
395.872578108167
 30
0.0
  0
ENDBLK
  5
7107
330
70FC
100
AcDbEntity
  8
0
100
AcDbBlockEnd
  0
BLOCK
  5
7130
330
7126
100
AcDbEntity
  8
0
100
AcDbBlockBegin
  2
*D18
 70
     1
 10
0.0
 20
0.0
 30
0.0
  3
*D18
  1

  0
LINE
  5
7189
330
7126
100
AcDbEntity
  8
AM_5
100
AcDbLine
 10
1842.875628822868
 20
406.8725781081671
 30
0.0
 11
1842.875628822868
 21
394.872578108167
 31
0.0
  0
LINE
  5
718A
330
7126
100
AcDbEntity
  8
AM_5
100
AcDbLine
 10
1879.875628822868
 20
406.872578108167
 30
0.0
 11
1879.875628822868
 21
394.872578108167
 31
0.0
  0
LINE
  5
718B
330
7126
100
AcDbEntity
  8
AM_5
100
AcDbLine
 10
1845.875628822868
 20
395.872578108167
 30
0.0
 11
1876.875628822869
 21
395.872578108167
 31
0.0
  0
SOLID
  5
718C
330
7126
100
AcDbEntity
  8
AM_5
100
AcDbTrace
 10
1845.875628822868
 20
396.372578108167
 30
0.0
 11
1845.875628822868
 21
395.372578108167
 31
0.0
 12
1842.875628822868
 22
395.872578108167
 32
0.0
 13
1842.875628822868
 23
395.872578108167
 33
0.0
  0
SOLID
  5
718D
330
7126
100
AcDbEntity
  8
AM_5
100
AcDbTrace
 10
1876.875628822869
 20
396.372578108167
 30
0.0
 11
1876.875628822869
 21
395.372578108167
 31
0.0
 12
1879.875628822868
 22
395.872578108167
 32
0.0
 13
1879.875628822868
 23
395.872578108167
 33
0.0
  0
MTEXT
  5
718E
330
7126
100
AcDbEntity
  8
AM_5
100
AcDbMText
 10
1861.375628822868
 20
398.6225781081671
 30
0.0
 40
3.5
 41
0.0
 71
     5
 72
     1
  1
37
 73
     1
 44
1.0
1001
ACAD
1000
MTEXTBEGIN
1070
    73
1070
     1
1070
    44
1040
1.0
1070
    74
1070
     0
1000
MTEXTEND
  0
POINT
  5
718F
330
7126
100
AcDbEntity
  8
Defpoints
 62
     0
100
AcDbPoint
 10
1842.875628822868
 20
407.872578108167
 30
0.0
  0
POINT
  5
7190
330
7126
100
AcDbEntity
  8
Defpoints
 62
     0
100
AcDbPoint
 10
1879.875628822868
 20
407.872578108167
 30
0.0
  0
POINT
  5
7191
330
7126
100
AcDbEntity
  8
Defpoints
 62
     0
100
AcDbPoint
 10
1879.875628822868
 20
395.872578108167
 30
0.0
  0
ENDBLK
  5
7131
330
7126
100
AcDbEntity
  8
0
100
AcDbBlockEnd
  0
BLOCK
  5
715E
330
7154
100
AcDbEntity
  8
0
100
AcDbBlockBegin
  2
*D19
 70
     1
 10
0.0
 20
0.0
 30
0.0
  3
*D19
  1

  0
LINE
  5
72A9
330
7154
100
AcDbEntity
  8
AM_5
100
AcDbLine
 10
1815.875628822868
 20
414.6889933797776
 30
0.0
 11
1815.875628822868
 21
386.8725781081671
 31
0.0
  0
LINE
  5
72AA
330
7154
100
AcDbEntity
  8
AM_5
100
AcDbLine
 10
1842.875628822868
 20
406.8725781081671
 30
0.0
 11
1842.875628822868
 21
386.8725781081671
 31
0.0
  0
LINE
  5
72AB
330
7154
100
AcDbEntity
  8
AM_5
100
AcDbLine
 10
1818.875628822868
 20
387.8725781081671
 30
0.0
 11
1839.875628822868
 21
387.8725781081671
 31
0.0
  0
SOLID
  5
72AC
330
7154
100
AcDbEntity
  8
AM_5
100
AcDbTrace
 10
1818.875628822868
 20
388.3725781081671
 30
0.0
 11
1818.875628822868
 21
387.3725781081671
 31
0.0
 12
1815.875628822868
 22
387.8725781081671
 32
0.0
 13
1815.875628822868
 23
387.8725781081671
 33
0.0
  0
SOLID
  5
72AD
330
7154
100
AcDbEntity
  8
AM_5
100
AcDbTrace
 10
1839.875628822868
 20
388.3725781081671
 30
0.0
 11
1839.875628822868
 21
387.3725781081671
 31
0.0
 12
1842.875628822868
 22
387.8725781081671
 32
0.0
 13
1842.875628822868
 23
387.8725781081671
 33
0.0
  0
MTEXT
  5
72AE
330
7154
100
AcDbEntity
  8
AM_5
100
AcDbMText
 10
1829.375628822868
 20
390.6229225963561
 30
0.0
 40
3.5
 41
0.0
 71
     5
 72
     1
  1
27
 73
     1
 44
1.0
1001
ACAD
1000
MTEXTBEGIN
1070
    73
1070
     1
1070
    44
1040
1.0
1070
    74
1070
     0
1000
MTEXTEND
  0
POINT
  5
72AF
330
7154
100
AcDbEntity
  8
Defpoints
 62
     0
100
AcDbPoint
 10
1815.875628822868
 20
415.6889933797776
 30
0.0
  0
POINT
  5
72B0
330
7154
100
AcDbEntity
  8
Defpoints
 62
     0
100
AcDbPoint
 10
1842.875628822868
 20
407.872578108167
 30
0.0
  0
POINT
  5
72B1
330
7154
100
AcDbEntity
  8
Defpoints
 62
     0
100
AcDbPoint
 10
1842.875628822868
 20
387.8725781081671
 30
0.0
  0
ENDBLK
  5
715F
330
7154
100
AcDbEntity
  8
0
100
AcDbBlockEnd
  0
BLOCK
  5
7257
330
724D
100
AcDbEntity
  8
0
100
AcDbBlockBegin
  2
*D20
 70
     1
 10
0.0
 20
0.0
 30
0.0
  3
*D20
  1

  0
LINE
  5
72A0
330
724D
100
AcDbEntity
  8
AM_5
100
AcDbLine
 10
1842.875628822868
 20
406.8725781081671
 30
0.0
 11
1842.875628822868
 21
386.872578108167
 31
0.0
  0
LINE
  5
72A1
330
724D
100
AcDbEntity
  8
AM_5
100
AcDbLine
 10
2087.875628822869
 20
420.3143764910765
 30
0.0
 11
2087.875628822869
 21
386.872578108167
 31
0.0
  0
LINE
  5
72A2
330
724D
100
AcDbEntity
  8
AM_5
100
AcDbLine
 10
1845.875628822868
 20
387.872578108167
 30
0.0
 11
2084.875628822869
 21
387.872578108167
 31
0.0
  0
SOLID
  5
72A3
330
724D
100
AcDbEntity
  8
AM_5
100
AcDbTrace
 10
1845.875628822868
 20
388.372578108167
 30
0.0
 11
1845.875628822868
 21
387.372578108167
 31
0.0
 12
1842.875628822868
 22
387.872578108167
 32
0.0
 13
1842.875628822868
 23
387.872578108167
 33
0.0
  0
SOLID
  5
72A4
330
724D
100
AcDbEntity
  8
AM_5
100
AcDbTrace
 10
2084.875628822869
 20
388.372578108167
 30
0.0
 11
2084.875628822869
 21
387.372578108167
 31
0.0
 12
2087.875628822869
 22
387.872578108167
 32
0.0
 13
2087.875628822869
 23
387.872578108167
 33
0.0
  0
MTEXT
  5
72A5
330
724D
100
AcDbEntity
  8
AM_5
100
AcDbMText
 10
1965.375628822869
 20
390.622922596356
 30
0.0
 40
3.5
 41
0.0
 71
     5
 72
     1
  1
245
 73
     1
 44
1.0
1001
ACAD
1000
MTEXTBEGIN
1070
    73
1070
     1
1070
    44
1040
1.0
1070
    74
1070
     0
1000
MTEXTEND
  0
POINT
  5
72A6
330
724D
100
AcDbEntity
  8
Defpoints
 62
     0
100
AcDbPoint
 10
1842.875628822868
 20
407.872578108167
 30
0.0
  0
POINT
  5
72A7
330
724D
100
AcDbEntity
  8
Defpoints
 62
     0
100
AcDbPoint
 10
2087.875628822869
 20
421.3143764910765
 30
0.0
  0
POINT
  5
72A8
330
724D
100
AcDbEntity
  8
Defpoints
 62
     0
100
AcDbPoint
 10
2087.875628822869
 20
387.872578108167
 30
0.0
  0
ENDBLK
  5
7258
330
724D
100
AcDbEntity
  8
0
100
AcDbBlockEnd
  0
BLOCK
  5
7281
330
7277
100
AcDbEntity
  8
0
100
AcDbBlockBegin
  2
*D21
 70
     1
 10
0.0
 20
0.0
 30
0.0
  3
*D21
  1

  0
LINE
  5
7297
330
7277
100
AcDbEntity
  8
AM_5
100
AcDbLine
 10
1815.875628822868
 20
412.872578108167
 30
0.0
 11
1815.875628822868
 21
378.8725781081675
 31
0.0
  0
LINE
  5
7298
330
7277
100
AcDbEntity
  8
AM_5
100
AcDbLine
 10
2087.875628822869
 20
420.3143764910764
 30
0.0
 11
2087.875628822869
 21
378.8725781081675
 31
0.0
  0
LINE
  5
7299
330
7277
100
AcDbEntity
  8
AM_5
100
AcDbLine
 10
1818.875628822868
 20
379.8725781081675
 30
0.0
 11
2084.875628822869
 21
379.8725781081675
 31
0.0
  0
SOLID
  5
729A
330
7277
100
AcDbEntity
  8
AM_5
100
AcDbTrace
 10
1818.875628822868
 20
380.3725781081675
 30
0.0
 11
1818.875628822868
 21
379.3725781081675
 31
0.0
 12
1815.875628822868
 22
379.8725781081675
 32
0.0
 13
1815.875628822868
 23
379.8725781081675
 33
0.0
  0
SOLID
  5
729B
330
7277
100
AcDbEntity
  8
AM_5
100
AcDbTrace
 10
2084.875628822869
 20
380.3725781081675
 30
0.0
 11
2084.875628822869
 21
379.3725781081675
 31
0.0
 12
2087.875628822869
 22
379.8725781081675
 32
0.0
 13
2087.875628822869
 23
379.8725781081675
 33
0.0
  0
MTEXT
  5
729C
330
7277
100
AcDbEntity
  8
AM_5
100
AcDbMText
 10
1951.875628822868
 20
382.6229225963565
 30
0.0
 40
3.5
 41
0.0
 71
     5
 72
     1
  1
272
 73
     1
 44
1.0
1001
ACAD
1000
MTEXTBEGIN
1070
    73
1070
     1
1070
    44
1040
1.0
1070
    74
1070
     0
1000
MTEXTEND
  0
POINT
  5
729D
330
7277
100
AcDbEntity
  8
Defpoints
 62
     0
100
AcDbPoint
 10
1815.875628822868
 20
413.8725781081671
 30
0.0
  0
POINT
  5
729E
330
7277
100
AcDbEntity
  8
Defpoints
 62
     0
100
AcDbPoint
 10
2087.875628822869
 20
421.3143764910764
 30
0.0
  0
POINT
  5
729F
330
7277
100
AcDbEntity
  8
Defpoints
 62
     0
100
AcDbPoint
 10
2087.875628822869
 20
379.8725781081675
 30
0.0
  0
ENDBLK
  5
7282
330
7277
100
AcDbEntity
  8
0
100
AcDbBlockEnd
  0
BLOCK
  5
72D2
330
72C8
100
AcDbEntity
  8
0
100
AcDbBlockBegin
  2
*D22
 70
     1
 10
0.0
 20
0.0
 30
0.0
  3
*D22
  1

  0
LINE
  5
72D6
330
72C8
100
AcDbEntity
  8
AM_5
100
AcDbLine
 10
1879.875628822868
 20
448.872578108167
 30
0.0
 11
1879.875628822868
 21
460.8725781081671
 31
0.0
  0
LINE
  5
72D7
330
72C8
100
AcDbEntity
  8
AM_5
100
AcDbLine
 10
1856.875628822868
 20
438.1225781081671
 30
0.0
 11
1856.875628822868
 21
460.8725781081671
 31
0.0
  0
LINE
  5
72D8
330
72C8
100
AcDbEntity
  8
AM_5
100
AcDbLine
 10
1876.875628822869
 20
459.8725781081671
 30
0.0
 11
1859.875628822868
 21
459.8725781081671
 31
0.0
  0
SOLID
  5
72D9
330
72C8
100
AcDbEntity
  8
AM_5
100
AcDbTrace
 10
1876.875628822869
 20
460.3725781081671
 30
0.0
 11
1876.875628822869
 21
459.3725781081671
 31
0.0
 12
1879.875628822868
 22
459.8725781081671
 32
0.0
 13
1879.875628822868
 23
459.8725781081671
 33
0.0
  0
SOLID
  5
72DA
330
72C8
100
AcDbEntity
  8
AM_5
100
AcDbTrace
 10
1859.875628822868
 20
460.3725781081671
 30
0.0
 11
1859.875628822868
 21
459.3725781081671
 31
0.0
 12
1856.875628822868
 22
459.8725781081671
 32
0.0
 13
1856.875628822868
 23
459.8725781081671
 33
0.0
  0
MTEXT
  5
72DB
330
72C8
100
AcDbEntity
  8
AM_5
100
AcDbMText
 10
1868.375628822868
 20
462.6229225963561
 30
0.0
 40
3.5
 41
0.0
 71
     5
 72
     1
  1
23
 73
     1
 44
1.0
1001
ACAD
1000
MTEXTBEGIN
1070
    73
1070
     1
1070
    44
1040
1.0
1070
    74
1070
     0
1000
MTEXTEND
  0
POINT
  5
72DC
330
72C8
100
AcDbEntity
  8
Defpoints
 62
     0
100
AcDbPoint
 10
1879.875628822868
 20
447.8725781081671
 30
0.0
  0
POINT
  5
72DD
330
72C8
100
AcDbEntity
  8
Defpoints
 62
     0
100
AcDbPoint
 10
1856.875628822868
 20
437.1225781081671
 30
0.0
  0
POINT
  5
72DE
330
72C8
100
AcDbEntity
  8
Defpoints
 62
     0
100
AcDbPoint
 10
1856.875628822868
 20
459.8725781081671
 30
0.0
  0
ENDBLK
  5
72D3
330
72C8
100
AcDbEntity
  8
0
100
AcDbBlockEnd
  0
BLOCK
  5
72FD
330
72F3
100
AcDbEntity
  8
0
100
AcDbBlockBegin
  2
*D23
 70
     1
 10
0.0
 20
0.0
 30
0.0
  3
*D23
  1

  0
LINE
  5
730A
330
72F3
100
AcDbEntity
  8
AM_5
100
AcDbLine
 10
1815.875628822868
 20
412.872578108167
 30
0.0
 11
1802.875627822868
 21
412.872578108167
 31
0.0
  0
LINE
  5
730B
330
72F3
100
AcDbEntity
  8
AM_5
100
AcDbLine
 10
1815.875628822868
 20
442.8725781081671
 30
0.0
 11
1802.875627822868
 21
442.8725781081671
 31
0.0
  0
LINE
  5
730C
330
72F3
100
AcDbEntity
  8
AM_5
100
AcDbLine
 10
1803.875627822868
 20
415.872578108167
 30
0.0
 11
1803.875627822868
 21
439.8725781081671
 31
0.0
  0
SOLID
  5
730D
330
72F3
100
AcDbEntity
  8
AM_5
100
AcDbTrace
 10
1803.375627822868
 20
415.872578108167
 30
0.0
 11
1804.375627822868
 21
415.872578108167
 31
0.0
 12
1803.875627822868
 22
412.872578108167
 32
0.0
 13
1803.875627822868
 23
412.872578108167
 33
0.0
  0
SOLID
  5
730E
330
72F3
100
AcDbEntity
  8
AM_5
100
AcDbTrace
 10
1803.375627822868
 20
439.8725781081671
 30
0.0
 11
1804.375627822868
 21
439.8725781081671
 31
0.0
 12
1803.875627822868
 22
442.8725781081671
 32
0.0
 13
1803.875627822868
 23
442.8725781081671
 33
0.0
  0
MTEXT
  5
730F
330
72F3
100
AcDbEntity
  8
AM_5
100
AcDbMText
 10
1801.125627822868
 20
427.8725781081673
 30
0.0
 40
3.5
 41
0.0
 71
     5
 72
     1
  1
%%c30
 11
0.0000000000000001
 21
1.0
 31
0.0
 73
     1
 44
1.0
1001
ACAD
1000
MTEXTBEGIN
1070
    73
1070
     1
1070
    44
1040
1.0
1070
    74
1070
     0
1000
MTEXTEND
  0
POINT
  5
7310
330
72F3
100
AcDbEntity
  8
Defpoints
 62
     0
100
AcDbPoint
 10
1816.875628822868
 20
412.872578108167
 30
0.0
  0
POINT
  5
7311
330
72F3
100
AcDbEntity
  8
Defpoints
 62
     0
100
AcDbPoint
 10
1816.875628822868
 20
442.8725781081671
 30
0.0
  0
POINT
  5
7312
330
72F3
100
AcDbEntity
  8
Defpoints
 62
     0
100
AcDbPoint
 10
1803.875627822868
 20
442.8725781081671
 30
0.0
  0
ENDBLK
  5
72FE
330
72F3
100
AcDbEntity
  8
0
100
AcDbBlockEnd
  0
BLOCK
  5
7325
330
731E
100
AcDbEntity
  8
0
100
AcDbBlockBegin
  2
*D24
 70
     1
 10
0.0
 20
0.0
 30
0.0
  3
*D24
  1

  0
LINE
  5
73D3
330
731E
100
AcDbEntity
  8
AM_5
100
AcDbLine
 10
1864.885408221028
 20
436.578457385576
 30
0.0
 11
1885.078443973724
 21
458.5263941224816
 31
0.0
  0
LINE
  5
73D4
330
731E
100
AcDbEntity
  8
AM_5
100
AcDbLine
 10
1885.078443973724
 20
458.5263941224816
 30
0.0
 11
1911.277066020968
 21
458.5263941224817
 31
0.0
  0
SOLID
  5
73D5
330
731E
100
AcDbEntity
  8
AM_5
100
AcDbTrace
 10
1864.45612423299
 20
436.9734169219742
 30
0.0
 11
1865.314692209066
 21
436.1834978491775
 31
0.0
 12
1862.515651002638
 22
434.0027534573484
 32
0.0
 13
1862.515651002638
 23
434.0027534573484
 33
0.0
  0
MTEXT
  5
73D6
330
731E
100
AcDbEntity
  8
AM_5
100
AcDbMText
 10
1898.677754997346
 20
461.4513941224814
 30
0.0
 40
3.5
 41
0.0
 71
     5
 72
     1
  1
Rc3/8(PORT)
 73
     1
 44
1.0
1001
ACAD
1000
MTEXTBEGIN
1070
    73
1070
     1
1070
    44
1040
1.0
1070
    74
1070
     0
1000
MTEXTEND
  0
POINT
  5
73D7
330
731E
100
AcDbEntity
  8
Defpoints
 62
     0
100
AcDbPoint
 10
1862.515651002638
 20
434.0027534573484
 30
0.0
  0
POINT
  5
73D8
330
731E
100
AcDbEntity
  8
Defpoints
 62
     0
100
AcDbPoint
 10
1856.875628822868
 20
427.8725781081668
 30
0.0
  0
ENDBLK
  5
7326
330
731E
100
AcDbEntity
  8
0
100
AcDbBlockEnd
  0
BLOCK
  5
7374
330
736A
100
AcDbEntity
  8
0
100
AcDbBlockBegin
  2
*D25
 70
     1
 10
0.0
 20
0.0
 30
0.0
  3
*D25
  1

  0
LINE
  5
7381
330
736A
100
AcDbEntity
  8
AM_5
100
AcDbLine
 10
2052.375628822869
 20
411.8725781081669
 30
0.0
 11
2099.935522113597
 21
411.8725781081669
 31
0.0
  0
LINE
  5
7382
330
736A
100
AcDbEntity
  8
AM_5
100
AcDbLine
 10
2052.375628822869
 20
443.872578108167
 30
0.0
 11
2099.935522113597
 21
443.872578108167
 31
0.0
  0
LINE
  5
7383
330
736A
100
AcDbEntity
  8
AM_5
100
AcDbLine
 10
2098.935522113597
 20
414.872578108167
 30
0.0
 11
2098.935522113597
 21
440.872578108167
 31
0.0
  0
SOLID
  5
7384
330
736A
100
AcDbEntity
  8
AM_5
100
AcDbTrace
 10
2098.435522113597
 20
414.872578108167
 30
0.0
 11
2099.435522113596
 21
414.872578108167
 31
0.0
 12
2098.935522113597
 22
411.8725781081669
 32
0.0
 13
2098.935522113597
 23
411.8725781081669
 33
0.0
  0
SOLID
  5
7385
330
736A
100
AcDbEntity
  8
AM_5
100
AcDbTrace
 10
2098.435522113597
 20
440.872578108167
 30
0.0
 11
2099.435522113596
 21
440.872578108167
 31
0.0
 12
2098.935522113597
 22
443.872578108167
 32
0.0
 13
2098.935522113597
 23
443.872578108167
 33
0.0
  0
MTEXT
  5
7386
330
736A
100
AcDbEntity
  8
AM_5
100
AcDbMText
 10
2096.185177625407
 20
427.8725781081673
 30
0.0
 40
3.5
 41
0.0
 71
     5
 72
     1
  1
%%c32
 11
0.0000000000000001
 21
1.0
 31
0.0
 73
     1
 44
1.0
1001
ACAD
1000
MTEXTBEGIN
1070
    73
1070
     1
1070
    44
1040
1.0
1070
    74
1070
     0
1000
MTEXTEND
  0
POINT
  5
7387
330
736A
100
AcDbEntity
  8
Defpoints
 62
     0
100
AcDbPoint
 10
2051.375628822869
 20
411.8725781081669
 30
0.0
  0
POINT
  5
7388
330
736A
100
AcDbEntity
  8
Defpoints
 62
     0
100
AcDbPoint
 10
2051.375628822869
 20
443.872578108167
 30
0.0
  0
POINT
  5
7389
330
736A
100
AcDbEntity
  8
Defpoints
 62
     0
100
AcDbPoint
 10
2098.935522113597
 20
443.872578108167
 30
0.0
  0
ENDBLK
  5
7375
330
736A
100
AcDbEntity
  8
0
100
AcDbBlockEnd
  0
ENDSEC
  0
SECTION
  2
ENTITIES
  0
TEXT
  5
18EC
330
1F
100
AcDbEntity
  8
LOGO
  6
Continuous
 62
     7
100
AcDbText
 10
466.8848434021445
 20
-19.43800514375071
 30
0.0
 40
13.27245374673802
  1

  7
CHINESET
 72
     1
 11
466.8848434021445
 21
-12.8017782703817
 31
0.0
100
AcDbText
 73
     2
  0
TEXT
  5
3DA3
330
1F
100
AcDbEntity
  8
LOGO
 62
     7
100
AcDbText
 10
1662.09782385272
 20
154.3584971623028
 30
0.0
 40
6.047124271493212
  1
Order example:
 41
0.8
  7
CHINESET
100
AcDbText
  0
TEXT
  5
3DA4
330
1F
100
AcDbEntity
  8
LOGO
 62
     7
100
AcDbText
 10
1663.18272795471
 20
162.8715960635086
 30
0.0
 40
9.070686407239819
  1
訂購代號：
  7
CHINESET
100
AcDbText
  0
LINE
  5
3DA5
330
1F
100
AcDbEntity
  8
LOGO
 62
     4
100
AcDbLine
 10
1659.47032784609
 20
128.8736319465699
 30
0.0
 11
1659.47032784609
 21
174.2270639827693
 31
0.0
  0
TEXT
  5
3DA6
330
1F
100
AcDbEntity
  8
LOGO
  6
Continuous
100
AcDbText
 10
1575.983934021477
 20
137.7832452257846
 30
0.0
 40
6.803014805429865
  1
金器工業股份有限公司
  7
CHINESET
100
AcDbText
  0
TEXT
  5
3DA7
330
1F
100
AcDbEntity
  8
LOGO
  6
Continuous
100
AcDbText
 10
1563.488141734008
 20
130.9788975628299
 30
0.0
 40
4.535343203619909
  1
MINDMAN INDUSTRIAL CO., LTD.
 41
0.85
  7
CHINESET
100
AcDbText
  0
LINE
  5
3DA8
330
1F
100
AcDbEntity
  8
LOGO
 62
     4
100
AcDbLine
 10
1659.47032784609
 20
165.1563775755294
 30
0.0
 11
1592.951960859665
 21
165.1563775755294
 31
0.0
  0
LINE
  5
3DA9
330
1F
100
AcDbEntity
  8
LOGO
 62
     4
100
AcDbLine
 10
1659.47032784609
 20
156.0856911682896
 30
0.0
 11
1592.951960859665
 21
156.0856911682896
 31
0.0
  0
LINE
  5
3DAA
330
1F
100
AcDbEntity
  8
LOGO
 62
     4
100
AcDbLine
 10
1659.47032784609
 20
147.0150047610502
 30
0.0
 11
1559.692777366452
 21
147.0150047610502
 31
0.0
  0
LINE
  5
3DAB
330
1F
100
AcDbEntity
  8
LOGO
 62
     4
100
AcDbLine
 10
1592.951960859665
 20
147.0150047610502
 30
0.0
 11
1592.951960859665
 21
174.2270639827693
 31
0.0
  0
TEXT
  5
3DAC
330
1F
100
AcDbEntity
  8
LOGO
100
AcDbText
 10
1638.414125075787
 20
149.2826763628594
 30
0.0
 40
4.535343203619909
  1
mm
  7
CHINESET
 72
     1
 11
1644.029311899316
 21
151.5503479646693
 31
0.0
100
AcDbText
 73
     2
  0
TEXT
  5
3DAD
330
1F
100
AcDbEntity
  8
LOGO
100
AcDbText
 10
1636.038469111986
 20
167.4240491773392
 30
0.0
 40
4.535343203619909
  1
1 : 1
  7
CHINESET
 72
     1
 11
1644.029311899316
 21
169.6917207791491
 31
0.0
100
AcDbText
 73
     2
  0
LINE
  5
3DAE
330
1F
100
AcDbEntity
  8
LOGO
 62
     4
100
AcDbLine
 10
1629.234706488624
 20
147.0150047610502
 30
0.0
 11
1629.234706488624
 21
174.2270639827693
 31
0.0
  0
TEXT
  5
3DAF
330
1F
100
AcDbEntity
  8
LOGO
100
AcDbText
 10
1596.691594295864
 20
167.4262811375772
 30
297.238922023793
 40
4.535343203619909
  1
比例 Scale:
 41
0.9
  7
CHINESET
 72
     4
 11
1611.093333674144
 21
169.6917207791491
 31
297.238922023793
100
AcDbText
  0
TEXT
  5
3DB0
330
1F
100
AcDbEntity
  8
LOGO
100
AcDbText
 10
1596.430407120298
 20
158.4171596335688
 30
297.238922023793
 40
4.535343203619909
  1
投影  View:
 41
0.9
  7
CHINESET
 72
     4
 11
1611.093333674144
 21
160.6210343719092
 31
297.238922023793
100
AcDbText
  0
TEXT
  5
3DB1
330
1F
100
AcDbEntity
  8
LOGO
100
AcDbText
 10
1596.873817906724
 20
149.2826763628594
 30
297.238922023793
 40
4.535343203619909
  1
單位  Unit:
 41
0.9
  7
CHINESET
 72
     4
 11
1611.093333674144
 21
151.5503479646693
 31
297.238922023793
100
AcDbText
  0
LWPOLYLINE
  5
3DB2
330
1F
100
AcDbEntity
  8
LOGO
 62
     4
100
AcDbPolyline
 90
        4
 70
     1
 43
0.0
 10
1559.692777366452
 20
174.2270639827693
 10
2159.300860038325
 20
174.2270639827693
 10
2159.300860038325
 20
582.4736319465691
 10
1559.692777366452
 20
582.4736319465691
1001
GENIUS_GENREC_14
1002
{
1000
PYDIR
1011
1559.692777366452
1021
582.4736319465691
1031
0.0
1002
}
1002
{
1000
PXDIR
1011
2159.300860038325
1021
174.2270639827693
1031
0.0
1002
}
1002
{
1000
PORI
1011
1559.692777366452
1021
174.2270639827693
1031
0.0
1002
}
1002
{
1000
PINS
1011
1559.692777366452
1021
174.2270639827693
1031
0.0
1002
}
1002
{
1000
PINS2
1011
2159.300860038325
1021
582.4736319465691
1031
0.0
1002
}
1002
{
1000
C
1070
     1
1002
}
1001
GENIUS_GENODEF_13
1002
{
1000
HIER
1070
     0
1002
}
1002
{
1000
MANEDIT
1070
     0
1002
}
1002
{
1000
NOSEL
1070
     0
1002
}
1002
{
1000
BEHIND
1070
     0
1002
}
1002
{
1000
OTHER
1070
     0
1002
}
1002
{
1000
REACTOR
1002
}
1001
GENIUS_GENOBJ-N-REC_13
1002
{
1000
OWNER
1000
GEN
1002
}
  0
SOLID
  5
3DB3
330
1F
100
AcDbEntity
  8
LOGO
 62
     5
100
AcDbTrace
 10
1564.39826872693
 20
154.5543672817974
 30
0.0
 11
1566.359232120769
 21
154.554367281797
 31
0.0
 12
1574.541182832996
 22
173.1497098095871
 32
0.0
 13
1576.502146226837
 23
173.149709809586
 33
0.0
  0
SOLID
  5
3DB4
330
1F
100
AcDbEntity
  8
LOGO
 62
     5
100
AcDbTrace
 10
1567.170665249257
 20
154.5543672817974
 30
0.0
 11
1569.131628643096
 21
154.5543672817974
 31
0.0
 12
1576.502146226837
 22
171.6620824073632
 32
0.0
 13
1574.541182832996
 23
164.4718832966179
 33
0.0
  0
SOLID
  5
3DB5
330
1F
100
AcDbEntity
  8
LOGO
 62
     2
100
AcDbTrace
 10
1566.359232120769
 20
154.554367281797
 30
0.0
 11
1567.170665249257
 21
154.5543672817974
 31
0.0
 12
1576.502146226837
 22
173.149709809586
 32
0.0
 13
1577.313579355323
 23
173.149709809586
 33
0.0
  0
SOLID
  5
3DB6
330
1F
100
AcDbEntity
  8
LOGO
 62
     5
100
AcDbTrace
 10
1561.254363519475
 20
147.7924245444201
 30
0.0
 11
1561.930557793214
 21
147.7924245444201
 31
0.0
 12
1563.834773498816
 22
151.1733959131085
 32
0.0
 13
1564.510967772552
 23
151.1733959131085
 33
0.0
  0
SOLID
  5
3DB7
330
1F
100
AcDbEntity
  8
LOGO
 62
     5
100
AcDbTrace
 10
1563.834773498816
 20
151.1733959131085
 30
0.0
 11
1564.510967772552
 21
151.1733959131085
 31
0.0
 12
1563.834773498816
 22
147.7924245444201
 32
0.0
 13
1564.510967772552
 23
147.7924245444201
 33
0.0
  0
SOLID
  5
3DB8
330
1F
100
AcDbEntity
  8
LOGO
 62
     5
100
AcDbTrace
 10
1563.834773498816
 20
147.7924245444201
 30
0.0
 11
1564.510967772552
 21
147.7924245444201
 31
0.0
 12
1566.415183478157
 22
151.1733959131085
 32
0.0
 13
1567.091377751894
 23
151.1733959131085
 33
0.0
  0
SOLID
  5
3DB9
330
1F
100
AcDbEntity
  8
LOGO
 62
     5
100
AcDbTrace
 10
1566.415183478157
 20
151.1733959131085
 30
0.0
 11
1567.091377751894
 21
151.1733959131085
 31
0.0
 12
1566.415183478157
 22
147.7924245444201
 32
0.0
 13
1567.091377751894
 23
147.7924245444201
 33
0.0
  0
POLYLINE
  5
3DBA
330
1F
100
AcDbEntity
  8
LOGO
 62
     5
100
AcDb2dPolyline
 66
     1
 10
0.0
 20
0.0
 30
0.0
 40
0.6772779184072397
 41
0.6772779184072397
  0
VERTEX
  5
3DBB
330
3DBA
100
AcDbEntity
  8
LOGO
 62
     5
100
AcDbVertex
100
AcDb2dVertex
 10
1589.080985185365
 20
149.821007365633
 30
0.0
 42
1.0
  0
VERTEX
  5
3DBC
330
3DBA
100
AcDbEntity
  8
LOGO
 62
     5
100
AcDbVertex
100
AcDb2dVertex
 10
1587.049151430143
 20
149.821007365633
 30
0.0
 42
1.0
  0
SEQEND
  5
3DBD
330
3DBA
100
AcDbEntity
  8
LOGO
 62
     5
  0
POLYLINE
  5
3DBE
330
1F
100
AcDbEntity
  8
LOGO
 62
     5
100
AcDb2dPolyline
 66
     1
 10
0.0
 20
0.0
 30
0.0
 70
     1
  0
VERTEX
  5
3DBF
330
3DBE
100
AcDbEntity
  8
LOGO
 62
     5
100
AcDbVertex
100
AcDb2dVertex
 10
1583.219054425583
 20
149.4829102287638
 30
0.0
 42
1.000000057330635
  0
VERTEX
  5
3DC0
330
3DBE
100
AcDbEntity
  8
LOGO
 62
     5
100
AcDbVertex
100
AcDb2dVertex
 10
1585.247637246797
 20
149.4829102287638
 30
0.0
 42
1.000000057330635
  0
SEQEND
  5
3DC1
330
3DBE
100
AcDbEntity
  8
LOGO
 62
     5
  0
CIRCLE
  5
3DC2
330
1F
100
AcDbEntity
  8
LOGO
 62
     5
100
AcDbCircle
 10
1584.233345836191
 20
149.4829102287638
 30
0.0
 40
1.014291410606682
  0
POLYLINE
  5
3DC3
330
1F
100
AcDbEntity
  8
LOGO
 62
     5
100
AcDb2dPolyline
 66
     1
 10
0.0
 20
0.0
 30
0.0
 70
     1
 40
0.6772779184072397
 41
0.6772779184072397
  0
VERTEX
  5
3DC4
330
3DC3
100
AcDbEntity
  8
LOGO
 62
     5
100
AcDbVertex
100
AcDb2dVertex
 10
1582.878789999376
 20
149.4829102287638
 30
0.0
 42
1.0
  0
VERTEX
  5
3DC5
330
3DC3
100
AcDbEntity
  8
LOGO
 62
     5
100
AcDbVertex
100
AcDb2dVertex
 10
1585.587901673005
 20
149.4829102287638
 30
0.0
 42
1.0
  0
SEQEND
  5
3DC6
330
3DC3
100
AcDbEntity
  8
LOGO
 62
     5
  0
LINE
  5
3DC7
330
1F
100
AcDbEntity
  8
LOGO
100
AcDbLine
 10
1589.417456855228
 20
147.7924245444201
 30
0.0
 11
1589.417456855228
 21
149.821007365633
 31
0.0
  0
SOLID
  5
3DC8
330
1F
100
AcDbEntity
  8
LOGO
 62
     5
100
AcDbTrace
 10
1585.247569627372
 20
151.1733959131085
 30
0.0
 11
1585.923763901108
 21
151.1733959131085
 31
0.0
 12
1585.247569627372
 22
147.7924245444201
 32
0.0
 13
1585.923763901108
 23
147.7924245444201
 33
0.0
  0
SOLID
  5
3DC9
330
1F
100
AcDbEntity
  8
LOGO
 62
     5
100
AcDbTrace
 10
1586.712679760277
 20
147.7924245444201
 30
0.0
 11
1587.388874034016
 21
147.7924245444201
 31
0.0
 12
1586.712679760277
 22
151.1733959131085
 32
0.0
 13
1587.388874034016
 23
151.1733959131085
 33
0.0
  0
SOLID
  5
3DCA
330
1F
100
AcDbEntity
  8
LOGO
 62
     5
100
AcDbTrace
 10
1588.741262581492
 20
149.821007365633
 30
0.0
 11
1589.417456855228
 21
149.821007365633
 31
0.0
 12
1588.741262581492
 22
147.7924245444201
 32
0.0
 13
1589.417456855228
 23
147.7924245444201
 33
0.0
  0
SOLID
  5
3DCB
330
1F
100
AcDbEntity
  8
LOGO
 62
     5
100
AcDbTrace
 10
1586.645060332903
 20
171.6620824073632
 30
0.0
 11
1584.684096939065
 21
164.4718832966179
 31
0.0
 12
1586.645060332903
 22
154.554367281797
 32
0.0
 13
1584.684096939065
 23
154.554367281797
 33
0.0
  0
SOLID
  5
3DCC
330
1F
100
AcDbEntity
  8
LOGO
 62
     5
100
AcDbTrace
 10
1587.45649346139
 20
154.554367281797
 30
0.0
 11
1589.417456855228
 21
154.554367281797
 31
0.0
 12
1587.45649346139
 22
173.149709809586
 32
0.0
 13
1589.417456855228
 23
173.1497098095871
 33
0.0
  0
SOLID
  5
3DCD
330
1F
100
AcDbEntity
  8
LOGO
 62
     2
100
AcDbTrace
 10
1586.645060332903
 20
173.1497098095871
 30
0.0
 11
1587.45649346139
 21
173.149709809586
 31
0.0
 12
1586.645060332903
 22
154.554367281797
 32
0.0
 13
1587.45649346139
 23
154.554367281797
 33
0.0
  0
POLYLINE
  5
3DCE
330
1F
100
AcDbEntity
  8
LOGO
 62
     5
100
AcDb2dPolyline
 66
     1
 10
0.0
 20
0.0
 30
0.0
 40
0.6772779184072397
 41
0.6772779184072397
  0
VERTEX
  5
3DCF
330
3DCE
100
AcDbEntity
  8
LOGO
 62
     5
100
AcDbVertex
100
AcDb2dVertex
 10
1579.388822182172
 20
149.821007365633
 30
0.0
 42
1.0
  0
VERTEX
  5
3DD0
330
3DCE
100
AcDbEntity
  8
LOGO
 62
     5
100
AcDbVertex
100
AcDb2dVertex
 10
1577.356988426949
 20
149.821007365633
 30
0.0
 42
1.0
  0
SEQEND
  5
3DD1
330
3DCE
100
AcDbEntity
  8
LOGO
 62
     5
  0
POLYLINE
  5
3DD2
330
1F
100
AcDbEntity
  8
LOGO
 62
     5
100
AcDb2dPolyline
 66
     1
 10
0.0
 20
0.0
 30
0.0
 40
0.6772779184072397
 41
0.6772779184072397
  0
VERTEX
  5
3DD3
330
3DD2
100
AcDbEntity
  8
LOGO
 62
     5
100
AcDbVertex
100
AcDb2dVertex
 10
1581.417405003383
 20
149.821007365633
 30
0.0
 42
1.0
  0
VERTEX
  5
3DD4
330
3DD2
100
AcDbEntity
  8
LOGO
 62
     5
100
AcDbVertex
100
AcDb2dVertex
 10
1579.385571248162
 20
149.821007365633
 30
0.0
 42
1.0
  0
SEQEND
  5
3DD5
330
3DD2
100
AcDbEntity
  8
LOGO
 62
     5
  0
POLYLINE
  5
3DD6
330
1F
100
AcDbEntity
  8
LOGO
 62
     5
100
AcDb2dPolyline
 66
     1
 10
0.0
 20
0.0
 30
0.0
 40
0.6772779184072397
 41
0.6772779184072397
  0
VERTEX
  5
3DD7
330
3DD6
100
AcDbEntity
  8
LOGO
 62
     5
100
AcDbVertex
100
AcDb2dVertex
 10
1571.72524200019
 20
149.821007365633
 30
0.0
 42
1.0
  0
VERTEX
  5
3DD8
330
3DD6
100
AcDbEntity
  8
LOGO
 62
     5
100
AcDbVertex
100
AcDb2dVertex
 10
1569.693408244969
 20
149.821007365633
 30
0.0
 42
1.0
  0
SEQEND
  5
3DD9
330
3DD6
100
AcDbEntity
  8
LOGO
 62
     5
  0
SOLID
  5
3DDA
330
1F
100
AcDbEntity
  8
LOGO
 62
     5
100
AcDbTrace
 10
1569.356936575104
 20
151.1733959131085
 30
0.0
 11
1570.033130848841
 21
151.1733959131085
 31
0.0
 12
1569.356936575104
 22
147.7924245444201
 32
0.0
 13
1570.033130848841
 23
147.7924245444201
 33
0.0
  0
SOLID
  5
3DDB
330
1F
100
AcDbEntity
  8
LOGO
 62
     5
100
AcDbTrace
 10
1571.385519396318
 20
149.821007365633
 30
0.0
 11
1572.061713670056
 21
149.821007365633
 31
0.0
 12
1571.385519396318
 22
147.7924245444201
 32
0.0
 13
1572.061713670056
 23
147.7924245444201
 33
0.0
  0
POLYLINE
  5
3DDC
330
1F
100
AcDbEntity
  8
LOGO
 62
     5
100
AcDb2dPolyline
 66
     1
 10
0.0
 20
0.0
 30
0.0
 70
     1
 40
0.6772779184072397
 41
0.6772779184072397
  0
VERTEX
  5
3DDD
330
3DDC
100
AcDbEntity
  8
LOGO
 62
     5
100
AcDbVertex
100
AcDb2dVertex
 10
1573.186626996182
 20
149.4829102287638
 30
0.0
 42
1.0
  0
VERTEX
  5
3DDE
330
3DDC
100
AcDbEntity
  8
LOGO
 62
     5
100
AcDbVertex
100
AcDb2dVertex
 10
1575.895738669812
 20
149.4829102287638
 30
0.0
 42
1.0
  0
SEQEND
  5
3DDF
330
3DDC
100
AcDbEntity
  8
LOGO
 62
     5
  0
SOLID
  5
3DE0
330
1F
100
AcDbEntity
  8
LOGO
 62
     5
100
AcDbTrace
 10
1575.555406624177
 20
152.1876873237157
 30
0.0
 11
1576.231600897914
 21
152.1876873237157
 31
0.0
 12
1575.555406624177
 22
147.7924245444201
 32
0.0
 13
1576.231600897914
 23
147.7924245444201
 33
0.0
  0
SOLID
  5
3DE1
330
1F
100
AcDbEntity
  8
LOGO
 62
     5
100
AcDbTrace
 10
1577.020516757086
 20
151.1733959131085
 30
0.0
 11
1577.696711030823
 21
151.1733959131085
 31
0.0
 12
1577.020516757086
 22
147.7924245444201
 32
0.0
 13
1577.696711030823
 23
147.7924245444201
 33
0.0
  0
SOLID
  5
3DE2
330
1F
100
AcDbEntity
  8
LOGO
 62
     5
100
AcDbTrace
 10
1579.049099578298
 20
149.821007365633
 30
0.0
 11
1579.725293852036
 21
149.821007365633
 31
0.0
 12
1579.049099578298
 22
147.7924245444201
 32
0.0
 13
1579.725293852036
 23
147.7924245444201
 33
0.0
  0
SOLID
  5
3DE3
330
1F
100
AcDbEntity
  8
LOGO
 62
     5
100
AcDbTrace
 10
1581.077682399511
 20
149.821007365633
 30
0.0
 11
1581.753876673248
 21
149.821007365633
 31
0.0
 12
1581.077682399511
 22
147.792424544419
 32
0.0
 13
1581.753876673248
 23
147.792424544419
 33
0.0
  0
SOLID
  5
3DE4
330
1F
100
AcDbEntity
  8
LOGO
 62
     5
100
AcDbTrace
 10
1567.891826442197
 20
151.6467319047251
 30
0.0
 11
1568.568020715936
 21
151.6467319047251
 31
0.0
 12
1567.891826442197
 22
152.1876873237157
 32
0.0
 13
1568.568020715936
 23
152.1876873237157
 33
0.0
  0
SOLID
  5
3DE5
330
1F
100
AcDbEntity
  8
LOGO
 62
     5
100
AcDbTrace
 10
1567.891826442197
 20
151.1733959131085
 30
0.0
 11
1568.568020715936
 21
151.1733959131085
 31
0.0
 12
1567.891826442197
 22
147.792424544419
 32
0.0
 13
1568.568020715936
 23
147.7924245444201
 33
0.0
  0
SOLID
  5
3DE6
330
1F
100
AcDbEntity
  8
LOGO
 62
     5
100
AcDbTrace
 10
1574.541182832996
 20
154.5543672817974
 30
0.0
 11
1576.502146226837
 21
154.5543672817974
 31
0.0
 12
1574.541182832996
 22
164.4718832966179
 32
0.0
 13
1576.502146226837
 23
171.6620824073632
 33
0.0
  0
SOLID
  5
3DE7
330
1F
100
AcDbEntity
  8
LOGO
 62
     5
100
AcDbTrace
 10
1577.313579355323
 20
173.149709809586
 30
0.0
 11
1579.274542749162
 21
173.1497098095871
 31
0.0
 12
1577.313579355323
 22
156.0419946840203
 32
0.0
 13
1579.274542749162
 23
163.2321937947656
 33
0.0
  0
SOLID
  5
3DE8
330
1F
100
AcDbEntity
  8
LOGO
 62
     2
100
AcDbTrace
 10
1576.502146226837
 20
173.149709809586
 30
0.0
 11
1577.313579355323
 21
173.149709809586
 31
0.0
 12
1576.502146226837
 22
154.5543672817974
 32
0.0
 13
1577.313579355323
 23
154.5543672817974
 33
0.0
  0
SOLID
  5
3DE9
330
1F
100
AcDbEntity
  8
LOGO
 62
     5
100
AcDbTrace
 10
1577.313579355323
 20
156.0419946840203
 30
0.0
 11
1579.274542749162
 21
163.2321937947656
 31
0.0
 12
1586.645060332903
 22
173.1497098095871
 32
0.0
 13
1584.684096939065
 23
173.1497098095871
 33
0.0
  0
SOLID
  5
3DEA
330
1F
100
AcDbEntity
  8
LOGO
 62
     5
100
AcDbTrace
 10
1577.313579355323
 20
154.5543672817974
 30
0.0
 11
1579.274542749162
 21
154.5543672817974
 31
0.0
 12
1586.645060332903
 22
171.6620824073632
 32
0.0
 13
1584.684096939065
 23
164.4718832966179
 33
0.0
  0
SOLID
  5
3DEB
330
1F
100
AcDbEntity
  8
LOGO
 62
     2
100
AcDbTrace
 10
1576.502146226837
 20
154.5543672817974
 30
0.0
 11
1577.313579355323
 21
154.5543672817974
 31
0.0
 12
1586.645060332903
 22
173.1497098095871
 32
0.0
 13
1587.45649346139
 23
173.149709809586
 33
0.0
  0
LWPOLYLINE
  5
3DEC
330
1F
100
AcDbEntity
  8
LOGO
 62
     4
100
AcDbPolyline
 90
        4
 70
     1
 43
0.0
 10
1559.692777366452
 20
174.2270639827693
 10
2159.300860038325
 20
174.2270639827693
 10
2159.300860038325
 20
128.8736319465694
 10
1559.692777366452
 20
128.8736319465694
1001
GENIUS_GENREC_14
1002
{
1000
PYDIR
1011
1559.692777366452
1021
128.8736319465694
1031
0.0
1002
}
1002
{
1000
PXDIR
1011
2159.300860038325
1021
174.2270639827693
1031
0.0
1002
}
1002
{
1000
PORI
1011
1559.692777366452
1021
174.2270639827693
1031
0.0
1002
}
1002
{
1000
PINS
1011
1559.692777366452
1021
174.2270639827693
1031
0.0
1002
}
1002
{
1000
PINS2
1011
2159.300860038325
1021
128.8736319465694
1031
0.0
1002
}
1002
{
1000
C
1070
     1
1002
}
1001
GENIUS_GENOBJ-N-REC_13
1002
{
1000
OWNER
1000
GEN
1002
}
1001
GENIUS_GENODEF_13
1002
{
1000
HIER
1070
     0
1002
}
1002
{
1000
MANEDIT
1070
     0
1002
}
1002
{
1000
NOSEL
1070
     0
1002
}
1002
{
1000
BEHIND
1070
     0
1002
}
1002
{
1000
OTHER
1070
     0
1002
}
1002
{
1000
REACTOR
1002
}
  0
LINE
  5
3DED
330
1F
100
AcDbEntity
  8
LOGO
 62
     4
100
AcDbLine
 10
1766.350083151203
 20
149.2826763628603
 30
0.0
 11
1766.350083151203
 21
132.653084616253
 31
0.0
  0
LINE
  5
3DEE
330
1F
100
AcDbEntity
  8
LOGO
 62
     4
100
AcDbLine
 10
1736.114461793737
 20
149.2826763628603
 30
0.0
 11
1736.114461793737
 21
132.653084616253
 31
0.0
  0
LINE
  5
3DEF
330
1F
100
AcDbEntity
  8
LOGO
 62
     4
100
AcDbLine
 10
1766.350083151203
 20
132.653084616253
 30
0.0
 11
1736.114461793737
 21
132.653084616253
 31
0.0
  0
LINE
  5
3DF0
330
1F
100
AcDbEntity
  8
LOGO
 62
     4
100
AcDbLine
 10
1781.026605682282
 20
169.6917207791491
 30
0.0
 11
1721.851960724384
 21
169.6917207791491
 31
0.0
  0
LINE
  5
3DF1
330
1F
100
AcDbEntity
  8
LOGO
 62
     4
100
AcDbLine
 10
1781.026605682282
 20
156.0856911682896
 30
0.0
 11
1721.851960724384
 21
156.0856911682896
 31
0.0
  0
LINE
  5
3DF2
330
1F
100
AcDbEntity
  8
LOGO
 62
     4
100
AcDbLine
 10
1721.851960724384
 20
169.6917207791491
 30
0.0
 11
1721.851960724384
 21
156.0856911682896
 31
0.0
  0
LINE
  5
3DF3
330
1F
100
AcDbEntity
  8
LOGO
 62
     4
100
AcDbLine
 10
1781.026605682282
 20
169.6917207791491
 30
0.0
 11
1781.026605682282
 21
156.0856911682896
 31
0.0
  0
LINE
  5
3DF4
330
1F
100
AcDbEntity
  8
LOGO
 62
     4
100
AcDbLine
 10
1750.955363114414
 20
156.0856911682896
 30
0.0
 11
1750.955363114414
 21
149.2826763628603
 31
0.0
  0
TEXT
  5
3DF5
330
1F
100
AcDbEntity
  8
LOGO
  6
Continuous
100
AcDbText
 10
1725.462659048796
 20
159.9699378121285
 30
0.0
 40
7.0
  1
MJC-450K
  7
CHINESET
100
AcDbText
  0
LINE
  5
3DF6
330
1F
100
AcDbEntity
  8
LOGO
 62
     4
100
AcDbLine
 10
1766.350083151203
 20
149.2826763628603
 30
0.0
 11
1736.114461793737
 21
149.2826763628603
 31
0.0
  0
TEXT
  5
3DF7
330
1F
100
AcDbEntity
  8
LOGO
  6
Continuous
100
AcDbText
 10
1745.816976962827
 20
135.0003162274182
 30
297.238922023793
 40
3.401999999999999
  1
Model
 41
0.8
  7
CHINESET
100
AcDbText
  0
TEXT
  5
3DF8
330
1F
100
AcDbEntity
  8
LOGO
100
AcDbText
 10
1744.911475155045
 20
141.3068910440894
 30
297.238922023793
 40
5.669999999999999
  1
型號
  7
CHINESET
100
AcDbText
  0
TEXT
  5
3DF9
330
1F
100
AcDbEntity
  8
LOGO
100
AcDbText
 10
1661.269310567017
 20
131.2864166301835
 30
0.0
 40
4.536
  1
01004300
 41
0.7
  7
CHINESET
 72
     1
 11
1672.609310567017
 21
131.2864166301835
 31
0.0
100
AcDbText
  0
LINE
  5
3DFA
330
1F
100
AcDbEntity
  8
LOGO
 62
     4
100
AcDbLine
 10
1686.686327846089
 20
137.9443183538108
 30
0.0
 11
1686.68632784609
 21
128.8736319465704
 31
0.0
  0
LINE
  5
3DFB
330
1F
100
AcDbEntity
  8
LOGO
 62
     4
100
AcDbLine
 10
1686.686327846089
 20
137.9443183538108
 30
0.0
 11
1659.47032784609
 21
137.9443183538108
 31
0.0
  0
CIRCLE
  5
3DFC
330
1F
100
AcDbEntity
  8
LOGO
  6
Continuous
100
AcDbCircle
 10
1637.632461701886
 20
160.630735504211
 30
0.0
 40
2.633327013967192
  0
CIRCLE
  5
3DFD
330
1F
100
AcDbEntity
  8
LOGO
  6
Continuous
100
AcDbCircle
 10
1637.632461701886
 20
160.630735504211
 30
0.0
 40
1.542896514933574
  0
LINE
  5
3DFE
330
1F
100
AcDbEntity
  8
LOGO
100
AcDbLine
 10
1654.180594216001
 20
157.9974084902433
 30
0.0
 11
1654.180594216001
 21
163.2640625181786
 31
0.0
  0
LINE
  5
3DFF
330
1F
100
AcDbEntity
  8
LOGO
100
AcDbLine
 10
1645.925265187398
 20
159.0878389892776
 30
0.0
 11
1645.925265187398
 21
162.1736320191448
 31
0.0
  0
LINE
  5
3E00
330
1F
100
AcDbEntity
  8
LOGO
  6
Continuous
100
AcDbLine
 10
1645.925265187398
 20
162.1736320191448
 30
0.0
 11
1654.180594216001
 21
163.2640625181786
 31
0.0
  0
LINE
  5
3E01
330
1F
100
AcDbEntity
  8
LOGO
  6
Continuous
100
AcDbLine
 10
1645.925265187398
 20
159.0878389892776
 30
0.0
 11
1654.180594216001
 21
157.9974084902433
 31
0.0
  0
LINE
  5
3E02
330
1F
100
AcDbEntity
  8
LOGO
  6
AM_ISO08W050x2
 48
0.3
100
AcDbLine
 10
1634.002380982166
 20
160.630735504211
 30
0.0
 11
1641.262542421608
 21
160.630735504211
 31
0.0
1001
GENIUS_GENOREF_13
1005
3E07
  0
LINE
  5
3E03
330
1F
100
AcDbEntity
  8
LOGO
  6
AM_ISO08W050x2
 48
0.3
100
AcDbLine
 10
1637.632461701886
 20
157.0006547844901
 30
0.0
 11
1637.632461701886
 21
164.2608162239318
 31
0.0
1001
GENIUS_GENOREF_13
1005
3E06
  0
LINE
  5
3E04
330
1F
100
AcDbEntity
  8
LOGO
  6
CENTER
 48
0.5
100
AcDbLine
 10
1645.265068320907
 20
160.630735504211
 30
0.0
 11
1655.011879125304
 21
160.630735504211
 31
0.0
1001
GENIUS_GENOREF_13
1005
3E05
  0
POINT
  5
3E05
330
1F
100
AcDbEntity
  8
0
 60
     1
100
AcDbPoint
 10
-447.5377206446599
 20
-733.0932690936419
 30
0.0
1001
GENIUS_GENOBJ-N-CRS_13
1002
{
1000
OWNER
1000
GEN
1002
}
1001
GENIUS_GENOLIS_13
1002
{
1000
ENT
1005
0
1005
0
1005
0
1005
3E04
1002
}
1001
GENIUS_GENOENT_13
1002
{
1000
MYREF
1005
3E05
1002
}
1002
{
1000
GRP
1005
0
1002
}
1001
GENIUS_GENODEF_13
1002
{
1000
HIER
1070
    10
1002
}
1002
{
1000
MANEDIT
1070
     1
1002
}
1002
{
1000
NOSEL
1070
     0
1002
}
1002
{
1000
BEHIND
1070
     0
1002
}
1002
{
1000
OTHER
1070
     0
1002
}
1002
{
1000
REACTOR
1002
}
  0
POINT
  5
3E06
330
1F
100
AcDbEntity
  8
0
 60
     1
100
AcDbPoint
 10
-458.8623058675145
 20
-724.2176826150057
 30
0.0
1001
GENIUS_GENOBJ-N-CRS_13
1002
{
1000
OWNER
1000
GEN
1002
}
1001
GENIUS_GENOLIS_13
1002
{
1000
ENT
1005
0
1005
0
1005
0
1005
3E03
1002
}
1001
GENIUS_GENOENT_13
1002
{
1000
MYREF
1005
3E06
1002
}
1002
{
1000
GRP
1005
0
1002
}
1001
GENIUS_GENODEF_13
1002
{
1000
HIER
1070
    10
1002
}
1002
{
1000
MANEDIT
1070
     1
1002
}
1002
{
1000
NOSEL
1070
     0
1002
}
1002
{
1000
BEHIND
1070
     0
1002
}
1002
{
1000
OTHER
1070
     0
1002
}
1002
{
1000
REACTOR
1002
}
  0
POINT
  5
3E07
330
1F
100
AcDbEntity
  8
0
 60
     1
100
AcDbPoint
 10
-452.5036321696777
 20
-733.0932690936419
 30
0.0
1001
GENIUS_GENOBJ-N-CRS_13
1002
{
1000
OWNER
1000
GEN
1002
}
1001
GENIUS_GENOLIS_13
1002
{
1000
ENT
1005
0
1005
0
1005
0
1005
3E02
1002
}
1001
GENIUS_GENOENT_13
1002
{
1000
MYREF
1005
3E07
1002
}
1002
{
1000
GRP
1005
0
1002
}
1001
GENIUS_GENODEF_13
1002
{
1000
HIER
1070
    10
1002
}
1002
{
1000
MANEDIT
1070
     1
1002
}
1002
{
1000
NOSEL
1070
     0
1002
}
1002
{
1000
BEHIND
1070
     0
1002
}
1002
{
1000
OTHER
1070
     0
1002
}
1002
{
1000
REACTOR
1002
}
  0
LINE
  5
4410
330
1F
100
AcDbEntity
  8
AM_7
100
AcDbLine
 10
1856.125628822869
 20
427.8725781081671
 30
0.0
 11
1857.625628822868
 21
427.8725781081671
 31
0.0
  0
LINE
  5
4411
330
1F
100
AcDbEntity
  8
AM_7
100
AcDbLine
 10
1856.875628822868
 20
427.122578108167
 30
0.0
 11
1856.875628822868
 21
428.6225781081671
 31
0.0
  0
LINE
  5
4412
330
1F
100
AcDbEntity
  8
AM_7
100
AcDbLine
 10
1847.625628822869
 20
427.8725781081671
 30
0.0
 11
1855.325628822868
 21
427.8725781081671
 31
0.0
  0
LINE
  5
4413
330
1F
100
AcDbEntity
  8
AM_7
100
AcDbLine
 10
1858.425628822868
 20
427.8725781081671
 30
0.0
 11
1866.125628822868
 21
427.8725781081671
 31
0.0
  0
LINE
  5
4414
330
1F
100
AcDbEntity
  8
AM_7
100
AcDbLine
 10
1856.875628822868
 20
418.622578108167
 30
0.0
 11
1856.875628822868
 21
426.322578108167
 31
0.0
  0
LINE
  5
4415
102
{ACAD_REACTORS
330
72D5
102
}
330
1F
100
AcDbEntity
  8
AM_7
100
AcDbLine
 10
1856.875628822868
 20
429.4225781081671
 30
0.0
 11
1856.875628822868
 21
437.1225781081671
 31
0.0
  0
LINE
  5
4416
330
1F
100
AcDbEntity
  8
AM_7
100
AcDbLine
 10
1846.875628822868
 20
427.8725781081671
 30
0.0
 11
1872.375628822868
 21
427.8725781081671
 31
0.0
  0
LINE
  5
4417
330
1F
100
AcDbEntity
  8
AM_7
100
AcDbLine
 10
2056.947425592594
 20
427.8725781081671
 30
0.0
 11
1877.875628822868
 21
427.8725781081671
 31
0.0
  0
ARC
  5
4418
330
1F
100
AcDbEntity
  8
0
 62
     3
100
AcDbCircle
 10
1856.875628822868
 20
427.8725781081671
 30
0.0
 40
8.33
100
AcDbArc
 50
251.267634137818
 51
205.4891426190057
  0
LINE
  5
4419
330
1F
100
AcDbEntity
  8
AM_7
100
AcDbLine
 10
1814.875628822868
 20
427.8725781081671
 30
0.0
 11
1844.875628822869
 21
427.8725781081671
 31
0.0
  0
LINE
  5
441A
330
1F
100
AcDbEntity
  8
AM_7
100
AcDbLine
 10
2001.125628822869
 20
427.872578108167
 30
0.0
 11
2002.625628822869
 21
427.872578108167
 31
0.0
  0
LINE
  5
441B
330
1F
100
AcDbEntity
  8
AM_7
100
AcDbLine
 10
2001.875628822869
 20
427.122578108167
 30
0.0
 11
2001.875628822869
 21
428.622578108167
 31
0.0
  0
LINE
  5
441C
330
1F
100
AcDbEntity
  8
AM_7
100
AcDbLine
 10
1998.800628822868
 20
427.872578108167
 30
0.0
 11
2000.325628822869
 21
427.872578108167
 31
0.0
  0
LINE
  5
441D
330
1F
100
AcDbEntity
  8
AM_7
100
AcDbLine
 10
2003.425628822869
 20
427.872578108167
 30
0.0
 11
2004.950628822868
 21
427.872578108167
 31
0.0
  0
LINE
  5
441E
330
1F
100
AcDbEntity
  8
AM_7
100
AcDbLine
 10
2001.875628822869
 20
424.797578108167
 30
0.0
 11
2001.875628822869
 21
426.322578108167
 31
0.0
  0
LINE
  5
441F
330
1F
100
AcDbEntity
  8
AM_7
100
AcDbLine
 10
2001.875628822869
 20
429.422578108167
 30
0.0
 11
2001.875628822869
 21
430.947578108167
 31
0.0
  0
LINE
  5
4420
330
1F
100
AcDbEntity
  8
AM_7
100
AcDbLine
 10
2088.935521113597
 20
427.872578108167
 30
0.0
 11
2056.803832053144
 21
427.872578108167
 31
0.0
  0
LINE
  5
4421
330
1F
100
AcDbEntity
  8
AM_7
100
AcDbLine
 10
1630.450038065133
 20
464.9920312175243
 30
0.0
 11
1738.187729841454
 21
464.9920312175244
 31
0.0
  0
LINE
  5
4422
330
1F
100
AcDbEntity
  8
AM_7
100
AcDbLine
 10
1727.450038065133
 20
490.7920312175243
 30
0.0
 11
1727.450038065133
 21
472.6795231530048
 31
0.0
  0
LINE
  5
4423
330
1F
100
AcDbEntity
  8
AM_4
  6
HIDDEN2
100
AcDbLine
 10
1699.450038065133
 20
464.9920312175244
 30
0.0
 11
1711.450038065133
 21
464.9920312175244
 31
0.0
  0
LINE
  5
4424
330
1F
100
AcDbEntity
  8
AM_4
  6
HIDDEN2
100
AcDbLine
 10
1699.450038065133
 20
464.9920312175244
 30
0.0
 11
1711.450038065133
 21
464.9920312175244
 31
0.0
  0
LINE
  5
4426
330
1F
100
AcDbEntity
  8
AM_4
  6
HIDDEN2
100
AcDbLine
 10
1698.700038065133
 20
477.9920312175243
 30
0.0
 11
1710.450038065133
 21
477.9920312175244
 31
0.0
  0
LINE
  5
4427
330
1F
100
AcDbEntity
  8
AM_4
  6
HIDDEN2
100
AcDbLine
 10
1710.450038065134
 20
464.9920312175244
 30
0.0
 11
1710.450038065133
 21
477.9920312175244
 31
0.0
  0
LINE
  5
4428
330
1F
100
AcDbEntity
  8
AM_4
  6
HIDDEN2
100
AcDbLine
 10
1719.120038065133
 20
489.8720312175243
 30
0.0
 11
1719.120038065133
 21
479.9920312175244
 31
0.0
  0
LINE
  5
4429
330
1F
100
AcDbEntity
  8
AM_4
  6
HIDDEN2
100
AcDbLine
 10
1735.780038065133
 20
489.8720312175243
 30
0.0
 11
1735.780038065133
 21
479.9920312175244
 31
0.0
  0
LINE
  5
442A
330
1F
100
AcDbEntity
  8
AM_4
  6
HIDDEN2
100
AcDbLine
 10
1719.120038065133
 20
479.9920312175244
 30
0.0
 11
1735.780038065133
 21
479.9920312175244
 31
0.0
  0
LINE
  5
442C
330
1F
100
AcDbEntity
  8
AM_4
  6
HIDDEN2
100
AcDbLine
 10
1686.870038065133
 20
473.3220312175243
 30
0.0
 11
1698.450038065133
 21
473.3220312175243
 31
0.0
  0
LINE
  5
442D
330
1F
100
AcDbEntity
  8
AM_4
  6
HIDDEN2
100
AcDbLine
 10
1698.450038065133
 20
464.9920312175243
 30
0.0
 11
1698.450038065133
 21
473.3220312175243
 31
0.0
  0
LINE
  5
442E
330
1F
100
AcDbEntity
  8
AM_4
  6
HIDDEN2
100
AcDbLine
 10
1708.450038065133
 20
477.2420312175244
 30
0.0
 11
1701.450038065133
 21
477.2420312175244
 31
0.0
  0
LINE
  5
4430
330
1F
100
AcDbEntity
  8
AM_4
  6
HIDDEN2
100
AcDbLine
 10
1713.200038065133
 20
481.4920312175244
 30
0.0
 11
1697.450038065133
 21
481.4920312175244
 31
0.0
  0
LINE
  5
4432
330
1F
100
AcDbEntity
  8
AM_4
  6
HIDDEN2
100
AcDbLine
 10
1697.450038065133
 20
481.4920312175244
 30
0.0
 11
1697.450038065133
 21
464.9920312175244
 31
0.0
  0
LINE
  5
4433
330
1F
100
AcDbEntity
  8
AM_VIS
100
AcDbLine
 10
1732.87336069316
 20
476.0835905382876
 30
0.0
 11
1734.705016704676
 21
477.0829058140915
 31
0.0
  0
ARC
  5
4434
330
1F
100
AcDbEntity
  8
AM_VIS
100
AcDbCircle
 10
1731.240908924812
 20
495.2545019296162
 30
0.0
 40
21.25502697499344
100
AcDbArc
 50
238.7048010742152
 51
249.5267882751505
  0
LINE
  5
4435
330
1F
100
AcDbEntity
  8
AM_VIS
100
AcDbLine
 10
1698.450038065133
 20
478.2420312175243
 30
0.0
 11
1698.450038065133
 21
480.4920312175243
 31
0.0
  0
LINE
  5
4436
330
1F
100
AcDbEntity
  8
AM_VIS
100
AcDbLine
 10
1698.450038065133
 20
480.4920312175243
 30
0.0
 11
1699.450038065133
 21
481.4920312175244
 31
0.0
  0
LINE
  5
4437
330
1F
100
AcDbEntity
  8
AM_VIS
100
AcDbLine
 10
1699.450038065133
 20
481.4920312175244
 30
0.0
 11
1711.450038065133
 21
481.4920312175244
 31
0.0
  0
LINE
  5
4438
330
1F
100
AcDbEntity
  8
AM_VIS
100
AcDbLine
 10
1711.450038065133
 20
481.4920312175244
 30
0.0
 11
1711.450038065133
 21
480.4920312175243
 31
0.0
  0
LINE
  5
4439
330
1F
100
AcDbEntity
  8
AM_VIS
100
AcDbLine
 10
1711.450038065133
 20
480.4920312175243
 30
0.0
 11
1713.450038065133
 21
480.4920312175243
 31
0.0
  0
LINE
  5
443A
330
1F
100
AcDbEntity
  8
AM_VIS
100
AcDbLine
 10
1713.450038065133
 20
480.4920312175243
 30
0.0
 11
1713.450038065133
 21
489.9920312175244
 31
0.0
  0
LINE
  5
443B
330
1F
100
AcDbEntity
  8
AM_VIS
100
AcDbLine
 10
1713.450038065133
 20
489.9920312175244
 30
0.0
 11
1719.000038065133
 21
489.9920312175244
 31
0.0
  0
LINE
  5
443C
330
1F
100
AcDbEntity
  8
AM_VIS
100
AcDbLine
 10
1719.000038065133
 20
489.9920312175244
 30
0.0
 11
1720.200038065133
 21
488.7920312175244
 31
0.0
  0
LINE
  5
443D
330
1F
100
AcDbEntity
  8
AM_VIS
100
AcDbLine
 10
1720.200038065133
 20
488.7920312175244
 30
0.0
 11
1720.200038065133
 21
477.0920312175244
 31
0.0
  0
LINE
  5
443E
330
1F
100
AcDbEntity
  8
AM_VIS
100
AcDbLine
 10
1720.200038065133
 20
477.0920312175244
 30
0.0
 11
1713.450038065133
 21
477.0920312175244
 31
0.0
  0
LINE
  5
443F
330
1F
100
AcDbEntity
  8
AM_VIS
100
AcDbLine
 10
1713.450038065133
 20
477.0920312175244
 30
0.0
 11
1713.450038065133
 21
477.2420312175244
 31
0.0
  0
LINE
  5
4440
330
1F
100
AcDbEntity
  8
AM_VIS
100
AcDbLine
 10
1713.450038065133
 20
477.2420312175244
 30
0.0
 11
1699.450038065133
 21
477.2420312175243
 31
0.0
  0
LINE
  5
4441
330
1F
100
AcDbEntity
  8
AM_VIS
100
AcDbLine
 10
1699.450038065133
 20
477.2420312175244
 30
0.0
 11
1698.450038065133
 21
478.2420312175243
 31
0.0
  0
LINE
  5
4442
330
1F
100
AcDbEntity
  8
AM_VIS
100
AcDbLine
 10
1738.678722429754
 20
476.0920312175243
 30
0.0
 11
1737.450038065133
 21
476.0920312175243
 31
0.0
  0
LINE
  5
4443
330
1F
100
AcDbEntity
  8
AM_VIS
100
AcDbLine
 10
1737.450038065133
 20
476.0920312175243
 30
0.0
 11
1736.450038065133
 21
477.0920312175244
 31
0.0
  0
LINE
  5
4444
330
1F
100
AcDbEntity
  8
AM_VIS
100
AcDbLine
 10
1736.450038065133
 20
477.0920312175244
 30
0.0
 11
1734.700038065133
 21
477.0920312175244
 31
0.0
  0
LINE
  5
4445
330
1F
100
AcDbEntity
  8
AM_VIS
100
AcDbLine
 10
1734.700038065133
 20
477.0920312175244
 30
0.0
 11
1734.700038065133
 21
488.7920312175244
 31
0.0
  0
LINE
  5
4446
330
1F
100
AcDbEntity
  8
AM_VIS
100
AcDbLine
 10
1734.700038065133
 20
488.7920312175244
 30
0.0
 11
1735.900038065133
 21
489.9920312175244
 31
0.0
  0
LINE
  5
4447
330
1F
100
AcDbEntity
  8
AM_VIS
100
AcDbLine
 10
1735.900038065133
 20
489.9920312175244
 30
0.0
 11
1740.245769114907
 21
489.9920312175244
 31
0.0
  0
LINE
  5
4448
102
{ACAD_REACTORS
330
570F
102
}
330
1F
100
AcDbEntity
  8
AM_VIS
100
AcDbLine
 10
1713.450038065133
 20
439.9920312175244
 30
0.0
 11
1713.450038065133
 21
464.9920312175244
 31
0.0
  0
LINE
  5
4454
330
1F
100
AcDbEntity
  8
AM_VIS
100
AcDbLine
 10
1736.415499366888
 20
439.9920312175244
 30
0.0
 11
1713.450038065133
 21
439.9920312175244
 31
0.0
  0
LINE
  5
4456
330
1F
100
AcDbEntity
  8
AM_VIS
100
AcDbLine
 10
1699.450038065133
 20
476.9920312175243
 30
0.0
 11
1699.450038065133
 21
477.2420312175243
 31
0.0
  0
LINE
  5
4457
330
1F
100
AcDbEntity
  8
AM_VIS
100
AcDbLine
 10
1713.450038065133
 20
477.0920312175244
 30
0.0
 11
1713.450038065133
 21
476.9920312175243
 31
0.0
  0
LINE
  5
445A
330
1F
100
AcDbEntity
  8
AM_VIS
100
AcDbLine
 10
1736.450038065133
 20
476.0920312175243
 30
0.0
 11
1736.450038065133
 21
477.0920312175244
 31
0.0
  0
LINE
  5
445B
330
1F
100
AcDbEntity
  8
AM_VIS
100
AcDbLine
 10
1735.900038065133
 20
489.9920312175244
 30
0.0
 11
1719.000038065133
 21
489.9920312175244
 31
0.0
  0
LINE
  5
445C
330
1F
100
AcDbEntity
  8
AM_VIS
100
AcDbLine
 10
1720.200038065133
 20
488.7920312175244
 30
0.0
 11
1734.700038065133
 21
488.7920312175244
 31
0.0
  0
LINE
  5
4462
330
1F
100
AcDbEntity
  8
AM_VIS
100
AcDbLine
 10
1739.023363476688
 20
470.783415101668
 30
0.0
 11
1730.450038065133
 21
469.9920312175244
 31
0.0
  0
LINE
  5
4463
330
1F
100
AcDbEntity
  8
AM_VIS
100
AcDbLine
 10
1730.450038065133
 20
469.9920312175244
 30
0.0
 11
1727.450038065133
 21
469.9920312175244
 31
0.0
  0
LINE
  5
4464
330
1F
100
AcDbEntity
  8
AM_VIS
100
AcDbLine
 10
1727.450038065133
 20
469.9920312175244
 30
0.0
 11
1727.450038065133
 21
475.4920312175244
 31
0.0
  0
LINE
  5
4465
330
1F
100
AcDbEntity
  8
AM_VIS
100
AcDbLine
 10
1727.450038065133
 20
475.4920312175244
 30
0.0
 11
1728.050038065133
 21
476.0920312175243
 31
0.0
  0
LINE
  5
4466
330
1F
100
AcDbEntity
  8
AM_VIS
100
AcDbLine
 10
1728.050038065133
 20
476.0920312175243
 30
0.0
 11
1738.678722429754
 21
476.0920312175243
 31
0.0
  0
LINE
  5
4467
330
1F
100
AcDbEntity
  8
AM_VIS
100
AcDbLine
 10
1730.450038065133
 20
464.9920312175243
 30
0.0
 11
1730.450038065133
 21
469.9920312175244
 31
0.0
  0
LINE
  5
4468
330
1F
100
AcDbEntity
  8
AM_VIS
100
AcDbLine
 10
1727.450038065133
 20
464.9920312175243
 30
0.0
 11
1727.450038065133
 21
469.9920312175244
 31
0.0
  0
LINE
  5
4478
330
1F
100
AcDbEntity
  8
AM_VIS
100
AcDbLine
 10
1717.450038065133
 20
470.8420312175244
 30
0.0
 11
1717.450038065133
 21
476.9420312175243
 31
0.0
  0
LINE
  5
4479
330
1F
100
AcDbEntity
  8
AM_VIS
100
AcDbLine
 10
1717.450038065133
 20
476.9420312175243
 30
0.0
 11
1719.450038065133
 21
476.9420312175243
 31
0.0
  0
LINE
  5
447A
330
1F
100
AcDbEntity
  8
AM_VIS
100
AcDbLine
 10
1719.450038065133
 20
476.9420312175243
 30
0.0
 11
1719.450038065133
 21
475.3420312175244
 31
0.0
  0
LINE
  5
447B
330
1F
100
AcDbEntity
  8
AM_VIS
100
AcDbLine
 10
1719.450038065133
 20
475.3420312175244
 30
0.0
 11
1727.450038065133
 21
475.3420312175244
 31
0.0
  0
LINE
  5
447C
330
1F
100
AcDbEntity
  8
AM_VIS
100
AcDbLine
 10
1727.450038065133
 20
475.3420312175244
 30
0.0
 11
1727.450038065133
 21
472.9594649323412
 31
0.0
  0
LINE
  5
447D
330
1F
100
AcDbEntity
  8
AM_VIS
100
AcDbLine
 10
1727.450038065133
 20
472.9594649323412
 30
0.0
 11
1726.750038065133
 21
472.9594649323412
 31
0.0
  0
LINE
  5
447E
330
1F
100
AcDbEntity
  8
AM_VIS
100
AcDbLine
 10
1726.750038065133
 20
472.9594649323412
 30
0.0
 11
1726.750038065133
 21
471.8920312175243
 31
0.0
  0
LINE
  5
447F
330
1F
100
AcDbEntity
  8
AM_VIS
100
AcDbLine
 10
1726.750038065133
 20
471.8920312175243
 30
0.0
 11
1725.650038065133
 21
471.8920312175243
 31
0.0
  0
LINE
  5
4480
330
1F
100
AcDbEntity
  8
AM_VIS
100
AcDbLine
 10
1725.650038065133
 20
471.8920312175243
 30
0.0
 11
1725.650038065133
 21
467.1420312175244
 31
0.0
  0
LINE
  5
4481
330
1F
100
AcDbEntity
  8
AM_VIS
100
AcDbLine
 10
1725.650038065133
 20
467.1420312175244
 30
0.0
 11
1723.450038065133
 21
467.1420312175244
 31
0.0
  0
LINE
  5
4482
330
1F
100
AcDbEntity
  8
AM_VIS
100
AcDbLine
 10
1723.450038065133
 20
467.1420312175244
 30
0.0
 11
1722.450038065133
 21
468.1420312175244
 31
0.0
  0
LINE
  5
4483
330
1F
100
AcDbEntity
  8
AM_VIS
100
AcDbLine
 10
1722.450038065133
 20
468.1420312175244
 30
0.0
 11
1722.450038065133
 21
469.2420312175244
 31
0.0
  0
LINE
  5
4484
330
1F
100
AcDbEntity
  8
AM_VIS
100
AcDbLine
 10
1722.450038065133
 20
469.2420312175244
 30
0.0
 11
1712.450038065133
 21
469.2420312175244
 31
0.0
  0
LINE
  5
4485
330
1F
100
AcDbEntity
  8
AM_VIS
100
AcDbLine
 10
1712.450038065133
 20
469.2420312175244
 30
0.0
 11
1712.450038065133
 21
470.8420312175244
 31
0.0
  0
LINE
  5
4486
330
1F
100
AcDbEntity
  8
AM_VIS
100
AcDbLine
 10
1712.450038065133
 20
470.8420312175244
 30
0.0
 11
1717.450038065133
 21
470.8420312175244
 31
0.0
  0
LINE
  5
4488
330
1F
100
AcDbEntity
  8
AM_VIS
100
AcDbLine
 10
1727.450038065133
 20
467.4452672713797
 30
0.0
 11
1726.750038065133
 21
467.4452672713797
 31
0.0
  0
LINE
  5
4489
330
1F
100
AcDbEntity
  8
AM_VIS
100
AcDbLine
 10
1712.450038065133
 20
464.9920312175243
 30
0.0
 11
1712.450038065133
 21
469.2420312175244
 31
0.0
  0
LINE
  5
448A
330
1F
100
AcDbEntity
  8
AM_VIS
100
AcDbLine
 10
1722.450038065133
 20
468.1420312175244
 30
0.0
 11
1722.450038065133
 21
464.9920312175244
 31
0.0
  0
LINE
  5
448B
330
1F
100
AcDbEntity
  8
AM_VIS
100
AcDbLine
 10
1723.450038065133
 20
464.9920312175244
 30
0.0
 11
1723.450038065133
 21
467.1420312175244
 31
0.0
  0
LINE
  5
448C
330
1F
100
AcDbEntity
  8
AM_VIS
100
AcDbLine
 10
1725.650038065133
 20
464.9920312175244
 30
0.0
 11
1725.650038065133
 21
467.1420312175244
 31
0.0
  0
LINE
  5
448E
330
1F
100
AcDbEntity
  8
AM_VIS
100
AcDbLine
 10
1726.750038065133
 20
470.967606503637
 30
0.0
 11
1726.750038065133
 21
467.055549102469
 31
0.0
  0
LINE
  5
448F
330
1F
100
AcDbEntity
  8
AM_VIS
100
AcDbLine
 10
1726.750038065133
 20
471.8920312175243
 30
0.0
 11
1726.750038065133
 21
471.7258880593566
 31
0.0
  0
LINE
  5
44A5
330
1F
100
AcDbEntity
  8
AM_VIS
100
AcDbLine
 10
1696.450038065133
 20
479.9920312175244
 30
0.0
 11
1698.450038065133
 21
479.9920312175244
 31
0.0
  0
LINE
  5
44A6
330
1F
100
AcDbEntity
  8
AM_VIS
100
AcDbLine
 10
1698.450038065133
 20
479.9920312175244
 30
0.0
 11
1698.450038065133
 21
476.9920312175243
 31
0.0
  0
LINE
  5
44A7
330
1F
100
AcDbEntity
  8
AM_VIS
100
AcDbLine
 10
1698.450038065133
 20
476.9920312175243
 30
0.0
 11
1701.450038065133
 21
476.9920312175243
 31
0.0
  0
LINE
  5
44A8
330
1F
100
AcDbEntity
  8
AM_VIS
100
AcDbLine
 10
1701.450038065133
 20
476.9920312175243
 30
0.0
 11
1701.450038065133
 21
477.9920312175244
 31
0.0
  0
LINE
  5
44A9
330
1F
100
AcDbEntity
  8
AM_VIS
100
AcDbLine
 10
1701.450038065133
 20
477.9920312175244
 30
0.0
 11
1708.450038065133
 21
477.9920312175244
 31
0.0
  0
LINE
  5
44AA
330
1F
100
AcDbEntity
  8
AM_VIS
100
AcDbLine
 10
1708.450038065133
 20
477.9920312175244
 30
0.0
 11
1709.450038065133
 21
476.9920312175243
 31
0.0
  0
LINE
  5
44AB
330
1F
100
AcDbEntity
  8
AM_VIS
100
AcDbLine
 10
1709.450038065133
 20
476.9920312175243
 30
0.0
 11
1714.950038065133
 21
476.9920312175243
 31
0.0
  0
LINE
  5
44AC
330
1F
100
AcDbEntity
  8
AM_VIS
100
AcDbLine
 10
1714.950038065133
 20
476.9920312175243
 30
0.0
 11
1715.450038065133
 21
476.4920312175243
 31
0.0
  0
LINE
  5
44AD
330
1F
100
AcDbEntity
  8
AM_VIS
100
AcDbLine
 10
1715.450038065133
 20
476.4920312175243
 30
0.0
 11
1715.450038065133
 21
474.8920312175243
 31
0.0
  0
LINE
  5
44AE
330
1F
100
AcDbEntity
  8
AM_VIS
100
AcDbLine
 10
1715.450038065133
 20
474.8920312175243
 30
0.0
 11
1716.950038065133
 21
474.8920312175243
 31
0.0
  0
LINE
  5
44AF
330
1F
100
AcDbEntity
  8
AM_VIS
100
AcDbLine
 10
1716.950038065133
 20
474.8920312175243
 30
0.0
 11
1717.450038065133
 21
474.3920312175244
 31
0.0
  0
LINE
  5
44B0
330
1F
100
AcDbEntity
  8
AM_VIS
100
AcDbLine
 10
1717.450038065133
 20
474.3920312175244
 30
0.0
 11
1717.450038065133
 21
471.1920312175243
 31
0.0
  0
LINE
  5
44B1
330
1F
100
AcDbEntity
  8
AM_VIS
100
AcDbLine
 10
1717.450038065133
 20
471.1920312175243
 30
0.0
 11
1717.250038065133
 21
470.9920312175244
 31
0.0
  0
LINE
  5
44B2
330
1F
100
AcDbEntity
  8
AM_VIS
100
AcDbLine
 10
1717.250038065133
 20
470.9920312175244
 30
0.0
 11
1712.201113838917
 21
470.9920312175244
 31
0.0
  0
LINE
  5
44B3
330
1F
100
AcDbEntity
  8
AM_VIS
100
AcDbLine
 10
1712.201113838917
 20
470.9920312175244
 30
0.0
 11
1711.450038065133
 21
472.2420312175244
 31
0.0
  0
LINE
  5
44B4
330
1F
100
AcDbEntity
  8
AM_VIS
100
AcDbLine
 10
1711.450038065133
 20
472.2420312175244
 30
0.0
 11
1687.950038065133
 21
472.2420312175244
 31
0.0
  0
LINE
  5
44B5
330
1F
100
AcDbEntity
  8
AM_VIS
100
AcDbLine
 10
1687.950038065133
 20
472.2420312175244
 30
0.0
 11
1686.450038065133
 21
473.7420312175244
 31
0.0
  0
LINE
  5
44B6
330
1F
100
AcDbEntity
  8
AM_VIS
100
AcDbLine
 10
1686.450038065133
 20
473.7420312175244
 30
0.0
 11
1686.450038065133
 21
477.9920312175244
 31
0.0
  0
LINE
  5
44B7
330
1F
100
AcDbEntity
  8
AM_VIS
100
AcDbLine
 10
1686.450038065133
 20
477.9920312175244
 30
0.0
 11
1696.450038065133
 21
477.9920312175244
 31
0.0
  0
LINE
  5
44B8
330
1F
100
AcDbEntity
  8
AM_VIS
100
AcDbLine
 10
1696.450038065133
 20
477.9920312175244
 30
0.0
 11
1696.450038065133
 21
479.9920312175244
 31
0.0
  0
LINE
  5
44B9
330
1F
100
AcDbEntity
  8
AM_VIS
100
AcDbLine
 10
1711.450038065133
 20
464.9920312175244
 30
0.0
 11
1711.450038065133
 21
472.2420312175244
 31
0.0
  0
LINE
  5
44BA
330
1F
100
AcDbEntity
  8
AM_VIS
100
AcDbLine
 10
1687.950038065133
 20
464.9920312175244
 30
0.0
 11
1687.950038065133
 21
472.2420312175244
 31
0.0
  0
LINE
  5
44BB
330
1F
100
AcDbEntity
  8
AM_VIS
100
AcDbLine
 10
1686.450038065133
 20
473.7420312175244
 30
0.0
 11
1686.450038065133
 21
464.9920312175243
 31
0.0
  0
LINE
  5
44BC
330
1F
100
AcDbEntity
  8
AM_VIS
100
AcDbLine
 10
1712.201113838917
 20
470.9920312175244
 30
0.0
 11
1712.201113838917
 21
464.9920312175244
 31
0.0
  0
LINE
  5
44BD
330
1F
100
AcDbEntity
  8
AM_VIS
100
AcDbLine
 10
1717.250038065133
 20
470.9920312175244
 30
0.0
 11
1717.250038065133
 21
470.8420312175244
 31
0.0
  0
LINE
  5
44C5
330
1F
100
AcDbEntity
  8
AM_VIS
100
AcDbLine
 10
1713.450038065133
 20
445.9920312175243
 30
0.0
 11
1712.450038065133
 21
444.9920312175244
 31
0.0
  0
LINE
  5
44C6
102
{ACAD_REACTORS
330
5583
102
}
330
1F
100
AcDbEntity
  8
AM_VIS
100
AcDbLine
 10
1712.450038065133
 20
444.9920312175244
 30
0.0
 11
1648.450038065133
 21
444.9920312175243
 31
0.0
  0
LINE
  5
44C7
330
1F
100
AcDbEntity
  8
AM_VIS
100
AcDbLine
 10
1648.450038065133
 20
444.9920312175243
 30
0.0
 11
1647.450038065133
 21
445.9920312175243
 31
0.0
  0
LINE
  5
44C8
102
{ACAD_REACTORS
330
56E5
102
}
330
1F
100
AcDbEntity
  8
AM_VIS
100
AcDbLine
 10
1647.450038065133
 20
445.9920312175243
 30
0.0
 11
1647.450038065133
 21
464.9920312175244
 31
0.0
  0
LINE
  5
44C9
330
1F
100
AcDbEntity
  8
AM_VIS
100
AcDbLine
 10
1647.450038065133
 20
457.9920312175243
 30
0.0
 11
1640.450038065133
 21
457.9920312175243
 31
0.0
  0
LINE
  5
44CA
330
1F
100
AcDbEntity
  8
AM_VIS
100
AcDbLine
 10
1640.450038065133
 20
464.9920312175243
 30
0.0
 11
1640.450038065133
 21
457.4920312175243
 31
0.0
  0
LINE
  5
44CB
102
{ACAD_REACTORS
330
5559
330
570F
102
}
330
1F
100
AcDbEntity
  8
AM_VIS
100
AcDbLine
 10
1640.450038065133
 20
457.4920312175243
 30
0.0
 11
1632.450038065133
 21
457.9920312175243
 31
0.0
  0
LINE
  5
44CC
102
{ACAD_REACTORS
330
5526
330
56E5
102
}
330
1F
100
AcDbEntity
  8
AM_VIS
100
AcDbLine
 10
1632.450038065133
 20
457.9920312175243
 30
0.0
 11
1632.450038065133
 21
459.7420312175243
 31
0.0
  0
LINE
  5
44CF
330
1F
100
AcDbEntity
  8
AM_VIS
100
AcDbLine
 10
1652.450038065133
 20
473.9920312175243
 30
0.0
 11
1652.450038065133
 21
470.2420312175243
 31
0.0
  0
LINE
  5
44D0
330
1F
100
AcDbEntity
  8
AM_VIS
100
AcDbLine
 10
1652.450038065133
 20
470.2420312175243
 30
0.0
 11
1632.450038065133
 21
470.2420312175243
 31
0.0
  0
LINE
  5
44D1
330
1F
100
AcDbEntity
  8
AM_VIS
100
AcDbLine
 10
1632.450038065133
 20
470.2420312175243
 30
0.0
 11
1632.450038065133
 21
471.9920312175243
 31
0.0
  0
LINE
  5
44D2
102
{ACAD_REACTORS
330
5526
330
5559
102
}
330
1F
100
AcDbEntity
  8
AM_VIS
100
AcDbLine
 10
1632.450038065133
 20
471.9920312175243
 30
0.0
 11
1640.450038065133
 21
472.4920312175243
 31
0.0
  0
LINE
  5
44D3
330
1F
100
AcDbEntity
  8
AM_VIS
100
AcDbLine
 10
1640.450038065133
 20
472.4920312175243
 30
0.0
 11
1640.450038065133
 21
471.9920312175243
 31
0.0
  0
LINE
  5
44D4
330
1F
100
AcDbEntity
  8
AM_VIS
100
AcDbLine
 10
1640.450038065133
 20
471.9920312175243
 30
0.0
 11
1647.450038065133
 21
471.9920312175243
 31
0.0
  0
LINE
  5
44D5
330
1F
100
AcDbEntity
  8
AM_VIS
100
AcDbLine
 10
1647.450038065133
 20
471.9920312175243
 30
0.0
 11
1647.450038065133
 21
483.9920312175244
 31
0.0
  0
LINE
  5
44D6
330
1F
100
AcDbEntity
  8
AM_VIS
100
AcDbLine
 10
1647.450038065133
 20
483.9920312175244
 30
0.0
 11
1648.450038065133
 21
484.9920312175243
 31
0.0
  0
LINE
  5
44D7
102
{ACAD_REACTORS
330
5583
102
}
330
1F
100
AcDbEntity
  8
AM_VIS
100
AcDbLine
 10
1648.450038065133
 20
484.9920312175243
 30
0.0
 11
1712.450038065133
 21
484.9920312175243
 31
0.0
  0
LINE
  5
44D8
330
1F
100
AcDbEntity
  8
AM_VIS
100
AcDbLine
 10
1712.450038065133
 20
484.9920312175243
 30
0.0
 11
1713.450038065133
 21
483.9920312175244
 31
0.0
  0
LINE
  5
44D9
330
1F
100
AcDbEntity
  8
AM_VIS
100
AcDbLine
 10
1713.450038065133
 20
483.9920312175244
 30
0.0
 11
1713.450038065133
 21
481.7420312175244
 31
0.0
  0
LINE
  5
44DA
330
1F
100
AcDbEntity
  8
AM_VIS
100
AcDbLine
 10
1713.450038065133
 20
481.7420312175244
 30
0.0
 11
1712.450038065133
 21
480.7420312175244
 31
0.0
  0
LINE
  5
44DB
330
1F
100
AcDbEntity
  8
AM_VIS
100
AcDbLine
 10
1712.450038065133
 20
480.7420312175244
 30
0.0
 11
1683.450038065133
 21
480.7420312175244
 31
0.0
  0
LINE
  5
44DC
330
1F
100
AcDbEntity
  8
AM_VIS
100
AcDbLine
 10
1683.450038065133
 20
480.7420312175244
 30
0.0
 11
1683.450038065133
 21
475.9920312175244
 31
0.0
  0
LINE
  5
44DD
330
1F
100
AcDbEntity
  8
AM_VIS
100
AcDbLine
 10
1683.450038065133
 20
475.9920312175244
 30
0.0
 11
1682.450038065133
 21
474.9920312175243
 31
0.0
  0
LINE
  5
44DE
330
1F
100
AcDbEntity
  8
AM_VIS
100
AcDbLine
 10
1682.450038065133
 20
474.9920312175243
 30
0.0
 11
1653.450038065133
 21
474.9920312175243
 31
0.0
  0
LINE
  5
44DF
330
1F
100
AcDbEntity
  8
AM_VIS
100
AcDbLine
 10
1683.450038065133
 20
464.9920312175243
 30
0.0
 11
1683.450038065133
 21
475.9920312175244
 31
0.0
  0
LINE
  5
44E0
330
1F
100
AcDbEntity
  8
AM_VIS
100
AcDbLine
 10
1682.450038065133
 20
474.9920312175243
 30
0.0
 11
1682.450038065133
 21
464.9920312175242
 31
0.0
  0
LINE
  5
44E1
330
1F
100
AcDbEntity
  8
AM_VIS
100
AcDbLine
 10
1712.450038065133
 20
480.7420312175244
 30
0.0
 11
1712.450038065133
 21
480.4920312175243
 31
0.0
  0
LINE
  5
44E3
330
1F
100
AcDbEntity
  8
AM_VIS
100
AcDbLine
 10
1652.450038065133
 20
470.2420312175243
 30
0.0
 11
1652.450038065133
 21
464.9920312175242
 31
0.0
  0
LINE
  5
44E4
330
1F
100
AcDbEntity
  8
AM_VIS
100
AcDbLine
 10
1632.450038065133
 20
459.7420312175243
 30
0.0
 11
1632.450038065133
 21
470.2420312175243
 31
0.0
  0
ARC
  5
44E6
330
1F
100
AcDbEntity
  8
AM_VIS
100
AcDbCircle
 10
1653.450038065133
 20
473.9920312175243
 30
0.0
 40
1.0
100
AcDbArc
 50
90.0
 51
180.0
  0
CIRCLE
  5
44E7
330
1F
100
AcDbEntity
  8
AM_VIS
100
AcDbCircle
 10
1716.450038065133
 20
476.0920312175243
 30
0.0
 40
1.199999999999999
  0
POLYLINE
  5
44E9
330
1F
100
AcDbEntity
  8
AM_4
100
AcDb2dPolyline
 66
     1
 10
0.0
 20
0.0
 30
0.0
 70
     4
  0
VERTEX
  5
44EA
330
44E9
100
AcDbEntity
  8
AM_4
100
AcDbVertex
100
AcDb2dVertex
 10
1743.986657759422
 20
498.8672941823498
 30
0.0
 70
    16
  0
VERTEX
  5
44EB
330
44E9
100
AcDbEntity
  8
AM_4
100
AcDbVertex
100
AcDb2dVertex
 10
1743.986657759422
 20
498.8672941823498
 30
0.0
 70
     8
  0
VERTEX
  5
44EC
330
44E9
100
AcDbEntity
  8
AM_4
100
AcDbVertex
100
AcDb2dVertex
 10
1741.623239541474
 20
493.9177935306936
 30
0.0
 70
     8
  0
VERTEX
  5
44ED
330
44E9
100
AcDbEntity
  8
AM_4
100
AcDbVertex
100
AcDb2dVertex
 10
1740.043322981903
 20
489.4150639127702
 30
0.0
 70
     8
  0
VERTEX
  5
44EE
330
44E9
100
AcDbEntity
  8
AM_4
100
AcDbVertex
100
AcDb2dVertex
 10
1739.104224520449
 20
485.3401121369135
 30
0.0
 70
     8
  0
VERTEX
  5
44EF
330
44E9
100
AcDbEntity
  8
AM_4
100
AcDbVertex
100
AcDb2dVertex
 10
1738.663260596851
 20
481.6739450114575
 30
0.0
 70
     8
  0
VERTEX
  5
44F0
330
44E9
100
AcDbEntity
  8
AM_4
100
AcDbVertex
100
AcDb2dVertex
 10
1738.57774765085
 20
478.397569344736
 30
0.0
 70
     8
  0
VERTEX
  5
44F1
330
44E9
100
AcDbEntity
  8
AM_4
100
AcDbVertex
100
AcDb2dVertex
 10
1738.705002122184
 20
475.4919919450828
 30
0.0
 70
     8
  0
VERTEX
  5
44F2
330
44E9
100
AcDbEntity
  8
AM_4
100
AcDbVertex
100
AcDb2dVertex
 10
1738.902340450594
 20
472.938219620832
 30
0.0
 70
     8
  0
VERTEX
  5
44F3
330
44E9
100
AcDbEntity
  8
AM_4
100
AcDbVertex
100
AcDb2dVertex
 10
1739.027079075818
 20
470.7172591803172
 30
0.0
 70
     8
  0
VERTEX
  5
44F4
330
44E9
100
AcDbEntity
  8
AM_4
100
AcDbVertex
100
AcDb2dVertex
 10
1738.969203605072
 20
468.805809468327
 30
0.0
 70
     8
  0
VERTEX
  5
44F5
330
44E9
100
AcDbEntity
  8
AM_4
100
AcDbVertex
100
AcDb2dVertex
 10
1738.749376315467
 20
467.1633374754683
 30
0.0
 70
     8
  0
VERTEX
  5
44F6
330
44E9
100
AcDbEntity
  8
AM_4
100
AcDbVertex
100
AcDb2dVertex
 10
1738.420928651593
 20
465.7450022288024
 30
0.0
 70
     8
  0
VERTEX
  5
44F7
330
44E9
100
AcDbEntity
  8
AM_4
100
AcDbVertex
100
AcDb2dVertex
 10
1738.037192058035
 20
464.5059627553906
 30
0.0
 70
     8
  0
VERTEX
  5
44F8
330
44E9
100
AcDbEntity
  8
AM_4
100
AcDbVertex
100
AcDb2dVertex
 10
1737.651497979382
 20
463.4013780822945
 30
0.0
 70
     8
  0
VERTEX
  5
44F9
330
44E9
100
AcDbEntity
  8
AM_4
100
AcDbVertex
100
AcDb2dVertex
 10
1737.31717786022
 20
462.3864072365753
 30
0.0
 70
     8
  0
VERTEX
  5
44FA
330
44E9
100
AcDbEntity
  8
AM_4
100
AcDbVertex
100
AcDb2dVertex
 10
1737.087563145139
 20
461.4162092452946
 30
0.0
 70
     8
  0
VERTEX
  5
44FB
330
44E9
100
AcDbEntity
  8
AM_4
100
AcDbVertex
100
AcDb2dVertex
 10
1737.015985278723
 20
460.4459431355135
 30
0.0
 70
     8
  0
VERTEX
  5
44FC
330
44E9
100
AcDbEntity
  8
AM_4
100
AcDbVertex
100
AcDb2dVertex
 10
1737.135939061684
 20
459.4385774891905
 30
0.0
 70
     8
  0
VERTEX
  5
44FD
330
44E9
100
AcDbEntity
  8
AM_4
100
AcDbVertex
100
AcDb2dVertex
 10
1737.401572719217
 20
458.3883191078718
 30
0.0
 70
     8
  0
VERTEX
  5
44FE
330
44E9
100
AcDbEntity
  8
AM_4
100
AcDbVertex
100
AcDb2dVertex
 10
1737.74719783264
 20
457.2971843480003
 30
0.0
 70
     8
  0
VERTEX
  5
44FF
330
44E9
100
AcDbEntity
  8
AM_4
100
AcDbVertex
100
AcDb2dVertex
 10
1738.107125983271
 20
456.1671895660196
 30
0.0
 70
     8
  0
VERTEX
  5
4500
330
44E9
100
AcDbEntity
  8
AM_4
100
AcDbVertex
100
AcDb2dVertex
 10
1738.415668752428
 20
455.0003511183724
 30
0.0
 70
     8
  0
VERTEX
  5
4501
330
44E9
100
AcDbEntity
  8
AM_4
100
AcDbVertex
100
AcDb2dVertex
 10
1738.607137721428
 20
453.7986853615022
 30
0.0
 70
     8
  0
VERTEX
  5
4502
330
44E9
100
AcDbEntity
  8
AM_4
100
AcDbVertex
100
AcDb2dVertex
 10
1738.61584447159
 20
452.5642086518518
 30
0.0
 70
     8
  0
VERTEX
  5
4503
330
44E9
100
AcDbEntity
  8
AM_4
100
AcDbVertex
100
AcDb2dVertex
 10
1738.376100584232
 20
451.2989373458645
 30
0.0
 70
     8
  0
VERTEX
  5
4504
330
44E9
100
AcDbEntity
  8
AM_4
100
AcDbVertex
100
AcDb2dVertex
 10
1737.861014794587
 20
449.9899665849289
 30
0.0
 70
     8
  0
VERTEX
  5
4505
330
44E9
100
AcDbEntity
  8
AM_4
100
AcDbVertex
100
AcDb2dVertex
 10
1737.198884453562
 20
448.5647066502153
 30
0.0
 70
     8
  0
VERTEX
  5
4506
330
44E9
100
AcDbEntity
  8
AM_4
100
AcDbVertex
100
AcDb2dVertex
 10
1736.556804065976
 20
446.9356466078396
 30
0.0
 70
     8
  0
VERTEX
  5
4507
330
44E9
100
AcDbEntity
  8
AM_4
100
AcDbVertex
100
AcDb2dVertex
 10
1736.101868136652
 20
445.0152755239177
 30
0.0
 70
     8
  0
VERTEX
  5
4508
330
44E9
100
AcDbEntity
  8
AM_4
100
AcDbVertex
100
AcDb2dVertex
 10
1736.001171170411
 20
442.7160824645652
 30
0.0
 70
     8
  0
VERTEX
  5
4509
330
44E9
100
AcDbEntity
  8
AM_4
100
AcDbVertex
100
AcDb2dVertex
 10
1736.421807672074
 20
439.9505564958982
 30
0.0
 70
     8
  0
VERTEX
  5
450A
330
44E9
100
AcDbEntity
  8
AM_4
100
AcDbVertex
100
AcDb2dVertex
 10
1737.530872146464
 20
436.6311866840325
 30
0.0
 70
     8
  0
VERTEX
  5
450B
330
44E9
100
AcDbEntity
  8
AM_4
100
AcDbVertex
100
AcDb2dVertex
 10
1739.495459098401
 20
432.6704620950838
 30
0.0
 70
     8
  0
VERTEX
  5
450C
330
44E9
100
AcDbEntity
  8
AM_4
100
AcDbVertex
100
AcDb2dVertex
 10
1736.512710469048
 20
485.0560482292529
 30
0.0
 70
    16
  0
VERTEX
  5
450D
330
44E9
100
AcDbEntity
  8
AM_4
100
AcDbVertex
100
AcDb2dVertex
 10
1741.323433885903
 20
467.3698597982369
 30
0.0
 70
    16
  0
VERTEX
  5
450E
330
44E9
100
AcDbEntity
  8
AM_4
100
AcDbVertex
100
AcDb2dVertex
 10
1734.761390150677
 20
460.9249734441947
 30
0.0
 70
    16
  0
VERTEX
  5
450F
330
44E9
100
AcDbEntity
  8
AM_4
100
AcDbVertex
100
AcDb2dVertex
 10
1741.726917183728
 20
451.605905238065
 30
0.0
 70
    16
  0
VERTEX
  5
4510
330
44E9
100
AcDbEntity
  8
AM_4
100
AcDbVertex
100
AcDb2dVertex
 10
1732.967335474443
 20
444.1653215318434
 30
0.0
 70
    16
  0
VERTEX
  5
4511
330
44E9
100
AcDbEntity
  8
AM_4
100
AcDbVertex
100
AcDb2dVertex
 10
1739.495459098401
 20
432.6704620950838
 30
0.0
 70
    16
  0
SEQEND
  5
4512
330
44E9
100
AcDbEntity
  8
AM_4
  0
LINE
  5
4513
330
1F
100
AcDbEntity
  8
AM_7
100
AcDbLine
 10
1814.875628822868
 20
288.080476289242
 30
0.0
 11
1844.875628822869
 21
288.080476289242
 31
0.0
  0
LINE
  5
4514
330
1F
100
AcDbEntity
  8
AM_7
100
AcDbLine
 10
1872.125628822869
 20
270.080476289242
 30
0.0
 11
1873.625628822869
 21
270.080476289242
 31
0.0
  0
LINE
  5
4515
330
1F
100
AcDbEntity
  8
AM_7
100
AcDbLine
 10
1872.875628822869
 20
269.330476289242
 30
0.0
 11
1872.875628822869
 21
270.830476289242
 31
0.0
  0
LINE
  5
4516
330
1F
100
AcDbEntity
  8
AM_7
100
AcDbLine
 10
1867.575628822869
 20
270.080476289242
 30
0.0
 11
1871.325628822868
 21
270.080476289242
 31
0.0
  0
LINE
  5
4517
102
{ACAD_REACTORS
330
707B
102
}
330
1F
100
AcDbEntity
  8
AM_7
100
AcDbLine
 10
1874.425628822869
 20
270.080476289242
 30
0.0
 11
1878.175628822869
 21
270.080476289242
 31
0.0
  0
LINE
  5
4518
330
1F
100
AcDbEntity
  8
AM_7
100
AcDbLine
 10
1872.875628822869
 20
264.780476289242
 30
0.0
 11
1872.875628822869
 21
268.530476289242
 31
0.0
  0
LINE
  5
4519
330
1F
100
AcDbEntity
  8
AM_7
100
AcDbLine
 10
1872.875628822869
 20
271.630476289242
 30
0.0
 11
1872.875628822869
 21
275.380476289242
 31
0.0
  0
LINE
  5
451A
330
1F
100
AcDbEntity
  8
AM_7
100
AcDbLine
 10
1872.125628822869
 20
306.080476289242
 30
0.0
 11
1873.625628822869
 21
306.080476289242
 31
0.0
  0
LINE
  5
451B
330
1F
100
AcDbEntity
  8
AM_7
100
AcDbLine
 10
1872.875628822869
 20
305.330476289242
 30
0.0
 11
1872.875628822869
 21
306.830476289242
 31
0.0
  0
LINE
  5
451C
330
1F
100
AcDbEntity
  8
AM_7
100
AcDbLine
 10
1867.575628822869
 20
306.080476289242
 30
0.0
 11
1871.325628822868
 21
306.080476289242
 31
0.0
  0
LINE
  5
451D
102
{ACAD_REACTORS
330
707B
102
}
330
1F
100
AcDbEntity
  8
AM_7
100
AcDbLine
 10
1874.425628822869
 20
306.080476289242
 30
0.0
 11
1878.175628822869
 21
306.080476289242
 31
0.0
  0
LINE
  5
451E
330
1F
100
AcDbEntity
  8
AM_7
100
AcDbLine
 10
1872.875628822869
 20
300.780476289242
 30
0.0
 11
1872.875628822869
 21
304.530476289242
 31
0.0
  0
LINE
  5
451F
330
1F
100
AcDbEntity
  8
AM_7
100
AcDbLine
 10
1872.875628822869
 20
307.630476289242
 30
0.0
 11
1872.875628822869
 21
311.380476289242
 31
0.0
  0
LINE
  5
4520
330
1F
100
AcDbEntity
  8
AM_7
100
AcDbLine
 10
2056.947425592594
 20
288.080476289242
 30
0.0
 11
1896.472648120778
 21
288.080476289242
 31
0.0
  0
LINE
  5
4521
330
1F
100
AcDbEntity
  8
AM_7
100
AcDbLine
 10
2001.875628822869
 20
270.080476289242
 30
0.0
 11
2001.875628822869
 21
274.519476289242
 31
0.0
  0
LINE
  5
4522
330
1F
100
AcDbEntity
  8
AM_7
100
AcDbLine
 10
2001.875628822869
 20
306.080476289242
 30
0.0
 11
2001.875628822869
 21
301.641476289242
 31
0.0
  0
LINE
  5
4523
330
1F
100
AcDbEntity
  8
AM_7
100
AcDbLine
 10
2019.875628822869
 20
288.580476289242
 30
0.0
 11
2019.875628822869
 21
253.080476289242
 31
0.0
  0
LINE
  5
4524
102
{ACAD_REACTORS
330
70C9
102
}
330
1F
100
AcDbEntity
  8
AM_7
100
AcDbLine
 10
2088.935521113597
 20
288.080476289242
 30
0.0
 11
2056.803832053144
 21
288.080476289242
 31
0.0
  0
LINE
  5
4527
330
1F
100
AcDbEntity
  8
AM_7
100
AcDbLine
 10
1739.751488650688
 20
288.080476289242
 30
0.0
 11
1741.251488650688
 21
288.080476289242
 31
0.0
  0
LINE
  5
4528
330
1F
100
AcDbEntity
  8
AM_7
100
AcDbLine
 10
1740.501488650688
 20
287.330476289242
 30
0.0
 11
1740.501488650688
 21
288.830476289242
 31
0.0
  0
LINE
  5
4529
330
1F
100
AcDbEntity
  8
AM_7
100
AcDbLine
 10
1714.001488650688
 20
288.080476289242
 30
0.0
 11
1738.951488650688
 21
288.080476289242
 31
0.0
  0
LINE
  5
452A
330
1F
100
AcDbEntity
  8
AM_7
100
AcDbLine
 10
1742.051488650688
 20
288.080476289242
 30
0.0
 11
1767.001488650688
 21
288.080476289242
 31
0.0
  0
LINE
  5
452B
330
1F
100
AcDbEntity
  8
AM_7
100
AcDbLine
 10
1740.501488650688
 20
261.580476289242
 30
0.0
 11
1740.501488650688
 21
286.5304762892419
 31
0.0
  0
LINE
  5
452C
330
1F
100
AcDbEntity
  8
AM_7
100
AcDbLine
 10
1740.501488650688
 20
289.630476289242
 30
0.0
 11
1740.501488650688
 21
314.580476289242
 31
0.0
  0
ARC
  5
452D
330
1F
100
AcDbEntity
  8
0
 62
     3
100
AcDbCircle
 10
1740.501488650688
 20
288.080476289242
 30
0.0
 40
15.75
100
AcDbArc
 50
252.6054998967796
 51
202.8122460552766
  0
CIRCLE
  5
452E
330
1F
100
AcDbEntity
  8
AM_4
  6
HIDDEN2
100
AcDbCircle
 10
1740.501488650688
 20
288.080476289242
 30
0.0
 40
8.33
  0
LINE
  5
4531
330
1F
100
AcDbEntity
  8
AM_7
100
AcDbLine
 10
1740.501488650688
 20
266.080476289242
 30
0.0
 11
1740.501488650688
 21
253.080476289242
 31
0.0
  0
LINE
  5
4532
330
1F
100
AcDbEntity
  8
AM_7
100
AcDbLine
 10
1740.501488650688
 20
293.0804762892421
 30
0.0
 11
1740.501488650688
 21
264.580476289242
 31
0.0
  0
LINE
  5
4533
330
1F
100
AcDbEntity
  8
AM_VIS
100
AcDbLine
 10
1879.875628822868
 20
447.8725781081671
 30
0.0
 11
1842.875628822868
 21
447.8725781081671
 31
0.0
  0
LINE
  5
4534
102
{ACAD_REACTORS
330
72D5
102
}
330
1F
100
AcDbEntity
  8
AM_VIS
100
AcDbLine
 10
1879.875628822868
 20
407.872578108167
 30
0.0
 11
1879.875628822868
 21
447.8725781081671
 31
0.0
  0
LINE
  5
4535
102
{ACAD_REACTORS
330
7133
102
}
330
1F
100
AcDbEntity
  8
AM_VIS
100
AcDbLine
 10
1879.875628822868
 20
407.872578108167
 30
0.0
 11
1842.875628822868
 21
407.872578108167
 31
0.0
  0
LINE
  5
4536
102
{ACAD_REACTORS
330
7109
330
7133
330
7161
330
725A
102
}
330
1F
100
AcDbEntity
  8
AM_VIS
100
AcDbLine
 10
1842.875628822868
 20
447.8725781081671
 30
0.0
 11
1842.875628822868
 21
407.872578108167
 31
0.0
  0
LINE
  5
4537
330
1F
100
AcDbEntity
  8
AM_VIS
100
AcDbLine
 10
1840.875628822868
 20
412.372578108167
 30
0.0
 11
1842.875628822868
 21
412.372578108167
 31
0.0
  0
LINE
  5
4538
330
1F
100
AcDbEntity
  8
AM_VIS
100
AcDbLine
 10
1840.875628822869
 20
443.3725781081671
 30
0.0
 11
1842.875628822868
 21
443.3725781081671
 31
0.0
  0
LINE
  5
4539
330
1F
100
AcDbEntity
  8
AM_VIS
100
AcDbLine
 10
1828.875628822869
 20
411.372578108167
 30
0.0
 11
1829.875628822868
 21
411.372578108167
 31
0.0
  0
LINE
  5
453A
330
1F
100
AcDbEntity
  8
AM_VIS
100
AcDbLine
 10
1839.875628822868
 20
411.372578108167
 30
0.0
 11
1840.875628822868
 21
411.372578108167
 31
0.0
  0
LINE
  5
453B
330
1F
100
AcDbEntity
  8
AM_VIS
100
AcDbLine
 10
1828.875628822869
 20
444.3725781081671
 30
0.0
 11
1829.875628822868
 21
444.3725781081671
 31
0.0
  0
LINE
  5
453C
330
1F
100
AcDbEntity
  8
AM_VIS
100
AcDbLine
 10
1839.875628822868
 20
444.3725781081671
 30
0.0
 11
1840.875628822868
 21
444.3725781081671
 31
0.0
  0
LINE
  5
453D
330
1F
100
AcDbEntity
  8
AM_VIS
100
AcDbLine
 10
1827.875628822868
 20
412.372578108167
 30
0.0
 11
1828.875628822869
 21
411.372578108167
 31
0.0
  0
LINE
  5
453E
330
1F
100
AcDbEntity
  8
AM_VIS
100
AcDbLine
 10
1827.875628822868
 20
443.3725781081671
 30
0.0
 11
1828.875628822869
 21
444.3725781081671
 31
0.0
  0
LINE
  5
453F
330
1F
100
AcDbEntity
  8
AM_VIS
100
AcDbLine
 10
1840.875628822868
 20
411.372578108167
 30
0.0
 11
1840.875628822868
 21
444.3725781081671
 31
0.0
  0
LINE
  5
4540
330
1F
100
AcDbEntity
  8
AM_VIS
100
AcDbLine
 10
1828.875628822869
 20
411.372578108167
 30
0.0
 11
1828.875628822869
 21
444.3725781081671
 31
0.0
  0
LINE
  5
4541
102
{ACAD_REACTORS
330
7109
102
}
330
1F
100
AcDbEntity
  8
AM_VIS
100
AcDbLine
 10
1827.875628822868
 20
412.372578108167
 30
0.0
 11
1827.875628822868
 21
443.3725781081671
 31
0.0
  0
CIRCLE
  5
4543
330
1F
100
AcDbEntity
  8
AM_VIS
100
AcDbCircle
 10
1856.875628822868
 20
427.8725781081671
 30
0.0
 40
7.25
  0
LINE
  5
454C
330
1F
100
AcDbEntity
  8
AM_VIS
100
AcDbLine
 10
1825.875628822868
 20
420.3892633346191
 30
0.0
 11
1816.875628822868
 21
420.3892633346191
 31
0.0
  0
LINE
  5
454D
330
1F
100
AcDbEntity
  8
AM_VIS
100
AcDbLine
 10
1816.875628822868
 20
435.3558928817149
 30
0.0
 11
1825.875628822868
 21
435.3558928817149
 31
0.0
  0
SPLINE
  5
454E
330
1F
100
AcDbEntity
  8
AM_VIS
100
AcDbSpline
210
0.0
220
0.0
230
1.0
 70
    12
 71
     2
 72
     6
 73
     3
 74
     0
 42
0.0000000001
 43
0.0000000001
 40
0.0
 40
0.0
 40
0.0
 40
2.497117740428237
 40
2.497117740428237
 40
2.497117740428237
 10
1815.875628822868
 20
433.0687305308737
 30
0.0
 41
1.0
 10
1816.285437243229
 20
434.1728778726591
 30
0.0
 41
1.003124638744587
 10
1816.875628822868
 20
435.3558928817149
 30
0.0
 41
1.0
  0
SPLINE
  5
454F
330
1F
100
AcDbEntity
  8
AM_VIS
100
AcDbSpline
210
0.0
220
0.0
230
1.0
 70
    12
 71
     2
 72
     6
 73
     3
 74
     0
 42
0.0000000001
 43
0.0000000001
 40
0.0
 40
0.0
 40
0.0
 40
2.497117740428237
 40
2.497117740428237
 40
2.497117740428237
 10
1816.875628822868
 20
420.3892633346191
 30
0.0
 41
1.0
 10
1816.285437243229
 20
421.5722783436754
 30
0.0
 41
1.003124638744587
 10
1815.875628822868
 20
422.6764256854604
 30
0.0
 41
1.0
  0
LINE
  5
4550
330
1F
100
AcDbEntity
  8
AM_VIS
100
AcDbLine
 10
1815.875628822868
 20
422.6764256854604
 30
0.0
 11
1815.875628822868
 21
433.0687305308737
 31
0.0
  0
LINE
  5
4551
102
{ACAD_REACTORS
330
7300
102
}
330
1F
100
AcDbEntity
  8
AM_VIS
100
AcDbLine
 10
1816.875628822868
 20
412.872578108167
 30
0.0
 11
1827.875628822868
 21
412.872578108167
 31
0.0
  0
LINE
  5
4552
102
{ACAD_REACTORS
330
7300
102
}
330
1F
100
AcDbEntity
  8
AM_VIS
100
AcDbLine
 10
1816.875628822868
 20
442.8725781081671
 30
0.0
 11
1827.875628822868
 21
442.8725781081671
 31
0.0
  0
LINE
  5
4553
330
1F
100
AcDbEntity
  8
AM_VIS
100
AcDbLine
 10
1815.875628822868
 20
441.872578108167
 30
0.0
 11
1816.875628822868
 21
442.8725781081671
 31
0.0
  0
LINE
  5
4554
330
1F
100
AcDbEntity
  8
AM_VIS
100
AcDbLine
 10
1815.875628822868
 20
413.8725781081671
 30
0.0
 11
1816.875628822868
 21
412.872578108167
 31
0.0
  0
LINE
  5
4555
330
1F
100
AcDbEntity
  8
AM_VIS
100
AcDbLine
 10
1825.875628822868
 20
420.3892633346192
 30
0.0
 11
1825.875628822868
 21
435.3558928817149
 31
0.0
  0
LINE
  5
4556
330
1F
100
AcDbEntity
  8
AM_VIS
100
AcDbLine
 10
1816.875628822868
 20
442.8725781081671
 30
0.0
 11
1816.875628822868
 21
435.3558928817149
 31
0.0
  0
LINE
  5
4557
330
1F
100
AcDbEntity
  8
AM_VIS
100
AcDbLine
 10
1816.875628822868
 20
420.3892633346191
 30
0.0
 11
1816.875628822868
 21
412.872578108167
 31
0.0
  0
LINE
  5
4558
330
1F
100
AcDbEntity
  8
AM_VIS
100
AcDbLine
 10
1815.875628822868
 20
433.0687305308737
 30
0.0
 11
1815.875628822868
 21
441.872578108167
 31
0.0
  0
LINE
  5
4559
102
{ACAD_REACTORS
330
7284
102
}
330
1F
100
AcDbEntity
  8
AM_VIS
100
AcDbLine
 10
1815.875628822868
 20
413.8725781081671
 30
0.0
 11
1815.875628822868
 21
422.6764256854604
 31
0.0
  0
LINE
  5
455A
330
1F
100
AcDbEntity
  8
AM_VIS
100
AcDbLine
 10
1982.575628822868
 20
443.7225781081671
 30
0.0
 11
1879.875628822868
 21
443.7225781081671
 31
0.0
  0
LINE
  5
455B
330
1F
100
AcDbEntity
  8
AM_VIS
100
AcDbLine
 10
1982.575628822868
 20
412.022578108167
 30
0.0
 11
1879.875628822868
 21
412.022578108167
 31
0.0
  0
LINE
  5
455C
330
1F
100
AcDbEntity
  8
AM_VIS
100
AcDbLine
 10
1982.875628822869
 20
443.422578108167
 30
0.0
 11
1982.575628822868
 21
443.7225781081671
 31
0.0
  0
LINE
  5
455D
330
1F
100
AcDbEntity
  8
AM_VIS
100
AcDbLine
 10
1982.875628822869
 20
412.3225781081671
 30
0.0
 11
1982.575628822868
 21
412.022578108167
 31
0.0
  0
LINE
  5
455E
330
1F
100
AcDbEntity
  8
AM_VIS
100
AcDbLine
 10
1982.575628822868
 20
412.022578108167
 30
0.0
 11
1982.575628822868
 21
443.7225781081671
 31
0.0
  0
LINE
  5
455F
330
1F
100
AcDbEntity
  8
AM_VIS
100
AcDbLine
 10
1982.875628822869
 20
443.422578108167
 30
0.0
 11
1982.875628822869
 21
412.3225781081671
 31
0.0
  0
LINE
  5
4560
330
1F
100
AcDbEntity
  8
AM_VIS
100
AcDbLine
 10
1996.378425126989
 20
419.2833568782143
 30
0.0
 11
1996.878643994783
 21
420.2552531433908
 31
0.0
  0
LINE
  5
4561
330
1F
100
AcDbEntity
  8
AM_VIS
100
AcDbLine
 10
1996.375628822869
 20
419.2847960895082
 30
0.0
 11
1988.875628822869
 21
419.2847960895082
 31
0.0
  0
LINE
  5
4562
330
1F
100
AcDbEntity
  8
AM_VIS
100
AcDbLine
 10
1988.875628822869
 20
436.4603601268258
 30
0.0
 11
1996.375628822869
 21
436.4603601268258
 31
0.0
  0
LINE
  5
4563
330
1F
100
AcDbEntity
  8
AM_VIS
100
AcDbLine
 10
1996.378425126989
 20
436.4617993381196
 30
0.0
 11
1996.878643994783
 21
435.4899030729431
 31
0.0
  0
LINE
  5
4564
330
1F
100
AcDbEntity
  8
AM_VIS
100
AcDbLine
 10
1983.875628822868
 20
412.372578108167
 30
0.0
 11
1984.375628822868
 21
411.872578108167
 31
0.0
  0
LINE
  5
4565
330
1F
100
AcDbEntity
  8
AM_VIS
100
AcDbLine
 10
1983.875628822868
 20
443.372578108167
 30
0.0
 11
1984.375628822868
 21
443.872578108167
 31
0.0
  0
LINE
  5
4566
330
1F
100
AcDbEntity
  8
AM_VIS
100
AcDbLine
 10
1984.375628822868
 20
411.8725781081669
 30
0.0
 11
1996.375628822869
 21
411.8725781081669
 31
0.0
  0
LINE
  5
4567
330
1F
100
AcDbEntity
  8
AM_VIS
100
AcDbLine
 10
1984.375628822868
 20
443.872578108167
 30
0.0
 11
1996.375628822869
 21
443.872578108167
 31
0.0
  0
LINE
  5
4568
330
1F
100
AcDbEntity
  8
AM_VIS
100
AcDbLine
 10
1996.875628822868
 20
412.372578108167
 30
0.0
 11
1996.375628822869
 21
411.8725781081669
 31
0.0
  0
LINE
  5
4569
330
1F
100
AcDbEntity
  8
AM_VIS
100
AcDbLine
 10
1982.875628822869
 20
415.122578108167
 30
0.0
 11
1983.875628822868
 21
415.122578108167
 31
0.0
  0
LINE
  5
456A
330
1F
100
AcDbEntity
  8
AM_VIS
100
AcDbLine
 10
1982.875628822869
 20
440.622578108167
 30
0.0
 11
1983.875628822868
 21
440.622578108167
 31
0.0
  0
LINE
  5
456B
330
1F
100
AcDbEntity
  8
AM_VIS
100
AcDbLine
 10
1996.875628822868
 20
443.372578108167
 30
0.0
 11
1996.375628822869
 21
443.872578108167
 31
0.0
  0
LINE
  5
456C
330
1F
100
AcDbEntity
  8
AM_VIS
100
AcDbLine
 10
1983.875628822868
 20
412.372578108167
 30
0.0
 11
1983.875628822868
 21
443.372578108167
 31
0.0
  0
LINE
  5
456D
330
1F
100
AcDbEntity
  8
AM_VIS
100
AcDbLine
 10
1984.375628822868
 20
443.872578108167
 30
0.0
 11
1984.375628822868
 21
411.8725781081669
 31
0.0
  0
LINE
  5
456E
330
1F
100
AcDbEntity
  8
AM_VIS
100
AcDbLine
 10
1996.375628822869
 20
411.8725781081669
 30
0.0
 11
1996.375628822869
 21
419.2847960895082
 31
0.0
  0
LINE
  5
456F
330
1F
100
AcDbEntity
  8
AM_VIS
100
AcDbLine
 10
1988.875628822869
 20
436.4603601268258
 30
0.0
 11
1988.875628822869
 21
419.2847960895082
 31
0.0
  0
LINE
  5
4570
330
1F
100
AcDbEntity
  8
AM_VIS
100
AcDbLine
 10
1996.375628822869
 20
436.4603601268258
 30
0.0
 11
1996.375628822869
 21
443.872578108167
 31
0.0
  0
LINE
  5
4571
330
1F
100
AcDbEntity
  8
AM_VIS
100
AcDbLine
 10
1996.875628822868
 20
420.2568050023031
 30
0.0
 11
1996.875628822868
 21
412.372578108167
 31
0.0
  0
LINE
  5
4572
330
1F
100
AcDbEntity
  8
AM_VIS
100
AcDbLine
 10
1996.875628822868
 20
443.372578108167
 30
0.0
 11
1996.875628822868
 21
435.4883512140309
 31
0.0
  0
LINE
  5
4573
330
1F
100
AcDbEntity
  8
AM_VIS
100
AcDbLine
 10
2051.378425126989
 20
419.2833568782143
 30
0.0
 11
2051.878643994783
 21
420.2552531433908
 31
0.0
  0
LINE
  5
4574
330
1F
100
AcDbEntity
  8
AM_VIS
100
AcDbLine
 10
2051.378425126989
 20
436.4617993381197
 30
0.0
 11
2051.878643994783
 21
435.4899030729431
 31
0.0
  0
ARC
  5
4575
330
1F
100
AcDbEntity
  8
AM_VIS
100
AcDbCircle
 10
2001.875628822869
 20
427.7402626778909
 30
0.0
 40
2.154067634288489
100
AcDbArc
 50
3.5216588095747
 51
176.4783411904253
  0
ARC
  5
4576
330
1F
100
AcDbEntity
  8
AM_VIS
100
AcDbCircle
 10
2001.875628822869
 20
428.0048935384431
 30
0.0
 40
2.154067634288489
100
AcDbArc
 50
183.5216588095747
 51
356.4783411904253
  0
LINE
  5
4577
330
1F
100
AcDbEntity
  8
AM_VIS
100
AcDbLine
 10
2036.875628822869
 20
436.4603601268258
 30
0.0
 11
2051.375628822869
 21
436.4603601268258
 31
0.0
  0
LINE
  5
4578
330
1F
100
AcDbEntity
  8
AM_VIS
100
AcDbLine
 10
2051.375628822869
 20
419.2847960895082
 30
0.0
 11
2036.875628822869
 21
419.2847960895082
 31
0.0
  0
LINE
  5
4579
330
1F
100
AcDbEntity
  8
AM_VIS
100
AcDbLine
 10
2051.875628822869
 20
435.4883512140309
 30
0.0
 11
2051.875628822869
 21
420.2568050023031
 31
0.0
  0
LINE
  5
457A
330
1F
100
AcDbEntity
  8
AM_VIS
100
AcDbLine
 10
1996.875628822868
 20
412.372578108167
 30
0.0
 11
1997.375628822869
 21
411.8725781081669
 31
0.0
  0
LINE
  5
457B
330
1F
100
AcDbEntity
  8
AM_VIS
100
AcDbLine
 10
1996.875628822868
 20
443.372578108167
 30
0.0
 11
1997.375628822869
 21
443.872578108167
 31
0.0
  0
LINE
  5
457C
330
1F
100
AcDbEntity
  8
AM_VIS
100
AcDbLine
 10
2051.875628822869
 20
412.372578108167
 30
0.0
 11
2051.375628822869
 21
411.8725781081669
 31
0.0
  0
LINE
  5
457D
330
1F
100
AcDbEntity
  8
AM_VIS
100
AcDbLine
 10
2051.875628822869
 20
443.372578108167
 30
0.0
 11
2051.375628822869
 21
443.872578108167
 31
0.0
  0
LINE
  5
457E
102
{ACAD_REACTORS
330
7377
102
}
330
1F
100
AcDbEntity
  8
AM_VIS
100
AcDbLine
 10
2051.375628822869
 20
443.872578108167
 30
0.0
 11
1997.375628822869
 21
443.872578108167
 31
0.0
  0
LINE
  5
457F
102
{ACAD_REACTORS
330
7377
102
}
330
1F
100
AcDbEntity
  8
AM_VIS
100
AcDbLine
 10
2051.375628822869
 20
411.8725781081669
 30
0.0
 11
1997.375628822869
 21
411.8725781081669
 31
0.0
  0
LINE
  5
4580
330
1F
100
AcDbEntity
  8
AM_VIS
100
AcDbLine
 10
1996.875628822868
 20
412.372578108167
 30
0.0
 11
1996.875628822868
 21
443.372578108167
 31
0.0
  0
LINE
  5
4581
330
1F
100
AcDbEntity
  8
AM_VIS
100
AcDbLine
 10
1997.375628822869
 20
443.872578108167
 30
0.0
 11
1997.375628822869
 21
411.8725781081669
 31
0.0
  0
LINE
  5
4582
330
1F
100
AcDbEntity
  8
AM_VIS
100
AcDbLine
 10
2051.375628822869
 20
436.4603601268258
 30
0.0
 11
2051.375628822869
 21
443.8725781081671
 31
0.0
  0
LINE
  5
4583
330
1F
100
AcDbEntity
  8
AM_VIS
100
AcDbLine
 10
2036.875628822869
 20
436.4603601268258
 30
0.0
 11
2036.875628822869
 21
419.2847960895082
 31
0.0
  0
LINE
  5
4584
330
1F
100
AcDbEntity
  8
AM_VIS
100
AcDbLine
 10
2051.375628822869
 20
411.8725781081669
 30
0.0
 11
2051.375628822869
 21
419.2847960895082
 31
0.0
  0
LINE
  5
4585
330
1F
100
AcDbEntity
  8
AM_VIS
100
AcDbLine
 10
2051.875628822869
 20
420.2568050023031
 30
0.0
 11
2051.875628822869
 21
412.372578108167
 31
0.0
  0
LINE
  5
4586
330
1F
100
AcDbEntity
  8
AM_VIS
100
AcDbLine
 10
2051.875628822869
 20
443.372578108167
 30
0.0
 11
2051.875628822869
 21
435.4883512140309
 31
0.0
  0
LINE
  5
4587
330
1F
100
AcDbEntity
  8
AM_VIS
100
AcDbLine
 10
1832.50725623403
 20
450.8725781081671
 30
0.0
 11
1837.244001411707
 21
450.8725781081671
 31
0.0
  0
SPLINE
  5
4588
330
1F
100
AcDbEntity
  8
AM_VIS
100
AcDbSpline
210
0.0
220
0.0
230
1.0
 70
    12
 71
     2
 72
     6
 73
     3
 74
     0
 42
0.0000000001
 43
0.0000000001
 40
0.7545396902518135
 40
0.7545396902518135
 40
0.7545396902518135
 40
27.90437399000611
 40
27.90437399000611
 40
27.90437399000611
 10
1837.244001411707
 20
427.8725781081668
 30
0.0
 41
1.008916554647276
 10
1841.077334745039
 20
439.3725781081616
 30
-0.0000000000000036
 41
1.164996488830897
 10
1837.244001411708
 20
450.8725781081672
 30
0.0
 41
1.008916554647449
  0
LINE
  5
4589
330
1F
100
AcDbEntity
  8
AM_VIS
100
AcDbLine
 10
1837.244001411707
 20
450.8725781081671
 30
0.0
 11
1839.298278553678
 21
450.8725781081671
 31
0.0
  0
LINE
  5
458A
330
1F
100
AcDbEntity
  8
AM_VIS
100
AcDbLine
 10
1837.244001411707
 20
404.872578108167
 30
0.0
 11
1839.298278553678
 21
404.872578108167
 31
0.0
  0
LINE
  5
458B
330
1F
100
AcDbEntity
  8
AM_VIS
100
AcDbLine
 10
1832.50725623403
 20
427.8725781081671
 30
0.0
 11
1837.244001411707
 21
427.8725781081671
 31
0.0
  0
SPLINE
  5
458C
330
1F
100
AcDbEntity
  8
AM_VIS
100
AcDbSpline
210
0.0
220
0.0
230
1.0
 70
    12
 71
     2
 72
     6
 73
     3
 74
     0
 42
0.0000000001
 43
0.0000000001
 40
0.7545396902517659
 40
0.7545396902517659
 40
0.7545396902517659
 40
27.90437399000606
 40
27.90437399000606
 40
27.90437399000606
 10
1837.244001411707
 20
404.872578108167
 30
0.0
 41
1.008916554647275
 10
1841.077334745039
 20
416.3725781081615
 30
0.0
 41
1.164996488830898
 10
1837.244001411707
 20
427.8725781081671
 30
0.0
 41
1.008916554647449
  0
LINE
  5
458D
330
1F
100
AcDbEntity
  8
AM_VIS
100
AcDbLine
 10
1832.50725623403
 20
404.872578108167
 30
0.0
 11
1837.244001411707
 21
404.872578108167
 31
0.0
  0
LINE
  5
458E
330
1F
100
AcDbEntity
  8
AM_VIS
100
AcDbLine
 10
1830.452979092059
 20
450.8725781081671
 30
0.0
 11
1832.50725623403
 21
450.8725781081671
 31
0.0
  0
SPLINE
  5
458F
330
1F
100
AcDbEntity
  8
AM_VIS
100
AcDbSpline
210
0.0
220
0.0
230
1.0
 70
    12
 71
     2
 72
     6
 73
     3
 74
     0
 42
0.0000000001
 43
0.0000000001
 40
0.7545396902517593
 40
0.7545396902517593
 40
0.7545396902517593
 40
27.90437399000606
 40
27.90437399000606
 40
27.90437399000606
 10
1832.50725623403
 20
450.8725781081668
 30
0.0
 41
1.008916554647275
 10
1828.673922900699
 20
439.3725781081726
 30
0.0
 41
1.164996488830897
 10
1832.50725623403
 20
427.8725781081671
 30
0.0
 41
1.008916554647449
  0
SPLINE
  5
4590
330
1F
100
AcDbEntity
  8
AM_VIS
100
AcDbSpline
210
0.0
220
0.0
230
1.0
 70
    12
 71
     2
 72
     6
 73
     3
 74
     0
 42
0.0000000001
 43
0.0000000001
 40
0.7545396902518231
 40
0.7545396902518231
 40
0.7545396902518231
 40
27.90437399000612
 40
27.90437399000612
 40
27.90437399000612
 10
1832.507256234029
 20
427.8725781081668
 30
0.0
 41
1.008916554647276
 10
1828.673922900698
 20
416.3725781081725
 30
0.0000000000000036
 41
1.164996488830895
 10
1832.50725623403
 20
404.8725781081673
 30
0.0
 41
1.008916554647449
  0
LINE
  5
4591
330
1F
100
AcDbEntity
  8
AM_VIS
100
AcDbLine
 10
1830.452979092058
 20
404.872578108167
 30
0.0
 11
1832.50725623403
 21
404.872578108167
 31
0.0
  0
LINE
  5
4592
330
1F
100
AcDbEntity
  8
AM_VIS
100
AcDbLine
 10
1839.875628822868
 20
449.872578108167
 30
0.0
 11
1839.298278553679
 21
450.8725781081674
 31
0.0
  0
LINE
  5
4593
330
1F
100
AcDbEntity
  8
AM_VIS
100
AcDbLine
 10
1839.875628822868
 20
405.8725781081671
 30
0.0
 11
1839.298278553679
 21
404.8725781081667
 31
0.0
  0
LINE
  5
4594
330
1F
100
AcDbEntity
  8
AM_VIS
100
AcDbLine
 10
1829.875628822868
 20
405.8725781081671
 30
0.0
 11
1830.452979092058
 21
404.8725781081666
 31
0.0
  0
LINE
  5
4595
330
1F
100
AcDbEntity
  8
AM_VIS
100
AcDbLine
 10
1829.875628822868
 20
449.872578108167
 30
0.0
 11
1830.452979092058
 21
450.8725781081674
 31
0.0
  0
LINE
  5
4596
330
1F
100
AcDbEntity
  8
AM_VIS
100
AcDbLine
 10
1839.875628822868
 20
405.8725781081671
 30
0.0
 11
1839.875628822868
 21
449.872578108167
 31
0.0
  0
LINE
  5
4597
330
1F
100
AcDbEntity
  8
AM_VIS
100
AcDbLine
 10
1829.875628822868
 20
449.872578108167
 30
0.0
 11
1829.875628822868
 21
405.8725781081671
 31
0.0
  0
LINE
  5
4598
330
1F
100
AcDbEntity
  8
AM_VIS
100
AcDbLine
 10
2002.87588816424
 20
428.450078108167
 30
0.0
 11
2001.875628822869
 21
429.0275781081671
 31
0.0
  0
LINE
  5
4599
330
1F
100
AcDbEntity
  8
AM_VIS
100
AcDbLine
 10
2001.875628822869
 20
429.0275781081671
 30
0.0
 11
2000.875369481498
 21
428.450078108167
 31
0.0
  0
LINE
  5
459A
330
1F
100
AcDbEntity
  8
AM_VIS
100
AcDbLine
 10
2000.875369481498
 20
428.450078108167
 30
0.0
 11
2000.875369481498
 21
427.295078108167
 31
0.0
  0
LINE
  5
459B
330
1F
100
AcDbEntity
  8
AM_VIS
100
AcDbLine
 10
2000.875369481498
 20
427.295078108167
 30
0.0
 11
2001.875628822869
 21
426.717578108167
 31
0.0
  0
LINE
  5
459C
330
1F
100
AcDbEntity
  8
AM_VIS
100
AcDbLine
 10
2001.875628822869
 20
426.717578108167
 30
0.0
 11
2002.87588816424
 21
427.295078108167
 31
0.0
  0
LINE
  5
459D
330
1F
100
AcDbEntity
  8
AM_VIS
100
AcDbLine
 10
2002.87588816424
 20
427.295078108167
 30
0.0
 11
2002.87588816424
 21
428.450078108167
 31
0.0
  0
CIRCLE
  5
459E
330
1F
100
AcDbEntity
  8
AM_VIS
100
AcDbCircle
 10
2001.875628822869
 20
427.872578108167
 30
0.0
 40
1.57058500000005
  0
LINE
  5
459F
330
1F
100
AcDbEntity
  8
AM_VIS
100
AcDbLine
 10
2058.803832053144
 20
439.8725781081671
 30
0.0
 11
2054.947425592593
 21
439.8725781081671
 31
0.0
  0
SPLINE
  5
45A0
330
1F
100
AcDbEntity
  8
AM_VIS
100
AcDbSpline
210
0.0
220
0.0
230
1.0
 70
    12
 71
     2
 72
     6
 73
     3
 74
     0
 42
0.0000000001
 43
0.0000000001
 40
10.67930694799421
 40
10.67930694799421
 40
10.67930694799421
 40
19.44152500070193
 40
19.44152500070193
 40
19.44152500070193
 10
2058.803832053144
 20
427.8725781081671
 30
0.0
 41
1.094194143152402
 10
2059.875628822869
 20
431.0879684173431
 30
0.0
 41
1.085739542740696
 10
2059.875628822869
 20
433.872578108167
 30
0.0
 41
1.0
  0
SPLINE
  5
45A1
330
1F
100
AcDbEntity
  8
AM_VIS
100
AcDbSpline
210
0.0
220
0.0
230
1.0
 70
    12
 71
     2
 72
     6
 73
     3
 74
     0
 42
0.0000000001
 43
0.0000000001
 40
19.44152500070193
 40
19.44152500070193
 40
19.44152500070193
 40
28.20374305340969
 40
28.20374305340969
 40
28.20374305340969
 10
2059.875628822869
 20
433.872578108167
 30
0.0
 41
1.0
 10
2059.875628822869
 20
436.6571877989908
 30
0.0
 41
1.085739542740697
 10
2058.803832053144
 20
439.8725781081671
 30
0.0
 41
1.094194143152403
  0
LINE
  5
45A2
330
1F
100
AcDbEntity
  8
AM_VIS
100
AcDbLine
 10
2058.803832053144
 20
439.8725781081671
 30
0.0
 11
2059.875628822869
 21
439.8725781081671
 31
0.0
  0
LINE
  5
45A3
330
1F
100
AcDbEntity
  8
AM_VIS
100
AcDbLine
 10
2058.803832053144
 20
415.872578108167
 30
0.0
 11
2059.875628822869
 21
415.872578108167
 31
0.0
  0
LINE
  5
45A4
330
1F
100
AcDbEntity
  8
AM_VIS
100
AcDbLine
 10
2058.803832053144
 20
427.8725781081671
 30
0.0
 11
2054.947425592593
 21
427.8725781081671
 31
0.0
  0
SPLINE
  5
45A5
330
1F
100
AcDbEntity
  8
AM_VIS
100
AcDbSpline
210
0.0
220
0.0
230
1.0
 70
    12
 71
     2
 72
     6
 73
     3
 74
     0
 42
0.0000000001
 43
0.0000000001
 40
19.44152500070193
 40
19.44152500070193
 40
19.44152500070193
 40
28.20374305340966
 40
28.20374305340966
 40
28.20374305340966
 10
2059.875628822869
 20
421.8725781081671
 30
0.0
 41
1.0
 10
2059.875628822869
 20
424.6571877989906
 30
0.0
 41
1.0857395427407
 10
2058.803832053145
 20
427.8725781081673
 30
0.0
 41
1.094194143152407
  0
SPLINE
  5
45A6
330
1F
100
AcDbEntity
  8
AM_VIS
100
AcDbSpline
210
0.0
220
0.0
230
1.0
 70
    12
 71
     2
 72
     6
 73
     3
 74
     0
 42
0.0000000001
 43
0.0000000001
 40
10.67930694799419
 40
10.67930694799419
 40
10.67930694799419
 40
19.44152500070193
 40
19.44152500070193
 40
19.44152500070193
 10
2058.803832053144
 20
415.872578108167
 30
0.0
 41
1.094194143152408
 10
2059.875628822869
 20
419.0879684173429
 30
0.0
 41
1.085739542740701
 10
2059.875628822869
 20
421.8725781081671
 30
0.0
 41
1.0
  0
LINE
  5
45A7
330
1F
100
AcDbEntity
  8
AM_VIS
100
AcDbLine
 10
2058.803832053144
 20
415.872578108167
 30
0.0
 11
2054.947425592593
 21
415.872578108167
 31
0.0
  0
LINE
  5
45A8
330
1F
100
AcDbEntity
  8
AM_VIS
100
AcDbLine
 10
2053.875628822869
 20
415.872578108167
 30
0.0
 11
2054.947425592593
 21
415.872578108167
 31
0.0
  0
SPLINE
  5
45A9
330
1F
100
AcDbEntity
  8
AM_VIS
100
AcDbSpline
210
0.0
220
0.0
230
1.0
 70
    12
 71
     2
 72
     6
 73
     3
 74
     0
 42
0.0000000001
 43
0.0000000001
 40
19.44152500070194
 40
19.44152500070194
 40
19.44152500070194
 40
28.20374305340969
 40
28.20374305340969
 40
28.20374305340969
 10
2053.875628822869
 20
421.8725781081671
 30
0.0
 41
1.0
 10
2053.875628822869
 20
419.0879684173434
 30
-0.0000000000000036
 41
1.085739542740699
 10
2054.947425592593
 20
415.872578108167
 30
0.0
 41
1.094194143152405
  0
SPLINE
  5
45AA
330
1F
100
AcDbEntity
  8
AM_VIS
100
AcDbSpline
210
-0.0000000000000121
220
-0.0000000000000028
230
1.0
 70
    12
 71
     2
 72
     6
 73
     3
 74
     0
 42
0.0000000001
 43
0.0000000001
 40
19.44152500070194
 40
19.44152500070194
 40
19.44152500070194
 40
28.20374305340966
 40
28.20374305340966
 40
28.20374305340966
 10
2053.875628822869
 20
433.872578108167
 30
0.0
 41
1.0
 10
2053.875628822868
 20
431.0879684173431
 30
0.0
 41
1.085739542740697
 10
2054.947425592593
 20
427.8725781081673
 30
-0.0000000000000036
 41
1.094194143152403
  0
SPLINE
  5
45AB
330
1F
100
AcDbEntity
  8
AM_VIS
100
AcDbSpline
210
0.0000000000000121
220
-0.0000000000000028
230
1.0
 70
    12
 71
     2
 72
     6
 73
     3
 74
     0
 42
0.0000000001
 43
0.0000000001
 40
10.67930694799421
 40
10.67930694799421
 40
10.67930694799421
 40
19.44152500070194
 40
19.44152500070194
 40
19.44152500070194
 10
2054.947425592593
 20
427.872578108167
 30
0.0000000000000036
 41
1.094194143152403
 10
2053.875628822869
 20
424.6571877989908
 30
0.0
 41
1.085739542740697
 10
2053.875628822869
 20
421.8725781081671
 30
0.0
 41
1.0
  0
LINE
  5
45AC
330
1F
100
AcDbEntity
  8
AM_VIS
100
AcDbLine
 10
2053.875628822869
 20
439.8725781081671
 30
0.0
 11
2054.947425592593
 21
439.8725781081671
 31
0.0
  0
SPLINE
  5
45AD
330
1F
100
AcDbEntity
  8
AM_VIS
100
AcDbSpline
210
0.0
220
0.0
230
1.0
 70
    12
 71
     2
 72
     6
 73
     3
 74
     0
 42
0.0000000001
 43
0.0000000001
 40
10.67930694799416
 40
10.67930694799416
 40
10.67930694799416
 40
19.44152500070194
 40
19.44152500070194
 40
19.44152500070194
 10
2054.947425592593
 20
439.872578108167
 30
0.0
 41
1.094194143152404
 10
2053.875628822869
 20
436.6571877989908
 30
0.0
 41
1.085739542740698
 10
2053.875628822869
 20
433.872578108167
 30
0.0
 41
1.0
  0
LINE
  5
45AE
330
1F
100
AcDbEntity
  8
AM_VIS
100
AcDbLine
 10
2051.875628822869
 20
417.4350812315752
 30
0.0
 11
2053.875628822869
 21
417.372578108167
 31
0.0
  0
LINE
  5
45AF
330
1F
100
AcDbEntity
  8
AM_VIS
100
AcDbLine
 10
2051.875628822869
 20
438.3100749847588
 30
0.0
 11
2053.875628822869
 21
438.3725781081671
 31
0.0
  0
LINE
  5
45B0
330
1F
100
AcDbEntity
  8
AM_VIS
100
AcDbLine
 10
2086.935521113597
 20
435.4289845707234
 30
0.0
 11
2062.875628822869
 21
436.872578108167
 31
0.0
  0
LINE
  5
45B1
330
1F
100
AcDbEntity
  8
AM_VIS
100
AcDbLine
 10
2086.935521113597
 20
420.3161716456107
 30
0.0
 11
2062.875628822869
 21
418.872578108167
 31
0.0
  0
LINE
  5
45B2
330
1F
100
AcDbEntity
  8
AM_VIS
100
AcDbLine
 10
2059.875628822869
 20
417.872578108167
 30
0.0
 11
2062.375628822869
 21
417.872578108167
 31
0.0
  0
LINE
  5
45B3
330
1F
100
AcDbEntity
  8
AM_VIS
100
AcDbLine
 10
2059.875628822869
 20
437.872578108167
 30
0.0
 11
2062.375628822869
 21
437.872578108167
 31
0.0
  0
LINE
  5
45B4
330
1F
100
AcDbEntity
  8
AM_VIS
100
AcDbLine
 10
2059.875628822869
 20
421.8725781081671
 30
0.0
 11
2059.875628822869
 21
433.872578108167
 31
0.0
  0
LINE
  5
45B5
330
1F
100
AcDbEntity
  8
AM_VIS
100
AcDbLine
 10
2059.875628822869
 20
415.872578108167
 30
0.0
 11
2059.875628822869
 21
421.8725781081671
 31
0.0
  0
LINE
  5
45B6
330
1F
100
AcDbEntity
  8
AM_VIS
100
AcDbLine
 10
2059.875628822869
 20
433.872578108167
 30
0.0
 11
2059.875628822869
 21
439.872578108167
 31
0.0
  0
LINE
  5
45B7
330
1F
100
AcDbEntity
  8
AM_VIS
100
AcDbLine
 10
2053.875628822869
 20
421.8725781081671
 30
0.0
 11
2053.875628822869
 21
415.872578108167
 31
0.0
  0
LINE
  5
45B8
330
1F
100
AcDbEntity
  8
AM_VIS
100
AcDbLine
 10
2053.875628822869
 20
433.872578108167
 30
0.0
 11
2053.875628822869
 21
421.8725781081671
 31
0.0
  0
LINE
  5
45B9
330
1F
100
AcDbEntity
  8
AM_VIS
100
AcDbLine
 10
2053.875628822869
 20
439.872578108167
 30
0.0
 11
2053.875628822869
 21
433.872578108167
 31
0.0
  0
LINE
  5
45BA
102
{ACAD_REACTORS
330
725A
330
7284
102
}
330
1F
100
AcDbEntity
  8
AM_VIS
100
AcDbLine
 10
2087.875628822869
 20
434.4307797252575
 30
0.0
 11
2087.875628822869
 21
421.3143764910764
 31
0.0
  0
LINE
  5
45BB
330
1F
100
AcDbEntity
  8
AM_VIS
100
AcDbLine
 10
2062.875628822869
 20
437.372578108167
 30
0.0
 11
2062.875628822869
 21
418.372578108167
 31
0.0
  0
ARC
  5
45BC
330
1F
100
AcDbEntity
  8
AM_VIS
100
AcDbCircle
 10
2086.875628822869
 20
421.3143764910764
 30
0.0
 40
1.0
100
AcDbArc
 50
273.4336303624495
 51
0.0
  0
ARC
  5
45BD
330
1F
100
AcDbEntity
  8
AM_VIS
100
AcDbCircle
 10
2086.875628822869
 20
434.4307797252575
 30
0.0
 40
1.0
100
AcDbArc
 50
0.0
 51
86.56636963755053
  0
ARC
  5
45BE
330
1F
100
AcDbEntity
  8
AM_VIS
100
AcDbCircle
 10
2062.375628822869
 20
418.372578108167
 30
0.0
 40
0.5
100
AcDbArc
 50
270.0
 51
0.0
  0
ARC
  5
45BF
330
1F
100
AcDbEntity
  8
AM_VIS
100
AcDbCircle
 10
2062.375628822869
 20
437.372578108167
 30
0.0
 40
0.5
100
AcDbArc
 50
0.0
 51
90.0
  0
LINE
  5
45C0
330
1F
100
AcDbEntity
  8
AM_VIS
100
AcDbLine
 10
1879.875628822868
 20
263.080476289242
 30
0.0
 11
1879.875628822868
 21
313.080476289242
 31
0.0
  0
LINE
  5
45C1
102
{ACAD_REACTORS
330
6FF3
102
}
330
1F
100
AcDbEntity
  8
AM_VIS
100
AcDbLine
 10
1879.875628822868
 20
263.080476289242
 30
0.0
 11
1842.875628822868
 21
263.080476289242
 31
0.0
  0
LINE
  5
45C2
330
1F
100
AcDbEntity
  8
AM_VIS
100
AcDbLine
 10
1842.875628822868
 20
313.080476289242
 30
0.0
 11
1842.875628822868
 21
263.080476289242
 31
0.0
  0
LINE
  5
45C3
330
1F
100
AcDbEntity
  8
AM_VIS
100
AcDbLine
 10
1879.875628822868
 20
313.080476289242
 30
0.0
 11
1842.875628822868
 21
313.080476289242
 31
0.0
  0
LINE
  5
45C4
330
1F
100
AcDbEntity
  8
AM_VIS
100
AcDbLine
 10
1840.875628822869
 20
272.580476289242
 30
0.0
 11
1842.875628822868
 21
272.580476289242
 31
0.0
  0
LINE
  5
45C5
330
1F
100
AcDbEntity
  8
AM_VIS
100
AcDbLine
 10
1840.875628822868
 20
303.580476289242
 30
0.0
 11
1842.875628822868
 21
303.580476289242
 31
0.0
  0
LINE
  5
45C6
330
1F
100
AcDbEntity
  8
AM_VIS
100
AcDbLine
 10
1828.875628822869
 20
271.580476289242
 30
0.0
 11
1829.875628822868
 21
271.580476289242
 31
0.0
  0
LINE
  5
45C7
330
1F
100
AcDbEntity
  8
AM_VIS
100
AcDbLine
 10
1839.875628822868
 20
271.580476289242
 30
0.0
 11
1840.875628822868
 21
271.580476289242
 31
0.0
  0
LINE
  5
45C8
102
{ACAD_REACTORS
330
70A3
102
}
330
1F
100
AcDbEntity
  8
AM_VIS
100
AcDbLine
 10
1828.875628822869
 20
304.580476289242
 30
0.0
 11
1829.875628822868
 21
304.580476289242
 31
0.0
  0
LINE
  5
45C9
330
1F
100
AcDbEntity
  8
AM_VIS
100
AcDbLine
 10
1839.875628822868
 20
304.580476289242
 30
0.0
 11
1840.875628822868
 21
304.580476289242
 31
0.0
  0
LINE
  5
45CA
330
1F
100
AcDbEntity
  8
AM_VIS
100
AcDbLine
 10
1827.875628822869
 20
272.580476289242
 30
0.0
 11
1828.875628822869
 21
271.580476289242
 31
0.0
  0
LINE
  5
45CB
330
1F
100
AcDbEntity
  8
AM_VIS
100
AcDbLine
 10
1827.875628822868
 20
303.580476289242
 30
0.0
 11
1828.875628822869
 21
304.580476289242
 31
0.0
  0
LINE
  5
45CC
330
1F
100
AcDbEntity
  8
AM_VIS
100
AcDbLine
 10
1840.875628822868
 20
271.580476289242
 30
0.0
 11
1840.875628822868
 21
304.580476289242
 31
0.0
  0
LINE
  5
45CD
330
1F
100
AcDbEntity
  8
AM_VIS
100
AcDbLine
 10
1828.875628822869
 20
271.580476289242
 30
0.0
 11
1828.875628822869
 21
304.580476289242
 31
0.0
  0
LINE
  5
45CE
330
1F
100
AcDbEntity
  8
AM_VIS
100
AcDbLine
 10
1827.875628822868
 20
272.5804762892419
 30
0.0
 11
1827.875628822868
 21
303.580476289242
 31
0.0
  0
CIRCLE
  5
45CF
330
1F
100
AcDbEntity
  8
AM_VIS
100
AcDbCircle
 10
1872.875628822868
 20
270.080476289242
 30
0.0
 40
3.299999999999999
  0
CIRCLE
  5
45D0
102
{ACAD_REACTORS
330
702D
102
}
330
1F
100
AcDbEntity
  8
AM_VIS
100
AcDbCircle
 10
1872.875628822868
 20
306.080476289242
 30
0.0
 40
3.299999999999999
  0
LINE
  5
45D1
330
1F
100
AcDbEntity
  8
AM_VIS
100
AcDbLine
 10
1825.875628822868
 20
301.080476289242
 30
0.0
 11
1816.875628822868
 21
301.080476289242
 31
0.0
  0
LINE
  5
45D2
330
1F
100
AcDbEntity
  8
AM_VIS
100
AcDbLine
 10
1815.875628822868
 20
301.080476289242
 30
0.0
 11
1816.875628822868
 21
301.080476289242
 31
0.0
  0
LINE
  5
45D3
330
1F
100
AcDbEntity
  8
AM_VIS
100
AcDbLine
 10
1815.875628822868
 20
275.080476289242
 30
0.0
 11
1816.875628822868
 21
275.080476289242
 31
0.0
  0
LINE
  5
45D4
330
1F
100
AcDbEntity
  8
AM_VIS
100
AcDbLine
 10
1816.875628822868
 20
275.080476289242
 30
0.0
 11
1825.875628822868
 21
275.080476289242
 31
0.0
  0
LINE
  5
45D5
330
1F
100
AcDbEntity
  8
AM_VIS
100
AcDbLine
 10
1825.875628822868
 20
273.080476289242
 30
0.0
 11
1827.875628822868
 21
273.080476289242
 31
0.0
  0
LINE
  5
45D6
330
1F
100
AcDbEntity
  8
AM_VIS
100
AcDbLine
 10
1825.875628822868
 20
303.080476289242
 30
0.0
 11
1827.875628822868
 21
303.080476289242
 31
0.0
  0
LINE
  5
45D7
330
1F
100
AcDbEntity
  8
AM_VIS
100
AcDbLine
 10
1825.875628822868
 20
301.080476289242
 30
0.0
 11
1825.875628822868
 21
303.080476289242
 31
0.0
  0
LINE
  5
45D8
330
1F
100
AcDbEntity
  8
AM_VIS
100
AcDbLine
 10
1816.875628822868
 20
301.080476289242
 30
0.0
 11
1816.875628822868
 21
275.080476289242
 31
0.0
  0
LINE
  5
45D9
330
1F
100
AcDbEntity
  8
AM_VIS
100
AcDbLine
 10
1815.875628822868
 20
275.080476289242
 30
0.0
 11
1815.875628822868
 21
301.080476289242
 31
0.0
  0
LINE
  5
45DA
330
1F
100
AcDbEntity
  8
AM_VIS
100
AcDbLine
 10
1825.875628822868
 20
273.080476289242
 30
0.0
 11
1825.875628822868
 21
275.080476289242
 31
0.0
  0
LINE
  5
45DB
330
1F
100
AcDbEntity
  8
AM_VIS
100
AcDbLine
 10
1982.575628822868
 20
304.080476289242
 30
0.0
 11
1879.875628822868
 21
304.080476289242
 31
0.0
  0
LINE
  5
45DC
330
1F
100
AcDbEntity
  8
AM_VIS
100
AcDbLine
 10
1982.575628822868
 20
272.080476289242
 30
0.0
 11
1879.875628822869
 21
272.080476289242
 31
0.0
  0
LINE
  5
45DD
330
1F
100
AcDbEntity
  8
AM_VIS
100
AcDbLine
 10
1982.875628822869
 20
303.780476289242
 30
0.0
 11
1982.575628822868
 21
304.080476289242
 31
0.0
  0
LINE
  5
45DE
330
1F
100
AcDbEntity
  8
AM_VIS
100
AcDbLine
 10
1982.875628822869
 20
272.380476289242
 30
0.0
 11
1982.575628822868
 21
272.080476289242
 31
0.0
  0
LINE
  5
45DF
330
1F
100
AcDbEntity
  8
AM_VIS
100
AcDbLine
 10
1982.575628822868
 20
272.080476289242
 30
0.0
 11
1982.575628822868
 21
304.080476289242
 31
0.0
  0
LINE
  5
45E0
330
1F
100
AcDbEntity
  8
AM_VIS
100
AcDbLine
 10
1982.875628822869
 20
303.780476289242
 30
0.0
 11
1982.875628822869
 21
272.380476289242
 31
0.0
  0
LINE
  5
45E1
330
1F
100
AcDbEntity
  8
AM_VIS
100
AcDbLine
 10
1996.375628822869
 20
301.580476289242
 30
0.0
 11
1996.875628822868
 21
301.580476289242
 31
0.0
  0
LINE
  5
45E2
330
1F
100
AcDbEntity
  8
AM_VIS
100
AcDbLine
 10
1996.375628822869
 20
301.580476289242
 30
0.0
 11
1988.875628822869
 21
301.580476289242
 31
0.0
  0
LINE
  5
45E3
330
1F
100
AcDbEntity
  8
AM_VIS
100
AcDbLine
 10
1988.875628822869
 20
274.580476289242
 30
0.0
 11
1996.375628822869
 21
274.580476289242
 31
0.0
  0
LINE
  5
45E4
330
1F
100
AcDbEntity
  8
AM_VIS
100
AcDbLine
 10
1996.375628822869
 20
274.580476289242
 30
0.0
 11
1996.875628822868
 21
274.580476289242
 31
0.0
  0
LINE
  5
45E5
330
1F
100
AcDbEntity
  8
AM_VIS
100
AcDbLine
 10
1983.875628822868
 20
272.580476289242
 30
0.0
 11
1984.375628822868
 21
272.080476289242
 31
0.0
  0
LINE
  5
45E6
330
1F
100
AcDbEntity
  8
AM_VIS
100
AcDbLine
 10
1983.875628822868
 20
303.580476289242
 30
0.0
 11
1984.375628822868
 21
304.080476289242
 31
0.0
  0
LINE
  5
45E7
330
1F
100
AcDbEntity
  8
AM_VIS
100
AcDbLine
 10
1984.375628822868
 20
272.080476289242
 30
0.0
 11
1988.875628822869
 21
272.080476289242
 31
0.0
  0
LINE
  5
45E8
330
1F
100
AcDbEntity
  8
AM_VIS
100
AcDbLine
 10
1984.375628822868
 20
304.080476289242
 30
0.0
 11
1988.875628822869
 21
304.080476289242
 31
0.0
  0
LINE
  5
45E9
330
1F
100
AcDbEntity
  8
AM_VIS
100
AcDbLine
 10
1982.875628822869
 20
275.330476289242
 30
0.0
 11
1983.875628822868
 21
275.330476289242
 31
0.0
  0
LINE
  5
45EA
330
1F
100
AcDbEntity
  8
AM_VIS
100
AcDbLine
 10
1982.875628822869
 20
300.830476289242
 30
0.0
 11
1983.875628822868
 21
300.830476289242
 31
0.0
  0
LINE
  5
45EB
330
1F
100
AcDbEntity
  8
AM_VIS
100
AcDbLine
 10
1983.875628822868
 20
272.580476289242
 30
0.0
 11
1983.875628822868
 21
303.580476289242
 31
0.0
  0
LINE
  5
45EC
330
1F
100
AcDbEntity
  8
AM_VIS
100
AcDbLine
 10
1984.375628822868
 20
304.080476289242
 30
0.0
 11
1984.375628822868
 21
272.080476289242
 31
0.0
  0
LINE
  5
45ED
330
1F
100
AcDbEntity
  8
AM_VIS
100
AcDbLine
 10
1996.375628822869
 20
274.580476289242
 30
0.0
 11
1996.375628822869
 21
301.580476289242
 31
0.0
  0
LINE
  5
45EE
330
1F
100
AcDbEntity
  8
AM_VIS
100
AcDbLine
 10
1988.875628822869
 20
304.080476289242
 30
0.0
 11
1988.875628822869
 21
301.580476289242
 31
0.0
  0
LINE
  5
45EF
330
1F
100
AcDbEntity
  8
AM_VIS
100
AcDbLine
 10
1996.875628822868
 20
301.580476289242
 30
0.0
 11
1996.875628822868
 21
274.580476289242
 31
0.0
  0
LINE
  5
45F0
330
1F
100
AcDbEntity
  8
AM_VIS
100
AcDbLine
 10
1988.875628822869
 20
274.580476289242
 30
0.0
 11
1988.875628822869
 21
272.080476289242
 31
0.0
  0
LINE
  5
45F1
330
1F
100
AcDbEntity
  8
AM_VIS
100
AcDbLine
 10
2051.375628822869
 20
301.580476289242
 30
0.0
 11
2051.875628822869
 21
301.580476289242
 31
0.0
  0
LINE
  5
45F2
330
1F
100
AcDbEntity
  8
AM_VIS
100
AcDbLine
 10
2032.875628822869
 20
272.080476289242
 30
0.0
 11
2030.375628822869
 21
274.580476289242
 31
0.0
  0
LINE
  5
45F3
330
1F
100
AcDbEntity
  8
AM_VIS
100
AcDbLine
 10
2009.375628822869
 20
274.580476289242
 30
0.0
 11
2030.375628822869
 21
274.580476289242
 31
0.0
  0
LINE
  5
45F4
330
1F
100
AcDbEntity
  8
AM_VIS
100
AcDbLine
 10
2009.375628822869
 20
274.580476289242
 30
0.0
 11
2006.875628822869
 21
272.080476289242
 31
0.0
  0
ARC
  5
45F5
330
1F
100
AcDbEntity
  8
AM_VIS
100
AcDbCircle
 10
2001.875628822869
 20
254.1228479832231
 30
0.0
 40
18.08587610200653
100
AcDbArc
 50
83.17268756819895
 51
96.82731243180105
  0
ARC
  5
45F6
330
1F
100
AcDbEntity
  8
AM_VIS
100
AcDbCircle
 10
2001.875628822869
 20
322.0381045952609
 30
0.0
 40
18.08587610200652
100
AcDbArc
 50
263.172687568199
 51
276.827312431801
  0
LINE
  5
45F7
330
1F
100
AcDbEntity
  8
AM_VIS
100
AcDbLine
 10
2051.375628822869
 20
301.580476289242
 30
0.0
 11
2036.875628822869
 21
301.580476289242
 31
0.0
  0
LINE
  5
45F8
330
1F
100
AcDbEntity
  8
AM_VIS
100
AcDbLine
 10
2051.375628822869
 20
274.580476289242
 30
0.0
 11
2051.875628822869
 21
274.580476289242
 31
0.0
  0
LINE
  5
45F9
330
1F
100
AcDbEntity
  8
AM_VIS
100
AcDbLine
 10
2036.875628822869
 20
274.580476289242
 30
0.0
 11
2051.375628822869
 21
274.580476289242
 31
0.0
  0
LINE
  5
45FA
330
1F
100
AcDbEntity
  8
AM_VIS
100
AcDbLine
 10
1996.875628822868
 20
272.580476289242
 30
0.0
 11
1997.375628822869
 21
272.080476289242
 31
0.0
  0
LINE
  5
45FB
330
1F
100
AcDbEntity
  8
AM_VIS
100
AcDbLine
 10
1996.875628822868
 20
303.580476289242
 30
0.0
 11
1997.375628822869
 21
304.080476289242
 31
0.0
  0
LINE
  5
45FC
330
1F
100
AcDbEntity
  8
AM_VIS
100
AcDbLine
 10
1999.725628822869
 20
304.080476289242
 30
0.0
 11
1997.375628822869
 21
304.080476289242
 31
0.0
  0
LINE
  5
45FD
330
1F
100
AcDbEntity
  8
AM_VIS
100
AcDbLine
 10
2036.875628822869
 20
304.080476289242
 30
0.0
 11
2004.025628822869
 21
304.080476289242
 31
0.0
  0
LINE
  5
45FE
330
1F
100
AcDbEntity
  8
AM_VIS
100
AcDbLine
 10
1999.725628822869
 20
272.080476289242
 30
0.0
 11
1997.375628822869
 21
272.080476289242
 31
0.0
  0
LINE
  5
45FF
330
1F
100
AcDbEntity
  8
AM_VIS
100
AcDbLine
 10
2006.875628822869
 20
272.080476289242
 30
0.0
 11
2004.025628822869
 21
272.080476289242
 31
0.0
  0
LINE
  5
4600
330
1F
100
AcDbEntity
  8
AM_VIS
100
AcDbLine
 10
2036.875628822869
 20
272.080476289242
 30
0.0
 11
2032.875628822869
 21
272.080476289242
 31
0.0
  0
LINE
  5
4601
330
1F
100
AcDbEntity
  8
AM_VIS
100
AcDbLine
 10
1996.875628822868
 20
272.580476289242
 30
0.0
 11
1996.875628822868
 21
303.580476289242
 31
0.0
  0
LINE
  5
4602
330
1F
100
AcDbEntity
  8
AM_VIS
100
AcDbLine
 10
1997.375628822869
 20
304.080476289242
 30
0.0
 11
1997.375628822869
 21
272.080476289242
 31
0.0
  0
LINE
  5
4603
330
1F
100
AcDbEntity
  8
AM_VIS
100
AcDbLine
 10
2036.875628822869
 20
304.080476289242
 30
0.0
 11
2036.875628822869
 21
301.580476289242
 31
0.0
  0
LINE
  5
4604
330
1F
100
AcDbEntity
  8
AM_VIS
100
AcDbLine
 10
2051.375628822869
 20
274.580476289242
 30
0.0
 11
2051.375628822869
 21
301.580476289242
 31
0.0
  0
LINE
  5
4605
330
1F
100
AcDbEntity
  8
AM_VIS
100
AcDbLine
 10
2036.875628822869
 20
274.580476289242
 30
0.0
 11
2036.875628822869
 21
272.080476289242
 31
0.0
  0
LINE
  5
4606
330
1F
100
AcDbEntity
  8
AM_VIS
100
AcDbLine
 10
2051.875628822869
 20
301.580476289242
 30
0.0
 11
2051.875628822869
 21
274.580476289242
 31
0.0
  0
LINE
  5
4607
330
1F
100
AcDbEntity
  8
AM_VIS
100
AcDbLine
 10
2029.345983892195
 20
254.5804696627188
 30
0.0
 11
2029.847470276548
 21
255.0804701549759
 31
0.0
  0
LINE
  5
4608
330
1F
100
AcDbEntity
  8
AM_VIS
100
AcDbLine
 10
2009.903787369188
 20
255.0804701549757
 30
0.0
 11
2010.405273753542
 21
254.580469662719
 31
0.0
  0
LINE
  5
460B
330
1F
100
AcDbEntity
  8
AM_VIS
100
AcDbLine
 10
2019.875628822869
 20
254.780476289242
 30
0.0
 11
2019.875628822869
 21
264.380476289242
 31
0.0
  0
LINE
  5
460D
330
1F
100
AcDbEntity
  8
AM_VIS
100
AcDbLine
 10
2029.847464160458
 20
255.080476289242
 30
0.0
 11
2029.847464160458
 21
264.1086409516524
 31
0.0
  0
LINE
  5
460E
102
{ACAD_REACTORS
330
70A8
102
}
330
1F
100
AcDbEntity
  8
AM_VIS
100
AcDbLine
 10
2009.903793485279
 20
264.1086409516522
 30
0.0
 11
2009.903793485279
 21
255.080476289242
 31
0.0
  0
LINE
  5
46EC
330
1F
100
AcDbEntity
  8
AM_VIS
100
AcDbLine
 10
2012.625628822869
 20
266.580476289242
 30
0.0
 11
2012.625628822869
 21
264.580476289242
 31
0.0
  0
LINE
  5
46ED
330
1F
100
AcDbEntity
  8
AM_VIS
100
AcDbLine
 10
2027.125628822869
 20
266.580476289242
 30
0.0
 11
2027.125628822869
 21
264.580476289242
 31
0.0
  0
LINE
  5
46EE
330
1F
100
AcDbEntity
  8
AM_VIS
100
AcDbLine
 10
2011.875628822869
 20
274.580476289242
 30
0.0
 11
2011.875628822869
 21
272.580476289242
 31
0.0
  0
LINE
  5
46EF
330
1F
100
AcDbEntity
  8
AM_VIS
100
AcDbLine
 10
2011.875628822869
 20
267.580476289242
 30
0.0
 11
2011.875628822869
 21
266.580476289242
 31
0.0
  0
LINE
  5
46F0
330
1F
100
AcDbEntity
  8
AM_VIS
100
AcDbLine
 10
2027.875628822869
 20
274.580476289242
 30
0.0
 11
2027.875628822869
 21
272.580476289242
 31
0.0
  0
LINE
  5
46F1
330
1F
100
AcDbEntity
  8
AM_VIS
100
AcDbLine
 10
2027.875628822869
 20
267.580476289242
 30
0.0
 11
2027.875628822869
 21
266.580476289242
 31
0.0
  0
LINE
  5
46F4
330
1F
100
AcDbEntity
  8
AM_VIS
100
AcDbLine
 10
2010.375628822869
 20
264.580476289242
 30
0.0
 11
2009.903793485279
 21
264.108640951652
 31
0.0
  0
LINE
  5
46F5
330
1F
100
AcDbEntity
  8
AM_VIS
100
AcDbLine
 10
2029.375628822869
 20
264.580476289242
 30
0.0
 11
2029.847464160459
 21
264.1086409516526
 31
0.0
  0
LINE
  5
46F6
330
1F
100
AcDbEntity
  8
AM_VIS
100
AcDbLine
 10
2011.875628822869
 20
266.580476289242
 30
0.0
 11
2027.875628822869
 21
266.580476289242
 31
0.0
  0
LINE
  5
46F7
330
1F
100
AcDbEntity
  8
AM_VIS
100
AcDbLine
 10
2029.345977285307
 20
254.580476289242
 30
0.0
 11
2010.405280360431
 21
254.580476289242
 31
0.0
  0
LINE
  5
473E
330
1F
100
AcDbEntity
  8
AM_VIS
100
AcDbLine
 10
2010.375628822869
 20
264.580476289242
 30
0.0
 11
2029.375628822869
 21
264.580476289242
 31
0.0
  0
LINE
  5
4826
330
1F
100
AcDbEntity
  8
AM_VIS
100
AcDbLine
 10
2010.375628822869
 20
272.580476289242
 30
0.0
 11
2009.875628822869
 21
272.080476289242
 31
0.0
  0
LINE
  5
4827
330
1F
100
AcDbEntity
  8
AM_VIS
100
AcDbLine
 10
2029.375628822869
 20
272.580476289242
 30
0.0
 11
2029.875628822869
 21
272.080476289242
 31
0.0
  0
LINE
  5
4828
330
1F
100
AcDbEntity
  8
AM_VIS
100
AcDbLine
 10
2029.875628822869
 20
268.080476289242
 30
0.0
 11
2029.875628822869
 21
272.080476289242
 31
0.0
  0
LINE
  5
4829
330
1F
100
AcDbEntity
  8
AM_VIS
100
AcDbLine
 10
2009.875628822869
 20
268.080476289242
 30
0.0
 11
2009.875628822869
 21
272.080476289242
 31
0.0
  0
LINE
  5
482A
330
1F
100
AcDbEntity
  8
AM_VIS
100
AcDbLine
 10
2029.375628822869
 20
267.580476289242
 30
0.0
 11
2029.875628822869
 21
268.080476289242
 31
0.0
  0
LINE
  5
482B
330
1F
100
AcDbEntity
  8
AM_VIS
100
AcDbLine
 10
2010.375628822869
 20
267.580476289242
 30
0.0
 11
2009.875628822869
 21
268.080476289242
 31
0.0
  0
LINE
  5
482C
330
1F
100
AcDbEntity
  8
AM_VIS
100
AcDbLine
 10
2010.375628822869
 20
272.580476289242
 30
0.0
 11
2029.375628822869
 21
272.580476289242
 31
0.0
  0
LINE
  5
4875
330
1F
100
AcDbEntity
  8
AM_VIS
100
AcDbLine
 10
2029.375628822869
 20
267.580476289242
 30
0.0
 11
2010.375628822869
 21
267.580476289242
 31
0.0
  0
SPLINE
  5
4876
330
1F
100
AcDbEntity
  8
AM_VIS
100
AcDbSpline
210
0.0
220
0.0
230
1.0
 70
    12
 71
     2
 72
     6
 73
     3
 74
     0
 42
0.0000000001
 43
0.0000000001
 40
0.7545396902517641
 40
0.7545396902517641
 40
0.7545396902517641
 40
27.90437399000604
 40
27.90437399000604
 40
27.90437399000604
 10
1837.244001411707
 20
261.522363906519
 30
0.0
 41
1.008916554647275
 10
1841.077334745039
 20
268.1618920021967
 30
-0.0000000000000036
 41
1.164996488830901
 10
1837.244001411707
 20
274.8014200978807
 30
0.0
 41
1.008916554647448
  0
LINE
  5
4877
330
1F
100
AcDbEntity
  8
AM_VIS
100
AcDbLine
 10
1832.50725623403
 20
261.5223639065192
 30
0.0
 11
1837.244001411707
 21
261.5223639065192
 31
0.0
  0
SPLINE
  5
4878
330
1F
100
AcDbEntity
  8
AM_VIS
100
AcDbSpline
210
0.0
220
0.0000000000000001
230
1.0
 70
    12
 71
     2
 72
     6
 73
     3
 74
     0
 42
0.0000000001
 43
0.0000000001
 40
0.7545396902517428
 40
0.7545396902517428
 40
0.7545396902517428
 40
27.90437399000602
 40
27.90437399000602
 40
27.90437399000602
 10
1837.244001411707
 20
274.8014200978805
 30
0.0000000000000036
 41
1.008916554647274
 10
1841.077334745039
 20
288.0804762892356
 30
0.0
 41
1.164996488830897
 10
1837.244001411707
 20
301.3595324806033
 30
0.0
 41
1.008916554647449
  0
LINE
  5
4879
330
1F
100
AcDbEntity
  8
AM_VIS
100
AcDbLine
 10
1832.50725623403
 20
274.8014200978805
 30
0.0
 11
1837.244001411707
 21
274.8014200978805
 31
0.0
  0
LINE
  5
487A
330
1F
100
AcDbEntity
  8
AM_VIS
100
AcDbLine
 10
1832.50725623403
 20
314.6385886719647
 30
0.0
 11
1837.244001411707
 21
314.6385886719647
 31
0.0
  0
SPLINE
  5
487B
330
1F
100
AcDbEntity
  8
AM_VIS
100
AcDbSpline
210
0.0
220
0.0
230
1.0
 70
    12
 71
     2
 72
     6
 73
     3
 74
     0
 42
0.0000000001
 43
0.0000000001
 40
0.7545396902517659
 40
0.7545396902517659
 40
0.7545396902517659
 40
27.90437399000606
 40
27.90437399000606
 40
27.90437399000606
 10
1837.244001411707
 20
301.3595324806033
 30
0.0
 41
1.008916554647275
 10
1841.077334745039
 20
307.9990605762808
 30
0.0
 41
1.164996488830898
 10
1837.244001411707
 20
314.6385886719647
 30
0.0
 41
1.008916554647449
  0
LINE
  5
487C
330
1F
100
AcDbEntity
  8
AM_VIS
100
AcDbLine
 10
1832.50725623403
 20
301.3595324806033
 30
0.0
 11
1837.244001411707
 21
301.3595324806033
 31
0.0
  0
SPLINE
  5
487D
330
1F
100
AcDbEntity
  8
AM_VIS
100
AcDbSpline
210
0.0
220
-0.0000000000000003
230
1.0
 70
    12
 71
     2
 72
     6
 73
     3
 74
     0
 42
0.0000000001
 43
0.0000000001
 40
0.7545396902518231
 40
0.7545396902518231
 40
0.7545396902518231
 40
27.90437399000612
 40
27.90437399000612
 40
27.90437399000612
 10
1832.507256234029
 20
314.6385886719646
 30
0.0000000000000036
 41
1.008916554647276
 10
1828.673922900698
 20
307.9990605762871
 30
0.0
 41
1.164996488830895
 10
1832.50725623403
 20
301.3595324806033
 30
0.0
 41
1.008916554647449
  0
SPLINE
  5
487E
330
1F
100
AcDbEntity
  8
AM_VIS
100
AcDbSpline
210
0.0
220
0.0
230
1.0
 70
    12
 71
     2
 72
     6
 73
     3
 74
     0
 42
0.0000000001
 43
0.0000000001
 40
0.7545396902517712
 40
0.7545396902517712
 40
0.7545396902517712
 40
27.90437399000606
 40
27.90437399000606
 40
27.90437399000606
 10
1832.50725623403
 20
301.3595324806033
 30
0.0
 41
1.008916554647275
 10
1828.673922900698
 20
288.0804762892482
 30
0.0
 41
1.164996488830898
 10
1832.507256234032
 20
274.8014200978807
 30
0.0
 41
1.008916554647448
  0
SPLINE
  5
487F
330
1F
100
AcDbEntity
  8
AM_VIS
100
AcDbSpline
210
0.0
220
0.0
230
1.0
 70
    12
 71
     2
 72
     6
 73
     3
 74
     0
 42
0.0000000001
 43
0.0000000001
 40
0.7545396902517416
 40
0.7545396902517416
 40
0.7545396902517416
 40
27.90437399000602
 40
27.90437399000602
 40
27.90437399000602
 10
1832.50725623403
 20
274.8014200978805
 30
0.0
 41
1.008916554647275
 10
1828.673922900698
 20
268.161892002203
 30
-0.0000000000000036
 41
1.1649964888309
 10
1832.50725623403
 20
261.5223639065192
 30
0.0
 41
1.008916554647449
  0
LINE
  5
4880
330
1F
100
AcDbEntity
  8
AM_VIS
100
AcDbLine
 10
1839.875628822868
 20
310.080476289242
 30
0.0
 11
1837.244001411707
 21
314.6385886719647
 31
0.0
  0
LINE
  5
4881
330
1F
100
AcDbEntity
  8
AM_VIS
100
AcDbLine
 10
1839.875628822868
 20
266.080476289242
 30
0.0
 11
1837.244001411707
 21
261.5223639065192
 31
0.0
  0
LINE
  5
4882
330
1F
100
AcDbEntity
  8
AM_VIS
100
AcDbLine
 10
1829.875628822868
 20
266.080476289242
 30
0.0
 11
1832.50725623403
 21
261.5223639065192
 31
0.0
  0
LINE
  5
4883
330
1F
100
AcDbEntity
  8
AM_VIS
100
AcDbLine
 10
1829.875628822868
 20
310.080476289242
 30
0.0
 11
1832.50725623403
 21
314.6385886719647
 31
0.0
  0
LINE
  5
4884
102
{ACAD_REACTORS
330
6FC7
102
}
330
1F
100
AcDbEntity
  8
AM_VIS
100
AcDbLine
 10
1839.875628822868
 20
266.080476289242
 30
0.0
 11
1839.875628822868
 21
310.080476289242
 31
0.0
  0
LINE
  5
4885
102
{ACAD_REACTORS
330
6FC7
102
}
330
1F
100
AcDbEntity
  8
AM_VIS
100
AcDbLine
 10
1829.875628822868
 20
310.080476289242
 30
0.0
 11
1829.875628822868
 21
266.080476289242
 31
0.0
  0
LINE
  5
4886
330
1F
100
AcDbEntity
  8
AM_VIS
100
AcDbLine
 10
2003.446213822869
 20
272.080476289242
 30
0.0
 11
2003.5355579172
 21
272.1320591261545
 31
0.0
  0
LINE
  5
4887
330
1F
100
AcDbEntity
  8
AM_VIS
100
AcDbLine
 10
2000.305043822869
 20
272.080476289242
 30
0.0
 11
2000.215699728538
 21
272.1320591261545
 31
0.0
  0
LINE
  5
4888
330
1F
100
AcDbEntity
  8
AM_VIS
100
AcDbLine
 10
2003.446213822869
 20
272.080476289242
 30
0.0
 11
2000.305043822869
 21
272.080476289242
 31
0.0
  0
LINE
  5
4889
330
1F
100
AcDbEntity
  8
AM_VIS
100
AcDbLine
 10
2000.305043822869
 20
304.080476289242
 30
0.0
 11
2000.215699728538
 21
304.0288934523295
 31
0.0
  0
LINE
  5
488A
330
1F
100
AcDbEntity
  8
AM_VIS
100
AcDbLine
 10
2003.446213822869
 20
304.080476289242
 30
0.0
 11
2003.5355579172
 21
304.0288934523295
 31
0.0
  0
LINE
  5
488B
330
1F
100
AcDbEntity
  8
AM_VIS
100
AcDbLine
 10
2000.305043822869
 20
304.080476289242
 30
0.0
 11
2003.446213822869
 21
304.080476289242
 31
0.0
  0
SPLINE
  5
488C
330
1F
100
AcDbEntity
  8
AM_VIS
100
AcDbSpline
210
0.0
220
0.0
230
1.0
 70
    12
 71
     2
 72
     6
 73
     3
 74
     0
 42
0.0000000001
 43
0.0000000001
 40
19.44152500070193
 40
19.44152500070193
 40
19.44152500070193
 40
28.20374305340968
 40
28.20374305340968
 40
28.20374305340968
 10
2059.875628822869
 20
277.6881714438288
 30
0.0
 41
1.0
 10
2059.875628822869
 20
279.2958665984139
 30
0.0
 41
1.085739542740694
 10
2058.803832053144
 20
281.1522730589665
 30
0.0
 41
1.0941941431524
  0
SPLINE
  5
488D
330
1F
100
AcDbEntity
  8
AM_VIS
100
AcDbSpline
210
0.0
220
0.0
230
1.0
 70
    12
 71
     2
 72
     6
 73
     3
 74
     0
 42
0.0000000001
 43
0.0000000001
 40
10.67930694799419
 40
10.67930694799419
 40
10.67930694799419
 40
19.44152500070193
 40
19.44152500070193
 40
19.44152500070193
 10
2058.803832053144
 20
274.224069828691
 30
0.0
 41
1.094194143152401
 10
2059.875628822869
 20
276.0804762892435
 30
0.0
 41
1.085739542740695
 10
2059.875628822869
 20
277.6881714438288
 30
0.0
 41
1.0
  0
LINE
  5
488E
330
1F
100
AcDbEntity
  8
AM_VIS
100
AcDbLine
 10
2058.803832053144
 20
274.224069828691
 30
0.0
 11
2054.947425592593
 21
274.224069828691
 31
0.0
  0
SPLINE
  5
488F
330
1F
100
AcDbEntity
  8
AM_VIS
100
AcDbSpline
210
0.0
220
0.0
230
1.0
 70
    12
 71
     2
 72
     6
 73
     3
 74
     0
 42
0.0000000001
 43
0.0000000001
 40
19.44152500070193
 40
19.44152500070193
 40
19.44152500070193
 40
28.20374305340966
 40
28.20374305340966
 40
28.20374305340966
 10
2059.875628822869
 20
288.080476289242
 30
0.0
 41
1.0
 10
2059.875628822869
 20
291.2958665984124
 30
0.0
 41
1.085739542740695
 10
2058.803832053144
 20
295.0086795195176
 30
0.0
 41
1.094194143152401
  0
SPLINE
  5
4890
330
1F
100
AcDbEntity
  8
AM_VIS
100
AcDbSpline
210
0.0
220
0.0
230
1.0
 70
    12
 71
     2
 72
     6
 73
     3
 74
     0
 42
0.0000000001
 43
0.0000000001
 40
10.67930694799418
 40
10.67930694799418
 40
10.67930694799418
 40
19.44152500070193
 40
19.44152500070193
 40
19.44152500070193
 10
2058.803832053145
 20
281.1522730589665
 30
0.0
 41
1.094194143152404
 10
2059.875628822869
 20
284.8650859800715
 30
0.0
 41
1.085739542740698
 10
2059.875628822869
 20
288.080476289242
 30
0.0
 41
1.0
  0
LINE
  5
4891
330
1F
100
AcDbEntity
  8
AM_VIS
100
AcDbLine
 10
2058.803832053144
 20
281.1522730589665
 30
0.0
 11
2054.947425592593
 21
281.1522730589665
 31
0.0
  0
LINE
  5
4892
330
1F
100
AcDbEntity
  8
AM_VIS
100
AcDbLine
 10
2058.803832053144
 20
301.936882749793
 30
0.0
 11
2054.947425592593
 21
301.936882749793
 31
0.0
  0
SPLINE
  5
4893
330
1F
100
AcDbEntity
  8
AM_VIS
100
AcDbSpline
210
0.0
220
0.0
230
1.0
 70
    12
 71
     2
 72
     6
 73
     3
 74
     0
 42
0.0000000001
 43
0.0000000001
 40
19.44152500070193
 40
19.44152500070193
 40
19.44152500070193
 40
28.20374305340966
 40
28.20374305340966
 40
28.20374305340966
 10
2059.875628822869
 20
298.4727811346553
 30
0.0
 41
1.0
 10
2059.875628822869
 20
300.0804762892404
 30
0.0
 41
1.0857395427407
 10
2058.803832053145
 20
301.9368827497932
 30
0.0
 41
1.094194143152407
  0
SPLINE
  5
4894
330
1F
100
AcDbEntity
  8
AM_VIS
100
AcDbSpline
210
0.0
220
0.0
230
1.0
 70
    12
 71
     2
 72
     6
 73
     3
 74
     0
 42
0.0000000001
 43
0.0000000001
 40
10.67930694799419
 40
10.67930694799419
 40
10.67930694799419
 40
19.44152500070193
 40
19.44152500070193
 40
19.44152500070193
 10
2058.803832053144
 20
295.0086795195175
 30
0.0
 41
1.094194143152408
 10
2059.875628822869
 20
296.8650859800701
 30
0.0
 41
1.085739542740701
 10
2059.875628822869
 20
298.4727811346553
 30
0.0
 41
1.0
  0
LINE
  5
4895
330
1F
100
AcDbEntity
  8
AM_VIS
100
AcDbLine
 10
2058.803832053144
 20
295.0086795195175
 30
0.0
 11
2054.947425592593
 21
295.0086795195175
 31
0.0
  0
SPLINE
  5
4896
330
1F
100
AcDbEntity
  8
AM_VIS
100
AcDbSpline
210
0.0
220
0.0
230
1.0
 70
    12
 71
     2
 72
     6
 73
     3
 74
     0
 42
0.0000000001
 43
0.0000000001
 40
19.44152500070193
 40
19.44152500070193
 40
19.44152500070193
 40
28.20374305340967
 40
28.20374305340967
 40
28.20374305340967
 10
2053.875628822869
 20
277.6881714438288
 30
0.0
 41
1.0
 10
2053.875628822869
 20
276.0804762892435
 30
0.0
 41
1.085739542740695
 10
2054.947425592593
 20
274.224069828691
 30
0.0
 41
1.0941941431524
  0
SPLINE
  5
4897
330
1F
100
AcDbEntity
  8
AM_VIS
100
AcDbSpline
210
0.0
220
0.0
230
1.0
 70
    12
 71
     2
 72
     6
 73
     3
 74
     0
 42
0.0000000001
 43
0.0000000001
 40
10.67930694799418
 40
10.67930694799418
 40
10.67930694799418
 40
19.44152500070193
 40
19.44152500070193
 40
19.44152500070193
 10
2054.947425592593
 20
281.1522730589665
 30
0.0
 41
1.094194143152401
 10
2053.875628822869
 20
279.295866598414
 30
0.0
 41
1.085739542740695
 10
2053.875628822869
 20
277.6881714438288
 30
0.0
 41
1.0
  0
SPLINE
  5
4898
330
1F
100
AcDbEntity
  8
AM_VIS
100
AcDbSpline
210
0.0
220
0.0
230
1.0
 70
    12
 71
     2
 72
     6
 73
     3
 74
     0
 42
0.0000000001
 43
0.0000000001
 40
19.44152500070194
 40
19.44152500070194
 40
19.44152500070194
 40
28.20374305340969
 40
28.20374305340969
 40
28.20374305340969
 10
2053.875628822869
 20
288.080476289242
 30
0.0
 41
1.0
 10
2053.875628822869
 20
284.8650859800716
 30
0.0
 41
1.085739542740697
 10
2054.947425592593
 20
281.1522730589665
 30
0.0
 41
1.094194143152404
  0
SPLINE
  5
4899
330
1F
100
AcDbEntity
  8
AM_VIS
100
AcDbSpline
210
0.0
220
0.0
230
1.0
 70
    12
 71
     2
 72
     6
 73
     3
 74
     0
 42
0.0000000001
 43
0.0000000001
 40
10.6793069479942
 40
10.6793069479942
 40
10.6793069479942
 40
19.44152500070194
 40
19.44152500070194
 40
19.44152500070194
 10
2054.947425592593
 20
295.0086795195176
 30
0.0
 41
1.094194143152401
 10
2053.875628822869
 20
291.2958665984124
 30
0.0
 41
1.085739542740695
 10
2053.875628822869
 20
288.080476289242
 30
0.0
 41
1.0
  0
SPLINE
  5
489A
330
1F
100
AcDbEntity
  8
AM_VIS
100
AcDbSpline
210
0.0
220
0.0
230
1.0
 70
    12
 71
     2
 72
     6
 73
     3
 74
     0
 42
0.0000000001
 43
0.0000000001
 40
19.44152500070194
 40
19.44152500070194
 40
19.44152500070194
 40
28.20374305340969
 40
28.20374305340969
 40
28.20374305340969
 10
2053.875628822869
 20
298.4727811346553
 30
0.0
 41
1.0
 10
2053.875628822869
 20
296.8650859800701
 30
0.0
 41
1.085739542740699
 10
2054.947425592593
 20
295.0086795195176
 30
0.0
 41
1.094194143152405
  0
SPLINE
  5
489B
330
1F
100
AcDbEntity
  8
AM_VIS
100
AcDbSpline
210
0.0000000000000121
220
-0.0000000000000049
230
1.0
 70
    12
 71
     2
 72
     6
 73
     3
 74
     0
 42
0.0000000001
 43
0.0000000001
 40
10.67930694799421
 40
10.67930694799421
 40
10.67930694799421
 40
19.44152500070194
 40
19.44152500070194
 40
19.44152500070194
 10
2054.947425592593
 20
301.936882749793
 30
0.0000000000000036
 41
1.094194143152403
 10
2053.875628822869
 20
300.0804762892405
 30
0.0
 41
1.085739542740697
 10
2053.875628822869
 20
298.4727811346553
 30
0.0
 41
1.0
  0
LINE
  5
489C
330
1F
100
AcDbEntity
  8
AM_VIS
100
AcDbLine
 10
2059.875628822869
 20
300.080476289242
 30
0.0
 11
2058.803832053144
 21
301.936882749793
 31
0.0
  0
LINE
  5
489D
330
1F
100
AcDbEntity
  8
AM_VIS
100
AcDbLine
 10
2059.875628822869
 20
276.080476289242
 30
0.0
 11
2058.803832053144
 21
274.224069828691
 31
0.0
  0
LINE
  5
489E
330
1F
100
AcDbEntity
  8
AM_VIS
100
AcDbLine
 10
2053.875628822869
 20
276.080476289242
 30
0.0
 11
2054.947425592593
 21
274.224069828691
 31
0.0
  0
LINE
  5
489F
330
1F
100
AcDbEntity
  8
AM_VIS
100
AcDbLine
 10
2053.875628822869
 20
300.080476289242
 30
0.0
 11
2054.947425592593
 21
301.936882749793
 31
0.0
  0
LINE
  5
48A0
330
1F
100
AcDbEntity
  8
AM_VIS
100
AcDbLine
 10
2051.875628822869
 20
277.6429794126503
 30
0.0
 11
2053.875628822869
 21
277.580476289242
 31
0.0
  0
LINE
  5
48A1
330
1F
100
AcDbEntity
  8
AM_VIS
100
AcDbLine
 10
2051.875628822869
 20
298.5179731658338
 30
0.0
 11
2053.875628822869
 21
298.580476289242
 31
0.0
  0
LINE
  5
48A2
330
1F
100
AcDbEntity
  8
AM_VIS
100
AcDbLine
 10
2086.935521113597
 20
295.6368827517983
 30
0.0
 11
2062.875628822869
 21
297.080476289242
 31
0.0
  0
LINE
  5
48A3
330
1F
100
AcDbEntity
  8
AM_VIS
100
AcDbLine
 10
2086.935521113597
 20
280.5240698266857
 30
0.0
 11
2062.875628822869
 21
279.080476289242
 31
0.0
  0
LINE
  5
48A4
330
1F
100
AcDbEntity
  8
AM_VIS
100
AcDbLine
 10
2059.875628822869
 20
278.080476289242
 30
0.0
 11
2062.375628822869
 21
278.080476289242
 31
0.0
  0
LINE
  5
48A5
330
1F
100
AcDbEntity
  8
AM_VIS
100
AcDbLine
 10
2059.875628822869
 20
298.080476289242
 30
0.0
 11
2062.375628822869
 21
298.080476289242
 31
0.0
  0
LINE
  5
48A6
330
1F
100
AcDbEntity
  8
AM_VIS
100
AcDbLine
 10
2059.875628822869
 20
298.4727811346553
 30
0.0
 11
2059.875628822869
 21
300.080476289242
 31
0.0
  0
LINE
  5
48A7
330
1F
100
AcDbEntity
  8
AM_VIS
100
AcDbLine
 10
2059.875628822869
 20
288.080476289242
 30
0.0
 11
2059.875628822869
 21
298.4727811346553
 31
0.0
  0
LINE
  5
48A8
330
1F
100
AcDbEntity
  8
AM_VIS
100
AcDbLine
 10
2059.875628822869
 20
277.6881714438288
 30
0.0
 11
2059.875628822869
 21
288.080476289242
 31
0.0
  0
LINE
  5
48A9
330
1F
100
AcDbEntity
  8
AM_VIS
100
AcDbLine
 10
2059.875628822869
 20
276.080476289242
 30
0.0
 11
2059.875628822869
 21
277.6881714438288
 31
0.0
  0
LINE
  5
48AA
330
1F
100
AcDbEntity
  8
AM_VIS
100
AcDbLine
 10
2053.875628822869
 20
277.6881714438288
 30
0.0
 11
2053.875628822869
 21
276.080476289242
 31
0.0
  0
LINE
  5
48AB
330
1F
100
AcDbEntity
  8
AM_VIS
100
AcDbLine
 10
2053.875628822869
 20
288.080476289242
 30
0.0
 11
2053.875628822869
 21
277.6881714438288
 31
0.0
  0
LINE
  5
48AC
330
1F
100
AcDbEntity
  8
AM_VIS
100
AcDbLine
 10
2053.875628822869
 20
298.4727811346553
 30
0.0
 11
2053.875628822869
 21
288.080476289242
 31
0.0
  0
LINE
  5
48AD
330
1F
100
AcDbEntity
  8
AM_VIS
100
AcDbLine
 10
2053.875628822869
 20
300.080476289242
 30
0.0
 11
2053.875628822869
 21
298.4727811346553
 31
0.0
  0
LINE
  5
48AE
330
1F
100
AcDbEntity
  8
AM_VIS
100
AcDbLine
 10
2087.875628822869
 20
294.6386779063326
 30
0.0
 11
2087.875628822869
 21
281.5222746721515
 31
0.0
  0
LINE
  5
48AF
330
1F
100
AcDbEntity
  8
AM_VIS
100
AcDbLine
 10
2062.875628822869
 20
297.580476289242
 30
0.0
 11
2062.875628822869
 21
278.580476289242
 31
0.0
  0
ARC
  5
48B0
330
1F
100
AcDbEntity
  8
AM_VIS
100
AcDbCircle
 10
2086.875628822869
 20
281.5222746721515
 30
0.0
 40
1.0
100
AcDbArc
 50
273.4336303624495
 51
0.0
  0
ARC
  5
48B1
330
1F
100
AcDbEntity
  8
AM_VIS
100
AcDbCircle
 10
2086.875628822869
 20
294.6386779063326
 30
0.0
 40
1.0
100
AcDbArc
 50
0.0
 51
86.56636963755053
  0
ARC
  5
48B2
330
1F
100
AcDbEntity
  8
AM_VIS
100
AcDbCircle
 10
2062.375628822869
 20
278.580476289242
 30
0.0
 40
0.5
100
AcDbArc
 50
270.0
 51
0.0
  0
ARC
  5
48B3
330
1F
100
AcDbEntity
  8
AM_VIS
100
AcDbCircle
 10
2062.375628822869
 20
297.580476289242
 30
0.0
 40
0.5
100
AcDbArc
 50
0.0
 51
90.0
  0
LINE
  5
48B6
330
1F
100
AcDbEntity
  8
AM_VIS
100
AcDbLine
 10
1743.200218461465
 20
313.080476289242
 30
0.0
 11
1760.501488650688
 21
313.080476289242
 31
0.0
  0
LINE
  5
48B7
330
1F
100
AcDbEntity
  8
AM_VIS
100
AcDbLine
 10
1720.501488650688
 20
313.080476289242
 30
0.0
 11
1737.80275883991
 21
313.080476289242
 31
0.0
  0
LINE
  5
48B8
330
1F
100
AcDbEntity
  8
AM_VIS
100
AcDbLine
 10
1760.501488650688
 20
273.0693692903117
 30
0.0
 11
1760.501488650688
 21
263.080476289242
 31
0.0
  0
LINE
  5
48B9
330
1F
100
AcDbEntity
  8
AM_VIS
100
AcDbLine
 10
1760.501488650688
 20
313.080476289242
 30
0.0
 11
1760.501488650688
 21
303.0915832881722
 31
0.0
  0
LINE
  5
48BA
102
{ACAD_REACTORS
330
6F6C
102
}
330
1F
100
AcDbEntity
  8
AM_VIS
100
AcDbLine
 10
1737.80275883991
 20
263.080476289242
 30
0.0
 11
1720.501488650688
 21
263.080476289242
 31
0.0
  0
LINE
  5
48BB
102
{ACAD_REACTORS
330
6F6C
102
}
330
1F
100
AcDbEntity
  8
AM_VIS
100
AcDbLine
 10
1760.501488650688
 20
263.080476289242
 30
0.0
 11
1743.200218461465
 21
263.080476289242
 31
0.0
  0
LINE
  5
48BC
102
{ACAD_REACTORS
330
6F18
102
}
330
1F
100
AcDbEntity
  8
AM_VIS
100
AcDbLine
 10
1720.501488650688
 20
303.0915832881722
 30
0.0
 11
1720.501488650688
 21
313.080476289242
 31
0.0
  0
LINE
  5
48BD
102
{ACAD_REACTORS
330
6F18
102
}
330
1F
100
AcDbEntity
  8
AM_VIS
100
AcDbLine
 10
1720.501488650688
 20
263.080476289242
 30
0.0
 11
1720.501488650688
 21
273.0693692903117
 31
0.0
  0
CIRCLE
  5
48BE
330
1F
100
AcDbEntity
  8
AM_VIS
100
AcDbCircle
 10
1740.501488650688
 20
288.080476289242
 30
0.0
 40
2.149999999999999
  0
CIRCLE
  5
48BF
330
1F
100
AcDbEntity
  8
AM_VIS
100
AcDbCircle
 10
1740.501488650688
 20
288.080476289242
 30
0.0
 40
3.149999999999999
  0
CIRCLE
  5
48C0
330
1F
100
AcDbEntity
  8
AM_VIS
100
AcDbCircle
 10
1740.501488650688
 20
288.080476289242
 30
0.0
 40
4.25
  0
CIRCLE
  5
48C1
330
1F
100
AcDbEntity
  8
AM_VIS
100
AcDbCircle
 10
1740.501488650688
 20
288.080476289242
 30
0.0
 40
5.850000000000001
  0
ARC
  5
48C3
330
1F
100
AcDbEntity
  8
AM_VIS
100
AcDbCircle
 10
1740.501488650688
 20
288.080476289242
 30
0.0
 40
15.0
100
AcDbArc
 50
240.0735651333824
 51
299.9264348666176
  0
CIRCLE
  5
48C4
330
1F
100
AcDbEntity
  8
AM_VIS
100
AcDbCircle
 10
1740.501488650688
 20
288.080476289242
 30
0.0
 40
8.75
  0
ARC
  5
48C5
330
1F
100
AcDbEntity
  8
AM_VIS
100
AcDbCircle
 10
1740.501488650688
 20
288.080476289242
 30
0.0
 40
14.0
100
AcDbArc
 50
291.7867892982584
 51
68.21321070174156
  0
ARC
  5
48C6
330
1F
100
AcDbEntity
  8
AM_VIS
100
AcDbCircle
 10
1740.501488650688
 20
288.080476289242
 30
0.0
 40
14.0
100
AcDbArc
 50
111.7867892982584
 51
248.2132107017416
  0
ARC
  5
48C7
330
1F
100
AcDbEntity
  8
AM_VIS
100
AcDbCircle
 10
1740.501488650688
 20
288.080476289242
 30
0.0
 40
15.0
100
AcDbArc
 50
299.9264348666176
 51
60.07356513338243
  0
ARC
  5
48C8
330
1F
100
AcDbEntity
  8
AM_VIS
100
AcDbCircle
 10
1740.501488650688
 20
288.080476289242
 30
0.0
 40
15.0
100
AcDbArc
 50
119.9264348666176
 51
240.0735651333824
  0
ARC
  5
48C9
330
1F
100
AcDbEntity
  8
AM_VIS
100
AcDbCircle
 10
1740.501488650688
 20
288.080476289242
 30
0.0
 40
15.0
100
AcDbArc
 50
60.07356513338243
 51
119.9264348666176
  0
CIRCLE
  5
48CA
330
1F
100
AcDbEntity
  8
AM_VIS
100
AcDbCircle
 10
1740.501488650688
 20
288.080476289242
 30
0.0
 40
7.25
  0
LINE
  5
48CB
330
1F
100
AcDbEntity
  8
AM_VIS
100
AcDbLine
 10
1733.018173877139
 20
275.080476289242
 30
0.0
 11
1735.305336227981
 21
275.080476289242
 31
0.0
  0
LINE
  5
48CC
330
1F
100
AcDbEntity
  8
AM_VIS
100
AcDbLine
 10
1745.697641073394
 20
275.080476289242
 30
0.0
 11
1747.984803424236
 21
275.080476289242
 31
0.0
  0
LINE
  5
48CD
330
1F
100
AcDbEntity
  8
AM_VIS
100
AcDbLine
 10
1735.305336227981
 20
275.080476289242
 30
0.0
 11
1745.697641073394
 21
275.080476289242
 31
0.0
  0
LINE
  5
48CE
330
1F
100
AcDbEntity
  8
AM_VIS
100
AcDbLine
 10
1745.697641073394
 20
301.080476289242
 30
0.0
 11
1735.305336227981
 21
301.080476289242
 31
0.0
  0
LINE
  5
48CF
330
1F
100
AcDbEntity
  8
AM_VIS
100
AcDbLine
 10
1745.697641073394
 20
301.080476289242
 30
0.0
 11
1747.984803424236
 21
301.080476289242
 31
0.0
  0
LINE
  5
48D0
330
1F
100
AcDbEntity
  8
AM_VIS
100
AcDbLine
 10
1733.018173877139
 20
301.080476289242
 30
0.0
 11
1735.305336227981
 21
301.080476289242
 31
0.0
  0
LINE
  5
48D1
330
1F
100
AcDbEntity
  8
AM_VIS
100
AcDbLine
 10
1739.701488650688
 20
290.0760964935895
 30
0.0
 11
1739.701488650688
 21
286.0848560848944
 31
0.0
  0
LINE
  5
48D2
330
1F
100
AcDbEntity
  8
AM_VIS
100
AcDbLine
 10
1741.301488650688
 20
286.0848560848944
 30
0.0
 11
1741.301488650688
 21
290.0760964935895
 31
0.0
  0
LINE
  5
48D3
330
1F
100
AcDbEntity
  8
AM_VIS
100
AcDbLine
 10
1739.751488650688
 20
254.580476289242
 30
0.0
 11
1731.001488650688
 21
254.580476289242
 31
0.0
  0
LINE
  5
48E5
330
1F
100
AcDbEntity
  8
AM_VIS
100
AcDbLine
 10
1741.251488650688
 20
255.580476289242
 30
0.0
 11
1741.245272393865
 21
255.580476289242
 31
0.0
  0
LINE
  5
48E6
330
1F
100
AcDbEntity
  8
AM_VIS
100
AcDbLine
 10
1740.654609325306
 20
255.580476289242
 30
0.0
 11
1740.348367976069
 21
255.580476289242
 31
0.0
  0
LINE
  5
48E7
330
1F
100
AcDbEntity
  8
AM_VIS
100
AcDbLine
 10
1739.75770490751
 20
255.580476289242
 30
0.0
 11
1739.751488650688
 21
255.580476289242
 31
0.0
  0
LINE
  5
48F9
330
1F
100
AcDbEntity
  8
AM_VIS
100
AcDbLine
 10
1750.001488650688
 20
254.580476289242
 30
0.0
 11
1741.251488650688
 21
254.580476289242
 31
0.0
  0
LINE
  5
48FA
330
1F
100
AcDbEntity
  8
AM_VIS
100
AcDbLine
 10
1741.301488650688
 20
287.580476289242
 30
0.0
 11
1742.59254101732
 21
287.580476289242
 31
0.0
  0
LINE
  5
48FB
330
1F
100
AcDbEntity
  8
AM_VIS
100
AcDbLine
 10
1738.410436284055
 20
287.580476289242
 30
0.0
 11
1739.701488650688
 21
287.580476289242
 31
0.0
  0
LINE
  5
48FC
330
1F
100
AcDbEntity
  8
AM_VIS
100
AcDbLine
 10
1739.701488650688
 20
286.580476289242
 30
0.0
 11
1738.961196470613
 21
286.580476289242
 31
0.0
  0
LINE
  5
48FD
330
1F
100
AcDbEntity
  8
AM_VIS
100
AcDbLine
 10
1742.041780830763
 20
286.580476289242
 30
0.0
 11
1741.301488650688
 21
286.580476289242
 31
0.0
  0
LINE
  5
48FE
330
1F
100
AcDbEntity
  8
AM_VIS
100
AcDbLine
 10
1731.001488650688
 20
254.580476289242
 30
0.0
 11
1730.801488650688
 21
254.780476289242
 31
0.0
  0
LINE
  5
48FF
330
1F
100
AcDbEntity
  8
AM_VIS
100
AcDbLine
 10
1750.001488650688
 20
254.580476289242
 30
0.0
 11
1750.201488650688
 21
254.780476289242
 31
0.0
  0
LINE
  5
4900
330
1F
100
AcDbEntity
  8
AM_VIS
100
AcDbLine
 10
1730.505859437462
 20
255.079783256795
 30
0.0
 11
1730.801117959545
 21
254.7801110577686
 31
0.0
  0
LINE
  5
4901
330
1F
100
AcDbEntity
  8
AM_VIS
100
AcDbLine
 10
1730.505859437462
 20
263.080476289242
 30
0.0
 11
1730.505859437462
 21
255.0797832567949
 31
0.0
  0
LINE
  5
492B
330
1F
100
AcDbEntity
  8
AM_VIS
100
AcDbLine
 10
1740.348367976069
 20
255.580476289242
 30
0.0
 11
1740.066299796288
 21
255.580476289242
 31
0.0
  0
LINE
  5
492E
330
1F
100
AcDbEntity
  8
AM_VIS
100
AcDbLine
 10
1741.245272393865
 20
255.580476289242
 30
0.0
 11
1740.936677505088
 21
255.580476289242
 31
0.0
  0
LINE
  5
4979
330
1F
100
AcDbEntity
  8
AM_VIS
100
AcDbLine
 10
1740.066299796288
 20
255.580476289242
 30
0.0
 11
1739.75770490751
 21
255.580476289242
 31
0.0
  0
LINE
  5
497B
330
1F
100
AcDbEntity
  8
AM_VIS
100
AcDbLine
 10
1740.936677505088
 20
255.580476289242
 30
0.0
 11
1740.654609325306
 21
255.580476289242
 31
0.0
  0
LINE
  5
499C
330
1F
100
AcDbEntity
  8
AM_VIS
100
AcDbLine
 10
1739.751488650688
 20
255.080476289242
 30
0.0
 11
1739.751488650688
 21
254.580476289242
 31
0.0
  0
LINE
  5
499D
330
1F
100
AcDbEntity
  8
AM_VIS
100
AcDbLine
 10
1750.497117863913
 20
255.0797832567951
 30
0.0
 11
1750.497117863913
 21
263.080476289242
 31
0.0
  0
LINE
  5
499E
330
1F
100
AcDbEntity
  8
AM_VIS
100
AcDbLine
 10
1741.251488650688
 20
255.580476289242
 30
0.0
 11
1741.251488650688
 21
255.080476289242
 31
0.0
  0
LINE
  5
499F
330
1F
100
AcDbEntity
  8
AM_VIS
100
AcDbLine
 10
1739.751488650688
 20
255.080476289242
 30
0.0
 11
1739.751488650688
 21
255.580476289242
 31
0.0
  0
LINE
  5
49A0
330
1F
100
AcDbEntity
  8
AM_VIS
100
AcDbLine
 10
1750.20185934183
 20
254.7801110577686
 30
0.0
 11
1750.497117863913
 21
255.0797832567954
 31
0.0
  0
LINE
  5
49A1
330
1F
100
AcDbEntity
  8
AM_VIS
100
AcDbLine
 10
1741.251488650688
 20
255.080476289242
 30
0.0
 11
1741.251488650688
 21
254.580476289242
 31
0.0
  0
CIRCLE
  5
49A3
330
1F
100
AcDbEntity
  8
AM_VIS
100
AcDbCircle
 10
1740.501488650688
 20
288.080476289242
 30
0.0
 40
22.0
  0
LINE
  5
49A4
330
1F
100
AcDbEntity
  8
AM_VIS
100
AcDbLine
 10
1717.501488650688
 20
274.8014200978805
 30
0.0
 11
1740.501488650688
 21
261.5223639065192
 31
0.0
  0
LINE
  5
49A5
330
1F
100
AcDbEntity
  8
AM_VIS
100
AcDbLine
 10
1740.501488650688
 20
261.5223639065192
 30
0.0
 11
1763.501488650688
 21
274.8014200978805
 31
0.0
  0
LINE
  5
49A6
330
1F
100
AcDbEntity
  8
AM_VIS
100
AcDbLine
 10
1763.501488650688
 20
301.3595324806033
 30
0.0
 11
1763.501488650688
 21
274.8014200978805
 31
0.0
  0
LINE
  5
49A7
102
{ACAD_REACTORS
330
6F42
102
}
330
1F
100
AcDbEntity
  8
AM_VIS
100
AcDbLine
 10
1740.501488650688
 20
314.6385886719647
 30
0.0
 11
1763.501488650688
 21
301.3595324806033
 31
0.0
  0
LINE
  5
49A8
330
1F
100
AcDbEntity
  8
AM_VIS
100
AcDbLine
 10
1717.501488650688
 20
301.3595324806033
 30
0.0
 11
1740.501488650688
 21
314.6385886719647
 31
0.0
  0
LINE
  5
49A9
102
{ACAD_REACTORS
330
6F42
102
}
330
1F
100
AcDbEntity
  8
AM_VIS
100
AcDbLine
 10
1717.501488650688
 20
301.3595324806033
 30
0.0
 11
1717.501488650688
 21
274.8014200978805
 31
0.0
  0
LWPOLYLINE
  5
54F1
330
1F
100
AcDbEntity
  8
0
100
AcDbPolyline
 90
        4
 70
     1
 43
0.0
 10
1578.209053179638
 20
526.460240629469
 10
1762.269718219251
 20
526.460240629469
 10
1762.269718219251
 20
405.6671020632344
 10
1578.209053179638
 20
405.6671020632344
  0
LEADER
  5
54FE
330
1F
100
AcDbEntity
  8
AM_5
100
AcDbLeader
  3
AM_ISO$7
 76
     3
 10
1692.660038065133
 20
473.3220312175243
 30
0.0
 10
1674.082304638942
 20
497.0574854052116
 30
0.0
 10
1617.960118039736
 20
497.0574854052116
 30
0.0
1001
ACAD
1000
DSTYLE
1002
{
1070
    40
1040
1.5
1070
    41
1040
3.0
1070
    42
1040
1.0
1070
    43
1040
15.0
1070
    44
1040
1.0
1070
   140
1040
3.5
1070
   141
1040
0.0
1070
   147
1040
1.0
1002
}
  0
TEXT
  5
5501
330
1F
100
AcDbEntity
  8
AM_5
100
AcDbText
 10
1617.800553243548
 20
499.0564044558006
 30
0.0
 40
3.5
  1
Rc3/8(Cool air out)
100
AcDbText
  0
LEADER
  5
5502
330
1F
100
AcDbEntity
  8
AM_5
100
AcDbLeader
  3
AM_ANSI$7
 76
     3
 10
1662.291322435946
 20
448.9736481040153
 30
0.0
 10
1678.422818238871
 20
433.3442263255855
 30
0.0
 10
1702.702430767436
 20
433.3442263255855
 30
0.0
1001
ACAD
1000
DSTYLE
1002
{
1070
    41
1040
4.0
1070
   341
1005
30E8
1070
   147
1040
0.8
1070
    77
1070
     0
1002
}
  0
TEXT
  5
5503
330
1F
100
AcDbEntity
  8
AM_5
100
AcDbText
 10
1679.217308392471
 20
434.4134480806935
 30
0.0
 40
3.5
  1
Silencer
100
AcDbText
  0
DIMENSION
  5
5518
102
{ACAD_XDICTIONARY
360
5525
102
}
102
{ACAD_REACTORS
330
5526
102
}
330
1F
100
AcDbEntity
  8
AM_5
100
AcDbDimension
  2
*D4
 10
1620.450038065133
 20
471.9920312175243
 30
0.0
 11
1617.700038065133
 21
464.9920312175246
 31
0.0
 70
    32
  1
%%c<>
 71
     5
 42
14.0
  3
AM_ISO
100
AcDbAlignedDimension
 13
1632.450038065133
 23
457.9920312175243
 33
0.0
 14
1632.450038065133
 24
471.9920312175243
 34
0.0
 50
90.0
100
AcDbRotatedDimension
  0
DIMENSION
  5
554B
102
{ACAD_XDICTIONARY
360
5558
102
}
102
{ACAD_REACTORS
330
5559
102
}
330
1F
100
AcDbEntity
  8
AM_5
100
AcDbDimension
  2
*D5
 10
1612.450038065133
 20
457.4920312175243
 30
0.0
 11
1609.700038065133
 21
464.9920312175246
 31
0.0
 70
    32
  1
%%c<>
 71
     5
 42
15.0
  3
AM_ISO$0
100
AcDbAlignedDimension
 13
1640.450038065133
 23
472.4920312175243
 33
0.0
 14
1640.450038065133
 24
457.4920312175243
 34
0.0
 50
90.0
100
AcDbRotatedDimension
  0
DIMENSION
  5
5575
102
{ACAD_XDICTIONARY
360
5582
102
}
102
{ACAD_REACTORS
330
5583
102
}
330
1F
100
AcDbEntity
  8
AM_5
100
AcDbDimension
  2
*D6
 10
1604.450038065133
 20
484.9920312175243
 30
0.0
 11
1601.700038065133
 21
464.9920312175246
 31
0.0
 70
    32
  1
%%c<>
 71
     5
 42
40.00000000000006
  3
AM_ISO$0
100
AcDbAlignedDimension
 13
1648.450038065133
 23
444.9920312175243
 33
0.0
 14
1648.450038065133
 24
484.9920312175243
 34
0.0
 50
90.0
100
AcDbRotatedDimension
  0
DIMENSION
  5
56D7
102
{ACAD_XDICTIONARY
360
56E4
102
}
102
{ACAD_REACTORS
330
56E5
102
}
330
1F
100
AcDbEntity
  8
AM_5
100
AcDbDimension
  2
*D7
 10
1647.450038065133
 20
432.9920302175243
 30
0.0
 11
1639.950038065133
 21
435.7420302175243
 31
0.0
 70
    32
 71
     5
 42
15.0
  3
AM_ISO$0
100
AcDbAlignedDimension
 13
1632.450038065133
 23
457.9920312175243
 33
0.0
 14
1647.450038065133
 24
445.9920312175243
 34
0.0
 50
0.0000000000002036
100
AcDbRotatedDimension
  0
DIMENSION
  5
5701
102
{ACAD_XDICTIONARY
360
570E
102
}
102
{ACAD_REACTORS
330
570F
102
}
330
1F
100
AcDbEntity
  8
AM_5
100
AcDbDimension
  2
*D8
 10
1713.450038065133
 20
420.1948872588246
 30
0.0
 11
1672.950038065133
 21
422.9448872588246
 31
0.0
 70
    32
 71
     5
 42
81.0
  3
AM_ISO$0
100
AcDbAlignedDimension
 13
1632.450038065133
 23
457.9920312175243
 33
0.0
 14
1713.450038065133
 24
439.9920312175244
 34
0.0
 50
0.0000000000002036
100
AcDbRotatedDimension
  0
LINE
  5
6729
330
1F
100
AcDbEntity
  8
AM_VIS
100
AcDbLine
 10
1731.505859437462
 20
263.080476289242
 30
0.0
 11
1731.505859437462
 21
254.580476289242
 31
0.0
  0
LINE
  5
6741
330
1F
100
AcDbEntity
  8
AM_VIS
100
AcDbLine
 10
1732.505859437462
 20
263.080476289242
 30
0.0
 11
1732.505859437462
 21
254.580476289242
 31
0.0
  0
LINE
  5
6742
330
1F
100
AcDbEntity
  8
AM_VIS
100
AcDbLine
 10
1733.505859437462
 20
263.080476289242
 30
0.0
 11
1733.505859437462
 21
254.580476289242
 31
0.0
  0
LINE
  5
6743
330
1F
100
AcDbEntity
  8
AM_VIS
100
AcDbLine
 10
1734.505859437462
 20
263.080476289242
 30
0.0
 11
1734.505859437462
 21
254.580476289242
 31
0.0
  0
LINE
  5
6744
330
1F
100
AcDbEntity
  8
AM_VIS
100
AcDbLine
 10
1735.505859437462
 20
263.080476289242
 30
0.0
 11
1735.505859437462
 21
254.580476289242
 31
0.0
  0
LINE
  5
6745
330
1F
100
AcDbEntity
  8
AM_VIS
100
AcDbLine
 10
1736.505859437462
 20
263.080476289242
 30
0.0
 11
1736.505859437462
 21
254.580476289242
 31
0.0
  0
LINE
  5
6746
330
1F
100
AcDbEntity
  8
AM_VIS
100
AcDbLine
 10
1737.505859437462
 20
263.080476289242
 30
0.0
 11
1737.505859437462
 21
254.580476289242
 31
0.0
  0
LINE
  5
6747
330
1F
100
AcDbEntity
  8
AM_VIS
100
AcDbLine
 10
1738.505859437462
 20
262.6745409699777
 30
0.0
 11
1738.505859437462
 21
254.580476289242
 31
0.0
  0
LINE
  5
6748
330
1F
100
AcDbEntity
  8
AM_VIS
100
AcDbLine
 10
1739.505859437462
 20
262.097190700788
 30
0.0
 11
1739.505859437462
 21
254.580476289242
 31
0.0
  0
LINE
  5
674A
330
1F
100
AcDbEntity
  8
AM_VIS
100
AcDbLine
 10
1741.505859437462
 20
262.1022376506296
 30
0.0
 11
1741.505859437462
 21
254.580476289242
 31
0.0
  0
LINE
  5
674B
330
1F
100
AcDbEntity
  8
AM_VIS
100
AcDbLine
 10
1742.505859437462
 20
262.6795879198193
 30
0.0
 11
1742.505859437462
 21
254.580476289242
 31
0.0
  0
LINE
  5
674C
330
1F
100
AcDbEntity
  8
AM_VIS
100
AcDbLine
 10
1743.505859437462
 20
263.080476289242
 30
0.0
 11
1743.505859437462
 21
254.580476289242
 31
0.0
  0
LINE
  5
674D
330
1F
100
AcDbEntity
  8
AM_VIS
100
AcDbLine
 10
1744.505859437462
 20
263.080476289242
 30
0.0
 11
1744.505859437462
 21
254.580476289242
 31
0.0
  0
LINE
  5
674E
330
1F
100
AcDbEntity
  8
AM_VIS
100
AcDbLine
 10
1745.505859437462
 20
263.080476289242
 30
0.0
 11
1745.505859437462
 21
254.580476289242
 31
0.0
  0
LINE
  5
674F
330
1F
100
AcDbEntity
  8
AM_VIS
100
AcDbLine
 10
1746.505859437462
 20
263.080476289242
 30
0.0
 11
1746.505859437462
 21
254.580476289242
 31
0.0
  0
LINE
  5
6750
330
1F
100
AcDbEntity
  8
AM_VIS
100
AcDbLine
 10
1747.505859437462
 20
263.080476289242
 30
0.0
 11
1747.505859437462
 21
254.580476289242
 31
0.0
  0
LINE
  5
6751
330
1F
100
AcDbEntity
  8
AM_VIS
100
AcDbLine
 10
1748.505859437462
 20
263.080476289242
 30
0.0
 11
1748.505859437462
 21
254.580476289242
 31
0.0
  0
LINE
  5
6752
330
1F
100
AcDbEntity
  8
AM_VIS
100
AcDbLine
 10
1749.505859437462
 20
263.080476289242
 30
0.0
 11
1749.505859437462
 21
254.580476289242
 31
0.0
  0
LINE
  5
6754
330
1F
100
AcDbEntity
  8
AM_VIS
100
AcDbLine
 10
2010.903793485279
 20
264.580476289242
 30
0.0
 11
2010.903793485279
 21
254.580476289242
 31
0.0
  0
LINE
  5
678E
330
1F
100
AcDbEntity
  8
AM_VIS
100
AcDbLine
 10
2011.903793485279
 20
264.580476289242
 30
0.0
 11
2011.903793485279
 21
254.580476289242
 31
0.0
  0
LINE
  5
678F
330
1F
100
AcDbEntity
  8
AM_VIS
100
AcDbLine
 10
2012.903793485279
 20
264.580476289242
 30
0.0
 11
2012.903793485279
 21
254.580476289242
 31
0.0
  0
LINE
  5
6790
330
1F
100
AcDbEntity
  8
AM_VIS
100
AcDbLine
 10
2013.903793485279
 20
264.580476289242
 30
0.0
 11
2013.903793485279
 21
254.580476289242
 31
0.0
  0
LINE
  5
6791
330
1F
100
AcDbEntity
  8
AM_VIS
100
AcDbLine
 10
2014.903793485279
 20
264.580476289242
 30
0.0
 11
2014.903793485279
 21
254.580476289242
 31
0.0
  0
LINE
  5
6792
330
1F
100
AcDbEntity
  8
AM_VIS
100
AcDbLine
 10
2015.903793485279
 20
264.580476289242
 30
0.0
 11
2015.903793485279
 21
254.580476289242
 31
0.0
  0
LINE
  5
6793
330
1F
100
AcDbEntity
  8
AM_VIS
100
AcDbLine
 10
2016.903793485279
 20
264.580476289242
 30
0.0
 11
2016.903793485279
 21
254.580476289242
 31
0.0
  0
LINE
  5
6794
330
1F
100
AcDbEntity
  8
AM_VIS
100
AcDbLine
 10
2017.903793485279
 20
264.580476289242
 30
0.0
 11
2017.903793485279
 21
254.580476289242
 31
0.0
  0
LINE
  5
6795
330
1F
100
AcDbEntity
  8
AM_VIS
100
AcDbLine
 10
2018.903793485279
 20
264.580476289242
 30
0.0
 11
2018.903793485279
 21
254.580476289242
 31
0.0
  0
LINE
  5
6797
330
1F
100
AcDbEntity
  8
AM_VIS
100
AcDbLine
 10
2020.903793485279
 20
264.580476289242
 30
0.0
 11
2020.903793485279
 21
254.580476289242
 31
0.0
  0
LINE
  5
6798
330
1F
100
AcDbEntity
  8
AM_VIS
100
AcDbLine
 10
2021.903793485279
 20
264.580476289242
 30
0.0
 11
2021.903793485279
 21
254.580476289242
 31
0.0
  0
LINE
  5
6799
330
1F
100
AcDbEntity
  8
AM_VIS
100
AcDbLine
 10
2022.903793485279
 20
264.580476289242
 30
0.0
 11
2022.903793485279
 21
254.580476289242
 31
0.0
  0
LINE
  5
679A
330
1F
100
AcDbEntity
  8
AM_VIS
100
AcDbLine
 10
2023.903793485279
 20
264.580476289242
 30
0.0
 11
2023.903793485279
 21
254.580476289242
 31
0.0
  0
LINE
  5
679B
330
1F
100
AcDbEntity
  8
AM_VIS
100
AcDbLine
 10
2024.903793485279
 20
264.580476289242
 30
0.0
 11
2024.903793485279
 21
254.580476289242
 31
0.0
  0
LINE
  5
679C
330
1F
100
AcDbEntity
  8
AM_VIS
100
AcDbLine
 10
2025.903793485279
 20
264.580476289242
 30
0.0
 11
2025.903793485279
 21
254.580476289242
 31
0.0
  0
LINE
  5
679D
330
1F
100
AcDbEntity
  8
AM_VIS
100
AcDbLine
 10
2026.903793485279
 20
264.580476289242
 30
0.0
 11
2026.903793485279
 21
254.580476289242
 31
0.0
  0
LINE
  5
679E
330
1F
100
AcDbEntity
  8
AM_VIS
100
AcDbLine
 10
2027.903793485279
 20
264.580476289242
 30
0.0
 11
2027.903793485279
 21
254.580476289242
 31
0.0
  0
LINE
  5
679F
102
{ACAD_REACTORS
330
70C9
102
}
330
1F
100
AcDbEntity
  8
AM_VIS
100
AcDbLine
 10
2028.903793485279
 20
264.580476289242
 30
0.0
 11
2028.903793485279
 21
254.580476289242
 31
0.0
  0
LINE
  5
67A0
330
1F
100
AcDbEntity
  8
AM_VIS
100
AcDbLine
 10
2010.875628822869
 20
267.5804762892419
 30
0.0
 11
2010.875628822869
 21
272.580476289242
 31
0.0
  0
LINE
  5
67D4
330
1F
100
AcDbEntity
  8
AM_VIS
100
AcDbLine
 10
2011.875628822869
 20
267.5804762892419
 30
0.0
 11
2011.875628822869
 21
272.580476289242
 31
0.0
  0
LINE
  5
67D5
330
1F
100
AcDbEntity
  8
AM_VIS
100
AcDbLine
 10
2012.875628822869
 20
267.5804762892419
 30
0.0
 11
2012.875628822869
 21
272.580476289242
 31
0.0
  0
LINE
  5
67D6
330
1F
100
AcDbEntity
  8
AM_VIS
100
AcDbLine
 10
2013.875628822869
 20
267.5804762892419
 30
0.0
 11
2013.875628822869
 21
272.580476289242
 31
0.0
  0
LINE
  5
67D7
330
1F
100
AcDbEntity
  8
AM_VIS
100
AcDbLine
 10
2014.875628822869
 20
267.5804762892419
 30
0.0
 11
2014.875628822869
 21
272.580476289242
 31
0.0
  0
LINE
  5
67D8
330
1F
100
AcDbEntity
  8
AM_VIS
100
AcDbLine
 10
2015.875628822869
 20
267.5804762892419
 30
0.0
 11
2015.875628822869
 21
272.580476289242
 31
0.0
  0
LINE
  5
67D9
330
1F
100
AcDbEntity
  8
AM_VIS
100
AcDbLine
 10
2016.875628822869
 20
267.5804762892419
 30
0.0
 11
2016.875628822869
 21
272.580476289242
 31
0.0
  0
LINE
  5
67DA
330
1F
100
AcDbEntity
  8
AM_VIS
100
AcDbLine
 10
2017.875628822869
 20
267.5804762892419
 30
0.0
 11
2017.875628822869
 21
272.580476289242
 31
0.0
  0
LINE
  5
67DB
330
1F
100
AcDbEntity
  8
AM_VIS
100
AcDbLine
 10
2018.875628822869
 20
267.5804762892419
 30
0.0
 11
2018.875628822869
 21
272.580476289242
 31
0.0
  0
LINE
  5
67DD
330
1F
100
AcDbEntity
  8
AM_VIS
100
AcDbLine
 10
2020.875628822869
 20
267.5804762892419
 30
0.0
 11
2020.875628822869
 21
272.580476289242
 31
0.0
  0
LINE
  5
67DE
330
1F
100
AcDbEntity
  8
AM_VIS
100
AcDbLine
 10
2021.875628822868
 20
267.5804762892419
 30
0.0
 11
2021.875628822868
 21
272.580476289242
 31
0.0
  0
LINE
  5
67DF
330
1F
100
AcDbEntity
  8
AM_VIS
100
AcDbLine
 10
2022.875628822869
 20
267.5804762892419
 30
0.0
 11
2022.875628822869
 21
272.580476289242
 31
0.0
  0
LINE
  5
67E0
330
1F
100
AcDbEntity
  8
AM_VIS
100
AcDbLine
 10
2023.875628822869
 20
267.5804762892419
 30
0.0
 11
2023.875628822869
 21
272.580476289242
 31
0.0
  0
LINE
  5
67E1
330
1F
100
AcDbEntity
  8
AM_VIS
100
AcDbLine
 10
2024.875628822869
 20
267.5804762892419
 30
0.0
 11
2024.875628822869
 21
272.580476289242
 31
0.0
  0
LINE
  5
67E2
330
1F
100
AcDbEntity
  8
AM_VIS
100
AcDbLine
 10
2025.875628822869
 20
267.5804762892419
 30
0.0
 11
2025.875628822869
 21
272.580476289242
 31
0.0
  0
LINE
  5
67E3
330
1F
100
AcDbEntity
  8
AM_VIS
100
AcDbLine
 10
2026.875628822869
 20
267.5804762892419
 30
0.0
 11
2026.875628822869
 21
272.580476289242
 31
0.0
  0
LINE
  5
67E4
330
1F
100
AcDbEntity
  8
AM_VIS
100
AcDbLine
 10
2027.875628822869
 20
267.5804762892419
 30
0.0
 11
2027.875628822869
 21
272.580476289242
 31
0.0
  0
LINE
  5
67E5
330
1F
100
AcDbEntity
  8
AM_VIS
100
AcDbLine
 10
2028.875628822869
 20
267.5804762892419
 30
0.0
 11
2028.875628822869
 21
272.580476289242
 31
0.0
  0
DIMENSION
  5
6F0A
102
{ACAD_XDICTIONARY
360
6F17
102
}
102
{ACAD_REACTORS
330
6F18
102
}
330
1F
100
AcDbEntity
  8
AM_5
100
AcDbDimension
  2
*D9
 10
1705.501488650688
 20
263.080476289242
 30
0.0
 11
1702.751488650688
 21
288.0804762892422
 31
0.0
 70
    32
 71
     5
 42
50.0
  3
AM_ISO$0
100
AcDbAlignedDimension
 13
1720.501488650688
 23
313.080476289242
 33
0.0
 14
1720.501488650688
 24
263.080476289242
 34
0.0
 50
90.0
100
AcDbRotatedDimension
1001
ACAD
1000
DSTYLE
1002
{
1070
   272
1070
     8
1002
}
  0
DIMENSION
  5
6F34
102
{ACAD_XDICTIONARY
360
6F41
102
}
102
{ACAD_REACTORS
330
6F42
102
}
330
1F
100
AcDbEntity
  8
AM_5
100
AcDbDimension
  2
*D10
 10
1763.501488650688
 20
325.080476289242
 30
0.0
 11
1740.501488650688
 21
327.830476289242
 31
0.0
 70
    32
 71
     5
 42
46.0
  3
AM_ISO$0
100
AcDbAlignedDimension
 13
1717.501488650688
 23
301.3595324806033
 33
0.0
 14
1763.501488650688
 24
301.3595324806033
 34
0.0
100
AcDbRotatedDimension
1001
ACAD
1000
DSTYLE
1002
{
1070
   272
1070
     8
1002
}
  0
DIMENSION
  5
6F5E
102
{ACAD_XDICTIONARY
360
6F6B
102
}
102
{ACAD_REACTORS
330
6F6C
102
}
330
1F
100
AcDbEntity
  8
AM_5
100
AcDbDimension
  2
*D11
 10
1760.501488650688
 20
243.0797832567953
 30
0.0
 11
1740.501488650688
 21
245.8297832567953
 31
0.0
 70
    32
 71
     5
 42
40.0
  3
AM_ISO$0
100
AcDbAlignedDimension
 13
1720.501488650688
 23
263.080476289242
 33
0.0
 14
1760.501488650688
 24
263.080476289242
 34
0.0
 50
0.0000000000002036
100
AcDbRotatedDimension
1001
ACAD
1000
DSTYLE
1002
{
1070
   272
1070
     8
1002
}
  0
DIMENSION
  5
6FB9
102
{ACAD_XDICTIONARY
360
6FC6
102
}
102
{ACAD_REACTORS
330
6FC7
102
}
330
1F
100
AcDbEntity
  8
AM_5
100
AcDbDimension
  2
*D12
 10
1839.875628822868
 20
243.0797832567952
 30
0.0
 11
1834.875628822868
 21
245.8297832567952
 31
0.0
 70
    32
 71
     5
 42
10.0
  3
AM_ISO$0
100
AcDbAlignedDimension
 13
1829.875628822868
 23
266.080476289242
 33
0.0
 14
1839.875628822868
 24
266.080476289242
 34
0.0
 50
0.0000000000002036
100
AcDbRotatedDimension
1001
ACAD
1000
DSTYLE
1002
{
1070
   272
1070
     8
1002
}
  0
DIMENSION
  5
6FE3
102
{ACAD_XDICTIONARY
360
6FF2
102
}
102
{ACAD_REACTORS
330
6FF3
102
}
330
1F
100
AcDbEntity
  8
AM_5
100
AcDbDimension
  2
*D13
 10
1872.875628822869
 20
243.0797832567953
 30
0.0
 11
1876.375628822868
 21
245.8297832567953
 31
0.0
 70
    32
 71
     5
 42
6.999999999999772
  3
AM_ISO$0
100
AcDbAlignedDimension
 13
1879.875628822868
 23
263.080476289242
 33
0.0
 14
1872.875628822869
 24
264.780476289242
 34
0.0
 50
0.0000000000002036
100
AcDbRotatedDimension
1001
ACAD
1000
DSTYLE
1002
{
1070
   272
1070
     8
1002
}
  0
DIMENSION
  5
7020
102
{ACAD_XDICTIONARY
360
702C
102
}
102
{ACAD_REACTORS
330
702D
102
}
330
1F
100
AcDbEntity
  8
AM_5
100
AcDbDimension
  2
*D14
 10
1871.775290962534
 20
302.9693259243254
 30
0.0
 11
1891.890351654447
 21
320.769882011455
 31
0.0
 70
   163
  1
2-<> THRU
 71
     5
 42
6.600000000000477
  3
AM_ISO$3
100
AcDbDiametricDimension
 15
1873.975966683201
 25
309.191626654158
 35
0.0
 40
0.0
1001
ACAD
1000
DSTYLE
1002
{
1070
   272
1070
     8
1002
}
  0
DIMENSION
  5
706D
102
{ACAD_XDICTIONARY
360
707A
102
}
102
{ACAD_REACTORS
330
707B
102
}
330
1F
100
AcDbEntity
  8
AM_5
100
AcDbDimension
  2
*D15
 10
1894.419500814425
 20
270.080476289242
 30
0.0
 11
1894.419500814425
 21
288.0804762892422
 31
0.0
 70
   160
 71
     5
 42
36.0
  3
AM_ISO$0
100
AcDbAlignedDimension
 13
1878.175628822869
 23
306.080476289242
 33
0.0
 14
1878.175628822869
 24
270.080476289242
 34
0.0
 50
90.00000000000003
100
AcDbRotatedDimension
1001
ACAD
1000
DSTYLE
1002
{
1070
   272
1070
     8
1002
}
  0
LINE
  5
7091
330
1F
100
AcDbEntity
  8
AM_7
100
AcDbLine
 10
1887.145492217179
 20
288.080476289242
 30
0.0
 11
1877.875628822868
 21
288.080476289242
 31
0.0
  0
LEADER
  5
70A0
102
{ACAD_XDICTIONARY
360
70A2
102
}
102
{ACAD_REACTORS
330
70A3
102
}
330
1F
100
AcDbEntity
  8
AM_5
100
AcDbLeader
  3
AM_ISO$7
 73
     0
 75
     1
 40
3.5
 41
14.84497474683058
 76
     3
 10
1829.241095764191
 20
304.580476289242
 30
0.0
 10
1819.064455276729
 20
322.4970102211494
 30
0.0
 10
1815.564455276729
 20
322.4970102211494
 30
0.0
340
70A1
1001
ACAD
1000
DSTYLE
1002
{
1070
    74
1070
     1
1070
   172
1070
     0
1070
   272
1070
     8
1070
   288
1070
     1
1070
   289
1070
     0
1002
}
  0
MTEXT
  5
70A1
102
{ACAD_REACTORS
330
70A0
102
}
330
1F
100
AcDbEntity
  8
AM_5
100
AcDbMText
 10
1814.564455276729
 20
323.4970102211494
 30
0.0
 40
3.5
 41
0.0
 71
     9
 72
     1
  1
M33*1.5
 73
     1
 44
1.0
1001
ACAD
1000
MTEXTBEGIN
1070
    73
1070
     1
1070
    44
1040
1.0
1070
    74
1070
     0
1000
MTEXTEND
  0
LEADER
  5
70A5
102
{ACAD_XDICTIONARY
360
70A7
102
}
102
{ACAD_REACTORS
330
70A8
102
}
330
1F
100
AcDbEntity
  8
AM_5
100
AcDbLeader
  3
AM_ISO$7
 73
     0
 75
     1
 40
4.51997474683058
 41
37.11750000000002
 76
     3
 10
2009.903793485279
 20
260.0418774990264
 30
0.0
 10
2002.133473132626
 20
252.6384824573488
 30
0.0
 10
1999.133473132625
 20
252.6384824573488
 30
0.0
340
70A6
1001
ACAD
1000
DSTYLE
1002
{
1070
    41
1040
3.0
1070
    42
1040
1.0
1070
    43
1040
15.0
1070
    44
1040
1.0
1070
   272
1070
     8
1002
}
  0
MTEXT
  5
70A6
102
{ACAD_REACTORS
330
70A5
102
}
330
1F
100
AcDbEntity
  8
AM_5
100
AcDbMText
 10
1998.133473132625
 20
253.6384824573488
 30
0.0
 40
3.5
 41
0.0
 71
     9
 72
     1
  1
Adjustment screw
 73
     1
 44
1.0
1001
ACAD
1000
MTEXTBEGIN
1070
    73
1070
     1
1070
    44
1040
1.0
1070
    74
1070
     0
1000
MTEXTEND
  0
DIMENSION
  5
70BB
102
{ACAD_XDICTIONARY
360
70C8
102
}
102
{ACAD_REACTORS
330
70C9
102
}
330
1F
100
AcDbEntity
  8
AM_5
100
AcDbDimension
  2
*D16
 10
2100.935521113597
 20
288.080476289242
 30
0.0
 11
2098.010521113597
 21
271.3304762892424
 31
0.0
 70
    32
  1
(31)
 71
     5
 42
33.50000000000006
  3
AM_ISO$0
100
AcDbAlignedDimension
 13
2028.903793485279
 23
254.580476289242
 33
0.0
 14
2088.935521113597
 24
288.080476289242
 34
0.0
 50
90.0
100
AcDbRotatedDimension
1001
ACAD
1000
DSTYLE
1002
{
1070
   272
1070
     8
1002
}
  0
DIMENSION
  5
70FB
102
{ACAD_XDICTIONARY
360
7108
102
}
102
{ACAD_REACTORS
330
7109
102
}
330
1F
100
AcDbEntity
  8
AM_5
100
AcDbDimension
  2
*D17
 10
1842.875628822868
 20
395.872578108167
 30
0.0
 11
1835.375628822868
 21
398.6225781081671
 31
0.0
 70
    32
 71
     5
 42
15.0
  3
AM_ISO$0
100
AcDbAlignedDimension
 13
1827.875628822868
 23
412.372578108167
 33
0.0
 14
1842.875628822868
 24
407.872578108167
 34
0.0
 50
0.0000000000002036
100
AcDbRotatedDimension
1001
ACAD
1000
DSTYLE
1002
{
1070
   174
1070
     1
1070
   272
1070
     8
1002
}
  0
DIMENSION
  5
7125
102
{ACAD_XDICTIONARY
360
7132
102
}
102
{ACAD_REACTORS
330
7133
102
}
330
1F
100
AcDbEntity
  8
AM_5
100
AcDbDimension
  2
*D18
 10
1879.875628822868
 20
395.872578108167
 30
0.0
 11
1861.375628822868
 21
398.6225781081671
 31
0.0
 70
    32
 71
     5
 42
37.0
  3
AM_ISO$0
100
AcDbAlignedDimension
 13
1842.875628822868
 23
407.872578108167
 33
0.0
 14
1879.875628822868
 24
407.872578108167
 34
0.0
100
AcDbRotatedDimension
1001
ACAD
1000
DSTYLE
1002
{
1070
   174
1070
     1
1070
   272
1070
     8
1002
}
  0
DIMENSION
  5
7153
102
{ACAD_XDICTIONARY
360
7160
102
}
102
{ACAD_REACTORS
330
7161
102
}
330
1F
100
AcDbEntity
  8
AM_5
100
AcDbDimension
  2
*D19
 10
1842.875628822868
 20
387.8725781081671
 30
0.0
 11
1829.375628822868
 21
390.6229225963561
 31
0.0
 70
    32
 71
     5
 42
27.0
  3
AM_ISO$0
100
AcDbAlignedDimension
 13
1815.875628822868
 23
415.6889933797776
 33
0.0
 14
1842.875628822868
 24
407.872578108167
 34
0.0
 50
0.0000000000002036
100
AcDbRotatedDimension
1001
ACAD
1000
DSTYLE
1002
{
1070
   174
1070
     1
1070
   272
1070
     8
1002
}
  0
DIMENSION
  5
724C
102
{ACAD_XDICTIONARY
360
7259
102
}
102
{ACAD_REACTORS
330
725A
102
}
330
1F
100
AcDbEntity
  8
AM_5
100
AcDbDimension
  2
*D20
 10
2087.875628822869
 20
387.872578108167
 30
0.0
 11
1965.375628822869
 21
390.622922596356
 31
0.0
 70
    32
 71
     5
 42
245.0000000000002
  3
AM_ISO$0
100
AcDbAlignedDimension
 13
1842.875628822868
 23
407.872578108167
 33
0.0
 14
2087.875628822869
 24
421.3143764910765
 34
0.0
100
AcDbRotatedDimension
1001
ACAD
1000
DSTYLE
1002
{
1070
   174
1070
     1
1070
   272
1070
     8
1002
}
  0
DIMENSION
  5
7276
102
{ACAD_XDICTIONARY
360
7283
102
}
102
{ACAD_REACTORS
330
7284
102
}
330
1F
100
AcDbEntity
  8
AM_5
100
AcDbDimension
  2
*D21
 10
2087.875628822869
 20
379.8725781081675
 30
0.0
 11
1951.875628822868
 21
382.6229225963565
 31
0.0
 70
    32
 71
     5
 42
272.0000000000002
  3
AM_ISO$0
100
AcDbAlignedDimension
 13
1815.875628822868
 23
413.8725781081671
 33
0.0
 14
2087.875628822869
 24
421.3143764910764
 34
0.0
 50
0.0000000000001132
100
AcDbRotatedDimension
1001
ACAD
1000
DSTYLE
1002
{
1070
   272
1070
     8
1002
}
  0
LINE
  5
72B4
330
1F
100
AcDbEntity
  8
0
100
AcDbLine
 10
2036.875628822869
 20
436.4603601268258
 30
0.0
 11
2051.375628822869
 21
419.2847960895082
 31
0.0
  0
LINE
  5
72B5
330
1F
100
AcDbEntity
  8
0
100
AcDbLine
 10
2036.875628822869
 20
419.2847960895082
 30
0.0
 11
2051.375628822869
 21
436.4603601268258
 31
0.0
  0
LINE
  5
72B6
330
1F
100
AcDbEntity
  8
0
100
AcDbLine
 10
1825.875628822868
 20
435.3558928817149
 30
0.0
 11
1816.875628822868
 21
420.3892633346191
 31
0.0
  0
LINE
  5
72B7
330
1F
100
AcDbEntity
  8
0
100
AcDbLine
 10
1816.875628822868
 20
435.3558928817149
 30
0.0
 11
1825.875628822868
 21
420.3892633346192
 31
0.0
  0
DIMENSION
  5
72C7
102
{ACAD_XDICTIONARY
360
72D4
102
}
102
{ACAD_REACTORS
330
72D5
102
}
330
1F
100
AcDbEntity
  8
AM_5
100
AcDbDimension
  2
*D22
 10
1856.875628822868
 20
459.8725781081671
 30
0.0
 11
1868.375628822868
 21
462.6229225963561
 31
0.0
 70
    32
 71
     5
 42
23.0
  3
AM_ISO$0
100
AcDbAlignedDimension
 13
1879.875628822868
 23
447.8725781081671
 33
0.0
 14
1856.875628822868
 24
437.1225781081671
 34
0.0
100
AcDbRotatedDimension
1001
ACAD
1000
DSTYLE
1002
{
1070
   272
1070
     8
1002
}
  0
DIMENSION
  5
72F2
102
{ACAD_XDICTIONARY
360
72FF
102
}
102
{ACAD_REACTORS
330
7300
102
}
330
1F
100
AcDbEntity
  8
AM_5
100
AcDbDimension
  2
*D23
 10
1803.875627822868
 20
442.8725781081671
 30
0.0
 11
1801.125627822868
 21
427.8725781081673
 31
0.0
 70
    32
  1
%%c<>
 71
     5
 42
30.0
  3
AM_ISO$0
100
AcDbAlignedDimension
 13
1816.875628822868
 23
412.872578108167
 33
0.0
 14
1816.875628822868
 24
442.8725781081671
 34
0.0
 50
90.0
100
AcDbRotatedDimension
1001
ACAD
1000
DSTYLE
1002
{
1070
   272
1070
     8
1002
}
  0
LEADER
  5
7316
330
1F
100
AcDbEntity
  8
AM_5
100
AcDbLeader
  3
AM_ISO$7
 73
     0
 75
     1
 40
3.500688976377952
 41
4.1125
 76
     3
 10
1821.115827999264
 20
433.1147815763599
 30
0.0
 10
1807.81042143839
 20
456.3521297408636
 30
0.0
 10
1804.81042143839
 20
456.3521297408636
 30
0.0
340
7317
213
-1.904695966603412
223
-0.1827174374996048
233
0.0
1001
ACAD
1000
DSTYLE
1002
{
1070
    41
1040
3.0
1070
    42
1040
1.0
1070
    43
1040
15.0
1070
    44
1040
1.0
1070
   272
1070
     8
1002
}
  0
MTEXT
  5
7317
102
{ACAD_REACTORS
330
7316
102
}
330
1F
100
AcDbEntity
  8
AM_5
100
AcDbMText
 10
1805.715117404994
 20
457.5348471783631
 30
0.0
 40
3.5
 41
0.0
 71
     9
 72
     1
  1
26
 73
     1
 44
1.0
1001
ACAD
1000
MTEXTBEGIN
1070
    73
1070
     1
1070
    44
1040
1.0
1070
    74
1070
     0
1000
MTEXTEND
  0
DIMENSION
  5
731D
330
1F
100
AcDbEntity
  8
AM_5
100
AcDbDimension
  2
*D24
 10
1856.875628822868
 20
427.8725781081668
 30
0.0
 11
1898.677754997346
 21
458.5263941224813
 31
0.0
 70
   164
  1
Rc3/8(PORT)
 71
     5
 42
8.329999999999927
  3
AM_ISO$4
100
AcDbRadialDimension
 15
1862.515651002638
 25
434.0027534573484
 35
0.0
 40
0.0
1001
ACAD
1000
DSTYLE
1002
{
1070
   272
1070
     8
1002
}
  0
LEADER
  5
7357
330
1F
100
AcDbEntity
  8
AM_5
100
AcDbLeader
  3
AM_ISO$7
 73
     0
 74
     0
 75
     1
 40
3.500688976377952
 41
3.938877952755904
 76
     3
 10
2044.481320602177
 20
433.1979922775984
 30
0.0
 10
2052.550434388241
 20
458.4474711484904
 30
0.0
 10
2055.550434388241
 20
458.4474711484904
 30
0.0
340
7358
213
2.459876712335699
223
0.3776895527025772
233
0.0
1001
ACAD
1000
DSTYLE
1002
{
1070
    41
1040
3.0
1070
    42
1040
1.0
1070
    43
1040
15.0
1070
    44
1040
1.0
1070
   174
1070
     1
1070
   272
1070
     8
1002
}
  0
MTEXT
  5
7358
102
{ACAD_REACTORS
330
7357
102
}
330
1F
100
AcDbEntity
  8
AM_5
100
AcDbMText
 10
2054.090557675905
 20
459.0697815957878
 30
0.0
 40
3.5
 41
0.0
 71
     7
 72
     1
  1
27
 73
     1
 44
1.0
1001
ACAD
1000
MTEXTBEGIN
1070
    73
1070
     1
1070
    44
1040
1.0
1070
    74
1070
     0
1000
MTEXTEND
  0
DIMENSION
  5
7369
102
{ACAD_XDICTIONARY
360
7376
102
}
102
{ACAD_REACTORS
330
7377
102
}
330
1F
100
AcDbEntity
  8
AM_5
100
AcDbDimension
  2
*D25
 10
2098.935522113597
 20
443.872578108167
 30
0.0
 11
2096.185177625407
 21
427.8725781081673
 31
0.0
 70
    32
  1
%%c<>
 71
     5
 42
32.0
  3
AM_ISO$0
100
AcDbAlignedDimension
 13
2051.375628822869
 23
411.8725781081669
 33
0.0
 14
2051.375628822869
 24
443.872578108167
 34
0.0
 50
90.0
100
AcDbRotatedDimension
1001
ACAD
1000
DSTYLE
1002
{
1070
   272
1070
     8
1002
}
  0
LEADER
  5
73DA
330
1F
100
AcDbEntity
  8
AM_5
100
AcDbLeader
  3
AM_ISO$7
 76
     3
 10
1815.875628822868
 20
288.080476289242
 30
0.0
 10
1797.297895396678
 20
311.8159304769293
 30
0.0
 10
1772.142416606472
 20
311.8159304769293
 30
0.0
1001
ACAD
1000
DSTYLE
1002
{
1070
    40
1040
1.5
1070
    41
1040
3.0
1070
    42
1040
1.0
1070
    43
1040
15.0
1070
    44
1040
1.0
1070
   140
1040
3.5
1070
   141
1040
0.0
1070
   147
1040
1.0
1002
}
  0
TEXT
  5
73DB
330
1F
100
AcDbEntity
  8
AM_5
100
AcDbText
 10
1772.142416606472
 20
313.8148495275182
 30
0.0
 40
3.5
  1
Rc3/8(Cool air out)
100
AcDbText
  0
VIEWPORT
  5
67EA
102
{ACAD_XDICTIONARY
360
73E7
102
}
330
1B
100
AcDbEntity
 67
     1
  8
0
100
AcDbViewport
 10
128.5
 20
97.5
 30
0.0
 40
314.2260000000001
 41
320.1290895953758
 68
     1
 69
     1
 12
128.5
 22
97.5
 13
0.0
 23
0.0
 14
10.0
 24
10.0
 15
10.0
 25
10.0
 16
0.0
 26
0.0
 36
1.0
 17
0.0
 27
0.0
 37
0.0
 42
50.0
 43
0.0
 44
0.0
 45
320.1290895953758
 50
0.0
 51
0.0
 72
   100
 90
    32800
  1

281
     0
 71
     1
 74
     0
110
0.0
120
0.0
130
0.0
111
1.0
121
0.0
131
0.0
112
0.0
122
1.0
132
0.0
 79
     0
146
0.0
  0
ENDSEC
  0
SECTION
  2
OBJECTS
  0
DICTIONARY
  5
C
330
0
100
AcDbDictionary
281
     1
  3
ACAD_COLOR
350
2D4A
  3
ACAD_GROUP
350
D
  3
ACAD_LAYOUT
350
1A
  3
ACAD_MATERIAL
350
2D49
  3
ACAD_MLINESTYLE
350
17
  3
ACAD_PLOTSETTINGS
350
19
  3
ACAD_PLOTSTYLENAME
350
E
  3
ACAD_TABLESTYLE
350
2D4B
  3
AcadDim
350
7359
  3
ACDBHEADERROUNDTRIPXREC
350
73E0
  3
AcDbVariableDictionary
350
161
  3
AcmDictionary
350
45
  3
AMG
350
2B
  3
AMGSNAPSETTINGS
350
7D
  3
DWGPROPS
350
73DF
  3
MAPISURF_MODULE
350
3092
  0
DICTIONARY
  5
2DFC
330
2
100
AcDbDictionary
280
     1
281
     1
  3
ACAD_LAYERSTATES
360
2DFD
  0
DICTIONARY
  5
159
330
1F
100
AcDbDictionary
280
     1
281
     1
  3
ACAD_INDEX
360
15A
  3
ACAD_LAYOUTSELFREF
360
2CE5
  3
ACAD_SORTENTS
360
6A5C
  0
DICTIONARY
  5
2CA5
330
1B
100
AcDbDictionary
280
     1
281
     1
  3
ACAD_LAYOUTSELFREF
360
2CE4
  0
DICTIONARY
  5
2CA7
330
23
100
AcDbDictionary
280
     1
281
     1
  3
ACAD_LAYOUTSELFREF
360
2CE6
  0
DICTIONARY
  5
5525
330
5518
100
AcDbDictionary
280
     1
281
     1
  3
ACAD_DIMASSOC
360
5526
  0
DICTIONARY
  5
5558
330
554B
100
AcDbDictionary
280
     1
281
     1
  3
ACAD_DIMASSOC
360
5559
  0
DICTIONARY
  5
5582
330
5575
100
AcDbDictionary
280
     1
281
     1
  3
ACAD_DIMASSOC
360
5583
  0
DICTIONARY
  5
56E4
330
56D7
100
AcDbDictionary
280
     1
281
     1
  3
ACAD_DIMASSOC
360
56E5
  0
DICTIONARY
  5
570E
330
5701
100
AcDbDictionary
280
     1
281
     1
  3
ACAD_DIMASSOC
360
570F
  0
DICTIONARY
  5
6F17
330
6F0A
100
AcDbDictionary
280
     1
281
     1
  3
ACAD_DIMASSOC
360
6F18
  0
DICTIONARY
  5
6F41
330
6F34
100
AcDbDictionary
280
     1
281
     1
  3
ACAD_DIMASSOC
360
6F42
  0
DICTIONARY
  5
6F6B
330
6F5E
100
AcDbDictionary
280
     1
281
     1
  3
ACAD_DIMASSOC
360
6F6C
  0
DICTIONARY
  5
6FC6
330
6FB9
100
AcDbDictionary
280
     1
281
     1
  3
ACAD_DIMASSOC
360
6FC7
  0
DICTIONARY
  5
6FF2
330
6FE3
100
AcDbDictionary
280
     1
281
     1
  3
ACAD_DIMASSOC
360
6FF3
  0
DICTIONARY
  5
702C
330
7020
100
AcDbDictionary
280
     1
281
     1
  3
ACAD_DIMASSOC
360
702D
  0
DICTIONARY
  5
707A
330
706D
100
AcDbDictionary
280
     1
281
     1
  3
ACAD_DIMASSOC
360
707B
  0
DICTIONARY
  5
70A2
330
70A0
100
AcDbDictionary
280
     1
281
     1
  3
ACAD_DIMASSOC
360
70A3
  0
DICTIONARY
  5
70A7
330
70A5
100
AcDbDictionary
280
     1
281
     1
  3
ACAD_DIMASSOC
360
70A8
  0
DICTIONARY
  5
70C8
330
70BB
100
AcDbDictionary
280
     1
281
     1
  3
ACAD_DIMASSOC
360
70C9
  0
DICTIONARY
  5
7108
330
70FB
100
AcDbDictionary
280
     1
281
     1
  3
ACAD_DIMASSOC
360
7109
  0
DICTIONARY
  5
7132
330
7125
100
AcDbDictionary
280
     1
281
     1
  3
ACAD_DIMASSOC
360
7133
  0
DICTIONARY
  5
7160
330
7153
100
AcDbDictionary
280
     1
281
     1
  3
ACAD_DIMASSOC
360
7161
  0
DICTIONARY
  5
7259
330
724C
100
AcDbDictionary
280
     1
281
     1
  3
ACAD_DIMASSOC
360
725A
  0
DICTIONARY
  5
7283
330
7276
100
AcDbDictionary
280
     1
281
     1
  3
ACAD_DIMASSOC
360
7284
  0
DICTIONARY
  5
72D4
330
72C7
100
AcDbDictionary
280
     1
281
     1
  3
ACAD_DIMASSOC
360
72D5
  0
DICTIONARY
  5
72FF
330
72F2
100
AcDbDictionary
280
     1
281
     1
  3
ACAD_DIMASSOC
360
7300
  0
DICTIONARY
  5
7376
330
7369
100
AcDbDictionary
280
     1
281
     1
  3
ACAD_DIMASSOC
360
7377
  0
DICTIONARY
  5
73E7
330
67EA
100
AcDbDictionary
280
     1
281
     1
  3
ACAD_XREC_ROUNDTRIP
360
73E8
  0
DICTIONARY
  5
2D4A
102
{ACAD_REACTORS
330
C
102
}
330
C
100
AcDbDictionary
281
     1
  0
DICTIONARY
  5
D
102
{ACAD_REACTORS
330
C
102
}
330
C
100
AcDbDictionary
281
     1
  0
DICTIONARY
  5
1A
102
{ACAD_REACTORS
330
C
102
}
330
C
100
AcDbDictionary
281
     1
  3
Layout1
350
1E
  3
Layout2
350
26
  3
Model
350
22
  0
DICTIONARY
  5
2D49
102
{ACAD_REACTORS
330
C
102
}
330
C
100
AcDbDictionary
281
     1
  0
DICTIONARY
  5
17
102
{ACAD_REACTORS
330
C
102
}
330
C
100
AcDbDictionary
281
     1
  3
Standard
350
18
  0
DICTIONARY
  5
19
102
{ACAD_REACTORS
330
C
102
}
330
C
100
AcDbDictionary
281
     1
  0
ACDBDICTIONARYWDFLT
  5
E
102
{ACAD_REACTORS
330
C
102
}
330
C
100
AcDbDictionary
281
     1
  3
Normal
350
F
100
AcDbDictionaryWithDefault
340
F
  0
DICTIONARY
  5
2D4B
102
{ACAD_REACTORS
330
C
102
}
330
C
100
AcDbDictionary
281
     1
  3
Standard
350
2D4C
  0
XRECORD
  5
7359
102
{ACAD_REACTORS
330
C
102
}
330
C
100
AcDbXrecord
280
     1
 90
   990106
  3

 60
     0
 61
     0
 62
     4
 63
     4
 64
     1
 65
     0
 66
     0
 67
     3
 68
     0
 69
     0
 70
     0
 71
     0
 72
     0
 40
0.0
170
     2
340
7358
  0
DICTIONARY
  5
73E0
102
{ACAD_REACTORS
330
C
102
}
330
C
100
AcDbDictionary
281
     1
  0
DICTIONARY
  5
161
102
{ACAD_REACTORS
330
C
102
}
330
C
100
AcDbDictionary
281
     1
  3
CTABLESTYLE
350
2DF7
  3
DIMASSOC
350
164
  3
HIDETEXT
350
163
  3
INDEXCTL
350
162
  3
PROJECTNAME
350
3004
  0
DICTIONARY
  5
45
102
{ACAD_REACTORS
330
C
102
}
330
C
100
AcDbDictionary
281
     1
  3
AcmStdDictionary
350
4A
  3
AMDTSECTSYM_ARROWCOLOR
350
2DBE
  0
DICTIONARY
  5
2B
102
{ACAD_REACTORS
330
C
102
}
330
C
100
AcDbDictionary
281
     1
  3
AcMgSettings
350
300C
  0
DICTIONARY
  5
7D
102
{ACAD_REACTORS
330
C
102
}
330
C
100
AcDbDictionary
281
     1
  0
XRECORD
  5
73DF
102
{ACAD_REACTORS
330
C
102
}
330
C
100
AcDbXrecord
280
     1
  1
DWGPROPS COOKIE
  2

  3

  4

  6

  7

  8

  9

300
AmdtFileType=84
301
=
302
=
303
=
304
=
305
=
306
=
307
=
308
=
309
=
 40
0.427598263888889
 41
2453229.426093924
 42
2456890.429466679
  1

 90
        1
  0
DICTIONARY
  5
2DFD
102
{ACAD_REACTORS
330
2DFC
102
}
330
2DFC
100
AcDbDictionary
281
     1
  0
DICTIONARY
  5
15A
102
{ACAD_REACTORS
330
159
102
}
330
159
100
AcDbDictionary
281
     1
  3
*A1
350
15B
  0
XRECORD
  5
2CE5
102
{ACAD_REACTORS
330
159
102
}
330
159
100
AcDbXrecord
280
     1
340
1F
  0
SORTENTSTABLE
  5
6A5C
102
{ACAD_REACTORS
330
159
102
}
330
159
100
AcDbSortentsTable
330
1F
331
3DB1
  5
3DB1
331
3DF0
  5
3DF0
331
45E8
  5
45E9
331
4572
  5
4573
331
4533
  5
4534
331
44BD
  5
44BD
331
45A9
  5
45AA
331
3DB9
  5
3DB9
331
3DF8
  5
3DF8
331
45F0
  5
45F1
331
457A
  5
457B
331
453B
  5
453C
331
44C5
  5
44C5
331
45B1
  5
45B2
331
489E
  5
489F
331
6791
  5
6793
331
447E
  5
447E
331
4437
  5
4437
331
3E00
  5
3E00
331
48E5
  5
48E6
331
48A6
  5
48A7
331
4827
  5
4828
331
45B9
  5
45BA
331
4582
  5
4583
331
4543
  5
4544
331
45F8
  5
45F9
331
6799
  5
679B
331
4486
  5
4486
331
443F
  5
443F
331
3DC9
  5
3DC9
331
48FD
  5
48FE
331
48AE
  5
48AF
331
45C1
  5
45C2
331
458A
  5
458B
331
44D5
  5
44D5
331
4514
  5
4514
331
4600
  5
4601
331
448E
  5
448E
331
4447
  5
4447
331
48B6
  5
48B7
331
4877
  5
4878
331
6742
  5
6744
331
4410
  5
4410
331
4608
  5
460B
331
4592
  5
4593
331
45C9
  5
45CA
331
451C
  5
451C
331
44A6
  5
44A6
331
44DD
  5
44DD
331
4553
  5
4554
331
4418
  5
4418
331
48BE
  5
48BF
331
674A
  5
674C
331
459A
  5
459B
331
45D1
  5
45D2
331
4524
  5
4525
331
44AE
  5
44AE
331
455B
  5
455C
331
487F
  5
4880
331
67D9
  5
67DB
331
4457
  5
4457
331
4420
  5
4420
331
3DAA
  5
3DAA
331
3DE1
  5
3DE1
331
48C6
  5
48C7
331
46F0
  5
46F1
331
4887
  5
4888
331
6752
  5
678E
331
45A2
  5
45A3
331
452C
  5
452D
331
44B6
  5
44B6
331
4563
  5
4564
331
45D9
  5
45DA
331
67E1
  5
67E3
331
3DE9
  5
3DE9
331
48CE
  5
48CF
331
488F
  5
4890
331
456B
  5
456C
331
45E1
  5
45E2
331
499D
  5
499E
331
4467
  5
4467
331
4897
  5
4898
331
49A5
  5
49A6
331
4428
  5
4428
331
3DF1
  5
3DF1
331
3DB2
  5
3DB2
331
45E9
  5
45EA
331
4534
  5
4535
331
4573
  5
4574
331
45AA
  5
45AB
331
4430
  5
4430
331
3DBA
  5
3DBA
331
3DF9
  5
3DF9
331
45F1
  5
45F2
331
457B
  5
457C
331
453C
  5
453D
331
44C6
  5
44C6
331
45B2
  5
45B3
331
489F
  5
48A0
331
6792
  5
6794
331
447F
  5
447F
331
3E01
  5
3E01
331
3DC2
  5
3DC2
331
4438
  5
4438
331
48E6
  5
48E7
331
48A7
  5
48A8
331
4828
  5
4829
331
45BA
  5
45BB
331
4583
  5
4584
331
45F9
  5
45FA
331
679A
  5
679C
331
3DCA
  5
3DCA
331
4440
  5
4440
331
48FE
  5
48FF
331
48AF
  5
48B0
331
45C2
  5
45C3
331
458B
  5
458C
331
454C
  5
454D
331
44D6
  5
44D6
331
4515
  5
4515
331
4601
  5
4602
331
448F
  5
448F
331
48B7
  5
48B8
331
6743
  5
6745
331
4448
  5
4448
331
4411
  5
4411
331
3DD2
  5
3DD2
331
4593
  5
4594
331
45CA
  5
45CB
331
451D
  5
451D
331
4554
  5
4555
331
44A7
  5
44A7
331
44DE
  5
44DE
331
4878
  5
4879
331
4419
  5
4419
331
3DA3
  5
3DA3
331
3DDA
  5
3DDA
331
674B
  5
674D
331
48BF
  5
48C0
331
459B
  5
459C
331
45D2
  5
45D3
331
44AF
  5
44AF
331
44E6
  5
44E6
331
455C
  5
455D
331
4880
  5
4881
331
492E
  5
4979
331
67DA
  5
67DD
331
4421
  5
4421
331
3DAB
  5
3DAB
331
3DE2
  5
3DE2
331
7020
  5
706D
331
48C7
  5
48C8
331
46F1
  5
46F4
331
45A3
  5
45A4
331
45DA
  5
45DB
331
452D
  5
452E
331
44B7
  5
44B7
331
4564
  5
4565
331
4888
  5
4889
331
67E2
  5
67E4
331
3DEA
  5
3DEA
331
48CF
  5
48D0
331
4890
  5
4891
331
45E2
  5
45E3
331
456C
  5
456D
331
499E
  5
499F
331
49A6
  5
49A7
331
4468
  5
4468
331
4429
  5
4429
331
3DF2
  5
3DF2
331
3DB3
  5
3DB3
331
45EA
  5
45EB
331
4535
  5
4536
331
4574
  5
4575
331
45AB
  5
45AC
331
4898
  5
4899
331
4478
  5
4478
331
3DFA
  5
3DFA
331
48A0
  5
48A1
331
45F2
  5
45F3
331
453D
  5
453E
331
44C7
  5
44C7
331
457C
  5
457D
331
45B3
  5
45B4
331
6793
  5
6795
331
6F0A
  5
6F34
331
4480
  5
4480
331
4439
  5
4439
331
3DC3
  5
3DC3
331
3E02
  5
3E02
331
48E7
  5
48F9
331
48A8
  5
48A9
331
4829
  5
482A
331
45FA
  5
45FB
331
4584
  5
4585
331
44CF
  5
44CF
331
45BB
  5
45BC
331
679B
  5
679D
331
6FB9
  5
6FE3
331
4488
  5
4488
331
3DCB
  5
3DCB
331
4441
  5
4441
331
54FE
  5
5501
331
48FF
  5
4900
331
48B0
  5
48B1
331
45C3
  5
45C4
331
458C
  5
458D
331
454D
  5
454E
331
4516
  5
4516
331
44D7
  5
44D7
331
4602
  5
4603
331
5575
  5
56D7
331
6744
  5
6746
331
4412
  5
4412
331
48B8
  5
48B9
331
4879
  5
487A
331
4594
  5
4595
331
451E
  5
451E
331
4555
  5
4556
331
44A8
  5
44A8
331
44DF
  5
44DF
331
45CB
  5
45CC
331
441A
  5
441A
331
3DA4
  5
3DA4
331
3DDB
  5
3DDB
331
48C0
  5
48C1
331
674C
  5
674E
331
459C
  5
459D
331
45D3
  5
45D4
331
455D
  5
455E
331
44B0
  5
44B0
331
44E7
  5
44E7
331
4881
  5
4882
331
67DB
  5
67DE
331
4422
  5
4422
331
3DAC
  5
3DAC
331
3DE3
  5
3DE3
331
48C8
  5
48C9
331
6754
  5
678F
331
45A4
  5
45A5
331
45DB
  5
45DC
331
452E
  5
4531
331
4565
  5
4566
331
4889
  5
488A
331
67E3
  5
67E5
331
3DEB
  5
3DEB
331
499F
  5
49A0
331
45E3
  5
45E4
331
456D
  5
456E
331
4891
  5
4892
331
49A7
  5
49A8
331
44B8
  5
44B8
331
442A
  5
442A
331
3DF3
  5
3DF3
331
3DB4
  5
3DB4
331
48D0
  5
48D1
331
45EB
  5
45EC
331
4575
  5
4576
331
4536
  5
4537
331
45AC
  5
45AD
331
4899
  5
489A
331
4479
  5
4479
331
4432
  5
4432
331
3DFB
  5
3DFB
331
6794
  5
6797
331
48A1
  5
48A2
331
45F3
  5
45F4
331
453E
  5
453F
331
4481
  5
4481
331
443A
  5
443A
331
3E03
  5
3E03
331
44C8
  5
44C8
331
457D
  5
457E
331
45B4
  5
45B5
331
48A9
  5
48AA
331
482A
  5
482B
331
45FB
  5
45FC
331
4585
  5
4586
331
4489
  5
4489
331
3DCC
  5
3DCC
331
4442
  5
4442
331
44D0
  5
44D0
331
45BC
  5
45BD
331
679C
  5
679E
331
7091
  5
4521
331
4900
  5
4901
331
48B1
  5
48B2
331
4603
  5
4604
331
458D
  5
458E
331
454E
  5
454F
331
4517
  5
4517
331
45C4
  5
45C5
331
6745
  5
6747
331
67D4
  5
67D6
331
4413
  5
4413
331
44D8
  5
44D8
331
48B9
  5
48BA
331
460B
  5
460D
331
487A
  5
487B
331
4595
  5
4596
331
451F
  5
451F
331
44A9
  5
44A9
331
44E0
  5
44E0
331
4556
  5
4557
331
45CC
  5
45CD
331
441B
  5
441B
331
3DA5
  5
3DA5
331
3DDC
  5
3DDC
331
48C1
  5
48C2
331
674D
  5
674F
331
4882
  5
4883
331
459D
  5
459E
331
44B1
  5
44B1
331
4527
  5
4528
331
455E
  5
455F
331
45D4
  5
45D5
331
445A
  5
445A
331
4423
  5
4423
331
3DAD
  5
3DAD
331
3DE4
  5
3DE4
331
48C9
  5
48CA
331
45A5
  5
45A6
331
45DC
  5
45DD
331
4566
  5
4567
331
488A
  5
488B
331
67E4
  5
67EB
331
3DEC
  5
3DEC
331
4462
  5
4462
331
49A0
  5
49A1
331
45E4
  5
45E5
331
456E
  5
456F
331
4892
  5
4893
331
44B9
  5
44B9
331
3DF4
  5
3DF4
331
3DB5
  5
3DB5
331
49A8
  5
49A9
331
48D1
  5
48D2
331
45EC
  5
45ED
331
4576
  5
4577
331
4537
  5
4538
331
45AD
  5
45AE
331
489A
  5
489B
331
447A
  5
447A
331
4433
  5
4433
331
3DFC
  5
3DFC
331
45F4
  5
45F5
331
45B5
  5
45B6
331
457E
  5
457F
331
44C9
  5
44C9
331
453F
  5
4540
331
48A2
  5
48A3
331
6795
  5
6798
331
4482
  5
4482
331
443B
  5
443B
331
3E04
  5
3E04
331
48AA
  5
48AB
331
482B
  5
482C
331
45FC
  5
45FD
331
45BD
  5
45BE
331
44D1
  5
44D1
331
4586
  5
4587
331
48F9
  5
48FA
331
679D
  5
679F
331
448A
  5
448A
331
3DCD
  5
3DCD
331
4443
  5
4443
331
48B2
  5
48B3
331
4604
  5
4605
331
454F
  5
4550
331
458E
  5
458F
331
45C5
  5
45C6
331
4901
  5
492B
331
6746
  5
6748
331
67D5
  5
67D7
331
6F34
  5
6F5E
331
6FE3
  5
7020
331
4518
  5
4518
331
44D9
  5
44D9
331
4414
  5
4414
331
48BA
  5
48BB
331
5518
  5
554B
331
487B
  5
487C
331
4596
  5
4597
331
4520
  5
4520
331
44AA
  5
44AA
331
44E1
  5
44E1
331
4557
  5
4558
331
45CD
  5
45CE
331
3DA6
  5
3DA6
331
18EC
  5
18EC
331
441C
  5
441C
331
4979
  5
497B
331
674E
  5
6750
331
46EC
  5
46ED
331
4883
  5
4884
331
459E
  5
459F
331
4528
  5
4529
331
455F
  5
4560
331
44B2
  5
44B2
331
44E9
  5
44E9
331
45D5
  5
45D6
331
67DD
  5
67DF
331
4424
  5
4424
331
3DAE
  5
3DAE
331
3DE5
  5
3DE5
331
445B
  5
445B
331
48CA
  5
48CB
331
56D7
  5
5701
331
46F4
  5
46F5
331
45A6
  5
45A7
331
45DD
  5
45DE
331
4567
  5
4568
331
488B
  5
488C
331
67E5
  5
6F0A
331
3DED
  5
3DED
331
4463
  5
4463
331
678E
  5
6790
331
49A1
  5
49A3
331
45E5
  5
45E6
331
456F
  5
4570
331
4893
  5
4894
331
44BA
  5
44BA
331
442C
  5
442C
331
3DF5
  5
3DF5
331
3DB6
  5
3DB6
331
49A9
  5
54F1
331
48D2
  5
48D3
331
45ED
  5
45EE
331
45AE
  5
45AF
331
4538
  5
4539
331
4577
  5
4578
331
489B
  5
489C
331
447B
  5
447B
331
4434
  5
4434
331
3DFD
  5
3DFD
331
3DBE
  5
3DBE
331
54F1
  5
54FE
331
45F5
  5
45F6
331
45B6
  5
45B7
331
457F
  5
4580
331
44CA
  5
44CA
331
4540
  5
4541
331
48A3
  5
48A4
331
4483
  5
4483
331
443C
  5
443C
331
48FA
  5
48FB
331
482C
  5
4875
331
45FD
  5
45FE
331
45BE
  5
45BF
331
44D2
  5
44D2
331
4587
  5
4588
331
48AB
  5
48AC
331
679E
  5
67A0
331
448B
  5
448B
331
4444
  5
4444
331
3DCE
  5
3DCE
331
5501
  5
5502
331
4605
  5
4606
331
458F
  5
4590
331
45C6
  5
45C7
331
48B3
  5
48B6
331
6747
  5
674A
331
67D6
  5
67D8
331
4519
  5
4519
331
44DA
  5
44DA
331
4550
  5
4551
331
4415
  5
4415
331
3DD6
  5
3DD6
331
48BB
  5
48BC
331
460D
  5
460E
331
487C
  5
487D
331
4597
  5
4598
331
4521
  5
4522
331
44AB
  5
44AB
331
4558
  5
4559
331
45CE
  5
45CF
331
4454
  5
4454
331
3DA7
  5
3DA7
331
441D
  5
441D
331
48C3
  5
48C4
331
46ED
  5
46EE
331
4884
  5
4885
331
674F
  5
6751
331
459F
  5
45A0
331
44B3
  5
44B3
331
4529
  5
452A
331
4560
  5
4561
331
45D6
  5
45D7
331
67DE
  5
67E0
331
3DAF
  5
3DAF
331
3DE6
  5
3DE6
331
445C
  5
445C
331
48CB
  5
48CC
331
46F5
  5
46F6
331
488C
  5
488D
331
45A7
  5
45A8
331
4568
  5
4569
331
45DE
  5
45DF
331
3DEE
  5
3DEE
331
4464
  5
4464
331
678F
  5
6791
331
45E6
  5
45E7
331
4894
  5
4895
331
4570
  5
4571
331
4531
  5
4532
331
44BB
  5
44BB
331
442D
  5
442D
331
3DF6
  5
3DF6
331
3DB7
  5
3DB7
331
48D3
  5
48E5
331
489C
  5
489D
331
4578
  5
4579
331
4539
  5
453A
331
45AF
  5
45B0
331
45EE
  5
45EF
331
447C
  5
447C
331
4435
  5
4435
331
3DFE
  5
3DFE
331
45F6
  5
45F7
331
45B7
  5
45B8
331
4580
  5
4581
331
44CB
  5
44CB
331
4541
  5
4542
331
48A4
  5
48A5
331
6797
  5
6799
331
4484
  5
4484
331
443D
  5
443D
331
3DC7
  5
3DC7
331
48FB
  5
48FC
331
45FE
  5
45FF
331
45BF
  5
45C0
331
44D3
  5
44D3
331
4588
  5
4589
331
48AC
  5
48AD
331
679F
  5
67D4
331
448C
  5
448C
331
4445
  5
4445
331
4875
  5
4876
331
4606
  5
4607
331
45C7
  5
45C8
331
5502
  5
5503
331
67D7
  5
67D9
331
4590
  5
4591
331
451A
  5
451A
331
44DB
  5
44DB
331
4551
  5
4552
331
4416
  5
4416
331
6748
  5
674B
331
48BC
  5
48BD
331
460E
  5
46EC
331
487D
  5
487E
331
4598
  5
4599
331
4522
  5
4523
331
44AC
  5
44AC
331
44E3
  5
44E3
331
4559
  5
455A
331
45CF
  5
45D0
331
492B
  5
492E
331
3DA8
  5
3DA8
331
441E
  5
441E
331
6750
  5
6752
331
48C4
  5
48C5
331
46EE
  5
46EF
331
4885
  5
4886
331
45A0
  5
45A1
331
452A
  5
452B
331
44B4
  5
44B4
331
4561
  5
4562
331
45D7
  5
45D8
331
497B
  5
499C
331
67DF
  5
67E1
331
3DE7
  5
3DE7
331
4426
  5
4426
331
48CC
  5
48CD
331
46F6
  5
46F7
331
488D
  5
488E
331
4569
  5
456A
331
45DF
  5
45E0
331
3DEF
  5
3DEF
331
4465
  5
4465
331
49A3
  5
49A4
331
6F5E
  5
6FB9
331
45E7
  5
45E8
331
4895
  5
4896
331
706D
  5
7091
331
3DB0
  5
3DB0
331
4571
  5
4572
331
4532
  5
4533
331
44BC
  5
44BC
331
45A8
  5
45A9
331
442E
  5
442E
331
3DF7
  5
3DF7
331
3DB8
  5
3DB8
331
5701
  5
6741
331
489D
  5
489E
331
473E
  5
4826
331
45B0
  5
45B1
331
4579
  5
457A
331
453A
  5
453B
331
45EF
  5
45F0
331
6790
  5
6792
331
447D
  5
447D
331
4436
  5
4436
331
3DFF
  5
3DFF
331
48A5
  5
48A6
331
45F7
  5
45F8
331
45B8
  5
45B9
331
44CC
  5
44CC
331
4581
  5
4582
331
4826
  5
4827
331
6798
  5
679A
331
4485
  5
4485
331
443E
  5
443E
331
3DC8
  5
3DC8
331
48FC
  5
48FD
331
45FF
  5
4600
331
45C0
  5
45C1
331
4589
  5
458A
331
44D4
  5
44D4
331
4513
  5
4513
331
48AD
  5
48AE
331
6729
  5
6742
331
67A0
  5
67D5
331
4446
  5
4446
331
6741
  5
6743
331
4876
  5
4877
331
4607
  5
4608
331
5503
  5
5518
331
4591
  5
4592
331
45C8
  5
45C9
331
451B
  5
451B
331
44A5
  5
44A5
331
44DC
  5
44DC
331
4552
  5
4553
331
4417
  5
4417
331
48BD
  5
48BE
331
4599
  5
459A
331
45D0
  5
45D1
331
4523
  5
4524
331
44AD
  5
44AD
331
44E4
  5
44E4
331
455A
  5
455B
331
487E
  5
487F
331
67D8
  5
67DA
331
4456
  5
4456
331
441F
  5
441F
331
3DA9
  5
3DA9
331
3DE0
  5
3DE0
331
48C5
  5
48C6
331
46EF
  5
46F0
331
4886
  5
4887
331
6751
  5
6754
331
45A1
  5
45A2
331
452B
  5
452C
331
44B5
  5
44B5
331
4562
  5
4563
331
45D8
  5
45D9
331
67E0
  5
67E2
331
4427
  5
4427
331
3DE8
  5
3DE8
331
554B
  5
5575
331
48CD
  5
48CE
331
46F7
  5
473E
331
488E
  5
488F
331
456A
  5
456B
331
45E0
  5
45E1
331
499C
  5
499D
331
4466
  5
4466
331
49A4
  5
49A5
331
4896
  5
4897
  0
XRECORD
  5
2CE4
102
{ACAD_REACTORS
330
2CA5
102
}
330
2CA5
100
AcDbXrecord
280
     1
340
1B
  0
XRECORD
  5
2CE6
102
{ACAD_REACTORS
330
2CA7
102
}
330
2CA7
100
AcDbXrecord
280
     1
340
23
  0
DIMASSOC
  5
5526
102
{ACAD_REACTORS
330
5525
102
}
330
5525
100
AcDbDimAssoc
330
5518
 90
        3
 70
     0
 71
     0
  1
AcDbOsnapPointRef
 72
    13
331
44CC
 73
     0
 91
        0
 40
0.0
 10
0.0
 20
0.0
 30
2.000000000000000E+50
 75
     0
  1
AcDbOsnapPointRef
 72
    13
331
44D2
 73
     0
 91
        0
 40
0.0
 10
0.0
 20
0.0
 30
2.000000000000000E+50
 75
     0
  0
DIMASSOC
  5
5559
102
{ACAD_REACTORS
330
5558
102
}
330
5558
100
AcDbDimAssoc
330
554B
 90
        3
 70
     0
 71
     0
  1
AcDbOsnapPointRef
 72
     1
331
44D2
 73
     0
 91
        0
 40
0.0
 10
0.0
 20
0.0
 30
2.000000000000000E+50
 75
     0
  1
AcDbOsnapPointRef
 72
    13
331
44CB
 73
     0
 91
        0
 40
0.0
 10
0.0
 20
0.0
 30
2.000000000000000E+50
 75
     0
  0
DIMASSOC
  5
5583
102
{ACAD_REACTORS
330
5582
102
}
330
5582
100
AcDbDimAssoc
330
5575
 90
        3
 70
     0
 71
     0
  1
AcDbOsnapPointRef
 72
     1
331
44C6
 73
     0
 91
        0
 40
0.0
 10
0.0
 20
0.0
 30
2.000000000000000E+50
 75
     0
  1
AcDbOsnapPointRef
 72
    13
331
44D7
 73
     0
 91
        0
 40
0.0
 10
0.0
 20
0.0
 30
2.000000000000000E+50
 75
     0
  0
DIMASSOC
  5
56E5
102
{ACAD_REACTORS
330
56E4
102
}
330
56E4
100
AcDbDimAssoc
330
56D7
 90
        3
 70
     0
 71
     0
  1
AcDbOsnapPointRef
 72
    13
331
44CC
 73
     0
 91
        0
 40
0.0
 10
0.0
 20
0.0
 30
2.000000000000000E+50
 75
     0
  1
AcDbOsnapPointRef
 72
    13
331
44C8
 73
     0
 91
        0
 40
0.0
 10
0.0
 20
0.0
 30
2.000000000000000E+50
 75
     0
  0
DIMASSOC
  5
570F
102
{ACAD_REACTORS
330
570E
102
}
330
570E
100
AcDbDimAssoc
330
5701
 90
        3
 70
     0
 71
     0
  1
AcDbOsnapPointRef
 72
     1
331
44CB
 73
     0
 91
        0
 40
0.0
 10
0.0
 20
0.0
 30
2.000000000000000E+50
 75
     0
  1
AcDbOsnapPointRef
 72
    13
331
4448
 73
     0
 91
        0
 40
0.0
 10
0.0
 20
0.0
 30
2.000000000000000E+50
 75
     0
  0
DIMASSOC
  5
6F18
102
{ACAD_REACTORS
330
6F17
102
}
330
6F17
100
AcDbDimAssoc
330
6F0A
 90
        3
 70
     0
 71
     0
  1
AcDbOsnapPointRef
 72
     1
331
48BC
 73
     0
 91
        0
 40
0.0
 10
0.0
 20
0.0
 30
2.000000000000000E+50
 75
     0
  1
AcDbOsnapPointRef
 72
    13
331
48BD
 73
     0
 91
        0
 40
0.0
 10
0.0
 20
0.0
 30
2.000000000000000E+50
 75
     0
  0
DIMASSOC
  5
6F42
102
{ACAD_REACTORS
330
6F41
102
}
330
6F41
100
AcDbDimAssoc
330
6F34
 90
        3
 70
     0
 71
     0
  1
AcDbOsnapPointRef
 72
    13
331
49A9
 73
     0
 91
        0
 40
0.0
 10
0.0
 20
0.0
 30
2.000000000000000E+50
 75
     0
  1
AcDbOsnapPointRef
 72
     1
331
49A7
 73
     0
 91
        0
 40
0.0
 10
0.0
 20
0.0
 30
2.000000000000000E+50
 75
     0
  0
DIMASSOC
  5
6F6C
102
{ACAD_REACTORS
330
6F6B
102
}
330
6F6B
100
AcDbDimAssoc
330
6F5E
 90
        3
 70
     0
 71
     0
  1
AcDbOsnapPointRef
 72
     1
331
48BA
 73
     0
 91
        0
 40
0.0
 10
0.0
 20
0.0
 30
2.000000000000000E+50
 75
     0
  1
AcDbOsnapPointRef
 72
    13
331
48BB
 73
     0
 91
        0
 40
0.0
 10
0.0
 20
0.0
 30
2.000000000000000E+50
 75
     0
  0
DIMASSOC
  5
6FC7
102
{ACAD_REACTORS
330
6FC6
102
}
330
6FC6
100
AcDbDimAssoc
330
6FB9
 90
        3
 70
     0
 71
     0
  1
AcDbOsnapPointRef
 72
     1
331
4885
 73
     0
 91
        0
 40
0.0
 10
0.0
 20
0.0
 30
2.000000000000000E+50
 75
     0
  1
AcDbOsnapPointRef
 72
    13
331
4884
 73
     0
 91
        0
 40
0.0
 10
0.0
 20
0.0
 30
2.000000000000000E+50
 75
     0
  0
DIMASSOC
  5
6FF3
102
{ACAD_REACTORS
330
6FF2
102
}
330
6FF2
100
AcDbDimAssoc
330
6FE3
 90
        1
 70
     0
 71
     0
  1
AcDbOsnapPointRef
 72
    13
331
45C1
 73
     0
 91
        0
 40
0.0
 10
0.0
 20
0.0
 30
2.000000000000000E+50
 75
     0
  0
DIMASSOC
  5
702D
102
{ACAD_REACTORS
330
702C
102
}
330
702C
100
AcDbDimAssoc
330
7020
 90
        2
 70
     0
 71
     0
  1
AcDbOsnapPointRef
 72
     3
331
45D0
 73
     0
 91
        0
 40
0.0
 10
0.0
 20
0.0
 30
0.0
 75
     0
  0
DIMASSOC
  5
707B
102
{ACAD_REACTORS
330
707A
102
}
330
707A
100
AcDbDimAssoc
330
706D
 90
        3
 70
     0
 71
     0
  1
AcDbOsnapPointRef
 72
     1
331
451D
 73
     0
 91
        0
 40
0.0
 10
0.0
 20
0.0
 30
2.000000000000000E+50
 75
     0
  1
AcDbOsnapPointRef
 72
     1
331
4517
 73
     0
 91
        0
 40
0.0
 10
0.0
 20
0.0
 30
2.000000000000000E+50
 75
     0
  0
DIMASSOC
  5
70A3
102
{ACAD_REACTORS
330
70A2
102
}
330
70A2
100
AcDbDimAssoc
330
70A0
 90
        1
 70
     0
 71
     0
  1
AcDbOsnapPointRef
 72
    10
331
45C8
 73
     2
 91
        0
 40
0.3654669413222109
 10
0.0
 20
0.0
 30
0.0
 75
     0
  0
DIMASSOC
  5
70A8
102
{ACAD_REACTORS
330
70A7
102
}
330
70A7
100
AcDbDimAssoc
330
70A5
 90
        1
 70
     0
 71
     0
  1
AcDbOsnapPointRef
 72
    10
331
460E
 73
     2
 91
        0
 40
0.450452955245512
 10
0.0
 20
0.0
 30
0.0
 75
     0
  0
DIMASSOC
  5
70C9
102
{ACAD_REACTORS
330
70C8
102
}
330
70C8
100
AcDbDimAssoc
330
70BB
 90
        3
 70
     0
 71
     0
  1
AcDbOsnapPointRef
 72
     1
331
679F
 73
     0
 91
        0
 40
0.0
 10
0.0
 20
0.0
 30
2.000000000000000E+50
 75
     0
  1
AcDbOsnapPointRef
 72
    13
331
4524
 73
     0
 91
        0
 40
0.0
 10
0.0
 20
0.0
 30
2.000000000000000E+50
 75
     0
  0
DIMASSOC
  5
7109
102
{ACAD_REACTORS
330
7108
102
}
330
7108
100
AcDbDimAssoc
330
70FB
 90
        3
 70
     0
 71
     0
  1
AcDbOsnapPointRef
 72
    13
331
4541
 73
     0
 91
        0
 40
0.0
 10
0.0
 20
0.0
 30
2.000000000000000E+50
 75
     0
  1
AcDbOsnapPointRef
 72
     1
331
4536
 73
     0
 91
        0
 40
0.0
 10
0.0
 20
0.0
 30
2.000000000000000E+50
 75
     0
  0
DIMASSOC
  5
7133
102
{ACAD_REACTORS
330
7132
102
}
330
7132
100
AcDbDimAssoc
330
7125
 90
        3
 70
     0
 71
     0
  1
AcDbOsnapPointRef
 72
     1
331
4536
 73
     0
 91
        0
 40
0.0
 10
0.0
 20
0.0
 30
2.000000000000000E+50
 75
     0
  1
AcDbOsnapPointRef
 72
    13
331
4535
 73
     0
 91
        0
 40
0.0
 10
0.0
 20
0.0
 30
2.000000000000000E+50
 75
     0
  0
DIMASSOC
  5
7161
102
{ACAD_REACTORS
330
7160
102
}
330
7160
100
AcDbDimAssoc
330
7153
 90
        2
 70
     0
 71
     0
  1
AcDbOsnapPointRef
 72
     1
331
4536
 73
     0
 91
        0
 40
0.0
 10
0.0
 20
0.0
 30
2.000000000000000E+50
 75
     0
  0
DIMASSOC
  5
725A
102
{ACAD_REACTORS
330
7259
102
}
330
7259
100
AcDbDimAssoc
330
724C
 90
        3
 70
     0
 71
     0
  1
AcDbOsnapPointRef
 72
     1
331
4536
 73
     0
 91
        0
 40
0.0
 10
0.0
 20
0.0
 30
2.000000000000000E+50
 75
     0
  1
AcDbOsnapPointRef
 72
     1
331
45BA
 73
     0
 91
        0
 40
0.0
 10
0.0
 20
0.0
 30
2.000000000000000E+50
 75
     0
  0
DIMASSOC
  5
7284
102
{ACAD_REACTORS
330
7283
102
}
330
7283
100
AcDbDimAssoc
330
7276
 90
        3
 70
     0
 71
     0
  1
AcDbOsnapPointRef
 72
    13
331
4559
 73
     0
 91
        0
 40
0.0
 10
0.0
 20
0.0
 30
2.000000000000000E+50
 75
     0
  1
AcDbOsnapPointRef
 72
     1
331
45BA
 73
     0
 91
        0
 40
0.0
 10
0.0
 20
0.0
 30
2.000000000000000E+50
 75
     0
  0
DIMASSOC
  5
72D5
102
{ACAD_REACTORS
330
72D4
102
}
330
72D4
100
AcDbDimAssoc
330
72C7
 90
        3
 70
     0
 71
     0
  1
AcDbOsnapPointRef
 72
     1
331
4534
 73
     0
 91
        0
 40
0.0
 10
0.0
 20
0.0
 30
2.000000000000000E+50
 75
     0
  1
AcDbOsnapPointRef
 72
     1
331
4415
 73
     0
 91
        0
 40
0.0
 10
0.0
 20
0.0
 30
2.000000000000000E+50
 75
     0
  0
DIMASSOC
  5
7300
102
{ACAD_REACTORS
330
72FF
102
}
330
72FF
100
AcDbDimAssoc
330
72F2
 90
        3
 70
     0
 71
     0
  1
AcDbOsnapPointRef
 72
    13
331
4551
 73
     0
 91
        0
 40
0.0
 10
0.0
 20
0.0
 30
2.000000000000000E+50
 75
     0
  1
AcDbOsnapPointRef
 72
    13
331
4552
 73
     0
 91
        0
 40
0.0
 10
0.0
 20
0.0
 30
2.000000000000000E+50
 75
     0
  0
DIMASSOC
  5
7377
102
{ACAD_REACTORS
330
7376
102
}
330
7376
100
AcDbDimAssoc
330
7369
 90
        3
 70
     0
 71
     0
  1
AcDbOsnapPointRef
 72
    13
331
457F
 73
     0
 91
        0
 40
0.0
 10
0.0
 20
0.0
 30
2.000000000000000E+50
 75
     0
  1
AcDbOsnapPointRef
 72
    13
331
457E
 73
     0
 91
        0
 40
0.0
 10
0.0
 20
0.0
 30
2.000000000000000E+50
 75
     0
  0
XRECORD
  5
73E8
102
{ACAD_REACTORS
330
73E7
102
}
330
73E7
100
AcDbXrecord
280
     1
102
SHADEPLOT
 70
     0
  0
LAYOUT
  5
1E
102
{ACAD_XDICTIONARY
360
73E1
102
}
102
{ACAD_REACTORS
330
1A
102
}
330
1A
100
AcDbPlotSettings
  1

  2
none_device
  4
ISO_A4_(210.00_x_297.00_MM)
  6

 40
7.5
 41
20.0
 42
7.5
 43
20.0
 44
210.0
 45
297.0
 46
0.0
 47
0.0
 48
0.0
 49
0.0
140
0.0
141
0.0
142
1.0
143
1.0
 70
   688
 72
     1
 73
     1
 74
     5
  7
單色出圖.ctb
 75
    16
147
1.0
148
0.0
149
0.0
100
AcDbLayout
  1
Layout1
 70
     1
 71
     1
 10
0.0
 20
0.0
 11
420.0
 21
297.0
 12
0.0
 22
0.0
 32
0.0
 14
1.000000000000000E+20
 24
1.000000000000000E+20
 34
1.000000000000000E+20
 15
-1.000000000000000E+20
 25
-1.000000000000000E+20
 35
-1.000000000000000E+20
146
0.0
 13
0.0
 23
0.0
 33
0.0
 16
1.0
 26
0.0
 36
0.0
 17
0.0
 27
1.0
 37
0.0
 76
     0
330
1B
331
67EA
1001
ACAD_PSEXT
1000
無
1000
無
1000
不適用
1000
除非另選一新建的繪圖機規劃名稱，否則配置將不會出圖。
1070
     0
  0
LAYOUT
  5
26
102
{ACAD_XDICTIONARY
360
73E5
102
}
102
{ACAD_REACTORS
330
1A
102
}
330
1A
100
AcDbPlotSettings
  1

  2
自動 RD 上的 Epson Stylus Photo 750 單色
  4

  6

 40
0.0
 41
0.0
 42
0.0
 43
0.0
 44
0.0
 45
0.0
 46
0.0
 47
0.0
 48
0.0
 49
0.0
140
0.0
141
0.0
142
1.0
143
1.0
 70
   688
 72
     0
 73
     0
 74
     5
  7
單色出圖.ctb
 75
    16
147
1.0
148
0.0
149
0.0
100
AcDbLayout
  1
Layout2
 70
     1
 71
     2
 10
0.0
 20
0.0
 11
12.0
 21
9.0
 12
0.0
 22
0.0
 32
0.0
 14
0.0
 24
0.0
 34
0.0
 15
0.0
 25
0.0
 35
0.0
146
0.0
 13
0.0
 23
0.0
 33
0.0
 16
1.0
 26
0.0
 36
0.0
 17
0.0
 27
1.0
 37
0.0
 76
     0
330
23
  0
LAYOUT
  5
22
102
{ACAD_XDICTIONARY
360
73E3
102
}
102
{ACAD_REACTORS
330
1A
102
}
330
1A
100
AcDbPlotSettings
  1

  2
DWF eView (optimized for viewing).pc3
  4
ISO_A1_(841.00_x_594.00_MM)
  6

 40
5.793749809265136
 41
17.79375076293945
 42
5.79376220703125
 43
17.79376220703125
 44
841.0
 45
594.0
 46
107.35
 47
0.0
 48
0.0
 49
0.0
140
0.0
141
0.0
142
1.0
143
0.8888929188736598
 70
 11924
 72
     1
 73
     0
 74
     1
  7
單色出圖.ctb
 75
     0
147
1.124994899573648
148
-112.3790785371866
149
-140.1352246441952
100
AcDbLayout
  1
Model
 70
     1
 71
     0
 10
0.0
 20
0.0
 11
12.0
 21
9.0
 12
0.0
 22
0.0
 32
0.0
 14
0.0
 24
0.0
 34
0.0
 15
0.0
 25
0.0
 35
0.0
146
0.0
 13
0.0
 23
0.0
 33
0.0
 16
1.0
 26
0.0
 36
0.0
 17
0.0
 27
1.0
 37
0.0
 76
     0
330
1F
  0
MLINESTYLE
  5
18
102
{ACAD_REACTORS
330
17
102
}
330
17
100
AcDbMlineStyle
  2
STANDARD
 70
     0
  3

 62
   256
 51
90.0
 52
90.0
 71
     2
 49
0.5
 62
   256
  6
BYLAYER
 49
-0.5
 62
   256
  6
BYLAYER
  0
ACDBPLACEHOLDER
  5
F
102
{ACAD_REACTORS
330
E
102
}
330
E
  0
TABLESTYLE
  5
2D4C
102
{ACAD_REACTORS
330
2D4B
102
}
330
2D4B
100
AcDbTableStyle
  3
Standard
 70
     0
 71
     0
 40
1.5
 41
1.5
280
     0
281
     0
  7
STANDARD
140
4.5
170
     2
 62
     0
 63
     7
283
     0
274
    -2
284
     1
 64
     0
275
    -2
285
     1
 65
     0
276
    -2
286
     1
 66
     0
277
    -2
287
     1
 67
     0
278
    -2
288
     1
 68
     0
279
    -2
289
     1
 69
     0
  7
STANDARD
140
6.0
170
     5
 62
     0
 63
     7
283
     0
274
    -2
284
     1
 64
     0
275
    -2
285
     1
 65
     0
276
    -2
286
     1
 66
     0
277
    -2
287
     1
 67
     0
278
    -2
288
     1
 68
     0
279
    -2
289
     1
 69
     0
  7
STANDARD
140
4.5
170
     5
 62
     0
 63
     7
283
     0
274
    -2
284
     1
 64
     0
275
    -2
285
     1
 65
     0
276
    -2
286
     1
 66
     0
277
    -2
287
     1
 67
     0
278
    -2
288
     1
 68
     0
279
    -2
289
     1
 69
     0
  0
DICTIONARYVAR
  5
2DF7
102
{ACAD_REACTORS
330
161
102
}
330
161
100
DictionaryVariables
280
     0
  1
STANDARD
  0
DICTIONARYVAR
  5
164
102
{ACAD_REACTORS
330
161
102
}
330
161
100
DictionaryVariables
280
     0
  1
2
  0
DICTIONARYVAR
  5
163
102
{ACAD_REACTORS
330
161
102
}
330
161
100
DictionaryVariables
280
     0
  1
1
  0
DICTIONARYVAR
  5
162
102
{ACAD_REACTORS
330
161
102
}
330
161
100
DictionaryVariables
280
     0
  1
1
  0
DICTIONARYVAR
  5
3004
102
{ACAD_REACTORS
330
161
102
}
330
161
100
DictionaryVariables
280
     0
  1

  0
DICTIONARY
  5
4A
102
{ACAD_REACTORS
330
45
102
}
330
45
100
AcDbDictionary
281
     1
  0
XRECORD
  5
2DBE
102
{ACAD_REACTORS
330
45
102
}
330
45
100
AcDbXrecord
280
     1
 90
-1023410169
  0
DICTIONARY
  5
300C
102
{ACAD_REACTORS
330
2B
102
}
330
2B
100
AcDbDictionary
281
     1
  3
DWGSETTINGS
350
300D
  3
TRANSSETTINGS
350
3010
  0
LAYER_INDEX
  5
15B
102
{ACAD_REACTORS
330
15A
102
}
330
15A
100
AcDbIndex
 40
2456890.429466679
100
AcDbLayerIndex
  8
0
360
15C
 90
       10
  8
AM_5
360
15D
 90
       36
  8
Defpoints
360
15E
 90
        0
  8
AM_7
360
15F
 90
       45
  8
AM_VIS
360
4D5
 90
      514
  8
AM_4
360
11F1
 90
       14
  8
LOGO
360
18F9
 90
       78
  0
DICTIONARY
  5
73E1
330
1E
100
AcDbDictionary
280
     1
281
     1
  3
ACAD_XREC_ROUNDTRIP
360
73E2
  0
DICTIONARY
  5
73E5
330
26
100
AcDbDictionary
280
     1
281
     1
  3
ACAD_XREC_ROUNDTRIP
360
73E6
  0
DICTIONARY
  5
73E3
330
22
100
AcDbDictionary
280
     1
281
     1
  3
ACAD_XREC_ROUNDTRIP
360
73E4
  0
IDBUFFER
  5
15C
330
0
100
AcDbIdBuffer
330
3E05
330
3E06
330
3E07
330
4418
330
452D
330
54F1
330
72B4
330
72B5
330
72B6
330
72B7
  0
IDBUFFER
  5
15D
330
0
100
AcDbIdBuffer
330
73DA
330
73DB
330
54FE
330
5501
330
5502
330
5503
330
5518
330
554B
330
5575
330
56D7
330
5701
330
6F0A
330
6F34
330
6F5E
330
6FB9
330
6FE3
330
7020
330
706D
330
70A0
330
70A1
330
70A5
330
70A6
330
70BB
330
70FB
330
7125
330
7153
330
724C
330
7276
330
72C7
330
72F2
330
7316
330
7317
330
731D
330
7357
330
7358
330
7369
  0
IDBUFFER
  5
15E
330
0
100
AcDbIdBuffer
  0
IDBUFFER
  5
15F
330
0
100
AcDbIdBuffer
330
4410
330
4411
330
4412
330
4413
330
4414
330
4415
330
4416
330
4417
330
4419
330
441A
330
441B
330
441C
330
441D
330
441E
330
441F
330
4420
330
4421
330
4422
330
4513
330
4514
330
4515
330
4516
330
4517
330
4518
330
4519
330
451A
330
451B
330
451C
330
451D
330
451E
330
451F
330
4520
330
4521
330
4522
330
4523
330
4524
330
4527
330
4528
330
4529
330
452A
330
452B
330
452C
330
4531
330
4532
330
7091
  0
IDBUFFER
  5
4D5
330
0
100
AcDbIdBuffer
330
4433
330
4434
330
4435
330
4436
330
4437
330
4438
330
4439
330
443A
330
443B
330
443C
330
443D
330
443E
330
443F
330
4440
330
4441
330
4442
330
4443
330
4444
330
4445
330
4446
330
4447
330
4448
330
67E4
330
67E3
330
67E2
330
67E1
330
67E0
330
67DF
330
67DE
330
67DD
330
67DB
330
67DA
330
67D9
330
4454
330
67D8
330
4456
330
4457
330
67D7
330
67D6
330
445A
330
445B
330
445C
330
67D5
330
67D4
330
67A0
330
679F
330
679E
330
4462
330
4463
330
4464
330
4465
330
4466
330
4467
330
4468
330
679D
330
679C
330
679B
330
679A
330
6799
330
6798
330
6797
330
6795
330
6794
330
6793
330
6792
330
6791
330
6790
330
678F
330
678E
330
4478
330
4479
330
447A
330
447B
330
447C
330
447D
330
447E
330
447F
330
4480
330
4481
330
4482
330
4483
330
4484
330
4485
330
4486
330
6754
330
4488
330
4489
330
448A
330
448B
330
448C
330
6752
330
448E
330
448F
330
6751
330
6750
330
674F
330
674E
330
674D
330
674C
330
674B
330
674A
330
6748
330
6747
330
6746
330
6745
330
6744
330
6743
330
6742
330
6741
330
6729
330
49A9
330
49A8
330
49A7
330
49A6
330
44A5
330
44A6
330
44A7
330
44A8
330
44A9
330
44AA
330
44AB
330
44AC
330
44AD
330
44AE
330
44AF
330
44B0
330
44B1
330
44B2
330
44B3
330
44B4
330
44B5
330
44B6
330
44B7
330
44B8
330
44B9
330
44BA
330
44BB
330
44BC
330
44BD
330
49A5
330
49A4
330
49A3
330
49A1
330
49A0
330
499F
330
499E
330
44C5
330
44C6
330
44C7
330
44C8
330
44C9
330
44CA
330
44CB
330
44CC
330
499D
330
499C
330
44CF
330
44D0
330
44D1
330
44D2
330
44D3
330
44D4
330
44D5
330
44D6
330
44D7
330
44D8
330
44D9
330
44DA
330
44DB
330
44DC
330
44DD
330
44DE
330
44DF
330
44E0
330
44E1
330
497B
330
44E3
330
44E4
330
4979
330
44E6
330
44E7
330
492E
330
4533
330
4534
330
4535
330
4536
330
4537
330
4538
330
4539
330
453A
330
453B
330
453C
330
453D
330
453E
330
453F
330
4540
330
4541
330
4543
330
67E5
330
454C
330
454D
330
454E
330
454F
330
4550
330
4551
330
4552
330
4553
330
4554
330
4555
330
4556
330
4557
330
4558
330
4559
330
455A
330
455B
330
455C
330
455D
330
455E
330
455F
330
4560
330
4561
330
4562
330
4563
330
4564
330
4565
330
4566
330
4567
330
4568
330
4569
330
456A
330
456B
330
456C
330
456D
330
456E
330
456F
330
4570
330
4571
330
4572
330
4573
330
4574
330
4575
330
4576
330
4577
330
4578
330
4579
330
457A
330
457B
330
457C
330
457D
330
457E
330
457F
330
4580
330
4581
330
4582
330
4583
330
4584
330
4585
330
4586
330
4587
330
4588
330
4589
330
458A
330
458B
330
458C
330
458D
330
458E
330
458F
330
4590
330
4591
330
4592
330
4593
330
4594
330
4595
330
4596
330
4597
330
4598
330
4599
330
459A
330
459B
330
459C
330
459D
330
459E
330
459F
330
45A0
330
45A1
330
45A2
330
45A3
330
45A4
330
45A5
330
45A6
330
45A7
330
45A8
330
45A9
330
45AA
330
45AB
330
45AC
330
45AD
330
45AE
330
45AF
330
45B0
330
45B1
330
45B2
330
45B3
330
45B4
330
45B5
330
45B6
330
45B7
330
45B8
330
45B9
330
45BA
330
45BB
330
45BC
330
45BD
330
45BE
330
45BF
330
45C0
330
45C1
330
45C2
330
45C3
330
45C4
330
45C5
330
45C6
330
45C7
330
45C8
330
45C9
330
45CA
330
45CB
330
45CC
330
45CD
330
45CE
330
45CF
330
45D0
330
45D1
330
45D2
330
45D3
330
45D4
330
45D5
330
45D6
330
45D7
330
45D8
330
45D9
330
45DA
330
45DB
330
45DC
330
45DD
330
45DE
330
45DF
330
45E0
330
45E1
330
45E2
330
45E3
330
45E4
330
45E5
330
45E6
330
45E7
330
45E8
330
45E9
330
45EA
330
45EB
330
45EC
330
45ED
330
45EE
330
45EF
330
45F0
330
45F1
330
45F2
330
45F3
330
45F4
330
45F5
330
45F6
330
45F7
330
45F8
330
45F9
330
45FA
330
45FB
330
45FC
330
45FD
330
45FE
330
45FF
330
4600
330
4601
330
4602
330
4603
330
4604
330
4605
330
4606
330
4607
330
4608
330
460B
330
460D
330
460E
330
46EC
330
46ED
330
46EE
330
46EF
330
46F0
330
46F1
330
46F4
330
46F5
330
46F6
330
46F7
330
473E
330
4826
330
4827
330
4828
330
4829
330
482A
330
482B
330
482C
330
4875
330
4876
330
4877
330
4878
330
4879
330
487A
330
487B
330
487C
330
487D
330
487E
330
487F
330
4880
330
4881
330
4882
330
4883
330
4884
330
4885
330
4886
330
4887
330
4888
330
4889
330
488A
330
488B
330
488C
330
488D
330
488E
330
488F
330
4890
330
4891
330
4892
330
4893
330
4894
330
4895
330
4896
330
4897
330
4898
330
4899
330
489A
330
489B
330
489C
330
489D
330
489E
330
489F
330
48A0
330
48A1
330
48A2
330
48A3
330
48A4
330
48A5
330
48A6
330
48A7
330
48A8
330
48A9
330
48AA
330
48AB
330
48AC
330
48AD
330
48AE
330
48AF
330
48B0
330
48B1
330
48B2
330
48B3
330
48B6
330
48B7
330
48B8
330
48B9
330
48BA
330
48BB
330
48BC
330
48BD
330
48BE
330
48BF
330
48C0
330
48C1
330
48C3
330
48C4
330
48C5
330
48C6
330
48C7
330
48C8
330
48C9
330
48CA
330
48CB
330
48CC
330
48CD
330
48CE
330
48CF
330
48D0
330
48D1
330
48D2
330
48D3
330
48E5
330
48E6
330
48E7
330
48F9
330
48FA
330
48FB
330
48FC
330
48FD
330
48FE
330
48FF
330
4900
330
4901
330
492B
  0
IDBUFFER
  5
11F1
330
0
100
AcDbIdBuffer
330
4423
330
4424
330
452E
330
4426
330
4427
330
4428
330
4429
330
442A
330
44E9
330
442C
330
442D
330
442E
330
4432
330
4430
  0
IDBUFFER
  5
18F9
330
0
100
AcDbIdBuffer
330
18EC
330
3DA3
330
3DA4
330
3DA5
330
3DA6
330
3DA7
330
3DA8
330
3DA9
330
3DAA
330
3DAB
330
3DAC
330
3DAD
330
3DAE
330
3DAF
330
3DB0
330
3DB1
330
3DB2
330
3DB3
330
3DB4
330
3DB5
330
3DB6
330
3DB7
330
3DB8
330
3DB9
330
3DBA
330
3DBE
330
3DC2
330
3DC3
330
3DC7
330
3DC8
330
3DC9
330
3DCA
330
3DCB
330
3DCC
330
3DCD
330
3DCE
330
3DD2
330
3DD6
330
3DDA
330
3DDB
330
3DDC
330
3DE0
330
3DE1
330
3DE2
330
3DE3
330
3DE4
330
3DE5
330
3DE6
330
3DE7
330
3DE8
330
3DE9
330
3DEA
330
3DEB
330
3DEC
330
3DED
330
3DEE
330
3DEF
330
3DF0
330
3DF1
330
3DF2
330
3DF3
330
3DF4
330
3DF5
330
3DF6
330
3DF7
330
3DF8
330
3DF9
330
3DFA
330
3DFB
330
3DFC
330
3DFD
330
3DFE
330
3DFF
330
3E00
330
3E01
330
3E02
330
3E03
330
3E04
  0
XRECORD
  5
73E2
102
{ACAD_REACTORS
330
73E1
102
}
330
73E1
100
AcDbXrecord
280
     1
102
SHADEPLOT
 70
     0
102
SHADEPLOTRESLEVEL
 70
     2
102
SHADEPLOTCUSTOMDPI
 70
   300
  0
XRECORD
  5
73E6
102
{ACAD_REACTORS
330
73E5
102
}
330
73E5
100
AcDbXrecord
280
     1
102
SHADEPLOT
 70
     0
102
SHADEPLOTRESLEVEL
 70
     2
102
SHADEPLOTCUSTOMDPI
 70
   300
  0
XRECORD
  5
73E4
102
{ACAD_REACTORS
330
73E3
102
}
330
73E3
100
AcDbXrecord
280
     1
102
SHADEPLOT
 70
     0
102
SHADEPLOTRESLEVEL
 70
     2
102
SHADEPLOTCUSTOMDPI
 70
   300
  0
ENDSEC
  0
EOF
