  0
SECTION
  2
HEADER
  9
$ACADVER
  1
AC1015
  9
$ACADMAINTVER
 70
    20
  9
$DWGCODEPAGE
  3
ANSI_950
  9
$INSBASE
 10
0.0
 20
0.0
 30
0.0
  9
$EXTMIN
 10
1932.46090517175
 20
25.09386588352027
 30
-0.0095193578090402
  9
$EXTMAX
 10
3032.711341139429
 20
825.1260356021166
 30
524.238903901198
  9
$LIMMIN
 10
0.0
 20
0.0
  9
$LIMMAX
 10
420.0
 20
297.0
  9
$ORTHOMODE
 70
     1
  9
$REGENMODE
 70
     1
  9
$FILLMODE
 70
     1
  9
$QTEXTMODE
 70
     0
  9
$MIRRTEXT
 70
     1
  9
$LTSCALE
 40
1.0
  9
$ATTMODE
 70
     1
  9
$TEXTSIZE
 40
3.0
  9
$TRACEWID
 40
1.0
  9
$TEXTSTYLE
  7
CHINESET
  9
$CLAYER
  8
0
  9
$CELTYPE
  6
ByLayer
  9
$CECOLOR
 62
   256
  9
$CELTSCALE
 40
1.0
  9
$DISPSILH
 70
     0
  9
$DIMSCALE
 40
1.0
  9
$DIMASZ
 40
3.0
  9
$DIMEXO
 40
1.0
  9
$DIMDLI
 40
10.0
  9
$DIMRND
 40
0.0
  9
$DIMDLE
 40
0.0
  9
$DIMEXE
 40
1.5
  9
$DIMTP
 40
0.1
  9
$DIMTM
 40
0.1
  9
$DIMTXT
 40
3.0
  9
$DIMCEN
 40
0.0
  9
$DIMTSZ
 40
0.0
  9
$DIMTOL
 70
     0
  9
$DIMLIM
 70
     0
  9
$DIMTIH
 70
     0
  9
$DIMTOH
 70
     0
  9
$DIMSE1
 70
     0
  9
$DIMSE2
 70
     0
  9
$DIMTAD
 70
     1
  9
$DIMZIN
 70
     8
  9
$DIMBLK
  1

  9
$DIMASO
 70
     1
  9
$DIMSHO
 70
     1
  9
$DIMPOST
  1

  9
$DIMAPOST
  1
"
  9
$DIMALT
 70
     0
  9
$DIMALTD
 70
     2
  9
$DIMALTF
 40
0.0393701
  9
$DIMLFAC
 40
1.0
  9
$DIMTOFL
 70
     1
  9
$DIMTVP
 40
0.0
  9
$DIMTIX
 70
     0
  9
$DIMSOXD
 70
     0
  9
$DIMSAH
 70
     0
  9
$DIMBLK1
  1

  9
$DIMBLK2
  1

  9
$DIMSTYLE
  2
AM_ISO
  9
$DIMCLRD
 70
   256
  9
$DIMCLRE
 70
   256
  9
$DIMCLRT
 70
   256
  9
$DIMTFAC
 40
0.71
  9
$DIMGAP
 40
1.0
  9
$DIMJUST
 70
     0
  9
$DIMSD1
 70
     0
  9
$DIMSD2
 70
     0
  9
$DIMTOLJ
 70
     0
  9
$DIMTZIN
 70
     8
  9
$DIMALTZ
 70
     0
  9
$DIMALTTZ
 70
     0
  9
$DIMUPT
 70
     0
  9
$DIMDEC
 70
     2
  9
$DIMTDEC
 70
     8
  9
$DIMALTU
 70
     2
  9
$DIMALTTD
 70
     2
  9
$DIMTXSTY
  7
CHINESET
  9
$DIMAUNIT
 70
     0
  9
$DIMADEC
 70
     0
  9
$DIMALTRND
 40
0.0
  9
$DIMAZIN
 70
     2
  9
$DIMDSEP
 70
    46
  9
$DIMATFIT
 70
     3
  9
$DIMFRAC
 70
     0
  9
$DIMLDRBLK
  1

  9
$DIMLUNIT
 70
     2
  9
$DIMLWD
 70
    -1
  9
$DIMLWE
 70
    -1
  9
$DIMTMOVE
 70
     0
  9
$LUNITS
 70
     2
  9
$LUPREC
 70
     2
  9
$SKETCHINC
 40
1.0
  9
$FILLETRAD
 40
2.5
  9
$AUNITS
 70
     0
  9
$AUPREC
 70
     0
  9
$MENU
  1
.
  9
$ELEVATION
 40
0.0
  9
$PELEVATION
 40
0.0
  9
$THICKNESS
 40
0.0
  9
$LIMCHECK
 70
     0
  9
$CHAMFERA
 40
2.5
  9
$CHAMFERB
 40
2.5
  9
$CHAMFERC
 40
20.0
  9
$CHAMFERD
 40
0.0
  9
$SKPOLY
 70
     0
  9
$TDCREATE
 40
2453731.618400787
  9
$TDUCREATE
 40
2453731.285067453
  9
$TDUPDATE
 40
2453732.406010012
  9
$TDUUPDATE
 40
2453732.072676678
  9
$TDINDWG
 40
0.0894429861
  9
$TDUSRTIMER
 40
0.0894429861
  9
$USRTIMER
 70
     1
  9
$ANGBASE
 50
0.0
  9
$ANGDIR
 70
     0
  9
$PDMODE
 70
     0
  9
$PDSIZE
 40
0.0
  9
$PLINEWID
 40
0.0
  9
$SPLFRAME
 70
     0
  9
$SPLINETYPE
 70
     6
  9
$SPLINESEGS
 70
     8
  9
$HANDSEED
  5
257F
  9
$SURFTAB1
 70
     6
  9
$SURFTAB2
 70
     6
  9
$SURFTYPE
 70
     6
  9
$SURFU
 70
     6
  9
$SURFV
 70
     6
  9
$UCSBASE
  2

  9
$UCSNAME
  2

  9
$UCSORG
 10
0.0
 20
0.0
 30
0.0
  9
$UCSXDIR
 10
1.0
 20
0.0
 30
0.0
  9
$UCSYDIR
 10
0.0
 20
1.0
 30
0.0
  9
$UCSORTHOREF
  2

  9
$UCSORTHOVIEW
 70
     0
  9
$UCSORGTOP
 10
0.0
 20
0.0
 30
0.0
  9
$UCSORGBOTTOM
 10
0.0
 20
0.0
 30
0.0
  9
$UCSORGLEFT
 10
0.0
 20
0.0
 30
0.0
  9
$UCSORGRIGHT
 10
0.0
 20
0.0
 30
0.0
  9
$UCSORGFRONT
 10
0.0
 20
0.0
 30
0.0
  9
$UCSORGBACK
 10
0.0
 20
0.0
 30
0.0
  9
$PUCSBASE
  2

  9
$PUCSNAME
  2

  9
$PUCSORG
 10
0.0
 20
0.0
 30
0.0
  9
$PUCSXDIR
 10
1.0
 20
0.0
 30
0.0
  9
$PUCSYDIR
 10
0.0
 20
1.0
 30
0.0
  9
$PUCSORTHOREF
  2

  9
$PUCSORTHOVIEW
 70
     0
  9
$PUCSORGTOP
 10
0.0
 20
0.0
 30
0.0
  9
$PUCSORGBOTTOM
 10
0.0
 20
0.0
 30
0.0
  9
$PUCSORGLEFT
 10
0.0
 20
0.0
 30
0.0
  9
$PUCSORGRIGHT
 10
0.0
 20
0.0
 30
0.0
  9
$PUCSORGFRONT
 10
0.0
 20
0.0
 30
0.0
  9
$PUCSORGBACK
 10
0.0
 20
0.0
 30
0.0
  9
$USERI1
 70
     0
  9
$USERI2
 70
     0
  9
$USERI3
 70
     0
  9
$USERI4
 70
     0
  9
$USERI5
 70
     0
  9
$USERR1
 40
0.0
  9
$USERR2
 40
0.0
  9
$USERR3
 40
0.0
  9
$USERR4
 40
0.0
  9
$USERR5
 40
0.0
  9
$WORLDVIEW
 70
     1
  9
$SHADEDGE
 70
     3
  9
$SHADEDIF
 70
    70
  9
$TILEMODE
 70
     1
  9
$MAXACTVP
 70
    64
  9
$PINSBASE
 10
0.0
 20
0.0
 30
0.0
  9
$PLIMCHECK
 70
     0
  9
$PEXTMIN
 10
1.000000000000000E+20
 20
1.000000000000000E+20
 30
1.000000000000000E+20
  9
$PEXTMAX
 10
-1.000000000000000E+20
 20
-1.000000000000000E+20
 30
-1.000000000000000E+20
  9
$PLIMMIN
 10
0.0
 20
0.0
  9
$PLIMMAX
 10
420.0
 20
297.0
  9
$UNITMODE
 70
     0
  9
$VISRETAIN
 70
     1
  9
$PLINEGEN
 70
     0
  9
$PSLTSCALE
 70
     1
  9
$TREEDEPTH
 70
  3020
  9
$CMLSTYLE
  2
Standard
  9
$CMLJUST
 70
     0
  9
$CMLSCALE
 40
20.0
  9
$PROXYGRAPHICS
 70
     1
  9
$MEASUREMENT
 70
     1
  9
$CELWEIGHT
370
    -1
  9
$ENDCAPS
280
     0
  9
$JOINSTYLE
280
     0
  9
$LWDISPLAY
290
     0
  9
$INSUNITS
 70
     4
  9
$HYPERLINKBASE
  1

  9
$STYLESHEET
  1
彩色出圖.ctb
  9
$XEDIT
290
     1
  9
$CEPSNTYPE
380
     0
  9
$PSTYLEMODE
290
     1
  9
$FINGERPRINTGUID
  2
{0D855794-04CD-42EC-BA89-F7EABE2626E6}
  9
$VERSIONGUID
  2
{D951FCAF-925C-4FBE-880F-1102FA53E6CE}
  9
$EXTNAMES
290
     1
  9
$PSVPSCALE
 40
0.0
  9
$OLESTARTUP
290
     0
  0
ENDSEC
  0
SECTION
  2
CLASSES
  0
CLASS
  1
ACDBDICTIONARYWDFLT
  2
AcDbDictionaryWithDefault
  3
ObjectDBX Classes
 90
        0
280
     0
281
     0
  0
CLASS
  1
ACDBPLACEHOLDER
  2
AcDbPlaceHolder
  3
ObjectDBX Classes
 90
        0
280
     0
281
     0
  0
CLASS
  1
LAYOUT
  2
AcDbLayout
  3
ObjectDBX Classes
 90
        0
280
     0
281
     0
  0
CLASS
  1
ACME_DOCUMENT
  2
AcMeDbDoc
  3
AcMeServices
 90
        0
280
     0
281
     0
  0
CLASS
  1
AMGSETTINGSOBJ
  2
AmgSettingsObj
  3
"AcadM|Product Description: AutoCAD Mechanical 2000|Company: Autodesk"
 90
        0
280
     0
281
     0
  0
CLASS
  1
ACMESCOPE
  2
AcMeScope
  3
AcMeServices
 90
        0
280
     0
281
     0
  0
CLASS
  1
ACMECOMMANDHISTORY
  2
AcMeCommandHistory
  3
AcMeServices
 90
        0
280
     0
281
     0
  0
CLASS
  1
ACIMSYSVARMAN
  2
AcImSysVarManager
  3
AcMeServices
 90
        0
280
     0
281
     0
  0
CLASS
  1
ACIMREALSYSVAR
  2
AcImRealSysVar
  3
AcMeServices
 90
        0
280
     0
281
     0
  0
CLASS
  1
ACIMINTSYSVAR
  2
AcImIntSysVar
  3
AcMeServices
 90
        0
280
     0
281
     0
  0
CLASS
  1
ACMEDRAWINGMAN
  2
AcMeDrawingMan
  3
AcMeServices
 90
        0
280
     0
281
     0
  0
CLASS
  1
ACMEVIEW
  2
AcMeView
  3
AcMeServices
 90
        0
280
     0
281
     0
  0
CLASS
  1
ACDBENTITYCACHE
  2
AcMeEntityCache
  3
AcMeServices
 90
        0
280
     0
281
     0
  0
CLASS
  1
GSMANAGER
  2
AcMeGSManager
  3
AcMeServices
 90
        0
280
     0
281
     0
  0
CLASS
  1
AMDTINTERNALREACTOR
  2
AmdtInternalReactor
  3
AcMeServices
 90
        0
280
     0
281
     0
  0
CLASS
  1
ACMESTATEMGR
  2
AcMeStateMgr
  3
AcMeServices
 90
        0
280
     0
281
     0
  0
CLASS
  1
ACGREFMASTER
  2
AcGrefMaster
  3
AcAttribServices
 90
        0
280
     0
281
     0
  0
CLASS
  1
ACME_DATABASE
  2
AcMeDbDatabase
  3
AcMeServices
 90
        0
280
     0
281
     0
  0
CLASS
  1
ACRFINSADJUSTERMGR
  2
AcRfInsAdjusterMgr
  3
AcMeServices
 90
        0
280
     0
281
     0
  0
CLASS
  1
ACGREFACADMASTER
  2
AcGrefacadMaster
  3
AcGrefServices
 90
        0
280
     0
281
     0
  0
CLASS
  1
AMIMASTER
  2
AmiMaster
  3
AmiServices
 90
        0
280
     0
281
     0
  0
CLASS
  1
ACMDATADICTIONARY
  2
AcmDataDictionary
  3
"AcmSymBB|Product Description: AutoCAD Mechanical 2004 DX|Company: Autodesk"
 90
        0
280
     0
281
     0
  0
CLASS
  1
ACMDATAENTRYBLOCK
  2
AcmDataEntryBlock
  3
"AcmSymBB|Product Description: AutoCAD Mechanical 2004 DX|Company: Autodesk"
 90
        0
280
     0
281
     0
  0
CLASS
  1
ACIMSTRSYSVAR
  2
AcImStrSysVar
  3
AcMeServices
 90
        0
280
     0
281
     0
  0
CLASS
  1
ACMSTANDARDISO
  2
AcmStandardISO
  3
"Amdt_StdImp|Product Description: AutoCAD Mechanical 2004 DX|Company: Autodesk"
 90
        0
280
     0
281
     0
  0
CLASS
  1
AMGOBJPROPCFG
  2
AmgObjPropCfg
  3
"AmgLay|Product Description: AutoCAD Mechanical 2000|Company: Autodesk"
 90
        1
280
     0
281
     0
  0
CLASS
  1
AMDTEDGESTANDARDISO
  2
AmdtEdgeStdISO
  3
"Amdt_StdImp|Product Description: AutoCAD Mechanical 2004 DX|Company: Autodesk"
 90
        0
280
     0
281
     0
  0
CLASS
  1
ACMSURFSTANDARDISO
  2
AcmSurfTextStdISO
  3
"Amdt_StdImp|Product Description: AutoCAD Mechanical 2004 DX|Company: Autodesk"
 90
        0
280
     0
281
     0
  0
CLASS
  1
ACMFCFSTANDARDISO
  2
AcmFCFStdISO
  3
"Amdt_StdImp|Product Description: AutoCAD Mechanical 2004 DX|Company: Autodesk"
 90
        0
280
     0
281
     0
  0
CLASS
  1
ACMWELDSTANDARDISO
  2
AcmWeldingStdISO
  3
"Amdt_StdImp|Product Description: AutoCAD Mechanical 2004 DX|Company: Autodesk"
 90
        0
280
     0
281
     0
  0
CLASS
  1
ACMIDSTANDARDISO
  2
AcmIdStdISO
  3
"Amdt_StdImp|Product Description: AutoCAD Mechanical 2004 DX|Company: Autodesk"
 90
        0
280
     0
281
     0
  0
CLASS
  1
ACMDATUMSTANDARDISO
  2
AcmDatumStdISO
  3
"Amdt_StdImp|Product Description: AutoCAD Mechanical 2004 DX|Company: Autodesk"
 90
        0
280
     0
281
     0
  0
CLASS
  1
ACMBOMSTANDARDISO
  2
AcmBOMStdISO
  3
"Amdt_StdImp|Product Description: AutoCAD Mechanical 2004 DX|Company: Autodesk"
 90
        0
280
     0
281
     0
  0
CLASS
  1
ACMDETAILSTANDARDISO
  2
AmdtDetailSymStdISO
  3
"Amdt_StdImp|Product Description: AutoCAD Mechanical 2004 DX|Company: Autodesk"
 90
        0
280
     0
281
     0
  0
CLASS
  1
ACMSECTIONSTANDARDISO
  2
AmdtSectionSymStdISO
  3
"Amdt_StdImp|Product Description: AutoCAD Mechanical 2004 DX|Company: Autodesk"
 90
        0
280
     0
281
     0
  0
CLASS
  1
ACMCENTERLINESTANDARDISO
  2
AmdtCenterLineStdISO
  3
"Amdt_StdImp|Product Description: AutoCAD Mechanical 2004 DX|Company: Autodesk"
 90
        0
280
     0
281
     0
  0
CLASS
  1
ACMNOTESTANDARDISO
  2
AmdtNoteStdISO
  3
"Amdt_StdImp|Product Description: AutoCAD Mechanical 2004 DX|Company: Autodesk"
 90
        0
280
     0
281
     0
  0
CLASS
  1
ACAMGLAYSTD
  2
AcAmgLayStd
  3
"AcAmgLayStd|Product Description: AutoCAD Mechanical 2000|Company: Autodesk"
 90
        0
280
     0
281
     0
  0
CLASS
  1
ACAMGDIMSTD
  2
AcAmgDimStd
  3
"AcAmgDimStd|Product Description: AutoCAD Mechanical 2000|Company: Autodesk"
 90
        0
280
     0
281
     0
  0
CLASS
  1
ACAMGHOLECHARTSTDISO
  2
AcAmgHoleChartStdISO
  3
ACMSYMBB_MODULE_NAME
 90
        0
280
     0
281
     0
  0
CLASS
  1
ACAMGTITLESTD
  2
AcAmgTitleStd
  3
"TITLEAPP"
 90
        0
280
     0
281
     0
  0
CLASS
  1
LAYER_INDEX
  2
AcDbLayerIndex
  3
ObjectDBX Classes
 90
    32768
280
     0
281
     0
  0
CLASS
  1
IDBUFFER
  2
AcDbIdBuffer
  3
ObjectDBX Classes
 90
    32768
280
     0
281
     0
  0
CLASS
  1
DICTIONARYVAR
  2
AcDbDictionaryVar
  3
ObjectDBX Classes
 90
        0
280
     0
281
     0
  0
CLASS
  1
AM_DRAWING_MGR
  2
AcDmDwgMgr
  3
AcMechDwgViewMgmt
 90
        0
280
     0
281
     0
  0
CLASS
  1
AM_DWG_DOCUMENT
  2
AcDmDwgDocument
  3
AcMechDwgViewMgmt
 90
        0
280
     0
281
     0
  0
CLASS
  1
AM_DWG_SHEET
  2
AcDmSheet
  3
AcMechDwgViewMgmt
 90
        0
280
     0
281
     0
  0
CLASS
  1
AM_VIEWDIMPARMAP
  2
AcDmViewDimParMap
  3
AcMechDwgViewMgmt
 90
        0
280
     0
281
     0
  0
CLASS
  1
AM_DWGMGR_NAME
  2
AcDmDwgMgrName
  3
AcMechDwgViewMgmt
 90
        0
280
     0
281
     0
  0
CLASS
  1
AMDTMENUSTATEMGR
  2
AmdtMenuStateMgr
  3
McadcomServices
 90
        0
280
     0
281
     0
  0
CLASS
  1
AMDTMCOMMENUSTATE
  2
AmdtMcomMenuState
  3
McadcomServices
 90
        0
280
     0
281
     0
  0
CLASS
  1
MAPIAMMOUDLE
  2
MApiAmModule
  3
MApiAmServices
 90
        0
280
     0
281
     0
  0
CLASS
  1
AMDTADMENUSTATE
  2
AmdtAdMenuState
  3
DesignerServices
 90
        0
280
     0
281
     0
  0
CLASS
  1
ADAPPL
  2
AcAdAppl
  3
DesignerServices
 90
        0
280
     0
281
     0
  0
CLASS
  1
DEPMGR
  2
AcAdDepMgr
  3
DesignerServices
 90
        0
280
     0
281
     0
  0
CLASS
  1
PARAMMGR
  2
AcAdParamMgr
  3
DesignerServices
 90
        0
280
     0
281
     0
  0
CLASS
  1
PARAMSCOPE
  2
AcAdParamScope
  3
DesignerServices
 90
        0
280
     0
281
     0
  0
CLASS
  1
NAMEDAPPL
  2
AcAdNamedAppl
  3
DesignerServices
 90
        0
280
     0
281
     0
  0
CLASS
  1
AMDTDMMENUSTATE
  2
AmdtDmMenuState
  3
AcMechDwgViewMgmt
 90
        0
280
     0
281
     0
  0
CLASS
  1
AMDTAMMENUSTATE
  2
AmdtAmMenuState
  3
DesignerAssemblies
 90
        0
280
     0
281
     0
  0
CLASS
  1
ACAMPROJECT
  2
AcAmProject
  3
DesignerAssemblies
 90
        0
280
     0
281
     0
  0
CLASS
  1
ACAMGRCOMPDEF
  2
AcAmGrCompDef
  3
DesignerAssemblies
 90
        0
280
     0
281
     0
  0
CLASS
  1
ACCMCONTEXT
  2
AcCmContext
  3
DesignerAssemblies
 90
        0
280
     0
281
     0
  0
CLASS
  1
ACAMCOMPDEF
  2
AcAmCompDef
  3
DesignerAssemblies
 90
        0
280
     0
281
     0
  0
CLASS
  1
ACAMCOMPDEFMGR
  2
AcAmCompDefMgr
  3
DesignerAssemblies
 90
        0
280
     0
281
     0
  0
CLASS
  1
AMCONTEXTMGR
  2
AcAmContextMgr
  3
DesignerAssemblies
 90
        0
280
     0
281
     0
  0
CLASS
  1
ACAMCONTEXTMODELER
  2
AcAmContextModeler
  3
DesignerAssemblies
 90
        0
280
     0
281
     0
  0
CLASS
  1
ACMTHREADLINESTANDARDISO
  2
AmdtThreadLineStdISO
  3
"Amdt_StdImp|Product Description: AutoCAD Mechanical 2004 DX|Company: Autodesk"
 90
        0
280
     0
281
     0
  0
CLASS
  1
CATALOGSTATE
  2
AcAmCatalogState
  3
DesignerAssemblies
 90
        0
280
     0
281
     0
  0
CLASS
  1
ACAMGRCOMPDEFSET
  2
AcAmGrCompDefSet
  3
DesignerAssemblies
 90
        0
280
     0
281
     0
  0
CLASS
  1
AMDTBROWSERDBTAB
  2
AmdtBrowserDbTab
  3
McadcomServices
 90
        0
280
     0
281
     0
  0
CLASS
  1
CBROWSERAPPOBJECT
  2
CBrowserAppObject
  3
McadcomServices
 90
        0
280
     0
281
     0
  0
CLASS
  1
DM_PLACEHOLDER
  2
AcDmSelsetPlaceholder
  3
AcMechDwgViewMgmt
 90
        0
280
     0
281
     0
  0
CLASS
  1
TABLESTYLE
  2
AcDbTableStyle
  3
ObjectDBX Classes
 90
     2047
280
     0
281
     0
  0
CLASS
  1
VAACXREFPANELOBJECT
  2
VaAcXREFPanelObject
  3
VAAC_ADDIN
 90
    32768
280
     0
281
     0
  0
CLASS
  1
VAACIMAGEINVENTORY
  2
VaAcImageInventory
  3
VAAC_ADDIN
 90
    32768
280
     0
281
     0
  0
CLASS
  1
AMDTNOTETEMPLATEDB
  2
AmdtNoteTemplateDB
  3
AMDT_STDIMP_MODULE_NAME
 90
        0
280
     0
281
     0
  0
CLASS
  1
ACMBOM
  2
AcmBom
  3
"AcmSymBB|Product Description: AutoCAD Mechanical 2004 DX|Company: Autodesk"
 90
    32768
280
     0
281
     0
  0
CLASS
  1
AMDTFORMULAUPDATEDISPATCHER
  2
AmdtFormulaUpdateDispatcher
  3
AcMeServices
 90
    32768
280
     0
281
     0
  0
CLASS
  1
ACMPARTLIST
  2
AcmPartList
  3
"AcmSymBB|Product Description: AutoCAD Mechanical 2004 DX|Company: Autodesk"
 90
    33791
280
     0
281
     1
  0
CLASS
  1
ACAMGFILTERDAT
  2
AcAmgFilterDat
  3
"AcadM|Product Description: AutoCAD Mechanical 2000|Company: Autodesk"
 90
        0
280
     0
281
     0
  0
CLASS
  1
DIMASSOC
  2
AcDbDimAssoc
  3
"AcDbDimAssoc|Product Desc:     AcDim ARX App For Dimension|Company:          Autodesk, Inc.|WEB Address:      www.autodesk.com"
 90
    32768
280
     0
281
     0
  0
CLASS
  1
ACMSTANDARDANSI
  2
AcmStandardANSI
  3
"Amdt_StdImp|Product Description: AutoCAD Mechanical 2004 DX|Company: Autodesk"
 90
        0
280
     0
281
     0
  0
CLASS
  1
ACMSURFSTANDARDANSI
  2
AcmSurfTextStdANSI
  3
"Amdt_StdImp|Product Description: AutoCAD Mechanical 2004 DX|Company: Autodesk"
 90
        0
280
     0
281
     0
  0
CLASS
  1
ACMFCFSTANDARDANSI
  2
AcmFCFStdANSI
  3
"Amdt_StdImp|Product Description: AutoCAD Mechanical 2004 DX|Company: Autodesk"
 90
        0
280
     0
281
     0
  0
CLASS
  1
ACMWELDSTANDARDANSI
  2
AcmWeldingStdANSI
  3
"Amdt_StdImp|Product Description: AutoCAD Mechanical 2004 DX|Company: Autodesk"
 90
        0
280
     0
281
     0
  0
CLASS
  1
ACMIDSTANDARDANSI
  2
AcmIdStdANSI
  3
"Amdt_StdImp|Product Description: AutoCAD Mechanical 2004 DX|Company: Autodesk"
 90
        0
280
     0
281
     0
  0
CLASS
  1
ACMDATUMSTANDARDANSI
  2
AcmDatumStdANSI
  3
"Amdt_StdImp|Product Description: AutoCAD Mechanical 2004 DX|Company: Autodesk"
 90
        0
280
     0
281
     0
  0
CLASS
  1
ACMBOMSTANDARDANSI
  2
AcmBOMStdANSI
  3
"Amdt_StdImp|Product Description: AutoCAD Mechanical 2004 DX|Company: Autodesk"
 90
        0
280
     0
281
     0
  0
CLASS
  1
ACMDETAILSTANDARDANSI
  2
AmdtDetailSymStdANSI
  3
"Amdt_StdImp|Product Description: AutoCAD Mechanical 2004 DX|Company: Autodesk"
 90
        0
280
     0
281
     0
  0
CLASS
  1
ACMSECTIONSTANDARDANSI
  2
AmdtSectionSymStdANSI
  3
"Amdt_StdImp|Product Description: AutoCAD Mechanical 2004 DX|Company: Autodesk"
 90
        0
280
     0
281
     0
  0
CLASS
  1
ACMCENTERLINESTANDARDANSI
  2
AmdtCenterLineStdANSI
  3
"Amdt_StdImp|Product Description: AutoCAD Mechanical 2004 DX|Company: Autodesk"
 90
        0
280
     0
281
     0
  0
CLASS
  1
ACMTHREADLINESTANDARDANSI
  2
AmdtThreadLineStdANSI
  3
"Amdt_StdImp|Product Description: AutoCAD Mechanical 2004 DX|Company: Autodesk"
 90
        0
280
     0
281
     0
  0
CLASS
  1
ACMNOTESTANDARDANSI
  2
AmdtNoteStdANSI
  3
"Amdt_StdImp|Product Description: AutoCAD Mechanical 2004 DX|Company: Autodesk"
 90
        0
280
     0
281
     0
  0
CLASS
  1
ACAMGHOLECHARTSTDANSI
  2
AcAmgHoleChartStdANSI
  3
ACMSYMBB_MODULE_NAME
 90
        0
280
     0
281
     0
  0
CLASS
  1
SORTENTSTABLE
  2
AcDbSortentsTable
  3
ObjectDBX Classes
 90
        0
280
     0
281
     0
  0
CLASS
  1
ACRFATTGENMGR
  2
AcRfAttGeneralMgr
  3
AcAttribServices
 90
        0
280
     0
281
     0
  0
ENDSEC
  0
SECTION
  2
TABLES
  0
TABLE
  2
VPORT
  5
8
330
0
100
AcDbSymbolTable
 70
     3
  0
VPORT
  5
2576
330
8
100
AcDbSymbolTableRecord
100
AcDbViewportTableRecord
  2
*Active
 70
     0
 10
0.0
 20
0.0
 11
1.0
 21
1.0
 12
2482.741738215004
 22
425.1294106330131
 13
0.0
 23
0.0
 14
2.5
 24
2.5
 15
10.0
 25
10.0
 16
0.0
 26
0.0
 36
1.0
 17
0.0
 27
0.0
 37
0.0
 40
809.8765579504931
 41
1.81766917293233
 42
50.0
 43
0.0
 44
0.0
 50
0.0
 51
0.0
 71
     0
 72
   100
 73
     1
 74
     3
 75
     0
 76
     0
 77
     0
 78
     0
281
     0
 65
     1
110
0.0
120
0.0
130
0.0
111
1.0
121
0.0
131
0.0
112
0.0
122
1.0
132
0.0
 79
     0
146
0.0
  0
ENDTAB
  0
TABLE
  2
LTYPE
  5
5
330
0
100
AcDbSymbolTable
 70
    16
  0
LTYPE
  5
14
330
5
100
AcDbSymbolTableRecord
100
AcDbLinetypeTableRecord
  2
ByBlock
 70
     0
  3

 72
    65
 73
     0
 40
0.0
  0
LTYPE
  5
15
330
5
100
AcDbSymbolTableRecord
100
AcDbLinetypeTableRecord
  2
ByLayer
 70
     0
  3

 72
    65
 73
     0
 40
0.0
  0
LTYPE
  5
16
330
5
100
AcDbSymbolTableRecord
100
AcDbLinetypeTableRecord
  2
Continuous
 70
     0
  3
Solid line
 72
    65
 73
     0
 40
0.0
  0
LTYPE
  5
64
330
5
100
AcDbSymbolTableRecord
100
AcDbLinetypeTableRecord
  2
AM_ISO02W050
 70
     0
  3
__ __ __ __ __ __ __ __ __ __ __ __ __ __ __
 72
    65
 73
     2
 40
7.5
 49
6.0
 74
     0
 49
-1.5
 74
     0
  0
LTYPE
  5
65
330
5
100
AcDbSymbolTableRecord
100
AcDbLinetypeTableRecord
  2
AM_ISO08W050
 70
     0
  3
____ . ____ . ____ . ____ . ____ . ____ . ____
 72
    65
 73
     4
 40
18.0
 49
12.0
 74
     0
 49
-1.5
 74
     0
 49
3.0
 74
     0
 49
-1.5
 74
     0
  0
LTYPE
  5
66
330
5
100
AcDbSymbolTableRecord
100
AcDbLinetypeTableRecord
  2
AM_ISO09W050
 70
     0
  3
_____ . . _____ . . _____ . . ____ .. ____
 72
    65
 73
     6
 40
22.5
 49
12.0
 74
     0
 49
-1.5
 74
     0
 49
3.0
 74
     0
 49
-1.5
 74
     0
 49
3.0
 74
     0
 49
-1.5
 74
     0
  0
LTYPE
  5
67
330
5
100
AcDbSymbolTableRecord
100
AcDbLinetypeTableRecord
  2
Amconstr
 70
     0
  3
_______________________
 72
    65
 73
     2
 40
9999.0
 49
9999.0
 74
     0
 49
0.0
 74
     0
  0
LTYPE
  5
68
330
5
100
AcDbSymbolTableRecord
100
AcDbLinetypeTableRecord
  2
AM_ISO08W050x2
 70
     0
  3
__ . __ . __ . __ . __ . __
 72
    65
 73
     4
 40
9.0
 49
6.0
 74
     0
 49
-0.75
 74
     0
 49
1.5
 74
     0
 49
-0.75
 74
     0
  0
LTYPE
  5
69
330
5
100
AcDbSymbolTableRecord
100
AcDbLinetypeTableRecord
  2
AM_ISO02W050x2
 70
     0
  3
 _ _ _ _ _ _ _ _ _ _ _ _
 72
    65
 73
     2
 40
3.75
 49
3.0
 74
     0
 49
-0.75
 74
     0
  0
LTYPE
  5
6C
330
5
100
AcDbSymbolTableRecord
100
AcDbLinetypeTableRecord
  2
Amzigzag
 70
     0
  3
/\/-/\/-/\/-/\/-/\/-/\/
 72
    65
 73
     2
 40
11.0001
 49
0.0001
 74
     4
 75
   135
340
6B
 46
0.04
 50
0.0
 44
0.0
 45
0.0
 49
-11.0
 74
     0
  0
LTYPE
  5
7A
330
5
100
AcDbSymbolTableRecord
100
AcDbLinetypeTableRecord
  2
ACISOWELD
 70
     0
  3
_ _ _ _ _
 72
    65
 73
     2
 40
2.0
 49
2.0
 74
     0
 49
-1.0
 74
     0
  0
LTYPE
  5
7B
330
5
100
AcDbSymbolTableRecord
100
AcDbLinetypeTableRecord
  2
ACISOTGB
 70
     0
  3
__ . . __ . .
 72
    65
 73
     6
 40
9.0
 49
4.0
 74
     0
 49
-1.0
 74
     0
 49
1.0
 74
     0
 49
-1.0
 74
     0
 49
1.0
 74
     0
 49
-1.0
 74
     0
  0
LTYPE
  5
7C
330
5
100
AcDbSymbolTableRecord
100
AcDbLinetypeTableRecord
  2
ACISOTGL
 70
     0
  3
_ _ _ _ _
 72
    65
 73
     2
 40
3.0
 49
2.0
 74
     0
 49
-1.0
 74
     0
  0
LTYPE
  5
7E
330
5
100
AcDbSymbolTableRecord
100
AcDbLinetypeTableRecord
  2
CENTER
 70
     0
  3
__ . __
 72
    65
 73
     4
 40
7.0
 49
4.0
 74
     0
 49
-1.0
 74
     0
 49
1.0
 74
     0
 49
-1.0
 74
     0
  0
LTYPE
  5
D8
330
5
100
AcDbSymbolTableRecord
100
AcDbLinetypeTableRecord
  2
HIDDEN
 70
     0
  3
Hidden __ __ __ __ __ __ __ __ __ __ __ __ __ _
 72
    65
 73
     2
 40
9.524999999999998
 49
6.349999999999999
 74
     0
 49
-3.174999999999999
 74
     0
  0
LTYPE
  5
D9
330
5
100
AcDbSymbolTableRecord
100
AcDbLinetypeTableRecord
  2
PHANTOM2
 70
     0
  3
Phantom (.5x) ___ _ _ ___ _ _ ___ _ _ ___ _ _
 72
    65
 73
     6
 40
31.75
 49
15.875
 74
     0
 49
-3.174999999999999
 74
     0
 49
3.174999999999999
 74
     0
 49
-3.174999999999999
 74
     0
 49
3.174999999999999
 74
     0
 49
-3.174999999999999
 74
     0
  0
LTYPE
  5
7F5
330
5
100
AcDbSymbolTableRecord
100
AcDbLinetypeTableRecord
  2
ACANSTGB
 70
     0
  3
__ . . __ . .
 72
    65
 73
     6
 40
0.35433070866
 49
0.15748031496
 74
     0
 49
-0.03937007874
 74
     0
 49
0.03937007874
 74
     0
 49
-0.03937007874
 74
     0
 49
0.03937007874
 74
     0
 49
-0.03937007874
 74
     0
  0
LTYPE
  5
7F6
330
5
100
AcDbSymbolTableRecord
100
AcDbLinetypeTableRecord
  2
ACANSTGL
 70
     0
  3
_ _ _ _ _
 72
    65
 73
     2
 40
0.11811023622
 49
0.07874015748
 74
     0
 49
-0.03937007874
 74
     0
  0
ENDTAB
  0
TABLE
  2
LAYER
  5
2
102
{ACAD_XDICTIONARY
360
3F9
102
}
330
0
100
AcDbSymbolTable
 70
     5
  0
LAYER
  5
10
330
2
100
AcDbSymbolTableRecord
100
AcDbLayerTableRecord
  2
0
 70
     0
 62
     7
  6
Continuous
370
    -3
390
F
  0
LAYER
  5
8B2
330
2
100
AcDbSymbolTableRecord
100
AcDbLayerTableRecord
  2
AM_7
 70
     0
 62
     1
  6
CENTER
370
    25
390
F
  0
LAYER
  5
1083
330
2
100
AcDbSymbolTableRecord
100
AcDbLayerTableRecord
  2
AM_5
 70
     0
 62
     5
  6
Continuous
370
    50
390
F
  0
LAYER
  5
1093
330
2
100
AcDbSymbolTableRecord
100
AcDbLayerTableRecord
  2
Defpoints
 70
     0
 62
     7
  6
Continuous
290
     0
370
    -3
390
F
  0
LAYER
  5
1560
330
2
100
AcDbSymbolTableRecord
100
AcDbLayerTableRecord
  2
LOGO
 70
     0
 62
     7
  6
Continuous
370
    -3
390
F
  0
ENDTAB
  0
TABLE
  2
STYLE
  5
3
330
0
100
AcDbSymbolTable
 70
     8
  0
STYLE
  5
11
330
3
100
AcDbSymbolTableRecord
100
AcDbTextStyleTableRecord
  2
STANDARD
 70
     0
 40
0.0
 41
1.0
 50
0.0
 71
     0
 42
3.0
  3
ISOCP.SHX
  4
CHINESET.SHX
  0
STYLE
  5
6B
330
3
100
AcDbSymbolTableRecord
100
AcDbTextStyleTableRecord
  2

 70
     1
 40
0.0
 41
1.0
 50
0.0
 71
     0
 42
2.5
  3
ltypeshp.shx
  4

  0
STYLE
  5
6D
330
3
100
AcDbSymbolTableRecord
100
AcDbTextStyleTableRecord
  2
ACISOTS
 70
     0
 40
1.0
 41
1.0
 50
0.0
 71
     0
 42
1.0
  3
isocp.shx
  4
chineset.shx
  0
STYLE
  5
79
330
3
100
AcDbSymbolTableRecord
100
AcDbTextStyleTableRecord
  2
ACISOGDT
 70
     0
 40
0.0
 41
1.0
 50
0.0
 71
     0
 42
2.5
  3
amgdt.shx
  4
chineset.shx
  0
STYLE
  5
60C
330
3
100
AcDbSymbolTableRecord
100
AcDbTextStyleTableRecord
  2
CHINESET
 70
     0
 40
0.0
 41
0.75
 50
0.0
 71
     0
 42
3.0
  3
simplex.shx
  4
CHINESET.SHX
  0
STYLE
  5
7F9
330
3
100
AcDbSymbolTableRecord
100
AcDbTextStyleTableRecord
  2
ACANSTS
 70
     0
 40
1.0
 41
1.0
 50
0.0
 71
     0
 42
5.84703234913793
  3
romans.shx
  4
chineset.shx
  0
STYLE
  5
7FA
330
3
100
AcDbSymbolTableRecord
100
AcDbTextStyleTableRecord
  2
ACANSGDT
 70
     0
 40
0.0
 41
1.0
 50
0.0
 71
     0
 42
5.84703234913793
  3
amgdtans.shx
  4

  0
ENDTAB
  0
TABLE
  2
VIEW
  5
6
330
0
100
AcDbSymbolTable
 70
     0
  0
ENDTAB
  0
TABLE
  2
UCS
  5
7
330
0
100
AcDbSymbolTable
 70
     0
  0
ENDTAB
  0
TABLE
  2
APPID
  5
9
330
0
100
AcDbSymbolTable
 70
    19
  0
APPID
  5
12
330
9
100
AcDbSymbolTableRecord
100
AcDbRegAppTableRecord
  2
ACAD
 70
     0
  0
APPID
  5
46
330
9
100
AcDbSymbolTableRecord
100
AcDbRegAppTableRecord
  2
MCAD_NO_VIS
 70
     0
  0
APPID
  5
47
330
9
100
AcDbSymbolTableRecord
100
AcDbRegAppTableRecord
  2
ACAD_TEMP_GRAPHIC
 70
     0
  0
APPID
  5
58
330
9
100
AcDbSymbolTableRecord
100
AcDbRegAppTableRecord
  2
ACATTRIBSERVICES
 70
     0
  0
APPID
  5
EE
330
9
100
AcDbSymbolTableRecord
100
AcDbRegAppTableRecord
  2
AD_DRAW
 70
     0
  0
APPID
  5
10C
330
9
100
AcDbSymbolTableRecord
100
AcDbRegAppTableRecord
  2
DESIGNERASSEMBLIES
 70
     0
  0
APPID
  5
111
330
9
100
AcDbSymbolTableRecord
100
AcDbRegAppTableRecord
  2
ACADM_DIM_EDIT
 70
     0
  0
APPID
  5
112
330
9
100
AcDbSymbolTableRecord
100
AcDbRegAppTableRecord
  2
AMDT_DM_ADJ
 70
     0
  0
APPID
  5
22C
330
9
100
AcDbSymbolTableRecord
100
AcDbRegAppTableRecord
  2
ACAD_DSTYLE_DIMTEXT_FILL
 70
     0
  0
APPID
  5
452
330
9
100
AcDbSymbolTableRecord
100
AcDbRegAppTableRecord
  2
GENIUS_GENOENT_13
 70
     0
  0
APPID
  5
453
330
9
100
AcDbSymbolTableRecord
100
AcDbRegAppTableRecord
  2
GENIUS_GENOBJ-N-CRS_13
 70
     0
  0
APPID
  5
454
330
9
100
AcDbSymbolTableRecord
100
AcDbRegAppTableRecord
  2
GENIUS_GENOLIS_13
 70
     0
  0
APPID
  5
455
330
9
100
AcDbSymbolTableRecord
100
AcDbRegAppTableRecord
  2
GENIUS_GENODEF_13
 70
     0
  0
APPID
  5
456
330
9
100
AcDbSymbolTableRecord
100
AcDbRegAppTableRecord
  2
GENIUS_GENOREF_13
 70
     0
  0
APPID
  5
6F3
330
9
100
AcDbSymbolTableRecord
100
AcDbRegAppTableRecord
  2
ACAD_PSEXT
 70
     0
  0
APPID
  5
8B4
330
9
100
AcDbSymbolTableRecord
100
AcDbRegAppTableRecord
  2
GENIUS_GENOBJ-N-CEN_13
 70
     0
  0
APPID
  5
8B5
330
9
100
AcDbSymbolTableRecord
100
AcDbRegAppTableRecord
  2
GENIUS_GENCEN_19
 70
     0
  0
APPID
  5
1561
330
9
100
AcDbSymbolTableRecord
100
AcDbRegAppTableRecord
  2
GENIUS_GENREC_14
 70
     0
  0
APPID
  5
1562
330
9
100
AcDbSymbolTableRecord
100
AcDbRegAppTableRecord
  2
GENIUS_GENOBJ-N-REC_13
 70
     0
  0
ENDTAB
  0
TABLE
  2
DIMSTYLE
  5
A
330
0
100
AcDbSymbolTable
 70
    15
100
AcDbDimStyleTable
 71
     3
340
81
340
8B
340
86
  0
DIMSTYLE
105
81
330
A
100
AcDbSymbolTableRecord
100
AcDbDimStyleTableRecord
  2
AM_ISO
 70
     0
  4
"
 41
3.0
 42
1.0
 43
10.0
 44
1.5
 47
0.1
 48
0.1
 73
     0
 74
     0
 77
     1
 78
     8
 79
     2
140
3.0
141
0.0
143
0.0393701
146
0.71
147
1.0
172
     1
176
   256
177
   256
178
   256
271
     2
272
     2
283
     0
284
     8
340
60C
371
    -1
372
    -1
  0
DIMSTYLE
105
82
330
A
100
AcDbSymbolTableRecord
100
AcDbDimStyleTableRecord
  2
AM_ISO$3
 70
     0
  4
"
 41
3.0
 42
1.0
 43
10.0
 44
1.5
 47
0.1
 48
0.1
 73
     0
 77
     1
 78
     8
 79
     2
140
3.0
141
0.0
143
0.0393701
146
0.71
147
1.0
176
   256
177
   256
178
   256
271
     2
272
     2
283
     0
284
     8
288
     1
289
     0
340
60C
371
    -1
372
    -1
  0
DIMSTYLE
105
83
330
A
100
AcDbSymbolTableRecord
100
AcDbDimStyleTableRecord
  2
AM_ISO$4
 70
     0
  4
"
 41
3.0
 42
1.0
 43
10.0
 44
1.5
 47
0.1
 48
0.1
 73
     0
 77
     1
 78
     8
 79
     2
140
3.0
141
0.0
143
0.0393701
146
0.71
147
1.0
176
   256
177
   256
178
   256
271
     2
272
     2
283
     0
284
     8
288
     1
289
     0
340
60C
371
    -1
372
    -1
  0
DIMSTYLE
105
84
330
A
100
AcDbSymbolTableRecord
100
AcDbDimStyleTableRecord
  2
AM_ISO$6
 70
     0
  4
"
 41
3.0
 42
1.0
 43
10.0
 44
1.5
 47
0.1
 48
0.1
 73
     0
 74
     0
 78
     8
 79
     2
140
3.0
141
0.0
143
0.0393701
146
0.71
147
1.0
172
     1
176
   256
177
   256
178
   256
271
     2
272
     2
283
     0
284
     8
340
60C
371
    -1
372
    -1
  0
DIMSTYLE
105
85
330
A
100
AcDbSymbolTableRecord
100
AcDbDimStyleTableRecord
  2
AM_ISO$7
 70
     0
  4
"
 41
3.0
 42
1.0
 43
10.0
 44
1.5
 47
0.1
 48
0.1
 73
     0
 74
     0
 77
     1
 78
     8
 79
     2
140
5.0
141
0.0
143
0.0393701
146
0.71
147
1.0
172
     1
176
   256
177
   256
178
   256
271
     2
272
     2
283
     0
284
     8
340
60C
371
    -1
372
    -1
  0
DIMSTYLE
105
86
330
A
100
AcDbSymbolTableRecord
100
AcDbDimStyleTableRecord
  2
AM_ISO$SF
 70
     0
  4
"
 41
2.5
 42
1.0
 43
10.0
 44
1.0
 47
0.1
 48
0.1
 73
     0
 74
     0
 75
     1
 76
     1
 77
     1
 78
     8
 79
     2
140
3.5
141
0.0
143
0.0393701
146
0.71
147
1.5
172
     1
176
   256
177
   256
178
     2
271
     2
272
     3
274
     4
283
     0
284
     8
340
11
371
    -1
372
    -1
  0
DIMSTYLE
105
8B
330
A
100
AcDbSymbolTableRecord
100
AcDbDimStyleTableRecord
  2
AM_ISO$SH
 70
     0
  4
"
 41
2.5
 42
1.0
 43
10.0
 44
1.0
 47
0.1
 48
0.1
 73
     0
 74
     0
 75
     1
 76
     1
 77
     1
 78
     8
 79
     2
140
3.5
141
0.0
143
0.0393701
144
2.0
146
0.71
147
1.5
172
     1
173
     1
176
   256
177
   256
178
     2
271
     2
272
     3
274
     4
283
     0
284
     8
340
11
343
87
371
    -1
372
    -1
  0
DIMSTYLE
105
40B
102
{ACAD_REACTORS
330
1D10
330
1D13
330
1D16
330
1D67
330
1E56
330
1E57
330
1E58
330
1E59
330
21D9
330
21DA
330
21DB
330
21DC
330
2243
330
2244
330
2245
330
2246
330
2338
330
2339
330
233A
330
233B
330
24C7
330
24C8
330
24C9
330
24CA
102
}
330
A
100
AcDbSymbolTableRecord
100
AcDbDimStyleTableRecord
  2
AM_ISO$0
 70
     0
  4
"
 41
3.0
 42
1.0
 43
10.0
 44
1.5
 47
0.1
 48
0.1
 73
     0
 74
     0
 77
     1
 78
     8
 79
     2
140
3.0
141
0.0
143
0.0393701
146
0.71
147
1.0
172
     1
176
   256
177
   256
178
   256
271
     2
272
     2
283
     0
284
     8
340
60C
371
    -1
372
    -1
  0
DIMSTYLE
105
7FC
330
A
100
AcDbSymbolTableRecord
100
AcDbDimStyleTableRecord
  2
AM_ANSI
 70
     0
  4
mm
 41
0.1
 42
0.05
 43
0.5
 44
0.1
 47
0.1
 48
0.1
 78
     7
 79
     2
140
0.12
141
0.0
146
0.71
147
0.06
176
   256
177
   256
178
     2
274
     4
284
     7
340
11
371
    -1
372
    -1
  0
DIMSTYLE
105
7FD
330
A
100
AcDbSymbolTableRecord
100
AcDbDimStyleTableRecord
  2
AM_ANSI$3
 70
     0
  4
mm
 41
0.1
 42
0.05
 43
0.5
 44
0.1
 47
0.1
 48
0.1
 78
     7
 79
     2
140
0.12
141
0.0
146
0.71
147
0.06
176
   256
177
   256
178
     2
274
     4
284
     7
288
     1
289
     0
340
11
371
    -1
372
    -1
  0
DIMSTYLE
105
7FE
330
A
100
AcDbSymbolTableRecord
100
AcDbDimStyleTableRecord
  2
AM_ANSI$4
 70
     0
  4
mm
 41
0.1
 42
0.05
 43
0.5
 44
0.1
 47
0.1
 48
0.1
 78
     7
 79
     2
140
0.12
141
0.0
146
0.71
147
0.06
176
   256
177
   256
178
     2
274
     4
284
     7
288
     1
289
     0
340
11
371
    -1
372
    -1
  0
DIMSTYLE
105
7FF
330
A
100
AcDbSymbolTableRecord
100
AcDbDimStyleTableRecord
  2
AM_ANSI$7
 70
     0
  4
mm
 41
0.1
 42
0.05
 43
0.5
 44
0.1
 47
0.1
 48
0.1
 78
     7
 79
     2
140
0.24
141
0.0
146
0.71
147
0.06
176
   256
177
   256
178
     2
274
     4
284
     7
340
11
371
    -1
372
    -1
  0
DIMSTYLE
105
800
330
A
100
AcDbSymbolTableRecord
100
AcDbDimStyleTableRecord
  2
AM_ANSI$SF
 70
     0
  4
mm
 41
0.1
 42
0.05
 43
0.5
 44
0.1
 47
0.1
 48
0.1
 75
     1
 76
     1
 78
     7
 79
     2
140
0.12
141
0.0
146
0.71
147
0.06
176
   256
177
   256
178
     2
274
     4
284
     7
340
11
371
    -1
372
    -1
  0
DIMSTYLE
105
801
330
A
100
AcDbSymbolTableRecord
100
AcDbDimStyleTableRecord
  2
AM_ANSI$SH
 70
     0
  4
mm
 41
0.1
 42
0.05
 43
0.5
 44
0.1
 47
0.1
 48
0.1
 75
     1
 76
     1
 78
     7
 79
     2
140
0.12
141
0.0
146
0.71
147
0.06
173
     1
176
   256
177
   256
178
     2
274
     4
284
     7
340
11
343
87
371
    -1
372
    -1
  0
ENDTAB
  0
TABLE
  2
BLOCK_RECORD
  5
1
330
0
100
AcDbSymbolTable
 70
    29
  0
BLOCK_RECORD
  5
1F
102
{ACAD_XDICTIONARY
360
8F
102
}
330
1
100
AcDbSymbolTableRecord
100
AcDbBlockTableRecord
  2
*Model_Space
340
22
  0
BLOCK_RECORD
  5
1B
330
1
100
AcDbSymbolTableRecord
100
AcDbBlockTableRecord
  2
*Paper_Space
340
1E
  0
BLOCK_RECORD
  5
23
330
1
100
AcDbSymbolTableRecord
100
AcDbBlockTableRecord
  2
*Paper_Space0
340
26
  0
BLOCK_RECORD
  5
87
330
1
100
AcDbSymbolTableRecord
100
AcDbBlockTableRecord
  2
GENAXEH
340
0
  0
BLOCK_RECORD
  5
7DF
330
1
100
AcDbSymbolTableRecord
100
AcDbBlockTableRecord
  2
NUT
340
0
102
{BLKREFS
331
1CC7
331
1E07
102
}
  0
BLOCK_RECORD
  5
1D19
330
1
100
AcDbSymbolTableRecord
100
AcDbBlockTableRecord
  2
*D4
340
0
  0
BLOCK_RECORD
  5
1D25
330
1
100
AcDbSymbolTableRecord
100
AcDbBlockTableRecord
  2
*D5
340
0
  0
BLOCK_RECORD
  5
1D31
330
1
100
AcDbSymbolTableRecord
100
AcDbBlockTableRecord
  2
*D6
340
0
  0
BLOCK_RECORD
  5
1D68
330
1
100
AcDbSymbolTableRecord
100
AcDbBlockTableRecord
  2
*D7
340
0
  0
BLOCK_RECORD
  5
1E5A
330
1
100
AcDbSymbolTableRecord
100
AcDbBlockTableRecord
  2
*D8
340
0
  0
BLOCK_RECORD
  5
1E66
330
1
100
AcDbSymbolTableRecord
100
AcDbBlockTableRecord
  2
*D9
340
0
  0
BLOCK_RECORD
  5
1E72
330
1
100
AcDbSymbolTableRecord
100
AcDbBlockTableRecord
  2
*D10
340
0
  0
BLOCK_RECORD
  5
1E7E
330
1
100
AcDbSymbolTableRecord
100
AcDbBlockTableRecord
  2
*D11
340
0
  0
BLOCK_RECORD
  5
21DD
330
1
100
AcDbSymbolTableRecord
100
AcDbBlockTableRecord
  2
*D12
340
0
  0
BLOCK_RECORD
  5
21E9
330
1
100
AcDbSymbolTableRecord
100
AcDbBlockTableRecord
  2
*D13
340
0
  0
BLOCK_RECORD
  5
21F5
330
1
100
AcDbSymbolTableRecord
100
AcDbBlockTableRecord
  2
*D14
340
0
  0
BLOCK_RECORD
  5
2201
330
1
100
AcDbSymbolTableRecord
100
AcDbBlockTableRecord
  2
*D15
340
0
  0
BLOCK_RECORD
  5
2247
330
1
100
AcDbSymbolTableRecord
100
AcDbBlockTableRecord
  2
*D16
340
0
  0
BLOCK_RECORD
  5
2253
330
1
100
AcDbSymbolTableRecord
100
AcDbBlockTableRecord
  2
*D17
340
0
  0
BLOCK_RECORD
  5
225F
330
1
100
AcDbSymbolTableRecord
100
AcDbBlockTableRecord
  2
*D18
340
0
  0
BLOCK_RECORD
  5
226B
330
1
100
AcDbSymbolTableRecord
100
AcDbBlockTableRecord
  2
*D19
340
0
  0
BLOCK_RECORD
  5
233C
330
1
100
AcDbSymbolTableRecord
100
AcDbBlockTableRecord
  2
*D20
340
0
  0
BLOCK_RECORD
  5
2348
330
1
100
AcDbSymbolTableRecord
100
AcDbBlockTableRecord
  2
*D21
340
0
  0
BLOCK_RECORD
  5
2354
330
1
100
AcDbSymbolTableRecord
100
AcDbBlockTableRecord
  2
*D22
340
0
  0
BLOCK_RECORD
  5
2360
330
1
100
AcDbSymbolTableRecord
100
AcDbBlockTableRecord
  2
*D23
340
0
  0
BLOCK_RECORD
  5
24CB
330
1
100
AcDbSymbolTableRecord
100
AcDbBlockTableRecord
  2
*D24
340
0
  0
BLOCK_RECORD
  5
24D7
330
1
100
AcDbSymbolTableRecord
100
AcDbBlockTableRecord
  2
*D25
340
0
  0
BLOCK_RECORD
  5
24E3
330
1
100
AcDbSymbolTableRecord
100
AcDbBlockTableRecord
  2
*D26
340
0
  0
BLOCK_RECORD
  5
24EF
330
1
100
AcDbSymbolTableRecord
100
AcDbBlockTableRecord
  2
*D27
340
0
  0
ENDTAB
  0
ENDSEC
  0
SECTION
  2
BLOCKS
  0
BLOCK
  5
20
330
1F
100
AcDbEntity
  8
0
100
AcDbBlockBegin
  2
*Model_Space
 70
     0
 10
0.0
 20
0.0
 30
0.0
  3
*Model_Space
  1

  0
ENDBLK
  5
21
330
1F
100
AcDbEntity
  8
0
100
AcDbBlockEnd
  0
BLOCK
  5
1C
330
1B
100
AcDbEntity
 67
     1
  8
0
100
AcDbBlockBegin
  2
*Paper_Space
 70
     0
 10
0.0
 20
0.0
 30
0.0
  3
*Paper_Space
  1

  0
ENDBLK
  5
1D
330
1B
100
AcDbEntity
 67
     1
  8
0
100
AcDbBlockEnd
  0
BLOCK
  5
24
330
23
100
AcDbEntity
  8
0
100
AcDbBlockBegin
  2
*Paper_Space0
 70
     0
 10
0.0
 20
0.0
 30
0.0
  3
*Paper_Space0
  1

  0
ENDBLK
  5
25
330
23
100
AcDbEntity
  8
0
100
AcDbBlockEnd
  0
BLOCK
  5
89
330
87
100
AcDbEntity
  8
0
100
AcDbBlockBegin
  2
GENAXEH
 70
     0
 10
0.0
 20
0.0
 30
0.0
  3
GENAXEH
  1

  0
LINE
  5
88
330
87
100
AcDbEntity
  8
0
100
AcDbLine
 10
-1.0
 20
0.0
 30
0.0
 11
1.0
 21
0.0
 31
0.0
  0
ENDBLK
  5
8A
330
87
100
AcDbEntity
  8
0
100
AcDbBlockEnd
  0
BLOCK
  5
7E0
330
7DF
100
AcDbEntity
  8
0
 62
    16
100
AcDbBlockBegin
  2
NUT
 70
     0
 10
0.0
 20
0.0
 30
0.0
  3
NUT
  1

  0
LINE
  5
7E1
330
7DF
100
AcDbEntity
  8
0
100
AcDbLine
 10
-14.1153332026718
 20
0.0
 30
0.0
 11
14.11533320267187
 21
0.0
 31
0.0
  0
LINE
  5
7E2
330
7DF
100
AcDbEntity
  8
0
100
AcDbLine
 10
9.237604307034043
 20
-1.0
 30
0.0
 11
9.237604307034043
 21
-6.0
 31
0.0
  0
LINE
  5
7E3
330
7DF
100
AcDbEntity
  8
0
100
AcDbLine
 10
18.47520861406805
 20
-1.0
 30
0.0
 11
18.47520861406805
 21
-5.999999999999992
 31
0.0
  0
LINE
  5
7E4
330
7DF
100
AcDbEntity
  8
0
100
AcDbLine
 10
-9.237604307033986
 20
-1.0
 30
0.0
 11
-9.237604307033985
 21
-6.0
 31
0.0
  0
LINE
  5
7E5
330
7DF
100
AcDbEntity
  8
0
100
AcDbLine
 10
-18.47520861406799
 20
-1.0
 30
0.0
 11
-18.47520861406799
 21
-5.999999999999992
 31
0.0
  0
ARC
  5
7E6
330
7DF
100
AcDbEntity
  8
0
100
AcDbCircle
 10
0.00000000000003
 20
-43.16666666666667
 30
0.0
 40
43.16666666666667
100
AcDbArc
 50
77.64321860963466
 51
102.3567813903654
  0
ARC
  5
7E7
330
7DF
100
AcDbEntity
  8
0
100
AcDbCircle
 10
-13.85640646055099
 20
-11.13314513777401
 30
0.0
 40
11.13615569739066
100
AcDbArc
 50
65.49596495353864
 51
114.5040350464613
  0
ARC
  5
7E8
330
7DF
100
AcDbEntity
  8
0
100
AcDbCircle
 10
13.85640646055104
 20
-11.13314513777401
 30
0.0
 40
11.13615569739066
100
AcDbArc
 50
65.49596495353866
 51
114.5040350464613
  0
ENDBLK
  5
7E9
330
7DF
100
AcDbEntity
  8
0
100
AcDbBlockEnd
  0
BLOCK
  5
1D23
330
1D19
100
AcDbEntity
  8
0
100
AcDbBlockBegin
  2
*D4
 70
     1
 10
0.0
 20
0.0
 30
0.0
  3
*D4
  1

  0
LINE
  5
1D3D
330
1D19
100
AcDbEntity
  8
AM_5
100
AcDbLine
 10
2164.407807601635
 20
508.9561227128467
 30
0.0
 11
2176.907807601635
 21
508.9561227128466
 31
0.0
  0
LINE
  5
1D3E
330
1D19
100
AcDbEntity
  8
AM_5
100
AcDbLine
 10
2154.907807601635
 20
606.9561227128467
 30
0.0
 11
2176.907807601635
 21
606.9561227128467
 31
0.0
  0
LINE
  5
1D3F
330
1D19
100
AcDbEntity
  8
AM_5
100
AcDbLine
 10
2175.407807601635
 20
511.9561227128468
 30
0.0
 11
2175.407807601635
 21
603.9561227128467
 31
0.0
  0
SOLID
  5
1D40
330
1D19
100
AcDbEntity
  8
AM_5
100
AcDbTrace
 10
2174.907807601635
 20
511.9561227128468
 30
0.0
 11
2175.907807601635
 21
511.9561227128468
 31
0.0
 12
2175.407807601635
 22
508.9561227128467
 32
0.0
 13
2175.407807601635
 23
508.9561227128467
 33
0.0
  0
SOLID
  5
1D41
330
1D19
100
AcDbEntity
  8
AM_5
100
AcDbTrace
 10
2174.907807601635
 20
603.9561227128467
 30
0.0
 11
2175.907807601635
 21
603.9561227128467
 31
0.0
 12
2175.407807601635
 22
606.9561227128467
 32
0.0
 13
2175.407807601635
 23
606.9561227128467
 33
0.0
  0
MTEXT
  5
1D42
330
1D19
100
AcDbEntity
  8
AM_5
100
AcDbMText
 10
2172.907807601635
 20
557.9561227128471
 30
0.0
 40
3.0
 41
0.0
 71
     5
 72
     1
  1
98
  7
CHINESET
 11
0.0000000000000001
 21
1.0
 31
0.0
 73
     1
 44
1.0
1001
ACAD
1000
MTEXTBEGIN
1070
    73
1070
     1
1070
    44
1040
1.0
1070
    74
1070
     0
1000
MTEXTEND
  0
POINT
  5
1D43
330
1D19
100
AcDbEntity
  8
Defpoints
 62
     0
100
AcDbPoint
 10
2163.407807601635
 20
508.9561227128467
 30
0.0
  0
POINT
  5
1D44
330
1D19
100
AcDbEntity
  8
Defpoints
 62
     0
100
AcDbPoint
 10
2153.907807601635
 20
606.9561227128467
 30
0.0
  0
POINT
  5
1D45
330
1D19
100
AcDbEntity
  8
Defpoints
 62
     0
100
AcDbPoint
 10
2175.407807601635
 20
606.9561227128467
 30
0.0
  0
ENDBLK
  5
1D24
330
1D19
100
AcDbEntity
  8
0
100
AcDbBlockEnd
  0
BLOCK
  5
1D2F
330
1D25
100
AcDbEntity
  8
0
100
AcDbBlockBegin
  2
*D5
 70
     1
 10
0.0
 20
0.0
 30
0.0
  3
*D5
  1

  0
LINE
  5
1D46
330
1D25
100
AcDbEntity
  8
AM_5
100
AcDbLine
 10
2164.407807601635
 20
508.9561227128467
 30
0.0
 11
2186.907807601635
 21
508.9561227128466
 31
0.0
  0
LINE
  5
1D47
330
1D25
100
AcDbEntity
  8
AM_5
100
AcDbLine
 10
2147.407807601635
 20
635.9561227128467
 30
0.0
 11
2186.907807601635
 21
635.9561227128467
 31
0.0
  0
LINE
  5
1D48
330
1D25
100
AcDbEntity
  8
AM_5
100
AcDbLine
 10
2185.407807601635
 20
511.9561227128467
 30
0.0
 11
2185.407807601635
 21
632.9561227128468
 31
0.0
  0
SOLID
  5
1D49
330
1D25
100
AcDbEntity
  8
AM_5
100
AcDbTrace
 10
2184.907807601635
 20
511.9561227128467
 30
0.0
 11
2185.907807601635
 21
511.9561227128467
 31
0.0
 12
2185.407807601635
 22
508.9561227128466
 32
0.0
 13
2185.407807601635
 23
508.9561227128466
 33
0.0
  0
SOLID
  5
1D4A
330
1D25
100
AcDbEntity
  8
AM_5
100
AcDbTrace
 10
2184.907807601635
 20
632.9561227128468
 30
0.0
 11
2185.907807601635
 21
632.9561227128468
 31
0.0
 12
2185.407807601635
 22
635.9561227128467
 32
0.0
 13
2185.407807601635
 23
635.9561227128467
 33
0.0
  0
MTEXT
  5
1D4B
330
1D25
100
AcDbEntity
  8
AM_5
100
AcDbMText
 10
2182.907807601635
 20
572.4561227128471
 30
0.0
 40
3.0
 41
0.0
 71
     5
 72
     1
  1
127
  7
CHINESET
 11
0.0000000000000001
 21
1.0
 31
0.0
 73
     1
 44
1.0
1001
ACAD
1000
MTEXTBEGIN
1070
    73
1070
     1
1070
    44
1040
1.0
1070
    74
1070
     0
1000
MTEXTEND
  0
POINT
  5
1D4C
330
1D25
100
AcDbEntity
  8
Defpoints
 62
     0
100
AcDbPoint
 10
2163.407807601635
 20
508.9561227128467
 30
0.0
  0
POINT
  5
1D4D
330
1D25
100
AcDbEntity
  8
Defpoints
 62
     0
100
AcDbPoint
 10
2146.407807601635
 20
635.9561227128467
 30
0.0
  0
POINT
  5
1D4E
330
1D25
100
AcDbEntity
  8
Defpoints
 62
     0
100
AcDbPoint
 10
2185.407807601635
 20
635.9561227128467
 30
0.0
  0
ENDBLK
  5
1D30
330
1D25
100
AcDbEntity
  8
0
100
AcDbBlockEnd
  0
BLOCK
  5
1D3B
330
1D31
100
AcDbEntity
  8
0
100
AcDbBlockBegin
  2
*D6
 70
     1
 10
0.0
 20
0.0
 30
0.0
  3
*D6
  1

  0
LINE
  5
1D4F
330
1D31
100
AcDbEntity
  8
AM_5
100
AcDbLine
 10
2147.407807601635
 20
654.9561227128467
 30
0.0
 11
2186.907807601635
 21
654.9561227128467
 31
0.0
  0
LINE
  5
1D50
330
1D31
100
AcDbEntity
  8
AM_5
100
AcDbLine
 10
2147.407807601635
 20
635.9561227128467
 30
0.0
 11
2186.907807601635
 21
635.9561227128467
 31
0.0
  0
LINE
  5
1D51
330
1D31
100
AcDbEntity
  8
AM_5
100
AcDbLine
 10
2185.407807601635
 20
651.9561227128467
 30
0.0
 11
2185.407807601635
 21
638.9561227128467
 31
0.0
  0
SOLID
  5
1D52
330
1D31
100
AcDbEntity
  8
AM_5
100
AcDbTrace
 10
2184.907807601635
 20
651.9561227128467
 30
0.0
 11
2185.907807601635
 21
651.9561227128467
 31
0.0
 12
2185.407807601635
 22
654.9561227128467
 32
0.0
 13
2185.407807601635
 23
654.9561227128467
 33
0.0
  0
SOLID
  5
1D53
330
1D31
100
AcDbEntity
  8
AM_5
100
AcDbTrace
 10
2184.907807601635
 20
638.9561227128467
 30
0.0
 11
2185.907807601635
 21
638.9561227128467
 31
0.0
 12
2185.407807601635
 22
635.9561227128467
 32
0.0
 13
2185.407807601635
 23
635.9561227128467
 33
0.0
  0
MTEXT
  5
1D54
330
1D31
100
AcDbEntity
  8
AM_5
100
AcDbMText
 10
2182.907807601635
 20
645.4561227128471
 30
0.0
 40
3.0
 41
0.0
 71
     5
 72
     1
  1
19
  7
CHINESET
 11
0.0000000000000001
 21
1.0
 31
0.0
 73
     1
 44
1.0
1001
ACAD
1000
MTEXTBEGIN
1070
    73
1070
     1
1070
    44
1040
1.0
1070
    74
1070
     0
1000
MTEXTEND
  0
POINT
  5
1D55
330
1D31
100
AcDbEntity
  8
Defpoints
 62
     0
100
AcDbPoint
 10
2146.407807601635
 20
654.9561227128467
 30
0.0
  0
POINT
  5
1D56
330
1D31
100
AcDbEntity
  8
Defpoints
 62
     0
100
AcDbPoint
 10
2146.407807601635
 20
635.9561227128467
 30
0.0
  0
POINT
  5
1D57
330
1D31
100
AcDbEntity
  8
Defpoints
 62
     0
100
AcDbPoint
 10
2185.407807601635
 20
635.9561227128467
 30
0.0
  0
ENDBLK
  5
1D3C
330
1D31
100
AcDbEntity
  8
0
100
AcDbBlockEnd
  0
BLOCK
  5
1D72
330
1D68
100
AcDbEntity
  8
0
100
AcDbBlockBegin
  2
*D7
 70
     1
 10
0.0
 20
0.0
 30
0.0
  3
*D7
  1

  0
LINE
  5
1D86
330
1D68
100
AcDbEntity
  8
AM_5
100
AcDbLine
 10
2108.907807601635
 20
556.9561227128467
 30
0.0
 11
2108.907807601635
 21
548.8047774801218
 31
0.0
  0
LINE
  5
1D87
330
1D68
100
AcDbEntity
  8
AM_5
100
AcDbLine
 10
2153.907807601635
 20
556.9561227128467
 30
0.0
 11
2153.907807601635
 21
548.8047774801218
 31
0.0
  0
LINE
  5
1D88
330
1D68
100
AcDbEntity
  8
AM_5
100
AcDbLine
 10
2111.907807601635
 20
550.3047774801218
 30
0.0
 11
2150.907807601635
 21
550.3047774801218
 31
0.0
  0
SOLID
  5
1D89
330
1D68
100
AcDbEntity
  8
AM_5
100
AcDbTrace
 10
2111.907807601635
 20
550.8047774801219
 30
0.0
 11
2111.907807601635
 21
549.8047774801218
 31
0.0
 12
2108.907807601635
 22
550.3047774801218
 32
0.0
 13
2108.907807601635
 23
550.3047774801218
 33
0.0
  0
SOLID
  5
1D8A
330
1D68
100
AcDbEntity
  8
AM_5
100
AcDbTrace
 10
2150.907807601635
 20
550.8047774801219
 30
0.0
 11
2150.907807601635
 21
549.8047774801218
 31
0.0
 12
2153.907807601635
 22
550.3047774801218
 32
0.0
 13
2153.907807601635
 23
550.3047774801218
 33
0.0
  0
MTEXT
  5
1D8B
330
1D68
100
AcDbEntity
  8
AM_5
100
AcDbMText
 10
2131.407807601635
 20
552.8047774801218
 30
0.0
 40
3.0
 41
0.0
 71
     5
 72
     1
  1
M45x1.5
  7
CHINESET
 73
     1
 44
1.0
1001
ACAD
1000
MTEXTBEGIN
1070
    73
1070
     1
1070
    44
1040
1.0
1070
    74
1070
     0
1000
MTEXTEND
  0
POINT
  5
1D8C
330
1D68
100
AcDbEntity
  8
Defpoints
 62
     0
100
AcDbPoint
 10
2108.907807601635
 20
557.9561227128468
 30
0.0
  0
POINT
  5
1D8D
330
1D68
100
AcDbEntity
  8
Defpoints
 62
     0
100
AcDbPoint
 10
2153.907807601635
 20
557.9561227128468
 30
0.0
  0
POINT
  5
1D8E
330
1D68
100
AcDbEntity
  8
Defpoints
 62
     0
100
AcDbPoint
 10
2153.907807601635
 20
550.3047774801218
 30
0.0
  0
ENDBLK
  5
1D73
330
1D68
100
AcDbEntity
  8
0
100
AcDbBlockEnd
  0
BLOCK
  5
1E64
330
1E5A
100
AcDbEntity
  8
0
100
AcDbBlockBegin
  2
*D8
 70
     1
 10
0.0
 20
0.0
 30
0.0
  3
*D8
  1

  0
LINE
  5
1E8A
330
1E5A
100
AcDbEntity
  8
AM_5
100
AcDbLine
 10
2164.407807601635
 20
159.2730235218529
 30
0.0
 11
2176.907807601635
 21
159.2730235218529
 31
0.0
  0
LINE
  5
1E8B
330
1E5A
100
AcDbEntity
  8
AM_5
100
AcDbLine
 10
2154.907807601635
 20
257.2730235218529
 30
0.0
 11
2176.907807601635
 21
257.2730235218529
 31
0.0
  0
LINE
  5
1E8C
330
1E5A
100
AcDbEntity
  8
AM_5
100
AcDbLine
 10
2175.407807601635
 20
162.2730235218529
 30
0.0
 11
2175.407807601635
 21
254.2730235218529
 31
0.0
  0
SOLID
  5
1E8D
330
1E5A
100
AcDbEntity
  8
AM_5
100
AcDbTrace
 10
2174.907807601635
 20
162.2730235218529
 30
0.0
 11
2175.907807601635
 21
162.2730235218529
 31
0.0
 12
2175.407807601635
 22
159.2730235218529
 32
0.0
 13
2175.407807601635
 23
159.2730235218529
 33
0.0
  0
SOLID
  5
1E8E
330
1E5A
100
AcDbEntity
  8
AM_5
100
AcDbTrace
 10
2174.907807601635
 20
254.2730235218529
 30
0.0
 11
2175.907807601635
 21
254.2730235218529
 31
0.0
 12
2175.407807601635
 22
257.2730235218529
 32
0.0
 13
2175.407807601635
 23
257.2730235218529
 33
0.0
  0
MTEXT
  5
1E8F
330
1E5A
100
AcDbEntity
  8
AM_5
100
AcDbMText
 10
2172.907807601635
 20
208.2730235218532
 30
0.0
 40
3.0
 41
0.0
 71
     5
 72
     1
  1
98
  7
CHINESET
 11
0.0000000000000001
 21
1.0
 31
0.0
 73
     1
 44
1.0
1001
ACAD
1000
MTEXTBEGIN
1070
    73
1070
     1
1070
    44
1040
1.0
1070
    74
1070
     0
1000
MTEXTEND
  0
POINT
  5
1E90
330
1E5A
100
AcDbEntity
  8
Defpoints
 62
     0
100
AcDbPoint
 10
2163.407807601635
 20
159.2730235218529
 30
0.0
  0
POINT
  5
1E91
330
1E5A
100
AcDbEntity
  8
Defpoints
 62
     0
100
AcDbPoint
 10
2153.907807601635
 20
257.2730235218529
 30
0.0
  0
POINT
  5
1E92
330
1E5A
100
AcDbEntity
  8
Defpoints
 62
     0
100
AcDbPoint
 10
2175.407807601635
 20
257.2730235218529
 30
0.0
  0
ENDBLK
  5
1E65
330
1E5A
100
AcDbEntity
  8
0
100
AcDbBlockEnd
  0
BLOCK
  5
1E70
330
1E66
100
AcDbEntity
  8
0
100
AcDbBlockBegin
  2
*D9
 70
     1
 10
0.0
 20
0.0
 30
0.0
  3
*D9
  1

  0
LINE
  5
1EC0
330
1E66
100
AcDbEntity
  8
AM_5
100
AcDbLine
 10
2164.407807601635
 20
159.2730235218529
 30
0.0
 11
2186.907807601635
 21
159.2730235218529
 31
0.0
  0
LINE
  5
1EC1
330
1E66
100
AcDbEntity
  8
AM_5
100
AcDbLine
 10
2147.407807601635
 20
293.2730235218529
 30
0.0
 11
2186.907807601635
 21
293.2730235218528
 31
0.0
  0
LINE
  5
1EC2
330
1E66
100
AcDbEntity
  8
AM_5
100
AcDbLine
 10
2185.407807601635
 20
162.2730235218529
 30
0.0
 11
2185.407807601635
 21
290.2730235218529
 31
0.0
  0
SOLID
  5
1EC3
330
1E66
100
AcDbEntity
  8
AM_5
100
AcDbTrace
 10
2184.907807601635
 20
162.2730235218529
 30
0.0
 11
2185.907807601635
 21
162.2730235218529
 31
0.0
 12
2185.407807601635
 22
159.2730235218529
 32
0.0
 13
2185.407807601635
 23
159.2730235218529
 33
0.0
  0
SOLID
  5
1EC4
330
1E66
100
AcDbEntity
  8
AM_5
100
AcDbTrace
 10
2184.907807601635
 20
290.2730235218529
 30
0.0
 11
2185.907807601635
 21
290.2730235218529
 31
0.0
 12
2185.407807601635
 22
293.2730235218528
 32
0.0
 13
2185.407807601635
 23
293.2730235218528
 33
0.0
  0
MTEXT
  5
1EC5
330
1E66
100
AcDbEntity
  8
AM_5
100
AcDbMText
 10
2182.907807601635
 20
226.2730235218532
 30
0.0
 40
3.0
 41
0.0
 71
     5
 72
     1
  1
134
  7
CHINESET
 11
0.0000000000000001
 21
1.0
 31
0.0
 73
     1
 44
1.0
1001
ACAD
1000
MTEXTBEGIN
1070
    73
1070
     1
1070
    44
1040
1.0
1070
    74
1070
     0
1000
MTEXTEND
  0
POINT
  5
1EC6
330
1E66
100
AcDbEntity
  8
Defpoints
 62
     0
100
AcDbPoint
 10
2163.407807601635
 20
159.2730235218529
 30
0.0
  0
POINT
  5
1EC7
330
1E66
100
AcDbEntity
  8
Defpoints
 62
     0
100
AcDbPoint
 10
2146.407807601635
 20
293.2730235218529
 30
0.0
  0
POINT
  5
1EC8
330
1E66
100
AcDbEntity
  8
Defpoints
 62
     0
100
AcDbPoint
 10
2185.407807601635
 20
293.2730235218528
 30
0.0
  0
ENDBLK
  5
1E71
330
1E66
100
AcDbEntity
  8
0
100
AcDbBlockEnd
  0
BLOCK
  5
1E7C
330
1E72
100
AcDbEntity
  8
0
100
AcDbBlockBegin
  2
*D10
 70
     1
 10
0.0
 20
0.0
 30
0.0
  3
*D10
  1

  0
LINE
  5
1EB7
330
1E72
100
AcDbEntity
  8
AM_5
100
AcDbLine
 10
2147.187974492888
 20
316.4726365286518
 30
0.0
 11
2186.907807601635
 21
316.4726365286518
 31
0.0
  0
LINE
  5
1EB8
330
1E72
100
AcDbEntity
  8
AM_5
100
AcDbLine
 10
2147.407807601635
 20
293.2730235218529
 30
0.0
 11
2186.907807601635
 21
293.2730235218528
 31
0.0
  0
LINE
  5
1EB9
330
1E72
100
AcDbEntity
  8
AM_5
100
AcDbLine
 10
2185.407807601635
 20
313.4726365286518
 30
0.0
 11
2185.407807601635
 21
296.2730235218529
 31
0.0
  0
SOLID
  5
1EBA
330
1E72
100
AcDbEntity
  8
AM_5
100
AcDbTrace
 10
2184.907807601635
 20
313.4726365286518
 30
0.0
 11
2185.907807601635
 21
313.4726365286518
 31
0.0
 12
2185.407807601635
 22
316.4726365286518
 32
0.0
 13
2185.407807601635
 23
316.4726365286518
 33
0.0
  0
SOLID
  5
1EBB
330
1E72
100
AcDbEntity
  8
AM_5
100
AcDbTrace
 10
2184.907807601635
 20
296.2730235218529
 30
0.0
 11
2185.907807601635
 21
296.2730235218529
 31
0.0
 12
2185.407807601635
 22
293.2730235218528
 32
0.0
 13
2185.407807601635
 23
293.2730235218528
 33
0.0
  0
MTEXT
  5
1EBC
330
1E72
100
AcDbEntity
  8
AM_5
100
AcDbMText
 10
2182.907807601635
 20
304.8728300252527
 30
0.0
 40
3.0
 41
0.0
 71
     5
 72
     1
  1
23.2
  7
CHINESET
 11
0.0000000000000001
 21
1.0
 31
0.0
 73
     1
 44
1.0
1001
ACAD
1000
MTEXTBEGIN
1070
    73
1070
     1
1070
    44
1040
1.0
1070
    74
1070
     0
1000
MTEXTEND
  0
POINT
  5
1EBD
330
1E72
100
AcDbEntity
  8
Defpoints
 62
     0
100
AcDbPoint
 10
2146.187974492888
 20
316.4726365286518
 30
0.0
  0
POINT
  5
1EBE
330
1E72
100
AcDbEntity
  8
Defpoints
 62
     0
100
AcDbPoint
 10
2146.407807601635
 20
293.2730235218529
 30
0.0
  0
POINT
  5
1EBF
330
1E72
100
AcDbEntity
  8
Defpoints
 62
     0
100
AcDbPoint
 10
2185.407807601635
 20
293.2730235218528
 30
0.0
  0
ENDBLK
  5
1E7D
330
1E72
100
AcDbEntity
  8
0
100
AcDbBlockEnd
  0
BLOCK
  5
1E88
330
1E7E
100
AcDbEntity
  8
0
100
AcDbBlockBegin
  2
*D11
 70
     1
 10
0.0
 20
0.0
 30
0.0
  3
*D11
  1

  0
LINE
  5
1EA5
330
1E7E
100
AcDbEntity
  8
AM_5
100
AcDbLine
 10
2108.907807601635
 20
207.2730235218529
 30
0.0
 11
2108.907807601635
 21
199.121678289128
 31
0.0
  0
LINE
  5
1EA6
330
1E7E
100
AcDbEntity
  8
AM_5
100
AcDbLine
 10
2153.907807601635
 20
207.2730235218529
 30
0.0
 11
2153.907807601635
 21
199.121678289128
 31
0.0
  0
LINE
  5
1EA7
330
1E7E
100
AcDbEntity
  8
AM_5
100
AcDbLine
 10
2111.907807601635
 20
200.621678289128
 30
0.0
 11
2150.907807601635
 21
200.621678289128
 31
0.0
  0
SOLID
  5
1EA8
330
1E7E
100
AcDbEntity
  8
AM_5
100
AcDbTrace
 10
2111.907807601635
 20
201.121678289128
 30
0.0
 11
2111.907807601635
 21
200.121678289128
 31
0.0
 12
2108.907807601635
 22
200.621678289128
 32
0.0
 13
2108.907807601635
 23
200.621678289128
 33
0.0
  0
SOLID
  5
1EA9
330
1E7E
100
AcDbEntity
  8
AM_5
100
AcDbTrace
 10
2150.907807601635
 20
201.121678289128
 30
0.0
 11
2150.907807601635
 21
200.121678289128
 31
0.0
 12
2153.907807601635
 22
200.621678289128
 32
0.0
 13
2153.907807601635
 23
200.621678289128
 33
0.0
  0
MTEXT
  5
1EAA
330
1E7E
100
AcDbEntity
  8
AM_5
100
AcDbMText
 10
2131.407807601635
 20
203.121678289128
 30
0.0
 40
3.0
 41
0.0
 71
     5
 72
     1
  1
M45x1.5
  7
CHINESET
 73
     1
 44
1.0
1001
ACAD
1000
MTEXTBEGIN
1070
    73
1070
     1
1070
    44
1040
1.0
1070
    74
1070
     0
1000
MTEXTEND
  0
POINT
  5
1EAB
330
1E7E
100
AcDbEntity
  8
Defpoints
 62
     0
100
AcDbPoint
 10
2108.907807601635
 20
208.2730235218529
 30
0.0
  0
POINT
  5
1EAC
330
1E7E
100
AcDbEntity
  8
Defpoints
 62
     0
100
AcDbPoint
 10
2153.907807601635
 20
208.2730235218529
 30
0.0
  0
POINT
  5
1EAD
330
1E7E
100
AcDbEntity
  8
Defpoints
 62
     0
100
AcDbPoint
 10
2153.907807601635
 20
200.621678289128
 30
0.0
  0
ENDBLK
  5
1E89
330
1E7E
100
AcDbEntity
  8
0
100
AcDbBlockEnd
  0
BLOCK
  5
21E7
330
21DD
100
AcDbEntity
  8
0
100
AcDbBlockBegin
  2
*D12
 70
     1
 10
0.0
 20
0.0
 30
0.0
  3
*D12
  1

  0
LINE
  5
22BF
330
21DD
100
AcDbEntity
  8
AM_5
100
AcDbLine
 10
2517.476583508879
 20
508.9561227128467
 30
0.0
 11
2529.976583508878
 21
508.9561227128467
 31
0.0
  0
LINE
  5
22C0
330
21DD
100
AcDbEntity
  8
AM_5
100
AcDbLine
 10
2507.476583508879
 20
605.9561227128467
 30
0.0
 11
2529.976583508878
 21
605.9561227128467
 31
0.0
  0
LINE
  5
22C1
330
21DD
100
AcDbEntity
  8
AM_5
100
AcDbLine
 10
2528.476583508878
 20
511.9561227128468
 30
0.0
 11
2528.476583508878
 21
602.9561227128468
 31
0.0
  0
SOLID
  5
22C2
330
21DD
100
AcDbEntity
  8
AM_5
100
AcDbTrace
 10
2527.976583508879
 20
511.9561227128468
 30
0.0
 11
2528.976583508879
 21
511.9561227128468
 31
0.0
 12
2528.476583508878
 22
508.9561227128467
 32
0.0
 13
2528.476583508878
 23
508.9561227128467
 33
0.0
  0
SOLID
  5
22C3
330
21DD
100
AcDbEntity
  8
AM_5
100
AcDbTrace
 10
2527.976583508879
 20
602.9561227128468
 30
0.0
 11
2528.976583508879
 21
602.9561227128468
 31
0.0
 12
2528.476583508878
 22
605.9561227128467
 32
0.0
 13
2528.476583508878
 23
605.9561227128467
 33
0.0
  0
MTEXT
  5
22C4
330
21DD
100
AcDbEntity
  8
AM_5
100
AcDbMText
 10
2525.976583508878
 20
557.4561227128472
 30
0.0
 40
3.0
 41
0.0
 71
     5
 72
     1
  1
97
  7
CHINESET
 11
0.0000000000000001
 21
1.0
 31
0.0
 73
     1
 44
1.0
1001
ACAD
1000
MTEXTBEGIN
1070
    73
1070
     1
1070
    44
1040
1.0
1070
    74
1070
     0
1000
MTEXTEND
  0
POINT
  5
22C5
330
21DD
100
AcDbEntity
  8
Defpoints
 62
     0
100
AcDbPoint
 10
2516.476583508878
 20
508.9561227128467
 30
0.0
  0
POINT
  5
22C6
330
21DD
100
AcDbEntity
  8
Defpoints
 62
     0
100
AcDbPoint
 10
2506.476583508879
 20
605.9561227128467
 30
0.0
  0
POINT
  5
22C7
330
21DD
100
AcDbEntity
  8
Defpoints
 62
     0
100
AcDbPoint
 10
2528.476583508878
 20
605.9561227128467
 30
0.0
  0
ENDBLK
  5
21E8
330
21DD
100
AcDbEntity
  8
0
100
AcDbBlockEnd
  0
BLOCK
  5
21F3
330
21E9
100
AcDbEntity
  8
0
100
AcDbBlockBegin
  2
*D13
 70
     1
 10
0.0
 20
0.0
 30
0.0
  3
*D13
  1

  0
LINE
  5
22C8
330
21E9
100
AcDbEntity
  8
AM_5
100
AcDbLine
 10
2517.476583508879
 20
508.9561227128467
 30
0.0
 11
2539.976583508878
 21
508.9561227128467
 31
0.0
  0
LINE
  5
22C9
330
21E9
100
AcDbEntity
  8
AM_5
100
AcDbLine
 10
2502.476583508878
 20
635.9561227128467
 30
0.0
 11
2539.976583508878
 21
635.9561227128467
 31
0.0
  0
LINE
  5
22CA
330
21E9
100
AcDbEntity
  8
AM_5
100
AcDbLine
 10
2538.476583508879
 20
511.9561227128468
 30
0.0
 11
2538.476583508879
 21
632.9561227128468
 31
0.0
  0
SOLID
  5
22CB
330
21E9
100
AcDbEntity
  8
AM_5
100
AcDbTrace
 10
2537.976583508879
 20
511.9561227128468
 30
0.0
 11
2538.976583508878
 21
511.9561227128468
 31
0.0
 12
2538.476583508879
 22
508.9561227128467
 32
0.0
 13
2538.476583508879
 23
508.9561227128467
 33
0.0
  0
SOLID
  5
22CC
330
21E9
100
AcDbEntity
  8
AM_5
100
AcDbTrace
 10
2537.976583508879
 20
632.9561227128468
 30
0.0
 11
2538.976583508878
 21
632.9561227128468
 31
0.0
 12
2538.476583508879
 22
635.9561227128467
 32
0.0
 13
2538.476583508879
 23
635.9561227128467
 33
0.0
  0
MTEXT
  5
22CD
330
21E9
100
AcDbEntity
  8
AM_5
100
AcDbMText
 10
2535.976583508878
 20
572.4561227128472
 30
0.0
 40
3.0
 41
0.0
 71
     5
 72
     1
  1
127
  7
CHINESET
 11
0.0000000000000001
 21
1.0
 31
0.0
 73
     1
 44
1.0
1001
ACAD
1000
MTEXTBEGIN
1070
    73
1070
     1
1070
    44
1040
1.0
1070
    74
1070
     0
1000
MTEXTEND
  0
POINT
  5
22CE
330
21E9
100
AcDbEntity
  8
Defpoints
 62
     0
100
AcDbPoint
 10
2516.476583508878
 20
508.9561227128467
 30
0.0
  0
POINT
  5
22CF
330
21E9
100
AcDbEntity
  8
Defpoints
 62
     0
100
AcDbPoint
 10
2501.476583508879
 20
635.9561227128467
 30
0.0
  0
POINT
  5
22D0
330
21E9
100
AcDbEntity
  8
Defpoints
 62
     0
100
AcDbPoint
 10
2538.476583508879
 20
635.9561227128467
 30
0.0
  0
ENDBLK
  5
21F4
330
21E9
100
AcDbEntity
  8
0
100
AcDbBlockEnd
  0
BLOCK
  5
21FF
330
21F5
100
AcDbEntity
  8
0
100
AcDbBlockBegin
  2
*D14
 70
     1
 10
0.0
 20
0.0
 30
0.0
  3
*D14
  1

  0
LINE
  5
22DA
330
21F5
100
AcDbEntity
  8
AM_5
100
AcDbLine
 10
2502.476583508878
 20
654.9561227128467
 30
0.0
 11
2539.976583508878
 21
654.9561227128467
 31
0.0
  0
LINE
  5
22DB
330
21F5
100
AcDbEntity
  8
AM_5
100
AcDbLine
 10
2502.476583508878
 20
635.9561227128467
 30
0.0
 11
2539.976583508878
 21
635.9561227128467
 31
0.0
  0
LINE
  5
22DC
330
21F5
100
AcDbEntity
  8
AM_5
100
AcDbLine
 10
2538.476583508879
 20
651.9561227128467
 30
0.0
 11
2538.476583508879
 21
638.9561227128467
 31
0.0
  0
SOLID
  5
22DD
330
21F5
100
AcDbEntity
  8
AM_5
100
AcDbTrace
 10
2537.976583508879
 20
651.9561227128467
 30
0.0
 11
2538.976583508878
 21
651.9561227128467
 31
0.0
 12
2538.476583508879
 22
654.9561227128467
 32
0.0
 13
2538.476583508879
 23
654.9561227128467
 33
0.0
  0
SOLID
  5
22DE
330
21F5
100
AcDbEntity
  8
AM_5
100
AcDbTrace
 10
2537.976583508879
 20
638.9561227128467
 30
0.0
 11
2538.976583508878
 21
638.9561227128467
 31
0.0
 12
2538.476583508879
 22
635.9561227128467
 32
0.0
 13
2538.476583508879
 23
635.9561227128467
 33
0.0
  0
MTEXT
  5
22DF
330
21F5
100
AcDbEntity
  8
AM_5
100
AcDbMText
 10
2535.976583508878
 20
645.4561227128472
 30
0.0
 40
3.0
 41
0.0
 71
     5
 72
     1
  1
19
  7
CHINESET
 11
0.0000000000000001
 21
1.0
 31
0.0
 73
     1
 44
1.0
1001
ACAD
1000
MTEXTBEGIN
1070
    73
1070
     1
1070
    44
1040
1.0
1070
    74
1070
     0
1000
MTEXTEND
  0
POINT
  5
22E0
330
21F5
100
AcDbEntity
  8
Defpoints
 62
     0
100
AcDbPoint
 10
2501.476583508879
 20
654.9561227128467
 30
0.0
  0
POINT
  5
22E1
330
21F5
100
AcDbEntity
  8
Defpoints
 62
     0
100
AcDbPoint
 10
2501.476583508879
 20
635.9561227128467
 30
0.0
  0
POINT
  5
22E2
330
21F5
100
AcDbEntity
  8
Defpoints
 62
     0
100
AcDbPoint
 10
2538.476583508879
 20
635.9561227128467
 30
0.0
  0
ENDBLK
  5
2200
330
21F5
100
AcDbEntity
  8
0
100
AcDbBlockEnd
  0
BLOCK
  5
220B
330
2201
100
AcDbEntity
  8
0
100
AcDbBlockBegin
  2
*D15
 70
     1
 10
0.0
 20
0.0
 30
0.0
  3
*D15
  1

  0
LINE
  5
223A
330
2201
100
AcDbEntity
  8
AM_5
100
AcDbLine
 10
2459.476583508878
 20
551.9561227128467
 30
0.0
 11
2459.476583508878
 21
548.8047774801218
 31
0.0
  0
LINE
  5
223B
330
2201
100
AcDbEntity
  8
AM_5
100
AcDbLine
 10
2509.476583508878
 20
551.9561227128467
 30
0.0
 11
2509.476583508878
 21
548.8047774801218
 31
0.0
  0
LINE
  5
223C
330
2201
100
AcDbEntity
  8
AM_5
100
AcDbLine
 10
2462.476583508879
 20
550.3047774801218
 30
0.0
 11
2506.476583508879
 21
550.3047774801218
 31
0.0
  0
SOLID
  5
223D
330
2201
100
AcDbEntity
  8
AM_5
100
AcDbTrace
 10
2462.476583508879
 20
550.8047774801219
 30
0.0
 11
2462.476583508879
 21
549.8047774801218
 31
0.0
 12
2459.476583508878
 22
550.3047774801218
 32
0.0
 13
2459.476583508878
 23
550.3047774801218
 33
0.0
  0
SOLID
  5
223E
330
2201
100
AcDbEntity
  8
AM_5
100
AcDbTrace
 10
2506.476583508879
 20
550.8047774801219
 30
0.0
 11
2506.476583508879
 21
549.8047774801218
 31
0.0
 12
2509.476583508878
 22
550.3047774801218
 32
0.0
 13
2509.476583508878
 23
550.3047774801218
 33
0.0
  0
MTEXT
  5
223F
330
2201
100
AcDbEntity
  8
AM_5
100
AcDbMText
 10
2484.476583508878
 20
552.8047774801218
 30
0.0
 40
3.0
 41
0.0
 71
     5
 72
     1
  1
M50x1.5
  7
CHINESET
 73
     1
 44
1.0
1001
ACAD
1000
MTEXTBEGIN
1070
    73
1070
     1
1070
    44
1040
1.0
1070
    74
1070
     0
1000
MTEXTEND
  0
POINT
  5
2240
330
2201
100
AcDbEntity
  8
Defpoints
 62
     0
100
AcDbPoint
 10
2459.476583508878
 20
552.9561227128467
 30
0.0
  0
POINT
  5
2241
330
2201
100
AcDbEntity
  8
Defpoints
 62
     0
100
AcDbPoint
 10
2509.476583508878
 20
552.9561227128467
 30
0.0
  0
POINT
  5
2242
330
2201
100
AcDbEntity
  8
Defpoints
 62
     0
100
AcDbPoint
 10
2509.476583508878
 20
550.3047774801218
 30
0.0
  0
ENDBLK
  5
220C
330
2201
100
AcDbEntity
  8
0
100
AcDbBlockEnd
  0
BLOCK
  5
2251
330
2247
100
AcDbEntity
  8
0
100
AcDbBlockBegin
  2
*D16
 70
     1
 10
0.0
 20
0.0
 30
0.0
  3
*D16
  1

  0
LINE
  5
229B
330
2247
100
AcDbEntity
  8
AM_5
100
AcDbLine
 10
2517.476583508879
 20
159.2730235218529
 30
0.0
 11
2529.976583508878
 21
159.2730235218529
 31
0.0
  0
LINE
  5
229C
330
2247
100
AcDbEntity
  8
AM_5
100
AcDbLine
 10
2507.476583508879
 20
256.2730235218529
 30
0.0
 11
2529.976583508878
 21
256.2730235218529
 31
0.0
  0
LINE
  5
229D
330
2247
100
AcDbEntity
  8
AM_5
100
AcDbLine
 10
2528.476583508878
 20
162.2730235218529
 30
0.0
 11
2528.476583508878
 21
253.2730235218529
 31
0.0
  0
SOLID
  5
229E
330
2247
100
AcDbEntity
  8
AM_5
100
AcDbTrace
 10
2527.976583508879
 20
162.2730235218529
 30
0.0
 11
2528.976583508879
 21
162.2730235218529
 31
0.0
 12
2528.476583508878
 22
159.2730235218529
 32
0.0
 13
2528.476583508878
 23
159.2730235218529
 33
0.0
  0
SOLID
  5
229F
330
2247
100
AcDbEntity
  8
AM_5
100
AcDbTrace
 10
2527.976583508879
 20
253.2730235218529
 30
0.0
 11
2528.976583508879
 21
253.2730235218529
 31
0.0
 12
2528.476583508878
 22
256.2730235218529
 32
0.0
 13
2528.476583508878
 23
256.2730235218529
 33
0.0
  0
MTEXT
  5
22A0
330
2247
100
AcDbEntity
  8
AM_5
100
AcDbMText
 10
2525.976583508878
 20
207.7730235218533
 30
0.0
 40
3.0
 41
0.0
 71
     5
 72
     1
  1
97
  7
CHINESET
 11
0.0000000000000001
 21
1.0
 31
0.0
 73
     1
 44
1.0
1001
ACAD
1000
MTEXTBEGIN
1070
    73
1070
     1
1070
    44
1040
1.0
1070
    74
1070
     0
1000
MTEXTEND
  0
POINT
  5
22A1
330
2247
100
AcDbEntity
  8
Defpoints
 62
     0
100
AcDbPoint
 10
2516.476583508878
 20
159.2730235218529
 30
0.0
  0
POINT
  5
22A2
330
2247
100
AcDbEntity
  8
Defpoints
 62
     0
100
AcDbPoint
 10
2506.476583508879
 20
256.2730235218529
 30
0.0
  0
POINT
  5
22A3
330
2247
100
AcDbEntity
  8
Defpoints
 62
     0
100
AcDbPoint
 10
2528.476583508878
 20
256.2730235218529
 30
0.0
  0
ENDBLK
  5
2252
330
2247
100
AcDbEntity
  8
0
100
AcDbBlockEnd
  0
BLOCK
  5
225D
330
2253
100
AcDbEntity
  8
0
100
AcDbBlockBegin
  2
*D17
 70
     1
 10
0.0
 20
0.0
 30
0.0
  3
*D17
  1

  0
LINE
  5
22B6
330
2253
100
AcDbEntity
  8
AM_5
100
AcDbLine
 10
2517.476583508879
 20
159.2730235218529
 30
0.0
 11
2539.976583508878
 21
159.2730235218529
 31
0.0
  0
LINE
  5
22B7
330
2253
100
AcDbEntity
  8
AM_5
100
AcDbLine
 10
2502.476583508878
 20
292.2730235218529
 30
0.0
 11
2539.976583508878
 21
292.2730235218529
 31
0.0
  0
LINE
  5
22B8
330
2253
100
AcDbEntity
  8
AM_5
100
AcDbLine
 10
2538.476583508879
 20
162.2730235218529
 30
0.0
 11
2538.476583508879
 21
289.2730235218529
 31
0.0
  0
SOLID
  5
22B9
330
2253
100
AcDbEntity
  8
AM_5
100
AcDbTrace
 10
2537.976583508879
 20
162.2730235218529
 30
0.0
 11
2538.976583508878
 21
162.2730235218529
 31
0.0
 12
2538.476583508879
 22
159.2730235218529
 32
0.0
 13
2538.476583508879
 23
159.2730235218529
 33
0.0
  0
SOLID
  5
22BA
330
2253
100
AcDbEntity
  8
AM_5
100
AcDbTrace
 10
2537.976583508879
 20
289.2730235218529
 30
0.0
 11
2538.976583508878
 21
289.2730235218529
 31
0.0
 12
2538.476583508879
 22
292.2730235218529
 32
0.0
 13
2538.476583508879
 23
292.2730235218529
 33
0.0
  0
MTEXT
  5
22BB
330
2253
100
AcDbEntity
  8
AM_5
100
AcDbMText
 10
2535.976583508878
 20
225.7730235218533
 30
0.0
 40
3.0
 41
0.0
 71
     5
 72
     1
  1
133
  7
CHINESET
 11
0.0000000000000001
 21
1.0
 31
0.0
 73
     1
 44
1.0
1001
ACAD
1000
MTEXTBEGIN
1070
    73
1070
     1
1070
    44
1040
1.0
1070
    74
1070
     0
1000
MTEXTEND
  0
POINT
  5
22BC
330
2253
100
AcDbEntity
  8
Defpoints
 62
     0
100
AcDbPoint
 10
2516.476583508878
 20
159.2730235218529
 30
0.0
  0
POINT
  5
22BD
330
2253
100
AcDbEntity
  8
Defpoints
 62
     0
100
AcDbPoint
 10
2501.476583508879
 20
292.2730235218529
 30
0.0
  0
POINT
  5
22BE
330
2253
100
AcDbEntity
  8
Defpoints
 62
     0
100
AcDbPoint
 10
2538.476583508879
 20
292.2730235218529
 30
0.0
  0
ENDBLK
  5
225E
330
2253
100
AcDbEntity
  8
0
100
AcDbBlockEnd
  0
BLOCK
  5
2269
330
225F
100
AcDbEntity
  8
0
100
AcDbBlockBegin
  2
*D18
 70
     1
 10
0.0
 20
0.0
 30
0.0
  3
*D18
  1

  0
LINE
  5
22AD
330
225F
100
AcDbEntity
  8
AM_5
100
AcDbLine
 10
2502.476583508878
 20
311.2730235218529
 30
0.0
 11
2539.976583508878
 21
311.2730235218529
 31
0.0
  0
LINE
  5
22AE
330
225F
100
AcDbEntity
  8
AM_5
100
AcDbLine
 10
2502.476583508878
 20
292.2730235218529
 30
0.0
 11
2539.976583508878
 21
292.2730235218529
 31
0.0
  0
LINE
  5
22AF
330
225F
100
AcDbEntity
  8
AM_5
100
AcDbLine
 10
2538.476583508879
 20
308.2730235218529
 30
0.0
 11
2538.476583508879
 21
295.2730235218529
 31
0.0
  0
SOLID
  5
22B0
330
225F
100
AcDbEntity
  8
AM_5
100
AcDbTrace
 10
2537.976583508879
 20
308.2730235218529
 30
0.0
 11
2538.976583508878
 21
308.2730235218529
 31
0.0
 12
2538.476583508879
 22
311.2730235218529
 32
0.0
 13
2538.476583508879
 23
311.2730235218529
 33
0.0
  0
SOLID
  5
22B1
330
225F
100
AcDbEntity
  8
AM_5
100
AcDbTrace
 10
2537.976583508879
 20
295.2730235218529
 30
0.0
 11
2538.976583508878
 21
295.2730235218529
 31
0.0
 12
2538.476583508879
 22
292.2730235218529
 32
0.0
 13
2538.476583508879
 23
292.2730235218529
 33
0.0
  0
MTEXT
  5
22B2
330
225F
100
AcDbEntity
  8
AM_5
100
AcDbMText
 10
2535.976583508878
 20
301.7730235218533
 30
0.0
 40
3.0
 41
0.0
 71
     5
 72
     1
  1
19
  7
CHINESET
 11
0.0000000000000001
 21
1.0
 31
0.0
 73
     1
 44
1.0
1001
ACAD
1000
MTEXTBEGIN
1070
    73
1070
     1
1070
    44
1040
1.0
1070
    74
1070
     0
1000
MTEXTEND
  0
POINT
  5
22B3
330
225F
100
AcDbEntity
  8
Defpoints
 62
     0
100
AcDbPoint
 10
2501.476583508879
 20
311.2730235218529
 30
0.0
  0
POINT
  5
22B4
330
225F
100
AcDbEntity
  8
Defpoints
 62
     0
100
AcDbPoint
 10
2501.476583508879
 20
292.2730235218529
 30
0.0
  0
POINT
  5
22B5
330
225F
100
AcDbEntity
  8
Defpoints
 62
     0
100
AcDbPoint
 10
2538.476583508879
 20
292.2730235218529
 30
0.0
  0
ENDBLK
  5
226A
330
225F
100
AcDbEntity
  8
0
100
AcDbBlockEnd
  0
BLOCK
  5
2275
330
226B
100
AcDbEntity
  8
0
100
AcDbBlockBegin
  2
*D19
 70
     1
 10
0.0
 20
0.0
 30
0.0
  3
*D19
  1

  0
LINE
  5
2292
330
226B
100
AcDbEntity
  8
AM_5
100
AcDbLine
 10
2459.476583508878
 20
202.2730235218529
 30
0.0
 11
2459.476583508878
 21
199.121678289128
 31
0.0
  0
LINE
  5
2293
330
226B
100
AcDbEntity
  8
AM_5
100
AcDbLine
 10
2509.476583508878
 20
202.2730235218529
 30
0.0
 11
2509.476583508878
 21
199.121678289128
 31
0.0
  0
LINE
  5
2294
330
226B
100
AcDbEntity
  8
AM_5
100
AcDbLine
 10
2462.476583508879
 20
200.621678289128
 30
0.0
 11
2506.476583508879
 21
200.621678289128
 31
0.0
  0
SOLID
  5
2295
330
226B
100
AcDbEntity
  8
AM_5
100
AcDbTrace
 10
2462.476583508879
 20
201.121678289128
 30
0.0
 11
2462.476583508879
 21
200.121678289128
 31
0.0
 12
2459.476583508878
 22
200.621678289128
 32
0.0
 13
2459.476583508878
 23
200.621678289128
 33
0.0
  0
SOLID
  5
2296
330
226B
100
AcDbEntity
  8
AM_5
100
AcDbTrace
 10
2506.476583508879
 20
201.121678289128
 30
0.0
 11
2506.476583508879
 21
200.121678289128
 31
0.0
 12
2509.476583508878
 22
200.621678289128
 32
0.0
 13
2509.476583508878
 23
200.621678289128
 33
0.0
  0
MTEXT
  5
2297
330
226B
100
AcDbEntity
  8
AM_5
100
AcDbMText
 10
2484.476583508878
 20
203.121678289128
 30
0.0
 40
3.0
 41
0.0
 71
     5
 72
     1
  1
M50x1.5
  7
CHINESET
 73
     1
 44
1.0
1001
ACAD
1000
MTEXTBEGIN
1070
    73
1070
     1
1070
    44
1040
1.0
1070
    74
1070
     0
1000
MTEXTEND
  0
POINT
  5
2298
330
226B
100
AcDbEntity
  8
Defpoints
 62
     0
100
AcDbPoint
 10
2459.476583508878
 20
203.2730235218529
 30
0.0
  0
POINT
  5
2299
330
226B
100
AcDbEntity
  8
Defpoints
 62
     0
100
AcDbPoint
 10
2509.476583508878
 20
203.2730235218529
 30
0.0
  0
POINT
  5
229A
330
226B
100
AcDbEntity
  8
Defpoints
 62
     0
100
AcDbPoint
 10
2509.476583508878
 20
200.621678289128
 30
0.0
  0
ENDBLK
  5
2276
330
226B
100
AcDbEntity
  8
0
100
AcDbBlockEnd
  0
BLOCK
  5
2346
330
233C
100
AcDbEntity
  8
0
100
AcDbBlockBegin
  2
*D20
 70
     1
 10
0.0
 20
0.0
 30
0.0
  3
*D20
  1

  0
LINE
  5
24B5
330
233C
100
AcDbEntity
  8
AM_5
100
AcDbLine
 10
2870.206173790791
 20
508.9561227128467
 30
0.0
 11
2879.70617379079
 21
508.9561227128467
 31
0.0
  0
LINE
  5
24B6
330
233C
100
AcDbEntity
  8
AM_5
100
AcDbLine
 10
2866.20617379079
 20
606.9561227128467
 30
0.0
 11
2879.70617379079
 21
606.9561227128467
 31
0.0
  0
LINE
  5
24B7
330
233C
100
AcDbEntity
  8
AM_5
100
AcDbLine
 10
2878.20617379079
 20
511.9561227128468
 30
0.0
 11
2878.20617379079
 21
603.9561227128467
 31
0.0
  0
SOLID
  5
24B8
330
233C
100
AcDbEntity
  8
AM_5
100
AcDbTrace
 10
2877.706173790791
 20
511.9561227128468
 30
0.0
 11
2878.70617379079
 21
511.9561227128468
 31
0.0
 12
2878.20617379079
 22
508.9561227128467
 32
0.0
 13
2878.20617379079
 23
508.9561227128467
 33
0.0
  0
SOLID
  5
24B9
330
233C
100
AcDbEntity
  8
AM_5
100
AcDbTrace
 10
2877.706173790791
 20
603.9561227128467
 30
0.0
 11
2878.70617379079
 21
603.9561227128467
 31
0.0
 12
2878.20617379079
 22
606.9561227128467
 32
0.0
 13
2878.20617379079
 23
606.9561227128467
 33
0.0
  0
MTEXT
  5
24BA
330
233C
100
AcDbEntity
  8
AM_5
100
AcDbMText
 10
2875.706173790791
 20
557.9561227128472
 30
0.0
 40
3.0
 41
0.0
 71
     5
 72
     1
  1
98
  7
CHINESET
 11
0.0000000000000001
 21
1.0
 31
0.0
 73
     1
 44
1.0
1001
ACAD
1000
MTEXTBEGIN
1070
    73
1070
     1
1070
    44
1040
1.0
1070
    74
1070
     0
1000
MTEXTEND
  0
POINT
  5
24BB
330
233C
100
AcDbEntity
  8
Defpoints
 62
     0
100
AcDbPoint
 10
2869.20617379079
 20
508.9561227128467
 30
0.0
  0
POINT
  5
24BC
330
233C
100
AcDbEntity
  8
Defpoints
 62
     0
100
AcDbPoint
 10
2865.20617379079
 20
606.9561227128467
 30
0.0
  0
POINT
  5
24BD
330
233C
100
AcDbEntity
  8
Defpoints
 62
     0
100
AcDbPoint
 10
2878.20617379079
 20
606.9561227128467
 30
0.0
  0
ENDBLK
  5
2347
330
233C
100
AcDbEntity
  8
0
100
AcDbBlockEnd
  0
BLOCK
  5
2352
330
2348
100
AcDbEntity
  8
0
100
AcDbBlockBegin
  2
*D21
 70
     1
 10
0.0
 20
0.0
 30
0.0
  3
*D21
  1

  0
LINE
  5
24AC
330
2348
100
AcDbEntity
  8
AM_5
100
AcDbLine
 10
2870.206173790791
 20
508.9561227128467
 30
0.0
 11
2889.70617379079
 21
508.9561227128467
 31
0.0
  0
LINE
  5
24AD
330
2348
100
AcDbEntity
  8
AM_5
100
AcDbLine
 10
2855.20617379079
 20
635.9561227128467
 30
0.0
 11
2889.70617379079
 21
635.9561227128467
 31
0.0
  0
LINE
  5
24AE
330
2348
100
AcDbEntity
  8
AM_5
100
AcDbLine
 10
2888.20617379079
 20
511.9561227128468
 30
0.0
 11
2888.20617379079
 21
632.9561227128468
 31
0.0
  0
SOLID
  5
24AF
330
2348
100
AcDbEntity
  8
AM_5
100
AcDbTrace
 10
2887.70617379079
 20
511.9561227128468
 30
0.0
 11
2888.70617379079
 21
511.9561227128468
 31
0.0
 12
2888.20617379079
 22
508.9561227128467
 32
0.0
 13
2888.20617379079
 23
508.9561227128467
 33
0.0
  0
SOLID
  5
24B0
330
2348
100
AcDbEntity
  8
AM_5
100
AcDbTrace
 10
2887.70617379079
 20
632.9561227128468
 30
0.0
 11
2888.70617379079
 21
632.9561227128468
 31
0.0
 12
2888.20617379079
 22
635.9561227128467
 32
0.0
 13
2888.20617379079
 23
635.9561227128467
 33
0.0
  0
MTEXT
  5
24B1
330
2348
100
AcDbEntity
  8
AM_5
100
AcDbMText
 10
2885.70617379079
 20
572.4561227128472
 30
0.0
 40
3.0
 41
0.0
 71
     5
 72
     1
  1
127
  7
CHINESET
 11
0.0000000000000001
 21
1.0
 31
0.0
 73
     1
 44
1.0
1001
ACAD
1000
MTEXTBEGIN
1070
    73
1070
     1
1070
    44
1040
1.0
1070
    74
1070
     0
1000
MTEXTEND
  0
POINT
  5
24B2
330
2348
100
AcDbEntity
  8
Defpoints
 62
     0
100
AcDbPoint
 10
2869.20617379079
 20
508.9561227128467
 30
0.0
  0
POINT
  5
24B3
330
2348
100
AcDbEntity
  8
Defpoints
 62
     0
100
AcDbPoint
 10
2854.206173790791
 20
635.9561227128467
 30
0.0
  0
POINT
  5
24B4
330
2348
100
AcDbEntity
  8
Defpoints
 62
     0
100
AcDbPoint
 10
2888.20617379079
 20
635.9561227128467
 30
0.0
  0
ENDBLK
  5
2353
330
2348
100
AcDbEntity
  8
0
100
AcDbBlockEnd
  0
BLOCK
  5
235E
330
2354
100
AcDbEntity
  8
0
100
AcDbBlockBegin
  2
*D22
 70
     1
 10
0.0
 20
0.0
 30
0.0
  3
*D22
  1

  0
LINE
  5
24BE
330
2354
100
AcDbEntity
  8
AM_5
100
AcDbLine
 10
2855.20617379079
 20
654.9561227128467
 30
0.0
 11
2889.70617379079
 21
654.9561227128467
 31
0.0
  0
LINE
  5
24BF
330
2354
100
AcDbEntity
  8
AM_5
100
AcDbLine
 10
2855.20617379079
 20
635.9561227128467
 30
0.0
 11
2889.70617379079
 21
635.9561227128467
 31
0.0
  0
LINE
  5
24C0
330
2354
100
AcDbEntity
  8
AM_5
100
AcDbLine
 10
2888.20617379079
 20
651.9561227128467
 30
0.0
 11
2888.20617379079
 21
638.9561227128467
 31
0.0
  0
SOLID
  5
24C1
330
2354
100
AcDbEntity
  8
AM_5
100
AcDbTrace
 10
2887.70617379079
 20
651.9561227128467
 30
0.0
 11
2888.70617379079
 21
651.9561227128467
 31
0.0
 12
2888.20617379079
 22
654.9561227128467
 32
0.0
 13
2888.20617379079
 23
654.9561227128467
 33
0.0
  0
SOLID
  5
24C2
330
2354
100
AcDbEntity
  8
AM_5
100
AcDbTrace
 10
2887.70617379079
 20
638.9561227128467
 30
0.0
 11
2888.70617379079
 21
638.9561227128467
 31
0.0
 12
2888.20617379079
 22
635.9561227128467
 32
0.0
 13
2888.20617379079
 23
635.9561227128467
 33
0.0
  0
MTEXT
  5
24C3
330
2354
100
AcDbEntity
  8
AM_5
100
AcDbMText
 10
2885.70617379079
 20
645.4561227128472
 30
0.0
 40
3.0
 41
0.0
 71
     5
 72
     1
  1
19
  7
CHINESET
 11
0.0000000000000001
 21
1.0
 31
0.0
 73
     1
 44
1.0
1001
ACAD
1000
MTEXTBEGIN
1070
    73
1070
     1
1070
    44
1040
1.0
1070
    74
1070
     0
1000
MTEXTEND
  0
POINT
  5
24C4
330
2354
100
AcDbEntity
  8
Defpoints
 62
     0
100
AcDbPoint
 10
2854.206173790791
 20
654.9561227128467
 30
0.0
  0
POINT
  5
24C5
330
2354
100
AcDbEntity
  8
Defpoints
 62
     0
100
AcDbPoint
 10
2854.206173790791
 20
635.9561227128467
 30
0.0
  0
POINT
  5
24C6
330
2354
100
AcDbEntity
  8
Defpoints
 62
     0
100
AcDbPoint
 10
2888.20617379079
 20
635.9561227128467
 30
0.0
  0
ENDBLK
  5
235F
330
2354
100
AcDbEntity
  8
0
100
AcDbBlockEnd
  0
BLOCK
  5
236A
330
2360
100
AcDbEntity
  8
0
100
AcDbBlockBegin
  2
*D23
 70
     1
 10
0.0
 20
0.0
 30
0.0
  3
*D23
  1

  0
LINE
  5
2399
330
2360
100
AcDbEntity
  8
AM_5
100
AcDbLine
 10
2807.20617379079
 20
552.9561227128469
 30
0.0
 11
2807.20617379079
 21
548.8047774801218
 31
0.0
  0
LINE
  5
239A
330
2360
100
AcDbEntity
  8
AM_5
100
AcDbLine
 10
2867.206173790791
 20
552.9561227128467
 30
0.0
 11
2867.206173790791
 21
548.8047774801218
 31
0.0
  0
LINE
  5
239B
330
2360
100
AcDbEntity
  8
AM_5
100
AcDbLine
 10
2810.20617379079
 20
550.3047774801218
 30
0.0
 11
2864.20617379079
 21
550.3047774801218
 31
0.0
  0
SOLID
  5
239C
330
2360
100
AcDbEntity
  8
AM_5
100
AcDbTrace
 10
2810.20617379079
 20
550.8047774801219
 30
0.0
 11
2810.20617379079
 21
549.8047774801218
 31
0.0
 12
2807.20617379079
 22
550.3047774801218
 32
0.0
 13
2807.20617379079
 23
550.3047774801218
 33
0.0
  0
SOLID
  5
239D
330
2360
100
AcDbEntity
  8
AM_5
100
AcDbTrace
 10
2864.20617379079
 20
550.8047774801219
 30
0.0
 11
2864.20617379079
 21
549.8047774801218
 31
0.0
 12
2867.206173790791
 22
550.3047774801218
 32
0.0
 13
2867.206173790791
 23
550.3047774801218
 33
0.0
  0
MTEXT
  5
239E
330
2360
100
AcDbEntity
  8
AM_5
100
AcDbMText
 10
2837.20617379079
 20
552.8047774801218
 30
0.0
 40
3.0
 41
0.0
 71
     5
 72
     1
  1
M60x1.5
  7
CHINESET
 73
     1
 44
1.0
1001
ACAD
1000
MTEXTBEGIN
1070
    73
1070
     1
1070
    44
1040
1.0
1070
    74
1070
     0
1000
MTEXTEND
  0
POINT
  5
239F
330
2360
100
AcDbEntity
  8
Defpoints
 62
     0
100
AcDbPoint
 10
2807.20617379079
 20
553.9561227128468
 30
0.0
  0
POINT
  5
23A0
330
2360
100
AcDbEntity
  8
Defpoints
 62
     0
100
AcDbPoint
 10
2867.206173790791
 20
553.9561227128467
 30
0.0
  0
POINT
  5
23A1
330
2360
100
AcDbEntity
  8
Defpoints
 62
     0
100
AcDbPoint
 10
2867.206173790791
 20
550.3047774801218
 30
0.0
  0
ENDBLK
  5
236B
330
2360
100
AcDbEntity
  8
0
100
AcDbBlockEnd
  0
BLOCK
  5
24D5
330
24CB
100
AcDbEntity
  8
0
100
AcDbBlockBegin
  2
*D24
 70
     1
 10
0.0
 20
0.0
 30
0.0
  3
*D24
  1

  0
LINE
  5
24FB
330
24CB
100
AcDbEntity
  8
AM_5
100
AcDbLine
 10
2870.206173790791
 20
159.2730235218529
 30
0.0
 11
2879.70617379079
 21
159.2730235218529
 31
0.0
  0
LINE
  5
24FC
330
24CB
100
AcDbEntity
  8
AM_5
100
AcDbLine
 10
2866.20617379079
 20
257.2730235218529
 30
0.0
 11
2879.70617379079
 21
257.2730235218529
 31
0.0
  0
LINE
  5
24FD
330
24CB
100
AcDbEntity
  8
AM_5
100
AcDbLine
 10
2878.20617379079
 20
162.2730235218529
 30
0.0
 11
2878.20617379079
 21
254.2730235218529
 31
0.0
  0
SOLID
  5
24FE
330
24CB
100
AcDbEntity
  8
AM_5
100
AcDbTrace
 10
2877.706173790791
 20
162.2730235218529
 30
0.0
 11
2878.70617379079
 21
162.2730235218529
 31
0.0
 12
2878.20617379079
 22
159.2730235218529
 32
0.0
 13
2878.20617379079
 23
159.2730235218529
 33
0.0
  0
SOLID
  5
24FF
330
24CB
100
AcDbEntity
  8
AM_5
100
AcDbTrace
 10
2877.706173790791
 20
254.2730235218529
 30
0.0
 11
2878.70617379079
 21
254.2730235218529
 31
0.0
 12
2878.20617379079
 22
257.2730235218529
 32
0.0
 13
2878.20617379079
 23
257.2730235218529
 33
0.0
  0
MTEXT
  5
2500
330
24CB
100
AcDbEntity
  8
AM_5
100
AcDbMText
 10
2875.706173790791
 20
208.2730235218534
 30
0.0
 40
3.0
 41
0.0
 71
     5
 72
     1
  1
98
  7
CHINESET
 11
0.0000000000000001
 21
1.0
 31
0.0
 73
     1
 44
1.0
1001
ACAD
1000
MTEXTBEGIN
1070
    73
1070
     1
1070
    44
1040
1.0
1070
    74
1070
     0
1000
MTEXTEND
  0
POINT
  5
2501
330
24CB
100
AcDbEntity
  8
Defpoints
 62
     0
100
AcDbPoint
 10
2869.20617379079
 20
159.2730235218529
 30
0.0
  0
POINT
  5
2502
330
24CB
100
AcDbEntity
  8
Defpoints
 62
     0
100
AcDbPoint
 10
2865.20617379079
 20
257.2730235218529
 30
0.0
  0
POINT
  5
2503
330
24CB
100
AcDbEntity
  8
Defpoints
 62
     0
100
AcDbPoint
 10
2878.20617379079
 20
257.2730235218529
 30
0.0
  0
ENDBLK
  5
24D6
330
24CB
100
AcDbEntity
  8
0
100
AcDbBlockEnd
  0
BLOCK
  5
24E1
330
24D7
100
AcDbEntity
  8
0
100
AcDbBlockBegin
  2
*D25
 70
     1
 10
0.0
 20
0.0
 30
0.0
  3
*D25
  1

  0
LINE
  5
2531
330
24D7
100
AcDbEntity
  8
AM_5
100
AcDbLine
 10
2870.206173790791
 20
159.2730235218529
 30
0.0
 11
2889.70617379079
 21
159.2730235218529
 31
0.0
  0
LINE
  5
2532
330
24D7
100
AcDbEntity
  8
AM_5
100
AcDbLine
 10
2855.20617379079
 20
293.2731681708781
 30
0.0
 11
2889.70617379079
 21
293.2731681708781
 31
0.0
  0
LINE
  5
2533
330
24D7
100
AcDbEntity
  8
AM_5
100
AcDbLine
 10
2888.20617379079
 20
162.2730235218529
 30
0.0
 11
2888.20617379079
 21
290.2731681708781
 31
0.0
  0
SOLID
  5
2534
330
24D7
100
AcDbEntity
  8
AM_5
100
AcDbTrace
 10
2887.70617379079
 20
162.2730235218529
 30
0.0
 11
2888.70617379079
 21
162.2730235218529
 31
0.0
 12
2888.20617379079
 22
159.2730235218529
 32
0.0
 13
2888.20617379079
 23
159.2730235218529
 33
0.0
  0
SOLID
  5
2535
330
24D7
100
AcDbEntity
  8
AM_5
100
AcDbTrace
 10
2887.70617379079
 20
290.2731681708781
 30
0.0
 11
2888.70617379079
 21
290.2731681708781
 31
0.0
 12
2888.20617379079
 22
293.2731681708781
 32
0.0
 13
2888.20617379079
 23
293.2731681708781
 33
0.0
  0
MTEXT
  5
2536
330
24D7
100
AcDbEntity
  8
AM_5
100
AcDbMText
 10
2885.70617379079
 20
226.2730958463659
 30
0.0
 40
3.0
 41
0.0
 71
     5
 72
     1
  1
134
  7
CHINESET
 11
0.0000000000000001
 21
1.0
 31
0.0
 73
     1
 44
1.0
1001
ACAD
1000
MTEXTBEGIN
1070
    73
1070
     1
1070
    44
1040
1.0
1070
    74
1070
     0
1000
MTEXTEND
  0
POINT
  5
2537
330
24D7
100
AcDbEntity
  8
Defpoints
 62
     0
100
AcDbPoint
 10
2869.20617379079
 20
159.2730235218529
 30
0.0
  0
POINT
  5
2538
330
24D7
100
AcDbEntity
  8
Defpoints
 62
     0
100
AcDbPoint
 10
2854.206173790791
 20
293.2731681708781
 30
0.0
  0
POINT
  5
2539
330
24D7
100
AcDbEntity
  8
Defpoints
 62
     0
100
AcDbPoint
 10
2888.20617379079
 20
293.2731681708781
 30
0.0
  0
ENDBLK
  5
24E2
330
24D7
100
AcDbEntity
  8
0
100
AcDbBlockEnd
  0
BLOCK
  5
24ED
330
24E3
100
AcDbEntity
  8
0
100
AcDbBlockBegin
  2
*D26
 70
     1
 10
0.0
 20
0.0
 30
0.0
  3
*D26
  1

  0
LINE
  5
2528
330
24E3
100
AcDbEntity
  8
AM_5
100
AcDbLine
 10
2855.20617379079
 20
312.2731681708781
 30
0.0
 11
2889.70617379079
 21
312.2731681708781
 31
0.0
  0
LINE
  5
2529
330
24E3
100
AcDbEntity
  8
AM_5
100
AcDbLine
 10
2855.20617379079
 20
293.2731681708781
 30
0.0
 11
2889.70617379079
 21
293.2731681708781
 31
0.0
  0
LINE
  5
252A
330
24E3
100
AcDbEntity
  8
AM_5
100
AcDbLine
 10
2888.20617379079
 20
309.2731681708781
 30
0.0
 11
2888.20617379079
 21
296.2731681708781
 31
0.0
  0
SOLID
  5
252B
330
24E3
100
AcDbEntity
  8
AM_5
100
AcDbTrace
 10
2887.70617379079
 20
309.2731681708781
 30
0.0
 11
2888.70617379079
 21
309.2731681708781
 31
0.0
 12
2888.20617379079
 22
312.2731681708781
 32
0.0
 13
2888.20617379079
 23
312.2731681708781
 33
0.0
  0
SOLID
  5
252C
330
24E3
100
AcDbEntity
  8
AM_5
100
AcDbTrace
 10
2887.70617379079
 20
296.2731681708781
 30
0.0
 11
2888.70617379079
 21
296.2731681708781
 31
0.0
 12
2888.20617379079
 22
293.2731681708781
 32
0.0
 13
2888.20617379079
 23
293.2731681708781
 33
0.0
  0
MTEXT
  5
252D
330
24E3
100
AcDbEntity
  8
AM_5
100
AcDbMText
 10
2885.70617379079
 20
302.7731681708786
 30
0.0
 40
3.0
 41
0.0
 71
     5
 72
     1
  1
19
  7
CHINESET
 11
0.0000000000000001
 21
1.0
 31
0.0
 73
     1
 44
1.0
1001
ACAD
1000
MTEXTBEGIN
1070
    73
1070
     1
1070
    44
1040
1.0
1070
    74
1070
     0
1000
MTEXTEND
  0
POINT
  5
252E
330
24E3
100
AcDbEntity
  8
Defpoints
 62
     0
100
AcDbPoint
 10
2854.206173790791
 20
312.2731681708781
 30
0.0
  0
POINT
  5
252F
330
24E3
100
AcDbEntity
  8
Defpoints
 62
     0
100
AcDbPoint
 10
2854.206173790791
 20
293.2731681708781
 30
0.0
  0
POINT
  5
2530
330
24E3
100
AcDbEntity
  8
Defpoints
 62
     0
100
AcDbPoint
 10
2888.20617379079
 20
293.2731681708781
 30
0.0
  0
ENDBLK
  5
24EE
330
24E3
100
AcDbEntity
  8
0
100
AcDbBlockEnd
  0
BLOCK
  5
24F9
330
24EF
100
AcDbEntity
  8
0
100
AcDbBlockBegin
  2
*D27
 70
     1
 10
0.0
 20
0.0
 30
0.0
  3
*D27
  1

  0
LINE
  5
2516
330
24EF
100
AcDbEntity
  8
AM_5
100
AcDbLine
 10
2807.20617379079
 20
203.273023521853
 30
0.0
 11
2807.20617379079
 21
199.121678289128
 31
0.0
  0
LINE
  5
2517
330
24EF
100
AcDbEntity
  8
AM_5
100
AcDbLine
 10
2867.206173790791
 20
203.2730235218529
 30
0.0
 11
2867.206173790791
 21
199.121678289128
 31
0.0
  0
LINE
  5
2518
330
24EF
100
AcDbEntity
  8
AM_5
100
AcDbLine
 10
2810.20617379079
 20
200.621678289128
 30
0.0
 11
2864.20617379079
 21
200.621678289128
 31
0.0
  0
SOLID
  5
2519
330
24EF
100
AcDbEntity
  8
AM_5
100
AcDbTrace
 10
2810.20617379079
 20
201.121678289128
 30
0.0
 11
2810.20617379079
 21
200.121678289128
 31
0.0
 12
2807.20617379079
 22
200.621678289128
 32
0.0
 13
2807.20617379079
 23
200.621678289128
 33
0.0
  0
SOLID
  5
251A
330
24EF
100
AcDbEntity
  8
AM_5
100
AcDbTrace
 10
2864.20617379079
 20
201.121678289128
 30
0.0
 11
2864.20617379079
 21
200.121678289128
 31
0.0
 12
2867.206173790791
 22
200.621678289128
 32
0.0
 13
2867.206173790791
 23
200.621678289128
 33
0.0
  0
MTEXT
  5
251B
330
24EF
100
AcDbEntity
  8
AM_5
100
AcDbMText
 10
2837.20617379079
 20
203.121678289128
 30
0.0
 40
3.0
 41
0.0
 71
     5
 72
     1
  1
M60x1.5
  7
CHINESET
 73
     1
 44
1.0
1001
ACAD
1000
MTEXTBEGIN
1070
    73
1070
     1
1070
    44
1040
1.0
1070
    74
1070
     0
1000
MTEXTEND
  0
POINT
  5
251C
330
24EF
100
AcDbEntity
  8
Defpoints
 62
     0
100
AcDbPoint
 10
2807.20617379079
 20
204.273023521853
 30
0.0
  0
POINT
  5
251D
330
24EF
100
AcDbEntity
  8
Defpoints
 62
     0
100
AcDbPoint
 10
2867.206173790791
 20
204.2730235218529
 30
0.0
  0
POINT
  5
251E
330
24EF
100
AcDbEntity
  8
Defpoints
 62
     0
100
AcDbPoint
 10
2867.206173790791
 20
200.621678289128
 30
0.0
  0
ENDBLK
  5
24FA
330
24EF
100
AcDbEntity
  8
0
100
AcDbBlockEnd
  0
ENDSEC
  0
SECTION
  2
ENTITIES
  0
TEXT
  5
1728
330
1F
100
AcDbEntity
  8
LOGO
 62
     7
100
AcDbText
 10
2113.293317906104
 20
70.05363340389862
 30
0.0
 40
10.6651221719457
  1
Order example:
 41
0.8
  7
CHINESET
100
AcDbText
  0
TEXT
  5
1729
330
1F
100
AcDbEntity
  8
LOGO
 62
     7
100
AcDbText
 10
2115.206729020723
 20
85.06791718027557
 30
0.0
 40
15.99768325791855
  1
訂購代號:
  7
CHINESET
100
AcDbText
  0
LINE
  5
172A
330
1F
100
AcDbEntity
  8
LOGO
 62
     1
100
AcDbLine
 10
3032.684770311274
 20
105.0951974611587
 30
0.0
 11
1932.684770311274
 21
105.0951974611587
 31
0.0
  0
LINE
  5
172B
330
1F
100
AcDbEntity
  8
LOGO
 62
     1
100
AcDbLine
 10
2108.659286148379
 20
25.10678117156544
 30
0.0
 11
2108.659286148379
 21
105.0951974611587
 31
0.0
  0
TEXT
  5
172C
330
1F
100
AcDbEntity
  8
LOGO
  6
Continuous
 62
     5
100
AcDbText
 10
1961.416968997384
 20
40.82038483861083
 30
0.0
 40
11.99826244343891
  1
金器工業股份有限公司
  7
CHINESET
100
AcDbText
  0
TEXT
  5
172D
330
1F
100
AcDbEntity
  8
LOGO
  6
Continuous
 62
     5
100
AcDbText
 10
1939.378534627951
 20
28.81977167643322
 30
0.0
 40
7.998841628959275
  1
MINDMAN INDUSTRIAL CO., LTD.
 41
0.85
  7
CHINESET
100
AcDbText
  0
LINE
  5
172E
330
1F
100
AcDbEntity
  8
LOGO
 62
     1
100
AcDbLine
 10
2108.659286148379
 20
89.09751420324004
 30
0.0
 11
1991.342942256975
 21
89.09751420324004
 31
0.0
  0
LINE
  5
172F
330
1F
100
AcDbEntity
  8
LOGO
 62
     1
100
AcDbLine
 10
2108.659286148379
 20
73.0998309453214
 30
0.0
 11
1991.342942256975
 21
73.0998309453214
 31
0.0
  0
LINE
  5
1730
330
1F
100
AcDbEntity
  8
LOGO
 62
     1
100
AcDbLine
 10
2108.659286148379
 20
57.10214768740366
 30
0.0
 11
1932.684770311274
 21
57.10214768740366
 31
0.0
  0
LINE
  5
1731
330
1F
100
AcDbEntity
  8
LOGO
 62
     1
100
AcDbLine
 10
1991.342942256975
 20
57.10214768740366
 30
0.0
 11
1991.342942256975
 21
105.0951974611587
 31
0.0
  0
TEXT
  5
1732
330
1F
100
AcDbEntity
  8
LOGO
 62
     6
100
AcDbText
 10
2067.333256634968
 20
61.10156850188198
 30
0.0
 40
7.998841628959275
  1
m/m
  7
CHINESET
 72
     1
 11
2081.426453790753
 21
65.10098931636162
 31
0.0
100
AcDbText
 73
     2
  0
TEXT
  5
1733
330
1F
100
AcDbEntity
  8
LOGO
 62
     6
100
AcDbText
 10
2067.333256634968
 20
93.0969350177193
 30
0.0
 40
7.998841628959275
  1
1 : 1
  7
CHINESET
 72
     1
 11
2081.426453790753
 21
97.09635583219892
 31
0.0
100
AcDbText
 73
     2
  0
LINE
  5
1734
330
1F
100
AcDbEntity
  8
LOGO
 62
     1
100
AcDbLine
 10
2055.33367528865
 20
57.10214768740366
 30
0.0
 11
2055.33367528865
 21
105.0951974611587
 31
0.0
  0
CIRCLE
  5
1735
330
1F
100
AcDbEntity
  8
LOGO
  6
Continuous
 62
     6
100
AcDbCircle
 10
2070.144531043963
 20
81.11578215505938
 30
0.0
 40
4.644315721282525
  0
CIRCLE
  5
1736
330
1F
100
AcDbEntity
  8
LOGO
  6
Continuous
 62
     6
100
AcDbCircle
 10
2070.144531043963
 20
81.11578215505938
 30
0.0
 40
2.721157874662388
  0
LINE
  5
1737
330
1F
100
AcDbEntity
  8
LOGO
 62
     6
100
AcDbLine
 10
2099.329949940109
 20
76.47146643377595
 30
0.0
 11
2099.329949940109
 21
85.7600978763428
 31
0.0
  0
LINE
  5
1738
330
1F
100
AcDbEntity
  8
LOGO
 62
     6
100
AcDbLine
 10
2084.770286750332
 20
78.39462428039746
 30
0.0
 11
2084.770286750332
 21
83.8369400297222
 31
0.0
  0
LINE
  5
1739
330
1F
100
AcDbEntity
  8
LOGO
  6
Continuous
 62
     6
100
AcDbLine
 10
2084.770286750332
 20
83.8369400297222
 30
0.0
 11
2099.329949940109
 21
85.7600978763428
 31
0.0
  0
LINE
  5
173A
330
1F
100
AcDbEntity
  8
LOGO
  6
Continuous
 62
     6
100
AcDbLine
 10
2084.770286750332
 20
78.39462428039746
 30
0.0
 11
2099.329949940109
 21
76.47146643377595
 31
0.0
  0
TEXT
  5
173B
330
1F
100
AcDbEntity
  8
LOGO
 62
     6
100
AcDbText
 10
1997.938415689425
 20
93.10087145552882
 30
524.2309030401992
 40
7.998841628959275
  1
比例 Scale:
 41
0.9
  7
CHINESET
 72
     4
 11
2023.338308772812
 21
97.09635583219892
 31
524.2309030401992
100
AcDbText
  0
TEXT
  5
173C
330
1F
100
AcDbEntity
  8
LOGO
 62
     6
100
AcDbText
 10
1997.477768113472
 20
77.2117682738563
 30
524.2309030401992
 40
7.998841628959275
  1
投影  View:
 41
0.9
  7
CHINESET
 72
     4
 11
2023.338308772812
 21
81.09867257428026
 31
524.2309030401992
100
AcDbText
  0
TEXT
  5
173D
330
1F
100
AcDbEntity
  8
LOGO
 62
     6
100
AcDbText
 10
1998.25979771916
 20
61.10156850188198
 30
524.2309030401992
 40
7.998841628959275
  1
單位  Unit:
 41
0.9
  7
CHINESET
 72
     4
 11
2023.338308772812
 21
65.10098931636162
 31
524.2309030401992
100
AcDbText
  0
LWPOLYLINE
  5
173E
330
1F
100
AcDbEntity
  8
0
 62
     4
100
AcDbPolyline
 90
        4
 70
     1
 43
0.0
 10
1932.684770311274
 20
105.0951974611587
 10
3032.684770311274
 20
105.0951974611587
 10
3032.684770311274
 20
825.1067811715641
 10
1932.684770311274
 20
825.1067811715641
1001
GENIUS_GENREC_14
1002
{
1000
PYDIR
1011
1932.684770311274
1021
825.1067811715641
1031
0.0
1002
}
1002
{
1000
PXDIR
1011
3032.684770311274
1021
105.0951974611587
1031
0.0
1002
}
1002
{
1000
PORI
1011
1932.684770311274
1021
105.0951974611587
1031
0.0
1002
}
1002
{
1000
PINS
1011
1932.684770311274
1021
105.0951974611587
1031
0.0
1002
}
1002
{
1000
PINS2
1011
3032.684770311274
1021
825.1067811715641
1031
0.0
1002
}
1002
{
1000
C
1070
     1
1002
}
1001
GENIUS_GENODEF_13
1002
{
1000
HIER
1070
     0
1002
}
1002
{
1000
MANEDIT
1070
     0
1002
}
1002
{
1000
NOSEL
1070
     0
1002
}
1002
{
1000
BEHIND
1070
     0
1002
}
1002
{
1000
OTHER
1070
     0
1002
}
1002
{
1000
REACTOR
1002
}
1001
GENIUS_GENOBJ-N-REC_13
1002
{
1000
OWNER
1000
GEN
1002
}
  0
SOLID
  5
173F
330
1F
100
AcDbEntity
  8
LOGO
 62
     5
100
AcDbTrace
 10
1940.983696872963
 20
70.39908335009727
 30
0.0
 11
1944.442186103721
 21
70.39908335009636
 31
0.0
 12
1958.872434273433
 22
103.1951019176274
 32
0.0
 13
1962.330923504192
 23
103.1951019176256
 33
0.0
  0
SOLID
  5
1740
330
1F
100
AcDbEntity
  8
LOGO
 62
     5
100
AcDbTrace
 10
1945.873285095762
 20
70.39908335009727
 30
0.0
 11
1949.33177432652
 21
70.39908335009727
 31
0.0
 12
1962.330923504192
 22
100.5714204322237
 32
0.0
 13
1958.872434273433
 23
87.89029325277875
 33
0.0
  0
SOLID
  5
1741
330
1F
100
AcDbEntity
  8
LOGO
 62
     2
100
AcDbTrace
 10
1944.442186103721
 20
70.39908335009636
 30
0.0
 11
1945.873285095762
 21
70.39908335009727
 31
0.0
 12
1962.330923504192
 22
103.1951019176256
 32
0.0
 13
1963.762022496232
 23
103.1951019176256
 33
0.0
  0
SOLID
  5
1742
330
1F
100
AcDbEntity
  8
LOGO
 62
     5
100
AcDbTrace
 10
1935.43889051061
 20
58.47325841645101
 30
0.0
 11
1936.631473003975
 21
58.47325841645101
 31
0.0
 12
1939.989878128494
 22
64.43617088327369
 32
0.0
 13
1941.182460621856
 23
64.43617088327369
 33
0.0
  0
SOLID
  5
1743
330
1F
100
AcDbEntity
  8
LOGO
 62
     5
100
AcDbTrace
 10
1939.989878128494
 20
64.43617088327369
 30
0.0
 11
1941.182460621856
 21
64.43617088327369
 31
0.0
 12
1939.989878128494
 22
58.47325841645101
 32
0.0
 13
1941.182460621856
 23
58.47325841645101
 33
0.0
  0
SOLID
  5
1744
330
1F
100
AcDbEntity
  8
LOGO
 62
     5
100
AcDbTrace
 10
1939.989878128494
 20
58.47325841645101
 30
0.0
 11
1941.182460621856
 21
58.47325841645101
 31
0.0
 12
1944.540865746379
 22
64.43617088327369
 32
0.0
 13
1945.733448239744
 23
64.43617088327369
 33
0.0
  0
SOLID
  5
1745
330
1F
100
AcDbEntity
  8
LOGO
 62
     5
100
AcDbTrace
 10
1944.540865746379
 20
64.43617088327369
 30
0.0
 11
1945.733448239744
 21
64.43617088327369
 31
0.0
 12
1944.540865746379
 22
58.47325841645101
 32
0.0
 13
1945.733448239744
 23
58.47325841645101
 33
0.0
  0
POLYLINE
  5
1746
330
1F
100
AcDbEntity
  8
LOGO
 62
     5
100
AcDb2dPolyline
 66
     1
 10
0.0
 20
0.0
 30
0.0
 40
1.194493683257918
 41
1.194493683257918
  0
VERTEX
  5
1747
330
1746
100
AcDbEntity
  8
LOGO
 62
     5
100
AcDbVertex
100
AcDb2dVertex
 10
1984.515824665617
 20
62.05100589654444
 30
0.0
 42
1.0
  0
VERTEX
  5
1748
330
1746
100
AcDbEntity
  8
LOGO
 62
     5
100
AcDbVertex
100
AcDb2dVertex
 10
1980.932343615843
 20
62.05100589654444
 30
0.0
 42
1.0
  0
SEQEND
  5
1749
330
1746
100
AcDbEntity
  8
LOGO
 62
     5
  0
POLYLINE
  5
174A
330
1F
100
AcDbEntity
  8
LOGO
 62
     5
100
AcDb2dPolyline
 66
     1
 10
0.0
 20
0.0
 30
0.0
 70
     1
  0
VERTEX
  5
174B
330
174A
100
AcDbEntity
  8
LOGO
 62
     5
100
AcDbVertex
100
AcDb2dVertex
 10
1974.17732244378
 20
61.45471464986144
 30
0.0
 42
1.000000057330635
  0
VERTEX
  5
174C
330
174A
100
AcDbEntity
  8
LOGO
 62
     5
100
AcDbVertex
100
AcDb2dVertex
 10
1977.755069923874
 20
61.45471464986144
 30
0.0
 42
1.000000057330635
  0
SEQEND
  5
174D
330
174A
100
AcDbEntity
  8
LOGO
 62
     5
  0
CIRCLE
  5
174E
330
1F
100
AcDbEntity
  8
LOGO
 62
     5
100
AcDbCircle
 10
1975.96619618383
 20
61.45471464986144
 30
0.0
 40
1.788873740047058
  0
POLYLINE
  5
174F
330
1F
100
AcDbEntity
  8
LOGO
 62
     5
100
AcDb2dPolyline
 66
     1
 10
0.0
 20
0.0
 30
0.0
 70
     1
 40
1.194493683257918
 41
1.194493683257918
  0
VERTEX
  5
1750
330
174F
100
AcDbEntity
  8
LOGO
 62
     5
100
AcDbVertex
100
AcDb2dVertex
 10
1973.577208817312
 20
61.45471464986144
 30
0.0
 42
1.0
  0
VERTEX
  5
1751
330
174F
100
AcDbEntity
  8
LOGO
 62
     5
100
AcDbVertex
100
AcDb2dVertex
 10
1978.355183550344
 20
61.45471464986144
 30
0.0
 42
1.0
  0
SEQEND
  5
1752
330
174F
100
AcDbEntity
  8
LOGO
 62
     5
  0
LINE
  5
1753
330
1F
100
AcDbEntity
  8
LOGO
 62
     5
100
AcDbLine
 10
1985.109249127457
 20
58.47325841645101
 30
0.0
 11
1985.109249127457
 21
62.05100589654444
 31
0.0
  0
SOLID
  5
1754
330
1F
100
AcDbEntity
  8
LOGO
 62
     5
100
AcDbTrace
 10
1977.75495066563
 20
64.43617088327369
 30
0.0
 11
1978.947533158993
 21
64.43617088327369
 31
0.0
 12
1977.75495066563
 22
58.47325841645101
 32
0.0
 13
1978.947533158993
 23
58.47325841645101
 33
0.0
  0
SOLID
  5
1755
330
1F
100
AcDbEntity
  8
LOGO
 62
     5
100
AcDbTrace
 10
1980.338919153999
 20
58.47325841645101
 30
0.0
 11
1981.531501647365
 21
58.47325841645101
 31
0.0
 12
1980.338919153999
 22
64.43617088327369
 32
0.0
 13
1981.531501647365
 23
64.43617088327369
 33
0.0
  0
SOLID
  5
1756
330
1F
100
AcDbEntity
  8
LOGO
 62
     5
100
AcDbTrace
 10
1983.916666634095
 20
62.05100589654444
 30
0.0
 11
1985.109249127457
 21
62.05100589654444
 31
0.0
 12
1983.916666634095
 22
58.47325841645101
 32
0.0
 13
1985.109249127457
 23
58.47325841645101
 33
0.0
  0
SOLID
  5
1757
330
1F
100
AcDbEntity
  8
LOGO
 62
     5
100
AcDbTrace
 10
1980.219660904662
 20
100.5714204322237
 30
0.0
 11
1976.761171673906
 21
87.89029325277875
 31
0.0
 12
1980.219660904662
 22
70.39908335009636
 32
0.0
 13
1976.761171673906
 23
70.39908335009636
 33
0.0
  0
SOLID
  5
1758
330
1F
100
AcDbEntity
  8
LOGO
 62
     5
100
AcDbTrace
 10
1981.650759896702
 20
70.39908335009636
 30
0.0
 11
1985.109249127457
 21
70.39908335009636
 31
0.0
 12
1981.650759896702
 22
103.1951019176256
 32
0.0
 13
1985.109249127457
 23
103.1951019176274
 33
0.0
  0
SOLID
  5
1759
330
1F
100
AcDbEntity
  8
LOGO
 62
     2
100
AcDbTrace
 10
1980.219660904662
 20
103.1951019176274
 30
0.0
 11
1981.650759896702
 21
103.1951019176256
 31
0.0
 12
1980.219660904662
 22
70.39908335009636
 32
0.0
 13
1981.650759896702
 23
70.39908335009636
 33
0.0
  0
POLYLINE
  5
175A
330
1F
100
AcDbEntity
  8
LOGO
 62
     5
100
AcDb2dPolyline
 66
     1
 10
0.0
 20
0.0
 30
0.0
 40
1.194493683257918
 41
1.194493683257918
  0
VERTEX
  5
175B
330
175A
100
AcDbEntity
  8
LOGO
 62
     5
100
AcDbVertex
100
AcDb2dVertex
 10
1967.422062755224
 20
62.05100589654444
 30
0.0
 42
1.0
  0
VERTEX
  5
175C
330
175A
100
AcDbEntity
  8
LOGO
 62
     5
100
AcDbVertex
100
AcDb2dVertex
 10
1963.838581705449
 20
62.05100589654444
 30
0.0
 42
1.0
  0
SEQEND
  5
175D
330
175A
100
AcDbEntity
  8
LOGO
 62
     5
  0
POLYLINE
  5
175E
330
1F
100
AcDbEntity
  8
LOGO
 62
     5
100
AcDb2dPolyline
 66
     1
 10
0.0
 20
0.0
 30
0.0
 40
1.194493683257918
 41
1.194493683257918
  0
VERTEX
  5
175F
330
175E
100
AcDbEntity
  8
LOGO
 62
     5
100
AcDbVertex
100
AcDb2dVertex
 10
1970.999810235315
 20
62.05100589654444
 30
0.0
 42
1.0
  0
VERTEX
  5
1760
330
175E
100
AcDbEntity
  8
LOGO
 62
     5
100
AcDbVertex
100
AcDb2dVertex
 10
1967.416329185542
 20
62.05100589654444
 30
0.0
 42
1.0
  0
SEQEND
  5
1761
330
175E
100
AcDbEntity
  8
LOGO
 62
     5
  0
POLYLINE
  5
1762
330
1F
100
AcDbEntity
  8
LOGO
 62
     5
100
AcDb2dPolyline
 66
     1
 10
0.0
 20
0.0
 30
0.0
 40
1.194493683257918
 41
1.194493683257918
  0
VERTEX
  5
1763
330
1762
100
AcDbEntity
  8
LOGO
 62
     5
100
AcDbVertex
100
AcDb2dVertex
 10
1953.906048324921
 20
62.05100589654444
 30
0.0
 42
1.0
  0
VERTEX
  5
1764
330
1762
100
AcDbEntity
  8
LOGO
 62
     5
100
AcDbVertex
100
AcDb2dVertex
 10
1950.322567275149
 20
62.05100589654444
 30
0.0
 42
1.0
  0
SEQEND
  5
1765
330
1762
100
AcDbEntity
  8
LOGO
 62
     5
  0
SOLID
  5
1766
330
1F
100
AcDbEntity
  8
LOGO
 62
     5
100
AcDbTrace
 10
1949.729142813307
 20
64.43617088327369
 30
0.0
 11
1950.921725306669
 21
64.43617088327369
 31
0.0
 12
1949.729142813307
 22
58.47325841645101
 32
0.0
 13
1950.921725306669
 23
58.47325841645101
 33
0.0
  0
SOLID
  5
1767
330
1F
100
AcDbEntity
  8
LOGO
 62
     5
100
AcDbTrace
 10
1953.306890293401
 20
62.05100589654444
 30
0.0
 11
1954.499472786767
 21
62.05100589654444
 31
0.0
 12
1953.306890293401
 22
58.47325841645101
 32
0.0
 13
1954.499472786767
 23
58.47325841645101
 33
0.0
  0
POLYLINE
  5
1768
330
1F
100
AcDbEntity
  8
LOGO
 62
     5
100
AcDb2dPolyline
 66
     1
 10
0.0
 20
0.0
 30
0.0
 70
     1
 40
1.194493683257918
 41
1.194493683257918
  0
VERTEX
  5
1769
330
1768
100
AcDbEntity
  8
LOGO
 62
     5
100
AcDbVertex
100
AcDb2dVertex
 10
1956.483446906917
 20
61.45471464986144
 30
0.0
 42
1.0
  0
VERTEX
  5
176A
330
1768
100
AcDbEntity
  8
LOGO
 62
     5
100
AcDbVertex
100
AcDb2dVertex
 10
1961.261421639951
 20
61.45471464986144
 30
0.0
 42
1.0
  0
SEQEND
  5
176B
330
1768
100
AcDbEntity
  8
LOGO
 62
     5
  0
SOLID
  5
176C
330
1F
100
AcDbEntity
  8
LOGO
 62
     5
100
AcDbTrace
 10
1960.661188755233
 20
66.22504462332177
 30
0.0
 11
1961.853771248598
 21
66.22504462332177
 31
0.0
 12
1960.661188755233
 22
58.47325841645101
 32
0.0
 13
1961.853771248598
 23
58.47325841645101
 33
0.0
  0
SOLID
  5
176D
330
1F
100
AcDbEntity
  8
LOGO
 62
     5
100
AcDbTrace
 10
1963.245157243609
 20
64.43617088327369
 30
0.0
 11
1964.437739736971
 21
64.43617088327369
 31
0.0
 12
1963.245157243609
 22
58.47325841645101
 32
0.0
 13
1964.437739736971
 23
58.47325841645101
 33
0.0
  0
SOLID
  5
176E
330
1F
100
AcDbEntity
  8
LOGO
 62
     5
100
AcDbTrace
 10
1966.8229047237
 20
62.05100589654444
 30
0.0
 11
1968.015487217066
 21
62.05100589654444
 31
0.0
 12
1966.8229047237
 22
58.47325841645101
 32
0.0
 13
1968.015487217066
 23
58.47325841645101
 33
0.0
  0
SOLID
  5
176F
330
1F
100
AcDbEntity
  8
LOGO
 62
     5
100
AcDbTrace
 10
1970.400652203794
 20
62.05100589654444
 30
0.0
 11
1971.593234697158
 21
62.05100589654444
 31
0.0
 12
1970.400652203794
 22
58.4732584164492
 32
0.0
 13
1971.593234697158
 23
58.4732584164492
 33
0.0
  0
SOLID
  5
1770
330
1F
100
AcDbEntity
  8
LOGO
 62
     5
100
AcDbTrace
 10
1947.145174324933
 20
65.27097862862934
 30
0.0
 11
1948.3377568183
 21
65.27097862862934
 31
0.0
 12
1947.145174324933
 22
66.22504462332177
 32
0.0
 13
1948.3377568183
 23
66.22504462332177
 33
0.0
  0
SOLID
  5
1771
330
1F
100
AcDbEntity
  8
LOGO
 62
     5
100
AcDbTrace
 10
1947.145174324933
 20
64.43617088327369
 30
0.0
 11
1948.3377568183
 21
64.43617088327369
 31
0.0
 12
1947.145174324933
 22
58.4732584164492
 32
0.0
 13
1948.3377568183
 23
58.47325841645101
 33
0.0
  0
SOLID
  5
1772
330
1F
100
AcDbEntity
  8
LOGO
 62
     5
100
AcDbTrace
 10
1958.872434273433
 20
70.39908335009727
 30
0.0
 11
1962.330923504192
 21
70.39908335009727
 31
0.0
 12
1958.872434273433
 22
87.89029325277875
 32
0.0
 13
1962.330923504192
 23
100.5714204322237
 33
0.0
  0
SOLID
  5
1773
330
1F
100
AcDbEntity
  8
LOGO
 62
     5
100
AcDbTrace
 10
1963.762022496232
 20
103.1951019176256
 30
0.0
 11
1967.220511726988
 21
103.1951019176274
 31
0.0
 12
1963.762022496232
 22
73.02276483549917
 32
0.0
 13
1967.220511726988
 23
85.70389201494412
 33
0.0
  0
SOLID
  5
1774
330
1F
100
AcDbEntity
  8
LOGO
 62
     2
100
AcDbTrace
 10
1962.330923504192
 20
103.1951019176256
 30
0.0
 11
1963.762022496232
 21
103.1951019176256
 31
0.0
 12
1962.330923504192
 22
70.39908335009727
 32
0.0
 13
1963.762022496232
 23
70.39908335009727
 33
0.0
  0
SOLID
  5
1775
330
1F
100
AcDbEntity
  8
LOGO
 62
     5
100
AcDbTrace
 10
1963.762022496232
 20
73.02276483549917
 30
0.0
 11
1967.220511726988
 21
85.70389201494412
 31
0.0
 12
1980.219660904662
 22
103.1951019176274
 32
0.0
 13
1976.761171673906
 23
103.1951019176274
 33
0.0
  0
SOLID
  5
1776
330
1F
100
AcDbEntity
  8
LOGO
 62
     5
100
AcDbTrace
 10
1963.762022496232
 20
70.39908335009727
 30
0.0
 11
1967.220511726988
 21
70.39908335009727
 31
0.0
 12
1980.219660904662
 22
100.5714204322237
 32
0.0
 13
1976.761171673906
 23
87.89029325277875
 33
0.0
  0
SOLID
  5
1777
330
1F
100
AcDbEntity
  8
LOGO
 62
     2
100
AcDbTrace
 10
1962.330923504192
 20
70.39908335009727
 30
0.0
 11
1963.762022496232
 21
70.39908335009727
 31
0.0
 12
1980.219660904662
 22
103.1951019176274
 32
0.0
 13
1981.650759896702
 23
103.1951019176256
 33
0.0
  0
LWPOLYLINE
  5
1778
330
1F
100
AcDbEntity
  8
0
 62
     1
100
AcDbPolyline
 90
        4
 70
     1
 43
0.0
 10
1932.684770311274
 20
105.0951974611587
 10
3032.684770311274
 20
105.0951974611587
 10
3032.684770311274
 20
25.10678117156454
 10
1932.684770311274
 20
25.10678117156454
1001
GENIUS_GENREC_14
1002
{
1000
PYDIR
1011
1932.684770311274
1021
25.10678117156454
1031
0.0
1002
}
1002
{
1000
PXDIR
1011
3032.684770311274
1021
105.0951974611587
1031
0.0
1002
}
1002
{
1000
PORI
1011
1932.684770311274
1021
105.0951974611587
1031
0.0
1002
}
1002
{
1000
PINS
1011
1932.684770311274
1021
105.0951974611587
1031
0.0
1002
}
1002
{
1000
PINS2
1011
3032.684770311274
1021
25.10678117156454
1031
0.0
1002
}
1002
{
1000
C
1070
     1
1002
}
1001
GENIUS_GENOBJ-N-REC_13
1002
{
1000
OWNER
1000
GEN
1002
}
1001
GENIUS_GENODEF_13
1002
{
1000
HIER
1070
     0
1002
}
1002
{
1000
MANEDIT
1070
     0
1002
}
1002
{
1000
NOSEL
1070
     0
1002
}
1002
{
1000
BEHIND
1070
     0
1002
}
1002
{
1000
OTHER
1070
     0
1002
}
1002
{
1000
REACTOR
1002
}
  0
LINE
  5
1779
330
1F
100
AcDbEntity
  8
LOGO
 62
     6
100
AcDbLine
 10
2253.438076531225
 20
61.10156850188355
 30
0.0
 11
2253.438076531225
 21
31.77248252903132
 31
0.0
  0
LINE
  5
177A
330
1F
100
AcDbEntity
  8
LOGO
 62
     6
100
AcDbLine
 10
2218.679802688579
 20
61.10156850188355
 30
0.0
 11
2218.679802688579
 21
31.77248252903132
 31
0.0
  0
LINE
  5
177B
330
1F
100
AcDbEntity
  8
LOGO
 62
     6
100
AcDbLine
 10
2253.438076531225
 20
31.77248252903132
 30
0.0
 11
2218.679802688579
 21
31.77248252903132
 31
0.0
  0
LINE
  5
177C
330
1F
100
AcDbEntity
  8
LOGO
 62
     6
100
AcDbLine
 10
2265.830911889745
 20
97.09635583219892
 30
0.0
 11
2218.679802688579
 21
97.09635583219892
 31
0.0
  0
LINE
  5
177D
330
1F
100
AcDbEntity
  8
LOGO
 62
     6
100
AcDbLine
 10
2265.830911889745
 20
73.0998309453214
 30
0.0
 11
2218.679802688579
 21
73.0998309453214
 31
0.0
  0
LINE
  5
177E
330
1F
100
AcDbEntity
  8
LOGO
 62
     6
100
AcDbLine
 10
2218.679802688579
 20
97.09635583219892
 30
0.0
 11
2218.679802688579
 21
73.0998309453214
 31
0.0
  0
LINE
  5
177F
330
1F
100
AcDbEntity
  8
LOGO
 62
     6
100
AcDbLine
 10
2265.830911889745
 20
97.09635583219892
 30
0.0
 11
2265.830911889745
 21
73.0998309453214
 31
0.0
  0
LINE
  5
1780
330
1F
100
AcDbEntity
  8
LOGO
 62
     6
100
AcDbLine
 10
2239.567918878742
 20
73.0998309453214
 30
0.0
 11
2239.567918878742
 21
61.10156850188355
 31
0.0
  0
TEXT
  5
1781
330
1F
100
AcDbEntity
  8
LOGO
  6
Continuous
 62
     7
100
AcDbText
 10
2222.943609341699
 20
78.10907043254132
 30
0.0
 40
14.0
  1
MFT
  7
CHINESET
100
AcDbText
  0
LINE
  5
1782
330
1F
100
AcDbEntity
  8
LOGO
 62
     6
100
AcDbLine
 10
2253.438076531225
 20
61.10156850188355
 30
0.0
 11
2218.679802688579
 21
61.10156850188355
 31
0.0
  0
TEXT
  5
1783
330
1F
100
AcDbEntity
  8
LOGO
  6
Continuous
 62
     6
100
AcDbText
 10
2225.889250528475
 20
35.91222082032778
 30
524.2309030401992
 40
6.0
  1
Model
 41
0.8
  7
CHINESET
100
AcDbText
  0
TEXT
  5
1784
330
1F
100
AcDbEntity
  8
LOGO
 62
     6
100
AcDbText
 10
2224.292245576478
 20
47.03492772803724
 30
524.2309030401992
 40
10.0
  1
型號
  7
CHINESET
100
AcDbText
  0
LINE
  5
1791
330
1F
100
AcDbEntity
  8
LOGO
 62
     6
100
AcDbLine
 10
2384.499242307764
 20
61.10156850188355
 30
0.0
 11
2384.499242307764
 21
31.77248252903132
 31
0.0
  0
LINE
  5
1792
330
1F
100
AcDbEntity
  8
LOGO
 62
     6
100
AcDbLine
 10
2331.173631448035
 20
61.10156850188355
 30
0.0
 11
2331.173631448035
 21
31.77248252903132
 31
0.0
  0
LINE
  5
1793
330
1F
100
AcDbEntity
  8
LOGO
 62
     6
100
AcDbLine
 10
2384.499242307764
 20
31.77248252903132
 30
0.0
 11
2331.173631448035
 21
31.77248252903132
 31
0.0
  0
LINE
  5
1794
330
1F
100
AcDbEntity
  8
LOGO
 62
     6
100
AcDbLine
 10
2351.416092628193
 20
97.09635583219892
 30
0.0
 11
2306.541744148793
 21
97.09635583219892
 31
0.0
  0
LINE
  5
1795
330
1F
100
AcDbEntity
  8
LOGO
 62
     6
100
AcDbLine
 10
2351.416092628193
 20
73.0998309453214
 30
0.0
 11
2306.541744148793
 21
73.0998309453214
 31
0.0
  0
LINE
  5
1796
330
1F
100
AcDbEntity
  8
LOGO
 62
     6
100
AcDbLine
 10
2306.541744148793
 20
97.09635583219892
 30
0.0
 11
2306.541744148793
 21
73.0998309453214
 31
0.0
  0
LINE
  5
1797
330
1F
100
AcDbEntity
  8
LOGO
 62
     6
100
AcDbLine
 10
2351.416092628193
 20
97.09635583219892
 30
0.0
 11
2351.416092628193
 21
73.0998309453214
 31
0.0
  0
TEXT
  5
1799
330
1F
100
AcDbEntity
  8
LOGO
  6
Continuous
 62
     7
100
AcDbText
 10
2309.735617444572
 20
78.10907043254132
 30
0.0
 40
14.0
  1
32A
  7
CHINESET
100
AcDbText
  0
LINE
  5
179A
330
1F
100
AcDbEntity
  8
LOGO
 62
     6
100
AcDbLine
 10
2384.499242307764
 20
61.10156850188355
 30
0.0
 11
2331.173631448035
 21
61.10156850188355
 31
0.0
  0
TEXT
  5
17A8
330
1F
100
AcDbEntity
  8
LOGO
  6
Continuous
 62
     6
100
AcDbText
 10
2343.908860042409
 20
35.91222082032778
 30
524.2309030401992
 40
6.0
  1
Tube I.D.
 41
0.8
  7
CHINESET
100
AcDbText
  0
TEXT
  5
17A9
330
1F
100
AcDbEntity
  8
LOGO
 62
     6
100
AcDbText
 10
2346.328124686312
 20
47.03492772803724
 30
524.2309030401992
 40
10.0
  1
內徑
  7
CHINESET
100
AcDbText
  0
TEXT
  5
17B8
330
1F
100
AcDbEntity
  8
0
100
AcDbText
 10
2112.36542851333
 20
29.36213334725085
 30
0.0
 40
8.0
  1
10512265
 41
0.7
  7
CHINESET
 72
     1
 11
2131.832095179996
 21
29.36213334725085
 31
0.0
100
AcDbText
  0
LINE
  5
17B9
330
1F
100
AcDbEntity
  8
LOGO
 62
     1
100
AcDbLine
 10
2156.659286148375
 20
41.10446442948592
 30
0.0
 11
2156.659286148379
 21
25.10678117156635
 31
0.0
  0
LINE
  5
17BA
330
1F
100
AcDbEntity
  8
LOGO
 62
     1
100
AcDbLine
 10
2156.659286148375
 20
41.10446442948592
 30
0.0
 11
2108.659286148379
 21
41.10446442948592
 31
0.0
  0
LINE
  5
17BB
330
1F
100
AcDbEntity
  8
0
 62
     4
100
AcDbLine
 10
1932.684770311274
 20
465.1009893163614
 30
0.0
 11
3032.684770311274
 21
465.1009893163614
 31
0.0
  0
LINE
  5
198A
330
1F
100
AcDbEntity
  8
0
 62
     4
100
AcDbLine
 10
2298.684770311274
 20
825.1067811715641
 30
0.0
 11
2298.684770311274
 21
105.0951974611587
 31
0.0
  0
LINE
  5
198B
330
1F
100
AcDbEntity
  8
0
 62
     4
100
AcDbLine
 10
2664.684770311275
 20
825.1067811715641
 30
0.0
 11
2664.684770311275
 21
105.0951974611587
 31
0.0
  0
TEXT
  5
1A89
330
1F
100
AcDbEntity
  8
0
100
AcDbText
 10
1950.690524132943
 20
795.8336520981234
 30
0.0
 40
12.0
  1
MFT-25A
 41
0.75
  7
CHINESET
100
AcDbText
  0
TEXT
  5
1A8B
330
1F
100
AcDbEntity
  8
0
100
AcDbText
 10
2316.690524132943
 20
795.8336520981234
 30
0.0
 40
12.0
  1
MFT-32A
 41
0.75
  7
CHINESET
100
AcDbText
  0
TEXT
  5
1A8C
330
1F
100
AcDbEntity
  8
0
100
AcDbText
 10
2682.690524132943
 20
795.8336520981234
 30
0.0
 40
12.0
  1
MFT-40A
 41
0.75
  7
CHINESET
100
AcDbText
  0
TEXT
  5
1A8D
330
1F
100
AcDbEntity
  8
0
100
AcDbText
 10
1950.690524132943
 20
435.8278602429207
 30
0.0
 40
12.0
  1
MFT-25B
 41
0.75
  7
CHINESET
100
AcDbText
  0
TEXT
  5
1A8E
330
1F
100
AcDbEntity
  8
0
100
AcDbText
 10
2316.690524132943
 20
435.8278602429207
 30
0.0
 40
12.0
  1
MFT-32B
 41
0.75
  7
CHINESET
100
AcDbText
  0
TEXT
  5
1A8F
330
1F
100
AcDbEntity
  8
0
100
AcDbText
 10
2682.690524132943
 20
435.8278602429207
 30
0.0
 40
12.0
  1
MFT-40B
 41
0.75
  7
CHINESET
100
AcDbText
  0
LINE
  5
1A96
330
1F
100
AcDbEntity
  8
LOGO
 62
     6
100
AcDbLine
 10
2325.701762585913
 20
61.10156850188355
 30
0.0
 11
2325.701762585913
 21
31.77248252903132
 31
0.0
  0
LINE
  5
1A97
330
1F
100
AcDbEntity
  8
LOGO
 62
     6
100
AcDbLine
 10
2259.791624617458
 20
61.10156850188355
 30
0.0
 11
2259.791624617458
 21
31.77248252903132
 31
0.0
  0
LINE
  5
1A98
330
1F
100
AcDbEntity
  8
LOGO
 62
     6
100
AcDbLine
 10
2325.701762585913
 20
31.77248252903132
 30
0.0
 11
2259.791624617458
 21
31.77248252903132
 31
0.0
  0
LINE
  5
1A99
330
1F
100
AcDbEntity
  8
LOGO
 62
     6
100
AcDbLine
 10
2287.865466829118
 20
97.09635583219892
 30
0.0
 11
2271.043187950929
 21
97.09635583219892
 31
0.0
  0
LINE
  5
1A9A
330
1F
100
AcDbEntity
  8
LOGO
 62
     6
100
AcDbLine
 10
2287.865466829118
 20
73.0998309453214
 30
0.0
 11
2271.043187950929
 21
73.0998309453214
 31
0.0
  0
LINE
  5
1A9B
330
1F
100
AcDbEntity
  8
LOGO
 62
     6
100
AcDbLine
 10
2271.043187950929
 20
97.09635583219892
 30
0.0
 11
2271.043187950929
 21
73.0998309453214
 31
0.0
  0
LINE
  5
1A9C
330
1F
100
AcDbEntity
  8
LOGO
 62
     6
100
AcDbLine
 10
2287.865466829118
 20
97.09635583219892
 30
0.0
 11
2287.865466829118
 21
73.0998309453214
 31
0.0
  0
LINE
  5
1A9D
330
1F
100
AcDbEntity
  8
LOGO
 62
     6
100
AcDbLine
 10
2280.269028050499
 20
73.0998309453214
 30
0.0
 11
2280.269028050499
 21
61.10156850188355
 31
0.0
  0
TEXT
  5
1A9E
330
1F
100
AcDbEntity
  8
LOGO
  6
Continuous
 62
     7
100
AcDbText
 10
2276.032214502213
 20
78.10907043254132
 30
0.0
 40
14.0
  1
*
  7
CHINESET
100
AcDbText
  0
LINE
  5
1A9F
330
1F
100
AcDbEntity
  8
LOGO
 62
     6
100
AcDbLine
 10
2325.701762585913
 20
61.10156850188355
 30
0.0
 11
2259.791624617458
 21
61.10156850188355
 31
0.0
  0
TEXT
  5
1AA0
330
1F
100
AcDbEntity
  8
LOGO
  6
Continuous
 62
     6
100
AcDbText
 10
2265.144334813762
 20
35.91222082032778
 30
524.2309030401992
 40
6.0
  1
Swivel direction
 41
0.8
  7
CHINESET
100
AcDbText
  0
TEXT
  5
1AA1
330
1F
100
AcDbEntity
  8
LOGO
 62
     6
100
AcDbText
 10
2271.898273766908
 20
47.03492772803724
 30
524.2309030401992
 40
10.0
  1
旋轉方向
  7
CHINESET
100
AcDbText
  0
LINE
  5
1AA3
330
1F
100
AcDbEntity
  8
LOGO
  6
Continuous
 62
     7
100
AcDbLine
 10
2292.271191500926
 20
85.01309390526399
 30
0.0
 11
2302.867181296684
 21
85.01309390526399
 31
0.0
  0
TEXT
  5
1AA6
330
1F
100
AcDbEntity
  8
LOGO
  6
Continuous
 62
     7
100
AcDbText
 10
2356.634392843207
 20
78.10907043254132
 30
0.0
 40
14.0
  1
x
  7
CHINESET
100
AcDbText
  0
LINE
  5
1AA7
330
1F
100
AcDbEntity
  8
LOGO
 62
     6
100
AcDbLine
 10
2406.974627920213
 20
97.09635583219892
 30
0.0
 11
2369.037379059419
 21
97.09635583219892
 31
0.0
  0
LINE
  5
1AA8
330
1F
100
AcDbEntity
  8
LOGO
 62
     6
100
AcDbLine
 10
2406.974627920213
 20
73.0998309453214
 30
0.0
 11
2369.037379059419
 21
73.0998309453214
 31
0.0
  0
LINE
  5
1AA9
330
1F
100
AcDbEntity
  8
LOGO
 62
     6
100
AcDbLine
 10
2369.037379059419
 20
97.09635583219892
 30
0.0
 11
2369.037379059419
 21
73.0998309453214
 31
0.0
  0
LINE
  5
1AAA
330
1F
100
AcDbEntity
  8
LOGO
 62
     6
100
AcDbLine
 10
2406.974627920213
 20
97.09635583219892
 30
0.0
 11
2406.974627920213
 21
73.0998309453214
 31
0.0
  0
TEXT
  5
1AAB
330
1F
100
AcDbEntity
  8
LOGO
  6
Continuous
 62
     7
100
AcDbText
 10
2384.519746305021
 20
78.10907043254132
 30
0.0
 40
14.0
  1
*
  7
CHINESET
100
AcDbText
  0
LINE
  5
1AAC
330
1F
100
AcDbEntity
  8
LOGO
 62
     6
100
AcDbLine
 10
2438.903397885215
 20
61.10156850188355
 30
0.0
 11
2438.903397885215
 21
31.77248252903132
 31
0.0
  0
LINE
  5
1AAD
330
1F
100
AcDbEntity
  8
LOGO
 62
     6
100
AcDbLine
 10
2389.911313801174
 20
61.10156850188355
 30
0.0
 11
2389.911313801174
 21
31.77248252903132
 31
0.0
  0
LINE
  5
1AAE
330
1F
100
AcDbEntity
  8
LOGO
 62
     6
100
AcDbLine
 10
2438.903397885215
 20
31.77248252903132
 30
0.0
 11
2389.911313801174
 21
31.77248252903132
 31
0.0
  0
LINE
  5
1AAF
330
1F
100
AcDbEntity
  8
LOGO
 62
     6
100
AcDbLine
 10
2438.903397885215
 20
61.10156850188355
 30
0.0
 11
2389.911313801174
 21
61.10156850188355
 31
0.0
  0
TEXT
  5
1AB0
330
1F
100
AcDbEntity
  8
LOGO
  6
Continuous
 62
     6
100
AcDbText
 10
2402.292702325878
 20
35.91222082032778
 30
524.2309030401992
 40
6.0
  1
Angle
 41
0.8
  7
CHINESET
100
AcDbText
  0
TEXT
  5
1AB1
330
1F
100
AcDbEntity
  8
LOGO
 62
     6
100
AcDbText
 10
2394.685739553612
 20
47.03492772803724
 30
524.2309030401992
 40
10.0
  1
旋轉角度
  7
CHINESET
100
AcDbText
  0
LINE
  5
1AB7
330
1F
100
AcDbEntity
  8
LOGO
 62
     6
100
AcDbLine
 10
2388.006003489816
 20
73.09983094532142
 30
0.0
 11
2388.006003489816
 21
67.10069972360248
 31
0.0
  0
LINE
  5
1AB8
330
1F
100
AcDbEntity
  8
LOGO
 62
     6
100
AcDbLine
 10
2388.006003489816
 20
67.10069972360248
 30
0.0
 11
2414.407355843194
 21
67.10069972360248
 31
0.0
  0
LINE
  5
1AB9
330
1F
100
AcDbEntity
  8
LOGO
 62
     6
100
AcDbLine
 10
2414.407355843195
 20
61.10156850188355
 30
0.0
 11
2414.407355843194
 21
67.10069972360248
 31
0.0
  0
LINE
  5
1ABA
330
1F
100
AcDbEntity
  8
LOGO
 62
     6
100
AcDbLine
 10
2328.978918388493
 20
73.09983094532142
 30
0.0
 11
2328.978918388493
 21
67.10069972360248
 31
0.0
  0
LINE
  5
1ABB
330
1F
100
AcDbEntity
  8
LOGO
 62
     6
100
AcDbLine
 10
2328.978918388493
 20
67.10069972360248
 30
0.0
 11
2357.836436877899
 21
67.10069972360248
 31
0.0
  0
LINE
  5
1ABC
330
1F
100
AcDbEntity
  8
LOGO
 62
     6
100
AcDbLine
 10
2357.836436877899
 20
61.10156850188355
 30
0.0
 11
2357.836436877899
 21
67.10069972360248
 31
0.0
  0
CIRCLE
  5
1C98
330
1F
100
AcDbEntity
  8
0
100
AcDbCircle
 10
2131.44947363888
 20
723.0787587335304
 30
0.0
 40
9.0
  0
LINE
  5
1C99
330
1F
100
AcDbEntity
  8
0
100
AcDbLine
 10
2146.449473638881
 20
723.0787587335304
 30
0.0
 11
2146.449473638881
 21
742.0787587335304
 31
0.0
  0
LINE
  5
1C9A
330
1F
100
AcDbEntity
  8
0
100
AcDbLine
 10
2146.449473638881
 20
723.0787587335304
 30
0.0
 11
2146.449473638881
 21
704.0787587335304
 31
0.0
  0
LINE
  5
1C9B
330
1F
100
AcDbEntity
  8
0
100
AcDbLine
 10
2146.449473638881
 20
704.0787587335304
 30
0.0
 11
2096.449473638881
 21
704.0787587335304
 31
0.0
  0
LINE
  5
1C9C
330
1F
100
AcDbEntity
  8
0
100
AcDbLine
 10
2076.449473638881
 20
711.0787587335304
 30
0.0
 11
2076.449473638881
 21
735.0787587335304
 31
0.0
  0
LINE
  5
1C9D
330
1F
100
AcDbEntity
  8
0
100
AcDbLine
 10
2096.449473638881
 20
742.0787587335304
 30
0.0
 11
2146.449473638881
 21
742.0787587335304
 31
0.0
  0
CIRCLE
  5
1C9E
330
1F
100
AcDbEntity
  8
0
100
AcDbCircle
 10
2086.449473638881
 20
723.0787587335304
 30
0.0
 40
6.0
  0
LINE
  5
1C9F
330
1F
100
AcDbEntity
  8
0
100
AcDbLine
 10
2076.449473638881
 20
735.0787587335304
 30
0.0
 11
2096.449473638881
 21
742.0787587335304
 31
0.0
  0
LINE
  5
1CA0
330
1F
100
AcDbEntity
  8
0
100
AcDbLine
 10
2076.449473638881
 20
711.0787587335304
 30
0.0
 11
2096.449473638881
 21
704.0787587335304
 31
0.0
  0
LINE
  5
1CA1
330
1F
100
AcDbEntity
  8
0
100
AcDbLine
 10
2108.907807601635
 20
526.9561227128467
 30
0.0
 11
2153.907807601635
 21
526.9561227128467
 31
0.0
  0
LINE
  5
1CA2
330
1F
100
AcDbEntity
  8
0
100
AcDbLine
 10
2153.907807601635
 20
508.9561227128467
 30
0.0
 11
2153.907807601635
 21
606.9561227128467
 31
0.0
  0
LINE
  5
1CA3
330
1F
100
AcDbEntity
  8
0
100
AcDbLine
 10
2153.907807601635
 20
606.9561227128467
 30
0.0
 11
2108.907807601635
 21
606.9561227128467
 31
0.0
  0
LINE
  5
1CA4
330
1F
100
AcDbEntity
  8
0
100
AcDbLine
 10
2108.907807601635
 20
606.9561227128467
 30
0.0
 11
2108.907807601635
 21
508.9561227128467
 31
0.0
  0
LINE
  5
1CA5
330
1F
100
AcDbEntity
  8
0
100
AcDbLine
 10
2153.907807601635
 20
574.9561227128467
 30
0.0
 11
2108.907807601635
 21
574.9561227128467
 31
0.0
  0
LINE
  5
1CA7
330
1F
100
AcDbEntity
  8
0
100
AcDbLine
 10
2146.407807601635
 20
635.9561227128467
 30
0.0
 11
2146.407807601635
 21
654.9561227128467
 31
0.0
  0
LINE
  5
1CA8
330
1F
100
AcDbEntity
  8
0
100
AcDbLine
 10
2146.407807601635
 20
654.9561227128467
 30
0.0
 11
2076.407807601635
 21
654.9561227128467
 31
0.0
  0
LINE
  5
1CA9
330
1F
100
AcDbEntity
  8
0
100
AcDbLine
 10
2076.407807601635
 20
654.9561227128467
 30
0.0
 11
2076.407807601635
 21
635.9561227128467
 31
0.0
  0
LINE
  5
1CAA
330
1F
100
AcDbEntity
  8
0
100
AcDbLine
 10
2076.407807601635
 20
635.9561227128467
 30
0.0
 11
2146.407807601635
 21
635.9561227128467
 31
0.0
  0
LINE
  5
1CAB
330
1F
100
AcDbEntity
  8
0
100
AcDbLine
 10
2096.407807601635
 20
654.9561227128467
 30
0.0
 11
2096.407807601635
 21
635.9561227128467
 31
0.0
  0
LINE
  5
1CAC
330
1F
100
AcDbEntity
  8
0
100
AcDbLine
 10
2122.407807601635
 20
635.9561227128466
 30
0.0
 11
2122.407807601635
 21
606.9561227128467
 31
0.0
  0
LINE
  5
1CAD
330
1F
100
AcDbEntity
  8
0
100
AcDbLine
 10
2140.407807601635
 20
635.9561227128466
 30
0.0
 11
2140.407807601635
 21
606.9561227128467
 31
0.0
  0
CIRCLE
  5
1CAE
330
1F
100
AcDbEntity
  8
0
100
AcDbCircle
 10
2086.449473638881
 20
723.0787587335304
 30
0.0
 40
5.0
  0
CIRCLE
  5
1CAF
330
1F
100
AcDbEntity
  8
0
100
AcDbCircle
 10
2131.44947363888
 20
723.0787587335304
 30
0.0
 40
8.0
  0
POLYLINE
  5
1CB0
330
1F
100
AcDbEntity
  8
0
100
AcDb2dPolyline
 66
     1
 10
0.0
 20
0.0
 30
0.0
 70
     1
  0
VERTEX
  5
1CB1
330
1CB0
100
AcDbEntity
  8
0
100
AcDbVertex
100
AcDb2dVertex
 10
2117.300650046352
 20
723.0787587335304
 30
0.0
  0
VERTEX
  5
1CB2
330
1CB0
100
AcDbEntity
  8
0
100
AcDbVertex
100
AcDb2dVertex
 10
2124.375061842616
 20
710.825518068736
 30
0.0
  0
VERTEX
  5
1CB3
330
1CB0
100
AcDbEntity
  8
0
100
AcDbVertex
100
AcDb2dVertex
 10
2138.523885435144
 20
710.825518068736
 30
0.0
  0
VERTEX
  5
1CB4
330
1CB0
100
AcDbEntity
  8
0
100
AcDbVertex
100
AcDb2dVertex
 10
2145.598297231408
 20
723.0787587335304
 30
0.0
  0
VERTEX
  5
1CB5
330
1CB0
100
AcDbEntity
  8
0
100
AcDbVertex
100
AcDb2dVertex
 10
2138.523885435144
 20
735.3319993983249
 30
0.0
  0
VERTEX
  5
1CB6
330
1CB0
100
AcDbEntity
  8
0
100
AcDbVertex
100
AcDb2dVertex
 10
2124.375061842616
 20
735.3319993983249
 30
0.0
  0
SEQEND
  5
1CB7
330
1CB0
100
AcDbEntity
  8
0
  0
LINE
  5
1CBE
330
1F
100
AcDbEntity
  8
0
  6
HIDDEN
 62
     3
 48
0.5
100
AcDbLine
 10
2092.407807601635
 20
654.9561227128467
 30
0.0
 11
2092.407807601635
 21
635.9561227128467
 31
0.0
  0
LINE
  5
1CBF
330
1F
100
AcDbEntity
  8
0
  6
HIDDEN
 62
     3
 48
0.5
100
AcDbLine
 10
2080.407807601635
 20
654.9561227128467
 30
0.0
 11
2080.407807601635
 21
635.9561227128467
 31
0.0
  0
LINE
  5
1CC0
330
1F
100
AcDbEntity
  8
0
  6
HIDDEN
 62
     3
 48
0.5
100
AcDbLine
 10
2081.407807601635
 20
654.9561227128467
 30
0.0
 11
2081.407807601635
 21
635.9561227128467
 31
0.0
  0
LINE
  5
1CC1
330
1F
100
AcDbEntity
  8
0
  6
HIDDEN
 62
     3
 48
0.5
100
AcDbLine
 10
2091.407807601635
 20
654.9561227128467
 30
0.0
 11
2091.407807601635
 21
635.9561227128467
 31
0.0
  0
LINE
  5
1CC3
330
1F
100
AcDbEntity
  8
0
100
AcDbLine
 10
2152.907807601635
 20
526.9561227128467
 30
0.0
 11
2152.907807601635
 21
574.9561227128467
 31
0.0
  0
LINE
  5
1CC4
330
1F
100
AcDbEntity
  8
0
100
AcDbLine
 10
2109.907807601635
 20
574.9561227128467
 30
0.0
 11
2109.907807601635
 21
526.9561227128467
 31
0.0
  0
LINE
  5
1CC6
330
1F
100
AcDbEntity
  8
0
100
AcDbLine
 10
2108.907807601635
 20
508.9561227128467
 30
0.0
 11
2153.907807601635
 21
508.9561227128467
 31
0.0
  0
INSERT
  5
1CC7
330
1F
100
AcDbEntity
  8
0
100
AcDbBlockReference
  2
NUT
 10
2131.407807601635
 20
659.9557357196456
 30
0.0
 41
0.7999999999999546
 42
0.7999999999999546
 43
0.8
  0
ARC
  5
1CC8
330
1F
100
AcDbEntity
  8
0
100
AcDbCircle
 10
2131.44947363888
 20
723.0787587335304
 30
0.0
 40
22.5
100
AcDbArc
 50
57.61246146690424
 51
122.3875385330957
  0
ARC
  5
1CC9
330
1F
100
AcDbEntity
  8
0
100
AcDbCircle
 10
2131.44947363888
 20
723.0787587335304
 30
0.0
 40
22.0
100
AcDbArc
 50
59.72735868109461
 51
120.2726413189054
  0
ARC
  5
1CCA
330
1F
100
AcDbEntity
  8
0
100
AcDbCircle
 10
2131.44947363888
 20
723.0787587335304
 30
0.0
 40
22.5
100
AcDbArc
 50
237.6124614669043
 51
302.3875385330958
  0
ARC
  5
1CCB
330
1F
100
AcDbEntity
  8
0
100
AcDbCircle
 10
2131.44947363888
 20
723.0787587335304
 30
0.0
 40
22.5
100
AcDbArc
 50
311.8103148957799
 51
48.18968510422011
  0
ARC
  5
1CCC
330
1F
100
AcDbEntity
  8
0
100
AcDbCircle
 10
2131.44947363888
 20
723.0787587335304
 30
0.0
 40
22.0
100
AcDbArc
 50
239.7273586810946
 51
300.2726413189054
  0
ARC
  5
1CCD
330
1F
100
AcDbEntity
  8
0
100
AcDbCircle
 10
2131.44947363888
 20
723.0787587335304
 30
0.0
 40
22.0
100
AcDbArc
 50
312.9858860801928
 51
47.0141139198072
  0
LINE
  5
1CDA
330
1F
100
AcDbEntity
  8
AM_7
100
AcDbLine
 10
2086.407807601635
 20
656.9561227128467
 30
0.0
 11
2086.407807601635
 21
633.9561227128467
 31
0.0
1001
GENIUS_GENODEF_13
1002
{
1000
HIER
1070
     0
1002
}
1002
{
1000
MANEDIT
1070
     0
1002
}
1002
{
1000
NOSEL
1070
     0
1002
}
1002
{
1000
BEHIND
1070
     0
1002
}
1002
{
1000
OTHER
1070
     0
1002
}
1002
{
1000
REACTOR
1002
}
1001
GENIUS_GENOBJ-N-CEN_13
1002
{
1000
OWNER
1000
GEN
1002
}
1001
GENIUS_GENCEN_19
1002
{
1040
2.0
1002
}
  0
CIRCLE
  5
1CDD
330
1F
100
AcDbEntity
  8
0
100
AcDbCircle
 10
2131.407807601635
 20
593.6326682880165
 30
0.0
 40
4.75
  0
CIRCLE
  5
1CDE
330
1F
100
AcDbEntity
  8
0
100
AcDbCircle
 10
2131.407807601635
 20
593.6326682880165
 30
0.0
 40
3.75
  0
LINE
  5
1CEB
330
1F
100
AcDbEntity
  8
AM_7
100
AcDbLine
 10
2131.407807601635
 20
661.9557357196456
 30
0.0
 11
2131.407807601635
 21
506.9561227128467
 31
0.0
1001
GENIUS_GENOBJ-N-CEN_13
1002
{
1000
OWNER
1000
GEN
1002
}
1001
GENIUS_GENODEF_13
1002
{
1000
HIER
1070
     0
1002
}
1002
{
1000
MANEDIT
1070
     0
1002
}
1002
{
1000
NOSEL
1070
     0
1002
}
1002
{
1000
BEHIND
1070
     0
1002
}
1002
{
1000
OTHER
1070
     0
1002
}
1002
{
1000
REACTOR
1002
}
1001
GENIUS_GENCEN_19
1002
{
1040
2.0
1002
}
  0
LINE
  5
1CF9
330
1F
100
AcDbEntity
  8
AM_7
  6
AM_ISO08W050x2
100
AcDbLine
 10
2086.449473638881
 20
723.0787587335304
 30
0.0
 11
2094.449473638881
 21
723.0787587335304
 31
0.0
1001
GENIUS_GENOREF_13
1005
1CFD
  0
LINE
  5
1CFA
330
1F
100
AcDbEntity
  8
AM_7
  6
AM_ISO08W050x2
100
AcDbLine
 10
2086.449473638881
 20
723.0787587335304
 30
0.0
 11
2086.449473638881
 21
731.0787587335304
 31
0.0
1001
GENIUS_GENOREF_13
1005
1CFD
  0
LINE
  5
1CFB
330
1F
100
AcDbEntity
  8
AM_7
  6
AM_ISO08W050x2
100
AcDbLine
 10
2086.449473638881
 20
723.0787587335304
 30
0.0
 11
2078.44947363888
 21
723.0787587335304
 31
0.0
1001
GENIUS_GENOREF_13
1005
1CFD
  0
LINE
  5
1CFC
330
1F
100
AcDbEntity
  8
AM_7
  6
AM_ISO08W050x2
100
AcDbLine
 10
2086.449473638881
 20
723.0787587335304
 30
0.0
 11
2086.449473638881
 21
715.0787587335304
 31
0.0
1001
GENIUS_GENOREF_13
1005
1CFD
  0
POINT
  5
1CFD
330
1F
100
AcDbEntity
  8
0
 60
     1
100
AcDbPoint
 10
0.0
 20
0.0
 30
0.0
1001
GENIUS_GENODEF_13
1002
{
1000
HIER
1070
    10
1002
}
1002
{
1000
MANEDIT
1070
     0
1002
}
1002
{
1000
NOSEL
1070
     0
1002
}
1002
{
1000
BEHIND
1070
     0
1002
}
1002
{
1000
OTHER
1070
     0
1002
}
1002
{
1000
REACTOR
1002
}
1001
GENIUS_GENOENT_13
1002
{
1000
MYREF
1005
1CFD
1002
}
1002
{
1000
GRP
1005
0
1002
}
1001
GENIUS_GENOBJ-N-CRS_13
1002
{
1000
OWNER
1000
GEN
1002
}
1001
GENIUS_GENOLIS_13
1002
{
1000
ENT
1005
1CFC
1005
1CFB
1005
1CFA
1005
1CF9
1002
}
  0
LINE
  5
1D0B
330
1F
100
AcDbEntity
  8
AM_7
100
AcDbLine
 10
2131.44947363888
 20
723.0787587335304
 30
0.0
 11
2155.949473638881
 21
723.0787587335304
 31
0.0
1001
GENIUS_GENOREF_13
1005
1D0F
  0
LINE
  5
1D0C
330
1F
100
AcDbEntity
  8
AM_7
100
AcDbLine
 10
2131.44947363888
 20
723.0787587335304
 30
0.0
 11
2131.44947363888
 21
747.5787587335304
 31
0.0
1001
GENIUS_GENOREF_13
1005
1D0F
  0
LINE
  5
1D0D
330
1F
100
AcDbEntity
  8
AM_7
100
AcDbLine
 10
2131.44947363888
 20
723.0787587335304
 30
0.0
 11
2106.949473638881
 21
723.0787587335304
 31
0.0
1001
GENIUS_GENOREF_13
1005
1D0F
  0
LINE
  5
1D0E
330
1F
100
AcDbEntity
  8
AM_7
100
AcDbLine
 10
2131.44947363888
 20
723.0787587335304
 30
0.0
 11
2131.44947363888
 21
698.5787587335304
 31
0.0
1001
GENIUS_GENOREF_13
1005
1D0F
  0
POINT
  5
1D0F
330
1F
100
AcDbEntity
  8
0
 60
     1
100
AcDbPoint
 10
0.0
 20
0.0
 30
0.0
1001
GENIUS_GENOENT_13
1002
{
1000
MYREF
1005
1D0F
1002
}
1002
{
1000
GRP
1005
0
1002
}
1001
GENIUS_GENOLIS_13
1002
{
1000
ENT
1005
1D0E
1005
1D0D
1005
1D0C
1005
1D0B
1002
}
1001
GENIUS_GENOBJ-N-CRS_13
1002
{
1000
OWNER
1000
GEN
1002
}
1001
GENIUS_GENODEF_13
1002
{
1000
HIER
1070
    10
1002
}
1002
{
1000
MANEDIT
1070
     0
1002
}
1002
{
1000
NOSEL
1070
     0
1002
}
1002
{
1000
BEHIND
1070
     0
1002
}
1002
{
1000
OTHER
1070
     0
1002
}
1002
{
1000
REACTOR
1002
}
  0
DIMENSION
  5
1D10
330
1F
100
AcDbEntity
  8
AM_5
100
AcDbDimension
  2
*D4
 10
2175.407807601635
 20
606.9561227128467
 30
0.0
 11
2172.907807601635
 21
557.9561227128471
 31
0.0
 70
    32
 71
     5
 42
98.0
  3
AM_ISO$0
100
AcDbAlignedDimension
 13
2163.407807601635
 23
508.9561227128467
 33
0.0
 14
2153.907807601635
 24
606.9561227128467
 34
0.0
 50
90.0
100
AcDbRotatedDimension
1001
ACAD
1000
DSTYLE
1002
{
1070
    40
1040
1.0
1070
   144
1040
1.0
1070
   272
1070
     8
1002
}
  0
DIMENSION
  5
1D13
330
1F
100
AcDbEntity
  8
AM_5
100
AcDbDimension
  2
*D5
 10
2185.407807601635
 20
635.9561227128467
 30
0.0
 11
2182.907807601635
 21
572.4561227128471
 31
0.0
 70
    32
 71
     5
 42
127.0
  3
AM_ISO$0
100
AcDbAlignedDimension
 13
2163.407807601635
 23
508.9561227128467
 33
0.0
 14
2146.407807601635
 24
635.9561227128467
 34
0.0
 50
90.0
100
AcDbRotatedDimension
1001
ACAD
1000
DSTYLE
1002
{
1070
    40
1040
1.0
1070
   144
1040
1.0
1070
   272
1070
     8
1002
}
  0
DIMENSION
  5
1D16
330
1F
100
AcDbEntity
  8
AM_5
100
AcDbDimension
  2
*D6
 10
2185.407807601635
 20
635.9561227128467
 30
0.0
 11
2182.907807601635
 21
645.4561227128471
 31
0.0
 70
    32
 71
     5
 42
19.0
  3
AM_ISO$0
100
AcDbAlignedDimension
 13
2146.407807601635
 23
654.9561227128467
 33
0.0
 14
2146.407807601635
 24
635.9561227128467
 34
0.0
 50
90.0
100
AcDbRotatedDimension
1001
ACAD
1000
DSTYLE
1002
{
1070
    40
1040
1.0
1070
   144
1040
1.0
1070
   272
1070
     8
1002
}
  0
DIMENSION
  5
1D67
330
1F
100
AcDbEntity
  8
AM_5
100
AcDbDimension
  2
*D7
 10
2153.907807601635
 20
550.3047774801218
 30
0.0
 11
2131.407807601635
 21
552.8047774801218
 31
0.0
 70
    32
  1
M<>x1.5
 71
     5
 42
45.0
  3
AM_ISO$0
100
AcDbAlignedDimension
 13
2108.907807601635
 23
557.9561227128468
 33
0.0
 14
2153.907807601635
 24
557.9561227128468
 34
0.0
 50
0.0000000000001132
100
AcDbRotatedDimension
1001
ACAD
1000
DSTYLE
1002
{
1070
    40
1040
1.0
1070
   144
1040
1.0
1070
   272
1070
     8
1002
}
  0
CIRCLE
  5
1DD8
330
1F
100
AcDbEntity
  8
0
100
AcDbCircle
 10
2131.44947363888
 20
379.5446399614925
 30
0.0
 40
9.0
  0
LINE
  5
1DD9
330
1F
100
AcDbEntity
  8
0
100
AcDbLine
 10
2146.449473638881
 20
379.5446399614925
 30
0.0
 11
2146.449473638881
 21
398.5446399614925
 31
0.0
  0
LINE
  5
1DDA
330
1F
100
AcDbEntity
  8
0
100
AcDbLine
 10
2146.449473638881
 20
379.5446399614925
 30
0.0
 11
2146.449473638881
 21
360.5446399614925
 31
0.0
  0
LINE
  5
1DDB
330
1F
100
AcDbEntity
  8
0
100
AcDbLine
 10
2146.449473638881
 20
360.5446399614925
 30
0.0
 11
2096.449473638881
 21
360.5446399614925
 31
0.0
  0
LINE
  5
1DDC
330
1F
100
AcDbEntity
  8
0
100
AcDbLine
 10
2076.449473638881
 20
367.5446399614925
 30
0.0
 11
2076.449473638881
 21
391.5446399614925
 31
0.0
  0
LINE
  5
1DDD
330
1F
100
AcDbEntity
  8
0
100
AcDbLine
 10
2096.449473638881
 20
398.5446399614925
 30
0.0
 11
2146.449473638881
 21
398.5446399614925
 31
0.0
  0
CIRCLE
  5
1DDE
330
1F
100
AcDbEntity
  8
0
100
AcDbCircle
 10
2086.449473638881
 20
379.5446399614925
 30
0.0
 40
6.0
  0
LINE
  5
1DDF
330
1F
100
AcDbEntity
  8
0
100
AcDbLine
 10
2076.449473638881
 20
391.5446399614925
 30
0.0
 11
2096.449473638881
 21
398.5446399614925
 31
0.0
  0
LINE
  5
1DE0
330
1F
100
AcDbEntity
  8
0
100
AcDbLine
 10
2076.449473638881
 20
367.5446399614925
 30
0.0
 11
2096.449473638881
 21
360.5446399614925
 31
0.0
  0
LINE
  5
1DE1
330
1F
100
AcDbEntity
  8
0
100
AcDbLine
 10
2108.907807601635
 20
177.2730235218529
 30
0.0
 11
2153.907807601635
 21
177.2730235218529
 31
0.0
  0
LINE
  5
1DE2
330
1F
100
AcDbEntity
  8
0
100
AcDbLine
 10
2153.907807601635
 20
159.2730235218529
 30
0.0
 11
2153.907807601635
 21
257.2730235218529
 31
0.0
  0
LINE
  5
1DE3
330
1F
100
AcDbEntity
  8
0
100
AcDbLine
 10
2153.907807601635
 20
257.2730235218529
 30
0.0
 11
2108.907807601635
 21
257.2730235218529
 31
0.0
  0
LINE
  5
1DE4
330
1F
100
AcDbEntity
  8
0
100
AcDbLine
 10
2108.907807601635
 20
257.2730235218529
 30
0.0
 11
2108.907807601635
 21
159.2730235218529
 31
0.0
  0
LINE
  5
1DE5
330
1F
100
AcDbEntity
  8
0
100
AcDbLine
 10
2153.907807601635
 20
225.2730235218529
 30
0.0
 11
2108.907807601635
 21
225.2730235218529
 31
0.0
  0
LINE
  5
1DE7
330
1F
100
AcDbEntity
  8
0
100
AcDbLine
 10
2146.407807601635
 20
293.2730235218529
 30
0.0
 11
2146.407807601635
 21
312.2730235218529
 31
0.0
  0
LINE
  5
1DE8
330
1F
100
AcDbEntity
  8
0
100
AcDbLine
 10
2146.407807601635
 20
312.2730235218529
 30
0.0
 11
2076.407807601635
 21
312.2730235218529
 31
0.0
  0
LINE
  5
1DE9
330
1F
100
AcDbEntity
  8
0
100
AcDbLine
 10
2076.407807601635
 20
312.2730235218529
 30
0.0
 11
2076.407807601635
 21
293.2730235218529
 31
0.0
  0
LINE
  5
1DEA
330
1F
100
AcDbEntity
  8
0
100
AcDbLine
 10
2076.407807601635
 20
293.2730235218529
 30
0.0
 11
2146.407807601635
 21
293.2730235218529
 31
0.0
  0
LINE
  5
1DEB
330
1F
100
AcDbEntity
  8
0
100
AcDbLine
 10
2096.407807601635
 20
312.2730235218529
 30
0.0
 11
2096.407807601635
 21
293.2730235218529
 31
0.0
  0
LINE
  5
1DEC
330
1F
100
AcDbEntity
  8
0
100
AcDbLine
 10
2122.407807601635
 20
293.2730235218529
 30
0.0
 11
2122.407807601635
 21
257.2730235218529
 31
0.0
  0
LINE
  5
1DED
330
1F
100
AcDbEntity
  8
0
100
AcDbLine
 10
2140.407807601635
 20
293.2730235218529
 30
0.0
 11
2140.407807601635
 21
257.2730235218529
 31
0.0
  0
CIRCLE
  5
1DEE
330
1F
100
AcDbEntity
  8
0
100
AcDbCircle
 10
2086.449473638881
 20
379.5446399614925
 30
0.0
 40
5.0
  0
CIRCLE
  5
1DEF
330
1F
100
AcDbEntity
  8
0
100
AcDbCircle
 10
2131.44947363888
 20
379.5446399614925
 30
0.0
 40
8.0
  0
POLYLINE
  5
1DF0
330
1F
100
AcDbEntity
  8
0
100
AcDb2dPolyline
 66
     1
 10
0.0
 20
0.0
 30
0.0
 70
     1
  0
VERTEX
  5
1DF1
330
1DF0
100
AcDbEntity
  8
0
100
AcDbVertex
100
AcDb2dVertex
 10
2117.300650046352
 20
379.5446399614925
 30
0.0
  0
VERTEX
  5
1DF2
330
1DF0
100
AcDbEntity
  8
0
100
AcDbVertex
100
AcDb2dVertex
 10
2124.375061842616
 20
367.2913992966982
 30
0.0
  0
VERTEX
  5
1DF3
330
1DF0
100
AcDbEntity
  8
0
100
AcDbVertex
100
AcDb2dVertex
 10
2138.523885435144
 20
367.2913992966982
 30
0.0
  0
VERTEX
  5
1DF4
330
1DF0
100
AcDbEntity
  8
0
100
AcDbVertex
100
AcDb2dVertex
 10
2145.598297231408
 20
379.5446399614925
 30
0.0
  0
VERTEX
  5
1DF5
330
1DF0
100
AcDbEntity
  8
0
100
AcDbVertex
100
AcDb2dVertex
 10
2138.523885435144
 20
391.797880626287
 30
0.0
  0
VERTEX
  5
1DF6
330
1DF0
100
AcDbEntity
  8
0
100
AcDbVertex
100
AcDb2dVertex
 10
2124.375061842616
 20
391.797880626287
 30
0.0
  0
SEQEND
  5
1DF7
330
1DF0
100
AcDbEntity
  8
0
  0
LINE
  5
1DFE
330
1F
100
AcDbEntity
  8
0
  6
HIDDEN
 62
     3
 48
0.5
100
AcDbLine
 10
2092.407807601635
 20
312.2730235218529
 30
0.0
 11
2092.407807601635
 21
293.2730235218529
 31
0.0
  0
LINE
  5
1DFF
330
1F
100
AcDbEntity
  8
0
  6
HIDDEN
 62
     3
 48
0.5
100
AcDbLine
 10
2080.407807601635
 20
312.2730235218529
 30
0.0
 11
2080.407807601635
 21
293.2730235218529
 31
0.0
  0
LINE
  5
1E00
330
1F
100
AcDbEntity
  8
0
  6
HIDDEN
 62
     3
 48
0.5
100
AcDbLine
 10
2081.407807601635
 20
312.2730235218529
 30
0.0
 11
2081.407807601635
 21
293.2730235218529
 31
0.0
  0
LINE
  5
1E01
330
1F
100
AcDbEntity
  8
0
  6
HIDDEN
 62
     3
 48
0.5
100
AcDbLine
 10
2091.407807601635
 20
312.2730235218529
 30
0.0
 11
2091.407807601635
 21
293.2730235218529
 31
0.0
  0
LINE
  5
1E03
330
1F
100
AcDbEntity
  8
0
100
AcDbLine
 10
2152.907807601635
 20
177.2730235218529
 30
0.0
 11
2152.907807601635
 21
225.2730235218529
 31
0.0
  0
LINE
  5
1E04
330
1F
100
AcDbEntity
  8
0
100
AcDbLine
 10
2109.907807601635
 20
225.2730235218529
 30
0.0
 11
2109.907807601635
 21
177.2730235218529
 31
0.0
  0
LINE
  5
1E06
330
1F
100
AcDbEntity
  8
0
100
AcDbLine
 10
2108.907807601635
 20
159.2730235218529
 30
0.0
 11
2153.907807601635
 21
159.2730235218529
 31
0.0
  0
INSERT
  5
1E07
330
1F
100
AcDbEntity
  8
0
100
AcDbBlockReference
  2
NUT
 10
2131.407807601635
 20
317.2726365286518
 30
0.0
 41
0.7999999999999546
 42
0.7999999999999546
 43
0.8
  0
ARC
  5
1E09
330
1F
100
AcDbEntity
  8
0
100
AcDbCircle
 10
2131.44947363888
 20
379.5446399614925
 30
0.0
 40
22.5
100
AcDbArc
 50
57.61246146690424
 51
122.3875385330957
  0
ARC
  5
1E0A
330
1F
100
AcDbEntity
  8
0
100
AcDbCircle
 10
2131.44947363888
 20
379.5446399614925
 30
0.0
 40
22.0
100
AcDbArc
 50
59.72735868109461
 51
120.2726413189054
  0
ARC
  5
1E0B
330
1F
100
AcDbEntity
  8
0
100
AcDbCircle
 10
2131.44947363888
 20
379.5446399614925
 30
0.0
 40
22.5
100
AcDbArc
 50
237.6124614669043
 51
302.3875385330958
  0
ARC
  5
1E0C
330
1F
100
AcDbEntity
  8
0
100
AcDbCircle
 10
2131.44947363888
 20
379.5446399614925
 30
0.0
 40
22.5
100
AcDbArc
 50
311.8103148957799
 51
48.18968510422011
  0
ARC
  5
1E0D
330
1F
100
AcDbEntity
  8
0
100
AcDbCircle
 10
2131.44947363888
 20
379.5446399614925
 30
0.0
 40
22.0
100
AcDbArc
 50
239.7273586810946
 51
300.2726413189054
  0
ARC
  5
1E0E
330
1F
100
AcDbEntity
  8
0
100
AcDbCircle
 10
2131.44947363888
 20
379.5446399614925
 30
0.0
 40
22.0
100
AcDbArc
 50
312.9858860801928
 51
47.0141139198072
  0
CIRCLE
  5
1E11
330
1F
100
AcDbEntity
  8
0
100
AcDbCircle
 10
2131.407807601635
 20
243.9495690970227
 30
0.0
 40
4.75
  0
CIRCLE
  5
1E12
330
1F
100
AcDbEntity
  8
0
100
AcDbCircle
 10
2131.407807601635
 20
243.9495690970227
 30
0.0
 40
3.75
  0
LINE
  5
1E1F
330
1F
100
AcDbEntity
  8
AM_7
100
AcDbLine
 10
2086.407807601635
 20
314.2730235218529
 30
0.0
 11
2086.407807601635
 21
291.2730235218529
 31
0.0
1001
GENIUS_GENODEF_13
1002
{
1000
HIER
1070
     0
1002
}
1002
{
1000
MANEDIT
1070
     0
1002
}
1002
{
1000
NOSEL
1070
     0
1002
}
1002
{
1000
BEHIND
1070
     0
1002
}
1002
{
1000
OTHER
1070
     0
1002
}
1002
{
1000
REACTOR
1002
}
1001
GENIUS_GENOBJ-N-CEN_13
1002
{
1000
OWNER
1000
GEN
1002
}
1001
GENIUS_GENCEN_19
1002
{
1040
2.0
1002
}
  0
LINE
  5
1E2C
330
1F
100
AcDbEntity
  8
AM_7
100
AcDbLine
 10
2131.407807601635
 20
319.2726365286518
 30
0.0
 11
2131.407807601635
 21
157.2730235218529
 31
0.0
1001
GENIUS_GENODEF_13
1002
{
1000
HIER
1070
     0
1002
}
1002
{
1000
MANEDIT
1070
     0
1002
}
1002
{
1000
NOSEL
1070
     0
1002
}
1002
{
1000
BEHIND
1070
     0
1002
}
1002
{
1000
OTHER
1070
     0
1002
}
1002
{
1000
REACTOR
1002
}
1001
GENIUS_GENOBJ-N-CEN_13
1002
{
1000
OWNER
1000
GEN
1002
}
1001
GENIUS_GENCEN_19
1002
{
1040
2.0
1002
}
  0
LINE
  5
1E3A
330
1F
100
AcDbEntity
  8
AM_7
  6
AM_ISO08W050x2
100
AcDbLine
 10
2086.449473638881
 20
379.5446399614925
 30
0.0
 11
2093.449473638881
 21
379.5446399614925
 31
0.0
1001
GENIUS_GENOREF_13
1005
1E3E
  0
LINE
  5
1E3B
330
1F
100
AcDbEntity
  8
AM_7
  6
AM_ISO08W050x2
100
AcDbLine
 10
2086.449473638881
 20
379.5446399614925
 30
0.0
 11
2086.449473638881
 21
386.5446399614925
 31
0.0
1001
GENIUS_GENOREF_13
1005
1E3E
  0
LINE
  5
1E3C
330
1F
100
AcDbEntity
  8
AM_7
  6
AM_ISO08W050x2
100
AcDbLine
 10
2086.449473638881
 20
379.5446399614925
 30
0.0
 11
2079.449473638881
 21
379.5446399614925
 31
0.0
1001
GENIUS_GENOREF_13
1005
1E3E
  0
LINE
  5
1E3D
330
1F
100
AcDbEntity
  8
AM_7
  6
AM_ISO08W050x2
100
AcDbLine
 10
2086.449473638881
 20
379.5446399614925
 30
0.0
 11
2086.449473638881
 21
372.5446399614925
 31
0.0
1001
GENIUS_GENOREF_13
1005
1E3E
  0
POINT
  5
1E3E
330
1F
100
AcDbEntity
  8
0
 60
     1
100
AcDbPoint
 10
0.0
 20
0.0
 30
0.0
1001
GENIUS_GENOBJ-N-CRS_13
1002
{
1000
OWNER
1000
GEN
1002
}
1001
GENIUS_GENOENT_13
1002
{
1000
MYREF
1005
1E3E
1002
}
1002
{
1000
GRP
1005
0
1002
}
1001
GENIUS_GENODEF_13
1002
{
1000
HIER
1070
    10
1002
}
1002
{
1000
MANEDIT
1070
     0
1002
}
1002
{
1000
NOSEL
1070
     0
1002
}
1002
{
1000
BEHIND
1070
     0
1002
}
1002
{
1000
OTHER
1070
     0
1002
}
1002
{
1000
REACTOR
1002
}
1001
GENIUS_GENOLIS_13
1002
{
1000
ENT
1005
1E3D
1005
1E3C
1005
1E3B
1005
1E3A
1002
}
  0
LINE
  5
1E4C
330
1F
100
AcDbEntity
  8
AM_7
100
AcDbLine
 10
2131.44947363888
 20
379.5446399614925
 30
0.0
 11
2155.949473638881
 21
379.5446399614925
 31
0.0
1001
GENIUS_GENOREF_13
1005
1E50
  0
LINE
  5
1E4D
330
1F
100
AcDbEntity
  8
AM_7
100
AcDbLine
 10
2131.44947363888
 20
379.5446399614925
 30
0.0
 11
2131.44947363888
 21
404.0446399614925
 31
0.0
1001
GENIUS_GENOREF_13
1005
1E50
  0
LINE
  5
1E4E
330
1F
100
AcDbEntity
  8
AM_7
100
AcDbLine
 10
2131.44947363888
 20
379.5446399614925
 30
0.0
 11
2106.949473638881
 21
379.5446399614925
 31
0.0
1001
GENIUS_GENOREF_13
1005
1E50
  0
LINE
  5
1E4F
330
1F
100
AcDbEntity
  8
AM_7
100
AcDbLine
 10
2131.44947363888
 20
379.5446399614925
 30
0.0
 11
2131.44947363888
 21
355.0446399614925
 31
0.0
1001
GENIUS_GENOREF_13
1005
1E50
  0
POINT
  5
1E50
330
1F
100
AcDbEntity
  8
0
 60
     1
100
AcDbPoint
 10
0.0
 20
0.0
 30
0.0
1001
GENIUS_GENOLIS_13
1002
{
1000
ENT
1005
1E4F
1005
1E4E
1005
1E4D
1005
1E4C
1002
}
1001
GENIUS_GENOENT_13
1002
{
1000
MYREF
1005
1E50
1002
}
1002
{
1000
GRP
1005
0
1002
}
1001
GENIUS_GENOBJ-N-CRS_13
1002
{
1000
OWNER
1000
GEN
1002
}
1001
GENIUS_GENODEF_13
1002
{
1000
HIER
1070
    10
1002
}
1002
{
1000
MANEDIT
1070
     0
1002
}
1002
{
1000
NOSEL
1070
     0
1002
}
1002
{
1000
BEHIND
1070
     0
1002
}
1002
{
1000
OTHER
1070
     0
1002
}
1002
{
1000
REACTOR
1002
}
  0
LINE
  5
1E52
330
1F
100
AcDbEntity
  8
0
  6
HIDDEN
 62
     3
 48
0.5
100
AcDbLine
 10
2136.407807601635
 20
169.2993013816309
 30
0.0
 11
2136.407807601635
 21
159.2730235218529
 31
0.0
  0
LINE
  5
1E53
330
1F
100
AcDbEntity
  8
0
  6
HIDDEN
 62
     3
 48
0.5
100
AcDbLine
 10
2126.407807601635
 20
168.460345193779
 30
0.0
 11
2126.407807601635
 21
159.2730235218529
 31
0.0
  0
LINE
  5
1E54
330
1F
100
AcDbEntity
  8
0
  6
HIDDEN
 62
     3
 48
0.5
100
AcDbLine
 10
2135.407807601635
 20
169.1315102944002
 30
0.0
 11
2135.407807601635
 21
159.2730235218529
 31
0.0
  0
LINE
  5
1E55
330
1F
100
AcDbEntity
  8
0
  6
HIDDEN
 62
     3
 48
0.5
100
AcDbLine
 10
2127.407807601635
 20
168.7959281199388
 30
0.0
 11
2127.407807601635
 21
159.2730235218528
 31
0.0
  0
DIMENSION
  5
1E56
330
1F
100
AcDbEntity
  8
AM_5
100
AcDbDimension
  2
*D8
 10
2175.407807601635
 20
257.2730235218529
 30
0.0
 11
2172.907807601635
 21
208.2730235218532
 31
0.0
 70
    32
 71
     5
 42
97.99999999999997
  3
AM_ISO$0
100
AcDbAlignedDimension
 13
2163.407807601635
 23
159.2730235218529
 33
0.0
 14
2153.907807601635
 24
257.2730235218529
 34
0.0
 50
90.0
100
AcDbRotatedDimension
1001
ACAD
1000
DSTYLE
1002
{
1070
    40
1040
1.0
1070
   144
1040
1.0
1070
   272
1070
     8
1002
}
  0
DIMENSION
  5
1E57
330
1F
100
AcDbEntity
  8
AM_5
100
AcDbDimension
  2
*D9
 10
2185.407807601635
 20
293.2730235218528
 30
0.0
 11
2182.907807601635
 21
226.2730235218532
 31
0.0
 70
    32
 71
     5
 42
133.9999999999999
  3
AM_ISO$0
100
AcDbAlignedDimension
 13
2163.407807601635
 23
159.2730235218529
 33
0.0
 14
2146.407807601635
 24
293.2730235218529
 34
0.0
 50
90.0
100
AcDbRotatedDimension
1001
ACAD
1000
DSTYLE
1002
{
1070
    40
1040
1.0
1070
   144
1040
1.0
1070
   272
1070
     8
1002
}
  0
DIMENSION
  5
1E58
330
1F
100
AcDbEntity
  8
AM_5
100
AcDbDimension
  2
*D10
 10
2185.407807601635
 20
293.2730235218528
 30
0.0
 11
2182.907807601635
 21
304.8728300252527
 31
0.0
 70
    32
 71
     5
 42
23.19961300679893
  3
AM_ISO$0
100
AcDbAlignedDimension
 13
2146.187974492888
 23
316.4726365286518
 33
0.0
 14
2146.407807601635
 24
293.2730235218529
 34
0.0
 50
90.0
100
AcDbRotatedDimension
1001
ACAD
1000
DSTYLE
1002
{
1070
    40
1040
1.0
1070
   144
1040
1.0
1070
   272
1070
     8
1002
}
  0
DIMENSION
  5
1E59
330
1F
100
AcDbEntity
  8
AM_5
100
AcDbDimension
  2
*D11
 10
2153.907807601635
 20
200.621678289128
 30
0.0
 11
2131.407807601635
 21
203.121678289128
 31
0.0
 70
    32
  1
M<>x1.5
 71
     5
 42
45.0
  3
AM_ISO$0
100
AcDbAlignedDimension
 13
2108.907807601635
 23
208.2730235218529
 33
0.0
 14
2153.907807601635
 24
208.2730235218529
 34
0.0
100
AcDbRotatedDimension
1001
ACAD
1000
DSTYLE
1002
{
1070
    40
1040
1.0
1070
   144
1040
1.0
1070
   272
1070
     8
1002
}
  0
LINE
  5
1F2A
330
1F
100
AcDbEntity
  8
0
100
AcDbLine
 10
2461.476583508878
 20
508.9561227128467
 30
0.0
 11
2507.476583508879
 21
508.9561227128467
 31
0.0
  0
LINE
  5
1F2C
330
1F
100
AcDbEntity
  8
0
100
AcDbLine
 10
2509.476583508878
 20
577.9561227128467
 30
0.0
 11
2509.476583508878
 21
527.9561227128467
 31
0.0
  0
LINE
  5
1F2D
330
1F
100
AcDbEntity
  8
0
100
AcDbLine
 10
2459.476583508878
 20
577.9561227128467
 30
0.0
 11
2459.476583508878
 21
527.9561227128467
 31
0.0
  0
LINE
  5
1F2E
330
1F
100
AcDbEntity
  8
0
100
AcDbLine
 10
2473.184316946741
 20
659.7561227128466
 30
0.0
 11
2495.768850071016
 21
659.7561227128466
 31
0.0
  0
LINE
  5
1F2F
330
1F
100
AcDbEntity
  8
0
100
AcDbLine
 10
2508.476583508878
 20
603.9561227128467
 30
0.0
 11
2508.476583508878
 21
509.9561227128467
 31
0.0
  0
LINE
  5
1F30
330
1F
100
AcDbEntity
  8
0
100
AcDbLine
 10
2460.476583508878
 20
603.9561227128466
 30
0.0
 11
2460.476583508878
 21
509.9561227128467
 31
0.0
  0
LINE
  5
1F31
330
1F
100
AcDbEntity
  8
0
100
AcDbLine
 10
2508.476583508878
 20
603.9561227128467
 30
0.0
 11
2506.476583508879
 21
605.9561227128467
 31
0.0
  0
LINE
  5
1F32
330
1F
100
AcDbEntity
  8
0
100
AcDbLine
 10
2462.476583508879
 20
605.9561227128466
 30
0.0
 11
2460.476583508878
 21
603.9561227128466
 31
0.0
  0
LINE
  5
1F33
330
1F
100
AcDbEntity
  8
0
100
AcDbLine
 10
2460.476583508878
 20
578.9561227128467
 30
0.0
 11
2508.476583508878
 21
578.9561227128467
 31
0.0
  0
LINE
  5
1F34
330
1F
100
AcDbEntity
  8
0
100
AcDbLine
 10
2509.476583508878
 20
577.9561227128467
 30
0.0
 11
2508.476583508878
 21
578.9561227128467
 31
0.0
  0
LINE
  5
1F35
330
1F
100
AcDbEntity
  8
0
100
AcDbLine
 10
2424.476583508879
 20
653.9561227128467
 30
0.0
 11
2424.476583508879
 21
636.9561227128468
 31
0.0
  0
LINE
  5
1F36
330
1F
100
AcDbEntity
  8
0
100
AcDbLine
 10
2502.476583508878
 20
653.9561227128467
 30
0.0
 11
2502.476583508878
 21
636.9561227128468
 31
0.0
  0
LINE
  5
1F37
330
1F
100
AcDbEntity
  8
0
100
AcDbLine
 10
2501.476583508879
 20
635.9561227128467
 30
0.0
 11
2502.476583508878
 21
636.9561227128468
 31
0.0
  0
LINE
  5
1F38
330
1F
100
AcDbEntity
  8
0
100
AcDbLine
 10
2502.476583508878
 20
653.9561227128467
 30
0.0
 11
2501.476583508879
 21
654.9561227128467
 31
0.0
  0
LINE
  5
1F3A
330
1F
100
AcDbEntity
  8
0
  6
HIDDEN
 62
     3
 48
0.5
100
AcDbLine
 10
2440.476583508879
 20
635.9561227128467
 30
0.0
 11
2440.476583508879
 21
654.9561227128467
 31
0.0
  0
LINE
  5
1F3B
330
1F
100
AcDbEntity
  8
0
  6
HIDDEN
 62
     3
 48
0.5
100
AcDbLine
 10
2428.476583508878
 20
635.9561227128467
 30
0.0
 11
2428.476583508878
 21
654.9561227128467
 31
0.0
  0
LINE
  5
1F3C
330
1F
100
AcDbEntity
  8
0
  6
HIDDEN
 62
     3
 48
0.5
100
AcDbLine
 10
2439.476583508878
 20
635.9561227128467
 30
0.0
 11
2439.476583508878
 21
654.9561227128467
 31
0.0
  0
LINE
  5
1F3D
330
1F
100
AcDbEntity
  8
0
  6
HIDDEN
 62
     3
 48
0.5
100
AcDbLine
 10
2429.476583508878
 20
635.9561227128467
 30
0.0
 11
2429.476583508878
 21
654.9561227128467
 31
0.0
  0
LINE
  5
1F3E
330
1F
100
AcDbEntity
  8
0
100
AcDbLine
 10
2491.866666954506
 20
658.9561227128467
 30
0.0
 11
2491.866666954506
 21
654.9561227128467
 31
0.0
  0
LINE
  5
1F3F
330
1F
100
AcDbEntity
  8
0
100
AcDbLine
 10
2499.256750400133
 20
658.9561227128467
 30
0.0
 11
2499.256750400133
 21
654.9561227128467
 31
0.0
  0
LINE
  5
1F40
330
1F
100
AcDbEntity
  8
0
100
AcDbLine
 10
2477.086500063251
 20
658.9561227128467
 30
0.0
 11
2477.086500063251
 21
654.9561227128467
 31
0.0
  0
LINE
  5
1F41
330
1F
100
AcDbEntity
  8
0
100
AcDbLine
 10
2469.696416617624
 20
658.9561227128467
 30
0.0
 11
2469.696416617624
 21
654.9561227128467
 31
0.0
  0
ARC
  5
1F42
330
1F
100
AcDbEntity
  8
0
100
AcDbCircle
 10
2484.476583508878
 20
625.2227893795134
 30
0.0
 40
34.53333333333334
100
AcDbArc
 50
77.64321860963021
 51
102.3567813903697
  0
ARC
  5
1F43
330
1F
100
AcDbEntity
  8
0
100
AcDbCircle
 10
2473.391458340438
 20
650.8496066026275
 30
0.0
 40
8.908924557912527
100
AcDbArc
 50
65.49596495353551
 51
114.5040350464645
  0
ARC
  5
1F44
330
1F
100
AcDbEntity
  8
0
100
AcDbCircle
 10
2495.561708677319
 20
650.8496066026275
 30
0.0
 40
8.908924557912527
100
AcDbArc
 50
65.49596495353551
 51
114.5040350464645
  0
CIRCLE
  5
1F47
330
1F
100
AcDbEntity
  8
0
100
AcDbCircle
 10
2484.476583508878
 20
590.9338113633059
 30
0.0
 40
4.75
  0
CIRCLE
  5
1F48
330
1F
100
AcDbEntity
  8
0
100
AcDbCircle
 10
2484.476583508878
 20
590.9338113633059
 30
0.0
 40
3.75
  0
CIRCLE
  5
1F4B
330
1F
100
AcDbEntity
  8
0
100
AcDbCircle
 10
2484.476583508878
 20
719.2995965097058
 30
0.0
 40
9.0
  0
LINE
  5
1F4C
330
1F
100
AcDbEntity
  8
0
100
AcDbLine
 10
2502.476583508878
 20
719.2995965097058
 30
0.0
 11
2502.476583508878
 21
737.2995965097059
 31
0.0
  0
LINE
  5
1F4D
330
1F
100
AcDbEntity
  8
0
100
AcDbLine
 10
2502.476583508878
 20
719.2995965097058
 30
0.0
 11
2502.476583508878
 21
701.2995965097059
 31
0.0
  0
LINE
  5
1F4E
330
1F
100
AcDbEntity
  8
0
100
AcDbLine
 10
2501.476583508879
 20
700.2995965097059
 30
0.0
 11
2444.476583508878
 21
700.2995965097059
 31
0.0
  0
LINE
  5
1F4F
330
1F
100
AcDbEntity
  8
0
100
AcDbLine
 10
2424.476583508879
 20
707.2995965097058
 30
0.0
 11
2424.476583508879
 21
731.2995965097059
 31
0.0
  0
LINE
  5
1F50
330
1F
100
AcDbEntity
  8
0
100
AcDbLine
 10
2444.476583508878
 20
738.2995965097059
 30
0.0
 11
2501.476583508879
 21
738.2995965097059
 31
0.0
  0
CIRCLE
  5
1F51
330
1F
100
AcDbEntity
  8
0
100
AcDbCircle
 10
2434.476583508879
 20
719.2995965097058
 30
0.0
 40
6.0
  0
LINE
  5
1F52
330
1F
100
AcDbEntity
  8
0
100
AcDbLine
 10
2424.476583508879
 20
731.2995965097059
 30
0.0
 11
2444.476583508878
 21
738.2995965097059
 31
0.0
  0
LINE
  5
1F53
330
1F
100
AcDbEntity
  8
0
100
AcDbLine
 10
2424.476583508879
 20
707.2995965097058
 30
0.0
 11
2444.476583508878
 21
700.2995965097059
 31
0.0
  0
CIRCLE
  5
1F54
330
1F
100
AcDbEntity
  8
0
100
AcDbCircle
 10
2434.476583508879
 20
719.2995965097058
 30
0.0
 40
5.0
  0
CIRCLE
  5
1F55
330
1F
100
AcDbEntity
  8
0
100
AcDbCircle
 10
2484.476583508878
 20
719.2995965097058
 30
0.0
 40
8.0
  0
POLYLINE
  5
1F56
330
1F
100
AcDbEntity
  8
0
100
AcDb2dPolyline
 66
     1
 10
0.0
 20
0.0
 30
0.0
 70
     1
  0
VERTEX
  5
1F57
330
1F56
100
AcDbEntity
  8
0
100
AcDbVertex
100
AcDb2dVertex
 10
2470.32775991635
 20
719.2995965097058
 30
0.0
  0
VERTEX
  5
1F58
330
1F56
100
AcDbEntity
  8
0
100
AcDbVertex
100
AcDb2dVertex
 10
2477.402171712614
 20
707.0463558449114
 30
0.0
  0
VERTEX
  5
1F59
330
1F56
100
AcDbEntity
  8
0
100
AcDbVertex
100
AcDb2dVertex
 10
2491.550995305142
 20
707.0463558449114
 30
0.0
  0
VERTEX
  5
1F5A
330
1F56
100
AcDbEntity
  8
0
100
AcDbVertex
100
AcDb2dVertex
 10
2498.625407101407
 20
719.2995965097058
 30
0.0
  0
VERTEX
  5
1F5B
330
1F56
100
AcDbEntity
  8
0
100
AcDbVertex
100
AcDb2dVertex
 10
2491.550995305142
 20
731.5528371745003
 30
0.0
  0
VERTEX
  5
1F5C
330
1F56
100
AcDbEntity
  8
0
100
AcDbVertex
100
AcDb2dVertex
 10
2477.402171712614
 20
731.5528371745003
 30
0.0
  0
SEQEND
  5
1F5D
330
1F56
100
AcDbEntity
  8
0
  0
LINE
  5
1F60
330
1F
100
AcDbEntity
  8
0
100
AcDbLine
 10
2501.476583508879
 20
738.2995965097059
 30
0.0
 11
2502.476583508878
 21
737.2995965097059
 31
0.0
  0
LINE
  5
1F61
330
1F
100
AcDbEntity
  8
0
100
AcDbLine
 10
2502.476583508878
 20
701.2995965097059
 30
0.0
 11
2501.476583508879
 21
700.2995965097059
 31
0.0
  0
ARC
  5
1F62
330
1F
100
AcDbEntity
  8
0
100
AcDbCircle
 10
2484.476583508878
 20
719.2995965097058
 30
0.0
 40
25.0
100
AcDbArc
 50
229.4641978886804
 51
130.5358021113196
  0
LINE
  5
1F63
330
1F
100
AcDbEntity
  8
0
100
AcDbLine
 10
2495.476583508879
 20
635.9561227128467
 30
0.0
 11
2495.476583508879
 21
605.9561227128466
 31
0.0
  0
LINE
  5
1F64
330
1F
100
AcDbEntity
  8
0
100
AcDbLine
 10
2473.476583508878
 20
635.9561227128466
 30
0.0
 11
2473.476583508878
 21
605.9561227128466
 31
0.0
  0
LINE
  5
1F65
330
1F
100
AcDbEntity
  8
0
100
AcDbLine
 10
2460.476583508878
 20
578.9561227128467
 30
0.0
 11
2459.476583508878
 21
577.9561227128467
 31
0.0
  0
LINE
  5
1F66
330
1F
100
AcDbEntity
  8
0
100
AcDbLine
 10
2508.476583508878
 20
578.9561227128467
 30
0.0
 11
2509.476583508878
 21
577.9561227128467
 31
0.0
  0
LINE
  5
1F67
330
1F
100
AcDbEntity
  8
0
100
AcDbLine
 10
2462.476583508879
 20
605.9561227128466
 30
0.0
 11
2506.476583508879
 21
605.9561227128467
 31
0.0
  0
LINE
  5
1F68
330
1F
100
AcDbEntity
  8
0
100
AcDbLine
 10
2424.476583508879
 20
653.9561227128467
 30
0.0
 11
2425.476583508878
 21
654.9561227128467
 31
0.0
  0
LINE
  5
1F69
330
1F
100
AcDbEntity
  8
0
100
AcDbLine
 10
2424.476583508879
 20
636.9561227128468
 30
0.0
 11
2425.476583508878
 21
635.9561227128467
 31
0.0
  0
LINE
  5
1F6A
330
1F
100
AcDbEntity
  8
0
100
AcDbLine
 10
2425.476583508878
 20
654.9561227128467
 30
0.0
 11
2501.476583508879
 21
654.9561227128467
 31
0.0
  0
LINE
  5
1F6B
330
1F
100
AcDbEntity
  8
0
100
AcDbLine
 10
2425.476583508878
 20
635.9561227128467
 30
0.0
 11
2501.476583508879
 21
635.9561227128467
 31
0.0
  0
ARC
  5
1F6C
330
1F
100
AcDbEntity
  8
0
100
AcDbCircle
 10
2484.476583508878
 20
719.2995965097058
 30
0.0
 40
24.0
100
AcDbArc
 50
232.3415379937904
 51
127.6584620062096
  0
LINE
  5
1F6D
330
1F
100
AcDbEntity
  8
0
100
AcDbLine
 10
2460.476583508878
 20
509.9561227128467
 30
0.0
 11
2461.476583508878
 21
508.9561227128467
 31
0.0
  0
LINE
  5
1F6E
330
1F
100
AcDbEntity
  8
0
100
AcDbLine
 10
2507.476583508879
 20
508.9561227128467
 30
0.0
 11
2508.476583508878
 21
509.9561227128467
 31
0.0
  0
LINE
  5
1F6F
330
1F
100
AcDbEntity
  8
0
100
AcDbLine
 10
2460.476583508878
 20
526.9561227128467
 30
0.0
 11
2508.476583508878
 21
526.9561227128467
 31
0.0
  0
LINE
  5
1F70
330
1F
100
AcDbEntity
  8
0
  6
Continuous
100
AcDbLine
 10
2445.112372370675
 20
654.9561227128467
 30
0.0
 11
2445.112372370675
 21
635.9561227128467
 31
0.0
  0
LINE
  5
1F71
330
1F
100
AcDbEntity
  8
0
100
AcDbLine
 10
2508.476583508878
 20
526.9561227128467
 30
0.0
 11
2509.476583508878
 21
527.9561227128467
 31
0.0
  0
LINE
  5
1F72
330
1F
100
AcDbEntity
  8
0
100
AcDbLine
 10
2459.476583508878
 20
527.9561227128467
 30
0.0
 11
2460.476583508878
 21
526.9561227128467
 31
0.0
  0
LINE
  5
1FAE
330
1F
100
AcDbEntity
  8
AM_7
  6
AM_ISO08W050x2
100
AcDbLine
 10
2434.476583508879
 20
719.2995965097058
 30
0.0
 11
2442.476583508879
 21
719.2995965097058
 31
0.0
1001
GENIUS_GENOREF_13
1005
1FB2
  0
LINE
  5
1FAF
330
1F
100
AcDbEntity
  8
AM_7
  6
AM_ISO08W050x2
100
AcDbLine
 10
2434.476583508879
 20
719.2995965097058
 30
0.0
 11
2434.476583508879
 21
727.2995965097059
 31
0.0
1001
GENIUS_GENOREF_13
1005
1FB2
  0
LINE
  5
1FB0
330
1F
100
AcDbEntity
  8
AM_7
  6
AM_ISO08W050x2
100
AcDbLine
 10
2434.476583508879
 20
719.2995965097058
 30
0.0
 11
2426.476583508879
 21
719.2995965097058
 31
0.0
1001
GENIUS_GENOREF_13
1005
1FB2
  0
LINE
  5
1FB1
330
1F
100
AcDbEntity
  8
AM_7
  6
AM_ISO08W050x2
100
AcDbLine
 10
2434.476583508879
 20
719.2995965097058
 30
0.0
 11
2434.476583508879
 21
711.2995965097058
 31
0.0
1001
GENIUS_GENOREF_13
1005
1FB2
  0
POINT
  5
1FB2
330
1F
100
AcDbEntity
  8
0
 60
     1
100
AcDbPoint
 10
0.0
 20
0.0
 30
0.0
1001
GENIUS_GENODEF_13
1002
{
1000
HIER
1070
    10
1002
}
1002
{
1000
MANEDIT
1070
     0
1002
}
1002
{
1000
NOSEL
1070
     0
1002
}
1002
{
1000
BEHIND
1070
     0
1002
}
1002
{
1000
OTHER
1070
     0
1002
}
1002
{
1000
REACTOR
1002
}
1001
GENIUS_GENOBJ-N-CRS_13
1002
{
1000
OWNER
1000
GEN
1002
}
1001
GENIUS_GENOLIS_13
1002
{
1000
ENT
1005
1FB1
1005
1FB0
1005
1FAF
1005
1FAE
1002
}
1001
GENIUS_GENOENT_13
1002
{
1000
MYREF
1005
1FB2
1002
}
1002
{
1000
GRP
1005
0
1002
}
  0
LINE
  5
1FC0
330
1F
100
AcDbEntity
  8
AM_7
100
AcDbLine
 10
2484.476583508878
 20
719.2995965097058
 30
0.0
 11
2511.476583508879
 21
719.2995965097058
 31
0.0
1001
GENIUS_GENOREF_13
1005
1FC4
  0
LINE
  5
1FC1
330
1F
100
AcDbEntity
  8
AM_7
100
AcDbLine
 10
2484.476583508878
 20
719.2995965097058
 30
0.0
 11
2484.476583508878
 21
746.2995965097059
 31
0.0
1001
GENIUS_GENOREF_13
1005
1FC4
  0
LINE
  5
1FC2
330
1F
100
AcDbEntity
  8
AM_7
100
AcDbLine
 10
2484.476583508878
 20
719.2995965097058
 30
0.0
 11
2457.476583508878
 21
719.2995965097058
 31
0.0
1001
GENIUS_GENOREF_13
1005
1FC4
  0
LINE
  5
1FC3
330
1F
100
AcDbEntity
  8
AM_7
100
AcDbLine
 10
2484.476583508878
 20
719.2995965097058
 30
0.0
 11
2484.476583508878
 21
692.2995965097059
 31
0.0
1001
GENIUS_GENOREF_13
1005
1FC4
  0
POINT
  5
1FC4
330
1F
100
AcDbEntity
  8
0
 60
     1
100
AcDbPoint
 10
0.0
 20
0.0
 30
0.0
1001
GENIUS_GENOBJ-N-CRS_13
1002
{
1000
OWNER
1000
GEN
1002
}
1001
GENIUS_GENODEF_13
1002
{
1000
HIER
1070
    10
1002
}
1002
{
1000
MANEDIT
1070
     0
1002
}
1002
{
1000
NOSEL
1070
     0
1002
}
1002
{
1000
BEHIND
1070
     0
1002
}
1002
{
1000
OTHER
1070
     0
1002
}
1002
{
1000
REACTOR
1002
}
1001
GENIUS_GENOLIS_13
1002
{
1000
ENT
1005
1FC3
1005
1FC2
1005
1FC1
1005
1FC0
1002
}
1001
GENIUS_GENOENT_13
1002
{
1000
MYREF
1005
1FC4
1002
}
1002
{
1000
GRP
1005
0
1002
}
  0
LINE
  5
1FD2
330
1F
100
AcDbEntity
  8
AM_7
100
AcDbLine
 10
2434.476583508879
 20
656.9561227128467
 30
0.0
 11
2434.476583508879
 21
633.9561227128467
 31
0.0
1001
GENIUS_GENOBJ-N-CEN_13
1002
{
1000
OWNER
1000
GEN
1002
}
1001
GENIUS_GENODEF_13
1002
{
1000
HIER
1070
     0
1002
}
1002
{
1000
MANEDIT
1070
     0
1002
}
1002
{
1000
NOSEL
1070
     0
1002
}
1002
{
1000
BEHIND
1070
     0
1002
}
1002
{
1000
OTHER
1070
     0
1002
}
1002
{
1000
REACTOR
1002
}
1001
GENIUS_GENCEN_19
1002
{
1040
2.0
1002
}
  0
LINE
  5
1FDF
330
1F
100
AcDbEntity
  8
AM_7
100
AcDbLine
 10
2484.476583508878
 20
661.7561227128466
 30
0.0
 11
2484.476583508878
 21
506.9561227128467
 31
0.0
1001
GENIUS_GENODEF_13
1002
{
1000
HIER
1070
     0
1002
}
1002
{
1000
MANEDIT
1070
     0
1002
}
1002
{
1000
NOSEL
1070
     0
1002
}
1002
{
1000
BEHIND
1070
     0
1002
}
1002
{
1000
OTHER
1070
     0
1002
}
1002
{
1000
REACTOR
1002
}
1001
GENIUS_GENOBJ-N-CEN_13
1002
{
1000
OWNER
1000
GEN
1002
}
1001
GENIUS_GENCEN_19
1002
{
1040
2.0
1002
}
  0
LINE
  5
204A
330
1F
100
AcDbEntity
  8
0
100
AcDbLine
 10
2461.476583508878
 20
159.2730235218529
 30
0.0
 11
2507.476583508879
 21
159.2730235218529
 31
0.0
  0
LINE
  5
204C
330
1F
100
AcDbEntity
  8
0
100
AcDbLine
 10
2509.476583508878
 20
228.2730235218529
 30
0.0
 11
2509.476583508878
 21
178.2730235218529
 31
0.0
  0
LINE
  5
204D
330
1F
100
AcDbEntity
  8
0
100
AcDbLine
 10
2459.476583508878
 20
228.2730235218529
 30
0.0
 11
2459.476583508878
 21
178.2730235218529
 31
0.0
  0
LINE
  5
204E
330
1F
100
AcDbEntity
  8
0
100
AcDbLine
 10
2473.184316946741
 20
316.0730235218529
 30
0.0
 11
2495.768850071016
 21
316.0730235218529
 31
0.0
  0
LINE
  5
204F
330
1F
100
AcDbEntity
  8
0
100
AcDbLine
 10
2508.476583508878
 20
254.2730235218529
 30
0.0
 11
2508.476583508878
 21
160.2730235218529
 31
0.0
  0
LINE
  5
2050
330
1F
100
AcDbEntity
  8
0
100
AcDbLine
 10
2460.476583508878
 20
254.2730235218529
 30
0.0
 11
2460.476583508878
 21
160.2730235218529
 31
0.0
  0
LINE
  5
2051
330
1F
100
AcDbEntity
  8
0
100
AcDbLine
 10
2508.476583508878
 20
254.2730235218529
 30
0.0
 11
2506.476583508879
 21
256.2730235218529
 31
0.0
  0
LINE
  5
2052
330
1F
100
AcDbEntity
  8
0
100
AcDbLine
 10
2462.476583508879
 20
256.2730235218529
 30
0.0
 11
2460.476583508878
 21
254.2730235218529
 31
0.0
  0
LINE
  5
2053
330
1F
100
AcDbEntity
  8
0
100
AcDbLine
 10
2460.476583508878
 20
229.2730235218529
 30
0.0
 11
2508.476583508878
 21
229.2730235218529
 31
0.0
  0
LINE
  5
2054
330
1F
100
AcDbEntity
  8
0
100
AcDbLine
 10
2509.476583508878
 20
228.2730235218529
 30
0.0
 11
2508.476583508878
 21
229.2730235218529
 31
0.0
  0
LINE
  5
2055
330
1F
100
AcDbEntity
  8
0
100
AcDbLine
 10
2424.476583508879
 20
310.2730235218529
 30
0.0
 11
2424.476583508879
 21
293.2730235218529
 31
0.0
  0
LINE
  5
2056
330
1F
100
AcDbEntity
  8
0
100
AcDbLine
 10
2502.476583508878
 20
310.2730235218529
 30
0.0
 11
2502.476583508878
 21
293.2730235218529
 31
0.0
  0
LINE
  5
2057
330
1F
100
AcDbEntity
  8
0
100
AcDbLine
 10
2501.476583508879
 20
292.2730235218529
 30
0.0
 11
2502.476583508878
 21
293.2730235218529
 31
0.0
  0
LINE
  5
2058
330
1F
100
AcDbEntity
  8
0
100
AcDbLine
 10
2502.476583508878
 20
310.2730235218529
 30
0.0
 11
2501.476583508879
 21
311.2730235218529
 31
0.0
  0
LINE
  5
205A
330
1F
100
AcDbEntity
  8
0
  6
HIDDEN
 62
     3
 48
0.5
100
AcDbLine
 10
2440.476583508879
 20
292.2730235218529
 30
0.0
 11
2440.476583508879
 21
311.2730235218529
 31
0.0
  0
LINE
  5
205B
330
1F
100
AcDbEntity
  8
0
  6
HIDDEN
 62
     3
 48
0.5
100
AcDbLine
 10
2428.476583508878
 20
292.2730235218529
 30
0.0
 11
2428.476583508878
 21
311.2730235218529
 31
0.0
  0
LINE
  5
205C
330
1F
100
AcDbEntity
  8
0
  6
HIDDEN
 62
     3
 48
0.5
100
AcDbLine
 10
2439.476583508878
 20
292.2730235218529
 30
0.0
 11
2439.476583508878
 21
311.2730235218529
 31
0.0
  0
LINE
  5
205D
330
1F
100
AcDbEntity
  8
0
  6
HIDDEN
 62
     3
 48
0.5
100
AcDbLine
 10
2429.476583508878
 20
292.2730235218529
 30
0.0
 11
2429.476583508878
 21
311.2730235218529
 31
0.0
  0
LINE
  5
205E
330
1F
100
AcDbEntity
  8
0
100
AcDbLine
 10
2491.866666954506
 20
315.2730235218529
 30
0.0
 11
2491.866666954506
 21
311.2730235218529
 31
0.0
  0
LINE
  5
205F
330
1F
100
AcDbEntity
  8
0
100
AcDbLine
 10
2499.256750400133
 20
315.2730235218529
 30
0.0
 11
2499.256750400133
 21
311.2730235218529
 31
0.0
  0
LINE
  5
2060
330
1F
100
AcDbEntity
  8
0
100
AcDbLine
 10
2477.086500063251
 20
315.2730235218529
 30
0.0
 11
2477.086500063251
 21
311.2730235218529
 31
0.0
  0
LINE
  5
2061
330
1F
100
AcDbEntity
  8
0
100
AcDbLine
 10
2469.696416617624
 20
315.2730235218529
 30
0.0
 11
2469.696416617624
 21
311.2730235218529
 31
0.0
  0
ARC
  5
2062
330
1F
100
AcDbEntity
  8
0
100
AcDbCircle
 10
2484.476583508878
 20
281.5396901885196
 30
0.0
 40
34.53333333333334
100
AcDbArc
 50
77.64321860963021
 51
102.3567813903697
  0
ARC
  5
2063
330
1F
100
AcDbEntity
  8
0
100
AcDbCircle
 10
2473.391458340438
 20
307.1665074116337
 30
0.0
 40
8.908924557912527
100
AcDbArc
 50
65.49596495353551
 51
114.5040350464645
  0
ARC
  5
2064
330
1F
100
AcDbEntity
  8
0
100
AcDbCircle
 10
2495.561708677319
 20
307.1665074116337
 30
0.0
 40
8.908924557912527
100
AcDbArc
 50
65.49596495353551
 51
114.5040350464645
  0
CIRCLE
  5
2067
330
1F
100
AcDbEntity
  8
0
100
AcDbCircle
 10
2484.476583508878
 20
241.2507121723122
 30
0.0
 40
4.75
  0
CIRCLE
  5
2068
330
1F
100
AcDbEntity
  8
0
100
AcDbCircle
 10
2484.476583508878
 20
241.2507121723122
 30
0.0
 40
3.75
  0
CIRCLE
  5
206B
330
1F
100
AcDbEntity
  8
0
100
AcDbCircle
 10
2484.476583508878
 20
376.2140707034351
 30
0.0
 40
9.0
  0
LINE
  5
206C
330
1F
100
AcDbEntity
  8
0
100
AcDbLine
 10
2502.476583508878
 20
376.2140707034351
 30
0.0
 11
2502.476583508878
 21
394.2140707034352
 31
0.0
  0
LINE
  5
206D
330
1F
100
AcDbEntity
  8
0
100
AcDbLine
 10
2502.476583508878
 20
376.2140707034351
 30
0.0
 11
2502.476583508878
 21
358.2140707034351
 31
0.0
  0
LINE
  5
206E
330
1F
100
AcDbEntity
  8
0
100
AcDbLine
 10
2501.476583508879
 20
357.2140707034352
 30
0.0
 11
2444.476583508878
 21
357.2140707034352
 31
0.0
  0
LINE
  5
206F
330
1F
100
AcDbEntity
  8
0
100
AcDbLine
 10
2424.476583508879
 20
364.2140707034351
 30
0.0
 11
2424.476583508879
 21
388.2140707034352
 31
0.0
  0
LINE
  5
2070
330
1F
100
AcDbEntity
  8
0
100
AcDbLine
 10
2444.476583508878
 20
395.2140707034351
 30
0.0
 11
2501.476583508879
 21
395.2140707034351
 31
0.0
  0
CIRCLE
  5
2071
330
1F
100
AcDbEntity
  8
0
100
AcDbCircle
 10
2434.476583508879
 20
376.2140707034351
 30
0.0
 40
6.0
  0
LINE
  5
2072
330
1F
100
AcDbEntity
  8
0
100
AcDbLine
 10
2424.476583508879
 20
388.2140707034352
 30
0.0
 11
2444.476583508878
 21
395.2140707034351
 31
0.0
  0
LINE
  5
2073
330
1F
100
AcDbEntity
  8
0
100
AcDbLine
 10
2424.476583508879
 20
364.2140707034351
 30
0.0
 11
2444.476583508878
 21
357.2140707034352
 31
0.0
  0
CIRCLE
  5
2074
330
1F
100
AcDbEntity
  8
0
100
AcDbCircle
 10
2434.476583508879
 20
376.2140707034351
 30
0.0
 40
5.0
  0
CIRCLE
  5
2075
330
1F
100
AcDbEntity
  8
0
100
AcDbCircle
 10
2484.476583508878
 20
376.2140707034351
 30
0.0
 40
8.0
  0
POLYLINE
  5
2076
330
1F
100
AcDbEntity
  8
0
100
AcDb2dPolyline
 66
     1
 10
0.0
 20
0.0
 30
0.0
 70
     1
  0
VERTEX
  5
2077
330
2076
100
AcDbEntity
  8
0
100
AcDbVertex
100
AcDb2dVertex
 10
2470.32775991635
 20
376.2140707034351
 30
0.0
  0
VERTEX
  5
2078
330
2076
100
AcDbEntity
  8
0
100
AcDbVertex
100
AcDb2dVertex
 10
2477.402171712614
 20
363.9608300386407
 30
0.0
  0
VERTEX
  5
2079
330
2076
100
AcDbEntity
  8
0
100
AcDbVertex
100
AcDb2dVertex
 10
2491.550995305142
 20
363.9608300386407
 30
0.0
  0
VERTEX
  5
207A
330
2076
100
AcDbEntity
  8
0
100
AcDbVertex
100
AcDb2dVertex
 10
2498.625407101407
 20
376.2140707034351
 30
0.0
  0
VERTEX
  5
207B
330
2076
100
AcDbEntity
  8
0
100
AcDbVertex
100
AcDb2dVertex
 10
2491.550995305142
 20
388.4673113682296
 30
0.0
  0
VERTEX
  5
207C
330
2076
100
AcDbEntity
  8
0
100
AcDbVertex
100
AcDb2dVertex
 10
2477.402171712614
 20
388.4673113682296
 30
0.0
  0
SEQEND
  5
207D
330
2076
100
AcDbEntity
  8
0
  0
LINE
  5
2080
330
1F
100
AcDbEntity
  8
0
100
AcDbLine
 10
2501.476583508879
 20
395.2140707034351
 30
0.0
 11
2502.476583508878
 21
394.2140707034352
 31
0.0
  0
LINE
  5
2081
330
1F
100
AcDbEntity
  8
0
100
AcDbLine
 10
2502.476583508878
 20
358.2140707034351
 30
0.0
 11
2501.476583508879
 21
357.2140707034352
 31
0.0
  0
ARC
  5
2082
330
1F
100
AcDbEntity
  8
0
100
AcDbCircle
 10
2484.476583508878
 20
376.2140707034351
 30
0.0
 40
25.0
100
AcDbArc
 50
229.4641978886804
 51
130.5358021113196
  0
LINE
  5
2083
330
1F
100
AcDbEntity
  8
0
100
AcDbLine
 10
2495.476583508879
 20
292.2730235218529
 30
0.0
 11
2495.476583508879
 21
256.2730235218529
 31
0.0
  0
LINE
  5
2084
330
1F
100
AcDbEntity
  8
0
100
AcDbLine
 10
2473.476583508878
 20
292.2730235218529
 30
0.0
 11
2473.476583508878
 21
256.2730235218529
 31
0.0
  0
LINE
  5
2085
330
1F
100
AcDbEntity
  8
0
100
AcDbLine
 10
2460.476583508878
 20
229.2730235218529
 30
0.0
 11
2459.476583508878
 21
228.2730235218529
 31
0.0
  0
LINE
  5
2086
330
1F
100
AcDbEntity
  8
0
100
AcDbLine
 10
2508.476583508878
 20
229.2730235218529
 30
0.0
 11
2509.476583508878
 21
228.2730235218529
 31
0.0
  0
LINE
  5
2087
330
1F
100
AcDbEntity
  8
0
100
AcDbLine
 10
2462.476583508879
 20
256.2730235218529
 30
0.0
 11
2506.476583508879
 21
256.2730235218529
 31
0.0
  0
LINE
  5
2088
330
1F
100
AcDbEntity
  8
0
100
AcDbLine
 10
2424.476583508879
 20
310.2730235218529
 30
0.0
 11
2425.476583508878
 21
311.2730235218529
 31
0.0
  0
LINE
  5
2089
330
1F
100
AcDbEntity
  8
0
100
AcDbLine
 10
2424.476583508879
 20
293.2730235218529
 30
0.0
 11
2425.476583508878
 21
292.2730235218529
 31
0.0
  0
LINE
  5
208A
330
1F
100
AcDbEntity
  8
0
100
AcDbLine
 10
2425.476583508878
 20
311.2730235218529
 30
0.0
 11
2501.476583508879
 21
311.2730235218529
 31
0.0
  0
LINE
  5
208B
330
1F
100
AcDbEntity
  8
0
100
AcDbLine
 10
2425.476583508878
 20
292.2730235218529
 30
0.0
 11
2501.476583508879
 21
292.2730235218529
 31
0.0
  0
ARC
  5
208C
330
1F
100
AcDbEntity
  8
0
100
AcDbCircle
 10
2484.476583508878
 20
376.2140707034351
 30
0.0
 40
24.0
100
AcDbArc
 50
232.3415379937904
 51
127.6584620062096
  0
LINE
  5
208D
330
1F
100
AcDbEntity
  8
0
100
AcDbLine
 10
2460.476583508878
 20
160.2730235218529
 30
0.0
 11
2461.476583508878
 21
159.2730235218529
 31
0.0
  0
LINE
  5
208E
330
1F
100
AcDbEntity
  8
0
100
AcDbLine
 10
2507.476583508879
 20
159.2730235218529
 30
0.0
 11
2508.476583508878
 21
160.2730235218529
 31
0.0
  0
LINE
  5
208F
330
1F
100
AcDbEntity
  8
0
100
AcDbLine
 10
2460.476583508878
 20
177.2730235218529
 30
0.0
 11
2508.476583508878
 21
177.2730235218529
 31
0.0
  0
LINE
  5
2091
330
1F
100
AcDbEntity
  8
0
  6
Continuous
100
AcDbLine
 10
2444.536998377578
 20
311.2730235218529
 30
0.0
 11
2444.536998377578
 21
292.2730235218529
 31
0.0
  0
LINE
  5
2092
330
1F
100
AcDbEntity
  8
0
100
AcDbLine
 10
2459.476583508878
 20
178.2730235218529
 30
0.0
 11
2460.476583508878
 21
177.2730235218529
 31
0.0
  0
LINE
  5
2093
330
1F
100
AcDbEntity
  8
0
100
AcDbLine
 10
2508.476583508878
 20
177.2730235218529
 30
0.0
 11
2509.476583508878
 21
178.2730235218529
 31
0.0
  0
LINE
  5
20CE
330
1F
100
AcDbEntity
  8
AM_7
100
AcDbLine
 10
2434.476583508879
 20
313.2730235218529
 30
0.0
 11
2434.476583508879
 21
290.2730235218529
 31
0.0
1001
GENIUS_GENODEF_13
1002
{
1000
HIER
1070
     0
1002
}
1002
{
1000
MANEDIT
1070
     0
1002
}
1002
{
1000
NOSEL
1070
     0
1002
}
1002
{
1000
BEHIND
1070
     0
1002
}
1002
{
1000
OTHER
1070
     0
1002
}
1002
{
1000
REACTOR
1002
}
1001
GENIUS_GENOBJ-N-CEN_13
1002
{
1000
OWNER
1000
GEN
1002
}
1001
GENIUS_GENCEN_19
1002
{
1040
2.0
1002
}
  0
LINE
  5
20F6
330
1F
100
AcDbEntity
  8
AM_7
  6
AM_ISO08W050x2
100
AcDbLine
 10
2484.476583508878
 20
241.2507121723122
 30
0.0
 11
2491.226583508879
 21
241.2507121723122
 31
0.0
1001
GENIUS_GENOREF_13
1005
20FA
  0
LINE
  5
20F7
330
1F
100
AcDbEntity
  8
AM_7
  6
AM_ISO08W050x2
100
AcDbLine
 10
2484.476583508878
 20
241.2507121723122
 30
0.0
 11
2484.476583508878
 21
248.0007121723122
 31
0.0
1001
GENIUS_GENOREF_13
1005
20FA
  0
LINE
  5
20F8
330
1F
100
AcDbEntity
  8
AM_7
  6
AM_ISO08W050x2
100
AcDbLine
 10
2484.476583508878
 20
241.2507121723122
 30
0.0
 11
2477.726583508879
 21
241.2507121723122
 31
0.0
1001
GENIUS_GENOREF_13
1005
20FA
  0
LINE
  5
20F9
330
1F
100
AcDbEntity
  8
AM_7
  6
AM_ISO08W050x2
100
AcDbLine
 10
2484.476583508878
 20
241.2507121723122
 30
0.0
 11
2484.476583508878
 21
234.5007121723122
 31
0.0
1001
GENIUS_GENOREF_13
1005
20FA
  0
POINT
  5
20FA
330
1F
100
AcDbEntity
  8
0
 60
     1
100
AcDbPoint
 10
0.0
 20
0.0
 30
0.0
1001
GENIUS_GENODEF_13
1002
{
1000
HIER
1070
    10
1002
}
1002
{
1000
MANEDIT
1070
     0
1002
}
1002
{
1000
NOSEL
1070
     0
1002
}
1002
{
1000
BEHIND
1070
     0
1002
}
1002
{
1000
OTHER
1070
     0
1002
}
1002
{
1000
REACTOR
1002
}
1001
GENIUS_GENOBJ-N-CRS_13
1002
{
1000
OWNER
1000
GEN
1002
}
1001
GENIUS_GENOLIS_13
1002
{
1000
ENT
1005
20F9
1005
20F8
1005
20F7
1005
20F6
1002
}
1001
GENIUS_GENOENT_13
1002
{
1000
MYREF
1005
20FA
1002
}
1002
{
1000
GRP
1005
0
1002
}
  0
LINE
  5
2107
330
1F
100
AcDbEntity
  8
AM_7
100
AcDbLine
 10
2484.476583508878
 20
318.0730235218529
 30
0.0
 11
2484.476583508878
 21
157.2730235218529
 31
0.0
1001
GENIUS_GENOBJ-N-CEN_13
1002
{
1000
OWNER
1000
GEN
1002
}
1001
GENIUS_GENODEF_13
1002
{
1000
HIER
1070
     0
1002
}
1002
{
1000
MANEDIT
1070
     0
1002
}
1002
{
1000
NOSEL
1070
     0
1002
}
1002
{
1000
BEHIND
1070
     0
1002
}
1002
{
1000
OTHER
1070
     0
1002
}
1002
{
1000
REACTOR
1002
}
1001
GENIUS_GENCEN_19
1002
{
1040
2.0
1002
}
  0
LINE
  5
2115
330
1F
100
AcDbEntity
  8
AM_7
100
AcDbLine
 10
2484.476583508878
 20
376.2140707034351
 30
0.0
 11
2511.476583508879
 21
376.2140707034351
 31
0.0
1001
GENIUS_GENOREF_13
1005
2119
  0
LINE
  5
2116
330
1F
100
AcDbEntity
  8
AM_7
100
AcDbLine
 10
2484.476583508878
 20
376.2140707034351
 30
0.0
 11
2484.476583508878
 21
403.2140707034351
 31
0.0
1001
GENIUS_GENOREF_13
1005
2119
  0
LINE
  5
2117
330
1F
100
AcDbEntity
  8
AM_7
100
AcDbLine
 10
2484.476583508878
 20
376.2140707034351
 30
0.0
 11
2457.476583508878
 21
376.2140707034351
 31
0.0
1001
GENIUS_GENOREF_13
1005
2119
  0
LINE
  5
2118
330
1F
100
AcDbEntity
  8
AM_7
100
AcDbLine
 10
2484.476583508878
 20
376.2140707034351
 30
0.0
 11
2484.476583508878
 21
349.2140707034351
 31
0.0
1001
GENIUS_GENOREF_13
1005
2119
  0
POINT
  5
2119
330
1F
100
AcDbEntity
  8
0
 60
     1
100
AcDbPoint
 10
0.0
 20
0.0
 30
0.0
1001
GENIUS_GENOBJ-N-CRS_13
1002
{
1000
OWNER
1000
GEN
1002
}
1001
GENIUS_GENODEF_13
1002
{
1000
HIER
1070
    10
1002
}
1002
{
1000
MANEDIT
1070
     0
1002
}
1002
{
1000
NOSEL
1070
     0
1002
}
1002
{
1000
BEHIND
1070
     0
1002
}
1002
{
1000
OTHER
1070
     0
1002
}
1002
{
1000
REACTOR
1002
}
1001
GENIUS_GENOLIS_13
1002
{
1000
ENT
1005
2118
1005
2117
1005
2116
1005
2115
1002
}
1001
GENIUS_GENOENT_13
1002
{
1000
MYREF
1005
2119
1002
}
1002
{
1000
GRP
1005
0
1002
}
  0
LINE
  5
212B
330
1F
100
AcDbEntity
  8
AM_7
  6
AM_ISO08W050x2
100
AcDbLine
 10
2434.476583508879
 20
376.2140707034351
 30
0.0
 11
2442.476583508879
 21
376.2140707034351
 31
0.0
1001
GENIUS_GENOREF_13
1005
212F
  0
LINE
  5
212C
330
1F
100
AcDbEntity
  8
AM_7
  6
AM_ISO08W050x2
100
AcDbLine
 10
2434.476583508879
 20
376.2140707034351
 30
0.0
 11
2434.476583508879
 21
384.2140707034351
 31
0.0
1001
GENIUS_GENOREF_13
1005
212F
  0
LINE
  5
212D
330
1F
100
AcDbEntity
  8
AM_7
  6
AM_ISO08W050x2
100
AcDbLine
 10
2434.476583508879
 20
376.2140707034351
 30
0.0
 11
2426.476583508879
 21
376.2140707034351
 31
0.0
1001
GENIUS_GENOREF_13
1005
212F
  0
LINE
  5
212E
330
1F
100
AcDbEntity
  8
AM_7
  6
AM_ISO08W050x2
100
AcDbLine
 10
2434.476583508879
 20
376.2140707034351
 30
0.0
 11
2434.476583508879
 21
368.2140707034351
 31
0.0
1001
GENIUS_GENOREF_13
1005
212F
  0
POINT
  5
212F
330
1F
100
AcDbEntity
  8
0
 60
     1
100
AcDbPoint
 10
0.0
 20
0.0
 30
0.0
1001
GENIUS_GENOLIS_13
1002
{
1000
ENT
1005
212E
1005
212D
1005
212C
1005
212B
1002
}
1001
GENIUS_GENODEF_13
1002
{
1000
HIER
1070
    10
1002
}
1002
{
1000
MANEDIT
1070
     0
1002
}
1002
{
1000
NOSEL
1070
     0
1002
}
1002
{
1000
BEHIND
1070
     0
1002
}
1002
{
1000
OTHER
1070
     0
1002
}
1002
{
1000
REACTOR
1002
}
1001
GENIUS_GENOBJ-N-CRS_13
1002
{
1000
OWNER
1000
GEN
1002
}
1001
GENIUS_GENOENT_13
1002
{
1000
MYREF
1005
212F
1002
}
1002
{
1000
GRP
1005
0
1002
}
  0
LINE
  5
2133
330
1F
100
AcDbEntity
  8
0
  6
HIDDEN
 62
     3
 48
0.5
100
AcDbLine
 10
2489.813177894264
 20
169.7267340722441
 30
0.0
 11
2489.813177894265
 21
159.2730235218529
 31
0.0
  0
LINE
  5
2134
330
1F
100
AcDbEntity
  8
0
  6
HIDDEN
 62
     3
 48
0.5
100
AcDbLine
 10
2479.813177894265
 20
168.8877778843922
 30
0.0
 11
2479.813177894264
 21
159.2730235218529
 31
0.0
  0
LINE
  5
2135
330
1F
100
AcDbEntity
  8
0
  6
HIDDEN
 62
     3
 48
0.5
100
AcDbLine
 10
2488.813177894265
 20
169.5589429850134
 30
0.0
 11
2488.813177894264
 21
159.2730235218529
 31
0.0
  0
LINE
  5
2136
330
1F
100
AcDbEntity
  8
0
  6
HIDDEN
 62
     3
 48
0.5
100
AcDbLine
 10
2480.813177894265
 20
169.2233608105519
 30
0.0
 11
2480.813177894264
 21
159.2730235218529
 31
0.0
  0
CIRCLE
  5
2192
330
1F
100
AcDbEntity
  8
0
100
AcDbCircle
 10
2837.206078826329
 20
729.7336132204492
 30
0.0
 40
10.395
  0
LINE
  5
2193
330
1F
100
AcDbEntity
  8
0
100
AcDbLine
 10
2855.206078826329
 20
729.7336132204492
 30
0.0
 11
2855.206078826329
 21
748.7336132204492
 31
0.0
  0
LINE
  5
2194
330
1F
100
AcDbEntity
  8
0
100
AcDbLine
 10
2855.206078826329
 20
710.7336132204492
 30
0.0
 11
2855.206078826329
 21
729.7336132204492
 31
0.0
  0
LINE
  5
2195
330
1F
100
AcDbEntity
  8
0
100
AcDbLine
 10
2855.206078826329
 20
710.7336132204492
 30
0.0
 11
2797.206078826329
 21
710.7336132204492
 31
0.0
  0
LINE
  5
2196
330
1F
100
AcDbEntity
  8
0
100
AcDbLine
 10
2777.206078826329
 20
717.7336132204492
 30
0.0
 11
2777.206078826329
 21
741.7336132204492
 31
0.0
  0
LINE
  5
2197
330
1F
100
AcDbEntity
  8
0
100
AcDbLine
 10
2797.206078826329
 20
748.7336132204492
 30
0.0
 11
2855.206078826329
 21
748.7336132204492
 31
0.0
  0
CIRCLE
  5
2198
330
1F
100
AcDbEntity
  8
0
100
AcDbCircle
 10
2787.206078826329
 20
729.7336132204492
 30
0.0
 40
6.0
  0
LINE
  5
2199
330
1F
100
AcDbEntity
  8
0
100
AcDbLine
 10
2777.206078826329
 20
741.7336132204492
 30
0.0
 11
2797.206078826329
 21
748.7336132204492
 31
0.0
  0
LINE
  5
219A
330
1F
100
AcDbEntity
  8
0
100
AcDbLine
 10
2777.206078826329
 20
717.7336132204492
 30
0.0
 11
2797.206078826329
 21
710.7336132204492
 31
0.0
  0
CIRCLE
  5
219B
330
1F
100
AcDbEntity
  8
0
100
AcDbCircle
 10
2787.206078826329
 20
729.7336132204492
 30
0.0
 40
5.0
  0
CIRCLE
  5
219C
330
1F
100
AcDbEntity
  8
0
100
AcDbCircle
 10
2837.206078826329
 20
729.7336132204492
 30
0.0
 40
9.240000000000001
  0
POLYLINE
  5
219D
330
1F
100
AcDbEntity
  8
0
100
AcDb2dPolyline
 66
     1
 10
0.0
 20
0.0
 30
0.0
 70
     1
  0
VERTEX
  5
219E
330
219D
100
AcDbEntity
  8
0
100
AcDbVertex
100
AcDb2dVertex
 10
2821.642372874548
 20
729.7336132204492
 30
0.0
  0
VERTEX
  5
219F
330
219D
100
AcDbEntity
  8
0
100
AcDbVertex
100
AcDb2dVertex
 10
2829.424225850438
 20
716.2550484891753
 30
0.0
  0
VERTEX
  5
21A0
330
219D
100
AcDbEntity
  8
0
100
AcDbVertex
100
AcDb2dVertex
 10
2844.987931802219
 20
716.2550484891753
 30
0.0
  0
VERTEX
  5
21A1
330
219D
100
AcDbEntity
  8
0
100
AcDbVertex
100
AcDb2dVertex
 10
2852.769784778111
 20
729.7336132204492
 30
0.0
  0
VERTEX
  5
21A2
330
219D
100
AcDbEntity
  8
0
100
AcDbVertex
100
AcDb2dVertex
 10
2844.987931802219
 20
743.2121779517231
 30
0.0
  0
VERTEX
  5
21A3
330
219D
100
AcDbEntity
  8
0
100
AcDbVertex
100
AcDb2dVertex
 10
2829.424225850438
 20
743.2121779517231
 30
0.0
  0
SEQEND
  5
21A4
330
219D
100
AcDbEntity
  8
0
  0
ARC
  5
21A9
330
1F
100
AcDbEntity
  8
0
100
AcDbCircle
 10
2837.206078826329
 20
729.7336132204492
 30
0.0
 40
30.0
100
AcDbArc
 50
219.2964802391859
 51
140.7035197608141
  0
ARC
  5
21AB
330
1F
100
AcDbEntity
  8
0
100
AcDbCircle
 10
2837.206078826329
 20
729.7336132204492
 30
0.0
 40
29.0
100
AcDbArc
 50
220.9327245741596
 51
139.0672754258404
  0
LINE
  5
21AC
330
1F
100
AcDbEntity
  8
0
100
AcDbLine
 10
2865.20617379079
 20
606.9561227128467
 30
0.0
 11
2809.20617379079
 21
606.9561227128467
 31
0.0
  0
LINE
  5
21AD
330
1F
100
AcDbEntity
  8
0
100
AcDbLine
 10
2809.20617379079
 20
508.9561227128467
 30
0.0
 11
2865.20617379079
 21
508.9561227128467
 31
0.0
  0
LINE
  5
21AE
330
1F
100
AcDbEntity
  8
0
100
AcDbLine
 10
2808.20617379079
 20
580.9561227128468
 30
0.0
 11
2866.20617379079
 21
580.9561227128467
 31
0.0
  0
LINE
  5
21AF
330
1F
100
AcDbEntity
  8
0
100
AcDbLine
 10
2807.20617379079
 20
579.9561227128468
 30
0.0
 11
2807.20617379079
 21
527.9561227128469
 31
0.0
  0
LINE
  5
21B0
330
1F
100
AcDbEntity
  8
0
100
AcDbLine
 10
2867.206173790791
 20
527.9561227128467
 30
0.0
 11
2867.206173790791
 21
579.9561227128467
 31
0.0
  0
LINE
  5
21B1
330
1F
100
AcDbEntity
  8
0
100
AcDbLine
 10
2807.20617379079
 20
579.9561227128468
 30
0.0
 11
2808.20617379079
 21
580.9561227128468
 31
0.0
  0
LINE
  5
21B2
330
1F
100
AcDbEntity
  8
0
100
AcDbLine
 10
2866.20617379079
 20
580.9561227128467
 30
0.0
 11
2867.206173790791
 21
579.9561227128467
 31
0.0
  0
LINE
  5
21B3
330
1F
100
AcDbEntity
  8
0
100
AcDbLine
 10
2866.20617379079
 20
509.9561227128467
 30
0.0
 11
2866.20617379079
 21
605.9561227128467
 31
0.0
  0
LINE
  5
21B4
330
1F
100
AcDbEntity
  8
0
100
AcDbLine
 10
2808.20617379079
 20
605.9561227128467
 30
0.0
 11
2808.20617379079
 21
509.9561227128467
 31
0.0
  0
LINE
  5
21B5
330
1F
100
AcDbEntity
  8
0
100
AcDbLine
 10
2824.70617379079
 20
635.9562673618719
 30
0.0
 11
2824.70617379079
 21
606.9562673618719
 31
0.0
  0
LINE
  5
21B6
330
1F
100
AcDbEntity
  8
0
100
AcDbLine
 10
2849.70617379079
 20
635.9562673618719
 30
0.0
 11
2849.70617379079
 21
606.9562673618719
 31
0.0
  0
LINE
  5
21B9
330
1F
100
AcDbEntity
  8
0
100
AcDbLine
 10
2808.20617379079
 20
605.9561227128467
 30
0.0
 11
2809.20617379079
 21
606.9561227128467
 31
0.0
  0
LINE
  5
21BA
330
1F
100
AcDbEntity
  8
0
100
AcDbLine
 10
2865.20617379079
 20
606.9561227128467
 30
0.0
 11
2866.20617379079
 21
605.9561227128467
 31
0.0
  0
LINE
  5
21BB
330
1F
100
AcDbEntity
  8
0
100
AcDbLine
 10
2824.70617379079
 20
635.9562673618719
 30
0.0
 11
2849.70617379079
 21
635.9562673618719
 31
0.0
  0
LINE
  5
21BD
330
1F
100
AcDbEntity
  8
0
100
AcDbLine
 10
2825.913907228653
 20
659.7562673618718
 30
0.0
 11
2848.498440352928
 21
659.7562673618718
 31
0.0
  0
LINE
  5
21BE
330
1F
100
AcDbEntity
  8
0
100
AcDbLine
 10
2777.206173790791
 20
653.9562673618719
 30
0.0
 11
2777.206173790791
 21
636.9562673618719
 31
0.0
  0
LINE
  5
21BF
330
1F
100
AcDbEntity
  8
0
100
AcDbLine
 10
2855.20617379079
 20
653.9562673618719
 30
0.0
 11
2855.20617379079
 21
636.9562673618719
 31
0.0
  0
LINE
  5
21C0
330
1F
100
AcDbEntity
  8
0
100
AcDbLine
 10
2854.206173790791
 20
635.9562673618719
 30
0.0
 11
2855.20617379079
 21
636.9562673618719
 31
0.0
  0
LINE
  5
21C1
330
1F
100
AcDbEntity
  8
0
100
AcDbLine
 10
2855.20617379079
 20
653.9562673618719
 30
0.0
 11
2854.206173790791
 21
654.9562673618719
 31
0.0
  0
LINE
  5
21C3
330
1F
100
AcDbEntity
  8
0
  6
HIDDEN
 62
     3
 48
0.5
100
AcDbLine
 10
2793.20617379079
 20
635.9562673618719
 30
0.0
 11
2793.20617379079
 21
654.9562673618719
 31
0.0
  0
LINE
  5
21C4
330
1F
100
AcDbEntity
  8
0
  6
HIDDEN
 62
     3
 48
0.5
100
AcDbLine
 10
2781.206173790791
 20
635.9562673618719
 30
0.0
 11
2781.206173790791
 21
654.9562673618719
 31
0.0
  0
LINE
  5
21C5
330
1F
100
AcDbEntity
  8
0
  6
HIDDEN
 62
     3
 48
0.5
100
AcDbLine
 10
2792.20617379079
 20
635.9562673618719
 30
0.0
 11
2792.20617379079
 21
654.9562673618719
 31
0.0
  0
LINE
  5
21C6
330
1F
100
AcDbEntity
  8
0
  6
HIDDEN
 62
     3
 48
0.5
100
AcDbLine
 10
2782.20617379079
 20
635.9562673618719
 30
0.0
 11
2782.20617379079
 21
654.9562673618719
 31
0.0
  0
LINE
  5
21C7
330
1F
100
AcDbEntity
  8
0
100
AcDbLine
 10
2844.596257236418
 20
658.9562673618719
 30
0.0
 11
2844.596257236418
 21
654.9562673618719
 31
0.0
  0
LINE
  5
21C8
330
1F
100
AcDbEntity
  8
0
100
AcDbLine
 10
2851.986340682044
 20
658.9562673618719
 30
0.0
 11
2851.986340682044
 21
654.9562673618719
 31
0.0
  0
LINE
  5
21C9
330
1F
100
AcDbEntity
  8
0
100
AcDbLine
 10
2829.816090345163
 20
658.9562673618719
 30
0.0
 11
2829.816090345163
 21
654.9562673618719
 31
0.0
  0
LINE
  5
21CA
330
1F
100
AcDbEntity
  8
0
100
AcDbLine
 10
2822.426006899536
 20
658.9562673618719
 30
0.0
 11
2822.426006899536
 21
654.9562673618719
 31
0.0
  0
ARC
  5
21CB
330
1F
100
AcDbEntity
  8
0
100
AcDbCircle
 10
2837.20617379079
 20
625.2229340285386
 30
0.0
 40
34.53333333333334
100
AcDbArc
 50
77.64321860963021
 51
102.3567813903697
  0
ARC
  5
21CC
330
1F
100
AcDbEntity
  8
0
100
AcDbCircle
 10
2826.121048622349
 20
650.8497512516527
 30
0.0
 40
8.908924557912527
100
AcDbArc
 50
65.49596495353551
 51
114.5040350464645
  0
ARC
  5
21CD
330
1F
100
AcDbEntity
  8
0
100
AcDbCircle
 10
2848.291298959231
 20
650.8497512516527
 30
0.0
 40
8.908924557912527
100
AcDbArc
 50
65.49596495353551
 51
114.5040350464645
  0
LINE
  5
21CF
330
1F
100
AcDbEntity
  8
0
100
AcDbLine
 10
2777.206173790791
 20
653.9562673618719
 30
0.0
 11
2778.206173790791
 21
654.9562673618719
 31
0.0
  0
LINE
  5
21D0
330
1F
100
AcDbEntity
  8
0
100
AcDbLine
 10
2777.206173790791
 20
636.9562673618719
 30
0.0
 11
2778.206173790791
 21
635.9562673618719
 31
0.0
  0
LINE
  5
21D1
330
1F
100
AcDbEntity
  8
0
100
AcDbLine
 10
2778.206173790791
 20
654.9562673618719
 30
0.0
 11
2854.206173790791
 21
654.9562673618719
 31
0.0
  0
LINE
  5
21D2
330
1F
100
AcDbEntity
  8
0
100
AcDbLine
 10
2778.206173790791
 20
635.9562673618719
 30
0.0
 11
2854.206173790791
 21
635.9562673618719
 31
0.0
  0
LINE
  5
21D3
330
1F
100
AcDbEntity
  8
0
100
AcDbLine
 10
2797.841962652586
 20
654.9562673618719
 30
0.0
 11
2797.841962652586
 21
635.9562673618719
 31
0.0
  0
LINE
  5
21D4
330
1F
100
AcDbEntity
  8
0
100
AcDbLine
 10
2866.20617379079
 20
509.9561227128467
 30
0.0
 11
2865.20617379079
 21
508.9561227128467
 31
0.0
  0
LINE
  5
21D5
330
1F
100
AcDbEntity
  8
0
100
AcDbLine
 10
2808.20617379079
 20
509.9561227128467
 30
0.0
 11
2809.20617379079
 21
508.9561227128467
 31
0.0
  0
LINE
  5
21D6
330
1F
100
AcDbEntity
  8
0
100
AcDbLine
 10
2808.20617379079
 20
526.9561227128469
 30
0.0
 11
2866.20617379079
 21
526.9561227128467
 31
0.0
  0
LINE
  5
21D7
330
1F
100
AcDbEntity
  8
0
100
AcDbLine
 10
2807.20617379079
 20
527.9561227128469
 30
0.0
 11
2808.20617379079
 21
526.9561227128469
 31
0.0
  0
LINE
  5
21D8
330
1F
100
AcDbEntity
  8
0
100
AcDbLine
 10
2866.20617379079
 20
526.9561227128467
 30
0.0
 11
2867.206173790791
 21
527.9561227128467
 31
0.0
  0
DIMENSION
  5
21D9
330
1F
100
AcDbEntity
  8
AM_5
100
AcDbDimension
  2
*D12
 10
2528.476583508878
 20
605.9561227128467
 30
0.0
 11
2525.976583508878
 21
557.4561227128472
 31
0.0
 70
    32
 71
     5
 42
97.0
  3
AM_ISO$0
100
AcDbAlignedDimension
 13
2516.476583508878
 23
508.9561227128467
 33
0.0
 14
2506.476583508879
 24
605.9561227128467
 34
0.0
 50
90.0
100
AcDbRotatedDimension
1001
ACAD
1000
DSTYLE
1002
{
1070
    40
1040
1.0
1070
   144
1040
1.0
1070
   272
1070
     8
1002
}
  0
DIMENSION
  5
21DA
330
1F
100
AcDbEntity
  8
AM_5
100
AcDbDimension
  2
*D13
 10
2538.476583508879
 20
635.9561227128467
 30
0.0
 11
2535.976583508878
 21
572.4561227128472
 31
0.0
 70
    32
 71
     5
 42
127.0
  3
AM_ISO$0
100
AcDbAlignedDimension
 13
2516.476583508878
 23
508.9561227128467
 33
0.0
 14
2501.476583508879
 24
635.9561227128467
 34
0.0
 50
90.0
100
AcDbRotatedDimension
1001
ACAD
1000
DSTYLE
1002
{
1070
    40
1040
1.0
1070
   144
1040
1.0
1070
   272
1070
     8
1002
}
  0
DIMENSION
  5
21DB
330
1F
100
AcDbEntity
  8
AM_5
100
AcDbDimension
  2
*D14
 10
2538.476583508879
 20
635.9561227128467
 30
0.0
 11
2535.976583508878
 21
645.4561227128472
 31
0.0
 70
    32
 71
     5
 42
19.0
  3
AM_ISO$0
100
AcDbAlignedDimension
 13
2501.476583508879
 23
654.9561227128467
 33
0.0
 14
2501.476583508879
 24
635.9561227128467
 34
0.0
 50
90.0
100
AcDbRotatedDimension
1001
ACAD
1000
DSTYLE
1002
{
1070
    40
1040
1.0
1070
   144
1040
1.0
1070
   272
1070
     8
1002
}
  0
DIMENSION
  5
21DC
330
1F
100
AcDbEntity
  8
AM_5
100
AcDbDimension
  2
*D15
 10
2509.476583508878
 20
550.3047774801218
 30
0.0
 11
2484.476583508878
 21
552.8047774801218
 31
0.0
 70
    32
  1
M<>x1.5
 71
     5
 42
50.0
  3
AM_ISO$0
100
AcDbAlignedDimension
 13
2459.476583508878
 23
552.9561227128467
 33
0.0
 14
2509.476583508878
 24
552.9561227128467
 34
0.0
 50
0.0000000000001132
100
AcDbRotatedDimension
1001
ACAD
1000
DSTYLE
1002
{
1070
    40
1040
1.0
1070
   144
1040
1.0
1070
   272
1070
     8
1002
}
  0
DIMENSION
  5
2243
330
1F
100
AcDbEntity
  8
AM_5
100
AcDbDimension
  2
*D16
 10
2528.476583508878
 20
256.2730235218529
 30
0.0
 11
2525.976583508878
 21
207.7730235218533
 31
0.0
 70
    32
 71
     5
 42
97.0
  3
AM_ISO$0
100
AcDbAlignedDimension
 13
2516.476583508878
 23
159.2730235218529
 33
0.0
 14
2506.476583508879
 24
256.2730235218529
 34
0.0
 50
90.0
100
AcDbRotatedDimension
1001
ACAD
1000
DSTYLE
1002
{
1070
    40
1040
1.0
1070
   144
1040
1.0
1070
   272
1070
     8
1002
}
  0
DIMENSION
  5
2244
330
1F
100
AcDbEntity
  8
AM_5
100
AcDbDimension
  2
*D17
 10
2538.476583508879
 20
292.2730235218529
 30
0.0
 11
2535.976583508878
 21
225.7730235218533
 31
0.0
 70
    32
 71
     5
 42
133.0
  3
AM_ISO$0
100
AcDbAlignedDimension
 13
2516.476583508878
 23
159.2730235218529
 33
0.0
 14
2501.476583508879
 24
292.2730235218529
 34
0.0
 50
90.0
100
AcDbRotatedDimension
1001
ACAD
1000
DSTYLE
1002
{
1070
    40
1040
1.0
1070
   144
1040
1.0
1070
   272
1070
     8
1002
}
  0
DIMENSION
  5
2245
330
1F
100
AcDbEntity
  8
AM_5
100
AcDbDimension
  2
*D18
 10
2538.476583508879
 20
292.2730235218529
 30
0.0
 11
2535.976583508878
 21
301.7730235218533
 31
0.0
 70
    32
 71
     5
 42
19.0
  3
AM_ISO$0
100
AcDbAlignedDimension
 13
2501.476583508879
 23
311.2730235218529
 33
0.0
 14
2501.476583508879
 24
292.2730235218529
 34
0.0
 50
90.0
100
AcDbRotatedDimension
1001
ACAD
1000
DSTYLE
1002
{
1070
    40
1040
1.0
1070
   144
1040
1.0
1070
   272
1070
     8
1002
}
  0
DIMENSION
  5
2246
330
1F
100
AcDbEntity
  8
AM_5
100
AcDbDimension
  2
*D19
 10
2509.476583508878
 20
200.621678289128
 30
0.0
 11
2484.476583508878
 21
203.121678289128
 31
0.0
 70
    32
  1
M<>x1.5
 71
     5
 42
50.0
  3
AM_ISO$0
100
AcDbAlignedDimension
 13
2459.476583508878
 23
203.2730235218529
 33
0.0
 14
2509.476583508878
 24
203.2730235218529
 34
0.0
100
AcDbRotatedDimension
1001
ACAD
1000
DSTYLE
1002
{
1070
    40
1040
1.0
1070
   144
1040
1.0
1070
   272
1070
     8
1002
}
  0
CIRCLE
  5
22E6
330
1F
100
AcDbEntity
  8
0
100
AcDbCircle
 10
2837.20617379079
 20
594.0194532268136
 30
0.0
 40
4.75
  0
CIRCLE
  5
22E7
330
1F
100
AcDbEntity
  8
0
100
AcDbCircle
 10
2837.20617379079
 20
594.0194532268136
 30
0.0
 40
3.75
  0
LINE
  5
22F4
330
1F
100
AcDbEntity
  8
AM_7
100
AcDbLine
 10
2787.20617379079
 20
656.9562673618719
 30
0.0
 11
2787.20617379079
 21
633.9562673618719
 31
0.0
1001
GENIUS_GENODEF_13
1002
{
1000
HIER
1070
     0
1002
}
1002
{
1000
MANEDIT
1070
     0
1002
}
1002
{
1000
NOSEL
1070
     0
1002
}
1002
{
1000
BEHIND
1070
     0
1002
}
1002
{
1000
OTHER
1070
     0
1002
}
1002
{
1000
REACTOR
1002
}
1001
GENIUS_GENOBJ-N-CEN_13
1002
{
1000
OWNER
1000
GEN
1002
}
1001
GENIUS_GENCEN_19
1002
{
1040
2.0
1002
}
  0
LINE
  5
2302
330
1F
100
AcDbEntity
  8
AM_7
100
AcDbLine
 10
2837.206078826329
 20
729.7336132204492
 30
0.0
 11
2868.206078826329
 21
729.7336132204492
 31
0.0
1001
GENIUS_GENOREF_13
1005
2306
  0
LINE
  5
2303
330
1F
100
AcDbEntity
  8
AM_7
100
AcDbLine
 10
2837.206078826329
 20
729.7336132204492
 30
0.0
 11
2837.206078826329
 21
760.7336132204492
 31
0.0
1001
GENIUS_GENOREF_13
1005
2306
  0
LINE
  5
2304
330
1F
100
AcDbEntity
  8
AM_7
100
AcDbLine
 10
2837.206078826329
 20
729.7336132204492
 30
0.0
 11
2806.206078826329
 21
729.7336132204492
 31
0.0
1001
GENIUS_GENOREF_13
1005
2306
  0
LINE
  5
2305
330
1F
100
AcDbEntity
  8
AM_7
100
AcDbLine
 10
2837.206078826329
 20
729.7336132204492
 30
0.0
 11
2837.206078826329
 21
698.7336132204492
 31
0.0
1001
GENIUS_GENOREF_13
1005
2306
  0
POINT
  5
2306
330
1F
100
AcDbEntity
  8
0
 60
     1
100
AcDbPoint
 10
0.0
 20
0.0
 30
0.0
1001
GENIUS_GENOLIS_13
1002
{
1000
ENT
1005
2305
1005
2304
1005
2303
1005
2302
1002
}
1001
GENIUS_GENOENT_13
1002
{
1000
MYREF
1005
2306
1002
}
1002
{
1000
GRP
1005
0
1002
}
1001
GENIUS_GENOBJ-N-CRS_13
1002
{
1000
OWNER
1000
GEN
1002
}
1001
GENIUS_GENODEF_13
1002
{
1000
HIER
1070
    10
1002
}
1002
{
1000
MANEDIT
1070
     0
1002
}
1002
{
1000
NOSEL
1070
     0
1002
}
1002
{
1000
BEHIND
1070
     0
1002
}
1002
{
1000
OTHER
1070
     0
1002
}
1002
{
1000
REACTOR
1002
}
  0
LINE
  5
2314
330
1F
100
AcDbEntity
  8
AM_7
100
AcDbLine
 10
2787.206078826329
 20
729.7336132204492
 30
0.0
 11
2795.206078826329
 21
729.7336132204492
 31
0.0
1001
GENIUS_GENOREF_13
1005
2318
  0
LINE
  5
2315
330
1F
100
AcDbEntity
  8
AM_7
100
AcDbLine
 10
2787.206078826329
 20
729.7336132204492
 30
0.0
 11
2787.206078826329
 21
737.7336132204492
 31
0.0
1001
GENIUS_GENOREF_13
1005
2318
  0
LINE
  5
2316
330
1F
100
AcDbEntity
  8
AM_7
100
AcDbLine
 10
2787.206078826329
 20
729.7336132204492
 30
0.0
 11
2779.206078826329
 21
729.7336132204492
 31
0.0
1001
GENIUS_GENOREF_13
1005
2318
  0
LINE
  5
2317
330
1F
100
AcDbEntity
  8
AM_7
100
AcDbLine
 10
2787.206078826329
 20
729.7336132204492
 30
0.0
 11
2787.206078826329
 21
721.7336132204492
 31
0.0
1001
GENIUS_GENOREF_13
1005
2318
  0
POINT
  5
2318
330
1F
100
AcDbEntity
  8
0
 60
     1
100
AcDbPoint
 10
0.0
 20
0.0
 30
0.0
1001
GENIUS_GENOENT_13
1002
{
1000
MYREF
1005
2318
1002
}
1002
{
1000
GRP
1005
0
1002
}
1001
GENIUS_GENOBJ-N-CRS_13
1002
{
1000
OWNER
1000
GEN
1002
}
1001
GENIUS_GENOLIS_13
1002
{
1000
ENT
1005
2317
1005
2316
1005
2315
1005
2314
1002
}
1001
GENIUS_GENODEF_13
1002
{
1000
HIER
1070
    10
1002
}
1002
{
1000
MANEDIT
1070
     0
1002
}
1002
{
1000
NOSEL
1070
     0
1002
}
1002
{
1000
BEHIND
1070
     0
1002
}
1002
{
1000
OTHER
1070
     0
1002
}
1002
{
1000
REACTOR
1002
}
  0
LINE
  5
2325
330
1F
100
AcDbEntity
  8
AM_7
100
AcDbLine
 10
2837.20617379079
 20
661.7562673618719
 30
0.0
 11
2837.20617379079
 21
506.9561227128467
 31
0.0
1001
GENIUS_GENOBJ-N-CEN_13
1002
{
1000
OWNER
1000
GEN
1002
}
1001
GENIUS_GENODEF_13
1002
{
1000
HIER
1070
     0
1002
}
1002
{
1000
MANEDIT
1070
     0
1002
}
1002
{
1000
NOSEL
1070
     0
1002
}
1002
{
1000
BEHIND
1070
     0
1002
}
1002
{
1000
OTHER
1070
     0
1002
}
1002
{
1000
REACTOR
1002
}
1001
GENIUS_GENCEN_19
1002
{
1040
2.0
1002
}
  0
LINE
  5
2333
330
1F
100
AcDbEntity
  8
AM_7
100
AcDbLine
 10
2837.20617379079
 20
594.0194532268136
 30
0.0
 11
2843.95617379079
 21
594.0194532268136
 31
0.0
1001
GENIUS_GENOREF_13
1005
2337
  0
LINE
  5
2334
330
1F
100
AcDbEntity
  8
AM_7
100
AcDbLine
 10
2837.20617379079
 20
594.0194532268136
 30
0.0
 11
2837.20617379079
 21
600.7694532268136
 31
0.0
1001
GENIUS_GENOREF_13
1005
2337
  0
LINE
  5
2335
330
1F
100
AcDbEntity
  8
AM_7
100
AcDbLine
 10
2837.20617379079
 20
594.0194532268136
 30
0.0
 11
2830.456173790791
 21
594.0194532268136
 31
0.0
1001
GENIUS_GENOREF_13
1005
2337
  0
LINE
  5
2336
330
1F
100
AcDbEntity
  8
AM_7
100
AcDbLine
 10
2837.20617379079
 20
594.0194532268136
 30
0.0
 11
2837.20617379079
 21
587.2694532268136
 31
0.0
1001
GENIUS_GENOREF_13
1005
2337
  0
POINT
  5
2337
330
1F
100
AcDbEntity
  8
0
 60
     1
100
AcDbPoint
 10
0.0
 20
0.0
 30
0.0
1001
GENIUS_GENOLIS_13
1002
{
1000
ENT
1005
2336
1005
2335
1005
2334
1005
2333
1002
}
1001
GENIUS_GENOENT_13
1002
{
1000
MYREF
1005
2337
1002
}
1002
{
1000
GRP
1005
0
1002
}
1001
GENIUS_GENOBJ-N-CRS_13
1002
{
1000
OWNER
1000
GEN
1002
}
1001
GENIUS_GENODEF_13
1002
{
1000
HIER
1070
    10
1002
}
1002
{
1000
MANEDIT
1070
     0
1002
}
1002
{
1000
NOSEL
1070
     0
1002
}
1002
{
1000
BEHIND
1070
     0
1002
}
1002
{
1000
OTHER
1070
     0
1002
}
1002
{
1000
REACTOR
1002
}
  0
DIMENSION
  5
2338
330
1F
100
AcDbEntity
  8
AM_5
100
AcDbDimension
  2
*D20
 10
2878.20617379079
 20
606.9561227128467
 30
0.0
 11
2875.706173790791
 21
557.9561227128472
 31
0.0
 70
    32
 71
     5
 42
98.00000000000006
  3
AM_ISO$0
100
AcDbAlignedDimension
 13
2869.20617379079
 23
508.9561227128467
 33
0.0
 14
2865.20617379079
 24
606.9561227128467
 34
0.0
 50
90.0
100
AcDbRotatedDimension
1001
ACAD
1000
DSTYLE
1002
{
1070
    40
1040
1.0
1070
   144
1040
1.0
1070
   272
1070
     8
1002
}
  0
DIMENSION
  5
2339
330
1F
100
AcDbEntity
  8
AM_5
100
AcDbDimension
  2
*D21
 10
2888.20617379079
 20
635.9561227128467
 30
0.0
 11
2885.70617379079
 21
572.4561227128472
 31
0.0
 70
    32
 71
     5
 42
127.0
  3
AM_ISO$0
100
AcDbAlignedDimension
 13
2869.20617379079
 23
508.9561227128467
 33
0.0
 14
2854.206173790791
 24
635.9561227128467
 34
0.0
 50
90.0
100
AcDbRotatedDimension
1001
ACAD
1000
DSTYLE
1002
{
1070
    40
1040
1.0
1070
   144
1040
1.0
1070
   272
1070
     8
1002
}
  0
DIMENSION
  5
233A
330
1F
100
AcDbEntity
  8
AM_5
100
AcDbDimension
  2
*D22
 10
2888.20617379079
 20
635.9561227128467
 30
0.0
 11
2885.70617379079
 21
645.4561227128472
 31
0.0
 70
    32
 71
     5
 42
19.0
  3
AM_ISO$0
100
AcDbAlignedDimension
 13
2854.206173790791
 23
654.9561227128467
 33
0.0
 14
2854.206173790791
 24
635.9561227128467
 34
0.0
 50
90.0
100
AcDbRotatedDimension
1001
ACAD
1000
DSTYLE
1002
{
1070
    40
1040
1.0
1070
   144
1040
1.0
1070
   272
1070
     8
1002
}
  0
DIMENSION
  5
233B
330
1F
100
AcDbEntity
  8
AM_5
100
AcDbDimension
  2
*D23
 10
2867.206173790791
 20
550.3047774801218
 30
0.0
 11
2837.20617379079
 21
552.8047774801218
 31
0.0
 70
    32
  1
M<>x1.5
 71
     5
 42
60.0
  3
AM_ISO$0
100
AcDbAlignedDimension
 13
2807.20617379079
 23
553.9561227128468
 33
0.0
 14
2867.206173790791
 24
553.9561227128467
 34
0.0
 50
0.0000000000001132
100
AcDbRotatedDimension
1001
ACAD
1000
DSTYLE
1002
{
1070
    40
1040
1.0
1070
   144
1040
1.0
1070
   272
1070
     8
1002
}
  0
CIRCLE
  5
2400
330
1F
100
AcDbEntity
  8
0
100
AcDbCircle
 10
2837.206078826329
 20
387.0505140294554
 30
0.0
 40
10.395
  0
LINE
  5
2401
330
1F
100
AcDbEntity
  8
0
100
AcDbLine
 10
2855.206078826329
 20
387.0505140294554
 30
0.0
 11
2855.206078826329
 21
406.0505140294553
 31
0.0
  0
LINE
  5
2402
330
1F
100
AcDbEntity
  8
0
100
AcDbLine
 10
2855.206078826329
 20
368.0505140294554
 30
0.0
 11
2855.206078826329
 21
387.0505140294554
 31
0.0
  0
LINE
  5
2403
330
1F
100
AcDbEntity
  8
0
100
AcDbLine
 10
2855.206078826329
 20
368.0505140294554
 30
0.0
 11
2797.206078826329
 21
368.0505140294554
 31
0.0
  0
LINE
  5
2404
330
1F
100
AcDbEntity
  8
0
100
AcDbLine
 10
2777.206078826329
 20
375.0505140294554
 30
0.0
 11
2777.206078826329
 21
399.0505140294554
 31
0.0
  0
LINE
  5
2405
330
1F
100
AcDbEntity
  8
0
100
AcDbLine
 10
2797.206078826329
 20
406.0505140294553
 30
0.0
 11
2855.206078826329
 21
406.0505140294553
 31
0.0
  0
CIRCLE
  5
2406
330
1F
100
AcDbEntity
  8
0
100
AcDbCircle
 10
2787.206078826329
 20
387.0505140294554
 30
0.0
 40
6.0
  0
LINE
  5
2407
330
1F
100
AcDbEntity
  8
0
100
AcDbLine
 10
2777.206078826329
 20
399.0505140294554
 30
0.0
 11
2797.206078826329
 21
406.0505140294553
 31
0.0
  0
LINE
  5
2408
330
1F
100
AcDbEntity
  8
0
100
AcDbLine
 10
2777.206078826329
 20
375.0505140294554
 30
0.0
 11
2797.206078826329
 21
368.0505140294554
 31
0.0
  0
CIRCLE
  5
2409
330
1F
100
AcDbEntity
  8
0
100
AcDbCircle
 10
2787.206078826329
 20
387.0505140294554
 30
0.0
 40
5.0
  0
CIRCLE
  5
240A
330
1F
100
AcDbEntity
  8
0
100
AcDbCircle
 10
2837.206078826329
 20
387.0505140294554
 30
0.0
 40
9.240000000000001
  0
POLYLINE
  5
240B
330
1F
100
AcDbEntity
  8
0
100
AcDb2dPolyline
 66
     1
 10
0.0
 20
0.0
 30
0.0
 70
     1
  0
VERTEX
  5
240C
330
240B
100
AcDbEntity
  8
0
100
AcDbVertex
100
AcDb2dVertex
 10
2821.642372874548
 20
387.0505140294554
 30
0.0
  0
VERTEX
  5
240D
330
240B
100
AcDbEntity
  8
0
100
AcDbVertex
100
AcDb2dVertex
 10
2829.424225850438
 20
373.5719492981815
 30
0.0
  0
VERTEX
  5
240E
330
240B
100
AcDbEntity
  8
0
100
AcDbVertex
100
AcDb2dVertex
 10
2844.987931802219
 20
373.5719492981815
 30
0.0
  0
VERTEX
  5
240F
330
240B
100
AcDbEntity
  8
0
100
AcDbVertex
100
AcDb2dVertex
 10
2852.769784778111
 20
387.0505140294554
 30
0.0
  0
VERTEX
  5
2410
330
240B
100
AcDbEntity
  8
0
100
AcDbVertex
100
AcDb2dVertex
 10
2844.987931802219
 20
400.5290787607292
 30
0.0
  0
VERTEX
  5
2411
330
240B
100
AcDbEntity
  8
0
100
AcDbVertex
100
AcDb2dVertex
 10
2829.424225850438
 20
400.5290787607292
 30
0.0
  0
SEQEND
  5
2412
330
240B
100
AcDbEntity
  8
0
  0
ARC
  5
2417
330
1F
100
AcDbEntity
  8
0
100
AcDbCircle
 10
2837.206078826329
 20
387.0505140294554
 30
0.0
 40
30.0
100
AcDbArc
 50
219.2964802391859
 51
140.7035197608141
  0
ARC
  5
2419
330
1F
100
AcDbEntity
  8
0
100
AcDbCircle
 10
2837.206078826329
 20
387.0505140294554
 30
0.0
 40
29.0
100
AcDbArc
 50
220.9327245741596
 51
139.0672754258404
  0
LINE
  5
241A
330
1F
100
AcDbEntity
  8
0
100
AcDbLine
 10
2865.20617379079
 20
257.2730235218529
 30
0.0
 11
2809.20617379079
 21
257.2730235218529
 31
0.0
  0
LINE
  5
241B
330
1F
100
AcDbEntity
  8
0
100
AcDbLine
 10
2809.20617379079
 20
159.2730235218529
 30
0.0
 11
2865.20617379079
 21
159.2730235218529
 31
0.0
  0
LINE
  5
241C
330
1F
100
AcDbEntity
  8
0
100
AcDbLine
 10
2808.20617379079
 20
231.273023521853
 30
0.0
 11
2866.20617379079
 21
231.2730235218529
 31
0.0
  0
LINE
  5
241D
330
1F
100
AcDbEntity
  8
0
100
AcDbLine
 10
2807.20617379079
 20
230.273023521853
 30
0.0
 11
2807.20617379079
 21
178.273023521853
 31
0.0
  0
LINE
  5
241E
330
1F
100
AcDbEntity
  8
0
100
AcDbLine
 10
2867.206173790791
 20
178.2730235218529
 30
0.0
 11
2867.206173790791
 21
230.2730235218529
 31
0.0
  0
LINE
  5
241F
330
1F
100
AcDbEntity
  8
0
100
AcDbLine
 10
2807.20617379079
 20
230.273023521853
 30
0.0
 11
2808.20617379079
 21
231.273023521853
 31
0.0
  0
LINE
  5
2420
330
1F
100
AcDbEntity
  8
0
100
AcDbLine
 10
2866.20617379079
 20
231.2730235218529
 30
0.0
 11
2867.206173790791
 21
230.2730235218529
 31
0.0
  0
LINE
  5
2421
330
1F
100
AcDbEntity
  8
0
100
AcDbLine
 10
2866.20617379079
 20
160.2730235218529
 30
0.0
 11
2866.20617379079
 21
256.2730235218529
 31
0.0
  0
LINE
  5
2422
330
1F
100
AcDbEntity
  8
0
100
AcDbLine
 10
2808.20617379079
 20
256.2730235218529
 30
0.0
 11
2808.20617379079
 21
160.2730235218529
 31
0.0
  0
LINE
  5
2423
330
1F
100
AcDbEntity
  8
0
100
AcDbLine
 10
2824.70617379079
 20
293.2731681708781
 30
0.0
 11
2824.70617379079
 21
257.2731681708781
 31
0.0
  0
LINE
  5
2424
330
1F
100
AcDbEntity
  8
0
100
AcDbLine
 10
2849.70617379079
 20
293.2731681708781
 30
0.0
 11
2849.70617379079
 21
257.2731681708781
 31
0.0
  0
LINE
  5
2427
330
1F
100
AcDbEntity
  8
0
100
AcDbLine
 10
2808.20617379079
 20
256.2730235218529
 30
0.0
 11
2809.20617379079
 21
257.2730235218529
 31
0.0
  0
LINE
  5
2428
330
1F
100
AcDbEntity
  8
0
100
AcDbLine
 10
2865.20617379079
 20
257.2730235218529
 30
0.0
 11
2866.20617379079
 21
256.2730235218529
 31
0.0
  0
LINE
  5
2429
330
1F
100
AcDbEntity
  8
0
100
AcDbLine
 10
2824.70617379079
 20
293.2731681708781
 30
0.0
 11
2849.70617379079
 21
293.2731681708781
 31
0.0
  0
LINE
  5
242B
330
1F
100
AcDbEntity
  8
0
100
AcDbLine
 10
2825.913907228653
 20
317.073168170878
 30
0.0
 11
2848.498440352928
 21
317.073168170878
 31
0.0
  0
LINE
  5
242C
330
1F
100
AcDbEntity
  8
0
100
AcDbLine
 10
2777.206173790791
 20
311.2731681708781
 30
0.0
 11
2777.206173790791
 21
294.2731681708781
 31
0.0
  0
LINE
  5
242D
330
1F
100
AcDbEntity
  8
0
100
AcDbLine
 10
2855.20617379079
 20
311.2731681708781
 30
0.0
 11
2855.20617379079
 21
294.2731681708781
 31
0.0
  0
LINE
  5
242E
330
1F
100
AcDbEntity
  8
0
100
AcDbLine
 10
2854.206173790791
 20
293.2731681708781
 30
0.0
 11
2855.20617379079
 21
294.2731681708781
 31
0.0
  0
LINE
  5
242F
330
1F
100
AcDbEntity
  8
0
100
AcDbLine
 10
2855.20617379079
 20
311.2731681708781
 30
0.0
 11
2854.206173790791
 21
312.2731681708781
 31
0.0
  0
LINE
  5
2431
330
1F
100
AcDbEntity
  8
0
  6
HIDDEN
 62
     3
 48
0.5
100
AcDbLine
 10
2793.20617379079
 20
293.2731681708781
 30
0.0
 11
2793.20617379079
 21
312.2731681708781
 31
0.0
  0
LINE
  5
2432
330
1F
100
AcDbEntity
  8
0
  6
HIDDEN
 62
     3
 48
0.5
100
AcDbLine
 10
2781.206173790791
 20
293.2731681708781
 30
0.0
 11
2781.206173790791
 21
312.2731681708781
 31
0.0
  0
LINE
  5
2433
330
1F
100
AcDbEntity
  8
0
  6
HIDDEN
 62
     3
 48
0.5
100
AcDbLine
 10
2792.20617379079
 20
293.2731681708781
 30
0.0
 11
2792.20617379079
 21
312.2731681708781
 31
0.0
  0
LINE
  5
2434
330
1F
100
AcDbEntity
  8
0
  6
HIDDEN
 62
     3
 48
0.5
100
AcDbLine
 10
2782.20617379079
 20
293.2731681708781
 30
0.0
 11
2782.20617379079
 21
312.2731681708781
 31
0.0
  0
LINE
  5
2435
330
1F
100
AcDbEntity
  8
0
100
AcDbLine
 10
2844.596257236418
 20
316.2731681708781
 30
0.0
 11
2844.596257236418
 21
312.2731681708781
 31
0.0
  0
LINE
  5
2436
330
1F
100
AcDbEntity
  8
0
100
AcDbLine
 10
2851.986340682044
 20
316.2731681708781
 30
0.0
 11
2851.986340682044
 21
312.2731681708781
 31
0.0
  0
LINE
  5
2437
330
1F
100
AcDbEntity
  8
0
100
AcDbLine
 10
2829.816090345163
 20
316.2731681708781
 30
0.0
 11
2829.816090345163
 21
312.2731681708781
 31
0.0
  0
LINE
  5
2438
330
1F
100
AcDbEntity
  8
0
100
AcDbLine
 10
2822.426006899536
 20
316.2731681708781
 30
0.0
 11
2822.426006899536
 21
312.2731681708781
 31
0.0
  0
ARC
  5
2439
330
1F
100
AcDbEntity
  8
0
100
AcDbCircle
 10
2837.20617379079
 20
282.5398348375447
 30
0.0
 40
34.53333333333334
100
AcDbArc
 50
77.64321860963021
 51
102.3567813903697
  0
ARC
  5
243A
330
1F
100
AcDbEntity
  8
0
100
AcDbCircle
 10
2826.121048622349
 20
308.1666520606589
 30
0.0
 40
8.908924557912527
100
AcDbArc
 50
65.49596495353551
 51
114.5040350464645
  0
ARC
  5
243B
330
1F
100
AcDbEntity
  8
0
100
AcDbCircle
 10
2848.291298959231
 20
308.1666520606589
 30
0.0
 40
8.908924557912527
100
AcDbArc
 50
65.49596495353551
 51
114.5040350464645
  0
LINE
  5
243D
330
1F
100
AcDbEntity
  8
0
100
AcDbLine
 10
2777.206173790791
 20
311.2731681708781
 30
0.0
 11
2778.206173790791
 21
312.2731681708781
 31
0.0
  0
LINE
  5
243E
330
1F
100
AcDbEntity
  8
0
100
AcDbLine
 10
2777.206173790791
 20
294.2731681708781
 30
0.0
 11
2778.206173790791
 21
293.2731681708781
 31
0.0
  0
LINE
  5
243F
330
1F
100
AcDbEntity
  8
0
100
AcDbLine
 10
2778.206173790791
 20
312.2731681708781
 30
0.0
 11
2854.206173790791
 21
312.2731681708781
 31
0.0
  0
LINE
  5
2440
330
1F
100
AcDbEntity
  8
0
100
AcDbLine
 10
2778.206173790791
 20
293.2731681708781
 30
0.0
 11
2854.206173790791
 21
293.2731681708781
 31
0.0
  0
LINE
  5
2441
330
1F
100
AcDbEntity
  8
0
100
AcDbLine
 10
2797.841962652586
 20
312.2731681708781
 30
0.0
 11
2797.841962652586
 21
293.2731681708781
 31
0.0
  0
LINE
  5
2442
330
1F
100
AcDbEntity
  8
0
100
AcDbLine
 10
2866.20617379079
 20
160.2730235218529
 30
0.0
 11
2865.20617379079
 21
159.2730235218529
 31
0.0
  0
LINE
  5
2443
330
1F
100
AcDbEntity
  8
0
100
AcDbLine
 10
2808.20617379079
 20
160.2730235218529
 30
0.0
 11
2809.20617379079
 21
159.2730235218529
 31
0.0
  0
LINE
  5
2444
330
1F
100
AcDbEntity
  8
0
100
AcDbLine
 10
2808.20617379079
 20
177.273023521853
 30
0.0
 11
2866.20617379079
 21
177.2730235218529
 31
0.0
  0
LINE
  5
2446
330
1F
100
AcDbEntity
  8
0
100
AcDbLine
 10
2807.20617379079
 20
178.273023521853
 30
0.0
 11
2808.20617379079
 21
177.273023521853
 31
0.0
  0
LINE
  5
2447
330
1F
100
AcDbEntity
  8
0
100
AcDbLine
 10
2866.20617379079
 20
177.2730235218529
 30
0.0
 11
2867.206173790791
 21
178.2730235218529
 31
0.0
  0
CIRCLE
  5
244A
330
1F
100
AcDbEntity
  8
0
100
AcDbCircle
 10
2837.20617379079
 20
244.3363540358198
 30
0.0
 40
4.75
  0
CIRCLE
  5
244B
330
1F
100
AcDbEntity
  8
0
100
AcDbCircle
 10
2837.20617379079
 20
244.3363540358198
 30
0.0
 40
3.75
  0
LINE
  5
2458
330
1F
100
AcDbEntity
  8
AM_7
  6
AM_ISO08W050x2
100
AcDbLine
 10
2787.20617379079
 20
314.2731681708781
 30
0.0
 11
2787.20617379079
 21
291.2731681708781
 31
0.0
1001
GENIUS_GENODEF_13
1002
{
1000
HIER
1070
     0
1002
}
1002
{
1000
MANEDIT
1070
     0
1002
}
1002
{
1000
NOSEL
1070
     0
1002
}
1002
{
1000
BEHIND
1070
     0
1002
}
1002
{
1000
OTHER
1070
     0
1002
}
1002
{
1000
REACTOR
1002
}
1001
GENIUS_GENOBJ-N-CEN_13
1002
{
1000
OWNER
1000
GEN
1002
}
1001
GENIUS_GENCEN_19
1002
{
1040
2.0
1002
}
  0
LINE
  5
2467
330
1F
100
AcDbEntity
  8
AM_7
  6
AM_ISO08W050x2
100
AcDbLine
 10
2787.206078826329
 20
387.0505140294554
 30
0.0
 11
2795.206078826329
 21
387.0505140294554
 31
0.0
1001
GENIUS_GENOREF_13
1005
246B
  0
LINE
  5
2468
330
1F
100
AcDbEntity
  8
AM_7
  6
AM_ISO08W050x2
100
AcDbLine
 10
2787.206078826329
 20
387.0505140294554
 30
0.0
 11
2787.206078826329
 21
395.0505140294554
 31
0.0
1001
GENIUS_GENOREF_13
1005
246B
  0
LINE
  5
2469
330
1F
100
AcDbEntity
  8
AM_7
  6
AM_ISO08W050x2
100
AcDbLine
 10
2787.206078826329
 20
387.0505140294554
 30
0.0
 11
2779.206078826329
 21
387.0505140294554
 31
0.0
1001
GENIUS_GENOREF_13
1005
246B
  0
LINE
  5
246A
330
1F
100
AcDbEntity
  8
AM_7
  6
AM_ISO08W050x2
100
AcDbLine
 10
2787.206078826329
 20
387.0505140294554
 30
0.0
 11
2787.206078826329
 21
379.0505140294554
 31
0.0
1001
GENIUS_GENOREF_13
1005
246B
  0
POINT
  5
246B
330
1F
100
AcDbEntity
  8
0
 60
     1
100
AcDbPoint
 10
0.0
 20
0.0
 30
0.0
1001
GENIUS_GENODEF_13
1002
{
1000
HIER
1070
    10
1002
}
1002
{
1000
MANEDIT
1070
     0
1002
}
1002
{
1000
NOSEL
1070
     0
1002
}
1002
{
1000
BEHIND
1070
     0
1002
}
1002
{
1000
OTHER
1070
     0
1002
}
1002
{
1000
REACTOR
1002
}
1001
GENIUS_GENOLIS_13
1002
{
1000
ENT
1005
246A
1005
2469
1005
2468
1005
2467
1002
}
1001
GENIUS_GENOENT_13
1002
{
1000
MYREF
1005
246B
1002
}
1002
{
1000
GRP
1005
0
1002
}
1001
GENIUS_GENOBJ-N-CRS_13
1002
{
1000
OWNER
1000
GEN
1002
}
  0
LINE
  5
2479
330
1F
100
AcDbEntity
  8
AM_7
100
AcDbLine
 10
2837.206078826329
 20
387.0505140294554
 30
0.0
 11
2869.206078826329
 21
387.0505140294554
 31
0.0
1001
GENIUS_GENOREF_13
1005
247D
  0
LINE
  5
247A
330
1F
100
AcDbEntity
  8
AM_7
100
AcDbLine
 10
2837.206078826329
 20
387.0505140294554
 30
0.0
 11
2837.206078826329
 21
419.0505140294553
 31
0.0
1001
GENIUS_GENOREF_13
1005
247D
  0
LINE
  5
247B
330
1F
100
AcDbEntity
  8
AM_7
100
AcDbLine
 10
2837.206078826329
 20
387.0505140294554
 30
0.0
 11
2805.206078826329
 21
387.0505140294554
 31
0.0
1001
GENIUS_GENOREF_13
1005
247D
  0
LINE
  5
247C
330
1F
100
AcDbEntity
  8
AM_7
100
AcDbLine
 10
2837.206078826329
 20
387.0505140294554
 30
0.0
 11
2837.206078826329
 21
355.0505140294554
 31
0.0
1001
GENIUS_GENOREF_13
1005
247D
  0
POINT
  5
247D
330
1F
100
AcDbEntity
  8
0
 60
     1
100
AcDbPoint
 10
0.0
 20
0.0
 30
0.0
1001
GENIUS_GENODEF_13
1002
{
1000
HIER
1070
    10
1002
}
1002
{
1000
MANEDIT
1070
     0
1002
}
1002
{
1000
NOSEL
1070
     0
1002
}
1002
{
1000
BEHIND
1070
     0
1002
}
1002
{
1000
OTHER
1070
     0
1002
}
1002
{
1000
REACTOR
1002
}
1001
GENIUS_GENOLIS_13
1002
{
1000
ENT
1005
247C
1005
247B
1005
247A
1005
2479
1002
}
1001
GENIUS_GENOBJ-N-CRS_13
1002
{
1000
OWNER
1000
GEN
1002
}
1001
GENIUS_GENOENT_13
1002
{
1000
MYREF
1005
247D
1002
}
1002
{
1000
GRP
1005
0
1002
}
  0
LINE
  5
248A
330
1F
100
AcDbEntity
  8
AM_7
100
AcDbLine
 10
2837.20617379079
 20
319.0731681708779
 30
0.0
 11
2837.20617379079
 21
157.2730235218529
 31
0.0
1001
GENIUS_GENODEF_13
1002
{
1000
HIER
1070
     0
1002
}
1002
{
1000
MANEDIT
1070
     0
1002
}
1002
{
1000
NOSEL
1070
     0
1002
}
1002
{
1000
BEHIND
1070
     0
1002
}
1002
{
1000
OTHER
1070
     0
1002
}
1002
{
1000
REACTOR
1002
}
1001
GENIUS_GENOBJ-N-CEN_13
1002
{
1000
OWNER
1000
GEN
1002
}
1001
GENIUS_GENCEN_19
1002
{
1040
2.0
1002
}
  0
LINE
  5
2498
330
1F
100
AcDbEntity
  8
AM_7
  6
AM_ISO08W050x2
100
AcDbLine
 10
2837.20617379079
 20
244.3363540358198
 30
0.0
 11
2843.95617379079
 21
244.3363540358198
 31
0.0
1001
GENIUS_GENOREF_13
1005
249C
  0
LINE
  5
2499
330
1F
100
AcDbEntity
  8
AM_7
  6
AM_ISO08W050x2
100
AcDbLine
 10
2837.20617379079
 20
244.3363540358198
 30
0.0
 11
2837.20617379079
 21
251.0863540358198
 31
0.0
1001
GENIUS_GENOREF_13
1005
249C
  0
LINE
  5
249A
330
1F
100
AcDbEntity
  8
AM_7
  6
AM_ISO08W050x2
100
AcDbLine
 10
2837.20617379079
 20
244.3363540358198
 30
0.0
 11
2830.456173790791
 21
244.3363540358198
 31
0.0
1001
GENIUS_GENOREF_13
1005
249C
  0
LINE
  5
249B
330
1F
100
AcDbEntity
  8
AM_7
  6
AM_ISO08W050x2
100
AcDbLine
 10
2837.20617379079
 20
244.3363540358198
 30
0.0
 11
2837.20617379079
 21
237.5863540358198
 31
0.0
1001
GENIUS_GENOREF_13
1005
249C
  0
POINT
  5
249C
330
1F
100
AcDbEntity
  8
0
 60
     1
100
AcDbPoint
 10
0.0
 20
0.0
 30
0.0
1001
GENIUS_GENOENT_13
1002
{
1000
MYREF
1005
249C
1002
}
1002
{
1000
GRP
1005
0
1002
}
1001
GENIUS_GENOBJ-N-CRS_13
1002
{
1000
OWNER
1000
GEN
1002
}
1001
GENIUS_GENOLIS_13
1002
{
1000
ENT
1005
249B
1005
249A
1005
2499
1005
2498
1002
}
1001
GENIUS_GENODEF_13
1002
{
1000
HIER
1070
    10
1002
}
1002
{
1000
MANEDIT
1070
     0
1002
}
1002
{
1000
NOSEL
1070
     0
1002
}
1002
{
1000
BEHIND
1070
     0
1002
}
1002
{
1000
OTHER
1070
     0
1002
}
1002
{
1000
REACTOR
1002
}
  0
DIMENSION
  5
24C7
330
1F
100
AcDbEntity
  8
AM_5
100
AcDbDimension
  2
*D24
 10
2878.20617379079
 20
257.2730235218529
 30
0.0
 11
2875.706173790791
 21
208.2730235218534
 31
0.0
 70
    32
 71
     5
 42
98.0
  3
AM_ISO$0
100
AcDbAlignedDimension
 13
2869.20617379079
 23
159.2730235218529
 33
0.0
 14
2865.20617379079
 24
257.2730235218529
 34
0.0
 50
90.0
100
AcDbRotatedDimension
1001
ACAD
1000
DSTYLE
1002
{
1070
    40
1040
1.0
1070
   144
1040
1.0
1070
   272
1070
     8
1002
}
  0
DIMENSION
  5
24C8
330
1F
100
AcDbEntity
  8
AM_5
100
AcDbDimension
  2
*D25
 10
2888.20617379079
 20
293.2731681708781
 30
0.0
 11
2885.70617379079
 21
226.2730958463659
 31
0.0
 70
    32
 71
     5
 42
134.0001446490251
  3
AM_ISO$0
100
AcDbAlignedDimension
 13
2869.20617379079
 23
159.2730235218529
 33
0.0
 14
2854.206173790791
 24
293.2731681708781
 34
0.0
 50
90.0
100
AcDbRotatedDimension
1001
ACAD
1000
DSTYLE
1002
{
1070
    40
1040
1.0
1070
   144
1040
1.0
1070
   272
1070
     8
1002
}
  0
DIMENSION
  5
24C9
330
1F
100
AcDbEntity
  8
AM_5
100
AcDbDimension
  2
*D26
 10
2888.20617379079
 20
293.2731681708781
 30
0.0
 11
2885.70617379079
 21
302.7731681708786
 31
0.0
 70
    32
 71
     5
 42
19.0
  3
AM_ISO$0
100
AcDbAlignedDimension
 13
2854.206173790791
 23
312.2731681708781
 33
0.0
 14
2854.206173790791
 24
293.2731681708781
 34
0.0
 50
90.0
100
AcDbRotatedDimension
1001
ACAD
1000
DSTYLE
1002
{
1070
    40
1040
1.0
1070
   144
1040
1.0
1070
   272
1070
     8
1002
}
  0
DIMENSION
  5
24CA
330
1F
100
AcDbEntity
  8
AM_5
100
AcDbDimension
  2
*D27
 10
2867.206173790791
 20
200.621678289128
 30
0.0
 11
2837.20617379079
 21
203.121678289128
 31
0.0
 70
    32
  1
M<>x1.5
 71
     5
 42
60.0
  3
AM_ISO$0
100
AcDbAlignedDimension
 13
2807.20617379079
 23
204.273023521853
 33
0.0
 14
2867.206173790791
 24
204.2730235218529
 34
0.0
100
AcDbRotatedDimension
1001
ACAD
1000
DSTYLE
1002
{
1070
    40
1040
1.0
1070
   144
1040
1.0
1070
   272
1070
     8
1002
}
  0
LINE
  5
253B
330
1F
100
AcDbEntity
  8
0
  6
HIDDEN
 62
     3
 48
0.5
100
AcDbLine
 10
2842.206173790791
 20
170.141798804201
 30
0.0
 11
2842.20617379079
 21
159.2730235218529
 31
0.0
  0
LINE
  5
253C
330
1F
100
AcDbEntity
  8
0
  6
HIDDEN
 62
     3
 48
0.5
100
AcDbLine
 10
2832.20617379079
 20
169.3028426163491
 30
0.0
 11
2832.20617379079
 21
159.2730235218529
 31
0.0
  0
LINE
  5
253D
330
1F
100
AcDbEntity
  8
0
  6
HIDDEN
 62
     3
 48
0.5
100
AcDbLine
 10
2841.20617379079
 20
169.9740077169703
 30
0.0
 11
2841.20617379079
 21
159.2730235218529
 31
0.0
  0
LINE
  5
253E
330
1F
100
AcDbEntity
  8
0
  6
HIDDEN
 62
     3
 48
0.5
100
AcDbLine
 10
2833.20617379079
 20
169.6384255425089
 30
0.0
 11
2833.20617379079
 21
159.2730235218529
 31
0.0
  0
ENDSEC
  0
SECTION
  2
OBJECTS
  0
DICTIONARY
  5
C
330
0
100
AcDbDictionary
281
     1
  3
ACAD_COLOR
350
BE
  3
ACAD_GROUP
350
D
  3
ACAD_LAYOUT
350
1A
  3
ACAD_MATERIAL
350
BD
  3
ACAD_MLINESTYLE
350
17
  3
ACAD_PLOTSETTINGS
350
19
  3
ACAD_PLOTSTYLENAME
350
E
  3
ACAD_TABLESTYLE
350
11A
  3
ACDBHEADERROUNDTRIPXREC
350
2578
  3
AcDbVariableDictionary
350
94
  3
AcmDictionary
350
5B
  3
AMG
350
41
  3
AMGSNAPSETTINGS
350
1B8
  3
DWGPROPS
350
2577
  0
DICTIONARY
  5
3F9
330
2
100
AcDbDictionary
280
     1
281
     1
  3
ACAD_LAYERFILTERS
360
5B7
  3
ACAD_LAYERSTATES
360
1563
  3
ACLYDICTIONARY
360
5B6
  0
DICTIONARY
  5
8F
330
1F
100
AcDbDictionary
280
     1
281
     1
  3
ACAD_SORTENTS
360
9E6
  0
DICTIONARY
  5
BE
102
{ACAD_REACTORS
330
C
102
}
330
C
100
AcDbDictionary
281
     1
  0
DICTIONARY
  5
D
102
{ACAD_REACTORS
330
C
102
}
330
C
100
AcDbDictionary
281
     1
  0
DICTIONARY
  5
1A
102
{ACAD_REACTORS
330
C
102
}
330
C
100
AcDbDictionary
281
     1
  3
Model
350
22
  3
配置1
350
1E
  3
配置2
350
26
  0
DICTIONARY
  5
BD
102
{ACAD_REACTORS
330
C
102
}
330
C
100
AcDbDictionary
281
     1
  0
DICTIONARY
  5
17
102
{ACAD_REACTORS
330
C
102
}
330
C
100
AcDbDictionary
281
     1
  3
Standard
350
18
  0
DICTIONARY
  5
19
102
{ACAD_REACTORS
330
C
102
}
330
C
100
AcDbDictionary
281
     1
  0
ACDBDICTIONARYWDFLT
  5
E
102
{ACAD_REACTORS
330
C
102
}
330
C
100
AcDbDictionary
281
     1
  3
Normal
350
F
100
AcDbDictionaryWithDefault
340
F
  0
DICTIONARY
  5
11A
102
{ACAD_REACTORS
330
C
102
}
330
C
100
AcDbDictionary
281
     1
  3
Standard
350
11B
  0
DICTIONARY
  5
2578
102
{ACAD_REACTORS
330
C
102
}
330
C
100
AcDbDictionary
281
     1
  0
DICTIONARY
  5
94
102
{ACAD_REACTORS
330
C
102
}
330
C
100
AcDbDictionary
281
     1
  3
CTABLESTYLE
350
138
  3
DIMASSOC
350
96
  3
INDEXCTL
350
95
  3
PROJECTNAME
350
2575
  0
DICTIONARY
  5
5B
102
{ACAD_REACTORS
330
C
102
}
330
C
100
AcDbDictionary
281
     1
  3
AcmBOM
350
1B5
  3
AcmStdDictionary
350
61
  3
AMDTSECTSYM_ARROWCOLOR
350
123
  0
DICTIONARY
  5
41
102
{ACAD_REACTORS
330
C
102
}
330
C
100
AcDbDictionary
281
     1
  0
DICTIONARY
  5
1B8
102
{ACAD_REACTORS
330
C
102
}
330
C
100
AcDbDictionary
281
     1
  0
XRECORD
  5
2577
102
{ACAD_REACTORS
330
C
102
}
330
C
100
AcDbXrecord
280
     1
  1
DWGPROPS COOKIE
  2

  3

  4

  6

  7

  8

  9

300
AmdtFileType=84
301
=
302
=
303
=
304
=
305
=
306
=
307
=
308
=
309
=
 40
0.0894426273148148
 41
2453731.618400787
 42
2453732.406010012
  1

 90
        1
  0
DICTIONARY
  5
5B7
102
{ACAD_REACTORS
330
3F9
102
}
330
3F9
100
AcDbDictionary
281
     1
  0
DICTIONARY
  5
1563
102
{ACAD_REACTORS
330
3F9
102
}
330
3F9
100
AcDbDictionary
281
     1
  0
DICTIONARY
  5
5B6
102
{ACAD_REACTORS
330
3F9
102
}
330
3F9
100
AcDbDictionary
281
     1
1001
ACAD
1000
<All
  0
SORTENTSTABLE
  5
9E6
102
{ACAD_REACTORS
330
8F
102
}
330
8F
100
AcDbSortentsTable
330
1F
331
1CAA
  5
1CAA
331
1CC9
  5
1CC9
331
1731
  5
1731
331
1767
  5
1767
331
242F
  5
2433
331
1CAB
  5
1CAB
331
1732
  5
1732
331
1768
  5
1768
331
1CCA
  5
1CCA
331
1CF9
  5
1CF9
331
1A96
  5
1A96
331
1CAC
  5
1CAC
331
1733
  5
1733
331
174A
  5
174A
331
1CCB
  5
1CCB
331
1CFA
  5
1CFA
331
1A97
  5
1A97
331
1CAD
  5
1CAD
331
1CCC
  5
1CCC
331
1CFB
  5
1CFB
331
1734
  5
1734
331
1791
  5
1791
331
1A98
  5
1A98
331
1AB7
  5
1AB7
331
1CAE
  5
1CAE
331
1CCD
  5
1CCD
331
1CFC
  5
1CFC
331
1735
  5
1735
331
1792
  5
1792
331
1A99
  5
1A99
331
1AB8
  5
1AB8
331
198A
  5
198A
331
1CAF
  5
1CAF
331
1736
  5
1736
331
176C
  5
176C
331
1793
  5
1793
331
1DF0
  5
1DF0
331
1CB0
  5
1CB0
331
198B
  5
198B
331
1737
  5
1737
331
174E
  5
174E
331
176D
  5
176D
331
1794
  5
1794
331
1A9A
  5
1A9A
331
1AB9
  5
1AB9
331
1E11
  5
1E11
331
174F
  5
174F
331
176E
  5
176E
331
1795
  5
1795
331
1A9B
  5
1A9B
331
1ABA
  5
1ABA
331
1738
  5
1738
331
1E12
  5
1E12
331
1A9C
  5
1A9C
331
1ABB
  5
1ABB
331
1739
  5
1739
331
176F
  5
176F
331
1796
  5
1796
331
1A9D
  5
1A9D
331
1ABC
  5
1ABC
331
1CDA
  5
1CDA
331
173A
  5
173A
331
1770
  5
1770
331
1797
  5
1797
331
1A9E
  5
1A9E
331
173B
  5
173B
331
1771
  5
1771
331
1A9F
  5
1A9F
331
1D0B
  5
1D0B
331
173C
  5
173C
331
1753
  5
1753
331
1772
  5
1772
331
1799
  5
1799
331
1E4C
  5
1E4C
331
1F30
  5
1F30
331
1A89
  5
1A89
331
1AA0
  5
1AA0
331
1CDD
  5
1CDD
331
1D0C
  5
1D0C
331
173D
  5
173D
331
1754
  5
1754
331
1773
  5
1773
331
179A
  5
179A
331
1DD8
  5
1DD8
331
1E4D
  5
1E4D
331
1F31
  5
1F31
331
1F48
  5
1F48
331
1AA1
  5
1AA1
331
1C98
  5
1C98
331
1CDE
  5
1CDE
331
173E
  5
173E
331
1755
  5
1755
331
1774
  5
1774
331
1D0D
  5
1D0D
331
1DD9
  5
1DD9
331
1E4E
  5
1E4E
331
1F32
  5
1F32
331
1F68
  5
1F68
331
1FC0
  5
1FC0
331
1C99
  5
1C99
331
1D0E
  5
1D0E
331
1DDA
  5
1DDA
331
1E4F
  5
1E4F
331
1F33
  5
1F33
331
1F69
  5
1F69
331
173F
  5
173F
331
1756
  5
1756
331
1775
  5
1775
331
1A8B
  5
1A8B
331
1FC1
  5
1FC1
331
1DDB
  5
1DDB
331
1F34
  5
1F34
331
1F4B
  5
1F4B
331
1F6A
  5
1F6A
331
2050
  5
2050
331
1776
  5
1776
331
1A8C
  5
1A8C
331
1AA3
  5
1AA3
331
1C9A
  5
1C9A
331
1757
  5
1757
331
1FC2
  5
1FC2
331
1DDC
  5
1DDC
331
1F35
  5
1F35
331
1F4C
  5
1F4C
331
1F6B
  5
1F6B
331
2051
  5
2051
331
2068
  5
2068
331
1A8D
  5
1A8D
331
1C9B
  5
1C9B
331
1D10
  5
1D10
331
1758
  5
1758
331
1777
  5
1777
331
1FC3
  5
1FC3
331
1E52
  5
1E52
331
1F36
  5
1F36
331
1F4D
  5
1F4D
331
1F6C
  5
1F6C
331
2052
  5
2052
331
2088
  5
2088
331
1A8E
  5
1A8E
331
1C9C
  5
1C9C
331
1759
  5
1759
331
1778
  5
1778
331
1DDD
  5
1DDD
331
20F8
  5
20F8
331
1F6D
  5
1F6D
331
2053
  5
2053
331
2089
  5
2089
331
1A8F
  5
1A8F
331
1AA6
  5
1AA6
331
1C9D
  5
1C9D
331
1CEB
  5
1CEB
331
175A
  5
175A
331
1779
  5
1779
331
17A8
  5
17A8
331
1DDE
  5
1DDE
331
1E53
  5
1E53
331
1F37
  5
1F37
331
1F4E
  5
1F4E
331
20F9
  5
20F9
331
2054
  5
2054
331
206B
  5
206B
331
208A
  5
208A
331
1AA7
  5
1AA7
331
1C9E
  5
1C9E
331
1D13
  5
1D13
331
177A
  5
177A
331
17A9
  5
17A9
331
1DDF
  5
1DDF
331
1DFE
  5
1DFE
331
1E54
  5
1E54
331
1F38
  5
1F38
331
1F4F
  5
1F4F
331
1F6E
  5
1F6E
331
2198
  5
2198
331
2055
  5
2055
331
206C
  5
206C
331
208B
  5
208B
331
1AA8
  5
1AA8
331
1C9F
  5
1C9F
331
1CBE
  5
1CBE
331
177B
  5
177B
331
1DE0
  5
1DE0
331
1DFF
  5
1DFF
331
1E55
  5
1E55
331
1F50
  5
1F50
331
1F6F
  5
1F6F
331
206D
  5
206D
331
208C
  5
208C
331
2199
  5
2199
331
1AA9
  5
1AA9
331
1CA0
  5
1CA0
331
1CBF
  5
1CBF
331
177C
  5
177C
331
1DE1
  5
1DE1
331
1E00
  5
1E00
331
1E1F
  5
1E1F
331
1E56
  5
1E56
331
1F3A
  5
1F3A
331
1F51
  5
1F51
331
1F70
  5
1F70
331
2056
  5
2056
331
21D8
  5
21D8
331
219A
  5
219A
331
21B9
  5
21B9
331
212B
  5
212B
331
1CA1
  5
1CA1
331
1CC0
  5
1CC0
331
1D16
  5
1D16
331
1DE2
  5
1DE2
331
1E01
  5
1E01
331
1E57
  5
1E57
331
1F3B
  5
1F3B
331
1F52
  5
1F52
331
1F71
  5
1F71
331
2057
  5
2057
331
206E
  5
206E
331
175E
  5
175E
331
177D
  5
177D
331
1AAA
  5
1AAA
331
208D
  5
208D
331
21D9
  5
21D9
331
219B
  5
219B
331
21BA
  5
21BA
331
212C
  5
212C
331
1DE3
  5
1DE3
331
1E58
  5
1E58
331
1F3C
  5
1F3C
331
1F53
  5
1F53
331
1F72
  5
1F72
331
2058
  5
2058
331
206F
  5
206F
331
208E
  5
208E
331
177E
  5
177E
331
1AAB
  5
1AAB
331
1CA2
  5
1CA2
331
1CC1
  5
1CC1
331
21DA
  5
21DA
331
219C
  5
219C
331
21BB
  5
21BB
331
212D
  5
212D
331
1FD2
  5
1FD2
331
1E03
  5
1E03
331
1E59
  5
1E59
331
1F3D
  5
1F3D
331
1F54
  5
1F54
331
2070
  5
2070
331
208F
  5
208F
331
1AAC
  5
1AAC
331
1CA3
  5
1CA3
331
177F
  5
177F
331
1DE4
  5
1DE4
331
219D
  5
219D
331
212E
  5
212E
331
1F3E
  5
1F3E
331
1F55
  5
1F55
331
205A
  5
205A
331
2071
  5
2071
331
1AAD
  5
1AAD
331
1CA4
  5
1CA4
331
1CC3
  5
1CC3
331
1DE5
  5
1DE5
331
1E04
  5
1E04
331
21DB
  5
21DB
331
21BD
  5
21BD
331
205B
  5
205B
331
2072
  5
2072
331
2091
  5
2091
331
21DC
  5
21DC
331
1AAE
  5
1AAE
331
1CA5
  5
1CA5
331
1CC4
  5
1CC4
331
1E2C
  5
1E2C
331
1F3F
  5
1F3F
331
1F56
  5
1F56
331
21BE
  5
21BE
331
205C
  5
205C
331
2073
  5
2073
331
2092
  5
2092
331
1AAF
  5
1AAF
331
1DE7
  5
1DE7
331
1E06
  5
1E06
331
1F40
  5
1F40
331
21BF
  5
21BF
331
205D
  5
205D
331
2074
  5
2074
331
2093
  5
2093
331
1CA7
  5
1CA7
331
1CC6
  5
1CC6
331
1DE8
  5
1DE8
331
1E07
  5
1E07
331
1F41
  5
1F41
331
21C0
  5
21C0
331
1CC7
  5
1CC7
331
1DE9
  5
1DE9
331
1F42
  5
1F42
331
205E
  5
205E
331
2075
  5
2075
331
2338
  5
2338
331
21C1
  5
21C1
331
2133
  5
2133
331
1DEA
  5
1DEA
331
1E09
  5
1E09
331
1F43
  5
1F43
331
205F
  5
205F
331
2076
  5
2076
331
2339
  5
2339
331
1DEB
  5
1DEB
331
1E0A
  5
1E0A
331
1F44
  5
1F44
331
2060
  5
2060
331
2134
  5
2134
331
233A
  5
233A
331
21C3
  5
21C3
331
1E0B
  5
1E0B
331
1E3A
  5
1E3A
331
2061
  5
2061
331
2135
  5
2135
331
1DEC
  5
1DEC
331
2314
  5
2314
331
233B
  5
233B
331
21C4
  5
21C4
331
2062
  5
2062
331
2107
  5
2107
331
2136
  5
2136
331
1DED
  5
1DED
331
1D67
  5
1D67
331
1E0C
  5
1E0C
331
1E3B
  5
1E3B
331
2315
  5
2315
331
2063
  5
2063
331
21C5
  5
21C5
331
1DEE
  5
1DEE
331
1E0D
  5
1E0D
331
1E3C
  5
1E3C
331
1F47
  5
1F47
331
2431
  5
2435
331
2458
  5
246A
331
2064
  5
2064
331
21C6
  5
21C6
331
2243
  5
2243
331
1DEF
  5
1DEF
331
1E0E
  5
1E0E
331
1E3D
  5
1E3D
331
1FAE
  5
1FAE
331
2316
  5
2316
331
2432
  5
2436
331
21C7
  5
21C7
331
2244
  5
2244
331
1FAF
  5
1FAF
331
1F2A
  5
1F2A
331
1F60
  5
1F60
331
2317
  5
2317
331
2433
  5
2437
331
2479
  5
248A
331
2245
  5
2245
331
1FB0
  5
1FB0
331
1FDF
  5
1FDF
331
1F61
  5
1F61
331
2192
  5
2192
331
21A9
  5
21A9
331
21C8
  5
21C8
331
2434
  5
2438
331
247A
  5
2498
331
2246
  5
2246
331
2193
  5
2193
331
1FB1
  5
1FB1
331
1F2C
  5
1F2C
331
1F62
  5
1F62
331
2067
  5
2067
331
21C9
  5
21C9
331
247B
  5
2499
331
2194
  5
2194
331
21AB
  5
21AB
331
2115
  5
2115
331
21CA
  5
21CA
331
1F2D
  5
1F2D
331
1F63
  5
1F63
331
20CE
  5
20CE
331
2435
  5
2439
331
2195
  5
2195
331
21AC
  5
21AC
331
2116
  5
2116
331
21CB
  5
21CB
331
1F2E
  5
1F2E
331
1F64
  5
1F64
331
204A
  5
204A
331
2080
  5
2080
331
2417
  5
2417
331
2436
  5
243A
331
247C
  5
249A
331
2196
  5
2196
331
21AD
  5
21AD
331
2117
  5
2117
331
21CC
  5
21CC
331
1F65
  5
1F65
331
2081
  5
2081
331
2437
  5
243B
331
1F2F
  5
1F2F
331
22E6
  5
22E6
331
2197
  5
2197
331
21AE
  5
21AE
331
2118
  5
2118
331
21CD
  5
21CD
331
204C
  5
204C
331
2082
  5
2082
331
2419
  5
2419
331
2438
  5
243C
331
1F66
  5
1F66
331
241A
  5
241A
331
2439
  5
243D
331
21AF
  5
21AF
331
204D
  5
204D
331
2083
  5
2083
331
1F67
  5
1F67
331
22E7
  5
22E7
331
21CF
  5
21CF
331
241B
  5
241B
331
243A
  5
243E
331
2084
  5
2084
331
204E
  5
204E
331
21B0
  5
21B0
331
241C
  5
241C
331
243B
  5
243F
331
21B1
  5
21B1
331
21D0
  5
21D0
331
204F
  5
204F
331
2085
  5
2085
331
241D
  5
241D
331
248A
  5
249B
331
21B2
  5
21B2
331
21D1
  5
21D1
331
2086
  5
2086
331
21B3
  5
21B3
331
20F6
  5
20F6
331
21D2
  5
21D2
331
2087
  5
2087
331
241E
  5
241E
331
243D
  5
2441
331
22F4
  5
22F4
331
21B4
  5
21B4
331
20F7
  5
20F7
331
21D3
  5
21D3
331
2400
  5
2400
331
241F
  5
241F
331
243E
  5
2442
331
21B5
  5
21B5
331
21D4
  5
21D4
331
2401
  5
2401
331
2420
  5
2420
331
243F
  5
2443
331
2325
  5
2325
331
21B6
  5
21B6
331
21D5
  5
21D5
331
2402
  5
2402
331
2421
  5
2421
331
2440
  5
2444
331
2467
  5
2479
331
21D6
  5
21D6
331
2403
  5
2403
331
2422
  5
2422
331
2441
  5
2445
331
2468
  5
247A
331
21D7
  5
21D7
331
2404
  5
2404
331
2423
  5
2423
331
2442
  5
2446
331
2469
  5
247B
331
2498
  5
24C7
331
2405
  5
2405
331
2424
  5
2424
331
2443
  5
2447
331
246A
  5
247C
331
2499
  5
24C8
331
2444
  5
2448
331
249A
  5
24C9
331
2302
  5
2302
331
2406
  5
2406
331
1728
  5
1728
331
249B
  5
24CA
331
2303
  5
2303
331
2407
  5
2407
331
1729
  5
1729
331
1740
  5
1740
331
2304
  5
2304
331
2333
  5
2333
331
2408
  5
2408
331
2427
  5
242B
331
2446
  5
2468
331
172A
  5
172A
331
1741
  5
1741
331
2305
  5
2305
331
2334
  5
2334
331
2409
  5
2409
331
2428
  5
242C
331
2447
  5
2469
331
172B
  5
172B
331
1742
  5
1742
331
1780
  5
1780
331
2335
  5
2335
331
240A
  5
240A
331
2429
  5
242D
331
172C
  5
172C
331
1743
  5
1743
331
1762
  5
1762
331
1781
  5
1781
331
17B8
  5
17B8
331
240B
  5
240B
331
253B
  5
244A
331
2336
  5
2336
331
172D
  5
172D
331
1744
  5
1744
331
1782
  5
1782
331
17B9
  5
17B9
331
242B
  5
242F
331
244A
  5
2429
331
24C7
  5
253B
331
253C
  5
244B
331
1AB0
  5
1AB0
331
172E
  5
172E
331
1745
  5
1745
331
1783
  5
1783
331
17BA
  5
17BA
331
242C
  5
2430
331
244B
  5
242A
331
24C8
  5
253C
331
253D
  5
2458
331
1AB1
  5
1AB1
331
1CA8
  5
1CA8
331
172F
  5
172F
331
1746
  5
1746
331
1784
  5
1784
331
17BB
  5
17BB
331
242D
  5
2431
331
24C9
  5
253D
331
253E
  5
2467
331
1CA9
  5
1CA9
331
1CC8
  5
1CC8
331
1766
  5
1766
331
1730
  5
1730
331
24CA
  5
253E
331
242E
  5
2432
  0
LAYOUT
  5
22
102
{ACAD_XDICTIONARY
360
257B
102
}
102
{ACAD_REACTORS
330
1A
102
}
330
1A
100
AcDbPlotSettings
  1

  2
\\RD\EPSON Stylus C63 Series單色
  4
A4
  6

 40
3.757083177566528
 41
3.757076978683471
 42
3.757080078125
 43
3.757080078125
 44
209.9733276367187
 45
296.9683227539062
 46
0.0
 47
0.0
 48
0.0
 49
0.0
140
0.0
141
0.0
142
1.0
143
0.3405120737814363
 70
 11952
 72
     1
 73
     0
 74
     0
  7
單色出圖.ctb
 75
     0
147
2.936753428137963
148
-2047.07469463503
149
-1261.649717473083
100
AcDbLayout
  1
Model
 70
     1
 71
     0
 10
0.0
 20
0.0
 11
12.0
 21
9.0
 12
0.0
 22
0.0
 32
0.0
 14
0.0
 24
0.0
 34
0.0
 15
0.0
 25
0.0
 35
0.0
146
0.0
 13
0.0
 23
0.0
 33
0.0
 16
1.0
 26
0.0
 36
0.0
 17
0.0
 27
1.0
 37
0.0
 76
     0
330
1F
1001
ACAD_PSEXT
1000
\\RD\EPSON Stylus C63 Series單色
1000
EPSON Stylus C63 Series
1000
\\RD
1000

1070
     0
  0
LAYOUT
  5
1E
102
{ACAD_XDICTIONARY
360
2579
102
}
102
{ACAD_REACTORS
330
1A
102
}
330
1A
100
AcDbPlotSettings
  1

  2

  4

  6

 40
0.0
 41
0.0
 42
0.0
 43
0.0
 44
0.0
 45
0.0
 46
0.0
 47
0.0
 48
0.0
 49
0.0
140
0.0
141
0.0
142
1.0
143
1.0
 70
   688
 72
     0
 73
     0
 74
     5
  7
單色出圖.ctb
 75
    16
147
1.0
148
0.0
149
0.0
100
AcDbLayout
  1
配置1
 70
     1
 71
     1
 10
0.0
 20
0.0
 11
420.0
 21
297.0
 12
0.0
 22
0.0
 32
0.0
 14
1.000000000000000E+20
 24
1.000000000000000E+20
 34
1.000000000000000E+20
 15
-1.000000000000000E+20
 25
-1.000000000000000E+20
 35
-1.000000000000000E+20
146
0.0
 13
0.0
 23
0.0
 33
0.0
 16
1.0
 26
0.0
 36
0.0
 17
0.0
 27
1.0
 37
0.0
 76
     0
330
1B
  0
LAYOUT
  5
26
102
{ACAD_XDICTIONARY
360
257D
102
}
102
{ACAD_REACTORS
330
1A
102
}
330
1A
100
AcDbPlotSettings
  1

  2

  4

  6

 40
0.0
 41
0.0
 42
0.0
 43
0.0
 44
0.0
 45
0.0
 46
0.0
 47
0.0
 48
0.0
 49
0.0
140
0.0
141
0.0
142
1.0
143
1.0
 70
   688
 72
     0
 73
     0
 74
     5
  7
單色出圖.ctb
 75
    16
147
1.0
148
0.0
149
0.0
100
AcDbLayout
  1
配置2
 70
     1
 71
     2
 10
0.0
 20
0.0
 11
12.0
 21
9.0
 12
0.0
 22
0.0
 32
0.0
 14
0.0
 24
0.0
 34
0.0
 15
0.0
 25
0.0
 35
0.0
146
0.0
 13
0.0
 23
0.0
 33
0.0
 16
1.0
 26
0.0
 36
0.0
 17
0.0
 27
1.0
 37
0.0
 76
     0
330
23
  0
MLINESTYLE
  5
18
102
{ACAD_REACTORS
330
17
102
}
330
17
100
AcDbMlineStyle
  2
STANDARD
 70
     0
  3

 62
   256
 51
90.0
 52
90.0
 71
     2
 49
0.5
 62
   256
  6
BYLAYER
 49
-0.5
 62
   256
  6
BYLAYER
  0
ACDBPLACEHOLDER
  5
F
102
{ACAD_REACTORS
330
E
102
}
330
E
  0
TABLESTYLE
  5
11B
102
{ACAD_REACTORS
330
11A
102
}
330
11A
100
AcDbTableStyle
  3
Standard
 70
     0
 71
     0
 40
1.5
 41
1.5
280
     0
281
     0
  7
STANDARD
140
4.5
170
     2
 62
     0
 63
     7
283
     0
274
    -2
284
     1
 64
     0
275
    -2
285
     1
 65
     0
276
    -2
286
     1
 66
     0
277
    -2
287
     1
 67
     0
278
    -2
288
     1
 68
     0
279
    -2
289
     1
 69
     0
  7
STANDARD
140
6.0
170
     5
 62
     0
 63
     7
283
     0
274
    -2
284
     1
 64
     0
275
    -2
285
     1
 65
     0
276
    -2
286
     1
 66
     0
277
    -2
287
     1
 67
     0
278
    -2
288
     1
 68
     0
279
    -2
289
     1
 69
     0
  7
STANDARD
140
4.5
170
     5
 62
     0
 63
     7
283
     0
274
    -2
284
     1
 64
     0
275
    -2
285
     1
 65
     0
276
    -2
286
     1
 66
     0
277
    -2
287
     1
 67
     0
278
    -2
288
     1
 68
     0
279
    -2
289
     1
 69
     0
  0
DICTIONARYVAR
  5
138
102
{ACAD_REACTORS
330
94
102
}
330
94
100
DictionaryVariables
280
     0
  1
STANDARD
  0
DICTIONARYVAR
  5
96
102
{ACAD_REACTORS
330
94
102
}
330
94
100
DictionaryVariables
280
     0
  1
2
  0
DICTIONARYVAR
  5
95
102
{ACAD_REACTORS
330
94
102
}
330
94
100
DictionaryVariables
280
     0
  1
0
  0
DICTIONARYVAR
  5
2575
102
{ACAD_REACTORS
330
94
102
}
330
94
100
DictionaryVariables
280
     0
  1

  0
DICTIONARY
  5
1B5
102
{ACAD_REACTORS
330
5B
102
}
330
5B
100
AcDbDictionary
281
     1
  0
DICTIONARY
  5
61
102
{ACAD_REACTORS
330
5B
102
}
330
5B
100
AcDbDictionary
281
     1
  0
XRECORD
  5
123
102
{ACAD_REACTORS
330
5B
102
}
330
5B
100
AcDbXrecord
280
     1
 90
-1023410169
  0
DICTIONARY
  5
257B
330
22
100
AcDbDictionary
280
     1
281
     1
  3
ACAD_XREC_ROUNDTRIP
360
257C
  0
DICTIONARY
  5
2579
330
1E
100
AcDbDictionary
280
     1
281
     1
  3
ACAD_XREC_ROUNDTRIP
360
257A
  0
DICTIONARY
  5
257D
330
26
100
AcDbDictionary
280
     1
281
     1
  3
ACAD_XREC_ROUNDTRIP
360
257E
  0
XRECORD
  5
257C
102
{ACAD_REACTORS
330
257B
102
}
330
257B
100
AcDbXrecord
280
     1
102
SHADEPLOT
 70
     0
102
SHADEPLOTRESLEVEL
 70
     2
102
SHADEPLOTCUSTOMDPI
 70
   300
  0
XRECORD
  5
257A
102
{ACAD_REACTORS
330
2579
102
}
330
2579
100
AcDbXrecord
280
     1
102
SHADEPLOT
 70
     0
102
SHADEPLOTRESLEVEL
 70
     2
102
SHADEPLOTCUSTOMDPI
 70
   300
  0
XRECORD
  5
257E
102
{ACAD_REACTORS
330
257D
102
}
330
257D
100
AcDbXrecord
280
     1
102
SHADEPLOT
 70
     0
102
SHADEPLOTRESLEVEL
 70
     2
102
SHADEPLOTCUSTOMDPI
 70
   300
  0
ENDSEC
  0
EOF
