  0
SECTION
  2
HEADER
  9
$ACADVER
  1
AC1015
  9
$ACADMAINTVER
 70
    20
  9
$DWGCODEPAGE
  3
ANSI_950
  9
$INSBASE
 10
0.0
 20
0.0
 30
0.0
  9
$EXTMIN
 10
123.6428844226093
 20
98.85640611981125
 30
-0.0058069244264516
  9
$EXTMAX
 10
407.7081308463916
 20
389.283848610367
 30
190.3016256141528
  9
$LIMMIN
 10
0.0
 20
0.0
  9
$LIMMAX
 10
420.0
 20
297.0
  9
$ORTHOMODE
 70
     1
  9
$REGENMODE
 70
     1
  9
$FILLMODE
 70
     1
  9
$QTEXTMODE
 70
     0
  9
$MIRRTEXT
 70
     1
  9
$LTSCALE
 40
1.0
  9
$ATTMODE
 70
     1
  9
$TEXTSIZE
 40
3.0
  9
$TRACEWID
 40
1.0
  9
$TEXTSTYLE
  7
STANDARD
  9
$CLAYER
  8
0
  9
$CELTYPE
  6
ByLayer
  9
$CECOLOR
 62
   256
  9
$CELTSCALE
 40
1.0
  9
$DISPSILH
 70
     0
  9
$DIMSCALE
 40
1.0
  9
$DIMASZ
 40
3.0
  9
$DIMEXO
 40
1.5
  9
$DIMDLI
 40
8.0
  9
$DIMRND
 40
0.0
  9
$DIMDLE
 40
0.0
  9
$DIMEXE
 40
1.5
  9
$DIMTP
 40
0.1
  9
$DIMTM
 40
0.1
  9
$DIMTXT
 40
3.5
  9
$DIMCEN
 40
0.0
  9
$DIMTSZ
 40
0.0
  9
$DIMTOL
 70
     0
  9
$DIMLIM
 70
     0
  9
$DIMTIH
 70
     0
  9
$DIMTOH
 70
     0
  9
$DIMSE1
 70
     0
  9
$DIMSE2
 70
     0
  9
$DIMTAD
 70
     1
  9
$DIMZIN
 70
     8
  9
$DIMBLK
  1

  9
$DIMASO
 70
     1
  9
$DIMSHO
 70
     1
  9
$DIMPOST
  1

  9
$DIMAPOST
  1
"
  9
$DIMALT
 70
     0
  9
$DIMALTD
 70
     2
  9
$DIMALTF
 40
0.0393701
  9
$DIMLFAC
 40
1.0
  9
$DIMTOFL
 70
     1
  9
$DIMTVP
 40
0.0
  9
$DIMTIX
 70
     0
  9
$DIMSOXD
 70
     0
  9
$DIMSAH
 70
     0
  9
$DIMBLK1
  1

  9
$DIMBLK2
  1

  9
$DIMSTYLE
  2
AM_ISO
  9
$DIMCLRD
 70
   256
  9
$DIMCLRE
 70
   256
  9
$DIMCLRT
 70
   256
  9
$DIMTFAC
 40
0.71
  9
$DIMGAP
 40
1.5
  9
$DIMJUST
 70
     0
  9
$DIMSD1
 70
     0
  9
$DIMSD2
 70
     0
  9
$DIMTOLJ
 70
     0
  9
$DIMTZIN
 70
     8
  9
$DIMALTZ
 70
     0
  9
$DIMALTTZ
 70
     0
  9
$DIMUPT
 70
     0
  9
$DIMDEC
 70
     2
  9
$DIMTDEC
 70
     2
  9
$DIMALTU
 70
     2
  9
$DIMALTTD
 70
     2
  9
$DIMTXSTY
  7
STANDARD
  9
$DIMAUNIT
 70
     0
  9
$DIMADEC
 70
     0
  9
$DIMALTRND
 40
0.0
  9
$DIMAZIN
 70
     2
  9
$DIMDSEP
 70
    46
  9
$DIMATFIT
 70
     3
  9
$DIMFRAC
 70
     0
  9
$DIMLDRBLK
  1

  9
$DIMLUNIT
 70
     2
  9
$DIMLWD
 70
    -1
  9
$DIMLWE
 70
    -1
  9
$DIMTMOVE
 70
     0
  9
$LUNITS
 70
     2
  9
$LUPREC
 70
     2
  9
$SKETCHINC
 40
1.0
  9
$FILLETRAD
 40
2.5
  9
$AUNITS
 70
     0
  9
$AUPREC
 70
     0
  9
$MENU
  1
.
  9
$ELEVATION
 40
0.0
  9
$PELEVATION
 40
0.0
  9
$THICKNESS
 40
0.0
  9
$LIMCHECK
 70
     0
  9
$CHAMFERA
 40
2.5
  9
$CHAMFERB
 40
2.5
  9
$CHAMFERC
 40
20.0
  9
$CHAMFERD
 40
0.0
  9
$SKPOLY
 70
     0
  9
$TDCREATE
 40
2453883.409425996
  9
$TDUCREATE
 40
2453883.076092662
  9
$TDUPDATE
 40
2453883.411087593
  9
$TDUUPDATE
 40
2453883.077754259
  9
$TDINDWG
 40
0.0016626852
  9
$TDUSRTIMER
 40
0.0016626852
  9
$USRTIMER
 70
     1
  9
$ANGBASE
 50
0.0
  9
$ANGDIR
 70
     0
  9
$PDMODE
 70
     0
  9
$PDSIZE
 40
0.0
  9
$PLINEWID
 40
0.0
  9
$SPLFRAME
 70
     0
  9
$SPLINETYPE
 70
     6
  9
$SPLINESEGS
 70
     8
  9
$HANDSEED
  5
832
  9
$SURFTAB1
 70
     6
  9
$SURFTAB2
 70
     6
  9
$SURFTYPE
 70
     6
  9
$SURFU
 70
     6
  9
$SURFV
 70
     6
  9
$UCSBASE
  2

  9
$UCSNAME
  2

  9
$UCSORG
 10
0.0
 20
0.0
 30
0.0
  9
$UCSXDIR
 10
1.0
 20
0.0
 30
0.0
  9
$UCSYDIR
 10
0.0
 20
1.0
 30
0.0
  9
$UCSORTHOREF
  2

  9
$UCSORTHOVIEW
 70
     0
  9
$UCSORGTOP
 10
0.0
 20
0.0
 30
0.0
  9
$UCSORGBOTTOM
 10
0.0
 20
0.0
 30
0.0
  9
$UCSORGLEFT
 10
0.0
 20
0.0
 30
0.0
  9
$UCSORGRIGHT
 10
0.0
 20
0.0
 30
0.0
  9
$UCSORGFRONT
 10
0.0
 20
0.0
 30
0.0
  9
$UCSORGBACK
 10
0.0
 20
0.0
 30
0.0
  9
$PUCSBASE
  2

  9
$PUCSNAME
  2

  9
$PUCSORG
 10
0.0
 20
0.0
 30
0.0
  9
$PUCSXDIR
 10
1.0
 20
0.0
 30
0.0
  9
$PUCSYDIR
 10
0.0
 20
1.0
 30
0.0
  9
$PUCSORTHOREF
  2

  9
$PUCSORTHOVIEW
 70
     0
  9
$PUCSORGTOP
 10
0.0
 20
0.0
 30
0.0
  9
$PUCSORGBOTTOM
 10
0.0
 20
0.0
 30
0.0
  9
$PUCSORGLEFT
 10
0.0
 20
0.0
 30
0.0
  9
$PUCSORGRIGHT
 10
0.0
 20
0.0
 30
0.0
  9
$PUCSORGFRONT
 10
0.0
 20
0.0
 30
0.0
  9
$PUCSORGBACK
 10
0.0
 20
0.0
 30
0.0
  9
$USERI1
 70
     0
  9
$USERI2
 70
     0
  9
$USERI3
 70
     0
  9
$USERI4
 70
     0
  9
$USERI5
 70
     0
  9
$USERR1
 40
0.0
  9
$USERR2
 40
0.0
  9
$USERR3
 40
0.0
  9
$USERR4
 40
0.0
  9
$USERR5
 40
0.0
  9
$WORLDVIEW
 70
     1
  9
$SHADEDGE
 70
     3
  9
$SHADEDIF
 70
    70
  9
$TILEMODE
 70
     1
  9
$MAXACTVP
 70
    64
  9
$PINSBASE
 10
0.0
 20
0.0
 30
0.0
  9
$PLIMCHECK
 70
     0
  9
$PEXTMIN
 10
1.000000000000000E+20
 20
1.000000000000000E+20
 30
1.000000000000000E+20
  9
$PEXTMAX
 10
-1.000000000000000E+20
 20
-1.000000000000000E+20
 30
-1.000000000000000E+20
  9
$PLIMMIN
 10
0.0
 20
0.0
  9
$PLIMMAX
 10
420.0
 20
297.0
  9
$UNITMODE
 70
     0
  9
$VISRETAIN
 70
     1
  9
$PLINEGEN
 70
     0
  9
$PSLTSCALE
 70
     1
  9
$TREEDEPTH
 70
  3020
  9
$CMLSTYLE
  2
Standard
  9
$CMLJUST
 70
     0
  9
$CMLSCALE
 40
20.0
  9
$PROXYGRAPHICS
 70
     1
  9
$MEASUREMENT
 70
     1
  9
$CELWEIGHT
370
    -1
  9
$ENDCAPS
280
     0
  9
$JOINSTYLE
280
     0
  9
$LWDISPLAY
290
     0
  9
$INSUNITS
 70
     4
  9
$HYPERLINKBASE
  1

  9
$STYLESHEET
  1
彩色出圖.ctb
  9
$XEDIT
290
     1
  9
$CEPSNTYPE
380
     0
  9
$PSTYLEMODE
290
     1
  9
$FINGERPRINTGUID
  2
{BF13C663-9BEF-4DC0-B4DF-BD00578FBC1A}
  9
$VERSIONGUID
  2
{284B4D40-7F2E-41CA-9805-00836EAEE328}
  9
$EXTNAMES
290
     1
  9
$PSVPSCALE
 40
0.0
  9
$OLESTARTUP
290
     0
  0
ENDSEC
  0
SECTION
  2
CLASSES
  0
CLASS
  1
ACDBDICTIONARYWDFLT
  2
AcDbDictionaryWithDefault
  3
ObjectDBX Classes
 90
        0
280
     0
281
     0
  0
CLASS
  1
ACDBPLACEHOLDER
  2
AcDbPlaceHolder
  3
ObjectDBX Classes
 90
        0
280
     0
281
     0
  0
CLASS
  1
LAYOUT
  2
AcDbLayout
  3
ObjectDBX Classes
 90
        0
280
     0
281
     0
  0
CLASS
  1
ACME_DOCUMENT
  2
AcMeDbDoc
  3
AcMeServices
 90
        0
280
     0
281
     0
  0
CLASS
  1
AMGSETTINGSOBJ
  2
AmgSettingsObj
  3
"AcadM|Product Description: AutoCAD Mechanical 2000|Company: Autodesk"
 90
        0
280
     0
281
     0
  0
CLASS
  1
ACMESCOPE
  2
AcMeScope
  3
AcMeServices
 90
        0
280
     0
281
     0
  0
CLASS
  1
ACMECOMMANDHISTORY
  2
AcMeCommandHistory
  3
AcMeServices
 90
        0
280
     0
281
     0
  0
CLASS
  1
ACIMSYSVARMAN
  2
AcImSysVarManager
  3
AcMeServices
 90
        0
280
     0
281
     0
  0
CLASS
  1
ACIMREALSYSVAR
  2
AcImRealSysVar
  3
AcMeServices
 90
        0
280
     0
281
     0
  0
CLASS
  1
ACIMINTSYSVAR
  2
AcImIntSysVar
  3
AcMeServices
 90
        0
280
     0
281
     0
  0
CLASS
  1
ACMEDRAWINGMAN
  2
AcMeDrawingMan
  3
AcMeServices
 90
        0
280
     0
281
     0
  0
CLASS
  1
ACMEVIEW
  2
AcMeView
  3
AcMeServices
 90
        0
280
     0
281
     0
  0
CLASS
  1
ACDBENTITYCACHE
  2
AcMeEntityCache
  3
AcMeServices
 90
        0
280
     0
281
     0
  0
CLASS
  1
GSMANAGER
  2
AcMeGSManager
  3
AcMeServices
 90
        0
280
     0
281
     0
  0
CLASS
  1
AMDTINTERNALREACTOR
  2
AmdtInternalReactor
  3
AcMeServices
 90
        0
280
     0
281
     0
  0
CLASS
  1
ACMESTATEMGR
  2
AcMeStateMgr
  3
AcMeServices
 90
        0
280
     0
281
     0
  0
CLASS
  1
ACGREFMASTER
  2
AcGrefMaster
  3
AcAttribServices
 90
        0
280
     0
281
     0
  0
CLASS
  1
ACME_DATABASE
  2
AcMeDbDatabase
  3
AcMeServices
 90
        0
280
     0
281
     0
  0
CLASS
  1
ACRFINSADJUSTERMGR
  2
AcRfInsAdjusterMgr
  3
AcMeServices
 90
        0
280
     0
281
     0
  0
CLASS
  1
ACGREFACADMASTER
  2
AcGrefacadMaster
  3
AcGrefServices
 90
        0
280
     0
281
     0
  0
CLASS
  1
AMIMASTER
  2
AmiMaster
  3
AmiServices
 90
        0
280
     0
281
     0
  0
CLASS
  1
ACMDATADICTIONARY
  2
AcmDataDictionary
  3
"AcmSymBB|Product Description: AutoCAD Mechanical 2004 DX|Company: Autodesk"
 90
        0
280
     0
281
     0
  0
CLASS
  1
ACMDATAENTRYBLOCK
  2
AcmDataEntryBlock
  3
"AcmSymBB|Product Description: AutoCAD Mechanical 2004 DX|Company: Autodesk"
 90
        0
280
     0
281
     0
  0
CLASS
  1
ACIMSTRSYSVAR
  2
AcImStrSysVar
  3
AcMeServices
 90
        0
280
     0
281
     0
  0
CLASS
  1
ACMSTANDARDISO
  2
AcmStandardISO
  3
"Amdt_StdImp|Product Description: AutoCAD Mechanical 2004 DX|Company: Autodesk"
 90
        0
280
     0
281
     0
  0
CLASS
  1
AMGOBJPROPCFG
  2
AmgObjPropCfg
  3
"AmgLay|Product Description: AutoCAD Mechanical 2000|Company: Autodesk"
 90
        1
280
     0
281
     0
  0
CLASS
  1
AMDTEDGESTANDARDISO
  2
AmdtEdgeStdISO
  3
"Amdt_StdImp|Product Description: AutoCAD Mechanical 2004 DX|Company: Autodesk"
 90
        0
280
     0
281
     0
  0
CLASS
  1
ACMSURFSTANDARDISO
  2
AcmSurfTextStdISO
  3
"Amdt_StdImp|Product Description: AutoCAD Mechanical 2004 DX|Company: Autodesk"
 90
        0
280
     0
281
     0
  0
CLASS
  1
ACMFCFSTANDARDISO
  2
AcmFCFStdISO
  3
"Amdt_StdImp|Product Description: AutoCAD Mechanical 2004 DX|Company: Autodesk"
 90
        0
280
     0
281
     0
  0
CLASS
  1
ACMWELDSTANDARDISO
  2
AcmWeldingStdISO
  3
"Amdt_StdImp|Product Description: AutoCAD Mechanical 2004 DX|Company: Autodesk"
 90
        0
280
     0
281
     0
  0
CLASS
  1
ACMIDSTANDARDISO
  2
AcmIdStdISO
  3
"Amdt_StdImp|Product Description: AutoCAD Mechanical 2004 DX|Company: Autodesk"
 90
        0
280
     0
281
     0
  0
CLASS
  1
ACMDATUMSTANDARDISO
  2
AcmDatumStdISO
  3
"Amdt_StdImp|Product Description: AutoCAD Mechanical 2004 DX|Company: Autodesk"
 90
        0
280
     0
281
     0
  0
CLASS
  1
ACMBOMSTANDARDISO
  2
AcmBOMStdISO
  3
"Amdt_StdImp|Product Description: AutoCAD Mechanical 2004 DX|Company: Autodesk"
 90
        0
280
     0
281
     0
  0
CLASS
  1
ACMDETAILSTANDARDISO
  2
AmdtDetailSymStdISO
  3
"Amdt_StdImp|Product Description: AutoCAD Mechanical 2004 DX|Company: Autodesk"
 90
        0
280
     0
281
     0
  0
CLASS
  1
ACMSECTIONSTANDARDISO
  2
AmdtSectionSymStdISO
  3
"Amdt_StdImp|Product Description: AutoCAD Mechanical 2004 DX|Company: Autodesk"
 90
        0
280
     0
281
     0
  0
CLASS
  1
ACMCENTERLINESTANDARDISO
  2
AmdtCenterLineStdISO
  3
"Amdt_StdImp|Product Description: AutoCAD Mechanical 2004 DX|Company: Autodesk"
 90
        0
280
     0
281
     0
  0
CLASS
  1
ACMNOTESTANDARDISO
  2
AmdtNoteStdISO
  3
"Amdt_StdImp|Product Description: AutoCAD Mechanical 2004 DX|Company: Autodesk"
 90
        0
280
     0
281
     0
  0
CLASS
  1
ACAMGLAYSTD
  2
AcAmgLayStd
  3
"AcAmgLayStd|Product Description: AutoCAD Mechanical 2000|Company: Autodesk"
 90
        0
280
     0
281
     0
  0
CLASS
  1
ACAMGDIMSTD
  2
AcAmgDimStd
  3
"AcAmgDimStd|Product Description: AutoCAD Mechanical 2000|Company: Autodesk"
 90
        0
280
     0
281
     0
  0
CLASS
  1
ACAMGHOLECHARTSTDISO
  2
AcAmgHoleChartStdISO
  3
ACMSYMBB_MODULE_NAME
 90
        0
280
     0
281
     0
  0
CLASS
  1
ACAMGTITLESTD
  2
AcAmgTitleStd
  3
"TITLEAPP"
 90
        0
280
     0
281
     0
  0
CLASS
  1
LAYER_INDEX
  2
AcDbLayerIndex
  3
ObjectDBX Classes
 90
    32768
280
     0
281
     0
  0
CLASS
  1
IDBUFFER
  2
AcDbIdBuffer
  3
ObjectDBX Classes
 90
    32768
280
     0
281
     0
  0
CLASS
  1
DICTIONARYVAR
  2
AcDbDictionaryVar
  3
ObjectDBX Classes
 90
        0
280
     0
281
     0
  0
CLASS
  1
AM_DRAWING_MGR
  2
AcDmDwgMgr
  3
AcMechDwgViewMgmt
 90
        0
280
     0
281
     0
  0
CLASS
  1
AM_DWG_DOCUMENT
  2
AcDmDwgDocument
  3
AcMechDwgViewMgmt
 90
        0
280
     0
281
     0
  0
CLASS
  1
AM_DWG_SHEET
  2
AcDmSheet
  3
AcMechDwgViewMgmt
 90
        0
280
     0
281
     0
  0
CLASS
  1
AM_VIEWDIMPARMAP
  2
AcDmViewDimParMap
  3
AcMechDwgViewMgmt
 90
        0
280
     0
281
     0
  0
CLASS
  1
AM_DWGMGR_NAME
  2
AcDmDwgMgrName
  3
AcMechDwgViewMgmt
 90
        0
280
     0
281
     0
  0
CLASS
  1
AMDTMENUSTATEMGR
  2
AmdtMenuStateMgr
  3
McadcomServices
 90
        0
280
     0
281
     0
  0
CLASS
  1
AMDTMCOMMENUSTATE
  2
AmdtMcomMenuState
  3
McadcomServices
 90
        0
280
     0
281
     0
  0
CLASS
  1
MAPIAMMOUDLE
  2
MApiAmModule
  3
MApiAmServices
 90
        0
280
     0
281
     0
  0
CLASS
  1
AMDTADMENUSTATE
  2
AmdtAdMenuState
  3
DesignerServices
 90
        0
280
     0
281
     0
  0
CLASS
  1
ADAPPL
  2
AcAdAppl
  3
DesignerServices
 90
        0
280
     0
281
     0
  0
CLASS
  1
DEPMGR
  2
AcAdDepMgr
  3
DesignerServices
 90
        0
280
     0
281
     0
  0
CLASS
  1
PARAMMGR
  2
AcAdParamMgr
  3
DesignerServices
 90
        0
280
     0
281
     0
  0
CLASS
  1
PARAMSCOPE
  2
AcAdParamScope
  3
DesignerServices
 90
        0
280
     0
281
     0
  0
CLASS
  1
NAMEDAPPL
  2
AcAdNamedAppl
  3
DesignerServices
 90
        0
280
     0
281
     0
  0
CLASS
  1
AMDTDMMENUSTATE
  2
AmdtDmMenuState
  3
AcMechDwgViewMgmt
 90
        0
280
     0
281
     0
  0
CLASS
  1
AMDTAMMENUSTATE
  2
AmdtAmMenuState
  3
DesignerAssemblies
 90
        0
280
     0
281
     0
  0
CLASS
  1
ACAMPROJECT
  2
AcAmProject
  3
DesignerAssemblies
 90
        0
280
     0
281
     0
  0
CLASS
  1
ACAMGRCOMPDEF
  2
AcAmGrCompDef
  3
DesignerAssemblies
 90
        0
280
     0
281
     0
  0
CLASS
  1
ACCMCONTEXT
  2
AcCmContext
  3
DesignerAssemblies
 90
        0
280
     0
281
     0
  0
CLASS
  1
ACAMCOMPDEF
  2
AcAmCompDef
  3
DesignerAssemblies
 90
        0
280
     0
281
     0
  0
CLASS
  1
ACAMCOMPDEFMGR
  2
AcAmCompDefMgr
  3
DesignerAssemblies
 90
        0
280
     0
281
     0
  0
CLASS
  1
AMCONTEXTMGR
  2
AcAmContextMgr
  3
DesignerAssemblies
 90
        0
280
     0
281
     0
  0
CLASS
  1
ACAMCONTEXTMODELER
  2
AcAmContextModeler
  3
DesignerAssemblies
 90
        0
280
     0
281
     0
  0
CLASS
  1
ACMTHREADLINESTANDARDISO
  2
AmdtThreadLineStdISO
  3
"Amdt_StdImp|Product Description: AutoCAD Mechanical 2004 DX|Company: Autodesk"
 90
        0
280
     0
281
     0
  0
CLASS
  1
CATALOGSTATE
  2
AcAmCatalogState
  3
DesignerAssemblies
 90
        0
280
     0
281
     0
  0
CLASS
  1
ACAMGRCOMPDEFSET
  2
AcAmGrCompDefSet
  3
DesignerAssemblies
 90
        0
280
     0
281
     0
  0
CLASS
  1
AMDTBROWSERDBTAB
  2
AmdtBrowserDbTab
  3
McadcomServices
 90
        0
280
     0
281
     0
  0
CLASS
  1
CBROWSERAPPOBJECT
  2
CBrowserAppObject
  3
McadcomServices
 90
        0
280
     0
281
     0
  0
CLASS
  1
DM_PLACEHOLDER
  2
AcDmSelsetPlaceholder
  3
AcMechDwgViewMgmt
 90
        0
280
     0
281
     0
  0
CLASS
  1
TABLESTYLE
  2
AcDbTableStyle
  3
ObjectDBX Classes
 90
     2047
280
     0
281
     0
  0
CLASS
  1
VAACXREFPANELOBJECT
  2
VaAcXREFPanelObject
  3
VAAC_ADDIN
 90
        0
280
     0
281
     0
  0
CLASS
  1
VAACIMAGEINVENTORY
  2
VaAcImageInventory
  3
VAAC_ADDIN
 90
        0
280
     0
281
     0
  0
CLASS
  1
AMDTNOTETEMPLATEDB
  2
AmdtNoteTemplateDB
  3
AMDT_STDIMP_MODULE_NAME
 90
        0
280
     0
281
     0
  0
CLASS
  1
ACMBOM
  2
AcmBom
  3
"AcmSymBB|Product Description: AutoCAD Mechanical 2004 DX|Company: Autodesk"
 90
    32768
280
     0
281
     0
  0
CLASS
  1
AMDTFORMULAUPDATEDISPATCHER
  2
AmdtFormulaUpdateDispatcher
  3
AcMeServices
 90
    32768
280
     0
281
     0
  0
CLASS
  1
ACMPARTLIST
  2
AcmPartList
  3
"AcmSymBB|Product Description: AutoCAD Mechanical 2004 DX|Company: Autodesk"
 90
    33791
280
     0
281
     1
  0
CLASS
  1
ACAMGFILTERDAT
  2
AcAmgFilterDat
  3
"AcadM|Product Description: AutoCAD Mechanical 2000|Company: Autodesk"
 90
        0
280
     0
281
     0
  0
CLASS
  1
DIMASSOC
  2
AcDbDimAssoc
  3
"AcDbDimAssoc|Product Desc:     AcDim ARX App For Dimension|Company:          Autodesk, Inc.|WEB Address:      www.autodesk.com"
 90
    32768
280
     0
281
     0
  0
CLASS
  1
SORTENTSTABLE
  2
AcDbSortentsTable
  3
ObjectDBX Classes
 90
        0
280
     0
281
     0
  0
CLASS
  1
ACMSTANDARDJIS
  2
AcmStandardJIS
  3
"Amdt_StdImp|Product Description: AutoCAD Mechanical 2004 DX|Company: Autodesk"
 90
        0
280
     0
281
     0
  0
CLASS
  1
ACMSURFSTANDARDJIS
  2
AcmSurfTextStdJIS
  3
"Amdt_StdImp|Product Description: AutoCAD Mechanical 2004 DX|Company: Autodesk"
 90
        0
280
     0
281
     0
  0
CLASS
  1
ACMFCFSTANDARDJIS
  2
AcmFCFStdJIS
  3
"Amdt_StdImp|Product Description: AutoCAD Mechanical 2004 DX|Company: Autodesk"
 90
        0
280
     0
281
     0
  0
CLASS
  1
ACMWELDSTANDARDJIS
  2
AcmWeldingStdJIS
  3
"Amdt_StdImp|Product Description: AutoCAD Mechanical 2004 DX|Company: Autodesk"
 90
        0
280
     0
281
     0
  0
CLASS
  1
ACMIDSTANDARDJIS
  2
AcmIdStdJIS
  3
"Amdt_StdImp|Product Description: AutoCAD Mechanical 2004 DX|Company: Autodesk"
 90
        0
280
     0
281
     0
  0
CLASS
  1
ACMDATUMSTANDARDJIS
  2
AcmDatumStdJIS
  3
"Amdt_StdImp|Product Description: AutoCAD Mechanical 2004 DX|Company: Autodesk"
 90
        0
280
     0
281
     0
  0
CLASS
  1
ACMBOMSTANDARDJIS
  2
AcmBOMStdJIS
  3
"Amdt_StdImp|Product Description: AutoCAD Mechanical 2004 DX|Company: Autodesk"
 90
        0
280
     0
281
     0
  0
CLASS
  1
ACMDETAILSTANDARDJIS
  2
AmdtDetailSymStdJIS
  3
"Amdt_StdImp|Product Description: AutoCAD Mechanical 2004 DX|Company: Autodesk"
 90
        0
280
     0
281
     0
  0
CLASS
  1
ACMSECTIONSTANDARDJIS
  2
AmdtSectionSymStdJIS
  3
"Amdt_StdImp|Product Description: AutoCAD Mechanical 2004 DX|Company: Autodesk"
 90
        0
280
     0
281
     0
  0
CLASS
  1
ACMCENTERLINESTANDARDJIS
  2
AmdtCenterLineStdJIS
  3
"Amdt_StdImp|Product Description: AutoCAD Mechanical 2004 DX|Company: Autodesk"
 90
        0
280
     0
281
     0
  0
CLASS
  1
ACMTHREADLINESTANDARDJIS
  2
AmdtThreadLineStdJIS
  3
"Amdt_StdImp|Product Description: AutoCAD Mechanical 2004 DX|Company: Autodesk"
 90
        0
280
     0
281
     0
  0
CLASS
  1
ACMNOTESTANDARDJIS
  2
AmdtNoteStdJIS
  3
"Amdt_StdImp|Product Description: AutoCAD Mechanical 2004 DX|Company: Autodesk"
 90
        0
280
     0
281
     0
  0
CLASS
  1
ACAMGHOLECHARTSTDJIS
  2
AcAmgHoleChartStdJIS
  3
ACMSYMBB_MODULE_NAME
 90
        0
280
     0
281
     0
  0
CLASS
  1
ACRFATTGENMGR
  2
AcRfAttGeneralMgr
  3
AcAttribServices
 90
        0
280
     0
281
     0
  0
ENDSEC
  0
SECTION
  2
TABLES
  0
TABLE
  2
VPORT
  5
8
330
0
100
AcDbSymbolTable
 70
     4
  0
VPORT
  5
829
330
8
100
AcDbSymbolTableRecord
100
AcDbViewportTableRecord
  2
*Active
 70
     0
 10
0.0
 20
0.0
 11
1.0
 21
1.0
 12
265.6709132981294
 22
244.0719680663115
 13
0.0
 23
0.0
 14
2.5
 24
2.5
 15
10.0
 25
10.0
 16
0.0
 26
0.0
 36
1.0
 17
0.0
 27
0.0
 37
0.0
 40
292.6027812895067
 41
1.218987341772151
 42
50.0
 43
0.0
 44
0.0
 50
0.0
 51
0.0
 71
     0
 72
   100
 73
     1
 74
     3
 75
     0
 76
     0
 77
     0
 78
     0
281
     0
 65
     1
110
0.0
120
0.0
130
0.0
111
1.0
121
0.0
131
0.0
112
0.0
122
1.0
132
0.0
 79
     0
146
0.0
  0
ENDTAB
  0
TABLE
  2
LTYPE
  5
5
330
0
100
AcDbSymbolTable
 70
    16
  0
LTYPE
  5
14
330
5
100
AcDbSymbolTableRecord
100
AcDbLinetypeTableRecord
  2
ByBlock
 70
     0
  3

 72
    65
 73
     0
 40
0.0
  0
LTYPE
  5
15
330
5
100
AcDbSymbolTableRecord
100
AcDbLinetypeTableRecord
  2
ByLayer
 70
     0
  3

 72
    65
 73
     0
 40
0.0
  0
LTYPE
  5
16
330
5
100
AcDbSymbolTableRecord
100
AcDbLinetypeTableRecord
  2
Continuous
 70
     0
  3
Solid line
 72
    65
 73
     0
 40
0.0
  0
LTYPE
  5
64
330
5
100
AcDbSymbolTableRecord
100
AcDbLinetypeTableRecord
  2
AM_ISO02W050
 70
     0
  3
__ __ __ __ __ __ __ __ __ __ __ __ __ __ __
 72
    65
 73
     2
 40
7.5
 49
6.0
 74
     0
 49
-1.5
 74
     0
  0
LTYPE
  5
65
330
5
100
AcDbSymbolTableRecord
100
AcDbLinetypeTableRecord
  2
AM_ISO08W050
 70
     0
  3
____ . ____ . ____ . ____ . ____ . ____ . ____
 72
    65
 73
     4
 40
18.0
 49
12.0
 74
     0
 49
-1.5
 74
     0
 49
3.0
 74
     0
 49
-1.5
 74
     0
  0
LTYPE
  5
66
330
5
100
AcDbSymbolTableRecord
100
AcDbLinetypeTableRecord
  2
AM_ISO09W050
 70
     0
  3
_____ . . _____ . . _____ . . ____ .. ____
 72
    65
 73
     6
 40
22.5
 49
12.0
 74
     0
 49
-1.5
 74
     0
 49
3.0
 74
     0
 49
-1.5
 74
     0
 49
3.0
 74
     0
 49
-1.5
 74
     0
  0
LTYPE
  5
67
330
5
100
AcDbSymbolTableRecord
100
AcDbLinetypeTableRecord
  2
Amconstr
 70
     0
  3
_______________________
 72
    65
 73
     2
 40
9999.0
 49
9999.0
 74
     0
 49
0.0
 74
     0
  0
LTYPE
  5
68
330
5
100
AcDbSymbolTableRecord
100
AcDbLinetypeTableRecord
  2
AM_ISO08W050x2
 70
     0
  3
__ . __ . __ . __ . __ . __
 72
    65
 73
     4
 40
9.0
 49
6.0
 74
     0
 49
-0.75
 74
     0
 49
1.5
 74
     0
 49
-0.75
 74
     0
  0
LTYPE
  5
69
330
5
100
AcDbSymbolTableRecord
100
AcDbLinetypeTableRecord
  2
AM_ISO02W050x2
 70
     0
  3
 _ _ _ _ _ _ _ _ _ _ _ _
 72
    65
 73
     2
 40
3.75
 49
3.0
 74
     0
 49
-0.75
 74
     0
  0
LTYPE
  5
6C
330
5
100
AcDbSymbolTableRecord
100
AcDbLinetypeTableRecord
  2
Amzigzag
 70
     0
  3
/\/-/\/-/\/-/\/-/\/-/\/
 72
    65
 73
     2
 40
11.0001
 49
0.0001
 74
     4
 75
   135
340
6B
 46
0.04
 50
0.0
 44
0.0
 45
0.0
 49
-11.0
 74
     0
  0
LTYPE
  5
7A
330
5
100
AcDbSymbolTableRecord
100
AcDbLinetypeTableRecord
  2
ACISOWELD
 70
     0
  3
_ _ _ _ _
 72
    65
 73
     2
 40
2.0
 49
2.0
 74
     0
 49
-1.0
 74
     0
  0
LTYPE
  5
7B
330
5
100
AcDbSymbolTableRecord
100
AcDbLinetypeTableRecord
  2
ACISOTGB
 70
     0
  3
__ . . __ . .
 72
    65
 73
     6
 40
9.0
 49
4.0
 74
     0
 49
-1.0
 74
     0
 49
1.0
 74
     0
 49
-1.0
 74
     0
 49
1.0
 74
     0
 49
-1.0
 74
     0
  0
LTYPE
  5
7C
330
5
100
AcDbSymbolTableRecord
100
AcDbLinetypeTableRecord
  2
ACISOTGL
 70
     0
  3
_ _ _ _ _
 72
    65
 73
     2
 40
3.0
 49
2.0
 74
     0
 49
-1.0
 74
     0
  0
LTYPE
  5
7E
330
5
100
AcDbSymbolTableRecord
100
AcDbLinetypeTableRecord
  2
CENTER
 70
     0
  3
__ . __
 72
    65
 73
     4
 40
7.0
 49
4.0
 74
     0
 49
-1.0
 74
     0
 49
1.0
 74
     0
 49
-1.0
 74
     0
  0
LTYPE
  5
D8
330
5
100
AcDbSymbolTableRecord
100
AcDbLinetypeTableRecord
  2
HIDDEN
 70
     0
  3
Hidden __ __ __ __ __ __ __ __ __ __ __ __ __ _
 72
    65
 73
     2
 40
9.524999999999998
 49
6.349999999999999
 74
     0
 49
-3.174999999999999
 74
     0
  0
LTYPE
  5
D9
330
5
100
AcDbSymbolTableRecord
100
AcDbLinetypeTableRecord
  2
PHANTOM2
 70
     0
  3
Phantom (.5x) ___ _ _ ___ _ _ ___ _ _ ___ _ _
 72
    65
 73
     6
 40
31.75
 49
15.875
 74
     0
 49
-3.174999999999999
 74
     0
 49
3.174999999999999
 74
     0
 49
-3.174999999999999
 74
     0
 49
3.174999999999999
 74
     0
 49
-3.174999999999999
 74
     0
  0
LTYPE
  5
3A5
330
5
100
AcDbSymbolTableRecord
100
AcDbLinetypeTableRecord
  2
ACJISTGB
 70
     0
  3
__ . . __ . .
 72
    65
 73
     6
 40
9.0
 49
4.0
 74
     0
 49
-1.0
 74
     0
 49
1.0
 74
     0
 49
-1.0
 74
     0
 49
1.0
 74
     0
 49
-1.0
 74
     0
  0
LTYPE
  5
3A6
330
5
100
AcDbSymbolTableRecord
100
AcDbLinetypeTableRecord
  2
ACJISTGL
 70
     0
  3
_ _ _ _ _
 72
    65
 73
     2
 40
3.0
 49
2.0
 74
     0
 49
-1.0
 74
     0
  0
ENDTAB
  0
TABLE
  2
LAYER
  5
2
102
{ACAD_XDICTIONARY
360
3BB
102
}
330
0
100
AcDbSymbolTable
 70
     6
  0
LAYER
  5
10
330
2
100
AcDbSymbolTableRecord
100
AcDbLayerTableRecord
  2
0
 70
     0
 62
     7
  6
Continuous
370
    -3
390
F
  0
LAYER
  5
3A7
330
2
100
AcDbSymbolTableRecord
100
AcDbLayerTableRecord
  2
Defpoints
 70
     0
 62
     7
  6
Continuous
290
     0
370
    -3
390
F
  0
LAYER
  5
3A8
330
2
100
AcDbSymbolTableRecord
100
AcDbLayerTableRecord
  2
AM_VIS
 70
     2
 62
     7
  6
Continuous
370
    50
390
F
  0
LAYER
  5
3A9
330
2
100
AcDbSymbolTableRecord
100
AcDbLayerTableRecord
  2
AM_7
 70
     0
 62
     1
  6
AM_ISO08W050
370
    25
390
F
  0
LAYER
  5
3AA
330
2
100
AcDbSymbolTableRecord
100
AcDbLayerTableRecord
  2
AM_6
 70
     0
 62
     2
  6
Continuous
370
    35
390
F
  0
LAYER
  5
3AB
330
2
100
AcDbSymbolTableRecord
100
AcDbLayerTableRecord
  2
LOGO
 70
     0
 62
     7
  6
Continuous
370
    -3
390
F
  0
ENDTAB
  0
TABLE
  2
STYLE
  5
3
330
0
100
AcDbSymbolTable
 70
     8
  0
STYLE
  5
11
330
3
100
AcDbSymbolTableRecord
100
AcDbTextStyleTableRecord
  2
STANDARD
 70
     0
 40
0.0
 41
1.0
 50
0.0
 71
     0
 42
3.0
  3
ISOCP.SHX
  4
CHINESET.SHX
  0
STYLE
  5
6B
330
3
100
AcDbSymbolTableRecord
100
AcDbTextStyleTableRecord
  2

 70
     1
 40
0.0
 41
1.0
 50
0.0
 71
     0
 42
2.5
  3
ltypeshp.shx
  4

  0
STYLE
  5
6D
330
3
100
AcDbSymbolTableRecord
100
AcDbTextStyleTableRecord
  2
ACISOTS
 70
     0
 40
1.0
 41
1.0
 50
0.0
 71
     0
 42
1.0
  3
isocp.shx
  4
chineset.shx
  0
STYLE
  5
79
330
3
100
AcDbSymbolTableRecord
100
AcDbTextStyleTableRecord
  2
ACISOGDT
 70
     0
 40
0.0
 41
1.0
 50
0.0
 71
     0
 42
2.5
  3
amgdt.shx
  4
chineset.shx
  0
STYLE
  5
3AC
330
3
100
AcDbSymbolTableRecord
100
AcDbTextStyleTableRecord
  2
CHINESET
 70
     0
 40
0.0
 41
1.0
 50
0.0
 71
     0
 42
2.5
  3
simplex.shx
  4
CHINESET.shx
  0
STYLE
  5
3AD
330
3
100
AcDbSymbolTableRecord
100
AcDbTextStyleTableRecord
  2
ACJISTS
 70
     0
 40
1.0
 41
1.0
 50
0.0
 71
     0
 42
2.5
  3
isocp.shx
  4
chineset.shx
  0
STYLE
  5
3AE
330
3
100
AcDbSymbolTableRecord
100
AcDbTextStyleTableRecord
  2
ACJISGDT
 70
     0
 40
0.0
 41
1.0
 50
0.0
 71
     0
 42
2.5
  3
amgdt.shx
  4

  0
ENDTAB
  0
TABLE
  2
VIEW
  5
6
330
0
100
AcDbSymbolTable
 70
     0
  0
ENDTAB
  0
TABLE
  2
UCS
  5
7
330
0
100
AcDbSymbolTable
 70
     0
  0
ENDTAB
  0
TABLE
  2
APPID
  5
9
330
0
100
AcDbSymbolTable
 70
    18
  0
APPID
  5
12
330
9
100
AcDbSymbolTableRecord
100
AcDbRegAppTableRecord
  2
ACAD
 70
     0
  0
APPID
  5
46
330
9
100
AcDbSymbolTableRecord
100
AcDbRegAppTableRecord
  2
MCAD_NO_VIS
 70
     0
  0
APPID
  5
47
330
9
100
AcDbSymbolTableRecord
100
AcDbRegAppTableRecord
  2
ACAD_TEMP_GRAPHIC
 70
     0
  0
APPID
  5
58
330
9
100
AcDbSymbolTableRecord
100
AcDbRegAppTableRecord
  2
ACATTRIBSERVICES
 70
     0
  0
APPID
  5
EE
330
9
100
AcDbSymbolTableRecord
100
AcDbRegAppTableRecord
  2
AD_DRAW
 70
     0
  0
APPID
  5
10C
330
9
100
AcDbSymbolTableRecord
100
AcDbRegAppTableRecord
  2
DESIGNERASSEMBLIES
 70
     0
  0
APPID
  5
111
330
9
100
AcDbSymbolTableRecord
100
AcDbRegAppTableRecord
  2
ACADM_DIM_EDIT
 70
     0
  0
APPID
  5
112
330
9
100
AcDbSymbolTableRecord
100
AcDbRegAppTableRecord
  2
AMDT_DM_ADJ
 70
     0
  0
APPID
  5
1FE
330
9
100
AcDbSymbolTableRecord
100
AcDbRegAppTableRecord
  2
ACAD_DSTYLE_DIMTEXT_FILL
 70
     0
  0
APPID
  5
2B5
330
9
100
AcDbSymbolTableRecord
100
AcDbRegAppTableRecord
  2
GENIUS_GENOLIS_13
 70
     0
  0
APPID
  5
2B6
330
9
100
AcDbSymbolTableRecord
100
AcDbRegAppTableRecord
  2
GENIUS_GENOENT_13
 70
     0
  0
APPID
  5
2B7
330
9
100
AcDbSymbolTableRecord
100
AcDbRegAppTableRecord
  2
GENIUS_GENOBJ-N-CRS_13
 70
     0
  0
APPID
  5
2B8
330
9
100
AcDbSymbolTableRecord
100
AcDbRegAppTableRecord
  2
GENIUS_GENODEF_13
 70
     0
  0
APPID
  5
2B9
330
9
100
AcDbSymbolTableRecord
100
AcDbRegAppTableRecord
  2
GENIUS_GENOREF_13
 70
     0
  0
APPID
  5
3B7
330
9
100
AcDbSymbolTableRecord
100
AcDbRegAppTableRecord
  2
ACAD_PSEXT
 70
     0
  0
APPID
  5
3B8
330
9
100
AcDbSymbolTableRecord
100
AcDbRegAppTableRecord
  2
GENIUS_AMGTXT_16
 70
     0
  0
APPID
  5
3B9
330
9
100
AcDbSymbolTableRecord
100
AcDbRegAppTableRecord
  2
GENIUS_GENREC_14
 70
     0
  0
APPID
  5
3BA
330
9
100
AcDbSymbolTableRecord
100
AcDbRegAppTableRecord
  2
GENIUS_GENOBJ-N-REC_13
 70
     0
  0
ENDTAB
  0
TABLE
  2
DIMSTYLE
  5
A
330
0
100
AcDbSymbolTable
 70
    17
100
AcDbDimStyleTable
 71
     1
340
81
  0
DIMSTYLE
105
81
330
A
100
AcDbSymbolTableRecord
100
AcDbDimStyleTableRecord
  2
AM_ISO
 70
     0
  4
"
 41
3.0
 42
1.5
 43
8.0
 44
1.5
 47
0.1
 48
0.1
 73
     0
 74
     0
 77
     1
 78
     8
 79
     2
140
3.5
141
0.0
143
0.0393701
146
0.71
147
1.5
172
     1
176
   256
177
   256
178
   256
271
     2
272
     2
283
     0
284
     8
340
11
371
    -1
372
    -1
  0
DIMSTYLE
105
82
330
A
100
AcDbSymbolTableRecord
100
AcDbDimStyleTableRecord
  2
AM_ISO$3
 70
     0
  4
"
 41
3.0
 42
1.5
 43
8.0
 44
1.5
 47
0.1
 48
0.1
 73
     0
 77
     1
 78
     8
 79
     2
140
3.5
141
0.0
143
0.0393701
146
0.71
147
1.5
176
   256
177
   256
178
   256
271
     2
272
     2
283
     0
284
     8
288
     1
289
     0
340
11
371
    -1
372
    -1
  0
DIMSTYLE
105
83
330
A
100
AcDbSymbolTableRecord
100
AcDbDimStyleTableRecord
  2
AM_ISO$4
 70
     0
  4
"
 41
3.0
 42
1.5
 43
8.0
 44
1.5
 47
0.1
 48
0.1
 73
     0
 77
     1
 78
     8
 79
     2
140
3.5
141
0.0
143
0.0393701
146
0.71
147
1.5
176
   256
177
   256
178
   256
271
     2
272
     2
283
     0
284
     8
288
     1
289
     0
340
11
371
    -1
372
    -1
  0
DIMSTYLE
105
84
330
A
100
AcDbSymbolTableRecord
100
AcDbDimStyleTableRecord
  2
AM_ISO$6
 70
     0
  4
"
 41
3.0
 42
1.5
 43
8.0
 44
1.5
 47
0.1
 48
0.1
 73
     0
 74
     0
 78
     8
 79
     2
140
3.5
141
0.0
143
0.0393701
146
0.71
147
1.5
172
     1
176
   256
177
   256
178
   256
271
     2
272
     2
283
     0
284
     8
340
11
371
    -1
372
    -1
  0
DIMSTYLE
105
85
330
A
100
AcDbSymbolTableRecord
100
AcDbDimStyleTableRecord
  2
AM_ISO$7
 70
     0
  4
"
 41
3.0
 42
1.5
 43
8.0
 44
1.5
 47
0.1
 48
0.1
 73
     0
 74
     0
 77
     1
 78
     8
 79
     2
140
5.0
141
0.0
143
0.0393701
146
0.71
147
1.5
172
     1
176
   256
177
   256
178
   256
271
     2
272
     2
283
     0
284
     8
340
11
371
    -1
372
    -1
  0
DIMSTYLE
105
86
330
A
100
AcDbSymbolTableRecord
100
AcDbDimStyleTableRecord
  2
AM_ISO$SF
 70
     0
  4
"
 41
2.5
 42
1.0
 43
10.0
 44
1.0
 47
0.1
 48
0.1
 73
     0
 74
     0
 75
     1
 76
     1
 77
     1
 78
     8
 79
     2
140
3.5
141
0.0
143
0.0393701
146
0.71
147
1.5
172
     1
176
   256
177
   256
178
     2
271
     2
272
     3
274
     4
283
     0
284
     8
340
11
371
    -1
372
    -1
  0
DIMSTYLE
105
8B
330
A
100
AcDbSymbolTableRecord
100
AcDbDimStyleTableRecord
  2
AM_ISO$SH
 70
     0
  4
"
 41
2.5
 42
1.0
 43
10.0
 44
1.0
 47
0.1
 48
0.1
 73
     0
 74
     0
 75
     1
 76
     1
 77
     1
 78
     8
 79
     2
140
3.5
141
0.0
143
0.0393701
144
2.0
146
0.71
147
1.5
172
     1
173
     1
176
   256
177
   256
178
     2
271
     2
272
     3
274
     4
283
     0
284
     8
340
11
343
87
371
    -1
372
    -1
  0
DIMSTYLE
105
27B
330
A
100
AcDbSymbolTableRecord
100
AcDbDimStyleTableRecord
  2
AM_ISO$0
 70
     0
  4
"
 41
3.0
 42
1.5
 43
8.0
 44
1.5
 47
0.1
 48
0.1
 73
     0
 74
     0
 77
     1
 78
     8
 79
     2
140
3.5
141
0.0
143
0.0393701
146
0.71
147
1.5
172
     1
176
   256
177
   256
178
   256
271
     2
272
     2
283
     0
284
     8
340
11
371
    -1
372
    -1
  0
DIMSTYLE
105
3AF
102
{ACAD_REACTORS
330
4A9
330
4AD
330
4A8
330
4AA
330
51B
330
520
330
597
330
598
330
6A0
330
6A1
330
6A2
330
713
330
718
330
790
102
}
330
A
100
AcDbSymbolTableRecord
100
AcDbDimStyleTableRecord
  2
STANDARD
 70
     0
 41
3.0
 42
2.0
 43
8.0
 44
2.0
 48
0.000000001
 73
     0
 74
     0
 77
     1
 78
     8
 79
     2
140
3.0
141
1.0
146
0.6
147
1.0
176
   256
177
   256
178
   256
179
     2
271
     2
272
     2
279
     2
284
     8
340
3AC
371
    -1
  0
DIMSTYLE
105
3B0
330
A
100
AcDbSymbolTableRecord
100
AcDbDimStyleTableRecord
  2
AM_JIS
 70
     0
  4
"
 41
2.5
 42
1.0
 43
10.0
 44
1.0
 47
0.1
 48
0.1
 73
     0
 74
     0
 77
     3
 78
     8
 79
     2
140
3.5
141
0.0
143
0.0393701
146
0.71
147
1.5
172
     1
176
   256
177
   256
178
     2
271
     2
272
     3
274
     4
283
     0
340
11
341
357
342
357
343
357
344
357
371
    -1
372
    -1
  0
DIMSTYLE
105
3B1
330
A
100
AcDbSymbolTableRecord
100
AcDbDimStyleTableRecord
  2
AM_JIS$3
 70
     0
  4
"
 41
2.5
 42
1.0
 43
10.0
 44
1.0
 47
0.1
 48
0.1
 73
     0
 77
     3
 78
     8
 79
     2
140
3.5
141
0.0
143
0.0393701
146
0.71
147
1.5
176
   256
177
   256
178
     2
271
     2
272
     3
274
     4
283
     0
288
     1
289
     0
340
11
341
357
342
357
343
357
344
357
371
    -1
372
    -1
  0
DIMSTYLE
105
3B2
330
A
100
AcDbSymbolTableRecord
100
AcDbDimStyleTableRecord
  2
AM_JIS$4
 70
     0
  4
"
 41
2.5
 42
1.0
 43
10.0
 44
1.0
 47
0.1
 48
0.1
 73
     0
 77
     3
 78
     8
 79
     2
140
3.5
141
0.0
143
0.0393701
146
0.71
147
1.5
176
   256
177
   256
178
     2
271
     2
272
     3
274
     4
283
     0
288
     1
289
     0
340
11
341
357
342
357
343
357
344
357
371
    -1
372
    -1
  0
DIMSTYLE
105
3B3
330
A
100
AcDbSymbolTableRecord
100
AcDbDimStyleTableRecord
  2
AM_JIS$6
 70
     0
  4
"
 41
2.5
 42
1.0
 43
10.0
 44
1.0
 47
0.1
 48
0.1
 73
     0
 74
     0
 78
     8
 79
     2
140
3.5
141
0.0
143
0.0393701
146
0.71
147
1.5
172
     1
176
   256
177
   256
178
     2
271
     2
272
     3
274
     4
283
     0
340
11
341
357
342
357
343
357
344
357
371
    -1
372
    -1
  0
DIMSTYLE
105
3B4
330
A
100
AcDbSymbolTableRecord
100
AcDbDimStyleTableRecord
  2
AM_JIS$7
 70
     0
  4
"
 41
2.5
 42
1.0
 43
10.0
 44
1.0
 47
0.1
 48
0.1
 73
     0
 74
     0
 77
     3
 78
     8
 79
     2
140
5.0
141
0.0
143
0.0393701
146
0.71
147
1.5
172
     1
176
   256
177
   256
178
     2
271
     2
272
     3
274
     4
283
     0
340
11
341
357
342
357
343
357
344
357
371
    -1
372
    -1
  0
DIMSTYLE
105
3B5
330
A
100
AcDbSymbolTableRecord
100
AcDbDimStyleTableRecord
  2
AM_JIS$SF
 70
     0
  4
"
 41
2.5
 42
1.0
 43
10.0
 44
1.0
 47
0.1
 48
0.1
 73
     0
 74
     0
 75
     1
 76
     1
 77
     3
 78
     8
 79
     2
140
3.5
141
0.0
143
0.0393701
146
0.71
147
1.5
172
     1
176
   256
177
   256
178
     2
271
     2
272
     3
274
     4
283
     0
340
11
341
357
342
357
343
357
344
357
371
    -1
372
    -1
  0
DIMSTYLE
105
3B6
330
A
100
AcDbSymbolTableRecord
100
AcDbDimStyleTableRecord
  2
AM_JIS$SH
 70
     0
  4
"
 41
2.5
 42
1.0
 43
10.0
 44
1.0
 47
0.1
 48
0.1
 73
     0
 74
     0
 75
     1
 76
     1
 77
     3
 78
     8
 79
     2
140
3.5
141
0.0
143
0.0393701
144
2.0
146
0.71
147
1.5
172
     1
173
     1
176
   256
177
   256
178
     2
271
     2
272
     3
274
     4
283
     0
340
11
341
357
342
357
343
87
344
357
371
    -1
372
    -1
  0
ENDTAB
  0
TABLE
  2
BLOCK_RECORD
  5
1
330
0
100
AcDbSymbolTable
 70
    18
  0
BLOCK_RECORD
  5
1F
102
{ACAD_XDICTIONARY
360
8F
102
}
330
1
100
AcDbSymbolTableRecord
100
AcDbBlockTableRecord
  2
*Model_Space
340
22
  0
BLOCK_RECORD
  5
1B
330
1
100
AcDbSymbolTableRecord
100
AcDbBlockTableRecord
  2
*Paper_Space
340
1E
  0
BLOCK_RECORD
  5
23
330
1
100
AcDbSymbolTableRecord
100
AcDbBlockTableRecord
  2
*Paper_Space0
340
26
  0
BLOCK_RECORD
  5
87
330
1
100
AcDbSymbolTableRecord
100
AcDbBlockTableRecord
  2
GENAXEH
340
0
  0
BLOCK_RECORD
  5
357
330
1
100
AcDbSymbolTableRecord
100
AcDbBlockTableRecord
  2
_Open30
340
0
  0
BLOCK_RECORD
  5
35D
330
1
100
AcDbSymbolTableRecord
100
AcDbBlockTableRecord
  2
*D4
340
0
  0
BLOCK_RECORD
  5
369
330
1
100
AcDbSymbolTableRecord
100
AcDbBlockTableRecord
  2
*D5
340
0
  0
BLOCK_RECORD
  5
375
330
1
100
AcDbSymbolTableRecord
100
AcDbBlockTableRecord
  2
*D6
340
0
  0
BLOCK_RECORD
  5
381
330
1
100
AcDbSymbolTableRecord
100
AcDbBlockTableRecord
  2
*D7
340
0
  0
BLOCK_RECORD
  5
38D
330
1
100
AcDbSymbolTableRecord
100
AcDbBlockTableRecord
  2
*D8
340
0
  0
BLOCK_RECORD
  5
399
330
1
100
AcDbSymbolTableRecord
100
AcDbBlockTableRecord
  2
*D9
340
0
  0
BLOCK_RECORD
  5
794
330
1
100
AcDbSymbolTableRecord
100
AcDbBlockTableRecord
  2
*D11
340
0
  0
BLOCK_RECORD
  5
7A0
330
1
100
AcDbSymbolTableRecord
100
AcDbBlockTableRecord
  2
*D12
340
0
  0
BLOCK_RECORD
  5
7AC
330
1
100
AcDbSymbolTableRecord
100
AcDbBlockTableRecord
  2
*D13
340
0
  0
BLOCK_RECORD
  5
7B8
330
1
100
AcDbSymbolTableRecord
100
AcDbBlockTableRecord
  2
*D14
340
0
  0
BLOCK_RECORD
  5
7C4
330
1
100
AcDbSymbolTableRecord
100
AcDbBlockTableRecord
  2
*D15
340
0
  0
BLOCK_RECORD
  5
7D0
330
1
100
AcDbSymbolTableRecord
100
AcDbBlockTableRecord
  2
*D16
340
0
  0
ENDTAB
  0
ENDSEC
  0
SECTION
  2
BLOCKS
  0
BLOCK
  5
20
330
1F
100
AcDbEntity
  8
0
100
AcDbBlockBegin
  2
*Model_Space
 70
     0
 10
0.0
 20
0.0
 30
0.0
  3
*Model_Space
  1

  0
ENDBLK
  5
21
330
1F
100
AcDbEntity
  8
0
100
AcDbBlockEnd
  0
BLOCK
  5
1C
330
1B
100
AcDbEntity
 67
     1
  8
0
100
AcDbBlockBegin
  2
*Paper_Space
 70
     0
 10
0.0
 20
0.0
 30
0.0
  3
*Paper_Space
  1

  0
ENDBLK
  5
1D
330
1B
100
AcDbEntity
 67
     1
  8
0
100
AcDbBlockEnd
  0
BLOCK
  5
24
330
23
100
AcDbEntity
  8
0
100
AcDbBlockBegin
  2
*Paper_Space0
 70
     0
 10
0.0
 20
0.0
 30
0.0
  3
*Paper_Space0
  1

  0
ENDBLK
  5
25
330
23
100
AcDbEntity
  8
0
100
AcDbBlockEnd
  0
BLOCK
  5
89
330
87
100
AcDbEntity
  8
0
100
AcDbBlockBegin
  2
GENAXEH
 70
     0
 10
0.0
 20
0.0
 30
0.0
  3
GENAXEH
  1

  0
LINE
  5
88
330
87
100
AcDbEntity
  8
0
100
AcDbLine
 10
-1.0
 20
0.0
 30
0.0
 11
1.0
 21
0.0
 31
0.0
  0
ENDBLK
  5
8A
330
87
100
AcDbEntity
  8
0
100
AcDbBlockEnd
  0
BLOCK
  5
358
330
357
100
AcDbEntity
  8
0
100
AcDbBlockBegin
  2
_Open30
 70
     0
 10
0.0
 20
0.0
 30
0.0
  3
_Open30
  1

  0
LINE
  5
359
330
357
100
AcDbEntity
  8
0
 62
     0
370
    -2
100
AcDbLine
 10
-1.0
 20
0.26794919
 30
0.0
 11
0.0
 21
0.0
 31
0.0
  0
LINE
  5
35A
330
357
100
AcDbEntity
  8
0
 62
     0
370
    -2
100
AcDbLine
 10
0.0
 20
0.0
 30
0.0
 11
-1.0
 21
-0.26794919
 31
0.0
  0
LINE
  5
35B
330
357
100
AcDbEntity
  8
0
 62
     0
370
    -2
100
AcDbLine
 10
0.0
 20
0.0
 30
0.0
 11
-1.0
 21
0.0
 31
0.0
  0
ENDBLK
  5
35C
330
357
100
AcDbEntity
  8
0
100
AcDbBlockEnd
  0
BLOCK
  5
35E
330
35D
100
AcDbEntity
  8
0
100
AcDbBlockBegin
  2
*D4
 70
     1
 10
0.0
 20
0.0
 30
0.0
  3
*D4
  1

  0
LINE
  5
35F
330
35D
100
AcDbEntity
  8
0
 62
     5
370
    -2
100
AcDbLine
 10
-67.23215652570051
 20
159.9294488938882
 30
0.0
 11
-67.23215652570051
 21
148.3723459808182
 31
0.0
  0
LINE
  5
360
330
35D
100
AcDbEntity
  8
0
 62
     5
370
    -2
100
AcDbLine
 10
-11.2321565257005
 20
159.8734817539184
 30
0.0
 11
-11.2321565257005
 21
148.3723459808182
 31
0.0
  0
LINE
  5
361
330
35D
100
AcDbEntity
  8
0
 62
     5
100
AcDbLine
 10
-64.2321565257005
 20
150.3723459808182
 30
0.0
 11
-14.2321565257005
 21
150.3723459808182
 31
0.0
  0
SOLID
  5
362
330
35D
100
AcDbEntity
  8
0
 62
     5
100
AcDbTrace
 10
-64.2321565257005
 20
150.8723459808182
 30
0.0
 11
-64.2321565257005
 21
149.8723459808181
 31
0.0
 12
-67.23215652570051
 22
150.3723459808182
 32
0.0
 13
-67.23215652570051
 23
150.3723459808182
 33
0.0
  0
SOLID
  5
363
330
35D
100
AcDbEntity
  8
0
 62
     5
100
AcDbTrace
 10
-14.2321565257005
 20
150.8723459808182
 30
0.0
 11
-14.2321565257005
 21
149.8723459808181
 31
0.0
 12
-11.2321565257005
 22
150.3723459808182
 32
0.0
 13
-11.2321565257005
 23
150.3723459808182
 33
0.0
  0
MTEXT
  5
364
330
35D
100
AcDbEntity
  8
0
 62
     5
100
AcDbMText
 10
-39.2321565257005
 20
152.8723459808182
 30
0.0
 40
3.0
 41
0.0
 71
     5
 72
     1
  1
\A1;56
  7
CHINESET
 73
     1
 44
1.0
1001
ACAD
1000
MTEXTBEGIN
1070
    73
1070
     1
1070
    44
1040
1.0
1070
    74
1070
     0
1000
MTEXTEND
  0
POINT
  5
365
330
35D
100
AcDbEntity
  8
Defpoints
 62
     0
100
AcDbPoint
 10
-67.23215652570051
 20
161.9294488938882
 30
0.0
  0
POINT
  5
366
330
35D
100
AcDbEntity
  8
Defpoints
 62
     0
100
AcDbPoint
 10
-11.2321565257005
 20
161.8734817539183
 30
0.0
  0
POINT
  5
367
330
35D
100
AcDbEntity
  8
Defpoints
 62
     0
100
AcDbPoint
 10
-11.2321565257005
 20
150.3723459808182
 30
0.0
  0
ENDBLK
  5
368
330
35D
100
AcDbEntity
  8
0
100
AcDbBlockEnd
  0
BLOCK
  5
36A
330
369
100
AcDbEntity
  8
0
100
AcDbBlockBegin
  2
*D5
 70
     1
 10
0.0
 20
0.0
 30
0.0
  3
*D5
  1

  0
LINE
  5
36B
330
369
100
AcDbEntity
  8
0
 62
     5
370
    -2
100
AcDbLine
 10
-44.7321565257005
 20
129.5574347205711
 30
0.0
 11
-77.34005698239582
 21
129.5574347205712
 31
0.0
  0
LINE
  5
36C
330
369
100
AcDbEntity
  8
0
 62
     5
370
    -2
100
AcDbLine
 10
-44.7321565257005
 20
105.5574347205711
 30
0.0
 11
-77.34005698239582
 21
105.5574347205711
 31
0.0
  0
LINE
  5
36D
330
369
100
AcDbEntity
  8
0
 62
     5
100
AcDbLine
 10
-75.34005698239582
 20
126.5574347205712
 30
0.0
 11
-75.34005698239582
 21
108.5574347205711
 31
0.0
  0
SOLID
  5
36E
330
369
100
AcDbEntity
  8
0
 62
     5
100
AcDbTrace
 10
-75.84005698239582
 20
126.5574347205712
 30
0.0
 11
-74.84005698239582
 21
126.5574347205712
 31
0.0
 12
-75.34005698239582
 22
129.5574347205712
 32
0.0
 13
-75.34005698239582
 23
129.5574347205712
 33
0.0
  0
SOLID
  5
36F
330
369
100
AcDbEntity
  8
0
 62
     5
100
AcDbTrace
 10
-75.84005698239582
 20
108.5574347205711
 30
0.0
 11
-74.84005698239582
 21
108.5574347205711
 31
0.0
 12
-75.34005698239582
 22
105.5574347205711
 32
0.0
 13
-75.34005698239582
 23
105.5574347205711
 33
0.0
  0
MTEXT
  5
370
330
369
100
AcDbEntity
  8
0
 62
     5
100
AcDbMText
 10
-77.84005698239583
 20
117.5574347205711
 30
0.0
 40
3.0
 41
0.0
 71
     5
 72
     1
  1
\A1;24
  7
CHINESET
 11
0.0000000000000001
 21
1.0
 31
0.0
 73
     1
 44
1.0
1001
ACAD
1000
MTEXTBEGIN
1070
    73
1070
     1
1070
    44
1040
1.0
1070
    74
1070
     0
1000
MTEXTEND
  0
POINT
  5
371
330
369
100
AcDbEntity
  8
Defpoints
 62
     0
100
AcDbPoint
 10
-42.7321565257005
 20
129.5574347205711
 30
0.0
  0
POINT
  5
372
330
369
100
AcDbEntity
  8
Defpoints
 62
     0
100
AcDbPoint
 10
-42.7321565257005
 20
105.5574347205711
 30
0.0
  0
POINT
  5
373
330
369
100
AcDbEntity
  8
Defpoints
 62
     0
100
AcDbPoint
 10
-75.34005698239582
 20
105.5574347205711
 30
0.0
  0
ENDBLK
  5
374
330
369
100
AcDbEntity
  8
0
100
AcDbBlockEnd
  0
BLOCK
  5
376
330
375
100
AcDbEntity
  8
0
100
AcDbBlockBegin
  2
*D6
 70
     1
 10
0.0
 20
0.0
 30
0.0
  3
*D6
  1

  0
LINE
  5
377
330
375
100
AcDbEntity
  8
0
 62
     5
370
    -2
100
AcDbLine
 10
-18.2321565257005
 20
136.5574347205711
 30
0.0
 11
20.85351671193816
 21
136.5574347205711
 31
0.0
  0
LINE
  5
378
330
375
100
AcDbEntity
  8
0
 62
     5
370
    -2
100
AcDbLine
 10
-18.2321565257005
 20
98.55743472057117
 30
0.0
 11
20.85351671193814
 21
98.55743472057117
 31
0.0
  0
LINE
  5
379
330
375
100
AcDbEntity
  8
0
 62
     5
100
AcDbLine
 10
18.85351671193815
 20
133.5574347205711
 30
0.0
 11
18.85351671193814
 21
101.5574347205711
 31
0.0
  0
SOLID
  5
37A
330
375
100
AcDbEntity
  8
0
 62
     5
100
AcDbTrace
 10
18.35351671193815
 20
133.5574347205711
 30
0.0
 11
19.35351671193815
 21
133.5574347205711
 31
0.0
 12
18.85351671193815
 22
136.5574347205711
 32
0.0
 13
18.85351671193815
 23
136.5574347205711
 33
0.0
  0
SOLID
  5
37B
330
375
100
AcDbEntity
  8
0
 62
     5
100
AcDbTrace
 10
18.35351671193814
 20
101.5574347205711
 30
0.0
 11
19.35351671193814
 21
101.5574347205711
 31
0.0
 12
18.85351671193814
 22
98.55743472057117
 32
0.0
 13
18.85351671193814
 23
98.55743472057117
 33
0.0
  0
MTEXT
  5
37C
330
375
100
AcDbEntity
  8
0
 62
     5
100
AcDbMText
 10
16.35351671193812
 20
117.5574347205711
 30
0.0
 40
3.0
 41
0.0
 71
     5
 72
     1
  1
\A1;38
  7
CHINESET
 11
0.0000000000000001
 21
1.0
 31
0.0
 73
     1
 44
1.0
1001
ACAD
1000
MTEXTBEGIN
1070
    73
1070
     1
1070
    44
1040
1.0
1070
    74
1070
     0
1000
MTEXTEND
  0
POINT
  5
37D
330
375
100
AcDbEntity
  8
Defpoints
 62
     0
100
AcDbPoint
 10
-20.2321565257005
 20
136.5574347205711
 30
0.0
  0
POINT
  5
37E
330
375
100
AcDbEntity
  8
Defpoints
 62
     0
100
AcDbPoint
 10
-20.2321565257005
 20
98.55743472057117
 30
0.0
  0
POINT
  5
37F
330
375
100
AcDbEntity
  8
Defpoints
 62
     0
100
AcDbPoint
 10
18.85351671193814
 20
98.55743472057117
 30
0.0
  0
ENDBLK
  5
380
330
375
100
AcDbEntity
  8
0
100
AcDbBlockEnd
  0
BLOCK
  5
382
330
381
100
AcDbEntity
  8
0
100
AcDbBlockBegin
  2
*D7
 70
     1
 10
0.0
 20
0.0
 30
0.0
  3
*D7
  1

  0
LINE
  5
383
330
381
100
AcDbEntity
  8
0
 62
     5
370
    -2
100
AcDbLine
 10
-39.2321565257005
 20
242.7686137022967
 30
0.0
 11
-39.2321565257005
 21
247.3634058392351
 31
0.0
  0
LINE
  5
384
330
381
100
AcDbEntity
  8
0
 62
     5
370
    -2
100
AcDbLine
 10
10.76784347429949
 20
209.5186137022967
 30
0.0
 11
10.7678434742995
 21
247.3634058392351
 31
0.0
  0
LINE
  5
385
330
381
100
AcDbEntity
  8
0
 62
     5
100
AcDbLine
 10
-36.2321565257005
 20
245.3634058392351
 30
0.0
 11
7.767843474299498
 21
245.3634058392351
 31
0.0
  0
SOLID
  5
386
330
381
100
AcDbEntity
  8
0
 62
     5
100
AcDbTrace
 10
-36.2321565257005
 20
245.8634058392352
 30
0.0
 11
-36.2321565257005
 21
244.8634058392352
 31
0.0
 12
-39.2321565257005
 22
245.3634058392351
 32
0.0
 13
-39.2321565257005
 23
245.3634058392351
 33
0.0
  0
SOLID
  5
387
330
381
100
AcDbEntity
  8
0
 62
     5
100
AcDbTrace
 10
7.767843474299498
 20
245.8634058392352
 30
0.0
 11
7.767843474299498
 21
244.8634058392352
 31
0.0
 12
10.7678434742995
 22
245.3634058392351
 32
0.0
 13
10.7678434742995
 23
245.3634058392351
 33
0.0
  0
MTEXT
  5
388
330
381
100
AcDbEntity
  8
0
 62
     5
100
AcDbMText
 10
-14.2321565257005
 20
247.8634058392351
 30
0.0
 40
3.0
 41
0.0
 71
     5
 72
     1
  1
\A1;50
  7
CHINESET
 73
     1
 44
1.0
1001
ACAD
1000
MTEXTBEGIN
1070
    73
1070
     1
1070
    44
1040
1.0
1070
    74
1070
     0
1000
MTEXTEND
  0
POINT
  5
389
330
381
100
AcDbEntity
  8
Defpoints
 62
     0
100
AcDbPoint
 10
-39.2321565257005
 20
240.7686137022967
 30
0.0
  0
POINT
  5
38A
330
381
100
AcDbEntity
  8
Defpoints
 62
     0
100
AcDbPoint
 10
10.76784347429949
 20
207.5186137022967
 30
0.0
  0
POINT
  5
38B
330
381
100
AcDbEntity
  8
Defpoints
 62
     0
100
AcDbPoint
 10
10.7678434742995
 20
245.3634058392351
 30
0.0
  0
ENDBLK
  5
38C
330
381
100
AcDbEntity
  8
0
100
AcDbBlockEnd
  0
BLOCK
  5
38E
330
38D
100
AcDbEntity
  8
0
100
AcDbBlockBegin
  2
*D8
 70
     1
 10
0.0
 20
0.0
 30
0.0
  3
*D8
  1

  0
LINE
  5
38F
330
38D
100
AcDbEntity
  8
0
 62
     5
370
    -2
100
AcDbLine
 10
-67.23215652570051
 20
296.3907660735285
 30
0.0
 11
-67.23215652570051
 21
310.7906552526801
 31
0.0
  0
LINE
  5
390
330
38D
100
AcDbEntity
  8
0
 62
     5
370
    -2
100
AcDbLine
 10
10.76784347429949
 20
283.6035048706129
 30
0.0
 11
10.7678434742995
 21
310.7906552526801
 31
0.0
  0
LINE
  5
391
330
38D
100
AcDbEntity
  8
0
 62
     5
100
AcDbLine
 10
-64.2321565257005
 20
308.7906552526801
 30
0.0
 11
7.767843474299498
 21
308.7906552526801
 31
0.0
  0
SOLID
  5
392
330
38D
100
AcDbEntity
  8
0
 62
     5
100
AcDbTrace
 10
-64.2321565257005
 20
309.29065525268
 30
0.0
 11
-64.2321565257005
 21
308.2906552526801
 31
0.0
 12
-67.23215652570051
 22
308.7906552526801
 32
0.0
 13
-67.23215652570051
 23
308.7906552526801
 33
0.0
  0
SOLID
  5
393
330
38D
100
AcDbEntity
  8
0
 62
     5
100
AcDbTrace
 10
7.767843474299498
 20
309.29065525268
 30
0.0
 11
7.767843474299498
 21
308.2906552526801
 31
0.0
 12
10.7678434742995
 22
308.7906552526801
 32
0.0
 13
10.7678434742995
 23
308.7906552526801
 33
0.0
  0
MTEXT
  5
394
330
38D
100
AcDbEntity
  8
0
 62
     5
100
AcDbMText
 10
-28.23215652570051
 20
311.29065525268
 30
0.0
 40
3.0
 41
0.0
 71
     5
 72
     1
  1
\A1;78
  7
CHINESET
 73
     1
 44
1.0
1001
ACAD
1000
MTEXTBEGIN
1070
    73
1070
     1
1070
    44
1040
1.0
1070
    74
1070
     0
1000
MTEXTEND
  0
POINT
  5
395
330
38D
100
AcDbEntity
  8
Defpoints
 62
     0
100
AcDbPoint
 10
-67.23215652570051
 20
294.3907660735285
 30
0.0
  0
POINT
  5
396
330
38D
100
AcDbEntity
  8
Defpoints
 62
     0
100
AcDbPoint
 10
10.76784347429949
 20
281.603504870613
 30
0.0
  0
POINT
  5
397
330
38D
100
AcDbEntity
  8
Defpoints
 62
     0
100
AcDbPoint
 10
10.7678434742995
 20
308.7906552526801
 30
0.0
  0
ENDBLK
  5
398
330
38D
100
AcDbEntity
  8
0
100
AcDbBlockEnd
  0
BLOCK
  5
39A
330
399
100
AcDbEntity
  8
0
100
AcDbBlockBegin
  2
*D9
 70
     1
 10
0.0
 20
0.0
 30
0.0
  3
*D9
  1

  0
LINE
  5
39B
330
399
100
AcDbEntity
  8
0
 62
     5
370
    -2
100
AcDbLine
 10
-130.8798438576101
 20
238.9286137022967
 30
0.0
 11
-162.0574902447706
 21
238.9286137022967
 31
0.0
  0
LINE
  5
39C
330
399
100
AcDbEntity
  8
0
 62
     5
370
    -2
100
AcDbLine
 10
-144.1298438576101
 20
161.9294488938883
 30
0.0
 11
-162.0574902447706
 21
161.9294488938883
 31
0.0
  0
LINE
  5
39D
330
399
100
AcDbEntity
  8
0
 62
     5
100
AcDbLine
 10
-160.0574902447706
 20
235.9286137022968
 30
0.0
 11
-160.0574902447706
 21
164.9294488938883
 31
0.0
  0
SOLID
  5
39E
330
399
100
AcDbEntity
  8
0
 62
     5
100
AcDbTrace
 10
-160.5574902447706
 20
235.9286137022968
 30
0.0
 11
-159.5574902447706
 21
235.9286137022968
 31
0.0
 12
-160.0574902447706
 22
238.9286137022967
 32
0.0
 13
-160.0574902447706
 23
238.9286137022967
 33
0.0
  0
SOLID
  5
39F
330
399
100
AcDbEntity
  8
0
 62
     5
100
AcDbTrace
 10
-160.5574902447706
 20
164.9294488938883
 30
0.0
 11
-159.5574902447706
 21
164.9294488938883
 31
0.0
 12
-160.0574902447706
 22
161.9294488938883
 32
0.0
 13
-160.0574902447706
 23
161.9294488938883
 33
0.0
  0
MTEXT
  5
3A0
330
399
100
AcDbEntity
  8
0
 62
     5
100
AcDbMText
 10
-162.5574902447706
 20
200.4290312980925
 30
0.0
 40
3.0
 41
0.0
 71
     5
 72
     1
  1
\A1;77
  7
CHINESET
 11
0.0000000000000001
 21
1.0
 31
0.0
 73
     1
 44
1.0
1001
ACAD
1000
MTEXTBEGIN
1070
    73
1070
     1
1070
    44
1040
1.0
1070
    74
1070
     0
1000
MTEXTEND
  0
POINT
  5
3A1
330
399
100
AcDbEntity
  8
Defpoints
 62
     0
100
AcDbPoint
 10
-128.8798438576101
 20
238.9286137022967
 30
0.0
  0
POINT
  5
3A2
330
399
100
AcDbEntity
  8
Defpoints
 62
     0
100
AcDbPoint
 10
-142.1298438576101
 20
161.9294488938883
 30
0.0
  0
POINT
  5
3A3
330
399
100
AcDbEntity
  8
Defpoints
 62
     0
100
AcDbPoint
 10
-160.0574902447706
 20
161.9294488938883
 30
0.0
  0
ENDBLK
  5
3A4
330
399
100
AcDbEntity
  8
0
100
AcDbBlockEnd
  0
BLOCK
  5
79E
330
794
100
AcDbEntity
  8
0
100
AcDbBlockBegin
  2
*D11
 70
     1
 10
0.0
 20
0.0
 30
0.0
  3
*D11
  1

  0
LINE
  5
7DC
330
794
100
AcDbEntity
  8
0
 62
     5
370
    -2
100
AcDbLine
 10
245.1749962560569
 20
216.3698024152979
 30
0.0
 11
245.1749962560569
 21
204.8126995022278
 31
0.0
  0
LINE
  5
7DD
330
794
100
AcDbEntity
  8
0
 62
     5
370
    -2
100
AcDbLine
 10
301.1749962560569
 20
216.313835275328
 30
0.0
 11
301.1749962560569
 21
204.8126995022278
 31
0.0
  0
LINE
  5
7DE
330
794
100
AcDbEntity
  8
0
 62
     5
100
AcDbLine
 10
248.1749962560569
 20
206.8126995022278
 30
0.0
 11
298.174996256057
 21
206.8126995022278
 31
0.0
  0
SOLID
  5
7DF
330
794
100
AcDbEntity
  8
0
 62
     5
100
AcDbTrace
 10
248.1749962560569
 20
207.3126995022278
 30
0.0
 11
248.1749962560569
 21
206.3126995022278
 31
0.0
 12
245.1749962560569
 22
206.8126995022278
 32
0.0
 13
245.1749962560569
 23
206.8126995022278
 33
0.0
  0
SOLID
  5
7E0
330
794
100
AcDbEntity
  8
0
 62
     5
100
AcDbTrace
 10
298.174996256057
 20
207.3126995022278
 30
0.0
 11
298.174996256057
 21
206.3126995022278
 31
0.0
 12
301.1749962560569
 22
206.8126995022278
 32
0.0
 13
301.1749962560569
 23
206.8126995022278
 33
0.0
  0
MTEXT
  5
7E1
330
794
100
AcDbEntity
  8
0
 62
     5
100
AcDbMText
 10
273.174996256057
 20
209.3126995022278
 30
0.0
 40
3.0
 41
0.0
 71
     5
 72
     1
  1
\A1;56
  7
CHINESET
 73
     1
 44
1.0
1001
ACAD
1000
MTEXTBEGIN
1070
    73
1070
     1
1070
    44
1040
1.0
1070
    74
1070
     0
1000
MTEXTEND
  0
POINT
  5
7E2
330
794
100
AcDbEntity
  8
Defpoints
 62
     0
100
AcDbPoint
 10
245.1749962560569
 20
218.3698024152979
 30
0.0
  0
POINT
  5
7E3
330
794
100
AcDbEntity
  8
Defpoints
 62
     0
100
AcDbPoint
 10
301.1749962560569
 20
218.313835275328
 30
0.0
  0
POINT
  5
7E4
330
794
100
AcDbEntity
  8
Defpoints
 62
     0
100
AcDbPoint
 10
301.1749962560569
 20
206.8126995022278
 30
0.0
  0
ENDBLK
  5
79F
330
794
100
AcDbEntity
  8
0
100
AcDbBlockEnd
  0
BLOCK
  5
7AA
330
7A0
100
AcDbEntity
  8
0
100
AcDbBlockBegin
  2
*D12
 70
     1
 10
0.0
 20
0.0
 30
0.0
  3
*D12
  1

  0
LINE
  5
7E5
330
7A0
100
AcDbEntity
  8
0
 62
     5
370
    -2
100
AcDbLine
 10
267.6749962560569
 20
185.9977882419808
 30
0.0
 11
235.0670957993616
 21
185.9977882419808
 31
0.0
  0
LINE
  5
7E6
330
7A0
100
AcDbEntity
  8
0
 62
     5
370
    -2
100
AcDbLine
 10
267.6749962560569
 20
161.9977882419808
 30
0.0
 11
235.0670957993616
 21
161.9977882419808
 31
0.0
  0
LINE
  5
7E7
330
7A0
100
AcDbEntity
  8
0
 62
     5
100
AcDbLine
 10
237.0670957993616
 20
182.9977882419808
 30
0.0
 11
237.0670957993616
 21
164.9977882419808
 31
0.0
  0
SOLID
  5
7E8
330
7A0
100
AcDbEntity
  8
0
 62
     5
100
AcDbTrace
 10
236.5670957993616
 20
182.9977882419808
 30
0.0
 11
237.5670957993616
 21
182.9977882419808
 31
0.0
 12
237.0670957993616
 22
185.9977882419808
 32
0.0
 13
237.0670957993616
 23
185.9977882419808
 33
0.0
  0
SOLID
  5
7E9
330
7A0
100
AcDbEntity
  8
0
 62
     5
100
AcDbTrace
 10
236.5670957993616
 20
164.9977882419808
 30
0.0
 11
237.5670957993616
 21
164.9977882419808
 31
0.0
 12
237.0670957993616
 22
161.9977882419808
 32
0.0
 13
237.0670957993616
 23
161.9977882419808
 33
0.0
  0
MTEXT
  5
7EA
330
7A0
100
AcDbEntity
  8
0
 62
     5
100
AcDbMText
 10
234.5670957993616
 20
173.9977882419808
 30
0.0
 40
3.0
 41
0.0
 71
     5
 72
     1
  1
\A1;24
  7
CHINESET
 11
0.0000000000000001
 21
1.0
 31
0.0
 73
     1
 44
1.0
1001
ACAD
1000
MTEXTBEGIN
1070
    73
1070
     1
1070
    44
1040
1.0
1070
    74
1070
     0
1000
MTEXTEND
  0
POINT
  5
7EB
330
7A0
100
AcDbEntity
  8
Defpoints
 62
     0
100
AcDbPoint
 10
269.6749962560569
 20
185.9977882419808
 30
0.0
  0
POINT
  5
7EC
330
7A0
100
AcDbEntity
  8
Defpoints
 62
     0
100
AcDbPoint
 10
269.6749962560569
 20
161.9977882419808
 30
0.0
  0
POINT
  5
7ED
330
7A0
100
AcDbEntity
  8
Defpoints
 62
     0
100
AcDbPoint
 10
237.0670957993616
 20
161.9977882419808
 30
0.0
  0
ENDBLK
  5
7AB
330
7A0
100
AcDbEntity
  8
0
100
AcDbBlockEnd
  0
BLOCK
  5
7B6
330
7AC
100
AcDbEntity
  8
0
100
AcDbBlockBegin
  2
*D13
 70
     1
 10
0.0
 20
0.0
 30
0.0
  3
*D13
  1

  0
LINE
  5
7EE
330
7AC
100
AcDbEntity
  8
0
 62
     5
370
    -2
100
AcDbLine
 10
294.1749962560569
 20
192.9977882419808
 30
0.0
 11
333.2606694936956
 21
192.9977882419807
 31
0.0
  0
LINE
  5
7EF
330
7AC
100
AcDbEntity
  8
0
 62
     5
370
    -2
100
AcDbLine
 10
294.1749962560569
 20
154.9977882419808
 30
0.0
 11
333.2606694936956
 21
154.9977882419808
 31
0.0
  0
LINE
  5
7F0
330
7AC
100
AcDbEntity
  8
0
 62
     5
100
AcDbLine
 10
331.2606694936956
 20
189.9977882419807
 30
0.0
 11
331.2606694936956
 21
157.9977882419808
 31
0.0
  0
SOLID
  5
7F1
330
7AC
100
AcDbEntity
  8
0
 62
     5
100
AcDbTrace
 10
330.7606694936956
 20
189.9977882419807
 30
0.0
 11
331.7606694936956
 21
189.9977882419807
 31
0.0
 12
331.2606694936956
 22
192.9977882419807
 32
0.0
 13
331.2606694936956
 23
192.9977882419807
 33
0.0
  0
SOLID
  5
7F2
330
7AC
100
AcDbEntity
  8
0
 62
     5
100
AcDbTrace
 10
330.7606694936956
 20
157.9977882419808
 30
0.0
 11
331.7606694936956
 21
157.9977882419808
 31
0.0
 12
331.2606694936956
 22
154.9977882419808
 32
0.0
 13
331.2606694936956
 23
154.9977882419808
 33
0.0
  0
MTEXT
  5
7F3
330
7AC
100
AcDbEntity
  8
0
 62
     5
100
AcDbMText
 10
328.7606694936955
 20
173.9977882419808
 30
0.0
 40
3.0
 41
0.0
 71
     5
 72
     1
  1
\A1;38
  7
CHINESET
 11
0.0000000000000001
 21
1.0
 31
0.0
 73
     1
 44
1.0
1001
ACAD
1000
MTEXTBEGIN
1070
    73
1070
     1
1070
    44
1040
1.0
1070
    74
1070
     0
1000
MTEXTEND
  0
POINT
  5
7F4
330
7AC
100
AcDbEntity
  8
Defpoints
 62
     0
100
AcDbPoint
 10
292.174996256057
 20
192.9977882419808
 30
0.0
  0
POINT
  5
7F5
330
7AC
100
AcDbEntity
  8
Defpoints
 62
     0
100
AcDbPoint
 10
292.174996256057
 20
154.9977882419808
 30
0.0
  0
POINT
  5
7F6
330
7AC
100
AcDbEntity
  8
Defpoints
 62
     0
100
AcDbPoint
 10
331.2606694936956
 20
154.9977882419808
 30
0.0
  0
ENDBLK
  5
7B7
330
7AC
100
AcDbEntity
  8
0
100
AcDbBlockEnd
  0
BLOCK
  5
7C2
330
7B8
100
AcDbEntity
  8
0
100
AcDbBlockBegin
  2
*D14
 70
     1
 10
0.0
 20
0.0
 30
0.0
  3
*D14
  1

  0
LINE
  5
7F7
330
7B8
100
AcDbEntity
  8
0
 62
     5
370
    -2
100
AcDbLine
 10
273.174996256057
 20
299.2089672237063
 30
0.0
 11
273.174996256057
 21
303.8037593606448
 31
0.0
  0
LINE
  5
7F8
330
7B8
100
AcDbEntity
  8
0
 62
     5
370
    -2
100
AcDbLine
 10
323.174996256057
 20
265.9589672237063
 30
0.0
 11
323.174996256057
 21
303.8037593606448
 31
0.0
  0
LINE
  5
7F9
330
7B8
100
AcDbEntity
  8
0
 62
     5
100
AcDbLine
 10
276.1749962560569
 20
301.8037593606448
 30
0.0
 11
320.1749962560569
 21
301.8037593606448
 31
0.0
  0
SOLID
  5
7FA
330
7B8
100
AcDbEntity
  8
0
 62
     5
100
AcDbTrace
 10
276.1749962560569
 20
302.3037593606448
 30
0.0
 11
276.1749962560569
 21
301.3037593606448
 31
0.0
 12
273.174996256057
 22
301.8037593606448
 32
0.0
 13
273.174996256057
 23
301.8037593606448
 33
0.0
  0
SOLID
  5
7FB
330
7B8
100
AcDbEntity
  8
0
 62
     5
100
AcDbTrace
 10
320.1749962560569
 20
302.3037593606448
 30
0.0
 11
320.1749962560569
 21
301.3037593606448
 31
0.0
 12
323.174996256057
 22
301.8037593606448
 32
0.0
 13
323.174996256057
 23
301.8037593606448
 33
0.0
  0
MTEXT
  5
7FC
330
7B8
100
AcDbEntity
  8
0
 62
     5
100
AcDbMText
 10
298.174996256057
 20
304.3037593606448
 30
0.0
 40
3.0
 41
0.0
 71
     5
 72
     1
  1
\A1;50
  7
CHINESET
 73
     1
 44
1.0
1001
ACAD
1000
MTEXTBEGIN
1070
    73
1070
     1
1070
    44
1040
1.0
1070
    74
1070
     0
1000
MTEXTEND
  0
POINT
  5
7FD
330
7B8
100
AcDbEntity
  8
Defpoints
 62
     0
100
AcDbPoint
 10
273.174996256057
 20
297.2089672237063
 30
0.0
  0
POINT
  5
7FE
330
7B8
100
AcDbEntity
  8
Defpoints
 62
     0
100
AcDbPoint
 10
323.174996256057
 20
263.9589672237063
 30
0.0
  0
POINT
  5
7FF
330
7B8
100
AcDbEntity
  8
Defpoints
 62
     0
100
AcDbPoint
 10
323.174996256057
 20
301.8037593606448
 30
0.0
  0
ENDBLK
  5
7C3
330
7B8
100
AcDbEntity
  8
0
100
AcDbBlockEnd
  0
BLOCK
  5
7CE
330
7C4
100
AcDbEntity
  8
0
100
AcDbBlockBegin
  2
*D15
 70
     1
 10
0.0
 20
0.0
 30
0.0
  3
*D15
  1

  0
LINE
  5
800
330
7C4
100
AcDbEntity
  8
0
 62
     5
370
    -2
100
AcDbLine
 10
245.1749962560569
 20
352.8311195949381
 30
0.0
 11
245.1749962560569
 21
367.2310087740897
 31
0.0
  0
LINE
  5
801
330
7C4
100
AcDbEntity
  8
0
 62
     5
370
    -2
100
AcDbLine
 10
323.174996256057
 20
340.0438583920226
 30
0.0
 11
323.174996256057
 21
367.2310087740897
 31
0.0
  0
LINE
  5
802
330
7C4
100
AcDbEntity
  8
0
 62
     5
100
AcDbLine
 10
248.1749962560569
 20
365.2310087740897
 30
0.0
 11
320.1749962560569
 21
365.2310087740897
 31
0.0
  0
SOLID
  5
803
330
7C4
100
AcDbEntity
  8
0
 62
     5
100
AcDbTrace
 10
248.1749962560569
 20
365.7310087740897
 30
0.0
 11
248.1749962560569
 21
364.7310087740897
 31
0.0
 12
245.1749962560569
 22
365.2310087740897
 32
0.0
 13
245.1749962560569
 23
365.2310087740897
 33
0.0
  0
SOLID
  5
804
330
7C4
100
AcDbEntity
  8
0
 62
     5
100
AcDbTrace
 10
320.1749962560569
 20
365.7310087740897
 30
0.0
 11
320.1749962560569
 21
364.7310087740897
 31
0.0
 12
323.174996256057
 22
365.2310087740897
 32
0.0
 13
323.174996256057
 23
365.2310087740897
 33
0.0
  0
MTEXT
  5
805
330
7C4
100
AcDbEntity
  8
0
 62
     5
100
AcDbMText
 10
284.1749962560569
 20
367.7310087740897
 30
0.0
 40
3.0
 41
0.0
 71
     5
 72
     1
  1
\A1;78
  7
CHINESET
 73
     1
 44
1.0
1001
ACAD
1000
MTEXTBEGIN
1070
    73
1070
     1
1070
    44
1040
1.0
1070
    74
1070
     0
1000
MTEXTEND
  0
POINT
  5
806
330
7C4
100
AcDbEntity
  8
Defpoints
 62
     0
100
AcDbPoint
 10
245.1749962560569
 20
350.8311195949381
 30
0.0
  0
POINT
  5
807
330
7C4
100
AcDbEntity
  8
Defpoints
 62
     0
100
AcDbPoint
 10
323.174996256057
 20
338.0438583920226
 30
0.0
  0
POINT
  5
808
330
7C4
100
AcDbEntity
  8
Defpoints
 62
     0
100
AcDbPoint
 10
323.174996256057
 20
365.2310087740897
 30
0.0
  0
ENDBLK
  5
7CF
330
7C4
100
AcDbEntity
  8
0
100
AcDbBlockEnd
  0
BLOCK
  5
7DA
330
7D0
100
AcDbEntity
  8
0
100
AcDbBlockBegin
  2
*D16
 70
     1
 10
0.0
 20
0.0
 30
0.0
  3
*D16
  1

  0
LINE
  5
809
330
7D0
100
AcDbEntity
  8
0
 62
     5
370
    -2
100
AcDbLine
 10
181.5273089241473
 20
295.3689672237064
 30
0.0
 11
150.3496625369868
 21
295.3689672237064
 31
0.0
  0
LINE
  5
80A
330
7D0
100
AcDbEntity
  8
0
 62
     5
370
    -2
100
AcDbLine
 10
168.2773089241473
 20
218.369802415298
 30
0.0
 11
150.3496625369868
 21
218.369802415298
 31
0.0
  0
LINE
  5
80B
330
7D0
100
AcDbEntity
  8
0
 62
     5
100
AcDbLine
 10
152.3496625369868
 20
292.3689672237064
 30
0.0
 11
152.3496625369868
 21
221.369802415298
 31
0.0
  0
SOLID
  5
80C
330
7D0
100
AcDbEntity
  8
0
 62
     5
100
AcDbTrace
 10
151.8496625369868
 20
292.3689672237064
 30
0.0
 11
152.8496625369868
 21
292.3689672237064
 31
0.0
 12
152.3496625369868
 22
295.3689672237064
 32
0.0
 13
152.3496625369868
 23
295.3689672237064
 33
0.0
  0
SOLID
  5
80D
330
7D0
100
AcDbEntity
  8
0
 62
     5
100
AcDbTrace
 10
151.8496625369868
 20
221.369802415298
 30
0.0
 11
152.8496625369868
 21
221.369802415298
 31
0.0
 12
152.3496625369868
 22
218.369802415298
 32
0.0
 13
152.3496625369868
 23
218.369802415298
 33
0.0
  0
MTEXT
  5
80E
330
7D0
100
AcDbEntity
  8
0
 62
     5
100
AcDbMText
 10
149.8496625369867
 20
256.8693848195022
 30
0.0
 40
3.0
 41
0.0
 71
     5
 72
     1
  1
\A1;77
  7
CHINESET
 11
0.0000000000000001
 21
1.0
 31
0.0
 73
     1
 44
1.0
1001
ACAD
1000
MTEXTBEGIN
1070
    73
1070
     1
1070
    44
1040
1.0
1070
    74
1070
     0
1000
MTEXTEND
  0
POINT
  5
80F
330
7D0
100
AcDbEntity
  8
Defpoints
 62
     0
100
AcDbPoint
 10
183.5273089241473
 20
295.3689672237064
 30
0.0
  0
POINT
  5
810
330
7D0
100
AcDbEntity
  8
Defpoints
 62
     0
100
AcDbPoint
 10
170.2773089241473
 20
218.369802415298
 30
0.0
  0
POINT
  5
811
330
7D0
100
AcDbEntity
  8
Defpoints
 62
     0
100
AcDbPoint
 10
152.3496625369868
 20
218.369802415298
 30
0.0
  0
ENDBLK
  5
7DB
330
7D0
100
AcDbEntity
  8
0
100
AcDbBlockEnd
  0
ENDSEC
  0
SECTION
  2
ENTITIES
  0
LINE
  5
5B6
330
1F
100
AcDbEntity
  8
AM_7
 62
     1
100
AcDbLine
 10
313.9249962560569
 20
265.9589672237063
 30
0.0
 11
313.9249962560569
 21
241.5083215387245
 31
0.0
  0
LINE
  5
5B7
330
1F
100
AcDbEntity
  8
AM_VIS
100
AcDbLine
 10
323.174996256057
 20
263.9589672237063
 30
0.0
 11
323.1749962560569
 21
251.9589672237064
 31
0.0
  0
LINE
  5
5B8
330
1F
100
AcDbEntity
  8
AM_VIS
100
AcDbLine
 10
304.674996256057
 20
263.9589672237063
 30
0.0
 11
304.674996256057
 21
251.9589672237064
 31
0.0
  0
LINE
  5
5B9
330
1F
100
AcDbEntity
  8
AM_7
 62
     1
100
AcDbLine
 10
273.174996256057
 20
216.4879254698244
 30
0.0
 11
273.174996256057
 21
297.2089672237063
 31
0.0
  0
LINE
  5
5BA
330
1F
100
AcDbEntity
  8
AM_7
 62
     1
100
AcDbLine
 10
365.62178513319
 20
281.9589672237063
 30
0.0
 11
367.62178513319
 21
281.9589672237063
 31
0.0
  0
LINE
  5
5BB
330
1F
100
AcDbEntity
  8
AM_7
 62
     1
100
AcDbLine
 10
361.12178513319
 20
281.9589672237063
 30
0.0
 11
364.62178513319
 21
281.9589672237063
 31
0.0
  0
LINE
  5
5BC
330
1F
100
AcDbEntity
  8
AM_7
 62
     1
100
AcDbLine
 10
368.62178513319
 20
281.9589672237063
 30
0.0
 11
372.12178513319
 21
281.9589672237063
 31
0.0
  0
LINE
  5
5BD
330
1F
100
AcDbEntity
  8
AM_7
 62
     1
100
AcDbLine
 10
366.62178513319
 20
230.483835275328
 30
0.0
 11
366.62178513319
 21
232.483835275328
 31
0.0
  0
LINE
  5
5BE
330
1F
100
AcDbEntity
  8
AM_7
 62
     1
100
AcDbLine
 10
366.62178513319
 20
216.733835275328
 30
0.0
 11
366.62178513319
 21
229.483835275328
 31
0.0
  0
LINE
  5
5BF
330
1F
100
AcDbEntity
  8
AM_7
 62
     1
100
AcDbLine
 10
366.62178513319
 20
233.5731930925911
 30
0.0
 11
366.62178513319
 21
297.280560707165
 31
0.0
  0
LINE
  5
5C0
330
1F
100
AcDbEntity
  8
AM_7
 62
     1
100
AcDbLine
 10
273.174996256057
 20
172.9977882419808
 30
0.0
 11
273.174996256057
 21
174.9977882419808
 31
0.0
  0
LINE
  5
5C1
330
1F
100
AcDbEntity
  8
AM_7
 62
     1
100
AcDbLine
 10
273.174996256057
 20
154.9977882419808
 30
0.0
 11
273.174996256057
 21
171.9977882419808
 31
0.0
  0
LINE
  5
5C2
330
1F
100
AcDbEntity
  8
AM_7
 62
     1
100
AcDbLine
 10
273.174996256057
 20
175.9977882419808
 30
0.0
 11
273.174996256057
 21
192.9977882419808
 31
0.0
  0
LINE
  5
5C3
330
1F
100
AcDbEntity
  8
AM_7
 62
     1
100
AcDbLine
 10
324.0720258540012
 20
174.0605270390652
 30
0.0
 11
243.4249962560569
 21
174.0605270390652
 31
0.0
  0
LINE
  5
5C4
330
1F
100
AcDbEntity
  8
AM_7
 62
     1
100
AcDbLine
 10
313.9249962560569
 20
173.0977882419808
 30
0.0
 11
313.9249962560569
 21
175.0977882419808
 31
0.0
  0
LINE
  5
5C5
330
1F
100
AcDbEntity
  8
AM_7
 62
     1
100
AcDbLine
 10
313.9249962560569
 20
163.0977882419808
 30
0.0
 11
313.9249962560569
 21
172.0977882419808
 31
0.0
  0
LINE
  5
5C6
330
1F
100
AcDbEntity
  8
AM_7
 62
     1
100
AcDbLine
 10
313.9249962560569
 20
176.0977882419808
 30
0.0
 11
313.9249962560569
 21
185.0977882419808
 31
0.0
  0
LINE
  5
5C7
330
1F
100
AcDbEntity
  8
AM_7
 62
     1
100
AcDbLine
 10
257.4249962560569
 20
188.7477882419808
 30
0.0
 11
259.4249962560569
 21
188.7477882419808
 31
0.0
  0
LINE
  5
5C8
330
1F
100
AcDbEntity
  8
AM_7
 62
     1
100
AcDbLine
 10
258.4249962560569
 20
187.7477882419808
 30
0.0
 11
258.4249962560569
 21
189.7477882419808
 31
0.0
  0
LINE
  5
5C9
330
1F
100
AcDbEntity
  8
AM_7
 62
     1
100
AcDbLine
 10
254.9249962560569
 20
188.7477882419808
 30
0.0
 11
256.424996256057
 21
188.7477882419808
 31
0.0
  0
LINE
  5
5CA
330
1F
100
AcDbEntity
  8
AM_7
 62
     1
100
AcDbLine
 10
260.4249962560569
 20
188.7477882419808
 30
0.0
 11
261.9249962560569
 21
188.7477882419808
 31
0.0
  0
LINE
  5
5CB
330
1F
100
AcDbEntity
  8
AM_7
 62
     1
100
AcDbLine
 10
258.4249962560569
 20
185.2477882419808
 30
0.0
 11
258.4249962560569
 21
186.7477882419808
 31
0.0
  0
LINE
  5
5CC
330
1F
100
AcDbEntity
  8
AM_7
 62
     1
100
AcDbLine
 10
258.4249962560569
 20
190.7477882419808
 30
0.0
 11
258.4249962560569
 21
192.2477882419808
 31
0.0
  0
LINE
  5
5CD
330
1F
100
AcDbEntity
  8
AM_7
 62
     1
100
AcDbLine
 10
286.9249962560569
 20
188.7477882419808
 30
0.0
 11
288.9249962560569
 21
188.7477882419808
 31
0.0
  0
LINE
  5
5CE
330
1F
100
AcDbEntity
  8
AM_7
 62
     1
100
AcDbLine
 10
287.9249962560569
 20
187.7477882419808
 30
0.0
 11
287.9249962560569
 21
189.7477882419808
 31
0.0
  0
LINE
  5
5CF
330
1F
100
AcDbEntity
  8
AM_7
 62
     1
100
AcDbLine
 10
284.4249962560569
 20
188.7477882419808
 30
0.0
 11
285.924996256057
 21
188.7477882419808
 31
0.0
  0
LINE
  5
5D0
330
1F
100
AcDbEntity
  8
AM_7
 62
     1
100
AcDbLine
 10
289.924996256057
 20
188.7477882419808
 30
0.0
 11
291.4249962560569
 21
188.7477882419808
 31
0.0
  0
LINE
  5
5D1
330
1F
100
AcDbEntity
  8
AM_7
 62
     1
100
AcDbLine
 10
287.9249962560569
 20
185.2477882419808
 30
0.0
 11
287.9249962560569
 21
186.7477882419808
 31
0.0
  0
LINE
  5
5D2
330
1F
100
AcDbEntity
  8
AM_7
 62
     1
100
AcDbLine
 10
287.9249962560569
 20
190.7477882419808
 30
0.0
 11
287.9249962560569
 21
192.2477882419808
 31
0.0
  0
LINE
  5
5D3
330
1F
100
AcDbEntity
  8
AM_7
 62
     1
100
AcDbLine
 10
286.9249962560569
 20
159.2477882419808
 30
0.0
 11
288.9249962560569
 21
159.2477882419808
 31
0.0
  0
LINE
  5
5D4
330
1F
100
AcDbEntity
  8
AM_7
 62
     1
100
AcDbLine
 10
287.9249962560569
 20
158.2477882419808
 30
0.0
 11
287.9249962560569
 21
160.2477882419808
 31
0.0
  0
LINE
  5
5D5
330
1F
100
AcDbEntity
  8
AM_7
 62
     1
100
AcDbLine
 10
284.4249962560569
 20
159.2477882419808
 30
0.0
 11
285.924996256057
 21
159.2477882419808
 31
0.0
  0
LINE
  5
5D6
330
1F
100
AcDbEntity
  8
AM_7
 62
     1
100
AcDbLine
 10
289.924996256057
 20
159.2477882419808
 30
0.0
 11
291.4249962560569
 21
159.2477882419808
 31
0.0
  0
LINE
  5
5D7
330
1F
100
AcDbEntity
  8
AM_7
 62
     1
100
AcDbLine
 10
287.9249962560569
 20
155.7477882419808
 30
0.0
 11
287.9249962560569
 21
157.2477882419808
 31
0.0
  0
LINE
  5
5D8
330
1F
100
AcDbEntity
  8
AM_7
 62
     1
100
AcDbLine
 10
287.9249962560569
 20
161.2477882419808
 30
0.0
 11
287.9249962560569
 21
162.7477882419808
 31
0.0
  0
LINE
  5
5D9
330
1F
100
AcDbEntity
  8
AM_7
 62
     1
100
AcDbLine
 10
257.4249962560569
 20
159.2477882419808
 30
0.0
 11
259.4249962560569
 21
159.2477882419808
 31
0.0
  0
LINE
  5
5DA
330
1F
100
AcDbEntity
  8
AM_7
 62
     1
100
AcDbLine
 10
258.4249962560569
 20
158.2477882419808
 30
0.0
 11
258.4249962560569
 21
160.2477882419808
 31
0.0
  0
LINE
  5
5DB
330
1F
100
AcDbEntity
  8
AM_7
 62
     1
100
AcDbLine
 10
254.9249962560569
 20
159.2477882419808
 30
0.0
 11
256.424996256057
 21
159.2477882419808
 31
0.0
  0
LINE
  5
5DC
330
1F
100
AcDbEntity
  8
AM_7
 62
     1
100
AcDbLine
 10
260.4249962560569
 20
159.2477882419808
 30
0.0
 11
261.9249962560569
 21
159.2477882419808
 31
0.0
  0
LINE
  5
5DD
330
1F
100
AcDbEntity
  8
AM_7
 62
     1
100
AcDbLine
 10
258.4249962560569
 20
155.7477882419808
 30
0.0
 11
258.4249962560569
 21
157.2477882419808
 31
0.0
  0
LINE
  5
5DE
330
1F
100
AcDbEntity
  8
AM_7
 62
     1
100
AcDbLine
 10
258.4249962560569
 20
161.2477882419808
 30
0.0
 11
258.4249962560569
 21
162.7477882419808
 31
0.0
  0
LINE
  5
5DF
330
1F
100
AcDbEntity
  8
AM_7
 62
     1
100
AcDbLine
 10
272.1749962560569
 20
185.9977882419808
 30
0.0
 11
274.1749962560569
 21
185.9977882419808
 31
0.0
  0
LINE
  5
5E0
330
1F
100
AcDbEntity
  8
AM_7
 62
     1
100
AcDbLine
 10
273.174996256057
 20
184.9977882419808
 30
0.0
 11
273.174996256057
 21
186.9977882419808
 31
0.0
  0
LINE
  5
5E1
330
1F
100
AcDbEntity
  8
AM_7
 62
     1
100
AcDbLine
 10
269.6749962560569
 20
185.9977882419808
 30
0.0
 11
271.174996256057
 21
185.9977882419808
 31
0.0
  0
LINE
  5
5E2
330
1F
100
AcDbEntity
  8
AM_7
 62
     1
100
AcDbLine
 10
275.174996256057
 20
185.9977882419808
 30
0.0
 11
276.6749962560569
 21
185.9977882419808
 31
0.0
  0
LINE
  5
5E3
330
1F
100
AcDbEntity
  8
AM_7
 62
     1
100
AcDbLine
 10
272.1749962560569
 20
161.9977882419808
 30
0.0
 11
274.1749962560569
 21
161.9977882419808
 31
0.0
  0
LINE
  5
5E4
330
1F
100
AcDbEntity
  8
AM_7
 62
     1
100
AcDbLine
 10
273.174996256057
 20
160.9977882419808
 30
0.0
 11
273.174996256057
 21
162.9977882419808
 31
0.0
  0
LINE
  5
5E5
330
1F
100
AcDbEntity
  8
AM_7
 62
     1
100
AcDbLine
 10
269.6749962560569
 20
161.9977882419808
 30
0.0
 11
271.174996256057
 21
161.9977882419808
 31
0.0
  0
LINE
  5
5E6
330
1F
100
AcDbEntity
  8
AM_7
 62
     1
100
AcDbLine
 10
275.174996256057
 20
161.9977882419808
 30
0.0
 11
276.6749962560569
 21
161.9977882419808
 31
0.0
  0
LINE
  5
5E7
330
1F
100
AcDbEntity
  8
AM_7
 62
     1
100
AcDbLine
 10
273.174996256057
 20
158.4977882419808
 30
0.0
 11
273.174996256057
 21
159.9977882419808
 31
0.0
  0
LINE
  5
5E8
330
1F
100
AcDbEntity
  8
AM_7
 62
     1
100
AcDbLine
 10
273.174996256057
 20
163.9977882419808
 30
0.0
 11
273.174996256057
 21
165.4977882419808
 31
0.0
  0
LINE
  5
5E9
330
1F
100
AcDbEntity
  8
AM_VIS
100
AcDbLine
 10
262.4249962560569
 20
263.7089672237063
 30
0.0
 11
262.4249962560569
 21
292.7089672237063
 31
0.0
  0
LINE
  5
5EA
330
1F
100
AcDbEntity
  8
AM_VIS
100
AcDbLine
 10
290.9249962560569
 20
263.7089672237063
 30
0.0
 11
262.4249962560569
 21
263.7089672237063
 31
0.0
  0
LINE
  5
5EB
330
1F
100
AcDbEntity
  8
AM_VIS
100
AcDbLine
 10
262.4249962560569
 20
292.7089672237063
 30
0.0
 11
290.9249962560569
 21
292.7089672237063
 31
0.0
  0
LINE
  5
5EC
330
1F
100
AcDbEntity
  8
AM_VIS
100
AcDbLine
 10
290.9249962560569
 20
262.7089672237064
 30
0.0
 11
295.9249962560569
 21
262.7089672237064
 31
0.0
  0
LINE
  5
5ED
330
1F
100
AcDbEntity
  8
AM_VIS
100
AcDbLine
 10
290.9249962560569
 20
293.7089672237064
 30
0.0
 11
295.9249962560569
 21
293.7089672237064
 31
0.0
  0
LINE
  5
5EE
330
1F
100
AcDbEntity
  8
AM_VIS
100
AcDbLine
 10
295.9249962560569
 20
262.7089672237064
 30
0.0
 11
295.9249962560569
 21
293.7089672237064
 31
0.0
  0
LINE
  5
5EF
330
1F
100
AcDbEntity
  8
AM_VIS
100
AcDbLine
 10
290.9249962560569
 20
293.7089672237064
 30
0.0
 11
290.9249962560569
 21
262.7089672237064
 31
0.0
  0
LINE
  5
5F0
330
1F
100
AcDbEntity
  8
AM_VIS
100
AcDbLine
 10
295.9249962560569
 20
292.4589672237063
 30
0.0
 11
321.424996256057
 21
292.4589672237063
 31
0.0
  0
LINE
  5
5F1
330
1F
100
AcDbEntity
  8
AM_VIS
100
AcDbLine
 10
321.424996256057
 20
263.9589672237063
 30
0.0
 11
321.424996256057
 21
292.4589672237063
 31
0.0
  0
LINE
  5
5F2
330
1F
100
AcDbEntity
  8
AM_VIS
100
AcDbLine
 10
295.9249962560569
 20
263.9589672237063
 30
0.0
 11
321.424996256057
 21
263.9589672237063
 31
0.0
  0
LINE
  5
5F3
330
1F
100
AcDbEntity
  8
AM_VIS
100
AcDbLine
 10
323.172600563091
 20
249.9589672237064
 30
0.0
 11
323.172600563091
 21
244.9589672237063
 31
0.0
  0
LINE
  5
5F4
330
1F
100
AcDbEntity
  8
AM_VIS
100
AcDbLine
 10
318.5437984095739
 20
244.9589672237063
 30
0.0
 11
323.172600563091
 21
244.9589672237063
 31
0.0
  0
LINE
  5
5F5
330
1F
100
AcDbEntity
  8
AM_VIS
100
AcDbLine
 10
318.5437984095739
 20
249.9589672237064
 30
0.0
 11
318.5437984095739
 21
244.9589672237063
 31
0.0
  0
LINE
  5
5F6
330
1F
100
AcDbEntity
  8
AM_VIS
100
AcDbLine
 10
309.3061941025399
 20
244.9589672237063
 30
0.0
 11
318.5437984095739
 21
244.9589672237063
 31
0.0
  0
LINE
  5
5F7
330
1F
100
AcDbEntity
  8
AM_VIS
100
AcDbLine
 10
309.3061941025399
 20
249.9589672237064
 30
0.0
 11
309.3061941025399
 21
244.9589672237063
 31
0.0
  0
LINE
  5
5F8
330
1F
100
AcDbEntity
  8
AM_VIS
100
AcDbLine
 10
304.6773919490229
 20
244.9589672237063
 30
0.0
 11
309.3061941025399
 21
244.9589672237063
 31
0.0
  0
LINE
  5
5F9
330
1F
100
AcDbEntity
  8
AM_VIS
100
AcDbLine
 10
304.6773919490229
 20
249.9589672237064
 30
0.0
 11
304.6773919490229
 21
244.9589672237063
 31
0.0
  0
LINE
  5
5FA
330
1F
100
AcDbEntity
  8
AM_VIS
100
AcDbLine
 10
318.5437984095739
 20
249.9589672237064
 30
0.0
 11
323.172600563091
 21
249.9589672237064
 31
0.0
  0
LINE
  5
5FB
330
1F
100
AcDbEntity
  8
AM_VIS
100
AcDbLine
 10
309.3061941025399
 20
249.9589672237064
 30
0.0
 11
318.5437984095739
 21
249.9589672237064
 31
0.0
  0
LINE
  5
5FC
330
1F
100
AcDbEntity
  8
AM_VIS
100
AcDbLine
 10
304.6773919490229
 20
249.9589672237064
 30
0.0
 11
309.3061941025399
 21
249.9589672237064
 31
0.0
  0
LINE
  5
5FD
330
1F
100
AcDbEntity
  8
AM_VIS
100
AcDbLine
 10
283.6249962560568
 20
263.7089672237063
 30
0.0
 11
283.6249962560568
 21
261.7089672237063
 31
0.0
  0
LINE
  5
5FE
330
1F
100
AcDbEntity
  8
AM_VIS
100
AcDbLine
 10
269.6249962560569
 20
263.7089672237063
 30
0.0
 11
269.6249962560569
 21
261.7089672237063
 31
0.0
  0
LINE
  5
5FF
330
1F
100
AcDbEntity
  8
AM_VIS
100
AcDbLine
 10
262.6249962560569
 20
263.7089672237063
 30
0.0
 11
262.6249962560569
 21
261.7089672237063
 31
0.0
  0
LINE
  5
600
330
1F
100
AcDbEntity
  8
AM_VIS
100
AcDbLine
 10
283.4798494816007
 20
261.7089672237063
 30
0.0
 11
283.624996256057
 21
261.7089672237063
 31
0.0
  0
LINE
  5
601
330
1F
100
AcDbEntity
  8
AM_VIS
100
AcDbLine
 10
292.174996256057
 20
253.7089672237063
 30
0.0
 11
254.1749962560569
 21
253.7089672237063
 31
0.0
  0
LINE
  5
602
330
1F
100
AcDbEntity
  8
AM_VIS
100
AcDbLine
 10
254.1749962560569
 20
242.7089672237063
 30
0.0
 11
292.174996256057
 21
242.7089672237063
 31
0.0
  0
LINE
  5
603
330
1F
100
AcDbEntity
  8
AM_VIS
100
AcDbLine
 10
275.8924031141525
 20
242.7089672237063
 30
0.0
 11
275.8924031141525
 21
237.3905006405292
 31
0.0
  0
SPLINE
  5
604
330
1F
100
AcDbEntity
  8
AM_VIS
100
AcDbSpline
210
0.0
220
0.0
230
1.0
 70
     8
 71
     3
 72
    20
 73
    16
 74
     0
 42
0.0000000001
 43
0.0000000001
 40
-2.38466553109085
 40
-2.38466553109085
 40
-2.38466553109085
 40
-2.38466553109085
 40
-2.270067767168305
 40
-2.270067767168305
 40
-2.156068514039559
 40
-2.156068514039559
 40
-1.914138896377738
 40
-1.914138896377738
 40
-1.423188146588098
 40
-1.423188146588098
 40
-0.6523758357008916
 40
-0.6523758357008916
 40
-0.0740964540966533
 40
-0.0740964540966533
 40
0.0
 40
0.0
 40
0.0
 40
0.0
 10
275.8924031141525
 20
237.3905006405292
 30
0.0
 10
275.8924031141525
 20
237.3683718914631
 30
0.0
 10
275.8946329452294
 20
237.3465878544074
 30
0.0
 10
275.9037859123247
 20
237.3036268553798
 30
0.0
 10
275.910548056263
 20
237.2830867008987
 30
0.0
 10
275.9375210172611
 20
237.2212989693302
 30
0.0
 10
275.9638324677236
 20
237.1838029773717
 30
0.0
 10
276.0510965043124
 20
237.0834399426447
 30
0.0
 10
276.1315047407125
 20
237.0208089958877
 30
0.0
 10
276.35725112004
 20
236.8744767828021
 30
0.0
 10
276.5283249165025
 20
236.788858758975
 30
0.0
 10
276.802939004992
 20
236.6941504181558
 30
0.0
 10
276.9040395081431
 20
236.6745860729967
 30
0.0
 10
276.9920151324761
 20
236.6866918597728
 30
0.0
 10
277.0016228937726
 20
236.688571640886
 30
0.0
 10
277.0108397817107
 20
236.6909803667671
 30
0.0
  0
LINE
  5
605
330
1F
100
AcDbEntity
  8
AM_VIS
100
AcDbLine
 10
277.1749962560569
 20
218.313835275328
 30
0.0
 11
277.1749962560569
 21
236.7338807417045
 31
0.0
  0
LINE
  5
606
330
1F
100
AcDbEntity
  8
AM_VIS
100
AcDbLine
 10
269.174996256057
 20
234.6431742930743
 30
0.0
 11
269.174996256057
 21
218.313835275328
 31
0.0
  0
LINE
  5
607
330
1F
100
AcDbEntity
  8
AM_VIS
100
AcDbLine
 10
277.0108397817106
 20
236.690980366767
 30
0.0
 11
277.1749962560569
 21
236.7338807417045
 31
0.0
  0
LINE
  5
608
330
1F
100
AcDbEntity
  8
AM_VIS
100
AcDbLine
 10
283.924996256057
 20
238.4979143077364
 30
0.0
 11
277.1749962560569
 21
236.7338807417045
 31
0.0
  0
SPLINE
  5
609
330
1F
100
AcDbEntity
  8
AM_VIS
100
AcDbSpline
210
0.0
220
0.0
230
1.0
 70
     8
 71
     3
 72
    26
 73
    22
 74
     0
 42
0.0000000001
 43
0.0000000001
 40
-1.949480437248243
 40
-1.949480437248243
 40
-1.949480437248243
 40
-1.949480437248243
 40
-1.72895714526112
 40
-1.72895714526112
 40
-1.483691498340078
 40
-1.483691498340078
 40
-0.9323295067069672
 40
-0.9323295067069672
 40
-0.4432174973588412
 40
-0.4432174973588412
 40
-0.199736057791112
 40
-0.199736057791112
 40
-0.0942224256168885
 40
-0.0942224256168885
 40
-0.0458788303405865
 40
-0.0458788303405865
 40
-0.0226611112231074
 40
-0.0226611112231074
 40
-0.0112522071112121
 40
-0.0112522071112121
 40
0.0
 40
0.0
 40
0.0
 40
0.0
 10
269.2883828115965
 20
234.6728065434311
 30
0.0
 10
269.3188903518211
 20
234.6807793323161
 30
0.0
 10
269.3550735832427
 20
234.700478478217
 30
0.0
 10
269.4405562788142
 20
234.7592791203717
 30
0.0
 10
269.4909874705091
 20
234.8003984878858
 30
0.0
 10
269.6657283727288
 20
234.9547645769004
 30
0.0
 10
269.8082012970988
 20
235.0968627613583
 30
0.0
 10
270.0785757531024
 20
235.3895567591175
 30
0.0
 10
270.1987793374307
 20
235.530065079129
 30
0.0
 10
270.3325529093401
 20
235.7190587828225
 30
0.0
 10
270.3779341175113
 20
235.7901292014347
 30
0.0
 10
270.4246180004111
 20
235.893821389595
 30
0.0
 10
270.4369735858003
 20
235.926907896955
 30
0.0
 10
270.4493489897882
 20
235.976306621311
 30
0.0
 10
270.4524460603221
 20
235.9920726890365
 30
0.0
 10
270.4555400319547
 20
236.0156781801739
 30
0.0
 10
270.4563103406304
 20
236.0233683333735
 30
0.0
 10
270.4570794988701
 20
236.0348790113689
 30
0.0
 10
270.4572712714208
 20
236.0386755458717
 30
0.0
 10
270.4575253902464
 20
236.0462239930386
 30
0.0
 10
270.4575893979613
 20
236.0499734244084
 30
0.0
 10
270.4575893979613
 20
236.0537241601122
 30
0.0
  0
LINE
  5
60A
330
1F
100
AcDbEntity
  8
AM_VIS
100
AcDbLine
 10
269.174996256057
 20
234.6431742930743
 30
0.0
 11
269.2883828115966
 21
234.6728065434311
 31
0.0
  0
LINE
  5
60B
330
1F
100
AcDbEntity
  8
AM_VIS
100
AcDbLine
 10
269.174996256057
 20
234.6431742930743
 30
0.0
 11
262.4249962560569
 21
232.8791407270425
 31
0.0
  0
LINE
  5
60C
330
1F
100
AcDbEntity
  8
AM_VIS
100
AcDbLine
 10
270.4575893979613
 20
236.0537241601122
 30
0.0
 11
270.4575893979613
 21
242.7089672237063
 31
0.0
  0
LINE
  5
60D
330
1F
100
AcDbEntity
  8
AM_VIS
100
AcDbLine
 10
254.1749962560569
 20
253.7089672237063
 30
0.0
 11
254.1749962560569
 21
242.7089672237063
 31
0.0
  0
LINE
  5
60E
330
1F
100
AcDbEntity
  8
AM_VIS
100
AcDbLine
 10
262.0020949087037
 20
242.7089672237063
 30
0.0
 11
262.0020949087037
 21
233.9739645301065
 31
0.0
  0
ARC
  5
60F
330
1F
100
AcDbEntity
  8
AM_VIS
100
AcDbCircle
 10
262.7340535139238
 20
233.996785353208
 30
0.0
 40
0.732314269779487
100
AcDbArc
 50
181.7857750720681
 51
245.0372987102731
  0
LINE
  5
610
330
1F
100
AcDbEntity
  8
AM_VIS
100
AcDbLine
 10
245.1749962560569
 20
244.2089672237063
 30
0.0
 11
245.1749962560569
 21
231.5398024152979
 31
0.0
  0
LINE
  5
611
330
1F
100
AcDbEntity
  8
AM_VIS
100
AcDbLine
 10
254.1749962560569
 20
244.2089672237063
 30
0.0
 11
245.1749962560569
 21
244.2089672237063
 31
0.0
  0
LINE
  5
612
330
1F
100
AcDbEntity
  8
AM_VIS
100
AcDbLine
 10
262.4249962560569
 20
231.5398024152979
 30
0.0
 11
262.4249962560569
 21
233.3328818955559
 31
0.0
  0
LINE
  5
613
330
1F
100
AcDbEntity
  8
AM_VIS
100
AcDbLine
 10
292.174996256057
 20
253.7089672237063
 30
0.0
 11
292.174996256057
 21
242.7089672237063
 31
0.0
  0
LINE
  5
614
330
1F
100
AcDbEntity
  8
AM_VIS
100
AcDbLine
 10
292.174996256057
 20
244.243835275328
 30
0.0
 11
301.1749962560569
 21
244.243835275328
 31
0.0
  0
LINE
  5
615
330
1F
100
AcDbEntity
  8
AM_VIS
100
AcDbLine
 10
301.1749962560569
 20
231.483835275328
 30
0.0
 11
301.1749962560569
 21
244.243835275328
 31
0.0
  0
LINE
  5
616
330
1F
100
AcDbEntity
  8
AM_VIS
100
AcDbLine
 10
283.924996256057
 20
231.483835275328
 30
0.0
 11
283.924996256057
 21
238.6674691210329
 31
0.0
  0
ARC
  5
617
330
1F
100
AcDbEntity
  8
AM_VIS
100
AcDbCircle
 10
283.3279075084833
 20
239.58652402097
 30
0.0
 40
1.095982153858963
100
AcDbArc
 50
303.0108521445053
 51
354.8348936033727
  0
LINE
  5
618
330
1F
100
AcDbEntity
  8
AM_VIS
100
AcDbLine
 10
284.4194393280815
 20
239.4878570640781
 30
0.0
 11
284.4194393280815
 21
242.7089672237063
 31
0.0
  0
LINE
  5
619
330
1F
100
AcDbEntity
  8
AM_VIS
100
AcDbLine
 10
307.1749962560569
 20
251.9589672237064
 30
0.0
 11
307.1749962560569
 21
249.9589672237064
 31
0.0
  0
LINE
  5
61A
330
1F
100
AcDbEntity
  8
AM_VIS
100
AcDbLine
 10
320.6749962560569
 20
251.9589672237064
 30
0.0
 11
320.6749962560569
 21
249.9589672237064
 31
0.0
  0
LINE
  5
61B
330
1F
100
AcDbEntity
  8
AM_VIS
100
AcDbLine
 10
277.424996256057
 20
292.7089672237063
 30
0.0
 11
277.424996256057
 21
294.8689672237063
 31
0.0
  0
ARC
  5
61C
330
1F
100
AcDbEntity
  8
AM_VIS
100
AcDbCircle
 10
276.9249962560569
 20
294.8689672237063
 30
0.0
 40
0.5
100
AcDbArc
 50
0.0
 51
90.0
  0
LINE
  5
61D
330
1F
100
AcDbEntity
  8
AM_VIS
100
AcDbLine
 10
268.924996256057
 20
292.7089672237063
 30
0.0
 11
268.924996256057
 21
294.8689672237064
 31
0.0
  0
ARC
  5
61E
330
1F
100
AcDbEntity
  8
AM_VIS
100
AcDbCircle
 10
269.424996256057
 20
294.8689672237064
 30
0.0
 40
0.5
100
AcDbArc
 50
90.0
 51
180.0
  0
LINE
  5
61F
330
1F
100
AcDbEntity
  8
AM_VIS
100
AcDbLine
 10
258.1749962560569
 20
261.7089672237063
 30
0.0
 11
258.1749962560569
 21
253.7089672237063
 31
0.0
  0
LINE
  5
620
330
1F
100
AcDbEntity
  8
AM_VIS
100
AcDbLine
 10
288.174996256057
 20
261.7089672237063
 30
0.0
 11
288.174996256057
 21
253.7089672237063
 31
0.0
  0
LINE
  5
621
330
1F
100
AcDbEntity
  8
AM_VIS
100
AcDbLine
 10
269.174996256057
 20
222.5731930925911
 30
0.0
 11
262.4249962560569
 21
222.5731930925911
 31
0.0
  0
LINE
  5
622
330
1F
100
AcDbEntity
  8
AM_VIS
100
AcDbLine
 10
262.4249962560569
 20
218.3698024152979
 30
0.0
 11
245.1749962560569
 21
218.3698024152979
 31
0.0
  0
LINE
  5
623
330
1F
100
AcDbEntity
  8
AM_VIS
100
AcDbLine
 10
283.924996256057
 20
218.313835275328
 30
0.0
 11
301.1749962560569
 21
218.313835275328
 31
0.0
  0
LINE
  5
624
330
1F
100
AcDbEntity
  8
AM_VIS
100
AcDbLine
 10
283.924996256057
 20
222.5731930925911
 30
0.0
 11
277.1749962560569
 21
222.5731930925911
 31
0.0
  0
LINE
  5
625
330
1F
100
AcDbEntity
  8
AM_VIS
100
AcDbLine
 10
321.424996256057
 20
263.9589672237063
 30
0.0
 11
323.174996256057
 21
263.9589672237063
 31
0.0
  0
LINE
  5
626
330
1F
100
AcDbEntity
  8
AM_VIS
100
AcDbLine
 10
323.174996256057
 20
251.9589672237064
 30
0.0
 11
304.674996256057
 21
251.9589672237064
 31
0.0
  0
LINE
  5
627
330
1F
100
AcDbEntity
  8
AM_VIS
100
AcDbLine
 10
269.424996256057
 20
295.3689672237064
 30
0.0
 11
276.9249962560569
 21
295.3689672237063
 31
0.0
  0
LINE
  5
628
330
1F
100
AcDbEntity
  8
AM_VIS
100
AcDbLine
 10
258.1749962560569
 20
261.7089672237063
 30
0.0
 11
283.4798494816007
 21
261.7089672237063
 31
0.0
  0
LINE
  5
629
330
1F
100
AcDbEntity
  8
AM_VIS
100
AcDbLine
 10
283.624996256057
 20
261.7089672237063
 30
0.0
 11
288.174996256057
 21
261.7089672237063
 31
0.0
  0
LINE
  5
62A
330
1F
100
AcDbEntity
  8
AM_VIS
100
AcDbLine
 10
245.1749962560569
 20
218.3698024152979
 30
0.0
 11
245.1749962560569
 21
231.5398024152979
 31
0.0
  0
LINE
  5
62B
330
1F
100
AcDbEntity
  8
AM_VIS
100
AcDbLine
 10
262.4249962560569
 20
231.5398024152979
 30
0.0
 11
262.4249962560569
 21
218.3698024152979
 31
0.0
  0
LINE
  5
62C
330
1F
100
AcDbEntity
  8
AM_VIS
100
AcDbLine
 10
301.1749962560569
 20
231.483835275328
 30
0.0
 11
301.1749962560569
 21
218.313835275328
 31
0.0
  0
LINE
  5
62D
330
1F
100
AcDbEntity
  8
AM_VIS
100
AcDbLine
 10
283.924996256057
 20
231.483835275328
 30
0.0
 11
283.924996256057
 21
218.313835275328
 31
0.0
  0
LINE
  5
62E
330
1F
100
AcDbEntity
  8
AM_VIS
100
AcDbLine
 10
378.12178513319
 20
262.7089672237064
 30
0.0
 11
375.62178513319
 21
262.7089672237064
 31
0.0
  0
LINE
  5
62F
330
1F
100
AcDbEntity
  8
AM_VIS
100
AcDbLine
 10
357.62178513319
 20
262.7089672237064
 30
0.0
 11
355.12178513319
 21
262.7089672237064
 31
0.0
  0
LINE
  5
630
330
1F
100
AcDbEntity
  8
AM_VIS
100
AcDbLine
 10
378.12178513319
 20
293.7089672237064
 30
0.0
 11
378.12178513319
 21
262.7089672237064
 31
0.0
  0
LINE
  5
631
330
1F
100
AcDbEntity
  8
AM_VIS
100
AcDbLine
 10
355.12178513319
 20
293.7089672237064
 30
0.0
 11
378.12178513319
 21
293.7089672237064
 31
0.0
  0
LINE
  5
632
330
1F
100
AcDbEntity
  8
AM_VIS
100
AcDbLine
 10
355.12178513319
 20
262.7089672237064
 30
0.0
 11
355.12178513319
 21
293.7089672237064
 31
0.0
  0
LINE
  5
633
330
1F
100
AcDbEntity
  8
AM_VIS
100
AcDbLine
 10
376.87178513319
 20
292.4589672237063
 30
0.0
 11
376.87178513319
 21
263.9589672237063
 31
0.0
  0
LINE
  5
634
330
1F
100
AcDbEntity
  8
AM_VIS
100
AcDbLine
 10
356.37178513319
 20
292.4589672237063
 30
0.0
 11
376.87178513319
 21
292.4589672237063
 31
0.0
  0
LINE
  5
635
330
1F
100
AcDbEntity
  8
AM_VIS
100
AcDbLine
 10
356.37178513319
 20
263.9589672237063
 30
0.0
 11
356.37178513319
 21
292.4589672237063
 31
0.0
  0
LINE
  5
636
330
1F
100
AcDbEntity
  8
AM_VIS
100
AcDbLine
 10
376.87178513319
 20
263.9589672237063
 30
0.0
 11
371.5967223187231
 21
263.9589672237063
 31
0.0
  0
LINE
  5
637
330
1F
100
AcDbEntity
  8
AM_VIS
100
AcDbLine
 10
361.6468479476568
 20
263.9589672237063
 30
0.0
 11
356.37178513319
 21
263.9589672237063
 31
0.0
  0
LINE
  5
638
330
1F
100
AcDbEntity
  8
AM_VIS
100
AcDbLine
 10
374.5217851331899
 20
249.9589672237064
 30
0.0
 11
374.5217851331899
 21
244.243835275328
 31
0.0
  0
LINE
  5
639
330
1F
100
AcDbEntity
  8
AM_VIS
100
AcDbLine
 10
358.52178513319
 20
249.9589672237064
 30
0.0
 11
358.52178513319
 21
244.243835275328
 31
0.0
  0
LINE
  5
63A
330
1F
100
AcDbEntity
  8
AM_VIS
100
AcDbLine
 10
366.5217851331899
 20
249.9589672237064
 30
0.0
 11
374.5217851331899
 21
249.9589672237064
 31
0.0
  0
LINE
  5
63B
330
1F
100
AcDbEntity
  8
AM_VIS
100
AcDbLine
 10
358.52178513319
 20
249.9589672237064
 30
0.0
 11
366.5217851331899
 21
249.9589672237064
 31
0.0
  0
LINE
  5
63C
330
1F
100
AcDbEntity
  8
AM_VIS
100
AcDbLine
 10
355.82178513319
 20
262.7089672237064
 30
0.0
 11
355.82178513319
 21
261.7089672237063
 31
0.0
  0
LINE
  5
63D
330
1F
100
AcDbEntity
  8
AM_VIS
100
AcDbLine
 10
377.42178513319
 20
262.7089672237064
 30
0.0
 11
377.42178513319
 21
261.7089672237063
 31
0.0
  0
LINE
  5
63E
330
1F
100
AcDbEntity
  8
AM_VIS
100
AcDbLine
 10
355.72178513319
 20
261.7089672237063
 30
0.0
 11
355.8608604517325
 21
261.7089672237063
 31
0.0
  0
LINE
  5
63F
330
1F
100
AcDbEntity
  8
AM_VIS
100
AcDbLine
 10
349.8403757773708
 20
242.7089672237063
 30
0.0
 11
349.8403757773708
 21
237.3905006405292
 31
0.0
  0
SPLINE
  5
640
330
1F
100
AcDbEntity
  8
AM_VIS
100
AcDbSpline
210
0.0
220
0.0
230
1.0
 70
     8
 71
     3
 72
    20
 73
    16
 74
     0
 42
0.0000000001
 43
0.0000000001
 40
-2.38466553109085
 40
-2.38466553109085
 40
-2.38466553109085
 40
-2.38466553109085
 40
-2.270067767168305
 40
-2.270067767168305
 40
-2.156068514039559
 40
-2.156068514039559
 40
-1.914138896377738
 40
-1.914138896377738
 40
-1.423188146588098
 40
-1.423188146588098
 40
-0.6523758357008916
 40
-0.6523758357008916
 40
-0.0740964540966533
 40
-0.0740964540966533
 40
0.0
 40
0.0
 40
0.0
 40
0.0
 10
349.8403757773708
 20
237.3905006405292
 30
0.0
 10
349.8403757773708
 20
237.3683718914631
 30
0.0
 10
349.8414327984979
 20
237.3465878544074
 30
0.0
 10
349.8458294449264
 20
237.3036268553798
 30
0.0
 10
349.8490937603663
 20
237.2830867008987
 30
0.0
 10
349.8623794279733
 20
237.2212989693302
 30
0.0
 10
349.8756913790432
 20
237.1838029773717
 30
0.0
 10
349.9227318965759
 20
237.0834399426447
 30
0.0
 10
349.9695840683096
 20
237.0208089958877
 30
0.0
 10
350.1283483749636
 20
236.8744767828021
 30
0.0
 10
350.273257059965
 20
236.788858758975
 30
0.0
 10
350.6181722089551
 20
236.6941504181558
 30
0.0
 10
350.7841593623409
 20
236.6745860729967
 30
0.0
 10
350.9826613402791
 20
236.6866918597728
 30
0.0
 10
351.0053406530404
 20
236.688571640886
 30
0.0
 10
351.0281283389377
 20
236.6909803667671
 30
0.0
  0
LINE
  5
641
330
1F
100
AcDbEntity
  8
AM_VIS
100
AcDbLine
 10
349.62178513319
 20
242.7089672237063
 30
0.0
 11
349.62178513319
 21
218.313835275328
 31
0.0
  0
LINE
  5
642
330
1F
100
AcDbEntity
  8
AM_VIS
100
AcDbLine
 10
383.62178513319
 20
218.313835275328
 30
0.0
 11
383.62178513319
 21
242.7089672237063
 31
0.0
  0
LINE
  5
643
330
1F
100
AcDbEntity
  8
AM_VIS
100
AcDbLine
 10
351.87178513319
 20
236.7338807417045
 30
0.0
 11
353.87178513319
 21
236.7338807417045
 31
0.0
  0
ELLIPSE
  5
644
330
1F
100
AcDbEntity
  8
AM_VIS
100
AcDbEllipse
 10
351.87178513319
 20
236.1458695530273
 30
0.0
 11
2.25
 21
0.0000000000000001
 31
0.0
210
0.0
220
0.0
230
1.0
 40
0.2613383060787852
 41
1.570796326794896
 42
1.955148415968423
  0
ELLIPSE
  5
645
330
1F
100
AcDbEntity
  8
AM_VIS
100
AcDbEllipse
 10
381.37178513319
 20
236.1458695530273
 30
0.0
 11
2.25
 21
-0.0000000000000001
 31
0.0
210
0.0
220
0.0
230
1.0
 40
0.2613383060787852
 41
1.186444237621156
 42
1.570796326794896
  0
LINE
  5
646
330
1F
100
AcDbEntity
  8
AM_VIS
100
AcDbLine
 10
379.37178513319
 20
236.7338807417045
 30
0.0
 11
381.37178513319
 21
236.7338807417045
 31
0.0
  0
SPLINE
  5
647
330
1F
100
AcDbEntity
  8
AM_VIS
100
AcDbSpline
210
0.0
220
0.0
230
1.0
 70
     8
 71
     3
 72
    26
 73
    22
 74
     0
 42
0.0000000001
 43
0.0000000001
 40
-1.423607832755157
 40
-1.423607832755157
 40
-1.423607832755157
 40
-1.423607832755157
 40
-1.2296106355482
 40
-1.2296106355482
 40
-1.024694434646355
 40
-1.024694434646355
 40
-0.5937089521659189
 40
-0.5937089521659189
 40
-0.3203285092882173
 40
-0.3203285092882173
 40
-0.1674931680904883
 40
-0.1674931680904883
 40
-0.0832254317590847
 40
-0.0832254317590847
 40
-0.0418826486565027
 40
-0.0418826486565027
 40
-0.0210802319667795
 40
-0.0210802319667795
 40
-0.0105964069758096
 40
-0.0105964069758096
 40
0.0
 40
0.0
 40
0.0
 40
0.0
 10
382.2154419274422
 20
236.6909803667671
 30
0.0
 10
382.3145286407462
 20
236.6805066077429
 30
0.0
 10
382.4112737626526
 20
236.6800098025916
 30
0.0
 10
382.6017863734321
 20
236.695631791005
 30
0.0
 10
382.6946950396023
 20
236.7126474411289
 30
0.0
 10
382.9630510921001
 20
236.7880601963749
 30
0.0
 10
383.0999196180718
 20
236.866085390167
 30
0.0
 10
383.2552699234705
 20
237.0007254333795
 30
0.0
 10
383.3018916449181
 20
237.0574873215497
 30
0.0
 10
383.3539225403517
 20
237.1507997227004
 30
0.0
 10
383.3706251071447
 20
237.1892336656047
 30
0.0
 10
383.389277720665
 20
237.2563798488973
 30
0.0
 10
383.3944926562702
 20
237.2816512647577
 30
0.0
 10
383.3997374111343
 20
237.321744991499
 30
0.0
 10
383.4010308229181
 20
237.3351433228069
 30
0.0
 10
383.4023293814025
 20
237.3556383696363
 30
0.0
 10
383.4026530868082
 20
237.362525122793
 30
0.0
 10
383.4029775111609
 20
237.3729265926248
 30
0.0
 10
383.403058658961
 20
237.3764153816575
 30
0.0
 10
383.4031674596178
 20
237.3834375758244
 30
0.0
 10
383.4031944890091
 20
237.3869685048707
 30
0.0
 10
383.4031944890091
 20
237.3905006405292
 30
0.0
  0
LINE
  5
648
330
1F
100
AcDbEntity
  8
AM_VIS
100
AcDbLine
 10
383.4031944890091
 20
237.3905006405292
 30
0.0
 11
383.4031944890091
 21
242.7089672237063
 31
0.0
  0
LINE
  5
649
330
1F
100
AcDbEntity
  8
AM_VIS
100
AcDbLine
 10
347.62178513319
 20
242.7089672237063
 30
0.0
 11
353.87178513319
 21
242.7089672237063
 31
0.0
  0
LINE
  5
64A
330
1F
100
AcDbEntity
  8
AM_VIS
100
AcDbLine
 10
347.62178513319
 20
253.7089672237063
 30
0.0
 11
347.62178513319
 21
242.7089672237063
 31
0.0
  0
LINE
  5
64B
330
1F
100
AcDbEntity
  8
AM_VIS
100
AcDbLine
 10
385.62178513319
 20
253.7089672237063
 30
0.0
 11
375.52178513319
 21
253.7089672237063
 31
0.0
  0
LINE
  5
64C
330
1F
100
AcDbEntity
  8
AM_VIS
100
AcDbLine
 10
357.5217851331899
 20
253.7089672237063
 30
0.0
 11
347.62178513319
 21
253.7089672237063
 31
0.0
  0
LINE
  5
64D
330
1F
100
AcDbEntity
  8
AM_VIS
100
AcDbLine
 10
385.62178513319
 20
253.7089672237063
 30
0.0
 11
385.62178513319
 21
242.7089672237063
 31
0.0
  0
LINE
  5
64E
330
1F
100
AcDbEntity
  8
AM_VIS
100
AcDbLine
 10
379.37178513319
 20
242.7089672237063
 30
0.0
 11
385.62178513319
 21
242.7089672237063
 31
0.0
  0
LINE
  5
64F
330
1F
100
AcDbEntity
  8
AM_VIS
100
AcDbLine
 10
379.37178513319
 20
244.243835275328
 30
0.0
 11
379.37178513319
 21
231.063835275328
 31
0.0
  0
LINE
  5
650
330
1F
100
AcDbEntity
  8
AM_VIS
100
AcDbLine
 10
353.87178513319
 20
244.243835275328
 30
0.0
 11
379.37178513319
 21
244.243835275328
 31
0.0
  0
LINE
  5
651
330
1F
100
AcDbEntity
  8
AM_VIS
100
AcDbLine
 10
353.87178513319
 20
231.063835275328
 30
0.0
 11
353.87178513319
 21
244.243835275328
 31
0.0
  0
LINE
  5
652
330
1F
100
AcDbEntity
  8
AM_VIS
100
AcDbLine
 10
357.5217851331899
 20
263.9589672237063
 30
0.0
 11
357.5217851331899
 21
251.9589672237064
 31
0.0
  0
LINE
  5
653
330
1F
100
AcDbEntity
  8
AM_VIS
100
AcDbLine
 10
375.52178513319
 20
263.9589672237063
 30
0.0
 11
375.52178513319
 21
251.9589672237064
 31
0.0
  0
LINE
  5
654
330
1F
100
AcDbEntity
  8
AM_VIS
100
AcDbLine
 10
359.7717851331899
 20
251.9589672237064
 30
0.0
 11
359.7717851331899
 21
249.9589672237064
 31
0.0
  0
LINE
  5
655
330
1F
100
AcDbEntity
  8
AM_VIS
100
AcDbLine
 10
373.27178513319
 20
251.9589672237064
 30
0.0
 11
373.27178513319
 21
249.9589672237064
 31
0.0
  0
LINE
  5
656
330
1F
100
AcDbEntity
  8
AM_VIS
100
AcDbLine
 10
370.97178513319
 20
293.7089672237064
 30
0.0
 11
370.97178513319
 21
294.8689672237064
 31
0.0
  0
ARC
  5
657
330
1F
100
AcDbEntity
  8
AM_VIS
100
AcDbCircle
 10
370.47178513319
 20
294.8689672237064
 30
0.0
 40
0.5
100
AcDbArc
 50
0.0
 51
90.0
  0
LINE
  5
658
330
1F
100
AcDbEntity
  8
AM_VIS
100
AcDbLine
 10
362.47178513319
 20
293.7089672237064
 30
0.0
 11
362.47178513319
 21
294.8689672237064
 31
0.0
  0
ARC
  5
659
330
1F
100
AcDbEntity
  8
AM_VIS
100
AcDbCircle
 10
362.97178513319
 20
294.8689672237064
 30
0.0
 40
0.5
100
AcDbArc
 50
90.0
 51
180.0
  0
LINE
  5
65A
330
1F
100
AcDbEntity
  8
AM_VIS
100
AcDbLine
 10
351.62178513319
 20
261.7089672237063
 30
0.0
 11
351.62178513319
 21
253.7089672237063
 31
0.0
  0
LINE
  5
65B
330
1F
100
AcDbEntity
  8
AM_VIS
100
AcDbLine
 10
381.62178513319
 20
261.7089672237063
 30
0.0
 11
381.62178513319
 21
253.7089672237063
 31
0.0
  0
LINE
  5
65C
330
1F
100
AcDbEntity
  8
AM_VIS
100
AcDbLine
 10
361.6468479476568
 20
263.9589672237063
 30
0.0
 11
371.5967223187231
 21
263.9589672237063
 31
0.0
  0
LINE
  5
65D
330
1F
100
AcDbEntity
  8
AM_VIS
100
AcDbLine
 10
375.52178513319
 20
251.9589672237064
 30
0.0
 11
357.5217851331899
 21
251.9589672237064
 31
0.0
  0
CIRCLE
  5
65E
330
1F
100
AcDbEntity
  8
AM_VIS
100
AcDbCircle
 10
366.62178513319
 20
281.9589672237063
 30
0.0
 40
3.5
  0
CIRCLE
  5
65F
330
1F
100
AcDbEntity
  8
AM_VIS
100
AcDbCircle
 10
366.62178513319
 20
281.9589672237063
 30
0.0
 40
2.5
  0
LINE
  5
660
330
1F
100
AcDbEntity
  8
AM_VIS
100
AcDbLine
 10
362.97178513319
 20
295.3689672237064
 30
0.0
 11
370.47178513319
 21
295.3689672237064
 31
0.0
  0
LINE
  5
661
330
1F
100
AcDbEntity
  8
AM_VIS
100
AcDbLine
 10
351.62178513319
 20
261.7089672237063
 30
0.0
 11
355.72178513319
 21
261.7089672237063
 31
0.0
  0
LINE
  5
662
330
1F
100
AcDbEntity
  8
AM_VIS
100
AcDbLine
 10
375.52178513319
 20
261.7089672237063
 30
0.0
 11
381.62178513319
 21
261.7089672237063
 31
0.0
  0
LINE
  5
663
330
1F
100
AcDbEntity
  8
AM_VIS
100
AcDbLine
 10
355.8608604517325
 20
261.7089672237063
 30
0.0
 11
357.5217851331899
 21
261.7089672237063
 31
0.0
  0
ARC
  5
664
330
1F
100
AcDbEntity
  8
AM_VIS
100
AcDbCircle
 10
366.62178513319
 20
231.063835275328
 30
0.0
 40
12.75
100
AcDbArc
 50
180.0
 51
0.0
  0
CIRCLE
  5
665
330
1F
100
AcDbEntity
  8
AM_VIS
100
AcDbCircle
 10
366.62178513319
 20
231.4589672237064
 30
0.0
 40
9.0
  0
LINE
  5
666
330
1F
100
AcDbEntity
  8
AM_VIS
100
AcDbLine
 10
321.424996256057
 20
163.8477882419808
 30
0.0
 11
321.424996256057
 21
169.053309380133
 31
0.0
  0
LINE
  5
667
330
1F
100
AcDbEntity
  8
AM_VIS
100
AcDbLine
 10
300.9249962560569
 20
163.8477882419808
 30
0.0
 11
321.424996256057
 21
163.8477882419808
 31
0.0
  0
LINE
  5
668
330
1F
100
AcDbEntity
  8
AM_VIS
100
AcDbLine
 10
300.9249962560569
 20
184.3477882419808
 30
0.0
 11
321.424996256057
 21
184.3477882419808
 31
0.0
  0
LINE
  5
669
330
1F
100
AcDbEntity
  8
AM_VIS
100
AcDbLine
 10
321.424996256057
 20
179.0677446979976
 30
0.0
 11
321.424996256057
 21
184.3477882419808
 31
0.0
  0
LINE
  5
66A
330
1F
100
AcDbEntity
  8
AM_VIS
100
AcDbLine
 10
318.5653111751075
 20
166.0605270390653
 30
0.0
 11
309.3277068680735
 21
166.0605270390653
 31
0.0
  0
LINE
  5
66B
330
1F
100
AcDbEntity
  8
AM_VIS
100
AcDbLine
 10
323.1841133286246
 20
174.0605270390652
 30
0.0
 11
318.5653111751075
 21
166.0605270390653
 31
0.0
  0
LINE
  5
66C
330
1F
100
AcDbEntity
  8
AM_VIS
100
AcDbLine
 10
318.5653111751075
 20
182.0605270390652
 30
0.0
 11
323.1841133286246
 21
174.0605270390652
 31
0.0
  0
LINE
  5
66D
330
1F
100
AcDbEntity
  8
AM_VIS
100
AcDbLine
 10
309.3277068680735
 20
182.0605270390652
 30
0.0
 11
318.5653111751075
 21
182.0605270390652
 31
0.0
  0
LINE
  5
66E
330
1F
100
AcDbEntity
  8
AM_VIS
100
AcDbLine
 10
304.7089047145565
 20
174.0605270390652
 30
0.0
 11
309.3277068680735
 21
182.0605270390652
 31
0.0
  0
LINE
  5
66F
330
1F
100
AcDbEntity
  8
AM_VIS
100
AcDbLine
 10
309.3277068680735
 20
166.0605270390653
 30
0.0
 11
304.7089047145565
 21
174.0605270390652
 31
0.0
  0
ARC
  5
670
330
1F
100
AcDbEntity
  8
AM_VIS
100
AcDbCircle
 10
273.174996256057
 20
173.9977882419808
 30
0.0
 40
17.0
100
AcDbArc
 50
228.2716971868337
 51
256.3910393692164
  0
LINE
  5
671
330
1F
100
AcDbEntity
  8
AM_VIS
100
AcDbLine
 10
269.1739246814275
 20
157.4697832189551
 30
0.0
 11
270.4563338159231
 21
157.2101765423091
 31
0.0
  0
ARC
  5
672
330
1F
100
AcDbEntity
  8
AM_VIS
100
AcDbCircle
 10
273.174996256057
 20
173.9977882419808
 30
0.0
 40
17.0
100
AcDbArc
 50
48.59037789072903
 51
76.39103936921792
  0
LINE
  5
673
330
1F
100
AcDbEntity
  8
AM_VIS
100
AcDbLine
 10
275.8937706701644
 20
190.7859566469887
 30
0.0
 11
277.1762065842954
 21
190.5264818458407
 31
0.0
  0
LINE
  5
674
330
1F
100
AcDbEntity
  8
AM_VIS
100
AcDbLine
 10
254.1749962560569
 20
192.9977882419808
 30
0.0
 11
292.174996256057
 21
192.9977882419808
 31
0.0
  0
LINE
  5
675
330
1F
100
AcDbEntity
  8
AM_VIS
100
AcDbLine
 10
269.174996256057
 20
159.2477882419808
 30
0.0
 11
269.174996256057
 21
188.7477882419808
 31
0.0
  0
LINE
  5
676
330
1F
100
AcDbEntity
  8
AM_VIS
100
AcDbLine
 10
271.424996256057
 20
190.9977882419808
 30
0.0
 11
274.9249962560569
 21
190.9977882419808
 31
0.0
  0
LINE
  5
677
330
1F
100
AcDbEntity
  8
AM_VIS
100
AcDbLine
 10
277.1749962560569
 20
188.7477882419808
 30
0.0
 11
277.1749962560569
 21
159.2477882419808
 31
0.0
  0
LINE
  5
678
330
1F
100
AcDbEntity
  8
AM_VIS
100
AcDbLine
 10
274.9249962560569
 20
156.9977882419808
 30
0.0
 11
271.424996256057
 21
156.9977882419808
 31
0.0
  0
LINE
  5
679
330
1F
100
AcDbEntity
  8
AM_VIS
100
AcDbLine
 10
269.173627066525
 20
190.5272971124854
 30
0.0
 11
270.4562861206968
 21
190.7856676104247
 31
0.0
  0
ARC
  5
67A
330
1F
100
AcDbEntity
  8
AM_VIS
100
AcDbCircle
 10
273.174996256057
 20
173.9977882419808
 30
0.0
 40
17.0
100
AcDbArc
 50
103.6089606307836
 51
131.0889187438502
  0
LINE
  5
67B
330
1F
100
AcDbEntity
  8
AM_VIS
100
AcDbLine
 10
254.1749962560569
 20
186.8105270390653
 30
0.0
 11
254.1749962560569
 21
192.9977882419808
 31
0.0
  0
LINE
  5
67C
330
1F
100
AcDbEntity
  8
AM_VIS
100
AcDbLine
 10
262.4249962560569
 20
186.8105270390653
 30
0.0
 11
245.1749962560569
 21
186.8105270390653
 31
0.0
  0
LINE
  5
67D
330
1F
100
AcDbEntity
  8
AM_VIS
100
AcDbLine
 10
262.4249962560569
 20
161.3105270390652
 30
0.0
 11
245.1749962560569
 21
161.3105270390652
 31
0.0
  0
LINE
  5
67E
330
1F
100
AcDbEntity
  8
AM_VIS
100
AcDbLine
 10
275.8939341214909
 20
157.2087888695578
 30
0.0
 11
277.1765236992331
 21
157.4675042529643
 31
0.0
  0
ARC
  5
67F
330
1F
100
AcDbEntity
  8
AM_VIS
100
AcDbCircle
 10
273.174996256057
 20
173.9977882419808
 30
0.0
 40
17.0
100
AcDbArc
 50
283.6089606307837
 51
311.409622109271
  0
LINE
  5
680
330
1F
100
AcDbEntity
  8
AM_VIS
100
AcDbLine
 10
292.174996256057
 20
154.9977882419808
 30
0.0
 11
254.1749962560569
 21
154.9977882419808
 31
0.0
  0
LINE
  5
681
330
1F
100
AcDbEntity
  8
AM_VIS
100
AcDbLine
 10
254.1749962560569
 20
154.9977882419808
 30
0.0
 11
254.1749962560569
 21
161.3105270390652
 31
0.0
  0
LINE
  5
682
330
1F
100
AcDbEntity
  8
AM_VIS
100
AcDbLine
 10
292.174996256057
 20
192.9977882419808
 30
0.0
 11
292.174996256057
 21
186.7477882419808
 31
0.0
  0
LINE
  5
683
330
1F
100
AcDbEntity
  8
AM_VIS
100
AcDbLine
 10
292.174996256057
 20
161.2477882419808
 30
0.0
 11
292.174996256057
 21
154.9977882419808
 31
0.0
  0
LINE
  5
684
330
1F
100
AcDbEntity
  8
AM_VIS
100
AcDbLine
 10
283.924996256057
 20
161.2477882419808
 30
0.0
 11
300.9249962560569
 21
161.2477882419808
 31
0.0
  0
LINE
  5
685
330
1F
100
AcDbEntity
  8
AM_VIS
100
AcDbLine
 10
283.924996256057
 20
186.7477882419808
 30
0.0
 11
300.9249962560569
 21
186.7477882419808
 31
0.0
  0
LINE
  5
686
330
1F
100
AcDbEntity
  8
AM_VIS
100
AcDbLine
 10
283.4249962560569
 20
182.9976070241963
 30
0.0
 11
283.924996256057
 21
182.9976070241963
 31
0.0
  0
LINE
  5
687
330
1F
100
AcDbEntity
  8
AM_VIS
100
AcDbLine
 10
283.924996256057
 20
164.9979694597653
 30
0.0
 11
283.4249962560569
 21
164.9979694597653
 31
0.0
  0
LINE
  5
688
330
1F
100
AcDbEntity
  8
AM_VIS
100
AcDbLine
 10
269.174996256057
 20
182.9977882419808
 30
0.0
 11
262.4249962560569
 21
182.9977882419808
 31
0.0
  0
LINE
  5
689
330
1F
100
AcDbEntity
  8
AM_VIS
100
AcDbLine
 10
269.174996256057
 20
164.9977882419808
 30
0.0
 11
262.4249962560569
 21
164.9977882419808
 31
0.0
  0
LINE
  5
68A
330
1F
100
AcDbEntity
  8
AM_VIS
100
AcDbLine
 10
283.924996256057
 20
182.9977882419808
 30
0.0
 11
277.1749962560569
 21
182.9977882419808
 31
0.0
  0
LINE
  5
68B
330
1F
100
AcDbEntity
  8
AM_VIS
100
AcDbLine
 10
283.924996256057
 20
164.9977882419808
 30
0.0
 11
277.1749962560569
 21
164.9977882419808
 31
0.0
  0
ARC
  5
68C
330
1F
100
AcDbEntity
  8
AM_VIS
100
AcDbCircle
 10
313.9465090215905
 20
174.0605270390652
 30
0.0
 40
9.0
100
AcDbArc
 50
122.7339555492673
 51
177.2660444507329
  0
ARC
  5
68D
330
1F
100
AcDbEntity
  8
AM_VIS
100
AcDbCircle
 10
313.9465090215905
 20
174.0605270390652
 30
0.0
 40
9.0
100
AcDbArc
 50
62.73395554926633
 51
117.2660444507318
  0
ARC
  5
68E
330
1F
100
AcDbEntity
  8
AM_VIS
100
AcDbCircle
 10
313.9465090215905
 20
174.0605270390652
 30
0.0
 40
9.0
100
AcDbArc
 50
2.733955549267119
 51
57.26604445073263
  0
ARC
  5
68F
330
1F
100
AcDbEntity
  8
AM_VIS
100
AcDbCircle
 10
313.9465090215905
 20
174.0605270390652
 30
0.0
 40
9.0
100
AcDbArc
 50
302.7339555492674
 51
357.2660444507329
  0
ARC
  5
690
330
1F
100
AcDbEntity
  8
AM_VIS
100
AcDbCircle
 10
313.9465090215905
 20
174.0605270390652
 30
0.0
 40
9.0
100
AcDbArc
 50
242.7339555492681
 51
297.2660444507318
  0
ARC
  5
691
330
1F
100
AcDbEntity
  8
AM_VIS
100
AcDbCircle
 10
313.9465090215905
 20
174.0605270390652
 30
0.0
 40
9.0
100
AcDbArc
 50
182.7339555492671
 51
237.2660444507326
  0
CIRCLE
  5
692
330
1F
100
AcDbEntity
  8
AM_VIS
100
AcDbCircle
 10
258.4249962560569
 20
188.7477882419808
 30
0.0
 40
1.5
  0
CIRCLE
  5
693
330
1F
100
AcDbEntity
  8
AM_VIS
100
AcDbCircle
 10
287.9249962560569
 20
188.7477882419808
 30
0.0
 40
1.5
  0
ARC
  5
694
330
1F
100
AcDbEntity
  8
AM_VIS
100
AcDbCircle
 10
271.424996256057
 20
159.2477882419808
 30
0.0
 40
2.25
100
AcDbArc
 50
180.0
 51
270.0
  0
ARC
  5
695
330
1F
100
AcDbEntity
  8
AM_VIS
100
AcDbCircle
 10
271.424996256057
 20
188.7477882419808
 30
0.0
 40
2.25
100
AcDbArc
 50
90.0
 51
180.0
  0
ARC
  5
696
330
1F
100
AcDbEntity
  8
AM_VIS
100
AcDbCircle
 10
274.9249962560569
 20
188.7477882419808
 30
0.0
 40
2.25
100
AcDbArc
 50
0.0
 51
90.0
  0
ARC
  5
697
330
1F
100
AcDbEntity
  8
AM_VIS
100
AcDbCircle
 10
274.9249962560569
 20
159.2477882419808
 30
0.0
 40
2.25
100
AcDbArc
 50
270.0
 51
0.0
  0
LINE
  5
698
330
1F
100
AcDbEntity
  8
AM_VIS
100
AcDbLine
 10
262.4249962560569
 20
186.8105270390653
 30
0.0
 11
262.4249962560569
 21
161.3105270390652
 31
0.0
  0
CIRCLE
  5
699
330
1F
100
AcDbEntity
  8
AM_VIS
100
AcDbCircle
 10
287.9249962560569
 20
159.2477882419808
 30
0.0
 40
1.5
  0
CIRCLE
  5
69A
330
1F
100
AcDbEntity
  8
AM_VIS
100
AcDbCircle
 10
258.4249962560569
 20
159.2477882419808
 30
0.0
 40
1.5
  0
LINE
  5
69B
330
1F
100
AcDbEntity
  8
AM_VIS
100
AcDbLine
 10
300.9249962560569
 20
186.7477882419808
 30
0.0
 11
300.9249962560569
 21
161.2477882419808
 31
0.0
  0
LINE
  5
69C
330
1F
100
AcDbEntity
  8
AM_VIS
100
AcDbLine
 10
283.924996256057
 20
186.7477882419808
 30
0.0
 11
283.924996256057
 21
161.2477882419808
 31
0.0
  0
LINE
  5
69D
330
1F
100
AcDbEntity
  8
AM_VIS
100
AcDbLine
 10
283.4249962560569
 20
182.9976070241963
 30
0.0
 11
283.4249962560569
 21
164.9979694597653
 31
0.0
  0
LINE
  5
69E
330
1F
100
AcDbEntity
  8
0
100
AcDbLine
 10
277.1749962560569
 20
218.3138352753279
 30
0.0
 11
269.174996256057
 21
218.313835275328
 31
0.0
  0
LINE
  5
69F
330
1F
100
AcDbEntity
  8
0
100
AcDbLine
 10
349.62178513319
 20
218.313835275328
 30
0.0
 11
383.62178513319
 21
218.313835275328
 31
0.0
  0
DIMENSION
  5
6A0
330
1F
100
AcDbEntity
  8
0
100
AcDbDimension
  2
*D11
 10
301.1749962560569
 20
206.8126995022278
 30
0.0
 11
273.174996256057
 21
209.3126995022278
 31
0.0
 70
    32
 71
     5
 42
56.00000000000003
  3
STANDARD
100
AcDbAlignedDimension
 13
245.1749962560569
 23
218.3698024152979
 33
0.0
 14
301.1749962560569
 24
218.313835275328
 34
0.0
100
AcDbRotatedDimension
1001
ACAD
1000
DSTYLE
1002
{
1070
   176
1070
     5
1070
   177
1070
     5
1070
   178
1070
     5
1070
   272
1070
     8
1002
}
  0
DIMENSION
  5
6A1
330
1F
100
AcDbEntity
  8
0
100
AcDbDimension
  2
*D12
 10
237.0670957993616
 20
161.9977882419808
 30
0.0
 11
234.5670957993616
 21
173.9977882419808
 31
0.0
 70
    32
 71
     5
 42
24.0
  3
STANDARD
100
AcDbAlignedDimension
 13
269.6749962560569
 23
185.9977882419808
 33
0.0
 14
269.6749962560569
 24
161.9977882419808
 34
0.0
 50
90.0
100
AcDbRotatedDimension
1001
ACAD
1000
DSTYLE
1002
{
1070
   178
1070
     5
1070
   177
1070
     5
1070
   176
1070
     5
1070
   272
1070
     8
1002
}
  0
DIMENSION
  5
6A2
330
1F
100
AcDbEntity
  8
0
100
AcDbDimension
  2
*D13
 10
331.2606694936956
 20
154.9977882419808
 30
0.0
 11
328.7606694936955
 21
173.9977882419808
 31
0.0
 70
    32
 71
     5
 42
38.0
  3
STANDARD
100
AcDbAlignedDimension
 13
292.174996256057
 23
192.9977882419808
 33
0.0
 14
292.174996256057
 24
154.9977882419808
 34
0.0
 50
90.0
100
AcDbRotatedDimension
1001
ACAD
1000
DSTYLE
1002
{
1070
   176
1070
     5
1070
   177
1070
     5
1070
   178
1070
     5
1070
   272
1070
     8
1002
}
  0
CIRCLE
  5
6A3
330
1F
100
AcDbEntity
  8
0
100
AcDbCircle
 10
273.174996256057
 20
185.9977882419808
 30
0.0
 40
2.0
  0
CIRCLE
  5
6A4
330
1F
100
AcDbEntity
  8
0
100
AcDbCircle
 10
273.174996256057
 20
161.9977882419808
 30
0.0
 40
2.0
  0
LEADER
  5
6A5
330
1F
100
AcDbEntity
  8
0
100
AcDbLeader
  3
STANDARD
 76
     3
 10
271.5878990444595
 20
160.5482281403413
 30
0.0
 10
265.8054212841179
 20
147.5996781385233
 30
0.0
 10
256.7847556595667
 20
147.5996781385233
 30
0.0
1001
ACAD
1000
DSTYLE
1002
{
1070
   176
1070
     5
1070
   177
1070
     5
1070
   178
1070
     5
1070
   272
1070
     8
1002
}
  0
MTEXT
  5
6A6
330
1F
100
AcDbEntity
  8
AM_6
100
AcDbMText
 10
258.4038485966145
 20
151.9158614724626
 30
0.0
 40
3.5
 41
9.406164606267225
 71
     1
 72
     5
  1
{\C5;M4}
 73
     1
 44
1.0
1001
GENIUS_AMGTXT_16
1040
3.5
1040
0.12
1001
ACAD
1000
MTEXTBEGIN
1070
    73
1070
     1
1070
    44
1040
1.0
1070
    74
1070
     0
1000
MTEXTEND
  0
LINE
  5
6A7
330
1F
100
AcDbEntity
  8
AM_7
 62
     1
100
AcDbLine
 10
312.674996256057
 20
338.0438583920226
 30
0.0
 11
314.674996256057
 21
338.0438583920226
 31
0.0
  0
LINE
  5
6A8
330
1F
100
AcDbEntity
  8
AM_7
 62
     1
100
AcDbLine
 10
313.6749962560569
 20
337.0438583920226
 30
0.0
 11
313.6749962560569
 21
339.0438583920226
 31
0.0
  0
LINE
  5
6A9
330
1F
100
AcDbEntity
  8
AM_7
 62
     1
100
AcDbLine
 10
302.674996256057
 20
338.0438583920226
 30
0.0
 11
311.6749962560569
 21
338.0438583920226
 31
0.0
  0
LINE
  5
6AA
330
1F
100
AcDbEntity
  8
AM_7
 62
     1
100
AcDbLine
 10
315.6749962560569
 20
338.0438583920226
 30
0.0
 11
324.6749962560569
 21
338.0438583920226
 31
0.0
  0
LINE
  5
6AB
330
1F
100
AcDbEntity
  8
AM_7
 62
     1
100
AcDbLine
 10
313.6749962560569
 20
327.0438583920226
 30
0.0
 11
313.6749962560569
 21
336.0438583920226
 31
0.0
  0
LINE
  5
6AC
330
1F
100
AcDbEntity
  8
AM_7
 62
     1
100
AcDbLine
 10
313.6749962560569
 20
340.0438583920226
 30
0.0
 11
313.6749962560569
 21
349.0438583920226
 31
0.0
  0
LINE
  5
6AD
330
1F
100
AcDbEntity
  8
AM_7
 62
     1
100
AcDbLine
 10
271.9249962560569
 20
338.1438583920226
 30
0.0
 11
273.9249962560569
 21
338.1438583920226
 31
0.0
  0
LINE
  5
6AE
330
1F
100
AcDbEntity
  8
AM_7
 62
     1
100
AcDbLine
 10
272.9249962560569
 20
337.1438583920226
 30
0.0
 11
272.9249962560569
 21
339.1438583920226
 31
0.0
  0
LINE
  5
6AF
330
1F
100
AcDbEntity
  8
AM_7
 62
     1
100
AcDbLine
 10
255.9249962560569
 20
338.1438583920226
 30
0.0
 11
270.9249962560569
 21
338.1438583920226
 31
0.0
  0
LINE
  5
6B0
330
1F
100
AcDbEntity
  8
AM_7
 62
     1
100
AcDbLine
 10
274.9249962560569
 20
338.1438583920226
 30
0.0
 11
289.924996256057
 21
338.1438583920226
 31
0.0
  0
LINE
  5
6B1
330
1F
100
AcDbEntity
  8
AM_7
 62
     1
100
AcDbLine
 10
272.9249962560569
 20
321.1438583920226
 30
0.0
 11
272.9249962560569
 21
336.1438583920226
 31
0.0
  0
LINE
  5
6B2
330
1F
100
AcDbEntity
  8
AM_7
 62
     1
100
AcDbLine
 10
272.9249962560569
 20
340.1438583920226
 30
0.0
 11
272.9249962560569
 21
355.1438583920226
 31
0.0
  0
LINE
  5
6B3
330
1F
100
AcDbEntity
  8
AM_7
 62
     1
100
AcDbLine
 10
286.6749962560569
 20
323.3938583920226
 30
0.0
 11
288.6749962560569
 21
323.3938583920226
 31
0.0
  0
LINE
  5
6B4
330
1F
100
AcDbEntity
  8
AM_7
 62
     1
100
AcDbLine
 10
287.674996256057
 20
322.3938583920226
 30
0.0
 11
287.674996256057
 21
324.3938583920226
 31
0.0
  0
LINE
  5
6B5
330
1F
100
AcDbEntity
  8
AM_7
 62
     1
100
AcDbLine
 10
284.1749962560569
 20
323.3938583920226
 30
0.0
 11
285.674996256057
 21
323.3938583920226
 31
0.0
  0
LINE
  5
6B6
330
1F
100
AcDbEntity
  8
AM_7
 62
     1
100
AcDbLine
 10
289.6749962560569
 20
323.3938583920226
 30
0.0
 11
291.1749962560569
 21
323.3938583920226
 31
0.0
  0
LINE
  5
6B7
330
1F
100
AcDbEntity
  8
AM_7
 62
     1
100
AcDbLine
 10
287.674996256057
 20
319.8938583920226
 30
0.0
 11
287.674996256057
 21
321.3938583920226
 31
0.0
  0
LINE
  5
6B8
330
1F
100
AcDbEntity
  8
AM_7
 62
     1
100
AcDbLine
 10
287.674996256057
 20
325.3938583920226
 30
0.0
 11
287.674996256057
 21
326.8938583920226
 31
0.0
  0
LINE
  5
6B9
330
1F
100
AcDbEntity
  8
AM_7
 62
     1
100
AcDbLine
 10
257.1749962560569
 20
352.8938583920226
 30
0.0
 11
259.1749962560569
 21
352.8938583920226
 31
0.0
  0
LINE
  5
6BA
330
1F
100
AcDbEntity
  8
AM_7
 62
     1
100
AcDbLine
 10
258.1749962560569
 20
351.8938583920226
 30
0.0
 11
258.1749962560569
 21
353.8938583920226
 31
0.0
  0
LINE
  5
6BB
330
1F
100
AcDbEntity
  8
AM_7
 62
     1
100
AcDbLine
 10
254.6749962560569
 20
352.8938583920226
 30
0.0
 11
256.1749962560569
 21
352.8938583920226
 31
0.0
  0
LINE
  5
6BC
330
1F
100
AcDbEntity
  8
AM_7
 62
     1
100
AcDbLine
 10
260.1749962560569
 20
352.8938583920226
 30
0.0
 11
261.6749962560569
 21
352.8938583920226
 31
0.0
  0
LINE
  5
6BD
330
1F
100
AcDbEntity
  8
AM_7
 62
     1
100
AcDbLine
 10
258.1749962560569
 20
349.3938583920226
 30
0.0
 11
258.1749962560569
 21
350.8938583920226
 31
0.0
  0
LINE
  5
6BE
330
1F
100
AcDbEntity
  8
AM_7
 62
     1
100
AcDbLine
 10
258.1749962560569
 20
354.8938583920226
 30
0.0
 11
258.1749962560569
 21
356.3938583920226
 31
0.0
  0
LINE
  5
6BF
330
1F
100
AcDbEntity
  8
AM_7
 62
     1
100
AcDbLine
 10
286.6749962560569
 20
352.8938583920226
 30
0.0
 11
288.6749962560569
 21
352.8938583920226
 31
0.0
  0
LINE
  5
6C0
330
1F
100
AcDbEntity
  8
AM_7
 62
     1
100
AcDbLine
 10
287.674996256057
 20
351.8938583920226
 30
0.0
 11
287.674996256057
 21
353.8938583920226
 31
0.0
  0
LINE
  5
6C1
330
1F
100
AcDbEntity
  8
AM_7
 62
     1
100
AcDbLine
 10
284.1749962560569
 20
352.8938583920226
 30
0.0
 11
285.674996256057
 21
352.8938583920226
 31
0.0
  0
LINE
  5
6C2
330
1F
100
AcDbEntity
  8
AM_7
 62
     1
100
AcDbLine
 10
289.6749962560569
 20
352.8938583920226
 30
0.0
 11
291.1749962560569
 21
352.8938583920226
 31
0.0
  0
LINE
  5
6C3
330
1F
100
AcDbEntity
  8
AM_7
 62
     1
100
AcDbLine
 10
287.674996256057
 20
349.3938583920226
 30
0.0
 11
287.674996256057
 21
350.8938583920226
 31
0.0
  0
LINE
  5
6C4
330
1F
100
AcDbEntity
  8
AM_7
 62
     1
100
AcDbLine
 10
287.674996256057
 20
354.8938583920226
 30
0.0
 11
287.674996256057
 21
356.3938583920226
 31
0.0
  0
LINE
  5
6C5
330
1F
100
AcDbEntity
  8
AM_7
 62
     1
100
AcDbLine
 10
257.1749962560569
 20
323.3938583920226
 30
0.0
 11
259.1749962560569
 21
323.3938583920226
 31
0.0
  0
LINE
  5
6C6
330
1F
100
AcDbEntity
  8
AM_7
 62
     1
100
AcDbLine
 10
258.1749962560569
 20
322.3938583920226
 30
0.0
 11
258.1749962560569
 21
324.3938583920226
 31
0.0
  0
LINE
  5
6C7
330
1F
100
AcDbEntity
  8
AM_7
 62
     1
100
AcDbLine
 10
254.6749962560569
 20
323.3938583920226
 30
0.0
 11
256.1749962560569
 21
323.3938583920226
 31
0.0
  0
LINE
  5
6C8
330
1F
100
AcDbEntity
  8
AM_7
 62
     1
100
AcDbLine
 10
260.1749962560569
 20
323.3938583920226
 30
0.0
 11
261.6749962560569
 21
323.3938583920226
 31
0.0
  0
LINE
  5
6C9
330
1F
100
AcDbEntity
  8
AM_7
 62
     1
100
AcDbLine
 10
258.1749962560569
 20
319.8938583920226
 30
0.0
 11
258.1749962560569
 21
321.3938583920226
 31
0.0
  0
LINE
  5
6CA
330
1F
100
AcDbEntity
  8
AM_7
 62
     1
100
AcDbLine
 10
258.1749962560569
 20
325.3938583920226
 30
0.0
 11
258.1749962560569
 21
326.8938583920226
 31
0.0
  0
LINE
  5
6CB
330
1F
100
AcDbEntity
  8
AM_VIS
100
AcDbLine
 10
262.1749962560569
 20
349.0438583920226
 30
0.0
 11
262.1749962560569
 21
327.0438583920226
 31
0.0
  0
LINE
  5
6CC
330
1F
100
AcDbEntity
  8
AM_VIS
100
AcDbLine
 10
290.6749962560569
 20
349.0438583920226
 30
0.0
 11
262.1749962560569
 21
349.0438583920226
 31
0.0
  0
LINE
  5
6CD
330
1F
100
AcDbEntity
  8
AM_VIS
100
AcDbLine
 10
262.1749962560569
 20
327.0438583920226
 30
0.0
 11
290.6749962560569
 21
327.0438583920226
 31
0.0
  0
LINE
  5
6CE
330
1F
100
AcDbEntity
  8
AM_VIS
100
AcDbLine
 10
290.6749962560569
 20
349.5438583920226
 30
0.0
 11
295.6749962560569
 21
349.5438583920226
 31
0.0
  0
LINE
  5
6CF
330
1F
100
AcDbEntity
  8
AM_VIS
100
AcDbLine
 10
295.6749962560569
 20
326.5438583920226
 30
0.0
 11
295.6749962560569
 21
349.5438583920226
 31
0.0
  0
LINE
  5
6D0
330
1F
100
AcDbEntity
  8
AM_VIS
100
AcDbLine
 10
290.6749962560569
 20
326.5438583920226
 30
0.0
 11
295.6749962560569
 21
326.5438583920226
 31
0.0
  0
LINE
  5
6D1
330
1F
100
AcDbEntity
  8
AM_VIS
100
AcDbLine
 10
290.6749962560569
 20
349.5438583920226
 30
0.0
 11
290.6749962560569
 21
326.5438583920226
 31
0.0
  0
LINE
  5
6D2
330
1F
100
AcDbEntity
  8
AM_VIS
100
AcDbLine
 10
295.6749962560569
 20
348.2938583920226
 30
0.0
 11
321.174996256057
 21
348.2938583920226
 31
0.0
  0
LINE
  5
6D3
330
1F
100
AcDbEntity
  8
AM_VIS
100
AcDbLine
 10
321.174996256057
 20
327.7938583920226
 30
0.0
 11
321.174996256057
 21
348.2938583920226
 31
0.0
  0
LINE
  5
6D4
330
1F
100
AcDbEntity
  8
AM_VIS
100
AcDbLine
 10
295.6749962560569
 20
327.7938583920226
 30
0.0
 11
321.174996256057
 21
327.7938583920226
 31
0.0
  0
LINE
  5
6D5
330
1F
100
AcDbEntity
  8
AM_VIS
100
AcDbLine
 10
291.924996256057
 20
319.1438583920226
 30
0.0
 11
253.9249962560569
 21
319.1438583920226
 31
0.0
  0
LINE
  5
6D6
330
1F
100
AcDbEntity
  8
AM_VIS
100
AcDbLine
 10
253.9249962560569
 20
357.1438583920226
 30
0.0
 11
291.924996256057
 21
357.1438583920226
 31
0.0
  0
LINE
  5
6D7
330
1F
100
AcDbEntity
  8
AM_VIS
100
AcDbLine
 10
253.9249962560569
 20
319.1438583920226
 30
0.0
 11
253.9249962560569
 21
357.1438583920226
 31
0.0
  0
LINE
  5
6D8
330
1F
100
AcDbEntity
  8
AM_VIS
100
AcDbLine
 10
253.9249962560569
 20
325.3311195949381
 30
0.0
 11
245.1749962560569
 21
325.3311195949381
 31
0.0
  0
LINE
  5
6D9
330
1F
100
AcDbEntity
  8
AM_VIS
100
AcDbLine
 10
245.1749962560569
 20
350.8311195949381
 30
0.0
 11
245.1749962560569
 21
325.3311195949381
 31
0.0
  0
LINE
  5
6DA
330
1F
100
AcDbEntity
  8
AM_VIS
100
AcDbLine
 10
253.9249962560569
 20
350.8311195949381
 30
0.0
 11
245.1749962560569
 21
350.8311195949381
 31
0.0
  0
LINE
  5
6DB
330
1F
100
AcDbEntity
  8
AM_VIS
100
AcDbLine
 10
291.924996256057
 20
357.1438583920226
 30
0.0
 11
291.924996256057
 21
349.5438583920226
 31
0.0
  0
LINE
  5
6DC
330
1F
100
AcDbEntity
  8
AM_VIS
100
AcDbLine
 10
291.924996256057
 20
326.5438583920226
 30
0.0
 11
291.924996256057
 21
319.1438583920226
 31
0.0
  0
LINE
  5
6DD
330
1F
100
AcDbEntity
  8
AM_VIS
100
AcDbLine
 10
291.924996256057
 20
350.8938583920226
 30
0.0
 11
300.674996256057
 21
350.8938583920226
 31
0.0
  0
LINE
  5
6DE
330
1F
100
AcDbEntity
  8
AM_VIS
100
AcDbLine
 10
300.674996256057
 20
325.3938583920226
 30
0.0
 11
300.674996256057
 21
327.7938583920226
 31
0.0
  0
LINE
  5
6DF
330
1F
100
AcDbEntity
  8
AM_VIS
100
AcDbLine
 10
300.674996256057
 20
348.2938583920226
 30
0.0
 11
300.674996256057
 21
350.8938583920226
 31
0.0
  0
LINE
  5
6E0
330
1F
100
AcDbEntity
  8
AM_VIS
100
AcDbLine
 10
291.924996256057
 20
325.3938583920226
 30
0.0
 11
300.674996256057
 21
325.3938583920226
 31
0.0
  0
ARC
  5
6E1
330
1F
100
AcDbEntity
  8
AM_VIS
100
AcDbCircle
 10
314.1749962560569
 20
338.0438583920226
 30
0.0
 40
9.0
100
AcDbArc
 50
321.0575587310185
 51
38.94244126898149
  0
CIRCLE
  5
6E2
330
1F
100
AcDbEntity
  8
AM_VIS
100
AcDbCircle
 10
272.9249962560569
 20
338.1438583920226
 30
0.0
 40
8.5
  0
CIRCLE
  5
6E3
330
1F
100
AcDbEntity
  8
AM_VIS
100
AcDbCircle
 10
272.9249962560569
 20
338.1438583920226
 30
0.0
 40
4.25
  0
ARC
  5
6E4
330
1F
100
AcDbEntity
  8
AM_VIS
100
AcDbCircle
 10
272.9249962560569
 20
338.1438583920226
 30
0.0
 40
15.0
100
AcDbArc
 50
227.7314155704287
 51
312.2685844295713
  0
ARC
  5
6E5
330
1F
100
AcDbEntity
  8
AM_VIS
100
AcDbCircle
 10
272.9249962560569
 20
338.1438583920226
 30
0.0
 40
15.0
100
AcDbArc
 50
135.779955572317
 51
224.220044427683
  0
ARC
  5
6E6
330
1F
100
AcDbEntity
  8
AM_VIS
100
AcDbCircle
 10
272.9249962560569
 20
338.1438583920226
 30
0.0
 40
15.0
100
AcDbArc
 50
46.60767200426845
 51
133.3923279957315
  0
CIRCLE
  5
6E7
330
1F
100
AcDbEntity
  8
AM_VIS
100
AcDbCircle
 10
287.674996256057
 20
323.3938583920226
 30
0.0
 40
1.5
  0
CIRCLE
  5
6E8
330
1F
100
AcDbEntity
  8
AM_VIS
100
AcDbCircle
 10
258.1749962560569
 20
352.8938583920226
 30
0.0
 40
1.5
  0
CIRCLE
  5
6E9
330
1F
100
AcDbEntity
  8
AM_VIS
100
AcDbCircle
 10
287.674996256057
 20
352.8938583920226
 30
0.0
 40
1.5
  0
CIRCLE
  5
6EA
330
1F
100
AcDbEntity
  8
AM_VIS
100
AcDbCircle
 10
258.1749962560569
 20
323.3938583920226
 30
0.0
 40
1.5
  0
LINE
  5
6EB
330
1F
100
AcDbEntity
  8
AM_7
 62
     1
100
AcDbLine
 10
187.2773089241473
 20
215.3946704669196
 30
0.0
 11
187.2773089241473
 21
295.9509353471407
 31
0.0
  0
LINE
  5
6EC
330
1F
100
AcDbEntity
  8
AM_VIS
100
AcDbLine
 10
176.3773089241473
 20
292.7089672237063
 30
0.0
 11
176.3773089241473
 21
263.7089672237063
 31
0.0
  0
LINE
  5
6ED
330
1F
100
AcDbEntity
  8
AM_VIS
100
AcDbLine
 10
198.3773089241473
 20
263.7089672237063
 30
0.0
 11
198.3773089241473
 21
292.7089672237063
 31
0.0
  0
LINE
  5
6EE
330
1F
100
AcDbEntity
  8
AM_VIS
100
AcDbLine
 10
176.3773089241473
 20
263.7089672237063
 30
0.0
 11
198.3773089241473
 21
263.7089672237063
 31
0.0
  0
LINE
  5
6EF
330
1F
100
AcDbEntity
  8
AM_VIS
100
AcDbLine
 10
176.3773089241473
 20
292.7089672237063
 30
0.0
 11
198.3773089241473
 21
292.7089672237063
 31
0.0
  0
LINE
  5
6F0
330
1F
100
AcDbEntity
  8
AM_VIS
100
AcDbLine
 10
175.8773089241473
 20
262.7089672237064
 30
0.0
 11
175.8773089241473
 21
293.7089672237064
 31
0.0
  0
LINE
  5
6F1
330
1F
100
AcDbEntity
  8
AM_VIS
100
AcDbLine
 10
175.8773089241473
 20
293.7089672237064
 30
0.0
 11
183.0273089241473
 21
293.7089672237064
 31
0.0
  0
LINE
  5
6F2
330
1F
100
AcDbEntity
  8
AM_VIS
100
AcDbLine
 10
191.5273089241473
 20
293.7089672237064
 30
0.0
 11
198.8773089241473
 21
293.7089672237064
 31
0.0
  0
LINE
  5
6F3
330
1F
100
AcDbEntity
  8
AM_VIS
100
AcDbLine
 10
198.8773089241473
 20
293.7089672237064
 30
0.0
 11
198.8773089241473
 21
262.7089672237064
 31
0.0
  0
LINE
  5
6F4
330
1F
100
AcDbEntity
  8
AM_VIS
100
AcDbLine
 10
198.8773089241473
 20
262.7089672237064
 30
0.0
 11
198.1773089241473
 21
262.7089672237064
 31
0.0
  0
LINE
  5
6F5
330
1F
100
AcDbEntity
  8
AM_VIS
100
AcDbLine
 10
176.5773089241473
 20
262.7089672237064
 30
0.0
 11
175.8773089241473
 21
262.7089672237064
 31
0.0
  0
LINE
  5
6F6
330
1F
100
AcDbEntity
  8
AM_VIS
100
AcDbLine
 10
198.1773089241473
 20
263.7089672237063
 30
0.0
 11
198.1773089241473
 21
261.7089672237063
 31
0.0
  0
LINE
  5
6F7
330
1F
100
AcDbEntity
  8
AM_VIS
100
AcDbLine
 10
191.1773089241473
 20
263.7089672237063
 30
0.0
 11
191.1773089241473
 21
261.7089672237063
 31
0.0
  0
LINE
  5
6F8
330
1F
100
AcDbEntity
  8
AM_VIS
100
AcDbLine
 10
176.5773089241473
 20
263.7089672237063
 30
0.0
 11
176.5773089241473
 21
261.7089672237063
 31
0.0
  0
LINE
  5
6F9
330
1F
100
AcDbEntity
  8
AM_VIS
100
AcDbLine
 10
176.5773089241473
 20
261.7089672237063
 30
0.0
 11
176.6144059423135
 21
261.7089672237063
 31
0.0
  0
LINE
  5
6FA
330
1F
100
AcDbEntity
  8
AM_VIS
100
AcDbLine
 10
204.2773089241473
 20
218.369802415298
 30
0.0
 11
204.2773089241473
 21
241.3698024152979
 31
0.0
  0
LINE
  5
6FB
330
1F
100
AcDbEntity
  8
AM_VIS
100
AcDbLine
 10
170.4958995683281
 20
241.3698024152979
 30
0.0
 11
170.4958995683281
 21
234.7145593517037
 31
0.0
  0
ARC
  5
6FC
330
1F
100
AcDbEntity
  8
AM_VIS
100
AcDbCircle
 10
171.8892967941033
 20
234.8216636317177
 30
0.0
 40
1.397507479620582
100
AcDbArc
 50
184.3954301461696
 51
219.7987938233914
  0
LINE
  5
6FD
330
1F
100
AcDbEntity
  8
AM_VIS
100
AcDbLine
 10
170.2773089241473
 20
241.3698024152979
 30
0.0
 11
170.2773089241473
 21
218.369802415298
 31
0.0
  0
ARC
  5
6FE
330
1F
100
AcDbEntity
  8
AM_VIS
100
AcDbCircle
 10
202.6668316484901
 20
234.8210503316752
 30
0.0
 40
1.395954413187612
100
AcDbArc
 50
320.1808595568325
 51
355.6249164736089
  0
LINE
  5
6FF
330
1F
100
AcDbEntity
  8
AM_VIS
100
AcDbLine
 10
204.0587182799665
 20
234.7145593517037
 30
0.0
 11
204.0587182799665
 21
241.3698024152979
 31
0.0
  0
LINE
  5
700
330
1F
100
AcDbEntity
  8
AM_VIS
100
AcDbLine
 10
168.2773089241473
 20
253.7089672237063
 30
0.0
 11
168.2773089241473
 21
241.3698024152979
 31
0.0
  0
LINE
  5
701
330
1F
100
AcDbEntity
  8
AM_VIS
100
AcDbLine
 10
206.2773089241473
 20
253.7089672237063
 30
0.0
 11
168.2773089241473
 21
253.7089672237063
 31
0.0
  0
LINE
  5
702
330
1F
100
AcDbEntity
  8
AM_VIS
100
AcDbLine
 10
206.2773089241473
 20
253.7089672237063
 30
0.0
 11
206.2773089241473
 21
241.3698024152979
 31
0.0
  0
LINE
  5
703
330
1F
100
AcDbEntity
  8
AM_VIS
100
AcDbLine
 10
200.0900477212318
 20
241.3698024152979
 30
0.0
 11
206.2773089241473
 21
241.3698024152979
 31
0.0
  0
LINE
  5
704
330
1F
100
AcDbEntity
  8
AM_VIS
100
AcDbLine
 10
200.0900477212318
 20
242.7089672237063
 30
0.0
 11
200.0900477212318
 21
231.0636809153089
 31
0.0
  0
LINE
  5
705
330
1F
100
AcDbEntity
  8
AM_VIS
100
AcDbLine
 10
174.5900477212317
 20
231.0636809153089
 30
0.0
 11
174.5900477212317
 21
242.7089672237063
 31
0.0
  0
LINE
  5
706
330
1F
100
AcDbEntity
  8
AM_VIS
100
AcDbLine
 10
168.2773089241473
 20
241.3698024152979
 30
0.0
 11
174.5900477212317
 21
241.3698024152979
 31
0.0
  0
LINE
  5
707
330
1F
100
AcDbEntity
  8
AM_VIS
100
AcDbLine
 10
191.5273089241473
 20
292.7089672237063
 30
0.0
 11
191.5273089241473
 21
294.8689672237063
 31
0.0
  0
ARC
  5
708
330
1F
100
AcDbEntity
  8
0
100
AcDbCircle
 10
191.0273089241473
 20
294.8689672237063
 30
0.0
 40
0.5
100
AcDbArc
 50
0.0
 51
90.0
  0
LINE
  5
709
330
1F
100
AcDbEntity
  8
AM_VIS
100
AcDbLine
 10
183.0273089241473
 20
292.7089672237063
 30
0.0
 11
183.0273089241473
 21
294.8689672237064
 31
0.0
  0
ARC
  5
70A
330
1F
100
AcDbEntity
  8
0
100
AcDbCircle
 10
183.5273089241473
 20
294.8689672237064
 30
0.0
 40
0.5
100
AcDbArc
 50
90.0
 51
179.9999999999992
  0
LINE
  5
70B
330
1F
100
AcDbEntity
  8
AM_VIS
100
AcDbLine
 10
172.2773089241473
 20
261.7089672237063
 30
0.0
 11
172.2773089241473
 21
253.7089672237063
 31
0.0
  0
LINE
  5
70C
330
1F
100
AcDbEntity
  8
AM_VIS
100
AcDbLine
 10
202.2773089241473
 20
261.7089672237063
 30
0.0
 11
202.2773089241473
 21
253.7089672237063
 31
0.0
  0
SPLINE
  5
70D
330
1F
100
AcDbEntity
  8
AM_VIS
100
AcDbSpline
210
0.0
220
0.0
230
1.0
 70
     8
 71
     1
 72
     5
 73
     3
 74
     0
 42
0.0000000001
 43
0.0000000001
 40
0.8502514446323386
 40
0.8502514446323386
 40
5.737281913344464
 40
9.056185357810777
 40
9.056185357810777
 10
174.5900477212317
 20
231.7822863370902
 30
0.0
 10
171.9769503842111
 20
232.9274200898076
 30
0.0
 10
170.8155959916338
 20
233.9271281419959
 30
0.0
  0
SPLINE
  5
70E
330
1F
100
AcDbEntity
  8
AM_VIS
100
AcDbSpline
210
0.0
220
0.0
230
1.0
 70
     8
 71
     1
 72
     5
 73
     3
 74
     0
 42
0.0000000001
 43
0.0000000001
 40
0.0
 40
0.0
 40
5.16764056861536
 40
8.013035001182746
 40
8.013035001182746
 10
203.7390218566607
 20
233.9271281419959
 30
0.0
 10
201.7130945118904
 20
232.4585328617865
 30
0.0
 10
200.0900477212318
 20
231.822974554169
 30
0.0
  0
LINE
  5
70F
330
1F
100
AcDbEntity
  8
AM_VIS
100
AcDbLine
 10
176.6144059423135
 20
261.7089672237063
 30
0.0
 11
202.2773089241473
 21
261.7089672237063
 31
0.0
  0
LINE
  5
710
330
1F
100
AcDbEntity
  8
AM_VIS
100
AcDbLine
 10
172.2773089241473
 20
261.7089672237063
 30
0.0
 11
176.5773089241473
 21
261.7089672237063
 31
0.0
  0
ARC
  5
711
330
1F
100
AcDbEntity
  8
AM_VIS
100
AcDbCircle
 10
187.3400477212318
 20
231.1196480552788
 30
0.0
 40
12.75
100
AcDbArc
 50
180.0
 51
0.0
  0
CIRCLE
  5
712
330
1F
100
AcDbEntity
  8
AM_VIS
100
AcDbCircle
 10
187.2773089241473
 20
230.1198024152979
 30
0.0
 40
9.0
  0
DIMENSION
  5
713
330
1F
100
AcDbEntity
  8
0
100
AcDbDimension
  2
*D14
 10
323.174996256057
 20
301.8037593606448
 30
0.0
 11
298.174996256057
 21
304.3037593606448
 31
0.0
 70
    32
 71
     5
 42
50.0
  3
STANDARD
100
AcDbAlignedDimension
 13
273.174996256057
 23
297.2089672237063
 33
0.0
 14
323.174996256057
 24
263.9589672237063
 34
0.0
100
AcDbRotatedDimension
1001
ACAD
1000
DSTYLE
1002
{
1070
   176
1070
     5
1070
   177
1070
     5
1070
   178
1070
     5
1070
   272
1070
     8
1002
}
  0
LINE
  5
714
330
1F
100
AcDbEntity
  8
0
100
AcDbLine
 10
204.2773089241473
 20
218.369802415298
 30
0.0
 11
170.2773089241473
 21
218.369802415298
 31
0.0
  0
LINE
  5
715
330
1F
100
AcDbEntity
  8
0
100
AcDbLine
 10
200.0900477212318
 20
242.7089672237063
 30
0.0
 11
174.5900477212317
 21
242.7089672237063
 31
0.0
  0
LINE
  5
716
330
1F
100
AcDbEntity
  8
0
100
AcDbLine
 10
200.0900477212318
 20
231.2089672237063
 30
0.0
 11
174.5900477212317
 21
231.2089672237063
 31
0.0
  0
LINE
  5
717
330
1F
100
AcDbEntity
  8
0
100
AcDbLine
 10
191.0273089241473
 20
295.3689672237063
 30
0.0
 11
183.5273089241473
 21
295.3689672237064
 31
0.0
  0
DIMENSION
  5
718
330
1F
100
AcDbEntity
  8
0
100
AcDbDimension
  2
*D15
 10
323.174996256057
 20
365.2310087740897
 30
0.0
 11
284.1749962560569
 21
367.7310087740897
 31
0.0
 70
    32
 71
     5
 42
78.00000000000003
  3
STANDARD
100
AcDbAlignedDimension
 13
245.1749962560569
 23
350.8311195949381
 33
0.0
 14
323.174996256057
 24
338.0438583920226
 34
0.0
100
AcDbRotatedDimension
1001
ACAD
1000
DSTYLE
1002
{
1070
   176
1070
     5
1070
   177
1070
     5
1070
   178
1070
     5
1070
   272
1070
     8
1002
}
  0
LINE
  5
719
330
1F
100
AcDbEntity
  8
0
100
AcDbLine
 10
245.1749962560569
 20
186.8105270390652
 30
0.0
 11
245.1749962560569
 21
161.3105270390652
 31
0.0
  0
CIRCLE
  5
71A
330
1F
100
AcDbEntity
  8
0
100
AcDbCircle
 10
313.9249962560569
 20
174.0605270390652
 30
0.0
 40
5.0
  0
TEXT
  5
71B
330
1F
100
AcDbEntity
  8
LOGO
 62
     7
100
AcDbText
 10
189.2234854325644
 20
115.1876754266486
 30
0.0
 40
3.871439348416289
  1
Order example:
 41
0.8
  7
CHINESET
100
AcDbText
  0
TEXT
  5
71C
330
1F
100
AcDbEntity
  8
LOGO
 62
     7
100
AcDbText
 10
189.9180536671713
 20
120.6378604374737
 30
0.0
 40
5.807159022624434
  1
訂購代號：
  7
CHINESET
100
AcDbText
  0
LINE
  5
71D
330
1F
100
AcDbEntity
  8
LOGO
 62
     4
100
AcDbLine
 10
407.6792439406174
 20
127.9077631794343
 30
0.0
 11
123.6625826556414
 21
127.9077631794343
 31
0.0
  0
LINE
  5
71E
330
1F
100
AcDbEntity
  8
LOGO
 62
     4
100
AcDbLine
 10
187.5413319045102
 20
98.87196806631164
 30
0.0
 11
187.5413319045102
 21
127.9077631794343
 31
0.0
  0
TEXT
  5
71F
330
1F
100
AcDbEntity
  8
LOGO
  6
Continuous
100
AcDbText
 10
134.0923707786992
 20
104.5760061974491
 30
0.0
 40
4.355369266968326
  1
金器工業股份有限公司
  7
CHINESET
100
AcDbText
  0
TEXT
  5
720
330
1F
100
AcDbEntity
  8
LOGO
  6
Continuous
100
AcDbText
 10
126.092419102595
 20
100.2197836195786
 30
0.0
 40
2.903579511312217
  1
MINDMAN INDUSTRIAL CO., LTD.
 41
0.85
  7
CHINESET
100
AcDbText
  0
LINE
  5
721
330
1F
100
AcDbEntity
  8
LOGO
 62
     4
100
AcDbLine
 10
187.5413319045102
 20
122.1006041568095
 30
0.0
 11
144.9554990719307
 21
122.1006041568095
 31
0.0
  0
LINE
  5
722
330
1F
100
AcDbEntity
  8
LOGO
 62
     4
100
AcDbLine
 10
187.5413319045102
 20
116.2934451341853
 30
0.0
 11
144.9554990719307
 21
116.2934451341853
 31
0.0
  0
LINE
  5
723
330
1F
100
AcDbEntity
  8
LOGO
 62
     4
100
AcDbLine
 10
187.5413319045102
 20
110.4862861115612
 30
0.0
 11
123.6625826556414
 21
110.4862861115612
 31
0.0
  0
LINE
  5
724
330
1F
100
AcDbEntity
  8
LOGO
 62
     4
100
AcDbLine
 10
144.9554990719307
 20
110.4862861115612
 30
0.0
 11
144.9554990719307
 21
127.9077631794343
 31
0.0
  0
TEXT
  5
725
330
1F
100
AcDbEntity
  8
LOGO
100
AcDbText
 10
174.0609057923055
 20
111.9380758672168
 30
0.0
 40
2.903579511312217
  1
mm
  7
CHINESET
 72
     1
 11
177.6558137586921
 21
113.389865622873
 31
0.0
100
AcDbText
 73
     2
  0
TEXT
  5
726
330
1F
100
AcDbEntity
  8
LOGO
100
AcDbText
 10
172.539983191142
 20
123.5523939124658
 30
0.0
 40
2.903579511312217
  1
1 : 1
  7
CHINESET
 72
     1
 11
177.6558137586921
 21
125.0041836681219
 31
0.0
100
AcDbText
 73
     2
  0
LINE
  5
727
330
1F
100
AcDbEntity
  8
LOGO
 62
     4
100
AcDbLine
 10
168.1841351624286
 20
110.4862861115612
 30
0.0
 11
168.1841351624286
 21
127.9077631794343
 31
0.0
  0
TEXT
  5
728
330
1F
100
AcDbEntity
  8
LOGO
100
AcDbText
 10
147.3496559279102
 20
123.5538228393906
 30
190.2958178035923
 40
2.903579511312217
  1
比例 Scale:
 41
0.9
  7
CHINESET
 72
     4
 11
156.5698171171797
 21
125.0041836681219
 31
190.2958178035923
100
AcDbText
  0
TEXT
  5
729
330
1F
100
AcDbEntity
  8
LOGO
100
AcDbText
 10
147.1824408578391
 20
117.7860783844432
 30
190.2958178035923
 40
2.903579511312217
  1
投影  View:
 41
0.9
  7
CHINESET
 72
     4
 11
156.5698171171797
 21
119.1970246454971
 31
190.2958178035923
100
AcDbText
  0
TEXT
  5
72A
330
1F
100
AcDbEntity
  8
LOGO
100
AcDbText
 10
147.466317604704
 20
111.9380758672168
 30
190.2958178035923
 40
2.903579511312217
  1
單位  Unit:
 41
0.9
  7
CHINESET
 72
     4
 11
156.5698171171797
 21
113.389865622873
 31
190.2958178035923
100
AcDbText
  0
LWPOLYLINE
  5
72B
330
1F
100
AcDbEntity
  8
LOGO
 62
     4
100
AcDbPolyline
 90
        4
 70
     1
 43
0.0
 10
123.6625826556413
 20
127.9077631794343
 10
407.6792439406174
 20
127.9077631794343
 10
407.6792439406174
 20
389.2719680663114
 10
123.6625826556413
 20
389.2719680663114
1001
GENIUS_GENREC_14
1002
{
1000
PYDIR
1011
123.6625826556413
1021
389.2719680663114
1031
0.0
1002
}
1002
{
1000
PXDIR
1011
407.6792439406174
1021
127.9077631794343
1031
0.0
1002
}
1002
{
1000
PORI
1011
123.6625826556413
1021
127.9077631794343
1031
0.0
1002
}
1002
{
1000
PINS
1011
123.6625826556413
1021
127.9077631794343
1031
0.0
1002
}
1002
{
1000
PINS2
1011
407.6792439406174
1021
389.2719680663114
1031
0.0
1002
}
1002
{
1000
C
1070
     1
1002
}
1001
GENIUS_GENODEF_13
1002
{
1000
HIER
1070
     0
1002
}
1002
{
1000
MANEDIT
1070
     0
1002
}
1002
{
1000
NOSEL
1070
     0
1002
}
1002
{
1000
BEHIND
1070
     0
1002
}
1002
{
1000
OTHER
1070
     0
1002
}
1002
{
1000
REACTOR
1002
}
1001
GENIUS_GENOBJ-N-REC_13
1002
{
1000
OWNER
1000
GEN
1002
}
  0
SOLID
  5
72C
330
1F
100
AcDbEntity
  8
LOGO
 62
     5
100
AcDbTrace
 10
126.6750929975344
 20
115.3130737571187
 30
0.0
 11
127.9305245882994
 21
115.3130737571187
 31
0.0
 12
133.168704673905
 22
127.2180284971324
 32
0.0
 13
134.4241362646706
 23
127.2180284971318
 33
0.0
  0
SOLID
  5
72D
330
1F
100
AcDbEntity
  8
LOGO
 62
     5
100
AcDbTrace
 10
128.4500135224105
 20
115.3130737571187
 30
0.0
 11
129.7054451131754
 21
115.3130737571187
 31
0.0
 12
134.4241362646706
 22
126.2656321179309
 32
0.0
 13
133.168704673905
 23
121.6623829517924
 33
0.0
  0
SOLID
  5
72E
330
1F
100
AcDbEntity
  8
LOGO
 62
     2
100
AcDbTrace
 10
127.9305245882994
 20
115.3130737571187
 30
0.0
 11
128.4500135224105
 21
115.3130737571187
 31
0.0
 12
134.4241362646706
 22
127.2180284971318
 32
0.0
 13
134.943625198781
 23
127.2180284971318
 33
0.0
  0
SOLID
  5
72F
330
1F
100
AcDbEntity
  8
LOGO
 62
     5
100
AcDbTrace
 10
124.6623282880001
 20
110.9839993062054
 30
0.0
 11
125.095235733092
 21
110.9839993062054
 31
0.0
 12
126.314336793292
 22
113.148536531662
 32
0.0
 13
126.7472442383825
 23
113.148536531662
 33
0.0
  0
SOLID
  5
730
330
1F
100
AcDbEntity
  8
LOGO
 62
     5
100
AcDbTrace
 10
126.314336793292
 20
113.148536531662
 30
0.0
 11
126.7472442383825
 21
113.148536531662
 31
0.0
 12
126.314336793292
 22
110.9839993062054
 32
0.0
 13
126.7472442383825
 23
110.9839993062054
 33
0.0
  0
SOLID
  5
731
330
1F
100
AcDbEntity
  8
LOGO
 62
     5
100
AcDbTrace
 10
126.314336793292
 20
110.9839993062054
 30
0.0
 11
126.7472442383825
 21
110.9839993062054
 31
0.0
 12
127.9663452985845
 22
113.148536531662
 32
0.0
 13
128.3992527436757
 23
113.148536531662
 33
0.0
  0
SOLID
  5
732
330
1F
100
AcDbEntity
  8
LOGO
 62
     5
100
AcDbTrace
 10
127.9663452985845
 20
113.148536531662
 30
0.0
 11
128.3992527436757
 21
113.148536531662
 31
0.0
 12
127.9663452985845
 22
110.9839993062054
 32
0.0
 13
128.3992527436757
 23
110.9839993062054
 33
0.0
  0
POLYLINE
  5
733
330
1F
100
AcDbEntity
  8
LOGO
 62
     5
100
AcDb2dPolyline
 66
     1
 10
0.0
 20
0.0
 30
0.0
 40
0.4336012070226245
 41
0.4336012070226245
  0
VERTEX
  5
734
330
733
100
AcDbEntity
  8
LOGO
 62
     5
100
AcDbVertex
100
AcDb2dVertex
 10
142.4772553862679
 20
112.282721641479
 30
0.0
 42
1.0
  0
VERTEX
  5
735
330
733
100
AcDbEntity
  8
LOGO
 62
     5
100
AcDbVertex
100
AcDb2dVertex
 10
141.1764517651997
 20
112.282721641479
 30
0.0
 42
1.0
  0
SEQEND
  5
736
330
733
100
AcDbEntity
  8
LOGO
 62
     5
  0
POLYLINE
  5
737
330
1F
100
AcDbEntity
  8
LOGO
 62
     5
100
AcDb2dPolyline
 66
     1
 10
0.0
 20
0.0
 30
0.0
 70
     1
  0
VERTEX
  5
738
330
737
100
AcDbEntity
  8
LOGO
 62
     5
100
AcDbVertex
100
AcDb2dVertex
 10
138.724379079741
 20
112.0662679189334
 30
0.0
 42
1.000000057330635
  0
VERTEX
  5
739
330
737
100
AcDbEntity
  8
LOGO
 62
     5
100
AcDbVertex
100
AcDb2dVertex
 10
140.0231014150152
 20
112.0662679189334
 30
0.0
 42
1.000000057330635
  0
SEQEND
  5
73A
330
737
100
AcDbEntity
  8
LOGO
 62
     5
  0
CIRCLE
  5
73B
330
1F
100
AcDbEntity
  8
LOGO
 62
     5
100
AcDbCircle
 10
139.3737402473791
 20
112.0662679189334
 30
0.0
 40
0.6493611676370826
  0
POLYLINE
  5
73C
330
1F
100
AcDbEntity
  8
LOGO
 62
     5
100
AcDb2dPolyline
 66
     1
 10
0.0
 20
0.0
 30
0.0
 70
     1
 40
0.4336012070226245
 41
0.4336012070226245
  0
VERTEX
  5
73D
330
73C
100
AcDbEntity
  8
LOGO
 62
     5
100
AcDbVertex
100
AcDb2dVertex
 10
138.5065378333332
 20
112.0662679189334
 30
0.0
 42
1.0
  0
VERTEX
  5
73E
330
73C
100
AcDbEntity
  8
LOGO
 62
     5
100
AcDbVertex
100
AcDb2dVertex
 10
140.2409426614236
 20
112.0662679189334
 30
0.0
 42
1.0
  0
SEQEND
  5
73F
330
73C
100
AcDbEntity
  8
LOGO
 62
     5
  0
LINE
  5
740
330
1F
100
AcDbEntity
  8
LOGO
100
AcDbLine
 10
142.6926684659159
 20
110.9839993062054
 30
0.0
 11
142.6926684659159
 21
112.282721641479
 31
0.0
  0
SOLID
  5
741
330
1F
100
AcDbEntity
  8
LOGO
 62
     5
100
AcDbTrace
 10
140.0230581242726
 20
113.148536531662
 30
0.0
 11
140.4559655693632
 21
113.148536531662
 31
0.0
 12
140.0230581242726
 22
110.9839993062054
 32
0.0
 13
140.4559655693632
 23
110.9839993062054
 33
0.0
  0
SOLID
  5
742
330
1F
100
AcDbEntity
  8
LOGO
 62
     5
100
AcDbTrace
 10
140.9610386855504
 20
110.9839993062054
 30
0.0
 11
141.3939461306423
 21
110.9839993062054
 31
0.0
 12
140.9610386855504
 22
113.148536531662
 32
0.0
 13
141.3939461306423
 23
113.148536531662
 33
0.0
  0
SOLID
  5
743
330
1F
100
AcDbEntity
  8
LOGO
 62
     5
100
AcDbTrace
 10
142.2597610208253
 20
112.282721641479
 30
0.0
 11
142.6926684659159
 21
112.282721641479
 31
0.0
 12
142.2597610208253
 22
110.9839993062054
 32
0.0
 13
142.6926684659159
 23
110.9839993062054
 33
0.0
  0
SOLID
  5
744
330
1F
100
AcDbEntity
  8
LOGO
 62
     5
100
AcDbTrace
 10
140.9177479410412
 20
126.2656321179309
 30
0.0
 11
139.6623163502768
 21
121.6623829517924
 31
0.0
 12
140.9177479410412
 22
115.3130737571187
 32
0.0
 13
139.6623163502768
 23
115.3130737571187
 33
0.0
  0
SOLID
  5
745
330
1F
100
AcDbEntity
  8
LOGO
 62
     5
100
AcDbTrace
 10
141.4372368751515
 20
115.3130737571187
 30
0.0
 11
142.6926684659159
 21
115.3130737571187
 31
0.0
 12
141.4372368751515
 22
127.2180284971318
 32
0.0
 13
142.6926684659159
 23
127.2180284971324
 33
0.0
  0
SOLID
  5
746
330
1F
100
AcDbEntity
  8
LOGO
 62
     2
100
AcDbTrace
 10
140.9177479410412
 20
127.2180284971324
 30
0.0
 11
141.4372368751515
 21
127.2180284971318
 31
0.0
 12
140.9177479410412
 22
115.3130737571187
 32
0.0
 13
141.4372368751515
 23
115.3130737571187
 33
0.0
  0
POLYLINE
  5
747
330
1F
100
AcDbEntity
  8
LOGO
 62
     5
100
AcDb2dPolyline
 66
     1
 10
0.0
 20
0.0
 30
0.0
 40
0.4336012070226245
 41
0.4336012070226245
  0
VERTEX
  5
748
330
747
100
AcDbEntity
  8
LOGO
 62
     5
100
AcDbVertex
100
AcDb2dVertex
 10
136.2722198127951
 20
112.282721641479
 30
0.0
 42
1.0
  0
VERTEX
  5
749
330
747
100
AcDbEntity
  8
LOGO
 62
     5
100
AcDbVertex
100
AcDb2dVertex
 10
134.9714161917269
 20
112.282721641479
 30
0.0
 42
1.0
  0
SEQEND
  5
74A
330
747
100
AcDbEntity
  8
LOGO
 62
     5
  0
POLYLINE
  5
74B
330
1F
100
AcDbEntity
  8
LOGO
 62
     5
100
AcDb2dPolyline
 66
     1
 10
0.0
 20
0.0
 30
0.0
 40
0.4336012070226245
 41
0.4336012070226245
  0
VERTEX
  5
74C
330
74B
100
AcDbEntity
  8
LOGO
 62
     5
100
AcDbVertex
100
AcDb2dVertex
 10
137.570942148068
 20
112.282721641479
 30
0.0
 42
1.0
  0
VERTEX
  5
74D
330
74B
100
AcDbEntity
  8
LOGO
 62
     5
100
AcDbVertex
100
AcDb2dVertex
 10
136.2701385270005
 20
112.282721641479
 30
0.0
 42
1.0
  0
SEQEND
  5
74E
330
74B
100
AcDbEntity
  8
LOGO
 62
     5
  0
POLYLINE
  5
74F
330
1F
100
AcDbEntity
  8
LOGO
 62
     5
100
AcDb2dPolyline
 66
     1
 10
0.0
 20
0.0
 30
0.0
 40
0.4336012070226245
 41
0.4336012070226245
  0
VERTEX
  5
750
330
74F
100
AcDbEntity
  8
LOGO
 62
     5
100
AcDbVertex
100
AcDb2dVertex
 10
131.3659065745952
 20
112.282721641479
 30
0.0
 42
1.0
  0
VERTEX
  5
751
330
74F
100
AcDbEntity
  8
LOGO
 62
     5
100
AcDbVertex
100
AcDb2dVertex
 10
130.0651029535277
 20
112.282721641479
 30
0.0
 42
1.0
  0
SEQEND
  5
752
330
74F
100
AcDbEntity
  8
LOGO
 62
     5
  0
SOLID
  5
753
330
1F
100
AcDbEntity
  8
LOGO
 62
     5
100
AcDbTrace
 10
129.8496898738791
 20
113.148536531662
 30
0.0
 11
130.2825973189696
 21
113.148536531662
 31
0.0
 12
129.8496898738791
 22
110.9839993062054
 32
0.0
 13
130.2825973189696
 23
110.9839993062054
 33
0.0
  0
SOLID
  5
754
330
1F
100
AcDbEntity
  8
LOGO
 62
     5
100
AcDbTrace
 10
131.1484122091534
 20
112.282721641479
 30
0.0
 11
131.5813196542452
 21
112.282721641479
 31
0.0
 12
131.1484122091534
 22
110.9839993062054
 32
0.0
 13
131.5813196542452
 23
110.9839993062054
 33
0.0
  0
POLYLINE
  5
755
330
1F
100
AcDbEntity
  8
LOGO
 62
     5
100
AcDb2dPolyline
 66
     1
 10
0.0
 20
0.0
 30
0.0
 70
     1
 40
0.4336012070226245
 41
0.4336012070226245
  0
VERTEX
  5
756
330
755
100
AcDbEntity
  8
LOGO
 62
     5
100
AcDbVertex
100
AcDb2dVertex
 10
132.3015022598598
 20
112.0662679189334
 30
0.0
 42
1.0
  0
VERTEX
  5
757
330
755
100
AcDbEntity
  8
LOGO
 62
     5
100
AcDbVertex
100
AcDb2dVertex
 10
134.0359070879509
 20
112.0662679189334
 30
0.0
 42
1.0
  0
SEQEND
  5
758
330
755
100
AcDbEntity
  8
LOGO
 62
     5
  0
SOLID
  5
759
330
1F
100
AcDbEntity
  8
LOGO
 62
     5
100
AcDbTrace
 10
133.8180225507985
 20
113.7978976992995
 30
0.0
 11
134.2509299958897
 21
113.7978976992995
 31
0.0
 12
133.8180225507985
 22
110.9839993062054
 32
0.0
 13
134.2509299958897
 23
110.9839993062054
 33
0.0
  0
SOLID
  5
75A
330
1F
100
AcDbEntity
  8
LOGO
 62
     5
100
AcDbTrace
 10
134.756003112079
 20
113.148536531662
 30
0.0
 11
135.1889105571695
 21
113.148536531662
 31
0.0
 12
134.756003112079
 22
110.9839993062054
 32
0.0
 13
135.1889105571695
 23
110.9839993062054
 33
0.0
  0
SOLID
  5
75B
330
1F
100
AcDbEntity
  8
LOGO
 62
     5
100
AcDbTrace
 10
136.0547254473518
 20
112.282721641479
 30
0.0
 11
136.4876328924438
 21
112.282721641479
 31
0.0
 12
136.0547254473518
 22
110.9839993062054
 32
0.0
 13
136.4876328924438
 23
110.9839993062054
 33
0.0
  0
SOLID
  5
75C
330
1F
100
AcDbEntity
  8
LOGO
 62
     5
100
AcDbTrace
 10
137.3534477826261
 20
112.282721641479
 30
0.0
 11
137.7863552277173
 21
112.282721641479
 31
0.0
 12
137.3534477826261
 22
110.9839993062047
 32
0.0
 13
137.7863552277173
 23
110.9839993062047
 33
0.0
  0
SOLID
  5
75D
330
1F
100
AcDbEntity
  8
LOGO
 62
     5
100
AcDbTrace
 10
128.9117093125993
 20
113.4515717432261
 30
0.0
 11
129.3446167576918
 21
113.4515717432261
 31
0.0
 12
128.9117093125993
 22
113.7978976992995
 32
0.0
 13
129.3446167576918
 23
113.7978976992995
 33
0.0
  0
SOLID
  5
75E
330
1F
100
AcDbEntity
  8
LOGO
 62
     5
100
AcDbTrace
 10
128.9117093125993
 20
113.148536531662
 30
0.0
 11
129.3446167576918
 21
113.148536531662
 31
0.0
 12
128.9117093125993
 22
110.9839993062047
 32
0.0
 13
129.3446167576918
 23
110.9839993062054
 33
0.0
  0
SOLID
  5
75F
330
1F
100
AcDbEntity
  8
LOGO
 62
     5
100
AcDbTrace
 10
133.168704673905
 20
115.3130737571187
 30
0.0
 11
134.4241362646706
 21
115.3130737571187
 31
0.0
 12
133.168704673905
 22
121.6623829517924
 32
0.0
 13
134.4241362646706
 23
126.2656321179309
 33
0.0
  0
SOLID
  5
760
330
1F
100
AcDbEntity
  8
LOGO
 62
     5
100
AcDbTrace
 10
134.943625198781
 20
127.2180284971318
 30
0.0
 11
136.1990567895453
 21
127.2180284971324
 31
0.0
 12
134.943625198781
 22
116.2654701363196
 32
0.0
 13
136.1990567895453
 23
120.8687193024581
 33
0.0
  0
SOLID
  5
761
330
1F
100
AcDbEntity
  8
LOGO
 62
     2
100
AcDbTrace
 10
134.4241362646706
 20
127.2180284971318
 30
0.0
 11
134.943625198781
 21
127.2180284971318
 31
0.0
 12
134.4241362646706
 22
115.3130737571187
 32
0.0
 13
134.943625198781
 23
115.3130737571187
 33
0.0
  0
SOLID
  5
762
330
1F
100
AcDbEntity
  8
LOGO
 62
     5
100
AcDbTrace
 10
134.943625198781
 20
116.2654701363196
 30
0.0
 11
136.1990567895453
 21
120.8687193024581
 31
0.0
 12
140.9177479410412
 22
127.2180284971324
 32
0.0
 13
139.6623163502768
 23
127.2180284971324
 33
0.0
  0
SOLID
  5
763
330
1F
100
AcDbEntity
  8
LOGO
 62
     5
100
AcDbTrace
 10
134.943625198781
 20
115.3130737571187
 30
0.0
 11
136.1990567895453
 21
115.3130737571187
 31
0.0
 12
140.9177479410412
 22
126.2656321179309
 32
0.0
 13
139.6623163502768
 23
121.6623829517924
 33
0.0
  0
SOLID
  5
764
330
1F
100
AcDbEntity
  8
LOGO
 62
     2
100
AcDbTrace
 10
134.4241362646706
 20
115.3130737571187
 30
0.0
 11
134.943625198781
 21
115.3130737571187
 31
0.0
 12
140.9177479410412
 22
127.2180284971324
 32
0.0
 13
141.4372368751515
 23
127.2180284971318
 33
0.0
  0
LWPOLYLINE
  5
765
330
1F
100
AcDbEntity
  8
LOGO
 62
     4
100
AcDbPolyline
 90
        4
 70
     1
 43
0.0
 10
123.6625826556413
 20
127.9077631794343
 10
407.6792439406174
 20
127.9077631794343
 10
407.6792439406174
 20
98.87196806631164
 10
123.6625826556413
 20
98.87196806631164
1001
GENIUS_GENREC_14
1002
{
1000
PYDIR
1011
123.6625826556413
1021
98.87196806631164
1031
0.0
1002
}
1002
{
1000
PXDIR
1011
407.6792439406174
1021
127.9077631794343
1031
0.0
1002
}
1002
{
1000
PORI
1011
123.6625826556413
1021
127.9077631794343
1031
0.0
1002
}
1002
{
1000
PINS
1011
123.6625826556413
1021
127.9077631794343
1031
0.0
1002
}
1002
{
1000
PINS2
1011
407.6792439406174
1021
98.87196806631164
1031
0.0
1002
}
1002
{
1000
C
1070
     1
1002
}
1001
GENIUS_GENOBJ-N-REC_13
1002
{
1000
OWNER
1000
GEN
1002
}
1001
GENIUS_GENODEF_13
1002
{
1000
HIER
1070
     0
1002
}
1002
{
1000
MANEDIT
1070
     0
1002
}
1002
{
1000
NOSEL
1070
     0
1002
}
1002
{
1000
BEHIND
1070
     0
1002
}
1002
{
1000
OTHER
1070
     0
1002
}
1002
{
1000
REACTOR
1002
}
  0
TEXT
  5
766
330
1F
100
AcDbEntity
  8
LOGO
100
AcDbText
 10
189.1286615829873
 20
100.4166609060854
 30
0.0
 40
2.904
  1
10603201
 41
0.7
  7
CHINESET
 72
     1
 11
195.9530615829873
 21
100.4166609060854
 31
0.0
100
AcDbText
  0
LINE
  5
767
330
1F
100
AcDbEntity
  8
LOGO
 62
     4
100
AcDbLine
 10
204.9653319045089
 20
104.6791270889371
 30
0.0
 11
204.9653319045102
 21
98.8719680663123
 31
0.0
  0
LINE
  5
768
330
1F
100
AcDbEntity
  8
LOGO
 62
     4
100
AcDbLine
 10
204.9653319045089
 20
104.6791270889371
 30
0.0
 11
187.5413319045102
 21
104.6791270889371
 31
0.0
  0
CIRCLE
  5
769
330
1F
100
AcDbEntity
  8
LOGO
  6
Continuous
100
AcDbCircle
 10
173.5604758016073
 20
119.2032354233202
 30
0.0
 40
1.685886606825557
  0
CIRCLE
  5
76A
330
1F
100
AcDbEntity
  8
LOGO
  6
Continuous
100
AcDbCircle
 10
173.5604758016073
 20
119.2032354233202
 30
0.0
 40
0.9877803085024472
  0
LINE
  5
76B
330
1F
100
AcDbEntity
  8
LOGO
100
AcDbLine
 10
184.1547828609084
 20
117.5173488164944
 30
0.0
 11
184.1547828609084
 21
120.8891220301461
 31
0.0
  0
LINE
  5
76C
330
1F
100
AcDbEntity
  8
LOGO
100
AcDbLine
 10
178.8696251230194
 20
118.2154551148177
 30
0.0
 11
178.8696251230194
 21
120.1910157318229
 31
0.0
  0
LINE
  5
76D
330
1F
100
AcDbEntity
  8
LOGO
  6
Continuous
100
AcDbLine
 10
178.8696251230194
 20
120.1910157318229
 30
0.0
 11
184.1547828609084
 21
120.8891220301461
 31
0.0
  0
LINE
  5
76E
330
1F
100
AcDbEntity
  8
LOGO
  6
Continuous
100
AcDbLine
 10
178.8696251230194
 20
118.2154551148177
 30
0.0
 11
184.1547828609084
 21
117.5173488164944
 31
0.0
  0
LINE
  5
76F
330
1F
100
AcDbEntity
  8
LOGO
  6
AM_ISO08W050x2
 48
0.3
100
AcDbLine
 10
171.2364558699342
 20
119.2032354233202
 30
0.0
 11
175.8844957332805
 21
119.2032354233202
 31
0.0
1001
GENIUS_GENOREF_13
1005
793
  0
LINE
  5
770
330
1F
100
AcDbEntity
  8
LOGO
  6
AM_ISO08W050x2
 48
0.3
100
AcDbLine
 10
173.5604758016073
 20
116.8792154916471
 30
0.0
 11
173.5604758016073
 21
121.5272553549934
 31
0.0
1001
GENIUS_GENOREF_13
1005
792
  0
LINE
  5
771
330
1F
100
AcDbEntity
  8
LOGO
  6
CENTER
 48
0.5
100
AcDbLine
 10
178.4469594042602
 20
119.2032354233202
 30
0.0
 11
184.6869811361761
 21
119.2032354233202
 31
0.0
1001
GENIUS_GENOREF_13
1005
791
  0
LINE
  5
772
330
1F
100
AcDbEntity
  8
LOGO
 62
     4
100
AcDbLine
 10
246.8359761506845
 20
111.9380758672178
 30
0.0
 11
246.8359761506845
 21
101.2916176590724
 31
0.0
  0
LINE
  5
773
330
1F
100
AcDbEntity
  8
LOGO
 62
     4
100
AcDbLine
 10
227.478779408603
 20
111.9380758672178
 30
0.0
 11
227.478779408603
 21
101.2916176590724
 31
0.0
  0
LINE
  5
774
330
1F
100
AcDbEntity
  8
LOGO
 62
     4
100
AcDbLine
 10
246.8359761506845
 20
101.2916176590724
 30
0.0
 11
227.478779408603
 21
101.2916176590724
 31
0.0
  0
LINE
  5
775
330
1F
100
AcDbEntity
  8
LOGO
 62
     4
100
AcDbLine
 10
250.5444646579165
 20
125.0041836681219
 30
0.0
 11
227.478779408603
 21
125.0041836681219
 31
0.0
  0
LINE
  5
776
330
1F
100
AcDbEntity
  8
LOGO
 62
     4
100
AcDbLine
 10
250.5444646579165
 20
116.2934451341857
 30
0.0
 11
227.478779408603
 21
116.2934451341857
 31
0.0
  0
LINE
  5
777
330
1F
100
AcDbEntity
  8
LOGO
 62
     4
100
AcDbLine
 10
227.478779408603
 20
125.0041836681219
 30
0.0
 11
227.478779408603
 21
116.2934451341857
 31
0.0
  0
LINE
  5
778
330
1F
100
AcDbEntity
  8
LOGO
 62
     4
100
AcDbLine
 10
250.5444646579165
 20
125.0041836681219
 30
0.0
 11
250.5444646579165
 21
116.2934451341857
 31
0.0
  0
LINE
  5
779
330
1F
100
AcDbEntity
  8
LOGO
 62
     4
100
AcDbLine
 10
238.1673372568431
 20
116.2934451341857
 30
0.0
 11
238.1673372568431
 21
111.9380758672178
 31
0.0
  0
LINE
  5
77A
330
1F
100
AcDbEntity
  8
LOGO
 62
     4
100
AcDbLine
 10
246.8359761506845
 20
111.9380758672178
 30
0.0
 11
227.478779408603
 21
111.9380758672178
 31
0.0
  0
TEXT
  5
77B
330
1F
100
AcDbEntity
  8
LOGO
  6
Continuous
100
AcDbText
 10
233.6904425591846
 20
102.794342658813
 30
190.2958178035923
 40
2.177999999999999
  1
Model
 41
0.8
  7
CHINESET
100
AcDbText
  0
TEXT
  5
77C
330
1F
100
AcDbEntity
  8
LOGO
100
AcDbText
 10
233.1107297616099
 20
106.8318852663115
 30
190.2958178035923
 40
3.63
  1
型號
  7
CHINESET
100
AcDbText
  0
LINE
  5
77D
330
1F
100
AcDbEntity
  8
LOGO
  6
Continuous
 62
     7
100
AcDbLine
 10
251.4704881573368
 20
120.6179595886448
 30
0.0
 11
255.316832453197
 21
120.6179595886448
 31
0.0
  0
LINE
  5
77E
330
1F
100
AcDbEntity
  8
LOGO
 62
     4
100
AcDbLine
 10
251.0799048144111
 20
111.9380758672178
 30
0.0
 11
251.0799048144111
 21
101.2916176590724
 31
0.0
  0
LINE
  5
77F
330
1F
100
AcDbEntity
  8
LOGO
 62
     4
100
AcDbLine
 10
267.52039713801
 20
101.2916176590724
 30
0.0
 11
251.0799048144111
 21
101.2916176590724
 31
0.0
  0
LINE
  5
780
330
1F
100
AcDbEntity
  8
LOGO
 62
     4
100
AcDbLine
 10
267.7475103637239
 20
125.0041836681219
 30
0.0
 11
256.5301513256333
 21
125.0041836681219
 31
0.0
  0
LINE
  5
781
330
1F
100
AcDbEntity
  8
LOGO
 62
     4
100
AcDbLine
 10
267.7475103637239
 20
116.2934451341857
 30
0.0
 11
256.5301513256333
 21
116.2934451341857
 31
0.0
  0
LINE
  5
782
330
1F
100
AcDbEntity
  8
LOGO
 62
     4
100
AcDbLine
 10
256.5301513256333
 20
125.0041836681219
 30
0.0
 11
256.5301513256333
 21
116.2934451341857
 31
0.0
  0
LINE
  5
783
330
1F
100
AcDbEntity
  8
LOGO
 62
     4
100
AcDbLine
 10
267.7475103637239
 20
125.0041836681219
 30
0.0
 11
267.7475103637239
 21
116.2934451341857
 31
0.0
  0
LINE
  5
784
330
1F
100
AcDbEntity
  8
LOGO
 62
     4
100
AcDbLine
 10
262.1388308446782
 20
116.2934451341857
 30
0.0
 11
262.1388308446782
 21
111.9380758672178
 31
0.0
  0
LINE
  5
785
330
1F
100
AcDbEntity
  8
LOGO
 62
     4
100
AcDbLine
 10
267.52039713801
 20
111.9380758672177
 30
0.0
 11
251.0799048144111
 21
111.9380758672178
 31
0.0
  0
TEXT
  5
786
330
1F
100
AcDbEntity
  8
LOGO
  6
Continuous
100
AcDbText
 10
258.1648613769776
 20
102.794342658813
 30
190.2958178035923
 40
2.177999999999999
  1
CODE
 41
0.8
  7
CHINESET
100
AcDbText
  0
TEXT
  5
787
330
1F
100
AcDbEntity
  8
LOGO
100
AcDbText
 10
258.1443438626309
 20
106.8318852663115
 30
190.2958178035923
 40
3.63
  1
記號
  7
CHINESET
100
AcDbText
  0
TEXT
  5
788
330
1F
100
AcDbEntity
  8
LOGO
100
AcDbText
 10
233.1107297616099
 20
119.2795356430383
 30
190.2958178035923
 40
3.63
  1
MED
  7
CHINESET
100
AcDbText
  0
TEXT
  5
789
330
1F
100
AcDbEntity
  8
LOGO
100
AcDbText
 10
259.5700650575019
 20
119.2795356430383
 30
190.2958178035923
 40
3.63
  1
15
  7
CHINESET
100
AcDbText
  0
LINE
  5
78A
330
1F
100
AcDbEntity
  8
LOGO
 62
     4
100
AcDbLine
 10
267.52039713801
 20
111.9380758672178
 30
0.0
 11
267.52039713801
 21
101.2916176590724
 31
0.0
  0
LINE
  5
78B
330
1F
100
AcDbEntity
  8
AM_7
 62
     1
100
AcDbLine
 10
168.7260410862769
 20
230.1198024152979
 30
0.0
 11
207.2928785331697
 21
230.1198024152979
 31
0.0
  0
LINE
  5
78C
330
1F
100
AcDbEntity
  8
AM_7
 62
     1
100
AcDbLine
 10
241.4089991278007
 20
230.1198024152979
 30
0.0
 11
303.8298778176746
 21
230.119802415298
 31
0.0
  0
LINE
  5
78D
330
1F
100
AcDbEntity
  8
AM_7
 62
     1
100
AcDbLine
 10
347.2112308868515
 20
230.119802415298
 30
0.0
 11
384.8953512278564
 21
230.1198024152979
 31
0.0
  0
MTEXT
  5
78E
330
1F
100
AcDbEntity
  8
AM_6
100
AcDbMText
 10
153.7047927729565
 20
198.3850521901635
 30
0.0
 40
3.5
 41
27.65308004358349
 71
     1
 72
     5
  1
{\C5;2-PT1/4}
 73
     1
 44
1.0
1001
GENIUS_AMGTXT_16
1040
3.5
1040
0.12
1001
ACAD
1000
MTEXTBEGIN
1070
    73
1070
     1
1070
    44
1040
1.0
1070
    74
1070
     0
1000
MTEXTEND
  0
LEADER
  5
78F
330
1F
100
AcDbEntity
  8
0
100
AcDbLeader
  3
STANDARD
 76
     3
 10
181.9388648556618
 20
222.9848334072351
 30
0.0
 10
171.0727274218872
 20
193.5000348054964
 30
0.0
 10
154.2361854475524
 20
193.5000348054964
 30
0.0
1001
ACAD
1000
DSTYLE
1002
{
1070
   176
1070
     5
1070
   177
1070
     5
1070
   178
1070
     5
1070
   272
1070
     8
1002
}
  0
DIMENSION
  5
790
330
1F
100
AcDbEntity
  8
0
100
AcDbDimension
  2
*D16
 10
152.3496625369868
 20
218.369802415298
 30
0.0
 11
149.8496625369867
 21
256.8693848195022
 31
0.0
 70
    32
 71
     5
 42
76.99916480840844
  3
STANDARD
100
AcDbAlignedDimension
 13
183.5273089241473
 23
295.3689672237064
 33
0.0
 14
170.2773089241473
 24
218.369802415298
 34
0.0
 50
90.0
100
AcDbRotatedDimension
1001
ACAD
1000
DSTYLE
1002
{
1070
   176
1070
     5
1070
   177
1070
     5
1070
   178
1070
     5
1070
   272
1070
     8
1002
}
  0
POINT
  5
791
330
1F
100
AcDbEntity
  8
0
 60
     1
100
AcDbPoint
 10
-1856.845139102984
 20
-781.5817426161758
 30
0.0
1001
GENIUS_GENOBJ-N-CRS_13
1002
{
1000
OWNER
1000
GEN
1002
}
1001
GENIUS_GENOLIS_13
1002
{
1000
ENT
1005
0
1005
0
1005
0
1005
771
1002
}
1001
GENIUS_GENOENT_13
1002
{
1000
MYREF
1005
791
1002
}
1002
{
1000
GRP
1005
0
1002
}
1001
GENIUS_GENODEF_13
1002
{
1000
HIER
1070
    10
1002
}
1002
{
1000
MANEDIT
1070
     1
1002
}
1002
{
1000
NOSEL
1070
     0
1002
}
1002
{
1000
BEHIND
1070
     0
1002
}
1002
{
1000
OTHER
1070
     0
1002
}
1002
{
1000
REACTOR
1002
}
  0
POINT
  5
792
330
1F
100
AcDbEntity
  8
0
 60
     1
100
AcDbPoint
 10
-1868.169724325839
 20
-772.7061561375395
 30
0.0
1001
GENIUS_GENOBJ-N-CRS_13
1002
{
1000
OWNER
1000
GEN
1002
}
1001
GENIUS_GENOLIS_13
1002
{
1000
ENT
1005
0
1005
0
1005
0
1005
770
1002
}
1001
GENIUS_GENOENT_13
1002
{
1000
MYREF
1005
792
1002
}
1002
{
1000
GRP
1005
0
1002
}
1001
GENIUS_GENODEF_13
1002
{
1000
HIER
1070
    10
1002
}
1002
{
1000
MANEDIT
1070
     1
1002
}
1002
{
1000
NOSEL
1070
     0
1002
}
1002
{
1000
BEHIND
1070
     0
1002
}
1002
{
1000
OTHER
1070
     0
1002
}
1002
{
1000
REACTOR
1002
}
  0
POINT
  5
793
330
1F
100
AcDbEntity
  8
0
 60
     1
100
AcDbPoint
 10
-1861.811050628002
 20
-781.5817426161758
 30
0.0
1001
GENIUS_GENOBJ-N-CRS_13
1002
{
1000
OWNER
1000
GEN
1002
}
1001
GENIUS_GENOLIS_13
1002
{
1000
ENT
1005
0
1005
0
1005
0
1005
76F
1002
}
1001
GENIUS_GENOENT_13
1002
{
1000
MYREF
1005
793
1002
}
1002
{
1000
GRP
1005
0
1002
}
1001
GENIUS_GENODEF_13
1002
{
1000
HIER
1070
    10
1002
}
1002
{
1000
MANEDIT
1070
     1
1002
}
1002
{
1000
NOSEL
1070
     0
1002
}
1002
{
1000
BEHIND
1070
     0
1002
}
1002
{
1000
OTHER
1070
     0
1002
}
1002
{
1000
REACTOR
1002
}
  0
ENDSEC
  0
SECTION
  2
OBJECTS
  0
DICTIONARY
  5
C
330
0
100
AcDbDictionary
281
     1
  3
ACAD_COLOR
350
BE
  3
ACAD_GROUP
350
D
  3
ACAD_LAYOUT
350
1A
  3
ACAD_MATERIAL
350
BD
  3
ACAD_MLINESTYLE
350
17
  3
ACAD_PLOTSETTINGS
350
19
  3
ACAD_PLOTSTYLENAME
350
E
  3
ACAD_TABLESTYLE
350
11A
  3
ACDBHEADERROUNDTRIPXREC
350
82B
  3
AcDbVariableDictionary
350
94
  3
AcmDictionary
350
5B
  3
AMG
350
41
  3
AMGSNAPSETTINGS
350
1B8
  3
DWGPROPS
350
82A
  0
DICTIONARY
  5
3BB
330
2
100
AcDbDictionary
280
     1
281
     1
  3
ACAD_LAYERSTATES
360
3BC
  0
DICTIONARY
  5
8F
330
1F
100
AcDbDictionary
280
     1
281
     1
  0
DICTIONARY
  5
BE
102
{ACAD_REACTORS
330
C
102
}
330
C
100
AcDbDictionary
281
     1
  0
DICTIONARY
  5
D
102
{ACAD_REACTORS
330
C
102
}
330
C
100
AcDbDictionary
281
     1
  0
DICTIONARY
  5
1A
102
{ACAD_REACTORS
330
C
102
}
330
C
100
AcDbDictionary
281
     1
  3
Model
350
22
  3
配置1
350
1E
  3
配置2
350
26
  0
DICTIONARY
  5
BD
102
{ACAD_REACTORS
330
C
102
}
330
C
100
AcDbDictionary
281
     1
  0
DICTIONARY
  5
17
102
{ACAD_REACTORS
330
C
102
}
330
C
100
AcDbDictionary
281
     1
  3
Standard
350
18
  0
DICTIONARY
  5
19
102
{ACAD_REACTORS
330
C
102
}
330
C
100
AcDbDictionary
281
     1
  0
ACDBDICTIONARYWDFLT
  5
E
102
{ACAD_REACTORS
330
C
102
}
330
C
100
AcDbDictionary
281
     1
  3
Normal
350
F
100
AcDbDictionaryWithDefault
340
F
  0
DICTIONARY
  5
11A
102
{ACAD_REACTORS
330
C
102
}
330
C
100
AcDbDictionary
281
     1
  3
Standard
350
11B
  0
DICTIONARY
  5
82B
102
{ACAD_REACTORS
330
C
102
}
330
C
100
AcDbDictionary
281
     1
  0
DICTIONARY
  5
94
102
{ACAD_REACTORS
330
C
102
}
330
C
100
AcDbDictionary
281
     1
  3
CTABLESTYLE
350
138
  3
DIMASSOC
350
96
  3
INDEXCTL
350
95
  3
PROJECTNAME
350
828
  0
DICTIONARY
  5
5B
102
{ACAD_REACTORS
330
C
102
}
330
C
100
AcDbDictionary
281
     1
  3
AcmBOM
350
1B5
  3
AcmStdDictionary
350
61
  3
AMDTSECTSYM_ARROWCOLOR
350
123
  0
DICTIONARY
  5
41
102
{ACAD_REACTORS
330
C
102
}
330
C
100
AcDbDictionary
281
     1
  0
DICTIONARY
  5
1B8
102
{ACAD_REACTORS
330
C
102
}
330
C
100
AcDbDictionary
281
     1
  0
XRECORD
  5
82A
102
{ACAD_REACTORS
330
C
102
}
330
C
100
AcDbXrecord
280
     1
  1
DWGPROPS COOKIE
  2

  3

  4

  6

  7

  8

  9

300
AmdtFileType=84
301
=
302
=
303
=
304
=
305
=
306
=
307
=
308
=
309
=
 40
0.0016623263888889
 41
2453883.409425996
 42
2453883.411087593
  1

 90
        1
  0
DICTIONARY
  5
3BC
102
{ACAD_REACTORS
330
3BB
102
}
330
3BB
100
AcDbDictionary
281
     1
  0
LAYOUT
  5
22
102
{ACAD_XDICTIONARY
360
82E
102
}
102
{ACAD_REACTORS
330
1A
102
}
330
1A
100
AcDbPlotSettings
  1

  2
\\RDS1\iR3300影印機
  4
A4
  6

 40
6.805083274841308
 41
5.619736671447753
 42
6.974411010742187
 43
5.027069091796875
 44
209.9733276367187
 45
296.9259948730469
 46
0.0
 47
0.0
 48
0.0
 49
0.0
140
0.0
141
0.0
142
1.0
143
1.491396423076278
 70
 11952
 72
     1
 73
     1
 74
     0
  7
彩色出圖.ctb
 75
     0
147
0.6705125374629212
148
-87.33137001851236
149
-97.77057742155816
100
AcDbLayout
  1
Model
 70
     1
 71
     0
 10
0.0
 20
0.0
 11
12.0
 21
9.0
 12
0.0
 22
0.0
 32
0.0
 14
0.0
 24
0.0
 34
0.0
 15
0.0
 25
0.0
 35
0.0
146
0.0
 13
0.0
 23
0.0
 33
0.0
 16
1.0
 26
0.0
 36
0.0
 17
0.0
 27
1.0
 37
0.0
 76
     0
330
1F
1001
ACAD_PSEXT
1000
\\RDS1\iR3300影印機
1000
Canon iR2200-3300 PCL5e
1000
\\RDS1
1000

1070
     0
  0
LAYOUT
  5
1E
102
{ACAD_XDICTIONARY
360
82C
102
}
102
{ACAD_REACTORS
330
1A
102
}
330
1A
100
AcDbPlotSettings
  1

  2

  4

  6

 40
0.0
 41
0.0
 42
0.0
 43
0.0
 44
0.0
 45
0.0
 46
0.0
 47
0.0
 48
0.0
 49
0.0
140
0.0
141
0.0
142
1.0
143
1.0
 70
   688
 72
     0
 73
     0
 74
     5
  7
彩色出圖.ctb
 75
    16
147
1.0
148
0.0
149
0.0
100
AcDbLayout
  1
配置1
 70
     1
 71
     1
 10
0.0
 20
0.0
 11
420.0
 21
297.0
 12
0.0
 22
0.0
 32
0.0
 14
1.000000000000000E+20
 24
1.000000000000000E+20
 34
1.000000000000000E+20
 15
-1.000000000000000E+20
 25
-1.000000000000000E+20
 35
-1.000000000000000E+20
146
0.0
 13
0.0
 23
0.0
 33
0.0
 16
1.0
 26
0.0
 36
0.0
 17
0.0
 27
1.0
 37
0.0
 76
     0
330
1B
  0
LAYOUT
  5
26
102
{ACAD_XDICTIONARY
360
830
102
}
102
{ACAD_REACTORS
330
1A
102
}
330
1A
100
AcDbPlotSettings
  1

  2

  4

  6

 40
0.0
 41
0.0
 42
0.0
 43
0.0
 44
0.0
 45
0.0
 46
0.0
 47
0.0
 48
0.0
 49
0.0
140
0.0
141
0.0
142
1.0
143
1.0
 70
   688
 72
     0
 73
     0
 74
     5
  7
彩色出圖.ctb
 75
    16
147
1.0
148
0.0
149
0.0
100
AcDbLayout
  1
配置2
 70
     1
 71
     2
 10
0.0
 20
0.0
 11
12.0
 21
9.0
 12
0.0
 22
0.0
 32
0.0
 14
0.0
 24
0.0
 34
0.0
 15
0.0
 25
0.0
 35
0.0
146
0.0
 13
0.0
 23
0.0
 33
0.0
 16
1.0
 26
0.0
 36
0.0
 17
0.0
 27
1.0
 37
0.0
 76
     0
330
23
  0
MLINESTYLE
  5
18
102
{ACAD_REACTORS
330
17
102
}
330
17
100
AcDbMlineStyle
  2
STANDARD
 70
     0
  3

 62
   256
 51
90.0
 52
90.0
 71
     2
 49
0.5
 62
   256
  6
BYLAYER
 49
-0.5
 62
   256
  6
BYLAYER
  0
ACDBPLACEHOLDER
  5
F
102
{ACAD_REACTORS
330
E
102
}
330
E
  0
TABLESTYLE
  5
11B
102
{ACAD_REACTORS
330
11A
102
}
330
11A
100
AcDbTableStyle
  3
Standard
 70
     0
 71
     0
 40
1.5
 41
1.5
280
     0
281
     0
  7
STANDARD
140
4.5
170
     2
 62
     0
 63
     7
283
     0
274
    -2
284
     1
 64
     0
275
    -2
285
     1
 65
     0
276
    -2
286
     1
 66
     0
277
    -2
287
     1
 67
     0
278
    -2
288
     1
 68
     0
279
    -2
289
     1
 69
     0
  7
STANDARD
140
6.0
170
     5
 62
     0
 63
     7
283
     0
274
    -2
284
     1
 64
     0
275
    -2
285
     1
 65
     0
276
    -2
286
     1
 66
     0
277
    -2
287
     1
 67
     0
278
    -2
288
     1
 68
     0
279
    -2
289
     1
 69
     0
  7
STANDARD
140
4.5
170
     5
 62
     0
 63
     7
283
     0
274
    -2
284
     1
 64
     0
275
    -2
285
     1
 65
     0
276
    -2
286
     1
 66
     0
277
    -2
287
     1
 67
     0
278
    -2
288
     1
 68
     0
279
    -2
289
     1
 69
     0
  0
DICTIONARYVAR
  5
138
102
{ACAD_REACTORS
330
94
102
}
330
94
100
DictionaryVariables
280
     0
  1
STANDARD
  0
DICTIONARYVAR
  5
96
102
{ACAD_REACTORS
330
94
102
}
330
94
100
DictionaryVariables
280
     0
  1
2
  0
DICTIONARYVAR
  5
95
102
{ACAD_REACTORS
330
94
102
}
330
94
100
DictionaryVariables
280
     0
  1
0
  0
DICTIONARYVAR
  5
828
102
{ACAD_REACTORS
330
94
102
}
330
94
100
DictionaryVariables
280
     0
  1

  0
DICTIONARY
  5
1B5
102
{ACAD_REACTORS
330
5B
102
}
330
5B
100
AcDbDictionary
281
     1
  0
DICTIONARY
  5
61
102
{ACAD_REACTORS
330
5B
102
}
330
5B
100
AcDbDictionary
281
     1
  0
XRECORD
  5
123
102
{ACAD_REACTORS
330
5B
102
}
330
5B
100
AcDbXrecord
280
     1
 90
-1023410169
  0
DICTIONARY
  5
82E
330
22
100
AcDbDictionary
280
     1
281
     1
  3
ACAD_XREC_ROUNDTRIP
360
82F
  0
DICTIONARY
  5
82C
330
1E
100
AcDbDictionary
280
     1
281
     1
  3
ACAD_XREC_ROUNDTRIP
360
82D
  0
DICTIONARY
  5
830
330
26
100
AcDbDictionary
280
     1
281
     1
  3
ACAD_XREC_ROUNDTRIP
360
831
  0
XRECORD
  5
82F
102
{ACAD_REACTORS
330
82E
102
}
330
82E
100
AcDbXrecord
280
     1
102
SHADEPLOT
 70
     0
102
SHADEPLOTRESLEVEL
 70
     2
102
SHADEPLOTCUSTOMDPI
 70
   300
  0
XRECORD
  5
82D
102
{ACAD_REACTORS
330
82C
102
}
330
82C
100
AcDbXrecord
280
     1
102
SHADEPLOT
 70
     0
102
SHADEPLOTRESLEVEL
 70
     2
102
SHADEPLOTCUSTOMDPI
 70
   300
  0
XRECORD
  5
831
102
{ACAD_REACTORS
330
830
102
}
330
830
100
AcDbXrecord
280
     1
102
SHADEPLOT
 70
     0
102
SHADEPLOTRESLEVEL
 70
     2
102
SHADEPLOTCUSTOMDPI
 70
   300
  0
ENDSEC
  0
EOF
