  0
SECTION
  2
HEADER
  9
$ACADVER
  1
AC1015
  9
$ACADMAINTVER
 70
    20
  9
$DWGCODEPAGE
  3
ANSI_950
  9
$INSBASE
 10
0.0
 20
0.0
 30
0.0
  9
$EXTMIN
 10
88.5979501198094
 20
144.950241268999
 30
-0.0043991851715646
  9
$EXTMAX
 10
421.1294166994709
 20
424.9876463337589
 30
144.16789819254
  9
$LIMMIN
 10
0.0
 20
0.0
  9
$LIMMAX
 10
420.0
 20
297.0
  9
$ORTHOMODE
 70
     1
  9
$REGENMODE
 70
     1
  9
$FILLMODE
 70
     1
  9
$QTEXTMODE
 70
     0
  9
$MIRRTEXT
 70
     1
  9
$LTSCALE
 40
1.0
  9
$ATTMODE
 70
     1
  9
$TEXTSIZE
 40
3.0
  9
$TRACEWID
 40
1.0
  9
$TEXTSTYLE
  7
STANDARD
  9
$CLAYER
  8
0
  9
$CELTYPE
  6
ByLayer
  9
$CECOLOR
 62
   256
  9
$CELTSCALE
 40
1.0
  9
$DISPSILH
 70
     0
  9
$DIMSCALE
 40
1.0
  9
$DIMASZ
 40
3.0
  9
$DIMEXO
 40
1.5
  9
$DIMDLI
 40
8.0
  9
$DIMRND
 40
0.0
  9
$DIMDLE
 40
0.0
  9
$DIMEXE
 40
1.5
  9
$DIMTP
 40
0.1
  9
$DIMTM
 40
0.1
  9
$DIMTXT
 40
3.5
  9
$DIMCEN
 40
0.0
  9
$DIMTSZ
 40
0.0
  9
$DIMTOL
 70
     0
  9
$DIMLIM
 70
     0
  9
$DIMTIH
 70
     0
  9
$DIMTOH
 70
     0
  9
$DIMSE1
 70
     0
  9
$DIMSE2
 70
     0
  9
$DIMTAD
 70
     1
  9
$DIMZIN
 70
     8
  9
$DIMBLK
  1

  9
$DIMASO
 70
     1
  9
$DIMSHO
 70
     1
  9
$DIMPOST
  1

  9
$DIMAPOST
  1
"
  9
$DIMALT
 70
     0
  9
$DIMALTD
 70
     2
  9
$DIMALTF
 40
0.0393701
  9
$DIMLFAC
 40
1.0
  9
$DIMTOFL
 70
     1
  9
$DIMTVP
 40
0.0
  9
$DIMTIX
 70
     0
  9
$DIMSOXD
 70
     0
  9
$DIMSAH
 70
     0
  9
$DIMBLK1
  1

  9
$DIMBLK2
  1

  9
$DIMSTYLE
  2
AM_ISO
  9
$DIMCLRD
 70
   256
  9
$DIMCLRE
 70
   256
  9
$DIMCLRT
 70
   256
  9
$DIMTFAC
 40
0.71
  9
$DIMGAP
 40
1.5
  9
$DIMJUST
 70
     0
  9
$DIMSD1
 70
     0
  9
$DIMSD2
 70
     0
  9
$DIMTOLJ
 70
     0
  9
$DIMTZIN
 70
     8
  9
$DIMALTZ
 70
     0
  9
$DIMALTTZ
 70
     0
  9
$DIMUPT
 70
     0
  9
$DIMDEC
 70
     2
  9
$DIMTDEC
 70
     2
  9
$DIMALTU
 70
     2
  9
$DIMALTTD
 70
     2
  9
$DIMTXSTY
  7
STANDARD
  9
$DIMAUNIT
 70
     0
  9
$DIMADEC
 70
     0
  9
$DIMALTRND
 40
0.0
  9
$DIMAZIN
 70
     2
  9
$DIMDSEP
 70
    46
  9
$DIMATFIT
 70
     3
  9
$DIMFRAC
 70
     0
  9
$DIMLDRBLK
  1

  9
$DIMLUNIT
 70
     2
  9
$DIMLWD
 70
    -1
  9
$DIMLWE
 70
    -1
  9
$DIMTMOVE
 70
     0
  9
$LUNITS
 70
     2
  9
$LUPREC
 70
     2
  9
$SKETCHINC
 40
1.0
  9
$FILLETRAD
 40
2.5
  9
$AUNITS
 70
     0
  9
$AUPREC
 70
     0
  9
$MENU
  1
.
  9
$ELEVATION
 40
0.0
  9
$PELEVATION
 40
0.0
  9
$THICKNESS
 40
0.0
  9
$LIMCHECK
 70
     0
  9
$CHAMFERA
 40
2.5
  9
$CHAMFERB
 40
2.5
  9
$CHAMFERC
 40
20.0
  9
$CHAMFERD
 40
0.0
  9
$SKPOLY
 70
     0
  9
$TDCREATE
 40
2453885.348640764
  9
$TDUCREATE
 40
2453885.015307431
  9
$TDUPDATE
 40
2453977.342853542
  9
$TDUUPDATE
 40
2453977.009520209
  9
$TDINDWG
 40
0.0042173032
  9
$TDUSRTIMER
 40
0.0042173032
  9
$USRTIMER
 70
     1
  9
$ANGBASE
 50
0.0
  9
$ANGDIR
 70
     0
  9
$PDMODE
 70
     0
  9
$PDSIZE
 40
0.0
  9
$PLINEWID
 40
0.0
  9
$SPLFRAME
 70
     0
  9
$SPLINETYPE
 70
     6
  9
$SPLINESEGS
 70
     8
  9
$HANDSEED
  5
7AC
  9
$SURFTAB1
 70
     6
  9
$SURFTAB2
 70
     6
  9
$SURFTYPE
 70
     6
  9
$SURFU
 70
     6
  9
$SURFV
 70
     6
  9
$UCSBASE
  2

  9
$UCSNAME
  2

  9
$UCSORG
 10
0.0
 20
0.0
 30
0.0
  9
$UCSXDIR
 10
1.0
 20
0.0
 30
0.0
  9
$UCSYDIR
 10
0.0
 20
1.0
 30
0.0
  9
$UCSORTHOREF
  2

  9
$UCSORTHOVIEW
 70
     0
  9
$UCSORGTOP
 10
0.0
 20
0.0
 30
0.0
  9
$UCSORGBOTTOM
 10
0.0
 20
0.0
 30
0.0
  9
$UCSORGLEFT
 10
0.0
 20
0.0
 30
0.0
  9
$UCSORGRIGHT
 10
0.0
 20
0.0
 30
0.0
  9
$UCSORGFRONT
 10
0.0
 20
0.0
 30
0.0
  9
$UCSORGBACK
 10
0.0
 20
0.0
 30
0.0
  9
$PUCSBASE
  2

  9
$PUCSNAME
  2

  9
$PUCSORG
 10
0.0
 20
0.0
 30
0.0
  9
$PUCSXDIR
 10
1.0
 20
0.0
 30
0.0
  9
$PUCSYDIR
 10
0.0
 20
1.0
 30
0.0
  9
$PUCSORTHOREF
  2

  9
$PUCSORTHOVIEW
 70
     0
  9
$PUCSORGTOP
 10
0.0
 20
0.0
 30
0.0
  9
$PUCSORGBOTTOM
 10
0.0
 20
0.0
 30
0.0
  9
$PUCSORGLEFT
 10
0.0
 20
0.0
 30
0.0
  9
$PUCSORGRIGHT
 10
0.0
 20
0.0
 30
0.0
  9
$PUCSORGFRONT
 10
0.0
 20
0.0
 30
0.0
  9
$PUCSORGBACK
 10
0.0
 20
0.0
 30
0.0
  9
$USERI1
 70
     0
  9
$USERI2
 70
     0
  9
$USERI3
 70
     0
  9
$USERI4
 70
     0
  9
$USERI5
 70
     0
  9
$USERR1
 40
0.0
  9
$USERR2
 40
0.0
  9
$USERR3
 40
0.0
  9
$USERR4
 40
0.0
  9
$USERR5
 40
0.0
  9
$WORLDVIEW
 70
     1
  9
$SHADEDGE
 70
     3
  9
$SHADEDIF
 70
    70
  9
$TILEMODE
 70
     1
  9
$MAXACTVP
 70
    64
  9
$PINSBASE
 10
0.0
 20
0.0
 30
0.0
  9
$PLIMCHECK
 70
     0
  9
$PEXTMIN
 10
1.000000000000000E+20
 20
1.000000000000000E+20
 30
1.000000000000000E+20
  9
$PEXTMAX
 10
-1.000000000000000E+20
 20
-1.000000000000000E+20
 30
-1.000000000000000E+20
  9
$PLIMMIN
 10
0.0
 20
0.0
  9
$PLIMMAX
 10
420.0
 20
297.0
  9
$UNITMODE
 70
     0
  9
$VISRETAIN
 70
     1
  9
$PLINEGEN
 70
     0
  9
$PSLTSCALE
 70
     1
  9
$TREEDEPTH
 70
  3020
  9
$CMLSTYLE
  2
Standard
  9
$CMLJUST
 70
     0
  9
$CMLSCALE
 40
20.0
  9
$PROXYGRAPHICS
 70
     1
  9
$MEASUREMENT
 70
     1
  9
$CELWEIGHT
370
    -1
  9
$ENDCAPS
280
     0
  9
$JOINSTYLE
280
     0
  9
$LWDISPLAY
290
     0
  9
$INSUNITS
 70
     4
  9
$HYPERLINKBASE
  1

  9
$STYLESHEET
  1
彩色出圖.ctb
  9
$XEDIT
290
     1
  9
$CEPSNTYPE
380
     0
  9
$PSTYLEMODE
290
     1
  9
$FINGERPRINTGUID
  2
{ACE92AD8-7496-45A1-82E5-E026D40FF131}
  9
$VERSIONGUID
  2
{A4B494A6-FF7B-4F28-A1D6-30A1F40DC707}
  9
$EXTNAMES
290
     1
  9
$PSVPSCALE
 40
0.0
  9
$OLESTARTUP
290
     0
  0
ENDSEC
  0
SECTION
  2
CLASSES
  0
CLASS
  1
ACDBDICTIONARYWDFLT
  2
AcDbDictionaryWithDefault
  3
ObjectDBX Classes
 90
        0
280
     0
281
     0
  0
CLASS
  1
ACDBPLACEHOLDER
  2
AcDbPlaceHolder
  3
ObjectDBX Classes
 90
        0
280
     0
281
     0
  0
CLASS
  1
LAYOUT
  2
AcDbLayout
  3
ObjectDBX Classes
 90
        0
280
     0
281
     0
  0
CLASS
  1
ACME_DOCUMENT
  2
AcMeDbDoc
  3
AcMeServices
 90
        0
280
     0
281
     0
  0
CLASS
  1
AMGSETTINGSOBJ
  2
AmgSettingsObj
  3
"AcadM|Product Description: AutoCAD Mechanical 2000|Company: Autodesk"
 90
        0
280
     0
281
     0
  0
CLASS
  1
ACMESCOPE
  2
AcMeScope
  3
AcMeServices
 90
        0
280
     0
281
     0
  0
CLASS
  1
ACMECOMMANDHISTORY
  2
AcMeCommandHistory
  3
AcMeServices
 90
        0
280
     0
281
     0
  0
CLASS
  1
ACIMSYSVARMAN
  2
AcImSysVarManager
  3
AcMeServices
 90
        0
280
     0
281
     0
  0
CLASS
  1
ACIMREALSYSVAR
  2
AcImRealSysVar
  3
AcMeServices
 90
        0
280
     0
281
     0
  0
CLASS
  1
ACIMINTSYSVAR
  2
AcImIntSysVar
  3
AcMeServices
 90
        0
280
     0
281
     0
  0
CLASS
  1
ACMEDRAWINGMAN
  2
AcMeDrawingMan
  3
AcMeServices
 90
        0
280
     0
281
     0
  0
CLASS
  1
ACMEVIEW
  2
AcMeView
  3
AcMeServices
 90
        0
280
     0
281
     0
  0
CLASS
  1
ACDBENTITYCACHE
  2
AcMeEntityCache
  3
AcMeServices
 90
        0
280
     0
281
     0
  0
CLASS
  1
GSMANAGER
  2
AcMeGSManager
  3
AcMeServices
 90
        0
280
     0
281
     0
  0
CLASS
  1
AMDTINTERNALREACTOR
  2
AmdtInternalReactor
  3
AcMeServices
 90
        0
280
     0
281
     0
  0
CLASS
  1
ACMESTATEMGR
  2
AcMeStateMgr
  3
AcMeServices
 90
        0
280
     0
281
     0
  0
CLASS
  1
ACGREFMASTER
  2
AcGrefMaster
  3
AcAttribServices
 90
        0
280
     0
281
     0
  0
CLASS
  1
ACME_DATABASE
  2
AcMeDbDatabase
  3
AcMeServices
 90
        0
280
     0
281
     0
  0
CLASS
  1
ACRFINSADJUSTERMGR
  2
AcRfInsAdjusterMgr
  3
AcMeServices
 90
        0
280
     0
281
     0
  0
CLASS
  1
ACGREFACADMASTER
  2
AcGrefacadMaster
  3
AcGrefServices
 90
        0
280
     0
281
     0
  0
CLASS
  1
AMIMASTER
  2
AmiMaster
  3
AmiServices
 90
        0
280
     0
281
     0
  0
CLASS
  1
ACMDATADICTIONARY
  2
AcmDataDictionary
  3
"AcmSymBB|Product Description: AutoCAD Mechanical 2004 DX|Company: Autodesk"
 90
        0
280
     0
281
     0
  0
CLASS
  1
ACMDATAENTRYBLOCK
  2
AcmDataEntryBlock
  3
"AcmSymBB|Product Description: AutoCAD Mechanical 2004 DX|Company: Autodesk"
 90
        0
280
     0
281
     0
  0
CLASS
  1
ACIMSTRSYSVAR
  2
AcImStrSysVar
  3
AcMeServices
 90
        0
280
     0
281
     0
  0
CLASS
  1
ACMSTANDARDISO
  2
AcmStandardISO
  3
"Amdt_StdImp|Product Description: AutoCAD Mechanical 2004 DX|Company: Autodesk"
 90
        0
280
     0
281
     0
  0
CLASS
  1
AMGOBJPROPCFG
  2
AmgObjPropCfg
  3
"AmgLay|Product Description: AutoCAD Mechanical 2000|Company: Autodesk"
 90
        1
280
     0
281
     0
  0
CLASS
  1
AMDTEDGESTANDARDISO
  2
AmdtEdgeStdISO
  3
"Amdt_StdImp|Product Description: AutoCAD Mechanical 2004 DX|Company: Autodesk"
 90
        0
280
     0
281
     0
  0
CLASS
  1
ACMSURFSTANDARDISO
  2
AcmSurfTextStdISO
  3
"Amdt_StdImp|Product Description: AutoCAD Mechanical 2004 DX|Company: Autodesk"
 90
        0
280
     0
281
     0
  0
CLASS
  1
ACMFCFSTANDARDISO
  2
AcmFCFStdISO
  3
"Amdt_StdImp|Product Description: AutoCAD Mechanical 2004 DX|Company: Autodesk"
 90
        0
280
     0
281
     0
  0
CLASS
  1
ACMWELDSTANDARDISO
  2
AcmWeldingStdISO
  3
"Amdt_StdImp|Product Description: AutoCAD Mechanical 2004 DX|Company: Autodesk"
 90
        0
280
     0
281
     0
  0
CLASS
  1
ACMIDSTANDARDISO
  2
AcmIdStdISO
  3
"Amdt_StdImp|Product Description: AutoCAD Mechanical 2004 DX|Company: Autodesk"
 90
        0
280
     0
281
     0
  0
CLASS
  1
ACMDATUMSTANDARDISO
  2
AcmDatumStdISO
  3
"Amdt_StdImp|Product Description: AutoCAD Mechanical 2004 DX|Company: Autodesk"
 90
        0
280
     0
281
     0
  0
CLASS
  1
ACMBOMSTANDARDISO
  2
AcmBOMStdISO
  3
"Amdt_StdImp|Product Description: AutoCAD Mechanical 2004 DX|Company: Autodesk"
 90
        0
280
     0
281
     0
  0
CLASS
  1
ACMDETAILSTANDARDISO
  2
AmdtDetailSymStdISO
  3
"Amdt_StdImp|Product Description: AutoCAD Mechanical 2004 DX|Company: Autodesk"
 90
        0
280
     0
281
     0
  0
CLASS
  1
ACMSECTIONSTANDARDISO
  2
AmdtSectionSymStdISO
  3
"Amdt_StdImp|Product Description: AutoCAD Mechanical 2004 DX|Company: Autodesk"
 90
        0
280
     0
281
     0
  0
CLASS
  1
ACMCENTERLINESTANDARDISO
  2
AmdtCenterLineStdISO
  3
"Amdt_StdImp|Product Description: AutoCAD Mechanical 2004 DX|Company: Autodesk"
 90
        0
280
     0
281
     0
  0
CLASS
  1
ACMNOTESTANDARDISO
  2
AmdtNoteStdISO
  3
"Amdt_StdImp|Product Description: AutoCAD Mechanical 2004 DX|Company: Autodesk"
 90
        0
280
     0
281
     0
  0
CLASS
  1
ACAMGLAYSTD
  2
AcAmgLayStd
  3
"AcAmgLayStd|Product Description: AutoCAD Mechanical 2000|Company: Autodesk"
 90
        0
280
     0
281
     0
  0
CLASS
  1
ACAMGDIMSTD
  2
AcAmgDimStd
  3
"AcAmgDimStd|Product Description: AutoCAD Mechanical 2000|Company: Autodesk"
 90
        0
280
     0
281
     0
  0
CLASS
  1
ACAMGHOLECHARTSTDISO
  2
AcAmgHoleChartStdISO
  3
ACMSYMBB_MODULE_NAME
 90
        0
280
     0
281
     0
  0
CLASS
  1
ACAMGTITLESTD
  2
AcAmgTitleStd
  3
"TITLEAPP"
 90
        0
280
     0
281
     0
  0
CLASS
  1
LAYER_INDEX
  2
AcDbLayerIndex
  3
ObjectDBX Classes
 90
    32768
280
     0
281
     0
  0
CLASS
  1
IDBUFFER
  2
AcDbIdBuffer
  3
ObjectDBX Classes
 90
    32768
280
     0
281
     0
  0
CLASS
  1
DICTIONARYVAR
  2
AcDbDictionaryVar
  3
ObjectDBX Classes
 90
        0
280
     0
281
     0
  0
CLASS
  1
AM_DRAWING_MGR
  2
AcDmDwgMgr
  3
AcMechDwgViewMgmt
 90
        0
280
     0
281
     0
  0
CLASS
  1
AM_DWG_DOCUMENT
  2
AcDmDwgDocument
  3
AcMechDwgViewMgmt
 90
        0
280
     0
281
     0
  0
CLASS
  1
AM_DWG_SHEET
  2
AcDmSheet
  3
AcMechDwgViewMgmt
 90
        0
280
     0
281
     0
  0
CLASS
  1
AM_VIEWDIMPARMAP
  2
AcDmViewDimParMap
  3
AcMechDwgViewMgmt
 90
        0
280
     0
281
     0
  0
CLASS
  1
AM_DWGMGR_NAME
  2
AcDmDwgMgrName
  3
AcMechDwgViewMgmt
 90
        0
280
     0
281
     0
  0
CLASS
  1
AMDTMENUSTATEMGR
  2
AmdtMenuStateMgr
  3
McadcomServices
 90
        0
280
     0
281
     0
  0
CLASS
  1
AMDTMCOMMENUSTATE
  2
AmdtMcomMenuState
  3
McadcomServices
 90
        0
280
     0
281
     0
  0
CLASS
  1
MAPIAMMOUDLE
  2
MApiAmModule
  3
MApiAmServices
 90
        0
280
     0
281
     0
  0
CLASS
  1
AMDTADMENUSTATE
  2
AmdtAdMenuState
  3
DesignerServices
 90
        0
280
     0
281
     0
  0
CLASS
  1
ADAPPL
  2
AcAdAppl
  3
DesignerServices
 90
        0
280
     0
281
     0
  0
CLASS
  1
DEPMGR
  2
AcAdDepMgr
  3
DesignerServices
 90
        0
280
     0
281
     0
  0
CLASS
  1
PARAMMGR
  2
AcAdParamMgr
  3
DesignerServices
 90
        0
280
     0
281
     0
  0
CLASS
  1
PARAMSCOPE
  2
AcAdParamScope
  3
DesignerServices
 90
        0
280
     0
281
     0
  0
CLASS
  1
NAMEDAPPL
  2
AcAdNamedAppl
  3
DesignerServices
 90
        0
280
     0
281
     0
  0
CLASS
  1
AMDTDMMENUSTATE
  2
AmdtDmMenuState
  3
AcMechDwgViewMgmt
 90
        0
280
     0
281
     0
  0
CLASS
  1
AMDTAMMENUSTATE
  2
AmdtAmMenuState
  3
DesignerAssemblies
 90
        0
280
     0
281
     0
  0
CLASS
  1
ACAMPROJECT
  2
AcAmProject
  3
DesignerAssemblies
 90
        0
280
     0
281
     0
  0
CLASS
  1
ACAMGRCOMPDEF
  2
AcAmGrCompDef
  3
DesignerAssemblies
 90
        0
280
     0
281
     0
  0
CLASS
  1
ACCMCONTEXT
  2
AcCmContext
  3
DesignerAssemblies
 90
        0
280
     0
281
     0
  0
CLASS
  1
ACAMCOMPDEF
  2
AcAmCompDef
  3
DesignerAssemblies
 90
        0
280
     0
281
     0
  0
CLASS
  1
ACAMCOMPDEFMGR
  2
AcAmCompDefMgr
  3
DesignerAssemblies
 90
        0
280
     0
281
     0
  0
CLASS
  1
AMCONTEXTMGR
  2
AcAmContextMgr
  3
DesignerAssemblies
 90
        0
280
     0
281
     0
  0
CLASS
  1
ACAMCONTEXTMODELER
  2
AcAmContextModeler
  3
DesignerAssemblies
 90
        0
280
     0
281
     0
  0
CLASS
  1
ACMTHREADLINESTANDARDISO
  2
AmdtThreadLineStdISO
  3
"Amdt_StdImp|Product Description: AutoCAD Mechanical 2004 DX|Company: Autodesk"
 90
        0
280
     0
281
     0
  0
CLASS
  1
CATALOGSTATE
  2
AcAmCatalogState
  3
DesignerAssemblies
 90
        0
280
     0
281
     0
  0
CLASS
  1
ACAMGRCOMPDEFSET
  2
AcAmGrCompDefSet
  3
DesignerAssemblies
 90
        0
280
     0
281
     0
  0
CLASS
  1
AMDTBROWSERDBTAB
  2
AmdtBrowserDbTab
  3
McadcomServices
 90
        0
280
     0
281
     0
  0
CLASS
  1
CBROWSERAPPOBJECT
  2
CBrowserAppObject
  3
McadcomServices
 90
        0
280
     0
281
     0
  0
CLASS
  1
DM_PLACEHOLDER
  2
AcDmSelsetPlaceholder
  3
AcMechDwgViewMgmt
 90
        0
280
     0
281
     0
  0
CLASS
  1
TABLESTYLE
  2
AcDbTableStyle
  3
ObjectDBX Classes
 90
     2047
280
     0
281
     0
  0
CLASS
  1
VAACXREFPANELOBJECT
  2
VaAcXREFPanelObject
  3
VAAC_ADDIN
 90
        0
280
     0
281
     0
  0
CLASS
  1
VAACIMAGEINVENTORY
  2
VaAcImageInventory
  3
VAAC_ADDIN
 90
        0
280
     0
281
     0
  0
CLASS
  1
AMDTNOTETEMPLATEDB
  2
AmdtNoteTemplateDB
  3
AMDT_STDIMP_MODULE_NAME
 90
        0
280
     0
281
     0
  0
CLASS
  1
ACMBOM
  2
AcmBom
  3
"AcmSymBB|Product Description: AutoCAD Mechanical 2004 DX|Company: Autodesk"
 90
    32768
280
     0
281
     0
  0
CLASS
  1
AMDTFORMULAUPDATEDISPATCHER
  2
AmdtFormulaUpdateDispatcher
  3
AcMeServices
 90
    32768
280
     0
281
     0
  0
CLASS
  1
ACMPARTLIST
  2
AcmPartList
  3
"AcmSymBB|Product Description: AutoCAD Mechanical 2004 DX|Company: Autodesk"
 90
    33791
280
     0
281
     1
  0
CLASS
  1
ACAMGFILTERDAT
  2
AcAmgFilterDat
  3
"AcadM|Product Description: AutoCAD Mechanical 2000|Company: Autodesk"
 90
        0
280
     0
281
     0
  0
CLASS
  1
DIMASSOC
  2
AcDbDimAssoc
  3
"AcDbDimAssoc|Product Desc:     AcDim ARX App For Dimension|Company:          Autodesk, Inc.|WEB Address:      www.autodesk.com"
 90
    32768
280
     0
281
     0
  0
CLASS
  1
SORTENTSTABLE
  2
AcDbSortentsTable
  3
ObjectDBX Classes
 90
    32768
280
     0
281
     0
  0
CLASS
  1
ACMSTANDARDJIS
  2
AcmStandardJIS
  3
"Amdt_StdImp|Product Description: AutoCAD Mechanical 2004 DX|Company: Autodesk"
 90
        0
280
     0
281
     0
  0
CLASS
  1
ACMSURFSTANDARDJIS
  2
AcmSurfTextStdJIS
  3
"Amdt_StdImp|Product Description: AutoCAD Mechanical 2004 DX|Company: Autodesk"
 90
        0
280
     0
281
     0
  0
CLASS
  1
ACMFCFSTANDARDJIS
  2
AcmFCFStdJIS
  3
"Amdt_StdImp|Product Description: AutoCAD Mechanical 2004 DX|Company: Autodesk"
 90
        0
280
     0
281
     0
  0
CLASS
  1
ACMWELDSTANDARDJIS
  2
AcmWeldingStdJIS
  3
"Amdt_StdImp|Product Description: AutoCAD Mechanical 2004 DX|Company: Autodesk"
 90
        0
280
     0
281
     0
  0
CLASS
  1
ACMIDSTANDARDJIS
  2
AcmIdStdJIS
  3
"Amdt_StdImp|Product Description: AutoCAD Mechanical 2004 DX|Company: Autodesk"
 90
        0
280
     0
281
     0
  0
CLASS
  1
ACMDATUMSTANDARDJIS
  2
AcmDatumStdJIS
  3
"Amdt_StdImp|Product Description: AutoCAD Mechanical 2004 DX|Company: Autodesk"
 90
        0
280
     0
281
     0
  0
CLASS
  1
ACMBOMSTANDARDJIS
  2
AcmBOMStdJIS
  3
"Amdt_StdImp|Product Description: AutoCAD Mechanical 2004 DX|Company: Autodesk"
 90
        0
280
     0
281
     0
  0
CLASS
  1
ACMDETAILSTANDARDJIS
  2
AmdtDetailSymStdJIS
  3
"Amdt_StdImp|Product Description: AutoCAD Mechanical 2004 DX|Company: Autodesk"
 90
        0
280
     0
281
     0
  0
CLASS
  1
ACMSECTIONSTANDARDJIS
  2
AmdtSectionSymStdJIS
  3
"Amdt_StdImp|Product Description: AutoCAD Mechanical 2004 DX|Company: Autodesk"
 90
        0
280
     0
281
     0
  0
CLASS
  1
ACMCENTERLINESTANDARDJIS
  2
AmdtCenterLineStdJIS
  3
"Amdt_StdImp|Product Description: AutoCAD Mechanical 2004 DX|Company: Autodesk"
 90
        0
280
     0
281
     0
  0
CLASS
  1
ACMTHREADLINESTANDARDJIS
  2
AmdtThreadLineStdJIS
  3
"Amdt_StdImp|Product Description: AutoCAD Mechanical 2004 DX|Company: Autodesk"
 90
        0
280
     0
281
     0
  0
CLASS
  1
ACMNOTESTANDARDJIS
  2
AmdtNoteStdJIS
  3
"Amdt_StdImp|Product Description: AutoCAD Mechanical 2004 DX|Company: Autodesk"
 90
        0
280
     0
281
     0
  0
CLASS
  1
ACAMGHOLECHARTSTDJIS
  2
AcAmgHoleChartStdJIS
  3
ACMSYMBB_MODULE_NAME
 90
        0
280
     0
281
     0
  0
CLASS
  1
ACRFATTGENMGR
  2
AcRfAttGeneralMgr
  3
AcAttribServices
 90
        0
280
     0
281
     0
  0
ENDSEC
  0
SECTION
  2
TABLES
  0
TABLE
  2
VPORT
  5
8
330
0
100
AcDbSymbolTable
 70
     3
  0
VPORT
  5
7A3
330
8
100
AcDbSymbolTableRecord
100
AcDbViewportTableRecord
  2
*Active
 70
     0
 10
0.0
 20
0.0
 11
1.0
 21
1.0
 12
254.8636834096401
 22
284.9689438013789
 13
0.0
 23
0.0
 14
2.5
 24
2.5
 15
10.0
 25
10.0
 16
0.0
 26
0.0
 36
1.0
 17
0.0
 27
0.0
 37
0.0
 40
282.1615826000173
 41
1.494936708860759
 42
50.0
 43
0.0
 44
0.0
 50
0.0
 51
0.0
 71
     0
 72
   100
 73
     1
 74
     3
 75
     0
 76
     0
 77
     0
 78
     0
281
     0
 65
     1
110
0.0
120
0.0
130
0.0
111
1.0
121
0.0
131
0.0
112
0.0
122
1.0
132
0.0
 79
     0
146
0.0
  0
ENDTAB
  0
TABLE
  2
LTYPE
  5
5
330
0
100
AcDbSymbolTable
 70
    16
  0
LTYPE
  5
14
330
5
100
AcDbSymbolTableRecord
100
AcDbLinetypeTableRecord
  2
ByBlock
 70
     0
  3

 72
    65
 73
     0
 40
0.0
  0
LTYPE
  5
15
330
5
100
AcDbSymbolTableRecord
100
AcDbLinetypeTableRecord
  2
ByLayer
 70
     0
  3

 72
    65
 73
     0
 40
0.0
  0
LTYPE
  5
16
330
5
100
AcDbSymbolTableRecord
100
AcDbLinetypeTableRecord
  2
Continuous
 70
     0
  3
Solid line
 72
    65
 73
     0
 40
0.0
  0
LTYPE
  5
64
330
5
100
AcDbSymbolTableRecord
100
AcDbLinetypeTableRecord
  2
AM_ISO02W050
 70
     0
  3
__ __ __ __ __ __ __ __ __ __ __ __ __ __ __
 72
    65
 73
     2
 40
7.5
 49
6.0
 74
     0
 49
-1.5
 74
     0
  0
LTYPE
  5
65
330
5
100
AcDbSymbolTableRecord
100
AcDbLinetypeTableRecord
  2
AM_ISO08W050
 70
     0
  3
____ . ____ . ____ . ____ . ____ . ____ . ____
 72
    65
 73
     4
 40
18.0
 49
12.0
 74
     0
 49
-1.5
 74
     0
 49
3.0
 74
     0
 49
-1.5
 74
     0
  0
LTYPE
  5
66
330
5
100
AcDbSymbolTableRecord
100
AcDbLinetypeTableRecord
  2
AM_ISO09W050
 70
     0
  3
_____ . . _____ . . _____ . . ____ .. ____
 72
    65
 73
     6
 40
22.5
 49
12.0
 74
     0
 49
-1.5
 74
     0
 49
3.0
 74
     0
 49
-1.5
 74
     0
 49
3.0
 74
     0
 49
-1.5
 74
     0
  0
LTYPE
  5
67
330
5
100
AcDbSymbolTableRecord
100
AcDbLinetypeTableRecord
  2
Amconstr
 70
     0
  3
_______________________
 72
    65
 73
     2
 40
9999.0
 49
9999.0
 74
     0
 49
0.0
 74
     0
  0
LTYPE
  5
68
330
5
100
AcDbSymbolTableRecord
100
AcDbLinetypeTableRecord
  2
AM_ISO08W050x2
 70
     0
  3
__ . __ . __ . __ . __ . __
 72
    65
 73
     4
 40
9.0
 49
6.0
 74
     0
 49
-0.75
 74
     0
 49
1.5
 74
     0
 49
-0.75
 74
     0
  0
LTYPE
  5
69
330
5
100
AcDbSymbolTableRecord
100
AcDbLinetypeTableRecord
  2
AM_ISO02W050x2
 70
     0
  3
 _ _ _ _ _ _ _ _ _ _ _ _
 72
    65
 73
     2
 40
3.75
 49
3.0
 74
     0
 49
-0.75
 74
     0
  0
LTYPE
  5
6C
330
5
100
AcDbSymbolTableRecord
100
AcDbLinetypeTableRecord
  2
Amzigzag
 70
     0
  3
/\/-/\/-/\/-/\/-/\/-/\/
 72
    65
 73
     2
 40
11.0001
 49
0.0001
 74
     4
 75
   135
340
6B
 46
0.04
 50
0.0
 44
0.0
 45
0.0
 49
-11.0
 74
     0
  0
LTYPE
  5
7A
330
5
100
AcDbSymbolTableRecord
100
AcDbLinetypeTableRecord
  2
ACISOWELD
 70
     0
  3
_ _ _ _ _
 72
    65
 73
     2
 40
2.0
 49
2.0
 74
     0
 49
-1.0
 74
     0
  0
LTYPE
  5
7B
330
5
100
AcDbSymbolTableRecord
100
AcDbLinetypeTableRecord
  2
ACISOTGB
 70
     0
  3
__ . . __ . .
 72
    65
 73
     6
 40
9.0
 49
4.0
 74
     0
 49
-1.0
 74
     0
 49
1.0
 74
     0
 49
-1.0
 74
     0
 49
1.0
 74
     0
 49
-1.0
 74
     0
  0
LTYPE
  5
7C
330
5
100
AcDbSymbolTableRecord
100
AcDbLinetypeTableRecord
  2
ACISOTGL
 70
     0
  3
_ _ _ _ _
 72
    65
 73
     2
 40
3.0
 49
2.0
 74
     0
 49
-1.0
 74
     0
  0
LTYPE
  5
7E
330
5
100
AcDbSymbolTableRecord
100
AcDbLinetypeTableRecord
  2
CENTER
 70
     0
  3
__ . __
 72
    65
 73
     4
 40
7.0
 49
4.0
 74
     0
 49
-1.0
 74
     0
 49
1.0
 74
     0
 49
-1.0
 74
     0
  0
LTYPE
  5
D8
330
5
100
AcDbSymbolTableRecord
100
AcDbLinetypeTableRecord
  2
HIDDEN
 70
     0
  3
Hidden __ __ __ __ __ __ __ __ __ __ __ __ __ _
 72
    65
 73
     2
 40
9.524999999999998
 49
6.349999999999999
 74
     0
 49
-3.174999999999999
 74
     0
  0
LTYPE
  5
D9
330
5
100
AcDbSymbolTableRecord
100
AcDbLinetypeTableRecord
  2
PHANTOM2
 70
     0
  3
Phantom (.5x) ___ _ _ ___ _ _ ___ _ _ ___ _ _
 72
    65
 73
     6
 40
31.75
 49
15.875
 74
     0
 49
-3.174999999999999
 74
     0
 49
3.174999999999999
 74
     0
 49
-3.174999999999999
 74
     0
 49
3.174999999999999
 74
     0
 49
-3.174999999999999
 74
     0
  0
LTYPE
  5
3B1
330
5
100
AcDbSymbolTableRecord
100
AcDbLinetypeTableRecord
  2
ACJISTGB
 70
     0
  3
__ . . __ . .
 72
    65
 73
     6
 40
9.0
 49
4.0
 74
     0
 49
-1.0
 74
     0
 49
1.0
 74
     0
 49
-1.0
 74
     0
 49
1.0
 74
     0
 49
-1.0
 74
     0
  0
LTYPE
  5
3B2
330
5
100
AcDbSymbolTableRecord
100
AcDbLinetypeTableRecord
  2
ACJISTGL
 70
     0
  3
_ _ _ _ _
 72
    65
 73
     2
 40
3.0
 49
2.0
 74
     0
 49
-1.0
 74
     0
  0
ENDTAB
  0
TABLE
  2
LAYER
  5
2
102
{ACAD_XDICTIONARY
360
3C6
102
}
330
0
100
AcDbSymbolTable
 70
     5
  0
LAYER
  5
10
330
2
100
AcDbSymbolTableRecord
100
AcDbLayerTableRecord
  2
0
 70
     0
 62
     7
  6
Continuous
370
    -3
390
F
  0
LAYER
  5
3B3
330
2
100
AcDbSymbolTableRecord
100
AcDbLayerTableRecord
  2
Defpoints
 70
     0
 62
     7
  6
Continuous
290
     0
370
    -3
390
F
  0
LAYER
  5
3B4
330
2
100
AcDbSymbolTableRecord
100
AcDbLayerTableRecord
  2
AM_VIS
 70
     2
 62
     7
  6
Continuous
370
    50
390
F
  0
LAYER
  5
3B5
330
2
100
AcDbSymbolTableRecord
100
AcDbLayerTableRecord
  2
AM_7
 70
     0
 62
     1
  6
AM_ISO08W050
370
    25
390
F
  0
LAYER
  5
3B6
330
2
100
AcDbSymbolTableRecord
100
AcDbLayerTableRecord
  2
LOGO
 70
     0
 62
     7
  6
Continuous
370
    -3
390
F
  0
ENDTAB
  0
TABLE
  2
STYLE
  5
3
330
0
100
AcDbSymbolTable
 70
     8
  0
STYLE
  5
11
330
3
100
AcDbSymbolTableRecord
100
AcDbTextStyleTableRecord
  2
STANDARD
 70
     0
 40
0.0
 41
1.0
 50
0.0
 71
     0
 42
3.0
  3
ISOCP.SHX
  4
CHINESET.SHX
  0
STYLE
  5
6B
330
3
100
AcDbSymbolTableRecord
100
AcDbTextStyleTableRecord
  2

 70
     1
 40
0.0
 41
1.0
 50
0.0
 71
     0
 42
2.5
  3
ltypeshp.shx
  4

  0
STYLE
  5
6D
330
3
100
AcDbSymbolTableRecord
100
AcDbTextStyleTableRecord
  2
ACISOTS
 70
     0
 40
1.0
 41
1.0
 50
0.0
 71
     0
 42
1.0
  3
isocp.shx
  4
chineset.shx
  0
STYLE
  5
79
330
3
100
AcDbSymbolTableRecord
100
AcDbTextStyleTableRecord
  2
ACISOGDT
 70
     0
 40
0.0
 41
1.0
 50
0.0
 71
     0
 42
2.5
  3
amgdt.shx
  4
chineset.shx
  0
STYLE
  5
3B7
330
3
100
AcDbSymbolTableRecord
100
AcDbTextStyleTableRecord
  2
CHINESET
 70
     0
 40
0.0
 41
1.0
 50
0.0
 71
     0
 42
2.5
  3
simplex.shx
  4
CHINESET.shx
  0
STYLE
  5
3B8
330
3
100
AcDbSymbolTableRecord
100
AcDbTextStyleTableRecord
  2
ACJISTS
 70
     0
 40
1.0
 41
1.0
 50
0.0
 71
     0
 42
2.5
  3
isocp.shx
  4
chineset.shx
  0
STYLE
  5
3B9
330
3
100
AcDbSymbolTableRecord
100
AcDbTextStyleTableRecord
  2
ACJISGDT
 70
     0
 40
0.0
 41
1.0
 50
0.0
 71
     0
 42
2.5
  3
amgdt.shx
  4

  0
ENDTAB
  0
TABLE
  2
VIEW
  5
6
330
0
100
AcDbSymbolTable
 70
     0
  0
ENDTAB
  0
TABLE
  2
UCS
  5
7
330
0
100
AcDbSymbolTable
 70
     0
  0
ENDTAB
  0
TABLE
  2
APPID
  5
9
330
0
100
AcDbSymbolTable
 70
    18
  0
APPID
  5
12
330
9
100
AcDbSymbolTableRecord
100
AcDbRegAppTableRecord
  2
ACAD
 70
     0
  0
APPID
  5
46
330
9
100
AcDbSymbolTableRecord
100
AcDbRegAppTableRecord
  2
MCAD_NO_VIS
 70
     0
  0
APPID
  5
47
330
9
100
AcDbSymbolTableRecord
100
AcDbRegAppTableRecord
  2
ACAD_TEMP_GRAPHIC
 70
     0
  0
APPID
  5
58
330
9
100
AcDbSymbolTableRecord
100
AcDbRegAppTableRecord
  2
ACATTRIBSERVICES
 70
     0
  0
APPID
  5
EE
330
9
100
AcDbSymbolTableRecord
100
AcDbRegAppTableRecord
  2
AD_DRAW
 70
     0
  0
APPID
  5
10C
330
9
100
AcDbSymbolTableRecord
100
AcDbRegAppTableRecord
  2
DESIGNERASSEMBLIES
 70
     0
  0
APPID
  5
111
330
9
100
AcDbSymbolTableRecord
100
AcDbRegAppTableRecord
  2
ACADM_DIM_EDIT
 70
     0
  0
APPID
  5
112
330
9
100
AcDbSymbolTableRecord
100
AcDbRegAppTableRecord
  2
AMDT_DM_ADJ
 70
     0
  0
APPID
  5
1FE
330
9
100
AcDbSymbolTableRecord
100
AcDbRegAppTableRecord
  2
ACAD_DSTYLE_DIMTEXT_FILL
 70
     0
  0
APPID
  5
2B5
330
9
100
AcDbSymbolTableRecord
100
AcDbRegAppTableRecord
  2
GENIUS_GENOLIS_13
 70
     0
  0
APPID
  5
2B6
330
9
100
AcDbSymbolTableRecord
100
AcDbRegAppTableRecord
  2
GENIUS_GENOENT_13
 70
     0
  0
APPID
  5
2B7
330
9
100
AcDbSymbolTableRecord
100
AcDbRegAppTableRecord
  2
GENIUS_GENOBJ-N-CRS_13
 70
     0
  0
APPID
  5
2B8
330
9
100
AcDbSymbolTableRecord
100
AcDbRegAppTableRecord
  2
GENIUS_GENODEF_13
 70
     0
  0
APPID
  5
2B9
330
9
100
AcDbSymbolTableRecord
100
AcDbRegAppTableRecord
  2
GENIUS_GENOREF_13
 70
     0
  0
APPID
  5
3C2
330
9
100
AcDbSymbolTableRecord
100
AcDbRegAppTableRecord
  2
ACAD_PSEXT
 70
     0
  0
APPID
  5
3C3
330
9
100
AcDbSymbolTableRecord
100
AcDbRegAppTableRecord
  2
GENIUS_AMGTXT_16
 70
     0
  0
APPID
  5
3C4
330
9
100
AcDbSymbolTableRecord
100
AcDbRegAppTableRecord
  2
GENIUS_GENREC_14
 70
     0
  0
APPID
  5
3C5
330
9
100
AcDbSymbolTableRecord
100
AcDbRegAppTableRecord
  2
GENIUS_GENOBJ-N-REC_13
 70
     0
  0
ENDTAB
  0
TABLE
  2
DIMSTYLE
  5
A
330
0
100
AcDbSymbolTable
 70
    17
100
AcDbDimStyleTable
 71
     1
340
81
  0
DIMSTYLE
105
81
330
A
100
AcDbSymbolTableRecord
100
AcDbDimStyleTableRecord
  2
AM_ISO
 70
     0
  4
"
 41
3.0
 42
1.5
 43
8.0
 44
1.5
 47
0.1
 48
0.1
 73
     0
 74
     0
 77
     1
 78
     8
 79
     2
140
3.5
141
0.0
143
0.0393701
146
0.71
147
1.5
172
     1
176
   256
177
   256
178
   256
271
     2
272
     2
283
     0
284
     8
340
11
371
    -1
372
    -1
  0
DIMSTYLE
105
82
330
A
100
AcDbSymbolTableRecord
100
AcDbDimStyleTableRecord
  2
AM_ISO$3
 70
     0
  4
"
 41
3.0
 42
1.5
 43
8.0
 44
1.5
 47
0.1
 48
0.1
 73
     0
 77
     1
 78
     8
 79
     2
140
3.5
141
0.0
143
0.0393701
146
0.71
147
1.5
176
   256
177
   256
178
   256
271
     2
272
     2
283
     0
284
     8
288
     1
289
     0
340
11
371
    -1
372
    -1
  0
DIMSTYLE
105
83
330
A
100
AcDbSymbolTableRecord
100
AcDbDimStyleTableRecord
  2
AM_ISO$4
 70
     0
  4
"
 41
3.0
 42
1.5
 43
8.0
 44
1.5
 47
0.1
 48
0.1
 73
     0
 77
     1
 78
     8
 79
     2
140
3.5
141
0.0
143
0.0393701
146
0.71
147
1.5
176
   256
177
   256
178
   256
271
     2
272
     2
283
     0
284
     8
288
     1
289
     0
340
11
371
    -1
372
    -1
  0
DIMSTYLE
105
84
330
A
100
AcDbSymbolTableRecord
100
AcDbDimStyleTableRecord
  2
AM_ISO$6
 70
     0
  4
"
 41
3.0
 42
1.5
 43
8.0
 44
1.5
 47
0.1
 48
0.1
 73
     0
 74
     0
 78
     8
 79
     2
140
3.5
141
0.0
143
0.0393701
146
0.71
147
1.5
172
     1
176
   256
177
   256
178
   256
271
     2
272
     2
283
     0
284
     8
340
11
371
    -1
372
    -1
  0
DIMSTYLE
105
85
330
A
100
AcDbSymbolTableRecord
100
AcDbDimStyleTableRecord
  2
AM_ISO$7
 70
     0
  4
"
 41
3.0
 42
1.5
 43
8.0
 44
1.5
 47
0.1
 48
0.1
 73
     0
 74
     0
 77
     1
 78
     8
 79
     2
140
5.0
141
0.0
143
0.0393701
146
0.71
147
1.5
172
     1
176
   256
177
   256
178
   256
271
     2
272
     2
283
     0
284
     8
340
11
371
    -1
372
    -1
  0
DIMSTYLE
105
86
330
A
100
AcDbSymbolTableRecord
100
AcDbDimStyleTableRecord
  2
AM_ISO$SF
 70
     0
  4
"
 41
2.5
 42
1.0
 43
10.0
 44
1.0
 47
0.1
 48
0.1
 73
     0
 74
     0
 75
     1
 76
     1
 77
     1
 78
     8
 79
     2
140
3.5
141
0.0
143
0.0393701
146
0.71
147
1.5
172
     1
176
   256
177
   256
178
     2
271
     2
272
     3
274
     4
283
     0
284
     8
340
11
371
    -1
372
    -1
  0
DIMSTYLE
105
8B
330
A
100
AcDbSymbolTableRecord
100
AcDbDimStyleTableRecord
  2
AM_ISO$SH
 70
     0
  4
"
 41
2.5
 42
1.0
 43
10.0
 44
1.0
 47
0.1
 48
0.1
 73
     0
 74
     0
 75
     1
 76
     1
 77
     1
 78
     8
 79
     2
140
3.5
141
0.0
143
0.0393701
144
2.0
146
0.71
147
1.5
172
     1
173
     1
176
   256
177
   256
178
     2
271
     2
272
     3
274
     4
283
     0
284
     8
340
11
343
87
371
    -1
372
    -1
  0
DIMSTYLE
105
27B
330
A
100
AcDbSymbolTableRecord
100
AcDbDimStyleTableRecord
  2
AM_ISO$0
 70
     0
  4
"
 41
3.0
 42
1.5
 43
8.0
 44
1.5
 47
0.1
 48
0.1
 73
     0
 74
     0
 77
     1
 78
     8
 79
     2
140
3.5
141
0.0
143
0.0393701
146
0.71
147
1.5
172
     1
176
   256
177
   256
178
   256
271
     2
272
     2
283
     0
284
     8
340
11
371
    -1
372
    -1
  0
DIMSTYLE
105
3BA
102
{ACAD_REACTORS
330
6C6
330
6C7
330
6C8
330
6C9
330
6CA
330
6CB
330
6CC
102
}
330
A
100
AcDbSymbolTableRecord
100
AcDbDimStyleTableRecord
  2
STANDARD
 70
     0
 41
3.0
 42
2.0
 43
8.0
 44
2.0
 48
0.000000001
 73
     0
 74
     0
 77
     1
 78
     8
 79
     2
140
3.0
141
1.0
146
0.6
147
1.0
176
   256
177
   256
178
   256
179
     2
271
     2
272
     2
279
     2
284
     8
340
3B7
371
    -1
  0
DIMSTYLE
105
3BB
330
A
100
AcDbSymbolTableRecord
100
AcDbDimStyleTableRecord
  2
AM_JIS
 70
     0
  4
"
 41
2.5
 42
1.0
 43
10.0
 44
1.0
 47
0.1
 48
0.1
 73
     0
 74
     0
 77
     3
 78
     8
 79
     2
140
3.5
141
0.0
143
0.0393701
146
0.71
147
1.5
172
     1
176
   256
177
   256
178
     2
271
     2
272
     3
274
     4
283
     0
340
11
341
357
342
357
343
357
344
357
371
    -1
372
    -1
  0
DIMSTYLE
105
3BC
330
A
100
AcDbSymbolTableRecord
100
AcDbDimStyleTableRecord
  2
AM_JIS$3
 70
     0
  4
"
 41
2.5
 42
1.0
 43
10.0
 44
1.0
 47
0.1
 48
0.1
 73
     0
 77
     3
 78
     8
 79
     2
140
3.5
141
0.0
143
0.0393701
146
0.71
147
1.5
176
   256
177
   256
178
     2
271
     2
272
     3
274
     4
283
     0
288
     1
289
     0
340
11
341
357
342
357
343
357
344
357
371
    -1
372
    -1
  0
DIMSTYLE
105
3BD
330
A
100
AcDbSymbolTableRecord
100
AcDbDimStyleTableRecord
  2
AM_JIS$4
 70
     0
  4
"
 41
2.5
 42
1.0
 43
10.0
 44
1.0
 47
0.1
 48
0.1
 73
     0
 77
     3
 78
     8
 79
     2
140
3.5
141
0.0
143
0.0393701
146
0.71
147
1.5
176
   256
177
   256
178
     2
271
     2
272
     3
274
     4
283
     0
288
     1
289
     0
340
11
341
357
342
357
343
357
344
357
371
    -1
372
    -1
  0
DIMSTYLE
105
3BE
330
A
100
AcDbSymbolTableRecord
100
AcDbDimStyleTableRecord
  2
AM_JIS$6
 70
     0
  4
"
 41
2.5
 42
1.0
 43
10.0
 44
1.0
 47
0.1
 48
0.1
 73
     0
 74
     0
 78
     8
 79
     2
140
3.5
141
0.0
143
0.0393701
146
0.71
147
1.5
172
     1
176
   256
177
   256
178
     2
271
     2
272
     3
274
     4
283
     0
340
11
341
357
342
357
343
357
344
357
371
    -1
372
    -1
  0
DIMSTYLE
105
3BF
330
A
100
AcDbSymbolTableRecord
100
AcDbDimStyleTableRecord
  2
AM_JIS$7
 70
     0
  4
"
 41
2.5
 42
1.0
 43
10.0
 44
1.0
 47
0.1
 48
0.1
 73
     0
 74
     0
 77
     3
 78
     8
 79
     2
140
5.0
141
0.0
143
0.0393701
146
0.71
147
1.5
172
     1
176
   256
177
   256
178
     2
271
     2
272
     3
274
     4
283
     0
340
11
341
357
342
357
343
357
344
357
371
    -1
372
    -1
  0
DIMSTYLE
105
3C0
330
A
100
AcDbSymbolTableRecord
100
AcDbDimStyleTableRecord
  2
AM_JIS$SF
 70
     0
  4
"
 41
2.5
 42
1.0
 43
10.0
 44
1.0
 47
0.1
 48
0.1
 73
     0
 74
     0
 75
     1
 76
     1
 77
     3
 78
     8
 79
     2
140
3.5
141
0.0
143
0.0393701
146
0.71
147
1.5
172
     1
176
   256
177
   256
178
     2
271
     2
272
     3
274
     4
283
     0
340
11
341
357
342
357
343
357
344
357
371
    -1
372
    -1
  0
DIMSTYLE
105
3C1
330
A
100
AcDbSymbolTableRecord
100
AcDbDimStyleTableRecord
  2
AM_JIS$SH
 70
     0
  4
"
 41
2.5
 42
1.0
 43
10.0
 44
1.0
 47
0.1
 48
0.1
 73
     0
 74
     0
 75
     1
 76
     1
 77
     3
 78
     8
 79
     2
140
3.5
141
0.0
143
0.0393701
144
2.0
146
0.71
147
1.5
172
     1
173
     1
176
   256
177
   256
178
     2
271
     2
272
     3
274
     4
283
     0
340
11
341
357
342
357
343
87
344
357
371
    -1
372
    -1
  0
ENDTAB
  0
TABLE
  2
BLOCK_RECORD
  5
1
330
0
100
AcDbSymbolTable
 70
    19
  0
BLOCK_RECORD
  5
1F
102
{ACAD_XDICTIONARY
360
8F
102
}
330
1
100
AcDbSymbolTableRecord
100
AcDbBlockTableRecord
  2
*Model_Space
340
22
  0
BLOCK_RECORD
  5
1B
330
1
100
AcDbSymbolTableRecord
100
AcDbBlockTableRecord
  2
*Paper_Space
340
1E
  0
BLOCK_RECORD
  5
23
330
1
100
AcDbSymbolTableRecord
100
AcDbBlockTableRecord
  2
*Paper_Space0
340
26
  0
BLOCK_RECORD
  5
87
330
1
100
AcDbSymbolTableRecord
100
AcDbBlockTableRecord
  2
GENAXEH
340
0
  0
BLOCK_RECORD
  5
357
330
1
100
AcDbSymbolTableRecord
100
AcDbBlockTableRecord
  2
_Open30
340
0
  0
BLOCK_RECORD
  5
6D1
330
1
100
AcDbSymbolTableRecord
100
AcDbBlockTableRecord
  2
*D11
340
0
  0
BLOCK_RECORD
  5
6DD
330
1
100
AcDbSymbolTableRecord
100
AcDbBlockTableRecord
  2
*D12
340
0
  0
BLOCK_RECORD
  5
6E9
330
1
100
AcDbSymbolTableRecord
100
AcDbBlockTableRecord
  2
*D13
340
0
  0
BLOCK_RECORD
  5
6F5
330
1
100
AcDbSymbolTableRecord
100
AcDbBlockTableRecord
  2
*D14
340
0
  0
BLOCK_RECORD
  5
701
330
1
100
AcDbSymbolTableRecord
100
AcDbBlockTableRecord
  2
*D15
340
0
  0
BLOCK_RECORD
  5
70D
330
1
100
AcDbSymbolTableRecord
100
AcDbBlockTableRecord
  2
*D16
340
0
  0
BLOCK_RECORD
  5
719
330
1
100
AcDbSymbolTableRecord
100
AcDbBlockTableRecord
  2
*D17
340
0
  0
ENDTAB
  0
ENDSEC
  0
SECTION
  2
BLOCKS
  0
BLOCK
  5
20
330
1F
100
AcDbEntity
  8
0
100
AcDbBlockBegin
  2
*Model_Space
 70
     0
 10
0.0
 20
0.0
 30
0.0
  3
*Model_Space
  1

  0
ENDBLK
  5
21
330
1F
100
AcDbEntity
  8
0
100
AcDbBlockEnd
  0
BLOCK
  5
1C
330
1B
100
AcDbEntity
 67
     1
  8
0
100
AcDbBlockBegin
  2
*Paper_Space
 70
     0
 10
0.0
 20
0.0
 30
0.0
  3
*Paper_Space
  1

  0
ENDBLK
  5
1D
330
1B
100
AcDbEntity
 67
     1
  8
0
100
AcDbBlockEnd
  0
BLOCK
  5
24
330
23
100
AcDbEntity
  8
0
100
AcDbBlockBegin
  2
*Paper_Space0
 70
     0
 10
0.0
 20
0.0
 30
0.0
  3
*Paper_Space0
  1

  0
ENDBLK
  5
25
330
23
100
AcDbEntity
  8
0
100
AcDbBlockEnd
  0
BLOCK
  5
89
330
87
100
AcDbEntity
  8
0
100
AcDbBlockBegin
  2
GENAXEH
 70
     0
 10
0.0
 20
0.0
 30
0.0
  3
GENAXEH
  1

  0
LINE
  5
88
330
87
100
AcDbEntity
  8
0
100
AcDbLine
 10
-1.0
 20
0.0
 30
0.0
 11
1.0
 21
0.0
 31
0.0
  0
ENDBLK
  5
8A
330
87
100
AcDbEntity
  8
0
100
AcDbBlockEnd
  0
BLOCK
  5
358
330
357
100
AcDbEntity
  8
0
100
AcDbBlockBegin
  2
_Open30
 70
     0
 10
0.0
 20
0.0
 30
0.0
  3
_Open30
  1

  0
LINE
  5
359
330
357
100
AcDbEntity
  8
0
 62
     0
370
    -2
100
AcDbLine
 10
-1.0
 20
0.26794919
 30
0.0
 11
0.0
 21
0.0
 31
0.0
  0
LINE
  5
35A
330
357
100
AcDbEntity
  8
0
 62
     0
370
    -2
100
AcDbLine
 10
0.0
 20
0.0
 30
0.0
 11
-1.0
 21
-0.26794919
 31
0.0
  0
LINE
  5
35B
330
357
100
AcDbEntity
  8
0
 62
     0
370
    -2
100
AcDbLine
 10
0.0
 20
0.0
 30
0.0
 11
-1.0
 21
0.0
 31
0.0
  0
ENDBLK
  5
35C
330
357
100
AcDbEntity
  8
0
100
AcDbBlockEnd
  0
BLOCK
  5
6DB
330
6D1
100
AcDbEntity
  8
0
100
AcDbBlockBegin
  2
*D11
 70
     1
 10
0.0
 20
0.0
 30
0.0
  3
*D11
  1

  0
LINE
  5
725
330
6D1
100
AcDbEntity
  8
0
 62
     5
370
    -2
100
AcDbLine
 10
284.5500374153417
 20
208.5654228257387
 30
0.0
 11
328.0206491021481
 21
208.5654228257387
 31
0.0
  0
LINE
  5
726
330
6D1
100
AcDbEntity
  8
0
 62
     5
370
    -2
100
AcDbLine
 10
285.2296722653112
 20
194.5654228257387
 30
0.0
 11
328.0206491021481
 21
194.5654228257387
 31
0.0
  0
LINE
  5
727
330
6D1
100
AcDbEntity
  8
0
 62
     5
100
AcDbLine
 10
326.0206491021481
 20
205.5654228257387
 30
0.0
 11
326.0206491021481
 21
197.5654228257387
 31
0.0
  0
SOLID
  5
728
330
6D1
100
AcDbEntity
  8
0
 62
     5
100
AcDbTrace
 10
325.5206491021481
 20
205.5654228257387
 30
0.0
 11
326.5206491021481
 21
205.5654228257387
 31
0.0
 12
326.0206491021481
 22
208.5654228257387
 32
0.0
 13
326.0206491021481
 23
208.5654228257387
 33
0.0
  0
SOLID
  5
729
330
6D1
100
AcDbEntity
  8
0
 62
     5
100
AcDbTrace
 10
325.5206491021481
 20
197.5654228257387
 30
0.0
 11
326.5206491021481
 21
197.5654228257387
 31
0.0
 12
326.0206491021481
 22
194.5654228257387
 32
0.0
 13
326.0206491021481
 23
194.5654228257387
 33
0.0
  0
MTEXT
  5
72A
330
6D1
100
AcDbEntity
  8
0
 62
     5
100
AcDbMText
 10
323.520649102148
 20
201.5654228257388
 30
0.0
 40
3.0
 41
0.0
 71
     5
 72
     1
  1
\A1;14
  7
CHINESET
 11
0.0000000000000001
 21
1.0
 31
0.0
 73
     1
 44
1.0
1001
ACAD
1000
MTEXTBEGIN
1070
    73
1070
     1
1070
    44
1040
1.0
1070
    74
1070
     0
1000
MTEXTEND
  0
POINT
  5
72B
330
6D1
100
AcDbEntity
  8
Defpoints
 62
     0
100
AcDbPoint
 10
282.5500374153417
 20
208.5654228257387
 30
0.0
  0
POINT
  5
72C
330
6D1
100
AcDbEntity
  8
Defpoints
 62
     0
100
AcDbPoint
 10
283.2296722653112
 20
194.5654228257387
 30
0.0
  0
POINT
  5
72D
330
6D1
100
AcDbEntity
  8
Defpoints
 62
     0
100
AcDbPoint
 10
326.0206491021481
 20
194.5654228257387
 30
0.0
  0
ENDBLK
  5
6DC
330
6D1
100
AcDbEntity
  8
0
100
AcDbBlockEnd
  0
BLOCK
  5
6E7
330
6DD
100
AcDbEntity
  8
0
100
AcDbBlockBegin
  2
*D12
 70
     1
 10
0.0
 20
0.0
 30
0.0
  3
*D12
  1

  0
LINE
  5
72E
330
6DD
100
AcDbEntity
  8
0
 62
     5
370
    -2
100
AcDbLine
 10
310.056032775557
 20
217.8154228257387
 30
0.0
 11
340.1101496404266
 21
217.8154228257387
 31
0.0
  0
LINE
  5
72F
330
6DD
100
AcDbEntity
  8
0
 62
     5
370
    -2
100
AcDbLine
 10
310.056032775557
 20
185.3154228257387
 30
0.0
 11
340.1101496404266
 21
185.3154228257387
 31
0.0
  0
LINE
  5
730
330
6DD
100
AcDbEntity
  8
0
 62
     5
100
AcDbLine
 10
338.1101496404266
 20
214.8154228257387
 30
0.0
 11
338.1101496404266
 21
188.3154228257387
 31
0.0
  0
SOLID
  5
731
330
6DD
100
AcDbEntity
  8
0
 62
     5
100
AcDbTrace
 10
337.6101496404266
 20
214.8154228257387
 30
0.0
 11
338.6101496404267
 21
214.8154228257387
 31
0.0
 12
338.1101496404266
 22
217.8154228257387
 32
0.0
 13
338.1101496404266
 23
217.8154228257387
 33
0.0
  0
SOLID
  5
732
330
6DD
100
AcDbEntity
  8
0
 62
     5
100
AcDbTrace
 10
337.6101496404266
 20
188.3154228257387
 30
0.0
 11
338.6101496404267
 21
188.3154228257387
 31
0.0
 12
338.1101496404266
 22
185.3154228257387
 32
0.0
 13
338.1101496404266
 23
185.3154228257387
 33
0.0
  0
MTEXT
  5
733
330
6DD
100
AcDbEntity
  8
0
 62
     5
100
AcDbMText
 10
335.6101496404266
 20
201.5654228257388
 30
0.0
 40
3.0
 41
0.0
 71
     5
 72
     1
  1
\A1;32.5
  7
CHINESET
 11
0.0000000000000001
 21
1.0
 31
0.0
 73
     1
 44
1.0
1001
ACAD
1000
MTEXTBEGIN
1070
    73
1070
     1
1070
    44
1040
1.0
1070
    74
1070
     0
1000
MTEXTEND
  0
POINT
  5
734
330
6DD
100
AcDbEntity
  8
Defpoints
 62
     0
100
AcDbPoint
 10
308.0560327755569
 20
217.8154228257387
 30
0.0
  0
POINT
  5
735
330
6DD
100
AcDbEntity
  8
Defpoints
 62
     0
100
AcDbPoint
 10
308.0560327755569
 20
185.3154228257387
 30
0.0
  0
POINT
  5
736
330
6DD
100
AcDbEntity
  8
Defpoints
 62
     0
100
AcDbPoint
 10
338.1101496404266
 20
185.3154228257387
 30
0.0
  0
ENDBLK
  5
6E8
330
6DD
100
AcDbEntity
  8
0
100
AcDbBlockEnd
  0
BLOCK
  5
6F3
330
6E9
100
AcDbEntity
  8
0
100
AcDbBlockBegin
  2
*D13
 70
     1
 10
0.0
 20
0.0
 30
0.0
  3
*D13
  1

  0
LINE
  5
737
330
6E9
100
AcDbEntity
  8
0
 62
     5
370
    -2
100
AcDbLine
 10
226.056032775557
 20
216.3654228257387
 30
0.0
 11
226.056032775557
 21
228.7179559778266
 31
0.0
  0
LINE
  5
738
330
6E9
100
AcDbEntity
  8
0
 62
     5
370
    -2
100
AcDbLine
 10
308.0560327755569
 20
219.8154228257387
 30
0.0
 11
308.0560327755569
 21
228.7179559778266
 31
0.0
  0
LINE
  5
739
330
6E9
100
AcDbEntity
  8
0
 62
     5
100
AcDbLine
 10
229.0560327755569
 20
226.7179559778266
 30
0.0
 11
305.056032775557
 21
226.7179559778266
 31
0.0
  0
SOLID
  5
73A
330
6E9
100
AcDbEntity
  8
0
 62
     5
100
AcDbTrace
 10
229.0560327755569
 20
227.2179559778266
 30
0.0
 11
229.0560327755569
 21
226.2179559778266
 31
0.0
 12
226.056032775557
 22
226.7179559778266
 32
0.0
 13
226.056032775557
 23
226.7179559778266
 33
0.0
  0
SOLID
  5
73B
330
6E9
100
AcDbEntity
  8
0
 62
     5
100
AcDbTrace
 10
305.056032775557
 20
227.2179559778266
 30
0.0
 11
305.056032775557
 21
226.2179559778266
 31
0.0
 12
308.0560327755569
 22
226.7179559778266
 32
0.0
 13
308.0560327755569
 23
226.7179559778266
 33
0.0
  0
MTEXT
  5
73C
330
6E9
100
AcDbEntity
  8
0
 62
     5
100
AcDbMText
 10
267.056032775557
 20
229.2179559778266
 30
0.0
 40
3.0
 41
0.0
 71
     5
 72
     1
  1
\A1;82
  7
CHINESET
 73
     1
 44
1.0
1001
ACAD
1000
MTEXTBEGIN
1070
    73
1070
     1
1070
    44
1040
1.0
1070
    74
1070
     0
1000
MTEXTEND
  0
POINT
  5
73D
330
6E9
100
AcDbEntity
  8
Defpoints
 62
     0
100
AcDbPoint
 10
226.056032775557
 20
214.3654228257387
 30
0.0
  0
POINT
  5
73E
330
6E9
100
AcDbEntity
  8
Defpoints
 62
     0
100
AcDbPoint
 10
308.0560327755569
 20
217.8154228257387
 30
0.0
  0
POINT
  5
73F
330
6E9
100
AcDbEntity
  8
Defpoints
 62
     0
100
AcDbPoint
 10
308.0560327755569
 20
226.7179559778266
 30
0.0
  0
ENDBLK
  5
6F4
330
6E9
100
AcDbEntity
  8
0
100
AcDbBlockEnd
  0
BLOCK
  5
6FF
330
6F5
100
AcDbEntity
  8
0
100
AcDbBlockBegin
  2
*D14
 70
     1
 10
0.0
 20
0.0
 30
0.0
  3
*D14
  1

  0
LINE
  5
740
330
6F5
100
AcDbEntity
  8
0
 62
     5
370
    -2
100
AcDbLine
 10
226.056032775557
 20
358.979031803346
 30
0.0
 11
226.056032775557
 21
400.0625205608638
 31
0.0
  0
LINE
  5
741
330
6F5
100
AcDbEntity
  8
0
 62
     5
370
    -2
100
AcDbLine
 10
279.0560327755569
 20
387.2670430435687
 30
0.0
 11
279.0560327755569
 21
400.0625205608638
 31
0.0
  0
LINE
  5
742
330
6F5
100
AcDbEntity
  8
0
 62
     5
100
AcDbLine
 10
229.0560327755569
 20
398.0625205608638
 30
0.0
 11
276.056032775557
 21
398.0625205608638
 31
0.0
  0
SOLID
  5
743
330
6F5
100
AcDbEntity
  8
0
 62
     5
100
AcDbTrace
 10
229.0560327755569
 20
398.5625205608639
 30
0.0
 11
229.0560327755569
 21
397.5625205608638
 31
0.0
 12
226.056032775557
 22
398.0625205608638
 32
0.0
 13
226.056032775557
 23
398.0625205608638
 33
0.0
  0
SOLID
  5
744
330
6F5
100
AcDbEntity
  8
0
 62
     5
100
AcDbTrace
 10
276.056032775557
 20
398.5625205608639
 30
0.0
 11
276.056032775557
 21
397.5625205608638
 31
0.0
 12
279.0560327755569
 22
398.0625205608638
 32
0.0
 13
279.0560327755569
 23
398.0625205608638
 33
0.0
  0
MTEXT
  5
745
330
6F5
100
AcDbEntity
  8
0
 62
     5
100
AcDbMText
 10
252.556032775557
 20
400.5625205608638
 30
0.0
 40
3.0
 41
0.0
 71
     5
 72
     1
  1
\A1;53
  7
CHINESET
 73
     1
 44
1.0
1001
ACAD
1000
MTEXTBEGIN
1070
    73
1070
     1
1070
    44
1040
1.0
1070
    74
1070
     0
1000
MTEXTEND
  0
POINT
  5
746
330
6F5
100
AcDbEntity
  8
Defpoints
 62
     0
100
AcDbPoint
 10
226.056032775557
 20
356.979031803346
 30
0.0
  0
POINT
  5
747
330
6F5
100
AcDbEntity
  8
Defpoints
 62
     0
100
AcDbPoint
 10
279.0560327755569
 20
385.2670430435687
 30
0.0
  0
POINT
  5
748
330
6F5
100
AcDbEntity
  8
Defpoints
 62
     0
100
AcDbPoint
 10
279.0560327755569
 20
398.0625205608638
 30
0.0
  0
ENDBLK
  5
700
330
6F5
100
AcDbEntity
  8
0
100
AcDbBlockEnd
  0
BLOCK
  5
70B
330
701
100
AcDbEntity
  8
0
100
AcDbBlockBegin
  2
*D15
 70
     1
 10
0.0
 20
0.0
 30
0.0
  3
*D15
  1

  0
LINE
  5
749
330
701
100
AcDbEntity
  8
0
 62
     5
370
    -2
100
AcDbLine
 10
136.8095174328487
 20
382.8790318033459
 30
0.0
 11
109.2780610039435
 21
382.879031803346
 31
0.0
  0
LINE
  5
74A
330
701
100
AcDbEntity
  8
0
 62
     5
370
    -2
100
AcDbLine
 10
134.5595174328487
 20
266.879031803346
 30
0.0
 11
109.2780610039435
 21
266.879031803346
 31
0.0
  0
LINE
  5
74B
330
701
100
AcDbEntity
  8
0
 62
     5
100
AcDbLine
 10
111.2780610039435
 20
379.879031803346
 30
0.0
 11
111.2780610039435
 21
269.879031803346
 31
0.0
  0
SOLID
  5
74C
330
701
100
AcDbEntity
  8
0
 62
     5
100
AcDbTrace
 10
110.7780610039435
 20
379.879031803346
 30
0.0
 11
111.7780610039435
 21
379.879031803346
 31
0.0
 12
111.2780610039435
 22
382.879031803346
 32
0.0
 13
111.2780610039435
 23
382.879031803346
 33
0.0
  0
SOLID
  5
74D
330
701
100
AcDbEntity
  8
0
 62
     5
100
AcDbTrace
 10
110.7780610039435
 20
269.879031803346
 30
0.0
 11
111.7780610039435
 21
269.879031803346
 31
0.0
 12
111.2780610039435
 22
266.879031803346
 32
0.0
 13
111.2780610039435
 23
266.879031803346
 33
0.0
  0
MTEXT
  5
74E
330
701
100
AcDbEntity
  8
0
 62
     5
100
AcDbMText
 10
108.7780610039434
 20
324.879031803346
 30
0.0
 40
3.0
 41
0.0
 71
     5
 72
     1
  1
\A1;116
  7
CHINESET
 11
0.0000000000000001
 21
1.0
 31
0.0
 73
     1
 44
1.0
1001
ACAD
1000
MTEXTBEGIN
1070
    73
1070
     1
1070
    44
1040
1.0
1070
    74
1070
     0
1000
MTEXTEND
  0
POINT
  5
74F
330
701
100
AcDbEntity
  8
Defpoints
 62
     0
100
AcDbPoint
 10
138.8095174328487
 20
382.8790318033459
 30
0.0
  0
POINT
  5
750
330
701
100
AcDbEntity
  8
Defpoints
 62
     0
100
AcDbPoint
 10
136.5595174328487
 20
266.879031803346
 30
0.0
  0
POINT
  5
751
330
701
100
AcDbEntity
  8
Defpoints
 62
     0
100
AcDbPoint
 10
111.2780610039435
 20
266.879031803346
 30
0.0
  0
ENDBLK
  5
70C
330
701
100
AcDbEntity
  8
0
100
AcDbBlockEnd
  0
BLOCK
  5
717
330
70D
100
AcDbEntity
  8
0
100
AcDbBlockBegin
  2
*D16
 70
     1
 10
0.0
 20
0.0
 30
0.0
  3
*D16
  1

  0
LINE
  5
752
330
70D
100
AcDbEntity
  8
0
 62
     5
370
    -2
100
AcDbLine
 10
250.0560327755569
 20
264.879031803346
 30
0.0
 11
250.0560327755569
 21
251.6600048689481
 31
0.0
  0
LINE
  5
753
330
70D
100
AcDbEntity
  8
0
 62
     5
370
    -2
100
AcDbLine
 10
308.0560327755569
 20
264.879031803346
 30
0.0
 11
308.0560327755569
 21
251.6600048689481
 31
0.0
  0
LINE
  5
754
330
70D
100
AcDbEntity
  8
0
 62
     5
100
AcDbLine
 10
253.056032775557
 20
253.6600048689481
 30
0.0
 11
305.056032775557
 21
253.6600048689481
 31
0.0
  0
SOLID
  5
755
330
70D
100
AcDbEntity
  8
0
 62
     5
100
AcDbTrace
 10
253.056032775557
 20
254.1600048689481
 30
0.0
 11
253.056032775557
 21
253.1600048689481
 31
0.0
 12
250.0560327755569
 22
253.6600048689481
 32
0.0
 13
250.0560327755569
 23
253.6600048689481
 33
0.0
  0
SOLID
  5
756
330
70D
100
AcDbEntity
  8
0
 62
     5
100
AcDbTrace
 10
305.056032775557
 20
254.1600048689481
 30
0.0
 11
305.056032775557
 21
253.1600048689481
 31
0.0
 12
308.0560327755569
 22
253.6600048689481
 32
0.0
 13
308.0560327755569
 23
253.6600048689481
 33
0.0
  0
MTEXT
  5
757
330
70D
100
AcDbEntity
  8
0
 62
     5
100
AcDbMText
 10
279.0560327755569
 20
256.1600048689481
 30
0.0
 40
3.0
 41
0.0
 71
     5
 72
     1
  1
\A1;58
  7
CHINESET
 73
     1
 44
1.0
1001
ACAD
1000
MTEXTBEGIN
1070
    73
1070
     1
1070
    44
1040
1.0
1070
    74
1070
     0
1000
MTEXTEND
  0
POINT
  5
758
330
70D
100
AcDbEntity
  8
Defpoints
 62
     0
100
AcDbPoint
 10
250.0560327755569
 20
266.879031803346
 30
0.0
  0
POINT
  5
759
330
70D
100
AcDbEntity
  8
Defpoints
 62
     0
100
AcDbPoint
 10
308.0560327755569
 20
266.879031803346
 30
0.0
  0
POINT
  5
75A
330
70D
100
AcDbEntity
  8
Defpoints
 62
     0
100
AcDbPoint
 10
308.0560327755569
 20
253.6600048689481
 30
0.0
  0
ENDBLK
  5
718
330
70D
100
AcDbEntity
  8
0
100
AcDbBlockEnd
  0
BLOCK
  5
723
330
719
100
AcDbEntity
  8
0
100
AcDbBlockBegin
  2
*D17
 70
     1
 10
0.0
 20
0.0
 30
0.0
  3
*D17
  1

  0
LINE
  5
75B
330
719
100
AcDbEntity
  8
0
 62
     5
370
    -2
100
AcDbLine
 10
310.056032775557
 20
266.879031803346
 30
0.0
 11
333.0476050441677
 21
266.879031803346
 31
0.0
  0
LINE
  5
75C
330
719
100
AcDbEntity
  8
0
 62
     5
370
    -2
100
AcDbLine
 10
311.6139732630539
 20
282.879031803346
 30
0.0
 11
333.0476050441677
 21
282.879031803346
 31
0.0
  0
LINE
  5
75D
330
719
100
AcDbEntity
  8
0
 62
     5
100
AcDbLine
 10
331.0476050441677
 20
269.879031803346
 30
0.0
 11
331.0476050441677
 21
279.879031803346
 31
0.0
  0
SOLID
  5
75E
330
719
100
AcDbEntity
  8
0
 62
     5
100
AcDbTrace
 10
330.5476050441677
 20
269.879031803346
 30
0.0
 11
331.5476050441677
 21
269.879031803346
 31
0.0
 12
331.0476050441677
 22
266.879031803346
 32
0.0
 13
331.0476050441677
 23
266.879031803346
 33
0.0
  0
SOLID
  5
75F
330
719
100
AcDbEntity
  8
0
 62
     5
100
AcDbTrace
 10
330.5476050441677
 20
279.879031803346
 30
0.0
 11
331.5476050441677
 21
279.879031803346
 31
0.0
 12
331.0476050441677
 22
282.879031803346
 32
0.0
 13
331.0476050441677
 23
282.879031803346
 33
0.0
  0
MTEXT
  5
760
330
719
100
AcDbEntity
  8
0
 62
     5
100
AcDbMText
 10
328.5476050441677
 20
274.879031803346
 30
0.0
 40
3.0
 41
0.0
 71
     5
 72
     1
  1
\A1;16
  7
CHINESET
 11
0.0000000000000001
 21
1.0
 31
0.0
 73
     1
 44
1.0
1001
ACAD
1000
MTEXTBEGIN
1070
    73
1070
     1
1070
    44
1040
1.0
1070
    74
1070
     0
1000
MTEXTEND
  0
POINT
  5
761
330
719
100
AcDbEntity
  8
Defpoints
 62
     0
100
AcDbPoint
 10
308.0560327755569
 20
266.879031803346
 30
0.0
  0
POINT
  5
762
330
719
100
AcDbEntity
  8
Defpoints
 62
     0
100
AcDbPoint
 10
309.6139732630539
 20
282.879031803346
 30
0.0
  0
POINT
  5
763
330
719
100
AcDbEntity
  8
Defpoints
 62
     0
100
AcDbPoint
 10
331.0476050441677
 20
282.879031803346
 30
0.0
  0
ENDBLK
  5
724
330
719
100
AcDbEntity
  8
0
100
AcDbBlockEnd
  0
ENDSEC
  0
SECTION
  2
ENTITIES
  0
LINE
  5
55A
330
1F
100
AcDbEntity
  8
AM_7
 62
     1
100
AcDbLine
 10
279.0560327755569
 20
385.2670430435687
 30
0.0
 11
279.0560327755569
 21
265.379031803346
 31
0.0
  0
LINE
  5
55B
330
1F
100
AcDbEntity
  8
AM_7
 62
     1
100
AcDbLine
 10
236.806032775557
 20
333.379031803346
 30
0.0
 11
236.806032775557
 21
305.3115174214746
 31
0.0
  0
LINE
  5
55C
330
1F
100
AcDbEntity
  8
AM_7
 62
     1
100
AcDbLine
 10
148.8095174328487
 20
280.8446158834783
 30
0.0
 11
148.8095174328487
 21
265.379031803346
 31
0.0
  0
LINE
  5
55D
330
1F
100
AcDbEntity
  8
AM_7
 62
     1
100
AcDbLine
 10
147.8095174328487
 20
344.179031803346
 30
0.0
 11
149.8095174328487
 21
344.179031803346
 31
0.0
  0
LINE
  5
55E
330
1F
100
AcDbEntity
  8
AM_7
 62
     1
100
AcDbLine
 10
143.3095174328487
 20
344.179031803346
 30
0.0
 11
146.8095174328487
 21
344.179031803346
 31
0.0
  0
LINE
  5
55F
330
1F
100
AcDbEntity
  8
AM_7
 62
     1
100
AcDbLine
 10
150.8095174328487
 20
344.179031803346
 30
0.0
 11
154.3095174328487
 21
344.179031803346
 31
0.0
  0
LINE
  5
560
330
1F
100
AcDbEntity
  8
AM_7
 62
     1
100
AcDbLine
 10
148.8095174328487
 20
282.379031803346
 30
0.0
 11
148.8095174328487
 21
284.379031803346
 31
0.0
  0
LINE
  5
561
330
1F
100
AcDbEntity
  8
AM_7
 62
     1
100
AcDbLine
 10
130.5595174328487
 20
282.879031803346
 30
0.0
 11
146.8095174328487
 21
282.879031803346
 31
0.0
  0
LINE
  5
562
330
1F
100
AcDbEntity
  8
AM_7
 62
     1
100
AcDbLine
 10
148.8095174328487
 20
282.879031803346
 30
0.0
 11
167.0595174328487
 21
282.879031803346
 31
0.0
  0
LINE
  5
563
330
1F
100
AcDbEntity
  8
AM_7
 62
     1
100
AcDbLine
 10
148.8095174328487
 20
265.129031803346
 30
0.0
 11
148.8095174328487
 21
281.379031803346
 31
0.0
  0
LINE
  5
564
330
1F
100
AcDbEntity
  8
AM_7
 62
     1
100
AcDbLine
 10
148.8095174328487
 20
285.379031803346
 30
0.0
 11
148.8095174328487
 21
386.1394073855396
 31
0.0
  0
LINE
  5
565
330
1F
100
AcDbEntity
  8
AM_7
 62
     1
100
AcDbLine
 10
370.8784493081254
 20
280.8446158834783
 30
0.0
 11
370.8784493081254
 21
265.379031803346
 31
0.0
  0
LINE
  5
566
330
1F
100
AcDbEntity
  8
AM_7
 62
     1
100
AcDbLine
 10
370.8784493081254
 20
282.4116553986631
 30
0.0
 11
370.8784493081254
 21
284.4116553986631
 31
0.0
  0
LINE
  5
567
330
1F
100
AcDbEntity
  8
AM_7
 62
     1
100
AcDbLine
 10
370.8784493081254
 20
265.1616553986631
 30
0.0
 11
370.8784493081254
 21
281.4116553986631
 31
0.0
  0
LINE
  5
568
330
1F
100
AcDbEntity
  8
AM_7
 62
     1
100
AcDbLine
 10
370.8784493081254
 20
285.4116553986631
 30
0.0
 11
370.8784493081254
 21
301.6616553986631
 31
0.0
  0
LINE
  5
569
330
1F
100
AcDbEntity
  8
AM_7
 62
     1
100
AcDbLine
 10
370.8784493081254
 20
282.379031803346
 30
0.0
 11
370.8784493081254
 21
284.379031803346
 31
0.0
  0
LINE
  5
56A
330
1F
100
AcDbEntity
  8
AM_7
 62
     1
100
AcDbLine
 10
370.8784493081254
 20
265.129031803346
 30
0.0
 11
370.8784493081254
 21
281.379031803346
 31
0.0
  0
LINE
  5
56B
330
1F
100
AcDbEntity
  8
AM_7
 62
     1
100
AcDbLine
 10
370.8784493081254
 20
285.379031803346
 30
0.0
 11
370.8784493081254
 21
387.0299134743063
 31
0.0
  0
LINE
  5
56C
330
1F
100
AcDbEntity
  8
AM_7
 62
     1
100
AcDbLine
 10
278.056032775557
 20
201.5654228257387
 30
0.0
 11
280.056032775557
 21
201.5654228257387
 31
0.0
  0
LINE
  5
56D
330
1F
100
AcDbEntity
  8
AM_7
 62
     1
100
AcDbLine
 10
279.0560327755569
 20
200.5654228257387
 30
0.0
 11
279.0560327755569
 21
202.5654228257387
 31
0.0
  0
LINE
  5
56E
330
1F
100
AcDbEntity
  8
AM_7
 62
     1
100
AcDbLine
 10
262.5560327755569
 20
201.5654228257387
 30
0.0
 11
277.0560327755569
 21
201.5654228257387
 31
0.0
  0
LINE
  5
56F
330
1F
100
AcDbEntity
  8
AM_7
 62
     1
100
AcDbLine
 10
281.0560327755569
 20
201.5654228257387
 30
0.0
 11
295.556032775557
 21
201.5654228257387
 31
0.0
  0
LINE
  5
570
330
1F
100
AcDbEntity
  8
AM_7
 62
     1
100
AcDbLine
 10
279.0560327755569
 20
185.0654228257387
 30
0.0
 11
279.0560327755569
 21
199.5654228257387
 31
0.0
  0
LINE
  5
571
330
1F
100
AcDbEntity
  8
AM_7
 62
     1
100
AcDbLine
 10
279.0560327755569
 20
203.5654228257387
 30
0.0
 11
279.0560327755569
 21
218.0654228257387
 31
0.0
  0
LINE
  5
572
330
1F
100
AcDbEntity
  8
AM_7
 62
     1
100
AcDbLine
 10
270.5560327755569
 20
201.5654228257387
 30
0.0
 11
248.0560327755569
 21
201.5654228257387
 31
0.0
  0
LINE
  5
573
330
1F
100
AcDbEntity
  8
AM_7
 62
     1
100
AcDbLine
 10
287.556032775557
 20
201.5654228257387
 30
0.0
 11
310.056032775557
 21
201.5654228257387
 31
0.0
  0
LINE
  5
574
330
1F
100
AcDbEntity
  8
AM_7
 62
     1
100
AcDbLine
 10
288.556032775557
 20
201.5654228257387
 30
0.0
 11
269.556032775557
 21
201.5654228257387
 31
0.0
  0
LINE
  5
575
330
1F
100
AcDbEntity
  8
AM_7
 62
     1
100
AcDbLine
 10
283.2296722653112
 20
194.5654228257387
 30
0.0
 11
275.3459062903826
 21
194.5654228257387
 31
0.0
  0
LINE
  5
576
330
1F
100
AcDbEntity
  8
AM_7
 62
     1
100
AcDbLine
 10
282.5500374153417
 20
208.5654228257387
 30
0.0
 11
275.7536870097775
 21
208.5654228257387
 31
0.0
  0
LINE
  5
577
330
1F
100
AcDbEntity
  8
AM_7
 62
     1
100
AcDbLine
 10
235.806032775557
 20
201.5654228257387
 30
0.0
 11
237.8060327755569
 21
201.5654228257387
 31
0.0
  0
LINE
  5
578
330
1F
100
AcDbEntity
  8
AM_7
 62
     1
100
AcDbLine
 10
236.806032775557
 20
200.5654228257387
 30
0.0
 11
236.806032775557
 21
202.5654228257387
 31
0.0
  0
LINE
  5
579
330
1F
100
AcDbEntity
  8
AM_7
 62
     1
100
AcDbLine
 10
224.056032775557
 20
201.5654228257387
 30
0.0
 11
234.806032775557
 21
201.5654228257387
 31
0.0
  0
LINE
  5
57A
330
1F
100
AcDbEntity
  8
AM_7
 62
     1
100
AcDbLine
 10
238.806032775557
 20
201.5654228257387
 30
0.0
 11
249.556032775557
 21
201.5654228257387
 31
0.0
  0
LINE
  5
57B
330
1F
100
AcDbEntity
  8
AM_7
 62
     1
100
AcDbLine
 10
236.806032775557
 20
188.8154228257387
 30
0.0
 11
236.806032775557
 21
199.5654228257387
 31
0.0
  0
LINE
  5
57C
330
1F
100
AcDbEntity
  8
AM_7
 62
     1
100
AcDbLine
 10
236.806032775557
 20
203.5654228257387
 30
0.0
 11
236.806032775557
 21
214.3154228257387
 31
0.0
  0
LINE
  5
57D
330
1F
100
AcDbEntity
  8
AM_7
 62
     1
100
AcDbLine
 10
279.0560327755569
 20
193.5654228257387
 30
0.0
 11
279.0560327755569
 21
195.8154228257387
 31
0.0
  0
LINE
  5
57E
330
1F
100
AcDbEntity
  8
AM_7
 62
     1
100
AcDbLine
 10
279.0560327755569
 20
210.5654228257387
 30
0.0
 11
279.0560327755569
 21
212.5654228257387
 31
0.0
  0
LINE
  5
57F
330
1F
100
AcDbEntity
  8
AM_7
 62
     1
100
AcDbLine
 10
279.0560327755569
 20
207.3154228257387
 30
0.0
 11
279.0560327755569
 21
209.5654228257387
 31
0.0
  0
LINE
  5
580
330
1F
100
AcDbEntity
  8
AM_7
 62
     1
100
AcDbLine
 10
279.0560327755569
 20
213.5654228257387
 30
0.0
 11
279.0560327755569
 21
215.8154228257387
 31
0.0
  0
LINE
  5
581
330
1F
100
AcDbEntity
  8
AM_VIS
100
AcDbLine
 10
293.5560327755569
 20
358.879031803346
 30
0.0
 11
293.5560327755569
 21
315.879031803346
 31
0.0
  0
LINE
  5
582
330
1F
100
AcDbEntity
  8
AM_VIS
100
AcDbLine
 10
259.056032775557
 20
358.879031803346
 30
0.0
 11
293.5560327755569
 21
358.879031803346
 31
0.0
  0
LINE
  5
583
330
1F
100
AcDbEntity
  8
AM_VIS
100
AcDbLine
 10
293.5560327755569
 20
315.879031803346
 30
0.0
 11
259.056032775557
 21
315.879031803346
 31
0.0
  0
LINE
  5
584
330
1F
100
AcDbEntity
  8
AM_VIS
100
AcDbLine
 10
259.056032775557
 20
358.679031803346
 30
0.0
 11
259.056032775557
 21
358.879031803346
 31
0.0
  0
LINE
  5
585
330
1F
100
AcDbEntity
  8
AM_VIS
100
AcDbLine
 10
254.0560327755569
 20
358.679031803346
 30
0.0
 11
254.0560327755569
 21
329.679031803346
 31
0.0
  0
LINE
  5
586
330
1F
100
AcDbEntity
  8
AM_VIS
100
AcDbLine
 10
259.056032775557
 20
358.679031803346
 30
0.0
 11
254.0560327755569
 21
358.679031803346
 31
0.0
  0
LINE
  5
587
330
1F
100
AcDbEntity
  8
AM_VIS
100
AcDbLine
 10
254.0560327755569
 20
358.479031803346
 30
0.0
 11
250.0560327755569
 21
358.479031803346
 31
0.0
  0
LINE
  5
588
330
1F
100
AcDbEntity
  8
AM_VIS
100
AcDbLine
 10
254.0560327755569
 20
329.879031803346
 30
0.0
 11
250.0560327755569
 21
329.879031803346
 31
0.0
  0
LINE
  5
589
330
1F
100
AcDbEntity
  8
AM_VIS
100
AcDbLine
 10
250.0560327755569
 20
358.479031803346
 30
0.0
 11
250.0560327755569
 21
329.879031803346
 31
0.0
  0
LINE
  5
58A
330
1F
100
AcDbEntity
  8
AM_VIS
100
AcDbLine
 10
250.0560327755569
 20
356.979031803346
 30
0.0
 11
226.056032775557
 21
356.979031803346
 31
0.0
  0
LINE
  5
58B
330
1F
100
AcDbEntity
  8
AM_VIS
100
AcDbLine
 10
226.056032775557
 20
356.979031803346
 30
0.0
 11
226.056032775557
 21
331.379031803346
 31
0.0
  0
LINE
  5
58C
330
1F
100
AcDbEntity
  8
AM_VIS
100
AcDbLine
 10
258.0560327755569
 20
329.679031803346
 30
0.0
 11
254.0560327755569
 21
329.679031803346
 31
0.0
  0
LINE
  5
58D
330
1F
100
AcDbEntity
  8
AM_VIS
100
AcDbLine
 10
259.056032775557
 20
315.879031803346
 30
0.0
 11
259.056032775557
 21
316.879031803346
 31
0.0
  0
LINE
  5
58E
330
1F
100
AcDbEntity
  8
AM_VIS
100
AcDbLine
 10
259.056032775557
 20
316.879031803346
 30
0.0
 11
258.0560327755569
 21
329.679031803346
 31
0.0
  0
LINE
  5
58F
330
1F
100
AcDbEntity
  8
AM_VIS
100
AcDbLine
 10
250.0560327755569
 20
331.379031803346
 30
0.0
 11
226.056032775557
 21
331.379031803346
 31
0.0
  0
LINE
  5
590
330
1F
100
AcDbEntity
  8
AM_VIS
100
AcDbLine
 10
232.18723062204
 20
308.979031803346
 30
0.0
 11
241.424834929074
 21
308.979031803346
 31
0.0
  0
LINE
  5
591
330
1F
100
AcDbEntity
  8
AM_VIS
100
AcDbLine
 10
232.18723062204
 20
313.379031803346
 30
0.0
 11
232.18723062204
 21
308.979031803346
 31
0.0
  0
LINE
  5
592
330
1F
100
AcDbEntity
  8
AM_VIS
100
AcDbLine
 10
227.5584284685229
 20
308.979031803346
 30
0.0
 11
232.18723062204
 21
308.979031803346
 31
0.0
  0
LINE
  5
593
330
1F
100
AcDbEntity
  8
AM_VIS
100
AcDbLine
 10
227.5584284685229
 20
313.379031803346
 30
0.0
 11
227.5584284685229
 21
308.979031803346
 31
0.0
  0
LINE
  5
594
330
1F
100
AcDbEntity
  8
AM_VIS
100
AcDbLine
 10
241.424834929074
 20
313.379031803346
 30
0.0
 11
241.424834929074
 21
308.979031803346
 31
0.0
  0
LINE
  5
595
330
1F
100
AcDbEntity
  8
AM_VIS
100
AcDbLine
 10
246.053637082591
 20
313.379031803346
 30
0.0
 11
246.053637082591
 21
308.979031803346
 31
0.0
  0
LINE
  5
596
330
1F
100
AcDbEntity
  8
AM_VIS
100
AcDbLine
 10
241.424834929074
 20
308.979031803346
 30
0.0
 11
246.053637082591
 21
308.979031803346
 31
0.0
  0
LINE
  5
597
330
1F
100
AcDbEntity
  8
AM_VIS
100
AcDbLine
 10
227.5584284685229
 20
313.379031803346
 30
0.0
 11
232.18723062204
 21
313.379031803346
 31
0.0
  0
LINE
  5
598
330
1F
100
AcDbEntity
  8
AM_VIS
100
AcDbLine
 10
241.424834929074
 20
313.379031803346
 30
0.0
 11
246.053637082591
 21
313.379031803346
 31
0.0
  0
LINE
  5
599
330
1F
100
AcDbEntity
  8
AM_VIS
100
AcDbLine
 10
232.18723062204
 20
313.379031803346
 30
0.0
 11
241.424834929074
 21
313.379031803346
 31
0.0
  0
LINE
  5
59A
330
1F
100
AcDbEntity
  8
AM_VIS
100
AcDbLine
 10
286.556032775557
 20
288.6315525824656
 30
0.0
 11
271.556032775557
 21
293.0472977746044
 31
0.0
  0
LINE
  5
59B
330
1F
100
AcDbEntity
  8
AM_VIS
100
AcDbLine
 10
268.5560327755569
 20
298.8794699562639
 30
0.0
 11
268.5560327755569
 21
283.379031803346
 31
0.0
  0
LINE
  5
59C
330
1F
100
AcDbEntity
  8
AM_VIS
100
AcDbLine
 10
250.0560327755569
 20
298.879031803346
 30
0.0
 11
250.0560327755569
 21
283.379031803346
 31
0.0
  0
LINE
  5
59D
330
1F
100
AcDbEntity
  8
AM_VIS
100
AcDbLine
 10
263.1283779314874
 20
298.879031803346
 30
0.0
 11
250.0560327755569
 21
298.879031803346
 31
0.0
  0
LINE
  5
59E
330
1F
100
AcDbEntity
  8
AM_VIS
100
AcDbLine
 10
263.1283779314874
 20
313.379031803346
 30
0.0
 11
263.1283779314874
 21
298.879031803346
 31
0.0
  0
LINE
  5
59F
330
1F
100
AcDbEntity
  8
AM_VIS
100
AcDbLine
 10
295.6283779314873
 20
313.379031803346
 30
0.0
 11
263.1283779314874
 21
313.379031803346
 31
0.0
  0
LINE
  5
5A0
330
1F
100
AcDbEntity
  8
AM_VIS
100
AcDbLine
 10
295.6283779314873
 20
313.379031803346
 30
0.0
 11
295.6283779314873
 21
298.8816553986632
 31
0.0
  0
LINE
  5
5A1
330
1F
100
AcDbEntity
  8
AM_VIS
100
AcDbLine
 10
295.6283779314873
 20
298.8816553986632
 30
0.0
 11
308.0560327755569
 21
298.8816553986632
 31
0.0
  0
LINE
  5
5A2
330
1F
100
AcDbEntity
  8
AM_VIS
100
AcDbLine
 10
308.0560327755569
 20
283.4116553986632
 30
0.0
 11
308.0560327755569
 21
298.8816553986632
 31
0.0
  0
LINE
  5
5A3
330
1F
100
AcDbEntity
  8
AM_VIS
100
AcDbLine
 10
289.5560327755569
 20
283.4116553986632
 30
0.0
 11
289.5560327755569
 21
298.8811652024688
 31
0.0
  0
LINE
  5
5A4
330
1F
100
AcDbEntity
  8
AM_VIS
100
AcDbLine
 10
271.556032775557
 20
283.379031803346
 30
0.0
 11
271.556032775557
 21
298.8797121342932
 31
0.0
  0
LINE
  5
5A5
330
1F
100
AcDbEntity
  8
AM_VIS
100
AcDbLine
 10
286.556032775557
 20
298.8809230244395
 30
0.0
 11
286.556032775557
 21
283.4116553986632
 31
0.0
  0
ARC
  5
5A6
330
1F
100
AcDbEntity
  8
AM_VIS
100
AcDbCircle
 10
266.309378870506
 20
253.3472652067806
 30
0.0
 40
29.57455945483668
100
AcDbArc
 50
46.79608033626121
 51
59.53050580424991
  0
ARC
  5
5A7
330
1F
100
AcDbEntity
  8
AM_VIS
100
AcDbCircle
 10
291.8026866806068
 20
253.347265206782
 30
0.0
 40
29.57455945483486
100
AcDbArc
 50
120.4694941957501
 51
133.2039196637387
  0
ARC
  5
5A8
330
1F
100
AcDbEntity
  8
AM_VIS
100
AcDbCircle
 10
274.0979658700535
 20
301.6622996582583
 30
0.0
 40
15.51750897482359
100
AcDbArc
 50
297.6786348299309
 51
308.22733415035
  0
ARC
  5
5A9
330
1F
100
AcDbEntity
  8
AM_VIS
100
AcDbCircle
 10
291.7929380785435
 20
313.3977845649172
 30
0.0
 40
29.55839957840441
100
AcDbArc
 50
226.7925849037766
 51
239.5340012367361
  0
SPLINE
  5
5AA
330
1F
100
AcDbEntity
  8
AM_VIS
100
AcDbSpline
210
0.0
220
0.0
230
1.0
 70
     8
 71
     3
 72
    19
 73
    15
 74
     0
 42
0.0000000001
 43
0.0000000001
 40
32.16026379867136
 40
32.16026379867136
 40
32.16026379867136
 40
32.16026379867136
 40
32.74100880243624
 40
32.74100880243624
 40
34.39926997782712
 40
34.39926997782712
 40
36.057531153218
 40
36.057531153218
 40
36.057531153218
 40
37.71579232860889
 40
37.71579232860889
 40
39.37405350399976
 40
39.37405350399976
 40
39.95479850776462
 40
39.95479850776462
 40
39.95479850776462
 40
39.95479850776462
 10
276.8060327755569
 20
279.4340983438311
 30
0.0
 10
276.8060002413701
 20
279.620425543565
 30
0.0
 10
276.8096252062508
 20
279.8097952618388
 30
0.0
 10
276.8320869545151
 20
280.5492580854019
 30
0.0
 10
276.8661174119682
 20
281.1167206060494
 30
0.0
 10
276.9177878307742
 20
282.2552110149148
 30
0.0
 10
276.9347124319973
 20
282.8262780782157
 30
0.0
 10
276.9347124319973
 20
283.379031803346
 30
0.0
 10
276.9347124319973
 20
283.9317855284763
 30
0.0
 10
276.9177878307742
 20
284.5028525917772
 30
0.0
 10
276.8661174119682
 20
285.6413430006426
 30
0.0
 10
276.8320869545151
 20
286.20880552129
 30
0.0
 10
276.8096252062508
 20
286.9482683448532
 30
0.0
 10
276.8060002413701
 20
287.1376380631269
 30
0.0
 10
276.8060327755569
 20
287.3239652628608
 30
0.0
  0
SPLINE
  5
5AB
330
1F
100
AcDbEntity
  8
AM_VIS
100
AcDbSpline
210
0.0
220
0.0
230
1.0
 70
     8
 71
     3
 72
    18
 73
    14
 74
     0
 42
0.0000000001
 43
0.0000000001
 40
14.13149822206235
 40
14.13149822206235
 40
14.13149822206235
 40
14.13149822206235
 40
14.71224322582723
 40
14.71224322582723
 40
16.37050440121812
 40
16.37050440121812
 40
18.028765576609
 40
18.028765576609
 40
19.68702675199988
 40
19.68702675199988
 40
21.34528792739077
 40
21.34528792739077
 40
21.92603293115565
 40
21.92603293115565
 40
21.92603293115565
 40
21.92603293115565
 10
281.306032775557
 20
287.3239652628608
 30
0.0
 10
281.3060653097438
 20
287.1376380631269
 30
0.0
 10
281.3024403448631
 20
286.9482683448532
 30
0.0
 10
281.2799785965988
 20
286.20880552129
 30
0.0
 10
281.2459481391457
 20
285.6413430006426
 30
0.0
 10
281.1942777203397
 20
284.5028525917772
 30
0.0
 10
281.1773531191166
 20
283.9317855284763
 30
0.0
 10
281.1773531191166
 20
282.8262780782157
 30
0.0
 10
281.1942777203397
 20
282.2552110149148
 30
0.0
 10
281.2459481391457
 20
281.1167206060494
 30
0.0
 10
281.2799785965988
 20
280.5492580854019
 30
0.0
 10
281.3024403448631
 20
279.8097952618388
 30
0.0
 10
281.3060653097438
 20
279.620425543565
 30
0.0
 10
281.306032775557
 20
279.4340983438311
 30
0.0
  0
LINE
  5
5AC
330
1F
100
AcDbEntity
  8
AM_VIS
100
AcDbLine
 10
226.056032775557
 20
331.379031803346
 30
0.0
 11
226.056032775557
 21
315.379031803346
 31
0.0
  0
LINE
  5
5AD
330
1F
100
AcDbEntity
  8
AM_VIS
100
AcDbLine
 10
247.556032775557
 20
331.379031803346
 30
0.0
 11
247.556032775557
 21
315.379031803346
 31
0.0
  0
LINE
  5
5AE
330
1F
100
AcDbEntity
  8
AM_VIS
100
AcDbLine
 10
230.056032775557
 20
315.379031803346
 30
0.0
 11
230.056032775557
 21
313.379031803346
 31
0.0
  0
LINE
  5
5AF
330
1F
100
AcDbEntity
  8
AM_VIS
100
AcDbLine
 10
243.5560327755569
 20
315.379031803346
 30
0.0
 11
243.5560327755569
 21
313.379031803346
 31
0.0
  0
LINE
  5
5B0
330
1F
100
AcDbEntity
  8
AM_VIS
100
AcDbLine
 10
272.556032775557
 20
315.879031803346
 30
0.0
 11
272.556032775557
 21
313.379031803346
 31
0.0
  0
LINE
  5
5B1
330
1F
100
AcDbEntity
  8
AM_VIS
100
AcDbLine
 10
285.5560327755569
 20
315.879031803346
 30
0.0
 11
285.5560327755569
 21
313.379031803346
 31
0.0
  0
LINE
  5
5B2
330
1F
100
AcDbEntity
  8
AM_VIS
100
AcDbLine
 10
289.056032775557
 20
267.6616553986631
 30
0.0
 11
289.5560327755569
 21
267.1616553986631
 31
0.0
  0
LINE
  5
5B3
330
1F
100
AcDbEntity
  8
AM_VIS
100
AcDbLine
 10
276.8060327755569
 20
279.4340983438311
 30
0.0
 11
276.8060327755569
 21
267.141848215792
 31
0.0
  0
LINE
  5
5B4
330
1F
100
AcDbEntity
  8
AM_VIS
100
AcDbLine
 10
276.8060327755569
 20
291.5017869573559
 30
0.0
 11
276.8060327755569
 21
287.3239652628608
 31
0.0
  0
LINE
  5
5B5
330
1F
100
AcDbEntity
  8
AM_VIS
100
AcDbLine
 10
281.306032775557
 20
279.4340983438311
 30
0.0
 11
281.306032775557
 21
267.1488389862171
 31
0.0
  0
LINE
  5
5B6
330
1F
100
AcDbEntity
  8
AM_VIS
100
AcDbLine
 10
281.306032775557
 20
290.1770633997142
 30
0.0
 11
281.306032775557
 21
287.3239652628608
 31
0.0
  0
LINE
  5
5B7
330
1F
100
AcDbEntity
  8
AM_VIS
100
AcDbLine
 10
285.806032775557
 20
358.879031803346
 30
0.0
 11
285.806032775557
 21
361.879031803346
 31
0.0
  0
LINE
  5
5B8
330
1F
100
AcDbEntity
  8
AM_VIS
100
AcDbLine
 10
272.306032775557
 20
358.879031803346
 30
0.0
 11
272.306032775557
 21
361.879031803346
 31
0.0
  0
LINE
  5
5B9
330
1F
100
AcDbEntity
  8
AM_VIS
100
AcDbLine
 10
289.056032775557
 20
361.879031803346
 30
0.0
 11
289.056032775557
 21
382.8790318033459
 31
0.0
  0
LINE
  5
5BA
330
1F
100
AcDbEntity
  8
AM_VIS
100
AcDbLine
 10
269.0560327755569
 20
361.879031803346
 30
0.0
 11
269.0560327755569
 21
382.8790318033459
 31
0.0
  0
LINE
  5
5BB
330
1F
100
AcDbEntity
  8
AM_VIS
100
AcDbLine
 10
247.556032775557
 20
315.379031803346
 30
0.0
 11
226.056032775557
 21
315.379031803346
 31
0.0
  0
LINE
  5
5BC
330
1F
100
AcDbEntity
  8
AM_VIS
100
AcDbLine
 10
250.0560327755569
 20
266.879031803346
 30
0.0
 11
250.0560327755569
 21
283.379031803346
 31
0.0
  0
LINE
  5
5BD
330
1F
100
AcDbEntity
  8
AM_VIS
100
AcDbLine
 10
308.0560327755569
 20
283.4116553986632
 30
0.0
 11
308.0560327755569
 21
266.879031803346
 31
0.0
  0
LINE
  5
5BE
330
1F
100
AcDbEntity
  8
AM_VIS
100
AcDbLine
 10
289.5560327755569
 20
283.4116553986632
 30
0.0
 11
289.5560327755569
 21
266.879031803346
 31
0.0
  0
LINE
  5
5BF
330
1F
100
AcDbEntity
  8
AM_VIS
100
AcDbLine
 10
268.5560327755569
 20
266.879031803346
 30
0.0
 11
268.5560327755569
 21
283.379031803346
 31
0.0
  0
LINE
  5
5C0
330
1F
100
AcDbEntity
  8
AM_VIS
100
AcDbLine
 10
271.556032775557
 20
283.379031803346
 30
0.0
 11
271.556032775557
 21
271.8980693001409
 31
0.0
  0
LINE
  5
5C1
330
1F
100
AcDbEntity
  8
AM_VIS
100
AcDbLine
 10
286.556032775557
 20
271.9306928954581
 30
0.0
 11
286.556032775557
 21
283.4116553986632
 31
0.0
  0
LINE
  5
5C2
330
1F
100
AcDbEntity
  8
AM_VIS
100
AcDbLine
 10
289.056032775557
 20
361.879031803346
 30
0.0
 11
269.0560327755569
 21
361.879031803346
 31
0.0
  0
LINE
  5
5C3
330
1F
100
AcDbEntity
  8
AM_VIS
100
AcDbLine
 10
134.3095174328487
 20
358.879031803346
 30
0.0
 11
134.3095174328487
 21
358.679031803346
 31
0.0
  0
LINE
  5
5C4
330
1F
100
AcDbEntity
  8
AM_VIS
100
AcDbLine
 10
134.3095174328487
 20
358.879031803346
 30
0.0
 11
163.3095174328487
 21
358.879031803346
 31
0.0
  0
LINE
  5
5C5
330
1F
100
AcDbEntity
  8
AM_VIS
100
AcDbLine
 10
163.3095174328487
 20
358.679031803346
 30
0.0
 11
163.3095174328487
 21
358.879031803346
 31
0.0
  0
LINE
  5
5C6
330
1F
100
AcDbEntity
  8
AM_VIS
100
AcDbLine
 10
134.3095174328487
 20
329.679031803346
 30
0.0
 11
134.3095174328487
 21
358.679031803346
 31
0.0
  0
LINE
  5
5C7
330
1F
100
AcDbEntity
  8
AM_VIS
100
AcDbLine
 10
163.3095174328487
 20
358.679031803346
 30
0.0
 11
163.3095174328487
 21
329.679031803346
 31
0.0
  0
LINE
  5
5C8
330
1F
100
AcDbEntity
  8
AM_VIS
100
AcDbLine
 10
134.3095174328487
 20
358.679031803346
 30
0.0
 11
163.3095174328487
 21
358.679031803346
 31
0.0
  0
LINE
  5
5C9
330
1F
100
AcDbEntity
  8
AM_VIS
100
AcDbLine
 10
135.5095174328487
 20
358.4790318033459
 30
0.0
 11
162.1095174328487
 21
358.4790318033459
 31
0.0
  0
LINE
  5
5CA
330
1F
100
AcDbEntity
  8
AM_VIS
100
AcDbLine
 10
134.5095174328487
 20
330.879031803346
 30
0.0
 11
134.5095174328487
 21
357.479031803346
 31
0.0
  0
LINE
  5
5CB
330
1F
100
AcDbEntity
  8
AM_VIS
100
AcDbLine
 10
162.1095174328487
 20
329.879031803346
 30
0.0
 11
159.5595174328487
 21
329.879031803346
 31
0.0
  0
LINE
  5
5CC
330
1F
100
AcDbEntity
  8
AM_VIS
100
AcDbLine
 10
138.0595174328487
 20
329.879031803346
 30
0.0
 11
135.5095174328487
 21
329.879031803346
 31
0.0
  0
LINE
  5
5CD
330
1F
100
AcDbEntity
  8
AM_VIS
100
AcDbLine
 10
163.1095174328487
 20
357.479031803346
 30
0.0
 11
163.1095174328487
 21
330.8790318033461
 31
0.0
  0
LINE
  5
5CE
330
1F
100
AcDbEntity
  8
AM_VIS
100
AcDbLine
 10
136.0095174328487
 20
356.979031803346
 30
0.0
 11
161.6095174328487
 21
356.979031803346
 31
0.0
  0
LINE
  5
5CF
330
1F
100
AcDbEntity
  8
AM_VIS
100
AcDbLine
 10
136.0095174328487
 20
331.379031803346
 30
0.0
 11
136.0095174328487
 21
356.979031803346
 31
0.0
  0
LINE
  5
5D0
330
1F
100
AcDbEntity
  8
AM_VIS
100
AcDbLine
 10
161.6095174328487
 20
356.979031803346
 30
0.0
 11
161.6095174328487
 21
331.379031803346
 31
0.0
  0
LINE
  5
5D1
330
1F
100
AcDbEntity
  8
AM_VIS
100
AcDbLine
 10
163.3095174328487
 20
329.679031803346
 30
0.0
 11
159.5595174328487
 21
329.679031803346
 31
0.0
  0
LINE
  5
5D2
330
1F
100
AcDbEntity
  8
AM_VIS
100
AcDbLine
 10
138.0595174328487
 20
329.679031803346
 30
0.0
 11
134.3095174328487
 21
329.679031803346
 31
0.0
  0
LINE
  5
5D3
330
1F
100
AcDbEntity
  8
AM_VIS
100
AcDbLine
 10
163.3095174328487
 20
315.879031803346
 30
0.0
 11
163.3095174328487
 21
316.879031803346
 31
0.0
  0
LINE
  5
5D4
330
1F
100
AcDbEntity
  8
AM_VIS
100
AcDbLine
 10
134.3095174328487
 20
315.879031803346
 30
0.0
 11
138.0595174328487
 21
315.879031803346
 31
0.0
  0
LINE
  5
5D5
330
1F
100
AcDbEntity
  8
AM_VIS
100
AcDbLine
 10
159.5595174328487
 20
315.879031803346
 30
0.0
 11
163.3095174328487
 21
315.879031803346
 31
0.0
  0
LINE
  5
5D6
330
1F
100
AcDbEntity
  8
AM_VIS
100
AcDbLine
 10
134.3095174328487
 20
316.879031803346
 30
0.0
 11
134.3095174328487
 21
315.879031803346
 31
0.0
  0
LINE
  5
5D7
330
1F
100
AcDbEntity
  8
AM_VIS
100
AcDbLine
 10
163.3095174328487
 20
316.879031803346
 30
0.0
 11
159.5595174328487
 21
316.879031803346
 31
0.0
  0
LINE
  5
5D8
330
1F
100
AcDbEntity
  8
AM_VIS
100
AcDbLine
 10
138.0595174328487
 20
316.879031803346
 30
0.0
 11
134.3095174328487
 21
316.879031803346
 31
0.0
  0
LINE
  5
5D9
330
1F
100
AcDbEntity
  8
AM_VIS
100
AcDbLine
 10
134.3095174328487
 20
329.679031803346
 30
0.0
 11
134.3095174328487
 21
316.879031803346
 31
0.0
  0
LINE
  5
5DA
330
1F
100
AcDbEntity
  8
AM_VIS
100
AcDbLine
 10
163.3095174328487
 20
316.879031803346
 30
0.0
 11
163.3095174328487
 21
329.679031803346
 31
0.0
  0
LINE
  5
5DB
330
1F
100
AcDbEntity
  8
AM_VIS
100
AcDbLine
 10
148.8095174328487
 20
331.379031803346
 30
0.0
 11
136.0095174328487
 21
331.379031803346
 31
0.0
  0
LINE
  5
5DC
330
1F
100
AcDbEntity
  8
AM_VIS
100
AcDbLine
 10
161.6095174328487
 20
331.379031803346
 30
0.0
 11
148.8095174328487
 21
331.379031803346
 31
0.0
  0
LINE
  5
5DD
330
1F
100
AcDbEntity
  8
AM_VIS
100
AcDbLine
 10
156.8095174328487
 20
313.379031803346
 30
0.0
 11
156.8095174328487
 21
308.979031803346
 31
0.0
  0
LINE
  5
5DE
330
1F
100
AcDbEntity
  8
AM_VIS
100
AcDbLine
 10
148.8095174328487
 20
308.979031803346
 30
0.0
 11
156.8095174328487
 21
308.979031803346
 31
0.0
  0
LINE
  5
5DF
330
1F
100
AcDbEntity
  8
AM_VIS
100
AcDbLine
 10
140.8095174328487
 20
308.979031803346
 30
0.0
 11
148.8095174328487
 21
308.979031803346
 31
0.0
  0
LINE
  5
5E0
330
1F
100
AcDbEntity
  8
AM_VIS
100
AcDbLine
 10
140.8095174328487
 20
313.379031803346
 30
0.0
 11
140.8095174328487
 21
308.979031803346
 31
0.0
  0
LINE
  5
5E1
330
1F
100
AcDbEntity
  8
AM_VIS
100
AcDbLine
 10
148.8095174328487
 20
313.379031803346
 30
0.0
 11
156.8095174328487
 21
313.379031803346
 31
0.0
  0
LINE
  5
5E2
330
1F
100
AcDbEntity
  8
AM_VIS
100
AcDbLine
 10
140.8095174328487
 20
313.379031803346
 30
0.0
 11
148.8095174328487
 21
313.379031803346
 31
0.0
  0
LINE
  5
5E3
330
1F
100
AcDbEntity
  8
AM_VIS
100
AcDbLine
 10
165.0595174328487
 20
313.379031803346
 30
0.0
 11
156.8095174328487
 21
313.379031803346
 31
0.0
  0
LINE
  5
5E4
330
1F
100
AcDbEntity
  8
AM_VIS
100
AcDbLine
 10
140.8095174328487
 20
313.379031803346
 30
0.0
 11
132.5595174328487
 21
313.379031803346
 31
0.0
  0
LINE
  5
5E5
330
1F
100
AcDbEntity
  8
AM_VIS
100
AcDbLine
 10
132.5595174328487
 20
313.379031803346
 30
0.0
 11
132.5595174328487
 21
299.379031803346
 31
0.0
  0
LINE
  5
5E6
330
1F
100
AcDbEntity
  8
AM_VIS
100
AcDbLine
 10
132.5595174328487
 20
283.129031803346
 30
0.0
 11
132.5595174328487
 21
299.379031803346
 31
0.0
  0
LINE
  5
5E7
330
1F
100
AcDbEntity
  8
AM_VIS
100
AcDbLine
 10
165.0595174328487
 20
299.3790318033461
 30
0.0
 11
165.0595174328487
 21
283.129031803346
 31
0.0
  0
LINE
  5
5E8
330
1F
100
AcDbEntity
  8
AM_VIS
100
AcDbLine
 10
165.0595174328487
 20
313.379031803346
 30
0.0
 11
165.0595174328487
 21
299.379031803346
 31
0.0
  0
LINE
  5
5E9
330
1F
100
AcDbEntity
  8
AM_VIS
100
AcDbLine
 10
139.0626424328487
 20
270.1266886401167
 30
0.0
 11
139.0626424328487
 21
266.879031803346
 31
0.0
  0
LINE
  5
5EA
330
1F
100
AcDbEntity
  8
AM_VIS
100
AcDbLine
 10
158.5563924328487
 20
266.879031803346
 30
0.0
 11
158.5563924328487
 21
270.1266886401167
 31
0.0
  0
LINE
  5
5EB
330
1F
100
AcDbEntity
  8
AM_VIS
100
AcDbLine
 10
138.0595174328487
 20
331.379031803346
 30
0.0
 11
138.0595174328487
 21
315.379031803346
 31
0.0
  0
LINE
  5
5EC
330
1F
100
AcDbEntity
  8
AM_VIS
100
AcDbLine
 10
159.5595174328487
 20
331.379031803346
 30
0.0
 11
159.5595174328487
 21
315.379031803346
 31
0.0
  0
LINE
  5
5ED
330
1F
100
AcDbEntity
  8
AM_VIS
100
AcDbLine
 10
142.0595174328487
 20
315.379031803346
 30
0.0
 11
142.0595174328487
 21
313.379031803346
 31
0.0
  0
LINE
  5
5EE
330
1F
100
AcDbEntity
  8
AM_VIS
100
AcDbLine
 10
155.5595174328487
 20
315.379031803346
 30
0.0
 11
155.5595174328487
 21
313.379031803346
 31
0.0
  0
LINE
  5
5EF
330
1F
100
AcDbEntity
  8
AM_VIS
100
AcDbLine
 10
136.5595174328487
 20
272.4519535513147
 30
0.0
 11
136.5595174328487
 21
266.879031803346
 31
0.0
  0
LINE
  5
5F0
330
1F
100
AcDbEntity
  8
AM_VIS
100
AcDbLine
 10
161.0595174328487
 20
272.4519535513147
 30
0.0
 11
161.0595174328487
 21
266.879031803346
 31
0.0
  0
LINE
  5
5F1
330
1F
100
AcDbEntity
  8
AM_VIS
100
AcDbLine
 10
155.5595174328487
 20
358.879031803346
 30
0.0
 11
155.5595174328487
 21
361.879031803346
 31
0.0
  0
LINE
  5
5F2
330
1F
100
AcDbEntity
  8
AM_VIS
100
AcDbLine
 10
142.0595174328487
 20
358.879031803346
 30
0.0
 11
142.0595174328487
 21
361.879031803346
 31
0.0
  0
LINE
  5
5F3
330
1F
100
AcDbEntity
  8
AM_VIS
100
AcDbLine
 10
158.8095174328487
 20
361.879031803346
 30
0.0
 11
158.8095174328487
 21
382.8790318033459
 31
0.0
  0
LINE
  5
5F4
330
1F
100
AcDbEntity
  8
AM_VIS
100
AcDbLine
 10
138.8095174328487
 20
361.879031803346
 30
0.0
 11
138.8095174328487
 21
382.8790318033459
 31
0.0
  0
ARC
  5
5F5
330
1F
100
AcDbEntity
  8
AM_VIS
100
AcDbCircle
 10
162.1095174328487
 20
357.479031803346
 30
0.0
 40
1.0
100
AcDbArc
 50
0.0
 51
90.0
  0
ARC
  5
5F6
330
1F
100
AcDbEntity
  8
AM_VIS
100
AcDbCircle
 10
135.5095174328487
 20
357.479031803346
 30
0.0
 40
1.0
100
AcDbArc
 50
90.0
 51
180.0
  0
ARC
  5
5F7
330
1F
100
AcDbEntity
  8
AM_VIS
100
AcDbCircle
 10
135.5095174328487
 20
330.879031803346
 30
0.0
 40
1.0
100
AcDbArc
 50
180.0
 51
270.0
  0
ARC
  5
5F8
330
1F
100
AcDbEntity
  8
AM_VIS
100
AcDbCircle
 10
162.1095174328487
 20
330.879031803346
 30
0.0
 40
1.0
100
AcDbArc
 50
270.0
 51
0.0
  0
LINE
  5
5F9
330
1F
100
AcDbEntity
  8
AM_VIS
100
AcDbLine
 10
159.5595174328487
 20
315.379031803346
 30
0.0
 11
138.0595174328487
 21
315.379031803346
 31
0.0
  0
CIRCLE
  5
5FA
330
1F
100
AcDbEntity
  8
AM_VIS
100
AcDbCircle
 10
148.8095174328487
 20
344.179031803346
 30
0.0
 40
3.5
  0
CIRCLE
  5
5FB
330
1F
100
AcDbEntity
  8
AM_VIS
100
AcDbCircle
 10
148.8095174328487
 20
344.179031803346
 30
0.0
 40
2.5
  0
ARC
  5
5FC
330
1F
100
AcDbEntity
  8
AM_VIS
100
AcDbCircle
 10
148.8095174328487
 20
283.129031803346
 30
0.0
 40
16.25
100
AcDbArc
 50
180.0
 51
0.0
  0
LINE
  5
5FD
330
1F
100
AcDbEntity
  8
AM_VIS
100
AcDbLine
 10
138.8095174328487
 20
382.879031803346
 30
0.0
 11
158.8095174328487
 21
382.879031803346
 31
0.0
  0
LINE
  5
5FE
330
1F
100
AcDbEntity
  8
AM_VIS
100
AcDbLine
 10
158.8095174328487
 20
361.879031803346
 30
0.0
 11
138.8095174328487
 21
361.879031803346
 31
0.0
  0
LINE
  5
5FF
330
1F
100
AcDbEntity
  8
AM_VIS
100
AcDbLine
 10
385.3784493081254
 20
315.879031803346
 30
0.0
 11
385.3784493081254
 21
358.879031803346
 31
0.0
  0
LINE
  5
600
330
1F
100
AcDbEntity
  8
AM_VIS
100
AcDbLine
 10
356.3784493081254
 20
358.879031803346
 30
0.0
 11
356.3784493081254
 21
315.879031803346
 31
0.0
  0
LINE
  5
601
330
1F
100
AcDbEntity
  8
AM_VIS
100
AcDbLine
 10
385.3784493081254
 20
358.879031803346
 30
0.0
 11
356.3784493081254
 21
358.879031803346
 31
0.0
  0
LINE
  5
602
330
1F
100
AcDbEntity
  8
AM_VIS
100
AcDbLine
 10
385.3784493081254
 20
315.879031803346
 30
0.0
 11
356.3784493081254
 21
315.879031803346
 31
0.0
  0
LINE
  5
603
330
1F
100
AcDbEntity
  8
AM_VIS
100
AcDbLine
 10
387.1284493081254
 20
313.379031803346
 30
0.0
 11
354.6284493081254
 21
313.379031803346
 31
0.0
  0
LINE
  5
604
330
1F
100
AcDbEntity
  8
AM_VIS
100
AcDbLine
 10
387.1284493081254
 20
299.3816553986631
 30
0.0
 11
387.1284493081254
 21
283.4116553986632
 31
0.0
  0
LINE
  5
605
330
1F
100
AcDbEntity
  8
AM_VIS
100
AcDbLine
 10
387.1284493081254
 20
313.379031803346
 30
0.0
 11
387.1284493081254
 21
299.3816553986631
 31
0.0
  0
LINE
  5
606
330
1F
100
AcDbEntity
  8
AM_VIS
100
AcDbLine
 10
387.1284493081254
 20
283.379031803346
 30
0.0
 11
387.1284493081254
 21
283.4116553986632
 31
0.0
  0
LINE
  5
607
330
1F
100
AcDbEntity
  8
AM_VIS
100
AcDbLine
 10
354.6284493081254
 20
283.4116553986632
 30
0.0
 11
354.6284493081254
 21
283.379031803346
 31
0.0
  0
LINE
  5
608
330
1F
100
AcDbEntity
  8
AM_VIS
100
AcDbLine
 10
354.6284493081254
 20
313.379031803346
 30
0.0
 11
354.6284493081254
 21
299.3816553986631
 31
0.0
  0
LINE
  5
609
330
1F
100
AcDbEntity
  8
AM_VIS
100
AcDbLine
 10
354.6284493081254
 20
283.4116553986632
 30
0.0
 11
354.6284493081254
 21
299.3816553986631
 31
0.0
  0
LINE
  5
60A
330
1F
100
AcDbEntity
  8
AM_VIS
100
AcDbLine
 10
380.6253243081254
 20
266.879031803346
 30
0.0
 11
380.6253243081254
 21
270.1266886401167
 31
0.0
  0
LINE
  5
60B
330
1F
100
AcDbEntity
  8
AM_VIS
100
AcDbLine
 10
361.1315743081255
 20
270.1266886401167
 30
0.0
 11
361.1315743081255
 21
266.879031803346
 31
0.0
  0
LINE
  5
60C
330
1F
100
AcDbEntity
  8
AM_VIS
100
AcDbLine
 10
360.1284493081254
 20
315.879031803346
 30
0.0
 11
360.1284493081254
 21
315.379031803346
 31
0.0
  0
LINE
  5
60D
330
1F
100
AcDbEntity
  8
AM_VIS
100
AcDbLine
 10
381.6284493081255
 20
315.879031803346
 30
0.0
 11
381.6284493081255
 21
315.379031803346
 31
0.0
  0
LINE
  5
60E
330
1F
100
AcDbEntity
  8
AM_VIS
100
AcDbLine
 10
364.1284493081254
 20
315.379031803346
 30
0.0
 11
364.1284493081254
 21
313.379031803346
 31
0.0
  0
LINE
  5
60F
330
1F
100
AcDbEntity
  8
AM_VIS
100
AcDbLine
 10
377.6284493081254
 20
315.379031803346
 30
0.0
 11
377.6284493081254
 21
313.379031803346
 31
0.0
  0
LINE
  5
610
330
1F
100
AcDbEntity
  8
AM_VIS
100
AcDbLine
 10
364.3784493081254
 20
315.879031803346
 30
0.0
 11
364.3784493081254
 21
313.379031803346
 31
0.0
  0
LINE
  5
611
330
1F
100
AcDbEntity
  8
AM_VIS
100
AcDbLine
 10
377.3784493081254
 20
315.879031803346
 30
0.0
 11
377.3784493081254
 21
313.379031803346
 31
0.0
  0
LINE
  5
612
330
1F
100
AcDbEntity
  8
AM_VIS
100
AcDbLine
 10
383.1284493081254
 20
272.4519535513147
 30
0.0
 11
383.1284493081254
 21
266.879031803346
 31
0.0
  0
LINE
  5
613
330
1F
100
AcDbEntity
  8
AM_VIS
100
AcDbLine
 10
358.6284493081254
 20
272.4519535513147
 30
0.0
 11
358.6284493081254
 21
266.879031803346
 31
0.0
  0
LINE
  5
614
330
1F
100
AcDbEntity
  8
AM_VIS
100
AcDbLine
 10
377.6284493081254
 20
358.879031803346
 30
0.0
 11
377.6284493081254
 21
361.879031803346
 31
0.0
  0
LINE
  5
615
330
1F
100
AcDbEntity
  8
AM_VIS
100
AcDbLine
 10
364.1284493081254
 20
358.879031803346
 30
0.0
 11
364.1284493081254
 21
361.879031803346
 31
0.0
  0
LINE
  5
616
330
1F
100
AcDbEntity
  8
AM_VIS
100
AcDbLine
 10
380.8784493081254
 20
361.879031803346
 30
0.0
 11
380.8784493081254
 21
382.879031803346
 31
0.0
  0
LINE
  5
617
330
1F
100
AcDbEntity
  8
AM_VIS
100
AcDbLine
 10
360.8784493081254
 20
361.879031803346
 30
0.0
 11
360.8784493081254
 21
382.879031803346
 31
0.0
  0
LINE
  5
618
330
1F
100
AcDbEntity
  8
AM_VIS
100
AcDbLine
 10
381.6284493081255
 20
315.379031803346
 30
0.0
 11
377.3784493081254
 21
315.379031803346
 31
0.0
  0
LINE
  5
619
330
1F
100
AcDbEntity
  8
AM_VIS
100
AcDbLine
 10
364.3784493081254
 20
315.379031803346
 30
0.0
 11
360.1284493081254
 21
315.379031803346
 31
0.0
  0
ARC
  5
61A
330
1F
100
AcDbEntity
  8
AM_VIS
100
AcDbCircle
 10
370.8784493081254
 20
283.129031803346
 30
0.0
 40
16.25
100
AcDbArc
 50
180.0
 51
0.0
  0
CIRCLE
  5
61B
330
1F
100
AcDbEntity
  8
AM_VIS
100
AcDbCircle
 10
370.8784493081254
 20
283.0964082080289
 30
0.0
 40
11.5
  0
LINE
  5
61C
330
1F
100
AcDbEntity
  8
AM_VIS
100
AcDbLine
 10
360.8784493081254
 20
382.879031803346
 30
0.0
 11
380.8784493081254
 21
382.879031803346
 31
0.0
  0
LINE
  5
61D
330
1F
100
AcDbEntity
  8
AM_VIS
100
AcDbLine
 10
380.8784493081254
 20
361.879031803346
 30
0.0
 11
360.8784493081254
 21
361.879031803346
 31
0.0
  0
LINE
  5
61E
330
1F
100
AcDbEntity
  8
AM_VIS
100
AcDbLine
 10
250.0560327755569
 20
214.3654228257387
 30
0.0
 11
226.056032775557
 21
214.3654228257387
 31
0.0
  0
LINE
  5
61F
330
1F
100
AcDbEntity
  8
AM_VIS
100
AcDbLine
 10
250.0560327755569
 20
188.7654228257387
 30
0.0
 11
226.056032775557
 21
188.7654228257387
 31
0.0
  0
LINE
  5
620
330
1F
100
AcDbEntity
  8
AM_VIS
100
AcDbLine
 10
226.056032775557
 20
201.5654228257387
 30
0.0
 11
226.056032775557
 21
188.7654228257387
 31
0.0
  0
LINE
  5
621
330
1F
100
AcDbEntity
  8
AM_VIS
100
AcDbLine
 10
226.056032775557
 20
214.3654228257387
 30
0.0
 11
226.056032775557
 21
201.5654228257387
 31
0.0
  0
LINE
  5
622
330
1F
100
AcDbEntity
  8
AM_VIS
100
AcDbLine
 10
232.18723062204
 20
209.5654228257387
 30
0.0
 11
241.424834929074
 21
209.5654228257387
 31
0.0
  0
LINE
  5
623
330
1F
100
AcDbEntity
  8
AM_VIS
100
AcDbLine
 10
227.5684284685229
 20
201.5654228257387
 30
0.0
 11
232.18723062204
 21
209.5654228257387
 31
0.0
  0
LINE
  5
624
330
1F
100
AcDbEntity
  8
AM_VIS
100
AcDbLine
 10
232.18723062204
 20
193.5654228257387
 30
0.0
 11
227.5684284685229
 21
201.5654228257387
 31
0.0
  0
LINE
  5
625
330
1F
100
AcDbEntity
  8
AM_VIS
100
AcDbLine
 10
241.424834929074
 20
193.5654228257387
 30
0.0
 11
232.18723062204
 21
193.5654228257387
 31
0.0
  0
LINE
  5
626
330
1F
100
AcDbEntity
  8
AM_VIS
100
AcDbLine
 10
246.043637082591
 20
201.5654228257387
 30
0.0
 11
241.424834929074
 21
193.5654228257387
 31
0.0
  0
LINE
  5
627
330
1F
100
AcDbEntity
  8
AM_VIS
100
AcDbLine
 10
241.424834929074
 20
209.5654228257387
 30
0.0
 11
246.043637082591
 21
201.5654228257387
 31
0.0
  0
ARC
  5
628
330
1F
100
AcDbEntity
  8
AM_VIS
100
AcDbCircle
 10
279.0560327755569
 20
201.5654228257387
 30
0.0
 40
14.5
100
AcDbArc
 50
58.85261007849059
 51
121.1473899215094
  0
ARC
  5
629
330
1F
100
AcDbEntity
  8
AM_VIS
100
AcDbCircle
 10
279.0560327755569
 20
201.5654228257387
 30
0.0
 40
14.5
100
AcDbArc
 50
238.8526100784906
 51
301.1473899215094
  0
LINE
  5
62A
330
1F
100
AcDbEntity
  8
AM_VIS
100
AcDbLine
 10
268.5560327755569
 20
185.3154228257387
 30
0.0
 11
250.0560327755569
 21
185.3154228257387
 31
0.0
  0
LINE
  5
62B
330
1F
100
AcDbEntity
  8
AM_VIS
100
AcDbLine
 10
268.5560327755569
 20
185.3154228257387
 30
0.0
 11
289.5560327755569
 21
185.3154228257387
 31
0.0
  0
LINE
  5
62C
330
1F
100
AcDbEntity
  8
AM_VIS
100
AcDbLine
 10
289.5560327755569
 20
185.3154228257387
 30
0.0
 11
308.0560327755569
 21
185.3154228257387
 31
0.0
  0
LINE
  5
62D
330
1F
100
AcDbEntity
  8
AM_VIS
100
AcDbLine
 10
268.5560327755569
 20
217.8154228257387
 30
0.0
 11
250.0560327755569
 21
217.8154228257387
 31
0.0
  0
LINE
  5
62E
330
1F
100
AcDbEntity
  8
AM_VIS
100
AcDbLine
 10
289.5560327755569
 20
217.8154228257387
 30
0.0
 11
308.0560327755569
 21
217.8154228257387
 31
0.0
  0
LINE
  5
62F
330
1F
100
AcDbEntity
  8
AM_VIS
100
AcDbLine
 10
289.5560327755569
 20
217.8154228257387
 30
0.0
 11
268.5560327755569
 21
217.8154228257387
 31
0.0
  0
LINE
  5
630
330
1F
100
AcDbEntity
  8
AM_VIS
100
AcDbLine
 10
289.5560327755569
 20
217.8154228257387
 30
0.0
 11
286.556032775557
 21
214.8154228257387
 31
0.0
  0
LINE
  5
631
330
1F
100
AcDbEntity
  8
AM_VIS
100
AcDbLine
 10
286.556032775557
 20
188.3154228257387
 30
0.0
 11
289.5560327755569
 21
185.3154228257387
 31
0.0
  0
LINE
  5
632
330
1F
100
AcDbEntity
  8
AM_VIS
100
AcDbLine
 10
268.5560327755569
 20
185.3154228257387
 30
0.0
 11
271.556032775557
 21
188.3154228257387
 31
0.0
  0
LINE
  5
633
330
1F
100
AcDbEntity
  8
AM_VIS
100
AcDbLine
 10
271.556032775557
 20
214.8154228257387
 30
0.0
 11
268.5560327755569
 21
217.8154228257387
 31
0.0
  0
LINE
  5
634
330
1F
100
AcDbEntity
  8
AM_VIS
100
AcDbLine
 10
276.9347124319973
 20
190.8154228257387
 30
0.0
 11
271.556032775557
 21
190.8154228257387
 31
0.0
  0
LINE
  5
635
330
1F
100
AcDbEntity
  8
AM_VIS
100
AcDbLine
 10
286.556032775557
 20
190.8154228257387
 30
0.0
 11
281.1773531191166
 21
190.8154228257387
 31
0.0
  0
LINE
  5
636
330
1F
100
AcDbEntity
  8
AM_VIS
100
AcDbLine
 10
286.556032775557
 20
212.3154228257387
 30
0.0
 11
281.1773531191166
 21
212.3154228257387
 31
0.0
  0
LINE
  5
637
330
1F
100
AcDbEntity
  8
AM_VIS
100
AcDbLine
 10
276.9347124319973
 20
212.3154228257387
 30
0.0
 11
271.556032775557
 21
212.3154228257387
 31
0.0
  0
CIRCLE
  5
638
330
1F
100
AcDbEntity
  8
AM_VIS
100
AcDbCircle
 10
236.806032775557
 20
201.5654228257387
 30
0.0
 40
10.75
  0
CIRCLE
  5
639
330
1F
100
AcDbEntity
  8
AM_VIS
100
AcDbCircle
 10
236.806032775557
 20
201.5654228257387
 30
0.0
 40
5.0
  0
LINE
  5
63A
330
1F
100
AcDbEntity
  8
AM_VIS
100
AcDbLine
 10
250.0560327755569
 20
185.3154228257387
 30
0.0
 11
250.0560327755569
 21
217.8154228257387
 31
0.0
  0
LINE
  5
63B
330
1F
100
AcDbEntity
  8
AM_VIS
100
AcDbLine
 10
308.0560327755569
 20
217.8154228257387
 30
0.0
 11
308.0560327755569
 21
185.3154228257387
 31
0.0
  0
LINE
  5
63C
330
1F
100
AcDbEntity
  8
AM_VIS
100
AcDbLine
 10
289.5560327755569
 20
217.8154228257387
 30
0.0
 11
289.5560327755569
 21
185.3154228257387
 31
0.0
  0
LINE
  5
63D
330
1F
100
AcDbEntity
  8
AM_VIS
100
AcDbLine
 10
271.556032775557
 20
194.9510445480772
 30
0.0
 11
271.556032775557
 21
188.3154228257387
 31
0.0
  0
LINE
  5
63E
330
1F
100
AcDbEntity
  8
AM_VIS
100
AcDbLine
 10
268.5560327755569
 20
185.3154228257387
 30
0.0
 11
268.5560327755569
 21
217.8154228257387
 31
0.0
  0
LINE
  5
63F
330
1F
100
AcDbEntity
  8
AM_VIS
100
AcDbLine
 10
271.556032775557
 20
214.8154228257387
 30
0.0
 11
271.556032775557
 21
208.1798011034002
 31
0.0
  0
LINE
  5
640
330
1F
100
AcDbEntity
  8
AM_VIS
100
AcDbLine
 10
286.556032775557
 20
188.3154228257387
 30
0.0
 11
286.556032775557
 21
194.9510445480772
 31
0.0
  0
LINE
  5
641
330
1F
100
AcDbEntity
  8
AM_VIS
100
AcDbLine
 10
286.556032775557
 20
208.1798011034002
 30
0.0
 11
286.556032775557
 21
214.8154228257387
 31
0.0
  0
ARC
  5
642
330
1F
100
AcDbEntity
  8
AM_VIS
100
AcDbCircle
 10
279.0560327755569
 20
201.5654228257387
 30
0.0
 40
10.0
100
AcDbArc
 50
282.9188995547109
 51
77.08110044528905
  0
ARC
  5
643
330
1F
100
AcDbEntity
  8
AM_VIS
100
AcDbCircle
 10
279.0560327755569
 20
201.5654228257387
 30
0.0
 40
10.0
100
AcDbArc
 50
102.9188995547109
 51
257.081100445289
  0
ARC
  5
644
330
1F
100
AcDbEntity
  8
AM_VIS
100
AcDbCircle
 10
279.0560327755569
 20
191.5654228257387
 30
0.0
 40
2.25
100
AcDbArc
 50
173.5405502226442
 51
6.459449777355745
  0
ARC
  5
645
330
1F
100
AcDbEntity
  8
AM_VIS
100
AcDbCircle
 10
279.0560327755569
 20
211.5654228257387
 30
0.0
 40
2.25
100
AcDbArc
 50
353.5405502226443
 51
186.4594497773557
  0
LINE
  5
646
330
1F
100
AcDbEntity
  8
0
100
AcDbLine
 10
148.8095174328487
 20
266.879031803346
 30
0.0
 11
136.5595174328487
 21
266.879031803346
 31
0.0
  0
LINE
  5
647
330
1F
100
AcDbEntity
  8
0
100
AcDbLine
 10
148.8095174328487
 20
266.879031803346
 30
0.0
 11
161.0595174328487
 21
266.879031803346
 31
0.0
  0
LINE
  5
648
330
1F
100
AcDbEntity
  8
0
100
AcDbLine
 10
271.556032775557
 20
271.8980693001409
 30
0.0
 11
268.6168237029246
 21
266.879031803346
 31
0.0
  0
LINE
  5
649
330
1F
100
AcDbEntity
  8
0
100
AcDbLine
 10
286.556032775557
 20
271.9306928954581
 30
0.0
 11
289.056032775557
 21
267.6616553986631
 31
0.0
  0
LINE
  5
64A
330
1F
100
AcDbEntity
  8
0
100
AcDbLine
 10
269.0560327755569
 20
382.8790318033459
 30
0.0
 11
289.056032775557
 21
382.879031803346
 31
0.0
  0
LINE
  5
64B
330
1F
100
AcDbEntity
  8
0
100
AcDbLine
 10
250.0560327755569
 20
266.879031803346
 30
0.0
 11
308.0560327755569
 21
266.879031803346
 31
0.0
  0
CIRCLE
  5
64C
330
1F
100
AcDbEntity
  8
0
100
AcDbCircle
 10
148.8095174328487
 20
282.879031803346
 30
0.0
 40
11.5
  0
CIRCLE
  5
64D
330
1F
100
AcDbEntity
  8
0
100
AcDbCircle
 10
279.0560327755569
 20
208.5654228257387
 30
0.0
 40
2.0
  0
CIRCLE
  5
64E
330
1F
100
AcDbEntity
  8
0
100
AcDbCircle
 10
279.0560327755569
 20
194.6904228257387
 30
0.0
 40
2.0
  0
LINE
  5
64F
330
1F
100
AcDbEntity
  8
AM_7
 62
     1
100
AcDbLine
 10
245.7245599564879
 20
282.879031803346
 30
0.0
 11
309.6139732630539
 21
282.879031803346
 31
0.0
  0
LINE
  5
650
330
1F
100
AcDbEntity
  8
0
100
AcDbLine
 10
165.0595174328487
 20
298.879031803346
 30
0.0
 11
132.5595174328487
 21
298.879031803346
 31
0.0
  0
LINE
  5
651
330
1F
100
AcDbEntity
  8
0
100
AcDbLine
 10
354.6284493081254
 20
298.8816553986632
 30
0.0
 11
387.1284493081254
 21
298.8816553986632
 31
0.0
  0
LINE
  5
652
330
1F
100
AcDbEntity
  8
0
100
AcDbLine
 10
358.6284493081253
 20
266.879031803346
 30
0.0
 11
383.1284493081254
 21
266.879031803346
 31
0.0
  0
LINE
  5
653
330
1F
100
AcDbEntity
  8
AM_7
 62
     1
100
AcDbLine
 10
351.1874693814431
 20
282.879031803346
 30
0.0
 11
391.4965806307952
 21
282.879031803346
 31
0.0
  0
LINE
  5
654
330
1F
100
AcDbEntity
  8
0
100
AcDbLine
 10
295.6283779314873
 20
298.8816553986632
 30
0.0
 11
263.1283779314874
 21
298.879031803346
 31
0.0
  0
MTEXT
  5
655
330
1F
100
AcDbEntity
  8
0
100
AcDbMText
 10
109.2380600559895
 20
250.4712260797962
 30
0.0
 40
5.0
 41
18.32856725465581
 71
     1
 72
     5
  1
{\C5;2-PT3/4}
 73
     1
 44
1.0
1001
GENIUS_AMGTXT_16
1040
5.0
1040
0.175
1001
ACAD
1000
MTEXTBEGIN
1070
    73
1070
     1
1070
    44
1040
1.0
1070
    74
1070
     0
1000
MTEXTEND
  0
TEXT
  5
656
330
1F
100
AcDbEntity
  8
LOGO
 62
     7
100
AcDbText
 10
138.2839148498959
 20
157.335060510284
 30
0.0
 40
2.932908597285067
  1
Order example:
 41
0.8
  7
CHINESET
100
AcDbText
  0
TEXT
  5
657
330
1F
100
AcDbEntity
  8
LOGO
 62
     7
100
AcDbText
 10
138.8101029064163
 20
161.4639885487879
 30
0.0
 40
4.399362895927601
  1
訂購代號：
  7
CHINESET
100
AcDbText
  0
LINE
  5
658
330
1F
100
AcDbEntity
  8
LOGO
 62
     4
100
AcDbLine
 10
421.1165642613178
 20
166.9714906260308
 30
0.0
 11
88.61656426131787
 21
166.9714906260308
 31
0.0
  0
LINE
  5
659
330
1F
100
AcDbEntity
  8
LOGO
 62
     4
100
AcDbLine
 10
137.0095561165215
 20
144.9746761463924
 30
0.0
 11
137.0095561165215
 21
166.9714906260308
 31
0.0
  0
TEXT
  5
65A
330
1F
100
AcDbEntity
  8
LOGO
  6
Continuous
100
AcDbText
 10
96.51791889999806
 20
149.2959171548299
 30
0.0
 40
3.299522171945701
  1
金器工業股份有限公司
  7
CHINESET
100
AcDbText
  0
TEXT
  5
65B
330
1F
100
AcDbEntity
  8
LOGO
  6
Continuous
100
AcDbText
 10
90.45734944840393
 20
145.995748535231
 30
0.0
 40
2.1996814479638
  1
MINDMAN INDUSTRIAL CO., LTD.
 41
0.85
  7
CHINESET
100
AcDbText
  0
LINE
  5
65C
330
1F
100
AcDbEntity
  8
LOGO
 62
     4
100
AcDbLine
 10
137.0095561165215
 20
162.5721277301029
 30
0.0
 11
104.7475615463856
 21
162.5721277301029
 31
0.0
  0
LINE
  5
65D
330
1F
100
AcDbEntity
  8
LOGO
 62
     4
100
AcDbLine
 10
137.0095561165215
 20
158.1727648341755
 30
0.0
 11
104.7475615463856
 21
158.1727648341755
 31
0.0
  0
LINE
  5
65E
330
1F
100
AcDbEntity
  8
LOGO
 62
     4
100
AcDbLine
 10
137.0095561165215
 20
153.7734019382481
 30
0.0
 11
88.61656426131787
 21
153.7734019382481
 31
0.0
  0
LINE
  5
65F
330
1F
100
AcDbEntity
  8
LOGO
 62
     4
100
AcDbLine
 10
104.7475615463856
 20
153.7734019382481
 30
0.0
 11
104.7475615463856
 21
166.9714906260308
 31
0.0
  0
TEXT
  5
660
330
1F
100
AcDbEntity
  8
LOGO
100
AcDbText
 10
126.797112092124
 20
154.8732426622297
 30
0.0
 40
2.1996814479638
  1
mm
  7
CHINESET
 72
     1
 11
129.5205272181744
 21
155.9730833862116
 31
0.0
100
AcDbText
 73
     2
  0
TEXT
  5
661
330
1F
100
AcDbEntity
  8
LOGO
100
AcDbText
 10
125.6448980003334
 20
163.671968454085
 30
0.0
 40
2.1996814479638
  1
1 : 1
  7
CHINESET
 72
     1
 11
129.5205272181744
 21
164.7718091780669
 31
0.0
100
AcDbText
 73
     2
  0
LINE
  5
662
330
1F
100
AcDbEntity
  8
LOGO
 62
     4
100
AcDbLine
 10
122.3450131300961
 20
153.7734019382481
 30
0.0
 11
122.3450131300961
 21
166.9714906260308
 31
0.0
  0
TEXT
  5
663
330
1F
100
AcDbEntity
  8
LOGO
100
AcDbText
 10
106.5613167403093
 20
163.6730509744826
 30
144.1634983360548
 40
2.1996814479638
  1
比例 Scale:
 41
0.9
  7
CHINESET
 72
     4
 11
113.5462873382408
 21
164.7718091780669
 31
144.1634983360548
100
AcDbText
  0
TEXT
  5
664
330
1F
100
AcDbEntity
  8
LOGO
100
AcDbText
 10
106.4346386569221
 20
159.3035475995224
 30
144.1634983360548
 40
2.1996814479638
  1
投影  View:
 41
0.9
  7
CHINESET
 72
     4
 11
113.5462873382408
 21
160.372446282139
 31
144.1634983360548
100
AcDbText
  0
TEXT
  5
665
330
1F
100
AcDbEntity
  8
LOGO
100
AcDbText
 10
106.6496967984865
 20
154.8732426622297
 30
144.1634983360548
 40
2.1996814479638
  1
單位  Unit:
 41
0.9
  7
CHINESET
 72
     4
 11
113.5462873382408
 21
155.9730833862116
 31
144.1634983360548
100
AcDbText
  0
LWPOLYLINE
  5
666
330
1F
100
AcDbEntity
  8
LOGO
 62
     4
100
AcDbPolyline
 90
        4
 70
     1
 43
0.0
 10
88.61656426131782
 20
166.9714906260308
 10
421.1165642613178
 20
166.9714906260308
 10
421.1165642613178
 20
424.9746761463922
 10
88.61656426131782
 20
424.9746761463922
1001
GENIUS_GENREC_14
1002
{
1000
PYDIR
1011
88.61656426131782
1021
424.9746761463922
1031
0.0
1002
}
1002
{
1000
PXDIR
1011
421.1165642613178
1021
166.9714906260308
1031
0.0
1002
}
1002
{
1000
PORI
1011
88.61656426131782
1021
166.9714906260308
1031
0.0
1002
}
1002
{
1000
PINS
1011
88.61656426131782
1021
166.9714906260308
1031
0.0
1002
}
1002
{
1000
PINS2
1011
421.1165642613178
1021
424.9746761463922
1031
0.0
1002
}
1002
{
1000
C
1070
     1
1002
}
1001
GENIUS_GENODEF_13
1002
{
1000
HIER
1070
     0
1002
}
1002
{
1000
MANEDIT
1070
     0
1002
}
1002
{
1000
NOSEL
1070
     0
1002
}
1002
{
1000
BEHIND
1070
     0
1002
}
1002
{
1000
OTHER
1070
     0
1002
}
1002
{
1000
REACTOR
1002
}
1001
GENIUS_GENOBJ-N-REC_13
1002
{
1000
OWNER
1000
GEN
1002
}
  0
SOLID
  5
667
330
1F
100
AcDbEntity
  8
LOGO
 62
     5
100
AcDbTrace
 10
90.89876906578229
 20
157.4300592454886
 30
0.0
 11
91.84985360424064
 21
157.4300592454886
 31
0.0
 12
95.81817185091148
 22
166.4489643515597
 32
0.0
 13
96.76925638937035
 23
166.4489643515592
 33
0.0
  0
SOLID
  5
668
330
1F
100
AcDbEntity
  8
LOGO
 62
     5
100
AcDbTrace
 10
92.24340582705201
 20
157.4300592454886
 30
0.0
 11
93.19449036551032
 21
157.4300592454886
 31
0.0
 12
96.76925638937035
 22
165.7274519430737
 32
0.0
 13
95.81817185091148
 23
162.2401419687263
 33
0.0
  0
SOLID
  5
669
330
1F
100
AcDbEntity
  8
LOGO
 62
     2
100
AcDbTrace
 10
91.84985360424064
 20
157.4300592454886
 30
0.0
 11
92.24340582705201
 21
157.4300592454886
 31
0.0
 12
96.76925638937035
 22
166.4489643515592
 32
0.0
 13
97.16280861218121
 23
166.4489643515592
 33
0.0
  0
SOLID
  5
66A
330
1F
100
AcDbEntity
  8
LOGO
 62
     5
100
AcDbTrace
 10
89.37394731613512
 20
154.1504573887362
 30
0.0
 11
89.70190750181075
 21
154.1504573887362
 31
0.0
 12
90.62546891105318
 22
155.7902583171124
 32
0.0
 13
90.9534290967278
 23
155.7902583171124
 33
0.0
  0
SOLID
  5
66B
330
1F
100
AcDbEntity
  8
LOGO
 62
     5
100
AcDbTrace
 10
90.62546891105318
 20
155.7902583171124
 30
0.0
 11
90.9534290967278
 21
155.7902583171124
 31
0.0
 12
90.62546891105318
 22
154.1504573887362
 32
0.0
 13
90.9534290967278
 23
154.1504573887362
 33
0.0
  0
SOLID
  5
66C
330
1F
100
AcDbEntity
  8
LOGO
 62
     5
100
AcDbTrace
 10
90.62546891105318
 20
154.1504573887362
 30
0.0
 11
90.9534290967278
 21
154.1504573887362
 31
0.0
 12
91.87699050597178
 22
155.7902583171124
 32
0.0
 13
92.20495069164689
 23
155.7902583171124
 33
0.0
  0
SOLID
  5
66D
330
1F
100
AcDbEntity
  8
LOGO
 62
     5
100
AcDbTrace
 10
91.87699050597178
 20
155.7902583171124
 30
0.0
 11
92.20495069164689
 21
155.7902583171124
 31
0.0
 12
91.87699050597178
 22
154.1504573887362
 32
0.0
 13
92.20495069164689
 23
154.1504573887362
 33
0.0
  0
POLYLINE
  5
66E
330
1F
100
AcDbEntity
  8
LOGO
 62
     5
100
AcDb2dPolyline
 66
     1
 10
0.0
 20
0.0
 30
0.0
 40
0.3284857628959275
 41
0.3284857628959275
  0
VERTEX
  5
66F
330
66E
100
AcDbEntity
  8
LOGO
 62
     5
100
AcDbVertex
100
AcDb2dVertex
 10
102.8701042087622
 20
155.1343379457616
 30
0.0
 42
1.0
  0
VERTEX
  5
670
330
66E
100
AcDbEntity
  8
LOGO
 62
     5
100
AcDbVertex
100
AcDb2dVertex
 10
101.8846469200742
 20
155.1343379457616
 30
0.0
 42
1.0
  0
SEQEND
  5
671
330
66E
100
AcDbEntity
  8
LOGO
 62
     5
  0
POLYLINE
  5
672
330
1F
100
AcDbEntity
  8
LOGO
 62
     5
100
AcDb2dPolyline
 66
     1
 10
0.0
 20
0.0
 30
0.0
 70
     1
  0
VERTEX
  5
673
330
672
100
AcDbEntity
  8
LOGO
 62
     5
100
AcDbVertex
100
AcDb2dVertex
 10
100.027016097757
 20
154.9703578529241
 30
0.0
 42
1.000000057330635
  0
VERTEX
  5
674
330
672
100
AcDbEntity
  8
LOGO
 62
     5
100
AcDbVertex
100
AcDb2dVertex
 10
101.0108966547829
 20
154.9703578529241
 30
0.0
 42
1.000000057330635
  0
SEQEND
  5
675
330
672
100
AcDbEntity
  8
LOGO
 62
     5
  0
CIRCLE
  5
676
330
1F
100
AcDbEntity
  8
LOGO
 62
     5
100
AcDbCircle
 10
100.5189563762707
 20
154.9703578529241
 30
0.0
 40
0.4919402785129413
  0
POLYLINE
  5
677
330
1F
100
AcDbEntity
  8
LOGO
 62
     5
100
AcDb2dPolyline
 66
     1
 10
0.0
 20
0.0
 30
0.0
 70
     1
 40
0.3284857628959275
 41
0.3284857628959275
  0
VERTEX
  5
678
330
677
100
AcDbEntity
  8
LOGO
 62
     5
100
AcDbVertex
100
AcDb2dVertex
 10
99.86198485047834
 20
154.9703578529241
 30
0.0
 42
1.0
  0
VERTEX
  5
679
330
677
100
AcDbEntity
  8
LOGO
 62
     5
100
AcDbVertex
100
AcDb2dVertex
 10
101.175927902062
 20
154.9703578529241
 30
0.0
 42
1.0
  0
SEQEND
  5
67A
330
677
100
AcDbEntity
  8
LOGO
 62
     5
  0
LINE
  5
67B
330
1F
100
AcDbEntity
  8
LOGO
100
AcDbLine
 10
103.0332959357682
 20
154.1504573887362
 30
0.0
 11
103.0332959357682
 21
155.1343379457616
 31
0.0
  0
SOLID
  5
67C
330
1F
100
AcDbEntity
  8
LOGO
 62
     5
100
AcDbTrace
 10
101.0108638587658
 20
155.7902583171124
 30
0.0
 11
101.3388240444404
 21
155.7902583171124
 31
0.0
 12
101.0108638587658
 22
154.1504573887362
 32
0.0
 13
101.3388240444404
 23
154.1504573887362
 33
0.0
  0
SOLID
  5
67D
330
1F
100
AcDbEntity
  8
LOGO
 62
     5
100
AcDbTrace
 10
101.7214551930671
 20
154.1504573887362
 30
0.0
 11
102.0494153787428
 21
154.1504573887362
 31
0.0
 12
101.7214551930671
 22
155.7902583171124
 32
0.0
 13
102.0494153787428
 23
155.7902583171124
 33
0.0
  0
SOLID
  5
67E
330
1F
100
AcDbEntity
  8
LOGO
 62
     5
100
AcDbTrace
 10
102.7053357500935
 20
155.1343379457616
 30
0.0
 11
103.0332959357682
 21
155.1343379457616
 31
0.0
 12
102.7053357500935
 22
154.1504573887362
 32
0.0
 13
103.0332959357682
 23
154.1504573887362
 33
0.0
  0
SOLID
  5
67F
330
1F
100
AcDbEntity
  8
LOGO
 62
     5
100
AcDbTrace
 10
101.6886591744995
 20
165.7274519430737
 30
0.0
 11
100.7375746360417
 21
162.2401419687263
 31
0.0
 12
101.6886591744995
 22
157.4300592454886
 32
0.0
 13
100.7375746360417
 23
157.4300592454886
 33
0.0
  0
SOLID
  5
680
330
1F
100
AcDbEntity
  8
LOGO
 62
     5
100
AcDbTrace
 10
102.0822113973104
 20
157.4300592454886
 30
0.0
 11
103.0332959357682
 21
157.4300592454886
 31
0.0
 12
102.0822113973104
 22
166.4489643515592
 32
0.0
 13
103.0332959357682
 23
166.4489643515597
 33
0.0
  0
SOLID
  5
681
330
1F
100
AcDbEntity
  8
LOGO
 62
     2
100
AcDbTrace
 10
101.6886591744995
 20
166.4489643515597
 30
0.0
 11
102.0822113973104
 21
166.4489643515592
 31
0.0
 12
101.6886591744995
 22
157.4300592454886
 32
0.0
 13
102.0822113973104
 23
157.4300592454886
 33
0.0
  0
POLYLINE
  5
682
330
1F
100
AcDbEntity
  8
LOGO
 62
     5
100
AcDb2dPolyline
 66
     1
 10
0.0
 20
0.0
 30
0.0
 40
0.3284857628959275
 41
0.3284857628959275
  0
VERTEX
  5
683
330
682
100
AcDbEntity
  8
LOGO
 62
     5
100
AcDbVertex
100
AcDb2dVertex
 10
98.16931968340401
 20
155.1343379457616
 30
0.0
 42
1.0
  0
VERTEX
  5
684
330
682
100
AcDbEntity
  8
LOGO
 62
     5
100
AcDbVertex
100
AcDb2dVertex
 10
97.18386239471602
 20
155.1343379457616
 30
0.0
 42
1.0
  0
SEQEND
  5
685
330
682
100
AcDbEntity
  8
LOGO
 62
     5
  0
POLYLINE
  5
686
330
1F
100
AcDbEntity
  8
LOGO
 62
     5
100
AcDb2dPolyline
 66
     1
 10
0.0
 20
0.0
 30
0.0
 40
0.3284857628959275
 41
0.3284857628959275
  0
VERTEX
  5
687
330
686
100
AcDbEntity
  8
LOGO
 62
     5
100
AcDbVertex
100
AcDb2dVertex
 10
99.15320024042893
 20
155.1343379457616
 30
0.0
 42
1.0
  0
VERTEX
  5
688
330
686
100
AcDbEntity
  8
LOGO
 62
     5
100
AcDbVertex
100
AcDb2dVertex
 10
98.16774295174145
 20
155.1343379457616
 30
0.0
 42
1.0
  0
SEQEND
  5
689
330
686
100
AcDbEntity
  8
LOGO
 62
     5
  0
POLYLINE
  5
68A
330
1F
100
AcDbEntity
  8
LOGO
 62
     5
100
AcDb2dPolyline
 66
     1
 10
0.0
 20
0.0
 30
0.0
 40
0.3284857628959275
 41
0.3284857628959275
  0
VERTEX
  5
68B
330
68A
100
AcDbEntity
  8
LOGO
 62
     5
100
AcDbVertex
100
AcDb2dVertex
 10
94.4524157150708
 20
155.1343379457616
 30
0.0
 42
1.0
  0
VERTEX
  5
68C
330
68A
100
AcDbEntity
  8
LOGO
 62
     5
100
AcDbVertex
100
AcDb2dVertex
 10
93.46695842638331
 20
155.1343379457616
 30
0.0
 42
1.0
  0
SEQEND
  5
68D
330
68A
100
AcDbEntity
  8
LOGO
 62
     5
  0
SOLID
  5
68E
330
1F
100
AcDbEntity
  8
LOGO
 62
     5
100
AcDbTrace
 10
93.30376669937676
 20
155.7902583171124
 30
0.0
 11
93.63172688505136
 21
155.7902583171124
 31
0.0
 12
93.30376669937676
 22
154.1504573887362
 32
0.0
 13
93.63172688505136
 23
154.1504573887362
 33
0.0
  0
SOLID
  5
68F
330
1F
100
AcDbEntity
  8
LOGO
 62
     5
100
AcDbTrace
 10
94.28764725640268
 20
155.1343379457616
 30
0.0
 11
94.61560744207833
 21
155.1343379457616
 31
0.0
 12
94.28764725640268
 22
154.1504573887362
 32
0.0
 13
94.61560744207833
 23
154.1504573887362
 33
0.0
  0
POLYLINE
  5
690
330
1F
100
AcDbEntity
  8
LOGO
 62
     5
100
AcDb2dPolyline
 66
     1
 10
0.0
 20
0.0
 30
0.0
 70
     1
 40
0.3284857628959275
 41
0.3284857628959275
  0
VERTEX
  5
691
330
690
100
AcDbEntity
  8
LOGO
 62
     5
100
AcDbVertex
100
AcDb2dVertex
 10
95.16120032511969
 20
154.9703578529241
 30
0.0
 42
1.0
  0
VERTEX
  5
692
330
690
100
AcDbEntity
  8
LOGO
 62
     5
100
AcDbVertex
100
AcDb2dVertex
 10
96.47514337670385
 20
154.9703578529241
 30
0.0
 42
1.0
  0
SEQEND
  5
693
330
690
100
AcDbEntity
  8
LOGO
 62
     5
  0
SOLID
  5
694
330
1F
100
AcDbEntity
  8
LOGO
 62
     5
100
AcDbTrace
 10
96.31007933340663
 20
156.2821985956256
 30
0.0
 11
96.63803951908176
 21
156.2821985956256
 31
0.0
 12
96.31007933340663
 22
154.1504573887362
 32
0.0
 13
96.63803951908176
 23
154.1504573887362
 33
0.0
  0
SOLID
  5
695
330
1F
100
AcDbEntity
  8
LOGO
 62
     5
100
AcDbTrace
 10
97.02067066770997
 20
155.7902583171124
 30
0.0
 11
97.34863085338464
 21
155.7902583171124
 31
0.0
 12
97.02067066770997
 22
154.1504573887362
 32
0.0
 13
97.34863085338464
 23
154.1504573887362
 33
0.0
  0
SOLID
  5
696
330
1F
100
AcDbEntity
  8
LOGO
 62
     5
100
AcDbTrace
 10
98.00455122473493
 20
155.1343379457616
 30
0.0
 11
98.33251141041058
 21
155.1343379457616
 31
0.0
 12
98.00455122473493
 22
154.1504573887362
 32
0.0
 13
98.33251141041058
 23
154.1504573887362
 33
0.0
  0
SOLID
  5
697
330
1F
100
AcDbEntity
  8
LOGO
 62
     5
100
AcDbTrace
 10
98.98843178176088
 20
155.1343379457616
 30
0.0
 11
99.31639196743601
 21
155.1343379457616
 31
0.0
 12
98.98843178176088
 22
154.1504573887357
 32
0.0
 13
99.31639196743601
 23
154.1504573887357
 33
0.0
  0
SOLID
  5
698
330
1F
100
AcDbEntity
  8
LOGO
 62
     5
100
AcDbTrace
 10
92.59317536507387
 20
156.0198304470852
 30
0.0
 11
92.92113555075003
 21
156.0198304470852
 31
0.0
 12
92.59317536507387
 22
156.2821985956256
 32
0.0
 13
92.92113555075003
 23
156.2821985956256
 33
0.0
  0
SOLID
  5
699
330
1F
100
AcDbEntity
  8
LOGO
 62
     5
100
AcDbTrace
 10
92.59317536507387
 20
155.7902583171124
 30
0.0
 11
92.92113555075003
 21
155.7902583171124
 31
0.0
 12
92.59317536507387
 22
154.1504573887357
 32
0.0
 13
92.92113555075003
 23
154.1504573887362
 33
0.0
  0
SOLID
  5
69A
330
1F
100
AcDbEntity
  8
LOGO
 62
     5
100
AcDbTrace
 10
95.81817185091148
 20
157.4300592454886
 30
0.0
 11
96.76925638937035
 21
157.4300592454886
 31
0.0
 12
95.81817185091148
 22
162.2401419687263
 32
0.0
 13
96.76925638937035
 23
165.7274519430737
 33
0.0
  0
SOLID
  5
69B
330
1F
100
AcDbEntity
  8
LOGO
 62
     5
100
AcDbTrace
 10
97.16280861218121
 20
166.4489643515592
 30
0.0
 11
98.11389315063905
 21
166.4489643515597
 31
0.0
 12
97.16280861218121
 22
158.1515716539742
 32
0.0
 13
98.11389315063905
 23
161.6388816283216
 33
0.0
  0
SOLID
  5
69C
330
1F
100
AcDbEntity
  8
LOGO
 62
     2
100
AcDbTrace
 10
96.76925638937035
 20
166.4489643515592
 30
0.0
 11
97.16280861218121
 21
166.4489643515592
 31
0.0
 12
96.76925638937035
 22
157.4300592454886
 32
0.0
 13
97.16280861218121
 23
157.4300592454886
 33
0.0
  0
SOLID
  5
69D
330
1F
100
AcDbEntity
  8
LOGO
 62
     5
100
AcDbTrace
 10
97.16280861218121
 20
158.1515716539742
 30
0.0
 11
98.11389315063905
 21
161.6388816283216
 31
0.0
 12
101.6886591744995
 22
166.4489643515597
 32
0.0
 13
100.7375746360417
 23
166.4489643515597
 33
0.0
  0
SOLID
  5
69E
330
1F
100
AcDbEntity
  8
LOGO
 62
     5
100
AcDbTrace
 10
97.16280861218121
 20
157.4300592454886
 30
0.0
 11
98.11389315063905
 21
157.4300592454886
 31
0.0
 12
101.6886591744995
 22
165.7274519430737
 32
0.0
 13
100.7375746360417
 23
162.2401419687263
 33
0.0
  0
SOLID
  5
69F
330
1F
100
AcDbEntity
  8
LOGO
 62
     2
100
AcDbTrace
 10
96.76925638937035
 20
157.4300592454886
 30
0.0
 11
97.16280861218121
 21
157.4300592454886
 31
0.0
 12
101.6886591744995
 22
166.4489643515597
 32
0.0
 13
102.0822113973104
 23
166.4489643515592
 33
0.0
  0
LWPOLYLINE
  5
6A0
330
1F
100
AcDbEntity
  8
LOGO
 62
     4
100
AcDbPolyline
 90
        4
 70
     1
 43
0.0
 10
88.61656426131782
 20
166.9714906260308
 10
421.1165642613178
 20
166.9714906260308
 10
421.1165642613178
 20
144.9746761463924
 10
88.61656426131782
 20
144.9746761463924
1001
GENIUS_GENREC_14
1002
{
1000
PYDIR
1011
88.61656426131782
1021
144.9746761463924
1031
0.0
1002
}
1002
{
1000
PXDIR
1011
421.1165642613178
1021
166.9714906260308
1031
0.0
1002
}
1002
{
1000
PORI
1011
88.61656426131782
1021
166.9714906260308
1031
0.0
1002
}
1002
{
1000
PINS
1011
88.61656426131782
1021
166.9714906260308
1031
0.0
1002
}
1002
{
1000
PINS2
1011
421.1165642613178
1021
144.9746761463924
1031
0.0
1002
}
1002
{
1000
C
1070
     1
1002
}
1001
GENIUS_GENOBJ-N-REC_13
1002
{
1000
OWNER
1000
GEN
1002
}
1001
GENIUS_GENODEF_13
1002
{
1000
HIER
1070
     0
1002
}
1002
{
1000
MANEDIT
1070
     0
1002
}
1002
{
1000
NOSEL
1070
     0
1002
}
1002
{
1000
BEHIND
1070
     0
1002
}
1002
{
1000
OTHER
1070
     0
1002
}
1002
{
1000
REACTOR
1002
}
  0
TEXT
  5
6A1
330
1F
100
AcDbEntity
  8
LOGO
100
AcDbText
 10
138.2120786002163
 20
146.1448979947059
 30
0.0
 40
2.2
  1
10603201
 41
0.7
  7
CHINESET
 72
     1
 11
143.3820786002163
 21
146.1448979947059
 31
0.0
100
AcDbText
  0
LINE
  5
6A2
330
1F
100
AcDbEntity
  8
LOGO
 62
     4
100
AcDbLine
 10
150.2095561165205
 20
149.3740390423208
 30
0.0
 11
150.2095561165215
 21
144.9746761463929
 31
0.0
  0
LINE
  5
6A3
330
1F
100
AcDbEntity
  8
LOGO
 62
     4
100
AcDbLine
 10
150.2095561165205
 20
149.3740390423208
 30
0.0
 11
137.0095561165215
 21
149.3740390423208
 31
0.0
  0
CIRCLE
  5
6A4
330
1F
100
AcDbEntity
  8
LOGO
  6
Continuous
100
AcDbCircle
 10
126.4179984628072
 20
160.3771514168535
 30
0.0
 40
1.277186823352694
  0
CIRCLE
  5
6A5
330
1F
100
AcDbEntity
  8
LOGO
  6
Continuous
100
AcDbCircle
 10
126.4179984628072
 20
160.3771514168535
 30
0.0
 40
0.748318415532157
  0
LINE
  5
6A6
330
1F
100
AcDbEntity
  8
LOGO
100
AcDbLine
 10
134.4439886592474
 20
159.0999645935005
 30
0.0
 11
134.4439886592474
 21
161.6543382402064
 31
0.0
  0
LINE
  5
6A7
330
1F
100
AcDbEntity
  8
LOGO
100
AcDbLine
 10
130.4400812820587
 20
159.6288330013212
 30
0.0
 11
130.4400812820587
 21
161.1254698323858
 31
0.0
  0
LINE
  5
6A8
330
1F
100
AcDbEntity
  8
LOGO
  6
Continuous
100
AcDbLine
 10
130.4400812820587
 20
161.1254698323858
 30
0.0
 11
134.4439886592474
 21
161.6543382402064
 31
0.0
  0
LINE
  5
6A9
330
1F
100
AcDbEntity
  8
LOGO
  6
Continuous
100
AcDbLine
 10
130.4400812820587
 20
159.6288330013212
 30
0.0
 11
134.4439886592474
 21
159.0999645935005
 31
0.0
  0
LINE
  5
6AA
330
1F
100
AcDbEntity
  8
LOGO
  6
AM_ISO08W050x2
 48
0.3
100
AcDbLine
 10
124.6573773024488
 20
160.3771514168535
 30
0.0
 11
128.1786196231657
 21
160.3771514168535
 31
0.0
1001
GENIUS_GENOREF_13
1005
6D0
  0
LINE
  5
6AB
330
1F
100
AcDbEntity
  8
LOGO
  6
AM_ISO08W050x2
 48
0.3
100
AcDbLine
 10
126.4179984628072
 20
158.6165302564951
 30
0.0
 11
126.4179984628072
 21
162.1377725772119
 31
0.0
1001
GENIUS_GENOREF_13
1005
6CF
  0
LINE
  5
6AC
330
1F
100
AcDbEntity
  8
LOGO
  6
CENTER
 48
0.5
100
AcDbLine
 10
130.1198799799685
 20
160.3771514168535
 30
0.0
 11
134.8471691708138
 21
160.3771514168535
 31
0.0
1001
GENIUS_GENOREF_13
1005
6CE
  0
LINE
  5
6AD
330
1F
100
AcDbEntity
  8
LOGO
 62
     4
100
AcDbLine
 10
183.4869876000274
 20
154.8732426622304
 30
0.0
 11
183.4869876000274
 21
146.807744019696
 31
0.0
  0
LINE
  5
6AE
330
1F
100
AcDbEntity
  8
LOGO
 62
     4
100
AcDbLine
 10
168.822444613602
 20
154.8732426622304
 30
0.0
 11
168.822444613602
 21
146.807744019696
 31
0.0
  0
LINE
  5
6AF
330
1F
100
AcDbEntity
  8
LOGO
 62
     4
100
AcDbLine
 10
183.4869876000274
 20
146.807744019696
 30
0.0
 11
168.822444613602
 21
146.807744019696
 31
0.0
  0
LINE
  5
6B0
330
1F
100
AcDbEntity
  8
LOGO
 62
     4
100
AcDbLine
 10
184.7392021418293
 20
164.7718091780669
 30
0.0
 11
167.2651981650766
 21
164.7718091780669
 31
0.0
  0
LINE
  5
6B1
330
1F
100
AcDbEntity
  8
LOGO
 62
     4
100
AcDbLine
 10
184.7392021418293
 20
158.1727648341758
 30
0.0
 11
167.2651981650766
 21
158.1727648341758
 31
0.0
  0
LINE
  5
6B2
330
1F
100
AcDbEntity
  8
LOGO
 62
     4
100
AcDbLine
 10
167.2651981650766
 20
164.7718091780669
 30
0.0
 11
167.2651981650766
 21
158.1727648341758
 31
0.0
  0
LINE
  5
6B3
330
1F
100
AcDbEntity
  8
LOGO
 62
     4
100
AcDbLine
 10
184.7392021418293
 20
164.7718091780669
 30
0.0
 11
184.7392021418293
 21
158.1727648341758
 31
0.0
  0
LINE
  5
6B4
330
1F
100
AcDbEntity
  8
LOGO
 62
     4
100
AcDbLine
 10
175.3625904743494
 20
158.1727648341758
 30
0.0
 11
175.3625904743494
 21
154.8732426622304
 31
0.0
  0
LINE
  5
6B5
330
1F
100
AcDbEntity
  8
LOGO
 62
     4
100
AcDbLine
 10
183.4869876000274
 20
154.8732426622304
 30
0.0
 11
168.822444613602
 21
154.8732426622304
 31
0.0
  0
TEXT
  5
6B6
330
1F
100
AcDbEntity
  8
LOGO
  6
Continuous
100
AcDbText
 10
173.731368680437
 20
147.9461720498025
 30
144.1634983360548
 40
1.649999999999999
  1
Model
 41
0.8
  7
CHINESET
100
AcDbText
  0
TEXT
  5
6B7
330
1F
100
AcDbEntity
  8
LOGO
100
AcDbText
 10
173.2921923186379
 20
151.0049164494226
 30
144.1634983360548
 40
2.75
  1
型號
  7
CHINESET
100
AcDbText
  0
LINE
  5
6B8
330
1F
100
AcDbEntity
  8
LOGO
  6
Continuous
 62
     7
100
AcDbLine
 10
185.4407350959356
 20
161.44891214816
 30
0.0
 11
188.3546322897691
 21
161.44891214816
 31
0.0
  0
LINE
  5
6B9
330
1F
100
AcDbEntity
  8
LOGO
 62
     4
100
AcDbLine
 10
187.4693398903311
 20
154.8732426622304
 30
0.0
 11
187.4693398903311
 21
146.807744019696
 31
0.0
  0
LINE
  5
6BA
330
1F
100
AcDbEntity
  8
LOGO
 62
     4
100
AcDbLine
 10
199.9242583173
 20
146.807744019696
 30
0.0
 11
187.4693398903311
 21
146.807744019696
 31
0.0
  0
LINE
  5
6BB
330
1F
100
AcDbEntity
  8
LOGO
 62
     4
100
AcDbLine
 10
197.7718125250167
 20
164.7718091780669
 30
0.0
 11
189.273813253736
 21
164.7718091780669
 31
0.0
  0
LINE
  5
6BC
330
1F
100
AcDbEntity
  8
LOGO
 62
     4
100
AcDbLine
 10
197.7718125250167
 20
158.1727648341758
 30
0.0
 11
189.273813253736
 21
158.1727648341758
 31
0.0
  0
LINE
  5
6BD
330
1F
100
AcDbEntity
  8
LOGO
 62
     4
100
AcDbLine
 10
189.273813253736
 20
164.7718091780669
 30
0.0
 11
189.273813253736
 21
158.1727648341758
 31
0.0
  0
LINE
  5
6BE
330
1F
100
AcDbEntity
  8
LOGO
 62
     4
100
AcDbLine
 10
197.7718125250167
 20
164.7718091780669
 30
0.0
 11
197.7718125250167
 21
158.1727648341758
 31
0.0
  0
LINE
  5
6BF
330
1F
100
AcDbEntity
  8
LOGO
 62
     4
100
AcDbLine
 10
193.5228128893761
 20
158.1727648341758
 30
0.0
 11
193.5228128893761
 21
154.8732426622304
 31
0.0
  0
LINE
  5
6C0
330
1F
100
AcDbEntity
  8
LOGO
 62
     4
100
AcDbLine
 10
199.9242583173
 20
154.8732426622304
 30
0.0
 11
187.4693398903311
 21
154.8732426622304
 31
0.0
  0
TEXT
  5
6C1
330
1F
100
AcDbEntity
  8
LOGO
  6
Continuous
100
AcDbText
 10
188.6841592748855
 20
148.0138574715331
 30
144.1634983360548
 40
1.649999999999999
  1
CODE
 41
0.8
  7
CHINESET
100
AcDbText
  0
TEXT
  5
6C2
330
1F
100
AcDbEntity
  8
LOGO
100
AcDbText
 10
188.6686157034107
 20
151.0726018711532
 30
144.1634983360548
 40
2.75
  1
記號
  7
CHINESET
100
AcDbText
  0
TEXT
  5
6C3
330
1F
100
AcDbEntity
  8
LOGO
100
AcDbText
 10
171.5318272203849
 20
160.4349546136096
 30
144.1634983360548
 40
2.75
  1
MCT
  7
CHINESET
100
AcDbText
  0
TEXT
  5
6C4
330
1F
100
AcDbEntity
  8
LOGO
100
AcDbText
 10
191.5767782021213
 20
160.4349546136096
 30
144.1634983360548
 40
2.75
  1
20
  7
CHINESET
100
AcDbText
  0
LINE
  5
6C5
330
1F
100
AcDbEntity
  8
LOGO
 62
     4
100
AcDbLine
 10
199.9242583173
 20
154.8732426622304
 30
0.0
 11
199.9242583173
 21
146.807744019696
 31
0.0
  0
DIMENSION
  5
6C6
330
1F
100
AcDbEntity
  8
0
100
AcDbDimension
  2
*D11
 10
326.0206491021481
 20
194.5654228257387
 30
0.0
 11
323.520649102148
 21
201.5654228257388
 31
0.0
 70
    32
 71
     5
 42
14.0
  3
STANDARD
100
AcDbAlignedDimension
 13
282.5500374153417
 23
208.5654228257387
 33
0.0
 14
283.2296722653112
 24
194.5654228257387
 34
0.0
 50
90.0
100
AcDbRotatedDimension
1001
ACAD
1000
DSTYLE
1002
{
1070
   177
1070
     5
1070
   176
1070
     5
1070
   178
1070
     5
1070
   272
1070
     8
1002
}
  0
DIMENSION
  5
6C7
330
1F
100
AcDbEntity
  8
0
100
AcDbDimension
  2
*D12
 10
338.1101496404266
 20
185.3154228257387
 30
0.0
 11
335.6101496404266
 21
201.5654228257388
 31
0.0
 70
    32
 71
     5
 42
32.5
  3
STANDARD
100
AcDbAlignedDimension
 13
308.0560327755569
 23
217.8154228257387
 33
0.0
 14
308.0560327755569
 24
185.3154228257387
 34
0.0
 50
90.0
100
AcDbRotatedDimension
1001
ACAD
1000
DSTYLE
1002
{
1070
   176
1070
     5
1070
   177
1070
     5
1070
   178
1070
     5
1070
   272
1070
     8
1002
}
  0
DIMENSION
  5
6C8
330
1F
100
AcDbEntity
  8
0
100
AcDbDimension
  2
*D13
 10
308.0560327755569
 20
226.7179559778266
 30
0.0
 11
267.056032775557
 21
229.2179559778266
 31
0.0
 70
    32
 71
     5
 42
82.0
  3
STANDARD
100
AcDbAlignedDimension
 13
226.056032775557
 23
214.3654228257387
 33
0.0
 14
308.0560327755569
 24
217.8154228257387
 34
0.0
100
AcDbRotatedDimension
1001
ACAD
1000
DSTYLE
1002
{
1070
   176
1070
     5
1070
   177
1070
     5
1070
   178
1070
     5
1070
   272
1070
     8
1002
}
  0
DIMENSION
  5
6C9
330
1F
100
AcDbEntity
  8
0
100
AcDbDimension
  2
*D14
 10
279.0560327755569
 20
398.0625205608638
 30
0.0
 11
252.556032775557
 21
400.5625205608638
 31
0.0
 70
    32
 71
     5
 42
53.0
  3
STANDARD
100
AcDbAlignedDimension
 13
226.056032775557
 23
356.979031803346
 33
0.0
 14
279.0560327755569
 24
385.2670430435687
 34
0.0
100
AcDbRotatedDimension
1001
ACAD
1000
DSTYLE
1002
{
1070
   176
1070
     5
1070
   177
1070
     5
1070
   178
1070
     5
1070
   272
1070
     8
1002
}
  0
DIMENSION
  5
6CA
330
1F
100
AcDbEntity
  8
0
100
AcDbDimension
  2
*D15
 10
111.2780610039435
 20
266.879031803346
 30
0.0
 11
108.7780610039434
 21
324.879031803346
 31
0.0
 70
    32
 71
     5
 42
115.9999999999999
  3
STANDARD
100
AcDbAlignedDimension
 13
138.8095174328487
 23
382.8790318033459
 33
0.0
 14
136.5595174328487
 24
266.879031803346
 34
0.0
 50
90.0
100
AcDbRotatedDimension
1001
ACAD
1000
DSTYLE
1002
{
1070
   176
1070
     5
1070
   177
1070
     5
1070
   178
1070
     5
1070
   272
1070
     8
1002
}
  0
DIMENSION
  5
6CB
330
1F
100
AcDbEntity
  8
0
100
AcDbDimension
  2
*D16
 10
308.0560327755569
 20
253.6600048689481
 30
0.0
 11
279.0560327755569
 21
256.1600048689481
 31
0.0
 70
    32
 71
     5
 42
58.0
  3
STANDARD
100
AcDbAlignedDimension
 13
250.0560327755569
 23
266.879031803346
 33
0.0
 14
308.0560327755569
 24
266.879031803346
 34
0.0
100
AcDbRotatedDimension
1001
ACAD
1000
DSTYLE
1002
{
1070
   176
1070
     5
1070
   177
1070
     5
1070
   178
1070
     5
1070
   272
1070
     8
1002
}
  0
DIMENSION
  5
6CC
330
1F
100
AcDbEntity
  8
0
100
AcDbDimension
  2
*D17
 10
331.0476050441677
 20
282.879031803346
 30
0.0
 11
328.5476050441677
 21
274.879031803346
 31
0.0
 70
    32
 71
     5
 42
16.0
  3
STANDARD
100
AcDbAlignedDimension
 13
308.0560327755569
 23
266.879031803346
 33
0.0
 14
309.6139732630539
 24
282.879031803346
 34
0.0
 50
90.0
100
AcDbRotatedDimension
1001
ACAD
1000
DSTYLE
1002
{
1070
   176
1070
     5
1070
   177
1070
     5
1070
   178
1070
     5
1070
   272
1070
     8
1002
}
  0
LEADER
  5
6CD
330
1F
100
AcDbEntity
  8
0
100
AcDbLeader
  3
STANDARD
 76
     3
 10
148.8095174328487
 20
271.379031803346
 30
0.0
 10
136.8612577248056
 20
243.917206409291
 30
0.0
 10
106.5121206907251
 20
243.917206409291
 30
0.0
1001
ACAD
1000
DSTYLE
1002
{
1070
   176
1070
     5
1070
   177
1070
     5
1070
   178
1070
     5
1070
   272
1070
     8
1002
}
  0
POINT
  5
6CE
330
1F
100
AcDbEntity
  8
0
 60
     1
100
AcDbPoint
 10
-2395.699694537599
 20
-673.8283444224918
 30
0.0
1001
GENIUS_GENOBJ-N-CRS_13
1002
{
1000
OWNER
1000
GEN
1002
}
1001
GENIUS_GENOLIS_13
1002
{
1000
ENT
1005
0
1005
0
1005
0
1005
6AC
1002
}
1001
GENIUS_GENOENT_13
1002
{
1000
MYREF
1005
6CE
1002
}
1002
{
1000
GRP
1005
0
1002
}
1001
GENIUS_GENODEF_13
1002
{
1000
HIER
1070
    10
1002
}
1002
{
1000
MANEDIT
1070
     1
1002
}
1002
{
1000
NOSEL
1070
     0
1002
}
1002
{
1000
BEHIND
1070
     0
1002
}
1002
{
1000
OTHER
1070
     0
1002
}
1002
{
1000
REACTOR
1002
}
  0
POINT
  5
6CF
330
1F
100
AcDbEntity
  8
0
 60
     1
100
AcDbPoint
 10
-2407.024279760453
 20
-664.9527579438555
 30
0.0
1001
GENIUS_GENOBJ-N-CRS_13
1002
{
1000
OWNER
1000
GEN
1002
}
1001
GENIUS_GENOLIS_13
1002
{
1000
ENT
1005
0
1005
0
1005
0
1005
6AB
1002
}
1001
GENIUS_GENOENT_13
1002
{
1000
MYREF
1005
6CF
1002
}
1002
{
1000
GRP
1005
0
1002
}
1001
GENIUS_GENODEF_13
1002
{
1000
HIER
1070
    10
1002
}
1002
{
1000
MANEDIT
1070
     1
1002
}
1002
{
1000
NOSEL
1070
     0
1002
}
1002
{
1000
BEHIND
1070
     0
1002
}
1002
{
1000
OTHER
1070
     0
1002
}
1002
{
1000
REACTOR
1002
}
  0
POINT
  5
6D0
330
1F
100
AcDbEntity
  8
0
 60
     1
100
AcDbPoint
 10
-2400.665606062617
 20
-673.8283444224918
 30
0.0
1001
GENIUS_GENOBJ-N-CRS_13
1002
{
1000
OWNER
1000
GEN
1002
}
1001
GENIUS_GENOLIS_13
1002
{
1000
ENT
1005
0
1005
0
1005
0
1005
6AA
1002
}
1001
GENIUS_GENOENT_13
1002
{
1000
MYREF
1005
6D0
1002
}
1002
{
1000
GRP
1005
0
1002
}
1001
GENIUS_GENODEF_13
1002
{
1000
HIER
1070
    10
1002
}
1002
{
1000
MANEDIT
1070
     1
1002
}
1002
{
1000
NOSEL
1070
     0
1002
}
1002
{
1000
BEHIND
1070
     0
1002
}
1002
{
1000
OTHER
1070
     0
1002
}
1002
{
1000
REACTOR
1002
}
  0
ENDSEC
  0
SECTION
  2
OBJECTS
  0
DICTIONARY
  5
C
330
0
100
AcDbDictionary
281
     1
  3
ACAD_COLOR
350
BE
  3
ACAD_GROUP
350
D
  3
ACAD_LAYOUT
350
1A
  3
ACAD_MATERIAL
350
BD
  3
ACAD_MLINESTYLE
350
17
  3
ACAD_PLOTSETTINGS
350
19
  3
ACAD_PLOTSTYLENAME
350
E
  3
ACAD_TABLESTYLE
350
11A
  3
ACDBHEADERROUNDTRIPXREC
350
7A5
  3
AcDbVariableDictionary
350
94
  3
AcmDictionary
350
5B
  3
AMG
350
41
  3
AMGSNAPSETTINGS
350
1B8
  3
DWGPROPS
350
7A4
  0
DICTIONARY
  5
3C6
330
2
100
AcDbDictionary
280
     1
281
     1
  3
ACAD_LAYERSTATES
360
3C7
  0
DICTIONARY
  5
8F
330
1F
100
AcDbDictionary
280
     1
281
     1
  0
DICTIONARY
  5
BE
102
{ACAD_REACTORS
330
C
102
}
330
C
100
AcDbDictionary
281
     1
  0
DICTIONARY
  5
D
102
{ACAD_REACTORS
330
C
102
}
330
C
100
AcDbDictionary
281
     1
  0
DICTIONARY
  5
1A
102
{ACAD_REACTORS
330
C
102
}
330
C
100
AcDbDictionary
281
     1
  3
Model
350
22
  3
配置1
350
1E
  3
配置2
350
26
  0
DICTIONARY
  5
BD
102
{ACAD_REACTORS
330
C
102
}
330
C
100
AcDbDictionary
281
     1
  0
DICTIONARY
  5
17
102
{ACAD_REACTORS
330
C
102
}
330
C
100
AcDbDictionary
281
     1
  3
Standard
350
18
  0
DICTIONARY
  5
19
102
{ACAD_REACTORS
330
C
102
}
330
C
100
AcDbDictionary
281
     1
  0
ACDBDICTIONARYWDFLT
  5
E
102
{ACAD_REACTORS
330
C
102
}
330
C
100
AcDbDictionary
281
     1
  3
Normal
350
F
100
AcDbDictionaryWithDefault
340
F
  0
DICTIONARY
  5
11A
102
{ACAD_REACTORS
330
C
102
}
330
C
100
AcDbDictionary
281
     1
  3
Standard
350
11B
  0
DICTIONARY
  5
7A5
102
{ACAD_REACTORS
330
C
102
}
330
C
100
AcDbDictionary
281
     1
  0
DICTIONARY
  5
94
102
{ACAD_REACTORS
330
C
102
}
330
C
100
AcDbDictionary
281
     1
  3
CTABLESTYLE
350
138
  3
DIMASSOC
350
96
  3
INDEXCTL
350
95
  3
PROJECTNAME
350
7A2
  0
DICTIONARY
  5
5B
102
{ACAD_REACTORS
330
C
102
}
330
C
100
AcDbDictionary
281
     1
  3
AcmBOM
350
1B5
  3
AcmStdDictionary
350
61
  3
AMDTSECTSYM_ARROWCOLOR
350
123
  0
DICTIONARY
  5
41
102
{ACAD_REACTORS
330
C
102
}
330
C
100
AcDbDictionary
281
     1
  0
DICTIONARY
  5
1B8
102
{ACAD_REACTORS
330
C
102
}
330
C
100
AcDbDictionary
281
     1
  0
XRECORD
  5
7A4
102
{ACAD_REACTORS
330
C
102
}
330
C
100
AcDbXrecord
280
     1
  1
DWGPROPS COOKIE
  2

  3

  4

  6

  7

  8

  9

300
AmdtFileType=84
301
=
302
=
303
=
304
=
305
=
306
=
307
=
308
=
309
=
 40
0.0042171180555556
 41
2453885.348640764
 42
2453977.342853542
  1

 90
        1
  0
DICTIONARY
  5
3C7
102
{ACAD_REACTORS
330
3C6
102
}
330
3C6
100
AcDbDictionary
281
     1
  0
LAYOUT
  5
22
102
{ACAD_XDICTIONARY
360
7A8
102
}
102
{ACAD_REACTORS
330
1A
102
}
330
1A
100
AcDbPlotSettings
  1

  2
\\RDS1\iR3300影印機
  4
A4
  6

 40
6.805083274841308
 41
5.619736671447753
 42
6.974411010742187
 43
5.027069091796875
 44
209.9733276367187
 45
296.9259948730469
 46
0.0
 47
0.0
 48
0.0
 49
0.0
140
0.0
141
0.0
142
1.0
143
1.473237948618496
 70
 11952
 72
     1
 73
     1
 74
     0
  7
彩色出圖.ctb
 75
     0
147
0.6787769762092624
148
-82.91383658124624
149
-143.9127292437375
100
AcDbLayout
  1
Model
 70
     1
 71
     0
 10
0.0
 20
0.0
 11
12.0
 21
9.0
 12
0.0
 22
0.0
 32
0.0
 14
0.0
 24
0.0
 34
0.0
 15
0.0
 25
0.0
 35
0.0
146
0.0
 13
0.0
 23
0.0
 33
0.0
 16
1.0
 26
0.0
 36
0.0
 17
0.0
 27
1.0
 37
0.0
 76
     0
330
1F
1001
ACAD_PSEXT
1000
\\RDS1\iR3300影印機
1000
Canon iR2200-3300 PCL5e
1000
\\RDS1
1000

1070
     0
  0
LAYOUT
  5
1E
102
{ACAD_XDICTIONARY
360
7A6
102
}
102
{ACAD_REACTORS
330
1A
102
}
330
1A
100
AcDbPlotSettings
  1

  2

  4

  6

 40
0.0
 41
0.0
 42
0.0
 43
0.0
 44
0.0
 45
0.0
 46
0.0
 47
0.0
 48
0.0
 49
0.0
140
0.0
141
0.0
142
1.0
143
1.0
 70
   688
 72
     0
 73
     0
 74
     5
  7
彩色出圖.ctb
 75
    16
147
1.0
148
0.0
149
0.0
100
AcDbLayout
  1
配置1
 70
     1
 71
     1
 10
0.0
 20
0.0
 11
420.0
 21
297.0
 12
0.0
 22
0.0
 32
0.0
 14
1.000000000000000E+20
 24
1.000000000000000E+20
 34
1.000000000000000E+20
 15
-1.000000000000000E+20
 25
-1.000000000000000E+20
 35
-1.000000000000000E+20
146
0.0
 13
0.0
 23
0.0
 33
0.0
 16
1.0
 26
0.0
 36
0.0
 17
0.0
 27
1.0
 37
0.0
 76
     0
330
1B
  0
LAYOUT
  5
26
102
{ACAD_XDICTIONARY
360
7AA
102
}
102
{ACAD_REACTORS
330
1A
102
}
330
1A
100
AcDbPlotSettings
  1

  2

  4

  6

 40
0.0
 41
0.0
 42
0.0
 43
0.0
 44
0.0
 45
0.0
 46
0.0
 47
0.0
 48
0.0
 49
0.0
140
0.0
141
0.0
142
1.0
143
1.0
 70
   688
 72
     0
 73
     0
 74
     5
  7
彩色出圖.ctb
 75
    16
147
1.0
148
0.0
149
0.0
100
AcDbLayout
  1
配置2
 70
     1
 71
     2
 10
0.0
 20
0.0
 11
12.0
 21
9.0
 12
0.0
 22
0.0
 32
0.0
 14
0.0
 24
0.0
 34
0.0
 15
0.0
 25
0.0
 35
0.0
146
0.0
 13
0.0
 23
0.0
 33
0.0
 16
1.0
 26
0.0
 36
0.0
 17
0.0
 27
1.0
 37
0.0
 76
     0
330
23
  0
MLINESTYLE
  5
18
102
{ACAD_REACTORS
330
17
102
}
330
17
100
AcDbMlineStyle
  2
STANDARD
 70
     0
  3

 62
   256
 51
90.0
 52
90.0
 71
     2
 49
0.5
 62
   256
  6
BYLAYER
 49
-0.5
 62
   256
  6
BYLAYER
  0
ACDBPLACEHOLDER
  5
F
102
{ACAD_REACTORS
330
E
102
}
330
E
  0
TABLESTYLE
  5
11B
102
{ACAD_REACTORS
330
11A
102
}
330
11A
100
AcDbTableStyle
  3
Standard
 70
     0
 71
     0
 40
1.5
 41
1.5
280
     0
281
     0
  7
STANDARD
140
4.5
170
     2
 62
     0
 63
     7
283
     0
274
    -2
284
     1
 64
     0
275
    -2
285
     1
 65
     0
276
    -2
286
     1
 66
     0
277
    -2
287
     1
 67
     0
278
    -2
288
     1
 68
     0
279
    -2
289
     1
 69
     0
  7
STANDARD
140
6.0
170
     5
 62
     0
 63
     7
283
     0
274
    -2
284
     1
 64
     0
275
    -2
285
     1
 65
     0
276
    -2
286
     1
 66
     0
277
    -2
287
     1
 67
     0
278
    -2
288
     1
 68
     0
279
    -2
289
     1
 69
     0
  7
STANDARD
140
4.5
170
     5
 62
     0
 63
     7
283
     0
274
    -2
284
     1
 64
     0
275
    -2
285
     1
 65
     0
276
    -2
286
     1
 66
     0
277
    -2
287
     1
 67
     0
278
    -2
288
     1
 68
     0
279
    -2
289
     1
 69
     0
  0
DICTIONARYVAR
  5
138
102
{ACAD_REACTORS
330
94
102
}
330
94
100
DictionaryVariables
280
     0
  1
STANDARD
  0
DICTIONARYVAR
  5
96
102
{ACAD_REACTORS
330
94
102
}
330
94
100
DictionaryVariables
280
     0
  1
2
  0
DICTIONARYVAR
  5
95
102
{ACAD_REACTORS
330
94
102
}
330
94
100
DictionaryVariables
280
     0
  1
0
  0
DICTIONARYVAR
  5
7A2
102
{ACAD_REACTORS
330
94
102
}
330
94
100
DictionaryVariables
280
     0
  1

  0
DICTIONARY
  5
1B5
102
{ACAD_REACTORS
330
5B
102
}
330
5B
100
AcDbDictionary
281
     1
  0
DICTIONARY
  5
61
102
{ACAD_REACTORS
330
5B
102
}
330
5B
100
AcDbDictionary
281
     1
  0
XRECORD
  5
123
102
{ACAD_REACTORS
330
5B
102
}
330
5B
100
AcDbXrecord
280
     1
 90
-1023410169
  0
DICTIONARY
  5
7A8
330
22
100
AcDbDictionary
280
     1
281
     1
  3
ACAD_XREC_ROUNDTRIP
360
7A9
  0
DICTIONARY
  5
7A6
330
1E
100
AcDbDictionary
280
     1
281
     1
  3
ACAD_XREC_ROUNDTRIP
360
7A7
  0
DICTIONARY
  5
7AA
330
26
100
AcDbDictionary
280
     1
281
     1
  3
ACAD_XREC_ROUNDTRIP
360
7AB
  0
XRECORD
  5
7A9
102
{ACAD_REACTORS
330
7A8
102
}
330
7A8
100
AcDbXrecord
280
     1
102
SHADEPLOT
 70
     0
102
SHADEPLOTRESLEVEL
 70
     2
102
SHADEPLOTCUSTOMDPI
 70
   300
  0
XRECORD
  5
7A7
102
{ACAD_REACTORS
330
7A6
102
}
330
7A6
100
AcDbXrecord
280
     1
102
SHADEPLOT
 70
     0
102
SHADEPLOTRESLEVEL
 70
     2
102
SHADEPLOTCUSTOMDPI
 70
   300
  0
XRECORD
  5
7AB
102
{ACAD_REACTORS
330
7AA
102
}
330
7AA
100
AcDbXrecord
280
     1
102
SHADEPLOT
 70
     0
102
SHADEPLOTRESLEVEL
 70
     2
102
SHADEPLOTCUSTOMDPI
 70
   300
  0
ENDSEC
  0
EOF
