  0
SECTION
  2
HEADER
  9
$ACADVER
  1
AC1015
  9
$ACADMAINTVER
 70
    20
  9
$DWGCODEPAGE
  3
ANSI_950
  9
$INSBASE
 10
0.0
 20
0.0
 30
0.0
  9
$EXTMIN
 10
713.9698653122573
 20
63.61371718137684
 30
-0.0105058476424915
  9
$EXTMAX
 10
1306.834260776266
 20
458.9670442439389
 30
246.6238041578615
  9
$LIMMIN
 10
0.0
 20
0.0
  9
$LIMMAX
 10
420.0
 20
297.0
  9
$ORTHOMODE
 70
     1
  9
$REGENMODE
 70
     1
  9
$FILLMODE
 70
     1
  9
$QTEXTMODE
 70
     0
  9
$MIRRTEXT
 70
     1
  9
$LTSCALE
 40
1.0
  9
$ATTMODE
 70
     1
  9
$TEXTSIZE
 40
3.5
  9
$TRACEWID
 40
1.0
  9
$TEXTSTYLE
  7
STANDARD
  9
$CLAYER
  8
0
  9
$CELTYPE
  6
ByLayer
  9
$CECOLOR
 62
   256
  9
$CELTSCALE
 40
1.0
  9
$DISPSILH
 70
     0
  9
$DIMSCALE
 40
1.0
  9
$DIMASZ
 40
3.0
  9
$DIMEXO
 40
1.0
  9
$DIMDLI
 40
8.0
  9
$DIMRND
 40
0.0
  9
$DIMDLE
 40
0.0
  9
$DIMEXE
 40
1.5
  9
$DIMTP
 40
0.1
  9
$DIMTM
 40
0.1
  9
$DIMTXT
 40
3.5
  9
$DIMCEN
 40
3.0
  9
$DIMTSZ
 40
0.0
  9
$DIMTOL
 70
     0
  9
$DIMLIM
 70
     0
  9
$DIMTIH
 70
     0
  9
$DIMTOH
 70
     0
  9
$DIMSE1
 70
     0
  9
$DIMSE2
 70
     0
  9
$DIMTAD
 70
     1
  9
$DIMZIN
 70
     8
  9
$DIMBLK
  1

  9
$DIMASO
 70
     1
  9
$DIMSHO
 70
     1
  9
$DIMPOST
  1

  9
$DIMAPOST
  1
"
  9
$DIMALT
 70
     0
  9
$DIMALTD
 70
     2
  9
$DIMALTF
 40
0.0393701
  9
$DIMLFAC
 40
1.0
  9
$DIMTOFL
 70
     1
  9
$DIMTVP
 40
0.0
  9
$DIMTIX
 70
     0
  9
$DIMSOXD
 70
     0
  9
$DIMSAH
 70
     0
  9
$DIMBLK1
  1

  9
$DIMBLK2
  1

  9
$DIMSTYLE
  2
AM_ISO
  9
$DIMCLRD
 70
   256
  9
$DIMCLRE
 70
   256
  9
$DIMCLRT
 70
   256
  9
$DIMTFAC
 40
0.71
  9
$DIMGAP
 40
0.8
  9
$DIMJUST
 70
     0
  9
$DIMSD1
 70
     0
  9
$DIMSD2
 70
     0
  9
$DIMTOLJ
 70
     0
  9
$DIMTZIN
 70
     8
  9
$DIMALTZ
 70
     0
  9
$DIMALTTZ
 70
     0
  9
$DIMUPT
 70
     0
  9
$DIMDEC
 70
     2
  9
$DIMTDEC
 70
     8
  9
$DIMALTU
 70
     2
  9
$DIMALTTD
 70
     2
  9
$DIMTXSTY
  7
STANDARD
  9
$DIMAUNIT
 70
     0
  9
$DIMADEC
 70
     0
  9
$DIMALTRND
 40
0.0
  9
$DIMAZIN
 70
     2
  9
$DIMDSEP
 70
    46
  9
$DIMATFIT
 70
     3
  9
$DIMFRAC
 70
     0
  9
$DIMLDRBLK
  1

  9
$DIMLUNIT
 70
     2
  9
$DIMLWD
 70
    -1
  9
$DIMLWE
 70
    -1
  9
$DIMTMOVE
 70
     0
  9
$LUNITS
 70
     2
  9
$LUPREC
 70
     2
  9
$SKETCHINC
 40
1.0
  9
$FILLETRAD
 40
3.0
  9
$AUNITS
 70
     0
  9
$AUPREC
 70
     0
  9
$MENU
  1
.
  9
$ELEVATION
 40
0.0
  9
$PELEVATION
 40
0.0
  9
$THICKNESS
 40
0.0
  9
$LIMCHECK
 70
     0
  9
$CHAMFERA
 40
0.5
  9
$CHAMFERB
 40
0.5
  9
$CHAMFERC
 40
20.0
  9
$CHAMFERD
 40
0.0
  9
$SKPOLY
 70
     0
  9
$TDCREATE
 40
2453021.369367211
  9
$TDUCREATE
 40
2453021.036033877
  9
$TDUPDATE
 40
2453517.561679861
  9
$TDUUPDATE
 40
2453517.228346528
  9
$TDINDWG
 40
0.6405699074
  9
$TDUSRTIMER
 40
0.6405695602
  9
$USRTIMER
 70
     1
  9
$ANGBASE
 50
0.0
  9
$ANGDIR
 70
     0
  9
$PDMODE
 70
     0
  9
$PDSIZE
 40
0.0
  9
$PLINEWID
 40
0.0
  9
$SPLFRAME
 70
     0
  9
$SPLINETYPE
 70
     6
  9
$SPLINESEGS
 70
     8
  9
$HANDSEED
  5
3A02
  9
$SURFTAB1
 70
     6
  9
$SURFTAB2
 70
     6
  9
$SURFTYPE
 70
     6
  9
$SURFU
 70
     6
  9
$SURFV
 70
     6
  9
$UCSBASE
  2

  9
$UCSNAME
  2

  9
$UCSORG
 10
0.0
 20
0.0
 30
0.0
  9
$UCSXDIR
 10
1.0
 20
0.0
 30
0.0
  9
$UCSYDIR
 10
0.0
 20
1.0
 30
0.0
  9
$UCSORTHOREF
  2

  9
$UCSORTHOVIEW
 70
     0
  9
$UCSORGTOP
 10
0.0
 20
0.0
 30
0.0
  9
$UCSORGBOTTOM
 10
0.0
 20
0.0
 30
0.0
  9
$UCSORGLEFT
 10
0.0
 20
0.0
 30
0.0
  9
$UCSORGRIGHT
 10
0.0
 20
0.0
 30
0.0
  9
$UCSORGFRONT
 10
0.0
 20
0.0
 30
0.0
  9
$UCSORGBACK
 10
0.0
 20
0.0
 30
0.0
  9
$PUCSBASE
  2

  9
$PUCSNAME
  2

  9
$PUCSORG
 10
0.0
 20
0.0
 30
0.0
  9
$PUCSXDIR
 10
1.0
 20
0.0
 30
0.0
  9
$PUCSYDIR
 10
0.0
 20
1.0
 30
0.0
  9
$PUCSORTHOREF
  2

  9
$PUCSORTHOVIEW
 70
     0
  9
$PUCSORGTOP
 10
0.0
 20
0.0
 30
0.0
  9
$PUCSORGBOTTOM
 10
0.0
 20
0.0
 30
0.0
  9
$PUCSORGLEFT
 10
0.0
 20
0.0
 30
0.0
  9
$PUCSORGRIGHT
 10
0.0
 20
0.0
 30
0.0
  9
$PUCSORGFRONT
 10
0.0
 20
0.0
 30
0.0
  9
$PUCSORGBACK
 10
0.0
 20
0.0
 30
0.0
  9
$USERI1
 70
     0
  9
$USERI2
 70
     0
  9
$USERI3
 70
     0
  9
$USERI4
 70
     0
  9
$USERI5
 70
     0
  9
$USERR1
 40
0.0
  9
$USERR2
 40
0.0
  9
$USERR3
 40
0.0
  9
$USERR4
 40
0.0
  9
$USERR5
 40
0.0
  9
$WORLDVIEW
 70
     1
  9
$SHADEDGE
 70
     3
  9
$SHADEDIF
 70
    70
  9
$TILEMODE
 70
     1
  9
$MAXACTVP
 70
    64
  9
$PINSBASE
 10
0.0
 20
0.0
 30
0.0
  9
$PLIMCHECK
 70
     0
  9
$PEXTMIN
 10
1.000000000000000E+20
 20
1.000000000000000E+20
 30
1.000000000000000E+20
  9
$PEXTMAX
 10
-1.000000000000000E+20
 20
-1.000000000000000E+20
 30
-1.000000000000000E+20
  9
$PLIMMIN
 10
0.0
 20
0.0
  9
$PLIMMAX
 10
420.0
 20
297.0
  9
$UNITMODE
 70
     0
  9
$VISRETAIN
 70
     1
  9
$PLINEGEN
 70
     0
  9
$PSLTSCALE
 70
     1
  9
$TREEDEPTH
 70
  3020
  9
$CMLSTYLE
  2
Standard
  9
$CMLJUST
 70
     0
  9
$CMLSCALE
 40
20.0
  9
$PROXYGRAPHICS
 70
     1
  9
$MEASUREMENT
 70
     1
  9
$CELWEIGHT
370
    -1
  9
$ENDCAPS
280
     0
  9
$JOINSTYLE
280
     0
  9
$LWDISPLAY
290
     0
  9
$INSUNITS
 70
     4
  9
$HYPERLINKBASE
  1

  9
$STYLESHEET
  1
彩色出圖.ctb
  9
$XEDIT
290
     1
  9
$CEPSNTYPE
380
     0
  9
$PSTYLEMODE
290
     1
  9
$FINGERPRINTGUID
  2
{6C02722A-18D3-491A-897A-B8025DE410A9}
  9
$VERSIONGUID
  2
{8EE9A645-1751-4FC8-9C35-FBBD29F792B1}
  9
$EXTNAMES
290
     1
  9
$PSVPSCALE
 40
0.0
  9
$OLESTARTUP
290
     0
  0
ENDSEC
  0
SECTION
  2
CLASSES
  0
CLASS
  1
ACDBDICTIONARYWDFLT
  2
AcDbDictionaryWithDefault
  3
ObjectDBX Classes
 90
        0
280
     0
281
     0
  0
CLASS
  1
ACDBPLACEHOLDER
  2
AcDbPlaceHolder
  3
ObjectDBX Classes
 90
        0
280
     0
281
     0
  0
CLASS
  1
LAYOUT
  2
AcDbLayout
  3
ObjectDBX Classes
 90
        0
280
     0
281
     0
  0
CLASS
  1
AMGSETTINGSOBJ
  2
AmgSettingsObj
  3
"AcadM|Product Description: AutoCAD Mechanical 2000|Company: Autodesk"
 90
        0
280
     0
281
     0
  0
CLASS
  1
ACME_DOCUMENT
  2
AcMeDbDoc
  3
AcMeServices
 90
        0
280
     0
281
     0
  0
CLASS
  1
ACMESCOPE
  2
AcMeScope
  3
AcMeServices
 90
        0
280
     0
281
     0
  0
CLASS
  1
ACMECOMMANDHISTORY
  2
AcMeCommandHistory
  3
AcMeServices
 90
        0
280
     0
281
     0
  0
CLASS
  1
ACIMSYSVARMAN
  2
AcImSysVarManager
  3
AcMeServices
 90
        0
280
     0
281
     0
  0
CLASS
  1
ACIMREALSYSVAR
  2
AcImRealSysVar
  3
AcMeServices
 90
        0
280
     0
281
     0
  0
CLASS
  1
ACIMINTSYSVAR
  2
AcImIntSysVar
  3
AcMeServices
 90
        0
280
     0
281
     0
  0
CLASS
  1
ACMEDRAWINGMAN
  2
AcMeDrawingMan
  3
AcMeServices
 90
        0
280
     0
281
     0
  0
CLASS
  1
ACMEVIEW
  2
AcMeView
  3
AcMeServices
 90
        0
280
     0
281
     0
  0
CLASS
  1
ACDBENTITYCACHE
  2
AcMeEntityCache
  3
AcMeServices
 90
        0
280
     0
281
     0
  0
CLASS
  1
GSMANAGER
  2
AcMeGSManager
  3
AcMeServices
 90
        0
280
     0
281
     0
  0
CLASS
  1
AMDTINTERNALREACTOR
  2
AmdtInternalReactor
  3
AcMeServices
 90
        0
280
     0
281
     0
  0
CLASS
  1
ACMESTATEMGR
  2
AcMeStateMgr
  3
AcMeServices
 90
        0
280
     0
281
     0
  0
CLASS
  1
ACGREFMASTER
  2
AcGrefMaster
  3
AcAttribServices
 90
        0
280
     0
281
     0
  0
CLASS
  1
ACME_DATABASE
  2
AcMeDbDatabase
  3
AcMeServices
 90
        0
280
     0
281
     0
  0
CLASS
  1
ACRFINSADJUSTERMGR
  2
AcRfInsAdjusterMgr
  3
AcMeServices
 90
        0
280
     0
281
     0
  0
CLASS
  1
ACGREFACADMASTER
  2
AcGrefacadMaster
  3
AcGrefServices
 90
        0
280
     0
281
     0
  0
CLASS
  1
AMIMASTER
  2
AmiMaster
  3
AmiServices
 90
        0
280
     0
281
     0
  0
CLASS
  1
ACMDATADICTIONARY
  2
AcmDataDictionary
  3
"AcmSymBB|Product Description: AutoCAD Mechanical 2004 DX|Company: Autodesk"
 90
        0
280
     0
281
     0
  0
CLASS
  1
ACMDATAENTRYBLOCK
  2
AcmDataEntryBlock
  3
"AcmSymBB|Product Description: AutoCAD Mechanical 2004 DX|Company: Autodesk"
 90
    32768
280
     0
281
     0
  0
CLASS
  1
ACIMSTRSYSVAR
  2
AcImStrSysVar
  3
AcMeServices
 90
        0
280
     0
281
     0
  0
CLASS
  1
ACMSTANDARDISO
  2
AcmStandardISO
  3
"Amdt_StdImp|Product Description: AutoCAD Mechanical 2004 DX|Company: Autodesk"
 90
        0
280
     0
281
     0
  0
CLASS
  1
AMGOBJPROPCFG
  2
AmgObjPropCfg
  3
"AmgLay|Product Description: AutoCAD Mechanical 2000|Company: Autodesk"
 90
        1
280
     0
281
     0
  0
CLASS
  1
AMDTEDGESTANDARDISO
  2
AmdtEdgeStdISO
  3
"Amdt_StdImp|Product Description: AutoCAD Mechanical 2004 DX|Company: Autodesk"
 90
    32768
280
     0
281
     0
  0
CLASS
  1
ACMSURFSTANDARDISO
  2
AcmSurfTextStdISO
  3
"Amdt_StdImp|Product Description: AutoCAD Mechanical 2004 DX|Company: Autodesk"
 90
        0
280
     0
281
     0
  0
CLASS
  1
ACMFCFSTANDARDISO
  2
AcmFCFStdISO
  3
"Amdt_StdImp|Product Description: AutoCAD Mechanical 2004 DX|Company: Autodesk"
 90
        0
280
     0
281
     0
  0
CLASS
  1
ACMWELDSTANDARDISO
  2
AcmWeldingStdISO
  3
"Amdt_StdImp|Product Description: AutoCAD Mechanical 2004 DX|Company: Autodesk"
 90
        0
280
     0
281
     0
  0
CLASS
  1
ACMIDSTANDARDISO
  2
AcmIdStdISO
  3
"Amdt_StdImp|Product Description: AutoCAD Mechanical 2004 DX|Company: Autodesk"
 90
        0
280
     0
281
     0
  0
CLASS
  1
ACMDATUMSTANDARDISO
  2
AcmDatumStdISO
  3
"Amdt_StdImp|Product Description: AutoCAD Mechanical 2004 DX|Company: Autodesk"
 90
        0
280
     0
281
     0
  0
CLASS
  1
ACMBOMSTANDARDISO
  2
AcmBOMStdISO
  3
"Amdt_StdImp|Product Description: AutoCAD Mechanical 2004 DX|Company: Autodesk"
 90
        0
280
     0
281
     0
  0
CLASS
  1
ACMDETAILSTANDARDISO
  2
AmdtDetailSymStdISO
  3
"Amdt_StdImp|Product Description: AutoCAD Mechanical 2004 DX|Company: Autodesk"
 90
        0
280
     0
281
     0
  0
CLASS
  1
ACMSECTIONSTANDARDISO
  2
AmdtSectionSymStdISO
  3
"Amdt_StdImp|Product Description: AutoCAD Mechanical 2004 DX|Company: Autodesk"
 90
        0
280
     0
281
     0
  0
CLASS
  1
ACMCENTERLINESTANDARDISO
  2
AmdtCenterLineStdISO
  3
"Amdt_StdImp|Product Description: AutoCAD Mechanical 2004 DX|Company: Autodesk"
 90
        0
280
     0
281
     0
  0
CLASS
  1
ACMNOTESTANDARDISO
  2
AmdtNoteStdISO
  3
"Amdt_StdImp|Product Description: AutoCAD Mechanical 2004 DX|Company: Autodesk"
 90
        0
280
     0
281
     0
  0
CLASS
  1
ACAMGLAYSTD
  2
AcAmgLayStd
  3
"AcAmgLayStd|Product Description: AutoCAD Mechanical 2000|Company: Autodesk"
 90
        0
280
     0
281
     0
  0
CLASS
  1
ACAMGDIMSTD
  2
AcAmgDimStd
  3
"AcAmgDimStd|Product Description: AutoCAD Mechanical 2000|Company: Autodesk"
 90
        0
280
     0
281
     0
  0
CLASS
  1
ACAMGHOLECHARTSTDISO
  2
AcAmgHoleChartStdISO
  3
ACMSYMBB_MODULE_NAME
 90
        0
280
     0
281
     0
  0
CLASS
  1
ACAMGTITLESTD
  2
AcAmgTitleStd
  3
"TITLEAPP"
 90
        0
280
     0
281
     0
  0
CLASS
  1
LAYER_INDEX
  2
AcDbLayerIndex
  3
ObjectDBX Classes
 90
    32768
280
     0
281
     0
  0
CLASS
  1
IDBUFFER
  2
AcDbIdBuffer
  3
ObjectDBX Classes
 90
    32768
280
     0
281
     0
  0
CLASS
  1
DICTIONARYVAR
  2
AcDbDictionaryVar
  3
ObjectDBX Classes
 90
        0
280
     0
281
     0
  0
CLASS
  1
ACAMGFILTERDAT
  2
AcAmgFilterDat
  3
"AcadM|Product Description: AutoCAD Mechanical 2000|Company: Autodesk"
 90
    32768
280
     0
281
     0
  0
CLASS
  1
AMDTFORMULAUPDATEDISPATCHER
  2
AmdtFormulaUpdateDispatcher
  3
AcMeServices
 90
    32768
280
     0
281
     0
  0
CLASS
  1
DIMASSOC
  2
AcDbDimAssoc
  3
"AcDbDimAssoc|Product Desc:     AcDim ARX App For Dimension|Company:          Autodesk, Inc.|WEB Address:      www.autodesk.com"
 90
        0
280
     0
281
     0
  0
CLASS
  1
AMDTNOTE
  2
AmdtNote
  3
"AcmSymBB|Product Description: AutoCAD Mechanical 2004 DX|Company: Autodesk"
 90
     1023
280
     0
281
     1
  0
CLASS
  1
TABLESTYLE
  2
AcDbTableStyle
  3
ObjectDBX Classes
 90
     2047
280
     0
281
     0
  0
CLASS
  1
AM_DRAWING_MGR
  2
AcDmDwgMgr
  3
AcMechDwgViewMgmt
 90
        0
280
     0
281
     0
  0
CLASS
  1
AM_DWG_DOCUMENT
  2
AcDmDwgDocument
  3
AcMechDwgViewMgmt
 90
        0
280
     0
281
     0
  0
CLASS
  1
AM_DWG_SHEET
  2
AcDmSheet
  3
AcMechDwgViewMgmt
 90
        0
280
     0
281
     0
  0
CLASS
  1
AM_VIEWDIMPARMAP
  2
AcDmViewDimParMap
  3
AcMechDwgViewMgmt
 90
        0
280
     0
281
     0
  0
CLASS
  1
AM_DWGMGR_NAME
  2
AcDmDwgMgrName
  3
AcMechDwgViewMgmt
 90
        0
280
     0
281
     0
  0
CLASS
  1
AMDTMENUSTATEMGR
  2
AmdtMenuStateMgr
  3
McadcomServices
 90
        0
280
     0
281
     0
  0
CLASS
  1
AMDTMCOMMENUSTATE
  2
AmdtMcomMenuState
  3
McadcomServices
 90
        0
280
     0
281
     0
  0
CLASS
  1
MAPIAMMOUDLE
  2
MApiAmModule
  3
MApiAmServices
 90
        0
280
     0
281
     0
  0
CLASS
  1
AMDTADMENUSTATE
  2
AmdtAdMenuState
  3
DesignerServices
 90
        0
280
     0
281
     0
  0
CLASS
  1
ADAPPL
  2
AcAdAppl
  3
DesignerServices
 90
        0
280
     0
281
     0
  0
CLASS
  1
DEPMGR
  2
AcAdDepMgr
  3
DesignerServices
 90
        0
280
     0
281
     0
  0
CLASS
  1
PARAMMGR
  2
AcAdParamMgr
  3
DesignerServices
 90
        0
280
     0
281
     0
  0
CLASS
  1
PARAMSCOPE
  2
AcAdParamScope
  3
DesignerServices
 90
        0
280
     0
281
     0
  0
CLASS
  1
NAMEDAPPL
  2
AcAdNamedAppl
  3
DesignerServices
 90
        0
280
     0
281
     0
  0
CLASS
  1
AMDTDMMENUSTATE
  2
AmdtDmMenuState
  3
AcMechDwgViewMgmt
 90
        0
280
     0
281
     0
  0
CLASS
  1
AMDTAMMENUSTATE
  2
AmdtAmMenuState
  3
DesignerAssemblies
 90
        0
280
     0
281
     0
  0
CLASS
  1
ACAMPROJECT
  2
AcAmProject
  3
DesignerAssemblies
 90
        0
280
     0
281
     0
  0
CLASS
  1
ACAMGRCOMPDEF
  2
AcAmGrCompDef
  3
DesignerAssemblies
 90
        0
280
     0
281
     0
  0
CLASS
  1
ACCMCONTEXT
  2
AcCmContext
  3
DesignerAssemblies
 90
        0
280
     0
281
     0
  0
CLASS
  1
ACAMCOMPDEF
  2
AcAmCompDef
  3
DesignerAssemblies
 90
        0
280
     0
281
     0
  0
CLASS
  1
ACAMCOMPDEFMGR
  2
AcAmCompDefMgr
  3
DesignerAssemblies
 90
        0
280
     0
281
     0
  0
CLASS
  1
AMCONTEXTMGR
  2
AcAmContextMgr
  3
DesignerAssemblies
 90
        0
280
     0
281
     0
  0
CLASS
  1
ACAMCONTEXTMODELER
  2
AcAmContextModeler
  3
DesignerAssemblies
 90
        0
280
     0
281
     0
  0
CLASS
  1
ACMTHREADLINESTANDARDISO
  2
AmdtThreadLineStdISO
  3
"Amdt_StdImp|Product Description: AutoCAD Mechanical 2004 DX|Company: Autodesk"
 90
        0
280
     0
281
     0
  0
CLASS
  1
CATALOGSTATE
  2
AcAmCatalogState
  3
DesignerAssemblies
 90
        0
280
     0
281
     0
  0
CLASS
  1
ACAMGRCOMPDEFSET
  2
AcAmGrCompDefSet
  3
DesignerAssemblies
 90
        0
280
     0
281
     0
  0
CLASS
  1
AMDTBROWSERDBTAB
  2
AmdtBrowserDbTab
  3
McadcomServices
 90
        0
280
     0
281
     0
  0
CLASS
  1
CBROWSERAPPOBJECT
  2
CBrowserAppObject
  3
McadcomServices
 90
        0
280
     0
281
     0
  0
CLASS
  1
DM_PLACEHOLDER
  2
AcDmSelsetPlaceholder
  3
AcMechDwgViewMgmt
 90
        0
280
     0
281
     0
  0
CLASS
  1
VAACXREFPANELOBJECT
  2
VaAcXREFPanelObject
  3
VAAC_ADDIN
 90
        0
280
     0
281
     0
  0
CLASS
  1
VAACIMAGEINVENTORY
  2
VaAcImageInventory
  3
VAAC_ADDIN
 90
        0
280
     0
281
     0
  0
CLASS
  1
AMDTEDGESTANDARDISO13715
  2
AmdtEdgeStdISO13715
  3
"Amdt_StdImp|Product Description: AutoCAD Mechanical 2004 DX|Company: Autodesk"
 90
        0
280
     0
281
     0
  0
CLASS
  1
AMDTNOTETEMPLATEDB
  2
AmdtNoteTemplateDB
  3
AMDT_STDIMP_MODULE_NAME
 90
        0
280
     0
281
     0
  0
CLASS
  1
ACRFATTGENMGR
  2
AcRfAttGeneralMgr
  3
AcAttribServices
 90
        0
280
     0
281
     0
  0
CLASS
  1
SORTENTSTABLE
  2
AcDbSortentsTable
  3
ObjectDBX Classes
 90
        0
280
     0
281
     0
  0
CLASS
  1
STDPART2D
  2
AmgStdPart
  3
"AmgStdPart|Product Description: AutoCAD Mechanical 2000|Company: Autodesk"
 90
    33791
280
     0
281
     1
  0
CLASS
  1
ACAMSTDPCOMPDEF
  2
AcAmStdpCompDef
  3
DesignerAssemblies
 90
    32768
280
     0
281
     0
  0
CLASS
  1
ACRFOBJATTMGR
  2
AcRfObjAttGroupMgr
  3
AcAttribServices
 90
    32768
280
     0
281
     0
  0
CLASS
  1
ACRFMCADAPIATTHOLDER
  2
AcRfMCADAPIAttHolder
  3
AcAttribServices
 90
    32768
280
     0
281
     0
  0
CLASS
  1
AMDTSYSATTR
  2
AmdtSystemAttribute
  3
AcAttribServices
 90
    32768
280
     0
281
     0
  0
CLASS
  1
ACAMCOMP
  2
AcAmComp
  3
DesignerAssemblies
 90
    32768
280
     0
281
     0
  0
CLASS
  1
AC_AM_STDP_VIEW_DEF
  2
AcAmStdpViewDef
  3
DesignerAssemblies
 90
    32768
280
     0
281
     0
  0
CLASS
  1
AC_AM_MVD_DEP_MGR
  2
AcAmMVDdepMgr
  3
DesignerAssemblies
 90
        0
280
     0
281
     0
  0
CLASS
  1
AC_AM_MASTER_VIEW_DEF
  2
AcAmMasterViewDef
  3
DesignerAssemblies
 90
        0
280
     0
281
     0
  0
CLASS
  1
AC_AM_DIRTY_NODES
  2
AcAmDirtyNodes
  3
DesignerAssemblies
 90
        0
280
     0
281
     0
  0
CLASS
  1
AC_AM_MAPPER_CACHE
  2
AcAmMapperCache
  3
DesignerAssemblies
 90
        0
280
     0
281
     0
  0
CLASS
  1
ACAMMVDBACKUPOBJECT
  2
AcAmMVDBackupObject
  3
DesignerAssemblies
 90
        0
280
     0
281
     0
  0
CLASS
  1
AC_AM_COMP_VIEW_INST
  2
AcAmCompView
  3
DesignerAssemblies
 90
    32768
280
     0
281
     0
  0
CLASS
  1
AC_AM_2D_XREF_MGR
  2
AcAmXrefMgr2d
  3
DesignerAssemblies
 90
        0
280
     0
281
     0
  0
CLASS
  1
ACMSTANDARDANSI
  2
AcmStandardANSI
  3
"Amdt_StdImp|Product Description: AutoCAD Mechanical 2004 DX|Company: Autodesk"
 90
        0
280
     0
281
     0
  0
CLASS
  1
ACMSURFSTANDARDANSI
  2
AcmSurfTextStdANSI
  3
"Amdt_StdImp|Product Description: AutoCAD Mechanical 2004 DX|Company: Autodesk"
 90
        0
280
     0
281
     0
  0
CLASS
  1
ACMFCFSTANDARDANSI
  2
AcmFCFStdANSI
  3
"Amdt_StdImp|Product Description: AutoCAD Mechanical 2004 DX|Company: Autodesk"
 90
        0
280
     0
281
     0
  0
CLASS
  1
ACMWELDSTANDARDANSI
  2
AcmWeldingStdANSI
  3
"Amdt_StdImp|Product Description: AutoCAD Mechanical 2004 DX|Company: Autodesk"
 90
        0
280
     0
281
     0
  0
CLASS
  1
ACMIDSTANDARDANSI
  2
AcmIdStdANSI
  3
"Amdt_StdImp|Product Description: AutoCAD Mechanical 2004 DX|Company: Autodesk"
 90
        0
280
     0
281
     0
  0
CLASS
  1
ACMDATUMSTANDARDANSI
  2
AcmDatumStdANSI
  3
"Amdt_StdImp|Product Description: AutoCAD Mechanical 2004 DX|Company: Autodesk"
 90
        0
280
     0
281
     0
  0
CLASS
  1
ACMBOMSTANDARDANSI
  2
AcmBOMStdANSI
  3
"Amdt_StdImp|Product Description: AutoCAD Mechanical 2004 DX|Company: Autodesk"
 90
        0
280
     0
281
     0
  0
CLASS
  1
ACMDETAILSTANDARDANSI
  2
AmdtDetailSymStdANSI
  3
"Amdt_StdImp|Product Description: AutoCAD Mechanical 2004 DX|Company: Autodesk"
 90
        0
280
     0
281
     0
  0
CLASS
  1
ACMSECTIONSTANDARDANSI
  2
AmdtSectionSymStdANSI
  3
"Amdt_StdImp|Product Description: AutoCAD Mechanical 2004 DX|Company: Autodesk"
 90
        0
280
     0
281
     0
  0
CLASS
  1
ACMCENTERLINESTANDARDANSI
  2
AmdtCenterLineStdANSI
  3
"Amdt_StdImp|Product Description: AutoCAD Mechanical 2004 DX|Company: Autodesk"
 90
        0
280
     0
281
     0
  0
CLASS
  1
ACMTHREADLINESTANDARDANSI
  2
AmdtThreadLineStdANSI
  3
"Amdt_StdImp|Product Description: AutoCAD Mechanical 2004 DX|Company: Autodesk"
 90
        0
280
     0
281
     0
  0
CLASS
  1
ACMNOTESTANDARDANSI
  2
AmdtNoteStdANSI
  3
"Amdt_StdImp|Product Description: AutoCAD Mechanical 2004 DX|Company: Autodesk"
 90
        0
280
     0
281
     0
  0
CLASS
  1
ACAMGHOLECHARTSTDANSI
  2
AcAmgHoleChartStdANSI
  3
ACMSYMBB_MODULE_NAME
 90
        0
280
     0
281
     0
  0
ENDSEC
  0
SECTION
  2
TABLES
  0
TABLE
  2
VPORT
  5
8
330
0
100
AcDbSymbolTable
 70
     3
  0
VPORT
  5
39F9
330
8
100
AcDbSymbolTableRecord
100
AcDbViewportTableRecord
  2
*Active
 70
     0
 10
0.0
 20
0.0
 11
1.0
 21
1.0
 12
1010.421079140326
 22
261.2999148684615
 13
0.0
 23
0.0
 14
2.5
 24
2.5
 15
10.0
 25
10.0
 16
0.0
 26
0.0
 36
1.0
 17
0.0
 27
0.0
 37
0.0
 40
399.9700662613987
 41
1.81766917293233
 42
50.0
 43
0.0
 44
0.0
 50
0.0
 51
0.0
 71
     0
 72
   100
 73
     1
 74
     3
 75
     0
 76
     0
 77
     0
 78
     0
281
     0
 65
     1
110
0.0
120
0.0
130
0.0
111
1.0
121
0.0
131
0.0
112
0.0
122
1.0
132
0.0
 79
     0
146
0.0
  0
ENDTAB
  0
TABLE
  2
LTYPE
  5
5
330
0
100
AcDbSymbolTable
 70
    16
  0
LTYPE
  5
14
330
5
100
AcDbSymbolTableRecord
100
AcDbLinetypeTableRecord
  2
ByBlock
 70
     0
  3

 72
    65
 73
     0
 40
0.0
  0
LTYPE
  5
15
330
5
100
AcDbSymbolTableRecord
100
AcDbLinetypeTableRecord
  2
ByLayer
 70
     0
  3

 72
    65
 73
     0
 40
0.0
  0
LTYPE
  5
16
330
5
100
AcDbSymbolTableRecord
100
AcDbLinetypeTableRecord
  2
Continuous
 70
     0
  3
Solid line
 72
    65
 73
     0
 40
0.0
  0
LTYPE
  5
4D
330
5
100
AcDbSymbolTableRecord
100
AcDbLinetypeTableRecord
  2
AM_ISO02W050
 70
     0
  3
__ __ __ __ __ __ __ __ __ __ __ __ __ __ __
 72
    65
 73
     2
 40
7.5
 49
6.0
 74
     0
 49
-1.5
 74
     0
  0
LTYPE
  5
4E
330
5
100
AcDbSymbolTableRecord
100
AcDbLinetypeTableRecord
  2
AM_ISO08W050
 70
     0
  3
____ . ____ . ____ . ____ . ____ . ____ . ____
 72
    65
 73
     4
 40
18.0
 49
12.0
 74
     0
 49
-1.5
 74
     0
 49
3.0
 74
     0
 49
-1.5
 74
     0
  0
LTYPE
  5
4F
330
5
100
AcDbSymbolTableRecord
100
AcDbLinetypeTableRecord
  2
AM_ISO09W050
 70
     0
  3
_____ . . _____ . . _____ . . ____ .. ____
 72
    65
 73
     6
 40
22.5
 49
12.0
 74
     0
 49
-1.5
 74
     0
 49
3.0
 74
     0
 49
-1.5
 74
     0
 49
3.0
 74
     0
 49
-1.5
 74
     0
  0
LTYPE
  5
50
330
5
100
AcDbSymbolTableRecord
100
AcDbLinetypeTableRecord
  2
Amconstr
 70
     0
  3
_______________________
 72
    65
 73
     2
 40
9999.0
 49
9999.0
 74
     0
 49
0.0
 74
     0
  0
LTYPE
  5
51
330
5
100
AcDbSymbolTableRecord
100
AcDbLinetypeTableRecord
  2
AM_ISO08W050x2
 70
     0
  3
__ . __ . __ . __ . __ . __
 72
    65
 73
     4
 40
9.0
 49
6.0
 74
     0
 49
-0.75
 74
     0
 49
1.5
 74
     0
 49
-0.75
 74
     0
  0
LTYPE
  5
52
330
5
100
AcDbSymbolTableRecord
100
AcDbLinetypeTableRecord
  2
AM_ISO02W050x2
 70
     0
  3
 _ _ _ _ _ _ _ _ _ _ _ _
 72
    65
 73
     2
 40
3.75
 49
3.0
 74
     0
 49
-0.75
 74
     0
  0
LTYPE
  5
55
330
5
100
AcDbSymbolTableRecord
100
AcDbLinetypeTableRecord
  2
Amzigzag
 70
     0
  3
/\/-/\/-/\/-/\/-/\/-/\/
 72
    65
 73
     2
 40
11.0001
 49
0.0001
 74
     4
 75
   135
340
54
 46
0.04
 50
0.0
 44
0.0
 45
0.0
 49
-11.0
 74
     0
  0
LTYPE
  5
63
330
5
100
AcDbSymbolTableRecord
100
AcDbLinetypeTableRecord
  2
ACISOWELD
 70
     0
  3
_ _ _ _ _
 72
    65
 73
     2
 40
2.0
 49
2.0
 74
     0
 49
-1.0
 74
     0
  0
LTYPE
  5
64
330
5
100
AcDbSymbolTableRecord
100
AcDbLinetypeTableRecord
  2
ACISOTGB
 70
     0
  3
__ . . __ . .
 72
    65
 73
     6
 40
9.0
 49
4.0
 74
     0
 49
-1.0
 74
     0
 49
1.0
 74
     0
 49
-1.0
 74
     0
 49
1.0
 74
     0
 49
-1.0
 74
     0
  0
LTYPE
  5
65
330
5
100
AcDbSymbolTableRecord
100
AcDbLinetypeTableRecord
  2
ACISOTGL
 70
     0
  3
_ _ _ _ _
 72
    65
 73
     2
 40
3.0
 49
2.0
 74
     0
 49
-1.0
 74
     0
  0
LTYPE
  5
68
330
5
100
AcDbSymbolTableRecord
100
AcDbLinetypeTableRecord
  2
CENTER
 70
     0
  3
__ . __
 72
    65
 73
     4
 40
7.0
 49
4.0
 74
     0
 49
-1.0
 74
     0
 49
1.0
 74
     0
 49
-1.0
 74
     0
  0
LTYPE
  5
806
330
5
100
AcDbSymbolTableRecord
100
AcDbLinetypeTableRecord
  2
HIDDEN
 70
     0
  3
Hidden __ __ __ __ __ __ __ __ __ __ __ __ __ _
 72
    65
 73
     2
 40
9.524999999999998
 49
6.349999999999999
 74
     0
 49
-3.174999999999999
 74
     0
  0
LTYPE
  5
807
330
5
100
AcDbSymbolTableRecord
100
AcDbLinetypeTableRecord
  2
PHANTOM2
 70
     0
  3
Phantom (.5x) ___ _ _ ___ _ _ ___ _ _ ___ _ _
 72
    65
 73
     6
 40
31.75
 49
15.875
 74
     0
 49
-3.174999999999999
 74
     0
 49
3.174999999999999
 74
     0
 49
-3.174999999999999
 74
     0
 49
3.174999999999999
 74
     0
 49
-3.174999999999999
 74
     0
  0
LTYPE
  5
1658
330
5
100
AcDbSymbolTableRecord
100
AcDbLinetypeTableRecord
  2
ACANSTGB
 70
     0
  3
__ . . __ . .
 72
    65
 73
     6
 40
0.35433070866
 49
0.15748031496
 74
     0
 49
-0.03937007874
 74
     0
 49
0.03937007874
 74
     0
 49
-0.03937007874
 74
     0
 49
0.03937007874
 74
     0
 49
-0.03937007874
 74
     0
  0
LTYPE
  5
1659
330
5
100
AcDbSymbolTableRecord
100
AcDbLinetypeTableRecord
  2
ACANSTGL
 70
     0
  3
_ _ _ _ _
 72
    65
 73
     2
 40
0.11811023622
 49
0.07874015748
 74
     0
 49
-0.03937007874
 74
     0
  0
ENDTAB
  0
TABLE
  2
LAYER
  5
2
102
{ACAD_XDICTIONARY
360
AAB
102
}
330
0
100
AcDbSymbolTable
 70
     8
  0
LAYER
  5
10
330
2
100
AcDbSymbolTableRecord
100
AcDbLayerTableRecord
  2
0
 70
     0
 62
     7
  6
Continuous
370
    -3
390
F
  0
LAYER
  5
42A
330
2
100
AcDbSymbolTableRecord
100
AcDbLayerTableRecord
  2
AM_5
 70
     0
 62
     5
  6
Continuous
370
    50
390
F
  0
LAYER
  5
43E
330
2
100
AcDbSymbolTableRecord
100
AcDbLayerTableRecord
  2
Defpoints
 70
     0
 62
     7
  6
Continuous
290
     0
370
    -3
390
F
  0
LAYER
  5
CD5
330
2
100
AcDbSymbolTableRecord
100
AcDbLayerTableRecord
  2
AM_7
 70
     0
 62
     1
  6
CENTER
370
    25
390
F
  0
LAYER
  5
CD7
330
2
100
AcDbSymbolTableRecord
100
AcDbLayerTableRecord
  2
AM_4
 70
     0
 62
     3
  6
Continuous
370
    25
390
F
  0
LAYER
  5
CD9
330
2
100
AcDbSymbolTableRecord
100
AcDbLayerTableRecord
  2
AM_0
 70
     0
 62
     7
  6
Continuous
370
    50
390
F
  0
LAYER
  5
135E
330
2
100
AcDbSymbolTableRecord
100
AcDbLayerTableRecord
  2
LOGO
 70
     0
 62
     7
  6
Continuous
370
    -3
390
F
  0
LAYER
  5
2F56
330
2
100
AcDbSymbolTableRecord
100
AcDbLayerTableRecord
  2
CENTER
 70
     0
 62
     1
  6
CENTER
370
    -3
390
F
  0
ENDTAB
  0
TABLE
  2
STYLE
  5
3
330
0
100
AcDbSymbolTable
 70
     9
  0
STYLE
  5
11
330
3
100
AcDbSymbolTableRecord
100
AcDbTextStyleTableRecord
  2
STANDARD
 70
     0
 40
0.0
 41
1.0
 50
0.0
 71
     0
 42
3.5
  3
ISOCP.SHX
  4
CHINESET.SHX
  0
STYLE
  5
54
330
3
100
AcDbSymbolTableRecord
100
AcDbTextStyleTableRecord
  2

 70
     1
 40
0.0
 41
1.0
 50
0.0
 71
     0
 42
2.5
  3
ltypeshp.shx
  4

  0
STYLE
  5
56
330
3
100
AcDbSymbolTableRecord
100
AcDbTextStyleTableRecord
  2
ACISOTS
 70
     0
 40
1.0
 41
1.0
 50
0.0
 71
     0
 42
2.5
  3
isocp.shx
  4
chineset.shx
  0
STYLE
  5
62
330
3
100
AcDbSymbolTableRecord
100
AcDbTextStyleTableRecord
  2
ACISOGDT
 70
     0
 40
0.0
 41
1.0
 50
0.0
 71
     0
 42
3.5
  3
amgdt.shx
  4

  0
STYLE
  5
1360
330
3
100
AcDbSymbolTableRecord
100
AcDbTextStyleTableRecord
  2
CHINESET
 70
     0
 40
0.0
 41
1.0
 50
0.0
 71
     0
 42
4.0
  3
simplex.shx
  4
chineset.shx
  0
STYLE
  5
165C
330
3
100
AcDbSymbolTableRecord
100
AcDbTextStyleTableRecord
  2
ACANSTS
 70
     0
 40
1.0
 41
1.0
 50
0.0
 71
     0
 42
3.0
  3
romans.shx
  4
chineset.shx
  0
STYLE
  5
165D
330
3
100
AcDbSymbolTableRecord
100
AcDbTextStyleTableRecord
  2
ACANSGDT
 70
     0
 40
0.0
 41
1.0
 50
0.0
 71
     0
 42
3.0
  3
amgdtans.shx
  4

  0
ENDTAB
  0
TABLE
  2
VIEW
  5
6
330
0
100
AcDbSymbolTable
 70
     0
  0
ENDTAB
  0
TABLE
  2
UCS
  5
7
330
0
100
AcDbSymbolTable
 70
     0
  0
ENDTAB
  0
TABLE
  2
APPID
  5
9
330
0
100
AcDbSymbolTable
 70
    32
  0
APPID
  5
12
330
9
100
AcDbSymbolTableRecord
100
AcDbRegAppTableRecord
  2
ACAD
 70
     0
  0
APPID
  5
30
330
9
100
AcDbSymbolTableRecord
100
AcDbRegAppTableRecord
  2
MCAD_NO_VIS
 70
     0
  0
APPID
  5
31
330
9
100
AcDbSymbolTableRecord
100
AcDbRegAppTableRecord
  2
ACAD_TEMP_GRAPHIC
 70
     0
  0
APPID
  5
42
330
9
100
AcDbSymbolTableRecord
100
AcDbRegAppTableRecord
  2
ACATTRIBSERVICES
 70
     0
  0
APPID
  5
20A
330
9
100
AcDbSymbolTableRecord
100
AcDbRegAppTableRecord
  2
GENIUS_GENODEF_13
 70
     0
  0
APPID
  5
20B
330
9
100
AcDbSymbolTableRecord
100
AcDbRegAppTableRecord
  2
GENIUS_GENOBJ-N-HTC_13
 70
     0
  0
APPID
  5
20C
330
9
100
AcDbSymbolTableRecord
100
AcDbRegAppTableRecord
  2
GENIUS_GENHATCH_13
 70
     0
  0
APPID
  5
809
330
9
100
AcDbSymbolTableRecord
100
AcDbRegAppTableRecord
  2
AD_DRAW
 70
     0
  0
APPID
  5
827
330
9
100
AcDbSymbolTableRecord
100
AcDbRegAppTableRecord
  2
DESIGNERASSEMBLIES
 70
     0
  0
APPID
  5
82C
330
9
100
AcDbSymbolTableRecord
100
AcDbRegAppTableRecord
  2
ACADM_DIM_EDIT
 70
     0
  0
APPID
  5
82D
330
9
100
AcDbSymbolTableRecord
100
AcDbRegAppTableRecord
  2
AMDT_DM_ADJ
 70
     0
  0
APPID
  5
FE4
330
9
100
AcDbSymbolTableRecord
100
AcDbRegAppTableRecord
  2
GENIUS_GENDTOL_13
 70
     0
  0
APPID
  5
108C
330
9
100
AcDbSymbolTableRecord
100
AcDbRegAppTableRecord
  2
ACAD_DSTYLE_DIMTEXT_FILL
 70
     0
  0
APPID
  5
1201
330
9
100
AcDbSymbolTableRecord
100
AcDbRegAppTableRecord
  2
GEVID1116400677
 70
     0
  0
APPID
  5
1202
330
9
100
AcDbSymbolTableRecord
100
AcDbRegAppTableRecord
  2
GEVDC
 70
     0
  0
APPID
  5
1203
330
9
100
AcDbSymbolTableRecord
100
AcDbRegAppTableRecord
  2
GEVRADREF
 70
     0
  0
APPID
  5
120C
330
9
100
AcDbSymbolTableRecord
100
AcDbRegAppTableRecord
  2
AMG_2DHIDE
 70
     0
  0
APPID
  5
120D
330
9
100
AcDbSymbolTableRecord
100
AcDbRegAppTableRecord
  2
AMG_2DSTRUCT_BTR
 70
     0
  0
APPID
  5
121E
330
9
100
AcDbSymbolTableRecord
100
AcDbRegAppTableRecord
  2
ACADM_2DVIEW_IGN_NOTIFY
 70
     0
  0
APPID
  5
1361
330
9
100
AcDbSymbolTableRecord
100
AcDbRegAppTableRecord
  2
GENIUS_GENREC_14
 70
     0
  0
APPID
  5
1362
330
9
100
AcDbSymbolTableRecord
100
AcDbRegAppTableRecord
  2
GENIUS_GENOBJ-N-REC_13
 70
     0
  0
APPID
  5
1E4E
330
9
100
AcDbSymbolTableRecord
100
AcDbRegAppTableRecord
  2
GENIUS_GENOBJ-N-CEN_13
 70
     0
  0
APPID
  5
1E4F
330
9
100
AcDbSymbolTableRecord
100
AcDbRegAppTableRecord
  2
GENIUS_GENCEN_19
 70
     0
  0
APPID
  5
1E80
330
9
100
AcDbSymbolTableRecord
100
AcDbRegAppTableRecord
  2
GENIUS_GENOLIS_13
 70
     0
  0
APPID
  5
1E81
330
9
100
AcDbSymbolTableRecord
100
AcDbRegAppTableRecord
  2
GENIUS_GENOENT_13
 70
     0
  0
APPID
  5
1E82
330
9
100
AcDbSymbolTableRecord
100
AcDbRegAppTableRecord
  2
GENIUS_GENOBJ-N-CRS_13
 70
     0
  0
APPID
  5
1E83
330
9
100
AcDbSymbolTableRecord
100
AcDbRegAppTableRecord
  2
GENIUS_GENOREF_13
 70
     0
  0
APPID
  5
1EAE
330
9
100
AcDbSymbolTableRecord
100
AcDbRegAppTableRecord
  2
GEVID1116990276
 70
     0
  0
APPID
  5
1EAF
330
9
100
AcDbSymbolTableRecord
100
AcDbRegAppTableRecord
  2
GEVMK
 70
     0
  0
APPID
  5
23FE
330
9
100
AcDbSymbolTableRecord
100
AcDbRegAppTableRecord
  2
GEVID1116990277
 70
     0
  0
APPID
  5
24AE
330
9
100
AcDbSymbolTableRecord
100
AcDbRegAppTableRecord
  2
GEVID1116990278
 70
     0
  0
APPID
  5
2920
330
9
100
AcDbSymbolTableRecord
100
AcDbRegAppTableRecord
  2
GEVID1116990279
 70
     0
  0
ENDTAB
  0
TABLE
  2
DIMSTYLE
  5
A
330
0
100
AcDbSymbolTable
 70
    17
100
AcDbDimStyleTable
 71
     2
340
6B
340
75
  0
DIMSTYLE
105
6B
330
A
100
AcDbSymbolTableRecord
100
AcDbDimStyleTableRecord
  2
AM_ISO
 70
     0
  4
"
 41
3.0
 42
1.0
 43
8.0
 44
1.5
 47
0.1
 48
0.1
 73
     0
 74
     0
 77
     1
 78
     8
 79
     2
140
3.5
141
3.0
143
0.0393701
146
0.71
147
0.8
172
     1
176
   256
177
   256
178
   256
271
     2
272
     2
283
     0
284
     8
340
11
371
    -1
372
    -1
  0
DIMSTYLE
105
6C
330
A
100
AcDbSymbolTableRecord
100
AcDbDimStyleTableRecord
  2
AM_ISO$3
 70
     0
  4
"
 41
3.0
 42
1.0
 43
8.0
 44
1.5
 47
0.1
 48
0.1
 73
     0
 77
     1
 78
     8
 79
     2
140
3.5
141
3.0
143
0.0393701
146
0.71
147
0.8
176
   256
177
   256
178
   256
271
     2
272
     2
283
     0
284
     8
288
     1
289
     0
340
11
371
    -1
372
    -1
  0
DIMSTYLE
105
6D
330
A
100
AcDbSymbolTableRecord
100
AcDbDimStyleTableRecord
  2
AM_ISO$4
 70
     0
  4
"
 41
3.0
 42
1.0
 43
8.0
 44
1.5
 47
0.1
 48
0.1
 73
     0
 77
     1
 78
     8
 79
     2
140
3.5
141
3.0
143
0.0393701
146
0.71
147
0.8
176
   256
177
   256
178
   256
271
     2
272
     2
283
     0
284
     8
288
     1
289
     0
340
11
371
    -1
372
    -1
  0
DIMSTYLE
105
6E
330
A
100
AcDbSymbolTableRecord
100
AcDbDimStyleTableRecord
  2
AM_ISO$6
 70
     0
  4
"
 41
3.0
 42
1.0
 43
8.0
 44
1.5
 47
0.1
 48
0.1
 73
     0
 74
     0
 78
     8
 79
     2
140
3.5
141
3.0
143
0.0393701
146
0.71
147
0.8
172
     1
176
   256
177
   256
178
   256
271
     2
272
     2
283
     0
284
     8
340
11
371
    -1
372
    -1
  0
DIMSTYLE
105
6F
330
A
100
AcDbSymbolTableRecord
100
AcDbDimStyleTableRecord
  2
AM_ISO$7
 70
     0
  4
"
 41
3.0
 42
1.0
 43
8.0
 44
1.5
 47
0.1
 48
0.1
 73
     0
 74
     0
 77
     1
 78
     8
 79
     2
140
5.0
141
3.0
143
0.0393701
146
0.71
147
0.8
172
     1
176
   256
177
   256
178
   256
271
     2
272
     2
283
     0
284
     8
340
11
371
    -1
372
    -1
  0
DIMSTYLE
105
70
330
A
100
AcDbSymbolTableRecord
100
AcDbDimStyleTableRecord
  2
AM_ISO$SF
 70
     0
  4
"
 41
2.5
 42
1.0
 43
10.0
 44
1.0
 47
0.1
 48
0.1
 73
     0
 74
     0
 75
     1
 76
     1
 77
     1
 78
     8
 79
     2
140
3.5
141
0.0
143
0.0393701
146
0.71
147
1.5
172
     1
176
   256
177
   256
178
     2
271
     2
272
     3
274
     4
283
     0
284
     8
340
11
371
    -1
372
    -1
  0
DIMSTYLE
105
75
330
A
100
AcDbSymbolTableRecord
100
AcDbDimStyleTableRecord
  2
AM_ISO$SH
 70
     0
  4
"
 41
2.5
 42
1.0
 43
10.0
 44
1.0
 47
0.1
 48
0.1
 73
     0
 74
     0
 75
     1
 76
     1
 77
     1
 78
     8
 79
     2
140
3.5
141
0.0
143
0.0393701
144
2.0
146
0.71
147
1.5
172
     1
173
     1
176
   256
177
   256
178
     2
271
     2
272
     3
274
     4
283
     0
284
     8
340
11
343
71
371
    -1
372
    -1
  0
DIMSTYLE
105
AAA
102
{ACAD_REACTORS
330
328D
330
328E
330
328F
330
33AA
330
3408
330
33FF
330
3400
330
3401
330
3402
330
3403
330
3404
330
3405
330
3406
330
3407
102
}
330
A
100
AcDbSymbolTableRecord
100
AcDbDimStyleTableRecord
  2
AM_ISO$0
 70
     0
  4
"
 41
3.0
 42
1.0
 43
8.0
 44
1.5
 47
0.1
 48
0.1000000001
 73
     0
 74
     0
 77
     1
 78
     8
 79
     2
140
3.0
141
0.0
143
0.0393701
146
0.71
147
1.0
172
     1
176
   256
177
   256
178
   256
271
     2
272
     2
283
     2
284
     8
340
11
371
    -1
372
    -1
  0
DIMSTYLE
105
165F
330
A
100
AcDbSymbolTableRecord
100
AcDbDimStyleTableRecord
  2
AM_ANSI
 70
     0
  4
mm
 41
0.1
 42
0.05
 43
0.5
 44
0.1
 47
0.1
 48
0.1
 78
     7
 79
     2
140
0.12
141
0.0
146
0.71
147
0.06
176
   256
177
   256
178
     2
274
     4
284
     7
340
11
371
    -1
372
    -1
  0
DIMSTYLE
105
1660
330
A
100
AcDbSymbolTableRecord
100
AcDbDimStyleTableRecord
  2
AM_ANSI$3
 70
     0
  4
mm
 41
0.1
 42
0.05
 43
0.5
 44
0.1
 47
0.1
 48
0.1
 78
     7
 79
     2
140
0.12
141
0.0
146
0.71
147
0.06
176
   256
177
   256
178
     2
274
     4
284
     7
288
     1
289
     0
340
11
371
    -1
372
    -1
  0
DIMSTYLE
105
1661
330
A
100
AcDbSymbolTableRecord
100
AcDbDimStyleTableRecord
  2
AM_ANSI$4
 70
     0
  4
mm
 41
0.1
 42
0.05
 43
0.5
 44
0.1
 47
0.1
 48
0.1
 78
     7
 79
     2
140
0.12
141
0.0
146
0.71
147
0.06
176
   256
177
   256
178
     2
274
     4
284
     7
288
     1
289
     0
340
11
371
    -1
372
    -1
  0
DIMSTYLE
105
1662
330
A
100
AcDbSymbolTableRecord
100
AcDbDimStyleTableRecord
  2
AM_ANSI$7
 70
     0
  4
mm
 41
0.1
 42
0.05
 43
0.5
 44
0.1
 47
0.1
 48
0.1
 78
     7
 79
     2
140
0.24
141
0.0
146
0.71
147
0.06
176
   256
177
   256
178
     2
274
     4
284
     7
340
11
371
    -1
372
    -1
  0
DIMSTYLE
105
1663
330
A
100
AcDbSymbolTableRecord
100
AcDbDimStyleTableRecord
  2
AM_ANSI$SF
 70
     0
  4
mm
 41
0.1
 42
0.05
 43
0.5
 44
0.1
 47
0.1
 48
0.1
 75
     1
 76
     1
 78
     7
 79
     2
140
0.12
141
0.0
146
0.71
147
0.06
176
   256
177
   256
178
     2
274
     4
284
     7
340
11
371
    -1
372
    -1
  0
DIMSTYLE
105
1664
330
A
100
AcDbSymbolTableRecord
100
AcDbDimStyleTableRecord
  2
AM_ANSI$SH
 70
     0
  4
mm
 41
0.1
 42
0.05
 43
0.5
 44
0.1
 47
0.1
 48
0.1
 75
     1
 76
     1
 78
     7
 79
     2
140
0.12
141
0.0
146
0.71
147
0.06
173
     1
176
   256
177
   256
178
     2
274
     4
284
     7
340
11
341
71
343
71
371
    -1
372
    -1
  0
DIMSTYLE
105
18DA
330
A
100
AcDbSymbolTableRecord
100
AcDbDimStyleTableRecord
  2
STANDARD
 70
     0
 41
2.5
 42
1.0
 43
2.0
 44
1.0
 73
     0
 74
     0
 77
     3
 78
     8
140
3.0
141
-3.0
146
0.6
147
0.8
172
     1
176
     5
177
     5
178
     5
271
     2
272
     8
284
     8
340
1360
  0
ENDTAB
  0
TABLE
  2
BLOCK_RECORD
  5
1
330
0
100
AcDbSymbolTable
 70
    23
  0
BLOCK_RECORD
  5
1F
102
{ACAD_XDICTIONARY
360
7D
102
}
330
1
100
AcDbSymbolTableRecord
100
AcDbBlockTableRecord
  2
*Model_Space
340
22
  0
BLOCK_RECORD
  5
1B
330
1
100
AcDbSymbolTableRecord
100
AcDbBlockTableRecord
  2
*Paper_Space
340
1E
  0
BLOCK_RECORD
  5
23
330
1
100
AcDbSymbolTableRecord
100
AcDbBlockTableRecord
  2
*Paper_Space0
340
26
  0
BLOCK_RECORD
  5
71
330
1
100
AcDbSymbolTableRecord
100
AcDbBlockTableRecord
  2
GENAXEH
340
0
  0
BLOCK_RECORD
  5
1222
330
1
100
AcDbSymbolTableRecord
100
AcDbBlockTableRecord
  2
*U4
340
0
  0
BLOCK_RECORD
  5
3292
330
1
100
AcDbSymbolTableRecord
100
AcDbBlockTableRecord
  2
*D5
340
0
  0
BLOCK_RECORD
  5
329E
330
1
100
AcDbSymbolTableRecord
100
AcDbBlockTableRecord
  2
*D6
340
0
  0
BLOCK_RECORD
  5
32AA
330
1
100
AcDbSymbolTableRecord
100
AcDbBlockTableRecord
  2
*D7
340
0
  0
BLOCK_RECORD
  5
33AB
330
1
100
AcDbSymbolTableRecord
100
AcDbBlockTableRecord
  2
*D8
340
0
  0
BLOCK_RECORD
  5
340B
330
1
100
AcDbSymbolTableRecord
100
AcDbBlockTableRecord
  2
*D9
340
0
  0
BLOCK_RECORD
  5
3417
330
1
100
AcDbSymbolTableRecord
100
AcDbBlockTableRecord
  2
*D10
340
0
  0
BLOCK_RECORD
  5
3423
330
1
100
AcDbSymbolTableRecord
100
AcDbBlockTableRecord
  2
*D11
340
0
  0
BLOCK_RECORD
  5
342F
330
1
100
AcDbSymbolTableRecord
100
AcDbBlockTableRecord
  2
*D12
340
0
  0
BLOCK_RECORD
  5
343D
330
1
100
AcDbSymbolTableRecord
100
AcDbBlockTableRecord
  2
*D13
340
0
  0
BLOCK_RECORD
  5
3449
330
1
100
AcDbSymbolTableRecord
100
AcDbBlockTableRecord
  2
*D14
340
0
  0
BLOCK_RECORD
  5
3455
330
1
100
AcDbSymbolTableRecord
100
AcDbBlockTableRecord
  2
*D15
340
0
  0
BLOCK_RECORD
  5
3461
330
1
100
AcDbSymbolTableRecord
100
AcDbBlockTableRecord
  2
*D16
340
0
  0
BLOCK_RECORD
  5
346D
330
1
100
AcDbSymbolTableRecord
100
AcDbBlockTableRecord
  2
*D17
340
0
  0
BLOCK_RECORD
  5
3479
330
1
100
AcDbSymbolTableRecord
100
AcDbBlockTableRecord
  2
*D18
340
0
  0
BLOCK_RECORD
  5
39E8
330
1
100
AcDbSymbolTableRecord
100
AcDbBlockTableRecord
  2
*S21
340
0
  0
BLOCK_RECORD
  5
39F0
330
1
100
AcDbSymbolTableRecord
100
AcDbBlockTableRecord
  2
*S22
340
0
  0
ENDTAB
  0
ENDSEC
  0
SECTION
  2
BLOCKS
  0
BLOCK
  5
20
330
1F
100
AcDbEntity
  8
0
100
AcDbBlockBegin
  2
*Model_Space
 70
     0
 10
0.0
 20
0.0
 30
0.0
  3
*Model_Space
  1

  0
ENDBLK
  5
21
330
1F
100
AcDbEntity
  8
0
100
AcDbBlockEnd
  0
BLOCK
  5
1C
330
1B
100
AcDbEntity
 67
     1
  8
0
100
AcDbBlockBegin
  2
*Paper_Space
 70
     0
 10
0.0
 20
0.0
 30
0.0
  3
*Paper_Space
  1

  0
ENDBLK
  5
1D
330
1B
100
AcDbEntity
 67
     1
  8
0
100
AcDbBlockEnd
  0
BLOCK
  5
24
330
23
100
AcDbEntity
  8
0
100
AcDbBlockBegin
  2
*Paper_Space0
 70
     0
 10
0.0
 20
0.0
 30
0.0
  3
*Paper_Space0
  1

  0
ENDBLK
  5
25
330
23
100
AcDbEntity
  8
0
100
AcDbBlockEnd
  0
BLOCK
  5
73
330
71
100
AcDbEntity
  8
0
100
AcDbBlockBegin
  2
GENAXEH
 70
     0
 10
0.0
 20
0.0
 30
0.0
  3
GENAXEH
  1

  0
LINE
  5
72
330
71
100
AcDbEntity
  8
0
100
AcDbLine
 10
-1.0
 20
0.0
 30
0.0
 11
1.0
 21
0.0
 31
0.0
  0
ENDBLK
  5
74
330
71
100
AcDbEntity
  8
0
100
AcDbBlockEnd
  0
BLOCK
  5
1223
330
1222
100
AcDbEntity
  8
0
100
AcDbBlockBegin
  2
*U4
 70
     1
 10
0.0
 20
0.0
 30
0.0
  3
*U4
  1

  0
ENDBLK
  5
1224
330
1222
100
AcDbEntity
  8
0
100
AcDbBlockEnd
  0
BLOCK
  5
329C
330
3292
100
AcDbEntity
  8
0
100
AcDbBlockBegin
  2
*D5
 70
     1
 10
0.0
 20
0.0
 30
0.0
  3
*D5
  1

  0
LINE
  5
363F
330
3292
100
AcDbEntity
  8
AM_5
100
AcDbLine
 10
823.132876216102
 20
373.559078960701
 30
0.0
 11
861.1604065328355
 21
373.559078960701
 31
0.0
  0
LINE
  5
3640
330
3292
100
AcDbEntity
  8
AM_5
100
AcDbLine
 10
823.1328762161018
 20
345.5590789607009
 30
0.0
 11
861.1604065328355
 21
345.5590789607009
 31
0.0
  0
LINE
  5
3641
330
3292
100
AcDbEntity
  8
AM_5
100
AcDbLine
 10
859.6604065328355
 20
370.5590789607009
 30
0.0
 11
859.6604065328355
 21
348.559078960701
 31
0.0
  0
SOLID
  5
3642
330
3292
100
AcDbEntity
  8
AM_5
100
AcDbTrace
 10
859.1604065328354
 20
370.5590789607009
 30
0.0
 11
860.1604065328356
 21
370.5590789607009
 31
0.0
 12
859.6604065328355
 22
373.559078960701
 32
0.0
 13
859.6604065328355
 23
373.559078960701
 33
0.0
  0
SOLID
  5
3643
330
3292
100
AcDbEntity
  8
AM_5
100
AcDbTrace
 10
859.1604065328354
 20
348.559078960701
 30
0.0
 11
860.1604065328356
 21
348.559078960701
 31
0.0
 12
859.6604065328355
 22
345.5590789607009
 32
0.0
 13
859.6604065328355
 23
345.5590789607009
 33
0.0
  0
MTEXT
  5
3644
330
3292
100
AcDbEntity
  8
AM_5
100
AcDbMText
 10
857.1601112572448
 20
360.0214077278241
 30
0.0
 40
3.0
 41
0.0
 71
     5
 72
     1
  1
\A2;28
 11
0.0000000000000001
 21
1.0
 31
0.0
 73
     1
 44
1.0
1001
ACAD
1000
MTEXTBEGIN
1070
    73
1070
     1
1070
    44
1040
1.0
1070
    74
1070
     0
1000
MTEXTEND
  0
POINT
  5
3645
330
3292
100
AcDbEntity
  8
Defpoints
 62
     0
100
AcDbPoint
 10
822.132876216102
 20
373.559078960701
 30
0.0
  0
POINT
  5
3646
330
3292
100
AcDbEntity
  8
Defpoints
 62
     0
100
AcDbPoint
 10
822.1328762161018
 20
345.5590789607009
 30
0.0
  0
POINT
  5
3647
330
3292
100
AcDbEntity
  8
Defpoints
 62
     0
100
AcDbPoint
 10
859.6604065328355
 20
345.5590789607009
 30
0.0
  0
ENDBLK
  5
329D
330
3292
100
AcDbEntity
  8
0
100
AcDbBlockEnd
  0
BLOCK
  5
32A8
330
329E
100
AcDbEntity
  8
0
100
AcDbBlockBegin
  2
*D6
 70
     1
 10
0.0
 20
0.0
 30
0.0
  3
*D6
  1

  0
LINE
  5
3648
330
329E
100
AcDbEntity
  8
AM_5
100
AcDbLine
 10
847.2604065328361
 20
389.0590789607007
 30
0.0
 11
869.1604065328354
 21
389.0590789607007
 31
0.0
  0
LINE
  5
3649
330
329E
100
AcDbEntity
  8
AM_5
100
AcDbLine
 10
847.2604065328352
 20
330.0590789607007
 30
0.0
 11
869.1604065328354
 21
330.0590789607007
 31
0.0
  0
LINE
  5
364A
330
329E
100
AcDbEntity
  8
AM_5
100
AcDbLine
 10
867.6604065328353
 20
386.0590789607007
 30
0.0
 11
867.6604065328353
 21
333.0590789607007
 31
0.0
  0
SOLID
  5
364B
330
329E
100
AcDbEntity
  8
AM_5
100
AcDbTrace
 10
867.1604065328354
 20
386.0590789607007
 30
0.0
 11
868.1604065328354
 21
386.0590789607007
 31
0.0
 12
867.6604065328353
 22
389.0590789607007
 32
0.0
 13
867.6604065328353
 23
389.0590789607007
 33
0.0
  0
SOLID
  5
364C
330
329E
100
AcDbEntity
  8
AM_5
100
AcDbTrace
 10
867.1604065328354
 20
333.0590789607007
 30
0.0
 11
868.1604065328354
 21
333.0590789607007
 31
0.0
 12
867.6604065328353
 22
330.0590789607007
 32
0.0
 13
867.6604065328353
 23
330.0590789607007
 33
0.0
  0
MTEXT
  5
364D
330
329E
100
AcDbEntity
  8
AM_5
100
AcDbMText
 10
865.1604065328353
 20
359.5590789607009
 30
0.0
 40
3.0
 41
0.0
 71
     5
 72
     1
  1
\A2;59
 11
0.0000000000000001
 21
1.0
 31
0.0
 73
     1
 44
1.0
1001
ACAD
1000
MTEXTBEGIN
1070
    73
1070
     1
1070
    44
1040
1.0
1070
    74
1070
     0
1000
MTEXTEND
  0
POINT
  5
364E
330
329E
100
AcDbEntity
  8
Defpoints
 62
     0
100
AcDbPoint
 10
846.2604065328362
 20
389.0590789607007
 30
0.0
  0
POINT
  5
364F
330
329E
100
AcDbEntity
  8
Defpoints
 62
     0
100
AcDbPoint
 10
846.2604065328353
 20
330.0590789607007
 30
0.0
  0
POINT
  5
3650
330
329E
100
AcDbEntity
  8
Defpoints
 62
     0
100
AcDbPoint
 10
867.6604065328353
 20
330.0590789607007
 30
0.0
  0
ENDBLK
  5
32A9
330
329E
100
AcDbEntity
  8
0
100
AcDbBlockEnd
  0
BLOCK
  5
32B4
330
32AA
100
AcDbEntity
  8
0
100
AcDbBlockBegin
  2
*D7
 70
     1
 10
0.0
 20
0.0
 30
0.0
  3
*D7
  1

  0
LINE
  5
3651
330
32AA
100
AcDbEntity
  8
AM_5
100
AcDbLine
 10
844.6604065328354
 20
399.5590789607009
 30
0.0
 11
877.1604065328354
 21
399.5590789607009
 31
0.0
  0
LINE
  5
3652
330
32AA
100
AcDbEntity
  8
AM_5
100
AcDbLine
 10
844.6604065328354
 20
319.559078960701
 30
0.0
 11
877.1604065328354
 21
319.559078960701
 31
0.0
  0
LINE
  5
3653
330
32AA
100
AcDbEntity
  8
AM_5
100
AcDbLine
 10
875.6604065328353
 20
396.559078960701
 30
0.0
 11
875.6604065328353
 21
322.5590789607009
 31
0.0
  0
SOLID
  5
3654
330
32AA
100
AcDbEntity
  8
AM_5
100
AcDbTrace
 10
875.1604065328354
 20
396.559078960701
 30
0.0
 11
876.1604065328354
 21
396.559078960701
 31
0.0
 12
875.6604065328353
 22
399.5590789607009
 32
0.0
 13
875.6604065328353
 23
399.5590789607009
 33
0.0
  0
SOLID
  5
3655
330
32AA
100
AcDbEntity
  8
AM_5
100
AcDbTrace
 10
875.1604065328354
 20
322.5590789607009
 30
0.0
 11
876.1604065328354
 21
322.5590789607009
 31
0.0
 12
875.6604065328353
 22
319.559078960701
 32
0.0
 13
875.6604065328353
 23
319.559078960701
 33
0.0
  0
MTEXT
  5
3656
330
32AA
100
AcDbEntity
  8
AM_5
100
AcDbMText
 10
873.1604065328353
 20
359.5590789607011
 30
0.0
 40
3.0
 41
0.0
 71
     5
 72
     1
  1
\A2;{\Famgdt|c136;o}80
 11
0.0000000000000001
 21
1.0
 31
0.0
 73
     1
 44
1.0
1001
ACAD
1000
MTEXTBEGIN
1070
    73
1070
     1
1070
    44
1040
1.0
1070
    74
1070
     0
1000
MTEXTEND
  0
POINT
  5
3657
330
32AA
100
AcDbEntity
  8
Defpoints
 62
     0
100
AcDbPoint
 10
843.6604065328353
 20
399.5590789607009
 30
0.0
  0
POINT
  5
3658
330
32AA
100
AcDbEntity
  8
Defpoints
 62
     0
100
AcDbPoint
 10
843.6604065328353
 20
319.559078960701
 30
0.0
  0
POINT
  5
3659
330
32AA
100
AcDbEntity
  8
Defpoints
 62
     0
100
AcDbPoint
 10
875.6604065328353
 20
319.559078960701
 30
0.0
  0
ENDBLK
  5
32B5
330
32AA
100
AcDbEntity
  8
0
100
AcDbBlockEnd
  0
BLOCK
  5
33B5
330
33AB
100
AcDbEntity
  8
0
100
AcDbBlockBegin
  2
*D8
 70
     1
 10
0.0
 20
0.0
 30
0.0
  3
*D8
  1

  0
LINE
  5
365A
330
33AB
100
AcDbEntity
  8
AM_5
100
AcDbLine
 10
743.6604065328354
 20
358.559078960701
 30
0.0
 11
743.6604065328354
 21
307.7590789607008
 31
0.0
  0
LINE
  5
365B
330
33AB
100
AcDbEntity
  8
AM_5
100
AcDbLine
 10
809.6604065328353
 20
316.9494899196048
 30
0.0
 11
809.6604065328353
 21
307.7590789607008
 31
0.0
  0
LINE
  5
365C
330
33AB
100
AcDbEntity
  8
AM_5
100
AcDbLine
 10
746.6604065328354
 20
309.2590789607009
 30
0.0
 11
806.6604065328354
 21
309.2590789607009
 31
0.0
  0
SOLID
  5
365D
330
33AB
100
AcDbEntity
  8
AM_5
100
AcDbTrace
 10
746.6604065328354
 20
309.7590789607008
 30
0.0
 11
746.6604065328354
 21
308.7590789607008
 31
0.0
 12
743.6604065328354
 22
309.2590789607009
 32
0.0
 13
743.6604065328354
 23
309.2590789607009
 33
0.0
  0
SOLID
  5
365E
330
33AB
100
AcDbEntity
  8
AM_5
100
AcDbTrace
 10
806.6604065328354
 20
309.7590789607008
 30
0.0
 11
806.6604065328354
 21
308.7590789607008
 31
0.0
 12
809.6604065328353
 22
309.2590789607009
 32
0.0
 13
809.6604065328353
 23
309.2590789607009
 33
0.0
  0
MTEXT
  5
365F
330
33AB
100
AcDbEntity
  8
AM_5
100
AcDbMText
 10
776.6604065328354
 20
311.7590789607008
 30
0.0
 40
3.0
 41
0.0
 71
     5
 72
     1
  1
\A2;66
 73
     1
 44
1.0
1001
ACAD
1000
MTEXTBEGIN
1070
    73
1070
     1
1070
    44
1040
1.0
1070
    74
1070
     0
1000
MTEXTEND
  0
POINT
  5
3660
330
33AB
100
AcDbEntity
  8
Defpoints
 62
     0
100
AcDbPoint
 10
743.6604065328354
 20
359.559078960701
 30
0.0
  0
POINT
  5
3661
330
33AB
100
AcDbEntity
  8
Defpoints
 62
     0
100
AcDbPoint
 10
809.6604065328353
 20
317.9494899196048
 30
0.0
  0
POINT
  5
3662
330
33AB
100
AcDbEntity
  8
Defpoints
 62
     0
100
AcDbPoint
 10
809.6604065328353
 20
309.2590789607009
 30
0.0
  0
ENDBLK
  5
33B6
330
33AB
100
AcDbEntity
  8
0
100
AcDbBlockEnd
  0
BLOCK
  5
3415
330
340B
100
AcDbEntity
  8
0
100
AcDbBlockBegin
  2
*D9
 70
     1
 10
0.0
 20
0.0
 30
0.0
  3
*D9
  1

  0
LINE
  5
36B6
330
340B
100
AcDbEntity
  8
AM_5
100
AcDbLine
 10
789.6604065328351
 20
137.2947362399769
 30
0.0
 11
789.6604065328351
 21
125.7947362399771
 31
0.0
  0
LINE
  5
36B7
330
340B
100
AcDbEntity
  8
AM_5
100
AcDbLine
 10
829.6604065328351
 20
137.2947362399769
 30
0.0
 11
829.6604065328351
 21
125.7947362399771
 31
0.0
  0
LINE
  5
36B8
330
340B
100
AcDbEntity
  8
AM_5
100
AcDbLine
 10
792.6604065328351
 20
127.294736239977
 30
0.0
 11
826.6604065328351
 21
127.294736239977
 31
0.0
  0
SOLID
  5
36B9
330
340B
100
AcDbEntity
  8
AM_5
100
AcDbTrace
 10
792.6604065328351
 20
127.7947362399771
 30
0.0
 11
792.6604065328351
 21
126.7947362399771
 31
0.0
 12
789.6604065328351
 22
127.294736239977
 32
0.0
 13
789.6604065328351
 23
127.294736239977
 33
0.0
  0
SOLID
  5
36BA
330
340B
100
AcDbEntity
  8
AM_5
100
AcDbTrace
 10
826.6604065328351
 20
127.7947362399771
 30
0.0
 11
826.6604065328351
 21
126.7947362399771
 31
0.0
 12
829.6604065328351
 22
127.294736239977
 32
0.0
 13
829.6604065328351
 23
127.294736239977
 33
0.0
  0
MTEXT
  5
36BB
330
340B
100
AcDbEntity
  8
AM_5
100
AcDbMText
 10
809.6604065328351
 20
129.794736239977
 30
0.0
 40
3.0
 41
0.0
 71
     5
 72
     1
  1
\A2;%%c40
 73
     1
 44
1.0
1001
ACAD
1000
MTEXTBEGIN
1070
    73
1070
     1
1070
    44
1040
1.0
1070
    74
1070
     0
1000
MTEXTEND
  0
POINT
  5
36BC
330
340B
100
AcDbEntity
  8
Defpoints
 62
     0
100
AcDbPoint
 10
789.6604065328351
 20
138.2947362399769
 30
0.0
  0
POINT
  5
36BD
330
340B
100
AcDbEntity
  8
Defpoints
 62
     0
100
AcDbPoint
 10
829.6604065328351
 20
138.2947362399769
 30
0.0
  0
POINT
  5
36BE
330
340B
100
AcDbEntity
  8
Defpoints
 62
     0
100
AcDbPoint
 10
829.6604065328351
 20
127.294736239977
 30
0.0
  0
ENDBLK
  5
3416
330
340B
100
AcDbEntity
  8
0
100
AcDbBlockEnd
  0
BLOCK
  5
3421
330
3417
100
AcDbEntity
  8
0
100
AcDbBlockBegin
  2
*D10
 70
     1
 10
0.0
 20
0.0
 30
0.0
  3
*D10
  1

  0
LINE
  5
3663
330
3417
100
AcDbEntity
  8
AM_5
100
AcDbLine
 10
850.6604065328351
 20
140.294736239977
 30
0.0
 11
861.7832135507493
 21
140.294736239977
 31
0.0
  0
LINE
  5
3664
330
3417
100
AcDbEntity
  8
AM_5
100
AcDbLine
 10
822.3104065328353
 20
155.2947362399769
 30
0.0
 11
861.7832135507493
 21
155.2947362399768
 31
0.0
  0
LINE
  5
3665
330
3417
100
AcDbEntity
  8
AM_5
100
AcDbLine
 10
860.2832135507492
 20
143.294736239977
 30
0.0
 11
860.2832135507492
 21
152.2947362399768
 31
0.0
  0
SOLID
  5
3666
330
3417
100
AcDbEntity
  8
AM_5
100
AcDbTrace
 10
859.7832135507491
 20
143.294736239977
 30
0.0
 11
860.7832135507491
 21
143.294736239977
 31
0.0
 12
860.2832135507492
 22
140.294736239977
 32
0.0
 13
860.2832135507492
 23
140.294736239977
 33
0.0
  0
SOLID
  5
3667
330
3417
100
AcDbEntity
  8
AM_5
100
AcDbTrace
 10
859.7832135507491
 20
152.2947362399768
 30
0.0
 11
860.7832135507491
 21
152.2947362399768
 31
0.0
 12
860.2832135507492
 22
155.2947362399768
 32
0.0
 13
860.2832135507492
 23
155.2947362399768
 33
0.0
  0
MTEXT
  5
3668
330
3417
100
AcDbEntity
  8
AM_5
100
AcDbMText
 10
857.7832135507492
 20
147.794736239977
 30
0.0
 40
3.0
 41
0.0
 71
     5
 72
     1
  1
\A2;15
 11
0.0000000000000001
 21
1.0
 31
0.0
 73
     1
 44
1.0
1001
ACAD
1000
MTEXTBEGIN
1070
    73
1070
     1
1070
    44
1040
1.0
1070
    74
1070
     0
1000
MTEXTEND
  0
POINT
  5
3669
330
3417
100
AcDbEntity
  8
Defpoints
 62
     0
100
AcDbPoint
 10
849.6604065328352
 20
140.294736239977
 30
0.0
  0
POINT
  5
366A
330
3417
100
AcDbEntity
  8
Defpoints
 62
     0
100
AcDbPoint
 10
821.3104065328352
 20
155.2947362399769
 30
0.0
  0
POINT
  5
366B
330
3417
100
AcDbEntity
  8
Defpoints
 62
     0
100
AcDbPoint
 10
860.2832135507492
 20
155.2947362399768
 30
0.0
  0
ENDBLK
  5
3422
330
3417
100
AcDbEntity
  8
0
100
AcDbBlockEnd
  0
BLOCK
  5
342D
330
3423
100
AcDbEntity
  8
0
100
AcDbBlockBegin
  2
*D11
 70
     1
 10
0.0
 20
0.0
 30
0.0
  3
*D11
  1

  0
LINE
  5
366C
330
3423
100
AcDbEntity
  8
AM_5
100
AcDbLine
 10
850.6604065328351
 20
140.2947362399769
 30
0.0
 11
869.7832135507493
 21
140.2947362399769
 31
0.0
  0
LINE
  5
366D
330
3423
100
AcDbEntity
  8
AM_5
100
AcDbLine
 10
850.9604065328353
 20
170.2947362399769
 30
0.0
 11
869.7832135507493
 21
170.2947362399769
 31
0.0
  0
LINE
  5
366E
330
3423
100
AcDbEntity
  8
AM_5
100
AcDbLine
 10
868.2832135507492
 20
143.2947362399769
 30
0.0
 11
868.2832135507492
 21
167.2947362399769
 31
0.0
  0
SOLID
  5
366F
330
3423
100
AcDbEntity
  8
AM_5
100
AcDbTrace
 10
867.7832135507491
 20
143.2947362399769
 30
0.0
 11
868.7832135507491
 21
143.2947362399769
 31
0.0
 12
868.2832135507492
 22
140.2947362399769
 32
0.0
 13
868.2832135507492
 23
140.2947362399769
 33
0.0
  0
SOLID
  5
3670
330
3423
100
AcDbEntity
  8
AM_5
100
AcDbTrace
 10
867.7832135507491
 20
167.2947362399769
 30
0.0
 11
868.7832135507491
 21
167.2947362399769
 31
0.0
 12
868.2832135507492
 22
170.2947362399769
 32
0.0
 13
868.2832135507492
 23
170.2947362399769
 33
0.0
  0
MTEXT
  5
3671
330
3423
100
AcDbEntity
  8
AM_5
100
AcDbMText
 10
865.7832135507492
 20
155.2947362399771
 30
0.0
 40
3.0
 41
0.0
 71
     5
 72
     1
  1
\A2;30
 11
0.0000000000000001
 21
1.0
 31
0.0
 73
     1
 44
1.0
1001
ACAD
1000
MTEXTBEGIN
1070
    73
1070
     1
1070
    44
1040
1.0
1070
    74
1070
     0
1000
MTEXTEND
  0
POINT
  5
3672
330
3423
100
AcDbEntity
  8
Defpoints
 62
     0
100
AcDbPoint
 10
849.6604065328352
 20
140.2947362399769
 30
0.0
  0
POINT
  5
3673
330
3423
100
AcDbEntity
  8
Defpoints
 62
     0
100
AcDbPoint
 10
849.9604065328353
 20
170.2947362399769
 30
0.0
  0
POINT
  5
3674
330
3423
100
AcDbEntity
  8
Defpoints
 62
     0
100
AcDbPoint
 10
868.2832135507492
 20
170.2947362399769
 30
0.0
  0
ENDBLK
  5
342E
330
3423
100
AcDbEntity
  8
0
100
AcDbBlockEnd
  0
BLOCK
  5
343B
330
342F
100
AcDbEntity
  8
0
100
AcDbBlockBegin
  2
*D12
 70
     1
 10
0.0
 20
0.0
 30
0.0
  3
*D12
  1

  0
LINE
  5
3675
330
342F
100
AcDbEntity
  8
AM_5
100
AcDbLine
 10
836.9655271767946
 20
137.294736239977
 30
0.0
 11
861.7832135507493
 21
137.294736239977
 31
0.0
  0
LINE
  5
3676
330
342F
100
AcDbEntity
  8
AM_5
100
AcDbLine
 10
850.6604065328351
 20
140.294736239977
 30
0.0
 11
861.7832135507493
 21
140.294736239977
 31
0.0
  0
LINE
  5
3677
330
342F
100
AcDbEntity
  8
AM_5
100
AcDbLine
 10
860.2832135507492
 20
143.294736239977
 30
0.0
 11
860.2832135507492
 21
146.294736239977
 31
0.0
  0
LINE
  5
3678
330
342F
100
AcDbEntity
  8
AM_5
100
AcDbLine
 10
860.2832135507492
 20
134.294736239977
 30
0.0
 11
860.2832135507492
 21
125.2704721712652
 31
0.0
  0
LINE
  5
3679
330
342F
100
AcDbEntity
  8
AM_5
100
AcDbLine
 10
860.2832135507492
 20
140.294736239977
 30
0.0
 11
860.2832135507492
 21
137.294736239977
 31
0.0
  0
SOLID
  5
367A
330
342F
100
AcDbEntity
  8
AM_5
100
AcDbTrace
 10
859.7832135507491
 20
143.294736239977
 30
0.0
 11
860.7832135507491
 21
143.294736239977
 31
0.0
 12
860.2832135507492
 22
140.294736239977
 32
0.0
 13
860.2832135507492
 23
140.294736239977
 33
0.0
  0
SOLID
  5
367B
330
342F
100
AcDbEntity
  8
AM_5
100
AcDbTrace
 10
859.7832135507491
 20
134.294736239977
 30
0.0
 11
860.7832135507491
 21
134.294736239977
 31
0.0
 12
860.2832135507492
 22
137.294736239977
 32
0.0
 13
860.2832135507492
 23
137.294736239977
 33
0.0
  0
MTEXT
  5
367C
330
342F
100
AcDbEntity
  8
AM_5
100
AcDbMText
 10
857.7832135507492
 20
126.9326042056212
 30
0.0
 40
3.0
 41
0.0
 71
     5
 72
     1
  1
\A2;3
 11
0.0000000000000001
 21
1.0
 31
0.0
 73
     1
 44
1.0
1001
ACAD
1000
MTEXTBEGIN
1070
    73
1070
     1
1070
    44
1040
1.0
1070
    74
1070
     0
1000
MTEXTEND
  0
POINT
  5
367D
330
342F
100
AcDbEntity
  8
Defpoints
 62
     0
100
AcDbPoint
 10
835.9655271767946
 20
137.294736239977
 30
0.0
  0
POINT
  5
367E
330
342F
100
AcDbEntity
  8
Defpoints
 62
     0
100
AcDbPoint
 10
849.6604065328352
 20
140.294736239977
 30
0.0
  0
POINT
  5
367F
330
342F
100
AcDbEntity
  8
Defpoints
 62
     0
100
AcDbPoint
 10
860.2832135507492
 20
140.294736239977
 30
0.0
  0
ENDBLK
  5
343C
330
342F
100
AcDbEntity
  8
0
100
AcDbBlockEnd
  0
BLOCK
  5
3447
330
343D
100
AcDbEntity
  8
0
100
AcDbBlockBegin
  2
*D13
 70
     1
 10
0.0
 20
0.0
 30
0.0
  3
*D13
  1

  0
LINE
  5
3993
330
343D
100
AcDbEntity
  8
AM_5
100
AcDbLine
 10
837.6560398042409
 20
137.294736239977
 30
0.0
 11
885.7832135507495
 21
137.294736239977
 31
0.0
  0
LINE
  5
3994
330
343D
100
AcDbEntity
  8
AM_5
100
AcDbLine
 10
828.4104065328353
 20
283.2947362399767
 30
0.0
 11
885.7832135507496
 21
283.2947362399767
 31
0.0
  0
LINE
  5
3995
330
343D
100
AcDbEntity
  8
AM_5
100
AcDbLine
 10
884.2832135507496
 20
140.294736239977
 30
0.0
 11
884.2832135507496
 21
280.2947362399767
 31
0.0
  0
SOLID
  5
3996
330
343D
100
AcDbEntity
  8
AM_5
100
AcDbTrace
 10
883.7832135507495
 20
140.294736239977
 30
0.0
 11
884.7832135507495
 21
140.294736239977
 31
0.0
 12
884.2832135507496
 22
137.294736239977
 32
0.0
 13
884.2832135507496
 23
137.294736239977
 33
0.0
  0
SOLID
  5
3997
330
343D
100
AcDbEntity
  8
AM_5
100
AcDbTrace
 10
883.7832135507497
 20
280.2947362399767
 30
0.0
 11
884.7832135507497
 21
280.2947362399767
 31
0.0
 12
884.2832135507496
 22
283.2947362399767
 32
0.0
 13
884.2832135507496
 23
283.2947362399767
 33
0.0
  0
MTEXT
  5
3998
330
343D
100
AcDbEntity
  8
AM_5
100
AcDbMText
 10
881.3538480206881
 20
210.294736239977
 30
0.0
 40
3.0
 41
0.0
 71
     5
 72
     1
  1
\A2;108+length
 11
0.0000000000000001
 21
1.0
 31
0.0
 73
     1
 44
1.0
1001
ACAD
1000
MTEXTBEGIN
1070
    73
1070
     1
1070
    44
1040
1.0
1070
    74
1070
     0
1000
MTEXTEND
  0
POINT
  5
3999
330
343D
100
AcDbEntity
  8
Defpoints
 62
     0
100
AcDbPoint
 10
836.6560398042409
 20
137.294736239977
 30
0.0
  0
POINT
  5
399A
330
343D
100
AcDbEntity
  8
Defpoints
 62
     0
100
AcDbPoint
 10
827.4104065328353
 20
283.2947362399767
 30
0.0
  0
POINT
  5
399B
330
343D
100
AcDbEntity
  8
Defpoints
 62
     0
100
AcDbPoint
 10
884.2832135507496
 20
283.2947362399767
 30
0.0
  0
ENDBLK
  5
3448
330
343D
100
AcDbEntity
  8
0
100
AcDbBlockEnd
  0
BLOCK
  5
3453
330
3449
100
AcDbEntity
  8
0
100
AcDbBlockBegin
  2
*D14
 70
     1
 10
0.0
 20
0.0
 30
0.0
  3
*D14
  1

  0
LINE
  5
3689
330
3449
100
AcDbEntity
  8
AM_5
100
AcDbLine
 10
850.6604065328351
 20
262.294736239977
 30
0.0
 11
869.7832135507489
 21
262.294736239977
 31
0.0
  0
LINE
  5
368A
330
3449
100
AcDbEntity
  8
AM_5
100
AcDbLine
 10
829.4104065328353
 20
273.2947362399769
 30
0.0
 11
869.7832135507489
 21
273.2947362399769
 31
0.0
  0
LINE
  5
368B
330
3449
100
AcDbEntity
  8
AM_5
100
AcDbLine
 10
868.283213550749
 20
265.2947362399769
 30
0.0
 11
868.283213550749
 21
270.2947362399769
 31
0.0
  0
SOLID
  5
368C
330
3449
100
AcDbEntity
  8
AM_5
100
AcDbTrace
 10
867.783213550749
 20
265.2947362399769
 30
0.0
 11
868.7832135507489
 21
265.2947362399769
 31
0.0
 12
868.283213550749
 22
262.294736239977
 32
0.0
 13
868.283213550749
 23
262.294736239977
 33
0.0
  0
SOLID
  5
368D
330
3449
100
AcDbEntity
  8
AM_5
100
AcDbTrace
 10
867.783213550749
 20
270.2947362399769
 30
0.0
 11
868.7832135507489
 21
270.2947362399769
 31
0.0
 12
868.283213550749
 22
273.2947362399769
 32
0.0
 13
868.283213550749
 23
273.2947362399769
 33
0.0
  0
MTEXT
  5
368E
330
3449
100
AcDbEntity
  8
AM_5
100
AcDbMText
 10
865.7832135507488
 20
267.7947362399771
 30
0.0
 40
3.0
 41
0.0
 71
     5
 72
     1
  1
\A2;11
 11
0.0000000000000001
 21
1.0
 31
0.0
 73
     1
 44
1.0
1001
ACAD
1000
MTEXTBEGIN
1070
    73
1070
     1
1070
    44
1040
1.0
1070
    74
1070
     0
1000
MTEXTEND
  0
POINT
  5
368F
330
3449
100
AcDbEntity
  8
Defpoints
 62
     0
100
AcDbPoint
 10
849.6604065328352
 20
262.294736239977
 30
0.0
  0
POINT
  5
3690
330
3449
100
AcDbEntity
  8
Defpoints
 62
     0
100
AcDbPoint
 10
828.4104065328353
 20
273.2947362399769
 30
0.0
  0
POINT
  5
3691
330
3449
100
AcDbEntity
  8
Defpoints
 62
     0
100
AcDbPoint
 10
868.283213550749
 20
273.2947362399769
 30
0.0
  0
ENDBLK
  5
3454
330
3449
100
AcDbEntity
  8
0
100
AcDbBlockEnd
  0
BLOCK
  5
345F
330
3455
100
AcDbEntity
  8
0
100
AcDbBlockBegin
  2
*D15
 70
     1
 10
0.0
 20
0.0
 30
0.0
  3
*D15
  1

  0
LINE
  5
3692
330
3455
100
AcDbEntity
  8
AM_5
100
AcDbLine
 10
850.6604065328351
 20
262.294736239977
 30
0.0
 11
877.7832135507493
 21
262.294736239977
 31
0.0
  0
LINE
  5
3693
330
3455
100
AcDbEntity
  8
AM_5
100
AcDbLine
 10
828.4104065328353
 20
283.2947362399767
 30
0.0
 11
877.7832135507493
 21
283.2947362399767
 31
0.0
  0
LINE
  5
3694
330
3455
100
AcDbEntity
  8
AM_5
100
AcDbLine
 10
876.2832135507492
 20
265.2947362399769
 30
0.0
 11
876.2832135507492
 21
280.2947362399767
 31
0.0
  0
SOLID
  5
3695
330
3455
100
AcDbEntity
  8
AM_5
100
AcDbTrace
 10
875.7832135507491
 20
265.2947362399769
 30
0.0
 11
876.7832135507491
 21
265.2947362399769
 31
0.0
 12
876.2832135507492
 22
262.294736239977
 32
0.0
 13
876.2832135507492
 23
262.294736239977
 33
0.0
  0
SOLID
  5
3696
330
3455
100
AcDbEntity
  8
AM_5
100
AcDbTrace
 10
875.7832135507491
 20
280.2947362399767
 30
0.0
 11
876.7832135507491
 21
280.2947362399767
 31
0.0
 12
876.2832135507492
 22
283.2947362399767
 32
0.0
 13
876.2832135507492
 23
283.2947362399767
 33
0.0
  0
MTEXT
  5
3697
330
3455
100
AcDbEntity
  8
AM_5
100
AcDbMText
 10
873.7829182751585
 20
272.794736239977
 30
0.0
 40
3.0
 41
0.0
 71
     5
 72
     1
  1
\A2;21
 11
0.0000000000000001
 21
1.0
 31
0.0
 73
     1
 44
1.0
1001
ACAD
1000
MTEXTBEGIN
1070
    73
1070
     1
1070
    44
1040
1.0
1070
    74
1070
     0
1000
MTEXTEND
  0
POINT
  5
3698
330
3455
100
AcDbEntity
  8
Defpoints
 62
     0
100
AcDbPoint
 10
849.6604065328352
 20
262.294736239977
 30
0.0
  0
POINT
  5
3699
330
3455
100
AcDbEntity
  8
Defpoints
 62
     0
100
AcDbPoint
 10
827.4104065328353
 20
283.2947362399767
 30
0.0
  0
POINT
  5
369A
330
3455
100
AcDbEntity
  8
Defpoints
 62
     0
100
AcDbPoint
 10
876.2832135507492
 20
283.2947362399767
 30
0.0
  0
ENDBLK
  5
3460
330
3455
100
AcDbEntity
  8
0
100
AcDbBlockEnd
  0
BLOCK
  5
346B
330
3461
100
AcDbEntity
  8
0
100
AcDbBlockBegin
  2
*D16
 70
     1
 10
0.0
 20
0.0
 30
0.0
  3
*D16
  1

  0
LINE
  5
3989
330
3461
100
AcDbEntity
  8
AM_5
100
AcDbLine
 10
850.6604065328351
 20
140.294736239977
 30
0.0
 11
877.7832135507491
 21
140.294736239977
 31
0.0
  0
LINE
  5
398A
330
3461
100
AcDbEntity
  8
AM_5
100
AcDbLine
 10
850.6604065328351
 20
262.294736239977
 30
0.0
 11
877.7832135507493
 21
262.294736239977
 31
0.0
  0
LINE
  5
398B
330
3461
100
AcDbEntity
  8
AM_5
100
AcDbLine
 10
876.283213550749
 20
143.294736239977
 30
0.0
 11
876.2832135507492
 21
259.2947362399769
 31
0.0
  0
SOLID
  5
398C
330
3461
100
AcDbEntity
  8
AM_5
100
AcDbTrace
 10
875.7832135507491
 20
143.294736239977
 30
0.0
 11
876.7832135507491
 21
143.294736239977
 31
0.0
 12
876.283213550749
 22
140.294736239977
 32
0.0
 13
876.283213550749
 23
140.294736239977
 33
0.0
  0
SOLID
  5
398D
330
3461
100
AcDbEntity
  8
AM_5
100
AcDbTrace
 10
875.7832135507491
 20
259.2947362399769
 30
0.0
 11
876.7832135507491
 21
259.2947362399769
 31
0.0
 12
876.2832135507492
 22
262.294736239977
 32
0.0
 13
876.2832135507492
 23
262.294736239977
 33
0.0
  0
MTEXT
  5
398E
330
3461
100
AcDbEntity
  8
AM_5
100
AcDbMText
 10
873.3535527450971
 20
201.2947362399771
 30
0.0
 40
3.0
 41
0.0
 71
     5
 72
     1
  1
\A2;72+length
 11
0.0000000000000001
 21
1.0
 31
0.0
 73
     1
 44
1.0
1001
ACAD
1000
MTEXTBEGIN
1070
    73
1070
     1
1070
    44
1040
1.0
1070
    74
1070
     0
1000
MTEXTEND
  0
POINT
  5
398F
330
3461
100
AcDbEntity
  8
Defpoints
 62
     0
100
AcDbPoint
 10
849.6604065328352
 20
140.294736239977
 30
0.0
  0
POINT
  5
3990
330
3461
100
AcDbEntity
  8
Defpoints
 62
     0
100
AcDbPoint
 10
849.6604065328352
 20
262.294736239977
 30
0.0
  0
POINT
  5
3991
330
3461
100
AcDbEntity
  8
Defpoints
 62
     0
100
AcDbPoint
 10
876.2832135507492
 20
262.294736239977
 30
0.0
  0
ENDBLK
  5
346C
330
3461
100
AcDbEntity
  8
0
100
AcDbBlockEnd
  0
BLOCK
  5
3477
330
346D
100
AcDbEntity
  8
0
100
AcDbBlockBegin
  2
*D17
 70
     1
 10
0.0
 20
0.0
 30
0.0
  3
*D17
  1

  0
LINE
  5
36A4
330
346D
100
AcDbEntity
  8
AM_5
100
AcDbLine
 10
850.9604065328353
 20
232.2947362399767
 30
0.0
 11
869.7832135507489
 21
232.2947362399767
 31
0.0
  0
LINE
  5
36A5
330
346D
100
AcDbEntity
  8
AM_5
100
AcDbLine
 10
850.6604065328351
 20
262.294736239977
 30
0.0
 11
869.7832135507489
 21
262.294736239977
 31
0.0
  0
LINE
  5
36A6
330
346D
100
AcDbEntity
  8
AM_5
100
AcDbLine
 10
868.2832135507489
 20
235.2947362399767
 30
0.0
 11
868.283213550749
 21
259.2947362399769
 31
0.0
  0
SOLID
  5
36A7
330
346D
100
AcDbEntity
  8
AM_5
100
AcDbTrace
 10
867.7832135507488
 20
235.2947362399767
 30
0.0
 11
868.7832135507489
 21
235.2947362399767
 31
0.0
 12
868.2832135507489
 22
232.2947362399767
 32
0.0
 13
868.2832135507489
 23
232.2947362399767
 33
0.0
  0
SOLID
  5
36A8
330
346D
100
AcDbEntity
  8
AM_5
100
AcDbTrace
 10
867.783213550749
 20
259.2947362399769
 30
0.0
 11
868.7832135507489
 21
259.2947362399769
 31
0.0
 12
868.283213550749
 22
262.294736239977
 32
0.0
 13
868.283213550749
 23
262.294736239977
 33
0.0
  0
MTEXT
  5
36A9
330
346D
100
AcDbEntity
  8
AM_5
100
AcDbMText
 10
865.7832135507488
 20
247.2947362399769
 30
0.0
 40
3.0
 41
0.0
 71
     5
 72
     1
  1
\A2;30
 11
0.0000000000000001
 21
1.0
 31
0.0
 73
     1
 44
1.0
1001
ACAD
1000
MTEXTBEGIN
1070
    73
1070
     1
1070
    44
1040
1.0
1070
    74
1070
     0
1000
MTEXTEND
  0
POINT
  5
36AA
330
346D
100
AcDbEntity
  8
Defpoints
 62
     0
100
AcDbPoint
 10
849.9604065328353
 20
232.2947362399767
 30
0.0
  0
POINT
  5
36AB
330
346D
100
AcDbEntity
  8
Defpoints
 62
     0
100
AcDbPoint
 10
849.6604065328352
 20
262.294736239977
 30
0.0
  0
POINT
  5
36AC
330
346D
100
AcDbEntity
  8
Defpoints
 62
     0
100
AcDbPoint
 10
868.283213550749
 20
262.294736239977
 30
0.0
  0
ENDBLK
  5
3478
330
346D
100
AcDbEntity
  8
0
100
AcDbBlockEnd
  0
BLOCK
  5
3483
330
3479
100
AcDbEntity
  8
0
100
AcDbBlockBegin
  2
*D18
 70
     1
 10
0.0
 20
0.0
 30
0.0
  3
*D18
  1

  0
LINE
  5
36AD
330
3479
100
AcDbEntity
  8
AM_5
100
AcDbLine
 10
850.6604065328351
 20
262.294736239977
 30
0.0
 11
861.7832135507491
 21
262.294736239977
 31
0.0
  0
LINE
  5
36AE
330
3479
100
AcDbEntity
  8
AM_5
100
AcDbLine
 10
822.3104065328353
 20
247.2947362399766
 30
0.0
 11
861.7832135507489
 21
247.2947362399766
 31
0.0
  0
LINE
  5
36AF
330
3479
100
AcDbEntity
  8
AM_5
100
AcDbLine
 10
860.283213550749
 20
259.2947362399769
 30
0.0
 11
860.283213550749
 21
250.2947362399766
 31
0.0
  0
SOLID
  5
36B0
330
3479
100
AcDbEntity
  8
AM_5
100
AcDbTrace
 10
859.7832135507491
 20
259.2947362399769
 30
0.0
 11
860.7832135507491
 21
259.2947362399769
 31
0.0
 12
860.283213550749
 22
262.294736239977
 32
0.0
 13
860.283213550749
 23
262.294736239977
 33
0.0
  0
SOLID
  5
36B1
330
3479
100
AcDbEntity
  8
AM_5
100
AcDbTrace
 10
859.783213550749
 20
250.2947362399766
 30
0.0
 11
860.7832135507489
 21
250.2947362399766
 31
0.0
 12
860.283213550749
 22
247.2947362399766
 32
0.0
 13
860.283213550749
 23
247.2947362399766
 33
0.0
  0
MTEXT
  5
36B2
330
3479
100
AcDbEntity
  8
AM_5
100
AcDbMText
 10
857.783213550749
 20
254.7947362399769
 30
0.0
 40
3.0
 41
0.0
 71
     5
 72
     1
  1
\A2;15
 11
0.0000000000000001
 21
1.0
 31
0.0
 73
     1
 44
1.0
1001
ACAD
1000
MTEXTBEGIN
1070
    73
1070
     1
1070
    44
1040
1.0
1070
    74
1070
     0
1000
MTEXTEND
  0
POINT
  5
36B3
330
3479
100
AcDbEntity
  8
Defpoints
 62
     0
100
AcDbPoint
 10
849.6604065328352
 20
262.294736239977
 30
0.0
  0
POINT
  5
36B4
330
3479
100
AcDbEntity
  8
Defpoints
 62
     0
100
AcDbPoint
 10
821.3104065328352
 20
247.2947362399766
 30
0.0
  0
POINT
  5
36B5
330
3479
100
AcDbEntity
  8
Defpoints
 62
     0
100
AcDbPoint
 10
860.283213550749
 20
247.2947362399766
 30
0.0
  0
ENDBLK
  5
3484
330
3479
100
AcDbEntity
  8
0
100
AcDbBlockEnd
  0
BLOCK
  5
39ED
330
39E8
100
AcDbEntity
  8
0
100
AcDbBlockBegin
  2
*S21
 70
     1
 10
0.0
 20
0.0
 30
0.0
  3
*S21
  1

  0
LINE
  5
39E9
330
39E8
100
AcDbEntity
  8
AM_5
 62
     5
100
AcDbLine
 10
877.01436476662
 20
310.4367420773119
 30
0.0
 11
857.1514685386112
 21
310.4367420773119
 31
0.0
  0
LINE
  5
39EA
330
39E8
100
AcDbEntity
  8
AM_5
 62
     5
100
AcDbLine
 10
857.1514685386112
 20
310.4367420773119
 30
0.0
 11
843.9960879915272
 21
325.3402312861447
 31
0.0
  0
TRACE
  5
39EB
330
39E8
100
AcDbEntity
  8
AM_5
 62
     5
370
    35
100
AcDbTrace
 10
844.3415407839511
 20
325.6451641029979
 30
0.0
 11
843.6506351991029
 21
325.0352984692914
 31
0.0
 12
841.6798932834751
 22
327.9642057666594
 32
0.0
 13
841.6798932834751
 23
327.9642057666594
 33
0.0
  0
MTEXT
  5
39EC
330
39E8
100
AcDbEntity
  8
AM_5
 62
     2
100
AcDbMText
 10
877.01436476662
 20
305.7680626960961
 30
0.0
 40
3.5
 41
0.0
 71
     9
 72
     5
  1

  7
ACISOTS
210
0.0
220
0.0
230
-1.0
 11
-1.0
 21
0.0
 31
0.0
 73
     1
 44
1.0
1001
ACAD
1000
MTEXTBEGIN
1070
    73
1070
     1
1070
    44
1040
1.0
1070
    74
1070
     0
1000
MTEXTEND
  0
ENDBLK
  5
39EE
330
39E8
100
AcDbEntity
  8
0
100
AcDbBlockEnd
  0
BLOCK
  5
39F5
330
39F0
100
AcDbEntity
  8
0
100
AcDbBlockBegin
  2
*S22
 70
     1
 10
0.0
 20
0.0
 30
0.0
  3
*S22
  1

  0
LINE
  5
39F1
330
39F0
100
AcDbEntity
  8
AM_5
 62
     5
100
AcDbLine
 10
766.5755801081878
 20
129.427098100888
 30
0.0
 11
782.8937721045067
 21
129.427098100888
 31
0.0
  0
LINE
  5
39F2
330
39F0
100
AcDbEntity
  8
AM_5
 62
     5
100
AcDbLine
 10
782.8937721045067
 20
129.427098100888
 30
0.0
 11
802.0122407710129
 21
147.3123020724177
 31
0.0
  0
TRACE
  5
39F3
330
39F0
100
AcDbEntity
  8
AM_5
 62
     5
370
    35
100
AcDbTrace
 10
802.3270302029668
 20
146.9758065031784
 30
0.0
 11
801.6974513390588
 21
147.648797641657
 31
0.0
 12
804.5681783863797
 22
149.7033652054932
 32
0.0
 13
804.5681783863797
 23
149.7033652054932
 33
0.0
  0
MTEXT
  5
39F4
330
39F0
100
AcDbEntity
  8
AM_5
 62
     2
100
AcDbMText
 10
766.5755801081878
 20
124.7584187196723
 30
0.0
 40
3.5
 41
0.0
 71
     9
 72
     5
  1

  7
ACISOTS
 73
     1
 44
1.0
1001
ACAD
1000
MTEXTBEGIN
1070
    73
1070
     1
1070
    44
1040
1.0
1070
    74
1070
     0
1000
MTEXTEND
  0
ENDBLK
  5
39F6
330
39F0
100
AcDbEntity
  8
0
100
AcDbBlockEnd
  0
ENDSEC
  0
SECTION
  2
ENTITIES
  0
TEXT
  5
13F1
330
1F
100
AcDbEntity
  8
LOGO
 62
     7
100
AcDbText
 10
798.9866411312407
 20
84.76048838939236
 30
0.0
 40
5.01738539554751
  1
Order example:
 41
0.8
  7
CHINESET
100
AcDbText
  0
TEXT
  5
13F2
330
1F
100
AcDbEntity
  8
LOGO
 62
     7
100
AcDbText
 10
799.8868015632909
 20
91.82392816342135
 30
0.0
 40
7.526078093321266
  1
訂購代號:
  7
CHINESET
100
AcDbText
  0
LINE
  5
13F3
330
1F
100
AcDbEntity
  8
LOGO
 62
     1
100
AcDbLine
 10
1306.831478154532
 20
101.245722117002
 30
0.0
 11
714.019711132348
 21
101.245722117002
 31
0.0
  0
LINE
  5
13F5
330
1F
100
AcDbEntity
  8
LOGO
 62
     1
100
AcDbLine
 10
796.8065701588821
 20
63.61533165039563
 30
0.0
 11
796.8065701588821
 21
101.245722117002
 31
0.0
  0
TEXT
  5
13F7
330
1F
100
AcDbEntity
  8
LOGO
  6
Continuous
 62
     5
100
AcDbText
 10
727.5367165398316
 20
71.00776506834974
 30
0.0
 40
5.64455856999095
  1
金器工業股份有限公司
  7
CHINESET
100
AcDbText
  0
TEXT
  5
13F8
330
1F
100
AcDbEntity
  8
LOGO
  6
Continuous
 62
     5
100
AcDbText
 10
717.1687791676
 20
65.36210060742959
 30
0.0
 40
3.763039046660633
  1
MINDMAN INDUSTRIAL CO., LTD.
 41
0.85
  7
CHINESET
100
AcDbText
  0
LINE
  5
13F9
330
1F
100
AcDbEntity
  8
LOGO
 62
     1
100
AcDbLine
 10
796.8065701588821
 20
93.71964402368091
 30
0.0
 11
741.6153308078597
 21
93.71964402368091
 31
0.0
  0
LINE
  5
13FA
330
1F
100
AcDbEntity
  8
LOGO
 62
     1
100
AcDbLine
 10
796.8065701588821
 20
86.19356593035943
 30
0.0
 11
741.6153308078597
 21
86.19356593035943
 31
0.0
  0
LINE
  5
13FB
330
1F
100
AcDbEntity
  8
LOGO
 62
     1
100
AcDbLine
 10
796.8065701588821
 20
78.6674878370383
 30
0.0
 11
714.019711132348
 21
78.6674878370383
 31
0.0
  0
LINE
  5
13FC
330
1F
100
AcDbEntity
  8
LOGO
 62
     1
100
AcDbLine
 10
741.6153308078597
 20
78.6674878370383
 30
0.0
 11
741.6153308078597
 21
101.245722117002
 31
0.0
  0
TEXT
  5
13FD
330
1F
100
AcDbEntity
  8
LOGO
 62
     6
100
AcDbText
 10
777.3648222263583
 20
80.54900736036856
 30
0.0
 40
3.763039046660633
  1
m/m
  7
CHINESET
 72
     1
 11
783.9949386419032
 21
82.43052688369887
 31
0.0
100
AcDbText
 73
     2
  0
TEXT
  5
13FE
330
1F
100
AcDbEntity
  8
LOGO
 62
     6
100
AcDbText
 10
777.3648222263583
 20
95.6011635470112
 30
0.0
 40
3.763039046660633
  1
1 : 1
  7
CHINESET
 72
     1
 11
783.9949386419032
 21
97.48268307034152
 31
0.0
100
AcDbText
 73
     2
  0
LINE
  5
13FF
330
1F
100
AcDbEntity
  8
LOGO
 62
     1
100
AcDbLine
 10
771.7196431811445
 20
78.6674878370383
 30
0.0
 11
771.7196431811445
 21
101.245722117002
 31
0.0
  0
CIRCLE
  5
1400
330
1F
100
AcDbEntity
  8
LOGO
  6
Continuous
 62
     6
100
AcDbCircle
 10
778.6873806495204
 20
89.96465414507811
 30
0.0
 40
2.184909042445922
  0
CIRCLE
  5
1401
330
1F
100
AcDbEntity
  8
LOGO
  6
Continuous
 62
     6
100
AcDbCircle
 10
778.6873806495204
 20
89.96465414507811
 30
0.0
 40
1.280163279819171
  0
LINE
  5
1402
330
1F
100
AcDbEntity
  8
LOGO
 62
     6
100
AcDbLine
 10
792.4176025983754
 20
87.77974510263211
 30
0.0
 11
792.4176025983754
 21
92.14956318752419
 31
0.0
  0
LINE
  5
1403
330
1F
100
AcDbEntity
  8
LOGO
 62
     6
100
AcDbLine
 10
785.56803817007
 20
88.68449086525904
 30
0.0
 11
785.56803817007
 21
91.2448174248975
 31
0.0
  0
LINE
  5
1404
330
1F
100
AcDbEntity
  8
LOGO
  6
Continuous
 62
     6
100
AcDbLine
 10
785.56803817007
 20
91.2448174248975
 30
0.0
 11
792.4176025983754
 21
92.14956318752419
 31
0.0
  0
LINE
  5
1405
330
1F
100
AcDbEntity
  8
LOGO
  6
Continuous
 62
     6
100
AcDbLine
 10
785.56803817007
 20
88.68449086525904
 30
0.0
 11
792.4176025983754
 21
87.77974510263211
 31
0.0
  0
LINE
  5
1406
330
1F
100
AcDbEntity
  8
LOGO
 62
     6
100
AcDbLine
 10
907.8426701873372
 20
97.48268307034152
 30
0.0
 11
887.7036327785459
 21
97.48268307034152
 31
0.0
  0
LINE
  5
1407
330
1F
100
AcDbEntity
  8
LOGO
 62
     6
100
AcDbLine
 10
907.8426701873372
 20
80.5490073603687
 30
0.0
 11
887.7036327785459
 21
80.5490073603687
 31
0.0
  0
LINE
  5
1408
330
1F
100
AcDbEntity
  8
LOGO
 62
     6
100
AcDbLine
 10
907.8426701873372
 20
86.19356593035943
 30
0.0
 11
887.7036327785459
 21
86.19356593035943
 31
0.0
  0
LINE
  5
1409
330
1F
100
AcDbEntity
  8
LOGO
 62
     6
100
AcDbLine
 10
907.8426701873372
 20
66.75119752261313
 30
0.0
 11
887.7036327785459
 21
66.75119752261281
 31
0.0
  0
LINE
  5
140A
330
1F
100
AcDbEntity
  8
LOGO
 62
     6
100
AcDbLine
 10
887.7036327785459
 20
80.5490073603687
 30
0.0
 11
887.7036327785459
 21
66.75119752261313
 31
0.0
  0
LINE
  5
140D
330
1F
100
AcDbEntity
  8
LOGO
 62
     6
100
AcDbLine
 10
876.161121799698
 20
80.5490073603687
 30
0.0
 11
876.161121799698
 21
66.75119752261281
 31
0.0
  0
LINE
  5
140E
330
1F
100
AcDbEntity
  8
LOGO
 62
     6
100
AcDbLine
 10
851.0741948219601
 20
80.5490073603687
 30
0.0
 11
851.0741948219601
 21
66.75119752261281
 31
0.0
  0
LINE
  5
140F
330
1F
100
AcDbEntity
  8
LOGO
 62
     6
100
AcDbLine
 10
876.161121799698
 20
66.75119752261281
 30
0.0
 11
851.0741948219601
 21
66.75119752261281
 31
0.0
  0
LINE
  5
1411
330
1F
100
AcDbEntity
  8
LOGO
  6
Continuous
 62
     7
100
AcDbLine
 10
880.6147597222572
 20
91.79813666333853
 30
0.0
 11
885.5996219296926
 21
91.79813666333853
 31
0.0
  0
LINE
  5
1412
330
1F
100
AcDbEntity
  8
LOGO
 62
     6
100
AcDbLine
 10
878.6698144974716
 20
97.48268307034152
 30
0.0
 11
848.5655021241866
 21
97.48268307034152
 31
0.0
  0
LINE
  5
1413
330
1F
100
AcDbEntity
  8
LOGO
 62
     6
100
AcDbLine
 10
878.6698144974716
 20
86.19356593035943
 30
0.0
 11
848.5655021241866
 21
86.19356593035943
 31
0.0
  0
LINE
  5
1414
330
1F
100
AcDbEntity
  8
LOGO
 62
     6
100
AcDbLine
 10
848.5655021241866
 20
97.48268307034152
 30
0.0
 11
848.5655021241866
 21
86.19356593035943
 31
0.0
  0
LINE
  5
1415
330
1F
100
AcDbEntity
  8
LOGO
 62
     6
100
AcDbLine
 10
878.6698144974716
 20
97.48268307034152
 30
0.0
 11
878.6698144974716
 21
86.19356593035943
 31
0.0
  0
LINE
  5
1416
330
1F
100
AcDbEntity
  8
LOGO
 62
     6
100
AcDbLine
 10
863.6176583108289
 20
86.19356593035943
 30
0.0
 11
863.6176583108289
 21
80.5490073603687
 31
0.0
  0
TEXT
  5
1417
330
1F
100
AcDbEntity
  8
LOGO
  6
Continuous
 62
     7
100
AcDbText
 10
851.2235217682562
 20
88.70225862813319
 30
0.0
 40
6.271731744434386
  1
MCQA
  7
CHINESET
 72
     1
 11
863.6176583108289
 21
91.83812450035039
 31
0.0
100
AcDbText
 73
     2
  0
LINE
  5
1418
330
1F
100
AcDbEntity
  8
LOGO
 62
     6
100
AcDbLine
 10
876.161121799698
 20
80.5490073603687
 30
0.0
 11
851.0741948219601
 21
80.5490073603687
 31
0.0
  0
TEXT
  5
141F
330
1F
100
AcDbEntity
  8
LOGO
  6
Continuous
 62
     7
100
AcDbText
 10
893.2813970999042
 20
88.63113679495231
 30
0.0
 40
6.271731744434386
  1
63
  7
CHINESET
 72
     1
 11
898.3585132739701
 21
91.76700266716951
 31
0.0
100
AcDbText
 73
     2
  0
LINE
  5
1421
330
1F
100
AcDbEntity
  8
LOGO
 62
     6
100
AcDbLine
 10
897.7731511937088
 20
86.19356593035943
 30
0.0
 11
897.7731511937088
 21
80.5490073603687
 31
0.0
  0
LINE
  5
1422
330
1F
100
AcDbEntity
  8
LOGO
 62
     6
100
AcDbLine
 10
887.7036327785459
 20
97.48268307034152
 30
0.0
 11
887.7036327785459
 21
86.19356593035943
 31
0.0
  0
LINE
  5
1425
330
1F
100
AcDbEntity
  8
LOGO
 62
     6
100
AcDbLine
 10
936.3658357222577
 20
80.5490073603687
 30
0.0
 11
936.3658357222577
 21
66.69917063049988
 31
0.0
  0
LINE
  5
1426
330
1F
100
AcDbEntity
  8
LOGO
 62
     6
100
AcDbLine
 10
917.9791024231693
 20
80.5490073603687
 30
0.0
 11
917.9791024231693
 21
66.75119752261281
 31
0.0
  0
LINE
  5
1427
330
1F
100
AcDbEntity
  8
LOGO
 62
     6
100
AcDbLine
 10
907.8426701873372
 20
80.5490073603687
 30
0.0
 11
907.8426701873372
 21
66.75119752261313
 31
0.0
  0
LINE
  5
1428
330
1F
100
AcDbEntity
  8
LOGO
 62
     6
100
AcDbLine
 10
936.3658357222577
 20
66.75119752261281
 30
0.0
 11
917.9791024231693
 21
66.75119752261281
 31
0.0
  0
LINE
  5
1429
330
1F
100
AcDbEntity
  8
LOGO
 62
     6
100
AcDbLine
 10
936.3658357222577
 20
80.5490073603687
 30
0.0
 11
917.9791024231693
 21
80.5490073603687
 31
0.0
  0
LINE
  5
142A
330
1F
100
AcDbEntity
  8
LOGO
 62
     6
100
AcDbLine
 10
937.6201820711445
 20
86.19356593035943
 30
0.0
 11
916.7247560742824
 21
86.19356593035943
 31
0.0
  0
LINE
  5
142B
330
1F
100
AcDbEntity
  8
LOGO
 62
     6
100
AcDbLine
 10
937.6201820711445
 20
97.48268307034152
 30
0.0
 11
916.7247560742824
 21
97.48268307034152
 31
0.0
  0
LINE
  5
142C
330
1F
100
AcDbEntity
  8
LOGO
 62
     6
100
AcDbLine
 10
927.438128240125
 20
86.19356593035943
 30
0.0
 11
927.438128240125
 21
80.5490073603687
 31
0.0
  0
LINE
  5
142D
330
1F
100
AcDbEntity
  8
LOGO
  6
Continuous
 62
     7
100
AcDbLine
 10
909.7876154121228
 20
91.79813666333853
 30
0.0
 11
914.772477619558
 21
91.79813666333853
 31
0.0
  0
LINE
  5
142E
330
1F
100
AcDbEntity
  8
LOGO
 62
     6
100
AcDbLine
 10
916.7247560742824
 20
97.48268307034152
 30
0.0
 11
916.7247560742824
 21
86.19356593035943
 31
0.0
  0
LINE
  5
142F
330
1F
100
AcDbEntity
  8
LOGO
 62
     6
100
AcDbLine
 10
907.8426701873372
 20
97.48268307034152
 30
0.0
 11
907.8426701873372
 21
86.19356593035943
 31
0.0
  0
TEXT
  5
1430
330
1F
100
AcDbEntity
  8
LOGO
  6
Continuous
 62
     7
100
AcDbText
 10
922.6807146896762
 20
88.63113679495231
 30
0.0
 40
6.271731744434386
  1
50
  7
CHINESET
 72
     1
 11
927.7578308637421
 21
91.76700266716951
 31
0.0
100
AcDbText
 73
     2
  0
LINE
  5
1431
330
1F
100
AcDbEntity
  8
LOGO
 62
     6
100
AcDbLine
 10
937.6201820711445
 20
97.48268307034152
 30
0.0
 11
937.6201820711445
 21
86.19356593035943
 31
0.0
  0
TEXT
  5
1432
330
1F
100
AcDbEntity
  8
LOGO
 62
     6
100
AcDbText
 10
744.7181580932087
 20
95.60301543630583
 30
246.6233798734557
 40
3.763039046660633
  1
比例 Scale:
 41
0.9
  7
CHINESET
 72
     4
 11
756.6674869945021
 21
97.48268307034152
 31
246.6233798734557
100
AcDbText
  0
TEXT
  5
1433
330
1F
100
AcDbEntity
  8
LOGO
 62
     6
100
AcDbText
 10
746.0335418313942
 20
88.12801862269409
 30
246.6233798734557
 40
3.763039046660633
  1
投影 View:
 41
0.9
  7
CHINESET
 72
     4
 11
756.6674869945021
 21
89.95660497701996
 31
246.6233798734557
100
AcDbText
  0
TEXT
  5
1434
330
1F
100
AcDbEntity
  8
LOGO
 62
     6
100
AcDbText
 10
746.4014460953311
 20
80.54900736036856
 30
246.6233798734557
 40
3.763039046660633
  1
單位 Unit:
 41
0.9
  7
CHINESET
 72
     4
 11
756.6674869945021
 21
82.43052688369887
 31
246.6233798734557
100
AcDbText
  0
TEXT
  5
1435
330
1F
100
AcDbEntity
  8
LOGO
  6
Continuous
 62
     6
100
AcDbText
 10
857.6445804589866
 20
68.31913045872143
 30
246.6233798734557
 40
3.135865872217193
  1
Model
  7
CHINESET
 72
     4
 11
863.6176583108289
 21
69.88706339483002
 31
246.6233798734557
100
AcDbText
  0
TEXT
  5
1437
330
1F
100
AcDbEntity
  8
LOGO
  6
Continuous
 62
     6
100
AcDbText
 10
893.8906508792442
 20
68.31913045872143
 30
246.6233798734557
 40
3.135865872217193
  1
Bore
 41
0.8
  7
CHINESET
 72
     4
 11
897.7731514829418
 21
69.88706339483002
 31
246.6233798734557
100
AcDbText
  0
TEXT
  5
1438
330
1F
100
AcDbEntity
  8
LOGO
 62
     6
100
AcDbText
 10
858.4957440528741
 20
73.71430127037072
 30
246.6233798734557
 40
5.01738539554751
  1
型號
  7
CHINESET
 72
     4
 11
863.6176583108289
 21
76.15879513926444
 31
246.6233798734557
100
AcDbText
  0
TEXT
  5
143A
330
1F
100
AcDbEntity
  8
LOGO
 62
     6
100
AcDbText
 10
892.9752766984494
 20
73.65010244149068
 30
246.6233798734557
 40
5.01738539554751
  1
內徑
 41
0.9
  7
CHINESET
 72
     4
 11
897.7731514829418
 21
76.15879513926444
 31
246.6233798734557
100
AcDbText
  0
TEXT
  5
143B
330
1F
100
AcDbEntity
  8
LOGO
  6
Continuous
 62
     6
100
AcDbText
 10
921.3188527779079
 20
68.84177477075763
 30
246.6233798734557
 40
3.135865872217193
  1
Length
 41
0.8
  7
CHINESET
 72
     4
 11
927.1724690727133
 21
69.88706339483002
 31
246.6233798734557
100
AcDbText
  0
TEXT
  5
143C
330
1F
100
AcDbEntity
  8
LOGO
 62
     6
100
AcDbText
 10
922.6568222167205
 20
73.80668996962437
 30
246.6233798734557
 40
5.01738539554751
  1
長度
 41
0.9
  7
CHINESET
 72
     4
 11
927.1724690727133
 21
76.15879513926444
 31
246.6233798734557
100
AcDbText
  0
LWPOLYLINE
  5
143D
330
1F
100
AcDbEntity
  8
0
 62
     4
100
AcDbPolyline
 90
        4
 70
     1
 43
0.0
 10
714.0197111323486
 20
101.245722117002
 10
1306.831478154532
 20
101.245722117002
 10
1306.831478154532
 20
458.96558963946
 10
714.0197111323486
 20
458.96558963946
1001
GENIUS_GENREC_14
1002
{
1000
PYDIR
1011
714.0197111323486
1021
458.96558963946
1031
0.0
1002
}
1002
{
1000
PXDIR
1011
1306.831478154532
1021
101.245722117002
1031
0.0
1002
}
1002
{
1000
PORI
1011
714.0197111323486
1021
101.245722117002
1031
0.0
1002
}
1002
{
1000
PINS
1011
714.0197111323486
1021
101.245722117002
1031
0.0
1002
}
1002
{
1000
PINS2
1011
1306.831478154532
1021
458.96558963946
1031
0.0
1002
}
1002
{
1000
C
1070
     1
1002
}
1001
GENIUS_GENODEF_13
1002
{
1000
HIER
1070
     0
1002
}
1002
{
1000
MANEDIT
1070
     0
1002
}
1002
{
1000
NOSEL
1070
     0
1002
}
1002
{
1000
BEHIND
1070
     0
1002
}
1002
{
1000
OTHER
1070
     0
1002
}
1002
{
1000
REACTOR
1002
}
1001
GENIUS_GENOBJ-N-REC_13
1002
{
1000
OWNER
1000
GEN
1002
}
  0
SOLID
  5
143E
330
1F
100
AcDbEntity
  8
LOGO
 62
     5
100
AcDbTrace
 10
717.9239245354421
 20
84.92300462568154
 30
0.0
 11
719.5509638770735
 21
84.92300462568087
 31
0.0
 12
726.3396452680191
 22
100.351825968739
 32
0.0
 13
727.9666846096505
 23
100.3518259687378
 33
0.0
  0
SOLID
  5
143F
330
1F
100
AcDbEntity
  8
LOGO
 62
     5
100
AcDbTrace
 10
720.2242215356807
 20
84.92300462568154
 30
0.0
 11
721.8512608773117
 21
84.92300462568154
 31
0.0
 12
727.9666846096505
 22
99.11752026129363
 32
0.0
 13
726.3396452680191
 23
93.15170934197789
 33
0.0
  0
SOLID
  5
1440
330
1F
100
AcDbEntity
  8
LOGO
 62
     2
100
AcDbTrace
 10
719.5509638770735
 20
84.92300462568087
 30
0.0
 11
720.2242215356807
 21
84.92300462568154
 31
0.0
 12
727.9666846096505
 22
100.3518259687378
 32
0.0
 13
728.6399422682571
 23
100.3518259687378
 33
0.0
  0
SOLID
  5
1441
330
1F
100
AcDbEntity
  8
LOGO
 62
     5
100
AcDbTrace
 10
715.3153814718859
 20
79.3125241372976
 30
0.0
 11
715.8764295207251
 21
79.3125241372976
 31
0.0
 12
717.4563844947439
 22
82.11776438148907
 32
0.0
 13
718.017432543582
 23
82.11776438148907
 33
0.0
  0
SOLID
  5
1442
330
1F
100
AcDbEntity
  8
LOGO
 62
     5
100
AcDbTrace
 10
717.4563844947439
 20
82.11776438148907
 30
0.0
 11
718.017432543582
 21
82.11776438148907
 31
0.0
 12
717.4563844947439
 22
79.3125241372976
 32
0.0
 13
718.017432543582
 23
79.3125241372976
 33
0.0
  0
SOLID
  5
1443
330
1F
100
AcDbEntity
  8
LOGO
 62
     5
100
AcDbTrace
 10
717.4563844947439
 20
79.3125241372976
 30
0.0
 11
718.017432543582
 21
79.3125241372976
 31
0.0
 12
719.5973875176027
 22
82.11776438148907
 32
0.0
 13
720.1584355664406
 23
82.11776438148907
 33
0.0
  0
SOLID
  5
1444
330
1F
100
AcDbEntity
  8
LOGO
 62
     5
100
AcDbTrace
 10
719.5973875176027
 20
82.11776438148907
 30
0.0
 11
720.1584355664406
 21
82.11776438148907
 31
0.0
 12
719.5973875176027
 22
79.3125241372976
 32
0.0
 13
720.1584355664406
 23
79.3125241372976
 33
0.0
  0
POLYLINE
  5
1445
330
1F
100
AcDbEntity
  8
LOGO
 62
     5
100
AcDb2dPolyline
 66
     1
 10
0.0
 20
0.0
 30
0.0
 40
0.5619471643013212
 41
0.5619471643013212
  0
VERTEX
  5
1446
330
1445
100
AcDbEntity
  8
LOGO
 62
     5
100
AcDbVertex
100
AcDb2dVertex
 10
738.4035269912405
 20
80.99566828381222
 30
0.0
 42
1.0
  0
VERTEX
  5
1447
330
1445
100
AcDbEntity
  8
LOGO
 62
     5
100
AcDbVertex
100
AcDb2dVertex
 10
736.7176854983361
 20
80.99566828381222
 30
0.0
 42
1.0
  0
SEQEND
  5
1448
330
1445
100
AcDbEntity
  8
LOGO
 62
     5
  0
POLYLINE
  5
1449
330
1F
100
AcDbEntity
  8
LOGO
 62
     5
100
AcDb2dPolyline
 66
     1
 10
0.0
 20
0.0
 30
0.0
 70
     1
  0
VERTEX
  5
144A
330
1449
100
AcDbEntity
  8
LOGO
 62
     5
100
AcDbVertex
100
AcDb2dVertex
 10
733.5397992979817
 20
80.71514425939319
 30
0.0
 42
1.000000057330635
  0
VERTEX
  5
144B
330
1449
100
AcDbEntity
  8
LOGO
 62
     5
100
AcDbVertex
100
AcDb2dVertex
 10
735.2229434444977
 20
80.71514425939319
 30
0.0
 42
1.000000057330635
  0
SEQEND
  5
144C
330
1449
100
AcDbEntity
  8
LOGO
 62
     5
  0
CIRCLE
  5
144D
330
1F
100
AcDbEntity
  8
LOGO
 62
     5
100
AcDbCircle
 10
734.3813713712401
 20
80.71514425939319
 30
0.0
 40
0.8415720732576589
  0
POLYLINE
  5
144E
330
1F
100
AcDbEntity
  8
LOGO
 62
     5
100
AcDb2dPolyline
 66
     1
 10
0.0
 20
0.0
 30
0.0
 70
     1
 40
0.5619471643013212
 41
0.5619471643013212
  0
VERTEX
  5
144F
330
144E
100
AcDbEntity
  8
LOGO
 62
     5
100
AcDbVertex
100
AcDb2dVertex
 10
733.2574770426372
 20
80.71514425939319
 30
0.0
 42
1.0
  0
VERTEX
  5
1450
330
144E
100
AcDbEntity
  8
LOGO
 62
     5
100
AcDbVertex
100
AcDb2dVertex
 10
735.5052656998424
 20
80.71514425939319
 30
0.0
 42
1.0
  0
SEQEND
  5
1451
330
144E
100
AcDbEntity
  8
LOGO
 62
     5
  0
LINE
  5
1452
330
1F
100
AcDbEntity
  8
LOGO
 62
     5
100
AcDbLine
 10
738.6827023424648
 20
79.3125241372976
 30
0.0
 11
738.6827023424648
 21
80.99566828381222
 31
0.0
  0
SOLID
  5
1453
330
1F
100
AcDbEntity
  8
LOGO
 62
     5
100
AcDbTrace
 10
735.2228873396938
 20
82.11776438148907
 30
0.0
 11
735.7839353885316
 21
82.11776438148907
 31
0.0
 12
735.2228873396938
 22
79.3125241372976
 32
0.0
 13
735.7839353885316
 23
79.3125241372976
 33
0.0
  0
SOLID
  5
1454
330
1F
100
AcDbEntity
  8
LOGO
 62
     5
100
AcDbTrace
 10
736.4385101471109
 20
79.3125241372976
 30
0.0
 11
736.9995581959498
 21
79.3125241372976
 31
0.0
 12
736.4385101471109
 22
82.11776438148907
 32
0.0
 13
736.9995581959498
 23
82.11776438148907
 33
0.0
  0
SOLID
  5
1455
330
1F
100
AcDbEntity
  8
LOGO
 62
     5
100
AcDbTrace
 10
738.1216542936267
 20
80.99566828381222
 30
0.0
 11
738.6827023424648
 21
80.99566828381222
 31
0.0
 12
738.1216542936267
 22
79.3125241372976
 32
0.0
 13
738.6827023424648
 23
79.3125241372976
 33
0.0
  0
SOLID
  5
1456
330
1F
100
AcDbEntity
  8
LOGO
 62
     5
100
AcDbTrace
 10
736.382405342227
 20
99.11752026129363
 30
0.0
 11
734.7553660005955
 21
93.15170934197789
 31
0.0
 12
736.382405342227
 22
84.92300462568087
 32
0.0
 13
734.7553660005955
 23
84.92300462568087
 33
0.0
  0
SOLID
  5
1457
330
1F
100
AcDbEntity
  8
LOGO
 62
     5
100
AcDbTrace
 10
737.0556630008337
 20
84.92300462568087
 30
0.0
 11
738.6827023424648
 21
84.92300462568087
 31
0.0
 12
737.0556630008337
 22
100.3518259687378
 32
0.0
 13
738.6827023424648
 23
100.351825968739
 33
0.0
  0
SOLID
  5
1458
330
1F
100
AcDbEntity
  8
LOGO
 62
     2
100
AcDbTrace
 10
736.382405342227
 20
100.351825968739
 30
0.0
 11
737.0556630008337
 21
100.3518259687378
 31
0.0
 12
736.382405342227
 22
84.92300462568087
 32
0.0
 13
737.0556630008337
 23
84.92300462568087
 33
0.0
  0
POLYLINE
  5
1459
330
1F
100
AcDbEntity
  8
LOGO
 62
     5
100
AcDb2dPolyline
 66
     1
 10
0.0
 20
0.0
 30
0.0
 40
0.5619471643013212
 41
0.5619471643013212
  0
VERTEX
  5
145A
330
1459
100
AcDbEntity
  8
LOGO
 62
     5
100
AcDbVertex
100
AcDb2dVertex
 10
730.3618008880192
 20
80.99566828381222
 30
0.0
 42
1.0
  0
VERTEX
  5
145B
330
1459
100
AcDbEntity
  8
LOGO
 62
     5
100
AcDbVertex
100
AcDb2dVertex
 10
728.6759593951148
 20
80.99566828381222
 30
0.0
 42
1.0
  0
SEQEND
  5
145C
330
1459
100
AcDbEntity
  8
LOGO
 62
     5
  0
POLYLINE
  5
145D
330
1F
100
AcDbEntity
  8
LOGO
 62
     5
100
AcDb2dPolyline
 66
     1
 10
0.0
 20
0.0
 30
0.0
 40
0.5619471643013212
 41
0.5619471643013212
  0
VERTEX
  5
145E
330
145D
100
AcDbEntity
  8
LOGO
 62
     5
100
AcDbVertex
100
AcDb2dVertex
 10
732.0449450345342
 20
80.99566828381222
 30
0.0
 42
1.0
  0
VERTEX
  5
145F
330
145D
100
AcDbEntity
  8
LOGO
 62
     5
100
AcDbVertex
100
AcDb2dVertex
 10
730.3591035416301
 20
80.99566828381222
 30
0.0
 42
1.0
  0
SEQEND
  5
1460
330
145D
100
AcDbEntity
  8
LOGO
 62
     5
  0
POLYLINE
  5
1461
330
1F
100
AcDbEntity
  8
LOGO
 62
     5
100
AcDb2dPolyline
 66
     1
 10
0.0
 20
0.0
 30
0.0
 40
0.5619471643013212
 41
0.5619471643013212
  0
VERTEX
  5
1462
330
1461
100
AcDbEntity
  8
LOGO
 62
     5
100
AcDbVertex
100
AcDb2dVertex
 10
724.0032189313134
 20
80.99566828381222
 30
0.0
 42
1.0
  0
VERTEX
  5
1463
330
1461
100
AcDbEntity
  8
LOGO
 62
     5
100
AcDbVertex
100
AcDb2dVertex
 10
722.3173774384093
 20
80.99566828381222
 30
0.0
 42
1.0
  0
SEQEND
  5
1464
330
1461
100
AcDbEntity
  8
LOGO
 62
     5
  0
SOLID
  5
1465
330
1F
100
AcDbEntity
  8
LOGO
 62
     5
100
AcDbTrace
 10
722.038202087185
 20
82.11776438148907
 30
0.0
 11
722.5992501360228
 21
82.11776438148907
 31
0.0
 12
722.038202087185
 22
79.3125241372976
 32
0.0
 13
722.5992501360228
 23
79.3125241372976
 33
0.0
  0
SOLID
  5
1466
330
1F
100
AcDbEntity
  8
LOGO
 62
     5
100
AcDbTrace
 10
723.7213462337
 20
80.99566828381222
 30
0.0
 11
724.2823942825387
 21
80.99566828381222
 31
0.0
 12
723.7213462337
 22
79.3125241372976
 32
0.0
 13
724.2823942825387
 23
79.3125241372976
 33
0.0
  0
POLYLINE
  5
1467
330
1F
100
AcDbEntity
  8
LOGO
 62
     5
100
AcDb2dPolyline
 66
     1
 10
0.0
 20
0.0
 30
0.0
 70
     1
 40
0.5619471643013212
 41
0.5619471643013212
  0
VERTEX
  5
1468
330
1467
100
AcDbEntity
  8
LOGO
 62
     5
100
AcDbVertex
100
AcDb2dVertex
 10
725.215750939416
 20
80.71514425939319
 30
0.0
 42
1.0
  0
VERTEX
  5
1469
330
1467
100
AcDbEntity
  8
LOGO
 62
     5
100
AcDbVertex
100
AcDb2dVertex
 10
727.463539596621
 20
80.71514425939319
 30
0.0
 42
1.0
  0
SEQEND
  5
146A
330
1467
100
AcDbEntity
  8
LOGO
 62
     5
  0
SOLID
  5
146B
330
1F
100
AcDbEntity
  8
LOGO
 62
     5
100
AcDbTrace
 10
727.1811612364724
 20
82.95933645474724
 30
0.0
 11
727.7422092853101
 21
82.95933645474724
 31
0.0
 12
727.1811612364724
 22
79.3125241372976
 32
0.0
 13
727.7422092853101
 23
79.3125241372976
 33
0.0
  0
SOLID
  5
146C
330
1F
100
AcDbEntity
  8
LOGO
 62
     5
100
AcDbTrace
 10
728.396784043891
 20
82.11776438148907
 30
0.0
 11
728.9578320927288
 21
82.11776438148907
 31
0.0
 12
728.396784043891
 22
79.3125241372976
 32
0.0
 13
728.9578320927288
 23
79.3125241372976
 33
0.0
  0
SOLID
  5
146D
330
1F
100
AcDbEntity
  8
LOGO
 62
     5
100
AcDbTrace
 10
730.0799281904058
 20
80.99566828381222
 30
0.0
 11
730.6409762392441
 21
80.99566828381222
 31
0.0
 12
730.0799281904058
 22
79.3125241372976
 32
0.0
 13
730.6409762392441
 23
79.3125241372976
 33
0.0
  0
SOLID
  5
146E
330
1F
100
AcDbEntity
  8
LOGO
 62
     5
100
AcDbTrace
 10
731.763072336921
 20
80.99566828381222
 30
0.0
 11
732.3241203857586
 21
80.99566828381222
 31
0.0
 12
731.763072336921
 22
79.31252413729632
 32
0.0
 13
732.3241203857586
 23
79.31252413729632
 33
0.0
  0
SOLID
  5
146F
330
1F
100
AcDbEntity
  8
LOGO
 62
     5
100
AcDbTrace
 10
720.8225792797661
 20
82.51049801567573
 30
0.0
 11
721.3836273286057
 21
82.51049801567573
 31
0.0
 12
720.8225792797661
 22
82.95933645474724
 32
0.0
 13
721.3836273286057
 23
82.95933645474724
 33
0.0
  0
SOLID
  5
1470
330
1F
100
AcDbEntity
  8
LOGO
 62
     5
100
AcDbTrace
 10
720.8225792797661
 20
82.11776438148907
 30
0.0
 11
721.3836273286057
 21
82.11776438148907
 31
0.0
 12
720.8225792797661
 22
79.31252413729632
 32
0.0
 13
721.3836273286057
 23
79.3125241372976
 33
0.0
  0
SOLID
  5
1471
330
1F
100
AcDbEntity
  8
LOGO
 62
     5
100
AcDbTrace
 10
726.3396452680191
 20
84.92300462568154
 30
0.0
 11
727.9666846096505
 21
84.92300462568154
 31
0.0
 12
726.3396452680191
 22
93.15170934197789
 32
0.0
 13
727.9666846096505
 23
99.11752026129363
 33
0.0
  0
SOLID
  5
1472
330
1F
100
AcDbEntity
  8
LOGO
 62
     5
100
AcDbTrace
 10
728.6399422682571
 20
100.3518259687378
 30
0.0
 11
730.2669816098886
 21
100.351825968739
 31
0.0
 12
728.6399422682571
 22
86.15731033312568
 32
0.0
 13
730.2669816098886
 23
92.12312125244139
 33
0.0
  0
SOLID
  5
1473
330
1F
100
AcDbEntity
  8
LOGO
 62
     2
100
AcDbTrace
 10
727.9666846096505
 20
100.3518259687378
 30
0.0
 11
728.6399422682571
 21
100.3518259687378
 31
0.0
 12
727.9666846096505
 22
84.92300462568154
 32
0.0
 13
728.6399422682571
 23
84.92300462568154
 33
0.0
  0
SOLID
  5
1474
330
1F
100
AcDbEntity
  8
LOGO
 62
     5
100
AcDbTrace
 10
728.6399422682571
 20
86.15731033312568
 30
0.0
 11
730.2669816098886
 21
92.12312125244139
 31
0.0
 12
736.382405342227
 22
100.351825968739
 32
0.0
 13
734.7553660005955
 23
100.351825968739
 33
0.0
  0
SOLID
  5
1475
330
1F
100
AcDbEntity
  8
LOGO
 62
     5
100
AcDbTrace
 10
728.6399422682571
 20
84.92300462568154
 30
0.0
 11
730.2669816098886
 21
84.92300462568154
 31
0.0
 12
736.382405342227
 22
99.11752026129363
 32
0.0
 13
734.7553660005955
 23
93.15170934197789
 33
0.0
  0
SOLID
  5
1476
330
1F
100
AcDbEntity
  8
LOGO
 62
     2
100
AcDbTrace
 10
727.9666846096505
 20
84.92300462568154
 30
0.0
 11
728.6399422682571
 21
84.92300462568154
 31
0.0
 12
736.382405342227
 22
100.351825968739
 32
0.0
 13
737.0556630008337
 23
100.3518259687378
 33
0.0
  0
TEXT
  5
1477
330
1F
100
AcDbEntity
  8
0
100
AcDbText
 10
798.4142622721897
 20
65.61725357074192
 30
0.0
 40
3.137869342079999
  1
1050525
 41
0.8
  7
CHINESET
 72
     1
 11
806.1842244525783
 21
65.61725357074192
 31
0.0
100
AcDbText
  0
LINE
  5
1478
330
1F
100
AcDbEntity
  8
LOGO
 62
     1
100
AcDbLine
 10
815.8658464552299
 20
71.14140974371711
 30
0.0
 11
815.8658464552301
 21
63.61533165039563
 31
0.0
  0
LINE
  5
1479
330
1F
100
AcDbEntity
  8
LOGO
 62
     1
100
AcDbLine
 10
815.8658464552299
 20
71.14140974371711
 30
0.0
 11
796.8065701588821
 21
71.14140974371711
 31
0.0
  0
LWPOLYLINE
  5
14B8
330
1F
100
AcDbEntity
  8
0
 62
     1
100
AcDbPolyline
 90
        4
 70
     1
 43
0.0
 10
714.0197111323486
 20
101.245722117002
 10
1306.831478154532
 20
101.245722117002
 10
1306.831478154532
 20
63.61533165039563
 10
714.0197111323486
 20
63.61533165039563
1001
GENIUS_GENREC_14
1002
{
1000
PYDIR
1011
714.0197111323486
1021
63.61533165039563
1031
0.0
1002
}
1002
{
1000
PXDIR
1011
1306.831478154532
1021
101.245722117002
1031
0.0
1002
}
1002
{
1000
PORI
1011
714.0197111323486
1021
101.245722117002
1031
0.0
1002
}
1002
{
1000
PINS
1011
714.0197111323486
1021
101.245722117002
1031
0.0
1002
}
1002
{
1000
PINS2
1011
1306.831478154532
1021
63.61533165039563
1031
0.0
1002
}
1002
{
1000
C
1070
     1
1002
}
1001
GENIUS_GENOBJ-N-REC_13
1002
{
1000
OWNER
1000
GEN
1002
}
1001
GENIUS_GENODEF_13
1002
{
1000
HIER
1070
     0
1002
}
1002
{
1000
MANEDIT
1070
     0
1002
}
1002
{
1000
NOSEL
1070
     0
1002
}
1002
{
1000
BEHIND
1070
     0
1002
}
1002
{
1000
OTHER
1070
     0
1002
}
1002
{
1000
REACTOR
1002
}
  0
LINE
  5
2259
330
1F
100
AcDbEntity
  8
LOGO
 62
     6
100
AcDbLine
 10
973.2459491841456
 20
80.5490073603687
 30
0.0
 11
973.2459491841456
 21
66.69917063049988
 31
0.0
  0
LINE
  5
225A
330
1F
100
AcDbEntity
  8
LOGO
 62
     6
100
AcDbLine
 10
940.3130509659561
 20
80.5490073603687
 30
0.0
 11
940.3130509659561
 21
66.75119752261281
 31
0.0
  0
LINE
  5
225B
330
1F
100
AcDbEntity
  8
LOGO
 62
     6
100
AcDbLine
 10
973.2459491841456
 20
66.75119752261281
 30
0.0
 11
940.3130509659561
 21
66.75119752261281
 31
0.0
  0
LINE
  5
225C
330
1F
100
AcDbEntity
  8
LOGO
 62
     6
100
AcDbLine
 10
973.2459491841456
 20
80.5490073603687
 30
0.0
 11
940.3130509659561
 21
80.5490073603687
 31
0.0
  0
LINE
  5
225D
330
1F
100
AcDbEntity
  8
LOGO
 62
     6
100
AcDbLine
 10
967.5241674006565
 20
86.19356593035943
 30
0.0
 11
946.6287414037944
 21
86.19356593035943
 31
0.0
  0
LINE
  5
225E
330
1F
100
AcDbEntity
  8
LOGO
 62
     6
100
AcDbLine
 10
967.5241674006565
 20
97.48268307034152
 30
0.0
 11
946.6287414037944
 21
97.48268307034152
 31
0.0
  0
LINE
  5
225F
330
1F
100
AcDbEntity
  8
LOGO
 62
     6
100
AcDbLine
 10
957.3421135696374
 20
86.19356593035943
 30
0.0
 11
957.3421135696374
 21
80.5490073603687
 31
0.0
  0
LINE
  5
2260
330
1F
100
AcDbEntity
  8
LOGO
 62
     6
100
AcDbLine
 10
946.6287414037944
 20
97.48268307034152
 30
0.0
 11
946.6287414037944
 21
86.19356593035943
 31
0.0
  0
TEXT
  5
2261
330
1F
100
AcDbEntity
  8
LOGO
  6
Continuous
 62
     7
100
AcDbText
 10
952.2860461265963
 20
88.63113679495231
 30
0.0
 40
6.271731744434386
  1
AH
  7
CHINESET
 72
     1
 11
957.6618161932543
 21
91.76700266716951
 31
0.0
100
AcDbText
 73
     2
  0
LINE
  5
2262
330
1F
100
AcDbEntity
  8
LOGO
 62
     6
100
AcDbLine
 10
967.5241674006565
 20
97.48268307034152
 30
0.0
 11
967.5241674006565
 21
86.19356593035943
 31
0.0
  0
TEXT
  5
2263
330
1F
100
AcDbEntity
  8
LOGO
  6
Continuous
 62
     6
100
AcDbText
 10
942.1437597726198
 20
68.31913045872143
 30
246.6233798734557
 40
3.135865872217193
  1
Air-Oil coverter
 41
0.8
  7
CHINESET
 72
     4
 11
957.0764544022257
 21
69.88706339483002
 31
246.6233798734557
100
AcDbText
  0
TEXT
  5
2264
330
1F
100
AcDbEntity
  8
LOGO
 62
     6
100
AcDbText
 10
952.5608075462329
 20
73.77850009925076
 30
246.6233798734557
 40
5.01738539554751
  1
型式
 41
0.9
  7
CHINESET
 72
     4
 11
957.0764544022257
 21
76.15879513926444
 31
246.6233798734557
100
AcDbText
  0
LINE
  5
2266
330
1F
100
AcDbEntity
  8
LOGO
  6
Continuous
 62
     7
100
AcDbLine
 10
939.3582004430502
 20
91.79813666333853
 30
0.0
 11
944.343062650485
 21
91.79813666333853
 31
0.0
  0
TEXT
  5
2571
330
1F
100
AcDbEntity
  8
0
100
AcDbText
 10
733.758985762329
 20
437.6819192605185
 30
0.0
 40
7.700000000000001
  1
Length=50mm
100
AcDbText
  0
LINE
  5
308F
330
1F
100
AcDbEntity
  8
0
 62
     1
100
AcDbLine
 10
951.5403959146109
 20
137.7947362399769
 30
0.0
 11
951.5403959146109
 21
142.7947362399769
 31
0.0
  0
LINE
  5
3090
330
1F
100
AcDbEntity
  8
0
 62
     1
100
AcDbLine
 10
954.0403959146107
 20
140.2947362399769
 30
0.0
 11
949.0403959146108
 21
140.2947362399769
 31
0.0
  0
LINE
  5
3091
102
{ACAD_REACTORS
330
33B8
102
}
330
1F
100
AcDbEntity
  8
CENTER
  6
CENTER
100
AcDbLine
 10
809.6604065328353
 20
317.9494899196048
 30
0.0
 11
809.6604065328353
 21
402.0933255360433
 31
0.0
  0
LINE
  5
3092
330
1F
100
AcDbEntity
  8
0
100
AcDbLine
 10
843.6604065328353
 20
319.559078960701
 30
0.0
 11
775.6604065328354
 21
319.559078960701
 31
0.0
  0
LINE
  5
3093
330
1F
100
AcDbEntity
  8
0
100
AcDbLine
 10
843.6604065328353
 20
399.5590789607009
 30
0.0
 11
775.6604065328354
 21
399.5590789607009
 31
0.0
  0
LINE
  5
3094
330
1F
100
AcDbEntity
  8
0
100
AcDbLine
 10
769.6604065328354
 20
325.5590789607007
 30
0.0
 11
769.6604065328354
 21
393.5590789607007
 31
0.0
  0
LINE
  5
3095
330
1F
100
AcDbEntity
  8
0
100
AcDbLine
 10
849.6604065328353
 20
325.559078960701
 30
0.0
 11
849.6604065328353
 21
393.559078960701
 31
0.0
  0
LINE
  5
3096
330
1F
100
AcDbEntity
  8
0
100
AcDbLine
 10
772.1604065328354
 20
348.4580584462677
 30
0.0
 11
772.1604065328354
 21
359.559078960701
 31
0.0
  0
LINE
  5
3097
330
1F
100
AcDbEntity
  8
0
100
AcDbLine
 10
809.6604065328353
 20
322.059078960701
 30
0.0
 11
798.5593860184015
 21
322.059078960701
 31
0.0
  0
CIRCLE
  5
3098
330
1F
100
AcDbEntity
  8
0
100
AcDbCircle
 10
780.1604065328354
 20
330.0590789607008
 30
0.0
 40
7.099999999999999
  0
CIRCLE
  5
309B
330
1F
100
AcDbEntity
  8
0
100
AcDbCircle
 10
780.1604065328354
 20
389.0590789607008
 30
0.0
 40
7.099999999999999
  0
LINE
  5
309C
330
1F
100
AcDbEntity
  8
CENTER
  6
CENTER
100
AcDbLine
 10
787.2604065328362
 20
389.0590789607007
 30
0.0
 11
773.0604065328345
 21
389.0590789607007
 31
0.0
  0
LINE
  5
309D
330
1F
100
AcDbEntity
  8
CENTER
  6
CENTER
100
AcDbLine
 10
780.1604065328354
 20
396.1590789607015
 30
0.0
 11
780.1604065328354
 21
381.9590789607003
 31
0.0
  0
LINE
  5
309E
330
1F
100
AcDbEntity
  8
CENTER
  6
CENTER
100
AcDbLine
 10
787.2604065328353
 20
330.0590789607007
 30
0.0
 11
773.0604065328354
 21
330.0590789607007
 31
0.0
  0
LINE
  5
309F
330
1F
100
AcDbEntity
  8
CENTER
  6
CENTER
100
AcDbLine
 10
780.1604065328354
 20
337.1590789607004
 30
0.0
 11
780.1604065328354
 21
322.959078960702
 31
0.0
  0
LINE
  5
30A0
330
1F
100
AcDbEntity
  8
CENTER
  6
CENTER
100
AcDbLine
 10
832.0604065328355
 20
330.0590789607007
 30
0.0
 11
846.2604065328353
 21
330.0590789607007
 31
0.0
  0
CIRCLE
  5
30A2
330
1F
100
AcDbEntity
  8
0
100
AcDbCircle
 10
839.1604065328353
 20
330.0590789607008
 30
0.0
 40
7.099999999999999
  0
LINE
  5
30A3
330
1F
100
AcDbEntity
  8
CENTER
  6
CENTER
100
AcDbLine
 10
839.1604065328353
 20
337.1590789607004
 30
0.0
 11
839.1604065328353
 21
322.959078960702
 31
0.0
  0
CIRCLE
  5
30A4
330
1F
100
AcDbEntity
  8
0
100
AcDbCircle
 10
839.1604065328353
 20
389.0590789607008
 30
0.0
 40
7.099999999999999
  0
LINE
  5
30A6
330
1F
100
AcDbEntity
  8
CENTER
  6
CENTER
100
AcDbLine
 10
839.1604065328353
 20
396.1590789607015
 30
0.0
 11
839.1604065328353
 21
381.9590789607003
 31
0.0
  0
LINE
  5
30A7
330
1F
100
AcDbEntity
  8
CENTER
  6
CENTER
100
AcDbLine
 10
832.0604065328346
 20
389.0590789607007
 30
0.0
 11
846.2604065328362
 21
389.0590789607007
 31
0.0
  0
LINE
  5
30A8
330
1F
100
AcDbEntity
  8
0
100
AcDbLine
 10
781.6604065328354
 20
340.559078960701
 30
0.0
 11
780.0593860184014
 21
340.559078960701
 31
0.0
  0
LINE
  5
30A9
330
1F
100
AcDbEntity
  8
0
100
AcDbLine
 10
790.6604065328354
 20
329.958058446267
 30
0.0
 11
790.6604065328354
 21
332.134672667312
 31
0.0
  0
ARC
  5
30AA
330
1F
100
AcDbEntity
  8
0
100
AcDbCircle
 10
775.1604065328353
 20
343.5590789607008
 30
0.0
 40
3.0
100
AcDbArc
 50
348.4630409671851
 51
101.5369590328181
  0
ARC
  5
30AB
330
1F
100
AcDbEntity
  8
0
100
AcDbCircle
 10
781.6604065328354
 20
331.5590789607008
 30
0.0
 40
9.0
100
AcDbArc
 50
5.215908570452665
 51
90.0
  0
ARC
  5
30AC
330
1F
100
AcDbEntity
  8
0
100
AcDbCircle
 10
774.1604065328353
 20
348.4580584462676
 30
0.0
 40
2.0
100
AcDbArc
 50
180.0
 51
281.5369590328181
  0
ARC
  5
30AD
330
1F
100
AcDbEntity
  8
0
100
AcDbCircle
 10
780.0593860184014
 20
342.5590789607008
 30
0.0
 40
2.0
100
AcDbArc
 50
168.463040967185
 51
270.0
  0
ARC
  5
30AE
330
1F
100
AcDbEntity
  8
0
100
AcDbCircle
 10
793.6604065328354
 20
325.0590789607008
 30
0.0
 40
3.0
100
AcDbArc
 50
348.4630409671851
 51
101.5369590328181
  0
ARC
  5
30AF
330
1F
100
AcDbEntity
  8
0
100
AcDbCircle
 10
792.6604065328354
 20
329.9580584462671
 30
0.0
 40
2.0
100
AcDbArc
 50
180.0
 51
281.5369590328181
  0
ARC
  5
30B0
330
1F
100
AcDbEntity
  8
0
100
AcDbCircle
 10
798.5593860184015
 20
324.0590789607008
 30
0.0
 40
2.0
100
AcDbArc
 50
168.463040967185
 51
270.0
  0
ARC
  5
30B1
330
1F
100
AcDbEntity
  8
0
100
AcDbCircle
 10
780.0593860184014
 20
376.5590789607008
 30
0.0
 40
2.0
100
AcDbArc
 50
90.0
 51
191.5369590328149
  0
ARC
  5
30B2
330
1F
100
AcDbEntity
  8
0
100
AcDbCircle
 10
774.1604065328353
 20
370.660099475134
 30
0.0
 40
2.0
100
AcDbArc
 50
78.46304096718185
 51
180.0
  0
ARC
  5
30B3
330
1F
100
AcDbEntity
  8
0
100
AcDbCircle
 10
775.1604065328353
 20
375.5590789607008
 30
0.0
 40
3.0
100
AcDbArc
 50
258.4630409671819
 51
11.53695903281495
  0
LINE
  5
30B4
330
1F
100
AcDbEntity
  8
0
100
AcDbLine
 10
781.6604065328354
 20
378.5590789607007
 30
0.0
 11
780.0593860184014
 21
378.5590789607007
 31
0.0
  0
LINE
  5
30B5
330
1F
100
AcDbEntity
  8
0
100
AcDbLine
 10
772.1604065328354
 20
370.660099475134
 30
0.0
 11
772.1604065328354
 21
359.559078960701
 31
0.0
  0
ARC
  5
30B6
330
1F
100
AcDbEntity
  8
0
100
AcDbCircle
 10
798.5593860184015
 20
395.0590789607008
 30
0.0
 40
2.0
100
AcDbArc
 50
90.0
 51
191.5369590328149
  0
ARC
  5
30B7
330
1F
100
AcDbEntity
  8
0
100
AcDbCircle
 10
792.6604065328354
 20
389.1600994751345
 30
0.0
 40
2.0
100
AcDbArc
 50
78.46304096718185
 51
180.0
  0
ARC
  5
30B8
330
1F
100
AcDbEntity
  8
0
100
AcDbCircle
 10
793.6604065328354
 20
394.0590789607008
 30
0.0
 40
3.0
100
AcDbArc
 50
258.4630409671819
 51
11.53695903281495
  0
LINE
  5
30B9
330
1F
100
AcDbEntity
  8
0
100
AcDbLine
 10
790.6604065328354
 20
389.1600994751344
 30
0.0
 11
790.6604065328354
 21
387.5590789607007
 31
0.0
  0
LINE
  5
30BA
330
1F
100
AcDbEntity
  8
0
100
AcDbLine
 10
809.6604065328353
 20
397.059078960701
 30
0.0
 11
798.5593860184015
 21
397.059078960701
 31
0.0
  0
LINE
  5
30BB
330
1F
100
AcDbEntity
  8
0
100
AcDbLine
 10
809.6604065328353
 20
397.059078960701
 30
0.0
 11
820.7614270472689
 21
397.059078960701
 31
0.0
  0
LINE
  5
30BC
330
1F
100
AcDbEntity
  8
0
100
AcDbLine
 10
828.6604065328354
 20
389.1600994751344
 30
0.0
 11
828.6604065328354
 21
387.5590789607007
 31
0.0
  0
ARC
  5
30BD
330
1F
100
AcDbEntity
  8
0
100
AcDbCircle
 10
825.6604065328353
 20
394.0590789607008
 30
0.0
 40
3.0
100
AcDbArc
 50
168.463040967185
 51
281.5369590328181
  0
ARC
  5
30BE
330
1F
100
AcDbEntity
  8
0
100
AcDbCircle
 10
826.6604065328353
 20
389.1600994751345
 30
0.0
 40
2.0
100
AcDbArc
 50
0.0
 51
101.5369590328181
  0
ARC
  5
30BF
330
1F
100
AcDbEntity
  8
0
100
AcDbCircle
 10
820.7614270472689
 20
395.0590789607008
 30
0.0
 40
2.0
100
AcDbArc
 50
348.4630409671851
 51
90.0
  0
LINE
  5
30C0
330
1F
100
AcDbEntity
  8
0
100
AcDbLine
 10
847.1604065328353
 20
370.660099475134
 30
0.0
 11
847.1604065328353
 21
359.559078960701
 31
0.0
  0
LINE
  5
30C1
330
1F
100
AcDbEntity
  8
0
100
AcDbLine
 10
837.6604065328354
 20
378.5590789607007
 30
0.0
 11
839.2614270472693
 21
378.5590789607007
 31
0.0
  0
ARC
  5
30C2
330
1F
100
AcDbEntity
  8
0
100
AcDbCircle
 10
844.1604065328354
 20
375.5590789607008
 30
0.0
 40
3.0
100
AcDbArc
 50
168.463040967185
 51
281.5369590328181
  0
ARC
  5
30C3
330
1F
100
AcDbEntity
  8
0
100
AcDbCircle
 10
837.6604065328354
 20
387.5590789607008
 30
0.0
 40
9.0
100
AcDbArc
 50
180.0
 51
270.0
  0
ARC
  5
30C4
330
1F
100
AcDbEntity
  8
0
100
AcDbCircle
 10
845.1604065328353
 20
370.660099475134
 30
0.0
 40
2.0
100
AcDbArc
 50
0.0
 51
101.5369590328181
  0
ARC
  5
30C5
330
1F
100
AcDbEntity
  8
0
100
AcDbCircle
 10
839.2614270472693
 20
376.5590789607008
 30
0.0
 40
2.0
100
AcDbArc
 50
348.4630409671851
 51
90.0
  0
ARC
  5
30C6
330
1F
100
AcDbEntity
  8
0
100
AcDbCircle
 10
820.7614270472689
 20
324.0590789607008
 30
0.0
 40
2.0
100
AcDbArc
 50
270.0
 51
11.53695903281495
  0
ARC
  5
30C7
330
1F
100
AcDbEntity
  8
0
100
AcDbCircle
 10
826.6604065328353
 20
329.9580584462671
 30
0.0
 40
2.0
100
AcDbArc
 50
258.4630409671819
 51
0.0
  0
ARC
  5
30C8
330
1F
100
AcDbEntity
  8
0
100
AcDbCircle
 10
825.6604065328353
 20
325.0590789607008
 30
0.0
 40
3.0
100
AcDbArc
 50
78.46304096718185
 51
191.5369590328149
  0
ARC
  5
30C9
330
1F
100
AcDbEntity
  8
0
100
AcDbCircle
 10
839.2614270472693
 20
342.5590789607008
 30
0.0
 40
2.0
100
AcDbArc
 50
270.0
 51
11.53695903281495
  0
ARC
  5
30CA
330
1F
100
AcDbEntity
  8
0
100
AcDbCircle
 10
845.1604065328353
 20
348.4580584462676
 30
0.0
 40
2.0
100
AcDbArc
 50
258.4630409671819
 51
0.0
  0
ARC
  5
30CB
330
1F
100
AcDbEntity
  8
0
100
AcDbCircle
 10
837.6604065328354
 20
331.5590789607008
 30
0.0
 40
9.0
100
AcDbArc
 50
90.0
 51
174.7840914295473
  0
ARC
  5
30CC
330
1F
100
AcDbEntity
  8
0
100
AcDbCircle
 10
844.1604065328354
 20
343.5590789607008
 30
0.0
 40
3.0
100
AcDbArc
 50
78.46304096718185
 51
191.5369590328149
  0
LINE
  5
30CD
330
1F
100
AcDbEntity
  8
0
100
AcDbLine
 10
828.6604065328354
 20
329.958058446267
 30
0.0
 11
828.6604065328354
 21
332.1346726673247
 31
0.0
  0
LINE
  5
30CE
330
1F
100
AcDbEntity
  8
0
100
AcDbLine
 10
837.6604065328354
 20
340.559078960701
 30
0.0
 11
839.2614270472693
 21
340.559078960701
 31
0.0
  0
LINE
  5
30CF
330
1F
100
AcDbEntity
  8
0
100
AcDbLine
 10
809.6604065328353
 20
322.059078960701
 30
0.0
 11
820.7614270472689
 21
322.059078960701
 31
0.0
  0
LINE
  5
30D0
330
1F
100
AcDbEntity
  8
0
100
AcDbLine
 10
847.1604065328353
 20
348.4580584462677
 30
0.0
 11
847.1604065328353
 21
359.559078960701
 31
0.0
  0
ARC
  5
30D1
330
1F
100
AcDbEntity
  8
0
100
AcDbCircle
 10
775.6604065328354
 20
393.5590789607008
 30
0.0
 40
6.0
100
AcDbArc
 50
90.0
 51
180.0
  0
ARC
  5
30D2
330
1F
100
AcDbEntity
  8
0
100
AcDbCircle
 10
843.6604065328353
 20
393.5590789607008
 30
0.0
 40
6.0
100
AcDbArc
 50
0.0
 51
90.0
  0
ARC
  5
30D3
330
1F
100
AcDbEntity
  8
0
100
AcDbCircle
 10
843.6604065328353
 20
325.5590789607008
 30
0.0
 40
6.0
100
AcDbArc
 50
270.0
 51
0.0
  0
ARC
  5
30D4
330
1F
100
AcDbEntity
  8
0
100
AcDbCircle
 10
775.6604065328354
 20
325.5590789607008
 30
0.0
 40
6.0
100
AcDbArc
 50
180.0
 51
270.0
  0
CIRCLE
  5
30D5
330
1F
100
AcDbEntity
  8
0
100
AcDbCircle
 10
809.6604065328353
 20
359.5590789607008
 30
0.0
 40
19.6
  0
LINE
  5
30D7
330
1F
100
AcDbEntity
  8
0
100
AcDbLine
 10
789.8031660397557
 20
366.0590789607007
 30
0.0
 11
774.1604065328353
 21
366.0590789607007
 31
0.0
  0
LINE
  5
30D8
330
1F
100
AcDbEntity
  8
0
100
AcDbLine
 10
789.8031660397557
 20
353.059078960701
 30
0.0
 11
774.1604065328353
 21
353.059078960701
 31
0.0
  0
ARC
  5
30D9
330
1F
100
AcDbEntity
  8
0
100
AcDbCircle
 10
789.8031660397557
 20
351.0590789607008
 30
0.0
 40
2.0
100
AcDbArc
 50
23.17360984053248
 51
90.0
  0
ARC
  5
30DA
330
1F
100
AcDbEntity
  8
0
100
AcDbCircle
 10
789.8031660397557
 20
368.0590789607008
 30
0.0
 40
2.0
100
AcDbArc
 50
270.0
 51
336.8263901594675
  0
ARC
  5
30DB
330
1F
100
AcDbEntity
  8
0
100
AcDbCircle
 10
774.1604065328353
 20
351.0590789607008
 30
0.0
 40
2.0
100
AcDbArc
 50
90.0
 51
180.0
  0
ARC
  5
30DC
330
1F
100
AcDbEntity
  8
0
100
AcDbCircle
 10
774.1604065328353
 20
368.0590789607008
 30
0.0
 40
2.0
100
AcDbArc
 50
180.0
 51
270.0
  0
LINE
  5
30DD
330
1F
100
AcDbEntity
  8
0
100
AcDbLine
 10
788.306308565466
 20
358.3090789607009
 30
0.0
 11
774.1604065328353
 21
358.3090789607009
 31
0.0
  0
LINE
  5
30DE
330
1F
100
AcDbEntity
  8
0
100
AcDbLine
 10
788.306308565466
 20
360.809078960701
 30
0.0
 11
774.1604065328353
 21
360.809078960701
 31
0.0
  0
ARC
  5
30DF
330
1F
100
AcDbEntity
  8
0
100
AcDbCircle
 10
788.306308565466
 20
356.3090789607008
 30
0.0
 40
2.0
100
AcDbArc
 50
8.653756884189736
 51
90.0
  0
ARC
  5
30E0
330
1F
100
AcDbEntity
  8
0
100
AcDbCircle
 10
788.306308565466
 20
362.8090789607008
 30
0.0
 40
2.0
100
AcDbArc
 50
270.0
 51
351.3462431158103
  0
ARC
  5
30E1
330
1F
100
AcDbEntity
  8
0
100
AcDbCircle
 10
774.1604065328353
 20
362.8090789607008
 30
0.0
 40
2.0
100
AcDbArc
 50
180.0
 51
270.0
  0
ARC
  5
30E2
330
1F
100
AcDbEntity
  8
0
100
AcDbCircle
 10
774.1604065328353
 20
356.3090789607008
 30
0.0
 40
2.0
100
AcDbArc
 50
90.0
 51
180.0
  0
ARC
  5
30E3
330
1F
100
AcDbEntity
  8
0
100
AcDbCircle
 10
831.0145045002043
 20
356.3090789607008
 30
0.0
 40
2.0
100
AcDbArc
 50
90.0
 51
171.3462431158102
  0
ARC
  5
30E4
330
1F
100
AcDbEntity
  8
0
100
AcDbCircle
 10
829.517647025915
 20
351.0590789607008
 30
0.0
 40
2.0
100
AcDbArc
 50
90.0
 51
156.8263901594675
  0
LINE
  5
30E5
330
1F
100
AcDbEntity
  8
0
100
AcDbLine
 10
829.517647025915
 20
353.059078960701
 30
0.0
 11
845.1604065328353
 21
353.059078960701
 31
0.0
  0
LINE
  5
30E6
330
1F
100
AcDbEntity
  8
0
100
AcDbLine
 10
831.0145045002043
 20
358.3090789607009
 30
0.0
 11
845.160406532835
 21
358.3090789607009
 31
0.0
  0
ARC
  5
30E7
330
1F
100
AcDbEntity
  8
0
100
AcDbCircle
 10
845.1604065328353
 20
351.0590789607008
 30
0.0
 40
2.0
100
AcDbArc
 50
0.0
 51
90.0
  0
ARC
  5
30E8
330
1F
100
AcDbEntity
  8
0
100
AcDbCircle
 10
845.160406532835
 20
356.3090789607008
 30
0.0
 40
2.0
100
AcDbArc
 50
0.0
 51
90.0
  0
ARC
  5
30E9
330
1F
100
AcDbEntity
  8
0
100
AcDbCircle
 10
845.1604065328353
 20
362.8090789607008
 30
0.0
 40
2.0
100
AcDbArc
 50
270.0
 51
0.0
  0
LINE
  5
30EA
330
1F
100
AcDbEntity
  8
0
100
AcDbLine
 10
831.0145045002043
 20
360.809078960701
 30
0.0
 11
845.1604065328353
 21
360.809078960701
 31
0.0
  0
ARC
  5
30EB
330
1F
100
AcDbEntity
  8
0
100
AcDbCircle
 10
831.0145045002043
 20
362.8090789607008
 30
0.0
 40
2.0
100
AcDbArc
 50
188.6537568841898
 51
270.0
  0
ARC
  5
30EC
330
1F
100
AcDbEntity
  8
0
100
AcDbCircle
 10
829.517647025915
 20
368.0590789607008
 30
0.0
 40
2.0
100
AcDbArc
 50
203.1736098405325
 51
270.0
  0
LINE
  5
30ED
330
1F
100
AcDbEntity
  8
0
100
AcDbLine
 10
829.517647025915
 20
366.0590789607007
 30
0.0
 11
845.1604065328353
 21
366.0590789607007
 31
0.0
  0
ARC
  5
30EE
330
1F
100
AcDbEntity
  8
0
100
AcDbCircle
 10
845.1604065328353
 20
368.0590789607008
 30
0.0
 40
2.0
100
AcDbArc
 50
270.0
 51
0.0
  0
ARC
  5
30EF
330
1F
100
AcDbEntity
  8
0
100
AcDbCircle
 10
812.9104065328354
 20
380.91317692807
 30
0.0
 40
2.0
100
AcDbArc
 50
180.0
 51
261.3462431158033
  0
LINE
  5
30F0
330
1F
100
AcDbEntity
  8
0
100
AcDbLine
 10
810.9104065328354
 20
380.9131769280701
 30
0.0
 11
810.9104065328354
 21
395.0590789607007
 31
0.0
  0
ARC
  5
30F1
330
1F
100
AcDbEntity
  8
0
100
AcDbCircle
 10
812.9104065328354
 20
395.0590789607005
 30
0.0
 40
2.0
100
AcDbArc
 50
90.0
 51
180.0
  0
ARC
  5
30F2
330
1F
100
AcDbEntity
  8
0
100
AcDbCircle
 10
806.4104065328354
 20
395.0590789607008
 30
0.0
 40
2.0
100
AcDbArc
 50
0.0
 51
90.0
  0
LINE
  5
30F3
330
1F
100
AcDbEntity
  8
0
100
AcDbLine
 10
808.4104065328354
 20
380.9131769280701
 30
0.0
 11
808.4104065328354
 21
395.0590789607007
 31
0.0
  0
ARC
  5
30F4
330
1F
100
AcDbEntity
  8
0
100
AcDbCircle
 10
806.4104065328354
 20
380.91317692807
 30
0.0
 40
2.0
100
AcDbArc
 50
278.6537568841838
 51
0.0
  0
LINE
  5
30F5
330
1F
100
AcDbEntity
  8
0
100
AcDbLine
 10
793.6768955775034
 20
373.7748229630666
 30
0.0
 11
788.2074550302034
 21
379.2442635103665
 31
0.0
  0
LINE
  5
30F6
330
1F
100
AcDbEntity
  8
0
100
AcDbLine
 10
795.4446625304697
 20
375.5425899160331
 30
0.0
 11
789.9752219831705
 21
381.0120304633323
 31
0.0
  0
ARC
  5
30F7
330
1F
100
AcDbEntity
  8
0
100
AcDbCircle
 10
792.2626820151301
 20
372.3606094006933
 30
0.0
 40
2.0
100
AcDbArc
 50
323.6537568841891
 51
45.00000000000464
  0
ARC
  5
30F8
330
1F
100
AcDbEntity
  8
0
100
AcDbCircle
 10
796.8588760928426
 20
376.956803478406
 30
0.0
 40
2.0
100
AcDbArc
 50
225.0000000000046
 51
306.3462431158107
  0
ARC
  5
30F9
330
1F
100
AcDbEntity
  8
0
100
AcDbCircle
 10
791.3894355455433
 20
382.4262440257054
 30
0.0
 40
2.0
100
AcDbArc
 50
152.1847959010867
 51
225.0000000000046
  0
ARC
  5
30FA
330
1F
100
AcDbEntity
  8
0
100
AcDbCircle
 10
786.7932414678301
 20
377.8300499479935
 30
0.0
 40
2.0
100
AcDbArc
 50
45.00000000000464
 51
117.815204098914
  0
ARC
  5
30FB
330
1F
100
AcDbEntity
  8
0
100
AcDbCircle
 10
781.6604065328354
 20
387.5590789607008
 30
0.0
 40
9.0
100
AcDbArc
 50
270.0
 51
0.0
  0
ARC
  5
30FC
330
1F
100
AcDbEntity
  8
0
100
AcDbCircle
 10
792.2626820151301
 20
346.7575485207082
 30
0.0
 40
2.0
100
AcDbArc
 50
314.9999999999954
 51
36.34624311581091
  0
LINE
  5
30FD
330
1F
100
AcDbEntity
  8
0
100
AcDbLine
 10
793.6768955775034
 20
345.3433349583353
 30
0.0
 11
788.2074550302034
 21
339.8738944110352
 31
0.0
  0
ARC
  5
30FE
330
1F
100
AcDbEntity
  8
0
100
AcDbCircle
 10
786.7932414678301
 20
341.2881079734083
 30
0.0
 40
2.0
100
AcDbArc
 50
242.184795901086
 51
314.9999999999954
  0
ARC
  5
30FF
330
1F
100
AcDbEntity
  8
0
100
AcDbCircle
 10
791.3894355455433
 20
336.6919138956963
 30
0.0
 40
2.0
100
AcDbArc
 50
134.9999999999953
 51
207.8152040989133
  0
LINE
  5
3100
330
1F
100
AcDbEntity
  8
0
100
AcDbLine
 10
795.4446625304697
 20
343.5755680053688
 30
0.0
 11
789.9752219831705
 21
338.1061274580694
 31
0.0
  0
ARC
  5
3101
330
1F
100
AcDbEntity
  8
0
100
AcDbCircle
 10
796.8588760928426
 20
342.1613544429956
 30
0.0
 40
2.0
100
AcDbArc
 50
53.65375688418837
 51
134.9999999999953
  0
ARC
  5
3102
330
1F
100
AcDbEntity
  8
0
100
AcDbCircle
 10
822.4619369728282
 20
342.1613544429956
 30
0.0
 40
2.0
100
AcDbArc
 50
45.00000000000464
 51
126.3462431158105
  0
ARC
  5
3103
330
1F
100
AcDbEntity
  8
0
100
AcDbCircle
 10
827.0581310505406
 20
346.7575485207082
 30
0.0
 40
2.0
100
AcDbArc
 50
143.6537568841891
 51
225.0000000000046
  0
LINE
  5
3104
330
1F
100
AcDbEntity
  8
0
100
AcDbLine
 10
825.6439174881673
 20
345.3433349583353
 30
0.0
 11
831.1133580354674
 21
339.8738944110352
 31
0.0
  0
LINE
  5
3105
330
1F
100
AcDbEntity
  8
0
100
AcDbLine
 10
823.8761505352014
 20
343.5755680053688
 30
0.0
 11
829.3455910825008
 21
338.1061274580694
 31
0.0
  0
ARC
  5
3106
330
1F
100
AcDbEntity
  8
0
100
AcDbCircle
 10
827.9313775201279
 20
336.6919138956963
 30
0.0
 40
2.0
100
AcDbArc
 50
332.1847959010867
 51
45.00000000000464
  0
ARC
  5
3107
330
1F
100
AcDbEntity
  8
0
100
AcDbCircle
 10
832.5275715978406
 20
341.2881079734083
 30
0.0
 40
2.0
100
AcDbArc
 50
225.0000000000046
 51
297.815204098914
  0
ARC
  5
3108
330
1F
100
AcDbEntity
  8
0
100
AcDbCircle
 10
832.5275715978406
 20
377.8300499479935
 30
0.0
 40
2.0
100
AcDbArc
 50
62.18479590108594
 51
134.9999999999953
  0
ARC
  5
3109
330
1F
100
AcDbEntity
  8
0
100
AcDbCircle
 10
827.9313775201279
 20
382.4262440257054
 30
0.0
 40
2.0
100
AcDbArc
 50
314.9999999999954
 51
27.81520409891326
  0
LINE
  5
310A
330
1F
100
AcDbEntity
  8
0
100
AcDbLine
 10
823.8761505352014
 20
375.5425899160331
 30
0.0
 11
829.3455910825008
 21
381.0120304633323
 31
0.0
  0
ARC
  5
310B
330
1F
100
AcDbEntity
  8
0
100
AcDbCircle
 10
822.4619369728282
 20
376.956803478406
 30
0.0
 40
2.0
100
AcDbArc
 50
233.6537568841894
 51
314.9999999999954
  0
LINE
  5
310C
330
1F
100
AcDbEntity
  8
0
100
AcDbLine
 10
825.6439174881673
 20
373.7748229630666
 30
0.0
 11
831.1133580354674
 21
379.2442635103665
 31
0.0
  0
ARC
  5
310D
330
1F
100
AcDbEntity
  8
0
100
AcDbCircle
 10
827.0581310505406
 20
372.3606094006933
 30
0.0
 40
2.0
100
AcDbArc
 50
134.9999999999953
 51
216.346243115811
  0
LINE
  5
310E
330
1F
100
AcDbEntity
  8
0
100
AcDbLine
 10
826.7059553827323
 20
330.559078960701
 30
0.0
 11
816.3479065328354
 21
330.5590789607007
 31
0.0
  0
LINE
  5
310F
330
1F
100
AcDbEntity
  8
0
100
AcDbLine
 10
822.1604065328353
 20
332.5590789607007
 30
0.0
 11
797.1604065328354
 21
332.5590789607007
 31
0.0
  0
LINE
  5
3110
330
1F
100
AcDbEntity
  8
0
100
AcDbLine
 10
818.6604065328353
 20
336.559078960701
 30
0.0
 11
800.6604065328353
 21
336.5590789607007
 31
0.0
  0
LINE
  5
3111
330
1F
100
AcDbEntity
  8
0
100
AcDbLine
 10
818.6604065328353
 20
336.559078960701
 30
0.0
 11
818.6604065328353
 21
342.1475885018113
 31
0.0
  0
LINE
  5
3112
330
1F
100
AcDbEntity
  8
0
100
AcDbLine
 10
800.6604065328353
 20
336.559078960701
 30
0.0
 11
800.6604065328353
 21
342.1475885018113
 31
0.0
  0
LINE
  5
3113
330
1F
100
AcDbEntity
  8
0
100
AcDbLine
 10
822.1604065328353
 20
330.5590789607007
 30
0.0
 11
822.1604065328353
 21
332.5590789607007
 31
0.0
  0
LINE
  5
3114
330
1F
100
AcDbEntity
  8
0
100
AcDbLine
 10
797.1604065328354
 20
330.5590789607007
 30
0.0
 11
797.1604065328354
 21
332.5590789607007
 31
0.0
  0
LINE
  5
3115
330
1F
100
AcDbEntity
  8
0
100
AcDbLine
 10
822.1604065328353
 20
332.5590789607007
 30
0.0
 11
818.6604065328353
 21
336.559078960701
 31
0.0
  0
LINE
  5
3116
330
1F
100
AcDbEntity
  8
0
100
AcDbLine
 10
800.6604065328353
 20
336.5590789607007
 30
0.0
 11
797.1604065328354
 21
332.5590789607007
 31
0.0
  0
ARC
  5
3117
330
1F
100
AcDbEntity
  8
0
100
AcDbCircle
 10
792.6148576829384
 20
332.5590789607008
 30
0.0
 40
2.0
100
AcDbArc
 50
185.2159085704526
 51
270.0
  0
ARC
  5
3118
330
1F
100
AcDbEntity
  8
0
100
AcDbCircle
 10
826.7059553827323
 20
332.5590789607008
 30
0.0
 40
2.0
100
AcDbArc
 50
270.0
 51
354.7840914295441
  0
LINE
  5
3119
330
1F
100
AcDbEntity
  8
0
100
AcDbLine
 10
837.1604065328353
 20
319.2590789607008
 30
0.0
 11
782.1604065328354
 21
319.2590789607008
 31
0.0
  0
LINE
  5
311A
330
1F
100
AcDbEntity
  8
0
100
AcDbLine
 10
911.2403959146108
 20
232.2947362399769
 30
0.0
 11
991.8403959146109
 21
232.2947362399769
 31
0.0
  0
LINE
  5
311B
330
1F
100
AcDbEntity
  8
0
100
AcDbLine
 10
911.540395914611
 20
262.294736239977
 30
0.0
 11
991.5403959146111
 21
262.294736239977
 31
0.0
  0
LINE
  5
311C
330
1F
100
AcDbEntity
  8
CENTER
  6
CENTER
100
AcDbLine
 10
951.5403959146111
 20
286.4720230805139
 30
0.0
 11
951.5403959146109
 21
135.8771915885096
 31
0.0
  0
LINE
  5
311D
330
1F
100
AcDbEntity
  8
CENTER
  6
CENTER
100
AcDbLine
 10
852.0658972665044
 20
359.559078960701
 30
0.0
 11
768.0121567051244
 21
359.559078960701
 31
0.0
  0
LINE
  5
311E
330
1F
100
AcDbEntity
  8
0
100
AcDbLine
 10
911.2403959146108
 20
232.2947362399769
 30
0.0
 11
911.540395914611
 21
262.294736239977
 31
0.0
  0
LINE
  5
311F
330
1F
100
AcDbEntity
  8
0
100
AcDbLine
 10
911.2403959146108
 20
232.2947362399769
 30
0.0
 11
911.2403959146108
 21
261.0447362399769
 31
0.0
  0
LINE
  5
3120
330
1F
100
AcDbEntity
  8
0
100
AcDbLine
 10
911.2403959146108
 20
261.0447362399769
 30
0.0
 11
911.527895914611
 21
261.0447362399769
 31
0.0
  0
LINE
  5
3121
330
1F
100
AcDbEntity
  8
0
100
AcDbLine
 10
991.8403959146109
 20
232.2947362399769
 30
0.0
 11
991.5403959146111
 21
262.294736239977
 31
0.0
  0
LINE
  5
3122
330
1F
100
AcDbEntity
  8
0
100
AcDbLine
 10
769.3604065328352
 20
232.2947362399767
 30
0.0
 11
769.6604065328352
 21
262.2947362399767
 31
0.0
  0
LINE
  5
3123
330
1F
100
AcDbEntity
  8
CENTER
  6
CENTER
100
AcDbLine
 10
809.6604065328353
 20
286.4128129703788
 30
0.0
 11
809.6604065328351
 21
133.5341762934337
 31
0.0
  0
LINE
  5
3124
330
1F
100
AcDbEntity
  8
0
100
AcDbLine
 10
828.4104065328353
 20
273.2947362399769
 30
0.0
 11
790.9104065328354
 21
273.2947362399765
 31
0.0
  0
LINE
  5
3125
330
1F
100
AcDbEntity
  8
0
100
AcDbLine
 10
849.6604065328352
 20
262.294736239977
 30
0.0
 11
769.6604065328352
 21
262.2947362399767
 31
0.0
  0
LINE
  5
3126
330
1F
100
AcDbEntity
  8
0
100
AcDbLine
 10
849.9604065328353
 20
232.2947362399767
 30
0.0
 11
769.3604065328352
 21
232.2947362399767
 31
0.0
  0
LINE
  5
3127
330
1F
100
AcDbEntity
  8
0
100
AcDbLine
 10
837.1604065328353
 20
319.2590789607008
 30
0.0
 11
837.1604065328353
 21
319.559078960701
 31
0.0
  0
LINE
  5
3128
330
1F
100
AcDbEntity
  8
0
100
AcDbLine
 10
782.1604065328354
 20
319.2590789607008
 30
0.0
 11
782.1604065328354
 21
319.559078960701
 31
0.0
  0
LINE
  5
3129
330
1F
100
AcDbEntity
  8
0
100
AcDbLine
 10
782.1604065328352
 20
259.2947362399767
 30
0.0
 11
782.1604065328352
 21
232.2947362399767
 31
0.0
  0
LINE
  5
312A
330
1F
100
AcDbEntity
  8
0
100
AcDbLine
 10
837.1604065328352
 20
259.2947362399767
 30
0.0
 11
837.1604065328352
 21
232.2947362399767
 31
0.0
  0
LINE
  5
312B
330
1F
100
AcDbEntity
  8
0
100
AcDbLine
 10
835.1604065328354
 20
261.2947362399767
 30
0.0
 11
784.1604065328351
 21
261.2947362399767
 31
0.0
  0
ARC
  5
312C
330
1F
100
AcDbEntity
  8
0
100
AcDbCircle
 10
784.1604065328351
 20
259.2947362399766
 30
0.0
 40
2.0
100
AcDbArc
 50
90.0
 51
180.0
  0
ARC
  5
312D
330
1F
100
AcDbEntity
  8
0
100
AcDbCircle
 10
835.1604065328354
 20
259.2947362399766
 30
0.0
 40
2.0
100
AcDbArc
 50
0.0
 51
90.0
  0
CIRCLE
  5
3132
330
1F
100
AcDbEntity
  8
0
100
AcDbCircle
 10
809.6604065328351
 20
247.2947362399766
 30
0.0
 40
11.09999999999997
  0
LINE
  5
3133
330
1F
100
AcDbEntity
  8
0
100
AcDbLine
 10
802.9729065328353
 20
330.5590789607007
 30
0.0
 11
792.6148576829384
 21
330.5590789607007
 31
0.0
  0
ARC
  5
3134
330
1F
100
AcDbEntity
  8
0
100
AcDbCircle
 10
802.9729065328353
 20
331.3090789607008
 30
0.0
 40
0.75
100
AcDbArc
 50
270.0
 51
0.0
  0
ARC
  5
3135
330
1F
100
AcDbEntity
  8
0
100
AcDbCircle
 10
816.3479065328354
 20
331.3090789607008
 30
0.0
 40
0.75
100
AcDbArc
 50
180.0
 51
270.0
  0
LINE
  5
313E
330
1F
100
AcDbEntity
  8
CENTER
  6
CENTER
100
AcDbLine
 10
943.5403959146105
 20
240.7947362399769
 30
0.0
 11
959.5403959146112
 21
240.7947362399769
 31
0.0
  0
ARC
  5
313F
330
1F
100
AcDbEntity
  8
0
100
AcDbCircle
 10
951.5403959146109
 20
240.7947362399768
 30
0.0
 40
8.000000000000007
100
AcDbArc
 50
0.0
 51
180.0
  0
CIRCLE
  5
3140
330
1F
100
AcDbEntity
  8
0
100
AcDbCircle
 10
951.5403959146109
 20
240.7947362399768
 30
0.0
 40
1.476178609655924
  0
CIRCLE
  5
3141
330
1F
100
AcDbEntity
  8
0
100
AcDbCircle
 10
951.5403959146109
 20
240.7947362399768
 30
0.0
 40
2.311025535877035
  0
CIRCLE
  5
3142
330
1F
100
AcDbEntity
  8
0
100
AcDbCircle
 10
951.5403959146109
 20
240.7947362399768
 30
0.0
 40
3.149999999999941
  0
CIRCLE
  5
3143
330
1F
100
AcDbEntity
  8
0
100
AcDbCircle
 10
951.5403959146109
 20
240.7947362399768
 30
0.0
 40
3.599999999999994
  0
CIRCLE
  5
3144
330
1F
100
AcDbEntity
  8
0
100
AcDbCircle
 10
951.5403959146109
 20
240.7947362399768
 30
0.0
 40
4.199999999999981
  0
LINE
  5
3145
330
1F
100
AcDbEntity
  8
0
100
AcDbLine
 10
943.5403959146126
 20
240.7947362399769
 30
0.0
 11
943.5403959146126
 21
232.2947362399769
 31
0.0
  0
LINE
  5
3146
330
1F
100
AcDbEntity
  8
0
100
AcDbLine
 10
959.5403959146095
 20
240.7947362399769
 30
0.0
 11
959.5403959146095
 21
232.2947362399769
 31
0.0
  0
LINE
  5
314F
330
1F
100
AcDbEntity
  8
0
  6
ByBlock
 62
     0
100
AcDbLine
 10
812.1604065328353
 20
319.2590789607008
 30
0.0
 11
817.6922410752993
 21
319.2590789607008
 31
0.0
  0
LINE
  5
3150
330
1F
100
AcDbEntity
  8
0
100
AcDbLine
 10
849.9604065328353
 20
232.2947362399767
 30
0.0
 11
849.6604065328352
 21
262.2947362399767
 31
0.0
  0
LINE
  5
3151
330
1F
100
AcDbEntity
  8
0
100
AcDbLine
 10
789.9104065328353
 20
272.2947362399765
 30
0.0
 11
789.9104065328353
 21
262.2947362399767
 31
0.0
  0
LINE
  5
3152
330
1F
100
AcDbEntity
  8
0
100
AcDbLine
 10
829.4104065328353
 20
272.2947362399769
 30
0.0
 11
829.4104065328351
 21
262.294736239977
 31
0.0
  0
LINE
  5
3153
330
1F
100
AcDbEntity
  8
0
100
AcDbLine
 10
789.9104065328353
 20
272.2947362399765
 30
0.0
 11
790.9104065328354
 21
273.2947362399765
 31
0.0
  0
LINE
  5
3154
330
1F
100
AcDbEntity
  8
0
100
AcDbLine
 10
828.4104065328353
 20
273.2947362399769
 30
0.0
 11
829.4104065328353
 21
272.2947362399769
 31
0.0
  0
LINE
  5
3155
330
1F
100
AcDbEntity
  8
0
100
AcDbLine
 10
789.9104065328353
 20
272.2947362399765
 30
0.0
 11
829.4104065328353
 21
272.2947362399769
 31
0.0
  0
LINE
  5
3156
330
1F
100
AcDbEntity
  8
0
100
AcDbLine
 10
931.7903959146111
 20
272.2947362399769
 30
0.0
 11
931.7903959146111
 21
262.294736239977
 31
0.0
  0
LINE
  5
3157
330
1F
100
AcDbEntity
  8
0
100
AcDbLine
 10
971.290395914611
 20
272.2947362399769
 30
0.0
 11
971.290395914611
 21
262.294736239977
 31
0.0
  0
LINE
  5
3158
330
1F
100
AcDbEntity
  8
0
100
AcDbLine
 10
932.7903959146111
 20
273.2947362399769
 30
0.0
 11
970.2903959146111
 21
273.2947362399769
 31
0.0
  0
LINE
  5
3159
330
1F
100
AcDbEntity
  8
0
100
AcDbLine
 10
970.2903959146111
 20
273.2947362399769
 30
0.0
 11
971.290395914611
 21
272.2947362399769
 31
0.0
  0
LINE
  5
315A
330
1F
100
AcDbEntity
  8
0
100
AcDbLine
 10
932.7903959146111
 20
273.2947362399769
 30
0.0
 11
931.7903959146111
 21
272.2947362399769
 31
0.0
  0
LINE
  5
315B
330
1F
100
AcDbEntity
  8
0
100
AcDbLine
 10
971.290395914611
 20
272.2947362399769
 30
0.0
 11
931.7903959146111
 21
272.2947362399769
 31
0.0
  0
LINE
  5
315C
330
1F
100
AcDbEntity
  8
0
100
AcDbLine
 10
917.5403959146111
 20
232.2947362399769
 30
0.0
 11
917.5403959146107
 21
170.2947362399769
 31
0.0
  0
LINE
  5
315D
330
1F
100
AcDbEntity
  8
0
100
AcDbLine
 10
985.540395914611
 20
232.2947362399769
 30
0.0
 11
985.5403959146109
 21
170.2947362399769
 31
0.0
  0
CIRCLE
  5
3161
330
1F
100
AcDbEntity
  8
0
100
AcDbCircle
 10
809.6604065328351
 20
155.2947362399769
 30
0.0
 40
11.09999999999997
  0
LINE
  5
3162
330
1F
100
AcDbEntity
  8
0
100
AcDbLine
 10
769.3604065328352
 20
170.2947362399769
 30
0.0
 11
769.6604065328352
 21
140.2947362399769
 31
0.0
  0
LINE
  5
3163
330
1F
100
AcDbEntity
  8
0
100
AcDbLine
 10
782.1604065328352
 20
143.2947362399769
 30
0.0
 11
782.1604065328352
 21
170.2947362399769
 31
0.0
  0
LINE
  5
3164
330
1F
100
AcDbEntity
  8
0
100
AcDbLine
 10
837.1604065328352
 20
143.2947362399769
 30
0.0
 11
837.1604065328352
 21
170.2947362399769
 31
0.0
  0
LINE
  5
3165
330
1F
100
AcDbEntity
  8
0
100
AcDbLine
 10
849.9604065328353
 20
170.2947362399769
 30
0.0
 11
849.6604065328352
 21
140.2947362399769
 31
0.0
  0
LINE
  5
3166
330
1F
100
AcDbEntity
  8
0
100
AcDbLine
 10
849.9604065328353
 20
170.2947362399769
 30
0.0
 11
769.3604065328352
 21
170.2947362399769
 31
0.0
  0
LINE
  5
3167
330
1F
100
AcDbEntity
  8
0
100
AcDbLine
 10
835.1604065328354
 20
141.2947362399769
 30
0.0
 11
784.1604065328351
 21
141.2947362399769
 31
0.0
  0
LINE
  5
3168
330
1F
100
AcDbEntity
  8
0
100
AcDbLine
 10
849.6604065328352
 20
140.2947362399769
 30
0.0
 11
769.6604065328352
 21
140.2947362399769
 31
0.0
  0
ARC
  5
3169
330
1F
100
AcDbEntity
  8
0
100
AcDbCircle
 10
835.1604065328354
 20
143.2947362399769
 30
0.0
 40
2.0
100
AcDbArc
 50
270.0
 51
0.0
  0
ARC
  5
316B
330
1F
100
AcDbEntity
  8
0
100
AcDbCircle
 10
784.1604065328351
 20
143.2947362399769
 30
0.0
 40
2.0
100
AcDbArc
 50
180.0
 51
270.0
  0
LINE
  5
316D
330
1F
100
AcDbEntity
  8
0
100
AcDbLine
 10
911.2403959146108
 20
170.2947362399769
 30
0.0
 11
911.5403959146108
 21
140.2947362399769
 31
0.0
  0
LINE
  5
316E
330
1F
100
AcDbEntity
  8
0
100
AcDbLine
 10
911.2403959146108
 20
170.2947362399769
 30
0.0
 11
911.2403959146108
 21
141.5447362399769
 31
0.0
  0
CIRCLE
  5
316F
330
1F
100
AcDbEntity
  8
0
100
AcDbCircle
 10
951.5403959146109
 20
161.7947362399768
 30
0.0
 40
2.311025535877035
  0
CIRCLE
  5
3170
330
1F
100
AcDbEntity
  8
0
100
AcDbCircle
 10
951.5403959146109
 20
161.7947362399768
 30
0.0
 40
3.149999999999941
  0
CIRCLE
  5
3171
330
1F
100
AcDbEntity
  8
0
100
AcDbCircle
 10
951.5403959146109
 20
161.7947362399768
 30
0.0
 40
3.599999999999994
  0
CIRCLE
  5
3172
330
1F
100
AcDbEntity
  8
0
100
AcDbCircle
 10
951.5403959146109
 20
161.7947362399768
 30
0.0
 40
4.199999999999981
  0
CIRCLE
  5
3173
330
1F
100
AcDbEntity
  8
0
100
AcDbCircle
 10
951.5403959146109
 20
161.7947362399768
 30
0.0
 40
1.476178609655924
  0
ARC
  5
3174
330
1F
100
AcDbEntity
  8
0
100
AcDbCircle
 10
951.5403959146109
 20
161.7947362399768
 30
0.0
 40
8.000000000000007
100
AcDbArc
 50
180.0
 51
0.0
  0
LINE
  5
3175
330
1F
100
AcDbEntity
  8
0
100
AcDbLine
 10
991.8403959146109
 20
170.2947362399769
 30
0.0
 11
991.5403959146107
 21
140.2947362399769
 31
0.0
  0
LINE
  5
3176
330
1F
100
AcDbEntity
  8
CENTER
  6
CENTER
100
AcDbLine
 10
943.5403959146105
 20
161.7947362399769
 30
0.0
 11
959.5403959146112
 21
161.7947362399769
 31
0.0
  0
LINE
  5
3177
330
1F
100
AcDbEntity
  8
0
100
AcDbLine
 10
911.2403959146108
 20
170.2947362399769
 30
0.0
 11
991.8403959146109
 21
170.2947362399769
 31
0.0
  0
LINE
  5
3178
330
1F
100
AcDbEntity
  8
0
100
AcDbLine
 10
959.5403959146095
 20
161.7947362399769
 30
0.0
 11
959.5403959146095
 21
170.2947362399769
 31
0.0
  0
LINE
  5
3179
330
1F
100
AcDbEntity
  8
0
100
AcDbLine
 10
943.5403959146126
 20
161.7947362399769
 30
0.0
 11
943.5403959146126
 21
170.2947362399769
 31
0.0
  0
LINE
  5
317A
330
1F
100
AcDbEntity
  8
0
100
AcDbLine
 10
911.5403959146108
 20
140.2947362399769
 30
0.0
 11
991.5403959146107
 21
140.2947362399769
 31
0.0
  0
LINE
  5
317B
330
1F
100
AcDbEntity
  8
0
100
AcDbLine
 10
911.2403959146108
 20
141.5447362399769
 30
0.0
 11
911.527895914611
 21
141.5447362399769
 31
0.0
  0
LINE
  5
317C
330
1F
100
AcDbEntity
  8
0
100
AcDbLine
 10
971.2903959146109
 20
138.2947362399769
 30
0.0
 11
931.7903959146107
 21
138.2947362399769
 31
0.0
  0
LINE
  5
317D
330
1F
100
AcDbEntity
  8
0
100
AcDbLine
 10
932.7903959146109
 20
137.2947362399769
 30
0.0
 11
970.2903959146109
 21
137.2947362399769
 31
0.0
  0
LINE
  5
317E
330
1F
100
AcDbEntity
  8
0
100
AcDbLine
 10
970.2903959146109
 20
137.2947362399769
 30
0.0
 11
971.2903959146109
 21
138.2947362399769
 31
0.0
  0
LINE
  5
317F
330
1F
100
AcDbEntity
  8
0
100
AcDbLine
 10
932.7903959146109
 20
137.2947362399769
 30
0.0
 11
931.7903959146107
 21
138.2947362399769
 31
0.0
  0
LINE
  5
3180
330
1F
100
AcDbEntity
  8
0
100
AcDbLine
 10
931.7903959146107
 20
138.2947362399769
 30
0.0
 11
931.7903959146107
 21
140.2947362399769
 31
0.0
  0
LINE
  5
3181
330
1F
100
AcDbEntity
  8
0
100
AcDbLine
 10
971.2903959146109
 20
138.2947362399769
 30
0.0
 11
971.2903959146109
 21
140.2947362399769
 31
0.0
  0
LINE
  5
3182
330
1F
100
AcDbEntity
  8
0
100
AcDbLine
 10
843.6604065328351
 20
232.2947362399769
 30
0.0
 11
843.6604065328351
 21
170.2947362399769
 31
0.0
  0
LINE
  5
3183
330
1F
100
AcDbEntity
  8
0
100
AcDbLine
 10
775.6604065328351
 20
232.2947362399769
 30
0.0
 11
775.6604065328351
 21
170.2947362399769
 31
0.0
  0
LINE
  5
3184
330
1F
100
AcDbEntity
  8
0
100
AcDbLine
 10
829.6604065328351
 20
138.2947362399769
 30
0.0
 11
789.6604065328351
 21
138.2947362399769
 31
0.0
  0
LINE
  5
3185
330
1F
100
AcDbEntity
  8
0
100
AcDbLine
 10
790.6604065328352
 20
137.2947362399769
 30
0.0
 11
828.6604065328351
 21
137.2947362399769
 31
0.0
  0
LINE
  5
3186
330
1F
100
AcDbEntity
  8
0
100
AcDbLine
 10
829.6604065328351
 20
138.2947362399769
 30
0.0
 11
829.6604065328351
 21
140.2947362399769
 31
0.0
  0
LINE
  5
3187
330
1F
100
AcDbEntity
  8
0
100
AcDbLine
 10
828.6604065328351
 20
137.2947362399769
 30
0.0
 11
829.6604065328351
 21
138.2947362399769
 31
0.0
  0
LINE
  5
3188
330
1F
100
AcDbEntity
  8
0
100
AcDbLine
 10
789.6604065328351
 20
138.2947362399769
 30
0.0
 11
789.6604065328351
 21
140.2947362399769
 31
0.0
  0
LINE
  5
3189
330
1F
100
AcDbEntity
  8
0
100
AcDbLine
 10
790.6604065328352
 20
137.2947362399769
 30
0.0
 11
789.6604065328351
 21
138.2947362399769
 31
0.0
  0
LINE
  5
31D3
330
1F
100
AcDbEntity
  8
0
100
AcDbLine
 10
828.2604065328355
 20
273.2947362399767
 30
0.0
 11
791.0604065328357
 21
273.2947362399767
 31
0.0
  0
LINE
  5
31D4
330
1F
100
AcDbEntity
  8
0
100
AcDbLine
 10
791.9104065328354
 20
283.2947362399767
 30
0.0
 11
827.4104065328353
 21
283.2947362399767
 31
0.0
  0
LINE
  5
31D5
330
1F
100
AcDbEntity
  8
0
100
AcDbLine
 10
828.4104065328353
 20
282.2947362399767
 30
0.0
 11
828.4104065328353
 21
273.7947362399767
 31
0.0
  0
LINE
  5
31D6
330
1F
100
AcDbEntity
  8
0
100
AcDbLine
 10
790.9104065328354
 20
282.2947362399767
 30
0.0
 11
790.9104065328354
 21
273.7947362399767
 31
0.0
  0
LINE
  5
31D7
330
1F
100
AcDbEntity
  8
0
100
AcDbLine
 10
791.4104065328354
 20
273.2947362399767
 30
0.0
 11
827.9104065328354
 21
273.2947362399767
 31
0.0
  0
LINE
  5
31D8
330
1F
100
AcDbEntity
  8
0
100
AcDbLine
 10
797.187936849569
 20
275.2947362399767
 30
0.0
 11
822.132876216102
 21
275.2947362399767
 31
0.0
  0
LINE
  5
31D9
330
1F
100
AcDbEntity
  8
0
100
AcDbLine
 10
828.4104065328353
 20
273.7947362399767
 30
0.0
 11
827.9104065328354
 21
273.2947362399767
 31
0.0
  0
LINE
  5
31DA
330
1F
100
AcDbEntity
  8
0
100
AcDbLine
 10
791.4104065328354
 20
273.2947362399767
 30
0.0
 11
790.9104065328354
 21
273.7947362399767
 31
0.0
  0
LINE
  5
31DB
330
1F
100
AcDbEntity
  8
0
100
AcDbLine
 10
827.4104065328353
 20
283.2947362399767
 30
0.0
 11
828.4104065328353
 21
282.2947362399767
 31
0.0
  0
LINE
  5
31DC
330
1F
100
AcDbEntity
  8
0
100
AcDbLine
 10
791.9104065328354
 20
283.2947362399767
 30
0.0
 11
790.9104065328354
 21
282.2947362399767
 31
0.0
  0
LINE
  5
31DD
330
1F
100
AcDbEntity
  8
0
100
AcDbLine
 10
790.9104065328354
 20
273.7947362399767
 30
0.0
 11
828.4104065328353
 21
273.7947362399767
 31
0.0
  0
LINE
  5
31DE
330
1F
100
AcDbEntity
  8
0
100
AcDbLine
 10
790.9104065328354
 20
282.2947362399767
 30
0.0
 11
797.187936849569
 21
282.2947362399767
 31
0.0
  0
LINE
  5
31DF
330
1F
100
AcDbEntity
  8
0
100
AcDbLine
 10
822.132876216102
 20
283.2947362399767
 30
0.0
 11
822.132876216102
 21
275.2947362399767
 31
0.0
  0
LINE
  5
31E0
330
1F
100
AcDbEntity
  8
0
100
AcDbLine
 10
797.187936849569
 20
283.2947362399767
 30
0.0
 11
797.187936849569
 21
275.2947362399767
 31
0.0
  0
LINE
  5
31E1
330
1F
100
AcDbEntity
  8
0
100
AcDbLine
 10
822.132876216102
 20
282.2947362399767
 30
0.0
 11
828.4104065328353
 21
282.2947362399767
 31
0.0
  0
LINE
  5
31E2
330
1F
100
AcDbEntity
  8
0
100
AcDbLine
 10
797.187936849569
 20
283.2947362399767
 30
0.0
 11
822.132876216102
 21
275.2947362399767
 31
0.0
  0
LINE
  5
31E3
330
1F
100
AcDbEntity
  8
0
100
AcDbLine
 10
822.132876216102
 20
283.2947362399767
 30
0.0
 11
797.187936849569
 21
275.2947362399767
 31
0.0
  0
LINE
  5
31E4
330
1F
100
AcDbEntity
  8
0
100
AcDbLine
 10
970.1403959146109
 20
273.2947362399769
 30
0.0
 11
932.9403959146111
 21
273.2947362399769
 31
0.0
  0
LINE
  5
31E5
330
1F
100
AcDbEntity
  8
0
100
AcDbLine
 10
932.7903959146111
 20
273.2947362399769
 30
0.0
 11
970.2903959146111
 21
273.2947362399769
 31
0.0
  0
LINE
  5
31E6
330
1F
100
AcDbEntity
  8
0
100
AcDbLine
 10
932.7903959146111
 20
273.2947362399769
 30
0.0
 11
932.7903959146112
 21
275.294736239977
 31
0.0
  0
LINE
  5
31E7
330
1F
100
AcDbEntity
  8
0
100
AcDbLine
 10
970.2903959146111
 20
273.2947362399769
 30
0.0
 11
970.2903959146111
 21
275.294736239977
 31
0.0
  0
LINE
  5
31E8
330
1F
100
AcDbEntity
  8
0
100
AcDbLine
 10
932.7903959146112
 20
275.294736239977
 30
0.0
 11
970.2903959146111
 21
275.294736239977
 31
0.0
  0
LINE
  5
31E9
330
1F
100
AcDbEntity
  8
0
100
AcDbLine
 10
937.5403959146112
 20
283.2947362399769
 30
0.0
 11
965.5403959146113
 21
283.2947362399769
 31
0.0
  0
LINE
  5
31EA
330
1F
100
AcDbEntity
  8
0
100
AcDbLine
 10
937.540395914611
 20
275.294736239977
 30
0.0
 11
937.5403959146112
 21
283.2947362399769
 31
0.0
1001
GENIUS_GENODEF_13
1002
{
1000
HIER
1070
     0
1002
}
1002
{
1000
MANEDIT
1070
     0
1002
}
1002
{
1000
NOSEL
1070
     0
1002
}
1002
{
1000
BEHIND
1070
     0
1002
}
1002
{
1000
OTHER
1070
     0
1002
}
1002
{
1000
REACTOR
1002
}
1001
GENIUS_GENOBJ-N-CEN_13
1002
{
1000
OWNER
1000
GEN
1002
}
1001
GENIUS_GENCEN_19
1002
{
1040
3.0
1002
}
  0
LINE
  5
31EB
330
1F
100
AcDbEntity
  8
0
100
AcDbLine
 10
965.5403959146111
 20
275.294736239977
 30
0.0
 11
965.5403959146113
 21
283.2947362399769
 31
0.0
1001
GENIUS_GENODEF_13
1002
{
1000
HIER
1070
     0
1002
}
1002
{
1000
MANEDIT
1070
     0
1002
}
1002
{
1000
NOSEL
1070
     0
1002
}
1002
{
1000
BEHIND
1070
     0
1002
}
1002
{
1000
OTHER
1070
     0
1002
}
1002
{
1000
REACTOR
1002
}
1001
GENIUS_GENOBJ-N-CEN_13
1002
{
1000
OWNER
1000
GEN
1002
}
1001
GENIUS_GENCEN_19
1002
{
1040
3.0
1002
}
  0
LINE
  5
31EC
330
1F
100
AcDbEntity
  8
0
100
AcDbLine
 10
937.540395914611
 20
282.2947362399769
 30
0.0
 11
965.5403959146113
 21
282.2947362399769
 31
0.0
  0
CIRCLE
  5
31ED
330
1F
100
AcDbEntity
  8
0
100
AcDbCircle
 10
809.6604065328353
 20
359.559078960701
 30
0.0
 40
18.75000000000003
  0
ARC
  5
31EE
330
1F
100
AcDbEntity
  8
0
100
AcDbCircle
 10
809.6604065328353
 20
359.559078960701
 30
0.0
 40
17.75000000000003
100
AcDbArc
 50
127.9327909192859
 51
232.067209080714
  0
LINE
  5
31EF
330
1F
100
AcDbEntity
  8
0
100
AcDbLine
 10
822.1328762161018
 20
345.5590789607009
 30
0.0
 11
797.187936849569
 21
345.5590789607009
 31
0.0
  0
LINE
  5
31F0
330
1F
100
AcDbEntity
  8
0
100
AcDbLine
 10
822.1328762161018
 20
373.559078960701
 30
0.0
 11
797.1879368495688
 21
373.559078960701
 31
0.0
  0
ARC
  5
31F1
330
1F
100
AcDbEntity
  8
0
100
AcDbCircle
 10
809.6604065328353
 20
359.559078960701
 30
0.0
 40
17.75000000000003
100
AcDbArc
 50
307.932790919286
 51
52.06720908071403
  0
ARC
  5
31F2
330
1F
100
AcDbEntity
  8
AM_4
100
AcDbCircle
 10
809.6604065328351
 20
247.2947362399766
 30
0.0
 40
8.649999999999998
100
AcDbArc
 50
260.0
 51
170.0
  0
LINE
  5
31F3
330
1F
100
AcDbEntity
  8
AM_7
  6
AM_ISO08W050x2
100
AcDbLine
 10
809.6604065328351
 20
258.9447362399767
 30
0.0
 11
809.6604065328351
 21
235.6447362399766
 31
0.0
  0
CIRCLE
  5
31F4
330
1F
100
AcDbEntity
  8
AM_0
100
AcDbCircle
 10
809.6604065328351
 20
247.2947362399766
 30
0.0
 40
7.474999999999998
  0
LINE
  5
31F5
330
1F
100
AcDbEntity
  8
AM_7
  6
AM_ISO08W050x2
100
AcDbLine
 10
798.010406532835
 20
247.2947362399766
 30
0.0
 11
821.3104065328352
 21
247.2947362399766
 31
0.0
  0
ARC
  5
31F6
330
1F
100
AcDbEntity
  8
AM_4
100
AcDbCircle
 10
809.6604065328351
 20
155.2947362399769
 30
0.0
 40
8.649999999999998
100
AcDbArc
 50
260.0
 51
170.0
  0
LINE
  5
31F7
330
1F
100
AcDbEntity
  8
AM_7
  6
AM_ISO08W050x2
100
AcDbLine
 10
809.6604065328351
 20
166.9447362399769
 30
0.0
 11
809.6604065328351
 21
143.6447362399769
 31
0.0
  0
CIRCLE
  5
31F8
330
1F
100
AcDbEntity
  8
AM_0
100
AcDbCircle
 10
809.6604065328351
 20
155.2947362399769
 30
0.0
 40
7.474999999999998
  0
LINE
  5
31F9
330
1F
100
AcDbEntity
  8
AM_7
  6
AM_ISO08W050x2
100
AcDbLine
 10
798.010406532835
 20
155.2947362399769
 30
0.0
 11
821.3104065328352
 21
155.2947362399769
 31
0.0
  0
LINE
  5
320B
330
1F
100
AcDbEntity
  8
0
100
AcDbLine
 10
756.9347621858173
 20
242.09858381727
 30
0.0
 11
769.5104065328351
 21
242.09858381727
 31
0.0
  0
ARC
  5
320C
330
1F
100
AcDbEntity
  8
0
100
AcDbCircle
 10
756.9347621858171
 20
241.0985838172699
 30
0.0
 40
1.0
100
AcDbArc
 50
90.0
 51
180.0
  0
LINE
  5
320D
330
1F
100
AcDbEntity
  8
0
100
AcDbLine
 10
748.5424573404038
 20
252.4908886626834
 30
0.0
 11
769.5104065328351
 21
252.4908886626834
 31
0.0
  0
ARC
  5
320E
330
1F
100
AcDbEntity
  8
0
100
AcDbCircle
 10
748.5424573404036
 20
249.4908886626834
 30
0.0
 40
3.0
100
AcDbArc
 50
90.0
 51
180.0
  0
LINE
  5
320F
330
1F
100
AcDbEntity
  8
0
100
AcDbLine
 10
755.9347621858173
 20
241.09858381727
 30
0.0
 11
755.9347621858173
 21
238.4908886626835
 31
0.0
  0
LINE
  5
3210
330
1F
100
AcDbEntity
  8
0
100
AcDbLine
 10
745.5424573404038
 20
249.4908886626835
 30
0.0
 11
745.5424573404038
 21
238.4908886626835
 31
0.0
  0
LINE
  5
3211
330
1F
100
AcDbEntity
  8
0
100
AcDbLine
 10
743.810406532835
 20
230.4908886626835
 30
0.0
 11
743.810406532835
 21
236.4908886626835
 31
0.0
  0
LINE
  5
3212
330
1F
100
AcDbEntity
  8
0
100
AcDbLine
 10
743.810406532835
 20
236.4908886626835
 30
0.0
 11
757.6668129933859
 21
236.4908886626835
 31
0.0
  0
LINE
  5
3213
330
1F
100
AcDbEntity
  8
0
100
AcDbLine
 10
743.810406532835
 20
230.4908886626835
 30
0.0
 11
757.6668129933862
 21
230.4908886626835
 31
0.0
  0
LINE
  5
3214
330
1F
100
AcDbEntity
  8
0
100
AcDbLine
 10
757.6668129933862
 20
230.4908886626835
 30
0.0
 11
757.6668129933862
 21
236.4908886626835
 31
0.0
  0
LINE
  5
3215
330
1F
100
AcDbEntity
  8
0
100
AcDbLine
 10
747.2745081479729
 20
231.4908886626835
 30
0.0
 11
747.2745081479729
 21
235.4908886626837
 31
0.0
  0
LINE
  5
3216
330
1F
100
AcDbEntity
  8
0
100
AcDbLine
 10
754.2027113782483
 20
231.4908886626832
 30
0.0
 11
754.2027113782483
 21
235.4908886626839
 31
0.0
  0
LINE
  5
3217
330
1F
100
AcDbEntity
  8
0
100
AcDbLine
 10
744.7386097631106
 20
228.4908886626835
 30
0.0
 11
756.7386097631106
 21
228.4908886626835
 31
0.0
  0
LINE
  5
3218
330
1F
100
AcDbEntity
  8
0
100
AcDbLine
 10
756.7386097631106
 20
228.4908886626835
 30
0.0
 11
756.7386097631106
 21
230.4908886626835
 31
0.0
  0
LINE
  5
3219
330
1F
100
AcDbEntity
  8
0
100
AcDbLine
 10
744.7386097631106
 20
228.4908886626835
 30
0.0
 11
744.7386097631106
 21
230.4908886626835
 31
0.0
  0
LINE
  5
321A
330
1F
100
AcDbEntity
  8
0
100
AcDbLine
 10
744.7386097631106
 20
238.4908886626835
 30
0.0
 11
756.7386097631106
 21
238.4908886626835
 31
0.0
  0
LINE
  5
321B
330
1F
100
AcDbEntity
  8
0
100
AcDbLine
 10
756.7386097631106
 20
238.4908886626835
 30
0.0
 11
756.7386097631106
 21
236.4908886626835
 31
0.0
  0
LINE
  5
321C
330
1F
100
AcDbEntity
  8
0
100
AcDbLine
 10
744.7386097631106
 20
238.4908886626835
 30
0.0
 11
744.7386097631106
 21
236.4908886626835
 31
0.0
  0
ARC
  5
321D
330
1F
100
AcDbEntity
  8
0
100
AcDbCircle
 10
744.7176487642125
 20
234.2594339351077
 30
0.0
 40
3.768603565485
100
AcDbArc
 50
256.0699585645965
 51
312.7236798454837
  0
ARC
  5
321E
330
1F
100
AcDbEntity
  8
0
100
AcDbCircle
 10
750.7386097631108
 20
236.9908886626836
 30
0.0
 40
6.500000000000228
100
AcDbArc
 50
237.7957724960285
 51
302.204227503967
  0
ARC
  5
321F
330
1F
100
AcDbEntity
  8
0
100
AcDbCircle
 10
750.7386097631108
 20
229.9908886626834
 30
0.0
 40
6.500000000000228
100
AcDbArc
 50
57.79577249603295
 51
122.2042275039715
  0
ARC
  5
3220
330
1F
100
AcDbEntity
  8
0
100
AcDbCircle
 10
756.7595707620092
 20
234.2594339351077
 30
0.0
 40
3.768603565485
100
AcDbArc
 50
227.2763201545163
 51
283.9300414354035
  0
ARC
  5
3221
330
1F
100
AcDbEntity
  8
0
100
AcDbCircle
 10
744.7176487642125
 20
232.7223433902594
 30
0.0
 40
3.768603565485
100
AcDbArc
 50
47.27632015451622
 51
103.9300414354035
  0
ARC
  5
3222
330
1F
100
AcDbEntity
  8
0
100
AcDbCircle
 10
756.7595707620092
 20
232.7223433902594
 30
0.0
 40
3.768603565485
100
AcDbArc
 50
76.06995856459652
 51
132.7236798454837
  0
LINE
  5
3223
330
1F
100
AcDbEntity
  8
0
100
AcDbLine
 10
769.5104065328351
 20
242.09858381727
 30
0.0
 11
769.5104065328351
 21
252.4908886626834
 31
0.0
  0
LINE
  5
3224
330
1F
100
AcDbEntity
  8
AM_7
100
AcDbLine
 10
750.7386097631106
 20
146.3267885408709
 30
0.0
 11
750.7386097631106
 21
253.9038637385664
 31
0.0
1001
GENIUS_GENODEF_13
1002
{
1000
HIER
1070
     0
1002
}
1002
{
1000
MANEDIT
1070
     0
1002
}
1002
{
1000
NOSEL
1070
     0
1002
}
1002
{
1000
BEHIND
1070
     0
1002
}
1002
{
1000
OTHER
1070
     0
1002
}
1002
{
1000
REACTOR
1002
}
1001
GENIUS_GENOBJ-N-CEN_13
1002
{
1000
OWNER
1000
GEN
1002
}
1001
GENIUS_GENCEN_19
1002
{
1040
3.0
1002
}
  0
LINE
  5
3225
330
1F
100
AcDbEntity
  8
0
100
AcDbLine
 10
756.9347621858173
 20
160.4908886626839
 30
0.0
 11
769.5104065328351
 21
160.4908886626839
 31
0.0
  0
ARC
  5
3226
330
1F
100
AcDbEntity
  8
0
100
AcDbCircle
 10
756.9347621858171
 20
161.490888662684
 30
0.0
 40
1.0
100
AcDbArc
 50
180.0
 51
270.0
  0
LINE
  5
3227
330
1F
100
AcDbEntity
  8
0
100
AcDbLine
 10
748.5424573404038
 20
150.0985838172705
 30
0.0
 11
769.5104065328351
 21
150.0985838172705
 31
0.0
  0
ARC
  5
3228
330
1F
100
AcDbEntity
  8
0
100
AcDbCircle
 10
748.5424573404036
 20
153.0985838172705
 30
0.0
 40
3.0
100
AcDbArc
 50
180.0
 51
270.0
  0
LINE
  5
3229
330
1F
100
AcDbEntity
  8
0
100
AcDbLine
 10
755.9347621858173
 20
161.490888662684
 30
0.0
 11
755.9347621858173
 21
164.0985838172705
 31
0.0
  0
LINE
  5
322A
330
1F
100
AcDbEntity
  8
0
100
AcDbLine
 10
745.5424573404038
 20
153.0985838172705
 30
0.0
 11
745.5424573404038
 21
164.0985838172705
 31
0.0
  0
LINE
  5
322B
330
1F
100
AcDbEntity
  8
0
100
AcDbLine
 10
743.810406532835
 20
172.0985838172705
 30
0.0
 11
743.810406532835
 21
166.0985838172704
 31
0.0
  0
LINE
  5
322C
330
1F
100
AcDbEntity
  8
0
100
AcDbLine
 10
743.810406532835
 20
166.0985838172704
 30
0.0
 11
757.6668129933859
 21
166.0985838172704
 31
0.0
  0
LINE
  5
322D
330
1F
100
AcDbEntity
  8
0
100
AcDbLine
 10
743.810406532835
 20
172.0985838172705
 30
0.0
 11
757.6668129933862
 21
172.0985838172705
 31
0.0
  0
LINE
  5
322E
330
1F
100
AcDbEntity
  8
0
100
AcDbLine
 10
757.6668129933862
 20
172.0985838172705
 30
0.0
 11
757.6668129933862
 21
166.0985838172704
 31
0.0
  0
LINE
  5
322F
330
1F
100
AcDbEntity
  8
0
100
AcDbLine
 10
747.2745081479729
 20
171.0985838172704
 30
0.0
 11
747.2745081479729
 21
167.0985838172702
 31
0.0
  0
LINE
  5
3230
330
1F
100
AcDbEntity
  8
0
100
AcDbLine
 10
754.2027113782483
 20
171.0985838172707
 30
0.0
 11
754.2027113782483
 21
167.09858381727
 31
0.0
  0
LINE
  5
3231
330
1F
100
AcDbEntity
  8
0
100
AcDbLine
 10
744.7386097631106
 20
174.0985838172704
 30
0.0
 11
756.7386097631106
 21
174.0985838172704
 31
0.0
  0
LINE
  5
3232
330
1F
100
AcDbEntity
  8
0
100
AcDbLine
 10
756.7386097631106
 20
174.0985838172704
 30
0.0
 11
756.7386097631106
 21
172.0985838172705
 31
0.0
  0
LINE
  5
3233
330
1F
100
AcDbEntity
  8
0
100
AcDbLine
 10
744.7386097631106
 20
174.0985838172704
 30
0.0
 11
744.7386097631106
 21
172.0985838172705
 31
0.0
  0
LINE
  5
3234
330
1F
100
AcDbEntity
  8
0
100
AcDbLine
 10
744.7386097631106
 20
164.0985838172705
 30
0.0
 11
756.7386097631106
 21
164.0985838172705
 31
0.0
  0
LINE
  5
3235
330
1F
100
AcDbEntity
  8
0
100
AcDbLine
 10
756.7386097631106
 20
164.0985838172705
 30
0.0
 11
756.7386097631106
 21
166.0985838172704
 31
0.0
  0
LINE
  5
3236
330
1F
100
AcDbEntity
  8
0
100
AcDbLine
 10
744.7386097631106
 20
164.0985838172705
 30
0.0
 11
744.7386097631106
 21
166.0985838172704
 31
0.0
  0
ARC
  5
3237
330
1F
100
AcDbEntity
  8
0
100
AcDbCircle
 10
744.7176487642125
 20
168.3300385448462
 30
0.0
 40
3.768603565485
100
AcDbArc
 50
47.27632015451624
 51
103.9300414354035
  0
ARC
  5
3238
330
1F
100
AcDbEntity
  8
0
100
AcDbCircle
 10
750.7386097631108
 20
165.5985838172703
 30
0.0
 40
6.500000000000228
100
AcDbArc
 50
57.795772496033
 51
122.2042275039714
  0
ARC
  5
3239
330
1F
100
AcDbEntity
  8
0
100
AcDbCircle
 10
750.7386097631108
 20
172.5985838172705
 30
0.0
 40
6.500000000000228
100
AcDbArc
 50
237.7957724960285
 51
302.204227503967
  0
ARC
  5
323A
330
1F
100
AcDbEntity
  8
0
100
AcDbCircle
 10
756.7595707620092
 20
168.3300385448462
 30
0.0
 40
3.768603565485
100
AcDbArc
 50
76.06995856459649
 51
132.7236798454837
  0
ARC
  5
323B
330
1F
100
AcDbEntity
  8
0
100
AcDbCircle
 10
744.7176487642125
 20
169.8671290896945
 30
0.0
 40
3.768603565485
100
AcDbArc
 50
256.0699585645965
 51
312.7236798454838
  0
ARC
  5
323C
330
1F
100
AcDbEntity
  8
0
100
AcDbCircle
 10
756.7595707620092
 20
169.8671290896945
 30
0.0
 40
3.768603565485
100
AcDbArc
 50
227.2763201545163
 51
283.9300414354034
  0
LINE
  5
323E
330
1F
100
AcDbEntity
  8
0
100
AcDbLine
 10
753.7386097631106
 20
174.0985838172704
 30
0.0
 11
753.7386097631106
 21
228.4908886626835
 31
0.0
  0
LINE
  5
323F
330
1F
100
AcDbEntity
  8
0
100
AcDbLine
 10
747.7386097631105
 20
174.0985838172704
 30
0.0
 11
747.7386097631105
 21
228.4908886626835
 31
0.0
  0
LINE
  5
3243
330
1F
100
AcDbEntity
  8
0
100
AcDbLine
 10
814.1604065328353
 20
319.2590789607008
 30
0.0
 11
805.1604065328353
 21
319.2590789607008
 31
0.0
  0
ARC
  5
3285
330
1F
100
AcDbEntity
  8
AM_4
100
AcDbCircle
 10
839.1604065328353
 20
330.0590789607003
 30
0.0
 40
4.0
100
AcDbArc
 50
350.0
 51
260.0
  0
CIRCLE
  5
3286
330
1F
100
AcDbEntity
  8
AM_0
100
AcDbCircle
 10
839.1604065328353
 20
330.0590789607003
 30
0.0
 40
3.323417653293459
  0
ARC
  5
3287
330
1F
100
AcDbEntity
  8
AM_4
100
AcDbCircle
 10
839.1604065328353
 20
389.0590789607005
 30
0.0
 40
4.0
100
AcDbArc
 50
350.0
 51
260.0
  0
CIRCLE
  5
3288
330
1F
100
AcDbEntity
  8
AM_0
100
AcDbCircle
 10
839.1604065328353
 20
389.0590789607005
 30
0.0
 40
3.323417653293459
  0
ARC
  5
3289
330
1F
100
AcDbEntity
  8
AM_4
100
AcDbCircle
 10
780.1604065328354
 20
389.0590789607003
 30
0.0
 40
4.0
100
AcDbArc
 50
350.0
 51
260.0
  0
CIRCLE
  5
328A
330
1F
100
AcDbEntity
  8
AM_0
100
AcDbCircle
 10
780.1604065328354
 20
389.0590789607003
 30
0.0
 40
3.323417653293459
  0
ARC
  5
328B
330
1F
100
AcDbEntity
  8
AM_4
100
AcDbCircle
 10
780.1604065328354
 20
330.0590789607003
 30
0.0
 40
4.0
100
AcDbArc
 50
350.0
 51
260.0
  0
CIRCLE
  5
328C
330
1F
100
AcDbEntity
  8
AM_0
100
AcDbCircle
 10
780.1604065328354
 20
330.0590789607003
 30
0.0
 40
3.323417653293459
  0
DIMENSION
  5
328D
330
1F
100
AcDbEntity
  8
AM_5
100
AcDbDimension
  2
*D5
 10
859.6604065328355
 20
345.5590789607009
 30
0.0
 11
859.6604065328353
 21
360.0214077278241
 31
0.0
 70
   160
 71
     5
 42
28.0
  3
AM_ISO$0
100
AcDbAlignedDimension
 13
822.132876216102
 23
373.559078960701
 33
0.0
 14
822.1328762161018
 24
345.5590789607009
 34
0.0
 50
90.0
100
AcDbRotatedDimension
1001
ACAD
1000
DSTYLE
1002
{
1070
    40
1040
1.0
1070
   144
1040
1.0
1070
   272
1070
     8
1002
}
  0
DIMENSION
  5
328E
330
1F
100
AcDbEntity
  8
AM_5
100
AcDbDimension
  2
*D6
 10
867.6604065328353
 20
330.0590789607007
 30
0.0
 11
865.1604065328353
 21
359.5590789607009
 31
0.0
 70
    32
 71
     5
 42
59.0
  3
AM_ISO$0
100
AcDbAlignedDimension
 13
846.2604065328362
 23
389.0590789607007
 33
0.0
 14
846.2604065328353
 24
330.0590789607007
 34
0.0
 50
90.0
100
AcDbRotatedDimension
1001
ACAD
1000
DSTYLE
1002
{
1070
    40
1040
1.0
1070
   144
1040
1.0
1070
   272
1070
     8
1002
}
  0
DIMENSION
  5
328F
330
1F
100
AcDbEntity
  8
AM_5
100
AcDbDimension
  2
*D7
 10
875.6604065328353
 20
319.559078960701
 30
0.0
 11
873.1604065328353
 21
359.5590789607011
 31
0.0
 70
    32
  1
{\Famgdt;o}<>
 71
     5
 42
80.0
  3
AM_ISO$0
100
AcDbAlignedDimension
 13
843.6604065328353
 23
399.5590789607009
 33
0.0
 14
843.6604065328353
 24
319.559078960701
 34
0.0
 50
90.0
100
AcDbRotatedDimension
1001
ACAD
1000
DSTYLE
1002
{
1070
    40
1040
1.0
1070
   144
1040
1.0
1070
   272
1070
     8
1002
}
  0
TEXT
  5
3290
330
1F
100
AcDbEntity
  8
AM_5
100
AcDbText
 10
857.3733042150497
 20
311.4690596408304
 30
0.0
 40
3.0
  1
4-M8x1.25
100
AcDbText
  0
INSERT
  5
3291
330
1F
100
AcDbEntity
  8
AM_5
100
AcDbBlockReference
  2
*S21
 10
0.0
 20
0.0
 30
0.0
  0
LINE
  5
338F
330
1F
100
AcDbEntity
  8
0
100
AcDbLine
 10
747.9905335517575
 20
355.059078960701
 30
0.0
 11
769.6604065328354
 21
355.059078960701
 31
0.0
  0
LINE
  5
3390
330
1F
100
AcDbEntity
  8
0
100
AcDbLine
 10
747.9905335517574
 20
364.0590789607009
 30
0.0
 11
769.6604065328354
 21
364.0590789607009
 31
0.0
  0
LINE
  5
3391
330
1F
100
AcDbEntity
  8
0
100
AcDbLine
 10
769.6604065328354
 20
355.059078960701
 30
0.0
 11
769.6604065328354
 21
364.0590789607009
 31
0.0
  0
LWPOLYLINE
  5
3392
102
{ACAD_REACTORS
330
33B8
102
}
330
1F
100
AcDbEntity
  8
0
100
AcDbPolyline
 90
        7
 70
     0
 43
0.0
 10
754.9187367820329
 20
364.0590789607009
 10
754.0527113782486
 20
365.559078960701
 10
747.1245081479732
 20
365.559078960701
 10
743.6604065328354
 20
359.559078960701
 10
747.1245081479732
 20
353.559078960701
 10
754.0527113782486
 20
353.559078960701
 10
754.9187367820329
 20
355.059078960701
  0
ARC
  5
3393
330
1F
100
AcDbEntity
  8
0
100
AcDbCircle
 10
750.5886097631107
 20
359.5590789607009
 30
0.0
 40
6.0
100
AcDbArc
 50
48.59037789072921
 51
311.4096221092704
  0
LINE
  5
3394
330
1F
100
AcDbEntity
  8
AM_7
  6
AM_ISO08W050x2
100
AcDbLine
 10
750.5886097631109
 20
359.559078960701
 30
0.0
 11
750.5886097631109
 21
368.5590789607009
 31
0.0
1001
GENIUS_GENOREF_13
1005
339A
  0
LINE
  5
3395
330
1F
100
AcDbEntity
  8
AM_7
  6
AM_ISO08W050x2
100
AcDbLine
 10
750.5886097631109
 20
359.559078960701
 30
0.0
 11
741.5886097631109
 21
359.559078960701
 31
0.0
1001
GENIUS_GENOREF_13
1005
339A
  0
LINE
  5
3396
330
1F
100
AcDbEntity
  8
AM_7
  6
AM_ISO08W050x2
100
AcDbLine
 10
750.5886097631109
 20
359.559078960701
 30
0.0
 11
750.5886097631109
 21
350.559078960701
 31
0.0
1001
GENIUS_GENOREF_13
1005
339A
  0
LINE
  5
3397
330
1F
100
AcDbEntity
  8
AM_7
  6
AM_ISO08W050x2
100
AcDbLine
 10
750.5886097631109
 20
359.559078960701
 30
0.0
 11
772.4411410231339
 21
359.559078960701
 31
0.0
1001
GENIUS_GENOREF_13
1005
339A
  0
LINE
  5
3398
330
1F
100
AcDbEntity
  8
0
100
AcDbLine
 10
747.9905335517575
 20
364.0590789607009
 30
0.0
 11
745.3924573404042
 21
359.559078960701
 31
0.0
  0
LINE
  5
3399
330
1F
100
AcDbEntity
  8
0
100
AcDbLine
 10
745.3924573404042
 20
359.559078960701
 30
0.0
 11
747.9905335517575
 21
355.059078960701
 31
0.0
  0
POINT
  5
339A
330
1F
100
AcDbEntity
  8
0
 60
     1
100
AcDbPoint
 10
77.13605733333952
 20
-624.0865145027562
 30
0.0
1001
GENIUS_GENOLIS_13
1002
{
1000
ENT
1005
3397
1005
3396
1005
3395
1005
3394
1002
}
1001
GENIUS_GENOENT_13
1002
{
1000
MYREF
1005
339A
1002
}
1002
{
1000
GRP
1005
0
1002
}
1001
GENIUS_GENODEF_13
1002
{
1000
HIER
1070
    10
1002
}
1002
{
1000
MANEDIT
1070
     0
1002
}
1002
{
1000
NOSEL
1070
     0
1002
}
1002
{
1000
BEHIND
1070
     0
1002
}
1002
{
1000
OTHER
1070
     0
1002
}
1002
{
1000
REACTOR
1002
}
1001
GENIUS_GENOBJ-N-CRS_13
1002
{
1000
OWNER
1000
GEN
1002
}
  0
DIMENSION
  5
33AA
102
{ACAD_XDICTIONARY
360
33B7
102
}
102
{ACAD_REACTORS
330
33B8
102
}
330
1F
100
AcDbEntity
  8
AM_5
100
AcDbDimension
  2
*D8
 10
809.6604065328353
 20
309.2590789607009
 30
0.0
 11
776.6604065328354
 21
311.7590789607008
 31
0.0
 70
    32
 71
     5
 42
66.0
  3
AM_ISO$0
100
AcDbAlignedDimension
 13
743.6604065328354
 23
359.559078960701
 33
0.0
 14
809.6604065328353
 24
317.9494899196048
 34
0.0
100
AcDbRotatedDimension
1001
ACAD
1000
DSTYLE
1002
{
1070
    40
1040
1.0
1070
   144
1040
1.0
1070
   272
1070
     8
1002
}
  0
DIMENSION
  5
33FF
330
1F
100
AcDbEntity
  8
AM_5
100
AcDbDimension
  2
*D10
 10
860.2832135507492
 20
155.2947362399768
 30
0.0
 11
857.7832135507492
 21
147.794736239977
 31
0.0
 70
    32
 71
     5
 42
14.99999999999983
  3
AM_ISO$0
100
AcDbAlignedDimension
 13
849.6604065328352
 23
140.294736239977
 33
0.0
 14
821.3104065328352
 24
155.2947362399769
 34
0.0
 50
90.0
100
AcDbRotatedDimension
1001
ACAD
1000
DSTYLE
1002
{
1070
    40
1040
1.0
1070
   144
1040
1.0
1070
   272
1070
     8
1002
}
  0
DIMENSION
  5
3400
330
1F
100
AcDbEntity
  8
AM_5
100
AcDbDimension
  2
*D11
 10
868.2832135507492
 20
170.2947362399769
 30
0.0
 11
865.7832135507492
 21
155.2947362399771
 31
0.0
 70
    32
 71
     5
 42
30.0
  3
AM_ISO$0
100
AcDbAlignedDimension
 13
849.6604065328352
 23
140.2947362399769
 33
0.0
 14
849.9604065328353
 24
170.2947362399769
 34
0.0
 50
90.0
100
AcDbRotatedDimension
1001
ACAD
1000
DSTYLE
1002
{
1070
    40
1040
1.0
1070
   144
1040
1.0
1070
   272
1070
     8
1002
}
  0
DIMENSION
  5
3401
330
1F
100
AcDbEntity
  8
AM_5
100
AcDbDimension
  2
*D12
 10
860.2832135507492
 20
140.294736239977
 30
0.0
 11
860.2832135507492
 21
126.9326042056212
 31
0.0
 70
   160
 71
     5
 42
3.0
  3
AM_ISO$0
100
AcDbAlignedDimension
 13
835.9655271767946
 23
137.294736239977
 33
0.0
 14
849.6604065328352
 24
140.294736239977
 34
0.0
 50
90.0
100
AcDbRotatedDimension
1001
ACAD
1000
DSTYLE
1002
{
1070
    40
1040
1.0
1070
   144
1040
1.0
1070
   272
1070
     8
1002
}
  0
DIMENSION
  5
3402
330
1F
100
AcDbEntity
  8
AM_5
100
AcDbDimension
  2
*D13
 10
884.2832135507496
 20
283.2947362399767
 30
0.0
 11
881.3538480206881
 21
210.294736239977
 31
0.0
 70
    32
  1
108+length
 71
     5
 42
145.9999999999996
  3
AM_ISO$0
100
AcDbAlignedDimension
 13
836.6560398042409
 23
137.294736239977
 33
0.0
 14
827.4104065328353
 24
283.2947362399767
 34
0.0
 50
90.0
100
AcDbRotatedDimension
1001
ACAD
1000
DSTYLE
1002
{
1070
    40
1040
1.0
1070
   144
1040
1.0
1070
   272
1070
     8
1002
}
  0
DIMENSION
  5
3403
330
1F
100
AcDbEntity
  8
AM_5
100
AcDbDimension
  2
*D14
 10
868.283213550749
 20
273.2947362399769
 30
0.0
 11
865.7832135507488
 21
267.7947362399771
 31
0.0
 70
    32
 71
     5
 42
11.0
  3
AM_ISO$0
100
AcDbAlignedDimension
 13
849.6604065328352
 23
262.294736239977
 33
0.0
 14
828.4104065328353
 24
273.2947362399769
 34
0.0
 50
90.0
100
AcDbRotatedDimension
1001
ACAD
1000
DSTYLE
1002
{
1070
    40
1040
1.0
1070
   144
1040
1.0
1070
   272
1070
     8
1002
}
  0
DIMENSION
  5
3404
330
1F
100
AcDbEntity
  8
AM_5
100
AcDbDimension
  2
*D15
 10
876.2832135507492
 20
283.2947362399767
 30
0.0
 11
873.7829182751585
 21
272.794736239977
 31
0.0
 70
    32
 71
     5
 42
20.99999999999977
  3
AM_ISO$0
100
AcDbAlignedDimension
 13
849.6604065328352
 23
262.294736239977
 33
0.0
 14
827.4104065328353
 24
283.2947362399767
 34
0.0
 50
90.0
100
AcDbRotatedDimension
1001
ACAD
1000
DSTYLE
1002
{
1070
    40
1040
1.0
1070
   144
1040
1.0
1070
   272
1070
     8
1002
}
  0
DIMENSION
  5
3405
330
1F
100
AcDbEntity
  8
AM_5
100
AcDbDimension
  2
*D16
 10
876.2832135507492
 20
262.294736239977
 30
0.0
 11
873.3535527450971
 21
201.2947362399771
 31
0.0
 70
    32
  1
72+length
 71
     5
 42
121.9999999999999
  3
AM_ISO$0
100
AcDbAlignedDimension
 13
849.6604065328352
 23
140.294736239977
 33
0.0
 14
849.6604065328352
 24
262.294736239977
 34
0.0
 50
90.0
100
AcDbRotatedDimension
1001
ACAD
1000
DSTYLE
1002
{
1070
    40
1040
1.0
1070
   144
1040
1.0
1070
   272
1070
     8
1002
}
  0
DIMENSION
  5
3406
330
1F
100
AcDbEntity
  8
AM_5
100
AcDbDimension
  2
*D17
 10
868.283213550749
 20
262.294736239977
 30
0.0
 11
865.7832135507488
 21
247.2947362399769
 31
0.0
 70
    32
 71
     5
 42
30.0000000000002
  3
AM_ISO$0
100
AcDbAlignedDimension
 13
849.9604065328353
 23
232.2947362399767
 33
0.0
 14
849.6604065328352
 24
262.294736239977
 34
0.0
 50
90.0
100
AcDbRotatedDimension
1001
ACAD
1000
DSTYLE
1002
{
1070
    40
1040
1.0
1070
   144
1040
1.0
1070
   272
1070
     8
1002
}
  0
DIMENSION
  5
3407
330
1F
100
AcDbEntity
  8
AM_5
100
AcDbDimension
  2
*D18
 10
860.283213550749
 20
247.2947362399766
 30
0.0
 11
857.783213550749
 21
254.7947362399769
 31
0.0
 70
    32
 71
     5
 42
15.00000000000031
  3
AM_ISO$0
100
AcDbAlignedDimension
 13
849.6604065328352
 23
262.294736239977
 33
0.0
 14
821.3104065328352
 24
247.2947362399766
 34
0.0
 50
90.0
100
AcDbRotatedDimension
1001
ACAD
1000
DSTYLE
1002
{
1070
    40
1040
1.0
1070
   144
1040
1.0
1070
   272
1070
     8
1002
}
  0
DIMENSION
  5
3408
330
1F
100
AcDbEntity
  8
AM_5
100
AcDbDimension
  2
*D9
 10
829.6604065328351
 20
127.294736239977
 30
0.0
 11
809.6604065328351
 21
129.794736239977
 31
0.0
 70
    32
  1
%%c<>
 71
     5
 42
40.0
  3
AM_ISO$0
100
AcDbAlignedDimension
 13
789.6604065328351
 23
138.2947362399769
 33
0.0
 14
829.6604065328351
 24
138.2947362399769
 34
0.0
100
AcDbRotatedDimension
1001
ACAD
1000
DSTYLE
1002
{
1070
    40
1040
1.0
1070
   144
1040
1.0
1070
   272
1070
     8
1002
}
  0
INSERT
  5
3409
330
1F
100
AcDbEntity
  8
AM_5
100
AcDbBlockReference
  2
*S22
 10
0.0
 20
0.0
 30
0.0
  0
TEXT
  5
340A
330
1F
100
AcDbEntity
  8
AM_5
100
AcDbText
 10
767.2784168202588
 20
130.4594156644065
 30
0.0
 40
3.0
  1
2-PT1/4
100
AcDbText
  0
LINE
  5
373B
330
1F
100
AcDbEntity
  8
0
100
AcDbLine
 10
1149.292011122694
 20
316.9998796622883
 30
0.0
 11
1229.292011122694
 21
316.9998796622883
 31
0.0
  0
LINE
  5
373C
330
1F
100
AcDbEntity
  8
0
100
AcDbLine
 10
1149.292011122694
 20
321.4998796622883
 30
0.0
 11
1229.292011122694
 21
321.4998796622883
 31
0.0
  0
LINE
  5
373D
330
1F
100
AcDbEntity
  8
0
100
AcDbLine
 10
1152.292011122693
 20
351.9998796622883
 30
0.0
 11
1176.063254567371
 21
351.9998796622883
 31
0.0
  0
LINE
  5
373E
330
1F
100
AcDbEntity
  8
0
100
AcDbLine
 10
1149.292011122694
 20
348.9998796622883
 30
0.0
 11
1149.292011122694
 21
316.9998796622883
 31
0.0
  0
LINE
  5
373F
330
1F
100
AcDbEntity
  8
0
100
AcDbLine
 10
1229.292011122694
 20
348.9998796622883
 30
0.0
 11
1229.292011122694
 21
316.9998796622883
 31
0.0
  0
CIRCLE
  5
3740
330
1F
100
AcDbEntity
  8
0
100
AcDbCircle
 10
1218.792011122694
 20
337.4998796622883
 30
0.0
 40
4.5
  0
CIRCLE
  5
3741
330
1F
100
AcDbEntity
  8
0
100
AcDbCircle
 10
1159.792011122694
 20
337.4998796622883
 30
0.0
 40
4.5
  0
ARC
  5
3742
330
1F
100
AcDbEntity
  8
0
100
AcDbCircle
 10
1189.292011122694
 20
366.9998796622883
 30
0.0
 40
20.0
100
AcDbArc
 50
228.5903778907302
 51
311.4096221092698
  0
ARC
  5
3743
330
1F
100
AcDbEntity
  8
0
100
AcDbCircle
 10
1226.292011122694
 20
348.9998796622883
 30
0.0
 40
3.0
100
AcDbArc
 50
0.0
 51
90.0
  0
ARC
  5
3744
330
1F
100
AcDbEntity
  8
0
100
AcDbCircle
 10
1152.292011122693
 20
348.9998796622883
 30
0.0
 40
3.0
100
AcDbArc
 50
90.0
 51
180.0
  0
LINE
  5
3745
330
1F
100
AcDbEntity
  8
0
100
AcDbLine
 10
1202.520767678017
 20
351.9998796622883
 30
0.0
 11
1226.292011122694
 21
351.9998796622883
 31
0.0
  0
LINE
  5
3746
330
1F
100
AcDbEntity
  8
CENTER
  6
CENTER
100
AcDbLine
 10
1158.792011122693
 20
337.4998796622883
 30
0.0
 11
1160.792011122694
 21
337.4998796622883
 31
0.0
  0
LINE
  5
3747
330
1F
100
AcDbEntity
  8
CENTER
  6
CENTER
100
AcDbLine
 10
1159.792011122694
 20
336.4998796622883
 30
0.0
 11
1159.792011122694
 21
338.4998796622883
 31
0.0
  0
LINE
  5
3748
330
1F
100
AcDbEntity
  8
CENTER
  6
CENTER
100
AcDbLine
 10
1157.792011122694
 20
337.4998796622883
 30
0.0
 11
1154.292011122693
 21
337.4998796622883
 31
0.0
  0
LINE
  5
3749
330
1F
100
AcDbEntity
  8
CENTER
  6
CENTER
100
AcDbLine
 10
1161.792011122694
 20
337.4998796622883
 30
0.0
 11
1165.292011122694
 21
337.4998796622883
 31
0.0
  0
LINE
  5
374A
330
1F
100
AcDbEntity
  8
CENTER
  6
CENTER
100
AcDbLine
 10
1159.792011122694
 20
335.4998796622883
 30
0.0
 11
1159.792011122694
 21
331.9998796622883
 31
0.0
  0
LINE
  5
374B
330
1F
100
AcDbEntity
  8
CENTER
  6
CENTER
100
AcDbLine
 10
1159.792011122694
 20
339.4998796622883
 30
0.0
 11
1159.792011122694
 21
342.9998796622883
 31
0.0
  0
LINE
  5
374C
330
1F
100
AcDbEntity
  8
CENTER
  6
CENTER
100
AcDbLine
 10
1217.792011122694
 20
337.4998796622883
 30
0.0
 11
1219.792011122694
 21
337.4998796622883
 31
0.0
  0
LINE
  5
374D
330
1F
100
AcDbEntity
  8
CENTER
  6
CENTER
100
AcDbLine
 10
1218.792011122694
 20
336.4998796622883
 30
0.0
 11
1218.792011122694
 21
338.4998796622883
 31
0.0
  0
LINE
  5
374E
330
1F
100
AcDbEntity
  8
CENTER
  6
CENTER
100
AcDbLine
 10
1216.792011122693
 20
337.4998796622883
 30
0.0
 11
1213.292011122694
 21
337.4998796622883
 31
0.0
  0
LINE
  5
374F
330
1F
100
AcDbEntity
  8
CENTER
  6
CENTER
100
AcDbLine
 10
1220.792011122694
 20
337.4998796622883
 30
0.0
 11
1224.292011122694
 21
337.4998796622883
 31
0.0
  0
LINE
  5
3750
330
1F
100
AcDbEntity
  8
CENTER
  6
CENTER
100
AcDbLine
 10
1218.792011122694
 20
335.4998796622883
 30
0.0
 11
1218.792011122694
 21
331.9998796622883
 31
0.0
  0
LINE
  5
3751
330
1F
100
AcDbEntity
  8
CENTER
  6
CENTER
100
AcDbLine
 10
1218.792011122694
 20
339.4998796622883
 30
0.0
 11
1218.792011122694
 21
342.9998796622883
 31
0.0
  0
LINE
  5
3752
330
1F
100
AcDbEntity
  8
0
  6
HIDDEN
 62
     3
100
AcDbLine
 10
1214.292011122694
 20
321.4998796622883
 30
0.0
 11
1214.292011122694
 21
316.9998796622883
 31
0.0
  0
LINE
  5
3753
330
1F
100
AcDbEntity
  8
0
  6
HIDDEN
 62
     3
100
AcDbLine
 10
1223.292011122694
 20
321.4998796622883
 30
0.0
 11
1223.292011122694
 21
316.9998796622883
 31
0.0
  0
LINE
  5
3754
330
1F
100
AcDbEntity
  8
CENTER
  6
CENTER
100
AcDbLine
 10
1218.792011122694
 20
322.4998796622883
 30
0.0
 11
1218.792011122694
 21
315.9998796622883
 31
0.0
  0
LINE
  5
3755
330
1F
100
AcDbEntity
  8
CENTER
  6
CENTER
100
AcDbLine
 10
1159.792011122694
 20
322.4998796622883
 30
0.0
 11
1159.792011122694
 21
315.9998796622883
 31
0.0
  0
LINE
  5
3756
330
1F
100
AcDbEntity
  8
0
  6
HIDDEN
 62
     3
100
AcDbLine
 10
1164.292011122694
 20
321.4998796622883
 30
0.0
 11
1164.292011122694
 21
316.9998796622883
 31
0.0
  0
LINE
  5
3757
330
1F
100
AcDbEntity
  8
0
  6
HIDDEN
 62
     3
100
AcDbLine
 10
1155.292011122694
 20
321.4998796622883
 30
0.0
 11
1155.292011122694
 21
316.9998796622883
 31
0.0
  0
ARC
  5
3758
330
1F
100
AcDbEntity
  8
0
100
AcDbCircle
 10
1189.292011122694
 20
328.4998796622883
 30
0.0
 40
1.0
100
AcDbArc
 50
32.43376990559079
 51
160.9179282490457
  0
LINE
  5
3759
330
1F
100
AcDbEntity
  8
0
100
AcDbLine
 10
1190.136023087368
 20
329.036204007705
 30
0.0
 11
1197.672347432785
 21
321.4998796622883
 31
0.0
  0
LINE
  5
375A
330
1F
100
AcDbEntity
  8
0
100
AcDbLine
 10
1188.346959868035
 20
328.8268018641477
 30
0.0
 11
1181.020037666176
 21
321.4998796622883
 31
0.0
  0
LINE
  5
375B
330
1F
100
AcDbEntity
  8
CENTER
  6
CENTER
100
AcDbLine
 10
1189.292011122694
 20
366.9998796622883
 30
0.0
 11
1189.292011122694
 21
314.0974956453899
 31
0.0
  0
LINE
  5
375C
330
1F
100
AcDbEntity
  8
0
100
AcDbLine
 10
1083.019024194588
 20
351.9998796622883
 30
0.0
 11
1083.019024194588
 21
321.9998796622883
 31
0.0
  0
LINE
  5
375D
330
1F
100
AcDbEntity
  8
0
100
AcDbLine
 10
1087.519024194588
 20
351.9998796622883
 30
0.0
 11
1087.519024194588
 21
325.4998796622883
 31
0.0
  0
LINE
  5
375E
330
1F
100
AcDbEntity
  8
0
100
AcDbLine
 10
1133.019024194588
 20
316.9998796622883
 30
0.0
 11
1088.019024194588
 21
316.9998796622883
 31
0.0
  0
LINE
  5
375F
330
1F
100
AcDbEntity
  8
0
100
AcDbLine
 10
1133.019024194588
 20
321.4998796622883
 30
0.0
 11
1091.519024194588
 21
321.4998796622883
 31
0.0
  0
LINE
  5
3760
330
1F
100
AcDbEntity
  8
0
100
AcDbLine
 10
1133.019024194588
 20
321.4998796622883
 30
0.0
 11
1133.019024194588
 21
316.9998796622883
 31
0.0
  0
LINE
  5
3761
330
1F
100
AcDbEntity
  8
CENTER
  6
CENTER
100
AcDbLine
 10
1117.019024194588
 20
322.4998796622883
 30
0.0
 11
1117.019024194588
 21
315.9998796622883
 31
0.0
  0
LINE
  5
3762
330
1F
100
AcDbEntity
  8
0
  6
HIDDEN
 62
     3
100
AcDbLine
 10
1111.269024194588
 20
321.4998796622883
 30
0.0
 11
1111.269024194588
 21
316.9998796622883
 31
0.0
  0
LINE
  5
3763
330
1F
100
AcDbEntity
  8
0
  6
HIDDEN
 62
     3
100
AcDbLine
 10
1122.769024194588
 20
321.4998796622883
 30
0.0
 11
1122.769024194588
 21
316.9998796622883
 31
0.0
  0
ARC
  5
3764
330
1F
100
AcDbEntity
  8
0
100
AcDbCircle
 10
1091.519024194588
 20
325.4998796622883
 30
0.0
 40
4.0
100
AcDbArc
 50
180.0
 51
270.0
  0
LINE
  5
3765
330
1F
100
AcDbEntity
  8
0
100
AcDbLine
 10
1095.519024194588
 20
321.4998796622883
 30
0.0
 11
1087.519024194588
 21
329.4998796622883
 31
0.0
  0
LINE
  5
3766
330
1F
100
AcDbEntity
  8
0
  6
HIDDEN
 62
     3
100
AcDbLine
 10
1088.705315695603
 20
316.9998796622883
 30
0.0
 11
1083.019024194588
 21
322.6861711633036
 31
0.0
  0
ARC
  5
3767
330
1F
100
AcDbEntity
  8
0
100
AcDbCircle
 10
1088.019024194588
 20
321.9998796622883
 30
0.0
 40
5.0
100
AcDbArc
 50
180.0
 51
270.0
  0
LINE
  5
3768
330
1F
100
AcDbEntity
  8
CENTER
  6
CENTER
100
AcDbLine
 10
1088.519024194588
 20
337.4998796622883
 30
0.0
 11
1082.019024194588
 21
337.4998796622883
 31
0.0
  0
LINE
  5
3769
330
1F
100
AcDbEntity
  8
0
  6
HIDDEN
 62
     3
100
AcDbLine
 10
1087.519024194588
 20
332.9998796622883
 30
0.0
 11
1083.019024194588
 21
332.9998796622883
 31
0.0
  0
LINE
  5
376A
330
1F
100
AcDbEntity
  8
0
100
AcDbLine
 10
1087.519024194588
 20
351.9998796622883
 30
0.0
 11
1083.019024194588
 21
351.9998796622883
 31
0.0
  0
LINE
  5
376B
330
1F
100
AcDbEntity
  8
0
  6
HIDDEN
 62
     3
100
AcDbLine
 10
1087.519024194588
 20
341.9998796622883
 30
0.0
 11
1083.019024194588
 21
341.9998796622883
 31
0.0
  0
ARC
  5
376D
330
1F
100
AcDbEntity
  8
0
100
AcDbCircle
 10
1226.292011122694
 20
386.990167108557
 30
0.0
 40
3.0
100
AcDbArc
 50
270.0
 51
0.0
  0
LINE
  5
376E
330
1F
100
AcDbEntity
  8
0
100
AcDbLine
 10
1149.292011122694
 20
429.4901671085569
 30
0.0
 11
1229.292011122694
 21
429.4901671085569
 31
0.0
  0
LINE
  5
376F
330
1F
100
AcDbEntity
  8
0
100
AcDbLine
 10
1149.292011122694
 20
433.9901671085569
 30
0.0
 11
1229.292011122694
 21
433.9901671085569
 31
0.0
  0
LINE
  5
3770
330
1F
100
AcDbEntity
  8
CENTER
  6
CENTER
100
AcDbLine
 10
1189.292011122694
 20
436.595739619461
 30
0.0
 11
1189.292011122694
 21
379.2967512531966
 31
0.0
  0
LINE
  5
3771
330
1F
100
AcDbEntity
  8
0
100
AcDbLine
 10
1149.292011122694
 20
386.990167108557
 30
0.0
 11
1149.292011122694
 21
433.9901671085569
 31
0.0
  0
LINE
  5
3772
330
1F
100
AcDbEntity
  8
0
100
AcDbLine
 10
1152.292011122693
 20
383.990167108557
 30
0.0
 11
1226.292011122694
 21
383.990167108557
 31
0.0
  0
ARC
  5
3773
330
1F
100
AcDbEntity
  8
0
100
AcDbCircle
 10
1152.292011122693
 20
386.990167108557
 30
0.0
 40
3.0
100
AcDbArc
 50
180.0
 51
270.0
  0
LINE
  5
3774
330
1F
100
AcDbEntity
  8
CENTER
  6
CENTER
100
AcDbLine
 10
1166.792011122693
 20
399.990167108557
 30
0.0
 11
1171.542011122694
 21
399.990167108557
 31
0.0
  0
CIRCLE
  5
3775
330
1F
100
AcDbEntity
  8
0
100
AcDbCircle
 10
1164.792011122694
 20
399.990167108557
 30
0.0
 40
5.75
  0
LINE
  5
3776
330
1F
100
AcDbEntity
  8
CENTER
  6
CENTER
100
AcDbLine
 10
1164.792011122694
 20
401.990167108557
 30
0.0
 11
1164.792011122694
 21
406.7401671085569
 31
0.0
  0
LINE
  5
3777
330
1F
100
AcDbEntity
  8
CENTER
  6
CENTER
100
AcDbLine
 10
1162.792011122694
 20
399.990167108557
 30
0.0
 11
1158.042011122694
 21
399.990167108557
 31
0.0
  0
LINE
  5
3778
330
1F
100
AcDbEntity
  8
CENTER
  6
CENTER
100
AcDbLine
 10
1164.792011122694
 20
397.990167108557
 30
0.0
 11
1164.792011122694
 21
393.240167108557
 31
0.0
  0
LINE
  5
3779
330
1F
100
AcDbEntity
  8
CENTER
  6
CENTER
100
AcDbLine
 10
1163.792011122694
 20
399.990167108557
 30
0.0
 11
1165.792011122694
 21
399.990167108557
 31
0.0
  0
LINE
  5
377A
330
1F
100
AcDbEntity
  8
CENTER
  6
CENTER
100
AcDbLine
 10
1164.792011122694
 20
398.990167108557
 30
0.0
 11
1164.792011122694
 21
400.990167108557
 31
0.0
  0
LINE
  5
377B
330
1F
100
AcDbEntity
  8
0
100
AcDbLine
 10
1176.062011122694
 20
433.9901671085569
 30
0.0
 11
1176.062011122694
 21
429.4901671085569
 31
0.0
  0
LINE
  5
377C
330
1F
100
AcDbEntity
  8
CENTER
  6
CENTER
100
AcDbLine
 10
1212.792011122694
 20
399.990167108557
 30
0.0
 11
1214.792011122694
 21
399.990167108557
 31
0.0
  0
CIRCLE
  5
377D
330
1F
100
AcDbEntity
  8
0
100
AcDbCircle
 10
1213.792011122694
 20
399.990167108557
 30
0.0
 40
5.75
  0
LINE
  5
377E
330
1F
100
AcDbEntity
  8
CENTER
  6
CENTER
100
AcDbLine
 10
1213.792011122694
 20
401.990167108557
 30
0.0
 11
1213.792011122694
 21
406.7401671085569
 31
0.0
  0
LINE
  5
377F
330
1F
100
AcDbEntity
  8
CENTER
  6
CENTER
100
AcDbLine
 10
1211.792011122694
 20
399.990167108557
 30
0.0
 11
1207.042011122694
 21
399.990167108557
 31
0.0
  0
LINE
  5
3780
330
1F
100
AcDbEntity
  8
CENTER
  6
CENTER
100
AcDbLine
 10
1213.792011122694
 20
397.990167108557
 30
0.0
 11
1213.792011122694
 21
393.240167108557
 31
0.0
  0
LINE
  5
3781
330
1F
100
AcDbEntity
  8
CENTER
  6
CENTER
100
AcDbLine
 10
1213.792011122694
 20
398.990167108557
 30
0.0
 11
1213.792011122694
 21
400.990167108557
 31
0.0
  0
LINE
  5
3782
330
1F
100
AcDbEntity
  8
CENTER
  6
CENTER
100
AcDbLine
 10
1215.792011122694
 20
399.990167108557
 30
0.0
 11
1220.542011122694
 21
399.990167108557
 31
0.0
  0
LINE
  5
3783
330
1F
100
AcDbEntity
  8
0
100
AcDbLine
 10
1202.522011122694
 20
433.9901671085569
 30
0.0
 11
1202.522011122694
 21
429.4901671085569
 31
0.0
  0
LINE
  5
3784
330
1F
100
AcDbEntity
  8
0
100
AcDbLine
 10
1229.292011122694
 20
386.990167108557
 30
0.0
 11
1229.292011122694
 21
433.9901671085569
 31
0.0
  0
LINE
  5
38D0
330
1F
100
AcDbEntity
  8
CENTER
  6
CENTER
100
AcDbLine
 10
1112.237633603171
 20
170.3565358061861
 30
0.0
 11
1246.739335229732
 21
170.3565358061861
 31
0.0
  0
LINE
  5
38D1
330
1F
100
AcDbEntity
  8
0
100
AcDbLine
 10
1115.758620832677
 20
211.8565358061861
 30
0.0
 11
1115.758620832677
 21
128.8565358061861
 31
0.0
  0
LINE
  5
38D2
330
1F
100
AcDbEntity
  8
0
100
AcDbLine
 10
1116.258620832677
 20
212.3565358061861
 30
0.0
 11
1245.258620832677
 21
212.3565358061861
 31
0.0
  0
LINE
  5
38D3
330
1F
100
AcDbEntity
  8
0
100
AcDbLine
 10
1116.258620832677
 20
128.3565358061861
 30
0.0
 11
1245.258620832677
 21
128.3565358061861
 31
0.0
  0
LINE
  5
38D4
330
1F
100
AcDbEntity
  8
0
100
AcDbLine
 10
1245.758620832677
 20
211.8565358061861
 30
0.0
 11
1245.758620832677
 21
128.8565358061861
 31
0.0
  0
CIRCLE
  5
38D5
330
1F
100
AcDbEntity
  8
0
100
AcDbCircle
 10
1233.258620832677
 20
199.8565358061861
 30
0.0
 40
5.75
  0
CIRCLE
  5
38D6
330
1F
100
AcDbEntity
  8
0
100
AcDbCircle
 10
1233.258620832677
 20
140.8565358061861
 30
0.0
 40
5.75
  0
CIRCLE
  5
38D7
330
1F
100
AcDbEntity
  8
0
100
AcDbCircle
 10
1128.258620832677
 20
199.8565358061861
 30
0.0
 40
5.75
  0
CIRCLE
  5
38D8
330
1F
100
AcDbEntity
  8
0
100
AcDbCircle
 10
1128.258620832677
 20
140.8565358061861
 30
0.0
 40
5.75
  0
CIRCLE
  5
38D9
330
1F
100
AcDbEntity
  8
0
100
AcDbCircle
 10
1210.258620832677
 20
199.8565358061861
 30
0.0
 40
7.0
  0
CIRCLE
  5
38DA
330
1F
100
AcDbEntity
  8
0
100
AcDbCircle
 10
1151.258620832677
 20
199.8565358061861
 30
0.0
 40
7.0
  0
CIRCLE
  5
38DB
330
1F
100
AcDbEntity
  8
0
100
AcDbCircle
 10
1210.258620832677
 20
140.8565358061861
 30
0.0
 40
7.0
  0
CIRCLE
  5
38DC
330
1F
100
AcDbEntity
  8
0
100
AcDbCircle
 10
1151.258620832677
 20
140.8565358061861
 30
0.0
 40
7.0
  0
CIRCLE
  5
38DD
330
1F
100
AcDbEntity
  8
0
100
AcDbCircle
 10
1210.258620832677
 20
199.8565358061861
 30
0.0
 40
4.5
  0
CIRCLE
  5
38DE
330
1F
100
AcDbEntity
  8
0
100
AcDbCircle
 10
1151.258620832677
 20
199.8565358061861
 30
0.0
 40
4.5
  0
CIRCLE
  5
38DF
330
1F
100
AcDbEntity
  8
0
100
AcDbCircle
 10
1210.258620832677
 20
140.8565358061861
 30
0.0
 40
4.5
  0
CIRCLE
  5
38E0
330
1F
100
AcDbEntity
  8
0
100
AcDbCircle
 10
1151.258620832677
 20
140.8565358061861
 30
0.0
 40
4.5
  0
CIRCLE
  5
38E1
330
1F
100
AcDbEntity
  8
0
100
AcDbCircle
 10
1180.758620832677
 20
170.3565358061861
 30
0.0
 40
20.0
  0
LINE
  5
38E2
330
1F
100
AcDbEntity
  8
0
100
AcDbLine
 10
1245.758620832677
 20
211.8565358061861
 30
0.0
 11
1245.258620832677
 21
212.3565358061861
 31
0.0
  0
LINE
  5
38E3
330
1F
100
AcDbEntity
  8
0
100
AcDbLine
 10
1116.258620832677
 20
212.3565358061861
 30
0.0
 11
1115.758620832677
 21
211.8565358061861
 31
0.0
  0
LINE
  5
38E4
330
1F
100
AcDbEntity
  8
0
100
AcDbLine
 10
1116.258620832677
 20
128.3565358061861
 30
0.0
 11
1115.758620832677
 21
128.8565358061861
 31
0.0
  0
LINE
  5
38E5
330
1F
100
AcDbEntity
  8
0
100
AcDbLine
 10
1245.758620832677
 20
128.8565358061861
 30
0.0
 11
1245.258620832677
 21
128.3565358061861
 31
0.0
  0
LINE
  5
38E6
330
1F
100
AcDbEntity
  8
0
100
AcDbLine
 10
1094.644402545152
 20
212.3565358061861
 30
0.0
 11
1094.644402545152
 21
128.3565358061861
 31
0.0
  0
LINE
  5
38E7
330
1F
100
AcDbEntity
  8
0
100
AcDbLine
 10
1094.644402545152
 20
212.3565358061861
 30
0.0
 11
1079.644402545152
 21
212.3565358061861
 31
0.0
  0
LINE
  5
38E8
330
1F
100
AcDbEntity
  8
0
100
AcDbLine
 10
1094.644402545152
 20
128.3565358061861
 30
0.0
 11
1079.644402545152
 21
128.3565358061861
 31
0.0
  0
LINE
  5
38E9
330
1F
100
AcDbEntity
  8
0
100
AcDbLine
 10
1079.644402545152
 20
212.3565358061861
 30
0.0
 11
1079.644402545152
 21
190.8565358061861
 31
0.0
  0
LINE
  5
38EA
330
1F
100
AcDbEntity
  8
0
  6
HIDDEN
 62
     3
100
AcDbLine
 10
1094.644402545152
 20
150.3565358061861
 30
0.0
 11
1079.644402545152
 21
150.3565358061861
 31
0.0
  0
LINE
  5
38EB
330
1F
100
AcDbEntity
  8
0
  6
HIDDEN
 62
     3
100
AcDbLine
 10
1094.644402545152
 20
190.3565358061861
 30
0.0
 11
1079.644402545151
 21
190.3565358061861
 31
0.0
  0
LINE
  5
38EC
330
1F
100
AcDbEntity
  8
CENTER
  6
CENTER
100
AcDbLine
 10
1097.347758947185
 20
199.8565358061861
 30
0.0
 11
1077.067599391082
 21
199.8565358061861
 31
0.0
  0
LINE
  5
38ED
330
1F
100
AcDbEntity
  8
CENTER
  6
CENTER
100
AcDbLine
 10
1096.251534030007
 20
140.8565358061861
 30
0.0
 11
1077.615712320233
 21
140.8565358061861
 31
0.0
  0
LINE
  5
38EF
330
1F
100
AcDbEntity
  8
0
100
AcDbLine
 10
1079.644402545152
 20
149.8565358061861
 30
0.0
 11
1079.644402545152
 21
128.3565358061861
 31
0.0
  0
LINE
  5
38F1
330
1F
100
AcDbEntity
  8
0
100
AcDbLine
 10
1079.644402545152
 20
212.3565358061861
 30
0.0
 11
1079.644402545152
 21
128.3565358061861
 31
0.0
  0
LINE
  5
38F3
330
1F
100
AcDbEntity
  8
CENTER
  6
CENTER
100
AcDbLine
 10
1098.165389774658
 20
170.3565358061861
 30
0.0
 11
1075.631072823391
 21
170.3565358061861
 31
0.0
  0
LINE
  5
38F4
330
1F
100
AcDbEntity
  8
CENTER
  6
CENTER
100
AcDbLine
 10
1180.758620832677
 20
217.3874634433413
 30
0.0
 11
1180.758620832677
 21
124.7328242405613
 31
0.0
  0
LINE
  5
38F5
330
1F
100
AcDbEntity
  8
CENTER
  6
CENTER
100
AcDbLine
 10
1232.258620832677
 20
199.8565358061861
 30
0.0
 11
1234.258620832677
 21
199.8565358061861
 31
0.0
  0
LINE
  5
38F6
330
1F
100
AcDbEntity
  8
CENTER
  6
CENTER
100
AcDbLine
 10
1233.258620832677
 20
198.8565358061861
 30
0.0
 11
1233.258620832677
 21
200.8565358061861
 31
0.0
  0
LINE
  5
38F7
330
1F
100
AcDbEntity
  8
CENTER
  6
CENTER
100
AcDbLine
 10
1231.258620832677
 20
199.8565358061861
 30
0.0
 11
1226.508620832677
 21
199.8565358061861
 31
0.0
  0
LINE
  5
38F8
330
1F
100
AcDbEntity
  8
CENTER
  6
CENTER
100
AcDbLine
 10
1235.258620832677
 20
199.8565358061861
 30
0.0
 11
1240.008620832677
 21
199.8565358061861
 31
0.0
  0
LINE
  5
38F9
330
1F
100
AcDbEntity
  8
CENTER
  6
CENTER
100
AcDbLine
 10
1233.258620832677
 20
197.8565358061861
 30
0.0
 11
1233.258620832677
 21
193.1065358061861
 31
0.0
  0
LINE
  5
38FA
330
1F
100
AcDbEntity
  8
CENTER
  6
CENTER
100
AcDbLine
 10
1233.258620832677
 20
201.8565358061861
 30
0.0
 11
1233.258620832677
 21
206.6065358061861
 31
0.0
  0
LINE
  5
38FB
330
1F
100
AcDbEntity
  8
CENTER
  6
CENTER
100
AcDbLine
 10
1209.258620832677
 20
199.8565358061861
 30
0.0
 11
1211.258620832677
 21
199.8565358061861
 31
0.0
  0
LINE
  5
38FC
330
1F
100
AcDbEntity
  8
CENTER
  6
CENTER
100
AcDbLine
 10
1210.258620832677
 20
198.8565358061861
 30
0.0
 11
1210.258620832677
 21
200.8565358061861
 31
0.0
  0
LINE
  5
38FD
330
1F
100
AcDbEntity
  8
CENTER
  6
CENTER
100
AcDbLine
 10
1208.258620832677
 20
199.8565358061861
 30
0.0
 11
1202.258620832677
 21
199.8565358061861
 31
0.0
  0
LINE
  5
38FE
330
1F
100
AcDbEntity
  8
CENTER
  6
CENTER
100
AcDbLine
 10
1212.258620832677
 20
199.8565358061861
 30
0.0
 11
1218.258620832677
 21
199.8565358061861
 31
0.0
  0
LINE
  5
38FF
330
1F
100
AcDbEntity
  8
CENTER
  6
CENTER
100
AcDbLine
 10
1210.258620832677
 20
197.8565358061861
 30
0.0
 11
1210.258620832677
 21
191.8565358061861
 31
0.0
  0
LINE
  5
3900
330
1F
100
AcDbEntity
  8
CENTER
  6
CENTER
100
AcDbLine
 10
1210.258620832677
 20
201.8565358061861
 30
0.0
 11
1210.258620832677
 21
207.8565358061861
 31
0.0
  0
LINE
  5
3901
330
1F
100
AcDbEntity
  8
CENTER
  6
CENTER
100
AcDbLine
 10
1150.258620832677
 20
199.8565358061861
 30
0.0
 11
1152.258620832677
 21
199.8565358061861
 31
0.0
  0
LINE
  5
3902
330
1F
100
AcDbEntity
  8
CENTER
  6
CENTER
100
AcDbLine
 10
1151.258620832677
 20
198.8565358061861
 30
0.0
 11
1151.258620832677
 21
200.8565358061861
 31
0.0
  0
LINE
  5
3903
330
1F
100
AcDbEntity
  8
CENTER
  6
CENTER
100
AcDbLine
 10
1149.258620832677
 20
199.8565358061861
 30
0.0
 11
1143.258620832677
 21
199.8565358061861
 31
0.0
  0
LINE
  5
3904
330
1F
100
AcDbEntity
  8
CENTER
  6
CENTER
100
AcDbLine
 10
1153.258620832677
 20
199.8565358061861
 30
0.0
 11
1159.258620832677
 21
199.8565358061861
 31
0.0
  0
LINE
  5
3905
330
1F
100
AcDbEntity
  8
CENTER
  6
CENTER
100
AcDbLine
 10
1151.258620832677
 20
197.8565358061861
 30
0.0
 11
1151.258620832677
 21
191.8565358061861
 31
0.0
  0
LINE
  5
3906
330
1F
100
AcDbEntity
  8
CENTER
  6
CENTER
100
AcDbLine
 10
1151.258620832677
 20
201.8565358061861
 30
0.0
 11
1151.258620832677
 21
207.8565358061861
 31
0.0
  0
LINE
  5
3907
330
1F
100
AcDbEntity
  8
CENTER
  6
CENTER
100
AcDbLine
 10
1127.258620832677
 20
199.8565358061861
 30
0.0
 11
1129.258620832677
 21
199.8565358061861
 31
0.0
  0
LINE
  5
3908
330
1F
100
AcDbEntity
  8
CENTER
  6
CENTER
100
AcDbLine
 10
1128.258620832677
 20
198.8565358061861
 30
0.0
 11
1128.258620832677
 21
200.8565358061861
 31
0.0
  0
LINE
  5
3909
330
1F
100
AcDbEntity
  8
CENTER
  6
CENTER
100
AcDbLine
 10
1126.258620832677
 20
199.8565358061861
 30
0.0
 11
1121.508620832677
 21
199.8565358061861
 31
0.0
  0
LINE
  5
390A
330
1F
100
AcDbEntity
  8
CENTER
  6
CENTER
100
AcDbLine
 10
1130.258620832677
 20
199.8565358061861
 30
0.0
 11
1135.008620832677
 21
199.8565358061861
 31
0.0
  0
LINE
  5
390B
330
1F
100
AcDbEntity
  8
CENTER
  6
CENTER
100
AcDbLine
 10
1128.258620832677
 20
197.8565358061861
 30
0.0
 11
1128.258620832677
 21
193.1065358061861
 31
0.0
  0
LINE
  5
390C
330
1F
100
AcDbEntity
  8
CENTER
  6
CENTER
100
AcDbLine
 10
1128.258620832677
 20
201.8565358061861
 30
0.0
 11
1128.258620832677
 21
206.6065358061861
 31
0.0
  0
LINE
  5
390D
330
1F
100
AcDbEntity
  8
CENTER
  6
CENTER
100
AcDbLine
 10
1127.258620832677
 20
140.8565358061861
 30
0.0
 11
1129.258620832677
 21
140.8565358061861
 31
0.0
  0
LINE
  5
390E
330
1F
100
AcDbEntity
  8
CENTER
  6
CENTER
100
AcDbLine
 10
1128.258620832677
 20
139.8565358061861
 30
0.0
 11
1128.258620832677
 21
141.8565358061861
 31
0.0
  0
LINE
  5
390F
330
1F
100
AcDbEntity
  8
CENTER
  6
CENTER
100
AcDbLine
 10
1126.258620832677
 20
140.8565358061861
 30
0.0
 11
1121.508620832677
 21
140.8565358061861
 31
0.0
  0
LINE
  5
3910
330
1F
100
AcDbEntity
  8
CENTER
  6
CENTER
100
AcDbLine
 10
1130.258620832677
 20
140.8565358061861
 30
0.0
 11
1135.008620832677
 21
140.8565358061861
 31
0.0
  0
LINE
  5
3911
330
1F
100
AcDbEntity
  8
CENTER
  6
CENTER
100
AcDbLine
 10
1128.258620832677
 20
138.8565358061861
 30
0.0
 11
1128.258620832677
 21
134.1065358061861
 31
0.0
  0
LINE
  5
3912
330
1F
100
AcDbEntity
  8
CENTER
  6
CENTER
100
AcDbLine
 10
1128.258620832677
 20
142.8565358061861
 30
0.0
 11
1128.258620832677
 21
147.6065358061861
 31
0.0
  0
LINE
  5
3913
330
1F
100
AcDbEntity
  8
CENTER
  6
CENTER
100
AcDbLine
 10
1150.258620832677
 20
140.8565358061861
 30
0.0
 11
1152.258620832677
 21
140.8565358061861
 31
0.0
  0
LINE
  5
3914
330
1F
100
AcDbEntity
  8
CENTER
  6
CENTER
100
AcDbLine
 10
1151.258620832677
 20
139.8565358061861
 30
0.0
 11
1151.258620832677
 21
141.8565358061861
 31
0.0
  0
LINE
  5
3915
330
1F
100
AcDbEntity
  8
CENTER
  6
CENTER
100
AcDbLine
 10
1149.258620832677
 20
140.8565358061861
 30
0.0
 11
1143.258620832677
 21
140.8565358061861
 31
0.0
  0
LINE
  5
3916
330
1F
100
AcDbEntity
  8
CENTER
  6
CENTER
100
AcDbLine
 10
1153.258620832677
 20
140.8565358061861
 30
0.0
 11
1159.258620832677
 21
140.8565358061861
 31
0.0
  0
LINE
  5
3917
330
1F
100
AcDbEntity
  8
CENTER
  6
CENTER
100
AcDbLine
 10
1151.258620832677
 20
138.8565358061861
 30
0.0
 11
1151.258620832677
 21
132.8565358061861
 31
0.0
  0
LINE
  5
3918
330
1F
100
AcDbEntity
  8
CENTER
  6
CENTER
100
AcDbLine
 10
1151.258620832677
 20
142.8565358061861
 30
0.0
 11
1151.258620832677
 21
148.8565358061861
 31
0.0
  0
LINE
  5
3919
330
1F
100
AcDbEntity
  8
CENTER
  6
CENTER
100
AcDbLine
 10
1209.258620832677
 20
140.8565358061861
 30
0.0
 11
1211.258620832677
 21
140.8565358061861
 31
0.0
  0
LINE
  5
391A
330
1F
100
AcDbEntity
  8
CENTER
  6
CENTER
100
AcDbLine
 10
1210.258620832677
 20
139.8565358061861
 30
0.0
 11
1210.258620832677
 21
141.8565358061861
 31
0.0
  0
LINE
  5
391B
330
1F
100
AcDbEntity
  8
CENTER
  6
CENTER
100
AcDbLine
 10
1208.258620832677
 20
140.8565358061861
 30
0.0
 11
1202.258620832677
 21
140.8565358061861
 31
0.0
  0
LINE
  5
391C
330
1F
100
AcDbEntity
  8
CENTER
  6
CENTER
100
AcDbLine
 10
1212.258620832677
 20
140.8565358061861
 30
0.0
 11
1218.258620832677
 21
140.8565358061861
 31
0.0
  0
LINE
  5
391D
330
1F
100
AcDbEntity
  8
CENTER
  6
CENTER
100
AcDbLine
 10
1210.258620832677
 20
138.8565358061861
 30
0.0
 11
1210.258620832677
 21
132.8565358061861
 31
0.0
  0
LINE
  5
391E
330
1F
100
AcDbEntity
  8
CENTER
  6
CENTER
100
AcDbLine
 10
1210.258620832677
 20
142.8565358061861
 30
0.0
 11
1210.258620832677
 21
148.8565358061861
 31
0.0
  0
LINE
  5
391F
330
1F
100
AcDbEntity
  8
CENTER
  6
CENTER
100
AcDbLine
 10
1232.258620832677
 20
140.8565358061861
 30
0.0
 11
1234.258620832677
 21
140.8565358061861
 31
0.0
  0
LINE
  5
3920
330
1F
100
AcDbEntity
  8
CENTER
  6
CENTER
100
AcDbLine
 10
1233.258620832677
 20
139.8565358061861
 30
0.0
 11
1233.258620832677
 21
141.8565358061861
 31
0.0
  0
LINE
  5
3921
330
1F
100
AcDbEntity
  8
CENTER
  6
CENTER
100
AcDbLine
 10
1231.258620832677
 20
140.8565358061861
 30
0.0
 11
1226.508620832677
 21
140.8565358061861
 31
0.0
  0
LINE
  5
3922
330
1F
100
AcDbEntity
  8
CENTER
  6
CENTER
100
AcDbLine
 10
1235.258620832677
 20
140.8565358061861
 30
0.0
 11
1240.008620832677
 21
140.8565358061861
 31
0.0
  0
LINE
  5
3923
330
1F
100
AcDbEntity
  8
CENTER
  6
CENTER
100
AcDbLine
 10
1233.258620832677
 20
138.8565358061861
 30
0.0
 11
1233.258620832677
 21
134.1065358061861
 31
0.0
  0
LINE
  5
3924
330
1F
100
AcDbEntity
  8
CENTER
  6
CENTER
100
AcDbLine
 10
1233.258620832677
 20
142.8565358061861
 30
0.0
 11
1233.258620832677
 21
147.6065358061861
 31
0.0
  0
LINE
  5
3926
330
1F
100
AcDbEntity
  8
0
100
AcDbLine
 10
1245.758620832677
 20
256.7128033959014
 30
0.0
 11
1115.758620832677
 21
256.7128033959014
 31
0.0
  0
LINE
  5
3927
330
1F
100
AcDbEntity
  8
0
100
AcDbLine
 10
1245.758620832677
 20
241.7128033959013
 30
0.0
 11
1115.758620832677
 21
241.7128033959013
 31
0.0
  0
LINE
  5
3928
330
1F
100
AcDbEntity
  8
0
100
AcDbLine
 10
1160.258620832677
 20
256.7128033959014
 30
0.0
 11
1115.758620832677
 21
256.7128033959014
 31
0.0
  0
LINE
  5
3929
330
1F
100
AcDbEntity
  8
0
100
AcDbLine
 10
1115.758620832677
 20
241.7128033959011
 30
0.0
 11
1115.758620832677
 21
256.7128033959014
 31
0.0
  0
LINE
  5
392A
330
1F
100
AcDbEntity
  8
0
  6
HIDDEN
 62
     3
100
AcDbLine
 10
1160.758620832677
 20
241.7128033959011
 30
0.0
 11
1160.758620832677
 21
256.7128033959011
 31
0.0
  0
LINE
  5
392B
330
1F
100
AcDbEntity
  8
CENTER
  6
CENTER
100
AcDbLine
 10
1180.758620832677
 20
238.191816166395
 30
0.0
 11
1180.758620832677
 21
260.7261331176626
 31
0.0
  0
LINE
  5
392D
330
1F
100
AcDbEntity
  8
0
100
AcDbLine
 10
1245.758620832677
 20
256.7128033959014
 30
0.0
 11
1201.258620832677
 21
256.7128033959014
 31
0.0
  0
LINE
  5
392E
330
1F
100
AcDbEntity
  8
0
  6
HIDDEN
 62
     3
100
AcDbLine
 10
1200.758620832677
 20
241.7128033959013
 30
0.0
 11
1200.758620832677
 21
256.7128033959014
 31
0.0
  0
LINE
  5
3930
330
1F
100
AcDbEntity
  8
0
100
AcDbLine
 10
1245.758620832677
 20
241.7128033959011
 30
0.0
 11
1245.758620832677
 21
256.7128033959014
 31
0.0
  0
LINE
  5
3931
330
1F
100
AcDbEntity
  8
CENTER
  6
CENTER
100
AcDbLine
 10
1233.258620832677
 20
238.191816166395
 30
0.0
 11
1233.258620832677
 21
260.7261331176626
 31
0.0
  0
LINE
  5
3932
330
1F
100
AcDbEntity
  8
CENTER
  6
CENTER
100
AcDbLine
 10
1128.258620832677
 20
238.191816166395
 30
0.0
 11
1128.258620832677
 21
260.7261331176626
 31
0.0
  0
LINE
  5
3933
330
1F
100
AcDbEntity
  8
0
  6
HIDDEN
 62
     3
100
AcDbLine
 10
1239.008620832677
 20
241.7128033959013
 30
0.0
 11
1239.008620832677
 21
256.7128033959014
 31
0.0
  0
LINE
  5
3934
330
1F
100
AcDbEntity
  8
0
  6
HIDDEN
 62
     3
100
AcDbLine
 10
1227.508620832677
 20
241.7128033959013
 30
0.0
 11
1227.508620832677
 21
256.7128033959014
 31
0.0
  0
LINE
  5
3935
330
1F
100
AcDbEntity
  8
0
  6
HIDDEN
 62
     3
100
AcDbLine
 10
1134.008620832677
 20
241.7128033959013
 30
0.0
 11
1134.008620832677
 21
256.7128033959014
 31
0.0
  0
LINE
  5
3936
330
1F
100
AcDbEntity
  8
0
  6
HIDDEN
 62
     3
100
AcDbLine
 10
1122.508620832677
 20
241.7128033959013
 30
0.0
 11
1122.508620832677
 21
256.7128033959014
 31
0.0
  0
LINE
  5
395C
330
1F
100
AcDbEntity
  8
0
 62
     4
100
AcDbLine
 10
1034.811994696601
 20
101.245722117002
 30
0.0
 11
1034.811994696602
 21
458.96558963946
 31
0.0
  0
LINE
  5
395D
330
1F
100
AcDbEntity
  8
0
 62
     4
100
AcDbLine
 10
1034.811994696601
 20
287.8266419347233
 30
0.0
 11
1306.831478154532
 21
287.8266419347233
 31
0.0
  0
TEXT
  5
3960
330
1F
100
AcDbEntity
  8
0
100
AcDbText
 10
1049.922582742013
 20
434.3348191857391
 30
0.0
 40
7.700000000000001
  1
LB
100
AcDbText
  0
TEXT
  5
3962
330
1F
100
AcDbEntity
  8
0
100
AcDbText
 10
1049.922582742013
 20
261.1333082645912
 30
0.0
 40
7.700000000000001
  1
FAC
100
AcDbText
  0
ENDSEC
  0
SECTION
  2
OBJECTS
  0
DICTIONARY
  5
C
330
0
100
AcDbDictionary
281
     1
  3
ACAD_COLOR
350
7D1
  3
ACAD_GROUP
350
D
  3
ACAD_LAYOUT
350
1A
  3
ACAD_MATERIAL
350
7D0
  3
ACAD_MLINESTYLE
350
17
  3
ACAD_PLOTSETTINGS
350
19
  3
ACAD_PLOTSTYLENAME
350
E
  3
ACAD_TABLESTYLE
350
7D2
  3
ACDBHEADERROUNDTRIPXREC
350
39FB
  3
AcDbVariableDictionary
350
82
  3
AcmDictionary
350
45
  3
AMG
350
2B
  3
AMGSNAPSETTINGS
350
87
  3
DWGPROPS
350
39FA
  0
DICTIONARY
  5
AAB
330
2
100
AcDbDictionary
280
     1
281
     1
  3
ACAD_LAYERSTATES
360
AAC
  3
AMLAYER_GROUPCOLORS
360
15F6
  0
DICTIONARY
  5
7D
330
1F
100
AcDbDictionary
280
     1
281
     1
  3
ACAD_SORTENTS
360
EEA
  0
DICTIONARY
  5
33B7
330
33AA
100
AcDbDictionary
280
     1
281
     1
  3
ACAD_DIMASSOC
360
33B8
  0
DICTIONARY
  5
7D1
102
{ACAD_REACTORS
330
C
102
}
330
C
100
AcDbDictionary
281
     1
  0
DICTIONARY
  5
D
102
{ACAD_REACTORS
330
C
102
}
330
C
100
AcDbDictionary
281
     1
  0
DICTIONARY
  5
1A
102
{ACAD_REACTORS
330
C
102
}
330
C
100
AcDbDictionary
281
     1
  3
Layout1
350
1E
  3
Layout2
350
26
  3
Model
350
22
  0
DICTIONARY
  5
7D0
102
{ACAD_REACTORS
330
C
102
}
330
C
100
AcDbDictionary
281
     1
  0
DICTIONARY
  5
17
102
{ACAD_REACTORS
330
C
102
}
330
C
100
AcDbDictionary
281
     1
  3
Standard
350
18
  0
DICTIONARY
  5
19
102
{ACAD_REACTORS
330
C
102
}
330
C
100
AcDbDictionary
281
     1
  0
ACDBDICTIONARYWDFLT
  5
E
102
{ACAD_REACTORS
330
C
102
}
330
C
100
AcDbDictionary
281
     1
  3
Normal
350
F
100
AcDbDictionaryWithDefault
340
F
  0
DICTIONARY
  5
7D2
102
{ACAD_REACTORS
330
C
102
}
330
C
100
AcDbDictionary
281
     1
  3
Standard
350
7D3
  0
DICTIONARY
  5
39FB
102
{ACAD_REACTORS
330
C
102
}
330
C
100
AcDbDictionary
281
     1
  0
DICTIONARY
  5
82
102
{ACAD_REACTORS
330
C
102
}
330
C
100
AcDbDictionary
281
     1
  3
CTABLESTYLE
350
847
  3
DIMASSOC
350
85
  3
HIDETEXT
350
84
  3
INDEXCTL
350
83
  3
PROJECTNAME
350
848
  0
DICTIONARY
  5
45
102
{ACAD_REACTORS
330
C
102
}
330
C
100
AcDbDictionary
281
     1
  3
AcmStdDictionary
350
4A
  3
AMDTSECTSYM_ARROWCOLOR
350
7DF
  0
DICTIONARY
  5
2B
102
{ACAD_REACTORS
330
C
102
}
330
C
100
AcDbDictionary
281
     1
  0
DICTIONARY
  5
87
102
{ACAD_REACTORS
330
C
102
}
330
C
100
AcDbDictionary
281
     1
  0
XRECORD
  5
39FA
102
{ACAD_REACTORS
330
C
102
}
330
C
100
AcDbXrecord
280
     1
  1
DWGPROPS COOKIE
  2

  3

  4

  6

  7

  8

  9

300
AmdtFileType=84
301
=
302
=
303
=
304
=
305
=
306
=
307
=
308
=
309
=
 40
0.6405697222222222
 41
2453021.369367211
 42
2453517.561679861
  1

 90
        1
  0
DICTIONARY
  5
AAC
102
{ACAD_REACTORS
330
AAB
102
}
330
AAB
100
AcDbDictionary
281
     1
  0
DICTIONARY
  5
15F6
102
{ACAD_REACTORS
330
AAB
102
}
330
AAB
100
AcDbDictionary
280
     1
281
     1
  0
SORTENTSTABLE
  5
EEA
102
{ACAD_REACTORS
330
7D
102
}
330
7D
100
AcDbSortentsTable
330
1F
331
322F
  5
3233
331
3237
  5
323B
331
3169
  5
316F
331
30F3
  5
30F7
331
323F
  5
3244
331
30BC
  5
30C0
331
3132
  5
313E
331
31E8
  5
31EC
331
3171
  5
3175
331
30FB
  5
30FF
331
30C4
  5
30C8
331
31F0
  5
31F4
331
3179
  5
317D
331
3103
  5
3107
331
225E
  5
225E
331
30CC
  5
30D0
331
3142
  5
3146
331
31F8
  5
320D
331
3181
  5
3185
331
310B
  5
310F
331
2266
  5
2266
331
3095
  5
309B
331
30D4
  5
30D9
331
142B
  5
142B
331
13FC
  5
13FC
331
1433
  5
1433
331
1472
  5
1472
331
3189
  5
31D6
331
3113
  5
3117
331
309D
  5
30A2
331
30DC
  5
30E0
331
3152
  5
3156
331
3210
  5
3214
331
311B
  5
311F
331
30E4
  5
30E8
331
315A
  5
3161
331
3218
  5
321C
331
3220
  5
3224
331
3162
  5
3166
331
30EC
  5
30F0
331
30AD
  5
30B1
331
3123
  5
3127
331
31D9
  5
31DD
331
30B5
  5
30B9
331
312B
  5
3133
331
31E1
  5
31E5
331
1404
  5
1404
331
143B
  5
143B
331
1443
  5
1443
331
1414
  5
1414
331
1453
  5
1453
331
3228
  5
322C
331
3230
  5
3234
331
3238
  5
323C
331
30F4
  5
30F8
331
30BD
  5
30C1
331
3133
  5
313F
331
31E9
  5
31ED
331
3172
  5
3176
331
30FC
  5
3100
331
30C5
  5
30C9
331
31F1
  5
31F5
331
317A
  5
317E
331
3104
  5
3108
331
225F
  5
225F
331
30CD
  5
30D1
331
3143
  5
314F
331
31F9
  5
320E
331
3182
  5
3186
331
310C
  5
3110
331
3096
  5
309C
331
30D5
  5
30DA
331
13F5
  5
13F5
331
142C
  5
142C
331
146B
  5
146B
331
13FD
  5
13FD
331
1434
  5
1434
331
1473
  5
1473
331
3114
  5
3118
331
309E
  5
30A3
331
30DD
  5
30E1
331
3153
  5
3157
331
3211
  5
3215
331
311C
  5
3120
331
30A6
  5
30AA
331
30E5
  5
30E9
331
315B
  5
3162
331
3219
  5
321D
331
3221
  5
3225
331
3163
  5
3167
331
30ED
  5
30F1
331
30AE
  5
30B2
331
3124
  5
3128
331
31DA
  5
31DE
331
30B6
  5
30BA
331
312C
  5
3134
331
31E2
  5
31E6
331
1405
  5
1405
331
143C
  5
143C
331
140D
  5
140D
331
1444
  5
1444
331
1415
  5
1415
331
1454
  5
1454
331
3229
  5
322D
331
3231
  5
3235
331
3239
  5
323E
331
316B
  5
3170
331
30F5
  5
30F9
331
30BE
  5
30C2
331
3134
  5
3140
331
31EA
  5
31EE
331
3173
  5
3177
331
30FD
  5
3101
331
30C6
  5
30CA
331
31F2
  5
31F6
331
317B
  5
317F
331
3105
  5
3109
331
2260
  5
2260
331
308F
  5
3093
331
30CE
  5
30D2
331
3144
  5
3150
331
3183
  5
3187
331
310D
  5
3111
331
3097
  5
309D
331
1425
  5
1425
331
142D
  5
142D
331
146C
  5
146C
331
13FE
  5
13FE
331
1435
  5
1435
331
1474
  5
1474
331
3115
  5
3119
331
309F
  5
30A4
331
30DE
  5
30E2
331
3154
  5
3158
331
3212
  5
3216
331
31D3
  5
31D7
331
311D
  5
3121
331
30A7
  5
30AB
331
30E6
  5
30EA
331
315C
  5
3163
331
321A
  5
321E
331
3222
  5
3226
331
3164
  5
3168
331
30EE
  5
30F2
331
30AF
  5
30B3
331
3125
  5
3129
331
31DB
  5
31DF
331
30B7
  5
30BB
331
312D
  5
3135
331
31E3
  5
31E7
331
1406
  5
1406
331
143D
  5
143D
331
140E
  5
140E
331
1445
  5
1445
331
1416
  5
1416
331
144D
  5
144D
331
1455
  5
1455
331
322A
  5
322E
331
3232
  5
3236
331
323A
  5
323F
331
30F6
  5
30FA
331
30BF
  5
30C3
331
3135
  5
3141
331
31EB
  5
31EF
331
3174
  5
3178
331
30FE
  5
3102
331
2259
  5
2259
331
30C7
  5
30CB
331
31F3
  5
31F7
331
317C
  5
3180
331
3106
  5
310A
331
2261
  5
2261
331
3090
  5
3094
331
30CF
  5
30D3
331
3145
  5
3151
331
3184
  5
3188
331
310E
  5
3112
331
30D7
  5
30DB
331
320B
  5
320F
331
145D
  5
145D
331
1426
  5
1426
331
1465
  5
1465
331
13F7
  5
13F7
331
142E
  5
142E
331
146D
  5
146D
331
13FF
  5
13FF
331
1475
  5
1475
331
3098
  5
309E
331
3116
  5
311A
331
30A0
  5
30A6
331
30DF
  5
30E3
331
3155
  5
3159
331
3213
  5
3217
331
31D4
  5
31D8
331
311E
  5
3122
331
30E7
  5
30EB
331
2571
  5
2571
331
30A8
  5
30AC
331
315D
  5
3164
331
321B
  5
321F
331
3223
  5
3227
331
3165
  5
3169
331
30EF
  5
30F3
331
30B0
  5
30B4
331
3126
  5
312A
331
31DC
  5
31E0
331
31E4
  5
31E8
331
1407
  5
1407
331
143E
  5
143E
331
140F
  5
140F
331
1417
  5
1417
331
144E
  5
144E
331
1456
  5
1456
331
322B
  5
322F
331
3233
  5
3237
331
323B
  5
3241
331
30B8
  5
30BC
331
30F7
  5
30FB
331
3243
  5
3247
331
30C0
  5
30C4
331
316D
  5
3171
331
31EC
  5
31F0
331
3175
  5
3179
331
30FF
  5
3103
331
225A
  5
225A
331
30C8
  5
30CC
331
313E
  5
3142
331
31F4
  5
31F8
331
317D
  5
3181
331
3107
  5
310B
331
2262
  5
2262
331
3091
  5
3095
331
30D0
  5
30D4
331
3146
  5
3152
331
3185
  5
3189
331
310F
  5
3113
331
320C
  5
3210
331
141F
  5
141F
331
1427
  5
1427
331
1466
  5
1466
331
13F8
  5
13F8
331
142F
  5
142F
331
146E
  5
146E
331
1437
  5
1437
331
1476
  5
1476
331
30D8
  5
30DC
331
3117
  5
311B
331
30E0
  5
30E4
331
3156
  5
315A
331
3214
  5
3218
331
31D5
  5
31D9
331
30E8
  5
30EC
331
30A9
  5
30AD
331
311F
  5
3123
331
321C
  5
3220
331
3224
  5
3228
331
3166
  5
316B
331
30B1
  5
30B5
331
3127
  5
312B
331
31DD
  5
31E1
331
31E5
  5
31E9
331
1400
  5
1400
331
1408
  5
1408
331
143F
  5
143F
331
1457
  5
1457
331
322C
  5
3230
331
3234
  5
3238
331
30F0
  5
30F4
331
323C
  5
3242
331
30B9
  5
30BD
331
30F8
  5
30FC
331
30C1
  5
30C5
331
316E
  5
3172
331
31ED
  5
31F1
331
3176
  5
317A
331
3100
  5
3104
331
30C9
  5
30CD
331
225B
  5
225B
331
313F
  5
3143
331
31F5
  5
31F9
331
317E
  5
3182
331
3108
  5
310C
331
3092
  5
3096
331
2263
  5
2263
331
30D1
  5
30D5
331
3186
  5
31D3
331
314F
  5
3153
331
320D
  5
3211
331
1418
  5
1418
331
13F1
  5
13F1
331
1428
  5
1428
331
1467
  5
1467
331
13F9
  5
13F9
331
1430
  5
1430
331
146F
  5
146F
331
1477
  5
1477
331
3110
  5
3114
331
30D9
  5
30DD
331
3118
  5
311C
331
30A2
  5
30A7
331
30E1
  5
30E5
331
3157
  5
315B
331
3215
  5
3219
331
31D6
  5
31DA
331
30E9
  5
30ED
331
30AA
  5
30AE
331
3120
  5
3124
331
321D
  5
3221
331
3225
  5
3229
331
3167
  5
316D
331
30B2
  5
30B6
331
3128
  5
312C
331
31DE
  5
31E2
331
31E6
  5
31EA
331
1401
  5
1401
331
1438
  5
1438
331
1409
  5
1409
331
1440
  5
1440
331
1411
  5
1411
331
322D
  5
3231
331
3235
  5
3239
331
30F1
  5
30F5
331
30BA
  5
30BE
331
30F9
  5
30FD
331
30C2
  5
30C6
331
316F
  5
3173
331
31EE
  5
31F2
331
3177
  5
317B
331
3101
  5
3105
331
225C
  5
225C
331
30CA
  5
30CE
331
3140
  5
3144
331
31F6
  5
320B
331
317F
  5
3183
331
3109
  5
310D
331
2264
  5
2264
331
3093
  5
3097
331
30D2
  5
30D7
331
3187
  5
31D4
331
320E
  5
3212
331
1458
  5
1458
331
1421
  5
1421
331
13F2
  5
13F2
331
1429
  5
1429
331
13FA
  5
13FA
331
1431
  5
1431
331
1470
  5
1470
331
3111
  5
3115
331
309B
  5
309F
331
30DA
  5
30DE
331
3150
  5
3154
331
3119
  5
311D
331
30A3
  5
30A8
331
30E2
  5
30E6
331
3158
  5
315C
331
3216
  5
321A
331
31D7
  5
31DB
331
30EA
  5
30EE
331
30AB
  5
30AF
331
3121
  5
3125
331
321E
  5
3222
331
3226
  5
322A
331
30B3
  5
30B7
331
3129
  5
312D
331
31DF
  5
31E3
331
31E7
  5
31EB
331
1402
  5
1402
331
1478
  5
1478
331
140A
  5
140A
331
1441
  5
1441
331
14B8
  5
14B8
331
1412
  5
1412
331
1449
  5
1449
331
322E
  5
3232
331
3236
  5
323A
331
3168
  5
316E
331
30F2
  5
30F6
331
323E
  5
3243
331
30BB
  5
30BF
331
30FA
  5
30FE
331
30C3
  5
30C7
331
3170
  5
3174
331
31EF
  5
31F3
331
3178
  5
317C
331
3102
  5
3106
331
225D
  5
225D
331
30CB
  5
30CF
331
3141
  5
3145
331
31F7
  5
320C
331
3180
  5
3184
331
310A
  5
310E
331
3094
  5
3098
331
30D3
  5
30D8
331
320F
  5
3213
331
1459
  5
1459
331
1422
  5
1422
331
1461
  5
1461
331
13F3
  5
13F3
331
142A
  5
142A
331
13FB
  5
13FB
331
1432
  5
1432
331
1471
  5
1471
331
3188
  5
31D5
331
3112
  5
3116
331
309C
  5
30A0
331
30DB
  5
30DF
331
3151
  5
3155
331
311A
  5
311E
331
30A4
  5
30A9
331
30E3
  5
30E7
331
3159
  5
315D
331
3217
  5
321B
331
321F
  5
3223
331
3161
  5
3165
331
30EB
  5
30EF
331
30AC
  5
30B0
331
3122
  5
3126
331
31D8
  5
31DC
331
3227
  5
322B
331
30B4
  5
30B8
331
312A
  5
3132
331
31E0
  5
31E4
331
1403
  5
1403
331
143A
  5
143A
331
1479
  5
1479
331
1442
  5
1442
331
1413
  5
1413
331
1452
  5
1452
  0
DIMASSOC
  5
33B8
102
{ACAD_REACTORS
330
33B7
102
}
330
33B7
100
AcDbDimAssoc
330
33AA
 90
        3
 70
     0
 71
     0
  1
AcDbOsnapPointRef
 72
     1
331
3392
 73
     2
 91
        3
 40
0.0
 10
0.0
 20
0.0
 30
2.000000000000000E+50
 75
     0
  1
AcDbOsnapPointRef
 72
    13
331
3091
 73
     0
 91
        0
 40
0.0
 10
0.0
 20
0.0
 30
2.000000000000000E+50
 75
     0
  0
LAYOUT
  5
1E
102
{ACAD_XDICTIONARY
360
39FC
102
}
102
{ACAD_REACTORS
330
1A
102
}
330
1A
100
AcDbPlotSettings
  1

  2
自動 RD 上的 Epson Stylus Photo 750 單色
  4

  6

 40
0.0
 41
0.0
 42
0.0
 43
0.0
 44
0.0
 45
0.0
 46
0.0
 47
0.0
 48
0.0
 49
0.0
140
0.0
141
0.0
142
1.0
143
1.0
 70
   688
 72
     0
 73
     0
 74
     5
  7
單色出圖.ctb
 75
    16
147
1.0
148
0.0
149
0.0
100
AcDbLayout
  1
Layout1
 70
     1
 71
     1
 10
0.0
 20
0.0
 11
420.0
 21
297.0
 12
0.0
 22
0.0
 32
0.0
 14
1.000000000000000E+20
 24
1.000000000000000E+20
 34
1.000000000000000E+20
 15
-1.000000000000000E+20
 25
-1.000000000000000E+20
 35
-1.000000000000000E+20
146
0.0
 13
0.0
 23
0.0
 33
0.0
 16
1.0
 26
0.0
 36
0.0
 17
0.0
 27
1.0
 37
0.0
 76
     0
330
1B
  0
LAYOUT
  5
26
102
{ACAD_XDICTIONARY
360
3A00
102
}
102
{ACAD_REACTORS
330
1A
102
}
330
1A
100
AcDbPlotSettings
  1

  2
自動 RD 上的 Epson Stylus Photo 750 單色
  4

  6

 40
0.0
 41
0.0
 42
0.0
 43
0.0
 44
0.0
 45
0.0
 46
0.0
 47
0.0
 48
0.0
 49
0.0
140
0.0
141
0.0
142
1.0
143
1.0
 70
   688
 72
     0
 73
     0
 74
     5
  7
單色出圖.ctb
 75
    16
147
1.0
148
0.0
149
0.0
100
AcDbLayout
  1
Layout2
 70
     1
 71
     2
 10
0.0
 20
0.0
 11
12.0
 21
9.0
 12
0.0
 22
0.0
 32
0.0
 14
0.0
 24
0.0
 34
0.0
 15
0.0
 25
0.0
 35
0.0
146
0.0
 13
0.0
 23
0.0
 33
0.0
 16
1.0
 26
0.0
 36
0.0
 17
0.0
 27
1.0
 37
0.0
 76
     0
330
23
  0
LAYOUT
  5
22
102
{ACAD_XDICTIONARY
360
39FE
102
}
102
{ACAD_REACTORS
330
1A
102
}
330
1A
100
AcDbPlotSettings
  1

  2
自動 RD 上的 Epson Stylus Photo 750 單色
  4
A4
  6

 40
3.757083177566528
 41
14.7637300491333
 42
3.757080078125
 43
3.757080078125
 44
209.9733276367187
 45
296.9683227539062
 46
7.54
 47
0.0
 48
0.0
 49
0.0
140
0.0
141
0.0
142
1.0
143
1.817317462545654
 70
 11956
 72
     1
 73
     0
 74
     1
  7
單色出圖.ctb
 75
     0
147
0.5502615919395967
148
-125.5654918467224
149
222.8859553785132
100
AcDbLayout
  1
Model
 70
     1
 71
     0
 10
0.0
 20
0.0
 11
12.0
 21
9.0
 12
0.0
 22
0.0
 32
0.0
 14
0.0
 24
0.0
 34
0.0
 15
0.0
 25
0.0
 35
0.0
146
0.0
 13
0.0
 23
0.0
 33
0.0
 16
1.0
 26
0.0
 36
0.0
 17
0.0
 27
1.0
 37
0.0
 76
     0
330
1F
  0
MLINESTYLE
  5
18
102
{ACAD_REACTORS
330
17
102
}
330
17
100
AcDbMlineStyle
  2
STANDARD
 70
     0
  3

 62
   256
 51
90.0
 52
90.0
 71
     2
 49
0.5
 62
   256
  6
BYLAYER
 49
-0.5
 62
   256
  6
BYLAYER
  0
ACDBPLACEHOLDER
  5
F
102
{ACAD_REACTORS
330
E
102
}
330
E
  0
TABLESTYLE
  5
7D3
102
{ACAD_REACTORS
330
7D2
102
}
330
7D2
100
AcDbTableStyle
  3
Standard
 70
     0
 71
     0
 40
1.5
 41
1.5
280
     0
281
     0
  7
STANDARD
140
4.5
170
     2
 62
     0
 63
     7
283
     0
274
    -2
284
     1
 64
     0
275
    -2
285
     1
 65
     0
276
    -2
286
     1
 66
     0
277
    -2
287
     1
 67
     0
278
    -2
288
     1
 68
     0
279
    -2
289
     1
 69
     0
  7
STANDARD
140
6.0
170
     5
 62
     0
 63
     7
283
     0
274
    -2
284
     1
 64
     0
275
    -2
285
     1
 65
     0
276
    -2
286
     1
 66
     0
277
    -2
287
     1
 67
     0
278
    -2
288
     1
 68
     0
279
    -2
289
     1
 69
     0
  7
STANDARD
140
4.5
170
     5
 62
     0
 63
     7
283
     0
274
    -2
284
     1
 64
     0
275
    -2
285
     1
 65
     0
276
    -2
286
     1
 66
     0
277
    -2
287
     1
 67
     0
278
    -2
288
     1
 68
     0
279
    -2
289
     1
 69
     0
  0
DICTIONARYVAR
  5
847
102
{ACAD_REACTORS
330
82
102
}
330
82
100
DictionaryVariables
280
     0
  1
STANDARD
  0
DICTIONARYVAR
  5
85
102
{ACAD_REACTORS
330
82
102
}
330
82
100
DictionaryVariables
280
     0
  1
2
  0
DICTIONARYVAR
  5
84
102
{ACAD_REACTORS
330
82
102
}
330
82
100
DictionaryVariables
280
     0
  1
1
  0
DICTIONARYVAR
  5
83
102
{ACAD_REACTORS
330
82
102
}
330
82
100
DictionaryVariables
280
     0
  1
0
  0
DICTIONARYVAR
  5
848
102
{ACAD_REACTORS
330
82
102
}
330
82
100
DictionaryVariables
280
     0
  1

  0
DICTIONARY
  5
4A
102
{ACAD_REACTORS
330
45
102
}
330
45
100
AcDbDictionary
281
     1
  0
XRECORD
  5
7DF
102
{ACAD_REACTORS
330
45
102
}
330
45
100
AcDbXrecord
280
     1
 90
-1023410169
  0
DICTIONARY
  5
39FC
330
1E
100
AcDbDictionary
280
     1
281
     1
  3
ACAD_XREC_ROUNDTRIP
360
39FD
  0
DICTIONARY
  5
3A00
330
26
100
AcDbDictionary
280
     1
281
     1
  3
ACAD_XREC_ROUNDTRIP
360
3A01
  0
DICTIONARY
  5
39FE
330
22
100
AcDbDictionary
280
     1
281
     1
  3
ACAD_XREC_ROUNDTRIP
360
39FF
  0
XRECORD
  5
39FD
102
{ACAD_REACTORS
330
39FC
102
}
330
39FC
100
AcDbXrecord
280
     1
102
SHADEPLOT
 70
     0
102
SHADEPLOTRESLEVEL
 70
     2
102
SHADEPLOTCUSTOMDPI
 70
   300
  0
XRECORD
  5
3A01
102
{ACAD_REACTORS
330
3A00
102
}
330
3A00
100
AcDbXrecord
280
     1
102
SHADEPLOT
 70
     0
102
SHADEPLOTRESLEVEL
 70
     2
102
SHADEPLOTCUSTOMDPI
 70
   300
  0
XRECORD
  5
39FF
102
{ACAD_REACTORS
330
39FE
102
}
330
39FE
100
AcDbXrecord
280
     1
102
SHADEPLOT
 70
     0
102
SHADEPLOTRESLEVEL
 70
     2
102
SHADEPLOTCUSTOMDPI
 70
   300
  0
ENDSEC
  0
EOF
