  0
SECTION
  2
HEADER
  9
$ACADVER
  1
AC1015
  9
$ACADMAINTVER
 70
    20
  9
$DWGCODEPAGE
  3
ANSI_950
  9
$INSBASE
 10
0.0
 20
0.0
 30
0.0
  9
$EXTMIN
 10
718.9771112968115
 20
78.29241252878262
 30
-0.0025898984850983
  9
$EXTMAX
 10
1212.472577773599
 20
428.8837758739012
 30
169.853404856443
  9
$LIMMIN
 10
0.0
 20
0.0
  9
$LIMMAX
 10
420.0
 20
297.0
  9
$ORTHOMODE
 70
     1
  9
$REGENMODE
 70
     1
  9
$FILLMODE
 70
     1
  9
$QTEXTMODE
 70
     0
  9
$MIRRTEXT
 70
     1
  9
$LTSCALE
 40
3.0
  9
$ATTMODE
 70
     1
  9
$TEXTSIZE
 40
3.5
  9
$TRACEWID
 40
1.0
  9
$TEXTSTYLE
  7
STANDARD
  9
$CLAYER
  8
0
  9
$CELTYPE
  6
ByLayer
  9
$CECOLOR
 62
   256
  9
$CELTSCALE
 40
1.0
  9
$DISPSILH
 70
     0
  9
$DIMSCALE
 40
1.0
  9
$DIMASZ
 40
3.0
  9
$DIMEXO
 40
1.0
  9
$DIMDLI
 40
8.0
  9
$DIMRND
 40
0.0
  9
$DIMDLE
 40
0.0
  9
$DIMEXE
 40
1.5
  9
$DIMTP
 40
0.1
  9
$DIMTM
 40
0.1
  9
$DIMTXT
 40
3.5
  9
$DIMCEN
 40
3.0
  9
$DIMTSZ
 40
0.0
  9
$DIMTOL
 70
     0
  9
$DIMLIM
 70
     0
  9
$DIMTIH
 70
     0
  9
$DIMTOH
 70
     0
  9
$DIMSE1
 70
     0
  9
$DIMSE2
 70
     0
  9
$DIMTAD
 70
     1
  9
$DIMZIN
 70
     8
  9
$DIMBLK
  1

  9
$DIMASO
 70
     1
  9
$DIMSHO
 70
     1
  9
$DIMPOST
  1

  9
$DIMAPOST
  1
"
  9
$DIMALT
 70
     0
  9
$DIMALTD
 70
     2
  9
$DIMALTF
 40
0.0393701
  9
$DIMLFAC
 40
1.0
  9
$DIMTOFL
 70
     1
  9
$DIMTVP
 40
0.0
  9
$DIMTIX
 70
     0
  9
$DIMSOXD
 70
     0
  9
$DIMSAH
 70
     0
  9
$DIMBLK1
  1

  9
$DIMBLK2
  1

  9
$DIMSTYLE
  2
AM_ISO
  9
$DIMCLRD
 70
   256
  9
$DIMCLRE
 70
   256
  9
$DIMCLRT
 70
   256
  9
$DIMTFAC
 40
0.71
  9
$DIMGAP
 40
0.8
  9
$DIMJUST
 70
     0
  9
$DIMSD1
 70
     0
  9
$DIMSD2
 70
     0
  9
$DIMTOLJ
 70
     0
  9
$DIMTZIN
 70
     8
  9
$DIMALTZ
 70
     0
  9
$DIMALTTZ
 70
     0
  9
$DIMUPT
 70
     0
  9
$DIMDEC
 70
     2
  9
$DIMTDEC
 70
     8
  9
$DIMALTU
 70
     2
  9
$DIMALTTD
 70
     2
  9
$DIMTXSTY
  7
STANDARD
  9
$DIMAUNIT
 70
     0
  9
$DIMADEC
 70
     0
  9
$DIMALTRND
 40
0.0
  9
$DIMAZIN
 70
     2
  9
$DIMDSEP
 70
    46
  9
$DIMATFIT
 70
     3
  9
$DIMFRAC
 70
     0
  9
$DIMLDRBLK
  1

  9
$DIMLUNIT
 70
     2
  9
$DIMLWD
 70
    -1
  9
$DIMLWE
 70
    -1
  9
$DIMTMOVE
 70
     0
  9
$LUNITS
 70
     2
  9
$LUPREC
 70
     2
  9
$SKETCHINC
 40
1.0
  9
$FILLETRAD
 40
3.0
  9
$AUNITS
 70
     0
  9
$AUPREC
 70
     0
  9
$MENU
  1
.
  9
$ELEVATION
 40
0.0
  9
$PELEVATION
 40
0.0
  9
$THICKNESS
 40
0.0
  9
$LIMCHECK
 70
     0
  9
$CHAMFERA
 40
0.5
  9
$CHAMFERB
 40
0.5
  9
$CHAMFERC
 40
20.0
  9
$CHAMFERD
 40
0.0
  9
$SKPOLY
 70
     0
  9
$TDCREATE
 40
2453021.369367211
  9
$TDUCREATE
 40
2453021.036033877
  9
$TDUPDATE
 40
2453517.559543183
  9
$TDUUPDATE
 40
2453517.226209850
  9
$TDINDWG
 40
0.4927301042
  9
$TDUSRTIMER
 40
0.4927297569
  9
$USRTIMER
 70
     1
  9
$ANGBASE
 50
0.0
  9
$ANGDIR
 70
     0
  9
$PDMODE
 70
     0
  9
$PDSIZE
 40
0.0
  9
$PLINEWID
 40
0.0
  9
$SPLFRAME
 70
     0
  9
$SPLINETYPE
 70
     6
  9
$SPLINESEGS
 70
     8
  9
$HANDSEED
  5
298E
  9
$SURFTAB1
 70
     6
  9
$SURFTAB2
 70
     6
  9
$SURFTYPE
 70
     6
  9
$SURFU
 70
     6
  9
$SURFV
 70
     6
  9
$UCSBASE
  2

  9
$UCSNAME
  2

  9
$UCSORG
 10
0.0
 20
0.0
 30
0.0
  9
$UCSXDIR
 10
1.0
 20
0.0
 30
0.0
  9
$UCSYDIR
 10
0.0
 20
1.0
 30
0.0
  9
$UCSORTHOREF
  2

  9
$UCSORTHOVIEW
 70
     0
  9
$UCSORGTOP
 10
0.0
 20
0.0
 30
0.0
  9
$UCSORGBOTTOM
 10
0.0
 20
0.0
 30
0.0
  9
$UCSORGLEFT
 10
0.0
 20
0.0
 30
0.0
  9
$UCSORGRIGHT
 10
0.0
 20
0.0
 30
0.0
  9
$UCSORGFRONT
 10
0.0
 20
0.0
 30
0.0
  9
$UCSORGBACK
 10
0.0
 20
0.0
 30
0.0
  9
$PUCSBASE
  2

  9
$PUCSNAME
  2

  9
$PUCSORG
 10
0.0
 20
0.0
 30
0.0
  9
$PUCSXDIR
 10
1.0
 20
0.0
 30
0.0
  9
$PUCSYDIR
 10
0.0
 20
1.0
 30
0.0
  9
$PUCSORTHOREF
  2

  9
$PUCSORTHOVIEW
 70
     0
  9
$PUCSORGTOP
 10
0.0
 20
0.0
 30
0.0
  9
$PUCSORGBOTTOM
 10
0.0
 20
0.0
 30
0.0
  9
$PUCSORGLEFT
 10
0.0
 20
0.0
 30
0.0
  9
$PUCSORGRIGHT
 10
0.0
 20
0.0
 30
0.0
  9
$PUCSORGFRONT
 10
0.0
 20
0.0
 30
0.0
  9
$PUCSORGBACK
 10
0.0
 20
0.0
 30
0.0
  9
$USERI1
 70
     0
  9
$USERI2
 70
     0
  9
$USERI3
 70
     0
  9
$USERI4
 70
     0
  9
$USERI5
 70
     0
  9
$USERR1
 40
0.0
  9
$USERR2
 40
0.0
  9
$USERR3
 40
0.0
  9
$USERR4
 40
0.0
  9
$USERR5
 40
0.0
  9
$WORLDVIEW
 70
     1
  9
$SHADEDGE
 70
     3
  9
$SHADEDIF
 70
    70
  9
$TILEMODE
 70
     1
  9
$MAXACTVP
 70
    64
  9
$PINSBASE
 10
0.0
 20
0.0
 30
0.0
  9
$PLIMCHECK
 70
     0
  9
$PEXTMIN
 10
1.000000000000000E+20
 20
1.000000000000000E+20
 30
1.000000000000000E+20
  9
$PEXTMAX
 10
-1.000000000000000E+20
 20
-1.000000000000000E+20
 30
-1.000000000000000E+20
  9
$PLIMMIN
 10
0.0
 20
0.0
  9
$PLIMMAX
 10
420.0
 20
297.0
  9
$UNITMODE
 70
     0
  9
$VISRETAIN
 70
     1
  9
$PLINEGEN
 70
     0
  9
$PSLTSCALE
 70
     1
  9
$TREEDEPTH
 70
  3020
  9
$CMLSTYLE
  2
Standard
  9
$CMLJUST
 70
     0
  9
$CMLSCALE
 40
20.0
  9
$PROXYGRAPHICS
 70
     1
  9
$MEASUREMENT
 70
     1
  9
$CELWEIGHT
370
    -1
  9
$ENDCAPS
280
     0
  9
$JOINSTYLE
280
     0
  9
$LWDISPLAY
290
     0
  9
$INSUNITS
 70
     4
  9
$HYPERLINKBASE
  1

  9
$STYLESHEET
  1
彩色出圖.ctb
  9
$XEDIT
290
     1
  9
$CEPSNTYPE
380
     0
  9
$PSTYLEMODE
290
     1
  9
$FINGERPRINTGUID
  2
{6C02722A-18D3-491A-897A-B8025DE410A9}
  9
$VERSIONGUID
  2
{566772B7-A2CE-4055-AEC3-1BDB19EB15EA}
  9
$EXTNAMES
290
     1
  9
$PSVPSCALE
 40
0.0
  9
$OLESTARTUP
290
     0
  0
ENDSEC
  0
SECTION
  2
CLASSES
  0
CLASS
  1
ACDBDICTIONARYWDFLT
  2
AcDbDictionaryWithDefault
  3
ObjectDBX Classes
 90
        0
280
     0
281
     0
  0
CLASS
  1
ACDBPLACEHOLDER
  2
AcDbPlaceHolder
  3
ObjectDBX Classes
 90
        0
280
     0
281
     0
  0
CLASS
  1
LAYOUT
  2
AcDbLayout
  3
ObjectDBX Classes
 90
        0
280
     0
281
     0
  0
CLASS
  1
AMGSETTINGSOBJ
  2
AmgSettingsObj
  3
"AcadM|Product Description: AutoCAD Mechanical 2000|Company: Autodesk"
 90
        0
280
     0
281
     0
  0
CLASS
  1
ACME_DOCUMENT
  2
AcMeDbDoc
  3
AcMeServices
 90
        0
280
     0
281
     0
  0
CLASS
  1
ACMESCOPE
  2
AcMeScope
  3
AcMeServices
 90
        0
280
     0
281
     0
  0
CLASS
  1
ACMECOMMANDHISTORY
  2
AcMeCommandHistory
  3
AcMeServices
 90
        0
280
     0
281
     0
  0
CLASS
  1
ACIMSYSVARMAN
  2
AcImSysVarManager
  3
AcMeServices
 90
        0
280
     0
281
     0
  0
CLASS
  1
ACIMREALSYSVAR
  2
AcImRealSysVar
  3
AcMeServices
 90
        0
280
     0
281
     0
  0
CLASS
  1
ACIMINTSYSVAR
  2
AcImIntSysVar
  3
AcMeServices
 90
        0
280
     0
281
     0
  0
CLASS
  1
ACMEDRAWINGMAN
  2
AcMeDrawingMan
  3
AcMeServices
 90
        0
280
     0
281
     0
  0
CLASS
  1
ACMEVIEW
  2
AcMeView
  3
AcMeServices
 90
        0
280
     0
281
     0
  0
CLASS
  1
ACDBENTITYCACHE
  2
AcMeEntityCache
  3
AcMeServices
 90
        0
280
     0
281
     0
  0
CLASS
  1
GSMANAGER
  2
AcMeGSManager
  3
AcMeServices
 90
        0
280
     0
281
     0
  0
CLASS
  1
AMDTINTERNALREACTOR
  2
AmdtInternalReactor
  3
AcMeServices
 90
        0
280
     0
281
     0
  0
CLASS
  1
ACMESTATEMGR
  2
AcMeStateMgr
  3
AcMeServices
 90
        0
280
     0
281
     0
  0
CLASS
  1
ACGREFMASTER
  2
AcGrefMaster
  3
AcAttribServices
 90
        0
280
     0
281
     0
  0
CLASS
  1
ACME_DATABASE
  2
AcMeDbDatabase
  3
AcMeServices
 90
        0
280
     0
281
     0
  0
CLASS
  1
ACRFINSADJUSTERMGR
  2
AcRfInsAdjusterMgr
  3
AcMeServices
 90
        0
280
     0
281
     0
  0
CLASS
  1
ACGREFACADMASTER
  2
AcGrefacadMaster
  3
AcGrefServices
 90
        0
280
     0
281
     0
  0
CLASS
  1
AMIMASTER
  2
AmiMaster
  3
AmiServices
 90
        0
280
     0
281
     0
  0
CLASS
  1
ACMDATADICTIONARY
  2
AcmDataDictionary
  3
"AcmSymBB|Product Description: AutoCAD Mechanical 2004 DX|Company: Autodesk"
 90
        0
280
     0
281
     0
  0
CLASS
  1
ACMDATAENTRYBLOCK
  2
AcmDataEntryBlock
  3
"AcmSymBB|Product Description: AutoCAD Mechanical 2004 DX|Company: Autodesk"
 90
    32768
280
     0
281
     0
  0
CLASS
  1
ACIMSTRSYSVAR
  2
AcImStrSysVar
  3
AcMeServices
 90
        0
280
     0
281
     0
  0
CLASS
  1
ACMSTANDARDISO
  2
AcmStandardISO
  3
"Amdt_StdImp|Product Description: AutoCAD Mechanical 2004 DX|Company: Autodesk"
 90
        0
280
     0
281
     0
  0
CLASS
  1
AMGOBJPROPCFG
  2
AmgObjPropCfg
  3
"AmgLay|Product Description: AutoCAD Mechanical 2000|Company: Autodesk"
 90
        1
280
     0
281
     0
  0
CLASS
  1
AMDTEDGESTANDARDISO
  2
AmdtEdgeStdISO
  3
"Amdt_StdImp|Product Description: AutoCAD Mechanical 2004 DX|Company: Autodesk"
 90
    32768
280
     0
281
     0
  0
CLASS
  1
ACMSURFSTANDARDISO
  2
AcmSurfTextStdISO
  3
"Amdt_StdImp|Product Description: AutoCAD Mechanical 2004 DX|Company: Autodesk"
 90
        0
280
     0
281
     0
  0
CLASS
  1
ACMFCFSTANDARDISO
  2
AcmFCFStdISO
  3
"Amdt_StdImp|Product Description: AutoCAD Mechanical 2004 DX|Company: Autodesk"
 90
        0
280
     0
281
     0
  0
CLASS
  1
ACMWELDSTANDARDISO
  2
AcmWeldingStdISO
  3
"Amdt_StdImp|Product Description: AutoCAD Mechanical 2004 DX|Company: Autodesk"
 90
        0
280
     0
281
     0
  0
CLASS
  1
ACMIDSTANDARDISO
  2
AcmIdStdISO
  3
"Amdt_StdImp|Product Description: AutoCAD Mechanical 2004 DX|Company: Autodesk"
 90
        0
280
     0
281
     0
  0
CLASS
  1
ACMDATUMSTANDARDISO
  2
AcmDatumStdISO
  3
"Amdt_StdImp|Product Description: AutoCAD Mechanical 2004 DX|Company: Autodesk"
 90
        0
280
     0
281
     0
  0
CLASS
  1
ACMBOMSTANDARDISO
  2
AcmBOMStdISO
  3
"Amdt_StdImp|Product Description: AutoCAD Mechanical 2004 DX|Company: Autodesk"
 90
        0
280
     0
281
     0
  0
CLASS
  1
ACMDETAILSTANDARDISO
  2
AmdtDetailSymStdISO
  3
"Amdt_StdImp|Product Description: AutoCAD Mechanical 2004 DX|Company: Autodesk"
 90
        0
280
     0
281
     0
  0
CLASS
  1
ACMSECTIONSTANDARDISO
  2
AmdtSectionSymStdISO
  3
"Amdt_StdImp|Product Description: AutoCAD Mechanical 2004 DX|Company: Autodesk"
 90
        0
280
     0
281
     0
  0
CLASS
  1
ACMCENTERLINESTANDARDISO
  2
AmdtCenterLineStdISO
  3
"Amdt_StdImp|Product Description: AutoCAD Mechanical 2004 DX|Company: Autodesk"
 90
        0
280
     0
281
     0
  0
CLASS
  1
ACMNOTESTANDARDISO
  2
AmdtNoteStdISO
  3
"Amdt_StdImp|Product Description: AutoCAD Mechanical 2004 DX|Company: Autodesk"
 90
        0
280
     0
281
     0
  0
CLASS
  1
ACAMGLAYSTD
  2
AcAmgLayStd
  3
"AcAmgLayStd|Product Description: AutoCAD Mechanical 2000|Company: Autodesk"
 90
        0
280
     0
281
     0
  0
CLASS
  1
ACAMGDIMSTD
  2
AcAmgDimStd
  3
"AcAmgDimStd|Product Description: AutoCAD Mechanical 2000|Company: Autodesk"
 90
        0
280
     0
281
     0
  0
CLASS
  1
ACAMGHOLECHARTSTDISO
  2
AcAmgHoleChartStdISO
  3
ACMSYMBB_MODULE_NAME
 90
        0
280
     0
281
     0
  0
CLASS
  1
ACAMGTITLESTD
  2
AcAmgTitleStd
  3
"TITLEAPP"
 90
        0
280
     0
281
     0
  0
CLASS
  1
LAYER_INDEX
  2
AcDbLayerIndex
  3
ObjectDBX Classes
 90
    32768
280
     0
281
     0
  0
CLASS
  1
IDBUFFER
  2
AcDbIdBuffer
  3
ObjectDBX Classes
 90
    32768
280
     0
281
     0
  0
CLASS
  1
DICTIONARYVAR
  2
AcDbDictionaryVar
  3
ObjectDBX Classes
 90
        0
280
     0
281
     0
  0
CLASS
  1
ACAMGFILTERDAT
  2
AcAmgFilterDat
  3
"AcadM|Product Description: AutoCAD Mechanical 2000|Company: Autodesk"
 90
    32768
280
     0
281
     0
  0
CLASS
  1
AMDTFORMULAUPDATEDISPATCHER
  2
AmdtFormulaUpdateDispatcher
  3
AcMeServices
 90
    32768
280
     0
281
     0
  0
CLASS
  1
DIMASSOC
  2
AcDbDimAssoc
  3
"AcDbDimAssoc|Product Desc:     AcDim ARX App For Dimension|Company:          Autodesk, Inc.|WEB Address:      www.autodesk.com"
 90
        0
280
     0
281
     0
  0
CLASS
  1
AMDTNOTE
  2
AmdtNote
  3
"AcmSymBB|Product Description: AutoCAD Mechanical 2004 DX|Company: Autodesk"
 90
     1023
280
     0
281
     1
  0
CLASS
  1
TABLESTYLE
  2
AcDbTableStyle
  3
ObjectDBX Classes
 90
     2047
280
     0
281
     0
  0
CLASS
  1
AM_DRAWING_MGR
  2
AcDmDwgMgr
  3
AcMechDwgViewMgmt
 90
        0
280
     0
281
     0
  0
CLASS
  1
AM_DWG_DOCUMENT
  2
AcDmDwgDocument
  3
AcMechDwgViewMgmt
 90
        0
280
     0
281
     0
  0
CLASS
  1
AM_DWG_SHEET
  2
AcDmSheet
  3
AcMechDwgViewMgmt
 90
        0
280
     0
281
     0
  0
CLASS
  1
AM_VIEWDIMPARMAP
  2
AcDmViewDimParMap
  3
AcMechDwgViewMgmt
 90
        0
280
     0
281
     0
  0
CLASS
  1
AM_DWGMGR_NAME
  2
AcDmDwgMgrName
  3
AcMechDwgViewMgmt
 90
        0
280
     0
281
     0
  0
CLASS
  1
AMDTMENUSTATEMGR
  2
AmdtMenuStateMgr
  3
McadcomServices
 90
        0
280
     0
281
     0
  0
CLASS
  1
AMDTMCOMMENUSTATE
  2
AmdtMcomMenuState
  3
McadcomServices
 90
        0
280
     0
281
     0
  0
CLASS
  1
MAPIAMMOUDLE
  2
MApiAmModule
  3
MApiAmServices
 90
        0
280
     0
281
     0
  0
CLASS
  1
AMDTADMENUSTATE
  2
AmdtAdMenuState
  3
DesignerServices
 90
        0
280
     0
281
     0
  0
CLASS
  1
ADAPPL
  2
AcAdAppl
  3
DesignerServices
 90
        0
280
     0
281
     0
  0
CLASS
  1
DEPMGR
  2
AcAdDepMgr
  3
DesignerServices
 90
        0
280
     0
281
     0
  0
CLASS
  1
PARAMMGR
  2
AcAdParamMgr
  3
DesignerServices
 90
        0
280
     0
281
     0
  0
CLASS
  1
PARAMSCOPE
  2
AcAdParamScope
  3
DesignerServices
 90
        0
280
     0
281
     0
  0
CLASS
  1
NAMEDAPPL
  2
AcAdNamedAppl
  3
DesignerServices
 90
        0
280
     0
281
     0
  0
CLASS
  1
AMDTDMMENUSTATE
  2
AmdtDmMenuState
  3
AcMechDwgViewMgmt
 90
        0
280
     0
281
     0
  0
CLASS
  1
AMDTAMMENUSTATE
  2
AmdtAmMenuState
  3
DesignerAssemblies
 90
        0
280
     0
281
     0
  0
CLASS
  1
ACAMPROJECT
  2
AcAmProject
  3
DesignerAssemblies
 90
        0
280
     0
281
     0
  0
CLASS
  1
ACAMGRCOMPDEF
  2
AcAmGrCompDef
  3
DesignerAssemblies
 90
        0
280
     0
281
     0
  0
CLASS
  1
ACCMCONTEXT
  2
AcCmContext
  3
DesignerAssemblies
 90
        0
280
     0
281
     0
  0
CLASS
  1
ACAMCOMPDEF
  2
AcAmCompDef
  3
DesignerAssemblies
 90
        0
280
     0
281
     0
  0
CLASS
  1
ACAMCOMPDEFMGR
  2
AcAmCompDefMgr
  3
DesignerAssemblies
 90
        0
280
     0
281
     0
  0
CLASS
  1
AMCONTEXTMGR
  2
AcAmContextMgr
  3
DesignerAssemblies
 90
        0
280
     0
281
     0
  0
CLASS
  1
ACAMCONTEXTMODELER
  2
AcAmContextModeler
  3
DesignerAssemblies
 90
        0
280
     0
281
     0
  0
CLASS
  1
ACMTHREADLINESTANDARDISO
  2
AmdtThreadLineStdISO
  3
"Amdt_StdImp|Product Description: AutoCAD Mechanical 2004 DX|Company: Autodesk"
 90
        0
280
     0
281
     0
  0
CLASS
  1
CATALOGSTATE
  2
AcAmCatalogState
  3
DesignerAssemblies
 90
        0
280
     0
281
     0
  0
CLASS
  1
ACAMGRCOMPDEFSET
  2
AcAmGrCompDefSet
  3
DesignerAssemblies
 90
        0
280
     0
281
     0
  0
CLASS
  1
AMDTBROWSERDBTAB
  2
AmdtBrowserDbTab
  3
McadcomServices
 90
        0
280
     0
281
     0
  0
CLASS
  1
CBROWSERAPPOBJECT
  2
CBrowserAppObject
  3
McadcomServices
 90
        0
280
     0
281
     0
  0
CLASS
  1
DM_PLACEHOLDER
  2
AcDmSelsetPlaceholder
  3
AcMechDwgViewMgmt
 90
        0
280
     0
281
     0
  0
CLASS
  1
VAACXREFPANELOBJECT
  2
VaAcXREFPanelObject
  3
VAAC_ADDIN
 90
        0
280
     0
281
     0
  0
CLASS
  1
VAACIMAGEINVENTORY
  2
VaAcImageInventory
  3
VAAC_ADDIN
 90
        0
280
     0
281
     0
  0
CLASS
  1
AMDTEDGESTANDARDISO13715
  2
AmdtEdgeStdISO13715
  3
"Amdt_StdImp|Product Description: AutoCAD Mechanical 2004 DX|Company: Autodesk"
 90
        0
280
     0
281
     0
  0
CLASS
  1
AMDTNOTETEMPLATEDB
  2
AmdtNoteTemplateDB
  3
AMDT_STDIMP_MODULE_NAME
 90
        0
280
     0
281
     0
  0
CLASS
  1
ACRFATTGENMGR
  2
AcRfAttGeneralMgr
  3
AcAttribServices
 90
        0
280
     0
281
     0
  0
CLASS
  1
SORTENTSTABLE
  2
AcDbSortentsTable
  3
ObjectDBX Classes
 90
        0
280
     0
281
     0
  0
CLASS
  1
STDPART2D
  2
AmgStdPart
  3
"AmgStdPart|Product Description: AutoCAD Mechanical 2000|Company: Autodesk"
 90
     1023
280
     0
281
     1
  0
CLASS
  1
ACAMSTDPCOMPDEF
  2
AcAmStdpCompDef
  3
DesignerAssemblies
 90
    32768
280
     0
281
     0
  0
CLASS
  1
ACRFOBJATTMGR
  2
AcRfObjAttGroupMgr
  3
AcAttribServices
 90
    32768
280
     0
281
     0
  0
CLASS
  1
ACRFMCADAPIATTHOLDER
  2
AcRfMCADAPIAttHolder
  3
AcAttribServices
 90
    32768
280
     0
281
     0
  0
CLASS
  1
AMDTSYSATTR
  2
AmdtSystemAttribute
  3
AcAttribServices
 90
    32768
280
     0
281
     0
  0
CLASS
  1
ACAMCOMP
  2
AcAmComp
  3
DesignerAssemblies
 90
    32768
280
     0
281
     0
  0
CLASS
  1
AC_AM_STDP_VIEW_DEF
  2
AcAmStdpViewDef
  3
DesignerAssemblies
 90
    32768
280
     0
281
     0
  0
CLASS
  1
AC_AM_MVD_DEP_MGR
  2
AcAmMVDdepMgr
  3
DesignerAssemblies
 90
        0
280
     0
281
     0
  0
CLASS
  1
AC_AM_MASTER_VIEW_DEF
  2
AcAmMasterViewDef
  3
DesignerAssemblies
 90
        0
280
     0
281
     0
  0
CLASS
  1
AC_AM_DIRTY_NODES
  2
AcAmDirtyNodes
  3
DesignerAssemblies
 90
        0
280
     0
281
     0
  0
CLASS
  1
AC_AM_MAPPER_CACHE
  2
AcAmMapperCache
  3
DesignerAssemblies
 90
        0
280
     0
281
     0
  0
CLASS
  1
ACAMMVDBACKUPOBJECT
  2
AcAmMVDBackupObject
  3
DesignerAssemblies
 90
        0
280
     0
281
     0
  0
CLASS
  1
AC_AM_COMP_VIEW_INST
  2
AcAmCompView
  3
DesignerAssemblies
 90
    32768
280
     0
281
     0
  0
CLASS
  1
AC_AM_2D_XREF_MGR
  2
AcAmXrefMgr2d
  3
DesignerAssemblies
 90
        0
280
     0
281
     0
  0
CLASS
  1
ACMSTANDARDANSI
  2
AcmStandardANSI
  3
"Amdt_StdImp|Product Description: AutoCAD Mechanical 2004 DX|Company: Autodesk"
 90
        0
280
     0
281
     0
  0
CLASS
  1
ACMSURFSTANDARDANSI
  2
AcmSurfTextStdANSI
  3
"Amdt_StdImp|Product Description: AutoCAD Mechanical 2004 DX|Company: Autodesk"
 90
        0
280
     0
281
     0
  0
CLASS
  1
ACMFCFSTANDARDANSI
  2
AcmFCFStdANSI
  3
"Amdt_StdImp|Product Description: AutoCAD Mechanical 2004 DX|Company: Autodesk"
 90
        0
280
     0
281
     0
  0
CLASS
  1
ACMWELDSTANDARDANSI
  2
AcmWeldingStdANSI
  3
"Amdt_StdImp|Product Description: AutoCAD Mechanical 2004 DX|Company: Autodesk"
 90
        0
280
     0
281
     0
  0
CLASS
  1
ACMIDSTANDARDANSI
  2
AcmIdStdANSI
  3
"Amdt_StdImp|Product Description: AutoCAD Mechanical 2004 DX|Company: Autodesk"
 90
        0
280
     0
281
     0
  0
CLASS
  1
ACMDATUMSTANDARDANSI
  2
AcmDatumStdANSI
  3
"Amdt_StdImp|Product Description: AutoCAD Mechanical 2004 DX|Company: Autodesk"
 90
        0
280
     0
281
     0
  0
CLASS
  1
ACMBOMSTANDARDANSI
  2
AcmBOMStdANSI
  3
"Amdt_StdImp|Product Description: AutoCAD Mechanical 2004 DX|Company: Autodesk"
 90
        0
280
     0
281
     0
  0
CLASS
  1
ACMDETAILSTANDARDANSI
  2
AmdtDetailSymStdANSI
  3
"Amdt_StdImp|Product Description: AutoCAD Mechanical 2004 DX|Company: Autodesk"
 90
        0
280
     0
281
     0
  0
CLASS
  1
ACMSECTIONSTANDARDANSI
  2
AmdtSectionSymStdANSI
  3
"Amdt_StdImp|Product Description: AutoCAD Mechanical 2004 DX|Company: Autodesk"
 90
        0
280
     0
281
     0
  0
CLASS
  1
ACMCENTERLINESTANDARDANSI
  2
AmdtCenterLineStdANSI
  3
"Amdt_StdImp|Product Description: AutoCAD Mechanical 2004 DX|Company: Autodesk"
 90
        0
280
     0
281
     0
  0
CLASS
  1
ACMTHREADLINESTANDARDANSI
  2
AmdtThreadLineStdANSI
  3
"Amdt_StdImp|Product Description: AutoCAD Mechanical 2004 DX|Company: Autodesk"
 90
        0
280
     0
281
     0
  0
CLASS
  1
ACMNOTESTANDARDANSI
  2
AmdtNoteStdANSI
  3
"Amdt_StdImp|Product Description: AutoCAD Mechanical 2004 DX|Company: Autodesk"
 90
        0
280
     0
281
     0
  0
CLASS
  1
ACAMGHOLECHARTSTDANSI
  2
AcAmgHoleChartStdANSI
  3
ACMSYMBB_MODULE_NAME
 90
        0
280
     0
281
     0
  0
ENDSEC
  0
SECTION
  2
TABLES
  0
TABLE
  2
VPORT
  5
8
330
0
100
AcDbSymbolTable
 70
     3
  0
VPORT
  5
2985
330
8
100
AcDbSymbolTableRecord
100
AcDbViewportTableRecord
  2
*Active
 70
     0
 10
0.0
 20
0.0
 11
1.0
 21
1.0
 12
965.6681467424832
 22
253.599628004722
 13
0.0
 23
0.0
 14
2.5
 24
2.5
 15
10.0
 25
10.0
 16
0.0
 26
0.0
 36
1.0
 17
0.0
 27
0.0
 37
0.0
 40
354.6052171786572
 41
1.81766917293233
 42
50.0
 43
0.0
 44
0.0
 50
0.0
 51
0.0
 71
     0
 72
   100
 73
     1
 74
     3
 75
     0
 76
     0
 77
     0
 78
     0
281
     0
 65
     1
110
0.0
120
0.0
130
0.0
111
1.0
121
0.0
131
0.0
112
0.0
122
1.0
132
0.0
 79
     0
146
0.0
  0
ENDTAB
  0
TABLE
  2
LTYPE
  5
5
330
0
100
AcDbSymbolTable
 70
    17
  0
LTYPE
  5
14
330
5
100
AcDbSymbolTableRecord
100
AcDbLinetypeTableRecord
  2
ByBlock
 70
     0
  3

 72
    65
 73
     0
 40
0.0
  0
LTYPE
  5
15
330
5
100
AcDbSymbolTableRecord
100
AcDbLinetypeTableRecord
  2
ByLayer
 70
     0
  3

 72
    65
 73
     0
 40
0.0
  0
LTYPE
  5
16
330
5
100
AcDbSymbolTableRecord
100
AcDbLinetypeTableRecord
  2
Continuous
 70
     0
  3
Solid line
 72
    65
 73
     0
 40
0.0
  0
LTYPE
  5
4D
330
5
100
AcDbSymbolTableRecord
100
AcDbLinetypeTableRecord
  2
AM_ISO02W050
 70
     0
  3
__ __ __ __ __ __ __ __ __ __ __ __ __ __ __
 72
    65
 73
     2
 40
7.5
 49
6.0
 74
     0
 49
-1.5
 74
     0
  0
LTYPE
  5
4E
330
5
100
AcDbSymbolTableRecord
100
AcDbLinetypeTableRecord
  2
AM_ISO08W050
 70
     0
  3
____ . ____ . ____ . ____ . ____ . ____ . ____
 72
    65
 73
     4
 40
18.0
 49
12.0
 74
     0
 49
-1.5
 74
     0
 49
3.0
 74
     0
 49
-1.5
 74
     0
  0
LTYPE
  5
4F
330
5
100
AcDbSymbolTableRecord
100
AcDbLinetypeTableRecord
  2
AM_ISO09W050
 70
     0
  3
_____ . . _____ . . _____ . . ____ .. ____
 72
    65
 73
     6
 40
22.5
 49
12.0
 74
     0
 49
-1.5
 74
     0
 49
3.0
 74
     0
 49
-1.5
 74
     0
 49
3.0
 74
     0
 49
-1.5
 74
     0
  0
LTYPE
  5
50
330
5
100
AcDbSymbolTableRecord
100
AcDbLinetypeTableRecord
  2
Amconstr
 70
     0
  3
_______________________
 72
    65
 73
     2
 40
9999.0
 49
9999.0
 74
     0
 49
0.0
 74
     0
  0
LTYPE
  5
51
330
5
100
AcDbSymbolTableRecord
100
AcDbLinetypeTableRecord
  2
AM_ISO08W050x2
 70
     0
  3
__ . __ . __ . __ . __ . __
 72
    65
 73
     4
 40
9.0
 49
6.0
 74
     0
 49
-0.75
 74
     0
 49
1.5
 74
     0
 49
-0.75
 74
     0
  0
LTYPE
  5
52
330
5
100
AcDbSymbolTableRecord
100
AcDbLinetypeTableRecord
  2
AM_ISO02W050x2
 70
     0
  3
 _ _ _ _ _ _ _ _ _ _ _ _
 72
    65
 73
     2
 40
3.75
 49
3.0
 74
     0
 49
-0.75
 74
     0
  0
LTYPE
  5
55
330
5
100
AcDbSymbolTableRecord
100
AcDbLinetypeTableRecord
  2
Amzigzag
 70
     0
  3
/\/-/\/-/\/-/\/-/\/-/\/
 72
    65
 73
     2
 40
11.0001
 49
0.0001
 74
     4
 75
   135
340
54
 46
0.04
 50
0.0
 44
0.0
 45
0.0
 49
-11.0
 74
     0
  0
LTYPE
  5
63
330
5
100
AcDbSymbolTableRecord
100
AcDbLinetypeTableRecord
  2
ACISOWELD
 70
     0
  3
_ _ _ _ _
 72
    65
 73
     2
 40
2.0
 49
2.0
 74
     0
 49
-1.0
 74
     0
  0
LTYPE
  5
64
330
5
100
AcDbSymbolTableRecord
100
AcDbLinetypeTableRecord
  2
ACISOTGB
 70
     0
  3
__ . . __ . .
 72
    65
 73
     6
 40
9.0
 49
4.0
 74
     0
 49
-1.0
 74
     0
 49
1.0
 74
     0
 49
-1.0
 74
     0
 49
1.0
 74
     0
 49
-1.0
 74
     0
  0
LTYPE
  5
65
330
5
100
AcDbSymbolTableRecord
100
AcDbLinetypeTableRecord
  2
ACISOTGL
 70
     0
  3
_ _ _ _ _
 72
    65
 73
     2
 40
3.0
 49
2.0
 74
     0
 49
-1.0
 74
     0
  0
LTYPE
  5
68
330
5
100
AcDbSymbolTableRecord
100
AcDbLinetypeTableRecord
  2
CENTER
 70
     0
  3
__ . __
 72
    65
 73
     4
 40
7.0
 49
4.0
 74
     0
 49
-1.0
 74
     0
 49
1.0
 74
     0
 49
-1.0
 74
     0
  0
LTYPE
  5
806
330
5
100
AcDbSymbolTableRecord
100
AcDbLinetypeTableRecord
  2
HIDDEN
 70
     0
  3
Hidden __ __ __ __ __ __ __ __ __ __ __ __ __ _
 72
    65
 73
     2
 40
9.524999999999998
 49
6.349999999999999
 74
     0
 49
-3.174999999999999
 74
     0
  0
LTYPE
  5
807
330
5
100
AcDbSymbolTableRecord
100
AcDbLinetypeTableRecord
  2
PHANTOM2
 70
     0
  3
Phantom (.5x) ___ _ _ ___ _ _ ___ _ _ ___ _ _
 72
    65
 73
     6
 40
31.75
 49
15.875
 74
     0
 49
-3.174999999999999
 74
     0
 49
3.174999999999999
 74
     0
 49
-3.174999999999999
 74
     0
 49
3.174999999999999
 74
     0
 49
-3.174999999999999
 74
     0
  0
LTYPE
  5
1654
330
5
100
AcDbSymbolTableRecord
100
AcDbLinetypeTableRecord
  2
DASHED
 70
     0
  3
__ __ __ __ __ __ __ __ __ __ __ __ __ __ __ __
 72
    65
 73
     2
 40
0.75
 49
0.5
 74
     0
 49
-0.25
 74
     0
  0
LTYPE
  5
1658
330
5
100
AcDbSymbolTableRecord
100
AcDbLinetypeTableRecord
  2
ACANSTGB
 70
     0
  3
__ . . __ . .
 72
    65
 73
     6
 40
0.35433070866
 49
0.15748031496
 74
     0
 49
-0.03937007874
 74
     0
 49
0.03937007874
 74
     0
 49
-0.03937007874
 74
     0
 49
0.03937007874
 74
     0
 49
-0.03937007874
 74
     0
  0
LTYPE
  5
1659
330
5
100
AcDbSymbolTableRecord
100
AcDbLinetypeTableRecord
  2
ACANSTGL
 70
     0
  3
_ _ _ _ _
 72
    65
 73
     2
 40
0.11811023622
 49
0.07874015748
 74
     0
 49
-0.03937007874
 74
     0
  0
ENDTAB
  0
TABLE
  2
LAYER
  5
2
102
{ACAD_XDICTIONARY
360
AAB
102
}
330
0
100
AcDbSymbolTable
 70
    10
  0
LAYER
  5
10
330
2
100
AcDbSymbolTableRecord
100
AcDbLayerTableRecord
  2
0
 70
     0
 62
     7
  6
Continuous
370
    -3
390
F
  0
LAYER
  5
42A
330
2
100
AcDbSymbolTableRecord
100
AcDbLayerTableRecord
  2
AM_5
 70
     0
 62
     5
  6
Continuous
370
    50
390
F
  0
LAYER
  5
43E
330
2
100
AcDbSymbolTableRecord
100
AcDbLayerTableRecord
  2
Defpoints
 70
     0
 62
     7
  6
Continuous
290
     0
370
    -3
390
F
  0
LAYER
  5
CD5
330
2
100
AcDbSymbolTableRecord
100
AcDbLayerTableRecord
  2
AM_7
 70
     0
 62
     1
  6
CENTER
370
    25
390
F
  0
LAYER
  5
CD7
330
2
100
AcDbSymbolTableRecord
100
AcDbLayerTableRecord
  2
AM_4
 70
     0
 62
     3
  6
Continuous
370
    25
390
F
  0
LAYER
  5
CD9
330
2
100
AcDbSymbolTableRecord
100
AcDbLayerTableRecord
  2
AM_0
 70
     0
 62
     7
  6
Continuous
370
    50
390
F
  0
LAYER
  5
135E
330
2
100
AcDbSymbolTableRecord
100
AcDbLayerTableRecord
  2
LOGO
 70
     0
 62
     7
  6
Continuous
370
    -3
390
F
  0
LAYER
  5
165A
330
2
100
AcDbSymbolTableRecord
100
AcDbLayerTableRecord
  2
center
 70
     0
 62
     1
  6
CENTER
370
    -3
390
F
  0
LAYER
  5
165B
330
2
100
AcDbSymbolTableRecord
100
AcDbLayerTableRecord
  2
hidden
 70
     0
 62
     3
  6
HIDDEN
370
    -3
390
F
  0
LAYER
  5
240E
330
2
100
AcDbSymbolTableRecord
100
AcDbLayerTableRecord
  2
AM_9
 70
     0
 62
  -253
  6
Continuous
370
     0
390
F
  0
ENDTAB
  0
TABLE
  2
STYLE
  5
3
330
0
100
AcDbSymbolTable
 70
     8
  0
STYLE
  5
11
330
3
100
AcDbSymbolTableRecord
100
AcDbTextStyleTableRecord
  2
STANDARD
 70
     0
 40
0.0
 41
1.0
 50
0.0
 71
     0
 42
3.5
  3
ISOCP.SHX
  4
CHINESET.SHX
  0
STYLE
  5
54
330
3
100
AcDbSymbolTableRecord
100
AcDbTextStyleTableRecord
  2

 70
     1
 40
0.0
 41
1.0
 50
0.0
 71
     0
 42
2.5
  3
ltypeshp.shx
  4

  0
STYLE
  5
56
330
3
100
AcDbSymbolTableRecord
100
AcDbTextStyleTableRecord
  2
ACISOTS
 70
     0
 40
1.0
 41
1.0
 50
0.0
 71
     0
 42
2.5
  3
isocp.shx
  4
chineset.shx
  0
STYLE
  5
62
330
3
100
AcDbSymbolTableRecord
100
AcDbTextStyleTableRecord
  2
ACISOGDT
 70
     0
 40
0.0
 41
1.0
 50
0.0
 71
     0
 42
3.5
  3
amgdt.shx
  4

  0
STYLE
  5
1360
330
3
100
AcDbSymbolTableRecord
100
AcDbTextStyleTableRecord
  2
CHINESET
 70
     0
 40
0.0
 41
1.0
 50
0.0
 71
     0
 42
4.0
  3
simplex.shx
  4
chineset.shx
  0
STYLE
  5
165C
330
3
100
AcDbSymbolTableRecord
100
AcDbTextStyleTableRecord
  2
ACANSTS
 70
     0
 40
1.0
 41
1.0
 50
0.0
 71
     0
 42
3.0
  3
romans.shx
  4
chineset.shx
  0
STYLE
  5
165D
330
3
100
AcDbSymbolTableRecord
100
AcDbTextStyleTableRecord
  2
ACANSGDT
 70
     0
 40
0.0
 41
1.0
 50
0.0
 71
     0
 42
3.0
  3
amgdtans.shx
  4

  0
ENDTAB
  0
TABLE
  2
VIEW
  5
6
330
0
100
AcDbSymbolTable
 70
     0
  0
ENDTAB
  0
TABLE
  2
UCS
  5
7
330
0
100
AcDbSymbolTable
 70
     0
  0
ENDTAB
  0
TABLE
  2
APPID
  5
9
330
0
100
AcDbSymbolTable
 70
    31
  0
APPID
  5
12
330
9
100
AcDbSymbolTableRecord
100
AcDbRegAppTableRecord
  2
ACAD
 70
     0
  0
APPID
  5
30
330
9
100
AcDbSymbolTableRecord
100
AcDbRegAppTableRecord
  2
MCAD_NO_VIS
 70
     0
  0
APPID
  5
31
330
9
100
AcDbSymbolTableRecord
100
AcDbRegAppTableRecord
  2
ACAD_TEMP_GRAPHIC
 70
     0
  0
APPID
  5
42
330
9
100
AcDbSymbolTableRecord
100
AcDbRegAppTableRecord
  2
ACATTRIBSERVICES
 70
     0
  0
APPID
  5
20A
330
9
100
AcDbSymbolTableRecord
100
AcDbRegAppTableRecord
  2
GENIUS_GENODEF_13
 70
     0
  0
APPID
  5
20B
330
9
100
AcDbSymbolTableRecord
100
AcDbRegAppTableRecord
  2
GENIUS_GENOBJ-N-HTC_13
 70
     0
  0
APPID
  5
20C
330
9
100
AcDbSymbolTableRecord
100
AcDbRegAppTableRecord
  2
GENIUS_GENHATCH_13
 70
     0
  0
APPID
  5
809
330
9
100
AcDbSymbolTableRecord
100
AcDbRegAppTableRecord
  2
AD_DRAW
 70
     0
  0
APPID
  5
827
330
9
100
AcDbSymbolTableRecord
100
AcDbRegAppTableRecord
  2
DESIGNERASSEMBLIES
 70
     0
  0
APPID
  5
82C
330
9
100
AcDbSymbolTableRecord
100
AcDbRegAppTableRecord
  2
ACADM_DIM_EDIT
 70
     0
  0
APPID
  5
82D
330
9
100
AcDbSymbolTableRecord
100
AcDbRegAppTableRecord
  2
AMDT_DM_ADJ
 70
     0
  0
APPID
  5
FE4
330
9
100
AcDbSymbolTableRecord
100
AcDbRegAppTableRecord
  2
GENIUS_GENDTOL_13
 70
     0
  0
APPID
  5
108C
330
9
100
AcDbSymbolTableRecord
100
AcDbRegAppTableRecord
  2
ACAD_DSTYLE_DIMTEXT_FILL
 70
     0
  0
APPID
  5
1201
330
9
100
AcDbSymbolTableRecord
100
AcDbRegAppTableRecord
  2
GEVID1116400677
 70
     0
  0
APPID
  5
1202
330
9
100
AcDbSymbolTableRecord
100
AcDbRegAppTableRecord
  2
GEVDC
 70
     0
  0
APPID
  5
1203
330
9
100
AcDbSymbolTableRecord
100
AcDbRegAppTableRecord
  2
GEVRADREF
 70
     0
  0
APPID
  5
120C
330
9
100
AcDbSymbolTableRecord
100
AcDbRegAppTableRecord
  2
AMG_2DHIDE
 70
     0
  0
APPID
  5
120D
330
9
100
AcDbSymbolTableRecord
100
AcDbRegAppTableRecord
  2
AMG_2DSTRUCT_BTR
 70
     0
  0
APPID
  5
121E
330
9
100
AcDbSymbolTableRecord
100
AcDbRegAppTableRecord
  2
ACADM_2DVIEW_IGN_NOTIFY
 70
     0
  0
APPID
  5
1361
330
9
100
AcDbSymbolTableRecord
100
AcDbRegAppTableRecord
  2
GENIUS_GENREC_14
 70
     0
  0
APPID
  5
1362
330
9
100
AcDbSymbolTableRecord
100
AcDbRegAppTableRecord
  2
GENIUS_GENOBJ-N-REC_13
 70
     0
  0
APPID
  5
1E4E
330
9
100
AcDbSymbolTableRecord
100
AcDbRegAppTableRecord
  2
GENIUS_GENOBJ-N-CEN_13
 70
     0
  0
APPID
  5
1E4F
330
9
100
AcDbSymbolTableRecord
100
AcDbRegAppTableRecord
  2
GENIUS_GENCEN_19
 70
     0
  0
APPID
  5
1E80
330
9
100
AcDbSymbolTableRecord
100
AcDbRegAppTableRecord
  2
GENIUS_GENOLIS_13
 70
     0
  0
APPID
  5
1E81
330
9
100
AcDbSymbolTableRecord
100
AcDbRegAppTableRecord
  2
GENIUS_GENOENT_13
 70
     0
  0
APPID
  5
1E82
330
9
100
AcDbSymbolTableRecord
100
AcDbRegAppTableRecord
  2
GENIUS_GENOBJ-N-CRS_13
 70
     0
  0
APPID
  5
1E83
330
9
100
AcDbSymbolTableRecord
100
AcDbRegAppTableRecord
  2
GENIUS_GENOREF_13
 70
     0
  0
APPID
  5
1EAE
330
9
100
AcDbSymbolTableRecord
100
AcDbRegAppTableRecord
  2
GEVID1116990276
 70
     0
  0
APPID
  5
1EAF
330
9
100
AcDbSymbolTableRecord
100
AcDbRegAppTableRecord
  2
GEVMK
 70
     0
  0
APPID
  5
23FE
330
9
100
AcDbSymbolTableRecord
100
AcDbRegAppTableRecord
  2
GEVID1116990277
 70
     0
  0
APPID
  5
24AE
330
9
100
AcDbSymbolTableRecord
100
AcDbRegAppTableRecord
  2
GEVID1116990278
 70
     0
  0
ENDTAB
  0
TABLE
  2
DIMSTYLE
  5
A
330
0
100
AcDbSymbolTable
 70
    16
100
AcDbDimStyleTable
 71
     2
340
6B
340
75
  0
DIMSTYLE
105
6B
330
A
100
AcDbSymbolTableRecord
100
AcDbDimStyleTableRecord
  2
AM_ISO
 70
     0
  4
"
 41
3.0
 42
1.0
 43
8.0
 44
1.5
 47
0.1
 48
0.1
 73
     0
 74
     0
 77
     1
 78
     8
 79
     2
140
3.5
141
3.0
143
0.0393701
146
0.71
147
0.8
172
     1
176
   256
177
   256
178
   256
271
     2
272
     2
283
     0
284
     8
340
11
371
    -1
372
    -1
  0
DIMSTYLE
105
6C
330
A
100
AcDbSymbolTableRecord
100
AcDbDimStyleTableRecord
  2
AM_ISO$3
 70
     0
  4
"
 41
3.0
 42
1.0
 43
8.0
 44
1.5
 47
0.1
 48
0.1
 73
     0
 77
     1
 78
     8
 79
     2
140
3.5
141
3.0
143
0.0393701
146
0.71
147
0.8
176
   256
177
   256
178
   256
271
     2
272
     2
283
     0
284
     8
288
     1
289
     0
340
11
371
    -1
372
    -1
  0
DIMSTYLE
105
6D
330
A
100
AcDbSymbolTableRecord
100
AcDbDimStyleTableRecord
  2
AM_ISO$4
 70
     0
  4
"
 41
3.0
 42
1.0
 43
8.0
 44
1.5
 47
0.1
 48
0.1
 73
     0
 77
     1
 78
     8
 79
     2
140
3.5
141
3.0
143
0.0393701
146
0.71
147
0.8
176
   256
177
   256
178
   256
271
     2
272
     2
283
     0
284
     8
288
     1
289
     0
340
11
371
    -1
372
    -1
  0
DIMSTYLE
105
6E
330
A
100
AcDbSymbolTableRecord
100
AcDbDimStyleTableRecord
  2
AM_ISO$6
 70
     0
  4
"
 41
3.0
 42
1.0
 43
8.0
 44
1.5
 47
0.1
 48
0.1
 73
     0
 74
     0
 78
     8
 79
     2
140
3.5
141
3.0
143
0.0393701
146
0.71
147
0.8
172
     1
176
   256
177
   256
178
   256
271
     2
272
     2
283
     0
284
     8
340
11
371
    -1
372
    -1
  0
DIMSTYLE
105
6F
330
A
100
AcDbSymbolTableRecord
100
AcDbDimStyleTableRecord
  2
AM_ISO$7
 70
     0
  4
"
 41
3.0
 42
1.0
 43
8.0
 44
1.5
 47
0.1
 48
0.1
 73
     0
 74
     0
 77
     1
 78
     8
 79
     2
140
5.0
141
3.0
143
0.0393701
146
0.71
147
0.8
172
     1
176
   256
177
   256
178
   256
271
     2
272
     2
283
     0
284
     8
340
11
371
    -1
372
    -1
  0
DIMSTYLE
105
70
330
A
100
AcDbSymbolTableRecord
100
AcDbDimStyleTableRecord
  2
AM_ISO$SF
 70
     0
  4
"
 41
2.5
 42
1.0
 43
10.0
 44
1.0
 47
0.1
 48
0.1
 73
     0
 74
     0
 75
     1
 76
     1
 77
     1
 78
     8
 79
     2
140
3.5
141
0.0
143
0.0393701
146
0.71
147
1.5
172
     1
176
   256
177
   256
178
     2
271
     2
272
     3
274
     4
283
     0
284
     8
340
11
371
    -1
372
    -1
  0
DIMSTYLE
105
75
330
A
100
AcDbSymbolTableRecord
100
AcDbDimStyleTableRecord
  2
AM_ISO$SH
 70
     0
  4
"
 41
2.5
 42
1.0
 43
10.0
 44
1.0
 47
0.1
 48
0.1
 73
     0
 74
     0
 75
     1
 76
     1
 77
     1
 78
     8
 79
     2
140
3.5
141
0.0
143
0.0393701
144
2.0
146
0.71
147
1.5
172
     1
173
     1
176
   256
177
   256
178
     2
271
     2
272
     3
274
     4
283
     0
284
     8
340
11
343
71
371
    -1
372
    -1
  0
DIMSTYLE
105
AAA
102
{ACAD_REACTORS
330
1FE5
330
2018
330
203E
330
208E
330
20B4
330
215D
330
21EC
330
229B
330
2349
330
23D5
330
2431
330
2457
330
20DA
330
2068
102
}
330
A
100
AcDbSymbolTableRecord
100
AcDbDimStyleTableRecord
  2
AM_ISO$0
 70
     0
  4
"
 41
3.0
 42
1.0
 43
8.0
 44
1.5
 47
0.1
 48
0.1000000001
 73
     0
 74
     0
 77
     1
 78
     8
 79
     2
140
3.0
141
0.0
143
0.0393701
146
0.71
147
1.0
172
     1
176
   256
177
   256
178
   256
271
     2
272
     2
283
     2
284
     8
340
11
371
    -1
372
    -1
  0
DIMSTYLE
105
165F
330
A
100
AcDbSymbolTableRecord
100
AcDbDimStyleTableRecord
  2
AM_ANSI
 70
     0
  4
mm
 41
0.1
 42
0.05
 43
0.5
 44
0.1
 47
0.1
 48
0.1
 78
     7
 79
     2
140
0.12
141
0.0
146
0.71
147
0.06
176
   256
177
   256
178
     2
274
     4
284
     7
340
11
371
    -1
372
    -1
  0
DIMSTYLE
105
1660
330
A
100
AcDbSymbolTableRecord
100
AcDbDimStyleTableRecord
  2
AM_ANSI$3
 70
     0
  4
mm
 41
0.1
 42
0.05
 43
0.5
 44
0.1
 47
0.1
 48
0.1
 78
     7
 79
     2
140
0.12
141
0.0
146
0.71
147
0.06
176
   256
177
   256
178
     2
274
     4
284
     7
288
     1
289
     0
340
11
371
    -1
372
    -1
  0
DIMSTYLE
105
1661
330
A
100
AcDbSymbolTableRecord
100
AcDbDimStyleTableRecord
  2
AM_ANSI$4
 70
     0
  4
mm
 41
0.1
 42
0.05
 43
0.5
 44
0.1
 47
0.1
 48
0.1
 78
     7
 79
     2
140
0.12
141
0.0
146
0.71
147
0.06
176
   256
177
   256
178
     2
274
     4
284
     7
288
     1
289
     0
340
11
371
    -1
372
    -1
  0
DIMSTYLE
105
1662
330
A
100
AcDbSymbolTableRecord
100
AcDbDimStyleTableRecord
  2
AM_ANSI$7
 70
     0
  4
mm
 41
0.1
 42
0.05
 43
0.5
 44
0.1
 47
0.1
 48
0.1
 78
     7
 79
     2
140
0.24
141
0.0
146
0.71
147
0.06
176
   256
177
   256
178
     2
274
     4
284
     7
340
11
371
    -1
372
    -1
  0
DIMSTYLE
105
1663
330
A
100
AcDbSymbolTableRecord
100
AcDbDimStyleTableRecord
  2
AM_ANSI$SF
 70
     0
  4
mm
 41
0.1
 42
0.05
 43
0.5
 44
0.1
 47
0.1
 48
0.1
 75
     1
 76
     1
 78
     7
 79
     2
140
0.12
141
0.0
146
0.71
147
0.06
176
   256
177
   256
178
     2
274
     4
284
     7
340
11
371
    -1
372
    -1
  0
DIMSTYLE
105
1664
330
A
100
AcDbSymbolTableRecord
100
AcDbDimStyleTableRecord
  2
AM_ANSI$SH
 70
     0
  4
mm
 41
0.1
 42
0.05
 43
0.5
 44
0.1
 47
0.1
 48
0.1
 75
     1
 76
     1
 78
     7
 79
     2
140
0.12
141
0.0
146
0.71
147
0.06
173
     1
176
   256
177
   256
178
     2
274
     4
284
     7
340
11
341
71
343
71
371
    -1
372
    -1
  0
DIMSTYLE
105
18DA
330
A
100
AcDbSymbolTableRecord
100
AcDbDimStyleTableRecord
  2
STANDARD
 70
     0
 41
2.5
 42
1.0
 43
2.0
 44
1.0
 73
     0
 74
     0
 77
     3
 78
     8
140
3.0
141
-3.0
146
0.6
147
0.8
172
     1
176
     5
177
     5
178
     5
271
     2
272
     8
284
     8
340
1360
  0
ENDTAB
  0
TABLE
  2
BLOCK_RECORD
  5
1
330
0
100
AcDbSymbolTable
 70
    26
  0
BLOCK_RECORD
  5
1F
102
{ACAD_XDICTIONARY
360
7D
102
}
330
1
100
AcDbSymbolTableRecord
100
AcDbBlockTableRecord
  2
*Model_Space
340
22
  0
BLOCK_RECORD
  5
1B
330
1
100
AcDbSymbolTableRecord
100
AcDbBlockTableRecord
  2
*Paper_Space
340
1E
  0
BLOCK_RECORD
  5
23
330
1
100
AcDbSymbolTableRecord
100
AcDbBlockTableRecord
  2
*Paper_Space0
340
26
  0
BLOCK_RECORD
  5
71
330
1
100
AcDbSymbolTableRecord
100
AcDbBlockTableRecord
  2
GENAXEH
340
0
  0
BLOCK_RECORD
  5
1222
330
1
100
AcDbSymbolTableRecord
100
AcDbBlockTableRecord
  2
*U4
340
0
  0
BLOCK_RECORD
  5
1FE6
330
1
100
AcDbSymbolTableRecord
100
AcDbBlockTableRecord
  2
*D5
340
0
  0
BLOCK_RECORD
  5
2019
330
1
100
AcDbSymbolTableRecord
100
AcDbBlockTableRecord
  2
*D6
340
0
  0
BLOCK_RECORD
  5
203F
330
1
100
AcDbSymbolTableRecord
100
AcDbBlockTableRecord
  2
*D7
340
0
  0
BLOCK_RECORD
  5
2069
330
1
100
AcDbSymbolTableRecord
100
AcDbBlockTableRecord
  2
*D8
340
0
  0
BLOCK_RECORD
  5
208F
330
1
100
AcDbSymbolTableRecord
100
AcDbBlockTableRecord
  2
*D9
340
0
  0
BLOCK_RECORD
  5
20B5
330
1
100
AcDbSymbolTableRecord
100
AcDbBlockTableRecord
  2
*D10
340
0
  0
BLOCK_RECORD
  5
20DB
330
1
100
AcDbSymbolTableRecord
100
AcDbBlockTableRecord
  2
*D11
340
0
  0
BLOCK_RECORD
  5
215E
330
1
100
AcDbSymbolTableRecord
100
AcDbBlockTableRecord
  2
*D12
340
0
  0
BLOCK_RECORD
  5
21ED
330
1
100
AcDbSymbolTableRecord
100
AcDbBlockTableRecord
  2
*D13
340
0
  0
BLOCK_RECORD
  5
229C
330
1
100
AcDbSymbolTableRecord
100
AcDbBlockTableRecord
  2
*D14
340
0
  0
BLOCK_RECORD
  5
234A
330
1
100
AcDbSymbolTableRecord
100
AcDbBlockTableRecord
  2
*D15
340
0
  0
BLOCK_RECORD
  5
23D6
330
1
100
AcDbSymbolTableRecord
100
AcDbBlockTableRecord
  2
*D16
340
0
  0
BLOCK_RECORD
  5
2432
330
1
100
AcDbSymbolTableRecord
100
AcDbBlockTableRecord
  2
*D17
340
0
  0
BLOCK_RECORD
  5
2458
330
1
100
AcDbSymbolTableRecord
100
AcDbBlockTableRecord
  2
*D18
340
0
  0
BLOCK_RECORD
  5
2954
330
1
100
AcDbSymbolTableRecord
100
AcDbBlockTableRecord
  2
*U20
340
0
  0
BLOCK_RECORD
  5
295C
330
1
100
AcDbSymbolTableRecord
100
AcDbBlockTableRecord
  2
*U21
340
0
  0
BLOCK_RECORD
  5
2964
330
1
100
AcDbSymbolTableRecord
100
AcDbBlockTableRecord
  2
*U22
340
0
  0
BLOCK_RECORD
  5
296C
330
1
100
AcDbSymbolTableRecord
100
AcDbBlockTableRecord
  2
*U23
340
0
  0
BLOCK_RECORD
  5
2974
330
1
100
AcDbSymbolTableRecord
100
AcDbBlockTableRecord
  2
*S24
340
0
  0
BLOCK_RECORD
  5
297C
330
1
100
AcDbSymbolTableRecord
100
AcDbBlockTableRecord
  2
*S25
340
0
  0
ENDTAB
  0
ENDSEC
  0
SECTION
  2
BLOCKS
  0
BLOCK
  5
20
330
1F
100
AcDbEntity
  8
0
100
AcDbBlockBegin
  2
*Model_Space
 70
     0
 10
0.0
 20
0.0
 30
0.0
  3
*Model_Space
  1

  0
ENDBLK
  5
21
330
1F
100
AcDbEntity
  8
0
100
AcDbBlockEnd
  0
BLOCK
  5
1C
330
1B
100
AcDbEntity
 67
     1
  8
0
100
AcDbBlockBegin
  2
*Paper_Space
 70
     0
 10
0.0
 20
0.0
 30
0.0
  3
*Paper_Space
  1

  0
ENDBLK
  5
1D
330
1B
100
AcDbEntity
 67
     1
  8
0
100
AcDbBlockEnd
  0
BLOCK
  5
24
330
23
100
AcDbEntity
  8
0
100
AcDbBlockBegin
  2
*Paper_Space0
 70
     0
 10
0.0
 20
0.0
 30
0.0
  3
*Paper_Space0
  1

  0
ENDBLK
  5
25
330
23
100
AcDbEntity
  8
0
100
AcDbBlockEnd
  0
BLOCK
  5
73
330
71
100
AcDbEntity
  8
0
100
AcDbBlockBegin
  2
GENAXEH
 70
     0
 10
0.0
 20
0.0
 30
0.0
  3
GENAXEH
  1

  0
LINE
  5
72
330
71
100
AcDbEntity
  8
0
100
AcDbLine
 10
-1.0
 20
0.0
 30
0.0
 11
1.0
 21
0.0
 31
0.0
  0
ENDBLK
  5
74
330
71
100
AcDbEntity
  8
0
100
AcDbBlockEnd
  0
BLOCK
  5
1223
330
1222
100
AcDbEntity
  8
0
100
AcDbBlockBegin
  2
*U4
 70
     1
 10
0.0
 20
0.0
 30
0.0
  3
*U4
  1

  0
ENDBLK
  5
1224
330
1222
100
AcDbEntity
  8
0
100
AcDbBlockEnd
  0
BLOCK
  5
1FF0
330
1FE6
100
AcDbEntity
  8
0
100
AcDbBlockBegin
  2
*D5
 70
     1
 10
0.0
 20
0.0
 30
0.0
  3
*D5
  1

  0
LINE
  5
25F2
330
1FE6
100
AcDbEntity
  8
AM_5
100
AcDbLine
 10
829.0424564175717
 20
133.365338542204
 30
0.0
 11
840.0424564175718
 21
133.3653385422039
 31
0.0
  0
LINE
  5
25F3
330
1FE6
100
AcDbEntity
  8
AM_5
100
AcDbLine
 10
811.1757273501275
 20
146.365338542204
 30
0.0
 11
840.0424564175718
 21
146.365338542204
 31
0.0
  0
LINE
  5
25F4
330
1FE6
100
AcDbEntity
  8
AM_5
100
AcDbLine
 10
838.5424564175718
 20
136.3653385422039
 30
0.0
 11
838.5424564175718
 21
143.365338542204
 31
0.0
  0
SOLID
  5
25F5
330
1FE6
100
AcDbEntity
  8
AM_5
100
AcDbTrace
 10
838.0424564175719
 20
136.3653385422039
 30
0.0
 11
839.0424564175718
 21
136.3653385422039
 31
0.0
 12
838.5424564175718
 22
133.3653385422039
 32
0.0
 13
838.5424564175718
 23
133.3653385422039
 33
0.0
  0
SOLID
  5
25F6
330
1FE6
100
AcDbEntity
  8
AM_5
100
AcDbTrace
 10
838.0424564175719
 20
143.365338542204
 30
0.0
 11
839.0424564175718
 21
143.365338542204
 31
0.0
 12
838.5424564175718
 22
146.365338542204
 32
0.0
 13
838.5424564175718
 23
146.365338542204
 33
0.0
  0
MTEXT
  5
25F7
330
1FE6
100
AcDbEntity
  8
AM_5
100
AcDbMText
 10
836.0424564175719
 20
139.8653385422041
 30
0.0
 40
3.0
 41
0.0
 71
     5
 72
     1
  1
\A2;13
 11
0.0000000000000001
 21
1.0
 31
0.0
 73
     1
 44
1.0
1001
ACAD
1000
MTEXTBEGIN
1070
    73
1070
     1
1070
    44
1040
1.0
1070
    74
1070
     0
1000
MTEXTEND
  0
POINT
  5
25F8
330
1FE6
100
AcDbEntity
  8
Defpoints
 62
     0
100
AcDbPoint
 10
828.0424564175717
 20
133.365338542204
 30
0.0
  0
POINT
  5
25F9
330
1FE6
100
AcDbEntity
  8
Defpoints
 62
     0
100
AcDbPoint
 10
810.1757273501275
 20
146.365338542204
 30
0.0
  0
POINT
  5
25FA
330
1FE6
100
AcDbEntity
  8
Defpoints
 62
     0
100
AcDbPoint
 10
838.5424564175718
 20
146.365338542204
 30
0.0
  0
ENDBLK
  5
1FF1
330
1FE6
100
AcDbEntity
  8
0
100
AcDbBlockEnd
  0
BLOCK
  5
2023
330
2019
100
AcDbEntity
  8
0
100
AcDbBlockBegin
  2
*D6
 70
     1
 10
0.0
 20
0.0
 30
0.0
  3
*D6
  1

  0
LINE
  5
25FB
330
2019
100
AcDbEntity
  8
AM_5
100
AcDbLine
 10
829.0424564175717
 20
133.365338542204
 30
0.0
 11
848.0424564175718
 21
133.3653385422039
 31
0.0
  0
LINE
  5
25FC
330
2019
100
AcDbEntity
  8
AM_5
100
AcDbLine
 10
829.0424564175717
 20
159.365338542204
 30
0.0
 11
848.0424564175718
 21
159.365338542204
 31
0.0
  0
LINE
  5
25FD
330
2019
100
AcDbEntity
  8
AM_5
100
AcDbLine
 10
846.5424564175718
 20
136.3653385422039
 30
0.0
 11
846.5424564175718
 21
156.365338542204
 31
0.0
  0
SOLID
  5
25FE
330
2019
100
AcDbEntity
  8
AM_5
100
AcDbTrace
 10
846.0424564175719
 20
136.3653385422039
 30
0.0
 11
847.0424564175718
 21
136.3653385422039
 31
0.0
 12
846.5424564175718
 22
133.3653385422039
 32
0.0
 13
846.5424564175718
 23
133.3653385422039
 33
0.0
  0
SOLID
  5
25FF
330
2019
100
AcDbEntity
  8
AM_5
100
AcDbTrace
 10
846.0424564175719
 20
156.365338542204
 30
0.0
 11
847.0424564175718
 21
156.365338542204
 31
0.0
 12
846.5424564175718
 22
159.365338542204
 32
0.0
 13
846.5424564175718
 23
159.365338542204
 33
0.0
  0
MTEXT
  5
2600
330
2019
100
AcDbEntity
  8
AM_5
100
AcDbMText
 10
844.0421611419813
 20
146.3653385422041
 30
0.0
 40
3.0
 41
0.0
 71
     5
 72
     1
  1
\A2;26
 11
0.0000000000000001
 21
1.0
 31
0.0
 73
     1
 44
1.0
1001
ACAD
1000
MTEXTBEGIN
1070
    73
1070
     1
1070
    44
1040
1.0
1070
    74
1070
     0
1000
MTEXTEND
  0
POINT
  5
2601
330
2019
100
AcDbEntity
  8
Defpoints
 62
     0
100
AcDbPoint
 10
828.0424564175715
 20
133.365338542204
 30
0.0
  0
POINT
  5
2602
330
2019
100
AcDbEntity
  8
Defpoints
 62
     0
100
AcDbPoint
 10
828.0424564175715
 20
159.365338542204
 30
0.0
  0
POINT
  5
2603
330
2019
100
AcDbEntity
  8
Defpoints
 62
     0
100
AcDbPoint
 10
846.5424564175718
 20
159.365338542204
 30
0.0
  0
ENDBLK
  5
2024
330
2019
100
AcDbEntity
  8
0
100
AcDbBlockEnd
  0
BLOCK
  5
204B
330
203F
100
AcDbEntity
  8
0
100
AcDbBlockBegin
  2
*D7
 70
     1
 10
0.0
 20
0.0
 30
0.0
  3
*D7
  1

  0
LINE
  5
2604
330
203F
100
AcDbEntity
  8
AM_5
100
AcDbLine
 10
815.8218225735057
 20
130.365338542204
 30
0.0
 11
840.0424564175718
 21
130.3653385422039
 31
0.0
  0
LINE
  5
2605
330
203F
100
AcDbEntity
  8
AM_5
100
AcDbLine
 10
829.0424564175717
 20
133.365338542204
 30
0.0
 11
840.0424564175718
 21
133.365338542204
 31
0.0
  0
LINE
  5
2606
330
203F
100
AcDbEntity
  8
AM_5
100
AcDbLine
 10
838.5424564175718
 20
136.365338542204
 30
0.0
 11
838.5424564175718
 21
139.3653385422039
 31
0.0
  0
LINE
  5
2607
330
203F
100
AcDbEntity
  8
AM_5
100
AcDbLine
 10
838.5424564175718
 20
127.3653385422039
 30
0.0
 11
838.5424564175718
 21
121.041074473492
 31
0.0
  0
LINE
  5
2608
330
203F
100
AcDbEntity
  8
AM_5
100
AcDbLine
 10
838.5424564175718
 20
133.365338542204
 30
0.0
 11
838.5424564175718
 21
130.3653385422039
 31
0.0
  0
SOLID
  5
2609
330
203F
100
AcDbEntity
  8
AM_5
100
AcDbTrace
 10
838.0424564175719
 20
136.365338542204
 30
0.0
 11
839.0424564175718
 21
136.365338542204
 31
0.0
 12
838.5424564175718
 22
133.365338542204
 32
0.0
 13
838.5424564175718
 23
133.365338542204
 33
0.0
  0
SOLID
  5
260A
330
203F
100
AcDbEntity
  8
AM_5
100
AcDbTrace
 10
838.0424564175719
 20
127.3653385422039
 30
0.0
 11
839.0424564175718
 21
127.3653385422039
 31
0.0
 12
838.5424564175718
 22
130.3653385422039
 32
0.0
 13
838.5424564175718
 23
130.3653385422039
 33
0.0
  0
MTEXT
  5
260B
330
203F
100
AcDbEntity
  8
AM_5
100
AcDbMText
 10
836.0424564175719
 20
122.7032065078481
 30
0.0
 40
3.0
 41
0.0
 71
     5
 72
     1
  1
\A2;3
 11
0.0000000000000001
 21
1.0
 31
0.0
 73
     1
 44
1.0
1001
ACAD
1000
MTEXTBEGIN
1070
    73
1070
     1
1070
    44
1040
1.0
1070
    74
1070
     0
1000
MTEXTEND
  0
POINT
  5
260C
330
203F
100
AcDbEntity
  8
Defpoints
 62
     0
100
AcDbPoint
 10
814.8218225735057
 20
130.365338542204
 30
0.0
  0
POINT
  5
260D
330
203F
100
AcDbEntity
  8
Defpoints
 62
     0
100
AcDbPoint
 10
828.0424564175715
 20
133.365338542204
 30
0.0
  0
POINT
  5
260E
330
203F
100
AcDbEntity
  8
Defpoints
 62
     0
100
AcDbPoint
 10
838.5424564175718
 20
133.365338542204
 30
0.0
  0
ENDBLK
  5
204C
330
203F
100
AcDbEntity
  8
0
100
AcDbBlockEnd
  0
BLOCK
  5
2073
330
2069
100
AcDbEntity
  8
0
100
AcDbBlockBegin
  2
*D8
 70
     1
 10
0.0
 20
0.0
 30
0.0
  3
*D8
  1

  0
LINE
  5
28E7
330
2069
100
AcDbEntity
  8
AM_5
100
AcDbLine
 10
815.8218225735057
 20
130.365338542204
 30
0.0
 11
864.0424564175722
 21
130.3653385422039
 31
0.0
  0
LINE
  5
28E8
330
2069
100
AcDbEntity
  8
AM_5
100
AcDbLine
 10
815.2924564175716
 20
266.3653385422039
 30
0.0
 11
864.0424564175724
 21
266.3653385422039
 31
0.0
  0
LINE
  5
28E9
330
2069
100
AcDbEntity
  8
AM_5
100
AcDbLine
 10
862.5424564175721
 20
133.3653385422039
 30
0.0
 11
862.5424564175723
 21
263.3653385422039
 31
0.0
  0
SOLID
  5
28EA
330
2069
100
AcDbEntity
  8
AM_5
100
AcDbTrace
 10
862.0424564175722
 20
133.3653385422039
 30
0.0
 11
863.0424564175722
 21
133.3653385422039
 31
0.0
 12
862.5424564175721
 22
130.3653385422039
 32
0.0
 13
862.5424564175721
 23
130.3653385422039
 33
0.0
  0
SOLID
  5
28EB
330
2069
100
AcDbEntity
  8
AM_5
100
AcDbTrace
 10
862.0424564175722
 20
263.3653385422039
 30
0.0
 11
863.0424564175724
 21
263.3653385422039
 31
0.0
 12
862.5424564175723
 22
266.3653385422039
 32
0.0
 13
862.5424564175723
 23
266.3653385422039
 33
0.0
  0
MTEXT
  5
28EC
330
2069
100
AcDbEntity
  8
AM_5
100
AcDbMText
 10
859.6130908875109
 20
198.365338542204
 30
0.0
 40
3.0
 41
0.0
 71
     5
 72
     1
  1
\A2;86+length
 11
0.0000000000000001
 21
1.0
 31
0.0
 73
     1
 44
1.0
1001
ACAD
1000
MTEXTBEGIN
1070
    73
1070
     1
1070
    44
1040
1.0
1070
    74
1070
     0
1000
MTEXTEND
  0
POINT
  5
28ED
330
2069
100
AcDbEntity
  8
Defpoints
 62
     0
100
AcDbPoint
 10
814.8218225735057
 20
130.365338542204
 30
0.0
  0
POINT
  5
28EE
330
2069
100
AcDbEntity
  8
Defpoints
 62
     0
100
AcDbPoint
 10
814.2924564175716
 20
266.3653385422039
 30
0.0
  0
POINT
  5
28EF
330
2069
100
AcDbEntity
  8
Defpoints
 62
     0
100
AcDbPoint
 10
862.5424564175723
 20
266.3653385422039
 30
0.0
  0
ENDBLK
  5
2074
330
2069
100
AcDbEntity
  8
0
100
AcDbBlockEnd
  0
BLOCK
  5
2099
330
208F
100
AcDbEntity
  8
0
100
AcDbBlockBegin
  2
*D9
 70
     1
 10
0.0
 20
0.0
 30
0.0
  3
*D9
  1

  0
LINE
  5
2618
330
208F
100
AcDbEntity
  8
AM_5
100
AcDbLine
 10
829.0424564175717
 20
245.365338542204
 30
0.0
 11
848.0424564175716
 21
245.365338542204
 31
0.0
  0
LINE
  5
2619
330
208F
100
AcDbEntity
  8
AM_5
100
AcDbLine
 10
815.7924564175717
 20
256.3653385422039
 30
0.0
 11
848.0424564175716
 21
256.3653385422039
 31
0.0
  0
LINE
  5
261A
330
208F
100
AcDbEntity
  8
AM_5
100
AcDbLine
 10
846.5424564175716
 20
248.365338542204
 30
0.0
 11
846.5424564175716
 21
253.3653385422039
 31
0.0
  0
SOLID
  5
261B
330
208F
100
AcDbEntity
  8
AM_5
100
AcDbTrace
 10
846.0424564175717
 20
248.365338542204
 30
0.0
 11
847.0424564175717
 21
248.365338542204
 31
0.0
 12
846.5424564175716
 22
245.365338542204
 32
0.0
 13
846.5424564175716
 23
245.365338542204
 33
0.0
  0
SOLID
  5
261C
330
208F
100
AcDbEntity
  8
AM_5
100
AcDbTrace
 10
846.0424564175717
 20
253.3653385422039
 30
0.0
 11
847.0424564175717
 21
253.3653385422039
 31
0.0
 12
846.5424564175718
 22
256.3653385422039
 32
0.0
 13
846.5424564175718
 23
256.3653385422039
 33
0.0
  0
MTEXT
  5
261D
330
208F
100
AcDbEntity
  8
AM_5
100
AcDbMText
 10
844.0424564175716
 20
250.8653385422041
 30
0.0
 40
3.0
 41
0.0
 71
     5
 72
     1
  1
\A2;11
 11
0.0000000000000001
 21
1.0
 31
0.0
 73
     1
 44
1.0
1001
ACAD
1000
MTEXTBEGIN
1070
    73
1070
     1
1070
    44
1040
1.0
1070
    74
1070
     0
1000
MTEXTEND
  0
POINT
  5
261E
330
208F
100
AcDbEntity
  8
Defpoints
 62
     0
100
AcDbPoint
 10
828.0424564175715
 20
245.365338542204
 30
0.0
  0
POINT
  5
261F
330
208F
100
AcDbEntity
  8
Defpoints
 62
     0
100
AcDbPoint
 10
814.7924564175717
 20
256.3653385422039
 30
0.0
  0
POINT
  5
2620
330
208F
100
AcDbEntity
  8
Defpoints
 62
     0
100
AcDbPoint
 10
846.5424564175718
 20
256.3653385422039
 30
0.0
  0
ENDBLK
  5
209A
330
208F
100
AcDbEntity
  8
0
100
AcDbBlockEnd
  0
BLOCK
  5
20BF
330
20B5
100
AcDbEntity
  8
0
100
AcDbBlockBegin
  2
*D10
 70
     1
 10
0.0
 20
0.0
 30
0.0
  3
*D10
  1

  0
LINE
  5
2621
330
20B5
100
AcDbEntity
  8
AM_5
100
AcDbLine
 10
829.0424564175717
 20
245.365338542204
 30
0.0
 11
856.0424564175718
 21
245.365338542204
 31
0.0
  0
LINE
  5
2622
330
20B5
100
AcDbEntity
  8
AM_5
100
AcDbLine
 10
815.2924564175716
 20
266.3653385422039
 30
0.0
 11
856.042456417572
 21
266.3653385422039
 31
0.0
  0
LINE
  5
2623
330
20B5
100
AcDbEntity
  8
AM_5
100
AcDbLine
 10
854.5424564175718
 20
248.365338542204
 30
0.0
 11
854.542456417572
 21
263.3653385422039
 31
0.0
  0
SOLID
  5
2624
330
20B5
100
AcDbEntity
  8
AM_5
100
AcDbTrace
 10
854.0424564175719
 20
248.365338542204
 30
0.0
 11
855.0424564175719
 21
248.365338542204
 31
0.0
 12
854.5424564175718
 22
245.365338542204
 32
0.0
 13
854.5424564175718
 23
245.365338542204
 33
0.0
  0
SOLID
  5
2625
330
20B5
100
AcDbEntity
  8
AM_5
100
AcDbTrace
 10
854.0424564175721
 20
263.3653385422039
 30
0.0
 11
855.042456417572
 21
263.3653385422039
 31
0.0
 12
854.542456417572
 22
266.3653385422039
 32
0.0
 13
854.542456417572
 23
266.3653385422039
 33
0.0
  0
MTEXT
  5
2626
330
20B5
100
AcDbEntity
  8
AM_5
100
AcDbMText
 10
852.0421611419813
 20
255.8653385422041
 30
0.0
 40
3.0
 41
0.0
 71
     5
 72
     1
  1
\A2;21
 11
0.0000000000000001
 21
1.0
 31
0.0
 73
     1
 44
1.0
1001
ACAD
1000
MTEXTBEGIN
1070
    73
1070
     1
1070
    44
1040
1.0
1070
    74
1070
     0
1000
MTEXTEND
  0
POINT
  5
2627
330
20B5
100
AcDbEntity
  8
Defpoints
 62
     0
100
AcDbPoint
 10
828.0424564175715
 20
245.365338542204
 30
0.0
  0
POINT
  5
2628
330
20B5
100
AcDbEntity
  8
Defpoints
 62
     0
100
AcDbPoint
 10
814.2924564175716
 20
266.3653385422039
 30
0.0
  0
POINT
  5
2629
330
20B5
100
AcDbEntity
  8
Defpoints
 62
     0
100
AcDbPoint
 10
854.542456417572
 20
266.3653385422039
 30
0.0
  0
ENDBLK
  5
20C0
330
20B5
100
AcDbEntity
  8
0
100
AcDbBlockEnd
  0
BLOCK
  5
20E5
330
20DB
100
AcDbEntity
  8
0
100
AcDbBlockBegin
  2
*D11
 70
     1
 10
0.0
 20
0.0
 30
0.0
  3
*D11
  1

  0
LINE
  5
28DE
330
20DB
100
AcDbEntity
  8
AM_5
100
AcDbLine
 10
829.0424564175717
 20
133.365338542204
 30
0.0
 11
856.042456417572
 21
133.365338542204
 31
0.0
  0
LINE
  5
28DF
330
20DB
100
AcDbEntity
  8
AM_5
100
AcDbLine
 10
829.0424564175717
 20
245.365338542204
 30
0.0
 11
856.042456417572
 21
245.365338542204
 31
0.0
  0
LINE
  5
28E0
330
20DB
100
AcDbEntity
  8
AM_5
100
AcDbLine
 10
854.542456417572
 20
136.365338542204
 30
0.0
 11
854.542456417572
 21
242.365338542204
 31
0.0
  0
SOLID
  5
28E1
330
20DB
100
AcDbEntity
  8
AM_5
100
AcDbTrace
 10
854.0424564175721
 20
136.365338542204
 30
0.0
 11
855.042456417572
 21
136.365338542204
 31
0.0
 12
854.542456417572
 22
133.365338542204
 32
0.0
 13
854.542456417572
 23
133.365338542204
 33
0.0
  0
SOLID
  5
28E2
330
20DB
100
AcDbEntity
  8
AM_5
100
AcDbTrace
 10
854.0424564175721
 20
242.365338542204
 30
0.0
 11
855.042456417572
 21
242.365338542204
 31
0.0
 12
854.542456417572
 22
245.365338542204
 32
0.0
 13
854.542456417572
 23
245.365338542204
 33
0.0
  0
MTEXT
  5
28E3
330
20DB
100
AcDbEntity
  8
AM_5
100
AcDbMText
 10
851.61279561192
 20
189.3653385422041
 30
0.0
 40
3.0
 41
0.0
 71
     5
 72
     1
  1
\A2;62+length
 11
0.0000000000000001
 21
1.0
 31
0.0
 73
     1
 44
1.0
1001
ACAD
1000
MTEXTBEGIN
1070
    73
1070
     1
1070
    44
1040
1.0
1070
    74
1070
     0
1000
MTEXTEND
  0
POINT
  5
28E4
330
20DB
100
AcDbEntity
  8
Defpoints
 62
     0
100
AcDbPoint
 10
828.0424564175715
 20
133.365338542204
 30
0.0
  0
POINT
  5
28E5
330
20DB
100
AcDbEntity
  8
Defpoints
 62
     0
100
AcDbPoint
 10
828.0424564175715
 20
245.365338542204
 30
0.0
  0
POINT
  5
28E6
330
20DB
100
AcDbEntity
  8
Defpoints
 62
     0
100
AcDbPoint
 10
854.542456417572
 20
245.365338542204
 30
0.0
  0
ENDBLK
  5
20E6
330
20DB
100
AcDbEntity
  8
0
100
AcDbBlockEnd
  0
BLOCK
  5
2168
330
215E
100
AcDbEntity
  8
0
100
AcDbBlockBegin
  2
*D12
 70
     1
 10
0.0
 20
0.0
 30
0.0
  3
*D12
  1

  0
LINE
  5
2633
330
215E
100
AcDbEntity
  8
AM_5
100
AcDbLine
 10
829.0424564175717
 20
219.3653385422039
 30
0.0
 11
848.0424564175716
 21
219.3653385422038
 31
0.0
  0
LINE
  5
2634
330
215E
100
AcDbEntity
  8
AM_5
100
AcDbLine
 10
829.0424564175717
 20
245.365338542204
 30
0.0
 11
848.0424564175716
 21
245.365338542204
 31
0.0
  0
LINE
  5
2635
330
215E
100
AcDbEntity
  8
AM_5
100
AcDbLine
 10
846.5424564175718
 20
222.3653385422038
 30
0.0
 11
846.5424564175718
 21
242.365338542204
 31
0.0
  0
SOLID
  5
2636
330
215E
100
AcDbEntity
  8
AM_5
100
AcDbTrace
 10
846.0424564175717
 20
222.3653385422038
 30
0.0
 11
847.0424564175717
 21
222.3653385422038
 31
0.0
 12
846.5424564175718
 22
219.3653385422038
 32
0.0
 13
846.5424564175718
 23
219.3653385422038
 33
0.0
  0
SOLID
  5
2637
330
215E
100
AcDbEntity
  8
AM_5
100
AcDbTrace
 10
846.0424564175717
 20
242.365338542204
 30
0.0
 11
847.0424564175717
 21
242.365338542204
 31
0.0
 12
846.5424564175718
 22
245.365338542204
 32
0.0
 13
846.5424564175718
 23
245.365338542204
 33
0.0
  0
MTEXT
  5
2638
330
215E
100
AcDbEntity
  8
AM_5
100
AcDbMText
 10
844.0421611419811
 20
232.3653385422041
 30
0.0
 40
3.0
 41
0.0
 71
     5
 72
     1
  1
\A2;26
 11
0.0000000000000001
 21
1.0
 31
0.0
 73
     1
 44
1.0
1001
ACAD
1000
MTEXTBEGIN
1070
    73
1070
     1
1070
    44
1040
1.0
1070
    74
1070
     0
1000
MTEXTEND
  0
POINT
  5
2639
330
215E
100
AcDbEntity
  8
Defpoints
 62
     0
100
AcDbPoint
 10
828.0424564175715
 20
219.3653385422039
 30
0.0
  0
POINT
  5
263A
330
215E
100
AcDbEntity
  8
Defpoints
 62
     0
100
AcDbPoint
 10
828.0424564175715
 20
245.365338542204
 30
0.0
  0
POINT
  5
263B
330
215E
100
AcDbEntity
  8
Defpoints
 62
     0
100
AcDbPoint
 10
846.5424564175718
 20
245.365338542204
 30
0.0
  0
ENDBLK
  5
2169
330
215E
100
AcDbEntity
  8
0
100
AcDbBlockEnd
  0
BLOCK
  5
21F7
330
21ED
100
AcDbEntity
  8
0
100
AcDbBlockBegin
  2
*D13
 70
     1
 10
0.0
 20
0.0
 30
0.0
  3
*D13
  1

  0
LINE
  5
263C
330
21ED
100
AcDbEntity
  8
AM_5
100
AcDbLine
 10
799.5424564175717
 20
297.8929927297534
 30
0.0
 11
799.5424564175717
 21
285.1656025525303
 31
0.0
  0
LINE
  5
263D
330
21ED
100
AcDbEntity
  8
AM_5
100
AcDbLine
 10
750.5424564175718
 20
328.4066913598904
 30
0.0
 11
750.5424564175718
 21
285.1656025525303
 31
0.0
  0
LINE
  5
263E
330
21ED
100
AcDbEntity
  8
AM_5
100
AcDbLine
 10
796.5424564175718
 20
286.6656025525303
 30
0.0
 11
753.5424564175717
 21
286.6656025525303
 31
0.0
  0
SOLID
  5
263F
330
21ED
100
AcDbEntity
  8
AM_5
100
AcDbTrace
 10
796.5424564175718
 20
287.1656025525303
 30
0.0
 11
796.5424564175718
 21
286.1656025525304
 31
0.0
 12
799.5424564175717
 22
286.6656025525303
 32
0.0
 13
799.5424564175717
 23
286.6656025525303
 33
0.0
  0
SOLID
  5
2640
330
21ED
100
AcDbEntity
  8
AM_5
100
AcDbTrace
 10
753.5424564175717
 20
287.1656025525303
 30
0.0
 11
753.5424564175717
 21
286.1656025525304
 31
0.0
 12
750.5424564175718
 22
286.6656025525303
 32
0.0
 13
750.5424564175718
 23
286.6656025525303
 33
0.0
  0
MTEXT
  5
2641
330
21ED
100
AcDbEntity
  8
AM_5
100
AcDbMText
 10
775.0424564175717
 20
289.1656025525303
 30
0.0
 40
3.0
 41
0.0
 71
     5
 72
     1
  1
\A2;49
 73
     1
 44
1.0
1001
ACAD
1000
MTEXTBEGIN
1070
    73
1070
     1
1070
    44
1040
1.0
1070
    74
1070
     0
1000
MTEXTEND
  0
POINT
  5
2642
330
21ED
100
AcDbEntity
  8
Defpoints
 62
     0
100
AcDbPoint
 10
799.5424564175717
 20
298.8929927297533
 30
0.0
  0
POINT
  5
2643
330
21ED
100
AcDbEntity
  8
Defpoints
 62
     0
100
AcDbPoint
 10
750.5424564175718
 20
329.4066913598904
 30
0.0
  0
POINT
  5
2644
330
21ED
100
AcDbEntity
  8
Defpoints
 62
     0
100
AcDbPoint
 10
750.5424564175718
 20
286.6656025525303
 30
0.0
  0
ENDBLK
  5
21F8
330
21ED
100
AcDbEntity
  8
0
100
AcDbBlockEnd
  0
BLOCK
  5
22A6
330
229C
100
AcDbEntity
  8
0
100
AcDbBlockBegin
  2
*D14
 70
     1
 10
0.0
 20
0.0
 30
0.0
  3
*D14
  1

  0
LINE
  5
2645
330
229C
100
AcDbEntity
  8
AM_5
100
AcDbLine
 10
783.5424564175718
 20
129.865338542204
 30
0.0
 11
783.5424564175718
 21
118.865338542204
 31
0.0
  0
LINE
  5
2646
330
229C
100
AcDbEntity
  8
AM_5
100
AcDbLine
 10
815.5424564175715
 20
129.865338542204
 30
0.0
 11
815.5424564175715
 21
118.865338542204
 31
0.0
  0
LINE
  5
2647
330
229C
100
AcDbEntity
  8
AM_5
100
AcDbLine
 10
786.5424564175717
 20
120.3653385422041
 30
0.0
 11
812.5424564175716
 21
120.3653385422041
 31
0.0
  0
SOLID
  5
2648
330
229C
100
AcDbEntity
  8
AM_5
100
AcDbTrace
 10
786.5424564175717
 20
120.865338542204
 30
0.0
 11
786.5424564175717
 21
119.865338542204
 31
0.0
 12
783.5424564175718
 22
120.3653385422041
 32
0.0
 13
783.5424564175718
 23
120.3653385422041
 33
0.0
  0
SOLID
  5
2649
330
229C
100
AcDbEntity
  8
AM_5
100
AcDbTrace
 10
812.5424564175716
 20
120.865338542204
 30
0.0
 11
812.5424564175716
 21
119.865338542204
 31
0.0
 12
815.5424564175715
 22
120.3653385422041
 32
0.0
 13
815.5424564175715
 23
120.3653385422041
 33
0.0
  0
MTEXT
  5
264A
330
229C
100
AcDbEntity
  8
AM_5
100
AcDbMText
 10
799.5424564175716
 20
122.8656338177946
 30
0.0
 40
3.0
 41
0.0
 71
     5
 72
     1
  1
\A2;%%c32
 73
     1
 44
1.0
1001
ACAD
1000
MTEXTBEGIN
1070
    73
1070
     1
1070
    44
1040
1.0
1070
    74
1070
     0
1000
MTEXTEND
  0
POINT
  5
264B
330
229C
100
AcDbEntity
  8
Defpoints
 62
     0
100
AcDbPoint
 10
783.5424564175718
 20
130.865338542204
 30
0.0
  0
POINT
  5
264C
330
229C
100
AcDbEntity
  8
Defpoints
 62
     0
100
AcDbPoint
 10
815.5424564175715
 20
130.865338542204
 30
0.0
  0
POINT
  5
264D
330
229C
100
AcDbEntity
  8
Defpoints
 62
     0
100
AcDbPoint
 10
815.5424564175715
 20
120.3653385422041
 30
0.0
  0
ENDBLK
  5
22A7
330
229C
100
AcDbEntity
  8
0
100
AcDbBlockEnd
  0
BLOCK
  5
2354
330
234A
100
AcDbEntity
  8
0
100
AcDbBlockBegin
  2
*D15
 70
     1
 10
0.0
 20
0.0
 30
0.0
  3
*D15
  1

  0
LINE
  5
264E
330
234A
100
AcDbEntity
  8
AM_5
100
AcDbLine
 10
829.0424564175717
 20
245.365338542204
 30
0.0
 11
840.0424564175718
 21
245.365338542204
 31
0.0
  0
LINE
  5
264F
330
234A
100
AcDbEntity
  8
AM_5
100
AcDbLine
 10
811.3186745335124
 20
232.3653385422038
 30
0.0
 11
840.0424564175718
 21
232.3653385422038
 31
0.0
  0
LINE
  5
2650
330
234A
100
AcDbEntity
  8
AM_5
100
AcDbLine
 10
838.5424564175718
 20
242.3653385422039
 30
0.0
 11
838.5424564175718
 21
235.3653385422038
 31
0.0
  0
SOLID
  5
2651
330
234A
100
AcDbEntity
  8
AM_5
100
AcDbTrace
 10
838.0424564175717
 20
242.3653385422039
 30
0.0
 11
839.0424564175717
 21
242.3653385422039
 31
0.0
 12
838.5424564175718
 22
245.365338542204
 32
0.0
 13
838.5424564175718
 23
245.365338542204
 33
0.0
  0
SOLID
  5
2652
330
234A
100
AcDbEntity
  8
AM_5
100
AcDbTrace
 10
838.0424564175717
 20
235.3653385422038
 30
0.0
 11
839.0424564175717
 21
235.3653385422038
 31
0.0
 12
838.5424564175718
 22
232.3653385422038
 32
0.0
 13
838.5424564175718
 23
232.3653385422038
 33
0.0
  0
MTEXT
  5
2653
330
234A
100
AcDbEntity
  8
AM_5
100
AcDbMText
 10
836.0424564175717
 20
238.865338542204
 30
0.0
 40
3.0
 41
0.0
 71
     5
 72
     1
  1
\A2;13
 11
0.0000000000000001
 21
1.0
 31
0.0
 73
     1
 44
1.0
1001
ACAD
1000
MTEXTBEGIN
1070
    73
1070
     1
1070
    44
1040
1.0
1070
    74
1070
     0
1000
MTEXTEND
  0
POINT
  5
2654
330
234A
100
AcDbEntity
  8
Defpoints
 62
     0
100
AcDbPoint
 10
828.0424564175715
 20
245.365338542204
 30
0.0
  0
POINT
  5
2655
330
234A
100
AcDbEntity
  8
Defpoints
 62
     0
100
AcDbPoint
 10
810.3186745335124
 20
232.3653385422038
 30
0.0
  0
POINT
  5
2656
330
234A
100
AcDbEntity
  8
Defpoints
 62
     0
100
AcDbPoint
 10
838.5424564175718
 20
232.3653385422038
 30
0.0
  0
ENDBLK
  5
2355
330
234A
100
AcDbEntity
  8
0
100
AcDbBlockEnd
  0
BLOCK
  5
23E0
330
23D6
100
AcDbEntity
  8
0
100
AcDbBlockBegin
  2
*D16
 70
     1
 10
0.0
 20
0.0
 30
0.0
  3
*D16
  1

  0
LINE
  5
2657
330
23D6
100
AcDbEntity
  8
AM_5
100
AcDbLine
 10
810.7435592991233
 20
341.4066913598901
 30
0.0
 11
840.0424564175718
 21
341.4066913598901
 31
0.0
  0
LINE
  5
2658
330
23D6
100
AcDbEntity
  8
AM_5
100
AcDbLine
 10
810.7435592991233
 20
317.4066913598902
 30
0.0
 11
840.0424564175718
 21
317.4066913598902
 31
0.0
  0
LINE
  5
2659
330
23D6
100
AcDbEntity
  8
AM_5
100
AcDbLine
 10
838.5424564175718
 20
338.4066913598902
 30
0.0
 11
838.5424564175718
 21
320.4066913598901
 31
0.0
  0
SOLID
  5
265A
330
23D6
100
AcDbEntity
  8
AM_5
100
AcDbTrace
 10
838.0424564175719
 20
338.4066913598902
 30
0.0
 11
839.0424564175718
 21
338.4066913598902
 31
0.0
 12
838.5424564175718
 22
341.4066913598901
 32
0.0
 13
838.5424564175718
 23
341.4066913598901
 33
0.0
  0
SOLID
  5
265B
330
23D6
100
AcDbEntity
  8
AM_5
100
AcDbTrace
 10
838.0424564175719
 20
320.4066913598901
 30
0.0
 11
839.0424564175718
 21
320.4066913598901
 31
0.0
 12
838.5424564175718
 22
317.4066913598902
 32
0.0
 13
838.5424564175718
 23
317.4066913598902
 33
0.0
  0
MTEXT
  5
265C
330
23D6
100
AcDbEntity
  8
AM_5
100
AcDbMText
 10
836.0421611419811
 20
329.4066913598903
 30
0.0
 40
3.0
 41
0.0
 71
     5
 72
     1
  1
\A2;24
 11
0.0000000000000001
 21
1.0
 31
0.0
 73
     1
 44
1.0
1001
ACAD
1000
MTEXTBEGIN
1070
    73
1070
     1
1070
    44
1040
1.0
1070
    74
1070
     0
1000
MTEXTEND
  0
POINT
  5
265D
330
23D6
100
AcDbEntity
  8
Defpoints
 62
     0
100
AcDbPoint
 10
809.7435592991233
 20
341.4066913598901
 30
0.0
  0
POINT
  5
265E
330
23D6
100
AcDbEntity
  8
Defpoints
 62
     0
100
AcDbPoint
 10
809.7435592991232
 20
317.4066913598902
 30
0.0
  0
POINT
  5
265F
330
23D6
100
AcDbEntity
  8
Defpoints
 62
     0
100
AcDbPoint
 10
838.5424564175718
 20
317.4066913598902
 30
0.0
  0
ENDBLK
  5
23E1
330
23D6
100
AcDbEntity
  8
0
100
AcDbBlockEnd
  0
BLOCK
  5
243C
330
2432
100
AcDbEntity
  8
0
100
AcDbBlockBegin
  2
*D17
 70
     1
 10
0.0
 20
0.0
 30
0.0
  3
*D17
  1

  0
LINE
  5
2660
330
2432
100
AcDbEntity
  8
AM_5
100
AcDbLine
 10
827.8924564175721
 20
349.6566913598903
 30
0.0
 11
848.042456417572
 21
349.6566913598903
 31
0.0
  0
LINE
  5
2661
330
2432
100
AcDbEntity
  8
AM_5
100
AcDbLine
 10
827.8924564175717
 20
309.1566913598903
 30
0.0
 11
848.042456417572
 21
309.1566913598903
 31
0.0
  0
LINE
  5
2662
330
2432
100
AcDbEntity
  8
AM_5
100
AcDbLine
 10
846.5424564175719
 20
346.6566913598903
 30
0.0
 11
846.5424564175719
 21
312.1566913598903
 31
0.0
  0
SOLID
  5
2663
330
2432
100
AcDbEntity
  8
AM_5
100
AcDbTrace
 10
846.042456417572
 20
346.6566913598903
 30
0.0
 11
847.042456417572
 21
346.6566913598903
 31
0.0
 12
846.5424564175719
 22
349.6566913598903
 32
0.0
 13
846.5424564175719
 23
349.6566913598903
 33
0.0
  0
SOLID
  5
2664
330
2432
100
AcDbEntity
  8
AM_5
100
AcDbTrace
 10
846.042456417572
 20
312.1566913598903
 30
0.0
 11
847.042456417572
 21
312.1566913598903
 31
0.0
 12
846.5424564175719
 22
309.1566913598903
 32
0.0
 13
846.5424564175719
 23
309.1566913598903
 33
0.0
  0
MTEXT
  5
2665
330
2432
100
AcDbEntity
  8
AM_5
100
AcDbMText
 10
844.0424564175719
 20
329.4066913598904
 30
0.0
 40
3.0
 41
0.0
 71
     5
 72
     1
  1
\A2;40.5
 11
0.0000000000000001
 21
1.0
 31
0.0
 73
     1
 44
1.0
1001
ACAD
1000
MTEXTBEGIN
1070
    73
1070
     1
1070
    44
1040
1.0
1070
    74
1070
     0
1000
MTEXTEND
  0
POINT
  5
2666
330
2432
100
AcDbEntity
  8
Defpoints
 62
     0
100
AcDbPoint
 10
826.8924564175721
 20
349.6566913598903
 30
0.0
  0
POINT
  5
2667
330
2432
100
AcDbEntity
  8
Defpoints
 62
     0
100
AcDbPoint
 10
826.8924564175717
 20
309.1566913598903
 30
0.0
  0
POINT
  5
2668
330
2432
100
AcDbEntity
  8
Defpoints
 62
     0
100
AcDbPoint
 10
846.5424564175719
 20
309.1566913598903
 30
0.0
  0
ENDBLK
  5
243D
330
2432
100
AcDbEntity
  8
0
100
AcDbBlockEnd
  0
BLOCK
  5
2462
330
2458
100
AcDbEntity
  8
0
100
AcDbBlockBegin
  2
*D18
 70
     1
 10
0.0
 20
0.0
 30
0.0
  3
*D18
  1

  0
LINE
  5
2669
330
2458
100
AcDbEntity
  8
AM_5
100
AcDbLine
 10
825.5424564175717
 20
358.4066913598904
 30
0.0
 11
856.042456417572
 21
358.4066913598904
 31
0.0
  0
LINE
  5
266A
330
2458
100
AcDbEntity
  8
AM_5
100
AcDbLine
 10
825.5424564175717
 20
300.4066913598903
 30
0.0
 11
856.042456417572
 21
300.4066913598903
 31
0.0
  0
LINE
  5
266B
330
2458
100
AcDbEntity
  8
AM_5
100
AcDbLine
 10
854.542456417572
 20
355.4066913598904
 30
0.0
 11
854.542456417572
 21
303.4066913598903
 31
0.0
  0
SOLID
  5
266C
330
2458
100
AcDbEntity
  8
AM_5
100
AcDbTrace
 10
854.0424564175721
 20
355.4066913598904
 30
0.0
 11
855.042456417572
 21
355.4066913598904
 31
0.0
 12
854.542456417572
 22
358.4066913598904
 32
0.0
 13
854.542456417572
 23
358.4066913598904
 33
0.0
  0
SOLID
  5
266D
330
2458
100
AcDbEntity
  8
AM_5
100
AcDbTrace
 10
854.0424564175721
 20
303.4066913598903
 30
0.0
 11
855.042456417572
 21
303.4066913598903
 31
0.0
 12
854.542456417572
 22
300.4066913598903
 32
0.0
 13
854.542456417572
 23
300.4066913598903
 33
0.0
  0
MTEXT
  5
266E
330
2458
100
AcDbEntity
  8
AM_5
100
AcDbMText
 10
852.0424564175719
 20
329.4066913598904
 30
0.0
 40
3.0
 41
0.0
 71
     5
 72
     1
  1
\A2;{\Famgdt|c136;o}58
 11
0.0000000000000001
 21
1.0
 31
0.0
 73
     1
 44
1.0
1001
ACAD
1000
MTEXTBEGIN
1070
    73
1070
     1
1070
    44
1040
1.0
1070
    74
1070
     0
1000
MTEXTEND
  0
POINT
  5
266F
330
2458
100
AcDbEntity
  8
Defpoints
 62
     0
100
AcDbPoint
 10
824.5424564175717
 20
358.4066913598904
 30
0.0
  0
POINT
  5
2670
330
2458
100
AcDbEntity
  8
Defpoints
 62
     0
100
AcDbPoint
 10
824.5424564175717
 20
300.4066913598903
 30
0.0
  0
POINT
  5
2671
330
2458
100
AcDbEntity
  8
Defpoints
 62
     0
100
AcDbPoint
 10
854.542456417572
 20
300.4066913598903
 30
0.0
  0
ENDBLK
  5
2463
330
2458
100
AcDbEntity
  8
0
100
AcDbBlockEnd
  0
BLOCK
  5
2959
330
2954
100
AcDbEntity
  8
0
100
AcDbBlockBegin
  2
*U20
 70
     1
 10
0.0
 20
0.0
 30
0.0
  3
*U20
  1

  0
ARC
  5
2955
330
2954
100
AcDbEntity
  8
AM_4
100
AcDbCircle
 10
779.2924564175717
 20
349.6566913598906
 30
0.0
 40
4.0
100
AcDbArc
 50
260.0
 51
170.0
  0
CIRCLE
  5
2956
330
2954
100
AcDbEntity
  8
AM_0
100
AcDbCircle
 10
779.2924564175717
 20
349.6566913598906
 30
0.0
 40
3.323417653293459
  0
LINE
  5
2957
330
2954
100
AcDbEntity
  8
AM_7
  6
AM_ISO08W050x2
100
AcDbLine
 10
772.2924564175717
 20
349.6566913598906
 30
0.0
 11
786.2924564175718
 21
349.6566913598906
 31
0.0
  0
LINE
  5
2958
330
2954
100
AcDbEntity
  8
AM_7
  6
AM_ISO08W050x2
100
AcDbLine
 10
779.2924564175717
 20
342.6566913598906
 30
0.0
 11
779.2924564175717
 21
356.6566913598906
 31
0.0
  0
ENDBLK
  5
295A
330
2954
100
AcDbEntity
  8
0
100
AcDbBlockEnd
  0
BLOCK
  5
2961
330
295C
100
AcDbEntity
  8
0
100
AcDbBlockBegin
  2
*U21
 70
     1
 10
0.0
 20
0.0
 30
0.0
  3
*U21
  1

  0
ARC
  5
295D
330
295C
100
AcDbEntity
  8
AM_4
100
AcDbCircle
 10
819.7924564175718
 20
349.6566913598903
 30
0.0
 40
4.0
100
AcDbArc
 50
260.0
 51
170.0
  0
CIRCLE
  5
295E
330
295C
100
AcDbEntity
  8
AM_0
100
AcDbCircle
 10
819.7924564175718
 20
349.6566913598903
 30
0.0
 40
3.323417653293459
  0
LINE
  5
295F
330
295C
100
AcDbEntity
  8
AM_7
  6
AM_ISO08W050x2
100
AcDbLine
 10
812.7924564175717
 20
349.6566913598903
 30
0.0
 11
826.7924564175718
 21
349.6566913598903
 31
0.0
  0
LINE
  5
2960
330
295C
100
AcDbEntity
  8
AM_7
  6
AM_ISO08W050x2
100
AcDbLine
 10
819.7924564175718
 20
342.6566913598903
 30
0.0
 11
819.7924564175718
 21
356.6566913598903
 31
0.0
  0
ENDBLK
  5
2962
330
295C
100
AcDbEntity
  8
0
100
AcDbBlockEnd
  0
BLOCK
  5
2969
330
2964
100
AcDbEntity
  8
0
100
AcDbBlockBegin
  2
*U22
 70
     1
 10
0.0
 20
0.0
 30
0.0
  3
*U22
  1

  0
ARC
  5
2965
330
2964
100
AcDbEntity
  8
AM_4
100
AcDbCircle
 10
779.2924564175717
 20
309.15669135989
 30
0.0
 40
4.0
100
AcDbArc
 50
260.0
 51
170.0
  0
CIRCLE
  5
2966
330
2964
100
AcDbEntity
  8
AM_0
100
AcDbCircle
 10
779.2924564175717
 20
309.15669135989
 30
0.0
 40
3.323417653293459
  0
LINE
  5
2967
330
2964
100
AcDbEntity
  8
AM_7
  6
AM_ISO08W050x2
100
AcDbLine
 10
772.2924564175717
 20
309.15669135989
 30
0.0
 11
786.2924564175718
 21
309.15669135989
 31
0.0
  0
LINE
  5
2968
330
2964
100
AcDbEntity
  8
AM_7
  6
AM_ISO08W050x2
100
AcDbLine
 10
779.2924564175717
 20
302.15669135989
 30
0.0
 11
779.2924564175717
 21
316.15669135989
 31
0.0
  0
ENDBLK
  5
296A
330
2964
100
AcDbEntity
  8
0
100
AcDbBlockEnd
  0
BLOCK
  5
2971
330
296C
100
AcDbEntity
  8
0
100
AcDbBlockBegin
  2
*U23
 70
     1
 10
0.0
 20
0.0
 30
0.0
  3
*U23
  1

  0
ARC
  5
296D
330
296C
100
AcDbEntity
  8
AM_4
100
AcDbCircle
 10
819.7924564175714
 20
309.1566913598903
 30
0.0
 40
4.0
100
AcDbArc
 50
260.0
 51
170.0
  0
CIRCLE
  5
296E
330
296C
100
AcDbEntity
  8
AM_0
100
AcDbCircle
 10
819.7924564175714
 20
309.1566913598903
 30
0.0
 40
3.323417653293459
  0
LINE
  5
296F
330
296C
100
AcDbEntity
  8
AM_7
  6
AM_ISO08W050x2
100
AcDbLine
 10
812.7924564175714
 20
309.1566913598903
 30
0.0
 11
826.7924564175714
 21
309.1566913598903
 31
0.0
  0
LINE
  5
2970
330
296C
100
AcDbEntity
  8
AM_7
  6
AM_ISO08W050x2
100
AcDbLine
 10
819.7924564175714
 20
302.1566913598903
 30
0.0
 11
819.7924564175714
 21
316.1566913598903
 31
0.0
  0
ENDBLK
  5
2972
330
296C
100
AcDbEntity
  8
0
100
AcDbBlockEnd
  0
BLOCK
  5
2979
330
2974
100
AcDbEntity
  8
0
100
AcDbBlockBegin
  2
*S24
 70
     1
 10
0.0
 20
0.0
 30
0.0
  3
*S24
  1

  0
LINE
  5
2975
330
2974
100
AcDbEntity
  8
AM_5
 62
     5
100
AcDbLine
 10
758.3256109267101
 20
122.497700403115
 30
0.0
 11
774.6438029230293
 21
122.497700403115
 31
0.0
  0
LINE
  5
2976
330
2974
100
AcDbEntity
  8
AM_5
 62
     5
100
AcDbLine
 10
774.6438029230293
 20
122.497700403115
 30
0.0
 11
792.2078489666684
 21
140.2836100072522
 31
0.0
  0
TRACE
  5
2977
330
2974
100
AcDbEntity
  8
AM_5
 62
     5
370
    35
100
AcDbTrace
 10
792.5357107500277
 20
139.9598380109337
 30
0.0
 11
791.8799871833092
 21
140.6073820035707
 31
0.0
 12
794.6671414502628
 22
142.7739675077202
 32
0.0
 13
794.6671414502628
 23
142.7739675077202
 33
0.0
  0
MTEXT
  5
2978
330
2974
100
AcDbEntity
  8
AM_5
 62
     2
100
AcDbMText
 10
758.3256109267101
 20
117.8290210218993
 30
0.0
 40
3.5
 41
0.0
 71
     9
 72
     5
  1

  7
ACISOTS
 73
     1
 44
1.0
1001
ACAD
1000
MTEXTBEGIN
1070
    73
1070
     1
1070
    44
1040
1.0
1070
    74
1070
     0
1000
MTEXTEND
  0
ENDBLK
  5
297A
330
2974
100
AcDbEntity
  8
0
100
AcDbBlockEnd
  0
BLOCK
  5
2981
330
297C
100
AcDbEntity
  8
0
100
AcDbBlockBegin
  2
*S25
 70
     1
 10
0.0
 20
0.0
 30
0.0
  3
*S25
  1

  0
LINE
  5
297D
330
297C
100
AcDbEntity
  8
AM_5
 62
     5
100
AcDbLine
 10
856.7598068488676
 20
290.8068224834538
 30
0.0
 11
836.8969106208588
 21
290.8068224834538
 31
0.0
  0
LINE
  5
297E
330
297C
100
AcDbEntity
  8
AM_5
 62
     5
100
AcDbLine
 10
836.8969106208588
 20
290.8068224834538
 30
0.0
 11
826.7000078515307
 21
301.1325293534336
 31
0.0
  0
TRACE
  5
297F
330
297C
100
AcDbEntity
  8
AM_5
 62
     5
370
    35
100
AcDbTrace
 10
827.0278696348899
 20
301.4563013497522
 30
0.0
 11
826.3721460681715
 21
300.8087573571151
 31
0.0
 12
824.2407153679364
 22
303.6228868539016
 32
0.0
 13
824.2407153679364
 23
303.6228868539016
 33
0.0
  0
MTEXT
  5
2980
330
297C
100
AcDbEntity
  8
AM_5
 62
     2
100
AcDbMText
 10
856.7598068488676
 20
286.1381431022381
 30
0.0
 40
3.5
 41
0.0
 71
     9
 72
     5
  1

  7
ACISOTS
210
0.0
220
0.0
230
-1.0
 11
-1.0
 21
0.0
 31
0.0
 73
     1
 44
1.0
1001
ACAD
1000
MTEXTBEGIN
1070
    73
1070
     1
1070
    44
1040
1.0
1070
    74
1070
     0
1000
MTEXTEND
  0
ENDBLK
  5
2982
330
297C
100
AcDbEntity
  8
0
100
AcDbBlockEnd
  0
ENDSEC
  0
SECTION
  2
ENTITIES
  0
TEXT
  5
13F1
330
1F
100
AcDbEntity
  8
LOGO
 62
     7
100
AcDbText
 10
777.4963921453006
 20
92.86545129269319
 30
0.0
 40
3.455499583710405
  1
Order example:
 41
0.8
  7
CHINESET
100
AcDbText
  0
TEXT
  5
13F2
330
1F
100
AcDbEntity
  8
LOGO
 62
     7
100
AcDbText
 10
778.1163373464371
 20
97.73007923623932
 30
0.0
 40
5.183249375565609
  1
訂購代號:
  7
CHINESET
100
AcDbText
  0
LINE
  5
13F3
330
1F
100
AcDbEntity
  8
LOGO
 62
     1
100
AcDbLine
 10
1212.413351906489
 20
104.2189180472453
 30
0.0
 11
718.9792227245757
 21
104.2189180472453
 31
0.0
  0
LINE
  5
13F5
330
1F
100
AcDbEntity
  8
LOGO
 62
     1
100
AcDbLine
 10
775.9949658557975
 20
78.30267116941721
 30
0.0
 11
775.9949658557975
 21
104.2189180472453
 31
0.0
  0
TEXT
  5
13F7
330
1F
100
AcDbEntity
  8
LOGO
  6
Continuous
 62
     5
100
AcDbText
 10
728.2884550988756
 20
83.39387875753985
 30
0.0
 40
3.887437031674207
  1
金器工業股份有限公司
  7
CHINESET
100
AcDbText
  0
TEXT
  5
13F8
330
1F
100
AcDbEntity
  8
LOGO
  6
Continuous
 62
     5
100
AcDbText
 10
721.1480023631791
 20
79.50568009299431
 30
0.0
 40
2.591624687782804
  1
MINDMAN INDUSTRIAL CO., LTD.
 41
0.85
  7
CHINESET
100
AcDbText
  0
LINE
  5
13F9
330
1F
100
AcDbEntity
  8
LOGO
 62
     1
100
AcDbLine
 10
775.9949658557975
 20
99.03566867167979
 30
0.0
 11
737.9844704349832
 21
99.03566867167979
 31
0.0
  0
LINE
  5
13FA
330
1F
100
AcDbEntity
  8
LOGO
 62
     1
100
AcDbLine
 10
775.9949658557975
 20
93.85241929611403
 30
0.0
 11
737.9844704349832
 21
93.85241929611403
 31
0.0
  0
LINE
  5
13FB
330
1F
100
AcDbEntity
  8
LOGO
 62
     1
100
AcDbLine
 10
775.9949658557975
 20
88.6691699205485
 30
0.0
 11
718.9792227245757
 21
88.6691699205485
 31
0.0
  0
LINE
  5
13FC
330
1F
100
AcDbEntity
  8
LOGO
 62
     1
100
AcDbLine
 10
737.9844704349832
 20
88.6691699205485
 30
0.0
 11
737.9844704349832
 21
104.2189180472453
 31
0.0
  0
TEXT
  5
13FD
330
1F
100
AcDbEntity
  8
LOGO
 62
     6
100
AcDbText
 10
762.6053322934533
 20
89.96498226443987
 30
0.0
 40
2.591624687782804
  1
m/m
  7
CHINESET
 72
     1
 11
767.1715281719277
 21
91.26079460833128
 31
0.0
100
AcDbText
 73
     2
  0
TEXT
  5
13FE
330
1F
100
AcDbEntity
  8
LOGO
 62
     6
100
AcDbText
 10
762.6053322934533
 20
100.3314810155711
 30
0.0
 40
2.591624687782804
  1
1 : 1
  7
CHINESET
 72
     1
 11
767.1715281719277
 21
101.6272933594625
 31
0.0
100
AcDbText
 73
     2
  0
LINE
  5
13FF
330
1F
100
AcDbEntity
  8
LOGO
 62
     1
100
AcDbLine
 10
758.7174679372455
 20
88.6691699205485
 30
0.0
 11
758.7174679372455
 21
104.2189180472453
 31
0.0
  0
CIRCLE
  5
1400
330
1F
100
AcDbEntity
  8
LOGO
  6
Continuous
 62
     6
100
AcDbCircle
 10
763.5161852019672
 20
96.44958748806905
 30
0.0
 40
1.504758293695538
  0
CIRCLE
  5
1401
330
1F
100
AcDbEntity
  8
LOGO
  6
Continuous
 62
     6
100
AcDbCircle
 10
763.5161852019672
 20
96.44958748806905
 30
0.0
 40
0.8816551513906137
  0
LINE
  5
1402
330
1F
100
AcDbEntity
  8
LOGO
 62
     6
100
AcDbLine
 10
772.972260924319
 20
94.94482919437343
 30
0.0
 11
772.972260924319
 21
97.95434578176468
 31
0.0
  0
LINE
  5
1403
330
1F
100
AcDbEntity
  8
LOGO
 62
     6
100
AcDbLine
 10
768.2549300508306
 20
95.5679323366785
 30
0.0
 11
768.2549300508306
 21
97.33124263945981
 31
0.0
  0
LINE
  5
1404
330
1F
100
AcDbEntity
  8
LOGO
  6
Continuous
 62
     6
100
AcDbLine
 10
768.2549300508306
 20
97.33124263945981
 30
0.0
 11
772.972260924319
 21
97.95434578176468
 31
0.0
  0
LINE
  5
1405
330
1F
100
AcDbEntity
  8
LOGO
  6
Continuous
 62
     6
100
AcDbLine
 10
768.2549300508306
 20
95.5679323366785
 30
0.0
 11
772.972260924319
 21
94.94482919437343
 31
0.0
  0
LINE
  5
1406
330
1F
100
AcDbEntity
  8
LOGO
 62
     6
100
AcDbLine
 10
852.4661091260835
 20
101.6272933594625
 30
0.0
 11
838.5962486517092
 21
101.6272933594625
 31
0.0
  0
LINE
  5
1407
330
1F
100
AcDbEntity
  8
LOGO
 62
     6
100
AcDbLine
 10
852.4661091260835
 20
89.96498226443998
 30
0.0
 11
838.5962486517092
 21
89.96498226443998
 31
0.0
  0
LINE
  5
1408
330
1F
100
AcDbEntity
  8
LOGO
 62
     6
100
AcDbLine
 10
852.4661091260835
 20
93.85241929611403
 30
0.0
 11
838.5962486517092
 21
93.85241929611403
 31
0.0
  0
LINE
  5
1409
330
1F
100
AcDbEntity
  8
LOGO
 62
     6
100
AcDbLine
 10
852.4661091260835
 20
80.46235840923641
 30
0.0
 11
838.5962486517092
 21
80.46235840923619
 31
0.0
  0
LINE
  5
140A
330
1F
100
AcDbEntity
  8
LOGO
 62
     6
100
AcDbLine
 10
838.5962486517092
 20
89.96498226443998
 30
0.0
 11
838.5962486517092
 21
80.46235840923641
 31
0.0
  0
LINE
  5
140D
330
1F
100
AcDbEntity
  8
LOGO
 62
     6
100
AcDbLine
 10
830.6468609252299
 20
89.96498226443998
 30
0.0
 11
830.6468609252299
 21
80.46235840923619
 31
0.0
  0
LINE
  5
140E
330
1F
100
AcDbEntity
  8
LOGO
 62
     6
100
AcDbLine
 10
813.3693630066778
 20
89.96498226443998
 30
0.0
 11
813.3693630066778
 21
80.46235840923619
 31
0.0
  0
LINE
  5
140F
330
1F
100
AcDbEntity
  8
LOGO
 62
     6
100
AcDbLine
 10
830.6468609252299
 20
80.46235840923619
 30
0.0
 11
813.3693630066778
 21
80.46235840923619
 31
0.0
  0
LINE
  5
1411
330
1F
100
AcDbEntity
  8
LOGO
  6
Continuous
 62
     7
100
AcDbLine
 10
833.714104673549
 20
97.71231649513545
 30
0.0
 11
837.147205367375
 21
97.71231649513545
 31
0.0
  0
LINE
  5
1412
330
1F
100
AcDbEntity
  8
LOGO
 62
     6
100
AcDbLine
 10
832.3746107170849
 20
101.6272933594625
 30
0.0
 11
811.6416132148227
 21
101.6272933594625
 31
0.0
  0
LINE
  5
1413
330
1F
100
AcDbEntity
  8
LOGO
 62
     6
100
AcDbLine
 10
832.3746107170849
 20
93.85241929611403
 30
0.0
 11
811.6416132148227
 21
93.85241929611403
 31
0.0
  0
LINE
  5
1414
330
1F
100
AcDbEntity
  8
LOGO
 62
     6
100
AcDbLine
 10
811.6416132148227
 20
101.6272933594625
 30
0.0
 11
811.6416132148227
 21
93.85241929611403
 31
0.0
  0
LINE
  5
1415
330
1F
100
AcDbEntity
  8
LOGO
 62
     6
100
AcDbLine
 10
832.3746107170849
 20
101.6272933594625
 30
0.0
 11
832.3746107170849
 21
93.85241929611403
 31
0.0
  0
LINE
  5
1416
330
1F
100
AcDbEntity
  8
LOGO
 62
     6
100
AcDbLine
 10
822.0081119659537
 20
93.85241929611403
 30
0.0
 11
822.0081119659537
 21
89.96498226443998
 31
0.0
  0
TEXT
  5
1417
330
1F
100
AcDbEntity
  8
LOGO
  6
Continuous
 62
     7
100
AcDbText
 10
813.4722052561928
 20
95.58016908796924
 30
0.0
 40
4.319374479638007
  1
MCQA
  7
CHINESET
 72
     1
 11
822.0081119659537
 21
97.73985632778824
 31
0.0
100
AcDbText
 73
     2
  0
LINE
  5
1418
330
1F
100
AcDbEntity
  8
LOGO
 62
     6
100
AcDbLine
 10
830.6468609252299
 20
89.96498226443998
 30
0.0
 11
813.3693630066778
 21
89.96498226443998
 31
0.0
  0
TEXT
  5
141F
330
1F
100
AcDbEntity
  8
LOGO
  6
Continuous
 62
     7
100
AcDbText
 10
842.4376841347385
 20
95.53118710919452
 30
0.0
 40
4.319374479638007
  1
40
  7
CHINESET
 72
     1
 11
845.9343206182548
 21
97.69087434901353
 31
0.0
100
AcDbText
 73
     2
  0
LINE
  5
1421
330
1F
100
AcDbEntity
  8
LOGO
 62
     6
100
AcDbLine
 10
845.5311786897002
 20
93.85241929611403
 30
0.0
 11
845.5311786897002
 21
89.96498226443998
 31
0.0
  0
LINE
  5
1422
330
1F
100
AcDbEntity
  8
LOGO
 62
     6
100
AcDbLine
 10
838.5962486517092
 20
101.6272933594625
 30
0.0
 11
838.5962486517092
 21
93.85241929611403
 31
0.0
  0
LINE
  5
1425
330
1F
100
AcDbEntity
  8
LOGO
 62
     6
100
AcDbLine
 10
872.1101625247889
 20
89.96498226443998
 30
0.0
 11
872.1101625247889
 21
80.42652721632094
 31
0.0
  0
LINE
  5
1426
330
1F
100
AcDbEntity
  8
LOGO
 62
     6
100
AcDbLine
 10
859.4471230626069
 20
89.96498226443998
 30
0.0
 11
859.4471230626069
 21
80.46235840923619
 31
0.0
  0
LINE
  5
1427
330
1F
100
AcDbEntity
  8
LOGO
 62
     6
100
AcDbLine
 10
852.4661091260835
 20
89.96498226443998
 30
0.0
 11
852.4661091260835
 21
80.46235840923641
 31
0.0
  0
LINE
  5
1428
330
1F
100
AcDbEntity
  8
LOGO
 62
     6
100
AcDbLine
 10
872.1101625247889
 20
80.46235840923619
 30
0.0
 11
859.4471230626069
 21
80.46235840923619
 31
0.0
  0
LINE
  5
1429
330
1F
100
AcDbEntity
  8
LOGO
 62
     6
100
AcDbLine
 10
872.1101625247889
 20
89.96498226443998
 30
0.0
 11
859.4471230626069
 21
89.96498226443998
 31
0.0
  0
LINE
  5
142A
330
1F
100
AcDbEntity
  8
LOGO
 62
     6
100
AcDbLine
 10
872.9740374207166
 20
93.85241929611403
 30
0.0
 11
858.5832481666793
 21
93.85241929611403
 31
0.0
  0
LINE
  5
142B
330
1F
100
AcDbEntity
  8
LOGO
 62
     6
100
AcDbLine
 10
872.9740374207166
 20
101.6272933594625
 30
0.0
 11
858.5832481666793
 21
101.6272933594625
 31
0.0
  0
LINE
  5
142C
330
1F
100
AcDbEntity
  8
LOGO
 62
     6
100
AcDbLine
 10
865.9616036527967
 20
93.85241929611403
 30
0.0
 11
865.9616036527967
 21
89.96498226443998
 31
0.0
  0
LINE
  5
142D
330
1F
100
AcDbEntity
  8
LOGO
  6
Continuous
 62
     7
100
AcDbLine
 10
853.8056030825474
 20
97.71231649513545
 30
0.0
 11
857.2387037763732
 21
97.71231649513545
 31
0.0
  0
LINE
  5
142E
330
1F
100
AcDbEntity
  8
LOGO
 62
     6
100
AcDbLine
 10
858.5832481666793
 20
101.6272933594625
 30
0.0
 11
858.5832481666793
 21
93.85241929611403
 31
0.0
  0
LINE
  5
142F
330
1F
100
AcDbEntity
  8
LOGO
 62
     6
100
AcDbLine
 10
852.4661091260835
 20
101.6272933594625
 30
0.0
 11
852.4661091260835
 21
93.85241929611403
 31
0.0
  0
TEXT
  5
1430
330
1F
100
AcDbEntity
  8
LOGO
  6
Continuous
 62
     7
100
AcDbText
 10
862.68514803954
 20
95.53118710919452
 30
0.0
 40
4.319374479638007
  1
50
  7
CHINESET
 72
     1
 11
866.1817845230563
 21
97.69087434901353
 31
0.0
100
AcDbText
 73
     2
  0
LINE
  5
1431
330
1F
100
AcDbEntity
  8
LOGO
 62
     6
100
AcDbLine
 10
872.9740374207166
 20
101.6272933594625
 30
0.0
 11
872.9740374207166
 21
93.85241929611403
 31
0.0
  0
TEXT
  5
1432
330
1F
100
AcDbEntity
  8
LOGO
 62
     6
100
AcDbText
 10
740.1214038270969
 20
100.3327564214214
 30
169.8508125850245
 40
2.591624687782804
  1
比例 Scale:
 41
0.9
  7
CHINESET
 72
     4
 11
748.3509691861143
 21
101.6272933594625
 31
169.8508125850245
100
AcDbText
  0
TEXT
  5
1433
330
1F
100
AcDbEntity
  8
LOGO
 62
     6
100
AcDbText
 10
741.0273154925138
 20
95.18468699055938
 30
169.8508125850245
 40
2.591624687782804
  1
投影 View:
 41
0.9
  7
CHINESET
 72
     4
 11
748.3509691861143
 21
96.44404398389676
 31
169.8508125850245
100
AcDbText
  0
TEXT
  5
1434
330
1F
100
AcDbEntity
  8
LOGO
 62
     6
100
AcDbText
 10
741.2806930847568
 20
89.96498226443987
 30
169.8508125850245
 40
2.591624687782804
  1
單位 Unit:
 41
0.9
  7
CHINESET
 72
     4
 11
748.3509691861143
 21
91.26079460833128
 31
169.8508125850245
100
AcDbText
  0
TEXT
  5
1435
330
1F
100
AcDbEntity
  8
LOGO
  6
Continuous
 62
     6
100
AcDbText
 10
817.8944219853461
 20
81.5422020291457
 30
169.8508125850245
 40
2.159687239819003
  1
Model
  7
CHINESET
 72
     4
 11
822.0081119659537
 21
82.62204564905522
 31
169.8508125850245
100
AcDbText
  0
TEXT
  5
1437
330
1F
100
AcDbEntity
  8
LOGO
  6
Continuous
 62
     6
100
AcDbText
 10
842.8572804015015
 20
81.5422020291457
 30
169.8508125850245
 40
2.159687239819003
  1
Bore
 41
0.8
  7
CHINESET
 72
     4
 11
845.5311788888964
 21
82.62204564905522
 31
169.8508125850245
100
AcDbText
  0
TEXT
  5
1438
330
1F
100
AcDbEntity
  8
LOGO
 62
     6
100
AcDbText
 10
818.4806228075826
 20
85.25788440631464
 30
169.8508125850245
 40
3.455499583710405
  1
型號
  7
CHINESET
 72
     4
 11
822.0081119659537
 21
86.94142012869324
 31
169.8508125850245
100
AcDbText
  0
TEXT
  5
143A
330
1F
100
AcDbEntity
  8
LOGO
 62
     6
100
AcDbText
 10
842.2268574119733
 20
85.21367033683803
 30
169.8508125850245
 40
3.455499583710405
  1
內徑
 41
0.9
  7
CHINESET
 72
     4
 11
845.5311788888964
 21
86.94142012869324
 31
169.8508125850245
100
AcDbText
  0
TEXT
  5
143B
330
1F
100
AcDbEntity
  8
LOGO
  6
Continuous
 62
     6
100
AcDbText
 10
861.7472266127023
 20
81.90214990244887
 30
169.8508125850245
 40
2.159687239819003
  1
Length
 41
0.8
  7
CHINESET
 72
     4
 11
865.7786427936978
 21
82.62204564905522
 31
169.8508125850245
100
AcDbText
  0
TEXT
  5
143C
330
1F
100
AcDbEntity
  8
LOGO
 62
     6
100
AcDbText
 10
862.6686931683584
 20
85.32151298706784
 30
169.8508125850245
 40
3.455499583710405
  1
長度
 41
0.9
  7
CHINESET
 72
     4
 11
865.7786427936978
 21
86.94142012869324
 31
169.8508125850245
100
AcDbText
  0
LWPOLYLINE
  5
143D
330
1F
100
AcDbEntity
  8
0
 62
     4
100
AcDbPolyline
 90
        4
 70
     1
 43
0.0
 10
718.979222724576
 20
104.2189180472453
 10
1212.413351906489
 20
104.2189180472453
 10
1212.413351906489
 20
428.872209643596
 10
718.979222724576
 20
428.872209643596
1001
GENIUS_GENREC_14
1002
{
1000
PYDIR
1011
718.979222724576
1021
428.872209643596
1031
0.0
1002
}
1002
{
1000
PXDIR
1011
1212.413351906489
1021
104.2189180472453
1031
0.0
1002
}
1002
{
1000
PORI
1011
718.979222724576
1021
104.2189180472453
1031
0.0
1002
}
1002
{
1000
PINS
1011
718.979222724576
1021
104.2189180472453
1031
0.0
1002
}
1002
{
1000
PINS2
1011
1212.413351906489
1021
428.872209643596
1031
0.0
1002
}
1002
{
1000
C
1070
     1
1002
}
1001
GENIUS_GENODEF_13
1002
{
1000
HIER
1070
     0
1002
}
1002
{
1000
MANEDIT
1070
     0
1002
}
1002
{
1000
NOSEL
1070
     0
1002
}
1002
{
1000
BEHIND
1070
     0
1002
}
1002
{
1000
OTHER
1070
     0
1002
}
1002
{
1000
REACTOR
1002
}
1001
GENIUS_GENOBJ-N-REC_13
1002
{
1000
OWNER
1000
GEN
1002
}
  0
SOLID
  5
143E
330
1F
100
AcDbEntity
  8
LOGO
 62
     5
100
AcDbTrace
 10
721.6680749305632
 20
92.97737707526149
 30
0.0
 11
722.7886254413288
 21
92.97737707526101
 31
0.0
 12
727.4640258483161
 22
103.6032870911413
 32
0.0
 13
728.5845763590815
 23
103.6032870911404
 33
0.0
  0
SOLID
  5
143F
330
1F
100
AcDbEntity
  8
LOGO
 62
     5
100
AcDbTrace
 10
723.2523015147497
 20
92.97737707526149
 30
0.0
 11
724.3728520255149
 21
92.97737707526149
 31
0.0
 12
728.5845763590815
 22
102.7532142898703
 32
0.0
 13
727.4640258483161
 23
98.64452908373005
 33
0.0
  0
SOLID
  5
1440
330
1F
100
AcDbEntity
  8
LOGO
 62
     2
100
AcDbTrace
 10
722.7886254413288
 20
92.97737707526101
 30
0.0
 11
723.2523015147497
 21
92.97737707526149
 31
0.0
 12
728.5845763590815
 22
103.6032870911404
 32
0.0
 13
729.048252432502
 23
103.6032870911404
 33
0.0
  0
SOLID
  5
1441
330
1F
100
AcDbEntity
  8
LOGO
 62
     5
100
AcDbTrace
 10
719.8715576691609
 20
89.11340979676015
 30
0.0
 11
720.2579543970117
 21
89.11340979676015
 31
0.0
 12
721.3460776573551
 22
91.04539343601048
 32
0.0
 13
721.7324743852051
 23
91.04539343601048
 33
0.0
  0
SOLID
  5
1442
330
1F
100
AcDbEntity
  8
LOGO
 62
     5
100
AcDbTrace
 10
721.3460776573551
 20
91.04539343601048
 30
0.0
 11
721.7324743852051
 21
91.04539343601048
 31
0.0
 12
721.3460776573551
 22
89.11340979676015
 32
0.0
 13
721.7324743852051
 23
89.11340979676015
 33
0.0
  0
SOLID
  5
1443
330
1F
100
AcDbEntity
  8
LOGO
 62
     5
100
AcDbTrace
 10
721.3460776573551
 20
89.11340979676015
 30
0.0
 11
721.7324743852051
 21
89.11340979676015
 31
0.0
 12
722.82059764555
 22
91.04539343601048
 32
0.0
 13
723.2069943733997
 23
91.04539343601048
 33
0.0
  0
SOLID
  5
1444
330
1F
100
AcDbEntity
  8
LOGO
 62
     5
100
AcDbTrace
 10
722.82059764555
 20
91.04539343601048
 30
0.0
 11
723.2069943733997
 21
91.04539343601048
 31
0.0
 12
722.82059764555
 22
89.11340979676015
 32
0.0
 13
723.2069943733997
 23
89.11340979676015
 33
0.0
  0
POLYLINE
  5
1445
330
1F
100
AcDbEntity
  8
LOGO
 62
     5
100
AcDb2dPolyline
 66
     1
 10
0.0
 20
0.0
 30
0.0
 40
0.3870159533755655
 41
0.3870159533755655
  0
VERTEX
  5
1446
330
1445
100
AcDbEntity
  8
LOGO
 62
     5
100
AcDbVertex
100
AcDb2dVertex
 10
735.7724843353832
 20
90.27259998031016
 30
0.0
 42
1.0
  0
VERTEX
  5
1447
330
1445
100
AcDbEntity
  8
LOGO
 62
     5
100
AcDbVertex
100
AcDb2dVertex
 10
734.6114364752562
 20
90.27259998031016
 30
0.0
 42
1.0
  0
SEQEND
  5
1448
330
1445
100
AcDbEntity
  8
LOGO
 62
     5
  0
POLYLINE
  5
1449
330
1F
100
AcDbEntity
  8
LOGO
 62
     5
100
AcDb2dPolyline
 66
     1
 10
0.0
 20
0.0
 30
0.0
 70
     1
  0
VERTEX
  5
144A
330
1449
100
AcDbEntity
  8
LOGO
 62
     5
100
AcDbVertex
100
AcDb2dVertex
 10
732.422809615508
 20
90.07940161638522
 30
0.0
 42
1.000000057330635
  0
VERTEX
  5
144B
330
1449
100
AcDbEntity
  8
LOGO
 62
     5
100
AcDbVertex
100
AcDb2dVertex
 10
733.5819997990588
 20
90.07940161638522
 30
0.0
 42
1.000000057330635
  0
SEQEND
  5
144C
330
1449
100
AcDbEntity
  8
LOGO
 62
     5
  0
CIRCLE
  5
144D
330
1F
100
AcDbEntity
  8
LOGO
 62
     5
100
AcDbCircle
 10
733.0024047072837
 20
90.07940161638522
 30
0.0
 40
0.5795950917752472
  0
POLYLINE
  5
144E
330
1F
100
AcDbEntity
  8
LOGO
 62
     5
100
AcDb2dPolyline
 66
     1
 10
0.0
 20
0.0
 30
0.0
 70
     1
 40
0.3870159533755655
 41
0.3870159533755655
  0
VERTEX
  5
144F
330
144E
100
AcDbEntity
  8
LOGO
 62
     5
100
AcDbVertex
100
AcDb2dVertex
 10
732.2283728005324
 20
90.07940161638522
 30
0.0
 42
1.0
  0
VERTEX
  5
1450
330
144E
100
AcDbEntity
  8
LOGO
 62
     5
100
AcDbVertex
100
AcDb2dVertex
 10
733.7764366140346
 20
90.07940161638522
 30
0.0
 42
1.0
  0
SEQEND
  5
1451
330
144E
100
AcDbEntity
  8
LOGO
 62
     5
  0
LINE
  5
1452
330
1F
100
AcDbEntity
  8
LOGO
 62
     5
100
AcDbLine
 10
735.9647538610197
 20
89.11340979676015
 30
0.0
 11
735.9647538610197
 21
90.27259998031016
 31
0.0
  0
SOLID
  5
1453
330
1F
100
AcDbEntity
  8
LOGO
 62
     5
100
AcDbTrace
 10
733.5819611593868
 20
91.04539343601048
 30
0.0
 11
733.9683578872365
 21
91.04539343601048
 31
0.0
 12
733.5819611593868
 22
89.11340979676015
 32
0.0
 13
733.9683578872365
 23
89.11340979676015
 33
0.0
  0
SOLID
  5
1454
330
1F
100
AcDbEntity
  8
LOGO
 62
     5
100
AcDbTrace
 10
734.419166949619
 20
89.11340979676015
 30
0.0
 11
734.8055636774695
 21
89.11340979676015
 31
0.0
 12
734.419166949619
 22
91.04539343601048
 32
0.0
 13
734.8055636774695
 23
91.04539343601048
 33
0.0
  0
SOLID
  5
1455
330
1F
100
AcDbEntity
  8
LOGO
 62
     5
100
AcDbTrace
 10
735.5783571331699
 20
90.27259998031016
 30
0.0
 11
735.9647538610197
 21
90.27259998031016
 31
0.0
 12
735.5783571331699
 22
89.11340979676015
 32
0.0
 13
735.9647538610197
 23
89.11340979676015
 33
0.0
  0
SOLID
  5
1456
330
1F
100
AcDbEntity
  8
LOGO
 62
     5
100
AcDbTrace
 10
734.3805272768338
 20
102.7532142898703
 30
0.0
 11
733.2599767660684
 21
98.64452908373005
 31
0.0
 12
734.3805272768338
 22
92.97737707526101
 32
0.0
 13
733.2599767660684
 23
92.97737707526101
 33
0.0
  0
SOLID
  5
1457
330
1F
100
AcDbEntity
  8
LOGO
 62
     5
100
AcDbTrace
 10
734.8442033502545
 20
92.97737707526101
 30
0.0
 11
735.9647538610197
 21
92.97737707526101
 31
0.0
 12
734.8442033502545
 22
103.6032870911404
 32
0.0
 13
735.9647538610197
 23
103.6032870911413
 33
0.0
  0
SOLID
  5
1458
330
1F
100
AcDbEntity
  8
LOGO
 62
     2
100
AcDbTrace
 10
734.3805272768338
 20
103.6032870911413
 30
0.0
 11
734.8442033502545
 21
103.6032870911404
 31
0.0
 12
734.3805272768338
 22
92.97737707526101
 32
0.0
 13
734.8442033502545
 23
92.97737707526101
 33
0.0
  0
POLYLINE
  5
1459
330
1F
100
AcDbEntity
  8
LOGO
 62
     5
100
AcDb2dPolyline
 66
     1
 10
0.0
 20
0.0
 30
0.0
 40
0.3870159533755655
 41
0.3870159533755655
  0
VERTEX
  5
145A
330
1459
100
AcDbEntity
  8
LOGO
 62
     5
100
AcDbVertex
100
AcDb2dVertex
 10
730.2341054764154
 20
90.27259998031016
 30
0.0
 42
1.0
  0
VERTEX
  5
145B
330
1459
100
AcDbEntity
  8
LOGO
 62
     5
100
AcDbVertex
100
AcDb2dVertex
 10
729.0730576162884
 20
90.27259998031016
 30
0.0
 42
1.0
  0
SEQEND
  5
145C
330
1459
100
AcDbEntity
  8
LOGO
 62
     5
  0
POLYLINE
  5
145D
330
1F
100
AcDbEntity
  8
LOGO
 62
     5
100
AcDb2dPolyline
 66
     1
 10
0.0
 20
0.0
 30
0.0
 40
0.3870159533755655
 41
0.3870159533755655
  0
VERTEX
  5
145E
330
145D
100
AcDbEntity
  8
LOGO
 62
     5
100
AcDbVertex
100
AcDb2dVertex
 10
731.3932956599655
 20
90.27259998031016
 30
0.0
 42
1.0
  0
VERTEX
  5
145F
330
145D
100
AcDbEntity
  8
LOGO
 62
     5
100
AcDbVertex
100
AcDb2dVertex
 10
730.2322477998387
 20
90.27259998031016
 30
0.0
 42
1.0
  0
SEQEND
  5
1460
330
145D
100
AcDbEntity
  8
LOGO
 62
     5
  0
POLYLINE
  5
1461
330
1F
100
AcDbEntity
  8
LOGO
 62
     5
100
AcDb2dPolyline
 66
     1
 10
0.0
 20
0.0
 30
0.0
 40
0.3870159533755655
 41
0.3870159533755655
  0
VERTEX
  5
1462
330
1461
100
AcDbEntity
  8
LOGO
 62
     5
100
AcDbVertex
100
AcDb2dVertex
 10
725.8549168009981
 20
90.27259998031016
 30
0.0
 42
1.0
  0
VERTEX
  5
1463
330
1461
100
AcDbEntity
  8
LOGO
 62
     5
100
AcDbVertex
100
AcDb2dVertex
 10
724.6938689408714
 20
90.27259998031016
 30
0.0
 42
1.0
  0
SEQEND
  5
1464
330
1461
100
AcDbEntity
  8
LOGO
 62
     5
  0
SOLID
  5
1465
330
1F
100
AcDbEntity
  8
LOGO
 62
     5
100
AcDbTrace
 10
724.5015994152347
 20
91.04539343601048
 30
0.0
 11
724.8879961430844
 21
91.04539343601048
 31
0.0
 12
724.5015994152347
 22
89.11340979676015
 32
0.0
 13
724.8879961430844
 23
89.11340979676015
 33
0.0
  0
SOLID
  5
1466
330
1F
100
AcDbEntity
  8
LOGO
 62
     5
100
AcDbTrace
 10
725.660789598785
 20
90.27259998031016
 30
0.0
 11
726.0471863266355
 21
90.27259998031016
 31
0.0
 12
725.660789598785
 22
89.11340979676015
 32
0.0
 13
726.0471863266355
 23
89.11340979676015
 33
0.0
  0
POLYLINE
  5
1467
330
1F
100
AcDbEntity
  8
LOGO
 62
     5
100
AcDb2dPolyline
 66
     1
 10
0.0
 20
0.0
 30
0.0
 70
     1
 40
0.3870159533755655
 41
0.3870159533755655
  0
VERTEX
  5
1468
330
1467
100
AcDbEntity
  8
LOGO
 62
     5
100
AcDbVertex
100
AcDb2dVertex
 10
726.6899939415646
 20
90.07940161638522
 30
0.0
 42
1.0
  0
VERTEX
  5
1469
330
1467
100
AcDbEntity
  8
LOGO
 62
     5
100
AcDbVertex
100
AcDb2dVertex
 10
728.2380577550667
 20
90.07940161638522
 30
0.0
 42
1.0
  0
SEQEND
  5
146A
330
1467
100
AcDbEntity
  8
LOGO
 62
     5
  0
SOLID
  5
146B
330
1F
100
AcDbEntity
  8
LOGO
 62
     5
100
AcDbTrace
 10
728.0435823004189
 20
91.62498852778607
 30
0.0
 11
728.4299790282686
 21
91.62498852778607
 31
0.0
 12
728.0435823004189
 22
89.11340979676015
 32
0.0
 13
728.4299790282686
 23
89.11340979676015
 33
0.0
  0
SOLID
  5
146C
330
1F
100
AcDbEntity
  8
LOGO
 62
     5
100
AcDbTrace
 10
728.8807880906521
 20
91.04539343601048
 30
0.0
 11
729.2671848185019
 21
91.04539343601048
 31
0.0
 12
728.8807880906521
 22
89.11340979676015
 32
0.0
 13
729.2671848185019
 23
89.11340979676015
 33
0.0
  0
SOLID
  5
146D
330
1F
100
AcDbEntity
  8
LOGO
 62
     5
100
AcDbTrace
 10
730.0399782742021
 20
90.27259998031016
 30
0.0
 11
730.4263750020524
 21
90.27259998031016
 31
0.0
 12
730.0399782742021
 22
89.11340979676015
 32
0.0
 13
730.4263750020524
 23
89.11340979676015
 33
0.0
  0
SOLID
  5
146E
330
1F
100
AcDbEntity
  8
LOGO
 62
     5
100
AcDbTrace
 10
731.1991684577527
 20
90.27259998031016
 30
0.0
 11
731.5855651856022
 21
90.27259998031016
 31
0.0
 12
731.1991684577527
 22
89.11340979675927
 32
0.0
 13
731.5855651856022
 23
89.11340979675927
 33
0.0
  0
SOLID
  5
146F
330
1F
100
AcDbEntity
  8
LOGO
 62
     5
100
AcDbTrace
 10
723.6643936250015
 20
91.31587114550541
 30
0.0
 11
724.0507903528524
 21
91.31587114550541
 31
0.0
 12
723.6643936250015
 22
91.62498852778607
 32
0.0
 13
724.0507903528524
 23
91.62498852778607
 33
0.0
  0
SOLID
  5
1470
330
1F
100
AcDbEntity
  8
LOGO
 62
     5
100
AcDbTrace
 10
723.6643936250015
 20
91.04539343601048
 30
0.0
 11
724.0507903528524
 21
91.04539343601048
 31
0.0
 12
723.6643936250015
 22
89.11340979675927
 32
0.0
 13
724.0507903528524
 23
89.11340979676015
 33
0.0
  0
SOLID
  5
1471
330
1F
100
AcDbEntity
  8
LOGO
 62
     5
100
AcDbTrace
 10
727.4640258483161
 20
92.97737707526149
 30
0.0
 11
728.5845763590815
 21
92.97737707526149
 31
0.0
 12
727.4640258483161
 22
98.64452908373005
 32
0.0
 13
728.5845763590815
 23
102.7532142898703
 33
0.0
  0
SOLID
  5
1472
330
1F
100
AcDbEntity
  8
LOGO
 62
     5
100
AcDbTrace
 10
729.048252432502
 20
103.6032870911404
 30
0.0
 11
730.1688029432674
 21
103.6032870911413
 31
0.0
 12
729.048252432502
 22
93.82744987653154
 32
0.0
 13
730.1688029432674
 23
97.93613508267185
 33
0.0
  0
SOLID
  5
1473
330
1F
100
AcDbEntity
  8
LOGO
 62
     2
100
AcDbTrace
 10
728.5845763590815
 20
103.6032870911404
 30
0.0
 11
729.048252432502
 21
103.6032870911404
 31
0.0
 12
728.5845763590815
 22
92.97737707526149
 32
0.0
 13
729.048252432502
 23
92.97737707526149
 33
0.0
  0
SOLID
  5
1474
330
1F
100
AcDbEntity
  8
LOGO
 62
     5
100
AcDbTrace
 10
729.048252432502
 20
93.82744987653154
 30
0.0
 11
730.1688029432674
 21
97.93613508267185
 31
0.0
 12
734.3805272768338
 22
103.6032870911413
 32
0.0
 13
733.2599767660684
 23
103.6032870911413
 33
0.0
  0
SOLID
  5
1475
330
1F
100
AcDbEntity
  8
LOGO
 62
     5
100
AcDbTrace
 10
729.048252432502
 20
92.97737707526149
 30
0.0
 11
730.1688029432674
 21
92.97737707526149
 31
0.0
 12
734.3805272768338
 22
102.7532142898703
 32
0.0
 13
733.2599767660684
 23
98.64452908373005
 33
0.0
  0
SOLID
  5
1476
330
1F
100
AcDbEntity
  8
LOGO
 62
     2
100
AcDbTrace
 10
728.5845763590815
 20
92.97737707526149
 30
0.0
 11
729.048252432502
 21
92.97737707526149
 31
0.0
 12
734.3805272768338
 22
103.6032870911413
 32
0.0
 13
734.8442033502545
 23
103.6032870911404
 33
0.0
  0
TEXT
  5
1477
330
1F
100
AcDbEntity
  8
0
100
AcDbText
 10
777.1021918291499
 20
79.68140527433888
 30
0.0
 40
2.161067039999999
  1
1050525
 41
0.8
  7
CHINESET
 72
     1
 11
782.453405452007
 21
79.68140527433888
 31
0.0
100
AcDbText
  0
LINE
  5
1478
330
1F
100
AcDbEntity
  8
LOGO
 62
     1
100
AcDbLine
 10
789.1211892003895
 20
83.48592054498295
 30
0.0
 11
789.1211892003898
 21
78.30267116941721
 31
0.0
  0
LINE
  5
1479
330
1F
100
AcDbEntity
  8
LOGO
 62
     1
100
AcDbLine
 10
789.1211892003895
 20
83.48592054498295
 30
0.0
 11
775.9949658557975
 21
83.48592054498295
 31
0.0
  0
LWPOLYLINE
  5
14B8
330
1F
100
AcDbEntity
  8
0
 62
     1
100
AcDbPolyline
 90
        4
 70
     1
 43
0.0
 10
718.979222724576
 20
104.2189180472453
 10
1212.413351906489
 20
104.2189180472453
 10
1212.413351906489
 20
78.30267116941719
 10
718.979222724576
 20
78.30267116941719
1001
GENIUS_GENREC_14
1002
{
1000
PYDIR
1011
718.979222724576
1021
78.30267116941719
1031
0.0
1002
}
1002
{
1000
PXDIR
1011
1212.413351906489
1021
104.2189180472453
1031
0.0
1002
}
1002
{
1000
PORI
1011
718.979222724576
1021
104.2189180472453
1031
0.0
1002
}
1002
{
1000
PINS
1011
718.979222724576
1021
104.2189180472453
1031
0.0
1002
}
1002
{
1000
PINS2
1011
1212.413351906489
1021
78.30267116941719
1031
0.0
1002
}
1002
{
1000
C
1070
     1
1002
}
1001
GENIUS_GENOBJ-N-REC_13
1002
{
1000
OWNER
1000
GEN
1002
}
1001
GENIUS_GENODEF_13
1002
{
1000
HIER
1070
     0
1002
}
1002
{
1000
MANEDIT
1070
     0
1002
}
1002
{
1000
NOSEL
1070
     0
1002
}
1002
{
1000
BEHIND
1070
     0
1002
}
1002
{
1000
OTHER
1070
     0
1002
}
1002
{
1000
REACTOR
1002
}
  0
LINE
  5
17AD
330
1F
100
AcDbEntity
  8
center
  6
CENTER
100
AcDbLine
 10
922.2007113545325
 20
126.9724460493347
 30
0.0
 11
922.2007113545325
 21
270.8486503644106
 31
0.0
  0
LINE
  5
17B2
330
1F
100
AcDbEntity
  8
0
100
AcDbLine
 10
783.5075569208693
 20
255.3659477151848
 30
0.0
 11
815.5773559142742
 21
255.3659477151848
 31
0.0
  0
LINE
  5
17B3
330
1F
100
AcDbEntity
  8
0
100
AcDbLine
 10
783.5075569208692
 20
255.3659477151848
 30
0.0
 11
784.5424564175716
 21
256.3653385422039
 31
0.0
  0
LINE
  5
17B4
330
1F
100
AcDbEntity
  8
0
100
AcDbLine
 10
815.5773559142742
 20
255.3659477151848
 30
0.0
 11
814.5424564175716
 21
256.365338542204
 31
0.0
  0
ARC
  5
17B5
330
1F
100
AcDbEntity
  8
0
100
AcDbCircle
 10
771.0424564175716
 20
244.8653385422039
 30
0.0
 40
0.5
100
AcDbArc
 50
90.0
 51
180.0
  0
ARC
  5
17B6
330
1F
100
AcDbEntity
  8
0
100
AcDbCircle
 10
771.0424564175716
 20
219.865338542204
 30
0.0
 40
0.5
100
AcDbArc
 50
180.0
 51
270.0
  0
ARC
  5
17B7
330
1F
100
AcDbEntity
  8
0
100
AcDbCircle
 10
828.0424564175715
 20
219.8653385422039
 30
0.0
 40
0.5
100
AcDbArc
 50
270.0
 51
0.0
  0
ARC
  5
17B8
102
{ACAD_REACTORS
330
209C
102
}
330
1F
100
AcDbEntity
  8
0
100
AcDbCircle
 10
828.0424564175715
 20
244.865338542204
 30
0.0
 40
0.5
100
AcDbArc
 50
0.0
 51
90.0
  0
CIRCLE
  5
17BC
330
1F
100
AcDbEntity
  8
0
100
AcDbCircle
 10
799.5424564175716
 20
232.365338542204
 30
0.0
 40
9.099999999999999
  0
LINE
  5
17BD
330
1F
100
AcDbEntity
  8
0
100
AcDbLine
 10
813.5424564175716
 20
221.365338542204
 30
0.0
 11
817.5424564175717
 21
225.365338542204
 31
0.0
  0
LINE
  5
17BE
330
1F
100
AcDbEntity
  8
0
100
AcDbLine
 10
781.5424564175716
 20
225.3653385422039
 30
0.0
 11
785.5424564175716
 21
221.3653385422039
 31
0.0
  0
LINE
  5
17BF
330
1F
100
AcDbEntity
  8
0
100
AcDbLine
 10
781.5424564175716
 20
239.365338542204
 30
0.0
 11
785.5424564175716
 21
243.365338542204
 31
0.0
  0
LINE
  5
17C0
330
1F
100
AcDbEntity
  8
0
100
AcDbLine
 10
817.5424564175717
 20
239.3653385422039
 30
0.0
 11
813.5424564175716
 21
243.3653385422039
 31
0.0
  0
LINE
  5
17C5
330
1F
100
AcDbEntity
  8
0
100
AcDbLine
 10
817.5424564175717
 20
225.365338542204
 30
0.0
 11
817.5424564175717
 21
239.3653385422039
 31
0.0
  0
LINE
  5
17C6
330
1F
100
AcDbEntity
  8
0
100
AcDbLine
 10
781.5424564175716
 20
225.3653385422039
 30
0.0
 11
781.5424564175716
 21
239.365338542204
 31
0.0
  0
LINE
  5
17C7
330
1F
100
AcDbEntity
  8
0
100
AcDbLine
 10
813.5424564175716
 20
221.365338542204
 30
0.0
 11
785.5424564175716
 21
221.3653385422039
 31
0.0
  0
LINE
  5
17C8
330
1F
100
AcDbEntity
  8
0
100
AcDbLine
 10
813.5424564175716
 20
243.3653385422039
 30
0.0
 11
785.5424564175716
 21
243.365338542204
 31
0.0
  0
LINE
  5
17C9
330
1F
100
AcDbEntity
  8
0
100
AcDbLine
 10
784.5424564175716
 20
256.3653385422039
 30
0.0
 11
814.5424564175716
 21
256.365338542204
 31
0.0
  0
LINE
  5
17CA
102
{ACAD_REACTORS
330
216B
102
}
330
1F
100
AcDbEntity
  8
0
100
AcDbLine
 10
828.0424564175715
 20
219.3653385422039
 30
0.0
 11
771.0424564175716
 21
219.365338542204
 31
0.0
  0
LINE
  5
17CB
102
{ACAD_REACTORS
330
2357
102
}
330
1F
100
AcDbEntity
  8
0
100
AcDbLine
 10
828.0424564175715
 20
245.365338542204
 30
0.0
 11
771.0424564175716
 21
245.3653385422039
 31
0.0
  0
LINE
  5
17CC
330
1F
100
AcDbEntity
  8
0
100
AcDbLine
 10
828.5424564175716
 20
219.8653385422038
 30
0.0
 11
828.5424564175716
 21
244.865338542204
 31
0.0
  0
LINE
  5
17CD
330
1F
100
AcDbEntity
  8
0
100
AcDbLine
 10
770.5424564175716
 20
219.865338542204
 30
0.0
 11
770.5424564175716
 21
244.8653385422038
 31
0.0
  0
LINE
  5
17CE
102
{ACAD_REACTORS
330
2357
102
}
330
1F
100
AcDbEntity
  8
center
  6
CENTER
100
AcDbLine
 10
810.3186745335124
 20
232.3653385422038
 30
0.0
 11
788.2413976869543
 21
232.3653385422038
 31
0.0
  0
LINE
  5
17D6
330
1F
100
AcDbEntity
  8
hidden
  6
DASHED
100
AcDbLine
 10
894.2007113545326
 20
239.0653385422039
 30
0.0
 11
895.2007113545326
 21
238.0653385422039
 31
0.0
  0
LINE
  5
17D7
330
1F
100
AcDbEntity
  8
hidden
  6
DASHED
100
AcDbLine
 10
894.2007113545326
 20
225.6653385422039
 30
0.0
 11
895.2007113545326
 21
226.6653385422039
 31
0.0
  0
LINE
  5
17D8
330
1F
100
AcDbEntity
  8
hidden
  6
DASHED
100
AcDbLine
 10
895.2007113545324
 20
226.6653385422039
 30
0.0
 11
906.2007113545325
 21
227.0494670066131
 31
0.0
  0
LINE
  5
17D9
330
1F
100
AcDbEntity
  8
hidden
  6
DASHED
100
AcDbLine
 10
895.2007113545326
 20
238.0653385422039
 30
0.0
 11
906.2007113545325
 21
237.6812100777946
 31
0.0
  0
LINE
  5
17DA
330
1F
100
AcDbEntity
  8
hidden
  6
DASHED
100
AcDbLine
 10
894.2007113545324
 20
225.6653385422039
 30
0.0
 11
904.2007113545325
 21
226.0145462371214
 31
0.0
  0
LINE
  5
17DB
330
1F
100
AcDbEntity
  8
hidden
  6
DASHED
100
AcDbLine
 10
894.2007113545326
 20
239.0653385422039
 30
0.0
 11
904.2007113545325
 21
238.7161308472864
 31
0.0
  0
LINE
  5
17DC
330
1F
100
AcDbEntity
  8
hidden
  6
DASHED
100
AcDbLine
 10
893.2007113545326
 20
223.2653385422038
 30
0.0
 11
894.2007113545326
 21
223.2653385422038
 31
0.0
  0
LINE
  5
17DD
330
1F
100
AcDbEntity
  8
hidden
  6
DASHED
100
AcDbLine
 10
893.2007113545326
 20
241.4653385422039
 30
0.0
 11
894.2007113545326
 21
241.4653385422039
 31
0.0
  0
LINE
  5
17E0
330
1F
100
AcDbEntity
  8
hidden
  6
DASHED
100
AcDbLine
 10
895.2007113545326
 20
226.6653385422039
 30
0.0
 11
895.2007113545326
 21
238.0653385422039
 31
0.0
  0
LINE
  5
17E1
330
1F
100
AcDbEntity
  8
hidden
  6
DASHED
100
AcDbLine
 10
894.2007113545326
 20
223.2653385422038
 30
0.0
 11
894.2007113545326
 21
241.4653385422039
 31
0.0
  0
LINE
  5
17E2
330
1F
100
AcDbEntity
  8
0
100
AcDbLine
 10
951.2007113545324
 20
219.365338542204
 30
0.0
 11
951.2007113545324
 21
245.3653385422039
 31
0.0
  0
LINE
  5
17E3
330
1F
100
AcDbEntity
  8
0
100
AcDbLine
 10
893.2007113545326
 20
219.3653385422039
 30
0.0
 11
893.2007113545326
 21
245.3653385422039
 31
0.0
  0
LINE
  5
17E4
330
1F
100
AcDbEntity
  8
center
  6
CENTER
100
AcDbLine
 10
891.9730568128489
 20
232.3653385422038
 30
0.0
 11
911.488139014585
 21
232.3653385422038
 31
0.0
  0
LINE
  5
17E5
330
1F
100
AcDbEntity
  8
0
100
AcDbLine
 10
893.2007113545326
 20
219.365338542204
 30
0.0
 11
951.2007113545324
 21
219.365338542204
 31
0.0
  0
LINE
  5
17E6
330
1F
100
AcDbEntity
  8
0
100
AcDbLine
 10
893.2007113545326
 20
245.3653385422039
 30
0.0
 11
951.2007113545324
 21
245.3653385422039
 31
0.0
  0
CIRCLE
  5
17E7
330
1F
100
AcDbEntity
  8
0
100
AcDbCircle
 10
930.2007113545323
 20
227.365338542204
 30
0.0
 40
4.0
  0
LINE
  5
17E8
330
1F
100
AcDbEntity
  8
center
  6
CENTER
100
AcDbLine
 10
930.2007113545325
 20
226.365338542204
 30
0.0
 11
930.2007113545325
 21
228.365338542204
 31
0.0
  0
LINE
  5
17E9
330
1F
100
AcDbEntity
  8
center
  6
CENTER
100
AcDbLine
 10
931.2007113545325
 20
227.365338542204
 30
0.0
 11
929.2007113545324
 21
227.365338542204
 31
0.0
  0
LINE
  5
17EA
330
1F
100
AcDbEntity
  8
center
  6
CENTER
100
AcDbLine
 10
930.2007113545325
 20
225.365338542204
 30
0.0
 11
930.2007113545325
 21
222.365338542204
 31
0.0
  0
LINE
  5
17EB
330
1F
100
AcDbEntity
  8
center
  6
CENTER
100
AcDbLine
 10
930.2007113545325
 20
229.365338542204
 30
0.0
 11
930.2007113545325
 21
232.365338542204
 31
0.0
  0
LINE
  5
17EC
330
1F
100
AcDbEntity
  8
center
  6
CENTER
100
AcDbLine
 10
932.2007113545325
 20
227.365338542204
 30
0.0
 11
935.2007113545324
 21
227.365338542204
 31
0.0
  0
LINE
  5
17ED
330
1F
100
AcDbEntity
  8
center
  6
CENTER
100
AcDbLine
 10
928.2007113545324
 20
227.365338542204
 30
0.0
 11
925.2007113545325
 21
227.365338542204
 31
0.0
  0
ARC
  5
17EE
330
1F
100
AcDbEntity
  8
0
100
AcDbCircle
 10
930.2007113545323
 20
227.365338542204
 30
0.0
 40
8.0
100
AcDbArc
 50
0.0
 51
180.0
  0
LINE
  5
17EF
330
1F
100
AcDbEntity
  8
0
100
AcDbLine
 10
938.2007113545325
 20
227.365338542204
 30
0.0
 11
938.2007113545325
 21
219.365338542204
 31
0.0
  0
LINE
  5
17F0
330
1F
100
AcDbEntity
  8
0
100
AcDbLine
 10
951.2007113545324
 20
159.365338542204
 30
0.0
 11
893.2007113545324
 21
159.365338542204
 31
0.0
  0
ARC
  5
17F5
330
1F
100
AcDbEntity
  8
0
100
AcDbCircle
 10
771.0424564175716
 20
133.8653385422041
 30
0.0
 40
0.5
100
AcDbArc
 50
180.0
 51
270.0
  0
ARC
  5
17F6
330
1F
100
AcDbEntity
  8
0
100
AcDbCircle
 10
771.0424564175716
 20
158.865338542204
 30
0.0
 40
0.5
100
AcDbArc
 50
90.0
 51
180.0
  0
ARC
  5
17F7
102
{ACAD_REACTORS
330
2026
102
}
330
1F
100
AcDbEntity
  8
0
100
AcDbCircle
 10
828.0424564175715
 20
158.8653385422041
 30
0.0
 40
0.5
100
AcDbArc
 50
0.0
 51
90.0
  0
ARC
  5
17F8
102
{ACAD_REACTORS
330
2026
330
20E8
102
}
330
1F
100
AcDbEntity
  8
0
100
AcDbCircle
 10
828.0424564175715
 20
133.865338542204
 30
0.0
 40
0.5
100
AcDbArc
 50
270.0
 51
0.0
  0
CIRCLE
  5
17FC
330
1F
100
AcDbEntity
  8
0
100
AcDbCircle
 10
799.5424564175716
 20
146.365338542204
 30
0.0
 40
9.099999999999999
  0
LINE
  5
17FD
330
1F
100
AcDbEntity
  8
0
100
AcDbLine
 10
813.5424564175716
 20
157.365338542204
 30
0.0
 11
817.5424564175717
 21
153.365338542204
 31
0.0
  0
LINE
  5
17FE
330
1F
100
AcDbEntity
  8
0
100
AcDbLine
 10
781.5424564175717
 20
153.3653385422041
 30
0.0
 11
785.5424564175717
 21
157.3653385422041
 31
0.0
  0
LINE
  5
17FF
330
1F
100
AcDbEntity
  8
0
100
AcDbLine
 10
781.5424564175717
 20
139.3653385422039
 30
0.0
 11
785.5424564175717
 21
135.365338542204
 31
0.0
  0
LINE
  5
1800
330
1F
100
AcDbEntity
  8
0
100
AcDbLine
 10
817.5424564175717
 20
139.3653385422041
 30
0.0
 11
813.5424564175718
 21
135.3653385422041
 31
0.0
  0
LINE
  5
1801
330
1F
100
AcDbEntity
  8
0
100
AcDbLine
 10
817.5424564175717
 20
153.365338542204
 30
0.0
 11
817.5424564175717
 21
139.3653385422041
 31
0.0
  0
LINE
  5
1802
330
1F
100
AcDbEntity
  8
0
100
AcDbLine
 10
781.5424564175717
 20
153.3653385422041
 30
0.0
 11
781.5424564175717
 21
139.3653385422039
 31
0.0
  0
LINE
  5
1803
330
1F
100
AcDbEntity
  8
0
100
AcDbLine
 10
813.5424564175716
 20
157.365338542204
 30
0.0
 11
785.5424564175717
 21
157.3653385422041
 31
0.0
  0
LINE
  5
1804
330
1F
100
AcDbEntity
  8
0
100
AcDbLine
 10
813.5424564175718
 20
135.3653385422041
 30
0.0
 11
785.5424564175717
 21
135.365338542204
 31
0.0
  0
LINE
  5
1807
102
{ACAD_REACTORS
330
2026
102
}
330
1F
100
AcDbEntity
  8
0
100
AcDbLine
 10
828.0424564175717
 20
159.3653385422041
 30
0.0
 11
771.0424564175718
 21
159.365338542204
 31
0.0
  0
LINE
  5
1808
102
{ACAD_REACTORS
330
2026
102
}
330
1F
100
AcDbEntity
  8
0
100
AcDbLine
 10
828.0424564175717
 20
133.365338542204
 30
0.0
 11
771.0424564175718
 21
133.3653385422041
 31
0.0
  0
LINE
  5
1809
330
1F
100
AcDbEntity
  8
0
100
AcDbLine
 10
828.5424564175718
 20
158.865338542204
 30
0.0
 11
828.5424564175718
 21
133.8653385422039
 31
0.0
  0
LINE
  5
180A
330
1F
100
AcDbEntity
  8
0
100
AcDbLine
 10
770.5424564175717
 20
158.8653385422039
 30
0.0
 11
770.5424564175717
 21
133.8653385422041
 31
0.0
  0
LINE
  5
180B
102
{ACAD_REACTORS
330
1FF3
102
}
330
1F
100
AcDbEntity
  8
center
  6
CENTER
100
AcDbLine
 10
810.1757273501275
 20
146.365338542204
 30
0.0
 11
787.9359398967936
 21
146.365338542204
 31
0.0
  0
LINE
  5
1813
330
1F
100
AcDbEntity
  8
hidden
  6
DASHED
100
AcDbLine
 10
894.2007113545324
 20
139.6653385422039
 30
0.0
 11
895.2007113545324
 21
140.665338542204
 31
0.0
  0
LINE
  5
1814
330
1F
100
AcDbEntity
  8
hidden
  6
DASHED
100
AcDbLine
 10
894.2007113545324
 20
153.0653385422039
 30
0.0
 11
895.2007113545324
 21
152.0653385422039
 31
0.0
  0
LINE
  5
1815
330
1F
100
AcDbEntity
  8
hidden
  6
DASHED
100
AcDbLine
 10
895.2007113545324
 20
152.0653385422039
 30
0.0
 11
906.2007113545325
 21
151.6812100777947
 31
0.0
  0
LINE
  5
1816
330
1F
100
AcDbEntity
  8
hidden
  6
DASHED
100
AcDbLine
 10
895.2007113545324
 20
140.665338542204
 30
0.0
 11
906.2007113545325
 21
141.0494670066132
 31
0.0
  0
LINE
  5
1817
330
1F
100
AcDbEntity
  8
hidden
  6
DASHED
100
AcDbLine
 10
894.2007113545324
 20
153.0653385422039
 30
0.0
 11
904.2007113545324
 21
152.7161308472865
 31
0.0
  0
LINE
  5
1818
330
1F
100
AcDbEntity
  8
hidden
  6
DASHED
100
AcDbLine
 10
894.2007113545324
 20
139.665338542204
 30
0.0
 11
904.2007113545324
 21
140.0145462371214
 31
0.0
  0
LINE
  5
1819
330
1F
100
AcDbEntity
  8
hidden
  6
DASHED
100
AcDbLine
 10
893.2007113545324
 20
155.465338542204
 30
0.0
 11
894.2007113545324
 21
155.465338542204
 31
0.0
  0
LINE
  5
181A
330
1F
100
AcDbEntity
  8
hidden
  6
DASHED
100
AcDbLine
 10
893.2007113545324
 20
137.2653385422039
 30
0.0
 11
894.2007113545324
 21
137.2653385422039
 31
0.0
  0
LINE
  5
181D
330
1F
100
AcDbEntity
  8
hidden
  6
DASHED
100
AcDbLine
 10
895.2007113545324
 20
152.0653385422039
 30
0.0
 11
895.2007113545324
 21
140.665338542204
 31
0.0
  0
LINE
  5
181E
330
1F
100
AcDbEntity
  8
hidden
  6
DASHED
100
AcDbLine
 10
894.2007113545324
 20
155.465338542204
 30
0.0
 11
894.2007113545324
 21
137.2653385422039
 31
0.0
  0
LINE
  5
181F
330
1F
100
AcDbEntity
  8
0
100
AcDbLine
 10
951.2007113545324
 20
159.3653385422038
 30
0.0
 11
951.2007113545324
 21
133.365338542204
 31
0.0
  0
LINE
  5
1820
330
1F
100
AcDbEntity
  8
0
100
AcDbLine
 10
893.2007113545324
 20
159.365338542204
 30
0.0
 11
893.2007113545324
 21
133.3653385422041
 31
0.0
  0
LINE
  5
1821
330
1F
100
AcDbEntity
  8
center
  6
CENTER
100
AcDbLine
 10
891.9730568128489
 20
146.3653385422039
 30
0.0
 11
913.2849040126144
 21
146.3653385422039
 31
0.0
  0
LINE
  5
1822
330
1F
100
AcDbEntity
  8
0
100
AcDbLine
 10
893.2007113545324
 20
133.3653385422038
 30
0.0
 11
951.2007113545324
 21
133.365338542204
 31
0.0
  0
ARC
  5
1823
330
1F
100
AcDbEntity
  8
0
100
AcDbCircle
 10
930.2007113545323
 20
151.3653385422039
 30
0.0
 40
8.0
100
AcDbArc
 50
180.0
 51
0.0
  0
LINE
  5
1824
330
1F
100
AcDbEntity
  8
center
  6
CENTER
100
AcDbLine
 10
932.2007113545325
 20
151.3653385422038
 30
0.0
 11
935.2007113545324
 21
151.3653385422038
 31
0.0
  0
LINE
  5
1825
330
1F
100
AcDbEntity
  8
0
100
AcDbLine
 10
938.2007113545325
 20
151.3653385422038
 30
0.0
 11
938.2007113545325
 21
159.3653385422038
 31
0.0
  0
CIRCLE
  5
1826
330
1F
100
AcDbEntity
  8
0
100
AcDbCircle
 10
930.2007113545323
 20
151.3653385422039
 30
0.0
 40
4.0
  0
LINE
  5
1827
330
1F
100
AcDbEntity
  8
center
  6
CENTER
100
AcDbLine
 10
930.2007113545325
 20
153.3653385422038
 30
0.0
 11
930.2007113545325
 21
156.3653385422038
 31
0.0
  0
LINE
  5
1828
330
1F
100
AcDbEntity
  8
center
  6
CENTER
100
AcDbLine
 10
930.2007113545325
 20
149.3653385422038
 30
0.0
 11
930.2007113545325
 21
146.3653385422038
 31
0.0
  0
LINE
  5
1829
330
1F
100
AcDbEntity
  8
center
  6
CENTER
100
AcDbLine
 10
931.2007113545325
 20
151.3653385422038
 30
0.0
 11
929.2007113545324
 21
151.3653385422038
 31
0.0
  0
LINE
  5
182A
330
1F
100
AcDbEntity
  8
center
  6
CENTER
100
AcDbLine
 10
930.2007113545325
 20
152.3653385422038
 30
0.0
 11
930.2007113545325
 21
150.3653385422038
 31
0.0
  0
LINE
  5
182B
330
1F
100
AcDbEntity
  8
center
  6
CENTER
100
AcDbLine
 10
928.2007113545324
 20
151.3653385422038
 30
0.0
 11
925.2007113545325
 21
151.3653385422038
 31
0.0
  0
LINE
  5
182C
330
1F
100
AcDbEntity
  8
0
100
AcDbLine
 10
900.2007113545325
 20
159.365338542204
 30
0.0
 11
900.2007113545325
 21
219.365338542204
 31
0.0
  0
LINE
  5
182D
330
1F
100
AcDbEntity
  8
0
100
AcDbLine
 10
944.2007113545324
 20
159.365338542204
 30
0.0
 11
944.2007113545324
 21
219.365338542204
 31
0.0
  0
LINE
  5
182E
330
1F
100
AcDbEntity
  8
0
100
AcDbLine
 10
777.5424564175717
 20
159.3653385422041
 30
0.0
 11
777.5424564175717
 21
219.365338542204
 31
0.0
  0
LINE
  5
182F
330
1F
100
AcDbEntity
  8
0
100
AcDbLine
 10
821.5424564175718
 20
159.3653385422041
 30
0.0
 11
821.5424564175718
 21
219.3653385422039
 31
0.0
  0
LINE
  5
1859
330
1F
100
AcDbEntity
  8
0
100
AcDbLine
 10
783.5075569208692
 20
255.3659477151848
 30
0.0
 11
783.5075569208692
 21
245.3653385422039
 31
0.0
  0
LINE
  5
185A
330
1F
100
AcDbEntity
  8
0
100
AcDbLine
 10
815.5773559142742
 20
255.3659477151848
 30
0.0
 11
815.5773559142742
 21
245.365338542204
 31
0.0
  0
LINE
  5
185B
330
1F
100
AcDbEntity
  8
0
100
AcDbLine
 10
906.16581185783
 20
255.3659477151847
 30
0.0
 11
938.2356108512349
 21
255.3659477151847
 31
0.0
  0
LINE
  5
185C
330
1F
100
AcDbEntity
  8
0
100
AcDbLine
 10
907.2007113545325
 20
256.3653385422039
 30
0.0
 11
937.2007113545324
 21
256.3653385422039
 31
0.0
  0
LINE
  5
185D
330
1F
100
AcDbEntity
  8
0
100
AcDbLine
 10
938.2356108512349
 20
255.3659477151847
 30
0.0
 11
938.235610851235
 21
245.3653385422039
 31
0.0
  0
LINE
  5
185E
330
1F
100
AcDbEntity
  8
0
100
AcDbLine
 10
938.2356108512349
 20
255.3659477151847
 30
0.0
 11
937.2007113545324
 21
256.3653385422039
 31
0.0
  0
LINE
  5
185F
330
1F
100
AcDbEntity
  8
0
100
AcDbLine
 10
906.1658118578298
 20
255.3659477151847
 30
0.0
 11
906.1658118578298
 21
245.3653385422039
 31
0.0
  0
LINE
  5
1860
330
1F
100
AcDbEntity
  8
0
100
AcDbLine
 10
906.1658118578298
 20
255.3659477151847
 30
0.0
 11
907.2007113545325
 21
256.3653385422039
 31
0.0
  0
LINE
  5
1861
330
1F
100
AcDbEntity
  8
0
100
AcDbLine
 10
905.8864457018961
 20
131.364729369223
 30
0.0
 11
938.514977007169
 21
131.364729369223
 31
0.0
  0
LINE
  5
1862
330
1F
100
AcDbEntity
  8
0
100
AcDbLine
 10
937.4800775104665
 20
130.3653385422038
 30
0.0
 11
906.9213451985985
 21
130.3653385422038
 31
0.0
  0
LINE
  5
1863
330
1F
100
AcDbEntity
  8
0
100
AcDbLine
 10
938.514977007169
 20
131.364729369223
 30
0.0
 11
937.4800775104665
 21
130.3653385422038
 31
0.0
  0
LINE
  5
1864
330
1F
100
AcDbEntity
  8
0
100
AcDbLine
 10
938.5848398189416
 20
133.3653385422038
 30
0.0
 11
938.514977007169
 21
131.364729369223
 31
0.0
  0
LINE
  5
1865
330
1F
100
AcDbEntity
  8
0
100
AcDbLine
 10
905.8864457018961
 20
131.364729369223
 30
0.0
 11
906.9213451985985
 21
130.3653385422038
 31
0.0
  0
LINE
  5
1866
330
1F
100
AcDbEntity
  8
0
100
AcDbLine
 10
905.8165828901232
 20
133.3653385422038
 30
0.0
 11
905.8864457018961
 21
131.364729369223
 31
0.0
  0
LINE
  5
1867
330
1F
100
AcDbEntity
  8
center
  6
CENTER
100
AcDbLine
 10
799.5424564175717
 20
126.9724460493348
 30
0.0
 11
799.5424564175717
 21
270.8486503644107
 31
0.0
  0
ARC
  5
186A
330
1F
100
AcDbEntity
  8
0
100
AcDbCircle
 10
814.4176673454753
 20
320.1883346814796
 30
0.0
 40
1.5
100
AcDbArc
 50
148.2129803601607
 51
225.0
  0
ARC
  5
186B
330
1F
100
AcDbEntity
  8
0
100
AcDbCircle
 10
784.6672454896687
 20
320.1883346814796
 30
0.0
 40
1.5
100
AcDbArc
 50
315.0
 51
31.7870196398392
  0
ARC
  5
186C
330
1F
100
AcDbEntity
  8
0
100
AcDbCircle
 10
775.0424564175717
 20
319.9066913598902
 30
0.0
 40
2.0
100
AcDbArc
 50
351.7867892982633
 51
98.21321070173615
  0
ARC
  5
186D
330
1F
100
AcDbEntity
  8
0
100
AcDbCircle
 10
824.042456417572
 20
319.9066913598902
 30
0.0
 40
2.0
100
AcDbArc
 50
81.78678929826386
 51
188.2132107017366
  0
CIRCLE
  5
186F
330
1F
100
AcDbEntity
  8
0
100
AcDbCircle
 10
799.5424564175717
 20
329.4066913598903
 30
0.0
 40
16.0
  0
LINE
  5
1870
330
1F
100
AcDbEntity
  8
0
100
AcDbLine
 10
828.5424564175718
 20
304.4066913598904
 30
0.0
 11
828.542456417572
 21
354.4066913598904
 31
0.0
  0
LINE
  5
1871
330
1F
100
AcDbEntity
  8
0
100
AcDbLine
 10
770.542456417572
 20
304.4066913598904
 30
0.0
 11
770.5424564175717
 21
354.4066913598903
 31
0.0
  0
LINE
  5
1872
102
{ACAD_REACTORS
330
21FA
102
}
330
1F
100
AcDbEntity
  8
center
  6
CENTER
100
AcDbLine
 10
799.5424564175717
 20
298.8929927297533
 30
0.0
 11
799.5424564175717
 21
360.8450475242739
 31
0.0
  0
LINE
  5
1873
330
1F
100
AcDbEntity
  8
center
  6
CENTER
100
AcDbLine
 10
831.3465744678236
 20
329.4066913598903
 30
0.0
 11
768.4955792732783
 21
329.4066913598903
 31
0.0
  0
ARC
  5
1874
330
1F
100
AcDbEntity
  8
0
100
AcDbCircle
 10
805.5783548024338
 20
354.4066913598904
 30
0.0
 40
1.5
100
AcDbArc
 50
351.7867892982633
 51
90.0
  0
LINE
  5
1875
102
{ACAD_REACTORS
330
2465
102
}
330
1F
100
AcDbEntity
  8
0
100
AcDbLine
 10
824.5424564175719
 20
358.4066913598904
 30
0.0
 11
774.5424564175717
 21
358.4066913598903
 31
0.0
  0
ARC
  5
1876
330
1F
100
AcDbEntity
  8
0
100
AcDbCircle
 10
819.7924564175719
 20
349.6566913598903
 30
0.0
 40
9.099999999999999
100
AcDbArc
 50
195.9423686056324
 51
254.0576313943706
  0
LINE
  5
1878
102
{ACAD_REACTORS
330
243F
102
}
330
1F
100
AcDbEntity
  8
center
  6
CENTER
100
AcDbLine
 10
826.8924564175721
 20
349.6566913598903
 30
0.0
 11
812.6924564175716
 21
349.6566913598903
 31
0.0
  0
CIRCLE
  5
1879
330
1F
100
AcDbEntity
  8
0
100
AcDbCircle
 10
819.7924564175718
 20
349.6566913598903
 30
0.0
 40
7.099999999999999
  0
ARC
  5
187A
102
{ACAD_REACTORS
330
2465
102
}
330
1F
100
AcDbEntity
  8
0
100
AcDbCircle
 10
824.5424564175717
 20
354.4066913598903
 30
0.0
 40
4.0
100
AcDbArc
 50
0.0
 51
90.0
  0
ARC
  5
187B
330
1F
100
AcDbEntity
  8
0
100
AcDbCircle
 10
809.0424564175719
 20
353.9066913598905
 30
0.0
 40
2.0
100
AcDbArc
 50
171.7867892982633
 51
278.2132107017361
  0
ARC
  5
187C
330
1F
100
AcDbEntity
  8
0
100
AcDbCircle
 10
809.542456417572
 20
350.4425897447525
 30
0.0
 40
1.5
100
AcDbArc
 50
0.0
 51
98.21321070173615
  0
LINE
  5
187D
330
1F
100
AcDbEntity
  8
center
  6
CENTER
100
AcDbLine
 10
819.7924564175719
 20
356.7566913598907
 30
0.0
 11
819.7924564175719
 21
342.5566913598899
 31
0.0
  0
LINE
  5
187E
330
1F
100
AcDbEntity
  8
0
100
AcDbLine
 10
811.0424564175719
 20
347.1571914099015
 30
0.0
 11
811.0424564175719
 21
350.4425897447525
 31
0.0
  0
LINE
  5
187F
330
1F
100
AcDbEntity
  8
0
100
AcDbLine
 10
811.0835105517953
 20
344.4832794000465
 30
0.0
 11
809.8214732677631
 21
343.2212421160143
 31
0.0
  0
ARC
  5
1880
330
1F
100
AcDbEntity
  8
0
100
AcDbCircle
 10
810.0228478371944
 20
345.5439370290051
 30
0.0
 40
1.5
100
AcDbArc
 50
315.0
 51
22.82984283646102
  0
ARC
  5
1881
330
1F
100
AcDbEntity
  8
0
100
AcDbCircle
 10
808.7608130959834
 20
344.2819022877941
 30
0.0
 40
1.5
100
AcDbArc
 50
238.212980360159
 51
315.0
  0
LINE
  5
1882
330
1F
100
AcDbEntity
  8
0
  6
Continuous
100
AcDbLine
 10
824.5424564175717
 20
330.9066913598904
 30
0.0
 11
816.7833960671384
 21
330.9066913598904
 31
0.0
  0
ARC
  5
1883
330
1F
100
AcDbEntity
  8
0
100
AcDbCircle
 10
820.578354802434
 20
339.4066913598904
 30
0.0
 40
1.5
100
AcDbArc
 50
351.7867892982633
 51
90.0
  0
ARC
  5
1884
330
1F
100
AcDbEntity
  8
0
100
AcDbCircle
 10
824.042456417572
 20
338.9066913598904
 30
0.0
 40
2.0
100
AcDbArc
 50
171.7867892982633
 51
278.2132107017361
  0
ARC
  5
1885
330
1F
100
AcDbEntity
  8
0
100
AcDbCircle
 10
824.5424564175717
 20
329.4066913598903
 30
0.0
 40
1.5
100
AcDbArc
 50
0.0
 51
90.0
  0
LINE
  5
1886
330
1F
100
AcDbEntity
  8
0
100
AcDbLine
 10
826.0424564175718
 20
323.3707929750285
 30
0.0
 11
826.0424564175718
 21
335.4425897447521
 31
0.0
  0
ARC
  5
1887
330
1F
100
AcDbEntity
  8
0
100
AcDbCircle
 10
824.5424564175719
 20
335.4425897447522
 30
0.0
 40
1.5
100
AcDbArc
 50
0.0
 51
98.21321070173615
  0
ARC
  5
1888
330
1F
100
AcDbEntity
  8
0
100
AcDbCircle
 10
824.5424564175719
 20
323.3707929750285
 30
0.0
 40
1.5
100
AcDbArc
 50
261.7867892982638
 51
0.0
  0
LINE
  5
1889
330
1F
100
AcDbEntity
  8
0
100
AcDbLine
 10
814.6190419149069
 20
340.9477429512928
 30
0.0
 11
813.3570071736953
 21
339.6857082100809
 31
0.0
  0
LINE
  5
188A
330
1F
100
AcDbEntity
  8
0
100
AcDbLine
 10
817.2929564675813
 20
340.9066913598902
 30
0.0
 11
820.5783566702576
 21
340.9066913598902
 31
0.0
  0
ARC
  5
188B
330
1F
100
AcDbEntity
  8
0
100
AcDbCircle
 10
815.6797020866866
 20
339.8870827795129
 30
0.0
 40
1.5
100
AcDbArc
 50
67.17015716354265
 51
135.0
  0
ARC
  5
188C
330
1F
100
AcDbEntity
  8
0
100
AcDbCircle
 10
814.4176673454753
 20
338.625048038301
 30
0.0
 40
1.5
100
AcDbArc
 50
135.0
 51
211.7870196398392
  0
ARC
  5
188D
330
1F
100
AcDbEntity
  8
0
100
AcDbCircle
 10
816.7833960671384
 20
329.4066913598903
 30
0.0
 40
1.5
100
AcDbArc
 50
90.0
 51
147.2481395255847
  0
LINE
  5
188E
330
1F
100
AcDbEntity
  8
0
  6
Continuous
100
AcDbLine
 10
782.042456417572
 20
327.9066913598903
 30
0.0
 11
774.5424564175717
 21
327.9066913598903
 31
0.0
  0
ARC
  5
1890
330
1F
100
AcDbEntity
  8
0
100
AcDbCircle
 10
775.0424564175717
 20
338.9066913598904
 30
0.0
 40
2.0
100
AcDbArc
 50
261.7867892982638
 51
8.213210701736706
  0
LINE
  5
1891
330
1F
100
AcDbEntity
  8
center
  6
CENTER
100
AcDbLine
 10
786.3924564175712
 20
349.6566913598903
 30
0.0
 11
772.1924564175723
 21
349.6566913598903
 31
0.0
  0
CIRCLE
  5
1892
330
1F
100
AcDbEntity
  8
0
100
AcDbCircle
 10
779.2924564175717
 20
349.6566913598903
 30
0.0
 40
7.099999999999999
  0
ARC
  5
1893
330
1F
100
AcDbEntity
  8
0
100
AcDbCircle
 10
779.2924564175717
 20
349.6566913598903
 30
0.0
 40
9.099999999999999
100
AcDbArc
 50
285.9423686056294
 51
344.0576313943675
  0
ARC
  5
1894
330
1F
100
AcDbEntity
  8
0
100
AcDbCircle
 10
790.042456417572
 20
353.9066913598905
 30
0.0
 40
2.0
100
AcDbArc
 50
261.7867892982638
 51
8.213210701736706
  0
LINE
  5
1895
330
1F
100
AcDbEntity
  8
0
100
AcDbLine
 10
805.5783537428784
 20
355.9066913598904
 30
0.0
 11
793.5065565271765
 21
355.9066913598904
 31
0.0
  0
LINE
  5
1896
330
1F
100
AcDbEntity
  8
0
100
AcDbLine
 10
799.5424564175717
 20
355.9066913598904
 30
0.0
 11
799.5424564175717
 21
356.3357587271262
 31
0.0
  0
ARC
  5
1897
330
1F
100
AcDbEntity
  8
0
100
AcDbCircle
 10
793.5065580327101
 20
354.4066913598904
 30
0.0
 40
1.5
100
AcDbArc
 50
90.0
 51
188.2132107017366
  0
ARC
  5
1898
330
1F
100
AcDbEntity
  8
0
100
AcDbCircle
 10
789.542456417572
 20
350.4425897447525
 30
0.0
 40
1.5
100
AcDbArc
 50
81.78678929826386
 51
180.0
  0
LINE
  5
1899
330
1F
100
AcDbEntity
  8
center
  6
CENTER
100
AcDbLine
 10
779.2924564175717
 20
356.7566913598904
 30
0.0
 11
779.2924564175717
 21
342.5566913598908
 31
0.0
  0
LINE
  5
189A
330
1F
100
AcDbEntity
  8
0
100
AcDbLine
 10
788.0424564175718
 20
347.1571914099015
 30
0.0
 11
788.0424564175718
 21
350.4425897447525
 31
0.0
  0
ARC
  5
189B
330
1F
100
AcDbEntity
  8
0
100
AcDbCircle
 10
789.0620649979492
 20
345.5439370290051
 30
0.0
 40
1.5
100
AcDbArc
 50
157.1701571635389
 51
225.0
  0
ARC
  5
189C
330
1F
100
AcDbEntity
  8
0
100
AcDbCircle
 10
790.3240997391605
 20
344.2819022877941
 30
0.0
 40
1.5
100
AcDbArc
 50
225.0
 51
301.7870196398411
  0
LINE
  5
189D
330
1F
100
AcDbEntity
  8
0
100
AcDbLine
 10
788.0014022833485
 20
344.4832794000465
 30
0.0
 11
789.2634395673807
 21
343.2212421160143
 31
0.0
  0
ARC
  5
189E
330
1F
100
AcDbEntity
  8
0
100
AcDbCircle
 10
783.4052107484568
 20
339.8870827795129
 30
0.0
 40
1.5
100
AcDbArc
 50
45.0
 51
112.8298428364574
  0
LINE
  5
189F
330
1F
100
AcDbEntity
  8
0
100
AcDbLine
 10
784.4658709202368
 20
340.9477429512928
 30
0.0
 11
785.7279056614485
 21
339.6857082100809
 31
0.0
  0
ARC
  5
18A0
330
1F
100
AcDbEntity
  8
0
100
AcDbCircle
 10
784.6672454896687
 20
338.625048038301
 30
0.0
 40
1.5
100
AcDbArc
 50
328.2129803601607
 51
45.0
  0
LINE
  5
18A1
330
1F
100
AcDbEntity
  8
0
100
AcDbLine
 10
781.7919563675626
 20
340.9066913598902
 30
0.0
 11
778.5065561648863
 21
340.9066913598902
 31
0.0
  0
ARC
  5
18A2
330
1F
100
AcDbEntity
  8
0
100
AcDbCircle
 10
778.5065580327096
 20
339.4066913598904
 30
0.0
 40
1.5
100
AcDbArc
 50
90.0
 51
188.2132107017366
  0
ARC
  5
18A3
330
1F
100
AcDbEntity
  8
0
100
AcDbCircle
 10
782.042456417572
 20
329.4066913598903
 30
0.0
 40
1.5
100
AcDbArc
 50
270.0
 51
0.0
  0
ARC
  5
18A4
330
1F
100
AcDbEntity
  8
0
100
AcDbCircle
 10
774.5424564175717
 20
354.4066913598903
 30
0.0
 40
4.0
100
AcDbArc
 50
90.0
 51
180.0
  0
LINE
  5
18A5
330
1F
100
AcDbEntity
  8
0
100
AcDbLine
 10
773.0424564175717
 20
323.3707893067996
 30
0.0
 11
773.0424564175717
 21
335.4425897447522
 31
0.0
  0
ARC
  5
18A6
330
1F
100
AcDbEntity
  8
0
100
AcDbCircle
 10
774.5424564175717
 20
335.4425897447522
 30
0.0
 40
1.5
100
AcDbArc
 50
81.78678929826386
 51
180.0
  0
ARC
  5
18A7
330
1F
100
AcDbEntity
  8
0
100
AcDbCircle
 10
774.5424564175717
 20
329.4066913598903
 30
0.0
 40
1.5
100
AcDbArc
 50
180.0
 51
270.0
  0
ARC
  5
18A8
330
1F
100
AcDbEntity
  8
0
100
AcDbCircle
 10
774.5424564175717
 20
323.3707929750285
 30
0.0
 40
1.5
100
AcDbArc
 50
180.0
 51
278.2132107017361
  0
LINE
  5
18A9
330
1F
100
AcDbEntity
  8
0
100
AcDbLine
 10
819.5424564175718
 20
300.0566913598904
 30
0.0
 11
779.5424564175718
 21
300.0566913598904
 31
0.0
  0
LINE
  5
18AA
330
1F
100
AcDbEntity
  8
0
100
AcDbLine
 10
809.0424564175718
 20
302.9066913598904
 30
0.0
 11
790.0424564175717
 21
302.9066913598904
 31
0.0
  0
LINE
  5
18AB
330
1F
100
AcDbEntity
  8
0
100
AcDbLine
 10
824.5424564175717
 20
300.4066913598904
 30
0.0
 11
774.542456417572
 21
300.4066913598904
 31
0.0
  0
ARC
  5
18AD
330
1F
100
AcDbEntity
  8
0
100
AcDbCircle
 10
820.578354802434
 20
319.4066913598902
 30
0.0
 40
1.5
100
AcDbArc
 50
270.0
 51
8.213210701736706
  0
LINE
  5
18AE
330
1F
100
AcDbEntity
  8
center
  6
CENTER
100
AcDbLine
 10
826.8924564175712
 20
309.1566913598903
 30
0.0
 11
812.6924564175716
 21
309.1566913598903
 31
0.0
  0
CIRCLE
  5
18AF
330
1F
100
AcDbEntity
  8
0
100
AcDbCircle
 10
819.7924564175718
 20
309.1566913598902
 30
0.0
 40
7.099999999999999
  0
ARC
  5
18B0
102
{ACAD_REACTORS
330
2465
102
}
330
1F
100
AcDbEntity
  8
0
100
AcDbCircle
 10
824.5424564175717
 20
304.4066913598903
 30
0.0
 40
4.0
100
AcDbArc
 50
270.0
 51
0.0
  0
LINE
  5
18B1
330
1F
100
AcDbEntity
  8
0
100
AcDbLine
 10
811.0424564175717
 20
311.656191309879
 30
0.0
 11
811.0424564175719
 21
304.9066913598903
 31
0.0
  0
LINE
  5
18B2
330
1F
100
AcDbEntity
  8
center
  6
CENTER
100
AcDbLine
 10
819.7924564175719
 20
316.2566913598903
 30
0.0
 11
819.7924564175719
 21
302.0566913598905
 31
0.0
  0
LINE
  5
18B3
330
1F
100
AcDbEntity
  8
0
100
AcDbLine
 10
814.6190419149069
 20
317.8656397684879
 30
0.0
 11
813.3570071736951
 21
319.1276745096997
 31
0.0
  0
LINE
  5
18B4
330
1F
100
AcDbEntity
  8
0
100
AcDbLine
 10
817.2929564675811
 20
317.9066913598902
 30
0.0
 11
820.5783566702574
 21
317.9066913598902
 31
0.0
  0
ARC
  5
18B5
330
1F
100
AcDbEntity
  8
0
100
AcDbCircle
 10
815.6797020866866
 20
318.9262999402677
 30
0.0
 40
1.5
100
AcDbArc
 50
225.0
 51
292.8298428364574
  0
LINE
  5
18B6
330
1F
100
AcDbEntity
  8
0
100
AcDbLine
 10
811.0835105517953
 20
314.330103319734
 30
0.0
 11
809.8214732677631
 21
315.5921406037662
 31
0.0
  0
ARC
  5
18B7
330
1F
100
AcDbEntity
  8
0
100
AcDbCircle
 10
808.7608130959834
 20
314.5314804319865
 30
0.0
 40
1.5
100
AcDbArc
 50
45.0
 51
121.7870196398409
  0
ARC
  5
18B8
330
1F
100
AcDbEntity
  8
0
100
AcDbCircle
 10
810.0228478371944
 20
313.2694456907755
 30
0.0
 40
1.5
100
AcDbArc
 50
337.170157163539
 51
45.0
  0
LINE
  5
18B9
330
1F
100
AcDbEntity
  8
0
100
AcDbLine
 10
819.5424564175718
 20
300.0566913598904
 30
0.0
 11
819.5424564175718
 21
300.4066913598904
 31
0.0
  0
ARC
  5
18BA
330
1F
100
AcDbEntity
  8
0
100
AcDbCircle
 10
809.0424564175718
 20
304.9066913598903
 30
0.0
 40
2.0
100
AcDbArc
 50
270.0
 51
0.0
  0
LINE
  5
18BC
330
1F
100
AcDbEntity
  8
center
  6
CENTER
100
AcDbLine
 10
786.3924564175712
 20
309.1566913598903
 30
0.0
 11
772.1924564175714
 21
309.1566913598903
 31
0.0
  0
CIRCLE
  5
18BD
330
1F
100
AcDbEntity
  8
0
100
AcDbCircle
 10
779.2924564175717
 20
309.1566913598902
 30
0.0
 40
7.099999999999999
  0
LINE
  5
18BE
330
1F
100
AcDbEntity
  8
0
100
AcDbLine
 10
788.0424564175718
 20
311.656191309879
 30
0.0
 11
788.0424564175718
 21
304.9066923853675
 31
0.0
  0
LINE
  5
18BF
330
1F
100
AcDbEntity
  8
center
  6
CENTER
100
AcDbLine
 10
779.2924564175717
 20
316.2566913598898
 30
0.0
 11
779.2924564175717
 21
302.0566913598902
 31
0.0
  0
ARC
  5
18C0
330
1F
100
AcDbEntity
  8
0
100
AcDbCircle
 10
783.4052107484568
 20
318.9262999402677
 30
0.0
 40
1.5
100
AcDbArc
 50
247.1701571635426
 51
315.0
  0
LINE
  5
18C1
330
1F
100
AcDbEntity
  8
0
100
AcDbLine
 10
788.0014022833485
 20
314.330103319734
 30
0.0
 11
789.2634395673807
 21
315.5921406037662
 31
0.0
  0
ARC
  5
18C2
330
1F
100
AcDbEntity
  8
0
100
AcDbCircle
 10
790.3240997391605
 20
314.5314804319865
 30
0.0
 40
1.5
100
AcDbArc
 50
58.21298036015903
 51
135.0
  0
LINE
  5
18C3
330
1F
100
AcDbEntity
  8
0
100
AcDbLine
 10
784.4658709202368
 20
317.8656397684879
 30
0.0
 11
785.7279056614485
 21
319.1276745096997
 31
0.0
  0
ARC
  5
18C4
330
1F
100
AcDbEntity
  8
0
100
AcDbCircle
 10
789.0620649979492
 20
313.2694456907755
 30
0.0
 40
1.5
100
AcDbArc
 50
135.0
 51
202.8298428364611
  0
LINE
  5
18C5
330
1F
100
AcDbEntity
  8
0
100
AcDbLine
 10
781.7919563675626
 20
317.9066913598902
 30
0.0
 11
778.5065561648863
 21
317.9066913598902
 31
0.0
  0
ARC
  5
18C6
330
1F
100
AcDbEntity
  8
0
100
AcDbCircle
 10
778.5065580327096
 20
319.4066913598902
 30
0.0
 40
1.5
100
AcDbArc
 50
171.7867892982633
 51
270.0
  0
ARC
  5
18C7
330
1F
100
AcDbEntity
  8
0
100
AcDbCircle
 10
790.0424564175717
 20
304.9066913598903
 30
0.0
 40
2.0
100
AcDbArc
 50
180.0
 51
270.0
  0
LINE
  5
18C8
330
1F
100
AcDbEntity
  8
0
100
AcDbLine
 10
779.5424564175718
 20
300.0566913598904
 30
0.0
 11
779.5424564175718
 21
300.4066913598904
 31
0.0
  0
ARC
  5
18C9
330
1F
100
AcDbEntity
  8
0
100
AcDbCircle
 10
774.5424564175717
 20
304.4066913598904
 30
0.0
 40
4.0
100
AcDbArc
 50
180.0
 51
270.0
  0
LINE
  5
18CF
330
1F
100
AcDbEntity
  8
0
 62
     1
100
AcDbLine
 10
799.5424564175717
 20
130.8653385422041
 30
0.0
 11
799.5424564175717
 21
135.8653385422041
 31
0.0
  0
LINE
  5
1962
330
1F
100
AcDbEntity
  8
0
100
AcDbLine
 10
784.2924564175716
 20
256.3653385422039
 30
0.0
 11
814.7924564175717
 21
256.3653385422039
 31
0.0
  0
LINE
  5
1963
330
1F
100
AcDbEntity
  8
0
100
AcDbLine
 10
789.34135353602
 20
258.3653385422039
 30
0.0
 11
809.7435592991232
 21
258.3653385422039
 31
0.0
  0
LINE
  5
1964
330
1F
100
AcDbEntity
  8
0
100
AcDbLine
 10
784.7924564175716
 20
266.3653385422039
 30
0.0
 11
814.2924564175716
 21
266.3653385422039
 31
0.0
  0
LINE
  5
1965
330
1F
100
AcDbEntity
  8
0
100
AcDbLine
 10
815.2924564175716
 20
265.3653385422039
 30
0.0
 11
815.2924564175716
 21
256.8653385422039
 31
0.0
  0
LINE
  5
1966
330
1F
100
AcDbEntity
  8
0
100
AcDbLine
 10
783.7924564175716
 20
265.3653385422039
 30
0.0
 11
783.7924564175716
 21
256.8653385422039
 31
0.0
  0
LINE
  5
1967
330
1F
100
AcDbEntity
  8
0
100
AcDbLine
 10
809.7435592991232
 20
266.3653385422039
 30
0.0
 11
809.7435592991232
 21
258.3653385422039
 31
0.0
  0
LINE
  5
1968
330
1F
100
AcDbEntity
  8
0
100
AcDbLine
 10
789.3413535360198
 20
266.3653385422039
 30
0.0
 11
789.34135353602
 21
258.3653385422039
 31
0.0
  0
LINE
  5
1969
102
{ACAD_REACTORS
330
2076
102
}
330
1F
100
AcDbEntity
  8
0
100
AcDbLine
 10
814.2924564175716
 20
266.3653385422039
 30
0.0
 11
815.2924564175716
 21
265.3653385422039
 31
0.0
  0
LINE
  5
196A
330
1F
100
AcDbEntity
  8
0
100
AcDbLine
 10
784.7924564175716
 20
266.3653385422039
 30
0.0
 11
783.7924564175716
 21
265.3653385422039
 31
0.0
  0
LINE
  5
196B
330
1F
100
AcDbEntity
  8
0
100
AcDbLine
 10
783.7924564175716
 20
265.3653385422039
 30
0.0
 11
789.3413535360198
 21
265.3653385422039
 31
0.0
  0
LINE
  5
196C
330
1F
100
AcDbEntity
  8
0
100
AcDbLine
 10
809.7435592991232
 20
265.3653385422039
 30
0.0
 11
815.2924564175716
 21
265.3653385422039
 31
0.0
  0
LINE
  5
196D
102
{ACAD_REACTORS
330
209C
102
}
330
1F
100
AcDbEntity
  8
0
100
AcDbLine
 10
814.7924564175717
 20
256.3653385422039
 30
0.0
 11
815.2924564175716
 21
256.8653385422039
 31
0.0
  0
LINE
  5
196E
330
1F
100
AcDbEntity
  8
0
100
AcDbLine
 10
784.2924564175716
 20
256.3653385422039
 30
0.0
 11
783.7924564175716
 21
256.8653385422039
 31
0.0
  0
LINE
  5
196F
330
1F
100
AcDbEntity
  8
0
100
AcDbLine
 10
783.7924564175716
 20
256.8653385422039
 30
0.0
 11
815.2924564175716
 21
256.8653385422039
 31
0.0
  0
LINE
  5
1970
330
1F
100
AcDbEntity
  8
0
  6
CENTER
 62
     1
100
AcDbLine
 10
799.5424564175716
 20
267.9291901308642
 30
0.0
 11
799.5424564175716
 21
251.9909894609782
 31
0.0
  0
CIRCLE
  5
1987
102
{ACAD_REACTORS
330
23E3
102
}
330
1F
100
AcDbEntity
  8
0
100
AcDbCircle
 10
799.5424564175717
 20
329.4066913598902
 30
0.0
 40
15.75
  0
LINE
  5
1989
102
{ACAD_REACTORS
330
23E3
102
}
330
1F
100
AcDbEntity
  8
0
100
AcDbLine
 10
809.7435592991235
 20
341.4066913598901
 30
0.0
 11
789.3413535360202
 21
341.4066913598901
 31
0.0
  0
LINE
  5
198A
102
{ACAD_REACTORS
330
23E3
102
}
330
1F
100
AcDbEntity
  8
0
100
AcDbLine
 10
809.7435592991235
 20
317.4066913598902
 30
0.0
 11
789.3413535360202
 21
317.4066913598902
 31
0.0
  0
ARC
  5
198B
330
1F
100
AcDbEntity
  8
0
100
AcDbCircle
 10
799.5424564175717
 20
329.4066913598902
 30
0.0
 40
14.75
100
AcDbArc
 50
305.5548410152897
 51
54.44515898471028
  0
ARC
  5
198C
330
1F
100
AcDbEntity
  8
0
100
AcDbCircle
 10
799.5424564175717
 20
329.4066913598902
 30
0.0
 40
14.75
100
AcDbArc
 50
125.5548410152897
 51
234.4451589847103
  0
LINE
  5
198E
330
1F
100
AcDbEntity
  8
0
100
AcDbLine
 10
906.9507113545325
 20
256.3653385422039
 30
0.0
 11
937.4507113545325
 21
256.3653385422039
 31
0.0
  0
LINE
  5
198F
330
1F
100
AcDbEntity
  8
0
100
AcDbLine
 10
906.4507113545325
 20
258.3653385422039
 30
0.0
 11
937.9507113545328
 21
258.3653385422039
 31
0.0
  0
LINE
  5
1990
330
1F
100
AcDbEntity
  8
0
100
AcDbLine
 10
910.2007113545321
 20
266.3653385422038
 30
0.0
 11
934.2007113545324
 21
266.3653385422039
 31
0.0
  0
LINE
  5
1991
330
1F
100
AcDbEntity
  8
0
100
AcDbLine
 10
937.9507113545328
 20
258.3653385422039
 30
0.0
 11
937.9507113545324
 21
256.8653385422039
 31
0.0
  0
LINE
  5
1992
330
1F
100
AcDbEntity
  8
0
100
AcDbLine
 10
906.4507113545325
 20
258.3653385422039
 30
0.0
 11
906.4507113545325
 21
256.8653385422039
 31
0.0
  0
LINE
  5
1993
330
1F
100
AcDbEntity
  8
0
100
AcDbLine
 10
934.2007113545324
 20
266.3653385422039
 30
0.0
 11
934.2007113545324
 21
258.3653385422039
 31
0.0
  0
LINE
  5
1994
330
1F
100
AcDbEntity
  8
0
100
AcDbLine
 10
910.2007113545321
 20
266.3653385422038
 30
0.0
 11
910.2007113545324
 21
258.3653385422039
 31
0.0
  0
LINE
  5
1995
330
1F
100
AcDbEntity
  8
0
100
AcDbLine
 10
937.4507113545325
 20
256.3653385422039
 30
0.0
 11
937.9507113545324
 21
256.8653385422039
 31
0.0
  0
LINE
  5
1996
330
1F
100
AcDbEntity
  8
0
100
AcDbLine
 10
906.9507113545325
 20
256.3653385422039
 30
0.0
 11
906.4507113545325
 21
256.8653385422039
 31
0.0
  0
LINE
  5
1997
330
1F
100
AcDbEntity
  8
0
100
AcDbLine
 10
906.4507113545325
 20
256.8653385422039
 30
0.0
 11
937.9507113545324
 21
256.8653385422039
 31
0.0
  0
LINE
  5
1998
330
1F
100
AcDbEntity
  8
0
  6
CENTER
 62
     1
100
AcDbLine
 10
922.2007113545325
 20
267.9291901308642
 30
0.0
 11
922.2007113545325
 21
255.1549239816839
 31
0.0
  0
LINE
  5
1999
330
1F
100
AcDbEntity
  8
0
100
AcDbLine
 10
910.2007113545322
 20
265.3653385422038
 30
0.0
 11
934.2007113545324
 21
265.3653385422038
 31
0.0
  0
LINE
  5
1DFE
330
1F
100
AcDbEntity
  8
0
100
AcDbLine
 10
770.5424564175716
 20
237.3653385422039
 30
0.0
 11
770.5424564175716
 21
227.3653385422039
 31
0.0
  0
LINE
  5
1F86
330
1F
100
AcDbEntity
  8
0
100
AcDbLine
 10
763.6668120705542
 20
227.1691861194971
 30
0.0
 11
770.5424564175716
 21
227.1691861194971
 31
0.0
  0
ARC
  5
1F87
330
1F
100
AcDbEntity
  8
0
100
AcDbCircle
 10
763.6668120705542
 20
226.1691861194972
 30
0.0
 40
1.0
100
AcDbArc
 50
90.0
 51
180.0
  0
LINE
  5
1F88
330
1F
100
AcDbEntity
  8
0
100
AcDbLine
 10
755.2745072251407
 20
237.5614909649105
 30
0.0
 11
770.5424564175716
 21
237.5614909649106
 31
0.0
  0
ARC
  5
1F89
330
1F
100
AcDbEntity
  8
0
100
AcDbCircle
 10
755.2745072251404
 20
234.5614909649106
 30
0.0
 40
3.0
100
AcDbArc
 50
90.0
 51
180.0
  0
LINE
  5
1F8A
330
1F
100
AcDbEntity
  8
0
100
AcDbLine
 10
762.6668120705542
 20
226.1691861194971
 30
0.0
 11
762.6668120705542
 21
223.5614909649106
 31
0.0
  0
LINE
  5
1F8B
330
1F
100
AcDbEntity
  8
0
100
AcDbLine
 10
752.2745072251407
 20
234.5614909649105
 30
0.0
 11
752.2745072251407
 21
223.5614909649106
 31
0.0
  0
LINE
  5
1F8C
330
1F
100
AcDbEntity
  8
0
100
AcDbLine
 10
750.5424564175719
 20
215.5614909649106
 30
0.0
 11
750.5424564175719
 21
221.5614909649106
 31
0.0
  0
LINE
  5
1F8D
330
1F
100
AcDbEntity
  8
0
100
AcDbLine
 10
750.5424564175719
 20
221.5614909649106
 30
0.0
 11
764.3988628781228
 21
221.5614909649106
 31
0.0
  0
LINE
  5
1F8E
330
1F
100
AcDbEntity
  8
0
100
AcDbLine
 10
750.5424564175719
 20
215.5614909649106
 30
0.0
 11
764.398862878123
 21
215.5614909649106
 31
0.0
  0
LINE
  5
1F8F
330
1F
100
AcDbEntity
  8
0
100
AcDbLine
 10
764.398862878123
 20
215.5614909649106
 30
0.0
 11
764.398862878123
 21
221.5614909649106
 31
0.0
  0
LINE
  5
1F90
330
1F
100
AcDbEntity
  8
0
100
AcDbLine
 10
754.0065580327097
 20
216.5614909649106
 30
0.0
 11
754.0065580327097
 21
220.5614909649108
 31
0.0
  0
LINE
  5
1F91
330
1F
100
AcDbEntity
  8
0
100
AcDbLine
 10
760.9347612629851
 20
216.5614909649104
 30
0.0
 11
760.9347612629851
 21
220.561490964911
 31
0.0
  0
LINE
  5
1F92
330
1F
100
AcDbEntity
  8
0
100
AcDbLine
 10
751.4706596478474
 20
213.5614909649106
 30
0.0
 11
763.4706596478475
 21
213.5614909649106
 31
0.0
  0
LINE
  5
1F93
330
1F
100
AcDbEntity
  8
0
100
AcDbLine
 10
763.4706596478475
 20
213.5614909649106
 30
0.0
 11
763.4706596478475
 21
215.5614909649106
 31
0.0
  0
LINE
  5
1F94
330
1F
100
AcDbEntity
  8
0
100
AcDbLine
 10
751.4706596478474
 20
213.5614909649106
 30
0.0
 11
751.4706596478474
 21
215.5614909649106
 31
0.0
  0
LINE
  5
1F95
330
1F
100
AcDbEntity
  8
0
100
AcDbLine
 10
751.4706596478474
 20
223.5614909649106
 30
0.0
 11
763.4706596478475
 21
223.5614909649106
 31
0.0
  0
LINE
  5
1F96
330
1F
100
AcDbEntity
  8
0
100
AcDbLine
 10
763.4706596478475
 20
223.5614909649106
 30
0.0
 11
763.4706596478475
 21
221.5614909649106
 31
0.0
  0
LINE
  5
1F97
330
1F
100
AcDbEntity
  8
0
100
AcDbLine
 10
751.4706596478474
 20
223.5614909649106
 30
0.0
 11
751.4706596478474
 21
221.5614909649106
 31
0.0
  0
ARC
  5
1F98
330
1F
100
AcDbEntity
  8
0
100
AcDbCircle
 10
751.4496986489493
 20
219.3300362373349
 30
0.0
 40
3.768603565485
100
AcDbArc
 50
256.0699585645965
 51
312.7236798454837
  0
ARC
  5
1F99
330
1F
100
AcDbEntity
  8
0
100
AcDbCircle
 10
757.4706596478477
 20
222.0614909649109
 30
0.0
 40
6.500000000000228
100
AcDbArc
 50
237.7957724960285
 51
302.204227503967
  0
ARC
  5
1F9A
330
1F
100
AcDbEntity
  8
0
100
AcDbCircle
 10
757.4706596478477
 20
215.0614909649107
 30
0.0
 40
6.500000000000228
100
AcDbArc
 50
57.79577249603295
 51
122.2042275039715
  0
ARC
  5
1F9B
330
1F
100
AcDbEntity
  8
0
100
AcDbCircle
 10
763.4916206467457
 20
219.3300362373349
 30
0.0
 40
3.768603565485
100
AcDbArc
 50
227.2763201545163
 51
283.9300414354035
  0
ARC
  5
1F9C
330
1F
100
AcDbEntity
  8
0
100
AcDbCircle
 10
751.4496986489493
 20
217.7929456924866
 30
0.0
 40
3.768603565485
100
AcDbArc
 50
47.27632015451622
 51
103.9300414354035
  0
ARC
  5
1F9D
330
1F
100
AcDbEntity
  8
0
100
AcDbCircle
 10
763.4916206467457
 20
217.7929456924866
 30
0.0
 40
3.768603565485
100
AcDbArc
 50
76.06995856459652
 51
132.7236798454837
  0
LINE
  5
1F9E
330
1F
100
AcDbEntity
  8
0
100
AcDbLine
 10
770.5424564175716
 20
227.1691861194971
 30
0.0
 11
770.5424564175716
 21
237.5614909649106
 31
0.0
  0
LINE
  5
1F9F
330
1F
100
AcDbEntity
  8
AM_7
100
AcDbLine
 10
757.4706596478474
 20
140.3391450817738
 30
0.0
 11
757.4706596478474
 21
238.9744660407936
 31
0.0
1001
GENIUS_GENODEF_13
1002
{
1000
HIER
1070
     0
1002
}
1002
{
1000
MANEDIT
1070
     0
1002
}
1002
{
1000
NOSEL
1070
     0
1002
}
1002
{
1000
BEHIND
1070
     0
1002
}
1002
{
1000
OTHER
1070
     0
1002
}
1002
{
1000
REACTOR
1002
}
1001
GENIUS_GENOBJ-N-CEN_13
1002
{
1000
OWNER
1000
GEN
1002
}
1001
GENIUS_GENCEN_19
1002
{
1040
3.0
1002
}
  0
ARC
  5
1FA0
330
1F
100
AcDbEntity
  8
0
100
AcDbCircle
 10
771.0424564175716
 20
158.865338542204
 30
0.0
 40
0.5
100
AcDbArc
 50
90.00000000000003
 51
180.0
  0
LINE
  5
1FA1
330
1F
100
AcDbEntity
  8
0
100
AcDbLine
 10
770.5424564175716
 20
141.3653385422042
 30
0.0
 11
770.5424564175716
 21
151.3653385422042
 31
0.0
  0
LINE
  5
1FA2
330
1F
100
AcDbEntity
  8
0
100
AcDbLine
 10
763.6668120705542
 20
151.5614909649109
 30
0.0
 11
770.5424564175716
 21
151.5614909649109
 31
0.0
  0
ARC
  5
1FA3
330
1F
100
AcDbEntity
  8
0
100
AcDbCircle
 10
763.6668120705542
 20
152.5614909649109
 30
0.0
 40
1.0
100
AcDbArc
 50
180.0
 51
270.0
  0
LINE
  5
1FA4
330
1F
100
AcDbEntity
  8
0
100
AcDbLine
 10
755.2745072251407
 20
141.1691861194976
 30
0.0
 11
770.5424564175716
 21
141.1691861194974
 31
0.0
  0
ARC
  5
1FA5
330
1F
100
AcDbEntity
  8
0
100
AcDbCircle
 10
755.2745072251404
 20
144.1691861194975
 30
0.0
 40
3.0
100
AcDbArc
 50
180.0
 51
270.0
  0
LINE
  5
1FA6
330
1F
100
AcDbEntity
  8
0
100
AcDbLine
 10
762.6668120705542
 20
152.5614909649109
 30
0.0
 11
762.6668120705542
 21
155.1691861194974
 31
0.0
  0
LINE
  5
1FA7
330
1F
100
AcDbEntity
  8
0
100
AcDbLine
 10
752.2745072251407
 20
144.1691861194975
 30
0.0
 11
752.2745072251407
 21
155.1691861194974
 31
0.0
  0
LINE
  5
1FA8
330
1F
100
AcDbEntity
  8
0
100
AcDbLine
 10
750.5424564175719
 20
163.1691861194974
 30
0.0
 11
750.5424564175719
 21
157.1691861194974
 31
0.0
  0
LINE
  5
1FA9
330
1F
100
AcDbEntity
  8
0
100
AcDbLine
 10
750.5424564175719
 20
157.1691861194974
 30
0.0
 11
764.3988628781228
 21
157.1691861194974
 31
0.0
  0
LINE
  5
1FAA
330
1F
100
AcDbEntity
  8
0
100
AcDbLine
 10
750.5424564175719
 20
163.1691861194974
 30
0.0
 11
764.398862878123
 21
163.1691861194974
 31
0.0
  0
LINE
  5
1FAB
330
1F
100
AcDbEntity
  8
0
100
AcDbLine
 10
764.398862878123
 20
163.1691861194974
 30
0.0
 11
764.398862878123
 21
157.1691861194974
 31
0.0
  0
LINE
  5
1FAC
330
1F
100
AcDbEntity
  8
0
100
AcDbLine
 10
754.0065580327097
 20
162.1691861194974
 30
0.0
 11
754.0065580327097
 21
158.1691861194972
 31
0.0
  0
LINE
  5
1FAD
330
1F
100
AcDbEntity
  8
0
100
AcDbLine
 10
760.9347612629851
 20
162.1691861194977
 30
0.0
 11
760.9347612629851
 21
158.169186119497
 31
0.0
  0
LINE
  5
1FAE
330
1F
100
AcDbEntity
  8
0
100
AcDbLine
 10
751.4706596478474
 20
165.1691861194974
 30
0.0
 11
763.4706596478475
 21
165.1691861194974
 31
0.0
  0
LINE
  5
1FAF
330
1F
100
AcDbEntity
  8
0
100
AcDbLine
 10
763.4706596478475
 20
165.1691861194974
 30
0.0
 11
763.4706596478475
 21
163.1691861194974
 31
0.0
  0
LINE
  5
1FB0
330
1F
100
AcDbEntity
  8
0
100
AcDbLine
 10
751.4706596478474
 20
165.1691861194974
 30
0.0
 11
751.4706596478474
 21
163.1691861194974
 31
0.0
  0
LINE
  5
1FB1
330
1F
100
AcDbEntity
  8
0
100
AcDbLine
 10
751.4706596478474
 20
155.1691861194974
 30
0.0
 11
763.4706596478475
 21
155.1691861194974
 31
0.0
  0
LINE
  5
1FB2
330
1F
100
AcDbEntity
  8
0
100
AcDbLine
 10
763.4706596478475
 20
155.1691861194974
 30
0.0
 11
763.4706596478475
 21
157.1691861194974
 31
0.0
  0
LINE
  5
1FB3
330
1F
100
AcDbEntity
  8
0
100
AcDbLine
 10
751.4706596478474
 20
155.1691861194974
 30
0.0
 11
751.4706596478474
 21
157.1691861194974
 31
0.0
  0
ARC
  5
1FB4
330
1F
100
AcDbEntity
  8
0
100
AcDbCircle
 10
751.4496986489493
 20
159.4006408470731
 30
0.0
 40
3.768603565485
100
AcDbArc
 50
47.27632015451624
 51
103.9300414354035
  0
ARC
  5
1FB5
330
1F
100
AcDbEntity
  8
0
100
AcDbCircle
 10
757.4706596478477
 20
156.6691861194972
 30
0.0
 40
6.500000000000228
100
AcDbArc
 50
57.795772496033
 51
122.2042275039714
  0
ARC
  5
1FB6
330
1F
100
AcDbEntity
  8
0
100
AcDbCircle
 10
757.4706596478477
 20
163.6691861194974
 30
0.0
 40
6.500000000000228
100
AcDbArc
 50
237.7957724960285
 51
302.204227503967
  0
ARC
  5
1FB7
330
1F
100
AcDbEntity
  8
0
100
AcDbCircle
 10
763.4916206467457
 20
159.4006408470731
 30
0.0
 40
3.768603565485
100
AcDbArc
 50
76.06995856459649
 51
132.7236798454837
  0
ARC
  5
1FB8
330
1F
100
AcDbEntity
  8
0
100
AcDbCircle
 10
751.4496986489493
 20
160.9377313919214
 30
0.0
 40
3.768603565485
100
AcDbArc
 50
256.0699585645965
 51
312.7236798454838
  0
ARC
  5
1FB9
330
1F
100
AcDbEntity
  8
0
100
AcDbCircle
 10
763.4916206467457
 20
160.9377313919214
 30
0.0
 40
3.768603565485
100
AcDbArc
 50
227.2763201545163
 51
283.9300414354034
  0
LINE
  5
1FBA
330
1F
100
AcDbEntity
  8
0
100
AcDbLine
 10
770.5424564175716
 20
151.5614909649109
 30
0.0
 11
770.5424564175716
 21
141.1691861194974
 31
0.0
  0
LINE
  5
1FBD
330
1F
100
AcDbEntity
  8
0
100
AcDbLine
 10
760.4706596478474
 20
165.1691861194974
 30
0.0
 11
760.4706596478475
 21
213.5614909649106
 31
0.0
  0
LINE
  5
1FBE
330
1F
100
AcDbEntity
  8
0
100
AcDbLine
 10
754.4706596478475
 20
165.1691861194974
 30
0.0
 11
754.4706596478473
 21
213.5614909649106
 31
0.0
  0
LINE
  5
1FBF
330
1F
100
AcDbEntity
  8
0
100
AcDbLine
 10
754.8725834364939
 20
324.9066913598904
 30
0.0
 11
770.5424564175719
 21
324.9066913598904
 31
0.0
  0
LINE
  5
1FC0
330
1F
100
AcDbEntity
  8
0
100
AcDbLine
 10
754.8725834364937
 20
333.9066913598904
 30
0.0
 11
770.5424564175719
 21
333.9066913598904
 31
0.0
  0
LINE
  5
1FC1
330
1F
100
AcDbEntity
  8
0
100
AcDbLine
 10
804.0424564175717
 20
300.0566913598904
 30
0.0
 11
795.0424564175717
 21
300.0566913598904
 31
0.0
  0
LWPOLYLINE
  5
1FC2
102
{ACAD_REACTORS
330
21FA
102
}
330
1F
100
AcDbEntity
  8
0
100
AcDbPolyline
 90
        7
 70
     0
 43
0.0
 10
761.8007866667696
 20
333.9066913598904
 10
760.934761262985
 20
335.4066913598904
 10
754.0065580327096
 20
335.4066913598904
 10
750.5424564175718
 20
329.4066913598904
 10
754.0065580327096
 20
323.4066913598904
 10
760.934761262985
 20
323.4066913598904
 10
761.8007866667696
 20
324.9066913598904
  0
ARC
  5
1FC3
330
1F
100
AcDbEntity
  8
0
100
AcDbCircle
 10
757.4706596478473
 20
329.4066913598905
 30
0.0
 40
6.0
100
AcDbArc
 50
48.59037789072921
 51
311.4096221092704
  0
LINE
  5
1FC4
330
1F
100
AcDbEntity
  8
AM_7
  6
AM_ISO08W050x2
100
AcDbLine
 10
757.4706596478473
 20
329.4066913598904
 30
0.0
 11
757.4706596478473
 21
338.4066913598904
 31
0.0
1001
GENIUS_GENOREF_13
1005
1FCA
  0
LINE
  5
1FC5
330
1F
100
AcDbEntity
  8
AM_7
  6
AM_ISO08W050x2
100
AcDbLine
 10
757.4706596478473
 20
329.4066913598904
 30
0.0
 11
748.4706596478473
 21
329.4066913598904
 31
0.0
1001
GENIUS_GENOREF_13
1005
1FCA
  0
LINE
  5
1FC6
330
1F
100
AcDbEntity
  8
AM_7
  6
AM_ISO08W050x2
100
AcDbLine
 10
757.4706596478473
 20
329.4066913598904
 30
0.0
 11
757.4706596478473
 21
320.4066913598904
 31
0.0
1001
GENIUS_GENOREF_13
1005
1FCA
  0
LINE
  5
1FC7
330
1F
100
AcDbEntity
  8
AM_7
  6
AM_ISO08W050x2
100
AcDbLine
 10
757.4706596478473
 20
329.4066913598904
 30
0.0
 11
773.3231909078704
 21
329.4066913598904
 31
0.0
1001
GENIUS_GENOREF_13
1005
1FCA
  0
LINE
  5
1FC8
330
1F
100
AcDbEntity
  8
0
100
AcDbLine
 10
754.8725834364939
 20
333.9066913598904
 30
0.0
 11
752.2745072251406
 21
329.4066913598904
 31
0.0
  0
LINE
  5
1FC9
330
1F
100
AcDbEntity
  8
0
100
AcDbLine
 10
752.2745072251406
 20
329.4066913598904
 30
0.0
 11
754.8725834364939
 21
324.9066913598904
 31
0.0
  0
POINT
  5
1FCA
330
1F
100
AcDbEntity
  8
0
 60
     1
100
AcDbPoint
 10
-164.5412694533241
 20
81.68012500431371
 30
0.0
1001
GENIUS_GENOLIS_13
1002
{
1000
ENT
1005
1FC7
1005
1FC6
1005
1FC5
1005
1FC4
1002
}
1001
GENIUS_GENOENT_13
1002
{
1000
MYREF
1005
1FCA
1002
}
1002
{
1000
GRP
1005
0
1002
}
1001
GENIUS_GENODEF_13
1002
{
1000
HIER
1070
    10
1002
}
1002
{
1000
MANEDIT
1070
     0
1002
}
1002
{
1000
NOSEL
1070
     0
1002
}
1002
{
1000
BEHIND
1070
     0
1002
}
1002
{
1000
OTHER
1070
     0
1002
}
1002
{
1000
REACTOR
1002
}
1001
GENIUS_GENOBJ-N-CRS_13
1002
{
1000
OWNER
1000
GEN
1002
}
  0
LINE
  5
1FCB
330
1F
100
AcDbEntity
  8
0
100
AcDbLine
 10
770.5424564175719
 20
333.9066913598904
 30
0.0
 11
770.5424564175719
 21
324.9066913598904
 31
0.0
  0
LINE
  5
1FCC
330
1F
100
AcDbEntity
  8
0
100
AcDbLine
 10
789.3413535360198
 20
266.3653385422039
 30
0.0
 11
809.7435592991232
 21
258.3653385422039
 31
0.0
  0
LINE
  5
1FCD
330
1F
100
AcDbEntity
  8
0
100
AcDbLine
 10
789.34135353602
 20
258.3653385422039
 30
0.0
 11
809.7435592991232
 21
266.3653385422039
 31
0.0
  0
DIMENSION
  5
1FE5
102
{ACAD_XDICTIONARY
360
1FF2
102
}
102
{ACAD_REACTORS
330
1FF3
102
}
330
1F
100
AcDbEntity
  8
AM_5
100
AcDbDimension
  2
*D5
 10
838.5424564175718
 20
146.365338542204
 30
0.0
 11
836.0424564175719
 21
139.8653385422041
 31
0.0
 70
    32
 71
     5
 42
13.00000000000011
  3
AM_ISO$0
100
AcDbAlignedDimension
 13
828.0424564175717
 23
133.365338542204
 33
0.0
 14
810.1757273501275
 24
146.365338542204
 34
0.0
 50
90.0
100
AcDbRotatedDimension
1001
ACAD
1000
DSTYLE
1002
{
1070
    40
1040
1.0
1070
   144
1040
1.0
1070
   272
1070
     8
1002
}
  0
DIMENSION
  5
2018
102
{ACAD_XDICTIONARY
360
2025
102
}
102
{ACAD_REACTORS
330
2026
102
}
330
1F
100
AcDbEntity
  8
AM_5
100
AcDbDimension
  2
*D6
 10
846.5424564175718
 20
159.365338542204
 30
0.0
 11
844.0421611419813
 21
146.3653385422041
 31
0.0
 70
    32
 71
     5
 42
26.00000000000008
  3
AM_ISO$0
100
AcDbAlignedDimension
 13
828.0424564175715
 23
133.365338542204
 33
0.0
 14
828.0424564175715
 24
159.365338542204
 34
0.0
 50
89.9999999999998
100
AcDbRotatedDimension
1001
ACAD
1000
DSTYLE
1002
{
1070
    40
1040
1.0
1070
   144
1040
1.0
1070
   272
1070
     8
1002
}
  0
DIMENSION
  5
203E
330
1F
100
AcDbEntity
  8
AM_5
100
AcDbDimension
  2
*D7
 10
838.5424564175718
 20
133.365338542204
 30
0.0
 11
838.5424564175718
 21
122.7032065078481
 31
0.0
 70
   160
 71
     5
 42
3.000000000000028
  3
AM_ISO$0
100
AcDbAlignedDimension
 13
814.8218225735057
 23
130.365338542204
 33
0.0
 14
828.0424564175715
 24
133.365338542204
 34
0.0
 50
89.9999999999998
100
AcDbRotatedDimension
1001
ACAD
1000
DSTYLE
1002
{
1070
    40
1040
1.0
1070
   144
1040
1.0
1070
   272
1070
     8
1002
}
  0
DIMENSION
  5
2068
102
{ACAD_XDICTIONARY
360
2075
102
}
102
{ACAD_REACTORS
330
2076
102
}
330
1F
100
AcDbEntity
  8
AM_5
100
AcDbDimension
  2
*D8
 10
862.5424564175723
 20
266.3653385422039
 30
0.0
 11
859.6130908875109
 21
198.365338542204
 31
0.0
 70
    32
  1
86+length
 71
     5
 42
135.9999999999999
  3
AM_ISO$0
100
AcDbAlignedDimension
 13
814.8218225735057
 23
130.365338542204
 33
0.0
 14
814.2924564175716
 24
266.3653385422039
 34
0.0
 50
89.9999999999998
100
AcDbRotatedDimension
1001
ACAD
1000
DSTYLE
1002
{
1070
    40
1040
1.0
1070
   144
1040
1.0
1070
   272
1070
     8
1002
}
  0
DIMENSION
  5
208E
102
{ACAD_XDICTIONARY
360
209B
102
}
102
{ACAD_REACTORS
330
209C
102
}
330
1F
100
AcDbEntity
  8
AM_5
100
AcDbDimension
  2
*D9
 10
846.5424564175718
 20
256.3653385422039
 30
0.0
 11
844.0424564175716
 21
250.8653385422041
 31
0.0
 70
    32
 71
     5
 42
10.99999999999988
  3
AM_ISO$0
100
AcDbAlignedDimension
 13
828.0424564175715
 23
245.365338542204
 33
0.0
 14
814.7924564175717
 24
256.3653385422039
 34
0.0
 50
90.00000000000019
100
AcDbRotatedDimension
1001
ACAD
1000
DSTYLE
1002
{
1070
    40
1040
1.0
1070
   144
1040
1.0
1070
   272
1070
     8
1002
}
  0
DIMENSION
  5
20B4
330
1F
100
AcDbEntity
  8
AM_5
100
AcDbDimension
  2
*D10
 10
854.542456417572
 20
266.3653385422039
 30
0.0
 11
852.0421611419813
 21
255.8653385422041
 31
0.0
 70
    32
 71
     5
 42
20.99999999999988
  3
AM_ISO$0
100
AcDbAlignedDimension
 13
828.0424564175715
 23
245.365338542204
 33
0.0
 14
814.2924564175716
 24
266.3653385422039
 34
0.0
 50
90.00000000000019
100
AcDbRotatedDimension
1001
ACAD
1000
DSTYLE
1002
{
1070
    40
1040
1.0
1070
   144
1040
1.0
1070
   272
1070
     8
1002
}
  0
DIMENSION
  5
20DA
102
{ACAD_XDICTIONARY
360
20E7
102
}
102
{ACAD_REACTORS
330
20E8
102
}
330
1F
100
AcDbEntity
  8
AM_5
100
AcDbDimension
  2
*D11
 10
854.542456417572
 20
245.365338542204
 30
0.0
 11
851.61279561192
 21
189.3653385422041
 31
0.0
 70
    32
  1
62+length
 71
     5
 42
112.0
  3
AM_ISO$0
100
AcDbAlignedDimension
 13
828.0424564175715
 23
133.365338542204
 33
0.0
 14
828.0424564175715
 24
245.365338542204
 34
0.0
 50
89.9999999999998
100
AcDbRotatedDimension
1001
ACAD
1000
DSTYLE
1002
{
1070
    40
1040
1.0
1070
   144
1040
1.0
1070
   272
1070
     8
1002
}
  0
DIMENSION
  5
215D
102
{ACAD_XDICTIONARY
360
216A
102
}
102
{ACAD_REACTORS
330
216B
102
}
330
1F
100
AcDbEntity
  8
AM_5
100
AcDbDimension
  2
*D12
 10
846.5424564175718
 20
245.365338542204
 30
0.0
 11
844.0421611419811
 21
232.3653385422041
 31
0.0
 70
    32
 71
     5
 42
26.00000000000017
  3
AM_ISO$0
100
AcDbAlignedDimension
 13
828.0424564175715
 23
219.3653385422039
 33
0.0
 14
828.0424564175715
 24
245.365338542204
 34
0.0
 50
89.9999999999998
100
AcDbRotatedDimension
1001
ACAD
1000
DSTYLE
1002
{
1070
    40
1040
1.0
1070
   144
1040
1.0
1070
   272
1070
     8
1002
}
  0
DIMENSION
  5
21EC
102
{ACAD_XDICTIONARY
360
21F9
102
}
102
{ACAD_REACTORS
330
21FA
102
}
330
1F
100
AcDbEntity
  8
AM_5
100
AcDbDimension
  2
*D13
 10
750.5424564175718
 20
286.6656025525303
 30
0.0
 11
775.0424564175717
 21
286.6656025525303
 31
0.0
 70
   160
 71
     5
 42
49.0
  3
AM_ISO$0
100
AcDbAlignedDimension
 13
799.5424564175717
 23
298.8929927297533
 33
0.0
 14
750.5424564175718
 24
329.4066913598904
 34
0.0
 50
180.0
100
AcDbRotatedDimension
1001
ACAD
1000
DSTYLE
1002
{
1070
    40
1040
1.0
1070
   144
1040
1.0
1070
   272
1070
     8
1002
}
  0
LINE
  5
2259
330
1F
100
AcDbEntity
  8
LOGO
 62
     6
100
AcDbLine
 10
897.5096897023977
 20
89.96498226443998
 30
0.0
 11
897.5096897023977
 21
80.42652721632094
 31
0.0
  0
LINE
  5
225A
330
1F
100
AcDbEntity
  8
LOGO
 62
     6
100
AcDbLine
 10
874.8286303234795
 20
89.96498226443998
 30
0.0
 11
874.8286303234795
 21
80.46235840923619
 31
0.0
  0
LINE
  5
225B
330
1F
100
AcDbEntity
  8
LOGO
 62
     6
100
AcDbLine
 10
897.5096897023977
 20
80.46235840923619
 30
0.0
 11
874.8286303234795
 21
80.46235840923619
 31
0.0
  0
LINE
  5
225C
330
1F
100
AcDbEntity
  8
LOGO
 62
     6
100
AcDbLine
 10
897.5096897023977
 20
89.96498226443998
 30
0.0
 11
874.8286303234795
 21
89.96498226443998
 31
0.0
  0
LINE
  5
225D
330
1F
100
AcDbEntity
  8
LOGO
 62
     6
100
AcDbLine
 10
893.5690686393888
 20
93.85241929611403
 30
0.0
 11
879.1782793853515
 21
93.85241929611403
 31
0.0
  0
LINE
  5
225E
330
1F
100
AcDbEntity
  8
LOGO
 62
     6
100
AcDbLine
 10
893.5690686393888
 20
101.6272933594625
 30
0.0
 11
879.1782793853515
 21
101.6272933594625
 31
0.0
  0
LINE
  5
225F
330
1F
100
AcDbEntity
  8
LOGO
 62
     6
100
AcDbLine
 10
886.5566348714692
 20
93.85241929611403
 30
0.0
 11
886.5566348714692
 21
89.96498226443998
 31
0.0
  0
LINE
  5
2260
330
1F
100
AcDbEntity
  8
LOGO
 62
     6
100
AcDbLine
 10
879.1782793853515
 20
101.6272933594625
 30
0.0
 11
879.1782793853515
 21
93.85241929611403
 31
0.0
  0
TEXT
  5
2261
330
1F
100
AcDbEntity
  8
LOGO
  6
Continuous
 62
     7
100
AcDbText
 10
883.0744947591819
 20
95.53118710919452
 30
0.0
 40
4.319374479638007
  1
AH
  7
CHINESET
 72
     1
 11
886.7768157417287
 21
97.69087434901353
 31
0.0
100
AcDbText
 73
     2
  0
LINE
  5
2262
330
1F
100
AcDbEntity
  8
LOGO
 62
     6
100
AcDbLine
 10
893.5690686393888
 20
101.6272933594625
 30
0.0
 11
893.5690686393888
 21
93.85241929611403
 31
0.0
  0
TEXT
  5
2263
330
1F
100
AcDbEntity
  8
LOGO
  6
Continuous
 62
     6
100
AcDbText
 10
876.0894490608512
 20
81.5422020291457
 30
169.8508125850245
 40
2.159687239819003
  1
Air-Oil coverter
 41
0.8
  7
CHINESET
 72
     4
 11
886.3736740123702
 21
82.62204564905522
 31
169.8508125850245
100
AcDbText
  0
TEXT
  5
2264
330
1F
100
AcDbEntity
  8
LOGO
 62
     6
100
AcDbText
 10
883.2637243870308
 20
85.30209847579126
 30
169.8508125850245
 40
3.455499583710405
  1
型式
 41
0.9
  7
CHINESET
 72
     4
 11
886.3736740123702
 21
86.94142012869324
 31
169.8508125850245
100
AcDbText
  0
LINE
  5
2266
330
1F
100
AcDbEntity
  8
LOGO
  6
Continuous
 62
     7
100
AcDbLine
 10
874.1710197705138
 20
97.71231649513545
 30
0.0
 11
877.6041204643394
 21
97.71231649513545
 31
0.0
  0
LINE
  5
227C
330
1F
100
AcDbEntity
  8
0
100
AcDbLine
 10
799.5424564175717
 20
130.365338542204
 30
0.0
 11
815.0424564175716
 21
130.365338542204
 31
0.0
  0
LINE
  5
227D
330
1F
100
AcDbEntity
  8
0
100
AcDbLine
 10
815.5424564175715
 20
130.865338542204
 30
0.0
 11
815.5424564175717
 21
133.365338542204
 31
0.0
  0
LINE
  5
227E
102
{ACAD_REACTORS
330
22A9
102
}
330
1F
100
AcDbEntity
  8
0
100
AcDbLine
 10
815.0424564175716
 20
130.365338542204
 30
0.0
 11
815.5424564175715
 21
130.865338542204
 31
0.0
  0
LINE
  5
227F
330
1F
100
AcDbEntity
  8
0
100
AcDbLine
 10
799.5424564175716
 20
130.365338542204
 30
0.0
 11
784.0424564175718
 21
130.365338542204
 31
0.0
  0
LINE
  5
2280
330
1F
100
AcDbEntity
  8
0
100
AcDbLine
 10
783.5424564175718
 20
130.865338542204
 30
0.0
 11
783.5424564175716
 21
133.365338542204
 31
0.0
  0
LINE
  5
2281
102
{ACAD_REACTORS
330
22A9
102
}
330
1F
100
AcDbEntity
  8
0
100
AcDbLine
 10
784.0424564175718
 20
130.365338542204
 30
0.0
 11
783.5424564175718
 21
130.865338542204
 31
0.0
  0
DIMENSION
  5
229B
102
{ACAD_XDICTIONARY
360
22A8
102
}
102
{ACAD_REACTORS
330
22A9
102
}
330
1F
100
AcDbEntity
  8
AM_5
100
AcDbDimension
  2
*D14
 10
815.5424564175715
 20
120.3653385422041
 30
0.0
 11
799.5424564175716
 21
122.8656338177946
 31
0.0
 70
    32
  1
%%c<>
 71
     5
 42
31.99999999999989
  3
AM_ISO$0
100
AcDbAlignedDimension
 13
783.5424564175718
 23
130.865338542204
 33
0.0
 14
815.5424564175715
 24
130.865338542204
 34
0.0
 50
0.0000000000001018
100
AcDbRotatedDimension
1001
ACAD
1000
DSTYLE
1002
{
1070
    40
1040
1.0
1070
   144
1040
1.0
1070
   272
1070
     8
1002
}
  0
DIMENSION
  5
2349
102
{ACAD_XDICTIONARY
360
2356
102
}
102
{ACAD_REACTORS
330
2357
102
}
330
1F
100
AcDbEntity
  8
AM_5
100
AcDbDimension
  2
*D15
 10
838.5424564175718
 20
232.3653385422038
 30
0.0
 11
836.0424564175717
 21
238.865338542204
 31
0.0
 70
    32
 71
     5
 42
13.00000000000011
  3
AM_ISO$0
100
AcDbAlignedDimension
 13
828.0424564175715
 23
245.365338542204
 33
0.0
 14
810.3186745335124
 24
232.3653385422038
 34
0.0
 50
90.00000000000019
100
AcDbRotatedDimension
1001
ACAD
1000
DSTYLE
1002
{
1070
    40
1040
1.0
1070
   144
1040
1.0
1070
   272
1070
     8
1002
}
  0
DIMENSION
  5
23D5
102
{ACAD_XDICTIONARY
360
23E2
102
}
102
{ACAD_REACTORS
330
23E3
102
}
330
1F
100
AcDbEntity
  8
AM_5
100
AcDbDimension
  2
*D16
 10
838.5424564175718
 20
317.4066913598902
 30
0.0
 11
836.0421611419811
 21
329.4066913598903
 31
0.0
 70
    32
 71
     5
 42
24.0
  3
AM_ISO$0
100
AcDbAlignedDimension
 13
809.7435592991233
 23
341.4066913598901
 33
0.0
 14
809.7435592991232
 24
317.4066913598902
 34
0.0
 50
90.0
100
AcDbRotatedDimension
1001
ACAD
1000
DSTYLE
1002
{
1070
    40
1040
1.0
1070
   144
1040
1.0
1070
   272
1070
     8
1002
}
  0
INSERT
  5
23F1
330
1F
100
AcDbEntity
  8
AM_5
100
AcDbBlockReference
  2
*S24
 10
0.0
 20
0.0
 30
0.0
  0
TEXT
  5
23F2
330
1F
100
AcDbEntity
  8
AM_5
100
AcDbText
 10
759.0284476387812
 20
123.5300179666336
 30
0.0
 40
3.0
  1
2-PT1/4
100
AcDbText
  0
ARC
  5
241C
330
1F
100
AcDbEntity
  8
AM_4
100
AcDbCircle
 10
799.5424564175717
 20
146.365338542204
 30
0.0
 40
6.899999999999999
100
AcDbArc
 50
260.0
 51
170.0
  0
CIRCLE
  5
241D
330
1F
100
AcDbEntity
  8
AM_0
100
AcDbCircle
 10
799.5424564175717
 20
146.365338542204
 30
0.0
 40
5.7225
  0
ARC
  5
241E
330
1F
100
AcDbEntity
  8
AM_4
100
AcDbCircle
 10
799.5424564175717
 20
232.3653385422038
 30
0.0
 40
6.899999999999999
100
AcDbArc
 50
260.0
 51
170.0
  0
CIRCLE
  5
241F
330
1F
100
AcDbEntity
  8
AM_0
100
AcDbCircle
 10
799.5424564175717
 20
232.3653385422038
 30
0.0
 40
5.7225
  0
DIMENSION
  5
2431
102
{ACAD_XDICTIONARY
360
243E
102
}
102
{ACAD_REACTORS
330
243F
102
}
330
1F
100
AcDbEntity
  8
AM_5
100
AcDbDimension
  2
*D17
 10
846.5424564175719
 20
309.1566913598903
 30
0.0
 11
844.0424564175719
 21
329.4066913598904
 31
0.0
 70
    32
 71
     5
 42
40.49999999999999
  3
AM_ISO$0
100
AcDbAlignedDimension
 13
826.8924564175721
 23
349.6566913598903
 33
0.0
 14
826.8924564175717
 24
309.1566913598903
 34
0.0
 50
90.0
100
AcDbRotatedDimension
1001
ACAD
1000
DSTYLE
1002
{
1070
    40
1040
1.0
1070
   144
1040
1.0
1070
   272
1070
     8
1002
}
  0
DIMENSION
  5
2457
102
{ACAD_XDICTIONARY
360
2464
102
}
102
{ACAD_REACTORS
330
2465
102
}
330
1F
100
AcDbEntity
  8
AM_5
100
AcDbDimension
  2
*D18
 10
854.542456417572
 20
300.4066913598903
 30
0.0
 11
852.0424564175719
 21
329.4066913598904
 31
0.0
 70
    32
  1
{\Famgdt;o}<>
 71
     5
 42
58.00000000000006
  3
AM_ISO$0
100
AcDbAlignedDimension
 13
824.5424564175717
 23
358.4066913598904
 33
0.0
 14
824.5424564175717
 24
300.4066913598903
 34
0.0
 50
90.00000000000019
100
AcDbRotatedDimension
1001
ACAD
1000
DSTYLE
1002
{
1070
    40
1040
1.0
1070
   144
1040
1.0
1070
   272
1070
     8
1002
}
  0
TEXT
  5
249E
330
1F
100
AcDbEntity
  8
AM_5
100
AcDbText
 10
837.5997473329301
 20
291.8391400469723
 30
0.0
 40
3.0
  1
4-M8x1.25
100
AcDbText
  0
INSERT
  5
249F
330
1F
100
AcDbEntity
  8
AM_5
100
AcDbBlockReference
  2
*S25
 10
0.0
 20
0.0
 30
0.0
  0
INSERT
  5
24C7
330
1F
100
AcDbEntity
  8
AM_0
100
AcDbBlockReference
  2
*U20
 10
0.0
 20
0.0
 30
0.0
  0
INSERT
  5
24C8
330
1F
100
AcDbEntity
  8
AM_0
100
AcDbBlockReference
  2
*U21
 10
0.0
 20
0.0
 30
0.0
  0
INSERT
  5
24C9
330
1F
100
AcDbEntity
  8
AM_0
100
AcDbBlockReference
  2
*U22
 10
0.0
 20
0.0
 30
0.0
  0
INSERT
  5
24CA
330
1F
100
AcDbEntity
  8
AM_0
100
AcDbBlockReference
  2
*U23
 10
0.0
 20
0.0
 30
0.0
  0
TEXT
  5
2571
330
1F
100
AcDbEntity
  8
0
100
AcDbText
 10
732.6599655973189
 20
404.9531199020911
 30
0.0
 40
7.0
  1
Length=50mm
100
AcDbText
  0
LINE
  5
274E
330
1F
100
AcDbEntity
  8
0
100
AcDbLine
 10
1108.084335329641
 20
334.5310246869646
 30
0.0
 11
1122.594339331393
 21
334.5310246869646
 31
0.0
  0
LINE
  5
274F
330
1F
100
AcDbEntity
  8
0
100
AcDbLine
 10
1106.084335329841
 20
304.5310246899645
 30
0.0
 11
1164.084335324041
 21
304.5310246899645
 31
0.0
  0
CIRCLE
  5
2750
330
1F
100
AcDbEntity
  8
0
100
AcDbCircle
 10
1114.834335328966
 20
324.2310246879946
 30
0.0
 40
4.499999999549999
  0
CIRCLE
  5
2751
330
1F
100
AcDbEntity
  8
0
100
AcDbCircle
 10
1155.334335324916
 20
324.2310246879946
 30
0.0
 40
4.499999999549999
  0
LINE
  5
2752
330
1F
100
AcDbEntity
  8
0
100
AcDbLine
 10
1106.084335329841
 20
307.7610246896414
 30
0.0
 11
1164.084335324041
 21
307.7610246896414
 31
0.0
  0
LINE
  5
2753
330
1F
100
AcDbEntity
  8
hidden
  6
HIDDEN
100
AcDbLine
 10
1160.584335324391
 20
307.7610246896414
 30
0.0
 11
1160.584335324391
 21
304.5310246899645
 31
0.0
  0
LINE
  5
2754
330
1F
100
AcDbEntity
  8
hidden
  6
HIDDEN
100
AcDbLine
 10
1151.584335325291
 20
307.7610246896414
 30
0.0
 11
1151.584335325291
 21
304.5310246899645
 31
0.0
  0
LINE
  5
2755
330
1F
100
AcDbEntity
  8
hidden
  6
HIDDEN
100
AcDbLine
 10
1118.58433532859
 20
307.7610246896414
 30
0.0
 11
1118.58433532859
 21
304.5310246899645
 31
0.0
  0
LINE
  5
2756
330
1F
100
AcDbEntity
  8
hidden
  6
HIDDEN
100
AcDbLine
 10
1109.584335329491
 20
307.7610246896414
 30
0.0
 11
1109.584335329491
 21
304.5310246899645
 31
0.0
  0
LINE
  5
2757
330
1F
100
AcDbEntity
  8
0
100
AcDbLine
 10
1137.205655670288
 20
310.639704345794
 30
0.0
 11
1140.084335326441
 21
307.7610246896414
 31
0.0
  0
LINE
  5
2758
330
1F
100
AcDbEntity
  8
0
100
AcDbLine
 10
1132.963014983593
 20
310.639704345794
 30
0.0
 11
1130.084335327441
 21
307.7610246896414
 31
0.0
  0
ARC
  5
2759
330
1F
100
AcDbEntity
  8
0
100
AcDbCircle
 10
1135.084335326941
 20
308.5183840024464
 30
0.0
 40
2.999999999699999
100
AcDbArc
 50
45.0000000000046
 51
134.9999999999954
  0
LINE
  5
275A
330
1F
100
AcDbEntity
  8
0
100
AcDbLine
 10
1147.574331322489
 20
334.5310246869646
 30
0.0
 11
1162.084335324241
 21
334.5310246869646
 31
0.0
  0
LINE
  5
275B
330
1F
100
AcDbEntity
  8
0
100
AcDbLine
 10
1164.084335324041
 20
332.5310246871644
 30
0.0
 11
1164.084335324041
 21
304.5310246899645
 31
0.0
  0
ARC
  5
275C
330
1F
100
AcDbEntity
  8
0
100
AcDbCircle
 10
1135.084335326941
 20
344.5310246859646
 30
0.0
 40
15.9999999984
100
AcDbArc
 50
218.682187453493
 51
321.3178125465069
  0
LINE
  5
275D
330
1F
100
AcDbEntity
  8
0
100
AcDbLine
 10
1106.084335329841
 20
332.5310246871644
 30
0.0
 11
1106.084335329841
 21
304.5310246899645
 31
0.0
  0
LINE
  5
2780
330
1F
100
AcDbEntity
  8
center
  6
CENTER
100
AcDbLine
 10
1156.084335324841
 20
310.3180367661749
 30
0.0
 11
1156.084335324841
 21
301.946074374424
 31
0.0
  0
LINE
  5
2781
330
1F
100
AcDbEntity
  8
center
  6
CENTER
100
AcDbLine
 10
1114.084335329041
 20
310.5736206239115
 30
0.0
 11
1114.084335329041
 21
301.946074374424
 31
0.0
  0
ARC
  5
2782
330
1F
100
AcDbEntity
  8
0
100
AcDbCircle
 10
1162.084335324241
 20
332.5310246871644
 30
0.0
 40
1.999999999799999
100
AcDbArc
 50
0.0
 51
90.0
  0
ARC
  5
2783
330
1F
100
AcDbEntity
  8
0
100
AcDbCircle
 10
1108.084335329641
 20
332.5310246871644
 30
0.0
 40
1.999999999799999
100
AcDbArc
 50
90.0
 51
180.0
  0
LINE
  5
2785
330
1F
100
AcDbEntity
  8
0
100
AcDbLine
 10
1071.407449145201
 20
304.5310246899645
 30
0.0
 11
1034.407449148901
 21
304.5310246899645
 31
0.0
  0
LINE
  5
2786
330
1F
100
AcDbEntity
  8
0
100
AcDbLine
 10
1071.407449145201
 20
307.7610246896414
 30
0.0
 11
1037.607449148581
 21
307.7610246896414
 31
0.0
  0
LINE
  5
2787
330
1F
100
AcDbEntity
  8
0
100
AcDbLine
 10
1071.407449145201
 20
307.7610246896414
 30
0.0
 11
1071.407449145201
 21
304.5310246899645
 31
0.0
  0
LINE
  5
2788
330
1F
100
AcDbEntity
  8
center
  6
CENTER
100
AcDbLine
 10
1058.407449146501
 20
309.3224577305444
 30
0.0
 11
1058.407449146501
 21
301.7212821389293
 31
0.0
  0
LINE
  5
2789
330
1F
100
AcDbEntity
  8
hidden
  6
HIDDEN
100
AcDbLine
 10
1062.907449146051
 20
307.7610246896414
 30
0.0
 11
1062.907449146051
 21
304.5310246899645
 31
0.0
  0
LINE
  5
278A
330
1F
100
AcDbEntity
  8
hidden
  6
HIDDEN
100
AcDbLine
 10
1053.907449146951
 20
307.7610246896414
 30
0.0
 11
1053.907449146951
 21
304.5310246899645
 31
0.0
  0
LINE
  5
278B
330
1F
100
AcDbEntity
  8
0
100
AcDbLine
 10
1031.407449149201
 20
334.5310246869646
 30
0.0
 11
1031.407449149201
 21
307.5310246896644
 31
0.0
  0
LINE
  5
278C
330
1F
100
AcDbEntity
  8
0
100
AcDbLine
 10
1034.607449148881
 20
334.5310246869646
 30
0.0
 11
1034.607449148881
 21
310.7610246893415
 31
0.0
  0
LINE
  5
278D
330
1F
100
AcDbEntity
  8
0
100
AcDbLine
 10
1038.307127305232
 20
307.7610246896414
 30
0.0
 11
1034.607449148881
 21
311.4607028459919
 31
0.0
  0
ARC
  5
278E
330
1F
100
AcDbEntity
  8
0
100
AcDbCircle
 10
1037.607449148581
 20
310.7610246893415
 30
0.0
 40
2.999999999699999
100
AcDbArc
 50
180.0
 51
270.0
  0
LINE
  5
278F
330
1F
100
AcDbEntity
  8
hidden
  6
HIDDEN
100
AcDbLine
 10
1037.011643905767
 20
304.5310246899645
 30
0.0
 11
1031.407449149201
 21
310.1352194465306
 31
0.0
  0
ARC
  5
2790
330
1F
100
AcDbEntity
  8
0
100
AcDbCircle
 10
1034.407449148901
 20
307.5310246896644
 30
0.0
 40
2.999999999699999
100
AcDbArc
 50
180.0
 51
270.0
  0
LINE
  5
2791
330
1F
100
AcDbEntity
  8
center
  6
CENTER
100
AcDbLine
 10
1036.12274985272
 20
324.2310246879946
 30
0.0
 11
1029.646711050242
 21
324.2310246879946
 31
0.0
  0
LINE
  5
2792
330
1F
100
AcDbEntity
  8
hidden
  6
HIDDEN
100
AcDbLine
 10
1034.607449148881
 20
328.7310246875446
 30
0.0
 11
1031.407449149201
 21
328.7310246875446
 31
0.0
  0
LINE
  5
2793
330
1F
100
AcDbEntity
  8
hidden
  6
HIDDEN
100
AcDbLine
 10
1034.607449148881
 20
319.7310246884446
 30
0.0
 11
1031.407449149201
 21
319.7310246884446
 31
0.0
  0
LINE
  5
2794
330
1F
100
AcDbEntity
  8
0
100
AcDbLine
 10
1034.607449148881
 20
334.5310246869646
 30
0.0
 11
1031.407449149201
 21
334.5310246869646
 31
0.0
  0
LINE
  5
2796
330
1F
100
AcDbEntity
  8
center
  6
CENTER
100
AcDbLine
 10
1156.08433532984
 20
365.3167178282317
 30
0.0
 11
1156.08433532984
 21
367.3167178282317
 31
0.0
  0
LINE
  5
2797
330
1F
100
AcDbEntity
  8
center
  6
CENTER
100
AcDbLine
 10
1114.084335329841
 20
365.3167178282317
 30
0.0
 11
1114.084335329841
 21
367.3167178282317
 31
0.0
  0
CIRCLE
  5
2798
330
1F
100
AcDbEntity
  8
0
100
AcDbCircle
 10
1156.084335329841
 20
366.3167178282317
 30
0.0
 40
4.5
  0
CIRCLE
  5
2799
330
1F
100
AcDbEntity
  8
0
100
AcDbCircle
 10
1114.084335329841
 20
366.3167178282317
 30
0.0
 40
4.5
  0
LINE
  5
279A
330
1F
100
AcDbEntity
  8
center
  6
CENTER
100
AcDbLine
 10
1135.084335329841
 20
397.8483641990808
 30
0.0
 11
1135.084335329841
 21
385.9194513808324
 31
0.0
  0
LINE
  5
279B
330
1F
100
AcDbEntity
  8
0
100
AcDbLine
 10
1164.084335329841
 20
355.3167178295316
 30
0.0
 11
1164.084335329841
 21
393.3167178255316
 31
0.0
  0
LINE
  5
279C
330
1F
100
AcDbEntity
  8
0
100
AcDbLine
 10
1106.084335329841
 20
355.3167178295316
 30
0.0
 11
1106.084335329841
 21
393.3167178255316
 31
0.0
  0
LINE
  5
279D
330
1F
100
AcDbEntity
  8
0
100
AcDbLine
 10
1108.084335329841
 20
353.3167178295316
 30
0.0
 11
1162.084335329841
 21
353.3167178295316
 31
0.0
  0
ARC
  5
279E
330
1F
100
AcDbEntity
  8
0
100
AcDbCircle
 10
1108.084335329841
 20
355.3167178295316
 30
0.0
 40
2.0
100
AcDbArc
 50
180.0
 51
270.0
  0
LINE
  5
279F
330
1F
100
AcDbEntity
  8
center
  6
CENTER
100
AcDbLine
 10
1114.084335329841
 20
364.3167178282317
 30
0.0
 11
1114.084335329841
 21
360.8167178282317
 31
0.0
  0
ARC
  5
27A0
330
1F
100
AcDbEntity
  8
0
100
AcDbCircle
 10
1162.084335329841
 20
355.3167178295316
 30
0.0
 40
2.0
100
AcDbArc
 50
270.0
 51
0.0
  0
LINE
  5
27A1
330
1F
100
AcDbEntity
  8
center
  6
CENTER
100
AcDbLine
 10
1156.08433532984
 20
364.3167178282317
 30
0.0
 11
1156.08433532984
 21
360.8167178282317
 31
0.0
  0
LINE
  5
27A2
330
1F
100
AcDbEntity
  8
center
  6
CENTER
100
AcDbLine
 10
1154.08433532984
 20
366.3167178282317
 30
0.0
 11
1150.58433532984
 21
366.3167178282317
 31
0.0
  0
LINE
  5
27A3
330
1F
100
AcDbEntity
  8
0
100
AcDbLine
 10
1106.084335329841
 20
390.1167178255318
 30
0.0
 11
1164.084335329841
 21
390.1167178255318
 31
0.0
  0
LINE
  5
27A4
330
1F
100
AcDbEntity
  8
0
100
AcDbLine
 10
1106.084335329841
 20
393.3167178255316
 30
0.0
 11
1164.084335329841
 21
393.3167178255316
 31
0.0
  0
LINE
  5
27A5
330
1F
100
AcDbEntity
  8
center
  6
CENTER
100
AcDbLine
 10
1116.084335329841
 20
366.3167178282317
 30
0.0
 11
1119.58433532984
 21
366.3167178282317
 31
0.0
  0
LINE
  5
27A6
330
1F
100
AcDbEntity
  8
center
  6
CENTER
100
AcDbLine
 10
1112.084335329841
 20
366.3167178282317
 30
0.0
 11
1108.584335329841
 21
366.3167178282317
 31
0.0
  0
LINE
  5
27A7
330
1F
100
AcDbEntity
  8
center
  6
CENTER
100
AcDbLine
 10
1114.084335329841
 20
368.3167178282317
 30
0.0
 11
1114.084335329841
 21
371.8167178282317
 31
0.0
  0
LINE
  5
27A8
330
1F
100
AcDbEntity
  8
center
  6
CENTER
100
AcDbLine
 10
1113.08433532984
 20
366.3167178282317
 30
0.0
 11
1115.08433532984
 21
366.3167178282317
 31
0.0
  0
LINE
  5
27A9
330
1F
100
AcDbEntity
  8
0
100
AcDbLine
 10
1122.594335329841
 20
393.3167178255316
 30
0.0
 11
1122.594335329841
 21
390.1167178255318
 31
0.0
  0
LINE
  5
27AA
330
1F
100
AcDbEntity
  8
0
100
AcDbLine
 10
1147.574335329841
 20
393.3167178255316
 30
0.0
 11
1147.574335329841
 21
390.1167178255318
 31
0.0
  0
LINE
  5
27AB
330
1F
100
AcDbEntity
  8
center
  6
CENTER
100
AcDbLine
 10
1158.08433532984
 20
366.3167178282317
 30
0.0
 11
1161.58433532984
 21
366.3167178282317
 31
0.0
  0
LINE
  5
27AC
330
1F
100
AcDbEntity
  8
center
  6
CENTER
100
AcDbLine
 10
1156.08433532984
 20
368.3167178282317
 30
0.0
 11
1156.08433532984
 21
371.8167178282317
 31
0.0
  0
LINE
  5
27AD
330
1F
100
AcDbEntity
  8
center
  6
CENTER
100
AcDbLine
 10
1155.08433532984
 20
366.3167178282317
 30
0.0
 11
1157.08433532984
 21
366.3167178282317
 31
0.0
  0
LINE
  5
27BB
330
1F
100
AcDbEntity
  8
AM_7
  6
AM_ISO08W050x2
100
AcDbLine
 10
1114.834335328966
 20
324.2310246879946
 30
0.0
 11
1122.334335328516
 21
324.2310246879946
 31
0.0
1001
GENIUS_GENOREF_13
1005
27BF
  0
LINE
  5
27BC
330
1F
100
AcDbEntity
  8
AM_7
  6
AM_ISO08W050x2
100
AcDbLine
 10
1114.834335328966
 20
324.2310246879946
 30
0.0
 11
1114.834335328966
 21
331.7310246875446
 31
0.0
1001
GENIUS_GENOREF_13
1005
27BF
  0
LINE
  5
27BD
330
1F
100
AcDbEntity
  8
AM_7
  6
AM_ISO08W050x2
100
AcDbLine
 10
1114.834335328966
 20
324.2310246879946
 30
0.0
 11
1107.334335329416
 21
324.2310246879946
 31
0.0
1001
GENIUS_GENOREF_13
1005
27BF
  0
LINE
  5
27BE
330
1F
100
AcDbEntity
  8
AM_7
  6
AM_ISO08W050x2
100
AcDbLine
 10
1114.834335328966
 20
324.2310246879946
 30
0.0
 11
1114.834335328966
 21
316.7310246884446
 31
0.0
1001
GENIUS_GENOREF_13
1005
27BF
  0
POINT
  5
27BF
330
1F
100
AcDbEntity
  8
0
 60
     1
100
AcDbPoint
 10
0.0
 20
0.0
 30
0.0
1001
GENIUS_GENOBJ-N-CRS_13
1002
{
1000
OWNER
1000
GEN
1002
}
1001
GENIUS_GENOLIS_13
1002
{
1000
ENT
1005
27BE
1005
27BD
1005
27BC
1005
27BB
1002
}
1001
GENIUS_GENOENT_13
1002
{
1000
MYREF
1005
27BF
1002
}
1002
{
1000
GRP
1005
0
1002
}
1001
GENIUS_GENODEF_13
1002
{
1000
HIER
1070
    10
1002
}
1002
{
1000
MANEDIT
1070
     0
1002
}
1002
{
1000
NOSEL
1070
     0
1002
}
1002
{
1000
BEHIND
1070
     0
1002
}
1002
{
1000
OTHER
1070
     0
1002
}
1002
{
1000
REACTOR
1002
}
  0
LINE
  5
27CD
330
1F
100
AcDbEntity
  8
AM_7
  6
AM_ISO08W050x2
100
AcDbLine
 10
1155.334335324916
 20
324.2310246879946
 30
0.0
 11
1162.834335324466
 21
324.2310246879946
 31
0.0
1001
GENIUS_GENOREF_13
1005
27D1
  0
LINE
  5
27CE
330
1F
100
AcDbEntity
  8
AM_7
  6
AM_ISO08W050x2
100
AcDbLine
 10
1155.334335324916
 20
324.2310246879946
 30
0.0
 11
1155.334335324916
 21
331.7310246875446
 31
0.0
1001
GENIUS_GENOREF_13
1005
27D1
  0
LINE
  5
27CF
330
1F
100
AcDbEntity
  8
AM_7
  6
AM_ISO08W050x2
100
AcDbLine
 10
1155.334335324916
 20
324.2310246879946
 30
0.0
 11
1147.834335325366
 21
324.2310246879946
 31
0.0
1001
GENIUS_GENOREF_13
1005
27D1
  0
LINE
  5
27D0
330
1F
100
AcDbEntity
  8
AM_7
  6
AM_ISO08W050x2
100
AcDbLine
 10
1155.334335324916
 20
324.2310246879946
 30
0.0
 11
1155.334335324916
 21
316.7310246884446
 31
0.0
1001
GENIUS_GENOREF_13
1005
27D1
  0
POINT
  5
27D1
330
1F
100
AcDbEntity
  8
0
 60
     1
100
AcDbPoint
 10
0.0
 20
0.0
 30
0.0
1001
GENIUS_GENOLIS_13
1002
{
1000
ENT
1005
27D0
1005
27CF
1005
27CE
1005
27CD
1002
}
1001
GENIUS_GENOENT_13
1002
{
1000
MYREF
1005
27D1
1002
}
1002
{
1000
GRP
1005
0
1002
}
1001
GENIUS_GENOBJ-N-CRS_13
1002
{
1000
OWNER
1000
GEN
1002
}
1001
GENIUS_GENODEF_13
1002
{
1000
HIER
1070
    10
1002
}
1002
{
1000
MANEDIT
1070
     0
1002
}
1002
{
1000
NOSEL
1070
     0
1002
}
1002
{
1000
BEHIND
1070
     0
1002
}
1002
{
1000
OTHER
1070
     0
1002
}
1002
{
1000
REACTOR
1002
}
  0
LINE
  5
2832
330
1F
100
AcDbEntity
  8
0
100
AcDbLine
 10
1042.235321780809
 20
191.1953268969002
 30
0.0
 11
1042.235321780809
 21
126.1953268969002
 31
0.0
  0
CIRCLE
  5
2833
330
1F
100
AcDbEntity
  8
0
100
AcDbCircle
 10
1073.906464358624
 20
137.6953268969002
 30
0.0
 40
4.5
  0
CIRCLE
  5
2834
330
1F
100
AcDbEntity
  8
0
100
AcDbCircle
 10
1153.906464358624
 20
137.6953268969002
 30
0.0
 40
4.5
  0
CIRCLE
  5
2835
330
1F
100
AcDbEntity
  8
0
100
AcDbCircle
 10
1073.906464358624
 20
179.6953268969002
 30
0.0
 40
4.5
  0
CIRCLE
  5
2836
330
1F
100
AcDbEntity
  8
0
100
AcDbCircle
 10
1153.906464358624
 20
179.6953268969002
 30
0.0
 40
4.5
  0
CIRCLE
  5
2837
330
1F
100
AcDbEntity
  8
0
100
AcDbCircle
 10
1134.156464358624
 20
138.4453268969002
 30
0.0
 40
4.5
  0
CIRCLE
  5
2838
330
1F
100
AcDbEntity
  8
0
100
AcDbCircle
 10
1134.156464358624
 20
178.9453268969002
 30
0.0
 40
4.5
  0
CIRCLE
  5
2839
330
1F
100
AcDbEntity
  8
0
100
AcDbCircle
 10
1093.656464358624
 20
178.9453268969002
 30
0.0
 40
4.5
  0
CIRCLE
  5
283A
330
1F
100
AcDbEntity
  8
0
100
AcDbCircle
 10
1093.656464358624
 20
138.4453268969002
 30
0.0
 40
4.5
  0
CIRCLE
  5
283B
330
1F
100
AcDbEntity
  8
0
100
AcDbCircle
 10
1134.156464358624
 20
138.4453268969002
 30
0.0
 40
7.0
  0
CIRCLE
  5
283C
330
1F
100
AcDbEntity
  8
0
100
AcDbCircle
 10
1134.156464358624
 20
178.9453268969002
 30
0.0
 40
7.0
  0
CIRCLE
  5
283D
330
1F
100
AcDbEntity
  8
0
100
AcDbCircle
 10
1093.656464358624
 20
178.9453268969002
 30
0.0
 40
7.0
  0
CIRCLE
  5
283E
330
1F
100
AcDbEntity
  8
0
100
AcDbCircle
 10
1093.656464358624
 20
138.4453268969002
 30
0.0
 40
7.0
  0
LINE
  5
283F
330
1F
100
AcDbEntity
  8
0
100
AcDbLine
 10
1064.406464358624
 20
191.1953268969002
 30
0.0
 11
1163.406464358624
 21
191.1953268969002
 31
0.0
  0
LINE
  5
2840
330
1F
100
AcDbEntity
  8
0
100
AcDbLine
 10
1064.406464358624
 20
126.1953268969002
 30
0.0
 11
1163.406464358624
 21
126.1953268969002
 31
0.0
  0
LINE
  5
2841
330
1F
100
AcDbEntity
  8
0
100
AcDbLine
 10
1163.906464358624
 20
190.6953268969002
 30
0.0
 11
1163.906464358624
 21
126.6953268969002
 31
0.0
  0
LINE
  5
2842
330
1F
100
AcDbEntity
  8
0
100
AcDbLine
 10
1063.906464358624
 20
190.6953268969002
 30
0.0
 11
1063.906464358624
 21
126.6953268969002
 31
0.0
  0
CIRCLE
  5
2843
330
1F
100
AcDbEntity
  8
0
100
AcDbCircle
 10
1113.906464358624
 20
158.6953268969002
 30
0.0
 40
16.0
  0
LINE
  5
2844
330
1F
100
AcDbEntity
  8
center
  6
CENTER
100
AcDbLine
 10
1152.906464358624
 20
137.6953268969002
 30
0.0
 11
1154.906464358624
 21
137.6953268969002
 31
0.0
  0
LINE
  5
2845
330
1F
100
AcDbEntity
  8
center
  6
CENTER
100
AcDbLine
 10
1153.906464358624
 20
136.6953268969002
 30
0.0
 11
1153.906464358624
 21
138.6953268969002
 31
0.0
  0
LINE
  5
2846
330
1F
100
AcDbEntity
  8
center
  6
CENTER
100
AcDbLine
 10
1151.906464358624
 20
137.6953268969002
 30
0.0
 11
1148.406464358624
 21
137.6953268969002
 31
0.0
  0
LINE
  5
2847
330
1F
100
AcDbEntity
  8
center
  6
CENTER
100
AcDbLine
 10
1155.906464358624
 20
137.6953268969002
 30
0.0
 11
1159.406464358624
 21
137.6953268969002
 31
0.0
  0
LINE
  5
2848
330
1F
100
AcDbEntity
  8
center
  6
CENTER
100
AcDbLine
 10
1153.906464358624
 20
135.6953268969002
 30
0.0
 11
1153.906464358624
 21
132.1953268969002
 31
0.0
  0
LINE
  5
2849
330
1F
100
AcDbEntity
  8
center
  6
CENTER
100
AcDbLine
 10
1153.906464358624
 20
139.6953268969002
 30
0.0
 11
1153.906464358624
 21
143.1953268969002
 31
0.0
  0
LINE
  5
284A
330
1F
100
AcDbEntity
  8
center
  6
CENTER
100
AcDbLine
 10
1133.156464358624
 20
138.4453268969002
 30
0.0
 11
1135.156464358624
 21
138.4453268969002
 31
0.0
  0
LINE
  5
284B
330
1F
100
AcDbEntity
  8
center
  6
CENTER
100
AcDbLine
 10
1134.156464358624
 20
137.4453268969002
 30
0.0
 11
1134.156464358624
 21
139.4453268969002
 31
0.0
  0
LINE
  5
284C
330
1F
100
AcDbEntity
  8
center
  6
CENTER
100
AcDbLine
 10
1132.156464358624
 20
138.4453268969002
 30
0.0
 11
1126.156464358624
 21
138.4453268969002
 31
0.0
  0
LINE
  5
284D
330
1F
100
AcDbEntity
  8
center
  6
CENTER
100
AcDbLine
 10
1136.156464358624
 20
138.4453268969002
 30
0.0
 11
1142.156464358624
 21
138.4453268969002
 31
0.0
  0
LINE
  5
284E
330
1F
100
AcDbEntity
  8
center
  6
CENTER
100
AcDbLine
 10
1134.156464358624
 20
136.4453268969002
 30
0.0
 11
1134.156464358624
 21
130.4453268969002
 31
0.0
  0
LINE
  5
284F
330
1F
100
AcDbEntity
  8
center
  6
CENTER
100
AcDbLine
 10
1134.156464358624
 20
140.4453268969002
 30
0.0
 11
1134.156464358624
 21
146.4453268969002
 31
0.0
  0
LINE
  5
2850
330
1F
100
AcDbEntity
  8
center
  6
CENTER
100
AcDbLine
 10
1152.906464358624
 20
179.6953268969002
 30
0.0
 11
1154.906464358624
 21
179.6953268969002
 31
0.0
  0
LINE
  5
2851
330
1F
100
AcDbEntity
  8
center
  6
CENTER
100
AcDbLine
 10
1153.906464358624
 20
178.6953268969002
 30
0.0
 11
1153.906464358624
 21
180.6953268969002
 31
0.0
  0
LINE
  5
2852
330
1F
100
AcDbEntity
  8
center
  6
CENTER
100
AcDbLine
 10
1151.906464358624
 20
179.6953268969002
 30
0.0
 11
1148.406464358624
 21
179.6953268969002
 31
0.0
  0
LINE
  5
2853
330
1F
100
AcDbEntity
  8
center
  6
CENTER
100
AcDbLine
 10
1155.906464358624
 20
179.6953268969002
 30
0.0
 11
1159.406464358624
 21
179.6953268969002
 31
0.0
  0
LINE
  5
2854
330
1F
100
AcDbEntity
  8
center
  6
CENTER
100
AcDbLine
 10
1153.906464358624
 20
177.6953268969002
 30
0.0
 11
1153.906464358624
 21
174.1953268969002
 31
0.0
  0
LINE
  5
2855
330
1F
100
AcDbEntity
  8
center
  6
CENTER
100
AcDbLine
 10
1153.906464358624
 20
181.6953268969002
 30
0.0
 11
1153.906464358624
 21
185.1953268969002
 31
0.0
  0
LINE
  5
2856
330
1F
100
AcDbEntity
  8
center
  6
CENTER
100
AcDbLine
 10
1133.156464358624
 20
178.9453268969002
 30
0.0
 11
1135.156464358624
 21
178.9453268969002
 31
0.0
  0
LINE
  5
2857
330
1F
100
AcDbEntity
  8
center
  6
CENTER
100
AcDbLine
 10
1134.156464358624
 20
177.9453268969002
 30
0.0
 11
1134.156464358624
 21
179.9453268969002
 31
0.0
  0
LINE
  5
2858
330
1F
100
AcDbEntity
  8
center
  6
CENTER
100
AcDbLine
 10
1132.156464358624
 20
178.9453268969002
 30
0.0
 11
1126.156464358624
 21
178.9453268969002
 31
0.0
  0
LINE
  5
2859
330
1F
100
AcDbEntity
  8
center
  6
CENTER
100
AcDbLine
 10
1136.156464358624
 20
178.9453268969002
 30
0.0
 11
1142.156464358624
 21
178.9453268969002
 31
0.0
  0
LINE
  5
285A
330
1F
100
AcDbEntity
  8
center
  6
CENTER
100
AcDbLine
 10
1134.156464358624
 20
176.9453268969002
 30
0.0
 11
1134.156464358624
 21
170.9453268969002
 31
0.0
  0
LINE
  5
285B
330
1F
100
AcDbEntity
  8
center
  6
CENTER
100
AcDbLine
 10
1134.156464358624
 20
180.9453268969002
 30
0.0
 11
1134.156464358624
 21
186.9453268969002
 31
0.0
  0
LINE
  5
285C
330
1F
100
AcDbEntity
  8
center
  6
CENTER
100
AcDbLine
 10
1092.656464358624
 20
178.9453268969002
 30
0.0
 11
1094.656464358624
 21
178.9453268969002
 31
0.0
  0
LINE
  5
285D
330
1F
100
AcDbEntity
  8
center
  6
CENTER
100
AcDbLine
 10
1093.656464358624
 20
177.9453268969002
 30
0.0
 11
1093.656464358624
 21
179.9453268969002
 31
0.0
  0
LINE
  5
285E
330
1F
100
AcDbEntity
  8
center
  6
CENTER
100
AcDbLine
 10
1091.656464358624
 20
178.9453268969002
 30
0.0
 11
1085.656464358624
 21
178.9453268969002
 31
0.0
  0
LINE
  5
285F
330
1F
100
AcDbEntity
  8
center
  6
CENTER
100
AcDbLine
 10
1095.656464358624
 20
178.9453268969002
 30
0.0
 11
1101.656464358624
 21
178.9453268969002
 31
0.0
  0
LINE
  5
2860
330
1F
100
AcDbEntity
  8
center
  6
CENTER
100
AcDbLine
 10
1093.656464358624
 20
176.9453268969002
 30
0.0
 11
1093.656464358624
 21
170.9453268969002
 31
0.0
  0
LINE
  5
2861
330
1F
100
AcDbEntity
  8
center
  6
CENTER
100
AcDbLine
 10
1093.656464358624
 20
180.9453268969002
 30
0.0
 11
1093.656464358624
 21
186.9453268969002
 31
0.0
  0
LINE
  5
2862
330
1F
100
AcDbEntity
  8
center
  6
CENTER
100
AcDbLine
 10
1072.906464358624
 20
179.6953268969002
 30
0.0
 11
1074.906464358624
 21
179.6953268969002
 31
0.0
  0
LINE
  5
2863
330
1F
100
AcDbEntity
  8
center
  6
CENTER
100
AcDbLine
 10
1073.906464358624
 20
178.6953268969002
 30
0.0
 11
1073.906464358624
 21
180.6953268969002
 31
0.0
  0
LINE
  5
2864
330
1F
100
AcDbEntity
  8
center
  6
CENTER
100
AcDbLine
 10
1071.906464358624
 20
179.6953268969002
 30
0.0
 11
1068.406464358624
 21
179.6953268969002
 31
0.0
  0
LINE
  5
2865
330
1F
100
AcDbEntity
  8
center
  6
CENTER
100
AcDbLine
 10
1075.906464358624
 20
179.6953268969002
 30
0.0
 11
1079.406464358624
 21
179.6953268969002
 31
0.0
  0
LINE
  5
2866
330
1F
100
AcDbEntity
  8
center
  6
CENTER
100
AcDbLine
 10
1073.906464358624
 20
177.6953268969002
 30
0.0
 11
1073.906464358624
 21
174.1953268969002
 31
0.0
  0
LINE
  5
2867
330
1F
100
AcDbEntity
  8
center
  6
CENTER
100
AcDbLine
 10
1073.906464358624
 20
181.6953268969002
 30
0.0
 11
1073.906464358624
 21
185.1953268969002
 31
0.0
  0
LINE
  5
2868
330
1F
100
AcDbEntity
  8
center
  6
CENTER
100
AcDbLine
 10
1072.906464358624
 20
137.6953268969002
 30
0.0
 11
1074.906464358624
 21
137.6953268969002
 31
0.0
  0
LINE
  5
2869
330
1F
100
AcDbEntity
  8
center
  6
CENTER
100
AcDbLine
 10
1073.906464358624
 20
136.6953268969002
 30
0.0
 11
1073.906464358624
 21
138.6953268969002
 31
0.0
  0
LINE
  5
286A
330
1F
100
AcDbEntity
  8
center
  6
CENTER
100
AcDbLine
 10
1071.906464358624
 20
137.6953268969002
 30
0.0
 11
1068.406464358624
 21
137.6953268969002
 31
0.0
  0
LINE
  5
286B
330
1F
100
AcDbEntity
  8
center
  6
CENTER
100
AcDbLine
 10
1075.906464358624
 20
137.6953268969002
 30
0.0
 11
1079.406464358624
 21
137.6953268969002
 31
0.0
  0
LINE
  5
286C
330
1F
100
AcDbEntity
  8
center
  6
CENTER
100
AcDbLine
 10
1073.906464358624
 20
135.6953268969002
 30
0.0
 11
1073.906464358624
 21
132.1953268969002
 31
0.0
  0
LINE
  5
286D
330
1F
100
AcDbEntity
  8
center
  6
CENTER
100
AcDbLine
 10
1073.906464358624
 20
139.6953268969002
 30
0.0
 11
1073.906464358624
 21
143.1953268969002
 31
0.0
  0
LINE
  5
286E
330
1F
100
AcDbEntity
  8
center
  6
CENTER
100
AcDbLine
 10
1092.656464358624
 20
138.4453268969002
 30
0.0
 11
1094.656464358624
 21
138.4453268969002
 31
0.0
  0
LINE
  5
286F
330
1F
100
AcDbEntity
  8
center
  6
CENTER
100
AcDbLine
 10
1093.656464358624
 20
137.4453268969002
 30
0.0
 11
1093.656464358624
 21
139.4453268969002
 31
0.0
  0
LINE
  5
2870
330
1F
100
AcDbEntity
  8
center
  6
CENTER
100
AcDbLine
 10
1091.656464358624
 20
138.4453268969002
 30
0.0
 11
1085.656464358624
 21
138.4453268969002
 31
0.0
  0
LINE
  5
2871
330
1F
100
AcDbEntity
  8
center
  6
CENTER
100
AcDbLine
 10
1095.656464358624
 20
138.4453268969002
 30
0.0
 11
1101.656464358624
 21
138.4453268969002
 31
0.0
  0
LINE
  5
2872
330
1F
100
AcDbEntity
  8
center
  6
CENTER
100
AcDbLine
 10
1093.656464358624
 20
136.4453268969002
 30
0.0
 11
1093.656464358624
 21
130.4453268969002
 31
0.0
  0
LINE
  5
2873
330
1F
100
AcDbEntity
  8
center
  6
CENTER
100
AcDbLine
 10
1093.656464358624
 20
140.4453268969002
 30
0.0
 11
1093.656464358624
 21
146.4453268969002
 31
0.0
  0
LINE
  5
2874
330
1F
100
AcDbEntity
  8
center
  6
CENTER
100
AcDbLine
 10
1061.906464358624
 20
158.6953268969002
 30
0.0
 11
1165.906464358624
 21
158.6953268969002
 31
0.0
  0
LINE
  5
2875
330
1F
100
AcDbEntity
  8
center
  6
CENTER
100
AcDbLine
 10
1113.60790622415
 20
193.1953268969002
 30
0.0
 11
1113.60790622415
 21
124.5072053911776
 31
0.0
  0
LINE
  5
2876
330
1F
100
AcDbEntity
  8
0
100
AcDbLine
 10
1030.235321780809
 20
191.1953268969002
 30
0.0
 11
1030.235321780809
 21
126.1953268969002
 31
0.0
  0
LINE
  5
2877
330
1F
100
AcDbEntity
  8
0
100
AcDbLine
 10
1030.235321780809
 20
126.1953268969002
 30
0.0
 11
1042.235321780809
 21
126.1953268969002
 31
0.0
  0
LINE
  5
2878
330
1F
100
AcDbEntity
  8
0
100
AcDbLine
 10
1030.235321780809
 20
191.1953268969002
 30
0.0
 11
1042.235321780809
 21
191.1953268969002
 31
0.0
  0
LINE
  5
2879
330
1F
100
AcDbEntity
  8
center
  6
CENTER
100
AcDbLine
 10
1027.988936894313
 20
158.6953268969002
 30
0.0
 11
1046.416040082762
 21
158.6953268969002
 31
0.0
  0
LINE
  5
287A
330
1F
100
AcDbEntity
  8
0
100
AcDbLine
 10
1064.406464358624
 20
126.1953268969002
 30
0.0
 11
1063.906464358624
 21
126.6953268969002
 31
0.0
  0
LINE
  5
287B
330
1F
100
AcDbEntity
  8
0
100
AcDbLine
 10
1064.406464358624
 20
191.1953268969002
 30
0.0
 11
1063.906464358624
 21
190.6953268969002
 31
0.0
  0
LINE
  5
287C
330
1F
100
AcDbEntity
  8
0
100
AcDbLine
 10
1163.406464358624
 20
191.1953268969002
 30
0.0
 11
1163.906464358624
 21
190.6953268969002
 31
0.0
  0
LINE
  5
287D
330
1F
100
AcDbEntity
  8
0
100
AcDbLine
 10
1163.906464358624
 20
126.6953268969002
 30
0.0
 11
1163.406464358624
 21
126.1953268969002
 31
0.0
  0
LINE
  5
287E
330
1F
100
AcDbEntity
  8
center
  6
CENTER
100
AcDbLine
 10
1027.988936894313
 20
137.6953268969002
 30
0.0
 11
1046.416040082762
 21
137.6953268969002
 31
0.0
  0
LINE
  5
287F
330
1F
100
AcDbEntity
  8
center
  6
CENTER
100
AcDbLine
 10
1027.988936894313
 20
179.6953268969002
 30
0.0
 11
1046.416040082762
 21
179.6953268969002
 31
0.0
  0
LINE
  5
2880
330
1F
100
AcDbEntity
  8
0
100
AcDbLine
 10
1063.60790622415
 20
217.9736183361765
 30
0.0
 11
1163.60790622415
 21
217.9736183361768
 31
0.0
  0
LINE
  5
2881
330
1F
100
AcDbEntity
  8
0
100
AcDbLine
 10
1063.60790622415
 20
229.9736183361765
 30
0.0
 11
1063.60790622415
 21
217.9736183361765
 31
0.0
  0
LINE
  5
2882
330
1F
100
AcDbEntity
  8
0
100
AcDbLine
 10
1163.60790622415
 20
229.9736183361767
 30
0.0
 11
1163.60790622415
 21
217.9736183361768
 31
0.0
  0
LINE
  5
2883
330
1F
100
AcDbEntity
  8
0
100
AcDbLine
 10
1063.60790622415
 20
229.9736183361765
 30
0.0
 11
1163.60790622415
 21
229.9736183361767
 31
0.0
  0
LINE
  5
2884
330
1F
100
AcDbEntity
  8
center
  6
CENTER
100
AcDbLine
 10
1113.60790622415
 20
232.2200032226728
 30
0.0
 11
1113.60790622415
 21
213.7929000342237
 31
0.0
  0
LINE
  5
2885
330
1F
100
AcDbEntity
  8
center
  6
CENTER
100
AcDbLine
 10
1073.60790622415
 20
232.2200032226726
 30
0.0
 11
1073.60790622415
 21
213.7929000342235
 31
0.0
  0
LINE
  5
2886
330
1F
100
AcDbEntity
  8
center
  6
CENTER
100
AcDbLine
 10
1153.60790622415
 20
232.2200032226728
 30
0.0
 11
1153.60790622415
 21
213.7929000342237
 31
0.0
  0
LINE
  5
2888
330
1F
100
AcDbEntity
  8
hidden
  6
DASHED
100
AcDbLine
 10
1158.10790622415
 20
229.9736183361767
 30
0.0
 11
1158.10790622415
 21
217.9736183361768
 31
0.0
  0
LINE
  5
2889
330
1F
100
AcDbEntity
  8
hidden
  6
DASHED
100
AcDbLine
 10
1149.10790622415
 20
229.9736183361767
 30
0.0
 11
1149.10790622415
 21
217.9736183361768
 31
0.0
  0
LINE
  5
288A
330
1F
100
AcDbEntity
  8
hidden
  6
DASHED
100
AcDbLine
 10
1078.10790622415
 20
229.9736183361767
 30
0.0
 11
1078.10790622415
 21
217.9736183361768
 31
0.0
  0
LINE
  5
288B
330
1F
100
AcDbEntity
  8
hidden
  6
DASHED
100
AcDbLine
 10
1069.10790622415
 20
229.9736183361767
 30
0.0
 11
1069.10790622415
 21
217.9736183361768
 31
0.0
  0
LINE
  5
288E
330
1F
100
AcDbEntity
  8
0
 62
     4
100
AcDbLine
 10
978.9558308110509
 20
104.2189180472453
 30
0.0
 11
978.9558308110509
 21
428.872209643596
 31
0.0
  0
LINE
  5
288F
330
1F
100
AcDbEntity
  8
0
 62
     4
100
AcDbLine
 10
978.9558308110509
 20
272.1797917534654
 30
0.0
 11
1212.413351906489
 21
272.1797917534653
 31
0.0
  0
TEXT
  5
2890
330
1F
100
AcDbEntity
  8
0
100
AcDbText
 10
994.3269526573004
 20
404.9531199020911
 30
0.0
 40
7.0
  1
LB
100
AcDbText
  0
TEXT
  5
2892
330
1F
100
AcDbEntity
  8
0
100
AcDbText
 10
994.3269526573004
 20
254.5223096294737
 30
0.0
 40
7.0
  1
FAC
100
AcDbText
  0
ENDSEC
  0
SECTION
  2
OBJECTS
  0
DICTIONARY
  5
C
330
0
100
AcDbDictionary
281
     1
  3
ACAD_COLOR
350
7D1
  3
ACAD_GROUP
350
D
  3
ACAD_LAYOUT
350
1A
  3
ACAD_MATERIAL
350
7D0
  3
ACAD_MLINESTYLE
350
17
  3
ACAD_PLOTSETTINGS
350
19
  3
ACAD_PLOTSTYLENAME
350
E
  3
ACAD_TABLESTYLE
350
7D2
  3
ACDBHEADERROUNDTRIPXREC
350
2987
  3
AcDbVariableDictionary
350
82
  3
AcmDictionary
350
45
  3
AMG
350
2B
  3
AMGSNAPSETTINGS
350
87
  3
DWGPROPS
350
2986
  0
DICTIONARY
  5
AAB
330
2
100
AcDbDictionary
280
     1
281
     1
  3
ACAD_LAYERFILTERS
360
28D9
  3
ACAD_LAYERSTATES
360
AAC
  3
ACLYDICTIONARY
360
28D8
  3
AMLAYER_GROUPCOLORS
360
15F6
  0
DICTIONARY
  5
7D
330
1F
100
AcDbDictionary
280
     1
281
     1
  3
ACAD_SORTENTS
360
EEA
  0
DICTIONARY
  5
1FF2
330
1FE5
100
AcDbDictionary
280
     1
281
     1
  3
ACAD_DIMASSOC
360
1FF3
  0
DICTIONARY
  5
2025
330
2018
100
AcDbDictionary
280
     1
281
     1
  3
ACAD_DIMASSOC
360
2026
  0
DICTIONARY
  5
2075
330
2068
100
AcDbDictionary
280
     1
281
     1
  3
ACAD_DIMASSOC
360
2076
  0
DICTIONARY
  5
209B
330
208E
100
AcDbDictionary
280
     1
281
     1
  3
ACAD_DIMASSOC
360
209C
  0
DICTIONARY
  5
20E7
330
20DA
100
AcDbDictionary
280
     1
281
     1
  3
ACAD_DIMASSOC
360
20E8
  0
DICTIONARY
  5
216A
330
215D
100
AcDbDictionary
280
     1
281
     1
  3
ACAD_DIMASSOC
360
216B
  0
DICTIONARY
  5
21F9
330
21EC
100
AcDbDictionary
280
     1
281
     1
  3
ACAD_DIMASSOC
360
21FA
  0
DICTIONARY
  5
22A8
330
229B
100
AcDbDictionary
280
     1
281
     1
  3
ACAD_DIMASSOC
360
22A9
  0
DICTIONARY
  5
2356
330
2349
100
AcDbDictionary
280
     1
281
     1
  3
ACAD_DIMASSOC
360
2357
  0
DICTIONARY
  5
23E2
330
23D5
100
AcDbDictionary
280
     1
281
     1
  3
ACAD_DIMASSOC
360
23E3
  0
DICTIONARY
  5
243E
330
2431
100
AcDbDictionary
280
     1
281
     1
  3
ACAD_DIMASSOC
360
243F
  0
DICTIONARY
  5
2464
330
2457
100
AcDbDictionary
280
     1
281
     1
  3
ACAD_DIMASSOC
360
2465
  0
DICTIONARY
  5
7D1
102
{ACAD_REACTORS
330
C
102
}
330
C
100
AcDbDictionary
281
     1
  0
DICTIONARY
  5
D
102
{ACAD_REACTORS
330
C
102
}
330
C
100
AcDbDictionary
281
     1
  0
DICTIONARY
  5
1A
102
{ACAD_REACTORS
330
C
102
}
330
C
100
AcDbDictionary
281
     1
  3
Layout1
350
1E
  3
Layout2
350
26
  3
Model
350
22
  0
DICTIONARY
  5
7D0
102
{ACAD_REACTORS
330
C
102
}
330
C
100
AcDbDictionary
281
     1
  0
DICTIONARY
  5
17
102
{ACAD_REACTORS
330
C
102
}
330
C
100
AcDbDictionary
281
     1
  3
Standard
350
18
  0
DICTIONARY
  5
19
102
{ACAD_REACTORS
330
C
102
}
330
C
100
AcDbDictionary
281
     1
  0
ACDBDICTIONARYWDFLT
  5
E
102
{ACAD_REACTORS
330
C
102
}
330
C
100
AcDbDictionary
281
     1
  3
Normal
350
F
100
AcDbDictionaryWithDefault
340
F
  0
DICTIONARY
  5
7D2
102
{ACAD_REACTORS
330
C
102
}
330
C
100
AcDbDictionary
281
     1
  3
Standard
350
7D3
  0
DICTIONARY
  5
2987
102
{ACAD_REACTORS
330
C
102
}
330
C
100
AcDbDictionary
281
     1
  0
DICTIONARY
  5
82
102
{ACAD_REACTORS
330
C
102
}
330
C
100
AcDbDictionary
281
     1
  3
CTABLESTYLE
350
847
  3
DIMASSOC
350
85
  3
HIDETEXT
350
84
  3
INDEXCTL
350
83
  3
PROJECTNAME
350
848
  0
DICTIONARY
  5
45
102
{ACAD_REACTORS
330
C
102
}
330
C
100
AcDbDictionary
281
     1
  3
AcmStdDictionary
350
4A
  3
AMDTSECTSYM_ARROWCOLOR
350
7DF
  0
DICTIONARY
  5
2B
102
{ACAD_REACTORS
330
C
102
}
330
C
100
AcDbDictionary
281
     1
  0
DICTIONARY
  5
87
102
{ACAD_REACTORS
330
C
102
}
330
C
100
AcDbDictionary
281
     1
  0
XRECORD
  5
2986
102
{ACAD_REACTORS
330
C
102
}
330
C
100
AcDbXrecord
280
     1
  1
DWGPROPS COOKIE
  2

  3

  4

  6

  7

  8

  9

300
AmdtFileType=84
301
=
302
=
303
=
304
=
305
=
306
=
307
=
308
=
309
=
 40
0.4927293750000001
 41
2453021.369367211
 42
2453517.559543183
  1

 90
        1
  0
DICTIONARY
  5
28D9
102
{ACAD_REACTORS
330
AAB
102
}
330
AAB
100
AcDbDictionary
281
     1
  0
DICTIONARY
  5
AAC
102
{ACAD_REACTORS
330
AAB
102
}
330
AAB
100
AcDbDictionary
281
     1
  0
DICTIONARY
  5
28D8
102
{ACAD_REACTORS
330
AAB
102
}
330
AAB
100
AcDbDictionary
281
     1
1001
ACAD
1000
<All
  0
DICTIONARY
  5
15F6
102
{ACAD_REACTORS
330
AAB
102
}
330
AAB
100
AcDbDictionary
280
     1
281
     1
  0
SORTENTSTABLE
  5
EEA
102
{ACAD_REACTORS
330
7D
102
}
330
7D
100
AcDbSortentsTable
330
1F
331
143E
  5
143E
331
1407
  5
1407
331
140F
  5
140F
331
144E
  5
144E
331
1417
  5
1417
331
1456
  5
1456
331
17D9
  5
17D9
331
18B6
  5
18B6
331
1818
  5
1818
331
17E1
  5
17E1
331
187F
  5
187F
331
18BE
  5
18BE
331
1820
  5
1820
331
17E9
  5
17E9
331
1887
  5
1887
331
1FC3
  5
1FC3
331
18C6
  5
18C6
331
1828
  5
1828
331
17B2
  5
17B2
331
1995
  5
1995
331
1F8C
  5
1F8C
331
1FCB
  5
1FCB
331
1F94
  5
1F94
331
241C
  5
241C
331
2068
  5
2068
331
225E
  5
225E
331
2266
  5
2266
331
141F
  5
141F
331
1427
  5
1427
331
1466
  5
1466
331
142F
  5
142F
331
13F8
  5
13F8
331
146E
  5
146E
331
1437
  5
1437
331
1476
  5
1476
331
1860
  5
1860
331
1897
  5
1897
331
1F9C
  5
1F9C
331
1FA4
  5
1FA4
331
1801
  5
1801
331
17CA
  5
17CA
331
189F
  5
189F
331
1966
  5
1966
331
1FAC
  5
1FAC
331
18A7
  5
18A7
331
1809
  5
1809
331
1870
  5
1870
331
196E
  5
196E
331
1FB4
  5
1FB4
331
18AF
  5
18AF
331
23D5
  5
23D5
331
227E
  5
227E
331
1400
  5
1400
331
143F
  5
143F
331
1408
  5
1408
331
17DA
  5
17DA
331
1878
  5
1878
331
1457
  5
1457
331
18B7
  5
18B7
331
1819
  5
1819
331
17E2
  5
17E2
331
1880
  5
1880
331
1FC4
  5
1FC4
331
18BF
  5
18BF
331
1821
  5
1821
331
17EA
  5
17EA
331
1888
  5
1888
331
198E
  5
198E
331
1F8D
  5
1F8D
331
18C7
  5
18C7
331
1829
  5
1829
331
17B3
  5
17B3
331
1996
  5
1996
331
1FCC
  5
1FCC
331
1F95
  5
1F95
331
18CF
  5
18CF
331
241D
  5
241D
331
225F
  5
225F
331
1418
  5
1418
331
13F1
  5
13F1
331
1428
  5
1428
331
1467
  5
1467
331
1430
  5
1430
331
13F9
  5
13F9
331
146F
  5
146F
331
1859
  5
1859
331
1890
  5
1890
331
1477
  5
1477
331
1F9D
  5
1F9D
331
1861
  5
1861
331
1898
  5
1898
331
1FA5
  5
1FA5
331
1802
  5
1802
331
17CB
  5
17CB
331
18A0
  5
18A0
331
1967
  5
1967
331
1DFE
  5
1DFE
331
1FAD
  5
1FAD
331
18A8
  5
18A8
331
180A
  5
180A
331
1871
  5
1871
331
196F
  5
196F
331
1FB5
  5
1FB5
331
227F
  5
227F
331
1438
  5
1438
331
1401
  5
1401
331
1440
  5
1440
331
1409
  5
1409
331
1411
  5
1411
331
18B0
  5
18B0
331
17DB
  5
17DB
331
1879
  5
1879
331
1FBD
  5
1FBD
331
18B8
  5
18B8
331
181A
  5
181A
331
17E3
  5
17E3
331
1881
  5
1881
331
1987
  5
1987
331
1F86
  5
1F86
331
18C0
  5
18C0
331
1822
  5
1822
331
17EB
  5
17EB
331
1889
  5
1889
331
198F
  5
198F
331
1FC5
  5
1FC5
331
1F8E
  5
1F8E
331
18C8
  5
18C8
331
182A
  5
182A
331
17B4
  5
17B4
331
1997
  5
1997
331
1FCD
  5
1FCD
331
1F96
  5
1F96
331
241E
  5
241E
331
2260
  5
2260
331
1458
  5
1458
331
1421
  5
1421
331
13F2
  5
13F2
331
1429
  5
1429
331
1431
  5
1431
331
13FA
  5
13FA
331
1470
  5
1470
331
17BC
  5
17BC
331
185A
  5
185A
331
1891
  5
1891
331
1F9E
  5
1F9E
331
1862
  5
1862
331
1899
  5
1899
331
1FA6
  5
1FA6
331
18A1
  5
18A1
331
1803
  5
1803
331
17CC
  5
17CC
331
186A
  5
186A
331
1968
  5
1968
331
1FAE
  5
1FAE
331
18A9
  5
18A9
331
180B
  5
180B
331
1872
  5
1872
331
1970
  5
1970
331
1FB6
  5
1FB6
331
2280
  5
2280
331
249E
  5
249E
331
1402
  5
1402
331
1478
  5
1478
331
1441
  5
1441
331
140A
  5
140A
331
14B8
  5
14B8
331
1449
  5
1449
331
1412
  5
1412
331
18B1
  5
18B1
331
1813
  5
1813
331
17DC
  5
17DC
331
187A
  5
187A
331
1FBE
  5
1FBE
331
18B9
  5
18B9
331
17E4
  5
17E4
331
1882
  5
1882
331
1990
  5
1990
331
18C1
  5
18C1
331
1823
  5
1823
331
17AD
  5
17AD
331
17EC
  5
17EC
331
188A
  5
188A
331
1F87
  5
1F87
331
1FC6
  5
1FC6
331
1F8F
  5
1F8F
331
18C9
  5
18C9
331
182B
  5
182B
331
17B5
  5
17B5
331
1F97
  5
1F97
331
20DA
  5
20DA
331
241F
  5
241F
331
2259
  5
2259
331
2261
  5
2261
331
1459
  5
1459
331
1422
  5
1422
331
1461
  5
1461
331
13F3
  5
13F3
331
142A
  5
142A
331
1471
  5
1471
331
13FB
  5
13FB
331
1432
  5
1432
331
1998
  5
1998
331
17BD
  5
17BD
331
185B
  5
185B
331
1892
  5
1892
331
1F9F
  5
1F9F
331
17C5
  5
17C5
331
17FC
  5
17FC
331
1863
  5
1863
331
189A
  5
189A
331
1969
  5
1969
331
186B
  5
186B
331
17CD
  5
17CD
331
1804
  5
1804
331
18A2
  5
18A2
331
1FA7
  5
1FA7
331
18AA
  5
18AA
331
1873
  5
1873
331
1FAF
  5
1FAF
331
1FB7
  5
1FB7
331
2457
  5
2457
331
2281
  5
2281
331
249F
  5
249F
331
143A
  5
143A
331
1403
  5
1403
331
1479
  5
1479
331
1442
  5
1442
331
1413
  5
1413
331
1452
  5
1452
331
18B2
  5
18B2
331
1814
  5
1814
331
17DD
  5
17DD
331
187B
  5
187B
331
18BA
  5
18BA
331
17E5
  5
17E5
331
1883
  5
1883
331
1989
  5
1989
331
1FBF
  5
1FBF
331
18C2
  5
18C2
331
1824
  5
1824
331
17ED
  5
17ED
331
188B
  5
188B
331
1991
  5
1991
331
1F88
  5
1F88
331
1FC7
  5
1FC7
331
182C
  5
182C
331
17B6
  5
17B6
331
1F90
  5
1F90
331
2349
  5
2349
331
225A
  5
225A
331
2262
  5
2262
331
142B
  5
142B
331
1433
  5
1433
331
13FC
  5
13FC
331
1472
  5
1472
331
17BE
  5
17BE
331
17F5
  5
17F5
331
185C
  5
185C
331
1893
  5
1893
331
1999
  5
1999
331
1F98
  5
1F98
331
17C6
  5
17C6
331
17FD
  5
17FD
331
1864
  5
1864
331
189B
  5
189B
331
1962
  5
1962
331
1FA0
  5
1FA0
331
18A3
  5
18A3
331
17CE
  5
17CE
331
186C
  5
186C
331
196A
  5
196A
331
1FA8
  5
1FA8
331
18AB
  5
18AB
331
17D6
  5
17D6
331
1874
  5
1874
331
1FB0
  5
1FB0
331
1FE5
  5
1FE5
331
23F1
  5
23F1
331
20B4
  5
20B4
331
143B
  5
143B
331
1404
  5
1404
331
1443
  5
1443
331
1414
  5
1414
331
1453
  5
1453
331
18B3
  5
18B3
331
1815
  5
1815
331
187C
  5
187C
331
1FB8
  5
1FB8
331
181D
  5
181D
331
17E6
  5
17E6
331
1884
  5
1884
331
198A
  5
198A
331
1FC0
  5
1FC0
331
18C3
  5
18C3
331
1825
  5
1825
331
17EE
  5
17EE
331
188C
  5
188C
331
1992
  5
1992
331
1F89
  5
1F89
331
1FC8
  5
1FC8
331
182D
  5
182D
331
17B7
  5
17B7
331
1F91
  5
1F91
331
2431
  5
2431
331
225B
  5
225B
331
2263
  5
2263
331
13F5
  5
13F5
331
142C
  5
142C
331
146B
  5
146B
331
1434
  5
1434
331
13FD
  5
13FD
331
1473
  5
1473
331
17BF
  5
17BF
331
17F6
  5
17F6
331
185D
  5
185D
331
1894
  5
1894
331
1F99
  5
1F99
331
17C7
  5
17C7
331
17FE
  5
17FE
331
1865
  5
1865
331
189C
  5
189C
331
1963
  5
1963
331
1FA1
  5
1FA1
331
18A4
  5
18A4
331
186D
  5
186D
331
196B
  5
196B
331
1FA9
  5
1FA9
331
1875
  5
1875
331
17D7
  5
17D7
331
1FB1
  5
1FB1
331
23F2
  5
23F2
331
229B
  5
229B
331
21EC
  5
21EC
331
143C
  5
143C
331
1405
  5
1405
331
1444
  5
1444
331
140D
  5
140D
331
1415
  5
1415
331
1454
  5
1454
331
18B4
  5
18B4
331
1816
  5
1816
331
187D
  5
187D
331
1FB9
  5
1FB9
331
18BC
  5
18BC
331
181E
  5
181E
331
17E7
  5
17E7
331
1885
  5
1885
331
198B
  5
198B
331
1FC1
  5
1FC1
331
18C4
  5
18C4
331
1826
  5
1826
331
17EF
  5
17EF
331
188D
  5
188D
331
1993
  5
1993
331
1F8A
  5
1F8A
331
1FC9
  5
1FC9
331
182E
  5
182E
331
1F92
  5
1F92
331
203E
  5
203E
331
225C
  5
225C
331
2264
  5
2264
331
1425
  5
1425
331
142D
  5
142D
331
146C
  5
146C
331
1435
  5
1435
331
13FE
  5
13FE
331
1474
  5
1474
331
17B8
  5
17B8
331
17C0
  5
17C0
331
17F7
  5
17F7
331
185E
  5
185E
331
1895
  5
1895
331
1F9A
  5
1F9A
331
17FF
  5
17FF
331
17C8
  5
17C8
331
1866
  5
1866
331
189D
  5
189D
331
1964
  5
1964
331
1FA2
  5
1FA2
331
1807
  5
1807
331
18A5
  5
18A5
331
196C
  5
196C
331
1FAA
  5
1FAA
331
18AD
  5
18AD
331
1876
  5
1876
331
1FB2
  5
1FB2
331
227C
  5
227C
331
208E
  5
208E
331
215D
  5
215D
331
143D
  5
143D
331
1406
  5
1406
331
1445
  5
1445
331
140E
  5
140E
331
144D
  5
144D
331
1416
  5
1416
331
1455
  5
1455
331
17D8
  5
17D8
331
18B5
  5
18B5
331
1817
  5
1817
331
17E0
  5
17E0
331
187E
  5
187E
331
1FBA
  5
1FBA
331
18BD
  5
18BD
331
181F
  5
181F
331
17E8
  5
17E8
331
1886
  5
1886
331
198C
  5
198C
331
1FC2
  5
1FC2
331
18C5
  5
18C5
331
1827
  5
1827
331
188E
  5
188E
331
1994
  5
1994
331
1F8B
  5
1F8B
331
182F
  5
182F
331
1F93
  5
1F93
331
225D
  5
225D
331
145D
  5
145D
331
1426
  5
1426
331
1465
  5
1465
331
13F7
  5
13F7
331
142E
  5
142E
331
146D
  5
146D
331
13FF
  5
13FF
331
1475
  5
1475
331
17F0
  5
17F0
331
17F8
  5
17F8
331
185F
  5
185F
331
1896
  5
1896
331
1F9B
  5
1F9B
331
1800
  5
1800
331
17C9
  5
17C9
331
1867
  5
1867
331
189E
  5
189E
331
1965
  5
1965
331
1FA3
  5
1FA3
331
18A6
  5
18A6
331
1808
  5
1808
331
186F
  5
186F
331
196D
  5
196D
331
1FAB
  5
1FAB
331
18AE
  5
18AE
331
1FB3
  5
1FB3
331
227D
  5
227D
331
2018
  5
2018
  0
DIMASSOC
  5
1FF3
102
{ACAD_REACTORS
330
1FF2
102
}
330
1FF2
100
AcDbDimAssoc
330
1FE5
 90
        2
 70
     0
 71
     0
  1
AcDbOsnapPointRef
 72
    13
331
180B
 73
     0
 91
        0
 40
0.0
 10
0.0
 20
0.0
 30
2.000000000000000E+50
 75
     0
  0
DIMASSOC
  5
2026
102
{ACAD_REACTORS
330
2025
102
}
330
2025
100
AcDbDimAssoc
330
2018
 90
        3
 70
     0
 71
     0
  1
AcDbOsnapPointRef
 72
     6
331
1808
 73
     0
 91
        0
 40
0.000000000000002
 10
0.0
 20
0.0
 30
0.0
332
17F8
 74
     0
 92
        0
 75
     0
  1
AcDbOsnapPointRef
 72
     6
331
1807
 73
     0
 91
        0
 40
0.000000000000002
 10
0.0
 20
0.0
 30
0.0
332
17F7
 74
     0
 92
        0
 75
     0
  0
DIMASSOC
  5
2076
102
{ACAD_REACTORS
330
2075
102
}
330
2075
100
AcDbDimAssoc
330
2068
 90
        2
 70
     0
 71
     0
  1
AcDbOsnapPointRef
 72
    13
331
1969
 73
     0
 91
        0
 40
0.0
 10
0.0
 20
0.0
 30
2.000000000000000E+50
 75
     0
  0
DIMASSOC
  5
209C
102
{ACAD_REACTORS
330
209B
102
}
330
209B
100
AcDbDimAssoc
330
208E
 90
        3
 70
     0
 71
     0
  1
AcDbOsnapPointRef
 72
     1
331
17B8
 73
     0
 91
        0
 40
0.0
 10
0.0
 20
0.0
 30
2.000000000000000E+50
 75
     0
  1
AcDbOsnapPointRef
 72
    13
331
196D
 73
     0
 91
        0
 40
0.0
 10
0.0
 20
0.0
 30
2.000000000000000E+50
 75
     0
  0
DIMASSOC
  5
20E8
102
{ACAD_REACTORS
330
20E7
102
}
330
20E7
100
AcDbDimAssoc
330
20DA
 90
        1
 70
     0
 71
     0
  1
AcDbOsnapPointRef
 72
    13
331
17F8
 73
     0
 91
        0
 40
0.0
 10
0.0
 20
0.0
 30
2.000000000000000E+50
 75
     0
  0
DIMASSOC
  5
216B
102
{ACAD_REACTORS
330
216A
102
}
330
216A
100
AcDbDimAssoc
330
215D
 90
        1
 70
     0
 71
     0
  1
AcDbOsnapPointRef
 72
    13
331
17CA
 73
     0
 91
        0
 40
0.0
 10
0.0
 20
0.0
 30
2.000000000000000E+50
 75
     0
  0
DIMASSOC
  5
21FA
102
{ACAD_REACTORS
330
21F9
102
}
330
21F9
100
AcDbDimAssoc
330
21EC
 90
        3
 70
     0
 71
     0
  1
AcDbOsnapPointRef
 72
    13
331
1872
 73
     0
 91
        0
 40
0.0
 10
0.0
 20
0.0
 30
2.000000000000000E+50
 75
     0
  1
AcDbOsnapPointRef
 72
     1
331
1FC2
 73
     2
 91
        3
 40
0.0
 10
0.0
 20
0.0
 30
2.000000000000000E+50
 75
     0
  0
DIMASSOC
  5
22A9
102
{ACAD_REACTORS
330
22A8
102
}
330
22A8
100
AcDbDimAssoc
330
229B
 90
        3
 70
     0
 71
     0
  1
AcDbOsnapPointRef
 72
     1
331
2281
 73
     0
 91
        0
 40
0.0
 10
0.0
 20
0.0
 30
2.000000000000000E+50
 75
     0
  1
AcDbOsnapPointRef
 72
     1
331
227E
 73
     0
 91
        0
 40
0.0
 10
0.0
 20
0.0
 30
2.000000000000000E+50
 75
     0
  0
DIMASSOC
  5
2357
102
{ACAD_REACTORS
330
2356
102
}
330
2356
100
AcDbDimAssoc
330
2349
 90
        3
 70
     0
 71
     0
  1
AcDbOsnapPointRef
 72
    13
331
17CB
 73
     0
 91
        0
 40
0.0
 10
0.0
 20
0.0
 30
2.000000000000000E+50
 75
     0
  1
AcDbOsnapPointRef
 72
    13
331
17CE
 73
     0
 91
        0
 40
0.0
 10
0.0
 20
0.0
 30
2.000000000000000E+50
 75
     0
  0
DIMASSOC
  5
23E3
102
{ACAD_REACTORS
330
23E2
102
}
330
23E2
100
AcDbDimAssoc
330
23D5
 90
        3
 70
     0
 71
     0
  1
AcDbOsnapPointRef
 72
     6
331
1989
 73
     0
 91
        0
 40
0.0000000000000111
 10
0.0
 20
0.0
 30
0.0
332
1987
 74
     0
 92
        0
 75
     0
  1
AcDbOsnapPointRef
 72
     6
331
198A
 73
     0
 91
        0
 40
0.0000000000000167
 10
0.0
 20
0.0
 30
0.0
332
1987
 74
     0
 92
        0
 75
     0
  0
DIMASSOC
  5
243F
102
{ACAD_REACTORS
330
243E
102
}
330
243E
100
AcDbDimAssoc
330
2431
 90
        1
 70
     0
 71
     0
  1
AcDbOsnapPointRef
 72
    13
331
1878
 73
     0
 91
        0
 40
0.0
 10
0.0
 20
0.0
 30
2.000000000000000E+50
 75
     0
  0
DIMASSOC
  5
2465
102
{ACAD_REACTORS
330
2464
102
}
330
2464
100
AcDbDimAssoc
330
2457
 90
        3
 70
     0
 71
     0
  1
AcDbOsnapPointRef
 72
     6
331
1875
 73
     0
 91
        0
 40
0.0000000000000045
 10
0.0
 20
0.0
 30
0.0
332
187A
 74
     0
 92
        0
 75
     0
  1
AcDbOsnapPointRef
 72
    13
331
18B0
 73
     0
 91
        0
 40
0.0
 10
0.0
 20
0.0
 30
2.000000000000000E+50
 75
     0
  0
LAYOUT
  5
1E
102
{ACAD_XDICTIONARY
360
2988
102
}
102
{ACAD_REACTORS
330
1A
102
}
330
1A
100
AcDbPlotSettings
  1

  2
自動 RD 上的 Epson Stylus Photo 750 單色
  4

  6

 40
0.0
 41
0.0
 42
0.0
 43
0.0
 44
0.0
 45
0.0
 46
0.0
 47
0.0
 48
0.0
 49
0.0
140
0.0
141
0.0
142
1.0
143
1.0
 70
   688
 72
     0
 73
     0
 74
     5
  7
彩色出圖.ctb
 75
    16
147
1.0
148
0.0
149
0.0
100
AcDbLayout
  1
Layout1
 70
     1
 71
     1
 10
0.0
 20
0.0
 11
420.0
 21
297.0
 12
0.0
 22
0.0
 32
0.0
 14
1.000000000000000E+20
 24
1.000000000000000E+20
 34
1.000000000000000E+20
 15
-1.000000000000000E+20
 25
-1.000000000000000E+20
 35
-1.000000000000000E+20
146
0.0
 13
0.0
 23
0.0
 33
0.0
 16
1.0
 26
0.0
 36
0.0
 17
0.0
 27
1.0
 37
0.0
 76
     0
330
1B
  0
LAYOUT
  5
26
102
{ACAD_XDICTIONARY
360
298C
102
}
102
{ACAD_REACTORS
330
1A
102
}
330
1A
100
AcDbPlotSettings
  1

  2
自動 RD 上的 Epson Stylus Photo 750 單色
  4

  6

 40
0.0
 41
0.0
 42
0.0
 43
0.0
 44
0.0
 45
0.0
 46
0.0
 47
0.0
 48
0.0
 49
0.0
140
0.0
141
0.0
142
1.0
143
1.0
 70
   688
 72
     0
 73
     0
 74
     5
  7
彩色出圖.ctb
 75
    16
147
1.0
148
0.0
149
0.0
100
AcDbLayout
  1
Layout2
 70
     1
 71
     2
 10
0.0
 20
0.0
 11
12.0
 21
9.0
 12
0.0
 22
0.0
 32
0.0
 14
0.0
 24
0.0
 34
0.0
 15
0.0
 25
0.0
 35
0.0
146
0.0
 13
0.0
 23
0.0
 33
0.0
 16
1.0
 26
0.0
 36
0.0
 17
0.0
 27
1.0
 37
0.0
 76
     0
330
23
  0
LAYOUT
  5
22
102
{ACAD_XDICTIONARY
360
298A
102
}
102
{ACAD_REACTORS
330
1A
102
}
330
1A
100
AcDbPlotSettings
  1

  2
自動 RD 上的 Epson Stylus Photo 750 單色
  4
A4
  6

 40
3.757083177566528
 41
14.7637300491333
 42
3.757080078125
 43
3.757080078125
 44
209.9733276367187
 45
296.9683227539062
 46
7.54
 47
0.0
 48
0.0
 49
0.0
140
0.0
141
0.0
142
1.0
143
1.817317462545654
 70
 11956
 72
     1
 73
     0
 74
     1
  7
彩色出圖.ctb
 75
     0
147
0.5502615919395967
148
-125.5654918467224
149
222.8859553785132
100
AcDbLayout
  1
Model
 70
     1
 71
     0
 10
0.0
 20
0.0
 11
12.0
 21
9.0
 12
0.0
 22
0.0
 32
0.0
 14
0.0
 24
0.0
 34
0.0
 15
0.0
 25
0.0
 35
0.0
146
0.0
 13
0.0
 23
0.0
 33
0.0
 16
1.0
 26
0.0
 36
0.0
 17
0.0
 27
1.0
 37
0.0
 76
     0
330
1F
  0
MLINESTYLE
  5
18
102
{ACAD_REACTORS
330
17
102
}
330
17
100
AcDbMlineStyle
  2
STANDARD
 70
     0
  3

 62
   256
 51
90.0
 52
90.0
 71
     2
 49
0.5
 62
   256
  6
BYLAYER
 49
-0.5
 62
   256
  6
BYLAYER
  0
ACDBPLACEHOLDER
  5
F
102
{ACAD_REACTORS
330
E
102
}
330
E
  0
TABLESTYLE
  5
7D3
102
{ACAD_REACTORS
330
7D2
102
}
330
7D2
100
AcDbTableStyle
  3
Standard
 70
     0
 71
     0
 40
1.5
 41
1.5
280
     0
281
     0
  7
STANDARD
140
4.5
170
     2
 62
     0
 63
     7
283
     0
274
    -2
284
     1
 64
     0
275
    -2
285
     1
 65
     0
276
    -2
286
     1
 66
     0
277
    -2
287
     1
 67
     0
278
    -2
288
     1
 68
     0
279
    -2
289
     1
 69
     0
  7
STANDARD
140
6.0
170
     5
 62
     0
 63
     7
283
     0
274
    -2
284
     1
 64
     0
275
    -2
285
     1
 65
     0
276
    -2
286
     1
 66
     0
277
    -2
287
     1
 67
     0
278
    -2
288
     1
 68
     0
279
    -2
289
     1
 69
     0
  7
STANDARD
140
4.5
170
     5
 62
     0
 63
     7
283
     0
274
    -2
284
     1
 64
     0
275
    -2
285
     1
 65
     0
276
    -2
286
     1
 66
     0
277
    -2
287
     1
 67
     0
278
    -2
288
     1
 68
     0
279
    -2
289
     1
 69
     0
  0
DICTIONARYVAR
  5
847
102
{ACAD_REACTORS
330
82
102
}
330
82
100
DictionaryVariables
280
     0
  1
STANDARD
  0
DICTIONARYVAR
  5
85
102
{ACAD_REACTORS
330
82
102
}
330
82
100
DictionaryVariables
280
     0
  1
2
  0
DICTIONARYVAR
  5
84
102
{ACAD_REACTORS
330
82
102
}
330
82
100
DictionaryVariables
280
     0
  1
1
  0
DICTIONARYVAR
  5
83
102
{ACAD_REACTORS
330
82
102
}
330
82
100
DictionaryVariables
280
     0
  1
0
  0
DICTIONARYVAR
  5
848
102
{ACAD_REACTORS
330
82
102
}
330
82
100
DictionaryVariables
280
     0
  1

  0
DICTIONARY
  5
4A
102
{ACAD_REACTORS
330
45
102
}
330
45
100
AcDbDictionary
281
     1
  0
XRECORD
  5
7DF
102
{ACAD_REACTORS
330
45
102
}
330
45
100
AcDbXrecord
280
     1
 90
-1023410169
  0
DICTIONARY
  5
2988
330
1E
100
AcDbDictionary
280
     1
281
     1
  3
ACAD_XREC_ROUNDTRIP
360
2989
  0
DICTIONARY
  5
298C
330
26
100
AcDbDictionary
280
     1
281
     1
  3
ACAD_XREC_ROUNDTRIP
360
298D
  0
DICTIONARY
  5
298A
330
22
100
AcDbDictionary
280
     1
281
     1
  3
ACAD_XREC_ROUNDTRIP
360
298B
  0
XRECORD
  5
2989
102
{ACAD_REACTORS
330
2988
102
}
330
2988
100
AcDbXrecord
280
     1
102
SHADEPLOT
 70
     0
102
SHADEPLOTRESLEVEL
 70
     2
102
SHADEPLOTCUSTOMDPI
 70
   300
  0
XRECORD
  5
298D
102
{ACAD_REACTORS
330
298C
102
}
330
298C
100
AcDbXrecord
280
     1
102
SHADEPLOT
 70
     0
102
SHADEPLOTRESLEVEL
 70
     2
102
SHADEPLOTCUSTOMDPI
 70
   300
  0
XRECORD
  5
298B
102
{ACAD_REACTORS
330
298A
102
}
330
298A
100
AcDbXrecord
280
     1
102
SHADEPLOT
 70
     0
102
SHADEPLOTRESLEVEL
 70
     2
102
SHADEPLOTCUSTOMDPI
 70
   300
  0
ENDSEC
  0
EOF
