  0
SECTION
  2
HEADER
  9
$ACADVER
  1
AC1015
  9
$ACADMAINTVER
 70
    20
  9
$DWGCODEPAGE
  3
ANSI_950
  9
$INSBASE
 10
0.0
 20
0.0
 30
0.0
  9
$EXTMIN
 10
2033.66030466009
 20
1196.026248116871
 30
-0.0282512291340709
  9
$EXTMAX
 10
3128.833013863254
 20
1929.666352716745
 30
396.779581322376
  9
$LIMMIN
 10
0.0
 20
0.0
  9
$LIMMAX
 10
420.0
 20
297.0
  9
$ORTHOMODE
 70
     1
  9
$REGENMODE
 70
     1
  9
$FILLMODE
 70
     1
  9
$QTEXTMODE
 70
     0
  9
$MIRRTEXT
 70
     1
  9
$LTSCALE
 40
1.0
  9
$ATTMODE
 70
     1
  9
$TEXTSIZE
 40
3.0
  9
$TRACEWID
 40
1.0
  9
$TEXTSTYLE
  7
CHINESET
  9
$CLAYER
  8
0
  9
$CELTYPE
  6
ByLayer
  9
$CECOLOR
 62
   256
  9
$CELTSCALE
 40
1.0
  9
$DISPSILH
 70
     0
  9
$DIMSCALE
 40
1.0
  9
$DIMASZ
 40
6.0
  9
$DIMEXO
 40
1.0
  9
$DIMDLI
 40
14.0
  9
$DIMRND
 40
0.0
  9
$DIMDLE
 40
0.0
  9
$DIMEXE
 40
1.5
  9
$DIMTP
 40
0.1
  9
$DIMTM
 40
0.1
  9
$DIMTXT
 40
6.0
  9
$DIMCEN
 40
0.0
  9
$DIMTSZ
 40
0.0
  9
$DIMTOL
 70
     0
  9
$DIMLIM
 70
     0
  9
$DIMTIH
 70
     0
  9
$DIMTOH
 70
     0
  9
$DIMSE1
 70
     0
  9
$DIMSE2
 70
     0
  9
$DIMTAD
 70
     1
  9
$DIMZIN
 70
     9
  9
$DIMBLK
  1

  9
$DIMASO
 70
     1
  9
$DIMSHO
 70
     1
  9
$DIMPOST
  1

  9
$DIMAPOST
  1
"
  9
$DIMALT
 70
     0
  9
$DIMALTD
 70
     2
  9
$DIMALTF
 40
0.0393701
  9
$DIMLFAC
 40
1.0
  9
$DIMTOFL
 70
     1
  9
$DIMTVP
 40
0.0
  9
$DIMTIX
 70
     0
  9
$DIMSOXD
 70
     0
  9
$DIMSAH
 70
     0
  9
$DIMBLK1
  1

  9
$DIMBLK2
  1

  9
$DIMSTYLE
  2
AM_ISO
  9
$DIMCLRD
 70
   256
  9
$DIMCLRE
 70
   256
  9
$DIMCLRT
 70
   256
  9
$DIMTFAC
 40
0.71
  9
$DIMGAP
 40
1.5
  9
$DIMJUST
 70
     0
  9
$DIMSD1
 70
     0
  9
$DIMSD2
 70
     0
  9
$DIMTOLJ
 70
     2
  9
$DIMTZIN
 70
     8
  9
$DIMALTZ
 70
     0
  9
$DIMALTTZ
 70
     0
  9
$DIMUPT
 70
     0
  9
$DIMDEC
 70
     2
  9
$DIMTDEC
 70
     8
  9
$DIMALTU
 70
     2
  9
$DIMALTTD
 70
     2
  9
$DIMTXSTY
  7
STANDARD
  9
$DIMAUNIT
 70
     0
  9
$DIMADEC
 70
     0
  9
$DIMALTRND
 40
0.0
  9
$DIMAZIN
 70
     2
  9
$DIMDSEP
 70
    46
  9
$DIMATFIT
 70
     3
  9
$DIMFRAC
 70
     0
  9
$DIMLDRBLK
  1

  9
$DIMLUNIT
 70
     2
  9
$DIMLWD
 70
    -1
  9
$DIMLWE
 70
    -1
  9
$DIMTMOVE
 70
     0
  9
$LUNITS
 70
     2
  9
$LUPREC
 70
     2
  9
$SKETCHINC
 40
1.0
  9
$FILLETRAD
 40
2.5
  9
$AUNITS
 70
     0
  9
$AUPREC
 70
     0
  9
$MENU
  1
.
  9
$ELEVATION
 40
0.0
  9
$PELEVATION
 40
0.0
  9
$THICKNESS
 40
0.0
  9
$LIMCHECK
 70
     0
  9
$CHAMFERA
 40
1.0
  9
$CHAMFERB
 40
1.0
  9
$CHAMFERC
 40
20.0
  9
$CHAMFERD
 40
0.0
  9
$SKPOLY
 70
     0
  9
$TDCREATE
 40
2453516.660980903
  9
$TDUCREATE
 40
2453516.327647569
  9
$TDUPDATE
 40
2453517.564290903
  9
$TDUUPDATE
 40
2453517.230957570
  9
$TDINDWG
 40
0.1616362731
  9
$TDUSRTIMER
 40
0.1616362731
  9
$USRTIMER
 70
     1
  9
$ANGBASE
 50
0.0
  9
$ANGDIR
 70
     0
  9
$PDMODE
 70
     0
  9
$PDSIZE
 40
0.0
  9
$PLINEWID
 40
0.0
  9
$SPLFRAME
 70
     0
  9
$SPLINETYPE
 70
     6
  9
$SPLINESEGS
 70
     8
  9
$HANDSEED
  5
30A1
  9
$SURFTAB1
 70
     6
  9
$SURFTAB2
 70
     6
  9
$SURFTYPE
 70
     6
  9
$SURFU
 70
     6
  9
$SURFV
 70
     6
  9
$UCSBASE
  2

  9
$UCSNAME
  2

  9
$UCSORG
 10
0.0
 20
0.0
 30
0.0
  9
$UCSXDIR
 10
1.0
 20
0.0
 30
0.0
  9
$UCSYDIR
 10
0.0
 20
1.0
 30
0.0
  9
$UCSORTHOREF
  2

  9
$UCSORTHOVIEW
 70
     0
  9
$UCSORGTOP
 10
0.0
 20
0.0
 30
0.0
  9
$UCSORGBOTTOM
 10
0.0
 20
0.0
 30
0.0
  9
$UCSORGLEFT
 10
0.0
 20
0.0
 30
0.0
  9
$UCSORGRIGHT
 10
0.0
 20
0.0
 30
0.0
  9
$UCSORGFRONT
 10
0.0
 20
0.0
 30
0.0
  9
$UCSORGBACK
 10
0.0
 20
0.0
 30
0.0
  9
$PUCSBASE
  2

  9
$PUCSNAME
  2

  9
$PUCSORG
 10
0.0
 20
0.0
 30
0.0
  9
$PUCSXDIR
 10
1.0
 20
0.0
 30
0.0
  9
$PUCSYDIR
 10
0.0
 20
1.0
 30
0.0
  9
$PUCSORTHOREF
  2

  9
$PUCSORTHOVIEW
 70
     0
  9
$PUCSORGTOP
 10
0.0
 20
0.0
 30
0.0
  9
$PUCSORGBOTTOM
 10
0.0
 20
0.0
 30
0.0
  9
$PUCSORGLEFT
 10
0.0
 20
0.0
 30
0.0
  9
$PUCSORGRIGHT
 10
0.0
 20
0.0
 30
0.0
  9
$PUCSORGFRONT
 10
0.0
 20
0.0
 30
0.0
  9
$PUCSORGBACK
 10
0.0
 20
0.0
 30
0.0
  9
$USERI1
 70
     0
  9
$USERI2
 70
     0
  9
$USERI3
 70
     0
  9
$USERI4
 70
     0
  9
$USERI5
 70
     0
  9
$USERR1
 40
0.0
  9
$USERR2
 40
0.0
  9
$USERR3
 40
0.0
  9
$USERR4
 40
0.0
  9
$USERR5
 40
0.0
  9
$WORLDVIEW
 70
     1
  9
$SHADEDGE
 70
     3
  9
$SHADEDIF
 70
    70
  9
$TILEMODE
 70
     1
  9
$MAXACTVP
 70
    64
  9
$PINSBASE
 10
0.0
 20
0.0
 30
0.0
  9
$PLIMCHECK
 70
     0
  9
$PEXTMIN
 10
1.000000000000000E+20
 20
1.000000000000000E+20
 30
1.000000000000000E+20
  9
$PEXTMAX
 10
-1.000000000000000E+20
 20
-1.000000000000000E+20
 30
-1.000000000000000E+20
  9
$PLIMMIN
 10
0.0
 20
0.0
  9
$PLIMMAX
 10
420.0
 20
297.0
  9
$UNITMODE
 70
     0
  9
$VISRETAIN
 70
     1
  9
$PLINEGEN
 70
     0
  9
$PSLTSCALE
 70
     1
  9
$TREEDEPTH
 70
  3020
  9
$CMLSTYLE
  2
Standard
  9
$CMLJUST
 70
     0
  9
$CMLSCALE
 40
20.0
  9
$PROXYGRAPHICS
 70
     1
  9
$MEASUREMENT
 70
     1
  9
$CELWEIGHT
370
    -1
  9
$ENDCAPS
280
     0
  9
$JOINSTYLE
280
     0
  9
$LWDISPLAY
290
     0
  9
$INSUNITS
 70
     4
  9
$HYPERLINKBASE
  1

  9
$STYLESHEET
  1
彩色出圖.ctb
  9
$XEDIT
290
     1
  9
$CEPSNTYPE
380
     0
  9
$PSTYLEMODE
290
     1
  9
$FINGERPRINTGUID
  2
{29CC662F-A346-429B-BD7A-24EDE505A841}
  9
$VERSIONGUID
  2
{7C92AB52-ED4D-4A97-8A70-575E1EA82C2A}
  9
$EXTNAMES
290
     1
  9
$PSVPSCALE
 40
0.0
  9
$OLESTARTUP
290
     0
  0
ENDSEC
  0
SECTION
  2
CLASSES
  0
CLASS
  1
ACDBDICTIONARYWDFLT
  2
AcDbDictionaryWithDefault
  3
ObjectDBX Classes
 90
        0
280
     0
281
     0
  0
CLASS
  1
ACDBPLACEHOLDER
  2
AcDbPlaceHolder
  3
ObjectDBX Classes
 90
        0
280
     0
281
     0
  0
CLASS
  1
LAYOUT
  2
AcDbLayout
  3
ObjectDBX Classes
 90
        0
280
     0
281
     0
  0
CLASS
  1
ACME_DOCUMENT
  2
AcMeDbDoc
  3
AcMeServices
 90
        0
280
     0
281
     0
  0
CLASS
  1
AMGSETTINGSOBJ
  2
AmgSettingsObj
  3
"AcadM|Product Description: AutoCAD Mechanical 2000|Company: Autodesk"
 90
        0
280
     0
281
     0
  0
CLASS
  1
ACMESCOPE
  2
AcMeScope
  3
AcMeServices
 90
        0
280
     0
281
     0
  0
CLASS
  1
ACMECOMMANDHISTORY
  2
AcMeCommandHistory
  3
AcMeServices
 90
        0
280
     0
281
     0
  0
CLASS
  1
ACIMSYSVARMAN
  2
AcImSysVarManager
  3
AcMeServices
 90
        0
280
     0
281
     0
  0
CLASS
  1
ACIMREALSYSVAR
  2
AcImRealSysVar
  3
AcMeServices
 90
        0
280
     0
281
     0
  0
CLASS
  1
ACIMINTSYSVAR
  2
AcImIntSysVar
  3
AcMeServices
 90
        0
280
     0
281
     0
  0
CLASS
  1
ACMEDRAWINGMAN
  2
AcMeDrawingMan
  3
AcMeServices
 90
        0
280
     0
281
     0
  0
CLASS
  1
ACMEVIEW
  2
AcMeView
  3
AcMeServices
 90
        0
280
     0
281
     0
  0
CLASS
  1
ACDBENTITYCACHE
  2
AcMeEntityCache
  3
AcMeServices
 90
        0
280
     0
281
     0
  0
CLASS
  1
GSMANAGER
  2
AcMeGSManager
  3
AcMeServices
 90
        0
280
     0
281
     0
  0
CLASS
  1
AMDTINTERNALREACTOR
  2
AmdtInternalReactor
  3
AcMeServices
 90
        0
280
     0
281
     0
  0
CLASS
  1
ACMESTATEMGR
  2
AcMeStateMgr
  3
AcMeServices
 90
        0
280
     0
281
     0
  0
CLASS
  1
ACGREFMASTER
  2
AcGrefMaster
  3
AcAttribServices
 90
        0
280
     0
281
     0
  0
CLASS
  1
ACME_DATABASE
  2
AcMeDbDatabase
  3
AcMeServices
 90
        0
280
     0
281
     0
  0
CLASS
  1
ACRFINSADJUSTERMGR
  2
AcRfInsAdjusterMgr
  3
AcMeServices
 90
        0
280
     0
281
     0
  0
CLASS
  1
ACGREFACADMASTER
  2
AcGrefacadMaster
  3
AcGrefServices
 90
        0
280
     0
281
     0
  0
CLASS
  1
AMIMASTER
  2
AmiMaster
  3
AmiServices
 90
        0
280
     0
281
     0
  0
CLASS
  1
ACMDATADICTIONARY
  2
AcmDataDictionary
  3
"AcmSymBB|Product Description: AutoCAD Mechanical 2004 DX|Company: Autodesk"
 90
        0
280
     0
281
     0
  0
CLASS
  1
ACMDATAENTRYBLOCK
  2
AcmDataEntryBlock
  3
"AcmSymBB|Product Description: AutoCAD Mechanical 2004 DX|Company: Autodesk"
 90
        0
280
     0
281
     0
  0
CLASS
  1
ACIMSTRSYSVAR
  2
AcImStrSysVar
  3
AcMeServices
 90
        0
280
     0
281
     0
  0
CLASS
  1
ACMSTANDARDISO
  2
AcmStandardISO
  3
"Amdt_StdImp|Product Description: AutoCAD Mechanical 2004 DX|Company: Autodesk"
 90
        0
280
     0
281
     0
  0
CLASS
  1
AMGOBJPROPCFG
  2
AmgObjPropCfg
  3
"AmgLay|Product Description: AutoCAD Mechanical 2000|Company: Autodesk"
 90
        1
280
     0
281
     0
  0
CLASS
  1
AMDTEDGESTANDARDISO
  2
AmdtEdgeStdISO
  3
"Amdt_StdImp|Product Description: AutoCAD Mechanical 2004 DX|Company: Autodesk"
 90
        0
280
     0
281
     0
  0
CLASS
  1
ACMSURFSTANDARDISO
  2
AcmSurfTextStdISO
  3
"Amdt_StdImp|Product Description: AutoCAD Mechanical 2004 DX|Company: Autodesk"
 90
        0
280
     0
281
     0
  0
CLASS
  1
ACMFCFSTANDARDISO
  2
AcmFCFStdISO
  3
"Amdt_StdImp|Product Description: AutoCAD Mechanical 2004 DX|Company: Autodesk"
 90
        0
280
     0
281
     0
  0
CLASS
  1
ACMWELDSTANDARDISO
  2
AcmWeldingStdISO
  3
"Amdt_StdImp|Product Description: AutoCAD Mechanical 2004 DX|Company: Autodesk"
 90
        0
280
     0
281
     0
  0
CLASS
  1
ACMIDSTANDARDISO
  2
AcmIdStdISO
  3
"Amdt_StdImp|Product Description: AutoCAD Mechanical 2004 DX|Company: Autodesk"
 90
        0
280
     0
281
     0
  0
CLASS
  1
ACMDATUMSTANDARDISO
  2
AcmDatumStdISO
  3
"Amdt_StdImp|Product Description: AutoCAD Mechanical 2004 DX|Company: Autodesk"
 90
        0
280
     0
281
     0
  0
CLASS
  1
ACMBOMSTANDARDISO
  2
AcmBOMStdISO
  3
"Amdt_StdImp|Product Description: AutoCAD Mechanical 2004 DX|Company: Autodesk"
 90
        0
280
     0
281
     0
  0
CLASS
  1
ACMDETAILSTANDARDISO
  2
AmdtDetailSymStdISO
  3
"Amdt_StdImp|Product Description: AutoCAD Mechanical 2004 DX|Company: Autodesk"
 90
        0
280
     0
281
     0
  0
CLASS
  1
ACMSECTIONSTANDARDISO
  2
AmdtSectionSymStdISO
  3
"Amdt_StdImp|Product Description: AutoCAD Mechanical 2004 DX|Company: Autodesk"
 90
        0
280
     0
281
     0
  0
CLASS
  1
ACMCENTERLINESTANDARDISO
  2
AmdtCenterLineStdISO
  3
"Amdt_StdImp|Product Description: AutoCAD Mechanical 2004 DX|Company: Autodesk"
 90
        0
280
     0
281
     0
  0
CLASS
  1
ACMNOTESTANDARDISO
  2
AmdtNoteStdISO
  3
"Amdt_StdImp|Product Description: AutoCAD Mechanical 2004 DX|Company: Autodesk"
 90
        0
280
     0
281
     0
  0
CLASS
  1
ACAMGLAYSTD
  2
AcAmgLayStd
  3
"AcAmgLayStd|Product Description: AutoCAD Mechanical 2000|Company: Autodesk"
 90
        0
280
     0
281
     0
  0
CLASS
  1
ACAMGDIMSTD
  2
AcAmgDimStd
  3
"AcAmgDimStd|Product Description: AutoCAD Mechanical 2000|Company: Autodesk"
 90
        0
280
     0
281
     0
  0
CLASS
  1
ACAMGHOLECHARTSTDISO
  2
AcAmgHoleChartStdISO
  3
ACMSYMBB_MODULE_NAME
 90
        0
280
     0
281
     0
  0
CLASS
  1
ACAMGTITLESTD
  2
AcAmgTitleStd
  3
"TITLEAPP"
 90
        0
280
     0
281
     0
  0
CLASS
  1
LAYER_INDEX
  2
AcDbLayerIndex
  3
ObjectDBX Classes
 90
    32768
280
     0
281
     0
  0
CLASS
  1
IDBUFFER
  2
AcDbIdBuffer
  3
ObjectDBX Classes
 90
    32768
280
     0
281
     0
  0
CLASS
  1
DICTIONARYVAR
  2
AcDbDictionaryVar
  3
ObjectDBX Classes
 90
        0
280
     0
281
     0
  0
CLASS
  1
AM_DRAWING_MGR
  2
AcDmDwgMgr
  3
AcMechDwgViewMgmt
 90
        0
280
     0
281
     0
  0
CLASS
  1
AM_DWG_DOCUMENT
  2
AcDmDwgDocument
  3
AcMechDwgViewMgmt
 90
        0
280
     0
281
     0
  0
CLASS
  1
AM_DWG_SHEET
  2
AcDmSheet
  3
AcMechDwgViewMgmt
 90
        0
280
     0
281
     0
  0
CLASS
  1
AM_VIEWDIMPARMAP
  2
AcDmViewDimParMap
  3
AcMechDwgViewMgmt
 90
        0
280
     0
281
     0
  0
CLASS
  1
AM_DWGMGR_NAME
  2
AcDmDwgMgrName
  3
AcMechDwgViewMgmt
 90
        0
280
     0
281
     0
  0
CLASS
  1
AMDTMENUSTATEMGR
  2
AmdtMenuStateMgr
  3
McadcomServices
 90
        0
280
     0
281
     0
  0
CLASS
  1
AMDTMCOMMENUSTATE
  2
AmdtMcomMenuState
  3
McadcomServices
 90
        0
280
     0
281
     0
  0
CLASS
  1
MAPIAMMOUDLE
  2
MApiAmModule
  3
MApiAmServices
 90
        0
280
     0
281
     0
  0
CLASS
  1
AMDTADMENUSTATE
  2
AmdtAdMenuState
  3
DesignerServices
 90
        0
280
     0
281
     0
  0
CLASS
  1
ADAPPL
  2
AcAdAppl
  3
DesignerServices
 90
        0
280
     0
281
     0
  0
CLASS
  1
DEPMGR
  2
AcAdDepMgr
  3
DesignerServices
 90
        0
280
     0
281
     0
  0
CLASS
  1
PARAMMGR
  2
AcAdParamMgr
  3
DesignerServices
 90
        0
280
     0
281
     0
  0
CLASS
  1
PARAMSCOPE
  2
AcAdParamScope
  3
DesignerServices
 90
        0
280
     0
281
     0
  0
CLASS
  1
NAMEDAPPL
  2
AcAdNamedAppl
  3
DesignerServices
 90
        0
280
     0
281
     0
  0
CLASS
  1
AMDTDMMENUSTATE
  2
AmdtDmMenuState
  3
AcMechDwgViewMgmt
 90
        0
280
     0
281
     0
  0
CLASS
  1
AMDTAMMENUSTATE
  2
AmdtAmMenuState
  3
DesignerAssemblies
 90
        0
280
     0
281
     0
  0
CLASS
  1
ACAMPROJECT
  2
AcAmProject
  3
DesignerAssemblies
 90
        0
280
     0
281
     0
  0
CLASS
  1
ACAMGRCOMPDEF
  2
AcAmGrCompDef
  3
DesignerAssemblies
 90
        0
280
     0
281
     0
  0
CLASS
  1
ACCMCONTEXT
  2
AcCmContext
  3
DesignerAssemblies
 90
        0
280
     0
281
     0
  0
CLASS
  1
ACAMCOMPDEF
  2
AcAmCompDef
  3
DesignerAssemblies
 90
        0
280
     0
281
     0
  0
CLASS
  1
ACAMCOMPDEFMGR
  2
AcAmCompDefMgr
  3
DesignerAssemblies
 90
        0
280
     0
281
     0
  0
CLASS
  1
AMCONTEXTMGR
  2
AcAmContextMgr
  3
DesignerAssemblies
 90
        0
280
     0
281
     0
  0
CLASS
  1
ACAMCONTEXTMODELER
  2
AcAmContextModeler
  3
DesignerAssemblies
 90
        0
280
     0
281
     0
  0
CLASS
  1
ACMTHREADLINESTANDARDISO
  2
AmdtThreadLineStdISO
  3
"Amdt_StdImp|Product Description: AutoCAD Mechanical 2004 DX|Company: Autodesk"
 90
        0
280
     0
281
     0
  0
CLASS
  1
CATALOGSTATE
  2
AcAmCatalogState
  3
DesignerAssemblies
 90
        0
280
     0
281
     0
  0
CLASS
  1
ACAMGRCOMPDEFSET
  2
AcAmGrCompDefSet
  3
DesignerAssemblies
 90
        0
280
     0
281
     0
  0
CLASS
  1
AMDTBROWSERDBTAB
  2
AmdtBrowserDbTab
  3
McadcomServices
 90
        0
280
     0
281
     0
  0
CLASS
  1
CBROWSERAPPOBJECT
  2
CBrowserAppObject
  3
McadcomServices
 90
        0
280
     0
281
     0
  0
CLASS
  1
DM_PLACEHOLDER
  2
AcDmSelsetPlaceholder
  3
AcMechDwgViewMgmt
 90
        0
280
     0
281
     0
  0
CLASS
  1
TABLESTYLE
  2
AcDbTableStyle
  3
ObjectDBX Classes
 90
     2047
280
     0
281
     0
  0
CLASS
  1
VAACXREFPANELOBJECT
  2
VaAcXREFPanelObject
  3
VAAC_ADDIN
 90
        0
280
     0
281
     0
  0
CLASS
  1
VAACIMAGEINVENTORY
  2
VaAcImageInventory
  3
VAAC_ADDIN
 90
        0
280
     0
281
     0
  0
CLASS
  1
AMDTNOTETEMPLATEDB
  2
AmdtNoteTemplateDB
  3
AMDT_STDIMP_MODULE_NAME
 90
        0
280
     0
281
     0
  0
CLASS
  1
ACMBOM
  2
AcmBom
  3
"AcmSymBB|Product Description: AutoCAD Mechanical 2004 DX|Company: Autodesk"
 90
    32768
280
     0
281
     0
  0
CLASS
  1
AMDTFORMULAUPDATEDISPATCHER
  2
AmdtFormulaUpdateDispatcher
  3
AcMeServices
 90
    32768
280
     0
281
     0
  0
CLASS
  1
ACMPARTLIST
  2
AcmPartList
  3
"AcmSymBB|Product Description: AutoCAD Mechanical 2004 DX|Company: Autodesk"
 90
    33791
280
     0
281
     1
  0
CLASS
  1
ACAMGFILTERDAT
  2
AcAmgFilterDat
  3
"AcadM|Product Description: AutoCAD Mechanical 2000|Company: Autodesk"
 90
        0
280
     0
281
     0
  0
CLASS
  1
DIMASSOC
  2
AcDbDimAssoc
  3
"AcDbDimAssoc|Product Desc:     AcDim ARX App For Dimension|Company:          Autodesk, Inc.|WEB Address:      www.autodesk.com"
 90
        0
280
     0
281
     0
  0
CLASS
  1
AMDTNOTE
  2
AmdtNote
  3
"AcmSymBB|Product Description: AutoCAD Mechanical 2004 DX|Company: Autodesk"
 90
     1023
280
     0
281
     1
  0
CLASS
  1
SORTENTSTABLE
  2
AcDbSortentsTable
  3
ObjectDBX Classes
 90
        0
280
     0
281
     0
  0
CLASS
  1
ACMSTANDARDANSI
  2
AcmStandardANSI
  3
"Amdt_StdImp|Product Description: AutoCAD Mechanical 2004 DX|Company: Autodesk"
 90
        0
280
     0
281
     0
  0
CLASS
  1
ACMSURFSTANDARDANSI
  2
AcmSurfTextStdANSI
  3
"Amdt_StdImp|Product Description: AutoCAD Mechanical 2004 DX|Company: Autodesk"
 90
        0
280
     0
281
     0
  0
CLASS
  1
ACMFCFSTANDARDANSI
  2
AcmFCFStdANSI
  3
"Amdt_StdImp|Product Description: AutoCAD Mechanical 2004 DX|Company: Autodesk"
 90
        0
280
     0
281
     0
  0
CLASS
  1
ACMWELDSTANDARDANSI
  2
AcmWeldingStdANSI
  3
"Amdt_StdImp|Product Description: AutoCAD Mechanical 2004 DX|Company: Autodesk"
 90
        0
280
     0
281
     0
  0
CLASS
  1
ACMIDSTANDARDANSI
  2
AcmIdStdANSI
  3
"Amdt_StdImp|Product Description: AutoCAD Mechanical 2004 DX|Company: Autodesk"
 90
        0
280
     0
281
     0
  0
CLASS
  1
ACMDATUMSTANDARDANSI
  2
AcmDatumStdANSI
  3
"Amdt_StdImp|Product Description: AutoCAD Mechanical 2004 DX|Company: Autodesk"
 90
        0
280
     0
281
     0
  0
CLASS
  1
ACMBOMSTANDARDANSI
  2
AcmBOMStdANSI
  3
"Amdt_StdImp|Product Description: AutoCAD Mechanical 2004 DX|Company: Autodesk"
 90
        0
280
     0
281
     0
  0
CLASS
  1
ACMDETAILSTANDARDANSI
  2
AmdtDetailSymStdANSI
  3
"Amdt_StdImp|Product Description: AutoCAD Mechanical 2004 DX|Company: Autodesk"
 90
        0
280
     0
281
     0
  0
CLASS
  1
ACMSECTIONSTANDARDANSI
  2
AmdtSectionSymStdANSI
  3
"Amdt_StdImp|Product Description: AutoCAD Mechanical 2004 DX|Company: Autodesk"
 90
        0
280
     0
281
     0
  0
CLASS
  1
ACMCENTERLINESTANDARDANSI
  2
AmdtCenterLineStdANSI
  3
"Amdt_StdImp|Product Description: AutoCAD Mechanical 2004 DX|Company: Autodesk"
 90
        0
280
     0
281
     0
  0
CLASS
  1
ACMTHREADLINESTANDARDANSI
  2
AmdtThreadLineStdANSI
  3
"Amdt_StdImp|Product Description: AutoCAD Mechanical 2004 DX|Company: Autodesk"
 90
        0
280
     0
281
     0
  0
CLASS
  1
ACMNOTESTANDARDANSI
  2
AmdtNoteStdANSI
  3
"Amdt_StdImp|Product Description: AutoCAD Mechanical 2004 DX|Company: Autodesk"
 90
        0
280
     0
281
     0
  0
CLASS
  1
ACAMGHOLECHARTSTDANSI
  2
AcAmgHoleChartStdANSI
  3
ACMSYMBB_MODULE_NAME
 90
        0
280
     0
281
     0
  0
CLASS
  1
ACRFATTGENMGR
  2
AcRfAttGeneralMgr
  3
AcAttribServices
 90
        0
280
     0
281
     0
  0
ENDSEC
  0
SECTION
  2
TABLES
  0
TABLE
  2
VPORT
  5
8
330
0
100
AcDbSymbolTable
 70
     3
  0
VPORT
  5
3098
330
8
100
AcDbSymbolTableRecord
100
AcDbViewportTableRecord
  2
*Active
 70
     0
 10
0.0
 20
0.0
 11
1.0
 21
1.0
 12
2581.14993589427
 22
1562.871986686032
 13
0.0
 23
0.0
 14
2.5
 24
2.5
 15
10.0
 25
10.0
 16
0.0
 26
0.0
 36
1.0
 17
0.0
 27
0.0
 37
0.0
 40
742.0254206288323
 41
1.81766917293233
 42
50.0
 43
0.0
 44
0.0
 50
0.0
 51
0.0
 71
     0
 72
   100
 73
     1
 74
     3
 75
     0
 76
     0
 77
     0
 78
     0
281
     0
 65
     1
110
0.0
120
0.0
130
0.0
111
1.0
121
0.0
131
0.0
112
0.0
122
1.0
132
0.0
 79
     0
146
0.0
  0
ENDTAB
  0
TABLE
  2
LTYPE
  5
5
330
0
100
AcDbSymbolTable
 70
    16
  0
LTYPE
  5
14
330
5
100
AcDbSymbolTableRecord
100
AcDbLinetypeTableRecord
  2
ByBlock
 70
     0
  3

 72
    65
 73
     0
 40
0.0
  0
LTYPE
  5
15
330
5
100
AcDbSymbolTableRecord
100
AcDbLinetypeTableRecord
  2
ByLayer
 70
     0
  3

 72
    65
 73
     0
 40
0.0
  0
LTYPE
  5
16
330
5
100
AcDbSymbolTableRecord
100
AcDbLinetypeTableRecord
  2
Continuous
 70
     0
  3
Solid line
 72
    65
 73
     0
 40
0.0
  0
LTYPE
  5
64
330
5
100
AcDbSymbolTableRecord
100
AcDbLinetypeTableRecord
  2
AM_ISO02W050
 70
     0
  3
__ __ __ __ __ __ __ __ __ __ __ __ __ __ __
 72
    65
 73
     2
 40
7.5
 49
6.0
 74
     0
 49
-1.5
 74
     0
  0
LTYPE
  5
65
330
5
100
AcDbSymbolTableRecord
100
AcDbLinetypeTableRecord
  2
AM_ISO08W050
 70
     0
  3
____ . ____ . ____ . ____ . ____ . ____ . ____
 72
    65
 73
     4
 40
18.0
 49
12.0
 74
     0
 49
-1.5
 74
     0
 49
3.0
 74
     0
 49
-1.5
 74
     0
  0
LTYPE
  5
66
330
5
100
AcDbSymbolTableRecord
100
AcDbLinetypeTableRecord
  2
AM_ISO09W050
 70
     0
  3
_____ . . _____ . . _____ . . ____ .. ____
 72
    65
 73
     6
 40
22.5
 49
12.0
 74
     0
 49
-1.5
 74
     0
 49
3.0
 74
     0
 49
-1.5
 74
     0
 49
3.0
 74
     0
 49
-1.5
 74
     0
  0
LTYPE
  5
67
330
5
100
AcDbSymbolTableRecord
100
AcDbLinetypeTableRecord
  2
Amconstr
 70
     0
  3
_______________________
 72
    65
 73
     2
 40
9999.0
 49
9999.0
 74
     0
 49
0.0
 74
     0
  0
LTYPE
  5
68
330
5
100
AcDbSymbolTableRecord
100
AcDbLinetypeTableRecord
  2
AM_ISO08W050x2
 70
     0
  3
__ . __ . __ . __ . __ . __
 72
    65
 73
     4
 40
9.0
 49
6.0
 74
     0
 49
-0.75
 74
     0
 49
1.5
 74
     0
 49
-0.75
 74
     0
  0
LTYPE
  5
69
330
5
100
AcDbSymbolTableRecord
100
AcDbLinetypeTableRecord
  2
AM_ISO02W050x2
 70
     0
  3
 _ _ _ _ _ _ _ _ _ _ _ _
 72
    65
 73
     2
 40
3.75
 49
3.0
 74
     0
 49
-0.75
 74
     0
  0
LTYPE
  5
6C
330
5
100
AcDbSymbolTableRecord
100
AcDbLinetypeTableRecord
  2
Amzigzag
 70
     0
  3
/\/-/\/-/\/-/\/-/\/-/\/
 72
    65
 73
     2
 40
11.0001
 49
0.0001
 74
     4
 75
   135
340
6B
 46
0.04
 50
0.0
 44
0.0
 45
0.0
 49
-11.0
 74
     0
  0
LTYPE
  5
7A
330
5
100
AcDbSymbolTableRecord
100
AcDbLinetypeTableRecord
  2
ACISOWELD
 70
     0
  3
_ _ _ _ _
 72
    65
 73
     2
 40
2.0
 49
2.0
 74
     0
 49
-1.0
 74
     0
  0
LTYPE
  5
7B
330
5
100
AcDbSymbolTableRecord
100
AcDbLinetypeTableRecord
  2
ACISOTGB
 70
     0
  3
__ . . __ . .
 72
    65
 73
     6
 40
9.0
 49
4.0
 74
     0
 49
-1.0
 74
     0
 49
1.0
 74
     0
 49
-1.0
 74
     0
 49
1.0
 74
     0
 49
-1.0
 74
     0
  0
LTYPE
  5
7C
330
5
100
AcDbSymbolTableRecord
100
AcDbLinetypeTableRecord
  2
ACISOTGL
 70
     0
  3
_ _ _ _ _
 72
    65
 73
     2
 40
3.0
 49
2.0
 74
     0
 49
-1.0
 74
     0
  0
LTYPE
  5
7E
330
5
100
AcDbSymbolTableRecord
100
AcDbLinetypeTableRecord
  2
CENTER
 70
     0
  3
__ . __
 72
    65
 73
     4
 40
7.0
 49
4.0
 74
     0
 49
-1.0
 74
     0
 49
1.0
 74
     0
 49
-1.0
 74
     0
  0
LTYPE
  5
D8
330
5
100
AcDbSymbolTableRecord
100
AcDbLinetypeTableRecord
  2
HIDDEN
 70
     0
  3
Hidden __ __ __ __ __ __ __ __ __ __ __ __ __ _
 72
    65
 73
     2
 40
9.524999999999998
 49
6.349999999999999
 74
     0
 49
-3.174999999999999
 74
     0
  0
LTYPE
  5
D9
330
5
100
AcDbSymbolTableRecord
100
AcDbLinetypeTableRecord
  2
PHANTOM2
 70
     0
  3
Phantom (.5x) ___ _ _ ___ _ _ ___ _ _ ___ _ _
 72
    65
 73
     6
 40
31.75
 49
15.875
 74
     0
 49
-3.174999999999999
 74
     0
 49
3.174999999999999
 74
     0
 49
-3.174999999999999
 74
     0
 49
3.174999999999999
 74
     0
 49
-3.174999999999999
 74
     0
  0
LTYPE
  5
1214
330
5
100
AcDbSymbolTableRecord
100
AcDbLinetypeTableRecord
  2
ACANSTGB
 70
     0
  3
__ . . __ . .
 72
    65
 73
     6
 40
0.35433070866
 49
0.15748031496
 74
     0
 49
-0.03937007874
 74
     0
 49
0.03937007874
 74
     0
 49
-0.03937007874
 74
     0
 49
0.03937007874
 74
     0
 49
-0.03937007874
 74
     0
  0
LTYPE
  5
1215
330
5
100
AcDbSymbolTableRecord
100
AcDbLinetypeTableRecord
  2
ACANSTGL
 70
     0
  3
_ _ _ _ _
 72
    65
 73
     2
 40
0.11811023622
 49
0.07874015748
 74
     0
 49
-0.03937007874
 74
     0
  0
ENDTAB
  0
TABLE
  2
LAYER
  5
2
102
{ACAD_XDICTIONARY
360
3F9
102
}
330
0
100
AcDbSymbolTable
 70
    10
  0
LAYER
  5
10
330
2
100
AcDbSymbolTableRecord
100
AcDbLayerTableRecord
  2
0
 70
     0
 62
     7
  6
Continuous
370
    -3
390
F
  0
LAYER
  5
206
330
2
100
AcDbSymbolTableRecord
100
AcDbLayerTableRecord
  2
Defpoints
 70
     0
 62
     7
  6
Continuous
290
     0
370
    -3
390
F
  0
LAYER
  5
5AE
330
2
100
AcDbSymbolTableRecord
100
AcDbLayerTableRecord
  2
AM_7
 70
     0
 62
     1
  6
CENTER
370
    25
390
F
  0
LAYER
  5
7A0
330
2
100
AcDbSymbolTableRecord
100
AcDbLayerTableRecord
  2
AM_5
 70
     0
 62
     5
  6
Continuous
370
    50
390
F
  0
LAYER
  5
7A1
330
2
100
AcDbSymbolTableRecord
100
AcDbLayerTableRecord
  2
AM_4
 70
     0
 62
     3
  6
Continuous
370
    25
390
F
  0
LAYER
  5
7A2
330
2
100
AcDbSymbolTableRecord
100
AcDbLayerTableRecord
  2
AM_0
 70
     0
 62
     7
  6
Continuous
370
    50
390
F
  0
LAYER
  5
7A3
330
2
100
AcDbSymbolTableRecord
100
AcDbLayerTableRecord
  2
CENTER
 70
     0
 62
     1
  6
CENTER
370
    -3
390
F
  0
LAYER
  5
FA9
330
2
100
AcDbSymbolTableRecord
100
AcDbLayerTableRecord
  2
LOGO
 70
     0
 62
     7
  6
Continuous
370
    -3
390
F
  0
LAYER
  5
1217
330
2
100
AcDbSymbolTableRecord
100
AcDbLayerTableRecord
  2
AM_VIS
 70
     2
 62
     7
  6
Continuous
370
    50
390
F
  0
LAYER
  5
2E90
330
2
100
AcDbSymbolTableRecord
100
AcDbLayerTableRecord
  2
hidden
 70
     0
 62
     3
  6
HIDDEN
370
    -3
390
F
  0
ENDTAB
  0
TABLE
  2
STYLE
  5
3
330
0
100
AcDbSymbolTable
 70
     8
  0
STYLE
  5
11
330
3
100
AcDbSymbolTableRecord
100
AcDbTextStyleTableRecord
  2
STANDARD
 70
     0
 40
0.0
 41
1.0
 50
0.0
 71
     0
 42
3.0
  3
ISOCP.SHX
  4
CHINESET.SHX
  0
STYLE
  5
6B
330
3
100
AcDbSymbolTableRecord
100
AcDbTextStyleTableRecord
  2

 70
     1
 40
0.0
 41
1.0
 50
0.0
 71
     0
 42
2.5
  3
ltypeshp.shx
  4

  0
STYLE
  5
6D
330
3
100
AcDbSymbolTableRecord
100
AcDbTextStyleTableRecord
  2
ACISOTS
 70
     0
 40
1.0
 41
1.0
 50
0.0
 71
     0
 42
1.0
  3
isocp.shx
  4
chineset.shx
  0
STYLE
  5
79
330
3
100
AcDbSymbolTableRecord
100
AcDbTextStyleTableRecord
  2
ACISOGDT
 70
     0
 40
0.0
 41
1.0
 50
0.0
 71
     0
 42
2.5
  3
amgdt.shx
  4
chineset.shx
  0
STYLE
  5
60C
330
3
100
AcDbSymbolTableRecord
100
AcDbTextStyleTableRecord
  2
CHINESET
 70
     0
 40
0.0
 41
1.0
 50
0.0
 71
     0
 42
3.0
  3
simplex.shx
  4
CHINESET.SHX
  0
STYLE
  5
1218
330
3
100
AcDbSymbolTableRecord
100
AcDbTextStyleTableRecord
  2
ACANSTS
 70
     0
 40
1.0
 41
1.0
 50
0.0
 71
     0
 42
1.0
  3
romans.shx
  4
chineset.shx
  0
STYLE
  5
1219
330
3
100
AcDbSymbolTableRecord
100
AcDbTextStyleTableRecord
  2
ACANSGDT
 70
     0
 40
0.0
 41
1.0
 50
0.0
 71
     0
 42
1.0
  3
amgdtans.shx
  4

  0
ENDTAB
  0
TABLE
  2
VIEW
  5
6
330
0
100
AcDbSymbolTable
 70
     0
  0
ENDTAB
  0
TABLE
  2
UCS
  5
7
330
0
100
AcDbSymbolTable
 70
     0
  0
ENDTAB
  0
TABLE
  2
APPID
  5
9
330
0
100
AcDbSymbolTable
 70
    20
  0
APPID
  5
12
330
9
100
AcDbSymbolTableRecord
100
AcDbRegAppTableRecord
  2
ACAD
 70
     0
  0
APPID
  5
46
330
9
100
AcDbSymbolTableRecord
100
AcDbRegAppTableRecord
  2
MCAD_NO_VIS
 70
     0
  0
APPID
  5
47
330
9
100
AcDbSymbolTableRecord
100
AcDbRegAppTableRecord
  2
ACAD_TEMP_GRAPHIC
 70
     0
  0
APPID
  5
58
330
9
100
AcDbSymbolTableRecord
100
AcDbRegAppTableRecord
  2
ACATTRIBSERVICES
 70
     0
  0
APPID
  5
EE
330
9
100
AcDbSymbolTableRecord
100
AcDbRegAppTableRecord
  2
AD_DRAW
 70
     0
  0
APPID
  5
10C
330
9
100
AcDbSymbolTableRecord
100
AcDbRegAppTableRecord
  2
DESIGNERASSEMBLIES
 70
     0
  0
APPID
  5
111
330
9
100
AcDbSymbolTableRecord
100
AcDbRegAppTableRecord
  2
ACADM_DIM_EDIT
 70
     0
  0
APPID
  5
112
330
9
100
AcDbSymbolTableRecord
100
AcDbRegAppTableRecord
  2
AMDT_DM_ADJ
 70
     0
  0
APPID
  5
22C
330
9
100
AcDbSymbolTableRecord
100
AcDbRegAppTableRecord
  2
ACAD_DSTYLE_DIMTEXT_FILL
 70
     0
  0
APPID
  5
452
330
9
100
AcDbSymbolTableRecord
100
AcDbRegAppTableRecord
  2
GENIUS_GENOENT_13
 70
     0
  0
APPID
  5
453
330
9
100
AcDbSymbolTableRecord
100
AcDbRegAppTableRecord
  2
GENIUS_GENOBJ-N-CRS_13
 70
     0
  0
APPID
  5
454
330
9
100
AcDbSymbolTableRecord
100
AcDbRegAppTableRecord
  2
GENIUS_GENOLIS_13
 70
     0
  0
APPID
  5
455
330
9
100
AcDbSymbolTableRecord
100
AcDbRegAppTableRecord
  2
GENIUS_GENODEF_13
 70
     0
  0
APPID
  5
456
330
9
100
AcDbSymbolTableRecord
100
AcDbRegAppTableRecord
  2
GENIUS_GENOREF_13
 70
     0
  0
APPID
  5
7A5
330
9
100
AcDbSymbolTableRecord
100
AcDbRegAppTableRecord
  2
GENIUS_GENOBJ-N-CEN_13
 70
     0
  0
APPID
  5
7A6
330
9
100
AcDbSymbolTableRecord
100
AcDbRegAppTableRecord
  2
GENIUS_GENCEN_19
 70
     0
  0
APPID
  5
FAB
330
9
100
AcDbSymbolTableRecord
100
AcDbRegAppTableRecord
  2
GENIUS_GENREC_14
 70
     0
  0
APPID
  5
FAC
330
9
100
AcDbSymbolTableRecord
100
AcDbRegAppTableRecord
  2
GENIUS_GENOBJ-N-REC_13
 70
     0
  0
APPID
  5
1AAE
330
9
100
AcDbSymbolTableRecord
100
AcDbRegAppTableRecord
  2
GENIUS_GENDTOL_13
 70
     0
  0
APPID
  5
1B1A
330
9
100
AcDbSymbolTableRecord
100
AcDbRegAppTableRecord
  2
ACAD_PSEXT
 70
     0
  0
ENDTAB
  0
TABLE
  2
DIMSTYLE
  5
A
330
0
100
AcDbSymbolTable
 70
    16
100
AcDbDimStyleTable
 71
     3
340
81
340
8B
340
86
  0
DIMSTYLE
105
81
330
A
100
AcDbSymbolTableRecord
100
AcDbDimStyleTableRecord
  2
AM_ISO
 70
     0
  4
"
 41
6.0
 42
1.0
 43
14.0
 44
1.5
 47
0.1
 48
0.1
 73
     0
 74
     0
 77
     1
 78
     9
 79
     2
140
6.0
141
0.0
143
0.0393701
146
0.71
147
1.5
172
     1
176
   256
177
   256
178
   256
271
     2
272
     2
283
     2
284
     8
340
11
371
    -1
372
    -1
  0
DIMSTYLE
105
82
330
A
100
AcDbSymbolTableRecord
100
AcDbDimStyleTableRecord
  2
AM_ISO$3
 70
     0
  4
"
 41
6.0
 42
1.0
 43
14.0
 44
1.5
 47
0.1
 48
0.1
 73
     0
 77
     1
 78
     9
 79
     2
140
6.0
141
0.0
143
0.0393701
146
0.71
147
1.5
176
   256
177
   256
178
   256
271
     2
272
     2
283
     2
284
     8
288
     1
289
     0
340
11
371
    -1
372
    -1
  0
DIMSTYLE
105
83
330
A
100
AcDbSymbolTableRecord
100
AcDbDimStyleTableRecord
  2
AM_ISO$4
 70
     0
  4
"
 41
6.0
 42
1.0
 43
14.0
 44
1.5
 47
0.1
 48
0.1
 73
     0
 77
     1
 78
     9
 79
     2
140
6.0
141
0.0
143
0.0393701
146
0.71
147
1.5
176
   256
177
   256
178
   256
271
     2
272
     2
283
     2
284
     8
288
     1
289
     0
340
11
371
    -1
372
    -1
  0
DIMSTYLE
105
84
330
A
100
AcDbSymbolTableRecord
100
AcDbDimStyleTableRecord
  2
AM_ISO$6
 70
     0
  4
"
 41
6.0
 42
1.0
 43
14.0
 44
1.5
 47
0.1
 48
0.1
 73
     0
 74
     0
 78
     9
 79
     2
140
6.0
141
0.0
143
0.0393701
146
0.71
147
1.5
172
     1
176
   256
177
   256
178
   256
271
     2
272
     2
283
     2
284
     8
340
11
371
    -1
372
    -1
  0
DIMSTYLE
105
85
330
A
100
AcDbSymbolTableRecord
100
AcDbDimStyleTableRecord
  2
AM_ISO$7
 70
     0
  4
"
 41
6.0
 42
1.0
 43
14.0
 44
1.5
 47
0.1
 48
0.1
 73
     0
 74
     0
 77
     1
 78
     9
 79
     2
140
5.0
141
0.0
143
0.0393701
146
0.71
147
1.5
172
     1
176
   256
177
   256
178
   256
271
     2
272
     2
283
     2
284
     8
340
11
371
    -1
372
    -1
  0
DIMSTYLE
105
86
330
A
100
AcDbSymbolTableRecord
100
AcDbDimStyleTableRecord
  2
AM_ISO$SF
 70
     0
  4
"
 41
2.5
 42
1.0
 43
10.0
 44
1.0
 47
0.1
 48
0.1
 73
     0
 74
     0
 75
     1
 76
     1
 77
     1
 78
     8
 79
     2
140
3.5
141
0.0
143
0.0393701
146
0.71
147
1.5
172
     1
176
   256
177
   256
178
     2
271
     2
272
     3
274
     4
283
     0
284
     8
340
11
371
    -1
372
    -1
  0
DIMSTYLE
105
8B
330
A
100
AcDbSymbolTableRecord
100
AcDbDimStyleTableRecord
  2
AM_ISO$SH
 70
     0
  4
"
 41
2.5
 42
1.0
 43
10.0
 44
1.0
 47
0.1
 48
0.1
 73
     0
 74
     0
 75
     1
 76
     1
 77
     1
 78
     8
 79
     2
140
3.5
141
0.0
143
0.0393701
144
2.0
146
0.71
147
1.5
172
     1
173
     1
176
   256
177
   256
178
     2
271
     2
272
     3
274
     4
283
     0
284
     8
340
11
343
87
371
    -1
372
    -1
  0
DIMSTYLE
105
40B
102
{ACAD_REACTORS
330
2BF5
330
2C2A
330
2C50
330
2C76
330
2C9C
330
2B64
330
2D03
330
2D2E
102
}
330
A
100
AcDbSymbolTableRecord
100
AcDbDimStyleTableRecord
  2
AM_ISO$0
 70
     0
  4
"
 41
6.0
 42
1.0
 43
14.0
 44
1.5
 47
0.1
 48
0.1
 73
     0
 74
     0
 77
     1
 78
     9
 79
     2
140
6.0
141
0.0
143
0.0393701
146
0.71
147
1.5
172
     1
176
   256
177
   256
178
   256
271
     2
272
     2
283
     2
284
     8
340
11
371
    -1
372
    -1
  0
DIMSTYLE
105
121B
330
A
100
AcDbSymbolTableRecord
100
AcDbDimStyleTableRecord
  2
AM_ANSI
 70
     0
  4
mm
 41
0.1
 42
0.05
 43
0.5
 44
0.1
 47
0.1
 48
0.1
 78
     7
 79
     2
140
0.12
141
0.0
146
0.71
147
0.06
176
   256
177
   256
178
     2
274
     4
284
     7
340
11
371
    -1
372
    -1
  0
DIMSTYLE
105
121C
330
A
100
AcDbSymbolTableRecord
100
AcDbDimStyleTableRecord
  2
AM_ANSI$3
 70
     0
  4
mm
 41
0.1
 42
0.05
 43
0.5
 44
0.1
 47
0.1
 48
0.1
 78
     7
 79
     2
140
0.12
141
0.0
146
0.71
147
0.06
176
   256
177
   256
178
     2
274
     4
284
     7
288
     1
289
     0
340
11
371
    -1
372
    -1
  0
DIMSTYLE
105
121D
330
A
100
AcDbSymbolTableRecord
100
AcDbDimStyleTableRecord
  2
AM_ANSI$4
 70
     0
  4
mm
 41
0.1
 42
0.05
 43
0.5
 44
0.1
 47
0.1
 48
0.1
 78
     7
 79
     2
140
0.12
141
0.0
146
0.71
147
0.06
176
   256
177
   256
178
     2
274
     4
284
     7
288
     1
289
     0
340
11
371
    -1
372
    -1
  0
DIMSTYLE
105
121E
330
A
100
AcDbSymbolTableRecord
100
AcDbDimStyleTableRecord
  2
AM_ANSI$7
 70
     0
  4
mm
 41
0.1
 42
0.05
 43
0.5
 44
0.1
 47
0.1
 48
0.1
 78
     7
 79
     2
140
0.24
141
0.0
146
0.71
147
0.06
176
   256
177
   256
178
     2
274
     4
284
     7
340
11
371
    -1
372
    -1
  0
DIMSTYLE
105
121F
330
A
100
AcDbSymbolTableRecord
100
AcDbDimStyleTableRecord
  2
AM_ANSI$SF
 70
     0
  4
mm
 41
0.1
 42
0.05
 43
0.5
 44
0.1
 47
0.1
 48
0.1
 75
     1
 76
     1
 78
     7
 79
     2
140
0.12
141
0.0
146
0.71
147
0.06
176
   256
177
   256
178
     2
274
     4
284
     7
340
11
371
    -1
372
    -1
  0
DIMSTYLE
105
1220
330
A
100
AcDbSymbolTableRecord
100
AcDbDimStyleTableRecord
  2
AM_ANSI$SH
 70
     0
  4
mm
 41
0.1
 42
0.05
 43
0.5
 44
0.1
 47
0.1
 48
0.1
 75
     1
 76
     1
 78
     7
 79
     2
140
0.12
141
0.0
146
0.71
147
0.06
173
     1
176
   256
177
   256
178
     2
274
     4
284
     7
340
11
341
87
343
87
371
    -1
372
    -1
  0
DIMSTYLE
105
188C
330
A
100
AcDbSymbolTableRecord
100
AcDbDimStyleTableRecord
  2
STANDARD
 70
     0
 41
2.5
 42
1.0
 43
2.0
 44
1.0
 73
     0
 74
     0
 77
     3
 78
     8
140
3.0
141
-3.0
146
0.6
147
0.8
172
     1
176
     5
177
     5
178
     5
271
     2
272
     8
284
     8
340
60C
  0
ENDTAB
  0
TABLE
  2
BLOCK_RECORD
  5
1
330
0
100
AcDbSymbolTable
 70
    13
  0
BLOCK_RECORD
  5
1F
102
{ACAD_XDICTIONARY
360
8F
102
}
330
1
100
AcDbSymbolTableRecord
100
AcDbBlockTableRecord
  2
*Model_Space
340
22
  0
BLOCK_RECORD
  5
1B
330
1
100
AcDbSymbolTableRecord
100
AcDbBlockTableRecord
  2
*Paper_Space
340
1E
  0
BLOCK_RECORD
  5
23
330
1
100
AcDbSymbolTableRecord
100
AcDbBlockTableRecord
  2
*Paper_Space0
340
26
  0
BLOCK_RECORD
  5
87
330
1
100
AcDbSymbolTableRecord
100
AcDbBlockTableRecord
  2
GENAXEH
340
0
  0
BLOCK_RECORD
  5
2B65
330
1
100
AcDbSymbolTableRecord
100
AcDbBlockTableRecord
  2
*D3
340
0
  0
BLOCK_RECORD
  5
2BF6
330
1
100
AcDbSymbolTableRecord
100
AcDbBlockTableRecord
  2
*D4
340
0
  0
BLOCK_RECORD
  5
2C2B
330
1
100
AcDbSymbolTableRecord
100
AcDbBlockTableRecord
  2
*D5
340
0
  0
BLOCK_RECORD
  5
2C51
330
1
100
AcDbSymbolTableRecord
100
AcDbBlockTableRecord
  2
*D6
340
0
  0
BLOCK_RECORD
  5
2C77
330
1
100
AcDbSymbolTableRecord
100
AcDbBlockTableRecord
  2
*D7
340
0
  0
BLOCK_RECORD
  5
2C9D
330
1
100
AcDbSymbolTableRecord
100
AcDbBlockTableRecord
  2
*D8
340
0
  0
BLOCK_RECORD
  5
2D04
330
1
100
AcDbSymbolTableRecord
100
AcDbBlockTableRecord
  2
*D9
340
0
  0
BLOCK_RECORD
  5
2D2F
330
1
100
AcDbSymbolTableRecord
100
AcDbBlockTableRecord
  2
*D10
340
0
  0
BLOCK_RECORD
  5
308E
330
1
100
AcDbSymbolTableRecord
100
AcDbBlockTableRecord
  2
*S12
340
0
  0
ENDTAB
  0
ENDSEC
  0
SECTION
  2
BLOCKS
  0
BLOCK
  5
20
330
1F
100
AcDbEntity
  8
0
100
AcDbBlockBegin
  2
*Model_Space
 70
     0
 10
0.0
 20
0.0
 30
0.0
  3
*Model_Space
  1

  0
ENDBLK
  5
21
330
1F
100
AcDbEntity
  8
0
100
AcDbBlockEnd
  0
BLOCK
  5
1C
330
1B
100
AcDbEntity
 67
     1
  8
0
100
AcDbBlockBegin
  2
*Paper_Space
 70
     0
 10
0.0
 20
0.0
 30
0.0
  3
*Paper_Space
  1

  0
ENDBLK
  5
1D
330
1B
100
AcDbEntity
 67
     1
  8
0
100
AcDbBlockEnd
  0
BLOCK
  5
24
330
23
100
AcDbEntity
  8
0
100
AcDbBlockBegin
  2
*Paper_Space0
 70
     0
 10
0.0
 20
0.0
 30
0.0
  3
*Paper_Space0
  1

  0
ENDBLK
  5
25
330
23
100
AcDbEntity
  8
0
100
AcDbBlockEnd
  0
BLOCK
  5
89
330
87
100
AcDbEntity
  8
0
100
AcDbBlockBegin
  2
GENAXEH
 70
     0
 10
0.0
 20
0.0
 30
0.0
  3
GENAXEH
  1

  0
LINE
  5
88
330
87
100
AcDbEntity
  8
0
100
AcDbLine
 10
-1.0
 20
0.0
 30
0.0
 11
1.0
 21
0.0
 31
0.0
  0
ENDBLK
  5
8A
330
87
100
AcDbEntity
  8
0
100
AcDbBlockEnd
  0
BLOCK
  5
2B6F
330
2B65
100
AcDbEntity
  8
0
100
AcDbBlockBegin
  2
*D3
 70
     1
 10
0.0
 20
0.0
 30
0.0
  3
*D3
  1

  0
LINE
  5
2FFE
330
2B65
100
AcDbEntity
  8
AM_5
100
AcDbLine
 10
2296.32185005007
 20
1738.853661570613
 30
0.0
 11
2309.82185005007
 21
1738.853661570613
 31
0.0
  0
LINE
  5
2FFF
330
2B65
100
AcDbEntity
  8
AM_5
100
AcDbLine
 10
2216.015914391027
 20
1630.853661570613
 30
0.0
 11
2309.82185005007
 21
1630.853661570613
 31
0.0
  0
LINE
  5
3000
330
2B65
100
AcDbEntity
  8
AM_5
100
AcDbLine
 10
2308.32185005007
 20
1732.853661570613
 30
0.0
 11
2308.32185005007
 21
1636.853661570613
 31
0.0
  0
SOLID
  5
3001
330
2B65
100
AcDbEntity
  8
AM_5
100
AcDbTrace
 10
2307.32185005007
 20
1732.853661570613
 30
0.0
 11
2309.32185005007
 21
1732.853661570613
 31
0.0
 12
2308.32185005007
 22
1738.853661570613
 32
0.0
 13
2308.32185005007
 23
1738.853661570613
 33
0.0
  0
SOLID
  5
3002
330
2B65
100
AcDbEntity
  8
AM_5
100
AcDbTrace
 10
2307.32185005007
 20
1636.853661570613
 30
0.0
 11
2309.32185005007
 21
1636.853661570613
 31
0.0
 12
2308.32185005007
 22
1630.853661570613
 32
0.0
 13
2308.32185005007
 23
1630.853661570613
 33
0.0
  0
MTEXT
  5
3003
330
2B65
100
AcDbEntity
  8
AM_5
100
AcDbMText
 10
2303.82185005007
 20
1684.853661570613
 30
0.0
 40
6.0
 41
0.0
 71
     5
 72
     1
  1
\A2;108
 11
0.0000000000000001
 21
1.0
 31
0.0
 73
     1
 44
1.0
1001
ACAD
1000
MTEXTBEGIN
1070
    73
1070
     1
1070
    44
1040
1.0
1070
    74
1070
     0
1000
MTEXTEND
  0
POINT
  5
3004
330
2B65
100
AcDbEntity
  8
Defpoints
 62
     0
100
AcDbPoint
 10
2295.32185005007
 20
1738.853661570613
 30
0.0
  0
POINT
  5
3005
330
2B65
100
AcDbEntity
  8
Defpoints
 62
     0
100
AcDbPoint
 10
2215.015914391027
 20
1630.853661570613
 30
0.0
  0
POINT
  5
3006
330
2B65
100
AcDbEntity
  8
Defpoints
 62
     0
100
AcDbPoint
 10
2308.32185005007
 20
1630.853661570613
 30
0.0
  0
ENDBLK
  5
2B70
330
2B65
100
AcDbEntity
  8
0
100
AcDbBlockEnd
  0
BLOCK
  5
2C00
330
2BF6
100
AcDbEntity
  8
0
100
AcDbBlockBegin
  2
*D4
 70
     1
 10
0.0
 20
0.0
 30
0.0
  3
*D4
  1

  0
LINE
  5
3020
330
2BF6
100
AcDbEntity
  8
AM_5
100
AcDbLine
 10
2289.040044116707
 20
1342.211751925832
 30
0.0
 11
2308.60057394026
 21
1342.211751925832
 31
0.0
  0
LINE
  5
3021
330
2BF6
100
AcDbEntity
  8
AM_5
100
AcDbLine
 10
2290.100573940259
 20
1382.711751925832
 30
0.0
 11
2308.60057394026
 21
1382.711751925832
 31
0.0
  0
LINE
  5
3022
330
2BF6
100
AcDbEntity
  8
AM_5
100
AcDbLine
 10
2307.10057394026
 20
1348.211751925832
 30
0.0
 11
2307.10057394026
 21
1376.711751925833
 31
0.0
  0
SOLID
  5
3023
330
2BF6
100
AcDbEntity
  8
AM_5
100
AcDbTrace
 10
2306.10057394026
 20
1348.211751925832
 30
0.0
 11
2308.10057394026
 21
1348.211751925832
 31
0.0
 12
2307.10057394026
 22
1342.211751925832
 32
0.0
 13
2307.10057394026
 23
1342.211751925832
 33
0.0
  0
SOLID
  5
3024
330
2BF6
100
AcDbEntity
  8
AM_5
100
AcDbTrace
 10
2306.10057394026
 20
1376.711751925833
 30
0.0
 11
2308.10057394026
 21
1376.711751925833
 31
0.0
 12
2307.10057394026
 22
1382.711751925832
 32
0.0
 13
2307.10057394026
 23
1382.711751925832
 33
0.0
  0
MTEXT
  5
3025
330
2BF6
100
AcDbEntity
  8
AM_5
100
AcDbMText
 10
2302.60057394026
 20
1362.461751925833
 30
0.0
 40
6.0
 41
0.0
 71
     5
 72
     1
  1
\A2;40.5
 11
0.0000000000000001
 21
1.0
 31
0.0
 73
     1
 44
1.0
1001
ACAD
1000
MTEXTBEGIN
1070
    73
1070
     1
1070
    44
1040
1.0
1070
    74
1070
     0
1000
MTEXTEND
  0
POINT
  5
3026
330
2BF6
100
AcDbEntity
  8
Defpoints
 62
     0
100
AcDbPoint
 10
2288.040044116707
 20
1342.211751925832
 30
0.0
  0
POINT
  5
3027
330
2BF6
100
AcDbEntity
  8
Defpoints
 62
     0
100
AcDbPoint
 10
2289.100573940259
 20
1382.711751925832
 30
0.0
  0
POINT
  5
3028
330
2BF6
100
AcDbEntity
  8
Defpoints
 62
     0
100
AcDbPoint
 10
2307.10057394026
 20
1382.711751925832
 30
0.0
  0
ENDBLK
  5
2C01
330
2BF6
100
AcDbEntity
  8
0
100
AcDbBlockEnd
  0
BLOCK
  5
2C35
330
2C2B
100
AcDbEntity
  8
0
100
AcDbBlockBegin
  2
*D5
 70
     1
 10
0.0
 20
0.0
 30
0.0
  3
*D5
  1

  0
LINE
  5
3029
330
2C2B
100
AcDbEntity
  8
AM_5
100
AcDbLine
 10
2290.100573940259
 20
1458.711751925832
 30
0.0
 11
2308.600573940259
 21
1458.711751925832
 31
0.0
  0
LINE
  5
302A
330
2C2B
100
AcDbEntity
  8
AM_5
100
AcDbLine
 10
2289.040044116707
 20
1499.211751925832
 30
0.0
 11
2308.600573940259
 21
1499.211751925832
 31
0.0
  0
LINE
  5
302B
330
2C2B
100
AcDbEntity
  8
AM_5
100
AcDbLine
 10
2307.100573940259
 20
1464.711751925832
 30
0.0
 11
2307.100573940259
 21
1493.211751925832
 31
0.0
  0
SOLID
  5
302C
330
2C2B
100
AcDbEntity
  8
AM_5
100
AcDbTrace
 10
2306.100573940259
 20
1464.711751925832
 30
0.0
 11
2308.100573940259
 21
1464.711751925832
 31
0.0
 12
2307.100573940259
 22
1458.711751925832
 32
0.0
 13
2307.100573940259
 23
1458.711751925832
 33
0.0
  0
SOLID
  5
302D
330
2C2B
100
AcDbEntity
  8
AM_5
100
AcDbTrace
 10
2306.100573940259
 20
1493.211751925832
 30
0.0
 11
2308.100573940259
 21
1493.211751925832
 31
0.0
 12
2307.100573940259
 22
1499.211751925832
 32
0.0
 13
2307.100573940259
 23
1499.211751925832
 33
0.0
  0
MTEXT
  5
302E
330
2C2B
100
AcDbEntity
  8
AM_5
100
AcDbMText
 10
2302.600573940258
 20
1478.961751925832
 30
0.0
 40
6.0
 41
0.0
 71
     5
 72
     1
  1
\A2;40.5
 11
0.0000000000000001
 21
1.0
 31
0.0
 73
     1
 44
1.0
1001
ACAD
1000
MTEXTBEGIN
1070
    73
1070
     1
1070
    44
1040
1.0
1070
    74
1070
     0
1000
MTEXTEND
  0
POINT
  5
302F
330
2C2B
100
AcDbEntity
  8
Defpoints
 62
     0
100
AcDbPoint
 10
2289.100573940259
 20
1458.711751925832
 30
0.0
  0
POINT
  5
3030
330
2C2B
100
AcDbEntity
  8
Defpoints
 62
     0
100
AcDbPoint
 10
2288.040044116707
 20
1499.211751925832
 30
0.0
  0
POINT
  5
3031
330
2C2B
100
AcDbEntity
  8
Defpoints
 62
     0
100
AcDbPoint
 10
2307.100573940259
 20
1499.211751925832
 30
0.0
  0
ENDBLK
  5
2C36
330
2C2B
100
AcDbEntity
  8
0
100
AcDbBlockEnd
  0
BLOCK
  5
2C5B
330
2C51
100
AcDbEntity
  8
0
100
AcDbBlockBegin
  2
*D6
 70
     1
 10
0.0
 20
0.0
 30
0.0
  3
*D6
  1

  0
LINE
  5
3032
330
2C51
100
AcDbEntity
  8
AM_5
100
AcDbLine
 10
2289.040044116707
 20
1342.211751925832
 30
0.0
 11
2322.600573940262
 21
1342.211751925832
 31
0.0
  0
LINE
  5
3033
330
2C51
100
AcDbEntity
  8
AM_5
100
AcDbLine
 10
2289.040044116707
 20
1499.211751925832
 30
0.0
 11
2322.600573940262
 21
1499.211751925832
 31
0.0
  0
LINE
  5
3034
330
2C51
100
AcDbEntity
  8
AM_5
100
AcDbLine
 10
2321.100573940262
 20
1348.211751925832
 30
0.0
 11
2321.100573940262
 21
1493.211751925832
 31
0.0
  0
SOLID
  5
3035
330
2C51
100
AcDbEntity
  8
AM_5
100
AcDbTrace
 10
2320.100573940262
 20
1348.211751925832
 30
0.0
 11
2322.100573940262
 21
1348.211751925832
 31
0.0
 12
2321.100573940262
 22
1342.211751925832
 32
0.0
 13
2321.100573940262
 23
1342.211751925832
 33
0.0
  0
SOLID
  5
3036
330
2C51
100
AcDbEntity
  8
AM_5
100
AcDbTrace
 10
2320.100573940262
 20
1493.211751925832
 30
0.0
 11
2322.100573940262
 21
1493.211751925832
 31
0.0
 12
2321.100573940262
 22
1499.211751925832
 32
0.0
 13
2321.100573940262
 23
1499.211751925832
 33
0.0
  0
MTEXT
  5
3037
330
2C51
100
AcDbEntity
  8
AM_5
100
AcDbMText
 10
2315.741842880139
 20
1420.711751925832
 30
0.0
 40
6.0
 41
0.0
 71
     5
 72
     1
  1
\A2;107+length
 11
0.0000000000000001
 21
1.0
 31
0.0
 73
     1
 44
1.0
1001
ACAD
1000
MTEXTBEGIN
1070
    73
1070
     1
1070
    44
1040
1.0
1070
    74
1070
     0
1000
MTEXTEND
  0
POINT
  5
3038
330
2C51
100
AcDbEntity
  8
Defpoints
 62
     0
100
AcDbPoint
 10
2288.040044116707
 20
1342.211751925832
 30
0.0
  0
POINT
  5
3039
330
2C51
100
AcDbEntity
  8
Defpoints
 62
     0
100
AcDbPoint
 10
2288.040044116707
 20
1499.211751925832
 30
0.0
  0
POINT
  5
303A
330
2C51
100
AcDbEntity
  8
Defpoints
 62
     0
100
AcDbPoint
 10
2321.100573940262
 20
1499.211751925832
 30
0.0
  0
ENDBLK
  5
2C5C
330
2C51
100
AcDbEntity
  8
0
100
AcDbBlockEnd
  0
BLOCK
  5
2C81
330
2C77
100
AcDbEntity
  8
0
100
AcDbBlockBegin
  2
*D7
 70
     1
 10
0.0
 20
0.0
 30
0.0
  3
*D7
  1

  0
LINE
  5
303B
330
2C77
100
AcDbEntity
  8
AM_5
100
AcDbLine
 10
2232.600573940259
 20
1334.211751925832
 30
0.0
 11
2336.600573940259
 21
1334.211751925832
 31
0.0
  0
LINE
  5
303C
330
2C77
100
AcDbEntity
  8
AM_5
100
AcDbLine
 10
2231.600573940258
 20
1546.211751925832
 30
0.0
 11
2336.600573940259
 21
1546.211751925832
 31
0.0
  0
LINE
  5
303D
330
2C77
100
AcDbEntity
  8
AM_5
100
AcDbLine
 10
2335.100573940259
 20
1340.211751925832
 30
0.0
 11
2335.100573940259
 21
1540.211751925832
 31
0.0
  0
SOLID
  5
303E
330
2C77
100
AcDbEntity
  8
AM_5
100
AcDbTrace
 10
2334.100573940259
 20
1340.211751925832
 30
0.0
 11
2336.100573940259
 21
1340.211751925832
 31
0.0
 12
2335.100573940259
 22
1334.211751925832
 32
0.0
 13
2335.100573940259
 23
1334.211751925832
 33
0.0
  0
SOLID
  5
303F
330
2C77
100
AcDbEntity
  8
AM_5
100
AcDbTrace
 10
2334.100573940259
 20
1540.211751925832
 30
0.0
 11
2336.100573940259
 21
1540.211751925832
 31
0.0
 12
2335.100573940259
 22
1546.211751925832
 32
0.0
 13
2335.100573940259
 23
1546.211751925832
 33
0.0
  0
MTEXT
  5
3040
330
2C77
100
AcDbEntity
  8
AM_5
100
AcDbMText
 10
2329.741252328954
 20
1440.211751925833
 30
0.0
 40
6.0
 41
0.0
 71
     5
 72
     1
  1
\A2;162+length
 11
0.0000000000000001
 21
1.0
 31
0.0
 73
     1
 44
1.0
1001
ACAD
1000
MTEXTBEGIN
1070
    73
1070
     1
1070
    44
1040
1.0
1070
    74
1070
     0
1000
MTEXTEND
  0
POINT
  5
3041
330
2C77
100
AcDbEntity
  8
Defpoints
 62
     0
100
AcDbPoint
 10
2231.600573940259
 20
1334.211751925832
 30
0.0
  0
POINT
  5
3042
330
2C77
100
AcDbEntity
  8
Defpoints
 62
     0
100
AcDbPoint
 10
2230.600573940258
 20
1546.211751925832
 30
0.0
  0
POINT
  5
3043
330
2C77
100
AcDbEntity
  8
Defpoints
 62
     0
100
AcDbPoint
 10
2335.100573940259
 20
1546.211751925832
 30
0.0
  0
ENDBLK
  5
2C82
330
2C77
100
AcDbEntity
  8
0
100
AcDbBlockEnd
  0
BLOCK
  5
2CA7
330
2C9D
100
AcDbEntity
  8
0
100
AcDbBlockBegin
  2
*D8
 70
     1
 10
0.0
 20
0.0
 30
0.0
  3
*D8
  1

  0
LINE
  5
3044
330
2C9D
100
AcDbEntity
  8
AM_5
100
AcDbLine
 10
2171.600573940259
 20
1546.211751925832
 30
0.0
 11
2171.600573940259
 21
1567.553184249471
 31
0.0
  0
LINE
  5
3045
330
2C9D
100
AcDbEntity
  8
AM_5
100
AcDbLine
 10
2231.600573940258
 20
1546.211751925832
 30
0.0
 11
2231.600573940258
 21
1567.553184249471
 31
0.0
  0
LINE
  5
3046
330
2C9D
100
AcDbEntity
  8
AM_5
100
AcDbLine
 10
2177.600573940259
 20
1566.053184249471
 30
0.0
 11
2225.600573940258
 21
1566.053184249471
 31
0.0
  0
SOLID
  5
3047
330
2C9D
100
AcDbEntity
  8
AM_5
100
AcDbTrace
 10
2177.600573940259
 20
1567.053184249471
 30
0.0
 11
2177.600573940259
 21
1565.053184249471
 31
0.0
 12
2171.600573940259
 22
1566.053184249471
 32
0.0
 13
2171.600573940259
 23
1566.053184249471
 33
0.0
  0
SOLID
  5
3048
330
2C9D
100
AcDbEntity
  8
AM_5
100
AcDbTrace
 10
2225.600573940258
 20
1567.053184249471
 30
0.0
 11
2225.600573940258
 21
1565.053184249471
 31
0.0
 12
2231.600573940258
 22
1566.053184249471
 32
0.0
 13
2231.600573940258
 23
1566.053184249471
 33
0.0
  0
MTEXT
  5
3049
330
2C9D
100
AcDbEntity
  8
AM_5
100
AcDbMText
 10
2201.600573940259
 20
1570.553184249471
 30
0.0
 40
6.0
 41
0.0
 71
     5
 72
     1
  1
\A2;%%c60
 73
     1
 44
1.0
1001
ACAD
1000
MTEXTBEGIN
1070
    73
1070
     1
1070
    44
1040
1.0
1070
    74
1070
     0
1000
MTEXTEND
  0
POINT
  5
304A
330
2C9D
100
AcDbEntity
  8
Defpoints
 62
     0
100
AcDbPoint
 10
2171.600573940259
 20
1545.211751925832
 30
0.0
  0
POINT
  5
304B
330
2C9D
100
AcDbEntity
  8
Defpoints
 62
     0
100
AcDbPoint
 10
2231.600573940258
 20
1545.211751925832
 30
0.0
  0
POINT
  5
304C
330
2C9D
100
AcDbEntity
  8
Defpoints
 62
     0
100
AcDbPoint
 10
2231.600573940258
 20
1566.053184249471
 30
0.0
  0
ENDBLK
  5
2CA8
330
2C9D
100
AcDbEntity
  8
0
100
AcDbBlockEnd
  0
BLOCK
  5
2D0E
330
2D04
100
AcDbEntity
  8
0
100
AcDbBlockBegin
  2
*D9
 70
     1
 10
0.0
 20
0.0
 30
0.0
  3
*D9
  1

  0
LINE
  5
3007
330
2D04
100
AcDbEntity
  8
AM_5
100
AcDbLine
 10
2179.17628865463
 20
1759.853661570613
 30
0.0
 11
2094.379297830448
 21
1759.853661570613
 31
0.0
  0
LINE
  5
3008
330
2D04
100
AcDbEntity
  8
AM_5
100
AcDbLine
 10
2179.17628865463
 20
1717.853661570613
 30
0.0
 11
2094.379297830448
 21
1717.853661570613
 31
0.0
  0
LINE
  5
3009
330
2D04
100
AcDbEntity
  8
AM_5
100
AcDbLine
 10
2095.879297830448
 20
1753.853661570613
 30
0.0
 11
2095.879297830448
 21
1723.853661570613
 31
0.0
  0
SOLID
  5
300A
330
2D04
100
AcDbEntity
  8
AM_5
100
AcDbTrace
 10
2094.879297830448
 20
1753.853661570613
 30
0.0
 11
2096.879297830448
 21
1753.853661570613
 31
0.0
 12
2095.879297830448
 22
1759.853661570613
 32
0.0
 13
2095.879297830448
 23
1759.853661570613
 33
0.0
  0
SOLID
  5
300B
330
2D04
100
AcDbEntity
  8
AM_5
100
AcDbTrace
 10
2094.879297830448
 20
1723.853661570613
 30
0.0
 11
2096.879297830448
 21
1723.853661570613
 31
0.0
 12
2095.879297830448
 22
1717.853661570613
 32
0.0
 13
2095.879297830448
 23
1717.853661570613
 33
0.0
  0
MTEXT
  5
300C
330
2D04
100
AcDbEntity
  8
AM_5
100
AcDbMText
 10
2091.378707279266
 20
1738.853661570613
 30
0.0
 40
6.0
 41
0.0
 71
     5
 72
     1
  1
\A2;42
 11
0.0000000000000001
 21
1.0
 31
0.0
 73
     1
 44
1.0
1001
ACAD
1000
MTEXTBEGIN
1070
    73
1070
     1
1070
    44
1040
1.0
1070
    74
1070
     0
1000
MTEXTEND
  0
POINT
  5
300D
330
2D04
100
AcDbEntity
  8
Defpoints
 62
     0
100
AcDbPoint
 10
2180.17628865463
 20
1759.853661570613
 30
0.0
  0
POINT
  5
300E
330
2D04
100
AcDbEntity
  8
Defpoints
 62
     0
100
AcDbPoint
 10
2180.17628865463
 20
1717.853661570613
 30
0.0
  0
POINT
  5
300F
330
2D04
100
AcDbEntity
  8
Defpoints
 62
     0
100
AcDbPoint
 10
2095.879297830448
 20
1717.853661570613
 30
0.0
  0
ENDBLK
  5
2D0F
330
2D04
100
AcDbEntity
  8
0
100
AcDbBlockEnd
  0
BLOCK
  5
2D39
330
2D2F
100
AcDbEntity
  8
0
100
AcDbBlockBegin
  2
*D10
 70
     1
 10
0.0
 20
0.0
 30
0.0
  3
*D10
  1

  0
LINE
  5
3010
330
2D2F
100
AcDbEntity
  8
AM_5
100
AcDbLine
 10
2125.100573940258
 20
1651.353661570613
 30
0.0
 11
2080.379297830448
 21
1651.353661570613
 31
0.0
  0
LINE
  5
3011
330
2D2F
100
AcDbEntity
  8
AM_5
100
AcDbLine
 10
2125.100573940259
 20
1826.353661570612
 30
0.0
 11
2080.379297830448
 21
1826.353661570612
 31
0.0
  0
LINE
  5
3012
330
2D2F
100
AcDbEntity
  8
AM_5
100
AcDbLine
 10
2081.879297830449
 20
1657.353661570613
 30
0.0
 11
2081.879297830449
 21
1820.353661570613
 31
0.0
  0
SOLID
  5
3013
330
2D2F
100
AcDbEntity
  8
AM_5
100
AcDbTrace
 10
2080.879297830448
 20
1657.353661570613
 30
0.0
 11
2082.879297830448
 21
1657.353661570613
 31
0.0
 12
2081.879297830449
 22
1651.353661570613
 32
0.0
 13
2081.879297830449
 23
1651.353661570613
 33
0.0
  0
SOLID
  5
3014
330
2D2F
100
AcDbEntity
  8
AM_5
100
AcDbTrace
 10
2080.879297830448
 20
1820.353661570613
 30
0.0
 11
2082.879297830448
 21
1820.353661570613
 31
0.0
 12
2081.879297830449
 22
1826.353661570612
 32
0.0
 13
2081.879297830449
 23
1826.353661570612
 33
0.0
  0
MTEXT
  5
3015
330
2D2F
100
AcDbEntity
  8
AM_5
100
AcDbMText
 10
2077.379297830448
 20
1738.853661570613
 30
0.0
 40
6.0
 41
0.0
 71
     5
 72
     1
  1
\A2;{\Famgdt|c136;o}175
 11
0.0000000000000001
 21
1.0
 31
0.0
 73
     1
 44
1.0
1001
ACAD
1000
MTEXTBEGIN
1070
    73
1070
     1
1070
    44
1040
1.0
1070
    74
1070
     0
1000
MTEXTEND
  0
POINT
  5
3016
330
2D2F
100
AcDbEntity
  8
Defpoints
 62
     0
100
AcDbPoint
 10
2126.100573940258
 20
1651.353661570613
 30
0.0
  0
POINT
  5
3017
330
2D2F
100
AcDbEntity
  8
Defpoints
 62
     0
100
AcDbPoint
 10
2126.100573940259
 20
1826.353661570612
 30
0.0
  0
POINT
  5
3018
330
2D2F
100
AcDbEntity
  8
Defpoints
 62
     0
100
AcDbPoint
 10
2081.879297830449
 20
1826.353661570612
 30
0.0
  0
ENDBLK
  5
2D3A
330
2D2F
100
AcDbEntity
  8
0
100
AcDbBlockEnd
  0
BLOCK
  5
3093
330
308E
100
AcDbEntity
  8
0
100
AcDbBlockBegin
  2
*S12
 70
     1
 10
0.0
 20
0.0
 30
0.0
  3
*S12
  1

  0
LINE
  5
308F
330
308E
100
AcDbEntity
  8
AM_5
 62
     5
100
AcDbLine
 10
2154.8467965225
 20
1308.838711315074
 30
0.0
 11
2181.92325631347
 21
1308.838711315074
 31
0.0
  0
LINE
  5
3090
330
308E
100
AcDbEntity
  8
AM_5
 62
     5
100
AcDbLine
 10
2181.92325631347
 20
1308.838711315074
 30
0.0
 11
2204.443158855225
 21
1358.211402743876
 31
0.0
  0
TRACE
  5
3091
330
308E
100
AcDbEntity
  8
AM_5
 62
     5
370
    35
100
AcDbTrace
 10
2204.862391802055
 20
1358.020181952955
 30
0.0
 11
2204.023925908396
 21
1358.402623534797
 31
0.0
 12
2205.895624970779
 22
1361.395793138154
 32
0.0
 13
2205.895624970779
 23
1361.395793138154
 33
0.0
  0
MTEXT
  5
3092
330
308E
100
AcDbEntity
  8
AM_5
 62
     2
100
AcDbMText
 10
2154.8467965225
 20
1308.703443576846
 30
0.0
 40
3.5
 41
0.0
 71
     9
 72
     5
  1

  7
ACISOTS
 73
     1
 44
1.0
1001
ACAD
1000
MTEXTBEGIN
1070
    73
1070
     1
1070
    44
1040
1.0
1070
    74
1070
     0
1000
MTEXTEND
  0
ENDBLK
  5
3094
330
308E
100
AcDbEntity
  8
0
100
AcDbBlockEnd
  0
ENDSEC
  0
SECTION
  2
ENTITIES
  0
TEXT
  5
103C
330
1F
100
AcDbEntity
  8
LOGO
 62
     7
100
AcDbText
 10
2170.373053435123
 20
1230.06189192617
 30
0.0
 40
8.071718755087056
  1
Order example:
 41
0.8
  7
CHINESET
100
AcDbText
  0
TEXT
  5
103D
330
1F
100
AcDbEntity
  8
LOGO
 62
     7
100
AcDbText
 10
2171.821186530184
 20
1241.425200662639
 30
0.0
 40
12.10757813263059
  1
訂購代號:
  7
CHINESET
100
AcDbText
  0
LINE
  5
103E
330
1F
100
AcDbEntity
  8
LOGO
 62
     1
100
AcDbLine
 10
3128.600177198434
 20
1256.582511685462
 30
0.0
 11
2033.682504799406
 21
1256.582511685462
 31
0.0
  0
LINE
  5
103F
330
1F
100
AcDbEntity
  8
LOGO
 62
     1
100
AcDbLine
 10
2166.865864258342
 20
1196.044621022309
 30
0.0
 11
2166.865864258342
 21
1256.582511685462
 31
0.0
  0
TEXT
  5
1040
330
1F
100
AcDbEntity
  8
LOGO
  6
Continuous
 62
     5
100
AcDbText
 10
2055.427987248694
 20
1207.937198283443
 30
0.0
 40
9.080683599472942
  1
金器工業股份有限公司
  7
CHINESET
100
AcDbText
  0
TEXT
  5
1041
330
1F
100
AcDbEntity
  8
LOGO
  6
Continuous
 62
     5
100
AcDbText
 10
2038.748568001117
 20
1198.854735581938
 30
0.0
 40
6.053789066315294
  1
MINDMAN INDUSTRIAL CO., LTD.
 41
0.85
  7
CHINESET
100
AcDbText
  0
LINE
  5
1042
330
1F
100
AcDbEntity
  8
LOGO
 62
     1
100
AcDbLine
 10
2166.865864258342
 20
1244.474933552832
 30
0.0
 11
2078.076957952385
 21
1244.474933552832
 31
0.0
  0
LINE
  5
1043
330
1F
100
AcDbEntity
  8
LOGO
 62
     1
100
AcDbLine
 10
2166.865864258342
 20
1232.367355420201
 30
0.0
 11
2078.076957952385
 21
1232.367355420201
 31
0.0
  0
LINE
  5
1044
330
1F
100
AcDbEntity
  8
LOGO
 62
     1
100
AcDbLine
 10
2166.865864258342
 20
1220.25977728757
 30
0.0
 11
2033.682504799406
 21
1220.25977728757
 31
0.0
  0
LINE
  5
1045
330
1F
100
AcDbEntity
  8
LOGO
 62
     1
100
AcDbLine
 10
2078.076957952385
 20
1220.25977728757
 30
0.0
 11
2078.076957952385
 21
1256.582511685462
 31
0.0
  0
TEXT
  5
1046
330
1F
100
AcDbEntity
  8
LOGO
 62
     6
100
AcDbText
 10
2135.588952271894
 20
1223.286671820728
 30
0.0
 40
6.053789066315294
  1
m/m
  7
CHINESET
 72
     1
 11
2146.255152055402
 21
1226.313566353886
 31
0.0
100
AcDbText
 73
     2
  0
TEXT
  5
1047
330
1F
100
AcDbEntity
  8
LOGO
 62
     6
100
AcDbText
 10
2135.588952271894
 20
1247.501828085989
 30
0.0
 40
6.053789066315294
  1
1 : 1
  7
CHINESET
 72
     1
 11
2146.255152055402
 21
1250.528722619147
 31
0.0
100
AcDbText
 73
     2
  0
LINE
  5
1048
330
1F
100
AcDbEntity
  8
LOGO
 62
     1
100
AcDbLine
 10
2126.507270482907
 20
1220.25977728757
 30
0.0
 11
2126.507270482907
 21
1256.582511685462
 31
0.0
  0
CIRCLE
  5
1049
330
1F
100
AcDbEntity
  8
LOGO
  6
Continuous
 62
     6
100
AcDbCircle
 10
2137.716618135156
 20
1238.43409358563
 30
0.0
 40
3.514972422034877
  0
CIRCLE
  5
104A
330
1F
100
AcDbEntity
  8
LOGO
  6
Continuous
 62
     6
100
AcDbCircle
 10
2137.716618135156
 20
1238.43409358563
 30
0.0
 40
2.059462676409092
  0
LINE
  5
104B
330
1F
100
AcDbEntity
  8
LOGO
 62
     6
100
AcDbLine
 10
2159.805112695377
 20
1234.919121163595
 30
0.0
 11
2159.805112695377
 21
1241.949066007665
 31
0.0
  0
LINE
  5
104C
330
1F
100
AcDbEntity
  8
LOGO
 62
     6
100
AcDbLine
 10
2148.78587592134
 20
1236.374630909221
 30
0.0
 11
2148.78587592134
 21
1240.493556262039
 31
0.0
  0
LINE
  5
104D
330
1F
100
AcDbEntity
  8
LOGO
  6
Continuous
 62
     6
100
AcDbLine
 10
2148.78587592134
 20
1240.493556262039
 30
0.0
 11
2159.805112695377
 21
1241.949066007665
 31
0.0
  0
LINE
  5
104E
330
1F
100
AcDbEntity
  8
LOGO
  6
Continuous
 62
     6
100
AcDbLine
 10
2148.78587592134
 20
1236.374630909221
 30
0.0
 11
2159.805112695377
 21
1234.919121163595
 31
0.0
  0
LINE
  5
104F
330
1F
100
AcDbEntity
  8
LOGO
 62
     6
100
AcDbLine
 10
2345.495190179119
 20
1250.528722619147
 30
0.0
 11
2313.096513747726
 21
1250.528722619147
 31
0.0
  0
LINE
  5
1050
330
1F
100
AcDbEntity
  8
LOGO
 62
     6
100
AcDbLine
 10
2345.495190179119
 20
1223.286671820729
 30
0.0
 11
2313.096513747726
 21
1223.286671820729
 31
0.0
  0
LINE
  5
1051
330
1F
100
AcDbEntity
  8
LOGO
 62
     6
100
AcDbLine
 10
2345.495190179119
 20
1232.367355420201
 30
0.0
 11
2313.096513747726
 21
1232.367355420201
 31
0.0
  0
LINE
  5
1052
330
1F
100
AcDbEntity
  8
LOGO
 62
     6
100
AcDbLine
 10
2345.495190179119
 20
1201.089445244239
 30
0.0
 11
2313.096513747726
 21
1201.089445244239
 31
0.0
  0
LINE
  5
1053
330
1F
100
AcDbEntity
  8
LOGO
 62
     6
100
AcDbLine
 10
2313.096513747726
 20
1223.286671820729
 30
0.0
 11
2313.096513747726
 21
1201.089445244239
 31
0.0
  0
LINE
  5
1054
330
1F
100
AcDbEntity
  8
LOGO
 62
     6
100
AcDbLine
 10
2294.527499210505
 20
1223.286671820729
 30
0.0
 11
2294.527499210505
 21
1201.089445244239
 31
0.0
  0
LINE
  5
1055
330
1F
100
AcDbEntity
  8
LOGO
 62
     6
100
AcDbLine
 10
2254.168905435069
 20
1223.286671820729
 30
0.0
 11
2254.168905435069
 21
1201.089445244239
 31
0.0
  0
LINE
  5
1056
330
1F
100
AcDbEntity
  8
LOGO
 62
     6
100
AcDbLine
 10
2294.527499210505
 20
1201.089445244239
 30
0.0
 11
2254.168905435069
 21
1201.089445244239
 31
0.0
  0
LINE
  5
1057
330
1F
100
AcDbEntity
  8
LOGO
  6
Continuous
 62
     7
100
AcDbLine
 10
2301.692289218422
 20
1241.383708586881
 30
0.0
 11
2309.711686294634
 21
1241.383708586881
 31
0.0
  0
LINE
  5
1058
330
1F
100
AcDbEntity
  8
LOGO
 62
     6
100
AcDbLine
 10
2298.563358588048
 20
1250.528722619147
 30
0.0
 11
2250.133046057526
 21
1250.528722619147
 31
0.0
  0
LINE
  5
1059
330
1F
100
AcDbEntity
  8
LOGO
 62
     6
100
AcDbLine
 10
2298.563358588048
 20
1232.367355420201
 30
0.0
 11
2250.133046057526
 21
1232.367355420201
 31
0.0
  0
LINE
  5
105A
330
1F
100
AcDbEntity
  8
LOGO
 62
     6
100
AcDbLine
 10
2250.133046057526
 20
1250.528722619147
 30
0.0
 11
2250.133046057526
 21
1232.367355420201
 31
0.0
  0
LINE
  5
105B
330
1F
100
AcDbEntity
  8
LOGO
 62
     6
100
AcDbLine
 10
2298.563358588048
 20
1250.528722619147
 30
0.0
 11
2298.563358588048
 21
1232.367355420201
 31
0.0
  0
LINE
  5
105C
330
1F
100
AcDbEntity
  8
LOGO
 62
     6
100
AcDbLine
 10
2274.348202322787
 20
1232.367355420201
 30
0.0
 11
2274.348202322787
 21
1223.286671820729
 31
0.0
  0
TEXT
  5
105D
330
1F
100
AcDbEntity
  8
LOGO
  6
Continuous
 62
     7
100
AcDbText
 10
2254.409135159923
 20
1236.403214797744
 30
0.0
 40
10.08964844385882
  1
MCQA
  7
CHINESET
 72
     1
 11
2274.348202322787
 21
1241.448039019674
 31
0.0
100
AcDbText
 73
     2
  0
LINE
  5
105E
330
1F
100
AcDbEntity
  8
LOGO
 62
     6
100
AcDbLine
 10
2294.527499210505
 20
1223.286671820729
 30
0.0
 11
2254.168905435069
 21
1223.286671820729
 31
0.0
  0
TEXT
  5
105F
330
1F
100
AcDbEntity
  8
LOGO
  6
Continuous
 62
     7
100
AcDbText
 10
2318.226066502051
 20
1236.288797548614
 30
0.0
 40
10.08964844385882
  1
150
  7
CHINESET
 72
     1
 11
2330.23755274474
 21
1241.333621770544
 31
0.0
100
AcDbText
 73
     2
  0
LINE
  5
1060
330
1F
100
AcDbEntity
  8
LOGO
 62
     6
100
AcDbLine
 10
2329.295851498118
 20
1232.367355420201
 30
0.0
 11
2329.295851498118
 21
1223.286671820729
 31
0.0
  0
LINE
  5
1061
330
1F
100
AcDbEntity
  8
LOGO
 62
     6
100
AcDbLine
 10
2313.096513747726
 20
1250.528722619147
 30
0.0
 11
2313.096513747726
 21
1232.367355420201
 31
0.0
  0
LINE
  5
1062
330
1F
100
AcDbEntity
  8
LOGO
 62
     6
100
AcDbLine
 10
2391.381832733422
 20
1223.286671820729
 30
0.0
 11
2391.381832733422
 21
1201.005746981552
 31
0.0
  0
LINE
  5
1063
330
1F
100
AcDbEntity
  8
LOGO
 62
     6
100
AcDbLine
 10
2361.802175538514
 20
1223.286671820729
 30
0.0
 11
2361.802175538514
 21
1201.089445244239
 31
0.0
  0
LINE
  5
1064
330
1F
100
AcDbEntity
  8
LOGO
 62
     6
100
AcDbLine
 10
2345.495190179119
 20
1223.286671820729
 30
0.0
 11
2345.495190179119
 21
1201.089445244239
 31
0.0
  0
LINE
  5
1065
330
1F
100
AcDbEntity
  8
LOGO
 62
     6
100
AcDbLine
 10
2391.381832733422
 20
1201.089445244239
 30
0.0
 11
2361.802175538514
 21
1201.089445244239
 31
0.0
  0
LINE
  5
1066
330
1F
100
AcDbEntity
  8
LOGO
 62
     6
100
AcDbLine
 10
2391.381832733422
 20
1223.286671820729
 30
0.0
 11
2361.802175538514
 21
1223.286671820729
 31
0.0
  0
LINE
  5
1067
330
1F
100
AcDbEntity
  8
LOGO
 62
     6
100
AcDbLine
 10
2393.399762422194
 20
1232.367355420201
 30
0.0
 11
2359.784245849743
 21
1232.367355420201
 31
0.0
  0
LINE
  5
1068
330
1F
100
AcDbEntity
  8
LOGO
 62
     6
100
AcDbLine
 10
2393.399762422194
 20
1250.528722619147
 30
0.0
 11
2359.784245849743
 21
1250.528722619147
 31
0.0
  0
LINE
  5
1069
330
1F
100
AcDbEntity
  8
LOGO
 62
     6
100
AcDbLine
 10
2377.019383321541
 20
1232.367355420201
 30
0.0
 11
2377.019383321541
 21
1223.286671820729
 31
0.0
  0
LINE
  5
106A
330
1F
100
AcDbEntity
  8
LOGO
  6
Continuous
 62
     7
100
AcDbLine
 10
2348.624120809493
 20
1241.383708586881
 30
0.0
 11
2356.643517885704
 21
1241.383708586881
 31
0.0
  0
LINE
  5
106B
330
1F
100
AcDbEntity
  8
LOGO
 62
     6
100
AcDbLine
 10
2359.784245849743
 20
1250.528722619147
 30
0.0
 11
2359.784245849743
 21
1232.367355420201
 31
0.0
  0
LINE
  5
106C
330
1F
100
AcDbEntity
  8
LOGO
 62
     6
100
AcDbLine
 10
2345.495190179119
 20
1250.528722619147
 30
0.0
 11
2345.495190179119
 21
1232.367355420201
 31
0.0
  0
TEXT
  5
106D
330
1F
100
AcDbEntity
  8
LOGO
  6
Continuous
 62
     7
100
AcDbText
 10
2369.365894272257
 20
1236.288797548614
 30
0.0
 40
10.08964844385882
  1
50
  7
CHINESET
 72
     1
 11
2377.533704917285
 21
1241.333621770544
 31
0.0
100
AcDbText
 73
     2
  0
LINE
  5
106E
330
1F
100
AcDbEntity
  8
LOGO
 62
     6
100
AcDbLine
 10
2393.399762422194
 20
1250.528722619147
 30
0.0
 11
2393.399762422194
 21
1232.367355420201
 31
0.0
  0
TEXT
  5
106F
330
1F
100
AcDbEntity
  8
LOGO
 62
     6
100
AcDbText
 10
2083.068631347691
 20
1247.504807312892
 30
396.755362371422
 40
6.053789066315294
  1
比例 Scale:
 41
0.9
  7
CHINESET
 72
     4
 11
2102.292114217647
 21
1250.528722619147
 31
396.755362371422
100
AcDbText
  0
TEXT
  5
1070
330
1F
100
AcDbEntity
  8
LOGO
 62
     6
100
AcDbText
 10
2085.184754936497
 20
1235.479406188994
 30
396.755362371422
 40
6.053789066315294
  1
投影 View:
 41
0.9
  7
CHINESET
 72
     4
 11
2102.292114217647
 21
1238.421144486516
 31
396.755362371422
100
AcDbText
  0
TEXT
  5
1071
330
1F
100
AcDbEntity
  8
LOGO
 62
     6
100
AcDbText
 10
2085.776620921105
 20
1223.286671820728
 30
396.755362371422
 40
6.053789066315294
  1
單位 Unit:
 41
0.9
  7
CHINESET
 72
     4
 11
2102.292114217647
 21
1226.313566353886
 31
396.755362371422
100
AcDbText
  0
TEXT
  5
1072
330
1F
100
AcDbEntity
  8
LOGO
  6
Continuous
 62
     6
100
AcDbText
 10
2264.739013328636
 20
1203.611857355204
 30
396.755362371422
 40
5.044824221929411
  1
Model
  7
CHINESET
 72
     4
 11
2274.348202322787
 21
1206.134269466168
 31
396.755362371422
100
AcDbText
  0
TEXT
  5
1073
330
1F
100
AcDbEntity
  8
LOGO
  6
Continuous
 62
     6
100
AcDbText
 10
2323.049879117225
 20
1203.611857355204
 30
396.755362371422
 40
5.044824221929411
  1
Bore
 41
0.8
  7
CHINESET
 72
     4
 11
2329.295851963423
 21
1206.134269466168
 31
396.755362371422
100
AcDbText
  0
TEXT
  5
1074
330
1F
100
AcDbEntity
  8
LOGO
 62
     6
100
AcDbText
 10
2266.108322760302
 20
1212.291338398444
 30
396.755362371422
 40
8.071718755087056
  1
型號
  7
CHINESET
 72
     4
 11
2274.348202322787
 21
1216.223917910027
 31
396.755362371422
100
AcDbText
  0
TEXT
  5
1075
330
1F
100
AcDbEntity
  8
LOGO
 62
     6
100
AcDbText
 10
2321.577270903871
 20
1212.188058532483
 30
396.755362371422
 40
8.071718755087056
  1
內徑
 41
0.9
  7
CHINESET
 72
     4
 11
2329.295851963423
 21
1216.223917910027
 31
396.755362371422
100
AcDbText
  0
TEXT
  5
1076
330
1F
100
AcDbEntity
  8
LOGO
  6
Continuous
 62
     6
100
AcDbText
 10
2367.174998921699
 20
1204.452661392192
 30
396.755362371422
 40
5.044824221929411
  1
Length
 41
0.8
  7
CHINESET
 72
     4
 11
2376.592004135968
 21
1206.134269466168
 31
396.755362371422
100
AcDbText
  0
TEXT
  5
1077
330
1F
100
AcDbEntity
  8
LOGO
 62
     6
100
AcDbText
 10
2369.327457256389
 20
1212.439968718368
 30
396.755362371422
 40
8.071718755087056
  1
長度
 41
0.9
  7
CHINESET
 72
     4
 11
2376.592004135968
 21
1216.223917910027
 31
396.755362371422
100
AcDbText
  0
LWPOLYLINE
  5
1078
330
1F
100
AcDbEntity
  8
0
 62
     4
100
AcDbPolyline
 90
        4
 70
     1
 43
0.0
 10
2033.682504799406
 20
1256.582511685462
 10
3128.600177198433
 20
1256.582511685462
 10
3128.600177198433
 20
1929.641197753899
 10
2033.682504799406
 20
1929.641197753899
1001
GENIUS_GENREC_14
1002
{
1000
PYDIR
1011
2033.682504799406
1021
1929.641197753899
1031
0.0
1002
}
1002
{
1000
PXDIR
1011
3128.600177198433
1021
1256.582511685462
1031
0.0
1002
}
1002
{
1000
PORI
1011
2033.682504799406
1021
1256.582511685462
1031
0.0
1002
}
1002
{
1000
PINS
1011
2033.682504799406
1021
1256.582511685462
1031
0.0
1002
}
1002
{
1000
PINS2
1011
3128.600177198433
1021
1929.641197753899
1031
0.0
1002
}
1002
{
1000
C
1070
     1
1002
}
1001
GENIUS_GENODEF_13
1002
{
1000
HIER
1070
     0
1002
}
1002
{
1000
MANEDIT
1070
     0
1002
}
1002
{
1000
NOSEL
1070
     0
1002
}
1002
{
1000
BEHIND
1070
     0
1002
}
1002
{
1000
OTHER
1070
     0
1002
}
1002
{
1000
REACTOR
1002
}
1001
GENIUS_GENOBJ-N-REC_13
1002
{
1000
OWNER
1000
GEN
1002
}
  0
SOLID
  5
1079
330
1F
100
AcDbEntity
  8
LOGO
 62
     5
100
AcDbTrace
 10
2039.963408111633
 20
1230.3233399213
 30
0.0
 11
2042.580907652483
 21
1230.323339921299
 31
0.0
 12
2053.502198840166
 22
1255.144456256944
 32
0.0
 13
2056.119698381015
 23
1255.144456256942
 33
0.0
  0
SOLID
  5
107A
330
1F
100
AcDbEntity
  8
LOGO
 62
     5
100
AcDbTrace
 10
2043.664010910767
 20
1230.3233399213
 30
0.0
 11
2046.281510451616
 21
1230.3233399213
 31
0.0
 12
2056.119698381015
 22
1253.158766950092
 32
0.0
 13
2053.502198840166
 23
1243.561268633642
 33
0.0
  0
SOLID
  5
107B
330
1F
100
AcDbEntity
  8
LOGO
 62
     2
100
AcDbTrace
 10
2042.580907652483
 20
1230.323339921299
 30
0.0
 11
2043.664010910767
 21
1230.3233399213
 31
0.0
 12
2056.119698381015
 22
1255.144456256942
 32
0.0
 13
2057.202801639299
 23
1255.144456256942
 33
0.0
  0
SOLID
  5
107C
330
1F
100
AcDbEntity
  8
LOGO
 62
     5
100
AcDbTrace
 10
2035.766914458136
 20
1221.297479435613
 30
0.0
 11
2036.669500506707
 21
1221.297479435613
 31
0.0
 12
2039.21125307116
 22
1225.810409678456
 32
0.0
 13
2040.113839119729
 23
1225.810409678456
 33
0.0
  0
SOLID
  5
107D
330
1F
100
AcDbEntity
  8
LOGO
 62
     5
100
AcDbTrace
 10
2039.21125307116
 20
1225.810409678456
 30
0.0
 11
2040.113839119729
 21
1225.810409678456
 31
0.0
 12
2039.21125307116
 22
1221.297479435613
 32
0.0
 13
2040.113839119729
 23
1221.297479435613
 33
0.0
  0
SOLID
  5
107E
330
1F
100
AcDbEntity
  8
LOGO
 62
     5
100
AcDbTrace
 10
2039.21125307116
 20
1221.297479435613
 30
0.0
 11
2040.113839119729
 21
1221.297479435613
 31
0.0
 12
2042.655591684184
 22
1225.810409678456
 32
0.0
 13
2043.558177732752
 23
1225.810409678456
 33
0.0
  0
SOLID
  5
107F
330
1F
100
AcDbEntity
  8
LOGO
 62
     5
100
AcDbTrace
 10
2042.655591684184
 20
1225.810409678456
 30
0.0
 11
2043.558177732752
 21
1225.810409678456
 31
0.0
 12
2042.655591684184
 22
1221.297479435613
 32
0.0
 13
2043.558177732752
 23
1221.297479435613
 33
0.0
  0
POLYLINE
  5
1080
330
1F
100
AcDbEntity
  8
LOGO
 62
     5
100
AcDb2dPolyline
 66
     1
 10
0.0
 20
0.0
 30
0.0
 40
0.9040325005697507
 41
0.9040325005697507
  0
VERTEX
  5
1081
330
1080
100
AcDbEntity
  8
LOGO
 62
     5
100
AcDbVertex
100
AcDb2dVertex
 10
2072.909968562399
 20
1224.005237581318
 30
0.0
 42
1.0
  0
VERTEX
  5
1082
330
1080
100
AcDbEntity
  8
LOGO
 62
     5
100
AcDbVertex
100
AcDb2dVertex
 10
2070.197871060689
 20
1224.005237581318
 30
0.0
 42
1.0
  0
SEQEND
  5
1083
330
1080
100
AcDbEntity
  8
LOGO
 62
     5
  0
POLYLINE
  5
1084
330
1F
100
AcDbEntity
  8
LOGO
 62
     5
100
AcDb2dPolyline
 66
     1
 10
0.0
 20
0.0
 30
0.0
 70
     1
  0
VERTEX
  5
1085
330
1084
100
AcDbEntity
  8
LOGO
 62
     5
100
AcDbVertex
100
AcDb2dVertex
 10
2065.085446635869
 20
1223.553944557034
 30
0.0
 42
1.000000057330635
  0
VERTEX
  5
1086
330
1084
100
AcDbEntity
  8
LOGO
 62
     5
100
AcDbVertex
100
AcDb2dVertex
 10
2067.793204781576
 20
1223.553944557034
 30
0.0
 42
1.000000057330635
  0
SEQEND
  5
1087
330
1084
100
AcDbEntity
  8
LOGO
 62
     5
  0
CIRCLE
  5
1088
330
1F
100
AcDbEntity
  8
LOGO
 62
     5
100
AcDbCircle
 10
2066.439325708723
 20
1223.553944557034
 30
0.0
 40
1.353879072853259
  0
POLYLINE
  5
1089
330
1F
100
AcDbEntity
  8
LOGO
 62
     5
100
AcDb2dPolyline
 66
     1
 10
0.0
 20
0.0
 30
0.0
 70
     1
 40
0.9040325005697507
 41
0.9040325005697507
  0
VERTEX
  5
108A
330
1089
100
AcDbEntity
  8
LOGO
 62
     5
100
AcDbVertex
100
AcDb2dVertex
 10
2064.631260707583
 20
1223.553944557034
 30
0.0
 42
1.0
  0
VERTEX
  5
108B
330
1089
100
AcDbEntity
  8
LOGO
 62
     5
100
AcDbVertex
100
AcDb2dVertex
 10
2068.247390709863
 20
1223.553944557034
 30
0.0
 42
1.0
  0
SEQEND
  5
108C
330
1089
100
AcDbEntity
  8
LOGO
 62
     5
  0
LINE
  5
108D
330
1F
100
AcDbEntity
  8
LOGO
 62
     5
100
AcDbLine
 10
2073.359091908681
 20
1221.297479435613
 30
0.0
 11
2073.359091908681
 21
1224.005237581318
 31
0.0
  0
SOLID
  5
108E
330
1F
100
AcDbEntity
  8
LOGO
 62
     5
100
AcDbTrace
 10
2067.793114522973
 20
1225.810409678456
 30
0.0
 11
2068.695700571541
 21
1225.810409678456
 31
0.0
 12
2067.793114522973
 22
1221.297479435613
 32
0.0
 13
2068.695700571541
 23
1221.297479435613
 33
0.0
  0
SOLID
  5
108F
330
1F
100
AcDbEntity
  8
LOGO
 62
     5
100
AcDbTrace
 10
2069.748747714405
 20
1221.297479435613
 30
0.0
 11
2070.651333762974
 21
1221.297479435613
 31
0.0
 12
2069.748747714405
 22
1225.810409678456
 32
0.0
 13
2070.651333762974
 23
1225.810409678456
 33
0.0
  0
SOLID
  5
1090
330
1F
100
AcDbEntity
  8
LOGO
 62
     5
100
AcDbTrace
 10
2072.456505860113
 20
1224.005237581318
 30
0.0
 11
2073.359091908681
 21
1224.005237581318
 31
0.0
 12
2072.456505860113
 22
1221.297479435613
 32
0.0
 13
2073.359091908681
 23
1221.297479435613
 33
0.0
  0
SOLID
  5
1091
330
1F
100
AcDbEntity
  8
LOGO
 62
     5
100
AcDbTrace
 10
2069.658489109549
 20
1253.158766950092
 30
0.0
 11
2067.040989568698
 21
1243.561268633642
 31
0.0
 12
2069.658489109549
 22
1230.323339921299
 32
0.0
 13
2067.040989568698
 23
1230.323339921299
 33
0.0
  0
SOLID
  5
1092
330
1F
100
AcDbEntity
  8
LOGO
 62
     5
100
AcDbTrace
 10
2070.741592367831
 20
1230.323339921299
 30
0.0
 11
2073.359091908681
 21
1230.323339921299
 31
0.0
 12
2070.741592367831
 22
1255.144456256942
 32
0.0
 13
2073.359091908681
 23
1255.144456256944
 33
0.0
  0
SOLID
  5
1093
330
1F
100
AcDbEntity
  8
LOGO
 62
     2
100
AcDbTrace
 10
2069.658489109549
 20
1255.144456256944
 30
0.0
 11
2070.741592367831
 21
1255.144456256942
 31
0.0
 12
2069.658489109549
 22
1230.323339921299
 32
0.0
 13
2070.741592367831
 23
1230.323339921299
 33
0.0
  0
POLYLINE
  5
1094
330
1F
100
AcDbEntity
  8
LOGO
 62
     5
100
AcDb2dPolyline
 66
     1
 10
0.0
 20
0.0
 30
0.0
 40
0.9040325005697507
 41
0.9040325005697507
  0
VERTEX
  5
1095
330
1094
100
AcDbEntity
  8
LOGO
 62
     5
100
AcDbVertex
100
AcDb2dVertex
 10
2059.972841693841
 20
1224.005237581318
 30
0.0
 42
1.0
  0
VERTEX
  5
1096
330
1094
100
AcDbEntity
  8
LOGO
 62
     5
100
AcDbVertex
100
AcDb2dVertex
 10
2057.260744192132
 20
1224.005237581318
 30
0.0
 42
1.0
  0
SEQEND
  5
1097
330
1094
100
AcDbEntity
  8
LOGO
 62
     5
  0
POLYLINE
  5
1098
330
1F
100
AcDbEntity
  8
LOGO
 62
     5
100
AcDb2dPolyline
 66
     1
 10
0.0
 20
0.0
 30
0.0
 40
0.9040325005697507
 41
0.9040325005697507
  0
VERTEX
  5
1099
330
1098
100
AcDbEntity
  8
LOGO
 62
     5
100
AcDbVertex
100
AcDb2dVertex
 10
2062.680599839547
 20
1224.005237581318
 30
0.0
 42
1.0
  0
VERTEX
  5
109A
330
1098
100
AcDbEntity
  8
LOGO
 62
     5
100
AcDbVertex
100
AcDb2dVertex
 10
2059.968502337837
 20
1224.005237581318
 30
0.0
 42
1.0
  0
SEQEND
  5
109B
330
1098
100
AcDbEntity
  8
LOGO
 62
     5
  0
POLYLINE
  5
109C
330
1F
100
AcDbEntity
  8
LOGO
 62
     5
100
AcDb2dPolyline
 66
     1
 10
0.0
 20
0.0
 30
0.0
 40
0.9040325005697507
 41
0.9040325005697507
  0
VERTEX
  5
109D
330
109C
100
AcDbEntity
  8
LOGO
 62
     5
100
AcDbVertex
100
AcDb2dVertex
 10
2049.743472970991
 20
1224.005237581318
 30
0.0
 42
1.0
  0
VERTEX
  5
109E
330
109C
100
AcDbEntity
  8
LOGO
 62
     5
100
AcDbVertex
100
AcDb2dVertex
 10
2047.031375469282
 20
1224.005237581318
 30
0.0
 42
1.0
  0
SEQEND
  5
109F
330
109C
100
AcDbEntity
  8
LOGO
 62
     5
  0
SOLID
  5
10A0
330
1F
100
AcDbEntity
  8
LOGO
 62
     5
100
AcDbTrace
 10
2046.582252122999
 20
1225.810409678456
 30
0.0
 11
2047.484838171568
 21
1225.810409678456
 31
0.0
 12
2046.582252122999
 22
1221.297479435613
 32
0.0
 13
2047.484838171568
 23
1221.297479435613
 33
0.0
  0
SOLID
  5
10A1
330
1F
100
AcDbEntity
  8
LOGO
 62
     5
100
AcDbTrace
 10
2049.290010268706
 20
1224.005237581318
 30
0.0
 11
2050.192596317275
 21
1224.005237581318
 31
0.0
 12
2049.290010268706
 22
1221.297479435613
 32
0.0
 13
2050.192596317275
 23
1221.297479435613
 33
0.0
  0
POLYLINE
  5
10A2
330
1F
100
AcDbEntity
  8
LOGO
 62
     5
100
AcDb2dPolyline
 66
     1
 10
0.0
 20
0.0
 30
0.0
 70
     1
 40
0.9040325005697507
 41
0.9040325005697507
  0
VERTEX
  5
10A3
330
10A2
100
AcDbEntity
  8
LOGO
 62
     5
100
AcDbVertex
100
AcDb2dVertex
 10
2051.694133839026
 20
1223.553944557034
 30
0.0
 42
1.0
  0
VERTEX
  5
10A4
330
10A2
100
AcDbEntity
  8
LOGO
 62
     5
100
AcDbVertex
100
AcDb2dVertex
 10
2055.310263841304
 20
1223.553944557034
 30
0.0
 42
1.0
  0
SEQEND
  5
10A5
330
10A2
100
AcDbEntity
  8
LOGO
 62
     5
  0
SOLID
  5
10A6
330
1F
100
AcDbEntity
  8
LOGO
 62
     5
100
AcDbTrace
 10
2054.855987654416
 20
1227.16428875131
 30
0.0
 11
2055.758573702982
 21
1227.16428875131
 31
0.0
 12
2054.855987654416
 22
1221.297479435613
 32
0.0
 13
2055.758573702982
 23
1221.297479435613
 33
0.0
  0
SOLID
  5
10A7
330
1F
100
AcDbEntity
  8
LOGO
 62
     5
100
AcDbTrace
 10
2056.81162084585
 20
1225.810409678456
 30
0.0
 11
2057.714206894418
 21
1225.810409678456
 31
0.0
 12
2056.81162084585
 22
1221.297479435613
 32
0.0
 13
2057.714206894418
 23
1221.297479435613
 33
0.0
  0
SOLID
  5
10A8
330
1F
100
AcDbEntity
  8
LOGO
 62
     5
100
AcDbTrace
 10
2059.519378991555
 20
1224.005237581318
 30
0.0
 11
2060.421965040125
 21
1224.005237581318
 31
0.0
 12
2059.519378991555
 22
1221.297479435613
 32
0.0
 13
2060.421965040125
 23
1221.297479435613
 33
0.0
  0
SOLID
  5
10A9
330
1F
100
AcDbEntity
  8
LOGO
 62
     5
100
AcDbTrace
 10
2062.227137137262
 20
1224.005237581318
 30
0.0
 11
2063.129723185829
 21
1224.005237581318
 31
0.0
 12
2062.227137137262
 22
1221.297479435611
 32
0.0
 13
2063.129723185829
 23
1221.297479435611
 33
0.0
  0
SOLID
  5
10AA
330
1F
100
AcDbEntity
  8
LOGO
 62
     5
100
AcDbTrace
 10
2044.626618931563
 20
1226.442219912454
 30
0.0
 11
2045.529204980134
 21
1226.442219912454
 31
0.0
 12
2044.626618931563
 22
1227.16428875131
 32
0.0
 13
2045.529204980134
 23
1227.16428875131
 33
0.0
  0
SOLID
  5
10AB
330
1F
100
AcDbEntity
  8
LOGO
 62
     5
100
AcDbTrace
 10
2044.626618931563
 20
1225.810409678456
 30
0.0
 11
2045.529204980134
 21
1225.810409678456
 31
0.0
 12
2044.626618931563
 22
1221.297479435611
 32
0.0
 13
2045.529204980134
 23
1221.297479435613
 33
0.0
  0
SOLID
  5
10AC
330
1F
100
AcDbEntity
  8
LOGO
 62
     5
100
AcDbTrace
 10
2053.502198840166
 20
1230.3233399213
 30
0.0
 11
2056.119698381015
 21
1230.3233399213
 31
0.0
 12
2053.502198840166
 22
1243.561268633642
 32
0.0
 13
2056.119698381015
 23
1253.158766950092
 33
0.0
  0
SOLID
  5
10AD
330
1F
100
AcDbEntity
  8
LOGO
 62
     5
100
AcDbTrace
 10
2057.202801639299
 20
1255.144456256942
 30
0.0
 11
2059.820301180149
 21
1255.144456256944
 31
0.0
 12
2057.202801639299
 22
1232.309029228151
 32
0.0
 13
2059.820301180149
 23
1241.9065275446
 33
0.0
  0
SOLID
  5
10AE
330
1F
100
AcDbEntity
  8
LOGO
 62
     2
100
AcDbTrace
 10
2056.119698381015
 20
1255.144456256942
 30
0.0
 11
2057.202801639299
 21
1255.144456256942
 31
0.0
 12
2056.119698381015
 22
1230.3233399213
 32
0.0
 13
2057.202801639299
 23
1230.3233399213
 33
0.0
  0
SOLID
  5
10AF
330
1F
100
AcDbEntity
  8
LOGO
 62
     5
100
AcDbTrace
 10
2057.202801639299
 20
1232.309029228151
 30
0.0
 11
2059.820301180149
 21
1241.9065275446
 31
0.0
 12
2069.658489109549
 22
1255.144456256944
 32
0.0
 13
2067.040989568698
 23
1255.144456256944
 33
0.0
  0
SOLID
  5
10B0
330
1F
100
AcDbEntity
  8
LOGO
 62
     5
100
AcDbTrace
 10
2057.202801639299
 20
1230.3233399213
 30
0.0
 11
2059.820301180149
 21
1230.3233399213
 31
0.0
 12
2069.658489109549
 22
1253.158766950092
 32
0.0
 13
2067.040989568698
 23
1243.561268633642
 33
0.0
  0
SOLID
  5
10B1
330
1F
100
AcDbEntity
  8
LOGO
 62
     2
100
AcDbTrace
 10
2056.119698381015
 20
1230.3233399213
 30
0.0
 11
2057.202801639299
 21
1230.3233399213
 31
0.0
 12
2069.658489109549
 22
1255.144456256944
 32
0.0
 13
2070.741592367831
 23
1255.144456256942
 33
0.0
  0
TEXT
  5
10B2
330
1F
100
AcDbEntity
  8
0
100
AcDbText
 10
2169.548392227609
 20
1199.265212911666
 30
0.0
 40
5.048047304071199
  1
1050526
 41
0.8
  7
CHINESET
 72
     1
 11
2181.952165603326
 21
1199.265212911666
 31
0.0
100
AcDbText
  0
LINE
  5
10B3
330
1F
100
AcDbEntity
  8
LOGO
 62
     1
100
AcDbLine
 10
2197.527475000091
 20
1208.15219915494
 30
0.0
 11
2197.527475000091
 21
1196.044621022309
 31
0.0
  0
LINE
  5
10B4
330
1F
100
AcDbEntity
  8
LOGO
 62
     1
100
AcDbLine
 10
2197.527475000091
 20
1208.15219915494
 30
0.0
 11
2166.865864258342
 21
1208.15219915494
 31
0.0
  0
LWPOLYLINE
  5
10B5
330
1F
100
AcDbEntity
  8
0
 62
     1
100
AcDbPolyline
 90
        4
 70
     1
 43
0.0
 10
2033.682504799406
 20
1256.582511685462
 10
3128.600177198433
 20
1256.582511685462
 10
3128.600177198433
 20
1196.044621022309
 10
2033.682504799406
 20
1196.044621022309
1001
GENIUS_GENREC_14
1002
{
1000
PYDIR
1011
2033.682504799406
1021
1196.044621022309
1031
0.0
1002
}
1002
{
1000
PXDIR
1011
3128.600177198433
1021
1256.582511685462
1031
0.0
1002
}
1002
{
1000
PORI
1011
2033.682504799406
1021
1256.582511685462
1031
0.0
1002
}
1002
{
1000
PINS
1011
2033.682504799406
1021
1256.582511685462
1031
0.0
1002
}
1002
{
1000
PINS2
1011
3128.600177198433
1021
1196.044621022309
1031
0.0
1002
}
1002
{
1000
C
1070
     1
1002
}
1001
GENIUS_GENOBJ-N-REC_13
1002
{
1000
OWNER
1000
GEN
1002
}
1001
GENIUS_GENODEF_13
1002
{
1000
HIER
1070
     0
1002
}
1002
{
1000
MANEDIT
1070
     0
1002
}
1002
{
1000
NOSEL
1070
     0
1002
}
1002
{
1000
BEHIND
1070
     0
1002
}
1002
{
1000
OTHER
1070
     0
1002
}
1002
{
1000
REACTOR
1002
}
  0
LINE
  5
10B6
330
1F
100
AcDbEntity
  8
LOGO
 62
     6
100
AcDbLine
 10
2450.712715265235
 20
1223.286671820729
 30
0.0
 11
2450.712715265235
 21
1201.005746981552
 31
0.0
  0
LINE
  5
10B7
330
1F
100
AcDbEntity
  8
LOGO
 62
     6
100
AcDbLine
 10
2397.731915256723
 20
1223.286671820729
 30
0.0
 11
2397.731915256723
 21
1201.089445244239
 31
0.0
  0
LINE
  5
10B8
330
1F
100
AcDbEntity
  8
LOGO
 62
     6
100
AcDbLine
 10
2450.712715265235
 20
1201.089445244239
 30
0.0
 11
2397.731915256723
 21
1201.089445244239
 31
0.0
  0
LINE
  5
10B9
330
1F
100
AcDbEntity
  8
LOGO
 62
     6
100
AcDbLine
 10
2450.712715265235
 20
1223.286671820729
 30
0.0
 11
2397.731915256723
 21
1223.286671820729
 31
0.0
  0
LINE
  5
10BA
330
1F
100
AcDbEntity
  8
LOGO
 62
     6
100
AcDbLine
 10
2441.507798821047
 20
1232.367355420201
 30
0.0
 11
2407.892282248595
 21
1232.367355420201
 31
0.0
  0
LINE
  5
10BB
330
1F
100
AcDbEntity
  8
LOGO
 62
     6
100
AcDbLine
 10
2441.507798821047
 20
1250.528722619147
 30
0.0
 11
2407.892282248595
 21
1250.528722619147
 31
0.0
  0
LINE
  5
10BC
330
1F
100
AcDbEntity
  8
LOGO
 62
     6
100
AcDbLine
 10
2425.127419720395
 20
1232.367355420201
 30
0.0
 11
2425.127419720395
 21
1223.286671820729
 31
0.0
  0
LINE
  5
10BD
330
1F
100
AcDbEntity
  8
LOGO
 62
     6
100
AcDbLine
 10
2407.892282248595
 20
1250.528722619147
 30
0.0
 11
2407.892282248595
 21
1232.367355420201
 31
0.0
  0
TEXT
  5
10BE
330
1F
100
AcDbEntity
  8
LOGO
  6
Continuous
 62
     7
100
AcDbText
 10
2416.993471221402
 20
1236.288797548614
 30
0.0
 40
10.08964844385882
  1
AH
  7
CHINESET
 72
     1
 11
2425.641741316139
 21
1241.333621770544
 31
0.0
100
AcDbText
 73
     2
  0
LINE
  5
10BF
330
1F
100
AcDbEntity
  8
LOGO
 62
     6
100
AcDbLine
 10
2441.507798821047
 20
1250.528722619147
 30
0.0
 11
2441.507798821047
 21
1232.367355420201
 31
0.0
  0
TEXT
  5
10C0
330
1F
100
AcDbEntity
  8
LOGO
  6
Continuous
 62
     6
100
AcDbText
 10
2400.677068049442
 20
1203.611857355204
 30
396.755362371422
 40
5.044824221929411
  1
Air-Oil coverter
 41
0.8
  7
CHINESET
 72
     4
 11
2424.70004053482
 21
1206.134269466168
 31
396.755362371422
100
AcDbText
  0
TEXT
  5
10C1
330
1F
100
AcDbEntity
  8
LOGO
 62
     6
100
AcDbText
 10
2417.435493655242
 20
1212.394618264405
 30
396.755362371422
 40
8.071718755087056
  1
型式
 41
0.9
  7
CHINESET
 72
     4
 11
2424.70004053482
 21
1216.223917910027
 31
396.755362371422
100
AcDbText
  0
LINE
  5
10C2
330
1F
100
AcDbEntity
  8
LOGO
  6
Continuous
 62
     7
100
AcDbLine
 10
2396.195799477997
 20
1241.383708586881
 30
0.0
 11
2404.215196554209
 21
1241.383708586881
 31
0.0
  0
TEXT
  5
10C3
330
1F
100
AcDbEntity
  8
0
100
AcDbText
 10
2081.713994634221
 20
1888.772322953895
 30
0.0
 40
15.015
  1
Length=50mm
100
AcDbText
  0
LINE
  5
238B
330
1F
100
AcDbEntity
  8
CENTER
  6
CENTER
100
AcDbLine
 10
2189.600573940259
 20
1477.711751925832
 30
0.0
 11
2189.600573940259
 21
1471.711751925832
 31
0.0
  0
LINE
  5
238C
330
1F
100
AcDbEntity
  8
CENTER
  6
CENTER
100
AcDbLine
 10
2192.600573940259
 20
1474.711751925832
 30
0.0
 11
2186.600573940259
 21
1474.711751925832
 31
0.0
  0
LINE
  5
238D
330
1F
100
AcDbEntity
  8
CENTER
  6
CENTER
100
AcDbLine
 10
2189.600573940259
 20
1468.711751925832
 30
0.0
 11
2189.600573940259
 21
1462.461751925832
 31
0.0
  0
LINE
  5
238E
330
1F
100
AcDbEntity
  8
CENTER
  6
CENTER
100
AcDbLine
 10
2189.600573940259
 20
1480.711751925832
 30
0.0
 11
2189.600573940259
 21
1486.961751925832
 31
0.0
  0
LINE
  5
238F
330
1F
100
AcDbEntity
  8
CENTER
  6
CENTER
100
AcDbLine
 10
2183.600573940259
 20
1474.711751925832
 30
0.0
 11
2177.350573940259
 21
1474.711751925832
 31
0.0
  0
LINE
  5
2390
330
1F
100
AcDbEntity
  8
CENTER
  6
CENTER
100
AcDbLine
 10
2195.600573940259
 20
1474.711751925832
 30
0.0
 11
2201.850573940259
 21
1474.711751925832
 31
0.0
  0
LINE
  5
2391
330
1F
100
AcDbEntity
  8
CENTER
  6
CENTER
100
AcDbLine
 10
2189.600573940259
 20
1477.711751925832
 30
0.0
 11
2189.600573940259
 21
1471.711751925832
 31
0.0
  0
LINE
  5
2392
330
1F
100
AcDbEntity
  8
CENTER
  6
CENTER
100
AcDbLine
 10
2192.600573940259
 20
1474.711751925832
 30
0.0
 11
2186.600573940259
 21
1474.711751925832
 31
0.0
  0
LINE
  5
2397
330
1F
100
AcDbEntity
  8
0
  6
Continuous
 62
     7
100
AcDbLine
 10
2229.100573940259
 20
1483.711751925832
 30
0.0
 11
2288.445925901029
 21
1483.711751925832
 31
0.0
  0
LINE
  5
2398
330
1F
100
AcDbEntity
  8
0
  6
Continuous
 62
     7
100
AcDbLine
 10
2114.100573940259
 20
1483.711751925832
 30
0.0
 11
2174.100573940259
 21
1483.711751925832
 31
0.0
  0
LINE
  5
2399
330
1F
100
AcDbEntity
  8
0
 62
     7
100
AcDbLine
 10
2277.100573940259
 20
1499.211751925832
 30
0.0
 11
2277.100573940259
 21
1496.434183790167
 31
0.0
  0
LINE
  5
239A
330
1F
100
AcDbEntity
  8
0
 62
     7
100
AcDbLine
 10
2253.100573940259
 20
1499.211751925832
 30
0.0
 11
2253.100573940259
 21
1483.711751925832
 31
0.0
  0
LINE
  5
239B
330
1F
100
AcDbEntity
  8
0
 62
     7
100
AcDbLine
 10
2126.100573940258
 20
1499.211751925832
 30
0.0
 11
2126.100573940258
 21
1496.711751925832
 31
0.0
  0
LINE
  5
239C
330
1F
100
AcDbEntity
  8
0
 62
     7
100
AcDbLine
 10
2150.100573940259
 20
1499.211751925832
 30
0.0
 11
2150.100573940259
 21
1483.711751925832
 31
0.0
  0
LINE
  5
239D
330
1F
100
AcDbEntity
  8
0
 62
     7
100
AcDbLine
 10
2241.100573940259
 20
1499.211751925832
 30
0.0
 11
2241.100573940259
 21
1483.711751925832
 31
0.0
  0
LINE
  5
239E
330
1F
100
AcDbEntity
  8
0
 62
     7
100
AcDbLine
 10
2162.100573940259
 20
1499.211751925832
 30
0.0
 11
2162.100573940259
 21
1483.711751925832
 31
0.0
  0
LINE
  5
239F
330
1F
100
AcDbEntity
  8
0
 62
     7
100
AcDbLine
 10
2229.100573940259
 20
1499.211751925832
 30
0.0
 11
2229.100573940259
 21
1483.711751925832
 31
0.0
  0
LINE
  5
23A0
330
1F
100
AcDbEntity
  8
0
 62
     7
100
AcDbLine
 10
2174.100573940259
 20
1499.211751925832
 30
0.0
 11
2174.100573940259
 21
1483.711751925832
 31
0.0
  0
LINE
  5
23A2
330
1F
100
AcDbEntity
  8
0
  6
Continuous
 62
     7
100
AcDbLine
 10
2231.600573940259
 20
1531.211751925832
 30
0.0
 11
2231.600573940259
 21
1499.211751925832
 31
0.0
  0
LINE
  5
23A3
330
1F
100
AcDbEntity
  8
0
  6
Continuous
 62
     7
100
AcDbLine
 10
2171.600573940259
 20
1531.211751925832
 30
0.0
 11
2171.600573940259
 21
1499.211751925832
 31
0.0
  0
LINE
  5
23A4
330
1F
100
AcDbEntity
  8
0
  6
Continuous
 62
     7
100
AcDbLine
 10
2171.600573940259
 20
1531.211751925832
 30
0.0
 11
2231.600573940259
 21
1531.211751925832
 31
0.0
  0
LINE
  5
23A5
330
1F
100
AcDbEntity
  8
0
  6
Continuous
 62
     7
100
AcDbLine
 10
2513.869142447501
 20
1530.211751925832
 30
0.0
 11
2513.869142447501
 21
1499.211751925832
 31
0.0
  0
LINE
  5
23A6
330
1F
100
AcDbEntity
  8
0
  6
Continuous
 62
     7
100
AcDbLine
 10
2453.869142447501
 20
1530.211751925832
 30
0.0
 11
2453.869142447501
 21
1499.211751925832
 31
0.0
  0
LINE
  5
23A7
330
1F
100
AcDbEntity
  8
0
  6
Continuous
 62
     7
100
AcDbLine
 10
2115.161103763811
 20
1499.211751925832
 30
0.0
 11
2114.100573940259
 21
1458.711751925832
 31
0.0
  0
LINE
  5
23A8
330
1F
100
AcDbEntity
  8
0
  6
Continuous
 62
     7
100
AcDbLine
 10
2115.161103763811
 20
1499.211751925832
 30
0.0
 11
2126.60057394026
 21
1499.211751925832
 31
0.0
  0
LINE
  5
23A9
102
{ACAD_REACTORS
330
2C38
102
}
330
1F
100
AcDbEntity
  8
0
  6
Continuous
 62
     7
100
AcDbLine
 10
2288.040044116707
 20
1499.211751925832
 30
0.0
 11
2289.100573940259
 21
1458.711751925832
 31
0.0
  0
LINE
  5
23AA
330
1F
100
AcDbEntity
  8
0
  6
Continuous
 62
     7
100
AcDbLine
 10
2114.100573940259
 20
1458.711751925832
 30
0.0
 11
2209.034373988832
 21
1458.711751925832
 31
0.0
  0
LINE
  5
23AB
330
1F
100
AcDbEntity
  8
0
 62
     7
100
AcDbLine
 10
2121.600573940259
 20
1457.711751925832
 30
0.0
 11
2121.600573940259
 21
1458.711751925832
 31
0.0
  0
LINE
  5
23AC
330
1F
100
AcDbEntity
  8
0
  6
Continuous
 62
     7
100
AcDbLine
 10
2121.600573940259
 20
1457.711751925832
 30
0.0
 11
2208.670737625195
 21
1457.711751925832
 31
0.0
  0
LINE
  5
23AD
330
1F
100
AcDbEntity
  8
0
 62
     7
100
AcDbLine
 10
2281.600573940258
 20
1457.711751925832
 30
0.0
 11
2281.600573940258
 21
1458.711751925832
 31
0.0
  0
LINE
  5
23AE
330
1F
100
AcDbEntity
  8
CENTER
  6
CENTER
100
AcDbLine
 10
2201.600573940259
 20
1554.053184249471
 30
0.0
 11
2201.600573940259
 21
1322.855212741331
 31
0.0
  0
LINE
  5
23AF
330
1F
100
AcDbEntity
  8
CENTER
  6
CENTER
100
AcDbLine
 10
2389.349578694222
 20
1474.711751925832
 30
0.0
 11
2424.05997086955
 21
1474.711751925832
 31
0.0
  0
LINE
  5
23B3
330
1F
100
AcDbEntity
  8
CENTER
  6
CENTER
100
AcDbLine
 10
2483.869142447501
 20
1553.169771893869
 30
0.0
 11
2483.869142447501
 21
1323.738625096934
 31
0.0
  0
LINE
  5
23B4
330
1F
100
AcDbEntity
  8
0
  6
Continuous
 62
     7
100
AcDbLine
 10
2403.869142447501
 20
1457.711751925832
 30
0.0
 11
2563.869142447501
 21
1457.711751925832
 31
0.0
  0
LINE
  5
23B5
330
1F
100
AcDbEntity
  8
0
 62
     7
100
AcDbLine
 10
2563.869142447501
 20
1457.711751925832
 30
0.0
 11
2563.869142447501
 21
1458.711751925832
 31
0.0
  0
LINE
  5
23B6
330
1F
100
AcDbEntity
  8
0
  6
Continuous
 62
     7
100
AcDbLine
 10
2563.869142447501
 20
1458.711751925832
 30
0.0
 11
2571.369142447501
 21
1458.711751925832
 31
0.0
  0
LINE
  5
23B7
330
1F
100
AcDbEntity
  8
0
 62
     7
100
AcDbLine
 10
2403.869142447501
 20
1457.711751925832
 30
0.0
 11
2403.869142447501
 21
1458.711751925832
 31
0.0
  0
LINE
  5
23B8
330
1F
100
AcDbEntity
  8
0
  6
Continuous
 62
     7
100
AcDbLine
 10
2454.869142447501
 20
1531.211751925832
 30
0.0
 11
2512.869142447501
 21
1531.211751925832
 31
0.0
  0
LINE
  5
23B9
330
1F
100
AcDbEntity
  8
0
  6
Continuous
 62
     7
100
AcDbLine
 10
2396.369142447501
 20
1458.711751925832
 30
0.0
 11
2403.869142447501
 21
1458.711751925832
 31
0.0
  0
LINE
  5
23BA
330
1F
100
AcDbEntity
  8
0
  6
Continuous
 62
     7
100
AcDbLine
 10
2570.308612623949
 20
1499.211751925833
 30
0.0
 11
2571.369142447501
 21
1458.711751925832
 31
0.0
  0
LINE
  5
23BB
330
1F
100
AcDbEntity
  8
0
  6
Continuous
 62
     7
100
AcDbLine
 10
2397.429672271053
 20
1499.211751925832
 30
0.0
 11
2408.869142447501
 21
1499.211751925832
 31
0.0
  0
LINE
  5
23BC
330
1F
100
AcDbEntity
  8
0
  6
Continuous
 62
     7
100
AcDbLine
 10
2397.429672271053
 20
1499.211751925832
 30
0.0
 11
2396.369142447501
 21
1458.711751925832
 31
0.0
  0
LINE
  5
23BD
330
1F
100
AcDbEntity
  8
0
  6
Continuous
 62
     7
100
AcDbLine
 10
2453.869142447501
 20
1530.211751925832
 30
0.0
 11
2454.869142447501
 21
1531.211751925832
 31
0.0
  0
LINE
  5
23BE
330
1F
100
AcDbEntity
  8
0
  6
Continuous
 62
     7
100
AcDbLine
 10
2513.869142447501
 20
1530.211751925832
 30
0.0
 11
2512.869142447501
 21
1531.211751925832
 31
0.0
  0
LINE
  5
23C6
330
1F
100
AcDbEntity
  8
0
100
AcDbLine
 10
2397.023790486731
 20
1483.711751925832
 30
0.0
 11
2456.369142447501
 21
1483.711751925832
 31
0.0
  0
LINE
  5
23C7
330
1F
100
AcDbEntity
  8
0
 62
     7
100
AcDbLine
 10
2444.369142447501
 20
1499.211751925832
 30
0.0
 11
2444.369142447501
 21
1483.711751925832
 31
0.0
  0
LINE
  5
23C8
330
1F
100
AcDbEntity
  8
0
 62
     7
100
AcDbLine
 10
2523.369142447501
 20
1499.211751925832
 30
0.0
 11
2523.369142447501
 21
1483.711751925832
 31
0.0
  0
LINE
  5
23C9
330
1F
100
AcDbEntity
  8
0
 62
     7
100
AcDbLine
 10
2456.369142447501
 20
1499.211751925832
 30
0.0
 11
2456.369142447501
 21
1483.711751925832
 31
0.0
  0
LINE
  5
23CA
330
1F
100
AcDbEntity
  8
0
 62
     7
100
AcDbLine
 10
2511.369142447501
 20
1499.211751925832
 30
0.0
 11
2511.369142447501
 21
1483.711751925832
 31
0.0
  0
LINE
  5
23CB
330
1F
100
AcDbEntity
  8
0
100
AcDbLine
 10
2511.369142447501
 20
1483.711751925832
 30
0.0
 11
2570.714494408271
 21
1483.711751925832
 31
0.0
  0
LINE
  5
23CC
330
1F
100
AcDbEntity
  8
0
  6
Continuous
 62
     7
100
AcDbLine
 10
2403.869142447501
 20
1383.711751925833
 30
0.0
 11
2563.869142447501
 21
1383.711751925833
 31
0.0
  0
LINE
  5
23CD
330
1F
100
AcDbEntity
  8
0
  6
Continuous
 62
     7
100
AcDbLine
 10
2121.600573940259
 20
1383.711751925832
 30
0.0
 11
2181.761646716232
 21
1383.711751925832
 31
0.0
  0
LINE
  5
23CE
330
1F
100
AcDbEntity
  8
0
 62
     7
100
AcDbLine
 10
2403.869142447501
 20
1457.711751925832
 30
0.0
 11
2403.869142447501
 21
1383.711751925833
 31
0.0
  0
LINE
  5
23CF
330
1F
100
AcDbEntity
  8
0
 62
     7
100
AcDbLine
 10
2563.869142447501
 20
1457.711751925832
 30
0.0
 11
2563.869142447501
 21
1383.711751925833
 31
0.0
  0
LINE
  5
23D0
330
1F
100
AcDbEntity
  8
0
 62
     7
100
AcDbLine
 10
2121.600573940259
 20
1457.711751925832
 30
0.0
 11
2121.600573940259
 21
1383.711751925832
 31
0.0
  0
LINE
  5
23D1
330
1F
100
AcDbEntity
  8
0
 62
     7
100
AcDbLine
 10
2281.600573940259
 20
1457.711751925832
 30
0.0
 11
2281.600573940259
 21
1383.711751925832
 31
0.0
  0
LINE
  5
23D2
330
1F
100
AcDbEntity
  8
0
 62
     7
100
AcDbLine
 10
2444.369142447501
 20
1342.211751925832
 30
0.0
 11
2444.369142447501
 21
1357.711751925833
 31
0.0
  0
LINE
  5
23D3
330
1F
100
AcDbEntity
  8
0
 62
     7
100
AcDbLine
 10
2456.369142447501
 20
1342.211751925832
 30
0.0
 11
2456.369142447501
 21
1357.711751925833
 31
0.0
  0
LINE
  5
23D4
330
1F
100
AcDbEntity
  8
0
 62
     7
100
AcDbLine
 10
2511.369142447501
 20
1342.211751925832
 30
0.0
 11
2511.369142447501
 21
1357.711751925833
 31
0.0
  0
LINE
  5
23D5
330
1F
100
AcDbEntity
  8
0
 62
     7
100
AcDbLine
 10
2523.369142447501
 20
1342.211751925832
 30
0.0
 11
2523.369142447501
 21
1357.711751925833
 31
0.0
  0
LINE
  5
23D6
330
1F
100
AcDbEntity
  8
0
  6
Continuous
 62
     7
100
AcDbLine
 10
2397.429672271053
 20
1342.211751925832
 30
0.0
 11
2396.369142447501
 21
1382.711751925832
 31
0.0
  0
LINE
  5
23D7
330
1F
100
AcDbEntity
  8
0
  6
Continuous
 62
     7
100
AcDbLine
 10
2570.308612623949
 20
1342.211751925832
 30
0.0
 11
2571.369142447501
 21
1382.711751925832
 31
0.0
  0
LINE
  5
23D8
330
1F
100
AcDbEntity
  8
0
100
AcDbLine
 10
2511.369142447501
 20
1357.711751925833
 30
0.0
 11
2570.714494408271
 21
1357.711751925833
 31
0.0
  0
LINE
  5
23D9
330
1F
100
AcDbEntity
  8
0
  6
Continuous
 62
     7
100
AcDbLine
 10
2563.869142447501
 20
1382.711751925832
 30
0.0
 11
2571.369142447501
 21
1382.711751925832
 31
0.0
  0
LINE
  5
23DA
330
1F
100
AcDbEntity
  8
0
 62
     7
100
AcDbLine
 10
2563.869142447501
 20
1383.711751925833
 30
0.0
 11
2563.869142447501
 21
1382.711751925832
 31
0.0
  0
LINE
  5
23DB
330
1F
100
AcDbEntity
  8
0
100
AcDbLine
 10
2397.023790486731
 20
1357.711751925833
 30
0.0
 11
2456.369142447501
 21
1357.711751925833
 31
0.0
  0
LINE
  5
23DC
330
1F
100
AcDbEntity
  8
CENTER
  6
CENTER
100
AcDbLine
 10
2389.349578694222
 20
1366.711751925832
 30
0.0
 11
2420.722047621008
 21
1366.711751925832
 31
0.0
  0
LINE
  5
23E3
330
1F
100
AcDbEntity
  8
0
 62
     7
100
AcDbLine
 10
2403.869142447501
 20
1383.711751925833
 30
0.0
 11
2403.869142447501
 21
1382.711751925832
 31
0.0
  0
LINE
  5
23E4
330
1F
100
AcDbEntity
  8
0
  6
Continuous
 62
     7
100
AcDbLine
 10
2396.369142447501
 20
1382.711751925832
 30
0.0
 11
2403.869142447501
 21
1382.711751925832
 31
0.0
  0
LINE
  5
23E9
330
1F
100
AcDbEntity
  8
0
  6
Continuous
 62
     7
100
AcDbLine
 10
2397.429672271053
 20
1342.211751925832
 30
0.0
 11
2408.869142447502
 21
1342.211751925833
 31
0.0
  0
LINE
  5
23EA
330
1F
100
AcDbEntity
  8
0
  6
Continuous
 62
     7
100
AcDbLine
 10
2453.869142447501
 20
1334.211751925832
 30
0.0
 11
2453.869142447501
 21
1342.211751925832
 31
0.0
  0
LINE
  5
23EB
330
1F
100
AcDbEntity
  8
0
  6
Continuous
 62
     7
100
AcDbLine
 10
2513.869142447501
 20
1334.211751925832
 30
0.0
 11
2513.869142447501
 21
1342.211751925832
 31
0.0
  0
LINE
  5
23EC
330
1F
100
AcDbEntity
  8
0
  6
Continuous
 62
     7
100
AcDbLine
 10
2453.869142447501
 20
1334.211751925832
 30
0.0
 11
2513.869142447501
 21
1334.211751925832
 31
0.0
  0
LINE
  5
23ED
330
1F
100
AcDbEntity
  8
0
  6
Continuous
 62
     7
100
AcDbLine
 10
2288.040044116707
 20
1342.211751925832
 30
0.0
 11
2289.100573940259
 21
1382.711751925832
 31
0.0
  0
LINE
  5
23EE
330
1F
100
AcDbEntity
  8
0
  6
Continuous
 62
     7
100
AcDbLine
 10
2115.161103763811
 20
1342.211751925832
 30
0.0
 11
2114.100573940259
 21
1382.711751925832
 31
0.0
  0
LINE
  5
23EF
330
1F
100
AcDbEntity
  8
0
 62
     7
100
AcDbLine
 10
2174.100573940259
 20
1342.211751925832
 30
0.0
 11
2174.100573940259
 21
1357.711751925833
 31
0.0
  0
LINE
  5
23F0
330
1F
100
AcDbEntity
  8
0
 62
     7
100
AcDbLine
 10
2229.100573940259
 20
1342.211751925832
 30
0.0
 11
2229.100573940259
 21
1357.711751925833
 31
0.0
  0
LINE
  5
23F1
330
1F
100
AcDbEntity
  8
0
 62
     7
100
AcDbLine
 10
2162.100573940259
 20
1342.211751925832
 30
0.0
 11
2162.100573940259
 21
1357.711751925833
 31
0.0
  0
LINE
  5
23F2
330
1F
100
AcDbEntity
  8
0
 62
     7
100
AcDbLine
 10
2241.100573940259
 20
1342.211751925832
 30
0.0
 11
2241.100573940259
 21
1357.711751925833
 31
0.0
  0
LINE
  5
23F3
330
1F
100
AcDbEntity
  8
0
 62
     7
100
AcDbLine
 10
2150.100573940259
 20
1342.211751925832
 30
0.0
 11
2150.100573940259
 21
1357.711751925833
 31
0.0
  0
LINE
  5
23F5
330
1F
100
AcDbEntity
  8
0
 62
     7
100
AcDbLine
 10
2253.100573940259
 20
1342.211751925832
 30
0.0
 11
2253.100573940259
 21
1357.711751925833
 31
0.0
  0
LINE
  5
23F7
330
1F
100
AcDbEntity
  8
0
  6
Continuous
 62
     7
100
AcDbLine
 10
2114.100573940259
 20
1382.711751925832
 30
0.0
 11
2183.047308976378
 21
1382.711751925832
 31
0.0
  0
LINE
  5
23F8
330
1F
100
AcDbEntity
  8
0
  6
Continuous
 62
     7
100
AcDbLine
 10
2229.100573940259
 20
1357.711751925833
 30
0.0
 11
2288.445925901029
 21
1357.711751925833
 31
0.0
  0
LINE
  5
23F9
330
1F
100
AcDbEntity
  8
0
 62
     7
100
AcDbLine
 10
2281.600573940258
 20
1383.711751925833
 30
0.0
 11
2281.600573940258
 21
1382.711751925832
 31
0.0
  0
LINE
  5
23FA
330
1F
100
AcDbEntity
  8
CENTER
  6
CENTER
100
AcDbLine
 10
2219.600573940259
 20
1366.711751925832
 30
0.0
 11
2225.850573940259
 21
1366.711751925832
 31
0.0
  0
LINE
  5
23FF
330
1F
100
AcDbEntity
  8
CENTER
  6
CENTER
100
AcDbLine
 10
2213.600573940259
 20
1363.711751925833
 30
0.0
 11
2213.600573940259
 21
1369.711751925833
 31
0.0
  0
LINE
  5
2400
330
1F
100
AcDbEntity
  8
CENTER
  6
CENTER
100
AcDbLine
 10
2213.600573940259
 20
1363.711751925833
 30
0.0
 11
2213.600573940259
 21
1369.711751925833
 31
0.0
  0
LINE
  5
2401
330
1F
100
AcDbEntity
  8
CENTER
  6
CENTER
100
AcDbLine
 10
2213.600573940259
 20
1372.711751925832
 30
0.0
 11
2213.600573940259
 21
1378.961751925833
 31
0.0
  0
LINE
  5
2402
330
1F
100
AcDbEntity
  8
CENTER
  6
CENTER
100
AcDbLine
 10
2210.600573940259
 20
1366.711751925832
 30
0.0
 11
2216.600573940259
 21
1366.711751925832
 31
0.0
  0
LINE
  5
2403
330
1F
100
AcDbEntity
  8
CENTER
  6
CENTER
100
AcDbLine
 10
2207.600573940259
 20
1366.711751925832
 30
0.0
 11
2201.350573940259
 21
1366.711751925832
 31
0.0
  0
LINE
  5
2404
330
1F
100
AcDbEntity
  8
CENTER
  6
CENTER
100
AcDbLine
 10
2213.600573940259
 20
1360.711751925833
 30
0.0
 11
2213.600573940259
 21
1354.461751925833
 31
0.0
  0
LINE
  5
2405
330
1F
100
AcDbEntity
  8
CENTER
  6
CENTER
100
AcDbLine
 10
2210.600573940259
 20
1366.711751925832
 30
0.0
 11
2216.600573940259
 21
1366.711751925832
 31
0.0
  0
LINE
  5
2406
330
1F
100
AcDbEntity
  8
0
  6
Continuous
 62
     7
100
AcDbLine
 10
2114.100573940259
 20
1357.711751925833
 30
0.0
 11
2174.100573940259
 21
1357.711751925833
 31
0.0
  0
LINE
  5
240A
330
1F
100
AcDbEntity
  8
0
 62
     7
100
AcDbLine
 10
2121.600573940259
 20
1383.711751925833
 30
0.0
 11
2121.600573940259
 21
1382.711751925832
 31
0.0
  0
LINE
  5
240B
330
1F
100
AcDbEntity
  8
0
  6
Continuous
 62
     7
100
AcDbLine
 10
2115.161103763811
 20
1342.211751925832
 30
0.0
 11
2126.60057394026
 21
1342.211751925833
 31
0.0
  0
LINE
  5
240C
330
1F
100
AcDbEntity
  8
0
  6
Continuous
 62
     7
100
AcDbLine
 10
2171.600573940259
 20
1334.211751925832
 30
0.0
 11
2171.600573940259
 21
1342.211751925832
 31
0.0
  0
LINE
  5
240D
330
1F
100
AcDbEntity
  8
0
  6
Continuous
 62
     7
100
AcDbLine
 10
2231.600573940259
 20
1334.211751925832
 30
0.0
 11
2231.600573940259
 21
1342.211751925832
 31
0.0
  0
LINE
  5
240E
102
{ACAD_REACTORS
330
2C84
102
}
330
1F
100
AcDbEntity
  8
0
  6
Continuous
 62
     7
100
AcDbLine
 10
2171.600573940259
 20
1334.211751925832
 30
0.0
 11
2231.600573940259
 21
1334.211751925832
 31
0.0
  0
ARC
  5
243B
330
1F
100
AcDbEntity
  8
0
  6
Continuous
 62
     7
100
AcDbCircle
 10
2274.100573940258
 20
1713.353661570613
 30
0.0
 40
6.0
100
AcDbArc
 50
270.0
 51
0.0
  0
ARC
  5
243C
330
1F
100
AcDbEntity
  8
0
  6
Continuous
 62
     7
100
AcDbCircle
 10
2274.100573940258
 20
1764.353661570613
 30
0.0
 40
6.0
100
AcDbArc
 50
0.0
 51
90.0
  0
ARC
  5
243D
330
1F
100
AcDbEntity
  8
0
  6
Continuous
 62
     7
100
AcDbCircle
 10
2227.100573940258
 20
1811.353661570613
 30
0.0
 40
6.0
100
AcDbArc
 50
0.0
 51
90.0
  0
ARC
  5
243E
330
1F
100
AcDbEntity
  8
0
  6
Continuous
 62
     7
100
AcDbCircle
 10
2176.100573940258
 20
1811.353661570613
 30
0.0
 40
6.0
100
AcDbArc
 50
90.0
 51
180.0
  0
ARC
  5
243F
330
1F
100
AcDbEntity
  8
0
  6
Continuous
 62
     7
100
AcDbCircle
 10
2129.100573940258
 20
1764.353661570613
 30
0.0
 40
6.0
100
AcDbArc
 50
90.0
 51
180.0
  0
ARC
  5
2440
330
1F
100
AcDbEntity
  8
0
  6
Continuous
 62
     7
100
AcDbCircle
 10
2129.100573940258
 20
1713.353661570613
 30
0.0
 40
6.0
100
AcDbArc
 50
180.0
 51
270.0
  0
ARC
  5
2441
330
1F
100
AcDbEntity
  8
0
  6
Continuous
 62
     7
100
AcDbCircle
 10
2227.100573940258
 20
1666.353661570613
 30
0.0
 40
6.0
100
AcDbArc
 50
270.0
 51
0.0
  0
ARC
  5
2442
330
1F
100
AcDbEntity
  8
0
  6
Continuous
 62
     7
100
AcDbCircle
 10
2176.100573940258
 20
1666.353661570613
 30
0.0
 40
6.0
100
AcDbArc
 50
180.0
 51
270.0
  0
ARC
  5
2443
330
1F
100
AcDbEntity
  8
0
  6
Continuous
 62
     7
100
AcDbCircle
 10
2126.100573940258
 20
1711.353661570613
 30
0.0
 40
12.0
100
AcDbArc
 50
180.0
 51
270.0
  0
ARC
  5
2444
330
1F
100
AcDbEntity
  8
0
  6
Continuous
 62
     7
100
AcDbCircle
 10
2126.100573940258
 20
1766.353661570613
 30
0.0
 40
12.0
100
AcDbArc
 50
90.0
 51
180.0
  0
ARC
  5
2445
330
1F
100
AcDbEntity
  8
0
  6
Continuous
 62
     7
100
AcDbCircle
 10
2174.100573940258
 20
1814.353661570613
 30
0.0
 40
12.0
100
AcDbArc
 50
90.0
 51
180.0
  0
ARC
  5
2446
330
1F
100
AcDbEntity
  8
0
  6
Continuous
 62
     7
100
AcDbCircle
 10
2229.100573940258
 20
1814.353661570613
 30
0.0
 40
12.0
100
AcDbArc
 50
0.0
 51
90.0
  0
ARC
  5
2447
330
1F
100
AcDbEntity
  8
0
  6
Continuous
 62
     7
100
AcDbCircle
 10
2277.100573940258
 20
1766.353661570613
 30
0.0
 40
12.0
100
AcDbArc
 50
0.0
 51
90.0
  0
ARC
  5
2448
330
1F
100
AcDbEntity
  8
0
  6
Continuous
 62
     7
100
AcDbCircle
 10
2277.100573940258
 20
1711.353661570613
 30
0.0
 40
12.0
100
AcDbArc
 50
270.0
 51
0.0
  0
ARC
  5
2449
330
1F
100
AcDbEntity
  8
0
  6
Continuous
 62
     7
100
AcDbCircle
 10
2229.100573940258
 20
1663.353661570613
 30
0.0
 40
12.0
100
AcDbArc
 50
270.0
 51
0.0
  0
ARC
  5
244A
330
1F
100
AcDbEntity
  8
0
  6
Continuous
 62
     7
100
AcDbCircle
 10
2174.100573940258
 20
1663.353661570613
 30
0.0
 40
12.0
100
AcDbArc
 50
180.0
 51
270.0
  0
ARC
  5
244B
330
1F
100
AcDbEntity
  8
0
 62
     7
100
AcDbCircle
 10
2225.100573940258
 20
1697.675992040949
 30
0.0
 40
8.0
100
AcDbArc
 50
0.0
 51
44.99999999999536
  0
ARC
  5
244C
330
1F
100
AcDbEntity
  8
0
 62
     7
100
AcDbCircle
 10
2242.778243469922
 20
1715.353661570613
 30
0.0
 40
8.0
100
AcDbArc
 50
224.9999999999954
 51
270.0
  0
ARC
  5
244D
330
1F
100
AcDbEntity
  8
0
 62
     7
100
AcDbCircle
 10
2242.778243469922
 20
1762.353661570613
 30
0.0
 40
8.0
100
AcDbArc
 50
90.0
 51
135.0000000000046
  0
ARC
  5
244E
330
1F
100
AcDbEntity
  8
0
 62
     7
100
AcDbCircle
 10
2225.100573940258
 20
1780.031331100276
 30
0.0
 40
8.0
100
AcDbArc
 50
315.0000000000046
 51
0.0
  0
ARC
  5
244F
330
1F
100
AcDbEntity
  8
0
 62
     7
100
AcDbCircle
 10
2178.100573940258
 20
1780.031331100276
 30
0.0
 40
8.0
100
AcDbArc
 50
180.0
 51
224.9999999999954
  0
ARC
  5
2450
330
1F
100
AcDbEntity
  8
0
 62
     7
100
AcDbCircle
 10
2160.422904410595
 20
1762.353661570613
 30
0.0
 40
8.0
100
AcDbArc
 50
44.99999999999536
 51
90.0
  0
ARC
  5
2451
330
1F
100
AcDbEntity
  8
0
 62
     7
100
AcDbCircle
 10
2160.422904410595
 20
1715.353661570613
 30
0.0
 40
8.0
100
AcDbArc
 50
270.0
 51
315.0000000000046
  0
ARC
  5
2452
330
1F
100
AcDbEntity
  8
0
 62
     7
100
AcDbCircle
 10
2178.100573940258
 20
1697.675992040949
 30
0.0
 40
8.0
100
AcDbArc
 50
135.0000000000046
 51
180.0
  0
ARC
  5
2453
330
1F
100
AcDbEntity
  8
0
 62
     7
100
AcDbCircle
 10
2217.24402423473
 20
1699.875687496985
 30
0.0
 40
12.0
100
AcDbArc
 50
44.99999999999536
 51
111.8676036006946
  0
ARC
  5
2454
330
1F
100
AcDbEntity
  8
0
 62
     7
100
AcDbCircle
 10
2240.578548013887
 20
1723.210211276141
 30
0.0
 40
12.0
100
AcDbArc
 50
158.1323963992969
 51
224.9999999999954
  0
ARC
  5
2455
330
1F
100
AcDbEntity
  8
0
 62
     7
100
AcDbCircle
 10
2240.578548013887
 20
1754.497111865084
 30
0.0
 40
12.0
100
AcDbArc
 50
135.0000000000046
 51
201.8676036007031
  0
ARC
  5
2456
330
1F
100
AcDbEntity
  8
0
 62
     7
100
AcDbCircle
 10
2217.24402423473
 20
1777.831635644241
 30
0.0
 40
12.0
100
AcDbArc
 50
248.1323963993053
 51
315.0000000000046
  0
ARC
  5
2457
330
1F
100
AcDbEntity
  8
0
 62
     7
100
AcDbCircle
 10
2185.957123645787
 20
1777.831635644241
 30
0.0
 40
12.0
100
AcDbArc
 50
224.9999999999954
 51
291.8676036006946
  0
ARC
  5
2458
330
1F
100
AcDbEntity
  8
0
 62
     7
100
AcDbCircle
 10
2162.622599866631
 20
1754.497111865084
 30
0.0
 40
12.0
100
AcDbArc
 50
338.1323963992969
 51
44.99999999999536
  0
ARC
  5
2459
330
1F
100
AcDbEntity
  8
0
 62
     7
100
AcDbCircle
 10
2162.622599866631
 20
1723.210211276141
 30
0.0
 40
12.0
100
AcDbArc
 50
315.0000000000046
 51
21.86760360070311
  0
ARC
  5
245A
330
1F
100
AcDbEntity
  8
0
 62
     7
100
AcDbCircle
 10
2185.957123645787
 20
1699.875687496985
 30
0.0
 40
12.0
100
AcDbArc
 50
68.13239639930536
 51
135.0000000000046
  0
LINE
  5
245B
330
1F
100
AcDbEntity
  8
0
 62
     7
100
AcDbLine
 10
2177.471842271549
 20
1769.346354270002
 30
0.0
 11
2172.443719690766
 21
1774.374476850784
 31
0.0
  0
LINE
  5
245C
330
1F
100
AcDbEntity
  8
0
 62
     7
100
AcDbLine
 10
2171.10788124087
 20
1762.982393239323
 30
0.0
 11
2166.079758660087
 21
1768.010515820105
 31
0.0
  0
LINE
  5
245D
330
1F
100
AcDbEntity
  8
0
 62
     7
100
AcDbLine
 10
2177.471842271549
 20
1708.360968871224
 30
0.0
 11
2172.443719690766
 21
1703.332846290441
 31
0.0
  0
LINE
  5
245E
330
1F
100
AcDbEntity
  8
0
 62
     7
100
AcDbLine
 10
2171.10788124087
 20
1714.724929901903
 30
0.0
 11
2166.079758660087
 21
1709.696807321121
 31
0.0
  0
LINE
  5
245F
330
1F
100
AcDbEntity
  8
0
 62
     7
100
AcDbLine
 10
2237.121389220431
 20
1709.696807321121
 30
0.0
 11
2232.093266639648
 21
1714.724929901903
 31
0.0
  0
LINE
  5
2460
330
1F
100
AcDbEntity
  8
0
 62
     7
100
AcDbLine
 10
2230.757428189752
 20
1703.332846290442
 30
0.0
 11
2225.729305608969
 21
1708.360968871224
 31
0.0
  0
LINE
  5
2461
330
1F
100
AcDbEntity
  8
0
 62
     7
100
AcDbLine
 10
2237.121389220431
 20
1768.010515820105
 30
0.0
 11
2232.093266639648
 21
1762.982393239323
 31
0.0
  0
LINE
  5
2462
330
1F
100
AcDbEntity
  8
0
 62
     7
100
AcDbLine
 10
2230.757428189752
 20
1774.374476850784
 30
0.0
 11
2225.729305608969
 21
1769.346354270002
 31
0.0
  0
LINE
  5
2463
330
1F
100
AcDbEntity
  8
0
  6
Continuous
 62
     7
100
AcDbLine
 10
2233.100573940259
 20
1780.031331100276
 30
0.0
 11
2233.100573940259
 21
1811.353661570613
 31
0.0
  0
LINE
  5
2464
330
1F
100
AcDbEntity
  8
0
  6
Continuous
 62
     7
100
AcDbLine
 10
2170.100573940259
 20
1780.031331100277
 30
0.0
 11
2170.100573940259
 21
1811.353661570613
 31
0.0
  0
LINE
  5
2465
330
1F
100
AcDbEntity
  8
0
  6
Continuous
 62
     7
100
AcDbLine
 10
2160.422904410595
 20
1770.353661570613
 30
0.0
 11
2129.100573940259
 21
1770.353661570613
 31
0.0
  0
LINE
  5
2466
330
1F
100
AcDbEntity
  8
0
  6
Continuous
 62
     7
100
AcDbLine
 10
2160.422904410595
 20
1707.353661570613
 30
0.0
 11
2129.100573940259
 21
1707.353661570613
 31
0.0
  0
ARC
  5
2467
330
1F
100
AcDbEntity
  8
0
  6
Continuous
 62
     7
100
AcDbCircle
 10
2253.100573940258
 20
1687.353661570613
 30
0.0
 40
12.0
100
AcDbArc
 50
90.0
 51
180.0
  0
ARC
  5
2468
330
1F
100
AcDbEntity
  8
0
  6
Continuous
 62
     7
100
AcDbCircle
 10
2253.100573940258
 20
1790.353661570613
 30
0.0
 40
12.0
100
AcDbArc
 50
180.0
 51
270.0
  0
ARC
  5
2469
330
1F
100
AcDbEntity
  8
0
  6
Continuous
 62
     7
100
AcDbCircle
 10
2150.100573940258
 20
1790.353661570613
 30
0.0
 40
12.0
100
AcDbArc
 50
270.0
 51
0.0
  0
ARC
  5
246A
330
1F
100
AcDbEntity
  8
0
  6
Continuous
 62
     7
100
AcDbCircle
 10
2150.100573940258
 20
1687.353661570613
 30
0.0
 40
12.0
100
AcDbArc
 50
0.0
 51
90.0
  0
LINE
  5
246B
330
1F
100
AcDbEntity
  8
0
  6
Continuous
 62
     7
100
AcDbLine
 10
2150.100573940259
 20
1699.353661570613
 30
0.0
 11
2126.100573940259
 21
1699.353661570613
 31
0.0
  0
LINE
  5
246C
330
1F
100
AcDbEntity
  8
0
  6
Continuous
 62
     7
100
AcDbLine
 10
2150.100573940259
 20
1778.353661570613
 30
0.0
 11
2126.100573940259
 21
1778.353661570613
 31
0.0
  0
LINE
  5
246D
330
1F
100
AcDbEntity
  8
0
  6
Continuous
 62
     7
100
AcDbLine
 10
2241.100573940259
 20
1790.353661570613
 30
0.0
 11
2241.100573940259
 21
1814.353661570613
 31
0.0
  0
LINE
  5
246E
330
1F
100
AcDbEntity
  8
0
  6
Continuous
 62
     7
100
AcDbLine
 10
2162.100573940259
 20
1790.353661570613
 30
0.0
 11
2162.100573940259
 21
1814.353661570613
 31
0.0
  0
LINE
  5
246F
330
1F
100
AcDbEntity
  8
0
  6
Continuous
 62
     7
100
AcDbLine
 10
2274.100573940259
 20
1770.353661570613
 30
0.0
 11
2242.778243469923
 21
1770.353661570613
 31
0.0
  0
LINE
  5
2470
330
1F
100
AcDbEntity
  8
0
  6
Continuous
 62
     7
100
AcDbLine
 10
2274.100573940259
 20
1707.353661570613
 30
0.0
 11
2242.778243469923
 21
1707.353661570613
 31
0.0
  0
LINE
  5
2471
330
1F
100
AcDbEntity
  8
0
  6
Continuous
 62
     7
100
AcDbLine
 10
2233.100573940259
 20
1666.353661570613
 30
0.0
 11
2233.100573940259
 21
1697.67599204095
 31
0.0
  0
LINE
  5
2472
330
1F
100
AcDbEntity
  8
0
  6
Continuous
 62
     7
100
AcDbLine
 10
2170.100573940259
 20
1666.353661570613
 30
0.0
 11
2170.100573940259
 21
1697.675992040949
 31
0.0
  0
LINE
  5
2473
330
1F
100
AcDbEntity
  8
0
  6
Continuous
 62
     7
100
AcDbLine
 10
2280.100573940259
 20
1713.353661570613
 30
0.0
 11
2280.100573940259
 21
1764.353661570613
 31
0.0
  0
LINE
  5
2474
330
1F
100
AcDbEntity
  8
0
  6
Continuous
 62
     7
100
AcDbLine
 10
2227.100573940259
 20
1817.353661570613
 30
0.0
 11
2176.100573940259
 21
1817.353661570613
 31
0.0
  0
LINE
  5
2475
330
1F
100
AcDbEntity
  8
0
  6
Continuous
 62
     7
100
AcDbLine
 10
2123.100573940259
 20
1713.353661570613
 30
0.0
 11
2123.100573940259
 21
1764.353661570613
 31
0.0
  0
LINE
  5
2476
330
1F
100
AcDbEntity
  8
0
  6
Continuous
 62
     7
100
AcDbLine
 10
2227.100573940259
 20
1660.353661570612
 30
0.0
 11
2176.100573940259
 21
1660.353661570613
 31
0.0
  0
LINE
  5
2477
330
1F
100
AcDbEntity
  8
0
  6
Continuous
 62
     7
100
AcDbLine
 10
2277.100573940259
 20
1778.353661570613
 30
0.0
 11
2253.100573940259
 21
1778.353661570613
 31
0.0
  0
LINE
  5
2478
330
1F
100
AcDbEntity
  8
0
  6
Continuous
 62
     7
100
AcDbLine
 10
2277.100573940259
 20
1699.353661570613
 30
0.0
 11
2253.100573940259
 21
1699.353661570613
 31
0.0
  0
LINE
  5
2479
330
1F
100
AcDbEntity
  8
0
  6
Continuous
 62
     7
100
AcDbLine
 10
2241.100573940259
 20
1663.353661570613
 30
0.0
 11
2241.100573940259
 21
1687.353661570613
 31
0.0
  0
LINE
  5
247A
330
1F
100
AcDbEntity
  8
0
  6
Continuous
 62
     7
100
AcDbLine
 10
2162.100573940259
 20
1663.353661570613
 30
0.0
 11
2162.100573940259
 21
1687.353661570613
 31
0.0
  0
ARC
  5
247B
330
1F
100
AcDbEntity
  8
0
 62
     7
100
AcDbCircle
 10
2201.600573940259
 20
1738.853661570613
 30
0.0
 40
30.00000000000003
100
AcDbArc
 50
158.1323963992969
 51
156.8448790328043
  0
LINE
  5
247C
330
1F
100
AcDbEntity
  8
CENTER
  6
CENTER
100
AcDbLine
 10
2262.600573940259
 20
1805.853661570613
 30
0.0
 11
2256.600573940259
 21
1805.853661570613
 31
0.0
  0
LINE
  5
247D
330
1F
100
AcDbEntity
  8
CENTER
  6
CENTER
100
AcDbLine
 10
2262.600573940259
 20
1671.853661570613
 30
0.0
 11
2256.600573940259
 21
1671.853661570613
 31
0.0
  0
LINE
  5
247E
102
{ACAD_REACTORS
330
2B72
102
}
330
1F
100
AcDbEntity
  8
CENTER
  6
CENTER
100
AcDbLine
 10
2295.32185005007
 20
1738.853661570613
 30
0.0
 11
2107.879297830448
 21
1738.853661570613
 31
0.0
  0
LINE
  5
247F
330
1F
100
AcDbEntity
  8
CENTER
  6
CENTER
100
AcDbLine
 10
2201.600573940259
 20
1642.531721177687
 30
0.0
 11
2201.600573940259
 21
1832.574937680423
 31
0.0
  0
LINE
  5
2480
330
1F
100
AcDbEntity
  8
0
  6
Continuous
 62
     7
100
AcDbLine
 10
2114.100573940258
 20
1663.353661570613
 30
0.0
 11
2114.100573940259
 21
1814.353661570613
 31
0.0
  0
LINE
  5
2481
330
1F
100
AcDbEntity
  8
0
  6
Continuous
 62
     7
100
AcDbLine
 10
2289.100573940259
 20
1663.353661570613
 30
0.0
 11
2289.100573940259
 21
1814.353661570613
 31
0.0
  0
LINE
  5
2482
330
1F
100
AcDbEntity
  8
0
  6
Continuous
 62
     7
100
AcDbLine
 10
2277.100573940259
 20
1651.353661570613
 30
0.0
 11
2126.100573940259
 21
1651.353661570613
 31
0.0
  0
LINE
  5
2483
102
{ACAD_REACTORS
330
2D3C
102
}
330
1F
100
AcDbEntity
  8
0
  6
Continuous
 62
     7
100
AcDbLine
 10
2277.100573940259
 20
1826.353661570613
 30
0.0
 11
2126.100573940259
 21
1826.353661570612
 31
0.0
  0
ARC
  5
2484
102
{ACAD_REACTORS
330
2D3C
102
}
330
1F
100
AcDbEntity
  8
0
  6
Continuous
 62
     7
100
AcDbCircle
 10
2126.100573940258
 20
1663.353661570613
 30
0.0
 40
12.0
100
AcDbArc
 50
180.0
 51
270.0
  0
ARC
  5
2485
330
1F
100
AcDbEntity
  8
0
  6
Continuous
 62
     7
100
AcDbCircle
 10
2277.100573940258
 20
1663.353661570613
 30
0.0
 40
12.0
100
AcDbArc
 50
270.0
 51
0.0
  0
ARC
  5
2486
330
1F
100
AcDbEntity
  8
0
  6
Continuous
 62
     7
100
AcDbCircle
 10
2277.100573940258
 20
1814.353661570613
 30
0.0
 40
12.0
100
AcDbArc
 50
0.0
 51
90.0
  0
ARC
  5
2487
330
1F
100
AcDbEntity
  8
0
  6
Continuous
 62
     7
100
AcDbCircle
 10
2126.100573940258
 20
1814.353661570613
 30
0.0
 40
12.0
100
AcDbArc
 50
90.0
 51
180.0
  0
LINE
  5
2488
330
1F
100
AcDbEntity
  8
CENTER
  6
CENTER
100
AcDbLine
 10
2271.600573940259
 20
1671.853661570613
 30
0.0
 11
2265.600573940259
 21
1671.853661570613
 31
0.0
  0
LINE
  5
2489
330
1F
100
AcDbEntity
  8
CENTER
  6
CENTER
100
AcDbLine
 10
2268.600573940259
 20
1674.853661570613
 30
0.0
 11
2268.600573940259
 21
1668.853661570613
 31
0.0
  0
LINE
  5
248A
330
1F
100
AcDbEntity
  8
CENTER
  6
CENTER
100
AcDbLine
 10
2274.600573940259
 20
1671.853661570613
 30
0.0
 11
2280.600573940259
 21
1671.853661570613
 31
0.0
  0
LINE
  5
248B
330
1F
100
AcDbEntity
  8
CENTER
  6
CENTER
100
AcDbLine
 10
2268.600573940259
 20
1677.853661570613
 30
0.0
 11
2268.600573940259
 21
1683.853661570613
 31
0.0
  0
LINE
  5
248C
330
1F
100
AcDbEntity
  8
CENTER
  6
CENTER
100
AcDbLine
 10
2268.600573940259
 20
1665.853661570613
 30
0.0
 11
2268.600573940259
 21
1659.853661570613
 31
0.0
  0
LINE
  5
248D
330
1F
100
AcDbEntity
  8
CENTER
  6
CENTER
100
AcDbLine
 10
2271.600573940259
 20
1805.853661570613
 30
0.0
 11
2265.600573940259
 21
1805.853661570613
 31
0.0
  0
LINE
  5
248E
330
1F
100
AcDbEntity
  8
CENTER
  6
CENTER
100
AcDbLine
 10
2268.600573940259
 20
1808.853661570613
 30
0.0
 11
2268.600573940259
 21
1802.853661570613
 31
0.0
  0
LINE
  5
248F
330
1F
100
AcDbEntity
  8
CENTER
  6
CENTER
100
AcDbLine
 10
2274.600573940259
 20
1805.853661570613
 30
0.0
 11
2280.600573940259
 21
1805.853661570613
 31
0.0
  0
LINE
  5
2490
330
1F
100
AcDbEntity
  8
CENTER
  6
CENTER
100
AcDbLine
 10
2268.600573940259
 20
1811.853661570613
 30
0.0
 11
2268.600573940259
 21
1817.853661570613
 31
0.0
  0
LINE
  5
2491
330
1F
100
AcDbEntity
  8
CENTER
  6
CENTER
100
AcDbLine
 10
2268.600573940259
 20
1799.853661570613
 30
0.0
 11
2268.600573940259
 21
1793.853661570613
 31
0.0
  0
LINE
  5
2492
330
1F
100
AcDbEntity
  8
CENTER
  6
CENTER
100
AcDbLine
 10
2137.600573940259
 20
1805.853661570613
 30
0.0
 11
2131.600573940259
 21
1805.853661570613
 31
0.0
  0
LINE
  5
2493
330
1F
100
AcDbEntity
  8
CENTER
  6
CENTER
100
AcDbLine
 10
2134.600573940259
 20
1808.853661570613
 30
0.0
 11
2134.600573940259
 21
1802.853661570613
 31
0.0
  0
LINE
  5
2494
330
1F
100
AcDbEntity
  8
CENTER
  6
CENTER
100
AcDbLine
 10
2140.600573940259
 20
1805.853661570613
 30
0.0
 11
2146.600573940259
 21
1805.853661570613
 31
0.0
  0
LINE
  5
2495
330
1F
100
AcDbEntity
  8
CENTER
  6
CENTER
100
AcDbLine
 10
2128.600573940259
 20
1805.853661570613
 30
0.0
 11
2122.600573940259
 21
1805.853661570613
 31
0.0
  0
LINE
  5
2496
330
1F
100
AcDbEntity
  8
CENTER
  6
CENTER
100
AcDbLine
 10
2134.600573940259
 20
1811.853661570613
 30
0.0
 11
2134.600573940259
 21
1817.853661570613
 31
0.0
  0
LINE
  5
2497
330
1F
100
AcDbEntity
  8
CENTER
  6
CENTER
100
AcDbLine
 10
2134.600573940259
 20
1799.853661570613
 30
0.0
 11
2134.600573940259
 21
1793.853661570613
 31
0.0
  0
LINE
  5
2498
330
1F
100
AcDbEntity
  8
CENTER
  6
CENTER
100
AcDbLine
 10
2137.600573940259
 20
1671.853661570613
 30
0.0
 11
2131.600573940259
 21
1671.853661570613
 31
0.0
  0
LINE
  5
2499
330
1F
100
AcDbEntity
  8
CENTER
  6
CENTER
100
AcDbLine
 10
2134.600573940259
 20
1674.853661570613
 30
0.0
 11
2134.600573940259
 21
1668.853661570613
 31
0.0
  0
LINE
  5
249A
330
1F
100
AcDbEntity
  8
CENTER
  6
CENTER
100
AcDbLine
 10
2140.600573940259
 20
1671.853661570613
 30
0.0
 11
2146.600573940259
 21
1671.853661570613
 31
0.0
  0
LINE
  5
249B
330
1F
100
AcDbEntity
  8
CENTER
  6
CENTER
100
AcDbLine
 10
2128.600573940259
 20
1671.853661570613
 30
0.0
 11
2122.600573940259
 21
1671.853661570613
 31
0.0
  0
LINE
  5
249C
330
1F
100
AcDbEntity
  8
CENTER
  6
CENTER
100
AcDbLine
 10
2134.600573940259
 20
1677.853661570613
 30
0.0
 11
2134.600573940259
 21
1683.853661570613
 31
0.0
  0
LINE
  5
249D
330
1F
100
AcDbEntity
  8
CENTER
  6
CENTER
100
AcDbLine
 10
2134.600573940259
 20
1665.853661570613
 30
0.0
 11
2134.600573940259
 21
1659.853661570613
 31
0.0
  0
LINE
  5
249E
330
1F
100
AcDbEntity
  8
0
100
AcDbLine
 10
2177.550815606571
 20
1660.353661570613
 30
0.0
 11
2177.550815606571
 21
1708.439213940561
 31
0.0
  0
LINE
  5
249F
330
1F
100
AcDbEntity
  8
0
100
AcDbLine
 10
2205.600573940259
 20
1660.353661570613
 30
0.0
 11
2205.600573940259
 21
1709.121524075976
 31
0.0
  0
LINE
  5
24A0
330
1F
100
AcDbEntity
  8
0
100
AcDbLine
 10
2210.630939811093
 20
1660.353661570613
 30
0.0
 11
2210.630939811093
 21
1710.245052862064
 31
0.0
  0
LINE
  5
24A1
330
1F
100
AcDbEntity
  8
0
100
AcDbLine
 10
2223.287935296508
 20
1660.353661570612
 30
0.0
 11
2223.287935296508
 21
1710.242516282941
 31
0.0
  0
LINE
  5
24A2
330
1F
100
AcDbEntity
  8
0
100
AcDbLine
 10
2179.913212584009
 20
1817.353661570613
 30
0.0
 11
2179.913212584009
 21
1767.464806858285
 31
0.0
  0
LINE
  5
24A3
330
1F
100
AcDbEntity
  8
0
100
AcDbLine
 10
2192.570208069424
 20
1817.353661570613
 30
0.0
 11
2192.570208069424
 21
1767.462270279162
 31
0.0
  0
LINE
  5
24A4
330
1F
100
AcDbEntity
  8
0
100
AcDbLine
 10
2197.600573940259
 20
1817.353661570613
 30
0.0
 11
2197.600573940259
 21
1768.58579906525
 31
0.0
  0
LINE
  5
24A5
330
1F
100
AcDbEntity
  8
0
100
AcDbLine
 10
2225.650332273946
 20
1817.353661570612
 30
0.0
 11
2225.650332273946
 21
1769.268109200665
 31
0.0
  0
LWPOLYLINE
  5
24A8
330
1F
100
AcDbEntity
  8
0
100
AcDbPolyline
 90
        6
 70
     1
 43
0.0
 10
2256.600573940259
 20
1664.925458340338
 10
2268.600573940259
 20
1657.997255110062
 10
2280.600573940259
 20
1664.925458340338
 10
2280.600573940259
 20
1678.781864800888
 10
2268.600573940259
 20
1685.710068031164
 10
2256.600573940259
 20
1678.781864800888
  0
CIRCLE
  5
24A9
330
1F
100
AcDbEntity
  8
0
100
AcDbCircle
 10
2268.600573940259
 20
1671.853661570613
 30
0.0
 40
12.0
  0
CIRCLE
  5
24AA
330
1F
100
AcDbEntity
  8
0
100
AcDbCircle
 10
2268.600573940259
 20
1671.853661570613
 30
0.0
 40
8.0
  0
CIRCLE
  5
24AB
330
1F
100
AcDbEntity
  8
0
100
AcDbCircle
 10
2268.600573940259
 20
1671.853661570613
 30
0.0
 40
7.0
  0
CIRCLE
  5
24AC
330
1F
100
AcDbEntity
  8
0
100
AcDbCircle
 10
2134.600573940258
 20
1671.853661570613
 30
0.0
 40
8.0
  0
CIRCLE
  5
24AD
330
1F
100
AcDbEntity
  8
0
100
AcDbCircle
 10
2134.600573940258
 20
1671.853661570613
 30
0.0
 40
12.0
  0
LWPOLYLINE
  5
24AE
330
1F
100
AcDbEntity
  8
0
100
AcDbPolyline
 90
        6
 70
     1
 43
0.0
 10
2122.600573940259
 20
1664.925458340338
 10
2134.600573940259
 20
1657.997255110062
 10
2146.600573940259
 20
1664.925458340338
 10
2146.600573940259
 20
1678.781864800888
 10
2134.600573940259
 20
1685.710068031164
 10
2122.600573940259
 20
1678.781864800888
  0
CIRCLE
  5
24AF
330
1F
100
AcDbEntity
  8
0
100
AcDbCircle
 10
2134.600573940258
 20
1671.853661570613
 30
0.0
 40
7.0
  0
LWPOLYLINE
  5
24B0
330
1F
100
AcDbEntity
  8
0
100
AcDbPolyline
 90
        6
 70
     1
 43
0.0
 10
2122.600573940259
 20
1798.925458340338
 10
2134.600573940259
 20
1791.997255110062
 10
2146.600573940259
 20
1798.925458340338
 10
2146.600573940259
 20
1812.781864800889
 10
2134.600573940259
 20
1819.710068031164
 10
2122.600573940259
 20
1812.781864800889
  0
CIRCLE
  5
24B1
330
1F
100
AcDbEntity
  8
0
100
AcDbCircle
 10
2134.600573940258
 20
1805.853661570613
 30
0.0
 40
12.0
  0
CIRCLE
  5
24B2
330
1F
100
AcDbEntity
  8
0
100
AcDbCircle
 10
2134.600573940258
 20
1805.853661570613
 30
0.0
 40
7.0
  0
CIRCLE
  5
24B3
330
1F
100
AcDbEntity
  8
0
100
AcDbCircle
 10
2134.600573940258
 20
1805.853661570613
 30
0.0
 40
8.0
  0
CIRCLE
  5
24B4
330
1F
100
AcDbEntity
  8
0
100
AcDbCircle
 10
2268.600573940259
 20
1805.853661570613
 30
0.0
 40
8.0
  0
CIRCLE
  5
24B5
330
1F
100
AcDbEntity
  8
0
100
AcDbCircle
 10
2268.600573940259
 20
1805.853661570613
 30
0.0
 40
12.0
  0
LWPOLYLINE
  5
24B6
330
1F
100
AcDbEntity
  8
0
100
AcDbPolyline
 90
        6
 70
     1
 43
0.0
 10
2256.600573940259
 20
1798.925458340338
 10
2268.600573940259
 20
1791.997255110062
 10
2280.600573940259
 20
1798.925458340338
 10
2280.600573940259
 20
1812.781864800889
 10
2268.600573940259
 20
1819.710068031164
 10
2256.600573940259
 20
1812.781864800889
  0
CIRCLE
  5
24B7
330
1F
100
AcDbEntity
  8
0
100
AcDbCircle
 10
2268.600573940259
 20
1805.853661570613
 30
0.0
 40
7.0
  0
LINE
  5
24B8
330
1F
100
AcDbEntity
  8
0
100
AcDbLine
 10
2403.01273598695
 20
1493.711751925832
 30
0.0
 11
2403.01273598695
 21
1486.711751925832
 31
0.0
  0
LINE
  5
24B9
330
1F
100
AcDbEntity
  8
0
100
AcDbLine
 10
2409.940939217225
 20
1493.711751925832
 30
0.0
 11
2409.940939217225
 21
1486.711751925832
 31
0.0
  0
LINE
  5
24BA
330
1F
100
AcDbEntity
  8
0
100
AcDbLine
 10
2423.797345677777
 20
1493.711751925826
 30
0.0
 11
2423.797345677777
 21
1486.711751925838
 31
0.0
  0
LINE
  5
24BB
330
1F
100
AcDbEntity
  8
0
100
AcDbLine
 10
2430.725548908052
 20
1493.711751925832
 30
0.0
 11
2430.725548908052
 21
1486.711751925832
 31
0.0
  0
LINE
  5
24BC
330
1F
100
AcDbEntity
  8
0
100
AcDbLine
 10
2408.208888409657
 20
1496.711751925832
 30
0.0
 11
2425.529396485345
 21
1496.711751925832
 31
0.0
  0
LINE
  5
24BD
330
1F
100
AcDbEntity
  8
0
  6
Continuous
 62
     7
100
AcDbLine
 10
2409.869142447501
 20
1525.211751925832
 30
0.0
 11
2423.869142447501
 21
1525.211751925832
 31
0.0
  0
LINE
  5
24BE
330
1F
100
AcDbEntity
  8
0
100
AcDbLine
 10
2408.869142447501
 20
1524.211751925832
 30
0.0
 11
2408.869142447501
 21
1496.711751925832
 31
0.0
  0
LINE
  5
24BF
330
1F
100
AcDbEntity
  8
0
100
AcDbLine
 10
2424.869142447501
 20
1524.211751925832
 30
0.0
 11
2424.869142447501
 21
1496.711751925832
 31
0.0
  0
LINE
  5
24C0
330
1F
100
AcDbEntity
  8
0
 62
     3
100
AcDbLine
 10
2409.619142447501
 20
1524.961751925832
 30
0.0
 11
2409.619142447501
 21
1496.711751925832
 31
0.0
  0
LINE
  5
24C1
330
1F
100
AcDbEntity
  8
0
 62
     3
100
AcDbLine
 10
2424.119142447501
 20
1524.961751925832
 30
0.0
 11
2424.119142447501
 21
1496.711751925832
 31
0.0
  0
LINE
  5
24C2
330
1F
100
AcDbEntity
  8
0
100
AcDbLine
 10
2408.869142447501
 20
1524.211751925832
 30
0.0
 11
2409.869142447501
 21
1525.211751925832
 31
0.0
  0
LINE
  5
24C3
330
1F
100
AcDbEntity
  8
0
100
AcDbLine
 10
2423.869142447501
 20
1525.211751925832
 30
0.0
 11
2424.869142447501
 21
1524.211751925832
 31
0.0
  0
LINE
  5
24C4
330
1F
100
AcDbEntity
  8
0
 62
     3
100
AcDbLine
 10
2408.869142447501
 20
1524.211751925832
 30
0.0
 11
2424.869142447501
 21
1524.211751925832
 31
0.0
  0
ARC
  5
24C5
330
1F
100
AcDbEntity
  8
0
100
AcDbCircle
 10
2416.869142447498
 20
1487.211751925855
 30
0.0
 40
9.499999999982502
100
AcDbArc
 50
43.17355110714921
 51
136.8264488928374
  0
LINE
  5
24C6
330
1F
100
AcDbEntity
  8
0
100
AcDbLine
 10
2403.01273598695
 20
1493.711751925832
 30
0.0
 11
2408.208888409657
 21
1496.711751925832
 31
0.0
  0
LINE
  5
24C7
330
1F
100
AcDbEntity
  8
0
100
AcDbLine
 10
2409.940939217225
 20
1493.711751925832
 30
0.0
 11
2408.208888409657
 21
1496.711751925832
 31
0.0
  0
LINE
  5
24C8
330
1F
100
AcDbEntity
  8
0
100
AcDbLine
 10
2423.797345677777
 20
1493.711751925832
 30
0.0
 11
2425.529396485345
 21
1496.711751925832
 31
0.0
  0
LINE
  5
24C9
330
1F
100
AcDbEntity
  8
0
100
AcDbLine
 10
2430.725548908052
 20
1493.711751925832
 30
0.0
 11
2425.529396485345
 21
1496.711751925832
 31
0.0
  0
ARC
  5
24CA
330
1F
100
AcDbEntity
  8
0
100
AcDbCircle
 10
2416.869142447498
 20
1493.21175192581
 30
0.0
 40
9.499999999982502
100
AcDbArc
 50
223.1735511071625
 51
316.8264488928508
  0
LINE
  5
24CB
330
1F
100
AcDbEntity
  8
0
100
AcDbLine
 10
2409.940939217225
 20
1486.711751925832
 30
0.0
 11
2408.208888409657
 21
1483.711751925832
 31
0.0
  0
LINE
  5
24CC
330
1F
100
AcDbEntity
  8
0
100
AcDbLine
 10
2403.01273598695
 20
1486.711751925832
 30
0.0
 11
2408.208888409657
 21
1483.711751925832
 31
0.0
  0
LINE
  5
24CD
330
1F
100
AcDbEntity
  8
0
100
AcDbLine
 10
2430.725548908052
 20
1486.711751925832
 30
0.0
 11
2425.529396485345
 21
1483.711751925832
 31
0.0
  0
LINE
  5
24CE
330
1F
100
AcDbEntity
  8
0
100
AcDbLine
 10
2423.797345677777
 20
1486.711751925832
 30
0.0
 11
2425.529396485345
 21
1483.711751925832
 31
0.0
  0
ARC
  5
24CF
330
1F
100
AcDbEntity
  8
0
100
AcDbCircle
 10
2550.869142447503
 20
1493.21175192581
 30
0.0
 40
9.499999999982502
100
AcDbArc
 50
223.1735511071492
 51
316.8264488928374
  0
LINE
  5
24D0
330
1F
100
AcDbEntity
  8
0
100
AcDbLine
 10
2557.797345677776
 20
1493.711751925832
 30
0.0
 11
2557.797345677776
 21
1486.711751925832
 31
0.0
  0
LINE
  5
24D1
330
1F
100
AcDbEntity
  8
0
100
AcDbLine
 10
2564.725548908052
 20
1493.711751925832
 30
0.0
 11
2564.725548908052
 21
1486.711751925832
 31
0.0
  0
LINE
  5
24D2
330
1F
100
AcDbEntity
  8
0
100
AcDbLine
 10
2564.725548908052
 20
1486.711751925832
 30
0.0
 11
2559.529396485345
 21
1483.711751925832
 31
0.0
  0
LINE
  5
24D3
330
1F
100
AcDbEntity
  8
0
100
AcDbLine
 10
2564.725548908052
 20
1493.711751925832
 30
0.0
 11
2559.529396485345
 21
1496.711751925832
 31
0.0
  0
LINE
  5
24D4
330
1F
100
AcDbEntity
  8
0
100
AcDbLine
 10
2559.529396485345
 20
1496.711751925832
 30
0.0
 11
2542.208888409657
 21
1496.711751925832
 31
0.0
  0
ARC
  5
24D5
330
1F
100
AcDbEntity
  8
0
100
AcDbCircle
 10
2550.869142447503
 20
1487.211751925855
 30
0.0
 40
9.499999999982502
100
AcDbArc
 50
43.17355110716256
 51
136.8264488928508
  0
LINE
  5
24D6
330
1F
100
AcDbEntity
  8
0
 62
     3
100
AcDbLine
 10
2558.869142447501
 20
1524.211751925832
 30
0.0
 11
2542.869142447501
 21
1524.211751925832
 31
0.0
  0
LINE
  5
24D7
330
1F
100
AcDbEntity
  8
0
  6
Continuous
 62
     7
100
AcDbLine
 10
2557.869142447501
 20
1525.211751925832
 30
0.0
 11
2543.869142447501
 21
1525.211751925832
 31
0.0
  0
LINE
  5
24D8
330
1F
100
AcDbEntity
  8
0
 62
     3
100
AcDbLine
 10
2543.619142447501
 20
1524.961751925832
 30
0.0
 11
2543.619142447501
 21
1496.711751925832
 31
0.0
  0
LINE
  5
24D9
330
1F
100
AcDbEntity
  8
0
100
AcDbLine
 10
2542.869142447501
 20
1524.211751925832
 30
0.0
 11
2542.869142447501
 21
1496.711751925832
 31
0.0
  0
LINE
  5
24DA
330
1F
100
AcDbEntity
  8
0
100
AcDbLine
 10
2537.01273598695
 20
1493.711751925832
 30
0.0
 11
2542.208888409657
 21
1496.711751925832
 31
0.0
  0
LINE
  5
24DB
330
1F
100
AcDbEntity
  8
0
100
AcDbLine
 10
2543.940939217226
 20
1493.711751925832
 30
0.0
 11
2542.208888409657
 21
1496.711751925832
 31
0.0
  0
LINE
  5
24DC
330
1F
100
AcDbEntity
  8
0
100
AcDbLine
 10
2543.869142447501
 20
1525.211751925832
 30
0.0
 11
2542.869142447501
 21
1524.211751925832
 31
0.0
  0
LINE
  5
24DD
330
1F
100
AcDbEntity
  8
0
 62
     3
100
AcDbLine
 10
2558.119142447501
 20
1524.961751925832
 30
0.0
 11
2558.119142447501
 21
1496.711751925832
 31
0.0
  0
LINE
  5
24DE
330
1F
100
AcDbEntity
  8
0
100
AcDbLine
 10
2558.869142447501
 20
1524.211751925832
 30
0.0
 11
2558.869142447501
 21
1496.711751925832
 31
0.0
  0
LINE
  5
24DF
330
1F
100
AcDbEntity
  8
0
100
AcDbLine
 10
2557.797345677776
 20
1493.711751925832
 30
0.0
 11
2559.529396485345
 21
1496.711751925832
 31
0.0
  0
LINE
  5
24E0
330
1F
100
AcDbEntity
  8
0
100
AcDbLine
 10
2558.869142447501
 20
1524.211751925832
 30
0.0
 11
2557.869142447501
 21
1525.211751925832
 31
0.0
  0
LINE
  5
24E1
330
1F
100
AcDbEntity
  8
0
100
AcDbLine
 10
2543.940939217225
 20
1493.711751925826
 30
0.0
 11
2543.940939217225
 21
1486.711751925838
 31
0.0
  0
LINE
  5
24E2
330
1F
100
AcDbEntity
  8
0
100
AcDbLine
 10
2537.01273598695
 20
1493.711751925832
 30
0.0
 11
2537.01273598695
 21
1486.711751925832
 31
0.0
  0
LINE
  5
24E3
330
1F
100
AcDbEntity
  8
0
100
AcDbLine
 10
2537.01273598695
 20
1486.711751925832
 30
0.0
 11
2542.208888409657
 21
1483.711751925832
 31
0.0
  0
LINE
  5
24E4
330
1F
100
AcDbEntity
  8
0
100
AcDbLine
 10
2543.940939217226
 20
1486.711751925832
 30
0.0
 11
2542.208888409657
 21
1483.711751925832
 31
0.0
  0
ARC
  5
24E5
330
1F
100
AcDbEntity
  8
0
100
AcDbCircle
 10
2416.869142447498
 20
1348.211751925856
 30
0.0
 40
9.499999999982502
100
AcDbArc
 50
43.17355110714921
 51
136.8264488928374
  0
LINE
  5
24E6
330
1F
100
AcDbEntity
  8
0
100
AcDbLine
 10
2409.940939217225
 20
1347.711751925833
 30
0.0
 11
2409.940939217225
 21
1354.711751925832
 31
0.0
  0
LINE
  5
24E7
330
1F
100
AcDbEntity
  8
0
100
AcDbLine
 10
2403.01273598695
 20
1347.711751925833
 30
0.0
 11
2403.01273598695
 21
1354.711751925832
 31
0.0
  0
LINE
  5
24E8
330
1F
100
AcDbEntity
  8
0
100
AcDbLine
 10
2403.01273598695
 20
1354.711751925832
 30
0.0
 11
2408.208888409657
 21
1357.711751925833
 31
0.0
  0
LINE
  5
24E9
330
1F
100
AcDbEntity
  8
0
100
AcDbLine
 10
2403.01273598695
 20
1347.711751925833
 30
0.0
 11
2408.208888409657
 21
1344.711751925833
 31
0.0
  0
LINE
  5
24EA
330
1F
100
AcDbEntity
  8
0
100
AcDbLine
 10
2408.208888409657
 20
1344.711751925833
 30
0.0
 11
2425.529396485345
 21
1344.711751925833
 31
0.0
  0
ARC
  5
24EB
330
1F
100
AcDbEntity
  8
0
100
AcDbCircle
 10
2416.869142447498
 20
1354.211751925811
 30
0.0
 40
9.499999999982502
100
AcDbArc
 50
223.1735511071625
 51
316.8264488928508
  0
LINE
  5
24EC
330
1F
100
AcDbEntity
  8
0
 62
     3
100
AcDbLine
 10
2408.869142447501
 20
1317.211751925833
 30
0.0
 11
2424.869142447501
 21
1317.211751925833
 31
0.0
  0
LINE
  5
24ED
330
1F
100
AcDbEntity
  8
0
  6
Continuous
 62
     7
100
AcDbLine
 10
2409.869142447501
 20
1316.211751925832
 30
0.0
 11
2423.869142447501
 21
1316.211751925832
 31
0.0
  0
LINE
  5
24EE
330
1F
100
AcDbEntity
  8
0
 62
     3
100
AcDbLine
 10
2424.119142447501
 20
1316.461751925833
 30
0.0
 11
2424.119142447501
 21
1344.711751925833
 31
0.0
  0
LINE
  5
24EF
330
1F
100
AcDbEntity
  8
0
100
AcDbLine
 10
2424.869142447501
 20
1317.211751925833
 30
0.0
 11
2424.869142447501
 21
1344.711751925833
 31
0.0
  0
LINE
  5
24F0
330
1F
100
AcDbEntity
  8
0
100
AcDbLine
 10
2430.725548908052
 20
1347.711751925833
 30
0.0
 11
2425.529396485345
 21
1344.711751925833
 31
0.0
  0
LINE
  5
24F1
330
1F
100
AcDbEntity
  8
0
100
AcDbLine
 10
2423.797345677777
 20
1347.711751925833
 30
0.0
 11
2425.529396485345
 21
1344.711751925833
 31
0.0
  0
LINE
  5
24F2
330
1F
100
AcDbEntity
  8
0
100
AcDbLine
 10
2423.869142447501
 20
1316.211751925832
 30
0.0
 11
2424.869142447501
 21
1317.211751925833
 31
0.0
  0
LINE
  5
24F3
330
1F
100
AcDbEntity
  8
0
 62
     3
100
AcDbLine
 10
2409.619142447501
 20
1316.461751925833
 30
0.0
 11
2409.619142447501
 21
1344.711751925833
 31
0.0
  0
LINE
  5
24F4
330
1F
100
AcDbEntity
  8
0
100
AcDbLine
 10
2408.869142447501
 20
1317.211751925833
 30
0.0
 11
2408.869142447501
 21
1344.711751925833
 31
0.0
  0
LINE
  5
24F5
330
1F
100
AcDbEntity
  8
0
100
AcDbLine
 10
2409.940939217225
 20
1347.711751925833
 30
0.0
 11
2408.208888409657
 21
1344.711751925833
 31
0.0
  0
LINE
  5
24F6
330
1F
100
AcDbEntity
  8
0
100
AcDbLine
 10
2408.869142447501
 20
1317.211751925833
 30
0.0
 11
2409.869142447501
 21
1316.211751925832
 31
0.0
  0
LINE
  5
24F7
330
1F
100
AcDbEntity
  8
0
100
AcDbLine
 10
2423.797345677777
 20
1347.711751925839
 30
0.0
 11
2423.797345677777
 21
1354.711751925827
 31
0.0
  0
LINE
  5
24F8
330
1F
100
AcDbEntity
  8
0
100
AcDbLine
 10
2430.725548908052
 20
1347.711751925833
 30
0.0
 11
2430.725548908052
 21
1354.711751925832
 31
0.0
  0
LINE
  5
24F9
330
1F
100
AcDbEntity
  8
0
100
AcDbLine
 10
2430.725548908052
 20
1354.711751925832
 30
0.0
 11
2425.529396485345
 21
1357.711751925833
 31
0.0
  0
LINE
  5
24FA
330
1F
100
AcDbEntity
  8
0
100
AcDbLine
 10
2423.797345677777
 20
1354.711751925832
 30
0.0
 11
2425.529396485345
 21
1357.711751925833
 31
0.0
  0
LINE
  5
24FB
330
1F
100
AcDbEntity
  8
0
100
AcDbLine
 10
2537.01273598695
 20
1354.711751925832
 30
0.0
 11
2542.208888409657
 21
1357.711751925833
 31
0.0
  0
LINE
  5
24FC
330
1F
100
AcDbEntity
  8
0
100
AcDbLine
 10
2537.01273598695
 20
1347.711751925833
 30
0.0
 11
2542.208888409657
 21
1344.711751925833
 31
0.0
  0
LINE
  5
24FD
330
1F
100
AcDbEntity
  8
0
100
AcDbLine
 10
2543.940939217225
 20
1347.711751925839
 30
0.0
 11
2543.940939217225
 21
1354.711751925827
 31
0.0
  0
LINE
  5
24FE
330
1F
100
AcDbEntity
  8
0
100
AcDbLine
 10
2564.725548908052
 20
1347.711751925833
 30
0.0
 11
2564.725548908052
 21
1354.711751925832
 31
0.0
  0
LINE
  5
24FF
330
1F
100
AcDbEntity
  8
0
100
AcDbLine
 10
2557.797345677776
 20
1347.711751925833
 30
0.0
 11
2557.797345677776
 21
1354.711751925832
 31
0.0
  0
LINE
  5
2500
330
1F
100
AcDbEntity
  8
0
100
AcDbLine
 10
2543.940939217226
 20
1354.711751925832
 30
0.0
 11
2542.208888409657
 21
1357.711751925833
 31
0.0
  0
LINE
  5
2501
330
1F
100
AcDbEntity
  8
0
100
AcDbLine
 10
2564.725548908052
 20
1354.711751925832
 30
0.0
 11
2559.529396485345
 21
1357.711751925833
 31
0.0
  0
ARC
  5
2502
330
1F
100
AcDbEntity
  8
0
100
AcDbCircle
 10
2550.869142447503
 20
1348.211751925856
 30
0.0
 40
9.499999999982502
100
AcDbArc
 50
43.17355110716256
 51
136.8264488928508
  0
LINE
  5
2503
330
1F
100
AcDbEntity
  8
0
100
AcDbLine
 10
2558.869142447501
 20
1317.211751925833
 30
0.0
 11
2558.869142447501
 21
1344.711751925833
 31
0.0
  0
LINE
  5
2504
330
1F
100
AcDbEntity
  8
0
 62
     3
100
AcDbLine
 10
2558.119142447501
 20
1316.461751925833
 30
0.0
 11
2558.119142447501
 21
1344.711751925833
 31
0.0
  0
LINE
  5
2505
330
1F
100
AcDbEntity
  8
0
100
AcDbLine
 10
2542.869142447501
 20
1317.211751925833
 30
0.0
 11
2542.869142447501
 21
1344.711751925833
 31
0.0
  0
LINE
  5
2506
330
1F
100
AcDbEntity
  8
0
 62
     3
100
AcDbLine
 10
2543.619142447501
 20
1316.461751925833
 30
0.0
 11
2543.619142447501
 21
1344.711751925833
 31
0.0
  0
LINE
  5
2507
330
1F
100
AcDbEntity
  8
0
100
AcDbLine
 10
2557.797345677776
 20
1347.711751925833
 30
0.0
 11
2559.529396485345
 21
1344.711751925833
 31
0.0
  0
LINE
  5
2508
330
1F
100
AcDbEntity
  8
0
100
AcDbLine
 10
2543.940939217226
 20
1347.711751925833
 30
0.0
 11
2542.208888409657
 21
1344.711751925833
 31
0.0
  0
ARC
  5
2509
330
1F
100
AcDbEntity
  8
0
100
AcDbCircle
 10
2550.869142447503
 20
1354.211751925811
 30
0.0
 40
9.499999999982502
100
AcDbArc
 50
223.1735511071492
 51
316.8264488928374
  0
LINE
  5
250A
330
1F
100
AcDbEntity
  8
0
100
AcDbLine
 10
2559.529396485345
 20
1344.711751925833
 30
0.0
 11
2542.208888409657
 21
1344.711751925833
 31
0.0
  0
LINE
  5
250B
330
1F
100
AcDbEntity
  8
0
100
AcDbLine
 10
2564.725548908052
 20
1347.711751925833
 30
0.0
 11
2559.529396485345
 21
1344.711751925833
 31
0.0
  0
LINE
  5
250C
330
1F
100
AcDbEntity
  8
0
100
AcDbLine
 10
2558.869142447501
 20
1317.211751925833
 30
0.0
 11
2557.869142447501
 21
1316.211751925832
 31
0.0
  0
LINE
  5
250D
330
1F
100
AcDbEntity
  8
0
100
AcDbLine
 10
2543.869142447501
 20
1316.211751925832
 30
0.0
 11
2542.869142447501
 21
1317.211751925833
 31
0.0
  0
LINE
  5
250E
330
1F
100
AcDbEntity
  8
0
  6
Continuous
 62
     7
100
AcDbLine
 10
2557.869142447501
 20
1316.211751925832
 30
0.0
 11
2543.869142447501
 21
1316.211751925832
 31
0.0
  0
LINE
  5
250F
330
1F
100
AcDbEntity
  8
0
 62
     3
100
AcDbLine
 10
2558.869142447501
 20
1317.211751925833
 30
0.0
 11
2542.869142447501
 21
1317.211751925833
 31
0.0
  0
LINE
  5
2510
330
1F
100
AcDbEntity
  8
0
100
AcDbLine
 10
2537.01273598695
 20
1347.711751925833
 30
0.0
 11
2537.01273598695
 21
1354.711751925832
 31
0.0
  0
LINE
  5
2511
330
1F
100
AcDbEntity
  8
CENTER
  6
CENTER
100
AcDbLine
 10
2416.869142447501
 20
1307.690801175732
 30
0.0
 11
2416.869142447501
 21
1529.781554000057
 31
0.0
  0
LINE
  5
2512
330
1F
100
AcDbEntity
  8
0
100
AcDbLine
 10
2409.940939217225
 20
1354.711751925832
 30
0.0
 11
2408.208888409657
 21
1357.711751925833
 31
0.0
  0
LINE
  5
2513
330
1F
100
AcDbEntity
  8
0
100
AcDbLine
 10
2557.797345677776
 20
1486.711751925832
 30
0.0
 11
2559.529396485345
 21
1483.711751925832
 31
0.0
  0
LINE
  5
2514
330
1F
100
AcDbEntity
  8
0
100
AcDbLine
 10
2557.797345677776
 20
1354.711751925832
 30
0.0
 11
2559.529396485345
 21
1357.711751925833
 31
0.0
  0
LINE
  5
2515
330
1F
100
AcDbEntity
  8
CENTER
  6
CENTER
100
AcDbLine
 10
2550.869142447501
 20
1307.690801175732
 30
0.0
 11
2550.869142447501
 21
1529.781554000057
 31
0.0
  0
LINE
  5
2516
330
1F
100
AcDbEntity
  8
0
100
AcDbLine
 10
2254.744167479708
 20
1347.711751925833
 30
0.0
 11
2259.940319902415
 21
1344.711751925833
 31
0.0
  0
LINE
  5
2517
330
1F
100
AcDbEntity
  8
0
100
AcDbLine
 10
2254.744167479708
 20
1354.711751925832
 30
0.0
 11
2259.940319902415
 21
1357.711751925833
 31
0.0
  0
LINE
  5
2518
330
1F
100
AcDbEntity
  8
0
100
AcDbLine
 10
2275.528777170535
 20
1347.711751925833
 30
0.0
 11
2275.528777170535
 21
1354.711751925832
 31
0.0
  0
LINE
  5
2519
330
1F
100
AcDbEntity
  8
0
100
AcDbLine
 10
2282.45698040081
 20
1347.711751925833
 30
0.0
 11
2282.45698040081
 21
1354.711751925832
 31
0.0
  0
LINE
  5
251A
330
1F
100
AcDbEntity
  8
0
100
AcDbLine
 10
2261.672370709983
 20
1347.711751925839
 30
0.0
 11
2261.672370709983
 21
1354.711751925827
 31
0.0
  0
LINE
  5
251B
330
1F
100
AcDbEntity
  8
0
 62
     3
100
AcDbLine
 10
2261.350573940259
 20
1316.461751925833
 30
0.0
 11
2261.350573940259
 21
1344.711751925833
 31
0.0
  0
LINE
  5
251C
330
1F
100
AcDbEntity
  8
0
100
AcDbLine
 10
2260.600573940259
 20
1317.211751925833
 30
0.0
 11
2260.600573940259
 21
1344.711751925833
 31
0.0
  0
LINE
  5
251D
330
1F
100
AcDbEntity
  8
0
 62
     3
100
AcDbLine
 10
2275.850573940259
 20
1316.461751925833
 30
0.0
 11
2275.850573940259
 21
1344.711751925833
 31
0.0
  0
LINE
  5
251E
330
1F
100
AcDbEntity
  8
0
100
AcDbLine
 10
2276.600573940259
 20
1317.211751925833
 30
0.0
 11
2276.600573940259
 21
1344.711751925833
 31
0.0
  0
LINE
  5
251F
330
1F
100
AcDbEntity
  8
0
 62
     3
100
AcDbLine
 10
2276.600573940259
 20
1317.211751925833
 30
0.0
 11
2260.600573940259
 21
1317.211751925833
 31
0.0
  0
LINE
  5
2520
330
1F
100
AcDbEntity
  8
0
  6
Continuous
 62
     7
100
AcDbLine
 10
2275.600573940259
 20
1316.211751925832
 30
0.0
 11
2261.600573940259
 21
1316.211751925832
 31
0.0
  0
LINE
  5
2521
330
1F
100
AcDbEntity
  8
0
100
AcDbLine
 10
2261.600573940259
 20
1316.211751925832
 30
0.0
 11
2260.600573940259
 21
1317.211751925833
 31
0.0
  0
LINE
  5
2522
330
1F
100
AcDbEntity
  8
0
100
AcDbLine
 10
2276.600573940259
 20
1317.211751925833
 30
0.0
 11
2275.600573940259
 21
1316.211751925832
 31
0.0
  0
LINE
  5
2523
330
1F
100
AcDbEntity
  8
0
100
AcDbLine
 10
2282.45698040081
 20
1347.711751925833
 30
0.0
 11
2277.260827978103
 21
1344.711751925833
 31
0.0
  0
LINE
  5
2524
330
1F
100
AcDbEntity
  8
0
100
AcDbLine
 10
2277.260827978103
 20
1344.711751925833
 30
0.0
 11
2259.940319902415
 21
1344.711751925833
 31
0.0
  0
ARC
  5
2525
330
1F
100
AcDbEntity
  8
0
100
AcDbCircle
 10
2268.600573940261
 20
1354.211751925811
 30
0.0
 40
9.499999999982502
100
AcDbArc
 50
223.1735511071492
 51
316.8264488928374
  0
LINE
  5
2526
330
1F
100
AcDbEntity
  8
0
100
AcDbLine
 10
2261.672370709984
 20
1347.711751925833
 30
0.0
 11
2259.940319902415
 21
1344.711751925833
 31
0.0
  0
LINE
  5
2527
330
1F
100
AcDbEntity
  8
0
100
AcDbLine
 10
2275.528777170535
 20
1347.711751925833
 30
0.0
 11
2277.260827978103
 21
1344.711751925833
 31
0.0
  0
LINE
  5
2528
330
1F
100
AcDbEntity
  8
0
100
AcDbLine
 10
2275.528777170535
 20
1354.711751925832
 30
0.0
 11
2277.260827978103
 21
1357.711751925833
 31
0.0
  0
ARC
  5
2529
330
1F
100
AcDbEntity
  8
0
100
AcDbCircle
 10
2268.600573940261
 20
1348.211751925856
 30
0.0
 40
9.499999999982502
100
AcDbArc
 50
43.17355110716256
 51
136.8264488928508
  0
LINE
  5
252A
330
1F
100
AcDbEntity
  8
0
100
AcDbLine
 10
2282.45698040081
 20
1354.711751925832
 30
0.0
 11
2277.260827978103
 21
1357.711751925833
 31
0.0
  0
LINE
  5
252B
330
1F
100
AcDbEntity
  8
0
100
AcDbLine
 10
2261.672370709984
 20
1354.711751925832
 30
0.0
 11
2259.940319902415
 21
1357.711751925833
 31
0.0
  0
LINE
  5
252C
330
1F
100
AcDbEntity
  8
0
100
AcDbLine
 10
2254.744167479708
 20
1347.711751925833
 30
0.0
 11
2254.744167479708
 21
1354.711751925832
 31
0.0
  0
LINE
  5
252D
330
1F
100
AcDbEntity
  8
0
100
AcDbLine
 10
2254.744167479708
 20
1486.711751925832
 30
0.0
 11
2259.940319902415
 21
1483.711751925832
 31
0.0
  0
LINE
  5
252E
330
1F
100
AcDbEntity
  8
0
100
AcDbLine
 10
2254.744167479708
 20
1493.711751925832
 30
0.0
 11
2259.940319902415
 21
1496.711751925832
 31
0.0
  0
LINE
  5
252F
330
1F
100
AcDbEntity
  8
0
100
AcDbLine
 10
2261.672370709983
 20
1493.711751925826
 30
0.0
 11
2261.672370709983
 21
1486.711751925838
 31
0.0
  0
LINE
  5
2530
330
1F
100
AcDbEntity
  8
0
100
AcDbLine
 10
2282.45698040081
 20
1493.711751925832
 30
0.0
 11
2282.45698040081
 21
1486.711751925832
 31
0.0
  0
LINE
  5
2531
330
1F
100
AcDbEntity
  8
0
100
AcDbLine
 10
2275.528777170535
 20
1493.711751925832
 30
0.0
 11
2275.528777170535
 21
1486.711751925833
 31
0.0
  0
LINE
  5
2532
330
1F
100
AcDbEntity
  8
0
100
AcDbLine
 10
2275.528777170535
 20
1486.711751925832
 30
0.0
 11
2277.260827978103
 21
1483.711751925832
 31
0.0
  0
LINE
  5
2533
330
1F
100
AcDbEntity
  8
0
100
AcDbLine
 10
2261.672370709984
 20
1486.711751925832
 30
0.0
 11
2259.940319902415
 21
1483.711751925832
 31
0.0
  0
LINE
  5
2534
330
1F
100
AcDbEntity
  8
0
100
AcDbLine
 10
2282.45698040081
 20
1486.711751925832
 30
0.0
 11
2277.260827978103
 21
1483.711751925832
 31
0.0
  0
ARC
  5
2535
330
1F
100
AcDbEntity
  8
0
100
AcDbCircle
 10
2268.600573940261
 20
1493.21175192581
 30
0.0
 40
9.499999999982502
100
AcDbArc
 50
223.1735511071492
 51
316.8264488928374
  0
LINE
  5
2536
330
1F
100
AcDbEntity
  8
0
100
AcDbLine
 10
2276.600573940259
 20
1524.211751925832
 30
0.0
 11
2276.600573940259
 21
1496.711751925832
 31
0.0
  0
LINE
  5
2537
330
1F
100
AcDbEntity
  8
0
 62
     3
100
AcDbLine
 10
2275.850573940259
 20
1524.961751925832
 30
0.0
 11
2275.850573940259
 21
1496.711751925832
 31
0.0
  0
LINE
  5
2538
330
1F
100
AcDbEntity
  8
0
100
AcDbLine
 10
2260.600573940259
 20
1524.211751925832
 30
0.0
 11
2260.600573940259
 21
1496.711751925832
 31
0.0
  0
LINE
  5
2539
330
1F
100
AcDbEntity
  8
0
 62
     3
100
AcDbLine
 10
2261.350573940259
 20
1524.961751925832
 30
0.0
 11
2261.350573940259
 21
1496.711751925832
 31
0.0
  0
LINE
  5
253A
330
1F
100
AcDbEntity
  8
0
100
AcDbLine
 10
2275.528777170535
 20
1493.711751925832
 30
0.0
 11
2277.260827978103
 21
1496.711751925832
 31
0.0
  0
LINE
  5
253B
330
1F
100
AcDbEntity
  8
0
100
AcDbLine
 10
2261.672370709984
 20
1493.711751925832
 30
0.0
 11
2259.940319902415
 21
1496.711751925832
 31
0.0
  0
ARC
  5
253C
330
1F
100
AcDbEntity
  8
0
100
AcDbCircle
 10
2268.600573940261
 20
1487.211751925855
 30
0.0
 40
9.499999999982502
100
AcDbArc
 50
43.17355110716256
 51
136.8264488928508
  0
LINE
  5
253D
330
1F
100
AcDbEntity
  8
0
100
AcDbLine
 10
2277.260827978103
 20
1496.711751925832
 30
0.0
 11
2259.940319902415
 21
1496.711751925832
 31
0.0
  0
LINE
  5
253E
330
1F
100
AcDbEntity
  8
0
100
AcDbLine
 10
2282.45698040081
 20
1493.711751925832
 30
0.0
 11
2277.260827978103
 21
1496.711751925832
 31
0.0
  0
LINE
  5
253F
330
1F
100
AcDbEntity
  8
0
100
AcDbLine
 10
2276.600573940259
 20
1524.211751925832
 30
0.0
 11
2275.600573940259
 21
1525.211751925832
 31
0.0
  0
LINE
  5
2540
330
1F
100
AcDbEntity
  8
0
100
AcDbLine
 10
2261.600573940259
 20
1525.211751925832
 30
0.0
 11
2260.600573940259
 21
1524.211751925832
 31
0.0
  0
LINE
  5
2541
330
1F
100
AcDbEntity
  8
0
  6
Continuous
 62
     7
100
AcDbLine
 10
2275.600573940259
 20
1525.211751925832
 30
0.0
 11
2261.600573940259
 21
1525.211751925832
 31
0.0
  0
LINE
  5
2542
330
1F
100
AcDbEntity
  8
0
 62
     3
100
AcDbLine
 10
2276.600573940259
 20
1524.211751925832
 30
0.0
 11
2260.600573940259
 21
1524.211751925832
 31
0.0
  0
LINE
  5
2543
330
1F
100
AcDbEntity
  8
0
100
AcDbLine
 10
2254.744167479708
 20
1493.711751925832
 30
0.0
 11
2254.744167479708
 21
1486.711751925832
 31
0.0
  0
LINE
  5
2544
330
1F
100
AcDbEntity
  8
CENTER
  6
CENTER
100
AcDbLine
 10
2268.600573940259
 20
1307.690801175732
 30
0.0
 11
2268.600573940259
 21
1529.781554000057
 31
0.0
  0
LINE
  5
2545
330
1F
100
AcDbEntity
  8
0
100
AcDbLine
 10
2120.744167479708
 20
1354.711751925832
 30
0.0
 11
2125.940319902415
 21
1357.711751925833
 31
0.0
  0
LINE
  5
2546
330
1F
100
AcDbEntity
  8
0
100
AcDbLine
 10
2120.744167479708
 20
1347.711751925833
 30
0.0
 11
2125.940319902415
 21
1344.711751925833
 31
0.0
  0
LINE
  5
2547
330
1F
100
AcDbEntity
  8
0
100
AcDbLine
 10
2120.744167479708
 20
1347.711751925833
 30
0.0
 11
2120.744167479708
 21
1354.711751925832
 31
0.0
  0
LINE
  5
2548
330
1F
100
AcDbEntity
  8
0
100
AcDbLine
 10
2148.45698040081
 20
1347.711751925833
 30
0.0
 11
2148.45698040081
 21
1354.711751925832
 31
0.0
  0
LINE
  5
2549
330
1F
100
AcDbEntity
  8
0
100
AcDbLine
 10
2141.528777170535
 20
1347.711751925839
 30
0.0
 11
2141.528777170535
 21
1354.711751925827
 31
0.0
  0
LINE
  5
254A
330
1F
100
AcDbEntity
  8
0
100
AcDbLine
 10
2127.672370709984
 20
1347.711751925833
 30
0.0
 11
2127.672370709984
 21
1354.711751925832
 31
0.0
  0
LINE
  5
254C
330
1F
100
AcDbEntity
  8
0
100
AcDbLine
 10
2148.45698040081
 20
1347.711751925833
 30
0.0
 11
2143.260827978103
 21
1344.711751925833
 31
0.0
  0
LINE
  5
254D
330
1F
100
AcDbEntity
  8
0
100
AcDbLine
 10
2126.600573940259
 20
1317.211751925833
 30
0.0
 11
2126.600573940259
 21
1344.711751925833
 31
0.0
  0
LINE
  5
254E
330
1F
100
AcDbEntity
  8
0
 62
     3
100
AcDbLine
 10
2127.350573940259
 20
1316.461751925833
 30
0.0
 11
2127.350573940259
 21
1344.711751925833
 31
0.0
  0
LINE
  5
254F
330
1F
100
AcDbEntity
  8
0
100
AcDbLine
 10
2142.600573940259
 20
1317.211751925833
 30
0.0
 11
2142.600573940259
 21
1344.711751925833
 31
0.0
  0
LINE
  5
2550
330
1F
100
AcDbEntity
  8
0
 62
     3
100
AcDbLine
 10
2141.850573940259
 20
1316.461751925833
 30
0.0
 11
2141.850573940259
 21
1344.711751925833
 31
0.0
  0
LINE
  5
2551
330
1F
100
AcDbEntity
  8
0
100
AcDbLine
 10
2126.600573940259
 20
1317.211751925833
 30
0.0
 11
2127.600573940259
 21
1316.211751925832
 31
0.0
  0
LINE
  5
2552
330
1F
100
AcDbEntity
  8
0
100
AcDbLine
 10
2141.600573940259
 20
1316.211751925832
 30
0.0
 11
2142.600573940259
 21
1317.211751925833
 31
0.0
  0
LINE
  5
2553
330
1F
100
AcDbEntity
  8
0
  6
Continuous
 62
     7
100
AcDbLine
 10
2127.600573940259
 20
1316.211751925832
 30
0.0
 11
2141.600573940259
 21
1316.211751925832
 31
0.0
  0
LINE
  5
2554
330
1F
100
AcDbEntity
  8
0
 62
     3
100
AcDbLine
 10
2126.600573940259
 20
1317.211751925833
 30
0.0
 11
2142.600573940259
 21
1317.211751925833
 31
0.0
  0
LINE
  5
2555
330
1F
100
AcDbEntity
  8
0
100
AcDbLine
 10
2127.672370709984
 20
1347.711751925833
 30
0.0
 11
2125.940319902415
 21
1344.711751925833
 31
0.0
  0
LINE
  5
2556
330
1F
100
AcDbEntity
  8
0
100
AcDbLine
 10
2141.528777170535
 20
1347.711751925833
 30
0.0
 11
2143.260827978103
 21
1344.711751925833
 31
0.0
  0
ARC
  5
2557
330
1F
100
AcDbEntity
  8
0
100
AcDbCircle
 10
2134.600573940256
 20
1354.211751925811
 30
0.0
 40
9.499999999982502
100
AcDbArc
 50
223.1735511071625
 51
316.8264488928508
  0
LINE
  5
2558
330
1F
100
AcDbEntity
  8
0
100
AcDbLine
 10
2125.940319902415
 20
1344.711751925833
 30
0.0
 11
2143.260827978104
 21
1344.711751925833
 31
0.0
  0
LINE
  5
2559
330
1F
100
AcDbEntity
  8
0
100
AcDbLine
 10
2148.45698040081
 20
1354.711751925832
 30
0.0
 11
2143.260827978103
 21
1357.711751925833
 31
0.0
  0
LINE
  5
255A
330
1F
100
AcDbEntity
  8
0
100
AcDbLine
 10
2141.528777170535
 20
1354.711751925832
 30
0.0
 11
2143.260827978103
 21
1357.711751925833
 31
0.0
  0
ARC
  5
255B
330
1F
100
AcDbEntity
  8
0
100
AcDbCircle
 10
2134.600573940256
 20
1348.211751925856
 30
0.0
 40
9.499999999982502
100
AcDbArc
 50
43.17355110714921
 51
136.8264488928374
  0
LINE
  5
255C
330
1F
100
AcDbEntity
  8
0
100
AcDbLine
 10
2127.672370709984
 20
1354.711751925832
 30
0.0
 11
2125.940319902415
 21
1357.711751925833
 31
0.0
  0
LINE
  5
255D
330
1F
100
AcDbEntity
  8
0
100
AcDbLine
 10
2120.744167479708
 20
1493.711751925832
 30
0.0
 11
2125.940319902415
 21
1496.711751925832
 31
0.0
  0
LINE
  5
255E
330
1F
100
AcDbEntity
  8
0
100
AcDbLine
 10
2120.744167479708
 20
1486.711751925832
 30
0.0
 11
2125.940319902415
 21
1483.711751925832
 31
0.0
  0
LINE
  5
255F
330
1F
100
AcDbEntity
  8
0
100
AcDbLine
 10
2120.744167479708
 20
1493.711751925832
 30
0.0
 11
2120.744167479708
 21
1486.711751925832
 31
0.0
  0
LINE
  5
2560
330
1F
100
AcDbEntity
  8
0
100
AcDbLine
 10
2148.45698040081
 20
1493.711751925832
 30
0.0
 11
2148.45698040081
 21
1486.711751925832
 31
0.0
  0
LINE
  5
2561
330
1F
100
AcDbEntity
  8
0
100
AcDbLine
 10
2127.672370709984
 20
1493.711751925832
 30
0.0
 11
2127.672370709984
 21
1486.711751925833
 31
0.0
  0
LINE
  5
2562
330
1F
100
AcDbEntity
  8
0
100
AcDbLine
 10
2141.528777170535
 20
1493.711751925826
 30
0.0
 11
2141.528777170535
 21
1486.711751925838
 31
0.0
  0
LINE
  5
2563
330
1F
100
AcDbEntity
  8
0
 62
     7
100
AcDbLine
 10
2126.100573940259
 20
1499.211751925832
 30
0.0
 11
2126.100573940259
 21
1496.711751925832
 31
0.0
  0
LINE
  5
2564
330
1F
100
AcDbEntity
  8
0
100
AcDbLine
 10
2148.45698040081
 20
1486.711751925832
 30
0.0
 11
2143.260827978103
 21
1483.711751925832
 31
0.0
  0
ARC
  5
2565
330
1F
100
AcDbEntity
  8
0
100
AcDbCircle
 10
2134.600573940256
 20
1493.21175192581
 30
0.0
 40
9.499999999982502
100
AcDbArc
 50
223.1735511071625
 51
316.8264488928508
  0
LINE
  5
2566
330
1F
100
AcDbEntity
  8
0
100
AcDbLine
 10
2141.528777170535
 20
1486.711751925832
 30
0.0
 11
2143.260827978103
 21
1483.711751925832
 31
0.0
  0
LINE
  5
2567
330
1F
100
AcDbEntity
  8
0
100
AcDbLine
 10
2127.672370709984
 20
1486.711751925832
 30
0.0
 11
2125.940319902415
 21
1483.711751925832
 31
0.0
  0
LINE
  5
2568
330
1F
100
AcDbEntity
  8
0
100
AcDbLine
 10
2148.45698040081
 20
1493.711751925832
 30
0.0
 11
2143.260827978103
 21
1496.711751925832
 31
0.0
  0
LINE
  5
2569
330
1F
100
AcDbEntity
  8
0
 62
     3
100
AcDbLine
 10
2141.850573940259
 20
1524.961751925832
 30
0.0
 11
2141.850573940259
 21
1496.711751925832
 31
0.0
  0
LINE
  5
256A
330
1F
100
AcDbEntity
  8
0
100
AcDbLine
 10
2142.600573940259
 20
1524.211751925832
 30
0.0
 11
2142.600573940259
 21
1496.711751925832
 31
0.0
  0
LINE
  5
256B
330
1F
100
AcDbEntity
  8
0
 62
     3
100
AcDbLine
 10
2127.350573940259
 20
1524.961751925832
 30
0.0
 11
2127.350573940259
 21
1496.711751925832
 31
0.0
  0
LINE
  5
256C
330
1F
100
AcDbEntity
  8
0
100
AcDbLine
 10
2126.600573940259
 20
1524.211751925832
 30
0.0
 11
2126.600573940259
 21
1496.711751925832
 31
0.0
  0
LINE
  5
256D
330
1F
100
AcDbEntity
  8
0
100
AcDbLine
 10
2125.940319902415
 20
1496.711751925832
 30
0.0
 11
2143.260827978104
 21
1496.711751925832
 31
0.0
  0
ARC
  5
256E
330
1F
100
AcDbEntity
  8
0
100
AcDbCircle
 10
2134.600573940256
 20
1487.211751925855
 30
0.0
 40
9.499999999982502
100
AcDbArc
 50
43.17355110714921
 51
136.8264488928374
  0
LINE
  5
256F
330
1F
100
AcDbEntity
  8
0
100
AcDbLine
 10
2141.528777170535
 20
1493.711751925832
 30
0.0
 11
2143.260827978103
 21
1496.711751925832
 31
0.0
  0
LINE
  5
2570
330
1F
100
AcDbEntity
  8
0
100
AcDbLine
 10
2127.672370709984
 20
1493.711751925832
 30
0.0
 11
2125.940319902415
 21
1496.711751925832
 31
0.0
  0
LINE
  5
2571
330
1F
100
AcDbEntity
  8
0
 62
     3
100
AcDbLine
 10
2126.600573940259
 20
1524.211751925832
 30
0.0
 11
2142.600573940259
 21
1524.211751925832
 31
0.0
  0
LINE
  5
2572
330
1F
100
AcDbEntity
  8
0
  6
Continuous
 62
     7
100
AcDbLine
 10
2127.600573940259
 20
1525.211751925832
 30
0.0
 11
2141.600573940259
 21
1525.211751925832
 31
0.0
  0
LINE
  5
2573
330
1F
100
AcDbEntity
  8
0
100
AcDbLine
 10
2141.600573940259
 20
1525.211751925832
 30
0.0
 11
2142.600573940259
 21
1524.211751925832
 31
0.0
  0
LINE
  5
2574
330
1F
100
AcDbEntity
  8
0
100
AcDbLine
 10
2126.600573940259
 20
1524.211751925832
 30
0.0
 11
2127.600573940259
 21
1525.211751925832
 31
0.0
  0
LINE
  5
2575
330
1F
100
AcDbEntity
  8
CENTER
  6
CENTER
100
AcDbLine
 10
2134.600573940259
 20
1307.690801175732
 30
0.0
 11
2134.600573940259
 21
1529.781554000057
 31
0.0
  0
LINE
  5
2576
330
1F
100
AcDbEntity
  8
0
 62
     1
100
AcDbLine
 10
2483.869142447501
 20
1339.711751925833
 30
0.0
 11
2483.869142447501
 21
1344.711751925833
 31
0.0
  0
LINE
  5
2577
330
1F
100
AcDbEntity
  8
0
 62
     1
100
AcDbLine
 10
2486.369142447501
 20
1342.211751925832
 30
0.0
 11
2481.369142447501
 21
1342.211751925832
 31
0.0
  0
LINE
  5
2579
330
1F
100
AcDbEntity
  8
0
 62
     1
100
AcDbLine
 10
2201.600573940259
 20
1339.711751925833
 30
0.0
 11
2201.600573940259
 21
1344.711751925833
 31
0.0
  0
LINE
  5
2584
330
1F
100
AcDbEntity
  8
0
 62
     7
100
AcDbLine
 10
2127.100573940259
 20
1382.711751925832
 30
0.0
 11
2127.100573940259
 21
1458.711751925832
 31
0.0
  0
LINE
  5
2585
330
1F
100
AcDbEntity
  8
0
 62
     7
100
AcDbLine
 10
2142.100573940259
 20
1382.711751925832
 30
0.0
 11
2142.100573940259
 21
1458.711751925832
 31
0.0
  0
LINE
  5
2586
330
1F
100
AcDbEntity
  8
0
 62
     7
100
AcDbLine
 10
2276.100573940259
 20
1382.711751925832
 30
0.0
 11
2276.100573940259
 21
1458.711751925832
 31
0.0
  0
LINE
  5
2587
330
1F
100
AcDbEntity
  8
0
 62
     7
100
AcDbLine
 10
2261.100573940259
 20
1382.711751925832
 30
0.0
 11
2261.100573940259
 21
1458.711751925832
 31
0.0
  0
LINE
  5
2588
330
1F
100
AcDbEntity
  8
0
 62
     7
100
AcDbLine
 10
2424.369142447501
 20
1383.711751925833
 30
0.0
 11
2424.369142447501
 21
1457.711751925832
 31
0.0
  0
LINE
  5
2589
330
1F
100
AcDbEntity
  8
0
 62
     7
100
AcDbLine
 10
2409.369142447501
 20
1383.711751925833
 30
0.0
 11
2409.369142447501
 21
1457.711751925832
 31
0.0
  0
LINE
  5
258A
330
1F
100
AcDbEntity
  8
0
 62
     7
100
AcDbLine
 10
2543.369142447501
 20
1383.711751925833
 30
0.0
 11
2543.369142447501
 21
1457.711751925832
 31
0.0
  0
LINE
  5
258B
330
1F
100
AcDbEntity
  8
0
 62
     7
100
AcDbLine
 10
2558.369142447501
 20
1383.711751925833
 30
0.0
 11
2558.369142447501
 21
1457.711751925832
 31
0.0
  0
LINE
  5
2591
330
1F
100
AcDbEntity
  8
CENTER
100
AcDbLine
 10
2219.600573940259
 20
1469.211751925832
 30
0.0
 11
2219.600573940259
 21
1471.211751925832
 31
0.0
  0
LINE
  5
2592
330
1F
100
AcDbEntity
  8
CENTER
100
AcDbLine
 10
2220.600573940259
 20
1470.211751925831
 30
0.0
 11
2218.600573940259
 21
1470.211751925831
 31
0.0
  0
LINE
  5
25AB
330
1F
100
AcDbEntity
  8
CENTER
100
AcDbLine
 10
2183.600573940259
 20
1370.211751925832
 30
0.0
 11
2183.600573940259
 21
1372.211751925833
 31
0.0
  0
LINE
  5
25AC
330
1F
100
AcDbEntity
  8
CENTER
100
AcDbLine
 10
2184.600573940259
 20
1371.211751925833
 30
0.0
 11
2182.600573940259
 21
1371.211751925833
 31
0.0
  0
LINE
  5
25C1
330
1F
100
AcDbEntity
  8
0
  6
Continuous
 62
     7
100
AcDbLine
 10
2276.600573940259
 20
1499.211751925832
 30
0.0
 11
2288.040044116707
 21
1499.211751925832
 31
0.0
  0
LINE
  5
25C2
330
1F
100
AcDbEntity
  8
0
  6
Continuous
 62
     7
100
AcDbLine
 10
2142.600573940259
 20
1499.211751925832
 30
0.0
 11
2260.600573940259
 21
1499.211751925832
 31
0.0
  0
LINE
  5
25C3
330
1F
100
AcDbEntity
  8
0
  6
Continuous
 62
     7
100
AcDbLine
 10
2142.600573940259
 20
1342.211751925833
 30
0.0
 11
2260.60057394026
 21
1342.211751925833
 31
0.0
  0
LINE
  5
25C4
102
{ACAD_REACTORS
330
2C03
102
}
330
1F
100
AcDbEntity
  8
0
  6
Continuous
 62
     7
100
AcDbLine
 10
2276.600573940259
 20
1342.211751925833
 30
0.0
 11
2288.040044116707
 21
1342.211751925832
 31
0.0
  0
LINE
  5
25C5
330
1F
100
AcDbEntity
  8
0
  6
Continuous
 62
     7
100
AcDbLine
 10
2424.869142447502
 20
1342.211751925833
 30
0.0
 11
2542.869142447502
 21
1342.211751925833
 31
0.0
  0
LINE
  5
25C6
330
1F
100
AcDbEntity
  8
0
  6
Continuous
 62
     7
100
AcDbLine
 10
2558.869142447501
 20
1342.211751925833
 30
0.0
 11
2570.308612623949
 21
1342.211751925832
 31
0.0
  0
LINE
  5
25C7
330
1F
100
AcDbEntity
  8
0
  6
Continuous
 62
     7
100
AcDbLine
 10
2558.869142447501
 20
1499.211751925832
 30
0.0
 11
2570.308612623949
 21
1499.211751925832
 31
0.0
  0
LINE
  5
25C8
330
1F
100
AcDbEntity
  8
0
  6
Continuous
 62
     7
100
AcDbLine
 10
2424.869142447501
 20
1499.211751925832
 30
0.0
 11
2542.869142447501
 21
1499.211751925832
 31
0.0
  0
LINE
  5
264A
330
1F
100
AcDbEntity
  8
0
100
AcDbLine
 10
2172.600573940259
 20
1546.211751925832
 30
0.0
 11
2230.600573940258
 21
1546.211751925832
 31
0.0
  0
LINE
  5
264B
330
1F
100
AcDbEntity
  8
0
100
AcDbLine
 10
2171.600573940259
 20
1545.211751925832
 30
0.0
 11
2171.600573940259
 21
1532.211751925832
 31
0.0
  0
LINE
  5
264C
330
1F
100
AcDbEntity
  8
0
100
AcDbLine
 10
2231.600573940258
 20
1545.211751925832
 30
0.0
 11
2231.600573940258
 21
1532.211751925832
 31
0.0
  0
LINE
  5
264D
330
1F
100
AcDbEntity
  8
0
100
AcDbLine
 10
2172.600573940259
 20
1531.211751925832
 30
0.0
 11
2230.600573940258
 21
1531.211751925832
 31
0.0
  0
LINE
  5
2658
330
1F
100
AcDbEntity
  8
0
100
AcDbLine
 10
2180.17628865463
 20
1535.211751925832
 30
0.0
 11
2223.024859225887
 21
1535.211751925832
 31
0.0
  0
LINE
  5
265B
102
{ACAD_REACTORS
330
2D11
102
}
330
1F
100
AcDbEntity
  8
0
100
AcDbLine
 10
2180.17628865463
 20
1717.853661570613
 30
0.0
 11
2223.024859225888
 21
1717.853661570613
 31
0.0
  0
LINE
  5
265C
102
{ACAD_REACTORS
330
2D11
102
}
330
1F
100
AcDbEntity
  8
0
100
AcDbLine
 10
2180.17628865463
 20
1759.853661570613
 30
0.0
 11
2223.024859225888
 21
1759.853661570613
 31
0.0
  0
LINE
  5
265D
330
1F
100
AcDbEntity
  8
0
  6
CENTER
 62
     1
100
AcDbLine
 10
2201.600573940259
 20
1551.4356265841
 30
0.0
 11
2201.600573940259
 21
1527.349375137867
 31
0.0
  0
LINE
  5
265E
330
1F
100
AcDbEntity
  8
0
  6
CENTER
 62
     1
100
AcDbLine
 10
2201.600573940259
 20
1737.853661570613
 30
0.0
 11
2201.600573940259
 21
1739.853661570613
 31
0.0
  0
LINE
  5
265F
330
1F
100
AcDbEntity
  8
0
  6
CENTER
 62
     1
100
AcDbLine
 10
2202.600573940259
 20
1738.853661570613
 30
0.0
 11
2200.600573940259
 21
1738.853661570613
 31
0.0
  0
LINE
  5
2660
330
1F
100
AcDbEntity
  8
0
  6
CENTER
 62
     1
100
AcDbLine
 10
2201.600573940259
 20
1736.853661570613
 30
0.0
 11
2201.600573940259
 21
1707.853661570613
 31
0.0
  0
LINE
  5
2661
330
1F
100
AcDbEntity
  8
0
  6
CENTER
 62
     1
100
AcDbLine
 10
2201.600573940259
 20
1740.853661570613
 30
0.0
 11
2201.600573940259
 21
1769.853661570613
 31
0.0
  0
LINE
  5
2662
330
1F
100
AcDbEntity
  8
0
  6
CENTER
 62
     1
100
AcDbLine
 10
2203.600573940259
 20
1738.853661570613
 30
0.0
 11
2232.600573940259
 21
1738.853661570613
 31
0.0
  0
LINE
  5
2663
330
1F
100
AcDbEntity
  8
0
  6
CENTER
 62
     1
100
AcDbLine
 10
2199.600573940259
 20
1738.853661570613
 30
0.0
 11
2170.600573940259
 21
1738.853661570613
 31
0.0
  0
ARC
  5
2664
330
1F
100
AcDbEntity
  8
0
100
AcDbCircle
 10
2201.600573940259
 20
1738.853661570613
 30
0.0
 40
29.0
100
AcDbArc
 50
133.6028189727126
 51
226.3971810272874
  0
ARC
  5
2665
330
1F
100
AcDbEntity
  8
0
100
AcDbCircle
 10
2201.600573940259
 20
1738.853661570613
 30
0.0
 40
29.0
100
AcDbArc
 50
313.6028189727126
 51
46.39718102728738
  0
LINE
  5
2666
330
1F
100
AcDbEntity
  8
0
100
AcDbLine
 10
2172.600573940259
 20
1531.211751925832
 30
0.0
 11
2171.600573940259
 21
1532.211751925832
 31
0.0
  0
LINE
  5
2667
330
1F
100
AcDbEntity
  8
0
100
AcDbLine
 10
2230.600573940258
 20
1531.211751925832
 30
0.0
 11
2231.600573940258
 21
1532.211751925832
 31
0.0
  0
LINE
  5
2669
330
1F
100
AcDbEntity
  8
0
100
AcDbLine
 10
2171.600573940259
 20
1545.211751925832
 30
0.0
 11
2180.17628865463
 21
1545.211751925832
 31
0.0
  0
LINE
  5
2687
330
1F
100
AcDbEntity
  8
0
100
AcDbLine
 10
2180.17628865463
 20
1545.211751925832
 30
0.0
 11
2180.17628865463
 21
1535.211751925832
 31
0.0
  0
LINE
  5
2688
330
1F
100
AcDbEntity
  8
0
100
AcDbLine
 10
2223.024859225887
 20
1545.211751925832
 30
0.0
 11
2223.024859225887
 21
1535.211751925832
 31
0.0
  0
LINE
  5
2689
330
1F
100
AcDbEntity
  8
0
100
AcDbLine
 10
2223.024859225887
 20
1545.211751925832
 30
0.0
 11
2231.600573940258
 21
1545.211751925832
 31
0.0
  0
LINE
  5
268A
330
1F
100
AcDbEntity
  8
0
100
AcDbLine
 10
2180.17628865463
 20
1545.211751925832
 30
0.0
 11
2181.600573940258
 21
1546.211751925832
 31
0.0
  0
LINE
  5
268B
330
1F
100
AcDbEntity
  8
0
100
AcDbLine
 10
2223.024859225887
 20
1545.211751925832
 30
0.0
 11
2221.600573940259
 21
1546.211751925832
 31
0.0
  0
LINE
  5
268C
330
1F
100
AcDbEntity
  8
0
100
AcDbLine
 10
2180.888431297444
 20
1545.711751925832
 30
0.0
 11
2222.839636400946
 21
1535.211751925832
 31
0.0
  0
LINE
  5
268D
330
1F
100
AcDbEntity
  8
0
100
AcDbLine
 10
2180.17628865463
 20
1535.211751925832
 30
0.0
 11
2222.312716583072
 21
1545.711751925832
 31
0.0
  0
LINE
  5
268E
102
{ACAD_REACTORS
330
2C84
330
2CAA
102
}
330
1F
100
AcDbEntity
  8
0
100
AcDbLine
 10
2230.600573940258
 20
1546.211751925832
 30
0.0
 11
2231.600573940258
 21
1545.211751925832
 31
0.0
  0
LINE
  5
268F
102
{ACAD_REACTORS
330
2CAA
102
}
330
1F
100
AcDbEntity
  8
0
100
AcDbLine
 10
2172.600573940259
 20
1546.211751925832
 30
0.0
 11
2171.600573940259
 21
1545.211751925832
 31
0.0
  0
LINE
  5
26DD
330
1F
100
AcDbEntity
  8
0
100
AcDbLine
 10
2453.869142447501
 20
1535.211751925832
 30
0.0
 11
2453.869142447501
 21
1532.211751925832
 31
0.0
  0
LINE
  5
26DE
330
1F
100
AcDbEntity
  8
0
100
AcDbLine
 10
2454.869142447501
 20
1531.211751925832
 30
0.0
 11
2512.869142447501
 21
1531.211751925832
 31
0.0
  0
LINE
  5
26DF
330
1F
100
AcDbEntity
  8
0
100
AcDbLine
 10
2513.869142447501
 20
1532.211751925832
 30
0.0
 11
2513.869142447501
 21
1535.211751925832
 31
0.0
  0
LINE
  5
26E0
330
1F
100
AcDbEntity
  8
0
100
AcDbLine
 10
2513.869142447501
 20
1535.211751925832
 30
0.0
 11
2453.869142447501
 21
1535.211751925832
 31
0.0
  0
LINE
  5
26ED
330
1F
100
AcDbEntity
  8
AM_7
100
AcDbLine
 10
2483.869142447501
 20
1529.211751925832
 30
0.0
 11
2483.869142447501
 21
1553.702061102041
 31
0.0
1001
GENIUS_GENOBJ-N-CEN_13
1002
{
1000
OWNER
1000
GEN
1002
}
1001
GENIUS_GENODEF_13
1002
{
1000
HIER
1070
     0
1002
}
1002
{
1000
MANEDIT
1070
     0
1002
}
1002
{
1000
NOSEL
1070
     0
1002
}
1002
{
1000
BEHIND
1070
     0
1002
}
1002
{
1000
OTHER
1070
     0
1002
}
1002
{
1000
REACTOR
1002
}
1001
GENIUS_GENCEN_19
1002
{
1040
2.0
1002
}
  0
LINE
  5
26EF
330
1F
100
AcDbEntity
  8
0
100
AcDbLine
 10
2453.869142447501
 20
1532.211751925832
 30
0.0
 11
2454.869142447501
 21
1531.211751925832
 31
0.0
  0
LINE
  5
26F0
330
1F
100
AcDbEntity
  8
0
100
AcDbLine
 10
2512.869142447501
 20
1531.211751925832
 30
0.0
 11
2513.869142447501
 21
1532.211751925832
 31
0.0
  0
LINE
  5
26F1
330
1F
100
AcDbEntity
  8
0
100
AcDbLine
 10
2462.869142447501
 20
1546.211751925832
 30
0.0
 11
2504.869142447501
 21
1546.211751925832
 31
0.0
  0
LINE
  5
26F2
330
1F
100
AcDbEntity
  8
0
100
AcDbLine
 10
2504.869142447501
 20
1535.211751925832
 30
0.0
 11
2504.869142447501
 21
1546.211751925832
 31
0.0
1001
GENIUS_GENOBJ-N-CEN_13
1002
{
1000
OWNER
1000
GEN
1002
}
1001
GENIUS_GENODEF_13
1002
{
1000
HIER
1070
     0
1002
}
1002
{
1000
MANEDIT
1070
     0
1002
}
1002
{
1000
NOSEL
1070
     0
1002
}
1002
{
1000
BEHIND
1070
     0
1002
}
1002
{
1000
OTHER
1070
     0
1002
}
1002
{
1000
REACTOR
1002
}
1001
GENIUS_GENCEN_19
1002
{
1040
2.0
1002
}
  0
LINE
  5
26F3
330
1F
100
AcDbEntity
  8
0
100
AcDbLine
 10
2462.8691424475
 20
1535.211751925832
 30
0.0
 11
2462.8691424475
 21
1546.211751925832
 31
0.0
1001
GENIUS_GENOBJ-N-CEN_13
1002
{
1000
OWNER
1000
GEN
1002
}
1001
GENIUS_GENODEF_13
1002
{
1000
HIER
1070
     0
1002
}
1002
{
1000
MANEDIT
1070
     0
1002
}
1002
{
1000
NOSEL
1070
     0
1002
}
1002
{
1000
BEHIND
1070
     0
1002
}
1002
{
1000
OTHER
1070
     0
1002
}
1002
{
1000
REACTOR
1002
}
1001
GENIUS_GENCEN_19
1002
{
1040
2.0
1002
}
  0
LINE
  5
2A3E
330
1F
100
AcDbEntity
  8
AM_7
100
AcDbLine
 10
2214.967071403367
 20
1457.469619949377
 30
0.0
 11
2215.893370000466
 21
1460.016941091397
 31
0.0
  0
LINE
  5
2A3F
330
1F
100
AcDbEntity
  8
AM_7
100
AcDbLine
 10
2186.053580253744
 20
1377.957519287917
 30
0.0
 11
2214.572226629632
 21
1456.383796821608
 31
0.0
  0
LINE
  5
2A40
330
1F
100
AcDbEntity
  8
AM_7
100
AcDbLine
 10
2219.600573940259
 20
1470.211751925831
 30
0.0
 11
2219.600573940259
 21
1470.211751925831
 31
0.0
  0
LINE
  5
2A41
330
1F
100
AcDbEntity
  8
AM_7
100
AcDbLine
 10
2219.600573940259
 20
1470.211751925831
 30
0.0
 11
2219.600573940259
 21
1470.211751925831
 31
0.0
  0
LINE
  5
2A42
330
1F
100
AcDbEntity
  8
AM_7
100
AcDbLine
 10
2214.100573940259
 20
1470.211751925831
 30
0.0
 11
2219.600573940259
 21
1470.211751925831
 31
0.0
  0
LINE
  5
2A43
330
1F
100
AcDbEntity
  8
AM_7
100
AcDbLine
 10
2219.600573940259
 20
1470.211751925831
 30
0.0
 11
2225.100573940259
 21
1470.211751925831
 31
0.0
  0
LINE
  5
2A44
330
1F
100
AcDbEntity
  8
AM_7
100
AcDbLine
 10
2219.600573940259
 20
1464.711751925832
 30
0.0
 11
2219.600573940259
 21
1470.211751925831
 31
0.0
  0
LINE
  5
2A45
330
1F
100
AcDbEntity
  8
AM_7
100
AcDbLine
 10
2219.600573940259
 20
1470.211751925831
 30
0.0
 11
2219.600573940259
 21
1475.711751925832
 31
0.0
  0
LINE
  5
2A46
330
1F
100
AcDbEntity
  8
AM_7
100
AcDbLine
 10
2183.60057394026
 20
1371.211751925831
 30
0.0
 11
2183.60057394026
 21
1371.211751925831
 31
0.0
  0
LINE
  5
2A47
330
1F
100
AcDbEntity
  8
AM_7
100
AcDbLine
 10
2183.60057394026
 20
1371.211751925831
 30
0.0
 11
2183.60057394026
 21
1371.211751925831
 31
0.0
  0
LINE
  5
2A48
330
1F
100
AcDbEntity
  8
AM_7
100
AcDbLine
 10
2178.10057394026
 20
1371.211751925831
 30
0.0
 11
2183.60057394026
 21
1371.211751925831
 31
0.0
  0
LINE
  5
2A49
330
1F
100
AcDbEntity
  8
AM_7
100
AcDbLine
 10
2183.60057394026
 20
1371.211751925831
 30
0.0
 11
2189.10057394026
 21
1371.211751925831
 31
0.0
  0
LINE
  5
2A4A
330
1F
100
AcDbEntity
  8
AM_7
100
AcDbLine
 10
2183.60057394026
 20
1365.711751925831
 30
0.0
 11
2183.60057394026
 21
1371.211751925831
 31
0.0
  0
LINE
  5
2A4B
330
1F
100
AcDbEntity
  8
AM_7
100
AcDbLine
 10
2183.60057394026
 20
1371.211751925831
 30
0.0
 11
2183.60057394026
 21
1376.711751925831
 31
0.0
  0
LINE
  5
2A4C
330
1F
100
AcDbEntity
  8
AM_VIS
100
AcDbLine
 10
2207.637163980596
 20
1454.869424403183
 30
0.0
 11
2209.370415344011
 21
1459.635865652575
 31
0.0
  0
LINE
  5
2A4D
330
1F
100
AcDbEntity
  8
AM_VIS
100
AcDbLine
 10
2209.370415344011
 20
1459.635865652575
 30
0.0
 11
2209.529018851563
 21
1460.072025298344
 31
0.0
  0
SPLINE
  5
2A4E
330
1F
100
AcDbEntity
  8
AM_VIS
100
AcDbSpline
210
0.0
220
0.0
230
1.0
 70
    12
 71
     2
 72
     6
 73
     3
 74
     0
 42
0.0000000001
 43
0.0000000001
 40
5.403036174764437
 40
5.403036174764437
 40
5.403036174764437
 40
9.146099121898608
 40
9.146099121898608
 40
9.146099121898608
 10
2212.348399122141
 20
1459.046796109043
 30
0.0
 41
1.0
 10
2211.039920184885
 20
1459.522606631682
 30
0.0
 41
1.055507145648787
 10
2209.370415344009
 20
1459.635865652574
 30
0.0
 41
1.034106888326794
  0
SPLINE
  5
2A4F
330
1F
100
AcDbEntity
  8
AM_VIS
100
AcDbSpline
210
-0.0000000000012978
220
-0.0000000000023587
230
1.0
 70
    12
 71
     2
 72
     6
 73
     3
 74
     0
 42
0.0000000001
 43
0.0000000001
 40
1.659973227630032
 40
1.659973227630032
 40
1.659973227630032
 40
5.403036174764437
 40
5.403036174764437
 40
5.403036174764437
 10
2215.009175885166
 20
1457.585407273974
 30
-0.0000000000001137
 41
1.034106888326791
 10
2213.656878059396
 20
1458.570985586405
 30
0.0
 41
1.05550714564879
 10
2212.348399122141
 20
1459.046796109043
 30
0.0
 41
1.0
  0
LINE
  5
2A50
330
1F
100
AcDbEntity
  8
AM_VIS
100
AcDbLine
 10
2220.647936425884
 20
1455.534948895567
 30
0.0
 11
2220.806539933425
 21
1455.971108541304
 31
0.0
  0
LINE
  5
2A51
330
1F
100
AcDbEntity
  8
AM_VIS
100
AcDbLine
 10
2213.275924521751
 20
1452.818966024581
 30
0.0
 11
2215.009175885166
 21
1457.585407273973
 31
0.0
  0
SPLINE
  5
2A52
330
1F
100
AcDbEntity
  8
AM_VIS
100
AcDbSpline
210
0.0000000000001636
220
0.0000000000008521
230
1.0
 70
    12
 71
     2
 72
     6
 73
     3
 74
     0
 42
0.0000000001
 43
0.0000000001
 40
5.403036174624904
 40
5.403036174624904
 40
5.403036174624904
 40
9.146099121473541
 40
9.146099121473541
 40
9.146099121473541
 10
2217.987159663127
 20
1456.996337730503
 30
0.0
 41
1.0
 10
2216.678680726158
 20
1457.472148253037
 30
0.0
 41
1.055507145448435
 10
2215.009175885166
 20
1457.585407273974
 30
-0.0000000000001137
 41
1.034106888207567
  0
SPLINE
  5
2A53
330
1F
100
AcDbEntity
  8
AM_VIS
100
AcDbSpline
210
0.0
220
0.0
230
1.0
 70
    12
 71
     2
 72
     6
 73
     3
 74
     0
 42
0.0000000001
 43
0.0000000001
 40
1.659973227912226
 40
1.659973227912226
 40
1.659973227912226
 40
5.403036174624904
 40
5.403036174624904
 40
5.403036174624904
 10
2220.647936425883
 20
1455.534948895566
 30
0.0
 41
1.034106888209122
 10
2219.295638600055
 20
1456.520527207985
 30
0.0
 41
1.055507145446419
 10
2217.987159663127
 20
1456.996337730503
 30
0.0
 41
1.0
  0
LINE
  5
2A54
330
1F
100
AcDbEntity
  8
AM_VIS
100
AcDbLine
 10
2218.914685062445
 20
1450.76850764611
 30
0.0
 11
2220.647936425884
 21
1455.534948895567
 31
0.0
  0
LINE
  5
2A55
330
1F
100
AcDbEntity
  8
AM_VIS
100
AcDbLine
 10
2218.756081554904
 20
1450.332348000373
 30
0.0
 11
2218.914685062445
 21
1450.76850764611
 31
0.0
  0
SPLINE
  5
2A56
330
1F
100
AcDbEntity
  8
AM_VIS
100
AcDbSpline
210
-0.0000000000001636
220
-0.0000000000008521
230
1.0
 70
    12
 71
     2
 72
     6
 73
     3
 74
     0
 42
0.0000000001
 43
0.0000000001
 40
5.403036174624906
 40
5.403036174624906
 40
5.403036174624906
 40
9.146099121337583
 40
9.146099121337583
 40
9.146099121337583
 10
2215.936701284607
 20
1451.357577189572
 30
0.0
 41
1.0
 10
2217.24518022153
 20
1450.881766667053
 30
0.0
 41
1.055507145446417
 10
2218.914685062448
 20
1450.768507646111
 30
-0.0000000000001137
 41
1.03410688820912
  0
SPLINE
  5
2A57
330
1F
100
AcDbEntity
  8
AM_VIS
100
AcDbSpline
210
0.0
220
0.0
230
1.0
 70
    12
 71
     2
 72
     6
 73
     3
 74
     0
 42
0.0000000001
 43
0.0000000001
 40
5.403036174764437
 40
5.403036174764437
 40
5.403036174764437
 40
9.146099121898842
 40
9.146099121898842
 40
9.146099121898842
 10
2210.29794074362
 20
1453.408035568113
 30
0.0
 41
1.0
 10
2211.606419680876
 20
1452.932225045474
 30
0.0
 41
1.055507145648788
 10
2213.27592452175
 20
1452.818966024581
 30
0.0
 41
1.03410688832679
  0
SPLINE
  5
2A58
330
1F
100
AcDbEntity
  8
AM_VIS
100
AcDbSpline
210
0.0
220
0.0
230
1.0
 70
    12
 71
     2
 72
     6
 73
     3
 74
     0
 42
0.0000000001
 43
0.0000000001
 40
1.659973227776267
 40
1.659973227776267
 40
1.659973227776267
 40
5.403036174624906
 40
5.403036174624906
 40
5.403036174624906
 10
2213.275924521752
 20
1452.818966024581
 30
0.0
 41
1.034106888207565
 10
2214.628222347637
 20
1451.833387712106
 30
0.0
 41
1.055507145448432
 10
2215.936701284607
 20
1451.357577189572
 30
0.0
 41
1.0
  0
LINE
  5
2A59
330
1F
100
AcDbEntity
  8
AM_VIS
100
AcDbLine
 10
2207.478560473044
 20
1454.433264757414
 30
0.0
 11
2207.637163980596
 21
1454.869424403183
 31
0.0
  0
SPLINE
  5
2A5A
330
1F
100
AcDbEntity
  8
AM_VIS
100
AcDbSpline
210
0.0
220
0.0
230
1.0
 70
    12
 71
     2
 72
     6
 73
     3
 74
     0
 42
0.0000000001
 43
0.0000000001
 40
1.659973227630266
 40
1.659973227630266
 40
1.659973227630266
 40
5.403036174764437
 40
5.403036174764437
 40
5.403036174764437
 10
2207.637163980597
 20
1454.869424403184
 30
0.0
 41
1.034106888326792
 10
2208.989461806365
 20
1453.883846090751
 30
0.0
 41
1.055507145648785
 10
2210.29794074362
 20
1453.408035568113
 30
0.0
 41
1.0
  0
LINE
  5
2A5B
330
1F
100
AcDbEntity
  8
AM_VIS
100
AcDbLine
 10
2220.806539933537
 20
1455.971108541263
 30
0.0
 11
2221.49002605971
 21
1457.85069538824
 31
0.0
  0
LINE
  5
2A5C
330
1F
100
AcDbEntity
  8
AM_VIS
100
AcDbLine
 10
2209.529018851675
 20
1460.072025298304
 30
0.0
 11
2210.212504977849
 21
1461.95161214528
 31
0.0
  0
LINE
  5
2A5D
330
1F
100
AcDbEntity
  8
AM_VIS
100
AcDbLine
 10
2207.478560473155
 20
1454.433264757373
 30
0.0
 11
2206.795074346981
 21
1452.553677910396
 31
0.0
  0
LINE
  5
2A5E
330
1F
100
AcDbEntity
  8
AM_VIS
100
AcDbLine
 10
2218.756081555016
 20
1450.332348000332
 30
0.0
 11
2218.072595428843
 21
1448.452761153355
 31
0.0
  0
LINE
  5
2A5F
330
1F
100
AcDbEntity
  8
AM_VIS
100
AcDbLine
 10
2210.212504977849
 20
1461.95161214528
 30
0.0
 11
2221.49002605971
 21
1457.85069538824
 31
0.0
  0
LINE
  5
2A60
330
1F
100
AcDbEntity
  8
AM_VIS
100
AcDbLine
 10
2209.529018851675
 20
1460.072025298304
 30
0.0
 11
2212.348399122141
 21
1459.046796109043
 31
0.0
  0
LINE
  5
2A61
330
1F
100
AcDbEntity
  8
AM_VIS
100
AcDbLine
 10
2212.348399122141
 20
1459.046796109043
 30
0.0
 11
2217.987159663071
 21
1456.996337730523
 31
0.0
  0
LINE
  5
2A62
330
1F
100
AcDbEntity
  8
AM_VIS
100
AcDbLine
 10
2217.987159663071
 20
1456.996337730523
 30
0.0
 11
2220.806539933537
 21
1455.971108541263
 31
0.0
  0
LINE
  5
2A63
330
1F
100
AcDbEntity
  8
AM_VIS
100
AcDbLine
 10
2207.478560473155
 20
1454.433264757373
 30
0.0
 11
2210.29794074362
 21
1453.408035568113
 31
0.0
  0
LINE
  5
2A64
330
1F
100
AcDbEntity
  8
AM_VIS
100
AcDbLine
 10
2210.29794074362
 20
1453.408035568113
 30
0.0
 11
2215.936701284551
 21
1451.357577189592
 31
0.0
  0
LINE
  5
2A65
330
1F
100
AcDbEntity
  8
AM_VIS
100
AcDbLine
 10
2215.936701284551
 20
1451.357577189592
 30
0.0
 11
2218.756081555016
 21
1450.332348000332
 31
0.0
  0
LINE
  5
2A66
330
1F
100
AcDbEntity
  8
AM_VIS
100
AcDbLine
 10
2218.072595428843
 20
1448.452761153355
 30
0.0
 11
2206.795074346981
 21
1452.553677910396
 31
0.0
  0
LINE
  5
2A67
330
1F
100
AcDbEntity
  8
AM_VIS
100
AcDbLine
 10
2215.85126551878
 20
1459.90115376676
 30
0.0
 11
2220.616697005013
 21
1473.006090353905
 31
0.0
  0
LINE
  5
2A68
330
1F
100
AcDbEntity
  8
AM_VIS
100
AcDbLine
 10
2220.033346253303
 20
1458.380397136024
 30
0.0
 11
2223.92076848941
 21
1469.070808285319
 31
0.0
  0
LINE
  5
2A69
330
1F
100
AcDbEntity
  8
AM_VIS
100
AcDbLine
 10
2211.669184784256
 20
1461.421910397496
 30
0.0
 11
2215.556607020363
 21
1472.11232154679
 31
0.0
  0
LINE
  5
2A6A
330
1F
100
AcDbEntity
  8
AM_VIS
100
AcDbLine
 10
2221.356592440515
 20
1475.040802801531
 30
0.0
 11
2216.296502455863
 21
1474.147033994417
 31
0.0
  0
LINE
  5
2A6B
330
1F
100
AcDbEntity
  8
AM_VIS
100
AcDbLine
 10
2215.556607020363
 20
1472.11232154679
 30
0.0
 11
2220.616697005013
 21
1473.006090353905
 31
0.0
  0
LINE
  5
2A6C
330
1F
100
AcDbEntity
  8
AM_VIS
100
AcDbLine
 10
2215.556607020363
 20
1472.11232154679
 30
0.0
 11
2216.296502455863
 21
1474.147033994417
 31
0.0
  0
LINE
  5
2A6D
330
1F
100
AcDbEntity
  8
AM_VIS
100
AcDbLine
 10
2220.616697005013
 20
1473.006090353905
 30
0.0
 11
2223.92076848941
 21
1469.070808285319
 31
0.0
  0
LINE
  5
2A6E
330
1F
100
AcDbEntity
  8
AM_VIS
100
AcDbLine
 10
2220.616697005013
 20
1473.006090353905
 30
0.0
 11
2221.356592440515
 21
1475.040802801531
 31
0.0
  0
LINE
  5
2A6F
330
1F
100
AcDbEntity
  8
AM_VIS
100
AcDbLine
 10
2224.660663924911
 20
1471.105520732945
 30
0.0
 11
2221.356592440515
 21
1475.040802801531
 31
0.0
  0
LINE
  5
2A70
330
1F
100
AcDbEntity
  8
AM_VIS
100
AcDbLine
 10
2224.660663924911
 20
1471.105520732945
 30
0.0
 11
2223.92076848941
 21
1469.070808285319
 31
0.0
  0
ARC
  5
2A71
330
1F
100
AcDbEntity
  8
AM_VIS
100
AcDbCircle
 10
2219.600573940259
 20
1470.211751925831
 30
0.0
 40
5.0
100
AcDbArc
 50
312.8901403608143
 51
7.143646595379838
  0
LINE
  5
2A72
330
1F
100
AcDbEntity
  8
AM_VIS
100
AcDbLine
 10
2195.563983899925
 20
1386.554079448479
 30
0.0
 11
2193.830732536509
 21
1381.787638199087
 31
0.0
  0
LINE
  5
2A73
330
1F
100
AcDbEntity
  8
AM_VIS
100
AcDbLine
 10
2193.672129028957
 20
1381.351478553318
 30
0.0
 11
2193.830732536509
 21
1381.787638199087
 31
0.0
  0
SPLINE
  5
2A74
330
1F
100
AcDbEntity
  8
AM_VIS
100
AcDbSpline
210
0.0
220
0.0
230
1.0
 70
    12
 71
     2
 72
     6
 73
     3
 74
     0
 42
0.0000000001
 43
0.0000000001
 40
5.403036174764437
 40
5.403036174764437
 40
5.403036174764437
 40
9.146099121898608
 40
9.146099121898608
 40
9.146099121898608
 10
2190.85274875838
 20
1382.376707742619
 30
0.0
 41
1.0
 10
2192.161227695636
 20
1381.900897219981
 30
0.0
 41
1.055507145648787
 10
2193.830732536508
 20
1381.787638199087
 30
0.0
 41
1.034106888326794
  0
SPLINE
  5
2A75
330
1F
100
AcDbEntity
  8
AM_VIS
100
AcDbSpline
210
0.0000000000012978
220
0.0000000000023587
230
1.0
 70
    12
 71
     2
 72
     6
 73
     3
 74
     0
 42
0.0000000001
 43
0.0000000001
 40
1.659973227630032
 40
1.659973227630032
 40
1.659973227630032
 40
5.403036174764437
 40
5.403036174764437
 40
5.403036174764437
 10
2188.191971995355
 20
1383.838096577689
 30
-0.0000000000001137
 41
1.034106888326791
 10
2189.544269821125
 20
1382.852518265257
 30
0.0
 41
1.05550714564879
 10
2190.85274875838
 20
1382.376707742619
 30
0.0
 41
1.0
  0
LINE
  5
2A76
330
1F
100
AcDbEntity
  8
AM_VIS
100
AcDbLine
 10
2182.394607947096
 20
1385.452395310359
 30
0.0
 11
2182.553211454637
 21
1385.888554956095
 31
0.0
  0
LINE
  5
2A77
330
1F
100
AcDbEntity
  8
AM_VIS
100
AcDbLine
 10
2189.92522335877
 20
1388.604537827081
 30
0.0
 11
2188.191971995355
 21
1383.838096577689
 31
0.0
  0
SPLINE
  5
2A78
330
1F
100
AcDbEntity
  8
AM_VIS
100
AcDbSpline
210
-0.0000000000001636
220
-0.0000000000008521
230
1.0
 70
    12
 71
     2
 72
     6
 73
     3
 74
     0
 42
0.0000000001
 43
0.0000000001
 40
5.403036174624904
 40
5.403036174624904
 40
5.403036174624904
 40
9.146099121473541
 40
9.146099121473541
 40
9.146099121473541
 10
2185.213988217393
 20
1384.42716612116
 30
0.0
 41
1.0
 10
2186.522467154363
 20
1383.951355598625
 30
0.0
 41
1.055507145448435
 10
2188.191971995355
 20
1383.838096577689
 30
-0.0000000000001137
 41
1.034106888207567
  0
SPLINE
  5
2A79
330
1F
100
AcDbEntity
  8
AM_VIS
100
AcDbSpline
210
0.0
220
0.0
230
1.0
 70
    12
 71
     2
 72
     6
 73
     3
 74
     0
 42
0.0000000001
 43
0.0000000001
 40
1.659973227912226
 40
1.659973227912226
 40
1.659973227912226
 40
5.403036174624904
 40
5.403036174624904
 40
5.403036174624904
 10
2182.553211454634
 20
1385.888554956095
 30
0.0
 41
1.034106888209122
 10
2183.90550928047
 20
1384.902976643678
 30
0.0
 41
1.055507145446419
 10
2185.213988217393
 20
1384.42716612116
 30
0.0
 41
1.0
  0
LINE
  5
2A7A
330
1F
100
AcDbEntity
  8
AM_VIS
100
AcDbLine
 10
2184.286462818076
 20
1390.654996205552
 30
0.0
 11
2182.553211454637
 21
1385.888554956095
 31
0.0
  0
LINE
  5
2A7B
330
1F
100
AcDbEntity
  8
AM_VIS
100
AcDbLine
 10
2184.286462818075
 20
1390.654996205552
 30
0.0
 11
2184.445066325616
 21
1391.091155851289
 31
0.0
  0
SPLINE
  5
2A7C
330
1F
100
AcDbEntity
  8
AM_VIS
100
AcDbSpline
210
0.0000000000001636
220
0.0000000000008521
230
1.0
 70
    12
 71
     2
 72
     6
 73
     3
 74
     0
 42
0.0000000001
 43
0.0000000001
 40
5.403036174624906
 40
5.403036174624906
 40
5.403036174624906
 40
9.146099121337583
 40
9.146099121337583
 40
9.146099121337583
 10
2187.264446595914
 20
1390.06592666209
 30
0.0
 41
1.0
 10
2185.955967658989
 20
1390.541737184608
 30
0.0
 41
1.055507145446417
 10
2184.286462818076
 20
1390.654996205552
 30
-0.0000000000001137
 41
1.03410688820912
  0
SPLINE
  5
2A7D
330
1F
100
AcDbEntity
  8
AM_VIS
100
AcDbSpline
210
0.0
220
0.0
230
1.0
 70
    12
 71
     2
 72
     6
 73
     3
 74
     0
 42
0.0000000001
 43
0.0000000001
 40
5.403036174764437
 40
5.403036174764437
 40
5.403036174764437
 40
9.146099121898842
 40
9.146099121898842
 40
9.146099121898842
 10
2192.9032071369
 20
1388.015468283549
 30
0.0
 41
1.0
 10
2191.594728199643
 20
1388.491278806187
 30
0.0
 41
1.055507145648788
 10
2189.92522335877
 20
1388.604537827081
 30
0.0
 41
1.03410688832679
  0
SPLINE
  5
2A7E
330
1F
100
AcDbEntity
  8
AM_VIS
100
AcDbSpline
210
0.0
220
0.0
230
1.0
 70
    12
 71
     2
 72
     6
 73
     3
 74
     0
 42
0.0000000001
 43
0.0000000001
 40
1.659973227776267
 40
1.659973227776267
 40
1.659973227776267
 40
5.403036174624906
 40
5.403036174624906
 40
5.403036174624906
 10
2189.92522335877
 20
1388.604537827081
 30
0.0
 41
1.034106888207565
 10
2188.572925532883
 20
1389.590116139556
 30
0.0
 41
1.055507145448432
 10
2187.264446595914
 20
1390.06592666209
 30
0.0
 41
1.0
  0
LINE
  5
2A7F
330
1F
100
AcDbEntity
  8
AM_VIS
100
AcDbLine
 10
2195.563983899925
 20
1386.554079448479
 30
0.0
 11
2195.722587407478
 21
1386.990239094249
 31
0.0
  0
SPLINE
  5
2A80
330
1F
100
AcDbEntity
  8
AM_VIS
100
AcDbSpline
210
0.0
220
0.0
230
1.0
 70
    12
 71
     2
 72
     6
 73
     3
 74
     0
 42
0.0000000001
 43
0.0000000001
 40
1.659973227630266
 40
1.659973227630266
 40
1.659973227630266
 40
5.403036174764437
 40
5.403036174764437
 40
5.403036174764437
 10
2195.563983899927
 20
1386.55407944848
 30
0.0
 41
1.034106888326792
 10
2194.211686074155
 20
1387.539657760911
 30
0.0
 41
1.055507145648785
 10
2192.9032071369
 20
1388.015468283549
 30
0.0
 41
1.0
  0
LINE
  5
2A81
330
1F
100
AcDbEntity
  8
AM_VIS
100
AcDbLine
 10
2182.394607946983
 20
1385.452395310399
 30
0.0
 11
2181.71112182081
 21
1383.572808463422
 31
0.0
  0
LINE
  5
2A82
330
1F
100
AcDbEntity
  8
AM_VIS
100
AcDbLine
 10
2193.672129028845
 20
1381.351478553359
 30
0.0
 11
2192.988642902671
 21
1379.471891706382
 31
0.0
  0
LINE
  5
2A83
330
1F
100
AcDbEntity
  8
AM_VIS
100
AcDbLine
 10
2195.722587407366
 20
1386.990239094289
 30
0.0
 11
2196.406073533539
 21
1388.869825941266
 31
0.0
  0
LINE
  5
2A84
330
1F
100
AcDbEntity
  8
AM_VIS
100
AcDbLine
 10
2184.445066325504
 20
1391.09115585133
 30
0.0
 11
2185.128552451678
 21
1392.970742698307
 31
0.0
  0
LINE
  5
2A85
330
1F
100
AcDbEntity
  8
AM_VIS
100
AcDbLine
 10
2192.988642902671
 20
1379.471891706382
 30
0.0
 11
2181.71112182081
 21
1383.572808463422
 31
0.0
  0
LINE
  5
2A86
330
1F
100
AcDbEntity
  8
AM_VIS
100
AcDbLine
 10
2193.672129028845
 20
1381.351478553359
 30
0.0
 11
2190.85274875838
 21
1382.376707742619
 31
0.0
  0
LINE
  5
2A87
330
1F
100
AcDbEntity
  8
AM_VIS
100
AcDbLine
 10
2190.85274875838
 20
1382.376707742619
 30
0.0
 11
2185.21398821745
 21
1384.427166121139
 31
0.0
  0
LINE
  5
2A88
330
1F
100
AcDbEntity
  8
AM_VIS
100
AcDbLine
 10
2185.21398821745
 20
1384.427166121139
 30
0.0
 11
2182.394607946983
 21
1385.452395310399
 31
0.0
  0
LINE
  5
2A89
330
1F
100
AcDbEntity
  8
AM_VIS
100
AcDbLine
 10
2195.722587407366
 20
1386.990239094289
 30
0.0
 11
2192.9032071369
 21
1388.015468283549
 31
0.0
  0
LINE
  5
2A8A
330
1F
100
AcDbEntity
  8
AM_VIS
100
AcDbLine
 10
2192.9032071369
 20
1388.015468283549
 30
0.0
 11
2187.264446595969
 21
1390.06592666207
 31
0.0
  0
LINE
  5
2A8B
330
1F
100
AcDbEntity
  8
AM_VIS
100
AcDbLine
 10
2187.264446595969
 20
1390.06592666207
 30
0.0
 11
2184.445066325504
 21
1391.09115585133
 31
0.0
  0
LINE
  5
2A8C
330
1F
100
AcDbEntity
  8
AM_VIS
100
AcDbLine
 10
2185.128552451678
 20
1392.970742698307
 30
0.0
 11
2196.406073533539
 21
1388.869825941266
 31
0.0
  0
LINE
  5
2A8D
330
1F
100
AcDbEntity
  8
AM_VIS
100
AcDbLine
 10
2187.349882361741
 20
1381.522350084902
 30
0.0
 11
2182.584450875507
 21
1368.417413497758
 31
0.0
  0
LINE
  5
2A8E
330
1F
100
AcDbEntity
  8
AM_VIS
100
AcDbLine
 10
2183.167801627217
 20
1383.043106715638
 30
0.0
 11
2179.28037939111
 21
1372.352695566343
 31
0.0
  0
LINE
  5
2A8F
330
1F
100
AcDbEntity
  8
AM_VIS
100
AcDbLine
 10
2191.531963096265
 20
1380.001593454166
 30
0.0
 11
2187.644540860158
 21
1369.311182304872
 31
0.0
  0
LINE
  5
2A90
330
1F
100
AcDbEntity
  8
AM_VIS
100
AcDbLine
 10
2181.844555440006
 20
1366.382701050131
 30
0.0
 11
2186.904645424657
 21
1367.276469857245
 31
0.0
  0
LINE
  5
2A91
330
1F
100
AcDbEntity
  8
AM_VIS
100
AcDbLine
 10
2187.644540860158
 20
1369.311182304872
 30
0.0
 11
2182.584450875507
 21
1368.417413497758
 31
0.0
  0
LINE
  5
2A92
330
1F
100
AcDbEntity
  8
AM_VIS
100
AcDbLine
 10
2187.644540860158
 20
1369.311182304872
 30
0.0
 11
2186.904645424657
 21
1367.276469857245
 31
0.0
  0
LINE
  5
2A93
330
1F
100
AcDbEntity
  8
AM_VIS
100
AcDbLine
 10
2182.584450875507
 20
1368.417413497758
 30
0.0
 11
2179.28037939111
 21
1372.352695566343
 31
0.0
  0
LINE
  5
2A94
330
1F
100
AcDbEntity
  8
AM_VIS
100
AcDbLine
 10
2182.584450875507
 20
1368.417413497758
 30
0.0
 11
2181.844555440006
 21
1366.382701050131
 31
0.0
  0
LINE
  5
2A95
330
1F
100
AcDbEntity
  8
AM_VIS
100
AcDbLine
 10
2178.540483955609
 20
1370.317983118717
 30
0.0
 11
2181.844555440006
 21
1366.382701050131
 31
0.0
  0
LINE
  5
2A96
330
1F
100
AcDbEntity
  8
AM_VIS
100
AcDbLine
 10
2178.540483955609
 20
1370.317983118717
 30
0.0
 11
2179.28037939111
 21
1372.352695566343
 31
0.0
  0
LINE
  5
2A97
330
1F
100
AcDbEntity
  8
AM_VIS
100
AcDbLine
 10
2209.614454617448
 20
1451.528448721135
 30
0.0
 11
2187.947932722142
 21
1391.945513509047
 31
0.0
  0
LINE
  5
2A98
330
1F
100
AcDbEntity
  8
AM_VIS
100
AcDbLine
 10
2215.253215158379
 20
1449.477990342615
 30
0.0
 11
2193.586693263073
 21
1389.895055130526
 31
0.0
  0
LINE
  5
2A99
102
{ACAD_REACTORS
330
2C38
102
}
330
1F
100
AcDbEntity
  8
0
  6
Continuous
 62
     7
100
AcDbLine
 10
2220.153838904142
 20
1458.711751925832
 30
0.0
 11
2289.100573940259
 21
1458.711751925832
 31
0.0
  0
LINE
  5
2A9A
330
1F
100
AcDbEntity
  8
0
  6
Continuous
 62
     7
100
AcDbLine
 10
2221.439501164288
 20
1457.711751925832
 30
0.0
 11
2281.600573940258
 21
1457.711751925832
 31
0.0
  0
LINE
  5
2A9B
330
1F
100
AcDbEntity
  8
0
  6
Continuous
 62
     7
100
AcDbLine
 10
2194.530410255326
 20
1383.711751925832
 30
0.0
 11
2281.600573940258
 21
1383.711751925832
 31
0.0
  0
LINE
  5
2A9C
102
{ACAD_REACTORS
330
2C03
102
}
330
1F
100
AcDbEntity
  8
0
  6
Continuous
 62
     7
100
AcDbLine
 10
2194.166773891691
 20
1382.711751925832
 30
0.0
 11
2289.100573940259
 21
1382.711751925832
 31
0.0
  0
SPLINE
  5
2A9D
330
1F
100
AcDbEntity
  8
AM_VIS
100
AcDbSpline
210
0.0000000000308607
220
-0.0000000000322569
230
-1.0
 70
    12
 71
     2
 72
     6
 73
     3
 74
     0
 42
0.0000000001
 43
0.0000000001
 40
1.659973227630032
 40
1.659973227630032
 40
1.659973227630032
 40
3.614443023209926
 40
3.614443023209926
 40
3.614443023209926
 10
2375.869142447502
 20
1457.585407273975
 30
0.0000000000001137
 41
1.034106888326791
 10
2376.358552567988
 20
1458.10506933168
 30
-0.0000000000001137
 41
1.045281201220862
 10
2376.797345677846
 20
1458.471528619356
 30
0.0
 41
1.035486799389562
  0
SPLINE
  5
2A9E
330
1F
100
AcDbEntity
  8
AM_VIS
100
AcDbSpline
210
-0.0000000000247953
220
-0.0000000000259171
230
-1.0
 70
    12
 71
     2
 72
     6
 73
     3
 74
     0
 42
0.0000000001
 43
0.0000000001
 40
7.191629326520455
 40
7.191629326520455
 40
7.191629326520455
 40
9.14609912205179
 40
9.14609912205179
 40
9.14609912205179
 10
2388.797345677843
 20
1458.471528619283
 30
-0.0000000000001137
 41
1.035486799516021
 10
2389.236138787644
 20
1458.105069331667
 30
0.0
 41
1.045281201381515
 10
2389.72554890805
 20
1457.585407274038
 30
0.0
 41
1.034106888449133
  0
SPLINE
  5
2A9F
330
1F
100
AcDbEntity
  8
AM_VIS
100
AcDbSpline
210
0.0000000000006017
220
-0.0000000000007084
230
1.0
 70
    12
 71
     2
 72
     6
 73
     3
 74
     0
 42
0.0000000001
 43
0.0000000001
 40
5.403036174764437
 40
5.403036174764437
 40
5.403036174764437
 40
9.146099121626717
 40
9.146099121626717
 40
9.146099121626717
 10
2387.993498100552
 20
1456.996337730524
 30
0.0
 41
1.0
 10
2387.189650523287
 20
1456.520527207918
 30
0.0000000000001137
 41
1.055507145644755
 10
2386.261447293051
 20
1455.534948895599
 30
0.0
 41
1.034106888329903
  0
SPLINE
  5
2AA0
330
1F
100
AcDbEntity
  8
AM_VIS
100
AcDbSpline
210
-0.000000000000495
220
0.0000000000014798
230
-1.0
 70
    12
 71
     2
 72
     6
 73
     3
 74
     0
 42
0.0000000001
 43
0.0000000001
 40
1.659973227902392
 40
1.659973227902392
 40
1.659973227902392
 40
5.403036174764437
 40
5.403036174764437
 40
5.403036174764437
 10
2389.725548908053
 20
1457.58540727404
 30
0.0000000000001137
 41
1.034106888329906
 10
2388.797345677818
 20
1457.47214825313
 30
0.0000000000001137
 41
1.055507145644751
 10
2387.993498100552
 20
1456.996337730524
 30
0.0
 41
1.0
  0
LINE
  5
2AA1
330
1F
100
AcDbEntity
  8
AM_VIS
100
AcDbLine
 10
2389.725548908052
 20
1452.818966024517
 30
0.0
 11
2389.725548908052
 21
1457.585407274039
 31
0.0
  0
SPLINE
  5
2AA2
330
1F
100
AcDbEntity
  8
AM_VIS
100
AcDbSpline
210
0.0
220
0.0
230
1.0
 70
    12
 71
     2
 72
     6
 73
     3
 74
     0
 42
0.0000000001
 43
0.0000000001
 40
5.403036174903729
 40
5.403036174903729
 40
5.403036174903729
 40
9.14609912218747
 40
9.14609912218747
 40
9.14609912218747
 10
2382.797345677845
 20
1455.971108541304
 30
0.0
 41
1.0
 10
2381.189650522907
 20
1455.971108541304
 30
0.0
 41
1.055507145846788
 10
2379.333244062502
 20
1455.534948895567
 30
0.0
 41
1.034106888447367
  0
SPLINE
  5
2AA3
330
1F
100
AcDbEntity
  8
AM_VIS
100
AcDbSpline
210
-0.000000000000078
220
-0.0000000000006061
230
1.0
 70
    12
 71
     2
 72
     6
 73
     3
 74
     0
 42
0.0000000001
 43
0.0000000001
 40
1.659973227756171
 40
1.659973227756171
 40
1.659973227756171
 40
5.403036174903729
 40
5.403036174903729
 40
5.403036174903729
 10
2386.261447293051
 20
1455.534948895599
 30
-0.0000000000001137
 41
1.034106888448917
 10
2384.405040832728
 20
1455.971108541304
 30
-0.0000000000001137
 41
1.055507145844757
 10
2382.797345677845
 20
1455.971108541304
 30
0.0
 41
1.0
  0
LINE
  5
2AA4
330
1F
100
AcDbEntity
  8
AM_VIS
100
AcDbLine
 10
2386.261447293052
 20
1450.768507646078
 30
0.0
 11
2386.261447293052
 21
1455.5349488956
 31
0.0
  0
LINE
  5
2AA5
330
1F
100
AcDbEntity
  8
AM_VIS
100
AcDbLine
 10
2375.869142447501
 20
1452.818966024581
 30
0.0
 11
2375.869142447501
 21
1457.585407273974
 31
0.0
  0
SPLINE
  5
2AA6
330
1F
100
AcDbEntity
  8
AM_VIS
100
AcDbSpline
210
-0.0000000000001685
220
-0.0000000000005038
230
1.0
 70
    12
 71
     2
 72
     6
 73
     3
 74
     0
 42
0.0000000001
 43
0.0000000001
 40
5.403036174624904
 40
5.403036174624904
 40
5.403036174624904
 40
9.146099121473541
 40
9.146099121473541
 40
9.146099121473541
 10
2377.601193255035
 20
1456.996337730503
 30
0.0
 41
1.0
 10
2376.797345677891
 20
1457.472148253038
 30
0.0000000000001137
 41
1.055507145448435
 10
2375.869142447502
 20
1457.585407273974
 30
0.0
 41
1.034106888207567
  0
SPLINE
  5
2AA7
330
1F
100
AcDbEntity
  8
AM_VIS
100
AcDbSpline
210
0.0
220
0.0
230
1.0
 70
    12
 71
     2
 72
     6
 73
     3
 74
     0
 42
0.0000000001
 43
0.0000000001
 40
1.659973227912226
 40
1.659973227912226
 40
1.659973227912226
 40
5.403036174624904
 40
5.403036174624904
 40
5.403036174624904
 10
2379.3332440625
 20
1455.534948895566
 30
0.0
 41
1.034106888209122
 10
2378.405040832154
 20
1456.520527207985
 30
0.0
 41
1.055507145446419
 10
2377.601193255035
 20
1456.996337730503
 30
0.0
 41
1.0
  0
LINE
  5
2AA8
330
1F
100
AcDbEntity
  8
AM_VIS
100
AcDbLine
 10
2379.333244062501
 20
1450.76850764611
 30
0.0
 11
2379.333244062501
 21
1455.534948895567
 31
0.0
  0
SPLINE
  5
2AA9
330
1F
100
AcDbEntity
  8
AM_VIS
100
AcDbSpline
210
-0.0000000000028881
220
0.0000000000034005
230
-1.0
 70
    12
 71
     2
 72
     6
 73
     3
 74
     0
 42
0.0000000001
 43
0.0000000001
 40
5.403036174764437
 40
5.403036174764437
 40
5.403036174764437
 40
9.146099121626482
 40
9.146099121626482
 40
9.146099121626482
 10
2387.993498100552
 20
1451.357577189593
 30
0.0
 41
1.0
 10
2388.797345677822
 20
1451.833387712199
 30
0.0
 41
1.055507145644749
 10
2389.725548908052
 20
1452.818966024517
 30
0.0000000000001137
 41
1.034106888329904
  0
SPLINE
  5
2AAA
330
1F
100
AcDbEntity
  8
AM_VIS
100
AcDbSpline
210
0.0000000000003265
220
-0.000000000000976
230
1.0
 70
    12
 71
     2
 72
     6
 73
     3
 74
     0
 42
0.0000000001
 43
0.0000000001
 40
1.659973227902159
 40
1.659973227902159
 40
1.659973227902159
 40
5.403036174764437
 40
5.403036174764437
 40
5.403036174764437
 10
2386.26144729305
 20
1450.768507646078
 30
-0.0000000000001137
 41
1.034106888329902
 10
2387.189650523286
 20
1450.881766666987
 30
0.0
 41
1.055507145644753
 10
2387.993498100552
 20
1451.357577189593
 30
0.0
 41
1.0
  0
SPLINE
  5
2AAB
330
1F
100
AcDbEntity
  8
AM_VIS
100
AcDbSpline
210
0.000000000000156
220
-0.0000000000012122
230
1.0
 70
    12
 71
     2
 72
     6
 73
     3
 74
     0
 42
0.0000000001
 43
0.0000000001
 40
5.403036174903726
 40
5.403036174903726
 40
5.403036174903726
 40
9.146099122051285
 40
9.146099122051285
 40
9.146099122051285
 10
2382.797345677845
 20
1450.332348000373
 30
0.0
 41
1.0
 10
2384.405040832727
 20
1450.332348000373
 30
0.0
 41
1.055507145844764
 10
2386.261447293052
 20
1450.768507646078
 30
0.0000000000001137
 41
1.034106888448921
  0
SPLINE
  5
2AAC
330
1F
100
AcDbEntity
  8
AM_VIS
100
AcDbSpline
210
0.000000000000156
220
0.0000000000012122
230
1.0
 70
    12
 71
     2
 72
     6
 73
     3
 74
     0
 42
0.0000000001
 43
0.0000000001
 40
1.659973227619985
 40
1.659973227619985
 40
1.659973227619985
 40
5.403036174903726
 40
5.403036174903726
 40
5.403036174903726
 10
2379.333244062499
 20
1450.76850764611
 30
-0.0000000000001137
 41
1.034106888447368
 10
2381.189650522908
 20
1450.332348000373
 30
0.0
 41
1.05550714584679
 10
2382.797345677845
 20
1450.332348000373
 30
0.0
 41
1.0
  0
SPLINE
  5
2AAD
330
1F
100
AcDbEntity
  8
AM_VIS
100
AcDbSpline
210
0.0000000000003265
220
0.000000000000976
230
1.0
 70
    12
 71
     2
 72
     6
 73
     3
 74
     0
 42
0.0000000001
 43
0.0000000001
 40
5.403036174624906
 40
5.403036174624906
 40
5.403036174624906
 40
9.146099121337583
 40
9.146099121337583
 40
9.146099121337583
 10
2377.601193255035
 20
1451.357577189572
 30
0.0
 41
1.0
 10
2378.405040832152
 20
1450.881766667053
 30
0.0
 41
1.055507145446417
 10
2379.333244062504
 20
1450.768507646112
 30
0.0000000000001137
 41
1.03410688820912
  0
SPLINE
  5
2AAE
330
1F
100
AcDbEntity
  8
AM_VIS
100
AcDbSpline
210
0.0
220
0.0
230
1.0
 70
    12
 71
     2
 72
     6
 73
     3
 74
     0
 42
0.0000000001
 43
0.0000000001
 40
1.659973227776267
 40
1.659973227776267
 40
1.659973227776267
 40
5.403036174624906
 40
5.403036174624906
 40
5.403036174624906
 10
2375.869142447502
 20
1452.818966024582
 30
0.0
 41
1.034106888207565
 10
2376.79734567789
 20
1451.833387712107
 30
0.0
 41
1.055507145448432
 10
2377.601193255035
 20
1451.357577189572
 30
0.0
 41
1.0
  0
LINE
  5
2AAF
330
1F
100
AcDbEntity
  8
AM_VIS
100
AcDbLine
 10
2388.797345677845
 20
1458.021566919784
 30
0.0
 11
2388.797345677845
 21
1459.90115376676
 31
0.0
  0
LINE
  5
2AB0
330
1F
100
AcDbEntity
  8
AM_VIS
100
AcDbLine
 10
2376.797345677845
 20
1458.021566919784
 30
0.0
 11
2376.797345677845
 21
1459.90115376676
 31
0.0
  0
LINE
  5
2AB1
330
1F
100
AcDbEntity
  8
AM_VIS
100
AcDbLine
 10
2386.915437187992
 20
1450.891563921747
 30
0.0
 11
2387.095837702061
 21
1450.949745422497
 31
0.0
  0
LINE
  5
2AB2
330
1F
100
AcDbEntity
  8
AM_VIS
100
AcDbLine
 10
2378.679254167698
 20
1450.891563921747
 30
0.0
 11
2378.498853653555
 21
1450.949745422521
 31
0.0
  0
LINE
  5
2AB3
330
1F
100
AcDbEntity
  8
AM_VIS
100
AcDbLine
 10
2376.797345677845
 20
1451.932844679208
 30
0.0
 11
2376.797345677845
 21
1450.503219531876
 31
0.0
  0
LINE
  5
2AB4
330
1F
100
AcDbEntity
  8
AM_VIS
100
AcDbLine
 10
2388.797345677845
 20
1451.93284467928
 30
0.0
 11
2388.797345677845
 21
1450.503219531876
 31
0.0
  0
ELLIPSE
  5
2AB5
330
1F
100
AcDbEntity
  8
AM_VIS
100
AcDbEllipse
 10
2382.797345677845
 20
1459.90115376676
 30
0.0
 11
-6.000000000000052
 21
0.0000000000000403
 31
0.0
210
0.0
220
0.0
230
1.0
 40
0.3417430630867071
 41
-0.5425344050258847
 42
3.684127058615975
  0
ELLIPSE
  5
2AB6
330
1F
100
AcDbEntity
  8
AM_VIS
100
AcDbEllipse
 10
2382.797345677845
 20
1458.021566919784
 30
0.0
 11
6.0
 21
0.000000000000011
 31
0.0
210
0.0
220
0.0
230
1.0
 40
0.3417430630866643
 41
3.14159265359001
 42
3.665191429188356
  0
ELLIPSE
  5
2AB7
330
1F
100
AcDbEntity
  8
AM_VIS
100
AcDbEllipse
 10
2382.797345677845
 20
1458.021566919784
 30
0.0
 11
-6.000000000000261
 21
0.0000000000003454
 31
0.0
210
0.0
220
0.0
230
1.0
 40
0.3417430630866953
 41
0.5235987755986593
 42
1.570796326795143
  0
ELLIPSE
  5
2AB8
330
1F
100
AcDbEntity
  8
AM_VIS
100
AcDbEllipse
 10
2382.797345677845
 20
1458.021566919784
 30
0.0
 11
6.000000000000206
 21
0.0000000000001443
 31
0.0
210
0.0
220
0.0
230
1.0
 40
0.3417430630866985
 41
-1.570796326794677
 42
-0.5235987755981786
  0
ELLIPSE
  5
2AB9
330
1F
100
AcDbEntity
  8
AM_VIS
100
AcDbEllipse
 10
2382.797345677845
 20
1458.021566919784
 30
0.0
 11
5.999999999999998
 21
0.0000000000003534
 31
0.0
210
0.0
220
0.0
230
1.0
 40
0.341743063086799
 41
-0.5235987755981303
 42
0.0000000000000491
  0
ELLIPSE
  5
2ABA
330
1F
100
AcDbEntity
  8
AM_VIS
100
AcDbEllipse
 10
2382.797345677845
 20
1452.382806378853
 30
0.0
 11
-6.000000000000269
 21
0.0000000000001456
 31
0.0
210
0.0
220
0.0
230
1.0
 40
0.3417430630866949
 41
1.570796326795131
 42
2.32725271146344
  0
ELLIPSE
  5
2ABB
330
1F
100
AcDbEntity
  8
AM_VIS
100
AcDbEllipse
 10
2382.797345677845
 20
1452.382806378853
 30
0.0
 11
-6.00000000000042
 21
0.0000000000001283
 31
0.0
210
0.0
220
0.0
230
1.0
 40
0.3417430630866863
 41
0.814339942126808
 42
1.570796326795131
  0
ELLIPSE
  5
2ABC
330
1F
100
AcDbEntity
  8
AM_VIS
100
AcDbEllipse
 10
2382.797345677845
 20
1450.503219531876
 30
0.0
 11
6.0
 21
0.0000000000026613
 31
0.0
210
0.0
220
0.0
230
1.0
 40
0.3417430630867102
 41
3.141592653588718
 42
6.283185307178509
  0
LINE
  5
2ABD
330
1F
100
AcDbEntity
  8
AM_VIS
100
AcDbLine
 10
2380.228136979951
 20
1458.380397136024
 30
0.0
 11
2377.658928282058
 21
1459.90115376676
 31
0.0
  0
LINE
  5
2ABE
330
1F
100
AcDbEntity
  8
AM_VIS
100
AcDbLine
 10
2377.658928282058
 20
1459.90115376676
 30
0.0
 11
2377.658928282057
 21
1473.006090353905
 31
0.0
  0
LINE
  5
2ABF
330
1F
100
AcDbEntity
  8
AM_VIS
100
AcDbLine
 10
2385.366554375739
 20
1458.380397136025
 30
0.0
 11
2380.228136979951
 21
1458.380397136024
 31
0.0
  0
LINE
  5
2AC0
330
1F
100
AcDbEntity
  8
AM_VIS
100
AcDbLine
 10
2380.228136979951
 20
1458.380397136024
 30
0.0
 11
2380.228136979951
 21
1469.070808285319
 31
0.0
  0
LINE
  5
2AC1
330
1F
100
AcDbEntity
  8
AM_VIS
100
AcDbLine
 10
2387.935763073633
 20
1459.90115376676
 30
0.0
 11
2387.935763073633
 21
1465.382701050132
 31
0.0
  0
LINE
  5
2AC2
330
1F
100
AcDbEntity
  8
AM_VIS
100
AcDbLine
 10
2387.935763073633
 20
1459.90115376676
 30
0.0
 11
2385.366554375739
 21
1458.380397136025
 31
0.0
  0
LINE
  5
2AC3
330
1F
100
AcDbEntity
  8
AM_VIS
100
AcDbLine
 10
2385.366554375739
 20
1458.380397136025
 30
0.0
 11
2385.366554375739
 21
1466.276469857246
 31
0.0
  0
LINE
  5
2AC4
330
1F
100
AcDbEntity
  8
AM_VIS
100
AcDbLine
 10
2385.366554375739
 20
1466.276469857246
 30
0.0
 11
2396.369142447501
 21
1466.276469857246
 31
0.0
  0
LINE
  5
2AC5
330
1F
100
AcDbEntity
  8
AM_VIS
100
AcDbLine
 10
2387.935763073633
 20
1465.382701050132
 30
0.0
 11
2396.369142447501
 21
1465.382701050132
 31
0.0
  0
LINE
  5
2AC6
330
1F
100
AcDbEntity
  8
AM_VIS
100
AcDbLine
 10
2387.935763073633
 20
1465.382701050132
 30
0.0
 11
2385.366554375739
 21
1466.276469857246
 31
0.0
  0
LINE
  5
2AC7
330
1F
100
AcDbEntity
  8
AM_VIS
100
AcDbLine
 10
2396.369142447501
 20
1471.105520732946
 30
0.0
 11
2382.393200489412
 21
1471.105520732946
 31
0.0
  0
LINE
  5
2AC8
330
1F
100
AcDbEntity
  8
AM_VIS
100
AcDbLine
 10
2396.369142447501
 20
1475.040802801532
 30
0.0
 11
2379.823991791518
 21
1475.040802801531
 31
0.0
  0
LINE
  5
2AC9
330
1F
100
AcDbEntity
  8
AM_VIS
100
AcDbLine
 10
2377.658928282058
 20
1473.006090353905
 30
0.0
 11
2380.228136979951
 21
1469.070808285319
 31
0.0
  0
ELLIPSE
  5
2ACA
330
1F
100
AcDbEntity
  8
AM_VIS
100
AcDbEllipse
 10
2380.545679628005
 20
1472.327852871363
 30
0.0
 11
-2.474211743375636
 21
1.934544019244085
 31
-0.0000000000000001
210
0.0
220
0.0
230
1.0
 40
0.7687331601176545
 41
-0.7769179911778652
 42
0.5411980804750783
  0
LINE
  5
2ACB
330
1F
100
AcDbEntity
  8
AM_VIS
100
AcDbLine
 10
2382.393200489412
 20
1471.105520732946
 30
0.0
 11
2379.823991791518
 21
1475.040802801531
 31
0.0
  0
ELLIPSE
  5
2ACC
330
1F
100
AcDbEntity
  8
AM_VIS
100
AcDbEllipse
 10
2383.114888325899
 20
1468.392570802777
 30
0.0
 11
-2.474211743375636
 21
1.934544019244085
 31
-0.0000000000000001
210
0.0
220
0.0
230
1.0
 40
0.7687331601176545
 41
-0.7769179911778652
 42
0.5411980804750783
  0
LINE
  5
2ACD
330
1F
100
AcDbEntity
  8
AM_VIS
100
AcDbLine
 10
2386.261447292776
 20
1386.554079448512
 30
0.0
 11
2386.261447292776
 21
1381.787638199055
 31
0.0
  0
LINE
  5
2ACE
330
1F
100
AcDbEntity
  8
AM_VIS
100
AcDbLine
 10
2379.333244062777
 20
1386.55407944848
 30
0.0
 11
2379.333244062777
 21
1381.787638199088
 31
0.0
  0
SPLINE
  5
2ACF
330
1F
100
AcDbEntity
  8
AM_VIS
100
AcDbSpline
210
-0.000000000000156
220
-0.0000000000012122
230
1.0
 70
    12
 71
     2
 72
     6
 73
     3
 74
     0
 42
0.0000000001
 43
0.0000000001
 40
1.65997322777625
 40
1.65997322777625
 40
1.65997322777625
 40
5.403036174625144
 40
5.403036174625144
 40
5.403036174625144
 10
2379.33324406278
 20
1381.787638199088
 30
0.0000000000001137
 41
1.034106888207774
 10
2381.189650523555
 20
1381.351478553318
 30
0.0
 41
1.055507145448775
 10
2382.797345677845
 20
1381.351478553318
 30
0.0
 41
1.0
  0
SPLINE
  5
2AD0
330
1F
100
AcDbEntity
  8
AM_VIS
100
AcDbSpline
210
0.0
220
0.0
230
1.0
 70
    12
 71
     2
 72
     6
 73
     3
 74
     0
 42
0.0000000001
 43
0.0000000001
 40
5.403036174764437
 40
5.403036174764437
 40
5.403036174764437
 40
9.146099121898608
 40
9.146099121898608
 40
9.146099121898608
 10
2377.601193255138
 20
1382.376707742619
 30
0.0
 41
1.0
 10
2378.405040832459
 20
1381.900897219981
 30
0.0
 41
1.055507145648787
 10
2379.333244062775
 20
1381.787638199088
 30
0.0
 41
1.034106888326794
  0
SPLINE
  5
2AD1
330
1F
100
AcDbEntity
  8
AM_VIS
100
AcDbSpline
210
0.0000000000028881
220
0.0000000000034005
230
-1.0
 70
    12
 71
     2
 72
     6
 73
     3
 74
     0
 42
0.0000000001
 43
0.0000000001
 40
1.659973227630032
 40
1.659973227630032
 40
1.659973227630032
 40
5.403036174764437
 40
5.403036174764437
 40
5.403036174764437
 10
2375.869142447502
 20
1383.83809657769
 30
0.0000000000001137
 41
1.034106888326791
 10
2376.797345677816
 20
1382.852518265257
 30
0.0
 41
1.05550714564879
 10
2377.601193255138
 20
1382.376707742619
 30
0.0
 41
1.0
  0
SPLINE
  5
2AD2
330
1F
100
AcDbEntity
  8
AM_VIS
100
AcDbSpline
210
0.0
220
0.0
230
1.0
 70
    12
 71
     2
 72
     6
 73
     3
 74
     0
 42
0.0000000001
 43
0.0000000001
 40
5.403036174903967
 40
5.403036174903967
 40
5.403036174903967
 40
9.14609912205179
 40
9.14609912205179
 40
9.14609912205179
 10
2387.993498100448
 20
1382.37670774264
 30
0.0
 41
1.0
 10
2388.797345677889
 20
1382.852518265349
 30
0.0
 41
1.055507145845111
 10
2389.72554890805
 20
1383.838096577624
 30
0.0
 41
1.034106888449133
  0
SPLINE
  5
2AD3
330
1F
100
AcDbEntity
  8
AM_VIS
100
AcDbSpline
210
0.000000000000078
220
-0.0000000000006061
230
1.0
 70
    12
 71
     2
 72
     6
 73
     3
 74
     0
 42
0.0000000001
 43
0.0000000001
 40
5.403036174625144
 40
5.403036174625144
 40
5.403036174625144
 40
9.146099121337847
 40
9.146099121337847
 40
9.146099121337847
 10
2382.797345677845
 20
1381.351478553318
 30
0.0
 41
1.0
 10
2384.40504083208
 20
1381.351478553318
 30
-0.0000000000001137
 41
1.055507145446752
 10
2386.261447292774
 20
1381.787638199055
 30
0.0
 41
1.034106888209329
  0
SPLINE
  5
2AD4
330
1F
100
AcDbEntity
  8
AM_VIS
100
AcDbSpline
210
0.0
220
0.0
230
1.0
 70
    12
 71
     2
 72
     6
 73
     3
 74
     0
 42
0.0000000001
 43
0.0000000001
 40
1.659973227620207
 40
1.659973227620207
 40
1.659973227620207
 40
5.403036174903967
 40
5.403036174903967
 40
5.403036174903967
 10
2386.261447292776
 20
1381.787638199055
 30
0.0
 41
1.034106888447578
 10
2387.18965052298
 20
1381.900897219914
 30
0.0
 41
1.055507145847127
 10
2387.993498100448
 20
1382.37670774264
 30
0.0
 41
1.0
  0
LINE
  5
2AD5
330
1F
100
AcDbEntity
  8
AM_VIS
100
AcDbLine
 10
2389.725548908052
 20
1388.604537827146
 30
0.0
 11
2389.725548908052
 21
1383.838096577625
 31
0.0
  0
LINE
  5
2AD6
330
1F
100
AcDbEntity
  8
AM_VIS
100
AcDbLine
 10
2375.8691424475
 20
1388.604537827081
 30
0.0
 11
2375.8691424475
 21
1383.838096577689
 31
0.0
  0
SPLINE
  5
2AD7
330
1F
100
AcDbEntity
  8
AM_VIS
100
AcDbSpline
210
0.0000000000001685
220
-0.0000000000005038
230
-1.0
 70
    12
 71
     2
 72
     6
 73
     3
 74
     0
 42
0.0000000001
 43
0.0000000001
 40
1.659973227756147
 40
1.659973227756147
 40
1.659973227756147
 40
5.403036174903967
 40
5.403036174903967
 40
5.403036174903967
 10
2389.72554890805
 20
1388.604537827145
 30
0.0
 41
1.03410688844913
 10
2388.797345677889
 20
1388.49127880628
 30
-0.0000000000001137
 41
1.055507145845105
 10
2387.993498100448
 20
1388.01546828357
 30
0.0
 41
1.0
  0
SPLINE
  5
2AD8
330
1F
100
AcDbEntity
  8
AM_VIS
100
AcDbSpline
210
0.000000000027828
220
0.000000000029087
230
1.0
 70
    12
 71
     2
 72
     6
 73
     3
 74
     0
 42
0.0000000001
 43
0.0000000001
 40
7.191629326319199
 40
7.191629326319199
 40
7.191629326319199
 40
9.146099121626482
 40
9.146099121626482
 40
9.146099121626482
 10
2388.797345677845
 20
1389.490659172383
 30
0.0
 41
1.035486799389563
 10
2389.23613878764
 20
1389.124199884759
 30
0.0
 41
1.045281201219494
 10
2389.725548908052
 20
1388.604537827146
 30
0.0000000000001137
 41
1.034106888329904
  0
SPLINE
  5
2AD9
330
1F
100
AcDbEntity
  8
AM_VIS
100
AcDbSpline
210
0.0
220
0.0
230
1.0
 70
    12
 71
     2
 72
     6
 73
     3
 74
     0
 42
0.0000000001
 43
0.0000000001
 40
5.403036174764437
 40
5.403036174764437
 40
5.403036174764437
 40
9.146099121898842
 40
9.146099121898842
 40
9.146099121898842
 10
2377.601193255138
 20
1388.01546828355
 30
0.0
 41
1.0
 10
2376.797345677817
 20
1388.491278806188
 30
0.0
 41
1.055507145648788
 10
2375.8691424475
 20
1388.604537827081
 30
0.0
 41
1.03410688832679
  0
SPLINE
  5
2ADA
330
1F
100
AcDbEntity
  8
AM_VIS
100
AcDbSpline
210
-0.0000000000247953
220
0.0000000000259171
230
-1.0
 70
    12
 71
     2
 72
     6
 73
     3
 74
     0
 42
0.0000000001
 43
0.0000000001
 40
1.659973227776267
 40
1.659973227776267
 40
1.659973227776267
 40
3.614443023131926
 40
3.614443023131926
 40
3.614443023131926
 10
2375.869142447502
 20
1388.604537827081
 30
0.0
 41
1.034106888207565
 10
2376.35855256799
 20
1389.124199884774
 30
0.0
 41
1.045281201058844
 10
2376.797345677847
 20
1389.490659172456
 30
0.0000000000001137
 41
1.035486799263108
  0
SPLINE
  5
2ADB
330
1F
100
AcDbEntity
  8
AM_VIS
100
AcDbSpline
210
0.0
220
0.0
230
1.0
 70
    12
 71
     2
 72
     6
 73
     3
 74
     0
 42
0.0000000001
 43
0.0000000001
 40
5.403036174625142
 40
5.403036174625142
 40
5.403036174625142
 40
9.146099121474035
 40
9.146099121474035
 40
9.146099121474035
 10
2382.797345677845
 20
1386.990239094249
 30
0.0
 41
1.0
 10
2381.189650523553
 20
1386.990239094249
 30
0.0
 41
1.055507145448771
 10
2379.333244062777
 20
1386.55407944848
 30
0.0
 41
1.034106888207771
  0
SPLINE
  5
2ADC
330
1F
100
AcDbEntity
  8
AM_VIS
100
AcDbSpline
210
-0.0000000000028881
220
-0.0000000000034005
230
-1.0
 70
    12
 71
     2
 72
     6
 73
     3
 74
     0
 42
0.0000000001
 43
0.0000000001
 40
1.659973227630266
 40
1.659973227630266
 40
1.659973227630266
 40
5.403036174764437
 40
5.403036174764437
 40
5.403036174764437
 10
2379.333244062777
 20
1386.554079448481
 30
0.0000000000001137
 41
1.034106888326792
 10
2378.405040832459
 20
1387.539657760912
 30
0.0
 41
1.055507145648785
 10
2377.601193255138
 20
1388.01546828355
 30
0.0
 41
1.0
  0
SPLINE
  5
2ADD
330
1F
100
AcDbEntity
  8
AM_VIS
100
AcDbSpline
210
0.0000000000034897
220
-0.0000000000041089
230
-1.0
 70
    12
 71
     2
 72
     6
 73
     3
 74
     0
 42
0.0000000001
 43
0.0000000001
 40
5.403036174903967
 40
5.403036174903967
 40
5.403036174903967
 40
9.146099122187724
 40
9.146099122187724
 40
9.146099122187724
 10
2387.993498100448
 20
1388.01546828357
 30
0.0
 41
1.0
 10
2387.189650522977
 20
1387.539657760844
 30
-0.0000000000001137
 41
1.055507145847123
 10
2386.261447292778
 20
1386.554079448512
 30
0.0000000000001137
 41
1.034106888447576
  0
SPLINE
  5
2ADE
330
1F
100
AcDbEntity
  8
AM_VIS
100
AcDbSpline
210
0.0
220
0.0
230
1.0
 70
    12
 71
     2
 72
     6
 73
     3
 74
     0
 42
0.0000000001
 43
0.0000000001
 40
1.659973227912439
 40
1.659973227912439
 40
1.659973227912439
 40
5.403036174625142
 40
5.403036174625142
 40
5.403036174625142
 10
2386.261447292775
 20
1386.554079448512
 30
0.0
 41
1.034106888209327
 10
2384.405040832081
 20
1386.990239094249
 30
0.0
 41
1.055507145446749
 10
2382.797345677845
 20
1386.990239094249
 30
0.0
 41
1.0
  0
LINE
  5
2ADF
330
1F
100
AcDbEntity
  8
AM_VIS
100
AcDbLine
 10
2376.797345677845
 20
1382.951975232307
 30
0.0
 11
2376.797345677845
 21
1381.522350084902
 31
0.0
  0
LINE
  5
2AE0
330
1F
100
AcDbEntity
  8
AM_VIS
100
AcDbLine
 10
2388.797345677845
 20
1382.95197523238
 30
0.0
 11
2388.797345677845
 21
1381.522350084903
 31
0.0
  0
LINE
  5
2AE1
330
1F
100
AcDbEntity
  8
AM_VIS
100
AcDbLine
 10
2378.679254167697
 20
1381.910694474774
 30
0.0
 11
2378.498853653629
 21
1381.968875975523
 31
0.0
  0
LINE
  5
2AE2
330
1F
100
AcDbEntity
  8
AM_VIS
100
AcDbLine
 10
2386.915437187992
 20
1381.910694474774
 30
0.0
 11
2387.095837701987
 21
1381.968875975499
 31
0.0
  0
LINE
  5
2AE3
330
1F
100
AcDbEntity
  8
AM_VIS
100
AcDbLine
 10
2388.797345677845
 20
1389.04069747281
 30
0.0
 11
2388.797345677845
 21
1390.920284319787
 31
0.0
  0
LINE
  5
2AE4
330
1F
100
AcDbEntity
  8
AM_VIS
100
AcDbLine
 10
2376.797345677845
 20
1389.04069747281
 30
0.0
 11
2376.797345677845
 21
1390.920284319787
 31
0.0
  0
ELLIPSE
  5
2AE5
330
1F
100
AcDbEntity
  8
AM_VIS
100
AcDbEllipse
 10
2382.797345677845
 20
1381.522350084902
 30
0.0
 11
6.0
 21
0.0
 31
0.0
210
0.0
220
0.0
230
1.0
 40
0.3417430630867102
 41
3.141592653589793
 42
6.283185307179586
  0
ELLIPSE
  5
2AE6
330
1F
100
AcDbEntity
  8
AM_VIS
100
AcDbEllipse
 10
2382.797345677845
 20
1383.401936931879
 30
0.0
 11
6.000000000000039
 21
0.0000000000001203
 31
0.0
210
0.0
220
0.0
230
1.0
 40
0.3417430630867079
 41
3.955932595716316
 42
4.712388980384758
  0
ELLIPSE
  5
2AE7
330
1F
100
AcDbEntity
  8
AM_VIS
100
AcDbEllipse
 10
2382.797345677845
 20
1383.401936931879
 30
0.0
 11
6.000000000001548
 21
0.0000000000004307
 31
0.0
210
0.0
220
0.0
230
1.0
 40
0.3417430630866219
 41
-1.570796326794845
 42
-0.8143399421267945
  0
ELLIPSE
  5
2AE8
330
1F
100
AcDbEntity
  8
AM_VIS
100
AcDbEllipse
 10
2382.797345677845
 20
1389.04069747281
 30
0.0
 11
-5.999999999999999
 21
0.0000000000001909
 31
0.0
210
0.0
220
0.0
230
1.0
 40
0.3417430630866463
 41
2.617993877991542
 42
3.141592653589886
  0
ELLIPSE
  5
2AE9
330
1F
100
AcDbEntity
  8
AM_VIS
100
AcDbEllipse
 10
2382.797345677845
 20
1389.04069747281
 30
0.0
 11
-5.999999999999839
 21
0.000000000000047
 31
0.0
210
0.0
220
0.0
230
1.0
 40
0.3417430630867193
 41
1.570796326794975
 42
2.61799387799158
  0
ELLIPSE
  5
2AEA
330
1F
100
AcDbEntity
  8
AM_VIS
100
AcDbEllipse
 10
2382.797345677845
 20
1389.04069747281
 30
0.0
 11
5.999999999999475
 21
0.0000000000002375
 31
0.0
210
0.0
220
0.0
230
1.0
 40
0.34174306308674
 41
3.665191429188038
 42
4.712388980384751
  0
ELLIPSE
  5
2AEB
330
1F
100
AcDbEntity
  8
AM_VIS
100
AcDbEllipse
 10
2382.797345677845
 20
1389.04069747281
 30
0.0
 11
6.0
 21
0.0000000000007344
 31
0.0
210
0.0
220
0.0
230
1.0
 40
0.3417430630864935
 41
3.141592653589434
 42
3.665191429188163
  0
ELLIPSE
  5
2AEC
330
1F
100
AcDbEntity
  8
AM_VIS
100
AcDbEllipse
 10
2382.797345677845
 20
1390.920284319787
 30
0.0
 11
6.000000000000746
 21
0.0000000000001562
 31
0.0
210
0.0
220
0.0
230
1.0
 40
0.3417430630866677
 41
2.094395102393202
 42
7.330382858376246
  0
LINE
  5
2AED
330
1F
100
AcDbEntity
  8
AM_VIS
100
AcDbLine
 10
2377.658928282058
 20
1380.463681775748
 30
0.0
 11
2377.658928282058
 21
1368.417413497758
 31
0.0
  0
LINE
  5
2AEE
330
1F
100
AcDbEntity
  8
AM_VIS
100
AcDbLine
 10
2387.935763073633
 20
1380.463681775748
 30
0.0
 11
2387.935763073633
 21
1376.040802801532
 31
0.0
  0
LINE
  5
2AEF
330
1F
100
AcDbEntity
  8
AM_VIS
100
AcDbLine
 10
2385.366554375739
 20
1372.105520732946
 30
0.0
 11
2387.935763073632
 21
1376.040802801531
 31
0.0
  0
LINE
  5
2AF0
330
1F
100
AcDbEntity
  8
AM_VIS
100
AcDbLine
 10
2387.935763073632
 20
1376.040802801531
 30
0.0
 11
2396.369142447501
 21
1376.040802801532
 31
0.0
  0
LINE
  5
2AF1
330
1F
100
AcDbEntity
  8
AM_VIS
100
AcDbLine
 10
2396.369142447501
 20
1366.382701050132
 30
0.0
 11
2379.823991791518
 21
1366.382701050132
 31
0.0
  0
LINE
  5
2AF2
330
1F
100
AcDbEntity
  8
AM_VIS
100
AcDbLine
 10
2380.228136979951
 20
1379.669385077479
 30
0.0
 11
2380.228136979951
 21
1369.311182304872
 31
0.0
  0
LINE
  5
2AF3
330
1F
100
AcDbEntity
  8
AM_VIS
100
AcDbLine
 10
2385.366554375739
 20
1379.669385077479
 30
0.0
 11
2385.366554375739
 21
1372.105520732946
 31
0.0
  0
LINE
  5
2AF4
330
1F
100
AcDbEntity
  8
AM_VIS
100
AcDbLine
 10
2385.366554375739
 20
1372.105520732946
 30
0.0
 11
2396.369142447501
 21
1372.105520732946
 31
0.0
  0
LINE
  5
2AF5
330
1F
100
AcDbEntity
  8
AM_VIS
100
AcDbLine
 10
2396.369142447501
 20
1367.276469857246
 30
0.0
 11
2382.393200489412
 21
1367.276469857246
 31
0.0
  0
LINE
  5
2AF6
330
1F
100
AcDbEntity
  8
AM_VIS
100
AcDbLine
 10
2379.823991791518
 20
1366.382701050132
 30
0.0
 11
2382.393200489412
 21
1367.276469857246
 31
0.0
  0
LINE
  5
2AF7
330
1F
100
AcDbEntity
  8
AM_VIS
100
AcDbLine
 10
2380.228136979951
 20
1369.311182304872
 30
0.0
 11
2377.658928282057
 21
1368.417413497758
 31
0.0
  0
ELLIPSE
  5
2AF8
330
1F
100
AcDbEntity
  8
AM_VIS
100
AcDbEllipse
 10
2383.114888325899
 20
1369.989419787414
 30
0.0
 11
2.474211743375636
 21
1.934544019244086
 31
0.0000000000000001
210
0.0
220
0.0
230
1.0
 40
0.7687331601176544
 41
2.600394573114801
 42
3.918510644767657
  0
ELLIPSE
  5
2AF9
330
1F
100
AcDbEntity
  8
AM_VIS
100
AcDbEllipse
 10
2380.545679628006
 20
1369.0956509803
 30
0.0
 11
2.474211743375635
 21
1.934544019244087
 31
0.0000000000000001
210
0.0
220
0.0
230
1.0
 40
0.7687331601176548
 41
2.600394573114714
 42
3.918510644767657
  0
LINE
  5
2AFA
330
1F
100
AcDbEntity
  8
AM_VIS
100
AcDbLine
 10
2379.797345677845
 20
1448.727470486675
 30
0.0
 11
2379.797345677845
 21
1390.920284319787
 31
0.0
  0
LINE
  5
2AFB
330
1F
100
AcDbEntity
  8
AM_VIS
100
AcDbLine
 10
2385.797345677845
 20
1448.727470486675
 30
0.0
 11
2385.797345677845
 21
1390.920284319787
 31
0.0
  0
LINE
  5
2AFC
330
1F
100
AcDbEntity
  8
AM_VIS
100
AcDbLine
 10
2207.637163980583
 20
1641.245966415888
 30
0.0
 11
2209.370415344022
 21
1641.245966415888
 31
0.0
  0
LINE
  5
2AFD
330
1F
100
AcDbEntity
  8
AM_VIS
100
AcDbLine
 10
2207.637163980596
 20
1634.317763185888
 30
0.0
 11
2209.370415344011
 21
1634.317763185888
 31
0.0
  0
SPLINE
  5
2AFE
330
1F
100
AcDbEntity
  8
AM_VIS
100
AcDbSpline
210
-0.0000000000001636
220
0.0000000000000098
230
1.0
 70
    12
 71
     2
 72
     6
 73
     3
 74
     0
 42
0.0000000001
 43
0.0000000001
 40
1.65997322777625
 40
1.65997322777625
 40
1.65997322777625
 40
5.403036174625144
 40
5.403036174625144
 40
5.403036174625144
 10
2209.370415344013
 20
1634.317763185888
 30
0.0000000000000071
 41
1.034106888207774
 10
2209.529018851564
 20
1636.174169646666
 30
0.0
 41
1.055507145448775
 10
2209.529018851563
 20
1637.781864800957
 30
0.0
 41
1.0
  0
LINE
  5
2AFF
330
1F
100
AcDbEntity
  8
AM_VIS
100
AcDbLine
 10
2209.37556474992
 20
1634.326640472503
 30
0.0
 11
2212.355556227809
 21
1632.598050826504
 31
0.0
  0
LINE
  5
2B00
330
1F
100
AcDbEntity
  8
AM_VIS
100
AcDbLine
 10
2212.356063343171
 20
1632.597475437699
 30
0.0
 11
2215.024753155118
 21
1630.858690670912
 31
0.0
  0
LINE
  5
2B01
330
1F
100
AcDbEntity
  8
AM_VIS
100
AcDbLine
 10
2212.353548763512
 20
1642.970031682317
 30
0.0
 11
2214.545377778332
 21
1644.383477922986
 31
0.0
  0
SPLINE
  5
2B02
330
1F
100
AcDbEntity
  8
AM_VIS
100
AcDbSpline
210
0.0
220
0.0
230
1.0
 70
    12
 71
     2
 72
     6
 73
     3
 74
     0
 42
0.0000000001
 43
0.0000000001
 40
5.403036174625144
 40
5.403036174625144
 40
5.403036174625144
 40
9.146099121337847
 40
9.146099121337847
 40
9.146099121337847
 10
2209.529018851563
 20
1637.781864800957
 30
0.0
 41
1.0
 10
2209.529018851561
 20
1639.389559955192
 30
0.0
 41
1.055507145446752
 10
2209.370415344022
 20
1641.245966415888
 30
0.0
 41
1.034106888209329
  0
LINE
  5
2B03
330
1F
100
AcDbEntity
  8
AM_VIS
100
AcDbLine
 10
2209.375564749934
 20
1641.23708912927
 30
0.0
 11
2212.355556227864
 21
1642.965678775309
 31
0.0
  0
LINE
  5
2B04
330
1F
100
AcDbEntity
  8
AM_VIS
100
AcDbLine
 10
2213.275924521726
 20
1644.710068031164
 30
0.0
 11
2214.540483955609
 21
1644.710068031164
 31
0.0
  0
LINE
  5
2B05
102
{ACAD_REACTORS
330
2B72
102
}
330
1F
100
AcDbEntity
  8
AM_VIS
100
AcDbLine
 10
2213.275924521751
 20
1630.853661570613
 30
0.0
 11
2215.015914391027
 21
1630.853661570613
 31
0.0
  0
LINE
  5
2B06
330
1F
100
AcDbEntity
  8
AM_VIS
100
AcDbLine
 10
2215.015914391027
 20
1630.853661570613
 30
0.0
 11
2216.786104108004
 21
1631.860868182719
 31
0.0
  0
LINE
  5
2B07
330
1F
100
AcDbEntity
  8
AM_VIS
100
AcDbLine
 10
2210.290783638009
 20
1642.990355671812
 30
0.0
 11
2213.270775115815
 21
1644.718945317781
 31
0.0
  0
LINE
  5
2B08
330
1F
100
AcDbEntity
  8
AM_VIS
100
AcDbLine
 10
2210.290783637952
 20
1632.573373929998
 30
0.0
 11
2213.270775115841
 21
1630.844784283999
 31
0.0
  0
SPLINE
  5
2B09
330
1F
100
AcDbEntity
  8
AM_VIS
100
AcDbSpline
210
0.0000000000000076
220
0.0000000000000005
230
1.0
 70
    12
 71
     2
 72
     6
 73
     3
 74
     0
 42
0.0000000001
 43
0.0000000001
 40
5.403036174625142
 40
5.403036174625142
 40
5.403036174625142
 40
9.146099121474035
 40
9.146099121474035
 40
9.146099121474035
 10
2207.478560473044
 20
1637.781864800957
 30
0.0
 41
1.0
 10
2207.478560473042
 20
1636.174169646666
 30
-0.0000000000000071
 41
1.055507145448771
 10
2207.637163980596
 20
1634.317763185888
 30
0.0
 41
1.034106888207771
  0
LINE
  5
2B0A
330
1F
100
AcDbEntity
  8
AM_VIS
100
AcDbLine
 10
2207.630221607008
 20
1634.307108019121
 30
0.0
 11
2210.29027652259
 21
1632.573949318802
 31
0.0
  0
LINE
  5
2B0B
330
1F
100
AcDbEntity
  8
AM_VIS
100
AcDbLine
 10
2207.630221606994
 20
1641.256621582659
 30
0.0
 11
2210.290276522647
 21
1642.989780283008
 31
0.0
  0
SPLINE
  5
2B0C
330
1F
100
AcDbEntity
  8
AM_VIS
100
AcDbSpline
210
0.0
220
0.0
230
1.0
 70
    12
 71
     2
 72
     6
 73
     3
 74
     0
 42
0.0000000001
 43
0.0000000001
 40
1.659973227912439
 40
1.659973227912439
 40
1.659973227912439
 40
5.403036174625142
 40
5.403036174625142
 40
5.403036174625142
 10
2207.637163980581
 20
1641.245966415887
 30
0.0
 41
1.034106888209327
 10
2207.478560473045
 20
1639.389559955193
 30
0.0
 41
1.055507145446749
 10
2207.478560473044
 20
1637.781864800957
 30
0.0
 41
1.0
  0
LINE
  5
2B0D
330
1F
100
AcDbEntity
  8
AM_VIS
100
AcDbLine
 10
2215.167779392606
 20
1631.781864800957
 30
0.0
 11
2215.851265518779
 21
1631.781864800957
 31
0.0
  0
ELLIPSE
  5
2B0E
330
1F
100
AcDbEntity
  8
AM_VIS
100
AcDbEllipse
 10
2215.851265518779
 20
1637.781864800957
 30
0.0
 11
-0.0000000000011561
 21
6.000000000000085
 31
0.0
210
0.0
220
0.0
230
1.0
 40
0.9397934234884074
 41
0.2346053497112965
 42
3.684127058615653
  0
ELLIPSE
  5
2B0F
330
1F
100
AcDbEntity
  8
AM_VIS
100
AcDbEllipse
 10
2215.167779392606
 20
1637.781864800957
 30
0.0
 11
0.0000000000022351
 21
5.999999999999807
 31
0.0
210
0.0
220
0.0
230
0.9999999999999998
 40
0.9397934234884353
 41
1.570796326795284
 42
2.617993877991937
  0
ELLIPSE
  5
2B10
330
1F
100
AcDbEntity
  8
AM_VIS
100
AcDbEllipse
 10
2215.167779392606
 20
1637.781864800957
 30
0.0
 11
0.0000000000044336
 21
6.000000000000001
 31
0.0
210
0.0
220
0.0
230
1.0
 40
0.939793423488242
 41
2.617993877992226
 42
3.141592653590579
  0
ELLIPSE
  5
2B11
330
1F
100
AcDbEntity
  8
AM_VIS
100
AcDbEllipse
 10
2215.167779392606
 20
1637.781864800957
 30
0.0
 11
-0.0000000000067684
 21
5.999999999999863
 31
0.0
210
0.0
220
0.0
230
1.0
 40
0.9397934234882777
 41
0.1114777943239065
 42
0.5235987755972369
  0
ELLIPSE
  5
2B12
330
1F
100
AcDbEntity
  8
AM_VIS
100
AcDbEllipse
 10
2215.167779392606
 20
1637.781864800957
 30
0.0
 11
-0.0000000000071618
 21
5.999999999999514
 31
0.0
210
0.0
220
0.0
230
1.0
 40
0.9397934234884814
 41
0.5235987755970753
 42
1.570796326793812
  0
ELLIPSE
  5
2B13
330
1F
100
AcDbEntity
  8
AM_VIS
100
AcDbEllipse
 10
2212.433834887912
 20
1637.781864800957
 30
0.0
 11
-0.0000000000040675
 21
5.999999999999878
 31
0.0
210
0.0
220
0.0
230
1.0
 40
0.9397934234883765
 41
0.1661828599089417
 42
0.9028748796859073
  0
ELLIPSE
  5
2B14
330
1F
100
AcDbEntity
  8
AM_VIS
100
AcDbEllipse
 10
2212.433834887912
 20
1637.781864800957
 30
0.0
 11
-0.0000000000011194
 21
6.000000000000674
 31
0.0
210
0.0
220
0.0
230
1.0
 40
0.9397934234882999
 41
1.027320946436419
 42
2.114271707153287
  0
ELLIPSE
  5
2B15
330
1F
100
AcDbEntity
  8
AM_VIS
100
AcDbEllipse
 10
2212.433834887912
 20
1637.781864800957
 30
0.0
 11
-0.0000000000045399
 21
6.000000000000157
 31
0.0
210
0.0
220
0.0
230
1.0
 40
0.9397934234884449
 41
2.238717773957719
 42
2.975409793622185
  0
LINE
  5
2B16
330
1F
100
AcDbEntity
  8
AM_VIS
100
AcDbLine
 10
2211.669184784256
 20
1640.351073498851
 30
0.0
 11
2214.540483955609
 21
1642.115020030155
 31
0.0
  0
LINE
  5
2B17
330
1F
100
AcDbEntity
  8
AM_VIS
100
AcDbLine
 10
2215.85126551878
 20
1632.64344740517
 30
0.0
 11
2211.669184784256
 21
1635.212656103063
 31
0.0
  0
LINE
  5
2B18
330
1F
100
AcDbEntity
  8
AM_VIS
100
AcDbLine
 10
2215.85126551878
 20
1632.64344740517
 30
0.0
 11
2220.616697005013
 21
1632.64344740517
 31
0.0
  0
LINE
  5
2B19
330
1F
100
AcDbEntity
  8
AM_VIS
100
AcDbLine
 10
2224.660663924911
 20
1651.353661570613
 30
0.0
 11
2224.660663924911
 21
1637.377719612525
 31
0.0
  0
LINE
  5
2B1A
330
1F
100
AcDbEntity
  8
AM_VIS
100
AcDbLine
 10
2221.356592440514
 20
1651.353661570613
 30
0.0
 11
2221.356592440515
 21
1634.808510914631
 31
0.0
  0
LINE
  5
2B1B
330
1F
100
AcDbEntity
  8
AM_VIS
100
AcDbLine
 10
2211.669184784256
 20
1635.212656103063
 30
0.0
 11
2215.556607020363
 21
1635.212656103063
 31
0.0
  0
LINE
  5
2B1C
330
1F
100
AcDbEntity
  8
AM_VIS
100
AcDbLine
 10
2211.669184784256
 20
1635.212656103063
 30
0.0
 11
2211.669184784256
 21
1640.351073498851
 31
0.0
  0
LINE
  5
2B1D
330
1F
100
AcDbEntity
  8
AM_VIS
100
AcDbLine
 10
2211.669184784256
 20
1640.351073498851
 30
0.0
 11
2214.540483955609
 21
1640.351073498851
 31
0.0
  0
LINE
  5
2B1E
330
1F
100
AcDbEntity
  8
AM_VIS
100
AcDbLine
 10
2214.540483955609
 20
1640.351073498851
 30
0.0
 11
2214.540483955609
 21
1651.353661570613
 31
0.0
  0
LINE
  5
2B1F
330
1F
100
AcDbEntity
  8
AM_VIS
100
AcDbLine
 10
2216.296502455863
 20
1651.353661570613
 30
0.0
 11
2216.296502455863
 21
1637.377719612524
 31
0.0
  0
LINE
  5
2B20
330
1F
100
AcDbEntity
  8
AM_VIS
100
AcDbLine
 10
2221.356592440515
 20
1634.808510914631
 30
0.0
 11
2216.296502455863
 21
1637.377719612524
 31
0.0
  0
LINE
  5
2B21
330
1F
100
AcDbEntity
  8
AM_VIS
100
AcDbLine
 10
2215.556607020363
 20
1635.212656103063
 30
0.0
 11
2220.616697005013
 21
1632.64344740517
 31
0.0
  0
ELLIPSE
  5
2B22
330
1F
100
AcDbEntity
  8
AM_VIS
100
AcDbEllipse
 10
2215.309975208529
 20
1638.099407449012
 30
0.0
 11
-0.2765423132907266
 21
2.885324167252926
 31
0.0
210
0.0
220
0.0
230
1.0
 40
0.3282037868088347
 41
3.110146510917987
 42
4.428262582570797
  0
ELLIPSE
  5
2B23
330
1F
100
AcDbEntity
  8
AM_VIS
100
AcDbEllipse
 10
2220.370065193181
 20
1635.530198751118
 30
0.0
 11
-0.2765423132907266
 21
2.885324167252926
 31
0.0
210
0.0
220
0.0
230
1.0
 40
0.3282037868088347
 41
3.110146510917987
 42
4.428262582570797
  0
LINE
  5
2B24
330
1F
100
AcDbEntity
  8
AM_VIS
100
AcDbLine
 10
2224.660663924911
 20
1637.377719612525
 30
0.0
 11
2221.356592440515
 21
1634.808510914631
 31
0.0
  0
ELLIPSE
  5
2B25
330
1F
100
AcDbEntity
  8
AM_VIS
100
AcDbEllipse
 10
2223.674136677577
 20
1638.099407449012
 30
0.0
 11
-0.2765423132919497
 21
2.885324167252051
 31
0.0
210
0.0
220
0.0
230
0.9999999999999998
 40
0.3282037868086461
 41
3.346890944860013
 42
4.428262582569939
  0
LINE
  5
2B26
330
1F
100
AcDbEntity
  8
AM_VIS
100
AcDbLine
 10
2220.833849601612
 20
1632.72396847664
 30
0.0
 11
2224.137921086009
 21
1635.293177174534
 31
0.0
  0
LINE
  5
2B27
330
1F
100
AcDbEntity
  8
AM_VIS
100
AcDbLine
 10
2182.546269081038
 20
1641.25662158293
 30
0.0
 11
2185.206323996419
 21
1642.989780283111
 31
0.0
  0
LINE
  5
2B28
330
1F
100
AcDbEntity
  8
AM_VIS
100
AcDbLine
 10
2185.206831111782
 20
1642.990355671915
 30
0.0
 11
2188.186822589422
 21
1644.718945317778
 31
0.0
  0
LINE
  5
2B29
330
1F
100
AcDbEntity
  8
AM_VIS
100
AcDbLine
 10
2189.925223358793
 20
1644.710068031164
 30
0.0
 11
2188.19197199533
 21
1644.710068031164
 31
0.0
  0
SPLINE
  5
2B2A
330
1F
100
AcDbEntity
  8
AM_VIS
100
AcDbSpline
210
0.0
220
0.0
230
1.0
 70
    12
 71
     2
 72
     6
 73
     3
 74
     0
 42
0.0000000001
 43
0.0000000001
 40
5.403036174903729
 40
5.403036174903729
 40
5.403036174903729
 40
9.14609912218747
 40
9.14609912218747
 40
9.14609912218747
 10
2182.394607947096
 20
1637.781864800957
 30
0.0
 41
1.0
 10
2182.394607947092
 20
1636.174169646018
 30
0.0
 41
1.055507145846788
 10
2182.553211454637
 20
1634.317763185613
 30
0.0
 41
1.034106888447367
  0
SPLINE
  5
2B2B
330
1F
100
AcDbEntity
  8
AM_VIS
100
AcDbSpline
210
0.0
220
0.0
230
1.0
 70
    12
 71
     2
 72
     6
 73
     3
 74
     0
 42
0.0000000001
 43
0.0000000001
 40
1.659973227756171
 40
1.659973227756171
 40
1.659973227756171
 40
5.403036174903729
 40
5.403036174903729
 40
5.403036174903729
 10
2182.553211454623
 20
1641.245966416164
 30
0.0
 41
1.034106888448917
 10
2182.394607947094
 20
1639.389559955838
 30
0.0
 41
1.055507145844757
 10
2182.394607947096
 20
1637.781864800957
 30
0.0
 41
1.0
  0
LINE
  5
2B2C
330
1F
100
AcDbEntity
  8
AM_VIS
100
AcDbLine
 10
2184.286462818087
 20
1641.245966416164
 30
0.0
 11
2182.553211454625
 21
1641.245966416164
 31
0.0
  0
LINE
  5
2B2D
330
1F
100
AcDbEntity
  8
AM_VIS
100
AcDbLine
 10
2189.92522335877
 20
1630.853661570613
 30
0.0
 11
2188.191971995355
 21
1630.853661570613
 31
0.0
  0
LINE
  5
2B2E
330
1F
100
AcDbEntity
  8
AM_VIS
100
AcDbLine
 10
2185.206831111725
 20
1632.573373929894
 30
0.0
 11
2188.186822589448
 21
1630.844784284002
 31
0.0
  0
LINE
  5
2B2F
330
1F
100
AcDbEntity
  8
AM_VIS
100
AcDbLine
 10
2182.546269081053
 20
1634.30710801885
 30
0.0
 11
2185.206323996363
 21
1632.573949318699
 31
0.0
  0
LINE
  5
2B30
330
1F
100
AcDbEntity
  8
AM_VIS
100
AcDbLine
 10
2184.286462818076
 20
1634.317763185613
 30
0.0
 11
2182.553211454637
 21
1634.317763185613
 31
0.0
  0
LINE
  5
2B31
330
1F
100
AcDbEntity
  8
AM_VIS
100
AcDbLine
 10
2189.926871362358
 20
1644.712964436856
 30
0.0
 11
2191.702151581196
 21
1643.702861419309
 31
0.0
  0
LINE
  5
2B32
330
1F
100
AcDbEntity
  8
AM_VIS
100
AcDbLine
 10
2187.272110816998
 20
1642.966254164217
 30
0.0
 11
2189.932165732379
 21
1644.699412864398
 31
0.0
  0
LINE
  5
2B33
330
1F
100
AcDbEntity
  8
AM_VIS
100
AcDbLine
 10
2184.291612223996
 20
1641.23708912955
 30
0.0
 11
2187.271603701637
 21
1642.965678775413
 31
0.0
  0
SPLINE
  5
2B34
330
1F
100
AcDbEntity
  8
AM_VIS
100
AcDbSpline
210
0.0
220
0.0
230
1.0
 70
    12
 71
     2
 72
     6
 73
     3
 74
     0
 42
0.0000000001
 43
0.0000000001
 40
5.403036174903726
 40
5.403036174903726
 40
5.403036174903726
 40
9.146099122051285
 40
9.146099122051285
 40
9.146099122051285
 10
2184.445066325616
 20
1637.781864800957
 30
0.0
 41
1.0
 10
2184.445066325616
 20
1639.389559955839
 30
0.0
 41
1.055507145844764
 10
2184.286462818087
 20
1641.245966416164
 30
0.0
 41
1.034106888448921
  0
SPLINE
  5
2B35
330
1F
100
AcDbEntity
  8
AM_VIS
100
AcDbSpline
210
0.0000000000001636
220
-0.0000000000000098
230
1.0
 70
    12
 71
     2
 72
     6
 73
     3
 74
     0
 42
0.0000000001
 43
0.0000000001
 40
1.659973227619985
 40
1.659973227619985
 40
1.659973227619985
 40
5.403036174903726
 40
5.403036174903726
 40
5.403036174903726
 10
2184.286462818074
 20
1634.317763185612
 30
-0.0000000000000071
 41
1.034106888447368
 10
2184.445066325617
 20
1636.174169646019
 30
0.0
 41
1.05550714584679
 10
2184.445066325616
 20
1637.781864800957
 30
0.0
 41
1.0
  0
LINE
  5
2B36
330
1F
100
AcDbEntity
  8
AM_VIS
100
AcDbLine
 10
2184.291612223983
 20
1634.326640472222
 30
0.0
 11
2187.271603701581
 21
1632.598050826399
 31
0.0
  0
LINE
  5
2B37
330
1F
100
AcDbEntity
  8
AM_VIS
100
AcDbLine
 10
2189.926871362336
 20
1630.85076516492
 30
0.0
 11
2191.702151581515
 21
1631.860868182662
 31
0.0
  0
LINE
  5
2B38
330
1F
100
AcDbEntity
  8
AM_VIS
100
AcDbLine
 10
2187.272110816945
 20
1632.597475437596
 30
0.0
 11
2189.932165732354
 21
1630.864316737376
 31
0.0
  0
LINE
  5
2B39
330
1F
100
AcDbEntity
  8
AM_VIS
100
AcDbLine
 10
2195.564187694782
 20
1634.317746469016
 30
0.0
 11
2195.593834108998
 21
1634.679164953521
 31
0.0
  0
LINE
  5
2B3A
330
1F
100
AcDbEntity
  8
AM_VIS
100
AcDbLine
 10
2195.194497994909
 20
1634.065536237567
 30
0.0
 11
2195.564112465351
 21
1634.317574644617
 31
0.0
  0
LINE
  5
2B3B
330
1F
100
AcDbEntity
  8
AM_VIS
100
AcDbLine
 10
2195.1944979951
 20
1641.498193364089
 30
0.0
 11
2195.564112465362
 21
1641.246154957161
 31
0.0
  0
LINE
  5
2B3C
330
1F
100
AcDbEntity
  8
AM_VIS
100
AcDbLine
 10
2195.564187694794
 20
1641.245983132761
 30
0.0
 11
2195.593834108997
 21
1640.884564648395
 31
0.0
  0
LINE
  5
2B3D
330
1F
100
AcDbEntity
  8
AM_VIS
100
AcDbLine
 10
2190.083826866435
 20
1631.781864800957
 30
0.0
 11
2190.767312992608
 21
1631.781864800957
 31
0.0
  0
LINE
  5
2B3E
330
1F
100
AcDbEntity
  8
AM_VIS
100
AcDbLine
 10
2190.083826866435
 20
1643.781864800957
 30
0.0
 11
2190.767312992608
 21
1643.781864800957
 31
0.0
  0
ELLIPSE
  5
2B3F
330
1F
100
AcDbEntity
  8
AM_VIS
100
AcDbEllipse
 10
2187.349882361741
 20
1637.781864800957
 30
0.0
 11
0.0000000000045021
 21
5.99999999999989
 31
0.0
210
0.0
220
0.0
230
1.0
 40
0.9397934234883839
 41
2.238717774014002
 42
2.975409793566366
  0
ELLIPSE
  5
2B40
330
1F
100
AcDbEntity
  8
AM_VIS
100
AcDbEllipse
 10
2187.349882361741
 20
1637.781864800957
 30
0.0
 11
0.0000000000010936
 21
6.000000000000015
 31
0.0
210
0.0
220
0.0
230
1.0
 40
0.9397934234884775
 41
0.166182859967158
 42
0.9028748796317085
  0
ELLIPSE
  5
2B41
330
1F
100
AcDbEntity
  8
AM_VIS
100
AcDbEllipse
 10
2187.349882361741
 20
1637.781864800957
 30
0.0
 11
0.0000000000032087
 21
6.000000000000574
 31
0.0
210
0.0
220
0.0
230
0.9999999999999998
 40
0.939793423488315
 41
1.027320946362484
 42
2.114271707228446
  0
ELLIPSE
  5
2B42
330
1F
100
AcDbEntity
  8
AM_VIS
100
AcDbEllipse
 10
2190.083826866435
 20
1637.781864800957
 30
0.0
 11
-0.0000000000071524
 21
5.999999999999514
 31
0.0
210
0.0
220
0.0
230
1.0
 40
0.9397934234884814
 41
0.5235987755970771
 42
1.570796326793852
  0
ELLIPSE
  5
2B43
330
1F
100
AcDbEntity
  8
AM_VIS
100
AcDbEllipse
 10
2190.083826866435
 20
1637.781864800957
 30
0.0
 11
0.0000000000019727
 21
6.0
 31
0.0
210
0.0
220
0.0
230
1.0
 40
0.9397934234884866
 41
0.0000000000003497
 42
0.5235987755986451
  0
ELLIPSE
  5
2B44
330
1F
100
AcDbEntity
  8
AM_VIS
100
AcDbEllipse
 10
2190.083826866435
 20
1637.781864800957
 30
0.0
 11
-0.0000000000087835
 21
6.0
 31
0.0
210
0.0
220
0.0
230
1.0
 40
0.9397934234886873
 41
2.617993877990156
 42
3.141592653588235
  0
ELLIPSE
  5
2B45
330
1F
100
AcDbEntity
  8
AM_VIS
100
AcDbEllipse
 10
2190.083826866435
 20
1637.781864800957
 30
0.0
 11
0.0000000000022493
 21
5.999999999999807
 31
0.0
210
0.0
220
0.0
230
1.0
 40
0.9397934234884356
 41
1.570796326795324
 42
2.617993877991939
  0
ELLIPSE
  5
2B46
330
1F
100
AcDbEntity
  8
AM_VIS
100
AcDbEllipse
 10
2190.767312992608
 20
1637.781864800957
 30
0.0
 11
-0.0000000000010624
 21
6.000000000000063
 31
0.0
210
0.0
220
0.0
230
0.9999999999999998
 40
0.9397934234883951
 41
-1.04719755119677
 42
4.188790204786187
  0
LINE
  5
2B47
330
1F
100
AcDbEntity
  8
AM_VIS
100
AcDbLine
 10
2184.438544511566
 20
1632.64344740517
 30
0.0
 11
2182.584450875507
 21
1632.64344740517
 31
0.0
  0
LINE
  5
2B48
330
1F
100
AcDbEntity
  8
AM_VIS
100
AcDbLine
 10
2182.254228591327
 20
1635.212656103063
 30
0.0
 11
2179.28037939111
 21
1635.212656103063
 31
0.0
  0
LINE
  5
2B49
330
1F
100
AcDbEntity
  8
AM_VIS
100
AcDbLine
 10
2182.254228591327
 20
1640.351073498851
 30
0.0
 11
2180.296502455865
 21
1640.351073498851
 31
0.0
  0
LINE
  5
2B4A
330
1F
100
AcDbEntity
  8
AM_VIS
100
AcDbLine
 10
2180.296502455865
 20
1640.351073498851
 30
0.0
 11
2180.296502455863
 21
1651.353661570613
 31
0.0
  0
LINE
  5
2B4B
330
1F
100
AcDbEntity
  8
AM_VIS
100
AcDbLine
 10
2185.356592440515
 20
1643.394476746294
 30
0.0
 11
2185.356592440515
 21
1651.353661570613
 31
0.0
  0
LINE
  5
2B4C
330
1F
100
AcDbEntity
  8
AM_VIS
100
AcDbLine
 10
2183.171500595808
 20
1641.810824264149
 30
0.0
 11
2180.296502455865
 21
1640.351073498851
 31
0.0
  0
LINE
  5
2B4D
330
1F
100
AcDbEntity
  8
AM_VIS
100
AcDbLine
 10
2178.540483955609
 20
1651.353661570613
 30
0.0
 11
2178.540483955609
 21
1637.377719612524
 31
0.0
  0
LINE
  5
2B4E
330
1F
100
AcDbEntity
  8
AM_VIS
100
AcDbLine
 10
2188.66066392491
 20
1644.710068031164
 30
0.0
 11
2188.66066392491
 21
1651.353661570613
 31
0.0
  0
LINE
  5
2B4F
330
1F
100
AcDbEntity
  8
AM_VIS
100
AcDbLine
 10
2182.584450875507
 20
1632.64344740517
 30
0.0
 11
2179.28037939111
 21
1635.212656103063
 31
0.0
  0
ELLIPSE
  5
2B50
330
1F
100
AcDbEntity
  8
AM_VIS
100
AcDbEllipse
 10
2182.831082687339
 20
1635.530198751118
 30
0.0
 11
0.2765423132913489
 21
2.885324167252937
 31
0.0
210
0.0
220
0.0
230
1.0
 40
0.3282037868068469
 41
2.936294362317748
 42
3.173038796262916
  0
ELLIPSE
  5
2B51
330
1F
100
AcDbEntity
  8
AM_VIS
100
AcDbEllipse
 10
2179.527011202944
 20
1638.099407449012
 30
0.0
 11
0.2765423132910787
 21
2.885324167252923
 31
0.0
210
0.0
220
0.0
230
1.0
 40
0.3282037868086351
 41
1.85492272460954
 42
3.173038796262939
  0
LINE
  5
2B52
330
1F
100
AcDbEntity
  8
AM_VIS
100
AcDbLine
 10
2182.367298278908
 20
1632.72396847664
 30
0.0
 11
2179.063226794512
 21
1635.293177174534
 31
0.0
  0
LINE
  5
2B53
330
1F
100
AcDbEntity
  8
AM_VIS
100
AcDbLine
 10
2207.550525013608
 20
1640.781864800957
 30
0.0
 11
2190.767312992609
 21
1640.781864800957
 31
0.0
  0
LINE
  5
2B54
330
1F
100
AcDbEntity
  8
AM_VIS
100
AcDbLine
 10
2207.550525013609
 20
1634.781864800957
 30
0.0
 11
2190.767312992608
 21
1634.781864800957
 31
0.0
  0
DIMENSION
  5
2B64
102
{ACAD_XDICTIONARY
360
2B71
102
}
102
{ACAD_REACTORS
330
2B72
102
}
330
1F
100
AcDbEntity
  8
AM_5
100
AcDbDimension
  2
*D3
 10
2308.32185005007
 20
1630.853661570613
 30
0.0
 11
2303.82185005007
 21
1684.853661570613
 31
0.0
 70
    32
 71
     5
 42
108.0
  3
AM_ISO$0
100
AcDbAlignedDimension
 13
2295.32185005007
 23
1738.853661570613
 33
0.0
 14
2215.015914391027
 24
1630.853661570613
 34
0.0
 50
90.0
100
AcDbRotatedDimension
1001
ACAD
1000
DSTYLE
1002
{
1070
    40
1040
1.0
1070
   144
1040
1.0
1070
   272
1070
     8
1002
}
  0
ARC
  5
2BB3
330
1F
100
AcDbEntity
  8
AM_4
100
AcDbCircle
 10
2213.600573940259
 20
1366.711751925832
 30
0.0
 40
10.84999999999999
100
AcDbArc
 50
259.9999999999939
 51
169.9999999999961
  0
CIRCLE
  5
2BB4
330
1F
100
AcDbEntity
  8
AM_0
100
AcDbCircle
 10
2213.600573940259
 20
1366.711751925832
 30
0.0
 40
9.3155
  0
ARC
  5
2BB5
330
1F
100
AcDbEntity
  8
AM_4
100
AcDbCircle
 10
2189.600573940259
 20
1474.711751925832
 30
0.0
 40
10.84999999999999
100
AcDbArc
 50
259.9999999999939
 51
169.9999999999961
  0
CIRCLE
  5
2BB6
330
1F
100
AcDbEntity
  8
AM_0
100
AcDbCircle
 10
2189.600573940259
 20
1474.711751925832
 30
0.0
 40
9.3155
  0
LINE
  5
2BC4
330
1F
100
AcDbEntity
  8
AM_7
100
AcDbLine
 10
2382.797345677662
 20
1477.512515082258
 30
0.0
 11
2382.797345677662
 21
1361.954188383613
 31
0.0
1001
GENIUS_GENODEF_13
1002
{
1000
HIER
1070
     0
1002
}
1002
{
1000
MANEDIT
1070
     0
1002
}
1002
{
1000
NOSEL
1070
     0
1002
}
1002
{
1000
BEHIND
1070
     0
1002
}
1002
{
1000
OTHER
1070
     0
1002
}
1002
{
1000
REACTOR
1002
}
1001
GENIUS_GENOBJ-N-CEN_13
1002
{
1000
OWNER
1000
GEN
1002
}
1001
GENIUS_GENCEN_19
1002
{
1040
2.0
1002
}
  0
DIMENSION
  5
2BF5
102
{ACAD_XDICTIONARY
360
2C02
102
}
102
{ACAD_REACTORS
330
2C03
102
}
330
1F
100
AcDbEntity
  8
AM_5
100
AcDbDimension
  2
*D4
 10
2307.10057394026
 20
1382.711751925832
 30
0.0
 11
2302.60057394026
 21
1362.461751925833
 31
0.0
 70
    32
 71
     5
 42
40.49999999999999
  3
AM_ISO$0
100
AcDbAlignedDimension
 13
2288.040044116707
 23
1342.211751925832
 33
0.0
 14
2289.100573940259
 24
1382.711751925832
 34
0.0
 50
90.0
100
AcDbRotatedDimension
1001
ACAD
1000
DSTYLE
1002
{
1070
    40
1040
1.0
1070
   144
1040
1.0
1070
   272
1070
     8
1002
}
  0
DIMENSION
  5
2C2A
102
{ACAD_XDICTIONARY
360
2C37
102
}
102
{ACAD_REACTORS
330
2C38
102
}
330
1F
100
AcDbEntity
  8
AM_5
100
AcDbDimension
  2
*D5
 10
2307.100573940259
 20
1499.211751925832
 30
0.0
 11
2302.600573940258
 21
1478.961751925832
 31
0.0
 70
    32
 71
     5
 42
40.49999999999999
  3
AM_ISO$0
100
AcDbAlignedDimension
 13
2289.100573940259
 23
1458.711751925832
 33
0.0
 14
2288.040044116707
 24
1499.211751925832
 34
0.0
 50
90.0
100
AcDbRotatedDimension
1001
ACAD
1000
DSTYLE
1002
{
1070
    40
1040
1.0
1070
   144
1040
1.0
1070
   272
1070
     8
1002
}
  0
DIMENSION
  5
2C50
330
1F
100
AcDbEntity
  8
AM_5
100
AcDbDimension
  2
*D6
 10
2321.100573940262
 20
1499.211751925832
 30
0.0
 11
2315.741842880139
 21
1420.711751925832
 31
0.0
 70
    32
  1
107+length
 71
     5
 42
156.9999999999995
  3
AM_ISO$0
100
AcDbAlignedDimension
 13
2288.040044116707
 23
1342.211751925832
 33
0.0
 14
2288.040044116707
 24
1499.211751925832
 34
0.0
 50
90.0
100
AcDbRotatedDimension
1001
ACAD
1000
DSTYLE
1002
{
1070
    40
1040
1.0
1070
   144
1040
1.0
1070
   272
1070
     8
1002
}
  0
DIMENSION
  5
2C76
102
{ACAD_XDICTIONARY
360
2C83
102
}
102
{ACAD_REACTORS
330
2C84
102
}
330
1F
100
AcDbEntity
  8
AM_5
100
AcDbDimension
  2
*D7
 10
2335.100573940259
 20
1546.211751925832
 30
0.0
 11
2329.741252328954
 21
1440.211751925833
 31
0.0
 70
    32
  1
162+length
 71
     5
 42
211.9999999999996
  3
AM_ISO$0
100
AcDbAlignedDimension
 13
2231.600573940259
 23
1334.211751925832
 33
0.0
 14
2230.600573940258
 24
1546.211751925832
 34
0.0
 50
90.0
100
AcDbRotatedDimension
1001
ACAD
1000
DSTYLE
1002
{
1070
    40
1040
1.0
1070
   144
1040
1.0
1070
   272
1070
     8
1002
}
  0
DIMENSION
  5
2C9C
102
{ACAD_XDICTIONARY
360
2CA9
102
}
102
{ACAD_REACTORS
330
2CAA
102
}
330
1F
100
AcDbEntity
  8
AM_5
100
AcDbDimension
  2
*D8
 10
2231.600573940258
 20
1566.053184249471
 30
0.0
 11
2201.600573940259
 21
1570.553184249471
 31
0.0
 70
    32
  1
%%c<>
 71
     5
 42
59.99999999999909
  3
AM_ISO$0
100
AcDbAlignedDimension
 13
2171.600573940259
 23
1545.211751925832
 33
0.0
 14
2231.600573940258
 24
1545.211751925832
 34
0.0
100
AcDbRotatedDimension
1001
ACAD
1000
DSTYLE
1002
{
1070
    40
1040
1.0
1070
   144
1040
1.0
1070
   272
1070
     8
1002
}
  0
DIMENSION
  5
2D03
102
{ACAD_XDICTIONARY
360
2D10
102
}
102
{ACAD_REACTORS
330
2D11
102
}
330
1F
100
AcDbEntity
  8
AM_5
100
AcDbDimension
  2
*D9
 10
2095.879297830448
 20
1717.853661570613
 30
0.0
 11
2091.378707279266
 21
1738.853661570613
 31
0.0
 70
    32
 71
     5
 42
42.0
  3
AM_ISO$0
100
AcDbAlignedDimension
 13
2180.17628865463
 23
1759.853661570613
 33
0.0
 14
2180.17628865463
 24
1717.853661570613
 34
0.0
 50
90.0
100
AcDbRotatedDimension
1001
ACAD
1000
DSTYLE
1002
{
1070
    40
1040
1.0
1070
   144
1040
1.0
1070
   272
1070
     8
1002
}
  0
DIMENSION
  5
2D2E
102
{ACAD_XDICTIONARY
360
2D3B
102
}
102
{ACAD_REACTORS
330
2D3C
102
}
330
1F
100
AcDbEntity
  8
AM_5
100
AcDbDimension
  2
*D10
 10
2081.879297830449
 20
1826.353661570612
 30
0.0
 11
2077.379297830448
 21
1738.853661570613
 31
0.0
 70
    32
  1
{\Famgdt;o}<>
 71
     5
 42
174.9999999999998
  3
AM_ISO$0
100
AcDbAlignedDimension
 13
2126.100573940258
 23
1651.353661570613
 33
0.0
 14
2126.100573940259
 24
1826.353661570612
 34
0.0
 50
90.0
100
AcDbRotatedDimension
1001
ACAD
1000
DSTYLE
1002
{
1070
    40
1040
1.0
1070
   144
1040
1.0
1070
   272
1070
     8
1002
}
  0
INSERT
  5
2D53
330
1F
100
AcDbEntity
  8
AM_5
100
AcDbBlockReference
  2
*S12
 10
0.0
 20
0.0
 30
0.0
  0
TEXT
  5
2D54
330
1F
100
AcDbEntity
  8
AM_5
100
AcDbText
 10
2156.962308550134
 20
1310.905097030435
 30
0.0
 40
5.0
  1
2-PT1/2
100
AcDbText
  0
LINE
  5
2ECA
330
1F
100
AcDbEntity
  8
0
100
AcDbLine
 10
2826.476281503077
 20
1736.644841703554
 30
0.0
 11
2826.476281503077
 21
1680.144841703554
 31
0.0
  0
LINE
  5
2ECB
330
1F
100
AcDbEntity
  8
0
100
AcDbLine
 10
2826.476281503077
 20
1680.144841703554
 30
0.0
 11
3001.476281503077
 21
1680.144841703554
 31
0.0
  0
LINE
  5
2ECC
330
1F
100
AcDbEntity
  8
0
100
AcDbLine
 10
2826.476281503077
 20
1689.144841703554
 30
0.0
 11
3001.476281503077
 21
1689.144841703554
 31
0.0
  0
LINE
  5
2ECD
330
1F
100
AcDbEntity
  8
0
100
AcDbLine
 10
3001.476281503077
 20
1736.644841703554
 30
0.0
 11
3001.476281503077
 21
1680.144841703554
 31
0.0
  0
LINE
  5
2ECE
330
1F
100
AcDbEntity
  8
CENTER
  6
CENTER
100
AcDbLine
 10
2980.976281503077
 20
1721.975827619047
 30
0.0
 11
2980.976281503077
 21
1697.257517759892
 31
0.0
  0
LINE
  5
2ECF
330
1F
100
AcDbEntity
  8
hidden
  6
HIDDEN
100
AcDbLine
 10
2837.976281503078
 20
1689.144841703554
 30
0.0
 11
2837.976281503078
 21
1680.144841703554
 31
0.0
  0
LINE
  5
2ED0
330
1F
100
AcDbEntity
  8
hidden
  6
HIDDEN
100
AcDbLine
 10
2855.976281503077
 20
1689.144841703554
 30
0.0
 11
2855.976281503077
 21
1680.144841703554
 31
0.0
  0
LINE
  5
2ED1
330
1F
100
AcDbEntity
  8
hidden
  6
HIDDEN
100
AcDbLine
 10
2971.976281503077
 20
1689.144841703554
 30
0.0
 11
2971.976281503077
 21
1680.144841703554
 31
0.0
  0
LINE
  5
2ED2
330
1F
100
AcDbEntity
  8
hidden
  6
HIDDEN
100
AcDbLine
 10
2989.976281503077
 20
1689.144841703554
 30
0.0
 11
2989.976281503077
 21
1680.144841703554
 31
0.0
  0
CIRCLE
  5
2ED3
330
1F
100
AcDbEntity
  8
0
100
AcDbCircle
 10
2846.976281503077
 20
1709.644841703554
 30
0.0
 40
9.0
  0
CIRCLE
  5
2ED4
330
1F
100
AcDbEntity
  8
0
100
AcDbCircle
 10
2980.976281503077
 20
1709.644841703554
 30
0.0
 40
9.0
  0
LINE
  5
2ED5
330
1F
100
AcDbEntity
  8
0
100
AcDbLine
 10
2826.476281503077
 20
1736.644841703554
 30
0.0
 11
3001.476281503077
 21
1736.644841703554
 31
0.0
  0
LINE
  5
2ED6
330
1F
100
AcDbEntity
  8
CENTER
  6
CENTER
100
AcDbLine
 10
2833.464746825261
 20
1709.644841703554
 30
0.0
 11
2860.487816180893
 21
1709.644841703554
 31
0.0
  0
LINE
  5
2ED7
330
1F
100
AcDbEntity
  8
CENTER
  6
CENTER
100
AcDbLine
 10
2969.081228010701
 20
1709.644841703554
 30
0.0
 11
2992.871334995453
 21
1709.644841703554
 31
0.0
  0
LINE
  5
2ED8
330
1F
100
AcDbEntity
  8
CENTER
  6
CENTER
100
AcDbLine
 10
2980.976281503077
 20
1691.553292407779
 30
0.0
 11
2980.976281503077
 21
1674.68709522468
 31
0.0
  0
LINE
  5
2ED9
330
1F
100
AcDbEntity
  8
CENTER
  6
CENTER
100
AcDbLine
 10
2846.976281503077
 20
1721.975827619047
 30
0.0
 11
2846.976281503077
 21
1697.257517759892
 31
0.0
  0
LINE
  5
2EDA
330
1F
100
AcDbEntity
  8
CENTER
  6
CENTER
100
AcDbLine
 10
2846.976281503077
 20
1691.553292407779
 30
0.0
 11
2846.976281503077
 21
1674.68709522468
 31
0.0
  0
ARC
  5
2EDB
330
1F
100
AcDbEntity
  8
0
100
AcDbCircle
 10
2778.427134513467
 20
1683.144841703554
 30
0.0
 40
6.0
100
AcDbArc
 50
0.0
 51
90.0
  0
LINE
  5
2EDC
330
1F
100
AcDbEntity
  8
0
100
AcDbLine
 10
2784.427134513467
 20
1680.144841703554
 30
0.0
 11
2709.427134513467
 21
1680.144841703554
 31
0.0
  0
LINE
  5
2EDD
330
1F
100
AcDbEntity
  8
0
100
AcDbLine
 10
2784.427134513467
 20
1683.144841703554
 30
0.0
 11
2784.427134513467
 21
1680.144841703554
 31
0.0
  0
LINE
  5
2EDE
330
1F
100
AcDbEntity
  8
0
100
AcDbLine
 10
2709.427134513467
 20
1736.644841703554
 30
0.0
 11
2709.427134513467
 21
1680.144841703554
 31
0.0
  0
LINE
  5
2EDF
330
1F
100
AcDbEntity
  8
CENTER
  6
CENTER
100
AcDbLine
 10
2764.427134513466
 20
1700.137799450033
 30
0.0
 11
2764.427134513466
 21
1670.637799450032
 31
0.0
  0
ARC
  5
2EE0
330
1F
100
AcDbEntity
  8
0
100
AcDbCircle
 10
2726.927134513467
 20
1697.644841703554
 30
0.0
 40
8.5
100
AcDbArc
 50
180.0
 51
270.0
  0
LINE
  5
2EE1
330
1F
100
AcDbEntity
  8
0
100
AcDbLine
 10
2778.427134513467
 20
1689.144841703554
 30
0.0
 11
2726.927134513467
 21
1689.144841703554
 31
0.0
  0
LINE
  5
2EE2
330
1F
100
AcDbEntity
  8
hidden
  6
HIDDEN
100
AcDbLine
 10
2773.427134513467
 20
1689.144841703554
 30
0.0
 11
2773.427134513467
 21
1680.144841703554
 31
0.0
  0
LINE
  5
2EE3
330
1F
100
AcDbEntity
  8
hidden
  6
HIDDEN
100
AcDbLine
 10
2755.427134513467
 20
1689.144841703554
 30
0.0
 11
2755.427134513467
 21
1680.144841703554
 31
0.0
  0
LINE
  5
2EE4
330
1F
100
AcDbEntity
  8
0
100
AcDbLine
 10
2718.427134513467
 20
1736.644841703554
 30
0.0
 11
2709.427134513467
 21
1736.644841703554
 31
0.0
  0
LINE
  5
2EE5
330
1F
100
AcDbEntity
  8
hidden
  6
HIDDEN
100
AcDbLine
 10
2718.427134513467
 20
1718.644841703554
 30
0.0
 11
2709.427134513467
 21
1718.644841703554
 31
0.0
  0
LINE
  5
2EE6
330
1F
100
AcDbEntity
  8
hidden
  6
HIDDEN
100
AcDbLine
 10
2718.427134513467
 20
1700.644841703554
 30
0.0
 11
2709.427134513467
 21
1700.644841703554
 31
0.0
  0
LINE
  5
2EE7
330
1F
100
AcDbEntity
  8
CENTER
  6
CENTER
100
AcDbLine
 10
2732.128228955178
 20
1709.644841703554
 30
0.0
 11
2704.635324150805
 21
1709.644841703554
 31
0.0
  0
LINE
  5
2EE8
330
1F
100
AcDbEntity
  8
0
100
AcDbLine
 10
2718.427134513467
 20
1736.644841703554
 30
0.0
 11
2718.427134513467
 21
1697.644841703554
 31
0.0
  0
LINE
  5
2EEB
330
1F
100
AcDbEntity
  8
0
100
AcDbLine
 10
2826.476281503077
 20
1857.024771817226
 30
0.0
 11
2826.476281503077
 21
1782.024771817226
 31
0.0
  0
LINE
  5
2EEC
330
1F
100
AcDbEntity
  8
0
100
AcDbLine
 10
3001.476281503077
 20
1857.024771817226
 30
0.0
 11
3001.476281503077
 21
1782.024771817226
 31
0.0
  0
LINE
  5
2EED
330
1F
100
AcDbEntity
  8
0
100
AcDbLine
 10
2826.476281503077
 20
1782.024771817226
 30
0.0
 11
3001.476281503077
 21
1782.024771817226
 31
0.0
  0
LINE
  5
2EEE
330
1F
100
AcDbEntity
  8
0
100
AcDbLine
 10
2826.476281503077
 20
1848.024771817225
 30
0.0
 11
3001.476281503077
 21
1848.024771817225
 31
0.0
  0
LINE
  5
2EEF
330
1F
100
AcDbEntity
  8
0
100
AcDbLine
 10
2826.476281503077
 20
1857.024771817226
 30
0.0
 11
3001.476281503077
 21
1857.024771817226
 31
0.0
  0
LINE
  5
2EF0
330
1F
100
AcDbEntity
  8
CENTER
  6
CENTER
100
AcDbLine
 10
2846.976281503077
 20
1859.024771817226
 30
0.0
 11
2846.976281503077
 21
1838.691449468538
 31
0.0
  0
LINE
  5
2EF1
330
1F
100
AcDbEntity
  8
hidden
  6
HIDDEN
100
AcDbLine
 10
2837.976281503078
 20
1857.024771817226
 30
0.0
 11
2837.976281503078
 21
1848.024771817225
 31
0.0
  0
LINE
  5
2EF2
330
1F
100
AcDbEntity
  8
hidden
  6
HIDDEN
100
AcDbLine
 10
2855.976281503077
 20
1857.024771817226
 30
0.0
 11
2855.976281503077
 21
1848.024771817225
 31
0.0
  0
CIRCLE
  5
2EF3
330
1F
100
AcDbEntity
  8
0
100
AcDbCircle
 10
2846.976281503077
 20
1802.024771817226
 30
0.0
 40
9.0
  0
LINE
  5
2EF4
330
1F
100
AcDbEntity
  8
hidden
  6
HIDDEN
100
AcDbLine
 10
2989.976281503077
 20
1857.024771817226
 30
0.0
 11
2989.976281503077
 21
1848.024771817225
 31
0.0
  0
LINE
  5
2EF5
330
1F
100
AcDbEntity
  8
hidden
  6
HIDDEN
100
AcDbLine
 10
2971.976281503077
 20
1857.024771817226
 30
0.0
 11
2971.976281503077
 21
1848.024771817225
 31
0.0
  0
LINE
  5
2EF6
330
1F
100
AcDbEntity
  8
CENTER
  6
CENTER
100
AcDbLine
 10
2980.976281503077
 20
1859.024771817226
 30
0.0
 11
2980.976281503077
 21
1838.691449468538
 31
0.0
  0
CIRCLE
  5
2EF7
330
1F
100
AcDbEntity
  8
0
100
AcDbCircle
 10
2980.976281503077
 20
1802.024771817226
 30
0.0
 40
9.0
  0
LINE
  5
2EF8
330
1F
100
AcDbEntity
  8
CENTER
  6
CENTER
100
AcDbLine
 10
2913.976281503077
 20
1860.024771817226
 30
0.0
 11
2913.976281503077
 21
1776.848758837705
 31
0.0
  0
LINE
  5
2EF9
330
1F
100
AcDbEntity
  8
CENTER
  6
CENTER
100
AcDbLine
 10
2993.30726741857
 20
1802.024771817226
 30
0.0
 11
2968.588957559415
 21
1802.024771817226
 31
0.0
  0
LINE
  5
2EFA
330
1F
100
AcDbEntity
  8
CENTER
  6
CENTER
100
AcDbLine
 10
2980.976281503077
 20
1815.536306495042
 30
0.0
 11
2980.976281503077
 21
1788.51323713941
 31
0.0
  0
LINE
  5
2EFB
330
1F
100
AcDbEntity
  8
CENTER
  6
CENTER
100
AcDbLine
 10
2859.30726741857
 20
1802.024771817226
 30
0.0
 11
2834.588957559415
 21
1802.024771817226
 31
0.0
  0
LINE
  5
2EFC
330
1F
100
AcDbEntity
  8
CENTER
  6
CENTER
100
AcDbLine
 10
2846.976281503077
 20
1815.536306495042
 30
0.0
 11
2846.976281503077
 21
1788.51323713941
 31
0.0
  0
LINE
  5
2F5A
330
1F
100
AcDbEntity
  8
CENTER
  6
CENTER
100
AcDbLine
 10
2788.565538142034
 20
1393.245236263774
 30
0.0
 11
3069.524014459338
 21
1393.245236263774
 31
0.0
  0
LINE
  5
2F5B
330
1F
100
AcDbEntity
  8
CENTER
  6
CENTER
100
AcDbLine
 10
2929.423396753665
 20
1488.690441743226
 30
0.0
 11
2929.423396753665
 21
1295.950715715829
 31
0.0
  0
CIRCLE
  5
2F5C
330
1F
100
AcDbEntity
  8
0
100
AcDbCircle
 10
2814.423396753665
 20
1460.245236263774
 30
0.0
 40
9.0
  0
CIRCLE
  5
2F5D
330
1F
100
AcDbEntity
  8
0
100
AcDbCircle
 10
2814.423396753665
 20
1326.245236263774
 30
0.0
 40
9.0
  0
CIRCLE
  5
2F5E
330
1F
100
AcDbEntity
  8
0
100
AcDbCircle
 10
3044.423396753665
 20
1326.245236263774
 30
0.0
 40
9.0
  0
CIRCLE
  5
2F5F
330
1F
100
AcDbEntity
  8
0
100
AcDbCircle
 10
3044.423396753665
 20
1460.245236263774
 30
0.0
 40
9.0
  0
LINE
  5
2F60
330
1F
100
AcDbEntity
  8
CENTER
  6
CENTER
100
AcDbLine
 10
2805.423396753666
 20
1326.245236263774
 30
0.0
 11
2823.423396753665
 21
1326.245236263774
 31
0.0
  0
LINE
  5
2F61
330
1F
100
AcDbEntity
  8
CENTER
  6
CENTER
100
AcDbLine
 10
2814.423396753665
 20
1317.245236263774
 30
0.0
 11
2814.423396753665
 21
1335.245236263774
 31
0.0
  0
LINE
  5
2F62
330
1F
100
AcDbEntity
  8
CENTER
  6
CENTER
100
AcDbLine
 10
2805.423396753665
 20
1460.245236263774
 30
0.0
 11
2823.423396753666
 21
1460.245236263774
 31
0.0
  0
LINE
  5
2F63
330
1F
100
AcDbEntity
  8
CENTER
  6
CENTER
100
AcDbLine
 10
2814.423396753665
 20
1451.245236263774
 30
0.0
 11
2814.423396753665
 21
1469.245236263774
 31
0.0
  0
LINE
  5
2F64
330
1F
100
AcDbEntity
  8
CENTER
  6
CENTER
100
AcDbLine
 10
3035.423396753665
 20
1460.245236263774
 30
0.0
 11
3053.423396753665
 21
1460.245236263774
 31
0.0
  0
LINE
  5
2F65
330
1F
100
AcDbEntity
  8
CENTER
  6
CENTER
100
AcDbLine
 10
3044.423396753665
 20
1451.245236263774
 30
0.0
 11
3044.423396753665
 21
1469.245236263774
 31
0.0
  0
LINE
  5
2F66
330
1F
100
AcDbEntity
  8
CENTER
  6
CENTER
100
AcDbLine
 10
3035.423396753665
 20
1326.245236263774
 30
0.0
 11
3053.423396753665
 21
1326.245236263774
 31
0.0
  0
LINE
  5
2F67
330
1F
100
AcDbEntity
  8
CENTER
  6
CENTER
100
AcDbLine
 10
3044.423396753665
 20
1317.245236263774
 30
0.0
 11
3044.423396753665
 21
1335.245236263774
 31
0.0
  0
CIRCLE
  5
2F68
330
1F
100
AcDbEntity
  8
0
100
AcDbCircle
 10
2996.423396753665
 20
1460.245236263774
 30
0.0
 40
7.0
  0
CIRCLE
  5
2F69
330
1F
100
AcDbEntity
  8
0
100
AcDbCircle
 10
2996.423396753665
 20
1460.245236263774
 30
0.0
 40
6.0
  0
CIRCLE
  5
2F6A
330
1F
100
AcDbEntity
  8
0
100
AcDbCircle
 10
2996.423396753665
 20
1326.245236263774
 30
0.0
 40
6.0
  0
CIRCLE
  5
2F6B
330
1F
100
AcDbEntity
  8
0
100
AcDbCircle
 10
2996.423396753665
 20
1326.245236263774
 30
0.0
 40
7.0
  0
CIRCLE
  5
2F6C
330
1F
100
AcDbEntity
  8
0
100
AcDbCircle
 10
2862.423396753665
 20
1326.245236263774
 30
0.0
 40
7.0
  0
CIRCLE
  5
2F6D
330
1F
100
AcDbEntity
  8
0
100
AcDbCircle
 10
2862.423396753665
 20
1326.245236263774
 30
0.0
 40
6.0
  0
CIRCLE
  5
2F6E
330
1F
100
AcDbEntity
  8
0
100
AcDbCircle
 10
2862.423396753665
 20
1460.245236263774
 30
0.0
 40
7.0
  0
CIRCLE
  5
2F6F
330
1F
100
AcDbEntity
  8
0
100
AcDbCircle
 10
2862.423396753665
 20
1460.245236263774
 30
0.0
 40
6.0
  0
LINE
  5
2F70
330
1F
100
AcDbEntity
  8
CENTER
  6
CENTER
100
AcDbLine
 10
2855.423396753666
 20
1326.245236263774
 30
0.0
 11
2869.423396753665
 21
1326.245236263774
 31
0.0
  0
LINE
  5
2F71
330
1F
100
AcDbEntity
  8
CENTER
  6
CENTER
100
AcDbLine
 10
2862.423396753665
 20
1319.245236263774
 30
0.0
 11
2862.423396753665
 21
1333.245236263774
 31
0.0
  0
LINE
  5
2F72
330
1F
100
AcDbEntity
  8
CENTER
  6
CENTER
100
AcDbLine
 10
2989.423396753665
 20
1326.245236263774
 30
0.0
 11
3003.423396753665
 21
1326.245236263774
 31
0.0
  0
LINE
  5
2F73
330
1F
100
AcDbEntity
  8
CENTER
  6
CENTER
100
AcDbLine
 10
2996.423396753665
 20
1319.245236263774
 30
0.0
 11
2996.423396753665
 21
1333.245236263774
 31
0.0
  0
LINE
  5
2F74
330
1F
100
AcDbEntity
  8
CENTER
  6
CENTER
100
AcDbLine
 10
2989.423396753665
 20
1460.245236263774
 30
0.0
 11
3003.423396753665
 21
1460.245236263774
 31
0.0
  0
LINE
  5
2F75
330
1F
100
AcDbEntity
  8
CENTER
  6
CENTER
100
AcDbLine
 10
2996.423396753665
 20
1453.245236263774
 30
0.0
 11
2996.423396753665
 21
1467.245236263774
 31
0.0
  0
LINE
  5
2F76
330
1F
100
AcDbEntity
  8
CENTER
  6
CENTER
100
AcDbLine
 10
2855.423396753666
 20
1460.245236263774
 30
0.0
 11
2869.423396753665
 21
1460.245236263774
 31
0.0
  0
LINE
  5
2F77
330
1F
100
AcDbEntity
  8
CENTER
  6
CENTER
100
AcDbLine
 10
2862.423396753665
 20
1453.245236263774
 30
0.0
 11
2862.423396753665
 21
1467.245236263774
 31
0.0
  0
LINE
  5
2F78
330
1F
100
AcDbEntity
  8
0
100
AcDbLine
 10
2791.923396753665
 20
1561.969159027743
 30
0.0
 11
3066.923396753665
 21
1561.969159027743
 31
0.0
  0
LINE
  5
2F79
330
1F
100
AcDbEntity
  8
0
100
AcDbLine
 10
2791.923396753665
 20
1541.969159027743
 30
0.0
 11
3066.923396753665
 21
1541.969159027743
 31
0.0
  0
LINE
  5
2F7A
330
1F
100
AcDbEntity
  8
0
100
AcDbLine
 10
3066.923396753665
 20
1561.969159027743
 30
0.0
 11
3066.923396753665
 21
1541.969159027743
 31
0.0
  0
LINE
  5
2F7B
330
1F
100
AcDbEntity
  8
0
100
AcDbLine
 10
2791.923396753665
 20
1561.969159027743
 30
0.0
 11
2791.923396753665
 21
1541.969159027743
 31
0.0
  0
LINE
  5
2F7C
330
1F
100
AcDbEntity
  8
hidden
  6
HIDDEN
100
AcDbLine
 10
2805.423396753665
 20
1561.969159027743
 30
0.0
 11
2805.423396753665
 21
1541.969159027743
 31
0.0
  0
LINE
  5
2F7D
330
1F
100
AcDbEntity
  8
hidden
  6
HIDDEN
100
AcDbLine
 10
2823.423396753665
 20
1561.969159027743
 30
0.0
 11
2823.423396753665
 21
1541.969159027743
 31
0.0
  0
LINE
  5
2F7E
330
1F
100
AcDbEntity
  8
CENTER
  6
CENTER
100
AcDbLine
 10
2814.423396753665
 20
1564.930463113629
 30
0.0
 11
2814.423396753665
 21
1539.124273545131
 31
0.0
  0
LINE
  5
2F7F
330
1F
100
AcDbEntity
  8
hidden
  6
HIDDEN
100
AcDbLine
 10
2856.423396753665
 20
1561.969159027743
 30
0.0
 11
2856.423396753665
 21
1541.969159027743
 31
0.0
  0
LINE
  5
2F80
330
1F
100
AcDbEntity
  8
hidden
  6
HIDDEN
100
AcDbLine
 10
2855.423396753664
 20
1561.969159027743
 30
0.0
 11
2855.423396753664
 21
1541.969159027743
 31
0.0
  0
LINE
  5
2F81
330
1F
100
AcDbEntity
  8
hidden
  6
HIDDEN
100
AcDbLine
 10
2868.423396753665
 20
1561.969159027743
 30
0.0
 11
2868.423396753665
 21
1541.969159027743
 31
0.0
  0
LINE
  5
2F82
330
1F
100
AcDbEntity
  8
hidden
  6
HIDDEN
100
AcDbLine
 10
2869.423396753665
 20
1561.969159027743
 30
0.0
 11
2869.423396753665
 21
1541.969159027743
 31
0.0
  0
LINE
  5
2F83
330
1F
100
AcDbEntity
  8
CENTER
  6
CENTER
100
AcDbLine
 10
2862.423396753665
 20
1564.930463113629
 30
0.0
 11
2862.423396753665
 21
1539.124273545131
 31
0.0
  0
LINE
  5
2F84
330
1F
100
AcDbEntity
  8
hidden
  6
HIDDEN
100
AcDbLine
 10
2899.423396753665
 20
1561.969159027743
 30
0.0
 11
2899.423396753665
 21
1541.969159027743
 31
0.0
  0
LINE
  5
2F85
330
1F
100
AcDbEntity
  8
CENTER
  6
CENTER
100
AcDbLine
 10
2929.423396753665
 20
1564.930463113629
 30
0.0
 11
2929.423396753665
 21
1539.124273545131
 31
0.0
  0
LINE
  5
2F86
330
1F
100
AcDbEntity
  8
hidden
  6
HIDDEN
100
AcDbLine
 10
2959.423396753665
 20
1561.969159027743
 30
0.0
 11
2959.423396753665
 21
1541.969159027743
 31
0.0
  0
LINE
  5
2F87
330
1F
100
AcDbEntity
  8
CENTER
  6
CENTER
100
AcDbLine
 10
2996.423396753665
 20
1564.930463113629
 30
0.0
 11
2996.423396753665
 21
1539.124273545131
 31
0.0
  0
LINE
  5
2F88
330
1F
100
AcDbEntity
  8
hidden
  6
HIDDEN
100
AcDbLine
 10
2989.423396753665
 20
1561.969159027743
 30
0.0
 11
2989.423396753665
 21
1541.969159027743
 31
0.0
  0
LINE
  5
2F89
330
1F
100
AcDbEntity
  8
hidden
  6
HIDDEN
100
AcDbLine
 10
2990.423396753665
 20
1561.969159027743
 30
0.0
 11
2990.423396753665
 21
1541.969159027743
 31
0.0
  0
LINE
  5
2F8A
330
1F
100
AcDbEntity
  8
hidden
  6
HIDDEN
100
AcDbLine
 10
3003.423396753665
 20
1561.969159027743
 30
0.0
 11
3003.423396753665
 21
1541.969159027743
 31
0.0
  0
LINE
  5
2F8B
330
1F
100
AcDbEntity
  8
hidden
  6
HIDDEN
100
AcDbLine
 10
3002.423396753665
 20
1561.969159027743
 30
0.0
 11
3002.423396753665
 21
1541.969159027743
 31
0.0
  0
LINE
  5
2F8C
330
1F
100
AcDbEntity
  8
CENTER
  6
CENTER
100
AcDbLine
 10
3044.423396753665
 20
1564.930463113629
 30
0.0
 11
3044.423396753665
 21
1539.124273545131
 31
0.0
  0
LINE
  5
2F8D
330
1F
100
AcDbEntity
  8
hidden
  6
HIDDEN
100
AcDbLine
 10
3035.423396753666
 20
1561.969159027743
 30
0.0
 11
3035.423396753666
 21
1541.969159027743
 31
0.0
  0
LINE
  5
2F8E
330
1F
100
AcDbEntity
  8
hidden
  6
HIDDEN
100
AcDbLine
 10
3053.423396753665
 20
1561.969159027743
 30
0.0
 11
3053.423396753665
 21
1541.969159027743
 31
0.0
  0
LINE
  5
2F8F
330
1F
100
AcDbEntity
  8
0
100
AcDbLine
 10
2804.423396753665
 20
1485.745236263774
 30
0.0
 11
3054.423396753665
 21
1485.745236263774
 31
0.0
  0
LINE
  5
2F90
330
1F
100
AcDbEntity
  8
0
100
AcDbLine
 10
2804.423396753665
 20
1300.745236263774
 30
0.0
 11
3054.423396753665
 21
1300.745236263774
 31
0.0
  0
LINE
  5
2F91
330
1F
100
AcDbEntity
  8
0
100
AcDbLine
 10
2794.423396753665
 20
1475.745236263774
 30
0.0
 11
2794.423396753665
 21
1310.745236263774
 31
0.0
  0
LINE
  5
2F92
330
1F
100
AcDbEntity
  8
0
100
AcDbLine
 10
3064.423396753665
 20
1475.745236263774
 30
0.0
 11
3064.423396753665
 21
1310.745236263774
 31
0.0
  0
ARC
  5
2F93
330
1F
100
AcDbEntity
  8
0
100
AcDbCircle
 10
2804.423396753665
 20
1310.745236263774
 30
0.0
 40
10.0
100
AcDbArc
 50
180.0
 51
270.0
  0
ARC
  5
2F94
330
1F
100
AcDbEntity
  8
0
100
AcDbCircle
 10
3054.423396753665
 20
1310.745236263774
 30
0.0
 40
10.0
100
AcDbArc
 50
270.0
 51
0.0
  0
ARC
  5
2F95
330
1F
100
AcDbEntity
  8
0
100
AcDbCircle
 10
3054.423396753665
 20
1475.745236263774
 30
0.0
 40
10.0
100
AcDbArc
 50
0.0
 51
90.0
  0
ARC
  5
2F96
330
1F
100
AcDbEntity
  8
0
100
AcDbCircle
 10
2804.423396753665
 20
1475.745236263774
 30
0.0
 40
10.0
100
AcDbArc
 50
90.0
 51
180.0
  0
CIRCLE
  5
2F97
330
1F
100
AcDbEntity
  8
0
100
AcDbCircle
 10
2929.423396753665
 20
1393.245236263774
 30
0.0
 40
31.0
  0
LINE
  5
2F98
330
1F
100
AcDbEntity
  8
0
100
AcDbLine
 10
2738.275007714027
 20
1300.745236263774
 30
0.0
 11
2738.275007714027
 21
1485.745236263774
 31
0.0
  0
LINE
  5
2F99
330
1F
100
AcDbEntity
  8
0
100
AcDbLine
 10
2718.275007714027
 20
1300.745236263774
 30
0.0
 11
2718.275007714027
 21
1485.745236263774
 31
0.0
  0
LINE
  5
2F9A
330
1F
100
AcDbEntity
  8
0
100
AcDbLine
 10
2738.275007714027
 20
1300.745236263774
 30
0.0
 11
2718.275007714027
 21
1300.745236263774
 31
0.0
  0
LINE
  5
2F9B
330
1F
100
AcDbEntity
  8
hidden
  6
HIDDEN
100
AcDbLine
 10
2738.275007714027
 20
1317.245236263774
 30
0.0
 11
2718.275007714027
 21
1317.245236263774
 31
0.0
  0
LINE
  5
2F9C
330
1F
100
AcDbEntity
  8
hidden
  6
HIDDEN
100
AcDbLine
 10
2738.275007714027
 20
1335.245236263774
 30
0.0
 11
2718.275007714027
 21
1335.245236263774
 31
0.0
  0
LINE
  5
2F9D
330
1F
100
AcDbEntity
  8
hidden
  6
HIDDEN
100
AcDbLine
 10
2738.275007714027
 20
1333.245236263774
 30
0.0
 11
2718.275007714027
 21
1333.245236263774
 31
0.0
  0
LINE
  5
2F9E
330
1F
100
AcDbEntity
  8
CENTER
  6
CENTER
100
AcDbLine
 10
2741.236311799913
 20
1326.245236263774
 30
0.0
 11
2715.430122231414
 21
1326.245236263774
 31
0.0
  0
LINE
  5
2F9F
330
1F
100
AcDbEntity
  8
hidden
  6
HIDDEN
100
AcDbLine
 10
2738.275007714027
 20
1332.245236263774
 30
0.0
 11
2718.275007714027
 21
1332.245236263774
 31
0.0
  0
LINE
  5
2FA0
330
1F
100
AcDbEntity
  8
hidden
  6
HIDDEN
100
AcDbLine
 10
2738.275007714027
 20
1320.245236263774
 30
0.0
 11
2718.275007714027
 21
1320.245236263774
 31
0.0
  0
LINE
  5
2FA1
330
1F
100
AcDbEntity
  8
hidden
  6
HIDDEN
100
AcDbLine
 10
2738.275007714027
 20
1319.245236263774
 30
0.0
 11
2718.275007714027
 21
1319.245236263774
 31
0.0
  0
LINE
  5
2FA2
330
1F
100
AcDbEntity
  8
hidden
  6
HIDDEN
100
AcDbLine
 10
2738.275007714027
 20
1363.245236263774
 30
0.0
 11
2718.275007714027
 21
1363.245236263774
 31
0.0
  0
LINE
  5
2FA3
330
1F
100
AcDbEntity
  8
CENTER
  6
CENTER
100
AcDbLine
 10
2741.236311799913
 20
1393.245236263774
 30
0.0
 11
2715.430122231414
 21
1393.245236263774
 31
0.0
  0
LINE
  5
2FA4
330
1F
100
AcDbEntity
  8
hidden
  6
HIDDEN
100
AcDbLine
 10
2738.275007714027
 20
1423.245236263774
 30
0.0
 11
2718.275007714027
 21
1423.245236263774
 31
0.0
  0
LINE
  5
2FA5
330
1F
100
AcDbEntity
  8
hidden
  6
HIDDEN
100
AcDbLine
 10
2738.275007714027
 20
1453.245236263774
 30
0.0
 11
2718.275007714027
 21
1453.245236263774
 31
0.0
  0
LINE
  5
2FA6
330
1F
100
AcDbEntity
  8
hidden
  6
HIDDEN
100
AcDbLine
 10
2738.275007714027
 20
1466.245236263774
 30
0.0
 11
2718.275007714027
 21
1466.245236263774
 31
0.0
  0
LINE
  5
2FA7
330
1F
100
AcDbEntity
  8
hidden
  6
HIDDEN
100
AcDbLine
 10
2738.275007714027
 20
1467.245236263774
 30
0.0
 11
2718.275007714027
 21
1467.245236263774
 31
0.0
  0
LINE
  5
2FA8
330
1F
100
AcDbEntity
  8
hidden
  6
HIDDEN
100
AcDbLine
 10
2738.275007714027
 20
1454.245236263774
 30
0.0
 11
2718.275007714027
 21
1454.245236263774
 31
0.0
  0
LINE
  5
2FA9
330
1F
100
AcDbEntity
  8
CENTER
  6
CENTER
100
AcDbLine
 10
2741.236311799913
 20
1460.245236263774
 30
0.0
 11
2715.430122231414
 21
1460.245236263774
 31
0.0
  0
LINE
  5
2FAA
330
1F
100
AcDbEntity
  8
0
100
AcDbLine
 10
2738.275007714027
 20
1485.745236263774
 30
0.0
 11
2718.275007714027
 21
1485.745236263774
 31
0.0
  0
LINE
  5
2FAB
330
1F
100
AcDbEntity
  8
hidden
  6
HIDDEN
100
AcDbLine
 10
2738.275007714027
 20
1469.245236263774
 30
0.0
 11
2718.275007714027
 21
1469.245236263774
 31
0.0
  0
LINE
  5
2FAC
330
1F
100
AcDbEntity
  8
hidden
  6
HIDDEN
100
AcDbLine
 10
2738.275007714027
 20
1451.245236263774
 30
0.0
 11
2718.275007714027
 21
1451.245236263774
 31
0.0
  0
LINE
  5
2FB4
330
1F
100
AcDbEntity
  8
0
 62
     4
100
AcDbLine
 10
2635.761486132371
 20
1929.641197753899
 30
0.0
 11
2635.761486132371
 21
1256.582511685462
 31
0.0
  0
LINE
  5
2FB5
330
1F
100
AcDbEntity
  8
0
 62
     4
100
AcDbLine
 10
2635.761486132371
 20
1620.547786035893
 30
0.0
 11
3128.600177198433
 21
1620.547786035892
 31
0.0
  0
TEXT
  5
301C
330
1F
100
AcDbEntity
  8
0
100
AcDbText
 10
2658.840490614876
 20
1888.772322953895
 30
0.0
 40
15.015
  1
LB
100
AcDbText
  0
TEXT
  5
301E
330
1F
100
AcDbEntity
  8
0
100
AcDbText
 10
2658.840490614876
 20
1585.353580898521
 30
0.0
 40
15.015
  1
FAC
100
AcDbText
  0
ENDSEC
  0
SECTION
  2
OBJECTS
  0
DICTIONARY
  5
C
330
0
100
AcDbDictionary
281
     1
  3
ACAD_COLOR
350
BE
  3
ACAD_GROUP
350
D
  3
ACAD_LAYOUT
350
1A
  3
ACAD_MATERIAL
350
BD
  3
ACAD_MLINESTYLE
350
17
  3
ACAD_PLOTSETTINGS
350
19
  3
ACAD_PLOTSTYLENAME
350
E
  3
ACAD_TABLESTYLE
350
11A
  3
ACDBHEADERROUNDTRIPXREC
350
309A
  3
AcDbVariableDictionary
350
94
  3
AcmDictionary
350
5B
  3
AMG
350
41
  3
AMGSNAPSETTINGS
350
1B8
  3
DWGPROPS
350
3099
  0
DICTIONARY
  5
3F9
330
2
100
AcDbDictionary
280
     1
281
     1
  3
ACAD_LAYERFILTERS
360
3051
  3
ACAD_LAYERSTATES
360
7A7
  3
ACLYDICTIONARY
360
3050
  0
DICTIONARY
  5
8F
330
1F
100
AcDbDictionary
280
     1
281
     1
  3
ACAD_SORTENTS
360
17D9
  0
DICTIONARY
  5
2B71
330
2B64
100
AcDbDictionary
280
     1
281
     1
  3
ACAD_DIMASSOC
360
2B72
  0
DICTIONARY
  5
2C02
330
2BF5
100
AcDbDictionary
280
     1
281
     1
  3
ACAD_DIMASSOC
360
2C03
  0
DICTIONARY
  5
2C37
330
2C2A
100
AcDbDictionary
280
     1
281
     1
  3
ACAD_DIMASSOC
360
2C38
  0
DICTIONARY
  5
2C83
330
2C76
100
AcDbDictionary
280
     1
281
     1
  3
ACAD_DIMASSOC
360
2C84
  0
DICTIONARY
  5
2CA9
330
2C9C
100
AcDbDictionary
280
     1
281
     1
  3
ACAD_DIMASSOC
360
2CAA
  0
DICTIONARY
  5
2D10
330
2D03
100
AcDbDictionary
280
     1
281
     1
  3
ACAD_DIMASSOC
360
2D11
  0
DICTIONARY
  5
2D3B
330
2D2E
100
AcDbDictionary
280
     1
281
     1
  3
ACAD_DIMASSOC
360
2D3C
  0
DICTIONARY
  5
BE
102
{ACAD_REACTORS
330
C
102
}
330
C
100
AcDbDictionary
281
     1
  0
DICTIONARY
  5
D
102
{ACAD_REACTORS
330
C
102
}
330
C
100
AcDbDictionary
281
     1
  0
DICTIONARY
  5
1A
102
{ACAD_REACTORS
330
C
102
}
330
C
100
AcDbDictionary
281
     1
  3
Model
350
22
  3
配置1
350
1E
  3
配置2
350
26
  0
DICTIONARY
  5
BD
102
{ACAD_REACTORS
330
C
102
}
330
C
100
AcDbDictionary
281
     1
  0
DICTIONARY
  5
17
102
{ACAD_REACTORS
330
C
102
}
330
C
100
AcDbDictionary
281
     1
  3
Standard
350
18
  0
DICTIONARY
  5
19
102
{ACAD_REACTORS
330
C
102
}
330
C
100
AcDbDictionary
281
     1
  0
ACDBDICTIONARYWDFLT
  5
E
102
{ACAD_REACTORS
330
C
102
}
330
C
100
AcDbDictionary
281
     1
  3
Normal
350
F
100
AcDbDictionaryWithDefault
340
F
  0
DICTIONARY
  5
11A
102
{ACAD_REACTORS
330
C
102
}
330
C
100
AcDbDictionary
281
     1
  3
Standard
350
11B
  0
DICTIONARY
  5
309A
102
{ACAD_REACTORS
330
C
102
}
330
C
100
AcDbDictionary
281
     1
  0
DICTIONARY
  5
94
102
{ACAD_REACTORS
330
C
102
}
330
C
100
AcDbDictionary
281
     1
  3
CTABLESTYLE
350
138
  3
DIMASSOC
350
96
  3
INDEXCTL
350
95
  3
PROJECTNAME
350
3097
  0
DICTIONARY
  5
5B
102
{ACAD_REACTORS
330
C
102
}
330
C
100
AcDbDictionary
281
     1
  3
AcmBOM
350
1B5
  3
AcmStdDictionary
350
61
  3
AMDTSECTSYM_ARROWCOLOR
350
123
  0
DICTIONARY
  5
41
102
{ACAD_REACTORS
330
C
102
}
330
C
100
AcDbDictionary
281
     1
  0
DICTIONARY
  5
1B8
102
{ACAD_REACTORS
330
C
102
}
330
C
100
AcDbDictionary
281
     1
  0
XRECORD
  5
3099
102
{ACAD_REACTORS
330
C
102
}
330
C
100
AcDbXrecord
280
     1
  1
DWGPROPS COOKIE
  2

  3

  4

  6

  7

  8

  9

300
AmdtFileType=84
301
=
302
=
303
=
304
=
305
=
306
=
307
=
308
=
309
=
 40
0.1616359143518518
 41
2453516.660980903
 42
2453517.564290903
  1

 90
        1
  0
DICTIONARY
  5
3051
102
{ACAD_REACTORS
330
3F9
102
}
330
3F9
100
AcDbDictionary
281
     1
  0
DICTIONARY
  5
7A7
102
{ACAD_REACTORS
330
3F9
102
}
330
3F9
100
AcDbDictionary
281
     1
  0
DICTIONARY
  5
3050
102
{ACAD_REACTORS
330
3F9
102
}
330
3F9
100
AcDbDictionary
281
     1
1001
ACAD
1000
<All
  0
SORTENTSTABLE
  5
17D9
102
{ACAD_REACTORS
330
8F
102
}
330
8F
100
AcDbSortentsTable
330
1F
331
2A6C
  5
2A70
331
2A73
  5
2A77
331
2A3E
  5
2A42
331
2669
  5
268A
331
238D
  5
238D
331
106E
  5
106E
331
10AB
  5
10AB
331
24CE
  5
24DA
331
250B
  5
2517
331
2540
  5
254C
331
2512
  5
251E
331
24D5
  5
24E1
331
24A0
  5
24AC
331
23C9
  5
23CF
331
2406
  5
2410
331
2463
  5
246F
331
2A8F
  5
2A93
331
2A96
  5
2A9A
331
2A59
  5
2A5D
331
1091
  5
1091
331
1054
  5
1054
331
1098
  5
1098
331
105B
  5
105B
331
2563
  5
256F
331
252D
  5
2539
331
256A
  5
2576
331
23AF
  5
23B6
331
23EC
  5
23F5
331
2449
  5
2455
331
2486
  5
2492
331
24BB
  5
24C7
331
24F8
  5
2504
331
2A47
  5
2A4B
331
2A7C
  5
2A80
331
1077
  5
1077
331
1041
  5
1041
331
107E
  5
107E
331
10B3
  5
10B3
331
2586
  5
25AB
331
251B
  5
2527
331
2550
  5
255C
331
24A9
  5
24B5
331
246C
  5
2478
331
24DE
  5
24EA
331
23D2
  5
23D9
331
23D9
  5
23E0
331
239C
  5
239C
331
26ED
  5
2703
331
2658
  5
265E
331
2A62
  5
2A66
331
10A1
  5
10A1
331
1064
  5
1064
331
2536
  5
2542
331
2573
  5
257F
331
2452
  5
245E
331
248F
  5
249B
331
24C4
  5
24D0
331
2501
  5
250D
331
23F5
  5
23FE
331
2459
  5
2465
331
2A85
  5
2A89
331
268B
  5
268F
331
25C5
  5
23F1
331
104A
  5
104A
331
10BC
  5
10BC
331
2559
  5
2565
331
2475
  5
2481
331
24E7
  5
24F3
331
2524
  5
2530
331
243F
  5
244B
331
247C
  5
2488
331
24B1
  5
24BD
331
23A5
  5
23A5
331
2A6B
  5
2A6F
331
2A72
  5
2A76
331
238C
  5
238C
331
106D
  5
106D
331
10AA
  5
10AA
331
24CD
  5
24D9
331
250A
  5
2516
331
253F
  5
254B
331
2511
  5
251D
331
24D4
  5
24E0
331
249F
  5
24AB
331
23C8
  5
23CE
331
2405
  5
240F
331
2462
  5
246E
331
2A8E
  5
2A92
331
2A95
  5
2A99
331
2A58
  5
2A5C
331
1090
  5
1090
331
1053
  5
1053
331
105A
  5
105A
331
2562
  5
256E
331
24F7
  5
2503
331
252C
  5
2538
331
2569
  5
2575
331
23AE
  5
23B5
331
23EB
  5
23F4
331
2448
  5
2454
331
2485
  5
2491
331
24BA
  5
24C6
331
2A46
  5
2A4A
331
2A7B
  5
2A7F
331
1076
  5
1076
331
1040
  5
1040
331
107D
  5
107D
331
10B2
  5
10B2
331
2585
  5
25AA
331
251A
  5
2526
331
254F
  5
255B
331
24A8
  5
24B4
331
246B
  5
2477
331
24DD
  5
24E9
331
23D1
  5
23D8
331
240E
  5
2446
331
23D8
  5
23DF
331
239B
  5
239B
331
2A61
  5
2A65
331
10A0
  5
10A0
331
1063
  5
1063
331
2535
  5
2541
331
2572
  5
257E
331
2451
  5
245D
331
248E
  5
249A
331
24C3
  5
24CF
331
2500
  5
250C
331
23B7
  5
23BB
331
2458
  5
2464
331
23BE
  5
23CA
331
2A4F
  5
2A53
331
2A84
  5
2A88
331
268A
  5
268E
331
25C4
  5
2443
331
1049
  5
1049
331
10BB
  5
10BB
331
2558
  5
2564
331
2474
  5
2480
331
24E6
  5
24F2
331
2523
  5
252F
331
243E
  5
244A
331
247B
  5
2487
331
24B0
  5
24BC
331
23A4
  5
23A4
331
2A6A
  5
2A6E
331
2A71
  5
2A75
331
2667
  5
2689
331
238B
  5
238B
331
106C
  5
106C
331
10A9
  5
10A9
331
2497
  5
24A3
331
24CC
  5
24D8
331
2509
  5
2515
331
253E
  5
254A
331
2510
  5
251C
331
24D3
  5
24DF
331
2461
  5
246D
331
23C7
  5
23CD
331
2404
  5
240E
331
249E
  5
24AA
331
2A8D
  5
2A91
331
2A57
  5
2A5B
331
2A94
  5
2A98
331
108F
  5
108F
331
1052
  5
1052
331
1059
  5
1059
331
24EF
  5
24FB
331
2561
  5
256D
331
24F6
  5
2502
331
252B
  5
2537
331
2568
  5
2574
331
23AD
  5
23B1
331
23EA
  5
23F3
331
2447
  5
2453
331
2484
  5
2490
331
24B9
  5
24C5
331
2A45
  5
2A49
331
2A7A
  5
2A7E
331
1075
  5
1075
331
103F
  5
103F
331
107C
  5
107C
331
10B1
  5
10B1
331
2547
  5
2553
331
2584
  5
25A7
331
258B
  5
25C4
331
2519
  5
2525
331
254E
  5
255A
331
246A
  5
2476
331
24DC
  5
24E8
331
23D0
  5
23D7
331
240D
  5
2445
331
239A
  5
239A
331
2A60
  5
2A64
331
1062
  5
1062
331
2534
  5
2540
331
2571
  5
257D
331
2450
  5
245C
331
248D
  5
2499
331
24C2
  5
24CE
331
24FF
  5
250B
331
23B6
  5
23BA
331
23F3
  5
23FC
331
23BD
  5
23C3
331
23FA
  5
2404
331
2A4E
  5
2A52
331
2A83
  5
2A87
331
2689
  5
268D
331
25C3
  5
2416
331
1048
  5
1048
331
10BA
  5
10BA
331
2557
  5
2563
331
2473
  5
247F
331
24E5
  5
24F1
331
2522
  5
252E
331
243D
  5
2449
331
247A
  5
2486
331
23A3
  5
23A3
331
265F
  5
2663
331
2A69
  5
2A6D
331
2A70
  5
2A74
331
2666
  5
2688
331
106B
  5
106B
331
10A8
  5
10A8
331
2496
  5
24A2
331
24CB
  5
24D7
331
2508
  5
2514
331
253D
  5
2549
331
24D2
  5
24DE
331
2460
  5
246C
331
23C6
  5
23CC
331
2403
  5
240D
331
249D
  5
24A9
331
2A8C
  5
2A90
331
2A56
  5
2A5A
331
2A93
  5
2A97
331
10C3
  5
10C3
331
108E
  5
108E
331
1051
  5
1051
331
1058
  5
1058
331
24EE
  5
24FA
331
2560
  5
256C
331
24F5
  5
2501
331
252A
  5
2536
331
23AC
  5
23AF
331
23E9
  5
23F0
331
2446
  5
2452
331
2483
  5
248F
331
24B8
  5
24C4
331
2A44
  5
2A48
331
2A79
  5
2A7D
331
1074
  5
1074
331
103E
  5
103E
331
107B
  5
107B
331
10B0
  5
10B0
331
2546
  5
2552
331
258A
  5
25C3
331
2518
  5
2524
331
254D
  5
2559
331
240C
  5
2444
331
2469
  5
2475
331
24DB
  5
24E7
331
23CF
  5
23D6
331
2399
  5
2399
331
2A5F
  5
2A63
331
2A9C
  5
2401
331
264D
  5
265D
331
1061
  5
1061
331
2533
  5
253F
331
2570
  5
257C
331
244F
  5
245B
331
248C
  5
2498
331
24C1
  5
24CD
331
24FE
  5
250A
331
23B5
  5
23B9
331
23F2
  5
23FB
331
23BC
  5
23C2
331
23F9
  5
2403
331
2A4D
  5
2A51
331
2A82
  5
2A86
331
2688
  5
268C
331
25C2
  5
23A9
331
1047
  5
1047
331
1084
  5
1084
331
10B9
  5
10B9
331
2556
  5
2562
331
24AF
  5
24BB
331
2472
  5
247E
331
24E4
  5
24F0
331
2521
  5
252D
331
243C
  5
2448
331
2479
  5
2485
331
23A2
  5
23A2
331
26F3
  5
28E8
331
265E
  5
2662
331
2A68
  5
2A6C
331
2665
  5
2687
331
10A7
  5
10A7
331
106A
  5
106A
331
2495
  5
24A1
331
24CA
  5
24D6
331
2507
  5
2513
331
253C
  5
2548
331
2579
  5
2592
331
24D1
  5
24DD
331
245F
  5
246B
331
2402
  5
240C
331
249C
  5
24A8
331
2A8B
  5
2A8F
331
2A55
  5
2A59
331
2A92
  5
2A96
331
26E0
  5
26F3
331
10C2
  5
10C2
331
108D
  5
108D
331
1050
  5
1050
331
25AC
  5
264D
331
24ED
  5
24F9
331
255F
  5
256B
331
24B7
  5
24C3
331
24F4
  5
2500
331
2529
  5
2535
331
23AB
  5
23AE
331
2445
  5
2451
331
2482
  5
248E
331
2A43
  5
2A47
331
2A78
  5
2A7C
331
2392
  5
2392
331
1073
  5
1073
331
103D
  5
103D
331
107A
  5
107A
331
2545
  5
2551
331
2589
  5
25C2
331
2517
  5
2523
331
254C
  5
2558
331
24A5
  5
24B3
331
23CE
  5
23D5
331
240B
  5
2415
331
2468
  5
2474
331
24DA
  5
24E6
331
2398
  5
2398
331
2A5E
  5
2A62
331
2A9B
  5
23D4
331
264C
  5
265C
331
1060
  5
1060
331
2532
  5
253E
331
256F
  5
257B
331
244E
  5
245A
331
248B
  5
2497
331
24C0
  5
24CC
331
24FD
  5
2509
331
23B4
  5
23B8
331
23F1
  5
23FA
331
23BB
  5
23BF
331
23F8
  5
2402
331
2A4C
  5
2A50
331
2A81
  5
2A85
331
2687
  5
268B
331
25C1
  5
23AA
331
1046
  5
1046
331
10B8
  5
10B8
331
2555
  5
2561
331
24AE
  5
24BA
331
2471
  5
247D
331
24E3
  5
24EF
331
23D7
  5
23DE
331
2520
  5
252C
331
2592
  5
25C8
331
243B
  5
2447
331
2478
  5
2484
331
26F2
  5
2761
331
265D
  5
2661
331
2A67
  5
2A6B
331
2664
  5
2669
331
10A6
  5
10A6
331
1069
  5
1069
331
2457
  5
2463
331
2494
  5
24A0
331
24C9
  5
24D5
331
2506
  5
2512
331
253B
  5
2547
331
24D0
  5
24DC
331
245E
  5
246A
331
2401
  5
240B
331
249B
  5
24A7
331
2A8A
  5
2A8E
331
2A54
  5
2A58
331
2A91
  5
2A95
331
26DF
  5
26F1
331
104F
  5
104F
331
10C1
  5
10C1
331
25AB
  5
264C
331
24EC
  5
24F8
331
255E
  5
256A
331
24B6
  5
24C2
331
24F3
  5
24FF
331
2528
  5
2534
331
23AA
  5
23AC
331
2444
  5
2450
331
2481
  5
248D
331
2A77
  5
2A7B
331
2A42
  5
2A46
331
2391
  5
2391
331
10AF
  5
10AF
331
1072
  5
1072
331
103C
  5
103C
331
1079
  5
1079
331
250F
  5
251B
331
2544
  5
2550
331
2516
  5
2522
331
2588
  5
25C1
331
24A4
  5
24B2
331
23CD
  5
23D3
331
240A
  5
2414
331
2467
  5
2473
331
24D9
  5
24E5
331
2A5D
  5
2A61
331
2A9A
  5
23B0
331
264B
  5
265B
331
109C
  5
109C
331
105F
  5
105F
331
2567
  5
2573
331
2531
  5
253D
331
256E
  5
257A
331
244D
  5
2459
331
248A
  5
2496
331
24BF
  5
24CB
331
24FC
  5
2508
331
23B3
  5
23B7
331
23F0
  5
23F9
331
23BA
  5
23BE
331
2A4B
  5
2A4F
331
2A80
  5
2A84
331
1045
  5
1045
331
10B7
  5
10B7
331
2554
  5
2560
331
24AD
  5
24B9
331
2470
  5
247C
331
24E2
  5
24EE
331
23D6
  5
23DD
331
251F
  5
252B
331
2591
  5
25C7
331
23A0
  5
23A0
331
26F1
  5
2736
331
265C
  5
2660
331
2A66
  5
2A6A
331
2663
  5
2667
331
1068
  5
1068
331
253A
  5
2546
331
2577
  5
2590
331
2456
  5
2462
331
2493
  5
249F
331
24C8
  5
24D4
331
2505
  5
2511
331
245D
  5
2469
331
2400
  5
240A
331
249A
  5
24A6
331
2A89
  5
2A8D
331
268F
  5
26E0
331
2A53
  5
2A57
331
2A90
  5
2A94
331
26DE
  5
26EF
331
104E
  5
104E
331
10C0
  5
10C0
331
24EB
  5
24F7
331
255D
  5
2569
331
2480
  5
248C
331
24B5
  5
24C1
331
24F2
  5
24FE
331
23A9
  5
23AB
331
2443
  5
244F
331
2A6F
  5
2A73
331
2A76
  5
2A7A
331
2A41
  5
2A45
331
2390
  5
2390
331
10AE
  5
10AE
331
1071
  5
1071
331
1078
  5
1078
331
250E
  5
251A
331
2543
  5
254F
331
2515
  5
2521
331
254A
  5
2556
331
24A3
  5
24B1
331
23CC
  5
23D2
331
2466
  5
2472
331
24D8
  5
24E4
331
2A5C
  5
2A60
331
2A99
  5
23AD
331
264A
  5
2658
331
1094
  5
1094
331
1057
  5
1057
331
105E
  5
105E
331
2566
  5
2572
331
2530
  5
253C
331
256D
  5
2579
331
244C
  5
2458
331
2489
  5
2495
331
24BE
  5
24CA
331
24FB
  5
2507
331
23EF
  5
23F8
331
23B9
  5
23BD
331
2A4A
  5
2A4E
331
2A7F
  5
2A83
331
1044
  5
1044
331
10B6
  5
10B6
331
2553
  5
255F
331
24AC
  5
24B8
331
246F
  5
247B
331
24E1
  5
24ED
331
23D5
  5
23DC
331
251E
  5
252A
331
23DC
  5
23ED
331
239F
  5
239F
331
26F0
  5
26F2
331
265B
  5
265F
331
2A65
  5
2A69
331
2662
  5
2666
331
1067
  5
1067
331
2539
  5
2545
331
2576
  5
258D
331
2455
  5
2461
331
2492
  5
249E
331
24C7
  5
24D3
331
2504
  5
2510
331
245C
  5
2468
331
23FF
  5
2409
331
2499
  5
24A5
331
2A88
  5
2A8C
331
268E
  5
26DF
331
2A52
  5
2A56
331
25C8
  5
23C0
331
26DD
  5
26ED
331
104D
  5
104D
331
10BF
  5
10BF
331
24EA
  5
24F6
331
2527
  5
2533
331
255C
  5
2568
331
2442
  5
244E
331
23A8
  5
23A8
331
247F
  5
248B
331
24B4
  5
24C0
331
24F1
  5
24FD
331
2A6E
  5
2A72
331
2A75
  5
2A79
331
2A40
  5
2A44
331
238F
  5
238F
331
10AD
  5
10AD
331
1070
  5
1070
331
250D
  5
2519
331
2542
  5
254E
331
2514
  5
2520
331
24D7
  5
24E3
331
2549
  5
2555
331
24A2
  5
24B0
331
23CB
  5
23D1
331
2465
  5
2471
331
2A5B
  5
2A5F
331
2A98
  5
2A9C
331
1093
  5
1093
331
1056
  5
1056
331
105D
  5
105D
331
2565
  5
2571
331
252F
  5
253B
331
256C
  5
2578
331
244B
  5
2457
331
2488
  5
2494
331
24BD
  5
24C9
331
24FA
  5
2506
331
23EE
  5
23F7
331
23B8
  5
23BC
331
2A49
  5
2A4D
331
2A7E
  5
2A82
331
1043
  5
1043
331
1080
  5
1080
331
10B5
  5
10B5
331
2552
  5
255E
331
24AB
  5
24B7
331
246E
  5
247A
331
24E0
  5
24EC
331
23D4
  5
23DB
331
251D
  5
2529
331
23DB
  5
23E8
331
239E
  5
239E
331
26EF
  5
26F0
331
2A64
  5
2A68
331
2661
  5
2665
331
1066
  5
1066
331
2538
  5
2544
331
2575
  5
2581
331
2454
  5
2460
331
2491
  5
249D
331
24C6
  5
24D2
331
2503
  5
250F
331
23F7
  5
2400
331
245B
  5
2467
331
2498
  5
24A4
331
2A87
  5
2A8B
331
268D
  5
26DE
331
2A51
  5
2A55
331
25C7
  5
23C1
331
10BE
  5
10BE
331
104C
  5
104C
331
1089
  5
1089
331
2477
  5
2483
331
24E9
  5
24F5
331
2526
  5
2532
331
255B
  5
2567
331
2441
  5
244D
331
247E
  5
248A
331
24B3
  5
24BF
331
24F0
  5
24FC
331
23E4
  5
23EF
331
23A7
  5
23A7
331
2A6D
  5
2A71
331
2A74
  5
2A78
331
2A3F
  5
2A43
331
238E
  5
238E
331
106F
  5
106F
331
10AC
  5
10AC
331
24CF
  5
24DB
331
250C
  5
2518
331
2541
  5
254D
331
2513
  5
251F
331
24D6
  5
24E2
331
2548
  5
2554
331
24A1
  5
24AD
331
23CA
  5
23D0
331
2464
  5
2470
331
2A97
  5
2A9B
331
2A5A
  5
2A5E
331
1092
  5
1092
331
1055
  5
1055
331
105C
  5
105C
331
2564
  5
2570
331
252E
  5
253A
331
256B
  5
2577
331
23ED
  5
23F6
331
244A
  5
2456
331
2487
  5
2493
331
24BC
  5
24C8
331
24F9
  5
2505
331
2A48
  5
2A4C
331
2A7D
  5
2A81
331
2397
  5
2397
331
1042
  5
1042
331
107F
  5
107F
331
10B4
  5
10B4
331
2587
  5
25AC
331
2551
  5
255D
331
24AA
  5
24B6
331
246D
  5
2479
331
24DF
  5
24EB
331
23D3
  5
23DA
331
251C
  5
2528
331
23DA
  5
23E7
331
239D
  5
239D
331
2A63
  5
2A67
331
2660
  5
2664
331
10A2
  5
10A2
331
1065
  5
1065
331
2537
  5
2543
331
2574
  5
2580
331
2453
  5
245F
331
2490
  5
249C
331
24C5
  5
24D1
331
2502
  5
250E
331
245A
  5
2466
331
2A86
  5
2A8A
331
268C
  5
26DD
331
2A50
  5
2A54
331
25C6
  5
23F2
331
10BD
  5
10BD
331
104B
  5
104B
331
1088
  5
1088
331
2476
  5
2482
331
24E8
  5
24F4
331
2525
  5
2531
331
255A
  5
2566
331
2440
  5
244C
331
247D
  5
2489
331
24B2
  5
24BE
331
23E3
  5
23EE
331
23A6
  5
23A6
  0
DIMASSOC
  5
2B72
102
{ACAD_REACTORS
330
2B71
102
}
330
2B71
100
AcDbDimAssoc
330
2B64
 90
        3
 70
     0
 71
     0
  1
AcDbOsnapPointRef
 72
    13
331
247E
 73
     0
 91
        0
 40
0.0
 10
0.0
 20
0.0
 30
2.000000000000000E+50
 75
     0
  1
AcDbOsnapPointRef
 72
     1
331
2B05
 73
     0
 91
        0
 40
0.0
 10
0.0
 20
0.0
 30
2.000000000000000E+50
 75
     0
  0
DIMASSOC
  5
2C03
102
{ACAD_REACTORS
330
2C02
102
}
330
2C02
100
AcDbDimAssoc
330
2BF5
 90
        3
 70
     0
 71
     0
  1
AcDbOsnapPointRef
 72
     1
331
25C4
 73
     0
 91
        0
 40
0.0
 10
0.0
 20
0.0
 30
2.000000000000000E+50
 75
     0
  1
AcDbOsnapPointRef
 72
     1
331
2A9C
 73
     0
 91
        0
 40
0.0
 10
0.0
 20
0.0
 30
2.000000000000000E+50
 75
     0
  0
DIMASSOC
  5
2C38
102
{ACAD_REACTORS
330
2C37
102
}
330
2C37
100
AcDbDimAssoc
330
2C2A
 90
        3
 70
     0
 71
     0
  1
AcDbOsnapPointRef
 72
     1
331
2A99
 73
     0
 91
        0
 40
0.0
 10
0.0
 20
0.0
 30
2.000000000000000E+50
 75
     0
  1
AcDbOsnapPointRef
 72
    13
331
23A9
 73
     0
 91
        0
 40
0.0
 10
0.0
 20
0.0
 30
2.000000000000000E+50
 75
     0
  0
DIMASSOC
  5
2C84
102
{ACAD_REACTORS
330
2C83
102
}
330
2C83
100
AcDbDimAssoc
330
2C76
 90
        3
 70
     0
 71
     0
  1
AcDbOsnapPointRef
 72
     1
331
240E
 73
     0
 91
        0
 40
0.0
 10
0.0
 20
0.0
 30
2.000000000000000E+50
 75
     0
  1
AcDbOsnapPointRef
 72
    13
331
268E
 73
     0
 91
        0
 40
0.0
 10
0.0
 20
0.0
 30
2.000000000000000E+50
 75
     0
  0
DIMASSOC
  5
2CAA
102
{ACAD_REACTORS
330
2CA9
102
}
330
2CA9
100
AcDbDimAssoc
330
2C9C
 90
        3
 70
     0
 71
     0
  1
AcDbOsnapPointRef
 72
     1
331
268F
 73
     0
 91
        0
 40
0.0
 10
0.0
 20
0.0
 30
2.000000000000000E+50
 75
     0
  1
AcDbOsnapPointRef
 72
     1
331
268E
 73
     0
 91
        0
 40
0.0
 10
0.0
 20
0.0
 30
2.000000000000000E+50
 75
     0
  0
DIMASSOC
  5
2D11
102
{ACAD_REACTORS
330
2D10
102
}
330
2D10
100
AcDbDimAssoc
330
2D03
 90
        3
 70
     0
 71
     0
  1
AcDbOsnapPointRef
 72
    13
331
265C
 73
     0
 91
        0
 40
0.0
 10
0.0
 20
0.0
 30
2.000000000000000E+50
 75
     0
  1
AcDbOsnapPointRef
 72
    13
331
265B
 73
     0
 91
        0
 40
0.0
 10
0.0
 20
0.0
 30
2.000000000000000E+50
 75
     0
  0
DIMASSOC
  5
2D3C
102
{ACAD_REACTORS
330
2D3B
102
}
330
2D3B
100
AcDbDimAssoc
330
2D2E
 90
        3
 70
     0
 71
     0
  1
AcDbOsnapPointRef
 72
     1
331
2484
 73
     0
 91
        0
 40
0.0
 10
0.0
 20
0.0
 30
2.000000000000000E+50
 75
     0
  1
AcDbOsnapPointRef
 72
     1
331
2483
 73
     0
 91
        0
 40
0.0
 10
0.0
 20
0.0
 30
2.000000000000000E+50
 75
     0
  0
LAYOUT
  5
22
102
{ACAD_XDICTIONARY
360
309D
102
}
102
{ACAD_REACTORS
330
1A
102
}
330
1A
100
AcDbPlotSettings
  1

  2
\\RD\EPSON Stylus C63 Series單色
  4
A4
  6

 40
3.757083177566528
 41
3.757076978683471
 42
3.757080078125
 43
3.757080078125
 44
209.9733276367187
 45
296.9683227539062
 46
0.0
 47
0.0
 48
0.0
 49
0.0
140
0.0
141
0.0
142
1.0
143
4.659655629280508
 70
 11952
 72
     1
 73
     1
 74
     0
  7

 75
     0
147
0.2146081340681411
148
-1906.771569589682
149
-1191.859276371616
100
AcDbLayout
  1
Model
 70
     1
 71
     0
 10
0.0
 20
0.0
 11
12.0
 21
9.0
 12
0.0
 22
0.0
 32
0.0
 14
0.0
 24
0.0
 34
0.0
 15
0.0
 25
0.0
 35
0.0
146
0.0
 13
0.0
 23
0.0
 33
0.0
 16
1.0
 26
0.0
 36
0.0
 17
0.0
 27
1.0
 37
0.0
 76
     0
330
1F
1001
ACAD_PSEXT
1000
\\RD\EPSON Stylus C63 Series單色
1000
EPSON Stylus C63 Series
1000
\\RD
1000

1070
     0
  0
LAYOUT
  5
1E
102
{ACAD_XDICTIONARY
360
309B
102
}
102
{ACAD_REACTORS
330
1A
102
}
330
1A
100
AcDbPlotSettings
  1

  2

  4

  6

 40
0.0
 41
0.0
 42
0.0
 43
0.0
 44
0.0
 45
0.0
 46
0.0
 47
0.0
 48
0.0
 49
0.0
140
0.0
141
0.0
142
1.0
143
1.0
 70
   688
 72
     0
 73
     0
 74
     5
  7

 75
    16
147
1.0
148
0.0
149
0.0
100
AcDbLayout
  1
配置1
 70
     1
 71
     1
 10
0.0
 20
0.0
 11
420.0
 21
297.0
 12
0.0
 22
0.0
 32
0.0
 14
1.000000000000000E+20
 24
1.000000000000000E+20
 34
1.000000000000000E+20
 15
-1.000000000000000E+20
 25
-1.000000000000000E+20
 35
-1.000000000000000E+20
146
0.0
 13
0.0
 23
0.0
 33
0.0
 16
1.0
 26
0.0
 36
0.0
 17
0.0
 27
1.0
 37
0.0
 76
     0
330
1B
  0
LAYOUT
  5
26
102
{ACAD_XDICTIONARY
360
309F
102
}
102
{ACAD_REACTORS
330
1A
102
}
330
1A
100
AcDbPlotSettings
  1

  2

  4

  6

 40
0.0
 41
0.0
 42
0.0
 43
0.0
 44
0.0
 45
0.0
 46
0.0
 47
0.0
 48
0.0
 49
0.0
140
0.0
141
0.0
142
1.0
143
1.0
 70
   688
 72
     0
 73
     0
 74
     5
  7

 75
    16
147
1.0
148
0.0
149
0.0
100
AcDbLayout
  1
配置2
 70
     1
 71
     2
 10
0.0
 20
0.0
 11
12.0
 21
9.0
 12
0.0
 22
0.0
 32
0.0
 14
0.0
 24
0.0
 34
0.0
 15
0.0
 25
0.0
 35
0.0
146
0.0
 13
0.0
 23
0.0
 33
0.0
 16
1.0
 26
0.0
 36
0.0
 17
0.0
 27
1.0
 37
0.0
 76
     0
330
23
  0
MLINESTYLE
  5
18
102
{ACAD_REACTORS
330
17
102
}
330
17
100
AcDbMlineStyle
  2
STANDARD
 70
     0
  3

 62
   256
 51
90.0
 52
90.0
 71
     2
 49
0.5
 62
   256
  6
BYLAYER
 49
-0.5
 62
   256
  6
BYLAYER
  0
ACDBPLACEHOLDER
  5
F
102
{ACAD_REACTORS
330
E
102
}
330
E
  0
TABLESTYLE
  5
11B
102
{ACAD_REACTORS
330
11A
102
}
330
11A
100
AcDbTableStyle
  3
Standard
 70
     0
 71
     0
 40
1.5
 41
1.5
280
     0
281
     0
  7
STANDARD
140
4.5
170
     2
 62
     0
 63
     7
283
     0
274
    -2
284
     1
 64
     0
275
    -2
285
     1
 65
     0
276
    -2
286
     1
 66
     0
277
    -2
287
     1
 67
     0
278
    -2
288
     1
 68
     0
279
    -2
289
     1
 69
     0
  7
STANDARD
140
6.0
170
     5
 62
     0
 63
     7
283
     0
274
    -2
284
     1
 64
     0
275
    -2
285
     1
 65
     0
276
    -2
286
     1
 66
     0
277
    -2
287
     1
 67
     0
278
    -2
288
     1
 68
     0
279
    -2
289
     1
 69
     0
  7
STANDARD
140
4.5
170
     5
 62
     0
 63
     7
283
     0
274
    -2
284
     1
 64
     0
275
    -2
285
     1
 65
     0
276
    -2
286
     1
 66
     0
277
    -2
287
     1
 67
     0
278
    -2
288
     1
 68
     0
279
    -2
289
     1
 69
     0
  0
DICTIONARYVAR
  5
138
102
{ACAD_REACTORS
330
94
102
}
330
94
100
DictionaryVariables
280
     0
  1
STANDARD
  0
DICTIONARYVAR
  5
96
102
{ACAD_REACTORS
330
94
102
}
330
94
100
DictionaryVariables
280
     0
  1
2
  0
DICTIONARYVAR
  5
95
102
{ACAD_REACTORS
330
94
102
}
330
94
100
DictionaryVariables
280
     0
  1
0
  0
DICTIONARYVAR
  5
3097
102
{ACAD_REACTORS
330
94
102
}
330
94
100
DictionaryVariables
280
     0
  1

  0
DICTIONARY
  5
1B5
102
{ACAD_REACTORS
330
5B
102
}
330
5B
100
AcDbDictionary
281
     1
  0
DICTIONARY
  5
61
102
{ACAD_REACTORS
330
5B
102
}
330
5B
100
AcDbDictionary
281
     1
  0
XRECORD
  5
123
102
{ACAD_REACTORS
330
5B
102
}
330
5B
100
AcDbXrecord
280
     1
 90
-1023410169
  0
DICTIONARY
  5
309D
330
22
100
AcDbDictionary
280
     1
281
     1
  3
ACAD_XREC_ROUNDTRIP
360
309E
  0
DICTIONARY
  5
309B
330
1E
100
AcDbDictionary
280
     1
281
     1
  3
ACAD_XREC_ROUNDTRIP
360
309C
  0
DICTIONARY
  5
309F
330
26
100
AcDbDictionary
280
     1
281
     1
  3
ACAD_XREC_ROUNDTRIP
360
30A0
  0
XRECORD
  5
309E
102
{ACAD_REACTORS
330
309D
102
}
330
309D
100
AcDbXrecord
280
     1
102
SHADEPLOT
 70
     0
102
SHADEPLOTRESLEVEL
 70
     2
102
SHADEPLOTCUSTOMDPI
 70
   300
  0
XRECORD
  5
309C
102
{ACAD_REACTORS
330
309B
102
}
330
309B
100
AcDbXrecord
280
     1
102
SHADEPLOT
 70
     0
102
SHADEPLOTRESLEVEL
 70
     2
102
SHADEPLOTCUSTOMDPI
 70
   300
  0
XRECORD
  5
30A0
102
{ACAD_REACTORS
330
309F
102
}
330
309F
100
AcDbXrecord
280
     1
102
SHADEPLOT
 70
     0
102
SHADEPLOTRESLEVEL
 70
     2
102
SHADEPLOTCUSTOMDPI
 70
   300
  0
ENDSEC
  0
EOF
