  0
SECTION
  2
HEADER
  9
$ACADVER
  1
AC1015
  9
$ACADMAINTVER
 70
    20
  9
$DWGCODEPAGE
  3
ANSI_950
  9
$INSBASE
 10
0.0
 20
0.0
 30
0.0
  9
$EXTMIN
 10
34.96747601775371
 20
-259.769717985379
 30
-0.0171045539207171
  9
$EXTMAX
 10
462.6536519168021
 20
328.3620688733677
 30
280.2709479293582
  9
$LIMMIN
 10
0.0
 20
0.0
  9
$LIMMAX
 10
396.0
 20
273.0
  9
$ORTHOMODE
 70
     1
  9
$REGENMODE
 70
     1
  9
$FILLMODE
 70
     1
  9
$QTEXTMODE
 70
     0
  9
$MIRRTEXT
 70
     1
  9
$LTSCALE
 40
5.0
  9
$ATTMODE
 70
     1
  9
$TEXTSIZE
 40
3.0
  9
$TRACEWID
 40
0.05
  9
$TEXTSTYLE
  7
DAYUS
  9
$CLAYER
  8
0
  9
$CELTYPE
  6
BYLAYER
  9
$CECOLOR
 62
   256
  9
$CELTSCALE
 40
1.0
  9
$DISPSILH
 70
     0
  9
$DIMSCALE
 40
1.0
  9
$DIMASZ
 40
3.0
  9
$DIMEXO
 40
1.0
  9
$DIMDLI
 40
6.0
  9
$DIMRND
 40
0.0
  9
$DIMDLE
 40
0.0
  9
$DIMEXE
 40
1.5
  9
$DIMTP
 40
0.1
  9
$DIMTM
 40
0.1
  9
$DIMTXT
 40
3.0
  9
$DIMCEN
 40
3.0
  9
$DIMTSZ
 40
0.0
  9
$DIMTOL
 70
     0
  9
$DIMLIM
 70
     0
  9
$DIMTIH
 70
     0
  9
$DIMTOH
 70
     0
  9
$DIMSE1
 70
     0
  9
$DIMSE2
 70
     0
  9
$DIMTAD
 70
     1
  9
$DIMZIN
 70
     8
  9
$DIMBLK
  1

  9
$DIMASO
 70
     1
  9
$DIMSHO
 70
     0
  9
$DIMPOST
  1

  9
$DIMAPOST
  1
"
  9
$DIMALT
 70
     0
  9
$DIMALTD
 70
     2
  9
$DIMALTF
 40
0.0393701
  9
$DIMLFAC
 40
1.0
  9
$DIMTOFL
 70
     1
  9
$DIMTVP
 40
0.0
  9
$DIMTIX
 70
     0
  9
$DIMSOXD
 70
     0
  9
$DIMSAH
 70
     0
  9
$DIMBLK1
  1

  9
$DIMBLK2
  1

  9
$DIMSTYLE
  2
AM_ISO
  9
$DIMCLRD
 70
   256
  9
$DIMCLRE
 70
   256
  9
$DIMCLRT
 70
   256
  9
$DIMTFAC
 40
0.71
  9
$DIMGAP
 40
0.8
  9
$DIMJUST
 70
     0
  9
$DIMSD1
 70
     0
  9
$DIMSD2
 70
     0
  9
$DIMTOLJ
 70
     0
  9
$DIMTZIN
 70
     8
  9
$DIMALTZ
 70
     0
  9
$DIMALTTZ
 70
     0
  9
$DIMUPT
 70
     0
  9
$DIMDEC
 70
     2
  9
$DIMTDEC
 70
     8
  9
$DIMALTU
 70
     2
  9
$DIMALTTD
 70
     2
  9
$DIMTXSTY
  7
STANDARD
  9
$DIMAUNIT
 70
     0
  9
$DIMADEC
 70
     0
  9
$DIMALTRND
 40
0.0
  9
$DIMAZIN
 70
     2
  9
$DIMDSEP
 70
    46
  9
$DIMATFIT
 70
     3
  9
$DIMFRAC
 70
     0
  9
$DIMLDRBLK
  1

  9
$DIMLUNIT
 70
     2
  9
$DIMLWD
 70
    -1
  9
$DIMLWE
 70
    -1
  9
$DIMTMOVE
 70
     0
  9
$LUNITS
 70
     2
  9
$LUPREC
 70
     2
  9
$SKETCHINC
 40
0.1
  9
$FILLETRAD
 40
2.5
  9
$AUNITS
 70
     0
  9
$AUPREC
 70
     0
  9
$MENU
  1
C:\CACAD\ACAD
  9
$ELEVATION
 40
0.0
  9
$PELEVATION
 40
0.0
  9
$THICKNESS
 40
0.0
  9
$LIMCHECK
 70
     0
  9
$CHAMFERA
 40
2.5
  9
$CHAMFERB
 40
2.5
  9
$CHAMFERC
 40
0.0
  9
$CHAMFERD
 40
0.0
  9
$SKPOLY
 70
     0
  9
$TDCREATE
 40
2450294.602131481
  9
$TDUCREATE
 40
2450294.268798149
  9
$TDUPDATE
 40
2454117.700152627
  9
$TDUUPDATE
 40
2454117.366819294
  9
$TDINDWG
 40
0.3904978819
  9
$TDUSRTIMER
 40
0.3904946296
  9
$USRTIMER
 70
     1
  9
$ANGBASE
 50
0.0
  9
$ANGDIR
 70
     0
  9
$PDMODE
 70
    65
  9
$PDSIZE
 40
8.3
  9
$PLINEWID
 40
0.0
  9
$SPLFRAME
 70
     0
  9
$SPLINETYPE
 70
     6
  9
$SPLINESEGS
 70
     8
  9
$HANDSEED
  5
6D3C
  9
$SURFTAB1
 70
     6
  9
$SURFTAB2
 70
     6
  9
$SURFTYPE
 70
     6
  9
$SURFU
 70
     6
  9
$SURFV
 70
     6
  9
$UCSBASE
  2

  9
$UCSNAME
  2

  9
$UCSORG
 10
0.0
 20
0.0
 30
0.0
  9
$UCSXDIR
 10
1.0
 20
0.0
 30
0.0
  9
$UCSYDIR
 10
0.0
 20
1.0
 30
0.0
  9
$UCSORTHOREF
  2

  9
$UCSORTHOVIEW
 70
     0
  9
$UCSORGTOP
 10
0.0
 20
0.0
 30
0.0
  9
$UCSORGBOTTOM
 10
0.0
 20
0.0
 30
0.0
  9
$UCSORGLEFT
 10
0.0
 20
0.0
 30
0.0
  9
$UCSORGRIGHT
 10
0.0
 20
0.0
 30
0.0
  9
$UCSORGFRONT
 10
0.0
 20
0.0
 30
0.0
  9
$UCSORGBACK
 10
0.0
 20
0.0
 30
0.0
  9
$PUCSBASE
  2

  9
$PUCSNAME
  2

  9
$PUCSORG
 10
0.0
 20
0.0
 30
0.0
  9
$PUCSXDIR
 10
1.0
 20
0.0
 30
0.0
  9
$PUCSYDIR
 10
0.0
 20
1.0
 30
0.0
  9
$PUCSORTHOREF
  2

  9
$PUCSORTHOVIEW
 70
     0
  9
$PUCSORGTOP
 10
0.0
 20
0.0
 30
0.0
  9
$PUCSORGBOTTOM
 10
0.0
 20
0.0
 30
0.0
  9
$PUCSORGLEFT
 10
0.0
 20
0.0
 30
0.0
  9
$PUCSORGRIGHT
 10
0.0
 20
0.0
 30
0.0
  9
$PUCSORGFRONT
 10
0.0
 20
0.0
 30
0.0
  9
$PUCSORGBACK
 10
0.0
 20
0.0
 30
0.0
  9
$USERI1
 70
     0
  9
$USERI2
 70
     0
  9
$USERI3
 70
     0
  9
$USERI4
 70
     0
  9
$USERI5
 70
     0
  9
$USERR1
 40
0.0
  9
$USERR2
 40
0.0
  9
$USERR3
 40
0.0
  9
$USERR4
 40
0.0
  9
$USERR5
 40
0.0
  9
$WORLDVIEW
 70
     1
  9
$SHADEDGE
 70
     3
  9
$SHADEDIF
 70
    70
  9
$TILEMODE
 70
     1
  9
$MAXACTVP
 70
    16
  9
$PINSBASE
 10
101.9887994410416
 20
50.0
 30
155.412184630939
  9
$PLIMCHECK
 70
     0
  9
$PEXTMIN
 10
1.000000000000000E+20
 20
1.000000000000000E+20
 30
1.000000000000000E+20
  9
$PEXTMAX
 10
-1.000000000000000E+20
 20
-1.000000000000000E+20
 30
-1.000000000000000E+20
  9
$PLIMMIN
 10
0.0
 20
0.0
  9
$PLIMMAX
 10
12.0
 20
9.0
  9
$UNITMODE
 70
     0
  9
$VISRETAIN
 70
     0
  9
$PLINEGEN
 70
     0
  9
$PSLTSCALE
 70
     0
  9
$TREEDEPTH
 70
  3020
  9
$CMLSTYLE
  2
STANDARD
  9
$CMLJUST
 70
     0
  9
$CMLSCALE
 40
1.0
  9
$PROXYGRAPHICS
 70
     1
  9
$MEASUREMENT
 70
     1
  9
$CELWEIGHT
370
    -1
  9
$ENDCAPS
280
     0
  9
$JOINSTYLE
280
     0
  9
$LWDISPLAY
290
     0
  9
$INSUNITS
 70
     4
  9
$HYPERLINKBASE
  1

  9
$STYLESHEET
  1
彩色出圖.ctb
  9
$XEDIT
290
     1
  9
$CEPSNTYPE
380
     0
  9
$PSTYLEMODE
290
     1
  9
$FINGERPRINTGUID
  2
{727C4F51-B094-446D-A919-594C4FA4BCB3}
  9
$VERSIONGUID
  2
{D7E87179-380A-4C37-BD84-9AD5A356EA80}
  9
$EXTNAMES
290
     1
  9
$PSVPSCALE
 40
0.0
  9
$OLESTARTUP
290
     0
  0
ENDSEC
  0
SECTION
  2
CLASSES
  0
CLASS
  1
ACDBDICTIONARYWDFLT
  2
AcDbDictionaryWithDefault
  3
ObjectDBX Classes
 90
        0
280
     0
281
     0
  0
CLASS
  1
ACDBPLACEHOLDER
  2
AcDbPlaceHolder
  3
ObjectDBX Classes
 90
        0
280
     0
281
     0
  0
CLASS
  1
LAYOUT
  2
AcDbLayout
  3
ObjectDBX Classes
 90
        0
280
     0
281
     0
  0
CLASS
  1
IMAGEDEF
  2
AcDbRasterImageDef
  3
ISM
 90
        0
280
     0
281
     0
  0
CLASS
  1
ACME_DOCUMENT
  2
AcMeDbDoc
  3
AcMeServices
 90
        0
280
     0
281
     0
  0
CLASS
  1
AMGSETTINGSOBJ
  2
AmgSettingsObj
  3
"AcadM|Product Description: AutoCAD Mechanical 2000|Company: Autodesk"
 90
        0
280
     0
281
     0
  0
CLASS
  1
ACMESCOPE
  2
AcMeScope
  3
AcMeServices
 90
        0
280
     0
281
     0
  0
CLASS
  1
ACMECOMMANDHISTORY
  2
AcMeCommandHistory
  3
AcMeServices
 90
        0
280
     0
281
     0
  0
CLASS
  1
ACIMSYSVARMAN
  2
AcImSysVarManager
  3
AcMeServices
 90
        0
280
     0
281
     0
  0
CLASS
  1
ACIMREALSYSVAR
  2
AcImRealSysVar
  3
AcMeServices
 90
        0
280
     0
281
     0
  0
CLASS
  1
ACIMINTSYSVAR
  2
AcImIntSysVar
  3
AcMeServices
 90
        0
280
     0
281
     0
  0
CLASS
  1
ACMEDRAWINGMAN
  2
AcMeDrawingMan
  3
AcMeServices
 90
        0
280
     0
281
     0
  0
CLASS
  1
ACMEVIEW
  2
AcMeView
  3
AcMeServices
 90
        0
280
     0
281
     0
  0
CLASS
  1
ACDBENTITYCACHE
  2
AcMeEntityCache
  3
AcMeServices
 90
        0
280
     0
281
     0
  0
CLASS
  1
GSMANAGER
  2
AcMeGSManager
  3
AcMeServices
 90
        0
280
     0
281
     0
  0
CLASS
  1
AMDTINTERNALREACTOR
  2
AmdtInternalReactor
  3
AcMeServices
 90
        0
280
     0
281
     0
  0
CLASS
  1
ACMESTATEMGR
  2
AcMeStateMgr
  3
AcMeServices
 90
        0
280
     0
281
     0
  0
CLASS
  1
ACGREFMASTER
  2
AcGrefMaster
  3
AcAttribServices
 90
        0
280
     0
281
     0
  0
CLASS
  1
ACME_DATABASE
  2
AcMeDbDatabase
  3
AcMeServices
 90
        0
280
     0
281
     0
  0
CLASS
  1
ACRFINSADJUSTERMGR
  2
AcRfInsAdjusterMgr
  3
AcMeServices
 90
        0
280
     0
281
     0
  0
CLASS
  1
ACGREFACADMASTER
  2
AcGrefacadMaster
  3
AcGrefServices
 90
        0
280
     0
281
     0
  0
CLASS
  1
AMIMASTER
  2
AmiMaster
  3
AmiServices
 90
        0
280
     0
281
     0
  0
CLASS
  1
ACMDATADICTIONARY
  2
AcmDataDictionary
  3
"AcmSymBB|Product Description: AutoCAD Mechanical 2004 DX|Company: Autodesk"
 90
        0
280
     0
281
     0
  0
CLASS
  1
ACMDATAENTRYBLOCK
  2
AcmDataEntryBlock
  3
"AcmSymBB|Product Description: AutoCAD Mechanical 2004 DX|Company: Autodesk"
 90
    32768
280
     0
281
     0
  0
CLASS
  1
ACIMSTRSYSVAR
  2
AcImStrSysVar
  3
AcMeServices
 90
        0
280
     0
281
     0
  0
CLASS
  1
ACMSTANDARDANSI
  2
AcmStandardANSI
  3
"Amdt_StdImp|Product Description: AutoCAD Mechanical 2004 DX|Company: Autodesk"
 90
    32768
280
     0
281
     0
  0
CLASS
  1
AMGOBJPROPCFG
  2
AmgObjPropCfg
  3
"AmgLay|Product Description: AutoCAD Mechanical 2000|Company: Autodesk"
 90
        1
280
     0
281
     0
  0
CLASS
  1
ACMSURFSTANDARDANSI
  2
AcmSurfTextStdANSI
  3
"Amdt_StdImp|Product Description: AutoCAD Mechanical 2004 DX|Company: Autodesk"
 90
    32768
280
     0
281
     0
  0
CLASS
  1
ACMFCFSTANDARDANSI
  2
AcmFCFStdANSI
  3
"Amdt_StdImp|Product Description: AutoCAD Mechanical 2004 DX|Company: Autodesk"
 90
    32768
280
     0
281
     0
  0
CLASS
  1
ACMWELDSTANDARDANSI
  2
AcmWeldingStdANSI
  3
"Amdt_StdImp|Product Description: AutoCAD Mechanical 2004 DX|Company: Autodesk"
 90
    32768
280
     0
281
     0
  0
CLASS
  1
ACMIDSTANDARDANSI
  2
AcmIdStdANSI
  3
"Amdt_StdImp|Product Description: AutoCAD Mechanical 2004 DX|Company: Autodesk"
 90
    32768
280
     0
281
     0
  0
CLASS
  1
ACMDATUMSTANDARDANSI
  2
AcmDatumStdANSI
  3
"Amdt_StdImp|Product Description: AutoCAD Mechanical 2004 DX|Company: Autodesk"
 90
    32768
280
     0
281
     0
  0
CLASS
  1
ACMBOMSTANDARDANSI
  2
AcmBOMStdANSI
  3
"Amdt_StdImp|Product Description: AutoCAD Mechanical 2004 DX|Company: Autodesk"
 90
    32768
280
     0
281
     0
  0
CLASS
  1
ACMDETAILSTANDARDANSI
  2
AmdtDetailSymStdANSI
  3
"Amdt_StdImp|Product Description: AutoCAD Mechanical 2004 DX|Company: Autodesk"
 90
    32768
280
     0
281
     0
  0
CLASS
  1
ACMSECTIONSTANDARDANSI
  2
AmdtSectionSymStdANSI
  3
"Amdt_StdImp|Product Description: AutoCAD Mechanical 2004 DX|Company: Autodesk"
 90
    32768
280
     0
281
     0
  0
CLASS
  1
ACMCENTERLINESTANDARDANSI
  2
AmdtCenterLineStdANSI
  3
"Amdt_StdImp|Product Description: AutoCAD Mechanical 2004 DX|Company: Autodesk"
 90
    32768
280
     0
281
     0
  0
CLASS
  1
ACMNOTESTANDARDANSI
  2
AmdtNoteStdANSI
  3
"Amdt_StdImp|Product Description: AutoCAD Mechanical 2004 DX|Company: Autodesk"
 90
    32768
280
     0
281
     0
  0
CLASS
  1
ACAMGLAYSTD
  2
AcAmgLayStd
  3
"AcAmgLayStd|Product Description: AutoCAD Mechanical 2000|Company: Autodesk"
 90
        0
280
     0
281
     0
  0
CLASS
  1
ACAMGDIMSTD
  2
AcAmgDimStd
  3
"AcAmgDimStd|Product Description: AutoCAD Mechanical 2000|Company: Autodesk"
 90
        0
280
     0
281
     0
  0
CLASS
  1
ACAMGHOLECHARTSTDANSI
  2
AcAmgHoleChartStdANSI
  3
ACMSYMBB_MODULE_NAME
 90
    32768
280
     0
281
     0
  0
CLASS
  1
ACAMGTITLESTD
  2
AcAmgTitleStd
  3
"TITLEAPP"
 90
        0
280
     0
281
     0
  0
CLASS
  1
ACAMGFILTERDAT
  2
AcAmgFilterDat
  3
"AcadM|Product Description: AutoCAD Mechanical 2000|Company: Autodesk"
 90
    32768
280
     0
281
     0
  0
CLASS
  1
AMDTFORMULAUPDATEDISPATCHER
  2
AmdtFormulaUpdateDispatcher
  3
AcMeServices
 90
    32768
280
     0
281
     0
  0
CLASS
  1
LAYER_INDEX
  2
AcDbLayerIndex
  3
ObjectDBX Classes
 90
        0
280
     0
281
     0
  0
CLASS
  1
IDBUFFER
  2
AcDbIdBuffer
  3
ObjectDBX Classes
 90
        0
280
     0
281
     0
  0
CLASS
  1
DICTIONARYVAR
  2
AcDbDictionaryVar
  3
ObjectDBX Classes
 90
        0
280
     0
281
     0
  0
CLASS
  1
ACMSTANDARDISO
  2
AcmStandardISO
  3
"Amdt_StdImp|Product Description: AutoCAD Mechanical 2004 DX|Company: Autodesk"
 90
        0
280
     0
281
     0
  0
CLASS
  1
AMDTEDGESTANDARDISO
  2
AmdtEdgeStdISO
  3
"Amdt_StdImp|Product Description: AutoCAD Mechanical 2004 DX|Company: Autodesk"
 90
    32768
280
     0
281
     0
  0
CLASS
  1
ACMSURFSTANDARDISO
  2
AcmSurfTextStdISO
  3
"Amdt_StdImp|Product Description: AutoCAD Mechanical 2004 DX|Company: Autodesk"
 90
        0
280
     0
281
     0
  0
CLASS
  1
ACMFCFSTANDARDISO
  2
AcmFCFStdISO
  3
"Amdt_StdImp|Product Description: AutoCAD Mechanical 2004 DX|Company: Autodesk"
 90
        0
280
     0
281
     0
  0
CLASS
  1
ACMWELDSTANDARDISO
  2
AcmWeldingStdISO
  3
"Amdt_StdImp|Product Description: AutoCAD Mechanical 2004 DX|Company: Autodesk"
 90
        0
280
     0
281
     0
  0
CLASS
  1
ACMIDSTANDARDISO
  2
AcmIdStdISO
  3
"Amdt_StdImp|Product Description: AutoCAD Mechanical 2004 DX|Company: Autodesk"
 90
        0
280
     0
281
     0
  0
CLASS
  1
ACMDATUMSTANDARDISO
  2
AcmDatumStdISO
  3
"Amdt_StdImp|Product Description: AutoCAD Mechanical 2004 DX|Company: Autodesk"
 90
        0
280
     0
281
     0
  0
CLASS
  1
ACMBOMSTANDARDISO
  2
AcmBOMStdISO
  3
"Amdt_StdImp|Product Description: AutoCAD Mechanical 2004 DX|Company: Autodesk"
 90
        0
280
     0
281
     0
  0
CLASS
  1
ACMDETAILSTANDARDISO
  2
AmdtDetailSymStdISO
  3
"Amdt_StdImp|Product Description: AutoCAD Mechanical 2004 DX|Company: Autodesk"
 90
        0
280
     0
281
     0
  0
CLASS
  1
ACMSECTIONSTANDARDISO
  2
AmdtSectionSymStdISO
  3
"Amdt_StdImp|Product Description: AutoCAD Mechanical 2004 DX|Company: Autodesk"
 90
        0
280
     0
281
     0
  0
CLASS
  1
ACMCENTERLINESTANDARDISO
  2
AmdtCenterLineStdISO
  3
"Amdt_StdImp|Product Description: AutoCAD Mechanical 2004 DX|Company: Autodesk"
 90
        0
280
     0
281
     0
  0
CLASS
  1
ACMNOTESTANDARDISO
  2
AmdtNoteStdISO
  3
"Amdt_StdImp|Product Description: AutoCAD Mechanical 2004 DX|Company: Autodesk"
 90
        0
280
     0
281
     0
  0
CLASS
  1
ACAMGHOLECHARTSTDISO
  2
AcAmgHoleChartStdISO
  3
ACMSYMBB_MODULE_NAME
 90
        0
280
     0
281
     0
  0
CLASS
  1
AMDTNOTE
  2
AmdtNote
  3
"AcmSymBB|Product Description: AutoCAD Mechanical 2004 DX|Company: Autodesk"
 90
    33791
280
     0
281
     1
  0
CLASS
  1
TABLESTYLE
  2
AcDbTableStyle
  3
ObjectDBX Classes
 90
     2047
280
     0
281
     0
  0
CLASS
  1
AM_DRAWING_MGR
  2
AcDmDwgMgr
  3
AcMechDwgViewMgmt
 90
        0
280
     0
281
     0
  0
CLASS
  1
AM_DWG_DOCUMENT
  2
AcDmDwgDocument
  3
AcMechDwgViewMgmt
 90
        0
280
     0
281
     0
  0
CLASS
  1
AM_DWG_SHEET
  2
AcDmSheet
  3
AcMechDwgViewMgmt
 90
        0
280
     0
281
     0
  0
CLASS
  1
AM_VIEWDIMPARMAP
  2
AcDmViewDimParMap
  3
AcMechDwgViewMgmt
 90
        0
280
     0
281
     0
  0
CLASS
  1
AM_DWGMGR_NAME
  2
AcDmDwgMgrName
  3
AcMechDwgViewMgmt
 90
        0
280
     0
281
     0
  0
CLASS
  1
AMDTMENUSTATEMGR
  2
AmdtMenuStateMgr
  3
McadcomServices
 90
        0
280
     0
281
     0
  0
CLASS
  1
AMDTMCOMMENUSTATE
  2
AmdtMcomMenuState
  3
McadcomServices
 90
        0
280
     0
281
     0
  0
CLASS
  1
MAPIAMMOUDLE
  2
MApiAmModule
  3
MApiAmServices
 90
        0
280
     0
281
     0
  0
CLASS
  1
AMDTADMENUSTATE
  2
AmdtAdMenuState
  3
DesignerServices
 90
        0
280
     0
281
     0
  0
CLASS
  1
ADAPPL
  2
AcAdAppl
  3
DesignerServices
 90
        0
280
     0
281
     0
  0
CLASS
  1
DEPMGR
  2
AcAdDepMgr
  3
DesignerServices
 90
        0
280
     0
281
     0
  0
CLASS
  1
PARAMMGR
  2
AcAdParamMgr
  3
DesignerServices
 90
        0
280
     0
281
     0
  0
CLASS
  1
PARAMSCOPE
  2
AcAdParamScope
  3
DesignerServices
 90
        0
280
     0
281
     0
  0
CLASS
  1
NAMEDAPPL
  2
AcAdNamedAppl
  3
DesignerServices
 90
        0
280
     0
281
     0
  0
CLASS
  1
AMDTDMMENUSTATE
  2
AmdtDmMenuState
  3
AcMechDwgViewMgmt
 90
        0
280
     0
281
     0
  0
CLASS
  1
AMDTAMMENUSTATE
  2
AmdtAmMenuState
  3
DesignerAssemblies
 90
        0
280
     0
281
     0
  0
CLASS
  1
ACAMPROJECT
  2
AcAmProject
  3
DesignerAssemblies
 90
        0
280
     0
281
     0
  0
CLASS
  1
ACAMGRCOMPDEF
  2
AcAmGrCompDef
  3
DesignerAssemblies
 90
        0
280
     0
281
     0
  0
CLASS
  1
ACCMCONTEXT
  2
AcCmContext
  3
DesignerAssemblies
 90
        0
280
     0
281
     0
  0
CLASS
  1
ACAMCOMPDEF
  2
AcAmCompDef
  3
DesignerAssemblies
 90
        0
280
     0
281
     0
  0
CLASS
  1
ACAMCOMPDEFMGR
  2
AcAmCompDefMgr
  3
DesignerAssemblies
 90
        0
280
     0
281
     0
  0
CLASS
  1
AMCONTEXTMGR
  2
AcAmContextMgr
  3
DesignerAssemblies
 90
        0
280
     0
281
     0
  0
CLASS
  1
ACAMCONTEXTMODELER
  2
AcAmContextModeler
  3
DesignerAssemblies
 90
        0
280
     0
281
     0
  0
CLASS
  1
CATALOGSTATE
  2
AcAmCatalogState
  3
DesignerAssemblies
 90
        0
280
     0
281
     0
  0
CLASS
  1
ACAMGRCOMPDEFSET
  2
AcAmGrCompDefSet
  3
DesignerAssemblies
 90
        0
280
     0
281
     0
  0
CLASS
  1
AMDTBROWSERDBTAB
  2
AmdtBrowserDbTab
  3
McadcomServices
 90
        0
280
     0
281
     0
  0
CLASS
  1
CBROWSERAPPOBJECT
  2
CBrowserAppObject
  3
McadcomServices
 90
        0
280
     0
281
     0
  0
CLASS
  1
DM_PLACEHOLDER
  2
AcDmSelsetPlaceholder
  3
AcMechDwgViewMgmt
 90
        0
280
     0
281
     0
  0
CLASS
  1
AMDTEDGESTANDARDISO13715
  2
AmdtEdgeStdISO13715
  3
"Amdt_StdImp|Product Description: AutoCAD Mechanical 2004 DX|Company: Autodesk"
 90
        0
280
     0
281
     0
  0
CLASS
  1
ACMTHREADLINESTANDARDISO
  2
AmdtThreadLineStdISO
  3
"Amdt_StdImp|Product Description: AutoCAD Mechanical 2004 DX|Company: Autodesk"
 90
        0
280
     0
281
     0
  0
CLASS
  1
AMDTNOTETEMPLATEDB
  2
AmdtNoteTemplateDB
  3
AMDT_STDIMP_MODULE_NAME
 90
        0
280
     0
281
     0
  0
CLASS
  1
SORTENTSTABLE
  2
AcDbSortentsTable
  3
ObjectDBX Classes
 90
        0
280
     0
281
     0
  0
ENDSEC
  0
SECTION
  2
TABLES
  0
TABLE
  2
VPORT
  5
8
330
0
100
AcDbSymbolTable
 70
     3
  0
VPORT
  5
6D35
330
8
100
AcDbSymbolTableRecord
100
AcDbViewportTableRecord
  2
*Active
 70
     0
 10
0.0
 20
0.0
 11
1.0
 21
1.0
 12
248.8123269229353
 22
34.29617407472688
 13
0.0
 23
0.0
 14
2.5
 24
2.5
 15
10.0
 25
10.0
 16
0.0
 26
0.0
 36
1.0
 17
0.0
 27
0.0
 37
0.0
 40
592.7326536402079
 41
1.609210526315789
 42
50.0
 43
0.0
 44
0.0
 50
0.0
 51
0.0
 71
     0
 72
   100
 73
     1
 74
     1
 75
     0
 76
     0
 77
     0
 78
     0
281
     0
 65
     1
110
0.0
120
0.0
130
0.0
111
1.0
121
0.0
131
0.0
112
0.0
122
1.0
132
0.0
 79
     0
146
0.0
  0
ENDTAB
  0
TABLE
  2
LTYPE
  5
5
330
0
100
AcDbSymbolTable
 70
    15
  0
LTYPE
  5
13
330
5
100
AcDbSymbolTableRecord
100
AcDbLinetypeTableRecord
  2
BYBLOCK
 70
     0
  3

 72
    65
 73
     0
 40
0.0
  0
LTYPE
  5
14
330
5
100
AcDbSymbolTableRecord
100
AcDbLinetypeTableRecord
  2
BYLAYER
 70
     0
  3

 72
    65
 73
     0
 40
0.0
  0
LTYPE
  5
15
330
5
100
AcDbSymbolTableRecord
100
AcDbLinetypeTableRecord
  2
CONTINUOUS
 70
     0
  3
Solid line
 72
    65
 73
     0
 40
0.0
  0
LTYPE
  5
23
330
5
100
AcDbSymbolTableRecord
100
AcDbLinetypeTableRecord
  2
HIDDEN
 70
     0
  3
_ _ _ _ _ _ _ _ _ _ _ _ _ _ _ _ _ _ _ _ _ _ _
 72
    65
 73
     2
 40
0.375
 49
0.25
 74
     0
 49
-0.125
 74
     0
  0
LTYPE
  5
24
330
5
100
AcDbSymbolTableRecord
100
AcDbLinetypeTableRecord
  2
CENTER
 70
     0
  3
____ _ ____ _ ____ _ ____ _ ____ _ ____ _ ____
 72
    65
 73
     4
 40
2.0
 49
1.25
 74
     0
 49
-0.25
 74
     0
 49
0.25
 74
     0
 49
-0.25
 74
     0
  0
LTYPE
  5
7CE
330
5
100
AcDbSymbolTableRecord
100
AcDbLinetypeTableRecord
  2
AMCONSTR
 70
     0
  3
_______________________
 72
    65
 73
     2
 40
9999.0
 49
9999.0
 74
     0
 49
0.0
 74
     0
  0
LTYPE
  5
7CF
330
5
100
AcDbSymbolTableRecord
100
AcDbLinetypeTableRecord
  2
AM_ISO08W050X2
 70
     0
  3
__ . __ . __ . __ . __ . __
 72
    65
 73
     4
 40
9.0
 49
6.0
 74
     0
 49
-0.75
 74
     0
 49
1.5
 74
     0
 49
-0.75
 74
     0
  0
LTYPE
  5
7D4
330
5
100
AcDbSymbolTableRecord
100
AcDbLinetypeTableRecord
  2
PHANTOM2
 70
     0
  3
Phantom (.5x) ___ _ _ ___ _ _ ___ _ _ ___ _ _
 72
    65
 73
     6
 40
1.25
 49
0.625
 74
     0
 49
-0.125
 74
     0
 49
0.125
 74
     0
 49
-0.125
 74
     0
 49
0.125
 74
     0
 49
-0.125
 74
     0
  0
LTYPE
  5
C13
330
5
100
AcDbSymbolTableRecord
100
AcDbLinetypeTableRecord
  2
ACISOWELD
 70
     0
  3
_ _ _ _ _
 72
    65
 73
     2
 40
2.0
 49
2.0
 74
     0
 49
-1.0
 74
     0
  0
LTYPE
  5
C14
330
5
100
AcDbSymbolTableRecord
100
AcDbLinetypeTableRecord
  2
ACISOTGB
 70
     0
  3
__ . . __ . .
 72
    65
 73
     6
 40
9.0
 49
4.0
 74
     0
 49
-1.0
 74
     0
 49
1.0
 74
     0
 49
-1.0
 74
     0
 49
1.0
 74
     0
 49
-1.0
 74
     0
  0
LTYPE
  5
C15
330
5
100
AcDbSymbolTableRecord
100
AcDbLinetypeTableRecord
  2
ACISOTGL
 70
     0
  3
_ _ _ _ _
 72
    65
 73
     2
 40
3.0
 49
2.0
 74
     0
 49
-1.0
 74
     0
  0
LTYPE
  5
16FD
330
5
100
AcDbSymbolTableRecord
100
AcDbLinetypeTableRecord
  2
AM_ISO02W050
 70
     0
  3
__ __ __ __ __ __ __ __ __ __ __ __ __ __ __
 72
    65
 73
     2
 40
7.5
 49
6.0
 74
     0
 49
-1.5
 74
     0
  0
LTYPE
  5
16FE
330
5
100
AcDbSymbolTableRecord
100
AcDbLinetypeTableRecord
  2
AM_ISO08W050
 70
     0
  3
____ . ____ . ____ . ____ . ____ . ____ . ____
 72
    65
 73
     4
 40
18.0
 49
12.0
 74
     0
 49
-1.5
 74
     0
 49
3.0
 74
     0
 49
-1.5
 74
     0
  0
LTYPE
  5
16FF
330
5
100
AcDbSymbolTableRecord
100
AcDbLinetypeTableRecord
  2
AM_ISO09W050
 70
     0
  3
_____ . . _____ . . _____ . . ____ .. ____
 72
    65
 73
     6
 40
22.5
 49
12.0
 74
     0
 49
-1.5
 74
     0
 49
3.0
 74
     0
 49
-1.5
 74
     0
 49
3.0
 74
     0
 49
-1.5
 74
     0
  0
LTYPE
  5
1700
330
5
100
AcDbSymbolTableRecord
100
AcDbLinetypeTableRecord
  2
AM_ISO02W050x2
 70
     0
  3
 _ _ _ _ _ _ _ _ _ _ _ _
 72
    65
 73
     2
 40
3.75
 49
3.0
 74
     0
 49
-0.75
 74
     0
  0
LTYPE
  5
1701
330
5
100
AcDbSymbolTableRecord
100
AcDbLinetypeTableRecord
  2
Amzigzag
 70
     0
  3
/\/-/\/-/\/-/\/-/\/-/\/
 72
    65
 73
     2
 40
11.0001
 49
0.0001
 74
     4
 75
   135
340
7D2
 46
0.04
 50
0.0
 44
0.0
 45
0.0
 49
-11.0
 74
     0
  0
LTYPE
  5
3C82
330
5
100
AcDbSymbolTableRecord
100
AcDbLinetypeTableRecord
  2
HIDDEN2
 70
     0
  3
Hidden (.5x) _ _ _ _ _ _ _ _ _ _ _ _ _ _ _ _ _
 72
    65
 73
     2
 40
0.1875
 49
0.125
 74
     0
 49
-0.0625
 74
     0
  0
ENDTAB
  0
TABLE
  2
LAYER
  5
2
102
{ACAD_XDICTIONARY
360
361C
102
}
330
0
100
AcDbSymbolTable
 70
     8
  0
LAYER
  5
10
330
2
100
AcDbSymbolTableRecord
100
AcDbLayerTableRecord
  2
0
 70
     0
 62
     7
  6
CONTINUOUS
370
    -3
390
B32
  0
LAYER
  5
26
330
2
100
AcDbSymbolTableRecord
100
AcDbLayerTableRecord
  2
DEFPOINTS
 70
     0
 62
     7
  6
CONTINUOUS
290
     0
370
    -3
390
B32
  0
LAYER
  5
516
330
2
100
AcDbSymbolTableRecord
100
AcDbLayerTableRecord
  2
ASHADE
 70
     0
 62
     7
  6
CONTINUOUS
370
    -3
390
B32
  0
LAYER
  5
C16
330
2
100
AcDbSymbolTableRecord
100
AcDbLayerTableRecord
  2
AM_7
 70
     0
 62
     1
  6
CENTER
370
    25
390
B32
  0
LAYER
  5
C17
330
2
100
AcDbSymbolTableRecord
100
AcDbLayerTableRecord
  2
AM_VIS
 70
     2
 62
     7
  6
CONTINUOUS
370
    50
390
B32
  0
LAYER
  5
C18
330
2
100
AcDbSymbolTableRecord
100
AcDbLayerTableRecord
  2
AM_4
 70
     0
 62
     3
  6
CONTINUOUS
370
    25
390
B32
  0
LAYER
  5
11C1
330
2
100
AcDbSymbolTableRecord
100
AcDbLayerTableRecord
  2
AM_5
 70
     0
 62
     5
  6
CONTINUOUS
370
    25
390
B32
  0
LAYER
  5
3617
330
2
100
AcDbSymbolTableRecord
100
AcDbLayerTableRecord
  2
LOGO
 70
     0
 62
     7
  6
CONTINUOUS
370
    -3
390
B32
  0
ENDTAB
  0
TABLE
  2
STYLE
  5
3
330
0
100
AcDbSymbolTable
 70
     7
  0
STYLE
  5
11
330
3
100
AcDbSymbolTableRecord
100
AcDbTextStyleTableRecord
  2
STANDARD
 70
     0
 40
0.0
 41
1.0
 50
0.0
 71
     0
 42
3.5
  3
ISOCP.SHX
  4

  0
STYLE
  5
22
330
3
100
AcDbSymbolTableRecord
100
AcDbTextStyleTableRecord
  2
DAYUS
 70
     0
 40
0.0
 41
1.0
 50
0.0
 71
     0
 42
3.0
  3
simplex
  4
dayus
  0
STYLE
  5
7D2
330
3
100
AcDbSymbolTableRecord
100
AcDbTextStyleTableRecord
  2

 70
     1
 40
0.0
 41
1.0
 50
0.0
 71
     0
 42
4.0
  3
ltypeshp.shx
  4

  0
STYLE
  5
C19
330
3
100
AcDbSymbolTableRecord
100
AcDbTextStyleTableRecord
  2
ACISOTS
 70
     0
 40
1.0
 41
1.0
 50
0.0
 71
     0
 42
2.5
  3
isocp.shx
  4
chineset.shx
  0
STYLE
  5
C1A
330
3
100
AcDbSymbolTableRecord
100
AcDbTextStyleTableRecord
  2
ACISOGDT
 70
     0
 40
0.0
 41
1.0
 50
0.0
 71
     0
 42
2.5
  3
amgdt.shx
  4

  0
STYLE
  5
3618
330
3
100
AcDbSymbolTableRecord
100
AcDbTextStyleTableRecord
  2
CHINESET
 70
     0
 40
0.0
 41
1.0
 50
0.0
 71
     0
 42
3.0
  3
simplex.shx
  4
CHINESET.SHX
  0
ENDTAB
  0
TABLE
  2
VIEW
  5
6
330
0
100
AcDbSymbolTable
 70
     0
  0
ENDTAB
  0
TABLE
  2
UCS
  5
7
330
0
100
AcDbSymbolTable
 70
     0
  0
ENDTAB
  0
TABLE
  2
APPID
  5
9
330
0
100
AcDbSymbolTable
 70
    24
  0
APPID
  5
12
330
9
100
AcDbSymbolTableRecord
100
AcDbRegAppTableRecord
  2
ACAD
 70
     0
  0
APPID
  5
514
330
9
100
AcDbSymbolTableRecord
100
AcDbRegAppTableRecord
  2
AVE_RENDER
 70
     0
  0
APPID
  5
515
330
9
100
AcDbSymbolTableRecord
100
AcDbRegAppTableRecord
  2
AVE_ENTITY_MATERIAL
 70
     0
  0
APPID
  5
522
330
9
100
AcDbSymbolTableRecord
100
AcDbRegAppTableRecord
  2
AVE_FINISH
 70
     0
  0
APPID
  5
523
330
9
100
AcDbSymbolTableRecord
100
AcDbRegAppTableRecord
  2
AVE_MATERIAL
 70
     0
  0
APPID
  5
524
330
9
100
AcDbSymbolTableRecord
100
AcDbRegAppTableRecord
  2
AVE_GLOBAL
 70
     0
  0
APPID
  5
7AD
330
9
100
AcDbSymbolTableRecord
100
AcDbRegAppTableRecord
  2
MCAD_NO_VIS
 70
     0
  0
APPID
  5
7AE
330
9
100
AcDbSymbolTableRecord
100
AcDbRegAppTableRecord
  2
ACAD_TEMP_GRAPHIC
 70
     0
  0
APPID
  5
7BF
330
9
100
AcDbSymbolTableRecord
100
AcDbRegAppTableRecord
  2
ACATTRIBSERVICES
 70
     0
  0
APPID
  5
C22
330
9
100
AcDbSymbolTableRecord
100
AcDbRegAppTableRecord
  2
GENIUS_GENODEF_13
 70
     0
  0
APPID
  5
C23
330
9
100
AcDbSymbolTableRecord
100
AcDbRegAppTableRecord
  2
GENIUS_GENOREF_13
 70
     0
  0
APPID
  5
C24
330
9
100
AcDbSymbolTableRecord
100
AcDbRegAppTableRecord
  2
GENIUS_GENOBJ-N-CEN_13
 70
     0
  0
APPID
  5
16D2
330
9
100
AcDbSymbolTableRecord
100
AcDbRegAppTableRecord
  2
GENIUS_GENDTOL_13
 70
     0
  0
APPID
  5
2E9A
330
9
100
AcDbSymbolTableRecord
100
AcDbRegAppTableRecord
  2
AD_DRAW
 70
     0
  0
APPID
  5
2EB8
330
9
100
AcDbSymbolTableRecord
100
AcDbRegAppTableRecord
  2
DESIGNERASSEMBLIES
 70
     0
  0
APPID
  5
2EBD
330
9
100
AcDbSymbolTableRecord
100
AcDbRegAppTableRecord
  2
ACADM_DIM_EDIT
 70
     0
  0
APPID
  5
2EBE
330
9
100
AcDbSymbolTableRecord
100
AcDbRegAppTableRecord
  2
AMDT_DM_ADJ
 70
     0
  0
APPID
  5
2EF2
330
9
100
AcDbSymbolTableRecord
100
AcDbRegAppTableRecord
  2
GENIUS_GENOLIS_13
 70
     0
  0
APPID
  5
2EF3
330
9
100
AcDbSymbolTableRecord
100
AcDbRegAppTableRecord
  2
GENIUS_GENOENT_13
 70
     0
  0
APPID
  5
2EF4
330
9
100
AcDbSymbolTableRecord
100
AcDbRegAppTableRecord
  2
GENIUS_GENOBJ-N-CRS_13
 70
     0
  0
APPID
  5
3619
330
9
100
AcDbSymbolTableRecord
100
AcDbRegAppTableRecord
  2
ACAD_PSEXT
 70
     0
  0
APPID
  5
361A
330
9
100
AcDbSymbolTableRecord
100
AcDbRegAppTableRecord
  2
GENIUS_GENREC_14
 70
     0
  0
APPID
  5
361B
330
9
100
AcDbSymbolTableRecord
100
AcDbRegAppTableRecord
  2
GENIUS_GENOBJ-N-REC_13
 70
     0
  0
APPID
  5
3B55
330
9
100
AcDbSymbolTableRecord
100
AcDbRegAppTableRecord
  2
GENIUS_GENCEN_19
 70
     0
  0
ENDTAB
  0
TABLE
  2
DIMSTYLE
  5
A
330
0
100
AcDbSymbolTable
 70
     9
100
AcDbDimStyleTable
 71
     1
340
C1B
  0
DIMSTYLE
105
C1B
102
{ACAD_REACTORS
330
6054
330
6055
330
607D
330
607E
330
607F
330
6080
330
6081
330
6082
330
6084
330
6085
330
6086
330
6087
330
6088
330
6089
330
608A
330
608B
330
608C
330
6094
330
6624
330
6625
330
6626
330
6627
330
6628
330
6629
330
662A
330
662B
330
662C
330
662D
330
662E
330
662F
330
6630
330
6634
102
}
330
A
100
AcDbSymbolTableRecord
100
AcDbDimStyleTableRecord
  2
AM_ISO
 70
     0
  4
"
 41
3.0
 42
1.0
 43
6.0
 44
1.5
 47
0.1
 48
0.1
 73
     0
 74
     0
 77
     1
 78
     8
 79
     2
140
3.0
141
3.0
143
0.0393701
146
0.71
147
0.8
172
     1
176
   256
177
   256
178
   256
271
     2
272
     2
283
     0
284
     8
340
11
371
    -1
372
    -1
  0
DIMSTYLE
105
C1C
102
{ACAD_REACTORS
330
6083
330
6631
102
}
330
A
100
AcDbSymbolTableRecord
100
AcDbDimStyleTableRecord
  2
AM_ISO$3
 70
     0
  4
"
 41
3.0
 42
1.0
 43
6.0
 44
1.5
 47
0.1
 48
0.1
 73
     0
 77
     1
 78
     8
 79
     2
140
3.0
141
3.0
143
0.0393701
146
0.71
147
0.8
176
   256
177
   256
178
   256
271
     2
272
     2
283
     0
284
     8
288
     1
289
     0
340
11
371
    -1
372
    -1
  0
DIMSTYLE
105
C1D
330
A
100
AcDbSymbolTableRecord
100
AcDbDimStyleTableRecord
  2
AM_ISO$4
 70
     0
  4
"
 41
3.0
 42
1.0
 43
6.0
 44
1.5
 47
0.1
 48
0.1
 73
     0
 77
     1
 78
     8
 79
     2
140
3.0
141
3.0
143
0.0393701
146
0.71
147
0.8
176
   256
177
   256
178
   256
271
     2
272
     2
283
     0
284
     8
288
     1
289
     0
340
11
371
    -1
372
    -1
  0
DIMSTYLE
105
C1E
330
A
100
AcDbSymbolTableRecord
100
AcDbDimStyleTableRecord
  2
AM_ISO$6
 70
     0
  4
"
 41
3.0
 42
1.0
 43
6.0
 44
1.5
 47
0.1
 48
0.1
 73
     0
 74
     0
 78
     8
 79
     2
140
3.0
141
3.0
143
0.0393701
146
0.71
147
0.8
172
     1
176
   256
177
   256
178
   256
271
     2
272
     2
283
     0
284
     8
340
11
371
    -1
372
    -1
  0
DIMSTYLE
105
C1F
330
A
100
AcDbSymbolTableRecord
100
AcDbDimStyleTableRecord
  2
AM_ISO$7
 70
     0
  4
"
 41
3.0
 42
1.0
 43
6.0
 44
1.5
 47
0.1
 48
0.1
 73
     0
 74
     0
 77
     1
 78
     8
 79
     2
140
5.0
141
3.0
143
0.0393701
146
0.71
147
0.8
172
     1
176
   256
177
   256
178
   256
271
     2
272
     2
283
     0
284
     8
340
11
371
    -1
372
    -1
  0
DIMSTYLE
105
C20
330
A
100
AcDbSymbolTableRecord
100
AcDbDimStyleTableRecord
  2
AM_ISO$SF
 70
     0
  4
"
 41
2.5
 42
1.0
 43
10.0
 44
1.0
 47
0.1
 48
0.1
 73
     0
 74
     0
 75
     1
 76
     1
 77
     1
 78
     8
 79
     2
140
3.5
141
0.0
143
0.0393701
146
0.71
147
1.5
172
     1
176
   256
177
   256
178
     2
271
     2
272
     3
274
     4
283
     0
284
     8
340
11
371
    -1
372
    -1
  0
DIMSTYLE
105
C21
330
A
100
AcDbSymbolTableRecord
100
AcDbDimStyleTableRecord
  2
AM_ISO$SH
 70
     0
  4
"
 41
2.5
 42
1.0
 43
10.0
 44
1.0
 47
0.1
 48
0.1
 73
     0
 74
     0
 75
     1
 76
     1
 77
     1
 78
     8
 79
     2
140
3.5
141
0.0
143
0.0393701
144
2.0
146
0.71
147
1.5
172
     1
173
     1
176
   256
177
   256
178
     2
271
     2
272
     3
274
     4
283
     0
284
     8
340
11
341
7ED
343
7ED
371
    -1
372
    -1
  0
DIMSTYLE
105
35F1
330
A
100
AcDbSymbolTableRecord
100
AcDbDimStyleTableRecord
  2
AM_ISO$0
 70
     0
  4
"
 41
3.0
 42
1.0
 43
6.0
 44
1.5
 47
0.1
 48
0.1
 73
     0
 74
     0
 77
     1
 78
     8
 79
     2
140
3.0
141
3.0
143
0.0393701
146
0.71
147
0.8
172
     1
176
   256
177
   256
178
   256
271
     2
272
     2
283
     0
284
     8
340
11
371
    -1
372
    -1
  0
ENDTAB
  0
TABLE
  2
BLOCK_RECORD
  5
1
330
0
100
AcDbSymbolTable
 70
    46
  0
BLOCK_RECORD
  5
1E
102
{ACAD_XDICTIONARY
360
708
102
}
330
1
100
AcDbSymbolTableRecord
100
AcDbBlockTableRecord
  2
*MODEL_SPACE
340
B33
  0
BLOCK_RECORD
  5
1A
102
{ACAD_XDICTIONARY
360
70A
102
}
330
1
100
AcDbSymbolTableRecord
100
AcDbBlockTableRecord
  2
*PAPER_SPACE
340
B34
  0
BLOCK_RECORD
  5
517
330
1
100
AcDbSymbolTableRecord
100
AcDbBlockTableRecord
  2
AVE_RENDER
340
0
102
{BLKREFS
331
51A
331
51B
331
51C
331
51D
331
51E
331
51F
331
520
331
521
102
}
  0
BLOCK_RECORD
  5
525
330
1
100
AcDbSymbolTableRecord
100
AcDbBlockTableRecord
  2
AVE_GLOBAL
340
0
102
{BLKREFS
331
528
102
}
  0
BLOCK_RECORD
  5
7ED
330
1
100
AcDbSymbolTableRecord
100
AcDbBlockTableRecord
  2
GENAXEH
340
0
  0
BLOCK_RECORD
  5
18E9
330
1
100
AcDbSymbolTableRecord
100
AcDbBlockTableRecord
  2
GENDOT
340
0
102
{BLKREFS
331
6B38
331
6B40
102
}
  0
BLOCK_RECORD
  5
3B4B
102
{ACAD_XDICTIONARY
360
3B4C
102
}
330
1
100
AcDbSymbolTableRecord
100
AcDbBlockTableRecord
  2
A$C1F6E6265
340
0
102
{BLKREFS
331
6AC0
331
6AC3
102
}
  0
BLOCK_RECORD
  5
5D71
330
1
100
AcDbSymbolTableRecord
100
AcDbBlockTableRecord
  2
*S6
340
0
102
{BLKREFS
331
608D
102
}
  0
BLOCK_RECORD
  5
5D78
330
1
100
AcDbSymbolTableRecord
100
AcDbBlockTableRecord
  2
*S7
340
0
102
{BLKREFS
331
608F
102
}
  0
BLOCK_RECORD
  5
5D7F
330
1
100
AcDbSymbolTableRecord
100
AcDbBlockTableRecord
  2
*S8
340
0
102
{BLKREFS
331
6092
102
}
  0
BLOCK_RECORD
  5
6095
330
1
100
AcDbSymbolTableRecord
100
AcDbBlockTableRecord
  2
*D9
340
0
  0
BLOCK_RECORD
  5
60A1
330
1
100
AcDbSymbolTableRecord
100
AcDbBlockTableRecord
  2
*D10
340
0
  0
BLOCK_RECORD
  5
60AD
330
1
100
AcDbSymbolTableRecord
100
AcDbBlockTableRecord
  2
*D11
340
0
  0
BLOCK_RECORD
  5
60B9
330
1
100
AcDbSymbolTableRecord
100
AcDbBlockTableRecord
  2
*D12
340
0
  0
BLOCK_RECORD
  5
60C5
330
1
100
AcDbSymbolTableRecord
100
AcDbBlockTableRecord
  2
*D13
340
0
  0
BLOCK_RECORD
  5
60D1
330
1
100
AcDbSymbolTableRecord
100
AcDbBlockTableRecord
  2
*D14
340
0
  0
BLOCK_RECORD
  5
60DD
330
1
100
AcDbSymbolTableRecord
100
AcDbBlockTableRecord
  2
*D15
340
0
  0
BLOCK_RECORD
  5
60E9
330
1
100
AcDbSymbolTableRecord
100
AcDbBlockTableRecord
  2
*D16
340
0
  0
BLOCK_RECORD
  5
60F5
330
1
100
AcDbSymbolTableRecord
100
AcDbBlockTableRecord
  2
*D17
340
0
  0
BLOCK_RECORD
  5
6101
330
1
100
AcDbSymbolTableRecord
100
AcDbBlockTableRecord
  2
*D18
340
0
  0
BLOCK_RECORD
  5
610D
330
1
100
AcDbSymbolTableRecord
100
AcDbBlockTableRecord
  2
*D19
340
0
  0
BLOCK_RECORD
  5
6119
330
1
100
AcDbSymbolTableRecord
100
AcDbBlockTableRecord
  2
*D20
340
0
  0
BLOCK_RECORD
  5
6125
330
1
100
AcDbSymbolTableRecord
100
AcDbBlockTableRecord
  2
*D21
340
0
  0
BLOCK_RECORD
  5
6131
330
1
100
AcDbSymbolTableRecord
100
AcDbBlockTableRecord
  2
*D22
340
0
  0
BLOCK_RECORD
  5
613B
330
1
100
AcDbSymbolTableRecord
100
AcDbBlockTableRecord
  2
*D23
340
0
  0
BLOCK_RECORD
  5
6147
330
1
100
AcDbSymbolTableRecord
100
AcDbBlockTableRecord
  2
*D24
340
0
  0
BLOCK_RECORD
  5
6153
330
1
100
AcDbSymbolTableRecord
100
AcDbBlockTableRecord
  2
*D25
340
0
  0
BLOCK_RECORD
  5
615F
330
1
100
AcDbSymbolTableRecord
100
AcDbBlockTableRecord
  2
*D26
340
0
  0
BLOCK_RECORD
  5
616B
330
1
100
AcDbSymbolTableRecord
100
AcDbBlockTableRecord
  2
*D27
340
0
  0
BLOCK_RECORD
  5
62E0
330
1
100
AcDbSymbolTableRecord
100
AcDbBlockTableRecord
  2
*S28
340
0
102
{BLKREFS
331
6632
102
}
  0
BLOCK_RECORD
  5
62E7
330
1
100
AcDbSymbolTableRecord
100
AcDbBlockTableRecord
  2
*S29
340
0
102
{BLKREFS
331
6635
102
}
  0
BLOCK_RECORD
  5
6647
330
1
100
AcDbSymbolTableRecord
100
AcDbBlockTableRecord
  2
*D30
340
0
  0
BLOCK_RECORD
  5
6653
330
1
100
AcDbSymbolTableRecord
100
AcDbBlockTableRecord
  2
*D31
340
0
  0
BLOCK_RECORD
  5
665F
330
1
100
AcDbSymbolTableRecord
100
AcDbBlockTableRecord
  2
*D32
340
0
  0
BLOCK_RECORD
  5
666B
330
1
100
AcDbSymbolTableRecord
100
AcDbBlockTableRecord
  2
*D33
340
0
  0
BLOCK_RECORD
  5
6677
330
1
100
AcDbSymbolTableRecord
100
AcDbBlockTableRecord
  2
*D34
340
0
  0
BLOCK_RECORD
  5
6683
330
1
100
AcDbSymbolTableRecord
100
AcDbBlockTableRecord
  2
*D35
340
0
  0
BLOCK_RECORD
  5
668F
330
1
100
AcDbSymbolTableRecord
100
AcDbBlockTableRecord
  2
*D36
340
0
  0
BLOCK_RECORD
  5
669B
330
1
100
AcDbSymbolTableRecord
100
AcDbBlockTableRecord
  2
*D37
340
0
  0
BLOCK_RECORD
  5
66A7
330
1
100
AcDbSymbolTableRecord
100
AcDbBlockTableRecord
  2
*D38
340
0
  0
BLOCK_RECORD
  5
66B3
330
1
100
AcDbSymbolTableRecord
100
AcDbBlockTableRecord
  2
*D39
340
0
  0
BLOCK_RECORD
  5
66BF
330
1
100
AcDbSymbolTableRecord
100
AcDbBlockTableRecord
  2
*D40
340
0
  0
BLOCK_RECORD
  5
66CB
330
1
100
AcDbSymbolTableRecord
100
AcDbBlockTableRecord
  2
*D41
340
0
  0
BLOCK_RECORD
  5
66D7
330
1
100
AcDbSymbolTableRecord
100
AcDbBlockTableRecord
  2
*D42
340
0
  0
BLOCK_RECORD
  5
66E3
330
1
100
AcDbSymbolTableRecord
100
AcDbBlockTableRecord
  2
*D43
340
0
  0
BLOCK_RECORD
  5
66EF
330
1
100
AcDbSymbolTableRecord
100
AcDbBlockTableRecord
  2
*D44
340
0
  0
ENDTAB
  0
ENDSEC
  0
SECTION
  2
BLOCKS
  0
BLOCK
  5
29
330
1E
100
AcDbEntity
  8
0
100
AcDbBlockBegin
  2
*MODEL_SPACE
 70
     0
 10
0.0
 20
0.0
 30
0.0
  3
*MODEL_SPACE
  1

  0
ENDBLK
  5
2A
330
1E
100
AcDbEntity
  8
0
100
AcDbBlockEnd
  0
BLOCK
  5
27
330
1A
100
AcDbEntity
 67
     1
  8
0
100
AcDbBlockBegin
  2
*PAPER_SPACE
 70
     0
 10
0.0
 20
0.0
 30
0.0
  3
*PAPER_SPACE
  1

  0
ENDBLK
  5
28
330
1A
100
AcDbEntity
 67
     1
  8
0
100
AcDbBlockEnd
  0
BLOCK
  5
518
330
517
100
AcDbEntity
  8
0
100
AcDbBlockBegin
  2
AVE_RENDER
 70
     0
 10
0.0
 20
0.0
 30
0.0
  3
AVE_RENDER
  1
AVE_RENDER
  0
ENDBLK
  5
519
330
517
100
AcDbEntity
  8
0
100
AcDbBlockEnd
  0
BLOCK
  5
526
330
525
100
AcDbEntity
  8
0
100
AcDbBlockBegin
  2
AVE_GLOBAL
 70
     0
 10
0.0
 20
0.0
 30
0.0
  3
AVE_GLOBAL
  1
AVE_GLOBAL
  0
ENDBLK
  5
527
330
525
100
AcDbEntity
  8
0
100
AcDbBlockEnd
  0
BLOCK
  5
7EF
330
7ED
100
AcDbEntity
  8
0
100
AcDbBlockBegin
  2
GENAXEH
 70
     0
 10
0.0
 20
0.0
 30
0.0
  3
GENAXEH
  1

  0
LINE
  5
7EE
330
7ED
100
AcDbEntity
  8
0
100
AcDbLine
 10
-1.0
 20
0.0
 30
0.0
 11
1.0
 21
0.0
 31
0.0
  0
ENDBLK
  5
7F0
330
7ED
100
AcDbEntity
  8
0
100
AcDbBlockEnd
  0
BLOCK
  5
18EC
330
18E9
100
AcDbEntity
  8
0
100
AcDbBlockBegin
  2
GENDOT
 70
     0
 10
0.0
 20
0.0
 30
0.0
  3
GENDOT
  1

  0
LINE
  5
18EA
330
18E9
100
AcDbEntity
  8
0
100
AcDbLine
 10
0.0
 20
0.0
 30
0.0
 11
-1.0
 21
0.0
 31
0.0
  0
LWPOLYLINE
  5
18EB
330
18E9
100
AcDbEntity
  8
0
100
AcDbPolyline
 90
        2
 70
     1
 43
0.25
 10
-0.125
 20
0.0
 42
1.0
 10
0.125
 20
0.0
 42
1.0
  0
ENDBLK
  5
18ED
330
18E9
100
AcDbEntity
  8
0
100
AcDbBlockEnd
  0
BLOCK
  5
3B4E
330
3B4B
100
AcDbEntity
  8
0
100
AcDbBlockBegin
  2
A$C1F6E6265
 70
     0
 10
0.0
 20
0.0
 30
0.0
  3
A$C1F6E6265
  1

  0
LINE
  5
3B4F
330
3B4B
100
AcDbEntity
  8
AM_5
 62
     5
100
AcDbLine
 10
12.57846733029419
 20
0.460783587398737
 30
0.0
 11
7.091423997858555
 21
0.460783587398737
 31
0.0
  0
LINE
  5
3B50
330
3B4B
100
AcDbEntity
  8
AM_5
 62
     5
100
AcDbLine
 10
7.091423997858555
 20
0.460783587398737
 30
0.0
 11
3.50000046420655
 21
0.460783587398737
 31
0.0
  0
TRACE
  5
3B51
330
3B4B
100
AcDbEntity
  8
AM_5
 62
     5
370
    35
100
AcDbTrace
 10
3.50000046420655
 20
0.9215673268987245
 30
0.0
 11
3.50000046420655
 21
-0.0000001521012507
 31
0.0
 12
0.0000004642065505
 22
0.460783587398737
 32
0.0
 13
0.0000004642065505
 23
0.460783587398737
 33
0.0
  0
MTEXT
  5
3B52
330
3B4B
100
AcDbEntity
  8
AM_5
 62
     5
100
AcDbMText
 10
6.603782167567317
 20
1.421084835219261
 30
0.0
 40
2.449999999999999
 41
0.0
 71
     7
 72
     5
  1
SL
  7
ACISOTS
 73
     1
 44
1.0
1001
ACAD
1000
MTEXTBEGIN
1070
    73
1070
     1
1070
    44
1040
1.0
1070
    74
1070
     0
1000
MTEXTEND
  0
ENDBLK
  5
3B53
330
3B4B
100
AcDbEntity
  8
0
100
AcDbBlockEnd
  0
BLOCK
  5
5D72
330
5D71
100
AcDbEntity
  8
0
100
AcDbBlockBegin
  2
*S6
 70
     1
 10
0.0
 20
0.0
 30
0.0
  3
*S6
  1

  0
LINE
  5
5D73
330
5D71
100
AcDbEntity
  8
AM_5
100
AcDbLine
 10
450.46814327697
 20
146.4282802841923
 30
0.0
 11
466.3884281144688
 21
146.4282802841923
 31
0.0
  0
LINE
  5
5D74
330
5D71
100
AcDbEntity
  8
AM_5
100
AcDbLine
 10
466.3884281144688
 20
146.4282802841923
 30
0.0
 11
473.3196948556493
 21
136.5851594316168
 31
0.0
  0
TRACE
  5
5D75
330
5D71
100
AcDbEntity
  8
AM_5
100
AcDbTrace
 10
472.9429463093922
 20
136.3198630172407
 30
0.0
 11
473.6964434019063
 21
136.850455845993
 31
0.0
 12
475.334821195229
 22
133.7234700991539
 32
0.0
 13
475.334821195229
 23
133.7234700991539
 33
0.0
  0
MTEXT
  5
5D76
330
5D71
100
AcDbEntity
  8
AM_5
 62
     2
100
AcDbMText
 10
450.46814327697
 20
144.2069233295639
 30
0.0
 40
3.5
 41
0.0
 71
     9
 72
     5
  1

  7
ACISOTS
 73
     1
 44
1.0
1001
ACAD
1000
MTEXTBEGIN
1070
    73
1070
     1
1070
    44
1040
1.0
1070
    74
1070
     0
1000
MTEXTEND
  0
ENDBLK
  5
5D77
330
5D71
100
AcDbEntity
  8
0
100
AcDbBlockEnd
  0
BLOCK
  5
5D79
330
5D78
100
AcDbEntity
  8
0
100
AcDbBlockBegin
  2
*S7
 70
     1
 10
0.0
 20
0.0
 30
0.0
  3
*S7
  1

  0
LINE
  5
5D7A
330
5D78
100
AcDbEntity
  8
AM_5
100
AcDbLine
 10
571.3662335524483
 20
186.180196188636
 30
0.0
 11
555.5005832164794
 21
186.180196188636
 31
0.0
  0
LINE
  5
5D7B
330
5D78
100
AcDbEntity
  8
AM_5
100
AcDbLine
 10
555.5005832164794
 20
186.180196188636
 30
0.0
 11
540.3504861411387
 21
208.890821195531
 31
0.0
  0
TRACE
  5
5D7C
330
5D78
100
AcDbEntity
  8
AM_5
100
AcDbTrace
 10
540.7338059597249
 20
209.1465311313307
 30
0.0
 11
539.9671663225525
 21
208.6351112597314
 31
0.0
 12
538.4081763359579
 22
211.8024242970368
 32
0.0
 13
538.4081763359579
 23
211.8024242970368
 33
0.0
  0
MTEXT
  5
5D7D
330
5D78
100
AcDbEntity
  8
AM_5
 62
     2
100
AcDbMText
 10
571.3662335524483
 20
184.6855220149468
 30
0.0
 40
3.5
 41
0.0
 71
     9
 72
     5
  1

  7
ACISOTS
210
0.0
220
0.0
230
-1.0
 11
-1.0
 21
0.0
 31
0.0
 73
     1
 44
1.0
1001
ACAD
1000
MTEXTBEGIN
1070
    73
1070
     1
1070
    44
1040
1.0
1070
    74
1070
     0
1000
MTEXTEND
  0
ENDBLK
  5
5D7E
330
5D78
100
AcDbEntity
  8
0
100
AcDbBlockEnd
  0
BLOCK
  5
5D80
330
5D7F
100
AcDbEntity
  8
0
100
AcDbBlockBegin
  2
*S8
 70
     1
 10
0.0
 20
0.0
 30
0.0
  3
*S8
  1

  0
LINE
  5
5D81
330
5D7F
100
AcDbEntity
  8
AM_5
100
AcDbLine
 10
567.6155642117225
 20
252.0994923002461
 30
0.0
 11
547.0638334625854
 21
252.0994923002461
 31
0.0
  0
LINE
  5
5D82
330
5D7F
100
AcDbEntity
  8
AM_5
100
AcDbLine
 10
547.0638334625854
 20
252.0994923002461
 30
0.0
 11
532.4371915544332
 21
241.9571178603943
 31
0.0
  0
TRACE
  5
5D83
330
5D7F
100
AcDbEntity
  8
AM_5
100
AcDbTrace
 10
532.1746247594947
 20
242.3357738160892
 30
0.0
 11
532.6997583493719
 21
241.5784619046993
 31
0.0
 12
529.5610140088227
 22
239.9627250389758
 32
0.0
 13
529.5610140088227
 23
239.9627250389758
 33
0.0
  0
MTEXT
  5
5D84
330
5D7F
100
AcDbEntity
  8
AM_5
 62
     2
100
AcDbMText
 10
567.6155642117225
 20
249.1206597691057
 30
0.0
 40
3.5
 41
0.0
 71
     9
 72
     5
  1

  7
ACISOTS
210
0.0
220
0.0
230
-1.0
 11
-1.0
 21
0.0
 31
0.0
 73
     1
 44
1.0
1001
ACAD
1000
MTEXTBEGIN
1070
    73
1070
     1
1070
    44
1040
1.0
1070
    74
1070
     0
1000
MTEXTEND
  0
ENDBLK
  5
5D85
330
5D7F
100
AcDbEntity
  8
0
100
AcDbBlockEnd
  0
BLOCK
  5
609F
330
6095
100
AcDbEntity
  8
0
100
AcDbBlockBegin
  2
*D9
 70
     1
 10
0.0
 20
0.0
 30
0.0
  3
*D9
  1

  0
LINE
  5
6AC6
330
6095
100
AcDbEntity
  8
AM_5
100
AcDbLine
 10
129.912350194915
 20
129.6295747252478
 30
0.0
 11
143.412350194915
 21
129.6295747252478
 31
0.0
  0
LINE
  5
6AC7
330
6095
100
AcDbEntity
  8
AM_5
100
AcDbLine
 10
120.662350194915
 20
155.6295747252478
 30
0.0
 11
143.412350194915
 21
155.6295747252478
 31
0.0
  0
LINE
  5
6AC8
330
6095
100
AcDbEntity
  8
AM_5
100
AcDbLine
 10
141.912350194915
 20
132.6295747252478
 30
0.0
 11
141.912350194915
 21
152.6295747252478
 31
0.0
  0
SOLID
  5
6AC9
330
6095
100
AcDbEntity
  8
AM_5
100
AcDbTrace
 10
141.412350194915
 20
132.6295747252478
 30
0.0
 11
142.412350194915
 21
132.6295747252478
 31
0.0
 12
141.912350194915
 22
129.6295747252478
 32
0.0
 13
141.912350194915
 23
129.6295747252478
 33
0.0
  0
SOLID
  5
6ACA
330
6095
100
AcDbEntity
  8
AM_5
100
AcDbTrace
 10
141.412350194915
 20
152.6295747252478
 30
0.0
 11
142.412350194915
 21
152.6295747252478
 31
0.0
 12
141.912350194915
 22
155.6295747252478
 32
0.0
 13
141.912350194915
 23
155.6295747252478
 33
0.0
  0
MTEXT
  5
6ACB
330
6095
100
AcDbEntity
  8
AM_5
100
AcDbMText
 10
139.6120549193244
 20
142.6295747252478
 30
0.0
 40
3.0
 41
0.0
 71
     5
 72
     1
  1
26
 11
0.0000000000000001
 21
1.0
 31
0.0
 73
     1
 44
1.0
1001
ACAD
1000
MTEXTBEGIN
1070
    73
1070
     1
1070
    44
1040
1.0
1070
    74
1070
     0
1000
MTEXTEND
  0
POINT
  5
6ACC
330
6095
100
AcDbEntity
  8
DEFPOINTS
 62
     0
100
AcDbPoint
 10
128.912350194915
 20
129.6295747252478
 30
0.0
  0
POINT
  5
6ACD
330
6095
100
AcDbEntity
  8
DEFPOINTS
 62
     0
100
AcDbPoint
 10
119.662350194915
 20
155.6295747252478
 30
0.0
  0
POINT
  5
6ACE
330
6095
100
AcDbEntity
  8
DEFPOINTS
 62
     0
100
AcDbPoint
 10
141.912350194915
 20
155.6295747252478
 30
0.0
  0
ENDBLK
  5
60A0
330
6095
100
AcDbEntity
  8
0
100
AcDbBlockEnd
  0
BLOCK
  5
60AB
330
60A1
100
AcDbEntity
  8
0
100
AcDbBlockBegin
  2
*D10
 70
     1
 10
0.0
 20
0.0
 30
0.0
  3
*D10
  1

  0
LINE
  5
6ACF
330
60A1
100
AcDbEntity
  8
AM_5
100
AcDbLine
 10
129.912350194915
 20
129.6295747252478
 30
0.0
 11
150.412350194915
 21
129.6295747252478
 31
0.0
  0
LINE
  5
6AD0
330
60A1
100
AcDbEntity
  8
AM_5
100
AcDbLine
 10
129.912350194915
 20
181.6295747252478
 30
0.0
 11
150.412350194915
 21
181.6295747252478
 31
0.0
  0
LINE
  5
6AD1
330
60A1
100
AcDbEntity
  8
AM_5
100
AcDbLine
 10
148.912350194915
 20
132.6295747252478
 30
0.0
 11
148.912350194915
 21
178.6295747252478
 31
0.0
  0
SOLID
  5
6AD2
330
60A1
100
AcDbEntity
  8
AM_5
100
AcDbTrace
 10
148.412350194915
 20
132.6295747252478
 30
0.0
 11
149.412350194915
 21
132.6295747252478
 31
0.0
 12
148.912350194915
 22
129.6295747252478
 32
0.0
 13
148.912350194915
 23
129.6295747252478
 33
0.0
  0
SOLID
  5
6AD3
330
60A1
100
AcDbEntity
  8
AM_5
100
AcDbTrace
 10
148.412350194915
 20
178.6295747252478
 30
0.0
 11
149.412350194915
 21
178.6295747252478
 31
0.0
 12
148.912350194915
 22
181.6295747252478
 32
0.0
 13
148.912350194915
 23
181.6295747252478
 33
0.0
  0
MTEXT
  5
6AD4
330
60A1
100
AcDbEntity
  8
AM_5
100
AcDbMText
 10
146.6120549193244
 20
155.6295747252478
 30
0.0
 40
3.0
 41
0.0
 71
     5
 72
     1
  1
52
 11
0.0000000000000001
 21
1.0
 31
0.0
 73
     1
 44
1.0
1001
ACAD
1000
MTEXTBEGIN
1070
    73
1070
     1
1070
    44
1040
1.0
1070
    74
1070
     0
1000
MTEXTEND
  0
POINT
  5
6AD5
330
60A1
100
AcDbEntity
  8
DEFPOINTS
 62
     0
100
AcDbPoint
 10
128.912350194915
 20
129.6295747252478
 30
0.0
  0
POINT
  5
6AD6
330
60A1
100
AcDbEntity
  8
DEFPOINTS
 62
     0
100
AcDbPoint
 10
128.912350194915
 20
181.6295747252478
 30
0.0
  0
POINT
  5
6AD7
330
60A1
100
AcDbEntity
  8
DEFPOINTS
 62
     0
100
AcDbPoint
 10
148.912350194915
 20
181.6295747252478
 30
0.0
  0
ENDBLK
  5
60AC
330
60A1
100
AcDbEntity
  8
0
100
AcDbBlockEnd
  0
BLOCK
  5
60B7
330
60AD
100
AcDbEntity
  8
0
100
AcDbBlockBegin
  2
*D11
 70
     1
 10
0.0
 20
0.0
 30
0.0
  3
*D11
  1

  0
LINE
  5
6AD8
330
60AD
100
AcDbEntity
  8
AM_5
100
AcDbLine
 10
183.386716462978
 20
149.2295747252478
 30
0.0
 11
183.386716462978
 21
121.1875736992221
 31
0.0
  0
LINE
  5
6AD9
330
60AD
100
AcDbEntity
  8
AM_5
100
AcDbLine
 10
204.386716462978
 20
147.7295747252478
 30
0.0
 11
204.386716462978
 21
121.1875736992221
 31
0.0
  0
LINE
  5
6ADA
330
60AD
100
AcDbEntity
  8
AM_5
100
AcDbLine
 10
186.386716462978
 20
122.687573699222
 30
0.0
 11
201.386716462978
 21
122.687573699222
 31
0.0
  0
SOLID
  5
6ADB
330
60AD
100
AcDbEntity
  8
AM_5
100
AcDbTrace
 10
186.386716462978
 20
123.187573699222
 30
0.0
 11
186.386716462978
 21
122.187573699222
 31
0.0
 12
183.386716462978
 22
122.687573699222
 32
0.0
 13
183.386716462978
 23
122.687573699222
 33
0.0
  0
SOLID
  5
6ADC
330
60AD
100
AcDbEntity
  8
AM_5
100
AcDbTrace
 10
201.386716462978
 20
123.187573699222
 30
0.0
 11
201.386716462978
 21
122.187573699222
 31
0.0
 12
204.386716462978
 22
122.687573699222
 32
0.0
 13
204.386716462978
 23
122.687573699222
 33
0.0
  0
MTEXT
  5
6ADD
330
60AD
100
AcDbEntity
  8
AM_5
100
AcDbMText
 10
193.886716462978
 20
124.9878689748126
 30
0.0
 40
3.0
 41
0.0
 71
     5
 72
     1
  1
21
 73
     1
 44
1.0
1001
ACAD
1000
MTEXTBEGIN
1070
    73
1070
     1
1070
    44
1040
1.0
1070
    74
1070
     0
1000
MTEXTEND
  0
POINT
  5
6ADE
330
60AD
100
AcDbEntity
  8
DEFPOINTS
 62
     0
100
AcDbPoint
 10
183.386716462978
 20
150.2295747252478
 30
0.0
  0
POINT
  5
6ADF
330
60AD
100
AcDbEntity
  8
DEFPOINTS
 62
     0
100
AcDbPoint
 10
204.386716462978
 20
148.7295747252478
 30
0.0
  0
POINT
  5
6AE0
330
60AD
100
AcDbEntity
  8
DEFPOINTS
 62
     0
100
AcDbPoint
 10
204.386716462978
 20
122.687573699222
 30
0.0
  0
ENDBLK
  5
60B8
330
60AD
100
AcDbEntity
  8
0
100
AcDbBlockEnd
  0
BLOCK
  5
60C3
330
60B9
100
AcDbEntity
  8
0
100
AcDbBlockBegin
  2
*D12
 70
     1
 10
0.0
 20
0.0
 30
0.0
  3
*D12
  1

  0
LINE
  5
6AE1
330
60B9
100
AcDbEntity
  8
AM_5
100
AcDbLine
 10
183.386716462978
 20
149.2295747252478
 30
0.0
 11
183.386716462978
 21
114.1875736992221
 31
0.0
  0
LINE
  5
6AE2
330
60B9
100
AcDbEntity
  8
AM_5
100
AcDbLine
 10
207.386716462978
 20
147.7295747252478
 30
0.0
 11
207.386716462978
 21
114.1875736992221
 31
0.0
  0
LINE
  5
6AE3
330
60B9
100
AcDbEntity
  8
AM_5
100
AcDbLine
 10
186.386716462978
 20
115.687573699222
 30
0.0
 11
204.386716462978
 21
115.687573699222
 31
0.0
  0
SOLID
  5
6AE4
330
60B9
100
AcDbEntity
  8
AM_5
100
AcDbTrace
 10
186.386716462978
 20
116.1875736992221
 30
0.0
 11
186.386716462978
 21
115.1875736992221
 31
0.0
 12
183.386716462978
 22
115.687573699222
 32
0.0
 13
183.386716462978
 23
115.687573699222
 33
0.0
  0
SOLID
  5
6AE5
330
60B9
100
AcDbEntity
  8
AM_5
100
AcDbTrace
 10
204.386716462978
 20
116.1875736992221
 30
0.0
 11
204.386716462978
 21
115.1875736992221
 31
0.0
 12
207.386716462978
 22
115.687573699222
 32
0.0
 13
207.386716462978
 23
115.687573699222
 33
0.0
  0
MTEXT
  5
6AE6
330
60B9
100
AcDbEntity
  8
AM_5
100
AcDbMText
 10
195.386716462978
 20
117.9878689748126
 30
0.0
 40
3.0
 41
0.0
 71
     5
 72
     1
  1
24
 73
     1
 44
1.0
1001
ACAD
1000
MTEXTBEGIN
1070
    73
1070
     1
1070
    44
1040
1.0
1070
    74
1070
     0
1000
MTEXTEND
  0
POINT
  5
6AE7
330
60B9
100
AcDbEntity
  8
DEFPOINTS
 62
     0
100
AcDbPoint
 10
183.386716462978
 20
150.2295747252478
 30
0.0
  0
POINT
  5
6AE8
330
60B9
100
AcDbEntity
  8
DEFPOINTS
 62
     0
100
AcDbPoint
 10
207.386716462978
 20
148.7295747252478
 30
0.0
  0
POINT
  5
6AE9
330
60B9
100
AcDbEntity
  8
DEFPOINTS
 62
     0
100
AcDbPoint
 10
207.386716462978
 20
115.687573699222
 30
0.0
  0
ENDBLK
  5
60C4
330
60B9
100
AcDbEntity
  8
0
100
AcDbBlockEnd
  0
BLOCK
  5
60CF
330
60C5
100
AcDbEntity
  8
0
100
AcDbBlockBegin
  2
*D13
 70
     1
 10
0.0
 20
0.0
 30
0.0
  3
*D13
  1

  0
LINE
  5
6AEA
330
60C5
100
AcDbEntity
  8
AM_5
100
AcDbLine
 10
183.386716462978
 20
149.2295747252478
 30
0.0
 11
183.386716462978
 21
107.187573699222
 31
0.0
  0
LINE
  5
6AEB
330
60C5
100
AcDbEntity
  8
AM_5
100
AcDbLine
 10
217.3867164629779
 20
128.6295747252478
 30
0.0
 11
217.3867164629779
 21
107.187573699222
 31
0.0
  0
LINE
  5
6AEC
330
60C5
100
AcDbEntity
  8
AM_5
100
AcDbLine
 10
186.386716462978
 20
108.6875736992221
 30
0.0
 11
214.3867164629779
 21
108.6875736992221
 31
0.0
  0
SOLID
  5
6AED
330
60C5
100
AcDbEntity
  8
AM_5
100
AcDbTrace
 10
186.386716462978
 20
109.187573699222
 30
0.0
 11
186.386716462978
 21
108.187573699222
 31
0.0
 12
183.386716462978
 22
108.6875736992221
 32
0.0
 13
183.386716462978
 23
108.6875736992221
 33
0.0
  0
SOLID
  5
6AEE
330
60C5
100
AcDbEntity
  8
AM_5
100
AcDbTrace
 10
214.3867164629779
 20
109.187573699222
 30
0.0
 11
214.3867164629779
 21
108.187573699222
 31
0.0
 12
217.3867164629779
 22
108.6875736992221
 32
0.0
 13
217.3867164629779
 23
108.6875736992221
 33
0.0
  0
MTEXT
  5
6AEF
330
60C5
100
AcDbEntity
  8
AM_5
100
AcDbMText
 10
200.386716462978
 20
110.987573699222
 30
0.0
 40
3.0
 41
0.0
 71
     5
 72
     1
  1
34
 73
     1
 44
1.0
1001
ACAD
1000
MTEXTBEGIN
1070
    73
1070
     1
1070
    44
1040
1.0
1070
    74
1070
     0
1000
MTEXTEND
  0
POINT
  5
6AF0
330
60C5
100
AcDbEntity
  8
DEFPOINTS
 62
     0
100
AcDbPoint
 10
183.386716462978
 20
150.2295747252478
 30
0.0
  0
POINT
  5
6AF1
330
60C5
100
AcDbEntity
  8
DEFPOINTS
 62
     0
100
AcDbPoint
 10
217.3867164629779
 20
129.6295747252478
 30
0.0
  0
POINT
  5
6AF2
330
60C5
100
AcDbEntity
  8
DEFPOINTS
 62
     0
100
AcDbPoint
 10
217.3867164629779
 20
108.6875736992221
 30
0.0
  0
ENDBLK
  5
60D0
330
60C5
100
AcDbEntity
  8
0
100
AcDbBlockEnd
  0
BLOCK
  5
60DB
330
60D1
100
AcDbEntity
  8
0
100
AcDbBlockBegin
  2
*D14
 70
     1
 10
0.0
 20
0.0
 30
0.0
  3
*D14
  1

  0
LINE
  5
6AF3
330
60D1
100
AcDbEntity
  8
AM_5
100
AcDbLine
 10
217.3867164629779
 20
128.6295747252478
 30
0.0
 11
217.3867164629779
 21
107.187573699222
 31
0.0
  0
LINE
  5
6AF4
330
60D1
100
AcDbEntity
  8
AM_5
100
AcDbLine
 10
321.3867164629779
 20
133.8795747252478
 30
0.0
 11
321.3867164629779
 21
107.187573699222
 31
0.0
  0
LINE
  5
6AF5
330
60D1
100
AcDbEntity
  8
AM_5
100
AcDbLine
 10
220.3867164629779
 20
108.6875736992221
 30
0.0
 11
318.3867164629779
 21
108.6875736992221
 31
0.0
  0
SOLID
  5
6AF6
330
60D1
100
AcDbEntity
  8
AM_5
100
AcDbTrace
 10
220.3867164629779
 20
109.187573699222
 30
0.0
 11
220.3867164629779
 21
108.187573699222
 31
0.0
 12
217.3867164629779
 22
108.6875736992221
 32
0.0
 13
217.3867164629779
 23
108.6875736992221
 33
0.0
  0
SOLID
  5
6AF7
330
60D1
100
AcDbEntity
  8
AM_5
100
AcDbTrace
 10
318.3867164629779
 20
109.187573699222
 30
0.0
 11
318.3867164629779
 21
108.187573699222
 31
0.0
 12
321.3867164629779
 22
108.6875736992221
 32
0.0
 13
321.3867164629779
 23
108.6875736992221
 33
0.0
  0
MTEXT
  5
6AF8
330
60D1
100
AcDbEntity
  8
AM_5
100
AcDbMText
 10
269.3867164629779
 20
110.987573699222
 30
0.0
 40
3.0
 41
0.0
 71
     5
 72
     1
  1
104+stroke
 73
     1
 44
1.0
1001
ACAD
1000
MTEXTBEGIN
1070
    73
1070
     1
1070
    44
1040
1.0
1070
    74
1070
     0
1000
MTEXTEND
  0
POINT
  5
6AF9
330
60D1
100
AcDbEntity
  8
DEFPOINTS
 62
     0
100
AcDbPoint
 10
217.3867164629779
 20
129.6295747252478
 30
0.0
  0
POINT
  5
6AFA
330
60D1
100
AcDbEntity
  8
DEFPOINTS
 62
     0
100
AcDbPoint
 10
321.3867164629779
 20
134.8795747252478
 30
0.0
  0
POINT
  5
6AFB
330
60D1
100
AcDbEntity
  8
DEFPOINTS
 62
     0
100
AcDbPoint
 10
321.3867164629779
 20
108.6875736992221
 30
0.0
  0
ENDBLK
  5
60DC
330
60D1
100
AcDbEntity
  8
0
100
AcDbBlockEnd
  0
BLOCK
  5
60E7
330
60DD
100
AcDbEntity
  8
0
100
AcDbBlockBegin
  2
*D15
 70
     1
 10
0.0
 20
0.0
 30
0.0
  3
*D15
  1

  0
LINE
  5
6AFC
330
60DD
100
AcDbEntity
  8
AM_5
100
AcDbLine
 10
183.386716462978
 20
149.2295747252478
 30
0.0
 11
183.386716462978
 21
100.187573699222
 31
0.0
  0
LINE
  5
6AFD
330
60DD
100
AcDbEntity
  8
AM_5
100
AcDbLine
 10
321.3867164629779
 20
133.8795747252478
 30
0.0
 11
321.3867164629779
 21
100.187573699222
 31
0.0
  0
LINE
  5
6AFE
330
60DD
100
AcDbEntity
  8
AM_5
100
AcDbLine
 10
186.386716462978
 20
101.687573699222
 30
0.0
 11
318.3867164629779
 21
101.687573699222
 31
0.0
  0
SOLID
  5
6AFF
330
60DD
100
AcDbEntity
  8
AM_5
100
AcDbTrace
 10
186.386716462978
 20
102.187573699222
 30
0.0
 11
186.386716462978
 21
101.187573699222
 31
0.0
 12
183.386716462978
 22
101.687573699222
 32
0.0
 13
183.386716462978
 23
101.687573699222
 33
0.0
  0
SOLID
  5
6B00
330
60DD
100
AcDbEntity
  8
AM_5
100
AcDbTrace
 10
318.3867164629779
 20
102.187573699222
 30
0.0
 11
318.3867164629779
 21
101.187573699222
 31
0.0
 12
321.3867164629779
 22
101.687573699222
 32
0.0
 13
321.3867164629779
 23
101.687573699222
 33
0.0
  0
MTEXT
  5
6B01
330
60DD
100
AcDbEntity
  8
AM_5
100
AcDbMText
 10
252.386716462978
 20
103.987573699222
 30
0.0
 40
3.0
 41
0.0
 71
     5
 72
     1
  1
138+stroke
 73
     1
 44
1.0
1001
ACAD
1000
MTEXTBEGIN
1070
    73
1070
     1
1070
    44
1040
1.0
1070
    74
1070
     0
1000
MTEXTEND
  0
POINT
  5
6B02
330
60DD
100
AcDbEntity
  8
DEFPOINTS
 62
     0
100
AcDbPoint
 10
183.386716462978
 20
150.2295747252478
 30
0.0
  0
POINT
  5
6B03
330
60DD
100
AcDbEntity
  8
DEFPOINTS
 62
     0
100
AcDbPoint
 10
321.3867164629779
 20
134.8795747252478
 30
0.0
  0
POINT
  5
6B04
330
60DD
100
AcDbEntity
  8
DEFPOINTS
 62
     0
100
AcDbPoint
 10
321.3867164629779
 20
101.687573699222
 30
0.0
  0
ENDBLK
  5
60E8
330
60DD
100
AcDbEntity
  8
0
100
AcDbBlockEnd
  0
BLOCK
  5
60F3
330
60E9
100
AcDbEntity
  8
0
100
AcDbBlockBegin
  2
*D16
 70
     1
 10
0.0
 20
0.0
 30
0.0
  3
*D16
  1

  0
LINE
  5
6B05
330
60E9
100
AcDbEntity
  8
AM_5
100
AcDbLine
 10
363.4890426899358
 20
145.1955935931912
 30
0.0
 11
363.4890426899358
 21
116.1295747252478
 31
0.0
  0
LINE
  5
6B06
330
60E9
100
AcDbEntity
  8
AM_5
100
AcDbLine
 10
405.9890426899357
 20
145.1955935931912
 30
0.0
 11
405.9890426899357
 21
116.1295747252478
 31
0.0
  0
LINE
  5
6B07
330
60E9
100
AcDbEntity
  8
AM_5
100
AcDbLine
 10
366.4890426899358
 20
117.6295747252478
 30
0.0
 11
402.9890426899357
 21
117.6295747252478
 31
0.0
  0
SOLID
  5
6B08
330
60E9
100
AcDbEntity
  8
AM_5
100
AcDbTrace
 10
366.4890426899358
 20
118.1295747252478
 30
0.0
 11
366.4890426899358
 21
117.1295747252478
 31
0.0
 12
363.4890426899358
 22
117.6295747252478
 32
0.0
 13
363.4890426899358
 23
117.6295747252478
 33
0.0
  0
SOLID
  5
6B09
330
60E9
100
AcDbEntity
  8
AM_5
100
AcDbTrace
 10
402.9890426899357
 20
118.1295747252478
 30
0.0
 11
402.9890426899357
 21
117.1295747252478
 31
0.0
 12
405.9890426899357
 22
117.6295747252478
 32
0.0
 13
405.9890426899357
 23
117.6295747252478
 33
0.0
  0
MTEXT
  5
6B0A
330
60E9
100
AcDbEntity
  8
AM_5
100
AcDbMText
 10
384.7390426899358
 20
119.9298700008384
 30
0.0
 40
3.0
 41
0.0
 71
     5
 72
     1
  1
{\Famgdt|c136;o}42.5
 73
     1
 44
1.0
1001
ACAD
1000
MTEXTBEGIN
1070
    73
1070
     1
1070
    44
1040
1.0
1070
    74
1070
     0
1000
MTEXTEND
  0
POINT
  5
6B0B
330
60E9
100
AcDbEntity
  8
DEFPOINTS
 62
     0
100
AcDbPoint
 10
363.4890426899358
 20
146.1955935931912
 30
0.0
  0
POINT
  5
6B0C
330
60E9
100
AcDbEntity
  8
DEFPOINTS
 62
     0
100
AcDbPoint
 10
405.9890426899357
 20
146.1955935931912
 30
0.0
  0
POINT
  5
6B0D
330
60E9
100
AcDbEntity
  8
DEFPOINTS
 62
     0
100
AcDbPoint
 10
405.9890426899357
 20
117.6295747252478
 30
0.0
  0
ENDBLK
  5
60F4
330
60E9
100
AcDbEntity
  8
0
100
AcDbBlockEnd
  0
BLOCK
  5
60FF
330
60F5
100
AcDbEntity
  8
0
100
AcDbBlockBegin
  2
*D17
 70
     1
 10
0.0
 20
0.0
 30
0.0
  3
*D17
  1

  0
LINE
  5
6B0E
330
60F5
100
AcDbEntity
  8
AM_5
100
AcDbLine
 10
369.8154984873037
 20
134.0344287791766
 30
0.0
 11
368.1099505784315
 21
131.5664120996256
 31
0.0
  0
LINE
  5
6B0F
330
60F5
100
AcDbEntity
  8
AM_5
100
AcDbLine
 10
399.6625868925674
 20
177.2247206713187
 30
0.0
 11
407.2991501285803
 21
188.2752255225067
 31
0.0
  0
LINE
  5
6B10
330
60F5
100
AcDbEntity
  8
AM_5
100
AcDbLine
 10
407.2991501285803
 20
188.2752255225067
 30
0.0
 11
417.5234141972922
 21
188.2752255225068
 31
0.0
  0
LINE
  5
6B11
330
60F5
100
AcDbEntity
  8
AM_5
100
AcDbLine
 10
371.5210463961759
 20
136.5024454587276
 30
0.0
 11
397.9570389836951
 21
174.7567039917678
 31
0.0
  0
SOLID
  5
6B12
330
60F5
100
AcDbEntity
  8
AM_5
100
AcDbTrace
 10
369.4041623740452
 20
134.3186867639886
 30
0.0
 11
370.2268346005622
 21
133.7501707943646
 31
0.0
 12
371.5210463961759
 22
136.5024454587276
 32
0.0
 13
371.5210463961759
 23
136.5024454587276
 33
0.0
  0
SOLID
  5
6B13
330
60F5
100
AcDbEntity
  8
AM_5
100
AcDbTrace
 10
399.2512507793088
 20
177.5089786561307
 30
0.0
 11
400.0739230058258
 21
176.9404626865067
 31
0.0
 12
397.9570389836951
 22
174.7567039917678
 32
0.0
 13
397.9570389836951
 23
174.7567039917678
 33
0.0
  0
MTEXT
  5
6B14
330
60F5
100
AcDbEntity
  8
AM_5
100
AcDbMText
 10
412.8112821629364
 20
190.5752255225067
 30
0.0
 40
3.0
 41
0.0
 71
     5
 72
     1
  1
\U+220546.5
 73
     1
 44
1.0
1001
ACAD
1000
MTEXTBEGIN
1070
    73
1070
     1
1070
    44
1040
1.0
1070
    74
1070
     0
1000
MTEXTEND
  0
POINT
  5
6B15
330
60F5
100
AcDbEntity
  8
DEFPOINTS
 62
     0
100
AcDbPoint
 10
397.9570389836951
 20
174.7567039917678
 30
0.0
  0
POINT
  5
6B16
330
60F5
100
AcDbEntity
  8
DEFPOINTS
 62
     0
100
AcDbPoint
 10
371.5210463961759
 20
136.5024454587276
 30
0.0
  0
ENDBLK
  5
6100
330
60F5
100
AcDbEntity
  8
0
100
AcDbBlockEnd
  0
BLOCK
  5
610B
330
6101
100
AcDbEntity
  8
0
100
AcDbBlockBegin
  2
*D18
 70
     1
 10
0.0
 20
0.0
 30
0.0
  3
*D18
  1

  0
LINE
  5
6B17
330
6101
100
AcDbEntity
  8
AM_5
100
AcDbLine
 10
213.8867164629779
 20
139.6295747252478
 30
0.0
 11
172.871144793825
 21
139.6295747252478
 31
0.0
  0
LINE
  5
6B18
330
6101
100
AcDbEntity
  8
AM_5
100
AcDbLine
 10
213.8867164629779
 20
171.6295747252478
 30
0.0
 11
172.871144793825
 21
171.6295747252478
 31
0.0
  0
LINE
  5
6B19
330
6101
100
AcDbEntity
  8
AM_5
100
AcDbLine
 10
174.371144793825
 20
142.6295747252478
 30
0.0
 11
174.371144793825
 21
168.6295747252478
 31
0.0
  0
SOLID
  5
6B1A
330
6101
100
AcDbEntity
  8
AM_5
100
AcDbTrace
 10
173.871144793825
 20
142.6295747252478
 30
0.0
 11
174.871144793825
 21
142.6295747252478
 31
0.0
 12
174.371144793825
 22
139.6295747252478
 32
0.0
 13
174.371144793825
 23
139.6295747252478
 33
0.0
  0
SOLID
  5
6B1B
330
6101
100
AcDbEntity
  8
AM_5
100
AcDbTrace
 10
173.871144793825
 20
168.6295747252478
 30
0.0
 11
174.871144793825
 21
168.6295747252478
 31
0.0
 12
174.371144793825
 22
171.6295747252478
 32
0.0
 13
174.371144793825
 23
171.6295747252478
 33
0.0
  0
MTEXT
  5
6B1C
330
6101
100
AcDbEntity
  8
AM_5
100
AcDbMText
 10
171.1932287222839
 20
155.6295747252479
 30
0.0
 40
3.0
 41
0.0
 71
     5
 72
     1
  1
%%c32{\H2.130000;\S 0^ -0.039;}
 11
0.0000000000000001
 21
1.0
 31
0.0
 73
     1
 44
1.0
1001
ACAD
1000
MTEXTBEGIN
1070
    73
1070
     1
1070
    44
1040
1.0
1070
    74
1070
     0
1000
MTEXTEND
  0
POINT
  5
6B1D
330
6101
100
AcDbEntity
  8
DEFPOINTS
 62
     0
100
AcDbPoint
 10
214.8867164629779
 20
139.6295747252478
 30
0.0
  0
POINT
  5
6B1E
330
6101
100
AcDbEntity
  8
DEFPOINTS
 62
     0
100
AcDbPoint
 10
214.8867164629779
 20
171.6295747252478
 30
0.0
  0
POINT
  5
6B1F
330
6101
100
AcDbEntity
  8
DEFPOINTS
 62
     0
100
AcDbPoint
 10
174.371144793825
 20
171.6295747252478
 30
0.0
  0
ENDBLK
  5
610C
330
6101
100
AcDbEntity
  8
0
100
AcDbBlockEnd
  0
BLOCK
  5
6117
330
610D
100
AcDbEntity
  8
0
100
AcDbBlockBegin
  2
*D19
 70
     1
 10
0.0
 20
0.0
 30
0.0
  3
*D19
  1

  0
LINE
  5
6B20
330
610D
100
AcDbEntity
  8
AM_5
100
AcDbLine
 10
219.6367164629779
 20
226.510002197698
 30
0.0
 11
169.886716462978
 21
226.510002197698
 31
0.0
  0
LINE
  5
6B21
330
610D
100
AcDbEntity
  8
AM_5
100
AcDbLine
 10
219.6367164629779
 20
264.510002197698
 30
0.0
 11
169.886716462978
 21
264.510002197698
 31
0.0
  0
LINE
  5
6B22
330
610D
100
AcDbEntity
  8
AM_5
100
AcDbLine
 10
171.386716462978
 20
229.510002197698
 30
0.0
 11
171.386716462978
 21
261.510002197698
 31
0.0
  0
SOLID
  5
6B23
330
610D
100
AcDbEntity
  8
AM_5
100
AcDbTrace
 10
170.886716462978
 20
229.510002197698
 30
0.0
 11
171.886716462978
 21
229.510002197698
 31
0.0
 12
171.386716462978
 22
226.510002197698
 32
0.0
 13
171.386716462978
 23
226.510002197698
 33
0.0
  0
SOLID
  5
6B24
330
610D
100
AcDbEntity
  8
AM_5
100
AcDbTrace
 10
170.886716462978
 20
261.510002197698
 30
0.0
 11
171.886716462978
 21
261.510002197698
 31
0.0
 12
171.386716462978
 22
264.510002197698
 32
0.0
 13
171.386716462978
 23
264.510002197698
 33
0.0
  0
MTEXT
  5
6B25
330
610D
100
AcDbEntity
  8
AM_5
100
AcDbMText
 10
169.086716462978
 20
245.510002197698
 30
0.0
 40
3.0
 41
0.0
 71
     5
 72
     1
  1
38
 11
0.0000000000000001
 21
1.0
 31
0.0
 73
     1
 44
1.0
1001
ACAD
1000
MTEXTBEGIN
1070
    73
1070
     1
1070
    44
1040
1.0
1070
    74
1070
     0
1000
MTEXTEND
  0
POINT
  5
6B26
330
610D
100
AcDbEntity
  8
DEFPOINTS
 62
     0
100
AcDbPoint
 10
220.6367164629779
 20
226.510002197698
 30
0.0
  0
POINT
  5
6B27
330
610D
100
AcDbEntity
  8
DEFPOINTS
 62
     0
100
AcDbPoint
 10
220.6367164629779
 20
264.510002197698
 30
0.0
  0
POINT
  5
6B28
330
610D
100
AcDbEntity
  8
DEFPOINTS
 62
     0
100
AcDbPoint
 10
171.386716462978
 20
264.510002197698
 30
0.0
  0
ENDBLK
  5
6118
330
610D
100
AcDbEntity
  8
0
100
AcDbBlockEnd
  0
BLOCK
  5
6123
330
6119
100
AcDbEntity
  8
0
100
AcDbBlockBegin
  2
*D20
 70
     1
 10
0.0
 20
0.0
 30
0.0
  3
*D20
  1

  0
LINE
  5
6B29
330
6119
100
AcDbEntity
  8
AM_5
100
AcDbLine
 10
216.3867164629779
 20
216.260002197698
 30
0.0
 11
162.886716462978
 21
216.260002197698
 31
0.0
  0
LINE
  5
6B2A
330
6119
100
AcDbEntity
  8
AM_5
100
AcDbLine
 10
216.3867164629779
 20
274.760002197698
 30
0.0
 11
162.886716462978
 21
274.760002197698
 31
0.0
  0
LINE
  5
6B2B
330
6119
100
AcDbEntity
  8
AM_5
100
AcDbLine
 10
164.386716462978
 20
219.260002197698
 30
0.0
 11
164.386716462978
 21
271.760002197698
 31
0.0
  0
SOLID
  5
6B2C
330
6119
100
AcDbEntity
  8
AM_5
100
AcDbTrace
 10
163.886716462978
 20
219.260002197698
 30
0.0
 11
164.886716462978
 21
219.260002197698
 31
0.0
 12
164.386716462978
 22
216.260002197698
 32
0.0
 13
164.386716462978
 23
216.260002197698
 33
0.0
  0
SOLID
  5
6B2D
330
6119
100
AcDbEntity
  8
AM_5
100
AcDbTrace
 10
163.886716462978
 20
271.760002197698
 30
0.0
 11
164.886716462978
 21
271.760002197698
 31
0.0
 12
164.386716462978
 22
274.760002197698
 32
0.0
 13
164.386716462978
 23
274.760002197698
 33
0.0
  0
MTEXT
  5
6B2E
330
6119
100
AcDbEntity
  8
AM_5
100
AcDbMText
 10
162.086716462978
 20
245.510002197698
 30
0.0
 40
3.0
 41
0.0
 71
     5
 72
     1
  1
58.5
 11
0.0000000000000001
 21
1.0
 31
0.0
 73
     1
 44
1.0
1001
ACAD
1000
MTEXTBEGIN
1070
    73
1070
     1
1070
    44
1040
1.0
1070
    74
1070
     0
1000
MTEXTEND
  0
POINT
  5
6B2F
330
6119
100
AcDbEntity
  8
DEFPOINTS
 62
     0
100
AcDbPoint
 10
217.3867164629779
 20
216.260002197698
 30
0.0
  0
POINT
  5
6B30
330
6119
100
AcDbEntity
  8
DEFPOINTS
 62
     0
100
AcDbPoint
 10
217.3867164629779
 20
274.760002197698
 30
0.0
  0
POINT
  5
6B31
330
6119
100
AcDbEntity
  8
DEFPOINTS
 62
     0
100
AcDbPoint
 10
164.386716462978
 20
274.760002197698
 30
0.0
  0
ENDBLK
  5
6124
330
6119
100
AcDbEntity
  8
0
100
AcDbBlockEnd
  0
BLOCK
  5
6226
330
6125
100
AcDbEntity
  8
0
100
AcDbBlockBegin
  2
*D21
 70
     1
 10
0.0
 20
0.0
 30
0.0
  3
*D21
  1

  0
LINE
  5
6B32
330
6125
100
AcDbEntity
  8
AM_5
100
AcDbLine
 10
214.3867164629779
 20
229.010002197698
 30
0.0
 11
214.3867164629779
 21
202.760002197698
 31
0.0
  0
LINE
  5
6B33
330
6125
100
AcDbEntity
  8
AM_5
100
AcDbLine
 10
217.3867164629779
 20
215.260002197698
 30
0.0
 11
217.3867164629779
 21
202.760002197698
 31
0.0
  0
LINE
  5
6B34
330
6125
100
AcDbEntity
  8
AM_5
100
AcDbLine
 10
211.3867164629779
 20
204.260002197698
 30
0.0
 11
208.3867164629779
 21
204.260002197698
 31
0.0
  0
LINE
  5
6B35
330
6125
100
AcDbEntity
  8
AM_5
100
AcDbLine
 10
220.3867164629779
 20
204.260002197698
 30
0.0
 11
223.3867164629779
 21
204.260002197698
 31
0.0
  0
LINE
  5
6B36
330
6125
100
AcDbEntity
  8
AM_5
100
AcDbLine
 10
214.3867164629779
 20
204.260002197698
 30
0.0
 11
217.3867164629779
 21
204.260002197698
 31
0.0
  0
SOLID
  5
6B37
330
6125
100
AcDbEntity
  8
AM_5
100
AcDbTrace
 10
211.3867164629779
 20
204.760002197698
 30
0.0
 11
211.3867164629779
 21
203.760002197698
 31
0.0
 12
214.3867164629779
 22
204.260002197698
 32
0.0
 13
214.3867164629779
 23
204.260002197698
 33
0.0
  0
INSERT
  5
6B38
330
6125
100
AcDbEntity
  8
AM_5
100
AcDbBlockReference
  2
GENDOT
 10
217.3867164629779
 20
204.260002197698
 30
0.0
 41
3.0
 42
3.0
 43
3.0
 50
180.0
  0
MTEXT
  5
6B39
330
6125
100
AcDbEntity
  8
AM_5
100
AcDbMText
 10
215.8867164629779
 20
206.560002197698
 30
0.0
 40
3.0
 41
0.0
 71
     5
 72
     1
  1
3
 73
     1
 44
1.0
1001
ACAD
1000
MTEXTBEGIN
1070
    73
1070
     1
1070
    44
1040
1.0
1070
    74
1070
     0
1000
MTEXTEND
  0
POINT
  5
6B3A
330
6125
100
AcDbEntity
  8
DEFPOINTS
 62
     0
100
AcDbPoint
 10
214.3867164629779
 20
230.010002197698
 30
0.0
  0
POINT
  5
6B3B
330
6125
100
AcDbEntity
  8
DEFPOINTS
 62
     0
100
AcDbPoint
 10
217.3867164629779
 20
216.260002197698
 30
0.0
  0
POINT
  5
6B3C
330
6125
100
AcDbEntity
  8
DEFPOINTS
 62
     0
100
AcDbPoint
 10
217.3867164629779
 20
204.260002197698
 30
0.0
  0
ENDBLK
  5
6227
330
6125
100
AcDbEntity
  8
0
100
AcDbBlockEnd
  0
BLOCK
  5
6228
330
6131
100
AcDbEntity
  8
0
100
AcDbBlockBegin
  2
*D22
 70
     1
 10
0.0
 20
0.0
 30
0.0
  3
*D22
  1

  0
LINE
  5
6B3D
330
6131
100
AcDbEntity
  8
AM_5
100
AcDbLine
 10
217.3867164629779
 20
215.260002197698
 30
0.0
 11
217.3867164629779
 21
202.760002197698
 31
0.0
  0
LINE
  5
6B3E
330
6131
100
AcDbEntity
  8
AM_5
100
AcDbLine
 10
232.3867164629779
 20
213.760002197698
 30
0.0
 11
232.3867164629779
 21
202.760002197698
 31
0.0
  0
LINE
  5
6B3F
330
6131
100
AcDbEntity
  8
AM_5
100
AcDbLine
 10
220.3867164629779
 20
204.260002197698
 30
0.0
 11
229.3867164629779
 21
204.260002197698
 31
0.0
  0
INSERT
  5
6B40
330
6131
100
AcDbEntity
  8
AM_5
100
AcDbBlockReference
  2
GENDOT
 10
217.3867164629779
 20
204.260002197698
 30
0.0
 41
3.0
 42
3.0
 43
3.0
 50
180.0
  0
SOLID
  5
6B41
330
6131
100
AcDbEntity
  8
AM_5
100
AcDbTrace
 10
229.3867164629779
 20
204.760002197698
 30
0.0
 11
229.3867164629779
 21
203.760002197698
 31
0.0
 12
232.3867164629779
 22
204.260002197698
 32
0.0
 13
232.3867164629779
 23
204.260002197698
 33
0.0
  0
MTEXT
  5
6B42
330
6131
100
AcDbEntity
  8
AM_5
100
AcDbMText
 10
224.8867164629779
 20
206.5600021976981
 30
0.0
 40
3.0
 41
0.0
 71
     5
 72
     1
  1
15
 73
     1
 44
1.0
1001
ACAD
1000
MTEXTBEGIN
1070
    73
1070
     1
1070
    44
1040
1.0
1070
    74
1070
     0
1000
MTEXTEND
  0
POINT
  5
6B43
330
6131
100
AcDbEntity
  8
DEFPOINTS
 62
     0
100
AcDbPoint
 10
217.3867164629779
 20
216.260002197698
 30
0.0
  0
POINT
  5
6B44
330
6131
100
AcDbEntity
  8
DEFPOINTS
 62
     0
100
AcDbPoint
 10
232.3867164629779
 20
214.760002197698
 30
0.0
  0
POINT
  5
6B45
330
6131
100
AcDbEntity
  8
DEFPOINTS
 62
     0
100
AcDbPoint
 10
232.3867164629779
 20
204.260002197698
 30
0.0
  0
ENDBLK
  5
6229
330
6131
100
AcDbEntity
  8
0
100
AcDbBlockEnd
  0
BLOCK
  5
6145
330
613B
100
AcDbEntity
  8
0
100
AcDbBlockBegin
  2
*D23
 70
     1
 10
0.0
 20
0.0
 30
0.0
  3
*D23
  1

  0
LINE
  5
6B46
330
613B
100
AcDbEntity
  8
AM_5
100
AcDbLine
 10
217.3867164629779
 20
215.260002197698
 30
0.0
 11
217.3867164629779
 21
195.760002197698
 31
0.0
  0
LINE
  5
6B47
330
613B
100
AcDbEntity
  8
AM_5
100
AcDbLine
 10
254.8867164629779
 20
215.260002197698
 30
0.0
 11
254.8867164629779
 21
195.760002197698
 31
0.0
  0
LINE
  5
6B48
330
613B
100
AcDbEntity
  8
AM_5
100
AcDbLine
 10
220.3867164629779
 20
197.260002197698
 30
0.0
 11
251.8867164629779
 21
197.260002197698
 31
0.0
  0
SOLID
  5
6B49
330
613B
100
AcDbEntity
  8
AM_5
100
AcDbTrace
 10
220.3867164629779
 20
197.760002197698
 30
0.0
 11
220.3867164629779
 21
196.760002197698
 31
0.0
 12
217.3867164629779
 22
197.260002197698
 32
0.0
 13
217.3867164629779
 23
197.260002197698
 33
0.0
  0
SOLID
  5
6B4A
330
613B
100
AcDbEntity
  8
AM_5
100
AcDbTrace
 10
251.8867164629779
 20
197.760002197698
 30
0.0
 11
251.8867164629779
 21
196.760002197698
 31
0.0
 12
254.8867164629779
 22
197.260002197698
 32
0.0
 13
254.8867164629779
 23
197.260002197698
 33
0.0
  0
MTEXT
  5
6B4B
330
613B
100
AcDbEntity
  8
AM_5
100
AcDbMText
 10
236.1367164629779
 20
199.560002197698
 30
0.0
 40
3.0
 41
0.0
 71
     5
 72
     1
  1
37.5
 73
     1
 44
1.0
1001
ACAD
1000
MTEXTBEGIN
1070
    73
1070
     1
1070
    44
1040
1.0
1070
    74
1070
     0
1000
MTEXTEND
  0
POINT
  5
6B4C
330
613B
100
AcDbEntity
  8
DEFPOINTS
 62
     0
100
AcDbPoint
 10
217.3867164629779
 20
216.260002197698
 30
0.0
  0
POINT
  5
6B4D
330
613B
100
AcDbEntity
  8
DEFPOINTS
 62
     0
100
AcDbPoint
 10
254.8867164629779
 20
216.260002197698
 30
0.0
  0
POINT
  5
6B4E
330
613B
100
AcDbEntity
  8
DEFPOINTS
 62
     0
100
AcDbPoint
 10
254.8867164629779
 20
197.260002197698
 30
0.0
  0
ENDBLK
  5
6146
330
613B
100
AcDbEntity
  8
0
100
AcDbBlockEnd
  0
BLOCK
  5
6151
330
6147
100
AcDbEntity
  8
0
100
AcDbBlockBegin
  2
*D24
 70
     1
 10
0.0
 20
0.0
 30
0.0
  3
*D24
  1

  0
LINE
  5
6B4F
330
6147
100
AcDbEntity
  8
AM_5
100
AcDbLine
 10
321.3867164629779
 20
223.7600021976981
 30
0.0
 11
321.3867164629779
 21
210.760002197698
 31
0.0
  0
LINE
  5
6B50
330
6147
100
AcDbEntity
  8
AM_5
100
AcDbLine
 10
299.8867164629779
 20
223.260002197698
 30
0.0
 11
299.8867164629779
 21
210.760002197698
 31
0.0
  0
LINE
  5
6B51
330
6147
100
AcDbEntity
  8
AM_5
100
AcDbLine
 10
318.3867164629779
 20
212.260002197698
 30
0.0
 11
302.8867164629779
 21
212.260002197698
 31
0.0
  0
SOLID
  5
6B52
330
6147
100
AcDbEntity
  8
AM_5
100
AcDbTrace
 10
318.3867164629779
 20
212.760002197698
 30
0.0
 11
318.3867164629779
 21
211.7600021976981
 31
0.0
 12
321.3867164629779
 22
212.260002197698
 32
0.0
 13
321.3867164629779
 23
212.260002197698
 33
0.0
  0
SOLID
  5
6B53
330
6147
100
AcDbEntity
  8
AM_5
100
AcDbTrace
 10
302.8867164629779
 20
212.760002197698
 30
0.0
 11
302.8867164629779
 21
211.7600021976981
 31
0.0
 12
299.8867164629779
 22
212.260002197698
 32
0.0
 13
299.8867164629779
 23
212.260002197698
 33
0.0
  0
MTEXT
  5
6B54
330
6147
100
AcDbEntity
  8
AM_5
100
AcDbMText
 10
310.6367164629779
 20
214.5602974732886
 30
0.0
 40
3.0
 41
0.0
 71
     5
 72
     1
  1
21.5
 73
     1
 44
1.0
1001
ACAD
1000
MTEXTBEGIN
1070
    73
1070
     1
1070
    44
1040
1.0
1070
    74
1070
     0
1000
MTEXTEND
  0
POINT
  5
6B55
330
6147
100
AcDbEntity
  8
DEFPOINTS
 62
     0
100
AcDbPoint
 10
321.3867164629779
 20
224.7600021976981
 30
0.0
  0
POINT
  5
6B56
330
6147
100
AcDbEntity
  8
DEFPOINTS
 62
     0
100
AcDbPoint
 10
299.8867164629779
 20
224.2600021976981
 30
0.0
  0
POINT
  5
6B57
330
6147
100
AcDbEntity
  8
DEFPOINTS
 62
     0
100
AcDbPoint
 10
299.8867164629779
 20
212.260002197698
 30
0.0
  0
ENDBLK
  5
6152
330
6147
100
AcDbEntity
  8
0
100
AcDbBlockEnd
  0
BLOCK
  5
615D
330
6153
100
AcDbEntity
  8
0
100
AcDbBlockBegin
  2
*D25
 70
     1
 10
0.0
 20
0.0
 30
0.0
  3
*D25
  1

  0
LINE
  5
6B58
330
6153
100
AcDbEntity
  8
AM_5
100
AcDbLine
 10
321.3867164629779
 20
267.2600021976981
 30
0.0
 11
321.3867164629779
 21
280.260002197698
 31
0.0
  0
LINE
  5
6B59
330
6153
100
AcDbEntity
  8
AM_5
100
AcDbLine
 10
310.3867164629779
 20
254.8600021976979
 30
0.0
 11
310.3867164629779
 21
280.260002197698
 31
0.0
  0
LINE
  5
6B5A
330
6153
100
AcDbEntity
  8
AM_5
100
AcDbLine
 10
318.3867164629779
 20
278.760002197698
 30
0.0
 11
313.3867164629779
 21
278.760002197698
 31
0.0
  0
SOLID
  5
6B5B
330
6153
100
AcDbEntity
  8
AM_5
100
AcDbTrace
 10
318.3867164629779
 20
279.260002197698
 30
0.0
 11
318.3867164629779
 21
278.260002197698
 31
0.0
 12
321.3867164629779
 22
278.760002197698
 32
0.0
 13
321.3867164629779
 23
278.760002197698
 33
0.0
  0
SOLID
  5
6B5C
330
6153
100
AcDbEntity
  8
AM_5
100
AcDbTrace
 10
313.3867164629779
 20
279.260002197698
 30
0.0
 11
313.3867164629779
 21
278.260002197698
 31
0.0
 12
310.3867164629779
 22
278.760002197698
 32
0.0
 13
310.3867164629779
 23
278.760002197698
 33
0.0
  0
MTEXT
  5
6B5D
330
6153
100
AcDbEntity
  8
AM_5
100
AcDbMText
 10
315.8867164629779
 20
281.060002197698
 30
0.0
 40
3.0
 41
0.0
 71
     5
 72
     1
  1
11
 73
     1
 44
1.0
1001
ACAD
1000
MTEXTBEGIN
1070
    73
1070
     1
1070
    44
1040
1.0
1070
    74
1070
     0
1000
MTEXTEND
  0
POINT
  5
6B5E
330
6153
100
AcDbEntity
  8
DEFPOINTS
 62
     0
100
AcDbPoint
 10
321.3867164629779
 20
266.2600021976981
 30
0.0
  0
POINT
  5
6B5F
330
6153
100
AcDbEntity
  8
DEFPOINTS
 62
     0
100
AcDbPoint
 10
310.3867164629779
 20
253.8600021976979
 30
0.0
  0
POINT
  5
6B60
330
6153
100
AcDbEntity
  8
DEFPOINTS
 62
     0
100
AcDbPoint
 10
310.3867164629779
 20
278.760002197698
 30
0.0
  0
ENDBLK
  5
615E
330
6153
100
AcDbEntity
  8
0
100
AcDbBlockEnd
  0
BLOCK
  5
6169
330
615F
100
AcDbEntity
  8
0
100
AcDbBlockBegin
  2
*D26
 70
     1
 10
0.0
 20
0.0
 30
0.0
  3
*D26
  1

  0
LINE
  5
6B61
330
615F
100
AcDbEntity
  8
AM_5
100
AcDbLine
 10
217.3867164629779
 20
275.760002197698
 30
0.0
 11
217.3867164629779
 21
288.260002197698
 31
0.0
  0
LINE
  5
6B62
330
615F
100
AcDbEntity
  8
AM_5
100
AcDbLine
 10
244.3867164629779
 20
256.210002197698
 30
0.0
 11
244.3867164629779
 21
288.260002197698
 31
0.0
  0
LINE
  5
6B63
330
615F
100
AcDbEntity
  8
AM_5
100
AcDbLine
 10
220.3867164629779
 20
286.7600021976981
 30
0.0
 11
241.3867164629779
 21
286.7600021976981
 31
0.0
  0
SOLID
  5
6B64
330
615F
100
AcDbEntity
  8
AM_5
100
AcDbTrace
 10
220.3867164629779
 20
287.260002197698
 30
0.0
 11
220.3867164629779
 21
286.260002197698
 31
0.0
 12
217.3867164629779
 22
286.7600021976981
 32
0.0
 13
217.3867164629779
 23
286.7600021976981
 33
0.0
  0
SOLID
  5
6B65
330
615F
100
AcDbEntity
  8
AM_5
100
AcDbTrace
 10
241.3867164629779
 20
287.260002197698
 30
0.0
 11
241.3867164629779
 21
286.260002197698
 31
0.0
 12
244.3867164629779
 22
286.7600021976981
 32
0.0
 13
244.3867164629779
 23
286.7600021976981
 33
0.0
  0
MTEXT
  5
6B66
330
615F
100
AcDbEntity
  8
AM_5
100
AcDbMText
 10
230.8867164629779
 20
289.0602974732886
 30
0.0
 40
3.0
 41
0.0
 71
     5
 72
     1
  1
27
 73
     1
 44
1.0
1001
ACAD
1000
MTEXTBEGIN
1070
    73
1070
     1
1070
    44
1040
1.0
1070
    74
1070
     0
1000
MTEXTEND
  0
POINT
  5
6B67
330
615F
100
AcDbEntity
  8
DEFPOINTS
 62
     0
100
AcDbPoint
 10
217.3867164629779
 20
274.760002197698
 30
0.0
  0
POINT
  5
6B68
330
615F
100
AcDbEntity
  8
DEFPOINTS
 62
     0
100
AcDbPoint
 10
244.3867164629779
 20
255.210002197698
 30
0.0
  0
POINT
  5
6B69
330
615F
100
AcDbEntity
  8
DEFPOINTS
 62
     0
100
AcDbPoint
 10
244.3867164629779
 20
286.7600021976981
 30
0.0
  0
ENDBLK
  5
616A
330
615F
100
AcDbEntity
  8
0
100
AcDbBlockEnd
  0
BLOCK
  5
6176
330
616B
100
AcDbEntity
  8
0
100
AcDbBlockBegin
  2
*D27
 70
     1
 10
0.0
 20
0.0
 30
0.0
  3
*D27
  1

  0
LINE
  5
6B6A
330
616B
100
AcDbEntity
  8
AM_5
100
AcDbLine
 10
213.3867164629779
 20
162.6295747252478
 30
0.0
 11
209.4367164629779
 21
162.6295747252478
 31
0.0
  0
LINE
  5
6B6B
330
616B
100
AcDbEntity
  8
AM_5
100
AcDbLine
 10
213.3867164629779
 20
148.6295747252478
 30
0.0
 11
209.4367164629779
 21
148.6295747252478
 31
0.0
  0
LINE
  5
6B6C
330
616B
100
AcDbEntity
  8
AM_5
100
AcDbLine
 10
210.9367164629779
 20
151.6295747252478
 30
0.0
 11
210.9367164629779
 21
159.6295747252478
 31
0.0
  0
LINE
  5
6B6D
330
616B
100
AcDbEntity
  8
AM_5
100
AcDbLine
 10
210.9367164629779
 20
162.6295747252478
 30
0.0
 11
210.9367164629779
 21
182.2996254277734
 31
0.0
  0
SOLID
  5
6B6E
330
616B
100
AcDbEntity
  8
AM_5
100
AcDbTrace
 10
210.4367164629779
 20
151.6295747252478
 30
0.0
 11
211.4367164629779
 21
151.6295747252478
 31
0.0
 12
210.9367164629779
 22
148.6295747252478
 32
0.0
 13
210.9367164629779
 23
148.6295747252478
 33
0.0
  0
SOLID
  5
6B6F
330
616B
100
AcDbEntity
  8
AM_5
100
AcDbTrace
 10
210.4367164629779
 20
159.6295747252478
 30
0.0
 11
211.4367164629779
 21
159.6295747252478
 31
0.0
 12
210.9367164629779
 22
162.6295747252478
 32
0.0
 13
210.9367164629779
 23
162.6295747252478
 33
0.0
  0
MTEXT
  5
6B70
330
616B
100
AcDbEntity
  8
AM_5
100
AcDbMText
 10
208.6367164629779
 20
178.6496254277734
 30
0.0
 40
3.0
 41
0.0
 71
     5
 72
     1
  1
%%c14
 11
0.0000000000000001
 21
1.0
 31
0.0
 73
     1
 44
1.0
1001
ACAD
1000
MTEXTBEGIN
1070
    73
1070
     1
1070
    44
1040
1.0
1070
    74
1070
     0
1000
MTEXTEND
  0
POINT
  5
6B71
330
616B
100
AcDbEntity
  8
DEFPOINTS
 62
     0
100
AcDbPoint
 10
214.3867164629779
 20
162.6295747252478
 30
0.0
  0
POINT
  5
6B72
330
616B
100
AcDbEntity
  8
DEFPOINTS
 62
     0
100
AcDbPoint
 10
214.3867164629779
 20
148.6295747252478
 30
0.0
  0
POINT
  5
6B73
330
616B
100
AcDbEntity
  8
DEFPOINTS
 62
     0
100
AcDbPoint
 10
210.9367164629779
 20
148.6295747252478
 30
0.0
  0
ENDBLK
  5
6177
330
616B
100
AcDbEntity
  8
0
100
AcDbBlockEnd
  0
BLOCK
  5
62E1
330
62E0
100
AcDbEntity
  8
0
100
AcDbBlockBegin
  2
*S28
 70
     1
 10
0.0
 20
0.0
 30
0.0
  3
*S28
  1

  0
LINE
  5
62E2
330
62E0
100
AcDbEntity
  8
AM_5
100
AcDbLine
 10
410.0679864776532
 20
154.0428253833102
 30
0.0
 11
382.9004325680934
 21
154.0428253833102
 31
0.0
  0
LINE
  5
62E3
330
62E0
100
AcDbEntity
  8
AM_5
100
AcDbLine
 10
382.9004325680934
 20
154.0428253833102
 30
0.0
 11
377.2848777754853
 21
146.970059779094
 31
0.0
  0
TRACE
  5
62E4
330
62E0
100
AcDbEntity
  8
AM_5
100
AcDbTrace
 10
376.9240068624903
 20
147.2565800030604
 30
0.0
 11
377.6457486884802
 21
146.6835395551276
 31
0.0
 12
375.1085405962033
 22
144.2289730453194
 32
0.0
 13
375.1085405962033
 23
144.2289730453194
 33
0.0
  0
MTEXT
  5
62E5
330
62E0
100
AcDbEntity
  8
AM_5
 62
     2
100
AcDbMText
 10
410.0679864776532
 20
151.8387208698761
 30
0.0
 40
3.5
 41
0.0
 71
     9
 72
     5
  1

  7
ACISOTS
210
0.0
220
0.0
230
-1.0
 11
-1.0
 21
0.0
 31
0.0
 73
     1
 44
1.0
1001
ACAD
1000
MTEXTBEGIN
1070
    73
1070
     1
1070
    44
1040
1.0
1070
    74
1070
     0
1000
MTEXTEND
  0
ENDBLK
  5
62E6
330
62E0
100
AcDbEntity
  8
0
100
AcDbBlockEnd
  0
BLOCK
  5
62E8
330
62E7
100
AcDbEntity
  8
0
100
AcDbBlockBegin
  2
*S29
 70
     1
 10
0.0
 20
0.0
 30
0.0
  3
*S29
  1

  0
LINE
  5
62E9
330
62E7
100
AcDbEntity
  8
AM_5
100
AcDbLine
 10
571.3662335524483
 20
172.4192442403758
 30
0.0
 11
555.5005832164794
 21
172.4192442403758
 31
0.0
  0
LINE
  5
62EA
330
62E7
100
AcDbEntity
  8
AM_5
100
AcDbLine
 10
555.5005832164794
 20
172.4192442403758
 30
0.0
 11
540.3504861411387
 21
195.1298692472708
 31
0.0
  0
TRACE
  5
62EB
330
62E7
100
AcDbEntity
  8
AM_5
100
AcDbTrace
 10
540.7338059597249
 20
195.3855791830704
 30
0.0
 11
539.9671663225525
 21
194.8741593114711
 31
0.0
 12
538.4081763359579
 22
198.0414723487766
 32
0.0
 13
538.4081763359579
 23
198.0414723487766
 33
0.0
  0
MTEXT
  5
62EC
330
62E7
100
AcDbEntity
  8
AM_5
 62
     2
100
AcDbMText
 10
571.3662335524483
 20
170.9245700666866
 30
0.0
 40
3.5
 41
0.0
 71
     9
 72
     5
  1

  7
ACISOTS
210
0.0
220
0.0
230
-1.0
 11
-1.0
 21
0.0
 31
0.0
 73
     1
 44
1.0
1001
ACAD
1000
MTEXTBEGIN
1070
    73
1070
     1
1070
    44
1040
1.0
1070
    74
1070
     0
1000
MTEXTEND
  0
ENDBLK
  5
62ED
330
62E7
100
AcDbEntity
  8
0
100
AcDbBlockEnd
  0
BLOCK
  5
6651
330
6647
100
AcDbEntity
  8
0
100
AcDbBlockBegin
  2
*D30
 70
     1
 10
0.0
 20
0.0
 30
0.0
  3
*D30
  1

  0
LINE
  5
6C82
330
6647
100
AcDbEntity
  8
AM_5
100
AcDbLine
 10
82.66235019491501
 20
-148.0265235344502
 30
0.0
 11
82.66235019491501
 21
-163.4705235344501
 31
0.0
  0
LINE
  5
6C83
330
6647
100
AcDbEntity
  8
AM_5
100
AcDbLine
 10
118.662350194915
 20
-148.0265235344502
 30
0.0
 11
118.662350194915
 21
-163.4705235344501
 31
0.0
  0
LINE
  5
6C84
330
6647
100
AcDbEntity
  8
AM_5
100
AcDbLine
 10
85.662350194915
 20
-161.9705235344501
 30
0.0
 11
115.662350194915
 21
-161.9705235344501
 31
0.0
  0
SOLID
  5
6C85
330
6647
100
AcDbEntity
  8
AM_5
100
AcDbTrace
 10
85.662350194915
 20
-161.4705235344501
 30
0.0
 11
85.662350194915
 21
-162.4705235344501
 31
0.0
 12
82.66235019491501
 22
-161.9705235344501
 32
0.0
 13
82.66235019491501
 23
-161.9705235344501
 33
0.0
  0
SOLID
  5
6C86
330
6647
100
AcDbEntity
  8
AM_5
100
AcDbTrace
 10
115.662350194915
 20
-161.4705235344501
 30
0.0
 11
115.662350194915
 21
-162.4705235344501
 31
0.0
 12
118.662350194915
 22
-161.9705235344501
 32
0.0
 13
118.662350194915
 23
-161.9705235344501
 33
0.0
  0
MTEXT
  5
6C87
330
6647
100
AcDbEntity
  8
AM_5
100
AcDbMText
 10
100.662350194915
 20
-159.6705235344501
 30
0.0
 40
3.0
 41
0.0
 71
     5
 72
     1
  1
{\Famgdt|c136;o}36
 73
     1
 44
1.0
1001
ACAD
1000
MTEXTBEGIN
1070
    73
1070
     1
1070
    44
1040
1.0
1070
    74
1070
     0
1000
MTEXTEND
  0
POINT
  5
6C88
330
6647
100
AcDbEntity
  8
DEFPOINTS
 62
     0
100
AcDbPoint
 10
82.66235019491501
 20
-147.0265235344502
 30
0.0
  0
POINT
  5
6C89
330
6647
100
AcDbEntity
  8
DEFPOINTS
 62
     0
100
AcDbPoint
 10
118.662350194915
 20
-147.0265235344502
 30
0.0
  0
POINT
  5
6C8A
330
6647
100
AcDbEntity
  8
DEFPOINTS
 62
     0
100
AcDbPoint
 10
118.662350194915
 20
-161.9705235344501
 30
0.0
  0
ENDBLK
  5
6652
330
6647
100
AcDbEntity
  8
0
100
AcDbBlockEnd
  0
BLOCK
  5
665D
330
6653
100
AcDbEntity
  8
0
100
AcDbBlockBegin
  2
*D31
 70
     1
 10
0.0
 20
0.0
 30
0.0
  3
*D31
  1

  0
LINE
  5
6C8B
330
6653
100
AcDbEntity
  8
AM_5
100
AcDbLine
 10
74.66235019491501
 20
-149.4705235344502
 30
0.0
 11
74.66235019491501
 21
-170.4705235344501
 31
0.0
  0
LINE
  5
6C8C
330
6653
100
AcDbEntity
  8
AM_5
100
AcDbLine
 10
126.662350194915
 20
-149.4705235344502
 30
0.0
 11
126.662350194915
 21
-170.4705235344501
 31
0.0
  0
LINE
  5
6C8D
330
6653
100
AcDbEntity
  8
AM_5
100
AcDbLine
 10
77.662350194915
 20
-168.9705235344501
 30
0.0
 11
123.662350194915
 21
-168.9705235344501
 31
0.0
  0
SOLID
  5
6C8E
330
6653
100
AcDbEntity
  8
AM_5
100
AcDbTrace
 10
77.662350194915
 20
-168.4705235344501
 30
0.0
 11
77.662350194915
 21
-169.4705235344501
 31
0.0
 12
74.66235019491501
 22
-168.9705235344501
 32
0.0
 13
74.66235019491501
 23
-168.9705235344501
 33
0.0
  0
SOLID
  5
6C8F
330
6653
100
AcDbEntity
  8
AM_5
100
AcDbTrace
 10
123.662350194915
 20
-168.4705235344501
 30
0.0
 11
123.662350194915
 21
-169.4705235344501
 31
0.0
 12
126.662350194915
 22
-168.9705235344501
 32
0.0
 13
126.662350194915
 23
-168.9705235344501
 33
0.0
  0
MTEXT
  5
6C90
330
6653
100
AcDbEntity
  8
AM_5
100
AcDbMText
 10
100.662350194915
 20
-166.6702282588596
 30
0.0
 40
3.0
 41
0.0
 71
     5
 72
     1
  1
{\Famgdt|c136;o}52
 73
     1
 44
1.0
1001
ACAD
1000
MTEXTBEGIN
1070
    73
1070
     1
1070
    44
1040
1.0
1070
    74
1070
     0
1000
MTEXTEND
  0
POINT
  5
6C91
330
6653
100
AcDbEntity
  8
DEFPOINTS
 62
     0
100
AcDbPoint
 10
74.66235019491501
 20
-148.4705235344502
 30
0.0
  0
POINT
  5
6C92
330
6653
100
AcDbEntity
  8
DEFPOINTS
 62
     0
100
AcDbPoint
 10
126.662350194915
 20
-148.4705235344502
 30
0.0
  0
POINT
  5
6C93
330
6653
100
AcDbEntity
  8
DEFPOINTS
 62
     0
100
AcDbPoint
 10
126.662350194915
 20
-168.9705235344501
 30
0.0
  0
ENDBLK
  5
665E
330
6653
100
AcDbEntity
  8
0
100
AcDbBlockEnd
  0
BLOCK
  5
6669
330
665F
100
AcDbEntity
  8
0
100
AcDbBlockBegin
  2
*D32
 70
     1
 10
0.0
 20
0.0
 30
0.0
  3
*D32
  1

  0
LINE
  5
6C94
330
665F
100
AcDbEntity
  8
AM_5
100
AcDbLine
 10
126.162350194915
 20
-149.9705235344502
 30
0.0
 11
140.162350194915
 21
-149.9705235344502
 31
0.0
  0
LINE
  5
6C95
330
665F
100
AcDbEntity
  8
AM_5
100
AcDbLine
 10
119.2623501949149
 20
-123.9705235344502
 30
0.0
 11
140.162350194915
 21
-123.9705235344502
 31
0.0
  0
LINE
  5
6C96
330
665F
100
AcDbEntity
  8
AM_5
100
AcDbLine
 10
138.662350194915
 20
-146.9705235344502
 30
0.0
 11
138.662350194915
 21
-126.9705235344502
 31
0.0
  0
SOLID
  5
6C97
330
665F
100
AcDbEntity
  8
AM_5
100
AcDbTrace
 10
138.162350194915
 20
-146.9705235344502
 30
0.0
 11
139.162350194915
 21
-146.9705235344502
 31
0.0
 12
138.662350194915
 22
-149.9705235344502
 32
0.0
 13
138.662350194915
 23
-149.9705235344502
 33
0.0
  0
SOLID
  5
6C98
330
665F
100
AcDbEntity
  8
AM_5
100
AcDbTrace
 10
138.162350194915
 20
-126.9705235344502
 30
0.0
 11
139.162350194915
 21
-126.9705235344502
 31
0.0
 12
138.662350194915
 22
-123.9705235344502
 32
0.0
 13
138.662350194915
 23
-123.9705235344502
 33
0.0
  0
MTEXT
  5
6C99
330
665F
100
AcDbEntity
  8
AM_5
100
AcDbMText
 10
136.3620549193245
 20
-136.9705235344501
 30
0.0
 40
3.0
 41
0.0
 71
     5
 72
     1
  1
26
 11
0.0000000000000001
 21
1.0
 31
0.0
 73
     1
 44
1.0
1001
ACAD
1000
MTEXTBEGIN
1070
    73
1070
     1
1070
    44
1040
1.0
1070
    74
1070
     0
1000
MTEXTEND
  0
POINT
  5
6C9A
330
665F
100
AcDbEntity
  8
DEFPOINTS
 62
     0
100
AcDbPoint
 10
125.162350194915
 20
-149.9705235344502
 30
0.0
  0
POINT
  5
6C9B
330
665F
100
AcDbEntity
  8
DEFPOINTS
 62
     0
100
AcDbPoint
 10
118.2623501949149
 20
-123.9705235344502
 30
0.0
  0
POINT
  5
6C9C
330
665F
100
AcDbEntity
  8
DEFPOINTS
 62
     0
100
AcDbPoint
 10
138.662350194915
 20
-123.9705235344502
 30
0.0
  0
ENDBLK
  5
666A
330
665F
100
AcDbEntity
  8
0
100
AcDbBlockEnd
  0
BLOCK
  5
6675
330
666B
100
AcDbEntity
  8
0
100
AcDbBlockBegin
  2
*D33
 70
     1
 10
0.0
 20
0.0
 30
0.0
  3
*D33
  1

  0
LINE
  5
6C9D
330
666B
100
AcDbEntity
  8
AM_5
100
AcDbLine
 10
183.386716462978
 20
-130.3705235344502
 30
0.0
 11
183.386716462978
 21
-162.1026903116972
 31
0.0
  0
LINE
  5
6C9E
330
666B
100
AcDbEntity
  8
AM_5
100
AcDbLine
 10
204.386716462978
 20
-131.8705235344501
 30
0.0
 11
204.386716462978
 21
-162.1026903116972
 31
0.0
  0
LINE
  5
6C9F
330
666B
100
AcDbEntity
  8
AM_5
100
AcDbLine
 10
186.386716462978
 20
-160.6026903116972
 30
0.0
 11
201.386716462978
 21
-160.6026903116972
 31
0.0
  0
SOLID
  5
6CA0
330
666B
100
AcDbEntity
  8
AM_5
100
AcDbTrace
 10
186.386716462978
 20
-160.1026903116972
 30
0.0
 11
186.386716462978
 21
-161.1026903116972
 31
0.0
 12
183.386716462978
 22
-160.6026903116972
 32
0.0
 13
183.386716462978
 23
-160.6026903116972
 33
0.0
  0
SOLID
  5
6CA1
330
666B
100
AcDbEntity
  8
AM_5
100
AcDbTrace
 10
201.386716462978
 20
-160.1026903116972
 30
0.0
 11
201.386716462978
 21
-161.1026903116972
 31
0.0
 12
204.386716462978
 22
-160.6026903116972
 32
0.0
 13
204.386716462978
 23
-160.6026903116972
 33
0.0
  0
MTEXT
  5
6CA2
330
666B
100
AcDbEntity
  8
AM_5
100
AcDbMText
 10
193.886716462978
 20
-158.3023950361066
 30
0.0
 40
3.0
 41
0.0
 71
     5
 72
     1
  1
21
 73
     1
 44
1.0
1001
ACAD
1000
MTEXTBEGIN
1070
    73
1070
     1
1070
    44
1040
1.0
1070
    74
1070
     0
1000
MTEXTEND
  0
POINT
  5
6CA3
330
666B
100
AcDbEntity
  8
DEFPOINTS
 62
     0
100
AcDbPoint
 10
183.386716462978
 20
-129.3705235344502
 30
0.0
  0
POINT
  5
6CA4
330
666B
100
AcDbEntity
  8
DEFPOINTS
 62
     0
100
AcDbPoint
 10
204.386716462978
 20
-130.8705235344501
 30
0.0
  0
POINT
  5
6CA5
330
666B
100
AcDbEntity
  8
DEFPOINTS
 62
     0
100
AcDbPoint
 10
204.386716462978
 20
-160.6026903116972
 30
0.0
  0
ENDBLK
  5
6676
330
666B
100
AcDbEntity
  8
0
100
AcDbBlockEnd
  0
BLOCK
  5
6681
330
6677
100
AcDbEntity
  8
0
100
AcDbBlockBegin
  2
*D34
 70
     1
 10
0.0
 20
0.0
 30
0.0
  3
*D34
  1

  0
LINE
  5
6CA6
330
6677
100
AcDbEntity
  8
AM_5
100
AcDbLine
 10
183.386716462978
 20
-130.3705235344502
 30
0.0
 11
183.386716462978
 21
-169.1026903116972
 31
0.0
  0
LINE
  5
6CA7
330
6677
100
AcDbEntity
  8
AM_5
100
AcDbLine
 10
207.386716462978
 20
-131.8705235344501
 30
0.0
 11
207.386716462978
 21
-169.1026903116972
 31
0.0
  0
LINE
  5
6CA8
330
6677
100
AcDbEntity
  8
AM_5
100
AcDbLine
 10
186.386716462978
 20
-167.6026903116972
 30
0.0
 11
204.386716462978
 21
-167.6026903116972
 31
0.0
  0
SOLID
  5
6CA9
330
6677
100
AcDbEntity
  8
AM_5
100
AcDbTrace
 10
186.386716462978
 20
-167.1026903116972
 30
0.0
 11
186.386716462978
 21
-168.1026903116972
 31
0.0
 12
183.386716462978
 22
-167.6026903116972
 32
0.0
 13
183.386716462978
 23
-167.6026903116972
 33
0.0
  0
SOLID
  5
6CAA
330
6677
100
AcDbEntity
  8
AM_5
100
AcDbTrace
 10
204.386716462978
 20
-167.1026903116972
 30
0.0
 11
204.386716462978
 21
-168.1026903116972
 31
0.0
 12
207.386716462978
 22
-167.6026903116972
 32
0.0
 13
207.386716462978
 23
-167.6026903116972
 33
0.0
  0
MTEXT
  5
6CAB
330
6677
100
AcDbEntity
  8
AM_5
100
AcDbMText
 10
195.386716462978
 20
-165.3023950361066
 30
0.0
 40
3.0
 41
0.0
 71
     5
 72
     1
  1
24
 73
     1
 44
1.0
1001
ACAD
1000
MTEXTBEGIN
1070
    73
1070
     1
1070
    44
1040
1.0
1070
    74
1070
     0
1000
MTEXTEND
  0
POINT
  5
6CAC
330
6677
100
AcDbEntity
  8
DEFPOINTS
 62
     0
100
AcDbPoint
 10
183.386716462978
 20
-129.3705235344502
 30
0.0
  0
POINT
  5
6CAD
330
6677
100
AcDbEntity
  8
DEFPOINTS
 62
     0
100
AcDbPoint
 10
207.386716462978
 20
-130.8705235344501
 30
0.0
  0
POINT
  5
6CAE
330
6677
100
AcDbEntity
  8
DEFPOINTS
 62
     0
100
AcDbPoint
 10
207.386716462978
 20
-167.6026903116972
 30
0.0
  0
ENDBLK
  5
6682
330
6677
100
AcDbEntity
  8
0
100
AcDbBlockEnd
  0
BLOCK
  5
668D
330
6683
100
AcDbEntity
  8
0
100
AcDbBlockBegin
  2
*D35
 70
     1
 10
0.0
 20
0.0
 30
0.0
  3
*D35
  1

  0
LINE
  5
6CAF
330
6683
100
AcDbEntity
  8
AM_5
100
AcDbLine
 10
183.386716462978
 20
-130.3705235344502
 30
0.0
 11
183.386716462978
 21
-176.1026903116972
 31
0.0
  0
LINE
  5
6CB0
330
6683
100
AcDbEntity
  8
AM_5
100
AcDbLine
 10
217.3867164629778
 20
-150.9705235344502
 30
0.0
 11
217.3867164629778
 21
-176.1026903116972
 31
0.0
  0
LINE
  5
6CB1
330
6683
100
AcDbEntity
  8
AM_5
100
AcDbLine
 10
186.386716462978
 20
-174.6026903116972
 30
0.0
 11
214.3867164629778
 21
-174.6026903116972
 31
0.0
  0
SOLID
  5
6CB2
330
6683
100
AcDbEntity
  8
AM_5
100
AcDbTrace
 10
186.386716462978
 20
-174.1026903116972
 30
0.0
 11
186.386716462978
 21
-175.1026903116972
 31
0.0
 12
183.386716462978
 22
-174.6026903116972
 32
0.0
 13
183.386716462978
 23
-174.6026903116972
 33
0.0
  0
SOLID
  5
6CB3
330
6683
100
AcDbEntity
  8
AM_5
100
AcDbTrace
 10
214.3867164629778
 20
-174.1026903116972
 30
0.0
 11
214.3867164629778
 21
-175.1026903116972
 31
0.0
 12
217.3867164629778
 22
-174.6026903116972
 32
0.0
 13
217.3867164629778
 23
-174.6026903116972
 33
0.0
  0
MTEXT
  5
6CB4
330
6683
100
AcDbEntity
  8
AM_5
100
AcDbMText
 10
200.3867164629779
 20
-172.3026903116972
 30
0.0
 40
3.0
 41
0.0
 71
     5
 72
     1
  1
34
 73
     1
 44
1.0
1001
ACAD
1000
MTEXTBEGIN
1070
    73
1070
     1
1070
    44
1040
1.0
1070
    74
1070
     0
1000
MTEXTEND
  0
POINT
  5
6CB5
330
6683
100
AcDbEntity
  8
DEFPOINTS
 62
     0
100
AcDbPoint
 10
183.386716462978
 20
-129.3705235344502
 30
0.0
  0
POINT
  5
6CB6
330
6683
100
AcDbEntity
  8
DEFPOINTS
 62
     0
100
AcDbPoint
 10
217.3867164629778
 20
-149.9705235344502
 30
0.0
  0
POINT
  5
6CB7
330
6683
100
AcDbEntity
  8
DEFPOINTS
 62
     0
100
AcDbPoint
 10
217.3867164629778
 20
-174.6026903116972
 30
0.0
  0
ENDBLK
  5
668E
330
6683
100
AcDbEntity
  8
0
100
AcDbBlockEnd
  0
BLOCK
  5
6699
330
668F
100
AcDbEntity
  8
0
100
AcDbBlockBegin
  2
*D36
 70
     1
 10
0.0
 20
0.0
 30
0.0
  3
*D36
  1

  0
LINE
  5
6CB8
330
668F
100
AcDbEntity
  8
AM_5
100
AcDbLine
 10
217.3867164629778
 20
-151.9705235344502
 30
0.0
 11
217.3867164629778
 21
-176.1026903116972
 31
0.0
  0
LINE
  5
6CB9
330
668F
100
AcDbEntity
  8
AM_5
100
AcDbLine
 10
321.3867164629778
 20
-145.7205235344502
 30
0.0
 11
321.3867164629778
 21
-176.1026903116972
 31
0.0
  0
LINE
  5
6CBA
330
668F
100
AcDbEntity
  8
AM_5
100
AcDbLine
 10
220.3867164629778
 20
-174.6026903116972
 30
0.0
 11
318.3867164629778
 21
-174.6026903116972
 31
0.0
  0
SOLID
  5
6CBB
330
668F
100
AcDbEntity
  8
AM_5
100
AcDbTrace
 10
220.3867164629778
 20
-174.1026903116972
 30
0.0
 11
220.3867164629778
 21
-175.1026903116972
 31
0.0
 12
217.3867164629778
 22
-174.6026903116972
 32
0.0
 13
217.3867164629778
 23
-174.6026903116972
 33
0.0
  0
SOLID
  5
6CBC
330
668F
100
AcDbEntity
  8
AM_5
100
AcDbTrace
 10
318.3867164629778
 20
-174.1026903116972
 30
0.0
 11
318.3867164629778
 21
-175.1026903116972
 31
0.0
 12
321.3867164629778
 22
-174.6026903116972
 32
0.0
 13
321.3867164629778
 23
-174.6026903116972
 33
0.0
  0
MTEXT
  5
6CBD
330
668F
100
AcDbEntity
  8
AM_5
100
AcDbMText
 10
269.3867164629778
 20
-172.3026903116972
 30
0.0
 40
3.0
 41
0.0
 71
     5
 72
     1
  1
104+stroke
 73
     1
 44
1.0
1001
ACAD
1000
MTEXTBEGIN
1070
    73
1070
     1
1070
    44
1040
1.0
1070
    74
1070
     0
1000
MTEXTEND
  0
POINT
  5
6CBE
330
668F
100
AcDbEntity
  8
DEFPOINTS
 62
     0
100
AcDbPoint
 10
217.3867164629778
 20
-150.9705235344502
 30
0.0
  0
POINT
  5
6CBF
330
668F
100
AcDbEntity
  8
DEFPOINTS
 62
     0
100
AcDbPoint
 10
321.3867164629778
 20
-144.7205235344502
 30
0.0
  0
POINT
  5
6CC0
330
668F
100
AcDbEntity
  8
DEFPOINTS
 62
     0
100
AcDbPoint
 10
321.3867164629778
 20
-174.6026903116972
 30
0.0
  0
ENDBLK
  5
669A
330
668F
100
AcDbEntity
  8
0
100
AcDbBlockEnd
  0
BLOCK
  5
66A5
330
669B
100
AcDbEntity
  8
0
100
AcDbBlockBegin
  2
*D37
 70
     1
 10
0.0
 20
0.0
 30
0.0
  3
*D37
  1

  0
LINE
  5
6CC1
330
669B
100
AcDbEntity
  8
AM_5
100
AcDbLine
 10
183.386716462978
 20
-130.3705235344502
 30
0.0
 11
183.386716462978
 21
-183.1026903116972
 31
0.0
  0
LINE
  5
6CC2
330
669B
100
AcDbEntity
  8
AM_5
100
AcDbLine
 10
321.3867164629778
 20
-145.7205235344502
 30
0.0
 11
321.3867164629778
 21
-183.1026903116972
 31
0.0
  0
LINE
  5
6CC3
330
669B
100
AcDbEntity
  8
AM_5
100
AcDbLine
 10
186.386716462978
 20
-181.6026903116972
 30
0.0
 11
318.3867164629778
 21
-181.6026903116972
 31
0.0
  0
SOLID
  5
6CC4
330
669B
100
AcDbEntity
  8
AM_5
100
AcDbTrace
 10
186.386716462978
 20
-181.1026903116972
 30
0.0
 11
186.386716462978
 21
-182.1026903116972
 31
0.0
 12
183.386716462978
 22
-181.6026903116972
 32
0.0
 13
183.386716462978
 23
-181.6026903116972
 33
0.0
  0
SOLID
  5
6CC5
330
669B
100
AcDbEntity
  8
AM_5
100
AcDbTrace
 10
318.3867164629778
 20
-181.1026903116972
 30
0.0
 11
318.3867164629778
 21
-182.1026903116972
 31
0.0
 12
321.3867164629778
 22
-181.6026903116972
 32
0.0
 13
321.3867164629778
 23
-181.6026903116972
 33
0.0
  0
MTEXT
  5
6CC6
330
669B
100
AcDbEntity
  8
AM_5
100
AcDbMText
 10
252.3867164629779
 20
-179.3026903116972
 30
0.0
 40
3.0
 41
0.0
 71
     5
 72
     1
  1
138+stroke
 73
     1
 44
1.0
1001
ACAD
1000
MTEXTBEGIN
1070
    73
1070
     1
1070
    44
1040
1.0
1070
    74
1070
     0
1000
MTEXTEND
  0
POINT
  5
6CC7
330
669B
100
AcDbEntity
  8
DEFPOINTS
 62
     0
100
AcDbPoint
 10
183.386716462978
 20
-129.3705235344502
 30
0.0
  0
POINT
  5
6CC8
330
669B
100
AcDbEntity
  8
DEFPOINTS
 62
     0
100
AcDbPoint
 10
321.3867164629778
 20
-144.7205235344502
 30
0.0
  0
POINT
  5
6CC9
330
669B
100
AcDbEntity
  8
DEFPOINTS
 62
     0
100
AcDbPoint
 10
321.3867164629778
 20
-181.6026903116972
 30
0.0
  0
ENDBLK
  5
66A6
330
669B
100
AcDbEntity
  8
0
100
AcDbBlockEnd
  0
BLOCK
  5
66B1
330
66A7
100
AcDbEntity
  8
0
100
AcDbBlockBegin
  2
*D38
 70
     1
 10
0.0
 20
0.0
 30
0.0
  3
*D38
  1

  0
LINE
  5
6CCA
330
66A7
100
AcDbEntity
  8
AM_5
100
AcDbLine
 10
217.3867164629778
 20
-61.09009606200001
 30
0.0
 11
217.3867164629778
 21
-72.84009606199998
 31
0.0
  0
LINE
  5
6CCB
330
66A7
100
AcDbEntity
  8
AM_5
100
AcDbLine
 10
254.8867164629778
 20
-61.09009606200001
 30
0.0
 11
254.8867164629778
 21
-72.84009606199998
 31
0.0
  0
LINE
  5
6CCC
330
66A7
100
AcDbEntity
  8
AM_5
100
AcDbLine
 10
220.3867164629778
 20
-71.34009606199999
 30
0.0
 11
251.8867164629778
 21
-71.34009606199999
 31
0.0
  0
SOLID
  5
6CCD
330
66A7
100
AcDbEntity
  8
AM_5
100
AcDbTrace
 10
220.3867164629778
 20
-70.84009606199998
 30
0.0
 11
220.3867164629778
 21
-71.84009606199999
 31
0.0
 12
217.3867164629778
 22
-71.34009606199999
 32
0.0
 13
217.3867164629778
 23
-71.34009606199999
 33
0.0
  0
SOLID
  5
6CCE
330
66A7
100
AcDbEntity
  8
AM_5
100
AcDbTrace
 10
251.8867164629778
 20
-70.84009606199998
 30
0.0
 11
251.8867164629778
 21
-71.84009606199999
 31
0.0
 12
254.8867164629778
 22
-71.34009606199999
 32
0.0
 13
254.8867164629778
 23
-71.34009606199999
 33
0.0
  0
MTEXT
  5
6CCF
330
66A7
100
AcDbEntity
  8
AM_5
100
AcDbMText
 10
236.1367164629778
 20
-69.04009606199998
 30
0.0
 40
3.0
 41
0.0
 71
     5
 72
     1
  1
37.5
 73
     1
 44
1.0
1001
ACAD
1000
MTEXTBEGIN
1070
    73
1070
     1
1070
    44
1040
1.0
1070
    74
1070
     0
1000
MTEXTEND
  0
POINT
  5
6CD0
330
66A7
100
AcDbEntity
  8
DEFPOINTS
 62
     0
100
AcDbPoint
 10
217.3867164629778
 20
-60.09009606200002
 30
0.0
  0
POINT
  5
6CD1
330
66A7
100
AcDbEntity
  8
DEFPOINTS
 62
     0
100
AcDbPoint
 10
254.8867164629778
 20
-60.09009606200002
 30
0.0
  0
POINT
  5
6CD2
330
66A7
100
AcDbEntity
  8
DEFPOINTS
 62
     0
100
AcDbPoint
 10
254.8867164629778
 20
-71.34009606199999
 30
0.0
  0
ENDBLK
  5
66B2
330
66A7
100
AcDbEntity
  8
0
100
AcDbBlockEnd
  0
BLOCK
  5
66BD
330
66B3
100
AcDbEntity
  8
0
100
AcDbBlockBegin
  2
*D39
 70
     1
 10
0.0
 20
0.0
 30
0.0
  3
*D39
  1

  0
LINE
  5
6CD3
330
66B3
100
AcDbEntity
  8
AM_5
100
AcDbLine
 10
321.3867164629778
 20
-55.84009606199998
 30
0.0
 11
321.3867164629778
 21
-68.84009606200002
 31
0.0
  0
LINE
  5
6CD4
330
66B3
100
AcDbEntity
  8
AM_5
100
AcDbLine
 10
299.8867164629778
 20
-56.34009606199999
 30
0.0
 11
299.8867164629778
 21
-68.84009606200002
 31
0.0
  0
LINE
  5
6CD5
330
66B3
100
AcDbEntity
  8
AM_5
100
AcDbLine
 10
318.3867164629778
 20
-67.34009606200001
 30
0.0
 11
302.8867164629778
 21
-67.34009606200001
 31
0.0
  0
SOLID
  5
6CD6
330
66B3
100
AcDbEntity
  8
AM_5
100
AcDbTrace
 10
318.3867164629778
 20
-66.84009606200001
 30
0.0
 11
318.3867164629778
 21
-67.84009606200001
 31
0.0
 12
321.3867164629778
 22
-67.34009606200001
 32
0.0
 13
321.3867164629778
 23
-67.34009606200001
 33
0.0
  0
SOLID
  5
6CD7
330
66B3
100
AcDbEntity
  8
AM_5
100
AcDbTrace
 10
302.8867164629778
 20
-66.84009606200001
 30
0.0
 11
302.8867164629778
 21
-67.84009606200001
 31
0.0
 12
299.8867164629778
 22
-67.34009606200001
 32
0.0
 13
299.8867164629778
 23
-67.34009606200001
 33
0.0
  0
MTEXT
  5
6CD8
330
66B3
100
AcDbEntity
  8
AM_5
100
AcDbMText
 10
310.6367164629778
 20
-65.03980078640946
 30
0.0
 40
3.0
 41
0.0
 71
     5
 72
     1
  1
21.5
 73
     1
 44
1.0
1001
ACAD
1000
MTEXTBEGIN
1070
    73
1070
     1
1070
    44
1040
1.0
1070
    74
1070
     0
1000
MTEXTEND
  0
POINT
  5
6CD9
330
66B3
100
AcDbEntity
  8
DEFPOINTS
 62
     0
100
AcDbPoint
 10
321.3867164629778
 20
-54.84009606199998
 30
0.0
  0
POINT
  5
6CDA
330
66B3
100
AcDbEntity
  8
DEFPOINTS
 62
     0
100
AcDbPoint
 10
299.8867164629778
 20
-55.34009606199998
 30
0.0
  0
POINT
  5
6CDB
330
66B3
100
AcDbEntity
  8
DEFPOINTS
 62
     0
100
AcDbPoint
 10
299.8867164629778
 20
-67.34009606200001
 30
0.0
  0
ENDBLK
  5
66BE
330
66B3
100
AcDbEntity
  8
0
100
AcDbBlockEnd
  0
BLOCK
  5
66C9
330
66BF
100
AcDbEntity
  8
0
100
AcDbBlockBegin
  2
*D40
 70
     1
 10
0.0
 20
0.0
 30
0.0
  3
*D40
  1

  0
LINE
  5
6CDC
330
66BF
100
AcDbEntity
  8
AM_5
100
AcDbLine
 10
217.3867164629778
 20
-7.090096062000014
 30
0.0
 11
217.3867164629778
 21
5.409904937999982
 31
0.0
  0
LINE
  5
6CDD
330
66BF
100
AcDbEntity
  8
AM_5
100
AcDbLine
 10
244.3867164629778
 20
-24.79009606199998
 30
0.0
 11
244.3867164629778
 21
5.409904937999982
 31
0.0
  0
LINE
  5
6CDE
330
66BF
100
AcDbEntity
  8
AM_5
100
AcDbLine
 10
220.3867164629778
 20
3.909904937999982
 30
0.0
 11
241.3867164629778
 21
3.909904937999982
 31
0.0
  0
SOLID
  5
6CDF
330
66BF
100
AcDbEntity
  8
AM_5
100
AcDbTrace
 10
220.3867164629778
 20
4.409904937999982
 30
0.0
 11
220.3867164629778
 21
3.409904937999982
 31
0.0
 12
217.3867164629778
 22
3.909904937999982
 32
0.0
 13
217.3867164629778
 23
3.909904937999982
 33
0.0
  0
SOLID
  5
6CE0
330
66BF
100
AcDbEntity
  8
AM_5
100
AcDbTrace
 10
241.3867164629778
 20
4.409904937999982
 30
0.0
 11
241.3867164629778
 21
3.409904937999982
 31
0.0
 12
244.3867164629778
 22
3.909904937999982
 32
0.0
 13
244.3867164629778
 23
3.909904937999982
 33
0.0
  0
MTEXT
  5
6CE1
330
66BF
100
AcDbEntity
  8
AM_5
100
AcDbMText
 10
230.8867164629778
 20
6.210200213590534
 30
0.0
 40
3.0
 41
0.0
 71
     5
 72
     1
  1
27
 73
     1
 44
1.0
1001
ACAD
1000
MTEXTBEGIN
1070
    73
1070
     1
1070
    44
1040
1.0
1070
    74
1070
     0
1000
MTEXTEND
  0
POINT
  5
6CE2
330
66BF
100
AcDbEntity
  8
DEFPOINTS
 62
     0
100
AcDbPoint
 10
217.3867164629778
 20
-8.090096062000014
 30
0.0
  0
POINT
  5
6CE3
330
66BF
100
AcDbEntity
  8
DEFPOINTS
 62
     0
100
AcDbPoint
 10
244.3867164629778
 20
-25.79009606199998
 30
0.0
  0
POINT
  5
6CE4
330
66BF
100
AcDbEntity
  8
DEFPOINTS
 62
     0
100
AcDbPoint
 10
244.3867164629778
 20
3.909904937999982
 30
0.0
  0
ENDBLK
  5
66CA
330
66BF
100
AcDbEntity
  8
0
100
AcDbBlockEnd
  0
BLOCK
  5
66D5
330
66CB
100
AcDbEntity
  8
0
100
AcDbBlockBegin
  2
*D41
 70
     1
 10
0.0
 20
0.0
 30
0.0
  3
*D41
  1

  0
LINE
  5
6CE5
330
66CB
100
AcDbEntity
  8
AM_5
100
AcDbLine
 10
321.3867164629778
 20
-12.34009606199998
 30
0.0
 11
321.3867164629778
 21
0.6599039379999568
 31
0.0
  0
LINE
  5
6CE6
330
66CB
100
AcDbEntity
  8
AM_5
100
AcDbLine
 10
310.3867164629778
 20
-26.14009606200014
 30
0.0
 11
310.3867164629778
 21
0.6599039379999568
 31
0.0
  0
LINE
  5
6CE7
330
66CB
100
AcDbEntity
  8
AM_5
100
AcDbLine
 10
318.3867164629778
 20
-0.8400960620000432
 30
0.0
 11
313.3867164629778
 21
-0.8400960620000432
 31
0.0
  0
SOLID
  5
6CE8
330
66CB
100
AcDbEntity
  8
AM_5
100
AcDbTrace
 10
318.3867164629778
 20
-0.3400960620000433
 30
0.0
 11
318.3867164629778
 21
-1.340096062000043
 31
0.0
 12
321.3867164629778
 22
-0.8400960620000432
 32
0.0
 13
321.3867164629778
 23
-0.8400960620000432
 33
0.0
  0
SOLID
  5
6CE9
330
66CB
100
AcDbEntity
  8
AM_5
100
AcDbTrace
 10
313.3867164629778
 20
-0.3400960620000433
 30
0.0
 11
313.3867164629778
 21
-1.340096062000043
 31
0.0
 12
310.3867164629778
 22
-0.8400960620000432
 32
0.0
 13
310.3867164629778
 23
-0.8400960620000432
 33
0.0
  0
MTEXT
  5
6CEA
330
66CB
100
AcDbEntity
  8
AM_5
100
AcDbMText
 10
315.8867164629778
 20
1.459903937999956
 30
0.0
 40
3.0
 41
0.0
 71
     5
 72
     1
  1
11
 73
     1
 44
1.0
1001
ACAD
1000
MTEXTBEGIN
1070
    73
1070
     1
1070
    44
1040
1.0
1070
    74
1070
     0
1000
MTEXTEND
  0
POINT
  5
6CEB
330
66CB
100
AcDbEntity
  8
DEFPOINTS
 62
     0
100
AcDbPoint
 10
321.3867164629778
 20
-13.34009606199998
 30
0.0
  0
POINT
  5
6CEC
330
66CB
100
AcDbEntity
  8
DEFPOINTS
 62
     0
100
AcDbPoint
 10
310.3867164629778
 20
-27.14009606200014
 30
0.0
  0
POINT
  5
6CED
330
66CB
100
AcDbEntity
  8
DEFPOINTS
 62
     0
100
AcDbPoint
 10
310.3867164629778
 20
-0.8400960620000432
 30
0.0
  0
ENDBLK
  5
66D6
330
66CB
100
AcDbEntity
  8
0
100
AcDbBlockEnd
  0
BLOCK
  5
66E1
330
66D7
100
AcDbEntity
  8
0
100
AcDbBlockBegin
  2
*D42
 70
     1
 10
0.0
 20
0.0
 30
0.0
  3
*D42
  1

  0
LINE
  5
6CEE
330
66D7
100
AcDbEntity
  8
AM_5
100
AcDbLine
 10
363.4890426899358
 20
-134.4045046665068
 30
0.0
 11
363.4890426899358
 21
-163.4705235344501
 31
0.0
  0
LINE
  5
6CEF
330
66D7
100
AcDbEntity
  8
AM_5
100
AcDbLine
 10
405.9890426899357
 20
-134.4045046665067
 30
0.0
 11
405.9890426899357
 21
-163.4705235344501
 31
0.0
  0
LINE
  5
6CF0
330
66D7
100
AcDbEntity
  8
AM_5
100
AcDbLine
 10
366.4890426899358
 20
-161.9705235344501
 30
0.0
 11
402.9890426899357
 21
-161.9705235344501
 31
0.0
  0
SOLID
  5
6CF1
330
66D7
100
AcDbEntity
  8
AM_5
100
AcDbTrace
 10
366.4890426899358
 20
-161.4705235344501
 30
0.0
 11
366.4890426899358
 21
-162.4705235344501
 31
0.0
 12
363.4890426899358
 22
-161.9705235344501
 32
0.0
 13
363.4890426899358
 23
-161.9705235344501
 33
0.0
  0
SOLID
  5
6CF2
330
66D7
100
AcDbEntity
  8
AM_5
100
AcDbTrace
 10
402.9890426899357
 20
-161.4705235344501
 30
0.0
 11
402.9890426899357
 21
-162.4705235344501
 31
0.0
 12
405.9890426899357
 22
-161.9705235344501
 32
0.0
 13
405.9890426899357
 23
-161.9705235344501
 33
0.0
  0
MTEXT
  5
6CF3
330
66D7
100
AcDbEntity
  8
AM_5
100
AcDbMText
 10
384.7390426899358
 20
-159.6702282588596
 30
0.0
 40
3.0
 41
0.0
 71
     5
 72
     1
  1
{\Famgdt|c136;o}42.5
 73
     1
 44
1.0
1001
ACAD
1000
MTEXTBEGIN
1070
    73
1070
     1
1070
    44
1040
1.0
1070
    74
1070
     0
1000
MTEXTEND
  0
POINT
  5
6CF4
330
66D7
100
AcDbEntity
  8
DEFPOINTS
 62
     0
100
AcDbPoint
 10
363.4890426899358
 20
-133.4045046665068
 30
0.0
  0
POINT
  5
6CF5
330
66D7
100
AcDbEntity
  8
DEFPOINTS
 62
     0
100
AcDbPoint
 10
405.9890426899357
 20
-133.4045046665067
 30
0.0
  0
POINT
  5
6CF6
330
66D7
100
AcDbEntity
  8
DEFPOINTS
 62
     0
100
AcDbPoint
 10
405.9890426899357
 20
-161.9705235344501
 30
0.0
  0
ENDBLK
  5
66E2
330
66D7
100
AcDbEntity
  8
0
100
AcDbBlockEnd
  0
BLOCK
  5
66ED
330
66E3
100
AcDbEntity
  8
0
100
AcDbBlockBegin
  2
*D43
 70
     1
 10
0.0
 20
0.0
 30
0.0
  3
*D43
  1

  0
LINE
  5
6CF7
330
66E3
100
AcDbEntity
  8
AM_5
100
AcDbLine
 10
369.2654939274987
 20
-145.1750463703092
 30
0.0
 11
367.4970883546487
 21
-147.5984204086931
 31
0.0
  0
LINE
  5
6CF8
330
66E3
100
AcDbEntity
  8
AM_5
100
AcDbLine
 10
400.2125914523745
 20
-102.7660006985916
 30
0.0
 11
406.8345211936907
 21
-93.69149151049573
 31
0.0
  0
LINE
  5
6CF9
330
66E3
100
AcDbEntity
  8
AM_5
100
AcDbLine
 10
406.8345211936907
 20
-93.69149151049573
 30
0.0
 11
417.0587852624026
 21
-93.69149151049573
 31
0.0
  0
LINE
  5
6CFA
330
66E3
100
AcDbEntity
  8
AM_5
100
AcDbLine
 10
371.0338995003488
 20
-142.7516723319254
 30
0.0
 11
398.4441858795245
 21
-105.1893747369754
 31
0.0
  0
SOLID
  5
6CFB
330
66E3
100
AcDbEntity
  8
AM_5
100
AcDbTrace
 10
368.8615982544348
 20
-144.8803121081676
 30
0.0
 11
369.6693896005627
 21
-145.4697806324509
 31
0.0
 12
371.0338995003488
 22
-142.7516723319254
 32
0.0
 13
371.0338995003488
 23
-142.7516723319254
 33
0.0
  0
SOLID
  5
6CFC
330
66E3
100
AcDbEntity
  8
AM_5
100
AcDbTrace
 10
399.8086957793106
 20
-102.4712664364499
 30
0.0
 11
400.6164871254385
 21
-103.0607349607333
 31
0.0
 12
398.4441858795245
 22
-105.1893747369754
 32
0.0
 13
398.4441858795245
 23
-105.1893747369754
 33
0.0
  0
MTEXT
  5
6CFD
330
66E3
100
AcDbEntity
  8
AM_5
100
AcDbMText
 10
412.3466532280468
 20
-91.39149151049581
 30
0.0
 40
3.0
 41
0.0
 71
     5
 72
     1
  1
\U+220546.5
 73
     1
 44
1.0
1001
ACAD
1000
MTEXTBEGIN
1070
    73
1070
     1
1070
    44
1040
1.0
1070
    74
1070
     0
1000
MTEXTEND
  0
POINT
  5
6CFE
330
66E3
100
AcDbEntity
  8
DEFPOINTS
 62
     0
100
AcDbPoint
 10
398.4441858795245
 20
-105.1893747369754
 30
0.0
  0
POINT
  5
6CFF
330
66E3
100
AcDbEntity
  8
DEFPOINTS
 62
     0
100
AcDbPoint
 10
371.0338995003488
 20
-142.7516723319254
 30
0.0
  0
ENDBLK
  5
66EE
330
66E3
100
AcDbEntity
  8
0
100
AcDbBlockEnd
  0
BLOCK
  5
66F9
330
66EF
100
AcDbEntity
  8
0
100
AcDbBlockBegin
  2
*D44
 70
     1
 10
0.0
 20
0.0
 30
0.0
  3
*D44
  1

  0
LINE
  5
6D00
330
66EF
100
AcDbEntity
  8
AM_5
100
AcDbLine
 10
213.8867164629778
 20
-107.9705235344502
 30
0.0
 11
174.7618702518268
 21
-107.9705235344502
 31
0.0
  0
LINE
  5
6D01
330
66EF
100
AcDbEntity
  8
AM_5
100
AcDbLine
 10
213.8867164629778
 20
-139.9705235344502
 30
0.0
 11
174.7618702518268
 21
-139.9705235344501
 31
0.0
  0
LINE
  5
6D02
330
66EF
100
AcDbEntity
  8
AM_5
100
AcDbLine
 10
176.2618702518268
 20
-110.9705235344502
 30
0.0
 11
176.2618702518268
 21
-136.9705235344501
 31
0.0
  0
SOLID
  5
6D03
330
66EF
100
AcDbEntity
  8
AM_5
100
AcDbTrace
 10
175.7618702518268
 20
-110.9705235344502
 30
0.0
 11
176.7618702518268
 21
-110.9705235344502
 31
0.0
 12
176.2618702518268
 22
-107.9705235344502
 32
0.0
 13
176.2618702518268
 23
-107.9705235344502
 33
0.0
  0
SOLID
  5
6D04
330
66EF
100
AcDbEntity
  8
AM_5
100
AcDbTrace
 10
175.7618702518268
 20
-136.9705235344501
 30
0.0
 11
176.7618702518268
 21
-136.9705235344501
 31
0.0
 12
176.2618702518268
 22
-139.9705235344501
 32
0.0
 13
176.2618702518268
 23
-139.9705235344501
 33
0.0
  0
MTEXT
  5
6D05
330
66EF
100
AcDbEntity
  8
AM_5
100
AcDbMText
 10
173.0839541802858
 20
-123.9705235344501
 30
0.0
 40
3.0
 41
0.0
 71
     5
 72
     1
  1
%%c32{\H2.130000;\S 0^ -0.039;}
 11
0.0000000000000001
 21
1.0
 31
0.0
 73
     1
 44
1.0
1001
ACAD
1000
MTEXTBEGIN
1070
    73
1070
     1
1070
    44
1040
1.0
1070
    74
1070
     0
1000
MTEXTEND
  0
POINT
  5
6D06
330
66EF
100
AcDbEntity
  8
DEFPOINTS
 62
     0
100
AcDbPoint
 10
214.8867164629778
 20
-107.9705235344502
 30
0.0
  0
POINT
  5
6D07
330
66EF
100
AcDbEntity
  8
DEFPOINTS
 62
     0
100
AcDbPoint
 10
214.8867164629778
 20
-139.9705235344502
 30
0.0
  0
POINT
  5
6D08
330
66EF
100
AcDbEntity
  8
DEFPOINTS
 62
     0
100
AcDbPoint
 10
176.2618702518268
 20
-139.9705235344501
 30
0.0
  0
ENDBLK
  5
66FA
330
66EF
100
AcDbEntity
  8
0
100
AcDbBlockEnd
  0
ENDSEC
  0
SECTION
  2
ENTITIES
  0
INSERT
  5
51A
330
1E
100
AcDbEntity
  8
ASHADE
 62
     1
100
AcDbBlockReference
  2
AVE_RENDER
 10
0.0
 20
0.0
 30
0.0
1001
AVE_RENDER
1002
{
1070
     7
1000
Pref
1070
    30
1070
    20
1070
     1
1070
     0
1000

1070
    10
1070
     1
1070
    10
1040
1.0
1070
     1
1040
0.3
1040
0.7
1040
0.0
1040
10.0
1010
-1.0
1020
-1.0
1030
-1.0
1040
0.3
1070
    49
1070
     0
1070
     0
1010
1.0
1020
1.0
1030
1.0
1040
45.0
1070
     1
1070
     0
1000
WCS
1040
0.0
1070
     0
1040
10.0
1002
}
  0
INSERT
  5
51B
330
1E
100
AcDbEntity
  8
ASHADE
 62
     3
100
AcDbBlockReference
  2
AVE_RENDER
 10
0.0
 20
0.0
 30
0.0
1001
AVE_RENDER
1002
{
1070
     0
1000
Full Opt
1070
     0
1070
     1
1070
     1
1070
     1
1070
     0
1070
     0
1070
     0
1070
     1
1070
     1
1040
0.0001
1040
0.0001
1002
}
  0
INSERT
  5
51C
330
1E
100
AcDbEntity
  8
ASHADE
 62
     4
100
AcDbBlockReference
  2
AVE_RENDER
 10
0.0
 20
0.0
 30
0.0
1001
AVE_RENDER
1002
{
1070
     0
1000
Quick Opt
1070
     0
1070
     1
1070
     1
1070
     1
1070
     0
1070
     0
1070
     1
1002
}
  0
INSERT
  5
51D
330
1E
100
AcDbEntity
  8
ASHADE
 62
     5
100
AcDbBlockReference
  2
AVE_RENDER
 10
0.0
 20
0.0
 30
0.0
1001
AVE_RENDER
1002
{
1070
     1
1000
Scanl Opt
1070
     2
1070
     0
1070
     2
1040
2.0
1040
4.0
1070
     0
1070
     1
1070
     0
1040
0.03
1002
}
  0
INSERT
  5
51E
330
1E
100
AcDbEntity
  8
ASHADE
 62
     6
100
AcDbBlockReference
  2
AVE_RENDER
 10
0.0
 20
0.0
 30
0.0
1001
AVE_RENDER
1002
{
1070
     2
1000
Raytr Opt
1070
     2
1070
     0
1070
     2
1040
2.0
1040
4.0
1070
     0
1070
     1
1070
     1
1040
0.03
1070
     3
1040
0.03
1002
}
  0
INSERT
  5
51F
330
1E
100
AcDbEntity
  8
ASHADE
 62
     7
100
AcDbBlockReference
  2
AVE_RENDER
 10
0.0
 20
0.0
 30
0.0
1001
AVE_RENDER
1002
{
1070
     0
1000
RFile Opt
1070
     1
1070
   640
1070
   480
1070
 10000
1070
     1
1070
     8
1070
     8
1070
     0
1070
     0
1070
     0
1070
     0
1070
     0
1070
     0
1070
     0
1002
}
  0
INSERT
  5
520
330
1E
100
AcDbEntity
  8
ASHADE
 62
     8
100
AcDbBlockReference
  2
AVE_RENDER
 10
0.0
 20
0.0
 30
0.0
1001
AVE_RENDER
1002
{
1070
     0
1000
Fog Opt
1070
     0
1070
     0
1040
0.0
1040
1.0
1040
0.0
1040
1.0
1010
0.5
1020
0.5
1030
0.5
1002
}
  0
INSERT
  5
521
330
1E
100
AcDbEntity
  8
ASHADE
 62
     9
100
AcDbBlockReference
  2
AVE_RENDER
 10
0.0
 20
0.0
 30
0.0
1001
AVE_RENDER
1002
{
1070
     0
1000
BG Opt
1070
     0
1070
     1
1010
0.0
1020
0.0
1030
0.0
1010
1.0
1020
0.0
1030
0.0
1010
0.0
1020
1.0
1030
0.0
1010
0.0
1020
0.0
1030
1.0
1040
0.5
1040
0.33
1040
0.0
1000

1070
     1
1000

1070
     1
1070
     1
1040
1.0
1040
1.0
1040
0.0
1040
0.0
1070
     0
1002
}
  0
INSERT
  5
528
330
1E
100
AcDbEntity
  8
ASHADE
 62
     1
100
AcDbBlockReference
  2
AVE_GLOBAL
 10
0.0
 20
0.0
 30
0.0
1001
AVE_MATERIAL
1002
{
1000
*整體*
1000
2
1000
整體修飾.
1002
{
1002
}
1002
{
1070
    63
1002
{
1002
{
1010
-1.0
1020
-1.0
1030
-1.0
1002
}
1040
0.1000000014901161
1000

1040
0.0
1002
{
1002
}
1040
0.0
1002
{
1002
}
1040
0.0
1002
}
1002
{
1002
{
1010
-1.0
1020
-1.0
1030
-1.0
1002
}
1040
0.6999999880790711
1000

1040
0.0
1002
{
1002
}
1040
0.0
1002
{
1002
}
1040
0.0
1002
}
1002
{
1002
{
1010
-1.0
1020
-1.0
1030
-1.0
1002
}
1040
0.2000000029802322
1000

1040
0.0
1002
{
1002
}
1040
0.0
1002
{
1002
}
1040
0.0
1002
}
1002
{
1070
     0
1002
{
1070
     1
1002
{
1040
1.0
1040
1.0
1000

1040
0.0
1002
{
1002
}
1040
0.0
1002
{
1002
}
1040
0.0
1002
}
1002
}
1040
1.0
1040
0.0
1040
0.0
1002
}
1002
{
1040
1.0
1040
1.0
1000

1040
0.0
1002
{
1002
}
1040
0.0
1002
{
1002
}
1040
0.0
1002
}
1002
{
1040
0.5
1040
1.0
1000

1040
0.0
1002
{
1002
}
1040
0.0
1002
{
1002
}
1040
0.0
1002
}
1002
{
1070
     0
1040
0.0
1002
{
1002
}
1040
1.0
1002
{
1002
}
1040
0.0
1002
}
1002
{
1040
0.0
1002
{
1002
{
1010
0.0
1020
0.0
1030
0.0
1002
}
1040
1.0
1000

1040
0.0
1002
{
1002
}
1040
0.0
1002
{
1002
}
1040
0.0
1002
}
1002
}
1002
{
1002
{
1070
     1
1002
{
1040
0.0
1040
1.0
1000

1040
0.0
1002
{
1002
}
1040
0.0
1002
{
1002
}
1040
0.0
1002
}
1002
}
1040
0.0
1002
{
1002
}
1010
1.0
1020
0.0
1030
0.0
1010
0.0
1020
1.0
1030
0.0
1010
0.0
1020
0.0
1030
1.0
1070
     0
1002
}
1002
{
1002
{
1040
1.0
1040
1.0
1002
{
1070
     1
1002
{
1040
1.0
1040
1.0
1000

1040
0.0
1002
{
1002
}
1040
0.0
1002
{
1002
}
1040
0.0
1002
}
1002
}
1002
}
1070
     0
1040
0.0
1002
{
1002
}
1002
}
1002
{
1002
}
1002
}
1002
{
1071
        3
1070
     3
1070
     0
1002
{
1070
     2
1070
     0
1070
     0
1040
0.0
1002
}
1070
     0
1070
     2
1002
{
1002
}
1002
}
1002
{
1040
8030.0
1040
190.3000030517578
1040
0.3050000071525574
1040
228.0
1040
545.0
1040
14.0
1040
17.39999961853027
1040
0.4560000002384186
1002
}
1002
}
  0
LWPOLYLINE
  5
36BB
330
1E
100
AcDbEntity
  8
LOGO
 62
     4
100
AcDbPolyline
 90
        4
 70
     1
 43
0.0
 10
34.97091597084259
 20
-216.9720199460401
 10
462.6509159708425
 20
-216.9720199460401
 10
462.6509159708425
 20
328.3261727055427
 10
34.97091597084259
 20
328.3261727055427
1001
GENIUS_GENREC_14
1002
{
1000
PYDIR
1011
34.97091597084259
1021
328.3261727055427
1031
0.0
1002
}
1002
{
1000
PXDIR
1011
462.6509159708425
1021
-216.9720199460401
1031
0.0
1002
}
1002
{
1000
PORI
1011
34.97091597084259
1021
-216.9720199460401
1031
0.0
1002
}
1002
{
1000
PINS
1011
34.97091597084259
1021
-216.9720199460401
1031
0.0
1002
}
1002
{
1000
PINS2
1011
462.6509159708425
1021
328.3261727055427
1031
0.0
1002
}
1002
{
1000
C
1070
     1
1002
}
1001
GENIUS_GENODEF_13
1002
{
1000
HIER
1070
     0
1002
}
1002
{
1000
MANEDIT
1070
     0
1002
}
1002
{
1000
NOSEL
1070
     0
1002
}
1002
{
1000
BEHIND
1070
     0
1002
}
1002
{
1000
OTHER
1070
     0
1002
}
1002
{
1000
REACTOR
1002
}
1001
GENIUS_GENOBJ-N-REC_13
1002
{
1000
OWNER
1000
GEN
1002
}
  0
LWPOLYLINE
  5
36BC
330
1E
100
AcDbEntity
  8
LOGO
 62
     4
100
AcDbPolyline
 90
        4
 70
     1
 43
0.0
 10
34.97091597084259
 20
-216.9720199460401
 10
462.6509159708425
 20
-216.9720199460401
 10
462.6509159708425
 20
-259.7338272944572
 10
34.97091597084259
 20
-259.7338272944572
1001
GENIUS_GENREC_14
1002
{
1000
PYDIR
1011
34.97091597084259
1021
-259.7338272944572
1031
0.0
1002
}
1002
{
1000
PXDIR
1011
462.6509159708425
1021
-216.9720199460401
1031
0.0
1002
}
1002
{
1000
PORI
1011
34.97091597084259
1021
-216.9720199460401
1031
0.0
1002
}
1002
{
1000
PINS
1011
34.97091597084259
1021
-216.9720199460401
1031
0.0
1002
}
1002
{
1000
PINS2
1011
462.6509159708425
1021
-259.7338272944572
1031
0.0
1002
}
1002
{
1000
C
1070
     1
1002
}
1001
GENIUS_GENOBJ-N-REC_13
1002
{
1000
OWNER
1000
GEN
1002
}
1001
GENIUS_GENODEF_13
1002
{
1000
HIER
1070
     0
1002
}
1002
{
1000
MANEDIT
1070
     0
1002
}
1002
{
1000
NOSEL
1070
     0
1002
}
1002
{
1000
BEHIND
1070
     0
1002
}
1002
{
1000
OTHER
1070
     0
1002
}
1002
{
1000
REACTOR
1002
}
  0
TEXT
  5
36BD
330
1E
100
AcDbEntity
  8
LOGO
 62
     7
100
AcDbText
 10
131.5242455150384
 20
-235.7052400910514
 30
0.0
 40
5.70157431312217
  1
Order example:
 41
0.8
  7
CHINESET
100
AcDbText
  0
TEXT
  5
36BE
330
1E
100
AcDbEntity
  8
LOGO
 62
     7
100
AcDbText
 10
132.547155096914
 20
-227.6786039842003
 30
0.0
 40
8.552361469683255
  1
訂購代號：
  7
CHINESET
100
AcDbText
  0
LINE
  5
36BF
330
1E
100
AcDbEntity
  8
LOGO
 62
     4
100
AcDbLine
 10
129.0468921373586
 20
-259.7338272944566
 30
0.0
 11
129.0468921373586
 21
-216.9720199460401
 31
0.0
  0
TEXT
  5
36C0
330
1E
100
AcDbEntity
  8
LOGO
  6
Continuous
100
AcDbText
 10
50.33114938843698
 20
-251.3333347740542
 30
0.0
 40
6.414271102262444
  1
金器工業股份有限公司
  7
CHINESET
100
AcDbText
  0
TEXT
  5
36C1
330
1E
100
AcDbEntity
  8
LOGO
  6
Continuous
100
AcDbText
 10
38.54940237453799
 20
-257.7488625705544
 30
0.0
 40
4.276180734841627
  1
MINDMAN INDUSTRIAL CO., LTD.
 41
0.85
  7
CHINESET
100
AcDbText
  0
LINE
  5
36C2
330
1E
100
AcDbEntity
  8
LOGO
 62
     4
100
AcDbLine
 10
129.0468921373586
 20
-225.5243814157235
 30
0.0
 11
66.3295746930143
 21
-225.5243814157235
 31
0.0
  0
LINE
  5
36C3
330
1E
100
AcDbEntity
  8
LOGO
 62
     4
100
AcDbLine
 10
129.0468921373586
 20
-234.0767428854068
 30
0.0
 11
66.3295746930143
 21
-234.0767428854068
 31
0.0
  0
LINE
  5
36C4
330
1E
100
AcDbEntity
  8
LOGO
 62
     4
100
AcDbLine
 10
129.0468921373586
 20
-242.6291043550895
 30
0.0
 11
34.97091597084266
 21
-242.6291043550895
 31
0.0
  0
LINE
  5
36C5
330
1E
100
AcDbEntity
  8
LOGO
 62
     4
100
AcDbLine
 10
66.3295746930143
 20
-242.6291043550895
 30
0.0
 11
66.3295746930143
 21
-216.9720199460401
 31
0.0
  0
TEXT
  5
36C6
330
1E
100
AcDbEntity
  8
LOGO
100
AcDbText
 10
109.1939009539298
 20
-240.4910139876694
 30
0.0
 40
4.276180734841627
  1
mm
  7
CHINESET
 72
     1
 11
114.4882199589718
 21
-238.3529236202486
 31
0.0
100
AcDbText
 73
     2
  0
TEXT
  5
36C7
330
1E
100
AcDbEntity
  8
LOGO
100
AcDbText
 10
106.953996759489
 20
-223.3862910483029
 30
0.0
 40
4.276180734841627
  1
1 : 1
  7
CHINESET
 72
     1
 11
114.4882199589718
 21
-221.2482006808821
 31
0.0
100
AcDbText
 73
     2
  0
LINE
  5
36C8
330
1E
100
AcDbEntity
  8
LOGO
 62
     4
100
AcDbLine
 10
100.5390205717476
 20
-242.6291043550895
 30
0.0
 11
100.5390205717476
 21
-216.9720199460401
 31
0.0
  0
CIRCLE
  5
36C9
330
1E
100
AcDbEntity
  8
LOGO
  6
Continuous
100
AcDbCircle
 10
108.456904058538
 20
-229.7914153686809
 30
0.0
 40
2.482851184597638
  0
CIRCLE
  5
36CA
330
1E
100
AcDbEntity
  8
LOGO
  6
Continuous
100
AcDbCircle
 10
108.456904058538
 20
-229.7914153686809
 30
0.0
 40
1.454730999794512
  0
LINE
  5
36CB
330
1E
100
AcDbEntity
  8
LOGO
100
AcDbLine
 10
124.0594290004176
 20
-232.274266553279
 30
0.0
 11
124.0594290004176
 21
-227.3085641840827
 31
0.0
  0
LINE
  5
36CC
330
1E
100
AcDbEntity
  8
LOGO
100
AcDbLine
 10
116.2758330591629
 20
-231.2461463684751
 30
0.0
 11
116.2758330591629
 21
-228.3366843688861
 31
0.0
  0
LINE
  5
36CD
330
1E
100
AcDbEntity
  8
LOGO
  6
Continuous
100
AcDbLine
 10
116.2758330591629
 20
-228.3366843688861
 30
0.0
 11
124.0594290004176
 21
-227.3085641840827
 31
0.0
  0
LINE
  5
36CE
330
1E
100
AcDbEntity
  8
LOGO
  6
Continuous
100
AcDbLine
 10
116.2758330591629
 20
-231.2461463684751
 30
0.0
 11
124.0594290004176
 21
-232.274266553279
 31
0.0
  0
TEXT
  5
36CF
330
1E
100
AcDbEntity
  8
LOGO
100
AcDbText
 10
69.85551479000213
 20
-223.3841866286499
 30
280.2538407652905
 40
4.276180734841627
  1
比例 Scale:
 41
0.9
  7
CHINESET
 72
     4
 11
83.43429763238091
 21
-221.2482006808821
 31
280.2538407652905
100
AcDbText
  0
TEXT
  5
36D0
330
1E
100
AcDbEntity
  8
LOGO
100
AcDbText
 10
69.6092525958974
 20
-231.878501189572
 30
280.2538407652905
 40
4.276180734841627
  1
投影  View:
 41
0.9
  7
CHINESET
 72
     4
 11
83.43429763238091
 21
-229.8005621505653
 31
280.2538407652905
100
AcDbText
  0
TEXT
  5
36D1
330
1E
100
AcDbEntity
  8
LOGO
100
AcDbText
 10
70.02732562309844
 20
-240.4910139876694
 30
280.2538407652905
 40
4.276180734841627
  1
單位  Unit:
 41
0.9
  7
CHINESET
 72
     4
 11
83.43429763238091
 21
-238.3529236202486
 31
280.2538407652905
100
AcDbText
  0
SOLID
  5
36D2
330
1E
100
AcDbEntity
  8
LOGO
 62
     5
100
AcDbTrace
 10
39.40752211072149
 20
-235.5205625498136
 30
0.0
 11
41.25643045348449
 21
-235.5205625498141
 31
0.0
 12
48.97084112501268
 22
-217.9878110236119
 32
0.0
 13
50.81974946777664
 23
-217.9878110236129
 33
0.0
  0
SOLID
  5
36D3
330
1E
100
AcDbEntity
  8
LOGO
 62
     5
100
AcDbTrace
 10
42.02149597462982
 20
-235.5205625498136
 30
0.0
 11
43.87040431739275
 21
-235.5205625498136
 31
0.0
 12
50.81974946777664
 22
-219.3904311457088
 32
0.0
 13
48.97084112501268
 23
-226.16976173584
 33
0.0
  0
SOLID
  5
36D4
330
1E
100
AcDbEntity
  8
LOGO
 62
     2
100
AcDbTrace
 10
41.25643045348449
 20
-235.5205625498141
 30
0.0
 11
42.02149597462982
 21
-235.5205625498136
 31
0.0
 12
50.81974946777664
 22
-217.9878110236129
 32
0.0
 13
51.58481498892102
 23
-217.9878110236129
 33
0.0
  0
SOLID
  5
36D5
330
1E
100
AcDbEntity
  8
LOGO
 62
     5
100
AcDbTrace
 10
36.44326862940733
 20
-241.8961085593408
 30
0.0
 11
37.0808232303608
 21
-241.8961085593408
 31
0.0
 12
38.87622660992811
 22
-238.7083355545775
 32
0.0
 13
39.5137812108796
 23
-238.7083355545775
 33
0.0
  0
SOLID
  5
36D6
330
1E
100
AcDbEntity
  8
LOGO
 62
     5
100
AcDbTrace
 10
38.87622660992811
 20
-238.7083355545775
 30
0.0
 11
39.5137812108796
 21
-238.7083355545775
 31
0.0
 12
38.87622660992811
 22
-241.8961085593408
 32
0.0
 13
39.5137812108796
 23
-241.8961085593408
 33
0.0
  0
SOLID
  5
36D7
330
1E
100
AcDbEntity
  8
LOGO
 62
     5
100
AcDbTrace
 10
38.87622660992811
 20
-241.8961085593408
 30
0.0
 11
39.5137812108796
 21
-241.8961085593408
 31
0.0
 12
41.30918459044984
 22
-238.7083355545775
 32
0.0
 13
41.94673919140229
 23
-238.7083355545775
 33
0.0
  0
SOLID
  5
36D8
330
1E
100
AcDbEntity
  8
LOGO
 62
     5
100
AcDbTrace
 10
41.30918459044984
 20
-238.7083355545775
 30
0.0
 11
41.94673919140229
 21
-238.7083355545775
 31
0.0
 12
41.30918459044984
 22
-241.8961085593408
 32
0.0
 13
41.94673919140229
 23
-241.8961085593408
 33
0.0
  0
POLYLINE
  5
36D9
330
1E
100
AcDbEntity
  8
LOGO
 62
     5
100
AcDb2dPolyline
 66
     1
 10
0.0
 20
0.0
 30
0.0
 40
0.6385763230696832
 41
0.6385763230696832
  0
VERTEX
  5
36DA
330
36D9
100
AcDbEntity
  8
LOGO
 62
     5
100
AcDbVertex
100
AcDb2dVertex
 10
62.67979762867444
 20
-239.9834447564829
 30
0.0
 42
1.0
  0
VERTEX
  5
36DB
330
36D9
100
AcDbEntity
  8
LOGO
 62
     5
100
AcDbVertex
100
AcDb2dVertex
 10
60.764068659465
 20
-239.9834447564829
 30
0.0
 42
1.0
  0
SEQEND
  5
36DC
330
36D9
100
AcDbEntity
  8
LOGO
 62
     5
  0
POLYLINE
  5
36DD
330
1E
100
AcDbEntity
  8
LOGO
 62
     5
100
AcDb2dPolyline
 66
     1
 10
0.0
 20
0.0
 30
0.0
 70
     1
  0
VERTEX
  5
36DE
330
36DD
100
AcDbEntity
  8
LOGO
 62
     5
100
AcDbVertex
100
AcDb2dVertex
 10
57.15283434088026
 20
-240.3022220569596
 30
0.0
 42
1.000000057330635
  0
VERTEX
  5
36DF
330
36DD
100
AcDbEntity
  8
LOGO
 62
     5
100
AcDbVertex
100
AcDb2dVertex
 10
59.06549814373868
 20
-240.3022220569596
 30
0.0
 42
1.000000057330635
  0
SEQEND
  5
36E0
330
36DD
100
AcDbEntity
  8
LOGO
 62
     5
  0
CIRCLE
  5
36E1
330
1E
100
AcDbEntity
  8
LOGO
 62
     5
100
AcDbCircle
 10
58.10916624231094
 20
-240.3022220569596
 30
0.0
 40
0.9563319014291577
  0
POLYLINE
  5
36E2
330
1E
100
AcDbEntity
  8
LOGO
 62
     5
100
AcDb2dPolyline
 66
     1
 10
0.0
 20
0.0
 30
0.0
 70
     1
 40
0.6385763230696832
 41
0.6385763230696832
  0
VERTEX
  5
36E3
330
36E2
100
AcDbEntity
  8
LOGO
 62
     5
100
AcDbVertex
100
AcDb2dVertex
 10
56.83201359617065
 20
-240.3022220569596
 30
0.0
 42
1.0
  0
VERTEX
  5
36E4
330
36E2
100
AcDbEntity
  8
LOGO
 62
     5
100
AcDbVertex
100
AcDb2dVertex
 10
59.38631888844925
 20
-240.3022220569596
 30
0.0
 42
1.0
  0
SEQEND
  5
36E5
330
36E2
100
AcDbEntity
  8
LOGO
 62
     5
  0
LINE
  5
36E6
330
1E
100
AcDbEntity
  8
LOGO
100
AcDbLine
 10
62.99704234597419
 20
-241.8961085593408
 30
0.0
 11
62.99704234597419
 21
-239.9834447564829
 31
0.0
  0
SOLID
  5
36E7
330
1E
100
AcDbEntity
  8
LOGO
 62
     5
100
AcDbTrace
 10
59.06543438828141
 20
-238.7083355545775
 30
0.0
 11
59.70298898923298
 21
-238.7083355545775
 31
0.0
 12
59.06543438828141
 22
-241.8961085593408
 32
0.0
 13
59.70298898923298
 23
-241.8961085593408
 33
0.0
  0
SOLID
  5
36E8
330
1E
100
AcDbEntity
  8
LOGO
 62
     5
100
AcDbTrace
 10
60.44682394216323
 20
-241.8961085593408
 30
0.0
 11
61.08437854311673
 21
-241.8961085593408
 31
0.0
 12
60.44682394216323
 22
-238.7083355545775
 32
0.0
 13
61.08437854311673
 23
-238.7083355545775
 33
0.0
  0
SOLID
  5
36E9
330
1E
100
AcDbEntity
  8
LOGO
 62
     5
100
AcDbTrace
 10
62.35948774502264
 20
-239.9834447564829
 30
0.0
 11
62.99704234597419
 21
-239.9834447564829
 31
0.0
 12
62.35948774502264
 22
-241.8961085593408
 32
0.0
 13
62.99704234597419
 23
-241.8961085593408
 33
0.0
  0
SOLID
  5
36EA
330
1E
100
AcDbEntity
  8
LOGO
 62
     5
100
AcDbTrace
 10
60.38306848206784
 20
-219.3904311457088
 30
0.0
 11
58.5341601393058
 21
-226.16976173584
 31
0.0
 12
60.38306848206784
 22
-235.5205625498141
 32
0.0
 13
58.5341601393058
 23
-235.5205625498141
 33
0.0
  0
SOLID
  5
36EB
330
1E
100
AcDbEntity
  8
LOGO
 62
     5
100
AcDbTrace
 10
61.14813400321215
 20
-235.5205625498141
 30
0.0
 11
62.99704234597419
 21
-235.5205625498141
 31
0.0
 12
61.14813400321215
 22
-217.9878110236129
 32
0.0
 13
62.99704234597419
 23
-217.9878110236119
 33
0.0
  0
SOLID
  5
36EC
330
1E
100
AcDbEntity
  8
LOGO
 62
     2
100
AcDbTrace
 10
60.38306848206784
 20
-217.9878110236119
 30
0.0
 11
61.14813400321215
 21
-217.9878110236129
 31
0.0
 12
60.38306848206784
 22
-235.5205625498141
 32
0.0
 13
61.14813400321215
 23
-235.5205625498141
 33
0.0
  0
POLYLINE
  5
36ED
330
1E
100
AcDbEntity
  8
LOGO
 62
     5
100
AcDb2dPolyline
 66
     1
 10
0.0
 20
0.0
 30
0.0
 40
0.6385763230696832
 41
0.6385763230696832
  0
VERTEX
  5
36EE
330
36ED
100
AcDbEntity
  8
LOGO
 62
     5
100
AcDbVertex
100
AcDb2dVertex
 10
53.54147251137816
 20
-239.9834447564829
 30
0.0
 42
1.0
  0
VERTEX
  5
36EF
330
36ED
100
AcDbEntity
  8
LOGO
 62
     5
100
AcDbVertex
100
AcDb2dVertex
 10
51.62574354216865
 20
-239.9834447564829
 30
0.0
 42
1.0
  0
SEQEND
  5
36F0
330
36ED
100
AcDbEntity
  8
LOGO
 62
     5
  0
POLYLINE
  5
36F1
330
1E
100
AcDbEntity
  8
LOGO
 62
     5
100
AcDb2dPolyline
 66
     1
 10
0.0
 20
0.0
 30
0.0
 40
0.6385763230696832
 41
0.6385763230696832
  0
VERTEX
  5
36F2
330
36F1
100
AcDbEntity
  8
LOGO
 62
     5
100
AcDbVertex
100
AcDb2dVertex
 10
55.4541363142346
 20
-239.9834447564829
 30
0.0
 42
1.0
  0
VERTEX
  5
36F3
330
36F1
100
AcDbEntity
  8
LOGO
 62
     5
100
AcDbVertex
100
AcDb2dVertex
 10
53.53840734502613
 20
-239.9834447564829
 30
0.0
 42
1.0
  0
SEQEND
  5
36F4
330
36F1
100
AcDbEntity
  8
LOGO
 62
     5
  0
POLYLINE
  5
36F5
330
1E
100
AcDbEntity
  8
LOGO
 62
     5
100
AcDb2dPolyline
 66
     1
 10
0.0
 20
0.0
 30
0.0
 40
0.6385763230696832
 41
0.6385763230696832
  0
VERTEX
  5
36F6
330
36F5
100
AcDbEntity
  8
LOGO
 62
     5
100
AcDbVertex
100
AcDb2dVertex
 10
46.31581119693829
 20
-239.9834447564829
 30
0.0
 42
1.0
  0
VERTEX
  5
36F7
330
36F5
100
AcDbEntity
  8
LOGO
 62
     5
100
AcDbVertex
100
AcDb2dVertex
 10
44.40008222772984
 20
-239.9834447564829
 30
0.0
 42
1.0
  0
SEQEND
  5
36F8
330
36F5
100
AcDbEntity
  8
LOGO
 62
     5
  0
SOLID
  5
36F9
330
1E
100
AcDbEntity
  8
LOGO
 62
     5
100
AcDbTrace
 10
44.08283751042913
 20
-238.7083355545775
 30
0.0
 11
44.72039211138062
 21
-238.7083355545775
 31
0.0
 12
44.08283751042913
 22
-241.8961085593408
 32
0.0
 13
44.72039211138062
 23
-241.8961085593408
 33
0.0
  0
SOLID
  5
36FA
330
1E
100
AcDbEntity
  8
LOGO
 62
     5
100
AcDbTrace
 10
45.99550131328755
 20
-239.9834447564829
 30
0.0
 11
46.63305591424101
 21
-239.9834447564829
 31
0.0
 12
45.99550131328755
 22
-241.8961085593408
 32
0.0
 13
46.63305591424101
 23
-241.8961085593408
 33
0.0
  0
POLYLINE
  5
36FB
330
1E
100
AcDbEntity
  8
LOGO
 62
     5
100
AcDb2dPolyline
 66
     1
 10
0.0
 20
0.0
 30
0.0
 70
     1
 40
0.6385763230696832
 41
0.6385763230696832
  0
VERTEX
  5
36FC
330
36FB
100
AcDbEntity
  8
LOGO
 62
     5
100
AcDbVertex
100
AcDb2dVertex
 10
47.69368847887341
 20
-240.3022220569596
 30
0.0
 42
1.0
  0
VERTEX
  5
36FD
330
36FB
100
AcDbEntity
  8
LOGO
 62
     5
100
AcDbVertex
100
AcDb2dVertex
 10
50.24799377115297
 20
-240.3022220569596
 30
0.0
 42
1.0
  0
SEQEND
  5
36FE
330
36FB
100
AcDbEntity
  8
LOGO
 62
     5
  0
SOLID
  5
36FF
330
1E
100
AcDbEntity
  8
LOGO
 62
     5
100
AcDbTrace
 10
49.92710927098319
 20
-237.7520036531477
 30
0.0
 11
50.56466387193568
 21
-237.7520036531477
 31
0.0
 12
49.92710927098319
 22
-241.8961085593408
 32
0.0
 13
50.56466387193568
 23
-241.8961085593408
 33
0.0
  0
SOLID
  5
3700
330
1E
100
AcDbEntity
  8
LOGO
 62
     5
100
AcDbTrace
 10
51.30849882486889
 20
-238.7083355545775
 30
0.0
 11
51.94605342582045
 21
-238.7083355545775
 31
0.0
 12
51.30849882486889
 22
-241.8961085593408
 32
0.0
 13
51.94605342582045
 23
-241.8961085593408
 33
0.0
  0
SOLID
  5
3701
330
1E
100
AcDbEntity
  8
LOGO
 62
     5
100
AcDbTrace
 10
53.2211626277254
 20
-239.9834447564829
 30
0.0
 11
53.85871722867887
 21
-239.9834447564829
 31
0.0
 12
53.2211626277254
 22
-241.8961085593408
 32
0.0
 13
53.85871722867887
 23
-241.8961085593408
 33
0.0
  0
SOLID
  5
3702
330
1E
100
AcDbEntity
  8
LOGO
 62
     5
100
AcDbTrace
 10
55.13382643058383
 20
-239.9834447564829
 30
0.0
 11
55.77138103153634
 21
-239.9834447564829
 31
0.0
 12
55.13382643058383
 22
-241.8961085593419
 32
0.0
 13
55.77138103153634
 23
-241.8961085593419
 33
0.0
  0
SOLID
  5
3703
330
1E
100
AcDbEntity
  8
LOGO
 62
     5
100
AcDbTrace
 10
42.70144795654432
 20
-238.2620473339104
 30
0.0
 11
43.33900255749874
 21
-238.2620473339104
 31
0.0
 12
42.70144795654432
 22
-237.7520036531477
 32
0.0
 13
43.33900255749874
 23
-237.7520036531477
 33
0.0
  0
SOLID
  5
3704
330
1E
100
AcDbEntity
  8
LOGO
 62
     5
100
AcDbTrace
 10
42.70144795654432
 20
-238.7083355545775
 30
0.0
 11
43.33900255749874
 21
-238.7083355545775
 31
0.0
 12
42.70144795654432
 22
-241.8961085593419
 32
0.0
 13
43.33900255749874
 23
-241.8961085593408
 33
0.0
  0
SOLID
  5
3705
330
1E
100
AcDbEntity
  8
LOGO
 62
     5
100
AcDbTrace
 10
48.97084112501268
 20
-235.5205625498136
 30
0.0
 11
50.81974946777664
 21
-235.5205625498136
 31
0.0
 12
48.97084112501268
 22
-226.16976173584
 32
0.0
 13
50.81974946777664
 23
-219.3904311457088
 33
0.0
  0
SOLID
  5
3706
330
1E
100
AcDbEntity
  8
LOGO
 62
     5
100
AcDbTrace
 10
51.58481498892102
 20
-217.9878110236129
 30
0.0
 11
53.433723331683
 21
-217.9878110236119
 31
0.0
 12
51.58481498892102
 22
-234.1179424277178
 32
0.0
 13
53.433723331683
 23
-227.3386118375865
 33
0.0
  0
SOLID
  5
3707
330
1E
100
AcDbEntity
  8
LOGO
 62
     2
100
AcDbTrace
 10
50.81974946777664
 20
-217.9878110236129
 30
0.0
 11
51.58481498892102
 21
-217.9878110236129
 31
0.0
 12
50.81974946777664
 22
-235.5205625498136
 32
0.0
 13
51.58481498892102
 23
-235.5205625498136
 33
0.0
  0
SOLID
  5
3708
330
1E
100
AcDbEntity
  8
LOGO
 62
     5
100
AcDbTrace
 10
51.58481498892102
 20
-234.1179424277178
 30
0.0
 11
53.433723331683
 21
-227.3386118375865
 31
0.0
 12
60.38306848206784
 22
-217.9878110236119
 32
0.0
 13
58.5341601393058
 23
-217.9878110236119
 33
0.0
  0
SOLID
  5
3709
330
1E
100
AcDbEntity
  8
LOGO
 62
     5
100
AcDbTrace
 10
51.58481498892102
 20
-235.5205625498136
 30
0.0
 11
53.433723331683
 21
-235.5205625498136
 31
0.0
 12
60.38306848206784
 22
-219.3904311457088
 32
0.0
 13
58.5341601393058
 23
-226.16976173584
 33
0.0
  0
SOLID
  5
370A
330
1E
100
AcDbEntity
  8
LOGO
 62
     2
100
AcDbTrace
 10
50.81974946777664
 20
-235.5205625498136
 30
0.0
 11
51.58481498892102
 21
-235.5205625498136
 31
0.0
 12
60.38306848206784
 22
-217.9878110236119
 32
0.0
 13
61.14813400321215
 23
-217.9878110236129
 33
0.0
  0
LINE
  5
370B
330
1E
100
AcDbEntity
  8
LOGO
 62
     4
100
AcDbLine
 10
216.2367512420374
 20
-240.4910139876686
 30
0.0
 11
216.2367512420374
 21
-256.1703433487555
 31
0.0
  0
LINE
  5
370C
330
1E
100
AcDbEntity
  8
LOGO
 62
     4
100
AcDbLine
 10
187.7288796764264
 20
-240.4910139876686
 30
0.0
 11
187.7288796764264
 21
-256.1703433487555
 31
0.0
  0
LINE
  5
370D
330
1E
100
AcDbEntity
  8
LOGO
 62
     4
100
AcDbLine
 10
216.2367512420374
 20
-256.1703433487555
 30
0.0
 11
187.7288796764264
 21
-256.1703433487555
 31
0.0
  0
LINE
  5
370E
330
1E
100
AcDbEntity
  8
LOGO
 62
     4
100
AcDbLine
 10
254.2534346838785
 20
-221.2482006808821
 30
0.0
 11
187.8638602797497
 21
-221.2482006808821
 31
0.0
  0
LINE
  5
370F
330
1E
100
AcDbEntity
  8
LOGO
 62
     4
100
AcDbLine
 10
254.2534346838785
 20
-234.0767428854068
 30
0.0
 11
187.8638602797497
 21
-234.0767428854068
 31
0.0
  0
LINE
  5
3710
330
1E
100
AcDbEntity
  8
LOGO
 62
     4
100
AcDbLine
 10
187.8638602797497
 20
-221.2482006808821
 30
0.0
 11
187.8638602797497
 21
-234.0767428854068
 31
0.0
  0
LINE
  5
3711
330
1E
100
AcDbEntity
  8
LOGO
 62
     4
100
AcDbLine
 10
254.2534346838785
 20
-221.2482006808821
 30
0.0
 11
254.2534346838785
 21
-234.0767428854068
 31
0.0
  0
LINE
  5
3712
330
1E
100
AcDbEntity
  8
LOGO
 62
     4
100
AcDbLine
 10
201.9828154592319
 20
-234.0767428854068
 30
0.0
 11
201.9828154592319
 21
-240.4910139876686
 31
0.0
  0
TEXT
  5
3713
330
1E
100
AcDbEntity
  8
LOGO
  6
Continuous
100
AcDbText
 10
190.1432913165076
 20
-231.398803455539
 30
0.0
 40
7.484399999999999
  1
MCMBRA/B
  7
CHINESET
100
AcDbText
  0
LINE
  5
3714
330
1E
100
AcDbEntity
  8
LOGO
 62
     4
100
AcDbLine
 10
216.2367512420374
 20
-240.4910139876686
 30
0.0
 11
187.7288796764264
 21
-240.4910139876686
 31
0.0
  0
TEXT
  5
3715
330
1E
100
AcDbEntity
  8
LOGO
  6
Continuous
100
AcDbText
 10
196.8769654072831
 20
-253.9572392582285
 30
280.2538407652905
 40
3.207599999999999
  1
Model
 41
0.8
  7
CHINESET
100
AcDbText
  0
TEXT
  5
3716
330
1E
100
AcDbEntity
  8
LOGO
100
AcDbText
 10
196.0232065599457
 20
-248.0110401453668
 30
280.2538407652905
 40
5.346
  1
型號
  7
CHINESET
100
AcDbText
  0
LINE
  5
3717
330
1E
100
AcDbEntity
  8
LOGO
  6
Continuous
100
AcDbLine
 10
256.7584258768409
 20
-227.7079125070214
 30
0.0
 11
262.4230420216532
 21
-227.7079125070214
 31
0.0
  0
LINE
  5
3718
330
1E
100
AcDbEntity
  8
LOGO
 62
     4
100
AcDbLine
 10
268.5582014919032
 20
-240.4910139876686
 30
0.0
 11
268.5582014919032
 21
-256.1703433487555
 31
0.0
  0
LINE
  5
3719
330
1E
100
AcDbEntity
  8
LOGO
 62
     4
100
AcDbLine
 10
231.7517566152605
 20
-240.4910139876686
 30
0.0
 11
231.7517566152605
 21
-256.1703433487555
 31
0.0
  0
LINE
  5
371A
330
1E
100
AcDbEntity
  8
LOGO
 62
     4
100
AcDbLine
 10
268.5582014919032
 20
-256.1703433487555
 30
0.0
 11
231.7517566152605
 21
-256.1703433487555
 31
0.0
  0
LINE
  5
371B
330
1E
100
AcDbEntity
  8
LOGO
 62
     4
100
AcDbLine
 10
279.1924956708143
 20
-221.2482006808821
 30
0.0
 11
264.8925259358437
 21
-221.2482006808821
 31
0.0
  0
LINE
  5
371C
330
1E
100
AcDbEntity
  8
LOGO
 62
     4
100
AcDbLine
 10
279.1924956708143
 20
-234.0767428854068
 30
0.0
 11
264.8925259358437
 21
-234.0767428854068
 31
0.0
  0
LINE
  5
371D
330
1E
100
AcDbEntity
  8
LOGO
 62
     4
100
AcDbLine
 10
264.8925259358437
 20
-221.2482006808821
 30
0.0
 11
264.8925259358437
 21
-234.0767428854068
 31
0.0
  0
LINE
  5
371E
330
1E
100
AcDbEntity
  8
LOGO
 62
     4
100
AcDbLine
 10
279.1924956708143
 20
-221.2482006808821
 30
0.0
 11
279.1924956708143
 21
-234.0767428854068
 31
0.0
  0
LINE
  5
371F
330
1E
100
AcDbEntity
  8
LOGO
 62
     4
100
AcDbLine
 10
272.042510803329
 20
-234.0767428854068
 30
0.0
 11
272.042510803329
 21
-237.2838784365377
 31
0.0
  0
TEXT
  5
3720
330
1E
100
AcDbEntity
  8
LOGO
  6
Continuous
100
AcDbText
 10
266.9778929727899
 20
-231.398803455539
 30
0.0
 40
7.484399999999999
  1
11
  7
CHINESET
100
AcDbText
  0
LINE
  5
3721
330
1E
100
AcDbEntity
  8
LOGO
 62
     4
100
AcDbLine
 10
268.5582014919032
 20
-240.4910139876686
 30
0.0
 11
231.7517566152605
 21
-240.4910139876686
 31
0.0
  0
LINE
  5
3722
330
1E
100
AcDbEntity
  8
LOGO
  6
Continuous
100
AcDbLine
 10
287.5344519409036
 20
-227.7079125070214
 30
0.0
 11
293.199068085716
 21
-227.7079125070214
 31
0.0
  0
LINE
  5
3723
330
1E
100
AcDbEntity
  8
LOGO
 62
     4
100
AcDbLine
 10
309.7241394589324
 20
-240.4910139876686
 30
0.0
 11
309.7241394589324
 21
-256.1703433487555
 31
0.0
  0
LINE
  5
3724
330
1E
100
AcDbEntity
  8
LOGO
 62
     4
100
AcDbLine
 10
281.2162678933214
 20
-240.4910139876686
 30
0.0
 11
281.2162678933214
 21
-256.1703433487555
 31
0.0
  0
LINE
  5
3725
330
1E
100
AcDbEntity
  8
LOGO
 62
     4
100
AcDbLine
 10
309.7241394589324
 20
-256.1703433487555
 30
0.0
 11
281.2162678933214
 21
-256.1703433487555
 31
0.0
  0
LINE
  5
3726
330
1E
100
AcDbEntity
  8
LOGO
 62
     4
100
AcDbLine
 10
316.9066826965531
 20
-221.2482006808821
 30
0.0
 11
294.9859558796676
 21
-221.2482006808821
 31
0.0
  0
LINE
  5
3727
330
1E
100
AcDbEntity
  8
LOGO
 62
     4
100
AcDbLine
 10
316.9066826965531
 20
-234.0767428854068
 30
0.0
 11
294.9859558796676
 21
-234.0767428854068
 31
0.0
  0
LINE
  5
3728
330
1E
100
AcDbEntity
  8
LOGO
 62
     4
100
AcDbLine
 10
294.9859558796676
 20
-221.2482006808821
 30
0.0
 11
294.9859558796676
 21
-234.0767428854068
 31
0.0
  0
LINE
  5
3729
330
1E
100
AcDbEntity
  8
LOGO
 62
     4
100
AcDbLine
 10
316.9066826965531
 20
-221.2482006808821
 30
0.0
 11
316.9066826965531
 21
-234.0767428854068
 31
0.0
  0
LINE
  5
372A
330
1E
100
AcDbEntity
  8
LOGO
 62
     4
100
AcDbLine
 10
304.8423623114315
 20
-234.0767428854068
 30
0.0
 11
304.8423623114315
 21
-240.4910139876686
 31
0.0
  0
TEXT
  5
372B
330
1E
100
AcDbEntity
  8
LOGO
  6
Continuous
100
AcDbText
 10
299.9247783817247
 20
-231.398803455539
 30
0.0
 40
7.484399999999999
  1
40
  7
CHINESET
100
AcDbText
  0
LINE
  5
372C
330
1E
100
AcDbEntity
  8
LOGO
 62
     4
100
AcDbLine
 10
309.7241394589324
 20
-240.4910139876686
 30
0.0
 11
281.2162678933214
 21
-240.4910139876686
 31
0.0
  0
LINE
  5
372D
330
1E
100
AcDbEntity
  8
LOGO
  6
Continuous
100
AcDbLine
 10
318.7314663140104
 20
-227.7079125070214
 30
0.0
 11
324.3960824588237
 21
-227.7079125070214
 31
0.0
  0
LINE
  5
372E
330
1E
100
AcDbEntity
  8
LOGO
 62
     4
100
AcDbLine
 10
338.9118929066762
 20
-240.4910139876686
 30
0.0
 11
338.9118929066762
 21
-256.1703433487555
 31
0.0
  0
LINE
  5
372F
330
1E
100
AcDbEntity
  8
LOGO
 62
     4
100
AcDbLine
 10
315.6876867597643
 20
-240.4910139876686
 30
0.0
 11
315.6876867597643
 21
-256.1703433487555
 31
0.0
  0
LINE
  5
3730
330
1E
100
AcDbEntity
  8
LOGO
 62
     4
100
AcDbLine
 10
338.9118929066762
 20
-256.1703433487555
 30
0.0
 11
315.6876867597643
 21
-256.1703433487555
 31
0.0
  0
LINE
  5
3731
330
1E
100
AcDbEntity
  8
LOGO
 62
     4
100
AcDbLine
 10
339.832182912313
 20
-221.2482006808821
 30
0.0
 11
326.1829702527744
 21
-221.2482006808821
 31
0.0
  0
LINE
  5
3732
330
1E
100
AcDbEntity
  8
LOGO
 62
     4
100
AcDbLine
 10
339.832182912313
 20
-234.0767428854068
 30
0.0
 11
326.1829702527744
 21
-234.0767428854068
 31
0.0
  0
LINE
  5
3733
330
1E
100
AcDbEntity
  8
LOGO
 62
     4
100
AcDbLine
 10
326.1829702527744
 20
-221.2482006808821
 30
0.0
 11
326.1829702527744
 21
-234.0767428854068
 31
0.0
  0
LINE
  5
3734
330
1E
100
AcDbEntity
  8
LOGO
 62
     4
100
AcDbLine
 10
339.832182912313
 20
-221.2482006808821
 30
0.0
 11
339.832182912313
 21
-234.0767428854068
 31
0.0
  0
LINE
  5
3735
330
1E
100
AcDbEntity
  8
LOGO
 62
     4
100
AcDbLine
 10
333.0075765825436
 20
-234.0767428854068
 30
0.0
 11
333.0075765825436
 21
-240.4910139876686
 31
0.0
  0
TEXT
  5
3736
330
1E
100
AcDbEntity
  8
LOGO
  6
Continuous
100
AcDbText
 10
330.7834063718673
 20
-231.398803455539
 30
0.0
 40
7.484399999999999
  1
*
  7
CHINESET
100
AcDbText
  0
LINE
  5
3737
330
1E
100
AcDbEntity
  8
LOGO
 62
     4
100
AcDbLine
 10
338.9118929066762
 20
-240.4910139876686
 30
0.0
 11
315.6876867597643
 21
-240.4910139876686
 31
0.0
  0
TEXT
  5
3738
330
1E
100
AcDbEntity
  8
LOGO
  6
Continuous
100
AcDbText
 10
239.1894179434193
 20
-253.9572392582285
 30
280.2538407652905
 40
3.207599999999999
  1
Acting type
 41
0.8
  7
CHINESET
100
AcDbText
  0
TEXT
  5
3739
330
1E
100
AcDbEntity
  8
LOGO
100
AcDbText
 10
239.1592012404725
 20
-248.0110401453668
 30
280.2538407652905
 40
5.346
  1
作動型式
  7
CHINESET
100
AcDbText
  0
TEXT
  5
373A
330
1E
100
AcDbEntity
  8
LOGO
  6
Continuous
100
AcDbText
 10
287.1875018386197
 20
-253.9572392582285
 30
280.2538407652905
 40
3.207599999999999
  1
Tube I.D.
 41
0.8
  7
CHINESET
100
AcDbText
  0
TEXT
  5
373B
330
1E
100
AcDbEntity
  8
LOGO
100
AcDbText
 10
288.4808407172499
 20
-248.0110401453668
 30
280.2538407652905
 40
5.346
  1
內徑
  7
CHINESET
100
AcDbText
  0
TEXT
  5
373C
330
1E
100
AcDbEntity
  8
LOGO
  6
Continuous
100
AcDbText
 10
321.8084444797006
 20
-253.9572392582285
 30
280.2538407652905
 40
3.207599999999999
  1
Stroke
 41
0.8
  7
CHINESET
100
AcDbText
  0
TEXT
  5
373D
330
1E
100
AcDbEntity
  8
LOGO
100
AcDbText
 10
321.5860400399664
 20
-248.0110401453668
 30
280.2538407652905
 40
5.346
  1
行程
  7
CHINESET
100
AcDbText
  0
TEXT
  5
374A
330
1E
100
AcDbEntity
  8
LOGO
100
AcDbText
 10
131.3845958456612
 20
-257.4589160213353
 30
0.0
 40
4.276799999999999
  1
10701129
 41
0.7
  7
CHINESET
 72
     1
 11
141.4350758456612
 21
-257.4589160213353
 31
0.0
100
AcDbText
  0
LINE
  5
374B
330
1E
100
AcDbEntity
  8
LOGO
 62
     4
100
AcDbLine
 10
154.7076921373566
 20
-251.1814658247725
 30
0.0
 11
154.7076921373585
 21
-259.7338272944563
 31
0.0
  0
LINE
  5
374C
330
1E
100
AcDbEntity
  8
LOGO
 62
     4
100
AcDbLine
 10
154.7076921373566
 20
-251.1814658247725
 30
0.0
 11
129.0468921373586
 21
-251.1814658247725
 31
0.0
  0
LINE
  5
374D
330
1E
100
AcDbEntity
  8
LOGO
  6
AM_ISO08W050X2
 48
0.3
100
AcDbLine
 10
105.0342565228012
 20
-229.7914153686809
 30
0.0
 11
111.8795515942748
 21
-229.7914153686809
 31
0.0
1001
GENIUS_GENOREF_13
1005
3752
  0
LINE
  5
374E
330
1E
100
AcDbEntity
  8
LOGO
  6
AM_ISO08W050X2
 48
0.3
100
AcDbLine
 10
108.456904058538
 20
-233.2140629044175
 30
0.0
 11
108.456904058538
 21
-226.3687678329441
 31
0.0
1001
GENIUS_GENOREF_13
1005
3751
  0
LINE
  5
374F
330
1E
100
AcDbEntity
  8
LOGO
  6
CENTER
 48
0.5
100
AcDbLine
 10
115.6533617278995
 20
-229.7914153686809
 30
0.0
 11
124.8432119149029
 21
-229.7914153686809
 31
0.0
1001
GENIUS_GENOREF_13
1005
3750
  0
POINT
  5
3750
330
1E
100
AcDbEntity
  8
0
 60
     1
100
AcDbPoint
 10
-1749.678269652932
 20
-1204.551850519228
 30
0.0
1001
GENIUS_GENOBJ-N-CRS_13
1002
{
1000
OWNER
1000
GEN
1002
}
1001
GENIUS_GENOLIS_13
1002
{
1000
ENT
1005
0
1005
0
1005
0
1005
374F
1002
}
1001
GENIUS_GENOENT_13
1002
{
1000
MYREF
1005
3750
1002
}
1002
{
1000
GRP
1005
0
1002
}
1001
GENIUS_GENODEF_13
1002
{
1000
HIER
1070
    10
1002
}
1002
{
1000
MANEDIT
1070
     1
1002
}
1002
{
1000
NOSEL
1070
     0
1002
}
1002
{
1000
BEHIND
1070
     0
1002
}
1002
{
1000
OTHER
1070
     0
1002
}
1002
{
1000
REACTOR
1002
}
  0
POINT
  5
3751
330
1E
100
AcDbEntity
  8
0
 60
     1
100
AcDbPoint
 10
-1761.002854875787
 20
-1195.676264040592
 30
0.0
1001
GENIUS_GENOBJ-N-CRS_13
1002
{
1000
OWNER
1000
GEN
1002
}
1001
GENIUS_GENOLIS_13
1002
{
1000
ENT
1005
0
1005
0
1005
0
1005
374E
1002
}
1001
GENIUS_GENOENT_13
1002
{
1000
MYREF
1005
3751
1002
}
1002
{
1000
GRP
1005
0
1002
}
1001
GENIUS_GENODEF_13
1002
{
1000
HIER
1070
    10
1002
}
1002
{
1000
MANEDIT
1070
     1
1002
}
1002
{
1000
NOSEL
1070
     0
1002
}
1002
{
1000
BEHIND
1070
     0
1002
}
1002
{
1000
OTHER
1070
     0
1002
}
1002
{
1000
REACTOR
1002
}
  0
POINT
  5
3752
330
1E
100
AcDbEntity
  8
0
 60
     1
100
AcDbPoint
 10
-1754.64418117795
 20
-1204.551850519228
 30
0.0
1001
GENIUS_GENOBJ-N-CRS_13
1002
{
1000
OWNER
1000
GEN
1002
}
1001
GENIUS_GENOLIS_13
1002
{
1000
ENT
1005
0
1005
0
1005
0
1005
374D
1002
}
1001
GENIUS_GENOENT_13
1002
{
1000
MYREF
1005
3752
1002
}
1002
{
1000
GRP
1005
0
1002
}
1001
GENIUS_GENODEF_13
1002
{
1000
HIER
1070
    10
1002
}
1002
{
1000
MANEDIT
1070
     1
1002
}
1002
{
1000
NOSEL
1070
     0
1002
}
1002
{
1000
BEHIND
1070
     0
1002
}
1002
{
1000
OTHER
1070
     0
1002
}
1002
{
1000
REACTOR
1002
}
  0
TEXT
  5
3808
330
1E
100
AcDbEntity
  8
0
100
AcDbText
 10
53.35182782147784
 20
305.2797354827105
 30
0.0
 40
8.553599999999999
  1
MCMBRA
  7
DAYUS
100
AcDbText
  0
TEXT
  5
380A
330
1E
100
AcDbEntity
  8
0
100
AcDbText
 10
53.35182782147784
 20
29.82176427094731
 30
0.0
 40
8.553599999999999
  1
MCMBRB
  7
DAYUS
100
AcDbText
  0
LINE
  5
3B49
330
1E
100
AcDbEntity
  8
LOGO
 62
     4
100
AcDbLine
 10
34.97091597084259
 20
55.67707637975127
 30
0.0
 11
462.6509159708425
 21
55.67707637975127
 31
0.0
  0
LINE
  5
3B6C
330
1E
100
AcDbEntity
  8
LOGO
 62
     4
100
AcDbLine
 10
272.042510803329
 20
-237.2838784365377
 30
0.0
 11
250.1549790535819
 21
-237.2838784365377
 31
0.0
  0
LINE
  5
3B6D
330
1E
100
AcDbEntity
  8
LOGO
 62
     4
100
AcDbLine
 10
250.1549790535819
 20
-240.4910139876686
 30
0.0
 11
250.1549790535819
 21
-237.2838784365377
 31
0.0
  0
LINE
  5
5F12
330
1E
100
AcDbEntity
  8
AM_VIS
100
AcDbLine
 10
356.4890426899358
 20
129.6295747252478
 30
0.0
 11
412.9890426899358
 21
129.6295747252478
 31
0.0
  0
LINE
  5
5F13
330
1E
100
AcDbEntity
  8
AM_VIS
100
AcDbLine
 10
356.4890426899358
 20
129.6295747252478
 30
0.0
 11
355.4890426899358
 21
130.6295747252478
 31
0.0
  0
LINE
  5
5F14
330
1E
100
AcDbEntity
  8
AM_VIS
100
AcDbLine
 10
355.4890426899358
 20
180.6295747252478
 30
0.0
 11
355.4890426899358
 21
130.6295747252478
 31
0.0
  0
LINE
  5
5F15
330
1E
100
AcDbEntity
  8
AM_VIS
100
AcDbLine
 10
355.4890426899358
 20
180.6295747252478
 30
0.0
 11
356.4890426899358
 21
181.6295747252478
 31
0.0
  0
LINE
  5
5F16
330
1E
100
AcDbEntity
  8
AM_VIS
100
AcDbLine
 10
412.9890426899358
 20
181.6295747252478
 30
0.0
 11
356.4890426899358
 21
181.6295747252478
 31
0.0
  0
LINE
  5
5F17
330
1E
100
AcDbEntity
  8
AM_VIS
100
AcDbLine
 10
412.9890426899358
 20
181.6295747252478
 30
0.0
 11
413.9890426899357
 21
180.6295747252478
 31
0.0
  0
LINE
  5
5F18
330
1E
100
AcDbEntity
  8
AM_VIS
100
AcDbLine
 10
413.9890426899357
 20
130.6295747252478
 30
0.0
 11
413.9890426899357
 21
180.6295747252478
 31
0.0
  0
LINE
  5
5F19
330
1E
100
AcDbEntity
  8
AM_VIS
100
AcDbLine
 10
413.9890426899357
 20
130.6295747252478
 30
0.0
 11
412.9890426899358
 21
129.6295747252478
 31
0.0
  0
CIRCLE
  5
5F1A
330
1E
100
AcDbEntity
  8
AM_VIS
100
AcDbCircle
 10
384.7390426899358
 20
155.6295747252478
 30
0.0
 40
20.75
  0
ARC
  5
5F1B
330
1E
100
AcDbEntity
  8
AM_VIS
100
AcDbCircle
 10
384.7390426899358
 20
155.6295747252478
 30
0.0
 40
23.25
100
AcDbArc
 50
203.9389262492131
 51
246.0610737507863
  0
ARC
  5
5F1C
330
1E
100
AcDbEntity
  8
AM_VIS
100
AcDbCircle
 10
384.7390426899358
 20
155.6295747252478
 30
0.0
 40
23.25
100
AcDbArc
 50
113.9389262492137
 51
156.0610737507862
  0
ARC
  5
5F1D
330
1E
100
AcDbEntity
  8
AM_VIS
100
AcDbCircle
 10
384.7390426899358
 20
155.6295747252478
 30
0.0
 40
23.25
100
AcDbArc
 50
23.93892624921379
 51
66.06107375078626
  0
ARC
  5
5F1E
330
1E
100
AcDbEntity
  8
AM_VIS
100
AcDbCircle
 10
384.7390426899358
 20
155.6295747252478
 30
0.0
 40
23.25
100
AcDbArc
 50
293.9389262492138
 51
336.0610737507869
  0
LINE
  5
5F1F
330
1E
100
AcDbEntity
  8
AM_VIS
100
AcDbLine
 10
363.4890426899358
 20
165.0635558573044
 30
0.0
 11
363.4890426899358
 21
146.1955935931912
 31
0.0
  0
LINE
  5
5F20
330
1E
100
AcDbEntity
  8
AM_VIS
100
AcDbLine
 10
405.9890426899357
 20
165.0635558573045
 30
0.0
 11
405.9890426899357
 21
146.1955935931914
 31
0.0
  0
LINE
  5
5F21
330
1E
100
AcDbEntity
  8
AM_VIS
100
AcDbLine
 10
375.3050615578793
 20
134.3795747252478
 30
0.0
 11
394.1730238219924
 21
134.3795747252478
 31
0.0
  0
LINE
  5
5F22
330
1E
100
AcDbEntity
  8
AM_VIS
100
AcDbLine
 10
375.305061557879
 20
176.8795747252478
 30
0.0
 11
394.1730238219922
 21
176.8795747252478
 31
0.0
  0
CIRCLE
  5
5F23
330
1E
100
AcDbEntity
  8
AM_VIS
100
AcDbCircle
 10
100.662350194915
 20
155.6295747252478
 30
0.0
 40
10.49999999999999
  0
CIRCLE
  5
5F24
330
1E
100
AcDbEntity
  8
AM_VIS
100
AcDbCircle
 10
100.662350194915
 20
155.6295747252478
 30
0.0
 40
7.116025403784438
  0
LINE
  5
5F25
330
1E
100
AcDbEntity
  8
AM_VIS
100
AcDbLine
 10
89.66235019491501
 20
149.2787217641619
 30
0.0
 11
100.662350194915
 21
142.927868803076
 31
0.0
  0
LINE
  5
5F26
330
1E
100
AcDbEntity
  8
AM_VIS
100
AcDbLine
 10
89.6623501949149
 20
161.9804276863337
 30
0.0
 11
89.6623501949149
 21
149.2787217641619
 31
0.0
  0
LINE
  5
5F27
330
1E
100
AcDbEntity
  8
AM_VIS
100
AcDbLine
 10
89.6623501949149
 20
161.9804276863338
 30
0.0
 11
100.662350194915
 21
168.3312806474196
 31
0.0
  0
LINE
  5
5F28
330
1E
100
AcDbEntity
  8
AM_VIS
100
AcDbLine
 10
100.662350194915
 20
168.3312806474196
 30
0.0
 11
111.662350194915
 21
161.9804276863338
 31
0.0
  0
LINE
  5
5F29
330
1E
100
AcDbEntity
  8
AM_VIS
100
AcDbLine
 10
111.662350194915
 20
161.9804276863338
 30
0.0
 11
111.662350194915
 21
149.2787217641619
 31
0.0
  0
LINE
  5
5F2A
330
1E
100
AcDbEntity
  8
AM_VIS
100
AcDbLine
 10
100.662350194915
 20
142.927868803076
 30
0.0
 11
111.662350194915
 21
149.2787217641619
 31
0.0
  0
CIRCLE
  5
5F2B
330
1E
100
AcDbEntity
  8
AM_VIS
100
AcDbCircle
 10
100.662350194915
 20
155.6295747252478
 30
0.0
 40
6.9
  0
CIRCLE
  5
5F2C
330
1E
100
AcDbEntity
  8
AM_VIS
100
AcDbCircle
 10
100.662350194915
 20
155.6295747252478
 30
0.0
 40
5.4
  0
CIRCLE
  5
5F2D
330
1E
100
AcDbEntity
  8
AM_VIS
100
AcDbCircle
 10
100.662350194915
 20
155.6295747252478
 30
0.0
 40
16.0
  0
CIRCLE
  5
5F2E
330
1E
100
AcDbEntity
  8
AM_VIS
100
AcDbCircle
 10
100.662350194915
 20
155.6295747252478
 30
0.0
 40
15.5
  0
LINE
  5
5F2F
330
1E
100
AcDbEntity
  8
AM_VIS
100
AcDbLine
 10
128.912350194915
 20
129.6295747252478
 30
0.0
 11
72.41235019491501
 21
129.6295747252478
 31
0.0
  0
LINE
  5
5F30
330
1E
100
AcDbEntity
  8
AM_VIS
100
AcDbLine
 10
72.41235019491501
 20
181.6295747252478
 30
0.0
 11
128.912350194915
 21
181.6295747252478
 31
0.0
  0
LINE
  5
5F31
330
1E
100
AcDbEntity
  8
AM_VIS
100
AcDbLine
 10
128.912350194915
 20
181.6295747252478
 30
0.0
 11
129.912350194915
 21
180.6295747252478
 31
0.0
  0
LINE
  5
5F32
330
1E
100
AcDbEntity
  8
AM_VIS
100
AcDbLine
 10
129.912350194915
 20
180.6295747252478
 30
0.0
 11
129.912350194915
 21
130.6295747252478
 31
0.0
  0
LINE
  5
5F33
330
1E
100
AcDbEntity
  8
AM_VIS
100
AcDbLine
 10
129.912350194915
 20
130.6295747252478
 30
0.0
 11
128.912350194915
 21
129.6295747252478
 31
0.0
  0
LINE
  5
5F34
330
1E
100
AcDbEntity
  8
AM_VIS
100
AcDbLine
 10
71.412350194915
 20
180.6295747252478
 30
0.0
 11
72.41235019491501
 21
181.6295747252478
 31
0.0
  0
LINE
  5
5F35
330
1E
100
AcDbEntity
  8
AM_VIS
100
AcDbLine
 10
71.412350194915
 20
130.6295747252478
 30
0.0
 11
71.412350194915
 21
180.6295747252478
 31
0.0
  0
LINE
  5
5F36
330
1E
100
AcDbEntity
  8
AM_VIS
100
AcDbLine
 10
72.41235019491501
 20
129.6295747252478
 30
0.0
 11
71.412350194915
 21
130.6295747252478
 31
0.0
  0
LINE
  5
5F37
330
1E
100
AcDbEntity
  8
AM_VIS
100
AcDbLine
 10
187.2357873808233
 20
256.010002197698
 30
0.0
 11
187.2357873808233
 21
235.010002197698
 31
0.0
  0
LINE
  5
5F38
330
1E
100
AcDbEntity
  8
AM_VIS
100
AcDbLine
 10
195.2357873808233
 20
235.010002197698
 30
0.0
 11
195.2357873808233
 21
256.010002197698
 31
0.0
  0
LINE
  5
5F39
330
1E
100
AcDbEntity
  8
AM_VIS
100
AcDbLine
 10
187.2357873808233
 20
235.010002197698
 30
0.0
 11
187.5244625154182
 21
234.510002197698
 31
0.0
  0
LINE
  5
5F3A
330
1E
100
AcDbEntity
  8
AM_VIS
100
AcDbLine
 10
187.2357873808233
 20
256.010002197698
 30
0.0
 11
187.5244625154182
 21
256.5100021976981
 31
0.0
  0
LINE
  5
5F3B
330
1E
100
AcDbEntity
  8
AM_VIS
100
AcDbLine
 10
195.2357873808233
 20
256.010002197698
 30
0.0
 11
194.9471122462286
 21
256.5100021976981
 31
0.0
  0
LINE
  5
5F3C
330
1E
100
AcDbEntity
  8
AM_VIS
100
AcDbLine
 10
195.2357873808233
 20
235.010002197698
 30
0.0
 11
194.9471122462286
 21
234.510002197698
 31
0.0
  0
LINE
  5
5F3D
330
1E
100
AcDbEntity
  8
AM_VIS
100
AcDbLine
 10
193.9646318739811
 20
256.5100021976981
 30
0.0
 11
188.5069428876656
 21
256.5100021976981
 31
0.0
  0
LINE
  5
5F3E
330
1E
100
AcDbEntity
  8
AM_VIS
100
AcDbLine
 10
187.5244625154182
 20
256.5100021976981
 30
0.0
 11
188.5069428876656
 21
256.5100021976981
 31
0.0
  0
SPLINE
  5
5F3F
330
1E
100
AcDbEntity
  8
AM_VIS
100
AcDbSpline
210
0.0
220
0.0
230
1.0
 70
    12
 71
     2
 72
     6
 73
     3
 74
     0
 42
0.0000000001
 43
0.0000000001
 40
3.926122721158586
 40
3.926122721158586
 40
3.926122721158586
 40
18.5238215994849
 40
18.5238215994849
 40
18.5238215994849
 10
188.5069428876655
 20
256.510002197698
 30
0.0
 41
1.118062981922769
 10
186.6736095543323
 20
251.0100021976982
 30
0.0
 41
1.291027927168135
 10
188.5069428876656
 20
245.5100021976981
 30
0.0
 41
1.118062981922772
  0
SPLINE
  5
5F40
330
1E
100
AcDbEntity
  8
AM_VIS
100
AcDbSpline
210
0.0
220
0.0
230
1.0
 70
    12
 71
     2
 72
     6
 73
     3
 74
     0
 42
0.0000000001
 43
0.0000000001
 40
3.926122721158657
 40
3.926122721158657
 40
3.926122721158657
 40
18.52382159948499
 40
18.52382159948499
 40
18.52382159948499
 10
188.5069428876658
 20
245.5100021976981
 30
0.0
 41
1.118062981922771
 10
186.6736095543323
 20
240.010002197698
 30
0.0
 41
1.291027927168136
 10
188.5069428876656
 20
234.510002197698
 30
0.0
 41
1.118062981922771
  0
LINE
  5
5F41
330
1E
100
AcDbEntity
  8
AM_VIS
100
AcDbLine
 10
193.9646318739811
 20
245.5100021976981
 30
0.0
 11
188.5069428876656
 21
245.5100021976981
 31
0.0
  0
LINE
  5
5F42
330
1E
100
AcDbEntity
  8
AM_VIS
100
AcDbLine
 10
187.5244625154182
 20
234.5100021976981
 30
0.0
 11
188.5069428876656
 21
234.5100021976981
 31
0.0
  0
LINE
  5
5F43
330
1E
100
AcDbEntity
  8
AM_VIS
100
AcDbLine
 10
193.9646318739811
 20
234.510002197698
 30
0.0
 11
188.5069428876656
 21
234.510002197698
 31
0.0
  0
LINE
  5
5F44
330
1E
100
AcDbEntity
  8
AM_VIS
100
AcDbLine
 10
193.9646318739811
 20
256.5100021976981
 30
0.0
 11
194.9471122462286
 21
256.5100021976981
 31
0.0
  0
LINE
  5
5F45
330
1E
100
AcDbEntity
  8
AM_VIS
100
AcDbLine
 10
193.9646318739811
 20
234.510002197698
 30
0.0
 11
194.9471122462286
 21
234.510002197698
 31
0.0
  0
SPLINE
  5
5F46
330
1E
100
AcDbEntity
  8
AM_VIS
100
AcDbSpline
210
0.0
220
0.0
230
1.0
 70
    12
 71
     2
 72
     6
 73
     3
 74
     0
 42
0.0000000001
 43
0.0000000001
 40
3.92612272115867
 40
3.92612272115867
 40
3.92612272115867
 40
18.523821599485
 40
18.523821599485
 40
18.523821599485
 10
193.9646318739814
 20
234.5100021976981
 30
0.0
 41
1.118062981922772
 10
195.7979652073145
 20
240.0100021976982
 30
0.0
 41
1.291027927168137
 10
193.9646318739811
 20
245.5100021976981
 30
0.0
 41
1.118062981922771
  0
SPLINE
  5
5F47
330
1E
100
AcDbEntity
  8
AM_VIS
100
AcDbSpline
210
0.0
220
0.0
230
1.0
 70
    12
 71
     2
 72
     6
 73
     3
 74
     0
 42
0.0000000001
 43
0.0000000001
 40
3.92612272115869
 40
3.92612272115869
 40
3.92612272115869
 40
18.523821599485
 40
18.523821599485
 40
18.523821599485
 10
193.9646318739811
 20
245.5100021976981
 30
0.0
 41
1.118062981922771
 10
195.7979652073142
 20
251.0100021976981
 30
0.0
 41
1.291027927168134
 10
193.964631873981
 20
256.510002197698
 30
0.0
 41
1.118062981922769
  0
LINE
  5
5F48
330
1E
100
AcDbEntity
  8
AM_VIS
100
AcDbLine
 10
207.386716462978
 20
239.510002197698
 30
0.0
 11
207.386716462978
 21
251.510002197698
 31
0.0
  0
LINE
  5
5F49
330
1E
100
AcDbEntity
  8
AM_VIS
100
AcDbLine
 10
207.386716462978
 20
251.510002197698
 30
0.0
 11
207.386716462978
 21
252.4100021976981
 31
0.0
  0
LINE
  5
5F4A
330
1E
100
AcDbEntity
  8
AM_VIS
100
AcDbLine
 10
207.386716462978
 20
238.610002197698
 30
0.0
 11
207.386716462978
 21
239.510002197698
 31
0.0
  0
LINE
  5
5F4B
330
1E
100
AcDbEntity
  8
AM_VIS
100
AcDbLine
 10
207.4867164629781
 20
251.510002197698
 30
0.0
 11
207.4867164629781
 21
239.510002197698
 31
0.0
  0
LINE
  5
5F4C
330
1E
100
AcDbEntity
  8
AM_VIS
100
AcDbLine
 10
204.386716462978
 20
238.610002197698
 30
0.0
 11
204.386716462978
 21
252.4100021976981
 31
0.0
  0
LINE
  5
5F4D
330
1E
100
AcDbEntity
  8
AM_VIS
100
AcDbLine
 10
184.886716462978
 20
252.4100021976981
 30
0.0
 11
184.886716462978
 21
238.610002197698
 31
0.0
  0
LINE
  5
5F4E
330
1E
100
AcDbEntity
  8
AM_VIS
100
AcDbLine
 10
183.386716462978
 20
240.110002197698
 30
0.0
 11
183.386716462978
 21
250.9100021976981
 31
0.0
  0
LINE
  5
5F4F
330
1E
100
AcDbEntity
  8
AM_VIS
100
AcDbLine
 10
207.386716462978
 20
252.4100021976981
 30
0.0
 11
204.386716462978
 21
252.4100021976981
 31
0.0
  0
LINE
  5
5F50
330
1E
100
AcDbEntity
  8
AM_VIS
100
AcDbLine
 10
207.386716462978
 20
238.610002197698
 30
0.0
 11
204.386716462978
 21
238.610002197698
 31
0.0
  0
LINE
  5
5F51
330
1E
100
AcDbEntity
  8
AM_VIS
100
AcDbLine
 10
187.2357873808233
 20
252.4100021976981
 30
0.0
 11
184.886716462978
 21
252.4100021976981
 31
0.0
  0
LINE
  5
5F52
330
1E
100
AcDbEntity
  8
AM_VIS
100
AcDbLine
 10
204.386716462978
 20
252.4100021976981
 30
0.0
 11
203.2357873808233
 21
252.4100021976981
 31
0.0
  0
LINE
  5
5F53
330
1E
100
AcDbEntity
  8
AM_VIS
100
AcDbLine
 10
187.2357873808233
 20
238.610002197698
 30
0.0
 11
184.886716462978
 21
238.610002197698
 31
0.0
  0
LINE
  5
5F54
330
1E
100
AcDbEntity
  8
AM_VIS
100
AcDbLine
 10
204.386716462978
 20
238.610002197698
 30
0.0
 11
203.2357873808233
 21
238.610002197698
 31
0.0
  0
LINE
  5
5F55
330
1E
100
AcDbEntity
  8
AM_VIS
100
AcDbLine
 10
183.3867164629779
 20
240.1100021976981
 30
0.0
 11
184.8867164629779
 21
238.610002197698
 31
0.0
  0
LINE
  5
5F56
330
1E
100
AcDbEntity
  8
AM_VIS
100
AcDbLine
 10
183.386716462978
 20
250.9100021976981
 30
0.0
 11
184.886716462978
 21
252.4100021976981
 31
0.0
  0
LINE
  5
5F57
330
1E
100
AcDbEntity
  8
AM_VIS
100
AcDbLine
 10
207.386716462978
 20
251.510002197698
 30
0.0
 11
207.4867164629781
 21
251.510002197698
 31
0.0
  0
LINE
  5
5F58
330
1E
100
AcDbEntity
  8
AM_VIS
100
AcDbLine
 10
207.386716462978
 20
239.510002197698
 30
0.0
 11
207.4867164629781
 21
239.510002197698
 31
0.0
  0
LINE
  5
5F59
330
1E
100
AcDbEntity
  8
AM_VIS
100
AcDbLine
 10
214.386716462978
 20
251.510002197698
 30
0.0
 11
207.4867164629781
 21
251.510002197698
 31
0.0
  0
LINE
  5
5F5A
330
1E
100
AcDbEntity
  8
AM_VIS
100
AcDbLine
 10
207.4867164629781
 20
239.510002197698
 30
0.0
 11
214.386716462978
 21
239.510002197698
 31
0.0
  0
LINE
  5
5F5B
330
1E
100
AcDbEntity
  8
AM_VIS
100
AcDbLine
 10
257.4867164629779
 20
245.510002197698
 30
0.0
 11
257.4867164629779
 21
224.710002197698
 31
0.0
  0
LINE
  5
5F5E
330
1E
100
AcDbEntity
  8
AM_VIS
100
AcDbLine
 10
297.286716462978
 20
224.710002197698
 30
0.0
 11
297.286716462978
 21
245.510002197698
 31
0.0
  0
LINE
  5
5F5F
330
1E
100
AcDbEntity
  8
AM_VIS
100
AcDbLine
 10
257.3867164629779
 20
224.8100021976981
 30
0.0
 11
257.4867164629781
 21
224.710002197698
 31
0.0
  0
LINE
  5
5F60
330
1E
100
AcDbEntity
  8
AM_VIS
100
AcDbLine
 10
257.3867164629779
 20
266.210002197698
 30
0.0
 11
257.4867164629779
 21
266.3100021976981
 31
0.0
  0
LINE
  5
5F61
330
1E
100
AcDbEntity
  8
AM_VIS
100
AcDbLine
 10
297.286716462978
 20
266.3100021976981
 30
0.0
 11
257.4867164629779
 21
266.3100021976981
 31
0.0
  0
LINE
  5
5F62
330
1E
100
AcDbEntity
  8
AM_VIS
100
AcDbLine
 10
297.286716462978
 20
224.710002197698
 30
0.0
 11
257.4867164629779
 21
224.710002197698
 31
0.0
  0
LINE
  5
5F63
330
1E
100
AcDbEntity
  8
AM_VIS
100
AcDbLine
 10
297.3867164629779
 20
266.210002197698
 30
0.0
 11
297.286716462978
 21
266.3100021976981
 31
0.0
  0
LINE
  5
5F64
330
1E
100
AcDbEntity
  8
AM_VIS
100
AcDbLine
 10
297.3867164629779
 20
224.8100021976981
 30
0.0
 11
297.286716462978
 21
224.710002197698
 31
0.0
  0
LINE
  5
5F65
330
1E
100
AcDbEntity
  8
AM_VIS
100
AcDbLine
 10
257.3867164629779
 20
224.260002197698
 30
0.0
 11
257.3867164629779
 21
266.760002197698
 31
0.0
  0
CIRCLE
  5
5F66
330
1E
100
AcDbEntity
  8
AM_VIS
100
AcDbCircle
 10
232.3867164629779
 20
226.510002197698
 30
0.0
 40
5.5
  0
CIRCLE
  5
5F67
330
1E
100
AcDbEntity
  8
AM_VIS
100
AcDbCircle
 10
232.3867164629779
 20
264.510002197698
 30
0.0
 40
5.5
  0
CIRCLE
  5
5F68
330
1E
100
AcDbEntity
  8
AM_VIS
100
AcDbCircle
 10
244.3867164629779
 20
245.510002197698
 30
0.0
 40
5.7225
  0
LINE
  5
5F6A
330
1E
100
AcDbEntity
  8
AM_VIS
100
AcDbLine
 10
214.3867164629779
 20
230.010002197698
 30
0.0
 11
214.3867164629779
 21
261.010002197698
 31
0.0
  0
CIRCLE
  5
5F6C
330
1E
100
AcDbEntity
  8
AM_VIS
100
AcDbCircle
 10
232.3867164629779
 20
264.510002197698
 30
0.0
 40
8.75
  0
CIRCLE
  5
5F6D
330
1E
100
AcDbEntity
  8
AM_VIS
100
AcDbCircle
 10
232.3867164629779
 20
226.510002197698
 30
0.0
 40
8.75
  0
LINE
  5
5F6F
330
1E
100
AcDbEntity
  8
AM_VIS
100
AcDbLine
 10
257.3867164629779
 20
266.760002197698
 30
0.0
 11
254.8867164629779
 21
266.760002197698
 31
0.0
  0
LINE
  5
5F70
330
1E
100
AcDbEntity
  8
AM_VIS
100
AcDbLine
 10
257.3867164629779
 20
224.260002197698
 30
0.0
 11
254.8867164629779
 21
224.260002197698
 31
0.0
  0
LINE
  5
5F71
330
1E
100
AcDbEntity
  8
AM_VIS
100
AcDbLine
 10
217.3867164629779
 20
261.510002197698
 30
0.0
 11
214.8867164629779
 21
261.510002197698
 31
0.0
  0
LINE
  5
5F72
330
1E
100
AcDbEntity
  8
AM_VIS
100
AcDbLine
 10
217.3867164629779
 20
229.510002197698
 30
0.0
 11
214.8867164629779
 21
229.510002197698
 31
0.0
  0
LINE
  5
5F73
330
1E
100
AcDbEntity
  8
AM_VIS
100
AcDbLine
 10
214.3867164629779
 20
230.010002197698
 30
0.0
 11
214.8867164629779
 21
229.510002197698
 31
0.0
  0
LINE
  5
5F74
330
1E
100
AcDbEntity
  8
AM_VIS
100
AcDbLine
 10
214.3867164629779
 20
261.010002197698
 30
0.0
 11
214.8867164629779
 21
261.510002197698
 31
0.0
  0
LINE
  5
5F75
330
1E
100
AcDbEntity
  8
AM_VIS
100
AcDbLine
 10
217.3867164629779
 20
273.760002197698
 30
0.0
 11
217.3867164629779
 21
217.260002197698
 31
0.0
  0
LINE
  5
5F76
330
1E
100
AcDbEntity
  8
AM_VIS
100
AcDbLine
 10
254.8867164629779
 20
217.260002197698
 30
0.0
 11
217.3867164629779
 21
217.260002197698
 31
0.0
  0
LINE
  5
5F77
330
1E
100
AcDbEntity
  8
AM_VIS
100
AcDbLine
 10
217.3867164629779
 20
217.260002197698
 30
0.0
 11
217.3867164629779
 21
216.260002197698
 31
0.0
  0
LINE
  5
5F78
330
1E
100
AcDbEntity
  8
AM_VIS
100
AcDbLine
 10
217.3867164629779
 20
216.260002197698
 30
0.0
 11
254.8867164629779
 21
216.260002197698
 31
0.0
  0
LINE
  5
5F79
330
1E
100
AcDbEntity
  8
AM_VIS
100
AcDbLine
 10
217.3867164629779
 20
273.760002197698
 30
0.0
 11
254.8867164629779
 21
273.760002197698
 31
0.0
  0
LINE
  5
5F7A
330
1E
100
AcDbEntity
  8
AM_VIS
100
AcDbLine
 10
217.3867164629779
 20
274.760002197698
 30
0.0
 11
217.3867164629779
 21
273.760002197698
 31
0.0
  0
LINE
  5
5F7B
330
1E
100
AcDbEntity
  8
AM_VIS
100
AcDbLine
 10
254.8867164629779
 20
274.760002197698
 30
0.0
 11
217.3867164629779
 21
274.760002197698
 31
0.0
  0
LINE
  5
5F7C
330
1E
100
AcDbEntity
  8
AM_VIS
100
AcDbLine
 10
254.8867164629779
 20
216.260002197698
 30
0.0
 11
254.8867164629779
 21
217.260002197698
 31
0.0
  0
LINE
  5
5F7D
330
1E
100
AcDbEntity
  8
AM_VIS
100
AcDbLine
 10
254.8867164629779
 20
273.760002197698
 30
0.0
 11
254.8867164629779
 21
217.260002197698
 31
0.0
  0
LINE
  5
5F7E
330
1E
100
AcDbEntity
  8
AM_VIS
100
AcDbLine
 10
254.8867164629779
 20
273.760002197698
 30
0.0
 11
254.8867164629779
 21
274.760002197698
 31
0.0
  0
LINE
  5
5F7F
330
1E
100
AcDbEntity
  8
AM_VIS
100
AcDbLine
 10
321.3867164629779
 20
245.5100021976981
 30
0.0
 11
321.3867164629779
 21
266.2600021976981
 31
0.0
  0
LINE
  5
5F80
330
1E
100
AcDbEntity
  8
AM_VIS
100
AcDbLine
 10
321.3867164629779
 20
224.7600021976981
 30
0.0
 11
321.3867164629779
 21
245.5100021976981
 31
0.0
  0
LINE
  5
5F81
330
1E
100
AcDbEntity
  8
AM_VIS
100
AcDbLine
 10
319.9433407900039
 20
236.0760210656413
 30
0.0
 11
319.9433407900039
 21
224.2600021976981
 31
0.0
  0
LINE
  5
5F82
330
1E
100
AcDbEntity
  8
AM_VIS
100
AcDbLine
 10
319.9433407900039
 20
266.760002197698
 30
0.0
 11
319.9433407900039
 21
254.9439833297545
 31
0.0
  0
LINE
  5
5F83
330
1E
100
AcDbEntity
  8
AM_VIS
100
AcDbLine
 10
297.3867164629779
 20
224.260002197698
 30
0.0
 11
297.3867164629779
 21
266.760002197698
 31
0.0
  0
LINE
  5
5F84
330
1E
100
AcDbEntity
  8
AM_VIS
100
AcDbLine
 10
299.8867164629779
 20
245.510002197698
 30
0.0
 11
299.8867164629779
 21
266.760002197698
 31
0.0
  0
LINE
  5
5F85
330
1E
100
AcDbEntity
  8
AM_VIS
100
AcDbLine
 10
301.0414170013572
 20
254.9439833297545
 30
0.0
 11
301.0414170013572
 21
266.760002197698
 31
0.0
  0
LINE
  5
5F86
330
1E
100
AcDbEntity
  8
AM_VIS
100
AcDbLine
 10
299.8867164629779
 20
224.260002197698
 30
0.0
 11
299.8867164629779
 21
245.510002197698
 31
0.0
  0
LINE
  5
5F87
330
1E
100
AcDbEntity
  8
AM_VIS
100
AcDbLine
 10
301.0414170013572
 20
224.2600021976981
 30
0.0
 11
301.0414170013572
 21
236.0760210656413
 31
0.0
  0
CIRCLE
  5
5F8A
330
1E
100
AcDbEntity
  8
AM_VIS
100
AcDbCircle
 10
310.3867164629779
 20
245.5100021976979
 30
0.0
 40
5.349999999999999
  0
LINE
  5
5F8B
330
1E
100
AcDbEntity
  8
AM_VIS
100
AcDbLine
 10
321.3867164629779
 20
266.2600021976981
 30
0.0
 11
321.0980413283831
 21
266.7600021976981
 31
0.0
  0
LINE
  5
5F8C
330
1E
100
AcDbEntity
  8
AM_VIS
100
AcDbLine
 10
321.3867164629779
 20
224.7600021976981
 30
0.0
 11
321.0980413283831
 21
224.2600021976981
 31
0.0
  0
LINE
  5
5F8D
330
1E
100
AcDbEntity
  8
AM_VIS
100
AcDbLine
 10
299.8867164629779
 20
266.760002197698
 30
0.0
 11
297.3867164629779
 21
266.760002197698
 31
0.0
  0
LINE
  5
5F8E
330
1E
100
AcDbEntity
  8
AM_VIS
100
AcDbLine
 10
299.8867164629779
 20
224.260002197698
 30
0.0
 11
297.3867164629779
 21
224.260002197698
 31
0.0
  0
LINE
  5
5F8F
330
1E
100
AcDbEntity
  8
AM_VIS
100
AcDbLine
 10
301.0414170013572
 20
224.2600021976981
 30
0.0
 11
319.9433407900039
 21
224.2600021976981
 31
0.0
  0
LINE
  5
5F90
330
1E
100
AcDbEntity
  8
AM_VIS
100
AcDbLine
 10
319.9433407900039
 20
224.2600021976981
 30
0.0
 11
321.0980413283831
 21
224.2600021976981
 31
0.0
  0
LINE
  5
5F91
330
1E
100
AcDbEntity
  8
AM_VIS
100
AcDbLine
 10
319.9433407900039
 20
266.760002197698
 30
0.0
 11
321.0980413283831
 21
266.760002197698
 31
0.0
  0
LINE
  5
5F92
330
1E
100
AcDbEntity
  8
AM_VIS
100
AcDbLine
 10
319.9433407900039
 20
266.760002197698
 30
0.0
 11
301.0414170013572
 21
266.760002197698
 31
0.0
  0
LINE
  5
5F93
330
1E
100
AcDbEntity
  8
AM_VIS
100
AcDbLine
 10
299.8867164629779
 20
266.760002197698
 30
0.0
 11
301.0414170013572
 21
266.760002197698
 31
0.0
  0
LINE
  5
5F94
330
1E
100
AcDbEntity
  8
AM_VIS
100
AcDbLine
 10
299.8867164629779
 20
224.2600021976981
 30
0.0
 11
301.0414170013572
 21
224.2600021976981
 31
0.0
  0
LINE
  5
5F95
330
1E
100
AcDbEntity
  8
AM_VIS
100
AcDbLine
 10
301.0414170013572
 20
254.9439833297545
 30
0.0
 11
319.9433407900039
 21
254.9439833297545
 31
0.0
  0
SPLINE
  5
5F96
330
1E
100
AcDbEntity
  8
AM_VIS
100
AcDbSpline
210
0.0
220
0.0
230
1.0
 70
    12
 71
     2
 72
     6
 73
     3
 74
     0
 42
0.0000000001
 43
0.0000000001
 40
0.0
 40
0.0
 40
0.0
 40
19.00876990584429
 40
19.00876990584429
 40
19.00876990584429
 10
319.9433407900039
 20
236.0760210656413
 30
0.0
 41
1.0
 10
322.1534127881921
 20
245.5100021976977
 30
0.0
 41
1.094117647058826
 10
319.9433407900039
 20
254.9439833297544
 30
0.0
 41
1.0
  0
LINE
  5
5F97
330
1E
100
AcDbEntity
  8
AM_VIS
100
AcDbLine
 10
319.9433407900039
 20
236.0760210656413
 30
0.0
 11
301.0414170013572
 21
236.0760210656413
 31
0.0
  0
SPLINE
  5
5F98
330
1E
100
AcDbEntity
  8
AM_VIS
100
AcDbSpline
210
0.0
220
0.0
230
1.0
 70
    12
 71
     2
 72
     6
 73
     3
 74
     0
 42
0.0000000001
 43
0.0000000001
 40
9.520508869157104
 40
9.520508869157104
 40
9.520508869157104
 40
19.04101773831421
 40
19.04101773831421
 40
19.04101773831421
 10
299.8867164629779
 20
245.5100021976981
 30
0.0
 41
1.0
 10
299.886716462978
 20
241.0050112076708
 30
0.0
 41
1.023258923014792
 10
301.0414170013572
 20
236.0760210656413
 30
0.0
 41
1.0
  0
SPLINE
  5
5F99
330
1E
100
AcDbEntity
  8
AM_VIS
100
AcDbSpline
210
0.0
220
0.0
230
1.0
 70
    12
 71
     2
 72
     6
 73
     3
 74
     0
 42
0.0000000001
 43
0.0000000001
 40
0.0
 40
0.0
 40
0.0
 40
9.520508869157104
 40
9.520508869157104
 40
9.520508869157104
 10
301.0414170013572
 20
254.9439833297544
 30
0.0
 41
1.0
 10
299.8867164629782
 20
250.0149931877249
 30
0.0
 41
1.023258923014802
 10
299.8867164629779
 20
245.5100021976981
 30
0.0
 41
1.0
  0
LINE
  5
5F9A
330
1E
100
AcDbEntity
  8
AM_VIS
100
AcDbLine
 10
187.2357873808233
 20
166.1295747252478
 30
0.0
 11
187.2357873808233
 21
145.1295747252478
 31
0.0
  0
LINE
  5
5F9B
330
1E
100
AcDbEntity
  8
AM_VIS
100
AcDbLine
 10
195.2357873808233
 20
145.1295747252478
 30
0.0
 11
195.2357873808233
 21
166.1295747252478
 31
0.0
  0
LINE
  5
5F9C
330
1E
100
AcDbEntity
  8
AM_VIS
100
AcDbLine
 10
187.2357873808233
 20
145.1295747252478
 30
0.0
 11
188.5069428876656
 21
142.927868803076
 31
0.0
  0
LINE
  5
5F9D
330
1E
100
AcDbEntity
  8
AM_VIS
100
AcDbLine
 10
187.2357873808233
 20
166.1295747252478
 30
0.0
 11
188.5069428876656
 21
168.3312806474196
 31
0.0
  0
LINE
  5
5F9E
330
1E
100
AcDbEntity
  8
AM_VIS
100
AcDbLine
 10
195.2357873808233
 20
166.1295747252478
 30
0.0
 11
193.9646318739811
 21
168.3312806474196
 31
0.0
  0
LINE
  5
5F9F
330
1E
100
AcDbEntity
  8
AM_VIS
100
AcDbLine
 10
195.2357873808233
 20
145.1295747252478
 30
0.0
 11
193.9646318739811
 21
142.927868803076
 31
0.0
  0
SPLINE
  5
5FA0
330
1E
100
AcDbEntity
  8
AM_VIS
100
AcDbSpline
210
0.0
220
0.0
230
1.0
 70
    12
 71
     2
 72
     6
 73
     3
 74
     0
 42
0.0000000001
 43
0.0000000001
 40
3.926122721158657
 40
3.926122721158657
 40
3.926122721158657
 40
18.52382159948499
 40
18.52382159948499
 40
18.52382159948499
 10
188.5069428876658
 20
168.3312806474196
 30
0.0
 41
1.118062981922771
 10
186.6736095543323
 20
165.1558541668767
 30
0.0
 41
1.291027927168136
 10
188.5069428876656
 20
161.9804276863338
 30
0.0
 41
1.118062981922771
  0
LINE
  5
5FA1
330
1E
100
AcDbEntity
  8
AM_VIS
100
AcDbLine
 10
193.9646318739811
 20
168.3312806474196
 30
0.0
 11
188.5069428876656
 21
168.3312806474196
 31
0.0
  0
SPLINE
  5
5FA2
330
1E
100
AcDbEntity
  8
AM_VIS
100
AcDbSpline
210
0.0
220
0.0
230
1.0
 70
    12
 71
     2
 72
     6
 73
     3
 74
     0
 42
0.0000000001
 43
0.0000000001
 40
3.926122721158673
 40
3.926122721158673
 40
3.926122721158673
 40
18.52382159948501
 40
18.52382159948501
 40
18.52382159948501
 10
188.5069428876658
 20
161.9804276863338
 30
0.0
 41
1.118062981922772
 10
186.6736095543325
 20
155.6295747252478
 30
0.0
 41
1.291027927168137
 10
188.5069428876656
 20
149.2787217641618
 30
0.0
 41
1.118062981922771
  0
LINE
  5
5FA3
330
1E
100
AcDbEntity
  8
AM_VIS
100
AcDbLine
 10
193.9646318739811
 20
161.9804276863338
 30
0.0
 11
188.5069428876656
 21
161.9804276863338
 31
0.0
  0
LINE
  5
5FA4
330
1E
100
AcDbEntity
  8
AM_VIS
100
AcDbLine
 10
193.9646318739811
 20
142.927868803076
 30
0.0
 11
188.5069428876656
 21
142.927868803076
 31
0.0
  0
SPLINE
  5
5FA5
330
1E
100
AcDbEntity
  8
AM_VIS
100
AcDbSpline
210
0.0
220
0.0
230
1.0
 70
    12
 71
     2
 72
     6
 73
     3
 74
     0
 42
0.0000000001
 43
0.0000000001
 40
3.92612272115867
 40
3.92612272115867
 40
3.92612272115867
 40
18.52382159948497
 40
18.52382159948497
 40
18.52382159948497
 10
188.5069428876656
 20
149.2787217641619
 30
0.0
 41
1.11806298192277
 10
186.6736095543324
 20
146.103295283619
 30
0.0
 41
1.291027927168133
 10
188.5069428876656
 20
142.9278688030761
 30
0.0
 41
1.118062981922769
  0
LINE
  5
5FA6
330
1E
100
AcDbEntity
  8
AM_VIS
100
AcDbLine
 10
193.9646318739811
 20
149.2787217641619
 30
0.0
 11
188.5069428876656
 21
149.2787217641619
 31
0.0
  0
SPLINE
  5
5FA7
330
1E
100
AcDbEntity
  8
AM_VIS
100
AcDbSpline
210
0.0
220
0.0
230
1.0
 70
    12
 71
     2
 72
     6
 73
     3
 74
     0
 42
0.0000000001
 43
0.0000000001
 40
3.926122721158611
 40
3.926122721158611
 40
3.926122721158611
 40
18.52382159948491
 40
18.52382159948491
 40
18.52382159948491
 10
193.964631873981
 20
142.9278688030761
 30
0.0
 41
1.118062981922769
 10
195.7979652073145
 20
146.103295283619
 30
0.0
 41
1.291027927168133
 10
193.9646318739811
 20
149.2787217641619
 30
0.0
 41
1.11806298192277
  0
SPLINE
  5
5FA8
330
1E
100
AcDbEntity
  8
AM_VIS
100
AcDbSpline
210
0.0
220
0.0
230
1.0
 70
    12
 71
     2
 72
     6
 73
     3
 74
     0
 42
0.0000000001
 43
0.0000000001
 40
3.926122721158631
 40
3.926122721158631
 40
3.926122721158631
 40
18.52382159948498
 40
18.52382159948498
 40
18.52382159948498
 10
193.9646318739812
 20
149.2787217641619
 30
0.0
 41
1.118062981922771
 10
195.7979652073145
 20
155.6295747252478
 30
0.0
 41
1.291027927168138
 10
193.9646318739814
 20
161.9804276863338
 30
0.0
 41
1.118062981922772
  0
SPLINE
  5
5FA9
330
1E
100
AcDbEntity
  8
AM_VIS
100
AcDbSpline
210
0.0
220
0.0
230
1.0
 70
    12
 71
     2
 72
     6
 73
     3
 74
     0
 42
0.0000000001
 43
0.0000000001
 40
3.92612272115867
 40
3.92612272115867
 40
3.92612272115867
 40
18.523821599485
 40
18.523821599485
 40
18.523821599485
 10
193.9646318739814
 20
161.9804276863338
 30
0.0
 41
1.118062981922772
 10
195.7979652073145
 20
165.1558541668767
 30
0.0
 41
1.291027927168137
 10
193.9646318739811
 20
168.3312806474195
 30
0.0
 41
1.118062981922771
  0
LINE
  5
5FAA
330
1E
100
AcDbEntity
  8
AM_VIS
100
AcDbLine
 10
207.386716462978
 20
159.036919732728
 30
0.0
 11
207.386716462978
 21
162.5295747252478
 31
0.0
  0
LINE
  5
5FAB
330
1E
100
AcDbEntity
  8
AM_VIS
100
AcDbLine
 10
207.386716462978
 20
148.7295747252478
 30
0.0
 11
207.386716462978
 21
152.2222297177677
 31
0.0
  0
LINE
  5
5FAC
330
1E
100
AcDbEntity
  8
AM_VIS
100
AcDbLine
 10
207.386716462978
 20
152.2222297177677
 30
0.0
 11
207.386716462978
 21
159.036919732728
 31
0.0
  0
LINE
  5
5FAD
330
1E
100
AcDbEntity
  8
AM_VIS
100
AcDbLine
 10
207.4867164629781
 20
162.6295747252478
 30
0.0
 11
207.4867164629781
 21
159.2351260007118
 31
0.0
  0
LINE
  5
5FAE
330
1E
100
AcDbEntity
  8
AM_VIS
100
AcDbLine
 10
207.4867164629781
 20
152.0240234497838
 30
0.0
 11
207.4867164629781
 21
148.6295747252478
 31
0.0
  0
LINE
  5
5FAF
330
1E
100
AcDbEntity
  8
AM_VIS
100
AcDbLine
 10
204.386716462978
 20
148.7295747252478
 30
0.0
 11
204.386716462978
 21
162.5295747252478
 31
0.0
  0
LINE
  5
5FB0
330
1E
100
AcDbEntity
  8
AM_VIS
100
AcDbLine
 10
184.886716462978
 20
155.6295747252478
 30
0.0
 11
184.886716462978
 21
148.7295747252478
 31
0.0
  0
LINE
  5
5FB1
330
1E
100
AcDbEntity
  8
AM_VIS
100
AcDbLine
 10
184.886716462978
 20
162.5295747252478
 30
0.0
 11
184.886716462978
 21
155.6295747252478
 31
0.0
  0
LINE
  5
5FB2
330
1E
100
AcDbEntity
  8
AM_VIS
100
AcDbLine
 10
183.386716462978
 20
155.6295747252478
 30
0.0
 11
183.386716462978
 21
161.0295747252479
 31
0.0
  0
LINE
  5
5FB3
330
1E
100
AcDbEntity
  8
AM_VIS
100
AcDbLine
 10
183.386716462978
 20
150.2295747252478
 30
0.0
 11
183.386716462978
 21
155.6295747252478
 31
0.0
  0
LINE
  5
5FB4
330
1E
100
AcDbEntity
  8
AM_VIS
100
AcDbLine
 10
207.386716462978
 20
162.5295747252478
 30
0.0
 11
204.386716462978
 21
162.5295747252478
 31
0.0
  0
LINE
  5
5FB5
330
1E
100
AcDbEntity
  8
AM_VIS
100
AcDbLine
 10
207.386716462978
 20
148.7295747252478
 30
0.0
 11
204.386716462978
 21
148.7295747252478
 31
0.0
  0
LINE
  5
5FB6
330
1E
100
AcDbEntity
  8
AM_VIS
100
AcDbLine
 10
207.386716462978
 20
162.5295747252478
 30
0.0
 11
207.4867164629779
 21
162.6295747252478
 31
0.0
  0
LINE
  5
5FB7
330
1E
100
AcDbEntity
  8
AM_VIS
100
AcDbLine
 10
207.386716462978
 20
148.7295747252478
 30
0.0
 11
207.4867164629781
 21
148.6295747252478
 31
0.0
  0
LINE
  5
5FB8
330
1E
100
AcDbEntity
  8
AM_VIS
100
AcDbLine
 10
214.3867164629779
 20
162.6295747252478
 30
0.0
 11
207.4867164629779
 21
162.6295747252478
 31
0.0
  0
LINE
  5
5FB9
330
1E
100
AcDbEntity
  8
AM_VIS
100
AcDbLine
 10
214.3867164629779
 20
148.6295747252478
 30
0.0
 11
207.4867164629781
 21
148.6295747252478
 31
0.0
  0
LINE
  5
5FBA
330
1E
100
AcDbEntity
  8
AM_VIS
100
AcDbLine
 10
187.2357873808233
 20
162.5295747252478
 30
0.0
 11
184.886716462978
 21
162.5295747252478
 31
0.0
  0
LINE
  5
5FBB
330
1E
100
AcDbEntity
  8
AM_VIS
100
AcDbLine
 10
204.386716462978
 20
162.5295747252478
 30
0.0
 11
203.2357873808233
 21
162.5295747252478
 31
0.0
  0
LINE
  5
5FBC
330
1E
100
AcDbEntity
  8
AM_VIS
100
AcDbLine
 10
187.2357873808233
 20
148.7295747252478
 30
0.0
 11
184.886716462978
 21
148.7295747252478
 31
0.0
  0
LINE
  5
5FBD
330
1E
100
AcDbEntity
  8
AM_VIS
100
AcDbLine
 10
204.386716462978
 20
148.7295747252478
 30
0.0
 11
203.2357873808233
 21
148.7295747252478
 31
0.0
  0
LINE
  5
5FBE
330
1E
100
AcDbEntity
  8
AM_VIS
100
AcDbLine
 10
183.386716462978
 20
150.2295747252478
 30
0.0
 11
184.886716462978
 21
148.7295747252478
 31
0.0
  0
LINE
  5
5FBF
330
1E
100
AcDbEntity
  8
AM_VIS
100
AcDbLine
 10
183.386716462978
 20
161.0295747252479
 30
0.0
 11
184.886716462978
 21
162.5295747252478
 31
0.0
  0
SPLINE
  5
5FC0
330
1E
100
AcDbEntity
  8
AM_VIS
100
AcDbSpline
210
0.0
220
0.0
230
1.0
 70
    12
 71
     2
 72
     6
 73
     3
 74
     0
 42
0.0000000001
 43
0.0000000001
 40
0.0
 40
0.0
 40
0.0
 40
0.2220058768699601
 40
0.2220058768699601
 40
0.2220058768699601
 10
207.4867164629781
 20
152.0240234497838
 30
0.0
 41
1.0
 10
207.4353033074142
 20
152.1238395559626
 30
0.0
 41
1.000101681388823
 10
207.386716462978
 20
152.2222297177677
 30
0.0
 41
1.0
  0
SPLINE
  5
5FC1
330
1E
100
AcDbEntity
  8
AM_VIS
100
AcDbSpline
210
0.0
220
0.0
230
1.0
 70
    12
 71
     2
 72
     6
 73
     3
 74
     0
 42
0.0000000001
 43
0.0000000001
 40
0.0
 40
0.0
 40
0.0
 40
0.2220058768699593
 40
0.2220058768699593
 40
0.2220058768699593
 10
207.386716462978
 20
159.0369197327279
 30
0.0
 41
1.0
 10
207.4353033074144
 20
159.1353098945329
 30
0.0
 41
1.000101681370763
 10
207.4867164629781
 20
159.2351260007118
 30
0.0
 41
1.0
  0
LINE
  5
5FC2
330
1E
100
AcDbEntity
  8
AM_VIS
100
AcDbLine
 10
214.386716462978
 20
152.0240234497838
 30
0.0
 11
207.4867164629781
 21
152.0240234497838
 31
0.0
  0
LINE
  5
5FC3
330
1E
100
AcDbEntity
  8
AM_VIS
100
AcDbLine
 10
207.4867164629781
 20
159.2351260007118
 30
0.0
 11
214.386716462978
 21
159.2351260007118
 31
0.0
  0
LINE
  5
5FC6
330
1E
100
AcDbEntity
  8
AM_VIS
100
AcDbLine
 10
257.3867164629779
 20
134.9295747252478
 30
0.0
 11
257.4867164629779
 21
134.8295747252478
 31
0.0
  0
LINE
  5
5FC7
330
1E
100
AcDbEntity
  8
AM_VIS
100
AcDbLine
 10
257.3867164629779
 20
176.3295747252478
 30
0.0
 11
257.4867164629779
 21
176.4295747252478
 31
0.0
  0
LINE
  5
5FC8
330
1E
100
AcDbEntity
  8
AM_VIS
100
AcDbLine
 10
297.286716462978
 20
176.4295747252478
 30
0.0
 11
257.4867164629779
 21
176.4295747252478
 31
0.0
  0
LINE
  5
5FC9
330
1E
100
AcDbEntity
  8
AM_VIS
100
AcDbLine
 10
297.286716462978
 20
134.8295747252478
 30
0.0
 11
257.4867164629779
 21
134.8295747252478
 31
0.0
  0
LINE
  5
5FCA
330
1E
100
AcDbEntity
  8
AM_VIS
100
AcDbLine
 10
297.3867164629779
 20
176.3295747252478
 30
0.0
 11
297.286716462978
 21
176.4295747252478
 31
0.0
  0
LINE
  5
5FCB
330
1E
100
AcDbEntity
  8
AM_VIS
100
AcDbLine
 10
297.3867164629779
 20
134.9295747252478
 30
0.0
 11
297.286716462978
 21
134.8295747252478
 31
0.0
  0
LINE
  5
5FCC
330
1E
100
AcDbEntity
  8
AM_VIS
100
AcDbLine
 10
257.3867164629779
 20
134.3795747252478
 30
0.0
 11
257.3867164629779
 21
176.8795747252478
 31
0.0
  0
LINE
  5
5FCD
330
1E
100
AcDbEntity
  8
AM_VIS
100
AcDbLine
 10
214.8867164629779
 20
155.6295747252478
 30
0.0
 11
214.8867164629779
 21
139.6295747252478
 31
0.0
  0
LINE
  5
5FCF
330
1E
100
AcDbEntity
  8
AM_VIS
100
AcDbLine
 10
214.3867164629779
 20
155.6295747252478
 30
0.0
 11
214.3867164629779
 21
171.1295747252478
 31
0.0
  0
LINE
  5
5FD0
330
1E
100
AcDbEntity
  8
AM_VIS
100
AcDbLine
 10
214.3867164629779
 20
140.1295747252478
 30
0.0
 11
214.3867164629779
 21
155.6295747252478
 31
0.0
  0
LINE
  5
5FD1
330
1E
100
AcDbEntity
  8
AM_VIS
100
AcDbLine
 10
257.3867164629779
 20
176.8795747252478
 30
0.0
 11
254.8867164629779
 21
176.8795747252478
 31
0.0
  0
LINE
  5
5FD2
330
1E
100
AcDbEntity
  8
AM_VIS
100
AcDbLine
 10
257.3867164629779
 20
134.3795747252478
 30
0.0
 11
254.8867164629779
 21
134.3795747252478
 31
0.0
  0
LINE
  5
5FD3
330
1E
100
AcDbEntity
  8
AM_VIS
100
AcDbLine
 10
217.3867164629779
 20
171.6295747252478
 30
0.0
 11
214.8867164629779
 21
171.6295747252478
 31
0.0
  0
LINE
  5
5FD4
330
1E
100
AcDbEntity
  8
AM_VIS
100
AcDbLine
 10
217.3867164629779
 20
139.6295747252478
 30
0.0
 11
214.8867164629779
 21
139.6295747252478
 31
0.0
  0
LINE
  5
5FD5
330
1E
100
AcDbEntity
  8
AM_VIS
100
AcDbLine
 10
214.3867164629779
 20
140.1295747252478
 30
0.0
 11
214.8867164629779
 21
139.6295747252478
 31
0.0
  0
LINE
  5
5FD6
330
1E
100
AcDbEntity
  8
AM_VIS
100
AcDbLine
 10
214.3867164629779
 20
171.1295747252478
 30
0.0
 11
214.8867164629779
 21
171.6295747252478
 31
0.0
  0
LINE
  5
5FD7
330
1E
100
AcDbEntity
  8
AM_VIS
100
AcDbLine
 10
254.8867164629779
 20
181.6295747252478
 30
0.0
 11
217.3867164629779
 21
181.6295747252478
 31
0.0
  0
LINE
  5
5FD8
330
1E
100
AcDbEntity
  8
AM_VIS
100
AcDbLine
 10
217.3867164629779
 20
181.6295747252478
 30
0.0
 11
217.3867164629779
 21
180.6295747252478
 31
0.0
  0
LINE
  5
5FD9
330
1E
100
AcDbEntity
  8
AM_VIS
100
AcDbLine
 10
217.3867164629779
 20
180.6295747252478
 30
0.0
 11
217.3867164629779
 21
130.6295747252478
 31
0.0
  0
LINE
  5
5FDA
330
1E
100
AcDbEntity
  8
AM_VIS
100
AcDbLine
 10
217.3867164629779
 20
180.6295747252478
 30
0.0
 11
254.8867164629779
 21
180.6295747252478
 31
0.0
  0
LINE
  5
5FDB
330
1E
100
AcDbEntity
  8
AM_VIS
100
AcDbLine
 10
254.8867164629779
 20
130.6295747252478
 30
0.0
 11
217.3867164629779
 21
130.6295747252478
 31
0.0
  0
LINE
  5
5FDC
330
1E
100
AcDbEntity
  8
AM_VIS
100
AcDbLine
 10
217.3867164629779
 20
129.6295747252478
 30
0.0
 11
254.8867164629779
 21
129.6295747252478
 31
0.0
  0
LINE
  5
5FDD
330
1E
100
AcDbEntity
  8
AM_VIS
100
AcDbLine
 10
217.3867164629779
 20
130.6295747252478
 30
0.0
 11
217.3867164629779
 21
129.6295747252478
 31
0.0
  0
LINE
  5
5FDE
330
1E
100
AcDbEntity
  8
AM_VIS
100
AcDbLine
 10
254.8867164629779
 20
129.6295747252478
 30
0.0
 11
254.8867164629779
 21
130.6295747252478
 31
0.0
  0
LINE
  5
5FDF
330
1E
100
AcDbEntity
  8
AM_VIS
100
AcDbLine
 10
254.8867164629779
 20
180.6295747252478
 30
0.0
 11
254.8867164629779
 21
130.6295747252478
 31
0.0
  0
LINE
  5
5FE0
330
1E
100
AcDbEntity
  8
AM_VIS
100
AcDbLine
 10
254.8867164629779
 20
180.6295747252478
 30
0.0
 11
254.8867164629779
 21
181.6295747252478
 31
0.0
  0
LINE
  5
5FE1
330
1E
100
AcDbEntity
  8
AM_VIS
100
AcDbLine
 10
321.3867164629779
 20
134.8795747252478
 30
0.0
 11
321.3867164629779
 21
176.3795747252478
 31
0.0
  0
LINE
  5
5FE2
330
1E
100
AcDbEntity
  8
AM_VIS
100
AcDbLine
 10
319.9433407900039
 20
146.1955935931912
 30
0.0
 11
319.9433407900039
 21
134.3795747252478
 31
0.0
  0
LINE
  5
5FE3
330
1E
100
AcDbEntity
  8
AM_VIS
100
AcDbLine
 10
319.9433407900039
 20
176.8795747252477
 30
0.0
 11
319.9433407900039
 21
165.0635558573044
 31
0.0
  0
LINE
  5
5FE4
330
1E
100
AcDbEntity
  8
AM_VIS
100
AcDbLine
 10
297.3867164629779
 20
134.3795747252478
 30
0.0
 11
297.3867164629779
 21
176.8795747252478
 31
0.0
  0
LINE
  5
5FE5
330
1E
100
AcDbEntity
  8
AM_VIS
100
AcDbLine
 10
299.8867164629779
 20
134.3795747252478
 30
0.0
 11
299.8867164629779
 21
155.6295747252478
 31
0.0
  0
LINE
  5
5FE6
330
1E
100
AcDbEntity
  8
AM_VIS
100
AcDbLine
 10
301.0414170013572
 20
134.3795747252478
 30
0.0
 11
301.0414170013572
 21
146.1955935931912
 31
0.0
  0
LINE
  5
5FE7
330
1E
100
AcDbEntity
  8
AM_VIS
100
AcDbLine
 10
299.8867164629779
 20
155.6295747252478
 30
0.0
 11
299.8867164629779
 21
176.8795747252478
 31
0.0
  0
LINE
  5
5FE8
330
1E
100
AcDbEntity
  8
AM_VIS
100
AcDbLine
 10
301.0414170013572
 20
165.0635558573044
 30
0.0
 11
301.0414170013572
 21
176.8795747252477
 31
0.0
  0
LINE
  5
5FE9
330
1E
100
AcDbEntity
  8
AM_VIS
100
AcDbLine
 10
321.3867164629779
 20
176.3795747252478
 30
0.0
 11
321.0980413283831
 21
176.8795747252478
 31
0.0
  0
LINE
  5
5FEA
330
1E
100
AcDbEntity
  8
AM_VIS
100
AcDbLine
 10
321.3867164629779
 20
134.8795747252478
 30
0.0
 11
321.0980413283831
 21
134.3795747252478
 31
0.0
  0
LINE
  5
5FEB
330
1E
100
AcDbEntity
  8
AM_VIS
100
AcDbLine
 10
299.8867164629779
 20
176.8795747252478
 30
0.0
 11
297.3867164629779
 21
176.8795747252478
 31
0.0
  0
LINE
  5
5FEC
330
1E
100
AcDbEntity
  8
AM_VIS
100
AcDbLine
 10
299.8867164629779
 20
134.3795747252478
 30
0.0
 11
297.3867164629779
 21
134.3795747252478
 31
0.0
  0
LINE
  5
5FED
330
1E
100
AcDbEntity
  8
AM_VIS
100
AcDbLine
 10
301.0414170013572
 20
165.0635558573044
 30
0.0
 11
319.9433407900039
 21
165.0635558573044
 31
0.0
  0
LINE
  5
5FEE
330
1E
100
AcDbEntity
  8
AM_VIS
100
AcDbLine
 10
319.9433407900039
 20
146.1955935931912
 30
0.0
 11
301.0414170013572
 21
146.1955935931912
 31
0.0
  0
SPLINE
  5
5FEF
330
1E
100
AcDbEntity
  8
AM_VIS
100
AcDbSpline
210
0.0
220
0.0
230
1.0
 70
    12
 71
     2
 72
     6
 73
     3
 74
     0
 42
0.0000000001
 43
0.0000000001
 40
0.0
 40
0.0
 40
0.0
 40
19.00876990584429
 40
19.00876990584429
 40
19.00876990584429
 10
319.9433407900039
 20
146.1955935931912
 30
0.0
 41
1.0
 10
322.1534127881921
 20
155.6295747252478
 30
0.0
 41
1.094117647058826
 10
319.9433407900039
 20
165.0635558573044
 30
0.0
 41
1.0
  0
LINE
  5
5FF0
330
1E
100
AcDbEntity
  8
AM_VIS
100
AcDbLine
 10
301.0414170013572
 20
134.3795747252478
 30
0.0
 11
319.9433407900039
 21
134.3795747252478
 31
0.0
  0
LINE
  5
5FF1
330
1E
100
AcDbEntity
  8
AM_VIS
100
AcDbLine
 10
319.9433407900039
 20
134.3795747252478
 30
0.0
 11
321.0980413283831
 21
134.3795747252478
 31
0.0
  0
SPLINE
  5
5FF2
330
1E
100
AcDbEntity
  8
AM_VIS
100
AcDbSpline
210
0.0
220
0.0
230
1.0
 70
    12
 71
     2
 72
     6
 73
     3
 74
     0
 42
0.0000000001
 43
0.0000000001
 40
9.520508869157117
 40
9.520508869157117
 40
9.520508869157117
 40
19.04101773831423
 40
19.04101773831423
 40
19.04101773831423
 10
299.8867164629779
 20
155.6295747252478
 30
0.0
 41
1.0
 10
299.8867164629779
 20
151.1245837352208
 30
0.0
 41
1.023258923014815
 10
301.0414170013572
 20
146.1955935931912
 30
0.0
 41
1.0
  0
LINE
  5
5FF3
330
1E
100
AcDbEntity
  8
AM_VIS
100
AcDbLine
 10
299.8867164629779
 20
134.3795747252478
 30
0.0
 11
301.0414170013572
 21
134.3795747252478
 31
0.0
  0
SPLINE
  5
5FF4
330
1E
100
AcDbEntity
  8
AM_VIS
100
AcDbSpline
210
0.0
220
0.0
230
1.0
 70
    12
 71
     2
 72
     6
 73
     3
 74
     0
 42
0.0000000001
 43
0.0000000001
 40
0.0
 40
0.0
 40
0.0
 40
9.520508869157117
 40
9.520508869157117
 40
9.520508869157117
 10
301.0414170013572
 20
165.0635558573044
 30
0.0
 41
1.0
 10
299.8867164629779
 20
160.134565715275
 30
0.0
 41
1.023258923014815
 10
299.8867164629779
 20
155.6295747252478
 30
0.0
 41
1.0
  0
LINE
  5
5FF5
330
1E
100
AcDbEntity
  8
AM_VIS
100
AcDbLine
 10
319.9433407900039
 20
176.8795747252478
 30
0.0
 11
321.0980413283831
 21
176.8795747252478
 31
0.0
  0
LINE
  5
5FF6
330
1E
100
AcDbEntity
  8
AM_VIS
100
AcDbLine
 10
319.9433407900039
 20
176.8795747252477
 30
0.0
 11
301.0414170013572
 21
176.8795747252477
 31
0.0
  0
LINE
  5
5FF7
330
1E
100
AcDbEntity
  8
AM_VIS
100
AcDbLine
 10
299.8867164629779
 20
176.8795747252478
 30
0.0
 11
301.0414170013572
 21
176.8795747252478
 31
0.0
  0
LINE
  5
5FF8
330
1E
100
AcDbEntity
  8
AM_7
100
AcDbLine
 10
384.7390426899359
 20
155.6295747252478
 30
0.0
 11
384.7390426899359
 21
181.8795747252478
 31
0.0
  0
LINE
  5
5FF9
330
1E
100
AcDbEntity
  8
AM_7
100
AcDbLine
 10
384.7390426899359
 20
129.3795747252478
 30
0.0
 11
384.7390426899359
 21
155.6295747252478
 31
0.0
  0
LINE
  5
5FFA
330
1E
100
AcDbEntity
  8
AM_7
100
AcDbLine
 10
384.7390426899359
 20
155.6295747252478
 30
0.0
 11
410.9890426899359
 21
155.6295747252478
 31
0.0
  0
LINE
  5
5FFB
330
1E
100
AcDbEntity
  8
AM_7
100
AcDbLine
 10
358.4890426899359
 20
155.6295747252478
 30
0.0
 11
384.7390426899359
 21
155.6295747252478
 31
0.0
  0
LINE
  5
5FFC
330
1E
100
AcDbEntity
  8
AM_7
100
AcDbLine
 10
384.7390426899359
 20
155.6295747252478
 30
0.0
 11
384.7390426899359
 21
155.6295747252478
 31
0.0
  0
LINE
  5
5FFD
330
1E
100
AcDbEntity
  8
AM_7
100
AcDbLine
 10
384.7390426899359
 20
155.6295747252478
 30
0.0
 11
384.7390426899359
 21
155.6295747252478
 31
0.0
  0
ARC
  5
5FFE
330
1E
100
AcDbEntity
  8
AM_4
100
AcDbCircle
 10
100.662350194915
 20
155.6295747252478
 30
0.0
 40
6.25
100
AcDbArc
 50
260.0000000000014
 51
190.0000000000002
  0
LINE
  5
5FFF
330
1E
100
AcDbEntity
  8
AM_7
100
AcDbLine
 10
100.662350194915
 20
155.6295747252478
 30
0.0
 11
100.662350194915
 21
174.6295747252478
 31
0.0
  0
LINE
  5
6000
330
1E
100
AcDbEntity
  8
AM_7
100
AcDbLine
 10
100.662350194915
 20
136.6295747252478
 30
0.0
 11
100.662350194915
 21
155.6295747252478
 31
0.0
  0
LINE
  5
6001
330
1E
100
AcDbEntity
  8
AM_7
100
AcDbLine
 10
100.662350194915
 20
155.6295747252478
 30
0.0
 11
119.662350194915
 21
155.6295747252478
 31
0.0
  0
LINE
  5
6002
330
1E
100
AcDbEntity
  8
AM_7
100
AcDbLine
 10
81.662350194915
 20
155.6295747252478
 30
0.0
 11
100.662350194915
 21
155.6295747252478
 31
0.0
  0
LINE
  5
6003
330
1E
100
AcDbEntity
  8
AM_7
100
AcDbLine
 10
100.662350194915
 20
155.6295747252478
 30
0.0
 11
100.662350194915
 21
155.6295747252478
 31
0.0
  0
LINE
  5
6004
330
1E
100
AcDbEntity
  8
AM_7
100
AcDbLine
 10
100.662350194915
 20
155.6295747252478
 30
0.0
 11
100.662350194915
 21
155.6295747252478
 31
0.0
  0
LINE
  5
6005
330
1E
100
AcDbEntity
  8
AM_4
100
AcDbLine
 10
185.636716462978
 20
251.760002197698
 30
0.0
 11
187.2357873808234
 21
251.760002197698
 31
0.0
  0
LINE
  5
6006
330
1E
100
AcDbEntity
  8
AM_4
100
AcDbLine
 10
184.886716462978
 20
252.510002197698
 30
0.0
 11
185.636716462978
 21
251.760002197698
 31
0.0
  0
LINE
  5
6007
330
1E
100
AcDbEntity
  8
AM_4
100
AcDbLine
 10
185.636716462978
 20
239.260002197698
 30
0.0
 11
187.2357873808234
 21
239.260002197698
 31
0.0
  0
LINE
  5
6008
330
1E
100
AcDbEntity
  8
AM_4
100
AcDbLine
 10
184.886716462978
 20
238.510002197698
 30
0.0
 11
185.636716462978
 21
239.260002197698
 31
0.0
  0
ARC
  5
6009
330
1E
100
AcDbEntity
  8
AM_4
100
AcDbCircle
 10
244.3867164629779
 20
245.510002197698
 30
0.0
 40
6.5785
100
AcDbArc
 50
260.0000000000014
 51
190.0000000000002
  0
ARC
  5
600A
330
1E
100
AcDbEntity
  8
AM_4
100
AcDbCircle
 10
310.3867164629779
 20
245.5100021976978
 30
0.0
 40
6.349999999999999
100
AcDbArc
 50
260.0000000000014
 51
190.0000000000002
  0
LINE
  5
600B
330
1E
100
AcDbEntity
  8
AM_7
100
AcDbLine
 10
232.3867164629779
 20
264.510002197698
 30
0.0
 11
232.3867164629779
 21
276.260002197698
 31
0.0
  0
LINE
  5
600C
330
1E
100
AcDbEntity
  8
AM_7
100
AcDbLine
 10
232.3867164629779
 20
252.760002197698
 30
0.0
 11
232.3867164629779
 21
264.510002197698
 31
0.0
  0
LINE
  5
600D
330
1E
100
AcDbEntity
  8
AM_7
100
AcDbLine
 10
232.3867164629779
 20
264.510002197698
 30
0.0
 11
244.1367164629779
 21
264.510002197698
 31
0.0
  0
LINE
  5
600E
330
1E
100
AcDbEntity
  8
AM_7
100
AcDbLine
 10
220.6367164629779
 20
264.510002197698
 30
0.0
 11
232.3867164629779
 21
264.510002197698
 31
0.0
  0
LINE
  5
600F
330
1E
100
AcDbEntity
  8
AM_7
100
AcDbLine
 10
232.3867164629779
 20
264.510002197698
 30
0.0
 11
232.3867164629779
 21
264.510002197698
 31
0.0
  0
LINE
  5
6010
330
1E
100
AcDbEntity
  8
AM_7
100
AcDbLine
 10
232.3867164629779
 20
264.510002197698
 30
0.0
 11
232.3867164629779
 21
264.510002197698
 31
0.0
  0
LINE
  5
6011
330
1E
100
AcDbEntity
  8
AM_7
100
AcDbLine
 10
232.3867164629779
 20
226.510002197698
 30
0.0
 11
232.3867164629779
 21
238.260002197698
 31
0.0
  0
LINE
  5
6012
330
1E
100
AcDbEntity
  8
AM_7
100
AcDbLine
 10
232.3867164629779
 20
214.760002197698
 30
0.0
 11
232.3867164629779
 21
226.510002197698
 31
0.0
  0
LINE
  5
6013
330
1E
100
AcDbEntity
  8
AM_7
100
AcDbLine
 10
232.3867164629779
 20
226.510002197698
 30
0.0
 11
244.1367164629779
 21
226.510002197698
 31
0.0
  0
LINE
  5
6014
330
1E
100
AcDbEntity
  8
AM_7
100
AcDbLine
 10
220.6367164629779
 20
226.510002197698
 30
0.0
 11
232.3867164629779
 21
226.510002197698
 31
0.0
  0
LINE
  5
6015
330
1E
100
AcDbEntity
  8
AM_7
100
AcDbLine
 10
232.3867164629779
 20
226.510002197698
 30
0.0
 11
232.3867164629779
 21
226.510002197698
 31
0.0
  0
LINE
  5
6016
330
1E
100
AcDbEntity
  8
AM_7
100
AcDbLine
 10
232.3867164629779
 20
226.510002197698
 30
0.0
 11
232.3867164629779
 21
226.510002197698
 31
0.0
  0
LINE
  5
6017
330
1E
100
AcDbEntity
  8
AM_7
100
AcDbLine
 10
244.3867164629779
 20
245.510002197698
 30
0.0
 11
244.3867164629779
 21
255.210002197698
 31
0.0
  0
LINE
  5
6018
330
1E
100
AcDbEntity
  8
AM_7
100
AcDbLine
 10
244.3867164629779
 20
235.810002197698
 30
0.0
 11
244.3867164629779
 21
245.510002197698
 31
0.0
  0
LINE
  5
6019
330
1E
100
AcDbEntity
  8
AM_7
100
AcDbLine
 10
244.3867164629779
 20
245.510002197698
 30
0.0
 11
254.086716462978
 21
245.510002197698
 31
0.0
  0
LINE
  5
601A
330
1E
100
AcDbEntity
  8
AM_7
100
AcDbLine
 10
234.686716462978
 20
245.510002197698
 30
0.0
 11
244.3867164629779
 21
245.510002197698
 31
0.0
  0
LINE
  5
601B
330
1E
100
AcDbEntity
  8
AM_7
100
AcDbLine
 10
244.3867164629779
 20
245.510002197698
 30
0.0
 11
244.3867164629779
 21
245.510002197698
 31
0.0
  0
LINE
  5
601C
330
1E
100
AcDbEntity
  8
AM_7
100
AcDbLine
 10
244.3867164629779
 20
245.510002197698
 30
0.0
 11
244.3867164629779
 21
245.510002197698
 31
0.0
  0
LINE
  5
601D
330
1E
100
AcDbEntity
  8
AM_7
100
AcDbLine
 10
310.3867164629779
 20
245.5100021976979
 30
0.0
 11
310.3867164629779
 21
253.8600021976979
 31
0.0
  0
LINE
  5
601E
330
1E
100
AcDbEntity
  8
AM_7
100
AcDbLine
 10
310.3867164629779
 20
237.1600021976978
 30
0.0
 11
310.3867164629779
 21
245.5100021976979
 31
0.0
  0
LINE
  5
601F
330
1E
100
AcDbEntity
  8
AM_7
100
AcDbLine
 10
310.3867164629779
 20
245.5100021976979
 30
0.0
 11
318.736716462978
 21
245.5100021976979
 31
0.0
  0
LINE
  5
6020
330
1E
100
AcDbEntity
  8
AM_7
100
AcDbLine
 10
302.036716462978
 20
245.5100021976979
 30
0.0
 11
310.3867164629779
 21
245.5100021976979
 31
0.0
  0
LINE
  5
6021
330
1E
100
AcDbEntity
  8
AM_7
100
AcDbLine
 10
310.3867164629779
 20
245.5100021976979
 30
0.0
 11
310.3867164629779
 21
245.5100021976979
 31
0.0
  0
LINE
  5
6022
330
1E
100
AcDbEntity
  8
AM_7
100
AcDbLine
 10
310.3867164629779
 20
245.5100021976979
 30
0.0
 11
310.3867164629779
 21
245.5100021976979
 31
0.0
  0
LINE
  5
6023
330
1E
100
AcDbEntity
  8
AM_7
100
AcDbLine
 10
324.3867164629779
 20
245.510002197698
 30
0.0
 11
181.8867164629779
 21
245.510002197698
 31
0.0
  0
LINE
  5
6024
330
1E
100
AcDbEntity
  8
AM_4
100
AcDbLine
 10
185.636716462978
 20
161.8795747252478
 30
0.0
 11
187.2357873808234
 21
161.8795747252478
 31
0.0
  0
LINE
  5
6025
330
1E
100
AcDbEntity
  8
AM_4
100
AcDbLine
 10
184.886716462978
 20
162.6295747252478
 30
0.0
 11
185.636716462978
 21
161.8795747252478
 31
0.0
  0
LINE
  5
6026
330
1E
100
AcDbEntity
  8
AM_4
100
AcDbLine
 10
185.636716462978
 20
149.3795747252478
 30
0.0
 11
187.2357873808234
 21
149.3795747252478
 31
0.0
  0
LINE
  5
6027
330
1E
100
AcDbEntity
  8
AM_4
100
AcDbLine
 10
184.886716462978
 20
148.6295747252478
 30
0.0
 11
185.636716462978
 21
149.3795747252478
 31
0.0
  0
LINE
  5
6028
330
1E
100
AcDbEntity
  8
AM_7
100
AcDbLine
 10
324.3867164629779
 20
155.6295747252478
 30
0.0
 11
181.8867164629779
 21
155.6295747252478
 31
0.0
  0
LINE
  5
6029
330
1E
100
AcDbEntity
  8
AM_7
100
AcDbLine
 10
232.3867164629779
 20
181.6295747252478
 30
0.0
 11
232.3867164629779
 21
181.6295747252478
 31
0.0
  0
LINE
  5
602A
330
1E
100
AcDbEntity
  8
AM_7
100
AcDbLine
 10
232.3867164629779
 20
181.6295747252478
 30
0.0
 11
232.3867164629779
 21
181.6295747252478
 31
0.0
  0
LINE
  5
6031
330
1E
100
AcDbEntity
  8
AM_7
100
AcDbLine
 10
232.3867164629779
 20
183.772648444872
 30
0.0
 11
232.3867164629779
 21
166.0041178588778
 31
0.0
1001
GENIUS_GENOBJ-N-CEN_13
1002
{
1000
OWNER
1000
GEN
1002
}
1001
GENIUS_GENODEF_13
1002
{
1000
HIER
1070
     0
1002
}
1002
{
1000
MANEDIT
1070
     0
1002
}
1002
{
1000
NOSEL
1070
     0
1002
}
1002
{
1000
BEHIND
1070
     0
1002
}
1002
{
1000
OTHER
1070
     0
1002
}
1002
{
1000
REACTOR
1002
}
  0
LINE
  5
6039
330
1E
100
AcDbEntity
  8
AM_7
100
AcDbLine
 10
119.662350194915
 20
181.6295747252478
 30
0.0
 11
119.662350194915
 21
181.6295747252478
 31
0.0
  0
LINE
  5
603A
330
1E
100
AcDbEntity
  8
AM_7
100
AcDbLine
 10
119.662350194915
 20
181.6295747252478
 30
0.0
 11
119.662350194915
 21
181.6295747252478
 31
0.0
  0
LINE
  5
6042
330
1E
100
AcDbEntity
  8
AM_7
100
AcDbLine
 10
81.662350194915
 20
181.6295747252478
 30
0.0
 11
81.662350194915
 21
181.6295747252478
 31
0.0
  0
LINE
  5
6043
330
1E
100
AcDbEntity
  8
AM_7
100
AcDbLine
 10
81.662350194915
 20
181.6295747252478
 30
0.0
 11
81.662350194915
 21
181.6295747252478
 31
0.0
  0
LINE
  5
6048
330
1E
100
AcDbEntity
  8
AM_7
100
AcDbLine
 10
310.3867164629779
 20
165.2431747252476
 30
0.0
 11
310.3867164629779
 21
178.3795747252477
 31
0.0
1001
GENIUS_GENODEF_13
1002
{
1000
HIER
1070
     0
1002
}
1002
{
1000
MANEDIT
1070
     0
1002
}
1002
{
1000
NOSEL
1070
     0
1002
}
1002
{
1000
BEHIND
1070
     0
1002
}
1002
{
1000
REACTOR
1002
}
1001
GENIUS_GENOBJ-N-CEN_13
1002
{
1000
OWNER
1000
GEN
1002
}
  0
LINE
  5
604E
330
1E
100
AcDbEntity
  8
AM_7
100
AcDbLine
 10
244.3867164629779
 20
169.9931747252477
 30
0.0
 11
244.3867164629779
 21
183.1295747252478
 31
0.0
1001
GENIUS_GENODEF_13
1002
{
1000
HIER
1070
     0
1002
}
1002
{
1000
MANEDIT
1070
     0
1002
}
1002
{
1000
NOSEL
1070
     0
1002
}
1002
{
1000
BEHIND
1070
     0
1002
}
1002
{
1000
REACTOR
1002
}
1001
GENIUS_GENOBJ-N-CEN_13
1002
{
1000
OWNER
1000
GEN
1002
}
  0
DIMENSION
  5
6054
330
1E
100
AcDbEntity
  8
AM_5
100
AcDbDimension
  2
*D9
 10
141.912350194915
 20
155.6295747252478
 30
0.0
 11
139.6120549193244
 21
142.6295747252478
 31
0.0
 70
    32
 71
     5
 42
26.0
  3
AM_ISO
100
AcDbAlignedDimension
 13
128.912350194915
 23
129.6295747252478
 33
0.0
 14
119.662350194915
 24
155.6295747252478
 34
0.0
 50
90.0
100
AcDbRotatedDimension
  0
DIMENSION
  5
6055
330
1E
100
AcDbEntity
  8
AM_5
100
AcDbDimension
  2
*D10
 10
148.912350194915
 20
181.6295747252478
 30
0.0
 11
146.6120549193244
 21
155.6295747252478
 31
0.0
 70
    32
 71
     5
 42
52.0
  3
AM_ISO
100
AcDbAlignedDimension
 13
128.912350194915
 23
129.6295747252478
 33
0.0
 14
128.912350194915
 24
181.6295747252478
 34
0.0
 50
90.0
100
AcDbRotatedDimension
  0
LINE
  5
6056
330
1E
100
AcDbEntity
  8
0
100
AcDbLine
 10
207.4362966031424
 20
159.1362346923059
 30
0.0
 11
214.3867164629779
 21
152.0240234497838
 31
0.0
  0
LINE
  5
6057
330
1E
100
AcDbEntity
  8
0
100
AcDbLine
 10
207.4362965961278
 20
152.1229147720915
 30
0.0
 11
214.3867164629779
 21
159.2351260007118
 31
0.0
  0
LINE
  5
6058
330
1E
100
AcDbEntity
  8
AM_4
100
AcDbLine
 10
203.2357873808233
 20
161.8795747252478
 30
0.0
 11
204.386716462978
 21
161.8795747252478
 31
0.0
  0
LINE
  5
6059
330
1E
100
AcDbEntity
  8
AM_4
100
AcDbLine
 10
203.2357873808233
 20
149.3795747252478
 30
0.0
 11
204.386716462978
 21
149.3795747252478
 31
0.0
  0
LINE
  5
605A
330
1E
100
AcDbEntity
  8
AM_4
100
AcDbLine
 10
203.2357873808233
 20
251.760002197698
 30
0.0
 11
204.386716462978
 21
251.760002197698
 31
0.0
  0
LINE
  5
605B
330
1E
100
AcDbEntity
  8
AM_4
100
AcDbLine
 10
203.2357873808233
 20
239.260002197698
 30
0.0
 11
204.386716462978
 21
239.260002197698
 31
0.0
  0
SPLINE
  5
605C
330
1E
100
AcDbEntity
  8
AM_VIS
100
AcDbSpline
210
0.0
220
0.0
230
1.0
 70
    12
 71
     2
 72
     6
 73
     3
 74
     0
 42
0.0000000001
 43
0.0000000001
 40
3.926122721158631
 40
3.926122721158631
 40
3.926122721158631
 40
18.52382159948498
 40
18.52382159948498
 40
18.52382159948498
 10
201.9646318739813
 20
149.2787217641619
 30
0.0
 41
1.118062981922771
 10
203.7979652073145
 20
155.6295747252478
 30
0.0
 41
1.291027927168138
 10
201.9646318739813
 20
161.9804276863338
 30
0.0
 41
1.118062981922772
  0
SPLINE
  5
605D
330
1E
100
AcDbEntity
  8
AM_VIS
100
AcDbSpline
210
0.0
220
0.0
230
1.0
 70
    12
 71
     2
 72
     6
 73
     3
 74
     0
 42
0.0000000001
 43
0.0000000001
 40
3.926122721158673
 40
3.926122721158673
 40
3.926122721158673
 40
18.52382159948501
 40
18.52382159948501
 40
18.52382159948501
 10
196.5069428876659
 20
161.9804276863338
 30
0.0
 41
1.118062981922772
 10
194.6736095543324
 20
155.6295747252478
 30
0.0
 41
1.291027927168137
 10
196.5069428876656
 20
149.2787217641618
 30
0.0
 41
1.118062981922771
  0
LINE
  5
605E
330
1E
100
AcDbEntity
  8
AM_VIS
100
AcDbLine
 10
195.2357873808233
 20
166.1295747252478
 30
0.0
 11
195.2357873808233
 21
145.1295747252478
 31
0.0
  0
LINE
  5
605F
330
1E
100
AcDbEntity
  8
AM_VIS
100
AcDbLine
 10
203.2357873808233
 20
145.1295747252478
 30
0.0
 11
203.2357873808233
 21
166.1295747252478
 31
0.0
  0
LINE
  5
6060
330
1E
100
AcDbEntity
  8
AM_VIS
100
AcDbLine
 10
201.9646318739812
 20
149.2787217641619
 30
0.0
 11
196.5069428876656
 21
149.2787217641619
 31
0.0
  0
LINE
  5
6061
330
1E
100
AcDbEntity
  8
AM_VIS
100
AcDbLine
 10
201.9646318739812
 20
142.927868803076
 30
0.0
 11
196.5069428876656
 21
142.927868803076
 31
0.0
  0
SPLINE
  5
6062
330
1E
100
AcDbEntity
  8
AM_VIS
100
AcDbSpline
210
0.0
220
0.0
230
1.0
 70
    12
 71
     2
 72
     6
 73
     3
 74
     0
 42
0.0000000001
 43
0.0000000001
 40
3.92612272115867
 40
3.92612272115867
 40
3.92612272115867
 40
18.52382159948497
 40
18.52382159948497
 40
18.52382159948497
 10
196.5069428876655
 20
149.2787217641619
 30
0.0
 41
1.11806298192277
 10
194.6736095543323
 20
146.103295283619
 30
0.0
 41
1.291027927168133
 10
196.5069428876656
 20
142.9278688030761
 30
0.0
 41
1.118062981922769
  0
LINE
  5
6063
330
1E
100
AcDbEntity
  8
AM_VIS
100
AcDbLine
 10
195.2357873808233
 20
145.1295747252478
 30
0.0
 11
196.5069428876656
 21
142.927868803076
 31
0.0
  0
SPLINE
  5
6064
330
1E
100
AcDbEntity
  8
AM_VIS
100
AcDbSpline
210
0.0
220
0.0
230
1.0
 70
    12
 71
     2
 72
     6
 73
     3
 74
     0
 42
0.0000000001
 43
0.0000000001
 40
3.926122721158611
 40
3.926122721158611
 40
3.926122721158611
 40
18.52382159948491
 40
18.52382159948491
 40
18.52382159948491
 10
201.964631873981
 20
142.9278688030761
 30
0.0
 41
1.118062981922769
 10
203.7979652073145
 20
146.103295283619
 30
0.0
 41
1.291027927168133
 10
201.964631873981
 20
149.2787217641619
 30
0.0
 41
1.11806298192277
  0
LINE
  5
6065
330
1E
100
AcDbEntity
  8
AM_VIS
100
AcDbLine
 10
203.2357873808233
 20
145.1295747252478
 30
0.0
 11
201.9646318739812
 21
142.927868803076
 31
0.0
  0
LINE
  5
6066
330
1E
100
AcDbEntity
  8
AM_VIS
100
AcDbLine
 10
201.9646318739812
 20
161.9804276863338
 30
0.0
 11
196.5069428876656
 21
161.9804276863338
 31
0.0
  0
LINE
  5
6067
330
1E
100
AcDbEntity
  8
AM_VIS
100
AcDbLine
 10
201.9646318739812
 20
168.3312806474196
 30
0.0
 11
196.5069428876656
 21
168.3312806474196
 31
0.0
  0
SPLINE
  5
6068
330
1E
100
AcDbEntity
  8
AM_VIS
100
AcDbSpline
210
0.0
220
0.0
230
1.0
 70
    12
 71
     2
 72
     6
 73
     3
 74
     0
 42
0.0000000001
 43
0.0000000001
 40
3.926122721158657
 40
3.926122721158657
 40
3.926122721158657
 40
18.52382159948499
 40
18.52382159948499
 40
18.52382159948499
 10
196.5069428876658
 20
168.3312806474196
 30
0.0
 41
1.118062981922771
 10
194.6736095543322
 20
165.1558541668767
 30
0.0
 41
1.291027927168136
 10
196.5069428876656
 20
161.9804276863338
 30
0.0
 41
1.118062981922771
  0
LINE
  5
6069
330
1E
100
AcDbEntity
  8
AM_VIS
100
AcDbLine
 10
195.2357873808233
 20
166.1295747252478
 30
0.0
 11
196.5069428876656
 21
168.3312806474196
 31
0.0
  0
SPLINE
  5
606A
330
1E
100
AcDbEntity
  8
AM_VIS
100
AcDbSpline
210
0.0
220
0.0
230
1.0
 70
    12
 71
     2
 72
     6
 73
     3
 74
     0
 42
0.0000000001
 43
0.0000000001
 40
3.92612272115867
 40
3.92612272115867
 40
3.92612272115867
 40
18.523821599485
 40
18.523821599485
 40
18.523821599485
 10
201.9646318739813
 20
161.9804276863338
 30
0.0
 41
1.118062981922772
 10
203.7979652073145
 20
165.1558541668767
 30
0.0
 41
1.291027927168137
 10
201.964631873981
 20
168.3312806474195
 30
0.0
 41
1.118062981922771
  0
LINE
  5
606B
330
1E
100
AcDbEntity
  8
AM_VIS
100
AcDbLine
 10
203.2357873808233
 20
166.1295747252478
 30
0.0
 11
201.9646318739812
 21
168.3312806474196
 31
0.0
  0
SPLINE
  5
606C
330
1E
100
AcDbEntity
  8
AM_VIS
100
AcDbSpline
210
0.0
220
0.0
230
1.0
 70
    12
 71
     2
 72
     6
 73
     3
 74
     0
 42
0.0000000001
 43
0.0000000001
 40
3.92612272115869
 40
3.92612272115869
 40
3.92612272115869
 40
18.523821599485
 40
18.523821599485
 40
18.523821599485
 10
201.964631873981
 20
245.510002197698
 30
0.0
 41
1.118062981922771
 10
203.7979652073144
 20
251.0100021976981
 30
0.0
 41
1.291027927168134
 10
201.964631873981
 20
256.510002197698
 30
0.0
 41
1.118062981922769
  0
SPLINE
  5
606D
330
1E
100
AcDbEntity
  8
AM_VIS
100
AcDbSpline
210
0.0
220
0.0
230
1.0
 70
    12
 71
     2
 72
     6
 73
     3
 74
     0
 42
0.0000000001
 43
0.0000000001
 40
3.926122721158586
 40
3.926122721158586
 40
3.926122721158586
 40
18.5238215994849
 40
18.5238215994849
 40
18.5238215994849
 10
196.5069428876656
 20
256.510002197698
 30
0.0
 41
1.118062981922769
 10
194.6736095543324
 20
251.0100021976982
 30
0.0
 41
1.291027927168135
 10
196.5069428876656
 20
245.510002197698
 30
0.0
 41
1.118062981922772
  0
LINE
  5
606E
330
1E
100
AcDbEntity
  8
AM_VIS
100
AcDbLine
 10
195.2357873808233
 20
256.010002197698
 30
0.0
 11
195.2357873808233
 21
235.010002197698
 31
0.0
  0
LINE
  5
606F
330
1E
100
AcDbEntity
  8
AM_VIS
100
AcDbLine
 10
203.2357873808233
 20
235.010002197698
 30
0.0
 11
203.2357873808233
 21
256.010002197698
 31
0.0
  0
SPLINE
  5
6070
330
1E
100
AcDbEntity
  8
AM_VIS
100
AcDbSpline
210
0.0
220
0.0
230
1.0
 70
    12
 71
     2
 72
     6
 73
     3
 74
     0
 42
0.0000000001
 43
0.0000000001
 40
3.92612272115867
 40
3.92612272115867
 40
3.92612272115867
 40
18.523821599485
 40
18.523821599485
 40
18.523821599485
 10
201.9646318739813
 20
234.510002197698
 30
0.0
 41
1.118062981922772
 10
203.7979652073145
 20
240.0100021976982
 30
0.0
 41
1.291027927168137
 10
201.964631873981
 20
245.510002197698
 30
0.0
 41
1.118062981922771
  0
SPLINE
  5
6071
330
1E
100
AcDbEntity
  8
AM_VIS
100
AcDbSpline
210
0.0
220
0.0
230
1.0
 70
    12
 71
     2
 72
     6
 73
     3
 74
     0
 42
0.0000000001
 43
0.0000000001
 40
3.926122721158657
 40
3.926122721158657
 40
3.926122721158657
 40
18.52382159948499
 40
18.52382159948499
 40
18.52382159948499
 10
196.5069428876658
 20
245.5100021976981
 30
0.0
 41
1.118062981922771
 10
194.6736095543322
 20
240.0100021976979
 30
0.0
 41
1.291027927168136
 10
196.5069428876656
 20
234.5100021976979
 30
0.0
 41
1.118062981922771
  0
LINE
  5
6072
330
1E
100
AcDbEntity
  8
AM_VIS
100
AcDbLine
 10
195.2357873808233
 20
235.010002197698
 30
0.0
 11
195.5244625154182
 21
234.510002197698
 31
0.0
  0
LINE
  5
6073
330
1E
100
AcDbEntity
  8
AM_VIS
100
AcDbLine
 10
203.2357873808233
 20
235.010002197698
 30
0.0
 11
202.9471122462286
 21
234.510002197698
 31
0.0
  0
LINE
  5
6074
330
1E
100
AcDbEntity
  8
AM_VIS
100
AcDbLine
 10
201.9646318739812
 20
234.510002197698
 30
0.0
 11
196.5069428876656
 21
234.510002197698
 31
0.0
  0
LINE
  5
6075
330
1E
100
AcDbEntity
  8
AM_VIS
100
AcDbLine
 10
195.5244625154182
 20
234.510002197698
 30
0.0
 11
196.5069428876656
 21
234.510002197698
 31
0.0
  0
LINE
  5
6076
330
1E
100
AcDbEntity
  8
AM_VIS
100
AcDbLine
 10
201.9646318739812
 20
234.510002197698
 30
0.0
 11
202.9471122462286
 21
234.510002197698
 31
0.0
  0
LINE
  5
6077
330
1E
100
AcDbEntity
  8
AM_VIS
100
AcDbLine
 10
201.9646318739812
 20
245.510002197698
 30
0.0
 11
196.5069428876656
 21
245.510002197698
 31
0.0
  0
LINE
  5
6078
330
1E
100
AcDbEntity
  8
AM_VIS
100
AcDbLine
 10
201.9646318739812
 20
256.510002197698
 30
0.0
 11
196.5069428876656
 21
256.510002197698
 31
0.0
  0
LINE
  5
6079
330
1E
100
AcDbEntity
  8
AM_VIS
100
AcDbLine
 10
195.2357873808233
 20
256.010002197698
 30
0.0
 11
195.5244625154182
 21
256.510002197698
 31
0.0
  0
LINE
  5
607A
330
1E
100
AcDbEntity
  8
AM_VIS
100
AcDbLine
 10
195.5244625154182
 20
256.510002197698
 30
0.0
 11
196.5069428876656
 21
256.510002197698
 31
0.0
  0
LINE
  5
607B
330
1E
100
AcDbEntity
  8
AM_VIS
100
AcDbLine
 10
203.2357873808233
 20
256.010002197698
 30
0.0
 11
202.9471122462286
 21
256.510002197698
 31
0.0
  0
LINE
  5
607C
330
1E
100
AcDbEntity
  8
AM_VIS
100
AcDbLine
 10
201.9646318739812
 20
256.510002197698
 30
0.0
 11
202.9471122462286
 21
256.510002197698
 31
0.0
  0
DIMENSION
  5
607D
330
1E
100
AcDbEntity
  8
AM_5
100
AcDbDimension
  2
*D11
 10
204.386716462978
 20
122.687573699222
 30
0.0
 11
193.886716462978
 21
124.9878689748126
 31
0.0
 70
    32
 71
     5
 42
21.0
  3
AM_ISO
100
AcDbAlignedDimension
 13
183.386716462978
 23
150.2295747252478
 33
0.0
 14
204.386716462978
 24
148.7295747252478
 34
0.0
100
AcDbRotatedDimension
  0
DIMENSION
  5
607E
330
1E
100
AcDbEntity
  8
AM_5
100
AcDbDimension
  2
*D12
 10
207.386716462978
 20
115.687573699222
 30
0.0
 11
195.386716462978
 21
117.9878689748126
 31
0.0
 70
    32
 71
     5
 42
24.0
  3
AM_ISO
100
AcDbAlignedDimension
 13
183.386716462978
 23
150.2295747252478
 33
0.0
 14
207.386716462978
 24
148.7295747252478
 34
0.0
100
AcDbRotatedDimension
  0
DIMENSION
  5
607F
330
1E
100
AcDbEntity
  8
AM_5
100
AcDbDimension
  2
*D13
 10
217.3867164629779
 20
108.6875736992221
 30
0.0
 11
200.386716462978
 21
110.987573699222
 31
0.0
 70
    32
 71
     5
 42
33.99999999999989
  3
AM_ISO
100
AcDbAlignedDimension
 13
183.386716462978
 23
150.2295747252478
 33
0.0
 14
217.3867164629779
 24
129.6295747252478
 34
0.0
100
AcDbRotatedDimension
  0
DIMENSION
  5
6080
330
1E
100
AcDbEntity
  8
AM_5
100
AcDbDimension
  2
*D14
 10
321.3867164629779
 20
108.6875736992221
 30
0.0
 11
269.3867164629779
 21
110.987573699222
 31
0.0
 70
    32
  1
<>+stroke
 71
     5
 42
104.0
  3
AM_ISO
100
AcDbAlignedDimension
 13
217.3867164629779
 23
129.6295747252478
 33
0.0
 14
321.3867164629779
 24
134.8795747252478
 34
0.0
100
AcDbRotatedDimension
  0
DIMENSION
  5
6081
330
1E
100
AcDbEntity
  8
AM_5
100
AcDbDimension
  2
*D15
 10
321.3867164629779
 20
101.687573699222
 30
0.0
 11
252.386716462978
 21
103.987573699222
 31
0.0
 70
    32
  1
<>+stroke
 71
     5
 42
137.9999999999999
  3
AM_ISO
100
AcDbAlignedDimension
 13
183.386716462978
 23
150.2295747252478
 33
0.0
 14
321.3867164629779
 24
134.8795747252478
 34
0.0
100
AcDbRotatedDimension
  0
DIMENSION
  5
6082
330
1E
100
AcDbEntity
  8
AM_5
100
AcDbDimension
  2
*D16
 10
405.9890426899357
 20
117.6295747252478
 30
0.0
 11
384.7390426899358
 21
119.9298700008384
 31
0.0
 70
    32
  1
{\Famgdt;o}<>
 71
     5
 42
42.5
  3
AM_ISO
100
AcDbAlignedDimension
 13
363.4890426899358
 23
146.1955935931912
 33
0.0
 14
405.9890426899357
 24
146.1955935931912
 34
0.0
100
AcDbRotatedDimension
  0
DIMENSION
  5
6083
330
1E
100
AcDbEntity
  8
AM_5
100
AcDbDimension
  2
*D17
 10
371.5210463961759
 20
136.5024454587276
 30
0.0
 11
412.8112821629364
 21
188.2752255225067
 31
0.0
 70
   163
 71
     5
 42
46.50000000000062
  3
AM_ISO$3
100
AcDbDiametricDimension
 15
397.9570389836951
 25
174.7567039917678
 35
0.0
 40
0.0
1001
ACAD
1000
DSTYLE
1002
{
1070
   141
1040
0.0
1070
   172
1070
     1
1002
}
  0
DIMENSION
  5
6084
330
1E
100
AcDbEntity
  8
AM_5
100
AcDbDimension
  2
*D18
 10
174.371144793825
 20
171.6295747252478
 30
0.0
 11
171.1932287222839
 21
155.6295747252479
 31
0.0
 70
    32
  1
%%c<>
 71
     5
 42
32.0
  3
AM_ISO
100
AcDbAlignedDimension
 13
214.8867164629779
 23
139.6295747252478
 33
0.0
 14
214.8867164629779
 24
171.6295747252478
 34
0.0
 50
90.0
100
AcDbRotatedDimension
1001
GENIUS_GENDTOL_13
1000
TolAcTol
1000

1000

1040
32.0
1001
ACAD
1000
DSTYLE
1002
{
1070
    47
1040
0.0
1070
    48
1040
0.039
1070
    71
1070
     1
1070
   272
1070
     3
1002
}
  0
DIMENSION
  5
6085
330
1E
100
AcDbEntity
  8
AM_5
100
AcDbDimension
  2
*D19
 10
171.386716462978
 20
264.510002197698
 30
0.0
 11
169.086716462978
 21
245.510002197698
 31
0.0
 70
    32
 71
     5
 42
38.0
  3
AM_ISO
100
AcDbAlignedDimension
 13
220.6367164629779
 23
226.510002197698
 33
0.0
 14
220.6367164629779
 24
264.510002197698
 34
0.0
 50
90.0
100
AcDbRotatedDimension
  0
DIMENSION
  5
6086
330
1E
100
AcDbEntity
  8
AM_5
100
AcDbDimension
  2
*D20
 10
164.386716462978
 20
274.760002197698
 30
0.0
 11
162.086716462978
 21
245.510002197698
 31
0.0
 70
    32
 71
     5
 42
58.5
  3
AM_ISO
100
AcDbAlignedDimension
 13
217.3867164629779
 23
216.260002197698
 33
0.0
 14
217.3867164629779
 24
274.760002197698
 34
0.0
 50
90.0
100
AcDbRotatedDimension
  0
DIMENSION
  5
6087
330
1E
100
AcDbEntity
  8
AM_5
100
AcDbDimension
  2
*D21
 10
217.3867164629779
 20
204.260002197698
 30
0.0
 11
215.8867164629779
 21
206.560002197698
 31
0.0
 70
    32
 71
     5
 42
3.0
  3
AM_ISO
100
AcDbAlignedDimension
 13
214.3867164629779
 23
230.010002197698
 33
0.0
 14
217.3867164629779
 24
216.260002197698
 34
0.0
100
AcDbRotatedDimension
1001
ACAD
1000
DSTYLE
1002
{
1070
   173
1070
     1
1070
     7
1000
GENDOT
1002
}
  0
DIMENSION
  5
6088
330
1E
100
AcDbEntity
  8
AM_5
100
AcDbDimension
  2
*D22
 10
232.3867164629779
 20
204.260002197698
 30
0.0
 11
224.8867164629779
 21
206.5600021976981
 31
0.0
 70
    32
 71
     5
 42
15.0
  3
AM_ISO
100
AcDbAlignedDimension
 13
217.3867164629779
 23
216.260002197698
 33
0.0
 14
232.3867164629779
 24
214.760002197698
 34
0.0
100
AcDbRotatedDimension
1001
ACAD
1000
DSTYLE
1002
{
1070
   173
1070
     1
1070
     6
1000
GENDOT
1002
}
  0
DIMENSION
  5
6089
330
1E
100
AcDbEntity
  8
AM_5
100
AcDbDimension
  2
*D23
 10
254.8867164629779
 20
197.260002197698
 30
0.0
 11
236.1367164629779
 21
199.560002197698
 31
0.0
 70
    32
 71
     5
 42
37.5
  3
AM_ISO
100
AcDbAlignedDimension
 13
217.3867164629779
 23
216.260002197698
 33
0.0
 14
254.8867164629779
 24
216.260002197698
 34
0.0
100
AcDbRotatedDimension
  0
DIMENSION
  5
608A
330
1E
100
AcDbEntity
  8
AM_5
100
AcDbDimension
  2
*D24
 10
299.8867164629779
 20
212.260002197698
 30
0.0
 11
310.6367164629779
 21
214.5602974732886
 31
0.0
 70
    32
 71
     5
 42
21.5
  3
AM_ISO
100
AcDbAlignedDimension
 13
321.3867164629779
 23
224.7600021976981
 33
0.0
 14
299.8867164629779
 24
224.2600021976981
 34
0.0
100
AcDbRotatedDimension
  0
DIMENSION
  5
608B
330
1E
100
AcDbEntity
  8
AM_5
100
AcDbDimension
  2
*D25
 10
310.3867164629779
 20
278.760002197698
 30
0.0
 11
315.8867164629779
 21
281.060002197698
 31
0.0
 70
    32
 71
     5
 42
11.0
  3
AM_ISO
100
AcDbAlignedDimension
 13
321.3867164629779
 23
266.2600021976981
 33
0.0
 14
310.3867164629779
 24
253.8600021976979
 34
0.0
100
AcDbRotatedDimension
  0
DIMENSION
  5
608C
330
1E
100
AcDbEntity
  8
AM_5
100
AcDbDimension
  2
*D26
 10
244.3867164629779
 20
286.7600021976981
 30
0.0
 11
230.8867164629779
 21
289.0602974732886
 31
0.0
 70
    32
 71
     5
 42
27.0
  3
AM_ISO
100
AcDbAlignedDimension
 13
217.3867164629779
 23
274.760002197698
 33
0.0
 14
244.3867164629779
 24
255.210002197698
 34
0.0
100
AcDbRotatedDimension
  0
INSERT
  5
608D
330
1E
100
AcDbEntity
  8
AM_5
100
AcDbBlockReference
  2
*S6
 10
-289.3811671461138
 20
28.84791482937101
 30
0.0
  0
TEXT
  5
608E
330
1E
100
AcDbEntity
  8
AM_5
100
AcDbText
 10
161.9047724182603
 20
175.9336674322093
 30
0.0
 40
3.0
  1
M14x1.5
100
AcDbText
  0
INSERT
  5
608F
330
1E
100
AcDbEntity
  8
AM_5
100
AcDbBlockReference
  2
*S7
 10
-289.3811671461138
 20
28.84791482937101
 30
0.0
  0
TEXT
  5
6090
330
1E
100
AcDbEntity
  8
AM_5
100
AcDbText
 10
266.9610758932378
 20
215.9968166696965
 30
0.0
 40
3.0
  1
2-PT1/4
100
AcDbText
  0
TEXT
  5
6091
330
1E
100
AcDbEntity
  8
AM_5
100
AcDbText
 10
257.6049729272212
 20
282.1359547758882
 30
0.0
 40
3.0
  1
%%C17.5x12.5L
100
AcDbText
  0
INSERT
  5
6092
330
1E
100
AcDbEntity
  8
AM_5
100
AcDbBlockReference
  2
*S8
 10
-289.3811671461138
 20
28.84791482937101
 30
0.0
  0
TEXT
  5
6093
330
1E
100
AcDbEntity
  8
AM_5
100
AcDbText
 10
257.6049729272212
 20
286.5590836766917
 30
0.0
 40
3.0
  1
%%c11 thru
100
AcDbText
  0
DIMENSION
  5
6094
330
1E
100
AcDbEntity
  8
AM_5
100
AcDbDimension
  2
*D27
 10
210.9367164629779
 20
148.6295747252478
 30
0.0
 11
210.9367164629779
 21
178.6496254277734
 31
0.0
 70
   160
  1
%%c<>
 71
     5
 42
14.0
  3
AM_ISO
100
AcDbAlignedDimension
 13
214.3867164629779
 23
162.6295747252478
 33
0.0
 14
214.3867164629779
 24
148.6295747252478
 34
0.0
 50
90.0
100
AcDbRotatedDimension
  0
LINE
  5
649E
330
1E
100
AcDbEntity
  8
AM_VIS
100
AcDbLine
 10
360.2390426899358
 20
-149.9705235344502
 30
0.0
 11
409.2390426899357
 21
-149.9705235344502
 31
0.0
  0
LINE
  5
649F
330
1E
100
AcDbEntity
  8
AM_VIS
100
AcDbLine
 10
360.2390426899358
 20
-149.9705235344502
 30
0.0
 11
358.7390426899358
 21
-148.4705235344502
 31
0.0
  0
LINE
  5
64A0
330
1E
100
AcDbEntity
  8
AM_VIS
100
AcDbLine
 10
358.7390426899358
 20
-99.4705235344502
 30
0.0
 11
358.7390426899358
 21
-148.4705235344502
 31
0.0
  0
LINE
  5
64A1
330
1E
100
AcDbEntity
  8
AM_VIS
100
AcDbLine
 10
358.7390426899358
 20
-99.4705235344502
 30
0.0
 11
360.2390426899358
 21
-97.97052353445019
 31
0.0
  0
LINE
  5
64A2
330
1E
100
AcDbEntity
  8
AM_VIS
100
AcDbLine
 10
409.2390426899357
 20
-97.97052353445019
 30
0.0
 11
360.2390426899358
 21
-97.97052353445019
 31
0.0
  0
LINE
  5
64A3
330
1E
100
AcDbEntity
  8
AM_VIS
100
AcDbLine
 10
409.2390426899357
 20
-97.97052353445019
 30
0.0
 11
410.7390426899358
 21
-99.4705235344502
 31
0.0
  0
LINE
  5
64A4
330
1E
100
AcDbEntity
  8
AM_VIS
100
AcDbLine
 10
410.7390426899358
 20
-148.4705235344502
 30
0.0
 11
410.7390426899358
 21
-99.4705235344502
 31
0.0
  0
LINE
  5
64A5
330
1E
100
AcDbEntity
  8
AM_VIS
100
AcDbLine
 10
410.7390426899358
 20
-148.4705235344502
 30
0.0
 11
409.2390426899357
 21
-149.9705235344502
 31
0.0
  0
CIRCLE
  5
64A6
330
1E
100
AcDbEntity
  8
AM_VIS
100
AcDbCircle
 10
384.7390426899358
 20
-123.9705235344502
 30
0.0
 40
20.75
  0
ARC
  5
64A7
330
1E
100
AcDbEntity
  8
AM_VIS
100
AcDbCircle
 10
384.7390426899358
 20
-123.9705235344502
 30
0.0
 40
23.25
100
AcDbArc
 50
203.9389262492147
 51
246.0610737507859
  0
ARC
  5
64A8
330
1E
100
AcDbEntity
  8
AM_VIS
100
AcDbCircle
 10
384.7390426899358
 20
-123.9705235344502
 30
0.0
 40
23.25
100
AcDbArc
 50
113.9389262492141
 51
156.0610737507852
  0
ARC
  5
64A9
330
1E
100
AcDbEntity
  8
AM_VIS
100
AcDbCircle
 10
384.7390426899358
 20
-123.9705235344502
 30
0.0
 40
23.25
100
AcDbArc
 50
23.93892624921474
 51
66.06107375078593
  0
ARC
  5
64AA
330
1E
100
AcDbEntity
  8
AM_VIS
100
AcDbCircle
 10
384.7390426899358
 20
-123.9705235344502
 30
0.0
 40
23.25
100
AcDbArc
 50
293.9389262492141
 51
336.0610737507853
  0
LINE
  5
64AB
330
1E
100
AcDbEntity
  8
AM_VIS
100
AcDbLine
 10
363.4890426899358
 20
-114.5365424023936
 30
0.0
 11
363.4890426899358
 21
-133.4045046665068
 31
0.0
  0
LINE
  5
64AC
330
1E
100
AcDbEntity
  8
AM_VIS
100
AcDbLine
 10
405.9890426899357
 20
-114.5365424023935
 30
0.0
 11
405.9890426899357
 21
-133.4045046665066
 31
0.0
  0
LINE
  5
64AD
330
1E
100
AcDbEntity
  8
AM_VIS
100
AcDbLine
 10
375.3050615578793
 20
-145.2205235344502
 30
0.0
 11
394.1730238219925
 21
-145.2205235344502
 31
0.0
  0
LINE
  5
64AE
330
1E
100
AcDbEntity
  8
AM_VIS
100
AcDbLine
 10
375.3050615578788
 20
-102.7205235344502
 30
0.0
 11
394.1730238219923
 21
-102.7205235344502
 31
0.0
  0
CIRCLE
  5
64AF
330
1E
100
AcDbEntity
  8
AM_VIS
100
AcDbCircle
 10
100.662350194915
 20
-123.9705235344501
 30
0.0
 40
10.49999999999999
  0
CIRCLE
  5
64B0
330
1E
100
AcDbEntity
  8
AM_VIS
100
AcDbCircle
 10
100.662350194915
 20
-123.9705235344501
 30
0.0
 40
7.116025403784438
  0
LINE
  5
64B1
330
1E
100
AcDbEntity
  8
AM_VIS
100
AcDbLine
 10
89.66235019491477
 20
-130.3213764955361
 30
0.0
 11
100.662350194915
 21
-136.672229456622
 31
0.0
  0
LINE
  5
64B2
330
1E
100
AcDbEntity
  8
AM_VIS
100
AcDbLine
 10
89.66235019491477
 20
-117.6196705733643
 30
0.0
 11
89.66235019491477
 21
-130.3213764955361
 31
0.0
  0
LINE
  5
64B3
330
1E
100
AcDbEntity
  8
AM_VIS
100
AcDbLine
 10
89.66235019491477
 20
-117.6196705733643
 30
0.0
 11
100.662350194915
 21
-111.2688176122784
 31
0.0
  0
LINE
  5
64B4
330
1E
100
AcDbEntity
  8
AM_VIS
100
AcDbLine
 10
100.662350194915
 20
-111.2688176122784
 30
0.0
 11
111.662350194915
 21
-117.6196705733643
 31
0.0
  0
LINE
  5
64B5
330
1E
100
AcDbEntity
  8
AM_VIS
100
AcDbLine
 10
111.662350194915
 20
-117.6196705733643
 30
0.0
 11
111.662350194915
 21
-130.3213764955361
 31
0.0
  0
LINE
  5
64B6
330
1E
100
AcDbEntity
  8
AM_VIS
100
AcDbLine
 10
100.662350194915
 20
-136.672229456622
 30
0.0
 11
111.662350194915
 21
-130.3213764955361
 31
0.0
  0
CIRCLE
  5
64B7
330
1E
100
AcDbEntity
  8
AM_VIS
100
AcDbCircle
 10
100.662350194915
 20
-123.9705235344501
 30
0.0
 40
6.9
  0
CIRCLE
  5
64B8
330
1E
100
AcDbEntity
  8
AM_VIS
100
AcDbCircle
 10
100.662350194915
 20
-123.9705235344501
 30
0.0
 40
5.4
  0
CIRCLE
  5
64B9
330
1E
100
AcDbEntity
  8
AM_VIS
100
AcDbCircle
 10
100.662350194915
 20
-123.9705235344502
 30
0.0
 40
16.0
  0
CIRCLE
  5
64BA
330
1E
100
AcDbEntity
  8
AM_VIS
100
AcDbCircle
 10
100.662350194915
 20
-123.9705235344502
 30
0.0
 40
15.5
  0
CIRCLE
  5
64BB
330
1E
100
AcDbEntity
  8
AM_VIS
100
AcDbCircle
 10
82.66235019491501
 20
-105.9705235344502
 30
0.0
 40
3.455999999999999
  0
CIRCLE
  5
64BC
330
1E
100
AcDbEntity
  8
AM_VIS
100
AcDbCircle
 10
118.662350194915
 20
-105.9705235344502
 30
0.0
 40
3.455999999999999
  0
CIRCLE
  5
64BD
330
1E
100
AcDbEntity
  8
AM_VIS
100
AcDbCircle
 10
118.662350194915
 20
-141.9705235344502
 30
0.0
 40
3.455999999999999
  0
CIRCLE
  5
64BE
330
1E
100
AcDbEntity
  8
AM_VIS
100
AcDbCircle
 10
82.66235019491501
 20
-141.9705235344502
 30
0.0
 40
3.455999999999999
  0
LINE
  5
64BF
330
1E
100
AcDbEntity
  8
AM_VIS
100
AcDbLine
 10
125.162350194915
 20
-149.9705235344502
 30
0.0
 11
76.16235019491501
 21
-149.9705235344502
 31
0.0
  0
LINE
  5
64C0
330
1E
100
AcDbEntity
  8
AM_VIS
100
AcDbLine
 10
76.16235019491501
 20
-97.97052353445019
 30
0.0
 11
125.162350194915
 21
-97.97052353445019
 31
0.0
  0
LINE
  5
64C1
330
1E
100
AcDbEntity
  8
AM_VIS
100
AcDbLine
 10
125.162350194915
 20
-97.97052353445019
 30
0.0
 11
126.662350194915
 21
-99.4705235344502
 31
0.0
  0
LINE
  5
64C2
330
1E
100
AcDbEntity
  8
AM_VIS
100
AcDbLine
 10
126.662350194915
 20
-99.4705235344502
 30
0.0
 11
126.662350194915
 21
-148.4705235344502
 31
0.0
  0
LINE
  5
64C3
330
1E
100
AcDbEntity
  8
AM_VIS
100
AcDbLine
 10
126.662350194915
 20
-148.4705235344502
 30
0.0
 11
125.162350194915
 21
-149.9705235344502
 31
0.0
  0
LINE
  5
64C4
330
1E
100
AcDbEntity
  8
AM_VIS
100
AcDbLine
 10
74.66235019491501
 20
-99.4705235344502
 30
0.0
 11
76.16235019491501
 21
-97.97052353445019
 31
0.0
  0
LINE
  5
64C5
330
1E
100
AcDbEntity
  8
AM_VIS
100
AcDbLine
 10
74.66235019491501
 20
-148.4705235344502
 30
0.0
 11
74.66235019491501
 21
-99.4705235344502
 31
0.0
  0
LINE
  5
64C6
330
1E
100
AcDbEntity
  8
AM_VIS
100
AcDbLine
 10
76.16235019491501
 20
-149.9705235344502
 30
0.0
 11
74.66235019491501
 21
-148.4705235344502
 31
0.0
  0
LINE
  5
64CB
330
1E
100
AcDbEntity
  8
AM_VIS
100
AcDbLine
 10
257.3867164629778
 20
-54.79009606199998
 30
0.0
 11
257.4867164629779
 21
-54.89009606199999
 31
0.0
  0
LINE
  5
64CC
330
1E
100
AcDbEntity
  8
AM_VIS
100
AcDbLine
 10
257.3867164629778
 20
-13.390096062
 30
0.0
 11
257.4867164629779
 21
-13.29009606199997
 31
0.0
  0
LINE
  5
64CD
330
1E
100
AcDbEntity
  8
AM_VIS
100
AcDbLine
 10
297.2867164629779
 20
-13.29009606199997
 30
0.0
 11
257.4867164629779
 21
-13.29009606199997
 31
0.0
  0
LINE
  5
64CE
330
1E
100
AcDbEntity
  8
AM_VIS
100
AcDbLine
 10
297.2867164629779
 20
-54.89009606199999
 30
0.0
 11
257.4867164629779
 21
-54.89009606199999
 31
0.0
  0
LINE
  5
64CF
330
1E
100
AcDbEntity
  8
AM_VIS
100
AcDbLine
 10
297.3867164629778
 20
-13.390096062
 30
0.0
 11
297.2867164629779
 21
-13.29009606199997
 31
0.0
  0
LINE
  5
64D0
330
1E
100
AcDbEntity
  8
AM_VIS
100
AcDbLine
 10
297.3867164629778
 20
-54.79009606199998
 30
0.0
 11
297.2867164629779
 21
-54.89009606199999
 31
0.0
  0
LINE
  5
64D1
330
1E
100
AcDbEntity
  8
AM_VIS
100
AcDbLine
 10
257.3867164629778
 20
-55.34009606200005
 30
0.0
 11
257.3867164629778
 21
-12.84009606200004
 31
0.0
  0
LINE
  5
64D4
330
1E
100
AcDbEntity
  8
AM_VIS
100
AcDbLine
 10
214.3867164629778
 20
-49.59009606200004
 30
0.0
 11
214.3867164629778
 21
-18.59009606200004
 31
0.0
  0
LINE
  5
64D7
330
1E
100
AcDbEntity
  8
AM_VIS
100
AcDbLine
 10
257.3867164629778
 20
-12.84009606200004
 30
0.0
 11
254.8867164629778
 21
-12.84009606200004
 31
0.0
  0
LINE
  5
64D8
330
1E
100
AcDbEntity
  8
AM_VIS
100
AcDbLine
 10
257.3867164629778
 20
-55.34009606200005
 30
0.0
 11
254.8867164629778
 21
-55.34009606200005
 31
0.0
  0
LINE
  5
64D9
330
1E
100
AcDbEntity
  8
AM_VIS
100
AcDbLine
 10
217.3867164629778
 20
-18.09009606200004
 30
0.0
 11
214.8867164629778
 21
-18.09009606200004
 31
0.0
  0
LINE
  5
64DA
330
1E
100
AcDbEntity
  8
AM_VIS
100
AcDbLine
 10
217.3867164629778
 20
-50.09009606200004
 30
0.0
 11
214.8867164629778
 21
-50.09009606200004
 31
0.0
  0
LINE
  5
64DB
330
1E
100
AcDbEntity
  8
AM_VIS
100
AcDbLine
 10
214.3867164629778
 20
-49.59009606200004
 30
0.0
 11
214.8867164629778
 21
-50.09009606200004
 31
0.0
  0
LINE
  5
64DC
330
1E
100
AcDbEntity
  8
AM_VIS
100
AcDbLine
 10
214.3867164629778
 20
-18.59009606200004
 30
0.0
 11
214.8867164629778
 21
-18.09009606200004
 31
0.0
  0
LINE
  5
64DD
330
1E
100
AcDbEntity
  8
AM_VIS
100
AcDbLine
 10
217.3867164629778
 20
-9.590096062000043
 30
0.0
 11
217.3867164629778
 21
-58.59009606200004
 31
0.0
  0
LINE
  5
64DE
330
1E
100
AcDbEntity
  8
AM_VIS
100
AcDbLine
 10
254.8867164629778
 20
-58.59009606200004
 30
0.0
 11
217.3867164629778
 21
-58.59009606200004
 31
0.0
  0
LINE
  5
64DF
330
1E
100
AcDbEntity
  8
AM_VIS
100
AcDbLine
 10
217.3867164629778
 20
-58.59009606200004
 30
0.0
 11
217.3867164629778
 21
-60.09009606200004
 31
0.0
  0
LINE
  5
64E0
330
1E
100
AcDbEntity
  8
AM_VIS
100
AcDbLine
 10
217.3867164629778
 20
-60.09009606200004
 30
0.0
 11
254.8867164629778
 21
-60.09009606200004
 31
0.0
  0
LINE
  5
64E1
330
1E
100
AcDbEntity
  8
AM_VIS
100
AcDbLine
 10
217.3867164629778
 20
-9.590096062000043
 30
0.0
 11
254.8867164629778
 21
-9.590096062000043
 31
0.0
  0
LINE
  5
64E2
330
1E
100
AcDbEntity
  8
AM_VIS
100
AcDbLine
 10
217.3867164629778
 20
-8.090096062000043
 30
0.0
 11
217.3867164629778
 21
-9.590096062000043
 31
0.0
  0
LINE
  5
64E3
330
1E
100
AcDbEntity
  8
AM_VIS
100
AcDbLine
 10
254.8867164629778
 20
-8.090096062000043
 30
0.0
 11
217.3867164629778
 21
-8.090096062000043
 31
0.0
  0
LINE
  5
64E4
330
1E
100
AcDbEntity
  8
AM_VIS
100
AcDbLine
 10
254.8867164629778
 20
-60.09009606200004
 30
0.0
 11
254.8867164629778
 21
-58.59009606200004
 31
0.0
  0
LINE
  5
64E5
330
1E
100
AcDbEntity
  8
AM_VIS
100
AcDbLine
 10
254.8867164629778
 20
-9.590096062000043
 30
0.0
 11
254.8867164629778
 21
-58.59009606200004
 31
0.0
  0
LINE
  5
64E6
330
1E
100
AcDbEntity
  8
AM_VIS
100
AcDbLine
 10
254.8867164629778
 20
-9.590096062000043
 30
0.0
 11
254.8867164629778
 21
-8.090096062000043
 31
0.0
  0
LINE
  5
64E7
330
1E
100
AcDbEntity
  8
AM_VIS
100
AcDbLine
 10
321.3867164629778
 20
-34.09009606199999
 30
0.0
 11
321.3867164629778
 21
-13.34009606199998
 31
0.0
  0
LINE
  5
64E8
330
1E
100
AcDbEntity
  8
AM_VIS
100
AcDbLine
 10
321.3867164629778
 20
-54.84009606199998
 30
0.0
 11
321.3867164629778
 21
-34.09009606199999
 31
0.0
  0
LINE
  5
64E9
330
1E
100
AcDbEntity
  8
AM_VIS
100
AcDbLine
 10
319.9433407900037
 20
-43.52407719405682
 30
0.0
 11
319.9433407900037
 21
-55.34009606199998
 31
0.0
  0
LINE
  5
64EA
330
1E
100
AcDbEntity
  8
AM_VIS
100
AcDbLine
 10
319.9433407900037
 20
-12.84009606200004
 30
0.0
 11
319.9433407900037
 21
-24.65611492994361
 31
0.0
  0
LINE
  5
64EB
330
1E
100
AcDbEntity
  8
AM_VIS
100
AcDbLine
 10
297.3867164629778
 20
-55.34009606199998
 30
0.0
 11
297.3867164629778
 21
-12.84009606199999
 31
0.0
  0
LINE
  5
64EC
330
1E
100
AcDbEntity
  8
AM_VIS
100
AcDbLine
 10
299.8867164629778
 20
-34.09009606199999
 30
0.0
 11
299.8867164629778
 21
-12.84009606199999
 31
0.0
  0
LINE
  5
64ED
330
1E
100
AcDbEntity
  8
AM_VIS
100
AcDbLine
 10
301.0414170013571
 20
-24.65611492994361
 30
0.0
 11
301.0414170013571
 21
-12.84009606200004
 31
0.0
  0
LINE
  5
64EE
330
1E
100
AcDbEntity
  8
AM_VIS
100
AcDbLine
 10
299.8867164629778
 20
-55.34009606199998
 30
0.0
 11
299.8867164629778
 21
-34.09009606199999
 31
0.0
  0
LINE
  5
64EF
330
1E
100
AcDbEntity
  8
AM_VIS
100
AcDbLine
 10
301.0414170013571
 20
-55.34009606199998
 30
0.0
 11
301.0414170013571
 21
-43.52407719405682
 31
0.0
  0
LINE
  5
64F3
330
1E
100
AcDbEntity
  8
AM_VIS
100
AcDbLine
 10
321.3867164629778
 20
-13.34009606199993
 30
0.0
 11
321.098041328383
 21
-12.84009606199993
 31
0.0
  0
LINE
  5
64F4
330
1E
100
AcDbEntity
  8
AM_VIS
100
AcDbLine
 10
321.3867164629778
 20
-54.84009606199998
 30
0.0
 11
321.098041328383
 21
-55.34009606199998
 31
0.0
  0
LINE
  5
64F5
330
1E
100
AcDbEntity
  8
AM_VIS
100
AcDbLine
 10
299.8867164629778
 20
-12.84009606199999
 30
0.0
 11
297.3867164629778
 21
-12.84009606199999
 31
0.0
  0
LINE
  5
64F6
330
1E
100
AcDbEntity
  8
AM_VIS
100
AcDbLine
 10
299.8867164629778
 20
-55.34009606199998
 30
0.0
 11
297.3867164629778
 21
-55.34009606199998
 31
0.0
  0
LINE
  5
64F7
330
1E
100
AcDbEntity
  8
AM_VIS
100
AcDbLine
 10
301.0414170013571
 20
-55.34009606199998
 30
0.0
 11
319.9433407900037
 21
-55.34009606199998
 31
0.0
  0
LINE
  5
64F8
330
1E
100
AcDbEntity
  8
AM_VIS
100
AcDbLine
 10
319.9433407900039
 20
-55.34009606199998
 30
0.0
 11
321.098041328383
 21
-55.34009606199998
 31
0.0
  0
LINE
  5
64F9
330
1E
100
AcDbEntity
  8
AM_VIS
100
AcDbLine
 10
319.9433407900037
 20
-12.84009606200004
 30
0.0
 11
321.098041328383
 21
-12.84009606200004
 31
0.0
  0
LINE
  5
64FA
330
1E
100
AcDbEntity
  8
AM_VIS
100
AcDbLine
 10
319.9433407900037
 20
-12.84009606200004
 30
0.0
 11
301.0414170013571
 21
-12.84009606200004
 31
0.0
  0
LINE
  5
64FB
330
1E
100
AcDbEntity
  8
AM_VIS
100
AcDbLine
 10
299.8867164629778
 20
-12.84009606200004
 30
0.0
 11
301.0414170013571
 21
-12.84009606200004
 31
0.0
  0
LINE
  5
64FC
330
1E
100
AcDbEntity
  8
AM_VIS
100
AcDbLine
 10
299.8867164629778
 20
-55.34009606199998
 30
0.0
 11
301.0414170013571
 21
-55.34009606199998
 31
0.0
  0
LINE
  5
64FD
330
1E
100
AcDbEntity
  8
AM_VIS
100
AcDbLine
 10
301.0414170013571
 20
-24.65611492994361
 30
0.0
 11
319.9433407900037
 21
-24.65611492994361
 31
0.0
  0
SPLINE
  5
64FE
330
1E
100
AcDbEntity
  8
AM_VIS
100
AcDbSpline
210
0.0
220
0.0
230
1.0
 70
    12
 71
     2
 72
     6
 73
     3
 74
     0
 42
0.0000000001
 43
0.0000000001
 40
0.0
 40
0.0
 40
0.0
 40
19.00876990584429
 40
19.00876990584429
 40
19.00876990584429
 10
319.9433407900037
 20
-43.52407719405675
 30
0.0
 41
1.0
 10
322.1534127881914
 20
-34.09009606200026
 30
0.0
 41
1.094117647058826
 10
319.9433407900037
 20
-24.65611492994361
 30
0.0
 41
1.0
  0
LINE
  5
64FF
330
1E
100
AcDbEntity
  8
AM_VIS
100
AcDbLine
 10
319.9433407900037
 20
-43.52407719405682
 30
0.0
 11
301.0414170013571
 21
-43.52407719405682
 31
0.0
  0
SPLINE
  5
6500
330
1E
100
AcDbEntity
  8
AM_VIS
100
AcDbSpline
210
0.0
220
0.0
230
1.0
 70
    12
 71
     2
 72
     6
 73
     3
 74
     0
 42
0.0000000001
 43
0.0000000001
 40
9.520508869157104
 40
9.520508869157104
 40
9.520508869157104
 40
19.04101773831421
 40
19.04101773831421
 40
19.04101773831421
 10
299.8867164629778
 20
-34.09009606199999
 30
0.0
 41
1.0
 10
299.8867164629782
 20
-38.59508705202717
 30
0.0
 41
1.023258923014792
 10
301.0414170013571
 20
-43.52407719405678
 30
0.0
 41
1.0
  0
SPLINE
  5
6501
330
1E
100
AcDbEntity
  8
AM_VIS
100
AcDbSpline
210
0.0
220
0.0
230
1.0
 70
    12
 71
     2
 72
     6
 73
     3
 74
     0
 42
0.0000000001
 43
0.0000000001
 40
0.0
 40
0.0
 40
0.0
 40
9.520508869157104
 40
9.520508869157104
 40
9.520508869157104
 10
301.0414170013571
 20
-24.65611492994361
 30
0.0
 41
1.0
 10
299.8867164629782
 20
-29.58510507197321
 30
0.0
 41
1.023258923014802
 10
299.8867164629778
 20
-34.09009606199999
 30
0.0
 41
1.0
  0
LINE
  5
6504
330
1E
100
AcDbEntity
  8
AM_VIS
100
AcDbLine
 10
257.3867164629778
 20
-144.6705235344502
 30
0.0
 11
257.4867164629779
 21
-144.7705235344502
 31
0.0
  0
LINE
  5
6505
330
1E
100
AcDbEntity
  8
AM_VIS
100
AcDbLine
 10
257.3867164629778
 20
-103.2705235344502
 30
0.0
 11
257.4867164629779
 21
-103.1705235344501
 31
0.0
  0
LINE
  5
6506
330
1E
100
AcDbEntity
  8
AM_VIS
100
AcDbLine
 10
297.2867164629779
 20
-103.1705235344501
 30
0.0
 11
257.4867164629779
 21
-103.1705235344501
 31
0.0
  0
LINE
  5
6507
330
1E
100
AcDbEntity
  8
AM_VIS
100
AcDbLine
 10
297.2867164629779
 20
-144.7705235344502
 30
0.0
 11
257.4867164629779
 21
-144.7705235344502
 31
0.0
  0
LINE
  5
6508
330
1E
100
AcDbEntity
  8
AM_VIS
100
AcDbLine
 10
297.3867164629778
 20
-103.2705235344502
 30
0.0
 11
297.2867164629779
 21
-103.1705235344501
 31
0.0
  0
LINE
  5
6509
330
1E
100
AcDbEntity
  8
AM_VIS
100
AcDbLine
 10
297.3867164629778
 20
-144.6705235344502
 30
0.0
 11
297.2867164629779
 21
-144.7705235344502
 31
0.0
  0
LINE
  5
650A
330
1E
100
AcDbEntity
  8
AM_VIS
100
AcDbLine
 10
257.3867164629778
 20
-145.2205235344502
 30
0.0
 11
257.3867164629778
 21
-102.7205235344502
 31
0.0
  0
LINE
  5
650D
330
1E
100
AcDbEntity
  8
AM_VIS
100
AcDbLine
 10
214.3867164629778
 20
-123.9705235344502
 30
0.0
 11
214.3867164629778
 21
-108.4705235344502
 31
0.0
  0
LINE
  5
650E
330
1E
100
AcDbEntity
  8
AM_VIS
100
AcDbLine
 10
214.3867164629778
 20
-139.4705235344502
 30
0.0
 11
214.3867164629778
 21
-123.9705235344502
 31
0.0
  0
LINE
  5
650F
330
1E
100
AcDbEntity
  8
AM_VIS
100
AcDbLine
 10
257.3867164629778
 20
-102.7205235344502
 30
0.0
 11
254.8867164629778
 21
-102.7205235344502
 31
0.0
  0
LINE
  5
6510
330
1E
100
AcDbEntity
  8
AM_VIS
100
AcDbLine
 10
257.3867164629778
 20
-145.2205235344502
 30
0.0
 11
254.8867164629778
 21
-145.2205235344502
 31
0.0
  0
LINE
  5
6511
330
1E
100
AcDbEntity
  8
AM_VIS
100
AcDbLine
 10
217.3867164629778
 20
-107.9705235344502
 30
0.0
 11
214.8867164629778
 21
-107.9705235344502
 31
0.0
  0
LINE
  5
6512
330
1E
100
AcDbEntity
  8
AM_VIS
100
AcDbLine
 10
217.3867164629778
 20
-139.9705235344502
 30
0.0
 11
214.8867164629778
 21
-139.9705235344502
 31
0.0
  0
LINE
  5
6513
330
1E
100
AcDbEntity
  8
AM_VIS
100
AcDbLine
 10
214.3867164629778
 20
-139.4705235344502
 30
0.0
 11
214.8867164629778
 21
-139.9705235344502
 31
0.0
  0
LINE
  5
6514
330
1E
100
AcDbEntity
  8
AM_VIS
100
AcDbLine
 10
214.3867164629778
 20
-108.4705235344502
 30
0.0
 11
214.8867164629778
 21
-107.9705235344502
 31
0.0
  0
LINE
  5
6515
330
1E
100
AcDbEntity
  8
AM_VIS
100
AcDbLine
 10
254.8867164629778
 20
-97.97052353445019
 30
0.0
 11
217.3867164629778
 21
-97.97052353445019
 31
0.0
  0
LINE
  5
6516
330
1E
100
AcDbEntity
  8
AM_VIS
100
AcDbLine
 10
217.3867164629778
 20
-97.97052353445019
 30
0.0
 11
217.3867164629778
 21
-99.4705235344502
 31
0.0
  0
LINE
  5
6517
330
1E
100
AcDbEntity
  8
AM_VIS
100
AcDbLine
 10
217.3867164629778
 20
-99.4705235344502
 30
0.0
 11
217.3867164629778
 21
-148.4705235344502
 31
0.0
  0
LINE
  5
6518
330
1E
100
AcDbEntity
  8
AM_VIS
100
AcDbLine
 10
217.3867164629778
 20
-99.4705235344502
 30
0.0
 11
254.8867164629778
 21
-99.4705235344502
 31
0.0
  0
LINE
  5
6519
330
1E
100
AcDbEntity
  8
AM_VIS
100
AcDbLine
 10
254.8867164629778
 20
-148.4705235344502
 30
0.0
 11
217.3867164629778
 21
-148.4705235344502
 31
0.0
  0
LINE
  5
651A
330
1E
100
AcDbEntity
  8
AM_VIS
100
AcDbLine
 10
217.3867164629778
 20
-149.9705235344502
 30
0.0
 11
254.8867164629778
 21
-149.9705235344502
 31
0.0
  0
LINE
  5
651B
330
1E
100
AcDbEntity
  8
AM_VIS
100
AcDbLine
 10
217.3867164629778
 20
-148.4705235344502
 30
0.0
 11
217.3867164629778
 21
-149.9705235344502
 31
0.0
  0
LINE
  5
651C
330
1E
100
AcDbEntity
  8
AM_VIS
100
AcDbLine
 10
254.8867164629778
 20
-149.9705235344502
 30
0.0
 11
254.8867164629778
 21
-148.4705235344502
 31
0.0
  0
LINE
  5
651D
330
1E
100
AcDbEntity
  8
AM_VIS
100
AcDbLine
 10
254.8867164629778
 20
-99.4705235344502
 30
0.0
 11
254.8867164629778
 21
-148.4705235344502
 31
0.0
  0
LINE
  5
651E
330
1E
100
AcDbEntity
  8
AM_VIS
100
AcDbLine
 10
254.8867164629778
 20
-99.4705235344502
 30
0.0
 11
254.8867164629778
 21
-97.97052353445019
 31
0.0
  0
LINE
  5
651F
330
1E
100
AcDbEntity
  8
AM_VIS
100
AcDbLine
 10
321.3867164629778
 20
-144.7205235344502
 30
0.0
 11
321.3867164629778
 21
-103.2205235344502
 31
0.0
  0
LINE
  5
6520
330
1E
100
AcDbEntity
  8
AM_VIS
100
AcDbLine
 10
319.9433407900037
 20
-133.4045046665068
 30
0.0
 11
319.9433407900037
 21
-145.2205235344502
 31
0.0
  0
LINE
  5
6521
330
1E
100
AcDbEntity
  8
AM_VIS
100
AcDbLine
 10
319.9433407900037
 20
-102.7205235344503
 30
0.0
 11
319.9433407900037
 21
-114.5365424023936
 31
0.0
  0
LINE
  5
6522
330
1E
100
AcDbEntity
  8
AM_VIS
100
AcDbLine
 10
297.3867164629778
 20
-145.2205235344502
 30
0.0
 11
297.3867164629778
 21
-102.7205235344502
 31
0.0
  0
LINE
  5
6523
330
1E
100
AcDbEntity
  8
AM_VIS
100
AcDbLine
 10
299.8867164629778
 20
-145.2205235344502
 30
0.0
 11
299.8867164629778
 21
-123.9705235344502
 31
0.0
  0
LINE
  5
6524
330
1E
100
AcDbEntity
  8
AM_VIS
100
AcDbLine
 10
301.0414170013571
 20
-145.2205235344502
 30
0.0
 11
301.0414170013571
 21
-133.4045046665068
 31
0.0
  0
LINE
  5
6525
330
1E
100
AcDbEntity
  8
AM_VIS
100
AcDbLine
 10
299.8867164629778
 20
-123.9705235344502
 30
0.0
 11
299.8867164629778
 21
-102.7205235344502
 31
0.0
  0
LINE
  5
6526
330
1E
100
AcDbEntity
  8
AM_VIS
100
AcDbLine
 10
301.0414170013571
 20
-114.5365424023935
 30
0.0
 11
301.0414170013571
 21
-102.7205235344503
 31
0.0
  0
LINE
  5
6527
330
1E
100
AcDbEntity
  8
AM_VIS
100
AcDbLine
 10
321.3867164629778
 20
-103.2205235344502
 30
0.0
 11
321.098041328383
 21
-102.7205235344502
 31
0.0
  0
LINE
  5
6528
330
1E
100
AcDbEntity
  8
AM_VIS
100
AcDbLine
 10
321.3867164629778
 20
-144.7205235344502
 30
0.0
 11
321.098041328383
 21
-145.2205235344502
 31
0.0
  0
LINE
  5
6529
330
1E
100
AcDbEntity
  8
AM_VIS
100
AcDbLine
 10
299.8867164629778
 20
-102.7205235344502
 30
0.0
 11
297.3867164629778
 21
-102.7205235344502
 31
0.0
  0
LINE
  5
652A
330
1E
100
AcDbEntity
  8
AM_VIS
100
AcDbLine
 10
299.8867164629778
 20
-145.2205235344502
 30
0.0
 11
297.3867164629778
 21
-145.2205235344502
 31
0.0
  0
LINE
  5
652B
330
1E
100
AcDbEntity
  8
AM_VIS
100
AcDbLine
 10
301.0414170013571
 20
-114.5365424023936
 30
0.0
 11
319.9433407900037
 21
-114.5365424023936
 31
0.0
  0
LINE
  5
652C
330
1E
100
AcDbEntity
  8
AM_VIS
100
AcDbLine
 10
319.9433407900037
 20
-133.4045046665068
 30
0.0
 11
301.0414170013571
 21
-133.4045046665068
 31
0.0
  0
SPLINE
  5
652D
330
1E
100
AcDbEntity
  8
AM_VIS
100
AcDbSpline
210
0.0
220
0.0
230
1.0
 70
    12
 71
     2
 72
     6
 73
     3
 74
     0
 42
0.0000000001
 43
0.0000000001
 40
0.0
 40
0.0
 40
0.0
 40
19.00876990584429
 40
19.00876990584429
 40
19.00876990584429
 10
319.9433407900039
 20
-133.4045046665067
 30
0.0
 41
1.0
 10
322.1534127881914
 20
-123.9705235344502
 30
0.0
 41
1.094117647058826
 10
319.9433407900039
 20
-114.5365424023936
 30
0.0
 41
1.0
  0
LINE
  5
652E
330
1E
100
AcDbEntity
  8
AM_VIS
100
AcDbLine
 10
301.0414170013571
 20
-145.2205235344502
 30
0.0
 11
319.9433407900037
 21
-145.2205235344502
 31
0.0
  0
LINE
  5
652F
330
1E
100
AcDbEntity
  8
AM_VIS
100
AcDbLine
 10
319.9433407900037
 20
-145.2205235344502
 30
0.0
 11
321.098041328383
 21
-145.2205235344502
 31
0.0
  0
SPLINE
  5
6530
330
1E
100
AcDbEntity
  8
AM_VIS
100
AcDbSpline
210
0.0
220
0.0
230
1.0
 70
    12
 71
     2
 72
     6
 73
     3
 74
     0
 42
0.0000000001
 43
0.0000000001
 40
9.520508869157117
 40
9.520508869157117
 40
9.520508869157117
 40
19.04101773831423
 40
19.04101773831423
 40
19.04101773831423
 10
299.8867164629778
 20
-123.9705235344502
 30
0.0
 41
1.0
 10
299.8867164629782
 20
-128.4755145244772
 30
0.0
 41
1.023258923014815
 10
301.0414170013571
 20
-133.4045046665068
 30
0.0
 41
1.0
  0
LINE
  5
6531
330
1E
100
AcDbEntity
  8
AM_VIS
100
AcDbLine
 10
299.8867164629778
 20
-145.2205235344502
 30
0.0
 11
301.0414170013571
 21
-145.2205235344502
 31
0.0
  0
SPLINE
  5
6532
330
1E
100
AcDbEntity
  8
AM_VIS
100
AcDbSpline
210
0.0
220
0.0
230
1.0
 70
    12
 71
     2
 72
     6
 73
     3
 74
     0
 42
0.0000000001
 43
0.0000000001
 40
0.0
 40
0.0
 40
0.0
 40
9.520508869157117
 40
9.520508869157117
 40
9.520508869157117
 10
301.0414170013571
 20
-114.5365424023936
 30
0.0
 41
1.0
 10
299.8867164629782
 20
-119.4655325444231
 30
0.0
 41
1.023258923014815
 10
299.8867164629778
 20
-123.9705235344502
 30
0.0
 41
1.0
  0
LINE
  5
6533
330
1E
100
AcDbEntity
  8
AM_VIS
100
AcDbLine
 10
319.9433407900037
 20
-102.7205235344502
 30
0.0
 11
321.098041328383
 21
-102.7205235344502
 31
0.0
  0
LINE
  5
6534
330
1E
100
AcDbEntity
  8
AM_VIS
100
AcDbLine
 10
319.9433407900037
 20
-102.7205235344503
 30
0.0
 11
301.0414170013571
 21
-102.7205235344503
 31
0.0
  0
LINE
  5
6535
330
1E
100
AcDbEntity
  8
AM_VIS
100
AcDbLine
 10
299.8867164629778
 20
-102.7205235344502
 30
0.0
 11
301.0414170013571
 21
-102.7205235344502
 31
0.0
  0
LINE
  5
6536
330
1E
100
AcDbEntity
  8
AM_7
100
AcDbLine
 10
384.7390426899358
 20
-122.1705235344502
 30
0.0
 11
384.7390426899358
 21
-99.12052353445018
 31
0.0
  0
LINE
  5
6537
330
1E
100
AcDbEntity
  8
AM_7
100
AcDbLine
 10
384.7390426899358
 20
-148.8205235344502
 30
0.0
 11
384.7390426899358
 21
-125.7705235344502
 31
0.0
  0
LINE
  5
6538
330
1E
100
AcDbEntity
  8
AM_7
100
AcDbLine
 10
386.539042689936
 20
-123.9705235344502
 30
0.0
 11
409.5890426899357
 21
-123.9705235344502
 31
0.0
  0
LINE
  5
6539
330
1E
100
AcDbEntity
  8
AM_7
100
AcDbLine
 10
359.8890426899359
 20
-123.9705235344502
 30
0.0
 11
382.9390426899356
 21
-123.9705235344502
 31
0.0
  0
LINE
  5
653A
330
1E
100
AcDbEntity
  8
AM_7
100
AcDbLine
 10
384.7390426899358
 20
-124.9705235344502
 30
0.0
 11
384.7390426899358
 21
-122.9705235344502
 31
0.0
  0
LINE
  5
653B
330
1E
100
AcDbEntity
  8
AM_7
100
AcDbLine
 10
383.7390426899358
 20
-123.9705235344502
 30
0.0
 11
385.7390426899358
 21
-123.9705235344502
 31
0.0
  0
CIRCLE
  5
653C
330
1E
100
AcDbEntity
  8
AM_4
  6
HIDDEN2
100
AcDbCircle
 10
100.662350194915
 20
-123.9705235344501
 30
0.0
 40
6.25
  0
CIRCLE
  5
653D
330
1E
100
AcDbEntity
  8
AM_4
  6
HIDDEN2
100
AcDbCircle
 10
82.66235019491501
 20
-105.9705235344502
 30
0.0
 40
4.169999999999999
  0
CIRCLE
  5
653E
330
1E
100
AcDbEntity
  8
AM_4
  6
HIDDEN2
100
AcDbCircle
 10
118.662350194915
 20
-105.9705235344502
 30
0.0
 40
4.169999999999999
  0
CIRCLE
  5
653F
330
1E
100
AcDbEntity
  8
AM_4
  6
HIDDEN2
100
AcDbCircle
 10
118.662350194915
 20
-141.9705235344502
 30
0.0
 40
4.169999999999999
  0
CIRCLE
  5
6540
330
1E
100
AcDbEntity
  8
AM_4
  6
HIDDEN2
100
AcDbCircle
 10
82.66235019491501
 20
-141.9705235344502
 30
0.0
 40
4.169999999999999
  0
LINE
  5
6541
330
1E
100
AcDbEntity
  8
AM_7
100
AcDbLine
 10
100.662350194915
 20
-122.1705235344502
 30
0.0
 11
100.662350194915
 21
-106.3705235344502
 31
0.0
  0
LINE
  5
6542
330
1E
100
AcDbEntity
  8
AM_7
100
AcDbLine
 10
100.662350194915
 20
-141.5705235344502
 30
0.0
 11
100.662350194915
 21
-125.7705235344502
 31
0.0
  0
LINE
  5
6543
330
1E
100
AcDbEntity
  8
AM_7
100
AcDbLine
 10
102.4623501949149
 20
-123.9705235344502
 30
0.0
 11
118.2623501949149
 21
-123.9705235344502
 31
0.0
  0
LINE
  5
6544
330
1E
100
AcDbEntity
  8
AM_7
100
AcDbLine
 10
83.06235019491486
 20
-123.9705235344502
 30
0.0
 11
98.86235019491483
 21
-123.9705235344502
 31
0.0
  0
LINE
  5
6545
330
1E
100
AcDbEntity
  8
AM_7
100
AcDbLine
 10
100.662350194915
 20
-124.9705235344502
 30
0.0
 11
100.662350194915
 21
-122.9705235344502
 31
0.0
  0
LINE
  5
6546
330
1E
100
AcDbEntity
  8
AM_7
100
AcDbLine
 10
99.66235019491501
 20
-123.9705235344502
 30
0.0
 11
101.662350194915
 21
-123.9705235344502
 31
0.0
  0
LINE
  5
6547
330
1E
100
AcDbEntity
  8
AM_7
100
AcDbLine
 10
82.66235019491501
 20
-104.1705235344501
 30
0.0
 11
82.66235019491501
 21
-100.9145235344502
 31
0.0
  0
LINE
  5
6548
330
1E
100
AcDbEntity
  8
AM_7
100
AcDbLine
 10
82.66235019491501
 20
-111.0265235344501
 30
0.0
 11
82.66235019491501
 21
-107.7705235344502
 31
0.0
  0
LINE
  5
6549
330
1E
100
AcDbEntity
  8
AM_7
100
AcDbLine
 10
84.46235019491496
 20
-105.9705235344502
 30
0.0
 11
87.71835019491504
 21
-105.9705235344502
 31
0.0
  0
LINE
  5
654A
330
1E
100
AcDbEntity
  8
AM_7
100
AcDbLine
 10
77.60635019491497
 20
-105.9705235344502
 30
0.0
 11
80.86235019491482
 21
-105.9705235344502
 31
0.0
  0
LINE
  5
654B
330
1E
100
AcDbEntity
  8
AM_7
100
AcDbLine
 10
82.66235019491501
 20
-106.9705235344502
 30
0.0
 11
82.66235019491501
 21
-104.9705235344502
 31
0.0
  0
LINE
  5
654C
330
1E
100
AcDbEntity
  8
AM_7
100
AcDbLine
 10
81.662350194915
 20
-105.9705235344502
 30
0.0
 11
83.66235019491501
 21
-105.9705235344502
 31
0.0
  0
LINE
  5
654D
330
1E
100
AcDbEntity
  8
AM_7
100
AcDbLine
 10
118.662350194915
 20
-104.1705235344501
 30
0.0
 11
118.662350194915
 21
-100.9145235344502
 31
0.0
  0
LINE
  5
654E
330
1E
100
AcDbEntity
  8
AM_7
100
AcDbLine
 10
118.662350194915
 20
-111.0265235344501
 30
0.0
 11
118.662350194915
 21
-107.7705235344502
 31
0.0
  0
LINE
  5
654F
330
1E
100
AcDbEntity
  8
AM_7
100
AcDbLine
 10
120.4623501949149
 20
-105.9705235344502
 30
0.0
 11
123.718350194915
 21
-105.9705235344502
 31
0.0
  0
LINE
  5
6550
330
1E
100
AcDbEntity
  8
AM_7
100
AcDbLine
 10
113.6063501949149
 20
-105.9705235344502
 30
0.0
 11
116.8623501949148
 21
-105.9705235344502
 31
0.0
  0
LINE
  5
6551
330
1E
100
AcDbEntity
  8
AM_7
100
AcDbLine
 10
118.662350194915
 20
-106.9705235344502
 30
0.0
 11
118.662350194915
 21
-104.9705235344502
 31
0.0
  0
LINE
  5
6552
330
1E
100
AcDbEntity
  8
AM_7
100
AcDbLine
 10
117.662350194915
 20
-105.9705235344502
 30
0.0
 11
119.662350194915
 21
-105.9705235344502
 31
0.0
  0
LINE
  5
6553
330
1E
100
AcDbEntity
  8
AM_7
100
AcDbLine
 10
118.662350194915
 20
-140.1705235344502
 30
0.0
 11
118.662350194915
 21
-136.9145235344502
 31
0.0
  0
LINE
  5
6554
330
1E
100
AcDbEntity
  8
AM_7
100
AcDbLine
 10
118.662350194915
 20
-147.0265235344502
 30
0.0
 11
118.662350194915
 21
-143.7705235344502
 31
0.0
  0
LINE
  5
6555
330
1E
100
AcDbEntity
  8
AM_7
100
AcDbLine
 10
120.4623501949149
 20
-141.9705235344502
 30
0.0
 11
123.718350194915
 21
-141.9705235344502
 31
0.0
  0
LINE
  5
6556
330
1E
100
AcDbEntity
  8
AM_7
100
AcDbLine
 10
113.6063501949149
 20
-141.9705235344502
 30
0.0
 11
116.8623501949148
 21
-141.9705235344502
 31
0.0
  0
LINE
  5
6557
330
1E
100
AcDbEntity
  8
AM_7
100
AcDbLine
 10
118.662350194915
 20
-142.9705235344502
 30
0.0
 11
118.662350194915
 21
-140.9705235344502
 31
0.0
  0
LINE
  5
6558
330
1E
100
AcDbEntity
  8
AM_7
100
AcDbLine
 10
117.662350194915
 20
-141.9705235344502
 30
0.0
 11
119.662350194915
 21
-141.9705235344502
 31
0.0
  0
LINE
  5
6559
330
1E
100
AcDbEntity
  8
AM_7
100
AcDbLine
 10
82.66235019491501
 20
-140.1705235344502
 30
0.0
 11
82.66235019491501
 21
-136.9145235344502
 31
0.0
  0
LINE
  5
655A
330
1E
100
AcDbEntity
  8
AM_7
100
AcDbLine
 10
82.66235019491501
 20
-147.0265235344502
 30
0.0
 11
82.66235019491501
 21
-143.7705235344502
 31
0.0
  0
LINE
  5
655B
330
1E
100
AcDbEntity
  8
AM_7
100
AcDbLine
 10
84.46235019491496
 20
-141.9705235344502
 30
0.0
 11
87.71835019491504
 21
-141.9705235344502
 31
0.0
  0
LINE
  5
655C
330
1E
100
AcDbEntity
  8
AM_7
100
AcDbLine
 10
77.60635019491497
 20
-141.9705235344502
 30
0.0
 11
80.86235019491482
 21
-141.9705235344502
 31
0.0
  0
LINE
  5
655D
330
1E
100
AcDbEntity
  8
AM_7
100
AcDbLine
 10
82.66235019491501
 20
-142.9705235344502
 30
0.0
 11
82.66235019491501
 21
-140.9705235344502
 31
0.0
  0
LINE
  5
655E
330
1E
100
AcDbEntity
  8
AM_7
100
AcDbLine
 10
81.662350194915
 20
-141.9705235344502
 30
0.0
 11
83.66235019491501
 21
-141.9705235344502
 31
0.0
  0
LINE
  5
6561
330
1E
100
AcDbEntity
  8
AM_7
100
AcDbLine
 10
244.3867164629778
 20
-32.29009606199998
 30
0.0
 11
244.3867164629778
 21
-25.79009606199998
 31
0.0
  0
LINE
  5
6562
330
1E
100
AcDbEntity
  8
AM_7
100
AcDbLine
 10
244.3867164629778
 20
-42.39009606199999
 30
0.0
 11
244.3867164629778
 21
-35.890096062
 31
0.0
  0
LINE
  5
6563
330
1E
100
AcDbEntity
  8
AM_7
100
AcDbLine
 10
246.1867164629778
 20
-34.09009606199999
 30
0.0
 11
252.6867164629778
 21
-34.09009606199999
 31
0.0
  0
LINE
  5
6564
330
1E
100
AcDbEntity
  8
AM_7
100
AcDbLine
 10
236.0867164629778
 20
-34.09009606199999
 30
0.0
 11
242.5867164629778
 21
-34.09009606199999
 31
0.0
  0
LINE
  5
6565
330
1E
100
AcDbEntity
  8
AM_7
100
AcDbLine
 10
244.3867164629778
 20
-35.09009606199999
 30
0.0
 11
244.3867164629778
 21
-33.09009606199999
 31
0.0
  0
LINE
  5
6566
330
1E
100
AcDbEntity
  8
AM_7
100
AcDbLine
 10
243.3867164629778
 20
-34.09009606199999
 30
0.0
 11
245.3867164629778
 21
-34.09009606199999
 31
0.0
  0
LINE
  5
6567
330
1E
100
AcDbEntity
  8
AM_7
100
AcDbLine
 10
310.3867164629778
 20
-32.29009606200009
 30
0.0
 11
310.3867164629778
 21
-27.14009606200011
 31
0.0
  0
LINE
  5
6568
330
1E
100
AcDbEntity
  8
AM_7
100
AcDbLine
 10
310.3867164629778
 20
-41.04009606200008
 30
0.0
 11
310.3867164629778
 21
-35.89009606200011
 31
0.0
  0
LINE
  5
6569
330
1E
100
AcDbEntity
  8
AM_7
100
AcDbLine
 10
312.1867164629778
 20
-34.09009606200016
 30
0.0
 11
317.3367164629778
 21
-34.09009606200016
 31
0.0
  0
LINE
  5
656A
330
1E
100
AcDbEntity
  8
AM_7
100
AcDbLine
 10
303.4367164629778
 20
-34.09009606200016
 30
0.0
 11
308.5867164629779
 21
-34.09009606200016
 31
0.0
  0
LINE
  5
656B
330
1E
100
AcDbEntity
  8
AM_7
100
AcDbLine
 10
310.3867164629778
 20
-35.09009606200016
 30
0.0
 11
310.3867164629778
 21
-33.09009606200016
 31
0.0
  0
LINE
  5
656C
330
1E
100
AcDbEntity
  8
AM_7
100
AcDbLine
 10
309.3867164629778
 20
-34.09009606200016
 30
0.0
 11
311.3867164629778
 21
-34.09009606200016
 31
0.0
  0
LINE
  5
656D
330
1E
100
AcDbEntity
  8
AM_7
100
AcDbLine
 10
322.986716462978
 20
-34.09009606199993
 30
0.0
 11
182.3628274269051
 21
-34.09009606200005
 31
0.0
  0
LINE
  5
656E
330
1E
100
AcDbEntity
  8
AM_7
100
AcDbLine
 10
322.986716462978
 20
-123.9705235344502
 30
0.0
 11
181.5947268783754
 21
-123.9705235344502
 31
0.0
  0
LINE
  5
65A7
330
1E
100
AcDbEntity
  8
AM_VIS
100
AcDbLine
 10
203.2357873808233
 20
-134.4705235344502
 30
0.0
 11
201.964631873981
 21
-136.672229456622
 31
0.0
  0
SPLINE
  5
65A8
330
1E
100
AcDbEntity
  8
AM_VIS
100
AcDbSpline
210
0.0
220
0.0
230
1.0
 70
    12
 71
     2
 72
     6
 73
     3
 74
     0
 42
0.0000000001
 43
0.0000000001
 40
3.926122721158611
 40
3.926122721158611
 40
3.926122721158611
 40
18.52382159948491
 40
18.52382159948491
 40
18.52382159948491
 10
201.9646318739806
 20
-136.6722294566219
 30
0.0
 41
1.118062981922769
 10
203.7979652073145
 20
-133.496802976079
 30
0.0
 41
1.291027927168133
 10
201.964631873981
 20
-130.3213764955361
 30
0.0
 41
1.11806298192277
  0
LINE
  5
65A9
330
1E
100
AcDbEntity
  8
AM_VIS
100
AcDbLine
 10
195.2357873808232
 20
-134.4705235344502
 30
0.0
 11
196.5069428876656
 21
-136.672229456622
 31
0.0
  0
SPLINE
  5
65AA
330
1E
100
AcDbEntity
  8
AM_VIS
100
AcDbSpline
210
0.0
220
0.0
230
1.0
 70
    12
 71
     2
 72
     6
 73
     3
 74
     0
 42
0.0000000001
 43
0.0000000001
 40
3.92612272115867
 40
3.92612272115867
 40
3.92612272115867
 40
18.52382159948497
 40
18.52382159948497
 40
18.52382159948497
 10
196.5069428876658
 20
-130.3213764955361
 30
0.0
 41
1.11806298192277
 10
194.6736095543322
 20
-133.496802976079
 30
0.0
 41
1.291027927168133
 10
196.5069428876652
 20
-136.6722294566219
 30
0.0
 41
1.118062981922769
  0
SPLINE
  5
65AB
330
1E
100
AcDbEntity
  8
AM_VIS
100
AcDbSpline
210
0.0
220
0.0
230
1.0
 70
    12
 71
     2
 72
     6
 73
     3
 74
     0
 42
0.0000000001
 43
0.0000000001
 40
3.926122721158611
 40
3.926122721158611
 40
3.926122721158611
 40
18.52382159948491
 40
18.52382159948491
 40
18.52382159948491
 10
193.9646318739806
 20
-136.6722294566219
 30
0.0
 41
1.118062981922769
 10
195.7979652073145
 20
-133.496802976079
 30
0.0
 41
1.291027927168133
 10
193.9646318739814
 20
-130.3213764955361
 30
0.0
 41
1.11806298192277
  0
LINE
  5
65AC
330
1E
100
AcDbEntity
  8
AM_VIS
100
AcDbLine
 10
195.2357873808232
 20
-134.4705235344502
 30
0.0
 11
193.964631873981
 21
-136.672229456622
 31
0.0
  0
SPLINE
  5
65AD
330
1E
100
AcDbEntity
  8
AM_VIS
100
AcDbSpline
210
0.0
220
0.0
230
1.0
 70
    12
 71
     2
 72
     6
 73
     3
 74
     0
 42
0.0000000001
 43
0.0000000001
 40
3.92612272115867
 40
3.92612272115867
 40
3.92612272115867
 40
18.52382159948497
 40
18.52382159948497
 40
18.52382159948497
 10
188.5069428876654
 20
-130.3213764955361
 30
0.0
 41
1.11806298192277
 10
186.6736095543323
 20
-133.496802976079
 30
0.0
 41
1.291027927168133
 10
188.5069428876656
 20
-136.6722294566219
 30
0.0
 41
1.118062981922769
  0
LINE
  5
65AE
330
1E
100
AcDbEntity
  8
AM_VIS
100
AcDbLine
 10
187.2357873808232
 20
-134.4705235344502
 30
0.0
 11
188.5069428876656
 21
-136.672229456622
 31
0.0
  0
LINE
  5
65AF
330
1E
100
AcDbEntity
  8
AM_VIS
100
AcDbLine
 10
193.964631873981
 20
-136.672229456622
 30
0.0
 11
188.5069428876656
 21
-136.672229456622
 31
0.0
  0
LINE
  5
65B0
330
1E
100
AcDbEntity
  8
AM_VIS
100
AcDbLine
 10
201.964631873981
 20
-136.672229456622
 30
0.0
 11
196.5069428876656
 21
-136.672229456622
 31
0.0
  0
LINE
  5
65B1
330
1E
100
AcDbEntity
  8
AM_VIS
100
AcDbLine
 10
187.2357873808232
 20
-113.4705235344502
 30
0.0
 11
188.5069428876656
 21
-111.2688176122784
 31
0.0
  0
LINE
  5
65B2
330
1E
100
AcDbEntity
  8
AM_VIS
100
AcDbLine
 10
187.2357873808232
 20
-113.4705235344502
 30
0.0
 11
187.2357873808232
 21
-134.4705235344502
 31
0.0
  0
LINE
  5
65B3
330
1E
100
AcDbEntity
  8
AM_VIS
100
AcDbLine
 10
183.386716462978
 20
-129.3705235344502
 30
0.0
 11
183.386716462978
 21
-123.9705235344502
 31
0.0
  0
LINE
  5
65B4
330
1E
100
AcDbEntity
  8
AM_VIS
100
AcDbLine
 10
184.886716462978
 20
-123.9705235344502
 30
0.0
 11
184.886716462978
 21
-130.8705235344501
 31
0.0
  0
LINE
  5
65B5
330
1E
100
AcDbEntity
  8
AM_4
100
AcDbLine
 10
184.886716462978
 20
-130.9705235344502
 30
0.0
 11
185.636716462978
 21
-130.2205235344502
 31
0.0
  0
LINE
  5
65B6
330
1E
100
AcDbEntity
  8
AM_VIS
100
AcDbLine
 10
183.386716462978
 20
-129.3705235344502
 30
0.0
 11
184.886716462978
 21
-130.8705235344501
 31
0.0
  0
LINE
  5
65B7
330
1E
100
AcDbEntity
  8
AM_VIS
100
AcDbLine
 10
187.2357873808232
 20
-130.8705235344501
 30
0.0
 11
184.886716462978
 21
-130.8705235344501
 31
0.0
  0
LINE
  5
65B8
330
1E
100
AcDbEntity
  8
AM_4
100
AcDbLine
 10
185.636716462978
 20
-130.2205235344502
 30
0.0
 11
187.2357873808232
 21
-130.2205235344502
 31
0.0
  0
LINE
  5
65B9
330
1E
100
AcDbEntity
  8
AM_VIS
100
AcDbLine
 10
187.2357873808232
 20
-117.0705235344501
 30
0.0
 11
184.886716462978
 21
-117.0705235344501
 31
0.0
  0
LINE
  5
65BA
330
1E
100
AcDbEntity
  8
AM_VIS
100
AcDbLine
 10
183.386716462978
 20
-123.9705235344502
 30
0.0
 11
183.386716462978
 21
-118.5705235344501
 31
0.0
  0
LINE
  5
65BB
330
1E
100
AcDbEntity
  8
AM_4
100
AcDbLine
 10
185.636716462978
 20
-117.7205235344502
 30
0.0
 11
187.2357873808232
 21
-117.7205235344502
 31
0.0
  0
LINE
  5
65BC
330
1E
100
AcDbEntity
  8
AM_VIS
100
AcDbLine
 10
183.386716462978
 20
-118.5705235344501
 30
0.0
 11
184.886716462978
 21
-117.0705235344501
 31
0.0
  0
LINE
  5
65BD
330
1E
100
AcDbEntity
  8
AM_4
100
AcDbLine
 10
184.886716462978
 20
-116.9705235344502
 30
0.0
 11
185.636716462978
 21
-117.7205235344502
 31
0.0
  0
LINE
  5
65BE
330
1E
100
AcDbEntity
  8
AM_VIS
100
AcDbLine
 10
184.886716462978
 20
-117.0705235344501
 30
0.0
 11
184.886716462978
 21
-123.9705235344502
 31
0.0
  0
SPLINE
  5
65BF
330
1E
100
AcDbEntity
  8
AM_VIS
100
AcDbSpline
210
0.0
220
0.0
230
1.0
 70
    12
 71
     2
 72
     6
 73
     3
 74
     0
 42
0.0000000001
 43
0.0000000001
 40
3.92612272115867
 40
3.92612272115867
 40
3.92612272115867
 40
18.523821599485
 40
18.523821599485
 40
18.523821599485
 10
201.9646318739813
 20
-117.6196705733642
 30
0.0
 41
1.118062981922772
 10
203.7979652073148
 20
-114.4442440928213
 30
0.0
 41
1.291027927168137
 10
201.9646318739799
 20
-111.2688176122784
 30
0.0
 41
1.118062981922771
  0
SPLINE
  5
65C0
330
1E
100
AcDbEntity
  8
AM_VIS
100
AcDbSpline
210
0.0
220
0.0
230
1.0
 70
    12
 71
     2
 72
     6
 73
     3
 74
     0
 42
0.0000000001
 43
0.0000000001
 40
3.926122721158657
 40
3.926122721158657
 40
3.926122721158657
 40
18.52382159948499
 40
18.52382159948499
 40
18.52382159948499
 10
196.5069428876662
 20
-111.2688176122786
 30
0.0
 41
1.118062981922771
 10
194.6736095543322
 20
-114.4442440928213
 30
0.0
 41
1.291027927168136
 10
196.5069428876651
 20
-117.6196705733642
 30
0.0
 41
1.118062981922771
  0
SPLINE
  5
65C1
330
1E
100
AcDbEntity
  8
AM_VIS
100
AcDbSpline
210
0.0
220
0.0
230
1.0
 70
    12
 71
     2
 72
     6
 73
     3
 74
     0
 42
0.0000000001
 43
0.0000000001
 40
3.92612272115867
 40
3.92612272115867
 40
3.92612272115867
 40
18.523821599485
 40
18.523821599485
 40
18.523821599485
 10
193.9646318739817
 20
-117.6196705733642
 30
0.0
 41
1.118062981922772
 10
195.7979652073147
 20
-114.4442440928213
 30
0.0
 41
1.291027927168137
 10
193.9646318739806
 20
-111.2688176122784
 30
0.0
 41
1.118062981922771
  0
SPLINE
  5
65C2
330
1E
100
AcDbEntity
  8
AM_VIS
100
AcDbSpline
210
0.0
220
0.0
230
1.0
 70
    12
 71
     2
 72
     6
 73
     3
 74
     0
 42
0.0000000001
 43
0.0000000001
 40
3.926122721158657
 40
3.926122721158657
 40
3.926122721158657
 40
18.52382159948499
 40
18.52382159948499
 40
18.52382159948499
 10
188.5069428876661
 20
-111.2688176122786
 30
0.0
 41
1.118062981922771
 10
186.6736095543317
 20
-114.4442440928213
 30
0.0
 41
1.291027927168136
 10
188.5069428876647
 20
-117.6196705733642
 30
0.0
 41
1.118062981922771
  0
LINE
  5
65C3
330
1E
100
AcDbEntity
  8
AM_VIS
100
AcDbLine
 10
203.2357873808233
 20
-134.4705235344502
 30
0.0
 11
203.2357873808233
 21
-113.4705235344502
 31
0.0
  0
LINE
  5
65C4
330
1E
100
AcDbEntity
  8
AM_VIS
100
AcDbLine
 10
195.2357873808232
 20
-113.4705235344502
 30
0.0
 11
195.2357873808232
 21
-134.4705235344502
 31
0.0
  0
LINE
  5
65C5
330
1E
100
AcDbEntity
  8
AM_VIS
100
AcDbLine
 10
195.2357873808232
 20
-134.4705235344502
 30
0.0
 11
195.2357873808232
 21
-113.4705235344502
 31
0.0
  0
LINE
  5
65C6
330
1E
100
AcDbEntity
  8
AM_VIS
100
AcDbLine
 10
204.386716462978
 20
-117.0705235344501
 30
0.0
 11
203.2357873808233
 21
-117.0705235344501
 31
0.0
  0
LINE
  5
65C7
330
1E
100
AcDbEntity
  8
AM_4
100
AcDbLine
 10
203.2357873808233
 20
-117.7205235344502
 30
0.0
 11
204.386716462978
 21
-117.7205235344502
 31
0.0
  0
LINE
  5
65C8
330
1E
100
AcDbEntity
  8
AM_VIS
100
AcDbLine
 10
204.386716462978
 20
-130.8705235344501
 30
0.0
 11
203.2357873808233
 21
-130.8705235344501
 31
0.0
  0
LINE
  5
65C9
330
1E
100
AcDbEntity
  8
AM_4
100
AcDbLine
 10
203.2357873808233
 20
-130.2205235344502
 30
0.0
 11
204.386716462978
 21
-130.2205235344502
 31
0.0
  0
SPLINE
  5
65CA
330
1E
100
AcDbEntity
  8
AM_VIS
100
AcDbSpline
210
0.0
220
0.0
230
1.0
 70
    12
 71
     2
 72
     6
 73
     3
 74
     0
 42
0.0000000001
 43
0.0000000001
 40
3.926122721158673
 40
3.926122721158673
 40
3.926122721158673
 40
18.52382159948501
 40
18.52382159948501
 40
18.52382159948501
 10
196.5069428876659
 20
-117.6196705733642
 30
0.0
 41
1.118062981922772
 10
194.6736095543327
 20
-123.9705235344502
 30
0.0
 41
1.291027927168137
 10
196.5069428876651
 20
-130.3213764955361
 30
0.0
 41
1.118062981922771
  0
SPLINE
  5
65CB
330
1E
100
AcDbEntity
  8
AM_VIS
100
AcDbSpline
210
0.0
220
0.0
230
1.0
 70
    12
 71
     2
 72
     6
 73
     3
 74
     0
 42
0.0000000001
 43
0.0000000001
 40
3.926122721158631
 40
3.926122721158631
 40
3.926122721158631
 40
18.52382159948498
 40
18.52382159948498
 40
18.52382159948498
 10
201.9646318739808
 20
-130.3213764955361
 30
0.0
 41
1.118062981922771
 10
203.797965207314
 20
-123.9705235344501
 30
0.0
 41
1.291027927168138
 10
201.9646318739813
 20
-117.6196705733642
 30
0.0
 41
1.118062981922772
  0
SPLINE
  5
65CC
330
1E
100
AcDbEntity
  8
AM_VIS
100
AcDbSpline
210
0.0
220
0.0
230
1.0
 70
    12
 71
     2
 72
     6
 73
     3
 74
     0
 42
0.0000000001
 43
0.0000000001
 40
3.926122721158631
 40
3.926122721158631
 40
3.926122721158631
 40
18.52382159948498
 40
18.52382159948498
 40
18.52382159948498
 10
193.964631873981
 20
-130.3213764955361
 30
0.0
 41
1.118062981922771
 10
195.7979652073143
 20
-123.9705235344501
 30
0.0
 41
1.291027927168138
 10
193.9646318739817
 20
-117.6196705733642
 30
0.0
 41
1.118062981922772
  0
SPLINE
  5
65CD
330
1E
100
AcDbEntity
  8
AM_VIS
100
AcDbSpline
210
0.0
220
0.0
230
1.0
 70
    12
 71
     2
 72
     6
 73
     3
 74
     0
 42
0.0000000001
 43
0.0000000001
 40
3.926122721158673
 40
3.926122721158673
 40
3.926122721158673
 40
18.52382159948501
 40
18.52382159948501
 40
18.52382159948501
 10
188.5069428876661
 20
-117.6196705733642
 30
0.0
 41
1.118062981922772
 10
186.6736095543326
 20
-123.9705235344502
 30
0.0
 41
1.291027927168137
 10
188.5069428876647
 20
-130.3213764955361
 30
0.0
 41
1.118062981922771
  0
LINE
  5
65CE
330
1E
100
AcDbEntity
  8
AM_VIS
100
AcDbLine
 10
193.964631873981
 20
-130.3213764955361
 30
0.0
 11
188.5069428876656
 21
-130.3213764955361
 31
0.0
  0
LINE
  5
65CF
330
1E
100
AcDbEntity
  8
AM_VIS
100
AcDbLine
 10
201.964631873981
 20
-130.3213764955361
 30
0.0
 11
196.5069428876656
 21
-130.3213764955361
 31
0.0
  0
LINE
  5
65D0
330
1E
100
AcDbEntity
  8
AM_VIS
100
AcDbLine
 10
193.964631873981
 20
-117.6196705733642
 30
0.0
 11
188.5069428876656
 21
-117.6196705733642
 31
0.0
  0
LINE
  5
65D1
330
1E
100
AcDbEntity
  8
AM_VIS
100
AcDbLine
 10
201.964631873981
 20
-117.6196705733642
 30
0.0
 11
196.5069428876656
 21
-117.6196705733642
 31
0.0
  0
LINE
  5
65D2
330
1E
100
AcDbEntity
  8
0
100
AcDbLine
 10
207.4362965961277
 20
-127.4771834876065
 30
0.0
 11
214.3867164629778
 21
-120.3649722589862
 31
0.0
  0
LINE
  5
65D3
330
1E
100
AcDbEntity
  8
0
100
AcDbLine
 10
207.4362966031422
 20
-120.4638635673921
 30
0.0
 11
214.3867164629778
 21
-127.5760748099142
 31
0.0
  0
LINE
  5
65D4
330
1E
100
AcDbEntity
  8
AM_VIS
100
AcDbLine
 10
207.386716462978
 20
-127.3778685419303
 30
0.0
 11
207.386716462978
 21
-120.56317852697
 31
0.0
  0
LINE
  5
65D5
330
1E
100
AcDbEntity
  8
AM_VIS
100
AcDbLine
 10
204.386716462978
 20
-130.8705235344501
 30
0.0
 11
204.386716462978
 21
-117.0705235344501
 31
0.0
  0
LINE
  5
65D6
330
1E
100
AcDbEntity
  8
AM_VIS
100
AcDbLine
 10
214.386716462978
 20
-127.5760748099142
 30
0.0
 11
207.4867164629779
 21
-127.5760748099142
 31
0.0
  0
LINE
  5
65D7
330
1E
100
AcDbEntity
  8
AM_VIS
100
AcDbLine
 10
214.3867164629778
 20
-130.9705235344502
 30
0.0
 11
207.4867164629779
 21
-130.9705235344502
 31
0.0
  0
SPLINE
  5
65D8
330
1E
100
AcDbEntity
  8
AM_VIS
100
AcDbSpline
210
0.0
220
0.0
230
1.0
 70
    12
 71
     2
 72
     6
 73
     3
 74
     0
 42
0.0000000001
 43
0.0000000001
 40
0.0
 40
0.0
 40
0.0
 40
0.2220058768699601
 40
0.2220058768699601
 40
0.2220058768699601
 10
207.4867164629779
 20
-127.5760748099142
 30
0.0
 41
1.0
 10
207.4353033074137
 20
-127.4762587037354
 30
0.0
 41
1.000101681388823
 10
207.386716462978
 20
-127.3778685419303
 30
0.0
 41
1.0
  0
LINE
  5
65D9
330
1E
100
AcDbEntity
  8
AM_VIS
100
AcDbLine
 10
207.386716462978
 20
-130.8705235344501
 30
0.0
 11
207.4867164629779
 21
-130.9705235344502
 31
0.0
  0
LINE
  5
65DA
330
1E
100
AcDbEntity
  8
AM_VIS
100
AcDbLine
 10
207.386716462978
 20
-130.8705235344501
 30
0.0
 11
207.386716462978
 21
-127.3778685419303
 31
0.0
  0
LINE
  5
65DB
330
1E
100
AcDbEntity
  8
AM_VIS
100
AcDbLine
 10
207.4867164629779
 20
-127.5760748099142
 30
0.0
 11
207.4867164629779
 21
-130.9705235344502
 31
0.0
  0
LINE
  5
65DC
330
1E
100
AcDbEntity
  8
AM_VIS
100
AcDbLine
 10
207.386716462978
 20
-130.8705235344501
 30
0.0
 11
204.386716462978
 21
-130.8705235344501
 31
0.0
  0
LINE
  5
65DD
330
1E
100
AcDbEntity
  8
AM_VIS
100
AcDbLine
 10
214.3867164629778
 20
-116.9705235344502
 30
0.0
 11
207.4867164629779
 21
-116.9705235344502
 31
0.0
  0
LINE
  5
65DE
330
1E
100
AcDbEntity
  8
AM_VIS
100
AcDbLine
 10
207.4867164629779
 20
-120.3649722589862
 30
0.0
 11
214.386716462978
 21
-120.3649722589862
 31
0.0
  0
LINE
  5
65DF
330
1E
100
AcDbEntity
  8
AM_VIS
100
AcDbLine
 10
207.386716462978
 20
-117.0705235344501
 30
0.0
 11
207.4867164629779
 21
-116.9705235344502
 31
0.0
  0
SPLINE
  5
65E0
330
1E
100
AcDbEntity
  8
AM_VIS
100
AcDbSpline
210
0.0
220
0.0
230
1.0
 70
    12
 71
     2
 72
     6
 73
     3
 74
     0
 42
0.0000000001
 43
0.0000000001
 40
0.0
 40
0.0
 40
0.0
 40
0.2220058768699593
 40
0.2220058768699593
 40
0.2220058768699593
 10
207.386716462978
 20
-120.5631785269701
 30
0.0
 41
1.0
 10
207.4353033074142
 20
-120.464788365165
 30
0.0
 41
1.000101681370763
 10
207.4867164629779
 20
-120.3649722589862
 30
0.0
 41
1.0
  0
LINE
  5
65E1
330
1E
100
AcDbEntity
  8
AM_VIS
100
AcDbLine
 10
207.386716462978
 20
-120.56317852697
 30
0.0
 11
207.386716462978
 21
-117.0705235344501
 31
0.0
  0
LINE
  5
65E2
330
1E
100
AcDbEntity
  8
AM_VIS
100
AcDbLine
 10
207.4867164629779
 20
-116.9705235344502
 30
0.0
 11
207.4867164629779
 21
-120.3649722589862
 31
0.0
  0
LINE
  5
65E3
330
1E
100
AcDbEntity
  8
AM_VIS
100
AcDbLine
 10
207.386716462978
 20
-117.0705235344501
 30
0.0
 11
204.386716462978
 21
-117.0705235344501
 31
0.0
  0
LINE
  5
65E4
330
1E
100
AcDbEntity
  8
AM_VIS
100
AcDbLine
 10
195.2357873808232
 20
-113.4705235344502
 30
0.0
 11
196.5069428876656
 21
-111.2688176122784
 31
0.0
  0
LINE
  5
65E5
330
1E
100
AcDbEntity
  8
AM_VIS
100
AcDbLine
 10
195.2357873808232
 20
-113.4705235344502
 30
0.0
 11
193.964631873981
 21
-111.2688176122784
 31
0.0
  0
LINE
  5
65E6
330
1E
100
AcDbEntity
  8
AM_VIS
100
AcDbLine
 10
193.964631873981
 20
-111.2688176122784
 30
0.0
 11
188.5069428876656
 21
-111.2688176122784
 31
0.0
  0
LINE
  5
65E7
330
1E
100
AcDbEntity
  8
AM_VIS
100
AcDbLine
 10
203.2357873808233
 20
-113.4705235344502
 30
0.0
 11
201.964631873981
 21
-111.2688176122784
 31
0.0
  0
LINE
  5
65E8
330
1E
100
AcDbEntity
  8
AM_VIS
100
AcDbLine
 10
201.964631873981
 20
-111.2688176122784
 30
0.0
 11
196.5069428876656
 21
-111.2688176122784
 31
0.0
  0
LINE
  5
65E9
330
1E
100
AcDbEntity
  8
AM_VIS
100
AcDbLine
 10
187.2357873808232
 20
-23.59009606199993
 30
0.0
 11
187.524462515418
 21
-23.09009606199993
 31
0.0
  0
LINE
  5
65EA
330
1E
100
AcDbEntity
  8
AM_VIS
100
AcDbLine
 10
187.2357873808232
 20
-44.59009606199993
 30
0.0
 11
187.524462515418
 21
-45.09009606199993
 31
0.0
  0
LINE
  5
65EB
330
1E
100
AcDbEntity
  8
AM_VIS
100
AcDbLine
 10
187.2357873808232
 20
-23.59009606199993
 30
0.0
 11
187.2357873808232
 21
-44.59009606199993
 31
0.0
  0
LINE
  5
65EC
330
1E
100
AcDbEntity
  8
AM_VIS
100
AcDbLine
 10
183.386716462978
 20
-39.49009606200002
 30
0.0
 11
183.386716462978
 21
-28.69009606199995
 31
0.0
  0
LINE
  5
65ED
330
1E
100
AcDbEntity
  8
AM_VIS
100
AcDbLine
 10
184.886716462978
 20
-27.19009606199995
 30
0.0
 11
184.886716462978
 21
-40.99009606200001
 31
0.0
  0
LINE
  5
65EE
330
1E
100
AcDbEntity
  8
AM_4
100
AcDbLine
 10
184.886716462978
 20
-41.09009606200004
 30
0.0
 11
185.636716462978
 21
-40.34009606200004
 31
0.0
  0
LINE
  5
65EF
330
1E
100
AcDbEntity
  8
AM_4
100
AcDbLine
 10
185.636716462978
 20
-40.34009606200004
 30
0.0
 11
187.2357873808232
 21
-40.34009606200004
 31
0.0
  0
LINE
  5
65F0
330
1E
100
AcDbEntity
  8
AM_VIS
100
AcDbLine
 10
187.2357873808232
 20
-40.99009606200001
 30
0.0
 11
184.886716462978
 21
-40.99009606200001
 31
0.0
  0
LINE
  5
65F1
330
1E
100
AcDbEntity
  8
AM_VIS
100
AcDbLine
 10
183.3867164629778
 20
-39.49009606199991
 30
0.0
 11
184.8867164629778
 21
-40.99009606200001
 31
0.0
  0
LINE
  5
65F2
330
1E
100
AcDbEntity
  8
AM_4
100
AcDbLine
 10
184.886716462978
 20
-27.09009606200004
 30
0.0
 11
185.636716462978
 21
-27.84009606200005
 31
0.0
  0
LINE
  5
65F3
330
1E
100
AcDbEntity
  8
AM_VIS
100
AcDbLine
 10
183.386716462978
 20
-28.69009606199995
 30
0.0
 11
184.886716462978
 21
-27.19009606199995
 31
0.0
  0
LINE
  5
65F4
330
1E
100
AcDbEntity
  8
AM_VIS
100
AcDbLine
 10
187.2357873808232
 20
-27.19009606199995
 30
0.0
 11
184.886716462978
 21
-27.19009606199995
 31
0.0
  0
LINE
  5
65F5
330
1E
100
AcDbEntity
  8
AM_4
100
AcDbLine
 10
185.636716462978
 20
-27.84009606200005
 30
0.0
 11
187.2357873808232
 21
-27.84009606200005
 31
0.0
  0
SPLINE
  5
65F6
330
1E
100
AcDbEntity
  8
AM_VIS
100
AcDbSpline
210
0.0
220
0.0
230
1.0
 70
    12
 71
     2
 72
     6
 73
     3
 74
     0
 42
0.0000000001
 43
0.0000000001
 40
3.926122721158657
 40
3.926122721158657
 40
3.926122721158657
 40
18.52382159948499
 40
18.52382159948499
 40
18.52382159948499
 10
188.5069428876661
 20
-34.09009606199993
 30
0.0
 41
1.118062981922771
 10
186.6736095543317
 20
-39.59009606199989
 30
0.0
 41
1.291027927168136
 10
188.5069428876649
 20
-45.09009606199998
 30
0.0
 41
1.118062981922771
  0
SPLINE
  5
65F7
330
1E
100
AcDbEntity
  8
AM_VIS
100
AcDbSpline
210
0.0
220
0.0
230
1.0
 70
    12
 71
     2
 72
     6
 73
     3
 74
     0
 42
0.0000000001
 43
0.0000000001
 40
3.92612272115867
 40
3.92612272115867
 40
3.92612272115867
 40
18.523821599485
 40
18.523821599485
 40
18.523821599485
 10
193.9646318739817
 20
-45.09009606199999
 30
0.0
 41
1.118062981922772
 10
195.7979652073147
 20
-39.59009606199983
 30
0.0
 41
1.291027927168137
 10
193.9646318739806
 20
-34.09009606199989
 30
0.0
 41
1.118062981922771
  0
SPLINE
  5
65F8
330
1E
100
AcDbEntity
  8
AM_VIS
100
AcDbSpline
210
0.0
220
0.0
230
1.0
 70
    12
 71
     2
 72
     6
 73
     3
 74
     0
 42
0.0000000001
 43
0.0000000001
 40
3.92612272115867
 40
3.92612272115867
 40
3.92612272115867
 40
18.523821599485
 40
18.523821599485
 40
18.523821599485
 10
201.9646318739813
 20
-45.09009606200002
 30
0.0
 41
1.118062981922772
 10
203.7979652073148
 20
-39.59009606199983
 30
0.0
 41
1.291027927168137
 10
201.9646318739801
 20
-34.09009606200007
 30
0.0
 41
1.118062981922771
  0
SPLINE
  5
65F9
330
1E
100
AcDbEntity
  8
AM_VIS
100
AcDbSpline
210
0.0
220
0.0
230
1.0
 70
    12
 71
     2
 72
     6
 73
     3
 74
     0
 42
0.0000000001
 43
0.0000000001
 40
3.926122721158657
 40
3.926122721158657
 40
3.926122721158657
 40
18.52382159948499
 40
18.52382159948499
 40
18.52382159948499
 10
196.5069428876662
 20
-34.09009606199993
 30
0.0
 41
1.118062981922771
 10
194.6736095543322
 20
-39.59009606200007
 30
0.0
 41
1.291027927168136
 10
196.5069428876651
 20
-45.09009606199999
 30
0.0
 41
1.118062981922771
  0
LINE
  5
65FA
330
1E
100
AcDbEntity
  8
AM_VIS
100
AcDbLine
 10
195.2357873808232
 20
-44.59009606199993
 30
0.0
 11
195.2357873808232
 21
-23.59009606199993
 31
0.0
  0
LINE
  5
65FB
330
1E
100
AcDbEntity
  8
AM_VIS
100
AcDbLine
 10
195.2357873808232
 20
-23.59009606200004
 30
0.0
 11
195.2357873808232
 21
-44.59009606200004
 31
0.0
  0
LINE
  5
65FC
330
1E
100
AcDbEntity
  8
AM_VIS
100
AcDbLine
 10
203.2357873808233
 20
-44.59009606200004
 30
0.0
 11
203.2357873808233
 21
-23.59009606200004
 31
0.0
  0
LINE
  5
65FD
330
1E
100
AcDbEntity
  8
AM_VIS
100
AcDbLine
 10
195.2357873808232
 20
-44.59009606200004
 30
0.0
 11
195.524462515418
 21
-45.09009606200004
 31
0.0
  0
LINE
  5
65FE
330
1E
100
AcDbEntity
  8
AM_VIS
100
AcDbLine
 10
193.964631873981
 20
-45.09009606199993
 30
0.0
 11
194.9471122462284
 21
-45.09009606199993
 31
0.0
  0
LINE
  5
65FF
330
1E
100
AcDbEntity
  8
AM_VIS
100
AcDbLine
 10
195.2357873808232
 20
-44.59009606199993
 30
0.0
 11
194.9471122462284
 21
-45.09009606199993
 31
0.0
  0
LINE
  5
6600
330
1E
100
AcDbEntity
  8
AM_VIS
100
AcDbLine
 10
187.524462515418
 20
-45.09009606199993
 30
0.0
 11
188.5069428876656
 21
-45.09009606199993
 31
0.0
  0
LINE
  5
6601
330
1E
100
AcDbEntity
  8
AM_VIS
100
AcDbLine
 10
193.964631873981
 20
-45.09009606199993
 30
0.0
 11
188.5069428876656
 21
-45.09009606199993
 31
0.0
  0
LINE
  5
6602
330
1E
100
AcDbEntity
  8
AM_VIS
100
AcDbLine
 10
201.964631873981
 20
-45.09009606200004
 30
0.0
 11
202.9471122462285
 21
-45.09009606200004
 31
0.0
  0
LINE
  5
6603
330
1E
100
AcDbEntity
  8
AM_VIS
100
AcDbLine
 10
203.2357873808233
 20
-44.59009606200004
 30
0.0
 11
202.9471122462285
 21
-45.09009606200004
 31
0.0
  0
LINE
  5
6604
330
1E
100
AcDbEntity
  8
AM_VIS
100
AcDbLine
 10
195.524462515418
 20
-45.09009606199993
 30
0.0
 11
196.5069428876656
 21
-45.09009606199993
 31
0.0
  0
LINE
  5
6605
330
1E
100
AcDbEntity
  8
AM_VIS
100
AcDbLine
 10
201.964631873981
 20
-45.09009606200004
 30
0.0
 11
196.5069428876656
 21
-45.09009606200004
 31
0.0
  0
LINE
  5
6606
330
1E
100
AcDbEntity
  8
AM_VIS
100
AcDbLine
 10
204.386716462978
 20
-27.19009606199995
 30
0.0
 11
203.2357873808233
 21
-27.19009606199995
 31
0.0
  0
LINE
  5
6607
330
1E
100
AcDbEntity
  8
AM_4
100
AcDbLine
 10
203.2357873808233
 20
-27.84009606199993
 30
0.0
 11
204.386716462978
 21
-27.84009606200005
 31
0.0
  0
LINE
  5
6608
330
1E
100
AcDbEntity
  8
AM_4
100
AcDbLine
 10
203.2357873808233
 20
-40.34009606200004
 30
0.0
 11
204.386716462978
 21
-40.34009606200004
 31
0.0
  0
LINE
  5
6609
330
1E
100
AcDbEntity
  8
AM_VIS
100
AcDbLine
 10
204.386716462978
 20
-40.99009606200001
 30
0.0
 11
203.2357873808233
 21
-40.99009606200001
 31
0.0
  0
SPLINE
  5
660A
330
1E
100
AcDbEntity
  8
AM_VIS
100
AcDbSpline
210
0.0
220
0.0
230
1.0
 70
    12
 71
     2
 72
     6
 73
     3
 74
     0
 42
0.0000000001
 43
0.0000000001
 40
3.92612272115869
 40
3.92612272115869
 40
3.92612272115869
 40
18.523821599485
 40
18.523821599485
 40
18.523821599485
 10
193.9646318739806
 20
-34.09009606199989
 30
0.0
 41
1.118062981922771
 10
195.797965207314
 20
-28.59009606199995
 30
0.0
 41
1.291027927168134
 10
193.9646318739806
 20
-23.09009606199992
 30
0.0
 41
1.118062981922769
  0
SPLINE
  5
660B
330
1E
100
AcDbEntity
  8
AM_VIS
100
AcDbSpline
210
0.0
220
0.0
230
1.0
 70
    12
 71
     2
 72
     6
 73
     3
 74
     0
 42
0.0000000001
 43
0.0000000001
 40
3.92612272115869
 40
3.92612272115869
 40
3.92612272115869
 40
18.523821599485
 40
18.523821599485
 40
18.523821599485
 10
201.9646318739801
 20
-34.09009606200007
 30
0.0
 41
1.118062981922771
 10
203.797965207314
 20
-28.59009606199995
 30
0.0
 41
1.291027927168134
 10
201.9646318739806
 20
-23.09009606200007
 30
0.0
 41
1.118062981922769
  0
SPLINE
  5
660C
330
1E
100
AcDbEntity
  8
AM_VIS
100
AcDbSpline
210
0.0
220
0.0
230
1.0
 70
    12
 71
     2
 72
     6
 73
     3
 74
     0
 42
0.0000000001
 43
0.0000000001
 40
3.926122721158586
 40
3.926122721158586
 40
3.926122721158586
 40
18.5238215994849
 40
18.5238215994849
 40
18.5238215994849
 10
196.506942887665
 20
-23.09009606200007
 30
0.0
 41
1.118062981922769
 10
194.6736095543322
 20
-28.59009606199977
 30
0.0
 41
1.291027927168135
 10
196.5069428876652
 20
-34.09009606199996
 30
0.0
 41
1.118062981922772
  0
SPLINE
  5
660D
330
1E
100
AcDbEntity
  8
AM_VIS
100
AcDbSpline
210
0.0
220
0.0
230
1.0
 70
    12
 71
     2
 72
     6
 73
     3
 74
     0
 42
0.0000000001
 43
0.0000000001
 40
3.926122721158586
 40
3.926122721158586
 40
3.926122721158586
 40
18.5238215994849
 40
18.5238215994849
 40
18.5238215994849
 10
188.506942887665
 20
-23.09009606199992
 30
0.0
 41
1.118062981922769
 10
186.6736095543322
 20
-28.59009606199977
 30
0.0
 41
1.291027927168135
 10
188.5069428876654
 20
-34.09009606199993
 30
0.0
 41
1.118062981922772
  0
LINE
  5
660E
330
1E
100
AcDbEntity
  8
AM_VIS
100
AcDbLine
 10
193.964631873981
 20
-34.09009606199993
 30
0.0
 11
188.5069428876656
 21
-34.09009606199993
 31
0.0
  0
LINE
  5
660F
330
1E
100
AcDbEntity
  8
AM_VIS
100
AcDbLine
 10
201.964631873981
 20
-34.09009606199993
 30
0.0
 11
196.5069428876656
 21
-34.09009606199993
 31
0.0
  0
LINE
  5
6610
330
1E
100
AcDbEntity
  8
AM_VIS
100
AcDbLine
 10
195.2357873808232
 20
-23.59009606200004
 30
0.0
 11
195.524462515418
 21
-23.09009606199993
 31
0.0
  0
LINE
  5
6611
330
1E
100
AcDbEntity
  8
AM_VIS
100
AcDbLine
 10
193.964631873981
 20
-23.09009606199993
 30
0.0
 11
194.9471122462284
 21
-23.09009606199993
 31
0.0
  0
LINE
  5
6612
330
1E
100
AcDbEntity
  8
AM_VIS
100
AcDbLine
 10
195.2357873808232
 20
-23.59009606199993
 30
0.0
 11
194.9471122462284
 21
-23.09009606199993
 31
0.0
  0
LINE
  5
6613
330
1E
100
AcDbEntity
  8
AM_VIS
100
AcDbLine
 10
187.524462515418
 20
-23.09009606199993
 30
0.0
 11
188.5069428876656
 21
-23.09009606199993
 31
0.0
  0
LINE
  5
6614
330
1E
100
AcDbEntity
  8
AM_VIS
100
AcDbLine
 10
193.964631873981
 20
-23.09009606199993
 30
0.0
 11
188.5069428876656
 21
-23.09009606199993
 31
0.0
  0
LINE
  5
6615
330
1E
100
AcDbEntity
  8
AM_VIS
100
AcDbLine
 10
203.2357873808233
 20
-23.59009606200004
 30
0.0
 11
202.9471122462285
 21
-23.09009606199993
 31
0.0
  0
LINE
  5
6616
330
1E
100
AcDbEntity
  8
AM_VIS
100
AcDbLine
 10
201.964631873981
 20
-23.09009606199993
 30
0.0
 11
202.9471122462285
 21
-23.09009606199993
 31
0.0
  0
LINE
  5
6617
330
1E
100
AcDbEntity
  8
AM_VIS
100
AcDbLine
 10
195.524462515418
 20
-23.09009606199993
 30
0.0
 11
196.5069428876656
 21
-23.09009606199993
 31
0.0
  0
LINE
  5
6618
330
1E
100
AcDbEntity
  8
AM_VIS
100
AcDbLine
 10
201.964631873981
 20
-23.09009606199993
 30
0.0
 11
196.5069428876656
 21
-23.09009606199993
 31
0.0
  0
LINE
  5
6619
330
1E
100
AcDbEntity
  8
AM_VIS
100
AcDbLine
 10
207.4867164629779
 20
-28.09009606199993
 30
0.0
 11
207.4867164629779
 21
-40.09009606199993
 31
0.0
  0
LINE
  5
661A
330
1E
100
AcDbEntity
  8
AM_VIS
100
AcDbLine
 10
207.386716462978
 20
-40.09009606199993
 30
0.0
 11
207.386716462978
 21
-28.09009606199993
 31
0.0
  0
LINE
  5
661B
330
1E
100
AcDbEntity
  8
AM_VIS
100
AcDbLine
 10
204.386716462978
 20
-40.99009606200001
 30
0.0
 11
204.386716462978
 21
-27.19009606199995
 31
0.0
  0
LINE
  5
661C
330
1E
100
AcDbEntity
  8
AM_VIS
100
AcDbLine
 10
207.4867164629779
 20
-40.09009606199993
 30
0.0
 11
214.386716462978
 21
-40.09009606199993
 31
0.0
  0
LINE
  5
661D
330
1E
100
AcDbEntity
  8
AM_VIS
100
AcDbLine
 10
207.386716462978
 20
-40.99009606200001
 30
0.0
 11
207.386716462978
 21
-40.09009606199993
 31
0.0
  0
LINE
  5
661E
330
1E
100
AcDbEntity
  8
AM_VIS
100
AcDbLine
 10
207.386716462978
 20
-40.09009606199993
 30
0.0
 11
207.4867164629779
 21
-40.09009606199993
 31
0.0
  0
LINE
  5
661F
330
1E
100
AcDbEntity
  8
AM_VIS
100
AcDbLine
 10
207.386716462978
 20
-40.99009606200001
 30
0.0
 11
204.386716462978
 21
-40.99009606200001
 31
0.0
  0
LINE
  5
6620
330
1E
100
AcDbEntity
  8
AM_VIS
100
AcDbLine
 10
214.386716462978
 20
-28.09009606199993
 30
0.0
 11
207.4867164629779
 21
-28.09009606199993
 31
0.0
  0
LINE
  5
6621
330
1E
100
AcDbEntity
  8
AM_VIS
100
AcDbLine
 10
207.386716462978
 20
-28.09009606199993
 30
0.0
 11
207.4867164629779
 21
-28.09009606199993
 31
0.0
  0
LINE
  5
6622
330
1E
100
AcDbEntity
  8
AM_VIS
100
AcDbLine
 10
207.386716462978
 20
-28.09009606199993
 30
0.0
 11
207.386716462978
 21
-27.19009606199995
 31
0.0
  0
LINE
  5
6623
330
1E
100
AcDbEntity
  8
AM_VIS
100
AcDbLine
 10
207.386716462978
 20
-27.19009606199995
 30
0.0
 11
204.386716462978
 21
-27.19009606199995
 31
0.0
  0
DIMENSION
  5
6624
330
1E
100
AcDbEntity
  8
AM_5
100
AcDbDimension
  2
*D30
 10
118.662350194915
 20
-161.9705235344501
 30
0.0
 11
100.662350194915
 21
-159.6705235344501
 31
0.0
 70
    32
  1
{\Famgdt;o}<>
 71
     5
 42
36.0
  3
AM_ISO
100
AcDbAlignedDimension
 13
82.66235019491501
 23
-147.0265235344502
 33
0.0
 14
118.662350194915
 24
-147.0265235344502
 34
0.0
100
AcDbRotatedDimension
  0
DIMENSION
  5
6625
330
1E
100
AcDbEntity
  8
AM_5
100
AcDbDimension
  2
*D31
 10
126.662350194915
 20
-168.9705235344501
 30
0.0
 11
100.662350194915
 21
-166.6702282588596
 31
0.0
 70
    32
  1
{\Famgdt;o}<>
 71
     5
 42
52.0
  3
AM_ISO
100
AcDbAlignedDimension
 13
74.66235019491501
 23
-148.4705235344502
 33
0.0
 14
126.662350194915
 24
-148.4705235344502
 34
0.0
100
AcDbRotatedDimension
  0
DIMENSION
  5
6626
330
1E
100
AcDbEntity
  8
AM_5
100
AcDbDimension
  2
*D32
 10
138.662350194915
 20
-123.9705235344502
 30
0.0
 11
136.3620549193245
 21
-136.9705235344501
 31
0.0
 70
    32
 71
     5
 42
26.0
  3
AM_ISO
100
AcDbAlignedDimension
 13
125.162350194915
 23
-149.9705235344502
 33
0.0
 14
118.2623501949149
 24
-123.9705235344502
 34
0.0
 50
90.0
100
AcDbRotatedDimension
  0
DIMENSION
  5
6627
330
1E
100
AcDbEntity
  8
AM_5
100
AcDbDimension
  2
*D33
 10
204.386716462978
 20
-160.6026903116972
 30
0.0
 11
193.886716462978
 21
-158.3023950361066
 31
0.0
 70
    32
 71
     5
 42
21.0
  3
AM_ISO
100
AcDbAlignedDimension
 13
183.386716462978
 23
-129.3705235344502
 33
0.0
 14
204.386716462978
 24
-130.8705235344501
 34
0.0
100
AcDbRotatedDimension
  0
DIMENSION
  5
6628
330
1E
100
AcDbEntity
  8
AM_5
100
AcDbDimension
  2
*D34
 10
207.386716462978
 20
-167.6026903116972
 30
0.0
 11
195.386716462978
 21
-165.3023950361066
 31
0.0
 70
    32
 71
     5
 42
24.0
  3
AM_ISO
100
AcDbAlignedDimension
 13
183.386716462978
 23
-129.3705235344502
 33
0.0
 14
207.386716462978
 24
-130.8705235344501
 34
0.0
100
AcDbRotatedDimension
  0
DIMENSION
  5
6629
330
1E
100
AcDbEntity
  8
AM_5
100
AcDbDimension
  2
*D35
 10
217.3867164629778
 20
-174.6026903116972
 30
0.0
 11
200.3867164629779
 21
-172.3026903116972
 31
0.0
 70
    32
 71
     5
 42
33.99999999999977
  3
AM_ISO
100
AcDbAlignedDimension
 13
183.386716462978
 23
-129.3705235344502
 33
0.0
 14
217.3867164629778
 24
-149.9705235344502
 34
0.0
100
AcDbRotatedDimension
  0
DIMENSION
  5
662A
330
1E
100
AcDbEntity
  8
AM_5
100
AcDbDimension
  2
*D36
 10
321.3867164629778
 20
-174.6026903116972
 30
0.0
 11
269.3867164629778
 21
-172.3026903116972
 31
0.0
 70
    32
  1
<>+stroke
 71
     5
 42
104.0
  3
AM_ISO
100
AcDbAlignedDimension
 13
217.3867164629778
 23
-150.9705235344502
 33
0.0
 14
321.3867164629778
 24
-144.7205235344502
 34
0.0
100
AcDbRotatedDimension
  0
DIMENSION
  5
662B
330
1E
100
AcDbEntity
  8
AM_5
100
AcDbDimension
  2
*D37
 10
321.3867164629778
 20
-181.6026903116972
 30
0.0
 11
252.3867164629779
 21
-179.3026903116972
 31
0.0
 70
    32
  1
<>+stroke
 71
     5
 42
137.9999999999997
  3
AM_ISO
100
AcDbAlignedDimension
 13
183.386716462978
 23
-129.3705235344502
 33
0.0
 14
321.3867164629778
 24
-144.7205235344502
 34
0.0
100
AcDbRotatedDimension
  0
DIMENSION
  5
662C
330
1E
100
AcDbEntity
  8
AM_5
100
AcDbDimension
  2
*D38
 10
254.8867164629778
 20
-71.34009606199999
 30
0.0
 11
236.1367164629778
 21
-69.04009606199998
 31
0.0
 70
    32
 71
     5
 42
37.5
  3
AM_ISO
100
AcDbAlignedDimension
 13
217.3867164629778
 23
-60.09009606200002
 33
0.0
 14
254.8867164629778
 24
-60.09009606200002
 34
0.0
100
AcDbRotatedDimension
  0
DIMENSION
  5
662D
330
1E
100
AcDbEntity
  8
AM_5
100
AcDbDimension
  2
*D39
 10
299.8867164629778
 20
-67.34009606200001
 30
0.0
 11
310.6367164629778
 21
-65.03980078640946
 31
0.0
 70
    32
 71
     5
 42
21.5
  3
AM_ISO
100
AcDbAlignedDimension
 13
321.3867164629778
 23
-54.84009606199998
 33
0.0
 14
299.8867164629778
 24
-55.34009606199998
 34
0.0
100
AcDbRotatedDimension
  0
DIMENSION
  5
662E
330
1E
100
AcDbEntity
  8
AM_5
100
AcDbDimension
  2
*D40
 10
244.3867164629778
 20
3.909904937999982
 30
0.0
 11
230.8867164629778
 21
6.210200213590534
 31
0.0
 70
    32
 71
     5
 42
27.0
  3
AM_ISO
100
AcDbAlignedDimension
 13
217.3867164629778
 23
-8.090096062000014
 33
0.0
 14
244.3867164629778
 24
-25.79009606199998
 34
0.0
100
AcDbRotatedDimension
  0
DIMENSION
  5
662F
330
1E
100
AcDbEntity
  8
AM_5
100
AcDbDimension
  2
*D41
 10
310.3867164629778
 20
-0.8400960620000432
 30
0.0
 11
315.8867164629778
 21
1.459903937999956
 31
0.0
 70
    32
 71
     5
 42
11.0
  3
AM_ISO
100
AcDbAlignedDimension
 13
321.3867164629778
 23
-13.34009606199998
 33
0.0
 14
310.3867164629778
 24
-27.14009606200014
 34
0.0
100
AcDbRotatedDimension
  0
DIMENSION
  5
6630
330
1E
100
AcDbEntity
  8
AM_5
100
AcDbDimension
  2
*D42
 10
405.9890426899357
 20
-161.9705235344501
 30
0.0
 11
384.7390426899358
 21
-159.6702282588596
 31
0.0
 70
    32
  1
{\Famgdt;o}<>
 71
     5
 42
42.5
  3
AM_ISO
100
AcDbAlignedDimension
 13
363.4890426899358
 23
-133.4045046665068
 33
0.0
 14
405.9890426899357
 24
-133.4045046665067
 34
0.0
100
AcDbRotatedDimension
  0
DIMENSION
  5
6631
330
1E
100
AcDbEntity
  8
AM_5
100
AcDbDimension
  2
*D43
 10
371.0338995003488
 20
-142.7516723319254
 30
0.0
 11
412.3466532280468
 21
-93.69149151049581
 31
0.0
 70
   163
 71
     5
 42
46.50000000000005
  3
AM_ISO$3
100
AcDbDiametricDimension
 15
398.4441858795245
 25
-105.1893747369754
 35
0.0
 40
0.0
1001
ACAD
1000
DSTYLE
1002
{
1070
   141
1040
0.0
1070
   172
1070
     1
1002
}
  0
INSERT
  5
6632
330
1E
100
AcDbEntity
  8
AM_5
100
AcDbBlockReference
  2
*S28
 10
-289.381167146114
 20
-247.4286045528704
 30
0.0
  0
TEXT
  5
6633
330
1E
100
AcDbEntity
  8
AM_5
100
AcDbText
 10
94.74689913328006
 20
-92.71585799734452
 30
0.0
 40
3.0
  1
4-M8x1.25x14L
100
AcDbText
  0
DIMENSION
  5
6634
330
1E
100
AcDbEntity
  8
AM_5
100
AcDbDimension
  2
*D44
 10
176.2618702518268
 20
-139.9705235344501
 30
0.0
 11
173.0839541802858
 21
-123.9705235344501
 31
0.0
 70
    32
  1
%%c<>
 71
     5
 42
31.99999999999999
  3
AM_ISO
100
AcDbAlignedDimension
 13
214.8867164629778
 23
-107.9705235344502
 33
0.0
 14
214.8867164629778
 24
-139.9705235344502
 34
0.0
 50
90.0
100
AcDbRotatedDimension
1001
GENIUS_GENDTOL_13
1000
TolAcTol
1000

1000

1040
32.0
1001
ACAD
1000
DSTYLE
1002
{
1070
    47
1040
0.0
1070
    48
1040
0.039
1070
    71
1070
     1
1070
   272
1070
     3
1002
}
  0
INSERT
  5
6635
330
1E
100
AcDbEntity
  8
AM_5
100
AcDbBlockReference
  2
*S29
 10
-289.381167146114
 20
-236.9912314820668
 30
0.0
  0
TEXT
  5
6636
330
1E
100
AcDbEntity
  8
AM_5
100
AcDbText
 10
266.9610758932376
 20
-63.60328159000153
 30
0.0
 40
3.0
  1
2-PT1/4
100
AcDbText
  0
LINE
  5
663E
330
1E
100
AcDbEntity
  8
AM_7
100
AcDbLine
 10
244.3867164629778
 20
-109.6069235344503
 30
0.0
 11
244.3867164629778
 21
-96.47052353445019
 31
0.0
1001
GENIUS_GENODEF_13
1002
{
1000
HIER
1070
     0
1002
}
1002
{
1000
MANEDIT
1070
     0
1002
}
1002
{
1000
NOSEL
1070
     0
1002
}
1002
{
1000
BEHIND
1070
     0
1002
}
1002
{
1000
REACTOR
1002
}
1001
GENIUS_GENOBJ-N-CEN_13
1002
{
1000
OWNER
1000
GEN
1002
}
  0
LINE
  5
6642
330
1E
100
AcDbEntity
  8
AM_7
100
AcDbLine
 10
310.3867164629778
 20
-114.3569235344504
 30
0.0
 11
310.3867164629778
 21
-101.2205235344503
 31
0.0
1001
GENIUS_GENODEF_13
1002
{
1000
HIER
1070
     0
1002
}
1002
{
1000
MANEDIT
1070
     0
1002
}
1002
{
1000
NOSEL
1070
     0
1002
}
1002
{
1000
BEHIND
1070
     0
1002
}
1002
{
1000
REACTOR
1002
}
1001
GENIUS_GENOBJ-N-CEN_13
1002
{
1000
OWNER
1000
GEN
1002
}
  0
CIRCLE
  5
6AA5
330
1E
100
AcDbEntity
  8
AM_VIS
100
AcDbCircle
 10
310.3867164629778
 20
-34.09009606200016
 30
0.0
 40
5.7225
  0
ARC
  5
6AA6
330
1E
100
AcDbEntity
  8
AM_4
100
AcDbCircle
 10
310.3867164629778
 20
-34.09009606200016
 30
0.0
 40
6.5785
100
AcDbArc
 50
260.0000000000014
 51
190.0000000000002
  0
CIRCLE
  5
6AA7
330
1E
100
AcDbEntity
  8
AM_VIS
100
AcDbCircle
 10
244.3867164629778
 20
-34.09009606200005
 30
0.0
 40
5.7225
  0
ARC
  5
6AA8
330
1E
100
AcDbEntity
  8
AM_4
100
AcDbCircle
 10
244.3867164629778
 20
-34.09009606200005
 30
0.0
 40
6.5785
100
AcDbArc
 50
260.0000000000014
 51
190.0000000000002
  0
INSERT
  5
6AC0
330
1E
100
AcDbEntity
  8
0
100
AcDbBlockReference
  2
A$C1F6E6265
 10
277.3867159059303
 20
181.4389716092369
 30
0.0
 41
1.199999999999999
 42
1.199999999999999
 43
1.199999999999999
  0
LINE
  5
6AC1
330
1E
100
AcDbEntity
  8
AM_VIS
  6
PHANTOM2
 62
     2
100
AcDbLine
 10
277.3867164629781
 20
129.9564898916464
 30
0.0
 11
277.3867164629781
 21
184.7721539954023
 31
0.0
1001
GENIUS_GENOBJ-N-CEN_13
1002
{
1000
OWNER
1000
GEN
1002
}
1001
GENIUS_GENODEF_13
1002
{
1000
HIER
1070
     0
1002
}
1002
{
1000
MANEDIT
1070
     0
1002
}
1002
{
1000
NOSEL
1070
     0
1002
}
1002
{
1000
BEHIND
1070
     0
1002
}
1002
{
1000
OTHER
1070
     0
1002
}
1002
{
1000
REACTOR
1002
}
1001
GENIUS_GENCEN_19
1002
{
1040
3.0
1002
}
  0
LINE
  5
6AC2
330
1E
100
AcDbEntity
  8
AM_VIS
  6
PHANTOM2
 62
     2
100
AcDbLine
 10
277.3867164629781
 20
222.232428394118
 30
0.0
 11
277.3867164629781
 21
271.1325260051267
 31
0.0
1001
GENIUS_GENOBJ-N-CEN_13
1002
{
1000
OWNER
1000
GEN
1002
}
1001
GENIUS_GENODEF_13
1002
{
1000
HIER
1070
     0
1002
}
1002
{
1000
MANEDIT
1070
     0
1002
}
1002
{
1000
NOSEL
1070
     0
1002
}
1002
{
1000
BEHIND
1070
     0
1002
}
1002
{
1000
OTHER
1070
     0
1002
}
1002
{
1000
REACTOR
1002
}
1001
GENIUS_GENCEN_19
1002
{
1040
3.0
1002
}
  0
INSERT
  5
6AC3
330
1E
100
AcDbEntity
  8
0
100
AcDbBlockReference
  2
A$C1F6E6265
 10
277.3867159059301
 20
-98.16112665046114
 30
0.0
 41
1.199999999999999
 42
1.199999999999999
 43
1.199999999999999
  0
LINE
  5
6AC4
330
1E
100
AcDbEntity
  8
AM_VIS
  6
PHANTOM2
 62
     2
100
AcDbLine
 10
277.3867164629779
 20
-149.6436083680515
 30
0.0
 11
277.3867164629779
 21
-94.82794426429569
 31
0.0
1001
GENIUS_GENOBJ-N-CEN_13
1002
{
1000
OWNER
1000
GEN
1002
}
1001
GENIUS_GENODEF_13
1002
{
1000
HIER
1070
     0
1002
}
1002
{
1000
MANEDIT
1070
     0
1002
}
1002
{
1000
NOSEL
1070
     0
1002
}
1002
{
1000
BEHIND
1070
     0
1002
}
1002
{
1000
OTHER
1070
     0
1002
}
1002
{
1000
REACTOR
1002
}
1001
GENIUS_GENCEN_19
1002
{
1040
3.0
1002
}
  0
LINE
  5
6AC5
330
1E
100
AcDbEntity
  8
AM_VIS
  6
PHANTOM2
 62
     2
100
AcDbLine
 10
277.3867164629779
 20
-57.36766986558007
 30
0.0
 11
277.3867164629779
 21
-8.467572254571336
 31
0.0
1001
GENIUS_GENOBJ-N-CEN_13
1002
{
1000
OWNER
1000
GEN
1002
}
1001
GENIUS_GENODEF_13
1002
{
1000
HIER
1070
     0
1002
}
1002
{
1000
MANEDIT
1070
     0
1002
}
1002
{
1000
NOSEL
1070
     0
1002
}
1002
{
1000
BEHIND
1070
     0
1002
}
1002
{
1000
OTHER
1070
     0
1002
}
1002
{
1000
REACTOR
1002
}
1001
GENIUS_GENCEN_19
1002
{
1040
3.0
1002
}
  0
ENDSEC
  0
SECTION
  2
OBJECTS
  0
DICTIONARY
  5
C
330
0
100
AcDbDictionary
281
     1
  3
ACAD_COLOR
350
2E5F
  3
ACAD_GROUP
350
D
  3
ACAD_IMAGE_DICT
350
3CB
  3
ACAD_LAYOUT
350
19
  3
ACAD_MATERIAL
350
2E5E
  3
ACAD_MLINESTYLE
350
16
  3
ACAD_PLOTSETTINGS
350
18
  3
ACAD_PLOTSTYLENAME
350
B31
  3
ACAD_TABLESTYLE
350
2E60
  3
ACDBHEADERROUNDTRIPXREC
350
6D37
  3
AcDbVariableDictionary
350
BD2
  3
ACMDICTIONARY
350
7C2
  3
AMG
350
7A8
  3
AMGSNAPSETTINGS
350
895
  3
DWGPROPS
350
6D36
1001
ACAD
1000
TREAT_AS_HARD
1070
     0
  0
DICTIONARY
  5
361C
330
2
100
AcDbDictionary
280
     1
281
     1
  3
ACAD_LAYERSTATES
360
361D
  0
DICTIONARY
  5
708
330
1E
100
AcDbDictionary
280
     1
281
     1
  3
ACAD_INDEX
360
2E00
  3
ACAD_LAYOUTSELFREF
360
2E38
1001
ACAD
1000
TREAT_AS_HARD
1070
     1
  0
DICTIONARY
  5
70A
330
1A
100
AcDbDictionary
280
     1
281
     1
  3
ACAD_LAYOUTSELFREF
360
2E37
1001
ACAD
1000
TREAT_AS_HARD
1070
     1
  0
DICTIONARY
  5
3B4C
330
3B4B
100
AcDbDictionary
280
     1
281
     1
  3
ACAD_SORTENTS
360
3B4D
  0
DICTIONARY
  5
2E5F
102
{ACAD_REACTORS
330
C
102
}
330
C
100
AcDbDictionary
281
     1
  0
DICTIONARY
  5
D
102
{ACAD_REACTORS
330
C
102
}
330
C
100
AcDbDictionary
281
     1
1001
ACAD
1000
TREAT_AS_HARD
1070
     0
  0
DICTIONARY
  5
3CB
102
{ACAD_REACTORS
330
C
102
}
330
C
100
AcDbDictionary
281
     1
  3
PLOT
350
3CC
1001
ACAD
1000
TREAT_AS_HARD
1070
     0
  0
DICTIONARY
  5
19
102
{ACAD_REACTORS
330
C
102
}
330
C
100
AcDbDictionary
281
     1
  3
Layout1
350
B34
  3
Model
350
B33
1001
ACAD
1000
TREAT_AS_HARD
1070
     0
  0
DICTIONARY
  5
2E5E
102
{ACAD_REACTORS
330
C
102
}
330
C
100
AcDbDictionary
281
     1
  0
DICTIONARY
  5
16
102
{ACAD_REACTORS
330
C
102
}
330
C
100
AcDbDictionary
281
     1
  3
STANDARD
350
17
1001
ACAD
1000
TREAT_AS_HARD
1070
     0
  0
DICTIONARY
  5
18
102
{ACAD_REACTORS
330
C
102
}
330
C
100
AcDbDictionary
281
     1
1001
ACAD
1000
TREAT_AS_HARD
1070
     0
  0
ACDBDICTIONARYWDFLT
  5
B31
102
{ACAD_REACTORS
330
C
102
}
330
C
100
AcDbDictionary
281
     1
  3
Normal
350
B32
100
AcDbDictionaryWithDefault
340
B32
  0
DICTIONARY
  5
2E60
102
{ACAD_REACTORS
330
C
102
}
330
C
100
AcDbDictionary
281
     1
  3
Standard
350
2E61
  0
DICTIONARY
  5
6D37
102
{ACAD_REACTORS
330
C
102
}
330
C
100
AcDbDictionary
281
     1
  0
DICTIONARY
  5
BD2
102
{ACAD_REACTORS
330
C
102
}
330
C
100
AcDbDictionary
281
     1
  3
CTABLESTYLE
350
2EDF
  3
DIMASSOC
350
BD4
  3
INDEXCTL
350
BD3
  3
PROJECTNAME
350
6D34
  0
DICTIONARY
  5
7C2
102
{ACAD_REACTORS
330
C
102
}
330
C
100
AcDbDictionary
281
     1
  3
ACMSTDDICTIONARY
350
7C8
  3
AMDTSECTSYM_ARROWCOLOR
350
2ED3
1001
ACAD
1000
TREAT_AS_HARD
1070
     0
  0
DICTIONARY
  5
7A8
102
{ACAD_REACTORS
330
C
102
}
330
C
100
AcDbDictionary
281
     1
1001
ACAD
1000
TREAT_AS_HARD
1070
     0
  0
DICTIONARY
  5
895
102
{ACAD_REACTORS
330
C
102
}
330
C
100
AcDbDictionary
281
     1
1001
ACAD
1000
TREAT_AS_HARD
1070
     0
  0
XRECORD
  5
6D36
102
{ACAD_REACTORS
330
C
102
}
330
C
100
AcDbXrecord
280
     1
  1
DWGPROPS COOKIE
  2

  3

  4

  6

  7

  8

  9

300
AmdtFileType=84
301
=
302
=
303
=
304
=
305
=
306
=
307
=
308
=
309
=
 40
0.3904975231481482
 41
2450294.602131481
 42
2454117.700152627
  1

 90
        1
  0
DICTIONARY
  5
361D
102
{ACAD_REACTORS
330
361C
102
}
330
361C
100
AcDbDictionary
281
     1
  0
DICTIONARY
  5
2E00
102
{ACAD_REACTORS
330
708
102
}
330
708
100
AcDbDictionary
281
     1
  3
*A1
350
2E01
  0
XRECORD
  5
2E38
102
{ACAD_REACTORS
330
708
102
}
330
708
100
AcDbXrecord
280
     1
340
1E
  0
XRECORD
  5
2E37
102
{ACAD_REACTORS
330
70A
102
}
330
70A
100
AcDbXrecord
280
     1
340
1A
  0
SORTENTSTABLE
  5
3B4D
102
{ACAD_REACTORS
330
3B4C
102
}
330
3B4C
100
AcDbSortentsTable
330
3B4B
  0
IMAGEDEF
  5
3CC
102
{ACAD_REACTORS
330
3CB
102
}
330
3CB
100
AcDbRasterImageDef
 90
        0
  1
D:\CHI\plot.bmp
 10
694.0
 20
470.0
 11
0.264550269889837
 21
0.264550269889837
280
     1
281
     2
  0
LAYOUT
  5
B34
102
{ACAD_XDICTIONARY
360
6D3A
102
}
102
{ACAD_REACTORS
330
19
102
}
330
19
100
AcDbPlotSettings
  1

  2
自動 PC-WM51 上的 Epson LQ-1070C+
  4

  6

 40
0.0
 41
0.0
 42
0.0
 43
0.0
 44
0.0
 45
0.0
 46
0.0
 47
0.0
 48
0.0
 49
0.0
140
0.0
141
0.0
142
1.0
143
1.0
 70
   688
 72
     0
 73
     0
 74
     5
  7

 75
    16
147
1.0
148
0.0
149
0.0
100
AcDbLayout
  1
Layout1
 70
     0
 71
     1
 10
0.0
 20
0.0
 11
12.0
 21
9.0
 12
101.9887994410416
 22
50.0
 32
155.412184630939
 14
1.000000000000000E+20
 24
1.000000000000000E+20
 34
1.000000000000000E+20
 15
-1.000000000000000E+20
 25
-1.000000000000000E+20
 35
-1.000000000000000E+20
146
0.0
 13
0.0
 23
0.0
 33
0.0
 16
1.0
 26
0.0
 36
0.0
 17
0.0
 27
1.0
 37
0.0
 76
     0
330
1A
  0
LAYOUT
  5
B33
102
{ACAD_XDICTIONARY
360
6D38
102
}
102
{ACAD_REACTORS
330
19
102
}
330
19
100
AcDbPlotSettings
  1

  2
none_device
  4
ISO_A4_(210.00_x_297.00_MM)
  6

 40
7.5
 41
20.0
 42
7.5
 43
20.0
 44
210.0
 45
297.0
 46
0.0
 47
0.0
 48
0.0
 49
0.0
140
0.0
141
0.0
142
1.0
143
3.711407103225344
 70
 11952
 72
     1
 73
     1
 74
     0
  7

 75
     0
147
0.2694395877862508
148
228.1034858415214
149
262.0701527453771
100
AcDbLayout
  1
Model
 70
     1
 71
     0
 10
0.0
 20
0.0
 11
12.0
 21
9.0
 12
0.0
 22
0.0
 32
0.0
 14
0.0
 24
0.0
 34
0.0
 15
0.0
 25
0.0
 35
0.0
146
0.0
 13
0.0
 23
0.0
 33
0.0
 16
1.0
 26
0.0
 36
0.0
 17
0.0
 27
1.0
 37
0.0
 76
     0
330
1E
1001
ACAD_PSEXT
1000
無
1000
無
1000
不適用
1000
除非另選一新建的繪圖機規劃名稱，否則配置將不會出圖。
1070
     0
  0
MLINESTYLE
  5
17
102
{ACAD_REACTORS
330
16
102
}
330
16
100
AcDbMlineStyle
  2
STANDARD
 70
     0
  3

 62
   256
 51
90.0
 52
90.0
 71
     2
 49
0.5
 62
   256
  6
BYLAYER
 49
-0.5
 62
   256
  6
BYLAYER
  0
ACDBPLACEHOLDER
  5
B32
102
{ACAD_REACTORS
330
B31
102
}
330
B31
  0
TABLESTYLE
  5
2E61
102
{ACAD_REACTORS
330
2E60
102
}
330
2E60
100
AcDbTableStyle
  3
Standard
 70
     0
 71
     0
 40
1.5
 41
1.5
280
     0
281
     0
  7
STANDARD
140
4.5
170
     2
 62
     0
 63
     7
283
     0
274
    -2
284
     1
 64
     0
275
    -2
285
     1
 65
     0
276
    -2
286
     1
 66
     0
277
    -2
287
     1
 67
     0
278
    -2
288
     1
 68
     0
279
    -2
289
     1
 69
     0
  7
STANDARD
140
6.0
170
     5
 62
     0
 63
     7
283
     0
274
    -2
284
     1
 64
     0
275
    -2
285
     1
 65
     0
276
    -2
286
     1
 66
     0
277
    -2
287
     1
 67
     0
278
    -2
288
     1
 68
     0
279
    -2
289
     1
 69
     0
  7
STANDARD
140
4.5
170
     5
 62
     0
 63
     7
283
     0
274
    -2
284
     1
 64
     0
275
    -2
285
     1
 65
     0
276
    -2
286
     1
 66
     0
277
    -2
287
     1
 67
     0
278
    -2
288
     1
 68
     0
279
    -2
289
     1
 69
     0
  0
DICTIONARYVAR
  5
2EDF
102
{ACAD_REACTORS
330
BD2
102
}
330
BD2
100
DictionaryVariables
280
     0
  1
STANDARD
  0
DICTIONARYVAR
  5
BD4
102
{ACAD_REACTORS
330
BD2
102
}
330
BD2
100
DictionaryVariables
280
     0
  1
1
  0
DICTIONARYVAR
  5
BD3
102
{ACAD_REACTORS
330
BD2
102
}
330
BD2
100
DictionaryVariables
280
     0
  1
1
  0
DICTIONARYVAR
  5
6D34
102
{ACAD_REACTORS
330
BD2
102
}
330
BD2
100
DictionaryVariables
280
     0
  1

  0
DICTIONARY
  5
7C8
102
{ACAD_REACTORS
330
7C2
102
}
330
7C2
100
AcDbDictionary
281
     1
1001
ACAD
1000
TREAT_AS_HARD
1070
     0
  0
XRECORD
  5
2ED3
102
{ACAD_REACTORS
330
7C2
102
}
330
7C2
100
AcDbXrecord
280
     1
 90
-1023410169
  0
LAYER_INDEX
  5
2E01
102
{ACAD_REACTORS
330
2E00
102
}
330
2E00
100
AcDbIndex
 40
2454117.700152627
100
AcDbLayerIndex
  8
0
360
2E02
 90
       11
  8
DEFPOINTS
360
2E03
 90
        0
  8
ASHADE
360
2E04
 90
        9
  8
AM_7
360
2E05
 90
       99
  8
AM_VIS
360
2E06
 90
      507
  8
AM_4
360
2E07
 90
       34
  8
AM_5
360
2E08
 90
       45
  8
LOGO
360
3806
 90
      119
  0
DICTIONARY
  5
6D3A
330
B34
100
AcDbDictionary
280
     1
281
     1
  3
ACAD_XREC_ROUNDTRIP
360
6D3B
  0
DICTIONARY
  5
6D38
330
B33
100
AcDbDictionary
280
     1
281
     1
  3
ACAD_XREC_ROUNDTRIP
360
6D39
  0
IDBUFFER
  5
2E02
330
0
100
AcDbIdBuffer
330
3750
330
3751
330
3752
330
3808
330
380A
330
6056
330
6057
330
65D2
330
65D3
330
6AC0
330
6AC3
  0
IDBUFFER
  5
2E03
330
0
100
AcDbIdBuffer
  0
IDBUFFER
  5
2E04
330
0
100
AcDbIdBuffer
330
51A
330
51B
330
51C
330
51D
330
51E
330
51F
330
520
330
521
330
528
  0
IDBUFFER
  5
2E05
330
0
100
AcDbIdBuffer
330
5FF8
330
5FF9
330
5FFA
330
5FFB
330
5FFC
330
5FFD
330
5FFF
330
6000
330
6001
330
6002
330
6003
330
6004
330
600B
330
600C
330
600D
330
600E
330
600F
330
6010
330
6011
330
6012
330
6013
330
6014
330
6015
330
6016
330
6017
330
6018
330
6019
330
601A
330
601B
330
601C
330
601D
330
601E
330
601F
330
6020
330
6021
330
6022
330
6023
330
6028
330
6029
330
602A
330
6031
330
6039
330
603A
330
6042
330
6043
330
6048
330
604E
330
6536
330
6537
330
6538
330
6539
330
653A
330
653B
330
6541
330
6542
330
6543
330
6544
330
6545
330
6546
330
6547
330
6548
330
6549
330
654A
330
654B
330
654C
330
654D
330
654E
330
654F
330
6550
330
6551
330
6552
330
6553
330
6554
330
6555
330
6556
330
6557
330
6558
330
6559
330
655A
330
655B
330
655C
330
655D
330
655E
330
6561
330
6562
330
6563
330
6564
330
6565
330
6566
330
6567
330
6568
330
6569
330
656A
330
656B
330
656C
330
656D
330
656E
330
663E
330
6642
  0
IDBUFFER
  5
2E06
330
0
100
AcDbIdBuffer
330
5F12
330
5F13
330
5F14
330
5F15
330
5F16
330
5F17
330
5F18
330
5F19
330
5F1A
330
5F1B
330
5F1C
330
5F1D
330
5F1E
330
5F1F
330
5F20
330
5F21
330
5F22
330
5F23
330
5F24
330
5F25
330
5F26
330
5F27
330
5F28
330
5F29
330
5F2A
330
5F2B
330
5F2C
330
5F2D
330
5F2E
330
5F2F
330
5F30
330
5F31
330
5F32
330
5F33
330
5F34
330
5F35
330
5F36
330
5F37
330
5F38
330
5F39
330
5F3A
330
5F3B
330
5F3C
330
5F3D
330
5F3E
330
5F3F
330
5F40
330
5F41
330
5F42
330
5F43
330
5F44
330
5F45
330
5F46
330
5F47
330
5F48
330
5F49
330
5F4A
330
5F4B
330
5F4C
330
5F4D
330
5F4E
330
5F4F
330
5F50
330
5F51
330
5F52
330
5F53
330
5F54
330
5F55
330
5F56
330
5F57
330
5F58
330
5F59
330
5F5A
330
5F5B
330
5F5E
330
5F5F
330
5F60
330
5F61
330
5F62
330
5F63
330
5F64
330
5F65
330
5F66
330
5F67
330
5F68
330
5F6A
330
5F6C
330
5F6D
330
5F6F
330
5F70
330
5F71
330
5F72
330
5F73
330
5F74
330
5F75
330
5F76
330
5F77
330
5F78
330
5F79
330
5F7A
330
5F7B
330
5F7C
330
5F7D
330
5F7E
330
5F7F
330
5F80
330
5F81
330
5F82
330
5F83
330
5F84
330
5F85
330
5F86
330
5F87
330
5F8A
330
5F8B
330
5F8C
330
5F8D
330
5F8E
330
5F8F
330
5F90
330
5F91
330
5F92
330
5F93
330
5F94
330
5F95
330
5F96
330
5F97
330
5F98
330
5F99
330
5F9A
330
5F9B
330
5F9C
330
5F9D
330
5F9E
330
5F9F
330
5FA0
330
5FA1
330
5FA2
330
5FA3
330
5FA4
330
5FA5
330
5FA6
330
5FA7
330
5FA8
330
5FA9
330
5FAA
330
5FAB
330
5FAC
330
5FAD
330
5FAE
330
5FAF
330
5FB0
330
5FB1
330
5FB2
330
5FB3
330
5FB4
330
5FB5
330
5FB6
330
5FB7
330
5FB8
330
5FB9
330
5FBA
330
5FBB
330
5FBC
330
5FBD
330
5FBE
330
5FBF
330
5FC0
330
5FC1
330
5FC2
330
5FC3
330
5FC6
330
5FC7
330
5FC8
330
5FC9
330
5FCA
330
5FCB
330
5FCC
330
5FCD
330
5FCF
330
5FD0
330
5FD1
330
5FD2
330
5FD3
330
5FD4
330
5FD5
330
5FD6
330
5FD7
330
5FD8
330
5FD9
330
5FDA
330
5FDB
330
5FDC
330
5FDD
330
5FDE
330
5FDF
330
5FE0
330
5FE1
330
5FE2
330
5FE3
330
5FE4
330
5FE5
330
5FE6
330
5FE7
330
5FE8
330
5FE9
330
5FEA
330
5FEB
330
5FEC
330
5FED
330
5FEE
330
5FEF
330
5FF0
330
5FF1
330
5FF2
330
5FF3
330
5FF4
330
5FF5
330
5FF6
330
5FF7
330
605C
330
605D
330
605E
330
605F
330
6060
330
6061
330
6062
330
6063
330
6064
330
6065
330
6066
330
6067
330
6068
330
6069
330
606A
330
606B
330
606C
330
606D
330
606E
330
606F
330
6070
330
6071
330
6072
330
6073
330
6074
330
6075
330
6076
330
6077
330
6078
330
6079
330
607A
330
607B
330
607C
330
649E
330
649F
330
64A0
330
64A1
330
64A2
330
64A3
330
64A4
330
64A5
330
64A6
330
64A7
330
64A8
330
64A9
330
64AA
330
64AB
330
64AC
330
64AD
330
64AE
330
64AF
330
64B0
330
64B1
330
64B2
330
64B3
330
64B4
330
64B5
330
64B6
330
64B7
330
64B8
330
64B9
330
64BA
330
64BB
330
64BC
330
64BD
330
64BE
330
64BF
330
64C0
330
64C1
330
64C2
330
64C3
330
64C4
330
64C5
330
64C6
330
64CB
330
64CC
330
64CD
330
64CE
330
64CF
330
64D0
330
64D1
330
64D4
330
64D7
330
64D8
330
64D9
330
64DA
330
64DB
330
64DC
330
64DD
330
64DE
330
64DF
330
64E0
330
64E1
330
64E2
330
64E3
330
64E4
330
64E5
330
64E6
330
64E7
330
64E8
330
64E9
330
64EA
330
64EB
330
64EC
330
64ED
330
64EE
330
64EF
330
64F3
330
64F4
330
64F5
330
64F6
330
64F7
330
64F8
330
64F9
330
64FA
330
64FB
330
64FC
330
64FD
330
64FE
330
64FF
330
6500
330
6501
330
6504
330
6505
330
6506
330
6507
330
6508
330
6509
330
650A
330
650D
330
650E
330
650F
330
6510
330
6511
330
6512
330
6513
330
6514
330
6515
330
6516
330
6517
330
6518
330
6519
330
651A
330
651B
330
651C
330
651D
330
651E
330
651F
330
6520
330
6521
330
6522
330
6523
330
6524
330
6525
330
6526
330
6527
330
6528
330
6529
330
652A
330
652B
330
652C
330
652D
330
652E
330
652F
330
6530
330
6531
330
6532
330
6533
330
6534
330
6535
330
65A7
330
65A8
330
65A9
330
65AA
330
65AB
330
65AC
330
65AD
330
65AE
330
65AF
330
65B0
330
65B1
330
65B2
330
65B3
330
65B4
330
65B6
330
65B7
330
65B9
330
65BA
330
65BC
330
65BE
330
65BF
330
65C0
330
65C1
330
65C2
330
65C3
330
65C4
330
65C5
330
65C6
330
65C8
330
65CA
330
65CB
330
65CC
330
65CD
330
65CE
330
65CF
330
65D0
330
65D1
330
65D4
330
65D5
330
65D6
330
65D7
330
65D8
330
65D9
330
65DA
330
65DB
330
65DC
330
65DD
330
65DE
330
65DF
330
65E0
330
65E1
330
65E2
330
65E3
330
65E4
330
65E5
330
65E6
330
65E7
330
65E8
330
65E9
330
65EA
330
65EB
330
65EC
330
65ED
330
65F0
330
65F1
330
65F3
330
65F4
330
65F6
330
65F7
330
65F8
330
65F9
330
65FA
330
65FB
330
65FC
330
65FD
330
65FE
330
65FF
330
6600
330
6601
330
6602
330
6603
330
6604
330
6605
330
6606
330
6609
330
660A
330
660B
330
660C
330
660D
330
660E
330
660F
330
6610
330
6611
330
6612
330
6613
330
6614
330
6615
330
6616
330
6617
330
6618
330
6619
330
661A
330
661B
330
661C
330
661D
330
661E
330
661F
330
6620
330
6621
330
6622
330
6623
330
6AA5
330
6AA7
330
6AC1
330
6AC2
330
6AC4
330
6AC5
  0
IDBUFFER
  5
2E07
330
0
100
AcDbIdBuffer
330
5FFE
330
6005
330
6006
330
6007
330
6008
330
6009
330
600A
330
6024
330
6025
330
6026
330
6027
330
6058
330
6059
330
605A
330
605B
330
653C
330
653D
330
653E
330
653F
330
6540
330
65B5
330
65B8
330
65BB
330
65BD
330
65C7
330
65C9
330
65EE
330
65EF
330
65F2
330
65F5
330
6607
330
6608
330
6AA6
330
6AA8
  0
IDBUFFER
  5
2E08
330
0
100
AcDbIdBuffer
330
6054
330
6055
330
607D
330
607E
330
607F
330
6080
330
6081
330
6082
330
6083
330
6084
330
6085
330
6086
330
6087
330
6088
330
6089
330
608A
330
608B
330
608C
330
608D
330
608E
330
608F
330
6090
330
6091
330
6092
330
6093
330
6094
330
6624
330
6625
330
6626
330
6627
330
6628
330
6629
330
662A
330
662B
330
662C
330
662D
330
662E
330
662F
330
6630
330
6631
330
6632
330
6633
330
6634
330
6635
330
6636
  0
IDBUFFER
  5
3806
330
0
100
AcDbIdBuffer
330
36BB
330
36BC
330
36BD
330
36BE
330
36BF
330
36C0
330
36C1
330
36C2
330
36C3
330
36C4
330
36C5
330
36C6
330
36C7
330
36C8
330
36C9
330
36CA
330
36CB
330
36CC
330
36CD
330
36CE
330
36CF
330
36D0
330
36D1
330
36D2
330
36D3
330
36D4
330
36D5
330
36D6
330
36D7
330
36D8
330
36D9
330
36DD
330
36E1
330
36E2
330
36E6
330
36E7
330
36E8
330
36E9
330
36EA
330
36EB
330
36EC
330
36ED
330
36F1
330
36F5
330
36F9
330
36FA
330
36FB
330
36FF
330
3700
330
3701
330
3702
330
3703
330
3704
330
3705
330
3706
330
3707
330
3708
330
3709
330
370A
330
370B
330
370C
330
370D
330
370E
330
370F
330
3710
330
3711
330
3712
330
3713
330
3714
330
3715
330
3716
330
3717
330
3718
330
3719
330
371A
330
371B
330
371C
330
371D
330
371E
330
371F
330
3720
330
3721
330
3722
330
3723
330
3724
330
3725
330
3726
330
3727
330
3728
330
3729
330
372A
330
372B
330
372C
330
372D
330
372E
330
372F
330
3730
330
3731
330
3732
330
3733
330
3734
330
3735
330
3736
330
3737
330
3738
330
3739
330
373A
330
373B
330
373C
330
373D
330
374A
330
374B
330
374C
330
374D
330
374E
330
374F
330
3B49
330
3B6C
330
3B6D
  0
XRECORD
  5
6D3B
102
{ACAD_REACTORS
330
6D3A
102
}
330
6D3A
100
AcDbXrecord
280
     1
102
SHADEPLOT
 70
     0
102
SHADEPLOTRESLEVEL
 70
     2
102
SHADEPLOTCUSTOMDPI
 70
   300
  0
XRECORD
  5
6D39
102
{ACAD_REACTORS
330
6D38
102
}
330
6D38
100
AcDbXrecord
280
     1
102
SHADEPLOT
 70
     0
102
SHADEPLOTRESLEVEL
 70
     2
102
SHADEPLOTCUSTOMDPI
 70
   300
  0
ENDSEC
  0
EOF
