  0
SECTION
  2
HEADER
  9
$ACADVER
  1
AC1015
  9
$ACADMAINTVER
 70
    20
  9
$DWGCODEPAGE
  3
ANSI_950
  9
$INSBASE
 10
0.0
 20
0.0
 30
0.0
  9
$EXTMIN
 10
34.94366551347048
 20
-252.6458037111258
 30
-0.0009058376588769
  9
$EXTMAX
 10
391.389588318986
 20
237.4452412984515
 30
233.5595959266457
  9
$LIMMIN
 10
0.0
 20
0.0
  9
$LIMMAX
 10
396.0
 20
273.0
  9
$ORTHOMODE
 70
     1
  9
$REGENMODE
 70
     1
  9
$FILLMODE
 70
     1
  9
$QTEXTMODE
 70
     0
  9
$MIRRTEXT
 70
     1
  9
$LTSCALE
 40
5.0
  9
$ATTMODE
 70
     1
  9
$TEXTSIZE
 40
3.0
  9
$TRACEWID
 40
0.05
  9
$TEXTSTYLE
  7
DAYUS
  9
$CLAYER
  8
0
  9
$CELTYPE
  6
BYLAYER
  9
$CECOLOR
 62
   256
  9
$CELTSCALE
 40
1.0
  9
$DISPSILH
 70
     0
  9
$DIMSCALE
 40
1.0
  9
$DIMASZ
 40
3.0
  9
$DIMEXO
 40
1.0
  9
$DIMDLI
 40
6.0
  9
$DIMRND
 40
0.0
  9
$DIMDLE
 40
0.0
  9
$DIMEXE
 40
1.5
  9
$DIMTP
 40
0.1
  9
$DIMTM
 40
0.1
  9
$DIMTXT
 40
3.0
  9
$DIMCEN
 40
3.0
  9
$DIMTSZ
 40
0.0
  9
$DIMTOL
 70
     0
  9
$DIMLIM
 70
     0
  9
$DIMTIH
 70
     0
  9
$DIMTOH
 70
     0
  9
$DIMSE1
 70
     0
  9
$DIMSE2
 70
     0
  9
$DIMTAD
 70
     1
  9
$DIMZIN
 70
     8
  9
$DIMBLK
  1

  9
$DIMASO
 70
     1
  9
$DIMSHO
 70
     0
  9
$DIMPOST
  1

  9
$DIMAPOST
  1
"
  9
$DIMALT
 70
     0
  9
$DIMALTD
 70
     2
  9
$DIMALTF
 40
0.0393701
  9
$DIMLFAC
 40
1.0
  9
$DIMTOFL
 70
     1
  9
$DIMTVP
 40
0.0
  9
$DIMTIX
 70
     0
  9
$DIMSOXD
 70
     0
  9
$DIMSAH
 70
     0
  9
$DIMBLK1
  1

  9
$DIMBLK2
  1

  9
$DIMSTYLE
  2
AM_ISO
  9
$DIMCLRD
 70
   256
  9
$DIMCLRE
 70
   256
  9
$DIMCLRT
 70
   256
  9
$DIMTFAC
 40
0.71
  9
$DIMGAP
 40
0.8
  9
$DIMJUST
 70
     0
  9
$DIMSD1
 70
     0
  9
$DIMSD2
 70
     0
  9
$DIMTOLJ
 70
     0
  9
$DIMTZIN
 70
     8
  9
$DIMALTZ
 70
     0
  9
$DIMALTTZ
 70
     0
  9
$DIMUPT
 70
     0
  9
$DIMDEC
 70
     2
  9
$DIMTDEC
 70
     8
  9
$DIMALTU
 70
     2
  9
$DIMALTTD
 70
     2
  9
$DIMTXSTY
  7
STANDARD
  9
$DIMAUNIT
 70
     0
  9
$DIMADEC
 70
     0
  9
$DIMALTRND
 40
0.0
  9
$DIMAZIN
 70
     2
  9
$DIMDSEP
 70
    46
  9
$DIMATFIT
 70
     3
  9
$DIMFRAC
 70
     0
  9
$DIMLDRBLK
  1

  9
$DIMLUNIT
 70
     2
  9
$DIMLWD
 70
    -1
  9
$DIMLWE
 70
    -1
  9
$DIMTMOVE
 70
     0
  9
$LUNITS
 70
     2
  9
$LUPREC
 70
     2
  9
$SKETCHINC
 40
0.1
  9
$FILLETRAD
 40
2.5
  9
$AUNITS
 70
     0
  9
$AUPREC
 70
     0
  9
$MENU
  1
C:\CACAD\ACAD
  9
$ELEVATION
 40
0.0
  9
$PELEVATION
 40
0.0
  9
$THICKNESS
 40
0.0
  9
$LIMCHECK
 70
     0
  9
$CHAMFERA
 40
2.5
  9
$CHAMFERB
 40
2.5
  9
$CHAMFERC
 40
0.0
  9
$CHAMFERD
 40
0.0
  9
$SKPOLY
 70
     0
  9
$TDCREATE
 40
2450294.602131481
  9
$TDUCREATE
 40
2450294.268798149
  9
$TDUPDATE
 40
2454117.699896192
  9
$TDUUPDATE
 40
2454117.366562859
  9
$TDINDWG
 40
0.3798640278
  9
$TDUSRTIMER
 40
0.3798607755
  9
$USRTIMER
 70
     1
  9
$ANGBASE
 50
0.0
  9
$ANGDIR
 70
     0
  9
$PDMODE
 70
    65
  9
$PDSIZE
 40
8.3
  9
$PLINEWID
 40
0.0
  9
$SPLFRAME
 70
     0
  9
$SPLINETYPE
 70
     6
  9
$SPLINESEGS
 70
     8
  9
$HANDSEED
  5
5CAB
  9
$SURFTAB1
 70
     6
  9
$SURFTAB2
 70
     6
  9
$SURFTYPE
 70
     6
  9
$SURFU
 70
     6
  9
$SURFV
 70
     6
  9
$UCSBASE
  2

  9
$UCSNAME
  2

  9
$UCSORG
 10
0.0
 20
0.0
 30
0.0
  9
$UCSXDIR
 10
1.0
 20
0.0
 30
0.0
  9
$UCSYDIR
 10
0.0
 20
1.0
 30
0.0
  9
$UCSORTHOREF
  2

  9
$UCSORTHOVIEW
 70
     0
  9
$UCSORGTOP
 10
0.0
 20
0.0
 30
0.0
  9
$UCSORGBOTTOM
 10
0.0
 20
0.0
 30
0.0
  9
$UCSORGLEFT
 10
0.0
 20
0.0
 30
0.0
  9
$UCSORGRIGHT
 10
0.0
 20
0.0
 30
0.0
  9
$UCSORGFRONT
 10
0.0
 20
0.0
 30
0.0
  9
$UCSORGBACK
 10
0.0
 20
0.0
 30
0.0
  9
$PUCSBASE
  2

  9
$PUCSNAME
  2

  9
$PUCSORG
 10
0.0
 20
0.0
 30
0.0
  9
$PUCSXDIR
 10
1.0
 20
0.0
 30
0.0
  9
$PUCSYDIR
 10
0.0
 20
1.0
 30
0.0
  9
$PUCSORTHOREF
  2

  9
$PUCSORTHOVIEW
 70
     0
  9
$PUCSORGTOP
 10
0.0
 20
0.0
 30
0.0
  9
$PUCSORGBOTTOM
 10
0.0
 20
0.0
 30
0.0
  9
$PUCSORGLEFT
 10
0.0
 20
0.0
 30
0.0
  9
$PUCSORGRIGHT
 10
0.0
 20
0.0
 30
0.0
  9
$PUCSORGFRONT
 10
0.0
 20
0.0
 30
0.0
  9
$PUCSORGBACK
 10
0.0
 20
0.0
 30
0.0
  9
$USERI1
 70
     0
  9
$USERI2
 70
     0
  9
$USERI3
 70
     0
  9
$USERI4
 70
     0
  9
$USERI5
 70
     0
  9
$USERR1
 40
0.0
  9
$USERR2
 40
0.0
  9
$USERR3
 40
0.0
  9
$USERR4
 40
0.0
  9
$USERR5
 40
0.0
  9
$WORLDVIEW
 70
     1
  9
$SHADEDGE
 70
     3
  9
$SHADEDIF
 70
    70
  9
$TILEMODE
 70
     1
  9
$MAXACTVP
 70
    16
  9
$PINSBASE
 10
101.9887994410416
 20
50.0
 30
155.412184630939
  9
$PLIMCHECK
 70
     0
  9
$PEXTMIN
 10
1.000000000000000E+20
 20
1.000000000000000E+20
 30
1.000000000000000E+20
  9
$PEXTMAX
 10
-1.000000000000000E+20
 20
-1.000000000000000E+20
 30
-1.000000000000000E+20
  9
$PLIMMIN
 10
0.0
 20
0.0
  9
$PLIMMAX
 10
12.0
 20
9.0
  9
$UNITMODE
 70
     0
  9
$VISRETAIN
 70
     0
  9
$PLINEGEN
 70
     0
  9
$PSLTSCALE
 70
     0
  9
$TREEDEPTH
 70
  3020
  9
$CMLSTYLE
  2
STANDARD
  9
$CMLJUST
 70
     0
  9
$CMLSCALE
 40
1.0
  9
$PROXYGRAPHICS
 70
     1
  9
$MEASUREMENT
 70
     1
  9
$CELWEIGHT
370
    -1
  9
$ENDCAPS
280
     0
  9
$JOINSTYLE
280
     0
  9
$LWDISPLAY
290
     0
  9
$INSUNITS
 70
     4
  9
$HYPERLINKBASE
  1

  9
$STYLESHEET
  1
彩色出圖.ctb
  9
$XEDIT
290
     1
  9
$CEPSNTYPE
380
     0
  9
$PSTYLEMODE
290
     1
  9
$FINGERPRINTGUID
  2
{727C4F51-B094-446D-A919-594C4FA4BCB3}
  9
$VERSIONGUID
  2
{5287776D-930E-4723-9FA1-575CF42C1104}
  9
$EXTNAMES
290
     1
  9
$PSVPSCALE
 40
0.0
  9
$OLESTARTUP
290
     0
  0
ENDSEC
  0
SECTION
  2
CLASSES
  0
CLASS
  1
ACDBDICTIONARYWDFLT
  2
AcDbDictionaryWithDefault
  3
ObjectDBX Classes
 90
        0
280
     0
281
     0
  0
CLASS
  1
ACDBPLACEHOLDER
  2
AcDbPlaceHolder
  3
ObjectDBX Classes
 90
        0
280
     0
281
     0
  0
CLASS
  1
LAYOUT
  2
AcDbLayout
  3
ObjectDBX Classes
 90
        0
280
     0
281
     0
  0
CLASS
  1
IMAGEDEF
  2
AcDbRasterImageDef
  3
ISM
 90
        0
280
     0
281
     0
  0
CLASS
  1
ACME_DOCUMENT
  2
AcMeDbDoc
  3
AcMeServices
 90
        0
280
     0
281
     0
  0
CLASS
  1
AMGSETTINGSOBJ
  2
AmgSettingsObj
  3
"AcadM|Product Description: AutoCAD Mechanical 2000|Company: Autodesk"
 90
        0
280
     0
281
     0
  0
CLASS
  1
ACMESCOPE
  2
AcMeScope
  3
AcMeServices
 90
        0
280
     0
281
     0
  0
CLASS
  1
ACMECOMMANDHISTORY
  2
AcMeCommandHistory
  3
AcMeServices
 90
        0
280
     0
281
     0
  0
CLASS
  1
ACIMSYSVARMAN
  2
AcImSysVarManager
  3
AcMeServices
 90
        0
280
     0
281
     0
  0
CLASS
  1
ACIMREALSYSVAR
  2
AcImRealSysVar
  3
AcMeServices
 90
        0
280
     0
281
     0
  0
CLASS
  1
ACIMINTSYSVAR
  2
AcImIntSysVar
  3
AcMeServices
 90
        0
280
     0
281
     0
  0
CLASS
  1
ACMEDRAWINGMAN
  2
AcMeDrawingMan
  3
AcMeServices
 90
        0
280
     0
281
     0
  0
CLASS
  1
ACMEVIEW
  2
AcMeView
  3
AcMeServices
 90
        0
280
     0
281
     0
  0
CLASS
  1
ACDBENTITYCACHE
  2
AcMeEntityCache
  3
AcMeServices
 90
        0
280
     0
281
     0
  0
CLASS
  1
GSMANAGER
  2
AcMeGSManager
  3
AcMeServices
 90
        0
280
     0
281
     0
  0
CLASS
  1
AMDTINTERNALREACTOR
  2
AmdtInternalReactor
  3
AcMeServices
 90
        0
280
     0
281
     0
  0
CLASS
  1
ACMESTATEMGR
  2
AcMeStateMgr
  3
AcMeServices
 90
        0
280
     0
281
     0
  0
CLASS
  1
ACGREFMASTER
  2
AcGrefMaster
  3
AcAttribServices
 90
        0
280
     0
281
     0
  0
CLASS
  1
ACME_DATABASE
  2
AcMeDbDatabase
  3
AcMeServices
 90
        0
280
     0
281
     0
  0
CLASS
  1
ACRFINSADJUSTERMGR
  2
AcRfInsAdjusterMgr
  3
AcMeServices
 90
        0
280
     0
281
     0
  0
CLASS
  1
ACGREFACADMASTER
  2
AcGrefacadMaster
  3
AcGrefServices
 90
        0
280
     0
281
     0
  0
CLASS
  1
AMIMASTER
  2
AmiMaster
  3
AmiServices
 90
        0
280
     0
281
     0
  0
CLASS
  1
ACMDATADICTIONARY
  2
AcmDataDictionary
  3
"AcmSymBB|Product Description: AutoCAD Mechanical 2004 DX|Company: Autodesk"
 90
        0
280
     0
281
     0
  0
CLASS
  1
ACMDATAENTRYBLOCK
  2
AcmDataEntryBlock
  3
"AcmSymBB|Product Description: AutoCAD Mechanical 2004 DX|Company: Autodesk"
 90
    32768
280
     0
281
     0
  0
CLASS
  1
ACIMSTRSYSVAR
  2
AcImStrSysVar
  3
AcMeServices
 90
        0
280
     0
281
     0
  0
CLASS
  1
ACMSTANDARDANSI
  2
AcmStandardANSI
  3
"Amdt_StdImp|Product Description: AutoCAD Mechanical 2004 DX|Company: Autodesk"
 90
    32768
280
     0
281
     0
  0
CLASS
  1
AMGOBJPROPCFG
  2
AmgObjPropCfg
  3
"AmgLay|Product Description: AutoCAD Mechanical 2000|Company: Autodesk"
 90
        1
280
     0
281
     0
  0
CLASS
  1
ACMSURFSTANDARDANSI
  2
AcmSurfTextStdANSI
  3
"Amdt_StdImp|Product Description: AutoCAD Mechanical 2004 DX|Company: Autodesk"
 90
    32768
280
     0
281
     0
  0
CLASS
  1
ACMFCFSTANDARDANSI
  2
AcmFCFStdANSI
  3
"Amdt_StdImp|Product Description: AutoCAD Mechanical 2004 DX|Company: Autodesk"
 90
    32768
280
     0
281
     0
  0
CLASS
  1
ACMWELDSTANDARDANSI
  2
AcmWeldingStdANSI
  3
"Amdt_StdImp|Product Description: AutoCAD Mechanical 2004 DX|Company: Autodesk"
 90
    32768
280
     0
281
     0
  0
CLASS
  1
ACMIDSTANDARDANSI
  2
AcmIdStdANSI
  3
"Amdt_StdImp|Product Description: AutoCAD Mechanical 2004 DX|Company: Autodesk"
 90
    32768
280
     0
281
     0
  0
CLASS
  1
ACMDATUMSTANDARDANSI
  2
AcmDatumStdANSI
  3
"Amdt_StdImp|Product Description: AutoCAD Mechanical 2004 DX|Company: Autodesk"
 90
    32768
280
     0
281
     0
  0
CLASS
  1
ACMBOMSTANDARDANSI
  2
AcmBOMStdANSI
  3
"Amdt_StdImp|Product Description: AutoCAD Mechanical 2004 DX|Company: Autodesk"
 90
    32768
280
     0
281
     0
  0
CLASS
  1
ACMDETAILSTANDARDANSI
  2
AmdtDetailSymStdANSI
  3
"Amdt_StdImp|Product Description: AutoCAD Mechanical 2004 DX|Company: Autodesk"
 90
    32768
280
     0
281
     0
  0
CLASS
  1
ACMSECTIONSTANDARDANSI
  2
AmdtSectionSymStdANSI
  3
"Amdt_StdImp|Product Description: AutoCAD Mechanical 2004 DX|Company: Autodesk"
 90
    32768
280
     0
281
     0
  0
CLASS
  1
ACMCENTERLINESTANDARDANSI
  2
AmdtCenterLineStdANSI
  3
"Amdt_StdImp|Product Description: AutoCAD Mechanical 2004 DX|Company: Autodesk"
 90
    32768
280
     0
281
     0
  0
CLASS
  1
ACMNOTESTANDARDANSI
  2
AmdtNoteStdANSI
  3
"Amdt_StdImp|Product Description: AutoCAD Mechanical 2004 DX|Company: Autodesk"
 90
    32768
280
     0
281
     0
  0
CLASS
  1
ACAMGLAYSTD
  2
AcAmgLayStd
  3
"AcAmgLayStd|Product Description: AutoCAD Mechanical 2000|Company: Autodesk"
 90
        0
280
     0
281
     0
  0
CLASS
  1
ACAMGDIMSTD
  2
AcAmgDimStd
  3
"AcAmgDimStd|Product Description: AutoCAD Mechanical 2000|Company: Autodesk"
 90
        0
280
     0
281
     0
  0
CLASS
  1
ACAMGHOLECHARTSTDANSI
  2
AcAmgHoleChartStdANSI
  3
ACMSYMBB_MODULE_NAME
 90
    32768
280
     0
281
     0
  0
CLASS
  1
ACAMGTITLESTD
  2
AcAmgTitleStd
  3
"TITLEAPP"
 90
        0
280
     0
281
     0
  0
CLASS
  1
ACAMGFILTERDAT
  2
AcAmgFilterDat
  3
"AcadM|Product Description: AutoCAD Mechanical 2000|Company: Autodesk"
 90
    32768
280
     0
281
     0
  0
CLASS
  1
AMDTFORMULAUPDATEDISPATCHER
  2
AmdtFormulaUpdateDispatcher
  3
AcMeServices
 90
    32768
280
     0
281
     0
  0
CLASS
  1
LAYER_INDEX
  2
AcDbLayerIndex
  3
ObjectDBX Classes
 90
        0
280
     0
281
     0
  0
CLASS
  1
IDBUFFER
  2
AcDbIdBuffer
  3
ObjectDBX Classes
 90
        0
280
     0
281
     0
  0
CLASS
  1
DICTIONARYVAR
  2
AcDbDictionaryVar
  3
ObjectDBX Classes
 90
        0
280
     0
281
     0
  0
CLASS
  1
ACMSTANDARDISO
  2
AcmStandardISO
  3
"Amdt_StdImp|Product Description: AutoCAD Mechanical 2004 DX|Company: Autodesk"
 90
        0
280
     0
281
     0
  0
CLASS
  1
AMDTEDGESTANDARDISO
  2
AmdtEdgeStdISO
  3
"Amdt_StdImp|Product Description: AutoCAD Mechanical 2004 DX|Company: Autodesk"
 90
    32768
280
     0
281
     0
  0
CLASS
  1
ACMSURFSTANDARDISO
  2
AcmSurfTextStdISO
  3
"Amdt_StdImp|Product Description: AutoCAD Mechanical 2004 DX|Company: Autodesk"
 90
        0
280
     0
281
     0
  0
CLASS
  1
ACMFCFSTANDARDISO
  2
AcmFCFStdISO
  3
"Amdt_StdImp|Product Description: AutoCAD Mechanical 2004 DX|Company: Autodesk"
 90
        0
280
     0
281
     0
  0
CLASS
  1
ACMWELDSTANDARDISO
  2
AcmWeldingStdISO
  3
"Amdt_StdImp|Product Description: AutoCAD Mechanical 2004 DX|Company: Autodesk"
 90
        0
280
     0
281
     0
  0
CLASS
  1
ACMIDSTANDARDISO
  2
AcmIdStdISO
  3
"Amdt_StdImp|Product Description: AutoCAD Mechanical 2004 DX|Company: Autodesk"
 90
        0
280
     0
281
     0
  0
CLASS
  1
ACMDATUMSTANDARDISO
  2
AcmDatumStdISO
  3
"Amdt_StdImp|Product Description: AutoCAD Mechanical 2004 DX|Company: Autodesk"
 90
        0
280
     0
281
     0
  0
CLASS
  1
ACMBOMSTANDARDISO
  2
AcmBOMStdISO
  3
"Amdt_StdImp|Product Description: AutoCAD Mechanical 2004 DX|Company: Autodesk"
 90
        0
280
     0
281
     0
  0
CLASS
  1
ACMDETAILSTANDARDISO
  2
AmdtDetailSymStdISO
  3
"Amdt_StdImp|Product Description: AutoCAD Mechanical 2004 DX|Company: Autodesk"
 90
        0
280
     0
281
     0
  0
CLASS
  1
ACMSECTIONSTANDARDISO
  2
AmdtSectionSymStdISO
  3
"Amdt_StdImp|Product Description: AutoCAD Mechanical 2004 DX|Company: Autodesk"
 90
        0
280
     0
281
     0
  0
CLASS
  1
ACMCENTERLINESTANDARDISO
  2
AmdtCenterLineStdISO
  3
"Amdt_StdImp|Product Description: AutoCAD Mechanical 2004 DX|Company: Autodesk"
 90
        0
280
     0
281
     0
  0
CLASS
  1
ACMNOTESTANDARDISO
  2
AmdtNoteStdISO
  3
"Amdt_StdImp|Product Description: AutoCAD Mechanical 2004 DX|Company: Autodesk"
 90
        0
280
     0
281
     0
  0
CLASS
  1
ACAMGHOLECHARTSTDISO
  2
AcAmgHoleChartStdISO
  3
ACMSYMBB_MODULE_NAME
 90
        0
280
     0
281
     0
  0
CLASS
  1
AMDTNOTE
  2
AmdtNote
  3
"AcmSymBB|Product Description: AutoCAD Mechanical 2004 DX|Company: Autodesk"
 90
    33791
280
     0
281
     1
  0
CLASS
  1
TABLESTYLE
  2
AcDbTableStyle
  3
ObjectDBX Classes
 90
     2047
280
     0
281
     0
  0
CLASS
  1
AM_DRAWING_MGR
  2
AcDmDwgMgr
  3
AcMechDwgViewMgmt
 90
        0
280
     0
281
     0
  0
CLASS
  1
AM_DWG_DOCUMENT
  2
AcDmDwgDocument
  3
AcMechDwgViewMgmt
 90
        0
280
     0
281
     0
  0
CLASS
  1
AM_DWG_SHEET
  2
AcDmSheet
  3
AcMechDwgViewMgmt
 90
        0
280
     0
281
     0
  0
CLASS
  1
AM_VIEWDIMPARMAP
  2
AcDmViewDimParMap
  3
AcMechDwgViewMgmt
 90
        0
280
     0
281
     0
  0
CLASS
  1
AM_DWGMGR_NAME
  2
AcDmDwgMgrName
  3
AcMechDwgViewMgmt
 90
        0
280
     0
281
     0
  0
CLASS
  1
AMDTMENUSTATEMGR
  2
AmdtMenuStateMgr
  3
McadcomServices
 90
        0
280
     0
281
     0
  0
CLASS
  1
AMDTMCOMMENUSTATE
  2
AmdtMcomMenuState
  3
McadcomServices
 90
        0
280
     0
281
     0
  0
CLASS
  1
MAPIAMMOUDLE
  2
MApiAmModule
  3
MApiAmServices
 90
        0
280
     0
281
     0
  0
CLASS
  1
AMDTADMENUSTATE
  2
AmdtAdMenuState
  3
DesignerServices
 90
        0
280
     0
281
     0
  0
CLASS
  1
ADAPPL
  2
AcAdAppl
  3
DesignerServices
 90
        0
280
     0
281
     0
  0
CLASS
  1
DEPMGR
  2
AcAdDepMgr
  3
DesignerServices
 90
        0
280
     0
281
     0
  0
CLASS
  1
PARAMMGR
  2
AcAdParamMgr
  3
DesignerServices
 90
        0
280
     0
281
     0
  0
CLASS
  1
PARAMSCOPE
  2
AcAdParamScope
  3
DesignerServices
 90
        0
280
     0
281
     0
  0
CLASS
  1
NAMEDAPPL
  2
AcAdNamedAppl
  3
DesignerServices
 90
        0
280
     0
281
     0
  0
CLASS
  1
AMDTDMMENUSTATE
  2
AmdtDmMenuState
  3
AcMechDwgViewMgmt
 90
        0
280
     0
281
     0
  0
CLASS
  1
AMDTAMMENUSTATE
  2
AmdtAmMenuState
  3
DesignerAssemblies
 90
        0
280
     0
281
     0
  0
CLASS
  1
ACAMPROJECT
  2
AcAmProject
  3
DesignerAssemblies
 90
        0
280
     0
281
     0
  0
CLASS
  1
ACAMGRCOMPDEF
  2
AcAmGrCompDef
  3
DesignerAssemblies
 90
        0
280
     0
281
     0
  0
CLASS
  1
ACCMCONTEXT
  2
AcCmContext
  3
DesignerAssemblies
 90
        0
280
     0
281
     0
  0
CLASS
  1
ACAMCOMPDEF
  2
AcAmCompDef
  3
DesignerAssemblies
 90
        0
280
     0
281
     0
  0
CLASS
  1
ACAMCOMPDEFMGR
  2
AcAmCompDefMgr
  3
DesignerAssemblies
 90
        0
280
     0
281
     0
  0
CLASS
  1
AMCONTEXTMGR
  2
AcAmContextMgr
  3
DesignerAssemblies
 90
        0
280
     0
281
     0
  0
CLASS
  1
ACAMCONTEXTMODELER
  2
AcAmContextModeler
  3
DesignerAssemblies
 90
        0
280
     0
281
     0
  0
CLASS
  1
CATALOGSTATE
  2
AcAmCatalogState
  3
DesignerAssemblies
 90
        0
280
     0
281
     0
  0
CLASS
  1
ACAMGRCOMPDEFSET
  2
AcAmGrCompDefSet
  3
DesignerAssemblies
 90
        0
280
     0
281
     0
  0
CLASS
  1
AMDTBROWSERDBTAB
  2
AmdtBrowserDbTab
  3
McadcomServices
 90
        0
280
     0
281
     0
  0
CLASS
  1
CBROWSERAPPOBJECT
  2
CBrowserAppObject
  3
McadcomServices
 90
        0
280
     0
281
     0
  0
CLASS
  1
DM_PLACEHOLDER
  2
AcDmSelsetPlaceholder
  3
AcMechDwgViewMgmt
 90
        0
280
     0
281
     0
  0
CLASS
  1
AMDTEDGESTANDARDISO13715
  2
AmdtEdgeStdISO13715
  3
"Amdt_StdImp|Product Description: AutoCAD Mechanical 2004 DX|Company: Autodesk"
 90
        0
280
     0
281
     0
  0
CLASS
  1
ACMTHREADLINESTANDARDISO
  2
AmdtThreadLineStdISO
  3
"Amdt_StdImp|Product Description: AutoCAD Mechanical 2004 DX|Company: Autodesk"
 90
        0
280
     0
281
     0
  0
CLASS
  1
AMDTNOTETEMPLATEDB
  2
AmdtNoteTemplateDB
  3
AMDT_STDIMP_MODULE_NAME
 90
        0
280
     0
281
     0
  0
CLASS
  1
SORTENTSTABLE
  2
AcDbSortentsTable
  3
ObjectDBX Classes
 90
        0
280
     0
281
     0
  0
CLASS
  1
ACRFATTGENMGR
  2
AcRfAttGeneralMgr
  3
AcAttribServices
 90
        0
280
     0
281
     0
  0
ENDSEC
  0
SECTION
  2
TABLES
  0
TABLE
  2
VPORT
  5
8
330
0
100
AcDbSymbolTable
 70
     3
  0
VPORT
  5
5CA4
330
8
100
AcDbSymbolTableRecord
100
AcDbViewportTableRecord
  2
*Active
 70
     0
 10
0.0
 20
0.0
 11
1.0
 21
1.0
 12
213.1666269162282
 22
-7.585963517431196
 13
0.0
 23
0.0
 14
2.5
 24
2.5
 15
10.0
 25
10.0
 16
0.0
 26
0.0
 36
1.0
 17
0.0
 27
0.0
 37
0.0
 40
494.0919612378498
 41
1.609210526315789
 42
50.0
 43
0.0
 44
0.0
 50
0.0
 51
0.0
 71
     0
 72
   100
 73
     1
 74
     1
 75
     0
 76
     0
 77
     0
 78
     0
281
     0
 65
     1
110
0.0
120
0.0
130
0.0
111
1.0
121
0.0
131
0.0
112
0.0
122
1.0
132
0.0
 79
     0
146
0.0
  0
ENDTAB
  0
TABLE
  2
LTYPE
  5
5
330
0
100
AcDbSymbolTable
 70
    15
  0
LTYPE
  5
13
330
5
100
AcDbSymbolTableRecord
100
AcDbLinetypeTableRecord
  2
BYBLOCK
 70
     0
  3

 72
    65
 73
     0
 40
0.0
  0
LTYPE
  5
14
330
5
100
AcDbSymbolTableRecord
100
AcDbLinetypeTableRecord
  2
BYLAYER
 70
     0
  3

 72
    65
 73
     0
 40
0.0
  0
LTYPE
  5
15
330
5
100
AcDbSymbolTableRecord
100
AcDbLinetypeTableRecord
  2
CONTINUOUS
 70
     0
  3
Solid line
 72
    65
 73
     0
 40
0.0
  0
LTYPE
  5
23
330
5
100
AcDbSymbolTableRecord
100
AcDbLinetypeTableRecord
  2
HIDDEN
 70
     0
  3
_ _ _ _ _ _ _ _ _ _ _ _ _ _ _ _ _ _ _ _ _ _ _
 72
    65
 73
     2
 40
0.375
 49
0.25
 74
     0
 49
-0.125
 74
     0
  0
LTYPE
  5
24
330
5
100
AcDbSymbolTableRecord
100
AcDbLinetypeTableRecord
  2
CENTER
 70
     0
  3
____ _ ____ _ ____ _ ____ _ ____ _ ____ _ ____
 72
    65
 73
     4
 40
2.0
 49
1.25
 74
     0
 49
-0.25
 74
     0
 49
0.25
 74
     0
 49
-0.25
 74
     0
  0
LTYPE
  5
7CE
330
5
100
AcDbSymbolTableRecord
100
AcDbLinetypeTableRecord
  2
AMCONSTR
 70
     0
  3
_______________________
 72
    65
 73
     2
 40
9999.0
 49
9999.0
 74
     0
 49
0.0
 74
     0
  0
LTYPE
  5
7CF
330
5
100
AcDbSymbolTableRecord
100
AcDbLinetypeTableRecord
  2
AM_ISO08W050X2
 70
     0
  3
__ . __ . __ . __ . __ . __
 72
    65
 73
     4
 40
9.0
 49
6.0
 74
     0
 49
-0.75
 74
     0
 49
1.5
 74
     0
 49
-0.75
 74
     0
  0
LTYPE
  5
7D4
330
5
100
AcDbSymbolTableRecord
100
AcDbLinetypeTableRecord
  2
PHANTOM2
 70
     0
  3
Phantom (.5x) ___ _ _ ___ _ _ ___ _ _ ___ _ _
 72
    65
 73
     6
 40
1.25
 49
0.625
 74
     0
 49
-0.125
 74
     0
 49
0.125
 74
     0
 49
-0.125
 74
     0
 49
0.125
 74
     0
 49
-0.125
 74
     0
  0
LTYPE
  5
C13
330
5
100
AcDbSymbolTableRecord
100
AcDbLinetypeTableRecord
  2
ACISOWELD
 70
     0
  3
_ _ _ _ _
 72
    65
 73
     2
 40
2.0
 49
2.0
 74
     0
 49
-1.0
 74
     0
  0
LTYPE
  5
C14
330
5
100
AcDbSymbolTableRecord
100
AcDbLinetypeTableRecord
  2
ACISOTGB
 70
     0
  3
__ . . __ . .
 72
    65
 73
     6
 40
9.0
 49
4.0
 74
     0
 49
-1.0
 74
     0
 49
1.0
 74
     0
 49
-1.0
 74
     0
 49
1.0
 74
     0
 49
-1.0
 74
     0
  0
LTYPE
  5
C15
330
5
100
AcDbSymbolTableRecord
100
AcDbLinetypeTableRecord
  2
ACISOTGL
 70
     0
  3
_ _ _ _ _
 72
    65
 73
     2
 40
3.0
 49
2.0
 74
     0
 49
-1.0
 74
     0
  0
LTYPE
  5
16FD
330
5
100
AcDbSymbolTableRecord
100
AcDbLinetypeTableRecord
  2
AM_ISO02W050
 70
     0
  3
__ __ __ __ __ __ __ __ __ __ __ __ __ __ __
 72
    65
 73
     2
 40
7.5
 49
6.0
 74
     0
 49
-1.5
 74
     0
  0
LTYPE
  5
16FE
330
5
100
AcDbSymbolTableRecord
100
AcDbLinetypeTableRecord
  2
AM_ISO08W050
 70
     0
  3
____ . ____ . ____ . ____ . ____ . ____ . ____
 72
    65
 73
     4
 40
18.0
 49
12.0
 74
     0
 49
-1.5
 74
     0
 49
3.0
 74
     0
 49
-1.5
 74
     0
  0
LTYPE
  5
16FF
330
5
100
AcDbSymbolTableRecord
100
AcDbLinetypeTableRecord
  2
AM_ISO09W050
 70
     0
  3
_____ . . _____ . . _____ . . ____ .. ____
 72
    65
 73
     6
 40
22.5
 49
12.0
 74
     0
 49
-1.5
 74
     0
 49
3.0
 74
     0
 49
-1.5
 74
     0
 49
3.0
 74
     0
 49
-1.5
 74
     0
  0
LTYPE
  5
1700
330
5
100
AcDbSymbolTableRecord
100
AcDbLinetypeTableRecord
  2
AM_ISO02W050x2
 70
     0
  3
 _ _ _ _ _ _ _ _ _ _ _ _
 72
    65
 73
     2
 40
3.75
 49
3.0
 74
     0
 49
-0.75
 74
     0
  0
LTYPE
  5
1701
330
5
100
AcDbSymbolTableRecord
100
AcDbLinetypeTableRecord
  2
Amzigzag
 70
     0
  3
/\/-/\/-/\/-/\/-/\/-/\/
 72
    65
 73
     2
 40
11.0001
 49
0.0001
 74
     4
 75
   135
340
7D2
 46
0.04
 50
0.0
 44
0.0
 45
0.0
 49
-11.0
 74
     0
  0
LTYPE
  5
3C82
330
5
100
AcDbSymbolTableRecord
100
AcDbLinetypeTableRecord
  2
HIDDEN2
 70
     0
  3
Hidden (.5x) _ _ _ _ _ _ _ _ _ _ _ _ _ _ _ _ _
 72
    65
 73
     2
 40
0.1875
 49
0.125
 74
     0
 49
-0.0625
 74
     0
  0
ENDTAB
  0
TABLE
  2
LAYER
  5
2
102
{ACAD_XDICTIONARY
360
361C
102
}
330
0
100
AcDbSymbolTable
 70
     8
  0
LAYER
  5
10
330
2
100
AcDbSymbolTableRecord
100
AcDbLayerTableRecord
  2
0
 70
     0
 62
     7
  6
CONTINUOUS
370
    -3
390
B32
  0
LAYER
  5
26
330
2
100
AcDbSymbolTableRecord
100
AcDbLayerTableRecord
  2
DEFPOINTS
 70
     0
 62
     7
  6
CONTINUOUS
290
     0
370
    -3
390
B32
  0
LAYER
  5
516
330
2
100
AcDbSymbolTableRecord
100
AcDbLayerTableRecord
  2
ASHADE
 70
     0
 62
     7
  6
CONTINUOUS
370
    -3
390
B32
  0
LAYER
  5
C16
330
2
100
AcDbSymbolTableRecord
100
AcDbLayerTableRecord
  2
AM_7
 70
     0
 62
     1
  6
CENTER
370
    25
390
B32
  0
LAYER
  5
C17
330
2
100
AcDbSymbolTableRecord
100
AcDbLayerTableRecord
  2
AM_VIS
 70
     2
 62
     7
  6
CONTINUOUS
370
    50
390
B32
  0
LAYER
  5
C18
330
2
100
AcDbSymbolTableRecord
100
AcDbLayerTableRecord
  2
AM_4
 70
     0
 62
     3
  6
CONTINUOUS
370
    25
390
B32
  0
LAYER
  5
11C1
330
2
100
AcDbSymbolTableRecord
100
AcDbLayerTableRecord
  2
AM_5
 70
     0
 62
     5
  6
CONTINUOUS
370
    25
390
B32
  0
LAYER
  5
3617
330
2
100
AcDbSymbolTableRecord
100
AcDbLayerTableRecord
  2
LOGO
 70
     0
 62
     7
  6
CONTINUOUS
370
    -3
390
B32
  0
ENDTAB
  0
TABLE
  2
STYLE
  5
3
330
0
100
AcDbSymbolTable
 70
     7
  0
STYLE
  5
11
330
3
100
AcDbSymbolTableRecord
100
AcDbTextStyleTableRecord
  2
STANDARD
 70
     0
 40
0.0
 41
1.0
 50
0.0
 71
     0
 42
3.5
  3
ISOCP.SHX
  4

  0
STYLE
  5
22
330
3
100
AcDbSymbolTableRecord
100
AcDbTextStyleTableRecord
  2
DAYUS
 70
     0
 40
0.0
 41
1.0
 50
0.0
 71
     0
 42
3.0
  3
simplex
  4
dayus
  0
STYLE
  5
7D2
330
3
100
AcDbSymbolTableRecord
100
AcDbTextStyleTableRecord
  2

 70
     1
 40
0.0
 41
1.0
 50
0.0
 71
     0
 42
4.0
  3
ltypeshp.shx
  4

  0
STYLE
  5
C19
330
3
100
AcDbSymbolTableRecord
100
AcDbTextStyleTableRecord
  2
ACISOTS
 70
     0
 40
1.0
 41
1.0
 50
0.0
 71
     0
 42
2.5
  3
isocp.shx
  4
chineset.shx
  0
STYLE
  5
C1A
330
3
100
AcDbSymbolTableRecord
100
AcDbTextStyleTableRecord
  2
ACISOGDT
 70
     0
 40
0.0
 41
1.0
 50
0.0
 71
     0
 42
2.5
  3
amgdt.shx
  4

  0
STYLE
  5
3618
330
3
100
AcDbSymbolTableRecord
100
AcDbTextStyleTableRecord
  2
CHINESET
 70
     0
 40
0.0
 41
1.0
 50
0.0
 71
     0
 42
3.0
  3
simplex.shx
  4
CHINESET.SHX
  0
ENDTAB
  0
TABLE
  2
VIEW
  5
6
330
0
100
AcDbSymbolTable
 70
     0
  0
ENDTAB
  0
TABLE
  2
UCS
  5
7
330
0
100
AcDbSymbolTable
 70
     0
  0
ENDTAB
  0
TABLE
  2
APPID
  5
9
330
0
100
AcDbSymbolTable
 70
    24
  0
APPID
  5
12
330
9
100
AcDbSymbolTableRecord
100
AcDbRegAppTableRecord
  2
ACAD
 70
     0
  0
APPID
  5
514
330
9
100
AcDbSymbolTableRecord
100
AcDbRegAppTableRecord
  2
AVE_RENDER
 70
     0
  0
APPID
  5
515
330
9
100
AcDbSymbolTableRecord
100
AcDbRegAppTableRecord
  2
AVE_ENTITY_MATERIAL
 70
     0
  0
APPID
  5
522
330
9
100
AcDbSymbolTableRecord
100
AcDbRegAppTableRecord
  2
AVE_FINISH
 70
     0
  0
APPID
  5
523
330
9
100
AcDbSymbolTableRecord
100
AcDbRegAppTableRecord
  2
AVE_MATERIAL
 70
     0
  0
APPID
  5
524
330
9
100
AcDbSymbolTableRecord
100
AcDbRegAppTableRecord
  2
AVE_GLOBAL
 70
     0
  0
APPID
  5
7AD
330
9
100
AcDbSymbolTableRecord
100
AcDbRegAppTableRecord
  2
MCAD_NO_VIS
 70
     0
  0
APPID
  5
7AE
330
9
100
AcDbSymbolTableRecord
100
AcDbRegAppTableRecord
  2
ACAD_TEMP_GRAPHIC
 70
     0
  0
APPID
  5
7BF
330
9
100
AcDbSymbolTableRecord
100
AcDbRegAppTableRecord
  2
ACATTRIBSERVICES
 70
     0
  0
APPID
  5
C22
330
9
100
AcDbSymbolTableRecord
100
AcDbRegAppTableRecord
  2
GENIUS_GENODEF_13
 70
     0
  0
APPID
  5
C23
330
9
100
AcDbSymbolTableRecord
100
AcDbRegAppTableRecord
  2
GENIUS_GENOREF_13
 70
     0
  0
APPID
  5
C24
330
9
100
AcDbSymbolTableRecord
100
AcDbRegAppTableRecord
  2
GENIUS_GENOBJ-N-CEN_13
 70
     0
  0
APPID
  5
16D2
330
9
100
AcDbSymbolTableRecord
100
AcDbRegAppTableRecord
  2
GENIUS_GENDTOL_13
 70
     0
  0
APPID
  5
2E9A
330
9
100
AcDbSymbolTableRecord
100
AcDbRegAppTableRecord
  2
AD_DRAW
 70
     0
  0
APPID
  5
2EB8
330
9
100
AcDbSymbolTableRecord
100
AcDbRegAppTableRecord
  2
DESIGNERASSEMBLIES
 70
     0
  0
APPID
  5
2EBD
330
9
100
AcDbSymbolTableRecord
100
AcDbRegAppTableRecord
  2
ACADM_DIM_EDIT
 70
     0
  0
APPID
  5
2EBE
330
9
100
AcDbSymbolTableRecord
100
AcDbRegAppTableRecord
  2
AMDT_DM_ADJ
 70
     0
  0
APPID
  5
2EF2
330
9
100
AcDbSymbolTableRecord
100
AcDbRegAppTableRecord
  2
GENIUS_GENOLIS_13
 70
     0
  0
APPID
  5
2EF3
330
9
100
AcDbSymbolTableRecord
100
AcDbRegAppTableRecord
  2
GENIUS_GENOENT_13
 70
     0
  0
APPID
  5
2EF4
330
9
100
AcDbSymbolTableRecord
100
AcDbRegAppTableRecord
  2
GENIUS_GENOBJ-N-CRS_13
 70
     0
  0
APPID
  5
3619
330
9
100
AcDbSymbolTableRecord
100
AcDbRegAppTableRecord
  2
ACAD_PSEXT
 70
     0
  0
APPID
  5
361A
330
9
100
AcDbSymbolTableRecord
100
AcDbRegAppTableRecord
  2
GENIUS_GENREC_14
 70
     0
  0
APPID
  5
361B
330
9
100
AcDbSymbolTableRecord
100
AcDbRegAppTableRecord
  2
GENIUS_GENOBJ-N-REC_13
 70
     0
  0
APPID
  5
3B55
330
9
100
AcDbSymbolTableRecord
100
AcDbRegAppTableRecord
  2
GENIUS_GENCEN_19
 70
     0
  0
ENDTAB
  0
TABLE
  2
DIMSTYLE
  5
A
330
0
100
AcDbSymbolTable
 70
     9
100
AcDbDimStyleTable
 71
     1
340
C1B
  0
DIMSTYLE
105
C1B
102
{ACAD_REACTORS
330
5134
330
5135
330
5136
330
5137
330
5138
330
5139
330
513A
330
513C
330
513D
330
5155
330
5156
330
5157
330
5158
330
5159
330
515A
330
515B
330
5168
330
5169
330
56D4
330
56D5
330
56D6
330
56D7
330
56F9
330
56FA
330
56FB
330
56FC
330
56FD
330
56FE
330
56FF
330
5700
330
5701
330
5702
330
570A
102
}
330
A
100
AcDbSymbolTableRecord
100
AcDbDimStyleTableRecord
  2
AM_ISO
 70
     0
  4
"
 41
3.0
 42
1.0
 43
6.0
 44
1.5
 47
0.1
 48
0.1
 73
     0
 74
     0
 77
     1
 78
     8
 79
     2
140
3.0
141
3.0
143
0.0393701
146
0.71
147
0.8
172
     1
176
   256
177
   256
178
   256
271
     2
272
     2
283
     0
284
     8
340
11
371
    -1
372
    -1
  0
DIMSTYLE
105
C1C
102
{ACAD_REACTORS
330
513B
330
5703
102
}
330
A
100
AcDbSymbolTableRecord
100
AcDbDimStyleTableRecord
  2
AM_ISO$3
 70
     0
  4
"
 41
3.0
 42
1.0
 43
6.0
 44
1.5
 47
0.1
 48
0.1
 73
     0
 77
     1
 78
     8
 79
     2
140
3.0
141
3.0
143
0.0393701
146
0.71
147
0.8
176
   256
177
   256
178
   256
271
     2
272
     2
283
     0
284
     8
288
     1
289
     0
340
11
371
    -1
372
    -1
  0
DIMSTYLE
105
C1D
330
A
100
AcDbSymbolTableRecord
100
AcDbDimStyleTableRecord
  2
AM_ISO$4
 70
     0
  4
"
 41
3.0
 42
1.0
 43
6.0
 44
1.5
 47
0.1
 48
0.1
 73
     0
 77
     1
 78
     8
 79
     2
140
3.0
141
3.0
143
0.0393701
146
0.71
147
0.8
176
   256
177
   256
178
   256
271
     2
272
     2
283
     0
284
     8
288
     1
289
     0
340
11
371
    -1
372
    -1
  0
DIMSTYLE
105
C1E
330
A
100
AcDbSymbolTableRecord
100
AcDbDimStyleTableRecord
  2
AM_ISO$6
 70
     0
  4
"
 41
3.0
 42
1.0
 43
6.0
 44
1.5
 47
0.1
 48
0.1
 73
     0
 74
     0
 78
     8
 79
     2
140
3.0
141
3.0
143
0.0393701
146
0.71
147
0.8
172
     1
176
   256
177
   256
178
   256
271
     2
272
     2
283
     0
284
     8
340
11
371
    -1
372
    -1
  0
DIMSTYLE
105
C1F
330
A
100
AcDbSymbolTableRecord
100
AcDbDimStyleTableRecord
  2
AM_ISO$7
 70
     0
  4
"
 41
3.0
 42
1.0
 43
6.0
 44
1.5
 47
0.1
 48
0.1
 73
     0
 74
     0
 77
     1
 78
     8
 79
     2
140
5.0
141
3.0
143
0.0393701
146
0.71
147
0.8
172
     1
176
   256
177
   256
178
   256
271
     2
272
     2
283
     0
284
     8
340
11
371
    -1
372
    -1
  0
DIMSTYLE
105
C20
330
A
100
AcDbSymbolTableRecord
100
AcDbDimStyleTableRecord
  2
AM_ISO$SF
 70
     0
  4
"
 41
2.5
 42
1.0
 43
10.0
 44
1.0
 47
0.1
 48
0.1
 73
     0
 74
     0
 75
     1
 76
     1
 77
     1
 78
     8
 79
     2
140
3.5
141
0.0
143
0.0393701
146
0.71
147
1.5
172
     1
176
   256
177
   256
178
     2
271
     2
272
     3
274
     4
283
     0
284
     8
340
11
371
    -1
372
    -1
  0
DIMSTYLE
105
C21
330
A
100
AcDbSymbolTableRecord
100
AcDbDimStyleTableRecord
  2
AM_ISO$SH
 70
     0
  4
"
 41
2.5
 42
1.0
 43
10.0
 44
1.0
 47
0.1
 48
0.1
 73
     0
 74
     0
 75
     1
 76
     1
 77
     1
 78
     8
 79
     2
140
3.5
141
0.0
143
0.0393701
144
2.0
146
0.71
147
1.5
172
     1
173
     1
176
   256
177
   256
178
     2
271
     2
272
     3
274
     4
283
     0
284
     8
340
11
341
7ED
343
7ED
371
    -1
372
    -1
  0
DIMSTYLE
105
35F1
330
A
100
AcDbSymbolTableRecord
100
AcDbDimStyleTableRecord
  2
AM_ISO$0
 70
     0
  4
"
 41
3.0
 42
1.0
 43
6.0
 44
1.5
 47
0.1
 48
0.1
 73
     0
 74
     0
 77
     1
 78
     8
 79
     2
140
3.0
141
3.0
143
0.0393701
146
0.71
147
0.8
172
     1
176
   256
177
   256
178
   256
271
     2
272
     2
283
     0
284
     8
340
11
371
    -1
372
    -1
  0
ENDTAB
  0
TABLE
  2
BLOCK_RECORD
  5
1
330
0
100
AcDbSymbolTable
 70
    48
  0
BLOCK_RECORD
  5
1E
102
{ACAD_XDICTIONARY
360
708
102
}
330
1
100
AcDbSymbolTableRecord
100
AcDbBlockTableRecord
  2
*MODEL_SPACE
340
B33
  0
BLOCK_RECORD
  5
1A
102
{ACAD_XDICTIONARY
360
70A
102
}
330
1
100
AcDbSymbolTableRecord
100
AcDbBlockTableRecord
  2
*PAPER_SPACE
340
B34
  0
BLOCK_RECORD
  5
517
330
1
100
AcDbSymbolTableRecord
100
AcDbBlockTableRecord
  2
AVE_RENDER
340
0
102
{BLKREFS
331
51A
331
51B
331
51C
331
51D
331
51E
331
51F
331
520
331
521
102
}
  0
BLOCK_RECORD
  5
525
330
1
100
AcDbSymbolTableRecord
100
AcDbBlockTableRecord
  2
AVE_GLOBAL
340
0
102
{BLKREFS
331
528
102
}
  0
BLOCK_RECORD
  5
7ED
330
1
100
AcDbSymbolTableRecord
100
AcDbBlockTableRecord
  2
GENAXEH
340
0
  0
BLOCK_RECORD
  5
18E9
330
1
100
AcDbSymbolTableRecord
100
AcDbBlockTableRecord
  2
GENDOT
340
0
102
{BLKREFS
331
5AE4
331
5AF5
102
}
  0
BLOCK_RECORD
  5
3B4B
102
{ACAD_XDICTIONARY
360
3B4C
102
}
330
1
100
AcDbSymbolTableRecord
100
AcDbBlockTableRecord
  2
A$C1F6E6265
340
0
102
{BLKREFS
331
5A7E
331
5A81
102
}
  0
BLOCK_RECORD
  5
4E71
330
1
100
AcDbSymbolTableRecord
100
AcDbBlockTableRecord
  2
*S6
340
0
102
{BLKREFS
331
516A
102
}
  0
BLOCK_RECORD
  5
4E78
330
1
100
AcDbSymbolTableRecord
100
AcDbBlockTableRecord
  2
*S7
340
0
102
{BLKREFS
331
516C
102
}
  0
BLOCK_RECORD
  5
4E7F
330
1
100
AcDbSymbolTableRecord
100
AcDbBlockTableRecord
  2
*S8
340
0
102
{BLKREFS
331
516F
102
}
  0
BLOCK_RECORD
  5
5171
330
1
100
AcDbSymbolTableRecord
100
AcDbBlockTableRecord
  2
*D9
340
0
  0
BLOCK_RECORD
  5
517D
330
1
100
AcDbSymbolTableRecord
100
AcDbBlockTableRecord
  2
*D10
340
0
  0
BLOCK_RECORD
  5
5189
330
1
100
AcDbSymbolTableRecord
100
AcDbBlockTableRecord
  2
*D11
340
0
  0
BLOCK_RECORD
  5
5195
330
1
100
AcDbSymbolTableRecord
100
AcDbBlockTableRecord
  2
*D12
340
0
  0
BLOCK_RECORD
  5
51A1
330
1
100
AcDbSymbolTableRecord
100
AcDbBlockTableRecord
  2
*D13
340
0
  0
BLOCK_RECORD
  5
51AD
330
1
100
AcDbSymbolTableRecord
100
AcDbBlockTableRecord
  2
*D14
340
0
  0
BLOCK_RECORD
  5
51B9
330
1
100
AcDbSymbolTableRecord
100
AcDbBlockTableRecord
  2
*D15
340
0
  0
BLOCK_RECORD
  5
51C5
330
1
100
AcDbSymbolTableRecord
100
AcDbBlockTableRecord
  2
*D16
340
0
  0
BLOCK_RECORD
  5
51D1
330
1
100
AcDbSymbolTableRecord
100
AcDbBlockTableRecord
  2
*D17
340
0
  0
BLOCK_RECORD
  5
51DD
330
1
100
AcDbSymbolTableRecord
100
AcDbBlockTableRecord
  2
*D18
340
0
  0
BLOCK_RECORD
  5
51E9
330
1
100
AcDbSymbolTableRecord
100
AcDbBlockTableRecord
  2
*D19
340
0
  0
BLOCK_RECORD
  5
51F5
330
1
100
AcDbSymbolTableRecord
100
AcDbBlockTableRecord
  2
*D20
340
0
  0
BLOCK_RECORD
  5
5201
330
1
100
AcDbSymbolTableRecord
100
AcDbBlockTableRecord
  2
*D21
340
0
  0
BLOCK_RECORD
  5
520B
330
1
100
AcDbSymbolTableRecord
100
AcDbBlockTableRecord
  2
*D22
340
0
  0
BLOCK_RECORD
  5
5217
330
1
100
AcDbSymbolTableRecord
100
AcDbBlockTableRecord
  2
*D23
340
0
  0
BLOCK_RECORD
  5
5223
330
1
100
AcDbSymbolTableRecord
100
AcDbBlockTableRecord
  2
*D24
340
0
  0
BLOCK_RECORD
  5
522F
330
1
100
AcDbSymbolTableRecord
100
AcDbBlockTableRecord
  2
*D25
340
0
  0
BLOCK_RECORD
  5
523C
330
1
100
AcDbSymbolTableRecord
100
AcDbBlockTableRecord
  2
*D26
340
0
  0
BLOCK_RECORD
  5
5248
330
1
100
AcDbSymbolTableRecord
100
AcDbBlockTableRecord
  2
*D27
340
0
  0
BLOCK_RECORD
  5
53C9
330
1
100
AcDbSymbolTableRecord
100
AcDbBlockTableRecord
  2
*S28
340
0
102
{BLKREFS
331
5704
102
}
  0
BLOCK_RECORD
  5
53D0
330
1
100
AcDbSymbolTableRecord
100
AcDbBlockTableRecord
  2
*S29
340
0
102
{BLKREFS
331
5706
102
}
  0
BLOCK_RECORD
  5
53D7
330
1
100
AcDbSymbolTableRecord
100
AcDbBlockTableRecord
  2
*S30
340
0
102
{BLKREFS
331
5708
102
}
  0
BLOCK_RECORD
  5
570B
330
1
100
AcDbSymbolTableRecord
100
AcDbBlockTableRecord
  2
*D31
340
0
  0
BLOCK_RECORD
  5
5717
330
1
100
AcDbSymbolTableRecord
100
AcDbBlockTableRecord
  2
*D32
340
0
  0
BLOCK_RECORD
  5
5723
330
1
100
AcDbSymbolTableRecord
100
AcDbBlockTableRecord
  2
*D33
340
0
  0
BLOCK_RECORD
  5
572F
330
1
100
AcDbSymbolTableRecord
100
AcDbBlockTableRecord
  2
*D34
340
0
  0
BLOCK_RECORD
  5
573B
330
1
100
AcDbSymbolTableRecord
100
AcDbBlockTableRecord
  2
*D35
340
0
  0
BLOCK_RECORD
  5
5747
330
1
100
AcDbSymbolTableRecord
100
AcDbBlockTableRecord
  2
*D36
340
0
  0
BLOCK_RECORD
  5
5753
330
1
100
AcDbSymbolTableRecord
100
AcDbBlockTableRecord
  2
*D37
340
0
  0
BLOCK_RECORD
  5
575F
330
1
100
AcDbSymbolTableRecord
100
AcDbBlockTableRecord
  2
*D38
340
0
  0
BLOCK_RECORD
  5
576B
330
1
100
AcDbSymbolTableRecord
100
AcDbBlockTableRecord
  2
*D39
340
0
  0
BLOCK_RECORD
  5
5777
330
1
100
AcDbSymbolTableRecord
100
AcDbBlockTableRecord
  2
*D40
340
0
  0
BLOCK_RECORD
  5
5783
330
1
100
AcDbSymbolTableRecord
100
AcDbBlockTableRecord
  2
*D41
340
0
  0
BLOCK_RECORD
  5
578F
330
1
100
AcDbSymbolTableRecord
100
AcDbBlockTableRecord
  2
*D42
340
0
  0
BLOCK_RECORD
  5
579B
330
1
100
AcDbSymbolTableRecord
100
AcDbBlockTableRecord
  2
*D43
340
0
  0
BLOCK_RECORD
  5
57A7
330
1
100
AcDbSymbolTableRecord
100
AcDbBlockTableRecord
  2
*D44
340
0
  0
BLOCK_RECORD
  5
57B3
330
1
100
AcDbSymbolTableRecord
100
AcDbBlockTableRecord
  2
*D45
340
0
  0
BLOCK_RECORD
  5
57BF
330
1
100
AcDbSymbolTableRecord
100
AcDbBlockTableRecord
  2
*D46
340
0
  0
ENDTAB
  0
ENDSEC
  0
SECTION
  2
BLOCKS
  0
BLOCK
  5
29
330
1E
100
AcDbEntity
  8
0
100
AcDbBlockBegin
  2
*MODEL_SPACE
 70
     0
 10
0.0
 20
0.0
 30
0.0
  3
*MODEL_SPACE
  1

  0
ENDBLK
  5
2A
330
1E
100
AcDbEntity
  8
0
100
AcDbBlockEnd
  0
BLOCK
  5
27
330
1A
100
AcDbEntity
 67
     1
  8
0
100
AcDbBlockBegin
  2
*PAPER_SPACE
 70
     0
 10
0.0
 20
0.0
 30
0.0
  3
*PAPER_SPACE
  1

  0
ENDBLK
  5
28
330
1A
100
AcDbEntity
 67
     1
  8
0
100
AcDbBlockEnd
  0
BLOCK
  5
518
330
517
100
AcDbEntity
  8
0
100
AcDbBlockBegin
  2
AVE_RENDER
 70
     0
 10
0.0
 20
0.0
 30
0.0
  3
AVE_RENDER
  1
AVE_RENDER
  0
ENDBLK
  5
519
330
517
100
AcDbEntity
  8
0
100
AcDbBlockEnd
  0
BLOCK
  5
526
330
525
100
AcDbEntity
  8
0
100
AcDbBlockBegin
  2
AVE_GLOBAL
 70
     0
 10
0.0
 20
0.0
 30
0.0
  3
AVE_GLOBAL
  1
AVE_GLOBAL
  0
ENDBLK
  5
527
330
525
100
AcDbEntity
  8
0
100
AcDbBlockEnd
  0
BLOCK
  5
7EF
330
7ED
100
AcDbEntity
  8
0
100
AcDbBlockBegin
  2
GENAXEH
 70
     0
 10
0.0
 20
0.0
 30
0.0
  3
GENAXEH
  1

  0
LINE
  5
7EE
330
7ED
100
AcDbEntity
  8
0
100
AcDbLine
 10
-1.0
 20
0.0
 30
0.0
 11
1.0
 21
0.0
 31
0.0
  0
ENDBLK
  5
7F0
330
7ED
100
AcDbEntity
  8
0
100
AcDbBlockEnd
  0
BLOCK
  5
18EC
330
18E9
100
AcDbEntity
  8
0
100
AcDbBlockBegin
  2
GENDOT
 70
     0
 10
0.0
 20
0.0
 30
0.0
  3
GENDOT
  1

  0
LINE
  5
18EA
330
18E9
100
AcDbEntity
  8
0
100
AcDbLine
 10
0.0
 20
0.0
 30
0.0
 11
-1.0
 21
0.0
 31
0.0
  0
LWPOLYLINE
  5
18EB
330
18E9
100
AcDbEntity
  8
0
100
AcDbPolyline
 90
        2
 70
     1
 43
0.25
 10
-0.125
 20
0.0
 42
1.0
 10
0.125
 20
0.0
 42
1.0
  0
ENDBLK
  5
18ED
330
18E9
100
AcDbEntity
  8
0
100
AcDbBlockEnd
  0
BLOCK
  5
3B4E
330
3B4B
100
AcDbEntity
  8
0
100
AcDbBlockBegin
  2
A$C1F6E6265
 70
     0
 10
0.0
 20
0.0
 30
0.0
  3
A$C1F6E6265
  1

  0
LINE
  5
3B4F
330
3B4B
100
AcDbEntity
  8
AM_5
 62
     5
100
AcDbLine
 10
12.57846733029419
 20
0.460783587398737
 30
0.0
 11
7.091423997858555
 21
0.460783587398737
 31
0.0
  0
LINE
  5
3B50
330
3B4B
100
AcDbEntity
  8
AM_5
 62
     5
100
AcDbLine
 10
7.091423997858555
 20
0.460783587398737
 30
0.0
 11
3.50000046420655
 21
0.460783587398737
 31
0.0
  0
TRACE
  5
3B51
330
3B4B
100
AcDbEntity
  8
AM_5
 62
     5
370
    35
100
AcDbTrace
 10
3.50000046420655
 20
0.9215673268987245
 30
0.0
 11
3.50000046420655
 21
-0.0000001521012507
 31
0.0
 12
0.0000004642065505
 22
0.460783587398737
 32
0.0
 13
0.0000004642065505
 23
0.460783587398737
 33
0.0
  0
MTEXT
  5
3B52
330
3B4B
100
AcDbEntity
  8
AM_5
 62
     5
100
AcDbMText
 10
6.603782167567317
 20
1.421084835219261
 30
0.0
 40
2.449999999999999
 41
0.0
 71
     7
 72
     5
  1
SL
  7
ACISOTS
 73
     1
 44
1.0
1001
ACAD
1000
MTEXTBEGIN
1070
    73
1070
     1
1070
    44
1040
1.0
1070
    74
1070
     0
1000
MTEXTEND
  0
ENDBLK
  5
3B53
330
3B4B
100
AcDbEntity
  8
0
100
AcDbBlockEnd
  0
BLOCK
  5
4E72
330
4E71
100
AcDbEntity
  8
0
100
AcDbBlockBegin
  2
*S6
 70
     1
 10
0.0
 20
0.0
 30
0.0
  3
*S6
  1

  0
LINE
  5
4E73
330
4E71
100
AcDbEntity
  8
AM_5
100
AcDbLine
 10
78.52420426799653
 20
178.949521638021
 30
0.0
 11
94.44448910549528
 21
178.949521638021
 31
0.0
  0
LINE
  5
4E74
330
4E71
100
AcDbEntity
  8
AM_5
100
AcDbLine
 10
94.44448910549528
 20
178.949521638021
 30
0.0
 11
101.3757558466758
 21
169.1064007854455
 31
0.0
  0
TRACE
  5
4E75
330
4E71
100
AcDbEntity
  8
AM_5
100
AcDbTrace
 10
100.9990073004187
 20
168.8411043710694
 30
0.0
 11
101.7525043929328
 21
169.3716971998217
 31
0.0
 12
103.3908821862555
 22
166.2447114529826
 32
0.0
 13
103.3908821862555
 23
166.2447114529826
 33
0.0
  0
MTEXT
  5
4E76
330
4E71
100
AcDbEntity
  8
AM_5
 62
     2
100
AcDbMText
 10
78.52420426799653
 20
176.7281646833926
 30
0.0
 40
3.5
 41
0.0
 71
     9
 72
     5
  1

  7
ACISOTS
 73
     1
 44
1.0
1001
ACAD
1000
MTEXTBEGIN
1070
    73
1070
     1
1070
    44
1040
1.0
1070
    74
1070
     0
1000
MTEXTEND
  0
ENDBLK
  5
4E77
330
4E71
100
AcDbEntity
  8
0
100
AcDbBlockEnd
  0
BLOCK
  5
4E79
330
4E78
100
AcDbEntity
  8
0
100
AcDbBlockBegin
  2
*S7
 70
     1
 10
0.0
 20
0.0
 30
0.0
  3
*S7
  1

  0
LINE
  5
4E7A
330
4E78
100
AcDbEntity
  8
AM_5
100
AcDbLine
 10
178.9979592809629
 20
278.3472109107637
 30
0.0
 11
164.4790231219216
 21
278.3472109107637
 31
0.0
  0
LINE
  5
4E7B
330
4E78
100
AcDbEntity
  8
AM_5
100
AcDbLine
 10
164.4790231219216
 20
278.3472109107637
 30
0.0
 11
152.9088791064778
 21
270.7586302934203
 31
0.0
  0
TRACE
  5
4E7C
330
4E78
100
AcDbEntity
  8
AM_5
100
AcDbTrace
 10
152.656167853602
 20
271.1439336508643
 30
0.0
 11
153.1615903593536
 21
270.3733269359764
 31
0.0
 12
149.9822095314685
 22
268.8390977464927
 32
0.0
 13
149.9822095314685
 23
268.8390977464927
 33
0.0
  0
MTEXT
  5
4E7D
330
4E78
100
AcDbEntity
  8
AM_5
 62
     2
100
AcDbMText
 10
178.9979592809629
 20
276.652043000206
 30
0.0
 40
3.5
 41
0.0
 71
     9
 72
     5
  1

  7
ACISOTS
210
0.0
220
0.0
230
-1.0
 11
-1.0
 21
0.0
 31
0.0
 73
     1
 44
1.0
1001
ACAD
1000
MTEXTBEGIN
1070
    73
1070
     1
1070
    44
1040
1.0
1070
    74
1070
     0
1000
MTEXTEND
  0
ENDBLK
  5
4E7E
330
4E78
100
AcDbEntity
  8
0
100
AcDbBlockEnd
  0
BLOCK
  5
4E80
330
4E7F
100
AcDbEntity
  8
0
100
AcDbBlockBegin
  2
*S8
 70
     1
 10
0.0
 20
0.0
 30
0.0
  3
*S8
  1

  0
LINE
  5
4E81
330
4E7F
100
AcDbEntity
  8
AM_5
100
AcDbLine
 10
185.4897238017743
 20
224.4784711659082
 30
0.0
 11
169.6240734658053
 21
224.4784711659082
 31
0.0
  0
LINE
  5
4E82
330
4E7F
100
AcDbEntity
  8
AM_5
100
AcDbLine
 10
169.6240734658053
 20
224.4784711659082
 30
0.0
 11
159.6318013604461
 21
243.4453965656573
 31
0.0
  0
TRACE
  5
4E83
330
4E7F
100
AcDbEntity
  8
AM_5
100
AcDbTrace
 10
160.0394715062605
 20
243.6601678551707
 30
0.0
 11
159.2241312146317
 21
243.2306252761439
 31
0.0
 12
158.0004514475506
 22
246.5419587661784
 32
0.0
 13
158.0004514475506
 23
246.5419587661784
 33
0.0
  0
MTEXT
  5
4E84
330
4E7F
100
AcDbEntity
  8
AM_5
 62
     2
100
AcDbMText
 10
185.4897238017743
 20
222.983796992219
 30
0.0
 40
3.5
 41
0.0
 71
     9
 72
     5
  1

  7
ACISOTS
210
0.0
220
0.0
230
-1.0
 11
-1.0
 21
0.0
 31
0.0
 73
     1
 44
1.0
1001
ACAD
1000
MTEXTBEGIN
1070
    73
1070
     1
1070
    44
1040
1.0
1070
    74
1070
     0
1000
MTEXTEND
  0
ENDBLK
  5
4E85
330
4E7F
100
AcDbEntity
  8
0
100
AcDbBlockEnd
  0
BLOCK
  5
517B
330
5171
100
AcDbEntity
  8
0
100
AcDbBlockBegin
  2
*D9
 70
     1
 10
0.0
 20
0.0
 30
0.0
  3
*D9
  1

  0
LINE
  5
5A84
330
5171
100
AcDbEntity
  8
AM_5
100
AcDbLine
 10
114.428278264232
 20
68.22925056265569
 30
0.0
 11
124.4717301395768
 21
68.22925056265569
 31
0.0
  0
LINE
  5
5A85
330
5171
100
AcDbEntity
  8
AM_5
100
AcDbLine
 10
106.5282782642321
 20
89.22925056265569
 30
0.0
 11
124.4717301395768
 21
89.22925056265569
 31
0.0
  0
LINE
  5
5A86
330
5171
100
AcDbEntity
  8
AM_5
100
AcDbLine
 10
122.9717301395768
 20
71.22925056265569
 30
0.0
 11
122.9717301395768
 21
86.2292505626557
 31
0.0
  0
SOLID
  5
5A87
330
5171
100
AcDbEntity
  8
AM_5
100
AcDbTrace
 10
122.4717301395768
 20
71.22925056265569
 30
0.0
 11
123.4717301395768
 21
71.22925056265569
 31
0.0
 12
122.9717301395768
 22
68.22925056265569
 32
0.0
 13
122.9717301395768
 23
68.22925056265569
 33
0.0
  0
SOLID
  5
5A88
330
5171
100
AcDbEntity
  8
AM_5
100
AcDbTrace
 10
122.4717301395768
 20
86.2292505626557
 30
0.0
 11
123.4717301395768
 21
86.2292505626557
 31
0.0
 12
122.9717301395768
 22
89.22925056265569
 32
0.0
 13
122.9717301395768
 23
89.22925056265569
 33
0.0
  0
MTEXT
  5
5A89
330
5171
100
AcDbEntity
  8
AM_5
100
AcDbMText
 10
120.6714348639862
 20
78.72925056265571
 30
0.0
 40
3.0
 41
0.0
 71
     5
 72
     1
  1
21
 11
0.0000000000000001
 21
1.0
 31
0.0
 73
     1
 44
1.0
1001
ACAD
1000
MTEXTBEGIN
1070
    73
1070
     1
1070
    44
1040
1.0
1070
    74
1070
     0
1000
MTEXTEND
  0
POINT
  5
5A8A
330
5171
100
AcDbEntity
  8
DEFPOINTS
 62
     0
100
AcDbPoint
 10
113.428278264232
 20
68.22925056265569
 30
0.0
  0
POINT
  5
5A8B
330
5171
100
AcDbEntity
  8
DEFPOINTS
 62
     0
100
AcDbPoint
 10
105.5282782642321
 20
89.22925056265569
 30
0.0
  0
POINT
  5
5A8C
330
5171
100
AcDbEntity
  8
DEFPOINTS
 62
     0
100
AcDbPoint
 10
122.9717301395768
 20
89.22925056265569
 30
0.0
  0
ENDBLK
  5
517C
330
5171
100
AcDbEntity
  8
0
100
AcDbBlockEnd
  0
BLOCK
  5
5187
330
517D
100
AcDbEntity
  8
0
100
AcDbBlockBegin
  2
*D10
 70
     1
 10
0.0
 20
0.0
 30
0.0
  3
*D10
  1

  0
LINE
  5
5A8D
330
517D
100
AcDbEntity
  8
AM_5
100
AcDbLine
 10
114.428278264232
 20
68.22925056265569
 30
0.0
 11
131.4717301395768
 21
68.22925056265569
 31
0.0
  0
LINE
  5
5A8E
330
517D
100
AcDbEntity
  8
AM_5
100
AcDbLine
 10
114.428278264232
 20
110.2292505626557
 30
0.0
 11
131.4717301395768
 21
110.2292505626557
 31
0.0
  0
LINE
  5
5A8F
330
517D
100
AcDbEntity
  8
AM_5
100
AcDbLine
 10
129.9717301395768
 20
71.22925056265569
 30
0.0
 11
129.9717301395768
 21
107.2292505626557
 31
0.0
  0
SOLID
  5
5A90
330
517D
100
AcDbEntity
  8
AM_5
100
AcDbTrace
 10
129.4717301395768
 20
71.22925056265569
 30
0.0
 11
130.4717301395768
 21
71.22925056265569
 31
0.0
 12
129.9717301395768
 22
68.22925056265569
 32
0.0
 13
129.9717301395768
 23
68.22925056265569
 33
0.0
  0
SOLID
  5
5A91
330
517D
100
AcDbEntity
  8
AM_5
100
AcDbTrace
 10
129.4717301395768
 20
107.2292505626557
 30
0.0
 11
130.4717301395768
 21
107.2292505626557
 31
0.0
 12
129.9717301395768
 22
110.2292505626557
 32
0.0
 13
129.9717301395768
 23
110.2292505626557
 33
0.0
  0
MTEXT
  5
5A92
330
517D
100
AcDbEntity
  8
AM_5
100
AcDbMText
 10
127.6714348639862
 20
89.22925056265571
 30
0.0
 40
3.0
 41
0.0
 71
     5
 72
     1
  1
42
 11
0.0000000000000001
 21
1.0
 31
0.0
 73
     1
 44
1.0
1001
ACAD
1000
MTEXTBEGIN
1070
    73
1070
     1
1070
    44
1040
1.0
1070
    74
1070
     0
1000
MTEXTEND
  0
POINT
  5
5A93
330
517D
100
AcDbEntity
  8
DEFPOINTS
 62
     0
100
AcDbPoint
 10
113.428278264232
 20
68.22925056265569
 30
0.0
  0
POINT
  5
5A94
330
517D
100
AcDbEntity
  8
DEFPOINTS
 62
     0
100
AcDbPoint
 10
113.428278264232
 20
110.2292505626557
 30
0.0
  0
POINT
  5
5A95
330
517D
100
AcDbEntity
  8
DEFPOINTS
 62
     0
100
AcDbPoint
 10
129.9717301395768
 20
110.2292505626557
 30
0.0
  0
ENDBLK
  5
5188
330
517D
100
AcDbEntity
  8
0
100
AcDbBlockEnd
  0
BLOCK
  5
5193
330
5189
100
AcDbEntity
  8
0
100
AcDbBlockBegin
  2
*D11
 70
     1
 10
0.0
 20
0.0
 30
0.0
  3
*D11
  1

  0
LINE
  5
5C58
330
5189
100
AcDbEntity
  8
AM_5
100
AcDbLine
 10
184.8425619996936
 20
76.22925056265569
 30
0.0
 11
148.7119932877272
 21
76.22925056265571
 31
0.0
  0
LINE
  5
5C59
330
5189
100
AcDbEntity
  8
AM_5
100
AcDbLine
 10
184.8425619996936
 20
102.2292505626557
 30
0.0
 11
148.7119932877272
 21
102.2292505626557
 31
0.0
  0
LINE
  5
5C5A
330
5189
100
AcDbEntity
  8
AM_5
100
AcDbLine
 10
150.2119932877272
 20
79.22925056265571
 30
0.0
 11
150.2119932877272
 21
99.22925056265571
 31
0.0
  0
SOLID
  5
5C5B
330
5189
100
AcDbEntity
  8
AM_5
100
AcDbTrace
 10
149.7119932877272
 20
79.22925056265571
 30
0.0
 11
150.7119932877272
 21
79.22925056265571
 31
0.0
 12
150.2119932877272
 22
76.22925056265571
 32
0.0
 13
150.2119932877272
 23
76.22925056265571
 33
0.0
  0
SOLID
  5
5C5C
330
5189
100
AcDbEntity
  8
AM_5
100
AcDbTrace
 10
149.7119932877272
 20
99.22925056265571
 30
0.0
 11
150.7119932877272
 21
99.22925056265571
 31
0.0
 12
150.2119932877272
 22
102.2292505626557
 32
0.0
 13
150.2119932877272
 23
102.2292505626557
 33
0.0
  0
MTEXT
  5
5C5D
330
5189
100
AcDbEntity
  8
AM_5
100
AcDbMText
 10
147.0417909606573
 20
89.22925056265581
 30
0.0
 40
3.0
 41
0.0
 71
     5
 72
     1
  1
%%c26{\H2.130000;\S 0^ -0.033;}
 11
0.0000000000000001
 21
1.0
 31
0.0
 73
     1
 44
1.0
1001
ACAD
1000
MTEXTBEGIN
1070
    73
1070
     1
1070
    44
1040
1.0
1070
    74
1070
     0
1000
MTEXTEND
  0
POINT
  5
5C5E
330
5189
100
AcDbEntity
  8
DEFPOINTS
 62
     0
100
AcDbPoint
 10
185.8425619996936
 20
76.22925056265569
 30
0.0
  0
POINT
  5
5C5F
330
5189
100
AcDbEntity
  8
DEFPOINTS
 62
     0
100
AcDbPoint
 10
185.8425619996936
 20
102.2292505626557
 30
0.0
  0
POINT
  5
5C60
330
5189
100
AcDbEntity
  8
DEFPOINTS
 62
     0
100
AcDbPoint
 10
150.2119932877272
 20
102.2292505626557
 30
0.0
  0
ENDBLK
  5
5194
330
5189
100
AcDbEntity
  8
0
100
AcDbBlockEnd
  0
BLOCK
  5
519F
330
5195
100
AcDbEntity
  8
0
100
AcDbBlockBegin
  2
*D12
 70
     1
 10
0.0
 20
0.0
 30
0.0
  3
*D12
  1

  0
LINE
  5
5A9F
330
5195
100
AcDbEntity
  8
AM_5
100
AcDbLine
 10
157.3425619996936
 20
84.22925056265569
 30
0.0
 11
157.3425619996936
 21
44.74864309256315
 31
0.0
  0
LINE
  5
5AA0
330
5195
100
AcDbEntity
  8
AM_5
100
AcDbLine
 10
188.3425619996936
 20
67.2292505626557
 30
0.0
 11
188.3425619996936
 21
44.74864309256315
 31
0.0
  0
LINE
  5
5AA1
330
5195
100
AcDbEntity
  8
AM_5
100
AcDbLine
 10
160.3425619996936
 20
46.24864309256316
 30
0.0
 11
185.3425619996936
 21
46.24864309256316
 31
0.0
  0
SOLID
  5
5AA2
330
5195
100
AcDbEntity
  8
AM_5
100
AcDbTrace
 10
160.3425619996936
 20
46.74864309256316
 30
0.0
 11
160.3425619996936
 21
45.74864309256315
 31
0.0
 12
157.3425619996936
 22
46.24864309256316
 32
0.0
 13
157.3425619996936
 23
46.24864309256316
 33
0.0
  0
SOLID
  5
5AA3
330
5195
100
AcDbEntity
  8
AM_5
100
AcDbTrace
 10
185.3425619996936
 20
46.74864309256316
 30
0.0
 11
185.3425619996936
 21
45.74864309256315
 31
0.0
 12
188.3425619996936
 22
46.24864309256316
 32
0.0
 13
188.3425619996936
 23
46.24864309256316
 33
0.0
  0
MTEXT
  5
5AA4
330
5195
100
AcDbEntity
  8
AM_5
100
AcDbMText
 10
172.8425619996936
 20
48.54864309256315
 30
0.0
 40
3.0
 41
0.0
 71
     5
 72
     1
  1
31
 73
     1
 44
1.0
1001
ACAD
1000
MTEXTBEGIN
1070
    73
1070
     1
1070
    44
1040
1.0
1070
    74
1070
     0
1000
MTEXTEND
  0
POINT
  5
5AA5
330
5195
100
AcDbEntity
  8
DEFPOINTS
 62
     0
100
AcDbPoint
 10
157.3425619996936
 20
85.22925056265568
 30
0.0
  0
POINT
  5
5AA6
330
5195
100
AcDbEntity
  8
DEFPOINTS
 62
     0
100
AcDbPoint
 10
188.3425619996936
 20
68.22925056265569
 30
0.0
  0
POINT
  5
5AA7
330
5195
100
AcDbEntity
  8
DEFPOINTS
 62
     0
100
AcDbPoint
 10
188.3425619996936
 20
46.24864309256316
 30
0.0
  0
ENDBLK
  5
51A0
330
5195
100
AcDbEntity
  8
0
100
AcDbBlockEnd
  0
BLOCK
  5
51AB
330
51A1
100
AcDbEntity
  8
0
100
AcDbBlockBegin
  2
*D13
 70
     1
 10
0.0
 20
0.0
 30
0.0
  3
*D13
  1

  0
LINE
  5
5AA8
330
51A1
100
AcDbEntity
  8
AM_5
100
AcDbLine
 10
188.3425619996936
 20
66.22925056265569
 30
0.0
 11
188.3425619996936
 21
44.74864309256315
 31
0.0
  0
LINE
  5
5AA9
330
51A1
100
AcDbEntity
  8
AM_5
100
AcDbLine
 10
266.3425619996937
 20
71.47925056265569
 30
0.0
 11
266.3425619996937
 21
44.74864309256315
 31
0.0
  0
LINE
  5
5AAA
330
51A1
100
AcDbEntity
  8
AM_5
100
AcDbLine
 10
191.3425619996936
 20
46.24864309256316
 30
0.0
 11
263.3425619996937
 21
46.24864309256316
 31
0.0
  0
SOLID
  5
5AAB
330
51A1
100
AcDbEntity
  8
AM_5
100
AcDbTrace
 10
191.3425619996936
 20
46.74864309256316
 30
0.0
 11
191.3425619996936
 21
45.74864309256315
 31
0.0
 12
188.3425619996936
 22
46.24864309256316
 32
0.0
 13
188.3425619996936
 23
46.24864309256316
 33
0.0
  0
SOLID
  5
5AAC
330
51A1
100
AcDbEntity
  8
AM_5
100
AcDbTrace
 10
263.3425619996937
 20
46.74864309256316
 30
0.0
 11
263.3425619996937
 21
45.74864309256315
 31
0.0
 12
266.3425619996937
 22
46.24864309256316
 32
0.0
 13
266.3425619996937
 23
46.24864309256316
 33
0.0
  0
MTEXT
  5
5AAD
330
51A1
100
AcDbEntity
  8
AM_5
100
AcDbMText
 10
227.3425619996936
 20
48.54864309256315
 30
0.0
 40
3.0
 41
0.0
 71
     5
 72
     1
  1
78+stroke
 73
     1
 44
1.0
1001
ACAD
1000
MTEXTBEGIN
1070
    73
1070
     1
1070
    44
1040
1.0
1070
    74
1070
     0
1000
MTEXTEND
  0
POINT
  5
5AAE
330
51A1
100
AcDbEntity
  8
DEFPOINTS
 62
     0
100
AcDbPoint
 10
188.3425619996936
 20
67.2292505626557
 30
0.0
  0
POINT
  5
5AAF
330
51A1
100
AcDbEntity
  8
DEFPOINTS
 62
     0
100
AcDbPoint
 10
266.3425619996937
 20
72.47925056265569
 30
0.0
  0
POINT
  5
5AB0
330
51A1
100
AcDbEntity
  8
DEFPOINTS
 62
     0
100
AcDbPoint
 10
266.3425619996937
 20
46.24864309256316
 30
0.0
  0
ENDBLK
  5
51AC
330
51A1
100
AcDbEntity
  8
0
100
AcDbBlockEnd
  0
BLOCK
  5
51B7
330
51AD
100
AcDbEntity
  8
0
100
AcDbBlockBegin
  2
*D14
 70
     1
 10
0.0
 20
0.0
 30
0.0
  3
*D14
  1

  0
LINE
  5
5AB1
330
51AD
100
AcDbEntity
  8
AM_5
100
AcDbLine
 10
157.3425619996936
 20
84.22925056265569
 30
0.0
 11
157.3425619996936
 21
37.74864309256316
 31
0.0
  0
LINE
  5
5AB2
330
51AD
100
AcDbEntity
  8
AM_5
100
AcDbLine
 10
266.3425619996937
 20
71.47925056265569
 30
0.0
 11
266.3425619996937
 21
37.74864309256316
 31
0.0
  0
LINE
  5
5AB3
330
51AD
100
AcDbEntity
  8
AM_5
100
AcDbLine
 10
160.3425619996936
 20
39.24864309256316
 30
0.0
 11
263.3425619996937
 21
39.24864309256316
 31
0.0
  0
SOLID
  5
5AB4
330
51AD
100
AcDbEntity
  8
AM_5
100
AcDbTrace
 10
160.3425619996936
 20
39.74864309256316
 30
0.0
 11
160.3425619996936
 21
38.74864309256316
 31
0.0
 12
157.3425619996936
 22
39.24864309256316
 32
0.0
 13
157.3425619996936
 23
39.24864309256316
 33
0.0
  0
SOLID
  5
5AB5
330
51AD
100
AcDbEntity
  8
AM_5
100
AcDbTrace
 10
263.3425619996937
 20
39.74864309256316
 30
0.0
 11
263.3425619996937
 21
38.74864309256316
 31
0.0
 12
266.3425619996937
 22
39.24864309256316
 32
0.0
 13
266.3425619996937
 23
39.24864309256316
 33
0.0
  0
MTEXT
  5
5AB6
330
51AD
100
AcDbEntity
  8
AM_5
100
AcDbMText
 10
211.8425619996937
 20
41.54864309256315
 30
0.0
 40
3.0
 41
0.0
 71
     5
 72
     1
  1
109+stroke
 73
     1
 44
1.0
1001
ACAD
1000
MTEXTBEGIN
1070
    73
1070
     1
1070
    44
1040
1.0
1070
    74
1070
     0
1000
MTEXTEND
  0
POINT
  5
5AB7
330
51AD
100
AcDbEntity
  8
DEFPOINTS
 62
     0
100
AcDbPoint
 10
157.3425619996936
 20
85.22925056265568
 30
0.0
  0
POINT
  5
5AB8
330
51AD
100
AcDbEntity
  8
DEFPOINTS
 62
     0
100
AcDbPoint
 10
266.3425619996937
 20
72.47925056265569
 30
0.0
  0
POINT
  5
5AB9
330
51AD
100
AcDbEntity
  8
DEFPOINTS
 62
     0
100
AcDbPoint
 10
266.3425619996937
 20
39.24864309256316
 30
0.0
  0
ENDBLK
  5
51B8
330
51AD
100
AcDbEntity
  8
0
100
AcDbBlockEnd
  0
BLOCK
  5
51C3
330
51B9
100
AcDbEntity
  8
0
100
AcDbBlockBegin
  2
*D15
 70
     1
 10
0.0
 20
0.0
 30
0.0
  3
*D15
  1

  0
LINE
  5
5ABA
330
51B9
100
AcDbEntity
  8
AM_5
100
AcDbLine
 10
300.5923832733489
 20
80.88078133430611
 30
0.0
 11
300.5923832733489
 21
56.50497880836372
 31
0.0
  0
LINE
  5
5ABB
330
51B9
100
AcDbEntity
  8
AM_5
100
AcDbLine
 10
335.0923832733489
 20
80.88078133430627
 30
0.0
 11
335.0923832733489
 21
56.50497880836372
 31
0.0
  0
LINE
  5
5ABC
330
51B9
100
AcDbEntity
  8
AM_5
100
AcDbLine
 10
303.5923832733489
 20
58.00497880836371
 30
0.0
 11
332.0923832733489
 21
58.00497880836371
 31
0.0
  0
SOLID
  5
5ABD
330
51B9
100
AcDbEntity
  8
AM_5
100
AcDbTrace
 10
303.5923832733489
 20
58.50497880836371
 30
0.0
 11
303.5923832733489
 21
57.50497880836372
 31
0.0
 12
300.5923832733489
 22
58.00497880836371
 32
0.0
 13
300.5923832733489
 23
58.00497880836371
 33
0.0
  0
SOLID
  5
5ABE
330
51B9
100
AcDbEntity
  8
AM_5
100
AcDbTrace
 10
332.0923832733489
 20
58.50497880836371
 30
0.0
 11
332.0923832733489
 21
57.50497880836372
 31
0.0
 12
335.0923832733489
 22
58.00497880836371
 32
0.0
 13
335.0923832733489
 23
58.00497880836371
 33
0.0
  0
MTEXT
  5
5ABF
330
51B9
100
AcDbEntity
  8
AM_5
100
AcDbMText
 10
317.8423832733489
 20
60.30497880836371
 30
0.0
 40
3.0
 41
0.0
 71
     5
 72
     1
  1
{\Famgdt|c136;o}34.5
 73
     1
 44
1.0
1001
ACAD
1000
MTEXTBEGIN
1070
    73
1070
     1
1070
    44
1040
1.0
1070
    74
1070
     0
1000
MTEXTEND
  0
POINT
  5
5AC0
330
51B9
100
AcDbEntity
  8
DEFPOINTS
 62
     0
100
AcDbPoint
 10
300.5923832733489
 20
81.88078133430611
 30
0.0
  0
POINT
  5
5AC1
330
51B9
100
AcDbEntity
  8
DEFPOINTS
 62
     0
100
AcDbPoint
 10
335.0923832733489
 20
81.88078133430627
 30
0.0
  0
POINT
  5
5AC2
330
51B9
100
AcDbEntity
  8
DEFPOINTS
 62
     0
100
AcDbPoint
 10
335.0923832733489
 20
58.00497880836371
 30
0.0
  0
ENDBLK
  5
51C4
330
51B9
100
AcDbEntity
  8
0
100
AcDbBlockEnd
  0
BLOCK
  5
51CF
330
51C5
100
AcDbEntity
  8
0
100
AcDbBlockBegin
  2
*D16
 70
     1
 10
0.0
 20
0.0
 30
0.0
  3
*D16
  1

  0
LINE
  5
5AC3
330
51C5
100
AcDbEntity
  8
AM_5
100
AcDbLine
 10
305.1733138967828
 20
71.54996378032935
 30
0.0
 11
303.4258560517392
 21
69.11144146552563
 31
0.0
  0
LINE
  5
5AC4
330
51C5
100
AcDbEntity
  8
AM_5
100
AcDbLine
 10
330.5114526499147
 20
106.9085373449827
 30
0.0
 11
336.5469900289014
 21
115.3309394202232
 31
0.0
  0
LINE
  5
5AC5
330
51C5
100
AcDbEntity
  8
AM_5
100
AcDbLine
 10
336.5469900289014
 20
115.3309394202232
 30
0.0
 11
346.4712540976133
 21
115.3309394202233
 31
0.0
  0
LINE
  5
5AC6
330
51C5
100
AcDbEntity
  8
AM_5
100
AcDbLine
 10
306.9207717418265
 20
73.98848609513304
 30
0.0
 11
328.7639948048712
 21
104.4700150301789
 31
0.0
  0
SOLID
  5
5AC7
330
51C5
100
AcDbEntity
  8
AM_5
100
AcDbTrace
 10
304.7668935109822
 20
71.84120675450329
 30
0.0
 11
305.5797342825834
 21
71.25872080615542
 31
0.0
 12
306.9207717418265
 22
73.98848609513304
 32
0.0
 13
306.9207717418265
 23
73.98848609513304
 33
0.0
  0
SOLID
  5
5AC8
330
51C5
100
AcDbEntity
  8
AM_5
100
AcDbTrace
 10
330.1050322641142
 20
107.1997803191566
 30
0.0
 11
330.9178730357154
 21
106.6172943708087
 31
0.0
 12
328.7639948048712
 22
104.4700150301789
 32
0.0
 13
328.7639948048712
 23
104.4700150301789
 33
0.0
  0
MTEXT
  5
5AC9
330
51C5
100
AcDbEntity
  8
AM_5
100
AcDbMText
 10
341.9091220632573
 20
117.6309394202232
 30
0.0
 40
3.0
 41
0.0
 71
     5
 72
     1
  1
\U+220537.5
 73
     1
 44
1.0
1001
ACAD
1000
MTEXTBEGIN
1070
    73
1070
     1
1070
    44
1040
1.0
1070
    74
1070
     0
1000
MTEXTEND
  0
POINT
  5
5ACA
330
51C5
100
AcDbEntity
  8
DEFPOINTS
 62
     0
100
AcDbPoint
 10
328.7639948048712
 20
104.4700150301789
 30
0.0
  0
POINT
  5
5ACB
330
51C5
100
AcDbEntity
  8
DEFPOINTS
 62
     0
100
AcDbPoint
 10
306.9207717418265
 20
73.98848609513304
 30
0.0
  0
ENDBLK
  5
51D0
330
51C5
100
AcDbEntity
  8
0
100
AcDbBlockEnd
  0
BLOCK
  5
51DB
330
51D1
100
AcDbEntity
  8
0
100
AcDbBlockBegin
  2
*D17
 70
     1
 10
0.0
 20
0.0
 30
0.0
  3
*D17
  1

  0
LINE
  5
5ACC
330
51D1
100
AcDbEntity
  8
AM_5
100
AcDbLine
 10
190.7425619996936
 20
155.750836257123
 30
0.0
 11
143.8425619996937
 21
155.750836257123
 31
0.0
  0
LINE
  5
5ACD
330
51D1
100
AcDbEntity
  8
AM_5
100
AcDbLine
 10
190.7425619996936
 20
185.750836257123
 30
0.0
 11
143.8425619996937
 21
185.750836257123
 31
0.0
  0
LINE
  5
5ACE
330
51D1
100
AcDbEntity
  8
AM_5
100
AcDbLine
 10
145.3425619996937
 20
158.750836257123
 30
0.0
 11
145.3425619996937
 21
182.750836257123
 31
0.0
  0
SOLID
  5
5ACF
330
51D1
100
AcDbEntity
  8
AM_5
100
AcDbTrace
 10
144.8425619996937
 20
158.750836257123
 30
0.0
 11
145.8425619996937
 21
158.750836257123
 31
0.0
 12
145.3425619996937
 22
155.750836257123
 32
0.0
 13
145.3425619996937
 23
155.750836257123
 33
0.0
  0
SOLID
  5
5AD0
330
51D1
100
AcDbEntity
  8
AM_5
100
AcDbTrace
 10
144.8425619996937
 20
182.750836257123
 30
0.0
 11
145.8425619996937
 21
182.750836257123
 31
0.0
 12
145.3425619996937
 22
185.750836257123
 32
0.0
 13
145.3425619996937
 23
185.750836257123
 33
0.0
  0
MTEXT
  5
5AD1
330
51D1
100
AcDbEntity
  8
AM_5
100
AcDbMText
 10
143.0425619996937
 20
170.7508362571231
 30
0.0
 40
3.0
 41
0.0
 71
     5
 72
     1
  1
30
 11
0.0000000000000001
 21
1.0
 31
0.0
 73
     1
 44
1.0
1001
ACAD
1000
MTEXTBEGIN
1070
    73
1070
     1
1070
    44
1040
1.0
1070
    74
1070
     0
1000
MTEXTEND
  0
POINT
  5
5AD2
330
51D1
100
AcDbEntity
  8
DEFPOINTS
 62
     0
100
AcDbPoint
 10
191.7425619996936
 20
155.750836257123
 30
0.0
  0
POINT
  5
5AD3
330
51D1
100
AcDbEntity
  8
DEFPOINTS
 62
     0
100
AcDbPoint
 10
191.7425619996936
 20
185.750836257123
 30
0.0
  0
POINT
  5
5AD4
330
51D1
100
AcDbEntity
  8
DEFPOINTS
 62
     0
100
AcDbPoint
 10
145.3425619996937
 20
185.750836257123
 30
0.0
  0
ENDBLK
  5
51DC
330
51D1
100
AcDbEntity
  8
0
100
AcDbBlockEnd
  0
BLOCK
  5
51E7
330
51DD
100
AcDbEntity
  8
0
100
AcDbBlockBegin
  2
*D18
 70
     1
 10
0.0
 20
0.0
 30
0.0
  3
*D18
  1

  0
LINE
  5
5AD5
330
51DD
100
AcDbEntity
  8
AM_5
100
AcDbLine
 10
187.3425619996936
 20
194.250836257123
 30
0.0
 11
136.8425619996937
 21
194.250836257123
 31
0.0
  0
LINE
  5
5AD6
330
51DD
100
AcDbEntity
  8
AM_5
100
AcDbLine
 10
187.3425619996936
 20
147.2508362571231
 30
0.0
 11
136.8425619996937
 21
147.2508362571231
 31
0.0
  0
LINE
  5
5AD7
330
51DD
100
AcDbEntity
  8
AM_5
100
AcDbLine
 10
138.3425619996937
 20
191.250836257123
 30
0.0
 11
138.3425619996937
 21
150.250836257123
 31
0.0
  0
SOLID
  5
5AD8
330
51DD
100
AcDbEntity
  8
AM_5
100
AcDbTrace
 10
137.8425619996937
 20
191.250836257123
 30
0.0
 11
138.8425619996937
 21
191.250836257123
 31
0.0
 12
138.3425619996937
 22
194.250836257123
 32
0.0
 13
138.3425619996937
 23
194.250836257123
 33
0.0
  0
SOLID
  5
5AD9
330
51DD
100
AcDbEntity
  8
AM_5
100
AcDbTrace
 10
137.8425619996937
 20
150.250836257123
 30
0.0
 11
138.8425619996937
 21
150.250836257123
 31
0.0
 12
138.3425619996937
 22
147.2508362571231
 32
0.0
 13
138.3425619996937
 23
147.2508362571231
 33
0.0
  0
MTEXT
  5
5ADA
330
51DD
100
AcDbEntity
  8
AM_5
100
AcDbMText
 10
136.0425619996936
 20
170.7508362571231
 30
0.0
 40
3.0
 41
0.0
 71
     5
 72
     1
  1
47
 11
0.0000000000000001
 21
1.0
 31
0.0
 73
     1
 44
1.0
1001
ACAD
1000
MTEXTBEGIN
1070
    73
1070
     1
1070
    44
1040
1.0
1070
    74
1070
     0
1000
MTEXTEND
  0
POINT
  5
5ADB
330
51DD
100
AcDbEntity
  8
DEFPOINTS
 62
     0
100
AcDbPoint
 10
188.3425619996936
 20
194.250836257123
 30
0.0
  0
POINT
  5
5ADC
330
51DD
100
AcDbEntity
  8
DEFPOINTS
 62
     0
100
AcDbPoint
 10
188.3425619996936
 20
147.2508362571231
 30
0.0
  0
POINT
  5
5ADD
330
51DD
100
AcDbEntity
  8
DEFPOINTS
 62
     0
100
AcDbPoint
 10
138.3425619996937
 20
147.2508362571231
 30
0.0
  0
ENDBLK
  5
51E8
330
51DD
100
AcDbEntity
  8
0
100
AcDbBlockEnd
  0
BLOCK
  5
5302
330
51E9
100
AcDbEntity
  8
0
100
AcDbBlockBegin
  2
*D19
 70
     1
 10
0.0
 20
0.0
 30
0.0
  3
*D19
  1

  0
LINE
  5
5ADE
330
51E9
100
AcDbEntity
  8
AM_5
100
AcDbLine
 10
185.3425619996936
 20
157.2508362571231
 30
0.0
 11
185.3425619996936
 21
133.750836257123
 31
0.0
  0
LINE
  5
5ADF
330
51E9
100
AcDbEntity
  8
AM_5
100
AcDbLine
 10
188.3425619996936
 20
146.250836257123
 30
0.0
 11
188.3425619996936
 21
133.750836257123
 31
0.0
  0
LINE
  5
5AE0
330
51E9
100
AcDbEntity
  8
AM_5
100
AcDbLine
 10
182.3425619996936
 20
135.250836257123
 30
0.0
 11
179.3425619996936
 21
135.250836257123
 31
0.0
  0
LINE
  5
5AE1
330
51E9
100
AcDbEntity
  8
AM_5
100
AcDbLine
 10
191.3425619996936
 20
135.250836257123
 30
0.0
 11
194.3425619996936
 21
135.250836257123
 31
0.0
  0
LINE
  5
5AE2
330
51E9
100
AcDbEntity
  8
AM_5
100
AcDbLine
 10
185.3425619996936
 20
135.250836257123
 30
0.0
 11
188.3425619996936
 21
135.250836257123
 31
0.0
  0
SOLID
  5
5AE3
330
51E9
100
AcDbEntity
  8
AM_5
100
AcDbTrace
 10
182.3425619996936
 20
135.750836257123
 30
0.0
 11
182.3425619996936
 21
134.750836257123
 31
0.0
 12
185.3425619996936
 22
135.250836257123
 32
0.0
 13
185.3425619996936
 23
135.250836257123
 33
0.0
  0
INSERT
  5
5AE4
330
51E9
100
AcDbEntity
  8
AM_5
100
AcDbBlockReference
  2
GENDOT
 10
188.3425619996936
 20
135.250836257123
 30
0.0
 41
3.0
 42
3.0
 43
3.0
 50
180.0
  0
MTEXT
  5
5AE5
330
51E9
100
AcDbEntity
  8
AM_5
100
AcDbMText
 10
186.8425619996936
 20
137.550836257123
 30
0.0
 40
3.0
 41
0.0
 71
     5
 72
     1
  1
3
 73
     1
 44
1.0
1001
ACAD
1000
MTEXTBEGIN
1070
    73
1070
     1
1070
    44
1040
1.0
1070
    74
1070
     0
1000
MTEXTEND
  0
POINT
  5
5AE6
330
51E9
100
AcDbEntity
  8
DEFPOINTS
 62
     0
100
AcDbPoint
 10
185.3425619996936
 20
158.250836257123
 30
0.0
  0
POINT
  5
5AE7
330
51E9
100
AcDbEntity
  8
DEFPOINTS
 62
     0
100
AcDbPoint
 10
188.3425619996936
 20
147.2508362571231
 30
0.0
  0
POINT
  5
5AE8
330
51E9
100
AcDbEntity
  8
DEFPOINTS
 62
     0
100
AcDbPoint
 10
188.3425619996936
 20
135.250836257123
 30
0.0
  0
ENDBLK
  5
5303
330
51E9
100
AcDbEntity
  8
0
100
AcDbBlockEnd
  0
BLOCK
  5
51FF
330
51F5
100
AcDbEntity
  8
0
100
AcDbBlockBegin
  2
*D20
 70
     1
 10
0.0
 20
0.0
 30
0.0
  3
*D20
  1

  0
LINE
  5
5AE9
330
51F5
100
AcDbEntity
  8
AM_5
100
AcDbLine
 10
188.3425619996936
 20
146.250836257123
 30
0.0
 11
188.3425619996936
 21
126.7508362571231
 31
0.0
  0
LINE
  5
5AEA
330
51F5
100
AcDbEntity
  8
AM_5
100
AcDbLine
 10
217.3425619996937
 20
146.250836257123
 30
0.0
 11
217.3425619996937
 21
126.7508362571231
 31
0.0
  0
LINE
  5
5AEB
330
51F5
100
AcDbEntity
  8
AM_5
100
AcDbLine
 10
191.3425619996936
 20
128.2508362571231
 30
0.0
 11
214.3425619996937
 21
128.2508362571231
 31
0.0
  0
SOLID
  5
5AEC
330
51F5
100
AcDbEntity
  8
AM_5
100
AcDbTrace
 10
191.3425619996936
 20
128.7508362571231
 30
0.0
 11
191.3425619996936
 21
127.7508362571231
 31
0.0
 12
188.3425619996936
 22
128.2508362571231
 32
0.0
 13
188.3425619996936
 23
128.2508362571231
 33
0.0
  0
SOLID
  5
5AED
330
51F5
100
AcDbEntity
  8
AM_5
100
AcDbTrace
 10
214.3425619996937
 20
128.7508362571231
 30
0.0
 11
214.3425619996937
 21
127.7508362571231
 31
0.0
 12
217.3425619996937
 22
128.2508362571231
 32
0.0
 13
217.3425619996937
 23
128.2508362571231
 33
0.0
  0
MTEXT
  5
5AEE
330
51F5
100
AcDbEntity
  8
AM_5
100
AcDbMText
 10
202.8425619996937
 20
130.5511315327136
 30
0.0
 40
3.0
 41
0.0
 71
     5
 72
     1
  1
29
 73
     1
 44
1.0
1001
ACAD
1000
MTEXTBEGIN
1070
    73
1070
     1
1070
    44
1040
1.0
1070
    74
1070
     0
1000
MTEXTEND
  0
POINT
  5
5AEF
330
51F5
100
AcDbEntity
  8
DEFPOINTS
 62
     0
100
AcDbPoint
 10
188.3425619996936
 20
147.2508362571231
 30
0.0
  0
POINT
  5
5AF0
330
51F5
100
AcDbEntity
  8
DEFPOINTS
 62
     0
100
AcDbPoint
 10
217.3425619996937
 20
147.2508362571231
 30
0.0
  0
POINT
  5
5AF1
330
51F5
100
AcDbEntity
  8
DEFPOINTS
 62
     0
100
AcDbPoint
 10
217.3425619996937
 20
128.2508362571231
 30
0.0
  0
ENDBLK
  5
5200
330
51F5
100
AcDbEntity
  8
0
100
AcDbBlockEnd
  0
BLOCK
  5
5304
330
5201
100
AcDbEntity
  8
0
100
AcDbBlockBegin
  2
*D21
 70
     1
 10
0.0
 20
0.0
 30
0.0
  3
*D21
  1

  0
LINE
  5
5AF2
330
5201
100
AcDbEntity
  8
AM_5
100
AcDbLine
 10
188.3425619996936
 20
146.250836257123
 30
0.0
 11
188.3425619996936
 21
133.750836257123
 31
0.0
  0
LINE
  5
5AF3
330
5201
100
AcDbEntity
  8
AM_5
100
AcDbLine
 10
200.3425619996936
 20
146.250836257123
 30
0.0
 11
200.3425619996936
 21
133.750836257123
 31
0.0
  0
LINE
  5
5AF4
330
5201
100
AcDbEntity
  8
AM_5
100
AcDbLine
 10
191.3425619996936
 20
135.250836257123
 30
0.0
 11
197.3425619996936
 21
135.250836257123
 31
0.0
  0
INSERT
  5
5AF5
330
5201
100
AcDbEntity
  8
AM_5
100
AcDbBlockReference
  2
GENDOT
 10
188.3425619996936
 20
135.250836257123
 30
0.0
 41
3.0
 42
3.0
 43
3.0
 50
180.0
  0
SOLID
  5
5AF6
330
5201
100
AcDbEntity
  8
AM_5
100
AcDbTrace
 10
197.3425619996936
 20
135.750836257123
 30
0.0
 11
197.3425619996936
 21
134.750836257123
 31
0.0
 12
200.3425619996936
 22
135.250836257123
 32
0.0
 13
200.3425619996936
 23
135.250836257123
 33
0.0
  0
MTEXT
  5
5AF7
330
5201
100
AcDbEntity
  8
AM_5
100
AcDbMText
 10
194.3425619996936
 20
137.5511315327136
 30
0.0
 40
3.0
 41
0.0
 71
     5
 72
     1
  1
12
 73
     1
 44
1.0
1001
ACAD
1000
MTEXTBEGIN
1070
    73
1070
     1
1070
    44
1040
1.0
1070
    74
1070
     0
1000
MTEXTEND
  0
POINT
  5
5AF8
330
5201
100
AcDbEntity
  8
DEFPOINTS
 62
     0
100
AcDbPoint
 10
188.3425619996936
 20
147.2508362571231
 30
0.0
  0
POINT
  5
5AF9
330
5201
100
AcDbEntity
  8
DEFPOINTS
 62
     0
100
AcDbPoint
 10
200.3425619996936
 20
147.2508362571231
 30
0.0
  0
POINT
  5
5AFA
330
5201
100
AcDbEntity
  8
DEFPOINTS
 62
     0
100
AcDbPoint
 10
200.3425619996936
 20
135.250836257123
 30
0.0
  0
ENDBLK
  5
5305
330
5201
100
AcDbEntity
  8
0
100
AcDbBlockEnd
  0
BLOCK
  5
5215
330
520B
100
AcDbEntity
  8
0
100
AcDbBlockBegin
  2
*D22
 70
     1
 10
0.0
 20
0.0
 30
0.0
  3
*D22
  1

  0
LINE
  5
5AFB
330
520B
100
AcDbEntity
  8
AM_5
100
AcDbLine
 10
188.3425619996936
 20
195.250836257123
 30
0.0
 11
188.3425619996936
 21
203.0138178352389
 31
0.0
  0
LINE
  5
5AFC
330
520B
100
AcDbEntity
  8
AM_5
100
AcDbLine
 10
210.3425619996937
 20
178.3508362571231
 30
0.0
 11
210.3425619996937
 21
203.0138178352389
 31
0.0
  0
LINE
  5
5AFD
330
520B
100
AcDbEntity
  8
AM_5
100
AcDbLine
 10
191.3425619996936
 20
201.5138178352389
 30
0.0
 11
207.3425619996937
 21
201.5138178352389
 31
0.0
  0
SOLID
  5
5AFE
330
520B
100
AcDbEntity
  8
AM_5
100
AcDbTrace
 10
191.3425619996936
 20
202.0138178352389
 30
0.0
 11
191.3425619996936
 21
201.0138178352389
 31
0.0
 12
188.3425619996936
 22
201.5138178352389
 32
0.0
 13
188.3425619996936
 23
201.5138178352389
 33
0.0
  0
SOLID
  5
5AFF
330
520B
100
AcDbEntity
  8
AM_5
100
AcDbTrace
 10
207.3425619996937
 20
202.0138178352389
 30
0.0
 11
207.3425619996937
 21
201.0138178352389
 31
0.0
 12
210.3425619996937
 22
201.5138178352389
 32
0.0
 13
210.3425619996937
 23
201.5138178352389
 33
0.0
  0
MTEXT
  5
5B00
330
520B
100
AcDbEntity
  8
AM_5
100
AcDbMText
 10
199.3425619996936
 20
203.8141131108294
 30
0.0
 40
3.0
 41
0.0
 71
     5
 72
     1
  1
22
 73
     1
 44
1.0
1001
ACAD
1000
MTEXTBEGIN
1070
    73
1070
     1
1070
    44
1040
1.0
1070
    74
1070
     0
1000
MTEXTEND
  0
POINT
  5
5B01
330
520B
100
AcDbEntity
  8
DEFPOINTS
 62
     0
100
AcDbPoint
 10
188.3425619996936
 20
194.250836257123
 30
0.0
  0
POINT
  5
5B02
330
520B
100
AcDbEntity
  8
DEFPOINTS
 62
     0
100
AcDbPoint
 10
210.3425619996937
 20
177.3508362571231
 30
0.0
  0
POINT
  5
5B03
330
520B
100
AcDbEntity
  8
DEFPOINTS
 62
     0
100
AcDbPoint
 10
210.3425619996937
 20
201.5138178352389
 30
0.0
  0
ENDBLK
  5
5216
330
520B
100
AcDbEntity
  8
0
100
AcDbBlockEnd
  0
BLOCK
  5
5221
330
5217
100
AcDbEntity
  8
0
100
AcDbBlockBegin
  2
*D23
 70
     1
 10
0.0
 20
0.0
 30
0.0
  3
*D23
  1

  0
LINE
  5
5B04
330
5217
100
AcDbEntity
  8
AM_5
100
AcDbLine
 10
266.3425619996937
 20
188.5008362571231
 30
0.0
 11
266.3425619996937
 21
201.0008362571231
 31
0.0
  0
LINE
  5
5B05
330
5217
100
AcDbEntity
  8
AM_5
100
AcDbLine
 10
258.3425619996936
 20
177.350836257123
 30
0.0
 11
258.3425619996936
 21
201.0008362571231
 31
0.0
  0
LINE
  5
5B06
330
5217
100
AcDbEntity
  8
AM_5
100
AcDbLine
 10
263.3425619996937
 20
199.500836257123
 30
0.0
 11
261.3425619996937
 21
199.500836257123
 31
0.0
  0
SOLID
  5
5B07
330
5217
100
AcDbEntity
  8
AM_5
100
AcDbTrace
 10
263.3425619996937
 20
200.0008362571231
 30
0.0
 11
263.3425619996937
 21
199.0008362571231
 31
0.0
 12
266.3425619996937
 22
199.500836257123
 32
0.0
 13
266.3425619996937
 23
199.500836257123
 33
0.0
  0
SOLID
  5
5B08
330
5217
100
AcDbEntity
  8
AM_5
100
AcDbTrace
 10
261.3425619996937
 20
200.0008362571231
 30
0.0
 11
261.3425619996937
 21
199.0008362571231
 31
0.0
 12
258.3425619996936
 22
199.500836257123
 32
0.0
 13
258.3425619996936
 23
199.500836257123
 33
0.0
  0
MTEXT
  5
5B09
330
5217
100
AcDbEntity
  8
AM_5
100
AcDbMText
 10
262.3425619996937
 20
201.8008362571231
 30
0.0
 40
3.0
 41
0.0
 71
     5
 72
     1
  1
8
 73
     1
 44
1.0
1001
ACAD
1000
MTEXTBEGIN
1070
    73
1070
     1
1070
    44
1040
1.0
1070
    74
1070
     0
1000
MTEXTEND
  0
POINT
  5
5B0A
330
5217
100
AcDbEntity
  8
DEFPOINTS
 62
     0
100
AcDbPoint
 10
266.3425619996937
 20
187.5008362571231
 30
0.0
  0
POINT
  5
5B0B
330
5217
100
AcDbEntity
  8
DEFPOINTS
 62
     0
100
AcDbPoint
 10
258.3425619996936
 20
176.3508362571229
 30
0.0
  0
POINT
  5
5B0C
330
5217
100
AcDbEntity
  8
DEFPOINTS
 62
     0
100
AcDbPoint
 10
258.3425619996936
 20
199.500836257123
 30
0.0
  0
ENDBLK
  5
5222
330
5217
100
AcDbEntity
  8
0
100
AcDbBlockEnd
  0
BLOCK
  5
522D
330
5223
100
AcDbEntity
  8
0
100
AcDbBlockBegin
  2
*D24
 70
     1
 10
0.0
 20
0.0
 30
0.0
  3
*D24
  1

  0
LINE
  5
5B0D
330
5223
100
AcDbEntity
  8
AM_5
100
AcDbLine
 10
266.3425619996937
 20
153.000836257123
 30
0.0
 11
266.3425619996937
 21
140.000836257123
 31
0.0
  0
LINE
  5
5B0E
330
5223
100
AcDbEntity
  8
AM_5
100
AcDbLine
 10
251.3425619996937
 20
152.500836257123
 30
0.0
 11
251.3425619996937
 21
140.000836257123
 31
0.0
  0
LINE
  5
5B0F
330
5223
100
AcDbEntity
  8
AM_5
100
AcDbLine
 10
263.3425619996937
 20
141.500836257123
 30
0.0
 11
254.3425619996936
 21
141.500836257123
 31
0.0
  0
SOLID
  5
5B10
330
5223
100
AcDbEntity
  8
AM_5
100
AcDbTrace
 10
263.3425619996937
 20
142.000836257123
 30
0.0
 11
263.3425619996937
 21
141.0008362571231
 31
0.0
 12
266.3425619996937
 22
141.500836257123
 32
0.0
 13
266.3425619996937
 23
141.500836257123
 33
0.0
  0
SOLID
  5
5B11
330
5223
100
AcDbEntity
  8
AM_5
100
AcDbTrace
 10
254.3425619996936
 20
142.000836257123
 30
0.0
 11
254.3425619996936
 21
141.0008362571231
 31
0.0
 12
251.3425619996937
 22
141.500836257123
 32
0.0
 13
251.3425619996937
 23
141.500836257123
 33
0.0
  0
MTEXT
  5
5B12
330
5223
100
AcDbEntity
  8
AM_5
100
AcDbMText
 10
258.8425619996936
 20
143.800836257123
 30
0.0
 40
3.0
 41
0.0
 71
     5
 72
     1
  1
15
 73
     1
 44
1.0
1001
ACAD
1000
MTEXTBEGIN
1070
    73
1070
     1
1070
    44
1040
1.0
1070
    74
1070
     0
1000
MTEXTEND
  0
POINT
  5
5B13
330
5223
100
AcDbEntity
  8
DEFPOINTS
 62
     0
100
AcDbPoint
 10
266.3425619996937
 20
154.000836257123
 30
0.0
  0
POINT
  5
5B14
330
5223
100
AcDbEntity
  8
DEFPOINTS
 62
     0
100
AcDbPoint
 10
251.3425619996937
 20
153.5008362571231
 30
0.0
  0
POINT
  5
5B15
330
5223
100
AcDbEntity
  8
DEFPOINTS
 62
     0
100
AcDbPoint
 10
251.3425619996937
 20
141.500836257123
 30
0.0
  0
ENDBLK
  5
522E
330
5223
100
AcDbEntity
  8
0
100
AcDbBlockEnd
  0
BLOCK
  5
523A
330
522F
100
AcDbEntity
  8
0
100
AcDbBlockBegin
  2
*D25
 70
     1
 10
0.0
 20
0.0
 30
0.0
  3
*D25
  1

  0
LINE
  5
5B16
330
522F
100
AcDbEntity
  8
AM_5
100
AcDbLine
 10
184.3425619996936
 20
95.22925056265568
 30
0.0
 11
181.3425619996936
 21
95.22925056265568
 31
0.0
  0
LINE
  5
5B17
330
522F
100
AcDbEntity
  8
AM_5
100
AcDbLine
 10
184.3425619996936
 20
83.22925056265569
 30
0.0
 11
181.3425619996936
 21
83.22925056265569
 31
0.0
  0
LINE
  5
5B18
330
522F
100
AcDbEntity
  8
AM_5
100
AcDbLine
 10
182.8425619996935
 20
86.2292505626557
 30
0.0
 11
182.8425619996935
 21
92.2292505626557
 31
0.0
  0
LINE
  5
5B19
330
522F
100
AcDbEntity
  8
AM_5
100
AcDbLine
 10
182.8425619996935
 20
95.22925056265568
 30
0.0
 11
182.8425619996935
 21
109.574332223206
 31
0.0
  0
SOLID
  5
5B1A
330
522F
100
AcDbEntity
  8
AM_5
100
AcDbTrace
 10
182.3425619996936
 20
86.2292505626557
 30
0.0
 11
183.3425619996935
 21
86.2292505626557
 31
0.0
 12
182.8425619996935
 22
83.22925056265569
 32
0.0
 13
182.8425619996935
 23
83.22925056265569
 33
0.0
  0
SOLID
  5
5B1B
330
522F
100
AcDbEntity
  8
AM_5
100
AcDbTrace
 10
182.3425619996936
 20
92.2292505626557
 30
0.0
 11
183.3425619996935
 21
92.2292505626557
 31
0.0
 12
182.8425619996935
 22
95.22925056265568
 32
0.0
 13
182.8425619996935
 23
95.22925056265568
 33
0.0
  0
MTEXT
  5
5B1C
330
522F
100
AcDbEntity
  8
AM_5
100
AcDbMText
 10
180.542266724103
 20
105.9842436405289
 30
0.0
 40
3.0
 41
0.0
 71
     5
 72
     1
  1
%%c12
 11
0.0000000000000001
 21
1.0
 31
0.0
 73
     1
 44
1.0
1001
ACAD
1000
MTEXTBEGIN
1070
    73
1070
     1
1070
    44
1040
1.0
1070
    74
1070
     0
1000
MTEXTEND
  0
POINT
  5
5B1D
330
522F
100
AcDbEntity
  8
DEFPOINTS
 62
     0
100
AcDbPoint
 10
185.3425619996936
 20
95.22925056265568
 30
0.0
  0
POINT
  5
5B1E
330
522F
100
AcDbEntity
  8
DEFPOINTS
 62
     0
100
AcDbPoint
 10
185.3425619996936
 20
83.22925056265569
 30
0.0
  0
POINT
  5
5B1F
330
522F
100
AcDbEntity
  8
DEFPOINTS
 62
     0
100
AcDbPoint
 10
182.8425619996935
 20
83.22925056265569
 30
0.0
  0
ENDBLK
  5
523B
330
522F
100
AcDbEntity
  8
0
100
AcDbBlockEnd
  0
BLOCK
  5
5246
330
523C
100
AcDbEntity
  8
0
100
AcDbBlockBegin
  2
*D26
 70
     1
 10
0.0
 20
0.0
 30
0.0
  3
*D26
  1

  0
LINE
  5
5B20
330
523C
100
AcDbEntity
  8
AM_5
100
AcDbLine
 10
157.3425619996936
 20
84.22925056265569
 30
0.0
 11
157.3425619996936
 21
58.74864309256309
 31
0.0
  0
LINE
  5
5B21
330
523C
100
AcDbEntity
  8
AM_5
100
AcDbLine
 10
176.8425619996936
 20
83.22925056265569
 30
0.0
 11
176.8425619996936
 21
58.74864309256309
 31
0.0
  0
LINE
  5
5B22
330
523C
100
AcDbEntity
  8
AM_5
100
AcDbLine
 10
160.3425619996936
 20
60.2486430925631
 30
0.0
 11
173.8425619996936
 21
60.2486430925631
 31
0.0
  0
SOLID
  5
5B23
330
523C
100
AcDbEntity
  8
AM_5
100
AcDbTrace
 10
160.3425619996936
 20
60.7486430925631
 30
0.0
 11
160.3425619996936
 21
59.7486430925631
 31
0.0
 12
157.3425619996936
 22
60.2486430925631
 32
0.0
 13
157.3425619996936
 23
60.2486430925631
 33
0.0
  0
SOLID
  5
5B24
330
523C
100
AcDbEntity
  8
AM_5
100
AcDbTrace
 10
173.8425619996936
 20
60.7486430925631
 30
0.0
 11
173.8425619996936
 21
59.7486430925631
 31
0.0
 12
176.8425619996936
 22
60.2486430925631
 32
0.0
 13
176.8425619996936
 23
60.2486430925631
 33
0.0
  0
MTEXT
  5
5B25
330
523C
100
AcDbEntity
  8
AM_5
100
AcDbMText
 10
167.0925619996936
 20
62.54864309256309
 30
0.0
 40
3.0
 41
0.0
 71
     5
 72
     1
  1
19.5
 73
     1
 44
1.0
1001
ACAD
1000
MTEXTBEGIN
1070
    73
1070
     1
1070
    44
1040
1.0
1070
    74
1070
     0
1000
MTEXTEND
  0
POINT
  5
5B26
330
523C
100
AcDbEntity
  8
DEFPOINTS
 62
     0
100
AcDbPoint
 10
157.3425619996936
 20
85.22925056265568
 30
0.0
  0
POINT
  5
5B27
330
523C
100
AcDbEntity
  8
DEFPOINTS
 62
     0
100
AcDbPoint
 10
176.8425619996936
 20
84.22925056265569
 30
0.0
  0
POINT
  5
5B28
330
523C
100
AcDbEntity
  8
DEFPOINTS
 62
     0
100
AcDbPoint
 10
176.8425619996936
 20
60.2486430925631
 30
0.0
  0
ENDBLK
  5
5247
330
523C
100
AcDbEntity
  8
0
100
AcDbBlockEnd
  0
BLOCK
  5
5252
330
5248
100
AcDbEntity
  8
0
100
AcDbBlockBegin
  2
*D27
 70
     1
 10
0.0
 20
0.0
 30
0.0
  3
*D27
  1

  0
LINE
  5
5B29
330
5248
100
AcDbEntity
  8
AM_5
100
AcDbLine
 10
157.3425619996936
 20
84.22925056265569
 30
0.0
 11
157.3425619996936
 21
51.74864309256316
 31
0.0
  0
LINE
  5
5B2A
330
5248
100
AcDbEntity
  8
AM_5
100
AcDbLine
 10
179.3425619996936
 20
83.22925056265569
 30
0.0
 11
179.3425619996936
 21
51.74864309256316
 31
0.0
  0
LINE
  5
5B2B
330
5248
100
AcDbEntity
  8
AM_5
100
AcDbLine
 10
160.3425619996936
 20
53.24864309256316
 30
0.0
 11
176.3425619996936
 21
53.24864309256316
 31
0.0
  0
SOLID
  5
5B2C
330
5248
100
AcDbEntity
  8
AM_5
100
AcDbTrace
 10
160.3425619996936
 20
53.74864309256316
 30
0.0
 11
160.3425619996936
 21
52.74864309256315
 31
0.0
 12
157.3425619996936
 22
53.24864309256316
 32
0.0
 13
157.3425619996936
 23
53.24864309256316
 33
0.0
  0
SOLID
  5
5B2D
330
5248
100
AcDbEntity
  8
AM_5
100
AcDbTrace
 10
176.3425619996936
 20
53.74864309256316
 30
0.0
 11
176.3425619996936
 21
52.74864309256315
 31
0.0
 12
179.3425619996936
 22
53.24864309256316
 32
0.0
 13
179.3425619996936
 23
53.24864309256316
 33
0.0
  0
MTEXT
  5
5B2E
330
5248
100
AcDbEntity
  8
AM_5
100
AcDbMText
 10
168.3425619996936
 20
55.5489383681537
 30
0.0
 40
3.0
 41
0.0
 71
     5
 72
     1
  1
22
 73
     1
 44
1.0
1001
ACAD
1000
MTEXTBEGIN
1070
    73
1070
     1
1070
    44
1040
1.0
1070
    74
1070
     0
1000
MTEXTEND
  0
POINT
  5
5B2F
330
5248
100
AcDbEntity
  8
DEFPOINTS
 62
     0
100
AcDbPoint
 10
157.3425619996936
 20
85.22925056265568
 30
0.0
  0
POINT
  5
5B30
330
5248
100
AcDbEntity
  8
DEFPOINTS
 62
     0
100
AcDbPoint
 10
179.3425619996936
 20
84.22925056265569
 30
0.0
  0
POINT
  5
5B31
330
5248
100
AcDbEntity
  8
DEFPOINTS
 62
     0
100
AcDbPoint
 10
179.3425619996936
 20
53.24864309256316
 30
0.0
  0
ENDBLK
  5
5253
330
5248
100
AcDbEntity
  8
0
100
AcDbBlockEnd
  0
BLOCK
  5
53CA
330
53C9
100
AcDbEntity
  8
0
100
AcDbBlockBegin
  2
*S28
 70
     1
 10
0.0
 20
0.0
 30
0.0
  3
*S28
  1

  0
LINE
  5
53CB
330
53C9
100
AcDbEntity
  8
AM_5
100
AcDbLine
 10
46.81958563576546
 20
174.293215516988
 30
0.0
 11
21.87487375217251
 21
174.293215516988
 31
0.0
  0
LINE
  5
53CC
330
53C9
100
AcDbEntity
  8
AM_5
100
AcDbLine
 10
21.87487375217251
 20
174.293215516988
 30
0.0
 11
16.50983302735025
 21
168.6522421091654
 31
0.0
  0
TRACE
  5
53CD
330
53C9
100
AcDbEntity
  8
AM_5
100
AcDbTrace
 10
16.17594589506244
 20
168.9697968878733
 30
0.0
 11
16.84372015963807
 21
168.3346873304575
 31
0.0
 12
14.09776500020223
 22
166.1161175395888
 32
0.0
 13
14.09776500020223
 23
166.1161175395888
 33
0.0
  0
MTEXT
  5
53CE
330
53C9
100
AcDbEntity
  8
AM_5
 62
     2
100
AcDbMText
 10
46.81958563576546
 20
170.1063764088617
 30
0.0
 40
3.5
 41
0.0
 71
     9
 72
     5
  1

  7
ACISOTS
210
0.0
220
0.0
230
-1.0
 11
-1.0
 21
0.0
 31
0.0
 73
     1
 44
1.0
1001
ACAD
1000
MTEXTBEGIN
1070
    73
1070
     1
1070
    44
1040
1.0
1070
    74
1070
     0
1000
MTEXTEND
  0
ENDBLK
  5
53CF
330
53C9
100
AcDbEntity
  8
0
100
AcDbBlockEnd
  0
BLOCK
  5
53D1
330
53D0
100
AcDbEntity
  8
0
100
AcDbBlockBegin
  2
*S29
 70
     1
 10
0.0
 20
0.0
 30
0.0
  3
*S29
  1

  0
LINE
  5
53D2
330
53D0
100
AcDbEntity
  8
AM_5
100
AcDbLine
 10
80.53227220492335
 20
165.7326915122272
 30
0.0
 11
95.09016174004182
 21
165.7326915122272
 31
0.0
  0
LINE
  5
53D3
330
53D0
100
AcDbEntity
  8
AM_5
100
AcDbLine
 10
95.09016174004182
 20
165.7326915122272
 30
0.0
 11
102.3046188905042
 21
156.1217420628065
 31
0.0
  0
TRACE
  5
53D4
330
53D0
100
AcDbEntity
  8
AM_5
100
AcDbTrace
 10
101.9361068687124
 20
155.845118592395
 30
0.0
 11
102.6731309122961
 21
156.3983655332179
 31
0.0
 12
104.4057827629331
 22
153.3226153452033
 32
0.0
 13
104.4057827629331
 23
153.3226153452033
 33
0.0
  0
MTEXT
  5
53D5
330
53D0
100
AcDbEntity
  8
AM_5
 62
     2
100
AcDbMText
 10
80.53227220492335
 20
162.0336547880598
 30
0.0
 40
3.5
 41
0.0
 71
     9
 72
     5
  1

  7
ACISOTS
 73
     1
 44
1.0
1001
ACAD
1000
MTEXTBEGIN
1070
    73
1070
     1
1070
    44
1040
1.0
1070
    74
1070
     0
1000
MTEXTEND
  0
ENDBLK
  5
53D6
330
53D0
100
AcDbEntity
  8
0
100
AcDbBlockEnd
  0
BLOCK
  5
53D8
330
53D7
100
AcDbEntity
  8
0
100
AcDbBlockBegin
  2
*S30
 70
     1
 10
0.0
 20
0.0
 30
0.0
  3
*S30
  1

  0
LINE
  5
53D9
330
53D7
100
AcDbEntity
  8
AM_5
100
AcDbLine
 10
187.2476995834481
 20
189.5450381161198
 30
0.0
 11
171.3820492474792
 21
189.5450381161198
 31
0.0
  0
LINE
  5
53DA
330
53D7
100
AcDbEntity
  8
AM_5
100
AcDbLine
 10
171.3820492474792
 20
189.5450381161198
 30
0.0
 11
159.7982233059832
 21
207.8233605142832
 31
0.0
  0
TRACE
  5
53DB
330
53D7
100
AcDbEntity
  8
AM_5
100
AcDbTrace
 10
160.1874294637484
 20
208.070018620465
 30
0.0
 11
159.4090171482179
 21
207.5767024081014
 31
0.0
 12
157.9246689731565
 22
210.779674801017
 32
0.0
 13
157.9246689731565
 23
210.779674801017
 33
0.0
  0
MTEXT
  5
53DC
330
53D7
100
AcDbEntity
  8
AM_5
 62
     2
100
AcDbMText
 10
187.2476995834481
 20
188.0503639424306
 30
0.0
 40
3.5
 41
0.0
 71
     9
 72
     5
  1

  7
ACISOTS
210
0.0
220
0.0
230
-1.0
 11
-1.0
 21
0.0
 31
0.0
 73
     1
 44
1.0
1001
ACAD
1000
MTEXTBEGIN
1070
    73
1070
     1
1070
    44
1040
1.0
1070
    74
1070
     0
1000
MTEXTEND
  0
ENDBLK
  5
53DD
330
53D7
100
AcDbEntity
  8
0
100
AcDbBlockEnd
  0
BLOCK
  5
5715
330
570B
100
AcDbEntity
  8
0
100
AcDbBlockBegin
  2
*D31
 70
     1
 10
0.0
 20
0.0
 30
0.0
  3
*D31
  1

  0
LINE
  5
5BC3
330
570B
100
AcDbEntity
  8
AM_5
100
AcDbLine
 10
75.92827826423206
 20
-158.3724205546279
 30
0.0
 11
75.92827826423206
 21
-172.6959205546279
 31
0.0
  0
LINE
  5
5BC4
330
570B
100
AcDbEntity
  8
AM_5
100
AcDbLine
 10
105.928278264232
 20
-158.3724205546279
 30
0.0
 11
105.928278264232
 21
-172.6959205546279
 31
0.0
  0
LINE
  5
5BC5
330
570B
100
AcDbEntity
  8
AM_5
100
AcDbLine
 10
78.92827826423206
 20
-171.1959205546279
 30
0.0
 11
102.928278264232
 21
-171.1959205546279
 31
0.0
  0
SOLID
  5
5BC6
330
570B
100
AcDbEntity
  8
AM_5
100
AcDbTrace
 10
78.92827826423206
 20
-170.6959205546279
 30
0.0
 11
78.92827826423206
 21
-171.6959205546279
 31
0.0
 12
75.92827826423206
 22
-171.1959205546279
 32
0.0
 13
75.92827826423206
 23
-171.1959205546279
 33
0.0
  0
SOLID
  5
5BC7
330
570B
100
AcDbEntity
  8
AM_5
100
AcDbTrace
 10
102.928278264232
 20
-170.6959205546279
 30
0.0
 11
102.928278264232
 21
-171.6959205546279
 31
0.0
 12
105.928278264232
 22
-171.1959205546279
 32
0.0
 13
105.928278264232
 23
-171.1959205546279
 33
0.0
  0
MTEXT
  5
5BC8
330
570B
100
AcDbEntity
  8
AM_5
100
AcDbMText
 10
90.92827826423206
 20
-168.8959205546279
 30
0.0
 40
3.0
 41
0.0
 71
     5
 72
     1
  1
{\Famgdt|c136;o}30
 73
     1
 44
1.0
1001
ACAD
1000
MTEXTBEGIN
1070
    73
1070
     1
1070
    44
1040
1.0
1070
    74
1070
     0
1000
MTEXTEND
  0
POINT
  5
5BC9
330
570B
100
AcDbEntity
  8
DEFPOINTS
 62
     0
100
AcDbPoint
 10
75.92827826423206
 20
-157.3724205546279
 30
0.0
  0
POINT
  5
5BCA
330
570B
100
AcDbEntity
  8
DEFPOINTS
 62
     0
100
AcDbPoint
 10
105.928278264232
 20
-157.3724205546279
 30
0.0
  0
POINT
  5
5BCB
330
570B
100
AcDbEntity
  8
DEFPOINTS
 62
     0
100
AcDbPoint
 10
105.928278264232
 20
-171.1959205546279
 30
0.0
  0
ENDBLK
  5
5716
330
570B
100
AcDbEntity
  8
0
100
AcDbBlockEnd
  0
BLOCK
  5
5721
330
5717
100
AcDbEntity
  8
0
100
AcDbBlockBegin
  2
*D32
 70
     1
 10
0.0
 20
0.0
 30
0.0
  3
*D32
  1

  0
LINE
  5
5BCC
330
5717
100
AcDbEntity
  8
AM_5
100
AcDbLine
 10
69.92827826423206
 20
-158.6959205546279
 30
0.0
 11
69.92827826423206
 21
-179.6959205546279
 31
0.0
  0
LINE
  5
5BCD
330
5717
100
AcDbEntity
  8
AM_5
100
AcDbLine
 10
111.928278264232
 20
-158.6959205546279
 30
0.0
 11
111.928278264232
 21
-179.6959205546279
 31
0.0
  0
LINE
  5
5BCE
330
5717
100
AcDbEntity
  8
AM_5
100
AcDbLine
 10
72.92827826423206
 20
-178.1959205546279
 30
0.0
 11
108.928278264232
 21
-178.1959205546279
 31
0.0
  0
SOLID
  5
5BCF
330
5717
100
AcDbEntity
  8
AM_5
100
AcDbTrace
 10
72.92827826423206
 20
-177.6959205546279
 30
0.0
 11
72.92827826423206
 21
-178.6959205546279
 31
0.0
 12
69.92827826423206
 22
-178.1959205546279
 32
0.0
 13
69.92827826423206
 23
-178.1959205546279
 33
0.0
  0
SOLID
  5
5BD0
330
5717
100
AcDbEntity
  8
AM_5
100
AcDbTrace
 10
108.928278264232
 20
-177.6959205546279
 30
0.0
 11
108.928278264232
 21
-178.6959205546279
 31
0.0
 12
111.928278264232
 22
-178.1959205546279
 32
0.0
 13
111.928278264232
 23
-178.1959205546279
 33
0.0
  0
MTEXT
  5
5BD1
330
5717
100
AcDbEntity
  8
AM_5
100
AcDbMText
 10
90.92827826423206
 20
-175.8956252790373
 30
0.0
 40
3.0
 41
0.0
 71
     5
 72
     1
  1
{\Famgdt|c136;o}42
 73
     1
 44
1.0
1001
ACAD
1000
MTEXTBEGIN
1070
    73
1070
     1
1070
    44
1040
1.0
1070
    74
1070
     0
1000
MTEXTEND
  0
POINT
  5
5BD2
330
5717
100
AcDbEntity
  8
DEFPOINTS
 62
     0
100
AcDbPoint
 10
69.92827826423206
 20
-157.6959205546279
 30
0.0
  0
POINT
  5
5BD3
330
5717
100
AcDbEntity
  8
DEFPOINTS
 62
     0
100
AcDbPoint
 10
111.928278264232
 20
-157.6959205546279
 30
0.0
  0
POINT
  5
5BD4
330
5717
100
AcDbEntity
  8
DEFPOINTS
 62
     0
100
AcDbPoint
 10
111.928278264232
 20
-178.1959205546279
 30
0.0
  0
ENDBLK
  5
5722
330
5717
100
AcDbEntity
  8
0
100
AcDbBlockEnd
  0
BLOCK
  5
572D
330
5723
100
AcDbEntity
  8
0
100
AcDbBlockBegin
  2
*D33
 70
     1
 10
0.0
 20
0.0
 30
0.0
  3
*D33
  1

  0
LINE
  5
5BD5
330
5723
100
AcDbEntity
  8
AM_5
100
AcDbLine
 10
111.428278264232
 20
-159.1959205546279
 30
0.0
 11
125.428278264232
 21
-159.1959205546279
 31
0.0
  0
LINE
  5
5BD6
330
5723
100
AcDbEntity
  8
AM_5
100
AcDbLine
 10
106.5282782642321
 20
-138.1959205546279
 30
0.0
 11
125.428278264232
 21
-138.1959205546279
 31
0.0
  0
LINE
  5
5BD7
330
5723
100
AcDbEntity
  8
AM_5
100
AcDbLine
 10
123.928278264232
 20
-156.1959205546279
 30
0.0
 11
123.928278264232
 21
-141.1959205546279
 31
0.0
  0
SOLID
  5
5BD8
330
5723
100
AcDbEntity
  8
AM_5
100
AcDbTrace
 10
123.428278264232
 20
-156.1959205546279
 30
0.0
 11
124.428278264232
 21
-156.1959205546279
 31
0.0
 12
123.928278264232
 22
-159.1959205546279
 32
0.0
 13
123.928278264232
 23
-159.1959205546279
 33
0.0
  0
SOLID
  5
5BD9
330
5723
100
AcDbEntity
  8
AM_5
100
AcDbTrace
 10
123.428278264232
 20
-141.1959205546279
 30
0.0
 11
124.428278264232
 21
-141.1959205546279
 31
0.0
 12
123.928278264232
 22
-138.1959205546279
 32
0.0
 13
123.928278264232
 23
-138.1959205546279
 33
0.0
  0
MTEXT
  5
5BDA
330
5723
100
AcDbEntity
  8
AM_5
100
AcDbMText
 10
121.6279829886415
 20
-148.6959205546279
 30
0.0
 40
3.0
 41
0.0
 71
     5
 72
     1
  1
21
 11
0.0000000000000001
 21
1.0
 31
0.0
 73
     1
 44
1.0
1001
ACAD
1000
MTEXTBEGIN
1070
    73
1070
     1
1070
    44
1040
1.0
1070
    74
1070
     0
1000
MTEXTEND
  0
POINT
  5
5BDB
330
5723
100
AcDbEntity
  8
DEFPOINTS
 62
     0
100
AcDbPoint
 10
110.428278264232
 20
-159.1959205546279
 30
0.0
  0
POINT
  5
5BDC
330
5723
100
AcDbEntity
  8
DEFPOINTS
 62
     0
100
AcDbPoint
 10
105.5282782642321
 20
-138.1959205546279
 30
0.0
  0
POINT
  5
5BDD
330
5723
100
AcDbEntity
  8
DEFPOINTS
 62
     0
100
AcDbPoint
 10
123.928278264232
 20
-138.1959205546279
 30
0.0
  0
ENDBLK
  5
572E
330
5723
100
AcDbEntity
  8
0
100
AcDbBlockEnd
  0
BLOCK
  5
5739
330
572F
100
AcDbEntity
  8
0
100
AcDbBlockBegin
  2
*D34
 70
     1
 10
0.0
 20
0.0
 30
0.0
  3
*D34
  1

  0
LINE
  5
5C62
330
572F
100
AcDbEntity
  8
AM_5
100
AcDbLine
 10
184.8425619996936
 20
-151.1959205546279
 30
0.0
 11
148.2708404747204
 21
-151.1959205546279
 31
0.0
  0
LINE
  5
5C63
330
572F
100
AcDbEntity
  8
AM_5
100
AcDbLine
 10
184.8425619996936
 20
-125.1959205546279
 30
0.0
 11
148.2708404747204
 21
-125.1959205546279
 31
0.0
  0
LINE
  5
5C64
330
572F
100
AcDbEntity
  8
AM_5
100
AcDbLine
 10
149.7708404747204
 20
-148.1959205546279
 30
0.0
 11
149.7708404747204
 21
-128.1959205546279
 31
0.0
  0
SOLID
  5
5C65
330
572F
100
AcDbEntity
  8
AM_5
100
AcDbTrace
 10
149.2708404747204
 20
-148.1959205546279
 30
0.0
 11
150.2708404747204
 21
-148.1959205546279
 31
0.0
 12
149.7708404747204
 22
-151.1959205546279
 32
0.0
 13
149.7708404747204
 23
-151.1959205546279
 33
0.0
  0
SOLID
  5
5C66
330
572F
100
AcDbEntity
  8
AM_5
100
AcDbTrace
 10
149.2708404747204
 20
-128.1959205546279
 30
0.0
 11
150.2708404747204
 21
-128.1959205546279
 31
0.0
 12
149.7708404747204
 22
-125.1959205546279
 32
0.0
 13
149.7708404747204
 23
-125.1959205546279
 33
0.0
  0
MTEXT
  5
5C67
330
572F
100
AcDbEntity
  8
AM_5
100
AcDbMText
 10
146.6006381476506
 20
-138.1959205546279
 30
0.0
 40
3.0
 41
0.0
 71
     5
 72
     1
  1
%%c26{\H2.130000;\S 0^ -0.033;}
 11
0.0000000000000001
 21
1.0
 31
0.0
 73
     1
 44
1.0
1001
ACAD
1000
MTEXTBEGIN
1070
    73
1070
     1
1070
    44
1040
1.0
1070
    74
1070
     0
1000
MTEXTEND
  0
POINT
  5
5C68
330
572F
100
AcDbEntity
  8
DEFPOINTS
 62
     0
100
AcDbPoint
 10
185.8425619996936
 20
-151.1959205546279
 30
0.0
  0
POINT
  5
5C69
330
572F
100
AcDbEntity
  8
DEFPOINTS
 62
     0
100
AcDbPoint
 10
185.8425619996936
 20
-125.1959205546279
 30
0.0
  0
POINT
  5
5C6A
330
572F
100
AcDbEntity
  8
DEFPOINTS
 62
     0
100
AcDbPoint
 10
149.7708404747204
 20
-125.1959205546279
 30
0.0
  0
ENDBLK
  5
573A
330
572F
100
AcDbEntity
  8
0
100
AcDbBlockEnd
  0
BLOCK
  5
5745
330
573B
100
AcDbEntity
  8
0
100
AcDbBlockBegin
  2
*D35
 70
     1
 10
0.0
 20
0.0
 30
0.0
  3
*D35
  1

  0
LINE
  5
5BE7
330
573B
100
AcDbEntity
  8
AM_5
100
AcDbLine
 10
157.3425619996936
 20
-143.1959205546279
 30
0.0
 11
157.3425619996936
 21
-168.3371698445382
 31
0.0
  0
LINE
  5
5BE8
330
573B
100
AcDbEntity
  8
AM_5
100
AcDbLine
 10
176.8425619996936
 20
-144.1959205546279
 30
0.0
 11
176.8425619996936
 21
-168.3371698445382
 31
0.0
  0
LINE
  5
5BE9
330
573B
100
AcDbEntity
  8
AM_5
100
AcDbLine
 10
160.3425619996936
 20
-166.8371698445382
 30
0.0
 11
173.8425619996936
 21
-166.8371698445382
 31
0.0
  0
SOLID
  5
5BEA
330
573B
100
AcDbEntity
  8
AM_5
100
AcDbTrace
 10
160.3425619996936
 20
-166.3371698445382
 30
0.0
 11
160.3425619996936
 21
-167.3371698445382
 31
0.0
 12
157.3425619996936
 22
-166.8371698445382
 32
0.0
 13
157.3425619996936
 23
-166.8371698445382
 33
0.0
  0
SOLID
  5
5BEB
330
573B
100
AcDbEntity
  8
AM_5
100
AcDbTrace
 10
173.8425619996936
 20
-166.3371698445382
 30
0.0
 11
173.8425619996936
 21
-167.3371698445382
 31
0.0
 12
176.8425619996936
 22
-166.8371698445382
 32
0.0
 13
176.8425619996936
 23
-166.8371698445382
 33
0.0
  0
MTEXT
  5
5BEC
330
573B
100
AcDbEntity
  8
AM_5
100
AcDbMText
 10
167.0925619996936
 20
-164.5371698445382
 30
0.0
 40
3.0
 41
0.0
 71
     5
 72
     1
  1
19.5
 73
     1
 44
1.0
1001
ACAD
1000
MTEXTBEGIN
1070
    73
1070
     1
1070
    44
1040
1.0
1070
    74
1070
     0
1000
MTEXTEND
  0
POINT
  5
5BED
330
573B
100
AcDbEntity
  8
DEFPOINTS
 62
     0
100
AcDbPoint
 10
157.3425619996936
 20
-142.1959205546279
 30
0.0
  0
POINT
  5
5BEE
330
573B
100
AcDbEntity
  8
DEFPOINTS
 62
     0
100
AcDbPoint
 10
176.8425619996936
 20
-143.1959205546279
 30
0.0
  0
POINT
  5
5BEF
330
573B
100
AcDbEntity
  8
DEFPOINTS
 62
     0
100
AcDbPoint
 10
176.8425619996936
 20
-166.8371698445382
 30
0.0
  0
ENDBLK
  5
5746
330
573B
100
AcDbEntity
  8
0
100
AcDbBlockEnd
  0
BLOCK
  5
5751
330
5747
100
AcDbEntity
  8
0
100
AcDbBlockBegin
  2
*D36
 70
     1
 10
0.0
 20
0.0
 30
0.0
  3
*D36
  1

  0
LINE
  5
5BF0
330
5747
100
AcDbEntity
  8
AM_5
100
AcDbLine
 10
157.3425619996936
 20
-143.1959205546279
 30
0.0
 11
157.3425619996936
 21
-175.3371698445382
 31
0.0
  0
LINE
  5
5BF1
330
5747
100
AcDbEntity
  8
AM_5
100
AcDbLine
 10
179.3425619996936
 20
-144.195920554628
 30
0.0
 11
179.3425619996936
 21
-175.3371698445382
 31
0.0
  0
LINE
  5
5BF2
330
5747
100
AcDbEntity
  8
AM_5
100
AcDbLine
 10
160.3425619996936
 20
-173.8371698445382
 30
0.0
 11
176.3425619996936
 21
-173.8371698445382
 31
0.0
  0
SOLID
  5
5BF3
330
5747
100
AcDbEntity
  8
AM_5
100
AcDbTrace
 10
160.3425619996936
 20
-173.3371698445382
 30
0.0
 11
160.3425619996936
 21
-174.3371698445382
 31
0.0
 12
157.3425619996936
 22
-173.8371698445382
 32
0.0
 13
157.3425619996936
 23
-173.8371698445382
 33
0.0
  0
SOLID
  5
5BF4
330
5747
100
AcDbEntity
  8
AM_5
100
AcDbTrace
 10
176.3425619996936
 20
-173.3371698445382
 30
0.0
 11
176.3425619996936
 21
-174.3371698445382
 31
0.0
 12
179.3425619996936
 22
-173.8371698445382
 32
0.0
 13
179.3425619996936
 23
-173.8371698445382
 33
0.0
  0
MTEXT
  5
5BF5
330
5747
100
AcDbEntity
  8
AM_5
100
AcDbMText
 10
168.3425619996936
 20
-171.5368745689476
 30
0.0
 40
3.0
 41
0.0
 71
     5
 72
     1
  1
22
 73
     1
 44
1.0
1001
ACAD
1000
MTEXTBEGIN
1070
    73
1070
     1
1070
    44
1040
1.0
1070
    74
1070
     0
1000
MTEXTEND
  0
POINT
  5
5BF6
330
5747
100
AcDbEntity
  8
DEFPOINTS
 62
     0
100
AcDbPoint
 10
157.3425619996936
 20
-142.1959205546279
 30
0.0
  0
POINT
  5
5BF7
330
5747
100
AcDbEntity
  8
DEFPOINTS
 62
     0
100
AcDbPoint
 10
179.3425619996936
 20
-143.1959205546279
 30
0.0
  0
POINT
  5
5BF8
330
5747
100
AcDbEntity
  8
DEFPOINTS
 62
     0
100
AcDbPoint
 10
179.3425619996936
 20
-173.8371698445382
 30
0.0
  0
ENDBLK
  5
5752
330
5747
100
AcDbEntity
  8
0
100
AcDbBlockEnd
  0
BLOCK
  5
575D
330
5753
100
AcDbEntity
  8
0
100
AcDbBlockBegin
  2
*D37
 70
     1
 10
0.0
 20
0.0
 30
0.0
  3
*D37
  1

  0
LINE
  5
5BF9
330
5753
100
AcDbEntity
  8
AM_5
100
AcDbLine
 10
157.3425619996936
 20
-143.1959205546279
 30
0.0
 11
157.3425619996936
 21
-182.3371698445382
 31
0.0
  0
LINE
  5
5BFA
330
5753
100
AcDbEntity
  8
AM_5
100
AcDbLine
 10
188.3425619996936
 20
-160.1959205546279
 30
0.0
 11
188.3425619996936
 21
-182.3371698445382
 31
0.0
  0
LINE
  5
5BFB
330
5753
100
AcDbEntity
  8
AM_5
100
AcDbLine
 10
160.3425619996936
 20
-180.8371698445382
 30
0.0
 11
185.3425619996936
 21
-180.8371698445382
 31
0.0
  0
SOLID
  5
5BFC
330
5753
100
AcDbEntity
  8
AM_5
100
AcDbTrace
 10
160.3425619996936
 20
-180.3371698445381
 30
0.0
 11
160.3425619996936
 21
-181.3371698445381
 31
0.0
 12
157.3425619996936
 22
-180.8371698445382
 32
0.0
 13
157.3425619996936
 23
-180.8371698445382
 33
0.0
  0
SOLID
  5
5BFD
330
5753
100
AcDbEntity
  8
AM_5
100
AcDbTrace
 10
185.3425619996936
 20
-180.3371698445381
 30
0.0
 11
185.3425619996936
 21
-181.3371698445381
 31
0.0
 12
188.3425619996936
 22
-180.8371698445382
 32
0.0
 13
188.3425619996936
 23
-180.8371698445382
 33
0.0
  0
MTEXT
  5
5BFE
330
5753
100
AcDbEntity
  8
AM_5
100
AcDbMText
 10
172.8425619996936
 20
-178.5371698445382
 30
0.0
 40
3.0
 41
0.0
 71
     5
 72
     1
  1
31
 73
     1
 44
1.0
1001
ACAD
1000
MTEXTBEGIN
1070
    73
1070
     1
1070
    44
1040
1.0
1070
    74
1070
     0
1000
MTEXTEND
  0
POINT
  5
5BFF
330
5753
100
AcDbEntity
  8
DEFPOINTS
 62
     0
100
AcDbPoint
 10
157.3425619996936
 20
-142.1959205546279
 30
0.0
  0
POINT
  5
5C00
330
5753
100
AcDbEntity
  8
DEFPOINTS
 62
     0
100
AcDbPoint
 10
188.3425619996936
 20
-159.1959205546279
 30
0.0
  0
POINT
  5
5C01
330
5753
100
AcDbEntity
  8
DEFPOINTS
 62
     0
100
AcDbPoint
 10
188.3425619996936
 20
-180.8371698445382
 30
0.0
  0
ENDBLK
  5
575E
330
5753
100
AcDbEntity
  8
0
100
AcDbBlockEnd
  0
BLOCK
  5
5769
330
575F
100
AcDbEntity
  8
0
100
AcDbBlockBegin
  2
*D38
 70
     1
 10
0.0
 20
0.0
 30
0.0
  3
*D38
  1

  0
LINE
  5
5C02
330
575F
100
AcDbEntity
  8
AM_5
100
AcDbLine
 10
188.3425619996936
 20
-160.1959205546279
 30
0.0
 11
188.3425619996936
 21
-182.3371698445382
 31
0.0
  0
LINE
  5
5C03
330
575F
100
AcDbEntity
  8
AM_5
100
AcDbLine
 10
266.3425619996937
 20
-155.9459205546279
 30
0.0
 11
266.3425619996937
 21
-182.3371698445382
 31
0.0
  0
LINE
  5
5C04
330
575F
100
AcDbEntity
  8
AM_5
100
AcDbLine
 10
191.3425619996936
 20
-180.8371698445382
 30
0.0
 11
263.3425619996937
 21
-180.8371698445382
 31
0.0
  0
SOLID
  5
5C05
330
575F
100
AcDbEntity
  8
AM_5
100
AcDbTrace
 10
191.3425619996936
 20
-180.3371698445381
 30
0.0
 11
191.3425619996936
 21
-181.3371698445381
 31
0.0
 12
188.3425619996936
 22
-180.8371698445382
 32
0.0
 13
188.3425619996936
 23
-180.8371698445382
 33
0.0
  0
SOLID
  5
5C06
330
575F
100
AcDbEntity
  8
AM_5
100
AcDbTrace
 10
263.3425619996937
 20
-180.3371698445381
 30
0.0
 11
263.3425619996937
 21
-181.3371698445381
 31
0.0
 12
266.3425619996937
 22
-180.8371698445382
 32
0.0
 13
266.3425619996937
 23
-180.8371698445382
 33
0.0
  0
MTEXT
  5
5C07
330
575F
100
AcDbEntity
  8
AM_5
100
AcDbMText
 10
227.3425619996936
 20
-178.5371698445382
 30
0.0
 40
3.0
 41
0.0
 71
     5
 72
     1
  1
78+stroke
 73
     1
 44
1.0
1001
ACAD
1000
MTEXTBEGIN
1070
    73
1070
     1
1070
    44
1040
1.0
1070
    74
1070
     0
1000
MTEXTEND
  0
POINT
  5
5C08
330
575F
100
AcDbEntity
  8
DEFPOINTS
 62
     0
100
AcDbPoint
 10
188.3425619996936
 20
-159.1959205546279
 30
0.0
  0
POINT
  5
5C09
330
575F
100
AcDbEntity
  8
DEFPOINTS
 62
     0
100
AcDbPoint
 10
266.3425619996937
 20
-154.9459205546279
 30
0.0
  0
POINT
  5
5C0A
330
575F
100
AcDbEntity
  8
DEFPOINTS
 62
     0
100
AcDbPoint
 10
266.3425619996937
 20
-180.8371698445382
 30
0.0
  0
ENDBLK
  5
576A
330
575F
100
AcDbEntity
  8
0
100
AcDbBlockEnd
  0
BLOCK
  5
5775
330
576B
100
AcDbEntity
  8
0
100
AcDbBlockBegin
  2
*D39
 70
     1
 10
0.0
 20
0.0
 30
0.0
  3
*D39
  1

  0
LINE
  5
5C0B
330
576B
100
AcDbEntity
  8
AM_5
100
AcDbLine
 10
157.3425619996936
 20
-143.1959205546279
 30
0.0
 11
157.3425619996936
 21
-189.337169844538
 31
0.0
  0
LINE
  5
5C0C
330
576B
100
AcDbEntity
  8
AM_5
100
AcDbLine
 10
266.3425619996937
 20
-155.9459205546279
 30
0.0
 11
266.3425619996937
 21
-189.337169844538
 31
0.0
  0
LINE
  5
5C0D
330
576B
100
AcDbEntity
  8
AM_5
100
AcDbLine
 10
160.3425619996936
 20
-187.837169844538
 30
0.0
 11
263.3425619996937
 21
-187.837169844538
 31
0.0
  0
SOLID
  5
5C0E
330
576B
100
AcDbEntity
  8
AM_5
100
AcDbTrace
 10
160.3425619996936
 20
-187.337169844538
 30
0.0
 11
160.3425619996936
 21
-188.337169844538
 31
0.0
 12
157.3425619996936
 22
-187.837169844538
 32
0.0
 13
157.3425619996936
 23
-187.837169844538
 33
0.0
  0
SOLID
  5
5C0F
330
576B
100
AcDbEntity
  8
AM_5
100
AcDbTrace
 10
263.3425619996937
 20
-187.337169844538
 30
0.0
 11
263.3425619996937
 21
-188.337169844538
 31
0.0
 12
266.3425619996937
 22
-187.837169844538
 32
0.0
 13
266.3425619996937
 23
-187.837169844538
 33
0.0
  0
MTEXT
  5
5C10
330
576B
100
AcDbEntity
  8
AM_5
100
AcDbMText
 10
211.8425619996937
 20
-185.537169844538
 30
0.0
 40
3.0
 41
0.0
 71
     5
 72
     1
  1
109+stroke
 73
     1
 44
1.0
1001
ACAD
1000
MTEXTBEGIN
1070
    73
1070
     1
1070
    44
1040
1.0
1070
    74
1070
     0
1000
MTEXTEND
  0
POINT
  5
5C11
330
576B
100
AcDbEntity
  8
DEFPOINTS
 62
     0
100
AcDbPoint
 10
157.3425619996936
 20
-142.1959205546279
 30
0.0
  0
POINT
  5
5C12
330
576B
100
AcDbEntity
  8
DEFPOINTS
 62
     0
100
AcDbPoint
 10
266.3425619996937
 20
-154.9459205546279
 30
0.0
  0
POINT
  5
5C13
330
576B
100
AcDbEntity
  8
DEFPOINTS
 62
     0
100
AcDbPoint
 10
266.3425619996937
 20
-187.837169844538
 30
0.0
  0
ENDBLK
  5
5776
330
576B
100
AcDbEntity
  8
0
100
AcDbBlockEnd
  0
BLOCK
  5
5781
330
5777
100
AcDbEntity
  8
0
100
AcDbBlockBegin
  2
*D40
 70
     1
 10
0.0
 20
0.0
 30
0.0
  3
*D40
  1

  0
LINE
  5
5C14
330
5777
100
AcDbEntity
  8
AM_5
100
AcDbLine
 10
188.3425619996936
 20
-78.67433486016063
 30
0.0
 11
188.3425619996936
 21
-87.73759957574256
 31
0.0
  0
LINE
  5
5C15
330
5777
100
AcDbEntity
  8
AM_5
100
AcDbLine
 10
217.3425619996937
 20
-78.6743348601606
 30
0.0
 11
217.3425619996937
 21
-87.73759957574256
 31
0.0
  0
LINE
  5
5C16
330
5777
100
AcDbEntity
  8
AM_5
100
AcDbLine
 10
191.3425619996936
 20
-86.23759957574256
 30
0.0
 11
214.3425619996937
 21
-86.23759957574256
 31
0.0
  0
SOLID
  5
5C17
330
5777
100
AcDbEntity
  8
AM_5
100
AcDbTrace
 10
191.3425619996936
 20
-85.73759957574257
 30
0.0
 11
191.3425619996936
 21
-86.73759957574256
 31
0.0
 12
188.3425619996936
 22
-86.23759957574256
 32
0.0
 13
188.3425619996936
 23
-86.23759957574256
 33
0.0
  0
SOLID
  5
5C18
330
5777
100
AcDbEntity
  8
AM_5
100
AcDbTrace
 10
214.3425619996937
 20
-85.73759957574257
 30
0.0
 11
214.3425619996937
 21
-86.73759957574256
 31
0.0
 12
217.3425619996937
 22
-86.23759957574256
 32
0.0
 13
217.3425619996937
 23
-86.23759957574256
 33
0.0
  0
MTEXT
  5
5C19
330
5777
100
AcDbEntity
  8
AM_5
100
AcDbMText
 10
202.8425619996937
 20
-83.93730430015201
 30
0.0
 40
3.0
 41
0.0
 71
     5
 72
     1
  1
29
 73
     1
 44
1.0
1001
ACAD
1000
MTEXTBEGIN
1070
    73
1070
     1
1070
    44
1040
1.0
1070
    74
1070
     0
1000
MTEXTEND
  0
POINT
  5
5C1A
330
5777
100
AcDbEntity
  8
DEFPOINTS
 62
     0
100
AcDbPoint
 10
188.3425619996936
 20
-77.67433486016063
 30
0.0
  0
POINT
  5
5C1B
330
5777
100
AcDbEntity
  8
DEFPOINTS
 62
     0
100
AcDbPoint
 10
217.3425619996937
 20
-77.67433486016059
 30
0.0
  0
POINT
  5
5C1C
330
5777
100
AcDbEntity
  8
DEFPOINTS
 62
     0
100
AcDbPoint
 10
217.3425619996937
 20
-86.23759957574256
 30
0.0
  0
ENDBLK
  5
5782
330
5777
100
AcDbEntity
  8
0
100
AcDbBlockEnd
  0
BLOCK
  5
578D
330
5783
100
AcDbEntity
  8
0
100
AcDbBlockBegin
  2
*D41
 70
     1
 10
0.0
 20
0.0
 30
0.0
  3
*D41
  1

  0
LINE
  5
5C1D
330
5783
100
AcDbEntity
  8
AM_5
100
AcDbLine
 10
188.3425619996936
 20
-34.6743348601606
 30
0.0
 11
188.3425619996936
 21
-28.17004611483216
 31
0.0
  0
LINE
  5
5C1E
330
5783
100
AcDbEntity
  8
AM_5
100
AcDbLine
 10
210.3425619996937
 20
-49.0743348601606
 30
0.0
 11
210.3425619996937
 21
-28.17004611483216
 31
0.0
  0
LINE
  5
5C1F
330
5783
100
AcDbEntity
  8
AM_5
100
AcDbLine
 10
191.3425619996936
 20
-29.67004611483216
 30
0.0
 11
207.3425619996937
 21
-29.67004611483216
 31
0.0
  0
SOLID
  5
5C20
330
5783
100
AcDbEntity
  8
AM_5
100
AcDbTrace
 10
191.3425619996936
 20
-29.17004611483216
 30
0.0
 11
191.3425619996936
 21
-30.17004611483216
 31
0.0
 12
188.3425619996936
 22
-29.67004611483216
 32
0.0
 13
188.3425619996936
 23
-29.67004611483216
 33
0.0
  0
SOLID
  5
5C21
330
5783
100
AcDbEntity
  8
AM_5
100
AcDbTrace
 10
207.3425619996937
 20
-29.17004611483216
 30
0.0
 11
207.3425619996937
 21
-30.17004611483216
 31
0.0
 12
210.3425619996937
 22
-29.67004611483216
 32
0.0
 13
210.3425619996937
 23
-29.67004611483216
 33
0.0
  0
MTEXT
  5
5C22
330
5783
100
AcDbEntity
  8
AM_5
100
AcDbMText
 10
199.3425619996936
 20
-27.36975083924161
 30
0.0
 40
3.0
 41
0.0
 71
     5
 72
     1
  1
22
 73
     1
 44
1.0
1001
ACAD
1000
MTEXTBEGIN
1070
    73
1070
     1
1070
    44
1040
1.0
1070
    74
1070
     0
1000
MTEXTEND
  0
POINT
  5
5C23
330
5783
100
AcDbEntity
  8
DEFPOINTS
 62
     0
100
AcDbPoint
 10
188.3425619996936
 20
-35.6743348601606
 30
0.0
  0
POINT
  5
5C24
330
5783
100
AcDbEntity
  8
DEFPOINTS
 62
     0
100
AcDbPoint
 10
210.3425619996937
 20
-50.0743348601606
 30
0.0
  0
POINT
  5
5C25
330
5783
100
AcDbEntity
  8
DEFPOINTS
 62
     0
100
AcDbPoint
 10
210.3425619996937
 20
-29.67004611483216
 30
0.0
  0
ENDBLK
  5
578E
330
5783
100
AcDbEntity
  8
0
100
AcDbBlockEnd
  0
BLOCK
  5
5799
330
578F
100
AcDbEntity
  8
0
100
AcDbBlockBegin
  2
*D42
 70
     1
 10
0.0
 20
0.0
 30
0.0
  3
*D42
  1

  0
LINE
  5
5C26
330
578F
100
AcDbEntity
  8
AM_5
100
AcDbLine
 10
266.3425619996937
 20
-38.9243348601606
 30
0.0
 11
266.3425619996937
 21
-29.91672504947607
 31
0.0
  0
LINE
  5
5C27
330
578F
100
AcDbEntity
  8
AM_5
100
AcDbLine
 10
258.3425619996936
 20
-50.07433486016072
 30
0.0
 11
258.3425619996936
 21
-29.91672504947607
 31
0.0
  0
LINE
  5
5C28
330
578F
100
AcDbEntity
  8
AM_5
100
AcDbLine
 10
263.3425619996937
 20
-31.41672504947607
 30
0.0
 11
261.3425619996937
 21
-31.41672504947607
 31
0.0
  0
SOLID
  5
5C29
330
578F
100
AcDbEntity
  8
AM_5
100
AcDbTrace
 10
263.3425619996937
 20
-30.91672504947607
 30
0.0
 11
263.3425619996937
 21
-31.91672504947607
 31
0.0
 12
266.3425619996937
 22
-31.41672504947607
 32
0.0
 13
266.3425619996937
 23
-31.41672504947607
 33
0.0
  0
SOLID
  5
5C2A
330
578F
100
AcDbEntity
  8
AM_5
100
AcDbTrace
 10
261.3425619996937
 20
-30.91672504947607
 30
0.0
 11
261.3425619996937
 21
-31.91672504947607
 31
0.0
 12
258.3425619996936
 22
-31.41672504947607
 32
0.0
 13
258.3425619996936
 23
-31.41672504947607
 33
0.0
  0
MTEXT
  5
5C2B
330
578F
100
AcDbEntity
  8
AM_5
100
AcDbMText
 10
262.3425619996937
 20
-29.11672504947607
 30
0.0
 40
3.0
 41
0.0
 71
     5
 72
     1
  1
8
 73
     1
 44
1.0
1001
ACAD
1000
MTEXTBEGIN
1070
    73
1070
     1
1070
    44
1040
1.0
1070
    74
1070
     0
1000
MTEXTEND
  0
POINT
  5
5C2C
330
578F
100
AcDbEntity
  8
DEFPOINTS
 62
     0
100
AcDbPoint
 10
266.3425619996937
 20
-39.9243348601606
 30
0.0
  0
POINT
  5
5C2D
330
578F
100
AcDbEntity
  8
DEFPOINTS
 62
     0
100
AcDbPoint
 10
258.3425619996936
 20
-51.07433486016072
 30
0.0
  0
POINT
  5
5C2E
330
578F
100
AcDbEntity
  8
DEFPOINTS
 62
     0
100
AcDbPoint
 10
258.3425619996936
 20
-31.41672504947607
 30
0.0
  0
ENDBLK
  5
579A
330
578F
100
AcDbEntity
  8
0
100
AcDbBlockEnd
  0
BLOCK
  5
57A5
330
579B
100
AcDbEntity
  8
0
100
AcDbBlockBegin
  2
*D43
 70
     1
 10
0.0
 20
0.0
 30
0.0
  3
*D43
  1

  0
LINE
  5
5C2F
330
579B
100
AcDbEntity
  8
AM_5
100
AcDbLine
 10
266.3425619996937
 20
-74.4243348601606
 30
0.0
 11
266.3425619996937
 21
-87.42433486016059
 31
0.0
  0
LINE
  5
5C30
330
579B
100
AcDbEntity
  8
AM_5
100
AcDbLine
 10
251.3425619996937
 20
-74.9243348601606
 30
0.0
 11
251.3425619996937
 21
-87.42433486016059
 31
0.0
  0
LINE
  5
5C31
330
579B
100
AcDbEntity
  8
AM_5
100
AcDbLine
 10
263.3425619996937
 20
-85.9243348601606
 30
0.0
 11
254.3425619996936
 21
-85.9243348601606
 31
0.0
  0
SOLID
  5
5C32
330
579B
100
AcDbEntity
  8
AM_5
100
AcDbTrace
 10
263.3425619996937
 20
-85.4243348601606
 30
0.0
 11
263.3425619996937
 21
-86.42433486016059
 31
0.0
 12
266.3425619996937
 22
-85.9243348601606
 32
0.0
 13
266.3425619996937
 23
-85.9243348601606
 33
0.0
  0
SOLID
  5
5C33
330
579B
100
AcDbEntity
  8
AM_5
100
AcDbTrace
 10
254.3425619996936
 20
-85.4243348601606
 30
0.0
 11
254.3425619996936
 21
-86.42433486016059
 31
0.0
 12
251.3425619996937
 22
-85.9243348601606
 32
0.0
 13
251.3425619996937
 23
-85.9243348601606
 33
0.0
  0
MTEXT
  5
5C34
330
579B
100
AcDbEntity
  8
AM_5
100
AcDbMText
 10
258.8425619996936
 20
-83.6243348601606
 30
0.0
 40
3.0
 41
0.0
 71
     5
 72
     1
  1
15
 73
     1
 44
1.0
1001
ACAD
1000
MTEXTBEGIN
1070
    73
1070
     1
1070
    44
1040
1.0
1070
    74
1070
     0
1000
MTEXTEND
  0
POINT
  5
5C35
330
579B
100
AcDbEntity
  8
DEFPOINTS
 62
     0
100
AcDbPoint
 10
266.3425619996937
 20
-73.4243348601606
 30
0.0
  0
POINT
  5
5C36
330
579B
100
AcDbEntity
  8
DEFPOINTS
 62
     0
100
AcDbPoint
 10
251.3425619996937
 20
-73.92433486016059
 30
0.0
  0
POINT
  5
5C37
330
579B
100
AcDbEntity
  8
DEFPOINTS
 62
     0
100
AcDbPoint
 10
251.3425619996937
 20
-85.9243348601606
 30
0.0
  0
ENDBLK
  5
57A6
330
579B
100
AcDbEntity
  8
0
100
AcDbBlockEnd
  0
BLOCK
  5
57B1
330
57A7
100
AcDbEntity
  8
0
100
AcDbBlockBegin
  2
*D44
 70
     1
 10
0.0
 20
0.0
 30
0.0
  3
*D44
  1

  0
LINE
  5
5C38
330
57A7
100
AcDbEntity
  8
AM_5
100
AcDbLine
 10
300.5923832733489
 20
-146.5443897829775
 30
0.0
 11
300.5923832733489
 21
-169.4053669209757
 31
0.0
  0
LINE
  5
5C39
330
57A7
100
AcDbEntity
  8
AM_5
100
AcDbLine
 10
335.0923832733489
 20
-146.5443897829774
 30
0.0
 11
335.0923832733489
 21
-169.4053669209757
 31
0.0
  0
LINE
  5
5C3A
330
57A7
100
AcDbEntity
  8
AM_5
100
AcDbLine
 10
303.5923832733489
 20
-167.9053669209757
 30
0.0
 11
332.0923832733489
 21
-167.9053669209757
 31
0.0
  0
SOLID
  5
5C3B
330
57A7
100
AcDbEntity
  8
AM_5
100
AcDbTrace
 10
303.5923832733489
 20
-167.4053669209757
 30
0.0
 11
303.5923832733489
 21
-168.4053669209757
 31
0.0
 12
300.5923832733489
 22
-167.9053669209757
 32
0.0
 13
300.5923832733489
 23
-167.9053669209757
 33
0.0
  0
SOLID
  5
5C3C
330
57A7
100
AcDbEntity
  8
AM_5
100
AcDbTrace
 10
332.0923832733489
 20
-167.4053669209757
 30
0.0
 11
332.0923832733489
 21
-168.4053669209757
 31
0.0
 12
335.0923832733489
 22
-167.9053669209757
 32
0.0
 13
335.0923832733489
 23
-167.9053669209757
 33
0.0
  0
MTEXT
  5
5C3D
330
57A7
100
AcDbEntity
  8
AM_5
100
AcDbMText
 10
317.8423832733489
 20
-165.6053669209757
 30
0.0
 40
3.0
 41
0.0
 71
     5
 72
     1
  1
{\Famgdt|c136;o}34.5
 73
     1
 44
1.0
1001
ACAD
1000
MTEXTBEGIN
1070
    73
1070
     1
1070
    44
1040
1.0
1070
    74
1070
     0
1000
MTEXTEND
  0
POINT
  5
5C3E
330
57A7
100
AcDbEntity
  8
DEFPOINTS
 62
     0
100
AcDbPoint
 10
300.5923832733489
 20
-145.5443897829775
 30
0.0
  0
POINT
  5
5C3F
330
57A7
100
AcDbEntity
  8
DEFPOINTS
 62
     0
100
AcDbPoint
 10
335.0923832733489
 20
-145.5443897829774
 30
0.0
  0
POINT
  5
5C40
330
57A7
100
AcDbEntity
  8
DEFPOINTS
 62
     0
100
AcDbPoint
 10
335.0923832733489
 20
-167.9053669209757
 30
0.0
  0
ENDBLK
  5
57B2
330
57A7
100
AcDbEntity
  8
0
100
AcDbBlockEnd
  0
BLOCK
  5
57BD
330
57B3
100
AcDbEntity
  8
0
100
AcDbBlockBegin
  2
*D45
 70
     1
 10
0.0
 20
0.0
 30
0.0
  3
*D45
  1

  0
LINE
  5
5C41
330
57B3
100
AcDbEntity
  8
AM_5
100
AcDbLine
 10
304.4130742091267
 20
-155.3048702026219
 30
0.0
 11
302.5607557175099
 21
-157.6647253264832
 31
0.0
  0
LINE
  5
5C42
330
57B3
100
AcDbEntity
  8
AM_5
100
AcDbLine
 10
331.2716923375719
 20
-121.086970906634
 30
0.0
 11
336.9436496570014
 21
-113.8608931002768
 31
0.0
  0
LINE
  5
5C43
330
57B3
100
AcDbEntity
  8
AM_5
100
AcDbLine
 10
336.9436496570014
 20
-113.8608931002768
 30
0.0
 11
346.8679137257134
 21
-113.8608931002768
 31
0.0
  0
LINE
  5
5C44
330
57B3
100
AcDbEntity
  8
AM_5
100
AcDbLine
 10
306.2653927007437
 20
-152.9450150787607
 30
0.0
 11
329.419373845955
 21
-123.4468260304952
 31
0.0
  0
SOLID
  5
5C45
330
57B3
100
AcDbEntity
  8
AM_5
100
AcDbTrace
 10
304.0197650218166
 20
-154.9961504540191
 30
0.0
 11
304.8063833964369
 21
-155.6135899512247
 31
0.0
 12
306.2653927007437
 22
-152.9450150787607
 32
0.0
 13
306.2653927007437
 23
-152.9450150787607
 33
0.0
  0
SOLID
  5
5C46
330
57B3
100
AcDbEntity
  8
AM_5
100
AcDbTrace
 10
330.8783831502617
 20
-120.7782511580312
 30
0.0
 11
331.6650015248821
 21
-121.3956906552368
 31
0.0
 12
329.419373845955
 22
-123.4468260304952
 32
0.0
 13
329.419373845955
 23
-123.4468260304952
 33
0.0
  0
MTEXT
  5
5C47
330
57B3
100
AcDbEntity
  8
AM_5
100
AcDbMText
 10
342.3057816913574
 20
-111.5608931002767
 30
0.0
 40
3.0
 41
0.0
 71
     5
 72
     1
  1
\U+220537.5
 73
     1
 44
1.0
1001
ACAD
1000
MTEXTBEGIN
1070
    73
1070
     1
1070
    44
1040
1.0
1070
    74
1070
     0
1000
MTEXTEND
  0
POINT
  5
5C48
330
57B3
100
AcDbEntity
  8
DEFPOINTS
 62
     0
100
AcDbPoint
 10
329.419373845955
 20
-123.4468260304952
 30
0.0
  0
POINT
  5
5C49
330
57B3
100
AcDbEntity
  8
DEFPOINTS
 62
     0
100
AcDbPoint
 10
306.2653927007437
 20
-152.9450150787607
 30
0.0
  0
ENDBLK
  5
57BE
330
57B3
100
AcDbEntity
  8
0
100
AcDbBlockEnd
  0
BLOCK
  5
57CA
330
57BF
100
AcDbEntity
  8
0
100
AcDbBlockBegin
  2
*D46
 70
     1
 10
0.0
 20
0.0
 30
0.0
  3
*D46
  1

  0
LINE
  5
5C4A
330
57BF
100
AcDbEntity
  8
AM_5
100
AcDbLine
 10
184.3425619996936
 20
-132.1959205546279
 30
0.0
 11
181.3425619996935
 21
-132.1959205546279
 31
0.0
  0
LINE
  5
5C4B
330
57BF
100
AcDbEntity
  8
AM_5
100
AcDbLine
 10
184.3425619996936
 20
-144.1959205546279
 30
0.0
 11
181.3425619996935
 21
-144.1959205546279
 31
0.0
  0
LINE
  5
5C4C
330
57BF
100
AcDbEntity
  8
AM_5
100
AcDbLine
 10
182.8425619996935
 20
-141.1959205546279
 30
0.0
 11
182.8425619996935
 21
-135.1959205546279
 31
0.0
  0
LINE
  5
5C4D
330
57BF
100
AcDbEntity
  8
AM_5
100
AcDbLine
 10
182.8425619996935
 20
-132.1959205546279
 30
0.0
 11
182.8425619996935
 21
-117.8508388940776
 31
0.0
  0
SOLID
  5
5C4E
330
57BF
100
AcDbEntity
  8
AM_5
100
AcDbTrace
 10
182.3425619996935
 20
-141.1959205546279
 30
0.0
 11
183.3425619996935
 21
-141.1959205546279
 31
0.0
 12
182.8425619996935
 22
-144.1959205546279
 32
0.0
 13
182.8425619996935
 23
-144.1959205546279
 33
0.0
  0
SOLID
  5
5C4F
330
57BF
100
AcDbEntity
  8
AM_5
100
AcDbTrace
 10
182.3425619996935
 20
-135.1959205546279
 30
0.0
 11
183.3425619996935
 21
-135.1959205546279
 31
0.0
 12
182.8425619996935
 22
-132.1959205546279
 32
0.0
 13
182.8425619996935
 23
-132.1959205546279
 33
0.0
  0
MTEXT
  5
5C50
330
57BF
100
AcDbEntity
  8
AM_5
100
AcDbMText
 10
180.542266724103
 20
-121.4409274767547
 30
0.0
 40
3.0
 41
0.0
 71
     5
 72
     1
  1
%%c12
 11
0.0000000000000001
 21
1.0
 31
0.0
 73
     1
 44
1.0
1001
ACAD
1000
MTEXTBEGIN
1070
    73
1070
     1
1070
    44
1040
1.0
1070
    74
1070
     0
1000
MTEXTEND
  0
POINT
  5
5C51
330
57BF
100
AcDbEntity
  8
DEFPOINTS
 62
     0
100
AcDbPoint
 10
185.3425619996936
 20
-132.1959205546279
 30
0.0
  0
POINT
  5
5C52
330
57BF
100
AcDbEntity
  8
DEFPOINTS
 62
     0
100
AcDbPoint
 10
185.3425619996936
 20
-144.1959205546279
 30
0.0
  0
POINT
  5
5C53
330
57BF
100
AcDbEntity
  8
DEFPOINTS
 62
     0
100
AcDbPoint
 10
182.8425619996935
 20
-144.1959205546279
 30
0.0
  0
ENDBLK
  5
57CB
330
57BF
100
AcDbEntity
  8
0
100
AcDbBlockEnd
  0
ENDSEC
  0
SECTION
  2
ENTITIES
  0
INSERT
  5
51A
330
1E
100
AcDbEntity
  8
ASHADE
 62
     1
100
AcDbBlockReference
  2
AVE_RENDER
 10
0.0
 20
0.0
 30
0.0
1001
AVE_RENDER
1002
{
1070
     7
1000
Pref
1070
    30
1070
    20
1070
     1
1070
     0
1000

1070
    10
1070
     1
1070
    10
1040
1.0
1070
     1
1040
0.3
1040
0.7
1040
0.0
1040
10.0
1010
-1.0
1020
-1.0
1030
-1.0
1040
0.3
1070
    49
1070
     0
1070
     0
1010
1.0
1020
1.0
1030
1.0
1040
45.0
1070
     1
1070
     0
1000
WCS
1040
0.0
1070
     0
1040
10.0
1002
}
  0
INSERT
  5
51B
330
1E
100
AcDbEntity
  8
ASHADE
 62
     3
100
AcDbBlockReference
  2
AVE_RENDER
 10
0.0
 20
0.0
 30
0.0
1001
AVE_RENDER
1002
{
1070
     0
1000
Full Opt
1070
     0
1070
     1
1070
     1
1070
     1
1070
     0
1070
     0
1070
     0
1070
     1
1070
     1
1040
0.0001
1040
0.0001
1002
}
  0
INSERT
  5
51C
330
1E
100
AcDbEntity
  8
ASHADE
 62
     4
100
AcDbBlockReference
  2
AVE_RENDER
 10
0.0
 20
0.0
 30
0.0
1001
AVE_RENDER
1002
{
1070
     0
1000
Quick Opt
1070
     0
1070
     1
1070
     1
1070
     1
1070
     0
1070
     0
1070
     1
1002
}
  0
INSERT
  5
51D
330
1E
100
AcDbEntity
  8
ASHADE
 62
     5
100
AcDbBlockReference
  2
AVE_RENDER
 10
0.0
 20
0.0
 30
0.0
1001
AVE_RENDER
1002
{
1070
     1
1000
Scanl Opt
1070
     2
1070
     0
1070
     2
1040
2.0
1040
4.0
1070
     0
1070
     1
1070
     0
1040
0.03
1002
}
  0
INSERT
  5
51E
330
1E
100
AcDbEntity
  8
ASHADE
 62
     6
100
AcDbBlockReference
  2
AVE_RENDER
 10
0.0
 20
0.0
 30
0.0
1001
AVE_RENDER
1002
{
1070
     2
1000
Raytr Opt
1070
     2
1070
     0
1070
     2
1040
2.0
1040
4.0
1070
     0
1070
     1
1070
     1
1040
0.03
1070
     3
1040
0.03
1002
}
  0
INSERT
  5
51F
330
1E
100
AcDbEntity
  8
ASHADE
 62
     7
100
AcDbBlockReference
  2
AVE_RENDER
 10
0.0
 20
0.0
 30
0.0
1001
AVE_RENDER
1002
{
1070
     0
1000
RFile Opt
1070
     1
1070
   640
1070
   480
1070
 10000
1070
     1
1070
     8
1070
     8
1070
     0
1070
     0
1070
     0
1070
     0
1070
     0
1070
     0
1070
     0
1002
}
  0
INSERT
  5
520
330
1E
100
AcDbEntity
  8
ASHADE
 62
     8
100
AcDbBlockReference
  2
AVE_RENDER
 10
0.0
 20
0.0
 30
0.0
1001
AVE_RENDER
1002
{
1070
     0
1000
Fog Opt
1070
     0
1070
     0
1040
0.0
1040
1.0
1040
0.0
1040
1.0
1010
0.5
1020
0.5
1030
0.5
1002
}
  0
INSERT
  5
521
330
1E
100
AcDbEntity
  8
ASHADE
 62
     9
100
AcDbBlockReference
  2
AVE_RENDER
 10
0.0
 20
0.0
 30
0.0
1001
AVE_RENDER
1002
{
1070
     0
1000
BG Opt
1070
     0
1070
     1
1010
0.0
1020
0.0
1030
0.0
1010
1.0
1020
0.0
1030
0.0
1010
0.0
1020
1.0
1030
0.0
1010
0.0
1020
0.0
1030
1.0
1040
0.5
1040
0.33
1040
0.0
1000

1070
     1
1000

1070
     1
1070
     1
1040
1.0
1040
1.0
1040
0.0
1040
0.0
1070
     0
1002
}
  0
INSERT
  5
528
330
1E
100
AcDbEntity
  8
ASHADE
 62
     1
100
AcDbBlockReference
  2
AVE_GLOBAL
 10
0.0
 20
0.0
 30
0.0
1001
AVE_MATERIAL
1002
{
1000
*整體*
1000
2
1000
整體修飾.
1002
{
1002
}
1002
{
1070
    63
1002
{
1002
{
1010
-1.0
1020
-1.0
1030
-1.0
1002
}
1040
0.1000000014901161
1000

1040
0.0
1002
{
1002
}
1040
0.0
1002
{
1002
}
1040
0.0
1002
}
1002
{
1002
{
1010
-1.0
1020
-1.0
1030
-1.0
1002
}
1040
0.6999999880790711
1000

1040
0.0
1002
{
1002
}
1040
0.0
1002
{
1002
}
1040
0.0
1002
}
1002
{
1002
{
1010
-1.0
1020
-1.0
1030
-1.0
1002
}
1040
0.2000000029802322
1000

1040
0.0
1002
{
1002
}
1040
0.0
1002
{
1002
}
1040
0.0
1002
}
1002
{
1070
     0
1002
{
1070
     1
1002
{
1040
1.0
1040
1.0
1000

1040
0.0
1002
{
1002
}
1040
0.0
1002
{
1002
}
1040
0.0
1002
}
1002
}
1040
1.0
1040
0.0
1040
0.0
1002
}
1002
{
1040
1.0
1040
1.0
1000

1040
0.0
1002
{
1002
}
1040
0.0
1002
{
1002
}
1040
0.0
1002
}
1002
{
1040
0.5
1040
1.0
1000

1040
0.0
1002
{
1002
}
1040
0.0
1002
{
1002
}
1040
0.0
1002
}
1002
{
1070
     0
1040
0.0
1002
{
1002
}
1040
1.0
1002
{
1002
}
1040
0.0
1002
}
1002
{
1040
0.0
1002
{
1002
{
1010
0.0
1020
0.0
1030
0.0
1002
}
1040
1.0
1000

1040
0.0
1002
{
1002
}
1040
0.0
1002
{
1002
}
1040
0.0
1002
}
1002
}
1002
{
1002
{
1070
     1
1002
{
1040
0.0
1040
1.0
1000

1040
0.0
1002
{
1002
}
1040
0.0
1002
{
1002
}
1040
0.0
1002
}
1002
}
1040
0.0
1002
{
1002
}
1010
1.0
1020
0.0
1030
0.0
1010
0.0
1020
1.0
1030
0.0
1010
0.0
1020
0.0
1030
1.0
1070
     0
1002
}
1002
{
1002
{
1040
1.0
1040
1.0
1002
{
1070
     1
1002
{
1040
1.0
1040
1.0
1000

1040
0.0
1002
{
1002
}
1040
0.0
1002
{
1002
}
1040
0.0
1002
}
1002
}
1002
}
1070
     0
1040
0.0
1002
{
1002
}
1002
}
1002
{
1002
}
1002
}
1002
{
1071
        3
1070
     3
1070
     0
1002
{
1070
     2
1070
     0
1070
     0
1040
0.0
1002
}
1070
     0
1070
     2
1002
{
1002
}
1002
}
1002
{
1040
8030.0
1040
190.3000030517578
1040
0.3050000071525574
1040
228.0
1040
545.0
1040
14.0
1040
17.39999961853027
1040
0.4560000002384186
1002
}
1002
}
  0
LWPOLYLINE
  5
36BB
330
1E
100
AcDbEntity
  8
LOGO
 62
     4
100
AcDbPolyline
 90
        4
 70
     1
 43
0.0
 10
34.97091597084259
 20
-216.9720199460402
 10
391.3709159708426
 20
-216.9720199460402
 10
391.3709159708426
 20
237.4431405969456
 10
34.97091597084259
 20
237.4431405969456
1001
GENIUS_GENREC_14
1002
{
1000
PYDIR
1011
34.97091597084259
1021
237.4431405969456
1031
0.0
1002
}
1002
{
1000
PXDIR
1011
391.3709159708426
1021
-216.9720199460402
1031
0.0
1002
}
1002
{
1000
PORI
1011
34.97091597084259
1021
-216.9720199460402
1031
0.0
1002
}
1002
{
1000
PINS
1011
34.97091597084259
1021
-216.9720199460402
1031
0.0
1002
}
1002
{
1000
PINS2
1011
391.3709159708426
1021
237.4431405969456
1031
0.0
1002
}
1002
{
1000
C
1070
     1
1002
}
1001
GENIUS_GENODEF_13
1002
{
1000
HIER
1070
     0
1002
}
1002
{
1000
MANEDIT
1070
     0
1002
}
1002
{
1000
NOSEL
1070
     0
1002
}
1002
{
1000
BEHIND
1070
     0
1002
}
1002
{
1000
OTHER
1070
     0
1002
}
1002
{
1000
REACTOR
1002
}
1001
GENIUS_GENOBJ-N-REC_13
1002
{
1000
OWNER
1000
GEN
1002
}
  0
LWPOLYLINE
  5
36BC
330
1E
100
AcDbEntity
  8
LOGO
 62
     4
100
AcDbPolyline
 90
        4
 70
     1
 43
0.0
 10
34.97091597084259
 20
-216.9720199460402
 10
391.3709159708426
 20
-216.9720199460402
 10
391.3709159708426
 20
-252.6068594030544
 10
34.97091597084259
 20
-252.6068594030544
1001
GENIUS_GENREC_14
1002
{
1000
PYDIR
1011
34.97091597084259
1021
-252.6068594030544
1031
0.0
1002
}
1002
{
1000
PXDIR
1011
391.3709159708426
1021
-216.9720199460402
1031
0.0
1002
}
1002
{
1000
PORI
1011
34.97091597084259
1021
-216.9720199460402
1031
0.0
1002
}
1002
{
1000
PINS
1011
34.97091597084259
1021
-216.9720199460402
1031
0.0
1002
}
1002
{
1000
PINS2
1011
391.3709159708426
1021
-252.6068594030544
1031
0.0
1002
}
1002
{
1000
C
1070
     1
1002
}
1001
GENIUS_GENOBJ-N-REC_13
1002
{
1000
OWNER
1000
GEN
1002
}
1001
GENIUS_GENODEF_13
1002
{
1000
HIER
1070
     0
1002
}
1002
{
1000
MANEDIT
1070
     0
1002
}
1002
{
1000
NOSEL
1070
     0
1002
}
1002
{
1000
BEHIND
1070
     0
1002
}
1002
{
1000
OTHER
1070
     0
1002
}
1002
{
1000
REACTOR
1002
}
  0
TEXT
  5
36BD
330
1E
100
AcDbEntity
  8
LOGO
 62
     7
100
AcDbText
 10
115.4320239243391
 20
-232.5830367335495
 30
0.0
 40
4.751311927601808
  1
Order example:
 41
0.8
  7
CHINESET
100
AcDbText
  0
TEXT
  5
36BE
330
1E
100
AcDbEntity
  8
LOGO
 62
     7
100
AcDbText
 10
116.2844485759021
 20
-225.8941733111736
 30
0.0
 40
7.126967891402713
  1
訂購代號：
  7
CHINESET
100
AcDbText
  0
LINE
  5
36BF
330
1E
100
AcDbEntity
  8
LOGO
 62
     4
100
AcDbLine
 10
113.3675627762726
 20
-252.6068594030538
 30
0.0
 11
113.3675627762726
 21
-216.9720199460401
 31
0.0
  0
TEXT
  5
36C0
330
1E
100
AcDbEntity
  8
LOGO
  6
Continuous
100
AcDbText
 10
47.77111048550458
 20
-245.6064489693852
 30
0.0
 40
5.345225918552037
  1
金器工業股份有限公司
  7
CHINESET
100
AcDbText
  0
TEXT
  5
36C1
330
1E
100
AcDbEntity
  8
LOGO
  6
Continuous
100
AcDbText
 10
37.95298797392209
 20
-250.9527221331354
 30
0.0
 40
3.563483945701356
  1
MINDMAN INDUSTRIAL CO., LTD.
 41
0.85
  7
CHINESET
100
AcDbText
  0
LINE
  5
36C2
330
1E
100
AcDbEntity
  8
LOGO
 62
     4
100
AcDbLine
 10
113.3675627762726
 20
-224.0989878374429
 30
0.0
 11
61.10313157265236
 21
-224.0989878374429
 31
0.0
  0
LINE
  5
36C3
330
1E
100
AcDbEntity
  8
LOGO
 62
     4
100
AcDbLine
 10
113.3675627762726
 20
-231.2259557288457
 30
0.0
 11
61.10313157265236
 21
-231.2259557288457
 31
0.0
  0
LINE
  5
36C4
330
1E
100
AcDbEntity
  8
LOGO
 62
     4
100
AcDbLine
 10
113.3675627762726
 20
-238.352923620248
 30
0.0
 11
34.97091597084264
 21
-238.352923620248
 31
0.0
  0
LINE
  5
36C5
330
1E
100
AcDbEntity
  8
LOGO
 62
     4
100
AcDbLine
 10
61.10313157265236
 20
-238.352923620248
 30
0.0
 11
61.10313157265236
 21
-216.9720199460401
 31
0.0
  0
TEXT
  5
36C6
330
1E
100
AcDbEntity
  8
LOGO
100
AcDbText
 10
96.82340345674864
 20
-236.5711816473979
 30
0.0
 40
3.563483945701356
  1
mm
  7
CHINESET
 72
     1
 11
101.2353359609503
 21
-234.7894396745472
 31
0.0
100
AcDbText
 73
     2
  0
TEXT
  5
36C7
330
1E
100
AcDbEntity
  8
LOGO
100
AcDbText
 10
94.95681662804791
 20
-222.3172458645924
 30
0.0
 40
3.563483945701356
  1
1 : 1
  7
CHINESET
 72
     1
 11
101.2353359609503
 21
-220.5355038917417
 31
0.0
100
AcDbText
 73
     2
  0
LINE
  5
36C8
330
1E
100
AcDbEntity
  8
LOGO
 62
     4
100
AcDbLine
 10
89.61100313826342
 20
-238.352923620248
 30
0.0
 11
89.61100313826342
 21
-216.9720199460401
 31
0.0
  0
CIRCLE
  5
36C9
330
1E
100
AcDbEntity
  8
LOGO
  6
Continuous
100
AcDbCircle
 10
96.20923937725548
 20
-227.6548494649075
 30
0.0
 40
2.069042653831365
  0
CIRCLE
  5
36CA
330
1E
100
AcDbEntity
  8
LOGO
  6
Continuous
100
AcDbCircle
 10
96.20923937725548
 20
-227.6548494649075
 30
0.0
 40
1.212275833162093
  0
LINE
  5
36CB
330
1E
100
AcDbEntity
  8
LOGO
100
AcDbLine
 10
109.2113434954885
 20
-229.7238921187392
 30
0.0
 11
109.2113434954885
 21
-225.5858068110756
 31
0.0
  0
LINE
  5
36CC
330
1E
100
AcDbEntity
  8
LOGO
100
AcDbLine
 10
102.7250135444429
 20
-228.8671252980693
 30
0.0
 11
102.7250135444429
 21
-226.4425736317451
 31
0.0
  0
LINE
  5
36CD
330
1E
100
AcDbEntity
  8
LOGO
  6
Continuous
100
AcDbLine
 10
102.7250135444429
 20
-226.4425736317451
 30
0.0
 11
109.2113434954885
 21
-225.5858068110756
 31
0.0
  0
LINE
  5
36CE
330
1E
100
AcDbEntity
  8
LOGO
  6
Continuous
100
AcDbLine
 10
102.7250135444429
 20
-228.8671252980693
 30
0.0
 11
109.2113434954885
 21
-229.7238921187392
 31
0.0
  0
TEXT
  5
36CF
330
1E
100
AcDbEntity
  8
LOGO
100
AcDbText
 10
64.04141498680887
 20
-222.3154921815483
 30
233.5448673044087
 40
3.563483945701356
  1
比例 Scale:
 41
0.9
  7
CHINESET
 72
     4
 11
75.35706735545787
 21
-220.5355038917417
 31
233.5448673044087
100
AcDbText
  0
TEXT
  5
36D0
330
1E
100
AcDbEntity
  8
LOGO
100
AcDbText
 10
63.8361964917216
 20
-229.3940876489834
 30
233.5448673044087
 40
3.563483945701356
  1
投影  View:
 41
0.9
  7
CHINESET
 72
     4
 11
75.35706735545787
 21
-227.6624717831445
 31
233.5448673044087
100
AcDbText
  0
TEXT
  5
36D1
330
1E
100
AcDbEntity
  8
LOGO
100
AcDbText
 10
64.18459068105581
 20
-236.5711816473979
 30
233.5448673044087
 40
3.563483945701356
  1
單位  Unit:
 41
0.9
  7
CHINESET
 72
     4
 11
75.35706735545787
 21
-234.7894396745472
 31
233.5448673044087
100
AcDbText
  0
SOLID
  5
36D2
330
1E
100
AcDbEntity
  8
LOGO
 62
     5
100
AcDbTrace
 10
38.66808775407501
 20
-232.429138782518
 30
0.0
 11
40.2088447063775
 21
-232.4291387825185
 31
0.0
 12
46.63752026598433
 22
-217.8185125106833
 32
0.0
 13
48.17827721828763
 23
-217.8185125106841
 33
0.0
  0
SOLID
  5
36D3
330
1E
100
AcDbEntity
  8
LOGO
 62
     5
100
AcDbTrace
 10
40.84639930733195
 20
-232.429138782518
 30
0.0
 11
42.38715625963439
 21
-232.429138782518
 31
0.0
 12
48.17827721828763
 22
-218.9873626124307
 32
0.0
 13
46.63752026598433
 23
-224.6368047708734
 33
0.0
  0
SOLID
  5
36D4
330
1E
100
AcDbEntity
  8
LOGO
 62
     2
100
AcDbTrace
 10
40.2088447063775
 20
-232.4291387825185
 30
0.0
 11
40.84639930733195
 21
-232.429138782518
 31
0.0
 12
48.17827721828763
 22
-217.8185125106841
 32
0.0
 13
48.81583181924128
 23
-217.8185125106841
 33
0.0
  0
SOLID
  5
36D5
330
1E
100
AcDbEntity
  8
LOGO
 62
     5
100
AcDbTrace
 10
36.19787651964654
 20
-237.7420937904573
 30
0.0
 11
36.7291720204411
 21
-237.7420937904573
 31
0.0
 12
38.22534150341386
 22
-235.0856162864879
 32
0.0
 13
38.75663700420677
 23
-235.0856162864879
 33
0.0
  0
SOLID
  5
36D6
330
1E
100
AcDbEntity
  8
LOGO
 62
     5
100
AcDbTrace
 10
38.22534150341386
 20
-235.0856162864879
 30
0.0
 11
38.75663700420677
 21
-235.0856162864879
 31
0.0
 12
38.22534150341386
 22
-237.7420937904573
 32
0.0
 13
38.75663700420677
 23
-237.7420937904573
 33
0.0
  0
SOLID
  5
36D7
330
1E
100
AcDbEntity
  8
LOGO
 62
     5
100
AcDbTrace
 10
38.22534150341386
 20
-237.7420937904573
 30
0.0
 11
38.75663700420677
 21
-237.7420937904573
 31
0.0
 12
40.25280648718196
 22
-235.0856162864879
 32
0.0
 13
40.78410198797567
 23
-235.0856162864879
 33
0.0
  0
SOLID
  5
36D8
330
1E
100
AcDbEntity
  8
LOGO
 62
     5
100
AcDbTrace
 10
40.25280648718196
 20
-235.0856162864879
 30
0.0
 11
40.78410198797567
 21
-235.0856162864879
 31
0.0
 12
40.25280648718196
 22
-237.7420937904573
 32
0.0
 13
40.78410198797567
 23
-237.7420937904573
 33
0.0
  0
POLYLINE
  5
36D9
330
1E
100
AcDbEntity
  8
LOGO
 62
     5
100
AcDb2dPolyline
 66
     1
 10
0.0
 20
0.0
 30
0.0
 40
0.5321469358914026
 41
0.5321469358914026
  0
VERTEX
  5
36DA
330
36D9
100
AcDbEntity
  8
LOGO
 62
     5
100
AcDbVertex
100
AcDb2dVertex
 10
58.06165068570246
 20
-236.1482072880758
 30
0.0
 42
1.0
  0
VERTEX
  5
36DB
330
36D9
100
AcDbEntity
  8
LOGO
 62
     5
100
AcDbVertex
100
AcDb2dVertex
 10
56.46520987802793
 20
-236.1482072880758
 30
0.0
 42
1.0
  0
SEQEND
  5
36DC
330
36D9
100
AcDbEntity
  8
LOGO
 62
     5
  0
POLYLINE
  5
36DD
330
1E
100
AcDbEntity
  8
LOGO
 62
     5
100
AcDb2dPolyline
 66
     1
 10
0.0
 20
0.0
 30
0.0
 70
     1
  0
VERTEX
  5
36DE
330
36DD
100
AcDbEntity
  8
LOGO
 62
     5
100
AcDbVertex
100
AcDb2dVertex
 10
53.45584794587399
 20
-236.413855038473
 30
0.0
 42
1.000000057330635
  0
VERTEX
  5
36DF
330
36DD
100
AcDbEntity
  8
LOGO
 62
     5
100
AcDbVertex
100
AcDb2dVertex
 10
55.049734448256
 20
-236.413855038473
 30
0.0
 42
1.000000057330635
  0
SEQEND
  5
36E0
330
36DD
100
AcDbEntity
  8
LOGO
 62
     5
  0
CIRCLE
  5
36E1
330
1E
100
AcDbEntity
  8
LOGO
 62
     5
100
AcDbCircle
 10
54.25279119706622
 20
-236.413855038473
 30
0.0
 40
0.7969432511909649
  0
POLYLINE
  5
36E2
330
1E
100
AcDbEntity
  8
LOGO
 62
     5
100
AcDb2dPolyline
 66
     1
 10
0.0
 20
0.0
 30
0.0
 70
     1
 40
0.5321469358914026
 41
0.5321469358914026
  0
VERTEX
  5
36E3
330
36E2
100
AcDbEntity
  8
LOGO
 62
     5
100
AcDbVertex
100
AcDb2dVertex
 10
53.18849732528263
 20
-236.413855038473
 30
0.0
 42
1.0
  0
VERTEX
  5
36E4
330
36E2
100
AcDbEntity
  8
LOGO
 62
     5
100
AcDbVertex
100
AcDb2dVertex
 10
55.31708506884815
 20
-236.413855038473
 30
0.0
 42
1.0
  0
SEQEND
  5
36E5
330
36E2
100
AcDbEntity
  8
LOGO
 62
     5
  0
LINE
  5
36E6
330
1E
100
AcDbEntity
  8
LOGO
100
AcDbLine
 10
58.32602128345226
 20
-237.7420937904573
 30
0.0
 11
58.32602128345226
 21
-236.1482072880758
 31
0.0
  0
SOLID
  5
36E7
330
1E
100
AcDbEntity
  8
LOGO
 62
     5
100
AcDbTrace
 10
55.04968131870828
 20
-235.0856162864879
 30
0.0
 11
55.58097681950124
 21
-235.0856162864879
 31
0.0
 12
55.04968131870828
 22
-237.7420937904573
 32
0.0
 13
55.58097681950124
 23
-237.7420937904573
 33
0.0
  0
SOLID
  5
36E8
330
1E
100
AcDbEntity
  8
LOGO
 62
     5
100
AcDbTrace
 10
56.20083928027646
 20
-237.7420937904573
 30
0.0
 11
56.73213478107104
 21
-237.7420937904573
 31
0.0
 12
56.20083928027646
 22
-235.0856162864879
 32
0.0
 13
56.73213478107104
 23
-235.0856162864879
 33
0.0
  0
SOLID
  5
36E9
330
1E
100
AcDbEntity
  8
LOGO
 62
     5
100
AcDbTrace
 10
57.7947257826593
 20
-236.1482072880758
 30
0.0
 11
58.32602128345226
 21
-236.1482072880758
 31
0.0
 12
57.7947257826593
 22
-237.7420937904573
 32
0.0
 13
58.32602128345226
 23
-237.7420937904573
 33
0.0
  0
SOLID
  5
36EA
330
1E
100
AcDbEntity
  8
LOGO
 62
     5
100
AcDbTrace
 10
56.14770973019696
 20
-218.9873626124307
 30
0.0
 11
54.60695277789525
 21
-224.6368047708734
 31
0.0
 12
56.14770973019696
 22
-232.4291387825185
 32
0.0
 13
54.60695277789525
 23
-232.4291387825185
 33
0.0
  0
SOLID
  5
36EB
330
1E
100
AcDbEntity
  8
LOGO
 62
     5
100
AcDbTrace
 10
56.78526433115056
 20
-232.4291387825185
 30
0.0
 11
58.32602128345226
 21
-232.4291387825185
 31
0.0
 12
56.78526433115056
 22
-217.8185125106841
 32
0.0
 13
58.32602128345226
 23
-217.8185125106833
 33
0.0
  0
SOLID
  5
36EC
330
1E
100
AcDbEntity
  8
LOGO
 62
     2
100
AcDbTrace
 10
56.14770973019696
 20
-217.8185125106833
 30
0.0
 11
56.78526433115056
 21
-217.8185125106841
 31
0.0
 12
56.14770973019696
 22
-232.4291387825185
 32
0.0
 13
56.78526433115056
 23
-232.4291387825185
 33
0.0
  0
POLYLINE
  5
36ED
330
1E
100
AcDbEntity
  8
LOGO
 62
     5
100
AcDb2dPolyline
 66
     1
 10
0.0
 20
0.0
 30
0.0
 40
0.5321469358914026
 41
0.5321469358914026
  0
VERTEX
  5
36EE
330
36ED
100
AcDbEntity
  8
LOGO
 62
     5
100
AcDbVertex
100
AcDb2dVertex
 10
50.44637975462222
 20
-236.1482072880758
 30
0.0
 42
1.0
  0
VERTEX
  5
36EF
330
36ED
100
AcDbEntity
  8
LOGO
 62
     5
100
AcDbVertex
100
AcDb2dVertex
 10
48.84993894694765
 20
-236.1482072880758
 30
0.0
 42
1.0
  0
SEQEND
  5
36F0
330
36ED
100
AcDbEntity
  8
LOGO
 62
     5
  0
POLYLINE
  5
36F1
330
1E
100
AcDbEntity
  8
LOGO
 62
     5
100
AcDb2dPolyline
 66
     1
 10
0.0
 20
0.0
 30
0.0
 40
0.5321469358914026
 41
0.5321469358914026
  0
VERTEX
  5
36F2
330
36F1
100
AcDbEntity
  8
LOGO
 62
     5
100
AcDbVertex
100
AcDb2dVertex
 10
52.0402662570026
 20
-236.1482072880758
 30
0.0
 42
1.0
  0
VERTEX
  5
36F3
330
36F1
100
AcDbEntity
  8
LOGO
 62
     5
100
AcDbVertex
100
AcDb2dVertex
 10
50.44382544932886
 20
-236.1482072880758
 30
0.0
 42
1.0
  0
SEQEND
  5
36F4
330
36F1
100
AcDbEntity
  8
LOGO
 62
     5
  0
POLYLINE
  5
36F5
330
1E
100
AcDbEntity
  8
LOGO
 62
     5
100
AcDb2dPolyline
 66
     1
 10
0.0
 20
0.0
 30
0.0
 40
0.5321469358914026
 41
0.5321469358914026
  0
VERTEX
  5
36F6
330
36F5
100
AcDbEntity
  8
LOGO
 62
     5
100
AcDbVertex
100
AcDb2dVertex
 10
44.42499532592234
 20
-236.1482072880758
 30
0.0
 42
1.0
  0
VERTEX
  5
36F7
330
36F5
100
AcDbEntity
  8
LOGO
 62
     5
100
AcDbVertex
100
AcDb2dVertex
 10
42.82855451824864
 20
-236.1482072880758
 30
0.0
 42
1.0
  0
SEQEND
  5
36F8
330
36F5
100
AcDbEntity
  8
LOGO
 62
     5
  0
SOLID
  5
36F9
330
1E
100
AcDbEntity
  8
LOGO
 62
     5
100
AcDbTrace
 10
42.56418392049804
 20
-235.0856162864879
 30
0.0
 11
43.09547942129094
 21
-235.0856162864879
 31
0.0
 12
42.56418392049804
 22
-237.7420937904573
 32
0.0
 13
43.09547942129094
 23
-237.7420937904573
 33
0.0
  0
SOLID
  5
36FA
330
1E
100
AcDbEntity
  8
LOGO
 62
     5
100
AcDbTrace
 10
44.15807042288006
 20
-236.1482072880758
 30
0.0
 11
44.68936592367461
 21
-236.1482072880758
 31
0.0
 12
44.15807042288006
 22
-237.7420937904573
 32
0.0
 13
44.68936592367461
 23
-237.7420937904573
 33
0.0
  0
POLYLINE
  5
36FB
330
1E
100
AcDbEntity
  8
LOGO
 62
     5
100
AcDb2dPolyline
 66
     1
 10
0.0
 20
0.0
 30
0.0
 70
     1
 40
0.5321469358914026
 41
0.5321469358914026
  0
VERTEX
  5
36FC
330
36FB
100
AcDbEntity
  8
LOGO
 62
     5
100
AcDbVertex
100
AcDb2dVertex
 10
45.57322639420161
 20
-236.413855038473
 30
0.0
 42
1.0
  0
VERTEX
  5
36FD
330
36FB
100
AcDbEntity
  8
LOGO
 62
     5
100
AcDbVertex
100
AcDb2dVertex
 10
47.70181413776791
 20
-236.413855038473
 30
0.0
 42
1.0
  0
SEQEND
  5
36FE
330
36FB
100
AcDbEntity
  8
LOGO
 62
     5
  0
SOLID
  5
36FF
330
1E
100
AcDbEntity
  8
LOGO
 62
     5
100
AcDbTrace
 10
47.43441038762642
 20
-234.2886730352965
 30
0.0
 11
47.96570588842016
 21
-234.2886730352965
 31
0.0
 12
47.43441038762642
 22
-237.7420937904573
 32
0.0
 13
47.96570588842016
 23
-237.7420937904573
 33
0.0
  0
SOLID
  5
3700
330
1E
100
AcDbEntity
  8
LOGO
 62
     5
100
AcDbTrace
 10
48.58556834919784
 20
-235.0856162864879
 30
0.0
 11
49.11686384999081
 21
-235.0856162864879
 31
0.0
 12
48.58556834919784
 22
-237.7420937904573
 32
0.0
 13
49.11686384999081
 23
-237.7420937904573
 33
0.0
  0
SOLID
  5
3701
330
1E
100
AcDbEntity
  8
LOGO
 62
     5
100
AcDbTrace
 10
50.17945485157827
 20
-236.1482072880758
 30
0.0
 11
50.71075035237282
 21
-236.1482072880758
 31
0.0
 12
50.17945485157827
 22
-237.7420937904573
 32
0.0
 13
50.71075035237282
 23
-237.7420937904573
 33
0.0
  0
SOLID
  5
3702
330
1E
100
AcDbEntity
  8
LOGO
 62
     5
100
AcDbTrace
 10
51.77334135396029
 20
-236.1482072880758
 30
0.0
 11
52.30463685475405
 21
-236.1482072880758
 31
0.0
 12
51.77334135396029
 22
-237.7420937904583
 32
0.0
 13
52.30463685475405
 23
-237.7420937904583
 33
0.0
  0
SOLID
  5
3703
330
1E
100
AcDbEntity
  8
LOGO
 62
     5
100
AcDbTrace
 10
41.41302595892736
 20
-234.7137094359321
 30
0.0
 11
41.94432145972271
 21
-234.7137094359321
 31
0.0
 12
41.41302595892736
 22
-234.2886730352965
 32
0.0
 13
41.94432145972271
 23
-234.2886730352965
 33
0.0
  0
SOLID
  5
3704
330
1E
100
AcDbEntity
  8
LOGO
 62
     5
100
AcDbTrace
 10
41.41302595892736
 20
-235.0856162864879
 30
0.0
 11
41.94432145972271
 21
-235.0856162864879
 31
0.0
 12
41.41302595892736
 22
-237.7420937904583
 32
0.0
 13
41.94432145972271
 23
-237.7420937904573
 33
0.0
  0
SOLID
  5
3705
330
1E
100
AcDbEntity
  8
LOGO
 62
     5
100
AcDbTrace
 10
46.63752026598433
 20
-232.429138782518
 30
0.0
 11
48.17827721828763
 21
-232.429138782518
 31
0.0
 12
46.63752026598433
 22
-224.6368047708734
 32
0.0
 13
48.17827721828763
 23
-218.9873626124307
 33
0.0
  0
SOLID
  5
3706
330
1E
100
AcDbEntity
  8
LOGO
 62
     5
100
AcDbTrace
 10
48.81583181924128
 20
-217.8185125106841
 30
0.0
 11
50.35658877154293
 21
-217.8185125106833
 31
0.0
 12
48.81583181924128
 22
-231.2602886807715
 32
0.0
 13
50.35658877154293
 23
-225.6108465223288
 33
0.0
  0
SOLID
  5
3707
330
1E
100
AcDbEntity
  8
LOGO
 62
     2
100
AcDbTrace
 10
48.17827721828763
 20
-217.8185125106841
 30
0.0
 11
48.81583181924128
 21
-217.8185125106841
 31
0.0
 12
48.17827721828763
 22
-232.429138782518
 32
0.0
 13
48.81583181924128
 23
-232.429138782518
 33
0.0
  0
SOLID
  5
3708
330
1E
100
AcDbEntity
  8
LOGO
 62
     5
100
AcDbTrace
 10
48.81583181924128
 20
-231.2602886807715
 30
0.0
 11
50.35658877154293
 21
-225.6108465223288
 31
0.0
 12
56.14770973019696
 22
-217.8185125106833
 32
0.0
 13
54.60695277789525
 23
-217.8185125106833
 33
0.0
  0
SOLID
  5
3709
330
1E
100
AcDbEntity
  8
LOGO
 62
     5
100
AcDbTrace
 10
48.81583181924128
 20
-232.429138782518
 30
0.0
 11
50.35658877154293
 21
-232.429138782518
 31
0.0
 12
56.14770973019696
 22
-218.9873626124307
 32
0.0
 13
54.60695277789525
 23
-224.6368047708734
 33
0.0
  0
SOLID
  5
370A
330
1E
100
AcDbEntity
  8
LOGO
 62
     2
100
AcDbTrace
 10
48.17827721828763
 20
-232.429138782518
 30
0.0
 11
48.81583181924128
 21
-232.429138782518
 31
0.0
 12
56.14770973019696
 22
-217.8185125106833
 32
0.0
 13
56.78526433115056
 23
-217.8185125106841
 33
0.0
  0
LINE
  5
370B
330
1E
100
AcDbEntity
  8
LOGO
 62
     4
100
AcDbLine
 10
186.0257786968383
 20
-236.5711816473972
 30
0.0
 11
186.0257786968383
 21
-249.6372894483029
 31
0.0
  0
LINE
  5
370C
330
1E
100
AcDbEntity
  8
LOGO
 62
     4
100
AcDbLine
 10
162.2692190588291
 20
-236.5711816473972
 30
0.0
 11
162.2692190588291
 21
-249.6372894483029
 31
0.0
  0
LINE
  5
370D
330
1E
100
AcDbEntity
  8
LOGO
 62
     4
100
AcDbLine
 10
186.0257786968383
 20
-249.6372894483029
 30
0.0
 11
162.2692190588291
 21
-249.6372894483029
 31
0.0
  0
LINE
  5
370E
330
1E
100
AcDbEntity
  8
LOGO
 62
     4
100
AcDbLine
 10
217.7063482317059
 20
-220.5355038917417
 30
0.0
 11
162.3817028949319
 21
-220.5355038917417
 31
0.0
  0
LINE
  5
370F
330
1E
100
AcDbEntity
  8
LOGO
 62
     4
100
AcDbLine
 10
217.7063482317059
 20
-231.2259557288457
 30
0.0
 11
162.3817028949319
 21
-231.2259557288457
 31
0.0
  0
LINE
  5
3710
330
1E
100
AcDbEntity
  8
LOGO
 62
     4
100
AcDbLine
 10
162.3817028949319
 20
-220.5355038917417
 30
0.0
 11
162.3817028949319
 21
-231.2259557288457
 31
0.0
  0
LINE
  5
3711
330
1E
100
AcDbEntity
  8
LOGO
 62
     4
100
AcDbLine
 10
217.7063482317059
 20
-220.5355038917417
 30
0.0
 11
217.7063482317059
 21
-231.2259557288457
 31
0.0
  0
LINE
  5
3712
330
1E
100
AcDbEntity
  8
LOGO
 62
     4
100
AcDbLine
 10
174.1474988778337
 20
-231.2259557288457
 30
0.0
 11
174.1474988778337
 21
-236.5711816473972
 31
0.0
  0
TEXT
  5
3713
330
1E
100
AcDbEntity
  8
LOGO
  6
Continuous
100
AcDbText
 10
164.2812287588967
 20
-228.9943395372892
 30
0.0
 40
6.236999999999999
  1
MCMBRA/B
  7
CHINESET
100
AcDbText
  0
LINE
  5
3714
330
1E
100
AcDbEntity
  8
LOGO
 62
     4
100
AcDbLine
 10
186.0257786968383
 20
-236.5711816473972
 30
0.0
 11
162.2692190588291
 21
-236.5711816473972
 31
0.0
  0
TEXT
  5
3715
330
1E
100
AcDbEntity
  8
LOGO
  6
Continuous
100
AcDbText
 10
169.892623834543
 20
-247.7930360395304
 30
233.5448673044087
 40
2.672999999999999
  1
Model
 41
0.8
  7
CHINESET
100
AcDbText
  0
TEXT
  5
3716
330
1E
100
AcDbEntity
  8
LOGO
100
AcDbText
 10
169.1811581284285
 20
-242.8378701121457
 30
233.5448673044087
 40
4.455
  1
型號
  7
CHINESET
100
AcDbText
  0
LINE
  5
3717
330
1E
100
AcDbEntity
  8
LOGO
  6
Continuous
100
AcDbLine
 10
219.7938408925079
 20
-225.9185970801912
 30
0.0
 11
224.5143543465181
 21
-225.9185970801912
 31
0.0
  0
LINE
  5
3718
330
1E
100
AcDbEntity
  8
LOGO
 62
     4
100
AcDbLine
 10
229.6269872383931
 20
-236.5711816473972
 30
0.0
 11
229.6269872383931
 21
-249.6372894483029
 31
0.0
  0
LINE
  5
3719
330
1E
100
AcDbEntity
  8
LOGO
 62
     4
100
AcDbLine
 10
198.9549498411908
 20
-236.5711816473972
 30
0.0
 11
198.9549498411908
 21
-249.6372894483029
 31
0.0
  0
LINE
  5
371A
330
1E
100
AcDbEntity
  8
LOGO
 62
     4
100
AcDbLine
 10
229.6269872383931
 20
-249.6372894483029
 30
0.0
 11
198.9549498411908
 21
-249.6372894483029
 31
0.0
  0
LINE
  5
371B
330
1E
100
AcDbEntity
  8
LOGO
 62
     4
100
AcDbLine
 10
238.4888990541524
 20
-220.5355038917417
 30
0.0
 11
226.5722576083435
 21
-220.5355038917417
 31
0.0
  0
LINE
  5
371C
330
1E
100
AcDbEntity
  8
LOGO
 62
     4
100
AcDbLine
 10
238.4888990541524
 20
-231.2259557288457
 30
0.0
 11
226.5722576083435
 21
-231.2259557288457
 31
0.0
  0
LINE
  5
371D
330
1E
100
AcDbEntity
  8
LOGO
 62
     4
100
AcDbLine
 10
226.5722576083435
 20
-220.5355038917417
 30
0.0
 11
226.5722576083435
 21
-231.2259557288457
 31
0.0
  0
LINE
  5
371E
330
1E
100
AcDbEntity
  8
LOGO
 62
     4
100
AcDbLine
 10
238.4888990541524
 20
-220.5355038917417
 30
0.0
 11
238.4888990541524
 21
-231.2259557288457
 31
0.0
  0
LINE
  5
371F
330
1E
100
AcDbEntity
  8
LOGO
 62
     4
100
AcDbLine
 10
232.5305783312479
 20
-231.2259557288457
 30
0.0
 11
232.530578331248
 21
-233.8985686881215
 31
0.0
  0
TEXT
  5
3720
330
1E
100
AcDbEntity
  8
LOGO
  6
Continuous
100
AcDbText
 10
228.3100634724653
 20
-228.9943395372892
 30
0.0
 40
6.236999999999999
  1
11
  7
CHINESET
100
AcDbText
  0
LINE
  5
3721
330
1E
100
AcDbEntity
  8
LOGO
 62
     4
100
AcDbLine
 10
229.6269872383931
 20
-236.5711816473972
 30
0.0
 11
198.9549498411908
 21
-236.5711816473972
 31
0.0
  0
LINE
  5
3722
330
1E
100
AcDbEntity
  8
LOGO
  6
Continuous
100
AcDbLine
 10
245.4405292792268
 20
-225.9185970801912
 30
0.0
 11
250.1610427332371
 21
-225.9185970801912
 31
0.0
  0
LINE
  5
3723
330
1E
100
AcDbEntity
  8
LOGO
 62
     4
100
AcDbLine
 10
263.9319355442508
 20
-236.5711816473972
 30
0.0
 11
263.9319355442508
 21
-249.6372894483029
 31
0.0
  0
LINE
  5
3724
330
1E
100
AcDbEntity
  8
LOGO
 62
     4
100
AcDbLine
 10
240.1753759062416
 20
-236.5711816473972
 30
0.0
 11
240.1753759062416
 21
-249.6372894483029
 31
0.0
  0
LINE
  5
3725
330
1E
100
AcDbEntity
  8
LOGO
 62
     4
100
AcDbLine
 10
263.9319355442508
 20
-249.6372894483029
 30
0.0
 11
240.1753759062416
 21
-249.6372894483029
 31
0.0
  0
LINE
  5
3726
330
1E
100
AcDbEntity
  8
LOGO
 62
     4
100
AcDbLine
 10
269.9173882422681
 20
-220.5355038917417
 30
0.0
 11
251.6501158948635
 21
-220.5355038917417
 31
0.0
  0
LINE
  5
3727
330
1E
100
AcDbEntity
  8
LOGO
 62
     4
100
AcDbLine
 10
269.9173882422681
 20
-231.2259557288457
 30
0.0
 11
251.6501158948635
 21
-231.2259557288457
 31
0.0
  0
LINE
  5
3728
330
1E
100
AcDbEntity
  8
LOGO
 62
     4
100
AcDbLine
 10
251.6501158948635
 20
-220.5355038917417
 30
0.0
 11
251.6501158948635
 21
-231.2259557288457
 31
0.0
  0
LINE
  5
3729
330
1E
100
AcDbEntity
  8
LOGO
 62
     4
100
AcDbLine
 10
269.9173882422681
 20
-220.5355038917417
 30
0.0
 11
269.9173882422681
 21
-231.2259557288457
 31
0.0
  0
LINE
  5
372A
330
1E
100
AcDbEntity
  8
LOGO
 62
     4
100
AcDbLine
 10
259.8637879213334
 20
-231.2259557288457
 30
0.0
 11
259.8637879213334
 21
-236.5711816473972
 31
0.0
  0
TEXT
  5
372B
330
1E
100
AcDbEntity
  8
LOGO
  6
Continuous
100
AcDbText
 10
255.7658013132443
 20
-228.9943395372892
 30
0.0
 40
6.236999999999999
  1
32
  7
CHINESET
100
AcDbText
  0
LINE
  5
372C
330
1E
100
AcDbEntity
  8
LOGO
 62
     4
100
AcDbLine
 10
263.9319355442508
 20
-236.5711816473972
 30
0.0
 11
240.1753759062416
 21
-236.5711816473972
 31
0.0
  0
LINE
  5
372D
330
1E
100
AcDbEntity
  8
LOGO
  6
Continuous
100
AcDbLine
 10
271.4380412568157
 20
-225.9185970801912
 30
0.0
 11
276.1585547108268
 21
-225.9185970801912
 31
0.0
  0
LINE
  5
372E
330
1E
100
AcDbEntity
  8
LOGO
 62
     4
100
AcDbLine
 10
288.2550634173707
 20
-236.5711816473972
 30
0.0
 11
288.2550634173707
 21
-249.6372894483029
 31
0.0
  0
LINE
  5
372F
330
1E
100
AcDbEntity
  8
LOGO
 62
     4
100
AcDbLine
 10
268.9015582949441
 20
-236.5711816473972
 30
0.0
 11
268.9015582949441
 21
-249.6372894483029
 31
0.0
  0
LINE
  5
3730
330
1E
100
AcDbEntity
  8
LOGO
 62
     4
100
AcDbLine
 10
288.2550634173707
 20
-249.6372894483029
 30
0.0
 11
268.9015582949441
 21
-249.6372894483029
 31
0.0
  0
LINE
  5
3731
330
1E
100
AcDbEntity
  8
LOGO
 62
     4
100
AcDbLine
 10
289.0219717554013
 20
-220.5355038917417
 30
0.0
 11
277.6476278724524
 21
-220.5355038917417
 31
0.0
  0
LINE
  5
3732
330
1E
100
AcDbEntity
  8
LOGO
 62
     4
100
AcDbLine
 10
289.0219717554013
 20
-231.2259557288457
 30
0.0
 11
277.6476278724524
 21
-231.2259557288457
 31
0.0
  0
LINE
  5
3733
330
1E
100
AcDbEntity
  8
LOGO
 62
     4
100
AcDbLine
 10
277.6476278724524
 20
-220.5355038917417
 30
0.0
 11
277.6476278724524
 21
-231.2259557288457
 31
0.0
  0
LINE
  5
3734
330
1E
100
AcDbEntity
  8
LOGO
 62
     4
100
AcDbLine
 10
289.0219717554013
 20
-220.5355038917417
 30
0.0
 11
289.0219717554013
 21
-231.2259557288457
 31
0.0
  0
LINE
  5
3735
330
1E
100
AcDbEntity
  8
LOGO
 62
     4
100
AcDbLine
 10
283.3347998139268
 20
-231.2259557288457
 30
0.0
 11
283.3347998139268
 21
-236.5711816473972
 31
0.0
  0
TEXT
  5
3736
330
1E
100
AcDbEntity
  8
LOGO
  6
Continuous
100
AcDbText
 10
281.4813246383632
 20
-228.9943395372892
 30
0.0
 40
6.236999999999999
  1
*
  7
CHINESET
100
AcDbText
  0
LINE
  5
3737
330
1E
100
AcDbEntity
  8
LOGO
 62
     4
100
AcDbLine
 10
288.2550634173707
 20
-236.5711816473972
 30
0.0
 11
268.9015582949441
 21
-236.5711816473972
 31
0.0
  0
TEXT
  5
3738
330
1E
100
AcDbEntity
  8
LOGO
  6
Continuous
100
AcDbText
 10
205.1530009479899
 20
-247.7930360395304
 30
233.5448673044087
 40
2.672999999999999
  1
Acting type
 41
0.8
  7
CHINESET
100
AcDbText
  0
TEXT
  5
3739
330
1E
100
AcDbEntity
  8
LOGO
100
AcDbText
 10
205.1278203622008
 20
-242.8378701121457
 30
233.5448673044087
 40
4.455
  1
作動型式
  7
CHINESET
100
AcDbText
  0
TEXT
  5
373A
330
1E
100
AcDbEntity
  8
LOGO
  6
Continuous
100
AcDbText
 10
245.1514041939902
 20
-247.7930360395304
 30
233.5448673044087
 40
2.672999999999999
  1
Tube I.D.
 41
0.8
  7
CHINESET
100
AcDbText
  0
TEXT
  5
373B
330
1E
100
AcDbEntity
  8
LOGO
100
AcDbText
 10
246.2291865928486
 20
-242.8378701121457
 30
233.5448673044087
 40
4.455
  1
內徑
  7
CHINESET
100
AcDbText
  0
TEXT
  5
373C
330
1E
100
AcDbEntity
  8
LOGO
  6
Continuous
100
AcDbText
 10
274.0021897282243
 20
-247.7930360395304
 30
233.5448673044087
 40
2.672999999999999
  1
Stroke
 41
0.8
  7
CHINESET
100
AcDbText
  0
TEXT
  5
373D
330
1E
100
AcDbEntity
  8
LOGO
100
AcDbText
 10
273.8168526951124
 20
-242.8378701121457
 30
233.5448673044087
 40
4.455
  1
行程
  7
CHINESET
100
AcDbText
  0
TEXT
  5
374A
330
1E
100
AcDbEntity
  8
LOGO
100
AcDbText
 10
115.2562491998581
 20
-250.7111000087861
 30
0.0
 40
3.563999999999999
  1
10701127
 41
0.7
  7
CHINESET
 72
     1
 11
123.6910491998581
 21
-250.7111000087861
 31
0.0
100
AcDbText
  0
LINE
  5
374B
330
1E
100
AcDbEntity
  8
LOGO
 62
     4
100
AcDbLine
 10
134.751562776271
 20
-245.4798915116505
 30
0.0
 11
134.7515627762726
 21
-252.6068594030536
 31
0.0
  0
LINE
  5
374C
330
1E
100
AcDbEntity
  8
LOGO
 62
     4
100
AcDbLine
 10
134.751562776271
 20
-245.4798915116505
 30
0.0
 11
113.3675627762726
 21
-245.4798915116505
 31
0.0
  0
LINE
  5
374D
330
1E
100
AcDbEntity
  8
LOGO
  6
AM_ISO08W050X2
 48
0.3
100
AcDbLine
 10
93.35703309747477
 20
-227.6548494649075
 30
0.0
 11
99.06144565703609
 21
-227.6548494649075
 31
0.0
1001
GENIUS_GENOREF_13
1005
3752
  0
LINE
  5
374E
330
1E
100
AcDbEntity
  8
LOGO
  6
AM_ISO08W050X2
 48
0.3
100
AcDbLine
 10
96.20923937725548
 20
-230.507055744688
 30
0.0
 11
96.20923937725548
 21
-224.8026431851268
 31
0.0
1001
GENIUS_GENOREF_13
1005
3751
  0
LINE
  5
374F
330
1E
100
AcDbEntity
  8
LOGO
  6
CENTER
 48
0.5
100
AcDbLine
 10
102.2062874350566
 20
-227.6548494649075
 30
0.0
 11
109.8644959242261
 21
-227.6548494649075
 31
0.0
1001
GENIUS_GENOREF_13
1005
3750
  0
POINT
  5
3750
330
1E
100
AcDbEntity
  8
0
 60
     1
100
AcDbPoint
 10
-1749.678269652932
 20
-1204.551850519228
 30
0.0
1001
GENIUS_GENOBJ-N-CRS_13
1002
{
1000
OWNER
1000
GEN
1002
}
1001
GENIUS_GENOLIS_13
1002
{
1000
ENT
1005
0
1005
0
1005
0
1005
374F
1002
}
1001
GENIUS_GENOENT_13
1002
{
1000
MYREF
1005
3750
1002
}
1002
{
1000
GRP
1005
0
1002
}
1001
GENIUS_GENODEF_13
1002
{
1000
HIER
1070
    10
1002
}
1002
{
1000
MANEDIT
1070
     1
1002
}
1002
{
1000
NOSEL
1070
     0
1002
}
1002
{
1000
BEHIND
1070
     0
1002
}
1002
{
1000
OTHER
1070
     0
1002
}
1002
{
1000
REACTOR
1002
}
  0
POINT
  5
3751
330
1E
100
AcDbEntity
  8
0
 60
     1
100
AcDbPoint
 10
-1761.002854875787
 20
-1195.676264040592
 30
0.0
1001
GENIUS_GENOBJ-N-CRS_13
1002
{
1000
OWNER
1000
GEN
1002
}
1001
GENIUS_GENOLIS_13
1002
{
1000
ENT
1005
0
1005
0
1005
0
1005
374E
1002
}
1001
GENIUS_GENOENT_13
1002
{
1000
MYREF
1005
3751
1002
}
1002
{
1000
GRP
1005
0
1002
}
1001
GENIUS_GENODEF_13
1002
{
1000
HIER
1070
    10
1002
}
1002
{
1000
MANEDIT
1070
     1
1002
}
1002
{
1000
NOSEL
1070
     0
1002
}
1002
{
1000
BEHIND
1070
     0
1002
}
1002
{
1000
OTHER
1070
     0
1002
}
1002
{
1000
REACTOR
1002
}
  0
POINT
  5
3752
330
1E
100
AcDbEntity
  8
0
 60
     1
100
AcDbPoint
 10
-1754.64418117795
 20
-1204.551850519228
 30
0.0
1001
GENIUS_GENOBJ-N-CRS_13
1002
{
1000
OWNER
1000
GEN
1002
}
1001
GENIUS_GENOLIS_13
1002
{
1000
ENT
1005
0
1005
0
1005
0
1005
374D
1002
}
1001
GENIUS_GENOENT_13
1002
{
1000
MYREF
1005
3752
1002
}
1002
{
1000
GRP
1005
0
1002
}
1001
GENIUS_GENODEF_13
1002
{
1000
HIER
1070
    10
1002
}
1002
{
1000
MANEDIT
1070
     1
1002
}
1002
{
1000
NOSEL
1070
     0
1002
}
1002
{
1000
BEHIND
1070
     0
1002
}
1002
{
1000
OTHER
1070
     0
1002
}
1002
{
1000
REACTOR
1002
}
  0
TEXT
  5
3808
330
1E
100
AcDbEntity
  8
0
100
AcDbText
 10
50.28834251303862
 20
218.2377762445854
 30
0.0
 40
7.128
  1
MCMBRA
  7
DAYUS
100
AcDbText
  0
TEXT
  5
380A
330
1E
100
AcDbEntity
  8
0
100
AcDbText
 10
50.28834251303862
 20
-11.31053309855058
 30
0.0
 40
7.128
  1
MCMBRB
  7
DAYUS
100
AcDbText
  0
LINE
  5
3B49
330
1E
100
AcDbEntity
  8
LOGO
 62
     4
100
AcDbLine
 10
34.97091597084259
 20
10.23556032545272
 30
0.0
 11
391.3709159708426
 21
10.23556032545272
 31
0.0
  0
LINE
  5
3B6C
330
1E
100
AcDbEntity
  8
LOGO
 62
     4
100
AcDbLine
 10
232.5305783312479
 20
-233.8985686881215
 30
0.0
 11
214.2909685397921
 21
-233.8985686881215
 31
0.0
  0
LINE
  5
3B6D
330
1E
100
AcDbEntity
  8
LOGO
 62
     4
100
AcDbLine
 10
214.2909685397921
 20
-236.5711816473972
 30
0.0
 11
214.2909685397921
 21
-233.8985686881215
 31
0.0
  0
LINE
  5
4FFF
330
1E
100
AcDbEntity
  8
AM_VIS
100
AcDbLine
 10
295.3423832733489
 20
68.22925056265569
 30
0.0
 11
340.3423832733489
 21
68.22925056265569
 31
0.0
  0
LINE
  5
5000
330
1E
100
AcDbEntity
  8
AM_VIS
100
AcDbLine
 10
295.3423832733489
 20
68.22925056265569
 30
0.0
 11
294.3423832733489
 21
69.22925056265569
 31
0.0
  0
LINE
  5
5001
330
1E
100
AcDbEntity
  8
AM_VIS
100
AcDbLine
 10
294.3423832733489
 20
109.2292505626557
 30
0.0
 11
294.3423832733489
 21
69.22925056265569
 31
0.0
  0
LINE
  5
5002
330
1E
100
AcDbEntity
  8
AM_VIS
100
AcDbLine
 10
294.3423832733489
 20
109.2292505626557
 30
0.0
 11
295.3423832733489
 21
110.2292505626557
 31
0.0
  0
LINE
  5
5003
330
1E
100
AcDbEntity
  8
AM_VIS
100
AcDbLine
 10
340.3423832733489
 20
110.2292505626557
 30
0.0
 11
295.3423832733489
 21
110.2292505626557
 31
0.0
  0
LINE
  5
5004
330
1E
100
AcDbEntity
  8
AM_VIS
100
AcDbLine
 10
340.3423832733489
 20
110.2292505626557
 30
0.0
 11
341.3423832733489
 21
109.2292505626557
 31
0.0
  0
LINE
  5
5005
330
1E
100
AcDbEntity
  8
AM_VIS
100
AcDbLine
 10
341.3423832733489
 20
69.22925056265569
 30
0.0
 11
341.3423832733489
 21
109.2292505626557
 31
0.0
  0
LINE
  5
5006
330
1E
100
AcDbEntity
  8
AM_VIS
100
AcDbLine
 10
341.3423832733489
 20
69.22925056265569
 30
0.0
 11
340.3423832733489
 21
68.22925056265569
 31
0.0
  0
CIRCLE
  5
5007
330
1E
100
AcDbEntity
  8
AM_VIS
100
AcDbCircle
 10
317.8423832733489
 20
89.22925056265569
 30
0.0
 40
16.75
  0
ARC
  5
5008
330
1E
100
AcDbEntity
  8
AM_VIS
100
AcDbCircle
 10
317.8423832733489
 20
89.22925056265569
 30
0.0
 40
18.75
100
AcDbArc
 50
203.0739180656303
 51
246.9260819343686
  0
ARC
  5
5009
330
1E
100
AcDbEntity
  8
AM_VIS
100
AcDbCircle
 10
317.8423832733489
 20
89.22925056265569
 30
0.0
 40
18.75
100
AcDbArc
 50
113.0739180656314
 51
156.9260819343689
  0
ARC
  5
500A
330
1E
100
AcDbEntity
  8
AM_VIS
100
AcDbCircle
 10
317.8423832733489
 20
89.22925056265569
 30
0.0
 40
18.75
100
AcDbArc
 50
23.07391806563095
 51
66.9260819343686
  0
ARC
  5
500B
330
1E
100
AcDbEntity
  8
AM_VIS
100
AcDbCircle
 10
317.8423832733489
 20
89.22925056265569
 30
0.0
 40
18.75
100
AcDbArc
 50
293.0739180656313
 51
336.926081934369
  0
LINE
  5
500C
330
1E
100
AcDbEntity
  8
AM_VIS
100
AcDbLine
 10
300.5923832733489
 20
96.57771979100523
 30
0.0
 11
300.5923832733489
 21
81.88078133430611
 31
0.0
  0
LINE
  5
500D
330
1E
100
AcDbEntity
  8
AM_VIS
100
AcDbLine
 10
335.0923832733489
 20
96.57771979100539
 30
0.0
 11
335.0923832733489
 21
81.88078133430627
 31
0.0
  0
LINE
  5
500E
330
1E
100
AcDbEntity
  8
AM_VIS
100
AcDbLine
 10
310.4939140449994
 20
71.97925056265569
 30
0.0
 11
325.1908525016985
 21
71.97925056265569
 31
0.0
  0
LINE
  5
500F
330
1E
100
AcDbEntity
  8
AM_VIS
100
AcDbLine
 10
310.4939140449992
 20
106.4792505626557
 30
0.0
 11
325.1908525016983
 21
106.4792505626557
 31
0.0
  0
CIRCLE
  5
5010
330
1E
100
AcDbEntity
  8
AM_VIS
100
AcDbCircle
 10
90.92827826423206
 20
89.22925056265569
 30
0.0
 40
4.0
  0
CIRCLE
  5
5011
330
1E
100
AcDbEntity
  8
AM_VIS
100
AcDbCircle
 10
90.92827826423206
 20
89.22925056265569
 30
0.0
 40
5.0
  0
LINE
  5
5012
330
1E
100
AcDbEntity
  8
AM_VIS
100
AcDbLine
 10
82.92620353326384
 20
93.8492505626557
 30
0.0
 11
90.92827826423212
 21
98.4692505626557
 31
0.0
  0
LINE
  5
5013
330
1E
100
AcDbEntity
  8
AM_VIS
100
AcDbLine
 10
90.92827826423206
 20
98.4692505626557
 30
0.0
 11
98.93035299520029
 21
93.84925056265576
 31
0.0
  0
LINE
  5
5014
330
1E
100
AcDbEntity
  8
AM_VIS
100
AcDbLine
 10
98.93035299520022
 20
93.84925056265581
 30
0.0
 11
98.93035299520022
 21
84.60925056265551
 31
0.0
  0
LINE
  5
5015
330
1E
100
AcDbEntity
  8
AM_VIS
100
AcDbLine
 10
90.92827826423201
 20
79.98925056265568
 30
0.0
 11
98.93035299520029
 21
84.60925056265564
 31
0.0
  0
LINE
  5
5016
330
1E
100
AcDbEntity
  8
AM_VIS
100
AcDbLine
 10
82.92620353326384
 20
84.60925056265564
 30
0.0
 11
90.92827826423212
 21
79.98925056265568
 31
0.0
  0
LINE
  5
5017
330
1E
100
AcDbEntity
  8
AM_VIS
100
AcDbLine
 10
82.92620353326389
 20
93.84925056265581
 30
0.0
 11
82.92620353326389
 21
84.60925056265551
 31
0.0
  0
CIRCLE
  5
5018
330
1E
100
AcDbEntity
  8
AM_VIS
100
AcDbCircle
 10
90.92827826423206
 20
89.22925056265569
 30
0.0
 40
8.0
  0
LINE
  5
5019
330
1E
100
AcDbEntity
  8
AM_VIS
100
AcDbLine
 10
68.42827826423206
 20
68.22925056265569
 30
0.0
 11
67.42827826423206
 21
69.22925056265569
 31
0.0
  0
LINE
  5
501A
330
1E
100
AcDbEntity
  8
AM_VIS
100
AcDbLine
 10
67.42827826423206
 20
69.22925056265569
 30
0.0
 11
67.42827826423206
 21
109.2292505626557
 31
0.0
  0
LINE
  5
501B
330
1E
100
AcDbEntity
  8
AM_VIS
100
AcDbLine
 10
67.42827826423206
 20
109.2292505626557
 30
0.0
 11
68.42827826423206
 21
110.2292505626557
 31
0.0
  0
LINE
  5
501C
330
1E
100
AcDbEntity
  8
AM_VIS
100
AcDbLine
 10
114.428278264232
 20
69.22925056265569
 30
0.0
 11
113.428278264232
 21
68.22925056265569
 31
0.0
  0
LINE
  5
501D
330
1E
100
AcDbEntity
  8
AM_VIS
100
AcDbLine
 10
114.428278264232
 20
109.2292505626557
 30
0.0
 11
114.428278264232
 21
69.22925056265569
 31
0.0
  0
LINE
  5
501E
330
1E
100
AcDbEntity
  8
AM_VIS
100
AcDbLine
 10
113.428278264232
 20
110.2292505626557
 30
0.0
 11
114.428278264232
 21
109.2292505626557
 31
0.0
  0
LINE
  5
501F
330
1E
100
AcDbEntity
  8
AM_VIS
100
AcDbLine
 10
68.42827826423206
 20
110.2292505626557
 30
0.0
 11
113.428278264232
 21
110.2292505626557
 31
0.0
  0
LINE
  5
5020
330
1E
100
AcDbEntity
  8
AM_VIS
100
AcDbLine
 10
113.428278264232
 20
68.22925056265569
 30
0.0
 11
68.42827826423206
 21
68.22925056265569
 31
0.0
  0
CIRCLE
  5
5021
330
1E
100
AcDbEntity
  8
AM_VIS
100
AcDbCircle
 10
90.92827826423206
 20
89.22925056265569
 30
0.0
 40
12.5
  0
CIRCLE
  5
5022
330
1E
100
AcDbEntity
  8
AM_VIS
100
AcDbCircle
 10
90.92827826423206
 20
89.22925056265569
 30
0.0
 40
13.0
  0
LINE
  5
5023
330
1E
100
AcDbEntity
  8
AM_VIS
100
AcDbLine
 10
158.3425619996936
 20
175.750836257123
 30
0.0
 11
158.3425619996936
 21
165.750836257123
 31
0.0
  0
LINE
  5
5024
330
1E
100
AcDbEntity
  8
AM_VIS
100
AcDbLine
 10
157.3425619996936
 20
166.7508362571231
 30
0.0
 11
157.3425619996936
 21
174.750836257123
 31
0.0
  0
LINE
  5
5025
330
1E
100
AcDbEntity
  8
AM_VIS
100
AcDbLine
 10
163.3425619996936
 20
175.750836257123
 30
0.0
 11
158.3425619996936
 21
175.750836257123
 31
0.0
  0
LINE
  5
5026
330
1E
100
AcDbEntity
  8
AM_VIS
100
AcDbLine
 10
179.3425619996936
 20
175.750836257123
 30
0.0
 11
173.3425619996935
 21
175.750836257123
 31
0.0
  0
LINE
  5
5027
330
1E
100
AcDbEntity
  8
AM_VIS
100
AcDbLine
 10
163.3425619996936
 20
165.750836257123
 30
0.0
 11
158.3425619996936
 21
165.750836257123
 31
0.0
  0
LINE
  5
5028
330
1E
100
AcDbEntity
  8
AM_VIS
100
AcDbLine
 10
179.3425619996936
 20
165.750836257123
 30
0.0
 11
173.3425619996935
 21
165.750836257123
 31
0.0
  0
LINE
  5
5029
330
1E
100
AcDbEntity
  8
AM_VIS
100
AcDbLine
 10
157.3425619996936
 20
166.7508362571231
 30
0.0
 11
158.3425619996936
 21
165.750836257123
 31
0.0
  0
LINE
  5
502A
330
1E
100
AcDbEntity
  8
AM_VIS
100
AcDbLine
 10
157.3425619996936
 20
174.750836257123
 30
0.0
 11
158.3425619996936
 21
175.750836257123
 31
0.0
  0
LINE
  5
502D
330
1E
100
AcDbEntity
  8
AM_VIS
100
AcDbLine
 10
249.8425619996937
 20
187.450836257123
 30
0.0
 11
249.7425619996936
 21
187.550836257123
 31
0.0
  0
LINE
  5
502E
330
1E
100
AcDbEntity
  8
AM_VIS
100
AcDbLine
 10
249.8425619996937
 20
154.0508362571231
 30
0.0
 11
249.7425619996936
 21
153.950836257123
 31
0.0
  0
LINE
  5
502F
330
1E
100
AcDbEntity
  8
AM_VIS
100
AcDbLine
 10
249.7425619996936
 20
187.5508362571231
 30
0.0
 11
218.9425619996937
 21
187.5508362571231
 31
0.0
  0
LINE
  5
5030
330
1E
100
AcDbEntity
  8
AM_VIS
100
AcDbLine
 10
249.7425619996936
 20
153.950836257123
 30
0.0
 11
218.9425619996937
 21
153.950836257123
 31
0.0
  0
LINE
  5
5031
330
1E
100
AcDbEntity
  8
AM_VIS
100
AcDbLine
 10
218.8425619996936
 20
154.050836257123
 30
0.0
 11
218.9425619996937
 21
153.950836257123
 31
0.0
  0
LINE
  5
5032
330
1E
100
AcDbEntity
  8
AM_VIS
100
AcDbLine
 10
218.8425619996936
 20
187.450836257123
 30
0.0
 11
218.9425619996937
 21
187.550836257123
 31
0.0
  0
LINE
  5
5033
330
1E
100
AcDbEntity
  8
AM_VIS
100
AcDbLine
 10
168.3425619996936
 20
162.7508362571229
 30
0.0
 11
168.3425619996936
 21
178.750836257123
 31
0.0
  0
LINE
  5
5034
330
1E
100
AcDbEntity
  8
AM_VIS
100
AcDbLine
 10
163.3425619996936
 20
162.750836257123
 30
0.0
 11
163.3425619996936
 21
178.750836257123
 31
0.0
  0
LINE
  5
5035
330
1E
100
AcDbEntity
  8
AM_VIS
100
AcDbLine
 10
168.3425619996935
 20
178.750836257123
 30
0.0
 11
168.3413641532106
 21
178.7529109880912
 31
0.0
  0
LINE
  5
5036
330
1E
100
AcDbEntity
  8
AM_VIS
100
AcDbLine
 10
168.3425619996935
 20
162.7508362571229
 30
0.0
 11
168.3413641532106
 21
162.7487615261549
 31
0.0
  0
LINE
  5
5037
330
1E
100
AcDbEntity
  8
AM_VIS
100
AcDbLine
 10
163.3425619996935
 20
162.750836257123
 30
0.0
 11
163.3437598461765
 21
162.7487615261549
 31
0.0
  0
LINE
  5
5038
330
1E
100
AcDbEntity
  8
AM_VIS
100
AcDbLine
 10
163.3425619996935
 20
178.750836257123
 30
0.0
 11
163.3437598461765
 21
178.7529109880912
 31
0.0
  0
LINE
  5
5039
330
1E
100
AcDbEntity
  8
AM_VIS
100
AcDbLine
 10
163.3437598461765
 20
178.7529109880912
 30
0.0
 11
164.0584763334888
 21
178.7529109880912
 31
0.0
  0
LINE
  5
503A
330
1E
100
AcDbEntity
  8
AM_VIS
100
AcDbLine
 10
167.6266476658985
 20
178.7529109880912
 30
0.0
 11
168.3413641532106
 21
178.7529109880912
 31
0.0
  0
LINE
  5
503B
330
1E
100
AcDbEntity
  8
AM_VIS
100
AcDbLine
 10
163.3437598461767
 20
162.7487615261549
 30
0.0
 11
164.0584763334888
 21
162.7487615261549
 31
0.0
  0
LINE
  5
503C
330
1E
100
AcDbEntity
  8
AM_VIS
100
AcDbLine
 10
167.6266476658986
 20
162.7487615261549
 30
0.0
 11
168.3413641532106
 21
162.7487615261549
 31
0.0
  0
LINE
  5
503D
330
1E
100
AcDbEntity
  8
AM_VIS
100
AcDbLine
 10
164.0584763334888
 20
162.7487615261549
 30
0.0
 11
167.6266476658985
 21
162.7487615261549
 31
0.0
  0
SPLINE
  5
503E
330
1E
100
AcDbEntity
  8
AM_VIS
100
AcDbSpline
210
0.0
220
0.0
230
1.0
 70
    12
 71
     2
 72
     6
 73
     3
 74
     0
 42
0.0000000001
 43
0.0000000001
 40
0.0
 40
0.0
 40
0.0
 40
9.349913295263366
 40
9.349913295263366
 40
9.349913295263366
 10
164.0584763334888
 20
162.7487615261548
 30
0.0
 41
1.0
 10
162.7247972116606
 20
166.749798891639
 30
0.0
 41
1.154700538379229
 10
164.0584763334888
 20
170.750836257123
 30
0.0
 41
1.0
  0
SPLINE
  5
503F
330
1E
100
AcDbEntity
  8
AM_VIS
100
AcDbSpline
210
0.0
220
0.0
230
1.0
 70
    12
 71
     2
 72
     6
 73
     3
 74
     0
 42
0.0000000001
 43
0.0000000001
 40
0.0
 40
0.0
 40
0.0
 40
9.349913295263345
 40
9.349913295263345
 40
9.349913295263345
 10
167.6266476658985
 20
170.750836257123
 30
0.0
 41
1.0
 10
168.9603267877264
 20
166.7497988916389
 30
-0.0000000000000142
 41
1.154700538379244
 10
167.6266476658985
 20
162.7487615261548
 30
0.0
 41
1.0
  0
LINE
  5
5040
330
1E
100
AcDbEntity
  8
AM_VIS
100
AcDbLine
 10
167.6266476658985
 20
170.7508362571229
 30
0.0
 11
164.0584763334886
 21
170.7508362571229
 31
0.0
  0
SPLINE
  5
5041
330
1E
100
AcDbEntity
  8
AM_VIS
100
AcDbSpline
210
0.0
220
0.0
230
1.0
 70
    12
 71
     2
 72
     6
 73
     3
 74
     0
 42
0.0000000001
 43
0.0000000001
 40
0.0
 40
0.0
 40
0.0
 40
9.349913295263439
 40
9.349913295263439
 40
9.349913295263439
 10
164.0584763334888
 20
170.7508362571229
 30
0.0
 41
1.0
 10
162.7247972116606
 20
174.7518736226072
 30
0.0
 41
1.154700538379229
 10
164.0584763334888
 20
178.7529109880912
 30
0.0
 41
1.0
  0
LINE
  5
5042
330
1E
100
AcDbEntity
  8
AM_VIS
100
AcDbLine
 10
167.6266476658985
 20
178.7529109880912
 30
0.0
 11
164.0584763334886
 21
178.7529109880912
 31
0.0
  0
SPLINE
  5
5043
330
1E
100
AcDbEntity
  8
AM_VIS
100
AcDbSpline
210
0.0
220
0.0
230
1.0
 70
    12
 71
     2
 72
     6
 73
     3
 74
     0
 42
0.0000000001
 43
0.0000000001
 40
0.0
 40
0.0
 40
0.0
 40
9.349913295263421
 40
9.349913295263421
 40
9.349913295263421
 10
167.6266476658985
 20
178.7529109880912
 30
0.0
 41
1.0
 10
168.9603267877264
 20
174.7518736226071
 30
0.0
 41
1.154700538379191
 10
167.6266476658985
 20
170.7508362571229
 30
0.0
 41
1.0
  0
LINE
  5
5044
330
1E
100
AcDbEntity
  8
AM_VIS
100
AcDbLine
 10
173.3425619996935
 20
162.7508362571229
 30
0.0
 11
173.3425619996935
 21
178.750836257123
 31
0.0
  0
LINE
  5
5045
330
1E
100
AcDbEntity
  8
AM_VIS
100
AcDbLine
 10
168.3425619996935
 20
162.750836257123
 30
0.0
 11
168.3425619996935
 21
178.750836257123
 31
0.0
  0
LINE
  5
5046
330
1E
100
AcDbEntity
  8
AM_VIS
100
AcDbLine
 10
173.3425619996935
 20
178.750836257123
 30
0.0
 11
173.3413641532106
 21
178.7529109880912
 31
0.0
  0
LINE
  5
5047
330
1E
100
AcDbEntity
  8
AM_VIS
100
AcDbLine
 10
173.3425619996935
 20
162.7508362571229
 30
0.0
 11
173.3413641532106
 21
162.7487615261549
 31
0.0
  0
LINE
  5
5048
330
1E
100
AcDbEntity
  8
AM_VIS
100
AcDbLine
 10
168.3425619996935
 20
162.750836257123
 30
0.0
 11
168.3437598461765
 21
162.7487615261549
 31
0.0
  0
LINE
  5
5049
330
1E
100
AcDbEntity
  8
AM_VIS
100
AcDbLine
 10
168.3425619996935
 20
178.750836257123
 30
0.0
 11
168.3437598461765
 21
178.7529109880912
 31
0.0
  0
LINE
  5
504A
330
1E
100
AcDbEntity
  8
AM_VIS
100
AcDbLine
 10
168.3437598461765
 20
178.7529109880912
 30
0.0
 11
169.0584763334886
 21
178.7529109880912
 31
0.0
  0
LINE
  5
504B
330
1E
100
AcDbEntity
  8
AM_VIS
100
AcDbLine
 10
172.6266476658985
 20
178.7529109880912
 30
0.0
 11
173.3413641532106
 21
178.7529109880912
 31
0.0
  0
LINE
  5
504C
330
1E
100
AcDbEntity
  8
AM_VIS
100
AcDbLine
 10
168.3437598461765
 20
162.7487615261549
 30
0.0
 11
169.0584763334888
 21
162.7487615261549
 31
0.0
  0
LINE
  5
504D
330
1E
100
AcDbEntity
  8
AM_VIS
100
AcDbLine
 10
172.6266476658985
 20
162.7487615261549
 30
0.0
 11
173.3413641532106
 21
162.7487615261549
 31
0.0
  0
LINE
  5
504E
330
1E
100
AcDbEntity
  8
AM_VIS
100
AcDbLine
 10
169.0584763334886
 20
162.7487615261549
 30
0.0
 11
172.6266476658985
 21
162.7487615261549
 31
0.0
  0
SPLINE
  5
504F
330
1E
100
AcDbEntity
  8
AM_VIS
100
AcDbSpline
210
0.0
220
0.0
230
1.0
 70
    12
 71
     2
 72
     6
 73
     3
 74
     0
 42
0.0000000001
 43
0.0000000001
 40
0.0
 40
0.0
 40
0.0
 40
9.349913295263366
 40
9.349913295263366
 40
9.349913295263366
 10
169.0584763334888
 20
162.7487615261548
 30
0.0
 41
1.0
 10
167.7247972116606
 20
166.749798891639
 30
0.0
 41
1.154700538379229
 10
169.0584763334886
 20
170.750836257123
 30
0.0
 41
1.0
  0
SPLINE
  5
5050
330
1E
100
AcDbEntity
  8
AM_VIS
100
AcDbSpline
210
0.0
220
0.0
230
1.0
 70
    12
 71
     2
 72
     6
 73
     3
 74
     0
 42
0.0000000001
 43
0.0000000001
 40
0.0
 40
0.0
 40
0.0
 40
9.349913295263345
 40
9.349913295263345
 40
9.349913295263345
 10
172.6266476658985
 20
170.750836257123
 30
0.0
 41
1.0
 10
173.9603267877264
 20
166.7497988916389
 30
-0.0000000000000142
 41
1.154700538379244
 10
172.6266476658985
 20
162.7487615261548
 30
0.0
 41
1.0
  0
LINE
  5
5051
330
1E
100
AcDbEntity
  8
AM_VIS
100
AcDbLine
 10
172.6266476658985
 20
170.7508362571229
 30
0.0
 11
169.0584763334886
 21
170.7508362571229
 31
0.0
  0
SPLINE
  5
5052
330
1E
100
AcDbEntity
  8
AM_VIS
100
AcDbSpline
210
0.0
220
0.0
230
1.0
 70
    12
 71
     2
 72
     6
 73
     3
 74
     0
 42
0.0000000001
 43
0.0000000001
 40
0.0
 40
0.0
 40
0.0
 40
9.349913295263439
 40
9.349913295263439
 40
9.349913295263439
 10
169.0584763334886
 20
170.7508362571229
 30
0.0
 41
1.0
 10
167.7247972116606
 20
174.7518736226072
 30
0.0
 41
1.154700538379229
 10
169.0584763334886
 20
178.7529109880912
 30
0.0
 41
1.0
  0
LINE
  5
5053
330
1E
100
AcDbEntity
  8
AM_VIS
100
AcDbLine
 10
172.6266476658985
 20
178.7529109880912
 30
0.0
 11
169.0584763334886
 21
178.7529109880912
 31
0.0
  0
SPLINE
  5
5054
330
1E
100
AcDbEntity
  8
AM_VIS
100
AcDbSpline
210
0.0
220
0.0
230
1.0
 70
    12
 71
     2
 72
     6
 73
     3
 74
     0
 42
0.0000000001
 43
0.0000000001
 40
0.0
 40
0.0
 40
0.0
 40
9.349913295263421
 40
9.349913295263421
 40
9.349913295263421
 10
172.6266476658985
 20
178.7529109880913
 30
0.0
 41
1.0
 10
173.9603267877264
 20
174.7518736226071
 30
0.0
 41
1.154700538379191
 10
172.6266476658985
 20
170.7508362571229
 30
0.0
 41
1.0
  0
LINE
  5
5055
330
1E
100
AcDbEntity
  8
AM_VIS
100
AcDbLine
 10
218.8425619996936
 20
153.5008362571231
 30
0.0
 11
218.8425619996936
 21
188.000836257123
 31
0.0
  0
LINE
  5
5057
330
1E
100
AcDbEntity
  8
AM_VIS
100
AcDbLine
 10
185.3425619996936
 20
158.250836257123
 30
0.0
 11
185.3425619996936
 21
183.250836257123
 31
0.0
  0
CIRCLE
  5
5058
330
1E
100
AcDbEntity
  8
AM_VIS
100
AcDbCircle
 10
200.3425619996936
 20
155.750836257123
 30
0.0
 40
4.5
  0
CIRCLE
  5
5059
330
1E
100
AcDbEntity
  8
AM_VIS
100
AcDbCircle
 10
200.3425619996936
 20
185.750836257123
 30
0.0
 40
4.5
  0
CIRCLE
  5
505A
330
1E
100
AcDbEntity
  8
AM_VIS
100
AcDbCircle
 10
210.3425619996937
 20
170.750836257123
 30
0.0
 40
4.283
  0
CIRCLE
  5
505B
330
1E
100
AcDbEntity
  8
AM_VIS
100
AcDbCircle
 10
210.3425619996937
 20
170.750836257123
 30
0.0
 40
5.0
  0
CIRCLE
  5
505C
330
1E
100
AcDbEntity
  8
AM_VIS
100
AcDbCircle
 10
200.3425619996936
 20
185.750836257123
 30
0.0
 40
7.0
  0
CIRCLE
  5
505D
330
1E
100
AcDbEntity
  8
AM_VIS
100
AcDbCircle
 10
200.3425619996936
 20
155.750836257123
 30
0.0
 40
7.0
  0
LINE
  5
505F
330
1E
100
AcDbEntity
  8
AM_VIS
100
AcDbLine
 10
218.8425619996936
 20
188.000836257123
 30
0.0
 11
217.3425619996937
 21
188.000836257123
 31
0.0
  0
LINE
  5
5060
330
1E
100
AcDbEntity
  8
AM_VIS
100
AcDbLine
 10
218.8425619996936
 20
153.5008362571231
 30
0.0
 11
217.3425619996937
 21
153.5008362571231
 31
0.0
  0
LINE
  5
5061
330
1E
100
AcDbEntity
  8
AM_VIS
100
AcDbLine
 10
188.3425619996936
 20
183.7508362571231
 30
0.0
 11
185.8425619996936
 21
183.7508362571231
 31
0.0
  0
LINE
  5
5062
330
1E
100
AcDbEntity
  8
AM_VIS
100
AcDbLine
 10
188.3425619996936
 20
157.750836257123
 30
0.0
 11
185.8425619996936
 21
157.750836257123
 31
0.0
  0
LINE
  5
5063
330
1E
100
AcDbEntity
  8
AM_VIS
100
AcDbLine
 10
185.3425619996936
 20
158.250836257123
 30
0.0
 11
185.8425619996936
 21
157.750836257123
 31
0.0
  0
LINE
  5
5064
330
1E
100
AcDbEntity
  8
AM_VIS
100
AcDbLine
 10
185.3425619996936
 20
183.250836257123
 30
0.0
 11
185.8425619996936
 21
183.7508362571231
 31
0.0
  0
LINE
  5
5065
330
1E
100
AcDbEntity
  8
AM_VIS
100
AcDbLine
 10
188.3425619996936
 20
193.250836257123
 30
0.0
 11
188.3425619996936
 21
148.250836257123
 31
0.0
  0
LINE
  5
5066
330
1E
100
AcDbEntity
  8
AM_VIS
100
AcDbLine
 10
217.3425619996937
 20
148.250836257123
 30
0.0
 11
188.3425619996936
 21
148.250836257123
 31
0.0
  0
LINE
  5
5067
330
1E
100
AcDbEntity
  8
AM_VIS
100
AcDbLine
 10
188.3425619996936
 20
148.250836257123
 30
0.0
 11
188.3425619996936
 21
147.2508362571231
 31
0.0
  0
LINE
  5
5068
330
1E
100
AcDbEntity
  8
AM_VIS
100
AcDbLine
 10
188.3425619996936
 20
147.2508362571231
 30
0.0
 11
217.3425619996937
 21
147.2508362571231
 31
0.0
  0
LINE
  5
5069
330
1E
100
AcDbEntity
  8
AM_VIS
100
AcDbLine
 10
188.3425619996936
 20
193.250836257123
 30
0.0
 11
217.3425619996937
 21
193.250836257123
 31
0.0
  0
LINE
  5
506A
330
1E
100
AcDbEntity
  8
AM_VIS
100
AcDbLine
 10
188.3425619996936
 20
194.250836257123
 30
0.0
 11
188.3425619996936
 21
193.250836257123
 31
0.0
  0
LINE
  5
506B
330
1E
100
AcDbEntity
  8
AM_VIS
100
AcDbLine
 10
217.3425619996937
 20
194.250836257123
 30
0.0
 11
188.3425619996936
 21
194.250836257123
 31
0.0
  0
LINE
  5
506C
330
1E
100
AcDbEntity
  8
AM_VIS
100
AcDbLine
 10
217.3425619996937
 20
147.2508362571231
 30
0.0
 11
217.3425619996937
 21
148.250836257123
 31
0.0
  0
LINE
  5
506D
330
1E
100
AcDbEntity
  8
AM_VIS
100
AcDbLine
 10
217.3425619996937
 20
193.250836257123
 30
0.0
 11
217.3425619996937
 21
148.250836257123
 31
0.0
  0
LINE
  5
506E
330
1E
100
AcDbEntity
  8
AM_VIS
100
AcDbLine
 10
217.3425619996937
 20
193.250836257123
 30
0.0
 11
217.3425619996937
 21
194.250836257123
 31
0.0
  0
LINE
  5
506F
330
1E
100
AcDbEntity
  8
AM_VIS
100
AcDbLine
 10
266.3425619996937
 20
170.750836257123
 30
0.0
 11
266.3425619996937
 21
187.5008362571231
 31
0.0
  0
LINE
  5
5070
330
1E
100
AcDbEntity
  8
AM_VIS
100
AcDbLine
 10
266.3425619996937
 20
154.000836257123
 30
0.0
 11
266.3425619996937
 21
170.750836257123
 31
0.0
  0
LINE
  5
5071
330
1E
100
AcDbEntity
  8
AM_VIS
100
AcDbLine
 10
265.1878614613143
 20
163.4023670287733
 30
0.0
 11
265.1878614613143
 21
153.5008362571231
 31
0.0
  0
LINE
  5
5072
330
1E
100
AcDbEntity
  8
AM_VIS
100
AcDbLine
 10
265.1878614613143
 20
188.0008362571229
 30
0.0
 11
265.1878614613143
 21
178.0993054854724
 31
0.0
  0
LINE
  5
5073
330
1E
100
AcDbEntity
  8
AM_VIS
100
AcDbLine
 10
249.8425619996937
 20
153.5008362571231
 30
0.0
 11
249.8425619996937
 21
188.000836257123
 31
0.0
  0
LINE
  5
5074
330
1E
100
AcDbEntity
  8
AM_VIS
100
AcDbLine
 10
251.3425619996937
 20
170.750836257123
 30
0.0
 11
251.3425619996937
 21
188.000836257123
 31
0.0
  0
LINE
  5
5075
330
1E
100
AcDbEntity
  8
AM_VIS
100
AcDbLine
 10
252.2085874034781
 20
178.0993054854724
 30
0.0
 11
252.2085874034781
 21
188.0008362571229
 31
0.0
  0
LINE
  5
5076
330
1E
100
AcDbEntity
  8
AM_VIS
100
AcDbLine
 10
251.3425619996937
 20
153.5008362571231
 30
0.0
 11
251.3425619996937
 21
170.750836257123
 31
0.0
  0
LINE
  5
5077
330
1E
100
AcDbEntity
  8
AM_VIS
100
AcDbLine
 10
252.2085874034781
 20
153.5008362571231
 30
0.0
 11
252.2085874034781
 21
163.4023670287733
 31
0.0
  0
CIRCLE
  5
5079
330
1E
100
AcDbEntity
  8
AM_VIS
100
AcDbCircle
 10
258.3425619996936
 20
170.7508362571229
 30
0.0
 40
5.0
  0
LINE
  5
507B
330
1E
100
AcDbEntity
  8
AM_VIS
100
AcDbLine
 10
266.3425619996937
 20
187.5008362571231
 30
0.0
 11
266.0538868650988
 21
188.000836257123
 31
0.0
  0
LINE
  5
507C
330
1E
100
AcDbEntity
  8
AM_VIS
100
AcDbLine
 10
266.3425619996937
 20
154.000836257123
 30
0.0
 11
266.0538868650988
 21
153.5008362571231
 31
0.0
  0
LINE
  5
507D
330
1E
100
AcDbEntity
  8
AM_VIS
100
AcDbLine
 10
251.3425619996937
 20
188.000836257123
 30
0.0
 11
249.8425619996937
 21
188.000836257123
 31
0.0
  0
LINE
  5
507E
330
1E
100
AcDbEntity
  8
AM_VIS
100
AcDbLine
 10
251.3425619996937
 20
153.5008362571231
 30
0.0
 11
249.8425619996937
 21
153.5008362571231
 31
0.0
  0
LINE
  5
507F
330
1E
100
AcDbEntity
  8
AM_VIS
100
AcDbLine
 10
252.2085874034781
 20
153.5008362571231
 30
0.0
 11
265.1878614613143
 21
153.5008362571231
 31
0.0
  0
LINE
  5
5080
330
1E
100
AcDbEntity
  8
AM_VIS
100
AcDbLine
 10
265.1878614613143
 20
153.5008362571231
 30
0.0
 11
266.0538868650988
 21
153.5008362571231
 31
0.0
  0
LINE
  5
5081
330
1E
100
AcDbEntity
  8
AM_VIS
100
AcDbLine
 10
265.1878614613143
 20
188.000836257123
 30
0.0
 11
266.0538868650988
 21
188.000836257123
 31
0.0
  0
LINE
  5
5082
330
1E
100
AcDbEntity
  8
AM_VIS
100
AcDbLine
 10
265.1878614613143
 20
188.0008362571229
 30
0.0
 11
252.2085874034781
 21
188.0008362571229
 31
0.0
  0
LINE
  5
5083
330
1E
100
AcDbEntity
  8
AM_VIS
100
AcDbLine
 10
251.3425619996937
 20
188.000836257123
 30
0.0
 11
252.2085874034781
 21
188.000836257123
 31
0.0
  0
LINE
  5
5084
330
1E
100
AcDbEntity
  8
AM_VIS
100
AcDbLine
 10
251.3425619996937
 20
153.5008362571231
 30
0.0
 11
252.2085874034781
 21
153.5008362571231
 31
0.0
  0
LINE
  5
5085
330
1E
100
AcDbEntity
  8
AM_VIS
100
AcDbLine
 10
252.2085874034781
 20
178.0993054854724
 30
0.0
 11
265.1878614613143
 21
178.0993054854724
 31
0.0
  0
SPLINE
  5
5086
330
1E
100
AcDbEntity
  8
AM_VIS
100
AcDbSpline
210
0.0
220
0.0
230
1.0
 70
    12
 71
     2
 72
     6
 73
     3
 74
     0
 42
0.0000000001
 43
0.0000000001
 40
0.0
 40
0.0
 40
0.0
 40
14.79864858694879
 40
14.79864858694879
 40
14.79864858694879
 10
265.1878614613143
 20
163.4023670287733
 30
0.0
 41
1.0
 10
266.8506302365805
 20
170.7508362571229
 30
-0.0000000000000142
 41
1.086956521739135
 10
265.1878614613143
 20
178.0993054854724
 30
0.0
 41
1.0
  0
LINE
  5
5087
330
1E
100
AcDbEntity
  8
AM_VIS
100
AcDbLine
 10
265.1878614613143
 20
163.4023670287733
 30
0.0
 11
252.2085874034781
 21
163.4023670287733
 31
0.0
  0
SPLINE
  5
5088
330
1E
100
AcDbEntity
  8
AM_VIS
100
AcDbSpline
210
0.0
220
0.0
230
1.0
 70
    12
 71
     2
 72
     6
 73
     3
 74
     0
 42
0.0000000001
 43
0.0000000001
 40
7.411046321155877
 40
7.411046321155877
 40
7.411046321155877
 40
14.82209264231175
 40
14.82209264231175
 40
14.82209264231175
 10
251.3425619996937
 20
170.750836257123
 30
0.0
 41
1.0
 10
251.3425619996937
 20
167.2296947518719
 30
0.0
 41
1.021507836910532
 10
252.2085874034781
 20
163.4023670287733
 30
0.0
 41
1.0
  0
SPLINE
  5
5089
330
1E
100
AcDbEntity
  8
AM_VIS
100
AcDbSpline
210
0.0
220
0.0
230
1.0
 70
    12
 71
     2
 72
     6
 73
     3
 74
     0
 42
0.0000000001
 43
0.0000000001
 40
0.0
 40
0.0
 40
0.0
 40
7.411046321155877
 40
7.411046321155877
 40
7.411046321155877
 10
252.2085874034781
 20
178.0993054854724
 30
0.0
 41
1.0
 10
251.3425619996938
 20
174.2719777623737
 30
0.0
 41
1.021507836910515
 10
251.3425619996937
 20
170.750836257123
 30
0.0
 41
1.0
  0
LINE
  5
508A
330
1E
100
AcDbEntity
  8
AM_VIS
100
AcDbLine
 10
158.3425619996936
 20
94.22925056265569
 30
0.0
 11
158.3425619996936
 21
84.22925056265569
 31
0.0
  0
LINE
  5
508B
330
1E
100
AcDbEntity
  8
AM_VIS
100
AcDbLine
 10
157.3425619996936
 20
85.22925056265568
 30
0.0
 11
157.3425619996936
 21
93.22925056265569
 31
0.0
  0
LINE
  5
508C
330
1E
100
AcDbEntity
  8
AM_VIS
100
AcDbLine
 10
163.3425619996936
 20
94.22925056265569
 30
0.0
 11
158.3425619996936
 21
94.22925056265569
 31
0.0
  0
LINE
  5
508D
330
1E
100
AcDbEntity
  8
AM_VIS
100
AcDbLine
 10
179.3425619996936
 20
94.22925056265569
 30
0.0
 11
173.3425619996935
 21
94.22925056265569
 31
0.0
  0
LINE
  5
508E
330
1E
100
AcDbEntity
  8
AM_VIS
100
AcDbLine
 10
163.3425619996936
 20
84.22925056265569
 30
0.0
 11
158.3425619996936
 21
84.22925056265569
 31
0.0
  0
LINE
  5
508F
330
1E
100
AcDbEntity
  8
AM_VIS
100
AcDbLine
 10
179.3425619996936
 20
84.22925056265569
 30
0.0
 11
173.3425619996935
 21
84.22925056265569
 31
0.0
  0
LINE
  5
5090
330
1E
100
AcDbEntity
  8
AM_VIS
100
AcDbLine
 10
157.3425619996936
 20
85.22925056265568
 30
0.0
 11
158.3425619996936
 21
84.22925056265569
 31
0.0
  0
LINE
  5
5091
330
1E
100
AcDbEntity
  8
AM_VIS
100
AcDbLine
 10
157.3425619996936
 20
93.22925056265569
 30
0.0
 11
158.3425619996936
 21
94.22925056265569
 31
0.0
  0
LINE
  5
5094
330
1E
100
AcDbEntity
  8
AM_VIS
100
AcDbLine
 10
249.8425619996937
 20
105.9292505626556
 30
0.0
 11
249.7425619996936
 21
106.0292505626557
 31
0.0
  0
LINE
  5
5095
330
1E
100
AcDbEntity
  8
AM_VIS
100
AcDbLine
 10
249.8425619996937
 20
72.52925056265571
 30
0.0
 11
249.7425619996936
 21
72.42925056265568
 31
0.0
  0
LINE
  5
5096
330
1E
100
AcDbEntity
  8
AM_VIS
100
AcDbLine
 10
249.7425619996936
 20
106.0292505626557
 30
0.0
 11
218.9425619996937
 21
106.0292505626557
 31
0.0
  0
LINE
  5
5097
330
1E
100
AcDbEntity
  8
AM_VIS
100
AcDbLine
 10
249.7425619996936
 20
72.42925056265568
 30
0.0
 11
218.9425619996937
 21
72.42925056265568
 31
0.0
  0
LINE
  5
5098
330
1E
100
AcDbEntity
  8
AM_VIS
100
AcDbLine
 10
218.8425619996936
 20
72.52925056265571
 30
0.0
 11
218.9425619996937
 21
72.42925056265568
 31
0.0
  0
LINE
  5
5099
330
1E
100
AcDbEntity
  8
AM_VIS
100
AcDbLine
 10
218.8425619996936
 20
105.9292505626556
 30
0.0
 11
218.9425619996937
 21
106.0292505626557
 31
0.0
  0
LINE
  5
509A
330
1E
100
AcDbEntity
  8
AM_VIS
100
AcDbLine
 10
168.3425619996935
 20
89.22925056265569
 30
0.0
 11
168.3425619996935
 21
97.2292505626557
 31
0.0
  0
LINE
  5
509B
330
1E
100
AcDbEntity
  8
AM_VIS
100
AcDbLine
 10
168.3425619996935
 20
81.2292505626557
 30
0.0
 11
168.3425619996935
 21
89.22925056265569
 31
0.0
  0
LINE
  5
509C
330
1E
100
AcDbEntity
  8
AM_VIS
100
AcDbLine
 10
163.3425619996935
 20
89.22925056265569
 30
0.0
 11
163.3425619996935
 21
97.2292505626557
 31
0.0
  0
LINE
  5
509D
330
1E
100
AcDbEntity
  8
AM_VIS
100
AcDbLine
 10
163.3425619996935
 20
81.2292505626557
 30
0.0
 11
163.3425619996935
 21
89.22925056265569
 31
0.0
  0
LINE
  5
509E
330
1E
100
AcDbEntity
  8
AM_VIS
100
AcDbLine
 10
168.3425619996935
 20
97.2292505626557
 30
0.0
 11
167.6266476658985
 21
98.4692505626557
 31
0.0
  0
LINE
  5
509F
330
1E
100
AcDbEntity
  8
AM_VIS
100
AcDbLine
 10
168.3425619996935
 20
81.2292505626557
 30
0.0
 11
167.6266476658985
 21
79.98925056265568
 31
0.0
  0
LINE
  5
50A0
330
1E
100
AcDbEntity
  8
AM_VIS
100
AcDbLine
 10
163.3425619996936
 20
81.2292505626557
 30
0.0
 11
164.0584763334888
 21
79.98925056265568
 31
0.0
  0
LINE
  5
50A1
330
1E
100
AcDbEntity
  8
AM_VIS
100
AcDbLine
 10
163.3425619996935
 20
97.2292505626557
 30
0.0
 11
164.0584763334888
 21
98.4692505626557
 31
0.0
  0
LINE
  5
50A2
330
1E
100
AcDbEntity
  8
AM_VIS
100
AcDbLine
 10
167.6266476658985
 20
79.98925056265568
 30
0.0
 11
164.0584763334886
 21
79.98925056265568
 31
0.0
  0
SPLINE
  5
50A3
330
1E
100
AcDbEntity
  8
AM_VIS
100
AcDbSpline
210
0.0
220
0.0
230
1.0
 70
    12
 71
     2
 72
     6
 73
     3
 74
     0
 42
0.0000000001
 43
0.0000000001
 40
0.0
 40
0.0
 40
0.0
 40
9.349913295263435
 40
9.349913295263435
 40
9.349913295263435
 10
164.0584763334888
 20
79.98925056265568
 30
0.0
 41
1.0
 10
162.7247972116606
 20
82.29925056265562
 30
0.0
 41
1.154700538379229
 10
164.0584763334888
 20
84.60925056265564
 30
0.0
 41
1.0
  0
SPLINE
  5
50A4
330
1E
100
AcDbEntity
  8
AM_VIS
100
AcDbSpline
210
0.0
220
0.0
230
1.0
 70
    12
 71
     2
 72
     6
 73
     3
 74
     0
 42
0.0000000001
 43
0.0000000001
 40
0.0
 40
0.0
 40
0.0
 40
9.349913295263416
 40
9.349913295263416
 40
9.349913295263416
 10
167.6266476658985
 20
84.60925056265564
 30
0.0
 41
1.0
 10
168.9603267877264
 20
82.29925056265562
 30
0.0
 41
1.154700538379191
 10
167.6266476658985
 20
79.98925056265568
 30
0.0
 41
1.0
  0
LINE
  5
50A5
330
1E
100
AcDbEntity
  8
AM_VIS
100
AcDbLine
 10
167.6266476658985
 20
84.60925056265551
 30
0.0
 11
164.0584763334886
 21
84.60925056265551
 31
0.0
  0
SPLINE
  5
50A6
330
1E
100
AcDbEntity
  8
AM_VIS
100
AcDbSpline
210
0.0
220
0.0
230
1.0
 70
    12
 71
     2
 72
     6
 73
     3
 74
     0
 42
0.0000000001
 43
0.0000000001
 40
0.0
 40
0.0
 40
0.0
 40
9.349913295263709
 40
9.349913295263709
 40
9.349913295263709
 10
164.0584763334888
 20
84.60925056265551
 30
0.0
 41
1.0
 10
162.7247972116605
 20
89.22925056265567
 30
0.0
 41
1.154700538379269
 10
164.0584763334888
 20
93.84925056265581
 30
0.0
 41
1.0
  0
SPLINE
  5
50A7
330
1E
100
AcDbEntity
  8
AM_VIS
100
AcDbSpline
210
0.0
220
0.0
230
1.0
 70
    12
 71
     2
 72
     6
 73
     3
 74
     0
 42
0.0000000001
 43
0.0000000001
 40
0.0
 40
0.0
 40
0.0
 40
9.349913295263689
 40
9.349913295263689
 40
9.349913295263689
 10
167.6266476658985
 20
93.84925056265581
 30
0.0
 41
1.0
 10
168.9603267877265
 20
89.22925056265569
 30
0.0
 41
1.154700538379229
 10
167.6266476658985
 20
84.60925056265551
 30
0.0
 41
1.0
  0
LINE
  5
50A8
330
1E
100
AcDbEntity
  8
AM_VIS
100
AcDbLine
 10
164.0584763334886
 20
93.84925056265581
 30
0.0
 11
167.6266476658985
 21
93.84925056265581
 31
0.0
  0
SPLINE
  5
50A9
330
1E
100
AcDbEntity
  8
AM_VIS
100
AcDbSpline
210
0.0
220
0.0
230
1.0
 70
    12
 71
     2
 72
     6
 73
     3
 74
     0
 42
0.0000000001
 43
0.0000000001
 40
0.0
 40
0.0
 40
0.0
 40
9.349913295263366
 40
9.349913295263366
 40
9.349913295263366
 10
164.0584763334888
 20
93.84925056265576
 30
0.0
 41
1.0
 10
162.7247972116606
 20
96.15925056265576
 30
0.0
 41
1.154700538379229
 10
164.0584763334888
 20
98.4692505626557
 30
0.0
 41
1.0
  0
SPLINE
  5
50AA
330
1E
100
AcDbEntity
  8
AM_VIS
100
AcDbSpline
210
0.0
220
0.0
230
1.0
 70
    12
 71
     2
 72
     6
 73
     3
 74
     0
 42
0.0000000001
 43
0.0000000001
 40
0.0
 40
0.0
 40
0.0
 40
9.349913295263345
 40
9.349913295263345
 40
9.349913295263345
 10
167.6266476658985
 20
98.4692505626557
 30
0.0
 41
1.0
 10
168.9603267877264
 20
96.15925056265574
 30
0.0
 41
1.154700538379244
 10
167.6266476658985
 20
93.84925056265576
 30
0.0
 41
1.0
  0
LINE
  5
50AB
330
1E
100
AcDbEntity
  8
AM_VIS
100
AcDbLine
 10
167.6266476658985
 20
98.4692505626557
 30
0.0
 11
164.0584763334886
 21
98.4692505626557
 31
0.0
  0
LINE
  5
50AC
330
1E
100
AcDbEntity
  8
AM_VIS
100
AcDbLine
 10
173.3425619996935
 20
89.22925056265569
 30
0.0
 11
173.3425619996935
 21
97.2292505626557
 31
0.0
  0
LINE
  5
50AD
330
1E
100
AcDbEntity
  8
AM_VIS
100
AcDbLine
 10
173.3425619996935
 20
81.2292505626557
 30
0.0
 11
173.3425619996935
 21
89.22925056265569
 31
0.0
  0
LINE
  5
50AE
330
1E
100
AcDbEntity
  8
AM_VIS
100
AcDbLine
 10
168.3425619996935
 20
89.22925056265569
 30
0.0
 11
168.3425619996935
 21
97.2292505626557
 31
0.0
  0
LINE
  5
50AF
330
1E
100
AcDbEntity
  8
AM_VIS
100
AcDbLine
 10
168.3425619996935
 20
81.2292505626557
 30
0.0
 11
168.3425619996935
 21
89.22925056265569
 31
0.0
  0
LINE
  5
50B0
330
1E
100
AcDbEntity
  8
AM_VIS
100
AcDbLine
 10
173.3425619996935
 20
97.2292505626557
 30
0.0
 11
172.6266476658985
 21
98.4692505626557
 31
0.0
  0
LINE
  5
50B1
330
1E
100
AcDbEntity
  8
AM_VIS
100
AcDbLine
 10
173.3425619996935
 20
81.2292505626557
 30
0.0
 11
172.6266476658985
 21
79.98925056265568
 31
0.0
  0
LINE
  5
50B2
330
1E
100
AcDbEntity
  8
AM_VIS
100
AcDbLine
 10
168.3425619996935
 20
81.2292505626557
 30
0.0
 11
169.0584763334886
 21
79.98925056265568
 31
0.0
  0
LINE
  5
50B3
330
1E
100
AcDbEntity
  8
AM_VIS
100
AcDbLine
 10
168.3425619996935
 20
97.2292505626557
 30
0.0
 11
169.0584763334886
 21
98.4692505626557
 31
0.0
  0
LINE
  5
50B4
330
1E
100
AcDbEntity
  8
AM_VIS
100
AcDbLine
 10
172.6266476658985
 20
79.98925056265568
 30
0.0
 11
169.0584763334886
 21
79.98925056265568
 31
0.0
  0
SPLINE
  5
50B5
330
1E
100
AcDbEntity
  8
AM_VIS
100
AcDbSpline
210
0.0
220
0.0
230
1.0
 70
    12
 71
     2
 72
     6
 73
     3
 74
     0
 42
0.0000000001
 43
0.0000000001
 40
0.0
 40
0.0
 40
0.0
 40
9.349913295263435
 40
9.349913295263435
 40
9.349913295263435
 10
169.0584763334886
 20
79.98925056265568
 30
0.0
 41
1.0
 10
167.7247972116606
 20
82.29925056265562
 30
0.0
 41
1.154700538379229
 10
169.0584763334888
 20
84.60925056265564
 30
0.0
 41
1.0
  0
SPLINE
  5
50B6
330
1E
100
AcDbEntity
  8
AM_VIS
100
AcDbSpline
210
0.0
220
0.0
230
1.0
 70
    12
 71
     2
 72
     6
 73
     3
 74
     0
 42
0.0000000001
 43
0.0000000001
 40
0.0
 40
0.0
 40
0.0
 40
9.349913295263416
 40
9.349913295263416
 40
9.349913295263416
 10
172.6266476658985
 20
84.60925056265564
 30
0.0
 41
1.0
 10
173.9603267877264
 20
82.29925056265562
 30
0.0
 41
1.154700538379191
 10
172.6266476658985
 20
79.98925056265568
 30
0.0
 41
1.0
  0
LINE
  5
50B7
330
1E
100
AcDbEntity
  8
AM_VIS
100
AcDbLine
 10
172.6266476658985
 20
84.60925056265551
 30
0.0
 11
169.0584763334886
 21
84.60925056265551
 31
0.0
  0
SPLINE
  5
50B8
330
1E
100
AcDbEntity
  8
AM_VIS
100
AcDbSpline
210
0.0
220
0.0
230
1.0
 70
    12
 71
     2
 72
     6
 73
     3
 74
     0
 42
0.0000000001
 43
0.0000000001
 40
0.0
 40
0.0
 40
0.0
 40
9.349913295263709
 40
9.349913295263709
 40
9.349913295263709
 10
169.0584763334888
 20
84.60925056265551
 30
0.0
 41
1.0
 10
167.7247972116606
 20
89.22925056265567
 30
0.0
 41
1.154700538379269
 10
169.0584763334888
 20
93.84925056265581
 30
0.0
 41
1.0
  0
SPLINE
  5
50B9
330
1E
100
AcDbEntity
  8
AM_VIS
100
AcDbSpline
210
0.0
220
0.0
230
1.0
 70
    12
 71
     2
 72
     6
 73
     3
 74
     0
 42
0.0000000001
 43
0.0000000001
 40
0.0
 40
0.0
 40
0.0
 40
9.349913295263689
 40
9.349913295263689
 40
9.349913295263689
 10
172.6266476658985
 20
93.84925056265581
 30
0.0
 41
1.0
 10
173.9603267877265
 20
89.22925056265569
 30
0.0
 41
1.154700538379229
 10
172.6266476658985
 20
84.60925056265551
 30
0.0
 41
1.0
  0
LINE
  5
50BA
330
1E
100
AcDbEntity
  8
AM_VIS
100
AcDbLine
 10
169.0584763334886
 20
93.84925056265581
 30
0.0
 11
172.6266476658985
 21
93.84925056265581
 31
0.0
  0
SPLINE
  5
50BB
330
1E
100
AcDbEntity
  8
AM_VIS
100
AcDbSpline
210
0.0
220
0.0
230
1.0
 70
    12
 71
     2
 72
     6
 73
     3
 74
     0
 42
0.0000000001
 43
0.0000000001
 40
0.0
 40
0.0
 40
0.0
 40
9.349913295263366
 40
9.349913295263366
 40
9.349913295263366
 10
169.0584763334888
 20
93.84925056265576
 30
0.0
 41
1.0
 10
167.7247972116606
 20
96.15925056265576
 30
0.0
 41
1.154700538379229
 10
169.0584763334886
 20
98.4692505626557
 30
0.0
 41
1.0
  0
SPLINE
  5
50BC
330
1E
100
AcDbEntity
  8
AM_VIS
100
AcDbSpline
210
0.0
220
0.0
230
1.0
 70
    12
 71
     2
 72
     6
 73
     3
 74
     0
 42
0.0000000001
 43
0.0000000001
 40
0.0
 40
0.0
 40
0.0
 40
9.349913295263345
 40
9.349913295263345
 40
9.349913295263345
 10
172.6266476658985
 20
98.4692505626557
 30
0.0
 41
1.0
 10
173.9603267877264
 20
96.15925056265574
 30
0.0
 41
1.154700538379244
 10
172.6266476658985
 20
93.84925056265576
 30
0.0
 41
1.0
  0
LINE
  5
50BD
330
1E
100
AcDbEntity
  8
AM_VIS
100
AcDbLine
 10
172.6266476658985
 20
98.4692505626557
 30
0.0
 11
169.0584763334886
 21
98.4692505626557
 31
0.0
  0
LINE
  5
50BE
330
1E
100
AcDbEntity
  8
AM_VIS
100
AcDbLine
 10
218.8425619996936
 20
71.97925056265569
 30
0.0
 11
218.8425619996936
 21
106.4792505626557
 31
0.0
  0
LINE
  5
50C1
330
1E
100
AcDbEntity
  8
AM_VIS
100
AcDbLine
 10
185.3425619996936
 20
89.22925056265569
 30
0.0
 11
185.3425619996936
 21
101.7292505626557
 31
0.0
  0
LINE
  5
50C2
330
1E
100
AcDbEntity
  8
AM_VIS
100
AcDbLine
 10
185.3425619996936
 20
76.72925056265569
 30
0.0
 11
185.3425619996936
 21
89.22925056265569
 31
0.0
  0
LINE
  5
50C3
330
1E
100
AcDbEntity
  8
AM_VIS
100
AcDbLine
 10
218.8425619996936
 20
106.4792505626557
 30
0.0
 11
217.3425619996937
 21
106.4792505626557
 31
0.0
  0
LINE
  5
50C4
330
1E
100
AcDbEntity
  8
AM_VIS
100
AcDbLine
 10
218.8425619996936
 20
71.97925056265569
 30
0.0
 11
217.3425619996937
 21
71.97925056265569
 31
0.0
  0
LINE
  5
50C5
330
1E
100
AcDbEntity
  8
AM_VIS
100
AcDbLine
 10
188.3425619996936
 20
102.2292505626557
 30
0.0
 11
185.8425619996936
 21
102.2292505626557
 31
0.0
  0
LINE
  5
50C6
330
1E
100
AcDbEntity
  8
AM_VIS
100
AcDbLine
 10
188.3425619996936
 20
76.22925056265569
 30
0.0
 11
185.8425619996936
 21
76.22925056265569
 31
0.0
  0
LINE
  5
50C7
330
1E
100
AcDbEntity
  8
AM_VIS
100
AcDbLine
 10
185.3425619996936
 20
76.72925056265569
 30
0.0
 11
185.8425619996936
 21
76.22925056265569
 31
0.0
  0
LINE
  5
50C8
330
1E
100
AcDbEntity
  8
AM_VIS
100
AcDbLine
 10
185.3425619996936
 20
101.7292505626557
 30
0.0
 11
185.8425619996936
 21
102.2292505626557
 31
0.0
  0
LINE
  5
50C9
330
1E
100
AcDbEntity
  8
AM_VIS
100
AcDbLine
 10
217.3425619996937
 20
110.2292505626557
 30
0.0
 11
188.3425619996936
 21
110.2292505626557
 31
0.0
  0
LINE
  5
50CA
330
1E
100
AcDbEntity
  8
AM_VIS
100
AcDbLine
 10
188.3425619996936
 20
110.2292505626557
 30
0.0
 11
188.3425619996936
 21
109.2292505626557
 31
0.0
  0
LINE
  5
50CB
330
1E
100
AcDbEntity
  8
AM_VIS
100
AcDbLine
 10
188.3425619996936
 20
109.2292505626557
 30
0.0
 11
188.3425619996936
 21
69.22925056265569
 31
0.0
  0
LINE
  5
50CC
330
1E
100
AcDbEntity
  8
AM_VIS
100
AcDbLine
 10
188.3425619996936
 20
109.2292505626557
 30
0.0
 11
217.3425619996937
 21
109.2292505626557
 31
0.0
  0
LINE
  5
50CD
330
1E
100
AcDbEntity
  8
AM_VIS
100
AcDbLine
 10
217.3425619996937
 20
69.22925056265569
 30
0.0
 11
188.3425619996936
 21
69.22925056265569
 31
0.0
  0
LINE
  5
50CE
330
1E
100
AcDbEntity
  8
AM_VIS
100
AcDbLine
 10
188.3425619996936
 20
68.22925056265569
 30
0.0
 11
217.3425619996937
 21
68.22925056265569
 31
0.0
  0
LINE
  5
50CF
330
1E
100
AcDbEntity
  8
AM_VIS
100
AcDbLine
 10
188.3425619996936
 20
69.22925056265569
 30
0.0
 11
188.3425619996936
 21
68.22925056265569
 31
0.0
  0
LINE
  5
50D0
330
1E
100
AcDbEntity
  8
AM_VIS
100
AcDbLine
 10
217.3425619996937
 20
68.22925056265569
 30
0.0
 11
217.3425619996937
 21
69.22925056265569
 31
0.0
  0
LINE
  5
50D1
330
1E
100
AcDbEntity
  8
AM_VIS
100
AcDbLine
 10
217.3425619996937
 20
109.2292505626557
 30
0.0
 11
217.3425619996937
 21
69.22925056265569
 31
0.0
  0
LINE
  5
50D2
330
1E
100
AcDbEntity
  8
AM_VIS
100
AcDbLine
 10
217.3425619996937
 20
109.2292505626557
 30
0.0
 11
217.3425619996937
 21
110.2292505626557
 31
0.0
  0
LINE
  5
50D3
330
1E
100
AcDbEntity
  8
AM_VIS
100
AcDbLine
 10
266.3425619996937
 20
72.47925056265569
 30
0.0
 11
266.3425619996937
 21
105.9792505626557
 31
0.0
  0
LINE
  5
50D4
330
1E
100
AcDbEntity
  8
AM_VIS
100
AcDbLine
 10
265.1878614613143
 20
81.88078133430616
 30
0.0
 11
265.1878614613143
 21
71.97925056265569
 31
0.0
  0
LINE
  5
50D5
330
1E
100
AcDbEntity
  8
AM_VIS
100
AcDbLine
 10
265.1878614613143
 20
106.4792505626556
 30
0.0
 11
265.1878614613143
 21
96.57771979100523
 31
0.0
  0
LINE
  5
50D6
330
1E
100
AcDbEntity
  8
AM_VIS
100
AcDbLine
 10
249.8425619996937
 20
71.97925056265569
 30
0.0
 11
249.8425619996937
 21
106.4792505626557
 31
0.0
  0
LINE
  5
50D7
330
1E
100
AcDbEntity
  8
AM_VIS
100
AcDbLine
 10
251.3425619996937
 20
71.97925056265569
 30
0.0
 11
251.3425619996937
 21
89.22925056265569
 31
0.0
  0
LINE
  5
50D8
330
1E
100
AcDbEntity
  8
AM_VIS
100
AcDbLine
 10
252.2085874034781
 20
71.97925056265569
 30
0.0
 11
252.2085874034781
 21
81.88078133430616
 31
0.0
  0
LINE
  5
50D9
330
1E
100
AcDbEntity
  8
AM_VIS
100
AcDbLine
 10
251.3425619996937
 20
89.22925056265569
 30
0.0
 11
251.3425619996937
 21
106.4792505626557
 31
0.0
  0
LINE
  5
50DA
330
1E
100
AcDbEntity
  8
AM_VIS
100
AcDbLine
 10
252.2085874034781
 20
96.57771979100523
 30
0.0
 11
252.2085874034781
 21
106.4792505626556
 31
0.0
  0
LINE
  5
50DB
330
1E
100
AcDbEntity
  8
AM_VIS
100
AcDbLine
 10
266.3425619996937
 20
105.9792505626557
 30
0.0
 11
266.0538868650988
 21
106.4792505626557
 31
0.0
  0
LINE
  5
50DC
330
1E
100
AcDbEntity
  8
AM_VIS
100
AcDbLine
 10
266.3425619996937
 20
72.47925056265569
 30
0.0
 11
266.0538868650988
 21
71.97925056265569
 31
0.0
  0
LINE
  5
50DD
330
1E
100
AcDbEntity
  8
AM_VIS
100
AcDbLine
 10
251.3425619996937
 20
106.4792505626557
 30
0.0
 11
249.8425619996937
 21
106.4792505626557
 31
0.0
  0
LINE
  5
50DE
330
1E
100
AcDbEntity
  8
AM_VIS
100
AcDbLine
 10
251.3425619996937
 20
71.97925056265569
 30
0.0
 11
249.8425619996937
 21
71.97925056265569
 31
0.0
  0
LINE
  5
50DF
330
1E
100
AcDbEntity
  8
AM_VIS
100
AcDbLine
 10
252.2085874034781
 20
96.57771979100523
 30
0.0
 11
265.1878614613143
 21
96.57771979100523
 31
0.0
  0
LINE
  5
50E0
330
1E
100
AcDbEntity
  8
AM_VIS
100
AcDbLine
 10
265.1878614613143
 20
81.88078133430616
 30
0.0
 11
252.2085874034781
 21
81.88078133430616
 31
0.0
  0
SPLINE
  5
50E1
330
1E
100
AcDbEntity
  8
AM_VIS
100
AcDbSpline
210
0.0
220
0.0
230
1.0
 70
    12
 71
     2
 72
     6
 73
     3
 74
     0
 42
0.0000000001
 43
0.0000000001
 40
0.0
 40
0.0
 40
0.0
 40
14.79864858694877
 40
14.79864858694877
 40
14.79864858694877
 10
265.1878614613143
 20
81.88078133430611
 30
0.0
 41
1.0
 10
266.8506302365804
 20
89.22925056265567
 30
0.0
 41
1.08695652173913
 10
265.1878614613143
 20
96.57771979100523
 30
0.0
 41
1.0
  0
LINE
  5
50E2
330
1E
100
AcDbEntity
  8
AM_VIS
100
AcDbLine
 10
252.2085874034781
 20
71.97925056265569
 30
0.0
 11
265.1878614613143
 21
71.97925056265569
 31
0.0
  0
LINE
  5
50E3
330
1E
100
AcDbEntity
  8
AM_VIS
100
AcDbLine
 10
265.1878614613143
 20
71.97925056265569
 30
0.0
 11
266.0538868650988
 21
71.97925056265569
 31
0.0
  0
SPLINE
  5
50E4
330
1E
100
AcDbEntity
  8
AM_VIS
100
AcDbSpline
210
0.0
220
0.0
230
1.0
 70
    12
 71
     2
 72
     6
 73
     3
 74
     0
 42
0.0000000001
 43
0.0000000001
 40
7.411046321155879
 40
7.411046321155879
 40
7.411046321155879
 40
14.82209264231176
 40
14.82209264231176
 40
14.82209264231176
 10
251.3425619996937
 20
89.22925056265569
 30
0.0
 41
1.0
 10
251.3425619996935
 20
85.70810905740485
 30
0.0
 41
1.021507836910524
 10
252.2085874034781
 20
81.88078133430611
 30
0.0
 41
1.0
  0
LINE
  5
50E5
330
1E
100
AcDbEntity
  8
AM_VIS
100
AcDbLine
 10
251.3425619996937
 20
71.97925056265569
 30
0.0
 11
252.2085874034781
 21
71.97925056265569
 31
0.0
  0
SPLINE
  5
50E6
330
1E
100
AcDbEntity
  8
AM_VIS
100
AcDbSpline
210
0.0
220
0.0
230
1.0
 70
    12
 71
     2
 72
     6
 73
     3
 74
     0
 42
0.0000000001
 43
0.0000000001
 40
0.0
 40
0.0
 40
0.0
 40
7.411046321155879
 40
7.411046321155879
 40
7.411046321155879
 10
252.2085874034781
 20
96.57771979100523
 30
0.0
 41
1.0
 10
251.3425619996935
 20
92.75039206790651
 30
0.0
 41
1.021507836910524
 10
251.3425619996937
 20
89.22925056265569
 30
0.0
 41
1.0
  0
LINE
  5
50E7
330
1E
100
AcDbEntity
  8
AM_VIS
100
AcDbLine
 10
265.1878614613143
 20
106.4792505626556
 30
0.0
 11
266.0538868650989
 21
106.4792505626556
 31
0.0
  0
LINE
  5
50E8
330
1E
100
AcDbEntity
  8
AM_VIS
100
AcDbLine
 10
265.1878614613143
 20
106.4792505626556
 30
0.0
 11
252.2085874034781
 21
106.4792505626556
 31
0.0
  0
LINE
  5
50E9
330
1E
100
AcDbEntity
  8
AM_VIS
100
AcDbLine
 10
251.3425619996937
 20
106.4792505626556
 30
0.0
 11
252.2085874034781
 21
106.4792505626556
 31
0.0
  0
LINE
  5
50EA
330
1E
100
AcDbEntity
  8
AM_7
100
AcDbLine
 10
317.8423832733489
 20
91.0292505626557
 30
0.0
 11
317.8423832733489
 21
109.5792505626557
 31
0.0
  0
LINE
  5
50EB
330
1E
100
AcDbEntity
  8
AM_7
100
AcDbLine
 10
317.8423832733489
 20
68.87925056265567
 30
0.0
 11
317.8423832733489
 21
87.42925056265567
 31
0.0
  0
LINE
  5
50EC
330
1E
100
AcDbEntity
  8
AM_7
100
AcDbLine
 10
319.642383273349
 20
89.22925056265569
 30
0.0
 11
338.1923832733489
 21
89.22925056265569
 31
0.0
  0
LINE
  5
50ED
330
1E
100
AcDbEntity
  8
AM_7
100
AcDbLine
 10
297.4923832733489
 20
89.22925056265569
 30
0.0
 11
316.0423832733489
 21
89.22925056265569
 31
0.0
  0
LINE
  5
50EE
330
1E
100
AcDbEntity
  8
AM_7
100
AcDbLine
 10
317.8423832733489
 20
88.22925056265569
 30
0.0
 11
317.8423832733489
 21
90.22925056265568
 31
0.0
  0
LINE
  5
50EF
330
1E
100
AcDbEntity
  8
AM_7
100
AcDbLine
 10
316.8423832733489
 20
89.22925056265569
 30
0.0
 11
318.8423832733489
 21
89.22925056265569
 31
0.0
  0
LINE
  5
50F0
330
1E
100
AcDbEntity
  8
AM_7
100
AcDbLine
 10
90.92827826423206
 20
91.0292505626557
 30
0.0
 11
90.92827826423206
 21
103.8292505626557
 31
0.0
  0
LINE
  5
50F1
330
1E
100
AcDbEntity
  8
AM_7
100
AcDbLine
 10
90.92827826423206
 20
74.62925056265567
 30
0.0
 11
90.92827826423206
 21
87.42925056265567
 31
0.0
  0
LINE
  5
50F2
330
1E
100
AcDbEntity
  8
AM_7
100
AcDbLine
 10
92.72827826423208
 20
89.22925056265569
 30
0.0
 11
105.5282782642321
 21
89.22925056265569
 31
0.0
  0
LINE
  5
50F3
330
1E
100
AcDbEntity
  8
AM_7
100
AcDbLine
 10
76.32827826423204
 20
89.22925056265569
 30
0.0
 11
89.12827826423205
 21
89.22925056265569
 31
0.0
  0
LINE
  5
50F4
330
1E
100
AcDbEntity
  8
AM_7
100
AcDbLine
 10
90.92827826423206
 20
88.22925056265569
 30
0.0
 11
90.92827826423206
 21
90.22925056265568
 31
0.0
  0
LINE
  5
50F5
330
1E
100
AcDbEntity
  8
AM_7
100
AcDbLine
 10
89.92827826423207
 20
89.22925056265569
 30
0.0
 11
91.92827826423206
 21
89.22925056265569
 31
0.0
  0
LINE
  5
50F8
330
1E
100
AcDbEntity
  8
AM_7
100
AcDbLine
 10
200.3425619996936
 20
187.5508362571231
 30
0.0
 11
200.3425619996936
 21
194.3508362571231
 31
0.0
  0
LINE
  5
50F9
330
1E
100
AcDbEntity
  8
AM_7
100
AcDbLine
 10
200.3425619996936
 20
177.150836257123
 30
0.0
 11
200.3425619996936
 21
183.950836257123
 31
0.0
  0
LINE
  5
50FA
330
1E
100
AcDbEntity
  8
AM_7
100
AcDbLine
 10
202.1425619996936
 20
185.750836257123
 30
0.0
 11
208.9425619996937
 21
185.750836257123
 31
0.0
  0
LINE
  5
50FB
330
1E
100
AcDbEntity
  8
AM_7
100
AcDbLine
 10
191.7425619996936
 20
185.750836257123
 30
0.0
 11
198.5425619996936
 21
185.750836257123
 31
0.0
  0
LINE
  5
50FC
330
1E
100
AcDbEntity
  8
AM_7
100
AcDbLine
 10
200.3425619996936
 20
184.7508362571231
 30
0.0
 11
200.3425619996936
 21
186.750836257123
 31
0.0
  0
LINE
  5
50FD
330
1E
100
AcDbEntity
  8
AM_7
100
AcDbLine
 10
199.3425619996936
 20
185.750836257123
 30
0.0
 11
201.3425619996937
 21
185.750836257123
 31
0.0
  0
LINE
  5
50FE
330
1E
100
AcDbEntity
  8
AM_7
100
AcDbLine
 10
200.3425619996936
 20
157.5508362571231
 30
0.0
 11
200.3425619996936
 21
164.3508362571231
 31
0.0
  0
LINE
  5
50FF
330
1E
100
AcDbEntity
  8
AM_7
100
AcDbLine
 10
200.3425619996936
 20
147.150836257123
 30
0.0
 11
200.3425619996936
 21
153.950836257123
 31
0.0
  0
LINE
  5
5100
330
1E
100
AcDbEntity
  8
AM_7
100
AcDbLine
 10
202.1425619996937
 20
155.750836257123
 30
0.0
 11
208.9425619996937
 21
155.750836257123
 31
0.0
  0
LINE
  5
5101
330
1E
100
AcDbEntity
  8
AM_7
100
AcDbLine
 10
191.7425619996936
 20
155.750836257123
 30
0.0
 11
198.5425619996936
 21
155.750836257123
 31
0.0
  0
LINE
  5
5102
330
1E
100
AcDbEntity
  8
AM_7
100
AcDbLine
 10
200.3425619996936
 20
154.750836257123
 30
0.0
 11
200.3425619996936
 21
156.750836257123
 31
0.0
  0
LINE
  5
5103
330
1E
100
AcDbEntity
  8
AM_7
100
AcDbLine
 10
199.3425619996936
 20
155.750836257123
 30
0.0
 11
201.3425619996937
 21
155.750836257123
 31
0.0
  0
LINE
  5
5104
330
1E
100
AcDbEntity
  8
AM_7
100
AcDbLine
 10
210.3425619996937
 20
172.5508362571231
 30
0.0
 11
210.3425619996937
 21
177.3508362571231
 31
0.0
  0
LINE
  5
5105
330
1E
100
AcDbEntity
  8
AM_7
100
AcDbLine
 10
210.3425619996937
 20
164.150836257123
 30
0.0
 11
210.3425619996937
 21
168.950836257123
 31
0.0
  0
LINE
  5
5106
330
1E
100
AcDbEntity
  8
AM_7
100
AcDbLine
 10
212.1425619996936
 20
170.750836257123
 30
0.0
 11
216.9425619996937
 21
170.750836257123
 31
0.0
  0
LINE
  5
5107
330
1E
100
AcDbEntity
  8
AM_7
100
AcDbLine
 10
203.7425619996936
 20
170.750836257123
 30
0.0
 11
208.5425619996936
 21
170.750836257123
 31
0.0
  0
LINE
  5
5108
330
1E
100
AcDbEntity
  8
AM_7
100
AcDbLine
 10
210.3425619996937
 20
169.7508362571231
 30
0.0
 11
210.3425619996937
 21
171.750836257123
 31
0.0
  0
LINE
  5
5109
330
1E
100
AcDbEntity
  8
AM_7
100
AcDbLine
 10
209.3425619996937
 20
170.750836257123
 30
0.0
 11
211.3425619996937
 21
170.750836257123
 31
0.0
  0
LINE
  5
510A
330
1E
100
AcDbEntity
  8
AM_7
100
AcDbLine
 10
258.3425619996936
 20
172.5508362571229
 30
0.0
 11
258.3425619996936
 21
176.3508362571229
 31
0.0
  0
LINE
  5
510B
330
1E
100
AcDbEntity
  8
AM_7
100
AcDbLine
 10
258.3425619996936
 20
165.1508362571229
 30
0.0
 11
258.3425619996936
 21
168.950836257123
 31
0.0
  0
LINE
  5
510C
330
1E
100
AcDbEntity
  8
AM_7
100
AcDbLine
 10
260.1425619996937
 20
170.7508362571229
 30
0.0
 11
263.9425619996937
 21
170.7508362571229
 31
0.0
  0
LINE
  5
510D
330
1E
100
AcDbEntity
  8
AM_7
100
AcDbLine
 10
252.7425619996936
 20
170.7508362571229
 30
0.0
 11
256.5425619996936
 21
170.7508362571229
 31
0.0
  0
LINE
  5
510E
330
1E
100
AcDbEntity
  8
AM_7
100
AcDbLine
 10
258.3425619996936
 20
169.7508362571229
 30
0.0
 11
258.3425619996936
 21
171.7508362571229
 31
0.0
  0
LINE
  5
510F
330
1E
100
AcDbEntity
  8
AM_7
100
AcDbLine
 10
257.3425619996937
 20
170.7508362571229
 30
0.0
 11
259.3425619996937
 21
170.7508362571229
 31
0.0
  0
LINE
  5
5110
330
1E
100
AcDbEntity
  8
AM_7
100
AcDbLine
 10
267.9425619996937
 20
170.750836257123
 30
0.0
 11
156.7425619996936
 21
170.750836257123
 31
0.0
  0
LINE
  5
5111
330
1E
100
AcDbEntity
  8
AM_7
100
AcDbLine
 10
267.9425619996937
 20
89.22925056265569
 30
0.0
 11
156.7425619996936
 21
89.22925056265569
 31
0.0
  0
LINE
  5
5117
330
1E
100
AcDbEntity
  8
AM_7
100
AcDbLine
 10
200.3425619996936
 20
112.0231769575577
 30
0.0
 11
200.3425619996936
 21
66.27647197922204
 31
0.0
1001
GENIUS_GENODEF_13
1002
{
1000
HIER
1070
     0
1002
}
1002
{
1000
MANEDIT
1070
     0
1002
}
1002
{
1000
NOSEL
1070
     0
1002
}
1002
{
1000
BEHIND
1070
     0
1002
}
1002
{
1000
OTHER
1070
     0
1002
}
1002
{
1000
REACTOR
1002
}
1001
GENIUS_GENOBJ-N-CEN_13
1002
{
1000
OWNER
1000
GEN
1002
}
  0
LINE
  5
511B
330
1E
100
AcDbEntity
  8
AM_7
100
AcDbLine
 10
210.3425619996937
 20
110.9960696459646
 30
0.0
 11
210.3425619996937
 21
101.0885630867702
 31
0.0
  0
LINE
  5
5123
330
1E
100
AcDbEntity
  8
AM_7
100
AcDbLine
 10
258.3425619996936
 20
107.2460696459645
 30
0.0
 11
258.3425619996936
 21
97.33856308677014
 31
0.0
  0
DIMENSION
  5
5134
330
1E
100
AcDbEntity
  8
AM_5
100
AcDbDimension
  2
*D9
 10
122.9717301395768
 20
89.22925056265569
 30
0.0
 11
120.6714348639862
 21
78.72925056265571
 31
0.0
 70
    32
 71
     5
 42
21.0
  3
AM_ISO
100
AcDbAlignedDimension
 13
113.428278264232
 23
68.22925056265569
 33
0.0
 14
105.5282782642321
 24
89.22925056265569
 34
0.0
 50
90.0
100
AcDbRotatedDimension
  0
DIMENSION
  5
5135
330
1E
100
AcDbEntity
  8
AM_5
100
AcDbDimension
  2
*D10
 10
129.9717301395768
 20
110.2292505626557
 30
0.0
 11
127.6714348639862
 21
89.22925056265571
 31
0.0
 70
    32
 71
     5
 42
42.0
  3
AM_ISO
100
AcDbAlignedDimension
 13
113.428278264232
 23
68.22925056265569
 33
0.0
 14
113.428278264232
 24
110.2292505626557
 34
0.0
 50
90.0
100
AcDbRotatedDimension
  0
DIMENSION
  5
5136
330
1E
100
AcDbEntity
  8
AM_5
100
AcDbDimension
  2
*D11
 10
150.2119932877272
 20
102.2292505626557
 30
0.0
 11
150.2119932877272
 21
89.22925056265581
 31
0.0
 70
   160
  1
%%c<>
 71
     5
 42
26.0
  3
AM_ISO
100
AcDbAlignedDimension
 13
185.8425619996936
 23
76.22925056265569
 33
0.0
 14
185.8425619996936
 24
102.2292505626557
 34
0.0
 50
90.0
100
AcDbRotatedDimension
1001
GENIUS_GENDTOL_13
1000
TolAcTol
1000

1000

1040
26.0
1001
ACAD
1000
DSTYLE
1002
{
1070
    47
1040
0.0
1070
    48
1040
0.033
1070
    71
1070
     1
1070
   272
1070
     3
1002
}
  0
DIMENSION
  5
5137
330
1E
100
AcDbEntity
  8
AM_5
100
AcDbDimension
  2
*D12
 10
188.3425619996936
 20
46.24864309256316
 30
0.0
 11
172.8425619996936
 21
48.54864309256315
 31
0.0
 70
    32
 71
     5
 42
31.0
  3
AM_ISO
100
AcDbAlignedDimension
 13
157.3425619996936
 23
85.22925056265568
 33
0.0
 14
188.3425619996936
 24
68.22925056265569
 34
0.0
100
AcDbRotatedDimension
  0
DIMENSION
  5
5138
330
1E
100
AcDbEntity
  8
AM_5
100
AcDbDimension
  2
*D13
 10
266.3425619996937
 20
46.24864309256316
 30
0.0
 11
227.3425619996936
 21
48.54864309256315
 31
0.0
 70
    32
  1
<>+stroke
 71
     5
 42
78.0
  3
AM_ISO
100
AcDbAlignedDimension
 13
188.3425619996936
 23
67.2292505626557
 33
0.0
 14
266.3425619996937
 24
72.47925056265569
 34
0.0
100
AcDbRotatedDimension
  0
DIMENSION
  5
5139
330
1E
100
AcDbEntity
  8
AM_5
100
AcDbDimension
  2
*D14
 10
266.3425619996937
 20
39.24864309256316
 30
0.0
 11
211.8425619996937
 21
41.54864309256315
 31
0.0
 70
    32
  1
<>+stroke
 71
     5
 42
109.0
  3
AM_ISO
100
AcDbAlignedDimension
 13
157.3425619996936
 23
85.22925056265568
 33
0.0
 14
266.3425619996937
 24
72.47925056265569
 34
0.0
100
AcDbRotatedDimension
  0
DIMENSION
  5
513A
330
1E
100
AcDbEntity
  8
AM_5
100
AcDbDimension
  2
*D15
 10
335.0923832733489
 20
58.00497880836371
 30
0.0
 11
317.8423832733489
 21
60.30497880836371
 31
0.0
 70
    32
  1
{\Famgdt;o}<>
 71
     5
 42
34.5
  3
AM_ISO
100
AcDbAlignedDimension
 13
300.5923832733489
 23
81.88078133430611
 33
0.0
 14
335.0923832733489
 24
81.88078133430627
 34
0.0
100
AcDbRotatedDimension
  0
DIMENSION
  5
513B
330
1E
100
AcDbEntity
  8
AM_5
100
AcDbDimension
  2
*D16
 10
306.9207717418265
 20
73.98848609513304
 30
0.0
 11
341.9091220632573
 21
115.3309394202232
 31
0.0
 70
   163
 71
     5
 42
37.49999999999966
  3
AM_ISO$3
100
AcDbDiametricDimension
 15
328.7639948048712
 25
104.4700150301789
 35
0.0
 40
0.0
1001
ACAD
1000
DSTYLE
1002
{
1070
   141
1040
0.0
1070
   172
1070
     1
1002
}
  0
DIMENSION
  5
513C
330
1E
100
AcDbEntity
  8
AM_5
100
AcDbDimension
  2
*D17
 10
145.3425619996937
 20
185.750836257123
 30
0.0
 11
143.0425619996937
 21
170.7508362571231
 31
0.0
 70
    32
 71
     5
 42
30.0
  3
AM_ISO
100
AcDbAlignedDimension
 13
191.7425619996936
 23
155.750836257123
 33
0.0
 14
191.7425619996936
 24
185.750836257123
 34
0.0
 50
90.0
100
AcDbRotatedDimension
  0
DIMENSION
  5
513D
330
1E
100
AcDbEntity
  8
AM_5
100
AcDbDimension
  2
*D18
 10
138.3425619996937
 20
147.2508362571231
 30
0.0
 11
136.0425619996936
 21
170.7508362571231
 31
0.0
 70
    32
 71
     5
 42
47.0
  3
AM_ISO
100
AcDbAlignedDimension
 13
188.3425619996936
 23
194.250836257123
 33
0.0
 14
188.3425619996936
 24
147.2508362571231
 34
0.0
 50
90.0
100
AcDbRotatedDimension
  0
LINE
  5
513E
330
1E
100
AcDbEntity
  8
AM_VIS
100
AcDbLine
 10
184.8425619996936
 20
175.750836257123
 30
0.0
 11
180.3425619996936
 21
175.750836257123
 31
0.0
  0
LINE
  5
513F
330
1E
100
AcDbEntity
  8
AM_VIS
100
AcDbLine
 10
180.3425619996936
 20
165.750836257123
 30
0.0
 11
184.8425619996936
 21
165.750836257123
 31
0.0
  0
LINE
  5
5140
330
1E
100
AcDbEntity
  8
AM_VIS
100
AcDbLine
 10
180.3425619996936
 20
175.750836257123
 30
0.0
 11
180.3425619996936
 21
165.750836257123
 31
0.0
  0
LINE
  5
5141
330
1E
100
AcDbEntity
  8
AM_VIS
100
AcDbLine
 10
179.3425619996936
 20
165.750836257123
 30
0.0
 11
179.3425619996936
 21
175.750836257123
 31
0.0
  0
LINE
  5
5142
330
1E
100
AcDbEntity
  8
AM_VIS
100
AcDbLine
 10
179.3422923324714
 20
165.750836257123
 30
0.0
 11
180.3425619996935
 21
165.750836257123
 31
0.0
  0
LINE
  5
5143
330
1E
100
AcDbEntity
  8
AM_VIS
100
AcDbLine
 10
179.3422923324714
 20
175.750836257123
 30
0.0
 11
180.3425619996935
 21
175.750836257123
 31
0.0
  0
LINE
  5
5144
330
1E
100
AcDbEntity
  8
AM_VIS
100
AcDbLine
 10
185.3425619996936
 20
165.250836257123
 30
0.0
 11
184.8425619996935
 21
165.750836257123
 31
0.0
  0
LINE
  5
5145
330
1E
100
AcDbEntity
  8
AM_VIS
100
AcDbLine
 10
184.8425619996936
 20
175.750836257123
 30
0.0
 11
185.3425619996936
 21
176.2508362571231
 31
0.0
  0
ARC
  5
5146
330
1E
100
AcDbEntity
  8
AM_VIS
100
AcDbCircle
 10
180.3425619996936
 20
94.22925056265569
 30
0.0
 40
1.0
100
AcDbArc
 50
90.0
 51
180.0
  0
LINE
  5
5147
330
1E
100
AcDbEntity
  8
AM_VIS
100
AcDbLine
 10
185.3425619996936
 20
95.22925056265568
 30
0.0
 11
180.3425619996936
 21
95.22925056265568
 31
0.0
  0
LINE
  5
5148
330
1E
100
AcDbEntity
  8
AM_VIS
100
AcDbLine
 10
180.3425619996936
 20
92.54587535301107
 30
0.0
 11
184.8425619996936
 21
92.54587535301107
 31
0.0
  0
LINE
  5
5149
330
1E
100
AcDbEntity
  8
AM_VIS
100
AcDbLine
 10
184.8425619996936
 20
85.91262577230025
 30
0.0
 11
180.3425619996936
 21
85.91262577230025
 31
0.0
  0
LINE
  5
514A
330
1E
100
AcDbEntity
  8
AM_VIS
100
AcDbLine
 10
185.3425619996936
 20
83.22925056265569
 30
0.0
 11
180.3425619996936
 21
83.22925056265569
 31
0.0
  0
SPLINE
  5
514B
330
1E
100
AcDbEntity
  8
AM_VIS
100
AcDbSpline
210
0.0
220
0.0
230
1.0
 70
     8
 71
     3
 72
    26
 73
    22
 74
     0
 42
0.0000000001
 43
0.0000000001
 40
-3.538511744811991
 40
-3.538511744811991
 40
-3.538511744811991
 40
-3.538511744811991
 40
-3.407142786945168
 40
-3.407142786945168
 40
-3.275773829078346
 40
-3.275773829078346
 40
-3.103598980849886
 40
-3.103598980849886
 40
-2.931424132621426
 40
-2.931424132621426
 40
-2.657743087524437
 40
-2.657743087524437
 40
-2.384062042427446
 40
-2.384062042427446
 40
-1.788046531820583
 40
-1.788046531820583
 40
-1.192031021213722
 40
-1.192031021213722
 40
-0.5960155106068612
 40
-0.5960155106068612
 40
0.0
 40
0.0
 40
0.0
 40
0.0
 10
180.3425619996936
 20
85.91262577230025
 30
0.0
 10
180.2987723470713
 20
85.91262577230025
 30
0.0
 10
180.2511918362554
 20
85.91821393433702
 30
0.0
 10
180.1589513749895
 20
85.94146081238193
 30
0.0
 10
180.1142757779371
 20
85.95905740065024
 30
0.0
 10
180.0241026236959
 20
86.00495349405298
 30
0.0
 10
179.9722126757376
 20
86.04016898941962
 30
0.0
 10
179.8776221375717
 20
86.12176871245436
 30
0.0
 10
179.8348136736139
 20
86.16802780906368
 30
0.0
 10
179.7421344402325
 20
86.28420894872249
 30
0.0
 10
179.6894657791069
 20
86.36893035229821
 30
0.0
 10
179.6006752525502
 20
86.54721158449513
 30
0.0
 10
179.5643281216948
 20
86.64065913392017
 30
0.0
 10
179.4740108770687
 20
86.91612989399613
 30
0.0
 10
179.4335673848865
 20
87.11737416901035
 30
0.0
 10
179.3782296897141
 20
87.53325680500267
 30
0.0
 10
179.3635231000394
 20
87.74792010843407
 30
0.0
 10
179.3466108664313
 20
88.1796872525104
 30
0.0
 10
179.3442968025235
 20
88.39671687783619
 30
0.0
 10
179.3422923324714
 20
88.82216270899903
 30
0.0
 10
179.3425619996936
 20
89.03057872578671
 30
0.0
 10
179.3425619996936
 20
89.22925056265569
 30
0.0
  0
LINE
  5
514C
330
1E
100
AcDbEntity
  8
AM_VIS
100
AcDbLine
 10
179.3425619996936
 20
84.22925056265569
 30
0.0
 11
179.3425619996936
 21
89.22925056265569
 31
0.0
  0
LINE
  5
514D
330
1E
100
AcDbEntity
  8
AM_VIS
100
AcDbLine
 10
180.3425619996936
 20
85.91262577230025
 30
0.0
 11
180.3425619996936
 21
83.22925056265569
 31
0.0
  0
ARC
  5
514E
330
1E
100
AcDbEntity
  8
AM_VIS
100
AcDbCircle
 10
180.3425619996936
 20
84.22925056265569
 30
0.0
 40
1.0
100
AcDbArc
 50
180.0
 51
270.0
  0
SPLINE
  5
514F
330
1E
100
AcDbEntity
  8
AM_VIS
100
AcDbSpline
210
0.0
220
0.0
230
1.0
 70
     8
 71
     3
 72
    26
 73
    22
 74
     0
 42
0.0000000001
 43
0.0000000001
 40
0.0
 40
0.0
 40
0.0
 40
0.0
 40
0.5960155106068619
 40
0.5960155106068619
 40
1.192031021213723
 40
1.192031021213723
 40
1.788046531820585
 40
1.788046531820585
 40
2.384062042427447
 40
2.384062042427447
 40
2.657743087524437
 40
2.657743087524437
 40
2.931424132621426
 40
2.931424132621426
 40
3.103598980849886
 40
3.103598980849886
 40
3.275773829078346
 40
3.275773829078346
 40
3.407142786945169
 40
3.407142786945169
 40
3.538511744811992
 40
3.538511744811992
 40
3.538511744811992
 40
3.538511744811992
 10
179.3425619996936
 20
89.22925056265569
 30
0.0
 10
179.3425619996936
 20
89.42792239952462
 30
0.0
 10
179.3422923324714
 20
89.6363384163123
 30
0.0
 10
179.3442968025235
 20
90.06178424747515
 30
0.0
 10
179.3466108664313
 20
90.27881387280093
 30
0.0
 10
179.3635231000394
 20
90.71058101687725
 30
0.0
 10
179.3782296897141
 20
90.9252443203087
 30
0.0
 10
179.4335673848865
 20
91.34112695630097
 30
0.0
 10
179.4740108770687
 20
91.54237123131521
 30
0.0
 10
179.5643281216948
 20
91.81784199139116
 30
0.0
 10
179.6006752525502
 20
91.91128954081619
 30
0.0
 10
179.6894657791069
 20
92.08957077301306
 30
0.0
 10
179.7421344402325
 20
92.17429217658883
 30
0.0
 10
179.8348136736139
 20
92.29047331624759
 30
0.0
 10
179.8776221375717
 20
92.33673241285691
 30
0.0
 10
179.9722126757376
 20
92.41833213589178
 30
0.0
 10
180.0241026236959
 20
92.45354763125835
 30
0.0
 10
180.1142757779371
 20
92.49944372466108
 30
0.0
 10
180.1589513749895
 20
92.51704031292934
 30
0.0
 10
180.2511918362554
 20
92.54028719097437
 30
0.0
 10
180.2987723470713
 20
92.54587535301107
 30
0.0
 10
180.3425619996936
 20
92.54587535301107
 30
0.0
  0
LINE
  5
5150
330
1E
100
AcDbEntity
  8
AM_VIS
100
AcDbLine
 10
179.3425619996936
 20
89.22925056265569
 30
0.0
 11
179.3425619996936
 21
94.22925056265569
 31
0.0
  0
LINE
  5
5151
330
1E
100
AcDbEntity
  8
AM_VIS
100
AcDbLine
 10
180.3425619996936
 20
95.22925056265568
 30
0.0
 11
180.3425619996936
 21
92.54587535301107
 31
0.0
  0
LINE
  5
5152
330
1E
100
AcDbEntity
  8
AM_VIS
100
AcDbLine
 10
184.8425619996936
 20
92.54587535301107
 30
0.0
 11
184.8425619996936
 21
85.91262577230025
 31
0.0
  0
ARC
  5
5153
330
1E
100
AcDbEntity
  8
AM_VIS
100
AcDbCircle
 10
179.8425619996936
 20
89.22925056265569
 30
0.0
 40
6.0
100
AcDbArc
 50
326.4426902380791
 51
336.4435356908993
  0
ARC
  5
5154
330
1E
100
AcDbEntity
  8
AM_VIS
100
AcDbCircle
 10
179.8425619996936
 20
89.22925056265569
 30
0.0
 40
6.0
100
AcDbArc
 50
23.55646430910061
 51
33.55730976192091
  0
DIMENSION
  5
5155
330
1E
100
AcDbEntity
  8
AM_5
100
AcDbDimension
  2
*D19
 10
188.3425619996936
 20
135.250836257123
 30
0.0
 11
186.8425619996936
 21
137.550836257123
 31
0.0
 70
    32
 71
     5
 42
3.0
  3
AM_ISO
100
AcDbAlignedDimension
 13
185.3425619996936
 23
158.250836257123
 33
0.0
 14
188.3425619996936
 24
147.2508362571231
 34
0.0
100
AcDbRotatedDimension
1001
ACAD
1000
DSTYLE
1002
{
1070
   173
1070
     1
1070
     7
1000
GENDOT
1002
}
  0
DIMENSION
  5
5156
330
1E
100
AcDbEntity
  8
AM_5
100
AcDbDimension
  2
*D20
 10
217.3425619996937
 20
128.2508362571231
 30
0.0
 11
202.8425619996937
 21
130.5511315327136
 31
0.0
 70
    32
 71
     5
 42
29.0
  3
AM_ISO
100
AcDbAlignedDimension
 13
188.3425619996936
 23
147.2508362571231
 33
0.0
 14
217.3425619996937
 24
147.2508362571231
 34
0.0
100
AcDbRotatedDimension
  0
DIMENSION
  5
5157
330
1E
100
AcDbEntity
  8
AM_5
100
AcDbDimension
  2
*D21
 10
200.3425619996936
 20
135.250836257123
 30
0.0
 11
194.3425619996936
 21
137.5511315327136
 31
0.0
 70
    32
 71
     5
 42
12.0
  3
AM_ISO
100
AcDbAlignedDimension
 13
188.3425619996936
 23
147.2508362571231
 33
0.0
 14
200.3425619996936
 24
147.2508362571231
 34
0.0
100
AcDbRotatedDimension
1001
ACAD
1000
DSTYLE
1002
{
1070
   173
1070
     1
1070
     6
1000
GENDOT
1002
}
  0
DIMENSION
  5
5158
330
1E
100
AcDbEntity
  8
AM_5
100
AcDbDimension
  2
*D22
 10
210.3425619996937
 20
201.5138178352389
 30
0.0
 11
199.3425619996936
 21
203.8141131108294
 31
0.0
 70
    32
 71
     5
 42
22.0
  3
AM_ISO
100
AcDbAlignedDimension
 13
188.3425619996936
 23
194.250836257123
 33
0.0
 14
210.3425619996937
 24
177.3508362571231
 34
0.0
100
AcDbRotatedDimension
  0
DIMENSION
  5
5159
330
1E
100
AcDbEntity
  8
AM_5
100
AcDbDimension
  2
*D23
 10
258.3425619996936
 20
199.500836257123
 30
0.0
 11
262.3425619996937
 21
201.8008362571231
 31
0.0
 70
    32
 71
     5
 42
8.0
  3
AM_ISO
100
AcDbAlignedDimension
 13
266.3425619996937
 23
187.5008362571231
 33
0.0
 14
258.3425619996936
 24
176.3508362571229
 34
0.0
100
AcDbRotatedDimension
  0
DIMENSION
  5
515A
330
1E
100
AcDbEntity
  8
AM_5
100
AcDbDimension
  2
*D24
 10
251.3425619996937
 20
141.500836257123
 30
0.0
 11
258.8425619996936
 21
143.800836257123
 31
0.0
 70
    32
 71
     5
 42
15.0
  3
AM_ISO
100
AcDbAlignedDimension
 13
266.3425619996937
 23
154.000836257123
 33
0.0
 14
251.3425619996937
 24
153.5008362571231
 34
0.0
100
AcDbRotatedDimension
  0
DIMENSION
  5
515B
330
1E
100
AcDbEntity
  8
AM_5
100
AcDbDimension
  2
*D25
 10
182.8425619996935
 20
83.22925056265569
 30
0.0
 11
182.8425619996935
 21
105.9842436405289
 31
0.0
 70
   160
  1
%%c<>
 71
     5
 42
12.0
  3
AM_ISO
100
AcDbAlignedDimension
 13
185.3425619996936
 23
95.22925056265568
 33
0.0
 14
185.3425619996936
 24
83.22925056265569
 34
0.0
 50
90.0
100
AcDbRotatedDimension
  0
LINE
  5
515C
330
1E
100
AcDbEntity
  8
0
100
AcDbLine
 10
180.3425619996936
 20
92.54587535301107
 30
0.0
 11
184.8425619996936
 21
85.91262577230031
 31
0.0
  0
LINE
  5
515D
330
1E
100
AcDbEntity
  8
0
100
AcDbLine
 10
184.8425619996936
 20
92.54587535301107
 30
0.0
 11
180.3425619996938
 21
85.91262577230025
 31
0.0
  0
LINE
  5
515E
330
1E
100
AcDbEntity
  8
AM_VIS
100
AcDbLine
 10
176.8425619996936
 20
84.22925056265569
 30
0.0
 11
176.8425619996936
 21
94.22925056265569
 31
0.0
  0
LINE
  5
515F
330
1E
100
AcDbEntity
  8
AM_VIS
 62
     3
100
AcDbLine
 10
157.8425619996936
 20
93.7292505626557
 30
0.0
 11
163.3425619996935
 21
93.7292505626557
 31
0.0
  0
LINE
  5
5160
330
1E
100
AcDbEntity
  8
AM_VIS
 62
     3
100
AcDbLine
 10
173.3425619996935
 20
93.7292505626557
 30
0.0
 11
176.8425619996937
 21
93.7292505626557
 31
0.0
  0
LINE
  5
5161
330
1E
100
AcDbEntity
  8
AM_VIS
 62
     3
100
AcDbLine
 10
173.3425619996935
 20
84.7292505626557
 30
0.0
 11
176.8425619996937
 21
84.7292505626557
 31
0.0
  0
LINE
  5
5162
330
1E
100
AcDbEntity
  8
AM_VIS
 62
     3
100
AcDbLine
 10
157.8425619996936
 20
84.7292505626557
 30
0.0
 11
163.3425619996935
 21
84.7292505626557
 31
0.0
  0
LINE
  5
5163
330
1E
100
AcDbEntity
  8
AM_VIS
100
AcDbLine
 10
176.8425619996936
 20
165.750836257123
 30
0.0
 11
176.8425619996936
 21
175.750836257123
 31
0.0
  0
LINE
  5
5164
330
1E
100
AcDbEntity
  8
AM_VIS
 62
     3
100
AcDbLine
 10
173.3425619996935
 20
175.250836257123
 30
0.0
 11
176.8425619996937
 21
175.250836257123
 31
0.0
  0
LINE
  5
5165
330
1E
100
AcDbEntity
  8
AM_VIS
 62
     3
100
AcDbLine
 10
173.3425619996935
 20
166.250836257123
 30
0.0
 11
176.8425619996937
 21
166.250836257123
 31
0.0
  0
LINE
  5
5166
330
1E
100
AcDbEntity
  8
AM_VIS
 62
     3
100
AcDbLine
 10
157.8425619996936
 20
175.250836257123
 30
0.0
 11
163.3425619996935
 21
175.250836257123
 31
0.0
  0
LINE
  5
5167
330
1E
100
AcDbEntity
  8
AM_VIS
 62
     3
100
AcDbLine
 10
157.8425619996936
 20
166.250836257123
 30
0.0
 11
163.3425619996935
 21
166.250836257123
 31
0.0
  0
DIMENSION
  5
5168
330
1E
100
AcDbEntity
  8
AM_5
100
AcDbDimension
  2
*D26
 10
176.8425619996936
 20
60.2486430925631
 30
0.0
 11
167.0925619996936
 21
62.54864309256309
 31
0.0
 70
    32
 71
     5
 42
19.5
  3
AM_ISO
100
AcDbAlignedDimension
 13
157.3425619996936
 23
85.22925056265568
 33
0.0
 14
176.8425619996936
 24
84.22925056265569
 34
0.0
100
AcDbRotatedDimension
  0
DIMENSION
  5
5169
330
1E
100
AcDbEntity
  8
AM_5
100
AcDbDimension
  2
*D27
 10
179.3425619996936
 20
53.24864309256316
 30
0.0
 11
168.3425619996936
 21
55.5489383681537
 31
0.0
 70
    32
 71
     5
 42
22.0
  3
AM_ISO
100
AcDbAlignedDimension
 13
157.3425619996936
 23
85.22925056265568
 33
0.0
 14
179.3425619996936
 24
84.22925056265569
 34
0.0
100
AcDbRotatedDimension
  0
INSERT
  5
516A
330
1E
100
AcDbEntity
  8
AM_5
100
AcDbBlockReference
  2
*S6
 10
56.28434172174252
 20
-71.85949572160541
 30
0.0
  0
TEXT
  5
516B
330
1E
100
AcDbEntity
  8
AM_5
100
AcDbText
 10
135.6263422771431
 20
107.7474982350616
 30
0.0
 40
3.0
  1
M10x1.25
100
AcDbText
  0
INSERT
  5
516C
330
1E
100
AcDbEntity
  8
AM_5
100
AcDbBlockReference
  2
*S7
 10
56.28434172174252
 20
-78.94387223881029
 30
0.0
  0
TEXT
  5
516D
330
1E
100
AcDbEntity
  8
AM_5
100
AcDbText
 10
220.6856714544137
 20
200.5918863182245
 30
0.0
 40
3.0
  1
%%C14x10L
100
AcDbText
  0
TEXT
  5
516E
330
1E
100
AcDbEntity
  8
AM_5
100
AcDbText
 10
220.6856714544137
 20
205.015015219028
 30
0.0
 40
3.0
  1
%%c9 thru
100
AcDbText
  0
INSERT
  5
516F
330
1E
100
AcDbEntity
  8
AM_5
100
AcDbBlockReference
  2
*S8
 10
56.28434172174252
 20
-78.94387223881029
 30
0.0
  0
TEXT
  5
5170
330
1E
100
AcDbEntity
  8
AM_5
100
AcDbText
 10
226.680159434462
 20
146.2238476899414
 30
0.0
 40
3.0
  1
2-PT1/8
100
AcDbText
  0
LINE
  5
5579
330
1E
100
AcDbEntity
  8
AM_VIS
100
AcDbLine
 10
298.3423832733489
 20
-159.1959205546279
 30
0.0
 11
337.3423832733489
 21
-159.1959205546279
 31
0.0
  0
LINE
  5
557A
330
1E
100
AcDbEntity
  8
AM_VIS
100
AcDbLine
 10
298.3423832733489
 20
-159.1959205546279
 30
0.0
 11
296.8423832733489
 21
-157.6959205546279
 31
0.0
  0
LINE
  5
557B
330
1E
100
AcDbEntity
  8
AM_VIS
100
AcDbLine
 10
296.8423832733489
 20
-118.6959205546279
 30
0.0
 11
296.8423832733489
 21
-157.6959205546279
 31
0.0
  0
LINE
  5
557C
330
1E
100
AcDbEntity
  8
AM_VIS
100
AcDbLine
 10
296.8423832733489
 20
-118.6959205546279
 30
0.0
 11
298.3423832733489
 21
-117.1959205546279
 31
0.0
  0
LINE
  5
557D
330
1E
100
AcDbEntity
  8
AM_VIS
100
AcDbLine
 10
337.3423832733489
 20
-117.1959205546279
 30
0.0
 11
298.3423832733489
 21
-117.1959205546279
 31
0.0
  0
LINE
  5
557E
330
1E
100
AcDbEntity
  8
AM_VIS
100
AcDbLine
 10
337.3423832733489
 20
-117.1959205546279
 30
0.0
 11
338.8423832733489
 21
-118.6959205546279
 31
0.0
  0
LINE
  5
557F
330
1E
100
AcDbEntity
  8
AM_VIS
100
AcDbLine
 10
338.8423832733489
 20
-157.6959205546279
 30
0.0
 11
338.8423832733489
 21
-118.6959205546279
 31
0.0
  0
LINE
  5
5580
330
1E
100
AcDbEntity
  8
AM_VIS
100
AcDbLine
 10
338.8423832733489
 20
-157.6959205546279
 30
0.0
 11
337.3423832733489
 21
-159.1959205546279
 31
0.0
  0
CIRCLE
  5
5581
330
1E
100
AcDbEntity
  8
AM_VIS
100
AcDbCircle
 10
317.8423832733489
 20
-138.1959205546279
 30
0.0
 40
16.75
  0
ARC
  5
5582
330
1E
100
AcDbEntity
  8
AM_VIS
100
AcDbCircle
 10
317.8423832733489
 20
-138.1959205546279
 30
0.0
 40
18.75
100
AcDbArc
 50
203.0739180656314
 51
246.9260819343716
  0
ARC
  5
5583
330
1E
100
AcDbEntity
  8
AM_VIS
100
AcDbCircle
 10
317.8423832733489
 20
-138.1959205546279
 30
0.0
 40
18.75
100
AcDbArc
 50
113.0739180656284
 51
156.9260819343677
  0
ARC
  5
5584
330
1E
100
AcDbEntity
  8
AM_VIS
100
AcDbCircle
 10
317.8423832733489
 20
-138.1959205546279
 30
0.0
 40
18.75
100
AcDbArc
 50
23.07391806563233
 51
66.92608193437155
  0
ARC
  5
5585
330
1E
100
AcDbEntity
  8
AM_VIS
100
AcDbCircle
 10
317.8423832733489
 20
-138.1959205546279
 30
0.0
 40
18.75
100
AcDbArc
 50
293.0739180656285
 51
336.9260819343684
  0
LINE
  5
5586
330
1E
100
AcDbEntity
  8
AM_VIS
100
AcDbLine
 10
300.5923832733489
 20
-130.8474513262784
 30
0.0
 11
300.5923832733489
 21
-145.5443897829775
 31
0.0
  0
LINE
  5
5587
330
1E
100
AcDbEntity
  8
AM_VIS
100
AcDbLine
 10
335.0923832733489
 20
-130.8474513262783
 30
0.0
 11
335.0923832733489
 21
-145.5443897829773
 31
0.0
  0
LINE
  5
5588
330
1E
100
AcDbEntity
  8
AM_VIS
100
AcDbLine
 10
310.4939140449995
 20
-155.4459205546279
 30
0.0
 11
325.1908525016987
 21
-155.4459205546279
 31
0.0
  0
LINE
  5
5589
330
1E
100
AcDbEntity
  8
AM_VIS
100
AcDbLine
 10
310.4939140449991
 20
-120.9459205546279
 30
0.0
 11
325.1908525016983
 21
-120.9459205546279
 31
0.0
  0
CIRCLE
  5
558A
330
1E
100
AcDbEntity
  8
AM_VIS
100
AcDbCircle
 10
90.92827826423206
 20
-138.1959205546279
 30
0.0
 40
5.0
  0
CIRCLE
  5
558B
330
1E
100
AcDbEntity
  8
AM_VIS
100
AcDbCircle
 10
90.92827826423206
 20
-138.1959205546279
 30
0.0
 40
4.0
  0
CIRCLE
  5
558C
330
1E
100
AcDbEntity
  8
AM_VIS
100
AcDbCircle
 10
90.92827826423206
 20
-138.1959205546279
 30
0.0
 40
8.0
  0
LINE
  5
558D
330
1E
100
AcDbEntity
  8
AM_VIS
100
AcDbLine
 10
82.92620353326389
 20
-133.5759205546278
 30
0.0
 11
82.92620353326389
 21
-142.8159205546281
 31
0.0
  0
LINE
  5
558E
330
1E
100
AcDbEntity
  8
AM_VIS
100
AcDbLine
 10
82.92620353326389
 20
-142.815920554628
 30
0.0
 11
90.92827826423206
 21
-147.435920554628
 31
0.0
  0
LINE
  5
558F
330
1E
100
AcDbEntity
  8
AM_VIS
100
AcDbLine
 10
90.92827826423206
 20
-147.435920554628
 30
0.0
 11
98.93035299520022
 21
-142.815920554628
 31
0.0
  0
LINE
  5
5590
330
1E
100
AcDbEntity
  8
AM_VIS
100
AcDbLine
 10
98.93035299520022
 20
-133.5759205546278
 30
0.0
 11
98.93035299520022
 21
-142.8159205546281
 31
0.0
  0
LINE
  5
5591
330
1E
100
AcDbEntity
  8
AM_VIS
100
AcDbLine
 10
90.92827826423206
 20
-128.9559205546279
 30
0.0
 11
98.93035299520022
 21
-133.5759205546279
 31
0.0
  0
LINE
  5
5592
330
1E
100
AcDbEntity
  8
AM_VIS
100
AcDbLine
 10
82.92620353326389
 20
-133.5759205546279
 30
0.0
 11
90.92827826423206
 21
-128.9559205546279
 31
0.0
  0
CIRCLE
  5
5593
330
1E
100
AcDbEntity
  8
AM_VIS
100
AcDbCircle
 10
90.92827826423206
 20
-138.1959205546279
 30
0.0
 40
13.0
  0
CIRCLE
  5
5594
330
1E
100
AcDbEntity
  8
AM_VIS
100
AcDbCircle
 10
90.92827826423206
 20
-138.1959205546279
 30
0.0
 40
12.5
  0
CIRCLE
  5
5595
330
1E
100
AcDbEntity
  8
AM_VIS
100
AcDbCircle
 10
75.92827826423206
 20
-123.1959205546279
 30
0.0
 40
2.576499999999999
  0
CIRCLE
  5
5596
330
1E
100
AcDbEntity
  8
AM_VIS
100
AcDbCircle
 10
105.928278264232
 20
-123.1959205546279
 30
0.0
 40
2.576499999999999
  0
CIRCLE
  5
5597
330
1E
100
AcDbEntity
  8
AM_VIS
100
AcDbCircle
 10
75.92827826423206
 20
-153.1959205546279
 30
0.0
 40
2.576499999999999
  0
CIRCLE
  5
5598
330
1E
100
AcDbEntity
  8
AM_VIS
100
AcDbCircle
 10
105.928278264232
 20
-153.1959205546279
 30
0.0
 40
2.576499999999999
  0
LINE
  5
5599
330
1E
100
AcDbEntity
  8
AM_VIS
100
AcDbLine
 10
110.428278264232
 20
-159.1959205546279
 30
0.0
 11
71.42827826423206
 21
-159.1959205546279
 31
0.0
  0
LINE
  5
559A
330
1E
100
AcDbEntity
  8
AM_VIS
100
AcDbLine
 10
71.42827826423206
 20
-117.1959205546279
 30
0.0
 11
110.428278264232
 21
-117.1959205546279
 31
0.0
  0
LINE
  5
559B
330
1E
100
AcDbEntity
  8
AM_VIS
100
AcDbLine
 10
110.428278264232
 20
-117.1959205546279
 30
0.0
 11
111.928278264232
 21
-118.6959205546279
 31
0.0
  0
LINE
  5
559C
330
1E
100
AcDbEntity
  8
AM_VIS
100
AcDbLine
 10
111.928278264232
 20
-118.6959205546279
 30
0.0
 11
111.928278264232
 21
-157.6959205546279
 31
0.0
  0
LINE
  5
559D
330
1E
100
AcDbEntity
  8
AM_VIS
100
AcDbLine
 10
111.928278264232
 20
-157.6959205546279
 30
0.0
 11
110.428278264232
 21
-159.1959205546279
 31
0.0
  0
LINE
  5
559E
330
1E
100
AcDbEntity
  8
AM_VIS
100
AcDbLine
 10
69.92827826423206
 20
-118.6959205546279
 30
0.0
 11
71.42827826423206
 21
-117.1959205546279
 31
0.0
  0
LINE
  5
559F
330
1E
100
AcDbEntity
  8
AM_VIS
100
AcDbLine
 10
69.92827826423206
 20
-157.6959205546279
 30
0.0
 11
69.92827826423206
 21
-118.6959205546279
 31
0.0
  0
LINE
  5
55A0
330
1E
100
AcDbEntity
  8
AM_VIS
100
AcDbLine
 10
71.42827826423206
 20
-159.1959205546279
 30
0.0
 11
69.92827826423206
 21
-157.6959205546279
 31
0.0
  0
LINE
  5
55A1
330
1E
100
AcDbEntity
  8
AM_VIS
100
AcDbLine
 10
158.3425619996936
 20
-51.67433486016062
 30
0.0
 11
158.3425619996936
 21
-61.67433486016062
 31
0.0
  0
LINE
  5
55A2
330
1E
100
AcDbEntity
  8
AM_VIS
100
AcDbLine
 10
157.3425619996936
 20
-60.67433486016063
 30
0.0
 11
157.3425619996936
 21
-52.67433486016063
 31
0.0
  0
LINE
  5
55A3
330
1E
100
AcDbEntity
  8
AM_VIS
100
AcDbLine
 10
163.3425619996936
 20
-51.67433486016062
 30
0.0
 11
158.3425619996936
 21
-51.67433486016062
 31
0.0
  0
LINE
  5
55A4
330
1E
100
AcDbEntity
  8
AM_VIS
100
AcDbLine
 10
179.3425619996936
 20
-51.67433486016062
 30
0.0
 11
173.3425619996935
 21
-51.67433486016062
 31
0.0
  0
LINE
  5
55A5
330
1E
100
AcDbEntity
  8
AM_VIS
100
AcDbLine
 10
163.3425619996936
 20
-61.67433486016062
 30
0.0
 11
158.3425619996936
 21
-61.67433486016062
 31
0.0
  0
LINE
  5
55A6
330
1E
100
AcDbEntity
  8
AM_VIS
100
AcDbLine
 10
179.3425619996936
 20
-61.67433486016062
 30
0.0
 11
173.3425619996935
 21
-61.67433486016062
 31
0.0
  0
LINE
  5
55A7
330
1E
100
AcDbEntity
  8
AM_VIS
100
AcDbLine
 10
157.3425619996936
 20
-60.67433486016063
 30
0.0
 11
158.3425619996936
 21
-61.67433486016062
 31
0.0
  0
LINE
  5
55A8
330
1E
100
AcDbEntity
  8
AM_VIS
100
AcDbLine
 10
157.3425619996936
 20
-52.67433486016063
 30
0.0
 11
158.3425619996936
 21
-51.67433486016062
 31
0.0
  0
LINE
  5
55AB
330
1E
100
AcDbEntity
  8
AM_VIS
100
AcDbLine
 10
249.8425619996937
 20
-39.97433486016064
 30
0.0
 11
249.7425619996936
 21
-39.87433486016062
 31
0.0
  0
LINE
  5
55AC
330
1E
100
AcDbEntity
  8
AM_VIS
100
AcDbLine
 10
249.8425619996937
 20
-73.37433486016061
 30
0.0
 11
249.7425619996936
 21
-73.47433486016064
 31
0.0
  0
LINE
  5
55AD
330
1E
100
AcDbEntity
  8
AM_VIS
100
AcDbLine
 10
249.7425619996936
 20
-39.87433486016062
 30
0.0
 11
218.9425619996937
 21
-39.87433486016062
 31
0.0
  0
LINE
  5
55AE
330
1E
100
AcDbEntity
  8
AM_VIS
100
AcDbLine
 10
249.7425619996936
 20
-73.47433486016064
 30
0.0
 11
218.9425619996937
 21
-73.47433486016064
 31
0.0
  0
LINE
  5
55AF
330
1E
100
AcDbEntity
  8
AM_VIS
100
AcDbLine
 10
218.8425619996936
 20
-73.37433486016061
 30
0.0
 11
218.9425619996937
 21
-73.47433486016064
 31
0.0
  0
LINE
  5
55B0
330
1E
100
AcDbEntity
  8
AM_VIS
100
AcDbLine
 10
218.8425619996936
 20
-39.97433486016064
 30
0.0
 11
218.9425619996937
 21
-39.87433486016062
 31
0.0
  0
LINE
  5
55B1
330
1E
100
AcDbEntity
  8
AM_VIS
100
AcDbLine
 10
168.3425619996936
 20
-64.67433486016068
 30
0.0
 11
168.3425619996936
 21
-48.67433486016057
 31
0.0
  0
LINE
  5
55B2
330
1E
100
AcDbEntity
  8
AM_VIS
100
AcDbLine
 10
163.3425619996936
 20
-64.67433486016062
 30
0.0
 11
163.3425619996936
 21
-48.67433486016063
 31
0.0
  0
LINE
  5
55B3
330
1E
100
AcDbEntity
  8
AM_VIS
100
AcDbLine
 10
168.3425619996935
 20
-48.67433486016057
 30
0.0
 11
168.3413641532106
 21
-48.67226012919246
 31
0.0
  0
LINE
  5
55B4
330
1E
100
AcDbEntity
  8
AM_VIS
100
AcDbLine
 10
168.3425619996935
 20
-64.67433486016068
 30
0.0
 11
168.3413641532106
 21
-64.67640959112879
 31
0.0
  0
LINE
  5
55B5
330
1E
100
AcDbEntity
  8
AM_VIS
100
AcDbLine
 10
163.3425619996936
 20
-64.67433486016062
 30
0.0
 11
163.3437598461765
 21
-64.67640959112879
 31
0.0
  0
LINE
  5
55B6
330
1E
100
AcDbEntity
  8
AM_VIS
100
AcDbLine
 10
163.3425619996936
 20
-48.67433486016063
 30
0.0
 11
163.3437598461765
 21
-48.67226012919246
 31
0.0
  0
LINE
  5
55B7
330
1E
100
AcDbEntity
  8
AM_VIS
100
AcDbLine
 10
163.3437598461765
 20
-48.67226012919246
 30
0.0
 11
164.0584763334888
 21
-48.67226012919246
 31
0.0
  0
LINE
  5
55B8
330
1E
100
AcDbEntity
  8
AM_VIS
100
AcDbLine
 10
167.6266476658985
 20
-48.67226012919246
 30
0.0
 11
168.3413641532106
 21
-48.67226012919246
 31
0.0
  0
LINE
  5
55B9
330
1E
100
AcDbEntity
  8
AM_VIS
100
AcDbLine
 10
163.3437598461765
 20
-64.67640959112879
 30
0.0
 11
164.0584763334888
 21
-64.67640959112879
 31
0.0
  0
LINE
  5
55BA
330
1E
100
AcDbEntity
  8
AM_VIS
100
AcDbLine
 10
167.6266476658986
 20
-64.67640959112879
 30
0.0
 11
168.3413641532106
 21
-64.67640959112879
 31
0.0
  0
LINE
  5
55BB
330
1E
100
AcDbEntity
  8
AM_VIS
100
AcDbLine
 10
164.0584763334888
 20
-64.67640959112879
 30
0.0
 11
167.6266476658985
 21
-64.67640959112879
 31
0.0
  0
SPLINE
  5
55BC
330
1E
100
AcDbEntity
  8
AM_VIS
100
AcDbSpline
210
0.0
220
0.0
230
1.0
 70
    12
 71
     2
 72
     6
 73
     3
 74
     0
 42
0.0000000001
 43
0.0000000001
 40
0.0
 40
0.0
 40
0.0
 40
9.349913295263366
 40
9.349913295263366
 40
9.349913295263366
 10
164.0584763334888
 20
-64.67640959112881
 30
0.0
 41
1.0
 10
162.7247972116608
 20
-60.67537222564468
 30
0.0
 41
1.154700538379229
 10
164.0584763334888
 20
-56.6743348601606
 30
0.0
 41
1.0
  0
SPLINE
  5
55BD
330
1E
100
AcDbEntity
  8
AM_VIS
100
AcDbSpline
210
0.0
220
0.0
230
1.0
 70
    12
 71
     2
 72
     6
 73
     3
 74
     0
 42
0.0000000001
 43
0.0000000001
 40
0.0
 40
0.0
 40
0.0
 40
9.349913295263345
 40
9.349913295263345
 40
9.349913295263345
 10
167.6266476658985
 20
-56.6743348601606
 30
0.0
 41
1.0
 10
168.9603267877264
 20
-60.67537222564476
 30
-0.0000000000000142
 41
1.154700538379244
 10
167.6266476658985
 20
-64.67640959112881
 30
0.0
 41
1.0
  0
LINE
  5
55BE
330
1E
100
AcDbEntity
  8
AM_VIS
100
AcDbLine
 10
167.6266476658985
 20
-56.67433486016069
 30
0.0
 11
164.0584763334888
 21
-56.67433486016069
 31
0.0
  0
SPLINE
  5
55BF
330
1E
100
AcDbEntity
  8
AM_VIS
100
AcDbSpline
210
0.0
220
0.0
230
1.0
 70
    12
 71
     2
 72
     6
 73
     3
 74
     0
 42
0.0000000001
 43
0.0000000001
 40
0.0
 40
0.0
 40
0.0
 40
9.349913295263439
 40
9.349913295263439
 40
9.349913295263439
 10
164.0584763334888
 20
-56.67433486016069
 30
0.0
 41
1.0
 10
162.7247972116608
 20
-52.67329749467653
 30
0.0
 41
1.154700538379229
 10
164.0584763334888
 20
-48.67226012919241
 30
0.0
 41
1.0
  0
LINE
  5
55C0
330
1E
100
AcDbEntity
  8
AM_VIS
100
AcDbLine
 10
167.6266476658985
 20
-48.67226012919246
 30
0.0
 11
164.0584763334888
 21
-48.67226012919246
 31
0.0
  0
SPLINE
  5
55C1
330
1E
100
AcDbEntity
  8
AM_VIS
100
AcDbSpline
210
0.0
220
0.0
230
1.0
 70
    12
 71
     2
 72
     6
 73
     3
 74
     0
 42
0.0000000001
 43
0.0000000001
 40
0.0
 40
0.0
 40
0.0
 40
9.349913295263421
 40
9.349913295263421
 40
9.349913295263421
 10
167.6266476658985
 20
-48.67226012919241
 30
0.0
 41
1.0
 10
168.9603267877264
 20
-52.67329749467656
 30
0.0
 41
1.154700538379191
 10
167.6266476658985
 20
-56.67433486016069
 30
0.0
 41
1.0
  0
LINE
  5
55C2
330
1E
100
AcDbEntity
  8
AM_VIS
100
AcDbLine
 10
173.3425619996935
 20
-64.67433486016068
 30
0.0
 11
173.3425619996935
 21
-48.67433486016057
 31
0.0
  0
LINE
  5
55C3
330
1E
100
AcDbEntity
  8
AM_VIS
100
AcDbLine
 10
168.3425619996935
 20
-64.67433486016062
 30
0.0
 11
168.3425619996935
 21
-48.67433486016063
 31
0.0
  0
LINE
  5
55C4
330
1E
100
AcDbEntity
  8
AM_VIS
100
AcDbLine
 10
173.3425619996935
 20
-48.67433486016057
 30
0.0
 11
173.3413641532106
 21
-48.67226012919246
 31
0.0
  0
LINE
  5
55C5
330
1E
100
AcDbEntity
  8
AM_VIS
100
AcDbLine
 10
173.3425619996935
 20
-64.67433486016068
 30
0.0
 11
173.3413641532106
 21
-64.67640959112879
 31
0.0
  0
LINE
  5
55C6
330
1E
100
AcDbEntity
  8
AM_VIS
100
AcDbLine
 10
168.3425619996935
 20
-64.67433486016062
 30
0.0
 11
168.3437598461765
 21
-64.67640959112879
 31
0.0
  0
LINE
  5
55C7
330
1E
100
AcDbEntity
  8
AM_VIS
100
AcDbLine
 10
168.3425619996935
 20
-48.67433486016063
 30
0.0
 11
168.3437598461765
 21
-48.67226012919246
 31
0.0
  0
LINE
  5
55C8
330
1E
100
AcDbEntity
  8
AM_VIS
100
AcDbLine
 10
168.3437598461765
 20
-48.67226012919246
 30
0.0
 11
169.0584763334886
 21
-48.67226012919246
 31
0.0
  0
LINE
  5
55C9
330
1E
100
AcDbEntity
  8
AM_VIS
100
AcDbLine
 10
172.6266476658985
 20
-48.67226012919241
 30
0.0
 11
173.3413641532106
 21
-48.67226012919241
 31
0.0
  0
LINE
  5
55CA
330
1E
100
AcDbEntity
  8
AM_VIS
100
AcDbLine
 10
168.3437598461765
 20
-64.67640959112879
 30
0.0
 11
169.0584763334888
 21
-64.67640959112879
 31
0.0
  0
LINE
  5
55CB
330
1E
100
AcDbEntity
  8
AM_VIS
100
AcDbLine
 10
172.6266476658985
 20
-64.67640959112873
 30
0.0
 11
173.3413641532106
 21
-64.67640959112873
 31
0.0
  0
LINE
  5
55CC
330
1E
100
AcDbEntity
  8
AM_VIS
100
AcDbLine
 10
169.0584763334886
 20
-64.67640959112879
 30
0.0
 11
172.6266476658985
 21
-64.67640959112879
 31
0.0
  0
SPLINE
  5
55CD
330
1E
100
AcDbEntity
  8
AM_VIS
100
AcDbSpline
210
0.0
220
0.0
230
1.0
 70
    12
 71
     2
 72
     6
 73
     3
 74
     0
 42
0.0000000001
 43
0.0000000001
 40
0.0
 40
0.0
 40
0.0
 40
9.349913295263366
 40
9.349913295263366
 40
9.349913295263366
 10
169.0584763334888
 20
-64.67640959112881
 30
0.0
 41
1.0
 10
167.7247972116605
 20
-60.67537222564468
 30
0.0
 41
1.154700538379229
 10
169.0584763334886
 20
-56.6743348601606
 30
0.0
 41
1.0
  0
SPLINE
  5
55CE
330
1E
100
AcDbEntity
  8
AM_VIS
100
AcDbSpline
210
0.0
220
0.0
230
1.0
 70
    12
 71
     2
 72
     6
 73
     3
 74
     0
 42
0.0000000001
 43
0.0000000001
 40
0.0
 40
0.0
 40
0.0
 40
9.349913295263345
 40
9.349913295263345
 40
9.349913295263345
 10
172.6266476658985
 20
-56.6743348601606
 30
0.0
 41
1.0
 10
173.9603267877264
 20
-60.67537222564467
 30
-0.0000000000000142
 41
1.154700538379244
 10
172.6266476658985
 20
-64.67640959112881
 30
0.0
 41
1.0
  0
LINE
  5
55CF
330
1E
100
AcDbEntity
  8
AM_VIS
100
AcDbLine
 10
172.6266476658985
 20
-56.67433486016069
 30
0.0
 11
169.0584763334886
 21
-56.67433486016069
 31
0.0
  0
SPLINE
  5
55D0
330
1E
100
AcDbEntity
  8
AM_VIS
100
AcDbSpline
210
0.0
220
0.0
230
1.0
 70
    12
 71
     2
 72
     6
 73
     3
 74
     0
 42
0.0000000001
 43
0.0000000001
 40
0.0
 40
0.0
 40
0.0
 40
9.349913295263439
 40
9.349913295263439
 40
9.349913295263439
 10
169.0584763334886
 20
-56.67433486016069
 30
0.0
 41
1.0
 10
167.7247972116605
 20
-52.67329749467653
 30
0.0
 41
1.154700538379229
 10
169.0584763334886
 20
-48.67226012919241
 30
0.0
 41
1.0
  0
LINE
  5
55D1
330
1E
100
AcDbEntity
  8
AM_VIS
100
AcDbLine
 10
172.6266476658985
 20
-48.67226012919246
 30
0.0
 11
169.0584763334886
 21
-48.67226012919246
 31
0.0
  0
SPLINE
  5
55D2
330
1E
100
AcDbEntity
  8
AM_VIS
100
AcDbSpline
210
0.0
220
0.0
230
1.0
 70
    12
 71
     2
 72
     6
 73
     3
 74
     0
 42
0.0000000001
 43
0.0000000001
 40
0.0
 40
0.0
 40
0.0
 40
9.349913295263421
 40
9.349913295263421
 40
9.349913295263421
 10
172.6266476658985
 20
-48.67226012919238
 30
0.0
 41
1.0
 10
173.9603267877263
 20
-52.67329749467656
 30
0.0
 41
1.154700538379191
 10
172.6266476658985
 20
-56.67433486016069
 30
0.0
 41
1.0
  0
LINE
  5
55D3
330
1E
100
AcDbEntity
  8
AM_VIS
100
AcDbLine
 10
218.8425619996936
 20
-73.92433486016057
 30
0.0
 11
218.8425619996936
 21
-39.42433486016057
 31
0.0
  0
LINE
  5
55D5
330
1E
100
AcDbEntity
  8
AM_VIS
100
AcDbLine
 10
185.3425619996936
 20
-69.17433486016057
 30
0.0
 11
185.3425619996936
 21
-44.17433486016057
 31
0.0
  0
CIRCLE
  5
55D7
330
1E
100
AcDbEntity
  8
AM_VIS
100
AcDbCircle
 10
210.3425619996937
 20
-56.67433486016062
 30
0.0
 40
5.0
  0
LINE
  5
55D9
330
1E
100
AcDbEntity
  8
AM_VIS
100
AcDbLine
 10
218.8425619996936
 20
-39.42433486016057
 30
0.0
 11
217.3425619996937
 21
-39.42433486016057
 31
0.0
  0
LINE
  5
55DA
330
1E
100
AcDbEntity
  8
AM_VIS
100
AcDbLine
 10
218.8425619996936
 20
-73.92433486016057
 30
0.0
 11
217.3425619996937
 21
-73.92433486016057
 31
0.0
  0
LINE
  5
55DB
330
1E
100
AcDbEntity
  8
AM_VIS
100
AcDbLine
 10
188.3425619996936
 20
-43.67433486016056
 30
0.0
 11
185.8425619996936
 21
-43.67433486016056
 31
0.0
  0
LINE
  5
55DC
330
1E
100
AcDbEntity
  8
AM_VIS
100
AcDbLine
 10
188.3425619996936
 20
-69.67433486016057
 30
0.0
 11
185.8425619996936
 21
-69.67433486016057
 31
0.0
  0
LINE
  5
55DD
330
1E
100
AcDbEntity
  8
AM_VIS
100
AcDbLine
 10
185.3425619996936
 20
-69.17433486016057
 30
0.0
 11
185.8425619996936
 21
-69.67433486016057
 31
0.0
  0
LINE
  5
55DE
330
1E
100
AcDbEntity
  8
AM_VIS
100
AcDbLine
 10
185.3425619996936
 20
-44.17433486016057
 30
0.0
 11
185.8425619996936
 21
-43.67433486016056
 31
0.0
  0
LINE
  5
55DF
330
1E
100
AcDbEntity
  8
AM_VIS
100
AcDbLine
 10
188.3425619996936
 20
-37.17433486016057
 30
0.0
 11
188.3425619996936
 21
-76.17433486016057
 31
0.0
  0
LINE
  5
55E0
330
1E
100
AcDbEntity
  8
AM_VIS
100
AcDbLine
 10
217.3425619996937
 20
-76.17433486016057
 30
0.0
 11
188.3425619996936
 21
-76.17433486016057
 31
0.0
  0
LINE
  5
55E1
330
1E
100
AcDbEntity
  8
AM_VIS
100
AcDbLine
 10
188.3425619996936
 20
-76.17433486016063
 30
0.0
 11
188.3425619996936
 21
-77.67433486016063
 31
0.0
  0
LINE
  5
55E2
330
1E
100
AcDbEntity
  8
AM_VIS
100
AcDbLine
 10
188.3425619996936
 20
-77.67433486016057
 30
0.0
 11
217.3425619996937
 21
-77.67433486016057
 31
0.0
  0
LINE
  5
55E3
330
1E
100
AcDbEntity
  8
AM_VIS
100
AcDbLine
 10
188.3425619996936
 20
-37.17433486016057
 30
0.0
 11
217.3425619996937
 21
-37.17433486016057
 31
0.0
  0
LINE
  5
55E4
330
1E
100
AcDbEntity
  8
AM_VIS
100
AcDbLine
 10
188.3425619996936
 20
-35.67433486016057
 30
0.0
 11
188.3425619996936
 21
-37.17433486016057
 31
0.0
  0
LINE
  5
55E5
330
1E
100
AcDbEntity
  8
AM_VIS
100
AcDbLine
 10
217.3425619996937
 20
-35.67433486016057
 30
0.0
 11
188.3425619996936
 21
-35.67433486016057
 31
0.0
  0
LINE
  5
55E6
330
1E
100
AcDbEntity
  8
AM_VIS
100
AcDbLine
 10
217.3425619996937
 20
-77.67433486016057
 30
0.0
 11
217.3425619996937
 21
-76.17433486016063
 31
0.0
  0
LINE
  5
55E7
330
1E
100
AcDbEntity
  8
AM_VIS
100
AcDbLine
 10
217.3425619996937
 20
-37.17433486016057
 30
0.0
 11
217.3425619996937
 21
-76.17433486016057
 31
0.0
  0
LINE
  5
55E8
330
1E
100
AcDbEntity
  8
AM_VIS
100
AcDbLine
 10
217.3425619996937
 20
-37.17433486016057
 30
0.0
 11
217.3425619996937
 21
-35.67433486016057
 31
0.0
  0
LINE
  5
55E9
330
1E
100
AcDbEntity
  8
AM_VIS
100
AcDbLine
 10
266.3425619996937
 20
-56.67433486016057
 30
0.0
 11
266.3425619996937
 21
-39.92433486016057
 31
0.0
  0
LINE
  5
55EA
330
1E
100
AcDbEntity
  8
AM_VIS
100
AcDbLine
 10
266.3425619996937
 20
-73.42433486016057
 30
0.0
 11
266.3425619996937
 21
-56.67433486016057
 31
0.0
  0
LINE
  5
55EB
330
1E
100
AcDbEntity
  8
AM_VIS
100
AcDbLine
 10
265.1878614613143
 20
-64.02280408851027
 30
0.0
 11
265.1878614613143
 21
-73.92433486016057
 31
0.0
  0
LINE
  5
55EC
330
1E
100
AcDbEntity
  8
AM_VIS
100
AcDbLine
 10
265.1878614613143
 20
-39.42433486016069
 30
0.0
 11
265.1878614613143
 21
-49.32586563181121
 31
0.0
  0
LINE
  5
55ED
330
1E
100
AcDbEntity
  8
AM_VIS
100
AcDbLine
 10
249.8425619996937
 20
-73.92433486016057
 30
0.0
 11
249.8425619996937
 21
-39.42433486016057
 31
0.0
  0
LINE
  5
55EE
330
1E
100
AcDbEntity
  8
AM_VIS
100
AcDbLine
 10
251.3425619996937
 20
-56.67433486016057
 30
0.0
 11
251.3425619996937
 21
-39.42433486016057
 31
0.0
  0
LINE
  5
55EF
330
1E
100
AcDbEntity
  8
AM_VIS
100
AcDbLine
 10
252.2085874034781
 20
-49.32586563181121
 30
0.0
 11
252.2085874034781
 21
-39.42433486016069
 31
0.0
  0
LINE
  5
55F0
330
1E
100
AcDbEntity
  8
AM_VIS
100
AcDbLine
 10
251.3425619996937
 20
-73.92433486016057
 30
0.0
 11
251.3425619996937
 21
-56.67433486016057
 31
0.0
  0
LINE
  5
55F1
330
1E
100
AcDbEntity
  8
AM_VIS
100
AcDbLine
 10
252.2085874034781
 20
-73.92433486016057
 30
0.0
 11
252.2085874034781
 21
-64.02280408851027
 31
0.0
  0
CIRCLE
  5
55F3
330
1E
100
AcDbEntity
  8
AM_VIS
100
AcDbCircle
 10
258.3425619996936
 20
-56.67433486016079
 30
0.0
 40
5.0
  0
LINE
  5
55F5
330
1E
100
AcDbEntity
  8
AM_VIS
100
AcDbLine
 10
266.3425619996937
 20
-39.92433486016057
 30
0.0
 11
266.0538868650989
 21
-39.42433486016057
 31
0.0
  0
LINE
  5
55F6
330
1E
100
AcDbEntity
  8
AM_VIS
100
AcDbLine
 10
266.3425619996937
 20
-73.42433486016057
 30
0.0
 11
266.0538868650989
 21
-73.92433486016057
 31
0.0
  0
LINE
  5
55F7
330
1E
100
AcDbEntity
  8
AM_VIS
100
AcDbLine
 10
251.3425619996937
 20
-39.42433486016057
 30
0.0
 11
249.8425619996937
 21
-39.42433486016057
 31
0.0
  0
LINE
  5
55F8
330
1E
100
AcDbEntity
  8
AM_VIS
100
AcDbLine
 10
251.3425619996937
 20
-73.92433486016057
 30
0.0
 11
249.8425619996937
 21
-73.92433486016057
 31
0.0
  0
LINE
  5
55F9
330
1E
100
AcDbEntity
  8
AM_VIS
100
AcDbLine
 10
252.2085874034781
 20
-73.92433486016057
 30
0.0
 11
265.1878614613143
 21
-73.92433486016057
 31
0.0
  0
LINE
  5
55FA
330
1E
100
AcDbEntity
  8
AM_VIS
100
AcDbLine
 10
265.1878614613143
 20
-73.92433486016057
 30
0.0
 11
266.0538868650989
 21
-73.92433486016057
 31
0.0
  0
LINE
  5
55FB
330
1E
100
AcDbEntity
  8
AM_VIS
100
AcDbLine
 10
265.1878614613143
 20
-39.42433486016069
 30
0.0
 11
266.0538868650988
 21
-39.42433486016069
 31
0.0
  0
LINE
  5
55FC
330
1E
100
AcDbEntity
  8
AM_VIS
100
AcDbLine
 10
265.1878614613143
 20
-39.42433486016069
 30
0.0
 11
252.2085874034781
 21
-39.42433486016069
 31
0.0
  0
LINE
  5
55FD
330
1E
100
AcDbEntity
  8
AM_VIS
100
AcDbLine
 10
251.3425619996937
 20
-39.42433486016069
 30
0.0
 11
252.2085874034781
 21
-39.42433486016069
 31
0.0
  0
LINE
  5
55FE
330
1E
100
AcDbEntity
  8
AM_VIS
100
AcDbLine
 10
251.3425619996937
 20
-73.92433486016057
 30
0.0
 11
252.2085874034781
 21
-73.92433486016057
 31
0.0
  0
LINE
  5
55FF
330
1E
100
AcDbEntity
  8
AM_VIS
100
AcDbLine
 10
252.2085874034781
 20
-49.32586563181121
 30
0.0
 11
265.1878614613143
 21
-49.32586563181121
 31
0.0
  0
SPLINE
  5
5600
330
1E
100
AcDbEntity
  8
AM_VIS
100
AcDbSpline
210
0.0
220
0.0
230
1.0
 70
    12
 71
     2
 72
     6
 73
     3
 74
     0
 42
0.0000000001
 43
0.0000000001
 40
0.0
 40
0.0
 40
0.0
 40
14.79864858694879
 40
14.79864858694879
 40
14.79864858694879
 10
265.1878614613143
 20
-64.02280408851033
 30
0.0
 41
1.0
 10
266.8506302365805
 20
-56.67433486016077
 30
-0.0000000000000142
 41
1.086956521739135
 10
265.1878614613143
 20
-49.32586563181121
 30
0.0
 41
1.0
  0
LINE
  5
5601
330
1E
100
AcDbEntity
  8
AM_VIS
100
AcDbLine
 10
265.1878614613143
 20
-64.02280408851027
 30
0.0
 11
252.2085874034781
 21
-64.02280408851027
 31
0.0
  0
SPLINE
  5
5602
330
1E
100
AcDbEntity
  8
AM_VIS
100
AcDbSpline
210
0.0
220
0.0
230
1.0
 70
    12
 71
     2
 72
     6
 73
     3
 74
     0
 42
0.0000000001
 43
0.0000000001
 40
7.411046321155877
 40
7.411046321155877
 40
7.411046321155877
 40
14.82209264231175
 40
14.82209264231175
 40
14.82209264231175
 10
251.3425619996937
 20
-56.6743348601606
 30
0.0
 41
1.0
 10
251.3425619996937
 20
-60.19547636541159
 30
0.0
 41
1.021507836910532
 10
252.2085874034781
 20
-64.0228040885103
 30
0.0
 41
1.0
  0
SPLINE
  5
5603
330
1E
100
AcDbEntity
  8
AM_VIS
100
AcDbSpline
210
0.0
220
0.0
230
1.0
 70
    12
 71
     2
 72
     6
 73
     3
 74
     0
 42
0.0000000001
 43
0.0000000001
 40
0.0
 40
0.0
 40
0.0
 40
7.411046321155877
 40
7.411046321155877
 40
7.411046321155877
 10
252.2085874034781
 20
-49.32586563181124
 30
0.0
 41
1.0
 10
251.3425619996937
 20
-53.15319335490991
 30
0.0
 41
1.021507836910515
 10
251.3425619996937
 20
-56.6743348601606
 30
0.0
 41
1.0
  0
LINE
  5
5604
330
1E
100
AcDbEntity
  8
AM_VIS
100
AcDbLine
 10
158.3425619996936
 20
-133.1959205546279
 30
0.0
 11
158.3425619996936
 21
-143.1959205546279
 31
0.0
  0
LINE
  5
5605
330
1E
100
AcDbEntity
  8
AM_VIS
100
AcDbLine
 10
157.3425619996936
 20
-142.1959205546279
 30
0.0
 11
157.3425619996936
 21
-134.1959205546279
 31
0.0
  0
LINE
  5
5606
330
1E
100
AcDbEntity
  8
AM_VIS
100
AcDbLine
 10
163.3425619996936
 20
-133.1959205546279
 30
0.0
 11
158.3425619996936
 21
-133.1959205546279
 31
0.0
  0
LINE
  5
5607
330
1E
100
AcDbEntity
  8
AM_VIS
100
AcDbLine
 10
179.3425619996936
 20
-133.1959205546279
 30
0.0
 11
173.3425619996935
 21
-133.1959205546279
 31
0.0
  0
LINE
  5
5608
330
1E
100
AcDbEntity
  8
AM_VIS
100
AcDbLine
 10
163.3425619996936
 20
-143.1959205546279
 30
0.0
 11
158.3425619996936
 21
-143.1959205546279
 31
0.0
  0
LINE
  5
5609
330
1E
100
AcDbEntity
  8
AM_VIS
100
AcDbLine
 10
179.3425619996936
 20
-143.1959205546279
 30
0.0
 11
173.3425619996935
 21
-143.1959205546279
 31
0.0
  0
LINE
  5
560A
330
1E
100
AcDbEntity
  8
AM_VIS
100
AcDbLine
 10
157.3425619996936
 20
-142.1959205546279
 30
0.0
 11
158.3425619996936
 21
-143.1959205546279
 31
0.0
  0
LINE
  5
560B
330
1E
100
AcDbEntity
  8
AM_VIS
100
AcDbLine
 10
157.3425619996936
 20
-134.1959205546279
 30
0.0
 11
158.3425619996936
 21
-133.1959205546279
 31
0.0
  0
LINE
  5
560E
330
1E
100
AcDbEntity
  8
AM_VIS
100
AcDbLine
 10
249.8425619996937
 20
-121.4959205546279
 30
0.0
 11
249.7425619996936
 21
-121.3959205546279
 31
0.0
  0
LINE
  5
560F
330
1E
100
AcDbEntity
  8
AM_VIS
100
AcDbLine
 10
249.8425619996937
 20
-154.8959205546279
 30
0.0
 11
249.7425619996936
 21
-154.9959205546279
 31
0.0
  0
LINE
  5
5610
330
1E
100
AcDbEntity
  8
AM_VIS
100
AcDbLine
 10
249.7425619996936
 20
-121.3959205546279
 30
0.0
 11
218.9425619996937
 21
-121.3959205546279
 31
0.0
  0
LINE
  5
5611
330
1E
100
AcDbEntity
  8
AM_VIS
100
AcDbLine
 10
249.7425619996936
 20
-154.9959205546279
 30
0.0
 11
218.9425619996937
 21
-154.9959205546279
 31
0.0
  0
LINE
  5
5612
330
1E
100
AcDbEntity
  8
AM_VIS
100
AcDbLine
 10
218.8425619996936
 20
-154.8959205546279
 30
0.0
 11
218.9425619996937
 21
-154.9959205546279
 31
0.0
  0
LINE
  5
5613
330
1E
100
AcDbEntity
  8
AM_VIS
100
AcDbLine
 10
218.8425619996936
 20
-121.4959205546279
 30
0.0
 11
218.9425619996937
 21
-121.3959205546279
 31
0.0
  0
LINE
  5
5614
330
1E
100
AcDbEntity
  8
AM_VIS
100
AcDbLine
 10
168.3425619996935
 20
-138.1959205546279
 30
0.0
 11
168.3425619996935
 21
-130.1959205546279
 31
0.0
  0
LINE
  5
5615
330
1E
100
AcDbEntity
  8
AM_VIS
100
AcDbLine
 10
168.3425619996935
 20
-146.1959205546279
 30
0.0
 11
168.3425619996935
 21
-138.1959205546279
 31
0.0
  0
LINE
  5
5616
330
1E
100
AcDbEntity
  8
AM_VIS
100
AcDbLine
 10
163.3425619996936
 20
-138.1959205546279
 30
0.0
 11
163.3425619996936
 21
-130.1959205546279
 31
0.0
  0
LINE
  5
5617
330
1E
100
AcDbEntity
  8
AM_VIS
100
AcDbLine
 10
163.3425619996936
 20
-146.1959205546279
 30
0.0
 11
163.3425619996936
 21
-138.1959205546279
 31
0.0
  0
LINE
  5
5618
330
1E
100
AcDbEntity
  8
AM_VIS
100
AcDbLine
 10
168.3425619996935
 20
-130.1959205546279
 30
0.0
 11
167.6266476658985
 21
-128.9559205546279
 31
0.0
  0
LINE
  5
5619
330
1E
100
AcDbEntity
  8
AM_VIS
100
AcDbLine
 10
168.3425619996935
 20
-146.1959205546279
 30
0.0
 11
167.6266476658985
 21
-147.4359205546279
 31
0.0
  0
LINE
  5
561A
330
1E
100
AcDbEntity
  8
AM_VIS
100
AcDbLine
 10
163.3425619996936
 20
-146.1959205546279
 30
0.0
 11
164.0584763334888
 21
-147.4359205546279
 31
0.0
  0
LINE
  5
561B
330
1E
100
AcDbEntity
  8
AM_VIS
100
AcDbLine
 10
163.3425619996936
 20
-130.1959205546279
 30
0.0
 11
164.0584763334888
 21
-128.9559205546279
 31
0.0
  0
LINE
  5
561C
330
1E
100
AcDbEntity
  8
AM_VIS
100
AcDbLine
 10
167.6266476658985
 20
-147.435920554628
 30
0.0
 11
164.0584763334888
 21
-147.435920554628
 31
0.0
  0
SPLINE
  5
561D
330
1E
100
AcDbEntity
  8
AM_VIS
100
AcDbSpline
210
0.0
220
0.0
230
1.0
 70
    12
 71
     2
 72
     6
 73
     3
 74
     0
 42
0.0000000001
 43
0.0000000001
 40
0.0
 40
0.0
 40
0.0
 40
9.349913295263435
 40
9.349913295263435
 40
9.349913295263435
 10
164.0584763334888
 20
-147.435920554628
 30
0.0
 41
1.0
 10
162.7247972116608
 20
-145.125920554628
 30
0.0
 41
1.154700538379229
 10
164.0584763334888
 20
-142.815920554628
 30
0.0
 41
1.0
  0
SPLINE
  5
561E
330
1E
100
AcDbEntity
  8
AM_VIS
100
AcDbSpline
210
0.0
220
0.0
230
1.0
 70
    12
 71
     2
 72
     6
 73
     3
 74
     0
 42
0.0000000001
 43
0.0000000001
 40
0.0
 40
0.0
 40
0.0
 40
9.349913295263416
 40
9.349913295263416
 40
9.349913295263416
 10
167.6266476658985
 20
-142.815920554628
 30
0.0
 41
1.0
 10
168.9603267877264
 20
-145.125920554628
 30
0.0
 41
1.154700538379191
 10
167.6266476658985
 20
-147.435920554628
 30
0.0
 41
1.0
  0
LINE
  5
561F
330
1E
100
AcDbEntity
  8
AM_VIS
100
AcDbLine
 10
167.6266476658985
 20
-142.8159205546281
 30
0.0
 11
164.0584763334888
 21
-142.8159205546281
 31
0.0
  0
SPLINE
  5
5620
330
1E
100
AcDbEntity
  8
AM_VIS
100
AcDbSpline
210
0.0
220
0.0
230
1.0
 70
    12
 71
     2
 72
     6
 73
     3
 74
     0
 42
0.0000000001
 43
0.0000000001
 40
0.0
 40
0.0
 40
0.0
 40
9.349913295263709
 40
9.349913295263709
 40
9.349913295263709
 10
164.0584763334888
 20
-142.8159205546281
 30
0.0
 41
1.0
 10
162.7247972116605
 20
-138.1959205546279
 30
0.0
 41
1.154700538379269
 10
164.0584763334888
 20
-133.5759205546278
 30
0.0
 41
1.0
  0
SPLINE
  5
5621
330
1E
100
AcDbEntity
  8
AM_VIS
100
AcDbSpline
210
0.0
220
0.0
230
1.0
 70
    12
 71
     2
 72
     6
 73
     3
 74
     0
 42
0.0000000001
 43
0.0000000001
 40
0.0
 40
0.0
 40
0.0
 40
9.349913295263689
 40
9.349913295263689
 40
9.349913295263689
 10
167.6266476658985
 20
-133.5759205546278
 30
0.0
 41
1.0
 10
168.9603267877267
 20
-138.1959205546279
 30
0.0
 41
1.154700538379229
 10
167.6266476658985
 20
-142.8159205546281
 30
0.0
 41
1.0
  0
LINE
  5
5622
330
1E
100
AcDbEntity
  8
AM_VIS
100
AcDbLine
 10
164.0584763334888
 20
-133.5759205546278
 30
0.0
 11
167.6266476658985
 21
-133.5759205546278
 31
0.0
  0
SPLINE
  5
5623
330
1E
100
AcDbEntity
  8
AM_VIS
100
AcDbSpline
210
0.0
220
0.0
230
1.0
 70
    12
 71
     2
 72
     6
 73
     3
 74
     0
 42
0.0000000001
 43
0.0000000001
 40
0.0
 40
0.0
 40
0.0
 40
9.349913295263366
 40
9.349913295263366
 40
9.349913295263366
 10
164.0584763334888
 20
-133.5759205546279
 30
0.0
 41
1.0
 10
162.7247972116608
 20
-131.2659205546279
 30
0.0
 41
1.154700538379229
 10
164.0584763334888
 20
-128.9559205546279
 30
0.0
 41
1.0
  0
SPLINE
  5
5624
330
1E
100
AcDbEntity
  8
AM_VIS
100
AcDbSpline
210
0.0
220
0.0
230
1.0
 70
    12
 71
     2
 72
     6
 73
     3
 74
     0
 42
0.0000000001
 43
0.0000000001
 40
0.0
 40
0.0
 40
0.0
 40
9.349913295263345
 40
9.349913295263345
 40
9.349913295263345
 10
167.6266476658985
 20
-128.9559205546279
 30
0.0
 41
1.0
 10
168.9603267877264
 20
-131.2659205546278
 30
0.0
 41
1.154700538379244
 10
167.6266476658985
 20
-133.5759205546279
 30
0.0
 41
1.0
  0
LINE
  5
5625
330
1E
100
AcDbEntity
  8
AM_VIS
100
AcDbLine
 10
167.6266476658985
 20
-128.9559205546279
 30
0.0
 11
164.0584763334888
 21
-128.9559205546279
 31
0.0
  0
LINE
  5
5626
330
1E
100
AcDbEntity
  8
AM_VIS
100
AcDbLine
 10
173.3425619996935
 20
-138.1959205546279
 30
0.0
 11
173.3425619996935
 21
-130.1959205546279
 31
0.0
  0
LINE
  5
5627
330
1E
100
AcDbEntity
  8
AM_VIS
100
AcDbLine
 10
173.3425619996935
 20
-146.1959205546279
 30
0.0
 11
173.3425619996935
 21
-138.1959205546279
 31
0.0
  0
LINE
  5
5628
330
1E
100
AcDbEntity
  8
AM_VIS
100
AcDbLine
 10
168.3425619996935
 20
-138.1959205546279
 30
0.0
 11
168.3425619996935
 21
-130.1959205546279
 31
0.0
  0
LINE
  5
5629
330
1E
100
AcDbEntity
  8
AM_VIS
100
AcDbLine
 10
168.3425619996935
 20
-146.1959205546279
 30
0.0
 11
168.3425619996935
 21
-138.1959205546279
 31
0.0
  0
LINE
  5
562A
330
1E
100
AcDbEntity
  8
AM_VIS
100
AcDbLine
 10
173.3425619996935
 20
-130.1959205546279
 30
0.0
 11
172.6266476658985
 21
-128.9559205546279
 31
0.0
  0
LINE
  5
562B
330
1E
100
AcDbEntity
  8
AM_VIS
100
AcDbLine
 10
173.3425619996935
 20
-146.1959205546279
 30
0.0
 11
172.6266476658985
 21
-147.4359205546279
 31
0.0
  0
LINE
  5
562C
330
1E
100
AcDbEntity
  8
AM_VIS
100
AcDbLine
 10
168.3425619996935
 20
-146.1959205546279
 30
0.0
 11
169.0584763334886
 21
-147.4359205546279
 31
0.0
  0
LINE
  5
562D
330
1E
100
AcDbEntity
  8
AM_VIS
100
AcDbLine
 10
168.3425619996935
 20
-130.1959205546279
 30
0.0
 11
169.0584763334886
 21
-128.9559205546279
 31
0.0
  0
LINE
  5
562E
330
1E
100
AcDbEntity
  8
AM_VIS
100
AcDbLine
 10
172.6266476658985
 20
-147.435920554628
 30
0.0
 11
169.0584763334886
 21
-147.435920554628
 31
0.0
  0
SPLINE
  5
562F
330
1E
100
AcDbEntity
  8
AM_VIS
100
AcDbSpline
210
0.0
220
0.0
230
1.0
 70
    12
 71
     2
 72
     6
 73
     3
 74
     0
 42
0.0000000001
 43
0.0000000001
 40
0.0
 40
0.0
 40
0.0
 40
9.349913295263435
 40
9.349913295263435
 40
9.349913295263435
 10
169.0584763334886
 20
-147.435920554628
 30
0.0
 41
1.0
 10
167.7247972116605
 20
-145.125920554628
 30
0.0
 41
1.154700538379229
 10
169.0584763334888
 20
-142.815920554628
 30
0.0
 41
1.0
  0
SPLINE
  5
5630
330
1E
100
AcDbEntity
  8
AM_VIS
100
AcDbSpline
210
0.0
220
0.0
230
1.0
 70
    12
 71
     2
 72
     6
 73
     3
 74
     0
 42
0.0000000001
 43
0.0000000001
 40
0.0
 40
0.0
 40
0.0
 40
9.349913295263416
 40
9.349913295263416
 40
9.349913295263416
 10
172.6266476658985
 20
-142.815920554628
 30
0.0
 41
1.0
 10
173.9603267877263
 20
-145.125920554628
 30
0.0
 41
1.154700538379191
 10
172.6266476658985
 20
-147.435920554628
 30
0.0
 41
1.0
  0
LINE
  5
5631
330
1E
100
AcDbEntity
  8
AM_VIS
100
AcDbLine
 10
172.6266476658985
 20
-142.8159205546281
 30
0.0
 11
169.0584763334886
 21
-142.8159205546281
 31
0.0
  0
SPLINE
  5
5632
330
1E
100
AcDbEntity
  8
AM_VIS
100
AcDbSpline
210
0.0
220
0.0
230
1.0
 70
    12
 71
     2
 72
     6
 73
     3
 74
     0
 42
0.0000000001
 43
0.0000000001
 40
0.0
 40
0.0
 40
0.0
 40
9.349913295263709
 40
9.349913295263709
 40
9.349913295263709
 10
169.0584763334888
 20
-142.8159205546281
 30
0.0
 41
1.0
 10
167.7247972116604
 20
-138.1959205546279
 30
0.0
 41
1.154700538379269
 10
169.0584763334888
 20
-133.5759205546278
 30
0.0
 41
1.0
  0
SPLINE
  5
5633
330
1E
100
AcDbEntity
  8
AM_VIS
100
AcDbSpline
210
0.0
220
0.0
230
1.0
 70
    12
 71
     2
 72
     6
 73
     3
 74
     0
 42
0.0000000001
 43
0.0000000001
 40
0.0
 40
0.0
 40
0.0
 40
9.349913295263689
 40
9.349913295263689
 40
9.349913295263689
 10
172.6266476658985
 20
-133.5759205546278
 30
0.0
 41
1.0
 10
173.9603267877265
 20
-138.1959205546279
 30
0.0
 41
1.154700538379229
 10
172.6266476658985
 20
-142.8159205546281
 30
0.0
 41
1.0
  0
LINE
  5
5634
330
1E
100
AcDbEntity
  8
AM_VIS
100
AcDbLine
 10
169.0584763334886
 20
-133.5759205546278
 30
0.0
 11
172.6266476658985
 21
-133.5759205546278
 31
0.0
  0
SPLINE
  5
5635
330
1E
100
AcDbEntity
  8
AM_VIS
100
AcDbSpline
210
0.0
220
0.0
230
1.0
 70
    12
 71
     2
 72
     6
 73
     3
 74
     0
 42
0.0000000001
 43
0.0000000001
 40
0.0
 40
0.0
 40
0.0
 40
9.349913295263366
 40
9.349913295263366
 40
9.349913295263366
 10
169.0584763334888
 20
-133.5759205546279
 30
0.0
 41
1.0
 10
167.7247972116605
 20
-131.2659205546279
 30
0.0
 41
1.154700538379229
 10
169.0584763334886
 20
-128.9559205546279
 30
0.0
 41
1.0
  0
SPLINE
  5
5636
330
1E
100
AcDbEntity
  8
AM_VIS
100
AcDbSpline
210
0.0
220
0.0
230
1.0
 70
    12
 71
     2
 72
     6
 73
     3
 74
     0
 42
0.0000000001
 43
0.0000000001
 40
0.0
 40
0.0
 40
0.0
 40
9.349913295263345
 40
9.349913295263345
 40
9.349913295263345
 10
172.6266476658985
 20
-128.9559205546279
 30
0.0
 41
1.0
 10
173.9603267877264
 20
-131.2659205546278
 30
0.0
 41
1.154700538379244
 10
172.6266476658985
 20
-133.5759205546279
 30
0.0
 41
1.0
  0
LINE
  5
5637
330
1E
100
AcDbEntity
  8
AM_VIS
100
AcDbLine
 10
172.6266476658985
 20
-128.9559205546279
 30
0.0
 11
169.0584763334886
 21
-128.9559205546279
 31
0.0
  0
LINE
  5
5638
330
1E
100
AcDbEntity
  8
AM_VIS
100
AcDbLine
 10
218.8425619996936
 20
-155.4459205546279
 30
0.0
 11
218.8425619996936
 21
-120.9459205546279
 31
0.0
  0
LINE
  5
563B
330
1E
100
AcDbEntity
  8
AM_VIS
100
AcDbLine
 10
185.3425619996936
 20
-138.1959205546279
 30
0.0
 11
185.3425619996936
 21
-125.6959205546279
 31
0.0
  0
LINE
  5
563C
330
1E
100
AcDbEntity
  8
AM_VIS
100
AcDbLine
 10
185.3425619996936
 20
-150.6959205546279
 30
0.0
 11
185.3425619996936
 21
-138.1959205546279
 31
0.0
  0
LINE
  5
563D
330
1E
100
AcDbEntity
  8
AM_VIS
100
AcDbLine
 10
218.8425619996936
 20
-120.9459205546279
 30
0.0
 11
217.3425619996937
 21
-120.9459205546279
 31
0.0
  0
LINE
  5
563E
330
1E
100
AcDbEntity
  8
AM_VIS
100
AcDbLine
 10
218.8425619996936
 20
-155.4459205546279
 30
0.0
 11
217.3425619996937
 21
-155.4459205546279
 31
0.0
  0
LINE
  5
563F
330
1E
100
AcDbEntity
  8
AM_VIS
100
AcDbLine
 10
188.3425619996936
 20
-125.1959205546279
 30
0.0
 11
185.8425619996936
 21
-125.1959205546279
 31
0.0
  0
LINE
  5
5640
330
1E
100
AcDbEntity
  8
AM_VIS
100
AcDbLine
 10
188.3425619996936
 20
-151.1959205546279
 30
0.0
 11
185.8425619996936
 21
-151.1959205546279
 31
0.0
  0
LINE
  5
5641
330
1E
100
AcDbEntity
  8
AM_VIS
100
AcDbLine
 10
185.3425619996936
 20
-150.6959205546279
 30
0.0
 11
185.8425619996936
 21
-151.1959205546279
 31
0.0
  0
LINE
  5
5642
330
1E
100
AcDbEntity
  8
AM_VIS
100
AcDbLine
 10
185.3425619996936
 20
-125.6959205546279
 30
0.0
 11
185.8425619996936
 21
-125.1959205546279
 31
0.0
  0
LINE
  5
5643
330
1E
100
AcDbEntity
  8
AM_VIS
100
AcDbLine
 10
217.3425619996937
 20
-117.1959205546279
 30
0.0
 11
188.3425619996936
 21
-117.1959205546279
 31
0.0
  0
LINE
  5
5644
330
1E
100
AcDbEntity
  8
AM_VIS
100
AcDbLine
 10
188.3425619996936
 20
-117.1959205546279
 30
0.0
 11
188.3425619996936
 21
-118.6959205546279
 31
0.0
  0
LINE
  5
5645
330
1E
100
AcDbEntity
  8
AM_VIS
100
AcDbLine
 10
188.3425619996936
 20
-118.6959205546279
 30
0.0
 11
188.3425619996936
 21
-157.6959205546279
 31
0.0
  0
LINE
  5
5646
330
1E
100
AcDbEntity
  8
AM_VIS
100
AcDbLine
 10
188.3425619996936
 20
-118.6959205546279
 30
0.0
 11
217.3425619996937
 21
-118.6959205546279
 31
0.0
  0
LINE
  5
5647
330
1E
100
AcDbEntity
  8
AM_VIS
100
AcDbLine
 10
217.3425619996937
 20
-157.6959205546279
 30
0.0
 11
188.3425619996936
 21
-157.6959205546279
 31
0.0
  0
LINE
  5
5648
330
1E
100
AcDbEntity
  8
AM_VIS
100
AcDbLine
 10
188.3425619996936
 20
-159.1959205546279
 30
0.0
 11
217.3425619996937
 21
-159.1959205546279
 31
0.0
  0
LINE
  5
5649
330
1E
100
AcDbEntity
  8
AM_VIS
100
AcDbLine
 10
188.3425619996936
 20
-157.6959205546279
 30
0.0
 11
188.3425619996936
 21
-159.1959205546279
 31
0.0
  0
LINE
  5
564A
330
1E
100
AcDbEntity
  8
AM_VIS
100
AcDbLine
 10
217.3425619996937
 20
-159.1959205546279
 30
0.0
 11
217.3425619996937
 21
-157.6959205546279
 31
0.0
  0
LINE
  5
564B
330
1E
100
AcDbEntity
  8
AM_VIS
100
AcDbLine
 10
217.3425619996937
 20
-118.6959205546279
 30
0.0
 11
217.3425619996937
 21
-157.6959205546279
 31
0.0
  0
LINE
  5
564C
330
1E
100
AcDbEntity
  8
AM_VIS
100
AcDbLine
 10
217.3425619996937
 20
-118.6959205546279
 30
0.0
 11
217.3425619996937
 21
-117.1959205546279
 31
0.0
  0
LINE
  5
564D
330
1E
100
AcDbEntity
  8
AM_VIS
100
AcDbLine
 10
266.3425619996937
 20
-154.9459205546279
 30
0.0
 11
266.3425619996937
 21
-121.4459205546279
 31
0.0
  0
LINE
  5
564E
330
1E
100
AcDbEntity
  8
AM_VIS
100
AcDbLine
 10
265.1878614613143
 20
-145.5443897829774
 30
0.0
 11
265.1878614613143
 21
-155.445920554628
 31
0.0
  0
LINE
  5
564F
330
1E
100
AcDbEntity
  8
AM_VIS
100
AcDbLine
 10
265.1878614613143
 20
-120.945920554628
 30
0.0
 11
265.1878614613143
 21
-130.8474513262784
 31
0.0
  0
LINE
  5
5650
330
1E
100
AcDbEntity
  8
AM_VIS
100
AcDbLine
 10
249.8425619996937
 20
-155.445920554628
 30
0.0
 11
249.8425619996937
 21
-120.9459205546279
 31
0.0
  0
LINE
  5
5651
330
1E
100
AcDbEntity
  8
AM_VIS
100
AcDbLine
 10
251.3425619996937
 20
-155.445920554628
 30
0.0
 11
251.3425619996937
 21
-138.1959205546279
 31
0.0
  0
LINE
  5
5652
330
1E
100
AcDbEntity
  8
AM_VIS
100
AcDbLine
 10
252.2085874034781
 20
-155.445920554628
 30
0.0
 11
252.2085874034781
 21
-145.5443897829774
 31
0.0
  0
LINE
  5
5653
330
1E
100
AcDbEntity
  8
AM_VIS
100
AcDbLine
 10
251.3425619996937
 20
-138.1959205546279
 30
0.0
 11
251.3425619996937
 21
-120.9459205546279
 31
0.0
  0
LINE
  5
5654
330
1E
100
AcDbEntity
  8
AM_VIS
100
AcDbLine
 10
252.2085874034781
 20
-130.8474513262784
 30
0.0
 11
252.2085874034781
 21
-120.945920554628
 31
0.0
  0
LINE
  5
5655
330
1E
100
AcDbEntity
  8
AM_VIS
100
AcDbLine
 10
266.3425619996937
 20
-121.4459205546279
 30
0.0
 11
266.0538868650989
 21
-120.9459205546279
 31
0.0
  0
LINE
  5
5656
330
1E
100
AcDbEntity
  8
AM_VIS
100
AcDbLine
 10
266.3425619996937
 20
-154.9459205546279
 30
0.0
 11
266.0538868650989
 21
-155.4459205546279
 31
0.0
  0
LINE
  5
5657
330
1E
100
AcDbEntity
  8
AM_VIS
100
AcDbLine
 10
251.3425619996937
 20
-120.9459205546279
 30
0.0
 11
249.8425619996937
 21
-120.9459205546279
 31
0.0
  0
LINE
  5
5658
330
1E
100
AcDbEntity
  8
AM_VIS
100
AcDbLine
 10
251.3425619996937
 20
-155.445920554628
 30
0.0
 11
249.8425619996937
 21
-155.445920554628
 31
0.0
  0
LINE
  5
5659
330
1E
100
AcDbEntity
  8
AM_VIS
100
AcDbLine
 10
252.2085874034781
 20
-130.8474513262784
 30
0.0
 11
265.1878614613143
 21
-130.8474513262784
 31
0.0
  0
LINE
  5
565A
330
1E
100
AcDbEntity
  8
AM_VIS
100
AcDbLine
 10
265.1878614613143
 20
-145.5443897829774
 30
0.0
 11
252.2085874034781
 21
-145.5443897829774
 31
0.0
  0
SPLINE
  5
565B
330
1E
100
AcDbEntity
  8
AM_VIS
100
AcDbSpline
210
0.0
220
0.0
230
1.0
 70
    12
 71
     2
 72
     6
 73
     3
 74
     0
 42
0.0000000001
 43
0.0000000001
 40
0.0
 40
0.0
 40
0.0
 40
14.79864858694877
 40
14.79864858694877
 40
14.79864858694877
 10
265.1878614613143
 20
-145.5443897829775
 30
0.0
 41
1.0
 10
266.8506302365803
 20
-138.1959205546279
 30
0.0
 41
1.08695652173913
 10
265.1878614613143
 20
-130.8474513262784
 30
0.0
 41
1.0
  0
LINE
  5
565C
330
1E
100
AcDbEntity
  8
AM_VIS
100
AcDbLine
 10
252.2085874034781
 20
-155.445920554628
 30
0.0
 11
265.1878614613143
 21
-155.445920554628
 31
0.0
  0
LINE
  5
565D
330
1E
100
AcDbEntity
  8
AM_VIS
100
AcDbLine
 10
265.1878614613143
 20
-155.4459205546279
 30
0.0
 11
266.0538868650989
 21
-155.4459205546279
 31
0.0
  0
SPLINE
  5
565E
330
1E
100
AcDbEntity
  8
AM_VIS
100
AcDbSpline
210
0.0
220
0.0
230
1.0
 70
    12
 71
     2
 72
     6
 73
     3
 74
     0
 42
0.0000000001
 43
0.0000000001
 40
7.411046321155879
 40
7.411046321155879
 40
7.411046321155879
 40
14.82209264231176
 40
14.82209264231176
 40
14.82209264231176
 10
251.3425619996937
 20
-138.1959205546279
 30
0.0
 41
1.0
 10
251.3425619996933
 20
-141.7170620598789
 30
0.0
 41
1.021507836910524
 10
252.2085874034781
 20
-145.5443897829775
 30
0.0
 41
1.0
  0
LINE
  5
565F
330
1E
100
AcDbEntity
  8
AM_VIS
100
AcDbLine
 10
251.3425619996937
 20
-155.445920554628
 30
0.0
 11
252.2085874034781
 21
-155.445920554628
 31
0.0
  0
SPLINE
  5
5660
330
1E
100
AcDbEntity
  8
AM_VIS
100
AcDbSpline
210
0.0
220
0.0
230
1.0
 70
    12
 71
     2
 72
     6
 73
     3
 74
     0
 42
0.0000000001
 43
0.0000000001
 40
0.0
 40
0.0
 40
0.0
 40
7.411046321155879
 40
7.411046321155879
 40
7.411046321155879
 10
252.2085874034781
 20
-130.8474513262784
 30
0.0
 41
1.0
 10
251.3425619996933
 20
-134.6747790493771
 30
0.0
 41
1.021507836910524
 10
251.3425619996937
 20
-138.1959205546279
 30
0.0
 41
1.0
  0
LINE
  5
5661
330
1E
100
AcDbEntity
  8
AM_VIS
100
AcDbLine
 10
265.1878614613143
 20
-120.945920554628
 30
0.0
 11
266.0538868650989
 21
-120.945920554628
 31
0.0
  0
LINE
  5
5662
330
1E
100
AcDbEntity
  8
AM_VIS
100
AcDbLine
 10
265.1878614613143
 20
-120.945920554628
 30
0.0
 11
252.2085874034781
 21
-120.945920554628
 31
0.0
  0
LINE
  5
5663
330
1E
100
AcDbEntity
  8
AM_VIS
100
AcDbLine
 10
251.3425619996937
 20
-120.945920554628
 30
0.0
 11
252.2085874034781
 21
-120.945920554628
 31
0.0
  0
LINE
  5
5664
330
1E
100
AcDbEntity
  8
AM_7
100
AcDbLine
 10
317.8423832733489
 20
-136.3959205546279
 30
0.0
 11
317.8423832733489
 21
-117.8459205546279
 31
0.0
  0
LINE
  5
5665
330
1E
100
AcDbEntity
  8
AM_7
100
AcDbLine
 10
317.8423832733489
 20
-158.5459205546279
 30
0.0
 11
317.8423832733489
 21
-139.9959205546279
 31
0.0
  0
LINE
  5
5666
330
1E
100
AcDbEntity
  8
AM_7
100
AcDbLine
 10
319.6423832733489
 20
-138.1959205546279
 30
0.0
 11
338.1923832733491
 21
-138.1959205546279
 31
0.0
  0
LINE
  5
5667
330
1E
100
AcDbEntity
  8
AM_7
100
AcDbLine
 10
297.4923832733489
 20
-138.1959205546279
 30
0.0
 11
316.0423832733489
 21
-138.1959205546279
 31
0.0
  0
LINE
  5
5668
330
1E
100
AcDbEntity
  8
AM_7
100
AcDbLine
 10
317.8423832733489
 20
-139.1959205546279
 30
0.0
 11
317.8423832733489
 21
-137.1959205546279
 31
0.0
  0
LINE
  5
5669
330
1E
100
AcDbEntity
  8
AM_7
100
AcDbLine
 10
316.8423832733489
 20
-138.1959205546279
 30
0.0
 11
318.8423832733489
 21
-138.1959205546279
 31
0.0
  0
CIRCLE
  5
566A
330
1E
100
AcDbEntity
  8
AM_4
  6
HIDDEN2
100
AcDbCircle
 10
75.92827826423206
 20
-123.1959205546279
 30
0.0
 40
3.146999999999999
  0
CIRCLE
  5
566B
330
1E
100
AcDbEntity
  8
AM_4
  6
HIDDEN2
100
AcDbCircle
 10
105.928278264232
 20
-123.1959205546279
 30
0.0
 40
3.146999999999999
  0
CIRCLE
  5
566C
330
1E
100
AcDbEntity
  8
AM_4
  6
HIDDEN2
100
AcDbCircle
 10
75.92827826423206
 20
-153.1959205546279
 30
0.0
 40
3.146999999999999
  0
CIRCLE
  5
566D
330
1E
100
AcDbEntity
  8
AM_4
  6
HIDDEN2
100
AcDbCircle
 10
105.928278264232
 20
-153.1959205546279
 30
0.0
 40
3.146999999999999
  0
LINE
  5
566E
330
1E
100
AcDbEntity
  8
AM_7
100
AcDbLine
 10
90.92827826423206
 20
-136.3959205546279
 30
0.0
 11
90.92827826423206
 21
-123.5959205546279
 31
0.0
  0
LINE
  5
566F
330
1E
100
AcDbEntity
  8
AM_7
100
AcDbLine
 10
90.92827826423206
 20
-152.7959205546279
 30
0.0
 11
90.92827826423206
 21
-139.9959205546279
 31
0.0
  0
LINE
  5
5670
330
1E
100
AcDbEntity
  8
AM_7
100
AcDbLine
 10
92.72827826423201
 20
-138.1959205546279
 30
0.0
 11
105.5282782642321
 21
-138.1959205546279
 31
0.0
  0
LINE
  5
5671
330
1E
100
AcDbEntity
  8
AM_7
100
AcDbLine
 10
76.32827826423204
 20
-138.1959205546279
 30
0.0
 11
89.1282782642321
 21
-138.1959205546279
 31
0.0
  0
LINE
  5
5672
330
1E
100
AcDbEntity
  8
AM_7
100
AcDbLine
 10
90.92827826423206
 20
-139.1959205546279
 30
0.0
 11
90.92827826423206
 21
-137.1959205546279
 31
0.0
  0
LINE
  5
5673
330
1E
100
AcDbEntity
  8
AM_7
100
AcDbLine
 10
89.92827826423207
 20
-138.1959205546279
 30
0.0
 11
91.92827826423206
 21
-138.1959205546279
 31
0.0
  0
LINE
  5
5674
330
1E
100
AcDbEntity
  8
AM_7
100
AcDbLine
 10
75.92827826423206
 20
-121.3959205546279
 30
0.0
 11
75.92827826423206
 21
-119.0194205546279
 31
0.0
  0
LINE
  5
5675
330
1E
100
AcDbEntity
  8
AM_7
100
AcDbLine
 10
75.92827826423206
 20
-127.3724205546279
 30
0.0
 11
75.92827826423206
 21
-124.9959205546279
 31
0.0
  0
LINE
  5
5676
330
1E
100
AcDbEntity
  8
AM_7
100
AcDbLine
 10
77.72827826423202
 20
-123.1959205546279
 30
0.0
 11
80.1047782642321
 21
-123.1959205546279
 31
0.0
  0
LINE
  5
5677
330
1E
100
AcDbEntity
  8
AM_7
100
AcDbLine
 10
71.75177826423203
 20
-123.1959205546279
 30
0.0
 11
74.1282782642321
 21
-123.1959205546279
 31
0.0
  0
LINE
  5
5678
330
1E
100
AcDbEntity
  8
AM_7
100
AcDbLine
 10
75.92827826423206
 20
-124.1959205546279
 30
0.0
 11
75.92827826423206
 21
-122.1959205546279
 31
0.0
  0
LINE
  5
5679
330
1E
100
AcDbEntity
  8
AM_7
100
AcDbLine
 10
74.92827826423206
 20
-123.1959205546279
 30
0.0
 11
76.92827826423206
 21
-123.1959205546279
 31
0.0
  0
LINE
  5
567A
330
1E
100
AcDbEntity
  8
AM_7
100
AcDbLine
 10
105.928278264232
 20
-121.3959205546279
 30
0.0
 11
105.928278264232
 21
-119.0194205546279
 31
0.0
  0
LINE
  5
567B
330
1E
100
AcDbEntity
  8
AM_7
100
AcDbLine
 10
105.928278264232
 20
-127.3724205546279
 30
0.0
 11
105.928278264232
 21
-124.9959205546279
 31
0.0
  0
LINE
  5
567C
330
1E
100
AcDbEntity
  8
AM_7
100
AcDbLine
 10
107.728278264232
 20
-123.1959205546279
 30
0.0
 11
110.1047782642321
 21
-123.1959205546279
 31
0.0
  0
LINE
  5
567D
330
1E
100
AcDbEntity
  8
AM_7
100
AcDbLine
 10
101.751778264232
 20
-123.1959205546279
 30
0.0
 11
104.1282782642321
 21
-123.1959205546279
 31
0.0
  0
LINE
  5
567E
330
1E
100
AcDbEntity
  8
AM_7
100
AcDbLine
 10
105.928278264232
 20
-124.1959205546279
 30
0.0
 11
105.928278264232
 21
-122.1959205546279
 31
0.0
  0
LINE
  5
567F
330
1E
100
AcDbEntity
  8
AM_7
100
AcDbLine
 10
104.928278264232
 20
-123.1959205546279
 30
0.0
 11
106.928278264232
 21
-123.1959205546279
 31
0.0
  0
LINE
  5
5680
330
1E
100
AcDbEntity
  8
AM_7
100
AcDbLine
 10
75.92827826423206
 20
-151.3959205546279
 30
0.0
 11
75.92827826423206
 21
-149.0194205546279
 31
0.0
  0
LINE
  5
5681
330
1E
100
AcDbEntity
  8
AM_7
100
AcDbLine
 10
75.92827826423206
 20
-157.3724205546279
 30
0.0
 11
75.92827826423206
 21
-154.9959205546279
 31
0.0
  0
LINE
  5
5682
330
1E
100
AcDbEntity
  8
AM_7
100
AcDbLine
 10
77.72827826423202
 20
-153.1959205546279
 30
0.0
 11
80.1047782642321
 21
-153.1959205546279
 31
0.0
  0
LINE
  5
5683
330
1E
100
AcDbEntity
  8
AM_7
100
AcDbLine
 10
71.75177826423203
 20
-153.1959205546279
 30
0.0
 11
74.1282782642321
 21
-153.1959205546279
 31
0.0
  0
LINE
  5
5684
330
1E
100
AcDbEntity
  8
AM_7
100
AcDbLine
 10
75.92827826423206
 20
-154.1959205546279
 30
0.0
 11
75.92827826423206
 21
-152.1959205546279
 31
0.0
  0
LINE
  5
5685
330
1E
100
AcDbEntity
  8
AM_7
100
AcDbLine
 10
74.92827826423206
 20
-153.1959205546279
 30
0.0
 11
76.92827826423206
 21
-153.1959205546279
 31
0.0
  0
LINE
  5
5686
330
1E
100
AcDbEntity
  8
AM_7
100
AcDbLine
 10
105.928278264232
 20
-151.3959205546279
 30
0.0
 11
105.928278264232
 21
-149.0194205546279
 31
0.0
  0
LINE
  5
5687
330
1E
100
AcDbEntity
  8
AM_7
100
AcDbLine
 10
105.928278264232
 20
-157.3724205546279
 30
0.0
 11
105.928278264232
 21
-154.9959205546279
 31
0.0
  0
LINE
  5
5688
330
1E
100
AcDbEntity
  8
AM_7
100
AcDbLine
 10
107.728278264232
 20
-153.1959205546279
 30
0.0
 11
110.1047782642321
 21
-153.1959205546279
 31
0.0
  0
LINE
  5
5689
330
1E
100
AcDbEntity
  8
AM_7
100
AcDbLine
 10
101.751778264232
 20
-153.1959205546279
 30
0.0
 11
104.1282782642321
 21
-153.1959205546279
 31
0.0
  0
LINE
  5
568A
330
1E
100
AcDbEntity
  8
AM_7
100
AcDbLine
 10
105.928278264232
 20
-154.1959205546279
 30
0.0
 11
105.928278264232
 21
-152.1959205546279
 31
0.0
  0
LINE
  5
568B
330
1E
100
AcDbEntity
  8
AM_7
100
AcDbLine
 10
104.928278264232
 20
-153.1959205546279
 30
0.0
 11
106.928278264232
 21
-153.1959205546279
 31
0.0
  0
LINE
  5
568E
330
1E
100
AcDbEntity
  8
AM_7
100
AcDbLine
 10
210.3425619996937
 20
-54.87433486016062
 30
0.0
 11
210.3425619996937
 21
-50.0743348601606
 31
0.0
  0
LINE
  5
568F
330
1E
100
AcDbEntity
  8
AM_7
100
AcDbLine
 10
210.3425619996937
 20
-63.27433486016059
 30
0.0
 11
210.3425619996937
 21
-58.47433486016064
 31
0.0
  0
LINE
  5
5690
330
1E
100
AcDbEntity
  8
AM_7
100
AcDbLine
 10
212.1425619996936
 20
-56.67433486016057
 30
0.0
 11
216.9425619996937
 21
-56.67433486016057
 31
0.0
  0
LINE
  5
5691
330
1E
100
AcDbEntity
  8
AM_7
100
AcDbLine
 10
203.7425619996936
 20
-56.67433486016057
 30
0.0
 11
208.5425619996936
 21
-56.67433486016057
 31
0.0
  0
LINE
  5
5692
330
1E
100
AcDbEntity
  8
AM_7
100
AcDbLine
 10
210.3425619996937
 20
-57.67433486016057
 30
0.0
 11
210.3425619996937
 21
-55.67433486016057
 31
0.0
  0
LINE
  5
5693
330
1E
100
AcDbEntity
  8
AM_7
100
AcDbLine
 10
209.3425619996937
 20
-56.67433486016057
 30
0.0
 11
211.3425619996937
 21
-56.67433486016057
 31
0.0
  0
LINE
  5
5694
330
1E
100
AcDbEntity
  8
AM_7
100
AcDbLine
 10
258.3425619996936
 20
-54.87433486016072
 30
0.0
 11
258.3425619996936
 21
-51.07433486016072
 31
0.0
  0
LINE
  5
5695
330
1E
100
AcDbEntity
  8
AM_7
100
AcDbLine
 10
258.3425619996936
 20
-62.27433486016071
 30
0.0
 11
258.3425619996936
 21
-58.47433486016075
 31
0.0
  0
LINE
  5
5696
330
1E
100
AcDbEntity
  8
AM_7
100
AcDbLine
 10
260.1425619996936
 20
-56.67433486016069
 30
0.0
 11
263.9425619996937
 21
-56.67433486016069
 31
0.0
  0
LINE
  5
5697
330
1E
100
AcDbEntity
  8
AM_7
100
AcDbLine
 10
252.7425619996936
 20
-56.67433486016069
 30
0.0
 11
256.5425619996937
 21
-56.67433486016069
 31
0.0
  0
LINE
  5
5698
330
1E
100
AcDbEntity
  8
AM_7
100
AcDbLine
 10
258.3425619996936
 20
-57.67433486016068
 30
0.0
 11
258.3425619996936
 21
-55.67433486016068
 31
0.0
  0
LINE
  5
5699
330
1E
100
AcDbEntity
  8
AM_7
100
AcDbLine
 10
257.3425619996937
 20
-56.67433486016069
 30
0.0
 11
259.3425619996937
 21
-56.67433486016069
 31
0.0
  0
LINE
  5
569A
330
1E
100
AcDbEntity
  8
AM_7
100
AcDbLine
 10
267.9425619996937
 20
-56.67433486016057
 30
0.0
 11
156.7425619996936
 21
-56.67433486016062
 31
0.0
  0
LINE
  5
569B
330
1E
100
AcDbEntity
  8
AM_7
100
AcDbLine
 10
267.9425619996937
 20
-138.1959205546279
 30
0.0
 11
156.7425619996936
 21
-138.1959205546279
 31
0.0
  0
DIMENSION
  5
56D4
330
1E
100
AcDbEntity
  8
AM_5
100
AcDbDimension
  2
*D31
 10
105.928278264232
 20
-171.1959205546279
 30
0.0
 11
90.92827826423206
 21
-168.8959205546279
 31
0.0
 70
    32
  1
{\Famgdt;o}<>
 71
     5
 42
30.0
  3
AM_ISO
100
AcDbAlignedDimension
 13
75.92827826423206
 23
-157.3724205546279
 33
0.0
 14
105.928278264232
 24
-157.3724205546279
 34
0.0
100
AcDbRotatedDimension
  0
DIMENSION
  5
56D5
330
1E
100
AcDbEntity
  8
AM_5
100
AcDbDimension
  2
*D32
 10
111.928278264232
 20
-178.1959205546279
 30
0.0
 11
90.92827826423206
 21
-175.8956252790373
 31
0.0
 70
    32
  1
{\Famgdt;o}<>
 71
     5
 42
42.0
  3
AM_ISO
100
AcDbAlignedDimension
 13
69.92827826423206
 23
-157.6959205546279
 33
0.0
 14
111.928278264232
 24
-157.6959205546279
 34
0.0
100
AcDbRotatedDimension
  0
DIMENSION
  5
56D6
330
1E
100
AcDbEntity
  8
AM_5
100
AcDbDimension
  2
*D33
 10
123.928278264232
 20
-138.1959205546279
 30
0.0
 11
121.6279829886415
 21
-148.6959205546279
 31
0.0
 70
    32
 71
     5
 42
21.0
  3
AM_ISO
100
AcDbAlignedDimension
 13
110.428278264232
 23
-159.1959205546279
 33
0.0
 14
105.5282782642321
 24
-138.1959205546279
 34
0.0
 50
90.0
100
AcDbRotatedDimension
  0
DIMENSION
  5
56D7
330
1E
100
AcDbEntity
  8
AM_5
100
AcDbDimension
  2
*D34
 10
149.7708404747204
 20
-125.1959205546279
 30
0.0
 11
146.6006381476506
 21
-138.1959205546279
 31
0.0
 70
    32
  1
%%c<>
 71
     5
 42
26.00000000000001
  3
AM_ISO
100
AcDbAlignedDimension
 13
185.8425619996936
 23
-151.1959205546279
 33
0.0
 14
185.8425619996936
 24
-125.1959205546279
 34
0.0
 50
90.0
100
AcDbRotatedDimension
1001
GENIUS_GENDTOL_13
1000
TolAcTol
1000

1000

1040
26.0
1001
ACAD
1000
DSTYLE
1002
{
1070
    47
1040
0.0
1070
    48
1040
0.033
1070
    71
1070
     1
1070
   272
1070
     3
1002
}
  0
LINE
  5
56D8
330
1E
100
AcDbEntity
  8
AM_VIS
100
AcDbLine
 10
179.3425619996936
 20
-61.67433486016069
 30
0.0
 11
179.3425619996936
 21
-51.67433486016062
 31
0.0
  0
LINE
  5
56D9
330
1E
100
AcDbEntity
  8
AM_VIS
100
AcDbLine
 10
180.3425619996936
 20
-51.67433486016062
 30
0.0
 11
180.3425619996936
 21
-61.67433486016062
 31
0.0
  0
LINE
  5
56DA
330
1E
100
AcDbEntity
  8
AM_VIS
100
AcDbLine
 10
185.3425619996936
 20
-62.17433486016062
 30
0.0
 11
184.8425619996935
 21
-61.67433486016057
 31
0.0
  0
LINE
  5
56DB
330
1E
100
AcDbEntity
  8
AM_VIS
100
AcDbLine
 10
179.3422923324714
 20
-61.67433486016062
 30
0.0
 11
180.3425619996935
 21
-61.67433486016062
 31
0.0
  0
LINE
  5
56DC
330
1E
100
AcDbEntity
  8
AM_VIS
100
AcDbLine
 10
180.3425619996936
 20
-61.67433486016057
 30
0.0
 11
184.8425619996936
 21
-61.67433486016057
 31
0.0
  0
LINE
  5
56DD
330
1E
100
AcDbEntity
  8
AM_VIS
100
AcDbLine
 10
184.8425619996936
 20
-51.67433486016062
 30
0.0
 11
185.3425619996936
 21
-51.17433486016063
 31
0.0
  0
LINE
  5
56DE
330
1E
100
AcDbEntity
  8
AM_VIS
100
AcDbLine
 10
179.3422923324714
 20
-51.67433486016062
 30
0.0
 11
180.3425619996935
 21
-51.67433486016062
 31
0.0
  0
LINE
  5
56DF
330
1E
100
AcDbEntity
  8
AM_VIS
100
AcDbLine
 10
184.8425619996936
 20
-51.67433486016062
 30
0.0
 11
180.3425619996936
 21
-51.67433486016062
 31
0.0
  0
SPLINE
  5
56E0
330
1E
100
AcDbEntity
  8
AM_VIS
100
AcDbSpline
210
0.0
220
0.0
230
1.0
 70
     8
 71
     3
 72
    26
 73
    22
 74
     0
 42
0.0000000001
 43
0.0000000001
 40
0.0
 40
0.0
 40
0.0
 40
0.0
 40
0.5960155106068619
 40
0.5960155106068619
 40
1.192031021213723
 40
1.192031021213723
 40
1.788046531820585
 40
1.788046531820585
 40
2.384062042427447
 40
2.384062042427447
 40
2.657743087524437
 40
2.657743087524437
 40
2.931424132621426
 40
2.931424132621426
 40
3.103598980849886
 40
3.103598980849886
 40
3.275773829078346
 40
3.275773829078346
 40
3.407142786945169
 40
3.407142786945169
 40
3.538511744811992
 40
3.538511744811992
 40
3.538511744811992
 40
3.538511744811992
 10
179.3425619996936
 20
-138.1959205546279
 30
0.0
 10
179.3425619996936
 20
-137.997248717759
 30
0.0
 10
179.3422923324714
 20
-137.7888327009713
 30
0.0
 10
179.3442968025235
 20
-137.3633868698085
 30
0.0
 10
179.3466108664313
 20
-137.1463572444827
 30
0.0
 10
179.3635231000394
 20
-136.7145901004064
 30
0.0
 10
179.3782296897141
 20
-136.4999267969749
 30
0.0
 10
179.4335673848865
 20
-136.0840441609826
 30
0.0
 10
179.4740108770687
 20
-135.8827998859684
 30
0.0
 10
179.5643281216948
 20
-135.6073291258925
 30
0.0
 10
179.6006752525502
 20
-135.5138815764674
 30
0.0
 10
179.6894657791069
 20
-135.3356003442705
 30
0.0
 10
179.7421344402325
 20
-135.2508789406948
 30
0.0
 10
179.8348136736139
 20
-135.134697801036
 30
0.0
 10
179.8776221375717
 20
-135.0884387044267
 30
0.0
 10
179.9722126757376
 20
-135.0068389813919
 30
0.0
 10
180.0241026236959
 20
-134.9716234860253
 30
0.0
 10
180.1142757779371
 20
-134.9257273926225
 30
0.0
 10
180.1589513749895
 20
-134.9081308043542
 30
0.0
 10
180.2511918362554
 20
-134.8848839263093
 30
0.0
 10
180.2987723470713
 20
-134.8792957642725
 30
0.0
 10
180.3425619996936
 20
-134.8792957642725
 30
0.0
  0
LINE
  5
56E1
330
1E
100
AcDbEntity
  8
AM_VIS
100
AcDbLine
 10
179.3425619996936
 20
-138.1959205546279
 30
0.0
 11
179.3425619996936
 21
-133.1959205546279
 31
0.0
  0
LINE
  5
56E2
330
1E
100
AcDbEntity
  8
AM_VIS
100
AcDbLine
 10
184.8425619996936
 20
-134.8792957642725
 30
0.0
 11
184.8425619996936
 21
-141.5125453449834
 31
0.0
  0
LINE
  5
56E3
330
1E
100
AcDbEntity
  8
AM_VIS
100
AcDbLine
 10
184.8425619996936
 20
-141.5125453449834
 30
0.0
 11
180.3425619996936
 21
-141.5125453449834
 31
0.0
  0
LINE
  5
56E4
330
1E
100
AcDbEntity
  8
AM_VIS
100
AcDbLine
 10
185.3425619996936
 20
-144.195920554628
 30
0.0
 11
180.3425619996936
 21
-144.195920554628
 31
0.0
  0
LINE
  5
56E5
330
1E
100
AcDbEntity
  8
AM_VIS
100
AcDbLine
 10
180.3425619996936
 20
-141.5125453449834
 30
0.0
 11
180.3425619996936
 21
-144.195920554628
 31
0.0
  0
ARC
  5
56E6
330
1E
100
AcDbEntity
  8
AM_VIS
100
AcDbCircle
 10
180.3425619996936
 20
-143.1959205546279
 30
0.0
 40
1.0
100
AcDbArc
 50
180.0
 51
270.0
  0
ARC
  5
56E7
330
1E
100
AcDbEntity
  8
AM_VIS
100
AcDbCircle
 10
179.8425619996936
 20
-138.1959205546279
 30
0.0
 40
6.0
100
AcDbArc
 50
326.4426902380797
 51
336.4435356908981
  0
SPLINE
  5
56E8
330
1E
100
AcDbEntity
  8
AM_VIS
100
AcDbSpline
210
0.0
220
0.0
230
1.0
 70
     8
 71
     3
 72
    26
 73
    22
 74
     0
 42
0.0000000001
 43
0.0000000001
 40
-3.538511744811991
 40
-3.538511744811991
 40
-3.538511744811991
 40
-3.538511744811991
 40
-3.407142786945168
 40
-3.407142786945168
 40
-3.275773829078346
 40
-3.275773829078346
 40
-3.103598980849886
 40
-3.103598980849886
 40
-2.931424132621426
 40
-2.931424132621426
 40
-2.657743087524437
 40
-2.657743087524437
 40
-2.384062042427446
 40
-2.384062042427446
 40
-1.788046531820583
 40
-1.788046531820583
 40
-1.192031021213722
 40
-1.192031021213722
 40
-0.5960155106068612
 40
-0.5960155106068612
 40
0.0
 40
0.0
 40
0.0
 40
0.0
 10
180.3425619996936
 20
-141.5125453449834
 30
0.0
 10
180.2987723470713
 20
-141.5125453449834
 30
0.0
 10
180.2511918362554
 20
-141.5069571829466
 30
0.0
 10
180.1589513749895
 20
-141.4837103049016
 30
0.0
 10
180.1142757779371
 20
-141.4661137166334
 30
0.0
 10
180.0241026236959
 20
-141.4202176232306
 30
0.0
 10
179.9722126757376
 20
-141.385002127864
 30
0.0
 10
179.8776221375717
 20
-141.3034024048292
 30
0.0
 10
179.8348136736139
 20
-141.2571433082199
 30
0.0
 10
179.7421344402325
 20
-141.1409621685611
 30
0.0
 10
179.6894657791069
 20
-141.0562407649854
 30
0.0
 10
179.6006752525502
 20
-140.8779595327885
 30
0.0
 10
179.5643281216948
 20
-140.7845119833635
 30
0.0
 10
179.4740108770687
 20
-140.5090412232875
 30
0.0
 10
179.4335673848865
 20
-140.3077969482733
 30
0.0
 10
179.3782296897141
 20
-139.8919143122809
 30
0.0
 10
179.3635231000394
 20
-139.6772510088496
 30
0.0
 10
179.3466108664313
 20
-139.2454838647732
 30
0.0
 10
179.3442968025235
 20
-139.0284542394474
 30
0.0
 10
179.3422923324714
 20
-138.6030084082846
 30
0.0
 10
179.3425619996936
 20
-138.3945923914969
 30
0.0
 10
179.3425619996936
 20
-138.1959205546279
 30
0.0
  0
LINE
  5
56E9
330
1E
100
AcDbEntity
  8
AM_VIS
100
AcDbLine
 10
179.3425619996936
 20
-143.1959205546279
 30
0.0
 11
179.3425619996936
 21
-138.1959205546279
 31
0.0
  0
LINE
  5
56EA
330
1E
100
AcDbEntity
  8
AM_VIS
100
AcDbLine
 10
185.3425619996936
 20
-132.195920554628
 30
0.0
 11
180.3425619996936
 21
-132.195920554628
 31
0.0
  0
LINE
  5
56EB
330
1E
100
AcDbEntity
  8
AM_VIS
100
AcDbLine
 10
180.3425619996936
 20
-134.8792957642725
 30
0.0
 11
184.8425619996936
 21
-134.8792957642725
 31
0.0
  0
ARC
  5
56EC
330
1E
100
AcDbEntity
  8
AM_VIS
100
AcDbCircle
 10
179.8425619996936
 20
-138.1959205546279
 30
0.0
 40
6.0
100
AcDbArc
 50
23.55646430910192
 51
33.55730976191987
  0
LINE
  5
56ED
330
1E
100
AcDbEntity
  8
AM_VIS
100
AcDbLine
 10
180.3425619996936
 20
-132.195920554628
 30
0.0
 11
180.3425619996936
 21
-134.8792957642725
 31
0.0
  0
ARC
  5
56EE
330
1E
100
AcDbEntity
  8
AM_VIS
100
AcDbCircle
 10
180.3425619996936
 20
-133.1959205546279
 30
0.0
 40
1.0
100
AcDbArc
 50
90.0
 51
180.0
  0
LINE
  5
56EF
330
1E
100
AcDbEntity
  8
AM_VIS
 62
     3
100
AcDbLine
 10
173.3425619996935
 20
-133.6959205546279
 30
0.0
 11
176.8425619996937
 21
-133.6959205546279
 31
0.0
  0
LINE
  5
56F0
330
1E
100
AcDbEntity
  8
AM_VIS
100
AcDbLine
 10
176.8425619996936
 20
-143.1959205546279
 30
0.0
 11
176.8425619996936
 21
-133.1959205546279
 31
0.0
  0
LINE
  5
56F1
330
1E
100
AcDbEntity
  8
AM_VIS
 62
     3
100
AcDbLine
 10
173.3425619996935
 20
-142.6959205546279
 30
0.0
 11
176.8425619996937
 21
-142.6959205546279
 31
0.0
  0
LINE
  5
56F2
330
1E
100
AcDbEntity
  8
AM_VIS
 62
     3
100
AcDbLine
 10
157.8425619996936
 20
-133.6959205546279
 30
0.0
 11
163.3425619996936
 21
-133.6959205546279
 31
0.0
  0
LINE
  5
56F3
330
1E
100
AcDbEntity
  8
AM_VIS
 62
     3
100
AcDbLine
 10
157.8425619996936
 20
-142.6959205546279
 30
0.0
 11
163.3425619996936
 21
-142.6959205546279
 31
0.0
  0
LINE
  5
56F4
330
1E
100
AcDbEntity
  8
AM_VIS
 62
     3
100
AcDbLine
 10
157.8425619996936
 20
-52.17433486016062
 30
0.0
 11
163.3425619996936
 21
-52.17433486016062
 31
0.0
  0
LINE
  5
56F5
330
1E
100
AcDbEntity
  8
AM_VIS
 62
     3
100
AcDbLine
 10
173.3425619996935
 20
-52.17433486016062
 30
0.0
 11
176.8425619996937
 21
-52.17433486016062
 31
0.0
  0
LINE
  5
56F6
330
1E
100
AcDbEntity
  8
AM_VIS
100
AcDbLine
 10
176.8425619996936
 20
-61.67433486016062
 30
0.0
 11
176.8425619996936
 21
-51.67433486016062
 31
0.0
  0
LINE
  5
56F7
330
1E
100
AcDbEntity
  8
AM_VIS
 62
     3
100
AcDbLine
 10
173.3425619996935
 20
-61.17433486016063
 30
0.0
 11
176.8425619996937
 21
-61.17433486016063
 31
0.0
  0
LINE
  5
56F8
330
1E
100
AcDbEntity
  8
AM_VIS
 62
     3
100
AcDbLine
 10
157.8425619996936
 20
-61.17433486016063
 30
0.0
 11
163.3425619996936
 21
-61.17433486016063
 31
0.0
  0
DIMENSION
  5
56F9
330
1E
100
AcDbEntity
  8
AM_5
100
AcDbDimension
  2
*D35
 10
176.8425619996936
 20
-166.8371698445382
 30
0.0
 11
167.0925619996936
 21
-164.5371698445382
 31
0.0
 70
    32
 71
     5
 42
19.5
  3
AM_ISO
100
AcDbAlignedDimension
 13
157.3425619996936
 23
-142.1959205546279
 33
0.0
 14
176.8425619996936
 24
-143.1959205546279
 34
0.0
100
AcDbRotatedDimension
  0
DIMENSION
  5
56FA
330
1E
100
AcDbEntity
  8
AM_5
100
AcDbDimension
  2
*D36
 10
179.3425619996936
 20
-173.8371698445382
 30
0.0
 11
168.3425619996936
 21
-171.5368745689476
 31
0.0
 70
    32
 71
     5
 42
22.0
  3
AM_ISO
100
AcDbAlignedDimension
 13
157.3425619996936
 23
-142.1959205546279
 33
0.0
 14
179.3425619996936
 24
-143.1959205546279
 34
0.0
100
AcDbRotatedDimension
  0
DIMENSION
  5
56FB
330
1E
100
AcDbEntity
  8
AM_5
100
AcDbDimension
  2
*D37
 10
188.3425619996936
 20
-180.8371698445382
 30
0.0
 11
172.8425619996936
 21
-178.5371698445382
 31
0.0
 70
    32
 71
     5
 42
31.0
  3
AM_ISO
100
AcDbAlignedDimension
 13
157.3425619996936
 23
-142.1959205546279
 33
0.0
 14
188.3425619996936
 24
-159.1959205546279
 34
0.0
100
AcDbRotatedDimension
  0
DIMENSION
  5
56FC
330
1E
100
AcDbEntity
  8
AM_5
100
AcDbDimension
  2
*D38
 10
266.3425619996937
 20
-180.8371698445382
 30
0.0
 11
227.3425619996936
 21
-178.5371698445382
 31
0.0
 70
    32
  1
<>+stroke
 71
     5
 42
78.0
  3
AM_ISO
100
AcDbAlignedDimension
 13
188.3425619996936
 23
-159.1959205546279
 33
0.0
 14
266.3425619996937
 24
-154.9459205546279
 34
0.0
100
AcDbRotatedDimension
  0
DIMENSION
  5
56FD
330
1E
100
AcDbEntity
  8
AM_5
100
AcDbDimension
  2
*D39
 10
266.3425619996937
 20
-187.837169844538
 30
0.0
 11
211.8425619996937
 21
-185.537169844538
 31
0.0
 70
    32
  1
<>+stroke
 71
     5
 42
109.0
  3
AM_ISO
100
AcDbAlignedDimension
 13
157.3425619996936
 23
-142.1959205546279
 33
0.0
 14
266.3425619996937
 24
-154.9459205546279
 34
0.0
100
AcDbRotatedDimension
  0
DIMENSION
  5
56FE
330
1E
100
AcDbEntity
  8
AM_5
100
AcDbDimension
  2
*D40
 10
217.3425619996937
 20
-86.23759957574256
 30
0.0
 11
202.8425619996937
 21
-83.93730430015201
 31
0.0
 70
    32
 71
     5
 42
29.0
  3
AM_ISO
100
AcDbAlignedDimension
 13
188.3425619996936
 23
-77.67433486016063
 33
0.0
 14
217.3425619996937
 24
-77.67433486016059
 34
0.0
100
AcDbRotatedDimension
  0
DIMENSION
  5
56FF
330
1E
100
AcDbEntity
  8
AM_5
100
AcDbDimension
  2
*D41
 10
210.3425619996937
 20
-29.67004611483216
 30
0.0
 11
199.3425619996936
 21
-27.36975083924161
 31
0.0
 70
    32
 71
     5
 42
22.0
  3
AM_ISO
100
AcDbAlignedDimension
 13
188.3425619996936
 23
-35.6743348601606
 33
0.0
 14
210.3425619996937
 24
-50.0743348601606
 34
0.0
100
AcDbRotatedDimension
  0
DIMENSION
  5
5700
330
1E
100
AcDbEntity
  8
AM_5
100
AcDbDimension
  2
*D42
 10
258.3425619996936
 20
-31.41672504947607
 30
0.0
 11
262.3425619996937
 21
-29.11672504947607
 31
0.0
 70
    32
 71
     5
 42
8.0
  3
AM_ISO
100
AcDbAlignedDimension
 13
266.3425619996937
 23
-39.9243348601606
 33
0.0
 14
258.3425619996936
 24
-51.07433486016072
 34
0.0
100
AcDbRotatedDimension
  0
DIMENSION
  5
5701
330
1E
100
AcDbEntity
  8
AM_5
100
AcDbDimension
  2
*D43
 10
251.3425619996937
 20
-85.9243348601606
 30
0.0
 11
258.8425619996936
 21
-83.6243348601606
 31
0.0
 70
    32
 71
     5
 42
15.0
  3
AM_ISO
100
AcDbAlignedDimension
 13
266.3425619996937
 23
-73.4243348601606
 33
0.0
 14
251.3425619996937
 24
-73.92433486016059
 34
0.0
100
AcDbRotatedDimension
  0
DIMENSION
  5
5702
330
1E
100
AcDbEntity
  8
AM_5
100
AcDbDimension
  2
*D44
 10
335.0923832733489
 20
-167.9053669209757
 30
0.0
 11
317.8423832733489
 21
-165.6053669209757
 31
0.0
 70
    32
  1
{\Famgdt;o}<>
 71
     5
 42
34.5
  3
AM_ISO
100
AcDbAlignedDimension
 13
300.5923832733489
 23
-145.5443897829775
 33
0.0
 14
335.0923832733489
 24
-145.5443897829774
 34
0.0
100
AcDbRotatedDimension
  0
DIMENSION
  5
5703
330
1E
100
AcDbEntity
  8
AM_5
100
AcDbDimension
  2
*D45
 10
306.2653927007437
 20
-152.9450150787607
 30
0.0
 11
342.3057816913574
 21
-113.8608931002767
 31
0.0
 70
   163
 71
     5
 42
37.50000000000016
  3
AM_ISO$3
100
AcDbDiametricDimension
 15
329.419373845955
 25
-123.4468260304952
 35
0.0
 40
0.0
1001
ACAD
1000
DSTYLE
1002
{
1070
   141
1040
0.0
1070
   172
1070
     1
1002
}
  0
INSERT
  5
5704
330
1E
100
AcDbEntity
  8
AM_5
100
AcDbBlockReference
  2
*S28
 10
63.80243713990444
 20
-286.4483874050656
 30
0.0
  0
TEXT
  5
5705
330
1E
100
AcDbEntity
  8
AM_5
100
AcDbText
 10
86.90494460337754
 20
-111.4852507158619
 30
0.0
 40
3.0
  1
4-M6x1.0x11L
100
AcDbText
  0
INSERT
  5
5706
330
1E
100
AcDbEntity
  8
AM_5
100
AcDbBlockReference
  2
*S29
 10
56.28434172174252
 20
-286.4483874050656
 30
0.0
  0
TEXT
  5
5707
330
1E
100
AcDbEntity
  8
AM_5
100
AcDbText
 10
136.8528145548384
 20
-120.0594031437733
 30
0.0
 40
3.0
  1
M10x1.25
100
AcDbText
  0
INSERT
  5
5708
330
1E
100
AcDbEntity
  8
AM_5
100
AcDbBlockReference
  2
*S30
 10
56.28434172174252
 20
-270.8902838695175
 30
0.0
  0
TEXT
  5
5709
330
1E
100
AcDbEntity
  8
AM_5
100
AcDbText
 10
228.4381352161358
 20
-80.65599699055416
 30
0.0
 40
3.0
  1
2-PT1/8
100
AcDbText
  0
DIMENSION
  5
570A
330
1E
100
AcDbEntity
  8
AM_5
100
AcDbDimension
  2
*D46
 10
182.8425619996935
 20
-144.1959205546279
 30
0.0
 11
182.8425619996935
 21
-121.4409274767547
 31
0.0
 70
   160
  1
%%c<>
 71
     5
 42
12.0
  3
AM_ISO
100
AcDbAlignedDimension
 13
185.3425619996936
 23
-132.1959205546279
 33
0.0
 14
185.3425619996936
 24
-144.1959205546279
 34
0.0
 50
90.0
100
AcDbRotatedDimension
  0
CIRCLE
  5
5929
330
1E
100
AcDbEntity
  8
AM_VIS
100
AcDbCircle
 10
258.3425619996936
 20
170.750836257123
 30
0.0
 40
4.283
  0
CIRCLE
  5
592A
330
1E
100
AcDbEntity
  8
AM_VIS
100
AcDbCircle
 10
210.3425619996937
 20
-56.67433486016057
 30
0.0
 40
4.283
  0
CIRCLE
  5
592B
330
1E
100
AcDbEntity
  8
AM_VIS
100
AcDbCircle
 10
258.3425619996936
 20
-56.67433486016057
 30
0.0
 40
4.283
  0
INSERT
  5
5A7E
330
1E
100
AcDbEntity
  8
0
100
AcDbBlockReference
  2
A$C1F6E6265
 10
234.3425614426459
 20
111.0386474466447
 30
0.0
 41
1.199999999999999
 42
1.199999999999999
 43
1.199999999999999
  0
LINE
  5
5A7F
330
1E
100
AcDbEntity
  8
AM_VIS
  6
PHANTOM2
 62
     2
100
AcDbLine
 10
234.3425619996937
 20
68.49835519237831
 30
0.0
 11
234.3425619996937
 21
114.3718298328102
 31
0.0
1001
GENIUS_GENOBJ-N-CEN_13
1002
{
1000
OWNER
1000
GEN
1002
}
1001
GENIUS_GENODEF_13
1002
{
1000
HIER
1070
     0
1002
}
1002
{
1000
MANEDIT
1070
     0
1002
}
1002
{
1000
NOSEL
1070
     0
1002
}
1002
{
1000
BEHIND
1070
     0
1002
}
1002
{
1000
OTHER
1070
     0
1002
}
1002
{
1000
REACTOR
1002
}
1001
GENIUS_GENCEN_19
1002
{
1040
3.0
1002
}
  0
LINE
  5
5A80
330
1E
100
AcDbEntity
  8
AM_VIS
  6
PHANTOM2
 62
     2
100
AcDbLine
 10
234.3425619996937
 20
150.9024973032321
 30
0.0
 11
234.3425619996937
 21
190.504146825758
 31
0.0
1001
GENIUS_GENOBJ-N-CEN_13
1002
{
1000
OWNER
1000
GEN
1002
}
1001
GENIUS_GENODEF_13
1002
{
1000
HIER
1070
     0
1002
}
1002
{
1000
MANEDIT
1070
     0
1002
}
1002
{
1000
NOSEL
1070
     0
1002
}
1002
{
1000
BEHIND
1070
     0
1002
}
1002
{
1000
OTHER
1070
     0
1002
}
1002
{
1000
REACTOR
1002
}
1001
GENIUS_GENCEN_19
1002
{
1040
3.0
1002
}
  0
INSERT
  5
5A81
330
1E
100
AcDbEntity
  8
0
100
AcDbBlockReference
  2
A$C1F6E6265
 10
234.3425614426459
 20
-116.3865236706389
 30
0.0
 41
1.199999999999999
 42
1.199999999999999
 43
1.199999999999999
  0
LINE
  5
5A82
330
1E
100
AcDbEntity
  8
AM_VIS
  6
PHANTOM2
 62
     2
100
AcDbLine
 10
234.3425619996937
 20
-158.9268159249053
 30
0.0
 11
234.3425619996937
 21
-113.0533412844734
 31
0.0
1001
GENIUS_GENOBJ-N-CEN_13
1002
{
1000
OWNER
1000
GEN
1002
}
1001
GENIUS_GENODEF_13
1002
{
1000
HIER
1070
     0
1002
}
1002
{
1000
MANEDIT
1070
     0
1002
}
1002
{
1000
NOSEL
1070
     0
1002
}
1002
{
1000
BEHIND
1070
     0
1002
}
1002
{
1000
OTHER
1070
     0
1002
}
1002
{
1000
REACTOR
1002
}
1001
GENIUS_GENCEN_19
1002
{
1040
3.0
1002
}
  0
LINE
  5
5A83
330
1E
100
AcDbEntity
  8
AM_VIS
  6
PHANTOM2
 62
     2
100
AcDbLine
 10
234.3425619996937
 20
-76.52267381405147
 30
0.0
 11
234.3425619996937
 21
-36.92102429152561
 31
0.0
1001
GENIUS_GENOBJ-N-CEN_13
1002
{
1000
OWNER
1000
GEN
1002
}
1001
GENIUS_GENODEF_13
1002
{
1000
HIER
1070
     0
1002
}
1002
{
1000
MANEDIT
1070
     0
1002
}
1002
{
1000
NOSEL
1070
     0
1002
}
1002
{
1000
BEHIND
1070
     0
1002
}
1002
{
1000
OTHER
1070
     0
1002
}
1002
{
1000
REACTOR
1002
}
1001
GENIUS_GENCEN_19
1002
{
1040
3.0
1002
}
  0
ENDSEC
  0
SECTION
  2
OBJECTS
  0
DICTIONARY
  5
C
330
0
100
AcDbDictionary
281
     1
  3
ACAD_COLOR
350
2E5F
  3
ACAD_GROUP
350
D
  3
ACAD_IMAGE_DICT
350
3CB
  3
ACAD_LAYOUT
350
19
  3
ACAD_MATERIAL
350
2E5E
  3
ACAD_MLINESTYLE
350
16
  3
ACAD_PLOTSETTINGS
350
18
  3
ACAD_PLOTSTYLENAME
350
B31
  3
ACAD_TABLESTYLE
350
2E60
  3
ACDBHEADERROUNDTRIPXREC
350
5CA6
  3
AcDbVariableDictionary
350
BD2
  3
ACMDICTIONARY
350
7C2
  3
AMG
350
7A8
  3
AMGSNAPSETTINGS
350
895
  3
DWGPROPS
350
5CA5
1001
ACAD
1000
TREAT_AS_HARD
1070
     0
  0
DICTIONARY
  5
361C
330
2
100
AcDbDictionary
280
     1
281
     1
  3
ACAD_LAYERSTATES
360
361D
  0
DICTIONARY
  5
708
330
1E
100
AcDbDictionary
280
     1
281
     1
  3
ACAD_INDEX
360
2E00
  3
ACAD_LAYOUTSELFREF
360
2E38
1001
ACAD
1000
TREAT_AS_HARD
1070
     1
  0
DICTIONARY
  5
70A
330
1A
100
AcDbDictionary
280
     1
281
     1
  3
ACAD_LAYOUTSELFREF
360
2E37
1001
ACAD
1000
TREAT_AS_HARD
1070
     1
  0
DICTIONARY
  5
3B4C
330
3B4B
100
AcDbDictionary
280
     1
281
     1
  3
ACAD_SORTENTS
360
3B4D
  0
DICTIONARY
  5
2E5F
102
{ACAD_REACTORS
330
C
102
}
330
C
100
AcDbDictionary
281
     1
  0
DICTIONARY
  5
D
102
{ACAD_REACTORS
330
C
102
}
330
C
100
AcDbDictionary
281
     1
1001
ACAD
1000
TREAT_AS_HARD
1070
     0
  0
DICTIONARY
  5
3CB
102
{ACAD_REACTORS
330
C
102
}
330
C
100
AcDbDictionary
281
     1
  3
PLOT
350
3CC
1001
ACAD
1000
TREAT_AS_HARD
1070
     0
  0
DICTIONARY
  5
19
102
{ACAD_REACTORS
330
C
102
}
330
C
100
AcDbDictionary
281
     1
  3
Layout1
350
B34
  3
Model
350
B33
1001
ACAD
1000
TREAT_AS_HARD
1070
     0
  0
DICTIONARY
  5
2E5E
102
{ACAD_REACTORS
330
C
102
}
330
C
100
AcDbDictionary
281
     1
  0
DICTIONARY
  5
16
102
{ACAD_REACTORS
330
C
102
}
330
C
100
AcDbDictionary
281
     1
  3
STANDARD
350
17
1001
ACAD
1000
TREAT_AS_HARD
1070
     0
  0
DICTIONARY
  5
18
102
{ACAD_REACTORS
330
C
102
}
330
C
100
AcDbDictionary
281
     1
1001
ACAD
1000
TREAT_AS_HARD
1070
     0
  0
ACDBDICTIONARYWDFLT
  5
B31
102
{ACAD_REACTORS
330
C
102
}
330
C
100
AcDbDictionary
281
     1
  3
Normal
350
B32
100
AcDbDictionaryWithDefault
340
B32
  0
DICTIONARY
  5
2E60
102
{ACAD_REACTORS
330
C
102
}
330
C
100
AcDbDictionary
281
     1
  3
Standard
350
2E61
  0
DICTIONARY
  5
5CA6
102
{ACAD_REACTORS
330
C
102
}
330
C
100
AcDbDictionary
281
     1
  0
DICTIONARY
  5
BD2
102
{ACAD_REACTORS
330
C
102
}
330
C
100
AcDbDictionary
281
     1
  3
CTABLESTYLE
350
2EDF
  3
DIMASSOC
350
BD4
  3
INDEXCTL
350
BD3
  3
PROJECTNAME
350
5CA3
  0
DICTIONARY
  5
7C2
102
{ACAD_REACTORS
330
C
102
}
330
C
100
AcDbDictionary
281
     1
  3
ACMSTDDICTIONARY
350
7C8
  3
AMDTSECTSYM_ARROWCOLOR
350
2ED3
1001
ACAD
1000
TREAT_AS_HARD
1070
     0
  0
DICTIONARY
  5
7A8
102
{ACAD_REACTORS
330
C
102
}
330
C
100
AcDbDictionary
281
     1
1001
ACAD
1000
TREAT_AS_HARD
1070
     0
  0
DICTIONARY
  5
895
102
{ACAD_REACTORS
330
C
102
}
330
C
100
AcDbDictionary
281
     1
1001
ACAD
1000
TREAT_AS_HARD
1070
     0
  0
XRECORD
  5
5CA5
102
{ACAD_REACTORS
330
C
102
}
330
C
100
AcDbXrecord
280
     1
  1
DWGPROPS COOKIE
  2

  3

  4

  6

  7

  8

  9

300
AmdtFileType=84
301
=
302
=
303
=
304
=
305
=
306
=
307
=
308
=
309
=
 40
0.3798636574074074
 41
2450294.602131481
 42
2454117.699896192
  1

 90
        1
  0
DICTIONARY
  5
361D
102
{ACAD_REACTORS
330
361C
102
}
330
361C
100
AcDbDictionary
281
     1
  0
DICTIONARY
  5
2E00
102
{ACAD_REACTORS
330
708
102
}
330
708
100
AcDbDictionary
281
     1
  3
*A1
350
2E01
  0
XRECORD
  5
2E38
102
{ACAD_REACTORS
330
708
102
}
330
708
100
AcDbXrecord
280
     1
340
1E
  0
XRECORD
  5
2E37
102
{ACAD_REACTORS
330
70A
102
}
330
70A
100
AcDbXrecord
280
     1
340
1A
  0
SORTENTSTABLE
  5
3B4D
102
{ACAD_REACTORS
330
3B4C
102
}
330
3B4C
100
AcDbSortentsTable
330
3B4B
  0
IMAGEDEF
  5
3CC
102
{ACAD_REACTORS
330
3CB
102
}
330
3CB
100
AcDbRasterImageDef
 90
        0
  1
D:\CHI\plot.bmp
 10
694.0
 20
470.0
 11
0.264550269889837
 21
0.264550269889837
280
     1
281
     2
  0
LAYOUT
  5
B34
102
{ACAD_XDICTIONARY
360
5CA9
102
}
102
{ACAD_REACTORS
330
19
102
}
330
19
100
AcDbPlotSettings
  1

  2
自動 PC-WM51 上的 Epson LQ-1070C+
  4

  6

 40
0.0
 41
0.0
 42
0.0
 43
0.0
 44
0.0
 45
0.0
 46
0.0
 47
0.0
 48
0.0
 49
0.0
140
0.0
141
0.0
142
1.0
143
1.0
 70
   688
 72
     0
 73
     0
 74
     5
  7

 75
    16
147
1.0
148
0.0
149
0.0
100
AcDbLayout
  1
Layout1
 70
     0
 71
     1
 10
0.0
 20
0.0
 11
12.0
 21
9.0
 12
101.9887994410416
 22
50.0
 32
155.412184630939
 14
1.000000000000000E+20
 24
1.000000000000000E+20
 34
1.000000000000000E+20
 15
-1.000000000000000E+20
 25
-1.000000000000000E+20
 35
-1.000000000000000E+20
146
0.0
 13
0.0
 23
0.0
 33
0.0
 16
1.0
 26
0.0
 36
0.0
 17
0.0
 27
1.0
 37
0.0
 76
     0
330
1A
  0
LAYOUT
  5
B33
102
{ACAD_XDICTIONARY
360
5CA7
102
}
102
{ACAD_REACTORS
330
19
102
}
330
19
100
AcDbPlotSettings
  1

  2
none_device
  4
ISO_A4_(210.00_x_297.00_MM)
  6

 40
7.5
 41
20.0
 42
7.5
 43
20.0
 44
210.0
 45
297.0
 46
0.0
 47
0.0
 48
0.0
 49
0.0
140
0.0
141
0.0
142
1.0
143
3.093766478567941
 70
 11952
 72
     1
 73
     1
 74
     0
  7

 75
     0
147
0.3232306015749725
148
184.3823655797522
149
254.6319441363561
100
AcDbLayout
  1
Model
 70
     1
 71
     0
 10
0.0
 20
0.0
 11
12.0
 21
9.0
 12
0.0
 22
0.0
 32
0.0
 14
0.0
 24
0.0
 34
0.0
 15
0.0
 25
0.0
 35
0.0
146
0.0
 13
0.0
 23
0.0
 33
0.0
 16
1.0
 26
0.0
 36
0.0
 17
0.0
 27
1.0
 37
0.0
 76
     0
330
1E
1001
ACAD_PSEXT
1000
無
1000
無
1000
不適用
1000
除非另選一新建的繪圖機規劃名稱，否則配置將不會出圖。
1070
     0
  0
MLINESTYLE
  5
17
102
{ACAD_REACTORS
330
16
102
}
330
16
100
AcDbMlineStyle
  2
STANDARD
 70
     0
  3

 62
   256
 51
90.0
 52
90.0
 71
     2
 49
0.5
 62
   256
  6
BYLAYER
 49
-0.5
 62
   256
  6
BYLAYER
  0
ACDBPLACEHOLDER
  5
B32
102
{ACAD_REACTORS
330
B31
102
}
330
B31
  0
TABLESTYLE
  5
2E61
102
{ACAD_REACTORS
330
2E60
102
}
330
2E60
100
AcDbTableStyle
  3
Standard
 70
     0
 71
     0
 40
1.5
 41
1.5
280
     0
281
     0
  7
STANDARD
140
4.5
170
     2
 62
     0
 63
     7
283
     0
274
    -2
284
     1
 64
     0
275
    -2
285
     1
 65
     0
276
    -2
286
     1
 66
     0
277
    -2
287
     1
 67
     0
278
    -2
288
     1
 68
     0
279
    -2
289
     1
 69
     0
  7
STANDARD
140
6.0
170
     5
 62
     0
 63
     7
283
     0
274
    -2
284
     1
 64
     0
275
    -2
285
     1
 65
     0
276
    -2
286
     1
 66
     0
277
    -2
287
     1
 67
     0
278
    -2
288
     1
 68
     0
279
    -2
289
     1
 69
     0
  7
STANDARD
140
4.5
170
     5
 62
     0
 63
     7
283
     0
274
    -2
284
     1
 64
     0
275
    -2
285
     1
 65
     0
276
    -2
286
     1
 66
     0
277
    -2
287
     1
 67
     0
278
    -2
288
     1
 68
     0
279
    -2
289
     1
 69
     0
  0
DICTIONARYVAR
  5
2EDF
102
{ACAD_REACTORS
330
BD2
102
}
330
BD2
100
DictionaryVariables
280
     0
  1
STANDARD
  0
DICTIONARYVAR
  5
BD4
102
{ACAD_REACTORS
330
BD2
102
}
330
BD2
100
DictionaryVariables
280
     0
  1
1
  0
DICTIONARYVAR
  5
BD3
102
{ACAD_REACTORS
330
BD2
102
}
330
BD2
100
DictionaryVariables
280
     0
  1
1
  0
DICTIONARYVAR
  5
5CA3
102
{ACAD_REACTORS
330
BD2
102
}
330
BD2
100
DictionaryVariables
280
     0
  1

  0
DICTIONARY
  5
7C8
102
{ACAD_REACTORS
330
7C2
102
}
330
7C2
100
AcDbDictionary
281
     1
1001
ACAD
1000
TREAT_AS_HARD
1070
     0
  0
XRECORD
  5
2ED3
102
{ACAD_REACTORS
330
7C2
102
}
330
7C2
100
AcDbXrecord
280
     1
 90
-1023410169
  0
LAYER_INDEX
  5
2E01
102
{ACAD_REACTORS
330
2E00
102
}
330
2E00
100
AcDbIndex
 40
2454117.699896192
100
AcDbLayerIndex
  8
0
360
5C9B
 90
        9
  8
DEFPOINTS
360
5C9C
 90
        0
  8
ASHADE
360
5C9D
 90
        9
  8
AM_7
360
5C9E
 90
       91
  8
AM_VIS
360
5C9F
 90
      522
  8
AM_4
360
5CA0
 90
        4
  8
AM_5
360
5CA1
 90
       48
  8
LOGO
360
5CA2
 90
      119
  0
DICTIONARY
  5
5CA9
330
B34
100
AcDbDictionary
280
     1
281
     1
  3
ACAD_XREC_ROUNDTRIP
360
5CAA
  0
DICTIONARY
  5
5CA7
330
B33
100
AcDbDictionary
280
     1
281
     1
  3
ACAD_XREC_ROUNDTRIP
360
5CA8
  0
IDBUFFER
  5
5C9B
330
0
100
AcDbIdBuffer
330
3750
330
3751
330
3752
330
3808
330
380A
330
515C
330
515D
330
5A7E
330
5A81
  0
IDBUFFER
  5
5C9C
330
0
100
AcDbIdBuffer
  0
IDBUFFER
  5
5C9D
330
0
100
AcDbIdBuffer
330
51A
330
51B
330
51C
330
51D
330
51E
330
51F
330
520
330
521
330
528
  0
IDBUFFER
  5
5C9E
330
0
100
AcDbIdBuffer
330
566F
330
5670
330
5671
330
5672
330
5673
330
5674
330
5675
330
5676
330
5677
330
5678
330
5679
330
567A
330
567B
330
567C
330
567D
330
567E
330
567F
330
5680
330
5681
330
5682
330
5683
330
5684
330
5685
330
5686
330
5687
330
5688
330
5689
330
568A
330
568B
330
568E
330
568F
330
5690
330
5691
330
5692
330
5693
330
5694
330
5695
330
5696
330
5697
330
5698
330
5699
330
569A
330
569B
330
50EA
330
50EB
330
50EC
330
50ED
330
50EE
330
50EF
330
50F0
330
50F1
330
50F2
330
50F3
330
50F4
330
50F5
330
50F8
330
50F9
330
50FA
330
50FB
330
50FC
330
50FD
330
50FE
330
50FF
330
5100
330
5101
330
5102
330
5103
330
5104
330
5105
330
5106
330
5107
330
5108
330
5109
330
510A
330
510B
330
510C
330
510D
330
510E
330
510F
330
5110
330
5111
330
5117
330
511B
330
5123
330
5664
330
5665
330
5666
330
5667
330
5668
330
5669
330
566E
  0
IDBUFFER
  5
5C9F
330
0
100
AcDbIdBuffer
330
56E6
330
56E7
330
56E8
330
56E9
330
56EA
330
56EB
330
56EC
330
56ED
330
56EE
330
56EF
330
56F0
330
56F1
330
56F2
330
56F3
330
56F4
330
56F5
330
56F6
330
56F7
330
56F8
330
5929
330
592A
330
592B
330
5A7F
330
5A80
330
5A82
330
5A83
330
4FFF
330
5000
330
5001
330
5002
330
5003
330
5004
330
5005
330
5006
330
5007
330
5008
330
5009
330
500A
330
500B
330
500C
330
500D
330
500E
330
500F
330
5010
330
5011
330
5012
330
5013
330
5014
330
5015
330
5016
330
5017
330
5018
330
5019
330
501A
330
501B
330
501C
330
501D
330
501E
330
501F
330
5020
330
5021
330
5022
330
5023
330
5024
330
5025
330
5026
330
5027
330
5028
330
5029
330
502A
330
502D
330
502E
330
502F
330
5030
330
5031
330
5032
330
5033
330
5034
330
5035
330
5036
330
5037
330
5038
330
5039
330
503A
330
503B
330
503C
330
503D
330
503E
330
503F
330
5040
330
5041
330
5042
330
5043
330
5044
330
5045
330
5046
330
5047
330
5048
330
5049
330
504A
330
504B
330
504C
330
504D
330
504E
330
504F
330
5050
330
5051
330
5052
330
5053
330
5054
330
5055
330
5057
330
5058
330
5059
330
505A
330
505B
330
505C
330
505D
330
505F
330
5060
330
5061
330
5062
330
5063
330
5064
330
5065
330
5066
330
5067
330
5068
330
5069
330
506A
330
506B
330
506C
330
506D
330
506E
330
506F
330
5070
330
5071
330
5072
330
5073
330
5074
330
5075
330
5076
330
5077
330
5079
330
507B
330
507C
330
507D
330
507E
330
507F
330
5080
330
5081
330
5082
330
5083
330
5084
330
5085
330
5086
330
5087
330
5088
330
5089
330
508A
330
508B
330
508C
330
508D
330
508E
330
508F
330
5090
330
5091
330
5094
330
5095
330
5096
330
5097
330
5098
330
5099
330
509A
330
509B
330
509C
330
509D
330
509E
330
509F
330
50A0
330
50A1
330
50A2
330
50A3
330
50A4
330
50A5
330
50A6
330
50A7
330
50A8
330
50A9
330
50AA
330
50AB
330
50AC
330
50AD
330
50AE
330
50AF
330
50B0
330
50B1
330
50B2
330
50B3
330
50B4
330
50B5
330
50B6
330
50B7
330
50B8
330
50B9
330
50BA
330
50BB
330
50BC
330
50BD
330
50BE
330
50C1
330
50C2
330
50C3
330
50C4
330
50C5
330
50C6
330
50C7
330
50C8
330
50C9
330
50CA
330
50CB
330
50CC
330
50CD
330
50CE
330
50CF
330
50D0
330
50D1
330
50D2
330
50D3
330
50D4
330
50D5
330
50D6
330
50D7
330
50D8
330
50D9
330
50DA
330
50DB
330
50DC
330
50DD
330
50DE
330
50DF
330
50E0
330
50E1
330
50E2
330
50E3
330
50E4
330
50E5
330
50E6
330
50E7
330
50E8
330
50E9
330
513E
330
513F
330
5140
330
5141
330
5142
330
5143
330
5144
330
5145
330
5146
330
5147
330
5148
330
5149
330
514A
330
514B
330
514C
330
514D
330
514E
330
514F
330
5150
330
5151
330
5152
330
5153
330
5154
330
515E
330
515F
330
5160
330
5161
330
5162
330
5163
330
5164
330
5165
330
5166
330
5167
330
5579
330
557A
330
557B
330
557C
330
557D
330
557E
330
557F
330
5580
330
5581
330
5582
330
5583
330
5584
330
5585
330
5586
330
5587
330
5588
330
5589
330
558A
330
558B
330
558C
330
558D
330
558E
330
558F
330
5590
330
5591
330
5592
330
5593
330
5594
330
5595
330
5596
330
5597
330
5598
330
5599
330
559A
330
559B
330
559C
330
559D
330
559E
330
559F
330
55A0
330
55A1
330
55A2
330
55A3
330
55A4
330
55A5
330
55A6
330
55A7
330
55A8
330
55AB
330
55AC
330
55AD
330
55AE
330
55AF
330
55B0
330
55B1
330
55B2
330
55B3
330
55B4
330
55B5
330
55B6
330
55B7
330
55B8
330
55B9
330
55BA
330
55BB
330
55BC
330
55BD
330
55BE
330
55BF
330
55C0
330
55C1
330
55C2
330
55C3
330
55C4
330
55C5
330
55C6
330
55C7
330
55C8
330
55C9
330
55CA
330
55CB
330
55CC
330
55CD
330
55CE
330
55CF
330
55D0
330
55D1
330
55D2
330
55D3
330
55D5
330
55D7
330
55D9
330
55DA
330
55DB
330
55DC
330
55DD
330
55DE
330
55DF
330
55E0
330
55E1
330
55E2
330
55E3
330
55E4
330
55E5
330
55E6
330
55E7
330
55E8
330
55E9
330
55EA
330
55EB
330
55EC
330
55ED
330
55EE
330
55EF
330
55F0
330
55F1
330
55F3
330
55F5
330
55F6
330
55F7
330
55F8
330
55F9
330
55FA
330
55FB
330
55FC
330
55FD
330
55FE
330
55FF
330
5600
330
5601
330
5602
330
5603
330
5604
330
5605
330
5606
330
5607
330
5608
330
5609
330
560A
330
560B
330
560E
330
560F
330
5610
330
5611
330
5612
330
5613
330
5614
330
5615
330
5616
330
5617
330
5618
330
5619
330
561A
330
561B
330
561C
330
561D
330
561E
330
561F
330
5620
330
5621
330
5622
330
5623
330
5624
330
5625
330
5626
330
5627
330
5628
330
5629
330
562A
330
562B
330
562C
330
562D
330
562E
330
562F
330
5630
330
5631
330
5632
330
5633
330
5634
330
5635
330
5636
330
5637
330
5638
330
563B
330
563C
330
563D
330
563E
330
563F
330
5640
330
5641
330
5642
330
5643
330
5644
330
5645
330
5646
330
5647
330
5648
330
5649
330
564A
330
564B
330
564C
330
564D
330
564E
330
564F
330
5650
330
5651
330
5652
330
5653
330
5654
330
5655
330
5656
330
5657
330
5658
330
5659
330
565A
330
565B
330
565C
330
565D
330
565E
330
565F
330
5660
330
5661
330
5662
330
5663
330
56D8
330
56D9
330
56DA
330
56DB
330
56DC
330
56DD
330
56DE
330
56DF
330
56E0
330
56E1
330
56E2
330
56E3
330
56E4
330
56E5
  0
IDBUFFER
  5
5CA0
330
0
100
AcDbIdBuffer
330
566A
330
566B
330
566C
330
566D
  0
IDBUFFER
  5
5CA1
330
0
100
AcDbIdBuffer
330
515B
330
5168
330
5169
330
516A
330
516B
330
516C
330
516D
330
516E
330
516F
330
5170
330
56D4
330
56D5
330
56D6
330
56D7
330
56F9
330
56FA
330
56FB
330
56FC
330
56FD
330
56FE
330
56FF
330
5700
330
5701
330
5702
330
5703
330
5704
330
5705
330
5706
330
5707
330
5708
330
5709
330
570A
330
5134
330
5135
330
5136
330
5137
330
5138
330
5139
330
513A
330
513B
330
513C
330
513D
330
5155
330
5156
330
5157
330
5158
330
5159
330
515A
  0
IDBUFFER
  5
5CA2
330
0
100
AcDbIdBuffer
330
374C
330
374D
330
374E
330
374F
330
3B49
330
3B6C
330
3B6D
330
36BB
330
36BC
330
36BD
330
36BE
330
36BF
330
36C0
330
36C1
330
36C2
330
36C3
330
36C4
330
36C5
330
36C6
330
36C7
330
36C8
330
36C9
330
36CA
330
36CB
330
36CC
330
36CD
330
36CE
330
36CF
330
36D0
330
36D1
330
36D2
330
36D3
330
36D4
330
36D5
330
36D6
330
36D7
330
36D8
330
36D9
330
36DD
330
36E1
330
36E2
330
36E6
330
36E7
330
36E8
330
36E9
330
36EA
330
36EB
330
36EC
330
36ED
330
36F1
330
36F5
330
36F9
330
36FA
330
36FB
330
36FF
330
3700
330
3701
330
3702
330
3703
330
3704
330
3705
330
3706
330
3707
330
3708
330
3709
330
370A
330
370B
330
370C
330
370D
330
370E
330
370F
330
3710
330
3711
330
3712
330
3713
330
3714
330
3715
330
3716
330
3717
330
3718
330
3719
330
371A
330
371B
330
371C
330
371D
330
371E
330
371F
330
3720
330
3721
330
3722
330
3723
330
3724
330
3725
330
3726
330
3727
330
3728
330
3729
330
372A
330
372B
330
372C
330
372D
330
372E
330
372F
330
3730
330
3731
330
3732
330
3733
330
3734
330
3735
330
3736
330
3737
330
3738
330
3739
330
373A
330
373B
330
373C
330
373D
330
374A
330
374B
  0
XRECORD
  5
5CAA
102
{ACAD_REACTORS
330
5CA9
102
}
330
5CA9
100
AcDbXrecord
280
     1
102
SHADEPLOT
 70
     0
102
SHADEPLOTRESLEVEL
 70
     2
102
SHADEPLOTCUSTOMDPI
 70
   300
  0
XRECORD
  5
5CA8
102
{ACAD_REACTORS
330
5CA7
102
}
330
5CA7
100
AcDbXrecord
280
     1
102
SHADEPLOT
 70
     0
102
SHADEPLOTRESLEVEL
 70
     2
102
SHADEPLOTCUSTOMDPI
 70
   300
  0
ENDSEC
  0
EOF
