  0
SECTION
  2
HEADER
  9
$ACADVER
  1
AC1015
  9
$ACADMAINTVER
 70
    20
  9
$DWGCODEPAGE
  3
ANSI_950
  9
$INSBASE
 10
0.0
 20
0.0
 30
0.0
  9
$EXTMIN
 10
15.15454195527661
 20
-275.2461793952293
 30
-0.008296462558917
  9
$EXTMAX
 10
345.1948250816144
 20
178.5722968206171
 30
216.2553477651114
  9
$LIMMIN
 10
0.0
 20
0.0
  9
$LIMMAX
 10
396.0
 20
273.0
  9
$ORTHOMODE
 70
     1
  9
$REGENMODE
 70
     1
  9
$FILLMODE
 70
     1
  9
$QTEXTMODE
 70
     0
  9
$MIRRTEXT
 70
     1
  9
$LTSCALE
 40
5.0
  9
$ATTMODE
 70
     1
  9
$TEXTSIZE
 40
3.0
  9
$TRACEWID
 40
0.05
  9
$TEXTSTYLE
  7
DAYUS
  9
$CLAYER
  8
0
  9
$CELTYPE
  6
BYLAYER
  9
$CECOLOR
 62
   256
  9
$CELTSCALE
 40
1.0
  9
$DISPSILH
 70
     0
  9
$DIMSCALE
 40
1.0
  9
$DIMASZ
 40
3.0
  9
$DIMEXO
 40
1.0
  9
$DIMDLI
 40
6.0
  9
$DIMRND
 40
0.0
  9
$DIMDLE
 40
0.0
  9
$DIMEXE
 40
1.5
  9
$DIMTP
 40
0.1
  9
$DIMTM
 40
0.1
  9
$DIMTXT
 40
3.0
  9
$DIMCEN
 40
3.0
  9
$DIMTSZ
 40
0.0
  9
$DIMTOL
 70
     0
  9
$DIMLIM
 70
     0
  9
$DIMTIH
 70
     0
  9
$DIMTOH
 70
     0
  9
$DIMSE1
 70
     0
  9
$DIMSE2
 70
     0
  9
$DIMTAD
 70
     1
  9
$DIMZIN
 70
     8
  9
$DIMBLK
  1

  9
$DIMASO
 70
     1
  9
$DIMSHO
 70
     0
  9
$DIMPOST
  1

  9
$DIMAPOST
  1
"
  9
$DIMALT
 70
     0
  9
$DIMALTD
 70
     2
  9
$DIMALTF
 40
0.0393701
  9
$DIMLFAC
 40
1.0
  9
$DIMTOFL
 70
     1
  9
$DIMTVP
 40
0.0
  9
$DIMTIX
 70
     0
  9
$DIMSOXD
 70
     0
  9
$DIMSAH
 70
     0
  9
$DIMBLK1
  1

  9
$DIMBLK2
  1

  9
$DIMSTYLE
  2
AM_ISO
  9
$DIMCLRD
 70
   256
  9
$DIMCLRE
 70
   256
  9
$DIMCLRT
 70
   256
  9
$DIMTFAC
 40
0.71
  9
$DIMGAP
 40
0.8
  9
$DIMJUST
 70
     0
  9
$DIMSD1
 70
     0
  9
$DIMSD2
 70
     0
  9
$DIMTOLJ
 70
     0
  9
$DIMTZIN
 70
     8
  9
$DIMALTZ
 70
     0
  9
$DIMALTTZ
 70
     0
  9
$DIMUPT
 70
     0
  9
$DIMDEC
 70
     2
  9
$DIMTDEC
 70
     8
  9
$DIMALTU
 70
     2
  9
$DIMALTTD
 70
     2
  9
$DIMTXSTY
  7
STANDARD
  9
$DIMAUNIT
 70
     0
  9
$DIMADEC
 70
     0
  9
$DIMALTRND
 40
0.0
  9
$DIMAZIN
 70
     2
  9
$DIMDSEP
 70
    46
  9
$DIMATFIT
 70
     3
  9
$DIMFRAC
 70
     0
  9
$DIMLDRBLK
  1

  9
$DIMLUNIT
 70
     2
  9
$DIMLWD
 70
    -1
  9
$DIMLWE
 70
    -1
  9
$DIMTMOVE
 70
     0
  9
$LUNITS
 70
     2
  9
$LUPREC
 70
     2
  9
$SKETCHINC
 40
0.1
  9
$FILLETRAD
 40
2.5
  9
$AUNITS
 70
     0
  9
$AUPREC
 70
     0
  9
$MENU
  1
C:\CACAD\ACAD
  9
$ELEVATION
 40
0.0
  9
$PELEVATION
 40
0.0
  9
$THICKNESS
 40
0.0
  9
$LIMCHECK
 70
     0
  9
$CHAMFERA
 40
2.5
  9
$CHAMFERB
 40
2.5
  9
$CHAMFERC
 40
0.0
  9
$CHAMFERD
 40
0.0
  9
$SKPOLY
 70
     0
  9
$TDCREATE
 40
2450294.602131481
  9
$TDUCREATE
 40
2450294.268798149
  9
$TDUPDATE
 40
2454117.699568680
  9
$TDUUPDATE
 40
2454117.366235347
  9
$TDINDWG
 40
0.3733109259
  9
$TDUSRTIMER
 40
0.3733076736
  9
$USRTIMER
 70
     1
  9
$ANGBASE
 50
0.0
  9
$ANGDIR
 70
     0
  9
$PDMODE
 70
    65
  9
$PDSIZE
 40
8.3
  9
$PLINEWID
 40
0.0
  9
$SPLFRAME
 70
     0
  9
$SPLINETYPE
 70
     6
  9
$SPLINESEGS
 70
     8
  9
$HANDSEED
  5
4DF8
  9
$SURFTAB1
 70
     6
  9
$SURFTAB2
 70
     6
  9
$SURFTYPE
 70
     6
  9
$SURFU
 70
     6
  9
$SURFV
 70
     6
  9
$UCSBASE
  2

  9
$UCSNAME
  2

  9
$UCSORG
 10
0.0
 20
0.0
 30
0.0
  9
$UCSXDIR
 10
1.0
 20
0.0
 30
0.0
  9
$UCSYDIR
 10
0.0
 20
1.0
 30
0.0
  9
$UCSORTHOREF
  2

  9
$UCSORTHOVIEW
 70
     0
  9
$UCSORGTOP
 10
0.0
 20
0.0
 30
0.0
  9
$UCSORGBOTTOM
 10
0.0
 20
0.0
 30
0.0
  9
$UCSORGLEFT
 10
0.0
 20
0.0
 30
0.0
  9
$UCSORGRIGHT
 10
0.0
 20
0.0
 30
0.0
  9
$UCSORGFRONT
 10
0.0
 20
0.0
 30
0.0
  9
$UCSORGBACK
 10
0.0
 20
0.0
 30
0.0
  9
$PUCSBASE
  2

  9
$PUCSNAME
  2

  9
$PUCSORG
 10
0.0
 20
0.0
 30
0.0
  9
$PUCSXDIR
 10
1.0
 20
0.0
 30
0.0
  9
$PUCSYDIR
 10
0.0
 20
1.0
 30
0.0
  9
$PUCSORTHOREF
  2

  9
$PUCSORTHOVIEW
 70
     0
  9
$PUCSORGTOP
 10
0.0
 20
0.0
 30
0.0
  9
$PUCSORGBOTTOM
 10
0.0
 20
0.0
 30
0.0
  9
$PUCSORGLEFT
 10
0.0
 20
0.0
 30
0.0
  9
$PUCSORGRIGHT
 10
0.0
 20
0.0
 30
0.0
  9
$PUCSORGFRONT
 10
0.0
 20
0.0
 30
0.0
  9
$PUCSORGBACK
 10
0.0
 20
0.0
 30
0.0
  9
$USERI1
 70
     0
  9
$USERI2
 70
     0
  9
$USERI3
 70
     0
  9
$USERI4
 70
     0
  9
$USERI5
 70
     0
  9
$USERR1
 40
0.0
  9
$USERR2
 40
0.0
  9
$USERR3
 40
0.0
  9
$USERR4
 40
0.0
  9
$USERR5
 40
0.0
  9
$WORLDVIEW
 70
     1
  9
$SHADEDGE
 70
     3
  9
$SHADEDIF
 70
    70
  9
$TILEMODE
 70
     1
  9
$MAXACTVP
 70
    16
  9
$PINSBASE
 10
101.9887994410416
 20
50.0
 30
155.412184630939
  9
$PLIMCHECK
 70
     0
  9
$PEXTMIN
 10
1.000000000000000E+20
 20
1.000000000000000E+20
 30
1.000000000000000E+20
  9
$PEXTMAX
 10
-1.000000000000000E+20
 20
-1.000000000000000E+20
 30
-1.000000000000000E+20
  9
$PLIMMIN
 10
0.0
 20
0.0
  9
$PLIMMAX
 10
12.0
 20
9.0
  9
$UNITMODE
 70
     0
  9
$VISRETAIN
 70
     0
  9
$PLINEGEN
 70
     0
  9
$PSLTSCALE
 70
     0
  9
$TREEDEPTH
 70
  3020
  9
$CMLSTYLE
  2
STANDARD
  9
$CMLJUST
 70
     0
  9
$CMLSCALE
 40
1.0
  9
$PROXYGRAPHICS
 70
     1
  9
$MEASUREMENT
 70
     1
  9
$CELWEIGHT
370
    -1
  9
$ENDCAPS
280
     0
  9
$JOINSTYLE
280
     0
  9
$LWDISPLAY
290
     0
  9
$INSUNITS
 70
     4
  9
$HYPERLINKBASE
  1

  9
$STYLESHEET
  1
彩色出圖.ctb
  9
$XEDIT
290
     1
  9
$CEPSNTYPE
380
     0
  9
$PSTYLEMODE
290
     1
  9
$FINGERPRINTGUID
  2
{727C4F51-B094-446D-A919-594C4FA4BCB3}
  9
$VERSIONGUID
  2
{CD762CCE-736F-42D3-B5BE-69BECE44AC4B}
  9
$EXTNAMES
290
     1
  9
$PSVPSCALE
 40
0.0
  9
$OLESTARTUP
290
     0
  0
ENDSEC
  0
SECTION
  2
CLASSES
  0
CLASS
  1
ACDBDICTIONARYWDFLT
  2
AcDbDictionaryWithDefault
  3
ObjectDBX Classes
 90
        0
280
     0
281
     0
  0
CLASS
  1
ACDBPLACEHOLDER
  2
AcDbPlaceHolder
  3
ObjectDBX Classes
 90
        0
280
     0
281
     0
  0
CLASS
  1
LAYOUT
  2
AcDbLayout
  3
ObjectDBX Classes
 90
        0
280
     0
281
     0
  0
CLASS
  1
IMAGEDEF
  2
AcDbRasterImageDef
  3
ISM
 90
        0
280
     0
281
     0
  0
CLASS
  1
ACME_DOCUMENT
  2
AcMeDbDoc
  3
AcMeServices
 90
        0
280
     0
281
     0
  0
CLASS
  1
AMGSETTINGSOBJ
  2
AmgSettingsObj
  3
"AcadM|Product Description: AutoCAD Mechanical 2000|Company: Autodesk"
 90
        0
280
     0
281
     0
  0
CLASS
  1
ACMESCOPE
  2
AcMeScope
  3
AcMeServices
 90
        0
280
     0
281
     0
  0
CLASS
  1
ACMECOMMANDHISTORY
  2
AcMeCommandHistory
  3
AcMeServices
 90
        0
280
     0
281
     0
  0
CLASS
  1
ACIMSYSVARMAN
  2
AcImSysVarManager
  3
AcMeServices
 90
        0
280
     0
281
     0
  0
CLASS
  1
ACIMREALSYSVAR
  2
AcImRealSysVar
  3
AcMeServices
 90
        0
280
     0
281
     0
  0
CLASS
  1
ACIMINTSYSVAR
  2
AcImIntSysVar
  3
AcMeServices
 90
        0
280
     0
281
     0
  0
CLASS
  1
ACMEDRAWINGMAN
  2
AcMeDrawingMan
  3
AcMeServices
 90
        0
280
     0
281
     0
  0
CLASS
  1
ACMEVIEW
  2
AcMeView
  3
AcMeServices
 90
        0
280
     0
281
     0
  0
CLASS
  1
ACDBENTITYCACHE
  2
AcMeEntityCache
  3
AcMeServices
 90
        0
280
     0
281
     0
  0
CLASS
  1
GSMANAGER
  2
AcMeGSManager
  3
AcMeServices
 90
        0
280
     0
281
     0
  0
CLASS
  1
AMDTINTERNALREACTOR
  2
AmdtInternalReactor
  3
AcMeServices
 90
        0
280
     0
281
     0
  0
CLASS
  1
ACMESTATEMGR
  2
AcMeStateMgr
  3
AcMeServices
 90
        0
280
     0
281
     0
  0
CLASS
  1
ACGREFMASTER
  2
AcGrefMaster
  3
AcAttribServices
 90
        0
280
     0
281
     0
  0
CLASS
  1
ACME_DATABASE
  2
AcMeDbDatabase
  3
AcMeServices
 90
        0
280
     0
281
     0
  0
CLASS
  1
ACRFINSADJUSTERMGR
  2
AcRfInsAdjusterMgr
  3
AcMeServices
 90
        0
280
     0
281
     0
  0
CLASS
  1
ACGREFACADMASTER
  2
AcGrefacadMaster
  3
AcGrefServices
 90
        0
280
     0
281
     0
  0
CLASS
  1
AMIMASTER
  2
AmiMaster
  3
AmiServices
 90
        0
280
     0
281
     0
  0
CLASS
  1
ACMDATADICTIONARY
  2
AcmDataDictionary
  3
"AcmSymBB|Product Description: AutoCAD Mechanical 2004 DX|Company: Autodesk"
 90
        0
280
     0
281
     0
  0
CLASS
  1
ACMDATAENTRYBLOCK
  2
AcmDataEntryBlock
  3
"AcmSymBB|Product Description: AutoCAD Mechanical 2004 DX|Company: Autodesk"
 90
    32768
280
     0
281
     0
  0
CLASS
  1
ACIMSTRSYSVAR
  2
AcImStrSysVar
  3
AcMeServices
 90
        0
280
     0
281
     0
  0
CLASS
  1
ACMSTANDARDANSI
  2
AcmStandardANSI
  3
"Amdt_StdImp|Product Description: AutoCAD Mechanical 2004 DX|Company: Autodesk"
 90
    32768
280
     0
281
     0
  0
CLASS
  1
AMGOBJPROPCFG
  2
AmgObjPropCfg
  3
"AmgLay|Product Description: AutoCAD Mechanical 2000|Company: Autodesk"
 90
        1
280
     0
281
     0
  0
CLASS
  1
ACMSURFSTANDARDANSI
  2
AcmSurfTextStdANSI
  3
"Amdt_StdImp|Product Description: AutoCAD Mechanical 2004 DX|Company: Autodesk"
 90
    32768
280
     0
281
     0
  0
CLASS
  1
ACMFCFSTANDARDANSI
  2
AcmFCFStdANSI
  3
"Amdt_StdImp|Product Description: AutoCAD Mechanical 2004 DX|Company: Autodesk"
 90
    32768
280
     0
281
     0
  0
CLASS
  1
ACMWELDSTANDARDANSI
  2
AcmWeldingStdANSI
  3
"Amdt_StdImp|Product Description: AutoCAD Mechanical 2004 DX|Company: Autodesk"
 90
    32768
280
     0
281
     0
  0
CLASS
  1
ACMIDSTANDARDANSI
  2
AcmIdStdANSI
  3
"Amdt_StdImp|Product Description: AutoCAD Mechanical 2004 DX|Company: Autodesk"
 90
    32768
280
     0
281
     0
  0
CLASS
  1
ACMDATUMSTANDARDANSI
  2
AcmDatumStdANSI
  3
"Amdt_StdImp|Product Description: AutoCAD Mechanical 2004 DX|Company: Autodesk"
 90
    32768
280
     0
281
     0
  0
CLASS
  1
ACMBOMSTANDARDANSI
  2
AcmBOMStdANSI
  3
"Amdt_StdImp|Product Description: AutoCAD Mechanical 2004 DX|Company: Autodesk"
 90
    32768
280
     0
281
     0
  0
CLASS
  1
ACMDETAILSTANDARDANSI
  2
AmdtDetailSymStdANSI
  3
"Amdt_StdImp|Product Description: AutoCAD Mechanical 2004 DX|Company: Autodesk"
 90
    32768
280
     0
281
     0
  0
CLASS
  1
ACMSECTIONSTANDARDANSI
  2
AmdtSectionSymStdANSI
  3
"Amdt_StdImp|Product Description: AutoCAD Mechanical 2004 DX|Company: Autodesk"
 90
    32768
280
     0
281
     0
  0
CLASS
  1
ACMCENTERLINESTANDARDANSI
  2
AmdtCenterLineStdANSI
  3
"Amdt_StdImp|Product Description: AutoCAD Mechanical 2004 DX|Company: Autodesk"
 90
    32768
280
     0
281
     0
  0
CLASS
  1
ACMNOTESTANDARDANSI
  2
AmdtNoteStdANSI
  3
"Amdt_StdImp|Product Description: AutoCAD Mechanical 2004 DX|Company: Autodesk"
 90
    32768
280
     0
281
     0
  0
CLASS
  1
ACAMGLAYSTD
  2
AcAmgLayStd
  3
"AcAmgLayStd|Product Description: AutoCAD Mechanical 2000|Company: Autodesk"
 90
        0
280
     0
281
     0
  0
CLASS
  1
ACAMGDIMSTD
  2
AcAmgDimStd
  3
"AcAmgDimStd|Product Description: AutoCAD Mechanical 2000|Company: Autodesk"
 90
        0
280
     0
281
     0
  0
CLASS
  1
ACAMGHOLECHARTSTDANSI
  2
AcAmgHoleChartStdANSI
  3
ACMSYMBB_MODULE_NAME
 90
    32768
280
     0
281
     0
  0
CLASS
  1
ACAMGTITLESTD
  2
AcAmgTitleStd
  3
"TITLEAPP"
 90
        0
280
     0
281
     0
  0
CLASS
  1
ACAMGFILTERDAT
  2
AcAmgFilterDat
  3
"AcadM|Product Description: AutoCAD Mechanical 2000|Company: Autodesk"
 90
    32768
280
     0
281
     0
  0
CLASS
  1
AMDTFORMULAUPDATEDISPATCHER
  2
AmdtFormulaUpdateDispatcher
  3
AcMeServices
 90
    32768
280
     0
281
     0
  0
CLASS
  1
LAYER_INDEX
  2
AcDbLayerIndex
  3
ObjectDBX Classes
 90
        0
280
     0
281
     0
  0
CLASS
  1
IDBUFFER
  2
AcDbIdBuffer
  3
ObjectDBX Classes
 90
        0
280
     0
281
     0
  0
CLASS
  1
DICTIONARYVAR
  2
AcDbDictionaryVar
  3
ObjectDBX Classes
 90
        0
280
     0
281
     0
  0
CLASS
  1
ACMSTANDARDISO
  2
AcmStandardISO
  3
"Amdt_StdImp|Product Description: AutoCAD Mechanical 2004 DX|Company: Autodesk"
 90
        0
280
     0
281
     0
  0
CLASS
  1
AMDTEDGESTANDARDISO
  2
AmdtEdgeStdISO
  3
"Amdt_StdImp|Product Description: AutoCAD Mechanical 2004 DX|Company: Autodesk"
 90
    32768
280
     0
281
     0
  0
CLASS
  1
ACMSURFSTANDARDISO
  2
AcmSurfTextStdISO
  3
"Amdt_StdImp|Product Description: AutoCAD Mechanical 2004 DX|Company: Autodesk"
 90
        0
280
     0
281
     0
  0
CLASS
  1
ACMFCFSTANDARDISO
  2
AcmFCFStdISO
  3
"Amdt_StdImp|Product Description: AutoCAD Mechanical 2004 DX|Company: Autodesk"
 90
        0
280
     0
281
     0
  0
CLASS
  1
ACMWELDSTANDARDISO
  2
AcmWeldingStdISO
  3
"Amdt_StdImp|Product Description: AutoCAD Mechanical 2004 DX|Company: Autodesk"
 90
        0
280
     0
281
     0
  0
CLASS
  1
ACMIDSTANDARDISO
  2
AcmIdStdISO
  3
"Amdt_StdImp|Product Description: AutoCAD Mechanical 2004 DX|Company: Autodesk"
 90
        0
280
     0
281
     0
  0
CLASS
  1
ACMDATUMSTANDARDISO
  2
AcmDatumStdISO
  3
"Amdt_StdImp|Product Description: AutoCAD Mechanical 2004 DX|Company: Autodesk"
 90
        0
280
     0
281
     0
  0
CLASS
  1
ACMBOMSTANDARDISO
  2
AcmBOMStdISO
  3
"Amdt_StdImp|Product Description: AutoCAD Mechanical 2004 DX|Company: Autodesk"
 90
        0
280
     0
281
     0
  0
CLASS
  1
ACMDETAILSTANDARDISO
  2
AmdtDetailSymStdISO
  3
"Amdt_StdImp|Product Description: AutoCAD Mechanical 2004 DX|Company: Autodesk"
 90
        0
280
     0
281
     0
  0
CLASS
  1
ACMSECTIONSTANDARDISO
  2
AmdtSectionSymStdISO
  3
"Amdt_StdImp|Product Description: AutoCAD Mechanical 2004 DX|Company: Autodesk"
 90
        0
280
     0
281
     0
  0
CLASS
  1
ACMCENTERLINESTANDARDISO
  2
AmdtCenterLineStdISO
  3
"Amdt_StdImp|Product Description: AutoCAD Mechanical 2004 DX|Company: Autodesk"
 90
        0
280
     0
281
     0
  0
CLASS
  1
ACMNOTESTANDARDISO
  2
AmdtNoteStdISO
  3
"Amdt_StdImp|Product Description: AutoCAD Mechanical 2004 DX|Company: Autodesk"
 90
        0
280
     0
281
     0
  0
CLASS
  1
ACAMGHOLECHARTSTDISO
  2
AcAmgHoleChartStdISO
  3
ACMSYMBB_MODULE_NAME
 90
        0
280
     0
281
     0
  0
CLASS
  1
AMDTNOTE
  2
AmdtNote
  3
"AcmSymBB|Product Description: AutoCAD Mechanical 2004 DX|Company: Autodesk"
 90
    33791
280
     0
281
     1
  0
CLASS
  1
TABLESTYLE
  2
AcDbTableStyle
  3
ObjectDBX Classes
 90
     2047
280
     0
281
     0
  0
CLASS
  1
AM_DRAWING_MGR
  2
AcDmDwgMgr
  3
AcMechDwgViewMgmt
 90
        0
280
     0
281
     0
  0
CLASS
  1
AM_DWG_DOCUMENT
  2
AcDmDwgDocument
  3
AcMechDwgViewMgmt
 90
        0
280
     0
281
     0
  0
CLASS
  1
AM_DWG_SHEET
  2
AcDmSheet
  3
AcMechDwgViewMgmt
 90
        0
280
     0
281
     0
  0
CLASS
  1
AM_VIEWDIMPARMAP
  2
AcDmViewDimParMap
  3
AcMechDwgViewMgmt
 90
        0
280
     0
281
     0
  0
CLASS
  1
AM_DWGMGR_NAME
  2
AcDmDwgMgrName
  3
AcMechDwgViewMgmt
 90
        0
280
     0
281
     0
  0
CLASS
  1
AMDTMENUSTATEMGR
  2
AmdtMenuStateMgr
  3
McadcomServices
 90
        0
280
     0
281
     0
  0
CLASS
  1
AMDTMCOMMENUSTATE
  2
AmdtMcomMenuState
  3
McadcomServices
 90
        0
280
     0
281
     0
  0
CLASS
  1
MAPIAMMOUDLE
  2
MApiAmModule
  3
MApiAmServices
 90
        0
280
     0
281
     0
  0
CLASS
  1
AMDTADMENUSTATE
  2
AmdtAdMenuState
  3
DesignerServices
 90
        0
280
     0
281
     0
  0
CLASS
  1
ADAPPL
  2
AcAdAppl
  3
DesignerServices
 90
        0
280
     0
281
     0
  0
CLASS
  1
DEPMGR
  2
AcAdDepMgr
  3
DesignerServices
 90
        0
280
     0
281
     0
  0
CLASS
  1
PARAMMGR
  2
AcAdParamMgr
  3
DesignerServices
 90
        0
280
     0
281
     0
  0
CLASS
  1
PARAMSCOPE
  2
AcAdParamScope
  3
DesignerServices
 90
        0
280
     0
281
     0
  0
CLASS
  1
NAMEDAPPL
  2
AcAdNamedAppl
  3
DesignerServices
 90
        0
280
     0
281
     0
  0
CLASS
  1
AMDTDMMENUSTATE
  2
AmdtDmMenuState
  3
AcMechDwgViewMgmt
 90
        0
280
     0
281
     0
  0
CLASS
  1
AMDTAMMENUSTATE
  2
AmdtAmMenuState
  3
DesignerAssemblies
 90
        0
280
     0
281
     0
  0
CLASS
  1
ACAMPROJECT
  2
AcAmProject
  3
DesignerAssemblies
 90
        0
280
     0
281
     0
  0
CLASS
  1
ACAMGRCOMPDEF
  2
AcAmGrCompDef
  3
DesignerAssemblies
 90
        0
280
     0
281
     0
  0
CLASS
  1
ACCMCONTEXT
  2
AcCmContext
  3
DesignerAssemblies
 90
        0
280
     0
281
     0
  0
CLASS
  1
ACAMCOMPDEF
  2
AcAmCompDef
  3
DesignerAssemblies
 90
        0
280
     0
281
     0
  0
CLASS
  1
ACAMCOMPDEFMGR
  2
AcAmCompDefMgr
  3
DesignerAssemblies
 90
        0
280
     0
281
     0
  0
CLASS
  1
AMCONTEXTMGR
  2
AcAmContextMgr
  3
DesignerAssemblies
 90
        0
280
     0
281
     0
  0
CLASS
  1
ACAMCONTEXTMODELER
  2
AcAmContextModeler
  3
DesignerAssemblies
 90
        0
280
     0
281
     0
  0
CLASS
  1
CATALOGSTATE
  2
AcAmCatalogState
  3
DesignerAssemblies
 90
        0
280
     0
281
     0
  0
CLASS
  1
ACAMGRCOMPDEFSET
  2
AcAmGrCompDefSet
  3
DesignerAssemblies
 90
        0
280
     0
281
     0
  0
CLASS
  1
AMDTBROWSERDBTAB
  2
AmdtBrowserDbTab
  3
McadcomServices
 90
        0
280
     0
281
     0
  0
CLASS
  1
CBROWSERAPPOBJECT
  2
CBrowserAppObject
  3
McadcomServices
 90
        0
280
     0
281
     0
  0
CLASS
  1
DM_PLACEHOLDER
  2
AcDmSelsetPlaceholder
  3
AcMechDwgViewMgmt
 90
        0
280
     0
281
     0
  0
CLASS
  1
AMDTEDGESTANDARDISO13715
  2
AmdtEdgeStdISO13715
  3
"Amdt_StdImp|Product Description: AutoCAD Mechanical 2004 DX|Company: Autodesk"
 90
        0
280
     0
281
     0
  0
CLASS
  1
ACMTHREADLINESTANDARDISO
  2
AmdtThreadLineStdISO
  3
"Amdt_StdImp|Product Description: AutoCAD Mechanical 2004 DX|Company: Autodesk"
 90
        0
280
     0
281
     0
  0
CLASS
  1
AMDTNOTETEMPLATEDB
  2
AmdtNoteTemplateDB
  3
AMDT_STDIMP_MODULE_NAME
 90
        0
280
     0
281
     0
  0
CLASS
  1
SORTENTSTABLE
  2
AcDbSortentsTable
  3
ObjectDBX Classes
 90
        0
280
     0
281
     0
  0
CLASS
  1
ACRFATTGENMGR
  2
AcRfAttGeneralMgr
  3
AcAttribServices
 90
        0
280
     0
281
     0
  0
ENDSEC
  0
SECTION
  2
TABLES
  0
TABLE
  2
VPORT
  5
8
330
0
100
AcDbSymbolTable
 70
     3
  0
VPORT
  5
4DF1
330
8
100
AcDbSymbolTableRecord
100
AcDbViewportTableRecord
  2
*Active
 70
     0
 10
0.0
 20
0.0
 11
1.0
 21
1.0
 12
180.1746835184455
 22
-48.32713590946912
 13
0.0
 23
0.0
 14
2.5
 24
2.5
 15
10.0
 25
10.0
 16
0.0
 26
0.0
 36
1.0
 17
0.0
 27
0.0
 37
0.0
 40
457.4626912299963
 41
1.609210526315789
 42
50.0
 43
0.0
 44
0.0
 50
0.0
 51
0.0
 71
     0
 72
   100
 73
     1
 74
     1
 75
     0
 76
     0
 77
     0
 78
     0
281
     0
 65
     1
110
0.0
120
0.0
130
0.0
111
1.0
121
0.0
131
0.0
112
0.0
122
1.0
132
0.0
 79
     0
146
0.0
  0
ENDTAB
  0
TABLE
  2
LTYPE
  5
5
330
0
100
AcDbSymbolTable
 70
    15
  0
LTYPE
  5
13
330
5
100
AcDbSymbolTableRecord
100
AcDbLinetypeTableRecord
  2
BYBLOCK
 70
     0
  3

 72
    65
 73
     0
 40
0.0
  0
LTYPE
  5
14
330
5
100
AcDbSymbolTableRecord
100
AcDbLinetypeTableRecord
  2
BYLAYER
 70
     0
  3

 72
    65
 73
     0
 40
0.0
  0
LTYPE
  5
15
330
5
100
AcDbSymbolTableRecord
100
AcDbLinetypeTableRecord
  2
CONTINUOUS
 70
     0
  3
Solid line
 72
    65
 73
     0
 40
0.0
  0
LTYPE
  5
23
330
5
100
AcDbSymbolTableRecord
100
AcDbLinetypeTableRecord
  2
HIDDEN
 70
     0
  3
_ _ _ _ _ _ _ _ _ _ _ _ _ _ _ _ _ _ _ _ _ _ _
 72
    65
 73
     2
 40
0.375
 49
0.25
 74
     0
 49
-0.125
 74
     0
  0
LTYPE
  5
24
330
5
100
AcDbSymbolTableRecord
100
AcDbLinetypeTableRecord
  2
CENTER
 70
     0
  3
____ _ ____ _ ____ _ ____ _ ____ _ ____ _ ____
 72
    65
 73
     4
 40
2.0
 49
1.25
 74
     0
 49
-0.25
 74
     0
 49
0.25
 74
     0
 49
-0.25
 74
     0
  0
LTYPE
  5
7CE
330
5
100
AcDbSymbolTableRecord
100
AcDbLinetypeTableRecord
  2
AMCONSTR
 70
     0
  3
_______________________
 72
    65
 73
     2
 40
9999.0
 49
9999.0
 74
     0
 49
0.0
 74
     0
  0
LTYPE
  5
7CF
330
5
100
AcDbSymbolTableRecord
100
AcDbLinetypeTableRecord
  2
AM_ISO08W050X2
 70
     0
  3
__ . __ . __ . __ . __ . __
 72
    65
 73
     4
 40
9.0
 49
6.0
 74
     0
 49
-0.75
 74
     0
 49
1.5
 74
     0
 49
-0.75
 74
     0
  0
LTYPE
  5
7D4
330
5
100
AcDbSymbolTableRecord
100
AcDbLinetypeTableRecord
  2
PHANTOM2
 70
     0
  3
Phantom (.5x) ___ _ _ ___ _ _ ___ _ _ ___ _ _
 72
    65
 73
     6
 40
1.25
 49
0.625
 74
     0
 49
-0.125
 74
     0
 49
0.125
 74
     0
 49
-0.125
 74
     0
 49
0.125
 74
     0
 49
-0.125
 74
     0
  0
LTYPE
  5
C13
330
5
100
AcDbSymbolTableRecord
100
AcDbLinetypeTableRecord
  2
ACISOWELD
 70
     0
  3
_ _ _ _ _
 72
    65
 73
     2
 40
2.0
 49
2.0
 74
     0
 49
-1.0
 74
     0
  0
LTYPE
  5
C14
330
5
100
AcDbSymbolTableRecord
100
AcDbLinetypeTableRecord
  2
ACISOTGB
 70
     0
  3
__ . . __ . .
 72
    65
 73
     6
 40
9.0
 49
4.0
 74
     0
 49
-1.0
 74
     0
 49
1.0
 74
     0
 49
-1.0
 74
     0
 49
1.0
 74
     0
 49
-1.0
 74
     0
  0
LTYPE
  5
C15
330
5
100
AcDbSymbolTableRecord
100
AcDbLinetypeTableRecord
  2
ACISOTGL
 70
     0
  3
_ _ _ _ _
 72
    65
 73
     2
 40
3.0
 49
2.0
 74
     0
 49
-1.0
 74
     0
  0
LTYPE
  5
16FD
330
5
100
AcDbSymbolTableRecord
100
AcDbLinetypeTableRecord
  2
AM_ISO02W050
 70
     0
  3
__ __ __ __ __ __ __ __ __ __ __ __ __ __ __
 72
    65
 73
     2
 40
7.5
 49
6.0
 74
     0
 49
-1.5
 74
     0
  0
LTYPE
  5
16FE
330
5
100
AcDbSymbolTableRecord
100
AcDbLinetypeTableRecord
  2
AM_ISO08W050
 70
     0
  3
____ . ____ . ____ . ____ . ____ . ____ . ____
 72
    65
 73
     4
 40
18.0
 49
12.0
 74
     0
 49
-1.5
 74
     0
 49
3.0
 74
     0
 49
-1.5
 74
     0
  0
LTYPE
  5
16FF
330
5
100
AcDbSymbolTableRecord
100
AcDbLinetypeTableRecord
  2
AM_ISO09W050
 70
     0
  3
_____ . . _____ . . _____ . . ____ .. ____
 72
    65
 73
     6
 40
22.5
 49
12.0
 74
     0
 49
-1.5
 74
     0
 49
3.0
 74
     0
 49
-1.5
 74
     0
 49
3.0
 74
     0
 49
-1.5
 74
     0
  0
LTYPE
  5
1700
330
5
100
AcDbSymbolTableRecord
100
AcDbLinetypeTableRecord
  2
AM_ISO02W050x2
 70
     0
  3
 _ _ _ _ _ _ _ _ _ _ _ _
 72
    65
 73
     2
 40
3.75
 49
3.0
 74
     0
 49
-0.75
 74
     0
  0
LTYPE
  5
1701
330
5
100
AcDbSymbolTableRecord
100
AcDbLinetypeTableRecord
  2
Amzigzag
 70
     0
  3
/\/-/\/-/\/-/\/-/\/-/\/
 72
    65
 73
     2
 40
11.0001
 49
0.0001
 74
     4
 75
   135
340
7D2
 46
0.04
 50
0.0
 44
0.0
 45
0.0
 49
-11.0
 74
     0
  0
LTYPE
  5
3C82
330
5
100
AcDbSymbolTableRecord
100
AcDbLinetypeTableRecord
  2
HIDDEN2
 70
     0
  3
Hidden (.5x) _ _ _ _ _ _ _ _ _ _ _ _ _ _ _ _ _
 72
    65
 73
     2
 40
0.1875
 49
0.125
 74
     0
 49
-0.0625
 74
     0
  0
ENDTAB
  0
TABLE
  2
LAYER
  5
2
102
{ACAD_XDICTIONARY
360
361C
102
}
330
0
100
AcDbSymbolTable
 70
     8
  0
LAYER
  5
10
330
2
100
AcDbSymbolTableRecord
100
AcDbLayerTableRecord
  2
0
 70
     0
 62
     7
  6
CONTINUOUS
370
    -3
390
B32
  0
LAYER
  5
26
330
2
100
AcDbSymbolTableRecord
100
AcDbLayerTableRecord
  2
DEFPOINTS
 70
     0
 62
     7
  6
CONTINUOUS
290
     0
370
    -3
390
B32
  0
LAYER
  5
516
330
2
100
AcDbSymbolTableRecord
100
AcDbLayerTableRecord
  2
ASHADE
 70
     0
 62
     7
  6
CONTINUOUS
370
    -3
390
B32
  0
LAYER
  5
C16
330
2
100
AcDbSymbolTableRecord
100
AcDbLayerTableRecord
  2
AM_7
 70
     0
 62
     1
  6
CENTER
370
    25
390
B32
  0
LAYER
  5
C17
330
2
100
AcDbSymbolTableRecord
100
AcDbLayerTableRecord
  2
AM_VIS
 70
     2
 62
     7
  6
CONTINUOUS
370
    50
390
B32
  0
LAYER
  5
C18
330
2
100
AcDbSymbolTableRecord
100
AcDbLayerTableRecord
  2
AM_4
 70
     0
 62
     3
  6
CONTINUOUS
370
    25
390
B32
  0
LAYER
  5
11C1
330
2
100
AcDbSymbolTableRecord
100
AcDbLayerTableRecord
  2
AM_5
 70
     0
 62
     5
  6
CONTINUOUS
370
    25
390
B32
  0
LAYER
  5
3617
330
2
100
AcDbSymbolTableRecord
100
AcDbLayerTableRecord
  2
LOGO
 70
     0
 62
     7
  6
CONTINUOUS
370
    -3
390
B32
  0
ENDTAB
  0
TABLE
  2
STYLE
  5
3
330
0
100
AcDbSymbolTable
 70
     7
  0
STYLE
  5
11
330
3
100
AcDbSymbolTableRecord
100
AcDbTextStyleTableRecord
  2
STANDARD
 70
     0
 40
0.0
 41
1.0
 50
0.0
 71
     0
 42
3.5
  3
ISOCP.SHX
  4

  0
STYLE
  5
22
330
3
100
AcDbSymbolTableRecord
100
AcDbTextStyleTableRecord
  2
DAYUS
 70
     0
 40
0.0
 41
1.0
 50
0.0
 71
     0
 42
3.0
  3
simplex
  4
dayus
  0
STYLE
  5
7D2
330
3
100
AcDbSymbolTableRecord
100
AcDbTextStyleTableRecord
  2

 70
     1
 40
0.0
 41
1.0
 50
0.0
 71
     0
 42
4.0
  3
ltypeshp.shx
  4

  0
STYLE
  5
C19
330
3
100
AcDbSymbolTableRecord
100
AcDbTextStyleTableRecord
  2
ACISOTS
 70
     0
 40
1.0
 41
1.0
 50
0.0
 71
     0
 42
2.5
  3
isocp.shx
  4
chineset.shx
  0
STYLE
  5
C1A
330
3
100
AcDbSymbolTableRecord
100
AcDbTextStyleTableRecord
  2
ACISOGDT
 70
     0
 40
0.0
 41
1.0
 50
0.0
 71
     0
 42
2.5
  3
amgdt.shx
  4

  0
STYLE
  5
3618
330
3
100
AcDbSymbolTableRecord
100
AcDbTextStyleTableRecord
  2
CHINESET
 70
     0
 40
0.0
 41
1.0
 50
0.0
 71
     0
 42
3.0
  3
simplex.shx
  4
CHINESET.SHX
  0
ENDTAB
  0
TABLE
  2
VIEW
  5
6
330
0
100
AcDbSymbolTable
 70
     0
  0
ENDTAB
  0
TABLE
  2
UCS
  5
7
330
0
100
AcDbSymbolTable
 70
     0
  0
ENDTAB
  0
TABLE
  2
APPID
  5
9
330
0
100
AcDbSymbolTable
 70
    24
  0
APPID
  5
12
330
9
100
AcDbSymbolTableRecord
100
AcDbRegAppTableRecord
  2
ACAD
 70
     0
  0
APPID
  5
514
330
9
100
AcDbSymbolTableRecord
100
AcDbRegAppTableRecord
  2
AVE_RENDER
 70
     0
  0
APPID
  5
515
330
9
100
AcDbSymbolTableRecord
100
AcDbRegAppTableRecord
  2
AVE_ENTITY_MATERIAL
 70
     0
  0
APPID
  5
522
330
9
100
AcDbSymbolTableRecord
100
AcDbRegAppTableRecord
  2
AVE_FINISH
 70
     0
  0
APPID
  5
523
330
9
100
AcDbSymbolTableRecord
100
AcDbRegAppTableRecord
  2
AVE_MATERIAL
 70
     0
  0
APPID
  5
524
330
9
100
AcDbSymbolTableRecord
100
AcDbRegAppTableRecord
  2
AVE_GLOBAL
 70
     0
  0
APPID
  5
7AD
330
9
100
AcDbSymbolTableRecord
100
AcDbRegAppTableRecord
  2
MCAD_NO_VIS
 70
     0
  0
APPID
  5
7AE
330
9
100
AcDbSymbolTableRecord
100
AcDbRegAppTableRecord
  2
ACAD_TEMP_GRAPHIC
 70
     0
  0
APPID
  5
7BF
330
9
100
AcDbSymbolTableRecord
100
AcDbRegAppTableRecord
  2
ACATTRIBSERVICES
 70
     0
  0
APPID
  5
C22
330
9
100
AcDbSymbolTableRecord
100
AcDbRegAppTableRecord
  2
GENIUS_GENODEF_13
 70
     0
  0
APPID
  5
C23
330
9
100
AcDbSymbolTableRecord
100
AcDbRegAppTableRecord
  2
GENIUS_GENOREF_13
 70
     0
  0
APPID
  5
C24
330
9
100
AcDbSymbolTableRecord
100
AcDbRegAppTableRecord
  2
GENIUS_GENOBJ-N-CEN_13
 70
     0
  0
APPID
  5
16D2
330
9
100
AcDbSymbolTableRecord
100
AcDbRegAppTableRecord
  2
GENIUS_GENDTOL_13
 70
     0
  0
APPID
  5
2E9A
330
9
100
AcDbSymbolTableRecord
100
AcDbRegAppTableRecord
  2
AD_DRAW
 70
     0
  0
APPID
  5
2EB8
330
9
100
AcDbSymbolTableRecord
100
AcDbRegAppTableRecord
  2
DESIGNERASSEMBLIES
 70
     0
  0
APPID
  5
2EBD
330
9
100
AcDbSymbolTableRecord
100
AcDbRegAppTableRecord
  2
ACADM_DIM_EDIT
 70
     0
  0
APPID
  5
2EBE
330
9
100
AcDbSymbolTableRecord
100
AcDbRegAppTableRecord
  2
AMDT_DM_ADJ
 70
     0
  0
APPID
  5
2EF2
330
9
100
AcDbSymbolTableRecord
100
AcDbRegAppTableRecord
  2
GENIUS_GENOLIS_13
 70
     0
  0
APPID
  5
2EF3
330
9
100
AcDbSymbolTableRecord
100
AcDbRegAppTableRecord
  2
GENIUS_GENOENT_13
 70
     0
  0
APPID
  5
2EF4
330
9
100
AcDbSymbolTableRecord
100
AcDbRegAppTableRecord
  2
GENIUS_GENOBJ-N-CRS_13
 70
     0
  0
APPID
  5
3619
330
9
100
AcDbSymbolTableRecord
100
AcDbRegAppTableRecord
  2
ACAD_PSEXT
 70
     0
  0
APPID
  5
361A
330
9
100
AcDbSymbolTableRecord
100
AcDbRegAppTableRecord
  2
GENIUS_GENREC_14
 70
     0
  0
APPID
  5
361B
330
9
100
AcDbSymbolTableRecord
100
AcDbRegAppTableRecord
  2
GENIUS_GENOBJ-N-REC_13
 70
     0
  0
APPID
  5
3B55
330
9
100
AcDbSymbolTableRecord
100
AcDbRegAppTableRecord
  2
GENIUS_GENCEN_19
 70
     0
  0
ENDTAB
  0
TABLE
  2
DIMSTYLE
  5
A
330
0
100
AcDbSymbolTable
 70
     9
100
AcDbDimStyleTable
 71
     1
340
C1B
  0
DIMSTYLE
105
C1B
102
{ACAD_REACTORS
330
3F3A
330
3F3B
330
3F50
330
3F51
330
3F52
330
3F53
330
3F54
330
3F55
330
3F56
330
3F57
330
3F58
330
3F59
330
3F5A
330
3F5B
330
3F5C
330
3F5D
330
3F5E
330
44CE
330
44CF
330
44D0
330
44D1
330
44D2
330
44D3
330
44D4
330
44D5
330
44D6
330
44D7
330
44D8
330
44D9
330
44F4
330
44F5
102
}
330
A
100
AcDbSymbolTableRecord
100
AcDbDimStyleTableRecord
  2
AM_ISO
 70
     0
  4
"
 41
3.0
 42
1.0
 43
6.0
 44
1.5
 47
0.1
 48
0.1
 73
     0
 74
     0
 77
     1
 78
     8
 79
     2
140
3.0
141
3.0
143
0.0393701
146
0.71
147
0.8
172
     1
176
   256
177
   256
178
   256
271
     2
272
     2
283
     0
284
     8
340
11
371
    -1
372
    -1
  0
DIMSTYLE
105
C1C
102
{ACAD_REACTORS
330
3F5F
330
44DA
102
}
330
A
100
AcDbSymbolTableRecord
100
AcDbDimStyleTableRecord
  2
AM_ISO$3
 70
     0
  4
"
 41
3.0
 42
1.0
 43
6.0
 44
1.5
 47
0.1
 48
0.1
 73
     0
 77
     1
 78
     8
 79
     2
140
3.0
141
3.0
143
0.0393701
146
0.71
147
0.8
176
   256
177
   256
178
   256
271
     2
272
     2
283
     0
284
     8
288
     1
289
     0
340
11
371
    -1
372
    -1
  0
DIMSTYLE
105
C1D
330
A
100
AcDbSymbolTableRecord
100
AcDbDimStyleTableRecord
  2
AM_ISO$4
 70
     0
  4
"
 41
3.0
 42
1.0
 43
6.0
 44
1.5
 47
0.1
 48
0.1
 73
     0
 77
     1
 78
     8
 79
     2
140
3.0
141
3.0
143
0.0393701
146
0.71
147
0.8
176
   256
177
   256
178
   256
271
     2
272
     2
283
     0
284
     8
288
     1
289
     0
340
11
371
    -1
372
    -1
  0
DIMSTYLE
105
C1E
330
A
100
AcDbSymbolTableRecord
100
AcDbDimStyleTableRecord
  2
AM_ISO$6
 70
     0
  4
"
 41
3.0
 42
1.0
 43
6.0
 44
1.5
 47
0.1
 48
0.1
 73
     0
 74
     0
 78
     8
 79
     2
140
3.0
141
3.0
143
0.0393701
146
0.71
147
0.8
172
     1
176
   256
177
   256
178
   256
271
     2
272
     2
283
     0
284
     8
340
11
371
    -1
372
    -1
  0
DIMSTYLE
105
C1F
330
A
100
AcDbSymbolTableRecord
100
AcDbDimStyleTableRecord
  2
AM_ISO$7
 70
     0
  4
"
 41
3.0
 42
1.0
 43
6.0
 44
1.5
 47
0.1
 48
0.1
 73
     0
 74
     0
 77
     1
 78
     8
 79
     2
140
5.0
141
3.0
143
0.0393701
146
0.71
147
0.8
172
     1
176
   256
177
   256
178
   256
271
     2
272
     2
283
     0
284
     8
340
11
371
    -1
372
    -1
  0
DIMSTYLE
105
C20
330
A
100
AcDbSymbolTableRecord
100
AcDbDimStyleTableRecord
  2
AM_ISO$SF
 70
     0
  4
"
 41
2.5
 42
1.0
 43
10.0
 44
1.0
 47
0.1
 48
0.1
 73
     0
 74
     0
 75
     1
 76
     1
 77
     1
 78
     8
 79
     2
140
3.5
141
0.0
143
0.0393701
146
0.71
147
1.5
172
     1
176
   256
177
   256
178
     2
271
     2
272
     3
274
     4
283
     0
284
     8
340
11
371
    -1
372
    -1
  0
DIMSTYLE
105
C21
330
A
100
AcDbSymbolTableRecord
100
AcDbDimStyleTableRecord
  2
AM_ISO$SH
 70
     0
  4
"
 41
2.5
 42
1.0
 43
10.0
 44
1.0
 47
0.1
 48
0.1
 73
     0
 74
     0
 75
     1
 76
     1
 77
     1
 78
     8
 79
     2
140
3.5
141
0.0
143
0.0393701
144
2.0
146
0.71
147
1.5
172
     1
173
     1
176
   256
177
   256
178
     2
271
     2
272
     3
274
     4
283
     0
284
     8
340
11
341
7ED
343
7ED
371
    -1
372
    -1
  0
DIMSTYLE
105
35F1
330
A
100
AcDbSymbolTableRecord
100
AcDbDimStyleTableRecord
  2
AM_ISO$0
 70
     0
  4
"
 41
3.0
 42
1.0
 43
6.0
 44
1.5
 47
0.1
 48
0.1
 73
     0
 74
     0
 77
     1
 78
     8
 79
     2
140
3.0
141
3.0
143
0.0393701
146
0.71
147
0.8
172
     1
176
   256
177
   256
178
   256
271
     2
272
     2
283
     0
284
     8
340
11
371
    -1
372
    -1
  0
ENDTAB
  0
TABLE
  2
BLOCK_RECORD
  5
1
330
0
100
AcDbSymbolTable
 70
    46
  0
BLOCK_RECORD
  5
1E
102
{ACAD_XDICTIONARY
360
708
102
}
330
1
100
AcDbSymbolTableRecord
100
AcDbBlockTableRecord
  2
*MODEL_SPACE
340
B33
  0
BLOCK_RECORD
  5
1A
102
{ACAD_XDICTIONARY
360
70A
102
}
330
1
100
AcDbSymbolTableRecord
100
AcDbBlockTableRecord
  2
*PAPER_SPACE
340
B34
  0
BLOCK_RECORD
  5
517
330
1
100
AcDbSymbolTableRecord
100
AcDbBlockTableRecord
  2
AVE_RENDER
340
0
102
{BLKREFS
331
51A
331
51B
331
51C
331
51D
331
51E
331
51F
331
520
331
521
102
}
  0
BLOCK_RECORD
  5
525
330
1
100
AcDbSymbolTableRecord
100
AcDbBlockTableRecord
  2
AVE_GLOBAL
340
0
102
{BLKREFS
331
528
102
}
  0
BLOCK_RECORD
  5
7ED
330
1
100
AcDbSymbolTableRecord
100
AcDbBlockTableRecord
  2
GENAXEH
340
0
  0
BLOCK_RECORD
  5
18E9
330
1
100
AcDbSymbolTableRecord
100
AcDbBlockTableRecord
  2
GENDOT
340
0
102
{BLKREFS
331
4D1E
331
4D26
102
}
  0
BLOCK_RECORD
  5
3B4B
102
{ACAD_XDICTIONARY
360
3B4C
102
}
330
1
100
AcDbSymbolTableRecord
100
AcDbBlockTableRecord
  2
A$C1F6E6265
340
0
102
{BLKREFS
331
48C5
331
48CB
102
}
  0
BLOCK_RECORD
  5
3C6D
330
1
100
AcDbSymbolTableRecord
100
AcDbBlockTableRecord
  2
*S6
340
0
102
{BLKREFS
331
3F60
102
}
  0
BLOCK_RECORD
  5
3C74
330
1
100
AcDbSymbolTableRecord
100
AcDbBlockTableRecord
  2
*S7
340
0
102
{BLKREFS
331
3F6A
102
}
  0
BLOCK_RECORD
  5
3C7B
330
1
100
AcDbSymbolTableRecord
100
AcDbBlockTableRecord
  2
*S8
340
0
102
{BLKREFS
331
3F6C
102
}
  0
BLOCK_RECORD
  5
3F6E
330
1
100
AcDbSymbolTableRecord
100
AcDbBlockTableRecord
  2
*D9
340
0
  0
BLOCK_RECORD
  5
3F7A
330
1
100
AcDbSymbolTableRecord
100
AcDbBlockTableRecord
  2
*D10
340
0
  0
BLOCK_RECORD
  5
3F86
330
1
100
AcDbSymbolTableRecord
100
AcDbBlockTableRecord
  2
*D11
340
0
  0
BLOCK_RECORD
  5
3F92
330
1
100
AcDbSymbolTableRecord
100
AcDbBlockTableRecord
  2
*D12
340
0
  0
BLOCK_RECORD
  5
3F9C
330
1
100
AcDbSymbolTableRecord
100
AcDbBlockTableRecord
  2
*D13
340
0
  0
BLOCK_RECORD
  5
3FA8
330
1
100
AcDbSymbolTableRecord
100
AcDbBlockTableRecord
  2
*D14
340
0
  0
BLOCK_RECORD
  5
3FB4
330
1
100
AcDbSymbolTableRecord
100
AcDbBlockTableRecord
  2
*D15
340
0
  0
BLOCK_RECORD
  5
3FC0
330
1
100
AcDbSymbolTableRecord
100
AcDbBlockTableRecord
  2
*D16
340
0
  0
BLOCK_RECORD
  5
3FCC
330
1
100
AcDbSymbolTableRecord
100
AcDbBlockTableRecord
  2
*D17
340
0
  0
BLOCK_RECORD
  5
3FD8
330
1
100
AcDbSymbolTableRecord
100
AcDbBlockTableRecord
  2
*D18
340
0
  0
BLOCK_RECORD
  5
3FE4
330
1
100
AcDbSymbolTableRecord
100
AcDbBlockTableRecord
  2
*D19
340
0
  0
BLOCK_RECORD
  5
3FF0
330
1
100
AcDbSymbolTableRecord
100
AcDbBlockTableRecord
  2
*D20
340
0
  0
BLOCK_RECORD
  5
3FFC
330
1
100
AcDbSymbolTableRecord
100
AcDbBlockTableRecord
  2
*D21
340
0
  0
BLOCK_RECORD
  5
4009
330
1
100
AcDbSymbolTableRecord
100
AcDbBlockTableRecord
  2
*D22
340
0
  0
BLOCK_RECORD
  5
4015
330
1
100
AcDbSymbolTableRecord
100
AcDbBlockTableRecord
  2
*D23
340
0
  0
BLOCK_RECORD
  5
4021
330
1
100
AcDbSymbolTableRecord
100
AcDbBlockTableRecord
  2
*D24
340
0
  0
BLOCK_RECORD
  5
402D
330
1
100
AcDbSymbolTableRecord
100
AcDbBlockTableRecord
  2
*D25
340
0
  0
BLOCK_RECORD
  5
4039
330
1
100
AcDbSymbolTableRecord
100
AcDbBlockTableRecord
  2
*D26
340
0
  0
BLOCK_RECORD
  5
41A5
330
1
100
AcDbSymbolTableRecord
100
AcDbBlockTableRecord
  2
*S27
340
0
102
{BLKREFS
331
44F7
102
}
  0
BLOCK_RECORD
  5
41AC
330
1
100
AcDbSymbolTableRecord
100
AcDbBlockTableRecord
  2
*S28
340
0
102
{BLKREFS
331
44FD
102
}
  0
BLOCK_RECORD
  5
41B3
330
1
100
AcDbSymbolTableRecord
100
AcDbBlockTableRecord
  2
*S29
340
0
102
{BLKREFS
331
44FF
102
}
  0
BLOCK_RECORD
  5
4513
330
1
100
AcDbSymbolTableRecord
100
AcDbBlockTableRecord
  2
*D30
340
0
  0
BLOCK_RECORD
  5
451F
330
1
100
AcDbSymbolTableRecord
100
AcDbBlockTableRecord
  2
*D31
340
0
  0
BLOCK_RECORD
  5
452B
330
1
100
AcDbSymbolTableRecord
100
AcDbBlockTableRecord
  2
*D32
340
0
  0
BLOCK_RECORD
  5
4537
330
1
100
AcDbSymbolTableRecord
100
AcDbBlockTableRecord
  2
*D33
340
0
  0
BLOCK_RECORD
  5
4543
330
1
100
AcDbSymbolTableRecord
100
AcDbBlockTableRecord
  2
*D34
340
0
  0
BLOCK_RECORD
  5
454F
330
1
100
AcDbSymbolTableRecord
100
AcDbBlockTableRecord
  2
*D35
340
0
  0
BLOCK_RECORD
  5
455B
330
1
100
AcDbSymbolTableRecord
100
AcDbBlockTableRecord
  2
*D36
340
0
  0
BLOCK_RECORD
  5
4567
330
1
100
AcDbSymbolTableRecord
100
AcDbBlockTableRecord
  2
*D37
340
0
  0
BLOCK_RECORD
  5
4573
330
1
100
AcDbSymbolTableRecord
100
AcDbBlockTableRecord
  2
*D38
340
0
  0
BLOCK_RECORD
  5
457F
330
1
100
AcDbSymbolTableRecord
100
AcDbBlockTableRecord
  2
*D39
340
0
  0
BLOCK_RECORD
  5
458B
330
1
100
AcDbSymbolTableRecord
100
AcDbBlockTableRecord
  2
*D40
340
0
  0
BLOCK_RECORD
  5
4597
330
1
100
AcDbSymbolTableRecord
100
AcDbBlockTableRecord
  2
*D41
340
0
  0
BLOCK_RECORD
  5
45A3
330
1
100
AcDbSymbolTableRecord
100
AcDbBlockTableRecord
  2
*D42
340
0
  0
BLOCK_RECORD
  5
45AF
330
1
100
AcDbSymbolTableRecord
100
AcDbBlockTableRecord
  2
*D43
340
0
  0
BLOCK_RECORD
  5
45BB
330
1
100
AcDbSymbolTableRecord
100
AcDbBlockTableRecord
  2
*D44
340
0
  0
ENDTAB
  0
ENDSEC
  0
SECTION
  2
BLOCKS
  0
BLOCK
  5
29
330
1E
100
AcDbEntity
  8
0
100
AcDbBlockBegin
  2
*MODEL_SPACE
 70
     0
 10
0.0
 20
0.0
 30
0.0
  3
*MODEL_SPACE
  1

  0
ENDBLK
  5
2A
330
1E
100
AcDbEntity
  8
0
100
AcDbBlockEnd
  0
BLOCK
  5
27
330
1A
100
AcDbEntity
 67
     1
  8
0
100
AcDbBlockBegin
  2
*PAPER_SPACE
 70
     0
 10
0.0
 20
0.0
 30
0.0
  3
*PAPER_SPACE
  1

  0
ENDBLK
  5
28
330
1A
100
AcDbEntity
 67
     1
  8
0
100
AcDbBlockEnd
  0
BLOCK
  5
518
330
517
100
AcDbEntity
  8
0
100
AcDbBlockBegin
  2
AVE_RENDER
 70
     0
 10
0.0
 20
0.0
 30
0.0
  3
AVE_RENDER
  1
AVE_RENDER
  0
ENDBLK
  5
519
330
517
100
AcDbEntity
  8
0
100
AcDbBlockEnd
  0
BLOCK
  5
526
330
525
100
AcDbEntity
  8
0
100
AcDbBlockBegin
  2
AVE_GLOBAL
 70
     0
 10
0.0
 20
0.0
 30
0.0
  3
AVE_GLOBAL
  1
AVE_GLOBAL
  0
ENDBLK
  5
527
330
525
100
AcDbEntity
  8
0
100
AcDbBlockEnd
  0
BLOCK
  5
7EF
330
7ED
100
AcDbEntity
  8
0
100
AcDbBlockBegin
  2
GENAXEH
 70
     0
 10
0.0
 20
0.0
 30
0.0
  3
GENAXEH
  1

  0
LINE
  5
7EE
330
7ED
100
AcDbEntity
  8
0
100
AcDbLine
 10
-1.0
 20
0.0
 30
0.0
 11
1.0
 21
0.0
 31
0.0
  0
ENDBLK
  5
7F0
330
7ED
100
AcDbEntity
  8
0
100
AcDbBlockEnd
  0
BLOCK
  5
18EC
330
18E9
100
AcDbEntity
  8
0
100
AcDbBlockBegin
  2
GENDOT
 70
     0
 10
0.0
 20
0.0
 30
0.0
  3
GENDOT
  1

  0
LINE
  5
18EA
330
18E9
100
AcDbEntity
  8
0
100
AcDbLine
 10
0.0
 20
0.0
 30
0.0
 11
-1.0
 21
0.0
 31
0.0
  0
LWPOLYLINE
  5
18EB
330
18E9
100
AcDbEntity
  8
0
100
AcDbPolyline
 90
        2
 70
     1
 43
0.25
 10
-0.125
 20
0.0
 42
1.0
 10
0.125
 20
0.0
 42
1.0
  0
ENDBLK
  5
18ED
330
18E9
100
AcDbEntity
  8
0
100
AcDbBlockEnd
  0
BLOCK
  5
3B4E
330
3B4B
100
AcDbEntity
  8
0
100
AcDbBlockBegin
  2
A$C1F6E6265
 70
     0
 10
0.0
 20
0.0
 30
0.0
  3
A$C1F6E6265
  1

  0
LINE
  5
3B4F
330
3B4B
100
AcDbEntity
  8
AM_5
 62
     5
100
AcDbLine
 10
12.57846733029419
 20
0.460783587398737
 30
0.0
 11
7.091423997858555
 21
0.460783587398737
 31
0.0
  0
LINE
  5
3B50
330
3B4B
100
AcDbEntity
  8
AM_5
 62
     5
100
AcDbLine
 10
7.091423997858555
 20
0.460783587398737
 30
0.0
 11
3.50000046420655
 21
0.460783587398737
 31
0.0
  0
TRACE
  5
3B51
330
3B4B
100
AcDbEntity
  8
AM_5
 62
     5
370
    35
100
AcDbTrace
 10
3.50000046420655
 20
0.9215673268987245
 30
0.0
 11
3.50000046420655
 21
-0.0000001521012507
 31
0.0
 12
0.0000004642065505
 22
0.460783587398737
 32
0.0
 13
0.0000004642065505
 23
0.460783587398737
 33
0.0
  0
MTEXT
  5
3B52
330
3B4B
100
AcDbEntity
  8
AM_5
 62
     5
100
AcDbMText
 10
6.603782167567317
 20
1.421084835219261
 30
0.0
 40
2.449999999999999
 41
0.0
 71
     7
 72
     5
  1
SL
  7
ACISOTS
 73
     1
 44
1.0
1001
ACAD
1000
MTEXTBEGIN
1070
    73
1070
     1
1070
    44
1040
1.0
1070
    74
1070
     0
1000
MTEXTEND
  0
ENDBLK
  5
3B53
330
3B4B
100
AcDbEntity
  8
0
100
AcDbBlockEnd
  0
BLOCK
  5
3C6E
330
3C6D
100
AcDbEntity
  8
0
100
AcDbBlockBegin
  2
*S6
 70
     1
 10
0.0
 20
0.0
 30
0.0
  3
*S6
  1

  0
LINE
  5
3C6F
330
3C6D
100
AcDbEntity
  8
AM_5
100
AcDbLine
 10
90.07592605648596
 20
184.5760960566433
 30
0.0
 11
103.8310748420606
 21
184.5760960566433
 31
0.0
  0
LINE
  5
3C70
330
3C6D
100
AcDbEntity
  8
AM_5
100
AcDbLine
 10
103.8310748420606
 20
184.5760960566433
 30
0.0
 11
110.7623415832412
 21
174.7329752040679
 31
0.0
  0
TRACE
  5
3C71
330
3C6D
100
AcDbEntity
  8
AM_5
100
AcDbTrace
 10
110.3855930369842
 20
174.4676787896917
 30
0.0
 11
111.1390901294982
 21
174.998271618444
 31
0.0
 12
112.7774679228209
 22
171.871285871605
 32
0.0
 13
112.7774679228209
 23
171.871285871605
 33
0.0
  0
MTEXT
  5
3C72
330
3C6D
100
AcDbEntity
  8
AM_5
 62
     2
100
AcDbMText
 10
90.07592605648596
 20
181.0825834727049
 30
0.0
 40
3.5
 41
0.0
 71
     9
 72
     5
  1

  7
ACISOTS
 73
     1
 44
1.0
1001
ACAD
1000
MTEXTBEGIN
1070
    73
1070
     1
1070
    44
1040
1.0
1070
    74
1070
     0
1000
MTEXTEND
  0
ENDBLK
  5
3C73
330
3C6D
100
AcDbEntity
  8
0
100
AcDbBlockEnd
  0
BLOCK
  5
3C75
330
3C74
100
AcDbEntity
  8
0
100
AcDbBlockBegin
  2
*S7
 70
     1
 10
0.0
 20
0.0
 30
0.0
  3
*S7
  1

  0
LINE
  5
3C76
330
3C74
100
AcDbEntity
  8
AM_5
100
AcDbLine
 10
192.8228954623139
 20
213.3550588754696
 30
0.0
 11
176.9572451263449
 21
213.3550588754696
 31
0.0
  0
LINE
  5
3C77
330
3C74
100
AcDbEntity
  8
AM_5
100
AcDbLine
 10
176.9572451263449
 20
213.3550588754696
 30
0.0
 11
168.2027091143263
 21
228.4614653352429
 31
0.0
  0
TRACE
  5
3C78
330
3C74
100
AcDbEntity
  8
AM_5
100
AcDbTrace
 10
168.6013836303821
 20
228.6925070735398
 30
0.0
 11
167.8040345982705
 21
228.2304235969461
 31
0.0
 12
166.4477728726167
 22
231.489698943724
 32
0.0
 13
166.4477728726167
 23
231.489698943724
 33
0.0
  0
MTEXT
  5
3C79
330
3C74
100
AcDbEntity
  8
AM_5
 62
     2
100
AcDbMText
 10
192.8228954623139
 20
211.8603847017804
 30
0.0
 40
3.5
 41
0.0
 71
     9
 72
     5
  1

  7
ACISOTS
210
0.0
220
0.0
230
-1.0
 11
-1.0
 21
0.0
 31
0.0
 73
     1
 44
1.0
1001
ACAD
1000
MTEXTBEGIN
1070
    73
1070
     1
1070
    44
1040
1.0
1070
    74
1070
     0
1000
MTEXTEND
  0
ENDBLK
  5
3C7A
330
3C74
100
AcDbEntity
  8
0
100
AcDbBlockEnd
  0
BLOCK
  5
3C7C
330
3C7B
100
AcDbEntity
  8
0
100
AcDbBlockBegin
  2
*S8
 70
     1
 10
0.0
 20
0.0
 30
0.0
  3
*S8
  1

  0
LINE
  5
3C7D
330
3C7B
100
AcDbEntity
  8
AM_5
100
AcDbLine
 10
190.3601671257325
 20
260.0355764009697
 30
0.0
 11
171.754150188489
 21
260.0355764009697
 31
0.0
  0
LINE
  5
3C7E
330
3C7B
100
AcDbEntity
  8
AM_5
100
AcDbLine
 10
171.754150188489
 20
260.0355764009697
 30
0.0
 11
160.1840061730452
 21
252.4469957836264
 31
0.0
  0
TRACE
  5
3C7F
330
3C7B
100
AcDbEntity
  8
AM_5
100
AcDbTrace
 10
159.9312949201694
 20
252.8322991410703
 30
0.0
 11
160.436717425921
 21
252.0616924261825
 31
0.0
 12
157.2573365980358
 22
250.5274632366987
 32
0.0
 13
157.2573365980358
 23
250.5274632366987
 33
0.0
  0
MTEXT
  5
3C80
330
3C7B
100
AcDbEntity
  8
AM_5
 62
     2
100
AcDbMText
 10
190.3601671257325
 20
256.5420638170313
 30
0.0
 40
3.5
 41
0.0
 71
     9
 72
     5
  1

  7
ACISOTS
210
0.0
220
0.0
230
-1.0
 11
-1.0
 21
0.0
 31
0.0
 73
     1
 44
1.0
1001
ACAD
1000
MTEXTBEGIN
1070
    73
1070
     1
1070
    44
1040
1.0
1070
    74
1070
     0
1000
MTEXTEND
  0
ENDBLK
  5
3C81
330
3C7B
100
AcDbEntity
  8
0
100
AcDbBlockEnd
  0
BLOCK
  5
3F78
330
3F6E
100
AcDbEntity
  8
0
100
AcDbBlockBegin
  2
*D9
 70
     1
 10
0.0
 20
0.0
 30
0.0
  3
*D9
  1

  0
LINE
  5
4C72
330
3F6E
100
AcDbEntity
  8
AM_5
100
AcDbLine
 10
91.75606943891228
 20
22.44374360864805
 30
0.0
 11
101.2310610227781
 21
22.44374360864805
 31
0.0
  0
LINE
  5
4C73
330
3F6E
100
AcDbEntity
  8
AM_5
100
AcDbLine
 10
87.85606943891229
 20
40.44374360864805
 30
0.0
 11
101.2310610227781
 21
40.44374360864805
 31
0.0
  0
LINE
  5
4C74
330
3F6E
100
AcDbEntity
  8
AM_5
100
AcDbLine
 10
99.73106102277812
 20
25.44374360864805
 30
0.0
 11
99.73106102277814
 21
37.44374360864805
 31
0.0
  0
SOLID
  5
4C75
330
3F6E
100
AcDbEntity
  8
AM_5
100
AcDbTrace
 10
99.23106102277813
 20
25.44374360864805
 30
0.0
 11
100.2310610227781
 21
25.44374360864805
 31
0.0
 12
99.73106102277812
 22
22.44374360864805
 32
0.0
 13
99.73106102277812
 23
22.44374360864805
 33
0.0
  0
SOLID
  5
4C76
330
3F6E
100
AcDbEntity
  8
AM_5
100
AcDbTrace
 10
99.23106102277813
 20
37.44374360864805
 30
0.0
 11
100.2310610227781
 21
37.44374360864805
 31
0.0
 12
99.73106102277814
 22
40.44374360864805
 32
0.0
 13
99.73106102277814
 23
40.44374360864805
 33
0.0
  0
MTEXT
  5
4C77
330
3F6E
100
AcDbEntity
  8
AM_5
100
AcDbMText
 10
97.43106102277813
 20
31.44374360864806
 30
0.0
 40
3.0
 41
0.0
 71
     5
 72
     1
  1
18
 11
0.0000000000000001
 21
1.0
 31
0.0
 73
     1
 44
1.0
1001
ACAD
1000
MTEXTBEGIN
1070
    73
1070
     1
1070
    44
1040
1.0
1070
    74
1070
     0
1000
MTEXTEND
  0
POINT
  5
4C78
330
3F6E
100
AcDbEntity
  8
DEFPOINTS
 62
     0
100
AcDbPoint
 10
90.75606943891228
 20
22.44374360864805
 30
0.0
  0
POINT
  5
4C79
330
3F6E
100
AcDbEntity
  8
DEFPOINTS
 62
     0
100
AcDbPoint
 10
86.8560694389123
 20
40.44374360864805
 30
0.0
  0
POINT
  5
4C7A
330
3F6E
100
AcDbEntity
  8
DEFPOINTS
 62
     0
100
AcDbPoint
 10
99.73106102277814
 20
40.44374360864805
 30
0.0
  0
ENDBLK
  5
3F79
330
3F6E
100
AcDbEntity
  8
0
100
AcDbBlockEnd
  0
BLOCK
  5
3F84
330
3F7A
100
AcDbEntity
  8
0
100
AcDbBlockBegin
  2
*D10
 70
     1
 10
0.0
 20
0.0
 30
0.0
  3
*D10
  1

  0
LINE
  5
4C7B
330
3F7A
100
AcDbEntity
  8
AM_5
100
AcDbLine
 10
91.75606943891228
 20
22.44374360864805
 30
0.0
 11
107.2310610227781
 21
22.44374360864805
 31
0.0
  0
LINE
  5
4C7C
330
3F7A
100
AcDbEntity
  8
AM_5
100
AcDbLine
 10
91.75606943891228
 20
58.44374360864804
 30
0.0
 11
107.2310610227781
 21
58.44374360864804
 31
0.0
  0
LINE
  5
4C7D
330
3F7A
100
AcDbEntity
  8
AM_5
100
AcDbLine
 10
105.7310610227781
 20
25.44374360864805
 30
0.0
 11
105.7310610227781
 21
55.44374360864805
 31
0.0
  0
SOLID
  5
4C7E
330
3F7A
100
AcDbEntity
  8
AM_5
100
AcDbTrace
 10
105.2310610227781
 20
25.44374360864805
 30
0.0
 11
106.2310610227781
 21
25.44374360864805
 31
0.0
 12
105.7310610227781
 22
22.44374360864805
 32
0.0
 13
105.7310610227781
 23
22.44374360864805
 33
0.0
  0
SOLID
  5
4C7F
330
3F7A
100
AcDbEntity
  8
AM_5
100
AcDbTrace
 10
105.2310610227781
 20
55.44374360864805
 30
0.0
 11
106.2310610227781
 21
55.44374360864805
 31
0.0
 12
105.7310610227781
 22
58.44374360864804
 32
0.0
 13
105.7310610227781
 23
58.44374360864804
 33
0.0
  0
MTEXT
  5
4C80
330
3F7A
100
AcDbEntity
  8
AM_5
100
AcDbMText
 10
103.4310610227781
 20
40.44374360864806
 30
0.0
 40
3.0
 41
0.0
 71
     5
 72
     1
  1
36
 11
0.0000000000000001
 21
1.0
 31
0.0
 73
     1
 44
1.0
1001
ACAD
1000
MTEXTBEGIN
1070
    73
1070
     1
1070
    44
1040
1.0
1070
    74
1070
     0
1000
MTEXTEND
  0
POINT
  5
4C81
330
3F7A
100
AcDbEntity
  8
DEFPOINTS
 62
     0
100
AcDbPoint
 10
90.75606943891228
 20
22.44374360864805
 30
0.0
  0
POINT
  5
4C82
330
3F7A
100
AcDbEntity
  8
DEFPOINTS
 62
     0
100
AcDbPoint
 10
90.75606943891228
 20
58.44374360864804
 30
0.0
  0
POINT
  5
4C83
330
3F7A
100
AcDbEntity
  8
DEFPOINTS
 62
     0
100
AcDbPoint
 10
105.7310610227781
 20
58.44374360864804
 30
0.0
  0
ENDBLK
  5
3F85
330
3F7A
100
AcDbEntity
  8
0
100
AcDbBlockEnd
  0
BLOCK
  5
40EA
330
3F86
100
AcDbEntity
  8
0
100
AcDbBlockBegin
  2
*D11
 70
     1
 10
0.0
 20
0.0
 30
0.0
  3
*D11
  1

  0
LINE
  5
4D18
330
3F86
100
AcDbEntity
  8
AM_5
100
AcDbLine
 10
162.6950597147759
 20
97.95222402796362
 30
0.0
 11
162.6950597147759
 21
82.79352985829978
 31
0.0
  0
LINE
  5
4D19
330
3F86
100
AcDbEntity
  8
AM_5
100
AcDbLine
 10
165.6950597147759
 20
90.95222402796361
 30
0.0
 11
165.6950597147759
 21
82.79352985829978
 31
0.0
  0
LINE
  5
4D1A
330
3F86
100
AcDbEntity
  8
AM_5
100
AcDbLine
 10
159.6950597147759
 20
84.29352985829979
 30
0.0
 11
156.6950597147759
 21
84.29352985829979
 31
0.0
  0
LINE
  5
4D1B
330
3F86
100
AcDbEntity
  8
AM_5
100
AcDbLine
 10
168.6950597147759
 20
84.29352985829979
 30
0.0
 11
171.6950597147758
 21
84.29352985829979
 31
0.0
  0
LINE
  5
4D1C
330
3F86
100
AcDbEntity
  8
AM_5
100
AcDbLine
 10
162.6950597147759
 20
84.29352985829979
 30
0.0
 11
165.6950597147759
 21
84.29352985829979
 31
0.0
  0
SOLID
  5
4D1D
330
3F86
100
AcDbEntity
  8
AM_5
100
AcDbTrace
 10
159.6950597147759
 20
84.79352985829979
 30
0.0
 11
159.6950597147759
 21
83.7935298582998
 31
0.0
 12
162.6950597147759
 22
84.29352985829979
 32
0.0
 13
162.6950597147759
 23
84.29352985829979
 33
0.0
  0
INSERT
  5
4D1E
330
3F86
100
AcDbEntity
  8
AM_5
100
AcDbBlockReference
  2
GENDOT
 10
165.6950597147759
 20
84.29352985829979
 30
0.0
 41
3.0
 42
3.0
 43
3.0
 50
180.0
  0
MTEXT
  5
4D1F
330
3F86
100
AcDbEntity
  8
AM_5
100
AcDbMText
 10
164.1950597147759
 20
86.59352985829979
 30
0.0
 40
3.0
 41
0.0
 71
     5
 72
     1
  1
3
 73
     1
 44
1.0
1001
ACAD
1000
MTEXTBEGIN
1070
    73
1070
     1
1070
    44
1040
1.0
1070
    74
1070
     0
1000
MTEXTEND
  0
POINT
  5
4D20
330
3F86
100
AcDbEntity
  8
DEFPOINTS
 62
     0
100
AcDbPoint
 10
162.6950597147759
 20
98.95222402796362
 30
0.0
  0
POINT
  5
4D21
330
3F86
100
AcDbEntity
  8
DEFPOINTS
 62
     0
100
AcDbPoint
 10
165.6950597147759
 20
91.9522240279636
 30
0.0
  0
POINT
  5
4D22
330
3F86
100
AcDbEntity
  8
DEFPOINTS
 62
     0
100
AcDbPoint
 10
165.6950597147759
 20
84.29352985829979
 30
0.0
  0
ENDBLK
  5
40EB
330
3F86
100
AcDbEntity
  8
0
100
AcDbBlockEnd
  0
BLOCK
  5
40EC
330
3F92
100
AcDbEntity
  8
0
100
AcDbBlockBegin
  2
*D12
 70
     1
 10
0.0
 20
0.0
 30
0.0
  3
*D12
  1

  0
LINE
  5
4D23
330
3F92
100
AcDbEntity
  8
AM_5
100
AcDbLine
 10
165.6950597147759
 20
90.95222402796361
 30
0.0
 11
165.6950597147759
 21
82.79352985829991
 31
0.0
  0
LINE
  5
4D24
330
3F92
100
AcDbEntity
  8
AM_5
100
AcDbLine
 10
177.6950597147759
 20
90.8522240279637
 30
0.0
 11
177.6950597147759
 21
82.79352985829991
 31
0.0
  0
LINE
  5
4D25
330
3F92
100
AcDbEntity
  8
AM_5
100
AcDbLine
 10
168.6950597147759
 20
84.29352985829991
 30
0.0
 11
174.6950597147758
 21
84.29352985829991
 31
0.0
  0
INSERT
  5
4D26
330
3F92
100
AcDbEntity
  8
AM_5
100
AcDbBlockReference
  2
GENDOT
 10
165.6950597147759
 20
84.29352985829991
 30
0.0
 41
3.0
 42
3.0
 43
3.0
 50
180.0
  0
SOLID
  5
4D27
330
3F92
100
AcDbEntity
  8
AM_5
100
AcDbTrace
 10
174.6950597147758
 20
84.7935298582999
 30
0.0
 11
174.6950597147758
 21
83.7935298582999
 31
0.0
 12
177.6950597147759
 22
84.29352985829991
 32
0.0
 13
177.6950597147759
 23
84.29352985829991
 33
0.0
  0
MTEXT
  5
4D28
330
3F92
100
AcDbEntity
  8
AM_5
100
AcDbMText
 10
171.6950597147758
 20
86.59382513389045
 30
0.0
 40
3.0
 41
0.0
 71
     5
 72
     1
  1
12
 73
     1
 44
1.0
1001
ACAD
1000
MTEXTBEGIN
1070
    73
1070
     1
1070
    44
1040
1.0
1070
    74
1070
     0
1000
MTEXTEND
  0
POINT
  5
4D29
330
3F92
100
AcDbEntity
  8
DEFPOINTS
 62
     0
100
AcDbPoint
 10
165.6950597147759
 20
91.9522240279636
 30
0.0
  0
POINT
  5
4D2A
330
3F92
100
AcDbEntity
  8
DEFPOINTS
 62
     0
100
AcDbPoint
 10
177.6950597147759
 20
91.8522240279637
 30
0.0
  0
POINT
  5
4D2B
330
3F92
100
AcDbEntity
  8
DEFPOINTS
 62
     0
100
AcDbPoint
 10
177.6950597147759
 20
84.29352985829991
 30
0.0
  0
ENDBLK
  5
40ED
330
3F92
100
AcDbEntity
  8
0
100
AcDbBlockEnd
  0
BLOCK
  5
3FA6
330
3F9C
100
AcDbEntity
  8
0
100
AcDbBlockBegin
  2
*D13
 70
     1
 10
0.0
 20
0.0
 30
0.0
  3
*D13
  1

  0
LINE
  5
4D2C
330
3F9C
100
AcDbEntity
  8
AM_5
100
AcDbLine
 10
165.6950597147759
 20
90.95222402796361
 30
0.0
 11
165.6950597147759
 21
76.7935298582999
 31
0.0
  0
LINE
  5
4D2D
330
3F9C
100
AcDbEntity
  8
AM_5
100
AcDbLine
 10
194.6950597147758
 20
90.95222402796361
 30
0.0
 11
194.6950597147758
 21
76.7935298582999
 31
0.0
  0
LINE
  5
4D2E
330
3F9C
100
AcDbEntity
  8
AM_5
100
AcDbLine
 10
168.6950597147759
 20
78.29352985829991
 30
0.0
 11
191.6950597147758
 21
78.29352985829991
 31
0.0
  0
SOLID
  5
4D2F
330
3F9C
100
AcDbEntity
  8
AM_5
100
AcDbTrace
 10
168.6950597147759
 20
78.7935298582999
 30
0.0
 11
168.6950597147759
 21
77.79352985829991
 31
0.0
 12
165.6950597147759
 22
78.29352985829991
 32
0.0
 13
165.6950597147759
 23
78.29352985829991
 33
0.0
  0
SOLID
  5
4D30
330
3F9C
100
AcDbEntity
  8
AM_5
100
AcDbTrace
 10
191.6950597147758
 20
78.7935298582999
 30
0.0
 11
191.6950597147758
 21
77.79352985829991
 31
0.0
 12
194.6950597147758
 22
78.29352985829991
 32
0.0
 13
194.6950597147758
 23
78.29352985829991
 33
0.0
  0
MTEXT
  5
4D31
330
3F9C
100
AcDbEntity
  8
AM_5
100
AcDbMText
 10
180.1950597147758
 20
80.59382513389046
 30
0.0
 40
3.0
 41
0.0
 71
     5
 72
     1
  1
29
 73
     1
 44
1.0
1001
ACAD
1000
MTEXTBEGIN
1070
    73
1070
     1
1070
    44
1040
1.0
1070
    74
1070
     0
1000
MTEXTEND
  0
POINT
  5
4D32
330
3F9C
100
AcDbEntity
  8
DEFPOINTS
 62
     0
100
AcDbPoint
 10
165.6950597147759
 20
91.9522240279636
 30
0.0
  0
POINT
  5
4D33
330
3F9C
100
AcDbEntity
  8
DEFPOINTS
 62
     0
100
AcDbPoint
 10
194.6950597147758
 20
91.9522240279636
 30
0.0
  0
POINT
  5
4D34
330
3F9C
100
AcDbEntity
  8
DEFPOINTS
 62
     0
100
AcDbPoint
 10
194.6950597147758
 20
78.29352985829991
 30
0.0
  0
ENDBLK
  5
3FA7
330
3F9C
100
AcDbEntity
  8
0
100
AcDbBlockEnd
  0
BLOCK
  5
3FB2
330
3FA8
100
AcDbEntity
  8
0
100
AcDbBlockBegin
  2
*D14
 70
     1
 10
0.0
 20
0.0
 30
0.0
  3
*D14
  1

  0
LINE
  5
4D35
330
3FA8
100
AcDbEntity
  8
AM_5
100
AcDbLine
 10
165.6950597147759
 20
131.9522240279636
 30
0.0
 11
165.6950597147759
 21
140.7054544746533
 31
0.0
  0
LINE
  5
4D36
330
3FA8
100
AcDbEntity
  8
AM_5
100
AcDbLine
 10
187.6950597147759
 20
119.0522240279636
 30
0.0
 11
187.6950597147759
 21
140.7054544746533
 31
0.0
  0
LINE
  5
4D37
330
3FA8
100
AcDbEntity
  8
AM_5
100
AcDbLine
 10
168.6950597147759
 20
139.2054544746533
 30
0.0
 11
184.6950597147759
 21
139.2054544746533
 31
0.0
  0
SOLID
  5
4D38
330
3FA8
100
AcDbEntity
  8
AM_5
100
AcDbTrace
 10
168.6950597147759
 20
139.7054544746533
 30
0.0
 11
168.6950597147759
 21
138.7054544746533
 31
0.0
 12
165.6950597147759
 22
139.2054544746533
 32
0.0
 13
165.6950597147759
 23
139.2054544746533
 33
0.0
  0
SOLID
  5
4D39
330
3FA8
100
AcDbEntity
  8
AM_5
100
AcDbTrace
 10
184.6950597147759
 20
139.7054544746533
 30
0.0
 11
184.6950597147759
 21
138.7054544746533
 31
0.0
 12
187.6950597147759
 22
139.2054544746533
 32
0.0
 13
187.6950597147759
 23
139.2054544746533
 33
0.0
  0
MTEXT
  5
4D3A
330
3FA8
100
AcDbEntity
  8
AM_5
100
AcDbMText
 10
176.6950597147759
 20
141.5057497502438
 30
0.0
 40
3.0
 41
0.0
 71
     5
 72
     1
  1
22
 73
     1
 44
1.0
1001
ACAD
1000
MTEXTBEGIN
1070
    73
1070
     1
1070
    44
1040
1.0
1070
    74
1070
     0
1000
MTEXTEND
  0
POINT
  5
4D3B
330
3FA8
100
AcDbEntity
  8
DEFPOINTS
 62
     0
100
AcDbPoint
 10
165.6950597147759
 20
130.9522240279636
 30
0.0
  0
POINT
  5
4D3C
330
3FA8
100
AcDbEntity
  8
DEFPOINTS
 62
     0
100
AcDbPoint
 10
187.6950597147759
 20
118.0522240279636
 30
0.0
  0
POINT
  5
4D3D
330
3FA8
100
AcDbEntity
  8
DEFPOINTS
 62
     0
100
AcDbPoint
 10
187.6950597147759
 20
139.2054544746533
 30
0.0
  0
ENDBLK
  5
3FB3
330
3FA8
100
AcDbEntity
  8
0
100
AcDbBlockEnd
  0
BLOCK
  5
3FBE
330
3FB4
100
AcDbEntity
  8
0
100
AcDbBlockBegin
  2
*D15
 70
     1
 10
0.0
 20
0.0
 30
0.0
  3
*D15
  1

  0
LINE
  5
4CAA
330
3FB4
100
AcDbEntity
  8
AM_5
100
AcDbLine
 10
134.6950597147759
 20
35.54374360864796
 30
0.0
 11
134.6950597147759
 21
13.94374360864816
 31
0.0
  0
LINE
  5
4CAB
330
3FB4
100
AcDbEntity
  8
AM_5
100
AcDbLine
 10
156.6950597147759
 20
34.44374360864805
 30
0.0
 11
156.6950597147759
 21
13.94374360864816
 31
0.0
  0
LINE
  5
4CAC
330
3FB4
100
AcDbEntity
  8
AM_5
100
AcDbLine
 10
137.6950597147759
 20
15.44374360864816
 30
0.0
 11
153.6950597147759
 21
15.44374360864816
 31
0.0
  0
SOLID
  5
4CAD
330
3FB4
100
AcDbEntity
  8
AM_5
100
AcDbTrace
 10
137.6950597147759
 20
15.94374360864816
 30
0.0
 11
137.6950597147759
 21
14.94374360864816
 31
0.0
 12
134.6950597147759
 22
15.44374360864816
 32
0.0
 13
134.6950597147759
 23
15.44374360864816
 33
0.0
  0
SOLID
  5
4CAE
330
3FB4
100
AcDbEntity
  8
AM_5
100
AcDbTrace
 10
153.6950597147759
 20
15.94374360864816
 30
0.0
 11
153.6950597147759
 21
14.94374360864816
 31
0.0
 12
156.6950597147759
 22
15.44374360864816
 32
0.0
 13
156.6950597147759
 23
15.44374360864816
 33
0.0
  0
MTEXT
  5
4CAF
330
3FB4
100
AcDbEntity
  8
AM_5
100
AcDbMText
 10
145.6950597147758
 20
17.74403888423871
 30
0.0
 40
3.0
 41
0.0
 71
     5
 72
     1
  1
22
 73
     1
 44
1.0
1001
ACAD
1000
MTEXTBEGIN
1070
    73
1070
     1
1070
    44
1040
1.0
1070
    74
1070
     0
1000
MTEXTEND
  0
POINT
  5
4CB0
330
3FB4
100
AcDbEntity
  8
DEFPOINTS
 62
     0
100
AcDbPoint
 10
134.6950597147759
 20
36.54374360864796
 30
0.0
  0
POINT
  5
4CB1
330
3FB4
100
AcDbEntity
  8
DEFPOINTS
 62
     0
100
AcDbPoint
 10
156.6950597147759
 20
35.44374360864805
 30
0.0
  0
POINT
  5
4CB2
330
3FB4
100
AcDbEntity
  8
DEFPOINTS
 62
     0
100
AcDbPoint
 10
156.6950597147759
 20
15.44374360864816
 30
0.0
  0
ENDBLK
  5
3FBF
330
3FB4
100
AcDbEntity
  8
0
100
AcDbBlockEnd
  0
BLOCK
  5
3FCA
330
3FC0
100
AcDbEntity
  8
0
100
AcDbBlockBegin
  2
*D16
 70
     1
 10
0.0
 20
0.0
 30
0.0
  3
*D16
  1

  0
LINE
  5
4CB3
330
3FC0
100
AcDbEntity
  8
AM_5
100
AcDbLine
 10
134.6950597147759
 20
34.54374360864796
 30
0.0
 11
134.6950597147759
 21
7.943743608648162
 31
0.0
  0
LINE
  5
4CB4
330
3FC0
100
AcDbEntity
  8
AM_5
100
AcDbLine
 10
165.6950597147759
 20
21.44374360864805
 30
0.0
 11
165.6950597147759
 21
7.943743608648162
 31
0.0
  0
LINE
  5
4CB5
330
3FC0
100
AcDbEntity
  8
AM_5
100
AcDbLine
 10
137.6950597147759
 20
9.443743608648162
 30
0.0
 11
162.6950597147759
 21
9.443743608648162
 31
0.0
  0
SOLID
  5
4CB6
330
3FC0
100
AcDbEntity
  8
AM_5
100
AcDbTrace
 10
137.6950597147759
 20
9.943743608648162
 30
0.0
 11
137.6950597147759
 21
8.943743608648162
 31
0.0
 12
134.6950597147759
 22
9.443743608648162
 32
0.0
 13
134.6950597147759
 23
9.443743608648162
 33
0.0
  0
SOLID
  5
4CB7
330
3FC0
100
AcDbEntity
  8
AM_5
100
AcDbTrace
 10
162.6950597147759
 20
9.943743608648162
 30
0.0
 11
162.6950597147759
 21
8.943743608648162
 31
0.0
 12
165.6950597147759
 22
9.443743608648162
 32
0.0
 13
165.6950597147759
 23
9.443743608648162
 33
0.0
  0
MTEXT
  5
4CB8
330
3FC0
100
AcDbEntity
  8
AM_5
100
AcDbMText
 10
150.1950597147759
 20
11.74374360864816
 30
0.0
 40
3.0
 41
0.0
 71
     5
 72
     1
  1
31
 73
     1
 44
1.0
1001
ACAD
1000
MTEXTBEGIN
1070
    73
1070
     1
1070
    44
1040
1.0
1070
    74
1070
     0
1000
MTEXTEND
  0
POINT
  5
4CB9
330
3FC0
100
AcDbEntity
  8
DEFPOINTS
 62
     0
100
AcDbPoint
 10
134.6950597147759
 20
35.54374360864796
 30
0.0
  0
POINT
  5
4CBA
330
3FC0
100
AcDbEntity
  8
DEFPOINTS
 62
     0
100
AcDbPoint
 10
165.6950597147759
 20
22.44374360864805
 30
0.0
  0
POINT
  5
4CBB
330
3FC0
100
AcDbEntity
  8
DEFPOINTS
 62
     0
100
AcDbPoint
 10
165.6950597147759
 20
9.443743608648162
 30
0.0
  0
ENDBLK
  5
3FCB
330
3FC0
100
AcDbEntity
  8
0
100
AcDbBlockEnd
  0
BLOCK
  5
3FD6
330
3FCC
100
AcDbEntity
  8
0
100
AcDbBlockBegin
  2
*D17
 70
     1
 10
0.0
 20
0.0
 30
0.0
  3
*D17
  1

  0
LINE
  5
4CBC
330
3FCC
100
AcDbEntity
  8
AM_5
100
AcDbLine
 10
165.6950597147759
 20
21.44374360864805
 30
0.0
 11
165.6950597147759
 21
7.943743608648162
 31
0.0
  0
LINE
  5
4CBD
330
3FCC
100
AcDbEntity
  8
AM_5
100
AcDbLine
 10
241.6950597147759
 20
24.94374360864805
 30
0.0
 11
241.6950597147759
 21
7.943743608648162
 31
0.0
  0
LINE
  5
4CBE
330
3FCC
100
AcDbEntity
  8
AM_5
100
AcDbLine
 10
168.6950597147759
 20
9.443743608648162
 30
0.0
 11
238.6950597147759
 21
9.443743608648162
 31
0.0
  0
SOLID
  5
4CBF
330
3FCC
100
AcDbEntity
  8
AM_5
100
AcDbTrace
 10
168.6950597147759
 20
9.943743608648162
 30
0.0
 11
168.6950597147759
 21
8.943743608648162
 31
0.0
 12
165.6950597147759
 22
9.443743608648162
 32
0.0
 13
165.6950597147759
 23
9.443743608648162
 33
0.0
  0
SOLID
  5
4CC0
330
3FCC
100
AcDbEntity
  8
AM_5
100
AcDbTrace
 10
238.6950597147759
 20
9.943743608648162
 30
0.0
 11
238.6950597147759
 21
8.943743608648162
 31
0.0
 12
241.6950597147759
 22
9.443743608648162
 32
0.0
 13
241.6950597147759
 23
9.443743608648162
 33
0.0
  0
MTEXT
  5
4CC1
330
3FCC
100
AcDbEntity
  8
AM_5
100
AcDbMText
 10
203.6950597147759
 20
11.74374360864816
 30
0.0
 40
3.0
 41
0.0
 71
     5
 72
     1
  1
76+stroke
 73
     1
 44
1.0
1001
ACAD
1000
MTEXTBEGIN
1070
    73
1070
     1
1070
    44
1040
1.0
1070
    74
1070
     0
1000
MTEXTEND
  0
POINT
  5
4CC2
330
3FCC
100
AcDbEntity
  8
DEFPOINTS
 62
     0
100
AcDbPoint
 10
165.6950597147759
 20
22.44374360864805
 30
0.0
  0
POINT
  5
4CC3
330
3FCC
100
AcDbEntity
  8
DEFPOINTS
 62
     0
100
AcDbPoint
 10
241.6950597147759
 20
25.94374360864805
 30
0.0
  0
POINT
  5
4CC4
330
3FCC
100
AcDbEntity
  8
DEFPOINTS
 62
     0
100
AcDbPoint
 10
241.6950597147759
 20
9.443743608648162
 30
0.0
  0
ENDBLK
  5
3FD7
330
3FCC
100
AcDbEntity
  8
0
100
AcDbBlockEnd
  0
BLOCK
  5
3FE2
330
3FD8
100
AcDbEntity
  8
0
100
AcDbBlockBegin
  2
*D18
 70
     1
 10
0.0
 20
0.0
 30
0.0
  3
*D18
  1

  0
LINE
  5
4CC5
330
3FD8
100
AcDbEntity
  8
AM_5
100
AcDbLine
 10
134.6950597147759
 20
35.54374360864796
 30
0.0
 11
134.6950597147759
 21
1.943743608648162
 31
0.0
  0
LINE
  5
4CC6
330
3FD8
100
AcDbEntity
  8
AM_5
100
AcDbLine
 10
241.6950597147759
 20
24.94374360864805
 30
0.0
 11
241.6950597147759
 21
1.943743608648162
 31
0.0
  0
LINE
  5
4CC7
330
3FD8
100
AcDbEntity
  8
AM_5
100
AcDbLine
 10
137.6950597147759
 20
3.443743608648162
 30
0.0
 11
238.6950597147759
 21
3.443743608648162
 31
0.0
  0
SOLID
  5
4CC8
330
3FD8
100
AcDbEntity
  8
AM_5
100
AcDbTrace
 10
137.6950597147759
 20
3.943743608648162
 30
0.0
 11
137.6950597147759
 21
2.943743608648162
 31
0.0
 12
134.6950597147759
 22
3.443743608648162
 32
0.0
 13
134.6950597147759
 23
3.443743608648162
 33
0.0
  0
SOLID
  5
4CC9
330
3FD8
100
AcDbEntity
  8
AM_5
100
AcDbTrace
 10
238.6950597147759
 20
3.943743608648162
 30
0.0
 11
238.6950597147759
 21
2.943743608648162
 31
0.0
 12
241.6950597147759
 22
3.443743608648162
 32
0.0
 13
241.6950597147759
 23
3.443743608648162
 33
0.0
  0
MTEXT
  5
4CCA
330
3FD8
100
AcDbEntity
  8
AM_5
100
AcDbMText
 10
188.1950597147758
 20
5.743743608648163
 30
0.0
 40
3.0
 41
0.0
 71
     5
 72
     1
  1
107+stroke
 73
     1
 44
1.0
1001
ACAD
1000
MTEXTBEGIN
1070
    73
1070
     1
1070
    44
1040
1.0
1070
    74
1070
     0
1000
MTEXTEND
  0
POINT
  5
4CCB
330
3FD8
100
AcDbEntity
  8
DEFPOINTS
 62
     0
100
AcDbPoint
 10
134.6950597147759
 20
36.54374360864796
 30
0.0
  0
POINT
  5
4CCC
330
3FD8
100
AcDbEntity
  8
DEFPOINTS
 62
     0
100
AcDbPoint
 10
241.6950597147759
 20
25.94374360864805
 30
0.0
  0
POINT
  5
4CCD
330
3FD8
100
AcDbEntity
  8
DEFPOINTS
 62
     0
100
AcDbPoint
 10
241.6950597147759
 20
3.443743608648162
 30
0.0
  0
ENDBLK
  5
3FE3
330
3FD8
100
AcDbEntity
  8
0
100
AcDbBlockEnd
  0
BLOCK
  5
3FEE
330
3FE4
100
AcDbEntity
  8
0
100
AcDbBlockBegin
  2
*D19
 70
     1
 10
0.0
 20
0.0
 30
0.0
  3
*D19
  1

  0
LINE
  5
4CCE
330
3FE4
100
AcDbEntity
  8
AM_5
100
AcDbLine
 10
269.9626759516213
 20
31.98971785071018
 30
0.0
 11
269.9626759516213
 21
8.943742608647937
 31
0.0
  0
LINE
  5
4CCF
330
3FE4
100
AcDbEntity
  8
AM_5
100
AcDbLine
 10
299.9626759516214
 20
31.98971785071018
 30
0.0
 11
299.9626759516214
 21
8.943742608647937
 31
0.0
  0
LINE
  5
4CD0
330
3FE4
100
AcDbEntity
  8
AM_5
100
AcDbLine
 10
272.9626759516214
 20
10.44374260864794
 30
0.0
 11
296.9626759516213
 21
10.44374260864794
 31
0.0
  0
SOLID
  5
4CD1
330
3FE4
100
AcDbEntity
  8
AM_5
100
AcDbTrace
 10
272.9626759516214
 20
10.94374260864793
 30
0.0
 11
272.9626759516214
 21
9.943742608647937
 31
0.0
 12
269.9626759516213
 22
10.44374260864794
 32
0.0
 13
269.9626759516213
 23
10.44374260864794
 33
0.0
  0
SOLID
  5
4CD2
330
3FE4
100
AcDbEntity
  8
AM_5
100
AcDbTrace
 10
296.9626759516213
 20
10.94374260864793
 30
0.0
 11
296.9626759516213
 21
9.943742608647937
 31
0.0
 12
299.9626759516214
 22
10.44374260864794
 32
0.0
 13
299.9626759516214
 23
10.44374260864794
 33
0.0
  0
MTEXT
  5
4CD3
330
3FE4
100
AcDbEntity
  8
AM_5
100
AcDbMText
 10
284.9626759516214
 20
12.74374260864794
 30
0.0
 40
3.0
 41
0.0
 71
     5
 72
     1
  1
{\Famgdt|c136;o}30
 73
     1
 44
1.0
1001
ACAD
1000
MTEXTBEGIN
1070
    73
1070
     1
1070
    44
1040
1.0
1070
    74
1070
     0
1000
MTEXTEND
  0
POINT
  5
4CD4
330
3FE4
100
AcDbEntity
  8
DEFPOINTS
 62
     0
100
AcDbPoint
 10
269.9626759516213
 20
32.98971785071018
 30
0.0
  0
POINT
  5
4CD5
330
3FE4
100
AcDbEntity
  8
DEFPOINTS
 62
     0
100
AcDbPoint
 10
299.9626759516214
 20
32.98971785071018
 30
0.0
  0
POINT
  5
4CD6
330
3FE4
100
AcDbEntity
  8
DEFPOINTS
 62
     0
100
AcDbPoint
 10
299.9626759516214
 20
10.44374260864794
 30
0.0
  0
ENDBLK
  5
3FEF
330
3FE4
100
AcDbEntity
  8
0
100
AcDbBlockEnd
  0
BLOCK
  5
3FFA
330
3FF0
100
AcDbEntity
  8
0
100
AcDbBlockBegin
  2
*D20
 70
     1
 10
0.0
 20
0.0
 30
0.0
  3
*D20
  1

  0
LINE
  5
4DA6
330
3FF0
100
AcDbEntity
  8
AM_5
100
AcDbLine
 10
162.1950597147758
 20
53.44374360864804
 30
0.0
 11
127.7041502741815
 21
53.44374360864805
 31
0.0
  0
LINE
  5
4DA7
330
3FF0
100
AcDbEntity
  8
AM_5
100
AcDbLine
 10
162.1950597147758
 20
27.44374360864805
 30
0.0
 11
127.7041502741815
 21
27.44374360864806
 31
0.0
  0
LINE
  5
4DA8
330
3FF0
100
AcDbEntity
  8
AM_5
100
AcDbLine
 10
129.2041502741815
 20
50.44374360864805
 30
0.0
 11
129.2041502741815
 21
30.44374360864806
 31
0.0
  0
SOLID
  5
4DA9
330
3FF0
100
AcDbEntity
  8
AM_5
100
AcDbTrace
 10
128.7041502741815
 20
50.44374360864805
 30
0.0
 11
129.7041502741815
 21
50.44374360864805
 31
0.0
 12
129.2041502741815
 22
53.44374360864805
 32
0.0
 13
129.2041502741815
 23
53.44374360864805
 33
0.0
  0
SOLID
  5
4DAA
330
3FF0
100
AcDbEntity
  8
AM_5
100
AcDbTrace
 10
128.7041502741815
 20
30.44374360864806
 30
0.0
 11
129.7041502741815
 21
30.44374360864806
 31
0.0
 12
129.2041502741815
 22
27.44374360864806
 32
0.0
 13
129.2041502741815
 23
27.44374360864806
 33
0.0
  0
MTEXT
  5
4DAB
330
3FF0
100
AcDbEntity
  8
AM_5
100
AcDbMText
 10
126.0339479471116
 20
40.44374360864805
 30
0.0
 40
3.0
 41
0.0
 71
     5
 72
     1
  1
%%c26{\H2.130000;\S 0^ -0.033;}
 11
0.0000000000000001
 21
1.0
 31
0.0
 73
     1
 44
1.0
1001
ACAD
1000
MTEXTBEGIN
1070
    73
1070
     1
1070
    44
1040
1.0
1070
    74
1070
     0
1000
MTEXTEND
  0
POINT
  5
4DAC
330
3FF0
100
AcDbEntity
  8
DEFPOINTS
 62
     0
100
AcDbPoint
 10
163.1950597147759
 20
53.44374360864804
 30
0.0
  0
POINT
  5
4DAD
330
3FF0
100
AcDbEntity
  8
DEFPOINTS
 62
     0
100
AcDbPoint
 10
163.1950597147759
 20
27.44374360864805
 30
0.0
  0
POINT
  5
4DAE
330
3FF0
100
AcDbEntity
  8
DEFPOINTS
 62
     0
100
AcDbPoint
 10
129.2041502741815
 20
27.44374360864806
 30
0.0
  0
ENDBLK
  5
3FFB
330
3FF0
100
AcDbEntity
  8
0
100
AcDbBlockEnd
  0
BLOCK
  5
4007
330
3FFC
100
AcDbEntity
  8
0
100
AcDbBlockBegin
  2
*D21
 70
     1
 10
0.0
 20
0.0
 30
0.0
  3
*D21
  1

  0
LINE
  5
4CE0
330
3FFC
100
AcDbEntity
  8
AM_5
100
AcDbLine
 10
161.6950597147759
 20
45.44374360864805
 30
0.0
 11
158.0530026051049
 21
45.44374360864805
 31
0.0
  0
LINE
  5
4CE1
330
3FFC
100
AcDbEntity
  8
AM_5
100
AcDbLine
 10
161.6950597147759
 20
35.44374360864805
 30
0.0
 11
158.0530026051049
 21
35.44374360864805
 31
0.0
  0
LINE
  5
4CE2
330
3FFC
100
AcDbEntity
  8
AM_5
100
AcDbLine
 10
159.5530026051049
 20
38.44374360864805
 30
0.0
 11
159.5530026051049
 21
42.44374360864805
 31
0.0
  0
LINE
  5
4CE3
330
3FFC
100
AcDbEntity
  8
AM_5
100
AcDbLine
 10
159.5530026051049
 20
45.44374360864805
 30
0.0
 11
159.5530026051049
 21
64.05473728557047
 31
0.0
  0
SOLID
  5
4CE4
330
3FFC
100
AcDbEntity
  8
AM_5
100
AcDbTrace
 10
159.0530026051049
 20
38.44374360864805
 30
0.0
 11
160.0530026051049
 21
38.44374360864805
 31
0.0
 12
159.5530026051049
 22
35.44374360864805
 32
0.0
 13
159.5530026051049
 23
35.44374360864805
 33
0.0
  0
SOLID
  5
4CE5
330
3FFC
100
AcDbEntity
  8
AM_5
100
AcDbTrace
 10
159.0530026051049
 20
42.44374360864805
 30
0.0
 11
160.0530026051049
 21
42.44374360864805
 31
0.0
 12
159.5530026051049
 22
45.44374360864805
 32
0.0
 13
159.5530026051049
 23
45.44374360864805
 33
0.0
  0
MTEXT
  5
4CE6
330
3FFC
100
AcDbEntity
  8
AM_5
100
AcDbMText
 10
157.2530026051049
 20
60.55355618320828
 30
0.0
 40
3.0
 41
0.0
 71
     5
 72
     1
  1
%%c10
 11
0.0000000000000001
 21
1.0
 31
0.0
 73
     1
 44
1.0
1001
ACAD
1000
MTEXTBEGIN
1070
    73
1070
     1
1070
    44
1040
1.0
1070
    74
1070
     0
1000
MTEXTEND
  0
POINT
  5
4CE7
330
3FFC
100
AcDbEntity
  8
DEFPOINTS
 62
     0
100
AcDbPoint
 10
162.6950597147759
 20
45.44374360864805
 30
0.0
  0
POINT
  5
4CE8
330
3FFC
100
AcDbEntity
  8
DEFPOINTS
 62
     0
100
AcDbPoint
 10
162.6950597147759
 20
35.44374360864805
 30
0.0
  0
POINT
  5
4CE9
330
3FFC
100
AcDbEntity
  8
DEFPOINTS
 62
     0
100
AcDbPoint
 10
159.5530026051049
 20
35.44374360864805
 30
0.0
  0
ENDBLK
  5
4008
330
3FFC
100
AcDbEntity
  8
0
100
AcDbBlockEnd
  0
BLOCK
  5
4013
330
4009
100
AcDbEntity
  8
0
100
AcDbBlockBegin
  2
*D22
 70
     1
 10
0.0
 20
0.0
 30
0.0
  3
*D22
  1

  0
LINE
  5
4D3E
330
4009
100
AcDbEntity
  8
AM_5
100
AcDbLine
 10
169.5950597147758
 20
98.95222402796362
 30
0.0
 11
121.1950597147759
 21
98.95222402796363
 31
0.0
  0
LINE
  5
4D3F
330
4009
100
AcDbEntity
  8
AM_5
100
AcDbLine
 10
169.5950597147758
 20
123.9522240279636
 30
0.0
 11
121.1950597147759
 21
123.9522240279636
 31
0.0
  0
LINE
  5
4D40
330
4009
100
AcDbEntity
  8
AM_5
100
AcDbLine
 10
122.6950597147759
 20
101.9522240279636
 30
0.0
 11
122.6950597147759
 21
120.9522240279636
 31
0.0
  0
SOLID
  5
4D41
330
4009
100
AcDbEntity
  8
AM_5
100
AcDbTrace
 10
122.1950597147759
 20
101.9522240279636
 30
0.0
 11
123.1950597147759
 21
101.9522240279636
 31
0.0
 12
122.6950597147759
 22
98.95222402796363
 32
0.0
 13
122.6950597147759
 23
98.95222402796363
 33
0.0
  0
SOLID
  5
4D42
330
4009
100
AcDbEntity
  8
AM_5
100
AcDbTrace
 10
122.1950597147759
 20
120.9522240279636
 30
0.0
 11
123.1950597147759
 21
120.9522240279636
 31
0.0
 12
122.6950597147759
 22
123.9522240279636
 32
0.0
 13
122.6950597147759
 23
123.9522240279636
 33
0.0
  0
MTEXT
  5
4D43
330
4009
100
AcDbEntity
  8
AM_5
100
AcDbMText
 10
120.3947644391853
 20
111.4522240279636
 30
0.0
 40
3.0
 41
0.0
 71
     5
 72
     1
  1
25
 11
0.0000000000000001
 21
1.0
 31
0.0
 73
     1
 44
1.0
1001
ACAD
1000
MTEXTBEGIN
1070
    73
1070
     1
1070
    44
1040
1.0
1070
    74
1070
     0
1000
MTEXTEND
  0
POINT
  5
4D44
330
4009
100
AcDbEntity
  8
DEFPOINTS
 62
     0
100
AcDbPoint
 10
170.5950597147758
 20
98.95222402796362
 30
0.0
  0
POINT
  5
4D45
330
4009
100
AcDbEntity
  8
DEFPOINTS
 62
     0
100
AcDbPoint
 10
170.5950597147758
 20
123.9522240279636
 30
0.0
  0
POINT
  5
4D46
330
4009
100
AcDbEntity
  8
DEFPOINTS
 62
     0
100
AcDbPoint
 10
122.6950597147759
 20
123.9522240279636
 30
0.0
  0
ENDBLK
  5
4014
330
4009
100
AcDbEntity
  8
0
100
AcDbBlockEnd
  0
BLOCK
  5
401F
330
4015
100
AcDbEntity
  8
0
100
AcDbBlockBegin
  2
*D23
 70
     1
 10
0.0
 20
0.0
 30
0.0
  3
*D23
  1

  0
LINE
  5
4D47
330
4015
100
AcDbEntity
  8
AM_5
100
AcDbLine
 10
164.6950597147759
 20
91.9522240279636
 30
0.0
 11
115.1950597147758
 21
91.95222402796362
 31
0.0
  0
LINE
  5
4D48
330
4015
100
AcDbEntity
  8
AM_5
100
AcDbLine
 10
164.6950597147759
 20
130.9522240279636
 30
0.0
 11
115.1950597147758
 21
130.9522240279636
 31
0.0
  0
LINE
  5
4D49
330
4015
100
AcDbEntity
  8
AM_5
100
AcDbLine
 10
116.6950597147758
 20
94.95222402796363
 30
0.0
 11
116.6950597147758
 21
127.9522240279636
 31
0.0
  0
SOLID
  5
4D4A
330
4015
100
AcDbEntity
  8
AM_5
100
AcDbTrace
 10
116.1950597147758
 20
94.95222402796363
 30
0.0
 11
117.1950597147758
 21
94.95222402796363
 31
0.0
 12
116.6950597147758
 22
91.95222402796362
 32
0.0
 13
116.6950597147758
 23
91.95222402796362
 33
0.0
  0
SOLID
  5
4D4B
330
4015
100
AcDbEntity
  8
AM_5
100
AcDbTrace
 10
116.1950597147758
 20
127.9522240279636
 30
0.0
 11
117.1950597147758
 21
127.9522240279636
 31
0.0
 12
116.6950597147758
 22
130.9522240279636
 32
0.0
 13
116.6950597147758
 23
130.9522240279636
 33
0.0
  0
MTEXT
  5
4D4C
330
4015
100
AcDbEntity
  8
AM_5
100
AcDbMText
 10
114.3950597147758
 20
111.4522240279636
 30
0.0
 40
3.0
 41
0.0
 71
     5
 72
     1
  1
39
 11
0.0000000000000001
 21
1.0
 31
0.0
 73
     1
 44
1.0
1001
ACAD
1000
MTEXTBEGIN
1070
    73
1070
     1
1070
    44
1040
1.0
1070
    74
1070
     0
1000
MTEXTEND
  0
POINT
  5
4D4D
330
4015
100
AcDbEntity
  8
DEFPOINTS
 62
     0
100
AcDbPoint
 10
165.6950597147759
 20
91.9522240279636
 30
0.0
  0
POINT
  5
4D4E
330
4015
100
AcDbEntity
  8
DEFPOINTS
 62
     0
100
AcDbPoint
 10
165.6950597147759
 20
130.9522240279636
 30
0.0
  0
POINT
  5
4D4F
330
4015
100
AcDbEntity
  8
DEFPOINTS
 62
     0
100
AcDbPoint
 10
116.6950597147758
 20
130.9522240279636
 30
0.0
  0
ENDBLK
  5
4020
330
4015
100
AcDbEntity
  8
0
100
AcDbBlockEnd
  0
BLOCK
  5
402B
330
4021
100
AcDbEntity
  8
0
100
AcDbBlockBegin
  2
*D24
 70
     1
 10
0.0
 20
0.0
 30
0.0
  3
*D24
  1

  0
LINE
  5
4D50
330
4021
100
AcDbEntity
  8
AM_5
100
AcDbLine
 10
241.6950597147759
 20
95.95222402796361
 30
0.0
 11
241.6950597147759
 21
86.57209105350165
 31
0.0
  0
LINE
  5
4D51
330
4021
100
AcDbEntity
  8
AM_5
100
AcDbLine
 10
226.6950597147759
 20
95.95222402796361
 30
0.0
 11
226.6950597147759
 21
86.57209105350165
 31
0.0
  0
LINE
  5
4D52
330
4021
100
AcDbEntity
  8
AM_5
100
AcDbLine
 10
238.6950597147759
 20
88.07209105350166
 30
0.0
 11
229.6950597147759
 21
88.07209105350166
 31
0.0
  0
SOLID
  5
4D53
330
4021
100
AcDbEntity
  8
AM_5
100
AcDbTrace
 10
238.6950597147759
 20
88.57209105350165
 30
0.0
 11
238.6950597147759
 21
87.57209105350165
 31
0.0
 12
241.6950597147759
 22
88.07209105350166
 32
0.0
 13
241.6950597147759
 23
88.07209105350166
 33
0.0
  0
SOLID
  5
4D54
330
4021
100
AcDbEntity
  8
AM_5
100
AcDbTrace
 10
229.6950597147759
 20
88.57209105350165
 30
0.0
 11
229.6950597147759
 21
87.57209105350165
 31
0.0
 12
226.6950597147759
 22
88.07209105350166
 32
0.0
 13
226.6950597147759
 23
88.07209105350166
 33
0.0
  0
MTEXT
  5
4D55
330
4021
100
AcDbEntity
  8
AM_5
100
AcDbMText
 10
234.1950597147759
 20
90.37209105350164
 30
0.0
 40
3.0
 41
0.0
 71
     5
 72
     1
  1
15
 73
     1
 44
1.0
1001
ACAD
1000
MTEXTBEGIN
1070
    73
1070
     1
1070
    44
1040
1.0
1070
    74
1070
     0
1000
MTEXTEND
  0
POINT
  5
4D56
330
4021
100
AcDbEntity
  8
DEFPOINTS
 62
     0
100
AcDbPoint
 10
241.6950597147759
 20
96.9522240279636
 30
0.0
  0
POINT
  5
4D57
330
4021
100
AcDbEntity
  8
DEFPOINTS
 62
     0
100
AcDbPoint
 10
226.6950597147759
 20
96.9522240279636
 30
0.0
  0
POINT
  5
4D58
330
4021
100
AcDbEntity
  8
DEFPOINTS
 62
     0
100
AcDbPoint
 10
226.6950597147759
 20
88.07209105350166
 30
0.0
  0
ENDBLK
  5
402C
330
4021
100
AcDbEntity
  8
0
100
AcDbBlockEnd
  0
BLOCK
  5
4037
330
402D
100
AcDbEntity
  8
0
100
AcDbBlockBegin
  2
*D25
 70
     1
 10
0.0
 20
0.0
 30
0.0
  3
*D25
  1

  0
LINE
  5
4D59
330
402D
100
AcDbEntity
  8
AM_5
100
AcDbLine
 10
241.6950597147759
 20
126.9522240279636
 30
0.0
 11
241.6950597147759
 21
137.2820291432567
 31
0.0
  0
LINE
  5
4D5A
330
402D
100
AcDbEntity
  8
AM_5
100
AcDbLine
 10
233.6950597147759
 20
118.0522240279636
 30
0.0
 11
233.6950597147759
 21
137.2820291432567
 31
0.0
  0
LINE
  5
4D5B
330
402D
100
AcDbEntity
  8
AM_5
100
AcDbLine
 10
238.6950597147759
 20
135.7820291432567
 30
0.0
 11
236.6950597147759
 21
135.7820291432567
 31
0.0
  0
SOLID
  5
4D5C
330
402D
100
AcDbEntity
  8
AM_5
100
AcDbTrace
 10
238.6950597147759
 20
136.2820291432567
 30
0.0
 11
238.6950597147759
 21
135.2820291432567
 31
0.0
 12
241.6950597147759
 22
135.7820291432567
 32
0.0
 13
241.6950597147759
 23
135.7820291432567
 33
0.0
  0
SOLID
  5
4D5D
330
402D
100
AcDbEntity
  8
AM_5
100
AcDbTrace
 10
236.6950597147759
 20
136.2820291432567
 30
0.0
 11
236.6950597147759
 21
135.2820291432567
 31
0.0
 12
233.6950597147759
 22
135.7820291432567
 32
0.0
 13
233.6950597147759
 23
135.7820291432567
 33
0.0
  0
MTEXT
  5
4D5E
330
402D
100
AcDbEntity
  8
AM_5
100
AcDbMText
 10
237.6950597147759
 20
138.0820291432567
 30
0.0
 40
3.0
 41
0.0
 71
     5
 72
     1
  1
8
 73
     1
 44
1.0
1001
ACAD
1000
MTEXTBEGIN
1070
    73
1070
     1
1070
    44
1040
1.0
1070
    74
1070
     0
1000
MTEXTEND
  0
POINT
  5
4D5F
330
402D
100
AcDbEntity
  8
DEFPOINTS
 62
     0
100
AcDbPoint
 10
241.6950597147759
 20
125.9522240279636
 30
0.0
  0
POINT
  5
4D60
330
402D
100
AcDbEntity
  8
DEFPOINTS
 62
     0
100
AcDbPoint
 10
233.6950597147759
 20
117.0522240279636
 30
0.0
  0
POINT
  5
4D61
330
402D
100
AcDbEntity
  8
DEFPOINTS
 62
     0
100
AcDbPoint
 10
233.6950597147759
 20
135.7820291432567
 30
0.0
  0
ENDBLK
  5
4038
330
402D
100
AcDbEntity
  8
0
100
AcDbBlockEnd
  0
BLOCK
  5
4043
330
4039
100
AcDbEntity
  8
0
100
AcDbBlockBegin
  2
*D26
 70
     1
 10
0.0
 20
0.0
 30
0.0
  3
*D26
  1

  0
LINE
  5
4D0E
330
4039
100
AcDbEntity
  8
AM_5
100
AcDbLine
 10
272.8925878005719
 20
24.81123031020812
 30
0.0
 11
271.0591566890201
 21
22.43667132816662
 31
0.0
  0
LINE
  5
4D0F
330
4039
100
AcDbEntity
  8
AM_5
100
AcDbLine
 10
297.0327641026711
 20
56.07625690708767
 30
0.0
 11
302.9339677362715
 21
63.71917078846124
 31
0.0
  0
LINE
  5
4D10
330
4039
100
AcDbEntity
  8
AM_5
100
AcDbLine
 10
302.9339677362715
 20
63.71917078846124
 30
0.0
 11
312.8582318049835
 21
63.71917078846123
 31
0.0
  0
LINE
  5
4D11
330
4039
100
AcDbEntity
  8
AM_5
100
AcDbLine
 10
274.7260189121238
 20
27.18578929224958
 30
0.0
 11
295.1993329911193
 21
53.70169792504619
 31
0.0
  0
SOLID
  5
4D12
330
4039
100
AcDbEntity
  8
AM_5
100
AcDbTrace
 10
272.4968279702317
 20
25.11680216213342
 30
0.0
 11
273.2883476309122
 21
24.50565845828281
 31
0.0
 12
274.7260189121238
 22
27.18578929224958
 32
0.0
 13
274.7260189121238
 23
27.18578929224958
 33
0.0
  0
SOLID
  5
4D13
330
4039
100
AcDbEntity
  8
AM_5
100
AcDbTrace
 10
296.6370042723309
 20
56.38182875901295
 30
0.0
 11
297.4285239330114
 21
55.77068505516234
 31
0.0
 12
295.1993329911193
 22
53.70169792504619
 32
0.0
 13
295.1993329911193
 23
53.70169792504619
 33
0.0
  0
MTEXT
  5
4D14
330
4039
100
AcDbEntity
  8
AM_5
100
AcDbMText
 10
308.2960997706274
 20
66.01917078846127
 30
0.0
 40
3.0
 41
0.0
 71
     5
 72
     1
  1
\U+220533.5
 73
     1
 44
1.0
1001
ACAD
1000
MTEXTBEGIN
1070
    73
1070
     1
1070
    44
1040
1.0
1070
    74
1070
     0
1000
MTEXTEND
  0
POINT
  5
4D15
330
4039
100
AcDbEntity
  8
DEFPOINTS
 62
     0
100
AcDbPoint
 10
295.1993329911193
 20
53.70169792504619
 30
0.0
  0
POINT
  5
4D16
330
4039
100
AcDbEntity
  8
DEFPOINTS
 62
     0
100
AcDbPoint
 10
274.7260189121238
 20
27.18578929224958
 30
0.0
  0
ENDBLK
  5
4044
330
4039
100
AcDbEntity
  8
0
100
AcDbBlockEnd
  0
BLOCK
  5
41A6
330
41A5
100
AcDbEntity
  8
0
100
AcDbBlockBegin
  2
*S27
 70
     1
 10
0.0
 20
0.0
 30
0.0
  3
*S27
  1

  0
LINE
  5
41A7
330
41A5
100
AcDbEntity
  8
AM_5
100
AcDbLine
 10
69.3015832539989
 20
189.9873497590362
 30
0.0
 11
44.35687137040594
 21
189.9873497590362
 31
0.0
  0
LINE
  5
41A8
330
41A5
100
AcDbEntity
  8
AM_5
100
AcDbLine
 10
44.35687137040594
 20
189.9873497590362
 30
0.0
 11
38.99183064558369
 21
184.3463763512137
 31
0.0
  0
TRACE
  5
41A9
330
41A5
100
AcDbEntity
  8
AM_5
100
AcDbTrace
 10
38.65794351329588
 20
184.6639311299215
 30
0.0
 11
39.32571777787151
 21
184.0288215725058
 31
0.0
 12
36.57976261843567
 22
181.810251781637
 32
0.0
 13
36.57976261843567
 23
181.810251781637
 33
0.0
  0
MTEXT
  5
41AA
330
41A5
100
AcDbEntity
  8
AM_5
 62
     2
100
AcDbMText
 10
69.3015832539989
 20
185.8005106509099
 30
0.0
 40
3.5
 41
0.0
 71
     9
 72
     5
  1

  7
ACISOTS
210
0.0
220
0.0
230
-1.0
 11
-1.0
 21
0.0
 31
0.0
 73
     1
 44
1.0
1001
ACAD
1000
MTEXTBEGIN
1070
    73
1070
     1
1070
    44
1040
1.0
1070
    74
1070
     0
1000
MTEXTEND
  0
ENDBLK
  5
41AB
330
41A5
100
AcDbEntity
  8
0
100
AcDbBlockEnd
  0
BLOCK
  5
41AD
330
41AC
100
AcDbEntity
  8
0
100
AcDbBlockBegin
  2
*S28
 70
     1
 10
0.0
 20
0.0
 30
0.0
  3
*S28
  1

  0
LINE
  5
41AE
330
41AC
100
AcDbEntity
  8
AM_5
100
AcDbLine
 10
88.90395736481123
 20
183.8275710292813
 30
0.0
 11
103.4618468999297
 21
183.8275710292813
 31
0.0
  0
LINE
  5
41AF
330
41AC
100
AcDbEntity
  8
AM_5
100
AcDbLine
 10
103.4618468999297
 20
183.8275710292813
 30
0.0
 11
110.6763040503921
 21
174.2166215798606
 31
0.0
  0
TRACE
  5
41B0
330
41AC
100
AcDbEntity
  8
AM_5
100
AcDbTrace
 10
110.3077920286002
 20
173.9399981094491
 30
0.0
 11
111.044816072184
 21
174.493245050272
 31
0.0
 12
112.7774679228209
 22
171.4174948622574
 32
0.0
 13
112.7774679228209
 23
171.4174948622574
 33
0.0
  0
MTEXT
  5
41B1
330
41AC
100
AcDbEntity
  8
AM_5
 62
     2
100
AcDbMText
 10
88.90395736481123
 20
180.1285343051139
 30
0.0
 40
3.5
 41
0.0
 71
     9
 72
     5
  1

  7
ACISOTS
 73
     1
 44
1.0
1001
ACAD
1000
MTEXTBEGIN
1070
    73
1070
     1
1070
    44
1040
1.0
1070
    74
1070
     0
1000
MTEXTEND
  0
ENDBLK
  5
41B2
330
41AC
100
AcDbEntity
  8
0
100
AcDbBlockEnd
  0
BLOCK
  5
41B4
330
41B3
100
AcDbEntity
  8
0
100
AcDbBlockBegin
  2
*S29
 70
     1
 10
0.0
 20
0.0
 30
0.0
  3
*S29
  1

  0
LINE
  5
41B5
330
41B3
100
AcDbEntity
  8
AM_5
100
AcDbLine
 10
192.822895462314
 20
204.6927145516683
 30
0.0
 11
176.9572451263449
 21
204.6927145516683
 31
0.0
  0
LINE
  5
41B6
330
41B3
100
AcDbEntity
  8
AM_5
100
AcDbLine
 10
176.9572451263449
 20
204.6927145516683
 30
0.0
 11
168.2027091143264
 21
219.7991210114416
 31
0.0
  0
TRACE
  5
41B7
330
41B3
100
AcDbEntity
  8
AM_5
100
AcDbTrace
 10
168.6013836303822
 20
220.0301627497385
 30
0.0
 11
167.8040345982705
 21
219.5680792731448
 31
0.0
 12
166.4477728726168
 22
222.8273546199227
 32
0.0
 13
166.4477728726168
 23
222.8273546199227
 33
0.0
  0
MTEXT
  5
41B8
330
41B3
100
AcDbEntity
  8
AM_5
 62
     2
100
AcDbMText
 10
192.822895462314
 20
203.1980403779791
 30
0.0
 40
3.5
 41
0.0
 71
     9
 72
     5
  1

  7
ACISOTS
210
0.0
220
0.0
230
-1.0
 11
-1.0
 21
0.0
 31
0.0
 73
     1
 44
1.0
1001
ACAD
1000
MTEXTBEGIN
1070
    73
1070
     1
1070
    44
1040
1.0
1070
    74
1070
     0
1000
MTEXTEND
  0
ENDBLK
  5
41B9
330
41B3
100
AcDbEntity
  8
0
100
AcDbBlockEnd
  0
BLOCK
  5
451D
330
4513
100
AcDbEntity
  8
0
100
AcDbBlockBegin
  2
*D30
 70
     1
 10
0.0
 20
0.0
 30
0.0
  3
*D30
  1

  0
LINE
  5
4BE9
330
4513
100
AcDbEntity
  8
AM_5
100
AcDbLine
 10
59.25606943891228
 20
-192.7858323430199
 30
0.0
 11
59.25606943891228
 21
-206.1093323430199
 31
0.0
  0
LINE
  5
4BEA
330
4513
100
AcDbEntity
  8
AM_5
100
AcDbLine
 10
85.25606943891228
 20
-192.7858323430199
 30
0.0
 11
85.25606943891228
 21
-206.1093323430199
 31
0.0
  0
LINE
  5
4BEB
330
4513
100
AcDbEntity
  8
AM_5
100
AcDbLine
 10
62.25606943891228
 20
-204.6093323430199
 30
0.0
 11
82.25606943891227
 21
-204.6093323430199
 31
0.0
  0
SOLID
  5
4BEC
330
4513
100
AcDbEntity
  8
AM_5
100
AcDbTrace
 10
62.25606943891228
 20
-204.1093323430199
 30
0.0
 11
62.25606943891228
 21
-205.1093323430199
 31
0.0
 12
59.25606943891228
 22
-204.6093323430199
 32
0.0
 13
59.25606943891228
 23
-204.6093323430199
 33
0.0
  0
SOLID
  5
4BED
330
4513
100
AcDbEntity
  8
AM_5
100
AcDbTrace
 10
82.25606943891227
 20
-204.1093323430199
 30
0.0
 11
82.25606943891227
 21
-205.1093323430199
 31
0.0
 12
85.25606943891228
 22
-204.6093323430199
 32
0.0
 13
85.25606943891228
 23
-204.6093323430199
 33
0.0
  0
MTEXT
  5
4BEE
330
4513
100
AcDbEntity
  8
AM_5
100
AcDbMText
 10
72.25606943891228
 20
-202.3090370674294
 30
0.0
 40
3.0
 41
0.0
 71
     5
 72
     1
  1
{\Famgdt|c136;o}26
 73
     1
 44
1.0
1001
ACAD
1000
MTEXTBEGIN
1070
    73
1070
     1
1070
    44
1040
1.0
1070
    74
1070
     0
1000
MTEXTEND
  0
POINT
  5
4BEF
330
4513
100
AcDbEntity
  8
DEFPOINTS
 62
     0
100
AcDbPoint
 10
59.25606943891228
 20
-191.7858323430199
 30
0.0
  0
POINT
  5
4BF0
330
4513
100
AcDbEntity
  8
DEFPOINTS
 62
     0
100
AcDbPoint
 10
85.25606943891228
 20
-191.7858323430199
 30
0.0
  0
POINT
  5
4BF1
330
4513
100
AcDbEntity
  8
DEFPOINTS
 62
     0
100
AcDbPoint
 10
85.25606943891228
 20
-204.6093323430199
 30
0.0
  0
ENDBLK
  5
451E
330
4513
100
AcDbEntity
  8
0
100
AcDbBlockEnd
  0
BLOCK
  5
4529
330
451F
100
AcDbEntity
  8
0
100
AcDbBlockBegin
  2
*D31
 70
     1
 10
0.0
 20
0.0
 30
0.0
  3
*D31
  1

  0
LINE
  5
4BF2
330
451F
100
AcDbEntity
  8
AM_5
100
AcDbLine
 10
54.25606943891228
 20
-192.1093323430199
 30
0.0
 11
54.25606943891228
 21
-212.1093323430199
 31
0.0
  0
LINE
  5
4BF3
330
451F
100
AcDbEntity
  8
AM_5
100
AcDbLine
 10
90.25606943891228
 20
-192.1093323430199
 30
0.0
 11
90.25606943891228
 21
-212.1093323430199
 31
0.0
  0
LINE
  5
4BF4
330
451F
100
AcDbEntity
  8
AM_5
100
AcDbLine
 10
57.25606943891228
 20
-210.6093323430199
 30
0.0
 11
87.25606943891227
 21
-210.6093323430199
 31
0.0
  0
SOLID
  5
4BF5
330
451F
100
AcDbEntity
  8
AM_5
100
AcDbTrace
 10
57.25606943891228
 20
-210.1093323430199
 30
0.0
 11
57.25606943891228
 21
-211.1093323430199
 31
0.0
 12
54.25606943891228
 22
-210.6093323430199
 32
0.0
 13
54.25606943891228
 23
-210.6093323430199
 33
0.0
  0
SOLID
  5
4BF6
330
451F
100
AcDbEntity
  8
AM_5
100
AcDbTrace
 10
87.25606943891227
 20
-210.1093323430199
 30
0.0
 11
87.25606943891227
 21
-211.1093323430199
 31
0.0
 12
90.25606943891228
 22
-210.6093323430199
 32
0.0
 13
90.25606943891228
 23
-210.6093323430199
 33
0.0
  0
MTEXT
  5
4BF7
330
451F
100
AcDbEntity
  8
AM_5
100
AcDbMText
 10
72.25606943891228
 20
-208.3093323430199
 30
0.0
 40
3.0
 41
0.0
 71
     5
 72
     1
  1
{\Famgdt|c136;o}36
 73
     1
 44
1.0
1001
ACAD
1000
MTEXTBEGIN
1070
    73
1070
     1
1070
    44
1040
1.0
1070
    74
1070
     0
1000
MTEXTEND
  0
POINT
  5
4BF8
330
451F
100
AcDbEntity
  8
DEFPOINTS
 62
     0
100
AcDbPoint
 10
54.25606943891228
 20
-191.1093323430199
 30
0.0
  0
POINT
  5
4BF9
330
451F
100
AcDbEntity
  8
DEFPOINTS
 62
     0
100
AcDbPoint
 10
90.25606943891228
 20
-191.1093323430199
 30
0.0
  0
POINT
  5
4BFA
330
451F
100
AcDbEntity
  8
DEFPOINTS
 62
     0
100
AcDbPoint
 10
90.25606943891228
 20
-210.6093323430199
 30
0.0
  0
ENDBLK
  5
452A
330
451F
100
AcDbEntity
  8
0
100
AcDbBlockEnd
  0
BLOCK
  5
4535
330
452B
100
AcDbEntity
  8
0
100
AcDbBlockBegin
  2
*D32
 70
     1
 10
0.0
 20
0.0
 30
0.0
  3
*D32
  1

  0
LINE
  5
4BFB
330
452B
100
AcDbEntity
  8
AM_5
100
AcDbLine
 10
89.75606943891227
 20
-192.6093323430199
 30
0.0
 11
99.16869137673643
 21
-192.6093323430199
 31
0.0
  0
LINE
  5
4BFC
330
452B
100
AcDbEntity
  8
AM_5
100
AcDbLine
 10
87.85606943891229
 20
-174.6093323430199
 30
0.0
 11
99.16869137673643
 21
-174.6093323430199
 31
0.0
  0
LINE
  5
4BFD
330
452B
100
AcDbEntity
  8
AM_5
100
AcDbLine
 10
97.66869137673644
 20
-189.6093323430199
 30
0.0
 11
97.66869137673644
 21
-177.6093323430199
 31
0.0
  0
SOLID
  5
4BFE
330
452B
100
AcDbEntity
  8
AM_5
100
AcDbTrace
 10
97.16869137673644
 20
-189.6093323430199
 30
0.0
 11
98.16869137673643
 21
-189.6093323430199
 31
0.0
 12
97.66869137673644
 22
-192.6093323430199
 32
0.0
 13
97.66869137673644
 23
-192.6093323430199
 33
0.0
  0
SOLID
  5
4BFF
330
452B
100
AcDbEntity
  8
AM_5
100
AcDbTrace
 10
97.16869137673644
 20
-177.6093323430199
 30
0.0
 11
98.16869137673643
 21
-177.6093323430199
 31
0.0
 12
97.66869137673644
 22
-174.6093323430199
 32
0.0
 13
97.66869137673644
 23
-174.6093323430199
 33
0.0
  0
MTEXT
  5
4C00
330
452B
100
AcDbEntity
  8
AM_5
100
AcDbMText
 10
95.36869137673646
 20
-183.6093323430199
 30
0.0
 40
3.0
 41
0.0
 71
     5
 72
     1
  1
18
 11
0.0000000000000001
 21
1.0
 31
0.0
 73
     1
 44
1.0
1001
ACAD
1000
MTEXTBEGIN
1070
    73
1070
     1
1070
    44
1040
1.0
1070
    74
1070
     0
1000
MTEXTEND
  0
POINT
  5
4C01
330
452B
100
AcDbEntity
  8
DEFPOINTS
 62
     0
100
AcDbPoint
 10
88.75606943891227
 20
-192.6093323430199
 30
0.0
  0
POINT
  5
4C02
330
452B
100
AcDbEntity
  8
DEFPOINTS
 62
     0
100
AcDbPoint
 10
86.8560694389123
 20
-174.6093323430199
 30
0.0
  0
POINT
  5
4C03
330
452B
100
AcDbEntity
  8
DEFPOINTS
 62
     0
100
AcDbPoint
 10
97.66869137673644
 20
-174.6093323430199
 30
0.0
  0
ENDBLK
  5
4536
330
452B
100
AcDbEntity
  8
0
100
AcDbBlockEnd
  0
BLOCK
  5
4541
330
4537
100
AcDbEntity
  8
0
100
AcDbBlockBegin
  2
*D33
 70
     1
 10
0.0
 20
0.0
 30
0.0
  3
*D33
  1

  0
LINE
  5
4DB0
330
4537
100
AcDbEntity
  8
AM_5
100
AcDbLine
 10
162.1950597147758
 20
-187.6093323430199
 30
0.0
 11
127.8856169041612
 21
-187.6093323430199
 31
0.0
  0
LINE
  5
4DB1
330
4537
100
AcDbEntity
  8
AM_5
100
AcDbLine
 10
162.1950597147758
 20
-161.6093323430199
 30
0.0
 11
127.8856169041612
 21
-161.6093323430199
 31
0.0
  0
LINE
  5
4DB2
330
4537
100
AcDbEntity
  8
AM_5
100
AcDbLine
 10
129.3856169041612
 20
-184.6093323430199
 30
0.0
 11
129.3856169041612
 21
-164.6093323430199
 31
0.0
  0
SOLID
  5
4DB3
330
4537
100
AcDbEntity
  8
AM_5
100
AcDbTrace
 10
128.8856169041612
 20
-184.6093323430199
 30
0.0
 11
129.8856169041612
 21
-184.6093323430199
 31
0.0
 12
129.3856169041612
 22
-187.6093323430199
 32
0.0
 13
129.3856169041612
 23
-187.6093323430199
 33
0.0
  0
SOLID
  5
4DB4
330
4537
100
AcDbEntity
  8
AM_5
100
AcDbTrace
 10
128.8856169041612
 20
-164.6093323430199
 30
0.0
 11
129.8856169041612
 21
-164.6093323430199
 31
0.0
 12
129.3856169041612
 22
-161.6093323430199
 32
0.0
 13
129.3856169041612
 23
-161.6093323430199
 33
0.0
  0
MTEXT
  5
4DB5
330
4537
100
AcDbEntity
  8
AM_5
100
AcDbMText
 10
126.2154145770913
 20
-174.6093323430199
 30
0.0
 40
3.0
 41
0.0
 71
     5
 72
     1
  1
%%c26{\H2.130000;\S 0^ -0.033;}
 11
0.0000000000000001
 21
1.0
 31
0.0
 73
     1
 44
1.0
1001
ACAD
1000
MTEXTBEGIN
1070
    73
1070
     1
1070
    44
1040
1.0
1070
    74
1070
     0
1000
MTEXTEND
  0
POINT
  5
4DB6
330
4537
100
AcDbEntity
  8
DEFPOINTS
 62
     0
100
AcDbPoint
 10
163.1950597147759
 20
-187.6093323430199
 30
0.0
  0
POINT
  5
4DB7
330
4537
100
AcDbEntity
  8
DEFPOINTS
 62
     0
100
AcDbPoint
 10
163.1950597147759
 20
-161.6093323430199
 30
0.0
  0
POINT
  5
4DB8
330
4537
100
AcDbEntity
  8
DEFPOINTS
 62
     0
100
AcDbPoint
 10
129.3856169041612
 20
-161.6093323430199
 30
0.0
  0
ENDBLK
  5
4542
330
4537
100
AcDbEntity
  8
0
100
AcDbBlockEnd
  0
BLOCK
  5
454D
330
4543
100
AcDbEntity
  8
0
100
AcDbBlockBegin
  2
*D34
 70
     1
 10
0.0
 20
0.0
 30
0.0
  3
*D34
  1

  0
LINE
  5
4C0D
330
4543
100
AcDbEntity
  8
AM_5
100
AcDbLine
 10
134.6950597147759
 20
-179.5093323430199
 30
0.0
 11
134.6950597147759
 21
-212.1093323430197
 31
0.0
  0
LINE
  5
4C0E
330
4543
100
AcDbEntity
  8
AM_5
100
AcDbLine
 10
165.6950597147759
 20
-193.6093323430199
 30
0.0
 11
165.6950597147759
 21
-212.1093323430197
 31
0.0
  0
LINE
  5
4C0F
330
4543
100
AcDbEntity
  8
AM_5
100
AcDbLine
 10
137.6950597147759
 20
-210.6093323430198
 30
0.0
 11
162.6950597147759
 21
-210.6093323430198
 31
0.0
  0
SOLID
  5
4C10
330
4543
100
AcDbEntity
  8
AM_5
100
AcDbTrace
 10
137.6950597147759
 20
-210.1093323430198
 30
0.0
 11
137.6950597147759
 21
-211.1093323430198
 31
0.0
 12
134.6950597147759
 22
-210.6093323430198
 32
0.0
 13
134.6950597147759
 23
-210.6093323430198
 33
0.0
  0
SOLID
  5
4C11
330
4543
100
AcDbEntity
  8
AM_5
100
AcDbTrace
 10
162.6950597147759
 20
-210.1093323430198
 30
0.0
 11
162.6950597147759
 21
-211.1093323430198
 31
0.0
 12
165.6950597147759
 22
-210.6093323430198
 32
0.0
 13
165.6950597147759
 23
-210.6093323430198
 33
0.0
  0
MTEXT
  5
4C12
330
4543
100
AcDbEntity
  8
AM_5
100
AcDbMText
 10
150.1950597147759
 20
-208.3093323430198
 30
0.0
 40
3.0
 41
0.0
 71
     5
 72
     1
  1
31
 73
     1
 44
1.0
1001
ACAD
1000
MTEXTBEGIN
1070
    73
1070
     1
1070
    44
1040
1.0
1070
    74
1070
     0
1000
MTEXTEND
  0
POINT
  5
4C13
330
4543
100
AcDbEntity
  8
DEFPOINTS
 62
     0
100
AcDbPoint
 10
134.6950597147759
 20
-178.5093323430199
 30
0.0
  0
POINT
  5
4C14
330
4543
100
AcDbEntity
  8
DEFPOINTS
 62
     0
100
AcDbPoint
 10
165.6950597147759
 20
-192.6093323430199
 30
0.0
  0
POINT
  5
4C15
330
4543
100
AcDbEntity
  8
DEFPOINTS
 62
     0
100
AcDbPoint
 10
165.6950597147759
 20
-210.6093323430198
 30
0.0
  0
ENDBLK
  5
454E
330
4543
100
AcDbEntity
  8
0
100
AcDbBlockEnd
  0
BLOCK
  5
4559
330
454F
100
AcDbEntity
  8
0
100
AcDbBlockBegin
  2
*D35
 70
     1
 10
0.0
 20
0.0
 30
0.0
  3
*D35
  1

  0
LINE
  5
4C16
330
454F
100
AcDbEntity
  8
AM_5
100
AcDbLine
 10
165.6950597147759
 20
-194.6093323430199
 30
0.0
 11
165.6950597147759
 21
-212.1093323430197
 31
0.0
  0
LINE
  5
4C17
330
454F
100
AcDbEntity
  8
AM_5
100
AcDbLine
 10
241.6950597147759
 20
-190.1093323430199
 30
0.0
 11
241.6950597147759
 21
-212.1093323430197
 31
0.0
  0
LINE
  5
4C18
330
454F
100
AcDbEntity
  8
AM_5
100
AcDbLine
 10
168.6950597147759
 20
-210.6093323430198
 30
0.0
 11
238.6950597147759
 21
-210.6093323430198
 31
0.0
  0
SOLID
  5
4C19
330
454F
100
AcDbEntity
  8
AM_5
100
AcDbTrace
 10
168.6950597147759
 20
-210.1093323430198
 30
0.0
 11
168.6950597147759
 21
-211.1093323430198
 31
0.0
 12
165.6950597147759
 22
-210.6093323430198
 32
0.0
 13
165.6950597147759
 23
-210.6093323430198
 33
0.0
  0
SOLID
  5
4C1A
330
454F
100
AcDbEntity
  8
AM_5
100
AcDbTrace
 10
238.6950597147759
 20
-210.1093323430198
 30
0.0
 11
238.6950597147759
 21
-211.1093323430198
 31
0.0
 12
241.6950597147759
 22
-210.6093323430198
 32
0.0
 13
241.6950597147759
 23
-210.6093323430198
 33
0.0
  0
MTEXT
  5
4C1B
330
454F
100
AcDbEntity
  8
AM_5
100
AcDbMText
 10
203.6950597147759
 20
-208.3093323430198
 30
0.0
 40
3.0
 41
0.0
 71
     5
 72
     1
  1
76+stroke
 73
     1
 44
1.0
1001
ACAD
1000
MTEXTBEGIN
1070
    73
1070
     1
1070
    44
1040
1.0
1070
    74
1070
     0
1000
MTEXTEND
  0
POINT
  5
4C1C
330
454F
100
AcDbEntity
  8
DEFPOINTS
 62
     0
100
AcDbPoint
 10
165.6950597147759
 20
-193.6093323430199
 30
0.0
  0
POINT
  5
4C1D
330
454F
100
AcDbEntity
  8
DEFPOINTS
 62
     0
100
AcDbPoint
 10
241.6950597147759
 20
-189.1093323430199
 30
0.0
  0
POINT
  5
4C1E
330
454F
100
AcDbEntity
  8
DEFPOINTS
 62
     0
100
AcDbPoint
 10
241.6950597147759
 20
-210.6093323430198
 30
0.0
  0
ENDBLK
  5
455A
330
454F
100
AcDbEntity
  8
0
100
AcDbBlockEnd
  0
BLOCK
  5
4565
330
455B
100
AcDbEntity
  8
0
100
AcDbBlockBegin
  2
*D36
 70
     1
 10
0.0
 20
0.0
 30
0.0
  3
*D36
  1

  0
LINE
  5
4C1F
330
455B
100
AcDbEntity
  8
AM_5
100
AcDbLine
 10
134.6950597147759
 20
-179.5093323430199
 30
0.0
 11
134.6950597147759
 21
-218.1093323430197
 31
0.0
  0
LINE
  5
4C20
330
455B
100
AcDbEntity
  8
AM_5
100
AcDbLine
 10
241.6950597147759
 20
-190.1093323430199
 30
0.0
 11
241.6950597147759
 21
-218.1093323430197
 31
0.0
  0
LINE
  5
4C21
330
455B
100
AcDbEntity
  8
AM_5
100
AcDbLine
 10
137.6950597147759
 20
-216.6093323430198
 30
0.0
 11
238.6950597147759
 21
-216.6093323430198
 31
0.0
  0
SOLID
  5
4C22
330
455B
100
AcDbEntity
  8
AM_5
100
AcDbTrace
 10
137.6950597147759
 20
-216.1093323430197
 30
0.0
 11
137.6950597147759
 21
-217.1093323430198
 31
0.0
 12
134.6950597147759
 22
-216.6093323430198
 32
0.0
 13
134.6950597147759
 23
-216.6093323430198
 33
0.0
  0
SOLID
  5
4C23
330
455B
100
AcDbEntity
  8
AM_5
100
AcDbTrace
 10
238.6950597147759
 20
-216.1093323430197
 30
0.0
 11
238.6950597147759
 21
-217.1093323430198
 31
0.0
 12
241.6950597147759
 22
-216.6093323430198
 32
0.0
 13
241.6950597147759
 23
-216.6093323430198
 33
0.0
  0
MTEXT
  5
4C24
330
455B
100
AcDbEntity
  8
AM_5
100
AcDbMText
 10
188.1950597147758
 20
-214.3093323430198
 30
0.0
 40
3.0
 41
0.0
 71
     5
 72
     1
  1
107+stroke
 73
     1
 44
1.0
1001
ACAD
1000
MTEXTBEGIN
1070
    73
1070
     1
1070
    44
1040
1.0
1070
    74
1070
     0
1000
MTEXTEND
  0
POINT
  5
4C25
330
455B
100
AcDbEntity
  8
DEFPOINTS
 62
     0
100
AcDbPoint
 10
134.6950597147759
 20
-178.5093323430199
 30
0.0
  0
POINT
  5
4C26
330
455B
100
AcDbEntity
  8
DEFPOINTS
 62
     0
100
AcDbPoint
 10
241.6950597147759
 20
-189.1093323430199
 30
0.0
  0
POINT
  5
4C27
330
455B
100
AcDbEntity
  8
DEFPOINTS
 62
     0
100
AcDbPoint
 10
241.6950597147759
 20
-216.6093323430198
 30
0.0
  0
ENDBLK
  5
4566
330
455B
100
AcDbEntity
  8
0
100
AcDbBlockEnd
  0
BLOCK
  5
4571
330
4567
100
AcDbEntity
  8
0
100
AcDbBlockBegin
  2
*D37
 70
     1
 10
0.0
 20
0.0
 30
0.0
  3
*D37
  1

  0
LINE
  5
4C28
330
4567
100
AcDbEntity
  8
AM_5
100
AcDbLine
 10
269.9626759516213
 20
-183.0633581009577
 30
0.0
 11
269.9626759516213
 21
-206.10933334302
 31
0.0
  0
LINE
  5
4C29
330
4567
100
AcDbEntity
  8
AM_5
100
AcDbLine
 10
299.9626759516214
 20
-183.0633581009578
 30
0.0
 11
299.9626759516214
 21
-206.10933334302
 31
0.0
  0
LINE
  5
4C2A
330
4567
100
AcDbEntity
  8
AM_5
100
AcDbLine
 10
272.9626759516214
 20
-204.60933334302
 30
0.0
 11
296.9626759516213
 21
-204.60933334302
 31
0.0
  0
SOLID
  5
4C2B
330
4567
100
AcDbEntity
  8
AM_5
100
AcDbTrace
 10
272.9626759516214
 20
-204.10933334302
 30
0.0
 11
272.9626759516214
 21
-205.10933334302
 31
0.0
 12
269.9626759516213
 22
-204.60933334302
 32
0.0
 13
269.9626759516213
 23
-204.60933334302
 33
0.0
  0
SOLID
  5
4C2C
330
4567
100
AcDbEntity
  8
AM_5
100
AcDbTrace
 10
296.9626759516213
 20
-204.10933334302
 30
0.0
 11
296.9626759516213
 21
-205.10933334302
 31
0.0
 12
299.9626759516214
 22
-204.60933334302
 32
0.0
 13
299.9626759516214
 23
-204.60933334302
 33
0.0
  0
MTEXT
  5
4C2D
330
4567
100
AcDbEntity
  8
AM_5
100
AcDbMText
 10
284.9626759516214
 20
-202.30933334302
 30
0.0
 40
3.0
 41
0.0
 71
     5
 72
     1
  1
{\Famgdt|c136;o}30
 73
     1
 44
1.0
1001
ACAD
1000
MTEXTBEGIN
1070
    73
1070
     1
1070
    44
1040
1.0
1070
    74
1070
     0
1000
MTEXTEND
  0
POINT
  5
4C2E
330
4567
100
AcDbEntity
  8
DEFPOINTS
 62
     0
100
AcDbPoint
 10
269.9626759516213
 20
-182.0633581009577
 30
0.0
  0
POINT
  5
4C2F
330
4567
100
AcDbEntity
  8
DEFPOINTS
 62
     0
100
AcDbPoint
 10
299.9626759516214
 20
-182.0633581009578
 30
0.0
  0
POINT
  5
4C30
330
4567
100
AcDbEntity
  8
DEFPOINTS
 62
     0
100
AcDbPoint
 10
299.9626759516214
 20
-204.60933334302
 30
0.0
  0
ENDBLK
  5
4572
330
4567
100
AcDbEntity
  8
0
100
AcDbBlockEnd
  0
BLOCK
  5
457D
330
4573
100
AcDbEntity
  8
0
100
AcDbBlockBegin
  2
*D38
 70
     1
 10
0.0
 20
0.0
 30
0.0
  3
*D38
  1

  0
LINE
  5
4D62
330
4573
100
AcDbEntity
  8
AM_5
100
AcDbLine
 10
165.6950597147759
 20
-84.6008519237044
 30
0.0
 11
165.6950597147759
 21
-75.51266586703815
 31
0.0
  0
LINE
  5
4D63
330
4573
100
AcDbEntity
  8
AM_5
100
AcDbLine
 10
187.6950597147759
 20
-96.00085192370441
 30
0.0
 11
187.6950597147759
 21
-75.51266586703815
 31
0.0
  0
LINE
  5
4D64
330
4573
100
AcDbEntity
  8
AM_5
100
AcDbLine
 10
168.6950597147759
 20
-77.01266586703815
 30
0.0
 11
184.6950597147759
 21
-77.01266586703815
 31
0.0
  0
SOLID
  5
4D65
330
4573
100
AcDbEntity
  8
AM_5
100
AcDbTrace
 10
168.6950597147759
 20
-76.51266586703815
 30
0.0
 11
168.6950597147759
 21
-77.51266586703815
 31
0.0
 12
165.6950597147759
 22
-77.01266586703815
 32
0.0
 13
165.6950597147759
 23
-77.01266586703815
 33
0.0
  0
SOLID
  5
4D66
330
4573
100
AcDbEntity
  8
AM_5
100
AcDbTrace
 10
184.6950597147759
 20
-76.51266586703815
 30
0.0
 11
184.6950597147759
 21
-77.51266586703815
 31
0.0
 12
187.6950597147759
 22
-77.01266586703815
 32
0.0
 13
187.6950597147759
 23
-77.01266586703815
 33
0.0
  0
MTEXT
  5
4D67
330
4573
100
AcDbEntity
  8
AM_5
100
AcDbMText
 10
176.6950597147759
 20
-74.71237059144759
 30
0.0
 40
3.0
 41
0.0
 71
     5
 72
     1
  1
22
 73
     1
 44
1.0
1001
ACAD
1000
MTEXTBEGIN
1070
    73
1070
     1
1070
    44
1040
1.0
1070
    74
1070
     0
1000
MTEXTEND
  0
POINT
  5
4D68
330
4573
100
AcDbEntity
  8
DEFPOINTS
 62
     0
100
AcDbPoint
 10
165.6950597147759
 20
-85.6008519237044
 30
0.0
  0
POINT
  5
4D69
330
4573
100
AcDbEntity
  8
DEFPOINTS
 62
     0
100
AcDbPoint
 10
187.6950597147759
 20
-97.0008519237044
 30
0.0
  0
POINT
  5
4D6A
330
4573
100
AcDbEntity
  8
DEFPOINTS
 62
     0
100
AcDbPoint
 10
187.6950597147759
 20
-77.01266586703815
 30
0.0
  0
ENDBLK
  5
457E
330
4573
100
AcDbEntity
  8
0
100
AcDbBlockEnd
  0
BLOCK
  5
4589
330
457F
100
AcDbEntity
  8
0
100
AcDbBlockBegin
  2
*D39
 70
     1
 10
0.0
 20
0.0
 30
0.0
  3
*D39
  1

  0
LINE
  5
4D6B
330
457F
100
AcDbEntity
  8
AM_5
100
AcDbLine
 10
165.6950597147759
 20
-122.6008519237044
 30
0.0
 11
165.6950597147759
 21
-132.4282507495743
 31
0.0
  0
LINE
  5
4D6C
330
457F
100
AcDbEntity
  8
AM_5
100
AcDbLine
 10
194.6950597147758
 20
-122.6008519237044
 30
0.0
 11
194.6950597147758
 21
-132.4282507495743
 31
0.0
  0
LINE
  5
4D6D
330
457F
100
AcDbEntity
  8
AM_5
100
AcDbLine
 10
168.6950597147759
 20
-130.9282507495743
 30
0.0
 11
191.6950597147758
 21
-130.9282507495743
 31
0.0
  0
SOLID
  5
4D6E
330
457F
100
AcDbEntity
  8
AM_5
100
AcDbTrace
 10
168.6950597147759
 20
-130.4282507495743
 30
0.0
 11
168.6950597147759
 21
-131.4282507495743
 31
0.0
 12
165.6950597147759
 22
-130.9282507495743
 32
0.0
 13
165.6950597147759
 23
-130.9282507495743
 33
0.0
  0
SOLID
  5
4D6F
330
457F
100
AcDbEntity
  8
AM_5
100
AcDbTrace
 10
191.6950597147758
 20
-130.4282507495743
 30
0.0
 11
191.6950597147758
 21
-131.4282507495743
 31
0.0
 12
194.6950597147758
 22
-130.9282507495743
 32
0.0
 13
194.6950597147758
 23
-130.9282507495743
 33
0.0
  0
MTEXT
  5
4D70
330
457F
100
AcDbEntity
  8
AM_5
100
AcDbMText
 10
180.1950597147758
 20
-128.6279554739838
 30
0.0
 40
3.0
 41
0.0
 71
     5
 72
     1
  1
29
 73
     1
 44
1.0
1001
ACAD
1000
MTEXTBEGIN
1070
    73
1070
     1
1070
    44
1040
1.0
1070
    74
1070
     0
1000
MTEXTEND
  0
POINT
  5
4D71
330
457F
100
AcDbEntity
  8
DEFPOINTS
 62
     0
100
AcDbPoint
 10
165.6950597147759
 20
-121.6008519237044
 30
0.0
  0
POINT
  5
4D72
330
457F
100
AcDbEntity
  8
DEFPOINTS
 62
     0
100
AcDbPoint
 10
194.6950597147758
 20
-121.6008519237044
 30
0.0
  0
POINT
  5
4D73
330
457F
100
AcDbEntity
  8
DEFPOINTS
 62
     0
100
AcDbPoint
 10
194.6950597147758
 20
-130.9282507495743
 30
0.0
  0
ENDBLK
  5
458A
330
457F
100
AcDbEntity
  8
0
100
AcDbBlockEnd
  0
BLOCK
  5
4595
330
458B
100
AcDbEntity
  8
0
100
AcDbBlockBegin
  2
*D40
 70
     1
 10
0.0
 20
0.0
 30
0.0
  3
*D40
  1

  0
LINE
  5
4D74
330
458B
100
AcDbEntity
  8
AM_5
100
AcDbLine
 10
241.6950597147759
 20
-119.1008519237044
 30
0.0
 11
241.6950597147759
 21
-132.1008519237044
 31
0.0
  0
LINE
  5
4D75
330
458B
100
AcDbEntity
  8
AM_5
100
AcDbLine
 10
226.6950597147759
 20
-119.1008519237044
 30
0.0
 11
226.6950597147759
 21
-132.1008519237044
 31
0.0
  0
LINE
  5
4D76
330
458B
100
AcDbEntity
  8
AM_5
100
AcDbLine
 10
238.6950597147759
 20
-130.6008519237044
 30
0.0
 11
229.6950597147759
 21
-130.6008519237044
 31
0.0
  0
SOLID
  5
4D77
330
458B
100
AcDbEntity
  8
AM_5
100
AcDbTrace
 10
238.6950597147759
 20
-130.1008519237044
 30
0.0
 11
238.6950597147759
 21
-131.1008519237044
 31
0.0
 12
241.6950597147759
 22
-130.6008519237044
 32
0.0
 13
241.6950597147759
 23
-130.6008519237044
 33
0.0
  0
SOLID
  5
4D78
330
458B
100
AcDbEntity
  8
AM_5
100
AcDbTrace
 10
229.6950597147759
 20
-130.1008519237044
 30
0.0
 11
229.6950597147759
 21
-131.1008519237044
 31
0.0
 12
226.6950597147759
 22
-130.6008519237044
 32
0.0
 13
226.6950597147759
 23
-130.6008519237044
 33
0.0
  0
MTEXT
  5
4D79
330
458B
100
AcDbEntity
  8
AM_5
100
AcDbMText
 10
234.1950597147759
 20
-128.3008519237044
 30
0.0
 40
3.0
 41
0.0
 71
     5
 72
     1
  1
15
 73
     1
 44
1.0
1001
ACAD
1000
MTEXTBEGIN
1070
    73
1070
     1
1070
    44
1040
1.0
1070
    74
1070
     0
1000
MTEXTEND
  0
POINT
  5
4D7A
330
458B
100
AcDbEntity
  8
DEFPOINTS
 62
     0
100
AcDbPoint
 10
241.6950597147759
 20
-118.1008519237044
 30
0.0
  0
POINT
  5
4D7B
330
458B
100
AcDbEntity
  8
DEFPOINTS
 62
     0
100
AcDbPoint
 10
226.6950597147759
 20
-118.1008519237044
 30
0.0
  0
POINT
  5
4D7C
330
458B
100
AcDbEntity
  8
DEFPOINTS
 62
     0
100
AcDbPoint
 10
226.6950597147759
 20
-130.6008519237044
 30
0.0
  0
ENDBLK
  5
4596
330
458B
100
AcDbEntity
  8
0
100
AcDbBlockEnd
  0
BLOCK
  5
45A1
330
4597
100
AcDbEntity
  8
0
100
AcDbBlockBegin
  2
*D41
 70
     1
 10
0.0
 20
0.0
 30
0.0
  3
*D41
  1

  0
LINE
  5
4D7D
330
4597
100
AcDbEntity
  8
AM_5
100
AcDbLine
 10
241.6950597147759
 20
-88.1008519237044
 30
0.0
 11
241.6950597147759
 21
-75.6008519237044
 31
0.0
  0
LINE
  5
4D7E
330
4597
100
AcDbEntity
  8
AM_5
100
AcDbLine
 10
233.6950597147759
 20
-97.00085192370444
 30
0.0
 11
233.6950597147759
 21
-75.6008519237044
 31
0.0
  0
LINE
  5
4D7F
330
4597
100
AcDbEntity
  8
AM_5
100
AcDbLine
 10
238.6950597147759
 20
-77.10085192370439
 30
0.0
 11
236.6950597147759
 21
-77.10085192370439
 31
0.0
  0
SOLID
  5
4D80
330
4597
100
AcDbEntity
  8
AM_5
100
AcDbTrace
 10
238.6950597147759
 20
-76.6008519237044
 30
0.0
 11
238.6950597147759
 21
-77.60085192370439
 31
0.0
 12
241.6950597147759
 22
-77.10085192370439
 32
0.0
 13
241.6950597147759
 23
-77.10085192370439
 33
0.0
  0
SOLID
  5
4D81
330
4597
100
AcDbEntity
  8
AM_5
100
AcDbTrace
 10
236.6950597147759
 20
-76.6008519237044
 30
0.0
 11
236.6950597147759
 21
-77.60085192370439
 31
0.0
 12
233.6950597147759
 22
-77.10085192370439
 32
0.0
 13
233.6950597147759
 23
-77.10085192370439
 33
0.0
  0
MTEXT
  5
4D82
330
4597
100
AcDbEntity
  8
AM_5
100
AcDbMText
 10
237.6950597147759
 20
-74.8008519237044
 30
0.0
 40
3.0
 41
0.0
 71
     5
 72
     1
  1
8
 73
     1
 44
1.0
1001
ACAD
1000
MTEXTBEGIN
1070
    73
1070
     1
1070
    44
1040
1.0
1070
    74
1070
     0
1000
MTEXTEND
  0
POINT
  5
4D83
330
4597
100
AcDbEntity
  8
DEFPOINTS
 62
     0
100
AcDbPoint
 10
241.6950597147759
 20
-89.1008519237044
 30
0.0
  0
POINT
  5
4D84
330
4597
100
AcDbEntity
  8
DEFPOINTS
 62
     0
100
AcDbPoint
 10
233.6950597147759
 20
-98.00085192370444
 30
0.0
  0
POINT
  5
4D85
330
4597
100
AcDbEntity
  8
DEFPOINTS
 62
     0
100
AcDbPoint
 10
233.6950597147759
 20
-77.10085192370439
 30
0.0
  0
ENDBLK
  5
45A2
330
4597
100
AcDbEntity
  8
0
100
AcDbBlockEnd
  0
BLOCK
  5
45AD
330
45A3
100
AcDbEntity
  8
0
100
AcDbBlockBegin
  2
*D42
 70
     1
 10
0.0
 20
0.0
 30
0.0
  3
*D42
  1

  0
LINE
  5
4C55
330
45A3
100
AcDbEntity
  8
AM_5
100
AcDbLine
 10
273.0920667932887
 20
-190.393854452039
 30
0.0
 11
271.2889362882255
 21
-192.7915033799912
 31
0.0
  0
LINE
  5
4C56
330
45A3
100
AcDbEntity
  8
AM_5
100
AcDbLine
 10
296.8332851099546
 20
-158.8248102340015
 30
0.0
 11
302.1141734636156
 21
-151.8027359780138
 31
0.0
  0
LINE
  5
4C57
330
45A3
100
AcDbEntity
  8
AM_5
100
AcDbLine
 10
302.1141734636156
 20
-151.8027359780138
 30
0.0
 11
312.0384375323276
 21
-151.8027359780138
 31
0.0
  0
LINE
  5
4C58
330
45A3
100
AcDbEntity
  8
AM_5
100
AcDbLine
 10
274.8951972983519
 20
-187.9962055240867
 30
0.0
 11
295.0301546048914
 21
-161.2224591619537
 31
0.0
  0
SOLID
  5
4C59
330
45A3
100
AcDbEntity
  8
AM_5
100
AcDbTrace
 10
272.69245863863
 20
-190.0933327011951
 30
0.0
 11
273.4916749479474
 21
-190.6943762028829
 31
0.0
 12
274.8951972983519
 22
-187.9962055240867
 32
0.0
 13
274.8951972983519
 23
-187.9962055240867
 33
0.0
  0
SOLID
  5
4C5A
330
45A3
100
AcDbEntity
  8
AM_5
100
AcDbTrace
 10
296.4336769552959
 20
-158.5242884831576
 30
0.0
 11
297.2328932646134
 21
-159.1253319848453
 31
0.0
 12
295.0301546048914
 22
-161.2224591619537
 32
0.0
 13
295.0301546048914
 23
-161.2224591619537
 33
0.0
  0
MTEXT
  5
4C5B
330
45A3
100
AcDbEntity
  8
AM_5
100
AcDbMText
 10
307.4763054979716
 20
-149.5027359780138
 30
0.0
 40
3.0
 41
0.0
 71
     5
 72
     1
  1
\U+220533.5
 73
     1
 44
1.0
1001
ACAD
1000
MTEXTBEGIN
1070
    73
1070
     1
1070
    44
1040
1.0
1070
    74
1070
     0
1000
MTEXTEND
  0
POINT
  5
4C5C
330
45A3
100
AcDbEntity
  8
DEFPOINTS
 62
     0
100
AcDbPoint
 10
295.0301546048914
 20
-161.2224591619537
 30
0.0
  0
POINT
  5
4C5D
330
45A3
100
AcDbEntity
  8
DEFPOINTS
 62
     0
100
AcDbPoint
 10
274.8951972983519
 20
-187.9962055240867
 30
0.0
  0
ENDBLK
  5
45AE
330
45A3
100
AcDbEntity
  8
0
100
AcDbBlockEnd
  0
BLOCK
  5
45B9
330
45AF
100
AcDbEntity
  8
0
100
AcDbBlockBegin
  2
*D43
 70
     1
 10
0.0
 20
0.0
 30
0.0
  3
*D43
  1

  0
LINE
  5
4C5E
330
45AF
100
AcDbEntity
  8
AM_5
100
AcDbLine
 10
134.6950597147759
 20
-179.5093323430199
 30
0.0
 11
134.6950597147759
 21
-200.1093323430198
 31
0.0
  0
LINE
  5
4C5F
330
45AF
100
AcDbEntity
  8
AM_5
100
AcDbLine
 10
154.1950597147758
 20
-180.5093323430199
 30
0.0
 11
154.1950597147758
 21
-200.1093323430198
 31
0.0
  0
LINE
  5
4C60
330
45AF
100
AcDbEntity
  8
AM_5
100
AcDbLine
 10
137.6950597147759
 20
-198.6093323430198
 30
0.0
 11
151.1950597147759
 21
-198.6093323430198
 31
0.0
  0
SOLID
  5
4C61
330
45AF
100
AcDbEntity
  8
AM_5
100
AcDbTrace
 10
137.6950597147759
 20
-198.1093323430198
 30
0.0
 11
137.6950597147759
 21
-199.1093323430198
 31
0.0
 12
134.6950597147759
 22
-198.6093323430198
 32
0.0
 13
134.6950597147759
 23
-198.6093323430198
 33
0.0
  0
SOLID
  5
4C62
330
45AF
100
AcDbEntity
  8
AM_5
100
AcDbTrace
 10
151.1950597147759
 20
-198.1093323430198
 30
0.0
 11
151.1950597147759
 21
-199.1093323430198
 31
0.0
 12
154.1950597147758
 22
-198.6093323430198
 32
0.0
 13
154.1950597147758
 23
-198.6093323430198
 33
0.0
  0
MTEXT
  5
4C63
330
45AF
100
AcDbEntity
  8
AM_5
100
AcDbMText
 10
144.4450597147759
 20
-196.3093323430197
 30
0.0
 40
3.0
 41
0.0
 71
     5
 72
     1
  1
19.5
 73
     1
 44
1.0
1001
ACAD
1000
MTEXTBEGIN
1070
    73
1070
     1
1070
    44
1040
1.0
1070
    74
1070
     0
1000
MTEXTEND
  0
POINT
  5
4C64
330
45AF
100
AcDbEntity
  8
DEFPOINTS
 62
     0
100
AcDbPoint
 10
134.6950597147759
 20
-178.5093323430199
 30
0.0
  0
POINT
  5
4C65
330
45AF
100
AcDbEntity
  8
DEFPOINTS
 62
     0
100
AcDbPoint
 10
154.1950597147758
 20
-179.5093323430199
 30
0.0
  0
POINT
  5
4C66
330
45AF
100
AcDbEntity
  8
DEFPOINTS
 62
     0
100
AcDbPoint
 10
154.1950597147758
 20
-198.6093323430198
 30
0.0
  0
ENDBLK
  5
45BA
330
45AF
100
AcDbEntity
  8
0
100
AcDbBlockEnd
  0
BLOCK
  5
45C5
330
45BB
100
AcDbEntity
  8
0
100
AcDbBlockBegin
  2
*D44
 70
     1
 10
0.0
 20
0.0
 30
0.0
  3
*D44
  1

  0
LINE
  5
4C67
330
45BB
100
AcDbEntity
  8
AM_5
100
AcDbLine
 10
134.6950597147759
 20
-179.5093323430199
 30
0.0
 11
134.6950597147759
 21
-206.1093323430198
 31
0.0
  0
LINE
  5
4C68
330
45BB
100
AcDbEntity
  8
AM_5
100
AcDbLine
 10
156.6950597147759
 20
-180.6093323430199
 30
0.0
 11
156.6950597147759
 21
-206.1093323430198
 31
0.0
  0
LINE
  5
4C69
330
45BB
100
AcDbEntity
  8
AM_5
100
AcDbLine
 10
137.6950597147759
 20
-204.6093323430198
 30
0.0
 11
153.6950597147759
 21
-204.6093323430198
 31
0.0
  0
SOLID
  5
4C6A
330
45BB
100
AcDbEntity
  8
AM_5
100
AcDbTrace
 10
137.6950597147759
 20
-204.1093323430198
 30
0.0
 11
137.6950597147759
 21
-205.1093323430198
 31
0.0
 12
134.6950597147759
 22
-204.6093323430198
 32
0.0
 13
134.6950597147759
 23
-204.6093323430198
 33
0.0
  0
SOLID
  5
4C6B
330
45BB
100
AcDbEntity
  8
AM_5
100
AcDbTrace
 10
153.6950597147759
 20
-204.1093323430198
 30
0.0
 11
153.6950597147759
 21
-205.1093323430198
 31
0.0
 12
156.6950597147759
 22
-204.6093323430198
 32
0.0
 13
156.6950597147759
 23
-204.6093323430198
 33
0.0
  0
MTEXT
  5
4C6C
330
45BB
100
AcDbEntity
  8
AM_5
100
AcDbMText
 10
145.6950597147758
 20
-202.3090370674292
 30
0.0
 40
3.0
 41
0.0
 71
     5
 72
     1
  1
22
 73
     1
 44
1.0
1001
ACAD
1000
MTEXTBEGIN
1070
    73
1070
     1
1070
    44
1040
1.0
1070
    74
1070
     0
1000
MTEXTEND
  0
POINT
  5
4C6D
330
45BB
100
AcDbEntity
  8
DEFPOINTS
 62
     0
100
AcDbPoint
 10
134.6950597147759
 20
-178.5093323430199
 30
0.0
  0
POINT
  5
4C6E
330
45BB
100
AcDbEntity
  8
DEFPOINTS
 62
     0
100
AcDbPoint
 10
156.6950597147759
 20
-179.6093323430199
 30
0.0
  0
POINT
  5
4C6F
330
45BB
100
AcDbEntity
  8
DEFPOINTS
 62
     0
100
AcDbPoint
 10
156.6950597147759
 20
-204.6093323430198
 30
0.0
  0
ENDBLK
  5
45C6
330
45BB
100
AcDbEntity
  8
0
100
AcDbBlockEnd
  0
ENDSEC
  0
SECTION
  2
ENTITIES
  0
INSERT
  5
51A
330
1E
100
AcDbEntity
  8
ASHADE
 62
     1
100
AcDbBlockReference
  2
AVE_RENDER
 10
0.0
 20
0.0
 30
0.0
1001
AVE_RENDER
1002
{
1070
     7
1000
Pref
1070
    30
1070
    20
1070
     1
1070
     0
1000

1070
    10
1070
     1
1070
    10
1040
1.0
1070
     1
1040
0.3
1040
0.7
1040
0.0
1040
10.0
1010
-1.0
1020
-1.0
1030
-1.0
1040
0.3
1070
    49
1070
     0
1070
     0
1010
1.0
1020
1.0
1030
1.0
1040
45.0
1070
     1
1070
     0
1000
WCS
1040
0.0
1070
     0
1040
10.0
1002
}
  0
INSERT
  5
51B
330
1E
100
AcDbEntity
  8
ASHADE
 62
     3
100
AcDbBlockReference
  2
AVE_RENDER
 10
0.0
 20
0.0
 30
0.0
1001
AVE_RENDER
1002
{
1070
     0
1000
Full Opt
1070
     0
1070
     1
1070
     1
1070
     1
1070
     0
1070
     0
1070
     0
1070
     1
1070
     1
1040
0.0001
1040
0.0001
1002
}
  0
INSERT
  5
51C
330
1E
100
AcDbEntity
  8
ASHADE
 62
     4
100
AcDbBlockReference
  2
AVE_RENDER
 10
0.0
 20
0.0
 30
0.0
1001
AVE_RENDER
1002
{
1070
     0
1000
Quick Opt
1070
     0
1070
     1
1070
     1
1070
     1
1070
     0
1070
     0
1070
     1
1002
}
  0
INSERT
  5
51D
330
1E
100
AcDbEntity
  8
ASHADE
 62
     5
100
AcDbBlockReference
  2
AVE_RENDER
 10
0.0
 20
0.0
 30
0.0
1001
AVE_RENDER
1002
{
1070
     1
1000
Scanl Opt
1070
     2
1070
     0
1070
     2
1040
2.0
1040
4.0
1070
     0
1070
     1
1070
     0
1040
0.03
1002
}
  0
INSERT
  5
51E
330
1E
100
AcDbEntity
  8
ASHADE
 62
     6
100
AcDbBlockReference
  2
AVE_RENDER
 10
0.0
 20
0.0
 30
0.0
1001
AVE_RENDER
1002
{
1070
     2
1000
Raytr Opt
1070
     2
1070
     0
1070
     2
1040
2.0
1040
4.0
1070
     0
1070
     1
1070
     1
1040
0.03
1070
     3
1040
0.03
1002
}
  0
INSERT
  5
51F
330
1E
100
AcDbEntity
  8
ASHADE
 62
     7
100
AcDbBlockReference
  2
AVE_RENDER
 10
0.0
 20
0.0
 30
0.0
1001
AVE_RENDER
1002
{
1070
     0
1000
RFile Opt
1070
     1
1070
   640
1070
   480
1070
 10000
1070
     1
1070
     8
1070
     8
1070
     0
1070
     0
1070
     0
1070
     0
1070
     0
1070
     0
1070
     0
1002
}
  0
INSERT
  5
520
330
1E
100
AcDbEntity
  8
ASHADE
 62
     8
100
AcDbBlockReference
  2
AVE_RENDER
 10
0.0
 20
0.0
 30
0.0
1001
AVE_RENDER
1002
{
1070
     0
1000
Fog Opt
1070
     0
1070
     0
1040
0.0
1040
1.0
1040
0.0
1040
1.0
1010
0.5
1020
0.5
1030
0.5
1002
}
  0
INSERT
  5
521
330
1E
100
AcDbEntity
  8
ASHADE
 62
     9
100
AcDbBlockReference
  2
AVE_RENDER
 10
0.0
 20
0.0
 30
0.0
1001
AVE_RENDER
1002
{
1070
     0
1000
BG Opt
1070
     0
1070
     1
1010
0.0
1020
0.0
1030
0.0
1010
1.0
1020
0.0
1030
0.0
1010
0.0
1020
1.0
1030
0.0
1010
0.0
1020
0.0
1030
1.0
1040
0.5
1040
0.33
1040
0.0
1000

1070
     1
1000

1070
     1
1070
     1
1040
1.0
1040
1.0
1040
0.0
1040
0.0
1070
     0
1002
}
  0
INSERT
  5
528
330
1E
100
AcDbEntity
  8
ASHADE
 62
     1
100
AcDbBlockReference
  2
AVE_GLOBAL
 10
0.0
 20
0.0
 30
0.0
1001
AVE_MATERIAL
1002
{
1000
*整體*
1000
2
1000
整體修飾.
1002
{
1002
}
1002
{
1070
    63
1002
{
1002
{
1010
-1.0
1020
-1.0
1030
-1.0
1002
}
1040
0.1000000014901161
1000

1040
0.0
1002
{
1002
}
1040
0.0
1002
{
1002
}
1040
0.0
1002
}
1002
{
1002
{
1010
-1.0
1020
-1.0
1030
-1.0
1002
}
1040
0.6999999880790711
1000

1040
0.0
1002
{
1002
}
1040
0.0
1002
{
1002
}
1040
0.0
1002
}
1002
{
1002
{
1010
-1.0
1020
-1.0
1030
-1.0
1002
}
1040
0.2000000029802322
1000

1040
0.0
1002
{
1002
}
1040
0.0
1002
{
1002
}
1040
0.0
1002
}
1002
{
1070
     0
1002
{
1070
     1
1002
{
1040
1.0
1040
1.0
1000

1040
0.0
1002
{
1002
}
1040
0.0
1002
{
1002
}
1040
0.0
1002
}
1002
}
1040
1.0
1040
0.0
1040
0.0
1002
}
1002
{
1040
1.0
1040
1.0
1000

1040
0.0
1002
{
1002
}
1040
0.0
1002
{
1002
}
1040
0.0
1002
}
1002
{
1040
0.5
1040
1.0
1000

1040
0.0
1002
{
1002
}
1040
0.0
1002
{
1002
}
1040
0.0
1002
}
1002
{
1070
     0
1040
0.0
1002
{
1002
}
1040
1.0
1002
{
1002
}
1040
0.0
1002
}
1002
{
1040
0.0
1002
{
1002
{
1010
0.0
1020
0.0
1030
0.0
1002
}
1040
1.0
1000

1040
0.0
1002
{
1002
}
1040
0.0
1002
{
1002
}
1040
0.0
1002
}
1002
}
1002
{
1002
{
1070
     1
1002
{
1040
0.0
1040
1.0
1000

1040
0.0
1002
{
1002
}
1040
0.0
1002
{
1002
}
1040
0.0
1002
}
1002
}
1040
0.0
1002
{
1002
}
1010
1.0
1020
0.0
1030
0.0
1010
0.0
1020
1.0
1030
0.0
1010
0.0
1020
0.0
1030
1.0
1070
     0
1002
}
1002
{
1002
{
1040
1.0
1040
1.0
1002
{
1070
     1
1002
{
1040
1.0
1040
1.0
1000

1040
0.0
1002
{
1002
}
1040
0.0
1002
{
1002
}
1040
0.0
1002
}
1002
}
1002
}
1070
     0
1040
0.0
1002
{
1002
}
1002
}
1002
{
1002
}
1002
}
1002
{
1071
        3
1070
     3
1070
     0
1002
{
1070
     2
1070
     0
1070
     0
1040
0.0
1002
}
1070
     0
1070
     2
1002
{
1002
}
1002
}
1002
{
1040
8030.0
1040
190.3000030517578
1040
0.3050000071525574
1040
228.0
1040
545.0
1040
14.0
1040
17.39999961853027
1040
0.4560000002384186
1002
}
1002
}
  0
LWPOLYLINE
  5
36BB
330
1E
100
AcDbEntity
  8
LOGO
 62
     4
100
AcDbPolyline
 90
        4
 70
     1
 43
0.0
 10
15.17091597084259
 20
-242.2173066428727
 10
345.1709159708426
 20
-242.2173066428727
 10
345.1709159708426
 20
178.5374716376697
 10
15.17091597084259
 20
178.5374716376697
1001
GENIUS_GENREC_14
1002
{
1000
PYDIR
1011
15.17091597084259
1021
178.5374716376697
1031
0.0
1002
}
1002
{
1000
PXDIR
1011
345.1709159708426
1021
-242.2173066428727
1031
0.0
1002
}
1002
{
1000
PORI
1011
15.17091597084259
1021
-242.2173066428727
1031
0.0
1002
}
1002
{
1000
PINS
1011
15.17091597084259
1021
-242.2173066428727
1031
0.0
1002
}
1002
{
1000
PINS2
1011
345.1709159708426
1021
178.5374716376697
1031
0.0
1002
}
1002
{
1000
C
1070
     1
1002
}
1001
GENIUS_GENODEF_13
1002
{
1000
HIER
1070
     0
1002
}
1002
{
1000
MANEDIT
1070
     0
1002
}
1002
{
1000
NOSEL
1070
     0
1002
}
1002
{
1000
BEHIND
1070
     0
1002
}
1002
{
1000
OTHER
1070
     0
1002
}
1002
{
1000
REACTOR
1002
}
1001
GENIUS_GENOBJ-N-REC_13
1002
{
1000
OWNER
1000
GEN
1002
}
  0
LWPOLYLINE
  5
36BC
330
1E
100
AcDbEntity
  8
LOGO
 62
     4
100
AcDbPolyline
 90
        4
 70
     1
 43
0.0
 10
15.17091597084259
 20
-242.2173066428727
 10
345.1709159708426
 20
-242.2173066428727
 10
345.1709159708426
 20
-275.2125283623302
 10
15.17091597084259
 20
-275.2125283623302
1001
GENIUS_GENREC_14
1002
{
1000
PYDIR
1011
15.17091597084259
1021
-275.2125283623302
1031
0.0
1002
}
1002
{
1000
PXDIR
1011
345.1709159708426
1021
-242.2173066428727
1031
0.0
1002
}
1002
{
1000
PORI
1011
15.17091597084259
1021
-242.2173066428727
1031
0.0
1002
}
1002
{
1000
PINS
1011
15.17091597084259
1021
-242.2173066428727
1031
0.0
1002
}
1002
{
1000
PINS2
1011
345.1709159708426
1021
-275.2125283623302
1031
0.0
1002
}
1002
{
1000
C
1070
     1
1002
}
1001
GENIUS_GENOBJ-N-REC_13
1002
{
1000
OWNER
1000
GEN
1002
}
1001
GENIUS_GENODEF_13
1002
{
1000
HIER
1070
     0
1002
}
1002
{
1000
MANEDIT
1070
     0
1002
}
1002
{
1000
NOSEL
1070
     0
1002
}
1002
{
1000
BEHIND
1070
     0
1002
}
1002
{
1000
OTHER
1070
     0
1002
}
1002
{
1000
REACTOR
1002
}
  0
TEXT
  5
36BD
330
1E
100
AcDbEntity
  8
LOGO
 62
     7
100
AcDbText
 10
89.67194185370976
 20
-256.6719518164925
 30
0.0
 40
4.399362895927601
  1
Order example:
 41
0.8
  7
CHINESET
100
AcDbText
  0
TEXT
  5
36BE
330
1E
100
AcDbEntity
  8
LOGO
 62
     7
100
AcDbText
 10
90.46122393849032
 20
-250.478559758737
 30
0.0
 40
6.599044343891401
  1
訂購代號：
  7
CHINESET
100
AcDbText
  0
LINE
  5
36BF
330
1E
100
AcDbEntity
  8
LOGO
 62
     4
100
AcDbLine
 10
87.76040375364818
 20
-275.2125283623299
 30
0.0
 11
87.76040375364818
 21
-242.2173066428727
 31
0.0
  0
TEXT
  5
36C0
330
1E
100
AcDbEntity
  8
LOGO
  6
Continuous
100
AcDbText
 10
27.02294792886295
 20
-268.7306668496737
 30
0.0
 40
4.949283257918553
  1
金器工業股份有限公司
  7
CHINESET
100
AcDbText
  0
TEXT
  5
36C1
330
1E
100
AcDbEntity
  8
LOGO
  6
Continuous
100
AcDbText
 10
17.93209375147177
 20
-273.6809197790719
 30
0.0
 40
3.2995221719457
  1
MINDMAN INDUSTRIAL CO., LTD.
 41
0.85
  7
CHINESET
100
AcDbText
  0
LINE
  5
36C2
330
1E
100
AcDbEntity
  8
LOGO
 62
     4
100
AcDbLine
 10
87.76040375364818
 20
-248.8163509867642
 30
0.0
 11
39.36741189844423
 21
-248.8163509867642
 31
0.0
  0
LINE
  5
36C3
330
1E
100
AcDbEntity
  8
LOGO
 62
     4
100
AcDbLine
 10
87.76040375364818
 20
-255.4153953306555
 30
0.0
 11
39.36741189844423
 21
-255.4153953306555
 31
0.0
  0
LINE
  5
36C4
330
1E
100
AcDbEntity
  8
LOGO
 62
     4
100
AcDbLine
 10
87.76040375364818
 20
-262.0144396745466
 30
0.0
 11
15.17091597084265
 21
-262.0144396745466
 31
0.0
  0
LINE
  5
36C5
330
1E
100
AcDbEntity
  8
LOGO
 62
     4
100
AcDbLine
 10
39.36741189844423
 20
-262.0144396745466
 30
0.0
 11
39.36741189844423
 21
-242.2173066428727
 31
0.0
  0
TEXT
  5
36C6
330
1E
100
AcDbEntity
  8
LOGO
100
AcDbText
 10
72.44173771705189
 20
-260.3646785885743
 30
0.0
 40
3.2995221719457
  1
mm
  7
CHINESET
 72
     1
 11
76.52686040612753
 21
-258.7149175026015
 31
0.0
100
AcDbText
 73
     2
  0
TEXT
  5
36C7
330
1E
100
AcDbEntity
  8
LOGO
100
AcDbText
 10
70.71341657936605
 20
-247.1665899007915
 30
0.0
 40
3.2995221719457
  1
1 : 1
  7
CHINESET
 72
     1
 11
76.52686040612753
 21
-245.5168288148186
 31
0.0
100
AcDbText
 73
     2
  0
LINE
  5
36C8
330
1E
100
AcDbEntity
  8
LOGO
 62
     4
100
AcDbLine
 10
65.76358927401003
 20
-262.0144396745466
 30
0.0
 11
65.76358927401003
 21
-242.2173066428727
 31
0.0
  0
CIRCLE
  5
36C9
330
1E
100
AcDbEntity
  8
LOGO
  6
Continuous
100
AcDbCircle
 10
71.87306727307674
 20
-252.1088154566387
 30
0.0
 40
1.915780235029042
  0
CIRCLE
  5
36CA
330
1E
100
AcDbEntity
  8
LOGO
  6
Continuous
100
AcDbCircle
 10
71.87306727307674
 20
-252.1088154566387
 30
0.0
 40
1.122477623298235
  0
LINE
  5
36CB
330
1E
100
AcDbEntity
  8
LOGO
100
AcDbLine
 10
83.91205256773694
 20
-254.0245956916681
 30
0.0
 11
83.91205256773694
 21
-250.1930352216092
 31
0.0
  0
LINE
  5
36CC
330
1E
100
AcDbEntity
  8
LOGO
100
AcDbLine
 10
77.90619150195396
 20
-253.2312930799367
 30
0.0
 11
77.90619150195396
 21
-250.9863378333403
 31
0.0
  0
LINE
  5
36CD
330
1E
100
AcDbEntity
  8
LOGO
  6
Continuous
100
AcDbLine
 10
77.90619150195396
 20
-250.9863378333403
 30
0.0
 11
83.91205256773694
 21
-250.1930352216092
 31
0.0
  0
LINE
  5
36CE
330
1E
100
AcDbEntity
  8
LOGO
  6
Continuous
100
AcDbLine
 10
77.90619150195396
 20
-253.2312930799367
 30
0.0
 11
83.91205256773694
 21
-254.0245956916681
 31
0.0
  0
TEXT
  5
36CF
330
1E
100
AcDbEntity
  8
LOGO
100
AcDbText
 10
42.08804468932991
 20
-247.164966120195
 30
216.2452475040822
 40
3.2995221719457
  1
比例 Scale:
 41
0.9
  7
CHINESET
 72
     4
 11
52.56550058622713
 21
-245.5168288148186
 31
216.2452475040822
100
AcDbText
  0
TEXT
  5
36D0
330
1E
100
AcDbEntity
  8
LOGO
100
AcDbText
 10
41.89802756424911
 20
-253.7192211826349
 30
216.2452475040822
 40
3.2995221719457
  1
投影  View:
 41
0.9
  7
CHINESET
 72
     4
 11
52.56550058622713
 21
-252.11587315871
 31
216.2452475040822
100
AcDbText
  0
TEXT
  5
36D1
330
1E
100
AcDbEntity
  8
LOGO
100
AcDbText
 10
42.22061477659558
 20
-260.3646785885743
 30
216.2452475040822
 40
3.2995221719457
  1
單位  Unit:
 41
0.9
  7
CHINESET
 72
     4
 11
52.56550058622713
 21
-258.7149175026015
 31
216.2452475040822
100
AcDbText
  0
SOLID
  5
36D2
330
1E
100
AcDbEntity
  8
LOGO
 62
     5
100
AcDbTrace
 10
18.59422317753927
 20
-256.5294537136856
 30
0.0
 11
20.02084998522679
 21
-256.529453713686
 31
0.0
 12
25.97332735523309
 22
-243.0010960545793
 32
0.0
 13
27.39995416292135
 23
-243.0010960545801
 33
0.0
  0
SOLID
  5
36D3
330
1E
100
AcDbEntity
  8
LOGO
 62
     5
100
AcDbTrace
 10
20.61117831944387
 20
-256.5294537136856
 30
0.0
 11
22.03780512713132
 21
-256.5294537136856
 31
0.0
 12
27.39995416292135
 22
-244.0833646673084
 32
0.0
 13
25.97332735523309
 23
-249.3143296288294
 33
0.0
  0
SOLID
  5
36D4
330
1E
100
AcDbEntity
  8
LOGO
 62
     2
100
AcDbTrace
 10
20.02084998522679
 20
-256.529453713686
 30
0.0
 11
20.61117831944387
 21
-256.5294537136856
 31
0.0
 12
27.39995416292135
 22
-243.0010960545801
 32
0.0
 13
27.99028249713769
 23
-243.0010960545801
 33
0.0
  0
SOLID
  5
36D5
330
1E
100
AcDbEntity
  8
LOGO
 62
     5
100
AcDbTrace
 10
16.30699055306848
 20
-261.4488564988146
 30
0.0
 11
16.79893083158196
 21
-261.4488564988146
 31
0.0
 12
18.18427294544562
 22
-258.9891551062502
 32
0.0
 13
18.67621322395757
 23
-258.9891551062502
 33
0.0
  0
SOLID
  5
36D6
330
1E
100
AcDbEntity
  8
LOGO
 62
     5
100
AcDbTrace
 10
18.18427294544562
 20
-258.9891551062502
 30
0.0
 11
18.67621322395757
 21
-258.9891551062502
 31
0.0
 12
18.18427294544562
 22
-261.4488564988146
 32
0.0
 13
18.67621322395757
 23
-261.4488564988146
 33
0.0
  0
SOLID
  5
36D7
330
1E
100
AcDbEntity
  8
LOGO
 62
     5
100
AcDbTrace
 10
18.18427294544562
 20
-261.4488564988146
 30
0.0
 11
18.67621322395757
 21
-261.4488564988146
 31
0.0
 12
20.06155533782351
 22
-258.9891551062502
 32
0.0
 13
20.55349561633619
 23
-258.9891551062502
 33
0.0
  0
SOLID
  5
36D8
330
1E
100
AcDbEntity
  8
LOGO
 62
     5
100
AcDbTrace
 10
20.06155533782351
 20
-258.9891551062502
 30
0.0
 11
20.55349561633619
 21
-258.9891551062502
 31
0.0
 12
20.06155533782351
 22
-261.4488564988146
 32
0.0
 13
20.55349561633619
 23
-261.4488564988146
 33
0.0
  0
POLYLINE
  5
36D9
330
1E
100
AcDbEntity
  8
LOGO
 62
     5
100
AcDb2dPolyline
 66
     1
 10
0.0
 20
0.0
 30
0.0
 40
0.4927286443438913
 41
0.4927286443438913
  0
VERTEX
  5
36DA
330
36D9
100
AcDbEntity
  8
LOGO
 62
     5
100
AcDbVertex
100
AcDb2dVertex
 10
36.55122589200914
 20
-259.9730356632761
 30
0.0
 42
1.0
  0
VERTEX
  5
36DB
330
36D9
100
AcDbEntity
  8
LOGO
 62
     5
100
AcDbVertex
100
AcDb2dVertex
 10
35.07303995897718
 20
-259.9730356632761
 30
0.0
 42
1.0
  0
SEQEND
  5
36DC
330
36D9
100
AcDbEntity
  8
LOGO
 62
     5
  0
POLYLINE
  5
36DD
330
1E
100
AcDbEntity
  8
LOGO
 62
     5
100
AcDb2dPolyline
 66
     1
 10
0.0
 20
0.0
 30
0.0
 70
     1
  0
VERTEX
  5
36DE
330
36DD
100
AcDbEntity
  8
LOGO
 62
     5
100
AcDbVertex
100
AcDb2dVertex
 10
32.28659372550129
 20
-260.2190058025328
 30
0.0
 42
1.000000057330635
  0
VERTEX
  5
36DF
330
36DD
100
AcDbEntity
  8
LOGO
 62
     5
100
AcDbVertex
100
AcDb2dVertex
 10
33.76241456104021
 20
-260.2190058025328
 30
0.0
 42
1.000000057330635
  0
SEQEND
  5
36E0
330
36DD
100
AcDbEntity
  8
LOGO
 62
     5
  0
CIRCLE
  5
36E1
330
1E
100
AcDbEntity
  8
LOGO
 62
     5
100
AcDbCircle
 10
33.02450414327188
 20
-260.2190058025328
 30
0.0
 40
0.7379104177694119
  0
POLYLINE
  5
36E2
330
1E
100
AcDbEntity
  8
LOGO
 62
     5
100
AcDb2dPolyline
 66
     1
 10
0.0
 20
0.0
 30
0.0
 70
     1
 40
0.4927286443438913
 41
0.4927286443438913
  0
VERTEX
  5
36E3
330
36E2
100
AcDbEntity
  8
LOGO
 62
     5
100
AcDbVertex
100
AcDb2dVertex
 10
32.03904685458337
 20
-260.2190058025328
 30
0.0
 42
1.0
  0
VERTEX
  5
36E4
330
36E2
100
AcDbEntity
  8
LOGO
 62
     5
100
AcDbVertex
100
AcDb2dVertex
 10
34.00996143195886
 20
-260.2190058025328
 30
0.0
 42
1.0
  0
SEQEND
  5
36E5
330
36E2
100
AcDbEntity
  8
LOGO
 62
     5
  0
LINE
  5
36E6
330
1E
100
AcDbEntity
  8
LOGO
100
AcDbLine
 10
36.79601348251822
 20
-261.4488564988146
 30
0.0
 11
36.79601348251822
 21
-259.9730356632761
 31
0.0
  0
SOLID
  5
36E7
330
1E
100
AcDbEntity
  8
LOGO
 62
     5
100
AcDbTrace
 10
33.76236536701453
 20
-258.9891551062502
 30
0.0
 11
34.25430564552652
 21
-258.9891551062502
 31
0.0
 12
33.76236536701453
 22
-261.4488564988146
 32
0.0
 13
34.25430564552652
 23
-261.4488564988146
 33
0.0
  0
SOLID
  5
36E8
330
1E
100
AcDbEntity
  8
LOGO
 62
     5
100
AcDbTrace
 10
34.82825236846656
 20
-261.4488564988146
 30
0.0
 11
35.32019264698005
 21
-261.4488564988146
 31
0.0
 12
34.82825236846656
 22
-258.9891551062502
 32
0.0
 13
35.32019264698005
 23
-258.9891551062502
 33
0.0
  0
SOLID
  5
36E9
330
1E
100
AcDbEntity
  8
LOGO
 62
     5
100
AcDbTrace
 10
36.30407320400621
 20
-259.9730356632761
 30
0.0
 11
36.79601348251822
 21
-259.9730356632761
 31
0.0
 12
36.30407320400621
 22
-261.4488564988146
 32
0.0
 13
36.79601348251822
 23
-261.4488564988146
 33
0.0
  0
SOLID
  5
36EA
330
1E
100
AcDbEntity
  8
LOGO
 62
     5
100
AcDbTrace
 10
34.77905834061516
 20
-244.0833646673084
 30
0.0
 11
33.35243153292839
 21
-249.3143296288294
 31
0.0
 12
34.77905834061516
 22
-256.529453713686
 32
0.0
 13
33.35243153292839
 23
-256.529453713686
 33
0.0
  0
SOLID
  5
36EB
330
1E
100
AcDbEntity
  8
LOGO
 62
     5
100
AcDbTrace
 10
35.36938667483145
 20
-256.529453713686
 30
0.0
 11
36.79601348251822
 21
-256.529453713686
 31
0.0
 12
35.36938667483145
 22
-243.0010960545801
 32
0.0
 13
36.79601348251822
 23
-243.0010960545793
 33
0.0
  0
SOLID
  5
36EC
330
1E
100
AcDbEntity
  8
LOGO
 62
     2
100
AcDbTrace
 10
34.77905834061516
 20
-243.0010960545793
 30
0.0
 11
35.36938667483145
 21
-243.0010960545801
 31
0.0
 12
34.77905834061516
 22
-256.529453713686
 32
0.0
 13
35.36938667483145
 23
-256.529453713686
 33
0.0
  0
POLYLINE
  5
36ED
330
1E
100
AcDbEntity
  8
LOGO
 62
     5
100
AcDb2dPolyline
 66
     1
 10
0.0
 20
0.0
 30
0.0
 40
0.4927286443438913
 41
0.4927286443438913
  0
VERTEX
  5
36EE
330
36ED
100
AcDbEntity
  8
LOGO
 62
     5
100
AcDbVertex
100
AcDb2dVertex
 10
29.50004910397189
 20
-259.9730356632761
 30
0.0
 42
1.0
  0
VERTEX
  5
36EF
330
36ED
100
AcDbEntity
  8
LOGO
 62
     5
100
AcDbVertex
100
AcDb2dVertex
 10
28.02186317093987
 20
-259.9730356632761
 30
0.0
 42
1.0
  0
SEQEND
  5
36F0
330
36ED
100
AcDbEntity
  8
LOGO
 62
     5
  0
POLYLINE
  5
36F1
330
1E
100
AcDbEntity
  8
LOGO
 62
     5
100
AcDb2dPolyline
 66
     1
 10
0.0
 20
0.0
 30
0.0
 40
0.4927286443438913
 41
0.4927286443438913
  0
VERTEX
  5
36F2
330
36F1
100
AcDbEntity
  8
LOGO
 62
     5
100
AcDbVertex
100
AcDb2dVertex
 10
30.97586993950926
 20
-259.9730356632761
 30
0.0
 42
1.0
  0
VERTEX
  5
36F3
330
36F1
100
AcDbEntity
  8
LOGO
 62
     5
100
AcDbVertex
100
AcDb2dVertex
 10
29.49768400647803
 20
-259.9730356632761
 30
0.0
 42
1.0
  0
SEQEND
  5
36F4
330
36F1
100
AcDbEntity
  8
LOGO
 62
     5
  0
POLYLINE
  5
36F5
330
1E
100
AcDbEntity
  8
LOGO
 62
     5
100
AcDb2dPolyline
 66
     1
 10
0.0
 20
0.0
 30
0.0
 40
0.4927286443438913
 41
0.4927286443438913
  0
VERTEX
  5
36F6
330
36F5
100
AcDbEntity
  8
LOGO
 62
     5
100
AcDbVertex
100
AcDb2dVertex
 10
23.92469315147201
 20
-259.9730356632761
 30
0.0
 42
1.0
  0
VERTEX
  5
36F7
330
36F5
100
AcDbEntity
  8
LOGO
 62
     5
100
AcDbVertex
100
AcDb2dVertex
 10
22.44650721844079
 20
-259.9730356632761
 30
0.0
 42
1.0
  0
SEQEND
  5
36F8
330
36F5
100
AcDbEntity
  8
LOGO
 62
     5
  0
SOLID
  5
36F9
330
1E
100
AcDbEntity
  8
LOGO
 62
     5
100
AcDbTrace
 10
22.20171962793097
 20
-258.9891551062502
 30
0.0
 11
22.69365990644291
 21
-258.9891551062502
 31
0.0
 12
22.20171962793097
 22
-261.4488564988146
 32
0.0
 13
22.69365990644291
 23
-261.4488564988146
 33
0.0
  0
SOLID
  5
36FA
330
1E
100
AcDbEntity
  8
LOGO
 62
     5
100
AcDbTrace
 10
23.67754046346988
 20
-259.9730356632761
 30
0.0
 11
24.16948074198336
 21
-259.9730356632761
 31
0.0
 12
23.67754046346988
 22
-261.4488564988146
 32
0.0
 13
24.16948074198336
 23
-261.4488564988146
 33
0.0
  0
POLYLINE
  5
36FB
330
1E
100
AcDbEntity
  8
LOGO
 62
     5
100
AcDb2dPolyline
 66
     1
 10
0.0
 20
0.0
 30
0.0
 70
     1
 40
0.4927286443438913
 41
0.4927286443438913
  0
VERTEX
  5
36FC
330
36FB
100
AcDbEntity
  8
LOGO
 62
     5
100
AcDbVertex
100
AcDb2dVertex
 10
24.98787006654538
 20
-260.2190058025328
 30
0.0
 42
1.0
  0
VERTEX
  5
36FD
330
36FB
100
AcDbEntity
  8
LOGO
 62
     5
100
AcDbVertex
100
AcDb2dVertex
 10
26.9587846439216
 20
-260.2190058025328
 30
0.0
 42
1.0
  0
SEQEND
  5
36FE
330
36FB
100
AcDbEntity
  8
LOGO
 62
     5
  0
SOLID
  5
36FF
330
1E
100
AcDbEntity
  8
LOGO
 62
     5
100
AcDbTrace
 10
26.71118857897579
 20
-258.2512446884804
 30
0.0
 11
27.20312885748848
 21
-258.2512446884804
 31
0.0
 12
26.71118857897579
 22
-261.4488564988146
 32
0.0
 13
27.20312885748848
 23
-261.4488564988146
 33
0.0
  0
SOLID
  5
3700
330
1E
100
AcDbEntity
  8
LOGO
 62
     5
100
AcDbTrace
 10
27.77707558043079
 20
-258.9891551062502
 30
0.0
 11
28.26901585894279
 21
-258.9891551062502
 31
0.0
 12
27.77707558043079
 22
-261.4488564988146
 32
0.0
 13
28.26901585894279
 23
-261.4488564988146
 33
0.0
  0
SOLID
  5
3701
330
1E
100
AcDbEntity
  8
LOGO
 62
     5
100
AcDbTrace
 10
29.25289641596823
 20
-259.9730356632761
 30
0.0
 11
29.7448366944817
 21
-259.9730356632761
 31
0.0
 12
29.25289641596823
 22
-261.4488564988146
 32
0.0
 13
29.7448366944817
 23
-261.4488564988146
 33
0.0
  0
SOLID
  5
3702
330
1E
100
AcDbEntity
  8
LOGO
 62
     5
100
AcDbTrace
 10
30.72871725150714
 20
-259.9730356632761
 30
0.0
 11
31.22065753001988
 21
-259.9730356632761
 31
0.0
 12
30.72871725150714
 22
-261.4488564988154
 32
0.0
 13
31.22065753001988
 23
-261.4488564988154
 33
0.0
  0
SOLID
  5
3703
330
1E
100
AcDbEntity
  8
LOGO
 62
     5
100
AcDbTrace
 10
21.13583262647665
 20
-258.6447969112911
 30
0.0
 11
21.62777290499087
 21
-258.6447969112911
 31
0.0
 12
21.13583262647665
 22
-258.2512446884804
 32
0.0
 13
21.62777290499087
 23
-258.2512446884804
 33
0.0
  0
SOLID
  5
3704
330
1E
100
AcDbEntity
  8
LOGO
 62
     5
100
AcDbTrace
 10
21.13583262647665
 20
-258.9891551062502
 30
0.0
 11
21.62777290499087
 21
-258.9891551062502
 31
0.0
 12
21.13583262647665
 22
-261.4488564988154
 32
0.0
 13
21.62777290499087
 23
-261.4488564988146
 33
0.0
  0
SOLID
  5
3705
330
1E
100
AcDbEntity
  8
LOGO
 62
     5
100
AcDbTrace
 10
25.97332735523309
 20
-256.5294537136856
 30
0.0
 11
27.39995416292135
 21
-256.5294537136856
 31
0.0
 12
25.97332735523309
 22
-249.3143296288294
 32
0.0
 13
27.39995416292135
 23
-244.0833646673084
 33
0.0
  0
SOLID
  5
3706
330
1E
100
AcDbEntity
  8
LOGO
 62
     5
100
AcDbTrace
 10
27.99028249713769
 20
-243.0010960545801
 30
0.0
 11
29.4169093048244
 21
-243.0010960545793
 31
0.0
 12
27.99028249713769
 22
-255.4471851009572
 32
0.0
 13
29.4169093048244
 23
-250.2162201394362
 33
0.0
  0
SOLID
  5
3707
330
1E
100
AcDbEntity
  8
LOGO
 62
     2
100
AcDbTrace
 10
27.39995416292135
 20
-243.0010960545801
 30
0.0
 11
27.99028249713769
 21
-243.0010960545801
 31
0.0
 12
27.39995416292135
 22
-256.5294537136856
 32
0.0
 13
27.99028249713769
 23
-256.5294537136856
 33
0.0
  0
SOLID
  5
3708
330
1E
100
AcDbEntity
  8
LOGO
 62
     5
100
AcDbTrace
 10
27.99028249713769
 20
-255.4471851009572
 30
0.0
 11
29.4169093048244
 21
-250.2162201394362
 31
0.0
 12
34.77905834061516
 22
-243.0010960545793
 32
0.0
 13
33.35243153292839
 23
-243.0010960545793
 33
0.0
  0
SOLID
  5
3709
330
1E
100
AcDbEntity
  8
LOGO
 62
     5
100
AcDbTrace
 10
27.99028249713769
 20
-256.5294537136856
 30
0.0
 11
29.4169093048244
 21
-256.5294537136856
 31
0.0
 12
34.77905834061516
 22
-244.0833646673084
 32
0.0
 13
33.35243153292839
 23
-249.3143296288294
 33
0.0
  0
SOLID
  5
370A
330
1E
100
AcDbEntity
  8
LOGO
 62
     2
100
AcDbTrace
 10
27.39995416292135
 20
-256.5294537136856
 30
0.0
 11
27.99028249713769
 21
-256.5294537136856
 31
0.0
 12
34.77905834061516
 22
-243.0010960545793
 32
0.0
 13
35.36938667483145
 23
-243.0010960545801
 33
0.0
  0
LINE
  5
370B
330
1E
100
AcDbEntity
  8
LOGO
 62
     4
100
AcDbLine
 10
155.0365296060238
 20
-260.3646785885737
 30
0.0
 11
155.0365296060238
 21
-272.4629265523753
 31
0.0
  0
LINE
  5
370C
330
1E
100
AcDbEntity
  8
LOGO
 62
     4
100
AcDbLine
 10
133.0397151263856
 20
-260.3646785885737
 30
0.0
 11
133.0397151263856
 21
-272.4629265523753
 31
0.0
  0
LINE
  5
370D
330
1E
100
AcDbEntity
  8
LOGO
 62
     4
100
AcDbLine
 10
155.0365296060238
 20
-272.4629265523753
 30
0.0
 11
133.0397151263856
 21
-272.4629265523753
 31
0.0
  0
LINE
  5
370E
330
1E
100
AcDbEntity
  8
LOGO
 62
     4
100
AcDbLine
 10
184.3703902864567
 20
-245.5168288148186
 30
0.0
 11
133.1438668264808
 21
-245.5168288148186
 31
0.0
  0
LINE
  5
370F
330
1E
100
AcDbEntity
  8
LOGO
 62
     4
100
AcDbLine
 10
184.3703902864567
 20
-255.4153953306555
 30
0.0
 11
133.1438668264808
 21
-255.4153953306555
 31
0.0
  0
LINE
  5
3710
330
1E
100
AcDbEntity
  8
LOGO
 62
     4
100
AcDbLine
 10
133.1438668264808
 20
-245.5168288148186
 30
0.0
 11
133.1438668264808
 21
-255.4153953306555
 31
0.0
  0
LINE
  5
3711
330
1E
100
AcDbEntity
  8
LOGO
 62
     4
100
AcDbLine
 10
184.3703902864567
 20
-245.5168288148186
 30
0.0
 11
184.3703902864567
 21
-255.4153953306555
 31
0.0
  0
LINE
  5
3712
330
1E
100
AcDbEntity
  8
LOGO
 62
     4
100
AcDbLine
 10
144.0381223662047
 20
-255.4153953306555
 30
0.0
 11
144.0381223662047
 21
-260.3646785885737
 31
0.0
  0
TEXT
  5
3713
330
1E
100
AcDbEntity
  8
LOGO
  6
Continuous
100
AcDbText
 10
134.9026870708927
 20
-253.3490840421773
 30
0.0
 40
5.774999999999999
  1
MCMBRA/B
  7
CHINESET
100
AcDbText
  0
LINE
  5
3714
330
1E
100
AcDbEntity
  8
LOGO
 62
     4
100
AcDbLine
 10
155.0365296060238
 20
-260.3646785885737
 30
0.0
 11
133.0397151263856
 21
-260.3646785885737
 31
0.0
  0
TEXT
  5
3715
330
1E
100
AcDbEntity
  8
LOGO
  6
Continuous
100
AcDbText
 10
140.0984232520466
 20
-270.7552845072155
 30
216.2452475040822
 40
2.474999999999999
  1
Model
 41
0.8
  7
CHINESET
100
AcDbText
  0
TEXT
  5
3716
330
1E
100
AcDbEntity
  8
LOGO
100
AcDbText
 10
139.439658709348
 20
-266.1671679077853
 30
216.2452475040822
 40
4.125
  1
型號
  7
CHINESET
100
AcDbText
  0
LINE
  5
3717
330
1E
100
AcDbEntity
  8
LOGO
  6
Continuous
100
AcDbLine
 10
186.3032538612734
 20
-250.5011743596792
 30
0.0
 11
190.6740996520236
 21
-250.5011743596792
 31
0.0
  0
LINE
  5
3718
330
1E
100
AcDbEntity
  8
LOGO
 62
     4
100
AcDbLine
 10
195.4080189963524
 20
-260.3646785885737
 30
0.0
 11
195.4080189963524
 21
-272.4629265523753
 31
0.0
  0
LINE
  5
3719
330
1E
100
AcDbEntity
  8
LOGO
 62
     4
100
AcDbLine
 10
167.0079843693132
 20
-260.3646785885737
 30
0.0
 11
167.0079843693132
 21
-272.4629265523753
 31
0.0
  0
LINE
  5
371A
330
1E
100
AcDbEntity
  8
LOGO
 62
     4
100
AcDbLine
 10
195.4080189963524
 20
-272.4629265523753
 30
0.0
 11
167.0079843693132
 21
-272.4629265523753
 31
0.0
  0
LINE
  5
371B
330
1E
100
AcDbEntity
  8
LOGO
 62
     4
100
AcDbLine
 10
203.6134928998332
 20
-245.5168288148186
 30
0.0
 11
192.5795656351953
 21
-245.5168288148186
 31
0.0
  0
LINE
  5
371C
330
1E
100
AcDbEntity
  8
LOGO
 62
     4
100
AcDbLine
 10
203.6134928998332
 20
-255.4153953306555
 30
0.0
 11
192.5795656351953
 21
-255.4153953306555
 31
0.0
  0
LINE
  5
371D
330
1E
100
AcDbEntity
  8
LOGO
 62
     4
100
AcDbLine
 10
192.5795656351953
 20
-245.5168288148186
 30
0.0
 11
192.5795656351953
 21
-255.4153953306555
 31
0.0
  0
LINE
  5
371E
330
1E
100
AcDbEntity
  8
LOGO
 62
     4
100
AcDbLine
 10
203.6134928998332
 20
-245.5168288148186
 30
0.0
 11
203.6134928998332
 21
-255.4153953306555
 31
0.0
  0
LINE
  5
371F
330
1E
100
AcDbEntity
  8
LOGO
 62
     4
100
AcDbLine
 10
198.0965292675142
 20
-255.4153953306555
 30
0.0
 11
198.0965292675142
 21
-257.8900369596146
 31
0.0
  0
TEXT
  5
3720
330
1E
100
AcDbEntity
  8
LOGO
  6
Continuous
100
AcDbText
 10
194.1886451390118
 20
-253.3490840421773
 30
0.0
 40
5.774999999999999
  1
11
  7
CHINESET
100
AcDbText
  0
LINE
  5
3721
330
1E
100
AcDbEntity
  8
LOGO
 62
     4
100
AcDbLine
 10
195.4080189963524
 20
-260.3646785885737
 30
0.0
 11
167.0079843693132
 21
-260.3646785885737
 31
0.0
  0
LINE
  5
3722
330
1E
100
AcDbEntity
  8
LOGO
  6
Continuous
100
AcDbLine
 10
210.0501875526798
 20
-250.5011743596792
 30
0.0
 11
214.4210333434301
 21
-250.5011743596792
 31
0.0
  0
LINE
  5
3723
330
1E
100
AcDbEntity
  8
LOGO
 62
     4
100
AcDbLine
 10
227.1718600202946
 20
-260.3646785885737
 30
0.0
 11
227.1718600202946
 21
-272.4629265523753
 31
0.0
  0
LINE
  5
3724
330
1E
100
AcDbEntity
  8
LOGO
 62
     4
100
AcDbLine
 10
205.1750455406565
 20
-260.3646785885737
 30
0.0
 11
205.1750455406565
 21
-272.4629265523753
 31
0.0
  0
LINE
  5
3725
330
1E
100
AcDbEntity
  8
LOGO
 62
     4
100
AcDbLine
 10
227.1718600202946
 20
-272.4629265523753
 30
0.0
 11
205.1750455406565
 21
-272.4629265523753
 31
0.0
  0
LINE
  5
3726
330
1E
100
AcDbEntity
  8
LOGO
 62
     4
100
AcDbLine
 10
232.7139458517922
 20
-245.5168288148186
 30
0.0
 11
215.7998047893804
 21
-245.5168288148186
 31
0.0
  0
LINE
  5
3727
330
1E
100
AcDbEntity
  8
LOGO
 62
     4
100
AcDbLine
 10
232.7139458517922
 20
-255.4153953306555
 30
0.0
 11
215.7998047893804
 21
-255.4153953306555
 31
0.0
  0
LINE
  5
3728
330
1E
100
AcDbEntity
  8
LOGO
 62
     4
100
AcDbLine
 10
215.7998047893804
 20
-245.5168288148186
 30
0.0
 11
215.7998047893804
 21
-255.4153953306555
 31
0.0
  0
LINE
  5
3729
330
1E
100
AcDbEntity
  8
LOGO
 62
     4
100
AcDbLine
 10
232.7139458517922
 20
-245.5168288148186
 30
0.0
 11
232.7139458517922
 21
-255.4153953306555
 31
0.0
  0
LINE
  5
372A
330
1E
100
AcDbEntity
  8
LOGO
 62
     4
100
AcDbLine
 10
223.4050566657415
 20
-255.4153953306555
 30
0.0
 11
223.4050566657415
 21
-260.3646785885737
 31
0.0
  0
TEXT
  5
372B
330
1E
100
AcDbEntity
  8
LOGO
  6
Continuous
100
AcDbText
 10
219.6106246212145
 20
-253.3490840421773
 30
0.0
 40
5.774999999999999
  1
25
  7
CHINESET
100
AcDbText
  0
LINE
  5
372C
330
1E
100
AcDbEntity
  8
LOGO
 62
     4
100
AcDbLine
 10
227.1718600202946
 20
-260.3646785885737
 30
0.0
 11
205.1750455406565
 21
-260.3646785885737
 31
0.0
  0
LINE
  5
372D
330
1E
100
AcDbEntity
  8
LOGO
  6
Continuous
100
AcDbLine
 10
234.1219579022992
 20
-250.5011743596792
 30
0.0
 11
238.4928036930502
 21
-250.5011743596792
 31
0.0
  0
LINE
  5
372E
330
1E
100
AcDbEntity
  8
LOGO
 62
     4
100
AcDbLine
 10
249.6932747176278
 20
-260.3646785885737
 30
0.0
 11
249.6932747176278
 21
-272.4629265523753
 31
0.0
  0
LINE
  5
372F
330
1E
100
AcDbEntity
  8
LOGO
 62
     4
100
AcDbLine
 10
231.7733625672329
 20
-260.3646785885737
 30
0.0
 11
231.7733625672329
 21
-272.4629265523753
 31
0.0
  0
LINE
  5
3730
330
1E
100
AcDbEntity
  8
LOGO
 62
     4
100
AcDbLine
 10
249.6932747176278
 20
-272.4629265523753
 30
0.0
 11
231.7733625672329
 21
-272.4629265523753
 31
0.0
  0
LINE
  5
3731
330
1E
100
AcDbEntity
  8
LOGO
 62
     4
100
AcDbLine
 10
250.4033750306192
 20
-245.5168288148186
 30
0.0
 11
239.8715751389998
 21
-245.5168288148186
 31
0.0
  0
LINE
  5
3732
330
1E
100
AcDbEntity
  8
LOGO
 62
     4
100
AcDbLine
 10
250.4033750306192
 20
-255.4153953306555
 30
0.0
 11
239.8715751389998
 21
-255.4153953306555
 31
0.0
  0
LINE
  5
3733
330
1E
100
AcDbEntity
  8
LOGO
 62
     4
100
AcDbLine
 10
239.8715751389998
 20
-245.5168288148186
 30
0.0
 11
239.8715751389998
 21
-255.4153953306555
 31
0.0
  0
LINE
  5
3734
330
1E
100
AcDbEntity
  8
LOGO
 62
     4
100
AcDbLine
 10
250.4033750306192
 20
-245.5168288148186
 30
0.0
 11
250.4033750306192
 21
-255.4153953306555
 31
0.0
  0
LINE
  5
3735
330
1E
100
AcDbEntity
  8
LOGO
 62
     4
100
AcDbLine
 10
245.1374750848095
 20
-255.4153953306555
 30
0.0
 11
245.1374750848095
 21
-260.3646785885737
 31
0.0
  0
TEXT
  5
3736
330
1E
100
AcDbEntity
  8
LOGO
  6
Continuous
100
AcDbText
 10
243.421294366695
 20
-253.3490840421773
 30
0.0
 40
5.774999999999999
  1
*
  7
CHINESET
100
AcDbText
  0
LINE
  5
3737
330
1E
100
AcDbEntity
  8
LOGO
 62
     4
100
AcDbLine
 10
249.6932747176278
 20
-260.3646785885737
 30
0.0
 11
231.7733625672329
 21
-260.3646785885737
 31
0.0
  0
TEXT
  5
3738
330
1E
100
AcDbEntity
  8
LOGO
  6
Continuous
100
AcDbText
 10
172.7469205793123
 20
-270.7552845072155
 30
216.2452475040822
 40
2.474999999999999
  1
Acting type
 41
0.8
  7
CHINESET
100
AcDbText
  0
TEXT
  5
3739
330
1E
100
AcDbEntity
  8
LOGO
100
AcDbText
 10
172.7236052221002
 20
-266.1671679077853
 30
216.2452475040822
 40
4.125
  1
作動型式
  7
CHINESET
100
AcDbText
  0
TEXT
  5
373A
330
1E
100
AcDbEntity
  8
LOGO
  6
Continuous
100
AcDbText
 10
209.7824791404237
 20
-270.7552845072155
 30
216.2452475040822
 40
2.474999999999999
  1
Tube I.D.
 41
0.8
  7
CHINESET
100
AcDbText
  0
TEXT
  5
373B
330
1E
100
AcDbEntity
  8
LOGO
100
AcDbText
 10
210.7804258060334
 20
-266.1671679077853
 30
216.2452475040822
 40
4.125
  1
內徑
  7
CHINESET
100
AcDbText
  0
TEXT
  5
373C
330
1E
100
AcDbEntity
  8
LOGO
  6
Continuous
100
AcDbText
 10
236.4961694498997
 20
-270.7552845072155
 30
216.2452475040822
 40
2.474999999999999
  1
Stroke
 41
0.8
  7
CHINESET
100
AcDbText
  0
TEXT
  5
373D
330
1E
100
AcDbEntity
  8
LOGO
100
AcDbText
 10
236.3245610859073
 20
-266.1671679077853
 30
216.2452475040822
 40
4.125
  1
行程
  7
CHINESET
100
AcDbText
  0
TEXT
  5
374A
330
1E
100
AcDbEntity
  8
LOGO
100
AcDbText
 10
89.50918747919029
 20
-273.4571955898597
 30
0.0
 40
3.299999999999999
  1
10701125
 41
0.7
  7
CHINESET
 72
     1
 11
97.3191874791903
 21
-273.4571955898597
 31
0.0
100
AcDbText
  0
LINE
  5
374B
330
1E
100
AcDbEntity
  8
LOGO
 62
     4
100
AcDbLine
 10
107.5604037536466
 20
-268.6134840184378
 30
0.0
 11
107.5604037536481
 21
-275.2125283623296
 31
0.0
  0
LINE
  5
374C
330
1E
100
AcDbEntity
  8
LOGO
 62
     4
100
AcDbLine
 10
107.5604037536466
 20
-268.6134840184378
 30
0.0
 11
87.76040375364818
 21
-268.6134840184378
 31
0.0
  0
LINE
  5
374D
330
1E
100
AcDbEntity
  8
LOGO
  6
AM_ISO08W050X2
 48
0.3
100
AcDbLine
 10
69.23213553253908
 20
-252.1088154566387
 30
0.0
 11
74.51399901361435
 21
-252.1088154566387
 31
0.0
1001
GENIUS_GENOREF_13
1005
3752
  0
LINE
  5
374E
330
1E
100
AcDbEntity
  8
LOGO
  6
AM_ISO08W050X2
 48
0.3
100
AcDbLine
 10
71.87306727307674
 20
-254.7497471971762
 30
0.0
 11
71.87306727307674
 21
-249.4678837161011
 31
0.0
1001
GENIUS_GENOREF_13
1005
3751
  0
LINE
  5
374F
330
1E
100
AcDbEntity
  8
LOGO
  6
CENTER
 48
0.5
100
AcDbLine
 10
77.42588954881859
 20
-252.1088154566387
 30
0.0
 11
84.51682333508664
 21
-252.1088154566387
 31
0.0
1001
GENIUS_GENOREF_13
1005
3750
  0
POINT
  5
3750
330
1E
100
AcDbEntity
  8
0
 60
     1
100
AcDbPoint
 10
-1749.678269652932
 20
-1204.551850519228
 30
0.0
1001
GENIUS_GENOBJ-N-CRS_13
1002
{
1000
OWNER
1000
GEN
1002
}
1001
GENIUS_GENOLIS_13
1002
{
1000
ENT
1005
0
1005
0
1005
0
1005
374F
1002
}
1001
GENIUS_GENOENT_13
1002
{
1000
MYREF
1005
3750
1002
}
1002
{
1000
GRP
1005
0
1002
}
1001
GENIUS_GENODEF_13
1002
{
1000
HIER
1070
    10
1002
}
1002
{
1000
MANEDIT
1070
     1
1002
}
1002
{
1000
NOSEL
1070
     0
1002
}
1002
{
1000
BEHIND
1070
     0
1002
}
1002
{
1000
OTHER
1070
     0
1002
}
1002
{
1000
REACTOR
1002
}
  0
POINT
  5
3751
330
1E
100
AcDbEntity
  8
0
 60
     1
100
AcDbPoint
 10
-1761.002854875787
 20
-1195.676264040592
 30
0.0
1001
GENIUS_GENOBJ-N-CRS_13
1002
{
1000
OWNER
1000
GEN
1002
}
1001
GENIUS_GENOLIS_13
1002
{
1000
ENT
1005
0
1005
0
1005
0
1005
374E
1002
}
1001
GENIUS_GENOENT_13
1002
{
1000
MYREF
1005
3751
1002
}
1002
{
1000
GRP
1005
0
1002
}
1001
GENIUS_GENODEF_13
1002
{
1000
HIER
1070
    10
1002
}
1002
{
1000
MANEDIT
1070
     1
1002
}
1002
{
1000
NOSEL
1070
     0
1002
}
1002
{
1000
BEHIND
1070
     0
1002
}
1002
{
1000
OTHER
1070
     0
1002
}
1002
{
1000
REACTOR
1002
}
  0
POINT
  5
3752
330
1E
100
AcDbEntity
  8
0
 60
     1
100
AcDbPoint
 10
-1754.64418117795
 20
-1204.551850519228
 30
0.0
1001
GENIUS_GENOBJ-N-CRS_13
1002
{
1000
OWNER
1000
GEN
1002
}
1001
GENIUS_GENOLIS_13
1002
{
1000
ENT
1005
0
1005
0
1005
0
1005
374D
1002
}
1001
GENIUS_GENOENT_13
1002
{
1000
MYREF
1005
3752
1002
}
1002
{
1000
GRP
1005
0
1002
}
1001
GENIUS_GENODEF_13
1002
{
1000
HIER
1070
    10
1002
}
1002
{
1000
MANEDIT
1070
     1
1002
}
1002
{
1000
NOSEL
1070
     0
1002
}
1002
{
1000
BEHIND
1070
     0
1002
}
1002
{
1000
OTHER
1070
     0
1002
}
1002
{
1000
REACTOR
1002
}
  0
TEXT
  5
3808
330
1E
100
AcDbEntity
  8
0
100
AcDbText
 10
29.35371832472781
 20
160.7547268669658
 30
0.0
 40
6.6
  1
MCMBRA
  7
DAYUS
100
AcDbText
  0
TEXT
  5
380A
330
1E
100
AcDbEntity
  8
0
100
AcDbText
 10
29.35371832472781
 20
-51.79000400630826
 30
0.0
 40
6.6
  1
MCMBRB
  7
DAYUS
100
AcDbText
  0
LINE
  5
3B49
330
1E
100
AcDbEntity
  8
LOGO
 62
     4
100
AcDbLine
 10
15.17091597084259
 20
-31.83991750260151
 30
0.0
 11
345.1709159708426
 21
-31.83991750260151
 31
0.0
  0
LINE
  5
3B6C
330
1E
100
AcDbEntity
  8
LOGO
 62
     4
100
AcDbLine
 10
198.0965292675142
 20
-257.8900369596146
 30
0.0
 11
181.2080016828328
 21
-257.8900369596146
 31
0.0
  0
LINE
  5
3B6D
330
1E
100
AcDbEntity
  8
LOGO
 62
     4
100
AcDbLine
 10
181.2080016828328
 20
-260.3646785885737
 30
0.0
 11
181.2080016828328
 21
-257.8900369596146
 31
0.0
  0
LINE
  5
3DFF
330
1E
100
AcDbEntity
  8
AM_7
100
AcDbLine
 10
187.6950597147759
 20
59.21056269195702
 30
0.0
 11
187.6950597147759
 21
49.3030561327626
 31
0.0
  0
LINE
  5
3E07
330
1E
100
AcDbEntity
  8
AM_7
100
AcDbLine
 10
233.6950597147759
 20
56.21056269195702
 30
0.0
 11
233.6950597147759
 21
46.3030561327626
 31
0.0
  0
LINE
  5
3E0C
330
1E
100
AcDbEntity
  8
AM_VIS
100
AcDbLine
 10
304.4626759516213
 20
23.44374360864805
 30
0.0
 11
303.4626759516214
 21
22.44374360864805
 31
0.0
  0
LINE
  5
3E0D
330
1E
100
AcDbEntity
  8
AM_VIS
100
AcDbLine
 10
266.4626759516214
 20
22.44374360864805
 30
0.0
 11
303.4626759516214
 21
22.44374360864805
 31
0.0
  0
LINE
  5
3E0E
330
1E
100
AcDbEntity
  8
AM_VIS
100
AcDbLine
 10
266.4626759516214
 20
22.44374360864805
 30
0.0
 11
265.4626759516213
 21
23.44374360864805
 31
0.0
  0
LINE
  5
3E0F
330
1E
100
AcDbEntity
  8
AM_VIS
100
AcDbLine
 10
265.4626759516213
 20
57.44374360864805
 30
0.0
 11
265.4626759516213
 21
23.44374360864805
 31
0.0
  0
LINE
  5
3E10
330
1E
100
AcDbEntity
  8
AM_VIS
100
AcDbLine
 10
265.4626759516213
 20
57.44374360864805
 30
0.0
 11
266.4626759516214
 21
58.44374360864804
 31
0.0
  0
LINE
  5
3E11
330
1E
100
AcDbEntity
  8
AM_VIS
100
AcDbLine
 10
303.4626759516214
 20
58.44374360864804
 30
0.0
 11
266.4626759516214
 21
58.44374360864804
 31
0.0
  0
LINE
  5
3E12
330
1E
100
AcDbEntity
  8
AM_VIS
100
AcDbLine
 10
304.4626759516213
 20
23.44374360864805
 30
0.0
 11
304.4626759516213
 21
57.44374360864805
 31
0.0
  0
LINE
  5
3E13
330
1E
100
AcDbEntity
  8
AM_VIS
100
AcDbLine
 10
303.4626759516214
 20
58.44374360864804
 30
0.0
 11
304.4626759516213
 21
57.44374360864805
 31
0.0
  0
CIRCLE
  5
3E14
330
1E
100
AcDbEntity
  8
AM_VIS
100
AcDbCircle
 10
284.9626759516214
 20
40.44374360864805
 30
0.0
 40
14.5
  0
ARC
  5
3E15
330
1E
100
AcDbEntity
  8
AM_VIS
100
AcDbCircle
 10
284.9626759516214
 20
40.44374360864805
 30
0.0
 40
16.75
100
AcDbArc
 50
116.4243920788193
 51
153.5756079211807
  0
ARC
  5
3E16
330
1E
100
AcDbEntity
  8
AM_VIS
100
AcDbCircle
 10
284.9626759516214
 20
40.44374360864805
 30
0.0
 40
16.75
100
AcDbArc
 50
26.42439207881928
 51
63.57560792118072
  0
ARC
  5
3E17
330
1E
100
AcDbEntity
  8
AM_VIS
100
AcDbCircle
 10
284.9626759516214
 20
40.44374360864805
 30
0.0
 40
16.75
100
AcDbArc
 50
296.4243920788192
 51
333.5756079211807
  0
ARC
  5
3E18
330
1E
100
AcDbEntity
  8
AM_VIS
100
AcDbCircle
 10
284.9626759516214
 20
40.44374360864805
 30
0.0
 40
16.75
100
AcDbArc
 50
206.4243920788193
 51
243.5756079211805
  0
LINE
  5
3E19
330
1E
100
AcDbEntity
  8
AM_VIS
100
AcDbLine
 10
269.9626759516213
 20
47.8977693665858
 30
0.0
 11
269.9626759516213
 21
32.98971785071018
 31
0.0
  0
LINE
  5
3E1A
330
1E
100
AcDbEntity
  8
AM_VIS
100
AcDbLine
 10
299.9626759516214
 20
47.8977693665858
 30
0.0
 11
299.9626759516214
 21
32.98971785071018
 31
0.0
  0
LINE
  5
3E1B
330
1E
100
AcDbEntity
  8
AM_VIS
100
AcDbLine
 10
277.5086501936836
 20
25.44374360864805
 30
0.0
 11
292.4167017095592
 21
25.44374360864805
 31
0.0
  0
LINE
  5
3E1C
330
1E
100
AcDbEntity
  8
AM_VIS
100
AcDbLine
 10
277.5086501936836
 20
55.44374360864805
 30
0.0
 11
292.4167017095592
 21
55.44374360864805
 31
0.0
  0
CIRCLE
  5
3E1D
330
1E
100
AcDbEntity
  8
AM_VIS
100
AcDbCircle
 10
72.25606943891228
 20
40.44374360864805
 30
0.0
 40
3.9
  0
CIRCLE
  5
3E1E
330
1E
100
AcDbEntity
  8
AM_VIS
100
AcDbCircle
 10
72.25606943891228
 20
40.44374360864805
 30
0.0
 40
4.9
  0
LINE
  5
3E1F
330
1E
100
AcDbEntity
  8
AM_VIS
100
AcDbLine
 10
72.25606943891233
 20
50.25869818487166
 30
0.0
 11
80.75606943891234
 21
45.35122089675979
 31
0.0
  0
LINE
  5
3E20
330
1E
100
AcDbEntity
  8
AM_VIS
100
AcDbLine
 10
80.75606943891234
 20
45.35122089675979
 30
0.0
 11
80.75606943891234
 21
35.53626632053619
 31
0.0
  0
LINE
  5
3E21
330
1E
100
AcDbEntity
  8
AM_VIS
100
AcDbLine
 10
72.25606943891233
 20
30.62878903242432
 30
0.0
 11
80.75606943891234
 21
35.53626632053619
 31
0.0
  0
LINE
  5
3E22
330
1E
100
AcDbEntity
  8
AM_VIS
100
AcDbLine
 10
63.75606943891227
 20
35.53626632053619
 30
0.0
 11
72.25606943891233
 21
30.62878903242432
 31
0.0
  0
LINE
  5
3E23
330
1E
100
AcDbEntity
  8
AM_VIS
100
AcDbLine
 10
63.75606943891227
 20
45.35122089675979
 30
0.0
 11
63.75606943891227
 21
35.53626632053619
 31
0.0
  0
LINE
  5
3E24
330
1E
100
AcDbEntity
  8
AM_VIS
100
AcDbLine
 10
63.75606943891227
 20
45.35122089675979
 30
0.0
 11
72.25606943891233
 21
50.25869818487166
 31
0.0
  0
CIRCLE
  5
3E25
330
1E
100
AcDbEntity
  8
AM_VIS
100
AcDbCircle
 10
72.25606943891228
 20
40.44374360864805
 30
0.0
 40
8.250000000000003
  0
CIRCLE
  5
3E26
330
1E
100
AcDbEntity
  8
AM_VIS
100
AcDbCircle
 10
72.25606943891228
 20
40.44374360864805
 30
0.0
 40
5.266025403784443
  0
LINE
  5
3E27
330
1E
100
AcDbEntity
  8
AM_VIS
100
AcDbLine
 10
72.25606943891233
 20
50.25869818487166
 30
0.0
 11
80.75606943891234
 21
45.35122089675979
 31
0.0
  0
LINE
  5
3E28
330
1E
100
AcDbEntity
  8
AM_VIS
100
AcDbLine
 10
80.75606943891234
 20
45.35122089675979
 30
0.0
 11
80.75606943891234
 21
35.53626632053619
 31
0.0
  0
LINE
  5
3E29
330
1E
100
AcDbEntity
  8
AM_VIS
100
AcDbLine
 10
72.25606943891233
 20
30.62878903242432
 30
0.0
 11
80.75606943891234
 21
35.53626632053619
 31
0.0
  0
LINE
  5
3E2A
330
1E
100
AcDbEntity
  8
AM_VIS
100
AcDbLine
 10
63.75606943891227
 20
35.53626632053619
 30
0.0
 11
72.25606943891233
 21
30.62878903242432
 31
0.0
  0
LINE
  5
3E2B
330
1E
100
AcDbEntity
  8
AM_VIS
100
AcDbLine
 10
63.75606943891227
 20
45.35122089675979
 30
0.0
 11
63.75606943891227
 21
35.53626632053619
 31
0.0
  0
LINE
  5
3E2C
330
1E
100
AcDbEntity
  8
AM_VIS
100
AcDbLine
 10
63.75606943891227
 20
45.35122089675979
 30
0.0
 11
72.25606943891233
 21
50.25869818487166
 31
0.0
  0
CIRCLE
  5
3E2D
330
1E
100
AcDbEntity
  8
AM_VIS
100
AcDbCircle
 10
72.25606943891228
 20
40.44374360864805
 30
0.0
 40
13.0
  0
CIRCLE
  5
3E2E
330
1E
100
AcDbEntity
  8
AM_VIS
100
AcDbCircle
 10
72.25606943891228
 20
40.44374360864805
 30
0.0
 40
12.5
  0
LINE
  5
3E2F
330
1E
100
AcDbEntity
  8
AM_VIS
100
AcDbLine
 10
53.75606943891227
 20
58.44374360864804
 30
0.0
 11
90.75606943891228
 21
58.44374360864804
 31
0.0
  0
LINE
  5
3E30
330
1E
100
AcDbEntity
  8
AM_VIS
100
AcDbLine
 10
90.75606943891228
 20
58.44374360864804
 30
0.0
 11
91.75606943891228
 21
57.44374360864805
 31
0.0
  0
LINE
  5
3E31
330
1E
100
AcDbEntity
  8
AM_VIS
100
AcDbLine
 10
91.75606943891228
 20
57.44374360864805
 30
0.0
 11
91.75606943891228
 21
23.44374360864805
 31
0.0
  0
LINE
  5
3E32
330
1E
100
AcDbEntity
  8
AM_VIS
100
AcDbLine
 10
91.75606943891228
 20
23.44374360864805
 30
0.0
 11
90.75606943891228
 21
22.44374360864805
 31
0.0
  0
LINE
  5
3E33
330
1E
100
AcDbEntity
  8
AM_VIS
100
AcDbLine
 10
90.75606943891228
 20
22.44374360864805
 30
0.0
 11
53.75606943891227
 21
22.44374360864805
 31
0.0
  0
LINE
  5
3E34
330
1E
100
AcDbEntity
  8
AM_VIS
100
AcDbLine
 10
53.75606943891227
 20
22.44374360864805
 30
0.0
 11
52.75606943891228
 21
23.44374360864805
 31
0.0
  0
LINE
  5
3E35
330
1E
100
AcDbEntity
  8
AM_VIS
100
AcDbLine
 10
52.75606943891228
 20
23.44374360864805
 30
0.0
 11
52.75606943891228
 21
57.44374360864805
 31
0.0
  0
LINE
  5
3E36
330
1E
100
AcDbEntity
  8
AM_VIS
100
AcDbLine
 10
52.75606943891228
 20
57.44374360864805
 30
0.0
 11
53.75606943891227
 21
58.44374360864804
 31
0.0
  0
LINE
  5
3E37
330
1E
100
AcDbEntity
  8
AM_VIS
100
AcDbLine
 10
134.6950597147759
 20
107.5522240279636
 30
0.0
 11
134.6950597147759
 21
115.3522240279637
 31
0.0
  0
LINE
  5
3E38
330
1E
100
AcDbEntity
  8
AM_VIS
100
AcDbLine
 10
135.6950597147759
 20
116.3522240279637
 30
0.0
 11
135.6950597147759
 21
106.5522240279636
 31
0.0
  0
LINE
  5
3E39
330
1E
100
AcDbEntity
  8
AM_VIS
100
AcDbLine
 10
134.6950597147759
 20
107.5522240279636
 30
0.0
 11
135.6950597147759
 21
106.5522240279636
 31
0.0
  0
LINE
  5
3E3A
330
1E
100
AcDbEntity
  8
AM_VIS
100
AcDbLine
 10
134.6950597147759
 20
115.3522240279637
 30
0.0
 11
135.6950597147759
 21
116.3522240279637
 31
0.0
  0
LINE
  5
3E3B
330
1E
100
AcDbEntity
  8
AM_VIS
100
AcDbLine
 10
139.6950597147759
 20
116.3522240279637
 30
0.0
 11
135.6950597147759
 21
116.3522240279637
 31
0.0
  0
LINE
  5
3E3C
330
1E
100
AcDbEntity
  8
AM_VIS
100
AcDbLine
 10
155.4950597147758
 20
116.3522240279637
 30
0.0
 11
151.6950597147759
 21
116.3522240279637
 31
0.0
  0
LINE
  5
3E3D
330
1E
100
AcDbEntity
  8
AM_VIS
100
AcDbLine
 10
139.6950597147759
 20
106.5522240279636
 30
0.0
 11
135.6950597147759
 21
106.5522240279636
 31
0.0
  0
LINE
  5
3E3E
330
1E
100
AcDbEntity
  8
AM_VIS
100
AcDbLine
 10
155.495059714776
 20
106.5522240279637
 30
0.0
 11
151.6950597147759
 21
106.5522240279636
 31
0.0
  0
LINE
  5
3E41
330
1E
100
AcDbEntity
  8
AM_VIS
100
AcDbLine
 10
197.1950597147759
 20
98.30222402796364
 30
0.0
 11
197.2950597147758
 21
98.2022240279636
 31
0.0
  0
LINE
  5
3E42
330
1E
100
AcDbEntity
  8
AM_VIS
100
AcDbLine
 10
197.1950597147759
 20
124.6022240279637
 30
0.0
 11
197.2950597147758
 21
124.7022240279636
 31
0.0
  0
LINE
  5
3E43
330
1E
100
AcDbEntity
  8
AM_VIS
100
AcDbLine
 10
224.0950597147759
 20
124.7022240279636
 30
0.0
 11
197.2950597147758
 21
124.7022240279636
 31
0.0
  0
LINE
  5
3E44
330
1E
100
AcDbEntity
  8
AM_VIS
100
AcDbLine
 10
224.0950597147759
 20
98.2022240279636
 30
0.0
 11
197.2950597147758
 21
98.2022240279636
 31
0.0
  0
LINE
  5
3E45
330
1E
100
AcDbEntity
  8
AM_VIS
100
AcDbLine
 10
224.1950597147759
 20
124.6022240279637
 30
0.0
 11
224.0950597147759
 21
124.7022240279636
 31
0.0
  0
LINE
  5
3E46
330
1E
100
AcDbEntity
  8
AM_VIS
100
AcDbLine
 10
224.1950597147759
 20
98.30222402796374
 30
0.0
 11
224.0950597147759
 21
98.2022240279636
 31
0.0
  0
LINE
  5
3E47
330
1E
100
AcDbEntity
  8
AM_VIS
100
AcDbLine
 10
145.6950597147758
 20
111.4522240279636
 30
0.0
 11
145.6950597147758
 21
103.2022240279636
 31
0.0
  0
LINE
  5
3E48
330
1E
100
AcDbEntity
  8
AM_VIS
100
AcDbLine
 10
145.6950597147758
 20
119.7022240279636
 30
0.0
 11
145.6950597147758
 21
111.4522240279636
 31
0.0
  0
LINE
  5
3E49
330
1E
100
AcDbEntity
  8
AM_VIS
100
AcDbLine
 10
151.6950597147759
 20
111.4522240279636
 30
0.0
 11
151.6950597147759
 21
119.7022240279636
 31
0.0
  0
LINE
  5
3E4A
330
1E
100
AcDbEntity
  8
AM_VIS
100
AcDbLine
 10
151.6950597147759
 20
103.2022240279636
 30
0.0
 11
151.6950597147759
 21
111.4522240279636
 31
0.0
  0
LINE
  5
3E4B
330
1E
100
AcDbEntity
  8
AM_VIS
100
AcDbLine
 10
145.6950597147758
 20
103.2022240279636
 30
0.0
 11
145.8393972820732
 21
102.9522240279636
 31
0.0
  0
LINE
  5
3E4C
330
1E
100
AcDbEntity
  8
AM_VIS
100
AcDbLine
 10
145.6950597147758
 20
119.7022240279636
 30
0.0
 11
145.8393972820731
 21
119.9522240279636
 31
0.0
  0
LINE
  5
3E4D
330
1E
100
AcDbEntity
  8
AM_VIS
100
AcDbLine
 10
151.6950597147759
 20
119.7022240279636
 30
0.0
 11
151.5507221474783
 21
119.9522240279636
 31
0.0
  0
LINE
  5
3E4E
330
1E
100
AcDbEntity
  8
AM_VIS
100
AcDbLine
 10
151.6950597147759
 20
103.2022240279636
 30
0.0
 11
151.5507221474783
 21
102.9522240279636
 31
0.0
  0
LINE
  5
3E4F
330
1E
100
AcDbEntity
  8
AM_VIS
100
AcDbLine
 10
150.7915327689235
 20
102.9522240279636
 30
0.0
 11
146.5985866606281
 21
102.9522240279636
 31
0.0
  0
SPLINE
  5
3E50
330
1E
100
AcDbEntity
  8
AM_VIS
100
AcDbSpline
210
0.0
220
0.0
230
1.0
 70
    12
 71
     2
 72
     6
 73
     3
 74
     0
 42
0.0000000001
 43
0.0000000001
 40
4.49144585754726
 40
4.49144585754726
 40
4.49144585754726
 40
16.56403640559105
 40
16.56403640559105
 40
16.56403640559105
 10
146.598586660628
 20
111.4522240279636
 30
0.0
 41
1.187554132852486
 10
145.1819199939614
 20
107.2022240279636
 30
0.0
 41
1.371269396559269
 10
146.5985866606281
 20
102.9522240279637
 30
0.0
 41
1.187554132852484
  0
LINE
  5
3E51
330
1E
100
AcDbEntity
  8
AM_VIS
100
AcDbLine
 10
145.8393972820732
 20
102.9522240279636
 30
0.0
 11
146.5985866606281
 21
102.9522240279636
 31
0.0
  0
LINE
  5
3E52
330
1E
100
AcDbEntity
  8
AM_VIS
100
AcDbLine
 10
145.8393972820731
 20
119.9522240279636
 30
0.0
 11
146.5985866606281
 21
119.9522240279636
 31
0.0
  0
LINE
  5
3E53
330
1E
100
AcDbEntity
  8
AM_VIS
100
AcDbLine
 10
150.7915327689236
 20
111.4522240279636
 30
0.0
 11
146.5985866606281
 21
111.4522240279636
 31
0.0
  0
SPLINE
  5
3E54
330
1E
100
AcDbEntity
  8
AM_VIS
100
AcDbSpline
210
0.0
220
0.0
230
1.0
 70
    12
 71
     2
 72
     6
 73
     3
 74
     0
 42
0.0000000001
 43
0.0000000001
 40
4.491445857547268
 40
4.491445857547268
 40
4.491445857547268
 40
16.56403640559107
 40
16.56403640559107
 40
16.56403640559107
 10
146.5985866606281
 20
119.9522240279636
 30
0.0
 41
1.187554132852488
 10
145.1819199939614
 20
115.7022240279637
 30
0.0
 41
1.371269396559273
 10
146.5985866606281
 20
111.4522240279637
 30
0.0
 41
1.187554132852487
  0
LINE
  5
3E55
330
1E
100
AcDbEntity
  8
AM_VIS
100
AcDbLine
 10
150.7915327689236
 20
119.9522240279636
 30
0.0
 11
146.5985866606281
 21
119.9522240279636
 31
0.0
  0
LINE
  5
3E56
330
1E
100
AcDbEntity
  8
AM_VIS
100
AcDbLine
 10
150.7915327689235
 20
102.9522240279636
 30
0.0
 11
151.5507221474783
 21
102.9522240279636
 31
0.0
  0
SPLINE
  5
3E57
330
1E
100
AcDbEntity
  8
AM_VIS
100
AcDbSpline
210
0.0
220
0.0
230
1.0
 70
    12
 71
     2
 72
     6
 73
     3
 74
     0
 42
0.0000000001
 43
0.0000000001
 40
4.4914458575472
 40
4.4914458575472
 40
4.4914458575472
 40
16.56403640559099
 40
16.56403640559099
 40
16.56403640559099
 10
150.7915327689234
 20
102.9522240279637
 30
0.0
 41
1.187554132852485
 10
152.2081994355902
 20
107.2022240279637
 30
0.0
 41
1.371269396559269
 10
150.7915327689235
 20
111.4522240279637
 30
0.0
 41
1.187554132852487
  0
SPLINE
  5
3E58
330
1E
100
AcDbEntity
  8
AM_VIS
100
AcDbSpline
210
0.0
220
0.0
230
1.0
 70
    12
 71
     2
 72
     6
 73
     3
 74
     0
 42
0.0000000001
 43
0.0000000001
 40
4.491445857547216
 40
4.491445857547216
 40
4.491445857547216
 40
16.56403640559104
 40
16.56403640559104
 40
16.56403640559104
 10
150.7915327689237
 20
111.4522240279635
 30
0.0
 41
1.187554132852488
 10
152.2081994355902
 20
115.7022240279636
 30
0.0
 41
1.371269396559276
 10
150.7915327689236
 20
119.9522240279637
 30
0.0
 41
1.187554132852489
  0
LINE
  5
3E59
330
1E
100
AcDbEntity
  8
AM_VIS
100
AcDbLine
 10
150.7915327689236
 20
119.9522240279636
 30
0.0
 11
151.5507221474783
 21
119.9522240279636
 31
0.0
  0
LINE
  5
3E5A
330
1E
100
AcDbEntity
  8
AM_VIS
100
AcDbLine
 10
139.6950597147759
 20
111.4522240279636
 30
0.0
 11
139.6950597147759
 21
103.2022240279636
 31
0.0
  0
LINE
  5
3E5B
330
1E
100
AcDbEntity
  8
AM_VIS
100
AcDbLine
 10
139.6950597147759
 20
119.7022240279636
 30
0.0
 11
139.6950597147759
 21
111.4522240279636
 31
0.0
  0
LINE
  5
3E5C
330
1E
100
AcDbEntity
  8
AM_VIS
100
AcDbLine
 10
145.6950597147758
 20
111.4522240279636
 30
0.0
 11
145.6950597147758
 21
119.7022240279636
 31
0.0
  0
LINE
  5
3E5D
330
1E
100
AcDbEntity
  8
AM_VIS
100
AcDbLine
 10
145.6950597147758
 20
103.2022240279636
 30
0.0
 11
145.6950597147758
 21
111.4522240279636
 31
0.0
  0
LINE
  5
3E5E
330
1E
100
AcDbEntity
  8
AM_VIS
100
AcDbLine
 10
139.6950597147759
 20
103.2022240279636
 30
0.0
 11
139.8393972820732
 21
102.9522240279636
 31
0.0
  0
LINE
  5
3E5F
330
1E
100
AcDbEntity
  8
AM_VIS
100
AcDbLine
 10
139.6950597147759
 20
119.7022240279636
 30
0.0
 11
139.8393972820731
 21
119.9522240279636
 31
0.0
  0
LINE
  5
3E60
330
1E
100
AcDbEntity
  8
AM_VIS
100
AcDbLine
 10
145.6950597147758
 20
119.7022240279636
 30
0.0
 11
145.5507221474784
 21
119.9522240279636
 31
0.0
  0
LINE
  5
3E61
330
1E
100
AcDbEntity
  8
AM_VIS
100
AcDbLine
 10
145.6950597147758
 20
103.2022240279636
 30
0.0
 11
145.5507221474784
 21
102.9522240279636
 31
0.0
  0
LINE
  5
3E62
330
1E
100
AcDbEntity
  8
AM_VIS
100
AcDbLine
 10
144.7915327689235
 20
102.9522240279636
 30
0.0
 11
140.5985866606281
 21
102.9522240279636
 31
0.0
  0
SPLINE
  5
3E63
330
1E
100
AcDbEntity
  8
AM_VIS
100
AcDbSpline
210
0.0
220
0.0
230
1.0
 70
    12
 71
     2
 72
     6
 73
     3
 74
     0
 42
0.0000000001
 43
0.0000000001
 40
4.49144585754726
 40
4.49144585754726
 40
4.49144585754726
 40
16.56403640559105
 40
16.56403640559105
 40
16.56403640559105
 10
140.5985866606281
 20
111.4522240279636
 30
0.0
 41
1.187554132852486
 10
139.1819199939615
 20
107.2022240279636
 30
0.0
 41
1.371269396559269
 10
140.5985866606281
 20
102.9522240279637
 30
0.0
 41
1.187554132852484
  0
LINE
  5
3E64
330
1E
100
AcDbEntity
  8
AM_VIS
100
AcDbLine
 10
139.8393972820732
 20
102.9522240279636
 30
0.0
 11
140.5985866606281
 21
102.9522240279636
 31
0.0
  0
LINE
  5
3E65
330
1E
100
AcDbEntity
  8
AM_VIS
100
AcDbLine
 10
139.8393972820731
 20
119.9522240279636
 30
0.0
 11
140.5985866606281
 21
119.9522240279636
 31
0.0
  0
LINE
  5
3E66
330
1E
100
AcDbEntity
  8
AM_VIS
100
AcDbLine
 10
144.7915327689236
 20
111.4522240279636
 30
0.0
 11
140.5985866606281
 21
111.4522240279636
 31
0.0
  0
SPLINE
  5
3E67
330
1E
100
AcDbEntity
  8
AM_VIS
100
AcDbSpline
210
0.0
220
0.0
230
1.0
 70
    12
 71
     2
 72
     6
 73
     3
 74
     0
 42
0.0000000001
 43
0.0000000001
 40
4.491445857547268
 40
4.491445857547268
 40
4.491445857547268
 40
16.56403640559107
 40
16.56403640559107
 40
16.56403640559107
 10
140.5985866606282
 20
119.9522240279636
 30
0.0
 41
1.187554132852488
 10
139.1819199939614
 20
115.7022240279637
 30
0.0
 41
1.371269396559273
 10
140.5985866606281
 20
111.4522240279637
 30
0.0
 41
1.187554132852487
  0
LINE
  5
3E68
330
1E
100
AcDbEntity
  8
AM_VIS
100
AcDbLine
 10
144.7915327689236
 20
119.9522240279636
 30
0.0
 11
140.5985866606281
 21
119.9522240279636
 31
0.0
  0
LINE
  5
3E69
330
1E
100
AcDbEntity
  8
AM_VIS
100
AcDbLine
 10
144.7915327689235
 20
102.9522240279636
 30
0.0
 11
145.5507221474784
 21
102.9522240279636
 31
0.0
  0
SPLINE
  5
3E6A
330
1E
100
AcDbEntity
  8
AM_VIS
100
AcDbSpline
210
0.0
220
0.0
230
1.0
 70
    12
 71
     2
 72
     6
 73
     3
 74
     0
 42
0.0000000001
 43
0.0000000001
 40
4.4914458575472
 40
4.4914458575472
 40
4.4914458575472
 40
16.56403640559099
 40
16.56403640559099
 40
16.56403640559099
 10
144.7915327689233
 20
102.9522240279637
 30
0.0
 41
1.187554132852485
 10
146.2081994355902
 20
107.2022240279637
 30
0.0
 41
1.371269396559269
 10
144.7915327689236
 20
111.4522240279637
 30
0.0
 41
1.187554132852487
  0
SPLINE
  5
3E6B
330
1E
100
AcDbEntity
  8
AM_VIS
100
AcDbSpline
210
0.0
220
0.0
230
1.0
 70
    12
 71
     2
 72
     6
 73
     3
 74
     0
 42
0.0000000001
 43
0.0000000001
 40
4.491445857547216
 40
4.491445857547216
 40
4.491445857547216
 40
16.56403640559104
 40
16.56403640559104
 40
16.56403640559104
 10
144.7915327689236
 20
111.4522240279635
 30
0.0
 41
1.187554132852488
 10
146.2081994355902
 20
115.7022240279636
 30
0.0
 41
1.371269396559276
 10
144.7915327689237
 20
119.9522240279637
 30
0.0
 41
1.187554132852489
  0
LINE
  5
3E6C
330
1E
100
AcDbEntity
  8
AM_VIS
100
AcDbLine
 10
144.7915327689236
 20
119.9522240279636
 30
0.0
 11
145.5507221474784
 21
119.9522240279636
 31
0.0
  0
LINE
  5
3E6D
330
1E
100
AcDbEntity
  8
AM_VIS
100
AcDbLine
 10
197.1950597147759
 20
97.70222402796362
 30
0.0
 11
197.1950597147759
 21
125.2022240279636
 31
0.0
  0
CIRCLE
  5
3E6E
330
1E
100
AcDbEntity
  8
AM_VIS
100
AcDbCircle
 10
177.6950597147759
 20
98.95222402796362
 30
0.0
 40
3.299999999999999
  0
CIRCLE
  5
3E6F
330
1E
100
AcDbEntity
  8
AM_VIS
100
AcDbCircle
 10
177.6950597147759
 20
123.9522240279636
 30
0.0
 40
3.299999999999999
  0
CIRCLE
  5
3E70
330
1E
100
AcDbEntity
  8
AM_VIS
100
AcDbCircle
 10
187.6950597147759
 20
111.4522240279636
 30
0.0
 40
4.283
  0
LINE
  5
3E72
330
1E
100
AcDbEntity
  8
AM_VIS
100
AcDbLine
 10
162.6950597147759
 20
98.95222402796362
 30
0.0
 11
162.6950597147759
 21
123.9522240279636
 31
0.0
  0
CIRCLE
  5
3E73
330
1E
100
AcDbEntity
  8
AM_VIS
100
AcDbCircle
 10
187.6950597147759
 20
111.4522240279636
 30
0.0
 40
5.0
  0
CIRCLE
  5
3E74
330
1E
100
AcDbEntity
  8
AM_VIS
100
AcDbCircle
 10
177.6950597147759
 20
123.9522240279636
 30
0.0
 40
5.5
  0
CIRCLE
  5
3E75
330
1E
100
AcDbEntity
  8
AM_VIS
100
AcDbCircle
 10
177.6950597147759
 20
98.95222402796362
 30
0.0
 40
5.5
  0
LINE
  5
3E77
330
1E
100
AcDbEntity
  8
AM_VIS
100
AcDbLine
 10
197.1950597147759
 20
125.2022240279636
 30
0.0
 11
194.6950597147758
 21
125.2022240279636
 31
0.0
  0
LINE
  5
3E78
330
1E
100
AcDbEntity
  8
AM_VIS
100
AcDbLine
 10
197.1950597147759
 20
97.70222402796362
 30
0.0
 11
194.6950597147758
 21
97.70222402796362
 31
0.0
  0
LINE
  5
3E79
330
1E
100
AcDbEntity
  8
AM_VIS
100
AcDbLine
 10
165.6950597147759
 20
124.4522240279636
 30
0.0
 11
163.1950597147759
 21
124.4522240279636
 31
0.0
  0
LINE
  5
3E7A
330
1E
100
AcDbEntity
  8
AM_VIS
100
AcDbLine
 10
165.6950597147759
 20
98.45222402796361
 30
0.0
 11
163.1950597147759
 21
98.45222402796361
 31
0.0
  0
LINE
  5
3E7B
330
1E
100
AcDbEntity
  8
AM_VIS
100
AcDbLine
 10
162.6950597147759
 20
98.95222402796362
 30
0.0
 11
163.1950597147759
 21
98.45222402796361
 31
0.0
  0
LINE
  5
3E7C
330
1E
100
AcDbEntity
  8
AM_VIS
100
AcDbLine
 10
162.6950597147759
 20
123.9522240279636
 30
0.0
 11
163.1950597147759
 21
124.4522240279636
 31
0.0
  0
LINE
  5
3E7D
330
1E
100
AcDbEntity
  8
AM_VIS
100
AcDbLine
 10
165.6950597147759
 20
129.9522240279636
 30
0.0
 11
165.6950597147759
 21
92.9522240279636
 31
0.0
  0
LINE
  5
3E7E
330
1E
100
AcDbEntity
  8
AM_VIS
100
AcDbLine
 10
194.6950597147758
 20
92.9522240279636
 30
0.0
 11
165.6950597147759
 21
92.9522240279636
 31
0.0
  0
LINE
  5
3E7F
330
1E
100
AcDbEntity
  8
AM_VIS
100
AcDbLine
 10
165.6950597147759
 20
92.9522240279636
 30
0.0
 11
165.6950597147759
 21
91.9522240279636
 31
0.0
  0
LINE
  5
3E80
330
1E
100
AcDbEntity
  8
AM_VIS
100
AcDbLine
 10
165.6950597147759
 20
91.9522240279636
 30
0.0
 11
194.6950597147758
 21
91.9522240279636
 31
0.0
  0
LINE
  5
3E81
330
1E
100
AcDbEntity
  8
AM_VIS
100
AcDbLine
 10
194.6950597147758
 20
91.9522240279636
 30
0.0
 11
194.6950597147758
 21
92.9522240279636
 31
0.0
  0
LINE
  5
3E82
330
1E
100
AcDbEntity
  8
AM_VIS
100
AcDbLine
 10
194.6950597147758
 20
129.9522240279636
 30
0.0
 11
194.6950597147758
 21
92.9522240279636
 31
0.0
  0
LINE
  5
3E83
330
1E
100
AcDbEntity
  8
AM_VIS
100
AcDbLine
 10
194.6950597147758
 20
130.9522240279636
 30
0.0
 11
165.6950597147759
 21
130.9522240279636
 31
0.0
  0
LINE
  5
3E84
330
1E
100
AcDbEntity
  8
AM_VIS
100
AcDbLine
 10
194.6950597147758
 20
129.9522240279636
 30
0.0
 11
194.6950597147758
 21
130.9522240279636
 31
0.0
  0
LINE
  5
3E85
330
1E
100
AcDbEntity
  8
AM_VIS
100
AcDbLine
 10
165.6950597147759
 20
129.9522240279636
 30
0.0
 11
194.6950597147758
 21
129.9522240279636
 31
0.0
  0
LINE
  5
3E86
330
1E
100
AcDbEntity
  8
AM_VIS
100
AcDbLine
 10
165.6950597147759
 20
130.9522240279636
 30
0.0
 11
165.6950597147759
 21
129.9522240279636
 31
0.0
  0
LINE
  5
3E87
330
1E
100
AcDbEntity
  8
AM_VIS
100
AcDbLine
 10
241.6950597147759
 20
111.4522240279636
 30
0.0
 11
241.6950597147759
 21
125.9522240279636
 31
0.0
  0
LINE
  5
3E88
330
1E
100
AcDbEntity
  8
AM_VIS
100
AcDbLine
 10
241.6950597147759
 20
96.9522240279636
 30
0.0
 11
241.6950597147759
 21
111.4522240279636
 31
0.0
  0
LINE
  5
3E89
330
1E
100
AcDbEntity
  8
AM_VIS
100
AcDbLine
 10
240.3960216090992
 20
103.9981982700258
 30
0.0
 11
240.3960216090992
 21
96.45222402796362
 31
0.0
  0
LINE
  5
3E8A
330
1E
100
AcDbEntity
  8
AM_VIS
100
AcDbLine
 10
240.3960216090992
 20
126.4522240279636
 30
0.0
 11
240.3960216090992
 21
118.9062497859014
 31
0.0
  0
LINE
  5
3E8B
330
1E
100
AcDbEntity
  8
AM_VIS
100
AcDbLine
 10
224.1950597147759
 20
97.70222402796362
 30
0.0
 11
224.1950597147759
 21
125.2022240279636
 31
0.0
  0
LINE
  5
3E8C
330
1E
100
AcDbEntity
  8
AM_VIS
100
AcDbLine
 10
226.6950597147759
 20
111.4522240279636
 30
0.0
 11
226.6950597147759
 21
96.9522240279636
 31
0.0
  0
LINE
  5
3E8D
330
1E
100
AcDbEntity
  8
AM_VIS
100
AcDbLine
 10
226.6950597147759
 20
125.9522240279636
 30
0.0
 11
226.6950597147759
 21
111.4522240279636
 31
0.0
  0
LINE
  5
3E8E
330
1E
100
AcDbEntity
  8
AM_VIS
100
AcDbLine
 10
227.9940978204525
 20
118.9062497859014
 30
0.0
 11
227.9940978204525
 21
126.4522240279636
 31
0.0
  0
LINE
  5
3E8F
330
1E
100
AcDbEntity
  8
AM_VIS
100
AcDbLine
 10
227.9940978204525
 20
96.45222402796362
 30
0.0
 11
227.9940978204525
 21
103.9981982700258
 31
0.0
  0
CIRCLE
  5
3E91
330
1E
100
AcDbEntity
  8
AM_VIS
100
AcDbCircle
 10
233.6950597147759
 20
111.4522240279636
 30
0.0
 40
5.0
  0
CIRCLE
  5
3E92
330
1E
100
AcDbEntity
  8
AM_VIS
100
AcDbCircle
 10
233.6950597147759
 20
111.4522240279636
 30
0.0
 40
4.0
  0
LINE
  5
3E93
330
1E
100
AcDbEntity
  8
AM_VIS
100
AcDbLine
 10
241.6950597147759
 20
125.9522240279636
 30
0.0
 11
241.406384580181
 21
126.4522240279636
 31
0.0
  0
LINE
  5
3E94
330
1E
100
AcDbEntity
  8
AM_VIS
100
AcDbLine
 10
241.6950597147759
 20
96.9522240279636
 30
0.0
 11
241.406384580181
 21
96.45222402796362
 31
0.0
  0
LINE
  5
3E95
330
1E
100
AcDbEntity
  8
AM_VIS
100
AcDbLine
 10
226.6950597147759
 20
125.2022240279636
 30
0.0
 11
224.1950597147759
 21
125.2022240279636
 31
0.0
  0
LINE
  5
3E96
330
1E
100
AcDbEntity
  8
AM_VIS
100
AcDbLine
 10
226.6950597147759
 20
97.70222402796362
 30
0.0
 11
224.1950597147759
 21
97.70222402796362
 31
0.0
  0
LINE
  5
3E97
330
1E
100
AcDbEntity
  8
AM_VIS
100
AcDbLine
 10
226.6950597147759
 20
96.9522240279636
 30
0.0
 11
226.9837348493707
 21
96.45222402796362
 31
0.0
  0
LINE
  5
3E98
330
1E
100
AcDbEntity
  8
AM_VIS
100
AcDbLine
 10
226.6950597147759
 20
125.9522240279636
 30
0.0
 11
226.9837348493707
 21
126.4522240279636
 31
0.0
  0
LINE
  5
3E99
330
1E
100
AcDbEntity
  8
AM_VIS
100
AcDbLine
 10
227.9940978204525
 20
96.45222402796362
 30
0.0
 11
240.3960216090992
 21
96.45222402796362
 31
0.0
  0
LINE
  5
3E9A
330
1E
100
AcDbEntity
  8
AM_VIS
100
AcDbLine
 10
240.3960216090992
 20
96.45222402796362
 30
0.0
 11
241.406384580181
 21
96.45222402796362
 31
0.0
  0
LINE
  5
3E9B
330
1E
100
AcDbEntity
  8
AM_VIS
100
AcDbLine
 10
240.3960216090992
 20
126.4522240279636
 30
0.0
 11
241.406384580181
 21
126.4522240279636
 31
0.0
  0
LINE
  5
3E9C
330
1E
100
AcDbEntity
  8
AM_VIS
100
AcDbLine
 10
240.3960216090992
 20
126.4522240279636
 30
0.0
 11
227.9940978204525
 21
126.4522240279636
 31
0.0
  0
LINE
  5
3E9D
330
1E
100
AcDbEntity
  8
AM_VIS
100
AcDbLine
 10
226.9837348493707
 20
126.4522240279636
 30
0.0
 11
227.9940978204525
 21
126.4522240279636
 31
0.0
  0
LINE
  5
3E9E
330
1E
100
AcDbEntity
  8
AM_VIS
100
AcDbLine
 10
226.9837348493707
 20
96.45222402796362
 30
0.0
 11
227.9940978204525
 21
96.45222402796362
 31
0.0
  0
LINE
  5
3E9F
330
1E
100
AcDbEntity
  8
AM_VIS
100
AcDbLine
 10
227.9940978204525
 20
118.9062497859014
 30
0.0
 11
240.3960216090992
 21
118.9062497859014
 31
0.0
  0
SPLINE
  5
3EA0
330
1E
100
AcDbEntity
  8
AM_VIS
100
AcDbSpline
210
0.0
220
0.0
230
1.0
 70
    12
 71
     2
 72
     6
 73
     3
 74
     0
 42
0.0000000001
 43
0.0000000001
 40
0.0
 40
0.0
 40
0.0
 40
15.0443787951957
 40
15.0443787951957
 40
15.0443787951957
 10
240.3960216090992
 20
103.9981982700258
 30
0.0
 41
1.0
 10
242.3111872408513
 20
111.4522240279637
 30
0.0
 41
1.116666666666663
 10
240.3960216090992
 20
118.9062497859014
 30
0.0
 41
1.0
  0
LINE
  5
3EA1
330
1E
100
AcDbEntity
  8
AM_VIS
100
AcDbLine
 10
240.3960216090992
 20
103.9981982700258
 30
0.0
 11
227.9940978204525
 21
103.9981982700258
 31
0.0
  0
SPLINE
  5
3EA2
330
1E
100
AcDbEntity
  8
AM_VIS
100
AcDbSpline
210
0.0
220
0.0
230
1.0
 70
    12
 71
     2
 72
     6
 73
     3
 74
     0
 42
0.0000000001
 43
0.0000000001
 40
0.0
 40
0.0
 40
0.0
 40
15.0443787951957
 40
15.0443787951957
 40
15.0443787951957
 10
227.9940978204525
 20
118.9062497859014
 30
0.0
 41
1.0
 10
226.0789321887004
 20
111.4522240279636
 30
0.0
 41
1.116666666666667
 10
227.9940978204525
 20
103.9981982700258
 30
0.0
 41
1.0
  0
LINE
  5
3EA3
330
1E
100
AcDbEntity
  8
AM_VIS
100
AcDbLine
 10
134.6950597147759
 20
36.54374360864796
 30
0.0
 11
134.6950597147759
 21
44.34374360864791
 31
0.0
  0
LINE
  5
3EA4
330
1E
100
AcDbEntity
  8
AM_VIS
100
AcDbLine
 10
135.6950597147759
 20
45.34374360864791
 30
0.0
 11
135.6950597147759
 21
35.54374360864796
 31
0.0
  0
LINE
  5
3EA5
330
1E
100
AcDbEntity
  8
AM_VIS
100
AcDbLine
 10
134.6950597147759
 20
36.54374360864796
 30
0.0
 11
135.6950597147759
 21
35.54374360864796
 31
0.0
  0
LINE
  5
3EA6
330
1E
100
AcDbEntity
  8
AM_VIS
100
AcDbLine
 10
134.6950597147759
 20
44.34374360864791
 30
0.0
 11
135.6950597147759
 21
45.34374360864791
 31
0.0
  0
LINE
  5
3EA7
330
1E
100
AcDbEntity
  8
AM_VIS
100
AcDbLine
 10
139.6950597147759
 20
45.34374360864791
 30
0.0
 11
135.6950597147759
 21
45.34374360864791
 31
0.0
  0
LINE
  5
3EA8
330
1E
100
AcDbEntity
  8
AM_VIS
100
AcDbLine
 10
156.6950597147759
 20
45.34374360864791
 30
0.0
 11
151.6950597147759
 21
45.34374360864791
 31
0.0
  0
LINE
  5
3EA9
330
1E
100
AcDbEntity
  8
AM_VIS
100
AcDbLine
 10
139.6950597147759
 20
35.54374360864796
 30
0.0
 11
135.6950597147759
 21
35.54374360864796
 31
0.0
  0
LINE
  5
3EAA
330
1E
100
AcDbEntity
  8
AM_VIS
100
AcDbLine
 10
156.6950597147759
 20
35.54374360864796
 30
0.0
 11
151.6950597147759
 21
35.54374360864796
 31
0.0
  0
LINE
  5
3EAD
330
1E
100
AcDbEntity
  8
AM_VIS
100
AcDbLine
 10
197.1950597147759
 20
27.29374360864796
 30
0.0
 11
197.2950597147758
 21
27.19374360864805
 31
0.0
  0
LINE
  5
3EAE
330
1E
100
AcDbEntity
  8
AM_VIS
100
AcDbLine
 10
197.1950597147759
 20
53.59374360864802
 30
0.0
 11
197.2950597147758
 21
53.69374360864805
 31
0.0
  0
LINE
  5
3EAF
330
1E
100
AcDbEntity
  8
AM_VIS
100
AcDbLine
 10
224.0950597147758
 20
53.69374360864805
 30
0.0
 11
197.2950597147758
 21
53.69374360864805
 31
0.0
  0
LINE
  5
3EB0
330
1E
100
AcDbEntity
  8
AM_VIS
100
AcDbLine
 10
224.0950597147758
 20
27.19374360864805
 30
0.0
 11
197.2950597147758
 21
27.19374360864805
 31
0.0
  0
LINE
  5
3EB1
330
1E
100
AcDbEntity
  8
AM_VIS
100
AcDbLine
 10
224.1950597147759
 20
53.59374360864802
 30
0.0
 11
224.0950597147758
 21
53.69374360864805
 31
0.0
  0
LINE
  5
3EB2
330
1E
100
AcDbEntity
  8
AM_VIS
100
AcDbLine
 10
224.1950597147759
 20
27.29374360864796
 30
0.0
 11
224.0950597147759
 21
27.19374360864805
 31
0.0
  0
LINE
  5
3EB3
330
1E
100
AcDbEntity
  8
AM_VIS
100
AcDbLine
 10
145.6950597147758
 20
48.69374360864805
 30
0.0
 11
145.6950597147758
 21
32.19374360864805
 31
0.0
  0
LINE
  5
3EB4
330
1E
100
AcDbEntity
  8
AM_VIS
100
AcDbLine
 10
151.6950597147759
 20
32.19374360864805
 30
0.0
 11
151.6950597147759
 21
48.69374360864805
 31
0.0
  0
LINE
  5
3EB5
330
1E
100
AcDbEntity
  8
AM_VIS
100
AcDbLine
 10
145.6950597147758
 20
32.19374360864805
 30
0.0
 11
146.598586660628
 21
30.62878903242432
 31
0.0
  0
LINE
  5
3EB6
330
1E
100
AcDbEntity
  8
AM_VIS
100
AcDbLine
 10
145.6950597147758
 20
48.69374360864805
 30
0.0
 11
146.5985866606281
 21
50.25869818487166
 31
0.0
  0
LINE
  5
3EB7
330
1E
100
AcDbEntity
  8
AM_VIS
100
AcDbLine
 10
151.6950597147759
 20
48.69374360864805
 30
0.0
 11
150.7915327689235
 21
50.25869818487166
 31
0.0
  0
LINE
  5
3EB8
330
1E
100
AcDbEntity
  8
AM_VIS
100
AcDbLine
 10
151.6950597147759
 20
32.19374360864805
 30
0.0
 11
150.7915327689236
 21
30.62878903242432
 31
0.0
  0
LINE
  5
3EB9
330
1E
100
AcDbEntity
  8
AM_VIS
100
AcDbLine
 10
150.7915327689235
 20
45.35122089675979
 30
0.0
 11
146.5985866606281
 21
45.35122089675979
 31
0.0
  0
LINE
  5
3EBA
330
1E
100
AcDbEntity
  8
AM_VIS
100
AcDbLine
 10
150.7915327689235
 20
35.53626632053619
 30
0.0
 11
146.5985866606281
 21
35.53626632053619
 31
0.0
  0
SPLINE
  5
3EBB
330
1E
100
AcDbEntity
  8
AM_VIS
100
AcDbSpline
210
0.0
220
-0.0000000000000004
230
1.0
 70
    12
 71
     2
 72
     6
 73
     3
 74
     0
 42
0.0000000001
 43
0.0000000001
 40
4.49144585754726
 40
4.49144585754726
 40
4.49144585754726
 40
16.56403640559105
 40
16.56403640559105
 40
16.56403640559105
 10
146.598586660628
 20
50.25869818487166
 30
0.0
 41
1.187554132852486
 10
145.1819199939614
 20
47.80495954081568
 30
0.0
 41
1.371269396559269
 10
146.5985866606281
 20
45.35122089675991
 30
-0.0000000000000018
 41
1.187554132852484
  0
SPLINE
  5
3EBC
330
1E
100
AcDbEntity
  8
AM_VIS
100
AcDbSpline
210
0.0
220
0.0000000000000002
230
1.0
 70
    12
 71
     2
 72
     6
 73
     3
 74
     0
 42
0.0000000001
 43
0.0000000001
 40
4.491445857547209
 40
4.491445857547209
 40
4.491445857547209
 40
16.56403640559099
 40
16.56403640559099
 40
16.56403640559099
 10
146.5985866606281
 20
45.35122089675968
 30
-0.0000000000000018
 41
1.187554132852485
 10
145.1819199939615
 20
40.44374360864805
 30
0.0
 41
1.371269396559269
 10
146.5985866606281
 20
35.53626632053619
 30
0.0
 41
1.187554132852485
  0
SPLINE
  5
3EBD
330
1E
100
AcDbEntity
  8
AM_VIS
100
AcDbSpline
210
0.0
220
0.0000000000000004
230
1.0
 70
    12
 71
     2
 72
     6
 73
     3
 74
     0
 42
0.0000000001
 43
0.0000000001
 40
4.4914458575472
 40
4.4914458575472
 40
4.4914458575472
 40
16.56403640559101
 40
16.56403640559101
 40
16.56403640559101
 10
146.5985866606281
 20
35.53626632053619
 30
0.0
 41
1.187554132852485
 10
145.1819199939614
 20
33.0825276764802
 30
0.0
 41
1.371269396559271
 10
146.598586660628
 20
30.62878903242432
 30
0.0000000000000018
 41
1.187554132852488
  0
LINE
  5
3EBE
330
1E
100
AcDbEntity
  8
AM_VIS
100
AcDbLine
 10
150.7915327689236
 20
30.62878903242432
 30
0.0
 11
146.5985866606281
 21
30.62878903242432
 31
0.0
  0
LINE
  5
3EBF
330
1E
100
AcDbEntity
  8
AM_VIS
100
AcDbLine
 10
150.7915327689235
 20
50.25869818487166
 30
0.0
 11
146.5985866606281
 21
50.25869818487166
 31
0.0
  0
SPLINE
  5
3EC0
330
1E
100
AcDbEntity
  8
AM_VIS
100
AcDbSpline
210
0.0
220
0.0
230
1.0
 70
    12
 71
     2
 72
     6
 73
     3
 74
     0
 42
0.0000000001
 43
0.0000000001
 40
4.491445857547239
 40
4.491445857547239
 40
4.491445857547239
 40
16.56403640559101
 40
16.56403640559101
 40
16.56403640559101
 10
150.7915327689235
 20
35.53626632053619
 30
0.0
 41
1.187554132852485
 10
152.2081994355902
 20
40.44374360864805
 30
0.0
 41
1.371269396559269
 10
150.7915327689237
 20
45.3512208967598
 30
0.0
 41
1.187554132852485
  0
SPLINE
  5
3EC1
330
1E
100
AcDbEntity
  8
AM_VIS
100
AcDbSpline
210
0.0
220
0.0000000000000004
230
1.0
 70
    12
 71
     2
 72
     6
 73
     3
 74
     0
 42
0.0000000001
 43
0.0000000001
 40
4.4914458575472
 40
4.4914458575472
 40
4.4914458575472
 40
16.56403640559099
 40
16.56403640559099
 40
16.56403640559099
 10
150.7915327689234
 20
45.35122089675968
 30
0.0
 41
1.187554132852485
 10
152.2081994355902
 20
47.80495954081579
 30
-0.0000000000000018
 41
1.371269396559269
 10
150.7915327689235
 20
50.25869818487168
 30
-0.0000000000000018
 41
1.187554132852487
  0
SPLINE
  5
3EC2
330
1E
100
AcDbEntity
  8
AM_VIS
100
AcDbSpline
210
0.0
220
-0.0000000000000004
230
1.0
 70
    12
 71
     2
 72
     6
 73
     3
 74
     0
 42
0.0000000001
 43
0.0000000001
 40
4.491445857547289
 40
4.491445857547289
 40
4.491445857547289
 40
16.5640364055911
 40
16.5640364055911
 40
16.5640364055911
 10
150.7915327689236
 20
30.62878903242444
 30
0.0
 41
1.187554132852489
 10
152.2081994355902
 20
33.08252767648023
 30
-0.0000000000000018
 41
1.371269396559273
 10
150.7915327689235
 20
35.53626632053629
 30
0.0000000000000018
 41
1.187554132852486
  0
LINE
  5
3EC3
330
1E
100
AcDbEntity
  8
AM_VIS
100
AcDbLine
 10
139.6950597147759
 20
48.69374360864805
 30
0.0
 11
139.6950597147759
 21
32.19374360864805
 31
0.0
  0
LINE
  5
3EC4
330
1E
100
AcDbEntity
  8
AM_VIS
100
AcDbLine
 10
145.6950597147758
 20
32.19374360864805
 30
0.0
 11
145.6950597147758
 21
48.69374360864805
 31
0.0
  0
LINE
  5
3EC5
330
1E
100
AcDbEntity
  8
AM_VIS
100
AcDbLine
 10
139.6950597147759
 20
32.19374360864805
 30
0.0
 11
140.598586660628
 21
30.62878903242432
 31
0.0
  0
LINE
  5
3EC6
330
1E
100
AcDbEntity
  8
AM_VIS
100
AcDbLine
 10
139.6950597147759
 20
48.69374360864805
 30
0.0
 11
140.5985866606281
 21
50.25869818487166
 31
0.0
  0
LINE
  5
3EC7
330
1E
100
AcDbEntity
  8
AM_VIS
100
AcDbLine
 10
145.6950597147758
 20
48.69374360864805
 30
0.0
 11
144.7915327689235
 21
50.25869818487166
 31
0.0
  0
LINE
  5
3EC8
330
1E
100
AcDbEntity
  8
AM_VIS
100
AcDbLine
 10
145.6950597147758
 20
32.19374360864805
 30
0.0
 11
144.7915327689236
 21
30.62878903242432
 31
0.0
  0
LINE
  5
3EC9
330
1E
100
AcDbEntity
  8
AM_VIS
100
AcDbLine
 10
144.7915327689235
 20
45.35122089675979
 30
0.0
 11
140.5985866606281
 21
45.35122089675979
 31
0.0
  0
LINE
  5
3ECA
330
1E
100
AcDbEntity
  8
AM_VIS
100
AcDbLine
 10
144.7915327689235
 20
35.53626632053619
 30
0.0
 11
140.5985866606281
 21
35.53626632053619
 31
0.0
  0
SPLINE
  5
3ECB
330
1E
100
AcDbEntity
  8
AM_VIS
100
AcDbSpline
210
0.0
220
0.0000000000000004
230
1.0
 70
    12
 71
     2
 72
     6
 73
     3
 74
     0
 42
0.0000000001
 43
0.0000000001
 40
4.49144585754726
 40
4.49144585754726
 40
4.49144585754726
 40
16.56403640559105
 40
16.56403640559105
 40
16.56403640559105
 10
140.5985866606281
 20
50.25869818487166
 30
-0.0000000000000018
 41
1.187554132852486
 10
139.1819199939615
 20
47.80495954081568
 30
0.0
 41
1.371269396559269
 10
140.598586660628
 20
45.35122089675991
 30
0.0
 41
1.187554132852484
  0
SPLINE
  5
3ECC
330
1E
100
AcDbEntity
  8
AM_VIS
100
AcDbSpline
210
0.0
220
0.0000000000000002
230
1.0
 70
    12
 71
     2
 72
     6
 73
     3
 74
     0
 42
0.0000000001
 43
0.0000000001
 40
4.491445857547209
 40
4.491445857547209
 40
4.491445857547209
 40
16.56403640559099
 40
16.56403640559099
 40
16.56403640559099
 10
140.598586660628
 20
45.35122089675968
 30
0.0
 41
1.187554132852485
 10
139.1819199939614
 20
40.44374360864805
 30
0.0
 41
1.371269396559269
 10
140.5985866606281
 20
35.53626632053619
 30
0.0000000000000018
 41
1.187554132852485
  0
SPLINE
  5
3ECD
330
1E
100
AcDbEntity
  8
AM_VIS
100
AcDbSpline
210
0.0
220
-0.0000000000000004
230
1.0
 70
    12
 71
     2
 72
     6
 73
     3
 74
     0
 42
0.0000000001
 43
0.0000000001
 40
4.4914458575472
 40
4.4914458575472
 40
4.4914458575472
 40
16.56403640559101
 40
16.56403640559101
 40
16.56403640559101
 10
140.5985866606281
 20
35.53626632053619
 30
0.0000000000000018
 41
1.187554132852485
 10
139.1819199939614
 20
33.0825276764802
 30
0.0000000000000018
 41
1.371269396559271
 10
140.598586660628
 20
30.62878903242432
 30
0.0
 41
1.187554132852488
  0
LINE
  5
3ECE
330
1E
100
AcDbEntity
  8
AM_VIS
100
AcDbLine
 10
144.7915327689236
 20
30.62878903242432
 30
0.0
 11
140.5985866606281
 21
30.62878903242432
 31
0.0
  0
LINE
  5
3ECF
330
1E
100
AcDbEntity
  8
AM_VIS
100
AcDbLine
 10
144.7915327689235
 20
50.25869818487166
 30
0.0
 11
140.5985866606281
 21
50.25869818487166
 31
0.0
  0
SPLINE
  5
3ED0
330
1E
100
AcDbEntity
  8
AM_VIS
100
AcDbSpline
210
0.0
220
0.0000000000000002
230
1.0
 70
    12
 71
     2
 72
     6
 73
     3
 74
     0
 42
0.0000000001
 43
0.0000000001
 40
4.491445857547239
 40
4.491445857547239
 40
4.491445857547239
 40
16.56403640559101
 40
16.56403640559101
 40
16.56403640559101
 10
144.7915327689236
 20
35.53626632053619
 30
0.0
 41
1.187554132852485
 10
146.2081994355901
 20
40.44374360864805
 30
0.0
 41
1.371269396559269
 10
144.7915327689236
 20
45.3512208967598
 30
-0.0000000000000018
 41
1.187554132852485
  0
SPLINE
  5
3ED1
330
1E
100
AcDbEntity
  8
AM_VIS
100
AcDbSpline
210
0.0
220
-0.0000000000000004
230
1.0
 70
    12
 71
     2
 72
     6
 73
     3
 74
     0
 42
0.0000000001
 43
0.0000000001
 40
4.4914458575472
 40
4.4914458575472
 40
4.4914458575472
 40
16.56403640559099
 40
16.56403640559099
 40
16.56403640559099
 10
144.7915327689233
 20
45.35122089675968
 30
-0.0000000000000018
 41
1.187554132852485
 10
146.2081994355902
 20
47.80495954081579
 30
0.0
 41
1.371269396559269
 10
144.7915327689235
 20
50.25869818487168
 30
0.0
 41
1.187554132852487
  0
SPLINE
  5
3ED2
330
1E
100
AcDbEntity
  8
AM_VIS
100
AcDbSpline
210
0.0
220
0.0
230
1.0
 70
    12
 71
     2
 72
     6
 73
     3
 74
     0
 42
0.0000000001
 43
0.0000000001
 40
4.491445857547289
 40
4.491445857547289
 40
4.491445857547289
 40
16.5640364055911
 40
16.5640364055911
 40
16.5640364055911
 10
144.7915327689235
 20
30.62878903242444
 30
0.0
 41
1.187554132852489
 10
146.2081994355902
 20
33.08252767648023
 30
0.0
 41
1.371269396559273
 10
144.7915327689233
 20
35.53626632053629
 30
0.0
 41
1.187554132852486
  0
LINE
  5
3ED3
330
1E
100
AcDbEntity
  8
AM_VIS
100
AcDbLine
 10
197.1950597147759
 20
40.44374360864805
 30
0.0
 11
197.1950597147759
 21
54.19374360864805
 31
0.0
  0
LINE
  5
3ED4
330
1E
100
AcDbEntity
  8
AM_VIS
100
AcDbLine
 10
197.1950597147759
 20
26.69374360864805
 30
0.0
 11
197.1950597147759
 21
40.44374360864805
 31
0.0
  0
LINE
  5
3ED5
330
1E
100
AcDbEntity
  8
AM_VIS
100
AcDbLine
 10
163.1950597147759
 20
40.44374360864805
 30
0.0
 11
163.1950597147759
 21
27.44374360864805
 31
0.0
  0
LINE
  5
3ED7
330
1E
100
AcDbEntity
  8
AM_VIS
100
AcDbLine
 10
162.6950597147759
 20
40.44374360864805
 30
0.0
 11
162.6950597147759
 21
52.94374360864805
 31
0.0
  0
LINE
  5
3ED8
330
1E
100
AcDbEntity
  8
AM_VIS
100
AcDbLine
 10
162.6950597147759
 20
27.94374360864805
 30
0.0
 11
162.6950597147759
 21
40.44374360864805
 31
0.0
  0
LINE
  5
3ED9
330
1E
100
AcDbEntity
  8
AM_VIS
100
AcDbLine
 10
197.1950597147759
 20
54.19374360864805
 30
0.0
 11
194.6950597147758
 21
54.19374360864805
 31
0.0
  0
LINE
  5
3EDA
330
1E
100
AcDbEntity
  8
AM_VIS
100
AcDbLine
 10
197.1950597147759
 20
26.69374360864805
 30
0.0
 11
194.6950597147758
 21
26.69374360864805
 31
0.0
  0
LINE
  5
3EDB
330
1E
100
AcDbEntity
  8
AM_VIS
100
AcDbLine
 10
165.6950597147759
 20
53.44374360864804
 30
0.0
 11
163.1950597147759
 21
53.44374360864804
 31
0.0
  0
LINE
  5
3EDC
330
1E
100
AcDbEntity
  8
AM_VIS
100
AcDbLine
 10
165.6950597147759
 20
27.44374360864805
 30
0.0
 11
163.1950597147759
 21
27.44374360864805
 31
0.0
  0
LINE
  5
3EDD
330
1E
100
AcDbEntity
  8
AM_VIS
100
AcDbLine
 10
162.6950597147759
 20
27.94374360864805
 30
0.0
 11
163.1950597147759
 21
27.44374360864805
 31
0.0
  0
LINE
  5
3EDE
330
1E
100
AcDbEntity
  8
AM_VIS
100
AcDbLine
 10
162.6950597147759
 20
52.94374360864805
 30
0.0
 11
163.1950597147759
 21
53.44374360864804
 31
0.0
  0
LINE
  5
3EDF
330
1E
100
AcDbEntity
  8
AM_VIS
100
AcDbLine
 10
194.6950597147758
 20
58.44374360864804
 30
0.0
 11
165.6950597147759
 21
58.44374360864804
 31
0.0
  0
LINE
  5
3EE0
330
1E
100
AcDbEntity
  8
AM_VIS
100
AcDbLine
 10
165.6950597147759
 20
58.44374360864804
 30
0.0
 11
165.6950597147759
 21
57.44374360864805
 31
0.0
  0
LINE
  5
3EE1
330
1E
100
AcDbEntity
  8
AM_VIS
100
AcDbLine
 10
165.6950597147759
 20
57.44374360864805
 30
0.0
 11
165.6950597147759
 21
23.44374360864805
 31
0.0
  0
LINE
  5
3EE2
330
1E
100
AcDbEntity
  8
AM_VIS
100
AcDbLine
 10
165.6950597147759
 20
57.44374360864805
 30
0.0
 11
194.6950597147758
 21
57.44374360864805
 31
0.0
  0
LINE
  5
3EE3
330
1E
100
AcDbEntity
  8
AM_VIS
100
AcDbLine
 10
194.6950597147758
 20
23.44374360864805
 30
0.0
 11
165.6950597147759
 21
23.44374360864805
 31
0.0
  0
LINE
  5
3EE4
330
1E
100
AcDbEntity
  8
AM_VIS
100
AcDbLine
 10
165.6950597147759
 20
23.44374360864805
 30
0.0
 11
165.6950597147759
 21
22.44374360864805
 31
0.0
  0
LINE
  5
3EE5
330
1E
100
AcDbEntity
  8
AM_VIS
100
AcDbLine
 10
165.6950597147759
 20
22.44374360864805
 30
0.0
 11
194.6950597147758
 21
22.44374360864805
 31
0.0
  0
LINE
  5
3EE6
330
1E
100
AcDbEntity
  8
AM_VIS
100
AcDbLine
 10
194.6950597147758
 20
22.44374360864805
 30
0.0
 11
194.6950597147758
 21
23.44374360864805
 31
0.0
  0
LINE
  5
3EE7
330
1E
100
AcDbEntity
  8
AM_VIS
100
AcDbLine
 10
194.6950597147758
 20
57.44374360864805
 30
0.0
 11
194.6950597147758
 21
23.44374360864805
 31
0.0
  0
LINE
  5
3EE8
330
1E
100
AcDbEntity
  8
AM_VIS
100
AcDbLine
 10
194.6950597147758
 20
57.44374360864805
 30
0.0
 11
194.6950597147758
 21
58.44374360864804
 31
0.0
  0
LINE
  5
3EE9
330
1E
100
AcDbEntity
  8
AM_VIS
100
AcDbLine
 10
241.6950597147759
 20
25.94374360864805
 30
0.0
 11
241.6950597147759
 21
54.94374360864805
 31
0.0
  0
LINE
  5
3EEA
330
1E
100
AcDbEntity
  8
AM_VIS
100
AcDbLine
 10
240.3960216090991
 20
55.44374360864805
 30
0.0
 11
240.3960216090991
 21
47.8977693665858
 31
0.0
  0
LINE
  5
3EEB
330
1E
100
AcDbEntity
  8
AM_VIS
100
AcDbLine
 10
224.1950597147759
 20
26.69374360864805
 30
0.0
 11
224.1950597147759
 21
54.19374360864805
 31
0.0
  0
LINE
  5
3EEC
330
1E
100
AcDbEntity
  8
AM_VIS
100
AcDbLine
 10
240.3960216090991
 20
32.98971785071018
 30
0.0
 11
240.3960216090991
 21
25.44374360864805
 31
0.0
  0
LINE
  5
3EED
330
1E
100
AcDbEntity
  8
AM_VIS
100
AcDbLine
 10
226.6950597147759
 20
54.94374360864805
 30
0.0
 11
226.6950597147759
 21
25.94374360864805
 31
0.0
  0
LINE
  5
3EEE
330
1E
100
AcDbEntity
  8
AM_VIS
100
AcDbLine
 10
227.9940978204525
 20
25.44374360864805
 30
0.0
 11
227.9940978204525
 21
32.98971785071018
 31
0.0
  0
LINE
  5
3EEF
330
1E
100
AcDbEntity
  8
AM_VIS
100
AcDbLine
 10
227.9940978204525
 20
47.8977693665858
 30
0.0
 11
227.9940978204525
 21
55.44374360864805
 31
0.0
  0
LINE
  5
3EF0
330
1E
100
AcDbEntity
  8
AM_VIS
100
AcDbLine
 10
241.6950597147759
 20
54.94374360864805
 30
0.0
 11
241.406384580181
 21
55.44374360864805
 31
0.0
  0
LINE
  5
3EF1
330
1E
100
AcDbEntity
  8
AM_VIS
100
AcDbLine
 10
241.6950597147759
 20
25.94374360864805
 30
0.0
 11
241.406384580181
 21
25.44374360864805
 31
0.0
  0
LINE
  5
3EF2
330
1E
100
AcDbEntity
  8
AM_VIS
100
AcDbLine
 10
226.6950597147759
 20
54.19374360864805
 30
0.0
 11
224.1950597147759
 21
54.19374360864805
 31
0.0
  0
LINE
  5
3EF3
330
1E
100
AcDbEntity
  8
AM_VIS
100
AcDbLine
 10
226.6950597147759
 20
26.69374360864805
 30
0.0
 11
224.1950597147759
 21
26.69374360864805
 31
0.0
  0
LINE
  5
3EF4
330
1E
100
AcDbEntity
  8
AM_VIS
100
AcDbLine
 10
226.6950597147759
 20
25.94374360864805
 30
0.0
 11
226.9837348493707
 21
25.44374360864805
 31
0.0
  0
LINE
  5
3EF5
330
1E
100
AcDbEntity
  8
AM_VIS
100
AcDbLine
 10
226.6950597147759
 20
54.94374360864805
 30
0.0
 11
226.9837348493707
 21
55.44374360864805
 31
0.0
  0
LINE
  5
3EF6
330
1E
100
AcDbEntity
  8
AM_VIS
100
AcDbLine
 10
227.9940978204525
 20
47.8977693665858
 30
0.0
 11
240.3960216090991
 21
47.8977693665858
 31
0.0
  0
SPLINE
  5
3EF7
330
1E
100
AcDbEntity
  8
AM_VIS
100
AcDbSpline
210
0.0
220
0.0
230
1.0
 70
    12
 71
     2
 72
     6
 73
     3
 74
     0
 42
0.0000000001
 43
0.0000000001
 40
0.0
 40
0.0
 40
0.0
 40
15.0443787951957
 40
15.0443787951957
 40
15.0443787951957
 10
240.3960216090991
 20
32.98971785071018
 30
0.0
 41
1.0
 10
242.3111872408513
 20
40.44374360864805
 30
0.0
 41
1.116666666666668
 10
240.3960216090991
 20
47.8977693665858
 30
0.0
 41
1.0
  0
LINE
  5
3EF8
330
1E
100
AcDbEntity
  8
AM_VIS
100
AcDbLine
 10
240.3960216090991
 20
25.44374360864805
 30
0.0
 11
241.406384580181
 21
25.44374360864805
 31
0.0
  0
LINE
  5
3EF9
330
1E
100
AcDbEntity
  8
AM_VIS
100
AcDbLine
 10
240.3960216090991
 20
32.98971785071018
 30
0.0
 11
227.9940978204525
 21
32.98971785071018
 31
0.0
  0
LINE
  5
3EFA
330
1E
100
AcDbEntity
  8
AM_VIS
100
AcDbLine
 10
227.9940978204525
 20
25.44374360864805
 30
0.0
 11
240.3960216090991
 21
25.44374360864805
 31
0.0
  0
LINE
  5
3EFB
330
1E
100
AcDbEntity
  8
AM_VIS
100
AcDbLine
 10
226.9837348493707
 20
25.44374360864805
 30
0.0
 11
227.9940978204525
 21
25.44374360864805
 31
0.0
  0
SPLINE
  5
3EFC
330
1E
100
AcDbEntity
  8
AM_VIS
100
AcDbSpline
210
0.0
220
0.0
230
1.0
 70
    12
 71
     2
 72
     6
 73
     3
 74
     0
 42
0.0000000001
 43
0.0000000001
 40
0.0
 40
0.0
 40
0.0
 40
15.0443787951957
 40
15.0443787951957
 40
15.0443787951957
 10
227.9940978204525
 20
47.8977693665858
 30
0.0
 41
1.0
 10
226.0789321887003
 20
40.44374360864805
 30
0.0000000000000018
 41
1.116666666666666
 10
227.9940978204525
 20
32.98971785071018
 30
0.0
 41
1.0
  0
LINE
  5
3EFD
330
1E
100
AcDbEntity
  8
AM_VIS
100
AcDbLine
 10
240.3960216090991
 20
55.44374360864805
 30
0.0
 11
241.406384580181
 21
55.44374360864805
 31
0.0
  0
LINE
  5
3EFE
330
1E
100
AcDbEntity
  8
AM_VIS
100
AcDbLine
 10
240.3960216090991
 20
55.44374360864805
 30
0.0
 11
227.9940978204525
 21
55.44374360864805
 31
0.0
  0
LINE
  5
3EFF
330
1E
100
AcDbEntity
  8
AM_VIS
100
AcDbLine
 10
226.9837348493707
 20
55.44374360864805
 30
0.0
 11
227.9940978204525
 21
55.44374360864805
 31
0.0
  0
LINE
  5
3F00
330
1E
100
AcDbEntity
  8
AM_7
100
AcDbLine
 10
284.9626759516214
 20
42.243743608648
 30
0.0
 11
284.9626759516214
 21
58.79374360864796
 31
0.0
  0
LINE
  5
3F01
330
1E
100
AcDbEntity
  8
AM_7
100
AcDbLine
 10
284.9626759516214
 20
22.09374360864803
 30
0.0
 11
284.9626759516214
 21
38.64374360864798
 31
0.0
  0
LINE
  5
3F02
330
1E
100
AcDbEntity
  8
AM_7
100
AcDbLine
 10
286.7626759516213
 20
40.44374360864805
 30
0.0
 11
303.3126759516214
 21
40.44374360864805
 31
0.0
  0
LINE
  5
3F03
330
1E
100
AcDbEntity
  8
AM_7
100
AcDbLine
 10
266.6126759516213
 20
40.44374360864805
 30
0.0
 11
283.1626759516214
 21
40.44374360864805
 31
0.0
  0
LINE
  5
3F04
330
1E
100
AcDbEntity
  8
AM_7
100
AcDbLine
 10
284.9626759516214
 20
39.44374360864805
 30
0.0
 11
284.9626759516214
 21
41.44374360864804
 31
0.0
  0
LINE
  5
3F05
330
1E
100
AcDbEntity
  8
AM_7
100
AcDbLine
 10
283.9626759516213
 20
40.44374360864805
 30
0.0
 11
285.9626759516213
 21
40.44374360864805
 31
0.0
  0
LINE
  5
3F06
330
1E
100
AcDbEntity
  8
AM_7
100
AcDbLine
 10
72.25606943891228
 20
42.243743608648
 30
0.0
 11
72.25606943891228
 21
55.04374360864796
 31
0.0
  0
LINE
  5
3F07
330
1E
100
AcDbEntity
  8
AM_7
100
AcDbLine
 10
72.25606943891228
 20
25.84374360864803
 30
0.0
 11
72.25606943891228
 21
38.64374360864798
 31
0.0
  0
LINE
  5
3F08
330
1E
100
AcDbEntity
  8
AM_7
100
AcDbLine
 10
74.05606943891228
 20
40.44374360864805
 30
0.0
 11
86.8560694389123
 21
40.44374360864805
 31
0.0
  0
LINE
  5
3F09
330
1E
100
AcDbEntity
  8
AM_7
100
AcDbLine
 10
57.65606943891225
 20
40.44374360864805
 30
0.0
 11
70.45606943891226
 21
40.44374360864805
 31
0.0
  0
LINE
  5
3F0A
330
1E
100
AcDbEntity
  8
AM_7
100
AcDbLine
 10
72.25606943891228
 20
39.44374360864805
 30
0.0
 11
72.25606943891228
 21
41.44374360864804
 31
0.0
  0
LINE
  5
3F0B
330
1E
100
AcDbEntity
  8
AM_7
100
AcDbLine
 10
71.25606943891227
 20
40.44374360864805
 30
0.0
 11
73.25606943891227
 21
40.44374360864805
 31
0.0
  0
LINE
  5
3F0E
330
1E
100
AcDbEntity
  8
AM_7
100
AcDbLine
 10
177.6950597147759
 20
125.7522240279637
 30
0.0
 11
177.6950597147759
 21
131.0522240279636
 31
0.0
  0
LINE
  5
3F0F
330
1E
100
AcDbEntity
  8
AM_7
100
AcDbLine
 10
177.6950597147759
 20
116.8522240279637
 30
0.0
 11
177.6950597147759
 21
122.1522240279636
 31
0.0
  0
LINE
  5
3F10
330
1E
100
AcDbEntity
  8
AM_7
100
AcDbLine
 10
179.4950597147758
 20
123.9522240279636
 30
0.0
 11
184.7950597147758
 21
123.9522240279636
 31
0.0
  0
LINE
  5
3F11
330
1E
100
AcDbEntity
  8
AM_7
100
AcDbLine
 10
170.5950597147758
 20
123.9522240279636
 30
0.0
 11
175.8950597147758
 21
123.9522240279636
 31
0.0
  0
LINE
  5
3F12
330
1E
100
AcDbEntity
  8
AM_7
100
AcDbLine
 10
177.6950597147759
 20
122.9522240279636
 30
0.0
 11
177.6950597147759
 21
124.9522240279636
 31
0.0
  0
LINE
  5
3F13
330
1E
100
AcDbEntity
  8
AM_7
100
AcDbLine
 10
176.6950597147759
 20
123.9522240279636
 30
0.0
 11
178.6950597147759
 21
123.9522240279636
 31
0.0
  0
LINE
  5
3F14
330
1E
100
AcDbEntity
  8
AM_7
100
AcDbLine
 10
177.6950597147759
 20
100.7522240279637
 30
0.0
 11
177.6950597147759
 21
106.0522240279636
 31
0.0
  0
LINE
  5
3F15
330
1E
100
AcDbEntity
  8
AM_7
100
AcDbLine
 10
177.6950597147759
 20
91.8522240279637
 30
0.0
 11
177.6950597147759
 21
97.15222402796365
 31
0.0
  0
LINE
  5
3F16
330
1E
100
AcDbEntity
  8
AM_7
100
AcDbLine
 10
179.4950597147758
 20
98.95222402796362
 30
0.0
 11
184.7950597147758
 21
98.95222402796362
 31
0.0
  0
LINE
  5
3F17
330
1E
100
AcDbEntity
  8
AM_7
100
AcDbLine
 10
170.5950597147758
 20
98.95222402796362
 30
0.0
 11
175.8950597147758
 21
98.95222402796362
 31
0.0
  0
LINE
  5
3F18
330
1E
100
AcDbEntity
  8
AM_7
100
AcDbLine
 10
177.6950597147759
 20
97.95222402796362
 30
0.0
 11
177.6950597147759
 21
99.95222402796361
 31
0.0
  0
LINE
  5
3F19
330
1E
100
AcDbEntity
  8
AM_7
100
AcDbLine
 10
176.6950597147759
 20
98.95222402796362
 30
0.0
 11
178.6950597147759
 21
98.95222402796362
 31
0.0
  0
LINE
  5
3F1A
330
1E
100
AcDbEntity
  8
AM_7
100
AcDbLine
 10
187.6950597147759
 20
113.2522240279637
 30
0.0
 11
187.6950597147759
 21
118.0522240279636
 31
0.0
  0
LINE
  5
3F1B
330
1E
100
AcDbEntity
  8
AM_7
100
AcDbLine
 10
187.6950597147759
 20
104.8522240279637
 30
0.0
 11
187.6950597147759
 21
109.6522240279636
 31
0.0
  0
LINE
  5
3F1C
330
1E
100
AcDbEntity
  8
AM_7
100
AcDbLine
 10
189.4950597147758
 20
111.4522240279636
 30
0.0
 11
194.2950597147758
 21
111.4522240279636
 31
0.0
  0
LINE
  5
3F1D
330
1E
100
AcDbEntity
  8
AM_7
100
AcDbLine
 10
181.0950597147758
 20
111.4522240279636
 30
0.0
 11
185.8950597147758
 21
111.4522240279636
 31
0.0
  0
LINE
  5
3F1E
330
1E
100
AcDbEntity
  8
AM_7
100
AcDbLine
 10
187.6950597147759
 20
110.4522240279636
 30
0.0
 11
187.6950597147759
 21
112.4522240279636
 31
0.0
  0
LINE
  5
3F1F
330
1E
100
AcDbEntity
  8
AM_7
100
AcDbLine
 10
186.6950597147759
 20
111.4522240279636
 30
0.0
 11
188.6950597147759
 21
111.4522240279636
 31
0.0
  0
LINE
  5
3F20
330
1E
100
AcDbEntity
  8
AM_7
100
AcDbLine
 10
233.6950597147759
 20
113.2522240279637
 30
0.0
 11
233.6950597147759
 21
117.0522240279636
 31
0.0
  0
LINE
  5
3F21
330
1E
100
AcDbEntity
  8
AM_7
100
AcDbLine
 10
233.6950597147759
 20
105.8522240279637
 30
0.0
 11
233.6950597147759
 21
109.6522240279636
 31
0.0
  0
LINE
  5
3F22
330
1E
100
AcDbEntity
  8
AM_7
100
AcDbLine
 10
235.4950597147758
 20
111.4522240279636
 30
0.0
 11
239.2950597147758
 21
111.4522240279636
 31
0.0
  0
LINE
  5
3F23
330
1E
100
AcDbEntity
  8
AM_7
100
AcDbLine
 10
228.0950597147759
 20
111.4522240279636
 30
0.0
 11
231.8950597147758
 21
111.4522240279636
 31
0.0
  0
LINE
  5
3F24
330
1E
100
AcDbEntity
  8
AM_7
100
AcDbLine
 10
233.6950597147759
 20
110.4522240279636
 30
0.0
 11
233.6950597147759
 21
112.4522240279636
 31
0.0
  0
LINE
  5
3F25
330
1E
100
AcDbEntity
  8
AM_7
100
AcDbLine
 10
232.6950597147759
 20
111.4522240279636
 30
0.0
 11
234.6950597147759
 21
111.4522240279636
 31
0.0
  0
LINE
  5
3F26
330
1E
100
AcDbEntity
  8
AM_7
100
AcDbLine
 10
243.2950597147758
 20
111.4522240279637
 30
0.0
 11
134.0950597147758
 21
111.4522240279636
 31
0.0
  0
LINE
  5
3F27
330
1E
100
AcDbEntity
  8
AM_7
100
AcDbLine
 10
243.2950597147758
 20
40.44374360864805
 30
0.0
 11
134.0950597147758
 21
40.44374360864805
 31
0.0
  0
LINE
  5
3F2D
330
1E
100
AcDbEntity
  8
AM_7
100
AcDbLine
 10
177.6950597147757
 20
59.90484098287635
 30
0.0
 11
177.6950597147757
 21
46.08921943346354
 31
0.0
1001
GENIUS_GENODEF_13
1002
{
1000
HIER
1070
     0
1002
}
1002
{
1000
MANEDIT
1070
     0
1002
}
1002
{
1000
NOSEL
1070
     0
1002
}
1002
{
1000
BEHIND
1070
     0
1002
}
1002
{
1000
OTHER
1070
     0
1002
}
1002
{
1000
REACTOR
1002
}
1001
GENIUS_GENOBJ-N-CEN_13
1002
{
1000
OWNER
1000
GEN
1002
}
  0
DIMENSION
  5
3F3A
330
1E
100
AcDbEntity
  8
AM_5
100
AcDbDimension
  2
*D9
 10
99.73106102277814
 20
40.44374360864805
 30
0.0
 11
97.43106102277813
 21
31.44374360864806
 31
0.0
 70
    32
 71
     5
 42
18.0
  3
AM_ISO
100
AcDbAlignedDimension
 13
90.75606943891228
 23
22.44374360864805
 33
0.0
 14
86.8560694389123
 24
40.44374360864805
 34
0.0
 50
90.0
100
AcDbRotatedDimension
  0
DIMENSION
  5
3F3B
330
1E
100
AcDbEntity
  8
AM_5
100
AcDbDimension
  2
*D10
 10
105.7310610227781
 20
58.44374360864804
 30
0.0
 11
103.4310610227781
 21
40.44374360864806
 31
0.0
 70
    32
 71
     5
 42
36.0
  3
AM_ISO
100
AcDbAlignedDimension
 13
90.75606943891228
 23
22.44374360864805
 33
0.0
 14
90.75606943891228
 24
58.44374360864804
 34
0.0
 50
90.0
100
AcDbRotatedDimension
  0
LINE
  5
3F3C
330
1E
100
AcDbEntity
  8
AM_VIS
100
AcDbLine
 10
162.1950597147758
 20
115.9522240279636
 30
0.0
 11
156.6950597147759
 21
115.9522240279636
 31
0.0
  0
LINE
  5
3F3D
330
1E
100
AcDbEntity
  8
AM_VIS
100
AcDbLine
 10
156.6950597147759
 20
106.9522240279636
 30
0.0
 11
162.1950597147758
 21
106.9522240279636
 31
0.0
  0
LINE
  5
3F3E
330
1E
100
AcDbEntity
  8
AM_VIS
100
AcDbLine
 10
156.6950597147759
 20
106.9522240279636
 30
0.0
 11
156.6950597147759
 21
115.9522240279636
 31
0.0
  0
LINE
  5
3F3F
330
1E
100
AcDbEntity
  8
AM_VIS
100
AcDbLine
 10
156.6950597147759
 20
106.9522240279636
 30
0.0
 11
155.4950597147758
 21
106.5522240279636
 31
0.0
  0
LINE
  5
3F40
330
1E
100
AcDbEntity
  8
AM_VIS
100
AcDbLine
 10
155.4950597147758
 20
116.3522240279637
 30
0.0
 11
156.6950597147759
 21
115.9522240279636
 31
0.0
  0
LINE
  5
3F41
330
1E
100
AcDbEntity
  8
AM_VIS
100
AcDbLine
 10
162.6950597147757
 20
106.785557361297
 30
0.0
 11
162.1950597147757
 21
106.9522240279636
 31
0.0
  0
LINE
  5
3F42
330
1E
100
AcDbEntity
  8
AM_VIS
100
AcDbLine
 10
162.1950597147758
 20
115.9522240279636
 30
0.0
 11
162.6950597147759
 21
116.1188906946303
 31
0.0
  0
LINE
  5
3F43
330
1E
100
AcDbEntity
  8
AM_VIS
100
AcDbLine
 10
156.6950597147759
 20
35.44374360864805
 30
0.0
 11
156.6950597147759
 21
38.26429413687771
 31
0.0
  0
LINE
  5
3F44
330
1E
100
AcDbEntity
  8
AM_VIS
100
AcDbLine
 10
162.6950597147759
 20
35.44374360864805
 30
0.0
 11
156.6950597147759
 21
35.44374360864805
 31
0.0
  0
LINE
  5
3F45
330
1E
100
AcDbEntity
  8
AM_VIS
100
AcDbLine
 10
162.1950597147758
 20
38.26429413687771
 30
0.0
 11
156.6950597147759
 21
38.26429413687771
 31
0.0
  0
LINE
  5
3F46
330
1E
100
AcDbEntity
  8
AM_VIS
100
AcDbLine
 10
162.6950597147759
 20
45.44374360864805
 30
0.0
 11
156.6950597147759
 21
45.44374360864805
 31
0.0
  0
LINE
  5
3F47
330
1E
100
AcDbEntity
  8
AM_VIS
100
AcDbLine
 10
156.6950597147759
 20
42.62319308041838
 30
0.0
 11
162.1950597147758
 21
42.62319308041838
 31
0.0
  0
LINE
  5
3F48
330
1E
100
AcDbEntity
  8
AM_VIS
100
AcDbLine
 10
156.6950597147759
 20
42.62319308041838
 30
0.0
 11
156.6950597147759
 21
45.44374360864805
 31
0.0
  0
LINE
  5
3F49
330
1E
100
AcDbEntity
  8
AM_VIS
100
AcDbLine
 10
156.6950597147759
 20
42.38281555161456
 30
0.0
 11
156.6950597147759
 21
42.62319308041838
 31
0.0
  0
LINE
  5
3F4A
330
1E
100
AcDbEntity
  8
AM_VIS
100
AcDbLine
 10
156.6950597147759
 20
38.26429413687771
 30
0.0
 11
156.6950597147759
 21
38.50467166568143
 31
0.0
  0
LINE
  5
3F4B
330
1E
100
AcDbEntity
  8
AM_VIS
100
AcDbLine
 10
156.6950597147759
 20
38.50467166568143
 30
0.0
 11
156.6950597147759
 21
42.38281555161456
 31
0.0
  0
ELLIPSE
  5
3F4C
330
1E
100
AcDbEntity
  8
AM_VIS
100
AcDbEllipse
 10
170.1950597147759
 20
40.44374360864805
 30
0.0
 11
-14.69999999999999
 21
0.0000000000000009
 31
0.0
210
0.0
220
0.0
230
1.0
 40
0.3333333333333307
 41
-0.4068614805421646
 42
0.4068614805421643
  0
ELLIPSE
  5
3F4D
330
1E
100
AcDbEntity
  8
AM_VIS
100
AcDbEllipse
 10
148.6950597147757
 20
40.44374360864805
 30
0.0
 11
-15.00000000000559
 21
0.0000000000098297
 31
0.0
210
0.0
220
0.0
230
1.0
 40
0.333333333333888
 41
3.508800674148814
 42
3.592619465387035
  0
ELLIPSE
  5
3F4E
330
1E
100
AcDbEntity
  8
AM_VIS
100
AcDbEllipse
 10
148.6950597147757
 20
40.44374360864805
 30
0.0
 11
15.00000000000379
 21
0.0000000000064591
 31
0.0
210
0.0
220
0.0
230
1.0
 40
0.3333333333336832
 41
-0.4510268117969256
 42
-0.3672080205587032
  0
LINE
  5
3F4F
330
1E
100
AcDbEntity
  8
AM_VIS
100
AcDbLine
 10
162.1950597147758
 20
42.62319308041838
 30
0.0
 11
162.1950597147758
 21
38.26429413687771
 31
0.0
  0
DIMENSION
  5
3F50
330
1E
100
AcDbEntity
  8
AM_5
100
AcDbDimension
  2
*D11
 10
165.6950597147759
 20
84.29352985829979
 30
0.0
 11
164.1950597147759
 21
86.59352985829979
 31
0.0
 70
    32
 71
     5
 42
3.0
  3
AM_ISO
100
AcDbAlignedDimension
 13
162.6950597147759
 23
98.95222402796362
 33
0.0
 14
165.6950597147759
 24
91.9522240279636
 34
0.0
100
AcDbRotatedDimension
1001
ACAD
1000
DSTYLE
1002
{
1070
   173
1070
     1
1070
     7
1000
GENDOT
1002
}
  0
DIMENSION
  5
3F51
330
1E
100
AcDbEntity
  8
AM_5
100
AcDbDimension
  2
*D12
 10
177.6950597147759
 20
84.29352985829991
 30
0.0
 11
171.6950597147758
 21
86.59382513389045
 31
0.0
 70
    32
 71
     5
 42
12.0
  3
AM_ISO
100
AcDbAlignedDimension
 13
165.6950597147759
 23
91.9522240279636
 33
0.0
 14
177.6950597147759
 24
91.8522240279637
 34
0.0
100
AcDbRotatedDimension
1001
ACAD
1000
DSTYLE
1002
{
1070
   173
1070
     1
1070
     6
1000
GENDOT
1002
}
  0
DIMENSION
  5
3F52
330
1E
100
AcDbEntity
  8
AM_5
100
AcDbDimension
  2
*D13
 10
194.6950597147758
 20
78.29352985829991
 30
0.0
 11
180.1950597147758
 21
80.59382513389046
 31
0.0
 70
    32
 71
     5
 42
29.0
  3
AM_ISO
100
AcDbAlignedDimension
 13
165.6950597147759
 23
91.9522240279636
 33
0.0
 14
194.6950597147758
 24
91.9522240279636
 34
0.0
100
AcDbRotatedDimension
  0
DIMENSION
  5
3F53
330
1E
100
AcDbEntity
  8
AM_5
100
AcDbDimension
  2
*D14
 10
187.6950597147759
 20
139.2054544746533
 30
0.0
 11
176.6950597147759
 21
141.5057497502438
 31
0.0
 70
    32
 71
     5
 42
22.0
  3
AM_ISO
100
AcDbAlignedDimension
 13
165.6950597147759
 23
130.9522240279636
 33
0.0
 14
187.6950597147759
 24
118.0522240279636
 34
0.0
100
AcDbRotatedDimension
  0
DIMENSION
  5
3F54
330
1E
100
AcDbEntity
  8
AM_5
100
AcDbDimension
  2
*D15
 10
156.6950597147759
 20
15.44374360864816
 30
0.0
 11
145.6950597147758
 21
17.74403888423871
 31
0.0
 70
    32
 71
     5
 42
22.0
  3
AM_ISO
100
AcDbAlignedDimension
 13
134.6950597147759
 23
36.54374360864796
 33
0.0
 14
156.6950597147759
 24
35.44374360864805
 34
0.0
100
AcDbRotatedDimension
  0
DIMENSION
  5
3F55
330
1E
100
AcDbEntity
  8
AM_5
100
AcDbDimension
  2
*D16
 10
165.6950597147759
 20
9.443743608648162
 30
0.0
 11
150.1950597147759
 21
11.74374360864816
 31
0.0
 70
    32
 71
     5
 42
31.0
  3
AM_ISO
100
AcDbAlignedDimension
 13
134.6950597147759
 23
35.54374360864796
 33
0.0
 14
165.6950597147759
 24
22.44374360864805
 34
0.0
100
AcDbRotatedDimension
  0
DIMENSION
  5
3F56
330
1E
100
AcDbEntity
  8
AM_5
100
AcDbDimension
  2
*D17
 10
241.6950597147759
 20
9.443743608648162
 30
0.0
 11
203.6950597147759
 21
11.74374360864816
 31
0.0
 70
    32
  1
<>+stroke
 71
     5
 42
76.0
  3
AM_ISO
100
AcDbAlignedDimension
 13
165.6950597147759
 23
22.44374360864805
 33
0.0
 14
241.6950597147759
 24
25.94374360864805
 34
0.0
100
AcDbRotatedDimension
  0
DIMENSION
  5
3F57
330
1E
100
AcDbEntity
  8
AM_5
100
AcDbDimension
  2
*D18
 10
241.6950597147759
 20
3.443743608648162
 30
0.0
 11
188.1950597147758
 21
5.743743608648163
 31
0.0
 70
    32
  1
<>+stroke
 71
     5
 42
107.0
  3
AM_ISO
100
AcDbAlignedDimension
 13
134.6950597147759
 23
36.54374360864796
 33
0.0
 14
241.6950597147759
 24
25.94374360864805
 34
0.0
100
AcDbRotatedDimension
  0
DIMENSION
  5
3F58
330
1E
100
AcDbEntity
  8
AM_5
100
AcDbDimension
  2
*D19
 10
299.9626759516214
 20
10.44374260864794
 30
0.0
 11
284.9626759516214
 21
12.74374260864794
 31
0.0
 70
    32
  1
{\Famgdt;o}<>
 71
     5
 42
30.0
  3
AM_ISO
100
AcDbAlignedDimension
 13
269.9626759516213
 23
32.98971785071018
 33
0.0
 14
299.9626759516214
 24
32.98971785071018
 34
0.0
100
AcDbRotatedDimension
  0
DIMENSION
  5
3F59
330
1E
100
AcDbEntity
  8
AM_5
100
AcDbDimension
  2
*D20
 10
129.2041502741815
 20
27.44374360864806
 30
0.0
 11
129.2041502741815
 21
40.44374360864805
 31
0.0
 70
   160
  1
%%c<>
 71
     5
 42
26.0
  3
AM_ISO
100
AcDbAlignedDimension
 13
163.1950597147759
 23
53.44374360864804
 33
0.0
 14
163.1950597147759
 24
27.44374360864805
 34
0.0
 50
90.0
100
AcDbRotatedDimension
1001
GENIUS_GENDTOL_13
1000
TolAcTol
1000

1000

1040
26.0
1001
ACAD
1000
DSTYLE
1002
{
1070
    47
1040
0.0
1070
    48
1040
0.033
1070
    71
1070
     1
1070
   272
1070
     3
1002
}
  0
DIMENSION
  5
3F5A
330
1E
100
AcDbEntity
  8
AM_5
100
AcDbDimension
  2
*D21
 10
159.5530026051049
 20
35.44374360864805
 30
0.0
 11
159.5530026051049
 21
60.55355618320828
 31
0.0
 70
   160
  1
%%c<>
 71
     5
 42
10.0
  3
AM_ISO
100
AcDbAlignedDimension
 13
162.6950597147759
 23
45.44374360864805
 33
0.0
 14
162.6950597147759
 24
35.44374360864805
 34
0.0
 50
90.0
100
AcDbRotatedDimension
  0
DIMENSION
  5
3F5B
330
1E
100
AcDbEntity
  8
AM_5
100
AcDbDimension
  2
*D22
 10
122.6950597147759
 20
123.9522240279636
 30
0.0
 11
120.3947644391853
 21
111.4522240279636
 31
0.0
 70
    32
 71
     5
 42
25.0
  3
AM_ISO
100
AcDbAlignedDimension
 13
170.5950597147758
 23
98.95222402796362
 33
0.0
 14
170.5950597147758
 24
123.9522240279636
 34
0.0
 50
90.0
100
AcDbRotatedDimension
  0
DIMENSION
  5
3F5C
330
1E
100
AcDbEntity
  8
AM_5
100
AcDbDimension
  2
*D23
 10
116.6950597147758
 20
130.9522240279636
 30
0.0
 11
114.3950597147758
 21
111.4522240279636
 31
0.0
 70
    32
 71
     5
 42
38.99999999999998
  3
AM_ISO
100
AcDbAlignedDimension
 13
165.6950597147759
 23
91.9522240279636
 33
0.0
 14
165.6950597147759
 24
130.9522240279636
 34
0.0
 50
90.0
100
AcDbRotatedDimension
  0
DIMENSION
  5
3F5D
330
1E
100
AcDbEntity
  8
AM_5
100
AcDbDimension
  2
*D24
 10
226.6950597147759
 20
88.07209105350166
 30
0.0
 11
234.1950597147759
 21
90.37209105350164
 31
0.0
 70
    32
 71
     5
 42
15.0
  3
AM_ISO
100
AcDbAlignedDimension
 13
241.6950597147759
 23
96.9522240279636
 33
0.0
 14
226.6950597147759
 24
96.9522240279636
 34
0.0
100
AcDbRotatedDimension
  0
DIMENSION
  5
3F5E
330
1E
100
AcDbEntity
  8
AM_5
100
AcDbDimension
  2
*D25
 10
233.6950597147759
 20
135.7820291432567
 30
0.0
 11
237.6950597147759
 21
138.0820291432567
 31
0.0
 70
    32
 71
     5
 42
8.0
  3
AM_ISO
100
AcDbAlignedDimension
 13
241.6950597147759
 23
125.9522240279636
 33
0.0
 14
233.6950597147759
 24
117.0522240279636
 34
0.0
100
AcDbRotatedDimension
  0
DIMENSION
  5
3F5F
330
1E
100
AcDbEntity
  8
AM_5
100
AcDbDimension
  2
*D26
 10
274.7260189121238
 20
27.18578929224958
 30
0.0
 11
308.2960997706274
 21
63.71917078846127
 31
0.0
 70
   163
 71
     5
 42
33.50000000000008
  3
AM_ISO$3
100
AcDbDiametricDimension
 15
295.1993329911193
 25
53.70169792504619
 35
0.0
 40
0.0
1001
ACAD
1000
DSTYLE
1002
{
1070
   141
1040
0.0
1070
   172
1070
     1
1002
}
  0
INSERT
  5
3F60
330
1E
100
AcDbEntity
  8
AM_5
100
AcDbBlockReference
  2
*S6
 10
24.91759179195492
 20
-126.5275422629571
 30
0.0
  0
TEXT
  5
3F61
330
1E
100
AcDbEntity
  8
AM_5
100
AcDbText
 10
114.9158244591904
 20
59.24021826551194
 30
0.0
 40
3.0
  1
M10x1.25
100
AcDbText
  0
LINE
  5
3F62
330
1E
100
AcDbEntity
  8
AM_VIS
100
AcDbLine
 10
154.1950597147758
 20
35.54374360864796
 30
0.0
 11
154.1950597147758
 21
45.34374360864791
 31
0.0
  0
LINE
  5
3F63
330
1E
100
AcDbEntity
  8
AM_VIS
100
AcDbLine
 10
156.6950597147759
 20
42.62319308041838
 30
0.0
 11
162.1950597147757
 21
38.26429413687771
 31
0.0
  0
LINE
  5
3F64
330
1E
100
AcDbEntity
  8
AM_VIS
100
AcDbLine
 10
162.1950597147757
 20
42.62319308041838
 30
0.0
 11
156.6950597147759
 21
38.26429413687771
 31
0.0
  0
LINE
  5
3F65
330
1E
100
AcDbEntity
  8
AM_VIS
 62
     3
100
AcDbLine
 10
135.1950597147759
 20
44.84374360864791
 30
0.0
 11
139.6950597147759
 21
44.84374360864791
 31
0.0
  0
LINE
  5
3F66
330
1E
100
AcDbEntity
  8
AM_VIS
 62
     3
100
AcDbLine
 10
151.6950597147759
 20
44.84374360864791
 30
0.0
 11
154.1950597147758
 21
44.84374360864791
 31
0.0
  0
LINE
  5
3F67
330
1E
100
AcDbEntity
  8
AM_VIS
 62
     3
100
AcDbLine
 10
151.6950597147759
 20
36.04374360864796
 30
0.0
 11
154.1950597147758
 21
36.04374360864796
 31
0.0
  0
LINE
  5
3F68
330
1E
100
AcDbEntity
  8
AM_VIS
 62
     3
100
AcDbLine
 10
135.1950597147759
 20
36.04374360864796
 30
0.0
 11
139.6950597147759
 21
36.04374360864796
 31
0.0
  0
TEXT
  5
3F69
330
1E
100
AcDbEntity
  8
AM_5
100
AcDbText
 10
202.646581165214
 20
90.48118870233798
 30
0.0
 40
3.0
  1
2-PT1/8
100
AcDbText
  0
INSERT
  5
3F6A
330
1E
100
AcDbEntity
  8
AM_5
100
AcDbBlockReference
  2
*S7
 10
24.91759179195492
 20
-123.563118935975
 30
0.0
  0
TEXT
  5
3F6B
330
1E
100
AcDbEntity
  8
AM_5
100
AcDbText
 10
196.5940485911935
 20
142.0841340120692
 30
0.0
 40
3.0
  1
%%c6.6 thru
100
AcDbText
  0
INSERT
  5
3F6C
330
1E
100
AcDbEntity
  8
AM_5
100
AcDbBlockReference
  2
*S8
 10
24.91759179195492
 20
-123.563118935975
 30
0.0
  0
TEXT
  5
3F6D
330
1E
100
AcDbEntity
  8
AM_5
100
AcDbText
 10
196.5940485911935
 20
137.6610051112657
 30
0.0
 40
3.0
  1
%%C11x7.5L
100
AcDbText
  0
LINE
  5
436A
330
1E
100
AcDbEntity
  8
AM_VIS
100
AcDbLine
 10
165.6950597147759
 20
-158.1093323430199
 30
0.0
 11
194.6950597147758
 21
-158.1093323430199
 31
0.0
  0
LINE
  5
436B
330
1E
100
AcDbEntity
  8
AM_VIS
100
AcDbLine
 10
194.6950597147758
 20
-191.1093323430199
 30
0.0
 11
165.6950597147759
 21
-191.1093323430199
 31
0.0
  0
LINE
  5
436C
330
1E
100
AcDbEntity
  8
AM_VIS
100
AcDbLine
 10
165.6950597147759
 20
-191.1093323430199
 30
0.0
 11
165.6950597147759
 21
-192.6093323430199
 31
0.0
  0
LINE
  5
436D
330
1E
100
AcDbEntity
  8
AM_VIS
100
AcDbLine
 10
165.6950597147759
 20
-192.6093323430199
 30
0.0
 11
194.6950597147758
 21
-192.6093323430199
 31
0.0
  0
LINE
  5
436E
330
1E
100
AcDbEntity
  8
AM_VIS
100
AcDbLine
 10
194.6950597147758
 20
-192.6093323430199
 30
0.0
 11
194.6950597147758
 21
-191.1093323430199
 31
0.0
  0
LINE
  5
436F
330
1E
100
AcDbEntity
  8
AM_VIS
100
AcDbLine
 10
194.6950597147758
 20
-158.1093323430199
 30
0.0
 11
194.6950597147758
 21
-191.1093323430199
 31
0.0
  0
LINE
  5
4370
330
1E
100
AcDbEntity
  8
AM_VIS
100
AcDbLine
 10
194.6950597147758
 20
-158.1093323430199
 30
0.0
 11
194.6950597147758
 21
-156.6093323430199
 31
0.0
  0
LINE
  5
4371
330
1E
100
AcDbEntity
  8
AM_VIS
100
AcDbLine
 10
241.6950597147759
 20
-189.1093323430199
 30
0.0
 11
241.6950597147759
 21
-160.1093323430199
 31
0.0
  0
LINE
  5
4372
330
1E
100
AcDbEntity
  8
AM_VIS
100
AcDbLine
 10
240.3960216090992
 20
-159.6093323430199
 30
0.0
 11
240.3960216090992
 21
-167.1553065850821
 31
0.0
  0
LINE
  5
4373
330
1E
100
AcDbEntity
  8
AM_VIS
100
AcDbLine
 10
224.1950597147759
 20
-188.3593323430199
 30
0.0
 11
224.1950597147759
 21
-160.8593323430199
 31
0.0
  0
LINE
  5
4374
330
1E
100
AcDbEntity
  8
AM_VIS
100
AcDbLine
 10
240.3960216090992
 20
-182.0633581009577
 30
0.0
 11
240.3960216090992
 21
-189.6093323430199
 31
0.0
  0
LINE
  5
4375
330
1E
100
AcDbEntity
  8
AM_VIS
100
AcDbLine
 10
226.6950597147759
 20
-160.1093323430199
 30
0.0
 11
226.6950597147759
 21
-189.1093323430199
 31
0.0
  0
LINE
  5
4376
330
1E
100
AcDbEntity
  8
AM_VIS
100
AcDbLine
 10
227.9940978204525
 20
-189.6093323430199
 30
0.0
 11
227.9940978204525
 21
-182.0633581009577
 31
0.0
  0
LINE
  5
4377
330
1E
100
AcDbEntity
  8
AM_VIS
100
AcDbLine
 10
227.9940978204525
 20
-167.1553065850821
 30
0.0
 11
227.9940978204525
 21
-159.6093323430199
 31
0.0
  0
LINE
  5
4378
330
1E
100
AcDbEntity
  8
AM_VIS
100
AcDbLine
 10
241.6950597147759
 20
-160.1093323430199
 30
0.0
 11
241.4063845801811
 21
-159.6093323430199
 31
0.0
  0
LINE
  5
4379
330
1E
100
AcDbEntity
  8
AM_VIS
100
AcDbLine
 10
241.6950597147759
 20
-189.1093323430199
 30
0.0
 11
241.4063845801811
 21
-189.6093323430199
 31
0.0
  0
LINE
  5
437A
330
1E
100
AcDbEntity
  8
AM_VIS
100
AcDbLine
 10
226.6950597147759
 20
-160.8593323430199
 30
0.0
 11
224.1950597147759
 21
-160.8593323430199
 31
0.0
  0
LINE
  5
437B
330
1E
100
AcDbEntity
  8
AM_VIS
100
AcDbLine
 10
226.6950597147759
 20
-188.3593323430199
 30
0.0
 11
224.1950597147759
 21
-188.3593323430199
 31
0.0
  0
LINE
  5
437C
330
1E
100
AcDbEntity
  8
AM_VIS
100
AcDbLine
 10
226.6950597147759
 20
-189.1093323430199
 30
0.0
 11
226.9837348493707
 21
-189.6093323430199
 31
0.0
  0
LINE
  5
437D
330
1E
100
AcDbEntity
  8
AM_VIS
100
AcDbLine
 10
226.6950597147759
 20
-160.1093323430199
 30
0.0
 11
226.9837348493707
 21
-159.6093323430199
 31
0.0
  0
LINE
  5
437E
330
1E
100
AcDbEntity
  8
AM_VIS
100
AcDbLine
 10
227.9940978204525
 20
-167.1553065850821
 30
0.0
 11
240.3960216090992
 21
-167.1553065850821
 31
0.0
  0
SPLINE
  5
437F
330
1E
100
AcDbEntity
  8
AM_VIS
100
AcDbSpline
210
0.0
220
0.0
230
1.0
 70
    12
 71
     2
 72
     6
 73
     3
 74
     0
 42
0.0000000001
 43
0.0000000001
 40
0.0
 40
0.0
 40
0.0
 40
15.0443787951957
 40
15.0443787951957
 40
15.0443787951957
 10
240.3960216090992
 20
-182.0633581009577
 30
0.0
 41
1.0
 10
242.3111872408514
 20
-174.60933234302
 30
0.0
 41
1.116666666666668
 10
240.3960216090992
 20
-167.1553065850821
 30
0.0
 41
1.0
  0
LINE
  5
4380
330
1E
100
AcDbEntity
  8
AM_VIS
100
AcDbLine
 10
240.3960216090992
 20
-189.6093323430199
 30
0.0
 11
241.4063845801811
 21
-189.6093323430199
 31
0.0
  0
LINE
  5
4381
330
1E
100
AcDbEntity
  8
AM_VIS
100
AcDbLine
 10
240.3960216090992
 20
-182.0633581009577
 30
0.0
 11
227.9940978204525
 21
-182.0633581009577
 31
0.0
  0
LINE
  5
4382
330
1E
100
AcDbEntity
  8
AM_VIS
100
AcDbLine
 10
227.9940978204525
 20
-189.6093323430199
 30
0.0
 11
240.3960216090992
 21
-189.6093323430199
 31
0.0
  0
LINE
  5
4383
330
1E
100
AcDbEntity
  8
AM_VIS
100
AcDbLine
 10
226.9837348493707
 20
-189.6093323430199
 30
0.0
 11
227.9940978204525
 21
-189.6093323430199
 31
0.0
  0
SPLINE
  5
4384
330
1E
100
AcDbEntity
  8
AM_VIS
100
AcDbSpline
210
0.0
220
0.0
230
1.0
 70
    12
 71
     2
 72
     6
 73
     3
 74
     0
 42
0.0000000001
 43
0.0000000001
 40
0.0
 40
0.0
 40
0.0
 40
15.0443787951957
 40
15.0443787951957
 40
15.0443787951957
 10
227.9940978204525
 20
-167.1553065850821
 30
0.0
 41
1.0
 10
226.0789321887005
 20
-174.6093323430199
 30
0.0000000000000018
 41
1.116666666666666
 10
227.9940978204525
 20
-182.0633581009577
 30
0.0
 41
1.0
  0
LINE
  5
4385
330
1E
100
AcDbEntity
  8
AM_VIS
100
AcDbLine
 10
240.3960216090992
 20
-159.6093323430199
 30
0.0
 11
241.4063845801811
 21
-159.6093323430199
 31
0.0
  0
LINE
  5
4386
330
1E
100
AcDbEntity
  8
AM_VIS
100
AcDbLine
 10
240.3960216090992
 20
-159.6093323430199
 30
0.0
 11
227.9940978204525
 21
-159.6093323430199
 31
0.0
  0
LINE
  5
4387
330
1E
100
AcDbEntity
  8
AM_VIS
100
AcDbLine
 10
226.9837348493707
 20
-159.6093323430199
 30
0.0
 11
227.9940978204525
 21
-159.6093323430199
 31
0.0
  0
LINE
  5
4388
330
1E
100
AcDbEntity
  8
AM_7
100
AcDbLine
 10
284.9626759516214
 20
-172.8093323430199
 30
0.0
 11
284.9626759516214
 21
-156.2593323430199
 31
0.0
  0
LINE
  5
4389
330
1E
100
AcDbEntity
  8
AM_7
100
AcDbLine
 10
284.9626759516214
 20
-192.9593323430199
 30
0.0
 11
284.9626759516214
 21
-176.4093323430199
 31
0.0
  0
LINE
  5
438A
330
1E
100
AcDbEntity
  8
AM_7
100
AcDbLine
 10
286.7626759516213
 20
-174.6093323430199
 30
0.0
 11
303.3126759516214
 21
-174.6093323430199
 31
0.0
  0
LINE
  5
438B
330
1E
100
AcDbEntity
  8
AM_7
100
AcDbLine
 10
266.6126759516213
 20
-174.6093323430199
 30
0.0
 11
283.1626759516214
 21
-174.6093323430199
 31
0.0
  0
LINE
  5
438C
330
1E
100
AcDbEntity
  8
AM_7
100
AcDbLine
 10
284.9626759516214
 20
-175.6093323430199
 30
0.0
 11
284.9626759516214
 21
-173.6093323430199
 31
0.0
  0
LINE
  5
438D
330
1E
100
AcDbEntity
  8
AM_7
100
AcDbLine
 10
283.9626759516213
 20
-174.6093323430199
 30
0.0
 11
285.9626759516213
 21
-174.6093323430199
 31
0.0
  0
CIRCLE
  5
438E
330
1E
100
AcDbEntity
  8
AM_4
  6
HIDDEN2
100
AcDbCircle
 10
59.25606943891228
 20
-161.6093323430199
 30
0.0
 40
3.146999999999999
  0
CIRCLE
  5
438F
330
1E
100
AcDbEntity
  8
AM_4
  6
HIDDEN2
100
AcDbCircle
 10
85.25606943891228
 20
-161.6093323430199
 30
0.0
 40
3.146999999999999
  0
CIRCLE
  5
4390
330
1E
100
AcDbEntity
  8
AM_4
  6
HIDDEN2
100
AcDbCircle
 10
59.25606943891228
 20
-187.6093323430199
 30
0.0
 40
3.146999999999999
  0
CIRCLE
  5
4391
330
1E
100
AcDbEntity
  8
AM_4
  6
HIDDEN2
100
AcDbCircle
 10
85.25606943891228
 20
-187.6093323430199
 30
0.0
 40
3.146999999999999
  0
LINE
  5
4392
330
1E
100
AcDbEntity
  8
AM_7
100
AcDbLine
 10
72.25606943891228
 20
-172.8093323430199
 30
0.0
 11
72.25606943891228
 21
-160.0093323430199
 31
0.0
  0
LINE
  5
4393
330
1E
100
AcDbEntity
  8
AM_7
100
AcDbLine
 10
72.25606943891228
 20
-189.2093323430199
 30
0.0
 11
72.25606943891228
 21
-176.4093323430199
 31
0.0
  0
LINE
  5
4394
330
1E
100
AcDbEntity
  8
AM_7
100
AcDbLine
 10
74.05606943891228
 20
-174.6093323430199
 30
0.0
 11
86.8560694389123
 21
-174.6093323430199
 31
0.0
  0
LINE
  5
4395
330
1E
100
AcDbEntity
  8
AM_7
100
AcDbLine
 10
57.65606943891225
 20
-174.6093323430199
 30
0.0
 11
70.45606943891226
 21
-174.6093323430199
 31
0.0
  0
LINE
  5
4396
330
1E
100
AcDbEntity
  8
AM_7
100
AcDbLine
 10
72.25606943891228
 20
-175.6093323430199
 30
0.0
 11
72.25606943891228
 21
-173.6093323430199
 31
0.0
  0
LINE
  5
4397
330
1E
100
AcDbEntity
  8
AM_7
100
AcDbLine
 10
71.25606943891227
 20
-174.6093323430199
 30
0.0
 11
73.25606943891227
 21
-174.6093323430199
 31
0.0
  0
LINE
  5
4398
330
1E
100
AcDbEntity
  8
AM_7
100
AcDbLine
 10
59.25606943891228
 20
-159.8093323430199
 30
0.0
 11
59.25606943891228
 21
-157.4328323430199
 31
0.0
  0
LINE
  5
4399
330
1E
100
AcDbEntity
  8
AM_7
100
AcDbLine
 10
59.25606943891228
 20
-165.7858323430199
 30
0.0
 11
59.25606943891228
 21
-163.4093323430199
 31
0.0
  0
LINE
  5
439A
330
1E
100
AcDbEntity
  8
AM_7
100
AcDbLine
 10
61.05606943891229
 20
-161.6093323430199
 30
0.0
 11
63.43256943891231
 21
-161.6093323430199
 31
0.0
  0
LINE
  5
439B
330
1E
100
AcDbEntity
  8
AM_7
100
AcDbLine
 10
55.0795694389123
 20
-161.6093323430199
 30
0.0
 11
57.45606943891226
 21
-161.6093323430199
 31
0.0
  0
LINE
  5
439C
330
1E
100
AcDbEntity
  8
AM_7
100
AcDbLine
 10
59.25606943891228
 20
-162.6093323430199
 30
0.0
 11
59.25606943891228
 21
-160.6093323430199
 31
0.0
  0
LINE
  5
439D
330
1E
100
AcDbEntity
  8
AM_7
100
AcDbLine
 10
58.25606943891227
 20
-161.6093323430199
 30
0.0
 11
60.25606943891228
 21
-161.6093323430199
 31
0.0
  0
LINE
  5
439E
330
1E
100
AcDbEntity
  8
AM_7
100
AcDbLine
 10
85.25606943891228
 20
-159.8093323430199
 30
0.0
 11
85.25606943891228
 21
-157.4328323430199
 31
0.0
  0
LINE
  5
439F
330
1E
100
AcDbEntity
  8
AM_7
100
AcDbLine
 10
85.25606943891228
 20
-165.7858323430199
 30
0.0
 11
85.25606943891228
 21
-163.4093323430199
 31
0.0
  0
LINE
  5
43A0
330
1E
100
AcDbEntity
  8
AM_7
100
AcDbLine
 10
87.05606943891229
 20
-161.6093323430199
 30
0.0
 11
89.43256943891226
 21
-161.6093323430199
 31
0.0
  0
LINE
  5
43A1
330
1E
100
AcDbEntity
  8
AM_7
100
AcDbLine
 10
81.07956943891229
 20
-161.6093323430199
 30
0.0
 11
83.45606943891226
 21
-161.6093323430199
 31
0.0
  0
LINE
  5
43A2
330
1E
100
AcDbEntity
  8
AM_7
100
AcDbLine
 10
85.25606943891228
 20
-162.6093323430199
 30
0.0
 11
85.25606943891228
 21
-160.6093323430199
 31
0.0
  0
LINE
  5
43A3
330
1E
100
AcDbEntity
  8
AM_7
100
AcDbLine
 10
84.25606943891228
 20
-161.6093323430199
 30
0.0
 11
86.25606943891227
 21
-161.6093323430199
 31
0.0
  0
LINE
  5
43A4
330
1E
100
AcDbEntity
  8
AM_7
100
AcDbLine
 10
59.25606943891228
 20
-185.8093323430199
 30
0.0
 11
59.25606943891228
 21
-183.4328323430199
 31
0.0
  0
LINE
  5
43A5
330
1E
100
AcDbEntity
  8
AM_7
100
AcDbLine
 10
59.25606943891228
 20
-191.7858323430199
 30
0.0
 11
59.25606943891228
 21
-189.4093323430199
 31
0.0
  0
LINE
  5
43A6
330
1E
100
AcDbEntity
  8
AM_7
100
AcDbLine
 10
61.05606943891229
 20
-187.6093323430199
 30
0.0
 11
63.43256943891231
 21
-187.6093323430199
 31
0.0
  0
LINE
  5
43A7
330
1E
100
AcDbEntity
  8
AM_7
100
AcDbLine
 10
55.0795694389123
 20
-187.6093323430199
 30
0.0
 11
57.45606943891226
 21
-187.6093323430199
 31
0.0
  0
LINE
  5
43A8
330
1E
100
AcDbEntity
  8
AM_7
100
AcDbLine
 10
59.25606943891228
 20
-188.6093323430199
 30
0.0
 11
59.25606943891228
 21
-186.6093323430199
 31
0.0
  0
LINE
  5
43A9
330
1E
100
AcDbEntity
  8
AM_7
100
AcDbLine
 10
58.25606943891227
 20
-187.6093323430199
 30
0.0
 11
60.25606943891228
 21
-187.6093323430199
 31
0.0
  0
LINE
  5
43AA
330
1E
100
AcDbEntity
  8
AM_7
100
AcDbLine
 10
85.25606943891228
 20
-185.8093323430199
 30
0.0
 11
85.25606943891228
 21
-183.4328323430199
 31
0.0
  0
LINE
  5
43AB
330
1E
100
AcDbEntity
  8
AM_7
100
AcDbLine
 10
85.25606943891228
 20
-191.7858323430199
 30
0.0
 11
85.25606943891228
 21
-189.4093323430199
 31
0.0
  0
LINE
  5
43AC
330
1E
100
AcDbEntity
  8
AM_7
100
AcDbLine
 10
87.05606943891229
 20
-187.6093323430199
 30
0.0
 11
89.43256943891231
 21
-187.6093323430199
 31
0.0
  0
LINE
  5
43AD
330
1E
100
AcDbEntity
  8
AM_7
100
AcDbLine
 10
81.07956943891229
 20
-187.6093323430199
 30
0.0
 11
83.45606943891231
 21
-187.6093323430199
 31
0.0
  0
LINE
  5
43AE
330
1E
100
AcDbEntity
  8
AM_7
100
AcDbLine
 10
85.25606943891228
 20
-188.6093323430199
 30
0.0
 11
85.25606943891228
 21
-186.6093323430199
 31
0.0
  0
LINE
  5
43AF
330
1E
100
AcDbEntity
  8
AM_7
100
AcDbLine
 10
84.25606943891228
 20
-187.6093323430199
 30
0.0
 11
86.25606943891227
 21
-187.6093323430199
 31
0.0
  0
LINE
  5
43B2
330
1E
100
AcDbEntity
  8
AM_7
100
AcDbLine
 10
187.6950597147759
 20
-101.8008519237044
 30
0.0
 11
187.6950597147759
 21
-97.0008519237044
 31
0.0
  0
LINE
  5
43B3
330
1E
100
AcDbEntity
  8
AM_7
100
AcDbLine
 10
187.6950597147759
 20
-110.2008519237044
 30
0.0
 11
187.6950597147759
 21
-105.4008519237044
 31
0.0
  0
LINE
  5
43B4
330
1E
100
AcDbEntity
  8
AM_7
100
AcDbLine
 10
189.4950597147758
 20
-103.6008519237044
 30
0.0
 11
194.2950597147758
 21
-103.6008519237044
 31
0.0
  0
LINE
  5
43B5
330
1E
100
AcDbEntity
  8
AM_7
100
AcDbLine
 10
181.0950597147759
 20
-103.6008519237044
 30
0.0
 11
185.8950597147759
 21
-103.6008519237044
 31
0.0
  0
LINE
  5
43B6
330
1E
100
AcDbEntity
  8
AM_7
100
AcDbLine
 10
187.6950597147759
 20
-104.6008519237044
 30
0.0
 11
187.6950597147759
 21
-102.6008519237044
 31
0.0
  0
LINE
  5
43B7
330
1E
100
AcDbEntity
  8
AM_7
100
AcDbLine
 10
186.6950597147759
 20
-103.6008519237044
 30
0.0
 11
188.6950597147759
 21
-103.6008519237044
 31
0.0
  0
LINE
  5
43B8
330
1E
100
AcDbEntity
  8
AM_7
100
AcDbLine
 10
233.6950597147759
 20
-101.8008519237044
 30
0.0
 11
233.6950597147759
 21
-98.00085192370444
 31
0.0
  0
LINE
  5
43B9
330
1E
100
AcDbEntity
  8
AM_7
100
AcDbLine
 10
233.6950597147759
 20
-109.2008519237044
 30
0.0
 11
233.6950597147759
 21
-105.4008519237044
 31
0.0
  0
LINE
  5
43BA
330
1E
100
AcDbEntity
  8
AM_7
100
AcDbLine
 10
235.4950597147758
 20
-103.6008519237044
 30
0.0
 11
239.2950597147758
 21
-103.6008519237044
 31
0.0
  0
LINE
  5
43BB
330
1E
100
AcDbEntity
  8
AM_7
100
AcDbLine
 10
228.095059714776
 20
-103.6008519237044
 30
0.0
 11
231.8950597147759
 21
-103.6008519237044
 31
0.0
  0
LINE
  5
43BC
330
1E
100
AcDbEntity
  8
AM_7
100
AcDbLine
 10
233.6950597147759
 20
-104.6008519237044
 30
0.0
 11
233.6950597147759
 21
-102.6008519237044
 31
0.0
  0
LINE
  5
43BD
330
1E
100
AcDbEntity
  8
AM_7
100
AcDbLine
 10
232.6950597147759
 20
-103.6008519237044
 30
0.0
 11
234.6950597147759
 21
-103.6008519237044
 31
0.0
  0
LINE
  5
43BE
330
1E
100
AcDbEntity
  8
AM_7
100
AcDbLine
 10
243.2950597147758
 20
-103.6008519237043
 30
0.0
 11
134.0950597147759
 21
-103.6008519237044
 31
0.0
  0
LINE
  5
43BF
330
1E
100
AcDbEntity
  8
AM_7
100
AcDbLine
 10
243.2950597147758
 20
-174.6093323430199
 30
0.0
 11
134.0950597147759
 21
-174.6093323430199
 31
0.0
  0
LINE
  5
43C0
330
1E
100
AcDbEntity
  8
AM_VIS
100
AcDbLine
 10
302.9626759516213
 20
-191.1093323430199
 30
0.0
 11
301.4626759516214
 21
-192.6093323430199
 31
0.0
  0
LINE
  5
43C1
330
1E
100
AcDbEntity
  8
AM_VIS
100
AcDbLine
 10
268.4626759516214
 20
-192.6093323430199
 30
0.0
 11
301.4626759516214
 21
-192.6093323430199
 31
0.0
  0
LINE
  5
43C2
330
1E
100
AcDbEntity
  8
AM_VIS
100
AcDbLine
 10
268.4626759516214
 20
-192.6093323430199
 30
0.0
 11
266.9626759516213
 21
-191.1093323430199
 31
0.0
  0
LINE
  5
43C3
330
1E
100
AcDbEntity
  8
AM_VIS
100
AcDbLine
 10
266.9626759516213
 20
-158.1093323430199
 30
0.0
 11
266.9626759516213
 21
-191.1093323430199
 31
0.0
  0
LINE
  5
43C4
330
1E
100
AcDbEntity
  8
AM_VIS
100
AcDbLine
 10
266.9626759516213
 20
-158.1093323430199
 30
0.0
 11
268.4626759516214
 21
-156.6093323430199
 31
0.0
  0
LINE
  5
43C5
330
1E
100
AcDbEntity
  8
AM_VIS
100
AcDbLine
 10
301.4626759516214
 20
-156.6093323430199
 30
0.0
 11
268.4626759516214
 21
-156.6093323430199
 31
0.0
  0
LINE
  5
43C6
330
1E
100
AcDbEntity
  8
AM_VIS
100
AcDbLine
 10
302.9626759516213
 20
-191.1093323430199
 30
0.0
 11
302.9626759516213
 21
-158.1093323430199
 31
0.0
  0
LINE
  5
43C7
330
1E
100
AcDbEntity
  8
AM_VIS
100
AcDbLine
 10
301.4626759516214
 20
-156.6093323430199
 30
0.0
 11
302.9626759516213
 21
-158.1093323430199
 31
0.0
  0
CIRCLE
  5
43C8
330
1E
100
AcDbEntity
  8
AM_VIS
100
AcDbCircle
 10
284.9626759516214
 20
-174.6093323430199
 30
0.0
 40
14.5
  0
ARC
  5
43C9
330
1E
100
AcDbEntity
  8
AM_VIS
100
AcDbCircle
 10
284.9626759516214
 20
-174.6093323430199
 30
0.0
 40
16.75
100
AcDbArc
 50
116.4243920788193
 51
153.5756079211807
  0
ARC
  5
43CA
330
1E
100
AcDbEntity
  8
AM_VIS
100
AcDbCircle
 10
284.9626759516214
 20
-174.6093323430199
 30
0.0
 40
16.75
100
AcDbArc
 50
26.42439207881928
 51
63.57560792118072
  0
ARC
  5
43CB
330
1E
100
AcDbEntity
  8
AM_VIS
100
AcDbCircle
 10
284.9626759516214
 20
-174.6093323430199
 30
0.0
 40
16.75
100
AcDbArc
 50
296.4243920788192
 51
333.5756079211807
  0
ARC
  5
43CC
330
1E
100
AcDbEntity
  8
AM_VIS
100
AcDbCircle
 10
284.9626759516214
 20
-174.6093323430199
 30
0.0
 40
16.75
100
AcDbArc
 50
206.4243920788193
 51
243.5756079211807
  0
LINE
  5
43CD
330
1E
100
AcDbEntity
  8
AM_VIS
100
AcDbLine
 10
269.9626759516213
 20
-167.1553065850821
 30
0.0
 11
269.9626759516213
 21
-182.0633581009577
 31
0.0
  0
LINE
  5
43CE
330
1E
100
AcDbEntity
  8
AM_VIS
100
AcDbLine
 10
299.9626759516214
 20
-167.1553065850821
 30
0.0
 11
299.9626759516214
 21
-182.0633581009577
 31
0.0
  0
LINE
  5
43CF
330
1E
100
AcDbEntity
  8
AM_VIS
100
AcDbLine
 10
277.5086501936836
 20
-189.6093323430199
 30
0.0
 11
292.4167017095592
 21
-189.6093323430199
 31
0.0
  0
LINE
  5
43D0
330
1E
100
AcDbEntity
  8
AM_VIS
100
AcDbLine
 10
277.5086501936836
 20
-159.6093323430199
 30
0.0
 11
292.4167017095592
 21
-159.6093323430199
 31
0.0
  0
CIRCLE
  5
43D1
330
1E
100
AcDbEntity
  8
AM_VIS
100
AcDbCircle
 10
72.25606943891228
 20
-174.6093323430199
 30
0.0
 40
3.9
  0
CIRCLE
  5
43D2
330
1E
100
AcDbEntity
  8
AM_VIS
100
AcDbCircle
 10
72.25606943891228
 20
-174.6093323430199
 30
0.0
 40
4.9
  0
LINE
  5
43D3
330
1E
100
AcDbEntity
  8
AM_VIS
100
AcDbLine
 10
72.25606943891233
 20
-164.7943777667963
 30
0.0
 11
80.75606943891234
 21
-169.7018550549081
 31
0.0
  0
LINE
  5
43D4
330
1E
100
AcDbEntity
  8
AM_VIS
100
AcDbLine
 10
80.75606943891234
 20
-169.7018550549081
 30
0.0
 11
80.75606943891234
 21
-179.5168096311318
 31
0.0
  0
LINE
  5
43D5
330
1E
100
AcDbEntity
  8
AM_VIS
100
AcDbLine
 10
72.25606943891233
 20
-184.4242869192436
 30
0.0
 11
80.75606943891234
 21
-179.5168096311318
 31
0.0
  0
LINE
  5
43D6
330
1E
100
AcDbEntity
  8
AM_VIS
100
AcDbLine
 10
63.75606943891227
 20
-179.5168096311317
 30
0.0
 11
72.25606943891233
 21
-184.4242869192436
 31
0.0
  0
LINE
  5
43D7
330
1E
100
AcDbEntity
  8
AM_VIS
100
AcDbLine
 10
63.75606943891227
 20
-169.7018550549081
 30
0.0
 11
63.75606943891227
 21
-179.5168096311318
 31
0.0
  0
LINE
  5
43D8
330
1E
100
AcDbEntity
  8
AM_VIS
100
AcDbLine
 10
63.75606943891227
 20
-169.7018550549081
 30
0.0
 11
72.25606943891233
 21
-164.7943777667963
 31
0.0
  0
CIRCLE
  5
43D9
330
1E
100
AcDbEntity
  8
AM_VIS
100
AcDbCircle
 10
72.25606943891228
 20
-174.6093323430199
 30
0.0
 40
8.250000000000003
  0
CIRCLE
  5
43DA
330
1E
100
AcDbEntity
  8
AM_VIS
100
AcDbCircle
 10
72.25606943891228
 20
-174.6093323430199
 30
0.0
 40
5.266025403784443
  0
LINE
  5
43DB
330
1E
100
AcDbEntity
  8
AM_VIS
100
AcDbLine
 10
72.25606943891233
 20
-164.7943777667963
 30
0.0
 11
80.75606943891234
 21
-169.7018550549081
 31
0.0
  0
LINE
  5
43DC
330
1E
100
AcDbEntity
  8
AM_VIS
100
AcDbLine
 10
80.75606943891234
 20
-169.7018550549081
 30
0.0
 11
80.75606943891234
 21
-179.5168096311318
 31
0.0
  0
LINE
  5
43DD
330
1E
100
AcDbEntity
  8
AM_VIS
100
AcDbLine
 10
72.25606943891233
 20
-184.4242869192436
 30
0.0
 11
80.75606943891234
 21
-179.5168096311318
 31
0.0
  0
LINE
  5
43DE
330
1E
100
AcDbEntity
  8
AM_VIS
100
AcDbLine
 10
63.75606943891227
 20
-179.5168096311317
 30
0.0
 11
72.25606943891233
 21
-184.4242869192436
 31
0.0
  0
LINE
  5
43DF
330
1E
100
AcDbEntity
  8
AM_VIS
100
AcDbLine
 10
63.75606943891227
 20
-169.7018550549081
 30
0.0
 11
63.75606943891227
 21
-179.5168096311318
 31
0.0
  0
LINE
  5
43E0
330
1E
100
AcDbEntity
  8
AM_VIS
100
AcDbLine
 10
63.75606943891227
 20
-169.7018550549081
 30
0.0
 11
72.25606943891233
 21
-164.7943777667963
 31
0.0
  0
CIRCLE
  5
43E1
330
1E
100
AcDbEntity
  8
AM_VIS
100
AcDbCircle
 10
72.25606943891228
 20
-174.6093323430199
 30
0.0
 40
13.0
  0
CIRCLE
  5
43E2
330
1E
100
AcDbEntity
  8
AM_VIS
100
AcDbCircle
 10
72.25606943891228
 20
-174.6093323430199
 30
0.0
 40
12.5
  0
CIRCLE
  5
43E3
330
1E
100
AcDbEntity
  8
AM_VIS
100
AcDbCircle
 10
59.25606943891228
 20
-161.6093323430199
 30
0.0
 40
2.576499999999999
  0
CIRCLE
  5
43E4
330
1E
100
AcDbEntity
  8
AM_VIS
100
AcDbCircle
 10
85.25606943891228
 20
-161.6093323430199
 30
0.0
 40
2.576499999999999
  0
CIRCLE
  5
43E5
330
1E
100
AcDbEntity
  8
AM_VIS
100
AcDbCircle
 10
59.25606943891228
 20
-187.6093323430199
 30
0.0
 40
2.576499999999999
  0
CIRCLE
  5
43E6
330
1E
100
AcDbEntity
  8
AM_VIS
100
AcDbCircle
 10
85.25606943891228
 20
-187.6093323430199
 30
0.0
 40
2.576499999999999
  0
LINE
  5
43E7
330
1E
100
AcDbEntity
  8
AM_VIS
100
AcDbLine
 10
55.75606943891227
 20
-156.6093323430199
 30
0.0
 11
88.75606943891227
 21
-156.6093323430199
 31
0.0
  0
LINE
  5
43E8
330
1E
100
AcDbEntity
  8
AM_VIS
100
AcDbLine
 10
88.75606943891227
 20
-156.6093323430199
 30
0.0
 11
90.25606943891228
 21
-158.1093323430199
 31
0.0
  0
LINE
  5
43E9
330
1E
100
AcDbEntity
  8
AM_VIS
100
AcDbLine
 10
90.25606943891228
 20
-158.1093323430199
 30
0.0
 11
90.25606943891228
 21
-191.1093323430199
 31
0.0
  0
LINE
  5
43EA
330
1E
100
AcDbEntity
  8
AM_VIS
100
AcDbLine
 10
90.25606943891228
 20
-191.1093323430199
 30
0.0
 11
88.75606943891227
 21
-192.6093323430199
 31
0.0
  0
LINE
  5
43EB
330
1E
100
AcDbEntity
  8
AM_VIS
100
AcDbLine
 10
88.75606943891227
 20
-192.6093323430199
 30
0.0
 11
55.75606943891227
 21
-192.6093323430199
 31
0.0
  0
LINE
  5
43EC
330
1E
100
AcDbEntity
  8
AM_VIS
100
AcDbLine
 10
55.75606943891227
 20
-192.6093323430199
 30
0.0
 11
54.25606943891228
 21
-191.1093323430199
 31
0.0
  0
LINE
  5
43ED
330
1E
100
AcDbEntity
  8
AM_VIS
100
AcDbLine
 10
54.25606943891228
 20
-191.1093323430199
 30
0.0
 11
54.25606943891228
 21
-158.1093323430199
 31
0.0
  0
LINE
  5
43EE
330
1E
100
AcDbEntity
  8
AM_VIS
100
AcDbLine
 10
54.25606943891228
 20
-158.1093323430199
 30
0.0
 11
55.75606943891227
 21
-156.6093323430199
 31
0.0
  0
LINE
  5
43EF
330
1E
100
AcDbEntity
  8
AM_VIS
100
AcDbLine
 10
134.6950597147759
 20
-107.5008519237044
 30
0.0
 11
134.6950597147759
 21
-99.7008519237044
 31
0.0
  0
LINE
  5
43F0
330
1E
100
AcDbEntity
  8
AM_VIS
100
AcDbLine
 10
135.6950597147759
 20
-98.70085192370442
 30
0.0
 11
135.6950597147759
 21
-108.5008519237044
 31
0.0
  0
LINE
  5
43F1
330
1E
100
AcDbEntity
  8
AM_VIS
100
AcDbLine
 10
134.6950597147759
 20
-107.5008519237044
 30
0.0
 11
135.6950597147759
 21
-108.5008519237044
 31
0.0
  0
LINE
  5
43F2
330
1E
100
AcDbEntity
  8
AM_VIS
100
AcDbLine
 10
134.6950597147759
 20
-99.70085192370442
 30
0.0
 11
135.6950597147759
 21
-98.70085192370442
 31
0.0
  0
LINE
  5
43F3
330
1E
100
AcDbEntity
  8
AM_VIS
100
AcDbLine
 10
139.6950597147759
 20
-98.70085192370442
 30
0.0
 11
135.6950597147759
 21
-98.70085192370442
 31
0.0
  0
LINE
  5
43F4
330
1E
100
AcDbEntity
  8
AM_VIS
100
AcDbLine
 10
155.4950597147758
 20
-98.70085192370437
 30
0.0
 11
151.6950597147759
 21
-98.70085192370439
 31
0.0
  0
LINE
  5
43F5
330
1E
100
AcDbEntity
  8
AM_VIS
100
AcDbLine
 10
139.6950597147759
 20
-108.5008519237044
 30
0.0
 11
135.6950597147759
 21
-108.5008519237044
 31
0.0
  0
LINE
  5
43F6
330
1E
100
AcDbEntity
  8
AM_VIS
100
AcDbLine
 10
155.4950597147758
 20
-108.5008519237044
 30
0.0
 11
151.6950597147759
 21
-108.5008519237044
 31
0.0
  0
LINE
  5
43F9
330
1E
100
AcDbEntity
  8
AM_VIS
100
AcDbLine
 10
197.1950597147759
 20
-116.7508519237044
 30
0.0
 11
197.2950597147758
 21
-116.8508519237044
 31
0.0
  0
LINE
  5
43FA
330
1E
100
AcDbEntity
  8
AM_VIS
100
AcDbLine
 10
197.1950597147759
 20
-90.45085192370439
 30
0.0
 11
197.2950597147758
 21
-90.3508519237044
 31
0.0
  0
LINE
  5
43FB
330
1E
100
AcDbEntity
  8
AM_VIS
100
AcDbLine
 10
224.095059714776
 20
-90.3508519237044
 30
0.0
 11
197.2950597147758
 21
-90.3508519237044
 31
0.0
  0
LINE
  5
43FC
330
1E
100
AcDbEntity
  8
AM_VIS
100
AcDbLine
 10
224.095059714776
 20
-116.8508519237044
 30
0.0
 11
197.2950597147758
 21
-116.8508519237044
 31
0.0
  0
LINE
  5
43FD
330
1E
100
AcDbEntity
  8
AM_VIS
100
AcDbLine
 10
224.1950597147759
 20
-90.45085192370439
 30
0.0
 11
224.095059714776
 21
-90.3508519237044
 31
0.0
  0
LINE
  5
43FE
330
1E
100
AcDbEntity
  8
AM_VIS
100
AcDbLine
 10
224.1950597147759
 20
-116.7508519237044
 30
0.0
 11
224.095059714776
 21
-116.8508519237043
 31
0.0
  0
LINE
  5
43FF
330
1E
100
AcDbEntity
  8
AM_VIS
100
AcDbLine
 10
145.6950597147758
 20
-103.6008519237044
 30
0.0
 11
145.6950597147758
 21
-111.8508519237044
 31
0.0
  0
LINE
  5
4400
330
1E
100
AcDbEntity
  8
AM_VIS
100
AcDbLine
 10
145.6950597147758
 20
-95.3508519237044
 30
0.0
 11
145.6950597147758
 21
-103.6008519237044
 31
0.0
  0
LINE
  5
4401
330
1E
100
AcDbEntity
  8
AM_VIS
100
AcDbLine
 10
151.6950597147759
 20
-103.6008519237044
 30
0.0
 11
151.6950597147759
 21
-95.3508519237044
 31
0.0
  0
LINE
  5
4402
330
1E
100
AcDbEntity
  8
AM_VIS
100
AcDbLine
 10
151.6950597147759
 20
-111.8508519237044
 30
0.0
 11
151.6950597147759
 21
-103.6008519237044
 31
0.0
  0
LINE
  5
4403
330
1E
100
AcDbEntity
  8
AM_VIS
100
AcDbLine
 10
145.6950597147758
 20
-111.8508519237044
 30
0.0
 11
145.8393972820734
 21
-112.1008519237044
 31
0.0
  0
LINE
  5
4404
330
1E
100
AcDbEntity
  8
AM_VIS
100
AcDbLine
 10
145.6950597147758
 20
-95.3508519237044
 30
0.0
 11
145.8393972820732
 21
-95.10085192370439
 31
0.0
  0
LINE
  5
4405
330
1E
100
AcDbEntity
  8
AM_VIS
100
AcDbLine
 10
151.6950597147759
 20
-95.3508519237044
 30
0.0
 11
151.5507221474783
 21
-95.10085192370439
 31
0.0
  0
LINE
  5
4406
330
1E
100
AcDbEntity
  8
AM_VIS
100
AcDbLine
 10
151.6950597147759
 20
-111.8508519237044
 30
0.0
 11
151.5507221474783
 21
-112.1008519237044
 31
0.0
  0
LINE
  5
4407
330
1E
100
AcDbEntity
  8
AM_VIS
100
AcDbLine
 10
150.7915327689236
 20
-112.1008519237044
 30
0.0
 11
146.5985866606281
 21
-112.1008519237044
 31
0.0
  0
SPLINE
  5
4408
330
1E
100
AcDbEntity
  8
AM_VIS
100
AcDbSpline
210
0.0
220
0.0
230
1.0
 70
    12
 71
     2
 72
     6
 73
     3
 74
     0
 42
0.0000000001
 43
0.0000000001
 40
4.49144585754726
 40
4.49144585754726
 40
4.49144585754726
 40
16.56403640559105
 40
16.56403640559105
 40
16.56403640559105
 10
146.5985866606281
 20
-103.6008519237044
 30
0.0
 41
1.187554132852486
 10
145.1819199939615
 20
-107.8508519237045
 30
0.0
 41
1.371269396559269
 10
146.5985866606281
 20
-112.1008519237044
 30
0.0
 41
1.187554132852484
  0
LINE
  5
4409
330
1E
100
AcDbEntity
  8
AM_VIS
100
AcDbLine
 10
145.8393972820734
 20
-112.1008519237044
 30
0.0
 11
146.5985866606281
 21
-112.1008519237044
 31
0.0
  0
LINE
  5
440A
330
1E
100
AcDbEntity
  8
AM_VIS
100
AcDbLine
 10
145.8393972820732
 20
-95.10085192370439
 30
0.0
 11
146.5985866606281
 21
-95.10085192370439
 31
0.0
  0
LINE
  5
440B
330
1E
100
AcDbEntity
  8
AM_VIS
100
AcDbLine
 10
150.7915327689236
 20
-103.6008519237044
 30
0.0
 11
146.5985866606281
 21
-103.6008519237044
 31
0.0
  0
SPLINE
  5
440C
330
1E
100
AcDbEntity
  8
AM_VIS
100
AcDbSpline
210
0.0
220
0.0
230
1.0
 70
    12
 71
     2
 72
     6
 73
     3
 74
     0
 42
0.0000000001
 43
0.0000000001
 40
4.491445857547268
 40
4.491445857547268
 40
4.491445857547268
 40
16.56403640559107
 40
16.56403640559107
 40
16.56403640559107
 10
146.5985866606282
 20
-95.10085192370441
 30
0.0
 41
1.187554132852488
 10
145.1819199939615
 20
-99.35085192370445
 30
0.0
 41
1.371269396559273
 10
146.5985866606281
 20
-103.6008519237044
 30
0.0
 41
1.187554132852487
  0
LINE
  5
440D
330
1E
100
AcDbEntity
  8
AM_VIS
100
AcDbLine
 10
150.7915327689236
 20
-95.10085192370439
 30
0.0
 11
146.5985866606281
 21
-95.10085192370439
 31
0.0
  0
LINE
  5
440E
330
1E
100
AcDbEntity
  8
AM_VIS
100
AcDbLine
 10
150.7915327689236
 20
-112.1008519237044
 30
0.0
 11
151.5507221474783
 21
-112.1008519237044
 31
0.0
  0
SPLINE
  5
440F
330
1E
100
AcDbEntity
  8
AM_VIS
100
AcDbSpline
210
0.0
220
0.0
230
1.0
 70
    12
 71
     2
 72
     6
 73
     3
 74
     0
 42
0.0000000001
 43
0.0000000001
 40
4.4914458575472
 40
4.4914458575472
 40
4.4914458575472
 40
16.56403640559099
 40
16.56403640559099
 40
16.56403640559099
 10
150.7915327689236
 20
-112.1008519237044
 30
0.0
 41
1.187554132852485
 10
152.2081994355905
 20
-107.8508519237045
 30
0.0
 41
1.371269396559269
 10
150.7915327689236
 20
-103.6008519237044
 30
0.0
 41
1.187554132852487
  0
SPLINE
  5
4410
330
1E
100
AcDbEntity
  8
AM_VIS
100
AcDbSpline
210
0.0
220
0.0
230
1.0
 70
    12
 71
     2
 72
     6
 73
     3
 74
     0
 42
0.0000000001
 43
0.0000000001
 40
4.491445857547216
 40
4.491445857547216
 40
4.491445857547216
 40
16.56403640559104
 40
16.56403640559104
 40
16.56403640559104
 10
150.7915327689237
 20
-103.6008519237044
 30
0.0
 41
1.187554132852488
 10
152.2081994355903
 20
-99.35085192370442
 30
0.0
 41
1.371269396559276
 10
150.7915327689236
 20
-95.10085192370439
 30
0.0
 41
1.187554132852489
  0
LINE
  5
4411
330
1E
100
AcDbEntity
  8
AM_VIS
100
AcDbLine
 10
150.7915327689236
 20
-95.10085192370439
 30
0.0
 11
151.5507221474783
 21
-95.10085192370439
 31
0.0
  0
LINE
  5
4412
330
1E
100
AcDbEntity
  8
AM_VIS
100
AcDbLine
 10
139.6950597147759
 20
-103.6008519237044
 30
0.0
 11
139.6950597147759
 21
-111.8508519237044
 31
0.0
  0
LINE
  5
4413
330
1E
100
AcDbEntity
  8
AM_VIS
100
AcDbLine
 10
139.6950597147759
 20
-95.3508519237044
 30
0.0
 11
139.6950597147759
 21
-103.6008519237044
 31
0.0
  0
LINE
  5
4414
330
1E
100
AcDbEntity
  8
AM_VIS
100
AcDbLine
 10
145.6950597147758
 20
-103.6008519237044
 30
0.0
 11
145.6950597147758
 21
-95.3508519237044
 31
0.0
  0
LINE
  5
4415
330
1E
100
AcDbEntity
  8
AM_VIS
100
AcDbLine
 10
145.6950597147758
 20
-111.8508519237044
 30
0.0
 11
145.6950597147758
 21
-103.6008519237044
 31
0.0
  0
LINE
  5
4416
330
1E
100
AcDbEntity
  8
AM_VIS
100
AcDbLine
 10
139.6950597147759
 20
-111.8508519237044
 30
0.0
 11
139.8393972820733
 21
-112.1008519237044
 31
0.0
  0
LINE
  5
4417
330
1E
100
AcDbEntity
  8
AM_VIS
100
AcDbLine
 10
139.6950597147759
 20
-95.3508519237044
 30
0.0
 11
139.8393972820732
 21
-95.10085192370439
 31
0.0
  0
LINE
  5
4418
330
1E
100
AcDbEntity
  8
AM_VIS
100
AcDbLine
 10
145.6950597147758
 20
-95.3508519237044
 30
0.0
 11
145.5507221474784
 21
-95.10085192370439
 31
0.0
  0
LINE
  5
4419
330
1E
100
AcDbEntity
  8
AM_VIS
100
AcDbLine
 10
145.6950597147758
 20
-111.8508519237044
 30
0.0
 11
145.5507221474784
 21
-112.1008519237044
 31
0.0
  0
LINE
  5
441A
330
1E
100
AcDbEntity
  8
AM_VIS
100
AcDbLine
 10
144.7915327689236
 20
-112.1008519237044
 30
0.0
 11
140.5985866606281
 21
-112.1008519237044
 31
0.0
  0
SPLINE
  5
441B
330
1E
100
AcDbEntity
  8
AM_VIS
100
AcDbSpline
210
0.0
220
0.0
230
1.0
 70
    12
 71
     2
 72
     6
 73
     3
 74
     0
 42
0.0000000001
 43
0.0000000001
 40
4.49144585754726
 40
4.49144585754726
 40
4.49144585754726
 40
16.56403640559105
 40
16.56403640559105
 40
16.56403640559105
 10
140.5985866606281
 20
-103.6008519237044
 30
0.0
 41
1.187554132852486
 10
139.1819199939616
 20
-107.8508519237045
 30
0.0
 41
1.371269396559269
 10
140.5985866606281
 20
-112.1008519237044
 30
0.0
 41
1.187554132852484
  0
LINE
  5
441C
330
1E
100
AcDbEntity
  8
AM_VIS
100
AcDbLine
 10
139.8393972820733
 20
-112.1008519237044
 30
0.0
 11
140.5985866606281
 21
-112.1008519237044
 31
0.0
  0
LINE
  5
441D
330
1E
100
AcDbEntity
  8
AM_VIS
100
AcDbLine
 10
139.8393972820732
 20
-95.10085192370439
 30
0.0
 11
140.5985866606281
 21
-95.10085192370439
 31
0.0
  0
LINE
  5
441E
330
1E
100
AcDbEntity
  8
AM_VIS
100
AcDbLine
 10
144.7915327689236
 20
-103.6008519237044
 30
0.0
 11
140.5985866606281
 21
-103.6008519237044
 31
0.0
  0
SPLINE
  5
441F
330
1E
100
AcDbEntity
  8
AM_VIS
100
AcDbSpline
210
0.0
220
0.0
230
1.0
 70
    12
 71
     2
 72
     6
 73
     3
 74
     0
 42
0.0000000001
 43
0.0000000001
 40
4.491445857547268
 40
4.491445857547268
 40
4.491445857547268
 40
16.56403640559107
 40
16.56403640559107
 40
16.56403640559107
 10
140.5985866606282
 20
-95.10085192370441
 30
0.0
 41
1.187554132852488
 10
139.1819199939616
 20
-99.35085192370445
 30
0.0
 41
1.371269396559273
 10
140.5985866606281
 20
-103.6008519237044
 30
0.0
 41
1.187554132852487
  0
LINE
  5
4420
330
1E
100
AcDbEntity
  8
AM_VIS
100
AcDbLine
 10
144.7915327689236
 20
-95.10085192370439
 30
0.0
 11
140.5985866606281
 21
-95.10085192370439
 31
0.0
  0
LINE
  5
4421
330
1E
100
AcDbEntity
  8
AM_VIS
100
AcDbLine
 10
144.7915327689236
 20
-112.1008519237044
 30
0.0
 11
145.5507221474784
 21
-112.1008519237044
 31
0.0
  0
SPLINE
  5
4422
330
1E
100
AcDbEntity
  8
AM_VIS
100
AcDbSpline
210
0.0
220
0.0
230
1.0
 70
    12
 71
     2
 72
     6
 73
     3
 74
     0
 42
0.0000000001
 43
0.0000000001
 40
4.4914458575472
 40
4.4914458575472
 40
4.4914458575472
 40
16.56403640559099
 40
16.56403640559099
 40
16.56403640559099
 10
144.7915327689233
 20
-112.1008519237044
 30
0.0
 41
1.187554132852485
 10
146.2081994355903
 20
-107.8508519237045
 30
0.0
 41
1.371269396559269
 10
144.7915327689237
 20
-103.6008519237044
 30
0.0
 41
1.187554132852487
  0
SPLINE
  5
4423
330
1E
100
AcDbEntity
  8
AM_VIS
100
AcDbSpline
210
0.0
220
0.0
230
1.0
 70
    12
 71
     2
 72
     6
 73
     3
 74
     0
 42
0.0000000001
 43
0.0000000001
 40
4.491445857547216
 40
4.491445857547216
 40
4.491445857547216
 40
16.56403640559104
 40
16.56403640559104
 40
16.56403640559104
 10
144.7915327689237
 20
-103.6008519237044
 30
0.0
 41
1.187554132852488
 10
146.2081994355903
 20
-99.35085192370442
 30
0.0
 41
1.371269396559276
 10
144.7915327689237
 20
-95.10085192370439
 30
0.0
 41
1.187554132852489
  0
LINE
  5
4424
330
1E
100
AcDbEntity
  8
AM_VIS
100
AcDbLine
 10
144.7915327689236
 20
-95.10085192370439
 30
0.0
 11
145.5507221474784
 21
-95.10085192370439
 31
0.0
  0
LINE
  5
4425
330
1E
100
AcDbEntity
  8
AM_VIS
100
AcDbLine
 10
197.1950597147759
 20
-117.3508519237044
 30
0.0
 11
197.1950597147759
 21
-89.85085192370439
 31
0.0
  0
CIRCLE
  5
4426
330
1E
100
AcDbEntity
  8
AM_VIS
100
AcDbCircle
 10
187.6950597147759
 20
-103.6008519237044
 30
0.0
 40
4.283
  0
LINE
  5
4428
330
1E
100
AcDbEntity
  8
AM_VIS
100
AcDbLine
 10
162.6950597147759
 20
-116.1008519237044
 30
0.0
 11
162.6950597147759
 21
-91.10085192370439
 31
0.0
  0
CIRCLE
  5
4429
330
1E
100
AcDbEntity
  8
AM_VIS
100
AcDbCircle
 10
187.6950597147759
 20
-103.6008519237044
 30
0.0
 40
5.0
  0
LINE
  5
442B
330
1E
100
AcDbEntity
  8
AM_VIS
100
AcDbLine
 10
197.1950597147759
 20
-89.85085192370439
 30
0.0
 11
194.6950597147758
 21
-89.85085192370439
 31
0.0
  0
LINE
  5
442C
330
1E
100
AcDbEntity
  8
AM_VIS
100
AcDbLine
 10
197.1950597147759
 20
-117.3508519237044
 30
0.0
 11
194.6950597147758
 21
-117.3508519237044
 31
0.0
  0
LINE
  5
442D
330
1E
100
AcDbEntity
  8
AM_VIS
100
AcDbLine
 10
165.6950597147759
 20
-90.6008519237044
 30
0.0
 11
163.1950597147759
 21
-90.6008519237044
 31
0.0
  0
LINE
  5
442E
330
1E
100
AcDbEntity
  8
AM_VIS
100
AcDbLine
 10
165.6950597147759
 20
-116.6008519237044
 30
0.0
 11
163.1950597147759
 21
-116.6008519237044
 31
0.0
  0
LINE
  5
442F
330
1E
100
AcDbEntity
  8
AM_VIS
100
AcDbLine
 10
162.6950597147759
 20
-116.1008519237044
 30
0.0
 11
163.1950597147759
 21
-116.6008519237044
 31
0.0
  0
LINE
  5
4430
330
1E
100
AcDbEntity
  8
AM_VIS
100
AcDbLine
 10
162.6950597147759
 20
-91.10085192370439
 30
0.0
 11
163.1950597147759
 21
-90.6008519237044
 31
0.0
  0
LINE
  5
4431
330
1E
100
AcDbEntity
  8
AM_VIS
100
AcDbLine
 10
165.6950597147759
 20
-87.1008519237044
 30
0.0
 11
165.6950597147759
 21
-120.1008519237044
 31
0.0
  0
LINE
  5
4432
330
1E
100
AcDbEntity
  8
AM_VIS
100
AcDbLine
 10
194.6950597147758
 20
-120.1008519237044
 30
0.0
 11
165.6950597147759
 21
-120.1008519237044
 31
0.0
  0
LINE
  5
4433
330
1E
100
AcDbEntity
  8
AM_VIS
100
AcDbLine
 10
165.6950597147759
 20
-120.1008519237044
 30
0.0
 11
165.6950597147759
 21
-121.6008519237044
 31
0.0
  0
LINE
  5
4434
330
1E
100
AcDbEntity
  8
AM_VIS
100
AcDbLine
 10
165.6950597147759
 20
-121.6008519237044
 30
0.0
 11
194.6950597147758
 21
-121.6008519237044
 31
0.0
  0
LINE
  5
4435
330
1E
100
AcDbEntity
  8
AM_VIS
100
AcDbLine
 10
194.6950597147758
 20
-121.6008519237044
 30
0.0
 11
194.6950597147758
 21
-120.1008519237044
 31
0.0
  0
LINE
  5
4436
330
1E
100
AcDbEntity
  8
AM_VIS
100
AcDbLine
 10
194.6950597147758
 20
-87.1008519237044
 30
0.0
 11
194.6950597147758
 21
-120.1008519237044
 31
0.0
  0
LINE
  5
4437
330
1E
100
AcDbEntity
  8
AM_VIS
100
AcDbLine
 10
194.6950597147758
 20
-85.6008519237044
 30
0.0
 11
165.6950597147759
 21
-85.6008519237044
 31
0.0
  0
LINE
  5
4438
330
1E
100
AcDbEntity
  8
AM_VIS
100
AcDbLine
 10
194.6950597147758
 20
-87.1008519237044
 30
0.0
 11
194.6950597147758
 21
-85.6008519237044
 31
0.0
  0
LINE
  5
4439
330
1E
100
AcDbEntity
  8
AM_VIS
100
AcDbLine
 10
165.6950597147759
 20
-87.1008519237044
 30
0.0
 11
194.6950597147758
 21
-87.1008519237044
 31
0.0
  0
LINE
  5
443A
330
1E
100
AcDbEntity
  8
AM_VIS
100
AcDbLine
 10
165.6950597147759
 20
-85.6008519237044
 30
0.0
 11
165.6950597147759
 21
-87.1008519237044
 31
0.0
  0
LINE
  5
443B
330
1E
100
AcDbEntity
  8
AM_VIS
100
AcDbLine
 10
241.6950597147759
 20
-103.6008519237044
 30
0.0
 11
241.6950597147759
 21
-89.1008519237044
 31
0.0
  0
LINE
  5
443C
330
1E
100
AcDbEntity
  8
AM_VIS
100
AcDbLine
 10
241.6950597147759
 20
-118.1008519237044
 30
0.0
 11
241.6950597147759
 21
-103.6008519237044
 31
0.0
  0
LINE
  5
443D
330
1E
100
AcDbEntity
  8
AM_VIS
100
AcDbLine
 10
240.3960216090993
 20
-111.0548776816422
 30
0.0
 11
240.3960216090993
 21
-118.6008519237043
 31
0.0
  0
LINE
  5
443E
330
1E
100
AcDbEntity
  8
AM_VIS
100
AcDbLine
 10
240.3960216090993
 20
-88.60085192370439
 30
0.0
 11
240.3960216090993
 21
-96.14682616576658
 31
0.0
  0
LINE
  5
443F
330
1E
100
AcDbEntity
  8
AM_VIS
100
AcDbLine
 10
224.1950597147759
 20
-117.3508519237044
 30
0.0
 11
224.1950597147759
 21
-89.85085192370439
 31
0.0
  0
LINE
  5
4440
330
1E
100
AcDbEntity
  8
AM_VIS
100
AcDbLine
 10
226.6950597147759
 20
-103.6008519237044
 30
0.0
 11
226.6950597147759
 21
-118.1008519237044
 31
0.0
  0
LINE
  5
4441
330
1E
100
AcDbEntity
  8
AM_VIS
100
AcDbLine
 10
226.6950597147759
 20
-89.1008519237044
 30
0.0
 11
226.6950597147759
 21
-103.6008519237044
 31
0.0
  0
LINE
  5
4442
330
1E
100
AcDbEntity
  8
AM_VIS
100
AcDbLine
 10
227.9940978204525
 20
-96.14682616576658
 30
0.0
 11
227.9940978204525
 21
-88.60085192370439
 31
0.0
  0
LINE
  5
4443
330
1E
100
AcDbEntity
  8
AM_VIS
100
AcDbLine
 10
227.9940978204525
 20
-118.6008519237044
 30
0.0
 11
227.9940978204525
 21
-111.0548776816422
 31
0.0
  0
CIRCLE
  5
4445
330
1E
100
AcDbEntity
  8
AM_VIS
100
AcDbCircle
 10
233.6950597147759
 20
-103.6008519237044
 30
0.0
 40
5.0
  0
CIRCLE
  5
4446
330
1E
100
AcDbEntity
  8
AM_VIS
100
AcDbCircle
 10
233.6950597147759
 20
-103.6008519237044
 30
0.0
 40
4.0
  0
LINE
  5
4447
330
1E
100
AcDbEntity
  8
AM_VIS
100
AcDbLine
 10
241.6950597147759
 20
-89.1008519237044
 30
0.0
 11
241.4063845801811
 21
-88.60085192370439
 31
0.0
  0
LINE
  5
4448
330
1E
100
AcDbEntity
  8
AM_VIS
100
AcDbLine
 10
241.6950597147759
 20
-118.1008519237044
 30
0.0
 11
241.4063845801811
 21
-118.6008519237044
 31
0.0
  0
LINE
  5
4449
330
1E
100
AcDbEntity
  8
AM_VIS
100
AcDbLine
 10
226.6950597147759
 20
-89.85085192370439
 30
0.0
 11
224.1950597147759
 21
-89.85085192370439
 31
0.0
  0
LINE
  5
444A
330
1E
100
AcDbEntity
  8
AM_VIS
100
AcDbLine
 10
226.6950597147759
 20
-117.3508519237044
 30
0.0
 11
224.1950597147759
 21
-117.3508519237044
 31
0.0
  0
LINE
  5
444B
330
1E
100
AcDbEntity
  8
AM_VIS
100
AcDbLine
 10
226.6950597147759
 20
-118.1008519237044
 30
0.0
 11
226.9837348493707
 21
-118.6008519237044
 31
0.0
  0
LINE
  5
444C
330
1E
100
AcDbEntity
  8
AM_VIS
100
AcDbLine
 10
226.6950597147759
 20
-89.1008519237044
 30
0.0
 11
226.9837348493707
 21
-88.60085192370439
 31
0.0
  0
LINE
  5
444D
330
1E
100
AcDbEntity
  8
AM_VIS
100
AcDbLine
 10
227.9940978204525
 20
-118.6008519237044
 30
0.0
 11
240.3960216090993
 21
-118.6008519237044
 31
0.0
  0
LINE
  5
444E
330
1E
100
AcDbEntity
  8
AM_VIS
100
AcDbLine
 10
240.3960216090993
 20
-118.6008519237044
 30
0.0
 11
241.4063845801811
 21
-118.6008519237044
 31
0.0
  0
LINE
  5
444F
330
1E
100
AcDbEntity
  8
AM_VIS
100
AcDbLine
 10
240.3960216090993
 20
-88.60085192370439
 30
0.0
 11
241.4063845801811
 21
-88.60085192370439
 31
0.0
  0
LINE
  5
4450
330
1E
100
AcDbEntity
  8
AM_VIS
100
AcDbLine
 10
240.3960216090993
 20
-88.60085192370439
 30
0.0
 11
227.9940978204525
 21
-88.60085192370439
 31
0.0
  0
LINE
  5
4451
330
1E
100
AcDbEntity
  8
AM_VIS
100
AcDbLine
 10
226.9837348493707
 20
-88.60085192370439
 30
0.0
 11
227.9940978204526
 21
-88.60085192370439
 31
0.0
  0
LINE
  5
4452
330
1E
100
AcDbEntity
  8
AM_VIS
100
AcDbLine
 10
226.9837348493707
 20
-118.6008519237044
 30
0.0
 11
227.9940978204526
 21
-118.6008519237044
 31
0.0
  0
LINE
  5
4453
330
1E
100
AcDbEntity
  8
AM_VIS
100
AcDbLine
 10
227.9940978204525
 20
-96.14682616576658
 30
0.0
 11
240.3960216090993
 21
-96.14682616576658
 31
0.0
  0
SPLINE
  5
4454
330
1E
100
AcDbEntity
  8
AM_VIS
100
AcDbSpline
210
0.0
220
0.0
230
1.0
 70
    12
 71
     2
 72
     6
 73
     3
 74
     0
 42
0.0000000001
 43
0.0000000001
 40
0.0
 40
0.0
 40
0.0
 40
15.0443787951957
 40
15.0443787951957
 40
15.0443787951957
 10
240.3960216090993
 20
-111.0548776816422
 30
0.0
 41
1.0
 10
242.3111872408516
 20
-103.6008519237044
 30
0.0
 41
1.116666666666663
 10
240.3960216090993
 20
-96.14682616576658
 30
0.0
 41
1.0
  0
LINE
  5
4455
330
1E
100
AcDbEntity
  8
AM_VIS
100
AcDbLine
 10
240.3960216090993
 20
-111.0548776816422
 30
0.0
 11
227.9940978204525
 21
-111.0548776816422
 31
0.0
  0
SPLINE
  5
4456
330
1E
100
AcDbEntity
  8
AM_VIS
100
AcDbSpline
210
0.0
220
0.0
230
1.0
 70
    12
 71
     2
 72
     6
 73
     3
 74
     0
 42
0.0000000001
 43
0.0000000001
 40
0.0
 40
0.0
 40
0.0
 40
15.0443787951957
 40
15.0443787951957
 40
15.0443787951957
 10
227.9940978204525
 20
-96.14682616576658
 30
0.0
 41
1.0
 10
226.0789321887004
 20
-103.6008519237044
 30
0.0
 41
1.116666666666667
 10
227.9940978204525
 20
-111.0548776816422
 30
0.0
 41
1.0
  0
LINE
  5
4457
330
1E
100
AcDbEntity
  8
AM_VIS
100
AcDbLine
 10
134.6950597147759
 20
-178.5093323430199
 30
0.0
 11
134.6950597147759
 21
-170.70933234302
 31
0.0
  0
LINE
  5
4458
330
1E
100
AcDbEntity
  8
AM_VIS
100
AcDbLine
 10
135.6950597147759
 20
-169.70933234302
 30
0.0
 11
135.6950597147759
 21
-179.5093323430199
 31
0.0
  0
LINE
  5
4459
330
1E
100
AcDbEntity
  8
AM_VIS
100
AcDbLine
 10
134.6950597147759
 20
-178.5093323430199
 30
0.0
 11
135.6950597147759
 21
-179.5093323430199
 31
0.0
  0
LINE
  5
445A
330
1E
100
AcDbEntity
  8
AM_VIS
100
AcDbLine
 10
134.6950597147759
 20
-170.70933234302
 30
0.0
 11
135.6950597147759
 21
-169.70933234302
 31
0.0
  0
LINE
  5
445B
330
1E
100
AcDbEntity
  8
AM_VIS
100
AcDbLine
 10
139.6950597147759
 20
-169.70933234302
 30
0.0
 11
135.6950597147759
 21
-169.70933234302
 31
0.0
  0
LINE
  5
445C
330
1E
100
AcDbEntity
  8
AM_VIS
100
AcDbLine
 10
156.6950597147759
 20
-169.7093323430199
 30
0.0
 11
151.6950597147759
 21
-169.70933234302
 31
0.0
  0
LINE
  5
445D
330
1E
100
AcDbEntity
  8
AM_VIS
100
AcDbLine
 10
139.6950597147759
 20
-179.5093323430199
 30
0.0
 11
135.6950597147759
 21
-179.5093323430199
 31
0.0
  0
LINE
  5
445E
330
1E
100
AcDbEntity
  8
AM_VIS
100
AcDbLine
 10
156.6950597147759
 20
-179.5093323430199
 30
0.0
 11
151.6950597147759
 21
-179.5093323430199
 31
0.0
  0
LINE
  5
4461
330
1E
100
AcDbEntity
  8
AM_VIS
100
AcDbLine
 10
197.1950597147759
 20
-187.7593323430199
 30
0.0
 11
197.2950597147758
 21
-187.85933234302
 31
0.0
  0
LINE
  5
4462
330
1E
100
AcDbEntity
  8
AM_VIS
100
AcDbLine
 10
197.1950597147759
 20
-161.4593323430199
 30
0.0
 11
197.2950597147758
 21
-161.3593323430199
 31
0.0
  0
LINE
  5
4463
330
1E
100
AcDbEntity
  8
AM_VIS
100
AcDbLine
 10
224.0950597147759
 20
-161.3593323430199
 30
0.0
 11
197.2950597147758
 21
-161.3593323430199
 31
0.0
  0
LINE
  5
4464
330
1E
100
AcDbEntity
  8
AM_VIS
100
AcDbLine
 10
224.0950597147759
 20
-187.85933234302
 30
0.0
 11
197.2950597147758
 21
-187.85933234302
 31
0.0
  0
LINE
  5
4465
330
1E
100
AcDbEntity
  8
AM_VIS
100
AcDbLine
 10
224.1950597147759
 20
-161.4593323430199
 30
0.0
 11
224.0950597147759
 21
-161.3593323430199
 31
0.0
  0
LINE
  5
4466
330
1E
100
AcDbEntity
  8
AM_VIS
100
AcDbLine
 10
224.1950597147759
 20
-187.7593323430199
 30
0.0
 11
224.095059714776
 21
-187.85933234302
 31
0.0
  0
LINE
  5
4467
330
1E
100
AcDbEntity
  8
AM_VIS
100
AcDbLine
 10
145.6950597147758
 20
-166.3593323430199
 30
0.0
 11
145.6950597147758
 21
-182.8593323430199
 31
0.0
  0
LINE
  5
4468
330
1E
100
AcDbEntity
  8
AM_VIS
100
AcDbLine
 10
151.6950597147759
 20
-182.8593323430199
 30
0.0
 11
151.6950597147759
 21
-166.3593323430199
 31
0.0
  0
LINE
  5
4469
330
1E
100
AcDbEntity
  8
AM_VIS
100
AcDbLine
 10
145.6950597147758
 20
-182.8593323430199
 30
0.0
 11
146.5985866606281
 21
-184.4242869192436
 31
0.0
  0
LINE
  5
446A
330
1E
100
AcDbEntity
  8
AM_VIS
100
AcDbLine
 10
145.6950597147758
 20
-166.3593323430199
 30
0.0
 11
146.5985866606281
 21
-164.7943777667963
 31
0.0
  0
LINE
  5
446B
330
1E
100
AcDbEntity
  8
AM_VIS
100
AcDbLine
 10
151.6950597147759
 20
-166.3593323430199
 30
0.0
 11
150.7915327689236
 21
-164.7943777667963
 31
0.0
  0
LINE
  5
446C
330
1E
100
AcDbEntity
  8
AM_VIS
100
AcDbLine
 10
151.6950597147759
 20
-182.8593323430199
 30
0.0
 11
150.7915327689236
 21
-184.4242869192436
 31
0.0
  0
LINE
  5
446D
330
1E
100
AcDbEntity
  8
AM_VIS
100
AcDbLine
 10
150.7915327689236
 20
-169.7018550549081
 30
0.0
 11
146.5985866606281
 21
-169.7018550549081
 31
0.0
  0
LINE
  5
446E
330
1E
100
AcDbEntity
  8
AM_VIS
100
AcDbLine
 10
150.7915327689236
 20
-179.5168096311317
 30
0.0
 11
146.5985866606281
 21
-179.5168096311317
 31
0.0
  0
SPLINE
  5
446F
330
1E
100
AcDbEntity
  8
AM_VIS
100
AcDbSpline
210
0.0
220
0.0
230
1.0
 70
    12
 71
     2
 72
     6
 73
     3
 74
     0
 42
0.0000000001
 43
0.0000000001
 40
4.49144585754726
 40
4.49144585754726
 40
4.49144585754726
 40
16.56403640559105
 40
16.56403640559105
 40
16.56403640559105
 10
146.5985866606281
 20
-164.7943777667963
 30
0.0
 41
1.187554132852486
 10
145.1819199939615
 20
-167.2481164108522
 30
-0.0000000000000018
 41
1.371269396559269
 10
146.5985866606281
 20
-169.7018550549081
 30
0.0
 41
1.187554132852484
  0
SPLINE
  5
4470
330
1E
100
AcDbEntity
  8
AM_VIS
100
AcDbSpline
210
0.0
220
0.0
230
1.0
 70
    12
 71
     2
 72
     6
 73
     3
 74
     0
 42
0.0000000001
 43
0.0000000001
 40
4.491445857547209
 40
4.491445857547209
 40
4.491445857547209
 40
16.56403640559099
 40
16.56403640559099
 40
16.56403640559099
 10
146.598586660628
 20
-169.701855054908
 30
0.0
 41
1.187554132852485
 10
145.1819199939614
 20
-174.60933234302
 30
0.0000000000000018
 41
1.371269396559269
 10
146.5985866606282
 20
-179.5168096311317
 30
0.0
 41
1.187554132852485
  0
SPLINE
  5
4471
330
1E
100
AcDbEntity
  8
AM_VIS
100
AcDbSpline
210
0.0
220
-0.0000000000000004
230
1.0
 70
    12
 71
     2
 72
     6
 73
     3
 74
     0
 42
0.0000000001
 43
0.0000000001
 40
4.4914458575472
 40
4.4914458575472
 40
4.4914458575472
 40
16.56403640559101
 40
16.56403640559101
 40
16.56403640559101
 10
146.5985866606282
 20
-179.5168096311317
 30
0.0
 41
1.187554132852485
 10
145.1819199939614
 20
-181.9705482751877
 30
0.0
 41
1.371269396559271
 10
146.5985866606281
 20
-184.4242869192436
 30
-0.0000000000000018
 41
1.187554132852488
  0
LINE
  5
4472
330
1E
100
AcDbEntity
  8
AM_VIS
100
AcDbLine
 10
150.7915327689236
 20
-184.4242869192436
 30
0.0
 11
146.5985866606281
 21
-184.4242869192436
 31
0.0
  0
LINE
  5
4473
330
1E
100
AcDbEntity
  8
AM_VIS
100
AcDbLine
 10
150.7915327689236
 20
-164.7943777667963
 30
0.0
 11
146.5985866606281
 21
-164.7943777667963
 31
0.0
  0
SPLINE
  5
4474
330
1E
100
AcDbEntity
  8
AM_VIS
100
AcDbSpline
210
0.0
220
0.0000000000000002
230
1.0
 70
    12
 71
     2
 72
     6
 73
     3
 74
     0
 42
0.0000000001
 43
0.0000000001
 40
4.491445857547239
 40
4.491445857547239
 40
4.491445857547239
 40
16.56403640559101
 40
16.56403640559101
 40
16.56403640559101
 10
150.7915327689236
 20
-179.5168096311317
 30
0.0000000000000018
 41
1.187554132852485
 10
152.2081994355902
 20
-174.6093323430199
 30
-0.0000000000000018
 41
1.371269396559269
 10
150.7915327689237
 20
-169.7018550549081
 30
0.0
 41
1.187554132852485
  0
SPLINE
  5
4475
330
1E
100
AcDbEntity
  8
AM_VIS
100
AcDbSpline
210
0.0
220
-0.0000000000000004
230
-1.0
 70
    12
 71
     2
 72
     6
 73
     3
 74
     0
 42
0.0000000001
 43
0.0000000001
 40
4.4914458575472
 40
4.4914458575472
 40
4.4914458575472
 40
16.56403640559099
 40
16.56403640559099
 40
16.56403640559099
 10
150.7915327689236
 20
-169.701855054908
 30
0.0
 41
1.187554132852485
 10
152.2081994355902
 20
-167.2481164108522
 30
0.0
 41
1.371269396559269
 10
150.7915327689236
 20
-164.7943777667963
 30
-0.0000000000000018
 41
1.187554132852487
  0
SPLINE
  5
4476
330
1E
100
AcDbEntity
  8
AM_VIS
100
AcDbSpline
210
0.0
220
0.0000000000000007
230
1.0
 70
    12
 71
     2
 72
     6
 73
     3
 74
     0
 42
0.0000000001
 43
0.0000000001
 40
4.491445857547289
 40
4.491445857547289
 40
4.491445857547289
 40
16.5640364055911
 40
16.5640364055911
 40
16.5640364055911
 10
150.7915327689236
 20
-184.4242869192436
 30
0.0000000000000018
 41
1.187554132852489
 10
152.2081994355905
 20
-181.9705482751877
 30
0.0
 41
1.371269396559273
 10
150.7915327689233
 20
-179.5168096311317
 30
-0.0000000000000018
 41
1.187554132852486
  0
LINE
  5
4477
330
1E
100
AcDbEntity
  8
AM_VIS
100
AcDbLine
 10
139.6950597147759
 20
-166.3593323430199
 30
0.0
 11
139.6950597147759
 21
-182.8593323430199
 31
0.0
  0
LINE
  5
4478
330
1E
100
AcDbEntity
  8
AM_VIS
100
AcDbLine
 10
145.6950597147758
 20
-182.8593323430199
 30
0.0
 11
145.6950597147758
 21
-166.3593323430199
 31
0.0
  0
LINE
  5
4479
330
1E
100
AcDbEntity
  8
AM_VIS
100
AcDbLine
 10
139.6950597147759
 20
-182.8593323430199
 30
0.0
 11
140.5985866606281
 21
-184.4242869192436
 31
0.0
  0
LINE
  5
447A
330
1E
100
AcDbEntity
  8
AM_VIS
100
AcDbLine
 10
139.6950597147759
 20
-166.3593323430199
 30
0.0
 11
140.5985866606281
 21
-164.7943777667963
 31
0.0
  0
LINE
  5
447B
330
1E
100
AcDbEntity
  8
AM_VIS
100
AcDbLine
 10
145.6950597147758
 20
-166.3593323430199
 30
0.0
 11
144.7915327689236
 21
-164.7943777667963
 31
0.0
  0
LINE
  5
447C
330
1E
100
AcDbEntity
  8
AM_VIS
100
AcDbLine
 10
145.6950597147758
 20
-182.8593323430199
 30
0.0
 11
144.7915327689236
 21
-184.4242869192436
 31
0.0
  0
LINE
  5
447D
330
1E
100
AcDbEntity
  8
AM_VIS
100
AcDbLine
 10
144.7915327689236
 20
-169.7018550549081
 30
0.0
 11
140.5985866606281
 21
-169.7018550549081
 31
0.0
  0
LINE
  5
447E
330
1E
100
AcDbEntity
  8
AM_VIS
100
AcDbLine
 10
144.7915327689236
 20
-179.5168096311317
 30
0.0
 11
140.5985866606281
 21
-179.5168096311317
 31
0.0
  0
SPLINE
  5
447F
330
1E
100
AcDbEntity
  8
AM_VIS
100
AcDbSpline
210
0.0
220
-0.0000000000000004
230
-1.0
 70
    12
 71
     2
 72
     6
 73
     3
 74
     0
 42
0.0000000001
 43
0.0000000001
 40
4.49144585754726
 40
4.49144585754726
 40
4.49144585754726
 40
16.56403640559105
 40
16.56403640559105
 40
16.56403640559105
 10
140.5985866606281
 20
-164.7943777667963
 30
0.0
 41
1.187554132852486
 10
139.1819199939615
 20
-167.2481164108522
 30
0.0
 41
1.371269396559269
 10
140.5985866606281
 20
-169.7018550549081
 30
0.0000000000000018
 41
1.187554132852484
  0
SPLINE
  5
4480
330
1E
100
AcDbEntity
  8
AM_VIS
100
AcDbSpline
210
0.0
220
-0.0000000000000004
230
1.0
 70
    12
 71
     2
 72
     6
 73
     3
 74
     0
 42
0.0000000001
 43
0.0000000001
 40
4.491445857547209
 40
4.491445857547209
 40
4.491445857547209
 40
16.56403640559099
 40
16.56403640559099
 40
16.56403640559099
 10
140.598586660628
 20
-169.701855054908
 30
0.0000000000000018
 41
1.187554132852485
 10
139.1819199939615
 20
-174.60933234302
 30
0.0
 41
1.371269396559269
 10
140.5985866606284
 20
-179.5168096311317
 30
-0.0000000000000018
 41
1.187554132852485
  0
SPLINE
  5
4481
330
1E
100
AcDbEntity
  8
AM_VIS
100
AcDbSpline
210
0.0
220
0.0000000000000004
230
1.0
 70
    12
 71
     2
 72
     6
 73
     3
 74
     0
 42
0.0000000001
 43
0.0000000001
 40
4.4914458575472
 40
4.4914458575472
 40
4.4914458575472
 40
16.56403640559101
 40
16.56403640559101
 40
16.56403640559101
 10
140.5985866606284
 20
-179.5168096311317
 30
-0.0000000000000018
 41
1.187554132852485
 10
139.1819199939614
 20
-181.9705482751877
 30
0.0
 41
1.371269396559271
 10
140.5985866606281
 20
-184.4242869192436
 30
0.0
 41
1.187554132852488
  0
LINE
  5
4482
330
1E
100
AcDbEntity
  8
AM_VIS
100
AcDbLine
 10
144.7915327689236
 20
-184.4242869192436
 30
0.0
 11
140.5985866606281
 21
-184.4242869192436
 31
0.0
  0
LINE
  5
4483
330
1E
100
AcDbEntity
  8
AM_VIS
100
AcDbLine
 10
144.7915327689236
 20
-164.7943777667963
 30
0.0
 11
140.5985866606281
 21
-164.7943777667963
 31
0.0
  0
SPLINE
  5
4484
330
1E
100
AcDbEntity
  8
AM_VIS
100
AcDbSpline
210
0.0
220
0.0
230
1.0
 70
    12
 71
     2
 72
     6
 73
     3
 74
     0
 42
0.0000000001
 43
0.0000000001
 40
4.491445857547239
 40
4.491445857547239
 40
4.491445857547239
 40
16.56403640559101
 40
16.56403640559101
 40
16.56403640559101
 10
144.7915327689236
 20
-179.5168096311317
 30
0.0
 41
1.187554132852485
 10
146.2081994355902
 20
-174.6093323430199
 30
0.0
 41
1.371269396559269
 10
144.7915327689237
 20
-169.7018550549081
 30
0.0
 41
1.187554132852485
  0
SPLINE
  5
4485
330
1E
100
AcDbEntity
  8
AM_VIS
100
AcDbSpline
210
0.0
220
0.0
230
1.0
 70
    12
 71
     2
 72
     6
 73
     3
 74
     0
 42
0.0000000001
 43
0.0000000001
 40
4.4914458575472
 40
4.4914458575472
 40
4.4914458575472
 40
16.56403640559099
 40
16.56403640559099
 40
16.56403640559099
 10
144.7915327689233
 20
-169.701855054908
 30
0.0
 41
1.187554132852485
 10
146.2081994355902
 20
-167.2481164108522
 30
-0.0000000000000018
 41
1.371269396559269
 10
144.7915327689237
 20
-164.7943777667963
 30
0.0
 41
1.187554132852487
  0
SPLINE
  5
4486
330
1E
100
AcDbEntity
  8
AM_VIS
100
AcDbSpline
210
0.0
220
0.0
230
1.0
 70
    12
 71
     2
 72
     6
 73
     3
 74
     0
 42
0.0000000001
 43
0.0000000001
 40
4.491445857547289
 40
4.491445857547289
 40
4.491445857547289
 40
16.5640364055911
 40
16.5640364055911
 40
16.5640364055911
 10
144.7915327689236
 20
-184.4242869192436
 30
0.0
 41
1.187554132852489
 10
146.2081994355903
 20
-181.9705482751877
 30
-0.0000000000000018
 41
1.371269396559273
 10
144.7915327689235
 20
-179.5168096311317
 30
0.0
 41
1.187554132852486
  0
LINE
  5
4487
330
1E
100
AcDbEntity
  8
AM_VIS
100
AcDbLine
 10
197.1950597147759
 20
-174.6093323430199
 30
0.0
 11
197.1950597147759
 21
-160.8593323430199
 31
0.0
  0
LINE
  5
4488
330
1E
100
AcDbEntity
  8
AM_VIS
100
AcDbLine
 10
197.1950597147759
 20
-188.3593323430199
 30
0.0
 11
197.1950597147759
 21
-174.6093323430199
 31
0.0
  0
LINE
  5
448B
330
1E
100
AcDbEntity
  8
AM_VIS
100
AcDbLine
 10
162.6950597147759
 20
-174.6093323430199
 30
0.0
 11
162.6950597147759
 21
-162.1093323430199
 31
0.0
  0
LINE
  5
448C
330
1E
100
AcDbEntity
  8
AM_VIS
100
AcDbLine
 10
162.6950597147759
 20
-187.1093323430199
 30
0.0
 11
162.6950597147759
 21
-174.6093323430199
 31
0.0
  0
LINE
  5
448D
330
1E
100
AcDbEntity
  8
AM_VIS
100
AcDbLine
 10
197.1950597147759
 20
-160.8593323430199
 30
0.0
 11
194.6950597147758
 21
-160.8593323430199
 31
0.0
  0
LINE
  5
448E
330
1E
100
AcDbEntity
  8
AM_VIS
100
AcDbLine
 10
197.1950597147759
 20
-188.3593323430199
 30
0.0
 11
194.6950597147758
 21
-188.3593323430199
 31
0.0
  0
LINE
  5
448F
330
1E
100
AcDbEntity
  8
AM_VIS
100
AcDbLine
 10
165.6950597147759
 20
-161.6093323430199
 30
0.0
 11
163.1950597147759
 21
-161.6093323430199
 31
0.0
  0
LINE
  5
4490
330
1E
100
AcDbEntity
  8
AM_VIS
100
AcDbLine
 10
165.6950597147759
 20
-187.6093323430199
 30
0.0
 11
163.1950597147759
 21
-187.6093323430199
 31
0.0
  0
LINE
  5
4491
330
1E
100
AcDbEntity
  8
AM_VIS
100
AcDbLine
 10
162.6950597147759
 20
-187.1093323430199
 30
0.0
 11
163.1950597147759
 21
-187.6093323430199
 31
0.0
  0
LINE
  5
4492
330
1E
100
AcDbEntity
  8
AM_VIS
100
AcDbLine
 10
162.6950597147759
 20
-162.1093323430199
 30
0.0
 11
163.1950597147759
 21
-161.6093323430199
 31
0.0
  0
LINE
  5
4493
330
1E
100
AcDbEntity
  8
AM_VIS
100
AcDbLine
 10
194.6950597147758
 20
-156.6093323430199
 30
0.0
 11
165.6950597147759
 21
-156.6093323430199
 31
0.0
  0
LINE
  5
4494
330
1E
100
AcDbEntity
  8
AM_VIS
100
AcDbLine
 10
165.6950597147759
 20
-156.6093323430199
 30
0.0
 11
165.6950597147759
 21
-158.1093323430199
 31
0.0
  0
LINE
  5
4495
330
1E
100
AcDbEntity
  8
AM_VIS
100
AcDbLine
 10
165.6950597147759
 20
-158.1093323430199
 30
0.0
 11
165.6950597147759
 21
-191.1093323430199
 31
0.0
  0
DIMENSION
  5
44CE
330
1E
100
AcDbEntity
  8
AM_5
100
AcDbDimension
  2
*D30
 10
85.25606943891228
 20
-204.6093323430199
 30
0.0
 11
72.25606943891228
 21
-202.3090370674294
 31
0.0
 70
    32
  1
{\Famgdt;o}<>
 71
     5
 42
26.0
  3
AM_ISO
100
AcDbAlignedDimension
 13
59.25606943891228
 23
-191.7858323430199
 33
0.0
 14
85.25606943891228
 24
-191.7858323430199
 34
0.0
100
AcDbRotatedDimension
  0
DIMENSION
  5
44CF
330
1E
100
AcDbEntity
  8
AM_5
100
AcDbDimension
  2
*D31
 10
90.25606943891228
 20
-210.6093323430199
 30
0.0
 11
72.25606943891228
 21
-208.3093323430199
 31
0.0
 70
    32
  1
{\Famgdt;o}<>
 71
     5
 42
36.0
  3
AM_ISO
100
AcDbAlignedDimension
 13
54.25606943891228
 23
-191.1093323430199
 33
0.0
 14
90.25606943891228
 24
-191.1093323430199
 34
0.0
100
AcDbRotatedDimension
  0
DIMENSION
  5
44D0
330
1E
100
AcDbEntity
  8
AM_5
100
AcDbDimension
  2
*D32
 10
97.66869137673644
 20
-174.6093323430199
 30
0.0
 11
95.36869137673646
 21
-183.6093323430199
 31
0.0
 70
    32
 71
     5
 42
18.0
  3
AM_ISO
100
AcDbAlignedDimension
 13
88.75606943891227
 23
-192.6093323430199
 33
0.0
 14
86.8560694389123
 24
-174.6093323430199
 34
0.0
 50
90.0
100
AcDbRotatedDimension
  0
DIMENSION
  5
44D1
330
1E
100
AcDbEntity
  8
AM_5
100
AcDbDimension
  2
*D33
 10
129.3856169041612
 20
-161.6093323430199
 30
0.0
 11
126.2154145770913
 21
-174.6093323430199
 31
0.0
 70
    32
  1
%%c<>
 71
     5
 42
26.0
  3
AM_ISO
100
AcDbAlignedDimension
 13
163.1950597147759
 23
-187.6093323430199
 33
0.0
 14
163.1950597147759
 24
-161.6093323430199
 34
0.0
 50
90.0
100
AcDbRotatedDimension
1001
GENIUS_GENDTOL_13
1000
TolAcTol
1000

1000

1040
26.0
1001
ACAD
1000
DSTYLE
1002
{
1070
    47
1040
0.0
1070
    48
1040
0.033
1070
    71
1070
     1
1070
   272
1070
     3
1002
}
  0
DIMENSION
  5
44D2
330
1E
100
AcDbEntity
  8
AM_5
100
AcDbDimension
  2
*D34
 10
165.6950597147759
 20
-210.6093323430198
 30
0.0
 11
150.1950597147759
 21
-208.3093323430198
 31
0.0
 70
    32
 71
     5
 42
31.0
  3
AM_ISO
100
AcDbAlignedDimension
 13
134.6950597147759
 23
-178.5093323430199
 33
0.0
 14
165.6950597147759
 24
-192.6093323430199
 34
0.0
100
AcDbRotatedDimension
  0
DIMENSION
  5
44D3
330
1E
100
AcDbEntity
  8
AM_5
100
AcDbDimension
  2
*D35
 10
241.6950597147759
 20
-210.6093323430198
 30
0.0
 11
203.6950597147759
 21
-208.3093323430198
 31
0.0
 70
    32
  1
<>+stroke
 71
     5
 42
76.0
  3
AM_ISO
100
AcDbAlignedDimension
 13
165.6950597147759
 23
-193.6093323430199
 33
0.0
 14
241.6950597147759
 24
-189.1093323430199
 34
0.0
100
AcDbRotatedDimension
  0
DIMENSION
  5
44D4
330
1E
100
AcDbEntity
  8
AM_5
100
AcDbDimension
  2
*D36
 10
241.6950597147759
 20
-216.6093323430198
 30
0.0
 11
188.1950597147758
 21
-214.3093323430198
 31
0.0
 70
    32
  1
<>+stroke
 71
     5
 42
107.0
  3
AM_ISO
100
AcDbAlignedDimension
 13
134.6950597147759
 23
-178.5093323430199
 33
0.0
 14
241.6950597147759
 24
-189.1093323430199
 34
0.0
100
AcDbRotatedDimension
  0
DIMENSION
  5
44D5
330
1E
100
AcDbEntity
  8
AM_5
100
AcDbDimension
  2
*D37
 10
299.9626759516214
 20
-204.60933334302
 30
0.0
 11
284.9626759516214
 21
-202.30933334302
 31
0.0
 70
    32
  1
{\Famgdt;o}<>
 71
     5
 42
30.0
  3
AM_ISO
100
AcDbAlignedDimension
 13
269.9626759516213
 23
-182.0633581009577
 33
0.0
 14
299.9626759516214
 24
-182.0633581009578
 34
0.0
100
AcDbRotatedDimension
  0
DIMENSION
  5
44D6
330
1E
100
AcDbEntity
  8
AM_5
100
AcDbDimension
  2
*D38
 10
187.6950597147759
 20
-77.01266586703815
 30
0.0
 11
176.6950597147759
 21
-74.71237059144759
 31
0.0
 70
    32
 71
     5
 42
22.0
  3
AM_ISO
100
AcDbAlignedDimension
 13
165.6950597147759
 23
-85.6008519237044
 33
0.0
 14
187.6950597147759
 24
-97.0008519237044
 34
0.0
100
AcDbRotatedDimension
  0
DIMENSION
  5
44D7
330
1E
100
AcDbEntity
  8
AM_5
100
AcDbDimension
  2
*D39
 10
194.6950597147758
 20
-130.9282507495743
 30
0.0
 11
180.1950597147758
 21
-128.6279554739838
 31
0.0
 70
    32
 71
     5
 42
29.0
  3
AM_ISO
100
AcDbAlignedDimension
 13
165.6950597147759
 23
-121.6008519237044
 33
0.0
 14
194.6950597147758
 24
-121.6008519237044
 34
0.0
100
AcDbRotatedDimension
  0
DIMENSION
  5
44D8
330
1E
100
AcDbEntity
  8
AM_5
100
AcDbDimension
  2
*D40
 10
226.6950597147759
 20
-130.6008519237044
 30
0.0
 11
234.1950597147759
 21
-128.3008519237044
 31
0.0
 70
    32
 71
     5
 42
15.0
  3
AM_ISO
100
AcDbAlignedDimension
 13
241.6950597147759
 23
-118.1008519237044
 33
0.0
 14
226.6950597147759
 24
-118.1008519237044
 34
0.0
100
AcDbRotatedDimension
  0
DIMENSION
  5
44D9
330
1E
100
AcDbEntity
  8
AM_5
100
AcDbDimension
  2
*D41
 10
233.6950597147759
 20
-77.10085192370439
 30
0.0
 11
237.6950597147759
 21
-74.8008519237044
 31
0.0
 70
    32
 71
     5
 42
8.0
  3
AM_ISO
100
AcDbAlignedDimension
 13
241.6950597147759
 23
-89.1008519237044
 33
0.0
 14
233.6950597147759
 24
-98.00085192370444
 34
0.0
100
AcDbRotatedDimension
  0
DIMENSION
  5
44DA
330
1E
100
AcDbEntity
  8
AM_5
100
AcDbDimension
  2
*D42
 10
274.8951972983519
 20
-187.9962055240867
 30
0.0
 11
307.4763054979716
 21
-151.8027359780138
 31
0.0
 70
   163
 71
     5
 42
33.49999999999997
  3
AM_ISO$3
100
AcDbDiametricDimension
 15
295.0301546048914
 25
-161.2224591619537
 35
0.0
 40
0.0
1001
ACAD
1000
DSTYLE
1002
{
1070
   141
1040
0.0
1070
   172
1070
     1
1002
}
  0
LINE
  5
44DB
330
1E
100
AcDbEntity
  8
AM_VIS
100
AcDbLine
 10
156.6950597147759
 20
-108.1008519237044
 30
0.0
 11
156.6950597147759
 21
-99.1008519237044
 31
0.0
  0
LINE
  5
44DC
330
1E
100
AcDbEntity
  8
AM_VIS
100
AcDbLine
 10
156.6950597147759
 20
-108.1008519237044
 30
0.0
 11
162.1950597147758
 21
-108.1008519237044
 31
0.0
  0
LINE
  5
44DD
330
1E
100
AcDbEntity
  8
AM_VIS
100
AcDbLine
 10
156.6950597147759
 20
-108.1008519237044
 30
0.0
 11
155.4950597147758
 21
-108.5008519237044
 31
0.0
  0
LINE
  5
44DE
330
1E
100
AcDbEntity
  8
AM_VIS
100
AcDbLine
 10
162.6950597147759
 20
-108.2675185903711
 30
0.0
 11
162.1950597147758
 21
-108.1008519237044
 31
0.0
  0
LINE
  5
44DF
330
1E
100
AcDbEntity
  8
AM_VIS
100
AcDbLine
 10
162.1950597147758
 20
-99.1008519237044
 30
0.0
 11
156.6950597147759
 21
-99.1008519237044
 31
0.0
  0
LINE
  5
44E0
330
1E
100
AcDbEntity
  8
AM_VIS
100
AcDbLine
 10
155.4950597147758
 20
-98.70085192370442
 30
0.0
 11
156.6950597147759
 21
-99.1008519237044
 31
0.0
  0
LINE
  5
44E1
330
1E
100
AcDbEntity
  8
AM_VIS
100
AcDbLine
 10
162.1950597147758
 20
-99.1008519237044
 30
0.0
 11
162.6950597147759
 21
-98.93418525703772
 31
0.0
  0
LINE
  5
44E2
330
1E
100
AcDbEntity
  8
AM_VIS
100
AcDbLine
 10
156.6950597147759
 20
-172.4298828712496
 30
0.0
 11
156.6950597147759
 21
-169.6093323430199
 31
0.0
  0
LINE
  5
44E3
330
1E
100
AcDbEntity
  8
AM_VIS
100
AcDbLine
 10
156.6950597147759
 20
-172.4298828712496
 30
0.0
 11
162.1950597147758
 21
-172.4298828712496
 31
0.0
  0
LINE
  5
44E4
330
1E
100
AcDbEntity
  8
AM_VIS
100
AcDbLine
 10
162.6950597147759
 20
-179.6093323430199
 30
0.0
 11
156.6950597147759
 21
-179.6093323430199
 31
0.0
  0
LINE
  5
44E5
330
1E
100
AcDbEntity
  8
AM_VIS
100
AcDbLine
 10
162.1950597147758
 20
-176.7887818147903
 30
0.0
 11
156.6950597147759
 21
-176.7887818147903
 31
0.0
  0
LINE
  5
44E6
330
1E
100
AcDbEntity
  8
AM_VIS
100
AcDbLine
 10
156.6950597147759
 20
-172.6702604000534
 30
0.0
 11
156.6950597147759
 21
-172.4298828712496
 31
0.0
  0
LINE
  5
44E7
330
1E
100
AcDbEntity
  8
AM_VIS
100
AcDbLine
 10
156.6950597147759
 20
-179.6093323430199
 30
0.0
 11
156.6950597147759
 21
-176.7887818147903
 31
0.0
  0
LINE
  5
44E8
330
1E
100
AcDbEntity
  8
AM_VIS
100
AcDbLine
 10
156.6950597147759
 20
-176.7887818147903
 30
0.0
 11
156.6950597147759
 21
-176.5484042859865
 31
0.0
  0
LINE
  5
44E9
330
1E
100
AcDbEntity
  8
AM_VIS
100
AcDbLine
 10
156.6950597147759
 20
-176.5484042859865
 30
0.0
 11
156.6950597147759
 21
-172.6702604000534
 31
0.0
  0
ELLIPSE
  5
44EA
330
1E
100
AcDbEntity
  8
AM_VIS
100
AcDbEllipse
 10
170.1950597147759
 20
-174.6093323430199
 30
0.0
 11
14.69999999999999
 21
0.0000000000000033
 31
0.0
210
0.0
220
0.0
230
1.0
 40
0.3333333333333334
 41
2.734731173047614
 42
3.54845413413196
  0
ELLIPSE
  5
44EB
330
1E
100
AcDbEntity
  8
AM_VIS
100
AcDbEllipse
 10
148.6950597147759
 20
-174.6093323430199
 30
0.0
 11
-15.00000000000002
 21
-0.0000000000000033
 31
0.0
210
0.0
220
0.0
230
1.0
 40
0.3333333333333328
 41
3.508800674147628
 42
3.592619465386052
  0
ELLIPSE
  5
44EC
330
1E
100
AcDbEntity
  8
AM_VIS
100
AcDbEllipse
 10
148.6950597147759
 20
-174.6093323430199
 30
0.0
 11
-15.00000000000002
 21
-0.0000000000000033
 31
0.0
210
0.0
220
0.0
230
1.0
 40
0.3333333333333328
 41
2.690565841793533
 42
2.774384633031885
  0
LINE
  5
44ED
330
1E
100
AcDbEntity
  8
AM_VIS
100
AcDbLine
 10
162.1950597147758
 20
-172.4298828712496
 30
0.0
 11
162.1950597147758
 21
-176.7887818147903
 31
0.0
  0
LINE
  5
44EE
330
1E
100
AcDbEntity
  8
AM_VIS
100
AcDbLine
 10
162.6950597147759
 20
-169.6093323430199
 30
0.0
 11
156.6950597147759
 21
-169.6093323430199
 31
0.0
  0
LINE
  5
44EF
330
1E
100
AcDbEntity
  8
AM_VIS
 62
     3
100
AcDbLine
 10
135.1950597147759
 20
-170.20933234302
 30
0.0
 11
139.6950597147759
 21
-170.20933234302
 31
0.0
  0
LINE
  5
44F0
330
1E
100
AcDbEntity
  8
AM_VIS
 62
     3
100
AcDbLine
 10
135.1950597147759
 20
-179.0093323430199
 30
0.0
 11
139.6950597147759
 21
-179.0093323430199
 31
0.0
  0
LINE
  5
44F1
330
1E
100
AcDbEntity
  8
AM_VIS
 62
     3
100
AcDbLine
 10
151.6950597147759
 20
-179.0093323430199
 30
0.0
 11
154.1950597147758
 21
-179.0093323430199
 31
0.0
  0
LINE
  5
44F2
330
1E
100
AcDbEntity
  8
AM_VIS
 62
     3
100
AcDbLine
 10
151.6950597147759
 20
-170.20933234302
 30
0.0
 11
154.1950597147758
 21
-170.20933234302
 31
0.0
  0
LINE
  5
44F3
330
1E
100
AcDbEntity
  8
AM_VIS
100
AcDbLine
 10
154.1950597147758
 20
-179.5093323430199
 30
0.0
 11
154.1950597147758
 21
-169.7093323430199
 31
0.0
  0
DIMENSION
  5
44F4
330
1E
100
AcDbEntity
  8
AM_5
100
AcDbDimension
  2
*D43
 10
154.1950597147758
 20
-198.6093323430198
 30
0.0
 11
144.4450597147759
 21
-196.3093323430197
 31
0.0
 70
    32
 71
     5
 42
19.5
  3
AM_ISO
100
AcDbAlignedDimension
 13
134.6950597147759
 23
-178.5093323430199
 33
0.0
 14
154.1950597147758
 24
-179.5093323430199
 34
0.0
100
AcDbRotatedDimension
  0
DIMENSION
  5
44F5
330
1E
100
AcDbEntity
  8
AM_5
100
AcDbDimension
  2
*D44
 10
156.6950597147759
 20
-204.6093323430198
 30
0.0
 11
145.6950597147758
 21
-202.3090370674292
 31
0.0
 70
    32
 71
     5
 42
22.0
  3
AM_ISO
100
AcDbAlignedDimension
 13
134.6950597147759
 23
-178.5093323430199
 33
0.0
 14
156.6950597147759
 24
-179.6093323430199
 34
0.0
100
AcDbRotatedDimension
  0
TEXT
  5
44F6
330
1E
100
AcDbEntity
  8
AM_5
100
AcDbText
 10
70.50209687366145
 20
-150.4695562740255
 30
0.0
 40
3.0
  1
4-M6x1.0x11L
100
AcDbText
  0
INSERT
  5
44F7
330
1E
100
AcDbEntity
  8
AM_5
100
AcDbBlockReference
  2
*S27
 10
24.91759179195492
 20
-341.1268272052774
 30
0.0
  0
LINE
  5
44F8
330
1E
100
AcDbEntity
  8
AM_VIS
 62
     3
100
AcDbLine
 10
135.1950597147759
 20
-99.20085192370443
 30
0.0
 11
139.6950597147759
 21
-99.20085192370443
 31
0.0
  0
LINE
  5
44F9
330
1E
100
AcDbEntity
  8
AM_VIS
 62
     3
100
AcDbLine
 10
135.1950597147759
 20
-108.0008519237043
 30
0.0
 11
139.6950597147759
 21
-108.0008519237043
 31
0.0
  0
LINE
  5
44FA
330
1E
100
AcDbEntity
  8
AM_VIS
 62
     3
100
AcDbLine
 10
151.6950597147759
 20
-99.20085192370443
 30
0.0
 11
154.1950597147758
 21
-99.20085192370443
 31
0.0
  0
LINE
  5
44FB
330
1E
100
AcDbEntity
  8
AM_VIS
 62
     3
100
AcDbLine
 10
151.6950597147759
 20
-108.0008519237043
 30
0.0
 11
154.1950597147758
 21
-108.0008519237043
 31
0.0
  0
LINE
  5
44FC
330
1E
100
AcDbEntity
  8
AM_VIS
100
AcDbLine
 10
154.1950597147758
 20
-108.5008519237044
 30
0.0
 11
154.1950597147758
 21
-98.70085192370439
 31
0.0
  0
INSERT
  5
44FD
330
1E
100
AcDbEntity
  8
AM_5
100
AcDbBlockReference
  2
*S28
 10
24.91759179195492
 20
-341.1268272052774
 30
0.0
  0
TEXT
  5
44FE
330
1E
100
AcDbEntity
  8
AM_5
100
AcDbText
 10
113.8577497849387
 20
-156.642963426931
 30
0.0
 40
3.0
  1
M10x1.25
100
AcDbText
  0
INSERT
  5
44FF
330
1E
100
AcDbEntity
  8
AM_5
100
AcDbBlockReference
  2
*S29
 10
24.91759179195492
 20
-329.9538505638418
 30
0.0
  0
TEXT
  5
4500
330
1E
100
AcDbEntity
  8
AM_5
100
AcDbText
 10
202.646581165214
 20
-124.57188724933
 30
0.0
 40
3.0
  1
2-PT1/8
100
AcDbText
  0
LINE
  5
4504
330
1E
100
AcDbEntity
  8
AM_7
100
AcDbLine
 10
233.6950597147759
 20
-158.842513259711
 30
0.0
 11
233.6950597147759
 21
-168.7500198189054
 31
0.0
  0
LINE
  5
450C
330
1E
100
AcDbEntity
  8
AM_7
100
AcDbLine
 10
187.6950597147759
 20
-155.842513259711
 30
0.0
 11
187.6950597147759
 21
-165.7500198189054
 31
0.0
  0
LINE
  5
4511
330
1E
100
AcDbEntity
  8
AM_VIS
100
AcDbLine
 10
156.6950597147759
 20
-172.4298828712496
 30
0.0
 11
162.1950597147758
 21
-176.7887818147903
 31
0.0
  0
LINE
  5
4512
330
1E
100
AcDbEntity
  8
AM_VIS
100
AcDbLine
 10
156.6950597147759
 20
-176.7887818147903
 30
0.0
 11
162.1950597147758
 21
-172.4298828712496
 31
0.0
  0
INSERT
  5
48C5
330
1E
100
AcDbEntity
  8
0
100
AcDbBlockReference
  2
A$C1F6E6265
 10
210.6950591577281
 20
58.70314049263709
 30
0.0
 41
1.199999999999999
 42
1.199999999999999
 43
1.199999999999999
  0
LINE
  5
48C6
330
1E
100
AcDbEntity
  8
AM_VIS
  6
PHANTOM2
 62
     2
100
AcDbLine
 10
210.6950597147759
 20
95.69370747543997
 30
0.0
 11
210.6950597147759
 21
127.5040987009221
 31
0.0
1001
GENIUS_GENOBJ-N-CEN_13
1002
{
1000
OWNER
1000
GEN
1002
}
1001
GENIUS_GENODEF_13
1002
{
1000
HIER
1070
     0
1002
}
1002
{
1000
MANEDIT
1070
     0
1002
}
1002
{
1000
NOSEL
1070
     0
1002
}
1002
{
1000
BEHIND
1070
     0
1002
}
1002
{
1000
OTHER
1070
     0
1002
}
1002
{
1000
REACTOR
1002
}
1001
GENIUS_GENCEN_19
1002
{
1040
3.0
1002
}
  0
LINE
  5
48C7
330
1E
100
AcDbEntity
  8
AM_VIS
  6
PHANTOM2
 62
     2
100
AcDbLine
 10
210.6950597147759
 20
23.75609958903686
 30
0.0
 11
210.6950597147759
 21
62.03632287880253
 31
0.0
1001
GENIUS_GENOBJ-N-CEN_13
1002
{
1000
OWNER
1000
GEN
1002
}
1001
GENIUS_GENODEF_13
1002
{
1000
HIER
1070
     0
1002
}
1002
{
1000
MANEDIT
1070
     0
1002
}
1002
{
1000
NOSEL
1070
     0
1002
}
1002
{
1000
BEHIND
1070
     0
1002
}
1002
{
1000
OTHER
1070
     0
1002
}
1002
{
1000
REACTOR
1002
}
1001
GENIUS_GENCEN_19
1002
{
1040
3.0
1002
}
  0
INSERT
  5
48CB
330
1E
100
AcDbEntity
  8
0
100
AcDbBlockReference
  2
A$C1F6E6265
 10
210.6950591577281
 20
-156.3499354590309
 30
0.0
 41
1.199999999999999
 42
1.199999999999999
 43
1.199999999999999
  0
LINE
  5
48CC
330
1E
100
AcDbEntity
  8
AM_VIS
  6
PHANTOM2
 62
     2
100
AcDbLine
 10
210.6950597147759
 20
-119.359368476228
 30
0.0
 11
210.6950597147759
 21
-87.5489772507459
 31
0.0
1001
GENIUS_GENOBJ-N-CEN_13
1002
{
1000
OWNER
1000
GEN
1002
}
1001
GENIUS_GENODEF_13
1002
{
1000
HIER
1070
     0
1002
}
1002
{
1000
MANEDIT
1070
     0
1002
}
1002
{
1000
NOSEL
1070
     0
1002
}
1002
{
1000
BEHIND
1070
     0
1002
}
1002
{
1000
OTHER
1070
     0
1002
}
1002
{
1000
REACTOR
1002
}
1001
GENIUS_GENCEN_19
1002
{
1040
3.0
1002
}
  0
LINE
  5
48CD
330
1E
100
AcDbEntity
  8
AM_VIS
  6
PHANTOM2
 62
     2
100
AcDbLine
 10
210.6950597147759
 20
-191.2969763626311
 30
0.0
 11
210.6950597147759
 21
-153.0167530728654
 31
0.0
1001
GENIUS_GENOBJ-N-CEN_13
1002
{
1000
OWNER
1000
GEN
1002
}
1001
GENIUS_GENODEF_13
1002
{
1000
HIER
1070
     0
1002
}
1002
{
1000
MANEDIT
1070
     0
1002
}
1002
{
1000
NOSEL
1070
     0
1002
}
1002
{
1000
BEHIND
1070
     0
1002
}
1002
{
1000
OTHER
1070
     0
1002
}
1002
{
1000
REACTOR
1002
}
1001
GENIUS_GENCEN_19
1002
{
1040
3.0
1002
}
  0
ENDSEC
  0
SECTION
  2
OBJECTS
  0
DICTIONARY
  5
C
330
0
100
AcDbDictionary
281
     1
  3
ACAD_COLOR
350
2E5F
  3
ACAD_GROUP
350
D
  3
ACAD_IMAGE_DICT
350
3CB
  3
ACAD_LAYOUT
350
19
  3
ACAD_MATERIAL
350
2E5E
  3
ACAD_MLINESTYLE
350
16
  3
ACAD_PLOTSETTINGS
350
18
  3
ACAD_PLOTSTYLENAME
350
B31
  3
ACAD_TABLESTYLE
350
2E60
  3
ACDBHEADERROUNDTRIPXREC
350
4DF3
  3
AcDbVariableDictionary
350
BD2
  3
ACMDICTIONARY
350
7C2
  3
AMG
350
7A8
  3
AMGSNAPSETTINGS
350
895
  3
DWGPROPS
350
4DF2
1001
ACAD
1000
TREAT_AS_HARD
1070
     0
  0
DICTIONARY
  5
361C
330
2
100
AcDbDictionary
280
     1
281
     1
  3
ACAD_LAYERSTATES
360
361D
  0
DICTIONARY
  5
708
330
1E
100
AcDbDictionary
280
     1
281
     1
  3
ACAD_INDEX
360
2E00
  3
ACAD_LAYOUTSELFREF
360
2E38
1001
ACAD
1000
TREAT_AS_HARD
1070
     1
  0
DICTIONARY
  5
70A
330
1A
100
AcDbDictionary
280
     1
281
     1
  3
ACAD_LAYOUTSELFREF
360
2E37
1001
ACAD
1000
TREAT_AS_HARD
1070
     1
  0
DICTIONARY
  5
3B4C
330
3B4B
100
AcDbDictionary
280
     1
281
     1
  3
ACAD_SORTENTS
360
3B4D
  0
DICTIONARY
  5
2E5F
102
{ACAD_REACTORS
330
C
102
}
330
C
100
AcDbDictionary
281
     1
  0
DICTIONARY
  5
D
102
{ACAD_REACTORS
330
C
102
}
330
C
100
AcDbDictionary
281
     1
1001
ACAD
1000
TREAT_AS_HARD
1070
     0
  0
DICTIONARY
  5
3CB
102
{ACAD_REACTORS
330
C
102
}
330
C
100
AcDbDictionary
281
     1
  3
PLOT
350
3CC
1001
ACAD
1000
TREAT_AS_HARD
1070
     0
  0
DICTIONARY
  5
19
102
{ACAD_REACTORS
330
C
102
}
330
C
100
AcDbDictionary
281
     1
  3
Layout1
350
B34
  3
Model
350
B33
1001
ACAD
1000
TREAT_AS_HARD
1070
     0
  0
DICTIONARY
  5
2E5E
102
{ACAD_REACTORS
330
C
102
}
330
C
100
AcDbDictionary
281
     1
  0
DICTIONARY
  5
16
102
{ACAD_REACTORS
330
C
102
}
330
C
100
AcDbDictionary
281
     1
  3
STANDARD
350
17
1001
ACAD
1000
TREAT_AS_HARD
1070
     0
  0
DICTIONARY
  5
18
102
{ACAD_REACTORS
330
C
102
}
330
C
100
AcDbDictionary
281
     1
1001
ACAD
1000
TREAT_AS_HARD
1070
     0
  0
ACDBDICTIONARYWDFLT
  5
B31
102
{ACAD_REACTORS
330
C
102
}
330
C
100
AcDbDictionary
281
     1
  3
Normal
350
B32
100
AcDbDictionaryWithDefault
340
B32
  0
DICTIONARY
  5
2E60
102
{ACAD_REACTORS
330
C
102
}
330
C
100
AcDbDictionary
281
     1
  3
Standard
350
2E61
  0
DICTIONARY
  5
4DF3
102
{ACAD_REACTORS
330
C
102
}
330
C
100
AcDbDictionary
281
     1
  0
DICTIONARY
  5
BD2
102
{ACAD_REACTORS
330
C
102
}
330
C
100
AcDbDictionary
281
     1
  3
CTABLESTYLE
350
2EDF
  3
DIMASSOC
350
BD4
  3
INDEXCTL
350
BD3
  3
PROJECTNAME
350
4DF0
  0
DICTIONARY
  5
7C2
102
{ACAD_REACTORS
330
C
102
}
330
C
100
AcDbDictionary
281
     1
  3
ACMSTDDICTIONARY
350
7C8
  3
AMDTSECTSYM_ARROWCOLOR
350
2ED3
1001
ACAD
1000
TREAT_AS_HARD
1070
     0
  0
DICTIONARY
  5
7A8
102
{ACAD_REACTORS
330
C
102
}
330
C
100
AcDbDictionary
281
     1
1001
ACAD
1000
TREAT_AS_HARD
1070
     0
  0
DICTIONARY
  5
895
102
{ACAD_REACTORS
330
C
102
}
330
C
100
AcDbDictionary
281
     1
1001
ACAD
1000
TREAT_AS_HARD
1070
     0
  0
XRECORD
  5
4DF2
102
{ACAD_REACTORS
330
C
102
}
330
C
100
AcDbXrecord
280
     1
  1
DWGPROPS COOKIE
  2

  3

  4

  6

  7

  8

  9

300
AmdtFileType=84
301
=
302
=
303
=
304
=
305
=
306
=
307
=
308
=
309
=
 40
0.3733105671296296
 41
2450294.602131481
 42
2454117.69956868
  1

 90
        1
  0
DICTIONARY
  5
361D
102
{ACAD_REACTORS
330
361C
102
}
330
361C
100
AcDbDictionary
281
     1
  0
DICTIONARY
  5
2E00
102
{ACAD_REACTORS
330
708
102
}
330
708
100
AcDbDictionary
281
     1
  3
*A1
350
2E01
  0
XRECORD
  5
2E38
102
{ACAD_REACTORS
330
708
102
}
330
708
100
AcDbXrecord
280
     1
340
1E
  0
XRECORD
  5
2E37
102
{ACAD_REACTORS
330
70A
102
}
330
70A
100
AcDbXrecord
280
     1
340
1A
  0
SORTENTSTABLE
  5
3B4D
102
{ACAD_REACTORS
330
3B4C
102
}
330
3B4C
100
AcDbSortentsTable
330
3B4B
  0
IMAGEDEF
  5
3CC
102
{ACAD_REACTORS
330
3CB
102
}
330
3CB
100
AcDbRasterImageDef
 90
        0
  1
D:\CHI\plot.bmp
 10
694.0
 20
470.0
 11
0.264550269889837
 21
0.264550269889837
280
     1
281
     2
  0
LAYOUT
  5
B34
102
{ACAD_XDICTIONARY
360
4DF6
102
}
102
{ACAD_REACTORS
330
19
102
}
330
19
100
AcDbPlotSettings
  1

  2
自動 PC-WM51 上的 Epson LQ-1070C+
  4

  6

 40
0.0
 41
0.0
 42
0.0
 43
0.0
 44
0.0
 45
0.0
 46
0.0
 47
0.0
 48
0.0
 49
0.0
140
0.0
141
0.0
142
1.0
143
1.0
 70
   688
 72
     0
 73
     0
 74
     5
  7

 75
    16
147
1.0
148
0.0
149
0.0
100
AcDbLayout
  1
Layout1
 70
     0
 71
     1
 10
0.0
 20
0.0
 11
12.0
 21
9.0
 12
101.9887994410416
 22
50.0
 32
155.412184630939
 14
1.000000000000000E+20
 24
1.000000000000000E+20
 34
1.000000000000000E+20
 15
-1.000000000000000E+20
 25
-1.000000000000000E+20
 35
-1.000000000000000E+20
146
0.0
 13
0.0
 23
0.0
 33
0.0
 16
1.0
 26
0.0
 36
0.0
 17
0.0
 27
1.0
 37
0.0
 76
     0
330
1A
  0
LAYOUT
  5
B33
102
{ACAD_XDICTIONARY
360
4DF4
102
}
102
{ACAD_REACTORS
330
19
102
}
330
19
100
AcDbPlotSettings
  1

  2
none_device
  4
ISO_A4_(210.00_x_297.00_MM)
  6

 40
7.5
 41
20.0
 42
7.5
 43
20.0
 44
210.0
 45
297.0
 46
0.0
 47
0.0
 48
0.0
 49
0.0
140
0.0
141
0.0
142
1.0
143
2.864411588031361
 70
 11952
 72
     1
 73
     1
 74
     0
  7

 75
     0
147
0.3491118399947806
148
187.9022055435845
149
277.0584815244673
100
AcDbLayout
  1
Model
 70
     1
 71
     0
 10
0.0
 20
0.0
 11
12.0
 21
9.0
 12
0.0
 22
0.0
 32
0.0
 14
0.0
 24
0.0
 34
0.0
 15
0.0
 25
0.0
 35
0.0
146
0.0
 13
0.0
 23
0.0
 33
0.0
 16
1.0
 26
0.0
 36
0.0
 17
0.0
 27
1.0
 37
0.0
 76
     0
330
1E
1001
ACAD_PSEXT
1000
無
1000
無
1000
不適用
1000
除非另選一新建的繪圖機規劃名稱，否則配置將不會出圖。
1070
     0
  0
MLINESTYLE
  5
17
102
{ACAD_REACTORS
330
16
102
}
330
16
100
AcDbMlineStyle
  2
STANDARD
 70
     0
  3

 62
   256
 51
90.0
 52
90.0
 71
     2
 49
0.5
 62
   256
  6
BYLAYER
 49
-0.5
 62
   256
  6
BYLAYER
  0
ACDBPLACEHOLDER
  5
B32
102
{ACAD_REACTORS
330
B31
102
}
330
B31
  0
TABLESTYLE
  5
2E61
102
{ACAD_REACTORS
330
2E60
102
}
330
2E60
100
AcDbTableStyle
  3
Standard
 70
     0
 71
     0
 40
1.5
 41
1.5
280
     0
281
     0
  7
STANDARD
140
4.5
170
     2
 62
     0
 63
     7
283
     0
274
    -2
284
     1
 64
     0
275
    -2
285
     1
 65
     0
276
    -2
286
     1
 66
     0
277
    -2
287
     1
 67
     0
278
    -2
288
     1
 68
     0
279
    -2
289
     1
 69
     0
  7
STANDARD
140
6.0
170
     5
 62
     0
 63
     7
283
     0
274
    -2
284
     1
 64
     0
275
    -2
285
     1
 65
     0
276
    -2
286
     1
 66
     0
277
    -2
287
     1
 67
     0
278
    -2
288
     1
 68
     0
279
    -2
289
     1
 69
     0
  7
STANDARD
140
4.5
170
     5
 62
     0
 63
     7
283
     0
274
    -2
284
     1
 64
     0
275
    -2
285
     1
 65
     0
276
    -2
286
     1
 66
     0
277
    -2
287
     1
 67
     0
278
    -2
288
     1
 68
     0
279
    -2
289
     1
 69
     0
  0
DICTIONARYVAR
  5
2EDF
102
{ACAD_REACTORS
330
BD2
102
}
330
BD2
100
DictionaryVariables
280
     0
  1
STANDARD
  0
DICTIONARYVAR
  5
BD4
102
{ACAD_REACTORS
330
BD2
102
}
330
BD2
100
DictionaryVariables
280
     0
  1
1
  0
DICTIONARYVAR
  5
BD3
102
{ACAD_REACTORS
330
BD2
102
}
330
BD2
100
DictionaryVariables
280
     0
  1
1
  0
DICTIONARYVAR
  5
4DF0
102
{ACAD_REACTORS
330
BD2
102
}
330
BD2
100
DictionaryVariables
280
     0
  1

  0
DICTIONARY
  5
7C8
102
{ACAD_REACTORS
330
7C2
102
}
330
7C2
100
AcDbDictionary
281
     1
1001
ACAD
1000
TREAT_AS_HARD
1070
     0
  0
XRECORD
  5
2ED3
102
{ACAD_REACTORS
330
7C2
102
}
330
7C2
100
AcDbXrecord
280
     1
 90
-1023410169
  0
LAYER_INDEX
  5
2E01
102
{ACAD_REACTORS
330
2E00
102
}
330
2E00
100
AcDbIndex
 40
2454117.69956868
100
AcDbLayerIndex
  8
0
360
4DE8
 90
        7
  8
DEFPOINTS
360
4DE9
 90
        0
  8
ASHADE
360
4DEA
 90
        9
  8
AM_7
360
4DEB
 90
       93
  8
AM_VIS
360
4DEC
 90
      534
  8
AM_4
360
4DED
 90
        4
  8
AM_5
360
4DEE
 90
       46
  8
LOGO
360
4DEF
 90
      119
  0
DICTIONARY
  5
4DF6
330
B34
100
AcDbDictionary
280
     1
281
     1
  3
ACAD_XREC_ROUNDTRIP
360
4DF7
  0
DICTIONARY
  5
4DF4
330
B33
100
AcDbDictionary
280
     1
281
     1
  3
ACAD_XREC_ROUNDTRIP
360
4DF5
  0
IDBUFFER
  5
4DE8
330
0
100
AcDbIdBuffer
330
3750
330
3751
330
3752
330
3808
330
380A
330
48C5
330
48CB
  0
IDBUFFER
  5
4DE9
330
0
100
AcDbIdBuffer
  0
IDBUFFER
  5
4DEA
330
0
100
AcDbIdBuffer
330
51A
330
51B
330
51C
330
51D
330
51E
330
51F
330
520
330
521
330
528
  0
IDBUFFER
  5
4DEB
330
0
100
AcDbIdBuffer
330
4393
330
4394
330
4395
330
4396
330
4397
330
4398
330
4399
330
439A
330
439B
330
439C
330
439D
330
439E
330
439F
330
43A0
330
43A1
330
43A2
330
43A3
330
43A4
330
43A5
330
43A6
330
43A7
330
43A8
330
43A9
330
43AA
330
43AB
330
43AC
330
43AD
330
43AE
330
43AF
330
43B2
330
43B3
330
43B4
330
43B5
330
43B6
330
43B7
330
43B8
330
43B9
330
43BA
330
43BB
330
43BC
330
43BD
330
43BE
330
43BF
330
4504
330
450C
330
3DFF
330
3E07
330
3F00
330
3F01
330
3F02
330
3F03
330
3F04
330
3F05
330
3F06
330
3F07
330
3F08
330
3F09
330
3F0A
330
3F0B
330
3F0E
330
3F0F
330
3F10
330
3F11
330
3F12
330
3F13
330
3F14
330
3F15
330
3F16
330
3F17
330
3F18
330
3F19
330
3F1A
330
3F1B
330
3F1C
330
3F1D
330
3F1E
330
3F1F
330
3F20
330
3F21
330
3F22
330
3F23
330
3F24
330
3F25
330
3F26
330
3F27
330
3F2D
330
4388
330
4389
330
438A
330
438B
330
438C
330
438D
330
4392
  0
IDBUFFER
  5
4DEC
330
0
100
AcDbIdBuffer
330
4494
330
4495
330
44DB
330
44DC
330
44DD
330
44DE
330
44DF
330
44E0
330
44E1
330
44E2
330
44E3
330
44E4
330
44E5
330
44E6
330
44E7
330
44E8
330
44E9
330
44EA
330
44EB
330
44EC
330
44ED
330
44EE
330
44EF
330
44F0
330
44F1
330
44F2
330
44F3
330
44F8
330
44F9
330
44FA
330
44FB
330
44FC
330
4511
330
4512
330
48C6
330
48C7
330
48CC
330
48CD
330
3E0C
330
3E0D
330
3E0E
330
3E0F
330
3E10
330
3E11
330
3E12
330
3E13
330
3E14
330
3E15
330
3E16
330
3E17
330
3E18
330
3E19
330
3E1A
330
3E1B
330
3E1C
330
3E1D
330
3E1E
330
3E1F
330
3E20
330
3E21
330
3E22
330
3E23
330
3E24
330
3E25
330
3E26
330
3E27
330
3E28
330
3E29
330
3E2A
330
3E2B
330
3E2C
330
3E2D
330
3E2E
330
3E2F
330
3E30
330
3E31
330
3E32
330
3E33
330
3E34
330
3E35
330
3E36
330
3E37
330
3E38
330
3E39
330
3E3A
330
3E3B
330
3E3C
330
3E3D
330
3E3E
330
3E41
330
3E42
330
3E43
330
3E44
330
3E45
330
3E46
330
3E47
330
3E48
330
3E49
330
3E4A
330
3E4B
330
3E4C
330
3E4D
330
3E4E
330
3E4F
330
3E50
330
3E51
330
3E52
330
3E53
330
3E54
330
3E55
330
3E56
330
3E57
330
3E58
330
3E59
330
3E5A
330
3E5B
330
3E5C
330
3E5D
330
3E5E
330
3E5F
330
3E60
330
3E61
330
3E62
330
3E63
330
3E64
330
3E65
330
3E66
330
3E67
330
3E68
330
3E69
330
3E6A
330
3E6B
330
3E6C
330
3E6D
330
3E6E
330
3E6F
330
3E70
330
3E72
330
3E73
330
3E74
330
3E75
330
3E77
330
3E78
330
3E79
330
3E7A
330
3E7B
330
3E7C
330
3E7D
330
3E7E
330
3E7F
330
3E80
330
3E81
330
3E82
330
3E83
330
3E84
330
3E85
330
3E86
330
3E87
330
3E88
330
3E89
330
3E8A
330
3E8B
330
3E8C
330
3E8D
330
3E8E
330
3E8F
330
3E91
330
3E92
330
3E93
330
3E94
330
3E95
330
3E96
330
3E97
330
3E98
330
3E99
330
3E9A
330
3E9B
330
3E9C
330
3E9D
330
3E9E
330
3E9F
330
3EA0
330
3EA1
330
3EA2
330
3EA3
330
3EA4
330
3EA5
330
3EA6
330
3EA7
330
3EA8
330
3EA9
330
3EAA
330
3EAD
330
3EAE
330
3EAF
330
3EB0
330
3EB1
330
3EB2
330
3EB3
330
3EB4
330
3EB5
330
3EB6
330
3EB7
330
3EB8
330
3EB9
330
3EBA
330
3EBB
330
3EBC
330
3EBD
330
3EBE
330
3EBF
330
3EC0
330
3EC1
330
3EC2
330
3EC3
330
3EC4
330
3EC5
330
3EC6
330
3EC7
330
3EC8
330
3EC9
330
3ECA
330
3ECB
330
3ECC
330
3ECD
330
3ECE
330
3ECF
330
3ED0
330
3ED1
330
3ED2
330
3ED3
330
3ED4
330
3ED5
330
3ED7
330
3ED8
330
3ED9
330
3EDA
330
3EDB
330
3EDC
330
3EDD
330
3EDE
330
3EDF
330
3EE0
330
3EE1
330
3EE2
330
3EE3
330
3EE4
330
3EE5
330
3EE6
330
3EE7
330
3EE8
330
3EE9
330
3EEA
330
3EEB
330
3EEC
330
3EED
330
3EEE
330
3EEF
330
3EF0
330
3EF1
330
3EF2
330
3EF3
330
3EF4
330
3EF5
330
3EF6
330
3EF7
330
3EF8
330
3EF9
330
3EFA
330
3EFB
330
3EFC
330
3EFD
330
3EFE
330
3EFF
330
3F3C
330
3F3D
330
3F3E
330
3F3F
330
3F40
330
3F41
330
3F42
330
3F43
330
3F44
330
3F45
330
3F46
330
3F47
330
3F48
330
3F49
330
3F4A
330
3F4B
330
3F4C
330
3F4D
330
3F4E
330
3F4F
330
3F62
330
3F63
330
3F64
330
3F65
330
3F66
330
3F67
330
3F68
330
436A
330
436B
330
436C
330
436D
330
436E
330
436F
330
4370
330
4371
330
4372
330
4373
330
4374
330
4375
330
4376
330
4377
330
4378
330
4379
330
437A
330
437B
330
437C
330
437D
330
437E
330
437F
330
4380
330
4381
330
4382
330
4383
330
4384
330
4385
330
4386
330
4387
330
43C0
330
43C1
330
43C2
330
43C3
330
43C4
330
43C5
330
43C6
330
43C7
330
43C8
330
43C9
330
43CA
330
43CB
330
43CC
330
43CD
330
43CE
330
43CF
330
43D0
330
43D1
330
43D2
330
43D3
330
43D4
330
43D5
330
43D6
330
43D7
330
43D8
330
43D9
330
43DA
330
43DB
330
43DC
330
43DD
330
43DE
330
43DF
330
43E0
330
43E1
330
43E2
330
43E3
330
43E4
330
43E5
330
43E6
330
43E7
330
43E8
330
43E9
330
43EA
330
43EB
330
43EC
330
43ED
330
43EE
330
43EF
330
43F0
330
43F1
330
43F2
330
43F3
330
43F4
330
43F5
330
43F6
330
43F9
330
43FA
330
43FB
330
43FC
330
43FD
330
43FE
330
43FF
330
4400
330
4401
330
4402
330
4403
330
4404
330
4405
330
4406
330
4407
330
4408
330
4409
330
440A
330
440B
330
440C
330
440D
330
440E
330
440F
330
4410
330
4411
330
4412
330
4413
330
4414
330
4415
330
4416
330
4417
330
4418
330
4419
330
441A
330
441B
330
441C
330
441D
330
441E
330
441F
330
4420
330
4421
330
4422
330
4423
330
4424
330
4425
330
4426
330
4428
330
4429
330
442B
330
442C
330
442D
330
442E
330
442F
330
4430
330
4431
330
4432
330
4433
330
4434
330
4435
330
4436
330
4437
330
4438
330
4439
330
443A
330
443B
330
443C
330
443D
330
443E
330
443F
330
4440
330
4441
330
4442
330
4443
330
4445
330
4446
330
4447
330
4448
330
4449
330
444A
330
444B
330
444C
330
444D
330
444E
330
444F
330
4450
330
4451
330
4452
330
4453
330
4454
330
4455
330
4456
330
4457
330
4458
330
4459
330
445A
330
445B
330
445C
330
445D
330
445E
330
4461
330
4462
330
4463
330
4464
330
4465
330
4466
330
4467
330
4468
330
4469
330
446A
330
446B
330
446C
330
446D
330
446E
330
446F
330
4470
330
4471
330
4472
330
4473
330
4474
330
4475
330
4476
330
4477
330
4478
330
4479
330
447A
330
447B
330
447C
330
447D
330
447E
330
447F
330
4480
330
4481
330
4482
330
4483
330
4484
330
4485
330
4486
330
4487
330
4488
330
448B
330
448C
330
448D
330
448E
330
448F
330
4490
330
4491
330
4492
330
4493
  0
IDBUFFER
  5
4DED
330
0
100
AcDbIdBuffer
330
438E
330
438F
330
4390
330
4391
  0
IDBUFFER
  5
4DEE
330
0
100
AcDbIdBuffer
330
3F5E
330
3F5F
330
3F60
330
3F61
330
3F69
330
3F6A
330
3F6B
330
3F6C
330
3F6D
330
44CE
330
44CF
330
44D0
330
44D1
330
44D2
330
44D3
330
44D4
330
44D5
330
44D6
330
44D7
330
44D8
330
44D9
330
44DA
330
44F4
330
44F5
330
44F6
330
44F7
330
44FD
330
44FE
330
44FF
330
4500
330
3F3A
330
3F3B
330
3F50
330
3F51
330
3F52
330
3F53
330
3F54
330
3F55
330
3F56
330
3F57
330
3F58
330
3F59
330
3F5A
330
3F5B
330
3F5C
330
3F5D
  0
IDBUFFER
  5
4DEF
330
0
100
AcDbIdBuffer
330
374C
330
374D
330
374E
330
374F
330
3B49
330
3B6C
330
3B6D
330
36BB
330
36BC
330
36BD
330
36BE
330
36BF
330
36C0
330
36C1
330
36C2
330
36C3
330
36C4
330
36C5
330
36C6
330
36C7
330
36C8
330
36C9
330
36CA
330
36CB
330
36CC
330
36CD
330
36CE
330
36CF
330
36D0
330
36D1
330
36D2
330
36D3
330
36D4
330
36D5
330
36D6
330
36D7
330
36D8
330
36D9
330
36DD
330
36E1
330
36E2
330
36E6
330
36E7
330
36E8
330
36E9
330
36EA
330
36EB
330
36EC
330
36ED
330
36F1
330
36F5
330
36F9
330
36FA
330
36FB
330
36FF
330
3700
330
3701
330
3702
330
3703
330
3704
330
3705
330
3706
330
3707
330
3708
330
3709
330
370A
330
370B
330
370C
330
370D
330
370E
330
370F
330
3710
330
3711
330
3712
330
3713
330
3714
330
3715
330
3716
330
3717
330
3718
330
3719
330
371A
330
371B
330
371C
330
371D
330
371E
330
371F
330
3720
330
3721
330
3722
330
3723
330
3724
330
3725
330
3726
330
3727
330
3728
330
3729
330
372A
330
372B
330
372C
330
372D
330
372E
330
372F
330
3730
330
3731
330
3732
330
3733
330
3734
330
3735
330
3736
330
3737
330
3738
330
3739
330
373A
330
373B
330
373C
330
373D
330
374A
330
374B
  0
XRECORD
  5
4DF7
102
{ACAD_REACTORS
330
4DF6
102
}
330
4DF6
100
AcDbXrecord
280
     1
102
SHADEPLOT
 70
     0
102
SHADEPLOTRESLEVEL
 70
     2
102
SHADEPLOTCUSTOMDPI
 70
   300
  0
XRECORD
  5
4DF5
102
{ACAD_REACTORS
330
4DF4
102
}
330
4DF4
100
AcDbXrecord
280
     1
102
SHADEPLOT
 70
     0
102
SHADEPLOTRESLEVEL
 70
     2
102
SHADEPLOTCUSTOMDPI
 70
   300
  0
ENDSEC
  0
EOF
