  0
SECTION
  2
HEADER
  9
$ACADVER
  1
AC1015
  9
$ACADMAINTVER
 70
    20
  9
$DWGCODEPAGE
  3
ANSI_950
  9
$INSBASE
 10
0.0
 20
0.0
 30
0.0
  9
$EXTMIN
 10
118.3924563099635
 20
-117.5552952864573
 30
-0.0000000000000002
  9
$EXTMAX
 10
451.6257640924127
 20
157.5791892008699
 30
229.3510200800871
  9
$LIMMIN
 10
0.0
 20
0.0
  9
$LIMMAX
 10
420.0
 20
297.0
  9
$ORTHOMODE
 70
     0
  9
$REGENMODE
 70
     1
  9
$FILLMODE
 70
     1
  9
$QTEXTMODE
 70
     0
  9
$MIRRTEXT
 70
     1
  9
$LTSCALE
 40
1.0
  9
$ATTMODE
 70
     1
  9
$TEXTSIZE
 40
3.0
  9
$TRACEWID
 40
1.0
  9
$TEXTSTYLE
  7
STANDARD
  9
$CLAYER
  8
0
  9
$CELTYPE
  6
ByLayer
  9
$CECOLOR
 62
   256
  9
$CELTSCALE
 40
1.0
  9
$DISPSILH
 70
     0
  9
$DIMSCALE
 40
1.0
  9
$DIMASZ
 40
3.0
  9
$DIMEXO
 40
1.5
  9
$DIMDLI
 40
8.0
  9
$DIMRND
 40
0.0
  9
$DIMDLE
 40
0.0
  9
$DIMEXE
 40
1.5
  9
$DIMTP
 40
0.1
  9
$DIMTM
 40
0.1
  9
$DIMTXT
 40
3.5
  9
$DIMCEN
 40
0.0
  9
$DIMTSZ
 40
0.0
  9
$DIMTOL
 70
     0
  9
$DIMLIM
 70
     0
  9
$DIMTIH
 70
     0
  9
$DIMTOH
 70
     0
  9
$DIMSE1
 70
     0
  9
$DIMSE2
 70
     0
  9
$DIMTAD
 70
     1
  9
$DIMZIN
 70
     8
  9
$DIMBLK
  1

  9
$DIMASO
 70
     1
  9
$DIMSHO
 70
     1
  9
$DIMPOST
  1

  9
$DIMAPOST
  1
"
  9
$DIMALT
 70
     0
  9
$DIMALTD
 70
     2
  9
$DIMALTF
 40
0.0393701
  9
$DIMLFAC
 40
1.0
  9
$DIMTOFL
 70
     1
  9
$DIMTVP
 40
0.0
  9
$DIMTIX
 70
     0
  9
$DIMSOXD
 70
     0
  9
$DIMSAH
 70
     0
  9
$DIMBLK1
  1

  9
$DIMBLK2
  1

  9
$DIMSTYLE
  2
AM_ISO
  9
$DIMCLRD
 70
   256
  9
$DIMCLRE
 70
   256
  9
$DIMCLRT
 70
   256
  9
$DIMTFAC
 40
0.6
  9
$DIMGAP
 40
1.0
  9
$DIMJUST
 70
     0
  9
$DIMSD1
 70
     0
  9
$DIMSD2
 70
     0
  9
$DIMTOLJ
 70
     0
  9
$DIMTZIN
 70
     8
  9
$DIMALTZ
 70
     0
  9
$DIMALTTZ
 70
     0
  9
$DIMUPT
 70
     0
  9
$DIMDEC
 70
     2
  9
$DIMTDEC
 70
     8
  9
$DIMALTU
 70
     2
  9
$DIMALTTD
 70
     2
  9
$DIMTXSTY
  7
STANDARD
  9
$DIMAUNIT
 70
     0
  9
$DIMADEC
 70
     0
  9
$DIMALTRND
 40
0.0
  9
$DIMAZIN
 70
     2
  9
$DIMDSEP
 70
    46
  9
$DIMATFIT
 70
     3
  9
$DIMFRAC
 70
     0
  9
$DIMLDRBLK
  1

  9
$DIMLUNIT
 70
     2
  9
$DIMLWD
 70
    -1
  9
$DIMLWE
 70
    -1
  9
$DIMTMOVE
 70
     0
  9
$LUNITS
 70
     2
  9
$LUPREC
 70
     2
  9
$SKETCHINC
 40
1.0
  9
$FILLETRAD
 40
2.5
  9
$AUNITS
 70
     0
  9
$AUPREC
 70
     0
  9
$MENU
  1
.
  9
$ELEVATION
 40
0.0
  9
$PELEVATION
 40
0.0
  9
$THICKNESS
 40
0.0
  9
$LIMCHECK
 70
     0
  9
$CHAMFERA
 40
2.5
  9
$CHAMFERB
 40
2.5
  9
$CHAMFERC
 40
20.0
  9
$CHAMFERD
 40
0.0
  9
$SKPOLY
 70
     0
  9
$TDCREATE
 40
2454511.659716065
  9
$TDUCREATE
 40
2454511.326382732
  9
$TDUPDATE
 40
2456133.599885706
  9
$TDUUPDATE
 40
2456133.266552373
  9
$TDINDWG
 40
0.8917281597
  9
$TDUSRTIMER
 40
0.8917281597
  9
$USRTIMER
 70
     1
  9
$ANGBASE
 50
0.0
  9
$ANGDIR
 70
     0
  9
$PDMODE
 70
     0
  9
$PDSIZE
 40
0.0
  9
$PLINEWID
 40
0.0
  9
$SPLFRAME
 70
     0
  9
$SPLINETYPE
 70
     6
  9
$SPLINESEGS
 70
     8
  9
$HANDSEED
  5
36E8
  9
$SURFTAB1
 70
     6
  9
$SURFTAB2
 70
     6
  9
$SURFTYPE
 70
     6
  9
$SURFU
 70
     6
  9
$SURFV
 70
     6
  9
$UCSBASE
  2

  9
$UCSNAME
  2

  9
$UCSORG
 10
0.0
 20
0.0
 30
0.0
  9
$UCSXDIR
 10
1.0
 20
0.0
 30
0.0
  9
$UCSYDIR
 10
0.0
 20
1.0
 30
0.0
  9
$UCSORTHOREF
  2

  9
$UCSORTHOVIEW
 70
     0
  9
$UCSORGTOP
 10
0.0
 20
0.0
 30
0.0
  9
$UCSORGBOTTOM
 10
0.0
 20
0.0
 30
0.0
  9
$UCSORGLEFT
 10
0.0
 20
0.0
 30
0.0
  9
$UCSORGRIGHT
 10
0.0
 20
0.0
 30
0.0
  9
$UCSORGFRONT
 10
0.0
 20
0.0
 30
0.0
  9
$UCSORGBACK
 10
0.0
 20
0.0
 30
0.0
  9
$PUCSBASE
  2

  9
$PUCSNAME
  2

  9
$PUCSORG
 10
0.0
 20
0.0
 30
0.0
  9
$PUCSXDIR
 10
1.0
 20
0.0
 30
0.0
  9
$PUCSYDIR
 10
0.0
 20
1.0
 30
0.0
  9
$PUCSORTHOREF
  2

  9
$PUCSORTHOVIEW
 70
     0
  9
$PUCSORGTOP
 10
0.0
 20
0.0
 30
0.0
  9
$PUCSORGBOTTOM
 10
0.0
 20
0.0
 30
0.0
  9
$PUCSORGLEFT
 10
0.0
 20
0.0
 30
0.0
  9
$PUCSORGRIGHT
 10
0.0
 20
0.0
 30
0.0
  9
$PUCSORGFRONT
 10
0.0
 20
0.0
 30
0.0
  9
$PUCSORGBACK
 10
0.0
 20
0.0
 30
0.0
  9
$USERI1
 70
     0
  9
$USERI2
 70
     0
  9
$USERI3
 70
     0
  9
$USERI4
 70
     0
  9
$USERI5
 70
     0
  9
$USERR1
 40
0.0
  9
$USERR2
 40
0.0
  9
$USERR3
 40
0.0
  9
$USERR4
 40
0.0
  9
$USERR5
 40
0.0
  9
$WORLDVIEW
 70
     1
  9
$SHADEDGE
 70
     3
  9
$SHADEDIF
 70
    70
  9
$TILEMODE
 70
     1
  9
$MAXACTVP
 70
    64
  9
$PINSBASE
 10
0.0
 20
0.0
 30
0.0
  9
$PLIMCHECK
 70
     0
  9
$PEXTMIN
 10
1.000000000000000E+20
 20
1.000000000000000E+20
 30
1.000000000000000E+20
  9
$PEXTMAX
 10
-1.000000000000000E+20
 20
-1.000000000000000E+20
 30
-1.000000000000000E+20
  9
$PLIMMIN
 10
0.0
 20
0.0
  9
$PLIMMAX
 10
420.0
 20
297.0
  9
$UNITMODE
 70
     0
  9
$VISRETAIN
 70
     1
  9
$PLINEGEN
 70
     0
  9
$PSLTSCALE
 70
     1
  9
$TREEDEPTH
 70
  3020
  9
$CMLSTYLE
  2
Standard
  9
$CMLJUST
 70
     0
  9
$CMLSCALE
 40
20.0
  9
$PROXYGRAPHICS
 70
     1
  9
$MEASUREMENT
 70
     1
  9
$CELWEIGHT
370
    -1
  9
$ENDCAPS
280
     0
  9
$JOINSTYLE
280
     0
  9
$LWDISPLAY
290
     0
  9
$INSUNITS
 70
     4
  9
$HYPERLINKBASE
  1

  9
$STYLESHEET
  1
彩色出圖.ctb
  9
$XEDIT
290
     1
  9
$CEPSNTYPE
380
     0
  9
$PSTYLEMODE
290
     1
  9
$FINGERPRINTGUID
  2
{AAA01E1A-376A-4450-A17A-698DA31AD93F}
  9
$VERSIONGUID
  2
{FAA30B7D-CA30-4333-AF10-83DF6F6505E8}
  9
$EXTNAMES
290
     1
  9
$PSVPSCALE
 40
0.0
  9
$OLESTARTUP
290
     0
  0
ENDSEC
  0
SECTION
  2
CLASSES
  0
CLASS
  1
ACDBDICTIONARYWDFLT
  2
AcDbDictionaryWithDefault
  3
ObjectDBX Classes
 90
        0
280
     0
281
     0
  0
CLASS
  1
ACDBPLACEHOLDER
  2
AcDbPlaceHolder
  3
ObjectDBX Classes
 90
        0
280
     0
281
     0
  0
CLASS
  1
LAYOUT
  2
AcDbLayout
  3
ObjectDBX Classes
 90
        0
280
     0
281
     0
  0
CLASS
  1
ACME_DOCUMENT
  2
AcMeDbDoc
  3
AcMeServices
 90
        0
280
     0
281
     0
  0
CLASS
  1
AMGSETTINGSOBJ
  2
AmgSettingsObj
  3
"AcadM|Product Description: AutoCAD Mechanical 2000|Company: Autodesk"
 90
        0
280
     0
281
     0
  0
CLASS
  1
ACMESCOPE
  2
AcMeScope
  3
AcMeServices
 90
        0
280
     0
281
     0
  0
CLASS
  1
ACMECOMMANDHISTORY
  2
AcMeCommandHistory
  3
AcMeServices
 90
        0
280
     0
281
     0
  0
CLASS
  1
ACIMSYSVARMAN
  2
AcImSysVarManager
  3
AcMeServices
 90
        0
280
     0
281
     0
  0
CLASS
  1
ACIMREALSYSVAR
  2
AcImRealSysVar
  3
AcMeServices
 90
        0
280
     0
281
     0
  0
CLASS
  1
ACIMINTSYSVAR
  2
AcImIntSysVar
  3
AcMeServices
 90
        0
280
     0
281
     0
  0
CLASS
  1
ACMEDRAWINGMAN
  2
AcMeDrawingMan
  3
AcMeServices
 90
        0
280
     0
281
     0
  0
CLASS
  1
ACMEVIEW
  2
AcMeView
  3
AcMeServices
 90
        0
280
     0
281
     0
  0
CLASS
  1
ACDBENTITYCACHE
  2
AcMeEntityCache
  3
AcMeServices
 90
        0
280
     0
281
     0
  0
CLASS
  1
GSMANAGER
  2
AcMeGSManager
  3
AcMeServices
 90
        0
280
     0
281
     0
  0
CLASS
  1
AMDTINTERNALREACTOR
  2
AmdtInternalReactor
  3
AcMeServices
 90
        0
280
     0
281
     0
  0
CLASS
  1
ACMESTATEMGR
  2
AcMeStateMgr
  3
AcMeServices
 90
        0
280
     0
281
     0
  0
CLASS
  1
ACGREFMASTER
  2
AcGrefMaster
  3
AcAttribServices
 90
        0
280
     0
281
     0
  0
CLASS
  1
ACME_DATABASE
  2
AcMeDbDatabase
  3
AcMeServices
 90
        0
280
     0
281
     0
  0
CLASS
  1
ACRFINSADJUSTERMGR
  2
AcRfInsAdjusterMgr
  3
AcMeServices
 90
        0
280
     0
281
     0
  0
CLASS
  1
ACGREFACADMASTER
  2
AcGrefacadMaster
  3
AcGrefServices
 90
        0
280
     0
281
     0
  0
CLASS
  1
AMIMASTER
  2
AmiMaster
  3
AmiServices
 90
        0
280
     0
281
     0
  0
CLASS
  1
ACMDATADICTIONARY
  2
AcmDataDictionary
  3
"AcmSymBB|Product Description: AutoCAD Mechanical 2004 DX|Company: Autodesk"
 90
        0
280
     0
281
     0
  0
CLASS
  1
ACMDATAENTRYBLOCK
  2
AcmDataEntryBlock
  3
"AcmSymBB|Product Description: AutoCAD Mechanical 2004 DX|Company: Autodesk"
 90
        0
280
     0
281
     0
  0
CLASS
  1
ACIMSTRSYSVAR
  2
AcImStrSysVar
  3
AcMeServices
 90
        0
280
     0
281
     0
  0
CLASS
  1
ACMSTANDARDISO
  2
AcmStandardISO
  3
"Amdt_StdImp|Product Description: AutoCAD Mechanical 2004 DX|Company: Autodesk"
 90
        0
280
     0
281
     0
  0
CLASS
  1
AMGOBJPROPCFG
  2
AmgObjPropCfg
  3
"AmgLay|Product Description: AutoCAD Mechanical 2000|Company: Autodesk"
 90
        1
280
     0
281
     0
  0
CLASS
  1
AMDTEDGESTANDARDISO
  2
AmdtEdgeStdISO
  3
"Amdt_StdImp|Product Description: AutoCAD Mechanical 2004 DX|Company: Autodesk"
 90
    32768
280
     0
281
     0
  0
CLASS
  1
ACMSURFSTANDARDISO
  2
AcmSurfTextStdISO
  3
"Amdt_StdImp|Product Description: AutoCAD Mechanical 2004 DX|Company: Autodesk"
 90
        0
280
     0
281
     0
  0
CLASS
  1
ACMFCFSTANDARDISO
  2
AcmFCFStdISO
  3
"Amdt_StdImp|Product Description: AutoCAD Mechanical 2004 DX|Company: Autodesk"
 90
        0
280
     0
281
     0
  0
CLASS
  1
ACMWELDSTANDARDISO
  2
AcmWeldingStdISO
  3
"Amdt_StdImp|Product Description: AutoCAD Mechanical 2004 DX|Company: Autodesk"
 90
        0
280
     0
281
     0
  0
CLASS
  1
ACMIDSTANDARDISO
  2
AcmIdStdISO
  3
"Amdt_StdImp|Product Description: AutoCAD Mechanical 2004 DX|Company: Autodesk"
 90
        0
280
     0
281
     0
  0
CLASS
  1
ACMDATUMSTANDARDISO
  2
AcmDatumStdISO
  3
"Amdt_StdImp|Product Description: AutoCAD Mechanical 2004 DX|Company: Autodesk"
 90
        0
280
     0
281
     0
  0
CLASS
  1
ACMBOMSTANDARDISO
  2
AcmBOMStdISO
  3
"Amdt_StdImp|Product Description: AutoCAD Mechanical 2004 DX|Company: Autodesk"
 90
        0
280
     0
281
     0
  0
CLASS
  1
ACMDETAILSTANDARDISO
  2
AmdtDetailSymStdISO
  3
"Amdt_StdImp|Product Description: AutoCAD Mechanical 2004 DX|Company: Autodesk"
 90
        0
280
     0
281
     0
  0
CLASS
  1
ACMSECTIONSTANDARDISO
  2
AmdtSectionSymStdISO
  3
"Amdt_StdImp|Product Description: AutoCAD Mechanical 2004 DX|Company: Autodesk"
 90
        0
280
     0
281
     0
  0
CLASS
  1
ACMCENTERLINESTANDARDISO
  2
AmdtCenterLineStdISO
  3
"Amdt_StdImp|Product Description: AutoCAD Mechanical 2004 DX|Company: Autodesk"
 90
        0
280
     0
281
     0
  0
CLASS
  1
ACMNOTESTANDARDISO
  2
AmdtNoteStdISO
  3
"Amdt_StdImp|Product Description: AutoCAD Mechanical 2004 DX|Company: Autodesk"
 90
        0
280
     0
281
     0
  0
CLASS
  1
ACAMGLAYSTD
  2
AcAmgLayStd
  3
"AcAmgLayStd|Product Description: AutoCAD Mechanical 2000|Company: Autodesk"
 90
        0
280
     0
281
     0
  0
CLASS
  1
ACAMGDIMSTD
  2
AcAmgDimStd
  3
"AcAmgDimStd|Product Description: AutoCAD Mechanical 2000|Company: Autodesk"
 90
        0
280
     0
281
     0
  0
CLASS
  1
ACAMGHOLECHARTSTDISO
  2
AcAmgHoleChartStdISO
  3
ACMSYMBB_MODULE_NAME
 90
        0
280
     0
281
     0
  0
CLASS
  1
ACAMGTITLESTD
  2
AcAmgTitleStd
  3
"TITLEAPP"
 90
        0
280
     0
281
     0
  0
CLASS
  1
LAYER_INDEX
  2
AcDbLayerIndex
  3
ObjectDBX Classes
 90
        0
280
     0
281
     0
  0
CLASS
  1
IDBUFFER
  2
AcDbIdBuffer
  3
ObjectDBX Classes
 90
        0
280
     0
281
     0
  0
CLASS
  1
DICTIONARYVAR
  2
AcDbDictionaryVar
  3
ObjectDBX Classes
 90
        0
280
     0
281
     0
  0
CLASS
  1
AM_DRAWING_MGR
  2
AcDmDwgMgr
  3
AcMechDwgViewMgmt
 90
        0
280
     0
281
     0
  0
CLASS
  1
AM_DWG_DOCUMENT
  2
AcDmDwgDocument
  3
AcMechDwgViewMgmt
 90
        0
280
     0
281
     0
  0
CLASS
  1
AM_DWG_SHEET
  2
AcDmSheet
  3
AcMechDwgViewMgmt
 90
        0
280
     0
281
     0
  0
CLASS
  1
AM_VIEWDIMPARMAP
  2
AcDmViewDimParMap
  3
AcMechDwgViewMgmt
 90
        0
280
     0
281
     0
  0
CLASS
  1
AM_DWGMGR_NAME
  2
AcDmDwgMgrName
  3
AcMechDwgViewMgmt
 90
        0
280
     0
281
     0
  0
CLASS
  1
AMDTMENUSTATEMGR
  2
AmdtMenuStateMgr
  3
McadcomServices
 90
        0
280
     0
281
     0
  0
CLASS
  1
AMDTMCOMMENUSTATE
  2
AmdtMcomMenuState
  3
McadcomServices
 90
        0
280
     0
281
     0
  0
CLASS
  1
MAPIAMMOUDLE
  2
MApiAmModule
  3
MApiAmServices
 90
        0
280
     0
281
     0
  0
CLASS
  1
AMDTADMENUSTATE
  2
AmdtAdMenuState
  3
DesignerServices
 90
        0
280
     0
281
     0
  0
CLASS
  1
ADAPPL
  2
AcAdAppl
  3
DesignerServices
 90
        0
280
     0
281
     0
  0
CLASS
  1
DEPMGR
  2
AcAdDepMgr
  3
DesignerServices
 90
        0
280
     0
281
     0
  0
CLASS
  1
PARAMMGR
  2
AcAdParamMgr
  3
DesignerServices
 90
        0
280
     0
281
     0
  0
CLASS
  1
PARAMSCOPE
  2
AcAdParamScope
  3
DesignerServices
 90
        0
280
     0
281
     0
  0
CLASS
  1
NAMEDAPPL
  2
AcAdNamedAppl
  3
DesignerServices
 90
        0
280
     0
281
     0
  0
CLASS
  1
AMDTDMMENUSTATE
  2
AmdtDmMenuState
  3
AcMechDwgViewMgmt
 90
        0
280
     0
281
     0
  0
CLASS
  1
AMDTAMMENUSTATE
  2
AmdtAmMenuState
  3
DesignerAssemblies
 90
        0
280
     0
281
     0
  0
CLASS
  1
ACAMPROJECT
  2
AcAmProject
  3
DesignerAssemblies
 90
        0
280
     0
281
     0
  0
CLASS
  1
ACAMGRCOMPDEF
  2
AcAmGrCompDef
  3
DesignerAssemblies
 90
        0
280
     0
281
     0
  0
CLASS
  1
ACCMCONTEXT
  2
AcCmContext
  3
DesignerAssemblies
 90
        0
280
     0
281
     0
  0
CLASS
  1
ACAMCOMPDEF
  2
AcAmCompDef
  3
DesignerAssemblies
 90
        0
280
     0
281
     0
  0
CLASS
  1
ACAMCOMPDEFMGR
  2
AcAmCompDefMgr
  3
DesignerAssemblies
 90
        0
280
     0
281
     0
  0
CLASS
  1
AMCONTEXTMGR
  2
AcAmContextMgr
  3
DesignerAssemblies
 90
        0
280
     0
281
     0
  0
CLASS
  1
ACAMCONTEXTMODELER
  2
AcAmContextModeler
  3
DesignerAssemblies
 90
        0
280
     0
281
     0
  0
CLASS
  1
ACMTHREADLINESTANDARDISO
  2
AmdtThreadLineStdISO
  3
"Amdt_StdImp|Product Description: AutoCAD Mechanical 2004 DX|Company: Autodesk"
 90
        0
280
     0
281
     0
  0
CLASS
  1
CATALOGSTATE
  2
AcAmCatalogState
  3
DesignerAssemblies
 90
        0
280
     0
281
     0
  0
CLASS
  1
ACAMGRCOMPDEFSET
  2
AcAmGrCompDefSet
  3
DesignerAssemblies
 90
        0
280
     0
281
     0
  0
CLASS
  1
AMDTBROWSERDBTAB
  2
AmdtBrowserDbTab
  3
McadcomServices
 90
        0
280
     0
281
     0
  0
CLASS
  1
CBROWSERAPPOBJECT
  2
CBrowserAppObject
  3
McadcomServices
 90
        0
280
     0
281
     0
  0
CLASS
  1
DM_PLACEHOLDER
  2
AcDmSelsetPlaceholder
  3
AcMechDwgViewMgmt
 90
        0
280
     0
281
     0
  0
CLASS
  1
TABLESTYLE
  2
AcDbTableStyle
  3
ObjectDBX Classes
 90
     2047
280
     0
281
     0
  0
CLASS
  1
VAACXREFPANELOBJECT
  2
VaAcXREFPanelObject
  3
VAAC_ADDIN
 90
    32768
280
     0
281
     0
  0
CLASS
  1
VAACIMAGEINVENTORY
  2
VaAcImageInventory
  3
VAAC_ADDIN
 90
    32768
280
     0
281
     0
  0
CLASS
  1
AMDTNOTETEMPLATEDB
  2
AmdtNoteTemplateDB
  3
AMDT_STDIMP_MODULE_NAME
 90
        0
280
     0
281
     0
  0
CLASS
  1
ACMBOM
  2
AcmBom
  3
"AcmSymBB|Product Description: AutoCAD Mechanical 2004 DX|Company: Autodesk"
 90
    32768
280
     0
281
     0
  0
CLASS
  1
AMDTFORMULAUPDATEDISPATCHER
  2
AmdtFormulaUpdateDispatcher
  3
AcMeServices
 90
    32768
280
     0
281
     0
  0
CLASS
  1
ACMPARTLIST
  2
AcmPartList
  3
"AcmSymBB|Product Description: AutoCAD Mechanical 2004 DX|Company: Autodesk"
 90
    33791
280
     0
281
     1
  0
CLASS
  1
ACAMGFILTERDAT
  2
AcAmgFilterDat
  3
"AcadM|Product Description: AutoCAD Mechanical 2000|Company: Autodesk"
 90
    32768
280
     0
281
     0
  0
CLASS
  1
DIMASSOC
  2
AcDbDimAssoc
  3
"AcDbDimAssoc|Product Desc:     AcDim ARX App For Dimension|Company:          Autodesk, Inc.|WEB Address:      www.autodesk.com"
 90
    32768
280
     0
281
     0
  0
CLASS
  1
MATERIAL
  2
AcDbMaterial
  3
ObjectDBX Classes
 90
        0
280
     0
281
     0
  0
CLASS
  1
ACMSTANDARDANSI
  2
AcmStandardANSI
  3
"Amdt_StdImp|Product Description: AutoCAD Mechanical 2004 DX|Company: Autodesk"
 90
    32768
280
     0
281
     0
  0
CLASS
  1
ACMSURFSTANDARDANSI
  2
AcmSurfTextStdANSI
  3
"Amdt_StdImp|Product Description: AutoCAD Mechanical 2004 DX|Company: Autodesk"
 90
    32768
280
     0
281
     0
  0
CLASS
  1
ACMFCFSTANDARDANSI
  2
AcmFCFStdANSI
  3
"Amdt_StdImp|Product Description: AutoCAD Mechanical 2004 DX|Company: Autodesk"
 90
    32768
280
     0
281
     0
  0
CLASS
  1
ACMWELDSTANDARDANSI
  2
AcmWeldingStdANSI
  3
"Amdt_StdImp|Product Description: AutoCAD Mechanical 2004 DX|Company: Autodesk"
 90
    32768
280
     0
281
     0
  0
CLASS
  1
ACMIDSTANDARDANSI
  2
AcmIdStdANSI
  3
"Amdt_StdImp|Product Description: AutoCAD Mechanical 2004 DX|Company: Autodesk"
 90
    32768
280
     0
281
     0
  0
CLASS
  1
ACMDATUMSTANDARDANSI
  2
AcmDatumStdANSI
  3
"Amdt_StdImp|Product Description: AutoCAD Mechanical 2004 DX|Company: Autodesk"
 90
    32768
280
     0
281
     0
  0
CLASS
  1
ACMBOMSTANDARDANSI
  2
AcmBOMStdANSI
  3
"Amdt_StdImp|Product Description: AutoCAD Mechanical 2004 DX|Company: Autodesk"
 90
    32768
280
     0
281
     0
  0
CLASS
  1
ACMDETAILSTANDARDANSI
  2
AmdtDetailSymStdANSI
  3
"Amdt_StdImp|Product Description: AutoCAD Mechanical 2004 DX|Company: Autodesk"
 90
    32768
280
     0
281
     0
  0
CLASS
  1
ACMSECTIONSTANDARDANSI
  2
AmdtSectionSymStdANSI
  3
"Amdt_StdImp|Product Description: AutoCAD Mechanical 2004 DX|Company: Autodesk"
 90
    32768
280
     0
281
     0
  0
CLASS
  1
ACMCENTERLINESTANDARDANSI
  2
AmdtCenterLineStdANSI
  3
"Amdt_StdImp|Product Description: AutoCAD Mechanical 2004 DX|Company: Autodesk"
 90
    32768
280
     0
281
     0
  0
CLASS
  1
ACMTHREADLINESTANDARDANSI
  2
AmdtThreadLineStdANSI
  3
"Amdt_StdImp|Product Description: AutoCAD Mechanical 2004 DX|Company: Autodesk"
 90
    32768
280
     0
281
     0
  0
CLASS
  1
ACMNOTESTANDARDANSI
  2
AmdtNoteStdANSI
  3
"Amdt_StdImp|Product Description: AutoCAD Mechanical 2004 DX|Company: Autodesk"
 90
    32768
280
     0
281
     0
  0
CLASS
  1
ACAMGHOLECHARTSTDANSI
  2
AcAmgHoleChartStdANSI
  3
ACMSYMBB_MODULE_NAME
 90
    32768
280
     0
281
     0
  0
CLASS
  1
ASAPP
  2
AcAsAppObject
  3
AutoSurfServices
 90
        0
280
     0
281
     0
  0
CLASS
  1
IM_STATIC_MAN
  2
AcImStaticVarManager
  3
AcMeServices
 90
        0
280
     0
281
     0
  0
CLASS
  1
ACIMDBLSTATICVAR
  2
AcImDblStaticVar
  3
AcMeServices
 90
        0
280
     0
281
     0
  0
CLASS
  1
ACIMSTRSTATICVAR
  2
AcImStrStaticVar
  3
AcMeServices
 90
        0
280
     0
281
     0
  0
CLASS
  1
ACIMINTSTATICVAR
  2
AcImIntStaticVar
  3
AcMeServices
 90
        0
280
     0
281
     0
  0
CLASS
  1
ACASGREFMASTER
  2
AcAsGrefMaster
  3
AutoSurfResolverServices
 90
        0
280
     0
281
     0
  0
CLASS
  1
ACADGREFMODULE
  2
AcAdGrefModule
  3
AdGrefServices
 90
        0
280
     0
281
     0
  0
CLASS
  1
AMDTMAPISURFMOUDULE
  2
AmdtMApiSurfModule
  3
MApiSurfServices
 90
        0
280
     0
281
     0
  0
CLASS
  1
MAPIADMODULE
  2
MApiAdModule
  3
MApiAdServices
 90
        0
280
     0
281
     0
  0
CLASS
  1
AMDTEDGESTANDARDISO13715
  2
AmdtEdgeStdISO13715
  3
"Amdt_StdImp|Product Description: AutoCAD Mechanical 2004 DX|Company: Autodesk"
 90
        0
280
     0
281
     0
  0
CLASS
  1
AMDTNOTE
  2
AmdtNote
  3
"AcmSymBB|Product Description: AutoCAD Mechanical 2004 DX|Company: Autodesk"
 90
    33791
280
     0
281
     1
  0
CLASS
  1
ACDBCIRCARCRES
  2
AcDbCircArcRes
  3
AcGrefServices
 90
        0
280
     0
281
     0
  0
CLASS
  1
ACDBLINERES
  2
AcDbLineRes
  3
AcGrefServices
 90
        0
280
     0
281
     0
  0
CLASS
  1
SORTENTSTABLE
  2
AcDbSortentsTable
  3
ObjectDBX Classes
 90
    32768
280
     0
281
     0
  0
ENDSEC
  0
SECTION
  2
TABLES
  0
TABLE
  2
VPORT
  5
8
330
0
100
AcDbSymbolTable
 70
     6
  0
VPORT
  5
36DF
330
8
100
AcDbSymbolTableRecord
100
AcDbViewportTableRecord
  2
*Active
 70
     0
 10
0.0
 20
0.0
 11
1.0
 21
1.0
 12
-212.7744979024406
 22
-131.735188431361
 13
0.0
 23
0.0
 14
2.5
 24
2.5
 15
10.0
 25
10.0
 16
0.0
 26
0.0
 36
1.0
 17
484.0987504174327
 27
132.4449634208572
 37
0.0
 40
413.1942216601417
 41
1.263157894736842
 42
50.0
 43
0.0
 44
0.0
 50
0.0
 51
0.0
 71
     0
 72
  2000
 73
     1
 74
     3
 75
     0
 76
     0
 77
     0
 78
     0
281
     0
 65
     0
110
0.0
120
0.0
130
0.0
111
1.0
121
0.0
131
0.0
112
0.0
122
1.0
132
0.0
 79
     0
146
0.0
  0
ENDTAB
  0
TABLE
  2
LTYPE
  5
5
330
0
100
AcDbSymbolTable
 70
    19
  0
LTYPE
  5
14
330
5
100
AcDbSymbolTableRecord
100
AcDbLinetypeTableRecord
  2
ByBlock
 70
     0
  3

 72
    65
 73
     0
 40
0.0
  0
LTYPE
  5
15
330
5
100
AcDbSymbolTableRecord
100
AcDbLinetypeTableRecord
  2
ByLayer
 70
     0
  3

 72
    65
 73
     0
 40
0.0
  0
LTYPE
  5
16
330
5
100
AcDbSymbolTableRecord
100
AcDbLinetypeTableRecord
  2
Continuous
 70
     0
  3
Solid line
 72
    65
 73
     0
 40
0.0
  0
LTYPE
  5
64
330
5
100
AcDbSymbolTableRecord
100
AcDbLinetypeTableRecord
  2
AM_ISO02W050
 70
     0
  3
__ __ __ __ __ __ __ __ __ __ __ __ __ __ __
 72
    65
 73
     2
 40
7.5
 49
6.0
 74
     0
 49
-1.5
 74
     0
  0
LTYPE
  5
65
330
5
100
AcDbSymbolTableRecord
100
AcDbLinetypeTableRecord
  2
AM_ISO08W050
 70
     0
  3
____ . ____ . ____ . ____ . ____ . ____ . ____
 72
    65
 73
     4
 40
18.0
 49
12.0
 74
     0
 49
-1.5
 74
     0
 49
3.0
 74
     0
 49
-1.5
 74
     0
  0
LTYPE
  5
66
330
5
100
AcDbSymbolTableRecord
100
AcDbLinetypeTableRecord
  2
AM_ISO09W050
 70
     0
  3
_____ . . _____ . . _____ . . ____ .. ____
 72
    65
 73
     6
 40
22.5
 49
12.0
 74
     0
 49
-1.5
 74
     0
 49
3.0
 74
     0
 49
-1.5
 74
     0
 49
3.0
 74
     0
 49
-1.5
 74
     0
  0
LTYPE
  5
67
330
5
100
AcDbSymbolTableRecord
100
AcDbLinetypeTableRecord
  2
Amconstr
 70
     0
  3
_______________________
 72
    65
 73
     2
 40
9999.0
 49
9999.0
 74
     0
 49
0.0
 74
     0
  0
LTYPE
  5
68
330
5
100
AcDbSymbolTableRecord
100
AcDbLinetypeTableRecord
  2
AM_ISO08W050x2
 70
     0
  3
__ . __ . __ . __ . __ . __
 72
    65
 73
     4
 40
9.0
 49
6.0
 74
     0
 49
-0.75
 74
     0
 49
1.5
 74
     0
 49
-0.75
 74
     0
  0
LTYPE
  5
69
330
5
100
AcDbSymbolTableRecord
100
AcDbLinetypeTableRecord
  2
AM_ISO02W050x2
 70
     0
  3
 _ _ _ _ _ _ _ _ _ _ _ _
 72
    65
 73
     2
 40
3.75
 49
3.0
 74
     0
 49
-0.75
 74
     0
  0
LTYPE
  5
6C
330
5
100
AcDbSymbolTableRecord
100
AcDbLinetypeTableRecord
  2
Amzigzag
 70
     0
  3
/\/-/\/-/\/-/\/-/\/-/\/
 72
    65
 73
     2
 40
11.0001
 49
0.0001
 74
     4
 75
   135
340
6B
 46
0.04
 50
0.0
 44
0.0
 45
0.0
 49
-11.0
 74
     0
  0
LTYPE
  5
7A
330
5
100
AcDbSymbolTableRecord
100
AcDbLinetypeTableRecord
  2
ACISOWELD
 70
     0
  3
_ _ _ _ _
 72
    65
 73
     2
 40
2.0
 49
2.0
 74
     0
 49
-1.0
 74
     0
  0
LTYPE
  5
7B
330
5
100
AcDbSymbolTableRecord
100
AcDbLinetypeTableRecord
  2
ACISOTGB
 70
     0
  3
__ . . __ . .
 72
    65
 73
     6
 40
9.0
 49
4.0
 74
     0
 49
-1.0
 74
     0
 49
1.0
 74
     0
 49
-1.0
 74
     0
 49
1.0
 74
     0
 49
-1.0
 74
     0
  0
LTYPE
  5
7C
330
5
100
AcDbSymbolTableRecord
100
AcDbLinetypeTableRecord
  2
ACISOTGL
 70
     0
  3
_ _ _ _ _
 72
    65
 73
     2
 40
3.0
 49
2.0
 74
     0
 49
-1.0
 74
     0
  0
LTYPE
  5
7E
330
5
100
AcDbSymbolTableRecord
100
AcDbLinetypeTableRecord
  2
CENTER
 70
     0
  3
__ . __
 72
    65
 73
     4
 40
7.0
 49
4.0
 74
     0
 49
-1.0
 74
     0
 49
1.0
 74
     0
 49
-1.0
 74
     0
  0
LTYPE
  5
D8
330
5
100
AcDbSymbolTableRecord
100
AcDbLinetypeTableRecord
  2
HIDDEN
 70
     0
  3
Hidden __ __ __ __ __ __ __ __ __ __ __ __ __ _
 72
    65
 73
     2
 40
9.524999999999998
 49
6.349999999999999
 74
     0
 49
-3.174999999999999
 74
     0
  0
LTYPE
  5
D9
330
5
100
AcDbSymbolTableRecord
100
AcDbLinetypeTableRecord
  2
PHANTOM2
 70
     0
  3
Phantom (.5x) ___ _ _ ___ _ _ ___ _ _ ___ _ _
 72
    65
 73
     6
 40
31.75
 49
15.875
 74
     0
 49
-3.174999999999999
 74
     0
 49
3.174999999999999
 74
     0
 49
-3.174999999999999
 74
     0
 49
3.174999999999999
 74
     0
 49
-3.174999999999999
 74
     0
  0
LTYPE
  5
ACA
330
5
100
AcDbSymbolTableRecord
100
AcDbLinetypeTableRecord
  2
PHANTOM
 70
     0
  3
__________ _ _ __________ _ _ __________ _ _ 
 72
    65
 73
     6
 40
15.0
 49
10.0
 74
     0
 49
-1.0
 74
     0
 49
1.0
 74
     0
 49
-1.0
 74
     0
 49
1.0
 74
     0
 49
-1.0
 74
     0
  0
LTYPE
  5
ACE
330
5
100
AcDbSymbolTableRecord
100
AcDbLinetypeTableRecord
  2
ACANSTGB
 70
     0
  3
__ . . __ . .
 72
    65
 73
     6
 40
0.35433070866
 49
0.15748031496
 74
     0
 49
-0.03937007874
 74
     0
 49
0.03937007874
 74
     0
 49
-0.03937007874
 74
     0
 49
0.03937007874
 74
     0
 49
-0.03937007874
 74
     0
  0
LTYPE
  5
ACF
330
5
100
AcDbSymbolTableRecord
100
AcDbLinetypeTableRecord
  2
ACANSTGL
 70
     0
  3
_ _ _ _ _
 72
    65
 73
     2
 40
0.11811023622
 49
0.07874015748
 74
     0
 49
-0.03937007874
 74
     0
  0
LTYPE
  5
16B5
330
5
100
AcDbSymbolTableRecord
100
AcDbLinetypeTableRecord
  2
ASULTYPE
 70
     0
  3
實線
 72
    65
 73
     2
 40
3.0
 49
2.5
 74
     0
 49
0.5
 74
     0
  0
LTYPE
  5
16B6
330
5
100
AcDbSymbolTableRecord
100
AcDbLinetypeTableRecord
  2
ASVLTYPE
 70
     0
  3
__ __ __ __ __ __ __ __ __ __ __ __ __ __ __ __ __ __ __ __ __
 72
    65
 73
     2
 40
0.75
 49
0.5
 74
     0
 49
-0.25
 74
     0
  0
ENDTAB
  0
TABLE
  2
LAYER
  5
2
102
{ACAD_XDICTIONARY
360
3F9
102
}
330
0
100
AcDbSymbolTable
 70
    11
  0
LAYER
  5
10
330
2
100
AcDbSymbolTableRecord
100
AcDbLayerTableRecord
  2
0
 70
     0
 62
     7
  6
Continuous
370
    -3
390
F
  0
LAYER
  5
AD0
102
{ACAD_XDICTIONARY
360
AD1
102
}
330
2
100
AcDbSymbolTableRecord
100
AcDbLayerTableRecord
  2
UMCL1
 70
     0
 62
     7
  6
Continuous
370
    -3
390
F
  0
LAYER
  5
AD3
102
{ACAD_XDICTIONARY
360
AD4
102
}
330
2
100
AcDbSymbolTableRecord
100
AcDbLayerTableRecord
  2
UMCL2
 70
     0
 62
     2
  6
Continuous
370
    -3
390
F
  0
LAYER
  5
124C
330
2
100
AcDbSymbolTableRecord
100
AcDbLayerTableRecord
  2
AM_7
 70
     0
 62
     1
  6
AM_ISO08W050
370
    25
390
F
  0
LAYER
  5
12C8
330
2
100
AcDbSymbolTableRecord
100
AcDbLayerTableRecord
  2
LOGO
 70
     0
 62
     7
  6
Continuous
370
    -3
390
F
  0
LAYER
  5
15C8
330
2
100
AcDbSymbolTableRecord
100
AcDbLayerTableRecord
  2
AM_5
 70
     0
 62
     5
  6
Continuous
370
    25
390
F
  0
LAYER
  5
1874
330
2
100
AcDbSymbolTableRecord
100
AcDbLayerTableRecord
  2
Defpoints
 70
     0
 62
     7
  6
Continuous
290
     0
370
    -3
390
F
  0
LAYER
  5
1875
330
2
100
AcDbSymbolTableRecord
100
AcDbLayerTableRecord
  2
AM_VIS
 70
     0
 62
     7
  6
Continuous
370
    50
390
F
  0
LAYER
  5
1876
330
2
100
AcDbSymbolTableRecord
100
AcDbLayerTableRecord
  2
AM_4
 70
     0
 62
     3
  6
Continuous
370
    25
390
F
  0
LAYER
  5
1877
330
2
100
AcDbSymbolTableRecord
100
AcDbLayerTableRecord
  2
AM_REFDIM
 70
     0
 62
     5
  6
Continuous
370
    25
390
F
  0
LAYER
  5
2A10
330
2
100
AcDbSymbolTableRecord
100
AcDbLayerTableRecord
  2
AM_10
 70
     0
 62
     7
  6
AM_ISO08W050
370
    50
390
F
  0
ENDTAB
  0
TABLE
  2
STYLE
  5
3
330
0
100
AcDbSymbolTable
 70
     8
  0
STYLE
  5
11
330
3
100
AcDbSymbolTableRecord
100
AcDbTextStyleTableRecord
  2
STANDARD
 70
     0
 40
0.0
 41
1.0
 50
0.0
 71
     0
 42
3.0
  3
ISOCP.SHX
  4
CHINESET.SHX
  0
STYLE
  5
6B
330
3
100
AcDbSymbolTableRecord
100
AcDbTextStyleTableRecord
  2

 70
     1
 40
0.0
 41
1.0
 50
0.0
 71
     0
 42
2.5
  3
ltypeshp.shx
  4

  0
STYLE
  5
6D
330
3
100
AcDbSymbolTableRecord
100
AcDbTextStyleTableRecord
  2
ACISOTS
 70
     0
 40
1.0
 41
1.0
 50
0.0
 71
     0
 42
1.0
  3
isocp.shx
  4
chineset.shx
  0
STYLE
  5
79
330
3
100
AcDbSymbolTableRecord
100
AcDbTextStyleTableRecord
  2
ACISOGDT
 70
     0
 40
0.0
 41
1.0
 50
0.0
 71
     0
 42
2.5
  3
amgdt.shx
  4
chineset.shx
  0
STYLE
  5
AD7
330
3
100
AcDbSymbolTableRecord
100
AcDbTextStyleTableRecord
  2
ROMANS
 70
     0
 40
0.0
 41
1.0
 50
0.0
 71
     0
 42
3.0
  3
ROMANS.SHX
  4
LMP
  0
STYLE
  5
AD8
330
3
100
AcDbSymbolTableRecord
100
AcDbTextStyleTableRecord
  2
ACANSTS
 70
     0
 40
1.0
 41
1.0
 50
0.0
 71
     0
 42
2.5
  3
romans.shx
  4
chineset.shx
  0
STYLE
  5
AD9
330
3
100
AcDbSymbolTableRecord
100
AcDbTextStyleTableRecord
  2
ACANSGDT
 70
     0
 40
0.0
 41
1.0
 50
0.0
 71
     0
 42
2.5
  3
amgdtans.shx
  4

  0
STYLE
  5
12C9
330
3
100
AcDbSymbolTableRecord
100
AcDbTextStyleTableRecord
  2
CHINESET
 70
     0
 40
0.0
 41
1.0
 50
0.0
 71
     0
 42
3.0
  3
simplex.shx
  4
CHINESET.SHX
  0
ENDTAB
  0
TABLE
  2
VIEW
  5
6
330
0
100
AcDbSymbolTable
 70
     0
  0
ENDTAB
  0
TABLE
  2
UCS
  5
7
330
0
100
AcDbSymbolTable
 70
     0
  0
ENDTAB
  0
TABLE
  2
APPID
  5
9
330
0
100
AcDbSymbolTable
 70
    24
  0
APPID
  5
12
330
9
100
AcDbSymbolTableRecord
100
AcDbRegAppTableRecord
  2
ACAD
 70
     0
  0
APPID
  5
46
330
9
100
AcDbSymbolTableRecord
100
AcDbRegAppTableRecord
  2
MCAD_NO_VIS
 70
     0
  0
APPID
  5
47
330
9
100
AcDbSymbolTableRecord
100
AcDbRegAppTableRecord
  2
ACAD_TEMP_GRAPHIC
 70
     0
  0
APPID
  5
58
330
9
100
AcDbSymbolTableRecord
100
AcDbRegAppTableRecord
  2
ACATTRIBSERVICES
 70
     0
  0
APPID
  5
EE
330
9
100
AcDbSymbolTableRecord
100
AcDbRegAppTableRecord
  2
AD_DRAW
 70
     0
  0
APPID
  5
10C
330
9
100
AcDbSymbolTableRecord
100
AcDbRegAppTableRecord
  2
DESIGNERASSEMBLIES
 70
     0
  0
APPID
  5
111
330
9
100
AcDbSymbolTableRecord
100
AcDbRegAppTableRecord
  2
ACADM_DIM_EDIT
 70
     0
  0
APPID
  5
112
330
9
100
AcDbSymbolTableRecord
100
AcDbRegAppTableRecord
  2
AMDT_DM_ADJ
 70
     0
  0
APPID
  5
22C
330
9
100
AcDbSymbolTableRecord
100
AcDbRegAppTableRecord
  2
ACAD_DSTYLE_DIMTEXT_FILL
 70
     0
  0
APPID
  5
452
330
9
100
AcDbSymbolTableRecord
100
AcDbRegAppTableRecord
  2
GENIUS_GENOENT_13
 70
     0
  0
APPID
  5
453
330
9
100
AcDbSymbolTableRecord
100
AcDbRegAppTableRecord
  2
GENIUS_GENOBJ-N-CRS_13
 70
     0
  0
APPID
  5
454
330
9
100
AcDbSymbolTableRecord
100
AcDbRegAppTableRecord
  2
GENIUS_GENOLIS_13
 70
     0
  0
APPID
  5
455
330
9
100
AcDbSymbolTableRecord
100
AcDbRegAppTableRecord
  2
GENIUS_GENODEF_13
 70
     0
  0
APPID
  5
456
330
9
100
AcDbSymbolTableRecord
100
AcDbRegAppTableRecord
  2
GENIUS_GENOREF_13
 70
     0
  0
APPID
  5
6F3
330
9
100
AcDbSymbolTableRecord
100
AcDbRegAppTableRecord
  2
ACAD_PSEXT
 70
     0
  0
APPID
  5
808
330
9
100
AcDbSymbolTableRecord
100
AcDbRegAppTableRecord
  2
GENIUS_GENDTOL_13
 70
     0
  0
APPID
  5
124E
330
9
100
AcDbSymbolTableRecord
100
AcDbRegAppTableRecord
  2
GENIUS_GENOBJ-N-CEN_13
 70
     0
  0
APPID
  5
124F
330
9
100
AcDbSymbolTableRecord
100
AcDbRegAppTableRecord
  2
GENIUS_GENCEN_19
 70
     0
  0
APPID
  5
12CA
330
9
100
AcDbSymbolTableRecord
100
AcDbRegAppTableRecord
  2
GENIUS_GENREC_14
 70
     0
  0
APPID
  5
12CB
330
9
100
AcDbSymbolTableRecord
100
AcDbRegAppTableRecord
  2
GENIUS_GENOBJ-N-REC_13
 70
     0
  0
APPID
  5
1636
330
9
100
AcDbSymbolTableRecord
100
AcDbRegAppTableRecord
  2
GENIUS_GENDIM_13
 70
     0
  0
APPID
  5
1637
330
9
100
AcDbSymbolTableRecord
100
AcDbRegAppTableRecord
  2
GENIUS_GE3DTOL_13
 70
     0
  0
APPID
  5
16B7
330
9
100
AcDbSymbolTableRecord
100
AcDbRegAppTableRecord
  2
ASURF_PCURVE_APPNAME
 70
     0
  0
APPID
  5
16BC
330
9
100
AcDbSymbolTableRecord
100
AcDbRegAppTableRecord
  2
AMG_3D2D_5.0
 70
     0
  0
ENDTAB
  0
TABLE
  2
DIMSTYLE
  5
A
330
0
100
AcDbSymbolTable
 70
    15
100
AcDbDimStyleTable
 71
     3
340
81
340
8B
340
86
  0
DIMSTYLE
105
81
330
A
100
AcDbSymbolTableRecord
100
AcDbDimStyleTableRecord
  2
AM_ISO
 70
     0
  4
"
 41
3.0
 42
1.5
 43
8.0
 44
1.5
 47
0.1
 48
0.1
 73
     0
 74
     0
 77
     1
 78
     8
 79
     2
140
3.5
141
0.0
143
0.0393701
146
0.6
147
1.0
172
     1
176
   256
177
   256
178
   256
271
     2
272
     2
283
     0
284
     8
340
11
371
    -1
372
    -1
  0
DIMSTYLE
105
82
330
A
100
AcDbSymbolTableRecord
100
AcDbDimStyleTableRecord
  2
AM_ISO$3
 70
     0
  4
"
 41
3.0
 42
1.5
 43
8.0
 44
1.5
 47
0.1
 48
0.1
 73
     0
 77
     1
 78
     8
 79
     2
140
3.5
141
0.0
143
0.0393701
146
0.6
147
1.0
176
   256
177
   256
178
   256
271
     2
272
     2
283
     0
284
     8
288
     1
289
     0
340
11
371
    -1
372
    -1
  0
DIMSTYLE
105
83
330
A
100
AcDbSymbolTableRecord
100
AcDbDimStyleTableRecord
  2
AM_ISO$4
 70
     0
  4
"
 41
3.0
 42
1.5
 43
8.0
 44
1.5
 47
0.1
 48
0.1
 73
     0
 77
     1
 78
     8
 79
     2
140
3.5
141
0.0
143
0.0393701
146
0.6
147
1.0
176
   256
177
   256
178
   256
271
     2
272
     2
283
     0
284
     8
288
     1
289
     0
340
11
371
    -1
372
    -1
  0
DIMSTYLE
105
84
330
A
100
AcDbSymbolTableRecord
100
AcDbDimStyleTableRecord
  2
AM_ISO$6
 70
     0
  4
"
 41
3.0
 42
1.5
 43
8.0
 44
1.5
 47
0.1
 48
0.1
 73
     0
 74
     0
 78
     8
 79
     2
140
3.5
141
0.0
143
0.0393701
146
0.6
147
1.0
172
     1
176
   256
177
   256
178
   256
271
     2
272
     2
283
     0
284
     8
340
11
371
    -1
372
    -1
  0
DIMSTYLE
105
85
330
A
100
AcDbSymbolTableRecord
100
AcDbDimStyleTableRecord
  2
AM_ISO$7
 70
     0
  4
"
 41
3.0
 42
1.5
 43
8.0
 44
1.5
 47
0.1
 48
0.1
 73
     0
 74
     0
 77
     1
 78
     8
 79
     2
140
5.0
141
0.0
143
0.0393701
146
0.6
147
1.0
172
     1
176
   256
177
   256
178
   256
271
     2
272
     2
283
     0
284
     8
340
11
371
    -1
372
    -1
  0
DIMSTYLE
105
86
330
A
100
AcDbSymbolTableRecord
100
AcDbDimStyleTableRecord
  2
AM_ISO$SF
 70
     0
  4
"
 41
2.5
 42
1.0
 43
10.0
 44
1.0
 47
0.1
 48
0.1
 73
     0
 74
     0
 75
     1
 76
     1
 77
     1
 78
     8
 79
     2
140
3.5
141
0.0
143
0.0393701
146
0.71
147
1.5
172
     1
176
   256
177
   256
178
     2
271
     2
272
     3
274
     4
283
     0
284
     8
340
11
371
    -1
372
    -1
  0
DIMSTYLE
105
8B
330
A
100
AcDbSymbolTableRecord
100
AcDbDimStyleTableRecord
  2
AM_ISO$SH
 70
     0
  4
"
 41
2.5
 42
1.0
 43
10.0
 44
1.0
 47
0.1
 48
0.1
 73
     0
 74
     0
 75
     1
 76
     1
 77
     1
 78
     8
 79
     2
140
3.5
141
0.0
143
0.0393701
144
2.0
146
0.71
147
1.5
172
     1
173
     1
176
   256
177
   256
178
     2
271
     2
272
     3
274
     4
283
     0
284
     8
340
11
343
87
371
    -1
372
    -1
  0
DIMSTYLE
105
40B
102
{ACAD_REACTORS
330
33EF
330
33F0
330
33F1
330
33F2
330
33F3
330
33F4
330
33F5
330
33F6
330
33F7
330
33F8
330
33F9
330
33FA
330
33FB
330
3405
330
3406
330
3407
330
3408
330
3409
102
}
330
A
100
AcDbSymbolTableRecord
100
AcDbDimStyleTableRecord
  2
AM_ISO$0
 70
     0
  4
"
 41
3.0
 42
1.5
 43
8.0
 44
1.5
 47
0.1
 48
0.1
 73
     0
 74
     0
 77
     1
 78
     8
 79
     2
140
3.5
141
0.0
143
0.0393701
146
0.6
147
1.0
172
     1
176
   256
177
   256
178
   256
271
     2
272
     2
283
     0
284
     8
340
11
371
    -1
372
    -1
  0
DIMSTYLE
105
ADB
330
A
100
AcDbSymbolTableRecord
100
AcDbDimStyleTableRecord
  2
AM_ANSI
 70
     0
  4
mm
 41
0.1
 42
0.05
 43
0.5
 44
0.1
 47
0.1
 48
0.1
 78
     7
 79
     2
140
0.12
141
0.0
146
0.71
147
0.06
176
   256
177
   256
178
     2
274
     4
284
     7
340
11
371
    -1
372
    -1
  0
DIMSTYLE
105
ADC
330
A
100
AcDbSymbolTableRecord
100
AcDbDimStyleTableRecord
  2
AM_ANSI$3
 70
     0
  4
mm
 41
0.1
 42
0.05
 43
0.5
 44
0.1
 47
0.1
 48
0.1
 78
     7
 79
     2
140
0.12
141
0.0
146
0.71
147
0.06
176
   256
177
   256
178
     2
274
     4
284
     7
288
     1
289
     0
340
11
371
    -1
372
    -1
  0
DIMSTYLE
105
ADD
330
A
100
AcDbSymbolTableRecord
100
AcDbDimStyleTableRecord
  2
AM_ANSI$4
 70
     0
  4
mm
 41
0.1
 42
0.05
 43
0.5
 44
0.1
 47
0.1
 48
0.1
 78
     7
 79
     2
140
0.12
141
0.0
146
0.71
147
0.06
176
   256
177
   256
178
     2
274
     4
284
     7
288
     1
289
     0
340
11
371
    -1
372
    -1
  0
DIMSTYLE
105
ADE
330
A
100
AcDbSymbolTableRecord
100
AcDbDimStyleTableRecord
  2
AM_ANSI$7
 70
     0
  4
mm
 41
0.1
 42
0.05
 43
0.5
 44
0.1
 47
0.1
 48
0.1
 78
     7
 79
     2
140
0.24
141
0.0
146
0.71
147
0.06
176
   256
177
   256
178
     2
274
     4
284
     7
340
11
371
    -1
372
    -1
  0
DIMSTYLE
105
ADF
330
A
100
AcDbSymbolTableRecord
100
AcDbDimStyleTableRecord
  2
AM_ANSI$SF
 70
     0
  4
mm
 41
0.1
 42
0.05
 43
0.5
 44
0.1
 47
0.1
 48
0.1
 75
     1
 76
     1
 78
     7
 79
     2
140
0.12
141
0.0
146
0.71
147
0.06
176
   256
177
   256
178
     2
274
     4
284
     7
340
11
371
    -1
372
    -1
  0
DIMSTYLE
105
AE0
330
A
100
AcDbSymbolTableRecord
100
AcDbDimStyleTableRecord
  2
AM_ANSI$SH
 70
     0
  4
mm
 41
0.1
 42
0.05
 43
0.5
 44
0.1
 47
0.1
 48
0.1
 75
     1
 76
     1
 78
     7
 79
     2
140
0.12
141
0.0
146
0.71
147
0.06
173
     1
176
   256
177
   256
178
     2
274
     4
284
     7
340
11
343
87
371
    -1
372
    -1
  0
DIMSTYLE
105
2A11
330
A
100
AcDbSymbolTableRecord
100
AcDbDimStyleTableRecord
  2
STANDARD
 70
     0
 41
2.5
 42
0.625
 43
3.75
 44
1.25
 73
     0
 74
     0
 77
     1
 78
     8
140
2.5
141
2.5
143
0.0394
147
0.625
171
     4
172
     1
273
     8
274
     4
277
     6
340
11
  0
ENDTAB
  0
TABLE
  2
BLOCK_RECORD
  5
1
330
0
100
AcDbSymbolTable
 70
    22
  0
BLOCK_RECORD
  5
1F
102
{ACAD_XDICTIONARY
360
8F
102
}
330
1
100
AcDbSymbolTableRecord
100
AcDbBlockTableRecord
  2
*Model_Space
340
22
  0
BLOCK_RECORD
  5
1B
330
1
100
AcDbSymbolTableRecord
100
AcDbBlockTableRecord
  2
*Paper_Space
340
1E
  0
BLOCK_RECORD
  5
23
330
1
100
AcDbSymbolTableRecord
100
AcDbBlockTableRecord
  2
*Paper_Space0
340
26
  0
BLOCK_RECORD
  5
87
330
1
100
AcDbSymbolTableRecord
100
AcDbBlockTableRecord
  2
GENAXEH
340
0
  0
BLOCK_RECORD
  5
170F
330
1
100
AcDbSymbolTableRecord
100
AcDbBlockTableRecord
  2
GENDOT
340
0
  0
BLOCK_RECORD
  5
3414
330
1
100
AcDbSymbolTableRecord
100
AcDbBlockTableRecord
  2
*D4
340
0
  0
BLOCK_RECORD
  5
3420
330
1
100
AcDbSymbolTableRecord
100
AcDbBlockTableRecord
  2
*D5
340
0
  0
BLOCK_RECORD
  5
342C
330
1
100
AcDbSymbolTableRecord
100
AcDbBlockTableRecord
  2
*D6
340
0
  0
BLOCK_RECORD
  5
3438
330
1
100
AcDbSymbolTableRecord
100
AcDbBlockTableRecord
  2
*D7
340
0
  0
BLOCK_RECORD
  5
3444
330
1
100
AcDbSymbolTableRecord
100
AcDbBlockTableRecord
  2
*D8
340
0
  0
BLOCK_RECORD
  5
3450
330
1
100
AcDbSymbolTableRecord
100
AcDbBlockTableRecord
  2
*D9
340
0
  0
BLOCK_RECORD
  5
345C
330
1
100
AcDbSymbolTableRecord
100
AcDbBlockTableRecord
  2
*D10
340
0
  0
BLOCK_RECORD
  5
3468
330
1
100
AcDbSymbolTableRecord
100
AcDbBlockTableRecord
  2
*D11
340
0
  0
BLOCK_RECORD
  5
3476
330
1
100
AcDbSymbolTableRecord
100
AcDbBlockTableRecord
  2
*D12
340
0
  0
BLOCK_RECORD
  5
3482
330
1
100
AcDbSymbolTableRecord
100
AcDbBlockTableRecord
  2
*D13
340
0
  0
BLOCK_RECORD
  5
348F
330
1
100
AcDbSymbolTableRecord
100
AcDbBlockTableRecord
  2
*D14
340
0
  0
BLOCK_RECORD
  5
349B
330
1
100
AcDbSymbolTableRecord
100
AcDbBlockTableRecord
  2
*D15
340
0
  0
BLOCK_RECORD
  5
34A7
330
1
100
AcDbSymbolTableRecord
100
AcDbBlockTableRecord
  2
*D16
340
0
  0
BLOCK_RECORD
  5
34B5
330
1
100
AcDbSymbolTableRecord
100
AcDbBlockTableRecord
  2
*D17
340
0
  0
BLOCK_RECORD
  5
34C1
330
1
100
AcDbSymbolTableRecord
100
AcDbBlockTableRecord
  2
*D18
340
0
  0
BLOCK_RECORD
  5
34CD
330
1
100
AcDbSymbolTableRecord
100
AcDbBlockTableRecord
  2
*D19
340
0
  0
BLOCK_RECORD
  5
34D9
330
1
100
AcDbSymbolTableRecord
100
AcDbBlockTableRecord
  2
*D20
340
0
  0
BLOCK_RECORD
  5
34E5
330
1
100
AcDbSymbolTableRecord
100
AcDbBlockTableRecord
  2
*D21
340
0
  0
ENDTAB
  0
ENDSEC
  0
SECTION
  2
BLOCKS
  0
BLOCK
  5
20
330
1F
100
AcDbEntity
  8
0
100
AcDbBlockBegin
  2
*Model_Space
 70
     0
 10
0.0
 20
0.0
 30
0.0
  3
*Model_Space
  1

  0
ENDBLK
  5
21
330
1F
100
AcDbEntity
  8
0
100
AcDbBlockEnd
  0
BLOCK
  5
1C
330
1B
100
AcDbEntity
 67
     1
  8
0
100
AcDbBlockBegin
  2
*Paper_Space
 70
     0
 10
0.0
 20
0.0
 30
0.0
  3
*Paper_Space
  1

  0
ENDBLK
  5
1D
330
1B
100
AcDbEntity
 67
     1
  8
0
100
AcDbBlockEnd
  0
BLOCK
  5
24
330
23
100
AcDbEntity
  8
0
100
AcDbBlockBegin
  2
*Paper_Space0
 70
     0
 10
0.0
 20
0.0
 30
0.0
  3
*Paper_Space0
  1

  0
ENDBLK
  5
25
330
23
100
AcDbEntity
  8
0
100
AcDbBlockEnd
  0
BLOCK
  5
89
330
87
100
AcDbEntity
  8
0
100
AcDbBlockBegin
  2
GENAXEH
 70
     0
 10
0.0
 20
0.0
 30
0.0
  3
GENAXEH
  1

  0
LINE
  5
88
330
87
100
AcDbEntity
  8
0
100
AcDbLine
 10
-1.0
 20
0.0
 30
0.0
 11
1.0
 21
0.0
 31
0.0
  0
ENDBLK
  5
8A
330
87
100
AcDbEntity
  8
0
100
AcDbBlockEnd
  0
BLOCK
  5
1710
330
170F
100
AcDbEntity
  8
0
100
AcDbBlockBegin
  2
GENDOT
 70
     0
 10
0.0
 20
0.0
 30
0.0
  3
GENDOT
  1

  0
LINE
  5
1711
330
170F
100
AcDbEntity
  8
0
100
AcDbLine
 10
0.0
 20
0.0
 30
0.0
 11
-1.0
 21
0.0
 31
0.0
  0
LWPOLYLINE
  5
1712
330
170F
100
AcDbEntity
  8
0
100
AcDbPolyline
 90
        2
 70
     1
 43
0.25
 10
-0.125
 20
0.0
 42
1.0
 10
0.125
 20
0.0
 42
1.0
  0
ENDBLK
  5
1713
330
170F
100
AcDbEntity
  8
0
100
AcDbBlockEnd
  0
BLOCK
  5
341E
330
3414
100
AcDbEntity
  8
0
100
AcDbBlockBegin
  2
*D4
 70
     1
 10
0.0
 20
0.0
 30
0.0
  3
*D4
  1

  0
LINE
  5
3598
330
3414
100
AcDbEntity
  8
AM_REFDIM
100
AcDbLine
 10
288.939828992991
 20
91.37301528081446
 30
0.0
 11
288.939828992991
 21
122.6730152808144
 31
0.0
  0
LINE
  5
3599
330
3414
100
AcDbEntity
  8
AM_REFDIM
100
AcDbLine
 10
334.4398289929909
 20
104.6730152808144
 30
0.0
 11
334.4398289929909
 21
122.6730152808144
 31
0.0
  0
LINE
  5
359A
330
3414
100
AcDbEntity
  8
AM_REFDIM
100
AcDbLine
 10
291.939828992991
 20
121.1730152808144
 30
0.0
 11
331.4398289929909
 21
121.1730152808144
 31
0.0
  0
SOLID
  5
359B
330
3414
100
AcDbEntity
  8
AM_REFDIM
100
AcDbTrace
 10
291.939828992991
 20
121.6730152808144
 30
0.0
 11
291.939828992991
 21
120.6730152808144
 31
0.0
 12
288.939828992991
 22
121.1730152808144
 32
0.0
 13
288.939828992991
 23
121.1730152808144
 33
0.0
  0
SOLID
  5
359C
330
3414
100
AcDbEntity
  8
AM_REFDIM
100
AcDbTrace
 10
331.4398289929909
 20
121.6730152808144
 30
0.0
 11
331.4398289929909
 21
120.6730152808144
 31
0.0
 12
334.4398289929909
 22
121.1730152808144
 32
0.0
 13
334.4398289929909
 23
121.1730152808144
 33
0.0
  0
MTEXT
  5
359D
330
3414
100
AcDbEntity
  8
AM_REFDIM
100
AcDbMText
 10
311.689828992991
 20
123.9230152808144
 30
0.0
 40
3.5
 41
0.0
 71
     5
 72
     1
  1
35.5+ST=45.5
 73
     1
 44
1.0
1001
ACAD
1000
MTEXTBEGIN
1070
    73
1070
     1
1070
    44
1040
1.0
1070
    74
1070
     0
1000
MTEXTEND
  0
POINT
  5
359E
330
3414
100
AcDbEntity
  8
Defpoints
 62
     0
100
AcDbPoint
 10
288.939828992991
 20
89.87301528081445
 30
0.0
  0
POINT
  5
359F
330
3414
100
AcDbEntity
  8
Defpoints
 62
     0
100
AcDbPoint
 10
334.4398289929909
 20
103.1730152808144
 30
0.0
  0
POINT
  5
35A0
330
3414
100
AcDbEntity
  8
Defpoints
 62
     0
100
AcDbPoint
 10
334.4398289929909
 20
121.1730152808144
 30
0.0
  0
ENDBLK
  5
341F
330
3414
100
AcDbEntity
  8
0
100
AcDbBlockEnd
  0
BLOCK
  5
342A
330
3420
100
AcDbEntity
  8
0
100
AcDbBlockBegin
  2
*D5
 70
     1
 10
0.0
 20
0.0
 30
0.0
  3
*D5
  1

  0
LINE
  5
35A1
330
3420
100
AcDbEntity
  8
AM_REFDIM
100
AcDbLine
 10
334.4398289929909
 20
104.6816755858737
 30
0.0
 11
334.4398289929909
 21
114.6354872922244
 31
0.0
  0
LINE
  5
35A2
330
3420
100
AcDbEntity
  8
AM_REFDIM
100
AcDbLine
 10
362.4398289929909
 20
87.06917558587369
 30
0.0
 11
362.4398289929909
 21
114.6354872922244
 31
0.0
  0
LINE
  5
35A3
330
3420
100
AcDbEntity
  8
AM_REFDIM
100
AcDbLine
 10
337.4571496031094
 20
113.1268269871652
 30
0.0
 11
359.4225083828724
 21
113.1268269871652
 31
0.0
  0
SOLID
  5
35A4
330
3420
100
AcDbEntity
  8
AM_REFDIM
100
AcDbTrace
 10
337.4571496031094
 20
113.6297137555182
 30
0.0
 11
337.4571496031094
 21
112.6239402188121
 31
0.0
 12
334.4398289929909
 22
113.1268269871652
 32
0.0
 13
334.4398289929909
 23
113.1268269871652
 33
0.0
  0
SOLID
  5
35A5
330
3420
100
AcDbEntity
  8
AM_REFDIM
100
AcDbTrace
 10
359.4225083828724
 20
113.6297137555182
 30
0.0
 11
359.4225083828724
 21
112.6239402188121
 31
0.0
 12
362.4398289929909
 22
113.1268269871652
 32
0.0
 13
362.4398289929909
 23
113.1268269871652
 33
0.0
  0
MTEXT
  5
35A6
330
3420
100
AcDbEntity
  8
AM_REFDIM
100
AcDbMText
 10
348.4398289929909
 20
115.8930506902112
 30
0.0
 40
3.520207378471521
 41
0.0
 71
     5
 72
     1
  1
28
 73
     1
 44
1.0
1001
ACAD
1000
MTEXTBEGIN
1070
    73
1070
     1
1070
    44
1040
1.0
1070
    74
1070
     0
1000
MTEXTEND
  0
POINT
  5
35A7
330
3420
100
AcDbEntity
  8
Defpoints
 62
     0
100
AcDbPoint
 10
334.4398289929909
 20
103.1730152808144
 30
0.0
  0
POINT
  5
35A8
330
3420
100
AcDbEntity
  8
Defpoints
 62
     0
100
AcDbPoint
 10
362.4398289929909
 20
85.56051528081445
 30
0.0
  0
POINT
  5
35A9
330
3420
100
AcDbEntity
  8
Defpoints
 62
     0
100
AcDbPoint
 10
362.4398289929909
 20
113.1268269871652
 30
0.0
  0
ENDBLK
  5
342B
330
3420
100
AcDbEntity
  8
0
100
AcDbBlockEnd
  0
BLOCK
  5
3436
330
342C
100
AcDbEntity
  8
0
100
AcDbBlockBegin
  2
*D6
 70
     1
 10
0.0
 20
0.0
 30
0.0
  3
*D6
  1

  0
LINE
  5
35AA
330
342C
100
AcDbEntity
  8
AM_REFDIM
100
AcDbLine
 10
404.9398289929909
 20
87.06917558587369
 30
0.0
 11
404.9398289929909
 21
114.580215934981
 31
0.0
  0
LINE
  5
35AB
330
342C
100
AcDbEntity
  8
AM_REFDIM
100
AcDbLine
 10
415.9398289929908
 20
104.6816755858737
 30
0.0
 11
415.9398289929908
 21
114.580215934981
 31
0.0
  0
LINE
  5
35AC
330
342C
100
AcDbEntity
  8
AM_REFDIM
100
AcDbLine
 10
407.9571496031094
 20
113.0715556299217
 30
0.0
 11
412.9225083828724
 21
113.0715556299217
 31
0.0
  0
SOLID
  5
35AD
330
342C
100
AcDbEntity
  8
AM_REFDIM
100
AcDbTrace
 10
407.9571496031094
 20
113.5744423982748
 30
0.0
 11
407.9571496031094
 21
112.5686688615687
 31
0.0
 12
404.9398289929909
 22
113.0715556299217
 32
0.0
 13
404.9398289929909
 23
113.0715556299217
 33
0.0
  0
SOLID
  5
35AE
330
342C
100
AcDbEntity
  8
AM_REFDIM
100
AcDbTrace
 10
412.9225083828724
 20
113.5744423982748
 30
0.0
 11
412.9225083828724
 21
112.5686688615687
 31
0.0
 12
415.9398289929908
 22
113.0715556299217
 32
0.0
 13
415.9398289929908
 23
113.0715556299217
 33
0.0
  0
MTEXT
  5
35AF
330
342C
100
AcDbEntity
  8
AM_REFDIM
100
AcDbMText
 10
410.4398289929909
 20
115.8374328558636
 30
0.0
 40
3.520207378471521
 41
0.0
 71
     5
 72
     1
  1
11
 73
     1
 44
1.0
1001
ACAD
1000
MTEXTBEGIN
1070
    73
1070
     1
1070
    44
1040
1.0
1070
    74
1070
     0
1000
MTEXTEND
  0
POINT
  5
35B0
330
342C
100
AcDbEntity
  8
Defpoints
 62
     0
100
AcDbPoint
 10
404.9398289929909
 20
85.56051528081445
 30
0.0
  0
POINT
  5
35B1
330
342C
100
AcDbEntity
  8
Defpoints
 62
     0
100
AcDbPoint
 10
415.9398289929908
 20
103.1730152808144
 30
0.0
  0
POINT
  5
35B2
330
342C
100
AcDbEntity
  8
Defpoints
 62
     0
100
AcDbPoint
 10
415.9398289929908
 20
113.0715556299217
 30
0.0
  0
ENDBLK
  5
3437
330
342C
100
AcDbEntity
  8
0
100
AcDbBlockEnd
  0
BLOCK
  5
3442
330
3438
100
AcDbEntity
  8
0
100
AcDbBlockBegin
  2
*D7
 70
     1
 10
0.0
 20
0.0
 30
0.0
  3
*D7
  1

  0
LINE
  5
35B3
330
3438
100
AcDbEntity
  8
AM_REFDIM
100
AcDbLine
 10
288.939828992991
 20
91.38167558587367
 30
0.0
 11
288.939828992991
 21
130.7278638795227
 31
0.0
  0
LINE
  5
35B4
330
3438
100
AcDbEntity
  8
AM_REFDIM
100
AcDbLine
 10
415.9398289929908
 20
104.6816755858737
 30
0.0
 11
415.9398289929908
 21
130.7278638795227
 31
0.0
  0
LINE
  5
35B5
330
3438
100
AcDbEntity
  8
AM_REFDIM
100
AcDbLine
 10
291.9571496031095
 20
129.2192035744635
 30
0.0
 11
412.9225083828724
 21
129.2192035744635
 31
0.0
  0
SOLID
  5
35B6
330
3438
100
AcDbEntity
  8
AM_REFDIM
100
AcDbTrace
 10
291.9571496031095
 20
129.7220903428166
 30
0.0
 11
291.9571496031095
 21
128.7163168061104
 31
0.0
 12
288.939828992991
 22
129.2192035744635
 32
0.0
 13
288.939828992991
 23
129.2192035744635
 33
0.0
  0
SOLID
  5
35B7
330
3438
100
AcDbEntity
  8
AM_REFDIM
100
AcDbTrace
 10
412.9225083828724
 20
129.7220903428166
 30
0.0
 11
412.9225083828724
 21
128.7163168061104
 31
0.0
 12
415.9398289929908
 22
129.2192035744635
 32
0.0
 13
415.9398289929908
 23
129.2192035744635
 33
0.0
  0
MTEXT
  5
35B8
330
3438
100
AcDbEntity
  8
AM_REFDIM
100
AcDbMText
 10
352.4398289929909
 20
131.9854272775096
 30
0.0
 40
3.520207378471521
 41
0.0
 71
     5
 72
     1
  1
107+ST*2=127
 73
     1
 44
1.0
1001
ACAD
1000
MTEXTBEGIN
1070
    73
1070
     1
1070
    44
1040
1.0
1070
    74
1070
     0
1000
MTEXTEND
  0
POINT
  5
35B9
330
3438
100
AcDbEntity
  8
Defpoints
 62
     0
100
AcDbPoint
 10
288.939828992991
 20
89.87301528081445
 30
0.0
  0
POINT
  5
35BA
330
3438
100
AcDbEntity
  8
Defpoints
 62
     0
100
AcDbPoint
 10
415.9398289929908
 20
103.1730152808144
 30
0.0
  0
POINT
  5
35BB
330
3438
100
AcDbEntity
  8
Defpoints
 62
     0
100
AcDbPoint
 10
415.9398289929908
 20
129.2192035744635
 30
0.0
  0
ENDBLK
  5
3443
330
3438
100
AcDbEntity
  8
0
100
AcDbBlockEnd
  0
BLOCK
  5
344E
330
3444
100
AcDbEntity
  8
0
100
AcDbBlockBegin
  2
*D8
 70
     1
 10
0.0
 20
0.0
 30
0.0
  3
*D8
  1

  0
LINE
  5
35BC
330
3444
100
AcDbEntity
  8
AM_REFDIM
100
AcDbLine
 10
159.8566357533144
 20
90.67301528081449
 30
0.0
 11
149.798900386253
 21
90.67301528081449
 31
0.0
  0
LINE
  5
35BD
330
3444
100
AcDbEntity
  8
AM_REFDIM
100
AcDbLine
 10
159.8566357533144
 20
70.67301528081448
 30
0.0
 11
149.798900386253
 21
70.67301528081448
 31
0.0
  0
LINE
  5
35BE
330
3444
100
AcDbEntity
  8
AM_REFDIM
100
AcDbLine
 10
151.3075606913122
 20
87.65569467069603
 30
0.0
 11
151.3075606913122
 21
73.69033589093293
 31
0.0
  0
SOLID
  5
35BF
330
3444
100
AcDbEntity
  8
AM_REFDIM
100
AcDbTrace
 10
150.8046739229591
 20
87.65569467069603
 30
0.0
 11
151.8104474596653
 21
87.65569467069603
 31
0.0
 12
151.3075606913122
 22
90.67301528081449
 32
0.0
 13
151.3075606913122
 23
90.67301528081449
 33
0.0
  0
SOLID
  5
35C0
330
3444
100
AcDbEntity
  8
AM_REFDIM
100
AcDbTrace
 10
150.8046739229591
 20
73.69033589093293
 30
0.0
 11
151.8104474596653
 21
73.69033589093293
 31
0.0
 12
151.3075606913122
 22
70.67301528081448
 32
0.0
 13
151.3075606913122
 23
70.67301528081448
 33
0.0
  0
MTEXT
  5
35C1
330
3444
100
AcDbEntity
  8
AM_REFDIM
100
AcDbMText
 10
148.5413369882661
 20
80.67301528081449
 30
0.0
 40
3.520207378471521
 41
0.0
 71
     5
 72
     1
  1
20
 11
0.0000000000000001
 21
1.0
 31
0.0
 73
     1
 44
1.0
1001
ACAD
1000
MTEXTBEGIN
1070
    73
1070
     1
1070
    44
1040
1.0
1070
    74
1070
     0
1000
MTEXTEND
  0
POINT
  5
35C2
330
3444
100
AcDbEntity
  8
Defpoints
 62
     0
100
AcDbPoint
 10
161.3652960583737
 20
90.67301528081447
 30
0.0
  0
POINT
  5
35C3
330
3444
100
AcDbEntity
  8
Defpoints
 62
     0
100
AcDbPoint
 10
161.3652960583737
 20
70.67301528081447
 30
0.0
  0
POINT
  5
35C4
330
3444
100
AcDbEntity
  8
Defpoints
 62
     0
100
AcDbPoint
 10
151.3075606913122
 20
70.67301528081448
 30
0.0
  0
ENDBLK
  5
344F
330
3444
100
AcDbEntity
  8
0
100
AcDbBlockEnd
  0
BLOCK
  5
345A
330
3450
100
AcDbEntity
  8
0
100
AcDbBlockBegin
  2
*D9
 70
     1
 10
0.0
 20
0.0
 30
0.0
  3
*D9
  1

  0
LINE
  5
35C5
330
3450
100
AcDbEntity
  8
AM_REFDIM
100
AcDbLine
 10
198.5652960583737
 20
104.3566755858737
 30
0.0
 11
198.5652960583737
 21
114.4144109529352
 31
0.0
  0
LINE
  5
35C6
330
3450
100
AcDbEntity
  8
AM_REFDIM
100
AcDbLine
 10
232.5652960583738
 20
104.1816755858737
 30
0.0
 11
232.5652960583738
 21
114.4144109529352
 31
0.0
  0
LINE
  5
35C7
330
3450
100
AcDbEntity
  8
AM_REFDIM
100
AcDbLine
 10
201.5826166684922
 20
112.905750647876
 30
0.0
 11
229.5479754482553
 21
112.905750647876
 31
0.0
  0
SOLID
  5
35C8
330
3450
100
AcDbEntity
  8
AM_REFDIM
100
AcDbTrace
 10
201.5826166684922
 20
113.408637416229
 30
0.0
 11
201.5826166684922
 21
112.4028638795229
 31
0.0
 12
198.5652960583737
 22
112.905750647876
 32
0.0
 13
198.5652960583737
 23
112.905750647876
 33
0.0
  0
SOLID
  5
35C9
330
3450
100
AcDbEntity
  8
AM_REFDIM
100
AcDbTrace
 10
229.5479754482553
 20
113.408637416229
 30
0.0
 11
229.5479754482553
 21
112.4028638795229
 31
0.0
 12
232.5652960583738
 22
112.905750647876
 32
0.0
 13
232.5652960583738
 23
112.905750647876
 33
0.0
  0
MTEXT
  5
35CA
330
3450
100
AcDbEntity
  8
AM_REFDIM
100
AcDbMText
 10
215.5652960583737
 20
115.6716278738179
 30
0.0
 40
3.520207378471521
 41
0.0
 71
     5
 72
     1
  1
{\Famgdt|c136;o}34
 73
     1
 44
1.0
1001
ACAD
1000
MTEXTBEGIN
1070
    73
1070
     1
1070
    44
1040
1.0
1070
    74
1070
     0
1000
MTEXTEND
  0
POINT
  5
35CB
330
3450
100
AcDbEntity
  8
Defpoints
 62
     0
100
AcDbPoint
 10
198.5652960583737
 20
102.8480152808145
 30
0.0
  0
POINT
  5
35CC
330
3450
100
AcDbEntity
  8
Defpoints
 62
     0
100
AcDbPoint
 10
232.5652960583738
 20
102.6730152808144
 30
0.0
  0
POINT
  5
35CD
330
3450
100
AcDbEntity
  8
Defpoints
 62
     0
100
AcDbPoint
 10
232.5652960583738
 20
112.905750647876
 30
0.0
  0
ENDBLK
  5
345B
330
3450
100
AcDbEntity
  8
0
100
AcDbBlockEnd
  0
BLOCK
  5
3466
330
345C
100
AcDbEntity
  8
0
100
AcDbBlockBegin
  2
*D10
 70
     1
 10
0.0
 20
0.0
 30
0.0
  3
*D10
  1

  0
LINE
  5
35CE
330
345C
100
AcDbEntity
  8
AM_REFDIM
100
AcDbLine
 10
193.0652960583737
 20
102.0248104188581
 30
0.0
 11
193.0652960583737
 21
122.4605992465843
 31
0.0
  0
LINE
  5
35CF
330
345C
100
AcDbEntity
  8
AM_REFDIM
100
AcDbLine
 10
238.0652960583737
 20
102.0248104188581
 30
0.0
 11
238.0652960583737
 21
122.4605992465843
 31
0.0
  0
LINE
  5
35D0
330
345C
100
AcDbEntity
  8
AM_REFDIM
100
AcDbLine
 10
196.0826166684922
 20
120.9519389415251
 30
0.0
 11
235.0479754482553
 21
120.9519389415251
 31
0.0
  0
SOLID
  5
35D1
330
345C
100
AcDbEntity
  8
AM_REFDIM
100
AcDbTrace
 10
196.0826166684922
 20
121.4548257098782
 30
0.0
 11
196.0826166684922
 21
120.449052173172
 31
0.0
 12
193.0652960583737
 22
120.9519389415251
 32
0.0
 13
193.0652960583737
 23
120.9519389415251
 33
0.0
  0
SOLID
  5
35D2
330
345C
100
AcDbEntity
  8
AM_REFDIM
100
AcDbTrace
 10
235.0479754482553
 20
121.4548257098782
 30
0.0
 11
235.0479754482553
 21
120.449052173172
 31
0.0
 12
238.0652960583737
 22
120.9519389415251
 32
0.0
 13
238.0652960583737
 23
120.9519389415251
 33
0.0
  0
MTEXT
  5
35D3
330
345C
100
AcDbEntity
  8
AM_REFDIM
100
AcDbMText
 10
215.5652960583737
 20
123.717816167467
 30
0.0
 40
3.520207378471521
 41
0.0
 71
     5
 72
     1
  1
{\Famgdt|c136;o}45
 73
     1
 44
1.0
1001
ACAD
1000
MTEXTBEGIN
1070
    73
1070
     1
1070
    44
1040
1.0
1070
    74
1070
     0
1000
MTEXTEND
  0
POINT
  5
35D4
330
345C
100
AcDbEntity
  8
Defpoints
 62
     0
100
AcDbPoint
 10
193.0652960583737
 20
100.5161501137989
 30
0.0
  0
POINT
  5
35D5
330
345C
100
AcDbEntity
  8
Defpoints
 62
     0
100
AcDbPoint
 10
238.0652960583737
 20
100.5161501137989
 30
0.0
  0
POINT
  5
35D6
330
345C
100
AcDbEntity
  8
Defpoints
 62
     0
100
AcDbPoint
 10
238.0652960583737
 20
120.9519389415251
 30
0.0
  0
ENDBLK
  5
3467
330
345C
100
AcDbEntity
  8
0
100
AcDbBlockEnd
  0
BLOCK
  5
3474
330
3468
100
AcDbEntity
  8
0
100
AcDbBlockBegin
  2
*D11
 70
     1
 10
0.0
 20
0.0
 30
0.0
  3
*D11
  1

  0
LINE
  5
35D7
330
3468
100
AcDbEntity
  8
AM_REFDIM
100
AcDbLine
 10
238.0652960583737
 20
102.0248104188581
 30
0.0
 11
238.0652960583737
 21
122.4605992465843
 31
0.0
  0
LINE
  5
35D8
330
3468
100
AcDbEntity
  8
AM_REFDIM
100
AcDbLine
 10
242.5652960583737
 20
89.18167558587368
 30
0.0
 11
242.5652960583737
 21
122.4605992465843
 31
0.0
  0
LINE
  5
35D9
330
3468
100
AcDbEntity
  8
AM_REFDIM
100
AcDbLine
 10
235.0479754482553
 20
120.951938941525
 30
0.0
 11
232.0306548381369
 21
120.951938941525
 31
0.0
  0
LINE
  5
35DA
330
3468
100
AcDbEntity
  8
AM_REFDIM
100
AcDbLine
 10
245.5826166684922
 20
120.951938941525
 30
0.0
 11
256.0376071835831
 21
120.951938941525
 31
0.0
  0
LINE
  5
35DB
330
3468
100
AcDbEntity
  8
AM_REFDIM
100
AcDbLine
 10
238.0652960583737
 20
120.951938941525
 30
0.0
 11
242.5652960583737
 21
120.951938941525
 31
0.0
  0
SOLID
  5
35DC
330
3468
100
AcDbEntity
  8
AM_REFDIM
100
AcDbTrace
 10
235.0479754482553
 20
121.4548257098781
 30
0.0
 11
235.0479754482553
 21
120.4490521731719
 31
0.0
 12
238.0652960583737
 22
120.951938941525
 32
0.0
 13
238.0652960583737
 23
120.951938941525
 33
0.0
  0
SOLID
  5
35DD
330
3468
100
AcDbEntity
  8
AM_REFDIM
100
AcDbTrace
 10
245.5826166684922
 20
121.4548257098781
 30
0.0
 11
245.5826166684922
 21
120.4490521731719
 31
0.0
 12
242.5652960583737
 22
120.951938941525
 32
0.0
 13
242.5652960583737
 23
120.951938941525
 33
0.0
  0
MTEXT
  5
35DE
330
3468
100
AcDbEntity
  8
AM_REFDIM
100
AcDbMText
 10
252.3187722310968
 20
123.7178161674669
 30
0.0
 40
3.520207378471521
 41
0.0
 71
     5
 72
     1
  1
4.5
 73
     1
 44
1.0
1001
ACAD
1000
MTEXTBEGIN
1070
    73
1070
     1
1070
    44
1040
1.0
1070
    74
1070
     0
1000
MTEXTEND
  0
POINT
  5
35DF
330
3468
100
AcDbEntity
  8
Defpoints
 62
     0
100
AcDbPoint
 10
238.0652960583737
 20
100.5161501137989
 30
0.0
  0
POINT
  5
35E0
330
3468
100
AcDbEntity
  8
Defpoints
 62
     0
100
AcDbPoint
 10
242.5652960583737
 20
87.67301528081446
 30
0.0
  0
POINT
  5
35E1
330
3468
100
AcDbEntity
  8
Defpoints
 62
     0
100
AcDbPoint
 10
242.5652960583737
 20
120.951938941525
 30
0.0
  0
ENDBLK
  5
3475
330
3468
100
AcDbEntity
  8
0
100
AcDbBlockEnd
  0
BLOCK
  5
3480
330
3476
100
AcDbEntity
  8
0
100
AcDbBlockBegin
  2
*D12
 70
     1
 10
0.0
 20
0.0
 30
0.0
  3
*D12
  1

  0
LINE
  5
35E2
330
3476
100
AcDbEntity
  8
AM_REFDIM
100
AcDbLine
 10
244.073956363433
 20
87.67301528081446
 30
0.0
 11
257.7337239437542
 21
87.67301528081446
 31
0.0
  0
LINE
  5
35E3
330
3476
100
AcDbEntity
  8
AM_REFDIM
100
AcDbLine
 10
244.073956363433
 20
73.67301528081447
 30
0.0
 11
257.7337239437542
 21
73.67301528081447
 31
0.0
  0
LINE
  5
35E4
330
3476
100
AcDbEntity
  8
AM_REFDIM
100
AcDbLine
 10
256.225063638695
 20
84.65569467069602
 30
0.0
 11
256.225063638695
 21
76.69033589093292
 31
0.0
  0
SOLID
  5
35E5
330
3476
100
AcDbEntity
  8
AM_REFDIM
100
AcDbTrace
 10
255.722176870342
 20
84.65569467069602
 30
0.0
 11
256.727950407048
 21
84.65569467069602
 31
0.0
 12
256.225063638695
 22
87.67301528081446
 32
0.0
 13
256.225063638695
 23
87.67301528081446
 33
0.0
  0
SOLID
  5
35E6
330
3476
100
AcDbEntity
  8
AM_REFDIM
100
AcDbTrace
 10
255.722176870342
 20
76.69033589093292
 30
0.0
 11
256.727950407048
 21
76.69033589093292
 31
0.0
 12
256.225063638695
 22
73.67301528081447
 32
0.0
 13
256.225063638695
 23
73.67301528081447
 33
0.0
  0
MTEXT
  5
35E7
330
3476
100
AcDbEntity
  8
AM_REFDIM
100
AcDbMText
 10
253.4591864127531
 20
80.67301528081451
 30
0.0
 40
3.520207378471521
 41
0.0
 71
     5
 72
     1
  1
14
 11
0.0000000000000001
 21
1.0
 31
0.0
 73
     1
 44
1.0
1001
ACAD
1000
MTEXTBEGIN
1070
    73
1070
     1
1070
    44
1040
1.0
1070
    74
1070
     0
1000
MTEXTEND
  0
POINT
  5
35E8
330
3476
100
AcDbEntity
  8
Defpoints
 62
     0
100
AcDbPoint
 10
242.5652960583737
 20
87.67301528081446
 30
0.0
  0
POINT
  5
35E9
330
3476
100
AcDbEntity
  8
Defpoints
 62
     0
100
AcDbPoint
 10
242.5652960583737
 20
73.67301528081447
 30
0.0
  0
POINT
  5
35EA
330
3476
100
AcDbEntity
  8
Defpoints
 62
     0
100
AcDbPoint
 10
256.225063638695
 20
73.67301528081447
 30
0.0
  0
ENDBLK
  5
3481
330
3476
100
AcDbEntity
  8
0
100
AcDbBlockEnd
  0
BLOCK
  5
348D
330
3482
100
AcDbEntity
  8
0
100
AcDbBlockBegin
  2
*D13
 70
     1
 10
0.0
 20
0.0
 30
0.0
  3
*D13
  1

  0
LINE
  5
35EB
330
3482
100
AcDbEntity
  8
AM_REFDIM
100
AcDbLine
 10
330.1811686879317
 20
95.80500595461872
 30
0.0
 11
318.6965954514397
 21
96.80977591824506
 31
0.0
  0
LINE
  5
35EC
330
3482
100
AcDbEntity
  8
AM_REFDIM
100
AcDbLine
 10
330.1811686879317
 20
65.80500595461872
 30
0.0
 11
318.6965954514397
 21
66.80977591824505
 31
0.0
  0
LINE
  5
35ED
330
3482
100
AcDbEntity
  8
AM_REFDIM
100
AcDbLine
 10
320.2052557564989
 20
69.69510585455925
 30
0.0
 11
320.2052557564989
 21
93.66046463432235
 31
0.0
  0
LINE
  5
35EE
330
3482
100
AcDbEntity
  8
AM_REFDIM
100
AcDbLine
 10
320.2052557564989
 20
96.67778524444081
 30
0.0
 11
320.2052557564989
 21
116.501764774358
 31
0.0
  0
SOLID
  5
35EF
330
3482
100
AcDbEntity
  8
AM_REFDIM
100
AcDbTrace
 10
319.7023689881458
 20
69.69510585455925
 30
0.0
 11
320.708142524852
 21
69.69510585455925
 31
0.0
 12
320.2052557564989
 22
66.6777852444408
 32
0.0
 13
320.2052557564989
 23
66.6777852444408
 33
0.0
  0
SOLID
  5
35F0
330
3482
100
AcDbEntity
  8
AM_REFDIM
100
AcDbTrace
 10
319.7023689881458
 20
93.66046463432235
 30
0.0
 11
320.708142524852
 21
93.66046463432235
 31
0.0
 12
320.2052557564989
 22
96.67778524444081
 32
0.0
 13
320.2052557564989
 23
96.67778524444081
 33
0.0
  0
MTEXT
  5
35F1
330
3482
100
AcDbEntity
  8
AM_REFDIM
100
AcDbMText
 10
316.2201094320151
 20
108.0984353144587
 30
0.0
 40
3.520207378471521
 41
0.0
 71
     5
 72
     1
  1
%%c30{}{\H0.71x;\C3;\S 0^ -0,05;}
 11
0.0000000000000001
 21
1.0
 31
0.0
 73
     1
 44
1.0
1001
ACAD
1000
MTEXTBEGIN
1070
    73
1070
     1
1070
    44
1040
1.0
1070
    74
1070
     0
1000
MTEXTEND
  0
POINT
  5
35F2
330
3482
100
AcDbEntity
  8
Defpoints
 62
     0
100
AcDbPoint
 10
331.6898289929909
 20
95.67301528081447
 30
0.0
  0
POINT
  5
35F3
330
3482
100
AcDbEntity
  8
Defpoints
 62
     0
100
AcDbPoint
 10
331.6898289929909
 20
65.67301528081447
 30
0.0
  0
POINT
  5
35F4
330
3482
100
AcDbEntity
  8
Defpoints
 62
     0
100
AcDbPoint
 10
320.2052557564989
 20
66.6777852444408
 30
0.0
  0
ENDBLK
  5
348E
330
3482
100
AcDbEntity
  8
0
100
AcDbBlockEnd
  0
BLOCK
  5
3499
330
348F
100
AcDbEntity
  8
0
100
AcDbBlockBegin
  2
*D14
 70
     1
 10
0.0
 20
0.0
 30
0.0
  3
*D14
  1

  0
LINE
  5
35F5
330
348F
100
AcDbEntity
  8
AM_REFDIM
100
AcDbLine
 10
288.939828992991
 20
91.38167558587367
 30
0.0
 11
288.939828992991
 21
114.6354872922244
 31
0.0
  0
LINE
  5
35F6
330
348F
100
AcDbEntity
  8
AM_REFDIM
100
AcDbLine
 10
308.9398289929909
 20
94.93167558587369
 30
0.0
 11
308.9398289929909
 21
114.6354872922244
 31
0.0
  0
LINE
  5
35F7
330
348F
100
AcDbEntity
  8
AM_REFDIM
100
AcDbLine
 10
291.9571496031095
 20
113.1268269871652
 30
0.0
 11
305.9225083828724
 21
113.1268269871652
 31
0.0
  0
SOLID
  5
35F8
330
348F
100
AcDbEntity
  8
AM_REFDIM
100
AcDbTrace
 10
291.9571496031095
 20
113.6297137555183
 30
0.0
 11
291.9571496031095
 21
112.6239402188121
 31
0.0
 12
288.939828992991
 22
113.1268269871652
 32
0.0
 13
288.939828992991
 23
113.1268269871652
 33
0.0
  0
SOLID
  5
35F9
330
348F
100
AcDbEntity
  8
AM_REFDIM
100
AcDbTrace
 10
305.9225083828724
 20
113.6297137555183
 30
0.0
 11
305.9225083828724
 21
112.6239402188121
 31
0.0
 12
308.9398289929909
 22
113.1268269871652
 32
0.0
 13
308.9398289929909
 23
113.1268269871652
 33
0.0
  0
MTEXT
  5
35FA
330
348F
100
AcDbEntity
  8
AM_REFDIM
100
AcDbMText
 10
298.9398289929909
 20
115.8930506902113
 30
0.0
 40
3.520207378471521
 41
0.0
 71
     5
 72
     1
  1
20
 73
     1
 44
1.0
1001
ACAD
1000
MTEXTBEGIN
1070
    73
1070
     1
1070
    44
1040
1.0
1070
    74
1070
     0
1000
MTEXTEND
  0
POINT
  5
35FB
330
348F
100
AcDbEntity
  8
Defpoints
 62
     0
100
AcDbPoint
 10
288.939828992991
 20
89.87301528081445
 30
0.0
  0
POINT
  5
35FC
330
348F
100
AcDbEntity
  8
Defpoints
 62
     0
100
AcDbPoint
 10
308.9398289929909
 20
93.42301528081447
 30
0.0
  0
POINT
  5
35FD
330
348F
100
AcDbEntity
  8
Defpoints
 62
     0
100
AcDbPoint
 10
308.9398289929909
 20
113.1268269871652
 30
0.0
  0
ENDBLK
  5
349A
330
348F
100
AcDbEntity
  8
0
100
AcDbBlockEnd
  0
BLOCK
  5
34A5
330
349B
100
AcDbEntity
  8
0
100
AcDbBlockBegin
  2
*D15
 70
     1
 10
0.0
 20
0.0
 30
0.0
  3
*D15
  1

  0
LINE
  5
35FE
330
349B
100
AcDbEntity
  8
AM_REFDIM
100
AcDbLine
 10
288.939828992991
 20
91.38167558587367
 30
0.0
 11
288.939828992991
 21
106.0892989985752
 31
0.0
  0
LINE
  5
35FF
330
349B
100
AcDbEntity
  8
AM_REFDIM
100
AcDbLine
 10
306.939828992991
 20
91.38167558587371
 30
0.0
 11
306.939828992991
 21
106.0892989985752
 31
0.0
  0
LINE
  5
3600
330
349B
100
AcDbEntity
  8
AM_REFDIM
100
AcDbLine
 10
291.9571496031095
 20
104.580638693516
 30
0.0
 11
303.9225083828725
 21
104.580638693516
 31
0.0
  0
SOLID
  5
3601
330
349B
100
AcDbEntity
  8
AM_REFDIM
100
AcDbTrace
 10
291.9571496031095
 20
105.0835254618691
 30
0.0
 11
291.9571496031095
 21
104.0777519251629
 31
0.0
 12
288.939828992991
 22
104.580638693516
 32
0.0
 13
288.939828992991
 23
104.580638693516
 33
0.0
  0
SOLID
  5
3602
330
349B
100
AcDbEntity
  8
AM_REFDIM
100
AcDbTrace
 10
303.9225083828725
 20
105.0835254618691
 30
0.0
 11
303.9225083828725
 21
104.0777519251629
 31
0.0
 12
306.939828992991
 22
104.580638693516
 32
0.0
 13
306.939828992991
 23
104.580638693516
 33
0.0
  0
MTEXT
  5
3603
330
349B
100
AcDbEntity
  8
AM_REFDIM
100
AcDbMText
 10
297.939828992991
 20
107.3465159194579
 30
0.0
 40
3.520207378471521
 41
0.0
 71
     5
 72
     1
  1
18
 73
     1
 44
1.0
1001
ACAD
1000
MTEXTBEGIN
1070
    73
1070
     1
1070
    44
1040
1.0
1070
    74
1070
     0
1000
MTEXTEND
  0
POINT
  5
3604
330
349B
100
AcDbEntity
  8
Defpoints
 62
     0
100
AcDbPoint
 10
288.939828992991
 20
89.87301528081445
 30
0.0
  0
POINT
  5
3605
330
349B
100
AcDbEntity
  8
Defpoints
 62
     0
100
AcDbPoint
 10
306.939828992991
 20
89.87301528081449
 30
0.0
  0
POINT
  5
3606
330
349B
100
AcDbEntity
  8
Defpoints
 62
     0
100
AcDbPoint
 10
306.939828992991
 20
104.580638693516
 30
0.0
  0
ENDBLK
  5
34A6
330
349B
100
AcDbEntity
  8
0
100
AcDbBlockEnd
  0
BLOCK
  5
34B3
330
34A7
100
AcDbEntity
  8
0
100
AcDbBlockBegin
  2
*D16
 70
     1
 10
0.0
 20
0.0
 30
0.0
  3
*D16
  1

  0
LINE
  5
3607
330
34A7
100
AcDbEntity
  8
AM_REFDIM
100
AcDbLine
 10
334.4398289929909
 20
104.6816755858737
 30
0.0
 11
334.4398289929909
 21
114.6354872922244
 31
0.0
  0
LINE
  5
3608
330
34A7
100
AcDbEntity
  8
AM_REFDIM
100
AcDbLine
 10
331.4398289929909
 20
96.93167558587369
 30
0.0
 11
331.4398289929909
 21
114.6354872922244
 31
0.0
  0
LINE
  5
3609
330
34A7
100
AcDbEntity
  8
AM_REFDIM
100
AcDbLine
 10
337.4571496031094
 20
113.1268269871652
 30
0.0
 11
340.4744702132278
 21
113.1268269871652
 31
0.0
  0
LINE
  5
360A
330
34A7
100
AcDbEntity
  8
AM_REFDIM
100
AcDbLine
 10
328.4225083828724
 20
113.1268269871652
 30
0.0
 11
321.8397459841002
 21
113.1268269871652
 31
0.0
  0
LINE
  5
360B
330
34A7
100
AcDbEntity
  8
AM_REFDIM
100
AcDbLine
 10
334.4398289929909
 20
113.1268269871652
 30
0.0
 11
331.4398289929909
 21
113.1268269871652
 31
0.0
  0
SOLID
  5
360C
330
34A7
100
AcDbEntity
  8
AM_REFDIM
100
AcDbTrace
 10
337.4571496031094
 20
113.6297137555182
 30
0.0
 11
337.4571496031094
 21
112.6239402188121
 31
0.0
 12
334.4398289929909
 22
113.1268269871652
 32
0.0
 13
334.4398289929909
 23
113.1268269871652
 33
0.0
  0
SOLID
  5
360D
330
34A7
100
AcDbEntity
  8
AM_REFDIM
100
AcDbTrace
 10
328.4225083828724
 20
113.6297137555182
 30
0.0
 11
328.4225083828724
 21
112.6239402188121
 31
0.0
 12
331.4398289929909
 22
113.1268269871652
 32
0.0
 13
331.4398289929909
 23
113.1268269871652
 33
0.0
  0
MTEXT
  5
360E
330
34A7
100
AcDbEntity
  8
AM_REFDIM
100
AcDbMText
 10
323.6224668784271
 20
115.8927042131071
 30
0.0
 40
3.520207378471521
 41
0.0
 71
     5
 72
     1
  1
3
 73
     1
 44
1.0
1001
ACAD
1000
MTEXTBEGIN
1070
    73
1070
     1
1070
    44
1040
1.0
1070
    74
1070
     0
1000
MTEXTEND
  0
POINT
  5
360F
330
34A7
100
AcDbEntity
  8
Defpoints
 62
     0
100
AcDbPoint
 10
334.4398289929909
 20
103.1730152808144
 30
0.0
  0
POINT
  5
3610
330
34A7
100
AcDbEntity
  8
Defpoints
 62
     0
100
AcDbPoint
 10
331.4398289929909
 20
95.42301528081447
 30
0.0
  0
POINT
  5
3611
330
34A7
100
AcDbEntity
  8
Defpoints
 62
     0
100
AcDbPoint
 10
331.4398289929909
 20
113.1268269871652
 30
0.0
  0
ENDBLK
  5
34B4
330
34A7
100
AcDbEntity
  8
0
100
AcDbBlockEnd
  0
BLOCK
  5
34BF
330
34B5
100
AcDbEntity
  8
0
100
AcDbBlockBegin
  2
*D17
 70
     1
 10
0.0
 20
0.0
 30
0.0
  3
*D17
  1

  0
LINE
  5
3674
330
34B5
100
AcDbEntity
  8
AM_REFDIM
100
AcDbLine
 10
306.939828992991
 20
-53.63119418487686
 30
0.0
 11
306.939828992991
 21
-62.98616146266859
 31
0.0
  0
LINE
  5
3675
330
34B5
100
AcDbEntity
  8
AM_REFDIM
100
AcDbLine
 10
331.239828992991
 20
-43.63119418487686
 30
0.0
 11
331.239828992991
 21
-62.98616146266859
 31
0.0
  0
LINE
  5
3676
330
34B5
100
AcDbEntity
  8
AM_REFDIM
100
AcDbLine
 10
309.9571496031095
 20
-61.47750115760937
 30
0.0
 11
328.2225083828725
 21
-61.47750115760937
 31
0.0
  0
SOLID
  5
3677
330
34B5
100
AcDbEntity
  8
AM_REFDIM
100
AcDbTrace
 10
309.9571496031095
 20
-60.9746143892563
 30
0.0
 11
309.9571496031095
 21
-61.98038792596244
 31
0.0
 12
306.939828992991
 22
-61.47750115760937
 32
0.0
 13
306.939828992991
 23
-61.47750115760937
 33
0.0
  0
SOLID
  5
3678
330
34B5
100
AcDbEntity
  8
AM_REFDIM
100
AcDbTrace
 10
328.2225083828725
 20
-60.9746143892563
 30
0.0
 11
328.2225083828725
 21
-61.98038792596244
 31
0.0
 12
331.239828992991
 22
-61.47750115760937
 32
0.0
 13
331.239828992991
 23
-61.47750115760937
 33
0.0
  0
MTEXT
  5
3679
330
34B5
100
AcDbEntity
  8
AM_REFDIM
100
AcDbMText
 10
319.089828992991
 20
-58.71162393166746
 30
0.0
 40
3.520207378471521
 41
0.0
 71
     5
 72
     1
  1
12~26
  7
CHINESET
 73
     1
 44
1.0
1001
ACAD
1000
MTEXTBEGIN
1070
    73
1070
     1
1070
    44
1040
1.0
1070
    74
1070
     0
1000
MTEXTEND
  0
POINT
  5
367A
330
34B5
100
AcDbEntity
  8
Defpoints
 62
     0
100
AcDbPoint
 10
306.939828992991
 20
-52.12253387981764
 30
0.0
  0
POINT
  5
367B
330
34B5
100
AcDbEntity
  8
Defpoints
 62
     0
100
AcDbPoint
 10
331.239828992991
 20
-42.12253387981763
 30
0.0
  0
POINT
  5
367C
330
34B5
100
AcDbEntity
  8
Defpoints
 62
     0
100
AcDbPoint
 10
331.239828992991
 20
-61.47750115760937
 30
0.0
  0
ENDBLK
  5
34C0
330
34B5
100
AcDbEntity
  8
0
100
AcDbBlockEnd
  0
BLOCK
  5
34CB
330
34C1
100
AcDbEntity
  8
0
100
AcDbBlockBegin
  2
*D18
 70
     1
 10
0.0
 20
0.0
 30
0.0
  3
*D18
  1

  0
LINE
  5
361B
330
34C1
100
AcDbEntity
  8
AM_REFDIM
100
AcDbLine
 10
334.4398289929909
 20
104.6817360817939
 30
0.0
 11
334.4398289929909
 21
122.6814134368857
 31
0.0
  0
LINE
  5
361C
330
34C1
100
AcDbEntity
  8
AM_REFDIM
100
AcDbLine
 10
415.9398289929908
 20
104.6817360817939
 30
0.0
 11
415.9398289929908
 21
122.6814134368857
 31
0.0
  0
LINE
  5
361D
330
34C1
100
AcDbEntity
  8
AM_REFDIM
100
AcDbLine
 10
337.4572705949498
 20
121.1726926359063
 30
0.0
 11
412.9223873910319
 21
121.1726926359063
 31
0.0
  0
SOLID
  5
361E
330
34C1
100
AcDbEntity
  8
AM_REFDIM
100
AcDbTrace
 10
337.4572705949498
 20
121.6755995695661
 30
0.0
 11
337.4572705949498
 21
120.6697857022464
 31
0.0
 12
334.4398289929909
 22
121.1726926359063
 32
0.0
 13
334.4398289929909
 23
121.1726926359063
 33
0.0
  0
SOLID
  5
361F
330
34C1
100
AcDbEntity
  8
AM_REFDIM
100
AcDbTrace
 10
412.9223873910319
 20
121.6755995695661
 30
0.0
 11
412.9223873910319
 21
120.6697857022464
 31
0.0
 12
415.9398289929908
 22
121.1726926359063
 32
0.0
 13
415.9398289929908
 23
121.1726926359063
 33
0.0
  0
MTEXT
  5
3620
330
34C1
100
AcDbEntity
  8
AM_REFDIM
100
AcDbMText
 10
375.1898289929909
 20
123.9386807710353
 30
0.0
 40
3.520348535618738
 41
0.0
 71
     5
 72
     1
  1
71.5+ST=81.5
 73
     1
 44
1.0
1001
ACAD
1000
MTEXTBEGIN
1070
    73
1070
     1
1070
    44
1040
1.0
1070
    74
1070
     0
1000
MTEXTEND
  0
POINT
  5
3621
330
34C1
100
AcDbEntity
  8
Defpoints
 62
     0
100
AcDbPoint
 10
334.4398289929909
 20
103.1730152808144
 30
0.0
  0
POINT
  5
3622
330
34C1
100
AcDbEntity
  8
Defpoints
 62
     0
100
AcDbPoint
 10
415.9398289929908
 20
103.1730152808144
 30
0.0
  0
POINT
  5
3623
330
34C1
100
AcDbEntity
  8
Defpoints
 62
     0
100
AcDbPoint
 10
415.9398289929908
 20
121.1726926359063
 30
0.0
  0
ENDBLK
  5
34CC
330
34C1
100
AcDbEntity
  8
0
100
AcDbBlockEnd
  0
BLOCK
  5
34D7
330
34CD
100
AcDbEntity
  8
0
100
AcDbBlockBegin
  2
*D19
 70
     1
 10
0.0
 20
0.0
 30
0.0
  3
*D19
  1

  0
LINE
  5
367D
330
34CD
100
AcDbEntity
  8
AM_REFDIM
100
AcDbLine
 10
278.481195069126
 20
2.877466120182362
 30
0.0
 11
272.9016858711395
 21
2.877466120182364
 31
0.0
  0
LINE
  5
367E
330
34CD
100
AcDbEntity
  8
AM_REFDIM
100
AcDbLine
 10
287.1595572316276
 20
-42.12253387981763
 30
0.0
 11
272.9016858711395
 21
-42.12253387981763
 31
0.0
  0
LINE
  5
367F
330
34CD
100
AcDbEntity
  8
AM_REFDIM
100
AcDbLine
 10
274.4103197950044
 20
-0.1398017275474342
 30
0.0
 11
274.4103197950044
 21
-39.10526603208784
 31
0.0
  0
SOLID
  5
3680
330
34CD
100
AcDbEntity
  8
AM_REFDIM
100
AcDbTrace
 10
273.9074418203828
 20
-0.1398017275474341
 30
0.0
 11
274.9131977696261
 21
-0.1398017275474343
 31
0.0
 12
274.4103197950044
 22
2.877466120182363
 32
0.0
 13
274.4103197950044
 23
2.877466120182363
 33
0.0
  0
SOLID
  5
3681
330
34CD
100
AcDbEntity
  8
AM_REFDIM
100
AcDbTrace
 10
273.9074418203828
 20
-39.10526603208784
 30
0.0
 11
274.9131977696261
 21
-39.10526603208784
 31
0.0
 12
274.4103197950044
 22
-42.12253387981763
 32
0.0
 13
274.4103197950044
 23
-42.12253387981763
 33
0.0
  0
MTEXT
  5
3682
330
34CD
100
AcDbEntity
  8
AM_REFDIM
100
AcDbMText
 10
271.6444909345854
 20
-19.62253387981759
 30
0.0
 40
3.52014582235143
 41
0.0
 71
     5
 72
     1
  1
45
 11
0.0000000000000001
 21
1.0
 31
0.0
 73
     1
 44
1.0
1001
ACAD
1000
MTEXTBEGIN
1070
    73
1070
     1
1070
    44
1040
1.0
1070
    74
1070
     0
1000
MTEXTEND
  0
POINT
  5
3683
330
34CD
100
AcDbEntity
  8
Defpoints
 62
     0
100
AcDbPoint
 10
279.989828992991
 20
2.877466120182361
 30
0.0
  0
POINT
  5
3684
330
34CD
100
AcDbEntity
  8
Defpoints
 62
     0
100
AcDbPoint
 10
288.6681911554926
 20
-42.12253387981763
 30
0.0
  0
POINT
  5
3685
330
34CD
100
AcDbEntity
  8
Defpoints
 62
     0
100
AcDbPoint
 10
274.4103197950044
 20
-42.12253387981763
 30
0.0
  0
ENDBLK
  5
34D8
330
34CD
100
AcDbEntity
  8
0
100
AcDbBlockEnd
  0
BLOCK
  5
34E3
330
34D9
100
AcDbEntity
  8
0
100
AcDbBlockBegin
  2
*D20
 70
     1
 10
0.0
 20
0.0
 30
0.0
  3
*D20
  1

  0
LINE
  5
3686
330
34D9
100
AcDbEntity
  8
AM_REFDIM
100
AcDbLine
 10
287.1595572316276
 20
-42.12253387981763
 30
0.0
 11
272.9016858711395
 21
-42.12253387981763
 31
0.0
  0
LINE
  5
3687
330
34D9
100
AcDbEntity
  8
AM_REFDIM
100
AcDbLine
 10
289.4311950691261
 20
-52.12253387981763
 30
0.0
 11
272.9016858711395
 21
-52.12253387981763
 31
0.0
  0
LINE
  5
3688
330
34D9
100
AcDbEntity
  8
AM_REFDIM
100
AcDbLine
 10
274.4103197950044
 20
-45.13980172754743
 30
0.0
 11
274.4103197950044
 21
-49.10526603208783
 31
0.0
  0
SOLID
  5
3689
330
34D9
100
AcDbEntity
  8
AM_REFDIM
100
AcDbTrace
 10
273.9074418203828
 20
-45.13980172754743
 30
0.0
 11
274.9131977696261
 21
-45.13980172754743
 31
0.0
 12
274.4103197950044
 22
-42.12253387981763
 32
0.0
 13
274.4103197950044
 23
-42.12253387981763
 33
0.0
  0
SOLID
  5
368A
330
34D9
100
AcDbEntity
  8
AM_REFDIM
100
AcDbTrace
 10
273.9074418203828
 20
-49.10526603208783
 30
0.0
 11
274.9131977696261
 21
-49.10526603208783
 31
0.0
 12
274.4103197950044
 22
-52.12253387981763
 32
0.0
 13
274.4103197950044
 23
-52.12253387981763
 33
0.0
  0
MTEXT
  5
368B
330
34D9
100
AcDbEntity
  8
AM_REFDIM
100
AcDbMText
 10
271.6444909345854
 20
-47.12253387981758
 30
0.0
 40
3.52014582235143
 41
0.0
 71
     5
 72
     1
  1
10
 11
0.0000000000000001
 21
1.0
 31
0.0
 73
     1
 44
1.0
1001
ACAD
1000
MTEXTBEGIN
1070
    73
1070
     1
1070
    44
1040
1.0
1070
    74
1070
     0
1000
MTEXTEND
  0
POINT
  5
368C
330
34D9
100
AcDbEntity
  8
Defpoints
 62
     0
100
AcDbPoint
 10
288.6681911554926
 20
-42.12253387981763
 30
0.0
  0
POINT
  5
368D
330
34D9
100
AcDbEntity
  8
Defpoints
 62
     0
100
AcDbPoint
 10
290.939828992991
 20
-52.12253387981763
 30
0.0
  0
POINT
  5
368E
330
34D9
100
AcDbEntity
  8
Defpoints
 62
     0
100
AcDbPoint
 10
274.4103197950044
 20
-52.12253387981763
 30
0.0
  0
ENDBLK
  5
34E4
330
34D9
100
AcDbEntity
  8
0
100
AcDbBlockEnd
  0
BLOCK
  5
34EF
330
34E5
100
AcDbEntity
  8
0
100
AcDbBlockBegin
  2
*D21
 70
     1
 10
0.0
 20
0.0
 30
0.0
  3
*D21
  1

  0
LINE
  5
368F
330
34E5
100
AcDbEntity
  8
AM_REFDIM
100
AcDbLine
 10
289.4311950691261
 20
-52.12253387981763
 30
0.0
 11
264.8556382771933
 21
-52.12253387981762
 31
0.0
  0
LINE
  5
3690
330
34E5
100
AcDbEntity
  8
AM_REFDIM
100
AcDbLine
 10
287.4311950691261
 20
14.87746612018237
 30
0.0
 11
264.8556382771933
 21
14.87746612018238
 31
0.0
  0
LINE
  5
3691
330
34E5
100
AcDbEntity
  8
AM_REFDIM
100
AcDbLine
 10
266.3642722010583
 20
-49.10526603208783
 30
0.0
 11
266.3642722010583
 21
11.86019827245258
 31
0.0
  0
SOLID
  5
3692
330
34E5
100
AcDbEntity
  8
AM_REFDIM
100
AcDbTrace
 10
265.8613942264366
 20
-49.10526603208783
 30
0.0
 11
266.8671501756799
 21
-49.10526603208783
 31
0.0
 12
266.3642722010583
 22
-52.12253387981762
 32
0.0
 13
266.3642722010583
 23
-52.12253387981762
 33
0.0
  0
SOLID
  5
3693
330
34E5
100
AcDbEntity
  8
AM_REFDIM
100
AcDbTrace
 10
265.8613942264366
 20
11.86019827245258
 30
0.0
 11
266.8671501756799
 21
11.86019827245258
 31
0.0
 12
266.3642722010583
 22
14.87746612018238
 32
0.0
 13
266.3642722010583
 23
14.87746612018238
 33
0.0
  0
MTEXT
  5
3694
330
34E5
100
AcDbEntity
  8
AM_REFDIM
100
AcDbMText
 10
263.5984433406393
 20
-18.62253387981758
 30
0.0
 40
3.52014582235143
 41
0.0
 71
     5
 72
     1
  1
67
 11
0.0000000000000001
 21
1.0
 31
0.0
 73
     1
 44
1.0
1001
ACAD
1000
MTEXTBEGIN
1070
    73
1070
     1
1070
    44
1040
1.0
1070
    74
1070
     0
1000
MTEXTEND
  0
POINT
  5
3695
330
34E5
100
AcDbEntity
  8
Defpoints
 62
     0
100
AcDbPoint
 10
290.939828992991
 20
-52.12253387981763
 30
0.0
  0
POINT
  5
3696
330
34E5
100
AcDbEntity
  8
Defpoints
 62
     0
100
AcDbPoint
 10
288.939828992991
 20
14.87746612018237
 30
0.0
  0
POINT
  5
3697
330
34E5
100
AcDbEntity
  8
Defpoints
 62
     0
100
AcDbPoint
 10
266.3642722010583
 20
14.87746612018238
 30
0.0
  0
ENDBLK
  5
34F0
330
34E5
100
AcDbEntity
  8
0
100
AcDbBlockEnd
  0
ENDSEC
  0
SECTION
  2
ENTITIES
  0
TEXT
  5
14E0
330
1F
100
AcDbEntity
  8
LOGO
 62
     7
100
AcDbText
 10
197.4086958827014
 20
-97.89104743481114
 30
0.0
 40
4.665990950226243
  1
Order example:
 41
0.8
  7
CHINESET
100
AcDbText
  0
TEXT
  5
14E1
330
1F
100
AcDbEntity
  8
LOGO
 62
     7
100
AcDbText
 10
198.2458132453474
 20
-91.32229828264623
 30
0.0
 40
6.998986425339364
  1
訂購代號：
  7
CHINESET
100
AcDbText
  0
LINE
  5
14E2
330
1F
100
AcDbEntity
  8
LOGO
 62
     4
100
AcDbLine
 10
195.3813069886967
 20
-117.5552952864569
 30
0.0
 11
195.3813069886967
 21
-82.56036315975986
 31
0.0
  0
TEXT
  5
14E3
330
1F
100
AcDbEntity
  8
LOGO
  6
Continuous
100
AcDbText
 10
130.9627932351366
 20
-110.6805936821245
 30
0.0
 40
5.249239819004525
  1
金器工業股份有限公司
  7
CHINESET
100
AcDbText
  0
TEXT
  5
14E4
330
1F
100
AcDbEntity
  8
LOGO
  6
Continuous
100
AcDbText
 10
121.3209781985095
 20
-115.9308619405772
 30
0.0
 40
3.499493212669682
  1
MINDMAN INDUSTRIAL CO., LTD.
 41
0.85
  7
CHINESET
100
AcDbText
  0
LINE
  5
14E5
330
1F
100
AcDbEntity
  8
LOGO
 62
     4
100
AcDbLine
 10
195.3813069886967
 20
-89.55934958509926
 30
0.0
 11
144.0554065362077
 21
-89.55934958509926
 31
0.0
  0
LINE
  5
14E6
330
1F
100
AcDbEntity
  8
LOGO
 62
     4
100
AcDbLine
 10
195.3813069886967
 20
-96.55833601043868
 30
0.0
 11
144.0554065362077
 21
-96.55833601043868
 31
0.0
  0
LINE
  5
14E7
330
1F
100
AcDbEntity
  8
LOGO
 62
     4
100
AcDbLine
 10
195.3813069886967
 20
-103.5573224357777
 30
0.0
 11
118.3924563099635
 21
-103.5573224357777
 31
0.0
  0
LINE
  5
14E8
330
1F
100
AcDbEntity
  8
LOGO
 62
     4
100
AcDbLine
 10
144.0554065362077
 20
-103.5573224357777
 30
0.0
 11
144.0554065362077
 21
-82.56036315975986
 31
0.0
  0
TEXT
  5
14E9
330
1F
100
AcDbEntity
  8
LOGO
100
AcDbText
 10
179.1342369498825
 20
-101.8075758294434
 30
0.0
 40
3.499493212669682
  1
mm
  7
CHINESET
 72
     1
 11
183.4669428322354
 21
-100.0578292231086
 31
0.0
100
AcDbText
 73
     2
  0
TEXT
  5
14EA
330
1F
100
AcDbEntity
  8
LOGO
100
AcDbText
 10
177.3011690765793
 20
-87.80960297876459
 30
0.0
 40
3.499493212669682
  1
1 : 1
  7
CHINESET
 72
     1
 11
183.4669428322354
 21
-86.05985637242977
 31
0.0
100
AcDbText
 73
     2
  0
LINE
  5
14EB
330
1F
100
AcDbEntity
  8
LOGO
 62
     4
100
AcDbLine
 10
172.0513522375653
 20
-103.5573224357777
 30
0.0
 11
172.0513522375653
 21
-82.56036315975986
 31
0.0
  0
TEXT
  5
14EC
330
1F
100
AcDbEntity
  8
LOGO
100
AcDbText
 10
146.9409261629046
 20
-87.80788078722293
 30
229.3510200800871
 40
3.499493212669682
  1
比例 Scale:
 41
0.9
  7
CHINESET
 72
     4
 11
158.0533793868865
 21
-86.05985637242977
 31
229.3510200800871
100
AcDbText
  0
TEXT
  5
14ED
330
1F
100
AcDbEntity
  8
LOGO
100
AcDbText
 10
146.7393928484249
 20
-94.75936342920467
 30
229.3510200800871
 40
3.499493212669682
  1
投影  View:
 41
0.9
  7
CHINESET
 72
     4
 11
158.0533793868865
 21
-93.05884279776917
 31
229.3510200800871
100
AcDbText
  0
TEXT
  5
14EE
330
1F
100
AcDbEntity
  8
LOGO
100
AcDbText
 10
147.0815308009136
 20
-101.8075758294434
 30
229.3510200800871
 40
3.499493212669682
  1
單位  Unit:
 41
0.9
  7
CHINESET
 72
     4
 11
158.0533793868865
 21
-100.0578292231086
 31
229.3510200800871
100
AcDbText
  0
LWPOLYLINE
  5
14EF
330
1F
100
AcDbEntity
  8
LOGO
 62
     4
100
AcDbPolyline
 90
        4
 70
     1
 43
0.0
 10
118.3924563099635
 20
-82.56036315975984
 10
451.6257640924127
 20
-82.56036315975983
 10
451.6257640924127
 20
157.5791892008699
 10
118.3924563099635
 20
157.5791892008699
1001
GENIUS_GENREC_14
1002
{
1000
PYDIR
1011
118.3924563099635
1021
157.5791892008699
1031
0.0
1002
}
1002
{
1000
PXDIR
1011
451.6257640924127
1021
-82.56036315975983
1031
0.0
1002
}
1002
{
1000
PORI
1011
118.3924563099635
1021
-82.56036315975984
1031
0.0
1002
}
1002
{
1000
PINS
1011
118.3924563099635
1021
-82.56036315975984
1031
0.0
1002
}
1002
{
1000
PINS2
1011
451.6257640924127
1021
157.5791892008699
1031
0.0
1002
}
1002
{
1000
C
1070
     1
1002
}
1001
GENIUS_GENODEF_13
1002
{
1000
HIER
1070
     0
1002
}
1002
{
1000
MANEDIT
1070
     0
1002
}
1002
{
1000
NOSEL
1070
     0
1002
}
1002
{
1000
BEHIND
1070
     0
1002
}
1002
{
1000
OTHER
1070
     0
1002
}
1002
{
1000
REACTOR
1002
}
1001
GENIUS_GENOBJ-N-REC_13
1002
{
1000
OWNER
1000
GEN
1002
}
  0
SOLID
  5
14F0
330
1F
100
AcDbEntity
  8
LOGO
 62
     5
100
AcDbTrace
 10
122.0232366807024
 20
-97.73991308334924
 30
0.0
 11
123.5363257191588
 21
-97.73991308334963
 31
0.0
 12
129.849559293408
 22
-83.39165496005479
 32
0.0
 13
131.3626483318652
 23
-83.39165496005559
 33
0.0
  0
SOLID
  5
14F1
330
1F
100
AcDbEntity
  8
LOGO
 62
     5
100
AcDbTrace
 10
124.1624315281769
 20
-97.73991308334924
 30
0.0
 11
125.6755205666334
 21
-97.73991308334924
 31
0.0
 12
131.3626483318652
 22
-84.53951560991891
 32
0.0
 13
129.849559293408
 23
-90.08750875092609
 33
0.0
  0
SOLID
  5
14F2
330
1F
100
AcDbEntity
  8
LOGO
 62
     2
100
AcDbTrace
 10
123.5363257191588
 20
-97.73991308334963
 30
0.0
 11
124.1624315281769
 21
-97.73991308334924
 31
0.0
 12
131.3626483318652
 22
-83.39165496005559
 32
0.0
 13
131.9887541408825
 23
-83.39165496005559
 33
0.0
  0
SOLID
  5
14F3
330
1F
100
AcDbEntity
  8
LOGO
 62
     5
100
AcDbTrace
 10
119.5973838971728
 20
-102.9574614918195
 30
0.0
 11
120.1191387380204
 21
-102.9574614918195
 31
0.0
 12
121.588440979997
 22
-100.3486872875845
 32
0.0
 13
122.110195820843
 23
-100.3486872875845
 33
0.0
  0
SOLID
  5
14F4
330
1F
100
AcDbEntity
  8
LOGO
 62
     5
100
AcDbTrace
 10
121.588440979997
 20
-100.3486872875845
 30
0.0
 11
122.110195820843
 21
-100.3486872875845
 31
0.0
 12
121.588440979997
 22
-102.9574614918195
 32
0.0
 13
122.110195820843
 23
-102.9574614918195
 33
0.0
  0
SOLID
  5
14F5
330
1F
100
AcDbEntity
  8
LOGO
 62
     5
100
AcDbTrace
 10
121.588440979997
 20
-102.9574614918195
 30
0.0
 11
122.110195820843
 21
-102.9574614918195
 31
0.0
 12
123.579498062822
 22
-100.3486872875845
 32
0.0
 13
124.1012529036688
 23
-100.3486872875845
 33
0.0
  0
SOLID
  5
14F6
330
1F
100
AcDbEntity
  8
LOGO
 62
     5
100
AcDbTrace
 10
123.579498062822
 20
-100.3486872875845
 30
0.0
 11
124.1012529036688
 21
-100.3486872875845
 31
0.0
 12
123.579498062822
 22
-102.9574614918195
 32
0.0
 13
124.1012529036688
 23
-102.9574614918195
 33
0.0
  0
POLYLINE
  5
14F7
330
1F
100
AcDbEntity
  8
LOGO
 62
     5
100
AcDb2dPolyline
 66
     1
 10
0.0
 20
0.0
 30
0.0
 40
0.5225909864253392
 41
0.5225909864253392
  0
VERTEX
  5
14F8
330
14F7
100
AcDbEntity
  8
LOGO
 62
     5
100
AcDbVertex
100
AcDb2dVertex
 10
141.0685425899886
 20
-101.3921969692786
 30
0.0
 42
1.0
  0
VERTEX
  5
14F9
330
14F7
100
AcDbEntity
  8
LOGO
 62
     5
100
AcDbVertex
100
AcDb2dVertex
 10
139.5007696307123
 20
-101.3921969692786
 30
0.0
 42
1.0
  0
SEQEND
  5
14FA
330
14F7
100
AcDbEntity
  8
LOGO
 62
     5
  0
POLYLINE
  5
14FB
330
1F
100
AcDbEntity
  8
LOGO
 62
     5
100
AcDb2dPolyline
 66
     1
 10
0.0
 20
0.0
 30
0.0
 70
     1
  0
VERTEX
  5
14FC
330
14FB
100
AcDbEntity
  8
LOGO
 62
     5
100
AcDbVertex
100
AcDb2dVertex
 10
136.5454478679348
 20
-101.6530743897024
 30
0.0
 42
1.000000057330635
  0
VERTEX
  5
14FD
330
14FB
100
AcDbEntity
  8
LOGO
 62
     5
100
AcDbVertex
100
AcDb2dVertex
 10
138.1107123904761
 20
-101.6530743897024
 30
0.0
 42
1.000000057330635
  0
SEQEND
  5
14FE
330
14FB
100
AcDbEntity
  8
LOGO
 62
     5
  0
CIRCLE
  5
14FF
330
1F
100
AcDbEntity
  8
LOGO
 62
     5
100
AcDbCircle
 10
137.3280801292066
 20
-101.6530743897024
 30
0.0
 40
0.7826322612705883
  0
POLYLINE
  5
1500
330
1F
100
AcDbEntity
  8
LOGO
 62
     5
100
AcDb2dPolyline
 66
     1
 10
0.0
 20
0.0
 30
0.0
 70
     1
 40
0.5225909864253392
 41
0.5225909864253392
  0
VERTEX
  5
1501
330
1500
100
AcDbEntity
  8
LOGO
 62
     5
100
AcDbVertex
100
AcDb2dVertex
 10
136.2828981563552
 20
-101.6530743897024
 30
0.0
 42
1.0
  0
VERTEX
  5
1502
330
1500
100
AcDbEntity
  8
LOGO
 62
     5
100
AcDbVertex
100
AcDb2dVertex
 10
138.3732621020565
 20
-101.6530743897024
 30
0.0
 42
1.0
  0
SEQEND
  5
1503
330
1500
100
AcDbEntity
  8
LOGO
 62
     5
  0
LINE
  5
1504
330
1F
100
AcDbEntity
  8
LOGO
100
AcDbLine
 10
141.3281657920437
 20
-102.9574614918195
 30
0.0
 11
141.3281657920437
 21
-101.3921969692786
 31
0.0
  0
SOLID
  5
1505
330
1F
100
AcDbEntity
  8
LOGO
 62
     5
100
AcDbTrace
 10
138.1106602149943
 20
-100.3486872875845
 30
0.0
 11
138.6324150558404
 21
-100.3486872875845
 31
0.0
 12
138.1106602149943
 22
-102.9574614918195
 32
0.0
 13
138.6324150558404
 23
-102.9574614918195
 33
0.0
  0
SOLID
  5
1506
330
1F
100
AcDbEntity
  8
LOGO
 62
     5
100
AcDbTrace
 10
139.2411464286556
 20
-102.9574614918195
 30
0.0
 11
139.7629012695032
 21
-102.9574614918195
 31
0.0
 12
139.2411464286556
 22
-100.3486872875845
 32
0.0
 13
139.7629012695032
 23
-100.3486872875845
 33
0.0
  0
SOLID
  5
1507
330
1F
100
AcDbEntity
  8
LOGO
 62
     5
100
AcDbTrace
 10
140.8064109511976
 20
-101.3921969692786
 30
0.0
 11
141.3281657920437
 21
-101.3921969692786
 31
0.0
 12
140.8064109511976
 22
-102.9574614918195
 32
0.0
 13
141.3281657920437
 23
-102.9574614918195
 33
0.0
  0
SOLID
  5
1508
330
1F
100
AcDbEntity
  8
LOGO
 62
     5
100
AcDbTrace
 10
139.1889709445707
 20
-84.53951560991891
 30
0.0
 11
137.6758819061151
 21
-90.08750875092609
 31
0.0
 12
139.1889709445707
 22
-97.73991308334963
 32
0.0
 13
137.6758819061151
 23
-97.73991308334963
 33
0.0
  0
SOLID
  5
1509
330
1F
100
AcDbEntity
  8
LOGO
 62
     5
100
AcDbTrace
 10
139.8150767535881
 20
-97.73991308334963
 30
0.0
 11
141.3281657920437
 21
-97.73991308334963
 31
0.0
 12
139.8150767535881
 22
-83.39165496005559
 32
0.0
 13
141.3281657920437
 23
-83.39165496005479
 33
0.0
  0
SOLID
  5
150A
330
1F
100
AcDbEntity
  8
LOGO
 62
     2
100
AcDbTrace
 10
139.1889709445707
 20
-83.39165496005479
 30
0.0
 11
139.8150767535881
 21
-83.39165496005559
 31
0.0
 12
139.1889709445707
 22
-97.73991308334963
 32
0.0
 13
139.8150767535881
 23
-97.73991308334963
 33
0.0
  0
POLYLINE
  5
150B
330
1F
100
AcDbEntity
  8
LOGO
 62
     5
100
AcDb2dPolyline
 66
     1
 10
0.0
 20
0.0
 30
0.0
 40
0.5225909864253392
 41
0.5225909864253392
  0
VERTEX
  5
150C
330
150B
100
AcDbEntity
  8
LOGO
 62
     5
100
AcDbVertex
100
AcDb2dVertex
 10
133.5900217541915
 20
-101.3921969692786
 30
0.0
 42
1.0
  0
VERTEX
  5
150D
330
150B
100
AcDbEntity
  8
LOGO
 62
     5
100
AcDbVertex
100
AcDb2dVertex
 10
132.0222487949152
 20
-101.3921969692786
 30
0.0
 42
1.0
  0
SEQEND
  5
150E
330
150B
100
AcDbEntity
  8
LOGO
 62
     5
  0
POLYLINE
  5
150F
330
1F
100
AcDbEntity
  8
LOGO
 62
     5
100
AcDb2dPolyline
 66
     1
 10
0.0
 20
0.0
 30
0.0
 40
0.5225909864253392
 41
0.5225909864253392
  0
VERTEX
  5
1510
330
150F
100
AcDbEntity
  8
LOGO
 62
     5
100
AcDbVertex
100
AcDb2dVertex
 10
135.1552862767312
 20
-101.3921969692786
 30
0.0
 42
1.0
  0
VERTEX
  5
1511
330
150F
100
AcDbEntity
  8
LOGO
 62
     5
100
AcDbVertex
100
AcDb2dVertex
 10
133.5875133174556
 20
-101.3921969692786
 30
0.0
 42
1.0
  0
SEQEND
  5
1512
330
150F
100
AcDbEntity
  8
LOGO
 62
     5
  0
POLYLINE
  5
1513
330
1F
100
AcDbEntity
  8
LOGO
 62
     5
100
AcDb2dPolyline
 66
     1
 10
0.0
 20
0.0
 30
0.0
 40
0.5225909864253392
 41
0.5225909864253392
  0
VERTEX
  5
1514
330
1513
100
AcDbEntity
  8
LOGO
 62
     5
100
AcDbVertex
100
AcDb2dVertex
 10
127.6767654409341
 20
-101.3921969692786
 30
0.0
 42
1.0
  0
VERTEX
  5
1515
330
1513
100
AcDbEntity
  8
LOGO
 62
     5
100
AcDbVertex
100
AcDb2dVertex
 10
126.1089924816585
 20
-101.3921969692786
 30
0.0
 42
1.0
  0
SEQEND
  5
1516
330
1513
100
AcDbEntity
  8
LOGO
 62
     5
  0
SOLID
  5
1517
330
1F
100
AcDbEntity
  8
LOGO
 62
     5
100
AcDbTrace
 10
125.8493692796027
 20
-100.3486872875845
 30
0.0
 11
126.3711241204487
 21
-100.3486872875845
 31
0.0
 12
125.8493692796027
 22
-102.9574614918195
 32
0.0
 13
126.3711241204487
 23
-102.9574614918195
 33
0.0
  0
SOLID
  5
1518
330
1F
100
AcDbEntity
  8
LOGO
 62
     5
100
AcDbTrace
 10
127.4146338021439
 20
-101.3921969692786
 30
0.0
 11
127.9363886429915
 21
-101.3921969692786
 31
0.0
 12
127.4146338021439
 22
-102.9574614918195
 32
0.0
 13
127.9363886429915
 23
-102.9574614918195
 33
0.0
  0
POLYLINE
  5
1519
330
1F
100
AcDbEntity
  8
LOGO
 62
     5
100
AcDb2dPolyline
 66
     1
 10
0.0
 20
0.0
 30
0.0
 70
     1
 40
0.5225909864253392
 41
0.5225909864253392
  0
VERTEX
  5
151A
330
1519
100
AcDbEntity
  8
LOGO
 62
     5
100
AcDbVertex
100
AcDb2dVertex
 10
128.8043773205573
 20
-101.6530743897024
 30
0.0
 42
1.0
  0
VERTEX
  5
151B
330
1519
100
AcDbEntity
  8
LOGO
 62
     5
100
AcDbVertex
100
AcDb2dVertex
 10
130.8947412662594
 20
-101.6530743897024
 30
0.0
 42
1.0
  0
SEQEND
  5
151C
330
1519
100
AcDbEntity
  8
LOGO
 62
     5
  0
SOLID
  5
151D
330
1F
100
AcDbEntity
  8
LOGO
 62
     5
100
AcDbTrace
 10
130.6321393791957
 20
-99.56605502631353
 30
0.0
 11
131.1538942200425
 21
-99.56605502631353
 31
0.0
 12
130.6321393791957
 22
-102.9574614918195
 32
0.0
 13
131.1538942200425
 23
-102.9574614918195
 33
0.0
  0
SOLID
  5
151E
330
1F
100
AcDbEntity
  8
LOGO
 62
     5
100
AcDbTrace
 10
131.7626255928601
 20
-100.3486872875845
 30
0.0
 11
132.2843804337061
 21
-100.3486872875845
 31
0.0
 12
131.7626255928601
 22
-102.9574614918195
 32
0.0
 13
132.2843804337061
 23
-102.9574614918195
 33
0.0
  0
SOLID
  5
151F
330
1F
100
AcDbEntity
  8
LOGO
 62
     5
100
AcDbTrace
 10
133.3278901153998
 20
-101.3921969692786
 30
0.0
 11
133.8496449562474
 21
-101.3921969692786
 31
0.0
 12
133.3278901153998
 22
-102.9574614918195
 32
0.0
 13
133.8496449562474
 23
-102.9574614918195
 33
0.0
  0
SOLID
  5
1520
330
1F
100
AcDbEntity
  8
LOGO
 62
     5
100
AcDbTrace
 10
134.893154637941
 20
-101.3921969692786
 30
0.0
 11
135.4149094787878
 21
-101.3921969692786
 31
0.0
 12
134.893154637941
 22
-102.9574614918203
 32
0.0
 13
135.4149094787878
 23
-102.9574614918203
 33
0.0
  0
SOLID
  5
1521
330
1F
100
AcDbEntity
  8
LOGO
 62
     5
100
AcDbTrace
 10
124.718883065939
 20
-99.98345889899146
 30
0.0
 11
125.2406379067874
 21
-99.98345889899146
 31
0.0
 12
124.718883065939
 22
-99.56605502631353
 32
0.0
 13
125.2406379067874
 23
-99.56605502631353
 33
0.0
  0
SOLID
  5
1522
330
1F
100
AcDbEntity
  8
LOGO
 62
     5
100
AcDbTrace
 10
124.718883065939
 20
-100.3486872875845
 30
0.0
 11
125.2406379067874
 21
-100.3486872875845
 31
0.0
 12
124.718883065939
 22
-102.9574614918203
 32
0.0
 13
125.2406379067874
 23
-102.9574614918195
 33
0.0
  0
SOLID
  5
1523
330
1F
100
AcDbEntity
  8
LOGO
 62
     5
100
AcDbTrace
 10
129.849559293408
 20
-97.73991308334924
 30
0.0
 11
131.3626483318652
 21
-97.73991308334924
 31
0.0
 12
129.849559293408
 22
-90.08750875092609
 32
0.0
 13
131.3626483318652
 23
-84.53951560991891
 33
0.0
  0
SOLID
  5
1524
330
1F
100
AcDbEntity
  8
LOGO
 62
     5
100
AcDbTrace
 10
131.9887541408825
 20
-83.39165496005559
 30
0.0
 11
133.5018431793381
 21
-83.39165496005479
 31
0.0
 12
131.9887541408825
 22
-96.59205243348591
 32
0.0
 13
133.5018431793381
 23
-91.04405929247873
 33
0.0
  0
SOLID
  5
1525
330
1F
100
AcDbEntity
  8
LOGO
 62
     2
100
AcDbTrace
 10
131.3626483318652
 20
-83.39165496005559
 30
0.0
 11
131.9887541408825
 21
-83.39165496005559
 31
0.0
 12
131.3626483318652
 22
-97.73991308334924
 32
0.0
 13
131.9887541408825
 23
-97.73991308334924
 33
0.0
  0
SOLID
  5
1526
330
1F
100
AcDbEntity
  8
LOGO
 62
     5
100
AcDbTrace
 10
131.9887541408825
 20
-96.59205243348591
 30
0.0
 11
133.5018431793381
 21
-91.04405929247873
 31
0.0
 12
139.1889709445707
 22
-83.39165496005479
 32
0.0
 13
137.6758819061151
 23
-83.39165496005479
 33
0.0
  0
SOLID
  5
1527
330
1F
100
AcDbEntity
  8
LOGO
 62
     5
100
AcDbTrace
 10
131.9887541408825
 20
-97.73991308334924
 30
0.0
 11
133.5018431793381
 21
-97.73991308334924
 31
0.0
 12
139.1889709445707
 22
-84.53951560991891
 32
0.0
 13
137.6758819061151
 23
-90.08750875092609
 33
0.0
  0
SOLID
  5
1528
330
1F
100
AcDbEntity
  8
LOGO
 62
     2
100
AcDbTrace
 10
131.3626483318652
 20
-97.73991308334924
 30
0.0
 11
131.9887541408825
 21
-97.73991308334924
 31
0.0
 12
139.1889709445707
 22
-83.39165496005479
 32
0.0
 13
139.8150767535881
 23
-83.39165496005559
 33
0.0
  0
LWPOLYLINE
  5
1529
330
1F
100
AcDbEntity
  8
LOGO
 62
     4
100
AcDbPolyline
 90
        4
 70
     1
 43
0.0
 10
118.3924563099635
 20
-82.56036315975984
 10
451.6257640924127
 20
-82.56036315975977
 10
451.6257640924127
 20
-117.5552952864573
 10
118.3924563099635
 20
-117.5552952864573
1001
GENIUS_GENREC_14
1002
{
1000
PYDIR
1011
118.3924563099635
1021
-117.5552952864573
1031
0.0
1002
}
1002
{
1000
PXDIR
1011
451.6257640924127
1021
-82.56036315975977
1031
0.0
1002
}
1002
{
1000
PORI
1011
118.3924563099635
1021
-82.56036315975984
1031
0.0
1002
}
1002
{
1000
PINS
1011
118.3924563099635
1021
-82.56036315975984
1031
0.0
1002
}
1002
{
1000
PINS2
1011
451.6257640924127
1021
-117.5552952864573
1031
0.0
1002
}
1002
{
1000
C
1070
     1
1002
}
1001
GENIUS_GENOBJ-N-REC_13
1002
{
1000
OWNER
1000
GEN
1002
}
1001
GENIUS_GENODEF_13
1002
{
1000
HIER
1070
     0
1002
}
1002
{
1000
MANEDIT
1070
     0
1002
}
1002
{
1000
NOSEL
1070
     0
1002
}
1002
{
1000
BEHIND
1070
     0
1002
}
1002
{
1000
OTHER
1070
     0
1002
}
1002
{
1000
REACTOR
1002
}
  0
LINE
  5
152A
330
1F
100
AcDbEntity
  8
LOGO
 62
     4
100
AcDbLine
 10
266.8452377261657
 20
-101.8075758294427
 30
0.0
 11
266.8452377261657
 21
-114.6390509425656
 31
0.0
  0
LINE
  5
152B
330
1F
100
AcDbEntity
  8
LOGO
 62
     4
100
AcDbLine
 10
243.5152829750343
 20
-101.8075758294427
 30
0.0
 11
243.5152829750343
 21
-114.6390509425656
 31
0.0
  0
LINE
  5
152C
330
1F
100
AcDbEntity
  8
LOGO
 62
     4
100
AcDbLine
 10
266.8452377261657
 20
-114.6390509425656
 30
0.0
 11
243.5152829750343
 21
-114.6390509425656
 31
0.0
  0
LINE
  5
152D
330
1F
100
AcDbEntity
  8
LOGO
 62
     4
100
AcDbLine
 10
271.0297130499932
 20
-86.05985637242977
 30
0.0
 11
243.5152829750343
 21
-86.05985637242977
 31
0.0
  0
LINE
  5
152E
330
1F
100
AcDbEntity
  8
LOGO
 62
     4
100
AcDbLine
 10
271.0297130499932
 20
-96.55833601043868
 30
0.0
 11
243.5152829750343
 21
-96.55833601043868
 31
0.0
  0
LINE
  5
152F
330
1F
100
AcDbEntity
  8
LOGO
 62
     4
100
AcDbLine
 10
243.5152829750343
 20
-86.05985637242977
 30
0.0
 11
243.5152829750343
 21
-96.55833601043868
 31
0.0
  0
LINE
  5
1530
330
1F
100
AcDbEntity
  8
LOGO
 62
     4
100
AcDbLine
 10
271.0297130499932
 20
-86.05985637242977
 30
0.0
 11
271.0297130499932
 21
-96.55833601043868
 31
0.0
  0
LINE
  5
1531
330
1F
100
AcDbEntity
  8
LOGO
 62
     4
100
AcDbLine
 10
256.3974980125138
 20
-96.55833601043868
 30
0.0
 11
256.3974980125138
 21
-101.8075758294427
 31
0.0
  0
TEXT
  5
1532
330
1F
100
AcDbEntity
  8
LOGO
  6
Continuous
100
AcDbText
 10
245.3806983857743
 20
-94.36679373477996
 30
0.0
 40
6.125
  1
MCKC
  7
CHINESET
100
AcDbText
  0
LINE
  5
1533
330
1F
100
AcDbEntity
  8
LOGO
 62
     4
100
AcDbLine
 10
266.8452377261657
 20
-101.8075758294427
 30
0.0
 11
243.5152829750343
 21
-101.8075758294427
 31
0.0
  0
TEXT
  5
1534
330
1F
100
AcDbEntity
  8
LOGO
  6
Continuous
100
AcDbText
 10
251.0017915931596
 20
-112.8279154401234
 30
229.3510200800871
 40
2.625
  1
Model
 41
0.8
  7
CHINESET
100
AcDbText
  0
TEXT
  5
1535
330
1F
100
AcDbEntity
  8
LOGO
100
AcDbText
 10
250.3031019266611
 20
-107.9617311680005
 30
229.3510200800871
 40
4.375
  1
型號
  7
CHINESET
100
AcDbText
  0
LINE
  5
1536
330
1F
100
AcDbEntity
  8
LOGO
  6
Continuous
100
AcDbLine
 10
272.1457882042532
 20
-91.3462834654638
 30
0.0
 11
276.7815337398975
 21
-91.3462834654638
 31
0.0
  0
LINE
  5
1537
330
1F
100
AcDbEntity
  8
LOGO
 62
     4
100
AcDbLine
 10
274.2201128039119
 20
-101.8075758294427
 30
0.0
 11
274.2201128039119
 21
-114.6390509425655
 31
0.0
  0
LINE
  5
1538
330
1F
100
AcDbEntity
  8
LOGO
 62
     4
100
AcDbLine
 10
294.7732606712338
 20
-114.6390509425655
 30
0.0
 11
274.2201128039119
 21
-114.6390509425655
 31
0.0
  0
LINE
  5
1539
330
1F
100
AcDbEntity
  8
LOGO
 62
     4
100
AcDbLine
 10
290.9775481704419
 20
-86.05985637242977
 30
0.0
 11
278.0158253047039
 21
-86.05985637242977
 31
0.0
  0
LINE
  5
153A
330
1F
100
AcDbEntity
  8
LOGO
 62
     4
100
AcDbLine
 10
290.9775481704419
 20
-96.55833601043868
 30
0.0
 11
278.0158253047039
 21
-96.55833601043868
 31
0.0
  0
LINE
  5
153B
330
1F
100
AcDbEntity
  8
LOGO
 62
     4
100
AcDbLine
 10
278.0158253047039
 20
-86.05985637242977
 30
0.0
 11
278.0158253047039
 21
-96.55833601043868
 31
0.0
  0
LINE
  5
153C
330
1F
100
AcDbEntity
  8
LOGO
 62
     4
100
AcDbLine
 10
290.9775481704419
 20
-86.05985637242977
 30
0.0
 11
290.9775481704419
 21
-96.55833601043868
 31
0.0
  0
LINE
  5
153D
330
1F
100
AcDbEntity
  8
LOGO
 62
     4
100
AcDbLine
 10
284.4966867375729
 20
-96.55833601043868
 30
0.0
 11
284.4966867375729
 21
-101.8075758294427
 31
0.0
  0
TEXT
  5
153E
330
1F
100
AcDbEntity
  8
LOGO
  6
Continuous
100
AcDbText
 10
279.4131448716071
 20
-94.36679373477996
 30
0.0
 40
6.125
  1
32
  7
CHINESET
100
AcDbText
  0
LINE
  5
153F
330
1F
100
AcDbEntity
  8
LOGO
 62
     4
100
AcDbLine
 10
294.7732606712338
 20
-101.8075758294427
 30
0.0
 11
274.2201128039119
 21
-101.8075758294427
 31
0.0
  0
LINE
  5
1540
330
1F
100
AcDbEntity
  8
LOGO
  6
Continuous
100
AcDbLine
 10
293.7297298752349
 20
-91.3462834654638
 30
0.0
 11
298.3654754108799
 21
-91.3462834654638
 31
0.0
  0
LINE
  5
1541
330
1F
100
AcDbEntity
  8
LOGO
 62
     4
100
AcDbLine
 10
294.7732606712338
 20
-101.8075758294427
 30
0.0
 11
294.7732606712338
 21
-114.6390509425655
 31
0.0
  0
TEXT
  5
1542
330
1F
100
AcDbEntity
  8
LOGO
  6
Continuous
100
AcDbText
 10
279.106784803665
 20
-112.8279154401234
 30
229.3510200800871
 40
2.625
  1
Tube I.D.
 41
0.8
  7
CHINESET
100
AcDbText
  0
TEXT
  5
1543
330
1F
100
AcDbEntity
  8
LOGO
100
AcDbText
 10
280.8335887972708
 20
-107.9617311680005
 30
229.3510200800871
 40
4.375
  1
內徑
  7
CHINESET
100
AcDbText
  0
TEXT
  5
1550
330
1F
100
AcDbEntity
  8
LOGO
100
AcDbText
 10
197.5277442733626
 20
-115.6935787095945
 30
0.0
 40
3.5
  1
11207241
 41
0.7
  7
CHINESET
 72
     1
 11
205.5194109400293
 21
-115.6935787095945
 31
0.0
100
AcDbText
  0
LINE
  5
1551
330
1F
100
AcDbEntity
  8
LOGO
 62
     4
100
AcDbLine
 10
216.3813069886951
 20
-110.5563088611167
 30
0.0
 11
216.3813069886967
 21
-117.5552952864565
 31
0.0
  0
LINE
  5
1552
330
1F
100
AcDbEntity
  8
LOGO
 62
     4
100
AcDbLine
 10
216.3813069886951
 20
-110.5563088611167
 30
0.0
 11
195.3813069886967
 21
-110.5563088611167
 31
0.0
  0
CIRCLE
  5
1553
330
1F
100
AcDbEntity
  8
LOGO
  6
Continuous
100
AcDbCircle
 10
178.5311016305148
 20
-93.05135735617831
 30
0.0
 40
2.031888128061104
  0
CIRCLE
  5
1554
330
1F
100
AcDbEntity
  8
LOGO
  6
Continuous
100
AcDbCircle
 10
178.5311016305148
 20
-93.05135735617831
 30
0.0
 40
1.190506570164794
  0
LINE
  5
1555
330
1F
100
AcDbEntity
  8
LOGO
100
AcDbLine
 10
191.2997223975787
 20
-95.08324548423981
 30
0.0
 11
191.2997223975787
 21
-91.01946922811682
 31
0.0
  0
LINE
  5
1556
330
1F
100
AcDbEntity
  8
LOGO
100
AcDbLine
 10
184.9298697520513
 20
-94.2418639263429
 30
0.0
 11
184.9298697520513
 21
-91.86085078601333
 31
0.0
  0
LINE
  5
1557
330
1F
100
AcDbEntity
  8
LOGO
  6
Continuous
100
AcDbLine
 10
184.9298697520513
 20
-91.86085078601333
 30
0.0
 11
191.2997223975787
 21
-91.01946922811682
 31
0.0
  0
LINE
  5
1558
330
1F
100
AcDbEntity
  8
LOGO
  6
Continuous
100
AcDbLine
 10
184.9298697520513
 20
-94.2418639263429
 30
0.0
 11
191.2997223975787
 21
-95.08324548423981
 31
0.0
  0
LINE
  5
1559
330
1F
100
AcDbEntity
  8
LOGO
  6
AM_ISO08W050x2
 48
0.3
100
AcDbLine
 10
175.7301134208537
 20
-93.05135735617831
 30
0.0
 11
181.3320898401759
 21
-93.05135735617831
 31
0.0
1001
GENIUS_GENOREF_13
1005
1593
  0
LINE
  5
155A
330
1F
100
AcDbEntity
  8
LOGO
  6
AM_ISO08W050x2
 48
0.3
100
AcDbLine
 10
178.5311016305148
 20
-95.85234556583943
 30
0.0
 11
178.5311016305148
 21
-90.25036914651719
 31
0.0
1001
GENIUS_GENOREF_13
1005
1592
  0
LINE
  5
155B
330
1F
100
AcDbEntity
  8
LOGO
  6
CENTER
 48
0.5
100
AcDbLine
 10
184.420458589635
 20
-93.05135735617831
 30
0.0
 11
191.9411459387072
 21
-93.05135735617831
 31
0.0
1001
GENIUS_GENOREF_13
1005
1591
  0
LINE
  5
155C
330
1F
100
AcDbEntity
  8
LOGO
 62
     4
100
AcDbLine
 10
319.1517212254276
 20
-101.8075758294427
 30
0.0
 11
319.1517212254276
 21
-114.6390509425656
 31
0.0
  0
LINE
  5
155D
330
1F
100
AcDbEntity
  8
LOGO
 62
     4
100
AcDbLine
 10
297.639988233986
 20
-101.8075758294427
 30
0.0
 11
297.639988233986
 21
-114.6390509425656
 31
0.0
  0
LINE
  5
155E
330
1F
100
AcDbEntity
  8
LOGO
 62
     4
100
AcDbLine
 10
319.1517212254276
 20
-114.6390509425656
 30
0.0
 11
297.639988233986
 21
-114.6390509425656
 31
0.0
  0
LINE
  5
155F
330
1F
100
AcDbEntity
  8
LOGO
 62
     4
100
AcDbLine
 10
316.3455205143722
 20
-86.05985637242977
 30
0.0
 11
300.4461889450415
 21
-86.05985637242977
 31
0.0
  0
LINE
  5
1560
330
1F
100
AcDbEntity
  8
LOGO
 62
     4
100
AcDbLine
 10
316.3455205143722
 20
-96.55833601043868
 30
0.0
 11
300.4461889450415
 21
-96.55833601043868
 31
0.0
  0
LINE
  5
1561
330
1F
100
AcDbEntity
  8
LOGO
 62
     4
100
AcDbLine
 10
300.4461889450415
 20
-86.05985637242977
 30
0.0
 11
300.4461889450415
 21
-96.55833601043868
 31
0.0
  0
LINE
  5
1562
330
1F
100
AcDbEntity
  8
LOGO
 62
     4
100
AcDbLine
 10
316.3455205143722
 20
-86.05985637242977
 30
0.0
 11
316.3455205143722
 21
-96.55833601043868
 31
0.0
  0
LINE
  5
1563
330
1F
100
AcDbEntity
  8
LOGO
 62
     4
100
AcDbLine
 10
308.3958547297068
 20
-96.55833601043868
 30
0.0
 11
308.3958547297068
 21
-101.8075758294427
 31
0.0
  0
LINE
  5
1565
330
1F
100
AcDbEntity
  8
LOGO
 62
     4
100
AcDbLine
 10
319.1517212254276
 20
-101.8075758294427
 30
0.0
 11
297.639988233986
 21
-101.8075758294427
 31
0.0
  0
TEXT
  5
1566
330
1F
100
AcDbEntity
  8
LOGO
  6
Continuous
100
AcDbText
 10
303.0301399519435
 20
-112.8279154401234
 30
229.3510200800871
 40
2.625
  1
Stroke
 41
0.8
  7
CHINESET
100
AcDbText
  0
TEXT
  5
1567
330
1F
100
AcDbEntity
  8
LOGO
100
AcDbText
 10
303.1522726761648
 20
-107.9617311680005
 30
229.3510200800871
 40
4.375
  1
行程
  7
CHINESET
100
AcDbText
  0
POINT
  5
1591
330
1F
100
AcDbEntity
  8
0
 60
     1
100
AcDbPoint
 10
-1260.822680323498
 20
-1560.993268715076
 30
0.0
1001
GENIUS_GENOBJ-N-CRS_13
1002
{
1000
OWNER
1000
GEN
1002
}
1001
GENIUS_GENOLIS_13
1002
{
1000
ENT
1005
0
1005
0
1005
0
1005
155B
1002
}
1001
GENIUS_GENOENT_13
1002
{
1000
MYREF
1005
1591
1002
}
1002
{
1000
GRP
1005
0
1002
}
1001
GENIUS_GENODEF_13
1002
{
1000
HIER
1070
    10
1002
}
1002
{
1000
MANEDIT
1070
     1
1002
}
1002
{
1000
NOSEL
1070
     0
1002
}
1002
{
1000
BEHIND
1070
     0
1002
}
1002
{
1000
OTHER
1070
     0
1002
}
1002
{
1000
REACTOR
1002
}
  0
POINT
  5
1592
330
1F
100
AcDbEntity
  8
0
 60
     1
100
AcDbPoint
 10
-1272.147265546353
 20
-1552.11768223644
 30
0.0
1001
GENIUS_GENOBJ-N-CRS_13
1002
{
1000
OWNER
1000
GEN
1002
}
1001
GENIUS_GENOLIS_13
1002
{
1000
ENT
1005
0
1005
0
1005
0
1005
155A
1002
}
1001
GENIUS_GENOENT_13
1002
{
1000
MYREF
1005
1592
1002
}
1002
{
1000
GRP
1005
0
1002
}
1001
GENIUS_GENODEF_13
1002
{
1000
HIER
1070
    10
1002
}
1002
{
1000
MANEDIT
1070
     1
1002
}
1002
{
1000
NOSEL
1070
     0
1002
}
1002
{
1000
BEHIND
1070
     0
1002
}
1002
{
1000
OTHER
1070
     0
1002
}
1002
{
1000
REACTOR
1002
}
  0
POINT
  5
1593
330
1F
100
AcDbEntity
  8
0
 60
     1
100
AcDbPoint
 10
-1265.788591848516
 20
-1560.993268715076
 30
0.0
1001
GENIUS_GENOBJ-N-CRS_13
1002
{
1000
OWNER
1000
GEN
1002
}
1001
GENIUS_GENOLIS_13
1002
{
1000
ENT
1005
0
1005
0
1005
0
1005
1559
1002
}
1001
GENIUS_GENOENT_13
1002
{
1000
MYREF
1005
1593
1002
}
1002
{
1000
GRP
1005
0
1002
}
1001
GENIUS_GENODEF_13
1002
{
1000
HIER
1070
    10
1002
}
1002
{
1000
MANEDIT
1070
     1
1002
}
1002
{
1000
NOSEL
1070
     0
1002
}
1002
{
1000
BEHIND
1070
     0
1002
}
1002
{
1000
OTHER
1070
     0
1002
}
1002
{
1000
REACTOR
1002
}
  0
TEXT
  5
2689
330
1F
100
AcDbEntity
  8
LOGO
  6
Continuous
100
AcDbText
 10
303.3435212813747
 20
-94.36679373477996
 30
0.0
 40
6.125
  1
10
  7
CHINESET
100
AcDbText
  0
LINE
  5
2F16
330
1F
100
AcDbEntity
  8
AM_7
100
AcDbLine
 10
215.5652960583737
 20
80.67301528081447
 30
0.0
 11
215.5652960583737
 21
80.67301528081447
 31
0.0
  0
LINE
  5
2F17
330
1F
100
AcDbEntity
  8
AM_VIS
100
AcDbLine
 10
227.6620012375535
 20
98.64726433766001
 30
0.0
 11
227.6921642466383
 21
98.78838413016405
 31
0.0
  0
LINE
  5
2F18
330
1F
100
AcDbEntity
  8
AM_VIS
100
AcDbLine
 10
242.5652960583737
 20
87.67301528081446
 30
0.0
 11
242.5652960583737
 21
73.67301528081447
 31
0.0
  0
ARC
  5
2F19
330
1F
100
AcDbEntity
  8
AM_VIS
100
AcDbCircle
 10
215.5652960583737
 20
80.67301528081447
 30
0.0
 40
30.0
100
AcDbArc
 50
41.40962210927081
 51
48.59037789073025
  0
ARC
  5
2F1A
330
1F
100
AcDbEntity
  8
AM_VIS
100
AcDbCircle
 10
233.9652960583737
 20
91.12301528081445
 30
0.0
 40
1.7
100
AcDbArc
 50
90.0
 51
99.63233002471023
  0
CIRCLE
  5
2F1B
330
1F
100
AcDbEntity
  8
AM_VIS
100
AcDbCircle
 10
232.5652960583738
 20
97.67301528081446
 30
0.0
 40
4.5
  0
ARC
  5
2F1C
330
1F
100
AcDbEntity
  8
AM_VIS
100
AcDbCircle
 10
232.5652960583738
 20
97.67301528081446
 30
0.0
 40
5.0
100
AcDbArc
 50
90.0
 51
167.1082668439966
  0
ARC
  5
2F1D
330
1F
100
AcDbEntity
  8
AM_VIS
100
AcDbCircle
 10
232.5652960583738
 20
97.67301528081446
 30
0.0
 40
5.0
100
AcDbArc
 50
282.8917331560059
 51
90.0
  0
CIRCLE
  5
2F1E
330
1F
100
AcDbEntity
  8
AM_VIS
100
AcDbCircle
 10
232.5652960583738
 20
97.67301528081446
 30
0.0
 40
3.276500000000002
  0
ARC
  5
2F1F
330
1F
100
AcDbEntity
  8
AM_VIS
100
AcDbCircle
 10
215.5652960583737
 20
80.67301528081447
 30
0.0
 40
30.0
100
AcDbArc
 50
311.4096221092698
 51
318.5903778907292
  0
ARC
  5
2F20
330
1F
100
AcDbEntity
  8
AM_VIS
100
AcDbCircle
 10
226.0152960583738
 20
62.27301528081449
 30
0.0
 40
1.7
100
AcDbArc
 50
0.0
 51
9.632330024710826
  0
ARC
  5
2F21
330
1F
100
AcDbEntity
  8
AM_VIS
100
AcDbCircle
 10
233.9652960583737
 20
70.22301528081448
 30
0.0
 40
1.7
100
AcDbArc
 50
260.3676699752899
 51
270.0
  0
ARC
  5
2F22
330
1F
100
AcDbEntity
  8
AM_VIS
100
AcDbCircle
 10
232.5652960583738
 20
63.67301528081447
 30
0.0
 40
5.0
100
AcDbArc
 50
0.0
 51
77.10826684399397
  0
ARC
  5
2F23
330
1F
100
AcDbEntity
  8
AM_VIS
100
AcDbCircle
 10
232.5652960583738
 20
63.67301528081447
 30
0.0
 40
5.0
100
AcDbArc
 50
192.8917331560036
 51
0.0
  0
CIRCLE
  5
2F24
330
1F
100
AcDbEntity
  8
AM_VIS
100
AcDbCircle
 10
232.5652960583738
 20
63.67301528081447
 30
0.0
 40
4.5
  0
ARC
  5
2F25
330
1F
100
AcDbEntity
  8
AM_VIS
100
AcDbCircle
 10
215.5652960583737
 20
80.67301528081447
 30
0.0
 40
30.0
100
AcDbArc
 50
221.4096221092708
 51
228.5903778907302
  0
ARC
  5
2F26
330
1F
100
AcDbEntity
  8
AM_VIS
100
AcDbCircle
 10
197.1652960583737
 20
70.22301528081448
 30
0.0
 40
1.7
100
AcDbArc
 50
270.0
 51
279.6323300247102
  0
ARC
  5
2F27
330
1F
100
AcDbEntity
  8
AM_VIS
100
AcDbCircle
 10
198.5652960583737
 20
63.67301528081447
 30
0.0
 40
5.0
100
AcDbArc
 50
270.0
 51
347.1082668439956
  0
ARC
  5
2F28
330
1F
100
AcDbEntity
  8
AM_VIS
100
AcDbCircle
 10
198.5652960583737
 20
63.67301528081447
 30
0.0
 40
5.0
100
AcDbArc
 50
102.8917331560059
 51
270.0
  0
CIRCLE
  5
2F29
330
1F
100
AcDbEntity
  8
AM_VIS
100
AcDbCircle
 10
198.5652960583737
 20
63.67301528081447
 30
0.0
 40
4.5
  0
ARC
  5
2F2A
330
1F
100
AcDbEntity
  8
AM_VIS
100
AcDbCircle
 10
205.1152960583737
 20
99.07301528081445
 30
0.0
 40
1.7
100
AcDbArc
 50
194.4974387963398
 51
270.0
  0
ARC
  5
2F2B
330
1F
100
AcDbEntity
  8
AM_VIS
100
AcDbCircle
 10
206.0152960583738
 20
99.07301528081445
 30
0.0
 40
1.7
100
AcDbArc
 50
270.0
 51
0.0
  0
ARC
  5
2F2C
330
1F
100
AcDbEntity
  8
AM_VIS
100
AcDbCircle
 10
225.1152960583737
 20
99.07301528081445
 30
0.0
 40
1.7
100
AcDbArc
 50
180.0
 51
270.0
  0
ARC
  5
2F2D
330
1F
100
AcDbEntity
  8
AM_VIS
100
AcDbCircle
 10
232.5652960583738
 20
97.67301528081446
 30
0.0
 40
5.0
100
AcDbArc
 50
168.7619643349528
 51
281.2380356650499
  0
ARC
  5
2F2E
330
1F
100
AcDbEntity
  8
AM_VIS
100
AcDbCircle
 10
233.9652960583737
 20
91.12301528081445
 30
0.0
 40
1.7
100
AcDbArc
 50
104.4974387963394
 51
180.0
  0
ARC
  5
2F2F
330
1F
100
AcDbEntity
  8
AM_VIS
100
AcDbCircle
 10
233.9652960583737
 20
90.22301528081447
 30
0.0
 40
1.7
100
AcDbArc
 50
180.0
 51
270.0
  0
ARC
  5
2F30
330
1F
100
AcDbEntity
  8
AM_VIS
100
AcDbCircle
 10
233.9652960583737
 20
71.12301528081445
 30
0.0
 40
1.7
100
AcDbArc
 50
90.0
 51
180.0
  0
ARC
  5
2F31
330
1F
100
AcDbEntity
  8
AM_VIS
100
AcDbCircle
 10
233.9652960583737
 20
70.22301528081448
 30
0.0
 40
1.7
100
AcDbArc
 50
180.0
 51
255.502561203654
  0
ARC
  5
2F32
330
1F
100
AcDbEntity
  8
AM_VIS
100
AcDbCircle
 10
232.5652960583738
 20
63.67301528081447
 30
0.0
 40
5.0
100
AcDbArc
 50
78.76196433495644
 51
191.2380356650472
  0
ARC
  5
2F33
330
1F
100
AcDbEntity
  8
AM_VIS
100
AcDbCircle
 10
226.0152960583738
 20
62.27301528081449
 30
0.0
 40
1.7
100
AcDbArc
 50
14.49743879633978
 51
90.0
  0
ARC
  5
2F34
330
1F
100
AcDbEntity
  8
AM_VIS
100
AcDbCircle
 10
225.1152960583737
 20
62.27301528081446
 30
0.0
 40
1.7
100
AcDbArc
 50
90.0
 51
180.0
  0
ARC
  5
2F35
330
1F
100
AcDbEntity
  8
AM_VIS
100
AcDbCircle
 10
206.0152960583738
 20
62.27301528081446
 30
0.0
 40
1.7
100
AcDbArc
 50
0.0
 51
90.0
  0
ARC
  5
2F36
330
1F
100
AcDbEntity
  8
AM_VIS
100
AcDbCircle
 10
198.5652960583737
 20
63.67301528081447
 30
0.0
 40
5.0
100
AcDbArc
 50
348.7619643349534
 51
101.23803566505
  0
ARC
  5
2F37
330
1F
100
AcDbEntity
  8
AM_VIS
100
AcDbCircle
 10
197.1652960583737
 20
70.22301528081448
 30
0.0
 40
1.7
100
AcDbArc
 50
284.4974387963394
 51
0.0
  0
ARC
  5
2F38
330
1F
100
AcDbEntity
  8
AM_VIS
100
AcDbCircle
 10
215.5652960583737
 20
80.67301528081447
 30
0.0
 40
30.0
100
AcDbArc
 50
131.4096221092697
 51
138.5903778907292
  0
ARC
  5
2F39
330
1F
100
AcDbEntity
  8
AM_VIS
100
AcDbCircle
 10
205.1152960583737
 20
99.07301528081445
 30
0.0
 40
1.7
100
AcDbArc
 50
180.0
 51
189.6323300247108
  0
ARC
  5
2F3A
330
1F
100
AcDbEntity
  8
AM_VIS
100
AcDbCircle
 10
198.5652960583737
 20
97.67301528081446
 30
0.0
 40
5.0
100
AcDbArc
 50
258.7619643349564
 51
11.23803566504723
  0
ARC
  5
2F3B
330
1F
100
AcDbEntity
  8
AM_VIS
100
AcDbCircle
 10
198.5652960583737
 20
97.67301528081446
 30
0.0
 40
5.0
100
AcDbArc
 50
180.0
 51
257.108266843994
  0
ARC
  5
2F3C
330
1F
100
AcDbEntity
  8
AM_VIS
100
AcDbCircle
 10
198.5652960583737
 20
97.67301528081446
 30
0.0
 40
5.0
100
AcDbArc
 50
12.8917331560036
 51
180.0
  0
CIRCLE
  5
2F3D
330
1F
100
AcDbEntity
  8
AM_VIS
100
AcDbCircle
 10
198.5652960583737
 20
97.67301528081446
 30
0.0
 40
4.5
  0
CIRCLE
  5
2F3E
330
1F
100
AcDbEntity
  8
AM_VIS
100
AcDbCircle
 10
232.5652960583738
 20
63.67301528081447
 30
0.0
 40
3.276500000000002
  0
CIRCLE
  5
2F3F
330
1F
100
AcDbEntity
  8
AM_VIS
100
AcDbCircle
 10
198.5652960583737
 20
63.67301528081447
 30
0.0
 40
3.276499999999999
  0
CIRCLE
  5
2F40
330
1F
100
AcDbEntity
  8
AM_VIS
100
AcDbCircle
 10
198.5652960583737
 20
97.67301528081446
 30
0.0
 40
3.276499999999999
  0
CIRCLE
  5
2F41
330
1F
100
AcDbEntity
  8
AM_VIS
100
AcDbCircle
 10
232.5652960583738
 20
63.67301528081447
 30
0.0
 40
2.576499999999999
  0
ARC
  5
2F42
330
1F
100
AcDbEntity
  8
AM_VIS
100
AcDbCircle
 10
205.1152960583737
 20
62.27301528081446
 30
0.0
 40
1.7
100
AcDbArc
 50
170.3676699752911
 51
180.0
  0
ARC
  5
2F43
330
1F
100
AcDbEntity
  8
AM_VIS
100
AcDbCircle
 10
205.1152960583737
 20
62.27301528081446
 30
0.0
 40
1.7
100
AcDbArc
 50
90.0
 51
165.5025612036578
  0
ARC
  5
2F44
330
1F
100
AcDbEntity
  8
AM_VIS
100
AcDbCircle
 10
197.1652960583737
 20
91.12301528081445
 30
0.0
 40
1.7
100
AcDbArc
 50
80.36766997528991
 51
90.0
  0
ARC
  5
2F45
330
1F
100
AcDbEntity
  8
AM_VIS
100
AcDbCircle
 10
197.1652960583737
 20
91.12301528081445
 30
0.0
 40
1.7
100
AcDbArc
 50
0.0
 51
75.50256120365396
  0
ARC
  5
2F46
330
1F
100
AcDbEntity
  8
AM_VIS
100
AcDbCircle
 10
226.0152960583738
 20
99.07301528081447
 30
0.0
 40
1.7
100
AcDbArc
 50
350.3676699752881
 51
0.0
  0
ARC
  5
2F47
330
1F
100
AcDbEntity
  8
AM_VIS
100
AcDbCircle
 10
226.0152960583738
 20
99.07301528081447
 30
0.0
 40
1.7
100
AcDbArc
 50
270.0
 51
345.5025612036604
  0
CIRCLE
  5
2F48
330
1F
100
AcDbEntity
  8
AM_VIS
100
AcDbCircle
 10
198.5652960583737
 20
63.67301528081447
 30
0.0
 40
2.576499999999999
  0
CIRCLE
  5
2F49
330
1F
100
AcDbEntity
  8
AM_VIS
100
AcDbCircle
 10
198.5652960583737
 20
97.67301528081446
 30
0.0
 40
2.576499999999999
  0
CIRCLE
  5
2F4A
330
1F
100
AcDbEntity
  8
AM_VIS
100
AcDbCircle
 10
232.5652960583738
 20
97.67301528081446
 30
0.0
 40
2.576499999999999
  0
ARC
  5
2F4B
330
1F
100
AcDbEntity
  8
AM_VIS
100
AcDbCircle
 10
215.5652960583737
 20
80.67301528081447
 30
0.0
 40
14.75
100
AcDbArc
 50
222.6849107745052
 51
137.3150892254946
  0
ARC
  5
2F4C
330
1F
100
AcDbEntity
  8
AM_VIS
100
AcDbCircle
 10
215.5652960583737
 20
80.67301528081447
 30
0.0
 40
15.0
100
AcDbArc
 50
221.8103148957767
 51
138.1896851042233
  0
LINE
  5
2F4D
330
1F
100
AcDbEntity
  8
AM_VIS
100
AcDbLine
 10
225.0652960583737
 20
70.67301528081447
 30
0.0
 11
203.5652960583738
 21
70.67301528081447
 31
0.0
  0
LINE
  5
2F4E
330
1F
100
AcDbEntity
  8
AM_VIS
100
AcDbLine
 10
225.0652960583737
 20
90.67301528081447
 30
0.0
 11
203.5652960583738
 21
90.67301528081447
 31
0.0
  0
LINE
  5
2F4F
330
1F
100
AcDbEntity
  8
AM_VIS
100
AcDbLine
 10
225.0652960583737
 20
90.67301528081447
 30
0.0
 11
227.5652960583737
 21
88.17301528081447
 31
0.0
  0
LINE
  5
2F50
330
1F
100
AcDbEntity
  8
AM_VIS
100
AcDbLine
 10
227.5652960583737
 20
88.17301528081447
 30
0.0
 11
227.5652960583737
 21
73.17301528081447
 31
0.0
  0
LINE
  5
2F51
330
1F
100
AcDbEntity
  8
AM_VIS
100
AcDbLine
 10
227.5652960583737
 20
73.17301528081447
 30
0.0
 11
225.0652960583737
 21
70.67301528081447
 31
0.0
  0
LINE
  5
2F52
330
1F
100
AcDbEntity
  8
AM_VIS
100
AcDbLine
 10
163.0652960583737
 20
90.67301528081447
 30
0.0
 11
203.5652960583738
 21
90.67301528081447
 31
0.0
  0
LINE
  5
2F53
330
1F
100
AcDbEntity
  8
AM_VIS
100
AcDbLine
 10
203.5652960583736
 20
90.67301528081447
 30
0.0
 11
203.5652960583738
 21
70.67301528081447
 31
0.0
  0
LINE
  5
2F54
330
1F
100
AcDbEntity
  8
AM_VIS
100
AcDbLine
 10
203.5652960583738
 20
70.67301528081447
 30
0.0
 11
163.0652960583737
 21
70.67301528081447
 31
0.0
  0
LINE
  5
2F55
330
1F
100
AcDbEntity
  8
AM_VIS
100
AcDbLine
 10
163.0652960583737
 20
70.67301528081447
 30
0.0
 11
160.5652960583737
 21
73.17301528081447
 31
0.0
  0
LINE
  5
2F56
330
1F
100
AcDbEntity
  8
AM_VIS
100
AcDbLine
 10
160.5652960583737
 20
73.17301528081447
 30
0.0
 11
160.5652960583737
 21
88.17301528081447
 31
0.0
  0
LINE
  5
2F57
330
1F
100
AcDbEntity
  8
AM_VIS
100
AcDbLine
 10
160.5652960583737
 20
88.17301528081447
 30
0.0
 11
163.0652960583737
 21
90.67301528081447
 31
0.0
  0
ARC
  5
2F58
330
1F
100
AcDbEntity
  8
AM_VIS
100
AcDbCircle
 10
170.5644152705256
 20
80.67360163817113
 30
0.0
 40
3.456880837577176
100
AcDbArc
 50
292.7047836112642
 51
359.9902814694625
  0
ARC
  5
2F59
330
1F
100
AcDbEntity
  8
AM_VIS
100
AcDbCircle
 10
170.563806013231
 20
80.67202332919624
 30
0.0
 40
3.457490187437917
100
AcDbArc
 50
0.0164381209790174
 51
67.28849679829398
  0
CIRCLE
  5
2F5A
330
1F
100
AcDbEntity
  8
AM_VIS
100
AcDbCircle
 10
170.5188346590213
 20
80.67301528081447
 30
0.0
 40
4.456000000000002
  0
CIRCLE
  5
2F5B
330
1F
100
AcDbEntity
  8
AM_VIS
100
AcDbCircle
 10
215.5652960583737
 20
80.67301528081447
 30
0.0
 40
9.5
  0
CIRCLE
  5
2F5C
330
1F
100
AcDbEntity
  8
AM_VIS
100
AcDbCircle
 10
215.5652960583737
 20
80.67301528081447
 30
0.0
 40
9.0
  0
LINE
  5
2F5D
330
1F
100
AcDbEntity
  8
AM_VIS
100
AcDbLine
 10
224.2533625866641
 20
79.63378479627315
 30
0.0
 11
223.4975088643945
 21
79.63378479627315
 31
0.0
  0
ARC
  5
2F5E
330
1F
100
AcDbEntity
  8
AM_VIS
100
AcDbCircle
 10
215.5652960583737
 20
80.67301528081447
 30
0.0
 40
8.75
100
AcDbArc
 50
353.1789251564287
 51
359.7431144316477
  0
LINE
  5
2F5F
330
1F
100
AcDbEntity
  8
AM_VIS
100
AcDbLine
 10
223.5651998683632
 20
80.63378479627315
 30
0.0
 11
224.3152081133079
 21
80.63378479627315
 31
0.0
  0
ARC
  5
2F60
330
1F
100
AcDbEntity
  8
AM_VIS
100
AcDbCircle
 10
215.5652960583737
 20
80.67301528081447
 30
0.0
 40
8.75
100
AcDbArc
 50
359.7431144316477
 51
353.1789251564287
  0
LINE
  5
2F61
330
1F
100
AcDbEntity
  8
AM_VIS
100
AcDbLine
 10
212.0652960583738
 20
82.69374122297817
 30
0.0
 11
215.5652960583737
 21
84.71446716514185
 31
0.0
  0
LINE
  5
2F62
330
1F
100
AcDbEntity
  8
AM_VIS
100
AcDbLine
 10
212.0652960583738
 20
78.65228933865077
 30
0.0
 11
212.0652960583738
 21
82.69374122297817
 31
0.0
  0
LINE
  5
2F63
330
1F
100
AcDbEntity
  8
AM_VIS
100
AcDbLine
 10
215.5652960583737
 20
76.63156339648708
 30
0.0
 11
212.0652960583738
 21
78.65228933865077
 31
0.0
  0
LINE
  5
2F64
330
1F
100
AcDbEntity
  8
AM_VIS
100
AcDbLine
 10
219.0652960583737
 20
78.65228933865077
 30
0.0
 11
215.5652960583737
 21
76.63156339648708
 31
0.0
  0
LINE
  5
2F65
330
1F
100
AcDbEntity
  8
AM_VIS
100
AcDbLine
 10
219.0652960583737
 20
82.69374122297817
 30
0.0
 11
219.0652960583737
 21
78.65228933865077
 31
0.0
  0
LINE
  5
2F66
330
1F
100
AcDbEntity
  8
AM_VIS
100
AcDbLine
 10
215.5652960583737
 20
84.71446716514185
 30
0.0
 11
219.0652960583737
 21
82.69374122297817
 31
0.0
  0
CIRCLE
  5
2F67
330
1F
100
AcDbEntity
  8
AM_VIS
100
AcDbCircle
 10
215.5652960583737
 20
80.67301528081447
 30
0.0
 40
8.0
  0
CIRCLE
  5
2F68
330
1F
100
AcDbEntity
  8
AM_VIS
100
AcDbCircle
 10
170.5652960583737
 20
80.67301528081447
 30
0.0
 40
3.0
  0
LINE
  5
2F69
330
1F
100
AcDbEntity
  8
AM_VIS
100
AcDbLine
 10
334.4398289929909
 20
103.1730152808144
 30
0.0
 11
415.9398289929908
 21
103.1730152808144
 31
0.0
  0
LINE
  5
2F6A
330
1F
100
AcDbEntity
  8
AM_VIS
100
AcDbLine
 10
415.9398289929908
 20
100.5161501137989
 30
0.0
 11
334.4398289929909
 21
100.5161501137989
 31
0.0
  0
LINE
  5
2F6B
330
1F
100
AcDbEntity
  8
AM_VIS
100
AcDbLine
 10
334.4398289929909
 20
88.17301528081447
 30
0.0
 11
415.9398289929908
 21
88.17301528081447
 31
0.0
  0
LINE
  5
2F6C
330
1F
100
AcDbEntity
  8
AM_VIS
100
AcDbLine
 10
334.4398289929909
 20
92.37301528081445
 30
0.0
 11
415.9398289929908
 21
92.37301528081445
 31
0.0
  0
LINE
  5
2F6D
330
1F
100
AcDbEntity
  8
AM_VIS
100
AcDbLine
 10
415.9398289929908
 20
88.97301528081447
 30
0.0
 11
334.4398289929909
 21
88.97301528081447
 31
0.0
  0
LINE
  5
2F6E
330
1F
100
AcDbEntity
  8
AM_VIS
100
AcDbLine
 10
334.4398289929909
 20
60.82988044783004
 30
0.0
 11
415.9398289929908
 21
60.82988044783004
 31
0.0
  0
LINE
  5
2F6F
330
1F
100
AcDbEntity
  8
AM_VIS
100
AcDbLine
 10
334.4398289929909
 20
73.17301528081447
 30
0.0
 11
415.9398289929908
 21
73.17301528081447
 31
0.0
  0
LINE
  5
2F70
330
1F
100
AcDbEntity
  8
AM_VIS
100
AcDbLine
 10
334.4398289929909
 20
72.37301528081445
 30
0.0
 11
415.9398289929908
 21
72.37301528081445
 31
0.0
  0
LINE
  5
2F71
330
1F
100
AcDbEntity
  8
AM_VIS
100
AcDbLine
 10
415.9398289929908
 20
68.97301528081448
 30
0.0
 11
334.4398289929909
 21
68.97301528081448
 31
0.0
  0
LINE
  5
2F72
330
1F
100
AcDbEntity
  8
AM_VIS
100
AcDbLine
 10
415.9398289929908
 20
58.17301528081447
 30
0.0
 11
334.4398289929909
 21
58.17301528081447
 31
0.0
  0
LINE
  5
2F73
330
1F
100
AcDbEntity
  8
AM_VIS
100
AcDbLine
 10
334.4398289929909
 20
100.5161501137989
 30
0.0
 11
334.4398289929909
 21
92.37301528081445
 31
0.0
  0
LINE
  5
2F74
330
1F
100
AcDbEntity
  8
AM_VIS
100
AcDbLine
 10
334.4398289929909
 20
68.97301528081448
 30
0.0
 11
334.4398289929909
 21
60.82988044783004
 31
0.0
  0
LINE
  5
2F75
330
1F
100
AcDbEntity
  8
AM_VIS
100
AcDbLine
 10
334.4398289929909
 20
90.22301528081447
 30
0.0
 11
334.4398289929909
 21
91.12301528081449
 31
0.0
  0
LINE
  5
2F76
330
1F
100
AcDbEntity
  8
AM_VIS
100
AcDbLine
 10
334.4398289929909
 20
88.97301528081447
 30
0.0
 11
334.4398289929909
 21
88.17301528081447
 31
0.0
  0
LINE
  5
2F77
330
1F
100
AcDbEntity
  8
AM_VIS
100
AcDbLine
 10
334.4398289929909
 20
88.17301528081447
 30
0.0
 11
334.4398289929909
 21
87.67301528081446
 31
0.0
  0
LINE
  5
2F78
330
1F
100
AcDbEntity
  8
AM_VIS
100
AcDbLine
 10
334.4398289929909
 20
73.67301528081447
 30
0.0
 11
334.4398289929909
 21
73.17301528081447
 31
0.0
  0
LINE
  5
2F79
330
1F
100
AcDbEntity
  8
AM_VIS
100
AcDbLine
 10
334.4398289929909
 20
73.17301528081447
 30
0.0
 11
334.4398289929909
 21
72.37301528081445
 31
0.0
  0
LINE
  5
2F7A
330
1F
100
AcDbEntity
  8
AM_VIS
100
AcDbLine
 10
334.4398289929909
 20
70.22301528081448
 30
0.0
 11
334.4398289929909
 21
71.12301528081449
 31
0.0
  0
LINE
  5
2F7B
330
1F
100
AcDbEntity
  8
AM_VIS
100
AcDbLine
 10
415.9398289929908
 20
60.82988044783004
 30
0.0
 11
415.9398289929908
 21
68.97301528081448
 31
0.0
  0
LINE
  5
2F7C
330
1F
100
AcDbEntity
  8
AM_VIS
100
AcDbLine
 10
415.9398289929908
 20
92.37301528081445
 30
0.0
 11
415.9398289929908
 21
100.5161501137989
 31
0.0
  0
LINE
  5
2F7D
330
1F
100
AcDbEntity
  8
AM_VIS
100
AcDbLine
 10
334.4398289929909
 20
73.67301528081447
 30
0.0
 11
415.9398289929908
 21
73.67301528081447
 31
0.0
  0
LINE
  5
2F7E
330
1F
100
AcDbEntity
  8
AM_VIS
100
AcDbLine
 10
334.4398289929909
 20
87.67301528081446
 30
0.0
 11
334.4398289929909
 21
73.67301528081447
 31
0.0
  0
LINE
  5
2F7F
330
1F
100
AcDbEntity
  8
AM_VIS
100
AcDbLine
 10
334.4398289929909
 20
87.67301528081446
 30
0.0
 11
415.9398289929908
 21
87.67301528081446
 31
0.0
  0
LINE
  5
2F80
330
1F
100
AcDbEntity
  8
AM_VIS
100
AcDbLine
 10
415.9398289929908
 20
71.12301528081445
 30
0.0
 11
415.9398289929908
 21
70.22301528081445
 31
0.0
  0
LINE
  5
2F81
330
1F
100
AcDbEntity
  8
AM_VIS
100
AcDbLine
 10
415.9398289929908
 20
72.37301528081445
 30
0.0
 11
415.9398289929908
 21
73.17301528081447
 31
0.0
  0
LINE
  5
2F82
330
1F
100
AcDbEntity
  8
AM_VIS
100
AcDbLine
 10
415.9398289929908
 20
73.17301528081447
 30
0.0
 11
415.9398289929908
 21
73.67301528081447
 31
0.0
  0
LINE
  5
2F83
330
1F
100
AcDbEntity
  8
AM_VIS
100
AcDbLine
 10
415.9398289929908
 20
73.67301528081447
 30
0.0
 11
415.9398289929908
 21
87.67301528081446
 31
0.0
  0
LINE
  5
2F84
330
1F
100
AcDbEntity
  8
AM_VIS
100
AcDbLine
 10
415.9398289929908
 20
87.67301528081446
 30
0.0
 11
415.9398289929908
 21
88.17301528081447
 31
0.0
  0
LINE
  5
2F85
330
1F
100
AcDbEntity
  8
AM_VIS
100
AcDbLine
 10
415.9398289929908
 20
88.17301528081447
 30
0.0
 11
415.9398289929908
 21
88.97301528081447
 31
0.0
  0
LINE
  5
2F86
330
1F
100
AcDbEntity
  8
AM_VIS
100
AcDbLine
 10
415.9398289929908
 20
91.12301528081445
 30
0.0
 11
415.9398289929908
 21
90.22301528081445
 31
0.0
  0
LINE
  5
2F87
330
1F
100
AcDbEntity
  8
AM_VIS
100
AcDbLine
 10
334.4398289929909
 20
103.1730152808144
 30
0.0
 11
334.4398289929909
 21
100.5161501137989
 31
0.0
  0
LINE
  5
2F88
330
1F
100
AcDbEntity
  8
AM_VIS
100
AcDbLine
 10
334.4398289929909
 20
60.82988044783004
 30
0.0
 11
334.4398289929909
 21
58.17301528081447
 31
0.0
  0
LINE
  5
2F89
330
1F
100
AcDbEntity
  8
AM_VIS
100
AcDbLine
 10
334.4398289929909
 20
91.12301528081445
 30
0.0
 11
334.4398289929909
 21
92.37301528081445
 31
0.0
  0
LINE
  5
2F8A
330
1F
100
AcDbEntity
  8
AM_VIS
100
AcDbLine
 10
334.4398289929909
 20
88.97301528081447
 30
0.0
 11
334.4398289929909
 21
90.22301528081447
 31
0.0
  0
LINE
  5
2F8B
330
1F
100
AcDbEntity
  8
AM_VIS
100
AcDbLine
 10
334.4398289929909
 20
71.12301528081445
 30
0.0
 11
334.4398289929909
 21
72.37301528081445
 31
0.0
  0
LINE
  5
2F8C
330
1F
100
AcDbEntity
  8
AM_VIS
100
AcDbLine
 10
334.4398289929909
 20
68.97301528081448
 30
0.0
 11
334.4398289929909
 21
70.22301528081448
 31
0.0
  0
LINE
  5
2F8D
330
1F
100
AcDbEntity
  8
AM_VIS
100
AcDbLine
 10
415.9398289929908
 20
58.17301528081447
 30
0.0
 11
415.9398289929908
 21
60.82988044783005
 31
0.0
  0
LINE
  5
2F8E
330
1F
100
AcDbEntity
  8
AM_VIS
100
AcDbLine
 10
415.9398289929908
 20
100.5161501137989
 30
0.0
 11
415.9398289929908
 21
103.1730152808144
 31
0.0
  0
CIRCLE
  5
2F8F
330
1F
100
AcDbEntity
  8
AM_VIS
100
AcDbCircle
 10
404.9398289929909
 20
80.67301528081447
 30
0.0
 40
0.5
  0
CIRCLE
  5
2F90
330
1F
100
AcDbEntity
  8
AM_VIS
100
AcDbCircle
 10
362.4398289929909
 20
80.67301528081447
 30
0.0
 40
4.25
  0
CIRCLE
  5
2F91
330
1F
100
AcDbEntity
  8
AM_VIS
100
AcDbCircle
 10
404.9398289929909
 20
80.67301528081447
 30
0.0
 40
4.25
  0
CIRCLE
  5
2F92
330
1F
100
AcDbEntity
  8
AM_VIS
100
AcDbCircle
 10
360.4398289929909
 20
80.67301528081447
 30
0.0
 40
0.5
  0
CIRCLE
  5
2F93
330
1F
100
AcDbEntity
  8
AM_VIS
100
AcDbCircle
 10
362.4398289929909
 20
80.67301528081447
 30
0.0
 40
5.25
  0
CIRCLE
  5
2F94
330
1F
100
AcDbEntity
  8
AM_VIS
100
AcDbCircle
 10
404.9398289929909
 20
80.67301528081447
 30
0.0
 40
5.25
  0
CIRCLE
  5
2F95
330
1F
100
AcDbEntity
  8
AM_VIS
100
AcDbCircle
 10
348.3398289929909
 20
80.67301528081447
 30
0.0
 40
4.455999999999999
  0
CIRCLE
  5
2F96
330
1F
100
AcDbEntity
  8
AM_VIS
100
AcDbCircle
 10
348.3398289929909
 20
80.67301528081447
 30
0.0
 40
3.455999999999999
  0
LINE
  5
2F97
330
1F
100
AcDbEntity
  8
AM_VIS
100
AcDbLine
 10
415.9398289929908
 20
70.22301528081448
 30
0.0
 11
415.9398289929908
 21
68.97301528081448
 31
0.0
  0
LINE
  5
2F98
330
1F
100
AcDbEntity
  8
AM_VIS
100
AcDbLine
 10
415.9398289929908
 20
72.37301528081445
 30
0.0
 11
415.9398289929908
 21
71.12301528081445
 31
0.0
  0
LINE
  5
2F99
330
1F
100
AcDbEntity
  8
AM_VIS
100
AcDbLine
 10
415.9398289929908
 20
90.22301528081447
 30
0.0
 11
415.9398289929908
 21
88.97301528081447
 31
0.0
  0
LINE
  5
2F9A
330
1F
100
AcDbEntity
  8
AM_VIS
100
AcDbLine
 10
415.9398289929908
 20
92.37301528081445
 30
0.0
 11
415.9398289929908
 21
91.12301528081445
 31
0.0
  0
LINE
  5
2F9B
330
1F
100
AcDbEntity
  8
AM_VIS
100
AcDbLine
 10
404.939828992991
 20
81.17301528081446
 30
0.0
 11
404.939828992991
 21
80.17301528081446
 31
0.0
  0
LINE
  5
2F9C
330
1F
100
AcDbEntity
  8
AM_VIS
100
AcDbLine
 10
404.5398289929909
 20
80.37301528081437
 30
0.0
 11
404.5398289929909
 21
80.97301528081459
 31
0.0
  0
LINE
  5
2F9D
330
1F
100
AcDbEntity
  8
AM_VIS
100
AcDbLine
 10
310.9398289929909
 20
65.92301528081446
 30
0.0
 11
331.4398289929909
 21
65.92301528081446
 31
0.0
  0
LINE
  5
2F9E
330
1F
100
AcDbEntity
  8
AM_VIS
100
AcDbLine
 10
310.9398289929909
 20
95.42301528081447
 30
0.0
 11
331.4398289929909
 21
95.42301528081447
 31
0.0
  0
LINE
  5
2F9F
330
1F
100
AcDbEntity
  8
AM_VIS
100
AcDbLine
 10
331.6898289929909
 20
65.67301528081447
 30
0.0
 11
334.4398289929909
 21
65.67301528081447
 31
0.0
  0
LINE
  5
2FA0
330
1F
100
AcDbEntity
  8
AM_VIS
100
AcDbLine
 10
331.6898289929909
 20
95.67301528081447
 30
0.0
 11
334.4398289929909
 21
95.67301528081447
 31
0.0
  0
LINE
  5
2FA1
330
1F
100
AcDbEntity
  8
AM_VIS
100
AcDbLine
 10
331.4398289929909
 20
65.92301528081446
 30
0.0
 11
331.6898289929909
 21
65.67301528081447
 31
0.0
  0
LINE
  5
2FA2
330
1F
100
AcDbEntity
  8
AM_VIS
100
AcDbLine
 10
331.4398289929909
 20
95.42301528081447
 30
0.0
 11
331.6898289929909
 21
95.67301528081447
 31
0.0
  0
LINE
  5
2FA3
330
1F
100
AcDbEntity
  8
AM_VIS
100
AcDbLine
 10
308.9398289929909
 20
67.92301528081447
 30
0.0
 11
308.9398289929909
 21
93.42301528081447
 31
0.0
  0
LINE
  5
2FA4
330
1F
100
AcDbEntity
  8
AM_VIS
100
AcDbLine
 10
331.6898289929909
 20
95.67301528081447
 30
0.0
 11
331.6898289929909
 21
65.67301528081447
 31
0.0
  0
LINE
  5
2FA5
330
1F
100
AcDbEntity
  8
AM_VIS
100
AcDbLine
 10
331.4398289929909
 20
65.92301528081446
 30
0.0
 11
331.4398289929909
 21
95.42301528081447
 31
0.0
  0
ARC
  5
2FA6
330
1F
100
AcDbEntity
  8
AM_VIS
100
AcDbCircle
 10
310.9398289929909
 20
93.42301528081447
 30
0.0
 40
2.0
100
AcDbArc
 50
90.0
 51
180.0
  0
ARC
  5
2FA7
330
1F
100
AcDbEntity
  8
AM_VIS
100
AcDbCircle
 10
310.9398289929909
 20
67.92301528081447
 30
0.0
 40
2.0
100
AcDbArc
 50
180.0
 51
270.0
  0
LINE
  5
2FA8
330
1F
100
AcDbEntity
  8
AM_VIS
100
AcDbLine
 10
360.1398289929908
 20
80.2730152808145
 30
0.0
 11
360.1398289929908
 21
81.07301528081448
 31
0.0
  0
LINE
  5
2FA9
330
1F
100
AcDbEntity
  8
AM_VIS
100
AcDbLine
 10
360.144639778794
 20
81.07657388951031
 30
0.0
 11
360.5338475911385
 21
81.16409569841307
 31
0.0
  0
LINE
  5
2FAA
330
1F
100
AcDbEntity
  8
AM_VIS
100
AcDbLine
 10
307.939828992991
 20
87.67301528081446
 30
0.0
 11
306.939828992991
 21
87.67301528081446
 31
0.0
  0
LINE
  5
2FAB
330
1F
100
AcDbEntity
  8
AM_VIS
100
AcDbLine
 10
307.939828992991
 20
76.80003193460706
 30
0.0
 11
306.939828992991
 21
76.80003193460706
 31
0.0
  0
LINE
  5
2FAC
330
1F
100
AcDbEntity
  8
AM_VIS
100
AcDbLine
 10
306.939828992991
 20
84.5459986270219
 30
0.0
 11
307.939828992991
 21
84.5459986270219
 31
0.0
  0
LINE
  5
2FAD
330
1F
100
AcDbEntity
  8
AM_VIS
100
AcDbLine
 10
306.939828992991
 20
73.67301528081447
 30
0.0
 11
307.939828992991
 21
73.67301528081447
 31
0.0
  0
LINE
  5
2FAE
330
1F
100
AcDbEntity
  8
AM_VIS
100
AcDbLine
 10
307.939828992991
 20
87.67301528081446
 30
0.0
 11
308.939828992991
 21
88.67301528081446
 31
0.0
  0
LINE
  5
2FAF
330
1F
100
AcDbEntity
  8
AM_VIS
100
AcDbLine
 10
307.939828992991
 20
84.5459986270219
 30
0.0
 11
307.939828992991
 21
76.80003193460706
 31
0.0
  0
ARC
  5
2FB0
330
1F
100
AcDbEntity
  8
AM_VIS
100
AcDbCircle
 10
300.939828992991
 20
80.67301528081447
 30
0.0
 40
8.0
100
AcDbArc
 50
331.04497562814
 51
28.95502437185978
  0
LINE
  5
2FB1
330
1F
100
AcDbEntity
  8
AM_VIS
100
AcDbLine
 10
308.939828992991
 20
72.67301528081446
 30
0.0
 11
307.939828992991
 21
73.67301528081447
 31
0.0
  0
LINE
  5
2FB2
330
1F
100
AcDbEntity
  8
AM_VIS
100
AcDbLine
 10
405.3398289929909
 20
80.37301528081457
 30
0.0
 11
405.3398289929909
 21
80.97301528081434
 31
0.0
  0
LINE
  5
2FB3
330
1F
100
AcDbEntity
  8
AM_VIS
100
AcDbLine
 10
349.4948289929908
 20
78.67249659807242
 30
0.0
 11
350.6498289929908
 21
80.67301528081447
 31
0.0
  0
LINE
  5
2FB4
330
1F
100
AcDbEntity
  8
AM_VIS
100
AcDbLine
 10
350.6498289929909
 20
80.67301528081447
 30
0.0
 11
349.4948289929908
 21
82.6735339635565
 31
0.0
  0
LINE
  5
2FB5
330
1F
100
AcDbEntity
  8
AM_VIS
100
AcDbLine
 10
349.4948289929908
 20
82.6735339635565
 30
0.0
 11
347.1848289929909
 21
82.6735339635565
 31
0.0
  0
LINE
  5
2FB6
330
1F
100
AcDbEntity
  8
AM_VIS
100
AcDbLine
 10
347.1848289929909
 20
82.6735339635565
 30
0.0
 11
346.0298289929909
 21
80.67301528081447
 31
0.0
  0
LINE
  5
2FB7
330
1F
100
AcDbEntity
  8
AM_VIS
100
AcDbLine
 10
346.0298289929909
 20
80.67301528081447
 30
0.0
 11
347.1848289929909
 21
78.67249659807242
 31
0.0
  0
LINE
  5
2FB8
330
1F
100
AcDbEntity
  8
AM_VIS
100
AcDbLine
 10
347.1848289929909
 20
78.67249659807242
 30
0.0
 11
349.4948289929908
 21
78.67249659807242
 31
0.0
  0
CIRCLE
  5
2FB9
330
1F
100
AcDbEntity
  8
AM_VIS
100
AcDbCircle
 10
348.3398289929909
 20
80.67301528081447
 30
0.0
 40
3.232999999999975
  0
LINE
  5
2FBA
330
1F
100
AcDbEntity
  8
AM_VIS
100
AcDbLine
 10
306.939828992991
 20
90.67301528081447
 30
0.0
 11
288.939828992991
 21
90.67301528081447
 31
0.0
  0
LINE
  5
2FBB
330
1F
100
AcDbEntity
  8
AM_VIS
100
AcDbLine
 10
288.939828992991
 20
90.67301528081447
 30
0.0
 11
288.939828992991
 21
88.17301528081447
 31
0.0
  0
LINE
  5
2FBC
330
1F
100
AcDbEntity
  8
AM_VIS
100
AcDbLine
 10
306.939828992991
 20
88.17301528081447
 30
0.0
 11
306.939828992991
 21
90.67301528081447
 31
0.0
  0
LINE
  5
2FBD
330
1F
100
AcDbEntity
  8
AM_VIS
100
AcDbLine
 10
288.939828992991
 20
88.17301528081447
 30
0.0
 11
288.939828992991
 21
73.17301528081447
 31
0.0
  0
LINE
  5
2FBE
330
1F
100
AcDbEntity
  8
AM_VIS
100
AcDbLine
 10
288.939828992991
 20
88.17301528081447
 30
0.0
 11
306.939828992991
 21
88.17301528081447
 31
0.0
  0
LINE
  5
2FBF
330
1F
100
AcDbEntity
  8
AM_VIS
100
AcDbLine
 10
306.939828992991
 20
73.17301528081447
 30
0.0
 11
306.939828992991
 21
88.17301528081447
 31
0.0
  0
LINE
  5
2FC0
330
1F
100
AcDbEntity
  8
AM_VIS
100
AcDbLine
 10
288.939828992991
 20
70.67301528081447
 30
0.0
 11
306.939828992991
 21
70.67301528081447
 31
0.0
  0
LINE
  5
2FC1
330
1F
100
AcDbEntity
  8
AM_VIS
100
AcDbLine
 10
288.939828992991
 20
73.17301528081447
 30
0.0
 11
288.939828992991
 21
70.67301528081447
 31
0.0
  0
LINE
  5
2FC2
330
1F
100
AcDbEntity
  8
AM_VIS
100
AcDbLine
 10
306.939828992991
 20
73.17301528081447
 30
0.0
 11
288.939828992991
 21
73.17301528081447
 31
0.0
  0
LINE
  5
2FC3
330
1F
100
AcDbEntity
  8
AM_VIS
100
AcDbLine
 10
306.939828992991
 20
70.67301528081447
 30
0.0
 11
306.939828992991
 21
73.17301528081447
 31
0.0
  0
SPLINE
  5
2FC4
330
1F
100
AcDbEntity
  8
AM_VIS
100
AcDbSpline
210
0.0
220
0.0
230
1.0
 70
    12
 71
     2
 72
     6
 73
     3
 74
     0
 42
0.0000000001
 43
0.0000000001
 40
5.309977479959613
 40
5.309977479959613
 40
5.309977479959613
 40
6.523860096320806
 40
6.523860096320806
 40
6.523860096320806
 10
307.5203855765917
 20
88.17856878027958
 30
0.0
 41
1.087981209605477
 10
307.3699243517422
 20
87.91796229427109
 30
0.0
 41
1.086595203447417
 10
307.2600017487342
 20
87.6730152808145
 30
0.0
 41
1.079977620504662
  0
LINE
  5
2FC5
330
1F
100
AcDbEntity
  8
AM_VIS
100
AcDbLine
 10
307.5203855765917
 20
88.17856878027958
 30
0.0
 11
308.4453824924561
 21
88.17856878027958
 31
0.0
  0
LINE
  5
2FC6
330
1F
100
AcDbEntity
  8
AM_VIS
100
AcDbLine
 10
307.5203855765917
 20
73.16746178134934
 30
0.0
 11
308.4453824924561
 21
73.16746178134934
 31
0.0
  0
SPLINE
  5
2FC7
330
1F
100
AcDbEntity
  8
AM_VIS
100
AcDbSpline
210
0.0
220
0.0
230
1.0
 70
    12
 71
     2
 72
     6
 73
     3
 74
     0
 42
0.0000000001
 43
0.0000000001
 40
13.4296699417493
 40
13.4296699417493
 40
13.4296699417493
 40
14.6435525581105
 40
14.6435525581105
 40
14.6435525581105
 10
307.2600017487341
 20
73.67301528081447
 30
0.0
 41
1.07997762050466
 10
307.3699243517423
 20
73.42806826735785
 30
-0.0000000000000004
 41
1.086595203447415
 10
307.5203855765917
 20
73.16746178134934
 30
0.0
 41
1.087981209605475
  0
LINE
  5
2FC8
330
1F
100
AcDbEntity
  8
AM_VIS
100
AcDbLine
 10
307.2285041275858
 20
73.67301528081447
 30
0.0
 11
307.5203855765917
 21
73.16746178134931
 31
0.0
  0
LINE
  5
2FC9
330
1F
100
AcDbEntity
  8
AM_VIS
100
AcDbLine
 10
307.2285041275858
 20
87.67301528081446
 30
0.0
 11
307.5203855765918
 21
88.17856878027962
 31
0.0
  0
LINE
  5
2FD1
330
1F
100
AcDbEntity
  8
AM_VIS
100
AcDbLine
 10
334.4398289929909
 20
17.87746612018236
 30
0.0
 11
334.4398289929909
 21
29.87746612018236
 31
0.0
  0
LINE
  5
2FE2
330
1F
100
AcDbEntity
  8
AM_VIS
100
AcDbLine
 10
415.9398289929908
 20
29.87746612018236
 30
0.0
 11
415.9398289929908
 21
-19.62253387981764
 31
0.0
  0
LINE
  5
2FE3
330
1F
100
AcDbEntity
  8
AM_VIS
100
AcDbLine
 10
415.9398289929908
 20
-19.62253387981764
 30
0.0
 11
334.4398289929909
 21
-19.62253387981764
 31
0.0
  0
LINE
  5
2FE4
330
1F
100
AcDbEntity
  8
AM_VIS
100
AcDbLine
 10
334.4398289929909
 20
-19.62253387981764
 30
0.0
 11
334.4398289929909
 21
17.87746612018236
 31
0.0
  0
LINE
  5
2FEE
330
1F
100
AcDbEntity
  8
AM_VIS
100
AcDbLine
 10
334.4398289929909
 20
29.87746612018236
 30
0.0
 11
415.9398289929908
 21
29.87746612018236
 31
0.0
  0
LINE
  5
30AA
330
1F
100
AcDbEntity
  8
AM_VIS
100
AcDbLine
 10
310.9398289929909
 20
17.62746612018237
 30
0.0
 11
331.4398289929909
 21
17.62746612018236
 31
0.0
  0
LINE
  5
30BB
330
1F
100
AcDbEntity
  8
AM_VIS
100
AcDbLine
 10
308.9398289929909
 20
12.42746612018237
 30
0.0
 11
308.9398289929909
 21
15.62746612018236
 31
0.0
  0
LINE
  5
30BC
330
1F
100
AcDbEntity
  8
AM_VIS
100
AcDbLine
 10
308.9398289929909
 20
-9.872533879817623
 30
0.0
 11
308.9398289929909
 21
-6.672533879817621
 31
0.0
  0
LINE
  5
30D5
330
1F
100
AcDbEntity
  8
AM_VIS
100
AcDbLine
 10
331.4398289929909
 20
-11.87253387981762
 30
0.0
 11
310.9398289929909
 21
-11.87253387981761
 31
0.0
  0
LINE
  5
30D8
330
1F
100
AcDbEntity
  8
AM_VIS
100
AcDbLine
 10
308.9398289929909
 20
-6.672533879817621
 30
0.0
 11
308.9398289929909
 21
-5.122533879817559
 31
0.0
  0
LINE
  5
30D9
330
1F
100
AcDbEntity
  8
AM_VIS
100
AcDbLine
 10
308.9398289929909
 20
10.87746612018229
 30
0.0
 11
308.9398289929909
 21
12.42746612018237
 31
0.0
  0
ARC
  5
30EA
330
1F
100
AcDbEntity
  8
AM_VIS
100
AcDbCircle
 10
310.9398289929909
 20
15.62746612018237
 30
0.0
 40
2.0
100
AcDbArc
 50
90.0
 51
180.0
  0
ARC
  5
30EB
330
1F
100
AcDbEntity
  8
AM_VIS
100
AcDbCircle
 10
310.9398289929909
 20
-9.872533879817623
 30
0.0
 40
2.0
100
AcDbArc
 50
180.0
 51
270.0
  0
LINE
  5
30F7
330
1F
100
AcDbEntity
  8
AM_5
 62
     5
100
AcDbLine
 10
389.4935193747416
 20
111.7199720888108
 30
0.0
 11
372.5199030213253
 21
111.7199720888108
 31
0.0
  0
LINE
  5
30F8
330
1F
100
AcDbEntity
  8
AM_5
 62
     5
100
AcDbLine
 10
372.5199030213253
 20
111.7199720888108
 30
0.0
 11
364.8692874564648
 21
88.15582659452866
 31
0.0
  0
TRACE
  5
30F9
330
1F
100
AcDbEntity
  8
AM_5
 62
     5
370
    30
100
AcDbTrace
 10
364.3909788974038
 20
88.31111993659561
 30
0.0
 11
365.3475960155259
 21
88.00053325246171
 31
0.0
 12
363.9375274003361
 22
85.28597522868258
 32
0.0
 13
363.9375274003361
 23
85.28597522868258
 33
0.0
  0
MTEXT
  5
30FA
330
1F
100
AcDbEntity
  8
AM_5
 62
     5
100
AcDbMText
 10
375.5372236314437
 20
115.341469573853
 30
0.0
 40
3.017320610118447
 41
0.0
 71
     1
 72
     5
  1
2-PT1/8
 73
     1
 44
1.0
1001
ACAD
1000
MTEXTBEGIN
1070
    73
1070
     1
1070
    44
1040
1.0
1070
    74
1070
     0
1000
MTEXTEND
  0
LINE
  5
30FB
330
1F
100
AcDbEntity
  8
AM_5
 62
     5
100
AcDbLine
 10
375.5372236314437
 20
111.7199720888108
 30
0.0
 11
389.4935193747416
 21
111.7199720888108
 31
0.0
  0
LINE
  5
319F
330
1F
100
AcDbEntity
  8
AM_5
 62
     5
100
AcDbLine
 10
142.7593166285585
 20
96.80964769872453
 30
0.0
 11
160.988952763832
 21
96.80964769872453
 31
0.0
  0
LINE
  5
31A0
330
1F
100
AcDbEntity
  8
AM_5
 62
     5
100
AcDbLine
 10
160.988952763832
 20
96.80964769872453
 30
0.0
 11
170.5364583212164
 21
85.77049130804743
 31
0.0
  0
TRACE
  5
31A1
330
1F
100
AcDbEntity
  8
AM_5
 62
     5
370
    30
100
AcDbTrace
 10
170.1560802051044
 20
85.44151126202203
 30
0.0
 11
170.9168364373284
 21
86.09947135407285
 31
0.0
 12
172.5103386052644
 22
83.48822260224636
 32
0.0
 13
172.5103386052644
 23
83.48822260224636
 33
0.0
  0
MTEXT
  5
31A2
330
1F
100
AcDbEntity
  8
AM_5
 62
     5
100
AcDbMText
 10
157.9715111618731
 20
100.431290402556
 30
0.0
 40
3.017441601958918
 41
0.0
 71
     3
 72
     5
  1
M8 x 1.25 
 73
     1
 44
1.0
1001
ACAD
1000
MTEXTBEGIN
1070
    73
1070
     1
1070
    44
1040
1.0
1070
    74
1070
     0
1000
MTEXTEND
  0
LINE
  5
31A3
330
1F
100
AcDbEntity
  8
AM_5
 62
     5
100
AcDbLine
 10
157.9715111618731
 20
96.80964769872453
 30
0.0
 11
142.7593166285585
 21
96.80964769872453
 31
0.0
  0
LINE
  5
31A4
330
1F
100
AcDbEntity
  8
AM_VIS
100
AcDbLine
 10
227.2652960583738
 20
103.1730152808144
 30
0.0
 11
235.4084308913582
 21
103.1730152808144
 31
0.0
  0
LINE
  5
31A5
330
1F
100
AcDbEntity
  8
AM_VIS
100
AcDbLine
 10
238.0652960583737
 20
100.5161501137989
 30
0.0
 11
238.0652960583737
 21
92.37301528081445
 31
0.0
  0
LINE
  5
31A6
330
1F
100
AcDbEntity
  8
AM_VIS
100
AcDbLine
 10
236.5652960583737
 20
92.37301528081445
 30
0.0
 11
238.0652960583737
 21
92.37301528081445
 31
0.0
  0
LINE
  5
31A7
330
1F
100
AcDbEntity
  8
AM_VIS
100
AcDbLine
 10
236.0652960583737
 20
92.82301528081447
 30
0.0
 11
236.5652960583737
 21
92.37301528081445
 31
0.0
  0
LINE
  5
31A8
330
1F
100
AcDbEntity
  8
AM_VIS
100
AcDbLine
 10
233.9652960583737
 20
92.82301528081447
 30
0.0
 11
236.0652960583737
 21
92.82301528081447
 31
0.0
  0
LINE
  5
31A9
330
1F
100
AcDbEntity
  8
AM_VIS
100
AcDbLine
 10
227.2652960583738
 20
103.1730152808144
 30
0.0
 11
227.2652960583738
 21
101.6730152808144
 31
0.0
  0
LINE
  5
31AA
330
1F
100
AcDbEntity
  8
AM_VIS
100
AcDbLine
 10
227.2652960583738
 20
101.6730152808144
 30
0.0
 11
227.7152960583737
 21
101.1730152808144
 31
0.0
  0
LINE
  5
31AB
330
1F
100
AcDbEntity
  8
AM_VIS
100
AcDbLine
 10
227.7152960583737
 20
101.1730152808144
 30
0.0
 11
227.7152960583737
 21
99.07301528081447
 31
0.0
  0
LINE
  5
31AC
330
1F
100
AcDbEntity
  8
AM_VIS
100
AcDbLine
 10
233.5395451152193
 20
92.76972045999423
 30
0.0
 11
233.6806649077233
 21
92.79988346907908
 31
0.0
  0
LINE
  5
31AD
330
1F
100
AcDbEntity
  8
AM_VIS
100
AcDbLine
 10
236.0652960583737
 20
68.52301528081446
 30
0.0
 11
233.9652960583737
 21
68.52301528081446
 31
0.0
  0
LINE
  5
31AE
330
1F
100
AcDbEntity
  8
AM_VIS
100
AcDbLine
 10
236.5652960583737
 20
68.97301528081448
 30
0.0
 11
236.0652960583737
 21
68.52301528081449
 31
0.0
  0
LINE
  5
31AF
330
1F
100
AcDbEntity
  8
AM_VIS
100
AcDbLine
 10
238.0652960583737
 20
68.97301528081448
 30
0.0
 11
236.5652960583737
 21
68.97301528081448
 31
0.0
  0
LINE
  5
31B0
330
1F
100
AcDbEntity
  8
AM_VIS
100
AcDbLine
 10
238.0652960583737
 20
68.97301528081448
 30
0.0
 11
238.0652960583737
 21
60.82988044783004
 31
0.0
  0
LINE
  5
31B1
330
1F
100
AcDbEntity
  8
AM_VIS
100
AcDbLine
 10
235.4084308913582
 20
58.17301528081447
 30
0.0
 11
227.2652960583738
 21
58.17301528081447
 31
0.0
  0
LINE
  5
31B2
330
1F
100
AcDbEntity
  8
AM_VIS
100
AcDbLine
 10
227.2652960583738
 20
59.67301528081446
 30
0.0
 11
227.2652960583738
 21
58.17301528081447
 31
0.0
  0
LINE
  5
31B3
330
1F
100
AcDbEntity
  8
AM_VIS
100
AcDbLine
 10
227.7152960583737
 20
60.17301528081446
 30
0.0
 11
227.2652960583738
 21
59.67301528081446
 31
0.0
  0
LINE
  5
31B4
330
1F
100
AcDbEntity
  8
AM_VIS
100
AcDbLine
 10
227.7152960583737
 20
62.27301528081449
 30
0.0
 11
227.7152960583737
 21
60.17301528081448
 31
0.0
  0
LINE
  5
31B5
330
1F
100
AcDbEntity
  8
AM_VIS
100
AcDbLine
 10
233.5395451152191
 20
68.57631010163476
 30
0.0
 11
233.6806649077234
 21
68.54614709254986
 31
0.0
  0
LINE
  5
31B6
330
1F
100
AcDbEntity
  8
AM_VIS
100
AcDbLine
 10
227.6620012375535
 20
62.69876622396896
 30
0.0
 11
227.6921642466383
 21
62.55764643146489
 31
0.0
  0
LINE
  5
31B7
330
1F
100
AcDbEntity
  8
AM_VIS
100
AcDbLine
 10
203.4152960583738
 20
60.17301528081446
 30
0.0
 11
203.4152960583738
 21
62.27301528081446
 31
0.0
  0
LINE
  5
31B8
330
1F
100
AcDbEntity
  8
AM_VIS
100
AcDbLine
 10
203.8652960583737
 20
59.67301528081446
 30
0.0
 11
203.4152960583738
 21
60.17301528081446
 31
0.0
  0
LINE
  5
31B9
330
1F
100
AcDbEntity
  8
AM_VIS
100
AcDbLine
 10
203.8652960583737
 20
58.17301528081447
 30
0.0
 11
203.8652960583737
 21
59.67301528081446
 31
0.0
  0
LINE
  5
31BA
330
1F
100
AcDbEntity
  8
AM_VIS
100
AcDbLine
 10
203.8652960583737
 20
58.17301528081447
 30
0.0
 11
195.7221612253893
 21
58.17301528081447
 31
0.0
  0
LINE
  5
31BB
330
1F
100
AcDbEntity
  8
AM_VIS
100
AcDbLine
 10
193.0652960583737
 20
60.82988044783002
 30
0.0
 11
193.0652960583737
 21
68.97301528081445
 31
0.0
  0
LINE
  5
31BC
330
1F
100
AcDbEntity
  8
AM_VIS
100
AcDbLine
 10
194.5652960583737
 20
68.97301528081448
 30
0.0
 11
193.0652960583737
 21
68.97301528081448
 31
0.0
  0
LINE
  5
31BD
330
1F
100
AcDbEntity
  8
AM_VIS
100
AcDbLine
 10
195.0652960583737
 20
68.52301528081446
 30
0.0
 11
194.5652960583737
 21
68.97301528081445
 31
0.0
  0
LINE
  5
31BE
330
1F
100
AcDbEntity
  8
AM_VIS
100
AcDbLine
 10
197.1652960583737
 20
68.52301528081446
 30
0.0
 11
195.0652960583737
 21
68.52301528081446
 31
0.0
  0
LINE
  5
31BF
330
1F
100
AcDbEntity
  8
AM_VIS
100
AcDbLine
 10
197.4499272090241
 20
68.54614709254988
 30
0.0
 11
197.5910470015282
 21
68.57631010163473
 31
0.0
  0
LINE
  5
31C0
330
1F
100
AcDbEntity
  8
AM_VIS
100
AcDbLine
 10
206.0152960583738
 20
97.37301528081445
 30
0.0
 11
205.1152960583737
 21
97.37301528081445
 31
0.0
  0
LINE
  5
31C1
330
1F
100
AcDbEntity
  8
AM_VIS
100
AcDbLine
 10
207.7152960583737
 20
101.1730152808144
 30
0.0
 11
207.7152960583737
 21
99.07301528081445
 31
0.0
  0
LINE
  5
31C2
330
1F
100
AcDbEntity
  8
AM_VIS
100
AcDbLine
 10
207.2652960583738
 20
101.6730152808144
 30
0.0
 11
207.7152960583737
 21
101.1730152808144
 31
0.0
  0
LINE
  5
31C3
330
1F
100
AcDbEntity
  8
AM_VIS
100
AcDbLine
 10
207.2652960583738
 20
103.1730152808144
 30
0.0
 11
207.2652960583738
 21
101.6730152808144
 31
0.0
  0
LINE
  5
31C4
330
1F
100
AcDbEntity
  8
AM_VIS
100
AcDbLine
 10
207.2652960583738
 20
103.1730152808144
 30
0.0
 11
223.8652960583737
 21
103.1730152808144
 31
0.0
  0
LINE
  5
31C5
330
1F
100
AcDbEntity
  8
AM_VIS
100
AcDbLine
 10
223.8652960583737
 20
101.6730152808144
 30
0.0
 11
223.8652960583737
 21
103.1730152808144
 31
0.0
  0
LINE
  5
31C6
330
1F
100
AcDbEntity
  8
AM_VIS
100
AcDbLine
 10
223.4152960583738
 20
101.1730152808144
 30
0.0
 11
223.8652960583737
 21
101.6730152808144
 31
0.0
  0
LINE
  5
31C7
330
1F
100
AcDbEntity
  8
AM_VIS
100
AcDbLine
 10
223.4152960583738
 20
99.07301528081445
 30
0.0
 11
223.4152960583738
 21
101.1730152808144
 31
0.0
  0
LINE
  5
31C8
330
1F
100
AcDbEntity
  8
AM_VIS
100
AcDbLine
 10
226.0152960583738
 20
97.37301528081445
 30
0.0
 11
225.1152960583737
 21
97.37301528081445
 31
0.0
  0
LINE
  5
31C9
330
1F
100
AcDbEntity
  8
AM_VIS
100
AcDbLine
 10
232.2652960583738
 20
90.22301528081447
 30
0.0
 11
232.2652960583738
 21
91.12301528081449
 31
0.0
  0
LINE
  5
31CA
330
1F
100
AcDbEntity
  8
AM_VIS
100
AcDbLine
 10
236.0652960583737
 20
88.52301528081445
 30
0.0
 11
233.9652960583737
 21
88.52301528081445
 31
0.0
  0
LINE
  5
31CB
330
1F
100
AcDbEntity
  8
AM_VIS
100
AcDbLine
 10
236.5652960583737
 20
88.97301528081447
 30
0.0
 11
236.0652960583737
 21
88.52301528081449
 31
0.0
  0
LINE
  5
31CC
330
1F
100
AcDbEntity
  8
AM_VIS
100
AcDbLine
 10
238.0652960583737
 20
88.97301528081447
 30
0.0
 11
236.5652960583737
 21
88.97301528081447
 31
0.0
  0
LINE
  5
31CD
330
1F
100
AcDbEntity
  8
AM_VIS
100
AcDbLine
 10
238.0652960583737
 20
88.97301528081447
 30
0.0
 11
238.0652960583737
 21
88.17301528081447
 31
0.0
  0
LINE
  5
31CE
330
1F
100
AcDbEntity
  8
AM_VIS
100
AcDbLine
 10
238.0652960583737
 20
88.17301528081447
 30
0.0
 11
242.5652960583737
 21
87.67301528081446
 31
0.0
  0
LINE
  5
31CF
330
1F
100
AcDbEntity
  8
AM_VIS
100
AcDbLine
 10
242.5652960583737
 20
73.67301528081447
 30
0.0
 11
238.0652960583737
 21
73.17301528081447
 31
0.0
  0
LINE
  5
31D0
330
1F
100
AcDbEntity
  8
AM_VIS
100
AcDbLine
 10
238.0652960583737
 20
73.17301528081447
 30
0.0
 11
238.0652960583737
 21
72.37301528081445
 31
0.0
  0
LINE
  5
31D1
330
1F
100
AcDbEntity
  8
AM_VIS
100
AcDbLine
 10
236.5652960583737
 20
72.37301528081445
 30
0.0
 11
238.0652960583737
 21
72.37301528081445
 31
0.0
  0
LINE
  5
31D2
330
1F
100
AcDbEntity
  8
AM_VIS
100
AcDbLine
 10
236.0652960583737
 20
72.82301528081447
 30
0.0
 11
236.5652960583737
 21
72.37301528081445
 31
0.0
  0
LINE
  5
31D3
330
1F
100
AcDbEntity
  8
AM_VIS
100
AcDbLine
 10
233.9652960583737
 20
72.82301528081447
 30
0.0
 11
236.0652960583737
 21
72.82301528081447
 31
0.0
  0
LINE
  5
31D4
330
1F
100
AcDbEntity
  8
AM_VIS
100
AcDbLine
 10
232.2652960583738
 20
70.22301528081448
 30
0.0
 11
232.2652960583738
 21
71.12301528081449
 31
0.0
  0
LINE
  5
31D5
330
1F
100
AcDbEntity
  8
AM_VIS
100
AcDbLine
 10
225.1152960583737
 20
63.97301528081448
 30
0.0
 11
226.0152960583738
 21
63.97301528081448
 31
0.0
  0
LINE
  5
31D6
330
1F
100
AcDbEntity
  8
AM_VIS
100
AcDbLine
 10
223.4152960583738
 20
60.17301528081446
 30
0.0
 11
223.4152960583738
 21
62.27301528081446
 31
0.0
  0
LINE
  5
31D7
330
1F
100
AcDbEntity
  8
AM_VIS
100
AcDbLine
 10
223.8652960583737
 20
59.67301528081446
 30
0.0
 11
223.4152960583738
 21
60.17301528081446
 31
0.0
  0
LINE
  5
31D8
330
1F
100
AcDbEntity
  8
AM_VIS
100
AcDbLine
 10
223.8652960583737
 20
58.17301528081447
 30
0.0
 11
223.8652960583737
 21
59.67301528081446
 31
0.0
  0
LINE
  5
31D9
330
1F
100
AcDbEntity
  8
AM_VIS
100
AcDbLine
 10
223.8652960583737
 20
58.17301528081447
 30
0.0
 11
207.2652960583738
 21
58.17301528081447
 31
0.0
  0
LINE
  5
31DA
330
1F
100
AcDbEntity
  8
AM_VIS
100
AcDbLine
 10
207.2652960583738
 20
59.67301528081446
 30
0.0
 11
207.2652960583738
 21
58.17301528081447
 31
0.0
  0
LINE
  5
31DB
330
1F
100
AcDbEntity
  8
AM_VIS
100
AcDbLine
 10
207.7152960583737
 20
60.17301528081446
 30
0.0
 11
207.2652960583738
 21
59.67301528081446
 31
0.0
  0
LINE
  5
31DC
330
1F
100
AcDbEntity
  8
AM_VIS
100
AcDbLine
 10
207.7152960583737
 20
62.27301528081446
 30
0.0
 11
207.7152960583737
 21
60.17301528081445
 31
0.0
  0
LINE
  5
31DD
330
1F
100
AcDbEntity
  8
AM_VIS
100
AcDbLine
 10
205.1152960583737
 20
63.97301528081445
 30
0.0
 11
206.0152960583738
 21
63.97301528081445
 31
0.0
  0
LINE
  5
31DE
330
1F
100
AcDbEntity
  8
AM_VIS
100
AcDbLine
 10
198.8652960583737
 20
70.67301528081447
 30
0.0
 11
198.8652960583737
 21
70.22301528081448
 31
0.0
  0
LINE
  5
31DF
330
1F
100
AcDbEntity
  8
AM_VIS
100
AcDbLine
 10
198.8652960583737
 20
91.12301528081445
 30
0.0
 11
198.8652960583737
 21
90.67301528081447
 31
0.0
  0
LINE
  5
31E0
330
1F
100
AcDbEntity
  8
AM_VIS
100
AcDbLine
 10
195.0652960583737
 20
92.82301528081447
 30
0.0
 11
197.1652960583737
 21
92.82301528081447
 31
0.0
  0
LINE
  5
31E1
330
1F
100
AcDbEntity
  8
AM_VIS
100
AcDbLine
 10
194.5652960583737
 20
92.37301528081445
 30
0.0
 11
195.0652960583737
 21
92.82301528081445
 31
0.0
  0
LINE
  5
31E2
330
1F
100
AcDbEntity
  8
AM_VIS
100
AcDbLine
 10
193.0652960583737
 20
92.37301528081445
 30
0.0
 11
194.5652960583737
 21
92.37301528081445
 31
0.0
  0
LINE
  5
31E3
330
1F
100
AcDbEntity
  8
AM_VIS
100
AcDbLine
 10
193.0652960583737
 20
92.37301528081445
 30
0.0
 11
193.0652960583737
 21
100.5161501137989
 31
0.0
  0
LINE
  5
31E4
330
1F
100
AcDbEntity
  8
AM_VIS
100
AcDbLine
 10
195.7221612253893
 20
103.1730152808144
 30
0.0
 11
203.8652960583737
 21
103.1730152808144
 31
0.0
  0
LINE
  5
31E5
330
1F
100
AcDbEntity
  8
AM_VIS
100
AcDbLine
 10
203.8652960583737
 20
101.6730152808144
 30
0.0
 11
203.8652960583737
 21
103.1730152808144
 31
0.0
  0
LINE
  5
31E6
330
1F
100
AcDbEntity
  8
AM_VIS
100
AcDbLine
 10
203.4152960583738
 20
101.1730152808144
 30
0.0
 11
203.8652960583737
 21
101.6730152808144
 31
0.0
  0
LINE
  5
31E7
330
1F
100
AcDbEntity
  8
AM_VIS
100
AcDbLine
 10
203.4152960583738
 20
99.07301528081445
 30
0.0
 11
203.4152960583738
 21
101.1730152808144
 31
0.0
  0
LINE
  5
31E8
330
1F
100
AcDbEntity
  8
AM_VIS
100
AcDbLine
 10
203.4384278701092
 20
98.78838413016405
 30
0.0
 11
203.468590879194
 21
98.64726433765998
 31
0.0
  0
LINE
  5
31E9
330
1F
100
AcDbEntity
  8
AM_VIS
100
AcDbLine
 10
203.4384278701092
 20
62.55764643146483
 30
0.0
 11
203.468590879194
 21
62.69876622396902
 31
0.0
  0
LINE
  5
31EA
330
1F
100
AcDbEntity
  8
AM_VIS
100
AcDbLine
 10
197.449927209024
 20
92.79988346907908
 30
0.0
 11
197.5910470015284
 21
92.7697204599942
 31
0.0
  0
LINE
  5
3208
330
1F
100
AcDbEntity
  8
AM_VIS
100
AcDbLine
 10
308.939828992991
 20
-5.122533879817638
 30
0.0
 11
307.939828992991
 21
-4.122533879817638
 31
0.0
  0
LINE
  5
3212
330
1F
100
AcDbEntity
  8
AM_VIS
100
AcDbLine
 10
302.439828992991
 20
9.877466120182361
 30
0.0
 11
307.939828992991
 21
9.877466120182361
 31
0.0
  0
LINE
  5
3213
330
1F
100
AcDbEntity
  8
AM_VIS
100
AcDbLine
 10
307.939828992991
 20
9.877466120182361
 30
0.0
 11
308.939828992991
 21
10.87746612018236
 31
0.0
  0
LINE
  5
329A
330
1F
100
AcDbEntity
  8
AM_VIS
100
AcDbLine
 10
290.2696178952864
 20
-37.7129952791701
 30
0.0
 11
290.6841295231934
 21
-46.6249952791701
 31
0.0
  0
LINE
  5
329D
330
1F
100
AcDbEntity
  8
AM_VIS
100
AcDbLine
 10
306.939828992991
 20
-46.57853387981764
 30
0.0
 11
306.939828992991
 21
-52.12253387981764
 31
0.0
  0
LINE
  5
329E
330
1F
100
AcDbEntity
  8
AM_VIS
100
AcDbLine
 10
306.939828992991
 20
-52.12253387981764
 30
0.0
 11
290.939828992991
 21
-52.12253387981764
 31
0.0
  0
LINE
  5
329F
330
1F
100
AcDbEntity
  8
AM_VIS
100
AcDbLine
 10
290.939828992991
 20
-52.12253387981764
 30
0.0
 11
290.6841295231934
 21
-46.62499527917012
 31
0.0
  0
LINE
  5
32A1
330
1F
100
AcDbEntity
  8
AM_VIS
100
AcDbLine
 10
288.939828992991
 20
12.37746612018236
 30
0.0
 11
288.939828992991
 21
14.87746612018236
 31
0.0
  0
LINE
  5
32A2
330
1F
100
AcDbEntity
  8
AM_VIS
100
AcDbLine
 10
288.939828992991
 20
14.87746612018236
 30
0.0
 11
306.939828992991
 21
14.87746612018236
 31
0.0
  0
LINE
  5
32A3
330
1F
100
AcDbEntity
  8
AM_VIS
100
AcDbLine
 10
306.939828992991
 20
14.87746612018236
 30
0.0
 11
306.939828992991
 21
9.877466120182361
 31
0.0
  0
LINE
  5
32A4
330
1F
100
AcDbEntity
  8
AM_VIS
100
AcDbLine
 10
306.939828992991
 20
9.877466120182361
 30
0.0
 11
302.439828992991
 21
9.877466120182361
 31
0.0
  0
LINE
  5
32B1
330
1F
100
AcDbEntity
  8
AM_VIS
100
AcDbLine
 10
306.939828992991
 20
-4.122533879817638
 30
0.0
 11
306.939828992991
 21
-37.66653387981764
 31
0.0
  0
LINE
  5
32B5
330
1F
100
AcDbEntity
  8
AM_VIS
100
AcDbLine
 10
290.2696178952864
 20
-37.7129952791701
 30
0.0
 11
288.939828992991
 21
-9.122533879817687
 31
0.0
  0
LINE
  5
32B6
330
1F
100
AcDbEntity
  8
AM_VIS
100
AcDbLine
 10
288.939828992991
 20
-9.122533879817687
 30
0.0
 11
288.939828992991
 21
-6.622533879817638
 31
0.0
  0
LINE
  5
32B8
330
1F
100
AcDbEntity
  8
AM_VIS
100
AcDbLine
 10
288.939828992991
 20
12.37746612018236
 30
0.0
 11
288.939828992991
 21
-6.622533879817638
 31
0.0
  0
LINE
  5
335E
330
1F
100
AcDbEntity
  8
AM_VIS
100
AcDbLine
 10
330.3800444021376
 20
-48.62253387981763
 30
0.0
 11
325.939828992991
 21
-48.62253387981763
 31
0.0
  0
LINE
  5
335F
330
1F
100
AcDbEntity
  8
AM_VIS
100
AcDbLine
 10
325.939828992991
 20
-48.62253387981763
 30
0.0
 11
325.939828992991
 21
-46.12253387981763
 31
0.0
  0
LINE
  5
3360
330
1F
100
AcDbEntity
  8
AM_VIS
100
AcDbLine
 10
325.939828992991
 20
-46.12253387981763
 30
0.0
 11
311.939828992991
 21
-46.07853387981764
 31
0.0
  0
LINE
  5
3364
330
1F
100
AcDbEntity
  8
AM_VIS
100
AcDbLine
 10
311.939828992991
 20
-38.12253387981764
 30
0.0
 11
325.939828992991
 21
-38.12253387981764
 31
0.0
  0
LINE
  5
3365
330
1F
100
AcDbEntity
  8
AM_VIS
100
AcDbLine
 10
325.939828992991
 20
-46.12253387981763
 30
0.0
 11
325.939828992991
 21
-35.62253387981764
 31
0.0
  0
LINE
  5
3366
330
1F
100
AcDbEntity
  8
AM_VIS
100
AcDbLine
 10
325.939828992991
 20
-35.62253387981765
 30
0.0
 11
330.3800444021375
 21
-35.62253387981765
 31
0.0
  0
ARC
  5
3367
330
1F
100
AcDbEntity
  8
AM_VIS
100
AcDbCircle
 10
306.239828992991
 20
-42.12253387981763
 30
0.0
 40
25.0
100
AcDbArc
 50
344.9299378551116
 51
15.07006214488842
  0
LINE
  5
336A
330
1F
100
AcDbEntity
  8
AM_VIS
100
AcDbLine
 10
306.939828992991
 20
-38.16653387981764
 30
0.0
 11
306.939828992991
 21
-35.62253387981764
 31
0.0
  0
LINE
  5
336B
330
1F
100
AcDbEntity
  8
AM_VIS
100
AcDbLine
 10
306.939828992991
 20
-35.62253387981764
 30
0.0
 11
311.939828992991
 21
-35.62253387981764
 31
0.0
  0
LINE
  5
336C
330
1F
100
AcDbEntity
  8
AM_VIS
100
AcDbLine
 10
311.939828992991
 20
-35.62253387981764
 30
0.0
 11
311.939828992991
 21
-46.07853387981764
 31
0.0
  0
LINE
  5
336E
330
1F
100
AcDbEntity
  8
AM_VIS
100
AcDbLine
 10
311.939828992991
 20
-46.07853387981764
 30
0.0
 11
311.939828992991
 21
-48.62253387981763
 31
0.0
  0
LINE
  5
336F
330
1F
100
AcDbEntity
  8
AM_VIS
100
AcDbLine
 10
311.939828992991
 20
-48.62253387981763
 30
0.0
 11
306.939828992991
 21
-48.62253387981763
 31
0.0
  0
LINE
  5
3370
330
1F
100
AcDbEntity
  8
AM_VIS
100
AcDbLine
 10
306.939828992991
 20
-48.62253387981763
 30
0.0
 11
306.939828992991
 21
-38.16653387981764
 31
0.0
  0
LINE
  5
3398
330
1F
100
AcDbEntity
  8
AM_7
100
AcDbLine
 10
215.5652960583737
 20
80.67301528081447
 30
0.0
 11
215.5652960583737
 21
80.67301528081447
 31
0.0
  0
LINE
  5
3399
330
1F
100
AcDbEntity
  8
AM_7
100
AcDbLine
 10
158.2957769020058
 20
80.67301528081447
 30
0.0
 11
215.5652960583737
 21
80.67301528081447
 31
0.0
  0
LINE
  5
339A
330
1F
100
AcDbEntity
  8
AM_7
100
AcDbLine
 10
215.5652960583737
 20
80.67301528081447
 30
0.0
 11
246.1232239717774
 21
80.67301528081447
 31
0.0
  0
LINE
  5
339B
330
1F
100
AcDbEntity
  8
AM_7
100
AcDbLine
 10
215.5652960583737
 20
80.67301528081447
 30
0.0
 11
215.5652960583737
 21
106.5805619342068
 31
0.0
  0
LINE
  5
339C
330
1F
100
AcDbEntity
  8
AM_7
100
AcDbLine
 10
232.5652960583738
 20
97.67301528081446
 30
0.0
 11
232.5652960583738
 21
97.67301528081446
 31
0.0
  0
LINE
  5
339D
330
1F
100
AcDbEntity
  8
AM_7
100
AcDbLine
 10
232.5652960583738
 20
97.67301528081446
 30
0.0
 11
232.5652960583738
 21
97.67301528081446
 31
0.0
  0
LINE
  5
339E
330
1F
100
AcDbEntity
  8
AM_7
100
AcDbLine
 10
227.3902960583738
 20
97.67301528081446
 30
0.0
 11
232.5652960583738
 21
97.67301528081446
 31
0.0
  0
LINE
  5
339F
330
1F
100
AcDbEntity
  8
AM_7
100
AcDbLine
 10
232.5652960583738
 20
97.67301528081446
 30
0.0
 11
237.7402960583737
 21
97.67301528081446
 31
0.0
  0
LINE
  5
33A0
330
1F
100
AcDbEntity
  8
AM_7
100
AcDbLine
 10
232.5652960583738
 20
92.49801528081446
 30
0.0
 11
232.5652960583738
 21
97.67301528081446
 31
0.0
  0
LINE
  5
33A1
330
1F
100
AcDbEntity
  8
AM_7
100
AcDbLine
 10
232.5652960583738
 20
97.67301528081446
 30
0.0
 11
232.5652960583738
 21
102.8480152808145
 31
0.0
  0
LINE
  5
33A2
330
1F
100
AcDbEntity
  8
AM_7
100
AcDbLine
 10
232.5652960583738
 20
63.67301528081447
 30
0.0
 11
232.5652960583738
 21
63.67301528081447
 31
0.0
  0
LINE
  5
33A3
330
1F
100
AcDbEntity
  8
AM_7
100
AcDbLine
 10
232.5652960583738
 20
63.67301528081447
 30
0.0
 11
232.5652960583738
 21
63.67301528081447
 31
0.0
  0
LINE
  5
33A4
330
1F
100
AcDbEntity
  8
AM_7
100
AcDbLine
 10
227.3902960583738
 20
63.67301528081447
 30
0.0
 11
232.5652960583738
 21
63.67301528081447
 31
0.0
  0
LINE
  5
33A5
330
1F
100
AcDbEntity
  8
AM_7
100
AcDbLine
 10
232.5652960583738
 20
63.67301528081447
 30
0.0
 11
237.7402960583737
 21
63.67301528081447
 31
0.0
  0
LINE
  5
33A6
330
1F
100
AcDbEntity
  8
AM_7
100
AcDbLine
 10
232.5652960583738
 20
58.49801528081447
 30
0.0
 11
232.5652960583738
 21
63.67301528081447
 31
0.0
  0
LINE
  5
33A7
330
1F
100
AcDbEntity
  8
AM_7
100
AcDbLine
 10
232.5652960583738
 20
63.67301528081447
 30
0.0
 11
232.5652960583738
 21
68.84801528081448
 31
0.0
  0
LINE
  5
33A8
330
1F
100
AcDbEntity
  8
AM_7
100
AcDbLine
 10
198.5652960583737
 20
63.67301528081447
 30
0.0
 11
198.5652960583737
 21
63.67301528081447
 31
0.0
  0
LINE
  5
33A9
330
1F
100
AcDbEntity
  8
AM_7
100
AcDbLine
 10
198.5652960583737
 20
63.67301528081447
 30
0.0
 11
198.5652960583737
 21
63.67301528081447
 31
0.0
  0
LINE
  5
33AA
330
1F
100
AcDbEntity
  8
AM_7
100
AcDbLine
 10
193.3902960583738
 20
63.67301528081447
 30
0.0
 11
198.5652960583737
 21
63.67301528081447
 31
0.0
  0
LINE
  5
33AB
330
1F
100
AcDbEntity
  8
AM_7
100
AcDbLine
 10
198.5652960583737
 20
63.67301528081447
 30
0.0
 11
203.7402960583737
 21
63.67301528081447
 31
0.0
  0
LINE
  5
33AC
330
1F
100
AcDbEntity
  8
AM_7
100
AcDbLine
 10
198.5652960583737
 20
58.49801528081447
 30
0.0
 11
198.5652960583737
 21
63.67301528081447
 31
0.0
  0
LINE
  5
33AD
330
1F
100
AcDbEntity
  8
AM_7
100
AcDbLine
 10
198.5652960583737
 20
63.67301528081447
 30
0.0
 11
198.5652960583737
 21
68.84801528081448
 31
0.0
  0
LINE
  5
33AE
330
1F
100
AcDbEntity
  8
AM_7
100
AcDbLine
 10
198.5652960583737
 20
97.67301528081446
 30
0.0
 11
198.5652960583737
 21
97.67301528081446
 31
0.0
  0
LINE
  5
33AF
330
1F
100
AcDbEntity
  8
AM_7
100
AcDbLine
 10
198.5652960583737
 20
97.67301528081446
 30
0.0
 11
198.5652960583737
 21
97.67301528081446
 31
0.0
  0
LINE
  5
33B0
330
1F
100
AcDbEntity
  8
AM_7
100
AcDbLine
 10
193.3902960583738
 20
97.67301528081446
 30
0.0
 11
198.5652960583737
 21
97.67301528081446
 31
0.0
  0
LINE
  5
33B1
330
1F
100
AcDbEntity
  8
AM_7
100
AcDbLine
 10
198.5652960583737
 20
97.67301528081446
 30
0.0
 11
203.7402960583737
 21
97.67301528081446
 31
0.0
  0
LINE
  5
33B2
330
1F
100
AcDbEntity
  8
AM_7
100
AcDbLine
 10
198.5652960583737
 20
92.49801528081446
 30
0.0
 11
198.5652960583737
 21
97.67301528081446
 31
0.0
  0
LINE
  5
33B3
330
1F
100
AcDbEntity
  8
AM_7
100
AcDbLine
 10
198.5652960583737
 20
97.67301528081446
 30
0.0
 11
198.5652960583737
 21
102.8480152808145
 31
0.0
  0
ARC
  5
33B4
330
1F
100
AcDbEntity
  8
AM_4
100
AcDbCircle
 10
232.5652960583738
 20
97.67301528081446
 30
0.0
 40
3.146999999999999
100
AcDbArc
 50
260.0000000000014
 51
190.0
  0
ARC
  5
33B5
330
1F
100
AcDbEntity
  8
AM_4
100
AcDbCircle
 10
232.5652960583738
 20
63.67301528081447
 30
0.0
 40
3.146999999999999
100
AcDbArc
 50
260.0000000000014
 51
190.0
  0
ARC
  5
33B6
330
1F
100
AcDbEntity
  8
AM_4
100
AcDbCircle
 10
198.5652960583737
 20
63.67301528081447
 30
0.0
 40
3.146999999999999
100
AcDbArc
 50
260.0000000000014
 51
190.0
  0
ARC
  5
33B7
330
1F
100
AcDbEntity
  8
AM_4
100
AcDbCircle
 10
198.5652960583737
 20
97.67301528081446
 30
0.0
 40
3.146999999999999
100
AcDbArc
 50
260.0000000000014
 51
190.0
  0
ARC
  5
33B8
330
1F
100
AcDbEntity
  8
AM_4
100
AcDbCircle
 10
232.5652960583738
 20
63.67301528081447
 30
0.0
 40
3.146999999999999
100
AcDbArc
 50
260.0000000000014
 51
190.0
  0
ARC
  5
33B9
330
1F
100
AcDbEntity
  8
AM_4
100
AcDbCircle
 10
198.5652960583737
 20
63.67301528081447
 30
0.0
 40
3.146999999999999
100
AcDbArc
 50
260.0000000000014
 51
190.0
  0
ARC
  5
33BA
330
1F
100
AcDbEntity
  8
AM_4
100
AcDbCircle
 10
198.5652960583737
 20
97.67301528081446
 30
0.0
 40
3.146999999999999
100
AcDbArc
 50
260.0000000000014
 51
190.0
  0
ARC
  5
33BB
330
1F
100
AcDbEntity
  8
AM_4
100
AcDbCircle
 10
232.5652960583738
 20
97.67301528081446
 30
0.0
 40
3.146999999999999
100
AcDbArc
 50
260.0000000000014
 51
190.0
  0
LINE
  5
33BC
330
1F
100
AcDbEntity
  8
AM_7
100
AcDbLine
 10
424.4148289929909
 20
80.67301528081447
 30
0.0
 11
294.464828992991
 21
80.67301528081447
 31
0.0
  0
LINE
  5
33BD
330
1F
100
AcDbEntity
  8
AM_7
100
AcDbLine
 10
362.4398289929909
 20
80.67301528081447
 30
0.0
 11
362.4398289929909
 21
80.67301528081447
 31
0.0
  0
LINE
  5
33BE
330
1F
100
AcDbEntity
  8
AM_7
100
AcDbLine
 10
362.4398289929909
 20
80.67301528081447
 30
0.0
 11
362.4398289929909
 21
80.67301528081447
 31
0.0
  0
LINE
  5
33BF
330
1F
100
AcDbEntity
  8
AM_7
100
AcDbLine
 10
357.552328992991
 20
80.67301528081447
 30
0.0
 11
362.4398289929909
 21
80.67301528081447
 31
0.0
  0
LINE
  5
33C0
330
1F
100
AcDbEntity
  8
AM_7
100
AcDbLine
 10
362.4398289929909
 20
80.67301528081447
 30
0.0
 11
367.3273289929908
 21
80.67301528081447
 31
0.0
  0
LINE
  5
33C1
330
1F
100
AcDbEntity
  8
AM_7
100
AcDbLine
 10
362.4398289929909
 20
75.78551528081447
 30
0.0
 11
362.4398289929909
 21
80.67301528081447
 31
0.0
  0
LINE
  5
33C2
330
1F
100
AcDbEntity
  8
AM_7
100
AcDbLine
 10
362.4398289929909
 20
80.67301528081447
 30
0.0
 11
362.4398289929909
 21
85.56051528081445
 31
0.0
  0
LINE
  5
33C3
330
1F
100
AcDbEntity
  8
AM_7
100
AcDbLine
 10
404.9398289929909
 20
80.67301528081447
 30
0.0
 11
404.9398289929909
 21
80.67301528081447
 31
0.0
  0
LINE
  5
33C4
330
1F
100
AcDbEntity
  8
AM_7
100
AcDbLine
 10
404.9398289929909
 20
80.67301528081447
 30
0.0
 11
404.9398289929909
 21
80.67301528081447
 31
0.0
  0
LINE
  5
33C5
330
1F
100
AcDbEntity
  8
AM_7
100
AcDbLine
 10
400.0523289929909
 20
80.67301528081447
 30
0.0
 11
404.9398289929909
 21
80.67301528081447
 31
0.0
  0
LINE
  5
33C6
330
1F
100
AcDbEntity
  8
AM_7
100
AcDbLine
 10
404.9398289929909
 20
80.67301528081447
 30
0.0
 11
409.8273289929908
 21
80.67301528081447
 31
0.0
  0
LINE
  5
33C7
330
1F
100
AcDbEntity
  8
AM_7
100
AcDbLine
 10
404.9398289929909
 20
75.78551528081447
 30
0.0
 11
404.9398289929909
 21
80.67301528081447
 31
0.0
  0
LINE
  5
33C8
330
1F
100
AcDbEntity
  8
AM_7
100
AcDbLine
 10
404.9398289929909
 20
80.67301528081447
 30
0.0
 11
404.9398289929909
 21
85.56051528081445
 31
0.0
  0
LINE
  5
33C9
330
1F
100
AcDbEntity
  8
AM_7
100
AcDbLine
 10
360.4398289929909
 20
80.67301528081447
 30
0.0
 11
360.4398289929909
 21
80.67301528081447
 31
0.0
  0
LINE
  5
33CA
330
1F
100
AcDbEntity
  8
AM_7
100
AcDbLine
 10
360.4398289929909
 20
80.67301528081447
 30
0.0
 11
360.4398289929909
 21
80.67301528081447
 31
0.0
  0
LINE
  5
33CB
330
1F
100
AcDbEntity
  8
AM_7
100
AcDbLine
 10
359.864828992991
 20
80.67301528081447
 30
0.0
 11
360.4398289929909
 21
80.67301528081447
 31
0.0
  0
LINE
  5
33CC
330
1F
100
AcDbEntity
  8
AM_7
100
AcDbLine
 10
360.4398289929909
 20
80.67301528081447
 30
0.0
 11
361.0148289929908
 21
80.67301528081447
 31
0.0
  0
LINE
  5
33CD
330
1F
100
AcDbEntity
  8
AM_7
100
AcDbLine
 10
360.4398289929909
 20
80.09801528081448
 30
0.0
 11
360.4398289929909
 21
80.67301528081447
 31
0.0
  0
LINE
  5
33CE
330
1F
100
AcDbEntity
  8
AM_7
100
AcDbLine
 10
360.4398289929909
 20
80.67301528081447
 30
0.0
 11
360.4398289929909
 21
81.24801528081446
 31
0.0
  0
ARC
  5
33CF
330
1F
100
AcDbEntity
  8
AM_4
100
AcDbCircle
 10
362.4398289929909
 20
80.67301528081447
 30
0.0
 40
4.849999999999999
100
AcDbArc
 50
260.0000000000014
 51
190.0
  0
ARC
  5
33D0
330
1F
100
AcDbEntity
  8
AM_4
100
AcDbCircle
 10
404.9398289929909
 20
80.67301528081447
 30
0.0
 40
4.849999999999999
100
AcDbArc
 50
260.0000000000014
 51
190.0
  0
ARC
  5
33D1
330
1F
100
AcDbEntity
  8
AM_4
100
AcDbCircle
 10
348.3398289929909
 20
80.67301528081447
 30
0.0
 40
4.169999999999999
100
AcDbArc
 50
260.0000000000014
 51
190.0
  0
LINE
  5
33D2
330
1F
100
AcDbEntity
  8
AM_7
100
AcDbLine
 10
348.3398289929909
 20
80.67301528081447
 30
0.0
 11
348.3398289929909
 21
80.67301528081447
 31
0.0
  0
LINE
  5
33D3
330
1F
100
AcDbEntity
  8
AM_7
100
AcDbLine
 10
348.3398289929909
 20
80.67301528081447
 30
0.0
 11
348.3398289929909
 21
80.67301528081447
 31
0.0
  0
LINE
  5
33D4
330
1F
100
AcDbEntity
  8
AM_7
100
AcDbLine
 10
344.3654289929909
 20
80.67301528081447
 30
0.0
 11
348.3398289929909
 21
80.67301528081447
 31
0.0
  0
LINE
  5
33D5
330
1F
100
AcDbEntity
  8
AM_7
100
AcDbLine
 10
348.3398289929909
 20
80.67301528081447
 30
0.0
 11
352.3142289929909
 21
80.67301528081447
 31
0.0
  0
LINE
  5
33D6
330
1F
100
AcDbEntity
  8
AM_7
100
AcDbLine
 10
348.3398289929909
 20
76.69861528081447
 30
0.0
 11
348.3398289929909
 21
80.67301528081447
 31
0.0
  0
LINE
  5
33D7
330
1F
100
AcDbEntity
  8
AM_7
100
AcDbLine
 10
348.3398289929909
 20
80.67301528081447
 30
0.0
 11
348.3398289929909
 21
84.64741528081447
 31
0.0
  0
LINE
  5
33D9
330
1F
100
AcDbEntity
  8
AM_7
100
AcDbLine
 10
424.8898289929909
 20
2.877466120182361
 30
0.0
 11
279.989828992991
 21
2.877466120182361
 31
0.0
  0
LINE
  5
33DD
330
1F
100
AcDbEntity
  8
AM_7
100
AcDbLine
 10
288.6681911554926
 20
-42.12253387981763
 30
0.0
 11
334.3147233052464
 21
-42.12253387981763
 31
0.0
  0
DIMENSION
  5
33EF
330
1F
100
AcDbEntity
  8
AM_REFDIM
100
AcDbDimension
  2
*D4
 10
334.4398289929909
 20
121.1730152808144
 30
0.0
 11
311.689828992991
 21
123.9230152808144
 31
0.0
 70
    32
  1
35.5+ST=<>
 71
     5
 42
45.49999999999989
  3
AM_ISO$0
100
AcDbAlignedDimension
 13
288.939828992991
 23
89.87301528081445
 33
0.0
 14
334.4398289929909
 24
103.1730152808144
 34
0.0
100
AcDbRotatedDimension
  0
DIMENSION
  5
33F0
330
1F
100
AcDbEntity
  8
AM_REFDIM
100
AcDbDimension
  2
*D5
 10
362.4398289929909
 20
113.1268269871652
 30
0.0
 11
348.4398289929909
 21
115.8930506902112
 31
0.0
 70
    32
 71
     5
 42
28.0
  3
AM_ISO$0
100
AcDbAlignedDimension
 13
334.4398289929909
 23
103.1730152808144
 33
0.0
 14
362.4398289929909
 24
85.56051528081445
 34
0.0
100
AcDbRotatedDimension
1001
ACAD
1000
DSTYLE
1002
{
1070
    40
1040
1.005773536706149
1002
}
  0
DIMENSION
  5
33F1
330
1F
100
AcDbEntity
  8
AM_REFDIM
100
AcDbDimension
  2
*D6
 10
415.9398289929908
 20
113.0715556299217
 30
0.0
 11
410.4398289929909
 21
115.8374328558636
 31
0.0
 70
    32
 71
     5
 42
11.0
  3
AM_ISO$0
100
AcDbAlignedDimension
 13
404.9398289929909
 23
85.56051528081445
 33
0.0
 14
415.9398289929908
 24
103.1730152808144
 34
0.0
100
AcDbRotatedDimension
1001
ACAD
1000
DSTYLE
1002
{
1070
    40
1040
1.005773536706149
1002
}
  0
DIMENSION
  5
33F2
330
1F
100
AcDbEntity
  8
AM_REFDIM
100
AcDbDimension
  2
*D7
 10
415.9398289929908
 20
129.2192035744635
 30
0.0
 11
352.4398289929909
 21
131.9854272775096
 31
0.0
 70
    32
  1
107+ST*2=<>
 71
     5
 42
126.9999999999999
  3
AM_ISO$0
100
AcDbAlignedDimension
 13
288.939828992991
 23
89.87301528081445
 33
0.0
 14
415.9398289929908
 24
103.1730152808144
 34
0.0
100
AcDbRotatedDimension
1001
ACAD
1000
DSTYLE
1002
{
1070
    40
1040
1.005773536706149
1002
}
  0
DIMENSION
  5
33F3
330
1F
100
AcDbEntity
  8
AM_REFDIM
100
AcDbDimension
  2
*D8
 10
151.3075606913122
 20
70.67301528081448
 30
0.0
 11
148.5413369882661
 21
80.67301528081449
 31
0.0
 70
    32
 71
     5
 42
20.0
  3
AM_ISO$0
100
AcDbAlignedDimension
 13
161.3652960583737
 23
90.67301528081447
 33
0.0
 14
161.3652960583737
 24
70.67301528081447
 34
0.0
 50
90.0
100
AcDbRotatedDimension
1001
ACAD
1000
DSTYLE
1002
{
1070
    40
1040
1.005773536706149
1002
}
  0
DIMENSION
  5
33F4
330
1F
100
AcDbEntity
  8
AM_REFDIM
100
AcDbDimension
  2
*D9
 10
232.5652960583738
 20
112.905750647876
 30
0.0
 11
215.5652960583737
 21
115.6716278738179
 31
0.0
 70
    32
  1
{\Famgdt;o}<>
 71
     5
 42
34.0
  3
AM_ISO$0
100
AcDbAlignedDimension
 13
198.5652960583737
 23
102.8480152808145
 33
0.0
 14
232.5652960583738
 24
102.6730152808144
 34
0.0
100
AcDbRotatedDimension
1001
ACAD
1000
DSTYLE
1002
{
1070
    40
1040
1.005773536706149
1002
}
  0
DIMENSION
  5
33F5
330
1F
100
AcDbEntity
  8
AM_REFDIM
100
AcDbDimension
  2
*D10
 10
238.0652960583737
 20
120.9519389415251
 30
0.0
 11
215.5652960583737
 21
123.717816167467
 31
0.0
 70
    32
  1
{\Famgdt;o}<>
 71
     5
 42
45.0
  3
AM_ISO$0
100
AcDbAlignedDimension
 13
193.0652960583737
 23
100.5161501137989
 33
0.0
 14
238.0652960583737
 24
100.5161501137989
 34
0.0
100
AcDbRotatedDimension
1001
ACAD
1000
DSTYLE
1002
{
1070
    40
1040
1.005773536706149
1002
}
  0
DIMENSION
  5
33F6
330
1F
100
AcDbEntity
  8
AM_REFDIM
100
AcDbDimension
  2
*D11
 10
242.5652960583737
 20
120.951938941525
 30
0.0
 11
252.3187722310968
 21
123.7178161674669
 31
0.0
 70
    32
 71
     5
 42
4.5
  3
AM_ISO$0
100
AcDbAlignedDimension
 13
238.0652960583737
 23
100.5161501137989
 33
0.0
 14
242.5652960583737
 24
87.67301528081446
 34
0.0
100
AcDbRotatedDimension
1001
ACAD
1000
DSTYLE
1002
{
1070
    40
1040
1.005773536706149
1002
}
  0
DIMENSION
  5
33F7
330
1F
100
AcDbEntity
  8
AM_REFDIM
100
AcDbDimension
  2
*D12
 10
256.225063638695
 20
73.67301528081447
 30
0.0
 11
253.4591864127531
 21
80.67301528081451
 31
0.0
 70
    32
 71
     5
 42
14.0
  3
AM_ISO$0
100
AcDbAlignedDimension
 13
242.5652960583737
 23
87.67301528081446
 33
0.0
 14
242.5652960583737
 24
73.67301528081447
 34
0.0
 50
90.0
100
AcDbRotatedDimension
1001
ACAD
1000
DSTYLE
1002
{
1070
    40
1040
1.005773536706149
1002
}
  0
DIMENSION
  5
33F8
330
1F
100
AcDbEntity
  8
AM_REFDIM
100
AcDbDimension
  2
*D13
 10
320.2052557564989
 20
66.6777852444408
 30
0.0
 11
320.2052557564989
 21
108.0984353144587
 31
0.0
 70
   160
  1
%%c<>{}{\H0.71x;\C3;\S 0^ -0,05;}
 71
     5
 42
30.0
  3
AM_ISO$0
100
AcDbAlignedDimension
 13
331.6898289929909
 23
95.67301528081447
 33
0.0
 14
331.6898289929909
 24
65.67301528081447
 34
0.0
 50
90.0
100
AcDbRotatedDimension
1001
GENIUS_GENDTOL_13
1000
TolSmNrm
1000

1000
{\H0.71x;$2\S$+$P^ $-$M;}
1040
30.0
1001
ACAD
1000
DSTYLE
1002
{
1070
   286
1070
     0
1070
   284
1070
     8
1070
   274
1070
     2
1070
   272
1070
     2
1070
    40
1040
1.005773536706149
1070
    47
1040
0.0
1070
    48
1040
0.05
1002
}
  0
DIMENSION
  5
33F9
330
1F
100
AcDbEntity
  8
AM_REFDIM
100
AcDbDimension
  2
*D14
 10
308.9398289929909
 20
113.1268269871652
 30
0.0
 11
298.9398289929909
 21
115.8930506902113
 31
0.0
 70
    32
 71
     5
 42
19.99999999999988
  3
AM_ISO$0
100
AcDbAlignedDimension
 13
288.939828992991
 23
89.87301528081445
 33
0.0
 14
308.9398289929909
 24
93.42301528081447
 34
0.0
100
AcDbRotatedDimension
1001
ACAD
1000
DSTYLE
1002
{
1070
    40
1040
1.005773536706149
1002
}
  0
DIMENSION
  5
33FA
330
1F
100
AcDbEntity
  8
AM_REFDIM
100
AcDbDimension
  2
*D15
 10
306.939828992991
 20
104.580638693516
 30
0.0
 11
297.939828992991
 21
107.3465159194579
 31
0.0
 70
    32
 71
     5
 42
18.0
  3
AM_ISO$0
100
AcDbAlignedDimension
 13
288.939828992991
 23
89.87301528081445
 33
0.0
 14
306.939828992991
 24
89.87301528081449
 34
0.0
100
AcDbRotatedDimension
1001
ACAD
1000
DSTYLE
1002
{
1070
    40
1040
1.005773536706149
1002
}
  0
DIMENSION
  5
33FB
330
1F
100
AcDbEntity
  8
AM_REFDIM
100
AcDbDimension
  2
*D16
 10
331.4398289929909
 20
113.1268269871652
 30
0.0
 11
323.6224668784271
 21
115.8927042131071
 31
0.0
 70
    32
 71
     5
 42
3.0
  3
AM_ISO$0
100
AcDbAlignedDimension
 13
334.4398289929909
 23
103.1730152808144
 33
0.0
 14
331.4398289929909
 24
95.42301528081447
 34
0.0
100
AcDbRotatedDimension
1001
ACAD
1000
DSTYLE
1002
{
1070
    40
1040
1.005773536706149
1002
}
  0
LINE
  5
33FE
330
1F
100
AcDbEntity
  8
AM_7
100
AcDbLine
 10
170.5652960583737
 20
80.67301528081447
 30
0.0
 11
170.5652960583737
 21
80.67301528081447
 31
0.0
  0
LINE
  5
33FF
330
1F
100
AcDbEntity
  8
AM_7
100
AcDbLine
 10
170.5652960583737
 20
80.67301528081447
 30
0.0
 11
170.5652960583737
 21
80.67301528081447
 31
0.0
  0
LINE
  5
3400
330
1F
100
AcDbEntity
  8
AM_7
100
AcDbLine
 10
166.5908960583737
 20
80.67301528081447
 30
0.0
 11
170.5652960583737
 21
80.67301528081447
 31
0.0
  0
LINE
  5
3401
330
1F
100
AcDbEntity
  8
AM_7
100
AcDbLine
 10
170.5652960583737
 20
80.67301528081447
 30
0.0
 11
174.5396960583738
 21
80.67301528081447
 31
0.0
  0
LINE
  5
3402
330
1F
100
AcDbEntity
  8
AM_7
100
AcDbLine
 10
170.5652960583737
 20
76.69861528081447
 30
0.0
 11
170.5652960583737
 21
80.67301528081447
 31
0.0
  0
LINE
  5
3403
330
1F
100
AcDbEntity
  8
AM_7
100
AcDbLine
 10
170.5652960583737
 20
80.67301528081447
 30
0.0
 11
170.5652960583737
 21
84.64741528081447
 31
0.0
  0
ARC
  5
3404
330
1F
100
AcDbEntity
  8
AM_4
100
AcDbCircle
 10
170.5652960583737
 20
80.67301528081447
 30
0.0
 40
4.169999999999999
100
AcDbArc
 50
260.0000000000014
 51
190.0
  0
DIMENSION
  5
3405
330
1F
100
AcDbEntity
  8
AM_REFDIM
100
AcDbDimension
  2
*D17
 10
331.239828992991
 20
-61.47750115760937
 30
0.0
 11
319.089828992991
 21
-61.47750115760937
 31
0.0
 70
   160
  1
12~26
 71
     5
 42
24.29999999999996
  3
AM_ISO$0
100
AcDbAlignedDimension
 13
306.939828992991
 23
-52.12253387981764
 33
0.0
 14
331.239828992991
 24
-42.12253387981763
 34
0.0
100
AcDbRotatedDimension
1001
ACAD
1000
DSTYLE
1002
{
1070
   340
1005
12C9
1070
    40
1040
1.005773536706149
1002
}
  0
DIMENSION
  5
3406
330
1F
100
AcDbEntity
  8
AM_REFDIM
100
AcDbDimension
  2
*D18
 10
415.9398289929908
 20
121.1726926359063
 30
0.0
 11
375.1898289929909
 21
123.9386807710353
 31
0.0
 70
    32
  1
71.5+ST=<>
 71
     5
 42
81.5
  3
AM_ISO$0
100
AcDbAlignedDimension
 13
334.4398289929909
 23
103.1730152808144
 33
0.0
 14
415.9398289929908
 24
103.1730152808144
 34
0.0
100
AcDbRotatedDimension
1001
ACAD
1000
DSTYLE
1002
{
1070
    40
1040
1.005813867319639
1002
}
  0
DIMENSION
  5
3407
330
1F
100
AcDbEntity
  8
AM_REFDIM
100
AcDbDimension
  2
*D19
 10
274.4103197950044
 20
-42.12253387981763
 30
0.0
 11
271.6444909345854
 21
-19.62253387981759
 31
0.0
 70
    32
 71
     5
 42
45.0
  3
AM_ISO$0
100
AcDbAlignedDimension
 13
279.989828992991
 23
2.877466120182361
 33
0.0
 14
288.6681911554926
 24
-42.12253387981763
 34
0.0
 50
90.0
100
AcDbRotatedDimension
1001
ACAD
1000
DSTYLE
1002
{
1070
    40
1040
1.005755949243265
1002
}
  0
DIMENSION
  5
3408
330
1F
100
AcDbEntity
  8
AM_REFDIM
100
AcDbDimension
  2
*D20
 10
274.4103197950044
 20
-52.12253387981763
 30
0.0
 11
271.6444909345854
 21
-47.12253387981758
 31
0.0
 70
    32
 71
     5
 42
9.999999999999992
  3
AM_ISO$0
100
AcDbAlignedDimension
 13
288.6681911554926
 23
-42.12253387981763
 33
0.0
 14
290.939828992991
 24
-52.12253387981763
 34
0.0
 50
90.0
100
AcDbRotatedDimension
1001
ACAD
1000
DSTYLE
1002
{
1070
    40
1040
1.005755949243265
1002
}
  0
DIMENSION
  5
3409
330
1F
100
AcDbEntity
  8
AM_REFDIM
100
AcDbDimension
  2
*D21
 10
266.3642722010583
 20
14.87746612018238
 30
0.0
 11
263.5984433406393
 21
-18.62253387981758
 31
0.0
 70
    32
 71
     5
 42
67.0
  3
AM_ISO$0
100
AcDbAlignedDimension
 13
290.939828992991
 23
-52.12253387981763
 33
0.0
 14
288.939828992991
 24
14.87746612018237
 34
0.0
 50
90.0
100
AcDbRotatedDimension
1001
ACAD
1000
DSTYLE
1002
{
1070
    40
1040
1.005755949243265
1002
}
  0
LINE
  5
3410
330
1F
100
AcDbEntity
  8
AM_10
  6
AM_ISO08W050x2
 62
     1
100
AcDbLine
 10
416.7153449248399
 20
80.67301528081447
 30
0.0
 11
279.9898289929909
 21
80.67301528081445
 31
0.0
  0
LINE
  5
364A
330
1F
100
AcDbEntity
  8
AM_VIS
100
AcDbLine
 10
331.6898289929909
 20
-12.12253387981764
 30
0.0
 11
334.4398289929909
 21
-12.12253387981764
 31
0.0
  0
LINE
  5
364B
330
1F
100
AcDbEntity
  8
AM_VIS
100
AcDbLine
 10
331.6898289929909
 20
17.87746612018236
 30
0.0
 11
334.4398289929909
 21
17.87746612018236
 31
0.0
  0
LINE
  5
364C
330
1F
100
AcDbEntity
  8
AM_VIS
100
AcDbLine
 10
331.4398289929909
 20
-11.87253387981764
 30
0.0
 11
331.6898289929909
 21
-12.12253387981764
 31
0.0
  0
LINE
  5
364D
330
1F
100
AcDbEntity
  8
AM_VIS
100
AcDbLine
 10
331.4398289929909
 20
17.62746612018236
 30
0.0
 11
331.6898289929909
 21
17.87746612018236
 31
0.0
  0
LINE
  5
364E
330
1F
100
AcDbEntity
  8
AM_VIS
100
AcDbLine
 10
331.6898289929909
 20
17.87746612018236
 30
0.0
 11
331.6898289929909
 21
-12.12253387981764
 31
0.0
  0
LINE
  5
364F
330
1F
100
AcDbEntity
  8
AM_VIS
100
AcDbLine
 10
331.4398289929909
 20
-11.87253387981764
 30
0.0
 11
331.4398289929909
 21
17.62746612018236
 31
0.0
  0
LINE
  5
3650
330
1F
100
AcDbEntity
  8
AM_VIS
100
AcDbLine
 10
307.939828992991
 20
-0.9955172260250435
 30
0.0
 11
302.439828992991
 21
-0.9955172260250435
 31
0.0
  0
LINE
  5
3651
330
1F
100
AcDbEntity
  8
AM_VIS
100
AcDbLine
 10
302.439828992991
 20
6.750449466389795
 30
0.0
 11
307.939828992991
 21
6.750449466389795
 31
0.0
  0
LINE
  5
3652
330
1F
100
AcDbEntity
  8
AM_VIS
100
AcDbLine
 10
307.939828992991
 20
6.750449466389795
 30
0.0
 11
307.939828992991
 21
-0.9955172260250435
 31
0.0
  0
ARC
  5
3653
330
1F
100
AcDbEntity
  8
AM_VIS
100
AcDbCircle
 10
300.939828992991
 20
2.877466120182361
 30
0.0
 40
8.0
100
AcDbArc
 50
331.04497562814
 51
28.95502437185978
  0
LINE
  5
3654
330
1F
100
AcDbEntity
  8
AM_VIS
100
AcDbLine
 10
302.439828992991
 20
-4.122533879817636
 30
0.0
 11
307.939828992991
 21
-4.122533879817636
 31
0.0
  0
LINE
  5
3655
330
1F
100
AcDbEntity
  8
AM_VIS
100
AcDbLine
 10
307.939828992991
 20
-4.122533879817636
 30
0.0
 11
308.939828992991
 21
-5.122533879817636
 31
0.0
  0
LINE
  5
3656
330
1F
100
AcDbEntity
  8
AM_VIS
100
AcDbLine
 10
306.939828992991
 20
-4.122533879817636
 30
0.0
 11
302.439828992991
 21
-4.122533879817636
 31
0.0
  0
LINE
  5
3657
330
1F
100
AcDbEntity
  8
0
100
AcDbLine
 10
302.439828992991
 20
9.877466120182361
 30
0.0
 11
302.439828992991
 21
-4.122533879817636
 31
0.0
  0
LINE
  5
3658
330
1F
100
AcDbEntity
  8
AM_VIS
100
AcDbLine
 10
415.9398289929908
 20
22.72060095316678
 30
0.0
 11
334.4398289929909
 21
22.72060095316678
 31
0.0
  0
LINE
  5
3659
330
1F
100
AcDbEntity
  8
AM_VIS
100
AcDbLine
 10
334.4398289929909
 20
10.37746612018236
 30
0.0
 11
415.9398289929908
 21
10.37746612018236
 31
0.0
  0
LINE
  5
365A
330
1F
100
AcDbEntity
  8
AM_VIS
100
AcDbLine
 10
334.4398289929909
 20
14.57746612018235
 30
0.0
 11
415.9398289929908
 21
14.57746612018235
 31
0.0
  0
LINE
  5
365B
330
1F
100
AcDbEntity
  8
AM_VIS
100
AcDbLine
 10
415.9398289929908
 20
11.17746612018237
 30
0.0
 11
334.4398289929909
 21
11.17746612018237
 31
0.0
  0
LINE
  5
365C
330
1F
100
AcDbEntity
  8
AM_VIS
100
AcDbLine
 10
334.4398289929909
 20
-16.96566871280207
 30
0.0
 11
415.9398289929908
 21
-16.96566871280207
 31
0.0
  0
LINE
  5
365D
330
1F
100
AcDbEntity
  8
AM_VIS
100
AcDbLine
 10
334.4398289929909
 20
-4.622533879817638
 30
0.0
 11
415.9398289929908
 21
-4.622533879817638
 31
0.0
  0
LINE
  5
365E
330
1F
100
AcDbEntity
  8
AM_VIS
100
AcDbLine
 10
334.4398289929909
 20
-5.422533879817649
 30
0.0
 11
415.9398289929908
 21
-5.422533879817649
 31
0.0
  0
LINE
  5
365F
330
1F
100
AcDbEntity
  8
AM_VIS
100
AcDbLine
 10
415.9398289929908
 20
-8.822533879817626
 30
0.0
 11
334.4398289929909
 21
-8.822533879817626
 31
0.0
  0
LINE
  5
3660
330
1F
100
AcDbEntity
  8
AM_VIS
100
AcDbLine
 10
334.4398289929909
 20
-4.122533879817638
 30
0.0
 11
415.9398289929908
 21
-4.122533879817638
 31
0.0
  0
LINE
  5
3661
330
1F
100
AcDbEntity
  8
AM_VIS
100
AcDbLine
 10
334.4398289929909
 20
9.877466120182361
 30
0.0
 11
415.9398289929908
 21
9.877466120182361
 31
0.0
  0
ENDSEC
  0
SECTION
  2
OBJECTS
  0
DICTIONARY
  5
C
330
0
100
AcDbDictionary
281
     1
  3
ACAD_COLOR
350
BE
  3
ACAD_GROUP
350
D
  3
ACAD_LAYOUT
350
1A
  3
ACAD_MATERIAL
350
BD
  3
ACAD_MLINESTYLE
350
17
  3
ACAD_PLOTSETTINGS
350
19
  3
ACAD_PLOTSTYLENAME
350
E
  3
ACAD_TABLESTYLE
350
11A
  3
ACDBHEADERROUNDTRIPXREC
350
36E1
  3
AcDbVariableDictionary
350
94
  3
AcmDictionary
350
5B
  3
AMG
350
41
  3
AMGSNAPSETTINGS
350
1B8
  3
DWGPROPS
350
36E0
  3
MAPISURF_MODULE
350
16BA
  0
DICTIONARY
  5
3F9
330
2
100
AcDbDictionary
280
     1
281
     1
  3
ACAD_LAYERFILTERS
360
3699
  3
ACAD_LAYERSTATES
360
12CC
  3
ACLYDICTIONARY
360
3698
  0
DICTIONARY
  5
AD1
330
AD0
100
AcDbDictionary
280
     1
281
     1
  3
ACAD_XREC_ROUNDTRIP
360
AD2
  0
DICTIONARY
  5
AD4
330
AD3
100
AcDbDictionary
280
     1
281
     1
  3
ACAD_XREC_ROUNDTRIP
360
AD5
  0
DICTIONARY
  5
8F
330
1F
100
AcDbDictionary
280
     1
281
     1
  3
ACAD_INDEX
360
2823
  0
DICTIONARY
  5
BE
102
{ACAD_REACTORS
330
C
102
}
330
C
100
AcDbDictionary
281
     1
  0
DICTIONARY
  5
D
102
{ACAD_REACTORS
330
C
102
}
330
C
100
AcDbDictionary
281
     1
  0
DICTIONARY
  5
1A
102
{ACAD_REACTORS
330
C
102
}
330
C
100
AcDbDictionary
281
     1
  3
Model
350
22
  3
配置1
350
1E
  3
配置2
350
26
  0
DICTIONARY
  5
BD
102
{ACAD_REACTORS
330
C
102
}
330
C
100
AcDbDictionary
281
     1
  3
Global
350
AE1
  0
DICTIONARY
  5
17
102
{ACAD_REACTORS
330
C
102
}
330
C
100
AcDbDictionary
281
     1
  3
Standard
350
18
  0
DICTIONARY
  5
19
102
{ACAD_REACTORS
330
C
102
}
330
C
100
AcDbDictionary
281
     1
  0
ACDBDICTIONARYWDFLT
  5
E
102
{ACAD_REACTORS
330
C
102
}
330
C
100
AcDbDictionary
281
     1
  3
Normal
350
F
100
AcDbDictionaryWithDefault
340
F
  0
DICTIONARY
  5
11A
102
{ACAD_REACTORS
330
C
102
}
330
C
100
AcDbDictionary
281
     1
  3
Standard
350
11B
  0
DICTIONARY
  5
36E1
102
{ACAD_REACTORS
330
C
102
}
330
C
100
AcDbDictionary
281
     1
  0
DICTIONARY
  5
94
102
{ACAD_REACTORS
330
C
102
}
330
C
100
AcDbDictionary
281
     1
  3
CTABLESTYLE
350
138
  3
DIMASSOC
350
96
  3
INDEXCTL
350
95
  3
PROJECTNAME
350
1628
  0
DICTIONARY
  5
5B
102
{ACAD_REACTORS
330
C
102
}
330
C
100
AcDbDictionary
281
     1
  3
AcmBOM
350
1B5
  3
AcmStdDictionary
350
61
  3
AMDTSECTSYM_ARROWCOLOR
350
123
  0
DICTIONARY
  5
41
102
{ACAD_REACTORS
330
C
102
}
330
C
100
AcDbDictionary
281
     1
  3
AcMgSettings
350
1634
  0
DICTIONARY
  5
1B8
102
{ACAD_REACTORS
330
C
102
}
330
C
100
AcDbDictionary
281
     1
  0
XRECORD
  5
36E0
102
{ACAD_REACTORS
330
C
102
}
330
C
100
AcDbXrecord
280
     1
  1
DWGPROPS COOKIE
  2

  3

  4

  6

  7

  8

  9

300
AmdtFileType=84
301
=
302
=
303
=
304
=
305
=
306
=
307
=
308
=
309
=
 40
0.8917281597222221
 41
2454511.659716065
 42
2456133.599885706
  1

 90
        1
  0
DICTIONARY
  5
3699
102
{ACAD_REACTORS
330
3F9
102
}
330
3F9
100
AcDbDictionary
281
     1
  0
DICTIONARY
  5
12CC
102
{ACAD_REACTORS
330
3F9
102
}
330
3F9
100
AcDbDictionary
281
     1
  0
DICTIONARY
  5
3698
102
{ACAD_REACTORS
330
3F9
102
}
330
3F9
100
AcDbDictionary
281
     1
1001
ACAD
1000
<All
  0
XRECORD
  5
AD2
102
{ACAD_REACTORS
330
AD1
102
}
330
AD1
100
AcDbXrecord
280
     1
102
MATERIAL
340
AE1
  0
XRECORD
  5
AD5
102
{ACAD_REACTORS
330
AD4
102
}
330
AD4
100
AcDbXrecord
280
     1
102
MATERIAL
340
AE1
  0
DICTIONARY
  5
2823
102
{ACAD_REACTORS
330
8F
102
}
330
8F
100
AcDbDictionary
281
     1
  3
*A1
350
2824
  0
LAYOUT
  5
22
102
{ACAD_XDICTIONARY
360
36E4
102
}
102
{ACAD_REACTORS
330
1A
102
}
330
1A
100
AcDbPlotSettings
  1

  2
\\RD\EPSON Stylus C63 Series單色
  4
A4
  6

 40
3.757083177566528
 41
3.757076978683471
 42
3.757080078125
 43
3.757080078125
 44
209.9733276367187
 45
296.9683227539062
 46
0.0
 47
0.0
 48
0.0
 49
0.0
140
0.0
141
0.0
142
1.0
143
0.3405120737814363
 70
 11952
 72
     1
 73
     0
 74
     0
  7
彩色出圖.ctb
 75
     0
147
2.936753428137963
148
-2047.07469463503
149
-1261.649717473083
100
AcDbLayout
  1
Model
 70
     1
 71
     0
 10
0.0
 20
0.0
 11
12.0
 21
9.0
 12
0.0
 22
0.0
 32
0.0
 14
0.0
 24
0.0
 34
0.0
 15
0.0
 25
0.0
 35
0.0
146
0.0
 13
0.0
 23
0.0
 33
0.0
 16
1.0
 26
0.0
 36
0.0
 17
0.0
 27
1.0
 37
0.0
 76
     0
330
1F
1001
ACAD_PSEXT
1000
\\RD\EPSON Stylus C63 Series單色
1000
EPSON Stylus C63 Series
1000
\\RD
1000

1070
     0
  0
LAYOUT
  5
1E
102
{ACAD_XDICTIONARY
360
36E2
102
}
102
{ACAD_REACTORS
330
1A
102
}
330
1A
100
AcDbPlotSettings
  1

  2

  4

  6

 40
0.0
 41
0.0
 42
0.0
 43
0.0
 44
0.0
 45
0.0
 46
0.0
 47
0.0
 48
0.0
 49
0.0
140
0.0
141
0.0
142
1.0
143
1.0
 70
   688
 72
     0
 73
     0
 74
     5
  7
彩色出圖.ctb
 75
    16
147
1.0
148
0.0
149
0.0
100
AcDbLayout
  1
配置1
 70
     1
 71
     1
 10
0.0
 20
0.0
 11
420.0
 21
297.0
 12
0.0
 22
0.0
 32
0.0
 14
1.000000000000000E+20
 24
1.000000000000000E+20
 34
1.000000000000000E+20
 15
-1.000000000000000E+20
 25
-1.000000000000000E+20
 35
-1.000000000000000E+20
146
0.0
 13
0.0
 23
0.0
 33
0.0
 16
1.0
 26
0.0
 36
0.0
 17
0.0
 27
1.0
 37
0.0
 76
     0
330
1B
  0
LAYOUT
  5
26
102
{ACAD_XDICTIONARY
360
36E6
102
}
102
{ACAD_REACTORS
330
1A
102
}
330
1A
100
AcDbPlotSettings
  1

  2

  4

  6

 40
0.0
 41
0.0
 42
0.0
 43
0.0
 44
0.0
 45
0.0
 46
0.0
 47
0.0
 48
0.0
 49
0.0
140
0.0
141
0.0
142
1.0
143
1.0
 70
   688
 72
     0
 73
     0
 74
     5
  7
彩色出圖.ctb
 75
    16
147
1.0
148
0.0
149
0.0
100
AcDbLayout
  1
配置2
 70
     1
 71
     2
 10
0.0
 20
0.0
 11
12.0
 21
9.0
 12
0.0
 22
0.0
 32
0.0
 14
0.0
 24
0.0
 34
0.0
 15
0.0
 25
0.0
 35
0.0
146
0.0
 13
0.0
 23
0.0
 33
0.0
 16
1.0
 26
0.0
 36
0.0
 17
0.0
 27
1.0
 37
0.0
 76
     0
330
23
  0
MATERIAL
  5
AE1
102
{ACAD_XDICTIONARY
360
AE2
102
}
102
{ACAD_REACTORS
330
BD
102
}
330
BD
100
AcDbMaterial
  1
Global
  0
MLINESTYLE
  5
18
102
{ACAD_REACTORS
330
17
102
}
330
17
100
AcDbMlineStyle
  2
STANDARD
 70
     0
  3

 62
   256
 51
90.0
 52
90.0
 71
     2
 49
0.5
 62
   256
  6
BYLAYER
 49
-0.5
 62
   256
  6
BYLAYER
  0
ACDBPLACEHOLDER
  5
F
102
{ACAD_REACTORS
330
E
102
}
330
E
  0
TABLESTYLE
  5
11B
102
{ACAD_REACTORS
330
11A
102
}
330
11A
100
AcDbTableStyle
  3
Standard
 70
     0
 71
     0
 40
1.5
 41
1.5
280
     0
281
     0
  7
STANDARD
140
4.5
170
     2
 62
     0
 63
     7
283
     0
274
    -2
284
     1
 64
     0
275
    -2
285
     1
 65
     0
276
    -2
286
     1
 66
     0
277
    -2
287
     1
 67
     0
278
    -2
288
     1
 68
     0
279
    -2
289
     1
 69
     0
  7
STANDARD
140
6.0
170
     5
 62
     0
 63
     7
283
     0
274
    -2
284
     1
 64
     0
275
    -2
285
     1
 65
     0
276
    -2
286
     1
 66
     0
277
    -2
287
     1
 67
     0
278
    -2
288
     1
 68
     0
279
    -2
289
     1
 69
     0
  7
STANDARD
140
4.5
170
     5
 62
     0
 63
     7
283
     0
274
    -2
284
     1
 64
     0
275
    -2
285
     1
 65
     0
276
    -2
286
     1
 66
     0
277
    -2
287
     1
 67
     0
278
    -2
288
     1
 68
     0
279
    -2
289
     1
 69
     0
  0
DICTIONARYVAR
  5
138
102
{ACAD_REACTORS
330
94
102
}
330
94
100
DictionaryVariables
280
     0
  1
STANDARD
  0
DICTIONARYVAR
  5
96
102
{ACAD_REACTORS
330
94
102
}
330
94
100
DictionaryVariables
280
     0
  1
2
  0
DICTIONARYVAR
  5
95
102
{ACAD_REACTORS
330
94
102
}
330
94
100
DictionaryVariables
280
     0
  1
1
  0
DICTIONARYVAR
  5
1628
102
{ACAD_REACTORS
330
94
102
}
330
94
100
DictionaryVariables
280
     0
  1

  0
DICTIONARY
  5
1B5
102
{ACAD_REACTORS
330
5B
102
}
330
5B
100
AcDbDictionary
281
     1
  0
DICTIONARY
  5
61
102
{ACAD_REACTORS
330
5B
102
}
330
5B
100
AcDbDictionary
281
     1
  0
XRECORD
  5
123
102
{ACAD_REACTORS
330
5B
102
}
330
5B
100
AcDbXrecord
280
     1
 90
-1023410169
  0
DICTIONARY
  5
1634
102
{ACAD_REACTORS
330
41
102
}
330
41
100
AcDbDictionary
281
     1
  3
DWGSETTINGS
350
1635
  3
Shaft
350
2638
  3
TRANSSETTINGS
350
1638
  0
LAYER_INDEX
  5
2824
102
{ACAD_REACTORS
330
2823
102
}
330
2823
100
AcDbIndex
 40
2456133.599885706
100
AcDbLayerIndex
  8
0
360
2825
 90
        4
  8
UMCL1
360
2826
 90
        0
  8
UMCL2
360
2827
 90
        0
  8
AM_7
360
2828
 90
       62
  8
LOGO
360
2829
 90
      103
  8
AM_5
360
282A
 90
       10
  8
Defpoints
360
282B
 90
        0
  8
AM_VIS
360
282C
 90
      314
  8
AM_4
360
282D
 90
       12
  8
AM_REFDIM
360
282E
 90
       18
  8
AM_10
360
369A
 90
        1
  0
DICTIONARY
  5
36E4
330
22
100
AcDbDictionary
280
     1
281
     1
  3
ACAD_XREC_ROUNDTRIP
360
36E5
  0
DICTIONARY
  5
36E2
330
1E
100
AcDbDictionary
280
     1
281
     1
  3
ACAD_XREC_ROUNDTRIP
360
36E3
  0
DICTIONARY
  5
36E6
330
26
100
AcDbDictionary
280
     1
281
     1
  3
ACAD_XREC_ROUNDTRIP
360
36E7
  0
DICTIONARY
  5
AE2
330
AE1
100
AcDbDictionary
280
     1
281
     1
  3
ACAD_XREC_ROUNDTRIP
360
AE3
  0
IDBUFFER
  5
2825
330
0
100
AcDbIdBuffer
330
1591
330
1592
330
1593
330
3657
  0
IDBUFFER
  5
2826
330
0
100
AcDbIdBuffer
  0
IDBUFFER
  5
2827
330
0
100
AcDbIdBuffer
  0
IDBUFFER
  5
2828
330
0
100
AcDbIdBuffer
330
33D6
330
33D7
330
33D9
330
33DD
330
33FE
330
33FF
330
3400
330
3401
330
3402
330
3403
330
2F16
330
3398
330
3399
330
339A
330
339B
330
339C
330
339D
330
339E
330
339F
330
33A0
330
33A1
330
33A2
330
33A3
330
33A4
330
33A5
330
33A6
330
33A7
330
33A8
330
33A9
330
33AA
330
33AB
330
33AC
330
33AD
330
33AE
330
33AF
330
33B0
330
33B1
330
33B2
330
33B3
330
33BC
330
33BD
330
33BE
330
33BF
330
33C0
330
33C1
330
33C2
330
33C3
330
33C4
330
33C5
330
33C6
330
33C7
330
33C8
330
33C9
330
33CA
330
33CB
330
33CC
330
33CD
330
33CE
330
33D2
330
33D3
330
33D4
330
33D5
  0
IDBUFFER
  5
2829
330
0
100
AcDbIdBuffer
330
14E0
330
14E1
330
14E2
330
14E3
330
14E4
330
14E5
330
14E6
330
14E7
330
14E8
330
14E9
330
14EA
330
14EB
330
14EC
330
14ED
330
14EE
330
14EF
330
14F0
330
14F1
330
14F2
330
14F3
330
14F4
330
14F5
330
14F6
330
14F7
330
14FB
330
14FF
330
1500
330
1504
330
1505
330
1506
330
1507
330
1508
330
1509
330
150A
330
150B
330
150F
330
1513
330
1517
330
1518
330
1519
330
151D
330
151E
330
151F
330
1520
330
1521
330
1522
330
1523
330
1524
330
1525
330
1526
330
1527
330
1528
330
1529
330
152A
330
152B
330
152C
330
152D
330
152E
330
152F
330
1530
330
1531
330
1532
330
1533
330
1534
330
1535
330
1536
330
1537
330
1538
330
1539
330
153A
330
153B
330
153C
330
153D
330
153E
330
153F
330
1540
330
1541
330
1542
330
1543
330
1550
330
1551
330
1552
330
1553
330
1554
330
1555
330
1556
330
1557
330
1558
330
1559
330
155A
330
155B
330
155C
330
155D
330
155E
330
155F
330
1560
330
1561
330
1562
330
1563
330
1565
330
1566
330
1567
330
2689
  0
IDBUFFER
  5
282A
330
0
100
AcDbIdBuffer
330
30F7
330
30F8
330
30F9
330
30FA
330
30FB
330
31A3
330
31A2
330
31A1
330
31A0
330
319F
  0
IDBUFFER
  5
282B
330
0
100
AcDbIdBuffer
  0
IDBUFFER
  5
282C
330
0
100
AcDbIdBuffer
330
2F17
330
2F18
330
2F19
330
2F1A
330
2F1B
330
2F1C
330
2F1D
330
2F1E
330
2F1F
330
2F20
330
2F21
330
2F22
330
2F23
330
2F24
330
2F25
330
2F26
330
2F27
330
2F28
330
2F29
330
2F2A
330
2F2B
330
2F2C
330
2F2D
330
2F2E
330
2F2F
330
2F30
330
2F31
330
2F32
330
2F33
330
2F34
330
2F35
330
2F36
330
2F37
330
2F38
330
2F39
330
2F3A
330
2F3B
330
2F3C
330
2F3D
330
2F3E
330
2F3F
330
2F40
330
2F41
330
2F42
330
2F43
330
2F44
330
2F45
330
2F46
330
2F47
330
2F48
330
2F49
330
2F4A
330
2F4B
330
2F4C
330
2F4D
330
2F4E
330
2F4F
330
2F50
330
2F51
330
2F52
330
2F53
330
2F54
330
2F55
330
2F56
330
2F57
330
2F58
330
2F59
330
2F5A
330
2F5B
330
2F5C
330
2F5D
330
2F5E
330
2F5F
330
2F60
330
2F61
330
2F62
330
2F63
330
2F64
330
2F65
330
2F66
330
2F67
330
2F68
330
2F69
330
2F6A
330
2F6B
330
2F6C
330
2F6D
330
2F6E
330
2F6F
330
2F70
330
2F71
330
2F72
330
2F73
330
2F74
330
2F75
330
2F76
330
2F77
330
2F78
330
2F79
330
2F7A
330
2F7B
330
2F7C
330
2F7D
330
2F7E
330
2F7F
330
2F80
330
2F81
330
2F82
330
2F83
330
2F84
330
2F85
330
2F86
330
2F87
330
2F88
330
2F89
330
2F8A
330
2F8B
330
2F8C
330
2F8D
330
2F8E
330
2F8F
330
2F90
330
2F91
330
2F92
330
2F93
330
2F94
330
2F95
330
2F96
330
2F97
330
2F98
330
2F99
330
2F9A
330
2F9B
330
2F9C
330
2F9D
330
2F9E
330
2F9F
330
2FA0
330
2FA1
330
2FA2
330
2FA3
330
2FA4
330
2FA5
330
2FA6
330
2FA7
330
2FA8
330
2FA9
330
2FAA
330
2FAB
330
2FAC
330
2FAD
330
2FAE
330
2FAF
330
2FB0
330
2FB1
330
2FB2
330
2FB3
330
2FB4
330
2FB5
330
2FB6
330
2FB7
330
2FB8
330
2FB9
330
2FBA
330
2FBB
330
2FBC
330
2FBD
330
2FBE
330
2FBF
330
2FC0
330
2FC1
330
2FC2
330
2FC3
330
2FC4
330
2FC5
330
2FC6
330
2FC7
330
2FC8
330
2FC9
330
2FD1
330
2FE2
330
2FE3
330
2FE4
330
2FEE
330
30AA
330
30BB
330
30BC
330
30D5
330
30D8
330
30D9
330
30EA
330
30EB
330
31A4
330
31A5
330
31A6
330
31A7
330
31A8
330
31A9
330
31AA
330
31AB
330
31AC
330
31AD
330
31AE
330
31AF
330
31B0
330
31B1
330
31B2
330
31B3
330
31B4
330
31B5
330
31B6
330
31B7
330
31B8
330
31B9
330
31BA
330
31BB
330
31BC
330
31BD
330
31BE
330
31BF
330
31C0
330
31C1
330
31C2
330
31C3
330
31C4
330
31C5
330
31C6
330
31C7
330
31C8
330
31C9
330
31CA
330
31CB
330
31CC
330
31CD
330
31CE
330
31CF
330
31D0
330
31D1
330
31D2
330
31D3
330
31D4
330
31D5
330
31D6
330
31D7
330
31D8
330
31D9
330
31DA
330
31DB
330
31DC
330
31DD
330
31DE
330
31DF
330
31E0
330
31E1
330
31E2
330
31E3
330
31E4
330
31E5
330
31E6
330
31E7
330
31E8
330
31E9
330
31EA
330
3208
330
3212
330
3213
330
329A
330
329D
330
329E
330
329F
330
32A1
330
32A2
330
32A3
330
32A4
330
32B1
330
32B5
330
32B6
330
32B8
330
335E
330
335F
330
3360
330
3364
330
3365
330
3366
330
3367
330
336A
330
336B
330
336C
330
336E
330
336F
330
3370
330
364A
330
364B
330
364C
330
364D
330
364E
330
364F
330
3650
330
3651
330
3652
330
3653
330
3654
330
3655
330
3656
330
3658
330
3659
330
365A
330
365B
330
365C
330
365D
330
365E
330
365F
330
3660
330
3661
  0
IDBUFFER
  5
282D
330
0
100
AcDbIdBuffer
330
33B4
330
33B5
330
33B6
330
33B7
330
33B8
330
33B9
330
33BA
330
33BB
330
33CF
330
33D0
330
33D1
330
3404
  0
IDBUFFER
  5
282E
330
0
100
AcDbIdBuffer
330
3408
330
3409
330
33EF
330
33F0
330
33F1
330
33F2
330
33F3
330
33F4
330
33F5
330
33F6
330
33F7
330
33F8
330
33F9
330
33FA
330
33FB
330
3405
330
3406
330
3407
  0
IDBUFFER
  5
369A
330
0
100
AcDbIdBuffer
330
3410
  0
XRECORD
  5
36E5
102
{ACAD_REACTORS
330
36E4
102
}
330
36E4
100
AcDbXrecord
280
     1
102
SHADEPLOT
 70
     0
102
SHADEPLOTRESLEVEL
 70
     2
102
SHADEPLOTCUSTOMDPI
 70
   300
  0
XRECORD
  5
36E3
102
{ACAD_REACTORS
330
36E2
102
}
330
36E2
100
AcDbXrecord
280
     1
102
SHADEPLOT
 70
     0
102
SHADEPLOTRESLEVEL
 70
     2
102
SHADEPLOTCUSTOMDPI
 70
   300
  0
XRECORD
  5
36E7
102
{ACAD_REACTORS
330
36E6
102
}
330
36E6
100
AcDbXrecord
280
     1
102
SHADEPLOT
 70
     0
102
SHADEPLOTRESLEVEL
 70
     2
102
SHADEPLOTCUSTOMDPI
 70
   300
  0
XRECORD
  5
AE3
102
{ACAD_REACTORS
330
AE2
102
}
330
AE2
100
AcDbXrecord
280
     1
102
MATERIAL
148
0.0
149
0.0
149
0.0
 93
        0
 94
       63
282
     0
 72
     1
 77
     1
171
     1
175
     1
179
     1
273
     0
  0
ENDSEC
  0
EOF
