  0
SECTION
  2
HEADER
  9
$ACADVER
  1
AC1015
  9
$ACADMAINTVER
 70
    20
  9
$DWGCODEPAGE
  3
ANSI_950
  9
$INSBASE
 10
0.0
 20
0.0
 30
0.0
  9
$EXTMIN
 10
537.2343456495364
 20
235.314210511621
 30
-0.0059988888702947
  9
$EXTMAX
 10
949.7668812257584
 20
535.3392128982516
 30
196.5925884443727
  9
$LIMMIN
 10
0.0
 20
0.0
  9
$LIMMAX
 10
420.0
 20
297.0
  9
$ORTHOMODE
 70
     0
  9
$REGENMODE
 70
     1
  9
$FILLMODE
 70
     1
  9
$QTEXTMODE
 70
     0
  9
$MIRRTEXT
 70
     1
  9
$LTSCALE
 40
1.0
  9
$ATTMODE
 70
     1
  9
$TEXTSIZE
 40
5.0
  9
$TRACEWID
 40
1.0
  9
$TEXTSTYLE
  7
STANDARD
  9
$CLAYER
  8
0
  9
$CELTYPE
  6
ByLayer
  9
$CECOLOR
 62
   256
  9
$CELTSCALE
 40
1.0
  9
$DISPSILH
 70
     0
  9
$DIMSCALE
 40
1.0
  9
$DIMASZ
 40
3.0
  9
$DIMEXO
 40
1.0
  9
$DIMDLI
 40
8.0
  9
$DIMRND
 40
0.0
  9
$DIMDLE
 40
0.0
  9
$DIMEXE
 40
1.5
  9
$DIMTP
 40
0.1
  9
$DIMTM
 40
0.1
  9
$DIMTXT
 40
3.5
  9
$DIMCEN
 40
3.0
  9
$DIMTSZ
 40
0.0
  9
$DIMTOL
 70
     0
  9
$DIMLIM
 70
     0
  9
$DIMTIH
 70
     0
  9
$DIMTOH
 70
     0
  9
$DIMSE1
 70
     0
  9
$DIMSE2
 70
     0
  9
$DIMTAD
 70
     1
  9
$DIMZIN
 70
     8
  9
$DIMBLK
  1

  9
$DIMASO
 70
     1
  9
$DIMSHO
 70
     1
  9
$DIMPOST
  1

  9
$DIMAPOST
  1
"
  9
$DIMALT
 70
     0
  9
$DIMALTD
 70
     2
  9
$DIMALTF
 40
0.0393701
  9
$DIMLFAC
 40
1.0
  9
$DIMTOFL
 70
     1
  9
$DIMTVP
 40
0.0
  9
$DIMTIX
 70
     0
  9
$DIMSOXD
 70
     0
  9
$DIMSAH
 70
     0
  9
$DIMBLK1
  1

  9
$DIMBLK2
  1

  9
$DIMSTYLE
  2
AM_ISO
  9
$DIMCLRD
 70
   256
  9
$DIMCLRE
 70
   256
  9
$DIMCLRT
 70
   256
  9
$DIMTFAC
 40
0.71
  9
$DIMGAP
 40
0.8
  9
$DIMJUST
 70
     0
  9
$DIMSD1
 70
     0
  9
$DIMSD2
 70
     0
  9
$DIMTOLJ
 70
     0
  9
$DIMTZIN
 70
     8
  9
$DIMALTZ
 70
     0
  9
$DIMALTTZ
 70
     0
  9
$DIMUPT
 70
     1
  9
$DIMDEC
 70
     2
  9
$DIMTDEC
 70
     8
  9
$DIMALTU
 70
     2
  9
$DIMALTTD
 70
     2
  9
$DIMTXSTY
  7
STANDARD
  9
$DIMAUNIT
 70
     0
  9
$DIMADEC
 70
     0
  9
$DIMALTRND
 40
0.0
  9
$DIMAZIN
 70
     2
  9
$DIMDSEP
 70
    46
  9
$DIMATFIT
 70
     3
  9
$DIMFRAC
 70
     0
  9
$DIMLDRBLK
  1

  9
$DIMLUNIT
 70
     2
  9
$DIMLWD
 70
    -1
  9
$DIMLWE
 70
    -1
  9
$DIMTMOVE
 70
     0
  9
$LUNITS
 70
     2
  9
$LUPREC
 70
     2
  9
$SKETCHINC
 40
1.0
  9
$FILLETRAD
 40
2.5
  9
$AUNITS
 70
     0
  9
$AUPREC
 70
     0
  9
$MENU
  1
.
  9
$ELEVATION
 40
0.0
  9
$PELEVATION
 40
0.0
  9
$THICKNESS
 40
0.0
  9
$LIMCHECK
 70
     0
  9
$CHAMFERA
 40
2.5
  9
$CHAMFERB
 40
2.5
  9
$CHAMFERC
 40
20.0
  9
$CHAMFERD
 40
0.0
  9
$SKPOLY
 70
     0
  9
$TDCREATE
 40
2453021.369367211
  9
$TDUCREATE
 40
2453021.036033877
  9
$TDUPDATE
 40
2454320.396566655
  9
$TDUUPDATE
 40
2454320.063233322
  9
$TDINDWG
 40
0.4703203472
  9
$TDUSRTIMER
 40
0.4703200000
  9
$USRTIMER
 70
     1
  9
$ANGBASE
 50
0.0
  9
$ANGDIR
 70
     0
  9
$PDMODE
 70
     0
  9
$PDSIZE
 40
0.0
  9
$PLINEWID
 40
0.0
  9
$SPLFRAME
 70
     0
  9
$SPLINETYPE
 70
     6
  9
$SPLINESEGS
 70
     8
  9
$HANDSEED
  5
3F2B
  9
$SURFTAB1
 70
     6
  9
$SURFTAB2
 70
     6
  9
$SURFTYPE
 70
     6
  9
$SURFU
 70
     6
  9
$SURFV
 70
     6
  9
$UCSBASE
  2

  9
$UCSNAME
  2

  9
$UCSORG
 10
0.0
 20
0.0
 30
0.0
  9
$UCSXDIR
 10
1.0
 20
0.0
 30
0.0
  9
$UCSYDIR
 10
0.0
 20
1.0
 30
0.0
  9
$UCSORTHOREF
  2

  9
$UCSORTHOVIEW
 70
     0
  9
$UCSORGTOP
 10
0.0
 20
0.0
 30
0.0
  9
$UCSORGBOTTOM
 10
0.0
 20
0.0
 30
0.0
  9
$UCSORGLEFT
 10
0.0
 20
0.0
 30
0.0
  9
$UCSORGRIGHT
 10
0.0
 20
0.0
 30
0.0
  9
$UCSORGFRONT
 10
0.0
 20
0.0
 30
0.0
  9
$UCSORGBACK
 10
0.0
 20
0.0
 30
0.0
  9
$PUCSBASE
  2

  9
$PUCSNAME
  2

  9
$PUCSORG
 10
0.0
 20
0.0
 30
0.0
  9
$PUCSXDIR
 10
1.0
 20
0.0
 30
0.0
  9
$PUCSYDIR
 10
0.0
 20
1.0
 30
0.0
  9
$PUCSORTHOREF
  2

  9
$PUCSORTHOVIEW
 70
     0
  9
$PUCSORGTOP
 10
0.0
 20
0.0
 30
0.0
  9
$PUCSORGBOTTOM
 10
0.0
 20
0.0
 30
0.0
  9
$PUCSORGLEFT
 10
0.0
 20
0.0
 30
0.0
  9
$PUCSORGRIGHT
 10
0.0
 20
0.0
 30
0.0
  9
$PUCSORGFRONT
 10
0.0
 20
0.0
 30
0.0
  9
$PUCSORGBACK
 10
0.0
 20
0.0
 30
0.0
  9
$USERI1
 70
     0
  9
$USERI2
 70
     0
  9
$USERI3
 70
     0
  9
$USERI4
 70
     0
  9
$USERI5
 70
     0
  9
$USERR1
 40
0.0
  9
$USERR2
 40
0.0
  9
$USERR3
 40
0.0
  9
$USERR4
 40
0.0
  9
$USERR5
 40
0.0
  9
$WORLDVIEW
 70
     1
  9
$SHADEDGE
 70
     3
  9
$SHADEDIF
 70
    70
  9
$TILEMODE
 70
     1
  9
$MAXACTVP
 70
    64
  9
$PINSBASE
 10
0.0
 20
0.0
 30
0.0
  9
$PLIMCHECK
 70
     0
  9
$PEXTMIN
 10
1.000000000000000E+20
 20
1.000000000000000E+20
 30
1.000000000000000E+20
  9
$PEXTMAX
 10
-1.000000000000000E+20
 20
-1.000000000000000E+20
 30
-1.000000000000000E+20
  9
$PLIMMIN
 10
0.0
 20
0.0
  9
$PLIMMAX
 10
420.0
 20
297.0
  9
$UNITMODE
 70
     0
  9
$VISRETAIN
 70
     1
  9
$PLINEGEN
 70
     0
  9
$PSLTSCALE
 70
     1
  9
$TREEDEPTH
 70
  3020
  9
$CMLSTYLE
  2
Standard
  9
$CMLJUST
 70
     0
  9
$CMLSCALE
 40
20.0
  9
$PROXYGRAPHICS
 70
     1
  9
$MEASUREMENT
 70
     1
  9
$CELWEIGHT
370
    -1
  9
$ENDCAPS
280
     0
  9
$JOINSTYLE
280
     0
  9
$LWDISPLAY
290
     0
  9
$INSUNITS
 70
     4
  9
$HYPERLINKBASE
  1

  9
$STYLESHEET
  1
彩色出圖.ctb
  9
$XEDIT
290
     1
  9
$CEPSNTYPE
380
     0
  9
$PSTYLEMODE
290
     1
  9
$FINGERPRINTGUID
  2
{6C02722A-18D3-491A-897A-B8025DE410A9}
  9
$VERSIONGUID
  2
{ABBBB43F-9CC2-4DF4-8C8F-8138AB33458C}
  9
$EXTNAMES
290
     1
  9
$PSVPSCALE
 40
0.0
  9
$OLESTARTUP
290
     0
  0
ENDSEC
  0
SECTION
  2
CLASSES
  0
CLASS
  1
ACDBDICTIONARYWDFLT
  2
AcDbDictionaryWithDefault
  3
ObjectDBX Classes
 90
        0
280
     0
281
     0
  0
CLASS
  1
ACDBPLACEHOLDER
  2
AcDbPlaceHolder
  3
ObjectDBX Classes
 90
        0
280
     0
281
     0
  0
CLASS
  1
LAYOUT
  2
AcDbLayout
  3
ObjectDBX Classes
 90
        0
280
     0
281
     0
  0
CLASS
  1
AMGSETTINGSOBJ
  2
AmgSettingsObj
  3
"AcadM|Product Description: AutoCAD Mechanical 2000|Company: Autodesk"
 90
        0
280
     0
281
     0
  0
CLASS
  1
ACME_DOCUMENT
  2
AcMeDbDoc
  3
AcMeServices
 90
        0
280
     0
281
     0
  0
CLASS
  1
ACMESCOPE
  2
AcMeScope
  3
AcMeServices
 90
        0
280
     0
281
     0
  0
CLASS
  1
ACMECOMMANDHISTORY
  2
AcMeCommandHistory
  3
AcMeServices
 90
        0
280
     0
281
     0
  0
CLASS
  1
ACIMSYSVARMAN
  2
AcImSysVarManager
  3
AcMeServices
 90
        0
280
     0
281
     0
  0
CLASS
  1
ACIMREALSYSVAR
  2
AcImRealSysVar
  3
AcMeServices
 90
        0
280
     0
281
     0
  0
CLASS
  1
ACIMINTSYSVAR
  2
AcImIntSysVar
  3
AcMeServices
 90
        0
280
     0
281
     0
  0
CLASS
  1
ACMEDRAWINGMAN
  2
AcMeDrawingMan
  3
AcMeServices
 90
        0
280
     0
281
     0
  0
CLASS
  1
ACMEVIEW
  2
AcMeView
  3
AcMeServices
 90
        0
280
     0
281
     0
  0
CLASS
  1
ACDBENTITYCACHE
  2
AcMeEntityCache
  3
AcMeServices
 90
        0
280
     0
281
     0
  0
CLASS
  1
GSMANAGER
  2
AcMeGSManager
  3
AcMeServices
 90
        0
280
     0
281
     0
  0
CLASS
  1
AMDTINTERNALREACTOR
  2
AmdtInternalReactor
  3
AcMeServices
 90
        0
280
     0
281
     0
  0
CLASS
  1
ACMESTATEMGR
  2
AcMeStateMgr
  3
AcMeServices
 90
        0
280
     0
281
     0
  0
CLASS
  1
ACGREFMASTER
  2
AcGrefMaster
  3
AcAttribServices
 90
        0
280
     0
281
     0
  0
CLASS
  1
ACME_DATABASE
  2
AcMeDbDatabase
  3
AcMeServices
 90
        0
280
     0
281
     0
  0
CLASS
  1
ACRFINSADJUSTERMGR
  2
AcRfInsAdjusterMgr
  3
AcMeServices
 90
        0
280
     0
281
     0
  0
CLASS
  1
ACGREFACADMASTER
  2
AcGrefacadMaster
  3
AcGrefServices
 90
        0
280
     0
281
     0
  0
CLASS
  1
AMIMASTER
  2
AmiMaster
  3
AmiServices
 90
        0
280
     0
281
     0
  0
CLASS
  1
ACMDATADICTIONARY
  2
AcmDataDictionary
  3
"AcmSymBB|Product Description: AutoCAD Mechanical 2004 DX|Company: Autodesk"
 90
        0
280
     0
281
     0
  0
CLASS
  1
ACMDATAENTRYBLOCK
  2
AcmDataEntryBlock
  3
"AcmSymBB|Product Description: AutoCAD Mechanical 2004 DX|Company: Autodesk"
 90
        0
280
     0
281
     0
  0
CLASS
  1
ACIMSTRSYSVAR
  2
AcImStrSysVar
  3
AcMeServices
 90
        0
280
     0
281
     0
  0
CLASS
  1
ACMSTANDARDISO
  2
AcmStandardISO
  3
"Amdt_StdImp|Product Description: AutoCAD Mechanical 2004 DX|Company: Autodesk"
 90
        0
280
     0
281
     0
  0
CLASS
  1
AMGOBJPROPCFG
  2
AmgObjPropCfg
  3
"AmgLay|Product Description: AutoCAD Mechanical 2000|Company: Autodesk"
 90
        1
280
     0
281
     0
  0
CLASS
  1
AMDTEDGESTANDARDISO
  2
AmdtEdgeStdISO
  3
"Amdt_StdImp|Product Description: AutoCAD Mechanical 2004 DX|Company: Autodesk"
 90
        0
280
     0
281
     0
  0
CLASS
  1
ACMSURFSTANDARDISO
  2
AcmSurfTextStdISO
  3
"Amdt_StdImp|Product Description: AutoCAD Mechanical 2004 DX|Company: Autodesk"
 90
        0
280
     0
281
     0
  0
CLASS
  1
ACMFCFSTANDARDISO
  2
AcmFCFStdISO
  3
"Amdt_StdImp|Product Description: AutoCAD Mechanical 2004 DX|Company: Autodesk"
 90
        0
280
     0
281
     0
  0
CLASS
  1
ACMWELDSTANDARDISO
  2
AcmWeldingStdISO
  3
"Amdt_StdImp|Product Description: AutoCAD Mechanical 2004 DX|Company: Autodesk"
 90
        0
280
     0
281
     0
  0
CLASS
  1
ACMIDSTANDARDISO
  2
AcmIdStdISO
  3
"Amdt_StdImp|Product Description: AutoCAD Mechanical 2004 DX|Company: Autodesk"
 90
        0
280
     0
281
     0
  0
CLASS
  1
ACMDATUMSTANDARDISO
  2
AcmDatumStdISO
  3
"Amdt_StdImp|Product Description: AutoCAD Mechanical 2004 DX|Company: Autodesk"
 90
        0
280
     0
281
     0
  0
CLASS
  1
ACMBOMSTANDARDISO
  2
AcmBOMStdISO
  3
"Amdt_StdImp|Product Description: AutoCAD Mechanical 2004 DX|Company: Autodesk"
 90
        0
280
     0
281
     0
  0
CLASS
  1
ACMDETAILSTANDARDISO
  2
AmdtDetailSymStdISO
  3
"Amdt_StdImp|Product Description: AutoCAD Mechanical 2004 DX|Company: Autodesk"
 90
        0
280
     0
281
     0
  0
CLASS
  1
ACMSECTIONSTANDARDISO
  2
AmdtSectionSymStdISO
  3
"Amdt_StdImp|Product Description: AutoCAD Mechanical 2004 DX|Company: Autodesk"
 90
        0
280
     0
281
     0
  0
CLASS
  1
ACMCENTERLINESTANDARDISO
  2
AmdtCenterLineStdISO
  3
"Amdt_StdImp|Product Description: AutoCAD Mechanical 2004 DX|Company: Autodesk"
 90
        0
280
     0
281
     0
  0
CLASS
  1
ACMNOTESTANDARDISO
  2
AmdtNoteStdISO
  3
"Amdt_StdImp|Product Description: AutoCAD Mechanical 2004 DX|Company: Autodesk"
 90
        0
280
     0
281
     0
  0
CLASS
  1
ACAMGLAYSTD
  2
AcAmgLayStd
  3
"AcAmgLayStd|Product Description: AutoCAD Mechanical 2000|Company: Autodesk"
 90
        0
280
     0
281
     0
  0
CLASS
  1
ACAMGDIMSTD
  2
AcAmgDimStd
  3
"AcAmgDimStd|Product Description: AutoCAD Mechanical 2000|Company: Autodesk"
 90
        0
280
     0
281
     0
  0
CLASS
  1
ACAMGHOLECHARTSTDISO
  2
AcAmgHoleChartStdISO
  3
ACMSYMBB_MODULE_NAME
 90
        0
280
     0
281
     0
  0
CLASS
  1
ACAMGTITLESTD
  2
AcAmgTitleStd
  3
"TITLEAPP"
 90
        0
280
     0
281
     0
  0
CLASS
  1
LAYER_INDEX
  2
AcDbLayerIndex
  3
ObjectDBX Classes
 90
        0
280
     0
281
     0
  0
CLASS
  1
IDBUFFER
  2
AcDbIdBuffer
  3
ObjectDBX Classes
 90
        0
280
     0
281
     0
  0
CLASS
  1
DICTIONARYVAR
  2
AcDbDictionaryVar
  3
ObjectDBX Classes
 90
        0
280
     0
281
     0
  0
CLASS
  1
ACAMGFILTERDAT
  2
AcAmgFilterDat
  3
"AcadM|Product Description: AutoCAD Mechanical 2000|Company: Autodesk"
 90
    32768
280
     0
281
     0
  0
CLASS
  1
AMDTFORMULAUPDATEDISPATCHER
  2
AmdtFormulaUpdateDispatcher
  3
AcMeServices
 90
    32768
280
     0
281
     0
  0
CLASS
  1
DIMASSOC
  2
AcDbDimAssoc
  3
"AcDbDimAssoc|Product Desc:     AcDim ARX App For Dimension|Company:          Autodesk, Inc.|WEB Address:      www.autodesk.com"
 90
        0
280
     0
281
     0
  0
CLASS
  1
AMDTNOTE
  2
AmdtNote
  3
"AcmSymBB|Product Description: AutoCAD Mechanical 2004 DX|Company: Autodesk"
 90
    33791
280
     0
281
     1
  0
CLASS
  1
TABLESTYLE
  2
AcDbTableStyle
  3
ObjectDBX Classes
 90
     2047
280
     0
281
     0
  0
CLASS
  1
AM_DRAWING_MGR
  2
AcDmDwgMgr
  3
AcMechDwgViewMgmt
 90
        0
280
     0
281
     0
  0
CLASS
  1
AM_DWG_DOCUMENT
  2
AcDmDwgDocument
  3
AcMechDwgViewMgmt
 90
        0
280
     0
281
     0
  0
CLASS
  1
AM_DWG_SHEET
  2
AcDmSheet
  3
AcMechDwgViewMgmt
 90
        0
280
     0
281
     0
  0
CLASS
  1
AM_VIEWDIMPARMAP
  2
AcDmViewDimParMap
  3
AcMechDwgViewMgmt
 90
        0
280
     0
281
     0
  0
CLASS
  1
AM_DWGMGR_NAME
  2
AcDmDwgMgrName
  3
AcMechDwgViewMgmt
 90
        0
280
     0
281
     0
  0
CLASS
  1
AMDTMENUSTATEMGR
  2
AmdtMenuStateMgr
  3
McadcomServices
 90
        0
280
     0
281
     0
  0
CLASS
  1
AMDTMCOMMENUSTATE
  2
AmdtMcomMenuState
  3
McadcomServices
 90
        0
280
     0
281
     0
  0
CLASS
  1
MAPIAMMOUDLE
  2
MApiAmModule
  3
MApiAmServices
 90
        0
280
     0
281
     0
  0
CLASS
  1
AMDTADMENUSTATE
  2
AmdtAdMenuState
  3
DesignerServices
 90
        0
280
     0
281
     0
  0
CLASS
  1
ADAPPL
  2
AcAdAppl
  3
DesignerServices
 90
        0
280
     0
281
     0
  0
CLASS
  1
DEPMGR
  2
AcAdDepMgr
  3
DesignerServices
 90
        0
280
     0
281
     0
  0
CLASS
  1
PARAMMGR
  2
AcAdParamMgr
  3
DesignerServices
 90
        0
280
     0
281
     0
  0
CLASS
  1
PARAMSCOPE
  2
AcAdParamScope
  3
DesignerServices
 90
        0
280
     0
281
     0
  0
CLASS
  1
NAMEDAPPL
  2
AcAdNamedAppl
  3
DesignerServices
 90
        0
280
     0
281
     0
  0
CLASS
  1
AMDTDMMENUSTATE
  2
AmdtDmMenuState
  3
AcMechDwgViewMgmt
 90
        0
280
     0
281
     0
  0
CLASS
  1
AMDTAMMENUSTATE
  2
AmdtAmMenuState
  3
DesignerAssemblies
 90
        0
280
     0
281
     0
  0
CLASS
  1
ACAMPROJECT
  2
AcAmProject
  3
DesignerAssemblies
 90
        0
280
     0
281
     0
  0
CLASS
  1
ACAMGRCOMPDEF
  2
AcAmGrCompDef
  3
DesignerAssemblies
 90
        0
280
     0
281
     0
  0
CLASS
  1
ACCMCONTEXT
  2
AcCmContext
  3
DesignerAssemblies
 90
        0
280
     0
281
     0
  0
CLASS
  1
ACAMCOMPDEF
  2
AcAmCompDef
  3
DesignerAssemblies
 90
        0
280
     0
281
     0
  0
CLASS
  1
ACAMCOMPDEFMGR
  2
AcAmCompDefMgr
  3
DesignerAssemblies
 90
        0
280
     0
281
     0
  0
CLASS
  1
AMCONTEXTMGR
  2
AcAmContextMgr
  3
DesignerAssemblies
 90
        0
280
     0
281
     0
  0
CLASS
  1
ACAMCONTEXTMODELER
  2
AcAmContextModeler
  3
DesignerAssemblies
 90
        0
280
     0
281
     0
  0
CLASS
  1
ACMTHREADLINESTANDARDISO
  2
AmdtThreadLineStdISO
  3
"Amdt_StdImp|Product Description: AutoCAD Mechanical 2004 DX|Company: Autodesk"
 90
        0
280
     0
281
     0
  0
CLASS
  1
CATALOGSTATE
  2
AcAmCatalogState
  3
DesignerAssemblies
 90
        0
280
     0
281
     0
  0
CLASS
  1
ACAMGRCOMPDEFSET
  2
AcAmGrCompDefSet
  3
DesignerAssemblies
 90
        0
280
     0
281
     0
  0
CLASS
  1
AMDTBROWSERDBTAB
  2
AmdtBrowserDbTab
  3
McadcomServices
 90
        0
280
     0
281
     0
  0
CLASS
  1
CBROWSERAPPOBJECT
  2
CBrowserAppObject
  3
McadcomServices
 90
        0
280
     0
281
     0
  0
CLASS
  1
DM_PLACEHOLDER
  2
AcDmSelsetPlaceholder
  3
AcMechDwgViewMgmt
 90
        0
280
     0
281
     0
  0
CLASS
  1
VAACXREFPANELOBJECT
  2
VaAcXREFPanelObject
  3
VAAC_ADDIN
 90
    32768
280
     0
281
     0
  0
CLASS
  1
VAACIMAGEINVENTORY
  2
VaAcImageInventory
  3
VAAC_ADDIN
 90
    32768
280
     0
281
     0
  0
CLASS
  1
AMDTEDGESTANDARDISO13715
  2
AmdtEdgeStdISO13715
  3
"Amdt_StdImp|Product Description: AutoCAD Mechanical 2004 DX|Company: Autodesk"
 90
    32768
280
     0
281
     0
  0
CLASS
  1
AMDTNOTETEMPLATEDB
  2
AmdtNoteTemplateDB
  3
AMDT_STDIMP_MODULE_NAME
 90
        0
280
     0
281
     0
  0
CLASS
  1
ACRFATTGENMGR
  2
AcRfAttGeneralMgr
  3
AcAttribServices
 90
        0
280
     0
281
     0
  0
CLASS
  1
SORTENTSTABLE
  2
AcDbSortentsTable
  3
ObjectDBX Classes
 90
        0
280
     0
281
     0
  0
CLASS
  1
STDPART2D
  2
AmgStdPart
  3
"AmgStdPart|Product Description: AutoCAD Mechanical 2000|Company: Autodesk"
 90
    33791
280
     0
281
     1
  0
CLASS
  1
ACAMSTDPCOMPDEF
  2
AcAmStdpCompDef
  3
DesignerAssemblies
 90
    32768
280
     0
281
     0
  0
CLASS
  1
ACRFOBJATTMGR
  2
AcRfObjAttGroupMgr
  3
AcAttribServices
 90
    32768
280
     0
281
     0
  0
CLASS
  1
ACRFMCADAPIATTHOLDER
  2
AcRfMCADAPIAttHolder
  3
AcAttribServices
 90
    32768
280
     0
281
     0
  0
CLASS
  1
AMDTSYSATTR
  2
AmdtSystemAttribute
  3
AcAttribServices
 90
    32768
280
     0
281
     0
  0
CLASS
  1
ACAMCOMP
  2
AcAmComp
  3
DesignerAssemblies
 90
    32768
280
     0
281
     0
  0
CLASS
  1
AC_AM_STDP_VIEW_DEF
  2
AcAmStdpViewDef
  3
DesignerAssemblies
 90
    32768
280
     0
281
     0
  0
CLASS
  1
AC_AM_MVD_DEP_MGR
  2
AcAmMVDdepMgr
  3
DesignerAssemblies
 90
    32768
280
     0
281
     0
  0
CLASS
  1
AC_AM_MASTER_VIEW_DEF
  2
AcAmMasterViewDef
  3
DesignerAssemblies
 90
    32768
280
     0
281
     0
  0
CLASS
  1
AC_AM_DIRTY_NODES
  2
AcAmDirtyNodes
  3
DesignerAssemblies
 90
    32768
280
     0
281
     0
  0
CLASS
  1
AC_AM_MAPPER_CACHE
  2
AcAmMapperCache
  3
DesignerAssemblies
 90
    32768
280
     0
281
     0
  0
CLASS
  1
ACAMMVDBACKUPOBJECT
  2
AcAmMVDBackupObject
  3
DesignerAssemblies
 90
    32768
280
     0
281
     0
  0
CLASS
  1
AC_AM_COMP_VIEW_INST
  2
AcAmCompView
  3
DesignerAssemblies
 90
    32768
280
     0
281
     0
  0
CLASS
  1
AC_AM_2D_XREF_MGR
  2
AcAmXrefMgr2d
  3
DesignerAssemblies
 90
    32768
280
     0
281
     0
  0
CLASS
  1
ACMSTANDARDANSI
  2
AcmStandardANSI
  3
"Amdt_StdImp|Product Description: AutoCAD Mechanical 2004 DX|Company: Autodesk"
 90
        0
280
     0
281
     0
  0
CLASS
  1
ACMSURFSTANDARDANSI
  2
AcmSurfTextStdANSI
  3
"Amdt_StdImp|Product Description: AutoCAD Mechanical 2004 DX|Company: Autodesk"
 90
        0
280
     0
281
     0
  0
CLASS
  1
ACMFCFSTANDARDANSI
  2
AcmFCFStdANSI
  3
"Amdt_StdImp|Product Description: AutoCAD Mechanical 2004 DX|Company: Autodesk"
 90
        0
280
     0
281
     0
  0
CLASS
  1
ACMWELDSTANDARDANSI
  2
AcmWeldingStdANSI
  3
"Amdt_StdImp|Product Description: AutoCAD Mechanical 2004 DX|Company: Autodesk"
 90
        0
280
     0
281
     0
  0
CLASS
  1
ACMIDSTANDARDANSI
  2
AcmIdStdANSI
  3
"Amdt_StdImp|Product Description: AutoCAD Mechanical 2004 DX|Company: Autodesk"
 90
        0
280
     0
281
     0
  0
CLASS
  1
ACMDATUMSTANDARDANSI
  2
AcmDatumStdANSI
  3
"Amdt_StdImp|Product Description: AutoCAD Mechanical 2004 DX|Company: Autodesk"
 90
        0
280
     0
281
     0
  0
CLASS
  1
ACMBOMSTANDARDANSI
  2
AcmBOMStdANSI
  3
"Amdt_StdImp|Product Description: AutoCAD Mechanical 2004 DX|Company: Autodesk"
 90
        0
280
     0
281
     0
  0
CLASS
  1
ACMDETAILSTANDARDANSI
  2
AmdtDetailSymStdANSI
  3
"Amdt_StdImp|Product Description: AutoCAD Mechanical 2004 DX|Company: Autodesk"
 90
        0
280
     0
281
     0
  0
CLASS
  1
ACMSECTIONSTANDARDANSI
  2
AmdtSectionSymStdANSI
  3
"Amdt_StdImp|Product Description: AutoCAD Mechanical 2004 DX|Company: Autodesk"
 90
        0
280
     0
281
     0
  0
CLASS
  1
ACMCENTERLINESTANDARDANSI
  2
AmdtCenterLineStdANSI
  3
"Amdt_StdImp|Product Description: AutoCAD Mechanical 2004 DX|Company: Autodesk"
 90
        0
280
     0
281
     0
  0
CLASS
  1
ACMTHREADLINESTANDARDANSI
  2
AmdtThreadLineStdANSI
  3
"Amdt_StdImp|Product Description: AutoCAD Mechanical 2004 DX|Company: Autodesk"
 90
        0
280
     0
281
     0
  0
CLASS
  1
ACMNOTESTANDARDANSI
  2
AmdtNoteStdANSI
  3
"Amdt_StdImp|Product Description: AutoCAD Mechanical 2004 DX|Company: Autodesk"
 90
        0
280
     0
281
     0
  0
CLASS
  1
ACAMGHOLECHARTSTDANSI
  2
AcAmgHoleChartStdANSI
  3
ACMSYMBB_MODULE_NAME
 90
        0
280
     0
281
     0
  0
CLASS
  1
ASAPP
  2
AcAsAppObject
  3
AutoSurfServices
 90
        0
280
     0
281
     0
  0
CLASS
  1
IM_STATIC_MAN
  2
AcImStaticVarManager
  3
AcMeServices
 90
        0
280
     0
281
     0
  0
CLASS
  1
ACIMDBLSTATICVAR
  2
AcImDblStaticVar
  3
AcMeServices
 90
        0
280
     0
281
     0
  0
CLASS
  1
ACIMSTRSTATICVAR
  2
AcImStrStaticVar
  3
AcMeServices
 90
        0
280
     0
281
     0
  0
CLASS
  1
ACIMINTSTATICVAR
  2
AcImIntStaticVar
  3
AcMeServices
 90
        0
280
     0
281
     0
  0
CLASS
  1
ACASGREFMASTER
  2
AcAsGrefMaster
  3
AutoSurfResolverServices
 90
        0
280
     0
281
     0
  0
CLASS
  1
ACADGREFMODULE
  2
AcAdGrefModule
  3
AdGrefServices
 90
        0
280
     0
281
     0
  0
CLASS
  1
AMDTMAPISURFMOUDULE
  2
AmdtMApiSurfModule
  3
MApiSurfServices
 90
        0
280
     0
281
     0
  0
CLASS
  1
MAPIADMODULE
  2
MApiAdModule
  3
MApiAdServices
 90
        0
280
     0
281
     0
  0
CLASS
  1
ACMSTANDARDJIS
  2
AcmStandardJIS
  3
"Amdt_StdImp|Product Description: AutoCAD Mechanical 2004 DX|Company: Autodesk"
 90
        0
280
     0
281
     0
  0
CLASS
  1
ACMSURFSTANDARDJIS
  2
AcmSurfTextStdJIS
  3
"Amdt_StdImp|Product Description: AutoCAD Mechanical 2004 DX|Company: Autodesk"
 90
        0
280
     0
281
     0
  0
CLASS
  1
ACMFCFSTANDARDJIS98
  2
AcmFCFStdJIS98
  3
"Amdt_StdImp|Product Description: AutoCAD Mechanical 2004 DX|Company: Autodesk"
 90
        0
280
     0
281
     0
  0
CLASS
  1
ACMWELDSTANDARDJIS
  2
AcmWeldingStdJIS
  3
"Amdt_StdImp|Product Description: AutoCAD Mechanical 2004 DX|Company: Autodesk"
 90
        0
280
     0
281
     0
  0
CLASS
  1
ACMIDSTANDARDJIS
  2
AcmIdStdJIS
  3
"Amdt_StdImp|Product Description: AutoCAD Mechanical 2004 DX|Company: Autodesk"
 90
        0
280
     0
281
     0
  0
CLASS
  1
ACMDATUMSTANDARDJIS
  2
AcmDatumStdJIS
  3
"Amdt_StdImp|Product Description: AutoCAD Mechanical 2004 DX|Company: Autodesk"
 90
        0
280
     0
281
     0
  0
CLASS
  1
ACMBOMSTANDARDJIS
  2
AcmBOMStdJIS
  3
"Amdt_StdImp|Product Description: AutoCAD Mechanical 2004 DX|Company: Autodesk"
 90
        0
280
     0
281
     0
  0
CLASS
  1
ACMDETAILSTANDARDJIS
  2
AmdtDetailSymStdJIS
  3
"Amdt_StdImp|Product Description: AutoCAD Mechanical 2004 DX|Company: Autodesk"
 90
        0
280
     0
281
     0
  0
CLASS
  1
ACMSECTIONSTANDARDJIS
  2
AmdtSectionSymStdJIS
  3
"Amdt_StdImp|Product Description: AutoCAD Mechanical 2004 DX|Company: Autodesk"
 90
        0
280
     0
281
     0
  0
CLASS
  1
ACMCENTERLINESTANDARDJIS
  2
AmdtCenterLineStdJIS
  3
"Amdt_StdImp|Product Description: AutoCAD Mechanical 2004 DX|Company: Autodesk"
 90
        0
280
     0
281
     0
  0
CLASS
  1
ACMTHREADLINESTANDARDJIS
  2
AmdtThreadLineStdJIS
  3
"Amdt_StdImp|Product Description: AutoCAD Mechanical 2004 DX|Company: Autodesk"
 90
        0
280
     0
281
     0
  0
CLASS
  1
ACMNOTESTANDARDJIS
  2
AmdtNoteStdJIS
  3
"Amdt_StdImp|Product Description: AutoCAD Mechanical 2004 DX|Company: Autodesk"
 90
        0
280
     0
281
     0
  0
CLASS
  1
ACAMGHOLECHARTSTDJIS
  2
AcAmgHoleChartStdJIS
  3
ACMSYMBB_MODULE_NAME
 90
        0
280
     0
281
     0
  0
ENDSEC
  0
SECTION
  2
TABLES
  0
TABLE
  2
VPORT
  5
8
330
0
100
AcDbSymbolTable
 70
    10
  0
VPORT
  5
3F22
330
8
100
AcDbSymbolTableRecord
100
AcDbViewportTableRecord
  2
*Active
 70
     0
 10
0.0
 20
0.0
 11
1.0
 21
1.0
 12
0.9002926791256538
 22
-62.51905262334344
 13
0.0
 23
0.0
 14
2.5
 24
2.5
 15
10.0
 25
10.0
 16
0.0
 26
0.0
 36
1.0
 17
742.6003207585218
 27
447.8457643282797
 37
0.0
 40
302.4675397194933
 41
1.413043478260869
 42
50.0
 43
0.0
 44
0.0
 50
0.0
 51
0.0
 71
     0
 72
  2000
 73
     1
 74
     3
 75
     0
 76
     0
 77
     0
 78
     0
281
     0
 65
     0
110
0.0
120
0.0
130
0.0
111
1.0
121
0.0
131
0.0
112
0.0
122
1.0
132
0.0
 79
     0
146
0.0
  0
ENDTAB
  0
TABLE
  2
LTYPE
  5
5
330
0
100
AcDbSymbolTable
 70
    23
  0
LTYPE
  5
14
330
5
100
AcDbSymbolTableRecord
100
AcDbLinetypeTableRecord
  2
ByBlock
 70
     0
  3

 72
    65
 73
     0
 40
0.0
  0
LTYPE
  5
15
330
5
100
AcDbSymbolTableRecord
100
AcDbLinetypeTableRecord
  2
ByLayer
 70
     0
  3

 72
    65
 73
     0
 40
0.0
  0
LTYPE
  5
16
330
5
100
AcDbSymbolTableRecord
100
AcDbLinetypeTableRecord
  2
Continuous
 70
     0
  3
Solid line
 72
    65
 73
     0
 40
0.0
  0
LTYPE
  5
4D
330
5
100
AcDbSymbolTableRecord
100
AcDbLinetypeTableRecord
  2
AM_ISO02W050
 70
     0
  3
__ __ __ __ __ __ __ __ __ __ __ __ __ __ __
 72
    65
 73
     2
 40
7.5
 49
6.0
 74
     0
 49
-1.5
 74
     0
  0
LTYPE
  5
4E
330
5
100
AcDbSymbolTableRecord
100
AcDbLinetypeTableRecord
  2
AM_ISO08W050
 70
     0
  3
____ . ____ . ____ . ____ . ____ . ____ . ____
 72
    65
 73
     4
 40
18.0
 49
12.0
 74
     0
 49
-1.5
 74
     0
 49
3.0
 74
     0
 49
-1.5
 74
     0
  0
LTYPE
  5
4F
330
5
100
AcDbSymbolTableRecord
100
AcDbLinetypeTableRecord
  2
AM_ISO09W050
 70
     0
  3
_____ . . _____ . . _____ . . ____ .. ____
 72
    65
 73
     6
 40
22.5
 49
12.0
 74
     0
 49
-1.5
 74
     0
 49
3.0
 74
     0
 49
-1.5
 74
     0
 49
3.0
 74
     0
 49
-1.5
 74
     0
  0
LTYPE
  5
50
330
5
100
AcDbSymbolTableRecord
100
AcDbLinetypeTableRecord
  2
Amconstr
 70
     0
  3
_______________________
 72
    65
 73
     2
 40
9999.0
 49
9999.0
 74
     0
 49
0.0
 74
     0
  0
LTYPE
  5
51
330
5
100
AcDbSymbolTableRecord
100
AcDbLinetypeTableRecord
  2
AM_ISO08W050x2
 70
     0
  3
__ . __ . __ . __ . __ . __
 72
    65
 73
     4
 40
9.0
 49
6.0
 74
     0
 49
-0.75
 74
     0
 49
1.5
 74
     0
 49
-0.75
 74
     0
  0
LTYPE
  5
52
330
5
100
AcDbSymbolTableRecord
100
AcDbLinetypeTableRecord
  2
AM_ISO02W050x2
 70
     0
  3
 _ _ _ _ _ _ _ _ _ _ _ _
 72
    65
 73
     2
 40
3.75
 49
3.0
 74
     0
 49
-0.75
 74
     0
  0
LTYPE
  5
55
330
5
100
AcDbSymbolTableRecord
100
AcDbLinetypeTableRecord
  2
amzigzag
 70
     0
  3
/\/-/\/-/\/-/\/-/\/-/\/
 72
    65
 73
     2
 40
11.0001
 49
0.0001
 74
     4
 75
   135
340
54
 46
0.04
 50
0.0
 44
0.0
 45
0.0
 49
-11.0
 74
     0
  0
LTYPE
  5
63
330
5
100
AcDbSymbolTableRecord
100
AcDbLinetypeTableRecord
  2
ACISOWELD
 70
     0
  3
_ _ _ _ _
 72
    65
 73
     2
 40
2.0
 49
2.0
 74
     0
 49
-1.0
 74
     0
  0
LTYPE
  5
64
330
5
100
AcDbSymbolTableRecord
100
AcDbLinetypeTableRecord
  2
ACISOTGB
 70
     0
  3
__ . . __ . .
 72
    65
 73
     6
 40
9.0
 49
4.0
 74
     0
 49
-1.0
 74
     0
 49
1.0
 74
     0
 49
-1.0
 74
     0
 49
1.0
 74
     0
 49
-1.0
 74
     0
  0
LTYPE
  5
65
330
5
100
AcDbSymbolTableRecord
100
AcDbLinetypeTableRecord
  2
ACISOTGL
 70
     0
  3
_ _ _ _ _
 72
    65
 73
     2
 40
3.0
 49
2.0
 74
     0
 49
-1.0
 74
     0
  0
LTYPE
  5
68
330
5
100
AcDbSymbolTableRecord
100
AcDbLinetypeTableRecord
  2
CENTER
 70
     0
  3
____ _ ____ _ ____ _ ____ _ ____ _ ____ _ ____ 
 72
    65
 73
     4
 40
2.0
 49
1.25
 74
     0
 49
-0.25
 74
     0
 49
0.25
 74
     0
 49
-0.25
 74
     0
  0
LTYPE
  5
806
330
5
100
AcDbSymbolTableRecord
100
AcDbLinetypeTableRecord
  2
HIDDEN
 70
     0
  3
__ __ __ __ __ __ __ __ __ __ __ __ __ __ __ __
 72
    65
 73
     2
 40
0.375
 49
0.25
 74
     0
 49
-0.125
 74
     0
  0
LTYPE
  5
807
330
5
100
AcDbSymbolTableRecord
100
AcDbLinetypeTableRecord
  2
PHANTOM2
 70
     0
  3
___ _ _ ___ _ _ ___ _ _ ___ _ _ ___ _ _ ___ _ _
 72
    65
 73
     6
 40
1.25
 49
0.625
 74
     0
 49
-0.125
 74
     0
 49
0.125
 74
     0
 49
-0.125
 74
     0
 49
0.125
 74
     0
 49
-0.125
 74
     0
  0
LTYPE
  5
1655
330
5
100
AcDbSymbolTableRecord
100
AcDbLinetypeTableRecord
  2
ACANSTGB
 70
     0
  3
__ . . __ . .
 72
    65
 73
     6
 40
0.35433070866
 49
0.15748031496
 74
     0
 49
-0.03937007874
 74
     0
 49
0.03937007874
 74
     0
 49
-0.03937007874
 74
     0
 49
0.03937007874
 74
     0
 49
-0.03937007874
 74
     0
  0
LTYPE
  5
1656
330
5
100
AcDbSymbolTableRecord
100
AcDbLinetypeTableRecord
  2
ACANSTGL
 70
     0
  3
_ _ _ _ _
 72
    65
 73
     2
 40
0.11811023622
 49
0.07874015748
 74
     0
 49
-0.03937007874
 74
     0
  0
LTYPE
  5
28DE
330
5
100
AcDbSymbolTableRecord
100
AcDbLinetypeTableRecord
  2
CENTER2
 70
     0
  3
Center (.5x) ___ _ ___ _ ___ _ ___ _ ___ _ ___
 72
    65
 73
     4
 40
1.125
 49
0.75
 74
     0
 49
-0.125
 74
     0
 49
0.125
 74
     0
 49
-0.125
 74
     0
  0
LTYPE
  5
28DF
330
5
100
AcDbSymbolTableRecord
100
AcDbLinetypeTableRecord
  2
HIDDEN2
 70
     0
  3
Hidden (.5x) _ _ _ _ _ _ _ _ _ _ _ _ _ _ _ _ _
 72
    65
 73
     2
 40
0.1875
 49
0.125
 74
     0
 49
-0.0625
 74
     0
  0
LTYPE
  5
28E0
330
5
100
AcDbSymbolTableRecord
100
AcDbLinetypeTableRecord
  2
Amzigzag2
 70
     0
  3
/\/-/\/-/\/-/\/-/\/-/\/
 72
    65
 73
     2
 40
0.4401
 49
0.0001
 74
     4
 75
   135
340
54
 46
0.0016
 50
0.0
 44
0.0
 45
0.0
 49
-0.4400000000000001
 74
     0
  0
LTYPE
  5
2953
330
5
100
AcDbSymbolTableRecord
100
AcDbLinetypeTableRecord
  2
ACJISTGB
 70
     0
  3
__ . . __ . .
 72
    65
 73
     6
 40
9.0
 49
4.0
 74
     0
 49
-1.0
 74
     0
 49
1.0
 74
     0
 49
-1.0
 74
     0
 49
1.0
 74
     0
 49
-1.0
 74
     0
  0
LTYPE
  5
2954
330
5
100
AcDbSymbolTableRecord
100
AcDbLinetypeTableRecord
  2
ACJISTGL
 70
     0
  3
_ _ _ _ _
 72
    65
 73
     2
 40
3.0
 49
2.0
 74
     0
 49
-1.0
 74
     0
  0
ENDTAB
  0
TABLE
  2
LAYER
  5
2
102
{ACAD_XDICTIONARY
360
AAB
102
}
330
0
100
AcDbSymbolTable
 70
    17
  0
LAYER
  5
10
330
2
100
AcDbSymbolTableRecord
100
AcDbLayerTableRecord
  2
0
 70
     0
 62
     7
  6
Continuous
370
    -3
390
F
  0
LAYER
  5
43E
330
2
100
AcDbSymbolTableRecord
100
AcDbLayerTableRecord
  2
Defpoints
 70
     0
 62
     7
  6
Continuous
290
     0
370
    -3
390
F
  0
LAYER
  5
CD5
330
2
100
AcDbSymbolTableRecord
100
AcDbLayerTableRecord
  2
AM_7
 70
     0
 62
     1
  6
CENTER
370
    25
390
F
  0
LAYER
  5
CD6
330
2
100
AcDbSymbolTableRecord
100
AcDbLayerTableRecord
  2
AM_VIS
 70
     0
 62
     7
  6
Continuous
370
    50
390
F
  0
LAYER
  5
CD7
330
2
100
AcDbSymbolTableRecord
100
AcDbLayerTableRecord
  2
AM_4
 70
     0
 62
     3
  6
Continuous
370
    25
390
F
  0
LAYER
  5
135E
330
2
100
AcDbSymbolTableRecord
100
AcDbLayerTableRecord
  2
LOGO
 70
     0
 62
     7
  6
Continuous
370
    -3
390
F
  0
LAYER
  5
1B6D
330
2
100
AcDbSymbolTableRecord
100
AcDbLayerTableRecord
  2
AM_0N
 70
     0
 62
     7
  6
Continuous
370
    50
390
F
  0
ENDTAB
  0
TABLE
  2
STYLE
  5
3
330
0
100
AcDbSymbolTable
 70
    11
  0
STYLE
  5
11
330
3
100
AcDbSymbolTableRecord
100
AcDbTextStyleTableRecord
  2
STANDARD
 70
     0
 40
0.0
 41
1.0
 50
0.0
 71
     0
 42
5.0
  3
ISOCP.SHX
  4
CHINESET.SHX
  0
STYLE
  5
54
330
3
100
AcDbSymbolTableRecord
100
AcDbTextStyleTableRecord
  2

 70
     1
 40
0.0
 41
1.0
 50
0.0
 71
     0
 42
2.5
  3
ltypeshp.shx
  4

  0
STYLE
  5
56
330
3
100
AcDbSymbolTableRecord
100
AcDbTextStyleTableRecord
  2
ACISOTS
 70
     0
 40
1.0
 41
1.0
 50
0.0
 71
     0
 42
1.0
  3
isocp.shx
  4
chineset.shx
  0
STYLE
  5
62
330
3
100
AcDbSymbolTableRecord
100
AcDbTextStyleTableRecord
  2
ACISOGDT
 70
     0
 40
0.0
 41
1.0
 50
0.0
 71
     0
 42
3.5
  3
amgdt.shx
  4
chineset.shx
  0
STYLE
  5
1360
330
3
100
AcDbSymbolTableRecord
100
AcDbTextStyleTableRecord
  2
CHINESET
 70
     0
 40
0.0
 41
1.0
 50
0.0
 71
     0
 42
4.0
  3
simplex.shx
  4
chineset.shx
  0
STYLE
  5
165A
330
3
100
AcDbSymbolTableRecord
100
AcDbTextStyleTableRecord
  2
ACANSTS
 70
     0
 40
1.0
 41
1.0
 50
0.0
 71
     0
 42
3.5
  3
romans.shx
  4
chineset.shx
  0
STYLE
  5
165B
330
3
100
AcDbSymbolTableRecord
100
AcDbTextStyleTableRecord
  2
ACANSGDT
 70
     0
 40
0.0
 41
1.0
 50
0.0
 71
     0
 42
3.5
  3
amgdt.shx
  4
chineset.shx
  0
STYLE
  5
2958
330
3
100
AcDbSymbolTableRecord
100
AcDbTextStyleTableRecord
  2
ACJISTS
 70
     0
 40
1.0
 41
1.0
 50
0.0
 71
     0
 42
3.5
  3
romans.shx
  4
chineset.shx
  0
STYLE
  5
2959
330
3
100
AcDbSymbolTableRecord
100
AcDbTextStyleTableRecord
  2
ACJISGDT
 70
     0
 40
0.0
 41
1.0
 50
0.0
 71
     0
 42
3.5
  3
romans.shx
  4
chineset.shx
  0
ENDTAB
  0
TABLE
  2
VIEW
  5
6
330
0
100
AcDbSymbolTable
 70
     0
  0
ENDTAB
  0
TABLE
  2
UCS
  5
7
330
0
100
AcDbSymbolTable
 70
     0
  0
ENDTAB
  0
TABLE
  2
APPID
  5
9
330
0
100
AcDbSymbolTable
 70
    43
  0
APPID
  5
12
330
9
100
AcDbSymbolTableRecord
100
AcDbRegAppTableRecord
  2
ACAD
 70
     0
  0
APPID
  5
30
330
9
100
AcDbSymbolTableRecord
100
AcDbRegAppTableRecord
  2
MCAD_NO_VIS
 70
     0
  0
APPID
  5
31
330
9
100
AcDbSymbolTableRecord
100
AcDbRegAppTableRecord
  2
ACAD_TEMP_GRAPHIC
 70
     0
  0
APPID
  5
42
330
9
100
AcDbSymbolTableRecord
100
AcDbRegAppTableRecord
  2
ACATTRIBSERVICES
 70
     0
  0
APPID
  5
20A
330
9
100
AcDbSymbolTableRecord
100
AcDbRegAppTableRecord
  2
GENIUS_GENODEF_13
 70
     0
  0
APPID
  5
20B
330
9
100
AcDbSymbolTableRecord
100
AcDbRegAppTableRecord
  2
GENIUS_GENOBJ-N-HTC_13
 70
     0
  0
APPID
  5
20C
330
9
100
AcDbSymbolTableRecord
100
AcDbRegAppTableRecord
  2
GENIUS_GENHATCH_13
 70
     0
  0
APPID
  5
809
330
9
100
AcDbSymbolTableRecord
100
AcDbRegAppTableRecord
  2
AD_DRAW
 70
     0
  0
APPID
  5
827
330
9
100
AcDbSymbolTableRecord
100
AcDbRegAppTableRecord
  2
DESIGNERASSEMBLIES
 70
     0
  0
APPID
  5
82C
330
9
100
AcDbSymbolTableRecord
100
AcDbRegAppTableRecord
  2
ACADM_DIM_EDIT
 70
     0
  0
APPID
  5
82D
330
9
100
AcDbSymbolTableRecord
100
AcDbRegAppTableRecord
  2
AMDT_DM_ADJ
 70
     0
  0
APPID
  5
FE4
330
9
100
AcDbSymbolTableRecord
100
AcDbRegAppTableRecord
  2
GENIUS_GENDTOL_13
 70
     0
  0
APPID
  5
108C
330
9
100
AcDbSymbolTableRecord
100
AcDbRegAppTableRecord
  2
ACAD_DSTYLE_DIMTEXT_FILL
 70
     0
  0
APPID
  5
1201
330
9
100
AcDbSymbolTableRecord
100
AcDbRegAppTableRecord
  2
GEVID1116400677
 70
     0
  0
APPID
  5
1202
330
9
100
AcDbSymbolTableRecord
100
AcDbRegAppTableRecord
  2
GEVDC
 70
     0
  0
APPID
  5
1203
330
9
100
AcDbSymbolTableRecord
100
AcDbRegAppTableRecord
  2
GEVRADREF
 70
     0
  0
APPID
  5
120C
330
9
100
AcDbSymbolTableRecord
100
AcDbRegAppTableRecord
  2
AMG_2DHIDE
 70
     0
  0
APPID
  5
120D
330
9
100
AcDbSymbolTableRecord
100
AcDbRegAppTableRecord
  2
AMG_2DSTRUCT_BTR
 70
     0
  0
APPID
  5
121E
330
9
100
AcDbSymbolTableRecord
100
AcDbRegAppTableRecord
  2
ACADM_2DVIEW_IGN_NOTIFY
 70
     0
  0
APPID
  5
1361
330
9
100
AcDbSymbolTableRecord
100
AcDbRegAppTableRecord
  2
GENIUS_GENREC_14
 70
     0
  0
APPID
  5
1362
330
9
100
AcDbSymbolTableRecord
100
AcDbRegAppTableRecord
  2
GENIUS_GENOBJ-N-REC_13
 70
     0
  0
APPID
  5
182E
330
9
100
AcDbSymbolTableRecord
100
AcDbRegAppTableRecord
  2
GENIUS_GENOBJ-N-CEN_13
 70
     0
  0
APPID
  5
182F
330
9
100
AcDbSymbolTableRecord
100
AcDbRegAppTableRecord
  2
GENIUS_GENCEN_19
 70
     0
  0
APPID
  5
1842
330
9
100
AcDbSymbolTableRecord
100
AcDbRegAppTableRecord
  2
GENIUS_GENOLIS_13
 70
     0
  0
APPID
  5
1843
330
9
100
AcDbSymbolTableRecord
100
AcDbRegAppTableRecord
  2
GENIUS_GENOENT_13
 70
     0
  0
APPID
  5
1844
330
9
100
AcDbSymbolTableRecord
100
AcDbRegAppTableRecord
  2
GENIUS_GENOBJ-N-CRS_13
 70
     0
  0
APPID
  5
1845
330
9
100
AcDbSymbolTableRecord
100
AcDbRegAppTableRecord
  2
GENIUS_GENOREF_13
 70
     0
  0
APPID
  5
1B74
330
9
100
AcDbSymbolTableRecord
100
AcDbRegAppTableRecord
  2
GENIUS_GENBH_13
 70
     0
  0
APPID
  5
1B75
330
9
100
AcDbSymbolTableRecord
100
AcDbRegAppTableRecord
  2
GENIUS_GENOBJ-NBEHI-BHF_13
 70
     0
  0
APPID
  5
1B76
330
9
100
AcDbSymbolTableRecord
100
AcDbRegAppTableRecord
  2
GENIUS_GENOBJ-NBEHI-BHB_13
 70
     0
  0
APPID
  5
1B77
330
9
100
AcDbSymbolTableRecord
100
AcDbRegAppTableRecord
  2
GENIUS_GENOBJ-F-PFASSM_13
 70
     0
  0
APPID
  5
26D2
330
9
100
AcDbSymbolTableRecord
100
AcDbRegAppTableRecord
  2
ACAD_DSTYLE_DIMEXT_LENGTH
 70
     0
  0
APPID
  5
26D3
330
9
100
AcDbSymbolTableRecord
100
AcDbRegAppTableRecord
  2
ACAD_DSTYLE_DIMEXT_ENABLED
 70
     0
  0
APPID
  5
26D4
330
9
100
AcDbSymbolTableRecord
100
AcDbRegAppTableRecord
  2
ACAD_DSTYLE_DIM_LINETYPE
 70
     0
  0
APPID
  5
26D5
330
9
100
AcDbSymbolTableRecord
100
AcDbRegAppTableRecord
  2
ACAD_DSTYLE_DIM_EXT1_LINETYPE
 70
     0
  0
APPID
  5
26D6
330
9
100
AcDbSymbolTableRecord
100
AcDbRegAppTableRecord
  2
ACAD_DSTYLE_DIM_EXT2_LINETYPE
 70
     0
  0
APPID
  5
26EA
330
9
100
AcDbSymbolTableRecord
100
AcDbRegAppTableRecord
  2
ACAD_DSTYLE_DIMJOGGED_JOGANGLE_SYMBOL
 70
     0
  0
APPID
  5
26FA
330
9
100
AcDbSymbolTableRecord
100
AcDbRegAppTableRecord
  2
ACAD_DSTYLE_DIMARC_LENGTH_SYMBOL
 70
     0
  0
APPID
  5
27FA
330
9
100
AcDbSymbolTableRecord
100
AcDbRegAppTableRecord
  2
ASURF_PCURVE_APPNAME
 70
     0
  0
APPID
  5
27FB
330
9
100
AcDbSymbolTableRecord
100
AcDbRegAppTableRecord
  2
GENIUS_GENDIM_13
 70
     0
  0
APPID
  5
27FC
330
9
100
AcDbSymbolTableRecord
100
AcDbRegAppTableRecord
  2
GENIUS_GE3DTOL_13
 70
     0
  0
APPID
  5
27FD
330
9
100
AcDbSymbolTableRecord
100
AcDbRegAppTableRecord
  2
AMG_3D2D_5.0
 70
     0
  0
APPID
  5
2961
330
9
100
AcDbSymbolTableRecord
100
AcDbRegAppTableRecord
  2
ACAD_PSEXT
 70
     0
  0
ENDTAB
  0
TABLE
  2
DIMSTYLE
  5
A
330
0
100
AcDbSymbolTable
 70
    23
100
AcDbDimStyleTable
 71
     3
340
6B
340
1B73
340
75
  0
DIMSTYLE
105
6B
330
A
100
AcDbSymbolTableRecord
100
AcDbDimStyleTableRecord
  2
AM_ISO
 70
     0
  4
"
 41
2.5
 42
1.0
 43
10.0
 44
1.0
 47
0.1
 48
0.1
 73
     0
 74
     0
 77
     1
 78
     8
 79
     2
140
3.5
141
0.0
143
0.0393701
146
0.71
147
1.5
172
     1
176
   256
177
   256
178
   256
271
     2
272
     2
283
     0
284
     8
340
11
371
    -1
372
    -1
  0
DIMSTYLE
105
6C
330
A
100
AcDbSymbolTableRecord
100
AcDbDimStyleTableRecord
  2
AM_ISO$3
 70
     0
  4
"
 41
2.5
 42
1.0
 43
10.0
 44
1.0
 47
0.1
 48
0.1
 73
     0
 77
     1
 78
     8
 79
     2
140
3.5
141
0.0
143
0.0393701
146
0.71
147
1.5
176
   256
177
   256
178
     2
271
     2
272
     3
274
     4
283
     0
284
     8
288
     1
289
     0
340
11
371
    -1
372
    -1
  0
DIMSTYLE
105
6D
330
A
100
AcDbSymbolTableRecord
100
AcDbDimStyleTableRecord
  2
AM_ISO$4
 70
     0
  4
"
 41
2.5
 42
1.0
 43
10.0
 44
1.0
 47
0.1
 48
0.1
 73
     0
 77
     1
 78
     8
 79
     2
140
3.5
141
0.0
143
0.0393701
146
0.71
147
1.5
176
   256
177
   256
178
     2
271
     2
272
     3
274
     4
283
     0
284
     8
288
     1
289
     0
340
11
371
    -1
372
    -1
  0
DIMSTYLE
105
6E
330
A
100
AcDbSymbolTableRecord
100
AcDbDimStyleTableRecord
  2
AM_ISO$6
 70
     0
  4
"
 41
2.5
 42
1.0
 43
10.0
 44
1.0
 47
0.1
 48
0.1
 73
     0
 74
     0
 78
     8
 79
     2
140
3.5
141
0.0
143
0.0393701
146
0.71
147
1.5
172
     1
176
   256
177
   256
178
     2
271
     2
272
     3
274
     4
283
     0
284
     8
340
11
371
    -1
372
    -1
  0
DIMSTYLE
105
6F
330
A
100
AcDbSymbolTableRecord
100
AcDbDimStyleTableRecord
  2
AM_ISO$7
 70
     0
  4
"
 41
2.5
 42
1.0
 43
10.0
 44
1.0
 47
0.1
 48
0.1
 73
     0
 74
     0
 77
     1
 78
     8
 79
     2
140
5.0
141
0.0
143
0.0393701
146
0.71
147
1.5
172
     1
176
   256
177
   256
178
     2
271
     2
272
     3
274
     4
283
     0
284
     8
340
11
371
    -1
372
    -1
  0
DIMSTYLE
105
70
330
A
100
AcDbSymbolTableRecord
100
AcDbDimStyleTableRecord
  2
AM_ISO$SF
 70
     0
  4
"
 41
2.5
 42
1.0
 43
10.0
 44
1.0
 47
0.1
 48
0.1
 73
     0
 74
     0
 75
     1
 76
     1
 77
     1
 78
     8
 79
     2
140
3.5
141
0.0
143
0.0393701
146
0.71
147
1.5
172
     1
176
   256
177
   256
178
     2
271
     2
272
     3
274
     4
283
     0
284
     8
340
11
371
    -1
372
    -1
  0
DIMSTYLE
105
75
330
A
100
AcDbSymbolTableRecord
100
AcDbDimStyleTableRecord
  2
AM_ISO$SH
 70
     0
  4
"
 41
2.5
 42
1.0
 43
10.0
 44
1.0
 47
0.1
 48
0.1
 73
     0
 74
     0
 75
     1
 76
     1
 77
     1
 78
     8
 79
     2
140
3.5
141
0.0
143
0.0393701
144
2.0
146
0.71
147
1.5
172
     1
173
     1
176
   256
177
   256
178
     2
271
     2
272
     3
274
     4
283
     0
284
     8
340
11
343
71
371
    -1
372
    -1
  0
DIMSTYLE
105
165D
330
A
100
AcDbSymbolTableRecord
100
AcDbDimStyleTableRecord
  2
AM_ANSI
 70
     0
  4
mm
 41
0.1
 42
0.05
 43
0.5
 44
0.1
 47
0.1
 48
0.1
 78
     7
 79
     2
140
0.12
141
0.0
146
0.71
147
0.06
176
   256
177
   256
178
     2
274
     4
284
     7
340
11
371
    -1
372
    -1
  0
DIMSTYLE
105
165E
330
A
100
AcDbSymbolTableRecord
100
AcDbDimStyleTableRecord
  2
AM_ANSI$3
 70
     0
  4
mm
 41
0.1
 42
0.05
 43
0.5
 44
0.1
 47
0.1
 48
0.1
 78
     7
 79
     2
140
0.12
141
0.0
146
0.71
147
0.06
176
   256
177
   256
178
     2
274
     4
284
     7
288
     1
289
     0
340
11
371
    -1
372
    -1
  0
DIMSTYLE
105
165F
330
A
100
AcDbSymbolTableRecord
100
AcDbDimStyleTableRecord
  2
AM_ANSI$4
 70
     0
  4
mm
 41
0.1
 42
0.05
 43
0.5
 44
0.1
 47
0.1
 48
0.1
 78
     7
 79
     2
140
0.12
141
0.0
146
0.71
147
0.06
176
   256
177
   256
178
     2
274
     4
284
     7
288
     1
289
     0
340
11
371
    -1
372
    -1
  0
DIMSTYLE
105
1660
330
A
100
AcDbSymbolTableRecord
100
AcDbDimStyleTableRecord
  2
AM_ANSI$7
 70
     0
  4
mm
 41
0.1
 42
0.05
 43
0.5
 44
0.1
 47
0.1
 48
0.1
 78
     7
 79
     2
140
0.24
141
0.0
146
0.71
147
0.06
176
   256
177
   256
178
     2
274
     4
284
     7
340
11
371
    -1
372
    -1
  0
DIMSTYLE
105
1661
330
A
100
AcDbSymbolTableRecord
100
AcDbDimStyleTableRecord
  2
AM_ANSI$SF
 70
     0
  4
mm
 41
0.1
 42
0.05
 43
0.5
 44
0.1
 47
0.1
 48
0.1
 75
     1
 76
     1
 78
     7
 79
     2
140
0.12
141
0.0
146
0.71
147
0.06
176
   256
177
   256
178
     2
274
     4
284
     7
340
11
371
    -1
372
    -1
  0
DIMSTYLE
105
1662
330
A
100
AcDbSymbolTableRecord
100
AcDbDimStyleTableRecord
  2
AM_ANSI$SH
 70
     0
  4
mm
 41
0.1
 42
0.05
 43
0.5
 44
0.1
 47
0.1
 48
0.1
 75
     1
 76
     1
 78
     7
 79
     2
140
0.12
141
0.0
146
0.71
147
0.06
173
     1
176
   256
177
   256
178
     2
274
     4
284
     7
340
11
343
71
371
    -1
372
    -1
  0
DIMSTYLE
105
1B73
102
{ACAD_REACTORS
330
2E4A
330
2E62
330
2E7A
330
2F23
330
2F3B
330
2F53
330
3282
330
3285
330
3288
330
39F4
330
3CBA
330
397F
330
3954
330
3919
330
3D2F
102
}
330
A
100
AcDbSymbolTableRecord
100
AcDbDimStyleTableRecord
  2
ISO-25
 70
     0
 41
3.0
 42
2.0
 43
2.0
 44
2.0
 48
0.000000001
 73
     0
 74
     0
 77
     1
 78
     8
 79
     2
140
3.0
141
2.5
143
0.03937007874016
146
0.6
147
0.8
171
     3
172
     1
176
     5
177
     5
178
     5
271
     2
272
     2
274
     3
279
     1
283
     0
284
     8
340
11
  0
DIMSTYLE
105
295A
330
A
100
AcDbSymbolTableRecord
100
AcDbDimStyleTableRecord
  2
AM_JIS
 70
     0
  4
"
 41
2.5
 42
1.0
 43
10.0
 44
1.0
 47
0.1
 48
0.1
 73
     0
 74
     0
 77
     3
 78
     8
 79
     2
140
3.5
141
0.0
143
0.0393701
146
0.71
147
1.5
172
     1
176
   256
177
   256
178
     2
271
     2
272
     3
274
     4
283
     0
284
     8
340
11
341
294D
342
294D
343
294D
344
294D
371
    -1
372
    -1
  0
DIMSTYLE
105
295B
330
A
100
AcDbSymbolTableRecord
100
AcDbDimStyleTableRecord
  2
AM_JIS$3
 70
     0
  4
"
 41
2.5
 42
1.0
 43
10.0
 44
1.0
 47
0.1
 48
0.1
 73
     0
 77
     3
 78
     8
 79
     2
140
3.5
141
0.0
143
0.0393701
146
0.71
147
1.5
176
   256
177
   256
178
     2
271
     2
272
     3
274
     4
283
     0
284
     8
288
     1
289
     0
340
11
341
294D
342
294D
343
294D
344
294D
371
    -1
372
    -1
  0
DIMSTYLE
105
295C
330
A
100
AcDbSymbolTableRecord
100
AcDbDimStyleTableRecord
  2
AM_JIS$4
 70
     0
  4
"
 41
2.5
 42
1.0
 43
10.0
 44
1.0
 47
0.1
 48
0.1
 73
     0
 77
     3
 78
     8
 79
     2
140
3.5
141
0.0
143
0.0393701
146
0.71
147
1.5
176
   256
177
   256
178
     2
271
     2
272
     3
274
     4
283
     0
284
     8
288
     1
289
     0
340
11
341
294D
342
294D
343
294D
344
294D
371
    -1
372
    -1
  0
DIMSTYLE
105
295D
330
A
100
AcDbSymbolTableRecord
100
AcDbDimStyleTableRecord
  2
AM_JIS$6
 70
     0
  4
"
 41
2.5
 42
1.0
 43
10.0
 44
1.0
 47
0.1
 48
0.1
 73
     0
 74
     0
 78
     8
 79
     2
140
3.5
141
0.0
143
0.0393701
146
0.71
147
1.5
172
     1
176
   256
177
   256
178
     2
271
     2
272
     3
274
     4
283
     0
284
     8
340
11
341
294D
342
294D
343
294D
344
294D
371
    -1
372
    -1
  0
DIMSTYLE
105
295E
330
A
100
AcDbSymbolTableRecord
100
AcDbDimStyleTableRecord
  2
AM_JIS$7
 70
     0
  4
"
 41
2.5
 42
1.0
 43
10.0
 44
1.0
 47
0.1
 48
0.1
 73
     0
 74
     0
 77
     3
 78
     8
 79
     2
140
5.0
141
0.0
143
0.0393701
146
0.71
147
1.5
172
     1
176
   256
177
   256
178
     2
271
     2
272
     3
274
     4
283
     0
284
     8
340
11
341
294D
342
294D
343
294D
344
294D
371
    -1
372
    -1
  0
DIMSTYLE
105
295F
330
A
100
AcDbSymbolTableRecord
100
AcDbDimStyleTableRecord
  2
AM_JIS$SF
 70
     0
  4
"
 41
2.5
 42
1.0
 43
10.0
 44
1.0
 47
0.1
 48
0.1
 73
     0
 74
     0
 75
     1
 76
     1
 77
     3
 78
     8
 79
     2
140
3.5
141
0.0
143
0.0393701
146
0.71
147
1.5
172
     1
176
   256
177
   256
178
     2
271
     2
272
     3
274
     4
283
     0
284
     8
340
11
341
294D
342
294D
343
294D
344
294D
371
    -1
372
    -1
  0
DIMSTYLE
105
2960
330
A
100
AcDbSymbolTableRecord
100
AcDbDimStyleTableRecord
  2
AM_JIS$SH
 70
     0
  4
"
 41
2.5
 42
1.0
 43
10.0
 44
1.0
 47
0.1
 48
0.1
 73
     0
 74
     0
 75
     1
 76
     1
 77
     3
 78
     8
 79
     2
140
3.5
141
0.0
143
0.0393701
144
2.0
146
0.71
147
1.5
172
     1
173
     1
176
   256
177
   256
178
     2
271
     2
272
     3
274
     4
283
     0
284
     8
340
11
341
294D
342
294D
343
71
344
294D
371
    -1
372
    -1
  0
ENDTAB
  0
TABLE
  2
BLOCK_RECORD
  5
1
330
0
100
AcDbSymbolTable
 70
    28
  0
BLOCK_RECORD
  5
1F
102
{ACAD_XDICTIONARY
360
7D
102
}
330
1
100
AcDbSymbolTableRecord
100
AcDbBlockTableRecord
  2
*Model_Space
340
22
  0
BLOCK_RECORD
  5
1B
330
1
100
AcDbSymbolTableRecord
100
AcDbBlockTableRecord
  2
*Paper_Space
340
1E
  0
BLOCK_RECORD
  5
23
330
1
100
AcDbSymbolTableRecord
100
AcDbBlockTableRecord
  2
*Paper_Space0
340
26
  0
BLOCK_RECORD
  5
71
330
1
100
AcDbSymbolTableRecord
100
AcDbBlockTableRecord
  2
GENAXEH
340
0
  0
BLOCK_RECORD
  5
25E1
330
1
100
AcDbSymbolTableRecord
100
AcDbBlockTableRecord
  2
*U2
340
0
102
{BLKREFS
331
210F
102
}
  0
BLOCK_RECORD
  5
25FE
330
1
100
AcDbSymbolTableRecord
100
AcDbBlockTableRecord
  2
*U3
340
0
102
{BLKREFS
331
2120
102
}
  0
BLOCK_RECORD
  5
261B
330
1
100
AcDbSymbolTableRecord
100
AcDbBlockTableRecord
  2
*U4
340
0
102
{BLKREFS
331
212A
102
}
  0
BLOCK_RECORD
  5
2638
330
1
100
AcDbSymbolTableRecord
100
AcDbBlockTableRecord
  2
*U5
340
0
102
{BLKREFS
331
21A8
102
}
  0
BLOCK_RECORD
  5
2655
330
1
100
AcDbSymbolTableRecord
100
AcDbBlockTableRecord
  2
*U6
340
0
102
{BLKREFS
331
21AB
102
}
  0
BLOCK_RECORD
  5
2672
330
1
100
AcDbSymbolTableRecord
100
AcDbBlockTableRecord
  2
*U7
340
0
102
{BLKREFS
331
21AE
102
}
  0
BLOCK_RECORD
  5
294D
330
1
100
AcDbSymbolTableRecord
100
AcDbBlockTableRecord
  2
_Open30
340
0
  0
BLOCK_RECORD
  5
2E4B
330
1
100
AcDbSymbolTableRecord
100
AcDbBlockTableRecord
  2
*D10
340
0
  0
BLOCK_RECORD
  5
2E63
330
1
100
AcDbSymbolTableRecord
100
AcDbBlockTableRecord
  2
*D11
340
0
  0
BLOCK_RECORD
  5
2E7B
330
1
100
AcDbSymbolTableRecord
100
AcDbBlockTableRecord
  2
*D12
340
0
  0
BLOCK_RECORD
  5
2F24
330
1
100
AcDbSymbolTableRecord
100
AcDbBlockTableRecord
  2
*D13
340
0
  0
BLOCK_RECORD
  5
2F3C
330
1
100
AcDbSymbolTableRecord
100
AcDbBlockTableRecord
  2
*D14
340
0
  0
BLOCK_RECORD
  5
2F54
330
1
100
AcDbSymbolTableRecord
100
AcDbBlockTableRecord
  2
*D15
340
0
  0
BLOCK_RECORD
  5
32B9
330
1
100
AcDbSymbolTableRecord
100
AcDbBlockTableRecord
  2
*D16
340
0
  0
BLOCK_RECORD
  5
32C5
330
1
100
AcDbSymbolTableRecord
100
AcDbBlockTableRecord
  2
*D17
340
0
  0
BLOCK_RECORD
  5
32D1
330
1
100
AcDbSymbolTableRecord
100
AcDbBlockTableRecord
  2
*D18
340
0
  0
BLOCK_RECORD
  5
391A
330
1
100
AcDbSymbolTableRecord
100
AcDbBlockTableRecord
  2
*D20
340
0
  0
BLOCK_RECORD
  5
3955
330
1
100
AcDbSymbolTableRecord
100
AcDbBlockTableRecord
  2
*D21
340
0
  0
BLOCK_RECORD
  5
3980
330
1
100
AcDbSymbolTableRecord
100
AcDbBlockTableRecord
  2
*D22
340
0
  0
BLOCK_RECORD
  5
39F5
330
1
100
AcDbSymbolTableRecord
100
AcDbBlockTableRecord
  2
*D23
340
0
  0
BLOCK_RECORD
  5
3CBB
330
1
100
AcDbSymbolTableRecord
100
AcDbBlockTableRecord
  2
*D24
340
0
  0
BLOCK_RECORD
  5
3D30
330
1
100
AcDbSymbolTableRecord
100
AcDbBlockTableRecord
  2
*D25
340
0
  0
ENDTAB
  0
ENDSEC
  0
SECTION
  2
BLOCKS
  0
BLOCK
  5
20
330
1F
100
AcDbEntity
  8
0
100
AcDbBlockBegin
  2
*Model_Space
 70
     0
 10
0.0
 20
0.0
 30
0.0
  3
*Model_Space
  1

  0
ENDBLK
  5
21
330
1F
100
AcDbEntity
  8
0
100
AcDbBlockEnd
  0
BLOCK
  5
1C
330
1B
100
AcDbEntity
 67
     1
  8
0
100
AcDbBlockBegin
  2
*Paper_Space
 70
     0
 10
0.0
 20
0.0
 30
0.0
  3
*Paper_Space
  1

  0
ENDBLK
  5
1D
330
1B
100
AcDbEntity
 67
     1
  8
0
100
AcDbBlockEnd
  0
BLOCK
  5
24
330
23
100
AcDbEntity
  8
0
100
AcDbBlockBegin
  2
*Paper_Space0
 70
     0
 10
0.0
 20
0.0
 30
0.0
  3
*Paper_Space0
  1

  0
ENDBLK
  5
25
330
23
100
AcDbEntity
  8
0
100
AcDbBlockEnd
  0
BLOCK
  5
28E9
330
71
100
AcDbEntity
  8
0
100
AcDbBlockBegin
  2
GENAXEH
 70
     0
 10
0.0
 20
0.0
 30
0.0
  3
GENAXEH
  1

  0
LINE
  5
28EA
330
71
100
AcDbEntity
  8
0
100
AcDbLine
 10
-1.0
 20
0.0
 30
0.0
 11
1.0
 21
0.0
 31
0.0
  0
ENDBLK
  5
28EB
330
71
100
AcDbEntity
  8
0
100
AcDbBlockEnd
  0
BLOCK
  5
25E2
330
25E1
100
AcDbEntity
  8
0
100
AcDbBlockBegin
  2
*U2
 70
     1
 10
0.0
 20
0.0
 30
0.0
  3
*U2
  1

  0
ENDBLK
  5
25E3
330
25E1
100
AcDbEntity
  8
0
100
AcDbBlockEnd
  0
BLOCK
  5
25FF
330
25FE
100
AcDbEntity
  8
0
100
AcDbBlockBegin
  2
*U3
 70
     1
 10
0.0
 20
0.0
 30
0.0
  3
*U3
  1

  0
ENDBLK
  5
2600
330
25FE
100
AcDbEntity
  8
0
100
AcDbBlockEnd
  0
BLOCK
  5
261C
330
261B
100
AcDbEntity
  8
0
100
AcDbBlockBegin
  2
*U4
 70
     1
 10
0.0
 20
0.0
 30
0.0
  3
*U4
  1

  0
ENDBLK
  5
261D
330
261B
100
AcDbEntity
  8
0
100
AcDbBlockEnd
  0
BLOCK
  5
2639
330
2638
100
AcDbEntity
  8
0
100
AcDbBlockBegin
  2
*U5
 70
     1
 10
0.0
 20
0.0
 30
0.0
  3
*U5
  1

  0
ENDBLK
  5
263A
330
2638
100
AcDbEntity
  8
0
100
AcDbBlockEnd
  0
BLOCK
  5
2656
330
2655
100
AcDbEntity
  8
0
100
AcDbBlockBegin
  2
*U6
 70
     1
 10
0.0
 20
0.0
 30
0.0
  3
*U6
  1

  0
ENDBLK
  5
2657
330
2655
100
AcDbEntity
  8
0
100
AcDbBlockEnd
  0
BLOCK
  5
2673
330
2672
100
AcDbEntity
  8
0
100
AcDbBlockBegin
  2
*U7
 70
     1
 10
0.0
 20
0.0
 30
0.0
  3
*U7
  1

  0
ENDBLK
  5
2674
330
2672
100
AcDbEntity
  8
0
100
AcDbBlockEnd
  0
BLOCK
  5
294E
330
294D
100
AcDbEntity
  8
0
100
AcDbBlockBegin
  2
_Open30
 70
     0
 10
0.0
 20
0.0
 30
0.0
  3
_Open30
  1

  0
LINE
  5
294F
330
294D
100
AcDbEntity
  8
0
  6
ByBlock
 62
     0
370
    -2
100
AcDbLine
 10
-1.0
 20
0.26794919
 30
0.0
 11
0.0
 21
0.0
 31
0.0
  0
LINE
  5
2950
330
294D
100
AcDbEntity
  8
0
  6
ByBlock
 62
     0
370
    -2
100
AcDbLine
 10
0.0
 20
0.0
 30
0.0
 11
-1.0
 21
-0.26794919
 31
0.0
  0
LINE
  5
2951
330
294D
100
AcDbEntity
  8
0
  6
ByBlock
 62
     0
370
    -2
100
AcDbLine
 10
0.0
 20
0.0
 30
0.0
 11
-1.0
 21
0.0
 31
0.0
  0
ENDBLK
  5
2952
330
294D
100
AcDbEntity
  8
0
100
AcDbBlockEnd
  0
BLOCK
  5
2E55
330
2E4B
100
AcDbEntity
  8
0
100
AcDbBlockBegin
  2
*D10
 70
     1
 10
0.0
 20
0.0
 30
0.0
  3
*D10
  1

  0
LINE
  5
3A4E
330
2E4B
100
AcDbEntity
  8
0
 62
     5
370
    -2
100
AcDbLine
 10
647.928512915372
 20
313.9288243622005
 30
0.0
 11
647.928512915372
 21
306.6396148943259
 31
0.0
  0
LINE
  5
3A4F
330
2E4B
100
AcDbEntity
  8
0
 62
     5
370
    -2
100
AcDbLine
 10
681.928512915372
 20
313.9288243622005
 30
0.0
 11
681.928512915372
 21
306.6396148943259
 31
0.0
  0
LINE
  5
3A50
330
2E4B
100
AcDbEntity
  8
0
 62
     5
370
    -2
100
AcDbLine
 10
650.928512915372
 20
308.6396148943259
 30
0.0
 11
678.928512915372
 21
308.6396148943259
 31
0.0
  0
MTEXT
  5
3A51
330
2E4B
100
AcDbEntity
  8
0
 62
     5
100
AcDbMText
 10
665.135058636362
 20
310.9396148943259
 30
0.0
 40
3.0
 41
0.0
 71
     5
 72
     1
  1
{\Famgdt|c136;o}34
 73
     1
 44
1.0
1001
ACAD
1000
MTEXTBEGIN
1070
    73
1070
     1
1070
    44
1040
1.0
1070
    74
1070
     0
1000
MTEXTEND
  0
SOLID
  5
3A52
330
2E4B
100
AcDbEntity
  8
0
 62
     5
100
AcDbTrace
 10
650.928512915372
 20
309.1396148943259
 30
0.0
 11
650.928512915372
 21
308.1396148943259
 31
0.0
 12
647.928512915372
 22
308.6396148943259
 32
0.0
 13
647.928512915372
 23
308.6396148943259
 33
0.0
  0
SOLID
  5
3A53
330
2E4B
100
AcDbEntity
  8
0
 62
     5
100
AcDbTrace
 10
678.928512915372
 20
309.1396148943259
 30
0.0
 11
678.928512915372
 21
308.1396148943259
 31
0.0
 12
681.928512915372
 22
308.6396148943259
 32
0.0
 13
681.928512915372
 23
308.6396148943259
 33
0.0
  0
POINT
  5
3A54
330
2E4B
100
AcDbEntity
  8
Defpoints
 62
     0
100
AcDbPoint
 10
647.928512915372
 20
315.9288243622005
 30
0.0
  0
POINT
  5
3A55
330
2E4B
100
AcDbEntity
  8
Defpoints
 62
     0
100
AcDbPoint
 10
681.928512915372
 20
315.9288243622005
 30
0.0
  0
POINT
  5
3A56
330
2E4B
100
AcDbEntity
  8
Defpoints
 62
     0
100
AcDbPoint
 10
681.928512915372
 20
308.6396148943259
 30
0.0
  0
ENDBLK
  5
2E56
330
2E4B
100
AcDbEntity
  8
0
100
AcDbBlockEnd
  0
BLOCK
  5
2E6D
330
2E63
100
AcDbEntity
  8
0
100
AcDbBlockBegin
  2
*D11
 70
     1
 10
0.0
 20
0.0
 30
0.0
  3
*D11
  1

  0
LINE
  5
3A57
330
2E63
100
AcDbEntity
  8
0
 62
     5
370
    -2
100
AcDbLine
 10
642.9285129153721
 20
317.275580355167
 30
0.0
 11
642.9285129153721
 21
297.7347107375875
 31
0.0
  0
LINE
  5
3A58
330
2E63
100
AcDbEntity
  8
0
 62
     5
370
    -2
100
AcDbLine
 10
686.928512915372
 20
317.1470850528316
 30
0.0
 11
686.928512915372
 21
297.7347107375875
 31
0.0
  0
LINE
  5
3A59
330
2E63
100
AcDbEntity
  8
0
 62
     5
370
    -2
100
AcDbLine
 10
645.9285129153721
 20
299.7347107375875
 30
0.0
 11
683.928512915372
 21
299.7347107375875
 31
0.0
  0
MTEXT
  5
3A5A
330
2E63
100
AcDbEntity
  8
0
 62
     5
100
AcDbMText
 10
665.4743717722284
 20
302.0347107375875
 30
0.0
 40
3.0
 41
0.0
 71
     5
 72
     1
  1
{\Famgdt|c136;o}44
 73
     1
 44
1.0
1001
ACAD
1000
MTEXTBEGIN
1070
    73
1070
     1
1070
    44
1040
1.0
1070
    74
1070
     0
1000
MTEXTEND
  0
SOLID
  5
3A5B
330
2E63
100
AcDbEntity
  8
0
 62
     5
100
AcDbTrace
 10
645.9285129153721
 20
300.2347107375876
 30
0.0
 11
645.9285129153721
 21
299.2347107375875
 31
0.0
 12
642.9285129153721
 22
299.7347107375875
 32
0.0
 13
642.9285129153721
 23
299.7347107375875
 33
0.0
  0
SOLID
  5
3A5C
330
2E63
100
AcDbEntity
  8
0
 62
     5
100
AcDbTrace
 10
683.928512915372
 20
300.2347107375876
 30
0.0
 11
683.928512915372
 21
299.2347107375875
 31
0.0
 12
686.928512915372
 22
299.7347107375875
 32
0.0
 13
686.928512915372
 23
299.7347107375875
 33
0.0
  0
POINT
  5
3A5D
330
2E63
100
AcDbEntity
  8
Defpoints
 62
     0
100
AcDbPoint
 10
642.9285129153721
 20
319.275580355167
 30
0.0
  0
POINT
  5
3A5E
330
2E63
100
AcDbEntity
  8
Defpoints
 62
     0
100
AcDbPoint
 10
686.928512915372
 20
319.1470850528316
 30
0.0
  0
POINT
  5
3A5F
330
2E63
100
AcDbEntity
  8
Defpoints
 62
     0
100
AcDbPoint
 10
686.928512915372
 20
299.7347107375875
 30
0.0
  0
ENDBLK
  5
2E6E
330
2E63
100
AcDbEntity
  8
0
100
AcDbBlockEnd
  0
BLOCK
  5
2E85
330
2E7B
100
AcDbEntity
  8
0
100
AcDbBlockBegin
  2
*D12
 70
     1
 10
0.0
 20
0.0
 30
0.0
  3
*D12
  1

  0
LINE
  5
3A60
330
2E7B
100
AcDbEntity
  8
0
 62
     5
370
    -2
100
AcDbLine
 10
686.928512915372
 20
317.1470850528316
 30
0.0
 11
686.928512915372
 21
289.6155337761264
 31
0.0
  0
LINE
  5
3A61
330
2E7B
100
AcDbEntity
  8
0
 62
     5
370
    -2
100
AcDbLine
 10
638.4285220944999
 20
330.1129326824428
 30
0.0
 11
638.4285220944999
 21
289.6155337761264
 31
0.0
  0
LINE
  5
3A62
330
2E7B
100
AcDbEntity
  8
0
 62
     5
370
    -2
100
AcDbLine
 10
683.928512915372
 20
291.6155337761264
 30
0.0
 11
641.4285220944999
 21
291.6155337761264
 31
0.0
  0
MTEXT
  5
3A63
330
2E7B
100
AcDbEntity
  8
0
 62
     5
100
AcDbMText
 10
663.7890520155232
 20
293.9155337761264
 30
0.0
 40
3.0
 41
0.0
 71
     5
 72
     1
  1
48.5
 73
     1
 44
1.0
1001
ACAD
1000
MTEXTBEGIN
1070
    73
1070
     1
1070
    44
1040
1.0
1070
    74
1070
     0
1000
MTEXTEND
  0
SOLID
  5
3A64
330
2E7B
100
AcDbEntity
  8
0
 62
     5
100
AcDbTrace
 10
683.928512915372
 20
292.1155337761264
 30
0.0
 11
683.928512915372
 21
291.1155337761264
 31
0.0
 12
686.928512915372
 22
291.6155337761264
 32
0.0
 13
686.928512915372
 23
291.6155337761264
 33
0.0
  0
SOLID
  5
3A65
330
2E7B
100
AcDbEntity
  8
0
 62
     5
100
AcDbTrace
 10
641.4285220944999
 20
292.1155337761264
 30
0.0
 11
641.4285220944999
 21
291.1155337761264
 31
0.0
 12
638.4285220944999
 22
291.6155337761264
 32
0.0
 13
638.4285220944999
 23
291.6155337761264
 33
0.0
  0
POINT
  5
3A66
330
2E7B
100
AcDbEntity
  8
Defpoints
 62
     0
100
AcDbPoint
 10
686.928512915372
 20
319.1470850528315
 30
0.0
  0
POINT
  5
3A67
330
2E7B
100
AcDbEntity
  8
Defpoints
 62
     0
100
AcDbPoint
 10
638.4285220944999
 20
332.1129326824428
 30
0.0
  0
POINT
  5
3A68
330
2E7B
100
AcDbEntity
  8
Defpoints
 62
     0
100
AcDbPoint
 10
638.4285220944999
 20
291.6155337761264
 30
0.0
  0
ENDBLK
  5
2E86
330
2E7B
100
AcDbEntity
  8
0
100
AcDbBlockEnd
  0
BLOCK
  5
2F2E
330
2F24
100
AcDbEntity
  8
0
100
AcDbBlockBegin
  2
*D13
 70
     1
 10
0.0
 20
0.0
 30
0.0
  3
*D13
  1

  0
LINE
  5
3A69
330
2F24
100
AcDbEntity
  8
0
 62
     5
370
    -2
100
AcDbLine
 10
636.606211535398
 20
427.1867650172113
 30
0.0
 11
628.7651999197674
 21
427.1867650172113
 31
0.0
  0
LINE
  5
3A6A
330
2F24
100
AcDbEntity
  8
0
 62
     5
370
    -2
100
AcDbLine
 10
634.5100203148749
 20
418.1867650172113
 30
0.0
 11
628.7651999197674
 21
418.1867650172113
 31
0.0
  0
LINE
  5
3A6B
330
2F24
100
AcDbEntity
  8
0
 62
     5
370
    -2
100
AcDbLine
 10
630.7651999197673
 20
424.1867650172113
 30
0.0
 11
630.7651999197673
 21
421.1867650172114
 31
0.0
  0
MTEXT
  5
3A6C
330
2F24
100
AcDbEntity
  8
0
 62
     5
100
AcDbMText
 10
628.4651999197672
 20
422.4633748513425
 30
0.0
 40
3.0
 41
0.0
 71
     5
 72
     1
  1
9
 11
0.0000000000000001
 21
1.0
 31
0.0
 73
     1
 44
1.0
1001
ACAD
1000
MTEXTBEGIN
1070
    73
1070
     1
1070
    44
1040
1.0
1070
    74
1070
     0
1000
MTEXTEND
  0
SOLID
  5
3A6D
330
2F24
100
AcDbEntity
  8
0
 62
     5
100
AcDbTrace
 10
630.2651999197673
 20
424.1867650172113
 30
0.0
 11
631.2651999197673
 21
424.1867650172113
 31
0.0
 12
630.7651999197673
 22
427.1867650172113
 32
0.0
 13
630.7651999197673
 23
427.1867650172113
 33
0.0
  0
SOLID
  5
3A6E
330
2F24
100
AcDbEntity
  8
0
 62
     5
100
AcDbTrace
 10
630.2651999197673
 20
421.1867650172114
 30
0.0
 11
631.2651999197673
 21
421.1867650172114
 31
0.0
 12
630.7651999197673
 22
418.1867650172113
 32
0.0
 13
630.7651999197673
 23
418.1867650172113
 33
0.0
  0
POINT
  5
3A6F
330
2F24
100
AcDbEntity
  8
Defpoints
 62
     0
100
AcDbPoint
 10
638.606211535398
 20
427.1867650172113
 30
0.0
  0
POINT
  5
3A70
330
2F24
100
AcDbEntity
  8
Defpoints
 62
     0
100
AcDbPoint
 10
636.5100203148749
 20
418.1867650172113
 30
0.0
  0
POINT
  5
3A71
330
2F24
100
AcDbEntity
  8
Defpoints
 62
     0
100
AcDbPoint
 10
630.7651999197673
 20
418.1867650172113
 30
0.0
  0
ENDBLK
  5
2F2F
330
2F24
100
AcDbEntity
  8
0
100
AcDbBlockEnd
  0
BLOCK
  5
2F46
330
2F3C
100
AcDbEntity
  8
0
100
AcDbBlockBegin
  2
*D14
 70
     1
 10
0.0
 20
0.0
 30
0.0
  3
*D14
  1

  0
LINE
  5
3A72
330
2F3C
100
AcDbEntity
  8
0
 62
     5
370
    -2
100
AcDbLine
 10
634.510020314875
 20
387.1867650172114
 30
0.0
 11
628.7651999197674
 21
387.1867650172114
 31
0.0
  0
LINE
  5
3A73
330
2F3C
100
AcDbEntity
  8
0
 62
     5
370
    -2
100
AcDbLine
 10
636.4285220944998
 20
378.1867650172114
 30
0.0
 11
628.7651999197674
 21
378.1867650172114
 31
0.0
  0
LINE
  5
3A74
330
2F3C
100
AcDbEntity
  8
0
 62
     5
370
    -2
100
AcDbLine
 10
630.7651999197673
 20
384.1867650172114
 30
0.0
 11
630.7651999197673
 21
381.1867650172114
 31
0.0
  0
MTEXT
  5
3A75
330
2F3C
100
AcDbEntity
  8
0
 62
     5
100
AcDbMText
 10
628.4651999197673
 20
382.8870944288015
 30
0.0
 40
3.0
 41
0.0
 71
     5
 72
     1
  1
9
 11
0.0000000000000001
 21
1.0
 31
0.0
 73
     1
 44
1.0
1001
ACAD
1000
MTEXTBEGIN
1070
    73
1070
     1
1070
    44
1040
1.0
1070
    74
1070
     0
1000
MTEXTEND
  0
SOLID
  5
3A76
330
2F3C
100
AcDbEntity
  8
0
 62
     5
100
AcDbTrace
 10
630.2651999197673
 20
384.1867650172114
 30
0.0
 11
631.2651999197673
 21
384.1867650172114
 31
0.0
 12
630.7651999197673
 22
387.1867650172114
 32
0.0
 13
630.7651999197673
 23
387.1867650172114
 33
0.0
  0
SOLID
  5
3A77
330
2F3C
100
AcDbEntity
  8
0
 62
     5
100
AcDbTrace
 10
630.2651999197673
 20
381.1867650172114
 30
0.0
 11
631.2651999197673
 21
381.1867650172114
 31
0.0
 12
630.7651999197673
 22
378.1867650172114
 32
0.0
 13
630.7651999197673
 23
378.1867650172114
 33
0.0
  0
POINT
  5
3A78
330
2F3C
100
AcDbEntity
  8
Defpoints
 62
     0
100
AcDbPoint
 10
636.5100203148751
 20
387.1867650172114
 30
0.0
  0
POINT
  5
3A79
330
2F3C
100
AcDbEntity
  8
Defpoints
 62
     0
100
AcDbPoint
 10
638.4285220944998
 20
378.1867650172114
 30
0.0
  0
POINT
  5
3A7A
330
2F3C
100
AcDbEntity
  8
Defpoints
 62
     0
100
AcDbPoint
 10
630.7651999197673
 20
378.1867650172114
 30
0.0
  0
ENDBLK
  5
2F47
330
2F3C
100
AcDbEntity
  8
0
100
AcDbBlockEnd
  0
BLOCK
  5
2F5E
330
2F54
100
AcDbEntity
  8
0
100
AcDbBlockBegin
  2
*D15
 70
     1
 10
0.0
 20
0.0
 30
0.0
  3
*D15
  1

  0
LINE
  5
3C66
330
2F54
100
AcDbEntity
  8
0
 62
     5
370
    -2
100
AcDbLine
 10
636.4285220944998
 20
427.1867650172113
 30
0.0
 11
603.8598894418064
 21
427.1867650172113
 31
0.0
  0
LINE
  5
3C67
330
2F54
100
AcDbEntity
  8
0
 62
     5
370
    -2
100
AcDbLine
 10
636.606211535398
 20
378.1867650172114
 30
0.0
 11
603.8598894418064
 21
378.1867650172114
 31
0.0
  0
LINE
  5
3C68
330
2F54
100
AcDbEntity
  8
0
 62
     5
370
    -2
100
AcDbLine
 10
605.8598894418064
 20
424.1867650172113
 30
0.0
 11
605.8598894418064
 21
381.1867650172114
 31
0.0
  0
SOLID
  5
3C69
330
2F54
100
AcDbEntity
  8
0
 62
     5
100
AcDbTrace
 10
605.3598894418064
 20
424.1867650172113
 30
0.0
 11
606.3598894418064
 21
424.1867650172113
 31
0.0
 12
605.8598894418064
 22
427.1867650172113
 32
0.0
 13
605.8598894418064
 23
427.1867650172113
 33
0.0
  0
SOLID
  5
3C6A
330
2F54
100
AcDbEntity
  8
0
 62
     5
100
AcDbTrace
 10
605.3598894418064
 20
381.1867650172114
 30
0.0
 11
606.3598894418064
 21
381.1867650172114
 31
0.0
 12
605.8598894418064
 22
378.1867650172114
 32
0.0
 13
605.8598894418064
 23
378.1867650172114
 33
0.0
  0
MTEXT
  5
3C6B
330
2F54
100
AcDbEntity
  8
0
 62
     5
100
AcDbMText
 10
603.5598894418064
 20
402.6314696147889
 30
0.0
 40
3.0
 41
0.0
 71
     5
 72
     1
  1
不附磁型：49
 11
0.0000000000000001
 21
1.0
 31
0.0
 73
     1
 44
1.0
1001
ACAD
1000
MTEXTBEGIN
1070
    73
1070
     1
1070
    44
1040
1.0
1070
    74
1070
     0
1000
MTEXTEND
  0
POINT
  5
3C6C
330
2F54
100
AcDbEntity
  8
Defpoints
 62
     0
100
AcDbPoint
 10
638.4285220944998
 20
427.1867650172113
 30
0.0
  0
POINT
  5
3C6D
330
2F54
100
AcDbEntity
  8
Defpoints
 62
     0
100
AcDbPoint
 10
638.606211535398
 20
378.1867650172114
 30
0.0
  0
POINT
  5
3C6E
330
2F54
100
AcDbEntity
  8
Defpoints
 62
     0
100
AcDbPoint
 10
605.8598894418064
 20
378.1867650172114
 30
0.0
  0
ENDBLK
  5
2F5F
330
2F54
100
AcDbEntity
  8
0
100
AcDbBlockEnd
  0
BLOCK
  5
32C3
330
32B9
100
AcDbEntity
  8
0
100
AcDbBlockBegin
  2
*D16
 70
     1
 10
0.0
 20
0.0
 30
0.0
  3
*D16
  1

  0
LINE
  5
3B4C
330
32B9
100
AcDbEntity
  8
0
 62
     5
370
    -2
100
AcDbLine
 10
789.4590512857949
 20
313.9288243622005
 30
0.0
 11
789.4590512857949
 21
306.6396148943259
 31
0.0
  0
LINE
  5
3B4D
330
32B9
100
AcDbEntity
  8
0
 62
     5
370
    -2
100
AcDbLine
 10
823.459051285795
 20
313.9288243622005
 30
0.0
 11
823.459051285795
 21
306.6396148943259
 31
0.0
  0
LINE
  5
3B4E
330
32B9
100
AcDbEntity
  8
0
 62
     5
370
    -2
100
AcDbLine
 10
792.459051285795
 20
308.6396148943259
 30
0.0
 11
820.4590512857949
 21
308.6396148943259
 31
0.0
  0
MTEXT
  5
3B4F
330
32B9
100
AcDbEntity
  8
0
 62
     5
100
AcDbMText
 10
806.665597006785
 20
310.9396148943259
 30
0.0
 40
3.0
 41
0.0
 71
     5
 72
     1
  1
{\Famgdt|c136;o}34
 73
     1
 44
1.0
1001
ACAD
1000
MTEXTBEGIN
1070
    73
1070
     1
1070
    44
1040
1.0
1070
    74
1070
     0
1000
MTEXTEND
  0
SOLID
  5
3B50
330
32B9
100
AcDbEntity
  8
0
 62
     5
100
AcDbTrace
 10
792.459051285795
 20
309.1396148943259
 30
0.0
 11
792.459051285795
 21
308.1396148943259
 31
0.0
 12
789.4590512857949
 22
308.6396148943259
 32
0.0
 13
789.4590512857949
 23
308.6396148943259
 33
0.0
  0
SOLID
  5
3B51
330
32B9
100
AcDbEntity
  8
0
 62
     5
100
AcDbTrace
 10
820.4590512857949
 20
309.1396148943259
 30
0.0
 11
820.4590512857949
 21
308.1396148943259
 31
0.0
 12
823.459051285795
 22
308.6396148943259
 32
0.0
 13
823.459051285795
 23
308.6396148943259
 33
0.0
  0
POINT
  5
3B52
330
32B9
100
AcDbEntity
  8
Defpoints
 62
     0
100
AcDbPoint
 10
789.4590512857949
 20
315.9288243622005
 30
0.0
  0
POINT
  5
3B53
330
32B9
100
AcDbEntity
  8
Defpoints
 62
     0
100
AcDbPoint
 10
823.459051285795
 20
315.9288243622005
 30
0.0
  0
POINT
  5
3B54
330
32B9
100
AcDbEntity
  8
Defpoints
 62
     0
100
AcDbPoint
 10
823.459051285795
 20
308.6396148943259
 30
0.0
  0
ENDBLK
  5
32C4
330
32B9
100
AcDbEntity
  8
0
100
AcDbBlockEnd
  0
BLOCK
  5
32CF
330
32C5
100
AcDbEntity
  8
0
100
AcDbBlockBegin
  2
*D17
 70
     1
 10
0.0
 20
0.0
 30
0.0
  3
*D17
  1

  0
LINE
  5
3B55
330
32C5
100
AcDbEntity
  8
0
 62
     5
370
    -2
100
AcDbLine
 10
784.459051285795
 20
317.275580355167
 30
0.0
 11
784.459051285795
 21
297.7347107375875
 31
0.0
  0
LINE
  5
3B56
330
32C5
100
AcDbEntity
  8
0
 62
     5
370
    -2
100
AcDbLine
 10
828.4590512857949
 20
317.1470850528316
 30
0.0
 11
828.4590512857949
 21
297.7347107375875
 31
0.0
  0
LINE
  5
3B57
330
32C5
100
AcDbEntity
  8
0
 62
     5
370
    -2
100
AcDbLine
 10
787.4590512857951
 20
299.7347107375875
 30
0.0
 11
825.459051285795
 21
299.7347107375875
 31
0.0
  0
MTEXT
  5
3B58
330
32C5
100
AcDbEntity
  8
0
 62
     5
100
AcDbMText
 10
807.0049101426514
 20
302.0347107375875
 30
0.0
 40
3.0
 41
0.0
 71
     5
 72
     1
  1
{\Famgdt|c136;o}44
 73
     1
 44
1.0
1001
ACAD
1000
MTEXTBEGIN
1070
    73
1070
     1
1070
    44
1040
1.0
1070
    74
1070
     0
1000
MTEXTEND
  0
SOLID
  5
3B59
330
32C5
100
AcDbEntity
  8
0
 62
     5
100
AcDbTrace
 10
787.4590512857951
 20
300.2347107375876
 30
0.0
 11
787.4590512857951
 21
299.2347107375875
 31
0.0
 12
784.459051285795
 22
299.7347107375875
 32
0.0
 13
784.459051285795
 23
299.7347107375875
 33
0.0
  0
SOLID
  5
3B5A
330
32C5
100
AcDbEntity
  8
0
 62
     5
100
AcDbTrace
 10
825.459051285795
 20
300.2347107375876
 30
0.0
 11
825.459051285795
 21
299.2347107375875
 31
0.0
 12
828.4590512857949
 22
299.7347107375875
 32
0.0
 13
828.4590512857949
 23
299.7347107375875
 33
0.0
  0
POINT
  5
3B5B
330
32C5
100
AcDbEntity
  8
Defpoints
 62
     0
100
AcDbPoint
 10
784.459051285795
 20
319.275580355167
 30
0.0
  0
POINT
  5
3B5C
330
32C5
100
AcDbEntity
  8
Defpoints
 62
     0
100
AcDbPoint
 10
828.4590512857949
 20
319.1470850528316
 30
0.0
  0
POINT
  5
3B5D
330
32C5
100
AcDbEntity
  8
Defpoints
 62
     0
100
AcDbPoint
 10
828.4590512857949
 20
299.7347107375875
 30
0.0
  0
ENDBLK
  5
32D0
330
32C5
100
AcDbEntity
  8
0
100
AcDbBlockEnd
  0
BLOCK
  5
32DB
330
32D1
100
AcDbEntity
  8
0
100
AcDbBlockBegin
  2
*D18
 70
     1
 10
0.0
 20
0.0
 30
0.0
  3
*D18
  1

  0
LINE
  5
3B5E
330
32D1
100
AcDbEntity
  8
0
 62
     5
370
    -2
100
AcDbLine
 10
828.4590512857949
 20
317.1470850528316
 30
0.0
 11
828.4590512857949
 21
289.6155337761264
 31
0.0
  0
LINE
  5
3B5F
330
32D1
100
AcDbEntity
  8
0
 62
     5
370
    -2
100
AcDbLine
 10
779.9590604649229
 20
330.1129326824428
 30
0.0
 11
779.9590604649229
 21
289.6155337761264
 31
0.0
  0
LINE
  5
3B60
330
32D1
100
AcDbEntity
  8
0
 62
     5
370
    -2
100
AcDbLine
 10
825.459051285795
 20
291.6155337761264
 30
0.0
 11
782.9590604649228
 21
291.6155337761264
 31
0.0
  0
MTEXT
  5
3B61
330
32D1
100
AcDbEntity
  8
0
 62
     5
100
AcDbMText
 10
805.3195903859462
 20
293.9155337761264
 30
0.0
 40
3.0
 41
0.0
 71
     5
 72
     1
  1
48.5
 73
     1
 44
1.0
1001
ACAD
1000
MTEXTBEGIN
1070
    73
1070
     1
1070
    44
1040
1.0
1070
    74
1070
     0
1000
MTEXTEND
  0
SOLID
  5
3B62
330
32D1
100
AcDbEntity
  8
0
 62
     5
100
AcDbTrace
 10
825.459051285795
 20
292.1155337761264
 30
0.0
 11
825.459051285795
 21
291.1155337761264
 31
0.0
 12
828.4590512857949
 22
291.6155337761264
 32
0.0
 13
828.4590512857949
 23
291.6155337761264
 33
0.0
  0
SOLID
  5
3B63
330
32D1
100
AcDbEntity
  8
0
 62
     5
100
AcDbTrace
 10
782.9590604649228
 20
292.1155337761264
 30
0.0
 11
782.9590604649228
 21
291.1155337761264
 31
0.0
 12
779.9590604649229
 22
291.6155337761264
 32
0.0
 13
779.9590604649229
 23
291.6155337761264
 33
0.0
  0
POINT
  5
3B64
330
32D1
100
AcDbEntity
  8
Defpoints
 62
     0
100
AcDbPoint
 10
828.4590512857949
 20
319.1470850528315
 30
0.0
  0
POINT
  5
3B65
330
32D1
100
AcDbEntity
  8
Defpoints
 62
     0
100
AcDbPoint
 10
779.9590604649229
 20
332.1129326824428
 30
0.0
  0
POINT
  5
3B66
330
32D1
100
AcDbEntity
  8
Defpoints
 62
     0
100
AcDbPoint
 10
779.9590604649229
 20
291.6155337761264
 30
0.0
  0
ENDBLK
  5
32DC
330
32D1
100
AcDbEntity
  8
0
100
AcDbBlockEnd
  0
BLOCK
  5
3924
330
391A
100
AcDbEntity
  8
0
100
AcDbBlockBegin
  2
*D20
 70
     1
 10
0.0
 20
0.0
 30
0.0
  3
*D20
  1

  0
LINE
  5
3D26
330
391A
100
AcDbEntity
  8
0
 62
     5
370
    -2
100
AcDbLine
 10
801.7529360041887
 20
479.2575654414974
 30
0.0
 11
764.855772874791
 21
479.2575654414974
 31
0.0
  0
LINE
  5
3D27
330
391A
100
AcDbEntity
  8
0
 62
     5
370
    -2
100
AcDbLine
 10
778.136749905821
 20
378.1867650172114
 30
0.0
 11
764.855772874791
 21
378.1867650172114
 31
0.0
  0
LINE
  5
3D28
330
391A
100
AcDbEntity
  8
0
 62
     5
370
    -2
100
AcDbLine
 10
766.8557728747909
 20
476.2575654414973
 30
0.0
 11
766.8557728747909
 21
381.1867650172114
 31
0.0
  0
SOLID
  5
3D29
330
391A
100
AcDbEntity
  8
0
 62
     5
100
AcDbTrace
 10
766.3557728747909
 20
476.2575654414973
 30
0.0
 11
767.3557728747909
 21
476.2575654414973
 31
0.0
 12
766.8557728747909
 22
479.2575654414974
 32
0.0
 13
766.8557728747909
 23
479.2575654414974
 33
0.0
  0
SOLID
  5
3D2A
330
391A
100
AcDbEntity
  8
0
 62
     5
100
AcDbTrace
 10
766.3557728747909
 20
381.1867650172114
 30
0.0
 11
767.3557728747909
 21
381.1867650172114
 31
0.0
 12
766.8557728747909
 22
378.1867650172114
 32
0.0
 13
766.8557728747909
 23
378.1867650172114
 33
0.0
  0
MTEXT
  5
3D2B
330
391A
100
AcDbEntity
  8
0
 62
     5
100
AcDbMText
 10
764.5557728747909
 20
430.7521357127034
 30
0.0
 40
3.0
 41
0.0
 71
     5
 72
     1
  1
不附磁型：101
 11
0.0000000000000001
 21
1.0
 31
0.0
 73
     1
 44
1.0
1001
ACAD
1000
MTEXTBEGIN
1070
    73
1070
     1
1070
    44
1040
1.0
1070
    74
1070
     0
1000
MTEXTEND
  0
POINT
  5
3D2C
330
391A
100
AcDbEntity
  8
Defpoints
 62
     0
100
AcDbPoint
 10
803.7529360041887
 20
479.2575654414974
 30
0.0
  0
POINT
  5
3D2D
330
391A
100
AcDbEntity
  8
Defpoints
 62
     0
100
AcDbPoint
 10
780.136749905821
 20
378.1867650172114
 30
0.0
  0
POINT
  5
3D2E
330
391A
100
AcDbEntity
  8
Defpoints
 62
     0
100
AcDbPoint
 10
766.8557728747909
 20
378.1867650172114
 30
0.0
  0
ENDBLK
  5
3925
330
391A
100
AcDbEntity
  8
0
100
AcDbBlockEnd
  0
BLOCK
  5
395F
330
3955
100
AcDbEntity
  8
0
100
AcDbBlockBegin
  2
*D21
 70
     1
 10
0.0
 20
0.0
 30
0.0
  3
*D21
  1

  0
LINE
  5
3CE4
330
3955
100
AcDbEntity
  8
0
 62
     5
370
    -2
100
AcDbLine
 10
869.7624742708306
 20
448.6023724421911
 30
0.0
 11
894.0837127514905
 21
443.3391220747486
 31
0.0
  0
LINE
  5
3CE5
330
3955
100
AcDbEntity
  8
0
 62
     5
370
    -2
100
AcDbLine
 10
873.1466270839232
 20
464.2403873333989
 30
0.0
 11
897.4678655645831
 21
458.9771369659565
 31
0.0
  0
LINE
  5
3CE6
330
3955
100
AcDbEntity
  8
0
 62
     5
370
    -2
100
AcDbLine
 10
892.7634895425443
 20
446.6942689684865
 30
0.0
 11
894.8785850507272
 21
456.4680282754915
 31
0.0
  0
SOLID
  5
3CE7
330
3955
100
AcDbEntity
  8
0
 62
     5
100
AcDbTrace
 10
892.2748015771942
 20
446.8000237438956
 30
0.0
 11
893.2521775078946
 21
446.5885141930773
 31
0.0
 12
892.1289608900893
 22
443.7621411763851
 32
0.0
 13
892.1289608900893
 23
443.7621411763851
 33
0.0
  0
SOLID
  5
3CE8
330
3955
100
AcDbEntity
  8
0
 62
     5
100
AcDbTrace
 10
894.3898970853769
 20
456.5737830509006
 30
0.0
 11
895.3672730160775
 21
456.3622735000823
 31
0.0
 12
895.5131137031822
 22
459.400156067593
 32
0.0
 13
895.5131137031822
 23
459.400156067593
 33
0.0
  0
MTEXT
  5
3CE9
330
3955
100
AcDbEntity
  8
0
 62
     5
100
AcDbMText
 10
891.5730726560248
 20
452.0676205888714
 30
0.0
 40
3.0
 41
0.0
 71
     5
 72
     1
  1
{\Famgdt|c136;o}16
 11
0.2115095508182913
 21
0.9773759307004878
 31
0.0
 73
     1
 44
1.0
1001
ACAD
1000
MTEXTBEGIN
1070
    73
1070
     1
1070
    44
1040
1.0
1070
    74
1070
     0
1000
MTEXTEND
  0
POINT
  5
3CEA
330
3955
100
AcDbEntity
  8
Defpoints
 62
     0
100
AcDbPoint
 10
867.8077224094295
 20
449.0253915438278
 30
0.0
  0
POINT
  5
3CEB
330
3955
100
AcDbEntity
  8
Defpoints
 62
     0
100
AcDbPoint
 10
871.1918752225221
 20
464.6634064350355
 30
0.0
  0
POINT
  5
3CEC
330
3955
100
AcDbEntity
  8
Defpoints
 62
     0
100
AcDbPoint
 10
895.5131137031822
 20
459.400156067593
 30
0.0
  0
ENDBLK
  5
3960
330
3955
100
AcDbEntity
  8
0
100
AcDbBlockEnd
  0
BLOCK
  5
398A
330
3980
100
AcDbEntity
  8
0
100
AcDbBlockBegin
  2
*D22
 70
     1
 10
0.0
 20
0.0
 30
0.0
  3
*D22
  1

  0
LINE
  5
3CDB
330
3980
100
AcDbEntity
  8
0
 62
     5
370
    -2
100
AcDbLine
 10
803.5815123650658
 20
480.8293841129572
 30
0.0
 11
805.7613564702243
 21
490.9023437160509
 31
0.0
  0
LINE
  5
3CDC
330
3980
100
AcDbEntity
  8
0
 62
     5
370
    -2
100
AcDbLine
 10
871.9978275141
 20
466.0237155556771
 30
0.0
 11
874.1776716192584
 21
476.0966751587709
 31
0.0
  0
LINE
  5
3CDD
330
3980
100
AcDbEntity
  8
0
 62
     5
370
    -2
100
AcDbLine
 10
808.270465160689
 20
488.3130632021951
 30
0.0
 11
870.8225247255201
 21
474.7764519498248
 31
0.0
  0
SOLID
  5
3CDE
330
3980
100
AcDbEntity
  8
0
 62
     5
100
AcDbTrace
 10
808.3762199360982
 20
488.8017511675453
 30
0.0
 11
808.1647103852798
 21
487.8243752368449
 31
0.0
 12
805.3383373685877
 22
488.94759185465
 32
0.0
 13
805.3383373685877
 23
488.94759185465
 33
0.0
  0
SOLID
  5
3CDF
330
3980
100
AcDbEntity
  8
0
 62
     5
100
AcDbTrace
 10
870.9282795009293
 20
475.265139915175
 30
0.0
 11
870.7167699501111
 21
474.2877639844746
 31
0.0
 12
873.7546525176217
 22
474.1419232973699
 32
0.0
 13
873.7546525176217
 23
474.1419232973699
 33
0.0
  0
MTEXT
  5
3CE0
330
3980
100
AcDbEntity
  8
0
 62
     5
100
AcDbMText
 10
840.0329669099866
 20
483.792722216621
 30
0.0
 40
3.0
 41
0.0
 71
     5
 72
     1
  1
70
 11
0.9773759307004889
 21
-0.211509550818287
 31
0.0
 73
     1
 44
1.0
1001
ACAD
1000
MTEXTBEGIN
1070
    73
1070
     1
1070
    44
1040
1.0
1070
    74
1070
     0
1000
MTEXTEND
  0
POINT
  5
3CE1
330
3980
100
AcDbEntity
  8
Defpoints
 62
     0
100
AcDbPoint
 10
803.1584932634293
 20
478.8746322515562
 30
0.0
  0
POINT
  5
3CE2
330
3980
100
AcDbEntity
  8
Defpoints
 62
     0
100
AcDbPoint
 10
871.5748084124633
 20
464.068963694276
 30
0.0
  0
POINT
  5
3CE3
330
3980
100
AcDbEntity
  8
Defpoints
 62
     0
100
AcDbPoint
 10
873.7546525176217
 20
474.1419232973699
 30
0.0
  0
ENDBLK
  5
398B
330
3980
100
AcDbEntity
  8
0
100
AcDbBlockEnd
  0
BLOCK
  5
39FF
330
39F5
100
AcDbEntity
  8
0
100
AcDbBlockBegin
  2
*D23
 70
     1
 10
0.0
 20
0.0
 30
0.0
  3
*D23
  1

  0
LINE
  5
3CB0
330
39F5
100
AcDbEntity
  8
0
 62
     5
370
    -2
100
AcDbLine
 10
670.1222245464347
 20
510.3009263785149
 30
0.0
 11
603.8598894418064
 21
510.300926378515
 31
0.0
  0
LINE
  5
3CB1
330
39F5
100
AcDbEntity
  8
0
 62
     5
370
    -2
100
AcDbLine
 10
635.6062115353981
 20
427.1867650172113
 30
0.0
 11
603.8598894418064
 21
427.1867650172113
 31
0.0
  0
LINE
  5
3CB2
330
39F5
100
AcDbEntity
  8
0
 62
     5
370
    -2
100
AcDbLine
 10
605.8598894418064
 20
507.300926378515
 30
0.0
 11
605.8598894418064
 21
430.1867650172114
 31
0.0
  0
SOLID
  5
3CB3
330
39F5
100
AcDbEntity
  8
0
 62
     5
100
AcDbTrace
 10
605.3598894418064
 20
507.300926378515
 30
0.0
 11
606.3598894418064
 21
507.300926378515
 31
0.0
 12
605.8598894418064
 22
510.300926378515
 32
0.0
 13
605.8598894418064
 23
510.300926378515
 33
0.0
  0
SOLID
  5
3CB4
330
39F5
100
AcDbEntity
  8
0
 62
     5
100
AcDbTrace
 10
605.3598894418064
 20
430.1867650172114
 30
0.0
 11
606.3598894418064
 21
430.1867650172114
 31
0.0
 12
605.8598894418064
 22
427.1867650172113
 32
0.0
 13
605.8598894418064
 23
427.1867650172113
 33
0.0
  0
MTEXT
  5
3CB5
330
39F5
100
AcDbEntity
  8
0
 62
     5
100
AcDbMText
 10
603.5598894418064
 20
468.8371075979937
 30
0.0
 40
3.0
 41
0.0
 71
     5
 72
     1
  1
83.1
 11
0.0000000000000001
 21
1.0
 31
0.0
 73
     1
 44
1.0
1001
ACAD
1000
MTEXTBEGIN
1070
    73
1070
     1
1070
    44
1040
1.0
1070
    74
1070
     0
1000
MTEXTEND
  0
POINT
  5
3CB6
330
39F5
100
AcDbEntity
  8
Defpoints
 62
     0
100
AcDbPoint
 10
672.1222245464347
 20
510.3009263785149
 30
0.0
  0
POINT
  5
3CB7
330
39F5
100
AcDbEntity
  8
Defpoints
 62
     0
100
AcDbPoint
 10
637.606211535398
 20
427.1867650172113
 30
0.0
  0
POINT
  5
3CB8
330
39F5
100
AcDbEntity
  8
Defpoints
 62
     0
100
AcDbPoint
 10
605.8598894418064
 20
427.1867650172113
 30
0.0
  0
ENDBLK
  5
3A00
330
39F5
100
AcDbEntity
  8
0
100
AcDbBlockEnd
  0
BLOCK
  5
3CC5
330
3CBB
100
AcDbEntity
  8
0
100
AcDbBlockBegin
  2
*D24
 70
     1
 10
0.0
 20
0.0
 30
0.0
  3
*D24
  1

  0
LINE
  5
3CD2
330
3CBB
100
AcDbEntity
  8
0
 62
     5
370
    -2
100
AcDbLine
 10
868.2590512857949
 20
348.572509820252
 30
0.0
 11
868.2590512857949
 21
370.0192356760459
 31
0.0
  0
LINE
  5
3CD3
330
3CBB
100
AcDbEntity
  8
0
 62
     5
370
    -2
100
AcDbLine
 10
806.4590512857948
 20
366.0923058896407
 30
0.0
 11
806.4590512857948
 21
370.0192356760459
 31
0.0
  0
LINE
  5
3CD4
330
3CBB
100
AcDbEntity
  8
0
 62
     5
370
    -2
100
AcDbLine
 10
865.2590512857949
 20
368.0192356760459
 30
0.0
 11
809.4590512857948
 21
368.0192356760459
 31
0.0
  0
SOLID
  5
3CD5
330
3CBB
100
AcDbEntity
  8
0
 62
     5
100
AcDbTrace
 10
865.2590512857949
 20
368.5192356760459
 30
0.0
 11
865.2590512857949
 21
367.5192356760459
 31
0.0
 12
868.2590512857949
 22
368.0192356760459
 32
0.0
 13
868.2590512857949
 23
368.0192356760459
 33
0.0
  0
SOLID
  5
3CD6
330
3CBB
100
AcDbEntity
  8
0
 62
     5
100
AcDbTrace
 10
809.4590512857948
 20
368.5192356760459
 30
0.0
 11
809.4590512857948
 21
367.5192356760459
 31
0.0
 12
806.4590512857948
 22
368.0192356760459
 32
0.0
 13
806.4590512857948
 23
368.0192356760459
 33
0.0
  0
MTEXT
  5
3CD7
330
3CBB
100
AcDbEntity
  8
0
 62
     5
100
AcDbMText
 10
836.0046508330791
 20
370.3192356760459
 30
0.0
 40
3.0
 41
0.0
 71
     5
 72
     1
  1
61.8
 73
     1
 44
1.0
1001
ACAD
1000
MTEXTBEGIN
1070
    73
1070
     1
1070
    44
1040
1.0
1070
    74
1070
     0
1000
MTEXTEND
  0
POINT
  5
3CD8
330
3CBB
100
AcDbEntity
  8
Defpoints
 62
     0
100
AcDbPoint
 10
868.2590512857949
 20
346.572509820252
 30
0.0
  0
POINT
  5
3CD9
330
3CBB
100
AcDbEntity
  8
Defpoints
 62
     0
100
AcDbPoint
 10
806.4590512857948
 20
364.0923058896407
 30
0.0
  0
POINT
  5
3CDA
330
3CBB
100
AcDbEntity
  8
Defpoints
 62
     0
100
AcDbPoint
 10
806.4590512857948
 20
368.0192356760459
 30
0.0
  0
ENDBLK
  5
3CC6
330
3CBB
100
AcDbEntity
  8
0
100
AcDbBlockEnd
  0
BLOCK
  5
3D3A
330
3D30
100
AcDbEntity
  8
0
100
AcDbBlockBegin
  2
*D25
 70
     1
 10
0.0
 20
0.0
 30
0.0
  3
*D25
  1

  0
LINE
  5
3D6D
330
3D30
100
AcDbEntity
  8
0
 62
     5
370
    -2
100
AcDbLine
 10
870.1049437798095
 20
449.2168581387982
 30
0.0
 11
880.3172580222023
 21
449.2168581387982
 31
0.0
  0
LINE
  5
3D6E
330
3D30
100
AcDbEntity
  8
0
 62
     5
370
    -2
100
AcDbLine
 10
830.459051285795
 20
378.1867650172114
 30
0.0
 11
880.3172580222023
 21
378.1867650172114
 31
0.0
  0
LINE
  5
3D6F
330
3D30
100
AcDbEntity
  8
0
 62
     5
370
    -2
100
AcDbLine
 10
878.3172580222023
 20
446.2168581387983
 30
0.0
 11
878.3172580222023
 21
381.1867650172114
 31
0.0
  0
SOLID
  5
3D70
330
3D30
100
AcDbEntity
  8
0
 62
     5
100
AcDbTrace
 10
877.8172580222024
 20
446.2168581387983
 30
0.0
 11
878.8172580222024
 21
446.2168581387983
 31
0.0
 12
878.3172580222023
 22
449.2168581387982
 32
0.0
 13
878.3172580222023
 23
449.2168581387982
 33
0.0
  0
SOLID
  5
3D71
330
3D30
100
AcDbEntity
  8
0
 62
     5
100
AcDbTrace
 10
877.8172580222024
 20
381.1867650172114
 30
0.0
 11
878.8172580222024
 21
381.1867650172114
 31
0.0
 12
878.3172580222023
 22
378.1867650172114
 32
0.0
 13
878.3172580222023
 23
378.1867650172114
 33
0.0
  0
MTEXT
  5
3D72
330
3D30
100
AcDbEntity
  8
0
 62
     5
100
AcDbMText
 10
876.0172580222024
 20
413.7018115780048
 30
0.0
 40
3.0
 41
0.0
 71
     5
 72
     1
  1
不附磁型：71.6
 11
0.0000000000000001
 21
1.0
 31
0.0
 73
     1
 44
1.0
1001
ACAD
1000
MTEXTBEGIN
1070
    73
1070
     1
1070
    44
1040
1.0
1070
    74
1070
     0
1000
MTEXTEND
  0
POINT
  5
3D73
330
3D30
100
AcDbEntity
  8
Defpoints
 62
     0
100
AcDbPoint
 10
868.1049437798096
 20
449.2168581387982
 30
0.0
  0
POINT
  5
3D74
330
3D30
100
AcDbEntity
  8
Defpoints
 62
     0
100
AcDbPoint
 10
828.4590512857951
 20
378.1867650172114
 30
0.0
  0
POINT
  5
3D75
330
3D30
100
AcDbEntity
  8
Defpoints
 62
     0
100
AcDbPoint
 10
878.3172580222023
 20
378.1867650172114
 30
0.0
  0
ENDBLK
  5
3D3B
330
3D30
100
AcDbEntity
  8
0
100
AcDbBlockEnd
  0
ENDSEC
  0
SECTION
  2
ENTITIES
  0
INSERT
  5
210F
330
1F
100
AcDbEntity
  8
AM_0N
100
AcDbBlockReference
  2
*U2
 10
0.0
 20
0.0
 30
0.0
1001
GENIUS_GENOREF_13
1005
21F6
1005
21F5
  0
INSERT
  5
2120
330
1F
100
AcDbEntity
  8
AM_0N
100
AcDbBlockReference
  2
*U3
 10
0.0
 20
0.0
 30
0.0
1001
GENIUS_GENOREF_13
1005
21F2
1005
21F1
  0
INSERT
  5
212A
330
1F
100
AcDbEntity
  8
AM_0N
100
AcDbBlockReference
  2
*U4
 10
0.0
 20
0.0
 30
0.0
1001
GENIUS_GENOREF_13
1005
21EE
1005
21ED
  0
INSERT
  5
21A8
330
1F
100
AcDbEntity
  8
AM_0N
100
AcDbBlockReference
  2
*U5
 10
0.0
 20
0.0
 30
0.0
1001
GENIUS_GENOREF_13
1005
21E4
1005
21E3
  0
INSERT
  5
21AB
330
1F
100
AcDbEntity
  8
AM_0N
100
AcDbBlockReference
  2
*U6
 10
0.0
 20
0.0
 30
0.0
1001
GENIUS_GENOREF_13
1005
21E0
1005
21DF
  0
INSERT
  5
21AE
330
1F
100
AcDbEntity
  8
AM_0N
100
AcDbBlockReference
  2
*U7
 10
0.0
 20
0.0
 30
0.0
1001
GENIUS_GENOREF_13
1005
21DC
1005
21DB
  0
POINT
  5
21DB
330
1F
100
AcDbEntity
  8
0
 60
     1
100
AcDbPoint
 10
297.0539075772602
 20
35.89327740376592
 30
0.0
1001
GENIUS_GENOBJ-F-PFASSM_13
1002
{
1000
OWNER
1000
GEF
1002
}
1001
GENIUS_GENOENT_13
1002
{
1000
MYREF
1005
21DB
1002
}
1002
{
1000
GRP
1005
0
1002
}
1001
GENIUS_GENOLIS_13
1002
{
1000
ENT
1005
21AF
1005
21B0
1005
21AE
1002
}
1001
GENIUS_GENODEF_13
1002
{
1000
HIER
1070
   200
1002
}
1002
{
1000
MANEDIT
1070
     1
1002
}
1002
{
1000
NOSEL
1070
     0
1002
}
1002
{
1000
BEHIND
1070
     0
1002
}
1002
{
1000
REACTOR
1002
}
  0
POINT
  5
21DC
330
1F
100
AcDbEntity
  8
0
 60
     1
100
AcDbPoint
 10
297.0539075772602
 20
35.89327740376592
 30
0.0
1001
GENIUS_GENOBJ-NBEHI-BHF_13
1002
{
1000
OWNER
1000
GENBEHI
1002
}
1001
GENIUS_GENOENT_13
1002
{
1000
MYREF
1005
21DC
1002
}
1002
{
1000
GRP
1005
0
1002
}
1001
GENIUS_GENOLIS_13
1002
{
1000
ENT
1005
21AE
1002
}
1001
GENIUS_GENODEF_13
1002
{
1000
HIER
1070
     1
1002
}
1002
{
1000
MANEDIT
1070
     0
1002
}
1002
{
1000
NOSEL
1070
     1
1002
}
1002
{
1000
BEHIND
1070
     0
1002
}
1002
{
1000
REACTOR
1002
}
1001
GENIUS_GENBH_13
1002
{
1000
OIUMAP
1000
OIU
1002
}
1002
{
1000
FLAGS
1070
    32
1002
}
1002
{
1000
BGO
1005
0
1002
}
  0
POINT
  5
21DF
330
1F
100
AcDbEntity
  8
0
 60
     1
100
AcDbPoint
 10
297.0539075772602
 20
35.89327740376592
 30
0.0
1001
GENIUS_GENOBJ-F-PFASSM_13
1002
{
1000
OWNER
1000
GEF
1002
}
1001
GENIUS_GENOENT_13
1002
{
1000
MYREF
1005
21DF
1002
}
1002
{
1000
GRP
1005
0
1002
}
1001
GENIUS_GENOLIS_13
1002
{
1000
ENT
1005
21AC
1005
21AD
1005
21AB
1002
}
1001
GENIUS_GENODEF_13
1002
{
1000
HIER
1070
   200
1002
}
1002
{
1000
MANEDIT
1070
     1
1002
}
1002
{
1000
NOSEL
1070
     0
1002
}
1002
{
1000
BEHIND
1070
     0
1002
}
1002
{
1000
REACTOR
1002
}
  0
POINT
  5
21E0
330
1F
100
AcDbEntity
  8
0
 60
     1
100
AcDbPoint
 10
297.0539075772602
 20
35.89327740376592
 30
0.0
1001
GENIUS_GENOBJ-NBEHI-BHF_13
1002
{
1000
OWNER
1000
GENBEHI
1002
}
1001
GENIUS_GENOENT_13
1002
{
1000
MYREF
1005
21E0
1002
}
1002
{
1000
GRP
1005
0
1002
}
1001
GENIUS_GENOLIS_13
1002
{
1000
ENT
1005
21AB
1002
}
1001
GENIUS_GENODEF_13
1002
{
1000
HIER
1070
     1
1002
}
1002
{
1000
MANEDIT
1070
     0
1002
}
1002
{
1000
NOSEL
1070
     1
1002
}
1002
{
1000
BEHIND
1070
     0
1002
}
1002
{
1000
REACTOR
1002
}
1001
GENIUS_GENBH_13
1002
{
1000
OIUMAP
1000
OIU
1002
}
1002
{
1000
FLAGS
1070
    32
1002
}
1002
{
1000
BGO
1005
0
1002
}
  0
POINT
  5
21E3
330
1F
100
AcDbEntity
  8
0
 60
     1
100
AcDbPoint
 10
297.0539075772602
 20
35.89327740376592
 30
0.0
1001
GENIUS_GENOBJ-F-PFASSM_13
1002
{
1000
OWNER
1000
GEF
1002
}
1001
GENIUS_GENOENT_13
1002
{
1000
MYREF
1005
21E3
1002
}
1002
{
1000
GRP
1005
0
1002
}
1001
GENIUS_GENOLIS_13
1002
{
1000
ENT
1005
21A9
1005
21AA
1005
21A8
1002
}
1001
GENIUS_GENODEF_13
1002
{
1000
HIER
1070
   200
1002
}
1002
{
1000
MANEDIT
1070
     1
1002
}
1002
{
1000
NOSEL
1070
     0
1002
}
1002
{
1000
BEHIND
1070
     0
1002
}
1002
{
1000
REACTOR
1002
}
  0
POINT
  5
21E4
330
1F
100
AcDbEntity
  8
0
 60
     1
100
AcDbPoint
 10
297.0539075772602
 20
35.89327740376592
 30
0.0
1001
GENIUS_GENOBJ-NBEHI-BHF_13
1002
{
1000
OWNER
1000
GENBEHI
1002
}
1001
GENIUS_GENOENT_13
1002
{
1000
MYREF
1005
21E4
1002
}
1002
{
1000
GRP
1005
0
1002
}
1001
GENIUS_GENOLIS_13
1002
{
1000
ENT
1005
21A8
1002
}
1001
GENIUS_GENODEF_13
1002
{
1000
HIER
1070
     1
1002
}
1002
{
1000
MANEDIT
1070
     0
1002
}
1002
{
1000
NOSEL
1070
     1
1002
}
1002
{
1000
BEHIND
1070
     0
1002
}
1002
{
1000
REACTOR
1002
}
1001
GENIUS_GENBH_13
1002
{
1000
OIUMAP
1000
OIU
1002
}
1002
{
1000
FLAGS
1070
    32
1002
}
1002
{
1000
BGO
1005
0
1002
}
  0
POINT
  5
21ED
330
1F
100
AcDbEntity
  8
0
 60
     1
100
AcDbPoint
 10
297.0539075772602
 20
35.89327740376592
 30
0.0
1001
GENIUS_GENOBJ-F-PFASSM_13
1002
{
1000
OWNER
1000
GEF
1002
}
1001
GENIUS_GENOENT_13
1002
{
1000
MYREF
1005
21ED
1002
}
1002
{
1000
GRP
1005
0
1002
}
1001
GENIUS_GENOLIS_13
1002
{
1000
ENT
1005
212B
1005
2130
1005
212A
1002
}
1001
GENIUS_GENODEF_13
1002
{
1000
HIER
1070
   200
1002
}
1002
{
1000
MANEDIT
1070
     1
1002
}
1002
{
1000
NOSEL
1070
     0
1002
}
1002
{
1000
BEHIND
1070
     0
1002
}
1002
{
1000
REACTOR
1002
}
  0
POINT
  5
21EE
330
1F
100
AcDbEntity
  8
0
 60
     1
100
AcDbPoint
 10
297.0539075772602
 20
35.89327740376592
 30
0.0
1001
GENIUS_GENOBJ-NBEHI-BHF_13
1002
{
1000
OWNER
1000
GENBEHI
1002
}
1001
GENIUS_GENOENT_13
1002
{
1000
MYREF
1005
21EE
1002
}
1002
{
1000
GRP
1005
0
1002
}
1001
GENIUS_GENOLIS_13
1002
{
1000
ENT
1005
212A
1002
}
1001
GENIUS_GENODEF_13
1002
{
1000
HIER
1070
     1
1002
}
1002
{
1000
MANEDIT
1070
     0
1002
}
1002
{
1000
NOSEL
1070
     1
1002
}
1002
{
1000
BEHIND
1070
     0
1002
}
1002
{
1000
REACTOR
1002
}
1001
GENIUS_GENBH_13
1002
{
1000
OIUMAP
1000
OIU
1002
}
1002
{
1000
FLAGS
1070
    32
1002
}
1002
{
1000
BGO
1005
0
1002
}
  0
POINT
  5
21F1
330
1F
100
AcDbEntity
  8
0
 60
     1
100
AcDbPoint
 10
297.0539075772602
 20
35.89327740376592
 30
0.0
1001
GENIUS_GENOBJ-F-PFASSM_13
1002
{
1000
OWNER
1000
GEF
1002
}
1001
GENIUS_GENOENT_13
1002
{
1000
MYREF
1005
21F1
1002
}
1002
{
1000
GRP
1005
0
1002
}
1001
GENIUS_GENOLIS_13
1002
{
1000
ENT
1005
2121
1005
2125
1005
2120
1002
}
1001
GENIUS_GENODEF_13
1002
{
1000
HIER
1070
   200
1002
}
1002
{
1000
MANEDIT
1070
     1
1002
}
1002
{
1000
NOSEL
1070
     0
1002
}
1002
{
1000
BEHIND
1070
     0
1002
}
1002
{
1000
REACTOR
1002
}
  0
POINT
  5
21F2
330
1F
100
AcDbEntity
  8
0
 60
     1
100
AcDbPoint
 10
297.0539075772602
 20
35.89327740376592
 30
0.0
1001
GENIUS_GENOBJ-NBEHI-BHF_13
1002
{
1000
OWNER
1000
GENBEHI
1002
}
1001
GENIUS_GENOENT_13
1002
{
1000
MYREF
1005
21F2
1002
}
1002
{
1000
GRP
1005
0
1002
}
1001
GENIUS_GENOLIS_13
1002
{
1000
ENT
1005
2120
1002
}
1001
GENIUS_GENODEF_13
1002
{
1000
HIER
1070
     1
1002
}
1002
{
1000
MANEDIT
1070
     0
1002
}
1002
{
1000
NOSEL
1070
     1
1002
}
1002
{
1000
BEHIND
1070
     0
1002
}
1002
{
1000
REACTOR
1002
}
1001
GENIUS_GENBH_13
1002
{
1000
OIUMAP
1000
OIU
1002
}
1002
{
1000
FLAGS
1070
    32
1002
}
1002
{
1000
BGO
1005
0
1002
}
  0
POINT
  5
21F5
330
1F
100
AcDbEntity
  8
0
 60
     1
100
AcDbPoint
 10
297.0539075772602
 20
35.89327740376592
 30
0.0
1001
GENIUS_GENOBJ-F-PFASSM_13
1002
{
1000
OWNER
1000
GEF
1002
}
1001
GENIUS_GENOENT_13
1002
{
1000
MYREF
1005
21F5
1002
}
1002
{
1000
GRP
1005
0
1002
}
1001
GENIUS_GENOLIS_13
1002
{
1000
ENT
1005
2110
1005
2118
1005
210F
1002
}
1001
GENIUS_GENODEF_13
1002
{
1000
HIER
1070
   200
1002
}
1002
{
1000
MANEDIT
1070
     1
1002
}
1002
{
1000
NOSEL
1070
     0
1002
}
1002
{
1000
BEHIND
1070
     0
1002
}
1002
{
1000
REACTOR
1002
}
  0
POINT
  5
21F6
330
1F
100
AcDbEntity
  8
0
 60
     1
100
AcDbPoint
 10
297.0539075772602
 20
35.89327740376592
 30
0.0
1001
GENIUS_GENOBJ-NBEHI-BHF_13
1002
{
1000
OWNER
1000
GENBEHI
1002
}
1001
GENIUS_GENOENT_13
1002
{
1000
MYREF
1005
21F6
1002
}
1002
{
1000
GRP
1005
0
1002
}
1001
GENIUS_GENOLIS_13
1002
{
1000
ENT
1005
210F
1002
}
1001
GENIUS_GENODEF_13
1002
{
1000
HIER
1070
     1
1002
}
1002
{
1000
MANEDIT
1070
     0
1002
}
1002
{
1000
NOSEL
1070
     1
1002
}
1002
{
1000
BEHIND
1070
     0
1002
}
1002
{
1000
REACTOR
1002
}
1001
GENIUS_GENBH_13
1002
{
1000
OIUMAP
1000
OIU
1002
}
1002
{
1000
FLAGS
1070
    32
1002
}
1002
{
1000
BGO
1005
0
1002
}
  0
LINE
  5
2B36
330
1F
100
AcDbEntity
  8
AM_7
 48
7.0
100
AcDbLine
 10
664.9285129153721
 20
375.8802789602143
 30
0.0
 11
664.9285129153721
 21
456.4859907477772
 31
0.0
  0
LINE
  5
2B37
102
{ACAD_REACTORS
330
2F52
330
2F6A
102
}
330
1F
100
AcDbEntity
  8
AM_VIS
100
AcDbLine
 10
638.4285220944998
 20
378.1867650172114
 30
0.0
 11
638.4285220944998
 21
427.1867650172113
 31
0.0
  0
LINE
  5
2B38
330
1F
100
AcDbEntity
  8
AM_VIS
100
AcDbLine
 10
638.606211535398
 20
427.1867650172113
 30
0.0
 11
638.4285220944999
 21
427.1867650172113
 31
0.0
  0
LINE
  5
2B39
330
1F
100
AcDbEntity
  8
AM_VIS
100
AcDbLine
 10
638.606211535398
 20
378.1867650172114
 30
0.0
 11
638.4285220944999
 21
378.1867650172114
 31
0.0
  0
LINE
  5
2B3A
102
{ACAD_REACTORS
330
2F3A
102
}
330
1F
100
AcDbEntity
  8
AM_VIS
100
AcDbLine
 10
638.606211535398
 20
427.1867650172113
 30
0.0
 11
642.928512915372
 21
427.1867650172113
 31
0.0
  0
LINE
  5
2B3B
102
{ACAD_REACTORS
330
2F6A
102
}
330
1F
100
AcDbEntity
  8
AM_VIS
100
AcDbLine
 10
638.606211535398
 20
378.1867650172114
 30
0.0
 11
642.928512915372
 21
378.1867650172114
 31
0.0
  0
LINE
  5
2B3C
330
1F
100
AcDbEntity
  8
AM_VIS
100
AcDbLine
 10
642.928512915372
 20
427.1867650172113
 30
0.0
 11
645.2752689083385
 21
427.1867650172113
 31
0.0
  0
LINE
  5
2B3D
330
1F
100
AcDbEntity
  8
AM_VIS
100
AcDbLine
 10
642.928512915372
 20
378.1867650172114
 30
0.0
 11
645.2752689083385
 21
378.1867650172114
 31
0.0
  0
LINE
  5
2B3E
330
1F
100
AcDbEntity
  8
AM_VIS
100
AcDbLine
 10
645.2752689083385
 20
427.1867650172113
 30
0.0
 11
653.928512915372
 21
427.1867650172113
 31
0.0
  0
LINE
  5
2B3F
330
1F
100
AcDbEntity
  8
AM_VIS
100
AcDbLine
 10
645.2752689083385
 20
378.1867650172114
 30
0.0
 11
656.5285129153721
 21
378.1867650172114
 31
0.0
  0
LINE
  5
2B40
330
1F
100
AcDbEntity
  8
AM_VIS
100
AcDbLine
 10
656.5285129153721
 20
378.1867650172114
 30
0.0
 11
663.8285129153722
 21
378.1867650172114
 31
0.0
  0
LINE
  5
2B41
330
1F
100
AcDbEntity
  8
AM_VIS
100
AcDbLine
 10
666.028512915372
 20
378.1867650172114
 30
0.0
 11
666.028512915372
 21
427.1867650172113
 31
0.0
  0
LINE
  5
2B42
330
1F
100
AcDbEntity
  8
AM_VIS
100
AcDbLine
 10
663.8285129153722
 20
378.1867650172114
 30
0.0
 11
666.028512915372
 21
378.1867650172114
 31
0.0
  0
LINE
  5
2B43
330
1F
100
AcDbEntity
  8
AM_VIS
100
AcDbLine
 10
664.9285129153721
 20
427.1867650172113
 30
0.0
 11
686.9285129153722
 21
427.1867650172113
 31
0.0
  0
LINE
  5
2B44
330
1F
100
AcDbEntity
  8
AM_VIS
100
AcDbLine
 10
666.0285129153719
 20
378.1867650172114
 30
0.0
 11
673.328512915372
 21
378.1867650172114
 31
0.0
  0
LINE
  5
2B45
330
1F
100
AcDbEntity
  8
AM_VIS
100
AcDbLine
 10
673.328512915372
 20
378.1867650172114
 30
0.0
 11
673.328512915372
 21
427.1867650172113
 31
0.0
  0
LINE
  5
2B46
330
1F
100
AcDbEntity
  8
AM_VIS
100
AcDbLine
 10
673.328512915372
 20
378.1867650172114
 30
0.0
 11
686.928512915372
 21
378.1867650172114
 31
0.0
  0
LINE
  5
2B47
330
1F
100
AcDbEntity
  8
AM_VIS
100
AcDbLine
 10
686.928512915372
 20
378.1867650172114
 30
0.0
 11
686.928512915372
 21
427.1867650172113
 31
0.0
  0
LINE
  5
2B49
330
1F
100
AcDbEntity
  8
AM_VIS
100
AcDbLine
 10
664.9285129153719
 20
378.1867650172114
 30
0.0
 11
647.928512915372
 21
378.1867650172114
 31
0.0
  0
LINE
  5
2B4D
330
1F
100
AcDbEntity
  8
AM_VIS
100
AcDbLine
 10
647.928512915372
 20
378.1867650172114
 30
0.0
 11
642.928512915372
 21
378.1867650172114
 31
0.0
  0
LINE
  5
2B93
330
1F
100
AcDbEntity
  8
AM_VIS
100
AcDbLine
 10
647.928512915372
 20
427.1867650172113
 30
0.0
 11
653.4067942935692
 21
427.1867650172113
 31
0.0
  0
LINE
  5
2BA0
330
1F
100
AcDbEntity
  8
AM_VIS
100
AcDbLine
 10
653.4067942935692
 20
427.1867650172113
 30
0.0
 11
653.928512915372
 21
427.1867650172113
 31
0.0
  0
LINE
  5
2BE6
330
1F
100
AcDbEntity
  8
AM_VIS
100
AcDbLine
 10
647.928512915372
 20
378.1867650172114
 30
0.0
 11
642.928512915372
 21
378.1867650172114
 31
0.0
  0
LINE
  5
2C01
330
1F
100
AcDbEntity
  8
AM_VIS
100
AcDbLine
 10
647.928512915372
 20
427.1867650172114
 30
0.0
 11
664.9285129153721
 21
427.1867650172113
 31
0.0
  0
LINE
  5
2C1B
330
1F
100
AcDbEntity
  8
AM_VIS
100
AcDbLine
 10
653.406794293569
 20
427.1867650172114
 30
0.0
 11
653.928512915372
 21
427.1867650172114
 31
0.0
  0
LINE
  5
2C2E
330
1F
100
AcDbEntity
  8
AM_VIS
100
AcDbLine
 10
670.6752689083383
 20
378.1867650172114
 30
0.0
 11
681.928512915372
 21
378.1867650172114
 31
0.0
  0
LINE
  5
2C32
102
{ACAD_REACTORS
330
2F3A
102
}
330
1F
100
AcDbEntity
  8
AM_7
 48
7.0
100
AcDbLine
 10
652.470235397091
 20
418.1867650172113
 30
0.0
 11
636.5100203148749
 21
418.1867650172113
 31
0.0
  0
LINE
  5
2C33
330
1F
100
AcDbEntity
  8
0
  6
HIDDEN
 62
     5
 48
10.0
100
AcDbLine
 10
647.4285220944998
 20
414.2514481464313
 30
0.0
 11
647.4285220944998
 21
422.1220818879914
 31
0.0
  0
LINE
  5
2C34
330
1F
100
AcDbEntity
  8
0
  6
HIDDEN
 62
     5
 48
10.0
100
AcDbLine
 10
645.9285220944998
 20
413.5486707883996
 30
0.0
 11
645.9285220944998
 21
422.824859246023
 31
0.0
  0
LINE
  5
2C36
330
1F
100
AcDbEntity
  8
0
  6
HIDDEN
 62
     5
 48
10.0
100
AcDbLine
 10
639.206070900932
 20
422.409216210779
 30
0.0
 11
639.206070900932
 21
413.9643138236437
 31
0.0
  0
LINE
  5
2C37
330
1F
100
AcDbEntity
  8
0
  6
HIDDEN
 62
     5
 48
10.0
100
AcDbLine
 10
645.9321079523424
 20
413.5501560993506
 30
0.0
 11
646.6046290192566
 21
414.2226771662648
 31
0.0
  0
LINE
  5
2C38
330
1F
100
AcDbEntity
  8
0
  6
HIDDEN
 62
     5
 48
10.0
100
AcDbLine
 10
639.206070900932
 20
413.9643138236435
 30
0.0
 11
647.4285220944998
 21
414.2514481464313
 31
0.0
  0
LINE
  5
2C39
330
1F
100
AcDbEntity
  8
0
  6
HIDDEN
 62
     5
 48
10.0
100
AcDbLine
 10
638.4285220944998
 20
413.1867650172114
 30
0.0
 11
639.206070900932
 21
413.9643138236437
 31
0.0
  0
LINE
  5
2C3A
330
1F
100
AcDbEntity
  8
0
  6
HIDDEN
 62
     5
 48
10.0
100
AcDbLine
 10
638.5321405300012
 20
413.2903834527128
 30
0.0
 11
645.9285220944998
 21
413.5486707883996
 31
0.0
  0
LINE
  5
2C3B
330
1F
100
AcDbEntity
  8
0
  6
HIDDEN
 62
     5
 48
10.0
100
AcDbLine
 10
647.4285220944998
 20
418.9367650172111
 30
0.0
 11
648.9285220944998
 21
418.9367650172111
 31
0.0
  0
LINE
  5
2C3C
330
1F
100
AcDbEntity
  8
0
  6
HIDDEN
 62
     5
 48
10.0
100
AcDbLine
 10
647.4285220944998
 20
417.4367650172113
 30
0.0
 11
648.9285220945
 21
417.4367650172111
 31
0.0
  0
LINE
  5
2C3D
330
1F
100
AcDbEntity
  8
0
  6
HIDDEN
 62
     5
 48
10.0
100
AcDbLine
 10
645.9321079523422
 20
422.823373935072
 30
0.0
 11
646.6046290192565
 21
422.1508528681578
 31
0.0
  0
LINE
  5
2C3E
330
1F
100
AcDbEntity
  8
0
  6
HIDDEN
 62
     5
 48
10.0
100
AcDbLine
 10
639.206070900932
 20
422.409216210779
 30
0.0
 11
647.4285220944998
 21
422.1220818879914
 31
0.0
  0
LINE
  5
2C3F
330
1F
100
AcDbEntity
  8
0
  6
HIDDEN
 62
     5
 48
10.0
100
AcDbLine
 10
638.4285220944998
 20
423.1867650172113
 30
0.0
 11
639.206070900932
 21
422.409216210779
 31
0.0
  0
LINE
  5
2C40
330
1F
100
AcDbEntity
  8
0
  6
HIDDEN
 62
     5
 48
10.0
100
AcDbLine
 10
638.532140530001
 20
423.0831465817099
 30
0.0
 11
645.9285220944998
 21
422.824859246023
 31
0.0
  0
LINE
  5
2C41
102
{ACAD_REACTORS
330
2F52
102
}
330
1F
100
AcDbEntity
  8
AM_7
 48
7.0
100
AcDbLine
 10
652.4702353970911
 20
387.1867650172114
 30
0.0
 11
636.5100203148751
 21
387.1867650172114
 31
0.0
  0
LINE
  5
2C42
330
1F
100
AcDbEntity
  8
0
  6
HIDDEN
 62
     5
 48
10.0
100
AcDbLine
 10
645.9321079523423
 20
382.5501560993507
 30
0.0
 11
646.6046290192566
 21
383.2226771662649
 31
0.0
  0
LINE
  5
2C43
330
1F
100
AcDbEntity
  8
0
  6
HIDDEN
 62
     5
 48
10.0
100
AcDbLine
 10
645.9285220944999
 20
391.8248592460231
 30
0.0
 11
645.9285220944999
 21
382.5486707883996
 31
0.0
  0
LINE
  5
2C44
330
1F
100
AcDbEntity
  8
0
  6
HIDDEN
 62
     5
 48
10.0
100
AcDbLine
 10
639.2060709009321
 20
382.9643138236438
 30
0.0
 11
639.2060709009321
 21
391.409216210779
 31
0.0
  0
LINE
  5
2C46
330
1F
100
AcDbEntity
  8
0
  6
HIDDEN
 62
     5
 48
10.0
100
AcDbLine
 10
639.2060709009321
 20
382.9643138236438
 30
0.0
 11
647.4285220944999
 21
383.2514481464313
 31
0.0
  0
LINE
  5
2C47
330
1F
100
AcDbEntity
  8
0
  6
HIDDEN
 62
     5
 48
10.0
100
AcDbLine
 10
638.4285220944999
 20
382.1867650172114
 30
0.0
 11
639.2060709009321
 21
382.9643138236438
 31
0.0
  0
LINE
  5
2C48
330
1F
100
AcDbEntity
  8
0
  6
HIDDEN
 62
     5
 48
10.0
100
AcDbLine
 10
638.5321405300011
 20
382.2903834527128
 30
0.0
 11
645.9285220944999
 21
382.5486707883996
 31
0.0
  0
LINE
  5
2C49
330
1F
100
AcDbEntity
  8
0
  6
HIDDEN
 62
     5
 48
10.0
100
AcDbLine
 10
645.9321079523426
 20
391.8233739350721
 30
0.0
 11
646.6046290192568
 21
391.1508528681579
 31
0.0
  0
LINE
  5
2C4A
330
1F
100
AcDbEntity
  8
0
  6
HIDDEN
 62
     5
 48
10.0
100
AcDbLine
 10
639.2060709009321
 20
391.4092162107792
 30
0.0
 11
647.4285220944999
 21
391.1220818879915
 31
0.0
  0
LINE
  5
2C4B
330
1F
100
AcDbEntity
  8
0
  6
HIDDEN
 62
     5
 48
10.0
100
AcDbLine
 10
638.4285220944999
 20
392.1867650172114
 30
0.0
 11
639.2060709009321
 21
391.409216210779
 31
0.0
  0
LINE
  5
2C4C
330
1F
100
AcDbEntity
  8
0
  6
HIDDEN
 62
     5
 48
10.0
100
AcDbLine
 10
638.5321405300012
 20
392.08314658171
 30
0.0
 11
645.9285220944999
 21
391.8248592460231
 31
0.0
  0
LINE
  5
2C4D
330
1F
100
AcDbEntity
  8
0
  6
HIDDEN
 62
     5
 48
10.0
100
AcDbLine
 10
647.4285220944999
 20
387.9367650172114
 30
0.0
 11
648.9285220945
 21
387.9367650172116
 31
0.0
  0
LINE
  5
2C4E
330
1F
100
AcDbEntity
  8
0
  6
HIDDEN
 62
     5
 48
10.0
100
AcDbLine
 10
647.4285220944999
 20
386.4367650172116
 30
0.0
 11
648.9285220944999
 21
386.4367650172116
 31
0.0
  0
LINE
  5
2C4F
330
1F
100
AcDbEntity
  8
0
  6
HIDDEN
 62
     5
 48
10.0
100
AcDbLine
 10
647.4285220944999
 20
391.1220818879915
 30
0.0
 11
647.4285220944999
 21
383.2514481464313
 31
0.0
  0
LINE
  5
2C50
330
1F
100
AcDbEntity
  8
AM_VIS
100
AcDbLine
 10
653.9285129153721
 20
427.1867650172113
 30
0.0
 11
653.9285129153721
 21
429.2367650172114
 31
0.0
  0
LINE
  5
2C51
330
1F
100
AcDbEntity
  8
AM_VIS
100
AcDbLine
 10
675.928512915372
 20
427.1867650172113
 30
0.0
 11
675.928512915372
 21
429.2367650172114
 31
0.0
  0
LINE
  5
2C52
330
1F
100
AcDbEntity
  8
AM_VIS
100
AcDbLine
 10
684.5817569224058
 20
427.1867650172113
 30
0.0
 11
673.328512915372
 21
427.1867650172113
 31
0.0
  0
LINE
  5
2C53
330
1F
100
AcDbEntity
  8
AM_VIS
100
AcDbLine
 10
664.9285129153723
 20
430.4867650172114
 30
0.0
 11
654.9285129153722
 21
430.4867650172114
 31
0.0
  0
ARC
  5
2C54
330
1F
100
AcDbEntity
  8
AM_VIS
100
AcDbCircle
 10
654.9285129153722
 20
429.4867650172114
 30
0.0
 40
1.0
100
AcDbArc
 50
90.0
 51
180.0
  0
LINE
  5
2C55
330
1F
100
AcDbEntity
  8
AM_VIS
100
AcDbLine
 10
653.9285129153722
 20
427.1867650172113
 30
0.0
 11
653.9285129153722
 21
429.4867650172114
 31
0.0
  0
LINE
  5
2C56
330
1F
100
AcDbEntity
  8
AM_VIS
100
AcDbLine
 10
673.328512915372
 20
427.1867650172113
 30
0.0
 11
666.028512915372
 21
427.1867650172113
 31
0.0
  0
LINE
  5
2C57
330
1F
100
AcDbEntity
  8
AM_VIS
100
AcDbLine
 10
666.028512915372
 20
427.1867650172113
 30
0.0
 11
664.9285129153721
 21
427.1867650172113
 31
0.0
  0
ARC
  5
2C58
330
1F
100
AcDbEntity
  8
AM_VIS
100
AcDbCircle
 10
674.9285129153721
 20
429.4867650172114
 30
0.0
 40
1.0
100
AcDbArc
 50
0.0
 51
90.0
  0
LINE
  5
2C59
330
1F
100
AcDbEntity
  8
AM_VIS
100
AcDbLine
 10
675.9285129153721
 20
427.1867650172113
 30
0.0
 11
675.9285129153721
 21
429.4867650172114
 31
0.0
  0
LINE
  5
2C5A
330
1F
100
AcDbEntity
  8
0
100
AcDbLine
 10
674.9285129153721
 20
430.4867650172114
 30
0.0
 11
664.9285129153721
 21
430.4867650172114
 31
0.0
  0
LINE
  5
2C5B
330
1F
100
AcDbEntity
  8
AM_VIS
100
AcDbLine
 10
671.8218766282862
 20
510.1144025782537
 30
0.0
 11
656.1141483598309
 21
442.9261054377221
 31
0.0
  0
LINE
  5
2C5C
330
1F
100
AcDbEntity
  8
AM_VIS
100
AcDbLine
 10
656.6010200782407
 20
442.8122813198347
 30
0.0
 11
672.3087483466959
 21
510.0005784603665
 31
0.0
  0
LINE
  5
2C5D
330
1F
100
AcDbEntity
  8
AM_VIS
100
AcDbLine
 10
684.4323788728497
 20
447.6393474573936
 30
0.0
 11
675.0232873907147
 21
462.8278222993909
 31
0.0
  0
LINE
  5
2C5E
330
1F
100
AcDbEntity
  8
AM_VIS
100
AcDbLine
 10
666.5223152018382
 20
457.5615644397766
 30
0.0
 11
675.9314066839736
 21
442.3730895977787
 31
0.0
  0
LINE
  5
2C5F
330
1F
100
AcDbEntity
  8
AM_7
 48
7.0
100
AcDbLine
 10
665.4433049548154
 20
468.7977472623525
 30
0.0
 11
685.4568762936586
 21
436.4911610892137
 31
0.0
  0
LINE
  5
2C60
330
1F
100
AcDbEntity
  8
AM_7
 48
7.0
100
AcDbLine
 10
663.3636117552145
 20
438.7930507927716
 30
0.0
 11
679.9491911999369
 21
509.7362719215577
 31
0.0
  0
LINE
  5
2C61
330
1F
100
AcDbEntity
  8
AM_VIS
100
AcDbLine
 10
659.1155962636387
 20
434.4867650172114
 30
0.0
 11
670.7414295671055
 21
434.4867650172113
 31
0.0
  0
LINE
  5
2C62
330
1F
100
AcDbEntity
  8
AM_VIS
100
AcDbLine
 10
672.9285129153721
 20
433.4867650172113
 30
0.0
 11
656.9285129153721
 21
433.4867650172114
 31
0.0
  0
CIRCLE
  5
2C63
330
1F
100
AcDbEntity
  8
AM_VIS
100
AcDbCircle
 10
664.9285129153716
 20
445.4867650172111
 30
0.0
 40
3.0
  0
CIRCLE
  5
2C64
330
1F
100
AcDbEntity
  8
AM_VIS
100
AcDbCircle
 10
664.9285129153716
 20
445.4867650172111
 30
0.0
 40
2.7
  0
LINE
  5
2C65
330
1F
100
AcDbEntity
  8
AM_VIS
100
AcDbLine
 10
667.0198133584988
 20
439.8630240508636
 30
0.0
 11
671.0933475126428
 21
438.9106860648044
 31
0.0
  0
LINE
  5
2C66
330
1F
100
AcDbEntity
  8
AM_VIS
100
AcDbLine
 10
674.928512915372
 20
430.4867650172114
 30
0.0
 11
664.9285129153721
 21
430.4867650172114
 31
0.0
  0
LINE
  5
2C67
330
1F
100
AcDbEntity
  8
AM_VIS
100
AcDbLine
 10
673.328512915372
 20
427.1867650172113
 30
0.0
 11
666.028512915372
 21
427.1867650172113
 31
0.0
  0
ARC
  5
2C68
330
1F
100
AcDbEntity
  8
AM_VIS
100
AcDbCircle
 10
664.9285129153716
 20
445.4867650172113
 30
0.0
 40
5.549999999999999
100
AcDbArc
 50
140.3018858930783
 51
39.69811410692162
  0
ARC
  5
2C69
330
1F
100
AcDbEntity
  8
AM_VIS
100
AcDbCircle
 10
664.9285129153716
 20
445.4867650172113
 30
0.0
 40
3.879999999999999
100
AcDbArc
 50
284.4775121859303
 51
336.6055603774072
  0
CIRCLE
  5
2C6A
330
1F
100
AcDbEntity
  8
AM_VIS
100
AcDbCircle
 10
664.9285129153716
 20
445.4867650172113
 30
0.0
 40
6.0
  0
ARC
  5
2C6B
330
1F
100
AcDbEntity
  8
AM_VIS
100
AcDbCircle
 10
664.9285129153716
 20
445.4867650172113
 30
0.0
 40
3.1
100
AcDbArc
 50
279.0009947485315
 51
346.4273914816643
  0
ARC
  5
2C6C
330
1F
100
AcDbEntity
  8
AM_VIS
100
AcDbCircle
 10
664.9285129153716
 20
445.4867650172113
 30
0.0
 40
3.1
100
AcDbArc
 50
35.89133956663482
 51
144.1086604333697
  0
LINE
  5
2C6D
330
1F
100
AcDbEntity
  8
AM_VIS
100
AcDbLine
 10
657.9285129153721
 20
434.4867650172114
 30
0.0
 11
656.9285129153721
 21
433.4867650172114
 31
0.0
  0
ARC
  5
2C6E
330
1F
100
AcDbEntity
  8
AM_VIS
100
AcDbCircle
 10
654.9285129153721
 20
429.4867650172114
 30
0.0
 40
1.0
100
AcDbArc
 50
90.0
 51
180.0
  0
LINE
  5
2C6F
330
1F
100
AcDbEntity
  8
AM_VIS
100
AcDbLine
 10
653.9285129153721
 20
427.1867650172114
 30
0.0
 11
653.9285129153721
 21
429.4867650172114
 31
0.0
  0
LINE
  5
2C70
330
1F
100
AcDbEntity
  8
AM_VIS
100
AcDbLine
 10
656.9285129153715
 20
430.4867650172114
 30
0.0
 11
656.9285129153715
 21
433.4867650172114
 31
0.0
  0
ARC
  5
2C71
330
1F
100
AcDbEntity
  8
AM_VIS
100
AcDbCircle
 10
661.9016310627053
 20
444.1772650172112
 30
0.0
 40
0.5819999999999998
100
AcDbArc
 50
90.0
 51
203.3944396225928
  0
ARC
  5
2C72
330
1F
100
AcDbEntity
  8
AM_VIS
100
AcDbCircle
 10
664.9285129153716
 20
445.4867650172113
 30
0.0
 40
3.1
100
AcDbArc
 50
193.5726085183389
 51
260.9990052514616
  0
LINE
  5
2C73
330
1F
100
AcDbEntity
  8
AM_VIS
100
AcDbLine
 10
657.9285129153721
 20
434.4867650172114
 30
0.0
 11
659.1155962636387
 21
434.4867650172113
 31
0.0
  0
LINE
  5
2C74
330
1F
100
AcDbEntity
  8
AM_VIS
100
AcDbLine
 10
656.4871959603533
 20
442.3254096014251
 30
0.0
 11
660.5607301144973
 21
441.3730716153658
 31
0.0
  0
LINE
  5
2C75
330
1F
100
AcDbEntity
  8
AM_VIS
100
AcDbLine
 10
660.0396713924777
 20
442.0083704789181
 30
0.0
 11
656.6010200782407
 21
442.8122813198347
 31
0.0
  0
LINE
  5
2C76
330
1F
100
AcDbEntity
  8
AM_VIS
100
AcDbLine
 10
657.9285129153715
 20
434.4867650172114
 30
0.0
 11
657.9285129153715
 21
441.9884489097322
 31
0.0
  0
LINE
  5
2C77
330
1F
100
AcDbEntity
  8
AM_VIS
100
AcDbLine
 10
656.1141483598309
 20
442.9261054377221
 30
0.0
 11
656.4871959603533
 21
442.3254096014251
 31
0.0
  0
LINE
  5
2C78
330
1F
100
AcDbEntity
  8
AM_VIS
100
AcDbLine
 10
656.1141483598309
 20
442.9261054377221
 30
0.0
 11
656.6010200782407
 21
442.8122813198347
 31
0.0
  0
LINE
  5
2C79
330
1F
100
AcDbEntity
  8
AM_VIS
100
AcDbLine
 10
656.4871959603533
 20
442.3254096014251
 30
0.0
 11
656.6010200782407
 21
442.8122813198347
 31
0.0
  0
LINE
  5
2C7A
330
1F
100
AcDbEntity
  8
AM_VIS
100
AcDbLine
 10
659.1155962636381
 20
434.4867650172113
 30
0.0
 11
659.1155962636381
 21
441.7109246464281
 31
0.0
  0
ARC
  5
2C7B
330
1F
100
AcDbEntity
  8
AM_VIS
100
AcDbCircle
 10
664.9285129153716
 20
445.4867650172113
 30
0.0
 40
3.879999999999999
100
AcDbArc
 50
203.3944396225928
 51
255.5224878140697
  0
ARC
  5
2C7C
330
1F
100
AcDbEntity
  8
AM_VIS
100
AcDbCircle
 10
665.8015129153715
 20
442.1056505559722
 30
0.0
 40
0.3879999999999999
100
AcDbArc
 50
180.0
 51
284.4775121859263
  0
LINE
  5
2C7D
330
1F
100
AcDbEntity
  8
AM_VIS
100
AcDbLine
 10
665.4135129153716
 20
442.5262287482221
 30
0.0
 11
665.4135129153716
 21
442.1056505559722
 31
0.0
  0
LINE
  5
2C7E
330
1F
100
AcDbEntity
  8
AM_VIS
100
AcDbLine
 10
664.4435129153714
 20
442.1056505559722
 30
0.0
 11
664.4435129153715
 21
442.5262287482221
 31
0.0
  0
ARC
  5
2C7F
330
1F
100
AcDbEntity
  8
AM_VIS
100
AcDbCircle
 10
664.0555129153715
 20
442.1056505559722
 30
0.0
 40
0.3879999999999999
100
AcDbArc
 50
255.5224878140634
 51
0.0
  0
LINE
  5
2C80
330
1F
100
AcDbEntity
  8
AM_VIS
100
AcDbLine
 10
662.0180586982432
 20
444.7592650172112
 30
0.0
 11
661.9016310627053
 21
444.7592650172112
 31
0.0
  0
LINE
  5
2C81
330
1F
100
AcDbEntity
  8
AM_VIS
100
AcDbLine
 10
661.9065740748914
 20
448.8018291215625
 30
0.0
 11
662.4569713892884
 21
447.1872009862633
 31
0.0
  0
ARC
  5
2C82
330
1F
100
AcDbEntity
  8
AM_VIS
100
AcDbCircle
 10
661.2179821697652
 20
448.5671006865679
 30
0.0
 40
0.7275000000000001
100
AcDbArc
 50
18.82330818208152
 51
140.3018858930712
  0
LINE
  5
2C83
330
1F
100
AcDbEntity
  8
AM_VIS
100
AcDbLine
 10
671.9285129153721
 20
434.4867650172113
 30
0.0
 11
672.9285129153721
 21
433.4867650172113
 31
0.0
  0
LINE
  5
2C84
330
1F
100
AcDbEntity
  8
AM_VIS
100
AcDbLine
 10
684.4285129153721
 20
432.6867650172113
 30
0.0
 11
684.9285129153721
 21
433.1867650172113
 31
0.0
  0
LINE
  5
2C85
330
1F
100
AcDbEntity
  8
AM_VIS
100
AcDbLine
 10
678.9285129153721
 20
433.1867650172113
 30
0.0
 11
679.4285129153721
 21
432.6867650172113
 31
0.0
  0
LINE
  5
2C86
330
1F
100
AcDbEntity
  8
AM_VIS
100
AcDbLine
 10
686.4285129153721
 20
433.1867650172113
 30
0.0
 11
686.9285129153722
 21
432.6867650172113
 31
0.0
  0
LINE
  5
2C87
330
1F
100
AcDbEntity
  8
AM_VIS
100
AcDbLine
 10
676.9285129153721
 20
432.6867650172113
 30
0.0
 11
677.4285129153721
 21
433.1867650172113
 31
0.0
  0
LINE
  5
2C88
330
1F
100
AcDbEntity
  8
AM_VIS
100
AcDbLine
 10
676.9285129153721
 20
432.6867650172113
 30
0.0
 11
677.1785129153721
 21
433.1867650172113
 31
0.0
  0
LINE
  5
2C89
330
1F
100
AcDbEntity
  8
AM_VIS
100
AcDbLine
 10
686.6785129153721
 20
433.1867650172113
 30
0.0
 11
686.9285129153722
 21
432.6867650172113
 31
0.0
  0
LINE
  5
2C8A
330
1F
100
AcDbEntity
  8
AM_VIS
100
AcDbLine
 10
676.9285129153721
 20
433.1867650172113
 30
0.0
 11
676.9285129153721
 21
432.6867650172113
 31
0.0
  0
LINE
  5
2C8B
330
1F
100
AcDbEntity
  8
AM_VIS
100
AcDbLine
 10
686.9285129153722
 20
432.6867650172113
 30
0.0
 11
686.9285129153722
 21
433.1867650172113
 31
0.0
  0
LINE
  5
2C8C
330
1F
100
AcDbEntity
  8
AM_VIS
100
AcDbLine
 10
679.4285129153721
 20
432.6867650172113
 30
0.0
 11
684.4285129153721
 21
432.6867650172113
 31
0.0
  0
LINE
  5
2C8D
330
1F
100
AcDbEntity
  8
AM_VIS
100
AcDbLine
 10
684.4285129153721
 20
427.6867650172113
 30
0.0
 11
679.4285129153721
 21
427.6867650172113
 31
0.0
  0
LINE
  5
2C8E
330
1F
100
AcDbEntity
  8
AM_VIS
100
AcDbLine
 10
684.5817569224058
 20
427.1867650172113
 30
0.0
 11
673.328512915372
 21
427.1867650172113
 31
0.0
  0
ARC
  5
2C8F
330
1F
100
AcDbEntity
  8
AM_VIS
100
AcDbCircle
 10
674.928512915372
 20
429.4867650172114
 30
0.0
 40
1.0
100
AcDbArc
 50
0.0
 51
90.0
  0
LINE
  5
2C90
330
1F
100
AcDbEntity
  8
AM_VIS
100
AcDbLine
 10
672.9285129153716
 20
430.4867650172114
 30
0.0
 11
672.9285129153716
 21
433.4867650172114
 31
0.0
  0
LINE
  5
2C91
330
1F
100
AcDbEntity
  8
AM_VIS
100
AcDbLine
 10
679.4285129153721
 20
427.6867650172113
 30
0.0
 11
679.4285129153721
 21
432.6867650172113
 31
0.0
  0
LINE
  5
2C92
330
1F
100
AcDbEntity
  8
AM_VIS
100
AcDbLine
 10
679.4285129153721
 20
427.6867650172113
 30
0.0
 11
678.9285129153721
 21
427.1867650172113
 31
0.0
  0
LINE
  5
2C93
330
1F
100
AcDbEntity
  8
AM_VIS
100
AcDbLine
 10
676.9285129153721
 20
432.6867650172113
 30
0.0
 11
676.9285129153721
 21
427.6867650172113
 31
0.0
  0
LINE
  5
2C94
330
1F
100
AcDbEntity
  8
AM_VIS
100
AcDbLine
 10
677.4285129153721
 20
427.1867650172113
 30
0.0
 11
676.9285129153721
 21
427.6867650172113
 31
0.0
  0
LINE
  5
2C95
330
1F
100
AcDbEntity
  8
AM_VIS
100
AcDbLine
 10
675.928512915372
 20
427.1867650172113
 30
0.0
 11
675.928512915372
 21
429.4867650172114
 31
0.0
  0
LINE
  5
2C96
330
1F
100
AcDbEntity
  8
AM_VIS
100
AcDbLine
 10
684.4285129153721
 20
432.6867650172113
 30
0.0
 11
684.4285129153721
 21
427.6867650172113
 31
0.0
  0
LINE
  5
2C97
330
1F
100
AcDbEntity
  8
AM_VIS
100
AcDbLine
 10
684.9285129153721
 20
427.1867650172113
 30
0.0
 11
684.4285129153721
 21
427.6867650172113
 31
0.0
  0
LINE
  5
2C98
330
1F
100
AcDbEntity
  8
AM_VIS
100
AcDbLine
 10
686.9285129153722
 20
427.6867650172113
 30
0.0
 11
686.4285129153721
 21
427.1867650172113
 31
0.0
  0
LINE
  5
2C99
330
1F
100
AcDbEntity
  8
AM_VIS
100
AcDbLine
 10
686.9285129153722
 20
427.6867650172113
 30
0.0
 11
686.9285129153722
 21
432.6867650172113
 31
0.0
  0
LINE
  5
2C9A
330
1F
100
AcDbEntity
  8
AM_VIS
100
AcDbLine
 10
686.9285129153722
 20
427.1867650172113
 30
0.0
 11
684.5817569224058
 21
427.1867650172113
 31
0.0
  0
CIRCLE
  5
2C9B
330
1F
100
AcDbEntity
  8
AM_VIS
100
AcDbCircle
 10
681.9285129153719
 20
442.1867650172112
 30
0.0
 40
3.0
  0
CIRCLE
  5
2C9C
330
1F
100
AcDbEntity
  8
AM_VIS
100
AcDbCircle
 10
681.9285129153719
 20
442.1867650172112
 30
0.0
 40
2.7
  0
LINE
  5
2C9D
330
1F
100
AcDbEntity
  8
AM_VIS
100
AcDbLine
 10
684.6326763719702
 20
433.1867650172113
 30
0.0
 11
679.2243494587741
 21
433.1867650172113
 31
0.0
  0
LINE
  5
2C9E
330
1F
100
AcDbEntity
  8
AM_VIS
100
AcDbLine
 10
684.618512915372
 20
436.4867650172114
 30
0.0
 11
679.238512915372
 21
436.4867650172114
 31
0.0
  0
ARC
  5
2C9F
330
1F
100
AcDbEntity
  8
AM_VIS
100
AcDbCircle
 10
681.9285129153719
 20
442.1867650172114
 30
0.0
 40
5.549999999999999
100
AcDbArc
 50
140.3018858930783
 51
39.69811410692162
  0
ARC
  5
2CA0
330
1F
100
AcDbEntity
  8
AM_VIS
100
AcDbCircle
 10
681.9285129153719
 20
442.1867650172114
 30
0.0
 40
3.879999999999999
100
AcDbArc
 50
284.4775121859303
 51
336.6055603774072
  0
ARC
  5
2CA1
330
1F
100
AcDbEntity
  8
AM_VIS
100
AcDbCircle
 10
681.9285129153719
 20
442.1867650172114
 30
0.0
 40
6.0
100
AcDbArc
 50
0.3470473112651714
 51
251.8051276612315
  0
ARC
  5
2CA2
330
1F
100
AcDbEntity
  8
AM_VIS
100
AcDbCircle
 10
681.9285129153719
 20
442.1867650172114
 30
0.0
 40
3.1
100
AcDbArc
 50
35.89133956663218
 51
144.1086604333651
  0
ARC
  5
2CA3
330
1F
100
AcDbEntity
  8
AM_VIS
100
AcDbCircle
 10
681.9285129153719
 20
442.1867650172114
 30
0.0
 40
3.1
100
AcDbArc
 50
279.0009947485348
 51
346.4273914816611
  0
LINE
  5
2CA4
330
1F
100
AcDbEntity
  8
AM_VIS
100
AcDbLine
 10
671.6940433489399
 20
439.2837336653267
 30
0.0
 11
673.379389941833
 21
446.4926416457055
 31
0.0
  0
LINE
  5
2CA5
330
1F
100
AcDbEntity
  8
AM_VIS
100
AcDbLine
 10
673.0065952867271
 20
447.0944194316966
 30
0.0
 11
671.2071716305302
 21
439.397557783214
 31
0.0
  0
LINE
  5
2CA6
330
1F
100
AcDbEntity
  8
AM_VIS
100
AcDbLine
 10
678.9065740748917
 20
445.5018291215625
 30
0.0
 11
679.4569713892887
 21
443.8872009862635
 31
0.0
  0
ARC
  5
2CA7
330
1F
100
AcDbEntity
  8
AM_VIS
100
AcDbCircle
 10
667.9553947680378
 20
444.1772650172112
 30
0.0
 40
0.5819999999999998
100
AcDbArc
 50
336.6055603774115
 51
90.0
  0
LINE
  5
2CA8
330
1F
100
AcDbEntity
  8
AM_VIS
100
AcDbLine
 10
671.9285129153716
 20
434.4867650172113
 30
0.0
 11
671.9285129153716
 21
440.2866546880608
 31
0.0
  0
LINE
  5
2CA9
330
1F
100
AcDbEntity
  8
AM_VIS
100
AcDbLine
 10
670.7414295671051
 20
438.992959789494
 30
0.0
 11
670.7414295671051
 21
434.4867650172113
 31
0.0
  0
LINE
  5
2CAA
330
1F
100
AcDbEntity
  8
AM_VIS
100
AcDbLine
 10
670.7414295671055
 20
434.4867650172113
 30
0.0
 11
671.9285129153721
 21
434.4867650172113
 31
0.0
  0
LINE
  5
2CAB
330
1F
100
AcDbEntity
  8
AM_VIS
100
AcDbLine
 10
671.0933475126428
 20
438.9106860648044
 30
0.0
 11
671.6940433489399
 21
439.2837336653267
 31
0.0
  0
LINE
  5
2CAC
330
1F
100
AcDbEntity
  8
AM_VIS
100
AcDbLine
 10
671.6940433489399
 20
439.2837336653267
 30
0.0
 11
671.2071716305302
 21
439.397557783214
 31
0.0
  0
LINE
  5
2CAD
330
1F
100
AcDbEntity
  8
AM_VIS
100
AcDbLine
 10
671.0933475126428
 20
438.9106860648044
 30
0.0
 11
671.2071716305302
 21
439.397557783214
 31
0.0
  0
LINE
  5
2CAE
330
1F
100
AcDbEntity
  8
AM_VIS
100
AcDbLine
 10
671.2071716305302
 20
439.397557783214
 30
0.0
 11
667.7685203162932
 21
440.2014686241306
 31
0.0
  0
LINE
  5
2CAF
330
1F
100
AcDbEntity
  8
AM_VIS
100
AcDbLine
 10
676.9285129153721
 20
438.8701402268556
 30
0.0
 11
676.9285129153721
 21
435.0301688417472
 31
0.0
  0
ARC
  5
2CB0
330
1F
100
AcDbEntity
  8
AM_VIS
100
AcDbCircle
 10
681.9285129153719
 20
442.1867650172114
 30
0.0
 40
3.879999999999999
100
AcDbArc
 50
203.3944396225928
 51
255.5224878140697
  0
ARC
  5
2CB1
330
1F
100
AcDbEntity
  8
AM_VIS
100
AcDbCircle
 10
681.0555129153719
 20
438.8056505559722
 30
0.0
 40
0.3879999999999999
100
AcDbArc
 50
255.5224878140737
 51
0.0
  0
ARC
  5
2CB2
330
1F
100
AcDbEntity
  8
AM_VIS
100
AcDbCircle
 10
682.8015129153718
 20
438.8056505559722
 30
0.0
 40
0.3879999999999999
100
AcDbArc
 50
180.0
 51
284.4775121859366
  0
LINE
  5
2CB3
330
1F
100
AcDbEntity
  8
AM_VIS
100
AcDbLine
 10
679.2243494587739
 20
433.1867650172113
 30
0.0
 11
678.928512915372
 21
433.1867650172113
 31
0.0
  0
LINE
  5
2CB4
330
1F
100
AcDbEntity
  8
AM_VIS
100
AcDbLine
 10
678.9285129153721
 20
433.1867650172113
 30
0.0
 11
677.4285129153721
 21
433.1867650172113
 31
0.0
  0
LINE
  5
2CB5
330
1F
100
AcDbEntity
  8
AM_VIS
100
AcDbLine
 10
677.4285129153721
 20
435.7371517162347
 30
0.0
 11
677.4285129153721
 21
438.2181380506143
 31
0.0
  0
LINE
  5
2CB6
330
1F
100
AcDbEntity
  8
AM_VIS
100
AcDbLine
 10
676.6785129153721
 20
433.1867650172113
 30
0.0
 11
676.6785129153721
 21
433.9267650172114
 31
0.0
  0
ARC
  5
2CB7
330
1F
100
AcDbEntity
  8
AM_VIS
100
AcDbCircle
 10
679.238512915372
 20
433.9267650172114
 30
0.0
 40
2.56
100
AcDbArc
 50
90.0
 51
180.0
  0
LINE
  5
2CB8
330
1F
100
AcDbEntity
  8
AM_VIS
100
AcDbLine
 10
677.4285129153721
 20
433.1867650172113
 30
0.0
 11
676.6785129153721
 21
433.1867650172113
 31
0.0
  0
ARC
  5
2CB9
330
1F
100
AcDbEntity
  8
AM_VIS
100
AcDbCircle
 10
681.9285129153719
 20
442.1867650172114
 30
0.0
 40
3.1
100
AcDbArc
 50
193.5726085183389
 51
260.9990052514685
  0
LINE
  5
2CBA
330
1F
100
AcDbEntity
  8
AM_VIS
100
AcDbLine
 10
679.0180586982435
 20
441.4592650172114
 30
0.0
 11
678.9016310627057
 21
441.4592650172114
 31
0.0
  0
ARC
  5
2CBB
330
1F
100
AcDbEntity
  8
AM_VIS
100
AcDbCircle
 10
678.9016310627057
 20
440.8772650172114
 30
0.0
 40
0.5819999999999998
100
AcDbArc
 50
90.0
 51
203.3944396225885
  0
LINE
  5
2CBC
330
1F
100
AcDbEntity
  8
AM_VIS
100
AcDbLine
 10
681.4435129153719
 20
438.8056505559722
 30
0.0
 11
681.4435129153719
 21
439.2262287482221
 31
0.0
  0
LINE
  5
2CBD
330
1F
100
AcDbEntity
  8
AM_VIS
100
AcDbLine
 10
682.4135129153719
 20
439.2262287482221
 30
0.0
 11
682.4135129153719
 21
438.8056505559722
 31
0.0
  0
ARC
  5
2CBE
330
1F
100
AcDbEntity
  8
AM_VIS
100
AcDbCircle
 10
668.6390436609777
 20
448.5671006865679
 30
0.0
 40
0.7275000000000001
100
AcDbArc
 50
39.69811410692872
 51
161.1766918179154
  0
LINE
  5
2CBF
330
1F
100
AcDbEntity
  8
AM_VIS
100
AcDbLine
 10
667.4000544414546
 20
447.1872009862635
 30
0.0
 11
667.9504517558516
 21
448.8018291215624
 31
0.0
  0
LINE
  5
2CC0
330
1F
100
AcDbEntity
  8
AM_VIS
100
AcDbLine
 10
667.9553947680378
 20
444.7592650172113
 30
0.0
 11
667.8389671325
 21
444.7592650172113
 31
0.0
  0
ARC
  5
2CC1
330
1F
100
AcDbEntity
  8
AM_VIS
100
AcDbCircle
 10
678.2179821697657
 20
445.267100686568
 30
0.0
 40
0.7275000000000001
100
AcDbArc
 50
18.82330818208152
 51
140.3018858930712
  0
LINE
  5
2CC2
330
1F
100
AcDbEntity
  8
AM_VIS
100
AcDbLine
 10
684.400054441455
 20
443.8872009862635
 30
0.0
 11
684.950451755852
 21
445.5018291215625
 31
0.0
  0
LINE
  5
2CC3
330
1F
100
AcDbEntity
  8
AM_VIS
100
AcDbLine
 10
686.9285129153722
 20
435.0301688417472
 30
0.0
 11
686.9285129153722
 21
438.8701402268562
 31
0.0
  0
ARC
  5
2CC4
330
1F
100
AcDbEntity
  8
AM_VIS
100
AcDbCircle
 10
681.9285129153719
 20
442.1867650172114
 30
0.0
 40
6.0
100
AcDbArc
 50
288.1948723387655
 51
0.3470473112651714
  0
LINE
  5
2CC5
330
1F
100
AcDbEntity
  8
AM_VIS
100
AcDbLine
 10
686.4285129153721
 20
433.1867650172113
 30
0.0
 11
684.9285129153721
 21
433.1867650172113
 31
0.0
  0
LINE
  5
2CC6
330
1F
100
AcDbEntity
  8
AM_VIS
100
AcDbLine
 10
684.928512915372
 20
433.1867650172113
 30
0.0
 11
684.6326763719701
 21
433.1867650172113
 31
0.0
  0
LINE
  5
2CC7
330
1F
100
AcDbEntity
  8
AM_VIS
100
AcDbLine
 10
686.4285129153721
 20
438.2181380506147
 30
0.0
 11
686.4285129153721
 21
435.7371517162347
 31
0.0
  0
LINE
  5
2CC8
330
1F
100
AcDbEntity
  8
AM_VIS
100
AcDbLine
 10
687.1785129153721
 20
433.1867650172113
 30
0.0
 11
687.1785129153721
 21
433.9267650172114
 31
0.0
  0
ARC
  5
2CC9
330
1F
100
AcDbEntity
  8
AM_VIS
100
AcDbCircle
 10
684.618512915372
 20
433.9267650172114
 30
0.0
 40
2.56
100
AcDbArc
 50
0.0
 51
90.0
  0
LINE
  5
2CCA
330
1F
100
AcDbEntity
  8
AM_VIS
100
AcDbLine
 10
687.1785129153721
 20
433.1867650172113
 30
0.0
 11
686.4285129153721
 21
433.1867650172113
 31
0.0
  0
ARC
  5
2CCB
330
1F
100
AcDbEntity
  8
AM_VIS
100
AcDbCircle
 10
684.9553947680381
 20
440.8772650172114
 30
0.0
 40
0.5819999999999998
100
AcDbArc
 50
336.6055603774072
 51
90.0
  0
LINE
  5
2CCC
330
1F
100
AcDbEntity
  8
AM_VIS
100
AcDbLine
 10
684.9553947680381
 20
441.4592650172114
 30
0.0
 11
684.8389671325003
 21
441.4592650172114
 31
0.0
  0
LINE
  5
2CCD
330
1F
100
AcDbEntity
  8
AM_VIS
100
AcDbLine
 10
686.4285129153721
 20
448.1867650172113
 30
0.0
 11
684.093259774136
 21
448.1867650172113
 31
0.0
  0
LINE
  5
2CCE
330
1F
100
AcDbEntity
  8
AM_VIS
100
AcDbLine
 10
686.4285129153721
 20
448.1867650172113
 30
0.0
 11
686.9285129153722
 21
447.6867650172113
 31
0.0
  0
LINE
  5
2CCF
330
1F
100
AcDbEntity
  8
AM_VIS
100
AcDbLine
 10
686.4006488703714
 20
446.1867650172114
 30
0.0
 11
686.4285129153721
 21
446.1867650172114
 31
0.0
  0
LINE
  5
2CD0
330
1F
100
AcDbEntity
  8
AM_VIS
100
AcDbLine
 10
686.4285129153721
 20
446.1867650172114
 30
0.0
 11
686.4285129153721
 21
446.1553919838079
 31
0.0
  0
LINE
  5
2CD1
330
1F
100
AcDbEntity
  8
AM_VIS
100
AcDbLine
 10
686.9285129153722
 20
446.6867650172114
 30
0.0
 11
686.4285129153721
 21
446.1867650172114
 31
0.0
  0
LINE
  5
2CD2
330
1F
100
AcDbEntity
  8
AM_VIS
100
AcDbLine
 10
686.9285129153722
 20
445.5033898075663
 30
0.0
 11
686.9285129153722
 21
446.6867650172114
 31
0.0
  0
LINE
  5
2CD3
330
1F
100
AcDbEntity
  8
AM_VIS
100
AcDbLine
 10
686.9285129153722
 20
446.6867650172114
 30
0.0
 11
686.9285129153722
 21
447.6867650172113
 31
0.0
  0
ARC
  5
2CD4
330
1F
100
AcDbEntity
  8
AM_VIS
100
AcDbCircle
 10
685.6390436609781
 20
445.267100686568
 30
0.0
 40
0.7275000000000001
100
AcDbArc
 50
39.69811410692872
 51
161.1766918179185
  0
LINE
  5
2CD5
330
1F
100
AcDbEntity
  8
AM_VIS
100
AcDbLine
 10
676.6024013401893
 20
460.2787629624951
 30
0.0
 11
687.4017716173949
 21
506.4720308058584
 31
0.0
  0
LINE
  5
2CD6
330
1F
100
AcDbEntity
  8
AM_VIS
100
AcDbLine
 10
686.9148998989853
 20
506.5858549237457
 30
0.0
 11
676.2296066850835
 21
460.8805407484862
 31
0.0
  0
CIRCLE
  5
2CD7
330
1F
100
AcDbEntity
  8
AM_VIS
100
AcDbCircle
 10
669.0261811593163
 20
463.0141468799585
 30
0.0
 40
3.0
  0
CIRCLE
  5
2CD8
330
1F
100
AcDbEntity
  8
AM_VIS
100
AcDbCircle
 10
669.0261811593163
 20
463.0141468799585
 30
0.0
 40
2.7
  0
ARC
  5
2CD9
330
1F
100
AcDbEntity
  8
AM_VIS
100
AcDbCircle
 10
669.0261811593164
 20
463.0141468799586
 30
0.0
 40
5.549999999999999
100
AcDbArc
 50
146.3782411249841
 51
45.77446933883571
  0
ARC
  5
2CDA
330
1F
100
AcDbEntity
  8
AM_VIS
100
AcDbCircle
 10
669.0261811593164
 20
463.0141468799586
 30
0.0
 40
3.879999999999999
100
AcDbArc
 50
209.4707948545003
 51
261.5988430459777
  0
CIRCLE
  5
2CDB
330
1F
100
AcDbEntity
  8
AM_VIS
100
AcDbCircle
 10
669.0261811593164
 20
463.0141468799587
 30
0.0
 40
6.0
  0
ARC
  5
2CDC
330
1F
100
AcDbEntity
  8
AM_VIS
100
AcDbCircle
 10
669.0261811593164
 20
463.0141468799587
 30
0.0
 40
3.1
100
AcDbArc
 50
199.6489637502482
 51
267.0753604833768
  0
ARC
  5
2CDD
330
1F
100
AcDbEntity
  8
AM_VIS
100
AcDbCircle
 10
669.0261811593164
 20
463.0141468799587
 30
0.0
 40
3.1
100
AcDbArc
 50
41.96769479853936
 51
150.1850156652758
  0
ARC
  5
2CDE
330
1F
100
AcDbEntity
  8
AM_VIS
100
AcDbCircle
 10
666.1549206455265
 20
461.3915973238739
 30
0.0
 40
0.5819999999999998
100
AcDbArc
 50
96.07635523190799
 51
209.4707948545003
  0
LINE
  5
2CDF
330
1F
100
AcDbEntity
  8
AM_VIS
100
AcDbLine
 10
666.2090872921685
 20
461.9826517788174
 30
0.0
 11
666.0933137805697
 21
461.9703274805017
 31
0.0
  0
LINE
  5
2CE0
330
1F
100
AcDbEntity
  8
AM_VIS
100
AcDbLine
 10
665.6703085732856
 20
465.9907025333752
 30
0.0
 11
666.3885279915935
 21
464.4434074464058
 31
0.0
  0
ARC
  5
2CE1
330
1F
100
AcDbEntity
  8
AM_VIS
100
AcDbCircle
 10
665.0104322535091
 20
465.684402855611
 30
0.0
 40
0.7275000000000001
100
AcDbArc
 50
24.89966341399345
 51
146.3782411249814
  0
ARC
  5
2CE2
330
1F
100
AcDbEntity
  8
AM_VIS
100
AcDbCircle
 10
672.1746725654121
 20
462.0324107312192
 30
0.0
 40
0.5819999999999998
100
AcDbArc
 50
342.6819156093184
 51
96.07635523190799
  0
ARC
  5
2CE3
330
1F
100
AcDbEntity
  8
AM_VIS
100
AcDbCircle
 10
669.0261811593164
 20
463.0141468799587
 30
0.0
 40
3.1
100
AcDbArc
 50
285.0773499804451
 51
352.5037467135711
  0
ARC
  5
2CE4
330
1F
100
AcDbEntity
  8
AM_VIS
100
AcDbCircle
 10
669.0261811593164
 20
463.0141468799586
 30
0.0
 40
3.879999999999999
100
AcDbArc
 50
290.5538674178383
 51
342.6819156093143
  0
ARC
  5
2CE5
330
1F
100
AcDbEntity
  8
AM_VIS
100
AcDbCircle
 10
670.2521799372425
 20
459.7444387895439
 30
0.0
 40
0.3879999999999999
100
AcDbArc
 50
186.076355231908
 51
290.553867417831
  0
LINE
  5
2CE6
330
1F
100
AcDbEntity
  8
AM_VIS
100
AcDbLine
 10
669.8218400666838
 20
460.1215828092548
 30
0.0
 11
669.8663598328242
 21
459.7033675462393
 31
0.0
  0
LINE
  5
2CE7
330
1F
100
AcDbEntity
  8
AM_VIS
100
AcDbLine
 10
668.9018095717781
 20
459.600689437978
 30
0.0
 11
668.8572898056377
 21
460.0189047009933
 31
0.0
  0
ARC
  5
2CE8
330
1F
100
AcDbEntity
  8
AM_VIS
100
AcDbCircle
 10
668.5159894673598
 20
459.5596181946734
 30
0.0
 40
0.3879999999999999
100
AcDbArc
 50
261.5988430459712
 51
6.076355231907989
  0
LINE
  5
2CE9
330
1F
100
AcDbEntity
  8
AM_VIS
100
AcDbLine
 10
671.3038393816336
 20
464.9666511750399
 30
0.0
 11
671.680230011327
 21
466.630469468266
 31
0.0
  0
ARC
  5
2CEA
330
1F
100
AcDbEntity
  8
AM_VIS
100
AcDbCircle
 10
672.3898000871042
 20
466.4699498197439
 30
0.0
 40
0.7275000000000001
100
AcDbArc
 50
45.77446933884032
 51
167.2530470498255
  0
LINE
  5
2CEB
330
1F
100
AcDbEntity
  8
AM_VIS
100
AcDbLine
 10
672.1130657004553
 20
462.6111408878468
 30
0.0
 11
671.9972921888562
 21
462.5988165895309
 31
0.0
  0
LINE
  5
2CEC
330
1F
100
AcDbEntity
  8
AM_VIS
100
AcDbLine
 10
687.0287240168727
 20
507.0727266421553
 30
0.0
 11
672.4225724645832
 21
510.487450178776
 31
0.0
  0
LINE
  5
2CED
330
1F
100
AcDbEntity
  8
AM_VIS
100
AcDbLine
 10
672.3087483466959
 20
510.0005784603664
 30
0.0
 11
686.9148998989853
 21
506.5858549237456
 31
0.0
  0
LINE
  5
2CEE
330
1F
100
AcDbEntity
  8
AM_VIS
100
AcDbLine
 10
672.3087483466959
 20
510.0005784603664
 30
0.0
 11
672.4225724645832
 21
510.4874501787761
 31
0.0
  0
LINE
  5
2CEF
330
1F
100
AcDbEntity
  8
AM_VIS
100
AcDbLine
 10
672.3087483466959
 20
510.0005784603664
 30
0.0
 11
671.8218766282862
 21
510.1144025782537
 31
0.0
  0
LINE
  5
2CF0
330
1F
100
AcDbEntity
  8
AM_VIS
100
AcDbLine
 10
672.4225724645832
 20
510.4874501787761
 30
0.0
 11
671.8218766282862
 21
510.1144025782537
 31
0.0
  0
LINE
  5
2CF1
330
1F
100
AcDbEntity
  8
AM_VIS
100
AcDbLine
 10
686.9148998989853
 20
506.5858549237457
 30
0.0
 11
687.401771617395
 21
506.4720308058584
 31
0.0
  0
LINE
  5
2CF2
330
1F
100
AcDbEntity
  8
AM_VIS
100
AcDbLine
 10
686.9148998989853
 20
506.5858549237457
 30
0.0
 11
687.0287240168727
 21
507.0727266421553
 31
0.0
  0
LINE
  5
2CF3
330
1F
100
AcDbEntity
  8
AM_VIS
100
AcDbLine
 10
687.401771617395
 20
506.4720308058584
 30
0.0
 11
687.0287240168727
 21
507.0727266421553
 31
0.0
  0
LINE
  5
2D5B
330
1F
100
AcDbEntity
  8
AM_VIS
100
AcDbLine
 10
643.9285129153721
 20
327.2288243622004
 30
0.0
 11
644.4285129153721
 21
326.7788243622004
 31
0.0
  0
LINE
  5
2D5C
330
1F
100
AcDbEntity
  8
AM_VIS
100
AcDbLine
 10
644.4285129153721
 20
326.7788243622004
 30
0.0
 11
646.5285129153722
 21
326.7788243622004
 31
0.0
  0
ARC
  5
2D5D
330
1F
100
AcDbEntity
  8
AM_VIS
100
AcDbCircle
 10
646.5285129153722
 20
328.4788243622005
 30
0.0
 40
1.7
100
AcDbArc
 50
270.0
 51
0.0
  0
LINE
  5
2D5E
330
1F
100
AcDbEntity
  8
AM_VIS
100
AcDbLine
 10
648.2285129153721
 20
328.4788243622005
 30
0.0
 11
648.2285129153721
 21
329.3788243622005
 31
0.0
  0
ARC
  5
2D5F
330
1F
100
AcDbEntity
  8
AM_VIS
100
AcDbCircle
 10
646.5285129153722
 20
329.3788243622005
 30
0.0
 40
1.7
100
AcDbArc
 50
0.0
 51
90.0
  0
LINE
  5
2D60
330
1F
100
AcDbEntity
  8
AM_VIS
100
AcDbLine
 10
646.5285129153722
 20
331.0788243622005
 30
0.0
 11
644.4285129153721
 21
331.0788243622005
 31
0.0
  0
LINE
  5
2D61
330
1F
100
AcDbEntity
  8
AM_VIS
100
AcDbLine
 10
644.4285129153721
 20
331.0788243622005
 30
0.0
 11
643.9396603726664
 21
330.6167386650725
 31
0.0
  0
LINE
  5
2D62
330
1F
100
AcDbEntity
  8
AM_VIS
100
AcDbLine
 10
643.9396603726664
 20
330.6167386650725
 30
0.0
 11
642.9285129153721
 21
330.6167386650725
 31
0.0
  0
LINE
  5
2D63
330
1F
100
AcDbEntity
  8
AM_VIS
100
AcDbLine
 10
642.9285129153721
 20
330.6167386650725
 30
0.0
 11
642.9285129153721
 21
331.4288243622005
 31
0.0
  0
LINE
  5
2D64
330
1F
100
AcDbEntity
  8
AM_VIS
100
AcDbLine
 10
642.9285129153721
 20
331.4288243622005
 30
0.0
 11
638.6062041113644
 21
331.9141818141962
 31
0.0
  0
ARC
  5
2D65
330
1F
100
AcDbEntity
  8
AM_VIS
100
AcDbCircle
 10
638.6285220944999
 20
332.1129326824428
 30
0.0
 40
0.2
100
AcDbArc
 50
180.0
 51
263.5930246393696
  0
LINE
  5
2D66
102
{ACAD_REACTORS
330
2E91
102
}
330
1F
100
AcDbEntity
  8
AM_VIS
100
AcDbLine
 10
638.4285220944999
 20
332.1129326824428
 30
0.0
 11
638.4285220944999
 21
345.7448795298164
 31
0.0
  0
ARC
  5
2D67
330
1F
100
AcDbEntity
  8
AM_VIS
100
AcDbCircle
 10
638.6285220944999
 20
345.7448795298164
 30
0.0
 40
0.2
100
AcDbArc
 50
96.40483516922191
 51
180.0
  0
LINE
  5
2D68
330
1F
100
AcDbEntity
  8
AM_VIS
100
AcDbLine
 10
638.606211535398
 20
345.9436312315765
 30
0.0
 11
642.928512915372
 21
346.4288243622004
 31
0.0
  0
LINE
  5
2D69
330
1F
100
AcDbEntity
  8
AM_VIS
100
AcDbLine
 10
642.9285129153721
 20
346.4288243622005
 30
0.0
 11
642.9285129153721
 21
347.2288243622005
 31
0.0
  0
LINE
  5
2D6A
330
1F
100
AcDbEntity
  8
AM_VIS
100
AcDbLine
 10
642.9285129153721
 20
347.2288243622005
 30
0.0
 11
643.9285129153721
 21
347.2288243622005
 31
0.0
  0
LINE
  5
2D6B
330
1F
100
AcDbEntity
  8
AM_VIS
100
AcDbLine
 10
643.9285129153721
 20
347.2288243622005
 30
0.0
 11
644.4285129153721
 21
346.7788243622004
 31
0.0
  0
LINE
  5
2D6C
330
1F
100
AcDbEntity
  8
AM_VIS
100
AcDbLine
 10
644.4285129153721
 20
346.7788243622004
 30
0.0
 11
646.5285129153722
 21
346.7788243622004
 31
0.0
  0
ARC
  5
2D6D
330
1F
100
AcDbEntity
  8
AM_VIS
100
AcDbCircle
 10
646.5285129153722
 20
348.4788243622004
 30
0.0
 40
1.7
100
AcDbArc
 50
270.0
 51
0.0
  0
LINE
  5
2D6E
330
1F
100
AcDbEntity
  8
AM_VIS
100
AcDbLine
 10
648.2285129153721
 20
348.4788243622004
 30
0.0
 11
648.2285129153721
 21
349.3788243622006
 31
0.0
  0
ARC
  5
2D6F
330
1F
100
AcDbEntity
  8
AM_VIS
100
AcDbCircle
 10
646.5285129153722
 20
349.3788243622006
 30
0.0
 40
1.7
100
AcDbArc
 50
0.0
 51
90.0
  0
LINE
  5
2D70
330
1F
100
AcDbEntity
  8
AM_VIS
100
AcDbLine
 10
646.5285129153722
 20
351.0788243622005
 30
0.0
 11
644.4285129153721
 21
351.0788243622005
 31
0.0
  0
LINE
  5
2D71
330
1F
100
AcDbEntity
  8
AM_VIS
100
AcDbLine
 10
644.4285129153721
 20
351.0788243622005
 30
0.0
 11
643.9396603726664
 21
350.6167386650726
 31
0.0
  0
LINE
  5
2D72
330
1F
100
AcDbEntity
  8
AM_VIS
100
AcDbLine
 10
643.9396603726664
 20
350.6167386650726
 30
0.0
 11
642.9285129153721
 21
350.6167386650726
 31
0.0
  0
LINE
  5
2D73
330
1F
100
AcDbEntity
  8
AM_VIS
100
AcDbLine
 10
642.928512915372
 20
350.6167386650726
 30
0.0
 11
642.928512915372
 21
358.7105636715695
 31
0.0
  0
LINE
  5
2D74
330
1F
100
AcDbEntity
  8
AM_VIS
100
AcDbLine
 10
642.928512915372
 20
358.7105636715695
 30
0.0
 11
645.2752689083385
 21
360.9288243622005
 31
0.0
  0
LINE
  5
2D75
330
1F
100
AcDbEntity
  8
AM_VIS
100
AcDbLine
 10
645.2752689083385
 20
360.9288243622005
 30
0.0
 11
656.5285129153721
 21
360.9288243622005
 31
0.0
  0
LINE
  5
2D76
330
1F
100
AcDbEntity
  8
AM_VIS
100
AcDbLine
 10
656.5285129153721
 20
360.9288243622005
 30
0.0
 11
656.5285129153721
 21
359.2288243622004
 31
0.0
  0
LINE
  5
2D77
330
1F
100
AcDbEntity
  8
AM_VIS
100
AcDbLine
 10
656.5285129153721
 20
359.2288243622004
 30
0.0
 11
654.8285129153722
 21
359.2288243622004
 31
0.0
  0
LINE
  5
2D78
330
1F
100
AcDbEntity
  8
AM_VIS
100
AcDbLine
 10
654.8285129153722
 20
359.2288243622004
 30
0.0
 11
654.8285129153722
 21
357.9288243622002
 31
0.0
  0
LINE
  5
2D79
330
1F
100
AcDbEntity
  8
AM_VIS
100
AcDbLine
 10
654.8285129153722
 20
357.9288243622002
 30
0.0
 11
663.8285129153722
 21
357.9288243622002
 31
0.0
  0
LINE
  5
2D7A
330
1F
100
AcDbEntity
  8
AM_VIS
100
AcDbLine
 10
663.8285129153722
 20
357.9288243622002
 30
0.0
 11
663.8285129153722
 21
360.9288243622004
 31
0.0
  0
LINE
  5
2D7B
330
1F
100
AcDbEntity
  8
AM_VIS
100
AcDbLine
 10
663.8285129153722
 20
360.9288243622004
 30
0.0
 11
666.028512915372
 21
360.9288243622004
 31
0.0
  0
LINE
  5
2D7C
330
1F
100
AcDbEntity
  8
AM_VIS
100
AcDbLine
 10
666.028512915372
 20
360.9288243622004
 30
0.0
 11
666.028512915372
 21
357.9288243622002
 31
0.0
  0
LINE
  5
2D7D
330
1F
100
AcDbEntity
  8
AM_VIS
100
AcDbLine
 10
666.0285129153719
 20
357.9288243622002
 30
0.0
 11
675.028512915372
 21
357.9288243622002
 31
0.0
  0
LINE
  5
2D7E
330
1F
100
AcDbEntity
  8
AM_VIS
100
AcDbLine
 10
675.028512915372
 20
357.9288243622002
 30
0.0
 11
675.028512915372
 21
359.2288243622003
 31
0.0
  0
LINE
  5
2D7F
330
1F
100
AcDbEntity
  8
AM_VIS
100
AcDbLine
 10
675.028512915372
 20
359.2288243622003
 30
0.0
 11
673.3285129153721
 21
359.2288243622003
 31
0.0
  0
LINE
  5
2D80
330
1F
100
AcDbEntity
  8
AM_VIS
100
AcDbLine
 10
673.3285129153721
 20
359.2288243622003
 30
0.0
 11
673.3285129153721
 21
360.9288243622005
 31
0.0
  0
LINE
  5
2D81
330
1F
100
AcDbEntity
  8
AM_VIS
100
AcDbLine
 10
673.328512915372
 20
360.9288243622005
 30
0.0
 11
684.5817569224057
 21
360.9288243622005
 31
0.0
  0
ARC
  5
2D82
330
1F
100
AcDbEntity
  8
AM_VIS
100
AcDbCircle
 10
664.928512915372
 20
338.9288243622005
 30
0.0
 40
29.5
100
AcDbArc
 50
41.77534800972742
 51
48.22465199027475
  0
LINE
  5
2D83
330
1F
100
AcDbEntity
  8
AM_VIS
100
AcDbLine
 10
686.928512915372
 20
358.582068369234
 30
0.0
 11
686.928512915372
 21
347.2288243622005
 31
0.0
  0
LINE
  5
2D84
330
1F
100
AcDbEntity
  8
AM_VIS
100
AcDbLine
 10
686.928512915372
 20
347.2288243622005
 30
0.0
 11
685.2396603726664
 21
347.2288243622005
 31
0.0
  0
LINE
  5
2D85
330
1F
100
AcDbEntity
  8
AM_VIS
100
AcDbLine
 10
685.2396603726664
 20
347.2288243622005
 30
0.0
 11
685.2396603726664
 21
349.1167386650724
 31
0.0
  0
LINE
  5
2D86
330
1F
100
AcDbEntity
  8
AM_VIS
100
AcDbLine
 10
685.2396603726663
 20
349.1167386650724
 30
0.0
 11
683.9396603726661
 21
349.1167386650724
 31
0.0
  0
LINE
  5
2D87
330
1F
100
AcDbEntity
  8
AM_VIS
100
AcDbLine
 10
683.9396603726662
 20
349.1167386650724
 30
0.0
 11
683.9396603726662
 21
340.0288243622005
 31
0.0
  0
LINE
  5
2D88
330
1F
100
AcDbEntity
  8
AM_VIS
100
AcDbLine
 10
683.9396603726662
 20
340.0288243622003
 30
0.0
 11
686.928512915372
 21
340.0288243622003
 31
0.0
  0
LINE
  5
2D89
330
1F
100
AcDbEntity
  8
AM_VIS
100
AcDbLine
 10
686.928512915372
 20
340.0288243622003
 30
0.0
 11
686.928512915372
 21
337.8288243622005
 31
0.0
  0
LINE
  5
2D8A
330
1F
100
AcDbEntity
  8
AM_VIS
100
AcDbLine
 10
686.928512915372
 20
337.8288243622005
 30
0.0
 11
683.9396603726662
 21
337.8288243622005
 31
0.0
  0
LINE
  5
2D8B
330
1F
100
AcDbEntity
  8
AM_VIS
100
AcDbLine
 10
683.9396603726662
 20
337.8288243622007
 30
0.0
 11
683.9396603726662
 21
328.9167386650726
 31
0.0
  0
LINE
  5
2D8C
330
1F
100
AcDbEntity
  8
AM_VIS
100
AcDbLine
 10
683.9396603726662
 20
328.9167386650726
 30
0.0
 11
685.2396603726664
 21
328.9167386650726
 31
0.0
  0
LINE
  5
2D8D
330
1F
100
AcDbEntity
  8
AM_VIS
100
AcDbLine
 10
685.2396603726664
 20
328.9167386650726
 30
0.0
 11
685.2396603726664
 21
330.6167386650725
 31
0.0
  0
LINE
  5
2D8E
330
1F
100
AcDbEntity
  8
AM_VIS
100
AcDbLine
 10
685.2396603726663
 20
330.6167386650725
 30
0.0
 11
686.928512915372
 21
330.6167386650725
 31
0.0
  0
LINE
  5
2D8F
330
1F
100
AcDbEntity
  8
AM_VIS
100
AcDbLine
 10
686.928512915372
 20
330.6167386650725
 30
0.0
 11
686.928512915372
 21
319.1470850528315
 31
0.0
  0
LINE
  5
2D90
102
{ACAD_REACTORS
330
2E79
330
2E91
102
}
330
1F
100
AcDbEntity
  8
AM_VIS
100
AcDbLine
 10
686.928512915372
 20
319.1470850528315
 30
0.0
 11
684.5817569224057
 21
316.9288243622005
 31
0.0
  0
LINE
  5
2D91
330
1F
100
AcDbEntity
  8
AM_VIS
100
AcDbLine
 10
684.5817569224057
 20
316.9288243622005
 30
0.0
 11
673.328512915372
 21
316.9288243622005
 31
0.0
  0
LINE
  5
2D92
330
1F
100
AcDbEntity
  8
AM_VIS
100
AcDbLine
 10
673.328512915372
 20
316.9288243622005
 30
0.0
 11
673.328512915372
 21
318.6288243622004
 31
0.0
  0
LINE
  5
2D93
330
1F
100
AcDbEntity
  8
AM_VIS
100
AcDbLine
 10
673.328512915372
 20
318.6288243622004
 30
0.0
 11
675.0285129153719
 21
318.6288243622004
 31
0.0
  0
LINE
  5
2D94
330
1F
100
AcDbEntity
  8
AM_VIS
100
AcDbLine
 10
675.0285129153719
 20
318.6288243622004
 30
0.0
 11
675.0285129153719
 21
319.9288243622006
 31
0.0
  0
LINE
  5
2D95
330
1F
100
AcDbEntity
  8
AM_VIS
100
AcDbLine
 10
675.0285129153719
 20
319.9288243622006
 30
0.0
 11
666.0285129153719
 21
319.9288243622006
 31
0.0
  0
LINE
  5
2D96
330
1F
100
AcDbEntity
  8
AM_VIS
100
AcDbLine
 10
666.0285129153719
 20
319.9288243622006
 30
0.0
 11
666.0285129153719
 21
316.9288243622005
 31
0.0
  0
LINE
  5
2D97
330
1F
100
AcDbEntity
  8
AM_VIS
100
AcDbLine
 10
666.0285129153719
 20
316.9288243622005
 30
0.0
 11
663.8285129153721
 21
316.9288243622005
 31
0.0
  0
LINE
  5
2D98
330
1F
100
AcDbEntity
  8
AM_VIS
100
AcDbLine
 10
663.8285129153721
 20
316.9288243622005
 30
0.0
 11
663.8285129153721
 21
319.9288243622006
 31
0.0
  0
LINE
  5
2D99
330
1F
100
AcDbEntity
  8
AM_VIS
100
AcDbLine
 10
663.8285129153721
 20
319.9288243622006
 30
0.0
 11
654.8285129153721
 21
319.9288243622006
 31
0.0
  0
LINE
  5
2D9A
330
1F
100
AcDbEntity
  8
AM_VIS
100
AcDbLine
 10
654.8285129153721
 20
319.9288243622006
 30
0.0
 11
654.8285129153721
 21
318.6288243622004
 31
0.0
  0
LINE
  5
2D9B
330
1F
100
AcDbEntity
  8
AM_VIS
100
AcDbLine
 10
654.8285129153721
 20
318.6288243622004
 30
0.0
 11
656.5285129153721
 21
318.6288243622004
 31
0.0
  0
LINE
  5
2D9C
330
1F
100
AcDbEntity
  8
AM_VIS
100
AcDbLine
 10
656.5285129153721
 20
318.6288243622004
 30
0.0
 11
656.5285129153721
 21
316.9288243622005
 31
0.0
  0
LINE
  5
2D9D
330
1F
100
AcDbEntity
  8
AM_VIS
100
AcDbLine
 10
656.5285129153721
 20
316.9288243622005
 30
0.0
 11
645.2752689083386
 21
316.9288243622005
 31
0.0
  0
ARC
  5
2D9E
102
{ACAD_REACTORS
330
2E79
102
}
330
1F
100
AcDbEntity
  8
AM_VIS
100
AcDbCircle
 10
664.928512915372
 20
338.9288243622006
 30
0.0
 40
29.5
100
AcDbArc
 50
221.7753480097274
 51
228.2246519902748
  0
LINE
  5
2D9F
102
{ACAD_REACTORS
330
2E79
102
}
330
1F
100
AcDbEntity
  8
AM_VIS
100
AcDbLine
 10
642.9285129153721
 20
319.275580355167
 30
0.0
 11
642.9285129153721
 21
327.2288243622004
 31
0.0
  0
LINE
  5
2DA0
330
1F
100
AcDbEntity
  8
AM_VIS
100
AcDbLine
 10
642.9285129153721
 20
327.2288243622004
 30
0.0
 11
643.9285129153721
 21
327.2288243622004
 31
0.0
  0
ARC
  5
2DA1
330
1F
100
AcDbEntity
  8
AM_VIS
100
AcDbCircle
 10
681.928512915372
 20
356.0246918789073
 30
0.0
 40
5.250000000000028
100
AcDbArc
 50
342.2472098380532
 51
17.75279016194678
  0
ARC
  5
2DA2
330
1F
100
AcDbEntity
  8
AM_VIS
100
AcDbCircle
 10
681.928512915372
 20
322.0246918789073
 30
0.0
 40
5.250000000000028
100
AcDbArc
 50
342.2472098380532
 51
17.75279016194678
  0
LINE
  5
2DA3
330
1F
100
AcDbEntity
  8
AM_VIS
100
AcDbLine
 10
686.428512915372
 20
330.6167386650725
 30
0.0
 11
686.428512915372
 21
337.8288243622005
 31
0.0
  0
LINE
  5
2DA4
330
1F
100
AcDbEntity
  8
AM_VIS
100
AcDbLine
 10
686.428512915372
 20
340.0288243622004
 30
0.0
 11
686.428512915372
 21
347.2288243622005
 31
0.0
  0
LINE
  5
2DA5
330
1F
100
AcDbEntity
  8
AM_VIS
100
AcDbLine
 10
686.928512915372
 20
347.2288243622005
 30
0.0
 11
686.928512915372
 21
340.0288243622003
 31
0.0
  0
LINE
  5
2DA6
330
1F
100
AcDbEntity
  8
AM_VIS
100
AcDbLine
 10
686.928512915372
 20
337.8288243622005
 30
0.0
 11
686.928512915372
 21
330.6167386650725
 31
0.0
  0
LINE
  5
2DA7
330
1F
100
AcDbEntity
  8
AM_VIS
100
AcDbLine
 10
687.1293588936415
 20
347.0246918789073
 30
0.0
 11
686.928512915372
 21
347.0246918789073
 31
0.0
  0
LINE
  5
2DA8
330
1F
100
AcDbEntity
  8
AM_VIS
100
AcDbLine
 10
686.928512915372
 20
350.0246918789073
 30
0.0
 11
687.1293588936415
 21
350.0246918789073
 31
0.0
  0
LINE
  5
2DA9
330
1F
100
AcDbEntity
  8
AM_VIS
100
AcDbLine
 10
687.1293588936414
 20
350.0246918789073
 30
0.0
 11
687.1293588936414
 21
347.0246918789073
 31
0.0
  0
LINE
  5
2DAA
330
1F
100
AcDbEntity
  8
AM_VIS
100
AcDbLine
 10
687.1293588936415
 20
327.9288243622004
 30
0.0
 11
686.928512915372
 21
327.9288243622004
 31
0.0
  0
LINE
  5
2DAB
330
1F
100
AcDbEntity
  8
AM_VIS
100
AcDbLine
 10
686.928512915372
 20
330.9288243622004
 30
0.0
 11
687.1293588936414
 21
330.9288243622004
 31
0.0
  0
LINE
  5
2DAC
330
1F
100
AcDbEntity
  8
AM_VIS
100
AcDbLine
 10
687.1293588936414
 20
330.9288243622004
 30
0.0
 11
687.1293588936414
 21
327.9288243622004
 31
0.0
  0
LINE
  5
2DAD
330
1F
100
AcDbEntity
  8
AM_VIS
100
AcDbLine
 10
687.0285411600969
 20
330.9288243622005
 30
0.0
 11
687.3612557911926
 21
331.4288243622005
 31
0.0
  0
LINE
  5
2DAE
330
1F
100
AcDbEntity
  8
AM_VIS
100
AcDbLine
 10
687.4017716173949
 20
331.4288243622005
 30
0.0
 11
687.3612557911926
 21
331.4288243622005
 31
0.0
  0
LINE
  5
2DAF
330
1F
100
AcDbEntity
  8
AM_VIS
100
AcDbLine
 10
687.4017716173949
 20
331.4288243622005
 30
0.0
 11
687.0285411600969
 21
330.9288243622005
 31
0.0
  0
LINE
  5
2DB0
330
1F
100
AcDbEntity
  8
AM_VIS
100
AcDbLine
 10
687.4017716173949
 20
346.4288243622005
 30
0.0
 11
687.3612557911926
 21
346.4288243622005
 31
0.0
  0
LINE
  5
2DB1
330
1F
100
AcDbEntity
  8
AM_VIS
100
AcDbLine
 10
687.0285411600969
 20
346.9288243622005
 30
0.0
 11
687.3612557911926
 21
346.4288243622005
 31
0.0
  0
LINE
  5
2DB2
330
1F
100
AcDbEntity
  8
AM_VIS
100
AcDbLine
 10
687.0285411600969
 20
346.9288243622005
 30
0.0
 11
687.4017716173949
 21
346.4288243622005
 31
0.0
  0
LINE
  5
2DB3
330
1F
100
AcDbEntity
  8
AM_VIS
100
AcDbLine
 10
686.928512915372
 20
346.9288243622005
 30
0.0
 11
687.0285411600969
 21
346.9288243622005
 31
0.0
  0
LINE
  5
2DB4
330
1F
100
AcDbEntity
  8
AM_VIS
100
AcDbLine
 10
687.4017716173948
 20
346.4288243622005
 30
0.0
 11
686.928512915372
 21
346.4288243622005
 31
0.0
  0
LINE
  5
2DB5
330
1F
100
AcDbEntity
  8
AM_VIS
100
AcDbLine
 10
687.4017716173949
 20
346.4288243622005
 30
0.0
 11
687.4017716173949
 21
331.4288243622005
 31
0.0
  0
LINE
  5
2DB6
330
1F
100
AcDbEntity
  8
AM_VIS
100
AcDbLine
 10
687.3612557911926
 20
331.4288243622005
 30
0.0
 11
687.3612557911926
 21
346.4288243622005
 31
0.0
  0
LINE
  5
2DB8
330
1F
100
AcDbEntity
  8
AM_VIS
100
AcDbLine
 10
686.928512915372
 20
331.4288243622004
 30
0.0
 11
687.401771617395
 21
331.4288243622004
 31
0.0
  0
ARC
  5
2DB9
330
1F
100
AcDbEntity
  8
0
100
AcDbCircle
 10
663.9922243018785
 20
338.9288243622007
 30
0.0
 40
14.89838549086941
100
AcDbArc
 50
226.5092604653642
 51
133.4907395346357
  0
CIRCLE
  5
2DBA
330
1F
100
AcDbEntity
  8
AM_VIS
100
AcDbCircle
 10
664.9285129153721
 20
338.9288243622005
 30
0.0
 40
16.84999999999994
  0
CIRCLE
  5
2DBB
330
1F
100
AcDbEntity
  8
AM_VIS
100
AcDbCircle
 10
664.9285129153721
 20
338.9288243622005
 30
0.0
 40
11.0
  0
CIRCLE
  5
2DBC
330
1F
100
AcDbEntity
  8
AM_VIS
100
AcDbCircle
 10
664.928512915372
 20
338.9288243622005
 30
0.0
 40
17.0
  0
LINE
  5
2DBD
330
1F
100
AcDbEntity
  8
AM_7
 48
7.0
100
AcDbLine
 10
690.0919944428124
 20
338.9288243622005
 30
0.0
 11
634.7954972603083
 21
338.9288243622005
 31
0.0
  0
LINE
  5
2DBE
330
1F
100
AcDbEntity
  8
AM_7
 48
7.0
100
AcDbLine
 10
664.928512915372
 20
313.7653428347602
 30
0.0
 11
664.928512915372
 21
364.0923058896407
 31
0.0
  0
CIRCLE
  5
2DBF
330
1F
100
AcDbEntity
  8
0
100
AcDbCircle
 10
651.3166060197892
 20
333.0675167238712
 30
0.0
 40
1.25
  0
ARC
  5
2DC0
330
1F
100
AcDbEntity
  8
0
100
AcDbCircle
 10
651.3166060197892
 20
333.0675167238712
 30
0.0
 40
2.6
100
AcDbArc
 50
323.9981311727832
 51
24.56312793020526
  0
ARC
  5
2DC1
330
1F
100
AcDbEntity
  8
0
100
AcDbCircle
 10
651.3166060197892
 20
344.7901320005302
 30
0.0
 40
2.6
100
AcDbArc
 50
335.4368720697947
 51
36.00186882721675
  0
CIRCLE
  5
2DC2
330
1F
100
AcDbEntity
  8
0
100
AcDbCircle
 10
651.3166060197892
 20
344.7901320005302
 30
0.0
 40
1.25
  0
ARC
  5
2DC3
330
1F
100
AcDbEntity
  8
0
100
AcDbCircle
 10
655.52339469441
 20
347.8467525276944
 30
0.0
 40
2.6
100
AcDbArc
 50
133.3505184042766
 51
216.0018688272168
  0
ARC
  5
2DC6
330
1F
100
AcDbEntity
  8
0
100
AcDbCircle
 10
651.3166060197892
 20
344.7901320005302
 30
0.0
 40
2.6
100
AcDbArc
 50
254.9999999999913
 51
335.4368720697947
  0
LINE
  5
2DC7
330
1F
100
AcDbEntity
  8
0
100
AcDbLine
 10
650.6436765025227
 20
342.2787248521785
 30
0.0
 11
648.916141612783
 21
342.741616430781
 31
0.0
  0
LINE
  5
2DC8
330
1F
100
AcDbEntity
  8
0
100
AcDbLine
 10
650.6436765025227
 20
335.5789238722226
 30
0.0
 11
648.916141612783
 21
335.1160322936204
 31
0.0
  0
ARC
  5
2DC9
330
1F
100
AcDbEntity
  8
0
100
AcDbCircle
 10
651.3166060197892
 20
333.0675167238712
 30
0.0
 40
2.6
100
AcDbArc
 50
24.56312793020526
 51
105.0000000000087
  0
ARC
  5
2DCA
330
1F
100
AcDbEntity
  8
0
100
AcDbCircle
 10
655.52339469441
 20
330.0108961967069
 30
0.0
 40
2.6
100
AcDbArc
 50
143.9981311727833
 51
226.6494815957234
  0
ARC
  5
2DCB
330
1F
100
AcDbEntity
  8
0
100
AcDbCircle
 10
649.1749606578854
 20
343.7075422570702
 30
0.0
 40
1.0
100
AcDbArc
 50
231.914908411191
 51
255.0000000000056
  0
ARC
  5
2DCC
330
1F
100
AcDbEntity
  8
0
100
AcDbCircle
 10
649.1749606578854
 20
334.1501064673313
 30
0.0
 40
1.0
100
AcDbArc
 50
104.9999999999944
 51
128.085091588809
  0
CIRCLE
  5
2DCD
330
1F
100
AcDbEntity
  8
AM_VIS
100
AcDbCircle
 10
647.928512915372
 20
355.9288243622005
 30
0.0
 40
4.0
  0
CIRCLE
  5
2DCE
330
1F
100
AcDbEntity
  8
AM_VIS
100
AcDbCircle
 10
647.928512915372
 20
355.9288243622005
 30
0.0
 40
2.549999999999999
  0
ARC
  5
2DCF
330
1F
100
AcDbEntity
  8
AM_4
100
AcDbCircle
 10
647.928512915372
 20
355.9288243622005
 30
0.0
 40
3.0
100
AcDbArc
 50
260.0000000000014
 51
169.9999999999981
  0
LINE
  5
2DD0
330
1F
100
AcDbEntity
  8
AM_7
  6
AM_ISO08W050x2
100
AcDbLine
 10
641.928512915372
 20
355.9288243622005
 30
0.0
 11
653.928512915372
 21
355.9288243622005
 31
0.0
  0
LINE
  5
2DD1
330
1F
100
AcDbEntity
  8
AM_7
  6
AM_ISO08W050x2
100
AcDbLine
 10
647.928512915372
 20
349.9288243622005
 30
0.0
 11
647.928512915372
 21
361.9288243622005
 31
0.0
  0
CIRCLE
  5
2DD2
330
1F
100
AcDbEntity
  8
AM_VIS
100
AcDbCircle
 10
681.928512915372
 20
355.9288243622005
 30
0.0
 40
4.0
  0
CIRCLE
  5
2DD3
330
1F
100
AcDbEntity
  8
AM_VIS
100
AcDbCircle
 10
681.928512915372
 20
355.9288243622005
 30
0.0
 40
2.549999999999999
  0
LINE
  5
2DD4
330
1F
100
AcDbEntity
  8
AM_7
  6
AM_ISO08W050x2
100
AcDbLine
 10
687.928512915372
 20
355.9288243622005
 30
0.0
 11
675.928512915372
 21
355.9288243622005
 31
0.0
  0
LINE
  5
2DD5
330
1F
100
AcDbEntity
  8
AM_7
  6
AM_ISO08W050x2
100
AcDbLine
 10
681.928512915372
 20
349.9288243622005
 30
0.0
 11
681.928512915372
 21
361.9288243622005
 31
0.0
  0
CIRCLE
  5
2DD6
330
1F
100
AcDbEntity
  8
AM_VIS
100
AcDbCircle
 10
681.928512915372
 20
321.9288243622005
 30
0.0
 40
4.0
  0
CIRCLE
  5
2DD7
330
1F
100
AcDbEntity
  8
AM_VIS
100
AcDbCircle
 10
681.928512915372
 20
321.9288243622005
 30
0.0
 40
2.549999999999999
  0
LINE
  5
2DD8
330
1F
100
AcDbEntity
  8
AM_7
  6
AM_ISO08W050x2
100
AcDbLine
 10
687.928512915372
 20
321.9288243622005
 30
0.0
 11
675.928512915372
 21
321.9288243622005
 31
0.0
  0
LINE
  5
2DD9
102
{ACAD_REACTORS
330
2E61
102
}
330
1F
100
AcDbEntity
  8
AM_7
  6
AM_ISO08W050x2
100
AcDbLine
 10
681.928512915372
 20
327.9288243622005
 30
0.0
 11
681.928512915372
 21
315.9288243622005
 31
0.0
  0
CIRCLE
  5
2DDA
330
1F
100
AcDbEntity
  8
AM_VIS
100
AcDbCircle
 10
647.928512915372
 20
321.9288243622005
 30
0.0
 40
4.0
  0
CIRCLE
  5
2DDB
330
1F
100
AcDbEntity
  8
AM_VIS
100
AcDbCircle
 10
647.928512915372
 20
321.9288243622005
 30
0.0
 40
2.549999999999999
  0
LINE
  5
2DDC
330
1F
100
AcDbEntity
  8
AM_7
  6
AM_ISO08W050x2
100
AcDbLine
 10
641.928512915372
 20
321.9288243622005
 30
0.0
 11
653.928512915372
 21
321.9288243622005
 31
0.0
  0
LINE
  5
2DDD
102
{ACAD_REACTORS
330
2E61
102
}
330
1F
100
AcDbEntity
  8
AM_7
  6
AM_ISO08W050x2
100
AcDbLine
 10
647.928512915372
 20
327.9288243622005
 30
0.0
 11
647.928512915372
 21
315.9288243622005
 31
0.0
  0
ARC
  5
2DDE
330
1F
100
AcDbEntity
  8
AM_4
100
AcDbCircle
 10
681.928512915372
 20
355.8329568454937
 30
0.0
 40
3.0
100
AcDbArc
 50
260.0000000000014
 51
169.9999999999981
  0
ARC
  5
2DDF
330
1F
100
AcDbEntity
  8
AM_4
100
AcDbCircle
 10
681.928512915372
 20
321.9288243622005
 30
0.0
 40
3.0
100
AcDbArc
 50
260.0000000000014
 51
169.9999999999981
  0
ARC
  5
2DE0
330
1F
100
AcDbEntity
  8
AM_4
100
AcDbCircle
 10
647.928512915372
 20
321.9288243622005
 30
0.0
 40
3.0
100
AcDbArc
 50
260.0000000000014
 51
169.9999999999981
  0
DIMENSION
  5
2E4A
102
{ACAD_XDICTIONARY
360
2E57
102
}
102
{ACAD_REACTORS
330
2E61
102
}
330
1F
100
AcDbEntity
  8
0
100
AcDbDimension
  2
*D10
 10
681.928512915372
 20
308.6396148943259
 30
0.0
 11
665.135058636362
 21
308.6396148943259
 31
0.0
 70
   160
  1
{\Famgdt;o}<>
 71
     5
 42
34.0
  3
ISO-25
100
AcDbAlignedDimension
 13
647.928512915372
 23
315.9288243622005
 33
0.0
 14
681.928512915372
 24
315.9288243622005
 34
0.0
100
AcDbRotatedDimension
  0
DIMENSION
  5
2E62
102
{ACAD_XDICTIONARY
360
2E6F
102
}
102
{ACAD_REACTORS
330
2E79
102
}
330
1F
100
AcDbEntity
  8
0
100
AcDbDimension
  2
*D11
 10
686.928512915372
 20
299.7347107375875
 30
0.0
 11
665.4743717722284
 21
299.7347107375875
 31
0.0
 70
   160
  1
{\Famgdt;o}<>
 71
     5
 42
43.99999999999988
  3
ISO-25
100
AcDbAlignedDimension
 13
642.9285129153721
 23
319.275580355167
 33
0.0
 14
686.928512915372
 24
319.1470850528316
 34
0.0
100
AcDbRotatedDimension
  0
DIMENSION
  5
2E7A
102
{ACAD_XDICTIONARY
360
2E87
102
}
102
{ACAD_REACTORS
330
2E91
102
}
330
1F
100
AcDbEntity
  8
0
100
AcDbDimension
  2
*D12
 10
638.4285220944999
 20
291.6155337761264
 30
0.0
 11
663.7890520155232
 21
291.6155337761264
 31
0.0
 70
   160
 71
     5
 42
48.49999082087208
  3
ISO-25
100
AcDbAlignedDimension
 13
686.928512915372
 23
319.1470850528315
 33
0.0
 14
638.4285220944999
 24
332.1129326824428
 34
0.0
100
AcDbRotatedDimension
  0
LEADER
  5
2F1F
330
1F
100
AcDbEntity
  8
0
 62
     5
100
AcDbLeader
  3
ISO-25
 73
     0
 75
     1
 40
13.6005905511811
 41
33.59999999999999
 76
     3
 10
645.4034492021878
 20
318.8265585379423
 30
0.0
 10
631.5692266858469
 20
301.8299831669754
 30
0.0
 10
628.5692266858469
 20
301.8299831669754
 30
0.0
1001
ACAD
1000
DSTYLE
1002
{
1070
     5
1000

1070
    77
1070
     1
1070
   147
1040
0.625
1070
   342
1005
0
1002
}
  0
MTEXT
  5
2F20
102
{ACAD_REACTORS
330
2F1F
102
}
330
1F
100
AcDbEntity
  8
0
 62
     5
100
AcDbMText
 10
627.9442266858469
 20
302.4549831669754
 30
0.0
 40
3.0
 41
0.0
 71
     9
 72
     1
  1
{\L4-通孔%%C5.1\P4-沈孔%%C8×6深\P}4-螺牙M6×1.0×8深
 73
     1
 44
1.0
1001
ACAD
1000
MTEXTBEGIN
1070
    73
1070
     1
1070
    44
1040
1.0
1070
    74
1070
     0
1000
MTEXTEND
  0
MTEXT
  5
2F21
102
{ACAD_REACTORS
330
2F22
102
}
330
1F
100
AcDbEntity
  8
0
 62
     5
100
AcDbMText
 10
629.1784080363511
 20
405.5614669559881
 30
0.0
 40
3.0
 41
0.0
 71
     9
 72
     1
  1
2-G1/8
 73
     1
 44
1.0
1001
ACAD
1000
MTEXTBEGIN
1070
    73
1070
     1
1070
    44
1040
1.0
1070
    74
1070
     0
1000
MTEXTEND
  0
LEADER
  5
2F22
330
1F
100
AcDbEntity
  8
0
100
AcDbLeader
  3
ISO-25
 73
     0
 75
     1
 40
3.000590551181101
 41
13.8761811023622
 76
     3
 10
638.4285220944998
 20
418.1867650172113
 30
0.0
 10
632.8034080363511
 20
404.9364669559881
 30
0.0
 10
629.8034080363511
 20
404.9364669559881
 30
0.0
1001
ACAD
1000
DSTYLE
1002
{
1070
   147
1040
0.625
1070
    77
1070
     1
1002
}
  0
DIMENSION
  5
2F23
102
{ACAD_XDICTIONARY
360
2F30
102
}
102
{ACAD_REACTORS
330
2F3A
102
}
330
1F
100
AcDbEntity
  8
0
100
AcDbDimension
  2
*D13
 10
630.7651999197673
 20
418.1867650172113
 30
0.0
 11
630.7651999197672
 21
422.4633748513425
 31
0.0
 70
   160
 71
     5
 42
9.0
  3
ISO-25
100
AcDbAlignedDimension
 13
638.606211535398
 23
427.1867650172113
 33
0.0
 14
636.5100203148749
 24
418.1867650172113
 34
0.0
 50
90.0
100
AcDbRotatedDimension
  0
DIMENSION
  5
2F3B
102
{ACAD_XDICTIONARY
360
2F48
102
}
102
{ACAD_REACTORS
330
2F52
102
}
330
1F
100
AcDbEntity
  8
0
100
AcDbDimension
  2
*D14
 10
630.7651999197673
 20
378.1867650172114
 30
0.0
 11
630.7651999197672
 21
382.8870944288015
 31
0.0
 70
   160
 71
     5
 42
9.0
  3
ISO-25
100
AcDbAlignedDimension
 13
636.5100203148751
 23
387.1867650172114
 33
0.0
 14
638.4285220944998
 24
378.1867650172114
 34
0.0
 50
90.0
100
AcDbRotatedDimension
  0
DIMENSION
  5
2F53
102
{ACAD_XDICTIONARY
360
2F60
102
}
102
{ACAD_REACTORS
330
2F6A
102
}
330
1F
100
AcDbEntity
  8
0
100
AcDbDimension
  2
*D15
 10
605.8598894418064
 20
378.1867650172114
 30
0.0
 11
605.8598894418063
 21
402.6314696147889
 31
0.0
 70
   160
  1
不附磁型：<>
 71
     5
 42
49.0
  3
ISO-25
100
AcDbAlignedDimension
 13
638.4285220944998
 23
427.1867650172113
 33
0.0
 14
638.606211535398
 24
378.1867650172114
 34
0.0
 50
90.0
100
AcDbRotatedDimension
1001
ACAD
1000
DSTYLE
1002
{
1070
   279
1070
     0
1002
}
  0
LINE
  5
3124
330
1F
100
AcDbEntity
  8
AM_7
 48
7.0
100
AcDbLine
 10
806.459051285795
 20
375.8802789602143
 30
0.0
 11
806.459051285795
 21
483.3468270433465
 31
0.0
  0
LINE
  5
3125
330
1F
100
AcDbEntity
  8
AM_VIS
100
AcDbLine
 10
779.9590604649229
 20
378.1867650172114
 30
0.0
 11
779.9590604649229
 21
427.1867650172113
 31
0.0
  0
LINE
  5
3126
330
1F
100
AcDbEntity
  8
AM_VIS
100
AcDbLine
 10
780.136749905821
 20
427.1867650172113
 30
0.0
 11
779.9590604649229
 21
427.1867650172113
 31
0.0
  0
LINE
  5
3127
330
1F
100
AcDbEntity
  8
AM_VIS
100
AcDbLine
 10
780.136749905821
 20
378.1867650172114
 30
0.0
 11
779.9590604649229
 21
378.1867650172114
 31
0.0
  0
LINE
  5
3128
330
1F
100
AcDbEntity
  8
AM_VIS
100
AcDbLine
 10
780.136749905821
 20
427.1867650172113
 30
0.0
 11
784.459051285795
 21
427.1867650172113
 31
0.0
  0
LINE
  5
3129
102
{ACAD_REACTORS
330
3930
102
}
330
1F
100
AcDbEntity
  8
AM_VIS
100
AcDbLine
 10
780.136749905821
 20
378.1867650172114
 30
0.0
 11
784.459051285795
 21
378.1867650172114
 31
0.0
  0
LINE
  5
312A
330
1F
100
AcDbEntity
  8
AM_VIS
100
AcDbLine
 10
784.459051285795
 20
427.1867650172113
 30
0.0
 11
786.8058072787614
 21
427.1867650172113
 31
0.0
  0
LINE
  5
312B
330
1F
100
AcDbEntity
  8
AM_VIS
100
AcDbLine
 10
784.459051285795
 20
378.1867650172114
 30
0.0
 11
786.8058072787614
 21
378.1867650172114
 31
0.0
  0
LINE
  5
312C
330
1F
100
AcDbEntity
  8
AM_VIS
100
AcDbLine
 10
786.8058072787614
 20
427.1867650172113
 30
0.0
 11
795.4590512857951
 21
427.1867650172113
 31
0.0
  0
LINE
  5
312D
330
1F
100
AcDbEntity
  8
AM_VIS
100
AcDbLine
 10
786.8058072787614
 20
378.1867650172114
 30
0.0
 11
798.0590512857952
 21
378.1867650172114
 31
0.0
  0
LINE
  5
312E
330
1F
100
AcDbEntity
  8
AM_VIS
100
AcDbLine
 10
798.0590512857952
 20
378.1867650172114
 30
0.0
 11
805.3590512857951
 21
378.1867650172114
 31
0.0
  0
LINE
  5
312F
330
1F
100
AcDbEntity
  8
AM_VIS
100
AcDbLine
 10
807.5590512857949
 20
378.1867650172114
 30
0.0
 11
807.5590512857949
 21
427.1867650172113
 31
0.0
  0
LINE
  5
3130
330
1F
100
AcDbEntity
  8
AM_VIS
100
AcDbLine
 10
805.3590512857951
 20
378.1867650172114
 30
0.0
 11
807.5590512857949
 21
378.1867650172114
 31
0.0
  0
LINE
  5
3131
330
1F
100
AcDbEntity
  8
AM_VIS
100
AcDbLine
 10
806.459051285795
 20
427.1867650172113
 30
0.0
 11
828.4590512857951
 21
427.1867650172113
 31
0.0
  0
LINE
  5
3132
330
1F
100
AcDbEntity
  8
AM_VIS
100
AcDbLine
 10
807.5590512857949
 20
378.1867650172114
 30
0.0
 11
814.859051285795
 21
378.1867650172114
 31
0.0
  0
LINE
  5
3133
330
1F
100
AcDbEntity
  8
AM_VIS
100
AcDbLine
 10
814.859051285795
 20
378.1867650172114
 30
0.0
 11
814.859051285795
 21
427.1867650172113
 31
0.0
  0
LINE
  5
3134
330
1F
100
AcDbEntity
  8
AM_VIS
100
AcDbLine
 10
814.859051285795
 20
378.1867650172114
 30
0.0
 11
828.4590512857951
 21
378.1867650172114
 31
0.0
  0
LINE
  5
3135
102
{ACAD_REACTORS
330
3D46
102
}
330
1F
100
AcDbEntity
  8
AM_VIS
100
AcDbLine
 10
828.4590512857951
 20
378.1867650172114
 30
0.0
 11
828.4590512857951
 21
427.1867650172113
 31
0.0
  0
LINE
  5
3136
330
1F
100
AcDbEntity
  8
AM_VIS
100
AcDbLine
 10
806.4590512857948
 20
378.1867650172114
 30
0.0
 11
789.4590512857949
 21
378.1867650172114
 31
0.0
  0
LINE
  5
3137
330
1F
100
AcDbEntity
  8
AM_VIS
100
AcDbLine
 10
789.4590512857949
 20
378.1867650172114
 30
0.0
 11
784.459051285795
 21
378.1867650172114
 31
0.0
  0
LINE
  5
3138
330
1F
100
AcDbEntity
  8
AM_VIS
100
AcDbLine
 10
789.4590512857949
 20
427.1867650172113
 30
0.0
 11
794.937332663992
 21
427.1867650172113
 31
0.0
  0
LINE
  5
3139
330
1F
100
AcDbEntity
  8
AM_VIS
100
AcDbLine
 10
794.937332663992
 20
427.1867650172113
 30
0.0
 11
795.4590512857951
 21
427.1867650172113
 31
0.0
  0
LINE
  5
313A
330
1F
100
AcDbEntity
  8
AM_VIS
100
AcDbLine
 10
789.4590512857949
 20
378.1867650172114
 30
0.0
 11
784.459051285795
 21
378.1867650172114
 31
0.0
  0
LINE
  5
313B
330
1F
100
AcDbEntity
  8
AM_VIS
100
AcDbLine
 10
789.4590512857949
 20
427.1867650172114
 30
0.0
 11
806.459051285795
 21
427.1867650172113
 31
0.0
  0
LINE
  5
313C
330
1F
100
AcDbEntity
  8
AM_VIS
100
AcDbLine
 10
794.937332663992
 20
427.1867650172114
 30
0.0
 11
795.459051285795
 21
427.1867650172114
 31
0.0
  0
LINE
  5
313D
330
1F
100
AcDbEntity
  8
AM_VIS
100
AcDbLine
 10
812.2058072787613
 20
378.1867650172114
 30
0.0
 11
823.459051285795
 21
378.1867650172114
 31
0.0
  0
LINE
  5
313E
330
1F
100
AcDbEntity
  8
AM_7
 48
7.0
100
AcDbLine
 10
794.0007737675141
 20
418.1867650172113
 30
0.0
 11
778.040558685298
 21
418.1867650172113
 31
0.0
  0
LINE
  5
313F
330
1F
100
AcDbEntity
  8
0
  6
HIDDEN
 62
     5
 48
10.0
100
AcDbLine
 10
788.9590604649229
 20
414.2514481464313
 30
0.0
 11
788.9590604649229
 21
422.1220818879914
 31
0.0
  0
LINE
  5
3140
330
1F
100
AcDbEntity
  8
0
  6
HIDDEN
 62
     5
 48
10.0
100
AcDbLine
 10
787.4590604649228
 20
413.5486707883996
 30
0.0
 11
787.4590604649228
 21
422.824859246023
 31
0.0
  0
LINE
  5
3141
330
1F
100
AcDbEntity
  8
0
  6
HIDDEN
 62
     5
 48
10.0
100
AcDbLine
 10
780.736609271355
 20
422.409216210779
 30
0.0
 11
780.736609271355
 21
413.9643138236437
 31
0.0
  0
LINE
  5
3142
330
1F
100
AcDbEntity
  8
0
  6
HIDDEN
 62
     5
 48
10.0
100
AcDbLine
 10
787.4626463227655
 20
413.5501560993506
 30
0.0
 11
788.1351673896797
 21
414.2226771662648
 31
0.0
  0
LINE
  5
3143
330
1F
100
AcDbEntity
  8
0
  6
HIDDEN
 62
     5
 48
10.0
100
AcDbLine
 10
780.736609271355
 20
413.9643138236435
 30
0.0
 11
788.9590604649229
 21
414.2514481464313
 31
0.0
  0
LINE
  5
3144
330
1F
100
AcDbEntity
  8
0
  6
HIDDEN
 62
     5
 48
10.0
100
AcDbLine
 10
779.9590604649229
 20
413.1867650172114
 30
0.0
 11
780.736609271355
 21
413.9643138236437
 31
0.0
  0
LINE
  5
3145
330
1F
100
AcDbEntity
  8
0
  6
HIDDEN
 62
     5
 48
10.0
100
AcDbLine
 10
780.062678900424
 20
413.2903834527128
 30
0.0
 11
787.4590604649228
 21
413.5486707883996
 31
0.0
  0
LINE
  5
3146
330
1F
100
AcDbEntity
  8
0
  6
HIDDEN
 62
     5
 48
10.0
100
AcDbLine
 10
788.9590604649229
 20
418.9367650172111
 30
0.0
 11
790.4590604649229
 21
418.9367650172111
 31
0.0
  0
LINE
  5
3147
330
1F
100
AcDbEntity
  8
0
  6
HIDDEN
 62
     5
 48
10.0
100
AcDbLine
 10
788.9590604649229
 20
417.4367650172113
 30
0.0
 11
790.4590604649229
 21
417.4367650172111
 31
0.0
  0
LINE
  5
3148
330
1F
100
AcDbEntity
  8
0
  6
HIDDEN
 62
     5
 48
10.0
100
AcDbLine
 10
787.4626463227652
 20
422.823373935072
 30
0.0
 11
788.1351673896795
 21
422.1508528681578
 31
0.0
  0
LINE
  5
3149
330
1F
100
AcDbEntity
  8
0
  6
HIDDEN
 62
     5
 48
10.0
100
AcDbLine
 10
780.736609271355
 20
422.409216210779
 30
0.0
 11
788.9590604649229
 21
422.1220818879914
 31
0.0
  0
LINE
  5
314A
330
1F
100
AcDbEntity
  8
0
  6
HIDDEN
 62
     5
 48
10.0
100
AcDbLine
 10
779.9590604649229
 20
423.1867650172113
 30
0.0
 11
780.736609271355
 21
422.409216210779
 31
0.0
  0
LINE
  5
314B
330
1F
100
AcDbEntity
  8
0
  6
HIDDEN
 62
     5
 48
10.0
100
AcDbLine
 10
780.062678900424
 20
423.0831465817099
 30
0.0
 11
787.4590604649228
 21
422.824859246023
 31
0.0
  0
LINE
  5
314C
330
1F
100
AcDbEntity
  8
AM_7
 48
7.0
100
AcDbLine
 10
794.0007737675141
 20
387.1867650172114
 30
0.0
 11
778.040558685298
 21
387.1867650172114
 31
0.0
  0
LINE
  5
314D
330
1F
100
AcDbEntity
  8
0
  6
HIDDEN
 62
     5
 48
10.0
100
AcDbLine
 10
787.4626463227652
 20
382.5501560993507
 30
0.0
 11
788.1351673896795
 21
383.2226771662649
 31
0.0
  0
LINE
  5
314E
330
1F
100
AcDbEntity
  8
0
  6
HIDDEN
 62
     5
 48
10.0
100
AcDbLine
 10
787.4590604649228
 20
391.8248592460231
 30
0.0
 11
787.4590604649228
 21
382.5486707883996
 31
0.0
  0
LINE
  5
314F
330
1F
100
AcDbEntity
  8
0
  6
HIDDEN
 62
     5
 48
10.0
100
AcDbLine
 10
780.736609271355
 20
382.9643138236438
 30
0.0
 11
780.736609271355
 21
391.409216210779
 31
0.0
  0
LINE
  5
3150
330
1F
100
AcDbEntity
  8
0
  6
HIDDEN
 62
     5
 48
10.0
100
AcDbLine
 10
780.736609271355
 20
382.9643138236438
 30
0.0
 11
788.9590604649229
 21
383.2514481464313
 31
0.0
  0
LINE
  5
3151
330
1F
100
AcDbEntity
  8
0
  6
HIDDEN
 62
     5
 48
10.0
100
AcDbLine
 10
779.9590604649229
 20
382.1867650172114
 30
0.0
 11
780.736609271355
 21
382.9643138236438
 31
0.0
  0
LINE
  5
3152
330
1F
100
AcDbEntity
  8
0
  6
HIDDEN
 62
     5
 48
10.0
100
AcDbLine
 10
780.062678900424
 20
382.2903834527128
 30
0.0
 11
787.4590604649228
 21
382.5486707883996
 31
0.0
  0
LINE
  5
3153
330
1F
100
AcDbEntity
  8
0
  6
HIDDEN
 62
     5
 48
10.0
100
AcDbLine
 10
787.4626463227655
 20
391.8233739350721
 30
0.0
 11
788.1351673896797
 21
391.1508528681579
 31
0.0
  0
LINE
  5
3154
330
1F
100
AcDbEntity
  8
0
  6
HIDDEN
 62
     5
 48
10.0
100
AcDbLine
 10
780.736609271355
 20
391.4092162107792
 30
0.0
 11
788.9590604649229
 21
391.1220818879915
 31
0.0
  0
LINE
  5
3155
330
1F
100
AcDbEntity
  8
0
  6
HIDDEN
 62
     5
 48
10.0
100
AcDbLine
 10
779.9590604649229
 20
392.1867650172114
 30
0.0
 11
780.736609271355
 21
391.409216210779
 31
0.0
  0
LINE
  5
3156
330
1F
100
AcDbEntity
  8
0
  6
HIDDEN
 62
     5
 48
10.0
100
AcDbLine
 10
780.0626789004241
 20
392.08314658171
 30
0.0
 11
787.4590604649228
 21
391.8248592460231
 31
0.0
  0
LINE
  5
3157
330
1F
100
AcDbEntity
  8
0
  6
HIDDEN
 62
     5
 48
10.0
100
AcDbLine
 10
788.9590604649229
 20
387.9367650172114
 30
0.0
 11
790.459060464923
 21
387.9367650172116
 31
0.0
  0
LINE
  5
3158
330
1F
100
AcDbEntity
  8
0
  6
HIDDEN
 62
     5
 48
10.0
100
AcDbLine
 10
788.9590604649229
 20
386.4367650172116
 30
0.0
 11
790.4590604649229
 21
386.4367650172116
 31
0.0
  0
LINE
  5
3159
330
1F
100
AcDbEntity
  8
0
  6
HIDDEN
 62
     5
 48
10.0
100
AcDbLine
 10
788.9590604649229
 20
391.1220818879915
 30
0.0
 11
788.9590604649229
 21
383.2514481464313
 31
0.0
  0
LINE
  5
315A
330
1F
100
AcDbEntity
  8
AM_VIS
100
AcDbLine
 10
795.4590512857951
 20
427.1867650172113
 30
0.0
 11
795.4590512857951
 21
429.2367650172114
 31
0.0
  0
LINE
  5
315B
330
1F
100
AcDbEntity
  8
AM_VIS
100
AcDbLine
 10
817.459051285795
 20
427.1867650172113
 30
0.0
 11
817.459051285795
 21
429.2367650172114
 31
0.0
  0
LINE
  5
315C
330
1F
100
AcDbEntity
  8
AM_VIS
100
AcDbLine
 10
826.1122952928287
 20
427.1867650172113
 30
0.0
 11
814.859051285795
 21
427.1867650172113
 31
0.0
  0
LINE
  5
315D
330
1F
100
AcDbEntity
  8
AM_VIS
100
AcDbLine
 10
806.459051285795
 20
430.4867650172114
 30
0.0
 11
796.4590512857951
 21
430.4867650172114
 31
0.0
  0
ARC
  5
315E
330
1F
100
AcDbEntity
  8
AM_VIS
100
AcDbCircle
 10
796.4590512857951
 20
429.4867650172114
 30
0.0
 40
1.0
100
AcDbArc
 50
90.0
 51
180.0
  0
LINE
  5
315F
330
1F
100
AcDbEntity
  8
AM_VIS
100
AcDbLine
 10
795.4590512857951
 20
427.1867650172113
 30
0.0
 11
795.4590512857951
 21
429.4867650172114
 31
0.0
  0
LINE
  5
3160
330
1F
100
AcDbEntity
  8
AM_VIS
100
AcDbLine
 10
814.859051285795
 20
427.1867650172113
 30
0.0
 11
807.5590512857949
 21
427.1867650172113
 31
0.0
  0
LINE
  5
3161
330
1F
100
AcDbEntity
  8
AM_VIS
100
AcDbLine
 10
807.5590512857949
 20
427.1867650172113
 30
0.0
 11
806.459051285795
 21
427.1867650172113
 31
0.0
  0
ARC
  5
3162
330
1F
100
AcDbEntity
  8
AM_VIS
100
AcDbCircle
 10
816.4590512857952
 20
429.4867650172114
 30
0.0
 40
1.0
100
AcDbArc
 50
0.0
 51
90.0
  0
LINE
  5
3163
330
1F
100
AcDbEntity
  8
AM_VIS
100
AcDbLine
 10
817.4590512857951
 20
427.1867650172113
 30
0.0
 11
817.4590512857951
 21
429.4867650172114
 31
0.0
  0
LINE
  5
3164
330
1F
100
AcDbEntity
  8
0
100
AcDbLine
 10
816.4590512857952
 20
430.4867650172114
 30
0.0
 11
806.459051285795
 21
430.4867650172114
 31
0.0
  0
LINE
  5
3165
102
{ACAD_REACTORS
330
396B
102
}
330
1F
100
AcDbEntity
  8
AM_VIS
100
AcDbLine
 10
871.1918752225225
 20
464.6634064350356
 30
0.0
 11
803.7529360041887
 21
479.2575654414974
 31
0.0
  0
LINE
  5
3166
330
1F
100
AcDbEntity
  8
AM_VIS
100
AcDbLine
 10
803.6471812287796
 20
478.7688774761471
 30
0.0
 11
871.0861204471134
 21
464.1747184696852
 31
0.0
  0
LINE
  5
3169
330
1F
100
AcDbEntity
  8
AM_7
 48
7.0
100
AcDbLine
 10
824.2384259060589
 20
474.3901376066431
 30
0.0
 11
823.272443417974
 21
434.4762205122859
 31
0.0
  0
LINE
  5
316A
330
1F
100
AcDbEntity
  8
AM_7
 48
7.0
100
AcDbLine
 10
799.7403665454641
 20
471.9407255117145
 30
0.0
 11
870.9482372800065
 21
456.5309489040633
 31
0.0
  0
LINE
  5
316B
330
1F
100
AcDbEntity
  8
AM_VIS
100
AcDbLine
 10
800.6461346340611
 20
459.4867650172113
 30
0.0
 11
812.2719679375279
 21
459.4867650172112
 31
0.0
  0
LINE
  5
316C
330
1F
100
AcDbEntity
  8
AM_VIS
100
AcDbLine
 10
814.4590512857945
 20
458.4867650172112
 30
0.0
 11
798.4590512857945
 21
458.4867650172113
 31
0.0
  0
CIRCLE
  5
316D
330
1F
100
AcDbEntity
  8
AM_VIS
100
AcDbCircle
 10
806.4590512857945
 20
470.4867650172111
 30
0.0
 40
3.0
  0
CIRCLE
  5
316E
330
1F
100
AcDbEntity
  8
AM_VIS
100
AcDbCircle
 10
806.4590512857945
 20
470.4867650172111
 30
0.0
 40
2.7
  0
LINE
  5
316F
330
1F
100
AcDbEntity
  8
AM_VIS
100
AcDbLine
 10
800.8706738126512
 20
468.3027235300446
 30
0.0
 11
799.985850001155
 21
464.2139932910489
 31
0.0
  0
LINE
  5
3170
330
1F
100
AcDbEntity
  8
AM_VIS
100
AcDbLine
 10
816.459051285795
 20
430.4867650172114
 30
0.0
 11
806.459051285795
 21
430.4867650172114
 31
0.0
  0
LINE
  5
3171
330
1F
100
AcDbEntity
  8
AM_VIS
100
AcDbLine
 10
814.859051285795
 20
427.1867650172113
 30
0.0
 11
807.5590512857949
 21
427.1867650172113
 31
0.0
  0
ARC
  5
3172
330
1F
100
AcDbEntity
  8
AM_VIS
100
AcDbCircle
 10
806.4590512857945
 20
470.4867650172113
 30
0.0
 40
5.549999999999999
100
AcDbArc
 50
140.3018858930783
 51
39.69811410692162
  0
ARC
  5
3173
330
1F
100
AcDbEntity
  8
AM_VIS
100
AcDbCircle
 10
806.4590512857945
 20
470.4867650172113
 30
0.0
 40
3.879999999999999
100
AcDbArc
 50
284.4775121859303
 51
336.6055603774072
  0
CIRCLE
  5
3174
330
1F
100
AcDbEntity
  8
AM_VIS
100
AcDbCircle
 10
806.4590512857947
 20
470.4867650172113
 30
0.0
 40
6.0
  0
ARC
  5
3175
330
1F
100
AcDbEntity
  8
AM_VIS
100
AcDbCircle
 10
806.4590512857947
 20
470.4867650172113
 30
0.0
 40
3.1
100
AcDbArc
 50
279.0009947485315
 51
346.4273914816643
  0
ARC
  5
3176
330
1F
100
AcDbEntity
  8
AM_VIS
100
AcDbCircle
 10
806.4590512857947
 20
470.4867650172113
 30
0.0
 40
3.1
100
AcDbArc
 50
35.89133956663482
 51
144.1086604333697
  0
LINE
  5
3177
330
1F
100
AcDbEntity
  8
AM_VIS
100
AcDbLine
 10
799.4590512857945
 20
459.4867650172113
 30
0.0
 11
798.4590512857945
 21
458.4867650172113
 31
0.0
  0
ARC
  5
3178
330
1F
100
AcDbEntity
  8
AM_VIS
100
AcDbCircle
 10
796.4590512857951
 20
429.4867650172114
 30
0.0
 40
1.0
100
AcDbArc
 50
90.0
 51
180.0
  0
LINE
  5
3179
330
1F
100
AcDbEntity
  8
AM_VIS
100
AcDbLine
 10
795.4590512857951
 20
427.1867650172114
 30
0.0
 11
795.4590512857951
 21
429.4867650172114
 31
0.0
  0
LINE
  5
317A
330
1F
100
AcDbEntity
  8
AM_VIS
100
AcDbLine
 10
798.4590512857945
 20
430.4867650172114
 30
0.0
 11
798.4590512857945
 21
458.4867650172113
 31
0.0
  0
ARC
  5
317B
330
1F
100
AcDbEntity
  8
AM_VIS
100
AcDbCircle
 10
803.4321694331282
 20
469.1772650172112
 30
0.0
 40
0.5819999999999998
100
AcDbArc
 50
90.0
 51
203.3944396225928
  0
ARC
  5
317C
330
1F
100
AcDbEntity
  8
AM_VIS
100
AcDbCircle
 10
806.4590512857947
 20
470.4867650172113
 30
0.0
 40
3.1
100
AcDbArc
 50
193.5726085183389
 51
260.9990052514616
  0
LINE
  5
317D
330
1F
100
AcDbEntity
  8
AM_VIS
100
AcDbLine
 10
799.4590512857945
 20
459.4867650172113
 30
0.0
 11
800.6461346340611
 21
459.4867650172112
 31
0.0
  0
LINE
  5
317E
330
1F
100
AcDbEntity
  8
AM_VIS
100
AcDbLine
 10
803.1584932634293
 20
478.8746322515562
 30
0.0
 11
802.2736694519331
 21
474.7859020125605
 31
0.0
  0
LINE
  5
317F
330
1F
100
AcDbEntity
  8
AM_VIS
100
AcDbLine
 10
802.9002621047126
 20
475.3173984709741
 30
0.0
 11
803.6471812287796
 21
478.7688774761471
 31
0.0
  0
LINE
  5
3180
330
1F
100
AcDbEntity
  8
AM_VIS
100
AcDbLine
 10
799.4590512857945
 20
459.4867650172112
 30
0.0
 11
799.4590512857945
 21
475.4867650172112
 31
0.0
  0
LINE
  5
3181
330
1F
100
AcDbEntity
  8
AM_VIS
100
AcDbLine
 10
803.7529360041887
 20
479.2575654414974
 30
0.0
 11
803.1584932634293
 21
478.8746322515562
 31
0.0
  0
LINE
  5
3182
102
{ACAD_REACTORS
330
3930
102
}
330
1F
100
AcDbEntity
  8
AM_VIS
100
AcDbLine
 10
803.7529360041887
 20
479.2575654414974
 30
0.0
 11
803.6471812287796
 21
478.7688774761471
 31
0.0
  0
LINE
  5
3183
102
{ACAD_REACTORS
330
3996
102
}
330
1F
100
AcDbEntity
  8
AM_VIS
100
AcDbLine
 10
803.1584932634293
 20
478.8746322515562
 30
0.0
 11
803.6471812287796
 21
478.7688774761471
 31
0.0
  0
LINE
  5
3184
330
1F
100
AcDbEntity
  8
AM_VIS
100
AcDbLine
 10
800.6461346340611
 20
459.4867650172112
 30
0.0
 11
800.6461346340611
 21
463.559530165832
 31
0.0
  0
ARC
  5
3185
330
1F
100
AcDbEntity
  8
AM_VIS
100
AcDbCircle
 10
806.4590512857945
 20
470.4867650172113
 30
0.0
 40
3.879999999999999
100
AcDbArc
 50
203.3944396225928
 51
255.5224878140697
  0
ARC
  5
3186
330
1F
100
AcDbEntity
  8
AM_VIS
100
AcDbCircle
 10
807.3320512857945
 20
467.1056505559722
 30
0.0
 40
0.3879999999999999
100
AcDbArc
 50
180.0
 51
284.4775121859263
  0
LINE
  5
3187
330
1F
100
AcDbEntity
  8
AM_VIS
100
AcDbLine
 10
806.9440512857946
 20
467.5262287482221
 30
0.0
 11
806.9440512857946
 21
467.1056505559722
 31
0.0
  0
LINE
  5
3188
330
1F
100
AcDbEntity
  8
AM_VIS
100
AcDbLine
 10
805.9740512857944
 20
467.1056505559722
 30
0.0
 11
805.9740512857946
 21
467.5262287482221
 31
0.0
  0
ARC
  5
3189
330
1F
100
AcDbEntity
  8
AM_VIS
100
AcDbCircle
 10
805.5860512857945
 20
467.1056505559722
 30
0.0
 40
0.3879999999999999
100
AcDbArc
 50
255.5224878140634
 51
0.0
  0
LINE
  5
318A
330
1F
100
AcDbEntity
  8
AM_VIS
100
AcDbLine
 10
803.5485970686663
 20
469.7592650172112
 30
0.0
 11
803.4321694331282
 21
469.7592650172112
 31
0.0
  0
LINE
  5
318B
330
1F
100
AcDbEntity
  8
AM_VIS
100
AcDbLine
 10
803.4371124453143
 20
473.8018291215625
 30
0.0
 11
803.9875097597114
 21
472.1872009862633
 31
0.0
  0
ARC
  5
318C
330
1F
100
AcDbEntity
  8
AM_VIS
100
AcDbCircle
 10
802.7485205401882
 20
473.5671006865679
 30
0.0
 40
0.7275000000000001
100
AcDbArc
 50
18.82330818208152
 51
140.3018858930712
  0
LINE
  5
318D
330
1F
100
AcDbEntity
  8
AM_VIS
100
AcDbLine
 10
813.4590512857945
 20
459.4867650172112
 30
0.0
 11
814.4590512857945
 21
458.4867650172112
 31
0.0
  0
LINE
  5
318E
330
1F
100
AcDbEntity
  8
AM_VIS
100
AcDbLine
 10
825.959051285795
 20
432.6867650172113
 30
0.0
 11
826.4590512857951
 21
433.1867650172113
 31
0.0
  0
LINE
  5
318F
330
1F
100
AcDbEntity
  8
AM_VIS
100
AcDbLine
 10
820.4590512857951
 20
433.1867650172113
 30
0.0
 11
820.9590512857952
 21
432.6867650172113
 31
0.0
  0
LINE
  5
3190
330
1F
100
AcDbEntity
  8
AM_VIS
100
AcDbLine
 10
827.959051285795
 20
433.1867650172113
 30
0.0
 11
828.4590512857951
 21
432.6867650172113
 31
0.0
  0
LINE
  5
3191
330
1F
100
AcDbEntity
  8
AM_VIS
100
AcDbLine
 10
818.4590512857951
 20
432.6867650172113
 30
0.0
 11
818.959051285795
 21
433.1867650172113
 31
0.0
  0
LINE
  5
3192
330
1F
100
AcDbEntity
  8
AM_VIS
100
AcDbLine
 10
818.4590512857951
 20
432.6867650172113
 30
0.0
 11
818.7090512857951
 21
433.1867650172113
 31
0.0
  0
LINE
  5
3193
330
1F
100
AcDbEntity
  8
AM_VIS
100
AcDbLine
 10
828.2090512857951
 20
433.1867650172113
 30
0.0
 11
828.4590512857951
 21
432.6867650172113
 31
0.0
  0
LINE
  5
3194
330
1F
100
AcDbEntity
  8
AM_VIS
100
AcDbLine
 10
818.4590512857951
 20
433.1867650172113
 30
0.0
 11
818.4590512857951
 21
432.6867650172113
 31
0.0
  0
LINE
  5
3195
330
1F
100
AcDbEntity
  8
AM_VIS
100
AcDbLine
 10
828.4590512857951
 20
432.6867650172113
 30
0.0
 11
828.4590512857951
 21
433.1867650172113
 31
0.0
  0
LINE
  5
3196
330
1F
100
AcDbEntity
  8
AM_VIS
100
AcDbLine
 10
820.9590512857952
 20
432.6867650172113
 30
0.0
 11
825.959051285795
 21
432.6867650172113
 31
0.0
  0
LINE
  5
3197
330
1F
100
AcDbEntity
  8
AM_VIS
100
AcDbLine
 10
825.959051285795
 20
427.6867650172113
 30
0.0
 11
820.9590512857952
 21
427.6867650172113
 31
0.0
  0
LINE
  5
3198
330
1F
100
AcDbEntity
  8
AM_VIS
100
AcDbLine
 10
826.1122952928287
 20
427.1867650172113
 30
0.0
 11
814.859051285795
 21
427.1867650172113
 31
0.0
  0
ARC
  5
3199
330
1F
100
AcDbEntity
  8
AM_VIS
100
AcDbCircle
 10
816.459051285795
 20
429.4867650172114
 30
0.0
 40
1.0
100
AcDbArc
 50
0.0
 51
90.0
  0
LINE
  5
319A
330
1F
100
AcDbEntity
  8
AM_VIS
100
AcDbLine
 10
814.4590512857945
 20
430.4867650172115
 30
0.0
 11
814.4590512857947
 21
458.4867650172113
 31
0.0
  0
LINE
  5
319B
330
1F
100
AcDbEntity
  8
AM_VIS
100
AcDbLine
 10
820.9590512857952
 20
427.6867650172113
 30
0.0
 11
820.9590512857952
 21
432.6867650172113
 31
0.0
  0
LINE
  5
319C
330
1F
100
AcDbEntity
  8
AM_VIS
100
AcDbLine
 10
820.9590512857952
 20
427.6867650172113
 30
0.0
 11
820.4590512857951
 21
427.1867650172113
 31
0.0
  0
LINE
  5
319D
330
1F
100
AcDbEntity
  8
AM_VIS
100
AcDbLine
 10
818.4590512857951
 20
432.6867650172113
 30
0.0
 11
818.4590512857951
 21
427.6867650172113
 31
0.0
  0
LINE
  5
319E
330
1F
100
AcDbEntity
  8
AM_VIS
100
AcDbLine
 10
818.959051285795
 20
427.1867650172113
 30
0.0
 11
818.4590512857951
 21
427.6867650172113
 31
0.0
  0
LINE
  5
319F
330
1F
100
AcDbEntity
  8
AM_VIS
100
AcDbLine
 10
817.459051285795
 20
427.1867650172113
 30
0.0
 11
817.459051285795
 21
429.4867650172114
 31
0.0
  0
LINE
  5
31A0
330
1F
100
AcDbEntity
  8
AM_VIS
100
AcDbLine
 10
825.959051285795
 20
432.6867650172113
 30
0.0
 11
825.959051285795
 21
427.6867650172113
 31
0.0
  0
LINE
  5
31A1
330
1F
100
AcDbEntity
  8
AM_VIS
100
AcDbLine
 10
826.4590512857951
 20
427.1867650172113
 30
0.0
 11
825.959051285795
 21
427.6867650172113
 31
0.0
  0
LINE
  5
31A2
330
1F
100
AcDbEntity
  8
AM_VIS
100
AcDbLine
 10
828.4590512857951
 20
427.6867650172113
 30
0.0
 11
827.959051285795
 21
427.1867650172113
 31
0.0
  0
LINE
  5
31A3
330
1F
100
AcDbEntity
  8
AM_VIS
100
AcDbLine
 10
828.4590512857951
 20
427.6867650172113
 30
0.0
 11
828.4590512857951
 21
432.6867650172113
 31
0.0
  0
LINE
  5
31A4
330
1F
100
AcDbEntity
  8
AM_VIS
100
AcDbLine
 10
828.4590512857951
 20
427.1867650172113
 30
0.0
 11
826.1122952928287
 21
427.1867650172113
 31
0.0
  0
CIRCLE
  5
31A5
330
1F
100
AcDbEntity
  8
AM_VIS
100
AcDbCircle
 10
823.4590512857948
 20
442.1867650172112
 30
0.0
 40
3.0
  0
CIRCLE
  5
31A6
330
1F
100
AcDbEntity
  8
AM_VIS
100
AcDbCircle
 10
823.4590512857948
 20
442.1867650172112
 30
0.0
 40
2.7
  0
LINE
  5
31A7
330
1F
100
AcDbEntity
  8
AM_VIS
100
AcDbLine
 10
826.1632147423931
 20
433.1867650172113
 30
0.0
 11
820.7548878291969
 21
433.1867650172113
 31
0.0
  0
LINE
  5
31A8
330
1F
100
AcDbEntity
  8
AM_VIS
100
AcDbLine
 10
826.149051285795
 20
436.4867650172114
 30
0.0
 11
820.7690512857951
 21
436.4867650172114
 31
0.0
  0
ARC
  5
31A9
330
1F
100
AcDbEntity
  8
AM_VIS
100
AcDbCircle
 10
823.4590512857948
 20
442.1867650172114
 30
0.0
 40
5.549999999999999
100
AcDbArc
 50
140.3018858930783
 51
39.69811410692162
  0
ARC
  5
31AA
330
1F
100
AcDbEntity
  8
AM_VIS
100
AcDbCircle
 10
823.4590512857948
 20
442.1867650172114
 30
0.0
 40
3.879999999999999
100
AcDbArc
 50
284.4775121859303
 51
336.6055603774072
  0
ARC
  5
31AB
330
1F
100
AcDbEntity
  8
AM_VIS
100
AcDbCircle
 10
823.4590512857948
 20
442.1867650172114
 30
0.0
 40
6.0
100
AcDbArc
 50
0.3470473112651714
 51
251.8051276612315
  0
ARC
  5
31AC
330
1F
100
AcDbEntity
  8
AM_VIS
100
AcDbCircle
 10
823.4590512857948
 20
442.1867650172114
 30
0.0
 40
3.1
100
AcDbArc
 50
35.89133956663218
 51
144.1086604333651
  0
ARC
  5
31AD
330
1F
100
AcDbEntity
  8
AM_VIS
100
AcDbCircle
 10
823.4590512857948
 20
442.1867650172114
 30
0.0
 40
3.1
100
AcDbArc
 50
279.0009947485348
 51
346.4273914816611
  0
LINE
  5
31B0
330
1F
100
AcDbEntity
  8
AM_VIS
100
AcDbLine
 10
820.4371124453146
 20
445.5018291215625
 30
0.0
 11
820.9875097597118
 21
443.8872009862635
 31
0.0
  0
ARC
  5
31B1
330
1F
100
AcDbEntity
  8
AM_VIS
100
AcDbCircle
 10
809.4859331384608
 20
469.1772650172112
 30
0.0
 40
0.5819999999999998
100
AcDbArc
 50
336.6055603774115
 51
90.0
  0
LINE
  5
31B2
330
1F
100
AcDbEntity
  8
AM_VIS
100
AcDbLine
 10
813.4590512857945
 20
459.4867650172112
 30
0.0
 11
813.4590512857945
 21
460.7867442187315
 31
0.0
  0
LINE
  5
31B3
330
1F
100
AcDbEntity
  8
AM_VIS
100
AcDbLine
 10
812.2719679375281
 20
461.0436356132188
 30
0.0
 11
812.2719679375281
 21
459.4867650172112
 31
0.0
  0
LINE
  5
31B4
330
1F
100
AcDbEntity
  8
AM_VIS
100
AcDbLine
 10
812.2719679375279
 20
459.4867650172112
 30
0.0
 11
813.4590512857945
 21
459.4867650172112
 31
0.0
  0
LINE
  5
31B5
330
1F
100
AcDbEntity
  8
AM_VIS
100
AcDbLine
 10
799.985850001155
 20
464.2139932910489
 30
0.0
 11
800.368783191096
 21
463.6195505502895
 31
0.0
  0
LINE
  5
31B6
330
1F
100
AcDbEntity
  8
AM_VIS
100
AcDbLine
 10
800.368783191096
 20
463.6195505502895
 30
0.0
 11
800.4745379665052
 21
464.1082385156398
 31
0.0
  0
LINE
  5
31B8
330
1F
100
AcDbEntity
  8
AM_VIS
100
AcDbLine
 10
800.4745379665052
 20
464.1082385156398
 30
0.0
 11
801.2214570905721
 21
467.5597175208127
 31
0.0
  0
LINE
  5
31B9
330
1F
100
AcDbEntity
  8
AM_VIS
100
AcDbLine
 10
818.4590512857951
 20
438.8701402268556
 30
0.0
 11
818.4590512857951
 21
435.0301688417472
 31
0.0
  0
ARC
  5
31BA
330
1F
100
AcDbEntity
  8
AM_VIS
100
AcDbCircle
 10
823.4590512857948
 20
442.1867650172114
 30
0.0
 40
3.879999999999999
100
AcDbArc
 50
203.3944396225928
 51
255.5224878140697
  0
ARC
  5
31BB
330
1F
100
AcDbEntity
  8
AM_VIS
100
AcDbCircle
 10
822.5860512857948
 20
438.8056505559722
 30
0.0
 40
0.3879999999999999
100
AcDbArc
 50
255.5224878140737
 51
0.0
  0
ARC
  5
31BC
330
1F
100
AcDbEntity
  8
AM_VIS
100
AcDbCircle
 10
824.3320512857948
 20
438.8056505559722
 30
0.0
 40
0.3879999999999999
100
AcDbArc
 50
180.0
 51
284.4775121859366
  0
LINE
  5
31BD
330
1F
100
AcDbEntity
  8
AM_VIS
100
AcDbLine
 10
820.7548878291969
 20
433.1867650172113
 30
0.0
 11
820.4590512857949
 21
433.1867650172113
 31
0.0
  0
LINE
  5
31BE
330
1F
100
AcDbEntity
  8
AM_VIS
100
AcDbLine
 10
820.4590512857951
 20
433.1867650172113
 30
0.0
 11
818.959051285795
 21
433.1867650172113
 31
0.0
  0
LINE
  5
31BF
330
1F
100
AcDbEntity
  8
AM_VIS
100
AcDbLine
 10
818.959051285795
 20
435.7371517162347
 30
0.0
 11
818.959051285795
 21
438.2181380506143
 31
0.0
  0
LINE
  5
31C0
330
1F
100
AcDbEntity
  8
AM_VIS
100
AcDbLine
 10
818.209051285795
 20
433.1867650172113
 30
0.0
 11
818.209051285795
 21
433.9267650172114
 31
0.0
  0
ARC
  5
31C1
330
1F
100
AcDbEntity
  8
AM_VIS
100
AcDbCircle
 10
820.7690512857951
 20
433.9267650172114
 30
0.0
 40
2.56
100
AcDbArc
 50
90.0
 51
180.0
  0
LINE
  5
31C2
330
1F
100
AcDbEntity
  8
AM_VIS
100
AcDbLine
 10
818.959051285795
 20
433.1867650172113
 30
0.0
 11
818.209051285795
 21
433.1867650172113
 31
0.0
  0
ARC
  5
31C3
330
1F
100
AcDbEntity
  8
AM_VIS
100
AcDbCircle
 10
823.4590512857948
 20
442.1867650172114
 30
0.0
 40
3.1
100
AcDbArc
 50
193.5726085183389
 51
260.9990052514685
  0
LINE
  5
31C4
330
1F
100
AcDbEntity
  8
AM_VIS
100
AcDbLine
 10
820.5485970686664
 20
441.4592650172114
 30
0.0
 11
820.4321694331287
 21
441.4592650172114
 31
0.0
  0
ARC
  5
31C5
330
1F
100
AcDbEntity
  8
AM_VIS
100
AcDbCircle
 10
820.4321694331287
 20
440.8772650172114
 30
0.0
 40
0.5819999999999998
100
AcDbArc
 50
90.0
 51
203.3944396225885
  0
LINE
  5
31C6
330
1F
100
AcDbEntity
  8
AM_VIS
100
AcDbLine
 10
822.9740512857949
 20
438.8056505559722
 30
0.0
 11
822.9740512857949
 21
439.2262287482221
 31
0.0
  0
LINE
  5
31C7
330
1F
100
AcDbEntity
  8
AM_VIS
100
AcDbLine
 10
823.9440512857949
 20
439.2262287482221
 30
0.0
 11
823.9440512857949
 21
438.8056505559722
 31
0.0
  0
ARC
  5
31C8
330
1F
100
AcDbEntity
  8
AM_VIS
100
AcDbCircle
 10
810.1695820314006
 20
473.5671006865679
 30
0.0
 40
0.7275000000000001
100
AcDbArc
 50
39.69811410692872
 51
161.1766918179154
  0
LINE
  5
31C9
330
1F
100
AcDbEntity
  8
AM_VIS
100
AcDbLine
 10
808.9305928118776
 20
472.1872009862635
 30
0.0
 11
809.4809901262745
 21
473.8018291215624
 31
0.0
  0
LINE
  5
31CA
330
1F
100
AcDbEntity
  8
AM_VIS
100
AcDbLine
 10
809.4859331384608
 20
469.7592650172113
 30
0.0
 11
809.3695055029229
 21
469.7592650172113
 31
0.0
  0
ARC
  5
31CB
330
1F
100
AcDbEntity
  8
AM_VIS
100
AcDbCircle
 10
819.7485205401886
 20
445.267100686568
 30
0.0
 40
0.7275000000000001
100
AcDbArc
 50
18.82330818208152
 51
140.3018858930712
  0
LINE
  5
31CC
330
1F
100
AcDbEntity
  8
AM_VIS
100
AcDbLine
 10
825.9305928118779
 20
443.8872009862635
 30
0.0
 11
826.4809901262751
 21
445.5018291215625
 31
0.0
  0
LINE
  5
31CD
330
1F
100
AcDbEntity
  8
AM_VIS
100
AcDbLine
 10
828.4590512857951
 20
435.0301688417472
 30
0.0
 11
828.4590512857951
 21
438.8701402268562
 31
0.0
  0
ARC
  5
31CE
330
1F
100
AcDbEntity
  8
AM_VIS
100
AcDbCircle
 10
823.4590512857948
 20
442.1867650172114
 30
0.0
 40
6.0
100
AcDbArc
 50
288.1948723387655
 51
0.3470473112651714
  0
LINE
  5
31CF
330
1F
100
AcDbEntity
  8
AM_VIS
100
AcDbLine
 10
827.959051285795
 20
433.1867650172113
 30
0.0
 11
826.4590512857951
 21
433.1867650172113
 31
0.0
  0
LINE
  5
31D0
330
1F
100
AcDbEntity
  8
AM_VIS
100
AcDbLine
 10
826.4590512857949
 20
433.1867650172113
 30
0.0
 11
826.1632147423931
 21
433.1867650172113
 31
0.0
  0
LINE
  5
31D1
330
1F
100
AcDbEntity
  8
AM_VIS
100
AcDbLine
 10
827.959051285795
 20
438.2181380506147
 30
0.0
 11
827.959051285795
 21
435.7371517162347
 31
0.0
  0
LINE
  5
31D2
330
1F
100
AcDbEntity
  8
AM_VIS
100
AcDbLine
 10
828.709051285795
 20
433.1867650172113
 30
0.0
 11
828.709051285795
 21
433.9267650172114
 31
0.0
  0
ARC
  5
31D3
330
1F
100
AcDbEntity
  8
AM_VIS
100
AcDbCircle
 10
826.149051285795
 20
433.9267650172114
 30
0.0
 40
2.56
100
AcDbArc
 50
0.0
 51
90.0
  0
LINE
  5
31D4
330
1F
100
AcDbEntity
  8
AM_VIS
100
AcDbLine
 10
828.709051285795
 20
433.1867650172113
 30
0.0
 11
827.959051285795
 21
433.1867650172113
 31
0.0
  0
ARC
  5
31D5
330
1F
100
AcDbEntity
  8
AM_VIS
100
AcDbCircle
 10
826.4859331384609
 20
440.8772650172114
 30
0.0
 40
0.5819999999999998
100
AcDbArc
 50
336.6055603774072
 51
90.0
  0
LINE
  5
31D6
330
1F
100
AcDbEntity
  8
AM_VIS
100
AcDbLine
 10
826.4859331384609
 20
441.4592650172114
 30
0.0
 11
826.3695055029232
 21
441.4592650172114
 31
0.0
  0
ARC
  5
31DE
330
1F
100
AcDbEntity
  8
AM_VIS
100
AcDbCircle
 10
827.1695820314011
 20
445.267100686568
 30
0.0
 40
0.7275000000000001
100
AcDbArc
 50
39.69811410692872
 51
161.1766918179185
  0
LINE
  5
31DF
330
1F
100
AcDbEntity
  8
AM_VIS
100
AcDbLine
 10
800.368783191096
 20
463.6195505502895
 30
0.0
 11
818.8793492063799
 21
459.613761804828
 31
0.0
  0
LINE
  5
31E0
330
1F
100
AcDbEntity
  8
AM_VIS
100
AcDbLine
 10
867.9134771848389
 20
449.514079509178
 30
0.0
 11
828.8424777168623
 21
457.9692596378418
 31
0.0
  0
CIRCLE
  5
31E1
330
1F
100
AcDbEntity
  8
AM_VIS
100
AcDbCircle
 10
824.051818038238
 20
466.679593101718
 30
0.0
 40
3.0
  0
CIRCLE
  5
31E2
330
1F
100
AcDbEntity
  8
AM_VIS
100
AcDbCircle
 10
824.051818038238
 20
466.679593101718
 30
0.0
 40
2.7
  0
ARC
  5
31E3
330
1F
100
AcDbEntity
  8
AM_VIS
100
AcDbCircle
 10
824.051818038238
 20
466.6795931017181
 30
0.0
 40
5.549999999999999
100
AcDbArc
 50
146.3782411249841
 51
45.77446933883571
  0
ARC
  5
31E4
330
1F
100
AcDbEntity
  8
AM_VIS
100
AcDbCircle
 10
824.051818038238
 20
466.6795931017181
 30
0.0
 40
3.879999999999999
100
AcDbArc
 50
209.4707948545003
 51
261.5988430459777
  0
CIRCLE
  5
31E5
330
1F
100
AcDbEntity
  8
AM_VIS
100
AcDbCircle
 10
824.051818038238
 20
466.6795931017182
 30
0.0
 40
6.0
  0
ARC
  5
31E6
330
1F
100
AcDbEntity
  8
AM_VIS
100
AcDbCircle
 10
824.051818038238
 20
466.6795931017182
 30
0.0
 40
3.1
100
AcDbArc
 50
199.6489637502482
 51
267.0753604833768
  0
ARC
  5
31E7
330
1F
100
AcDbEntity
  8
AM_VIS
100
AcDbCircle
 10
824.051818038238
 20
466.6795931017182
 30
0.0
 40
3.1
100
AcDbArc
 50
41.96769479853936
 51
150.1850156652758
  0
ARC
  5
31E8
330
1F
100
AcDbEntity
  8
AM_VIS
100
AcDbCircle
 10
821.1805575244481
 20
465.0570435456335
 30
0.0
 40
0.5819999999999998
100
AcDbArc
 50
96.07635523190799
 51
209.4707948545003
  0
LINE
  5
31EA
330
1F
100
AcDbEntity
  8
AM_VIS
100
AcDbLine
 10
820.6959454522072
 20
469.6561487551346
 30
0.0
 11
821.4141648705151
 21
468.1088536681652
 31
0.0
  0
ARC
  5
31EB
330
1F
100
AcDbEntity
  8
AM_VIS
100
AcDbCircle
 10
820.0360691324307
 20
469.3498490773705
 30
0.0
 40
0.7275000000000001
100
AcDbArc
 50
24.89966341399345
 51
146.3782411249814
  0
ARC
  5
31EC
330
1F
100
AcDbEntity
  8
AM_VIS
100
AcDbCircle
 10
827.2003094443338
 20
465.6978569529786
 30
0.0
 40
0.5819999999999998
100
AcDbArc
 50
342.6819156093184
 51
96.07635523190799
  0
ARC
  5
31ED
330
1F
100
AcDbEntity
  8
AM_VIS
100
AcDbCircle
 10
824.051818038238
 20
466.6795931017182
 30
0.0
 40
3.1
100
AcDbArc
 50
285.0773499804451
 51
352.5037467135711
  0
ARC
  5
31EE
330
1F
100
AcDbEntity
  8
AM_VIS
100
AcDbCircle
 10
824.051818038238
 20
466.6795931017181
 30
0.0
 40
3.879999999999999
100
AcDbArc
 50
290.5538674178383
 51
342.6819156093143
  0
ARC
  5
31EF
330
1F
100
AcDbEntity
  8
AM_VIS
100
AcDbCircle
 10
825.2778168161642
 20
463.4098850113034
 30
0.0
 40
0.3879999999999999
100
AcDbArc
 50
186.076355231908
 51
290.553867417831
  0
LINE
  5
31F0
330
1F
100
AcDbEntity
  8
AM_VIS
100
AcDbLine
 10
824.8474769456054
 20
463.7870290310142
 30
0.0
 11
824.8919967117458
 21
463.3688137679988
 31
0.0
  0
LINE
  5
31F1
330
1F
100
AcDbEntity
  8
AM_VIS
100
AcDbLine
 10
823.9274464506998
 20
463.2661356597374
 30
0.0
 11
823.8829266845593
 21
463.6843509227528
 31
0.0
  0
ARC
  5
31F2
330
1F
100
AcDbEntity
  8
AM_VIS
100
AcDbCircle
 10
823.5416263462814
 20
463.2250644164328
 30
0.0
 40
0.3879999999999999
100
AcDbArc
 50
261.5988430459712
 51
6.076355231907989
  0
LINE
  5
31F3
330
1F
100
AcDbEntity
  8
AM_VIS
100
AcDbLine
 10
826.3294762605553
 20
468.6320973967993
 30
0.0
 11
826.7058668902487
 21
470.2959156900255
 31
0.0
  0
ARC
  5
31F4
330
1F
100
AcDbEntity
  8
AM_VIS
100
AcDbCircle
 10
827.4154369660259
 20
470.1353960415033
 30
0.0
 40
0.7275000000000001
100
AcDbArc
 50
45.77446933884032
 51
167.2530470498255
  0
LINE
  5
31F6
330
1F
100
AcDbEntity
  8
AM_VIS
100
AcDbLine
 10
868.4021651501893
 20
449.4083247337688
 30
0.0
 11
871.5748084124633
 21
464.0689636942761
 31
0.0
  0
LINE
  5
31F7
330
1F
100
AcDbEntity
  8
AM_VIS
100
AcDbLine
 10
871.0861204471132
 20
464.1747184696852
 30
0.0
 11
867.9134771848389
 21
449.514079509178
 31
0.0
  0
LINE
  5
31F8
330
1F
100
AcDbEntity
  8
AM_VIS
100
AcDbLine
 10
871.0861204471132
 20
464.1747184696852
 30
0.0
 11
871.5748084124633
 21
464.0689636942761
 31
0.0
  0
LINE
  5
31F9
330
1F
100
AcDbEntity
  8
AM_VIS
100
AcDbLine
 10
871.0861204471132
 20
464.1747184696852
 30
0.0
 11
871.1918752225225
 21
464.6634064350356
 31
0.0
  0
LINE
  5
31FA
102
{ACAD_REACTORS
330
3996
102
}
330
1F
100
AcDbEntity
  8
AM_VIS
100
AcDbLine
 10
871.5748084124633
 20
464.0689636942761
 30
0.0
 11
871.1918752225225
 21
464.6634064350356
 31
0.0
  0
LINE
  5
31FB
330
1F
100
AcDbEntity
  8
AM_VIS
100
AcDbLine
 10
867.9134771848389
 20
449.514079509178
 30
0.0
 11
867.8077224094296
 21
449.0253915438277
 31
0.0
  0
LINE
  5
31FC
330
1F
100
AcDbEntity
  8
AM_VIS
100
AcDbLine
 10
867.9134771848389
 20
449.514079509178
 30
0.0
 11
868.4021651501893
 21
449.4083247337688
 31
0.0
  0
LINE
  5
31FD
102
{ACAD_REACTORS
330
3D46
102
}
330
1F
100
AcDbEntity
  8
AM_VIS
100
AcDbLine
 10
867.8077224094296
 20
449.0253915438277
 30
0.0
 11
868.4021651501893
 21
449.4083247337688
 31
0.0
  0
LINE
  5
31FE
330
1F
100
AcDbEntity
  8
AM_VIS
100
AcDbLine
 10
785.4590512857951
 20
327.2288243622004
 30
0.0
 11
785.9590512857951
 21
326.7788243622004
 31
0.0
  0
LINE
  5
31FF
330
1F
100
AcDbEntity
  8
AM_VIS
100
AcDbLine
 10
785.9590512857951
 20
326.7788243622004
 30
0.0
 11
788.0590512857951
 21
326.7788243622004
 31
0.0
  0
ARC
  5
3200
330
1F
100
AcDbEntity
  8
AM_VIS
100
AcDbCircle
 10
788.0590512857951
 20
328.4788243622005
 30
0.0
 40
1.7
100
AcDbArc
 50
270.0
 51
0.0
  0
LINE
  5
3201
330
1F
100
AcDbEntity
  8
AM_VIS
100
AcDbLine
 10
789.759051285795
 20
328.4788243622005
 30
0.0
 11
789.759051285795
 21
329.3788243622005
 31
0.0
  0
ARC
  5
3202
330
1F
100
AcDbEntity
  8
AM_VIS
100
AcDbCircle
 10
788.0590512857951
 20
329.3788243622005
 30
0.0
 40
1.7
100
AcDbArc
 50
0.0
 51
90.0
  0
LINE
  5
3203
330
1F
100
AcDbEntity
  8
AM_VIS
100
AcDbLine
 10
788.0590512857951
 20
331.0788243622005
 30
0.0
 11
785.9590512857951
 21
331.0788243622005
 31
0.0
  0
LINE
  5
3204
330
1F
100
AcDbEntity
  8
AM_VIS
100
AcDbLine
 10
785.9590512857951
 20
331.0788243622005
 30
0.0
 11
785.4701987430894
 21
330.6167386650725
 31
0.0
  0
LINE
  5
3205
330
1F
100
AcDbEntity
  8
AM_VIS
100
AcDbLine
 10
785.4701987430894
 20
330.6167386650725
 30
0.0
 11
784.459051285795
 21
330.6167386650725
 31
0.0
  0
LINE
  5
3206
330
1F
100
AcDbEntity
  8
AM_VIS
100
AcDbLine
 10
784.459051285795
 20
330.6167386650725
 30
0.0
 11
784.459051285795
 21
331.4288243622005
 31
0.0
  0
LINE
  5
3207
330
1F
100
AcDbEntity
  8
AM_VIS
100
AcDbLine
 10
784.459051285795
 20
331.4288243622005
 30
0.0
 11
780.1367424817875
 21
331.9141818141962
 31
0.0
  0
ARC
  5
3208
330
1F
100
AcDbEntity
  8
AM_VIS
100
AcDbCircle
 10
780.1590604649228
 20
332.1129326824428
 30
0.0
 40
0.2
100
AcDbArc
 50
180.0
 51
263.5930246393696
  0
LINE
  5
3209
102
{ACAD_REACTORS
330
328A
102
}
330
1F
100
AcDbEntity
  8
AM_VIS
100
AcDbLine
 10
779.9590604649229
 20
332.1129326824428
 30
0.0
 11
779.9590604649229
 21
345.7448795298164
 31
0.0
  0
ARC
  5
320A
330
1F
100
AcDbEntity
  8
AM_VIS
100
AcDbCircle
 10
780.1590604649228
 20
345.7448795298164
 30
0.0
 40
0.2
100
AcDbArc
 50
96.40483516922191
 51
180.0
  0
LINE
  5
320B
330
1F
100
AcDbEntity
  8
AM_VIS
100
AcDbLine
 10
780.136749905821
 20
345.9436312315765
 30
0.0
 11
784.459051285795
 21
346.4288243622004
 31
0.0
  0
LINE
  5
320C
330
1F
100
AcDbEntity
  8
AM_VIS
100
AcDbLine
 10
784.459051285795
 20
346.4288243622005
 30
0.0
 11
784.459051285795
 21
347.2288243622005
 31
0.0
  0
LINE
  5
320D
330
1F
100
AcDbEntity
  8
AM_VIS
100
AcDbLine
 10
784.459051285795
 20
347.2288243622005
 30
0.0
 11
785.4590512857951
 21
347.2288243622005
 31
0.0
  0
LINE
  5
320E
330
1F
100
AcDbEntity
  8
AM_VIS
100
AcDbLine
 10
785.4590512857951
 20
347.2288243622005
 30
0.0
 11
785.9590512857951
 21
346.7788243622004
 31
0.0
  0
LINE
  5
320F
330
1F
100
AcDbEntity
  8
AM_VIS
100
AcDbLine
 10
785.9590512857951
 20
346.7788243622004
 30
0.0
 11
788.0590512857951
 21
346.7788243622004
 31
0.0
  0
ARC
  5
3210
330
1F
100
AcDbEntity
  8
AM_VIS
100
AcDbCircle
 10
788.0590512857951
 20
348.4788243622004
 30
0.0
 40
1.7
100
AcDbArc
 50
270.0
 51
0.0
  0
LINE
  5
3211
330
1F
100
AcDbEntity
  8
AM_VIS
100
AcDbLine
 10
789.759051285795
 20
348.4788243622004
 30
0.0
 11
789.759051285795
 21
349.3788243622006
 31
0.0
  0
ARC
  5
3212
330
1F
100
AcDbEntity
  8
AM_VIS
100
AcDbCircle
 10
788.0590512857951
 20
349.3788243622006
 30
0.0
 40
1.7
100
AcDbArc
 50
0.0
 51
90.0
  0
LINE
  5
3213
330
1F
100
AcDbEntity
  8
AM_VIS
100
AcDbLine
 10
788.0590512857951
 20
351.0788243622005
 30
0.0
 11
785.9590512857951
 21
351.0788243622005
 31
0.0
  0
LINE
  5
3214
330
1F
100
AcDbEntity
  8
AM_VIS
100
AcDbLine
 10
785.9590512857951
 20
351.0788243622005
 30
0.0
 11
785.4701987430894
 21
350.6167386650726
 31
0.0
  0
LINE
  5
3215
330
1F
100
AcDbEntity
  8
AM_VIS
100
AcDbLine
 10
785.4701987430894
 20
350.6167386650726
 30
0.0
 11
784.459051285795
 21
350.6167386650726
 31
0.0
  0
LINE
  5
3216
330
1F
100
AcDbEntity
  8
AM_VIS
100
AcDbLine
 10
784.459051285795
 20
350.6167386650726
 30
0.0
 11
784.459051285795
 21
358.7105636715695
 31
0.0
  0
LINE
  5
3217
330
1F
100
AcDbEntity
  8
AM_VIS
100
AcDbLine
 10
784.459051285795
 20
358.7105636715695
 30
0.0
 11
786.8058072787614
 21
360.9288243622005
 31
0.0
  0
LINE
  5
3218
330
1F
100
AcDbEntity
  8
AM_VIS
100
AcDbLine
 10
786.8058072787614
 20
360.9288243622005
 30
0.0
 11
798.0590512857951
 21
360.9288243622005
 31
0.0
  0
LINE
  5
3219
330
1F
100
AcDbEntity
  8
AM_VIS
100
AcDbLine
 10
798.0590512857951
 20
360.9288243622005
 30
0.0
 11
798.0590512857951
 21
359.2288243622004
 31
0.0
  0
LINE
  5
321A
330
1F
100
AcDbEntity
  8
AM_VIS
100
AcDbLine
 10
798.0590512857951
 20
359.2288243622004
 30
0.0
 11
796.3590512857952
 21
359.2288243622004
 31
0.0
  0
LINE
  5
321B
330
1F
100
AcDbEntity
  8
AM_VIS
100
AcDbLine
 10
796.3590512857952
 20
359.2288243622004
 30
0.0
 11
796.3590512857952
 21
357.9288243622002
 31
0.0
  0
LINE
  5
321C
330
1F
100
AcDbEntity
  8
AM_VIS
100
AcDbLine
 10
796.3590512857952
 20
357.9288243622002
 30
0.0
 11
805.3590512857951
 21
357.9288243622002
 31
0.0
  0
LINE
  5
321D
330
1F
100
AcDbEntity
  8
AM_VIS
100
AcDbLine
 10
805.3590512857951
 20
357.9288243622002
 30
0.0
 11
805.3590512857951
 21
360.9288243622004
 31
0.0
  0
LINE
  5
321E
330
1F
100
AcDbEntity
  8
AM_VIS
100
AcDbLine
 10
805.3590512857951
 20
360.9288243622004
 30
0.0
 11
807.5590512857949
 21
360.9288243622004
 31
0.0
  0
LINE
  5
321F
330
1F
100
AcDbEntity
  8
AM_VIS
100
AcDbLine
 10
807.5590512857949
 20
360.9288243622004
 30
0.0
 11
807.5590512857949
 21
357.9288243622002
 31
0.0
  0
LINE
  5
3220
330
1F
100
AcDbEntity
  8
AM_VIS
100
AcDbLine
 10
807.5590512857949
 20
357.9288243622002
 30
0.0
 11
816.5590512857949
 21
357.9288243622002
 31
0.0
  0
LINE
  5
3221
330
1F
100
AcDbEntity
  8
AM_VIS
100
AcDbLine
 10
816.5590512857949
 20
357.9288243622002
 30
0.0
 11
816.5590512857949
 21
359.2288243622003
 31
0.0
  0
LINE
  5
3222
330
1F
100
AcDbEntity
  8
AM_VIS
100
AcDbLine
 10
816.5590512857949
 20
359.2288243622003
 30
0.0
 11
814.859051285795
 21
359.2288243622003
 31
0.0
  0
LINE
  5
3223
330
1F
100
AcDbEntity
  8
AM_VIS
100
AcDbLine
 10
814.859051285795
 20
359.2288243622003
 30
0.0
 11
814.859051285795
 21
360.9288243622005
 31
0.0
  0
LINE
  5
3224
330
1F
100
AcDbEntity
  8
AM_VIS
100
AcDbLine
 10
814.859051285795
 20
360.9288243622005
 30
0.0
 11
826.1122952928285
 21
360.9288243622005
 31
0.0
  0
ARC
  5
3225
330
1F
100
AcDbEntity
  8
AM_VIS
100
AcDbCircle
 10
806.459051285795
 20
338.9288243622005
 30
0.0
 40
29.5
100
AcDbArc
 50
41.77534800972742
 51
48.22465199027475
  0
LINE
  5
3226
330
1F
100
AcDbEntity
  8
AM_VIS
100
AcDbLine
 10
828.4590512857949
 20
358.582068369234
 30
0.0
 11
828.4590512857949
 21
347.2288243622005
 31
0.0
  0
LINE
  5
3227
330
1F
100
AcDbEntity
  8
AM_VIS
100
AcDbLine
 10
828.4590512857949
 20
347.2288243622005
 30
0.0
 11
826.7701987430893
 21
347.2288243622005
 31
0.0
  0
LINE
  5
3228
330
1F
100
AcDbEntity
  8
AM_VIS
100
AcDbLine
 10
826.7701987430893
 20
347.2288243622005
 30
0.0
 11
826.7701987430893
 21
349.1167386650724
 31
0.0
  0
LINE
  5
3229
330
1F
100
AcDbEntity
  8
AM_VIS
100
AcDbLine
 10
826.7701987430893
 20
349.1167386650724
 30
0.0
 11
825.4701987430891
 21
349.1167386650724
 31
0.0
  0
LINE
  5
322A
330
1F
100
AcDbEntity
  8
AM_VIS
100
AcDbLine
 10
825.4701987430891
 20
349.1167386650724
 30
0.0
 11
825.4701987430891
 21
340.0288243622005
 31
0.0
  0
LINE
  5
322B
330
1F
100
AcDbEntity
  8
AM_VIS
100
AcDbLine
 10
825.4701987430891
 20
340.0288243622003
 30
0.0
 11
828.4590512857949
 21
340.0288243622003
 31
0.0
  0
LINE
  5
322C
330
1F
100
AcDbEntity
  8
AM_VIS
100
AcDbLine
 10
828.4590512857949
 20
340.0288243622003
 30
0.0
 11
828.4590512857949
 21
337.8288243622005
 31
0.0
  0
LINE
  5
322D
330
1F
100
AcDbEntity
  8
AM_VIS
100
AcDbLine
 10
828.4590512857949
 20
337.8288243622005
 30
0.0
 11
825.4701987430891
 21
337.8288243622005
 31
0.0
  0
LINE
  5
322E
330
1F
100
AcDbEntity
  8
AM_VIS
100
AcDbLine
 10
825.4701987430891
 20
337.8288243622007
 30
0.0
 11
825.4701987430891
 21
328.9167386650726
 31
0.0
  0
LINE
  5
322F
330
1F
100
AcDbEntity
  8
AM_VIS
100
AcDbLine
 10
825.4701987430891
 20
328.9167386650726
 30
0.0
 11
826.7701987430893
 21
328.9167386650726
 31
0.0
  0
LINE
  5
3230
330
1F
100
AcDbEntity
  8
AM_VIS
100
AcDbLine
 10
826.7701987430893
 20
328.9167386650726
 30
0.0
 11
826.7701987430893
 21
330.6167386650725
 31
0.0
  0
LINE
  5
3231
330
1F
100
AcDbEntity
  8
AM_VIS
100
AcDbLine
 10
826.7701987430893
 20
330.6167386650725
 30
0.0
 11
828.4590512857949
 21
330.6167386650725
 31
0.0
  0
LINE
  5
3232
330
1F
100
AcDbEntity
  8
AM_VIS
100
AcDbLine
 10
828.4590512857949
 20
330.6167386650725
 30
0.0
 11
828.4590512857949
 21
319.1470850528315
 31
0.0
  0
LINE
  5
3233
102
{ACAD_REACTORS
330
3287
330
328A
102
}
330
1F
100
AcDbEntity
  8
AM_VIS
100
AcDbLine
 10
828.4590512857949
 20
319.1470850528315
 30
0.0
 11
826.1122952928285
 21
316.9288243622005
 31
0.0
  0
LINE
  5
3234
330
1F
100
AcDbEntity
  8
AM_VIS
100
AcDbLine
 10
826.1122952928285
 20
316.9288243622005
 30
0.0
 11
814.859051285795
 21
316.9288243622005
 31
0.0
  0
LINE
  5
3235
330
1F
100
AcDbEntity
  8
AM_VIS
100
AcDbLine
 10
814.859051285795
 20
316.9288243622005
 30
0.0
 11
814.859051285795
 21
318.6288243622004
 31
0.0
  0
LINE
  5
3236
330
1F
100
AcDbEntity
  8
AM_VIS
100
AcDbLine
 10
814.859051285795
 20
318.6288243622004
 30
0.0
 11
816.5590512857949
 21
318.6288243622004
 31
0.0
  0
LINE
  5
3237
330
1F
100
AcDbEntity
  8
AM_VIS
100
AcDbLine
 10
816.5590512857949
 20
318.6288243622004
 30
0.0
 11
816.5590512857949
 21
319.9288243622006
 31
0.0
  0
LINE
  5
3238
330
1F
100
AcDbEntity
  8
AM_VIS
100
AcDbLine
 10
816.5590512857949
 20
319.9288243622006
 30
0.0
 11
807.5590512857949
 21
319.9288243622006
 31
0.0
  0
LINE
  5
3239
330
1F
100
AcDbEntity
  8
AM_VIS
100
AcDbLine
 10
807.5590512857949
 20
319.9288243622006
 30
0.0
 11
807.5590512857949
 21
316.9288243622005
 31
0.0
  0
LINE
  5
323A
330
1F
100
AcDbEntity
  8
AM_VIS
100
AcDbLine
 10
807.5590512857949
 20
316.9288243622005
 30
0.0
 11
805.3590512857951
 21
316.9288243622005
 31
0.0
  0
LINE
  5
323B
330
1F
100
AcDbEntity
  8
AM_VIS
100
AcDbLine
 10
805.3590512857951
 20
316.9288243622005
 30
0.0
 11
805.3590512857951
 21
319.9288243622006
 31
0.0
  0
LINE
  5
323C
330
1F
100
AcDbEntity
  8
AM_VIS
100
AcDbLine
 10
805.3590512857951
 20
319.9288243622006
 30
0.0
 11
796.359051285795
 21
319.9288243622006
 31
0.0
  0
LINE
  5
323D
330
1F
100
AcDbEntity
  8
AM_VIS
100
AcDbLine
 10
796.359051285795
 20
319.9288243622006
 30
0.0
 11
796.359051285795
 21
318.6288243622004
 31
0.0
  0
LINE
  5
323E
330
1F
100
AcDbEntity
  8
AM_VIS
100
AcDbLine
 10
796.359051285795
 20
318.6288243622004
 30
0.0
 11
798.0590512857951
 21
318.6288243622004
 31
0.0
  0
LINE
  5
323F
330
1F
100
AcDbEntity
  8
AM_VIS
100
AcDbLine
 10
798.0590512857951
 20
318.6288243622004
 30
0.0
 11
798.0590512857951
 21
316.9288243622005
 31
0.0
  0
LINE
  5
3240
330
1F
100
AcDbEntity
  8
AM_VIS
100
AcDbLine
 10
798.0590512857951
 20
316.9288243622005
 30
0.0
 11
786.8058072787615
 21
316.9288243622005
 31
0.0
  0
ARC
  5
3241
102
{ACAD_REACTORS
330
3287
102
}
330
1F
100
AcDbEntity
  8
AM_VIS
100
AcDbCircle
 10
806.459051285795
 20
338.9288243622006
 30
0.0
 40
29.5
100
AcDbArc
 50
221.7753480097274
 51
228.2246519902748
  0
LINE
  5
3242
102
{ACAD_REACTORS
330
3287
102
}
330
1F
100
AcDbEntity
  8
AM_VIS
100
AcDbLine
 10
784.459051285795
 20
319.275580355167
 30
0.0
 11
784.459051285795
 21
327.2288243622004
 31
0.0
  0
LINE
  5
3243
330
1F
100
AcDbEntity
  8
AM_VIS
100
AcDbLine
 10
784.459051285795
 20
327.2288243622004
 30
0.0
 11
785.4590512857951
 21
327.2288243622004
 31
0.0
  0
ARC
  5
3244
330
1F
100
AcDbEntity
  8
AM_VIS
100
AcDbCircle
 10
823.459051285795
 20
356.0246918789073
 30
0.0
 40
5.250000000000028
100
AcDbArc
 50
342.2472098380532
 51
17.75279016194678
  0
ARC
  5
3245
330
1F
100
AcDbEntity
  8
AM_VIS
100
AcDbCircle
 10
823.459051285795
 20
322.0246918789073
 30
0.0
 40
5.250000000000028
100
AcDbArc
 50
342.2472098380532
 51
17.75279016194678
  0
LINE
  5
3246
330
1F
100
AcDbEntity
  8
AM_VIS
100
AcDbLine
 10
827.959051285795
 20
330.6167386650725
 30
0.0
 11
827.959051285795
 21
337.8288243622005
 31
0.0
  0
LINE
  5
3247
330
1F
100
AcDbEntity
  8
AM_VIS
100
AcDbLine
 10
827.959051285795
 20
340.0288243622004
 30
0.0
 11
827.959051285795
 21
347.2288243622005
 31
0.0
  0
LINE
  5
3248
330
1F
100
AcDbEntity
  8
AM_VIS
100
AcDbLine
 10
828.4590512857949
 20
347.2288243622005
 30
0.0
 11
828.4590512857949
 21
340.0288243622003
 31
0.0
  0
LINE
  5
3249
330
1F
100
AcDbEntity
  8
AM_VIS
100
AcDbLine
 10
828.4590512857949
 20
337.8288243622005
 30
0.0
 11
828.4590512857949
 21
330.6167386650725
 31
0.0
  0
LINE
  5
324A
330
1F
100
AcDbEntity
  8
AM_VIS
100
AcDbLine
 10
828.6598972640645
 20
347.0246918789073
 30
0.0
 11
828.4590512857949
 21
347.0246918789073
 31
0.0
  0
LINE
  5
324B
330
1F
100
AcDbEntity
  8
AM_VIS
100
AcDbLine
 10
828.4590512857949
 20
350.0246918789073
 30
0.0
 11
828.6598972640645
 21
350.0246918789073
 31
0.0
  0
LINE
  5
324C
330
1F
100
AcDbEntity
  8
AM_VIS
100
AcDbLine
 10
828.6598972640643
 20
350.0246918789073
 30
0.0
 11
828.6598972640643
 21
347.0246918789073
 31
0.0
  0
LINE
  5
324D
330
1F
100
AcDbEntity
  8
AM_VIS
100
AcDbLine
 10
828.6598972640645
 20
327.9288243622004
 30
0.0
 11
828.4590512857949
 21
327.9288243622004
 31
0.0
  0
LINE
  5
324E
330
1F
100
AcDbEntity
  8
AM_VIS
100
AcDbLine
 10
828.4590512857949
 20
330.9288243622004
 30
0.0
 11
828.6598972640643
 21
330.9288243622004
 31
0.0
  0
LINE
  5
324F
330
1F
100
AcDbEntity
  8
AM_VIS
100
AcDbLine
 10
828.6598972640643
 20
330.9288243622004
 30
0.0
 11
828.6598972640643
 21
327.9288243622004
 31
0.0
  0
ARC
  5
325B
330
1F
100
AcDbEntity
  8
0
100
AcDbCircle
 10
805.5227626723016
 20
338.9288243622006
 30
0.0
 40
14.89838549086941
100
AcDbArc
 50
226.5092604653642
 51
133.4907395346357
  0
CIRCLE
  5
325C
330
1F
100
AcDbEntity
  8
AM_VIS
100
AcDbCircle
 10
806.459051285795
 20
338.9288243622005
 30
0.0
 40
16.84999999999994
  0
CIRCLE
  5
325D
330
1F
100
AcDbEntity
  8
AM_VIS
100
AcDbCircle
 10
806.459051285795
 20
338.9288243622005
 30
0.0
 40
11.0
  0
CIRCLE
  5
325E
330
1F
100
AcDbEntity
  8
AM_VIS
100
AcDbCircle
 10
806.459051285795
 20
338.9288243622005
 30
0.0
 40
17.0
  0
LINE
  5
325F
330
1F
100
AcDbEntity
  8
AM_7
 48
7.0
100
AcDbLine
 10
875.3987015428981
 20
338.9288243622005
 30
0.0
 11
776.3260356307313
 21
338.9288243622005
 31
0.0
  0
LINE
  5
3260
102
{ACAD_REACTORS
330
3CD1
102
}
330
1F
100
AcDbEntity
  8
AM_7
 48
7.0
100
AcDbLine
 10
806.459051285795
 20
313.7653428347602
 30
0.0
 11
806.4590512857948
 21
364.0923058896407
 31
0.0
  0
CIRCLE
  5
3261
330
1F
100
AcDbEntity
  8
0
100
AcDbCircle
 10
792.8471443902123
 20
333.0675167238712
 30
0.0
 40
1.25
  0
ARC
  5
3262
330
1F
100
AcDbEntity
  8
0
100
AcDbCircle
 10
792.8471443902123
 20
333.0675167238712
 30
0.0
 40
2.6
100
AcDbArc
 50
323.9981311727832
 51
24.56312793020526
  0
ARC
  5
3263
330
1F
100
AcDbEntity
  8
0
100
AcDbCircle
 10
792.8471443902123
 20
344.7901320005302
 30
0.0
 40
2.6
100
AcDbArc
 50
335.4368720697947
 51
36.00186882721675
  0
CIRCLE
  5
3264
330
1F
100
AcDbEntity
  8
0
100
AcDbCircle
 10
792.8471443902123
 20
344.7901320005302
 30
0.0
 40
1.25
  0
ARC
  5
3265
330
1F
100
AcDbEntity
  8
0
100
AcDbCircle
 10
797.0539330648331
 20
347.8467525276944
 30
0.0
 40
2.6
100
AcDbArc
 50
133.3505184042766
 51
216.0018688272168
  0
ARC
  5
3267
330
1F
100
AcDbEntity
  8
0
100
AcDbCircle
 10
792.8471443902123
 20
344.7901320005302
 30
0.0
 40
2.6
100
AcDbArc
 50
254.9999999999913
 51
335.4368720697947
  0
LINE
  5
3268
330
1F
100
AcDbEntity
  8
0
100
AcDbLine
 10
792.1742148729456
 20
342.2787248521786
 30
0.0
 11
790.4466799832059
 21
342.741616430781
 31
0.0
  0
LINE
  5
3269
330
1F
100
AcDbEntity
  8
0
100
AcDbLine
 10
792.1742148729456
 20
335.5789238722227
 30
0.0
 11
790.4466799832059
 21
335.1160322936205
 31
0.0
  0
ARC
  5
326A
330
1F
100
AcDbEntity
  8
0
100
AcDbCircle
 10
792.8471443902123
 20
333.0675167238712
 30
0.0
 40
2.6
100
AcDbArc
 50
24.56312793020526
 51
105.0000000000087
  0
ARC
  5
326B
330
1F
100
AcDbEntity
  8
0
100
AcDbCircle
 10
797.0539330648331
 20
330.0108961967068
 30
0.0
 40
2.6
100
AcDbArc
 50
143.9981311727833
 51
226.6494815957234
  0
ARC
  5
326C
330
1F
100
AcDbEntity
  8
0
100
AcDbCircle
 10
790.7054990283085
 20
343.7075422570701
 30
0.0
 40
1.0
100
AcDbArc
 50
231.914908411191
 51
255.0000000000056
  0
ARC
  5
326D
330
1F
100
AcDbEntity
  8
0
100
AcDbCircle
 10
790.7054990283085
 20
334.1501064673312
 30
0.0
 40
1.0
100
AcDbArc
 50
104.9999999999944
 51
128.085091588809
  0
CIRCLE
  5
326E
330
1F
100
AcDbEntity
  8
AM_VIS
100
AcDbCircle
 10
789.4590512857949
 20
355.9288243622005
 30
0.0
 40
4.0
  0
CIRCLE
  5
326F
330
1F
100
AcDbEntity
  8
AM_VIS
100
AcDbCircle
 10
789.4590512857949
 20
355.9288243622005
 30
0.0
 40
2.549999999999999
  0
ARC
  5
3270
330
1F
100
AcDbEntity
  8
AM_4
100
AcDbCircle
 10
789.4590512857949
 20
355.9288243622005
 30
0.0
 40
3.0
100
AcDbArc
 50
260.0000000000014
 51
169.9999999999981
  0
LINE
  5
3271
330
1F
100
AcDbEntity
  8
AM_7
  6
AM_ISO08W050x2
100
AcDbLine
 10
783.459051285795
 20
355.9288243622005
 30
0.0
 11
795.459051285795
 21
355.9288243622005
 31
0.0
  0
LINE
  5
3272
330
1F
100
AcDbEntity
  8
AM_7
  6
AM_ISO08W050x2
100
AcDbLine
 10
789.4590512857949
 20
349.9288243622005
 30
0.0
 11
789.4590512857949
 21
361.9288243622005
 31
0.0
  0
CIRCLE
  5
3273
330
1F
100
AcDbEntity
  8
AM_VIS
100
AcDbCircle
 10
823.459051285795
 20
355.9288243622005
 30
0.0
 40
4.0
  0
CIRCLE
  5
3274
330
1F
100
AcDbEntity
  8
AM_VIS
100
AcDbCircle
 10
823.459051285795
 20
355.9288243622005
 30
0.0
 40
2.549999999999999
  0
LINE
  5
3275
330
1F
100
AcDbEntity
  8
AM_7
  6
AM_ISO08W050x2
100
AcDbLine
 10
829.4590512857949
 20
355.9288243622005
 30
0.0
 11
817.459051285795
 21
355.9288243622005
 31
0.0
  0
LINE
  5
3276
330
1F
100
AcDbEntity
  8
AM_7
  6
AM_ISO08W050x2
100
AcDbLine
 10
823.459051285795
 20
349.9288243622005
 30
0.0
 11
823.459051285795
 21
361.9288243622005
 31
0.0
  0
CIRCLE
  5
3277
330
1F
100
AcDbEntity
  8
AM_VIS
100
AcDbCircle
 10
823.459051285795
 20
321.9288243622005
 30
0.0
 40
4.0
  0
CIRCLE
  5
3278
330
1F
100
AcDbEntity
  8
AM_VIS
100
AcDbCircle
 10
823.459051285795
 20
321.9288243622005
 30
0.0
 40
2.549999999999999
  0
LINE
  5
3279
330
1F
100
AcDbEntity
  8
AM_7
  6
AM_ISO08W050x2
100
AcDbLine
 10
829.4590512857949
 20
321.9288243622005
 30
0.0
 11
817.459051285795
 21
321.9288243622005
 31
0.0
  0
LINE
  5
327A
102
{ACAD_REACTORS
330
3284
102
}
330
1F
100
AcDbEntity
  8
AM_7
  6
AM_ISO08W050x2
100
AcDbLine
 10
823.459051285795
 20
327.9288243622005
 30
0.0
 11
823.459051285795
 21
315.9288243622005
 31
0.0
  0
CIRCLE
  5
327B
330
1F
100
AcDbEntity
  8
AM_VIS
100
AcDbCircle
 10
789.4590512857949
 20
321.9288243622005
 30
0.0
 40
4.0
  0
CIRCLE
  5
327C
330
1F
100
AcDbEntity
  8
AM_VIS
100
AcDbCircle
 10
789.4590512857949
 20
321.9288243622005
 30
0.0
 40
2.549999999999999
  0
LINE
  5
327D
330
1F
100
AcDbEntity
  8
AM_7
  6
AM_ISO08W050x2
100
AcDbLine
 10
783.459051285795
 20
321.9288243622005
 30
0.0
 11
795.459051285795
 21
321.9288243622005
 31
0.0
  0
LINE
  5
327E
102
{ACAD_REACTORS
330
3284
102
}
330
1F
100
AcDbEntity
  8
AM_7
  6
AM_ISO08W050x2
100
AcDbLine
 10
789.4590512857949
 20
327.9288243622005
 30
0.0
 11
789.4590512857949
 21
315.9288243622005
 31
0.0
  0
ARC
  5
327F
330
1F
100
AcDbEntity
  8
AM_4
100
AcDbCircle
 10
823.459051285795
 20
355.8329568454937
 30
0.0
 40
3.0
100
AcDbArc
 50
260.0000000000014
 51
169.9999999999981
  0
ARC
  5
3280
330
1F
100
AcDbEntity
  8
AM_4
100
AcDbCircle
 10
823.459051285795
 20
321.9288243622005
 30
0.0
 40
3.0
100
AcDbArc
 50
260.0000000000014
 51
169.9999999999981
  0
ARC
  5
3281
330
1F
100
AcDbEntity
  8
AM_4
100
AcDbCircle
 10
789.4590512857949
 20
321.9288243622005
 30
0.0
 40
3.0
100
AcDbArc
 50
260.0000000000014
 51
169.9999999999981
  0
DIMENSION
  5
3282
102
{ACAD_XDICTIONARY
360
3283
102
}
102
{ACAD_REACTORS
330
3284
102
}
330
1F
100
AcDbEntity
  8
0
100
AcDbDimension
  2
*D16
 10
823.459051285795
 20
308.6396148943259
 30
0.0
 11
806.665597006785
 21
308.6396148943259
 31
0.0
 70
   160
  1
{\Famgdt;o}<>
 71
     5
 42
34.0
  3
ISO-25
100
AcDbAlignedDimension
 13
789.4590512857949
 23
315.9288243622005
 33
0.0
 14
823.459051285795
 24
315.9288243622005
 34
0.0
100
AcDbRotatedDimension
  0
DIMENSION
  5
3285
102
{ACAD_XDICTIONARY
360
3286
102
}
102
{ACAD_REACTORS
330
3287
102
}
330
1F
100
AcDbEntity
  8
0
100
AcDbDimension
  2
*D17
 10
828.4590512857949
 20
299.7347107375875
 30
0.0
 11
807.0049101426514
 21
299.7347107375875
 31
0.0
 70
   160
  1
{\Famgdt;o}<>
 71
     5
 42
43.99999999999988
  3
ISO-25
100
AcDbAlignedDimension
 13
784.459051285795
 23
319.275580355167
 33
0.0
 14
828.4590512857949
 24
319.1470850528316
 34
0.0
100
AcDbRotatedDimension
  0
DIMENSION
  5
3288
102
{ACAD_XDICTIONARY
360
3289
102
}
102
{ACAD_REACTORS
330
328A
102
}
330
1F
100
AcDbEntity
  8
0
100
AcDbDimension
  2
*D18
 10
779.9590604649229
 20
291.6155337761264
 30
0.0
 11
805.3195903859462
 21
291.6155337761264
 31
0.0
 70
   160
 71
     5
 42
48.49999082087208
  3
ISO-25
100
AcDbAlignedDimension
 13
828.4590512857949
 23
319.1470850528315
 33
0.0
 14
779.9590604649229
 24
332.1129326824428
 34
0.0
100
AcDbRotatedDimension
  0
LEADER
  5
328B
330
1F
100
AcDbEntity
  8
0
 62
     5
100
AcDbLeader
  3
ISO-25
 73
     0
 75
     1
 40
13.6005905511811
 41
33.59999999999999
 76
     3
 10
786.9339875726108
 20
318.8265585379423
 30
0.0
 10
773.0997650562699
 20
301.8299831669754
 30
0.0
 10
770.0997650562698
 20
301.8299831669754
 30
0.0
1001
ACAD
1000
DSTYLE
1002
{
1070
     5
1000

1070
    77
1070
     1
1070
   147
1040
0.625
1070
   342
1005
0
1002
}
  0
MTEXT
  5
328C
102
{ACAD_REACTORS
330
328B
102
}
330
1F
100
AcDbEntity
  8
0
 62
     5
100
AcDbMText
 10
769.4747650562699
 20
302.4549831669754
 30
0.0
 40
3.0
 41
0.0
 71
     9
 72
     1
  1
{\L4-通孔%%C5.1\P4-沈孔%%C8×6深\P}4-螺牙M6×1.0×8深
 73
     1
 44
1.0
1001
ACAD
1000
MTEXTBEGIN
1070
    73
1070
     1
1070
    44
1040
1.0
1070
    74
1070
     0
1000
MTEXTEND
  0
LINE
  5
329F
330
1F
100
AcDbEntity
  8
AM_VIS
100
AcDbLine
 10
800.4590512857951
 20
476.4867650172113
 30
0.0
 11
802.6417456023855
 21
476.4867650172113
 31
0.0
  0
SPLINE
  5
32A0
330
1F
100
AcDbEntity
  8
AM_VIS
100
AcDbSpline
210
0.0
220
0.0
230
1.0
 70
    12
 71
     2
 72
     6
 73
     3
 74
     0
 42
0.0000000001
 43
0.0000000001
 40
28.53062811355091
 40
28.53062811355091
 40
28.53062811355091
 40
32.01090224151082
 40
32.01090224151082
 40
32.01090224151082
 10
800.7144886392573
 20
475.4867650172114
 30
0.0
 41
1.071715105940897
 10
801.399641473162
 20
476.0490369281856
 30
0.0
 41
1.040231593156256
 10
801.9869153307956
 20
476.4867650172113
 30
0.0
 41
1.0
  0
LINE
  5
32A2
330
1F
100
AcDbEntity
  8
AM_VIS
100
AcDbLine
 10
800.714488639257
 20
475.4867650172112
 30
0.0
 11
799.4590512857951
 21
475.4867650172112
 31
0.0
  0
LINE
  5
32A3
330
1F
100
AcDbEntity
  8
AM_VIS
100
AcDbLine
 10
800.4590512857951
 20
476.4867650172113
 30
0.0
 11
799.4590512857951
 21
475.4867650172112
 31
0.0
  0
LINE
  5
336B
330
1F
100
AcDbEntity
  8
AM_VIS
100
AcDbLine
 10
818.9730374125815
 20
463.4849119976869
 30
0.0
 11
818.5407592238977
 21
445.6233917344851
 31
0.0
  0
LINE
  5
336C
330
1F
100
AcDbEntity
  8
AM_VIS
100
AcDbLine
 10
828.9701101001352
 20
463.2429663844444
 30
0.0
 11
828.5378319114514
 21
445.3814461212429
 31
0.0
  0
LINE
  5
338E
330
1F
100
AcDbEntity
  8
AM_VIS
100
AcDbLine
 10
818.8916656306789
 20
460.1226703455489
 30
0.0
 11
799.985850001155
 21
464.2139932910487
 31
0.0
  0
LINE
  5
338F
102
{ACAD_REACTORS
330
396B
102
}
330
1F
100
AcDbEntity
  8
AM_VIS
100
AcDbLine
 10
828.8301612925632
 20
457.4603510971208
 30
0.0
 11
867.8077224094296
 21
449.0253915438278
 31
0.0
  0
LINE
  5
344E
330
1F
100
AcDbEntity
  8
AM_7
 48
3.0
100
AcDbLine
 10
660.9140548414829
 20
445.4867650172111
 30
0.0
 11
668.9429709892602
 21
445.4867650172111
 31
0.0
  0
LINE
  5
3480
330
1F
100
AcDbEntity
  8
AM_7
 48
3.0
100
AcDbLine
 10
677.9309511817228
 20
442.1867650172112
 30
0.0
 11
685.926074649021
 21
442.1867650172112
 31
0.0
  0
LINE
  5
354C
330
1F
100
AcDbEntity
  8
AM_7
 48
3.0
100
AcDbLine
 10
807.4292994311461
 20
474.9702371838557
 30
0.0
 11
805.4888031404429
 21
466.0032928505667
 31
0.0
  0
LINE
  5
365C
330
1F
100
AcDbEntity
  8
AM_VIS
100
AcDbLine
 10
800.6461346340611
 20
467.2651382871831
 30
0.0
 11
800.6461346340611
 21
469.0001581424798
 31
0.0
  0
LINE
  5
365D
330
1F
100
AcDbEntity
  8
AM_VIS
100
AcDbLine
 10
800.6461346340611
 20
471.9733718919427
 30
0.0
 11
800.6461346340611
 21
475.4867650172112
 31
0.0
  0
DIMENSION
  5
3919
102
{ACAD_XDICTIONARY
360
3926
102
}
102
{ACAD_REACTORS
330
3930
102
}
330
1F
100
AcDbEntity
  8
0
100
AcDbDimension
  2
*D20
 10
766.8557728747909
 20
378.1867650172114
 30
0.0
 11
766.8557728747908
 21
430.7521357127034
 31
0.0
 70
   160
  1
不附磁型：<>
 71
     5
 42
101.070800424286
  3
ISO-25
100
AcDbAlignedDimension
 13
803.7529360041887
 23
479.2575654414974
 33
0.0
 14
780.136749905821
 24
378.1867650172114
 34
0.0
 50
90.0
100
AcDbRotatedDimension
1001
ACAD
1000
DSTYLE
1002
{
1070
   271
1070
     0
1070
   279
1070
     0
1002
}
  0
DIMENSION
  5
3954
102
{ACAD_XDICTIONARY
360
3961
102
}
102
{ACAD_REACTORS
330
396B
102
}
330
1F
100
AcDbEntity
  8
0
100
AcDbDimension
  2
*D21
 10
895.5131137031822
 20
459.400156067593
 30
0.0
 11
893.8210372966358
 21
451.5811486219894
 31
0.0
 70
   161
  1
{\Famgdt;o}<>
 71
     5
 42
16.00000000000011
  3
ISO-25
100
AcDbAlignedDimension
 13
867.8077224094296
 23
449.0253915438278
 33
0.0
 14
871.1918752225225
 24
464.6634064350356
 34
0.0
1001
ACAD
1000
DSTYLE
1002
{
1070
   271
1070
     1
1070
   279
1070
     0
1002
}
  0
DIMENSION
  5
397F
102
{ACAD_XDICTIONARY
360
398C
102
}
102
{ACAD_REACTORS
330
3996
102
}
330
1F
100
AcDbEntity
  8
0
100
AcDbDimension
  2
*D22
 10
873.7546525176217
 20
474.1419232973699
 30
0.0
 11
839.5464949431046
 21
481.5447575760099
 31
0.0
 70
   161
 71
     5
 42
69.99999999999989
  3
ISO-25
100
AcDbAlignedDimension
 13
803.1584932634293
 23
478.8746322515562
 33
0.0
 14
871.5748084124633
 24
464.0689636942761
 34
0.0
1001
ACAD
1000
DSTYLE
1002
{
1070
   271
1070
     1
1070
   279
1070
     0
1002
}
  0
LINE
  5
39A1
330
1F
100
AcDbEntity
  8
AM_VIS
100
AcDbLine
 10
871.5748084124633
 20
331.4288243622005
 30
0.0
 11
871.0767974573705
 21
330.9288243622005
 31
0.0
  0
LINE
  5
39A2
330
1F
100
AcDbEntity
  8
AM_VIS
100
AcDbLine
 10
871.0767974573702
 20
346.9288243622005
 30
0.0
 11
871.5748084124633
 21
346.4288243622005
 31
0.0
  0
LINE
  5
39A3
330
1F
100
AcDbEntity
  8
AM_VIS
100
AcDbLine
 10
867.9041541950962
 20
330.9288243622005
 30
0.0
 11
867.8595998618925
 21
331.4288243622005
 31
0.0
  0
LINE
  5
39A4
330
1F
100
AcDbEntity
  8
AM_VIS
100
AcDbLine
 10
868.4021651501893
 20
331.4288243622005
 30
0.0
 11
867.8595998618925
 21
331.4288243622005
 31
0.0
  0
LINE
  5
39A5
330
1F
100
AcDbEntity
  8
AM_VIS
100
AcDbLine
 10
868.4021651501893
 20
331.4288243622005
 30
0.0
 11
867.9041541950963
 21
330.9288243622005
 31
0.0
  0
LINE
  5
39A6
330
1F
100
AcDbEntity
  8
AM_VIS
100
AcDbLine
 10
868.4021651501893
 20
346.4288243622005
 30
0.0
 11
867.8595998618925
 21
346.4288243622005
 31
0.0
  0
LINE
  5
39A7
330
1F
100
AcDbEntity
  8
AM_VIS
100
AcDbLine
 10
867.9041541950962
 20
346.9288243622005
 30
0.0
 11
867.8595998618925
 21
346.4288243622005
 31
0.0
  0
LINE
  5
39A8
330
1F
100
AcDbEntity
  8
AM_VIS
100
AcDbLine
 10
867.9041541950962
 20
346.9288243622005
 30
0.0
 11
868.4021651501893
 21
346.4288243622005
 31
0.0
  0
LINE
  5
39A9
330
1F
100
AcDbEntity
  8
AM_VIS
100
AcDbLine
 10
868.4021651501893
 20
346.4288243622005
 30
0.0
 11
868.4021651501893
 21
331.4288243622005
 31
0.0
  0
LINE
  5
39AA
330
1F
100
AcDbEntity
  8
AM_VIS
100
AcDbLine
 10
867.8595998618925
 20
331.4288243622005
 30
0.0
 11
867.8595998618925
 21
346.4288243622005
 31
0.0
  0
LINE
  5
39AB
330
1F
100
AcDbEntity
  8
AM_VIS
100
AcDbLine
 10
871.5748084124633
 20
346.4288243622005
 30
0.0
 11
868.4021651501893
 21
346.4288243622005
 31
0.0
  0
LINE
  5
39AC
330
1F
100
AcDbEntity
  8
AM_VIS
100
AcDbLine
 10
828.4590512857951
 20
346.9288243622005
 30
0.0
 11
871.0767974573702
 21
346.9288243622005
 31
0.0
  0
LINE
  5
39AD
330
1F
100
AcDbEntity
  8
AM_VIS
100
AcDbLine
 10
871.0767974573705
 20
330.9288243622005
 30
0.0
 11
828.4590512857949
 21
330.9288243622005
 31
0.0
  0
LINE
  5
39AE
330
1F
100
AcDbEntity
  8
AM_VIS
100
AcDbLine
 10
868.4021651501891
 20
331.4288243622005
 30
0.0
 11
871.5748084124633
 21
331.4288243622005
 31
0.0
  0
LINE
  5
39AF
330
1F
100
AcDbEntity
  8
AM_VIS
100
AcDbLine
 10
871.5748084124633
 20
331.4288243622005
 30
0.0
 11
871.5748084124633
 21
346.4288243622005
 31
0.0
  0
DIMENSION
  5
39F4
330
1F
100
AcDbEntity
  8
0
100
AcDbDimension
  2
*D23
 10
605.8598894418064
 20
427.1867650172113
 30
0.0
 11
605.8598894418063
 21
468.8371075979937
 31
0.0
 70
   160
 71
     5
 42
83.11416136130361
  3
ISO-25
100
AcDbAlignedDimension
 13
672.1222245464347
 23
510.3009263785149
 33
0.0
 14
637.606211535398
 24
427.1867650172113
 34
0.0
 50
90.0
100
AcDbRotatedDimension
1001
ACAD
1000
DSTYLE
1002
{
1070
   271
1070
     1
1070
   279
1070
     0
1002
}
  0
LINE
  5
3C1E
330
1F
100
AcDbEntity
  8
AM_7
 48
7.0
100
AcDbLine
 10
681.928512915372
 20
375.396616367621
 30
0.0
 11
681.928512915372
 21
429.5432953431863
 31
0.0
  0
LINE
  5
3C1F
330
1F
100
AcDbEntity
  8
0
  6
HIDDEN
 62
     5
 48
10.0
100
AcDbLine
 10
677.428512915372
 20
378.1867650172114
 30
0.0
 11
677.428512915372
 21
385.1867650172115
 31
0.0
  0
LINE
  5
3C20
330
1F
100
AcDbEntity
  8
0
  6
HIDDEN
 62
     5
 48
10.0
100
AcDbLine
 10
686.428512915372
 20
378.1867650172114
 30
0.0
 11
686.4285129153719
 21
385.1867650172115
 31
0.0
  0
LINE
  5
3C21
330
1F
100
AcDbEntity
  8
0
  6
HIDDEN
 62
     5
 48
10.0
100
AcDbLine
 10
677.428512915372
 20
385.1867650172115
 30
0.0
 11
686.428512915372
 21
385.1867650172114
 31
0.0
  0
LINE
  5
3C22
330
1F
100
AcDbEntity
  8
0
  6
HIDDEN
 62
     5
 48
10.0
100
AcDbLine
 10
679.3285129153718
 20
385.1867650172115
 30
0.0
 11
679.3285129153718
 21
420.1867650172113
 31
0.0
  0
LINE
  5
3C23
330
1F
100
AcDbEntity
  8
0
  6
HIDDEN
 62
     5
 48
10.0
100
AcDbLine
 10
684.5285129153721
 20
385.1867650172114
 30
0.0
 11
684.5285129153719
 21
420.1867650172113
 31
0.0
  0
LINE
  5
3C24
330
1F
100
AcDbEntity
  8
0
  6
HIDDEN
 62
     5
 48
10.0
100
AcDbLine
 10
678.928512915372
 20
385.1867650172115
 30
0.0
 11
678.928512915372
 21
395.1867650172116
 31
0.0
  0
LINE
  5
3C25
330
1F
100
AcDbEntity
  8
0
  6
HIDDEN
 62
     5
 48
10.0
100
AcDbLine
 10
684.928512915372
 20
385.1867650172114
 30
0.0
 11
684.9285129153719
 21
395.1867650172115
 31
0.0
  0
LINE
  5
3C26
330
1F
100
AcDbEntity
  8
0
  6
HIDDEN
 62
     5
 48
10.0
100
AcDbLine
 10
677.428512915372
 20
420.1867650172113
 30
0.0
 11
677.428512915372
 21
427.1867650172113
 31
0.0
  0
LINE
  5
3C27
330
1F
100
AcDbEntity
  8
0
  6
HIDDEN
 62
     5
 48
10.0
100
AcDbLine
 10
686.4285129153719
 20
420.1867650172113
 30
0.0
 11
686.428512915372
 21
427.1867650172113
 31
0.0
  0
LINE
  5
3C28
330
1F
100
AcDbEntity
  8
0
  6
HIDDEN
 62
     5
 48
10.0
100
AcDbLine
 10
686.4285129153719
 20
420.1867650172113
 30
0.0
 11
677.428512915372
 21
420.1867650172113
 31
0.0
  0
LINE
  5
3C29
330
1F
100
AcDbEntity
  8
0
  6
HIDDEN
 62
     5
 48
10.0
100
AcDbLine
 10
678.9285129153721
 20
395.1867650172116
 30
0.0
 11
684.9285129153719
 21
395.1867650172115
 31
0.0
  0
LINE
  5
3C2A
330
1F
100
AcDbEntity
  8
0
  6
HIDDEN
 62
     5
 48
10.0
100
AcDbLine
 10
684.9285129153719
 20
410.1867650172114
 30
0.0
 11
678.928512915372
 21
410.1867650172113
 31
0.0
  0
LINE
  5
3C2C
330
1F
100
AcDbEntity
  8
0
  6
HIDDEN
 62
     5
 48
10.0
100
AcDbLine
 10
678.928512915372
 20
410.1867650172113
 30
0.0
 11
678.928512915372
 21
420.1867650172113
 31
0.0
  0
LINE
  5
3C2D
330
1F
100
AcDbEntity
  8
0
  6
HIDDEN
 62
     5
 48
10.0
100
AcDbLine
 10
684.9285129153719
 20
410.1867650172113
 30
0.0
 11
684.9285129153719
 21
420.1867650172113
 31
0.0
  0
LINE
  5
3C30
330
1F
100
AcDbEntity
  8
0
  6
HIDDEN
 62
     5
 48
10.0
100
AcDbLine
 10
645.9321079523424
 20
334.2922154443398
 30
0.0
 11
646.6046290192568
 21
334.964736511254
 31
0.0
  0
LINE
  5
3C31
330
1F
100
AcDbEntity
  8
0
  6
HIDDEN
 62
     5
 48
10.0
100
AcDbLine
 10
645.9285220945
 20
343.5669185910122
 30
0.0
 11
645.9285220945
 21
334.2907301333888
 31
0.0
  0
LINE
  5
3C32
330
1F
100
AcDbEntity
  8
0
  6
HIDDEN
 62
     5
 48
10.0
100
AcDbLine
 10
639.2060709009322
 20
334.7063731686329
 30
0.0
 11
639.2060709009322
 21
343.1512755557681
 31
0.0
  0
LINE
  5
3C33
330
1F
100
AcDbEntity
  8
0
  6
HIDDEN
 62
     5
 48
10.0
100
AcDbLine
 10
639.2060709009322
 20
334.7063731686329
 30
0.0
 11
647.4285220945001
 21
334.9935074914204
 31
0.0
  0
LINE
  5
3C34
330
1F
100
AcDbEntity
  8
0
  6
HIDDEN
 62
     5
 48
10.0
100
AcDbLine
 10
638.4285220945001
 20
333.9288243622005
 30
0.0
 11
639.2060709009322
 21
334.7063731686329
 31
0.0
  0
LINE
  5
3C35
330
1F
100
AcDbEntity
  8
0
  6
HIDDEN
 62
     5
 48
10.0
100
AcDbLine
 10
638.5321405300012
 20
334.0324427977019
 30
0.0
 11
645.9285220945
 21
334.2907301333888
 31
0.0
  0
LINE
  5
3C36
330
1F
100
AcDbEntity
  8
0
  6
HIDDEN
 62
     5
 48
10.0
100
AcDbLine
 10
645.9321079523427
 20
343.5654332800612
 30
0.0
 11
646.6046290192569
 21
342.892912213147
 31
0.0
  0
LINE
  5
3C37
330
1F
100
AcDbEntity
  8
0
  6
HIDDEN
 62
     5
 48
10.0
100
AcDbLine
 10
639.2060709009322
 20
343.1512755557684
 30
0.0
 11
647.4285220945001
 21
342.8641412329806
 31
0.0
  0
LINE
  5
3C38
330
1F
100
AcDbEntity
  8
0
  6
HIDDEN
 62
     5
 48
10.0
100
AcDbLine
 10
638.4285220945001
 20
343.9288243622005
 30
0.0
 11
639.2060709009322
 21
343.1512755557681
 31
0.0
  0
LINE
  5
3C39
330
1F
100
AcDbEntity
  8
0
  6
HIDDEN
 62
     5
 48
10.0
100
AcDbLine
 10
638.5321405300013
 20
343.8252059266991
 30
0.0
 11
645.9285220945
 21
343.5669185910122
 31
0.0
  0
LINE
  5
3C3A
330
1F
100
AcDbEntity
  8
0
  6
HIDDEN
 62
     5
 48
10.0
100
AcDbLine
 10
647.4285220945001
 20
339.6788243622005
 30
0.0
 11
648.9285220945001
 21
339.6788243622007
 31
0.0
  0
LINE
  5
3C3B
330
1F
100
AcDbEntity
  8
0
  6
HIDDEN
 62
     5
 48
10.0
100
AcDbLine
 10
647.4285220945001
 20
338.1788243622007
 30
0.0
 11
648.9285220945
 21
338.1788243622007
 31
0.0
  0
LINE
  5
3C3C
330
1F
100
AcDbEntity
  8
0
  6
HIDDEN
 62
     5
 48
10.0
100
AcDbLine
 10
647.4285220945001
 20
342.8641412329806
 30
0.0
 11
647.4285220945001
 21
334.9935074914204
 31
0.0
  0
LINE
  5
3C3D
330
1F
100
AcDbEntity
  8
0
  6
HIDDEN
 62
     5
 48
10.0
100
AcDbLine
 10
787.4626463227654
 20
334.2922154443398
 30
0.0
 11
788.1351673896797
 21
334.964736511254
 31
0.0
  0
LINE
  5
3C3E
330
1F
100
AcDbEntity
  8
0
  6
HIDDEN
 62
     5
 48
10.0
100
AcDbLine
 10
787.459060464923
 20
343.5669185910122
 30
0.0
 11
787.459060464923
 21
334.2907301333888
 31
0.0
  0
LINE
  5
3C3F
330
1F
100
AcDbEntity
  8
0
  6
HIDDEN
 62
     5
 48
10.0
100
AcDbLine
 10
780.7366092713551
 20
334.7063731686329
 30
0.0
 11
780.7366092713551
 21
343.1512755557681
 31
0.0
  0
LINE
  5
3C40
330
1F
100
AcDbEntity
  8
0
  6
HIDDEN
 62
     5
 48
10.0
100
AcDbLine
 10
780.7366092713551
 20
334.7063731686329
 30
0.0
 11
788.959060464923
 21
334.9935074914204
 31
0.0
  0
LINE
  5
3C41
330
1F
100
AcDbEntity
  8
0
  6
HIDDEN
 62
     5
 48
10.0
100
AcDbLine
 10
779.959060464923
 20
333.9288243622005
 30
0.0
 11
780.7366092713551
 21
334.7063731686329
 31
0.0
  0
LINE
  5
3C42
330
1F
100
AcDbEntity
  8
0
  6
HIDDEN
 62
     5
 48
10.0
100
AcDbLine
 10
780.0626789004241
 20
334.0324427977019
 30
0.0
 11
787.459060464923
 21
334.2907301333888
 31
0.0
  0
LINE
  5
3C43
330
1F
100
AcDbEntity
  8
0
  6
HIDDEN
 62
     5
 48
10.0
100
AcDbLine
 10
787.4626463227656
 20
343.5654332800612
 30
0.0
 11
788.1351673896798
 21
342.892912213147
 31
0.0
  0
LINE
  5
3C44
330
1F
100
AcDbEntity
  8
0
  6
HIDDEN
 62
     5
 48
10.0
100
AcDbLine
 10
780.7366092713551
 20
343.1512755557684
 30
0.0
 11
788.959060464923
 21
342.8641412329806
 31
0.0
  0
LINE
  5
3C45
330
1F
100
AcDbEntity
  8
0
  6
HIDDEN
 62
     5
 48
10.0
100
AcDbLine
 10
779.959060464923
 20
343.9288243622005
 30
0.0
 11
780.7366092713551
 21
343.1512755557681
 31
0.0
  0
LINE
  5
3C46
330
1F
100
AcDbEntity
  8
0
  6
HIDDEN
 62
     5
 48
10.0
100
AcDbLine
 10
780.0626789004243
 20
343.8252059266991
 30
0.0
 11
787.459060464923
 21
343.5669185910122
 31
0.0
  0
LINE
  5
3C47
330
1F
100
AcDbEntity
  8
0
  6
HIDDEN
 62
     5
 48
10.0
100
AcDbLine
 10
788.959060464923
 20
339.6788243622005
 30
0.0
 11
790.4590604649231
 21
339.6788243622007
 31
0.0
  0
LINE
  5
3C48
330
1F
100
AcDbEntity
  8
0
  6
HIDDEN
 62
     5
 48
10.0
100
AcDbLine
 10
788.959060464923
 20
338.1788243622007
 30
0.0
 11
790.459060464923
 21
338.1788243622007
 31
0.0
  0
LINE
  5
3C49
330
1F
100
AcDbEntity
  8
0
  6
HIDDEN
 62
     5
 48
10.0
100
AcDbLine
 10
788.959060464923
 20
342.8641412329806
 30
0.0
 11
788.959060464923
 21
334.9935074914204
 31
0.0
  0
LINE
  5
3C4A
330
1F
100
AcDbEntity
  8
0
  6
HIDDEN
 62
     5
 48
10.0
100
AcDbLine
 10
818.959051285795
 20
385.1867650172115
 30
0.0
 11
827.959051285795
 21
385.1867650172114
 31
0.0
  0
LINE
  5
3C4B
330
1F
100
AcDbEntity
  8
0
  6
HIDDEN
 62
     5
 48
10.0
100
AcDbLine
 10
820.4590512857953
 20
395.1867650172116
 30
0.0
 11
826.4590512857949
 21
395.1867650172115
 31
0.0
  0
LINE
  5
3C4C
330
1F
100
AcDbEntity
  8
0
  6
HIDDEN
 62
     5
 48
10.0
100
AcDbLine
 10
827.959051285795
 20
420.1867650172113
 30
0.0
 11
818.959051285795
 21
420.1867650172113
 31
0.0
  0
LINE
  5
3C4D
330
1F
100
AcDbEntity
  8
0
  6
HIDDEN
 62
     5
 48
10.0
100
AcDbLine
 10
826.4590512857949
 20
410.1867650172114
 30
0.0
 11
820.4590512857951
 21
410.1867650172113
 31
0.0
  0
LINE
  5
3C4E
330
1F
100
AcDbEntity
  8
AM_7
 48
7.0
100
AcDbLine
 10
823.459051285795
 20
375.396616367621
 30
0.0
 11
823.459051285795
 21
429.5432953431863
 31
0.0
  0
LINE
  5
3C4F
330
1F
100
AcDbEntity
  8
0
  6
HIDDEN
 62
     5
 48
10.0
100
AcDbLine
 10
827.959051285795
 20
420.1867650172113
 30
0.0
 11
827.959051285795
 21
427.1867650172113
 31
0.0
  0
LINE
  5
3C50
330
1F
100
AcDbEntity
  8
0
  6
HIDDEN
 62
     5
 48
10.0
100
AcDbLine
 10
818.959051285795
 20
420.1867650172113
 30
0.0
 11
818.959051285795
 21
427.1867650172113
 31
0.0
  0
LINE
  5
3C51
330
1F
100
AcDbEntity
  8
0
  6
HIDDEN
 62
     5
 48
10.0
100
AcDbLine
 10
826.4590512857951
 20
385.1867650172114
 30
0.0
 11
826.4590512857949
 21
395.1867650172115
 31
0.0
  0
LINE
  5
3C52
330
1F
100
AcDbEntity
  8
0
  6
HIDDEN
 62
     5
 48
10.0
100
AcDbLine
 10
826.4590512857949
 20
410.1867650172113
 30
0.0
 11
826.4590512857949
 21
420.1867650172113
 31
0.0
  0
LINE
  5
3C53
330
1F
100
AcDbEntity
  8
0
  6
HIDDEN
 62
     5
 48
10.0
100
AcDbLine
 10
820.4590512857951
 20
385.1867650172115
 30
0.0
 11
820.4590512857951
 21
395.1867650172116
 31
0.0
  0
LINE
  5
3C54
330
1F
100
AcDbEntity
  8
0
  6
HIDDEN
 62
     5
 48
10.0
100
AcDbLine
 10
820.4590512857951
 20
410.1867650172113
 30
0.0
 11
820.4590512857951
 21
420.1867650172113
 31
0.0
  0
LINE
  5
3C55
330
1F
100
AcDbEntity
  8
0
  6
HIDDEN
 62
     5
 48
10.0
100
AcDbLine
 10
826.0590512857952
 20
385.1867650172114
 30
0.0
 11
826.059051285795
 21
420.1867650172113
 31
0.0
  0
LINE
  5
3C56
330
1F
100
AcDbEntity
  8
0
  6
HIDDEN
 62
     5
 48
10.0
100
AcDbLine
 10
820.8590512857949
 20
385.1867650172115
 30
0.0
 11
820.8590512857949
 21
420.1867650172113
 31
0.0
  0
LINE
  5
3C57
330
1F
100
AcDbEntity
  8
0
  6
HIDDEN
 62
     5
 48
10.0
100
AcDbLine
 10
827.959051285795
 20
378.1867650172114
 30
0.0
 11
827.959051285795
 21
385.1867650172115
 31
0.0
  0
LINE
  5
3C58
330
1F
100
AcDbEntity
  8
0
  6
HIDDEN
 62
     5
 48
10.0
100
AcDbLine
 10
818.959051285795
 20
378.1867650172114
 30
0.0
 11
818.959051285795
 21
385.1867650172115
 31
0.0
  0
TEXT
  5
3C5C
330
1F
100
AcDbEntity
  8
0
 62
     5
100
AcDbText
 10
610.7850643699041
 20
393.9724350186548
 30
0.0
 40
3.0
  1
附磁型：59
 50
90.0
100
AcDbText
  0
DIMENSION
  5
3CBA
102
{ACAD_XDICTIONARY
360
3CC7
102
}
102
{ACAD_REACTORS
330
3CD1
102
}
330
1F
100
AcDbEntity
  8
0
100
AcDbDimension
  2
*D24
 10
806.4590512857948
 20
368.0192356760459
 30
0.0
 11
836.0046508330791
 21
368.0192356760459
 31
0.0
 70
   160
 71
     5
 42
61.80000000000006
  3
ISO-25
100
AcDbAlignedDimension
 13
868.2590512857949
 23
346.572509820252
 33
0.0
 14
806.4590512857948
 24
364.0923058896407
 34
0.0
100
AcDbRotatedDimension
1001
ACAD
1000
DSTYLE
1002
{
1070
   271
1070
     1
1070
   279
1070
     0
1002
}
  0
TEXT
  5
3D1B
330
1F
100
AcDbEntity
  8
0
 62
     5
100
AcDbText
 10
771.5676024800444
 20
422.6123832436699
 30
0.0
 40
3.0
  1
附磁型：111
 50
90.0
100
AcDbText
  0
DIMENSION
  5
3D2F
102
{ACAD_XDICTIONARY
360
3D3C
102
}
102
{ACAD_REACTORS
330
3D46
102
}
330
1F
100
AcDbEntity
  8
0
100
AcDbDimension
  2
*D25
 10
878.3172580222023
 20
378.1867650172114
 30
0.0
 11
878.3172580222023
 21
413.7018115780048
 31
0.0
 70
   160
  1
不附磁型：71.6
 71
     5
 42
71.0300931215869
  3
ISO-25
100
AcDbAlignedDimension
 13
868.1049437798096
 23
449.2168581387982
 33
0.0
 14
828.4590512857951
 24
378.1867650172114
 34
0.0
 50
90.0
100
AcDbRotatedDimension
1001
ACAD
1000
DSTYLE
1002
{
1070
   271
1070
     0
1070
   279
1070
     0
1002
}
  0
TEXT
  5
3D76
330
1F
100
AcDbEntity
  8
0
 62
     5
100
AcDbText
 10
883.0217894158794
 20
405.7320454178261
 30
0.0
 40
3.0
  1
附磁型：81.6
 50
90.0
100
AcDbText
  0
LINE
  5
3DA7
330
1F
100
AcDbEntity
  8
AM_VIS
100
AcDbLine
 10
818.5939612977891
 20
447.8216750292059
 30
0.0
 11
818.4590512857946
 21
447.6867650172113
 31
0.0
  0
LINE
  5
3DA8
330
1F
100
AcDbEntity
  8
AM_VIS
100
AcDbLine
 10
818.4590512857946
 20
446.6867650172114
 30
0.0
 11
818.5639557469261
 21
446.5818605560797
 31
0.0
  0
LINE
  5
3DA9
330
1F
100
AcDbEntity
  8
AM_VIS
100
AcDbLine
 10
818.4590512857946
 20
445.5033898075663
 30
0.0
 11
818.4590512857946
 21
446.6867650172114
 31
0.0
  0
LINE
  5
3DAA
330
1F
100
AcDbEntity
  8
AM_VIS
100
AcDbLine
 10
818.4590512857946
 20
446.6867650172114
 30
0.0
 11
818.4590512857946
 21
447.6867650172113
 31
0.0
  0
TEXT
  5
3E69
330
1F
100
AcDbEntity
  8
LOGO
 62
     7
100
AcDbText
 10
604.9628257252386
 20
252.1922255325366
 30
0.0
 40
3.999420814479637
  1
Order example:
 41
0.8
  7
CHINESET
100
AcDbText
  0
TEXT
  5
3E6A
330
1F
100
AcDbEntity
  8
LOGO
 62
     7
100
AcDbText
 10
605.6803548932209
 20
257.8225819486779
 30
0.0
 40
5.999131221719456
  1
訂購代號：
  7
CHINESET
100
AcDbText
  0
LINE
  5
3E6B
330
1F
100
AcDbEntity
  8
LOGO
 62
     4
100
AcDbLine
 10
603.2250638160917
 20
235.3371559454116
 30
0.0
 11
603.2250638160917
 21
265.3328120540091
 31
0.0
  0
TEXT
  5
3E6C
330
1F
100
AcDbEntity
  8
LOGO
  6
Continuous
100
AcDbText
 10
548.0091948844687
 20
241.2297573205536
 30
0.0
 40
4.499348416289592
  1
金器工業股份有限公司
  7
CHINESET
100
AcDbText
  0
TEXT
  5
3E6D
330
1F
100
AcDbEntity
  8
LOGO
  6
Continuous
100
AcDbText
 10
539.7447819959313
 20
236.729527384737
 30
0.0
 40
2.999565610859728
  1
MINDMAN INDUSTRIAL CO., LTD.
 41
0.85
  7
CHINESET
100
AcDbText
  0
LINE
  5
3E6E
330
1F
100
AcDbEntity
  8
LOGO
 62
     4
100
AcDbLine
 10
603.2250638160917
 20
259.3336808322896
 30
0.0
 11
559.2314348568154
 21
259.3336808322896
 31
0.0
  0
LINE
  5
3E6F
330
1F
100
AcDbEntity
  8
LOGO
 62
     4
100
AcDbLine
 10
603.2250638160917
 20
253.3345496105701
 30
0.0
 11
559.2314348568154
 21
253.3345496105701
 31
0.0
  0
LINE
  5
3E70
330
1F
100
AcDbEntity
  8
LOGO
 62
     4
100
AcDbLine
 10
603.2250638160917
 20
247.3354183888509
 30
0.0
 11
537.2346203771776
 21
247.3354183888509
 31
0.0
  0
LINE
  5
3E71
330
1F
100
AcDbEntity
  8
LOGO
 62
     4
100
AcDbLine
 10
559.2314348568154
 20
247.3354183888509
 30
0.0
 11
559.2314348568154
 21
265.3328120540091
 31
0.0
  0
TEXT
  5
3E72
330
1F
100
AcDbEntity
  8
LOGO
100
AcDbText
 10
589.2990037828224
 20
248.8352011942803
 30
0.0
 40
2.999565610859728
  1
mm
  7
CHINESET
 72
     1
 11
593.0127516819821
 21
250.3349839997102
 31
0.0
100
AcDbText
 73
     2
  0
TEXT
  5
3E73
330
1F
100
AcDbEntity
  8
LOGO
100
AcDbText
 10
587.7278027485625
 20
260.8334636377193
 30
0.0
 40
2.999565610859728
  1
1 : 1
  7
CHINESET
 72
     1
 11
593.0127516819821
 21
262.3332464431491
 31
0.0
100
AcDbText
 73
     2
  0
LINE
  5
3E74
330
1F
100
AcDbEntity
  8
LOGO
 62
     4
100
AcDbLine
 10
583.2279597436934
 20
247.3354183888509
 30
0.0
 11
583.2279597436934
 21
265.3328120540091
 31
0.0
  0
TEXT
  5
3E75
330
1F
100
AcDbEntity
  8
LOGO
100
AcDbText
 10
561.7047373939842
 20
260.8349398018979
 30
196.5865886400747
 40
2.999565610859728
  1
比例 Scale:
 41
0.9
  7
CHINESET
 72
     4
 11
571.2296973002544
 21
262.3332464431491
 31
196.5865886400747
100
AcDbText
  0
TEXT
  5
3E76
330
1F
100
AcDbEntity
  8
LOGO
100
AcDbText
 10
561.5319945530017
 20
254.8765261087707
 30
196.5865886400747
 40
2.999565610859728
  1
投影  View:
 41
0.9
  7
CHINESET
 72
     4
 11
571.2296973002544
 21
256.3341152214297
 31
196.5865886400747
100
AcDbText
  0
TEXT
  5
3E77
330
1F
100
AcDbEntity
  8
LOGO
100
AcDbText
 10
561.8252556551348
 20
248.8352011942803
 30
196.5865886400747
 40
2.999565610859728
  1
單位  Unit:
 41
0.9
  7
CHINESET
 72
     4
 11
571.2296973002544
 21
250.3349839997102
 31
196.5865886400747
100
AcDbText
  0
LWPOLYLINE
  5
3E78
330
1F
100
AcDbEntity
  8
LOGO
 62
     4
100
AcDbPolyline
 90
        4
 70
     1
 43
0.0
 10
537.2346203771776
 20
265.3328120540091
 10
949.7346203771776
 20
265.3328120540091
 10
949.7346203771776
 20
535.337155945411
 10
537.2346203771776
 20
535.337155945411
1001
GENIUS_GENREC_14
1002
{
1000
PYDIR
1011
537.2346203771776
1021
535.337155945411
1031
0.0
1002
}
1002
{
1000
PXDIR
1011
949.7346203771776
1021
265.3328120540091
1031
0.0
1002
}
1002
{
1000
PORI
1011
537.2346203771776
1021
265.3328120540091
1031
0.0
1002
}
1002
{
1000
PINS
1011
537.2346203771776
1021
265.3328120540091
1031
0.0
1002
}
1002
{
1000
PINS2
1011
949.7346203771776
1021
535.337155945411
1031
0.0
1002
}
1002
{
1000
C
1070
     1
1002
}
1001
GENIUS_GENODEF_13
1002
{
1000
HIER
1070
     0
1002
}
1002
{
1000
MANEDIT
1070
     0
1002
}
1002
{
1000
NOSEL
1070
     0
1002
}
1002
{
1000
BEHIND
1070
     0
1002
}
1002
{
1000
OTHER
1070
     0
1002
}
1002
{
1000
REACTOR
1002
}
1001
GENIUS_GENOBJ-N-REC_13
1002
{
1000
OWNER
1000
GEN
1002
}
  0
SOLID
  5
3E79
330
1F
100
AcDbEntity
  8
LOGO
 62
     5
100
AcDbTrace
 10
540.3467178378109
 20
252.321769262361
 30
0.0
 11
541.643651299345
 21
252.3217692623607
 31
0.0
 12
547.0549943629871
 22
264.6202762251848
 32
0.0
 13
548.3519278245219
 23
264.6202762251842
 33
0.0
  0
SOLID
  5
3E7A
330
1F
100
AcDbEntity
  8
LOGO
 62
     5
100
AcDbTrace
 10
542.1803134213605
 20
252.321769262361
 30
0.0
 11
543.4772468828946
 21
252.321769262361
 31
0.0
 12
548.3519278245219
 22
263.6363956681584
 32
0.0
 13
547.0549943629871
 23
258.8809729758666
 33
0.0
  0
SOLID
  5
3E7B
330
1F
100
AcDbEntity
  8
LOGO
 62
     2
100
AcDbTrace
 10
541.643651299345
 20
252.3217692623607
 30
0.0
 11
542.1803134213605
 21
252.321769262361
 31
0.0
 12
548.3519278245219
 22
264.6202762251842
 32
0.0
 13
548.8885899465367
 23
264.6202762251842
 33
0.0
  0
SOLID
  5
3E7C
330
1F
100
AcDbEntity
  8
LOGO
 62
     5
100
AcDbTrace
 10
538.2674154519284
 20
247.8495849122437
 30
0.0
 11
538.7146338869406
 21
247.8495849122437
 31
0.0
 12
539.9740358086348
 22
250.0856770873022
 32
0.0
 13
540.4212542436457
 23
250.0856770873022
 33
0.0
  0
SOLID
  5
3E7D
330
1F
100
AcDbEntity
  8
LOGO
 62
     5
100
AcDbTrace
 10
539.9740358086348
 20
250.0856770873022
 30
0.0
 11
540.4212542436457
 21
250.0856770873022
 31
0.0
 12
539.9740358086348
 22
247.8495849122437
 32
0.0
 13
540.4212542436457
 23
247.8495849122437
 33
0.0
  0
SOLID
  5
3E7E
330
1F
100
AcDbEntity
  8
LOGO
 62
     5
100
AcDbTrace
 10
539.9740358086348
 20
247.8495849122437
 30
0.0
 11
540.4212542436457
 21
247.8495849122437
 31
0.0
 12
541.680656165342
 22
250.0856770873022
 32
0.0
 13
542.1278746003536
 23
250.0856770873022
 33
0.0
  0
SOLID
  5
3E7F
330
1F
100
AcDbEntity
  8
LOGO
 62
     5
100
AcDbTrace
 10
541.680656165342
 20
250.0856770873022
 30
0.0
 11
542.1278746003536
 21
250.0856770873022
 31
0.0
 12
541.680656165342
 22
247.8495849122437
 32
0.0
 13
542.1278746003536
 23
247.8495849122437
 33
0.0
  0
POLYLINE
  5
3E80
330
1F
100
AcDbEntity
  8
LOGO
 62
     5
100
AcDb2dPolyline
 66
     1
 10
0.0
 20
0.0
 30
0.0
 40
0.4479351312217194
 41
0.4479351312217194
  0
VERTEX
  5
3E81
330
3E80
100
AcDbEntity
  8
LOGO
 62
     5
100
AcDbVertex
100
AcDb2dVertex
 10
556.6712657600562
 20
249.1912402172787
 30
0.0
 42
1.0
  0
VERTEX
  5
3E82
330
3E80
100
AcDbEntity
  8
LOGO
 62
     5
100
AcDbVertex
100
AcDb2dVertex
 10
555.3274603663908
 20
249.1912402172787
 30
0.0
 42
1.0
  0
SEQEND
  5
3E83
330
3E80
100
AcDbEntity
  8
LOGO
 62
     5
  0
POLYLINE
  5
3E84
330
1F
100
AcDbEntity
  8
LOGO
 62
     5
100
AcDb2dPolyline
 66
     1
 10
0.0
 20
0.0
 30
0.0
 70
     1
  0
VERTEX
  5
3E85
330
3E84
100
AcDbEntity
  8
LOGO
 62
     5
100
AcDbVertex
100
AcDb2dVertex
 10
552.7943274268673
 20
248.9676309997726
 30
0.0
 42
1.000000057330635
  0
VERTEX
  5
3E86
330
3E84
100
AcDbEntity
  8
LOGO
 62
     5
100
AcDbVertex
100
AcDb2dVertex
 10
554.1359827319026
 20
248.9676309997726
 30
0.0
 42
1.000000057330635
  0
SEQEND
  5
3E87
330
3E84
100
AcDbEntity
  8
LOGO
 62
     5
  0
CIRCLE
  5
3E88
330
1F
100
AcDbEntity
  8
LOGO
 62
     5
100
AcDbCircle
 10
553.465155079386
 20
248.9676309997726
 30
0.0
 40
0.6708276525176471
  0
POLYLINE
  5
3E89
330
1F
100
AcDbEntity
  8
LOGO
 62
     5
100
AcDb2dPolyline
 66
     1
 10
0.0
 20
0.0
 30
0.0
 70
     1
 40
0.4479351312217194
 41
0.4479351312217194
  0
VERTEX
  5
3E8A
330
3E89
100
AcDbEntity
  8
LOGO
 62
     5
100
AcDbVertex
100
AcDb2dVertex
 10
552.5692848169419
 20
248.9676309997726
 30
0.0
 42
1.0
  0
VERTEX
  5
3E8B
330
3E89
100
AcDbEntity
  8
LOGO
 62
     5
100
AcDbVertex
100
AcDb2dVertex
 10
554.3610253418287
 20
248.9676309997726
 30
0.0
 42
1.0
  0
SEQEND
  5
3E8C
330
3E89
100
AcDbEntity
  8
LOGO
 62
     5
  0
LINE
  5
3E8D
330
1F
100
AcDbEntity
  8
LOGO
100
AcDbLine
 10
556.8937999332463
 20
247.8495849122437
 30
0.0
 11
556.8937999332463
 21
249.1912402172787
 31
0.0
  0
SOLID
  5
3E8E
330
1F
100
AcDbEntity
  8
LOGO
 62
     5
100
AcDbTrace
 10
554.1359380100612
 20
250.0856770873022
 30
0.0
 11
554.583156445072
 21
250.0856770873022
 31
0.0
 12
554.1359380100612
 22
247.8495849122437
 32
0.0
 13
554.583156445072
 23
247.8495849122437
 33
0.0
  0
SOLID
  5
3E8F
330
1F
100
AcDbEntity
  8
LOGO
 62
     5
100
AcDbTrace
 10
555.1049261931994
 20
247.8495849122437
 30
0.0
 11
555.5521446282116
 21
247.8495849122437
 31
0.0
 12
555.1049261931994
 22
250.0856770873022
 32
0.0
 13
555.5521446282116
 23
250.0856770873022
 33
0.0
  0
SOLID
  5
3E90
330
1F
100
AcDbEntity
  8
LOGO
 62
     5
100
AcDbTrace
 10
556.4465814982354
 20
249.1912402172787
 30
0.0
 11
556.8937999332463
 21
249.1912402172787
 31
0.0
 12
556.4465814982354
 22
247.8495849122437
 32
0.0
 13
556.8937999332463
 23
247.8495849122437
 33
0.0
  0
SOLID
  5
3E91
330
1F
100
AcDbEntity
  8
LOGO
 62
     5
100
AcDbTrace
 10
555.060204349698
 20
263.6363956681584
 30
0.0
 11
553.7632708881647
 21
258.8809729758666
 31
0.0
 12
555.060204349698
 22
252.3217692623607
 32
0.0
 13
553.7632708881647
 23
252.3217692623607
 33
0.0
  0
SOLID
  5
3E92
330
1F
100
AcDbEntity
  8
LOGO
 62
     5
100
AcDbTrace
 10
555.5968664717129
 20
252.3217692623607
 30
0.0
 11
556.8937999332463
 21
252.3217692623607
 31
0.0
 12
555.5968664717129
 22
264.6202762251842
 32
0.0
 13
556.8937999332463
 23
264.6202762251848
 33
0.0
  0
SOLID
  5
3E93
330
1F
100
AcDbEntity
  8
LOGO
 62
     2
100
AcDbTrace
 10
555.060204349698
 20
264.6202762251848
 30
0.0
 11
555.5968664717129
 21
264.6202762251842
 31
0.0
 12
555.060204349698
 22
252.3217692623607
 32
0.0
 13
555.5968664717129
 23
252.3217692623607
 33
0.0
  0
POLYLINE
  5
3E94
330
1F
100
AcDbEntity
  8
LOGO
 62
     5
100
AcDb2dPolyline
 66
     1
 10
0.0
 20
0.0
 30
0.0
 40
0.4479351312217194
 41
0.4479351312217194
  0
VERTEX
  5
3E95
330
3E94
100
AcDbEntity
  8
LOGO
 62
     5
100
AcDbVertex
100
AcDb2dVertex
 10
550.2611050436587
 20
249.1912402172787
 30
0.0
 42
1.0
  0
VERTEX
  5
3E96
330
3E94
100
AcDbEntity
  8
LOGO
 62
     5
100
AcDbVertex
100
AcDb2dVertex
 10
548.9172996499933
 20
249.1912402172787
 30
0.0
 42
1.0
  0
SEQEND
  5
3E97
330
3E94
100
AcDbEntity
  8
LOGO
 62
     5
  0
POLYLINE
  5
3E98
330
1F
100
AcDbEntity
  8
LOGO
 62
     5
100
AcDb2dPolyline
 66
     1
 10
0.0
 20
0.0
 30
0.0
 40
0.4479351312217194
 41
0.4479351312217194
  0
VERTEX
  5
3E99
330
3E98
100
AcDbEntity
  8
LOGO
 62
     5
100
AcDbVertex
100
AcDb2dVertex
 10
551.6027603486927
 20
249.1912402172787
 30
0.0
 42
1.0
  0
VERTEX
  5
3E9A
330
3E98
100
AcDbEntity
  8
LOGO
 62
     5
100
AcDbVertex
100
AcDb2dVertex
 10
550.258954955028
 20
249.1912402172787
 30
0.0
 42
1.0
  0
SEQEND
  5
3E9B
330
3E98
100
AcDbEntity
  8
LOGO
 62
     5
  0
POLYLINE
  5
3E9C
330
1F
100
AcDbEntity
  8
LOGO
 62
     5
100
AcDb2dPolyline
 66
     1
 10
0.0
 20
0.0
 30
0.0
 40
0.4479351312217194
 41
0.4479351312217194
  0
VERTEX
  5
3E9D
330
3E9C
100
AcDbEntity
  8
LOGO
 62
     5
100
AcDbVertex
100
AcDb2dVertex
 10
545.1925996322952
 20
249.1912402172787
 30
0.0
 42
1.0
  0
VERTEX
  5
3E9E
330
3E9C
100
AcDbEntity
  8
LOGO
 62
     5
100
AcDbVertex
100
AcDb2dVertex
 10
543.8487942386305
 20
249.1912402172787
 30
0.0
 42
1.0
  0
SEQEND
  5
3E9F
330
3E9C
100
AcDbEntity
  8
LOGO
 62
     5
  0
SOLID
  5
3EA0
330
1F
100
AcDbEntity
  8
LOGO
 62
     5
100
AcDbTrace
 10
543.6262600654397
 20
250.0856770873022
 30
0.0
 11
544.0734785004506
 21
250.0856770873022
 31
0.0
 12
543.6262600654397
 22
247.8495849122437
 32
0.0
 13
544.0734785004506
 23
247.8495849122437
 33
0.0
  0
SOLID
  5
3EA1
330
1F
100
AcDbEntity
  8
LOGO
 62
     5
100
AcDbTrace
 10
544.967915370475
 20
249.1912402172787
 30
0.0
 11
545.4151338054873
 21
249.1912402172787
 31
0.0
 12
544.967915370475
 22
247.8495849122437
 32
0.0
 13
545.4151338054873
 23
247.8495849122437
 33
0.0
  0
POLYLINE
  5
3EA2
330
1F
100
AcDbEntity
  8
LOGO
 62
     5
100
AcDb2dPolyline
 66
     1
 10
0.0
 20
0.0
 30
0.0
 70
     1
 40
0.4479351312217194
 41
0.4479351312217194
  0
VERTEX
  5
3EA3
330
3EA2
100
AcDbEntity
  8
LOGO
 62
     5
100
AcDbVertex
100
AcDb2dVertex
 10
546.1591241005437
 20
248.9676309997726
 30
0.0
 42
1.0
  0
VERTEX
  5
3EA4
330
3EA2
100
AcDbEntity
  8
LOGO
 62
     5
100
AcDbVertex
100
AcDb2dVertex
 10
547.9508646254312
 20
248.9676309997726
 30
0.0
 42
1.0
  0
SEQEND
  5
3EA5
330
3EA2
100
AcDbEntity
  8
LOGO
 62
     5
  0
SOLID
  5
3EA6
330
1F
100
AcDbEntity
  8
LOGO
 62
     5
100
AcDbTrace
 10
547.7257772936622
 20
250.7565047398202
 30
0.0
 11
548.1729957286738
 21
250.7565047398202
 31
0.0
 12
547.7257772936622
 22
247.8495849122437
 32
0.0
 13
548.1729957286738
 23
247.8495849122437
 33
0.0
  0
SOLID
  5
3EA7
330
1F
100
AcDbEntity
  8
LOGO
 62
     5
100
AcDbTrace
 10
548.6947654768032
 20
250.0856770873022
 30
0.0
 11
549.1419839118141
 21
250.0856770873022
 31
0.0
 12
548.6947654768032
 22
247.8495849122437
 32
0.0
 13
549.1419839118141
 23
247.8495849122437
 33
0.0
  0
SOLID
  5
3EA8
330
1F
100
AcDbEntity
  8
LOGO
 62
     5
100
AcDbTrace
 10
550.0364207818372
 20
249.1912402172787
 30
0.0
 11
550.4836392168495
 21
249.1912402172787
 31
0.0
 12
550.0364207818372
 22
247.8495849122437
 32
0.0
 13
550.4836392168495
 23
247.8495849122437
 33
0.0
  0
SOLID
  5
3EA9
330
1F
100
AcDbEntity
  8
LOGO
 62
     5
100
AcDbTrace
 10
551.3780760868725
 20
249.1912402172787
 30
0.0
 11
551.8252945218842
 21
249.1912402172787
 31
0.0
 12
551.3780760868725
 22
247.849584912243
 32
0.0
 13
551.8252945218842
 23
247.849584912243
 33
0.0
  0
SOLID
  5
3EAA
330
1F
100
AcDbEntity
  8
LOGO
 62
     5
100
AcDbTrace
 10
542.6572718822995
 20
250.3987299918106
 30
0.0
 11
543.1044903173123
 21
250.3987299918106
 31
0.0
 12
542.6572718822995
 22
250.7565047398202
 32
0.0
 13
543.1044903173123
 23
250.7565047398202
 33
0.0
  0
SOLID
  5
3EAB
330
1F
100
AcDbEntity
  8
LOGO
 62
     5
100
AcDbTrace
 10
542.6572718822995
 20
250.0856770873022
 30
0.0
 11
543.1044903173123
 21
250.0856770873022
 31
0.0
 12
542.6572718822995
 22
247.849584912243
 32
0.0
 13
543.1044903173123
 23
247.8495849122437
 33
0.0
  0
SOLID
  5
3EAC
330
1F
100
AcDbEntity
  8
LOGO
 62
     5
100
AcDbTrace
 10
547.0549943629871
 20
252.321769262361
 30
0.0
 11
548.3519278245219
 21
252.321769262361
 31
0.0
 12
547.0549943629871
 22
258.8809729758666
 32
0.0
 13
548.3519278245219
 23
263.6363956681584
 33
0.0
  0
SOLID
  5
3EAD
330
1F
100
AcDbEntity
  8
LOGO
 62
     5
100
AcDbTrace
 10
548.8885899465367
 20
264.6202762251842
 30
0.0
 11
550.1855234080701
 21
264.6202762251848
 31
0.0
 12
548.8885899465367
 22
253.3056498193868
 32
0.0
 13
550.1855234080701
 23
258.0610725116786
 33
0.0
  0
SOLID
  5
3EAE
330
1F
100
AcDbEntity
  8
LOGO
 62
     2
100
AcDbTrace
 10
548.3519278245219
 20
264.6202762251842
 30
0.0
 11
548.8885899465367
 21
264.6202762251842
 31
0.0
 12
548.3519278245219
 22
252.321769262361
 32
0.0
 13
548.8885899465367
 23
252.321769262361
 33
0.0
  0
SOLID
  5
3EAF
330
1F
100
AcDbEntity
  8
LOGO
 62
     5
100
AcDbTrace
 10
548.8885899465367
 20
253.3056498193868
 30
0.0
 11
550.1855234080701
 21
258.0610725116786
 31
0.0
 12
555.060204349698
 22
264.6202762251848
 32
0.0
 13
553.7632708881647
 23
264.6202762251848
 33
0.0
  0
SOLID
  5
3EB0
330
1F
100
AcDbEntity
  8
LOGO
 62
     5
100
AcDbTrace
 10
548.8885899465367
 20
252.321769262361
 30
0.0
 11
550.1855234080701
 21
252.321769262361
 31
0.0
 12
555.060204349698
 22
263.6363956681584
 32
0.0
 13
553.7632708881647
 23
258.8809729758666
 33
0.0
  0
SOLID
  5
3EB1
330
1F
100
AcDbEntity
  8
LOGO
 62
     2
100
AcDbTrace
 10
548.3519278245219
 20
252.321769262361
 30
0.0
 11
548.8885899465367
 21
252.321769262361
 31
0.0
 12
555.060204349698
 22
264.6202762251848
 32
0.0
 13
555.5968664717129
 23
264.6202762251842
 33
0.0
  0
LWPOLYLINE
  5
3EB2
330
1F
100
AcDbEntity
  8
LOGO
 62
     4
100
AcDbPolyline
 90
        4
 70
     1
 43
0.0
 10
537.2346203771776
 20
265.3328120540091
 10
949.7346203771776
 20
265.3328120540091
 10
949.7346203771776
 20
235.3371559454113
 10
537.2346203771776
 20
235.3371559454113
1001
GENIUS_GENREC_14
1002
{
1000
PYDIR
1011
537.2346203771776
1021
235.3371559454113
1031
0.0
1002
}
1002
{
1000
PXDIR
1011
949.7346203771776
1021
265.3328120540091
1031
0.0
1002
}
1002
{
1000
PORI
1011
537.2346203771776
1021
265.3328120540091
1031
0.0
1002
}
1002
{
1000
PINS
1011
537.2346203771776
1021
265.3328120540091
1031
0.0
1002
}
1002
{
1000
PINS2
1011
949.7346203771776
1021
235.3371559454113
1031
0.0
1002
}
1002
{
1000
C
1070
     1
1002
}
1001
GENIUS_GENOBJ-N-REC_13
1002
{
1000
OWNER
1000
GEN
1002
}
1001
GENIUS_GENODEF_13
1002
{
1000
HIER
1070
     0
1002
}
1002
{
1000
MANEDIT
1070
     0
1002
}
1002
{
1000
NOSEL
1070
     0
1002
}
1002
{
1000
BEHIND
1070
     0
1002
}
1002
{
1000
OTHER
1070
     0
1002
}
1002
{
1000
REACTOR
1002
}
  0
LINE
  5
3EB3
330
1F
100
AcDbEntity
  8
LOGO
 62
     4
100
AcDbLine
 10
664.4798615910652
 20
248.8352011942809
 30
0.0
 11
664.4798615910652
 21
237.8367939544613
 31
0.0
  0
LINE
  5
3EB4
330
1F
100
AcDbEntity
  8
LOGO
 62
     4
100
AcDbLine
 10
644.4827575186669
 20
248.8352011942809
 30
0.0
 11
644.4827575186669
 21
237.8367939544613
 31
0.0
  0
LINE
  5
3EB5
330
1F
100
AcDbEntity
  8
LOGO
 62
     4
100
AcDbLine
 10
664.4798615910652
 20
237.8367939544613
 30
0.0
 11
644.4827575186669
 21
237.8367939544613
 31
0.0
  0
LINE
  5
3EB6
330
1F
100
AcDbEntity
  8
LOGO
 62
     4
100
AcDbLine
 10
668.0665547257745
 20
262.3332464431491
 30
0.0
 11
644.4827575186669
 21
262.3332464431491
 31
0.0
  0
LINE
  5
3EB7
330
1F
100
AcDbEntity
  8
LOGO
 62
     4
100
AcDbLine
 10
668.0665547257745
 20
253.3345496105701
 30
0.0
 11
644.4827575186669
 21
253.3345496105701
 31
0.0
  0
LINE
  5
3EB8
330
1F
100
AcDbEntity
  8
LOGO
 62
     4
100
AcDbLine
 10
644.4827575186669
 20
262.3332464431491
 30
0.0
 11
644.4827575186669
 21
253.3345496105701
 31
0.0
  0
LINE
  5
3EB9
330
1F
100
AcDbEntity
  8
LOGO
 62
     4
100
AcDbLine
 10
668.0665547257745
 20
262.3332464431491
 30
0.0
 11
668.0665547257745
 21
253.3345496105701
 31
0.0
  0
LINE
  5
3EBA
330
1F
100
AcDbEntity
  8
LOGO
 62
     4
100
AcDbLine
 10
655.5246561222206
 20
253.3345496105701
 30
0.0
 11
655.5246561222206
 21
248.8352011942809
 31
0.0
  0
TEXT
  5
3EBB
330
1F
100
AcDbEntity
  8
LOGO
  6
Continuous
100
AcDbText
 10
646.0816850135868
 20
255.2130144182775
 30
0.0
 40
5.25
  1
MCKB
  7
CHINESET
100
AcDbText
  0
LINE
  5
3EBC
330
1F
100
AcDbEntity
  8
LOGO
 62
     4
100
AcDbLine
 10
664.4798615910652
 20
248.8352011942809
 30
0.0
 11
644.4827575186669
 21
248.8352011942809
 31
0.0
  0
TEXT
  5
3EBD
330
1F
100
AcDbEntity
  8
LOGO
  6
Continuous
100
AcDbText
 10
650.8997649056314
 20
239.3891958136975
 30
196.5865886400747
 40
2.25
  1
Model
 41
0.8
  7
CHINESET
100
AcDbText
  0
TEXT
  5
3EBE
330
1F
100
AcDbEntity
  8
LOGO
100
AcDbText
 10
650.3008880486326
 20
243.5602109040885
 30
196.5865886400747
 40
3.75
  1
型號
  7
CHINESET
100
AcDbText
  0
LINE
  5
3EBF
330
1F
100
AcDbEntity
  8
LOGO
  6
Continuous
100
AcDbLine
 10
669.023190572283
 20
257.8020232205485
 30
0.0
 11
672.9966867456924
 21
257.8020232205485
 31
0.0
  0
LINE
  5
3ECB
330
1F
100
AcDbEntity
  8
LOGO
 62
     4
100
AcDbLine
 10
689.2004171631103
 20
248.8352011942809
 30
0.0
 11
689.2004171631103
 21
237.8367939544613
 31
0.0
  0
LINE
  5
3ECC
330
1F
100
AcDbEntity
  8
LOGO
 62
     4
100
AcDbLine
 10
669.203313090712
 20
248.8352011942809
 30
0.0
 11
669.203313090712
 21
237.8367939544613
 31
0.0
  0
LINE
  5
3ECD
330
1F
100
AcDbEntity
  8
LOGO
 62
     4
100
AcDbLine
 10
689.2004171631103
 20
237.8367939544613
 30
0.0
 11
669.203313090712
 21
237.8367939544613
 31
0.0
  0
LINE
  5
3ECE
330
1F
100
AcDbEntity
  8
LOGO
 62
     4
100
AcDbLine
 10
689.290873517331
 20
262.3332464431491
 30
0.0
 11
673.9143816424112
 21
262.3332464431491
 31
0.0
  0
LINE
  5
3ECF
330
1F
100
AcDbEntity
  8
LOGO
 62
     4
100
AcDbLine
 10
689.290873517331
 20
253.3345496105701
 30
0.0
 11
673.9143816424112
 21
253.3345496105701
 31
0.0
  0
LINE
  5
3ED0
330
1F
100
AcDbEntity
  8
LOGO
 62
     4
100
AcDbLine
 10
673.9143816424112
 20
262.3332464431491
 30
0.0
 11
673.9143816424112
 21
253.3345496105701
 31
0.0
  0
LINE
  5
3ED1
330
1F
100
AcDbEntity
  8
LOGO
 62
     4
100
AcDbLine
 10
689.290873517331
 20
262.3332464431491
 30
0.0
 11
689.290873517331
 21
253.3345496105701
 31
0.0
  0
LINE
  5
3ED2
330
1F
100
AcDbEntity
  8
LOGO
 62
     4
100
AcDbLine
 10
680.8282469845577
 20
253.3345496105701
 30
0.0
 11
680.8282469845577
 21
248.8352011942809
 31
0.0
  0
TEXT
  5
3ED3
330
1F
100
AcDbEntity
  8
LOGO
  6
Continuous
100
AcDbText
 10
677.1059996279757
 20
255.2130144182775
 30
0.0
 40
5.25
  1
32
  7
CHINESET
100
AcDbText
  0
LINE
  5
3ED4
330
1F
100
AcDbEntity
  8
LOGO
 62
     4
100
AcDbLine
 10
689.2004171631103
 20
248.8352011942809
 30
0.0
 11
669.203313090712
 21
248.8352011942809
 31
0.0
  0
TEXT
  5
3EE2
330
1F
100
AcDbEntity
  8
LOGO
  6
Continuous
100
AcDbText
 10
673.3918890905003
 20
239.3891958136975
 30
196.5865886400747
 40
2.25
  1
Tube I.D.
 41
0.8
  7
CHINESET
100
AcDbText
  0
TEXT
  5
3EE3
330
1F
100
AcDbEntity
  8
LOGO
100
AcDbText
 10
674.8720067993052
 20
243.5602109040885
 30
196.5865886400747
 40
3.75
  1
內徑
  7
CHINESET
100
AcDbText
  0
TEXT
  5
3EF2
330
1F
100
AcDbEntity
  8
LOGO
100
AcDbText
 10
604.8648672029482
 20
236.9329130112936
 30
0.0
 40
3.0
  1
10708071
 41
0.7
  7
CHINESET
 72
     1
 11
611.9148672029482
 21
236.9329130112936
 31
0.0
100
AcDbText
  0
LINE
  5
3EF3
330
1F
100
AcDbEntity
  8
LOGO
 62
     4
100
AcDbLine
 10
621.2250638160903
 20
241.3362871671318
 30
0.0
 11
621.2250638160917
 21
235.337155945412
 31
0.0
  0
LINE
  5
3EF4
330
1F
100
AcDbEntity
  8
LOGO
 62
     4
100
AcDbLine
 10
621.2250638160903
 20
241.3362871671318
 30
0.0
 11
603.2250638160917
 21
241.3362871671318
 31
0.0
  0
CIRCLE
  5
3EF5
330
1F
100
AcDbEntity
  8
LOGO
  6
Continuous
100
AcDbCircle
 10
588.7820306519358
 20
256.3405313142218
 30
0.0
 40
1.741618395480947
  0
CIRCLE
  5
3EF6
330
1F
100
AcDbEntity
  8
LOGO
  6
Continuous
100
AcDbCircle
 10
588.7820306519358
 20
256.3405313142218
 30
0.0
 40
1.020434202998395
  0
LINE
  5
3EF7
330
1F
100
AcDbEntity
  8
LOGO
100
AcDbLine
 10
599.7265627379906
 20
254.5989129187406
 30
0.0
 11
599.7265627379906
 21
258.0821497097031
 31
0.0
  0
LINE
  5
3EF8
330
1F
100
AcDbEntity
  8
LOGO
100
AcDbLine
 10
594.2666890418243
 20
255.3200971112236
 30
0.0
 11
594.2666890418243
 21
257.3609655172204
 31
0.0
  0
LINE
  5
3EF9
330
1F
100
AcDbEntity
  8
LOGO
  6
Continuous
100
AcDbLine
 10
594.2666890418243
 20
257.3609655172204
 30
0.0
 11
599.7265627379906
 21
258.0821497097031
 31
0.0
  0
LINE
  5
3EFA
330
1F
100
AcDbEntity
  8
LOGO
  6
Continuous
100
AcDbLine
 10
594.2666890418243
 20
255.3200971112236
 30
0.0
 11
599.7265627379906
 21
254.5989129187406
 31
0.0
  0
LINE
  5
3EFB
330
1F
100
AcDbEntity
  8
LOGO
  6
AM_ISO08W050x2
 48
0.3
100
AcDbLine
 10
586.3811836150834
 20
256.3405313142218
 30
0.0
 11
591.1828776887882
 21
256.3405313142218
 31
0.0
1001
GENIUS_GENOREF_13
1005
3F00
  0
LINE
  5
3EFC
330
1F
100
AcDbEntity
  8
LOGO
  6
AM_ISO08W050x2
 48
0.3
100
AcDbLine
 10
588.7820306519358
 20
253.9396842773694
 30
0.0
 11
588.7820306519358
 21
258.7413783510742
 31
0.0
1001
GENIUS_GENOREF_13
1005
3EFF
  0
LINE
  5
3EFD
330
1F
100
AcDbEntity
  8
LOGO
  6
CENTER
 48
0.5
100
AcDbLine
 10
593.8300509026102
 20
256.3405313142218
 30
0.0
 11
600.2763543446722
 21
256.3405313142218
 31
0.0
1001
GENIUS_GENOREF_13
1005
3EFE
  0
POINT
  5
3EFE
330
1F
100
AcDbEntity
  8
0
 60
     1
100
AcDbPoint
 10
-990.4662626975282
 20
-648.6421958382494
 30
0.0
1001
GENIUS_GENOBJ-N-CRS_13
1002
{
1000
OWNER
1000
GEN
1002
}
1001
GENIUS_GENOLIS_13
1002
{
1000
ENT
1005
0
1005
0
1005
0
1005
3EFD
1002
}
1001
GENIUS_GENOENT_13
1002
{
1000
MYREF
1005
3EFE
1002
}
1002
{
1000
GRP
1005
0
1002
}
1001
GENIUS_GENODEF_13
1002
{
1000
HIER
1070
    10
1002
}
1002
{
1000
MANEDIT
1070
     1
1002
}
1002
{
1000
NOSEL
1070
     0
1002
}
1002
{
1000
BEHIND
1070
     0
1002
}
1002
{
1000
OTHER
1070
     0
1002
}
1002
{
1000
REACTOR
1002
}
  0
POINT
  5
3EFF
330
1F
100
AcDbEntity
  8
0
 60
     1
100
AcDbPoint
 10
-1001.790847920383
 20
-639.7666093596131
 30
0.0
1001
GENIUS_GENOBJ-N-CRS_13
1002
{
1000
OWNER
1000
GEN
1002
}
1001
GENIUS_GENOLIS_13
1002
{
1000
ENT
1005
0
1005
0
1005
0
1005
3EFC
1002
}
1001
GENIUS_GENOENT_13
1002
{
1000
MYREF
1005
3EFF
1002
}
1002
{
1000
GRP
1005
0
1002
}
1001
GENIUS_GENODEF_13
1002
{
1000
HIER
1070
    10
1002
}
1002
{
1000
MANEDIT
1070
     1
1002
}
1002
{
1000
NOSEL
1070
     0
1002
}
1002
{
1000
BEHIND
1070
     0
1002
}
1002
{
1000
OTHER
1070
     0
1002
}
1002
{
1000
REACTOR
1002
}
  0
POINT
  5
3F00
330
1F
100
AcDbEntity
  8
0
 60
     1
100
AcDbPoint
 10
-995.4321742225461
 20
-648.6421958382494
 30
0.0
1001
GENIUS_GENOBJ-N-CRS_13
1002
{
1000
OWNER
1000
GEN
1002
}
1001
GENIUS_GENOLIS_13
1002
{
1000
ENT
1005
0
1005
0
1005
0
1005
3EFB
1002
}
1001
GENIUS_GENOENT_13
1002
{
1000
MYREF
1005
3F00
1002
}
1002
{
1000
GRP
1005
0
1002
}
1001
GENIUS_GENODEF_13
1002
{
1000
HIER
1070
    10
1002
}
1002
{
1000
MANEDIT
1070
     1
1002
}
1002
{
1000
NOSEL
1070
     0
1002
}
1002
{
1000
BEHIND
1070
     0
1002
}
1002
{
1000
OTHER
1070
     0
1002
}
1002
{
1000
REACTOR
1002
}
  0
ENDSEC
  0
SECTION
  2
OBJECTS
  0
DICTIONARY
  5
C
330
0
100
AcDbDictionary
281
     1
  3
ACAD_COLOR
350
7D1
  3
ACAD_GROUP
350
D
  3
ACAD_LAYOUT
350
1A
  3
ACAD_MATERIAL
350
7D0
  3
ACAD_MLINESTYLE
350
17
  3
ACAD_PLOTSETTINGS
350
19
  3
ACAD_PLOTSTYLENAME
350
E
  3
ACAD_TABLESTYLE
350
7D2
  3
AcAsAppObject
350
283A
  3
ACASGREF_MASTER
350
2881
  3
ACDBHEADERROUNDTRIPXREC
350
3F24
  3
AcDbVariableDictionary
350
82
  3
AcmDictionary
350
45
  3
AD_GREF_MODULE
350
2882
  3
AD_MAPI_MODULE
350
289A
  3
AMG
350
2B
  3
AMGSNAPSETTINGS
350
87
  3
DWGPROPS
350
3F23
  3
MAPISURF_MODULE
350
2883
  0
DICTIONARY
  5
AAB
330
2
100
AcDbDictionary
280
     1
281
     1
  3
ACAD_LAYERSTATES
360
AAC
  3
AMLAYER_GROUPCOLORS
360
15F6
  0
DICTIONARY
  5
7D
330
1F
100
AcDbDictionary
280
     1
281
     1
  3
ACAD_INDEX
360
291A
  3
ACAD_SORTENTS
360
EEA
  0
DICTIONARY
  5
2E57
330
2E4A
100
AcDbDictionary
280
     1
281
     1
  3
ACAD_DIMASSOC
360
2E61
  0
DICTIONARY
  5
2E6F
330
2E62
100
AcDbDictionary
280
     1
281
     1
  3
ACAD_DIMASSOC
360
2E79
  0
DICTIONARY
  5
2E87
330
2E7A
100
AcDbDictionary
280
     1
281
     1
  3
ACAD_DIMASSOC
360
2E91
  0
DICTIONARY
  5
2F30
330
2F23
100
AcDbDictionary
280
     1
281
     1
  3
ACAD_DIMASSOC
360
2F3A
  0
DICTIONARY
  5
2F48
330
2F3B
100
AcDbDictionary
280
     1
281
     1
  3
ACAD_DIMASSOC
360
2F52
  0
DICTIONARY
  5
2F60
330
2F53
100
AcDbDictionary
280
     1
281
     1
  3
ACAD_DIMASSOC
360
2F6A
  0
DICTIONARY
  5
3283
330
3282
100
AcDbDictionary
280
     1
281
     1
  3
ACAD_DIMASSOC
360
3284
  0
DICTIONARY
  5
3286
330
3285
100
AcDbDictionary
280
     1
281
     1
  3
ACAD_DIMASSOC
360
3287
  0
DICTIONARY
  5
3289
330
3288
100
AcDbDictionary
280
     1
281
     1
  3
ACAD_DIMASSOC
360
328A
  0
DICTIONARY
  5
3926
330
3919
100
AcDbDictionary
280
     1
281
     1
  3
ACAD_DIMASSOC
360
3930
  0
DICTIONARY
  5
3961
330
3954
100
AcDbDictionary
280
     1
281
     1
  3
ACAD_DIMASSOC
360
396B
  0
DICTIONARY
  5
398C
330
397F
100
AcDbDictionary
280
     1
281
     1
  3
ACAD_DIMASSOC
360
3996
  0
DICTIONARY
  5
3CC7
330
3CBA
100
AcDbDictionary
280
     1
281
     1
  3
ACAD_DIMASSOC
360
3CD1
  0
DICTIONARY
  5
3D3C
330
3D2F
100
AcDbDictionary
280
     1
281
     1
  3
ACAD_DIMASSOC
360
3D46
  0
DICTIONARY
  5
7D1
102
{ACAD_REACTORS
330
C
102
}
330
C
100
AcDbDictionary
281
     1
  0
DICTIONARY
  5
D
102
{ACAD_REACTORS
330
C
102
}
330
C
100
AcDbDictionary
281
     1
  0
DICTIONARY
  5
1A
102
{ACAD_REACTORS
330
C
102
}
330
C
100
AcDbDictionary
281
     1
  3
Layout1
350
1E
  3
Layout2
350
26
  3
Model
350
22
  0
DICTIONARY
  5
7D0
102
{ACAD_REACTORS
330
C
102
}
330
C
100
AcDbDictionary
281
     1
  0
DICTIONARY
  5
17
102
{ACAD_REACTORS
330
C
102
}
330
C
100
AcDbDictionary
281
     1
  3
Standard
350
18
  0
DICTIONARY
  5
19
102
{ACAD_REACTORS
330
C
102
}
330
C
100
AcDbDictionary
281
     1
  0
ACDBDICTIONARYWDFLT
  5
E
102
{ACAD_REACTORS
330
C
102
}
330
C
100
AcDbDictionary
281
     1
  3
Normal
350
F
100
AcDbDictionaryWithDefault
340
F
  0
DICTIONARY
  5
7D2
102
{ACAD_REACTORS
330
C
102
}
330
C
100
AcDbDictionary
281
     1
  3
Standard
350
7D3
  0
ACAD_PROXY_OBJECT
  5
283A
102
{ACAD_REACTORS
330
C
102
}
330
C
100
AcDbProxyObject
 90
      499
 91
      611
 95
  2555929
 70
     0
 93
       10
310
4040
 94
        0
1001
ACAD
1000
AcRTDxfName
1000
ASAPP
  0
ACAD_PROXY_OBJECT
  5
2881
102
{ACAD_REACTORS
330
C
102
}
330
C
100
AcDbProxyObject
 90
      499
 91
      616
 95
  2555929
 70
     0
 93
       34
310
0100004040
 94
        0
1001
ACAD
1000
AcRTDxfName
1000
ACASGREFMASTER
  0
DICTIONARY
  5
3F24
102
{ACAD_REACTORS
330
C
102
}
330
C
100
AcDbDictionary
281
     1
  0
DICTIONARY
  5
82
102
{ACAD_REACTORS
330
C
102
}
330
C
100
AcDbDictionary
281
     1
  3
CTABLESTYLE
350
847
  3
DIMASSOC
350
85
  3
HIDETEXT
350
84
  3
INDEXCTL
350
83
  3
PROJECTNAME
350
848
  0
DICTIONARY
  5
45
102
{ACAD_REACTORS
330
C
102
}
330
C
100
AcDbDictionary
281
     1
  3
AcmStdDictionary
350
4A
  3
AMDTSECTSYM_ARROWCOLOR
350
7DF
  0
ACAD_PROXY_OBJECT
  5
2882
102
{ACAD_REACTORS
330
C
102
}
330
C
100
AcDbProxyObject
 90
      499
 91
      617
 95
  2555929
 70
     0
 93
      114
310
000000438080000000000000000032
 94
        0
1001
ACAD
1000
AcRTDxfName
1000
ACADGREFMODULE
  0
ACAD_PROXY_OBJECT
  5
289A
102
{ACAD_REACTORS
330
C
102
}
330
C
100
AcDbProxyObject
 90
      499
 91
      619
 95
  2555929
 70
     0
 93
       34
310
05000044C0
 94
        0
1001
ACAD
1000
AcRTDxfName
1000
MAPIADMODULE
  0
DICTIONARY
  5
2B
102
{ACAD_REACTORS
330
C
102
}
330
C
100
AcDbDictionary
281
     1
  0
DICTIONARY
  5
87
102
{ACAD_REACTORS
330
C
102
}
330
C
100
AcDbDictionary
281
     1
  0
XRECORD
  5
3F23
102
{ACAD_REACTORS
330
C
102
}
330
C
100
AcDbXrecord
280
     1
  1
DWGPROPS COOKIE
  2

  3

  4

  6

  7

  8

  9

300
AmdtFileType=84
301
=
302
=
303
=
304
=
305
=
306
=
307
=
308
=
309
=
 40
0.470319988425926
 41
2453021.369367211
 42
2454320.396566655
  1

 90
        1
  0
ACAD_PROXY_OBJECT
  5
2883
102
{ACAD_REACTORS
330
C
102
}
330
C
100
AcDbProxyObject
 90
      499
 91
      618
 95
  2555929
 70
     0
 93
        8
310
047E
 94
        0
1001
ACAD
1000
AcRTDxfName
1000
AMDTMAPISURFMOUDULE
  0
DICTIONARY
  5
AAC
102
{ACAD_REACTORS
330
AAB
102
}
330
AAB
100
AcDbDictionary
281
     1
  0
DICTIONARY
  5
15F6
102
{ACAD_REACTORS
330
AAB
102
}
330
AAB
100
AcDbDictionary
280
     1
281
     1
  0
DICTIONARY
  5
291A
102
{ACAD_REACTORS
330
7D
102
}
330
7D
100
AcDbDictionary
281
     1
  3
*A1
350
291B
  0
SORTENTSTABLE
  5
EEA
102
{ACAD_REACTORS
330
7D
102
}
330
7D
100
AcDbSortentsTable
330
1F
331
3263
  5
3273
331
32A2
  5
3867
331
31E5
  5
31F6
331
321C
  5
322B
331
316F
  5
317A
331
31A6
  5
31B5
331
3130
  5
3136
331
3224
  5
3233
331
2CB0
  5
2CB5
331
2C79
  5
2C7C
331
2C3A
  5
2C3D
331
2F3B
  5
3098
331
2DCD
  5
2DD3
331
2D8E
  5
2D94
331
2CB8
  5
2CBD
331
2C81
  5
2C84
331
2C42
  5
2C46
331
2DD5
  5
2DDB
331
2D96
  5
2D9C
331
2D5F
  5
2D64
331
2CC0
  5
2CC5
331
2C89
  5
2C8C
331
2C4A
  5
2C4D
331
2DDD
  5
2E62
331
2D9E
  5
2DA4
331
2D67
  5
2D6C
331
2CC8
  5
2CCD
331
2C52
  5
2C55
331
3C36
  5
3C37
331
2DA6
  5
2DAC
331
3C3E
  5
3C3F
331
3C46
  5
3C47
331
3C4E
  5
3C4F
331
3138
  5
313E
331
326B
  5
327B
331
322C
  5
323B
331
31ED
  5
31FD
331
31B6
  5
31C4
331
3177
  5
3182
331
3140
  5
3146
331
3273
  5
3285
331
3234
  5
3243
331
317F
  5
318A
331
3148
  5
314E
331
31BE
  5
31CB
331
327B
  5
3295
331
31FD
  5
320C
331
3150
  5
3156
331
3187
  5
3194
331
31C6
  5
31D3
331
323C
  5
324B
331
3244
  5
3253
331
31CE
  5
31DB
331
3205
  5
3214
331
318F
  5
319C
331
2B36
  5
2B36
331
2B3E
  5
2B3E
331
21AE
  5
21AE
331
2B46
  5
2B46
331
2CD0
  5
2CD5
331
2C91
  5
2C96
331
2C5A
  5
2C5D
331
2DAE
  5
2DB4
331
2D6F
  5
2D74
331
2CD8
  5
2CDD
331
2C99
  5
2C9E
331
2C62
  5
2C65
331
2C1B
  5
2C2E
331
2DB6
  5
2DBD
331
2D77
  5
2D7C
331
2CE0
  5
2CE5
331
2CA1
  5
2CA6
331
2C6A
  5
2C6D
331
2DBE
  5
2DC4
331
2D7F
  5
2D85
331
2CE8
  5
2CED
331
2CA9
  5
2CAE
331
2C72
  5
2C75
331
2C33
  5
2C37
331
39A1
  5
39A6
331
2DC6
  5
2DCC
331
2D87
  5
2D8D
331
39A9
  5
39AE
331
3C56
  5
3C57
331
3C1F
  5
3C30
331
3C27
  5
3C24
331
3158
  5
315E
331
324C
  5
3266
331
328B
  5
3480
331
31D6
  5
31E3
331
320D
  5
321C
331
3160
  5
3166
331
3197
  5
31A4
331
325C
  5
326B
331
31DE
  5
31EC
331
3215
  5
3224
331
319F
  5
31AC
331
3129
  5
312F
331
3264
  5
3274
331
32A3
  5
38BA
331
31E6
  5
31F7
331
321D
  5
322C
331
31A7
  5
31B6
331
3131
  5
3137
331
3225
  5
3234
331
2BE6
  5
2BE6
331
210F
  5
210F
331
2CF0
  5
2D5C
331
2CB1
  5
2CB6
331
2C7A
  5
2C7D
331
2C3B
  5
2C3E
331
2DCE
  5
2DD4
331
2D8F
  5
2D95
331
2CB9
  5
2CBE
331
2C43
  5
2C47
331
2C82
  5
2C85
331
2DD6
  5
2DDC
331
2D97
  5
2D9D
331
2D60
  5
2D65
331
2CC1
  5
2CC6
331
2C8A
  5
2C8D
331
2C4B
  5
2C4E
331
2DDE
  5
2E7A
331
2D9F
  5
2DA5
331
2CC9
  5
2CCE
331
2C53
  5
2C56
331
2DA7
  5
2DAD
331
3C37
  5
3C38
331
3C3F
  5
3C40
331
3C47
  5
3C48
331
3C4F
  5
3C50
331
3170
  5
317B
331
3139
  5
313F
331
326C
  5
327C
331
322D
  5
323C
331
31EE
  5
31FE
331
3178
  5
3183
331
3141
  5
3147
331
3274
  5
3288
331
31F6
  5
3205
331
3180
  5
318B
331
3149
  5
314F
331
31BF
  5
31CC
331
3235
  5
3244
331
327C
  5
3298
331
31FE
  5
320D
331
3151
  5
3157
331
3188
  5
3195
331
31C7
  5
31D4
331
323D
  5
324C
331
3245
  5
3254
331
31CF
  5
31DC
331
3206
  5
3215
331
2B37
  5
2B37
331
2B3F
  5
2B3F
331
2B47
  5
2B47
331
2D68
  5
2D6D
331
2CD1
  5
2CD6
331
2C92
  5
2C97
331
2C5B
  5
2C5E
331
2DAF
  5
2DB5
331
2D70
  5
2D75
331
2CD9
  5
2CDE
331
2C9A
  5
2C9F
331
2C63
  5
2C66
331
2D78
  5
2D7D
331
2CE1
  5
2CE6
331
2CA2
  5
2CA7
331
2C6B
  5
2C6E
331
2DBF
  5
2DC6
331
2D80
  5
2D86
331
2CE9
  5
2CEE
331
2CAA
  5
2CAF
331
2C73
  5
2C76
331
2C34
  5
2C38
331
39A2
  5
39A7
331
39AA
  5
39AF
331
2DC7
  5
2DCD
331
354C
  5
3954
331
3C57
  5
3C58
331
365C
  5
3190
331
3C20
  5
3C2D
331
3C28
  5
2C92
331
3159
  5
315F
331
3190
  5
319D
331
324D
  5
3267
331
328C
  5
354E
331
320E
  5
321D
331
3161
  5
3169
331
3198
  5
31A5
331
336B
  5
3174
331
325D
  5
326C
331
31DF
  5
31ED
331
3216
  5
3225
331
3169
  5
3172
331
31A0
  5
31AD
331
312A
  5
3130
331
3265
  5
3276
331
31E7
  5
31F8
331
321E
  5
322D
331
31A8
  5
31B7
331
3132
  5
3138
331
3226
  5
3235
331
2120
  5
2120
331
2D88
  5
2D8E
331
2CF1
  5
2D5D
331
2CB2
  5
2CB7
331
2C7B
  5
2C7E
331
2C3C
  5
2C3F
331
2DCF
  5
2DD5
331
2D90
  5
2D96
331
2CBA
  5
2CBF
331
2C44
  5
2C48
331
2C83
  5
2C86
331
2DD7
  5
2DDD
331
2D98
  5
2D9E
331
2D61
  5
2D66
331
2CC2
  5
2CC7
331
2C8B
  5
2C8E
331
2C4C
  5
2C4F
331
2DDF
  5
2F1F
331
2DA0
  5
2DA6
331
2CCA
  5
2CCF
331
2C54
  5
2C57
331
3C30
  5
3C31
331
3C38
  5
3C39
331
3C40
  5
3C41
331
3954
  5
39A4
331
3C48
  5
3C49
331
31B0
  5
31BE
331
3171
  5
317C
331
313A
  5
3140
331
2F53
  5
3099
331
326D
  5
327D
331
322E
  5
323D
331
31EF
  5
31FF
331
3179
  5
3184
331
3142
  5
3148
331
31B8
  5
31C5
331
3275
  5
328B
331
31F7
  5
3206
331
3181
  5
318C
331
314A
  5
3150
331
31C0
  5
31CD
331
3236
  5
3245
331
327D
  5
3299
331
31C8
  5
31D5
331
31FF
  5
320E
331
3152
  5
3158
331
3189
  5
3196
331
323E
  5
324D
331
3246
  5
3255
331
3285
  5
3348
331
3207
  5
3216
331
2B38
  5
2B38
331
2B40
  5
2B40
331
21A8
  5
21A8
331
2DA8
  5
2DAE
331
2D69
  5
2D6E
331
2CD2
  5
2CD7
331
2C93
  5
2C98
331
2C5C
  5
2C5F
331
2DB0
  5
2DB6
331
2D71
  5
2D76
331
2CDA
  5
2CDF
331
2C9B
  5
2CA0
331
2C64
  5
2C67
331
2DB8
  5
2DBE
331
2D79
  5
2D7E
331
2CE2
  5
2CE7
331
2CA3
  5
2CA8
331
2C6C
  5
2C6F
331
39A3
  5
39A8
331
3C50
  5
3C51
331
2DC0
  5
2DC7
331
2D81
  5
2D87
331
2CEA
  5
2CEF
331
2CAB
  5
2CB0
331
2C74
  5
2C77
331
39AB
  5
39F4
331
3C58
  5
3C5C
331
365D
  5
3191
331
3C21
  5
2C33
331
3C29
  5
2C34
331
31D0
  5
31DD
331
315A
  5
3160
331
3191
  5
319E
331
324E
  5
3268
331
320F
  5
321E
331
3162
  5
316B
331
3199
  5
31A6
331
336C
  5
3173
331
325E
  5
326D
331
31E0
  5
31EF
331
3217
  5
3226
331
316A
  5
3175
331
31A1
  5
31AE
331
312B
  5
3131
331
321F
  5
322E
331
31A9
  5
31B8
331
3133
  5
3139
331
3227
  5
3236
331
2BA0
  5
2BA0
331
2DC8
  5
2DCE
331
2D89
  5
2D8F
331
2CF2
  5
2D5E
331
2CB3
  5
2CB8
331
2C7C
  5
2C7F
331
2C3D
  5
2C40
331
2DD0
  5
2DD6
331
2D91
  5
2D97
331
2CBB
  5
2CC0
331
2C84
  5
2C87
331
2DD8
  5
2DDE
331
2D99
  5
2D9F
331
2D62
  5
2D67
331
2CC3
  5
2CC8
331
2C8C
  5
2C8F
331
2C4D
  5
2C50
331
3C31
  5
3C32
331
2DA1
  5
2DA7
331
2CCB
  5
2CD0
331
2C55
  5
2C58
331
3C39
  5
3C3A
331
3C41
  5
3C42
331
3C49
  5
3C4A
331
31E8
  5
31F9
331
31B1
  5
31BF
331
3172
  5
317D
331
313B
  5
3141
331
326E
  5
327E
331
322F
  5
323E
331
31F0
  5
3200
331
317A
  5
3185
331
3143
  5
3149
331
31B9
  5
31C6
331
3276
  5
328C
331
31F8
  5
3207
331
3182
  5
318D
331
314B
  5
3151
331
31C1
  5
31CE
331
3237
  5
3246
331
327E
  5
329C
331
31C9
  5
31D6
331
3200
  5
320F
331
3153
  5
3159
331
318A
  5
3197
331
323F
  5
324E
331
3247
  5
3256
331
2B39
  5
2B39
331
2B41
  5
2B41
331
2B49
  5
2B49
331
2DE0
  5
2F20
331
2DA9
  5
2DAF
331
2D6A
  5
2D6F
331
2CD3
  5
2CD8
331
2C94
  5
2C99
331
2C5D
  5
2C60
331
2F1F
  5
2F3B
331
2DB1
  5
2DB7
331
2D72
  5
2D77
331
2CDB
  5
2CE0
331
2C9C
  5
2CA1
331
2C65
  5
2C68
331
2DB9
  5
2DBF
331
2D7A
  5
2D7F
331
2CE3
  5
2CE8
331
2CA4
  5
2CA9
331
2C6D
  5
2C70
331
2C2E
  5
2C32
331
3C51
  5
3C52
331
2DC1
  5
2DC8
331
2D82
  5
2D88
331
2CEB
  5
2CF0
331
2CAC
  5
2CB1
331
2C75
  5
2C78
331
2C36
  5
2C39
331
39A4
  5
39A9
331
39AC
  5
3BF3
331
3C22
  5
3C2C
331
39F4
  5
3C21
331
3C2A
  5
2C93
331
31D1
  5
31DE
331
3208
  5
3217
331
315B
  5
3161
331
3192
  5
319F
331
324F
  5
3269
331
3210
  5
321F
331
3163
  5
316D
331
319A
  5
31A7
331
3124
  5
312A
331
325F
  5
326E
331
31E1
  5
31F1
331
3218
  5
3227
331
316B
  5
3176
331
31A2
  5
31AF
331
312C
  5
3132
331
3267
  5
3277
331
3220
  5
322F
331
31AA
  5
31B9
331
3134
  5
313A
331
212A
  5
212A
331
2DC9
  5
2DCF
331
2D8A
  5
2D90
331
2CF3
  5
2D5F
331
2CB4
  5
2CB9
331
2C7D
  5
2C80
331
2C3E
  5
2C41
331
2DD1
  5
2DD7
331
2D92
  5
2D98
331
2D5B
  5
2D60
331
2CBC
  5
2CC1
331
2C85
  5
2C88
331
2C46
  5
2C49
331
2DD9
  5
2DDF
331
2D9A
  5
2DA0
331
2D63
  5
2D68
331
2CC4
  5
2CC9
331
2C8D
  5
2C90
331
2C4E
  5
2C51
331
3C32
  5
3C33
331
2DA2
  5
2DA8
331
2CCC
  5
2CD1
331
2C56
  5
2C59
331
3C3A
  5
3C3B
331
3C42
  5
3C43
331
3C4A
  5
3C4B
331
3228
  5
3237
331
31B2
  5
31C0
331
3173
  5
317E
331
313C
  5
3142
331
326F
  5
327F
331
31F1
  5
3201
331
317B
  5
3186
331
3144
  5
314A
331
31BA
  5
31C7
331
3230
  5
323F
331
3277
  5
328D
331
31F9
  5
3208
331
3183
  5
318E
331
314C
  5
3152
331
31C2
  5
31CF
331
3238
  5
3247
331
3240
  5
324F
331
327F
  5
329F
331
31CA
  5
31D7
331
3201
  5
3210
331
3154
  5
315A
331
318B
  5
3198
331
2B3A
  5
2B3A
331
2B42
  5
2B42
331
2DAA
  5
2DB0
331
2D6B
  5
2D70
331
2CD4
  5
2CD9
331
2C95
  5
2C9A
331
2C5E
  5
2C61
331
2F20
  5
2F53
331
2DB2
  5
2DB9
331
2D73
  5
2D78
331
2CDC
  5
2CE1
331
2C9D
  5
2CA2
331
2C66
  5
2C69
331
2DBA
  5
2DC0
331
2D7B
  5
2D80
331
2CE4
  5
2CE9
331
2CA5
  5
2CAA
331
2C6E
  5
2C71
331
3C52
  5
3C53
331
2DC2
  5
2DC9
331
2D83
  5
2D89
331
2CEC
  5
2CF1
331
2CAD
  5
2CB2
331
2C76
  5
2C79
331
2C37
  5
2C3A
331
39A5
  5
39AA
331
39AD
  5
3C1E
331
3C23
  5
3C2A
331
3248
  5
3257
331
31D2
  5
31DF
331
3209
  5
3218
331
315C
  5
3162
331
3193
  5
31A0
331
3211
  5
3220
331
3164
  5
316F
331
319B
  5
31A8
331
3125
  5
312B
331
3260
  5
326F
331
329F
  5
3566
331
31E2
  5
31F2
331
3219
  5
3228
331
316C
  5
3177
331
31A3
  5
31B0
331
312D
  5
3133
331
338E
  5
31F0
331
3221
  5
3230
331
31AB
  5
31BA
331
3135
  5
313B
331
344E
  5
38D2
331
2DCA
  5
2DD0
331
2D8B
  5
2D91
331
2CB5
  5
2CBA
331
2C7E
  5
2C81
331
2C3F
  5
2C42
331
2DD2
  5
2DD8
331
2D93
  5
2D99
331
2D5C
  5
2D61
331
2CBD
  5
2CC2
331
2C86
  5
2C89
331
2C47
  5
2C4A
331
2DDA
  5
2DE0
331
2D9B
  5
2DA1
331
2D64
  5
2D69
331
2CC5
  5
2CCA
331
2C8E
  5
2C91
331
2C4F
  5
2C52
331
3C33
  5
3C34
331
2DA3
  5
2DA9
331
2CCD
  5
2CD2
331
2C57
  5
2C5A
331
3C3B
  5
3C3C
331
3C43
  5
3C44
331
3C4B
  5
3C4C
331
3268
  5
3278
331
3229
  5
3238
331
31EA
  5
31FA
331
31B3
  5
31C1
331
3174
  5
317F
331
313D
  5
3143
331
3270
  5
3280
331
31F2
  5
3202
331
317C
  5
3187
331
3145
  5
314B
331
31BB
  5
31C8
331
3231
  5
3240
331
3278
  5
328E
331
31FA
  5
3209
331
3184
  5
318F
331
314D
  5
3153
331
31C3
  5
31D0
331
3239
  5
3248
331
3280
  5
32A0
331
3202
  5
3211
331
3241
  5
3250
331
318C
  5
3199
331
31CB
  5
31D8
331
3155
  5
315B
331
2B3B
  5
2B3B
331
2B43
  5
2B43
331
21AB
  5
21AB
331
2DAB
  5
2DB1
331
2D6C
  5
2D71
331
2CD5
  5
2CDA
331
2C96
  5
2C9B
331
2C5F
  5
2C62
331
2F21
  5
300D
331
2E4A
  5
2F21
331
2DB3
  5
2DBA
331
2D74
  5
2D79
331
2CDD
  5
2CE2
331
2C67
  5
2C6A
331
2C9E
  5
2CA3
331
3480
  5
3919
331
2DBB
  5
2DC1
331
2D7C
  5
2D81
331
2CE5
  5
2CEA
331
2CA6
  5
2CAB
331
2C6F
  5
2C72
331
3C53
  5
3C54
331
2E62
  5
2F22
331
2DC3
  5
2DCA
331
2D84
  5
2D8A
331
2CED
  5
2CF2
331
2CAE
  5
2CB3
331
2C77
  5
2C7A
331
39A6
  5
39AB
331
39AE
  5
3C1F
331
3C24
  5
3C28
331
3C2C
  5
3C29
331
397F
  5
39A5
331
3249
  5
3258
331
3288
  5
344E
331
31D3
  5
31E0
331
320A
  5
3219
331
315D
  5
3163
331
3194
  5
31A1
331
3212
  5
3221
331
3165
  5
3170
331
319C
  5
31A9
331
3126
  5
312C
331
338F
  5
31EE
331
3261
  5
3271
331
32A0
  5
365C
331
31E3
  5
31F3
331
321A
  5
3229
331
316D
  5
3178
331
31A4
  5
31B1
331
312E
  5
3134
331
3222
  5
3231
331
31AC
  5
31BB
331
3136
  5
313C
331
2B93
  5
2B93
331
2C38
  5
2C3B
331
2DCB
  5
2DD1
331
2D8C
  5
2D92
331
2CB6
  5
2CBB
331
2C7F
  5
2C82
331
2C40
  5
2C43
331
2E7A
  5
2F23
331
2DD3
  5
2DD9
331
2D94
  5
2D9A
331
2D5D
  5
2D62
331
2CBE
  5
2CC3
331
2C87
  5
2C8A
331
2C48
  5
2C4B
331
2DDB
  5
2E2C
331
2D9C
  5
2DA2
331
2D65
  5
2D6A
331
2CC6
  5
2CCB
331
2C8F
  5
2C94
331
2C50
  5
2C53
331
3C34
  5
3C35
331
2DA4
  5
2DAA
331
2CCE
  5
2CD3
331
3C3C
  5
3C3D
331
3C44
  5
3C45
331
3C4C
  5
3C4D
331
3269
  5
3279
331
322A
  5
3239
331
31EB
  5
31FB
331
31B4
  5
31C2
331
3175
  5
3180
331
313E
  5
3144
331
3271
  5
3281
331
31F3
  5
3203
331
317D
  5
3188
331
3146
  5
314C
331
31BC
  5
31C9
331
3232
  5
3241
331
3279
  5
328F
331
31FB
  5
320A
331
3185
  5
3192
331
314E
  5
3154
331
31C4
  5
31D1
331
323A
  5
3249
331
3242
  5
3251
331
3281
  5
32A1
331
31CC
  5
31D9
331
3203
  5
3212
331
3156
  5
315C
331
318D
  5
319A
331
2B3C
  5
2B3C
331
2B44
  5
2B44
331
2C58
  5
2C5B
331
2C01
  5
2C01
331
2DAC
  5
2DB2
331
2D6D
  5
2D72
331
2CD6
  5
2CDB
331
2C97
  5
2C9C
331
2C60
  5
2C63
331
2F22
  5
3094
331
2DB4
  5
2DBB
331
2D75
  5
2D7A
331
2CDE
  5
2CE3
331
2C9F
  5
2CA4
331
2C68
  5
2C6B
331
2DBC
  5
2DC2
331
2D7D
  5
2D82
331
2CE6
  5
2CEB
331
2CA7
  5
2CAC
331
2C70
  5
2C73
331
3C54
  5
3C55
331
2D85
  5
2D8B
331
2CEE
  5
2CF3
331
2CAF
  5
2CB4
331
39A7
  5
39AC
331
3C5C
  5
3CB9
331
39AF
  5
3C20
331
3C25
  5
3C26
331
3C2D
  5
3C27
331
324A
  5
3259
331
31D4
  5
31E1
331
320B
  5
321A
331
315E
  5
3164
331
3195
  5
31A2
331
3213
  5
3222
331
3166
  5
3171
331
319D
  5
31AA
331
3127
  5
312D
331
3262
  5
3272
331
31E4
  5
31F4
331
321B
  5
322A
331
316E
  5
3179
331
31A5
  5
31B2
331
312F
  5
3135
331
3223
  5
3232
331
31AD
  5
31BD
331
3137
  5
313D
331
2C78
  5
2C7B
331
2C39
  5
2C3C
331
2DCC
  5
2DD2
331
2D8D
  5
2D93
331
2CB7
  5
2CBC
331
2C80
  5
2C83
331
2C41
  5
2C44
331
2DD4
  5
2DDA
331
2D95
  5
2D9B
331
2D5E
  5
2D63
331
2CBF
  5
2CC4
331
2C88
  5
2C8B
331
2C49
  5
2C4C
331
2DDC
  5
2E4A
331
2D9D
  5
2DA3
331
2D66
  5
2D6B
331
2CC7
  5
2CCC
331
2C51
  5
2C54
331
3919
  5
39A2
331
3C35
  5
3C36
331
2DA5
  5
2DAB
331
2CCF
  5
2CD4
331
3C3D
  5
3C3E
331
3C45
  5
3C46
331
3C4D
  5
3C4E
331
326A
  5
327A
331
322B
  5
323A
331
31EC
  5
31FC
331
31B5
  5
31C3
331
3176
  5
3181
331
313F
  5
3145
331
3233
  5
3242
331
31BD
  5
31CA
331
3147
  5
314D
331
317E
  5
3189
331
31F4
  5
3204
331
3272
  5
3282
331
327A
  5
3292
331
31FC
  5
320B
331
3186
  5
3193
331
314F
  5
3155
331
31C5
  5
31D2
331
323B
  5
324A
331
3243
  5
3252
331
3282
  5
3333
331
31CD
  5
31DA
331
3204
  5
3213
331
3157
  5
315D
331
318E
  5
319B
331
2B3D
  5
2B3D
331
2B45
  5
2B45
331
2B4D
  5
2B4D
331
2C90
  5
2C95
331
2C59
  5
2C5C
331
2DAD
  5
2DB3
331
2D6E
  5
2D73
331
2CD7
  5
2CDC
331
2C98
  5
2C9D
331
2C61
  5
2C64
331
2F23
  5
3097
331
2DB5
  5
2DBC
331
2D76
  5
2D7B
331
2CDF
  5
2CE4
331
2CA0
  5
2CA5
331
2C69
  5
2C6C
331
2DBD
  5
2DC3
331
2D7E
  5
2D83
331
2CE7
  5
2CEC
331
2CA8
  5
2CAD
331
2C71
  5
2C74
331
2C32
  5
2C36
331
3C55
  5
3C56
331
2D86
  5
2D8C
331
2CEF
  5
2D5B
331
39A8
  5
39AD
331
3C1E
  5
3C23
331
3C26
  5
3C25
331
324B
  5
325A
331
31D5
  5
31E2
331
320C
  5
321B
331
315F
  5
3165
331
3196
  5
31A3
331
325B
  5
326A
331
3214
  5
3223
331
319E
  5
31AB
331
3128
  5
312E
  0
DIMASSOC
  5
2E61
102
{ACAD_REACTORS
330
2E57
102
}
330
2E57
100
AcDbDimAssoc
330
2E4A
 90
        3
 70
     0
 71
     0
  1
AcDbOsnapPointRef
 72
     1
331
2DDD
 73
     2
 91
        0
 40
1.0
 10
0.0
 20
0.0
 30
2.000000000000000E+50
 75
     0
  1
AcDbOsnapPointRef
 72
     1
331
2DD9
 73
     2
 91
        0
 40
1.0
 10
0.0
 20
0.0
 30
2.000000000000000E+50
 75
     0
  0
DIMASSOC
  5
2E79
102
{ACAD_REACTORS
330
2E6F
102
}
330
2E6F
100
AcDbDimAssoc
330
2E62
 90
        3
 70
     0
 71
     0
  1
AcDbOsnapPointRef
 72
     6
331
2D9F
 73
     2
 91
        0
 40
-0.0000000000000071
 10
0.0
 20
0.0
 30
0.0
332
2D9E
 74
     2
 92
        0
 75
     0
  1
AcDbOsnapPointRef
 72
    13
331
2D90
 73
     2
 91
        0
 40
0.0
 10
0.0
 20
0.0
 30
2.000000000000000E+50
 75
     0
  0
DIMASSOC
  5
2E91
102
{ACAD_REACTORS
330
2E87
102
}
330
2E87
100
AcDbDimAssoc
330
2E7A
 90
        3
 70
     0
 71
     0
  1
AcDbOsnapPointRef
 72
    13
331
2D90
 73
     2
 91
        0
 40
0.0
 10
0.0
 20
0.0
 30
2.000000000000000E+50
 75
     0
  1
AcDbOsnapPointRef
 72
    13
331
2D66
 73
     2
 91
        0
 40
0.0
 10
0.0
 20
0.0
 30
2.000000000000000E+50
 75
     0
  0
DIMASSOC
  5
2F3A
102
{ACAD_REACTORS
330
2F30
102
}
330
2F30
100
AcDbDimAssoc
330
2F23
 90
        3
 70
     0
 71
     0
  1
AcDbOsnapPointRef
 72
    13
331
2B3A
 73
     2
 91
        0
 40
0.0
 10
0.0
 20
0.0
 30
2.000000000000000E+50
 75
     0
  1
AcDbOsnapPointRef
 72
     1
331
2C32
 73
     2
 91
        0
 40
1.0
 10
0.0
 20
0.0
 30
2.000000000000000E+50
 75
     0
  0
DIMASSOC
  5
2F52
102
{ACAD_REACTORS
330
2F48
102
}
330
2F48
100
AcDbDimAssoc
330
2F3B
 90
        3
 70
     0
 71
     0
  1
AcDbOsnapPointRef
 72
     1
331
2C41
 73
     2
 91
        0
 40
1.0
 10
0.0
 20
0.0
 30
2.000000000000000E+50
 75
     0
  1
AcDbOsnapPointRef
 72
    13
331
2B37
 73
     2
 91
        0
 40
0.0
 10
0.0
 20
0.0
 30
2.000000000000000E+50
 75
     0
  0
DIMASSOC
  5
2F6A
102
{ACAD_REACTORS
330
2F60
102
}
330
2F60
100
AcDbDimAssoc
330
2F53
 90
        3
 70
     0
 71
     0
  1
AcDbOsnapPointRef
 72
     1
331
2B37
 73
     2
 91
        0
 40
0.9999999999999998
 10
0.0
 20
0.0
 30
2.000000000000000E+50
 75
     0
  1
AcDbOsnapPointRef
 72
    13
331
2B3B
 73
     2
 91
        0
 40
0.0
 10
0.0
 20
0.0
 30
2.000000000000000E+50
 75
     0
  0
DIMASSOC
  5
3284
102
{ACAD_REACTORS
330
3283
102
}
330
3283
100
AcDbDimAssoc
330
3282
 90
        3
 70
     0
 71
     0
  1
AcDbOsnapPointRef
 72
     1
331
327E
 73
     2
 91
        0
 40
1.0
 10
0.0
 20
0.0
 30
2.000000000000000E+50
 75
     0
  1
AcDbOsnapPointRef
 72
     1
331
327A
 73
     2
 91
        0
 40
1.0
 10
0.0
 20
0.0
 30
2.000000000000000E+50
 75
     0
  0
DIMASSOC
  5
3287
102
{ACAD_REACTORS
330
3286
102
}
330
3286
100
AcDbDimAssoc
330
3285
 90
        3
 70
     0
 71
     0
  1
AcDbOsnapPointRef
 72
     6
331
3242
 73
     2
 91
        0
 40
-0.0000000000000071
 10
0.0
 20
0.0
 30
0.0
332
3241
 74
     2
 92
        0
 75
     0
  1
AcDbOsnapPointRef
 72
    13
331
3233
 73
     2
 91
        0
 40
0.0
 10
0.0
 20
0.0
 30
2.000000000000000E+50
 75
     0
  0
DIMASSOC
  5
328A
102
{ACAD_REACTORS
330
3289
102
}
330
3289
100
AcDbDimAssoc
330
3288
 90
        3
 70
     0
 71
     0
  1
AcDbOsnapPointRef
 72
    13
331
3233
 73
     2
 91
        0
 40
0.0
 10
0.0
 20
0.0
 30
2.000000000000000E+50
 75
     0
  1
AcDbOsnapPointRef
 72
    13
331
3209
 73
     2
 91
        0
 40
0.0
 10
0.0
 20
0.0
 30
2.000000000000000E+50
 75
     0
  0
DIMASSOC
  5
3930
102
{ACAD_REACTORS
330
3926
102
}
330
3926
100
AcDbDimAssoc
330
3919
 90
        3
 70
     0
 71
     0
  1
AcDbOsnapPointRef
 72
    13
331
3182
 73
     2
 91
        0
 40
0.0
 10
0.0
 20
0.0
 30
2.000000000000000E+50
 75
     0
  1
AcDbOsnapPointRef
 72
    13
331
3129
 73
     2
 91
        0
 40
0.0
 10
0.0
 20
0.0
 30
2.000000000000000E+50
 75
     0
  0
DIMASSOC
  5
396B
102
{ACAD_REACTORS
330
3961
102
}
330
3961
100
AcDbDimAssoc
330
3954
 90
        3
 70
     0
 71
     0
  1
AcDbOsnapPointRef
 72
     1
331
338F
 73
     2
 91
        0
 40
1.0
 10
0.0
 20
0.0
 30
2.000000000000000E+50
 75
     0
  1
AcDbOsnapPointRef
 72
    13
331
3165
 73
     2
 91
        0
 40
0.0
 10
0.0
 20
0.0
 30
2.000000000000000E+50
 75
     0
  0
DIMASSOC
  5
3996
102
{ACAD_REACTORS
330
398C
102
}
330
398C
100
AcDbDimAssoc
330
397F
 90
        3
 70
     0
 71
     0
  1
AcDbOsnapPointRef
 72
    13
331
3183
 73
     2
 91
        0
 40
0.0
 10
0.0
 20
0.0
 30
2.000000000000000E+50
 75
     0
  1
AcDbOsnapPointRef
 72
    13
331
31FA
 73
     2
 91
        0
 40
0.0
 10
0.0
 20
0.0
 30
2.000000000000000E+50
 75
     0
  0
DIMASSOC
  5
3CD1
102
{ACAD_REACTORS
330
3CC7
102
}
330
3CC7
100
AcDbDimAssoc
330
3CBA
 90
        2
 70
     0
 71
     0
  1
AcDbOsnapPointRef
 72
     1
331
3260
 73
     2
 91
        0
 40
1.0
 10
0.0
 20
0.0
 30
2.000000000000000E+50
 75
     0
  0
DIMASSOC
  5
3D46
102
{ACAD_REACTORS
330
3D3C
102
}
330
3D3C
100
AcDbDimAssoc
330
3D2F
 90
        3
 70
     0
 71
     0
  1
AcDbOsnapPointRef
 72
     2
331
31FD
 73
     2
 91
        0
 40
0.5
 10
0.0
 20
0.0
 30
0.0
 75
     0
  1
AcDbOsnapPointRef
 72
    13
331
3135
 73
     2
 91
        0
 40
0.0
 10
0.0
 20
0.0
 30
2.000000000000000E+50
 75
     0
  0
LAYOUT
  5
1E
102
{ACAD_XDICTIONARY
360
3F25
102
}
102
{ACAD_REACTORS
330
1A
102
}
330
1A
100
AcDbPlotSettings
  1

  2
自動 RD 上的 Epson Stylus Photo 750 單色
  4

  6

 40
0.0
 41
0.0
 42
0.0
 43
0.0
 44
0.0
 45
0.0
 46
0.0
 47
0.0
 48
0.0
 49
0.0
140
0.0
141
0.0
142
1.0
143
1.0
 70
   688
 72
     0
 73
     0
 74
     5
  7
彩色出圖.ctb
 75
    16
147
1.0
148
0.0
149
0.0
100
AcDbLayout
  1
Layout1
 70
     1
 71
     1
 10
0.0
 20
0.0
 11
420.0
 21
297.0
 12
0.0
 22
0.0
 32
0.0
 14
1.000000000000000E+20
 24
1.000000000000000E+20
 34
1.000000000000000E+20
 15
-1.000000000000000E+20
 25
-1.000000000000000E+20
 35
-1.000000000000000E+20
146
0.0
 13
0.0
 23
0.0
 33
0.0
 16
1.0
 26
0.0
 36
0.0
 17
0.0
 27
1.0
 37
0.0
 76
     0
330
1B
  0
LAYOUT
  5
26
102
{ACAD_XDICTIONARY
360
3F29
102
}
102
{ACAD_REACTORS
330
1A
102
}
330
1A
100
AcDbPlotSettings
  1

  2
自動 RD 上的 Epson Stylus Photo 750 單色
  4

  6

 40
0.0
 41
0.0
 42
0.0
 43
0.0
 44
0.0
 45
0.0
 46
0.0
 47
0.0
 48
0.0
 49
0.0
140
0.0
141
0.0
142
1.0
143
1.0
 70
   688
 72
     0
 73
     0
 74
     5
  7
彩色出圖.ctb
 75
    16
147
1.0
148
0.0
149
0.0
100
AcDbLayout
  1
Layout2
 70
     1
 71
     2
 10
0.0
 20
0.0
 11
12.0
 21
9.0
 12
0.0
 22
0.0
 32
0.0
 14
0.0
 24
0.0
 34
0.0
 15
0.0
 25
0.0
 35
0.0
146
0.0
 13
0.0
 23
0.0
 33
0.0
 16
1.0
 26
0.0
 36
0.0
 17
0.0
 27
1.0
 37
0.0
 76
     0
330
23
  0
LAYOUT
  5
22
102
{ACAD_XDICTIONARY
360
3F27
102
}
102
{ACAD_REACTORS
330
1A
102
}
330
1A
100
AcDbPlotSettings
  1

  2
\\RDS1\OKI C5150n
  4
A4
  6

 40
5.027083396911621
 41
5.027085304260253
 42
5.027084350585937
 43
5.027069091796875
 44
209.9733276367187
 45
296.9259948730469
 46
0.0
 47
20.50765403494121
 48
-190.5231031881015
 49
-211.5730552168188
140
180.3344879215704
141
89.99118359875557
142
1.0
143
1.508430902684247
 70
 11956
 72
     1
 73
     1
 74
     4
  7
彩色出圖.ctb
 75
     0
147
0.6629405418706971
148
190.5231031881015
149
211.5730552168188
100
AcDbLayout
  1
Model
 70
     1
 71
     0
 10
0.0
 20
0.0
 11
12.0
 21
9.0
 12
0.0
 22
0.0
 32
0.0
 14
0.0
 24
0.0
 34
0.0
 15
0.0
 25
0.0
 35
0.0
146
0.0
 13
0.0
 23
0.0
 33
0.0
 16
1.0
 26
0.0
 36
0.0
 17
0.0
 27
1.0
 37
0.0
 76
     0
330
1F
1001
ACAD_PSEXT
1000
\\RDS1\OKI C5150n
1000
OKI C5150n
1000
\\RDS1
1000

1070
     0
  0
MLINESTYLE
  5
18
102
{ACAD_REACTORS
330
17
102
}
330
17
100
AcDbMlineStyle
  2
STANDARD
 70
     0
  3

 62
   256
 51
90.0
 52
90.0
 71
     2
 49
0.5
 62
   256
  6
BYLAYER
 49
-0.5
 62
   256
  6
BYLAYER
  0
ACDBPLACEHOLDER
  5
F
102
{ACAD_REACTORS
330
E
102
}
330
E
  0
TABLESTYLE
  5
7D3
102
{ACAD_REACTORS
330
7D2
102
}
330
7D2
100
AcDbTableStyle
  3
Standard
 70
     0
 71
     0
 40
1.5
 41
1.5
280
     0
281
     0
  7
STANDARD
140
4.5
170
     2
 62
     0
 63
     7
283
     0
274
    -2
284
     1
 64
     0
275
    -2
285
     1
 65
     0
276
    -2
286
     1
 66
     0
277
    -2
287
     1
 67
     0
278
    -2
288
     1
 68
     0
279
    -2
289
     1
 69
     0
  7
STANDARD
140
6.0
170
     5
 62
     0
 63
     7
283
     0
274
    -2
284
     1
 64
     0
275
    -2
285
     1
 65
     0
276
    -2
286
     1
 66
     0
277
    -2
287
     1
 67
     0
278
    -2
288
     1
 68
     0
279
    -2
289
     1
 69
     0
  7
STANDARD
140
4.5
170
     5
 62
     0
 63
     7
283
     0
274
    -2
284
     1
 64
     0
275
    -2
285
     1
 65
     0
276
    -2
286
     1
 66
     0
277
    -2
287
     1
 67
     0
278
    -2
288
     1
 68
     0
279
    -2
289
     1
 69
     0
  0
DICTIONARYVAR
  5
847
102
{ACAD_REACTORS
330
82
102
}
330
82
100
DictionaryVariables
280
     0
  1
STANDARD
  0
DICTIONARYVAR
  5
85
102
{ACAD_REACTORS
330
82
102
}
330
82
100
DictionaryVariables
280
     0
  1
2
  0
DICTIONARYVAR
  5
84
102
{ACAD_REACTORS
330
82
102
}
330
82
100
DictionaryVariables
280
     0
  1
1
  0
DICTIONARYVAR
  5
83
102
{ACAD_REACTORS
330
82
102
}
330
82
100
DictionaryVariables
280
     0
  1
1
  0
DICTIONARYVAR
  5
848
102
{ACAD_REACTORS
330
82
102
}
330
82
100
DictionaryVariables
280
     0
  1

  0
DICTIONARY
  5
4A
102
{ACAD_REACTORS
330
45
102
}
330
45
100
AcDbDictionary
281
     1
  0
XRECORD
  5
7DF
102
{ACAD_REACTORS
330
45
102
}
330
45
100
AcDbXrecord
280
     1
 90
-1023410169
  0
LAYER_INDEX
  5
291B
102
{ACAD_REACTORS
330
291A
102
}
330
291A
100
AcDbIndex
 40
2454320.396566655
100
AcDbLayerIndex
  8
0
360
3F1B
 90
      173
  8
Defpoints
360
3F1C
 90
        0
  8
AM_7
360
3F1D
 90
       35
  8
AM_VIS
360
3F1E
 90
      584
  8
AM_4
360
3F1F
 90
        8
  8
LOGO
360
3F20
 90
       90
  8
AM_0N
360
3F21
 90
        6
  0
DICTIONARY
  5
3F25
330
1E
100
AcDbDictionary
280
     1
281
     1
  3
ACAD_XREC_ROUNDTRIP
360
3F26
  0
DICTIONARY
  5
3F29
330
26
100
AcDbDictionary
280
     1
281
     1
  3
ACAD_XREC_ROUNDTRIP
360
3F2A
  0
DICTIONARY
  5
3F27
330
22
100
AcDbDictionary
280
     1
281
     1
  3
ACAD_XREC_ROUNDTRIP
360
3F28
  0
IDBUFFER
  5
3F1B
330
0
100
AcDbIdBuffer
330
3C20
330
3C21
330
3C22
330
3C23
330
3C24
330
3C25
330
3C26
330
3C27
330
3C28
330
3C29
330
3C2A
330
3C2C
330
3C2D
330
3C30
330
3C31
330
3C32
330
3C33
330
3C34
330
3C35
330
3C36
330
3C37
330
3C38
330
3C39
330
3C3A
330
3C3B
330
3C3C
330
3C3D
330
3C3E
330
3C3F
330
3C40
330
3C41
330
3C42
330
3C43
330
3C44
330
3C45
330
3C46
330
3C47
330
3C48
330
3C49
330
3C4A
330
3C4B
330
3C4C
330
3C4D
330
3C4F
330
3C50
330
3C51
330
3C52
330
3C53
330
3C54
330
3C55
330
3C56
330
3C57
330
3C58
330
3C5C
330
3CBA
330
3D1B
330
3D2F
330
3D76
330
3EFE
330
3EFF
330
3F00
330
21DB
330
21DC
330
21DF
330
21E0
330
21E3
330
21E4
330
21ED
330
21EE
330
21F1
330
21F2
330
21F5
330
21F6
330
2C33
330
2C34
330
2C36
330
2C37
330
2C38
330
2C39
330
2C3A
330
2C3B
330
2C3C
330
2C3D
330
2C3E
330
2C3F
330
2C40
330
2C42
330
2C43
330
2C44
330
2C46
330
2C47
330
2C48
330
2C49
330
2C4A
330
2C4B
330
2C4C
330
2C4D
330
2C4E
330
2C4F
330
2C5A
330
2DB9
330
2DBF
330
2DC0
330
2DC1
330
2DC2
330
2DC3
330
2DC6
330
2DC7
330
2DC8
330
2DC9
330
2DCA
330
2DCB
330
2DCC
330
2E4A
330
2E62
330
2E7A
330
2F1F
330
2F20
330
2F21
330
2F22
330
2F23
330
2F3B
330
2F53
330
313F
330
3140
330
3141
330
3142
330
3143
330
3144
330
3145
330
3146
330
3147
330
3148
330
3149
330
314A
330
314B
330
314D
330
314E
330
314F
330
3150
330
3151
330
3152
330
3153
330
3154
330
3155
330
3156
330
3157
330
3158
330
3159
330
3164
330
325B
330
3261
330
3262
330
3263
330
3264
330
3265
330
3267
330
3268
330
3269
330
326A
330
326B
330
326C
330
326D
330
3282
330
3285
330
3288
330
328B
330
328C
330
3919
330
3954
330
397F
330
39F4
330
3C1F
  0
IDBUFFER
  5
3F1C
330
0
100
AcDbIdBuffer
  0
IDBUFFER
  5
3F1D
330
0
100
AcDbIdBuffer
330
313E
330
314C
330
3169
330
316A
330
325F
330
3260
330
3271
330
3272
330
3275
330
3276
330
3279
330
327A
330
327D
330
327E
330
344E
330
3480
330
354C
330
3C1E
330
3C4E
330
2B36
330
2C32
330
2C41
330
2C5F
330
2C60
330
2DBD
330
2DBE
330
2DD0
330
2DD1
330
2DD4
330
2DD5
330
2DD8
330
2DD9
330
2DDC
330
2DDD
330
3124
  0
IDBUFFER
  5
3F1E
330
0
100
AcDbIdBuffer
330
3220
330
3221
330
3222
330
3223
330
3224
330
3225
330
3226
330
3227
330
3228
330
3229
330
322A
330
322B
330
322C
330
322D
330
322E
330
322F
330
3230
330
3231
330
3232
330
3233
330
3234
330
3235
330
3236
330
3237
330
3238
330
3239
330
323A
330
323B
330
323C
330
323D
330
323E
330
323F
330
3240
330
3241
330
3242
330
3243
330
3244
330
3245
330
3246
330
3247
330
3248
330
3249
330
324A
330
324B
330
324C
330
324D
330
324E
330
324F
330
325C
330
325D
330
325E
330
326E
330
326F
330
3273
330
3274
330
3277
330
3278
330
327B
330
327C
330
329F
330
32A0
330
32A2
330
32A3
330
336B
330
336C
330
338E
330
338F
330
365C
330
365D
330
39A1
330
39A2
330
39A3
330
39A4
330
39A5
330
39A6
330
39A7
330
39A8
330
39A9
330
39AA
330
39AB
330
39AC
330
39AD
330
39AE
330
39AF
330
3DA7
330
3DA8
330
3DA9
330
3DAA
330
2B37
330
2B38
330
2B39
330
2B3A
330
2B3B
330
2B3C
330
2B3D
330
2B3E
330
2B3F
330
2B40
330
2B41
330
2B42
330
2B43
330
2B44
330
2B45
330
2B46
330
2B47
330
2B49
330
2B4D
330
2B93
330
2BA0
330
2BE6
330
2C01
330
2C1B
330
2C2E
330
2C50
330
2C51
330
2C52
330
2C53
330
2C54
330
2C55
330
2C56
330
2C57
330
2C58
330
2C59
330
2C5B
330
2C5C
330
2C5D
330
2C5E
330
2C61
330
2C62
330
2C63
330
2C64
330
2C65
330
2C66
330
2C67
330
2C68
330
2C69
330
2C6A
330
2C6B
330
2C6C
330
2C6D
330
2C6E
330
2C6F
330
2C70
330
2C71
330
2C72
330
2C73
330
2C74
330
2C75
330
2C76
330
2C77
330
2C78
330
2C79
330
2C7A
330
2C7B
330
2C7C
330
2C7D
330
2C7E
330
2C7F
330
2C80
330
2C81
330
2C82
330
2C83
330
2C84
330
2C85
330
2C86
330
2C87
330
2C88
330
2C89
330
2C8A
330
2C8B
330
2C8C
330
2C8D
330
2C8E
330
2C8F
330
2C90
330
2C91
330
2C92
330
2C93
330
2C94
330
2C95
330
2C96
330
2C97
330
2C98
330
2C99
330
2C9A
330
2C9B
330
2C9C
330
2C9D
330
2C9E
330
2C9F
330
2CA0
330
2CA1
330
2CA2
330
2CA3
330
2CA4
330
2CA5
330
2CA6
330
2CA7
330
2CA8
330
2CA9
330
2CAA
330
2CAB
330
2CAC
330
2CAD
330
2CAE
330
2CAF
330
2CB0
330
2CB1
330
2CB2
330
2CB3
330
2CB4
330
2CB5
330
2CB6
330
2CB7
330
2CB8
330
2CB9
330
2CBA
330
2CBB
330
2CBC
330
2CBD
330
2CBE
330
2CBF
330
2CC0
330
2CC1
330
2CC2
330
2CC3
330
2CC4
330
2CC5
330
2CC6
330
2CC7
330
2CC8
330
2CC9
330
2CCA
330
2CCB
330
2CCC
330
2CCD
330
2CCE
330
2CCF
330
2CD0
330
2CD1
330
2CD2
330
2CD3
330
2CD4
330
2CD5
330
2CD6
330
2CD7
330
2CD8
330
2CD9
330
2CDA
330
2CDB
330
2CDC
330
2CDD
330
2CDE
330
2CDF
330
2CE0
330
2CE1
330
2CE2
330
2CE3
330
2CE4
330
2CE5
330
2CE6
330
2CE7
330
2CE8
330
2CE9
330
2CEA
330
2CEB
330
2CEC
330
2CED
330
2CEE
330
2CEF
330
2CF0
330
2CF1
330
2CF2
330
2CF3
330
2D5B
330
2D5C
330
2D5D
330
2D5E
330
2D5F
330
2D60
330
2D61
330
2D62
330
2D63
330
2D64
330
2D65
330
2D66
330
2D67
330
2D68
330
2D69
330
2D6A
330
2D6B
330
2D6C
330
2D6D
330
2D6E
330
2D6F
330
2D70
330
2D71
330
2D72
330
2D73
330
2D74
330
2D75
330
2D76
330
2D77
330
2D78
330
2D79
330
2D7A
330
2D7B
330
2D7C
330
2D7D
330
2D7E
330
2D7F
330
2D80
330
2D81
330
2D82
330
2D83
330
2D84
330
2D85
330
2D86
330
2D87
330
2D88
330
2D89
330
2D8A
330
2D8B
330
2D8C
330
2D8D
330
2D8E
330
2D8F
330
2D90
330
2D91
330
2D92
330
2D93
330
2D94
330
2D95
330
2D96
330
2D97
330
2D98
330
2D99
330
2D9A
330
2D9B
330
2D9C
330
2D9D
330
2D9E
330
2D9F
330
2DA0
330
2DA1
330
2DA2
330
2DA3
330
2DA4
330
2DA5
330
2DA6
330
2DA7
330
2DA8
330
2DA9
330
2DAA
330
2DAB
330
2DAC
330
2DAD
330
2DAE
330
2DAF
330
2DB0
330
2DB1
330
2DB2
330
2DB3
330
2DB4
330
2DB5
330
2DB6
330
2DB8
330
2DBA
330
2DBB
330
2DBC
330
2DCD
330
2DCE
330
2DD2
330
2DD3
330
2DD6
330
2DD7
330
2DDA
330
2DDB
330
3125
330
3126
330
3127
330
3128
330
3129
330
312A
330
312B
330
312C
330
312D
330
312E
330
312F
330
3130
330
3131
330
3132
330
3133
330
3134
330
3135
330
3136
330
3137
330
3138
330
3139
330
313A
330
313B
330
313C
330
313D
330
315A
330
315B
330
315C
330
315D
330
315E
330
315F
330
3160
330
3161
330
3162
330
3163
330
3165
330
3166
330
316B
330
316C
330
316D
330
316E
330
316F
330
3170
330
3171
330
3172
330
3173
330
3174
330
3175
330
3176
330
3177
330
3178
330
3179
330
317A
330
317B
330
317C
330
317D
330
317E
330
317F
330
3180
330
3181
330
3182
330
3183
330
3184
330
3185
330
3186
330
3187
330
3188
330
3189
330
318A
330
318B
330
318C
330
318D
330
318E
330
318F
330
3190
330
3191
330
3192
330
3193
330
3194
330
3195
330
3196
330
3197
330
3198
330
3199
330
319A
330
319B
330
319C
330
319D
330
319E
330
319F
330
31A0
330
31A1
330
31A2
330
31A3
330
31A4
330
31A5
330
31A6
330
31A7
330
31A8
330
31A9
330
31AA
330
31AB
330
31AC
330
31AD
330
31B0
330
31B1
330
31B2
330
31B3
330
31B4
330
31B5
330
31B6
330
31B8
330
31B9
330
31BA
330
31BB
330
31BC
330
31BD
330
31BE
330
31BF
330
31C0
330
31C1
330
31C2
330
31C3
330
31C4
330
31C5
330
31C6
330
31C7
330
31C8
330
31C9
330
31CA
330
31CB
330
31CC
330
31CD
330
31CE
330
31CF
330
31D0
330
31D1
330
31D2
330
31D3
330
31D4
330
31D5
330
31D6
330
31DE
330
31DF
330
31E0
330
31E1
330
31E2
330
31E3
330
31E4
330
31E5
330
31E6
330
31E7
330
31E8
330
31EA
330
31EB
330
31EC
330
31ED
330
31EE
330
31EF
330
31F0
330
31F1
330
31F2
330
31F3
330
31F4
330
31F6
330
31F7
330
31F8
330
31F9
330
31FA
330
31FB
330
31FC
330
31FD
330
31FE
330
31FF
330
3200
330
3201
330
3202
330
3203
330
3204
330
3205
330
3206
330
3207
330
3208
330
3209
330
320A
330
320B
330
320C
330
320D
330
320E
330
320F
330
3210
330
3211
330
3212
330
3213
330
3214
330
3215
330
3216
330
3217
330
3218
330
3219
330
321A
330
321B
330
321C
330
321D
330
321E
330
321F
  0
IDBUFFER
  5
3F1F
330
0
100
AcDbIdBuffer
330
2DCF
330
2DDE
330
2DDF
330
2DE0
330
3270
330
327F
330
3280
330
3281
  0
IDBUFFER
  5
3F20
330
0
100
AcDbIdBuffer
330
3EAE
330
3EAF
330
3EB0
330
3EB1
330
3EB2
330
3EB3
330
3EB4
330
3EB5
330
3EB6
330
3EB7
330
3EB8
330
3EB9
330
3EBA
330
3EBB
330
3EBC
330
3EBD
330
3EBE
330
3EBF
330
3ECB
330
3ECC
330
3ECD
330
3ECE
330
3ECF
330
3ED0
330
3ED1
330
3ED2
330
3ED3
330
3ED4
330
3EE2
330
3EE3
330
3EF2
330
3EF3
330
3EF4
330
3EF5
330
3EF6
330
3EF7
330
3EF8
330
3EF9
330
3EFA
330
3EFB
330
3EFC
330
3EFD
330
3E69
330
3E6A
330
3E6B
330
3E6C
330
3E6D
330
3E6E
330
3E6F
330
3E70
330
3E71
330
3E72
330
3E73
330
3E74
330
3E75
330
3E76
330
3E77
330
3E78
330
3E79
330
3E7A
330
3E7B
330
3E7C
330
3E7D
330
3E7E
330
3E7F
330
3E80
330
3E84
330
3E88
330
3E89
330
3E8D
330
3E8E
330
3E8F
330
3E90
330
3E91
330
3E92
330
3E93
330
3E94
330
3E98
330
3E9C
330
3EA0
330
3EA1
330
3EA2
330
3EA6
330
3EA7
330
3EA8
330
3EA9
330
3EAA
330
3EAB
330
3EAC
330
3EAD
  0
IDBUFFER
  5
3F21
330
0
100
AcDbIdBuffer
330
210F
330
2120
330
212A
330
21A8
330
21AB
330
21AE
  0
XRECORD
  5
3F26
102
{ACAD_REACTORS
330
3F25
102
}
330
3F25
100
AcDbXrecord
280
     1
102
SHADEPLOT
 70
     0
102
SHADEPLOTRESLEVEL
 70
     2
102
SHADEPLOTCUSTOMDPI
 70
   300
  0
XRECORD
  5
3F2A
102
{ACAD_REACTORS
330
3F29
102
}
330
3F29
100
AcDbXrecord
280
     1
102
SHADEPLOT
 70
     0
102
SHADEPLOTRESLEVEL
 70
     2
102
SHADEPLOTCUSTOMDPI
 70
   300
  0
XRECORD
  5
3F28
102
{ACAD_REACTORS
330
3F27
102
}
330
3F27
100
AcDbXrecord
280
     1
102
SHADEPLOT
 70
     0
102
SHADEPLOTRESLEVEL
 70
     2
102
SHADEPLOTCUSTOMDPI
 70
   300
  0
ENDSEC
  0
EOF
