  0
SECTION
  2
HEADER
  9
$ACADVER
  1
AC1009
  9
$INSBASE
 10
0.0
 20
0.0
 30
0.0
  9
$EXTMIN
 10
1.0000000000000000E+020
 20
1.0000000000000000E+020
 30
1.0000000000000000E+020
  9
$EXTMAX
 10
-1.0000000000000000E+020
 20
-1.0000000000000000E+020
 30
-1.0000000000000000E+020
  9
$LIMMIN
 10
0.0
 20
0.0
  9
$LIMMAX
 10
420.0
 20
297.0
  9
$ORTHOMODE
 70
     1
  9
$REGENMODE
 70
     1
  9
$FILLMODE
 70
     1
  9
$QTEXTMODE
 70
     0
  9
$MIRRTEXT
 70
     1
  9
$DRAGMODE
 70
     2
  9
$LTSCALE
 40
0.6666666666666666
  9
$OSMODE
 70
    37
  9
$ATTMODE
 70
     1
  9
$TEXTSIZE
 40
3.0
  9
$TRACEWID
 40
1.0
  9
$TEXTSTYLE
  7
STANDARD
  9
$CLAYER
  8
0
  9
$CELTYPE
  6
BYLAYER
  9
$CECOLOR
 62
     5
  9
$DIMSCALE
 40
1.0
  9
$DIMASZ
 40
3.0
  9
$DIMEXO
 40
1.5
  9
$DIMDLI
 40
8.0
  9
$DIMRND
 40
0.0
  9
$DIMDLE
 40
0.0
  9
$DIMEXE
 40
1.5
  9
$DIMTP
 40
0.1
  9
$DIMTM
 40
0.1
  9
$DIMTXT
 40
3.0
  9
$DIMCEN
 40
0.0
  9
$DIMTSZ
 40
0.0
  9
$DIMTOL
 70
     0
  9
$DIMLIM
 70
     0
  9
$DIMTIH
 70
     0
  9
$DIMTOH
 70
     0
  9
$DIMSE1
 70
     0
  9
$DIMSE2
 70
     0
  9
$DIMTAD
 70
     1
  9
$DIMZIN
 70
     8
  9
$DIMBLK
  1

  9
$DIMASO
 70
     1
  9
$DIMSHO
 70
     1
  9
$DIMPOST
  1

  9
$DIMAPOST
  1
"
  9
$DIMALT
 70
     0
  9
$DIMALTD
 70
     2
  9
$DIMALTF
 40
0.0393701
  9
$DIMLFAC
 40
1.0
  9
$DIMTOFL
 70
     1
  9
$DIMTVP
 40
0.0
  9
$DIMTIX
 70
     0
  9
$DIMSOXD
 70
     0
  9
$DIMSAH
 70
     0
  9
$DIMBLK1
  1

  9
$DIMBLK2
  1

  9
$DIMSTYLE
  2
AM_ISO
  9
$DIMCLRD
 70
     5
  9
$DIMCLRE
 70
     5
  9
$DIMCLRT
 70
     5
  9
$DIMTFAC
 40
0.71
  9
$DIMGAP
 40
1.0
  9
$LUNITS
 70
     2
  9
$LUPREC
 70
     2
  9
$SKETCHINC
 40
1.0
  9
$FILLETRAD
 40
2.5
  9
$AUNITS
 70
     0
  9
$AUPREC
 70
     0
  9
$MENU
  1
.
  9
$ELEVATION
 40
0.0
  9
$PELEVATION
 40
0.0
  9
$THICKNESS
 40
0.0
  9
$LIMCHECK
 70
     0
  9
$BLIPMODE
 70
     0
  9
$CHAMFERA
 40
2.5
  9
$CHAMFERB
 40
2.5
  9
$SKPOLY
 70
     0
  9
$TDCREATE
 40
2454635.456690996
  9
$TDUPDATE
 40
2454916.454115313
  9
$TDINDWG
 40
0.3950225116
  9
$TDUSRTIMER
 40
0.3950225116
  9
$USRTIMER
 70
     1
  9
$ANGBASE
 50
0.0
  9
$ANGDIR
 70
     0
  9
$PDMODE
 70
     0
  9
$PDSIZE
 40
0.0
  9
$PLINEWID
 40
0.3
  9
$COORDS
 70
     1
  9
$SPLFRAME
 70
     0
  9
$SPLINETYPE
 70
     6
  9
$SPLINESEGS
 70
     8
  9
$ATTDIA
 70
     1
  9
$ATTREQ
 70
     1
  9
$HANDLING
 70
     1
  9
$HANDSEED
  5
17D4
  9
$SURFTAB1
 70
     6
  9
$SURFTAB2
 70
     6
  9
$SURFTYPE
 70
     6
  9
$SURFU
 70
     6
  9
$SURFV
 70
     6
  9
$UCSNAME
  2

  9
$UCSORG
 10
0.0
 20
0.0
 30
0.0
  9
$UCSXDIR
 10
1.0
 20
0.0
 30
0.0
  9
$UCSYDIR
 10
0.0
 20
1.0
 30
0.0
  9
$PUCSNAME
  2

  9
$PUCSORG
 10
0.0
 20
0.0
 30
0.0
  9
$PUCSXDIR
 10
1.0
 20
0.0
 30
0.0
  9
$PUCSYDIR
 10
0.0
 20
1.0
 30
0.0
  9
$USERI1
 70
     0
  9
$USERI2
 70
     0
  9
$USERI3
 70
     0
  9
$USERI4
 70
     0
  9
$USERI5
 70
     0
  9
$USERR1
 40
0.0
  9
$USERR2
 40
0.0
  9
$USERR3
 40
0.0
  9
$USERR4
 40
0.0
  9
$USERR5
 40
0.0
  9
$WORLDVIEW
 70
     1
  9
$SHADEDGE
 70
     3
  9
$SHADEDIF
 70
    70
  9
$TILEMODE
 70
     0
  9
$MAXACTVP
 70
    48
  9
$PLIMCHECK
 70
     0
  9
$PEXTMIN
 10
-0.3958726332417655
 20
-17.990627429566189
 30
-0.0000000000000052
  9
$PEXTMAX
 10
271.24135612352552
 20
361.27392669909739
 30
0.0000000000001322
  9
$PLIMMIN
 10
-9.8126897269324278
 20
-34.317852990035178
  9
$PLIMMAX
 10
280.8799527495097
 20
376.75436766328198
  9
$UNITMODE
 70
     0
  9
$VISRETAIN
 70
     1
  9
$PLINEGEN
 70
     0
  9
$PSLTSCALE
 70
     1
  0
ENDSEC
  0
SECTION
  2
TABLES
  0
TABLE
  2
VPORT
 70
     1
  0
VPORT
  2
*ACTIVE
 70
     0
 10
0.0
 20
0.0
 11
1.0
 21
1.0
 12
0.0
 22
0.0
 13
0.0
 23
0.0
 14
2.5
 24
2.5
 15
10.0
 25
10.0
 16
0.0
 26
0.0
 36
1.0
 17
0.0
 27
0.0
 37
0.0
 40
2.0000000000000000E+020
 41
1.0
 42
50.0
 43
0.0
 44
0.0
 50
0.0
 51
0.0
 71
     0
 72
   100
 73
     1
 74
     1
 75
     0
 76
     0
 77
     0
 78
     0
  0
ENDTAB
  0
TABLE
  2
LTYPE
 70
    14
  0
LTYPE
  2
CONTINUOUS
 70
     0
  3
Solid line
 72
    65
 73
     0
 40
0.0
  0
LTYPE
  2
AM_ISO02W050X2
 70
     0
  3
 _ _ _ _ _ _ _ _ _ _ _ _
 72
    65
 73
     2
 40
3.75
 49
3.0
 49
-0.75
  0
LTYPE
  2
AM_ISO08W050X2
 70
     0
  3
__ . __ . __ . __ . __ . __
 72
    65
 73
     4
 40
9.0
 49
6.0
 49
-0.75
 49
1.5
 49
-0.75
  0
LTYPE
  2
HIDDEN
 70
     0
  3
Hidden __ __ __ __ __ __ __ __ __ __ __ __ __ _
 72
    65
 73
     2
 40
9.5249999999999986
 49
6.3499999999999988
 49
-3.1749999999999989
  0
LTYPE
  2
PHANTOM2
 70
     0
  3
Phantom (.5x) ___ _ _ ___ _ _ ___ _ _ ___ _ _
 72
    65
 73
     6
 40
31.75
 49
15.875
 49
-3.1749999999999989
 49
3.1749999999999989
 49
-3.1749999999999989
 49
3.1749999999999989
 49
-3.1749999999999989
  0
LTYPE
  2
CENTER
 70
     0
  3
Center ____ _ ____ _ ____ _ ____ _ ____ _ ____
 72
    65
 73
     4
 40
50.799999999999997
 49
31.75
 49
-6.3499999999999988
 49
6.3499999999999988
 49
-6.3499999999999988
  0
LTYPE
  2
AM_ISO02W050
 70
     0
  3
__ __ __ __ __ __ __ __ __ __ __ __ __ __ __
 72
    65
 73
     2
 40
7.5
 49
6.0
 49
-1.5
  0
LTYPE
  2
AM_ISO08W050
 70
     0
  3
____ . ____ . ____ . ____ . ____ . ____ . ____
 72
    65
 73
     4
 40
18.0
 49
12.0
 49
-1.5
 49
3.0
 49
-1.5
  0
LTYPE
  2
AM_ISO09W050
 70
     0
  3
_____ . . _____ . . _____ . . ____ .. ____
 72
    65
 73
     6
 40
22.5
 49
12.0
 49
-1.5
 49
3.0
 49
-1.5
 49
3.0
 49
-1.5
  0
LTYPE
  2
AMCONSTR
 70
     0
  3
_______________________
 72
    65
 73
     2
 40
9999.0
 49
9999.0
 49
0.0
  0
LTYPE
  2
AMZIGZAG
 70
     0
  3
/\/-/\/-/\/-/\/-/\/-/\/
 72
    65
 73
     2
 40
11.0001
 49
0.0001
 49
-11.0
  0
LTYPE
  2
ACISOWELD
 70
     0
  3
_ _ _ _ _
 72
    65
 73
     2
 40
2.0
 49
2.0
 49
-1.0
  0
LTYPE
  2
ACISOTGB
 70
     0
  3
__ . . __ . .
 72
    65
 73
     6
 40
9.0
 49
4.0
 49
-1.0
 49
1.0
 49
-1.0
 49
1.0
 49
-1.0
  0
LTYPE
  2
ACISOTGL
 70
     0
  3
_ _ _ _ _
 72
    65
 73
     2
 40
3.0
 49
2.0
 49
-1.0
  0
ENDTAB
  0
TABLE
  2
LAYER
 70
     8
  0
LAYER
  2
0
 70
     0
 62
     7
  6
CONTINUOUS
  0
LAYER
  2
AM_VIS
 70
     0
 62
     7
  6
CONTINUOUS
  0
LAYER
  2
AM_7
 70
     0
 62
     1
  6
AM_ISO08W050X2
  0
LAYER
  2
AM_4
 70
     0
 62
     3
  6
AM_ISO02W050X2
  0
LAYER
  2
LOGO
 70
     0
 62
     7
  6
CONTINUOUS
  0
LAYER
  2
AM_5
 70
     0
 62
     3
  6
CONTINUOUS
  0
LAYER
  2
DEFPOINTS
 70
     0
 62
     7
  6
CONTINUOUS
  0
LAYER
  2
SL
 70
     0
 62
     4
  6
CONTINUOUS
  0
ENDTAB
  0
TABLE
  2
STYLE
 70
     6
  0
STYLE
  2
STANDARD
 70
     0
 40
0.0
 41
1.0
 50
0.0
 71
     0
 42
3.0
  3
simplex.shx
  4
CHINESET.SHX
  0
STYLE
  2

 70
     1
 40
0.0
 41
1.0
 50
0.0
 71
     0
 42
2.0
  3
ltypeshp.shx
  4

  0
STYLE
  2
ACISOTS
 70
     0
 40
1.0
 41
1.0
 50
0.0
 71
     0
 42
2.0
  3
isocp.shx
  4
chineset.shx
  0
STYLE
  2
ACISOGDT
 70
     0
 40
0.0
 41
1.0
 50
0.0
 71
     0
 42
2.0
  3
amgdt.shx
  4

  0
STYLE
  2
CHINESET
 70
     0
 40
0.0
 41
1.0
 50
0.0
 71
     0
 42
4.0
  3
simplex.shx
  4
chineset.shx
  0
ENDTAB
  0
TABLE
  2
VIEW
 70
     0
  0
ENDTAB
  0
TABLE
  2
UCS
 70
     0
  0
ENDTAB
  0
TABLE
  2
APPID
 70
    17
  0
APPID
  2
ACAD
 70
     0
  0
APPID
  2
ACAD_PSEXT
 70
     0
  0
APPID
  2
MCAD_NO_VIS
 70
     0
  0
APPID
  2
ACAD_TEMP_GRAPHIC
 70
     0
  0
APPID
  2
AD_DRAW
 70
     0
  0
APPID
  2
ACATTRIBSERVICES
 70
     0
  0
APPID
  2
DESIGNERASSEMBLIES
 70
     0
  0
APPID
  2
ACADM_DIM_EDIT
 70
     0
  0
APPID
  2
AMDT_DM_ADJ
 70
     0
  0
APPID
  2
GENIUS_GENODEF_13
 70
     0
  0
APPID
  2
GENIUS_GENOREF_13
 70
     0
  0
APPID
  2
GENIUS_GENREC_14
 70
     0
  0
APPID
  2
GENIUS_GENOBJ-N-REC_13
 70
     0
  0
APPID
  2
ACAD_DSTYLE_DIMTEXT_FILL
 70
     0
  0
APPID
  2
GENIUS_GENDTOL_13
 70
     0
  0
APPID
  2
GENIUS_GENDIMSH_14
 70
     0
  0
APPID
  2
ACAECLAYERSTANDARD
 70
     0
  0
ENDTAB
  0
TABLE
  2
DIMSTYLE
 70
    12
  0
DIMSTYLE
  2
AM_ISO
 70
     0
  3

  4
"
  5

  6

  7

 40
1.0
 41
3.0
 42
1.5
 43
8.0
 44
1.5
 45
0.0
 46
0.0
 47
0.1
 48
0.1
140
3.0
141
0.0
142
0.0
143
0.0393701
144
1.0
145
0.0
146
0.71
147
1.0
 71
     0
 72
     0
 73
     0
 74
     0
 75
     0
 76
     0
 77
     1
 78
     8
170
     0
171
     2
172
     1
173
     0
174
     0
175
     0
176
   256
177
   256
178
     2
  0
DIMSTYLE
  2
AM_ISO$SF
 70
     0
  3

  4
"
  5

  6

  7

 40
1.0
 41
3.0
 42
1.0
 43
8.0
 44
1.0
 45
0.0
 46
0.0
 47
0.1
 48
0.1
140
3.0
141
0.0
142
0.0
143
0.0393701
144
1.0
145
0.0
146
0.71
147
1.0
 71
     0
 72
     0
 73
     0
 74
     0
 75
     1
 76
     1
 77
     1
 78
     8
170
     0
171
     2
172
     1
173
     0
174
     0
175
     0
176
   256
177
   256
178
     2
  0
DIMSTYLE
  2
AM_ISO$SH
 70
     0
  3

  4
"
  5

  6

  7

 40
1.0
 41
3.0
 42
1.0
 43
8.0
 44
1.0
 45
0.0
 46
0.0
 47
0.1
 48
0.1
140
3.0
141
0.0
142
0.0
143
0.0393701
144
1.0
145
0.0
146
0.71
147
1.0
 71
     0
 72
     0
 73
     0
 74
     0
 75
     1
 76
     1
 77
     1
 78
     8
170
     0
171
     2
172
     1
173
     0
174
     0
175
     0
176
   256
177
   256
178
     2
  0
DIMSTYLE
  2
AM_ISO$3
 70
     0
  3

  4
"
  5

  6

  7

 40
1.0
 41
3.0
 42
1.5
 43
8.0
 44
1.5
 45
0.0
 46
0.0
 47
0.1
 48
0.1
140
3.0
141
0.0
142
0.0
143
0.0393701
144
1.0
145
0.0
146
0.71
147
1.0
 71
     0
 72
     0
 73
     0
 74
     1
 75
     0
 76
     0
 77
     1
 78
     8
170
     0
171
     2
172
     0
173
     0
174
     0
175
     0
176
   256
177
   256
178
     2
  0
DIMSTYLE
  2
AM_ISO$4
 70
     0
  3

  4
"
  5

  6

  7

 40
1.0
 41
3.0
 42
1.5
 43
8.0
 44
1.5
 45
0.0
 46
0.0
 47
0.1
 48
0.1
140
3.0
141
0.0
142
0.0
143
0.0393701
144
1.0
145
0.0
146
0.71
147
1.0
 71
     0
 72
     0
 73
     0
 74
     1
 75
     0
 76
     0
 77
     1
 78
     8
170
     0
171
     2
172
     0
173
     0
174
     0
175
     0
176
   256
177
   256
178
     2
  0
DIMSTYLE
  2
AM_ISO$6
 70
     0
  3

  4
"
  5

  6

  7

 40
1.0
 41
3.0
 42
1.5
 43
8.0
 44
1.5
 45
0.0
 46
0.0
 47
0.1
 48
0.1
140
3.0
141
0.0
142
0.0
143
0.0393701
144
1.0
145
0.0
146
0.71
147
1.0
 71
     0
 72
     0
 73
     0
 74
     0
 75
     0
 76
     0
 77
     0
 78
     8
170
     0
171
     2
172
     1
173
     0
174
     0
175
     0
176
   256
177
   256
178
     2
  0
DIMSTYLE
  2
AM_ISO$7
 70
     0
  3

  4
"
  5

  6

  7

 40
1.0
 41
2.5
 42
1.5
 43
8.0
 44
1.5
 45
0.0
 46
0.0
 47
0.1
 48
0.1
140
5.0
141
0.0
142
0.0
143
0.0393701
144
1.0
145
0.0
146
0.71
147
1.5
 71
     0
 72
     0
 73
     0
 74
     0
 75
     0
 76
     0
 77
     1
 78
     8
170
     0
171
     2
172
     1
173
     0
174
     0
175
     0
176
   256
177
   256
178
     2
  0
DIMSTYLE
  2
ISO-25-1
 70
     0
  3

  4

  5

  6

  7

 40
1.0
 41
3.0
 42
1.0
 43
2.0
 44
2.0
 45
0.0
 46
0.0
 47
0.0
 48
0.0
140
3.0
141
-3.0
142
0.0
143
25.399999999999999
144
0.5
145
0.0
146
0.7
147
1.0
 71
     0
 72
     0
 73
     0
 74
     0
 75
     0
 76
     0
 77
     1
 78
     8
170
     0
171
     2
172
     1
173
     0
174
     0
175
     0
176
     5
177
     5
178
     5
  0
DIMSTYLE
  2
AM_ISO$0
 70
     0
  3

  4
"
  5

  6

  7

 40
1.0
 41
3.0
 42
1.5
 43
8.0
 44
1.5
 45
0.0
 46
0.0
 47
0.1
 48
0.1
140
3.0
141
0.0
142
0.0
143
0.0393701
144
1.0
145
0.0
146
0.71
147
1.0
 71
     0
 72
     0
 73
     0
 74
     0
 75
     0
 76
     0
 77
     1
 78
     8
170
     0
171
     2
172
     1
173
     0
174
     0
175
     0
176
   256
177
   256
178
     2
  0
DIMSTYLE
  2
ISO-25-1$0
 70
     0
  3

  4

  5

  6

  7

 40
1.0
 41
3.0
 42
1.0
 43
2.0
 44
2.0
 45
0.0
 46
0.0
 47
0.0
 48
0.0
140
3.0
141
-3.0
142
0.0
143
25.399999999999999
144
0.5
145
0.0
146
0.7
147
1.0
 71
     0
 72
     0
 73
     0
 74
     0
 75
     0
 76
     0
 77
     1
 78
     8
170
     0
171
     2
172
     1
173
     0
174
     0
175
     0
176
     5
177
     5
178
     5
  0
DIMSTYLE
  2
STANDARD
 70
     0
  3

  4

  5

  6

  7

 40
0.5
 41
2.5
 42
0.625
 43
3.75
 44
1.25
 45
0.0
 46
0.0
 47
0.0
 48
0.0
140
2.5
141
2.5
142
0.0
143
0.0394
144
1.0
145
0.0
146
1.0
147
0.625
 71
     0
 72
     0
 73
     0
 74
     0
 75
     0
 76
     0
 77
     1
 78
     8
170
     0
171
     4
172
     1
173
     0
174
     0
175
     0
176
     0
177
     0
178
     0
  0
ENDTAB
  0
ENDSEC
  0
SECTION
  2
BLOCKS
  0
BLOCK
  8
0
  2
$MODEL_SPACE
 70
     0
 10
0.0
 20
0.0
 30
0.0
  3
$MODEL_SPACE
  1

  0
ENDBLK
  5
A
  8
0
  0
BLOCK
 67
     1
  8
0
  2
$PAPER_SPACE
 70
     0
 10
0.0
 20
0.0
 30
0.0
  3
$PAPER_SPACE
  1

  0
ENDBLK
  5
11
 67
     1
  8
0
  0
BLOCK
  8
0
  2
_NONE
 70
     0
 10
0.0
 20
0.0
 30
0.0
  3
_NONE
  1

  0
ENDBLK
  5
79A
  8
0
  0
BLOCK
  8
0
  2
*D1
 70
     1
 10
0.0
 20
0.0
 30
0.0
  3
*D1
  1

  0
LINE
  5
132B
  8
AM_5
 62
     5
 10
55.152709559048141
 20
303.88713936657882
 30
0.0
 11
29.84600651229389
 21
278.5804363198244
 31
0.0
  0
LINE
  5
132C
  8
AM_5
 62
     5
 10
88.386728274815951
 20
270.6531206508111
 30
0.0
 11
63.0800252280617
 21
245.3464176040568
 31
0.0
  0
LINE
  5
132D
  8
AM_5
 62
     5
 10
33.381540418226606
 20
277.8733295386379
 30
0.0
 11
62.372918446875111
 21
248.88195150998951
 31
0.0
  0
SOLID
  5
132E
  8
AM_5
 62
     5
 10
33.735093808819883
 20
278.22688292923118
 30
0.0
 11
33.027987027633358
 21
277.51977614804463
 31
0.0
 12
31.260220074666961
 22
279.99464988219751
 32
0.0
 13
31.260220074666961
 23
279.99464988219751
 33
0.0
  0
SOLID
  5
132F
  8
AM_5
 62
     5
 10
62.726471837468402
 20
249.23550490058281
 30
0.0
 11
62.01936505628187
 21
248.5283981193962
 31
0.0
 12
64.494238790434778
 22
246.7606311664299
 32
0.0
 13
64.494238790434778
 23
246.7606311664299
 33
0.0
  0
INSERT
  5
1330
  8
0
 62
     5
  2
*U28
 10
0.0
 20
0.0
 30
0.0
  0
POINT
  5
1331
  8
DEFPOINTS
 62
     0
 10
55.859816340234659
 20
304.59424614776538
 30
0.0
  0
POINT
  5
1332
  8
DEFPOINTS
 62
     0
 10
89.093835056002476
 20
271.36022743199771
 30
0.0
  0
POINT
  5
1333
  8
DEFPOINTS
 62
     0
 10
64.494238790434778
 20
246.7606311664299
 30
0.0
  0
ENDBLK
  5
A4E
  8
0
  0
BLOCK
  8
0
  2
*D2
 70
     1
 10
0.0
 20
0.0
 30
0.0
  3
*D2
  1

  0
LINE
  5
1393
  8
AM_5
 62
     5
 10
77.966953758653176
 20
303.7003121649434
 30
0.0
 11
60.26722064488203
 21
321.40004527871452
 31
0.0
  0
LINE
  5
1394
  8
AM_5
 62
     5
 10
53.677835824895169
 20
285.56302322750832
 30
0.0
 11
39.054017209285583
 21
300.1868418431178
 31
0.0
  0
LINE
  5
1395
  8
AM_5
 62
     5
 10
59.560113863695499
 20
317.86451137278169
 30
0.0
 11
42.589551115218313
 21
300.89394862430441
 31
0.0
  0
SOLID
  5
1396
  8
AM_5
 62
     5
 10
59.206560473102229
 20
318.21806476337503
 30
0.0
 11
59.913667254288782
 21
317.51095798218842
 31
0.0
 12
61.68143420725513
 22
319.98583171634141
 32
0.0
 13
61.68143420725513
 23
319.98583171634141
 33
0.0
  0
SOLID
  5
1397
  8
AM_5
 62
     5
 10
42.23599772462503
 20
301.24750201489769
 30
0.0
 11
42.94310450581159
 21
300.54039523371119
 31
0.0
 12
40.468230771658682
 22
298.7726282807447
 32
0.0
 13
40.468230771658682
 23
298.7726282807447
 33
0.0
  0
INSERT
  5
1398
  8
0
 62
     5
  2
*U34
 10
0.0
 20
0.0
 30
0.0
  0
POINT
  5
1399
  8
DEFPOINTS
 62
     0
 10
78.674060539839729
 20
302.9932053837569
 30
0.0
  0
POINT
  5
139A
  8
DEFPOINTS
 62
     0
 10
54.384942606081722
 20
284.85591644632171
 30
0.0
  0
POINT
  5
139B
  8
DEFPOINTS
 62
     0
 10
40.468230771658682
 20
298.7726282807447
 30
0.0
  0
ENDBLK
  5
A5A
  8
0
  0
BLOCK
  8
0
  2
*D3
 70
     1
 10
0.0
 20
0.0
 30
0.0
  3
*D3
  1

  0
LINE
  5
1346
  8
AM_5
 62
     5
 10
129.2722895051505
 20
292.97723678988211
 30
0.0
 11
122.104323187266
 21
292.97723678988223
 31
0.0
  0
LINE
  5
1347
  8
AM_5
 62
     5
 10
129.27228950515109
 20
282.9772367898824
 30
0.0
 11
122.104323187266
 21
282.9772367898824
 31
0.0
  0
LINE
  5
1348
  8
AM_5
 62
     5
 10
124.104323187266
 20
289.97723678988223
 30
0.0
 11
124.104323187266
 21
285.9772367898824
 31
0.0
  0
SOLID
  5
1349
  8
AM_5
 62
     5
 10
123.604323187266
 20
289.97723678988223
 30
0.0
 11
124.604323187266
 21
289.97723678988223
 31
0.0
 12
124.104323187266
 22
292.97723678988223
 32
0.0
 13
124.104323187266
 23
292.97723678988223
 33
0.0
  0
SOLID
  5
134A
  8
AM_5
 62
     5
 10
123.604323187266
 20
285.9772367898824
 30
0.0
 11
124.604323187266
 21
285.9772367898824
 31
0.0
 12
124.104323187266
 22
282.9772367898824
 32
0.0
 13
124.104323187266
 23
282.9772367898824
 33
0.0
  0
INSERT
  5
134B
  8
0
 62
     5
  2
*U29
 10
0.0
 20
0.0
 30
0.0
  0
POINT
  5
134C
  8
DEFPOINTS
 62
     0
 10
130.2722895051505
 20
292.97723678988211
 30
0.0
  0
POINT
  5
134D
  8
DEFPOINTS
 62
     0
 10
130.27228950515109
 20
282.9772367898824
 30
0.0
  0
POINT
  5
134E
  8
DEFPOINTS
 62
     0
 10
124.104323187266
 20
282.9772367898824
 30
0.0
  0
ENDBLK
  5
A66
  8
0
  0
BLOCK
  8
0
  2
*D4
 70
     1
 10
0.0
 20
0.0
 30
0.0
  3
*D4
  1

  0
LINE
  5
15A5
  8
AM_5
 62
     5
 10
129.90626410136679
 20
226.34943146764681
 30
0.0
 11
129.90626410136679
 21
198.96465515679671
 31
0.0
  0
LINE
  5
15A6
  8
AM_5
 62
     5
 10
134.40626410136679
 20
211.96465515679671
 30
0.0
 11
134.40626410136679
 21
198.96465515679671
 31
0.0
  0
LINE
  5
15A7
  8
AM_5
 62
     5
 10
134.40626410136679
 20
200.96465515679671
 30
0.0
 11
140.40626410136679
 21
200.96465515679671
 31
0.0
  0
LINE
  5
15A8
  8
AM_5
 62
     5
 10
126.9062641013668
 20
200.96465515679671
 30
0.0
 11
115.6205498156525
 21
200.96465515679671
 31
0.0
  0
LINE
  5
15A9
  8
AM_5
 62
     5
 10
134.40626410136679
 20
200.96465515679671
 30
0.0
 11
129.90626410136679
 21
200.96465515679671
 31
0.0
  0
SOLID
  5
15AA
  8
AM_5
 62
     5
 10
126.9062641013668
 20
201.46465515679671
 30
0.0
 11
126.9062641013668
 21
200.46465515679671
 31
0.0
 12
129.90626410136679
 22
200.96465515679671
 32
0.0
 13
129.90626410136679
 23
200.96465515679671
 33
0.0
  0
TEXT
  8
AM_5
  40
3
  5
1640
  62
5
  72
0
  71
0
 10
113.763
 20
198.155
 30
0.000000
  1
4.5
  7
CHINESET
  0
POINT
  5
15AC
  8
DEFPOINTS
 62
     0
 10
129.90626410136679
 20
227.34943146764689
 30
0.0
  0
POINT
  5
15AD
  8
DEFPOINTS
 62
     0
 10
134.40626410136679
 20
212.96465515679671
 30
0.0
  0
POINT
  5
15AE
  8
DEFPOINTS
 62
     0
 10
134.40626410136679
 20
200.96465515679671
 30
0.0
  0
ENDBLK
  5
A73
  8
0
  0
BLOCK
  8
0
  2
*D5
 70
     1
 10
0.0
 20
0.0
 30
0.0
  3
*D5
  1

  0
LINE
  5
1359
  8
AM_5
 62
     5
 10
170.90626410136679
 20
211.96465515679671
 30
0.0
 11
170.90626410136679
 21
198.96465515679671
 31
0.0
  0
LINE
  5
135A
  8
AM_5
 62
     5
 10
165.40626410136679
 20
231.94215777849729
 30
0.0
 11
165.40626410136679
 21
198.96465515679671
 31
0.0
  0
LINE
  5
135B
  8
AM_5
 62
     5
 10
162.40626410136679
 20
200.96465515679671
 30
0.0
 11
159.40626410136679
 21
200.96465515679671
 31
0.0
  0
LINE
  5
135C
  8
AM_5
 62
     5
 10
173.90626410136679
 20
200.96465515679671
 30
0.0
 11
185.19197838708101
 21
200.96465515679671
 31
0.0
  0
LINE
  5
135D
  8
AM_5
 62
     5
 10
165.40626410136679
 20
200.96465515679671
 30
0.0
 11
170.90626410136679
 21
200.96465515679671
 31
0.0
  0
SOLID
  5
135E
  8
AM_5
 62
     5
 10
162.40626410136679
 20
201.46465515679671
 30
0.0
 11
162.40626410136679
 21
200.46465515679671
 31
0.0
 12
165.40626410136679
 22
200.96465515679671
 32
0.0
 13
165.40626410136679
 23
200.96465515679671
 33
0.0
  0
SOLID
  5
135F
  8
AM_5
 62
     5
 10
173.90626410136679
 20
201.46465515679671
 30
0.0
 11
173.90626410136679
 21
200.46465515679671
 31
0.0
 12
170.90626410136679
 22
200.96465515679671
 32
0.0
 13
170.90626410136679
 23
200.96465515679671
 33
0.0
  0
INSERT
  5
1360
  8
0
 62
     5
  2
*U30
 10
0.0
 20
0.0
 30
0.0
  0
POINT
  5
1361
  8
DEFPOINTS
 62
     0
 10
170.90626410136679
 20
212.96465515679671
 30
0.0
  0
POINT
  5
1362
  8
DEFPOINTS
 62
     0
 10
165.40626410136679
 20
232.94215777849729
 30
0.0
  0
POINT
  5
1363
  8
DEFPOINTS
 62
     0
 10
165.40626410136679
 20
200.96465515679671
 30
0.0
  0
ENDBLK
  5
A81
  8
0
  0
BLOCK
  8
0
  2
*D6
 70
     1
 10
0.0
 20
0.0
 30
0.0
  3
*D6
  1

  0
LINE
  5
1364
  8
AM_5
 62
     5
 10
144.90626410136679
 20
231.94215777849729
 30
0.0
 11
144.90626410136679
 21
198.96465515679671
 31
0.0
  0
LINE
  5
1365
  8
AM_5
 62
     5
 10
134.40626410136679
 20
211.96465515679671
 30
0.0
 11
134.40626410136679
 21
198.96465515679671
 31
0.0
  0
LINE
  5
1366
  8
AM_5
 62
     5
 10
141.90626410136679
 20
200.96465515679671
 30
0.0
 11
137.40626410136679
 21
200.96465515679671
 31
0.0
  0
SOLID
  5
1367
  8
AM_5
 62
     5
 10
141.90626410136679
 20
201.46465515679671
 30
0.0
 11
141.90626410136679
 21
200.46465515679671
 31
0.0
 12
144.90626410136679
 22
200.96465515679671
 32
0.0
 13
144.90626410136679
 23
200.96465515679671
 33
0.0
  0
SOLID
  5
1368
  8
AM_5
 62
     5
 10
137.40626410136679
 20
201.46465515679671
 30
0.0
 11
137.40626410136679
 21
200.46465515679671
 31
0.0
 12
134.40626410136679
 22
200.96465515679671
 32
0.0
 13
134.40626410136679
 23
200.96465515679671
 33
0.0
  0
INSERT
  5
1369
  8
0
 62
     5
  2
*U31
 10
0.0
 20
0.0
 30
0.0
  0
POINT
  5
136A
  8
DEFPOINTS
 62
     0
 10
144.90626410136679
 20
232.94215777849729
 30
0.0
  0
POINT
  5
136B
  8
DEFPOINTS
 62
     0
 10
134.40626410136679
 20
212.96465515679671
 30
0.0
  0
POINT
  5
136C
  8
DEFPOINTS
 62
     0
 10
134.40626410136679
 20
200.96465515679671
 30
0.0
  0
ENDBLK
  5
A8D
  8
0
  0
BLOCK
  8
0
  2
*D7
 70
     1
 10
0.0
 20
0.0
 30
0.0
  3
*D7
  1

  0
LINE
  5
136D
  8
AM_5
 62
     5
 10
170.90626410136679
 20
211.96465515679719
 30
0.0
 11
170.90626410136679
 21
190.96465515679671
 31
0.0
  0
LINE
  5
136E
  8
AM_5
 62
     5
 10
134.40626410136679
 20
211.96465515679671
 30
0.0
 11
134.40626410136679
 21
190.96465515679671
 31
0.0
  0
LINE
  5
136F
  8
AM_5
 62
     5
 10
167.90626410136679
 20
192.96465515679671
 30
0.0
 11
137.40626410136679
 21
192.96465515679671
 31
0.0
  0
SOLID
  5
1370
  8
AM_5
 62
     5
 10
167.90626410136679
 20
193.46465515679671
 30
0.0
 11
167.90626410136679
 21
192.46465515679671
 31
0.0
 12
170.90626410136679
 22
192.96465515679671
 32
0.0
 13
170.90626410136679
 23
192.96465515679671
 33
0.0
  0
SOLID
  5
1371
  8
AM_5
 62
     5
 10
137.40626410136679
 20
193.46465515679671
 30
0.0
 11
137.40626410136679
 21
192.46465515679671
 31
0.0
 12
134.40626410136679
 22
192.96465515679671
 32
0.0
 13
134.40626410136679
 23
192.96465515679671
 33
0.0
  0
INSERT
  5
1372
  8
0
 62
     5
  2
*U32
 10
0.0
 20
0.0
 30
0.0
  0
POINT
  5
1373
  8
DEFPOINTS
 62
     0
 10
170.90626410136679
 20
212.96465515679719
 30
0.0
  0
POINT
  5
1374
  8
DEFPOINTS
 62
     0
 10
134.40626410136679
 20
212.96465515679671
 30
0.0
  0
POINT
  5
1375
  8
DEFPOINTS
 62
     0
 10
134.40626410136679
 20
192.96465515679671
 30
0.0
  0
ENDBLK
  5
A99
  8
0
  0
BLOCK
  8
0
  2
*D8
 70
     1
 10
0.0
 20
0.0
 30
0.0
  3
*D8
  1

  0
LINE
  5
14CE
  8
AM_5
 62
     5
 10
170.90626410136679
 20
212.2575483756105
 30
0.0
 11
170.90626410136679
 21
182.96465515679671
 31
0.0
  0
LINE
  5
14CF
  8
AM_5
 62
     5
 10
129.90626410136679
 20
226.34943146764681
 30
0.0
 11
129.90626410136679
 21
182.96465515679671
 31
0.0
  0
LINE
  5
14D0
  8
AM_5
 62
     5
 10
167.90626410136679
 20
184.96465515679671
 30
0.0
 11
132.90626410136679
 21
184.96465515679671
 31
0.0
  0
SOLID
  5
14D1
  8
AM_5
 62
     5
 10
167.90626410136679
 20
185.46465515679671
 30
0.0
 11
167.90626410136679
 21
184.46465515679671
 31
0.0
 12
170.90626410136679
 22
184.96465515679671
 32
0.0
 13
170.90626410136679
 23
184.96465515679671
 33
0.0
  0
SOLID
  5
14D2
  8
AM_5
 62
     5
 10
132.90626410136679
 20
185.46465515679671
 30
0.0
 11
132.90626410136679
 21
184.46465515679671
 31
0.0
 12
129.90626410136679
 22
184.96465515679671
 32
0.0
 13
129.90626410136679
 23
184.96465515679671
 33
0.0
  0
INSERT
  5
14D3
  8
0
 62
     5
  2
*U36
 10
0.0
 20
0.0
 30
0.0
  0
POINT
  5
14D4
  8
DEFPOINTS
 62
     0
 10
170.90626410136679
 20
213.2575483756105
 30
0.0
  0
POINT
  5
14D5
  8
DEFPOINTS
 62
     0
 10
129.90626410136679
 20
227.34943146764689
 30
0.0
  0
POINT
  5
14D6
  8
DEFPOINTS
 62
     0
 10
129.90626410136679
 20
184.96465515679671
 30
0.0
  0
ENDBLK
  5
AA5
  8
0
  0
BLOCK
  8
0
  2
*D9
 70
     1
 10
0.0
 20
0.0
 30
0.0
  3
*D9
  1

  0
LINE
  5
138A
  8
AM_5
 62
     5
 10
59.041796855574738
 20
299.99805207005312
 30
0.0
 11
39.449913056430752
 21
280.4061682709094
 31
0.0
  0
LINE
  5
138B
  8
AM_5
 62
     5
 10
84.497640978290079
 20
274.54220794733749
 30
0.0
 11
64.905757179146079
 21
254.95032414819369
 31
0.0
  0
LINE
  5
138C
  8
AM_5
 62
     5
 10
42.985446962363469
 20
279.69906148972279
 30
0.0
 11
64.198650397959554
 21
258.48585805412642
 31
0.0
  0
SOLID
  5
138D
  8
AM_5
 62
     5
 10
43.339000352956738
 20
280.05261488031613
 30
0.0
 11
42.631893571770192
 21
279.34550809912957
 31
0.0
 12
40.864126618803851
 22
281.82038183328251
 32
0.0
 13
40.864126618803851
 23
281.82038183328251
 33
0.0
  0
SOLID
  5
138E
  8
AM_5
 62
     5
 10
64.552203788552831
 20
258.83941144471981
 30
0.0
 11
63.845097007366277
 21
258.1323046635332
 31
0.0
 12
66.319970741519185
 22
256.36453771056682
 32
0.0
 13
66.319970741519185
 23
256.36453771056682
 33
0.0
  0
INSERT
  5
138F
  8
0
 62
     5
  2
*U33
 10
0.0
 20
0.0
 30
0.0
  0
POINT
  5
1390
  8
DEFPOINTS
 62
     0
 10
59.748903636761298
 20
300.70515885123962
 30
0.0
  0
POINT
  5
1391
  8
DEFPOINTS
 62
     0
 10
85.204747759476632
 20
275.24931472852393
 30
0.0
  0
POINT
  5
1392
  8
DEFPOINTS
 62
     0
 10
66.319970741519185
 20
256.36453771056682
 30
0.0
  0
ENDBLK
  5
AB1
  8
0
  0
BLOCK
  8
0
  2
*D10
 70
     1
 10
0.0
 20
0.0
 30
0.0
  3
*D10
  1

  0
LINE
  5
139C
  8
AM_5
 62
     5
 10
62.870223980320247
 20
306.3620131007317
 30
0.0
 11
100.7603670174727
 21
306.3620131007317
 31
0.0
  0
LINE
  5
139D
  8
AM_5
 62
     5
 10
87.760367017472731
 20
269.59246047903127
 30
0.0
 11
100.7603670174727
 21
269.59246047903127
 31
0.0
  0
LINE
  5
139E
  8
AM_5
 62
     5
 10
98.760367017472745
 20
303.3620131007317
 30
0.0
 11
98.760367017472745
 21
272.59246047903127
 31
0.0
  0
SOLID
  5
139F
  8
AM_5
 62
     5
 10
98.260367017472745
 20
303.3620131007317
 30
0.0
 11
99.260367017472745
 21
303.3620131007317
 31
0.0
 12
98.760367017472745
 22
306.3620131007317
 32
0.0
 13
98.760367017472745
 23
306.3620131007317
 33
0.0
  0
SOLID
  5
13A0
  8
AM_5
 62
     5
 10
98.260367017472731
 20
272.59246047903127
 30
0.0
 11
99.260367017472731
 21
272.59246047903127
 31
0.0
 12
98.760367017472745
 22
269.59246047903127
 32
0.0
 13
98.760367017472745
 23
269.59246047903127
 33
0.0
  0
INSERT
  5
13A1
  8
0
 62
     5
  2
*U35
 10
0.0
 20
0.0
 30
0.0
  0
POINT
  5
13A2
  8
DEFPOINTS
 62
     0
 10
61.87022398032024
 20
306.3620131007317
 30
0.0
  0
POINT
  5
13A3
  8
DEFPOINTS
 62
     0
 10
86.760367017472731
 20
269.59246047903127
 30
0.0
  0
POINT
  5
13A4
  8
DEFPOINTS
 62
     0
 10
98.760367017472745
 20
269.59246047903127
 30
0.0
  0
ENDBLK
  5
AC6
  8
0
  0
BLOCK
  8
0
  2
*D11
 70
     1
 10
0.0
 20
0.0
 30
0.0
  3
*D11
  1

  0
LINE
  5
15AF
  8
AM_5
 62
     5
 10
115.9062641013667
 20
125.4088617718262
 30
0.0
 11
115.9062641013667
 21
112.08283516865519
 31
0.0
  0
LINE
  5
15B0
  8
AM_5
 62
     5
 10
127.9062641013667
 20
124.6088617718263
 30
0.0
 11
127.9062641013667
 21
112.08283516865519
 31
0.0
  0
LINE
  5
15B1
  8
AM_5
 62
     5
 10
118.9062641013667
 20
113.58283516865519
 30
0.0
 11
124.9062641013667
 21
113.58283516865519
 31
0.0
  0
SOLID
  5
15B2
  8
AM_5
 62
     5
 10
118.9062641013667
 20
114.08283516865519
 30
0.0
 11
118.9062641013667
 21
113.08283516865519
 31
0.0
 12
115.9062641013667
 22
113.58283516865519
 32
0.0
 13
115.9062641013667
 23
113.58283516865519
 33
0.0
  0
SOLID
  5
15B3
  8
AM_5
 62
     5
 10
124.9062641013667
 20
114.08283516865519
 30
0.0
 11
124.9062641013667
 21
113.08283516865519
 31
0.0
 12
127.9062641013667
 22
113.58283516865519
 32
0.0
 13
127.9062641013667
 23
113.58283516865519
 33
0.0
  0
TEXT
  8
AM_5
  40
3
  5
1641
  62
5
  72
0
  71
0
 10
121.906
 20
112.183
 30
0.000000
  1
12
  0
POINT
  5
15B5
  8
DEFPOINTS
 62
     0
 10
115.9062641013667
 20
126.9088617718262
 30
0.0
  0
POINT
  5
15B6
  8
DEFPOINTS
 62
     0
 10
127.9062641013667
 20
126.1088617718263
 30
0.0
  0
POINT
  5
15B7
  8
DEFPOINTS
 62
     0
 10
127.9062641013667
 20
113.58283516865519
 30
0.0
  0
ENDBLK
  5
DAF
  8
0
  0
BLOCK
  8
0
  2
*D12
 70
     1
 10
0.0
 20
0.0
 30
0.0
  3
*D12
  1

  0
LINE
  5
15B8
  8
AM_5
 62
     5
 10
129.9062641013667
 20
124.6088617718263
 30
0.0
 11
129.9062641013667
 21
104.08283516865519
 31
0.0
  0
LINE
  5
15B9
  8
AM_5
 62
     5
 10
115.9062641013667
 20
125.4088617718262
 30
0.0
 11
115.9062641013667
 21
104.08283516865519
 31
0.0
  0
LINE
  5
15BA
  8
AM_5
 62
     5
 10
126.9062641013667
 20
105.58283516865519
 30
0.0
 11
118.9062641013667
 21
105.58283516865519
 31
0.0
  0
SOLID
  5
15BB
  8
AM_5
 62
     5
 10
126.9062641013667
 20
106.08283516865519
 30
0.0
 11
126.9062641013667
 21
105.08283516865519
 31
0.0
 12
129.9062641013667
 22
105.58283516865519
 32
0.0
 13
129.9062641013667
 23
105.58283516865519
 33
0.0
  0
SOLID
  5
15BC
  8
AM_5
 62
     5
 10
118.9062641013667
 20
106.08283516865519
 30
0.0
 11
118.9062641013667
 21
105.08283516865519
 31
0.0
 12
115.9062641013667
 22
105.58283516865519
 32
0.0
 13
115.9062641013667
 23
105.58283516865519
 33
0.0
  0
TEXT
  8
AM_5
  40
3
  5
1642
  62
5
  72
0
  71
0
 10
122.906
 20
104.183
 30
0.000000
  1
14
  0
POINT
  5
15BE
  8
DEFPOINTS
 62
     0
 10
129.9062641013667
 20
126.1088617718263
 30
0.0
  0
POINT
  5
15BF
  8
DEFPOINTS
 62
     0
 10
115.9062641013667
 20
126.9088617718262
 30
0.0
  0
POINT
  5
15C0
  8
DEFPOINTS
 62
     0
 10
115.9062641013667
 20
105.58283516865519
 30
0.0
  0
ENDBLK
  5
DF1
  8
0
  0
BLOCK
  8
0
  2
*D13
 70
     1
 10
0.0
 20
0.0
 30
0.0
  3
*D13
  1

  0
LINE
  5
15C1
  8
AM_5
 62
     5
 10
115.9062641013667
 20
125.4088617718262
 30
0.0
 11
115.9062641013667
 21
96.082835168655265
 31
0.0
  0
LINE
  5
15C2
  8
AM_5
 62
     5
 10
134.40626410136679
 20
110.2240854609755
 30
0.0
 11
134.40626410136679
 21
96.082835168655265
 31
0.0
  0
LINE
  5
15C3
  8
AM_5
 62
     5
 10
118.9062641013667
 20
97.582835168655265
 30
0.0
 11
131.40626410136679
 21
97.582835168655265
 31
0.0
  0
SOLID
  5
15C4
  8
AM_5
 62
     5
 10
118.9062641013667
 20
98.082835168655265
 30
0.0
 11
118.9062641013667
 21
97.082835168655265
 31
0.0
 12
115.9062641013667
 22
97.582835168655265
 32
0.0
 13
115.9062641013667
 23
97.582835168655265
 33
0.0
  0
SOLID
  5
15C5
  8
AM_5
 62
     5
 10
131.40626410136679
 20
98.082835168655265
 30
0.0
 11
131.40626410136679
 21
97.082835168655265
 31
0.0
 12
134.40626410136679
 22
97.582835168655265
 32
0.0
 13
134.40626410136679
 23
97.582835168655265
 33
0.0
  0
TEXT
  8
AM_5
  40
3
  5
1643
  62
5
  72
0
  71
0
 10
125.156
 20
96.1828
 30
0.000000
  1
18.5
  0
POINT
  5
15C7
  8
DEFPOINTS
 62
     0
 10
115.9062641013667
 20
126.9088617718262
 30
0.0
  0
POINT
  5
15C8
  8
DEFPOINTS
 62
     0
 10
134.40626410136679
 20
111.7240854609756
 30
0.0
  0
POINT
  5
15C9
  8
DEFPOINTS
 62
     0
 10
134.40626410136679
 20
97.582835168655265
 30
0.0
  0
ENDBLK
  5
E12
  8
0
  0
BLOCK
  8
0
  2
*D14
 70
     1
 10
0.0
 20
0.0
 30
0.0
  3
*D14
  1

  0
LINE
  5
15CA
  8
AM_5
 62
     5
 10
134.40626410136679
 20
110.2240854609755
 30
0.0
 11
134.40626410136679
 21
96.082835168655336
 31
0.0
  0
LINE
  5
15CB
  8
AM_5
 62
     5
 10
170.90626410136679
 20
110.2240854609755
 30
0.0
 11
170.90626410136679
 21
96.082835168655336
 31
0.0
  0
LINE
  5
15CC
  8
AM_5
 62
     5
 10
137.40626410136679
 20
97.582835168655322
 30
0.0
 11
167.90626410136679
 21
97.582835168655322
 31
0.0
  0
SOLID
  5
15CD
  8
AM_5
 62
     5
 10
137.40626410136679
 20
98.082835168655322
 30
0.0
 11
137.40626410136679
 21
97.082835168655336
 31
0.0
 12
134.40626410136679
 22
97.582835168655322
 32
0.0
 13
134.40626410136679
 23
97.582835168655322
 33
0.0
  0
SOLID
  5
15CE
  8
AM_5
 62
     5
 10
167.90626410136679
 20
98.082835168655322
 30
0.0
 11
167.90626410136679
 21
97.082835168655336
 31
0.0
 12
170.90626410136679
 22
97.582835168655322
 32
0.0
 13
170.90626410136679
 23
97.582835168655322
 33
0.0
  0
TEXT
  8
AM_5
  40
3
  5
1644
  62
5
  72
0
  71
0
 10
152.656
 20
96.1828
 30
0.000000
  1
31.5+Stroke
  0
POINT
  5
15D0
  8
DEFPOINTS
 62
     0
 10
134.40626410136679
 20
111.7240854609756
 30
0.0
  0
POINT
  5
15D1
  8
DEFPOINTS
 62
     0
 10
170.90626410136679
 20
111.7240854609756
 30
0.0
  0
POINT
  5
15D2
  8
DEFPOINTS
 62
     0
 10
170.90626410136679
 20
97.582835168655322
 30
0.0
  0
ENDBLK
  5
E33
  8
0
  0
BLOCK
  8
0
  2
*D15
 70
     1
 10
0.0
 20
0.0
 30
0.0
  3
*D15
  1

  0
LINE
  5
15D3
  8
AM_5
 62
     5
 10
170.90626410136679
 20
110.4514287360489
 30
0.0
 11
170.90626410136679
 21
88.082835168655237
 31
0.0
  0
LINE
  5
15D4
  8
AM_5
 62
     5
 10
115.9062641013667
 20
125.4088617718262
 30
0.0
 11
115.9062641013667
 21
88.082835168655237
 31
0.0
  0
LINE
  5
15D5
  8
AM_5
 62
     5
 10
167.90626410136679
 20
89.582835168655237
 30
0.0
 11
118.9062641013667
 21
89.582835168655237
 31
0.0
  0
SOLID
  5
15D6
  8
AM_5
 62
     5
 10
167.90626410136679
 20
90.082835168655237
 30
0.0
 11
167.90626410136679
 21
89.082835168655237
 31
0.0
 12
170.90626410136679
 22
89.582835168655237
 32
0.0
 13
170.90626410136679
 23
89.582835168655237
 33
0.0
  0
SOLID
  5
15D7
  8
AM_5
 62
     5
 10
118.9062641013667
 20
90.082835168655237
 30
0.0
 11
118.9062641013667
 21
89.082835168655237
 31
0.0
 12
115.9062641013667
 22
89.582835168655237
 32
0.0
 13
115.9062641013667
 23
89.582835168655237
 33
0.0
  0
TEXT
  8
AM_5
  40
3
  5
1645
  62
5
  72
0
  71
0
 10
143.406
 20
88.1828
 30
0.000000
  1
50+Stroke
  0
POINT
  5
15D9
  8
DEFPOINTS
 62
     0
 10
170.90626410136679
 20
111.9514287360489
 30
0.0
  0
POINT
  5
15DA
  8
DEFPOINTS
 62
     0
 10
115.9062641013667
 20
126.9088617718262
 30
0.0
  0
POINT
  5
15DB
  8
DEFPOINTS
 62
     0
 10
115.9062641013667
 20
89.582835168655237
 30
0.0
  0
ENDBLK
  5
E5D
  8
0
  0
BLOCK
  8
0
 62
     5
  2
*D16
 70
     1
 10
0.0
 20
0.0
 30
0.0
  3
*D16
  1

  0
LINE
  5
15E5
  8
AM_5
 62
     5
 10
128.40626410136679
 20
235.3494314676465
 30
0.0
 11
120.89926999389171
 21
235.3494314676465
 31
0.0
  0
LINE
  5
15E6
  8
AM_5
 62
     5
 10
128.40626410136679
 20
227.34943146764689
 30
0.0
 11
120.89926999389171
 21
227.34943146764689
 31
0.0
  0
LINE
  5
15E7
  8
AM_5
 62
     5
 10
122.39926999389171
 20
238.3494314676465
 30
0.0
 11
122.39926999389171
 21
241.3494314676465
 31
0.0
  0
LINE
  5
15E8
  8
AM_5
 62
     5
 10
122.39926999389171
 20
224.34943146764681
 30
0.0
 11
122.39926999389171
 21
221.34943146764689
 31
0.0
  0
LINE
  5
15E9
  8
AM_5
 62
     5
 10
122.39926999389171
 20
235.3494314676465
 30
0.0
 11
122.39926999389171
 21
227.34943146764689
 31
0.0
  0
SOLID
  5
15EA
  8
AM_5
 62
     5
 10
121.89926999389171
 20
238.3494314676465
 30
0.0
 11
122.89926999389171
 21
238.3494314676465
 31
0.0
 12
122.39926999389171
 22
235.3494314676465
 32
0.0
 13
122.39926999389171
 23
235.3494314676465
 33
0.0
  0
SOLID
  5
15EB
  8
AM_5
 62
     5
 10
121.89926999389171
 20
224.34943146764681
 30
0.0
 11
122.89926999389171
 21
224.34943146764681
 31
0.0
 12
122.39926999389171
 22
227.34943146764689
 32
0.0
 13
122.39926999389171
 23
227.34943146764689
 33
0.0
  0
TEXT
  8
AM_5
  40
3
  5
1646
  62
5
  72
0
  71
0
 10
119.899
 20
227.449
 30
0.000000
  1
8
  0
POINT
  5
15ED
  8
DEFPOINTS
 62
     0
 10
129.90626410136679
 20
235.3494314676465
 30
0.0
  0
POINT
  5
15EE
  8
DEFPOINTS
 62
     0
 10
129.90626410136679
 20
227.34943146764689
 30
0.0
  0
POINT
  5
15EF
  8
DEFPOINTS
 62
     0
 10
122.39926999389171
 20
227.34943146764689
 30
0.0
  0
ENDBLK
  5
FEB
  8
0
 62
     5
  0
BLOCK
  8
0
 62
     5
  2
*D17
 70
     1
 10
0.0
 20
0.0
 30
0.0
  3
*D17
  1

  0
LINE
  5
15F0
  8
AM_5
 62
     5
 10
165.40626410136679
 20
60.95859445608621
 30
0.0
 11
165.40626410136679
 21
28.981091834385669
 31
0.0
  0
LINE
  5
15F1
  8
AM_5
 62
     5
 10
170.90626410136679
 20
40.981091834386092
 30
0.0
 11
170.90626410136679
 21
28.981091834385669
 31
0.0
  0
LINE
  5
15F2
  8
AM_5
 62
     5
 10
162.40626410136679
 20
30.481091834385669
 30
0.0
 11
159.40626410136679
 21
30.481091834385669
 31
0.0
  0
LINE
  5
15F3
  8
AM_5
 62
     5
 10
173.90626410136679
 20
30.481091834385669
 30
0.0
 11
185.19197838708101
 21
30.481091834385669
 31
0.0
  0
LINE
  5
15F4
  8
AM_5
 62
     5
 10
165.40626410136679
 20
30.481091834385669
 30
0.0
 11
170.90626410136679
 21
30.481091834385669
 31
0.0
  0
SOLID
  5
15F5
  8
AM_5
 62
     5
 10
162.40626410136679
 20
30.981091834385669
 30
0.0
 11
162.40626410136679
 21
29.981091834385669
 31
0.0
 12
165.40626410136679
 22
30.481091834385669
 32
0.0
 13
165.40626410136679
 23
30.481091834385669
 33
0.0
  0
SOLID
  5
15F6
  8
AM_5
 62
     5
 10
173.90626410136679
 20
30.981091834385669
 30
0.0
 11
173.90626410136679
 21
29.981091834385669
 31
0.0
 12
170.90626410136679
 22
30.481091834385669
 32
0.0
 13
170.90626410136679
 23
30.481091834385669
 33
0.0
  0
TEXT
  8
AM_5
  40
3
  5
1647
  62
5
  72
0
  71
0
 10
181.049
 20
29.0811
 30
0.000000
  1
5.5
  0
POINT
  5
15F8
  8
DEFPOINTS
 62
     0
 10
165.40626410136679
 20
62.458594456086217
 30
0.0
  0
POINT
  5
15F9
  8
DEFPOINTS
 62
     0
 10
170.90626410136679
 20
42.481091834386092
 30
0.0
  0
POINT
  5
15FA
  8
DEFPOINTS
 62
     0
 10
170.90626410136679
 20
30.481091834385669
 30
0.0
  0
ENDBLK
  5
103F
  8
0
 62
     5
  0
BLOCK
  8
0
 62
     5
  2
*D18
 70
     1
 10
0.0
 20
0.0
 30
0.0
  3
*D18
  1

  0
LINE
  5
15FB
  8
AM_5
 62
     5
 10
144.90626410136679
 20
60.95859445608621
 30
0.0
 11
144.90626410136679
 21
28.981091834385609
 31
0.0
  0
LINE
  5
15FC
  8
AM_5
 62
     5
 10
134.40626410136679
 20
40.981091834385609
 30
0.0
 11
134.40626410136679
 21
28.981091834385609
 31
0.0
  0
LINE
  5
15FD
  8
AM_5
 62
     5
 10
141.90626410136679
 20
30.481091834385609
 30
0.0
 11
137.40626410136679
 21
30.481091834385609
 31
0.0
  0
LINE
  5
15FE
  8
AM_5
 62
     5
 10
134.40626410136679
 20
30.481091834385609
 30
0.0
 11
120.8348355299382
 21
30.481091834385609
 31
0.0
  0
SOLID
  5
15FF
  8
AM_5
 62
     5
 10
141.90626410136679
 20
30.981091834385609
 30
0.0
 11
141.90626410136679
 21
29.981091834385609
 31
0.0
 12
144.90626410136679
 22
30.481091834385609
 32
0.0
 13
144.90626410136679
 23
30.481091834385609
 33
0.0
  0
SOLID
  5
1600
  8
AM_5
 62
     5
 10
137.40626410136679
 20
30.981091834385609
 30
0.0
 11
137.40626410136679
 21
29.981091834385609
 31
0.0
 12
134.40626410136679
 22
30.481091834385609
 32
0.0
 13
134.40626410136679
 23
30.481091834385609
 33
0.0
  0
TEXT
  8
AM_5
  40
3
  5
1648
  62
5
  72
0
  71
0
 10
126.121
 20
29.0811
 30
0.000000
  1
10.5
  0
POINT
  5
1602
  8
DEFPOINTS
 62
     0
 10
144.90626410136679
 20
62.458594456086217
 30
0.0
  0
POINT
  5
1603
  8
DEFPOINTS
 62
     0
 10
134.40626410136679
 20
42.481091834385602
 30
0.0
  0
POINT
  5
1604
  8
DEFPOINTS
 62
     0
 10
134.40626410136679
 20
30.481091834385609
 30
0.0
  0
ENDBLK
  5
1065
  8
0
 62
     5
  0
BLOCK
  8
0
  2
A$C2B8D1ACD
 70
     0
 10
0.0
 20
0.0
 30
0.0
  3
A$C2B8D1ACD
  1

  0
LINE
  5
11E0
  8
SL
 10
8.1404090717669533
 20
0.4838230181277936
 30
0.0
 11
-0.0000001095341418
 21
0.4838230181277936
 31
0.0
  0
INSERT
  5
11E1
  8
0
 62
     5
  2
*U27
 10
0.0
 20
0.0
 30
0.0
  0
TRACE
  5
11E2
  8
SL
 10
8.1404090717669533
 20
0.9676459446027365
 30
0.0
 11
8.1404090717669533
 21
0.0000000916528506
 31
0.0
 12
11.81540907176659
 22
0.4838230181277936
 32
0.0
 13
11.81540907176659
 23
0.4838230181277936
 33
0.0
  0
ENDBLK
  5
11E3
  8
0
  0
BLOCK
  8
0
 62
     5
  2
*D20
 70
     1
 10
0.0
 20
0.0
 30
0.0
  3
*D20
  1

  0
LINE
  5
162A
  8
AM_5
 62
     5
 10
25.692282185587189
 20
327.18626447524889
 30
0.0
 11
51.263710757015758
 21
327.18626447524878
 31
0.0
  0
LINE
  5
162B
  8
AM_5
 62
     5
 10
51.263710757015758
 20
327.18626447524878
 30
0.0
 11
57.368793399091629
 21
308.13315153140172
 31
0.0
  0
TEXT
  8
AM_5
  40
3
  5
1649
  62
5
  72
0
  71
0
 10
37.9780
 20
325.786
 30
0.000000
  1
2-%%c5.5thru
  0
SOLID
  5
162D
  8
AM_5
 62
     5
 10
57.84494677602509
 20
308.28572270048312
 30
0.0
 11
56.892640022158162
 21
307.98058036232032
 31
0.0
 12
58.284220413579881
 22
305.27623126980092
 32
0.0
 13
58.284220413579881
 23
305.27623126980092
 33
0.0
  0
POINT
  5
162E
  8
DEFPOINTS
 62
     0
 10
58.284220413579881
 20
305.27623126980092
 30
0.0
  0
POINT
  5
162F
  8
DEFPOINTS
 62
     0
 10
61.213586859942339
 20
296.13408643267837
 30
0.0
  0
ENDBLK
  5
13FB
  8
0
 62
     5
  0
BLOCK
  8
0
 62
     5
  2
*D21
 70
     1
 10
0.0
 20
0.0
 30
0.0
  3
*D21
  1

  0
LINE
  5
1630
  8
AM_5
 62
     5
 10
142.150098246791
 20
259.66713533108509
 30
0.0
 11
95.292955389648128
 21
259.66713533108509
 31
0.0
  0
LINE
  5
1631
  8
AM_5
 62
     5
 10
95.292955389648128
 20
259.66713533108509
 30
0.0
 11
88.329669805160762
 21
270.42258061440521
 31
0.0
  0
TEXT
  8
AM_5
  40
3
  5
164A
  62
5
  72
0
  71
0
 10
119.222
 20
258.767
 30
0.000000
  1
2*2-M6*1.0*10depth
  0
SOLID
  5
1633
  8
AM_5
 62
     5
 10
88.749385815084139
 20
270.69431296620382
 30
0.0
 11
87.909953795237385
 21
270.15084826260659
 31
0.0
 12
86.699275694369064
 22
272.94087667394541
 32
0.0
 13
86.699275694369064
 23
272.94087667394541
 33
0.0
  0
POINT
  5
1634
  8
DEFPOINTS
 62
     0
 10
86.699275694369064
 20
272.94087667394541
 30
0.0
  0
POINT
  5
1635
  8
DEFPOINTS
 62
     0
 10
83.710219824584243
 20
277.55775278310239
 30
0.0
  0
ENDBLK
  5
1423
  8
0
 62
     5
  0
BLOCK
  8
0
 62
     5
  2
*D22
 70
     1
 10
0.0
 20
0.0
 30
0.0
  3
*D22
  1

  0
LINE
  5
1636
  8
AM_5
 62
     5
 10
197.68481235654701
 20
72.034216054323636
 30
0.0
 11
175.25624092797551
 21
72.034216054323622
 31
0.0
  0
LINE
  5
1637
  8
AM_5
 62
     5
 10
175.25624092797551
 20
72.034216054323622
 30
0.0
 11
169.9689340074917
 21
68.231870344034604
 31
0.0
  0
TEXT
  8
AM_5
  40
3
  5
164B
  62
5
  72
0
  71
0
 10
186.971
 20
70.6342
 30
0.000000
  1
2-M5*0.8
  0
SOLID
  5
1639
  8
AM_5
 62
     5
 10
169.67700999610841
 20
68.637801830344671
 30
0.0
 11
170.26085801887501
 21
67.825938857724566
 31
0.0
 12
167.53334508963141
 22
66.480326275734853
 32
0.0
 13
167.53334508963141
 23
66.480326275734853
 33
0.0
  0
POINT
  5
163A
  8
DEFPOINTS
 62
     0
 10
167.53334508963141
 20
66.480326275734853
 30
0.0
  0
POINT
  5
163B
  8
DEFPOINTS
 62
     0
 10
165.40626410136679
 20
64.950644456086451
 30
0.0
  0
ENDBLK
  5
1446
  8
0
 62
     5
  0
BLOCK
  8
0
 62
     5
  2
*U25
 70
     1
 10
0.0
 20
0.0
 30
0.0
  3
*U25
  1

  0
SOLID
  5
159D
  8
0
 10
77.03902694834855
 20
291.4062099689005
 30
0.0
 11
74.643825698117993
 21
289.53190717295371
 31
0.0
 12
76.301674622623594
 22
292.08171833135651
 32
0.0
 13
76.301674622623594
 23
292.08171833135651
 33
0.0
  0
POLYLINE
  5
159E
  8
0
 66
     1
 10
0.0
 20
0.0
 30
0.0
  0
VERTEX
  5
159F
  8
0
 10
76.670350785486065
 20
291.74396415012848
 30
0.0
  0
VERTEX
  5
15A0
  8
0
 10
95.102069524367053
 20
311.86313873711453
 30
0.0
  0
VERTEX
  5
15A1
  8
0
 10
131.4246278071351
 20
311.86313873711453
 30
0.0
  0
SEQEND
  5
15A2
  8
0
  0
ENDBLK
  5
15A4
  8
0
 62
     5
  0
BLOCK
  8
0
 62
     5
  2
*U26
 70
     1
 10
0.0
 20
0.0
 30
0.0
  3
*U26
  1

  0
SOLID
  5
15DD
  8
0
 10
121.3160329072806
 20
136.44189698231281
 30
0.0
 11
122.30626410136669
 21
134.1088617718263
 31
0.0
 12
120.6128988495059
 22
135.9946309079883
 32
0.0
 13
120.6128988495059
 23
135.9946309079883
 33
0.0
  0
POLYLINE
  5
15DE
  8
0
 66
     1
 10
0.0
 20
0.0
 30
0.0
  0
VERTEX
  5
15DF
  8
0
 10
120.9644658783932
 20
136.21826394515051
 30
0.0
  0
VERTEX
  5
15E0
  8
0
 10
115.0768323757908
 20
145.47404226821621
 30
0.0
  0
VERTEX
  5
15E1
  8
0
 10
96.010130247775933
 20
145.47404226821621
 30
0.0
  0
SEQEND
  5
15E2
  8
0
  0
ENDBLK
  5
15E4
  8
0
 62
     5
  0
BLOCK
  8
0
 62
     5
  2
*U27
 70
     1
 10
0.0
 20
0.0
 30
0.0
  3
*U27
  1

  0
TEXT
  5
1606
  8
SL
 10
2.9749828837185679
 20
1.492139328339249
 30
0.0
 40
2.5724999999997489
  1
SL
  7
ACISOTS
  0
ENDBLK
  5
1608
  8
0
 62
     5
  0
BLOCK
  8
0
 62
     5
  2
*U28
 70
     1
 10
0.0
 20
0.0
 30
0.0
  3
*U28
  1

  0
TEXT
  5
160A
  8
AM_5
 62
     5
 10
46.867076887998657
 20
265.80200663123901
 30
0.0
 40
3.0
  1
47
 50
315.00000000000023
  7
CHINESET
  0
ENDBLK
  5
160C
  8
0
 62
     5
  0
BLOCK
  8
0
 62
     5
  2
*U29
 70
     1
 10
0.0
 20
0.0
 30
0.0
  3
*U29
  1

  0
TEXT
  5
160E
  8
AM_5
 62
     5
 10
123.1043231872659
 20
284.47723678988228
 30
0.0
 40
3.0
  1
\U+220510
 50
90.0
  7
CHINESET
  0
ENDBLK
  5
1610
  8
0
 62
     5
  0
BLOCK
  8
0
 62
     5
  2
*U30
 70
     1
 10
0.0
 20
0.0
 30
0.0
  3
*U30
  1

  0
TEXT
  5
1612
  8
AM_5
 62
     5
 10
177.90626410136679
 20
201.96465515679671
 30
0.0
 40
3.0
  1
5.5
  7
CHINESET
  0
ENDBLK
  5
1614
  8
0
 62
     5
  0
BLOCK
  8
0
 62
     5
  2
*U31
 70
     1
 10
0.0
 20
0.0
 30
0.0
  3
*U31
  1

  0
TEXT
  5
1616
  8
AM_5
 62
     5
 10
135.19102266180269
 20
201.96465515679671
 30
0.0
 40
3.0
  1
10.5
  7
CHINESET
  0
ENDBLK
  5
1618
  8
0
 62
     5
  0
BLOCK
  8
0
 62
     5
  2
*U32
 70
     1
 10
0.0
 20
0.0
 30
0.0
  3
*U32
  1

  0
TEXT
  5
161A
  8
AM_5
 62
     5
 10
139.2991212442239
 20
193.96465515679671
 30
0.0
 40
3.0
  1
31.5+Stroke
  7
CHINESET
  0
ENDBLK
  5
161C
  8
0
 62
     5
  0
BLOCK
  8
0
 62
     5
  2
*U33
 70
     1
 10
0.0
 20
0.0
 30
0.0
  3
*U33
  1

  0
TEXT
  5
161E
  8
AM_5
 62
     5
 10
52.63240376283693
 20
271.46631825162228
 30
0.0
 40
3.0
  1
36
 50
314.9999999999996
  7
CHINESET
  0
ENDBLK
  5
1620
  8
0
 62
     5
  0
BLOCK
  8
0
 62
     5
  2
*U34
 70
     1
 10
0.0
 20
0.0
 30
0.0
  3
*U34
  1

  0
TEXT
  5
1622
  8
AM_5
 62
     5
 10
48.65046638253164
 20
308.36907745399083
 30
0.0
 40
3.0
  1
30
 50
45.00000000000022
  7
CHINESET
  0
ENDBLK
  5
1624
  8
0
 62
     5
  0
BLOCK
  8
0
 62
     5
  2
*U35
 70
     1
 10
0.0
 20
0.0
 30
0.0
  3
*U35
  1

  0
TEXT
  5
1626
  8
AM_5
 62
     5
 10
97.760367017472689
 20
281.47723678988149
 30
0.0
 40
3.0
  1
o
 50
90.0
  7
CHINESET
  0
TEXT
  5
1627
  8
AM_5
 62
     5
 10
97.760367017472689
 20
285.0486653613101
 30
0.0
 40
3.0
  1
36.8
 50
90.0
  7
CHINESET
  0
ENDBLK
  5
1629
  8
0
 62
     5
  0
BLOCK
  8
0
 62
     5
  2
*U36
 70
     1
 10
0.0
 20
0.0
 30
0.0
  3
*U36
  1

  0
TEXT
  5
163D
  8
AM_5
 62
     5
 10
138.90626410136679
 20
185.96465515679671
 30
0.0
 40
3.0
  1
36+Stroke
  7
CHINESET
  0
ENDBLK
  5
163F
  8
0
 62
     5
  0
ENDSEC
  0
SECTION
  2
ENTITIES
  0
VIEWPORT
  5
183
 67
     1
  8
0
 10
135.42274174514191
 20
171.6416496347656
 30
0.0
 40
367.68416674743412
 41
382.25088920054282
 68
     1
 69
     1
1001
ACAD
1000
MVIEW
1002
{
1070
    16
1010
0.0
1020
0.0
1030
0.0
1010
0.0
1020
0.0
1030
1.0
1040
0.0
1040
382.25088920054282
1040
135.42274174514191
1040
171.6416496347656
1040
50.0
1040
0.0
1040
0.0
1070
     0
1070
  1000
1070
     1
1070
     1
1070
     0
1070
     0
1070
     0
1070
     0
1040
0.0
1040
0.0
1040
0.0
1040
1.0
1040
1.0
1040
0.0
1040
0.0
1070
     0
1002
{
1002
}
1002
}
  0
LINE
  5
2C1
 67
     1
  8
0
 62
     4
 10
271.2243932113139
 20
17.301354363705428
 30
0.0
 11
271.2243932113139
 21
361.24555443387129
 31
0.0
  0
LINE
  5
2C2
 67
     1
  8
0
 62
     4
 10
-0.3915519962470171
 20
17.3013543637054
 30
0.0
 11
-0.3915519962470171
 21
361.24555443387129
 31
0.0
  0
TEXT
  5
2C3
 67
     1
  8
LOGO
  6
CONTINUOUS
 62
     7
 10
163.50052981310759
 20
5.3276726051497576
 30
0.0
 40
6.1766249999999987
  1
11/12
  7
CHINESET
 72
     1
 11
175.85377981310759
 21
8.4159851051497583
 31
0.0
 73
     2
  0
TEXT
  5
2C4
 67
     1
  8
LOGO
 10
166.466717687749
 20
-8.3082128759051592
 30
0.0
 40
4.4118750000000002
  1
作動型式
  7
CHINESET
 72
     4
 11
175.2445106564991
 21
-6.2151776888972838
 31
0.0
  0
LINE
  5
2C5
 67
     1
  8
0
 62
     4
 10
271.2243932113139
 20
174.68796270822989
 30
0.0
 11
-0.3915519962470171
 21
174.68796270823
 31
0.0
  0
TEXT
  5
2C6
 67
     1
  8
LOGO
  6
CONTINUOUS
 10
166.16865351364191
 20
-12.97668570204795
 30
0.0
 40
2.6471249999999991
  1
Acting type
 41
0.8
  7
CHINESET
 72
     4
 11
175.2445106564991
 21
-12.094310702047951
 31
0.0
  0
LINE
  5
2C7
 67
     1
  8
LOGO
 62
     4
 10
189.1403259000152
 20
3.1914351321437802
 30
0.0
 11
162.2778452689505
 21
3.1914351321437802
 31
0.0
  0
LINE
  5
2C8
 67
     1
  8
LOGO
 62
     4
 10
189.1403259000152
 20
-2.0997845796917991
 30
0.0
 11
162.2778452689505
 21
-2.0997845796917991
 31
0.0
  0
LINE
  5
2C9
 67
     1
  8
LOGO
 62
     4
 10
189.1403259000152
 20
-15.033877208623281
 30
0.0
 11
162.2778452689505
 21
-15.03387720862332
 31
0.0
  0
LINE
  5
2CA
 67
     1
  8
LOGO
 62
     4
 10
189.1403259000152
 20
13.773874555815061
 30
0.0
 11
162.2778452689505
 21
13.773874555814981
 31
0.0
  0
LINE
  5
2CB
 67
     1
  8
LOGO
 62
     4
 10
151.60010821772201
 20
-2.0997845796917991
 30
0.0
 11
128.08357616511941
 21
-2.0997845796917991
 31
0.0
  0
TEXT
  5
2CC
 67
     1
  8
LOGO
  6
CONTINUOUS
 62
     7
 10
126.4466040961826
 20
5.5826548439793893
 30
0.0
 40
5.7999999999999989
  1
MCJQ2
  7
CHINESET
 72
     1
 11
139.84184219142071
 21
8.4826548439793896
 31
0.0
 73
     2
  0
LINE
  5
2CD
 67
     1
  8
LOGO
 62
     4
 10
151.60010821772201
 20
-15.033877208623281
 30
0.0
 11
128.08357616511941
 21
-15.03387720862332
 31
0.0
  0
TEXT
  5
2CE
 67
     1
  8
LOGO
  6
CONTINUOUS
 10
135.80812790570641
 20
-13.41787320204795
 30
0.0
 40
2.6471249999999991
  1
Model
 41
0.8
  7
CHINESET
 72
     4
 11
139.84184219142071
 21
-12.094310702047951
 31
0.0
  0
TEXT
  5
2CF
 67
     1
  8
LOGO
 10
135.4299671914207
 20
-8.3082128759051592
 30
0.0
 40
4.4118750000000002
  1
型式
  7
CHINESET
 72
     4
 11
139.84184219142071
 21
-6.2151776888972838
 31
0.0
  0
LINE
  5
2D0
 67
     1
  8
LOGO
 62
     4
 10
153.9517614229824
 20
3.1914351321437802
 30
0.0
 11
125.7319229598593
 21
3.1914351321437802
 31
0.0
  0
LINE
  5
2D1
 67
     1
  8
LOGO
 62
     4
 10
153.9517614229824
 20
13.773874555814981
 30
0.0
 11
125.7319229598593
 21
13.773874555814981
 31
0.0
  0
LINE
  5
2D2
 67
     1
  8
LOGO
 62
     4
 10
139.84184219142071
 20
3.1914351321437802
 30
0.0
 11
139.84184219142071
 21
-2.0997845796917991
 31
0.0
  0
LINE
  5
2D3
 67
     1
  8
LOGO
 62
     4
 10
128.08357616511941
 20
-2.0997845796917991
 30
0.0
 11
128.08357616511941
 21
-15.03387720862332
 31
0.0
  0
LINE
  5
2D4
 67
     1
  8
LOGO
 62
     4
 10
125.7319229598593
 20
13.773874555814981
 30
0.0
 11
125.7319229598593
 21
3.1914351321437802
 31
0.0
  0
LINE
  5
2D5
 67
     1
  8
LOGO
 62
     4
 10
151.60010821772201
 20
-2.0997845796917991
 30
0.0
 11
151.60010821772201
 21
-15.033877208623281
 31
0.0
  0
LINE
  5
2D6
 67
     1
  8
LOGO
 62
     4
 10
162.2778452689505
 20
-2.0997845796917991
 30
0.0
 11
162.2778452689505
 21
-15.033877208623281
 31
0.0
  0
LINE
  5
2D7
 67
     1
  8
LOGO
  6
CONTINUOUS
 62
     7
 10
155.7749566975499
 20
8.4451701711200116
 30
0.0
 11
160.4477758109864
 21
8.4451701711200116
 31
0.0
  0
LINE
  5
2D8
 67
     1
  8
LOGO
 62
     4
 10
153.95176142298251
 20
13.773874555814981
 30
0.0
 11
153.95176142298251
 21
3.1914351321437802
 31
0.0
  0
LINE
  5
2D9
 67
     1
  8
LOGO
 62
     4
 10
162.2778452689505
 20
13.773874555814981
 30
0.0
 11
162.2778452689505
 21
3.1914351321437802
 31
0.0
  0
LINE
  5
2DA
 67
     1
  8
LOGO
 62
     4
 10
244.25827598119079
 20
13.773874555814981
 30
0.0
 11
224.6708647512678
 21
13.773874555814981
 31
0.0
  0
LINE
  5
2DB
 67
     1
  8
LOGO
 62
     4
 10
244.25827598119079
 20
3.1914351321437802
 30
0.0
 11
224.6708647512678
 21
3.1914351321437802
 31
0.0
  0
LINE
  5
2DC
 67
     1
  8
LOGO
 62
     4
 10
243.0824493785606
 20
-2.0997845796917991
 30
0.0
 11
225.8466913538978
 21
-2.0997845796917991
 31
0.0
  0
LINE
  5
2DD
 67
     1
  8
LOGO
 62
     4
 10
243.0824493785606
 20
-15.033877208623281
 30
0.0
 11
225.8466913538978
 21
-15.03387720862332
 31
0.0
  0
LINE
  5
2DE
 67
     1
  8
LOGO
 62
     4
 10
216.34478090529959
 20
3.1914351321438579
 30
0.0
 11
197.4664097459833
 21
3.1914351321438579
 31
0.0
  0
LINE
  5
2DF
 67
     1
  8
LOGO
 62
     4
 10
216.34478090529959
 20
-2.0997845796917431
 30
0.0
 11
197.4664097459833
 21
-2.0997845796917431
 31
0.0
  0
LINE
  5
2E0
 67
     1
  8
LOGO
 62
     4
 10
216.34478090529959
 20
13.77387455581513
 30
0.0
 11
197.4664097459833
 21
13.773874555815061
 31
0.0
  0
TEXT
  5
2E1
 67
     1
  8
LOGO
  6
CONTINUOUS
 62
     7
 10
202.45418955830439
 20
5.3276726051498287
 30
0.0
 40
6.1766249999999987
  1
20
  7
CHINESET
 72
     1
 11
207.45431455830439
 21
8.4159851051498293
 31
0.0
 73
     2
  0
LINE
  5
2E2
 67
     1
  8
LOGO
 62
     4
 10
216.34478090529959
 20
-15.03387720862321
 30
0.0
 11
197.4664097459833
 21
-15.03387720862327
 31
0.0
  0
TEXT
  5
2E3
 67
     1
  8
LOGO
  6
CONTINUOUS
 10
203.6282024684987
 20
-13.41787320204792
 30
0.0
 40
2.6471249999999991
  1
Bore
 41
0.8
  7
CHINESET
 72
     4
 11
206.9055953256416
 21
-12.09431070204792
 31
0.0
  0
TEXT
  5
2E4
 67
     1
  8
LOGO
 10
202.21797813814149
 20
-8.4211151888972431
 30
0.0
 40
4.4118750000000002
  1
內徑
  7
CHINESET
 72
     4
 11
206.9055953256416
 21
-6.2151776888972421
 31
0.0
  0
LINE
  5
2E5
 67
     1
  8
LOGO
 62
     4
 10
206.90559505451409
 20
3.1914351321438579
 30
0.0
 11
206.90559505451409
 21
-2.0997845796917431
 31
0.0
  0
LINE
  5
2E6
 67
     1
  8
LOGO
 62
     4
 10
175.2445106564991
 20
3.1914351321437802
 30
0.0
 11
175.2445106564991
 21
-2.0997845796917991
 31
0.0
  0
LINE
  5
2E7
 67
     1
  8
LOGO
 62
     4
 10
189.1403259000152
 20
-2.0997845796917991
 30
0.0
 11
189.1403259000152
 21
-15.03387720862327
 31
0.0
  0
LINE
  5
2E8
 67
     1
  8
LOGO
 62
     4
 10
197.4664097459833
 20
-2.0997845796917431
 30
0.0
 11
197.4664097459833
 21
-15.03387720862321
 31
0.0
  0
LINE
  5
2E9
 67
     1
  8
LOGO
 62
     4
 10
189.1403259000152
 20
13.773874555815061
 30
0.0
 11
189.1403259000152
 21
3.1914351321437802
 31
0.0
  0
LINE
  5
2EA
 67
     1
  8
LOGO
 62
     4
 10
197.4664097459833
 20
13.773874555815061
 30
0.0
 11
197.4664097459833
 21
3.1914351321438579
 31
0.0
  0
LINE
  5
2EB
 67
     1
  8
LOGO
  6
CONTINUOUS
 62
     7
 10
190.96352117458261
 20
8.4451701711200684
 30
0.0
 11
195.63634028801931
 21
8.4451701711200684
 31
0.0
  0
LINE
  5
2EC
 67
     1
  8
LOGO
 62
     4
 10
234.7135997643316
 20
3.1914351321437802
 30
0.0
 11
234.7135997643316
 21
-2.0997845796917991
 31
0.0
  0
LINE
  5
2ED
 67
     1
  8
LOGO
 62
     4
 10
216.34478090529959
 20
-2.0997845796917431
 30
0.0
 11
216.34478090529959
 21
-15.03387720862318
 31
0.0
  0
LINE
  5
2EE
 67
     1
  8
LOGO
 62
     4
 10
225.8466913538978
 20
-2.0997845796917991
 30
0.0
 11
225.8466913538978
 21
-15.03387720862332
 31
0.0
  0
TEXT
  5
2EF
 67
     1
  8
LOGO
  6
CONTINUOUS
 10
229.6745346519435
 20
-13.41787320204798
 30
0.0
 40
2.6471249999999991
  1
Stroke
 41
0.8
  7
CHINESET
 72
     4
 11
234.46457036622931
 21
-12.094310702047981
 31
0.0
  0
TEXT
  5
2F0
 67
     1
  8
LOGO
 10
230.05269536622919
 20
-8.4211151888973124
 30
0.0
 40
4.4118750000000002
  1
行程
  7
CHINESET
 72
     4
 11
234.46457036622931
 21
-6.2151776888973131
 31
0.0
  0
LINE
  5
2F1
 67
     1
  8
LOGO
 62
     4
 10
216.34478090529959
 20
13.77387455581513
 30
0.0
 11
216.34478090529959
 21
3.1914351321438579
 31
0.0
  0
LINE
  5
2F2
 67
     1
  8
LOGO
  6
CONTINUOUS
 62
     7
 10
218.16797617986711
 20
8.4451701711201395
 30
0.0
 11
222.84079529330381
 21
8.4451701711201395
 31
0.0
  0
LINE
  5
2F3
 67
     1
  8
LOGO
 62
     4
 10
224.6708647512678
 20
13.773874555814981
 30
0.0
 11
224.6708647512678
 21
3.1914351321437802
 31
0.0
  0
TEXT
  5
2F4
 67
     1
  8
LOGO
  6
CONTINUOUS
 62
     7
 10
233.54266459889229
 20
5.3276726051497576
 30
0.0
 40
6.1766249999999987
  1
*
  7
CHINESET
 72
     1
 11
235.0132895988923
 21
8.4159851051497583
 31
0.0
 73
     2
  0
LINE
  5
2F5
 67
     1
  8
LOGO
 62
     4
 10
254.43041972805929
 20
3.1914351321437802
 30
0.0
 11
254.43041972805929
 21
-2.0997845796917991
 31
0.0
  0
LINE
  5
2F6
 67
     1
  8
LOGO
 62
     4
 10
263.53495648416907
 20
-15.033877208623281
 30
0.0
 11
245.81254071572801
 21
-15.03387720862332
 31
0.0
  0
LINE
  5
2F7
 67
     1
  8
LOGO
 62
     4
 10
263.53495648416907
 20
-2.0997845796917991
 30
0.0
 11
245.81254071572801
 21
-2.0997845796917991
 31
0.0
  0
TEXT
  5
2F8
 67
     1
  8
LOGO
  6
CONTINUOUS
 10
249.03532687091649
 20
-12.97668570204798
 30
0.0
 40
2.6471249999999991
  1
Magnet
 41
0.8
  7
CHINESET
 72
     4
 11
254.43041972805929
 21
-12.094310702047981
 31
0.0
  0
TEXT
  5
2F9
 67
     1
  8
LOGO
 10
247.81260722805939
 20
-8.3751581576473146
 30
0.0
 40
4.4118750000000002
  1
附磁石
  7
CHINESET
 72
     4
 11
254.43041972805929
 21
-6.2151776888973131
 31
0.0
  0
LINE
  5
2FA
 67
     1
  8
LOGO
 62
     4
 10
245.81254071572801
 20
-2.0997845796917991
 30
0.0
 11
245.81254071572801
 21
-15.03387720862332
 31
0.0
  0
LINE
  5
2FB
 67
     1
  8
LOGO
 62
     4
 10
243.0824493785606
 20
-2.0997845796917991
 30
0.0
 11
243.0824493785606
 21
-15.082647314147071
 31
0.0
  0
LINE
  5
2FC
 67
     1
  8
LOGO
 62
     4
 10
263.53495648416907
 20
-2.0997845796917991
 30
0.0
 11
263.53495648416907
 21
-15.082647314147071
 31
0.0
  0
TEXT
  5
2FD
 67
     1
  8
LOGO
  6
CONTINUOUS
 62
     7
 10
252.62613923184961
 20
5.3276726051497576
 30
0.0
 40
6.1766249999999987
  1
M
  7
CHINESET
 72
     1
 11
254.97913923184959
 21
8.4159851051497583
 31
0.0
 73
     2
  0
LINE
  5
2FE
 67
     1
  8
LOGO
 62
     4
 10
262.64227038588888
 20
3.1914351321437802
 30
0.0
 11
246.7052268140082
 21
3.1914351321437802
 31
0.0
  0
LINE
  5
2FF
 67
     1
  8
LOGO
 62
     4
 10
262.64227038588888
 20
13.773874555815061
 30
0.0
 11
246.7052268140082
 21
13.773874555814981
 31
0.0
  0
LINE
  5
300
 67
     1
  8
LOGO
 62
     4
 10
246.7052268140082
 20
13.773874555814981
 30
0.0
 11
246.7052268140082
 21
3.1914351321437802
 31
0.0
  0
LINE
  5
301
 67
     1
  8
LOGO
 62
     4
 10
244.25827598119079
 20
13.773874555814981
 30
0.0
 11
244.25827598119079
 21
3.1914351321437802
 31
0.0
  0
LINE
  5
302
 67
     1
  8
LOGO
 62
     4
 10
262.64227038588871
 20
13.773874555815061
 30
0.0
 11
262.64227038588888
 21
3.1914351321437802
 31
0.0
  0
LINE
  5
303
 67
     1
  8
0
 62
     4
 10
271.2243932113139
 20
361.24555443387129
 30
0.0
 11
-0.3915519962470171
 21
361.24555443387152
 31
0.0
  0
POLYLINE
  5
304
 67
     1
  8
LOGO
 62
     4
 66
     1
 10
0.0
 20
0.0
 30
0.0
 70
     1
1001
GENIUS_GENREC_14
1002
{
1000
PYDIR
1011
-0.3915519962470171
1021
0.0
1031
2.7431124908909187E+093
1021
-17.98853504805993
1031
0.0
1002
}
1002
{
1000
PXDIR
1011
271.2243932113139
1021
0.0
1031
2.7431124908909187E+093
1021
17.301354363705428
1031
0.0
1002
}
1002
{
1000
PORI
1011
-0.3915519962470171
1021
0.0
1031
2.7431124908909187E+093
1021
17.3013543637054
1031
0.0
1002
}
1002
{
1000
PINS
1011
-0.3915519962470171
1021
0.0
1031
2.7431124908909187E+093
1021
17.3013543637054
1031
0.0
1002
}
1002
{
1000
PINS2
1011
271.2243932113139
1021
0.0
1031
2.7431124908909187E+093
1021
-17.988535048059902
1031
0.0
1002
}
1002
{
1000
C
1070
     1
1002
}
1001
GENIUS_GENOBJ-N-REC_13
1002
{
1000
OWNER
1000
GEN
1002
}
1001
GENIUS_GENODEF_13
1002
{
1000
HIER
1070
     0
1002
}
1002
{
1000
MANEDIT
1070
     0
1002
}
1002
{
1000
NOSEL
1070
     0
1002
}
1002
{
1000
BEHIND
1070
     0
1002
}
1002
{
1000
OTHER
1070
     0
1002
}
1002
{
1000
REACTOR
1002
}
  0
VERTEX
  5
1597
 67
     1
  8
LOGO
 62
     4
 10
-0.3915519962470171
 20
17.3013543637054
 30
0.0
  0
VERTEX
  5
1598
 67
     1
  8
LOGO
 62
     4
 10
271.2243932113139
 20
17.301354363705428
 30
0.0
  0
VERTEX
  5
1599
 67
     1
  8
LOGO
 62
     4
 10
271.2243932113139
 20
-17.988535048059902
 30
0.0
  0
VERTEX
  5
159A
 67
     1
  8
LOGO
 62
     4
 10
-0.3915519962470171
 20
-17.98853504805993
 30
0.0
  0
SEQEND
  5
159B
 67
     1
  8
LOGO
 62
     4
  0
TEXT
  5
305
 67
     1
  8
LOGO
 62
     7
 10
79.290681595746804
 20
1.841454321192969
 30
0.0
 40
4.7053185882352926
  1
Order example:
 41
0.8
  7
CHINESET
  0
TEXT
  5
306
 67
     1
  8
LOGO
 62
     7
 10
80.13485466187791
 20
8.4655686447832732
 30
0.0
 40
7.0579778823529411
  1
訂購代號：
  7
CHINESET
  0
LINE
  5
307
 67
     1
  8
LOGO
 62
     4
 10
77.24620470963545
 20
-17.988535048059529
 30
0.0
 11
77.24620470963545
 21
17.3013543637054
 31
0.0
  0
TEXT
  5
308
 67
     1
  8
LOGO
  6
CONTINUOUS
 10
12.28473491158106
 20
-11.055889530204951
 30
0.0
 40
5.293483411764706
  1
金器工業股份有限公司
  7
CHINESET
  0
TEXT
  5
309
 67
     1
  8
LOGO
  6
CONTINUOUS
 10
2.5616531482167022
 20
-16.350410049693181
 30
0.0
 40
3.5289889411764701
  1
MINDMAN INDUSTRIAL CO., LTD.
 41
0.85
  7
CHINESET
  0
LINE
  5
30A
 67
     1
  8
LOGO
 62
     4
 10
77.24620470963545
 20
10.24337648135241
 30
0.0
 11
25.487700239046848
 21
10.24337648135241
 31
0.0
  0
LINE
  5
30B
 67
     1
  8
LOGO
 62
     4
 10
77.24620470963545
 20
3.1853985989994271
 30
0.0
 11
25.487700239046848
 21
3.1853985989994271
 31
0.0
  0
LINE
  5
30C
 67
     1
  8
LOGO
 62
     4
 10
77.24620470963545
 20
-3.8725792833531609
 30
0.0
 11
-0.3915519962470171
 21
-3.8725792833531609
 31
0.0
  0
LINE
  5
30D
 67
     1
  8
LOGO
 62
     4
 10
25.487700239046848
 20
-3.8725792833531609
 30
0.0
 11
25.487700239046848
 21
17.3013543637054
 31
0.0
  0
TEXT
  5
30E
 67
     1
  8
LOGO
 10
60.862195080494097
 20
-2.1080848127655001
 30
0.0
 40
3.5289889411764701
  1
mm
  7
CHINESET
 72
     1
 11
65.231419483855447
 21
-0.343590342177265
 31
0.0
 73
     2
  0
TEXT
  5
30F
 67
     1
  8
LOGO
 10
59.013677063687382
 20
12.00787095194047
 30
0.0
 40
3.5289889411764701
  1
1 : 1
  7
CHINESET
 72
     1
 11
65.231419483855447
 21
13.77236542252871
 31
0.0
 73
     2
  0
LINE
  5
310
 67
     1
  8
LOGO
 62
     4
 10
53.719611768458833
 20
-3.8725792833531609
 30
0.0
 11
53.719611768458833
 21
17.3013543637054
 31
0.0
  0
CIRCLE
  5
311
 67
     1
  8
LOGO
  6
CONTINUOUS
 10
60.253976192006071
 20
6.7219360733456952
 30
0.0
 40
2.0490140422833338
  0
CIRCLE
  5
312
 67
     1
  8
LOGO
  6
CONTINUOUS
 10
60.253976192006071
 20
6.7219360733456952
 30
0.0
 40
1.2005408398276121
  0
LINE
  5
313
 67
     1
  8
LOGO
 10
73.130218191249412
 20
4.6729220310619723
 30
0.0
 11
73.130218191249412
 21
8.7709501156294323
 31
0.0
  0
LINE
  5
314
 67
     1
  8
LOGO
 10
66.706676787709725
 20
5.5213952335183052
 30
0.0
 11
66.706676787709725
 21
7.9224769131734973
 31
0.0
  0
LINE
  5
315
 67
     1
  8
LOGO
  6
CONTINUOUS
 10
66.706676787709725
 20
7.9224769131734973
 30
0.0
 11
73.130218191249412
 21
8.7709501156294323
 31
0.0
  0
LINE
  5
316
 67
     1
  8
LOGO
  6
CONTINUOUS
 10
66.706676787709725
 20
5.5213952335183052
 30
0.0
 11
73.130218191249412
 21
4.6729220310619723
 31
0.0
  0
TEXT
  5
317
 67
     1
  8
LOGO
 10
28.397540674025869
 20
12.009607659096559
 30
0.0
 40
3.5289889411764701
  1
比例 Scale:
 41
0.9
  7
CHINESET
 72
     4
 11
39.603656003752761
 21
13.77236542252871
 31
0.0
  0
TEXT
  5
318
 67
     1
  8
LOGO
 10
28.194308721609911
 20
4.999533949132414
 30
0.0
 40
3.5289889411764701
  1
投影  View:
 41
0.9
  7
CHINESET
 72
     4
 11
39.603656003752761
 21
6.7143875401757214
 31
0.0
  0
TEXT
  5
319
 67
     1
  8
LOGO
 10
28.539330408269571
 20
-2.1080848127655001
 30
0.0
 40
3.5289889411764701
  1
單位  Unit:
 41
0.9
  7
CHINESET
 72
     4
 11
39.603656003752761
 21
-0.343590342177265
 31
0.0
  0
SOLID
  5
31A
 67
     1
  8
LOGO
 62
     5
 10
3.2698306661879779
 20
1.9938625193314861
 30
0.0
 11
4.7956728836828901
 21
1.9938625193310811
 31
0.0
 12
11.162117998057861
 22
16.463055961093691
 32
0.0
 13
12.68796021555351
 23
16.463055961092891
 33
0.0
  0
SOLID
  5
31B
 67
     1
  8
LOGO
 62
     5
 10
5.4270558702340947
 20
1.9938625193314861
 30
0.0
 11
6.9528980877290101
 21
1.9938625193314861
 31
0.0
 12
12.68796021555351
 22
15.30552048575214
 32
0.0
 13
11.162117998057861
 23
9.7107656882707616
 33
0.0
  0
SOLID
  5
31C
 67
     1
  8
LOGO
 62
     2
 10
4.7956728836828901
 20
1.9938625193310811
 30
0.0
 11
5.4270558702340947
 21
1.9938625193314861
 31
0.0
 12
12.68796021555351
 22
16.463055961092891
 32
0.0
 13
13.31934320210398
 23
16.463055961092891
 33
0.0
  0
SOLID
  5
31D
 67
     1
  8
LOGO
 62
     5
 10
0.8235314091972085
 20
-3.2676623685815822
 30
0.0
 11
1.3496838979891661
 21
-3.2676623685815822
 31
0.0
 12
2.8313702588624561
 22
-0.6368999246252473
 32
0.0
 13
3.357522747652637
 23
-0.6368999246252473
 33
0.0
  0
SOLID
  5
31E
 67
     1
  8
LOGO
 62
     5
 10
2.8313702588624561
 20
-0.6368999246252473
 30
0.0
 11
3.357522747652637
 21
-0.6368999246252473
 31
0.0
 12
2.8313702588624561
 22
-3.2676623685815822
 32
0.0
 13
3.357522747652637
 23
-3.2676623685815822
 33
0.0
  0
SOLID
  5
31F
 67
     1
  8
LOGO
 62
     5
 10
2.8313702588624561
 20
-3.2676623685815822
 30
0.0
 11
3.357522747652637
 21
-3.2676623685815822
 31
0.0
 12
4.839209108528439
 22
-0.6368999246252473
 32
0.0
 13
5.3653615973195086
 23
-0.6368999246252473
 33
0.0
  0
SOLID
  5
320
 67
     1
  8
LOGO
 62
     5
 10
4.839209108528439
 20
-0.6368999246252473
 30
0.0
 11
5.3653615973195086
 21
-0.6368999246252473
 31
0.0
 12
4.839209108528439
 22
-3.2676623685815822
 32
0.0
 13
5.3653615973195086
 23
-3.2676623685815822
 33
0.0
  0
POLYLINE
  5
321
 67
     1
  8
LOGO
 62
     5
 66
     1
 10
0.0
 20
0.0
 30
0.0
 40
0.5269956818823528
 41
0.5269956818823528
  0
VERTEX
  5
322
 67
     1
  8
LOGO
 62
     5
 10
22.475661296709632
 20
-1.6892049022078619
 30
0.0
 42
1.0
  0
VERTEX
  5
323
 67
     1
  8
LOGO
 62
     5
 10
20.89467425106233
 20
-1.6892049022078619
 30
0.0
 42
1.0
  0
SEQEND
  5
324
 67
     1
  8
LOGO
 62
     5
  0
POLYLINE
  5
325
 67
     1
  8
LOGO
 62
     5
 66
     1
 10
0.0
 20
0.0
 30
0.0
 70
     1
  0
VERTEX
  5
326
 67
     1
  8
LOGO
 62
     5
 10
17.91444334771284
 20
-1.952281146603809
 30
0.0
 42
1.0000000573306349
  0
VERTEX
  5
327
 67
     1
  8
LOGO
 62
     5
 10
19.492900814086941
 20
-1.952281146603809
 30
0.0
 42
1.0000000573306349
  0
SEQEND
  5
328
 67
     1
  8
LOGO
 62
     5
  0
CIRCLE
  5
329
 67
     1
  8
LOGO
 62
     5
 10
18.70367208090115
 20
-1.952281146603809
 30
0.0
 40
0.7892287331870119
  0
POLYLINE
  5
32A
 67
     1
  8
LOGO
 62
     5
 66
     1
 10
0.0
 20
0.0
 30
0.0
 70
     1
 40
0.5269956818823528
 41
0.5269956818823528
  0
VERTEX
  5
32B
 67
     1
  8
LOGO
 62
     5
 10
17.649680717135642
 20
-1.952281146603809
 30
0.0
 42
1.0
  0
VERTEX
  5
32C
 67
     1
  8
LOGO
 62
     5
 10
19.757663444665042
 20
-1.952281146603809
 30
0.0
 42
1.0
  0
SEQEND
  5
32D
 67
     1
  8
LOGO
 62
     5
  0
LINE
  5
32E
 67
     1
  8
LOGO
 10
22.737472751467749
 20
-3.2676623685815822
 30
0.0
 11
22.737472751467749
 21
-1.6892049022078619
 31
0.0
  0
SOLID
  5
32F
 67
     1
  8
LOGO
 62
     5
 10
19.492848198840498
 20
-0.6368999246252473
 30
0.0
 11
20.01900068763068
 21
-0.6368999246252473
 31
0.0
 12
19.492848198840498
 22
-3.2676623685815822
 32
0.0
 13
20.01900068763068
 23
-3.2676623685815822
 33
0.0
  0
SOLID
  5
330
 67
     1
  8
LOGO
 62
     5
 10
20.632862796302589
 20
-3.2676623685815822
 30
0.0
 11
21.159015285094402
 21
-3.2676623685815822
 31
0.0
 12
20.632862796302589
 22
-0.6368999246252473
 32
0.0
 13
21.159015285094402
 23
-0.6368999246252473
 33
0.0
  0
SOLID
  5
331
 67
     1
  8
LOGO
 62
     5
 10
22.211320262677422
 20
-1.6892049022078619
 30
0.0
 11
22.737472751467749
 21
-1.6892049022078619
 31
0.0
 12
22.211320262677422
 22
-3.2676623685815822
 32
0.0
 13
22.737472751467749
 23
-3.2676623685815822
 33
0.0
  0
SOLID
  5
332
 67
     1
  8
LOGO
 62
     5
 10
20.580247547423259
 20
15.30552048575214
 30
0.0
 11
19.054405329929221
 21
9.7107656882707616
 31
0.0
 12
20.580247547423259
 22
1.9938625193310811
 32
0.0
 13
19.054405329929221
 23
1.9938625193310811
 33
0.0
  0
SOLID
  5
333
 67
     1
  8
LOGO
 62
     5
 10
21.211630533973722
 20
1.9938625193310811
 30
0.0
 11
22.737472751467749
 21
1.9938625193310811
 31
0.0
 12
21.211630533973722
 22
16.463055961092891
 32
0.0
 13
22.737472751467749
 23
16.463055961093691
 33
0.0
  0
SOLID
  5
334
 67
     1
  8
LOGO
 62
     2
 10
20.580247547423259
 20
16.463055961093691
 30
0.0
 11
21.211630533973722
 21
16.463055961092891
 31
0.0
 12
20.580247547423259
 22
1.9938625193310811
 32
0.0
 13
21.211630533973722
 23
1.9938625193310811
 33
0.0
  0
POLYLINE
  5
335
 67
     1
  8
LOGO
 62
     5
 66
     1
 10
0.0
 20
0.0
 30
0.0
 40
0.5269956818823528
 41
0.5269956818823528
  0
VERTEX
  5
336
 67
     1
  8
LOGO
 62
     5
 10
14.93410721386797
 20
-1.6892049022078619
 30
0.0
 42
1.0
  0
VERTEX
  5
337
 67
     1
  8
LOGO
 62
     5
 10
13.35312016822051
 20
-1.6892049022078619
 30
0.0
 42
1.0
  0
SEQEND
  5
338
 67
     1
  8
LOGO
 62
     5
  0
POLYLINE
  5
339
 67
     1
  8
LOGO
 62
     5
 66
     1
 10
0.0
 20
0.0
 30
0.0
 40
0.5269956818823528
 41
0.5269956818823528
  0
VERTEX
  5
33A
 67
     1
  8
LOGO
 62
     5
 10
16.512564680240441
 20
-1.6892049022078619
 30
0.0
 42
1.0
  0
VERTEX
  5
33B
 67
     1
  8
LOGO
 62
     5
 10
14.93157763459387
 20
-1.6892049022078619
 30
0.0
 42
1.0
  0
SEQEND
  5
33C
 67
     1
  8
LOGO
 62
     5
  0
POLYLINE
  5
33D
 67
     1
  8
LOGO
 62
     5
 66
     1
 10
0.0
 20
0.0
 30
0.0
 40
0.5269956818823528
 41
0.5269956818823528
  0
VERTEX
  5
33E
 67
     1
  8
LOGO
 62
     5
 10
8.9710105973987773
 20
-1.6892049022078619
 30
0.0
 42
1.0
  0
VERTEX
  5
33F
 67
     1
  8
LOGO
 62
     5
 10
7.3900235517522113
 20
-1.6892049022078619
 30
0.0
 42
1.0
  0
SEQEND
  5
340
 67
     1
  8
LOGO
 62
     5
  0
SOLID
  5
341
 67
     1
  8
LOGO
 62
     5
 10
7.1282120969933551
 20
-0.6368999246252473
 30
0.0
 11
7.6543645857836848
 21
-0.6368999246252473
 31
0.0
 12
7.1282120969933551
 22
-3.2676623685815822
 32
0.0
 13
7.6543645857836848
 23
-3.2676623685815822
 33
0.0
  0
SOLID
  5
342
 67
     1
  8
LOGO
 62
     5
 10
8.7066695633674485
 20
-1.6892049022078619
 30
0.0
 11
9.2328220521594062
 21
-1.6892049022078619
 31
0.0
 12
8.7066695633674485
 22
-3.2676623685815822
 32
0.0
 13
9.2328220521594062
 23
-3.2676623685815822
 33
0.0
  0
POLYLINE
  5
343
 67
     1
  8
LOGO
 62
     5
 66
     1
 10
0.0
 20
0.0
 30
0.0
 70
     1
 40
0.5269956818823528
 41
0.5269956818823528
  0
VERTEX
  5
344
 67
     1
  8
LOGO
 62
     5
 10
10.108126634293241
 20
-1.952281146603809
 30
0.0
 42
1.0
  0
VERTEX
  5
345
 67
     1
  8
LOGO
 62
     5
 10
12.21610936182323
 20
-1.952281146603809
 30
0.0
 42
1.0
  0
SEQEND
  5
346
 67
     1
  8
LOGO
 62
     5
  0
SOLID
  5
347
 67
     1
  8
LOGO
 62
     5
 10
11.951294115997211
 20
0.152328808562217
 30
0.0
 11
12.47744660478828
 21
0.152328808562217
 31
0.0
 12
11.951294115997211
 22
-3.2676623685815822
 32
0.0
 13
12.47744660478828
 23
-3.2676623685815822
 33
0.0
  0
SOLID
  5
348
 67
     1
  8
LOGO
 62
     5
 10
13.091308713462389
 20
-0.6368999246252473
 30
0.0
 11
13.61746120225272
 21
-0.6368999246252473
 31
0.0
 12
13.091308713462389
 22
-3.2676623685815822
 32
0.0
 13
13.61746120225272
 23
-3.2676623685815822
 33
0.0
  0
SOLID
  5
349
 67
     1
  8
LOGO
 62
     5
 10
14.66976617983501
 20
-1.6892049022078619
 30
0.0
 11
15.19591866862682
 21
-1.6892049022078619
 31
0.0
 12
14.66976617983501
 22
-3.2676623685815822
 32
0.0
 13
15.19591866862682
 23
-3.2676623685815822
 33
0.0
  0
SOLID
  5
34A
 67
     1
  8
LOGO
 62
     5
 10
16.248223646209109
 20
-1.6892049022078619
 30
0.0
 11
16.774376135000178
 21
-1.6892049022078619
 31
0.0
 12
16.248223646209109
 22
-3.267662368582378
 32
0.0
 13
16.774376135000178
 23
-3.267662368582378
 33
0.0
  0
SOLID
  5
34B
 67
     1
  8
LOGO
 62
     5
 10
5.9881974995287592
 20
-0.2685931824711503
 30
0.0
 11
6.5143499883214524
 21
-0.2685931824711503
 31
0.0
 12
5.9881974995287592
 22
0.152328808562217
 32
0.0
 13
6.5143499883214524
 23
0.152328808562217
 33
0.0
  0
SOLID
  5
34C
 67
     1
  8
LOGO
 62
     5
 10
5.9881974995287592
 20
-0.6368999246252473
 30
0.0
 11
6.5143499883214524
 21
-0.6368999246252473
 31
0.0
 12
5.9881974995287592
 22
-3.267662368582378
 32
0.0
 13
6.5143499883214524
 23
-3.2676623685815822
 33
0.0
  0
SOLID
  5
34D
 67
     1
  8
LOGO
 62
     5
 10
11.162117998057861
 20
1.9938625193314861
 30
0.0
 11
12.68796021555351
 21
1.9938625193314861
 31
0.0
 12
11.162117998057861
 22
9.7107656882707616
 32
0.0
 13
12.68796021555351
 23
15.30552048575214
 33
0.0
  0
SOLID
  5
34E
 67
     1
  8
LOGO
 62
     5
 10
13.31934320210398
 20
16.463055961092891
 30
0.0
 11
14.84518541959801
 21
16.463055961093691
 31
0.0
 12
13.31934320210398
 22
3.1513979946722368
 32
0.0
 13
14.84518541959801
 23
8.7461527921536089
 33
0.0
  0
SOLID
  5
34F
 67
     1
  8
LOGO
 62
     2
 10
12.68796021555351
 20
16.463055961092891
 30
0.0
 11
13.31934320210398
 21
16.463055961092891
 31
0.0
 12
12.68796021555351
 22
1.9938625193314861
 32
0.0
 13
13.31934320210398
 23
1.9938625193314861
 33
0.0
  0
SOLID
  5
350
 67
     1
  8
LOGO
 62
     5
 10
13.31934320210398
 20
3.1513979946722368
 30
0.0
 11
14.84518541959801
 21
8.7461527921536089
 31
0.0
 12
20.580247547423259
 22
16.463055961093691
 32
0.0
 13
19.054405329929221
 23
16.463055961093691
 33
0.0
  0
SOLID
  5
351
 67
     1
  8
LOGO
 62
     5
 10
13.31934320210398
 20
1.9938625193314861
 30
0.0
 11
14.84518541959801
 21
1.9938625193314861
 31
0.0
 12
20.580247547423259
 22
15.30552048575214
 32
0.0
 13
19.054405329929221
 23
9.7107656882707616
 33
0.0
  0
SOLID
  5
352
 67
     1
  8
LOGO
 62
     2
 10
12.68796021555351
 20
1.9938625193314861
 30
0.0
 11
13.31934320210398
 21
1.9938625193314861
 31
0.0
 12
20.580247547423259
 22
16.463055961093691
 32
0.0
 13
21.211630533973722
 23
16.463055961092891
 33
0.0
  0
TEXT
  5
353
 67
     1
  8
LOGO
 10
79.175433394272034
 20
-16.111126860049321
 30
0.0
 40
3.5295000000000001
  1
00903161
 41
0.7
  7
CHINESET
 72
     1
 11
87.469758394272034
 21
-16.111126860049321
 31
0.0
  0
LINE
  5
354
 67
     1
  8
LOGO
 62
     4
 10
98.423204709633794
 20
-10.93055716570575
 30
0.0
 11
98.423204709635414
 21
-17.988535048059131
 31
0.0
  0
LINE
  5
355
 67
     1
  8
LOGO
 62
     4
 10
98.423204709633794
 20
-10.93055716570575
 30
0.0
 11
77.24620470963545
 21
-10.93055716570575
 31
0.0
  0
LINE
  5
356
 67
     1
  8
LOGO
  6
AM_ISO08W050X2
 10
57.429379653149169
 20
6.7219360733456952
 30
0.0
 11
63.078572730862788
 21
6.7219360733456952
 31
0.0
1001
GENIUS_GENOREF_13
1005
0
  0
LINE
  5
357
 67
     1
  8
LOGO
  6
AM_ISO08W050X2
 10
60.253976192006071
 20
3.897339534488871
 30
0.0
 11
60.253976192006071
 21
9.546532612202526
 31
0.0
1001
GENIUS_GENOREF_13
1005
0
  0
LINE
  5
358
 67
     1
  8
LOGO
  6
CENTER
 10
66.192972016924458
 20
6.7219360733456952
 30
0.0
 11
73.77704801651025
 21
6.7219360733456952
 31
0.0
1001
GENIUS_GENOREF_13
1005
0
  0
LINE
  5
8FE
 67
     1
  8
AM_7
 10
59.74890363676127
 20
300.70515885123962
 30
0.0
 11
59.74890363676127
 21
300.70515885123962
 31
0.0
  0
LINE
  5
8FF
 67
     1
  8
AM_7
 10
59.74890363676127
 20
300.70515885123962
 30
0.0
 11
59.74890363676127
 21
300.70515885123962
 31
0.0
  0
LINE
  5
900
 67
     1
  8
AM_7
 10
54.573903636761251
 20
300.70515885123962
 30
0.0
 11
59.74890363676127
 21
300.70515885123962
 31
0.0
  0
LINE
  5
901
 67
     1
  8
AM_7
 10
59.74890363676127
 20
300.70515885123962
 30
0.0
 11
64.923903636761281
 21
300.70515885123962
 31
0.0
  0
LINE
  5
902
 67
     1
  8
AM_7
 10
59.74890363676127
 20
295.53015885123961
 30
0.0
 11
59.74890363676127
 21
300.70515885123962
 31
0.0
  0
LINE
  5
903
 67
     1
  8
AM_7
 10
59.74890363676127
 20
300.70515885123962
 30
0.0
 11
59.74890363676127
 21
305.88015885123963
 31
0.0
  0
LINE
  5
904
 67
     1
  8
AM_7
 10
85.204747759476746
 20
275.24931472852393
 30
0.0
 11
85.204747759476746
 21
275.24931472852393
 31
0.0
  0
LINE
  5
905
 67
     1
  8
AM_7
 10
85.204747759476746
 20
275.24931472852393
 30
0.0
 11
85.204747759476746
 21
275.24931472852393
 31
0.0
  0
LINE
  5
906
 67
     1
  8
AM_7
 10
80.02974775947672
 20
275.24931472852393
 30
0.0
 11
85.204747759476746
 21
275.24931472852393
 31
0.0
  0
LINE
  5
907
 67
     1
  8
AM_7
 10
85.204747759476746
 20
275.24931472852393
 30
0.0
 11
90.379747759476743
 21
275.24931472852393
 31
0.0
  0
LINE
  5
908
 67
     1
  8
AM_7
 10
85.204747759476746
 20
270.07431472852392
 30
0.0
 11
85.204747759476746
 21
275.24931472852393
 31
0.0
  0
LINE
  5
909
 67
     1
  8
AM_7
 10
85.204747759476746
 20
275.24931472852393
 30
0.0
 11
85.204747759476746
 21
280.42431472852388
 31
0.0
  0
ARC
  5
90D
 67
     1
  8
AM_4
 10
85.204747759476746
 20
275.24931472852393
 30
0.0
 40
3.1469999999999989
 50
259.99999999999977
 51
190.0000000000002
  0
ARC
  5
90E
 67
     1
  8
AM_4
 10
85.204747759476746
 20
275.24931472852393
 30
0.0
 40
3.1469999999999989
 50
259.99999999999977
 51
190.0000000000002
  0
ARC
  5
90F
 67
     1
  8
AM_4
 10
59.74890363676127
 20
300.70515885123962
 30
0.0
 40
3.1469999999999989
 50
259.99999999999977
 51
190.0000000000002
  0
ARC
  5
910
 67
     1
  8
AM_4
 10
59.74890363676127
 20
300.70515885123962
 30
0.0
 40
3.1469999999999989
 50
259.99999999999977
 51
190.0000000000002
  0
ARC
  5
911
 67
     1
  8
AM_4
 10
72.476825698118091
 20
287.97723678988211
 30
0.0
 40
2.6200000000000001
 50
259.99999999999977
 51
190.0000000000002
  0
LINE
  5
912
 67
     1
  8
AM_7
 10
173.95381219608291
 20
287.97723678988211
 30
0.0
 11
127.224741410435
 21
287.97723678988211
 31
0.0
  0
LINE
  5
915
 67
     1
  8
AM_7
 10
163.74376410136679
 20
235.4342077784973
 30
0.0
 11
164.6062641013668
 21
235.4342077784973
 31
0.0
  0
LINE
  5
919
 67
     1
  8
AM_7
 10
144.90626410136679
 20
235.4342077784973
 30
0.0
 11
144.90626410136679
 21
235.4342077784973
 31
0.0
  0
LINE
  5
91A
 67
     1
  8
AM_7
 10
144.90626410136679
 20
235.4342077784973
 30
0.0
 11
144.90626410136679
 21
235.4342077784973
 31
0.0
  0
LINE
  5
91B
 67
     1
  8
AM_7
 10
142.41421410136681
 20
235.4342077784973
 30
0.0
 11
144.90626410136679
 21
235.4342077784973
 31
0.0
  0
LINE
  5
91C
 67
     1
  8
AM_7
 10
144.90626410136679
 20
235.4342077784973
 30
0.0
 11
147.39831410136679
 21
235.4342077784973
 31
0.0
  0
LINE
  5
91D
 67
     1
  8
AM_7
 10
144.90626410136679
 20
232.94215777849729
 30
0.0
 11
144.90626410136679
 21
235.4342077784973
 31
0.0
  0
LINE
  5
91E
 67
     1
  8
AM_7
 10
144.90626410136679
 20
235.4342077784973
 30
0.0
 11
144.90626410136679
 21
237.9262577784973
 31
0.0
  0
LINE
  5
921
 67
     1
  8
AM_7
 10
162.91421410136681
 20
235.4342077784973
 30
0.0
 11
165.40626410136679
 21
235.4342077784973
 31
0.0
  0
LINE
  5
922
 67
     1
  8
AM_7
 10
165.40626410136679
 20
235.4342077784973
 30
0.0
 11
167.89831410136679
 21
235.4342077784973
 31
0.0
  0
LINE
  5
923
 67
     1
  8
AM_7
 10
165.40626410136679
 20
232.94215777849729
 30
0.0
 11
165.40626410136679
 21
235.4342077784973
 31
0.0
  0
LINE
  5
924
 67
     1
  8
AM_7
 10
165.40626410136679
 20
235.4342077784973
 30
0.0
 11
165.40626410136679
 21
237.9262577784973
 31
0.0
  0
LINE
  5
925
 67
     1
  8
AM_7
 10
173.95381219608291
 20
231.34943146764729
 30
0.0
 11
127.224741410435
 21
231.34943146764729
 31
0.0
  0
ARC
  5
926
 67
     1
  8
AM_4
 10
144.90626410136679
 20
235.43420777849749
 30
0.0
 40
2.6200000000000001
 50
259.99999999999977
 51
190.0000000000002
  0
ARC
  5
927
 67
     1
  8
AM_4
 10
165.40626410136679
 20
235.43420777849749
 30
0.0
 40
2.6200000000000001
 50
259.99999999999977
 51
190.0000000000002
  0
LINE
  5
928
 67
     1
  8
AM_7
 10
224.09181015062819
 20
300.7051588512399
 30
0.0
 11
224.09181015062819
 21
300.7051588512399
 31
0.0
  0
LINE
  5
929
 67
     1
  8
AM_7
 10
224.09181015062819
 20
300.7051588512399
 30
0.0
 11
224.09181015062819
 21
300.7051588512399
 31
0.0
  0
LINE
  5
92A
 67
     1
  8
AM_7
 10
218.91681015062821
 20
300.7051588512399
 30
0.0
 11
224.09181015062819
 21
300.7051588512399
 31
0.0
  0
LINE
  5
92B
 67
     1
  8
AM_7
 10
224.09181015062819
 20
300.7051588512399
 30
0.0
 11
229.2668101506282
 21
300.7051588512399
 31
0.0
  0
LINE
  5
92C
 67
     1
  8
AM_7
 10
224.09181015062819
 20
295.53015885123989
 30
0.0
 11
224.09181015062819
 21
300.7051588512399
 31
0.0
  0
LINE
  5
92D
 67
     1
  8
AM_7
 10
224.09181015062819
 20
300.7051588512399
 30
0.0
 11
224.09181015062819
 21
305.88015885123991
 31
0.0
  0
LINE
  5
92E
 67
     1
  8
AM_7
 10
198.6359660279127
 20
275.24931472852421
 30
0.0
 11
198.6359660279127
 21
275.24931472852421
 31
0.0
  0
LINE
  5
92F
 67
     1
  8
AM_7
 10
198.6359660279127
 20
275.24931472852421
 30
0.0
 11
198.6359660279127
 21
275.24931472852421
 31
0.0
  0
LINE
  5
930
 67
     1
  8
AM_7
 10
193.46096602791269
 20
275.24931472852421
 30
0.0
 11
198.6359660279127
 21
275.24931472852421
 31
0.0
  0
LINE
  5
931
 67
     1
  8
AM_7
 10
198.6359660279127
 20
275.24931472852421
 30
0.0
 11
203.8109660279128
 21
275.24931472852421
 31
0.0
  0
LINE
  5
932
 67
     1
  8
AM_7
 10
198.6359660279127
 20
270.0743147285242
 30
0.0
 11
198.6359660279127
 21
275.24931472852421
 31
0.0
  0
LINE
  5
933
 67
     1
  8
AM_7
 10
198.6359660279127
 20
275.24931472852421
 30
0.0
 11
198.6359660279127
 21
280.42431472852422
 31
0.0
  0
ARC
  5
93A
 67
     1
  8
AM_4
 10
224.09181015062819
 20
300.7051588512399
 30
0.0
 40
3.1469999999999989
 50
259.99999999999977
 51
190.0000000000002
  0
ARC
  5
93B
 67
     1
  8
AM_4
 10
224.09181015062819
 20
300.7051588512399
 30
0.0
 40
3.1469999999999989
 50
259.99999999999977
 51
190.0000000000002
  0
ARC
  5
93C
 67
     1
  8
AM_4
 10
198.6359660279127
 20
275.24931472852421
 30
0.0
 40
3.1469999999999989
 50
259.99999999999977
 51
190.0000000000002
  0
ARC
  5
93D
 67
     1
  8
AM_4
 10
198.6359660279127
 20
275.24931472852421
 30
0.0
 40
3.1469999999999989
 50
259.99999999999977
 51
190.0000000000002
  0
LINE
  5
93E
 67
     1
  8
AM_VIS
 10
67.47682569811866
 20
300.5872367898819
 30
0.0
 11
67.47682569811866
 21
302.98609860257022
 31
0.0
  0
LINE
  5
93F
 67
     1
  8
AM_VIS
 10
76.176825698118705
 20
300.28723678988212
 30
0.0
 11
67.776825698118714
 21
300.28723678988212
 31
0.0
  0
LINE
  5
940
 67
     1
  8
AM_VIS
 10
76.476825698118432
 20
301.18723678988209
 30
0.0
 11
76.476825698118603
 21
300.5872367898819
 31
0.0
  0
LINE
  5
941
 67
     1
  8
AM_VIS
 10
75.076825698118796
 20
301.48723678988199
 30
0.0
 11
76.176825698118819
 21
301.48723678988199
 31
0.0
  0
LINE
  5
942
 67
     1
  8
AM_VIS
 10
74.776825698118614
 20
302.98609860257022
 30
0.0
 11
74.776825698118614
 21
301.78723678988212
 31
0.0
  0
LINE
  5
943
 67
     1
  8
AM_VIS
 10
75.076825698118796
 20
303.28609860257018
 30
0.0
 11
77.966953758653233
 21
303.28609860257018
 31
0.0
  0
LINE
  5
944
 67
     1
  8
AM_VIS
 10
78.674060539839616
 20
302.9932053837569
 30
0.0
 11
87.492794291993903
 21
294.1744716316025
 31
0.0
  0
LINE
  5
945
 67
     1
  8
AM_VIS
 10
87.785687510807406
 20
293.46736485041612
 30
0.0
 11
87.785687510807406
 21
290.57723678988191
 31
0.0
  0
LINE
  5
946
 67
     1
  8
AM_VIS
 10
86.286825698118847
 20
290.27723678988212
 30
0.0
 11
87.485687510807622
 21
290.27723678988212
 31
0.0
  0
LINE
  5
947
 67
     1
  8
AM_VIS
 10
85.986825698118878
 20
291.67723678988182
 30
0.0
 11
85.986825698118878
 21
290.57723678988179
 31
0.0
  0
LINE
  5
948
 67
     1
  8
AM_VIS
 10
85.086825698118787
 20
291.977236789882
 30
0.0
 11
85.686825698118696
 21
291.977236789882
 31
0.0
  0
LINE
  5
949
 67
     1
  8
AM_VIS
 10
84.786825698118832
 20
283.27723678988201
 30
0.0
 11
84.786825698118832
 21
291.67723678988187
 31
0.0
  0
LINE
  5
94A
 67
     1
  8
AM_VIS
 10
87.485687510807224
 20
282.97723678988189
 30
0.0
 11
85.086825698118616
 21
282.97723678988189
 31
0.0
  0
LINE
  5
94B
 67
     1
  8
AM_VIS
 10
87.785687510807406
 20
282.67723678988182
 30
0.0
 11
87.785687510807406
 21
280.4465495702446
 31
0.0
  0
LINE
  5
94C
 67
     1
  8
AM_VIS
 10
87.785687510807406
 20
280.4465495702446
 30
0.0
 11
90.861602008968816
 21
277.3706350720833
 31
0.0
  0
LINE
  5
94D
 67
     1
  8
AM_VIS
 10
90.861602008968589
 20
277.3706350720833
 30
0.0
 11
90.861602008968589
 21
273.69369547052747
 31
0.0
  0
LINE
  5
94E
 67
     1
  8
AM_VIS
 10
86.760367017472731
 20
269.59246047903127
 30
0.0
 11
70.062612135745781
 21
269.59246047903127
 31
0.0
  0
LINE
  5
94F
 67
     1
  8
AM_VIS
 10
69.355505354558886
 20
269.88535369784472
 30
0.0
 11
54.384942606081779
 21
284.85591644632188
 31
0.0
  0
LINE
  5
950
 67
     1
  8
AM_VIS
 10
54.092049387268268
 20
285.56302322750849
 30
0.0
 11
54.092049387268268
 21
302.26077810923613
 31
0.0
  0
LINE
  5
951
 67
     1
  8
AM_VIS
 10
58.193284378763899
 20
306.3620131007317
 30
0.0
 11
61.870223980320361
 21
306.3620131007317
 31
0.0
  0
LINE
  5
952
 67
     1
  8
AM_VIS
 10
61.87022398032024
 20
306.3620131007317
 30
0.0
 11
64.946138478481814
 21
303.28609860257012
 31
0.0
  0
LINE
  5
953
 67
     1
  8
AM_VIS
 10
64.946138478481885
 20
303.28609860257001
 30
0.0
 11
67.176825698118705
 21
303.28609860257001
 31
0.0
  0
CIRCLE
  5
955
 67
     1
  8
AM_VIS
 10
59.748903636761163
 20
300.70515885123962
 30
0.0
 40
2.75
  0
CIRCLE
  5
957
 67
     1
  8
AM_VIS
 10
85.204747759476604
 20
275.24931472852393
 30
0.0
 40
2.75
  0
CIRCLE
  5
958
 67
     1
  8
AM_VIS
 10
59.748903636761163
 20
300.70515885123962
 30
0.0
 40
4.5
  0
CIRCLE
  5
959
 67
     1
  8
AM_VIS
 10
85.204747759476604
 20
275.24931472852393
 30
0.0
 40
4.5
  0
CIRCLE
  5
95A
 67
     1
  8
AM_VIS
 10
59.748903636761163
 20
300.70515885123962
 30
0.0
 40
4.7999999999999998
  0
ARC
  5
95B
 67
     1
  8
AM_VIS
 10
67.776825698118842
 20
300.5872367898819
 30
0.0
 40
0.3
 50
180.0
 51
270.0
  0
ARC
  5
95C
 67
     1
  8
AM_VIS
 10
76.176825698118705
 20
300.58723678988179
 30
0.0
 40
0.3
 50
270.0
 51
0.0
  0
ARC
  5
95D
 67
     1
  8
AM_VIS
 10
76.176825698118705
 20
301.18723678988192
 30
0.0
 40
0.3
 50
0.0
 51
90.0
  0
ARC
  5
95E
 67
     1
  8
AM_VIS
 10
75.076825698118796
 20
301.78723678988189
 30
0.0
 40
0.3
 50
180.0
 51
270.0
  0
ARC
  5
95F
 67
     1
  8
AM_VIS
 10
75.076825698118796
 20
302.98609860257011
 30
0.0
 40
0.3
 50
90.0
 51
180.0
  0
ARC
  5
960
 67
     1
  8
AM_VIS
 10
77.966953758653176
 20
302.28609860257029
 30
0.0
 40
1.0
 50
45.000000000000291
 51
90.0
  0
ARC
  5
961
 67
     1
  8
AM_VIS
 10
86.785687510807406
 20
293.46736485041612
 30
0.0
 40
1.0
 50
0.0
 51
45.000000000000291
  0
ARC
  5
962
 67
     1
  8
AM_VIS
 10
87.485687510807224
 20
290.57723678988202
 30
0.0
 40
0.3
 50
270.0
 51
0.0
  0
ARC
  5
963
 67
     1
  8
AM_VIS
 10
86.286825698118847
 20
290.57723678988202
 30
0.0
 40
0.3
 50
180.0
 51
270.0
  0
ARC
  5
964
 67
     1
  8
AM_VIS
 10
85.686825698118696
 20
291.67723678988182
 30
0.0
 40
0.3
 50
0.0
 51
90.0
  0
ARC
  5
965
 67
     1
  8
AM_VIS
 10
85.08682569811856
 20
291.6772367898821
 30
0.0
 40
0.3
 50
90.0
 51
180.0
  0
ARC
  5
966
 67
     1
  8
AM_VIS
 10
85.08682569811856
 20
283.27723678988212
 30
0.0
 40
0.3
 50
180.0
 51
270.0
  0
ARC
  5
967
 67
     1
  8
AM_VIS
 10
87.485687510807438
 20
282.67723678988199
 30
0.0
 40
0.3
 50
0.0
 51
90.0
  0
ARC
  5
968
 67
     1
  8
AM_VIS
 10
89.861602008968816
 20
273.6936954705277
 30
0.0
 40
1.0
 50
320.59306355338288
 51
0.0
  0
ARC
  5
969
 67
     1
  8
AM_VIS
 10
72.476825698118887
 20
287.97723678988189
 30
0.0
 40
23.5
 50
309.40693644661297
 51
320.59306355338521
  0
ARC
  5
96A
 67
     1
  8
AM_VIS
 10
86.760367017472277
 20
270.59246047903127
 30
0.0
 40
0.9999999999999998
 50
270.0
 51
309.40693644661758
  0
ARC
  5
96B
 67
     1
  8
AM_VIS
 10
70.062612135745553
 20
270.59246047903127
 30
0.0
 40
1.0
 50
225.00000000000031
 51
270.0
  0
ARC
  5
96C
 67
     1
  8
AM_VIS
 10
55.092049387268283
 20
285.56302322750832
 30
0.0
 40
1.0
 50
180.0
 51
225.00000000000031
  0
ARC
  5
96D
 67
     1
  8
AM_VIS
 10
55.092049387268283
 20
302.2607781092359
 30
0.0
 40
1.0
 50
140.5930635533829
 51
180.0
  0
ARC
  5
96E
 67
     1
  8
AM_VIS
 10
72.476825698118887
 20
287.97723678988189
 30
0.0
 40
23.5
 50
129.40693644661761
 51
140.59306355338671
  0
ARC
  5
970
 67
     1
  8
AM_VIS
 10
67.176825698118705
 20
302.98609860257028
 30
0.0
 40
0.3
 50
0.0
 51
90.0
  0
CIRCLE
  5
971
 67
     1
  8
AM_VIS
 10
85.204747759476604
 20
275.24931472852393
 30
0.0
 40
4.7999999999999998
  0
CIRCLE
  5
972
 67
     1
  8
AM_VIS
 10
72.476825698118887
 20
287.97723678988189
 30
0.0
 40
11.300000000000001
  0
CIRCLE
  5
973
 67
     1
  8
AM_VIS
 10
72.476825698118887
 20
287.97723678988189
 30
0.0
 40
11.0
  0
ARC
  5
974
 67
     1
  8
AM_VIS
 10
72.476825698118887
 20
287.97723678988189
 30
0.0
 40
10.800000000000001
 50
205.1231259299212
 51
244.8768740700792
  0
CIRCLE
  5
975
 67
     1
  8
AM_VIS
 10
72.476825698118887
 20
287.97723678988189
 30
0.0
 40
6.0000000000000018
  0
CIRCLE
  5
976
 67
     1
  8
AM_VIS
 10
72.476825698118887
 20
287.97723678988189
 30
0.0
 40
5.700000000000002
  0
CIRCLE
  5
977
 67
     1
  8
AM_VIS
 10
72.476825698118887
 20
287.97723678988189
 30
0.0
 40
5.2000000000000028
  0
LINE
  5
978
 67
     1
  8
AM_VIS
 10
64.114632932697191
 20
284.05598288915968
 30
0.0
 11
62.517453106320772
 21
283.30702292135902
 31
0.0
  0
LINE
  5
979
 67
     1
  8
AM_VIS
 10
67.806611829596136
 20
278.017864198084
 30
0.0
 11
68.555571797396723
 21
279.61504402446019
 31
0.0
  0
CIRCLE
  5
97A
 67
     1
  8
AM_VIS
 10
63.265503138420279
 20
285.86677790585043
 30
0.0
 40
1.0
  0
CIRCLE
  5
97B
 67
     1
  8
AM_VIS
 10
70.366366814087201
 20
278.7659142301834
 30
0.0
 40
1.0
  0
ARC
  5
97C
 67
     1
  8
AM_VIS
 10
63.265503138420279
 20
285.86677790585043
 30
0.0
 40
2.0
 50
295.12312592992589
 51
69.054263217359122
  0
ARC
  5
97D
 67
     1
  8
AM_VIS
 10
64.695437623456314
 20
289.60245553762007
 30
0.0
 40
2.0
 50
164.27008681864331
 51
249.0542632173657
  0
ARC
  5
97E
 67
     1
  8
AM_VIS
 10
72.03488395987722
 20
287.53529505164028
 30
0.0
 40
9.625
 50
285.72991318135581
 51
164.27008681864339
  0
ARC
  5
97F
 67
     1
  8
AM_VIS
 10
74.102044445856905
 20
280.19584871521931
 30
0.0
 40
2.0
 50
200.9457367826345
 51
285.7299131813574
  0
ARC
  5
980
 67
     1
  8
AM_VIS
 10
70.366366814087201
 20
278.7659142301834
 30
0.0
 40
2.0
 50
20.94573678263453
 51
154.87687407008059
  0
LINE
  5
981
 67
     1
  8
AM_VIS
 10
76.476825698117523
 20
285.9156839770734
 30
0.0
 11
76.476825698117523
 21
284.97723678988223
 31
0.0
  0
LINE
  5
982
 67
     1
  8
AM_VIS
 10
76.476825698117977
 20
290.97723678988211
 30
0.0
 11
76.476825698117977
 21
290.03878960269088
 31
0.0
  0
ARC
  5
983
 67
     1
  8
AM_VIS
 10
72.476825698117963
 20
287.97723678988211
 30
0.0
 40
5.0
 50
323.13010235415641
 51
36.869897645843622
  0
LINE
  5
984
 67
     1
  8
AM_VIS
 10
68.476825698117977
 20
290.9772367898824
 30
0.0
 11
68.476825698117977
 21
290.03878960269128
 31
0.0
  0
LINE
  5
985
 67
     1
  8
AM_VIS
 10
68.476825698117523
 20
285.9156839770734
 30
0.0
 11
68.476825698117523
 21
284.9772367898824
 31
0.0
  0
ARC
  5
986
 67
     1
  8
AM_VIS
 10
72.476825698117963
 20
287.97723678988211
 30
0.0
 40
5.0
 50
143.13010235415629
 51
216.86989764584359
  0
LINE
  5
987
 67
     1
  8
AM_VIS
 10
76.476825698117977
 20
285.91568397707329
 30
0.0
 11
76.476825698117977
 21
290.038789602691
 31
0.0
  0
LINE
  5
988
 67
     1
  8
AM_VIS
 10
68.476825698117977
 20
290.03878960269111
 30
0.0
 11
68.476825698117977
 21
285.91568397707329
 31
0.0
  0
ARC
  5
989
 67
     1
  8
AM_VIS
 10
72.476825698117963
 20
287.97723678988211
 30
0.0
 40
5.0
 50
216.86989764584339
 51
323.13010235415658
  0
ARC
  5
98A
 67
     1
  8
AM_VIS
 10
72.476825698117963
 20
287.97723678988211
 30
0.0
 40
5.0
 50
36.86989764584338
 51
143.13010235415661
  0
ARC
  5
98B
 67
     1
  8
AM_VIS
 10
72.476825698117963
 20
287.97723678988211
 30
0.0
 40
4.5
 50
27.26604445073367
 51
152.73395554926631
  0
ARC
  5
98C
 67
     1
  8
AM_VIS
 10
72.476825698117963
 20
287.97723678988211
 30
0.0
 40
4.5
 50
207.26604445073369
 51
332.7339555492664
  0
CIRCLE
  5
98D
 67
     1
  8
AM_VIS
 10
72.476825698117963
 20
287.97723678988211
 30
0.0
 40
2.6669999999999989
  0
CIRCLE
  5
98E
 67
     1
  8
AM_VIS
 10
72.476825698117963
 20
287.97723678988211
 30
0.0
 40
2.1669999999999989
  0
LINE
  5
98F
 67
     1
  8
AM_VIS
 10
170.90626410136679
 20
280.44654957024483
 30
0.0
 11
134.40626410136679
 21
280.44654957024483
 31
0.0
  0
LINE
  5
990
 67
     1
  8
AM_VIS
 10
170.90626410136679
 20
306.36201310073182
 30
0.0
 11
134.40626410136679
 21
306.36201310073182
 31
0.0
  0
LINE
  5
991
 67
     1
  8
AM_VIS
 10
170.90626410136679
 20
277.3706350720833
 30
0.0
 11
134.40626410136679
 21
277.3706350720833
 31
0.0
  0
LINE
  5
992
 67
     1
  8
AM_VIS
 10
134.40626410136679
 20
290.27723678988212
 30
0.0
 11
170.90626410136679
 21
290.27723678988212
 31
0.0
  0
LINE
  5
993
 67
     1
  8
AM_VIS
 10
170.90626410136679
 20
282.977236789882
 30
0.0
 11
134.40626410136679
 21
282.977236789882
 31
0.0
  0
LINE
  5
994
 67
     1
  8
AM_VIS
 10
170.90626410136679
 20
303.28609860257001
 30
0.0
 11
134.40626410136679
 21
303.28609860257001
 31
0.0
  0
LINE
  5
995
 67
     1
  8
AM_VIS
 10
134.40626410136679
 20
269.59246047903127
 30
0.0
 11
170.90626410136679
 21
269.59246047903127
 31
0.0
  0
LINE
  5
996
 67
     1
  8
AM_VIS
 10
134.40626410136679
 20
302.99320538375702
 30
0.0
 11
134.40626410136679
 21
294.17447163160273
 31
0.0
  0
LINE
  5
997
 67
     1
  8
AM_VIS
 10
134.40626410136679
 20
293.46736485041617
 30
0.0
 11
134.40626410136679
 21
290.57723678988202
 31
0.0
  0
LINE
  5
998
 67
     1
  8
AM_VIS
 10
134.40626410136679
 20
283.27723678988178
 30
0.0
 11
134.40626410136679
 21
290.27723678988212
 31
0.0
  0
LINE
  5
999
 67
     1
  8
AM_VIS
 10
134.40626410136679
 20
282.67723678988187
 30
0.0
 11
134.40626410136679
 21
280.44654957024483
 31
0.0
  0
LINE
  5
99A
 67
     1
  8
AM_VIS
 10
134.40626410136679
 20
280.44654957024483
 30
0.0
 11
134.40626410136679
 21
277.3706350720833
 31
0.0
  0
LINE
  5
99B
 67
     1
  8
AM_VIS
 10
134.40626410136679
 20
277.3706350720833
 30
0.0
 11
134.40626410136679
 21
273.69369547052759
 31
0.0
  0
LINE
  5
99C
 67
     1
  8
AM_VIS
 10
134.40626410136679
 20
306.36201310073182
 30
0.0
 11
134.40626410136679
 21
303.28609860257018
 31
0.0
  0
LINE
  5
99D
 67
     1
  8
AM_VIS
 10
170.90626410136679
 20
303.28609860257018
 30
0.0
 11
170.90626410136679
 21
306.36201310073182
 31
0.0
  0
LINE
  5
99E
 67
     1
  8
AM_VIS
 10
170.90626410136679
 20
273.69369547052759
 30
0.0
 11
170.90626410136679
 21
277.3706350720833
 31
0.0
  0
LINE
  5
99F
 67
     1
  8
AM_VIS
 10
170.90626410136679
 20
277.3706350720833
 30
0.0
 11
170.90626410136679
 21
280.44654957024483
 31
0.0
  0
LINE
  5
9A0
 67
     1
  8
AM_VIS
 10
170.90626410136679
 20
280.44654957024483
 30
0.0
 11
170.90626410136679
 21
282.67723678988187
 31
0.0
  0
LINE
  5
9A1
 67
     1
  8
AM_VIS
 10
170.90626410136679
 20
290.2772367898819
 30
0.0
 11
170.90626410136679
 21
283.27723678988178
 31
0.0
  0
LINE
  5
9A2
 67
     1
  8
AM_VIS
 10
170.90626410136679
 20
290.57723678988208
 30
0.0
 11
170.90626410136679
 21
293.46736485041629
 31
0.0
  0
LINE
  5
9A3
 67
     1
  8
AM_VIS
 10
170.90626410136679
 20
294.17447163160273
 30
0.0
 11
170.90626410136679
 21
302.99320538375702
 31
0.0
  0
LINE
  5
9A4
 67
     1
  8
AM_VIS
 10
134.40626410136679
 20
302.99320538375702
 30
0.0
 11
134.40626410136679
 21
303.28609860257001
 31
0.0
  0
LINE
  5
9A5
 67
     1
  8
AM_VIS
 10
134.40626410136679
 20
293.46736485041589
 30
0.0
 11
134.40626410136679
 21
294.17447163160261
 31
0.0
  0
LINE
  5
9A6
 67
     1
  8
AM_VIS
 10
134.40626410136679
 20
290.27723678988212
 30
0.0
 11
134.40626410136679
 21
290.57723678988219
 31
0.0
  0
LINE
  5
9A7
 67
     1
  8
AM_VIS
 10
134.40626410136679
 20
283.27723678988212
 30
0.0
 11
134.40626410136679
 21
282.977236789882
 31
0.0
  0
LINE
  5
9A8
 67
     1
  8
AM_VIS
 10
134.40626410136679
 20
282.67723678988199
 30
0.0
 11
134.40626410136679
 21
282.97723678988223
 31
0.0
  0
LINE
  5
9A9
 67
     1
  8
AM_VIS
 10
134.40626410136679
 20
273.05887141188953
 30
0.0
 11
134.40626410136679
 21
273.69369547052747
 31
0.0
  0
LINE
  5
9AA
 67
     1
  8
AM_VIS
 10
134.40626410136679
 20
269.81980375410473
 30
0.0
 11
134.40626410136679
 21
273.05887141188953
 31
0.0
  0
LINE
  5
9AB
 67
     1
  8
AM_VIS
 10
134.40626410136679
 20
269.5924604790315
 30
0.0
 11
134.40626410136679
 21
269.81980375410473
 31
0.0
  0
LINE
  5
9AC
 67
     1
  8
AM_VIS
 10
170.90626410136679
 20
269.81980375410473
 30
0.0
 11
170.90626410136679
 21
269.5924604790315
 31
0.0
  0
LINE
  5
9AD
 67
     1
  8
AM_VIS
 10
170.90626410136679
 20
273.05887141188953
 30
0.0
 11
170.90626410136679
 21
269.81980375410473
 31
0.0
  0
LINE
  5
9AE
 67
     1
  8
AM_VIS
 10
170.90626410136679
 20
273.69369547052759
 30
0.0
 11
170.90626410136679
 21
273.05887141188958
 31
0.0
  0
LINE
  5
9AF
 67
     1
  8
AM_VIS
 10
170.90626410136679
 20
282.97723678988223
 30
0.0
 11
170.90626410136679
 21
282.6772367898821
 31
0.0
  0
LINE
  5
9B0
 67
     1
  8
AM_VIS
 10
170.90626410136679
 20
282.977236789882
 30
0.0
 11
170.90626410136679
 21
283.27723678988212
 31
0.0
  0
LINE
  5
9B1
 67
     1
  8
AM_VIS
 10
170.90626410136679
 20
290.57723678988208
 30
0.0
 11
170.90626410136679
 21
290.27723678988201
 31
0.0
  0
LINE
  5
9B2
 67
     1
  8
AM_VIS
 10
170.90626410136679
 20
294.17447163160273
 30
0.0
 11
170.90626410136679
 21
293.46736485041612
 31
0.0
  0
LINE
  5
9B3
 67
     1
  8
AM_VIS
 10
170.90626410136679
 20
303.28609860257001
 30
0.0
 11
170.90626410136679
 21
302.99320538375702
 31
0.0
  0
POLYLINE
  8
AM_VIS
  5
164C
  66
     1
 10
0.000000
 20
0.000000
 30
0.000000
  70
     8
  0
VERTEX
  8
AM_VIS
  5
164D
 10
130.272
 20
284.977
 30
0.000000
  70
    32
  0
VERTEX
  8
AM_VIS
  5
164E
 10
130.261
 20
284.988
 30
0.000000
  70
    32
  0
VERTEX
  8
AM_VIS
  5
164F
 10
130.251
 20
284.998
 30
0.000000
  70
    32
  0
VERTEX
  8
AM_VIS
  5
1650
 10
130.240
 20
285.009
 30
0.000000
  70
    32
  0
VERTEX
  8
AM_VIS
  5
1651
 10
130.229
 20
285.019
 30
0.000000
  70
    32
  0
VERTEX
  8
AM_VIS
  5
1652
 10
130.218
 20
285.029
 30
0.000000
  70
    32
  0
VERTEX
  8
AM_VIS
  5
1653
 10
130.208
 20
285.040
 30
0.000000
  70
    32
  0
VERTEX
  8
AM_VIS
  5
1654
 10
130.197
 20
285.050
 30
0.000000
  70
    32
  0
VERTEX
  8
AM_VIS
  5
1655
 10
130.187
 20
285.060
 30
0.000000
  70
    32
  0
VERTEX
  8
AM_VIS
  5
1656
 10
130.176
 20
285.071
 30
0.000000
  70
    32
  0
VERTEX
  8
AM_VIS
  5
1657
 10
130.166
 20
285.081
 30
0.000000
  70
    32
  0
VERTEX
  8
AM_VIS
  5
1658
 10
130.155
 20
285.091
 30
0.000000
  70
    32
  0
VERTEX
  8
AM_VIS
  5
1659
 10
130.145
 20
285.102
 30
0.000000
  70
    32
  0
VERTEX
  8
AM_VIS
  5
165A
 10
130.134
 20
285.112
 30
0.000000
  70
    32
  0
VERTEX
  8
AM_VIS
  5
165B
 10
130.124
 20
285.122
 30
0.000000
  70
    32
  0
VERTEX
  8
AM_VIS
  5
165C
 10
130.114
 20
285.132
 30
0.000000
  70
    32
  0
VERTEX
  8
AM_VIS
  5
165D
 10
130.103
 20
285.143
 30
0.000000
  70
    32
  0
VERTEX
  8
AM_VIS
  5
165E
 10
130.093
 20
285.153
 30
0.000000
  70
    32
  0
VERTEX
  8
AM_VIS
  5
165F
 10
130.083
 20
285.163
 30
0.000000
  70
    32
  0
VERTEX
  8
AM_VIS
  5
1660
 10
130.073
 20
285.173
 30
0.000000
  70
    32
  0
VERTEX
  8
AM_VIS
  5
1661
 10
130.063
 20
285.183
 30
0.000000
  70
    32
  0
VERTEX
  8
AM_VIS
  5
1662
 10
130.053
 20
285.194
 30
0.000000
  70
    32
  0
VERTEX
  8
AM_VIS
  5
1663
 10
130.043
 20
285.204
 30
0.000000
  70
    32
  0
VERTEX
  8
AM_VIS
  5
1664
 10
130.033
 20
285.214
 30
0.000000
  70
    32
  0
VERTEX
  8
AM_VIS
  5
1665
 10
130.023
 20
285.224
 30
0.000000
  70
    32
  0
VERTEX
  8
AM_VIS
  5
1666
 10
130.013
 20
285.234
 30
0.000000
  70
    32
  0
VERTEX
  8
AM_VIS
  5
1667
 10
130.003
 20
285.244
 30
0.000000
  70
    32
  0
VERTEX
  8
AM_VIS
  5
1668
 10
129.993
 20
285.254
 30
0.000000
  70
    32
  0
VERTEX
  8
AM_VIS
  5
1669
 10
129.983
 20
285.265
 30
0.000000
  70
    32
  0
VERTEX
  8
AM_VIS
  5
166A
 10
129.973
 20
285.275
 30
0.000000
  70
    32
  0
VERTEX
  8
AM_VIS
  5
166B
 10
129.964
 20
285.285
 30
0.000000
  70
    32
  0
VERTEX
  8
AM_VIS
  5
166C
 10
129.954
 20
285.295
 30
0.000000
  70
    32
  0
VERTEX
  8
AM_VIS
  5
166D
 10
129.944
 20
285.305
 30
0.000000
  70
    32
  0
VERTEX
  8
AM_VIS
  5
166E
 10
129.935
 20
285.315
 30
0.000000
  70
    32
  0
VERTEX
  8
AM_VIS
  5
166F
 10
129.925
 20
285.325
 30
0.000000
  70
    32
  0
VERTEX
  8
AM_VIS
  5
1670
 10
129.916
 20
285.335
 30
0.000000
  70
    32
  0
VERTEX
  8
AM_VIS
  5
1671
 10
129.906
 20
285.345
 30
0.000000
  70
    32
  0
VERTEX
  8
AM_VIS
  5
1672
 10
129.896
 20
285.355
 30
0.000000
  70
    32
  0
VERTEX
  8
AM_VIS
  5
1673
 10
129.887
 20
285.365
 30
0.000000
  70
    32
  0
VERTEX
  8
AM_VIS
  5
1674
 10
129.878
 20
285.375
 30
0.000000
  70
    32
  0
VERTEX
  8
AM_VIS
  5
1675
 10
129.868
 20
285.385
 30
0.000000
  70
    32
  0
VERTEX
  8
AM_VIS
  5
1676
 10
129.859
 20
285.395
 30
0.000000
  70
    32
  0
VERTEX
  8
AM_VIS
  5
1677
 10
129.850
 20
285.404
 30
0.000000
  70
    32
  0
VERTEX
  8
AM_VIS
  5
1678
 10
129.840
 20
285.414
 30
0.000000
  70
    32
  0
VERTEX
  8
AM_VIS
  5
1679
 10
129.831
 20
285.424
 30
0.000000
  70
    32
  0
VERTEX
  8
AM_VIS
  5
167A
 10
129.822
 20
285.434
 30
0.000000
  70
    32
  0
VERTEX
  8
AM_VIS
  5
167B
 10
129.813
 20
285.444
 30
0.000000
  70
    32
  0
VERTEX
  8
AM_VIS
  5
167C
 10
129.804
 20
285.454
 30
0.000000
  70
    32
  0
VERTEX
  8
AM_VIS
  5
167D
 10
129.794
 20
285.464
 30
0.000000
  70
    32
  0
VERTEX
  8
AM_VIS
  5
167E
 10
129.785
 20
285.474
 30
0.000000
  70
    32
  0
VERTEX
  8
AM_VIS
  5
167F
 10
129.776
 20
285.483
 30
0.000000
  70
    32
  0
VERTEX
  8
AM_VIS
  5
1680
 10
129.767
 20
285.493
 30
0.000000
  70
    32
  0
VERTEX
  8
AM_VIS
  5
1681
 10
129.758
 20
285.503
 30
0.000000
  70
    32
  0
VERTEX
  8
AM_VIS
  5
1682
 10
129.750
 20
285.513
 30
0.000000
  70
    32
  0
VERTEX
  8
AM_VIS
  5
1683
 10
129.741
 20
285.523
 30
0.000000
  70
    32
  0
VERTEX
  8
AM_VIS
  5
1684
 10
129.732
 20
285.532
 30
0.000000
  70
    32
  0
VERTEX
  8
AM_VIS
  5
1685
 10
129.723
 20
285.542
 30
0.000000
  70
    32
  0
VERTEX
  8
AM_VIS
  5
1686
 10
129.714
 20
285.552
 30
0.000000
  70
    32
  0
VERTEX
  8
AM_VIS
  5
1687
 10
129.706
 20
285.562
 30
0.000000
  70
    32
  0
VERTEX
  8
AM_VIS
  5
1688
 10
129.697
 20
285.571
 30
0.000000
  70
    32
  0
VERTEX
  8
AM_VIS
  5
1689
 10
129.688
 20
285.581
 30
0.000000
  70
    32
  0
VERTEX
  8
AM_VIS
  5
168A
 10
129.679
 20
285.591
 30
0.000000
  70
    32
  0
VERTEX
  8
AM_VIS
  5
168B
 10
129.671
 20
285.601
 30
0.000000
  70
    32
  0
VERTEX
  8
AM_VIS
  5
168C
 10
129.662
 20
285.610
 30
0.000000
  70
    32
  0
VERTEX
  8
AM_VIS
  5
168D
 10
129.654
 20
285.620
 30
0.000000
  70
    32
  0
VERTEX
  8
AM_VIS
  5
168E
 10
129.645
 20
285.630
 30
0.000000
  70
    32
  0
VERTEX
  8
AM_VIS
  5
168F
 10
129.637
 20
285.639
 30
0.000000
  70
    32
  0
VERTEX
  8
AM_VIS
  5
1690
 10
129.628
 20
285.649
 30
0.000000
  70
    32
  0
VERTEX
  8
AM_VIS
  5
1691
 10
129.620
 20
285.659
 30
0.000000
  70
    32
  0
VERTEX
  8
AM_VIS
  5
1692
 10
129.612
 20
285.668
 30
0.000000
  70
    32
  0
VERTEX
  8
AM_VIS
  5
1693
 10
129.603
 20
285.678
 30
0.000000
  70
    32
  0
VERTEX
  8
AM_VIS
  5
1694
 10
129.595
 20
285.688
 30
0.000000
  70
    32
  0
VERTEX
  8
AM_VIS
  5
1695
 10
129.587
 20
285.697
 30
0.000000
  70
    32
  0
VERTEX
  8
AM_VIS
  5
1696
 10
129.579
 20
285.707
 30
0.000000
  70
    32
  0
VERTEX
  8
AM_VIS
  5
1697
 10
129.570
 20
285.716
 30
0.000000
  70
    32
  0
VERTEX
  8
AM_VIS
  5
1698
 10
129.562
 20
285.726
 30
0.000000
  70
    32
  0
VERTEX
  8
AM_VIS
  5
1699
 10
129.554
 20
285.735
 30
0.000000
  70
    32
  0
VERTEX
  8
AM_VIS
  5
169A
 10
129.546
 20
285.745
 30
0.000000
  70
    32
  0
VERTEX
  8
AM_VIS
  5
169B
 10
129.538
 20
285.755
 30
0.000000
  70
    32
  0
VERTEX
  8
AM_VIS
  5
169C
 10
129.530
 20
285.764
 30
0.000000
  70
    32
  0
VERTEX
  8
AM_VIS
  5
169D
 10
129.522
 20
285.774
 30
0.000000
  70
    32
  0
VERTEX
  8
AM_VIS
  5
169E
 10
129.514
 20
285.783
 30
0.000000
  70
    32
  0
VERTEX
  8
AM_VIS
  5
169F
 10
129.506
 20
285.793
 30
0.000000
  70
    32
  0
VERTEX
  8
AM_VIS
  5
16A0
 10
129.498
 20
285.802
 30
0.000000
  70
    32
  0
VERTEX
  8
AM_VIS
  5
16A1
 10
129.490
 20
285.812
 30
0.000000
  70
    32
  0
VERTEX
  8
AM_VIS
  5
16A2
 10
129.483
 20
285.821
 30
0.000000
  70
    32
  0
VERTEX
  8
AM_VIS
  5
16A3
 10
129.475
 20
285.831
 30
0.000000
  70
    32
  0
VERTEX
  8
AM_VIS
  5
16A4
 10
129.467
 20
285.840
 30
0.000000
  70
    32
  0
VERTEX
  8
AM_VIS
  5
16A5
 10
129.459
 20
285.850
 30
0.000000
  70
    32
  0
VERTEX
  8
AM_VIS
  5
16A6
 10
129.452
 20
285.859
 30
0.000000
  70
    32
  0
VERTEX
  8
AM_VIS
  5
16A7
 10
129.444
 20
285.869
 30
0.000000
  70
    32
  0
VERTEX
  8
AM_VIS
  5
16A8
 10
129.436
 20
285.878
 30
0.000000
  70
    32
  0
VERTEX
  8
AM_VIS
  5
16A9
 10
129.429
 20
285.887
 30
0.000000
  70
    32
  0
VERTEX
  8
AM_VIS
  5
16AA
 10
129.421
 20
285.897
 30
0.000000
  70
    32
  0
VERTEX
  8
AM_VIS
  5
16AB
 10
129.414
 20
285.906
 30
0.000000
  70
    32
  0
VERTEX
  8
AM_VIS
  5
16AC
 10
129.406
 20
285.916
 30
0.000000
  70
    32
  0
SEQEND
  8
AM_VIS
  5
16AD
  0
LINE
  5
9B5
 67
     1
  8
AM_VIS
 10
133.90626410136679
 20
290.97723678988211
 30
0.0
 11
133.90626410136679
 21
284.9772367898824
 31
0.0
  0
POLYLINE
  8
AM_VIS
  5
16AE
  66
     1
 10
0.000000
 20
0.000000
 30
0.000000
  70
     8
  0
VERTEX
  8
AM_VIS
  5
16AF
 10
129.406
 20
290.039
 30
0.000000
  70
    32
  0
VERTEX
  8
AM_VIS
  5
16B0
 10
129.414
 20
290.048
 30
0.000000
  70
    32
  0
VERTEX
  8
AM_VIS
  5
16B1
 10
129.421
 20
290.058
 30
0.000000
  70
    32
  0
VERTEX
  8
AM_VIS
  5
16B2
 10
129.429
 20
290.067
 30
0.000000
  70
    32
  0
VERTEX
  8
AM_VIS
  5
16B3
 10
129.436
 20
290.076
 30
0.000000
  70
    32
  0
VERTEX
  8
AM_VIS
  5
16B4
 10
129.444
 20
290.086
 30
0.000000
  70
    32
  0
VERTEX
  8
AM_VIS
  5
16B5
 10
129.452
 20
290.095
 30
0.000000
  70
    32
  0
VERTEX
  8
AM_VIS
  5
16B6
 10
129.459
 20
290.105
 30
0.000000
  70
    32
  0
VERTEX
  8
AM_VIS
  5
16B7
 10
129.467
 20
290.114
 30
0.000000
  70
    32
  0
VERTEX
  8
AM_VIS
  5
16B8
 10
129.475
 20
290.124
 30
0.000000
  70
    32
  0
VERTEX
  8
AM_VIS
  5
16B9
 10
129.483
 20
290.133
 30
0.000000
  70
    32
  0
VERTEX
  8
AM_VIS
  5
16BA
 10
129.490
 20
290.143
 30
0.000000
  70
    32
  0
VERTEX
  8
AM_VIS
  5
16BB
 10
129.498
 20
290.152
 30
0.000000
  70
    32
  0
VERTEX
  8
AM_VIS
  5
16BC
 10
129.506
 20
290.162
 30
0.000000
  70
    32
  0
VERTEX
  8
AM_VIS
  5
16BD
 10
129.514
 20
290.171
 30
0.000000
  70
    32
  0
VERTEX
  8
AM_VIS
  5
16BE
 10
129.522
 20
290.181
 30
0.000000
  70
    32
  0
VERTEX
  8
AM_VIS
  5
16BF
 10
129.530
 20
290.190
 30
0.000000
  70
    32
  0
VERTEX
  8
AM_VIS
  5
16C0
 10
129.538
 20
290.200
 30
0.000000
  70
    32
  0
VERTEX
  8
AM_VIS
  5
16C1
 10
129.546
 20
290.209
 30
0.000000
  70
    32
  0
VERTEX
  8
AM_VIS
  5
16C2
 10
129.554
 20
290.219
 30
0.000000
  70
    32
  0
VERTEX
  8
AM_VIS
  5
16C3
 10
129.562
 20
290.229
 30
0.000000
  70
    32
  0
VERTEX
  8
AM_VIS
  5
16C4
 10
129.570
 20
290.238
 30
0.000000
  70
    32
  0
VERTEX
  8
AM_VIS
  5
16C5
 10
129.579
 20
290.248
 30
0.000000
  70
    32
  0
VERTEX
  8
AM_VIS
  5
16C6
 10
129.587
 20
290.257
 30
0.000000
  70
    32
  0
VERTEX
  8
AM_VIS
  5
16C7
 10
129.595
 20
290.267
 30
0.000000
  70
    32
  0
VERTEX
  8
AM_VIS
  5
16C8
 10
129.603
 20
290.277
 30
0.000000
  70
    32
  0
VERTEX
  8
AM_VIS
  5
16C9
 10
129.612
 20
290.286
 30
0.000000
  70
    32
  0
VERTEX
  8
AM_VIS
  5
16CA
 10
129.620
 20
290.296
 30
0.000000
  70
    32
  0
VERTEX
  8
AM_VIS
  5
16CB
 10
129.628
 20
290.305
 30
0.000000
  70
    32
  0
VERTEX
  8
AM_VIS
  5
16CC
 10
129.637
 20
290.315
 30
0.000000
  70
    32
  0
VERTEX
  8
AM_VIS
  5
16CD
 10
129.645
 20
290.325
 30
0.000000
  70
    32
  0
VERTEX
  8
AM_VIS
  5
16CE
 10
129.654
 20
290.334
 30
0.000000
  70
    32
  0
VERTEX
  8
AM_VIS
  5
16CF
 10
129.662
 20
290.344
 30
0.000000
  70
    32
  0
VERTEX
  8
AM_VIS
  5
16D0
 10
129.671
 20
290.354
 30
0.000000
  70
    32
  0
VERTEX
  8
AM_VIS
  5
16D1
 10
129.679
 20
290.364
 30
0.000000
  70
    32
  0
VERTEX
  8
AM_VIS
  5
16D2
 10
129.688
 20
290.373
 30
0.000000
  70
    32
  0
VERTEX
  8
AM_VIS
  5
16D3
 10
129.697
 20
290.383
 30
0.000000
  70
    32
  0
VERTEX
  8
AM_VIS
  5
16D4
 10
129.706
 20
290.393
 30
0.000000
  70
    32
  0
VERTEX
  8
AM_VIS
  5
16D5
 10
129.714
 20
290.403
 30
0.000000
  70
    32
  0
VERTEX
  8
AM_VIS
  5
16D6
 10
129.723
 20
290.412
 30
0.000000
  70
    32
  0
VERTEX
  8
AM_VIS
  5
16D7
 10
129.732
 20
290.422
 30
0.000000
  70
    32
  0
VERTEX
  8
AM_VIS
  5
16D8
 10
129.741
 20
290.432
 30
0.000000
  70
    32
  0
VERTEX
  8
AM_VIS
  5
16D9
 10
129.750
 20
290.442
 30
0.000000
  70
    32
  0
VERTEX
  8
AM_VIS
  5
16DA
 10
129.758
 20
290.451
 30
0.000000
  70
    32
  0
VERTEX
  8
AM_VIS
  5
16DB
 10
129.767
 20
290.461
 30
0.000000
  70
    32
  0
VERTEX
  8
AM_VIS
  5
16DC
 10
129.776
 20
290.471
 30
0.000000
  70
    32
  0
VERTEX
  8
AM_VIS
  5
16DD
 10
129.785
 20
290.481
 30
0.000000
  70
    32
  0
VERTEX
  8
AM_VIS
  5
16DE
 10
129.794
 20
290.491
 30
0.000000
  70
    32
  0
VERTEX
  8
AM_VIS
  5
16DF
 10
129.804
 20
290.501
 30
0.000000
  70
    32
  0
VERTEX
  8
AM_VIS
  5
16E0
 10
129.813
 20
290.510
 30
0.000000
  70
    32
  0
VERTEX
  8
AM_VIS
  5
16E1
 10
129.822
 20
290.520
 30
0.000000
  70
    32
  0
VERTEX
  8
AM_VIS
  5
16E2
 10
129.831
 20
290.530
 30
0.000000
  70
    32
  0
VERTEX
  8
AM_VIS
  5
16E3
 10
129.840
 20
290.540
 30
0.000000
  70
    32
  0
VERTEX
  8
AM_VIS
  5
16E4
 10
129.850
 20
290.550
 30
0.000000
  70
    32
  0
VERTEX
  8
AM_VIS
  5
16E5
 10
129.859
 20
290.560
 30
0.000000
  70
    32
  0
VERTEX
  8
AM_VIS
  5
16E6
 10
129.868
 20
290.570
 30
0.000000
  70
    32
  0
VERTEX
  8
AM_VIS
  5
16E7
 10
129.878
 20
290.580
 30
0.000000
  70
    32
  0
VERTEX
  8
AM_VIS
  5
16E8
 10
129.887
 20
290.590
 30
0.000000
  70
    32
  0
VERTEX
  8
AM_VIS
  5
16E9
 10
129.896
 20
290.600
 30
0.000000
  70
    32
  0
VERTEX
  8
AM_VIS
  5
16EA
 10
129.906
 20
290.610
 30
0.000000
  70
    32
  0
VERTEX
  8
AM_VIS
  5
16EB
 10
129.916
 20
290.620
 30
0.000000
  70
    32
  0
VERTEX
  8
AM_VIS
  5
16EC
 10
129.925
 20
290.630
 30
0.000000
  70
    32
  0
VERTEX
  8
AM_VIS
  5
16ED
 10
129.935
 20
290.640
 30
0.000000
  70
    32
  0
VERTEX
  8
AM_VIS
  5
16EE
 10
129.944
 20
290.650
 30
0.000000
  70
    32
  0
VERTEX
  8
AM_VIS
  5
16EF
 10
129.954
 20
290.660
 30
0.000000
  70
    32
  0
VERTEX
  8
AM_VIS
  5
16F0
 10
129.964
 20
290.670
 30
0.000000
  70
    32
  0
VERTEX
  8
AM_VIS
  5
16F1
 10
129.973
 20
290.680
 30
0.000000
  70
    32
  0
VERTEX
  8
AM_VIS
  5
16F2
 10
129.983
 20
290.690
 30
0.000000
  70
    32
  0
VERTEX
  8
AM_VIS
  5
16F3
 10
129.993
 20
290.700
 30
0.000000
  70
    32
  0
VERTEX
  8
AM_VIS
  5
16F4
 10
130.003
 20
290.710
 30
0.000000
  70
    32
  0
VERTEX
  8
AM_VIS
  5
16F5
 10
130.013
 20
290.720
 30
0.000000
  70
    32
  0
VERTEX
  8
AM_VIS
  5
16F6
 10
130.023
 20
290.730
 30
0.000000
  70
    32
  0
VERTEX
  8
AM_VIS
  5
16F7
 10
130.033
 20
290.741
 30
0.000000
  70
    32
  0
VERTEX
  8
AM_VIS
  5
16F8
 10
130.043
 20
290.751
 30
0.000000
  70
    32
  0
VERTEX
  8
AM_VIS
  5
16F9
 10
130.053
 20
290.761
 30
0.000000
  70
    32
  0
VERTEX
  8
AM_VIS
  5
16FA
 10
130.063
 20
290.771
 30
0.000000
  70
    32
  0
VERTEX
  8
AM_VIS
  5
16FB
 10
130.073
 20
290.781
 30
0.000000
  70
    32
  0
VERTEX
  8
AM_VIS
  5
16FC
 10
130.083
 20
290.791
 30
0.000000
  70
    32
  0
VERTEX
  8
AM_VIS
  5
16FD
 10
130.093
 20
290.802
 30
0.000000
  70
    32
  0
VERTEX
  8
AM_VIS
  5
16FE
 10
130.103
 20
290.812
 30
0.000000
  70
    32
  0
VERTEX
  8
AM_VIS
  5
16FF
 10
130.114
 20
290.822
 30
0.000000
  70
    32
  0
VERTEX
  8
AM_VIS
  5
1700
 10
130.124
 20
290.832
 30
0.000000
  70
    32
  0
VERTEX
  8
AM_VIS
  5
1701
 10
130.134
 20
290.843
 30
0.000000
  70
    32
  0
VERTEX
  8
AM_VIS
  5
1702
 10
130.145
 20
290.853
 30
0.000000
  70
    32
  0
VERTEX
  8
AM_VIS
  5
1703
 10
130.155
 20
290.863
 30
0.000000
  70
    32
  0
VERTEX
  8
AM_VIS
  5
1704
 10
130.166
 20
290.873
 30
0.000000
  70
    32
  0
VERTEX
  8
AM_VIS
  5
1705
 10
130.176
 20
290.884
 30
0.000000
  70
    32
  0
VERTEX
  8
AM_VIS
  5
1706
 10
130.187
 20
290.894
 30
0.000000
  70
    32
  0
VERTEX
  8
AM_VIS
  5
1707
 10
130.197
 20
290.904
 30
0.000000
  70
    32
  0
VERTEX
  8
AM_VIS
  5
1708
 10
130.208
 20
290.915
 30
0.000000
  70
    32
  0
VERTEX
  8
AM_VIS
  5
1709
 10
130.218
 20
290.925
 30
0.000000
  70
    32
  0
VERTEX
  8
AM_VIS
  5
170A
 10
130.229
 20
290.936
 30
0.000000
  70
    32
  0
VERTEX
  8
AM_VIS
  5
170B
 10
130.240
 20
290.946
 30
0.000000
  70
    32
  0
VERTEX
  8
AM_VIS
  5
170C
 10
130.251
 20
290.956
 30
0.000000
  70
    32
  0
VERTEX
  8
AM_VIS
  5
170D
 10
130.261
 20
290.967
 30
0.000000
  70
    32
  0
VERTEX
  8
AM_VIS
  5
170E
 10
130.272
 20
290.977
 30
0.000000
  70
    32
  0
SEQEND
  8
AM_VIS
  5
170F
  0
LINE
  5
9B7
 67
     1
  8
AM_VIS
 10
133.90626410136679
 20
284.97723678988223
 30
0.0
 11
130.27228950515121
 21
284.97723678988223
 31
0.0
  0
ARC
  5
9B8
 67
     1
  8
AM_VIS
 10
129.90626410136679
 20
287.97723678988228
 30
0.0
 40
5.0
 50
25.841932763164898
 51
36.869897645841583
  0
ARC
  5
9B9
 67
     1
  8
AM_VIS
 10
129.90626410136679
 20
287.97723678988228
 30
0.0
 40
5.0
 50
323.13010235415658
 51
334.15806723683511
  0
LINE
  5
9BA
 67
     1
  8
AM_VIS
 10
130.27228950515121
 20
290.97723678988223
 30
0.0
 11
133.90626410136679
 21
290.97723678988223
 31
0.0
  0
LINE
  5
9BB
 67
     1
  8
AM_VIS
 10
129.40626410136679
 20
285.9156839770734
 30
0.0
 11
129.40626410136679
 21
290.03878960269111
 31
0.0
  0
LINE
  5
9BC
 67
     1
  8
AM_VIS
 10
129.4062641013667
 20
283.47723678988211
 30
0.0
 11
130.27228950515109
 21
282.977236789882
 31
0.0
  0
LINE
  5
9BD
 67
     1
  8
AM_VIS
 10
129.4062641013667
 20
292.47723678988228
 30
0.0
 11
130.27228950515109
 21
292.97723678988251
 31
0.0
  0
LINE
  5
9BE
 67
     1
  8
AM_VIS
 10
134.40626410136679
 20
292.97723678988211
 30
0.0
 11
130.27228950515121
 21
292.97723678988211
 31
0.0
  0
LINE
  5
9BF
 67
     1
  8
AM_VIS
 10
134.40626410136679
 20
282.9772367898824
 30
0.0
 11
130.27228950515121
 21
282.9772367898824
 31
0.0
  0
LINE
  5
9C0
 67
     1
  8
AM_VIS
 10
130.27228950515121
 20
284.97723678988223
 30
0.0
 11
130.27228950515121
 21
282.9772367898824
 31
0.0
  0
LINE
  5
9C1
 67
     1
  8
AM_VIS
 10
130.27228950515121
 20
292.97723678988211
 30
0.0
 11
130.27228950515121
 21
290.97723678988223
 31
0.0
  0
LINE
  5
9C2
 67
     1
  8
AM_VIS
 10
129.40626410136679
 20
290.03878960269111
 30
0.0
 11
129.40626410136679
 21
292.47723678988228
 31
0.0
  0
LINE
  5
9C3
 67
     1
  8
AM_VIS
 10
129.40626410136679
 20
283.47723678988211
 30
0.0
 11
129.40626410136679
 21
285.9156839770734
 31
0.0
  0
LINE
  5
9C4
 67
     1
  8
AM_VIS
 10
134.40626410136679
 20
212.96465515679671
 30
0.0
 11
170.90626410136679
 21
212.96465515679671
 31
0.0
  0
LINE
  5
9C5
 67
     1
  8
AM_VIS
 10
170.90626410136679
 20
249.73420777849751
 30
0.0
 11
134.40626410136679
 21
249.73420777849751
 31
0.0
  0
LINE
  5
9C6
 67
     1
  8
AM_VIS
 10
134.40626410136679
 20
245.63297278700119
 30
0.0
 11
134.40626410136679
 21
228.93521790527419
 31
0.0
  0
LINE
  5
9C7
 67
     1
  8
AM_VIS
 10
134.40626410136679
 20
231.34943146764729
 30
0.0
 11
134.40626410136679
 21
213.2575483756107
 31
0.0
  0
LINE
  5
9C8
 67
     1
  8
AM_VIS
 10
170.90626410136679
 20
213.2575483756105
 30
0.0
 11
170.90626410136679
 21
228.2281111240876
 31
0.0
  0
LINE
  5
9C9
 67
     1
  8
AM_VIS
 10
170.90626410136679
 20
228.93521790527419
 30
0.0
 11
170.90626410136679
 21
245.63297278700111
 31
0.0
  0
CIRCLE
  5
9CC
 67
     1
  8
AM_VIS
 10
144.90626410136679
 20
235.4342077784973
 30
0.0
 40
2.1669999999999989
  0
CIRCLE
  5
9CF
 67
     1
  8
AM_VIS
 10
165.40626410136679
 20
235.4342077784973
 30
0.0
 40
2.1669999999999989
  0
LINE
  5
9D0
 67
     1
  8
AM_VIS
 10
134.40626410136679
 20
249.506864503424
 30
0.0
 11
134.40626410136679
 21
249.73420777849719
 31
0.0
  0
LINE
  5
9D1
 67
     1
  8
AM_VIS
 10
134.40626410136679
 20
246.267796845639
 30
0.0
 11
134.40626410136679
 21
249.506864503424
 31
0.0
  0
LINE
  5
9D2
 67
     1
  8
AM_VIS
 10
134.40626410136679
 20
245.63297278700091
 30
0.0
 11
134.40626410136679
 21
246.26779684563891
 31
0.0
  0
LINE
  5
9D4
 67
     1
  8
AM_VIS
 10
134.40626410136679
 20
212.96465515679719
 30
0.0
 11
134.40626410136679
 21
213.2575483756105
 31
0.0
  0
LINE
  5
9D5
 67
     1
  8
AM_VIS
 10
170.90626410136679
 20
213.2575483756105
 30
0.0
 11
170.90626410136679
 21
212.96465515679719
 31
0.0
  0
LINE
  5
9D6
 67
     1
  8
AM_VIS
 10
170.90626410136679
 20
228.93521790527399
 30
0.0
 11
170.90626410136679
 21
228.2281111240876
 31
0.0
  0
LINE
  5
9D7
 67
     1
  8
AM_VIS
 10
170.90626410136679
 20
246.267796845639
 30
0.0
 11
170.90626410136679
 21
245.63297278700099
 31
0.0
  0
LINE
  5
9D8
 67
     1
  8
AM_VIS
 10
170.90626410136679
 20
249.506864503424
 30
0.0
 11
170.90626410136679
 21
246.26779684563891
 31
0.0
  0
LINE
  5
9D9
 67
     1
  8
AM_VIS
 10
170.90626410136679
 20
249.73420777849719
 30
0.0
 11
170.90626410136679
 21
249.506864503424
 31
0.0
  0
LINE
  5
9DE
 67
     1
  8
AM_VIS
 10
129.90626410136679
 20
235.34943146764641
 30
0.0
 11
130.77228950515121
 21
235.34943146764641
 31
0.0
  0
LINE
  5
9DF
 67
     1
  8
AM_VIS
 10
134.40626410136679
 20
235.34943146764641
 30
0.0
 11
130.77228950515121
 21
235.34943146764641
 31
0.0
  0
LINE
  5
9E1
 67
     1
  8
AM_VIS
 10
129.90626410136679
 20
227.34943146764689
 30
0.0
 11
130.77228950515121
 21
227.34943146764689
 31
0.0
  0
LINE
  5
9E2
 67
     1
  8
AM_VIS
 10
130.77228950515121
 20
227.34943146764641
 30
0.0
 11
134.40626410136679
 21
227.34943146764641
 31
0.0
  0
LINE
  5
9E4
 67
     1
  8
AM_VIS
 10
130.77228950515121
 20
235.34943146764641
 30
0.0
 11
130.77228950515121
 21
227.3494314676463
 31
0.0
  0
LINE
  5
9E5
 67
     1
  8
AM_VIS
 10
129.90626410136679
 20
227.34943146764641
 30
0.0
 11
129.90626410136679
 21
235.3494314676465
 31
0.0
  0
LINE
  5
9E6
 67
     1
  8
AM_VIS
 10
216.66388808927081
 20
303.28609860257041
 30
0.0
 11
218.89457530890769
 21
303.28609860257041
 31
0.0
  0
LINE
  5
9E7
 67
     1
  8
AM_VIS
 10
218.89457530890769
 20
303.28609860257041
 30
0.0
 11
221.9704898070693
 21
306.36201310073187
 31
0.0
  0
LINE
  5
9E8
 67
     1
  8
AM_VIS
 10
221.9704898070693
 20
306.36201310073199
 30
0.0
 11
225.6474294086257
 21
306.36201310073199
 31
0.0
  0
LINE
  5
9E9
 67
     1
  8
AM_VIS
 10
229.7486644001213
 20
302.2607781092363
 30
0.0
 11
229.7486644001213
 21
285.56302322750878
 31
0.0
  0
LINE
  5
9EA
 67
     1
  8
AM_VIS
 10
229.45577118130771
 20
284.85591644632211
 30
0.0
 11
214.4852084328306
 21
269.88535369784489
 31
0.0
  0
LINE
  5
9EB
 67
     1
  8
AM_VIS
 10
213.77810165164399
 20
269.59246047903162
 30
0.0
 11
197.08034676991701
 21
269.59246047903162
 31
0.0
  0
LINE
  5
9EC
 67
     1
  8
AM_VIS
 10
192.9791117784207
 20
273.6936954705277
 30
0.0
 11
192.9791117784207
 21
277.37063507208347
 31
0.0
  0
LINE
  5
9ED
 67
     1
  8
AM_VIS
 10
192.9791117784209
 20
277.37063507208347
 30
0.0
 11
196.05502627658231
 21
280.44654957024488
 31
0.0
  0
LINE
  5
9EE
 67
     1
  8
AM_VIS
 10
196.05502627658211
 20
280.44654957024488
 30
0.0
 11
196.05502627658211
 21
282.6772367898821
 31
0.0
  0
LINE
  5
9EF
 67
     1
  8
AM_VIS
 10
198.75388808927099
 20
282.97723678988223
 30
0.0
 11
196.35502627658241
 21
282.97723678988223
 31
0.0
  0
LINE
  5
9F0
 67
     1
  8
AM_VIS
 10
199.05388808927071
 20
291.67723678988227
 30
0.0
 11
199.05388808927071
 21
283.27723678988241
 31
0.0
  0
LINE
  5
9F1
 67
     1
  8
AM_VIS
 10
198.15388808927079
 20
291.97723678988228
 30
0.0
 11
198.7538880892707
 21
291.97723678988228
 31
0.0
  0
LINE
  5
9F2
 67
     1
  8
AM_VIS
 10
197.85388808927061
 20
290.57723678988219
 30
0.0
 11
197.85388808927061
 21
291.67723678988222
 31
0.0
  0
LINE
  5
9F3
 67
     1
  8
AM_VIS
 10
196.35502627658229
 20
290.27723678988229
 30
0.0
 11
197.55388808927111
 21
290.27723678988229
 31
0.0
  0
LINE
  5
9F4
 67
     1
  8
AM_VIS
 10
196.05502627658211
 20
290.57723678988231
 30
0.0
 11
196.05502627658211
 21
293.46736485041652
 31
0.0
  0
LINE
  5
9F5
 67
     1
  8
AM_VIS
 10
196.34791949539539
 20
294.1744716316029
 30
0.0
 11
205.1666532475497
 21
302.99320538375719
 31
0.0
  0
LINE
  5
9F6
 67
     1
  8
AM_VIS
 10
205.8737600287366
 20
303.28609860257041
 30
0.0
 11
208.76388808927101
 21
303.28609860257041
 31
0.0
  0
LINE
  5
9F7
 67
     1
  8
AM_VIS
 10
209.0638880892709
 20
301.78723678988229
 30
0.0
 11
209.0638880892709
 21
302.98609860257051
 31
0.0
  0
LINE
  5
9F8
 67
     1
  8
AM_VIS
 10
207.66388808927081
 20
301.48723678988222
 30
0.0
 11
208.76388808927081
 21
301.48723678988222
 31
0.0
  0
LINE
  5
9F9
 67
     1
  8
AM_VIS
 10
207.36388808927089
 20
300.58723678988218
 30
0.0
 11
207.36388808927109
 21
301.18723678988232
 31
0.0
  0
LINE
  5
9FA
 67
     1
  8
AM_VIS
 10
216.0638880892709
 20
300.28723678988229
 30
0.0
 11
207.6638880892709
 21
300.28723678988229
 31
0.0
  0
LINE
  5
9FB
 67
     1
  8
AM_VIS
 10
216.36388808927089
 20
302.98609860257039
 30
0.0
 11
216.36388808927089
 21
300.58723678988213
 31
0.0
  0
CIRCLE
  5
9FC
 67
     1
  8
AM_VIS
 10
224.09181015062839
 20
300.7051588512399
 30
0.0
 40
2.75
  0
CIRCLE
  5
9FD
 67
     1
  8
AM_VIS
 10
198.6359660279129
 20
275.24931472852421
 30
0.0
 40
2.75
  0
CIRCLE
  5
A00
 67
     1
  8
AM_VIS
 10
224.09181015062839
 20
300.7051588512399
 30
0.0
 40
4.1999999999999993
  0
CIRCLE
  5
A01
 67
     1
  8
AM_VIS
 10
198.6359660279129
 20
275.24931472852421
 30
0.0
 40
4.5
  0
CIRCLE
  5
A02
 67
     1
  8
AM_VIS
 10
224.09181015062839
 20
300.7051588512399
 30
0.0
 40
4.5
  0
ARC
  5
A03
 67
     1
  8
AM_VIS
 10
225.6474294086259
 20
305.36201310073199
 30
0.0
 40
1.0
 50
50.5930635533824
 51
90.0
  0
ARC
  5
A04
 67
     1
  8
AM_VIS
 10
211.36388808927069
 20
287.97723678988211
 30
0.0
 40
23.5
 50
39.40693644661328
 51
50.5930635533824
  0
ARC
  5
A05
 67
     1
  8
AM_VIS
 10
228.7486644001213
 20
302.2607781092363
 30
0.0
 40
1.0
 50
0.0
 51
39.406936446617088
  0
ARC
  5
A06
 67
     1
  8
AM_VIS
 10
228.7486644001213
 20
285.56302322750861
 30
0.0
 40
1.0
 50
314.99999999999972
 51
0.0
  0
ARC
  5
A07
 67
     1
  8
AM_VIS
 10
213.77810165164399
 20
270.59246047903162
 30
0.0
 40
1.0
 50
270.0
 51
314.99999999999972
  0
ARC
  5
A08
 67
     1
  8
AM_VIS
 10
197.08034676991721
 20
270.59246047903162
 30
0.0
 40
0.9999999999999998
 50
230.59306355338239
 51
270.0
  0
ARC
  5
A09
 67
     1
  8
AM_VIS
 10
211.36388808927069
 20
287.97723678988211
 30
0.0
 40
23.5
 50
219.40693644661479
 51
230.593063553387
  0
ARC
  5
A0A
 67
     1
  8
AM_VIS
 10
193.9791117784207
 20
273.69369547052798
 30
0.0
 40
1.0
 50
180.0
 51
219.4069364466171
  0
ARC
  5
A0B
 67
     1
  8
AM_VIS
 10
196.35502627658209
 20
282.67723678988239
 30
0.0
 40
0.3
 50
90.0
 51
180.0
  0
ARC
  5
A0C
 67
     1
  8
AM_VIS
 10
198.75388808927099
 20
283.27723678988241
 30
0.0
 40
0.3
 50
270.0
 51
0.0
  0
ARC
  5
A0D
 67
     1
  8
AM_VIS
 10
198.75388808927099
 20
291.67723678988227
 30
0.0
 40
0.3
 50
0.0
 51
90.0
  0
ARC
  5
A0E
 67
     1
  8
AM_VIS
 10
198.15388808927079
 20
291.6772367898821
 30
0.0
 40
0.3
 50
90.0
 51
180.0
  0
ARC
  5
A0F
 67
     1
  8
AM_VIS
 10
197.55388808927071
 20
290.57723678988231
 30
0.0
 40
0.3
 50
270.0
 51
0.0
  0
ARC
  5
A10
 67
     1
  8
AM_VIS
 10
196.35502627658229
 20
290.57723678988231
 30
0.0
 40
0.3
 50
180.0
 51
270.0
  0
ARC
  5
A11
 67
     1
  8
AM_VIS
 10
197.05502627658211
 20
293.46736485041629
 30
0.0
 40
1.0
 50
134.99999999999969
 51
180.0
  0
ARC
  5
A12
 67
     1
  8
AM_VIS
 10
205.8737600287364
 20
302.28609860257058
 30
0.0
 40
1.0
 50
90.0
 51
134.99999999999969
  0
ARC
  5
A13
 67
     1
  8
AM_VIS
 10
208.76388808927069
 20
302.98609860257039
 30
0.0
 40
0.3
 50
0.0
 51
90.0
  0
ARC
  5
A14
 67
     1
  8
AM_VIS
 10
208.76388808927069
 20
301.78723678988217
 30
0.0
 40
0.3
 50
270.0
 51
0.0
  0
ARC
  5
A15
 67
     1
  8
AM_VIS
 10
207.66388808927081
 20
301.18723678988221
 30
0.0
 40
0.3
 50
90.0
 51
180.0
  0
ARC
  5
A16
 67
     1
  8
AM_VIS
 10
207.66388808927081
 20
300.58723678988213
 30
0.0
 40
0.3
 50
180.0
 51
270.0
  0
ARC
  5
A17
 67
     1
  8
AM_VIS
 10
216.0638880892707
 20
300.58723678988218
 30
0.0
 40
0.3
 50
270.0
 51
0.0
  0
ARC
  5
A18
 67
     1
  8
AM_VIS
 10
216.66388808927081
 20
302.98609860257062
 30
0.0
 40
0.3
 50
90.0
 51
180.0
  0
CIRCLE
  5
A19
 67
     1
  8
AM_VIS
 10
198.6359660279129
 20
275.24931472852421
 30
0.0
 40
4.7999999999999998
  0
CIRCLE
  5
A1A
 67
     1
  8
AM_VIS
 10
211.36388808927069
 20
287.97723678988211
 30
0.0
 40
9.4500000000000011
  0
CIRCLE
  5
A1B
 67
     1
  8
AM_VIS
 10
211.36388808927069
 20
287.97723678988211
 30
0.0
 40
9.1500000000000004
  0
CIRCLE
  5
A1C
 67
     1
  8
AM_VIS
 10
211.36388808927069
 20
287.97723678988211
 30
0.0
 40
8.75
  0
DIMENSION
  5
A1D
 67
     1
  8
AM_5
  2
*D9
 10
66.319970741519185
 20
256.36453771056682
 30
0.0
 11
55.359815633127887
 21
270.86022672489099
 31
0.0
 70
     1
 13
59.74890363676127
 23
300.70515885123962
 33
0.0
 14
85.204747759476604
 24
275.24931472852393
 34
0.0
1001
ACAD
1000
DSTYLE
1002
{
1070
   144
1040
1.0
1002
}
  0
DIMENSION
  5
A20
 67
     1
  8
AM_5
  2
*D1
 10
64.494238790434778
 20
246.7606311664299
 30
0.0
 11
49.644996385517253
 21
265.14540747728012
 31
0.0
 70
     1
 13
55.859816340234673
 23
304.59424614776538
 33
0.0
 14
89.093835056002476
 24
271.36022743199771
 34
0.0
1001
ACAD
1000
DSTYLE
1002
{
1070
   144
1040
1.0
1002
}
  0
DIMENSION
  5
A21
 67
     1
  8
AM_5
  2
*D10
 10
98.760367017472745
 20
269.59246047903127
 30
0.0
 11
96.260367017472689
 21
287.97723678988149
 31
0.0
 70
     0
  1
{\Famgdt;o}<>
 13
61.87022398032024
 23
306.3620131007317
 33
0.0
 14
86.760367017472731
 24
269.59246047903127
 34
0.0
 50
90.0
1001
ACAD
1000
DSTYLE
1002
{
1070
   144
1040
1.0
1070
   271
1070
     1
1002
}
  0
INSERT
  5
A27
 67
     1
  8
0
 62
     5
  2
*U25
 10
0.0
 20
0.0
 30
0.0
1001
ACAD
1000
DSTYLE
1002
{
1070
   147
1040
1.0
1070
    77
1070
     0
1002
}
  0
TEXT
  5
A28
 67
     1
  8
0
 62
     5
 10
96.005307490129454
 20
312.76939888274728
 30
0.0
 40
3.0
  1
M5*0.8*10depth
  0
DIMENSION
  5
A29
 67
     1
  8
AM_5
  2
*D2
 10
40.468230771658682
 20
298.7726282807447
 30
0.0
 11
49.307065536490569
 21
311.14699695150938
 31
0.0
 70
     0
 13
78.674060539839715
 23
302.9932053837569
 33
0.0
 14
54.384942606081701
 24
284.85591644632171
 34
0.0
 50
45.00000000000022
1001
ACAD
1000
DSTYLE
1002
{
1070
   144
1040
1.0
1002
}
  0
TEXT
  5
A2E
 67
     1
  8
0
 62
     5
 10
16.709598370449608
 20
322.79880673820668
 30
0.0
 40
3.0
  1
2*2-%%c9*7depth
  0
DIMENSION
  5
A2F
 67
     1
  8
AM_5
  2
*D3
 10
124.104323187266
 20
282.9772367898824
 30
0.0
 11
121.6043231872659
 21
287.97723678988228
 31
0.0
 70
     0
  1
%%c<>
 13
130.2722895051505
 23
292.97723678988211
 33
0.0
 14
130.27228950515109
 24
282.9772367898824
 34
0.0
 50
90.0
1001
ACAD
1000
DSTYLE
1002
{
1070
   144
1040
1.0
1002
}
  0
DIMENSION
  5
A34
 67
     1
  8
AM_5
  2
*D4
 10
134.40626410136679
 20
200.96465515679671
 30
0.0
 11
119.76340695850961
 21
200.96465515679671
 31
0.0
 70
   128
 13
129.90626410136679
 23
227.34943146764689
 33
0.0
 14
134.40626410136679
 24
212.96465515679671
 34
0.0
1001
ACAD
1000
DSTYLE
1002
{
1070
   144
1040
1.0
1070
   173
1070
     1
1070
     7
1000
NONE
1002
}
  0
DIMENSION
  5
A37
 67
     1
  8
AM_5
  2
*D5
 10
165.40626410136679
 20
200.96465515679671
 30
0.0
 11
181.0491212442239
 21
200.96465515679671
 31
0.0
 70
   128
 13
170.90626410136679
 23
212.96465515679671
 33
0.0
 14
165.40626410136679
 24
232.94215777849729
 34
0.0
1001
ACAD
1000
DSTYLE
1002
{
1070
   144
1040
1.0
1002
}
  0
DIMENSION
  5
A3A
 67
     1
  8
AM_5
  2
*D6
 10
134.40626410136679
 20
200.96465515679671
 30
0.0
 11
139.476736947517
 21
200.96465515679671
 31
0.0
 70
   128
 13
144.90626410136679
 23
232.94215777849729
 33
0.0
 14
134.40626410136679
 24
212.96465515679671
 34
0.0
1001
ACAD
1000
DSTYLE
1002
{
1070
   144
1040
1.0
1002
}
  0
DIMENSION
  5
A3D
 67
     1
  8
AM_5
  2
*D7
 10
134.40626410136679
 20
192.96465515679671
 30
0.0
 11
152.65626410136679
 21
195.46465515679671
 31
0.0
 70
     0
  1
31.5+Stroke
 13
170.90626410136679
 23
212.96465515679719
 33
0.0
 14
134.40626410136679
 24
212.96465515679671
 34
0.0
1001
ACAD
1000
DSTYLE
1002
{
1070
   144
1040
1.0
1002
}
  0
DIMENSION
  5
A40
 67
     1
  8
AM_5
  2
*D8
 10
129.90626410136679
 20
184.96465515679671
 30
0.0
 11
150.40626410136679
 21
187.46465515679671
 31
0.0
 70
     0
  1
36+Stroke
 13
170.90626410136679
 23
213.2575483756105
 33
0.0
 14
129.90626410136679
 24
227.34943146764689
 34
0.0
1001
ACAD
1000
DSTYLE
1002
{
1070
   144
1040
1.0
1002
}
  0
LINE
  5
C6B
 67
     1
  8
AM_7
 10
59.748903636760161
 20
142.83678383318389
 30
0.0
 11
59.748903636760161
 21
142.83678383318389
 31
0.0
  0
LINE
  5
C6C
 67
     1
  8
AM_7
 10
59.748903636760161
 20
142.83678383318389
 30
0.0
 11
59.748903636760161
 21
142.83678383318389
 31
0.0
  0
LINE
  5
C6D
 67
     1
  8
AM_7
 10
54.57390363676015
 20
142.83678383318389
 30
0.0
 11
59.748903636760161
 21
142.83678383318389
 31
0.0
  0
LINE
  5
C6E
 67
     1
  8
AM_7
 10
59.748903636760161
 20
142.83678383318389
 30
0.0
 11
64.923903636760173
 21
142.83678383318389
 31
0.0
  0
LINE
  5
C6F
 67
     1
  8
AM_7
 10
59.748903636760161
 20
137.6617838331839
 30
0.0
 11
59.748903636760161
 21
142.83678383318389
 31
0.0
  0
LINE
  5
C70
 67
     1
  8
AM_7
 10
59.748903636760161
 20
142.83678383318389
 30
0.0
 11
59.748903636760161
 21
148.0117838331839
 31
0.0
  0
LINE
  5
C71
 67
     1
  8
AM_7
 10
85.204747759475623
 20
117.3809397104682
 30
0.0
 11
85.204747759475623
 21
117.3809397104682
 31
0.0
  0
LINE
  5
C72
 67
     1
  8
AM_7
 10
85.204747759475623
 20
117.3809397104682
 30
0.0
 11
85.204747759475623
 21
117.3809397104682
 31
0.0
  0
LINE
  5
C73
 67
     1
  8
AM_7
 10
80.029747759475626
 20
117.3809397104682
 30
0.0
 11
85.204747759475623
 21
117.3809397104682
 31
0.0
  0
LINE
  5
C74
 67
     1
  8
AM_7
 10
85.204747759475623
 20
117.3809397104682
 30
0.0
 11
90.379747759475634
 21
117.3809397104682
 31
0.0
  0
LINE
  5
C75
 67
     1
  8
AM_7
 10
85.204747759475623
 20
112.2059397104682
 30
0.0
 11
85.204747759475623
 21
117.3809397104682
 31
0.0
  0
LINE
  5
C76
 67
     1
  8
AM_7
 10
85.204747759475623
 20
117.3809397104682
 30
0.0
 11
85.204747759475623
 21
122.55593971046819
 31
0.0
  0
ARC
  5
C7B
 67
     1
  8
AM_4
 10
85.204747759475623
 20
117.3809397104682
 30
0.0
 40
3.1469999999999989
 50
259.99999999999977
 51
190.0000000000002
  0
ARC
  5
C7C
 67
     1
  8
AM_4
 10
85.204747759475623
 20
117.3809397104682
 30
0.0
 40
3.1469999999999989
 50
259.99999999999977
 51
190.0000000000002
  0
ARC
  5
C7D
 67
     1
  8
AM_4
 10
59.748903636760161
 20
142.83678383318389
 30
0.0
 40
3.1469999999999989
 50
259.99999999999977
 51
190.0000000000002
  0
ARC
  5
C7E
 67
     1
  8
AM_4
 10
59.748903636760161
 20
142.83678383318389
 30
0.0
 40
3.1469999999999989
 50
259.99999999999977
 51
190.0000000000002
  0
ARC
  5
C7F
 67
     1
  8
AM_4
 10
72.476825698117423
 20
130.1088617718263
 30
0.0
 40
3.309499999999999
 50
259.99999999999977
 51
190.0000000000002
  0
LINE
  5
C80
 67
     1
  8
AM_7
 10
173.85136029079911
 20
130.10886177182641
 30
0.0
 11
128.69321871950331
 21
130.10886177182641
 31
0.0
  0
LINE
  5
C81
 67
     1
  8
AM_7
 10
130.8962641013668
 20
130.1088617718263
 30
0.0
 11
115.7162641013667
 21
130.1088617718263
 31
0.0
  0
LINE
  5
C82
 67
     1
  8
AM_4
 10
116.7062641013667
 20
126.7993617718262
 30
0.0
 11
127.9062641013667
 21
126.7993617718262
 31
0.0
  0
LINE
  5
C83
 67
     1
  8
AM_4
 10
116.7062641013667
 20
133.41836177182631
 30
0.0
 11
127.9062641013667
 21
133.41836177182631
 31
0.0
  0
LINE
  5
C84
 67
     1
  8
AM_4
 10
127.9062641013667
 20
133.41836177182631
 30
0.0
 11
128.5967641013668
 21
133.90661900423569
 31
0.0
  0
LINE
  5
C85
 67
     1
  8
AM_4
 10
127.9062641013667
 20
126.7993617718262
 30
0.0
 11
128.5967641013668
 21
126.3111045394167
 31
0.0
  0
LINE
  5
C86
 67
     1
  8
AM_4
 62
     7
 10
127.9062641013667
 20
126.1088617718263
 30
0.0
 11
127.9062641013667
 21
134.1088617718263
 31
0.0
  0
LINE
  5
C87
 67
     1
  8
AM_7
 10
164.6062641013668
 20
64.950644456086223
 30
0.0
 11
164.6062641013668
 21
64.950644456086223
 31
0.0
  0
LINE
  5
C88
 67
     1
  8
AM_7
 10
164.6062641013668
 20
64.950644456086223
 30
0.0
 11
164.6062641013668
 21
64.950644456086223
 31
0.0
  0
LINE
  5
C89
 67
     1
  8
AM_7
 10
163.74376410136671
 20
64.950644456086223
 30
0.0
 11
164.6062641013668
 21
64.950644456086223
 31
0.0
  0
LINE
  5
C8A
 67
     1
  8
AM_7
 10
164.6062641013668
 20
64.950644456086223
 30
0.0
 11
165.46876410136679
 21
64.950644456086223
 31
0.0
  0
LINE
  5
C8D
 67
     1
  8
AM_7
 10
144.90626410136679
 20
64.950644456086223
 30
0.0
 11
144.90626410136679
 21
64.950644456086223
 31
0.0
  0
LINE
  5
C8E
 67
     1
  8
AM_7
 10
144.90626410136679
 20
64.950644456086223
 30
0.0
 11
144.90626410136679
 21
64.950644456086223
 31
0.0
  0
LINE
  5
C8F
 67
     1
  8
AM_7
 10
142.41421410136681
 20
64.950644456086223
 30
0.0
 11
144.90626410136679
 21
64.950644456086223
 31
0.0
  0
LINE
  5
C90
 67
     1
  8
AM_7
 10
144.90626410136679
 20
64.950644456086223
 30
0.0
 11
147.39831410136679
 21
64.950644456086223
 31
0.0
  0
LINE
  5
C91
 67
     1
  8
AM_7
 10
144.90626410136679
 20
62.458594456086217
 30
0.0
 11
144.90626410136679
 21
64.950644456086223
 31
0.0
  0
LINE
  5
C92
 67
     1
  8
AM_7
 10
144.90626410136679
 20
64.950644456086223
 30
0.0
 11
144.90626410136679
 21
67.442694456086215
 31
0.0
  0
LINE
  5
C95
 67
     1
  8
AM_7
 10
162.91421410136681
 20
64.950644456086223
 30
0.0
 11
165.40626410136679
 21
64.950644456086223
 31
0.0
  0
LINE
  5
C96
 67
     1
  8
AM_7
 10
165.40626410136679
 20
64.950644456086223
 30
0.0
 11
167.89831410136679
 21
64.950644456086223
 31
0.0
  0
LINE
  5
C97
 67
     1
  8
AM_7
 10
165.40626410136679
 20
62.458594456086217
 30
0.0
 11
165.40626410136679
 21
64.950644456086223
 31
0.0
  0
LINE
  5
C98
 67
     1
  8
AM_7
 10
165.40626410136679
 20
64.950644456086223
 30
0.0
 11
165.40626410136679
 21
67.442694456086215
 31
0.0
  0
LINE
  5
C99
 67
     1
  8
AM_7
 10
173.85136029079911
 20
60.865868145236249
 30
0.0
 11
128.69321871950331
 21
60.865868145236249
 31
0.0
  0
LINE
  5
C9A
 67
     1
  8
AM_7
 10
130.8962641013668
 20
60.865868145235787
 30
0.0
 11
115.7162641013667
 21
60.865868145235787
 31
0.0
  0
ARC
  5
C9B
 67
     1
  8
AM_4
 10
144.90626410136679
 20
64.950644456086451
 30
0.0
 40
2.6200000000000001
 50
259.99999999999977
 51
190.0000000000002
  0
ARC
  5
C9C
 67
     1
  8
AM_4
 10
165.40626410136679
 20
64.950644456086451
 30
0.0
 40
2.6200000000000001
 50
259.99999999999977
 51
190.0000000000002
  0
LINE
  5
C9D
 67
     1
  8
AM_4
 10
116.7062641013667
 20
60.865868145235787
 30
0.0
 11
127.9062641013667
 21
60.865868145235787
 31
0.0
  0
LINE
  5
C9E
 67
     1
  8
AM_4
 10
116.7062641013667
 20
60.865868145235787
 30
0.0
 11
127.9062641013667
 21
60.865868145235787
 31
0.0
  0
LINE
  5
C9F
 67
     1
  8
AM_4
 10
127.9062641013667
 20
60.865868145235787
 30
0.0
 11
128.5967641013668
 21
60.865868145235787
 31
0.0
  0
LINE
  5
CA0
 67
     1
  8
AM_4
 10
127.9062641013667
 20
60.865868145236021
 30
0.0
 11
128.5967641013668
 21
60.865868145235787
 31
0.0
  0
LINE
  5
CA1
 67
     1
  8
AM_4
 62
     7
 10
127.9062641013667
 20
56.865868145235787
 30
0.0
 11
127.9062641013667
 21
64.865868145235794
 31
0.0
  0
LINE
  5
CA2
 67
     1
  8
AM_7
 10
224.09181015062759
 20
142.83678383318389
 30
0.0
 11
224.09181015062759
 21
142.83678383318389
 31
0.0
  0
LINE
  5
CA3
 67
     1
  8
AM_7
 10
224.09181015062759
 20
142.83678383318389
 30
0.0
 11
224.09181015062759
 21
142.83678383318389
 31
0.0
  0
LINE
  5
CA4
 67
     1
  8
AM_7
 10
218.9168101506275
 20
142.83678383318389
 30
0.0
 11
224.09181015062759
 21
142.83678383318389
 31
0.0
  0
LINE
  5
CA5
 67
     1
  8
AM_7
 10
224.09181015062759
 20
142.83678383318389
 30
0.0
 11
229.26681015062761
 21
142.83678383318389
 31
0.0
  0
LINE
  5
CA6
 67
     1
  8
AM_7
 10
224.09181015062759
 20
137.6617838331839
 30
0.0
 11
224.09181015062759
 21
142.83678383318389
 31
0.0
  0
LINE
  5
CA7
 67
     1
  8
AM_7
 10
224.09181015062759
 20
142.83678383318389
 30
0.0
 11
224.09181015062759
 21
148.0117838331839
 31
0.0
  0
LINE
  5
CA8
 67
     1
  8
AM_7
 10
198.63596602791199
 20
117.3809397104682
 30
0.0
 11
198.63596602791199
 21
117.3809397104682
 31
0.0
  0
LINE
  5
CA9
 67
     1
  8
AM_7
 10
198.63596602791199
 20
117.3809397104682
 30
0.0
 11
198.63596602791199
 21
117.3809397104682
 31
0.0
  0
LINE
  5
CAA
 67
     1
  8
AM_7
 10
193.46096602791209
 20
117.3809397104682
 30
0.0
 11
198.63596602791199
 21
117.3809397104682
 31
0.0
  0
LINE
  5
CAB
 67
     1
  8
AM_7
 10
198.63596602791199
 20
117.3809397104682
 30
0.0
 11
203.81096602791209
 21
117.3809397104682
 31
0.0
  0
LINE
  5
CAC
 67
     1
  8
AM_7
 10
198.63596602791199
 20
112.2059397104682
 30
0.0
 11
198.63596602791199
 21
117.3809397104682
 31
0.0
  0
LINE
  5
CAD
 67
     1
  8
AM_7
 10
198.63596602791199
 20
117.3809397104682
 30
0.0
 11
198.63596602791199
 21
122.55593971046819
 31
0.0
  0
LINE
  5
CAE
 67
     1
  8
AM_7
 10
211.36388808926989
 20
130.10886177182621
 30
0.0
 11
211.36388808926989
 21
130.10886177182621
 31
0.0
  0
LINE
  5
CAF
 67
     1
  8
AM_7
 10
211.36388808926989
 20
130.10886177182621
 30
0.0
 11
211.36388808926989
 21
130.10886177182621
 31
0.0
  0
LINE
  5
CB0
 67
     1
  8
AM_7
 10
192.4463880892699
 20
130.10886177182621
 30
0.0
 11
233.90649111212599
 21
130.10886177182621
 31
0.0
  0
LINE
  5
CB3
 67
     1
  8
AM_7
 10
211.36388808926989
 20
108.2925244028059
 30
0.0
 11
211.36388808926989
 21
149.0263617718262
 31
0.0
  0
ARC
  5
CB4
 67
     1
  8
AM_4
 10
224.09181015062759
 20
142.83678383318389
 30
0.0
 40
3.1469999999999989
 50
259.99999999999977
 51
190.0000000000002
  0
ARC
  5
CB5
 67
     1
  8
AM_4
 10
224.09181015062759
 20
142.83678383318389
 30
0.0
 40
3.1469999999999989
 50
259.99999999999977
 51
190.0000000000002
  0
ARC
  5
CB6
 67
     1
  8
AM_4
 10
198.63596602791199
 20
117.3809397104682
 30
0.0
 40
3.1469999999999989
 50
259.99999999999977
 51
190.0000000000002
  0
ARC
  5
CB7
 67
     1
  8
AM_4
 10
198.63596602791199
 20
117.3809397104682
 30
0.0
 40
3.1469999999999989
 50
259.99999999999977
 51
190.0000000000002
  0
LINE
  5
CB8
 67
     1
  8
AM_VIS
 10
67.476825698117722
 20
142.7188617718262
 30
0.0
 11
67.476825698117722
 21
145.11772358451449
 31
0.0
  0
LINE
  5
CB9
 67
     1
  8
AM_VIS
 10
76.176825698117753
 20
142.4188617718263
 30
0.0
 11
67.776825698117761
 21
142.4188617718263
 31
0.0
  0
LINE
  5
CBA
 67
     1
  8
AM_VIS
 10
76.476825698117494
 20
143.31886177182631
 30
0.0
 11
76.476825698117665
 21
142.7188617718262
 31
0.0
  0
LINE
  5
CBB
 67
     1
  8
AM_VIS
 10
75.076825698117858
 20
143.61886177182629
 30
0.0
 11
76.176825698117852
 21
143.61886177182629
 31
0.0
  0
LINE
  5
CBC
 67
     1
  8
AM_VIS
 10
74.776825698117676
 20
145.11772358451449
 30
0.0
 11
74.776825698117676
 21
143.9188617718263
 31
0.0
  0
LINE
  5
CBD
 67
     1
  8
AM_VIS
 10
75.076825698117858
 20
145.41772358451439
 30
0.0
 11
77.966953758652295
 21
145.41772358451439
 31
0.0
  0
LINE
  5
CBE
 67
     1
  8
AM_VIS
 10
78.674060539838663
 20
145.12483036570109
 30
0.0
 11
87.492794291992965
 21
136.3060966135468
 31
0.0
  0
LINE
  5
CBF
 67
     1
  8
AM_VIS
 10
87.785687510806454
 20
135.5989898323603
 30
0.0
 11
87.785687510806454
 21
132.70886177182621
 31
0.0
  0
LINE
  5
CC0
 67
     1
  8
AM_VIS
 10
86.286825698117894
 20
132.40886177182631
 30
0.0
 11
87.485687510806684
 21
132.40886177182631
 31
0.0
  0
LINE
  5
CC1
 67
     1
  8
AM_VIS
 10
85.98682569811794
 20
133.80886177182609
 30
0.0
 11
85.98682569811794
 21
132.70886177182609
 31
0.0
  0
LINE
  5
CC2
 67
     1
  8
AM_VIS
 10
85.086825698117849
 20
134.1088617718263
 30
0.0
 11
85.686825698117744
 21
134.1088617718263
 31
0.0
  0
LINE
  5
CC3
 67
     1
  8
AM_VIS
 10
84.786825698117894
 20
125.4088617718262
 30
0.0
 11
84.786825698117894
 21
133.8088617718262
 31
0.0
  0
LINE
  5
CC4
 67
     1
  8
AM_VIS
 10
87.485687510806287
 20
125.1088617718262
 30
0.0
 11
85.086825698117664
 21
125.1088617718262
 31
0.0
  0
LINE
  5
CC5
 67
     1
  8
AM_VIS
 10
87.785687510806454
 20
124.8088617718261
 30
0.0
 11
87.785687510806454
 21
122.578174552189
 31
0.0
  0
LINE
  5
CC6
 67
     1
  8
AM_VIS
 10
87.785687510806454
 20
122.5781745521889
 30
0.0
 11
90.861602008967878
 21
119.5022600540275
 31
0.0
  0
LINE
  5
CC7
 67
     1
  8
AM_VIS
 10
90.861602008967651
 20
119.5022600540275
 30
0.0
 11
90.861602008967651
 21
115.8253204524718
 31
0.0
  0
LINE
  5
CC8
 67
     1
  8
AM_VIS
 10
86.760367017471793
 20
111.7240854609756
 30
0.0
 11
70.062612135744843
 21
111.7240854609756
 31
0.0
  0
LINE
  5
CC9
 67
     1
  8
AM_VIS
 10
69.355505354557948
 20
112.01697867978901
 30
0.0
 11
54.384942606080813
 21
126.9875414282661
 31
0.0
  0
LINE
  5
CCA
 67
     1
  8
AM_VIS
 10
54.092049387267338
 20
127.69464820945279
 30
0.0
 11
54.092049387267338
 21
144.3924030911804
 31
0.0
  0
LINE
  5
CCB
 67
     1
  8
AM_VIS
 10
58.193284378762968
 20
148.493638082676
 30
0.0
 11
61.870223980319388
 21
148.493638082676
 31
0.0
  0
LINE
  5
CCC
 67
     1
  8
AM_VIS
 10
61.870223980319309
 20
148.493638082676
 30
0.0
 11
64.94613847848089
 21
145.41772358451439
 31
0.0
  0
LINE
  5
CCD
 67
     1
  8
AM_VIS
 10
64.946138478480947
 20
145.41772358451431
 30
0.0
 11
67.176825698117739
 21
145.41772358451431
 31
0.0
  0
CIRCLE
  5
CCF
 67
     1
  8
AM_VIS
 10
59.748903636760211
 20
142.83678383318389
 30
0.0
 40
2.75
  0
CIRCLE
  5
CD1
 67
     1
  8
AM_VIS
 10
85.204747759475666
 20
117.3809397104682
 30
0.0
 40
2.75
  0
CIRCLE
  5
CD2
 67
     1
  8
AM_VIS
 10
59.748903636760211
 20
142.83678383318389
 30
0.0
 40
4.5
  0
CIRCLE
  5
CD3
 67
     1
  8
AM_VIS
 10
85.204747759475666
 20
117.3809397104682
 30
0.0
 40
4.5
  0
CIRCLE
  5
CD4
 67
     1
  8
AM_VIS
 10
59.748903636760211
 20
142.83678383318389
 30
0.0
 40
4.7999999999999998
  0
ARC
  5
CD5
 67
     1
  8
AM_VIS
 10
67.776825698117904
 20
142.7188617718262
 30
0.0
 40
0.3
 50
180.0
 51
270.0
  0
ARC
  5
CD6
 67
     1
  8
AM_VIS
 10
76.176825698117753
 20
142.71886177182611
 30
0.0
 40
0.3
 50
270.0
 51
0.0
  0
ARC
  5
CD7
 67
     1
  8
AM_VIS
 10
76.176825698117753
 20
143.31886177182619
 30
0.0
 40
0.3
 50
0.0
 51
90.0
  0
ARC
  5
CD8
 67
     1
  8
AM_VIS
 10
75.076825698117858
 20
143.91886177182619
 30
0.0
 40
0.3
 50
180.0
 51
270.0
  0
ARC
  5
CD9
 67
     1
  8
AM_VIS
 10
75.076825698117858
 20
145.11772358451441
 30
0.0
 40
0.3
 50
90.0
 51
180.0
  0
ARC
  5
CDA
 67
     1
  8
AM_VIS
 10
77.966953758652224
 20
144.41772358451459
 30
0.0
 40
1.0
 50
45.0
 51
90.0
  0
ARC
  5
CDB
 67
     1
  8
AM_VIS
 10
86.785687510806454
 20
135.5989898323603
 30
0.0
 40
1.0
 50
0.0
 51
45.0
  0
ARC
  5
CDC
 67
     1
  8
AM_VIS
 10
87.485687510806287
 20
132.70886177182629
 30
0.0
 40
0.3
 50
270.0
 51
0.0
  0
ARC
  5
CDD
 67
     1
  8
AM_VIS
 10
86.286825698117894
 20
132.70886177182629
 30
0.0
 40
0.3
 50
180.0
 51
270.0
  0
ARC
  5
CDE
 67
     1
  8
AM_VIS
 10
85.686825698117744
 20
133.80886177182609
 30
0.0
 40
0.3
 50
0.0
 51
90.0
  0
ARC
  5
CDF
 67
     1
  8
AM_VIS
 10
85.086825698117622
 20
133.80886177182629
 30
0.0
 40
0.3
 50
90.0
 51
180.0
  0
ARC
  5
CE0
 67
     1
  8
AM_VIS
 10
85.086825698117622
 20
125.4088617718263
 30
0.0
 40
0.3
 50
180.0
 51
270.0
  0
ARC
  5
CE1
 67
     1
  8
AM_VIS
 10
87.485687510806514
 20
124.8088617718263
 30
0.0
 40
0.3
 50
0.0
 51
90.0
  0
ARC
  5
CE2
 67
     1
  8
AM_VIS
 10
89.861602008967878
 20
115.825320452472
 30
0.0
 40
1.0
 50
320.59306355338288
 51
0.0
  0
ARC
  5
CE3
 67
     1
  8
AM_VIS
 10
72.476825698117949
 20
130.10886177182621
 30
0.0
 40
23.5
 50
309.40693644661297
 51
320.59306355338521
  0
ARC
  5
CE4
 67
     1
  8
AM_VIS
 10
86.760367017471339
 20
112.7240854609755
 30
0.0
 40
0.9999999999999998
 50
270.0
 51
309.40693644661712
  0
ARC
  5
CE5
 67
     1
  8
AM_VIS
 10
70.062612135744615
 20
112.7240854609755
 30
0.0
 40
1.0
 50
225.0
 51
270.0
  0
ARC
  5
CE6
 67
     1
  8
AM_VIS
 10
55.092049387267338
 20
127.69464820945259
 30
0.0
 40
1.0
 50
180.0
 51
225.0
  0
ARC
  5
CE7
 67
     1
  8
AM_VIS
 10
55.092049387267338
 20
144.3924030911802
 30
0.0
 40
1.0
 50
140.5930635533829
 51
180.0
  0
ARC
  5
CE8
 67
     1
  8
AM_VIS
 10
72.476825698117949
 20
130.10886177182621
 30
0.0
 40
23.5
 50
129.4069364466171
 51
140.5930635533864
  0
ARC
  5
CE9
 67
     1
  8
AM_VIS
 10
58.193284378762741
 20
147.493638082676
 30
0.0
 40
1.0
 50
90.0
 51
129.4069364466171
  0
ARC
  5
CEA
 67
     1
  8
AM_VIS
 10
67.176825698117767
 20
145.11772358451461
 30
0.0
 40
0.3
 50
0.0
 51
90.0
  0
CIRCLE
  5
CEB
 67
     1
  8
AM_VIS
 10
85.204747759475666
 20
117.3809397104682
 30
0.0
 40
4.7999999999999998
  0
CIRCLE
  5
CEC
 67
     1
  8
AM_VIS
 10
72.476825698117949
 20
130.10886177182621
 30
0.0
 40
11.300000000000001
  0
CIRCLE
  5
CED
 67
     1
  8
AM_VIS
 10
72.476825698117949
 20
130.10886177182621
 30
0.0
 40
11.0
  0
ARC
  5
CEE
 67
     1
  8
AM_VIS
 10
72.476825698117949
 20
130.10886177182621
 30
0.0
 40
10.800000000000001
 50
205.12312592992191
 51
244.876874070079
  0
CIRCLE
  5
CEF
 67
     1
  8
AM_VIS
 10
72.476825698117949
 20
130.10886177182621
 30
0.0
 40
6.0000000000000018
  0
CIRCLE
  5
CF0
 67
     1
  8
AM_VIS
 10
72.476825698117949
 20
130.10886177182621
 30
0.0
 40
5.700000000000002
  0
CIRCLE
  5
CF1
 67
     1
  8
AM_VIS
 10
72.476825698117949
 20
130.10886177182621
 30
0.0
 40
5.2000000000000028
  0
LINE
  5
CF2
 67
     1
  8
AM_VIS
 10
64.114632932696253
 20
126.18760787110401
 30
0.0
 11
62.517453106319827
 21
125.43864790330331
 31
0.0
  0
LINE
  5
CF3
 67
     1
  8
AM_VIS
 10
67.806611829595184
 20
120.1494891800283
 30
0.0
 11
68.555571797395771
 21
121.7466690064045
 31
0.0
  0
CIRCLE
  5
CF4
 67
     1
  8
AM_VIS
 10
63.265503138419341
 20
127.9984028877947
 30
0.0
 40
1.0
  0
CIRCLE
  5
CF5
 67
     1
  8
AM_VIS
 10
70.366366814086263
 20
120.8975392121277
 30
0.0
 40
1.0
  0
ARC
  5
CF6
 67
     1
  8
AM_VIS
 10
63.265503138419341
 20
127.9984028877947
 30
0.0
 40
2.0
 50
295.12312592992549
 51
69.054263217359264
  0
ARC
  5
CF7
 67
     1
  8
AM_VIS
 10
64.695437623455376
 20
131.7340805195644
 30
0.0
 40
2.0
 50
164.27008681864251
 51
249.0542632173655
  0
ARC
  5
CF8
 67
     1
  8
AM_VIS
 10
72.034883959876282
 20
129.6669200335846
 30
0.0
 40
9.625
 50
285.72991318135581
 51
164.27008681864419
  0
ARC
  5
CF9
 67
     1
  8
AM_VIS
 10
74.102044445855967
 20
122.3274736971636
 30
0.0
 40
2.0
 50
200.9457367826345
 51
285.7299131813574
  0
ARC
  5
CFA
 67
     1
  8
AM_VIS
 10
70.366366814086263
 20
120.8975392121277
 30
0.0
 40
2.0
 50
20.94573678263453
 51
154.87687407008059
  0
LINE
  5
CFB
 67
     1
  8
AM_VIS
 10
76.476825698117494
 20
133.1088617718265
 30
0.0
 11
76.476825698117494
 21
130.1088617718265
 31
0.0
  0
ARC
  5
CFC
 67
     1
  8
AM_VIS
 10
72.476825698117494
 20
130.1088617718263
 30
0.0
 40
5.0000000000000071
 50
323.13010235415612
 51
36.869897645843622
  0
LINE
  5
CFD
 67
     1
  8
AM_VIS
 10
76.476825698117494
 20
130.1088617718265
 30
0.0
 11
76.476825698117494
 21
127.1088617718264
 31
0.0
  0
ARC
  5
CFE
 67
     1
  8
AM_VIS
 10
72.476825698117494
 20
130.1088617718263
 30
0.0
 40
5.0000000000000062
 50
143.13010235415629
 51
216.86989764584359
  0
LINE
  5
CFF
 67
     1
  8
AM_VIS
 10
68.476825698117267
 20
133.1088617718263
 30
0.0
 11
68.476825698117267
 21
130.10886177182641
 31
0.0
  0
LINE
  5
D00
 67
     1
  8
AM_VIS
 10
68.476825698117494
 20
130.10886177182641
 30
0.0
 11
68.476825698117494
 21
127.1088617718265
 31
0.0
  0
ARC
  5
D01
 67
     1
  8
AM_VIS
 10
72.476825698117494
 20
130.1088617718263
 30
0.0
 40
5.0000000000000062
 50
36.86989764584272
 51
143.13010235415729
  0
CIRCLE
  5
D02
 67
     1
  8
AM_VIS
 10
72.476825698117494
 20
130.1088617718263
 30
0.0
 40
3.2000000000000002
  0
ARC
  5
D03
 67
     1
  8
AM_VIS
 10
72.476825698117494
 20
130.1088617718263
 30
0.0
 40
5.0000000000000062
 50
216.86989764584271
 51
323.13010235415732
  0
CIRCLE
  5
D04
 67
     1
  8
AM_VIS
 10
72.476825698117494
 20
130.1088617718263
 30
0.0
 40
4.0
  0
LINE
  5
D05
 67
     1
  8
AM_VIS
 10
170.90626410136679
 20
122.578174552189
 30
0.0
 11
134.40626410136679
 21
122.578174552189
 31
0.0
  0
LINE
  5
D06
 67
     1
  8
AM_VIS
 10
170.90626410136679
 20
148.49363808267611
 30
0.0
 11
134.40626410136679
 21
148.49363808267611
 31
0.0
  0
LINE
  5
D07
 67
     1
  8
AM_VIS
 10
170.90626410136679
 20
119.5022600540276
 30
0.0
 11
134.40626410136679
 21
119.5022600540276
 31
0.0
  0
LINE
  5
D08
 67
     1
  8
AM_VIS
 10
134.40626410136679
 20
132.40886177182631
 30
0.0
 11
170.90626410136679
 21
132.40886177182631
 31
0.0
  0
LINE
  5
D09
 67
     1
  8
AM_VIS
 10
170.90626410136679
 20
125.1088617718263
 30
0.0
 11
134.40626410136679
 21
125.1088617718263
 31
0.0
  0
LINE
  5
D0A
 67
     1
  8
AM_VIS
 10
170.90626410136679
 20
145.41772358451431
 30
0.0
 11
134.40626410136679
 21
145.41772358451431
 31
0.0
  0
LINE
  5
D0B
 67
     1
  8
AM_VIS
 10
134.40626410136679
 20
111.7240854609756
 30
0.0
 11
170.90626410136679
 21
111.7240854609756
 31
0.0
  0
LINE
  5
D0C
 67
     1
  8
AM_VIS
 10
134.40626410136679
 20
145.1248303657012
 30
0.0
 11
134.40626410136679
 21
136.306096613547
 31
0.0
  0
LINE
  5
D0D
 67
     1
  8
AM_VIS
 10
134.40626410136679
 20
135.59898983236039
 30
0.0
 11
134.40626410136679
 21
132.70886177182629
 31
0.0
  0
LINE
  5
D0E
 67
     1
  8
AM_VIS
 10
134.40626410136679
 20
125.4088617718261
 30
0.0
 11
134.40626410136679
 21
132.40886177182631
 31
0.0
  0
LINE
  5
D0F
 67
     1
  8
AM_VIS
 10
134.40626410136679
 20
124.8088617718262
 30
0.0
 11
134.40626410136679
 21
122.5781745521891
 31
0.0
  0
LINE
  5
D10
 67
     1
  8
AM_VIS
 10
134.40626410136679
 20
122.578174552189
 30
0.0
 11
134.40626410136679
 21
119.5022600540276
 31
0.0
  0
LINE
  5
D11
 67
     1
  8
AM_VIS
 10
134.40626410136679
 20
119.5022600540276
 30
0.0
 11
134.40626410136679
 21
115.8253204524719
 31
0.0
  0
LINE
  5
D12
 67
     1
  8
AM_VIS
 10
134.40626410136679
 20
148.49363808267611
 30
0.0
 11
134.40626410136679
 21
145.4177235845145
 31
0.0
  0
LINE
  5
D13
 67
     1
  8
AM_VIS
 10
170.90626410136679
 20
145.41772358451439
 30
0.0
 11
170.90626410136679
 21
148.493638082676
 31
0.0
  0
LINE
  5
D14
 67
     1
  8
AM_VIS
 10
170.90626410136679
 20
115.8253204524719
 30
0.0
 11
170.90626410136679
 21
119.5022600540276
 31
0.0
  0
LINE
  5
D15
 67
     1
  8
AM_VIS
 10
170.90626410136679
 20
119.5022600540276
 30
0.0
 11
170.90626410136679
 21
122.578174552189
 31
0.0
  0
LINE
  5
D16
 67
     1
  8
AM_VIS
 10
170.90626410136679
 20
122.578174552189
 30
0.0
 11
170.90626410136679
 21
124.8088617718262
 31
0.0
  0
LINE
  5
D17
 67
     1
  8
AM_VIS
 10
170.90626410136679
 20
132.40886177182611
 30
0.0
 11
170.90626410136679
 21
125.4088617718261
 31
0.0
  0
LINE
  5
D18
 67
     1
  8
AM_VIS
 10
170.90626410136679
 20
132.70886177182641
 30
0.0
 11
170.90626410136679
 21
135.5989898323605
 31
0.0
  0
LINE
  5
D19
 67
     1
  8
AM_VIS
 10
170.90626410136679
 20
136.306096613547
 30
0.0
 11
170.90626410136679
 21
145.12483036570131
 31
0.0
  0
LINE
  5
D1A
 67
     1
  8
AM_VIS
 10
134.40626410136679
 20
145.1248303657012
 30
0.0
 11
134.40626410136679
 21
145.41772358451439
 31
0.0
  0
LINE
  5
D1B
 67
     1
  8
AM_VIS
 10
134.40626410136679
 20
135.59898983236019
 30
0.0
 11
134.40626410136679
 21
136.30609661354691
 31
0.0
  0
LINE
  5
D1C
 67
     1
  8
AM_VIS
 10
134.40626410136679
 20
132.40886177182631
 30
0.0
 11
134.40626410136679
 21
132.70886177182649
 31
0.0
  0
LINE
  5
D1D
 67
     1
  8
AM_VIS
 10
134.40626410136679
 20
125.4088617718263
 30
0.0
 11
134.40626410136679
 21
125.1088617718262
 31
0.0
  0
LINE
  5
D1E
 67
     1
  8
AM_VIS
 10
134.40626410136679
 20
124.8088617718263
 30
0.0
 11
134.40626410136679
 21
125.1088617718264
 31
0.0
  0
LINE
  5
D1F
 67
     1
  8
AM_VIS
 10
134.40626410136679
 20
115.1904963938338
 30
0.0
 11
134.40626410136679
 21
115.8253204524718
 31
0.0
  0
LINE
  5
D20
 67
     1
  8
AM_VIS
 10
134.40626410136679
 20
111.9514287360489
 30
0.0
 11
134.40626410136679
 21
115.1904963938338
 31
0.0
  0
LINE
  5
D21
 67
     1
  8
AM_VIS
 10
134.40626410136679
 20
111.7240854609758
 30
0.0
 11
134.40626410136679
 21
111.951428736049
 31
0.0
  0
LINE
  5
D22
 67
     1
  8
AM_VIS
 10
170.90626410136679
 20
111.9514287360489
 30
0.0
 11
170.90626410136679
 21
111.7240854609757
 31
0.0
  0
LINE
  5
D23
 67
     1
  8
AM_VIS
 10
170.90626410136679
 20
115.1904963938338
 30
0.0
 11
170.90626410136679
 21
111.9514287360489
 31
0.0
  0
LINE
  5
D24
 67
     1
  8
AM_VIS
 10
170.90626410136679
 20
115.8253204524719
 30
0.0
 11
170.90626410136679
 21
115.1904963938338
 31
0.0
  0
LINE
  5
D25
 67
     1
  8
AM_VIS
 10
170.90626410136679
 20
125.1088617718265
 30
0.0
 11
170.90626410136679
 21
124.8088617718264
 31
0.0
  0
LINE
  5
D26
 67
     1
  8
AM_VIS
 10
170.90626410136679
 20
125.1088617718263
 30
0.0
 11
170.90626410136679
 21
125.40886177182639
 31
0.0
  0
LINE
  5
D27
 67
     1
  8
AM_VIS
 10
170.90626410136679
 20
132.70886177182641
 30
0.0
 11
170.90626410136679
 21
132.40886177182631
 31
0.0
  0
LINE
  5
D28
 67
     1
  8
AM_VIS
 10
170.90626410136679
 20
136.306096613547
 30
0.0
 11
170.90626410136679
 21
135.5989898323603
 31
0.0
  0
LINE
  5
D29
 67
     1
  8
AM_VIS
 10
170.90626410136679
 20
145.41772358451431
 30
0.0
 11
170.90626410136679
 21
145.1248303657012
 31
0.0
  0
LINE
  5
D2A
 67
     1
  8
AM_VIS
 10
133.9062641013669
 20
127.1088617718266
 30
0.0
 11
133.9062641013669
 21
133.1088617718263
 31
0.0
  0
POLYLINE
  8
AM_VIS
  5
1710
  66
     1
 10
0.000000
 20
0.000000
 30
0.000000
  70
     8
  0
VERTEX
  8
AM_VIS
  5
1711
 10
129.906
 20
130.109
 30
0.000000
  70
    32
  0
VERTEX
  8
AM_VIS
  5
1712
 10
129.906
 20
130.139
 30
0.000000
  70
    32
  0
VERTEX
  8
AM_VIS
  5
1713
 10
129.907
 20
130.168
 30
0.000000
  70
    32
  0
VERTEX
  8
AM_VIS
  5
1714
 10
129.908
 20
130.198
 30
0.000000
  70
    32
  0
VERTEX
  8
AM_VIS
  5
1715
 10
129.909
 20
130.228
 30
0.000000
  70
    32
  0
VERTEX
  8
AM_VIS
  5
1716
 10
129.911
 20
130.257
 30
0.000000
  70
    32
  0
VERTEX
  8
AM_VIS
  5
1717
 10
129.913
 20
130.287
 30
0.000000
  70
    32
  0
VERTEX
  8
AM_VIS
  5
1718
 10
129.916
 20
130.316
 30
0.000000
  70
    32
  0
VERTEX
  8
AM_VIS
  5
1719
 10
129.918
 20
130.346
 30
0.000000
  70
    32
  0
VERTEX
  8
AM_VIS
  5
171A
 10
129.922
 20
130.376
 30
0.000000
  70
    32
  0
VERTEX
  8
AM_VIS
  5
171B
 10
129.925
 20
130.405
 30
0.000000
  70
    32
  0
VERTEX
  8
AM_VIS
  5
171C
 10
129.929
 20
130.435
 30
0.000000
  70
    32
  0
VERTEX
  8
AM_VIS
  5
171D
 10
129.934
 20
130.464
 30
0.000000
  70
    32
  0
VERTEX
  8
AM_VIS
  5
171E
 10
129.938
 20
130.494
 30
0.000000
  70
    32
  0
VERTEX
  8
AM_VIS
  5
171F
 10
129.943
 20
130.523
 30
0.000000
  70
    32
  0
VERTEX
  8
AM_VIS
  5
1720
 10
129.949
 20
130.553
 30
0.000000
  70
    32
  0
VERTEX
  8
AM_VIS
  5
1721
 10
129.955
 20
130.582
 30
0.000000
  70
    32
  0
VERTEX
  8
AM_VIS
  5
1722
 10
129.961
 20
130.612
 30
0.000000
  70
    32
  0
VERTEX
  8
AM_VIS
  5
1723
 10
129.967
 20
130.641
 30
0.000000
  70
    32
  0
VERTEX
  8
AM_VIS
  5
1724
 10
129.974
 20
130.671
 30
0.000000
  70
    32
  0
VERTEX
  8
AM_VIS
  5
1725
 10
129.982
 20
130.700
 30
0.000000
  70
    32
  0
VERTEX
  8
AM_VIS
  5
1726
 10
129.989
 20
130.730
 30
0.000000
  70
    32
  0
VERTEX
  8
AM_VIS
  5
1727
 10
129.997
 20
130.759
 30
0.000000
  70
    32
  0
VERTEX
  8
AM_VIS
  5
1728
 10
130.006
 20
130.789
 30
0.000000
  70
    32
  0
VERTEX
  8
AM_VIS
  5
1729
 10
130.014
 20
130.818
 30
0.000000
  70
    32
  0
VERTEX
  8
AM_VIS
  5
172A
 10
130.023
 20
130.848
 30
0.000000
  70
    32
  0
VERTEX
  8
AM_VIS
  5
172B
 10
130.033
 20
130.877
 30
0.000000
  70
    32
  0
VERTEX
  8
AM_VIS
  5
172C
 10
130.043
 20
130.907
 30
0.000000
  70
    32
  0
VERTEX
  8
AM_VIS
  5
172D
 10
130.053
 20
130.937
 30
0.000000
  70
    32
  0
VERTEX
  8
AM_VIS
  5
172E
 10
130.064
 20
130.966
 30
0.000000
  70
    32
  0
VERTEX
  8
AM_VIS
  5
172F
 10
130.075
 20
130.996
 30
0.000000
  70
    32
  0
VERTEX
  8
AM_VIS
  5
1730
 10
130.086
 20
131.026
 30
0.000000
  70
    32
  0
VERTEX
  8
AM_VIS
  5
1731
 10
130.098
 20
131.055
 30
0.000000
  70
    32
  0
VERTEX
  8
AM_VIS
  5
1732
 10
130.110
 20
131.085
 30
0.000000
  70
    32
  0
VERTEX
  8
AM_VIS
  5
1733
 10
130.122
 20
131.115
 30
0.000000
  70
    32
  0
VERTEX
  8
AM_VIS
  5
1734
 10
130.135
 20
131.145
 30
0.000000
  70
    32
  0
VERTEX
  8
AM_VIS
  5
1735
 10
130.148
 20
131.175
 30
0.000000
  70
    32
  0
VERTEX
  8
AM_VIS
  5
1736
 10
130.162
 20
131.205
 30
0.000000
  70
    32
  0
VERTEX
  8
AM_VIS
  5
1737
 10
130.176
 20
131.235
 30
0.000000
  70
    32
  0
VERTEX
  8
AM_VIS
  5
1738
 10
130.190
 20
131.265
 30
0.000000
  70
    32
  0
VERTEX
  8
AM_VIS
  5
1739
 10
130.205
 20
131.295
 30
0.000000
  70
    32
  0
VERTEX
  8
AM_VIS
  5
173A
 10
130.220
 20
131.325
 30
0.000000
  70
    32
  0
VERTEX
  8
AM_VIS
  5
173B
 10
130.235
 20
131.356
 30
0.000000
  70
    32
  0
VERTEX
  8
AM_VIS
  5
173C
 10
130.251
 20
131.386
 30
0.000000
  70
    32
  0
VERTEX
  8
AM_VIS
  5
173D
 10
130.267
 20
131.416
 30
0.000000
  70
    32
  0
VERTEX
  8
AM_VIS
  5
173E
 10
130.283
 20
131.447
 30
0.000000
  70
    32
  0
VERTEX
  8
AM_VIS
  5
173F
 10
130.300
 20
131.477
 30
0.000000
  70
    32
  0
VERTEX
  8
AM_VIS
  5
1740
 10
130.318
 20
131.508
 30
0.000000
  70
    32
  0
VERTEX
  8
AM_VIS
  5
1741
 10
130.335
 20
131.538
 30
0.000000
  70
    32
  0
VERTEX
  8
AM_VIS
  5
1742
 10
130.354
 20
131.569
 30
0.000000
  70
    32
  0
VERTEX
  8
AM_VIS
  5
1743
 10
130.372
 20
131.600
 30
0.000000
  70
    32
  0
VERTEX
  8
AM_VIS
  5
1744
 10
130.391
 20
131.631
 30
0.000000
  70
    32
  0
VERTEX
  8
AM_VIS
  5
1745
 10
130.410
 20
131.662
 30
0.000000
  70
    32
  0
VERTEX
  8
AM_VIS
  5
1746
 10
130.430
 20
131.693
 30
0.000000
  70
    32
  0
VERTEX
  8
AM_VIS
  5
1747
 10
130.450
 20
131.724
 30
0.000000
  70
    32
  0
VERTEX
  8
AM_VIS
  5
1748
 10
130.470
 20
131.755
 30
0.000000
  70
    32
  0
VERTEX
  8
AM_VIS
  5
1749
 10
130.491
 20
131.787
 30
0.000000
  70
    32
  0
VERTEX
  8
AM_VIS
  5
174A
 10
130.512
 20
131.818
 30
0.000000
  70
    32
  0
VERTEX
  8
AM_VIS
  5
174B
 10
130.534
 20
131.849
 30
0.000000
  70
    32
  0
VERTEX
  8
AM_VIS
  5
174C
 10
130.556
 20
131.881
 30
0.000000
  70
    32
  0
VERTEX
  8
AM_VIS
  5
174D
 10
130.578
 20
131.913
 30
0.000000
  70
    32
  0
VERTEX
  8
AM_VIS
  5
174E
 10
130.601
 20
131.945
 30
0.000000
  70
    32
  0
VERTEX
  8
AM_VIS
  5
174F
 10
130.624
 20
131.976
 30
0.000000
  70
    32
  0
VERTEX
  8
AM_VIS
  5
1750
 10
130.648
 20
132.009
 30
0.000000
  70
    32
  0
VERTEX
  8
AM_VIS
  5
1751
 10
130.672
 20
132.041
 30
0.000000
  70
    32
  0
VERTEX
  8
AM_VIS
  5
1752
 10
130.696
 20
132.073
 30
0.000000
  70
    32
  0
VERTEX
  8
AM_VIS
  5
1753
 10
130.721
 20
132.105
 30
0.000000
  70
    32
  0
VERTEX
  8
AM_VIS
  5
1754
 10
130.747
 20
132.138
 30
0.000000
  70
    32
  0
VERTEX
  8
AM_VIS
  5
1755
 10
130.772
 20
132.170
 30
0.000000
  70
    32
  0
VERTEX
  8
AM_VIS
  5
1756
 10
130.798
 20
132.203
 30
0.000000
  70
    32
  0
VERTEX
  8
AM_VIS
  5
1757
 10
130.825
 20
132.236
 30
0.000000
  70
    32
  0
VERTEX
  8
AM_VIS
  5
1758
 10
130.852
 20
132.269
 30
0.000000
  70
    32
  0
VERTEX
  8
AM_VIS
  5
1759
 10
130.879
 20
132.302
 30
0.000000
  70
    32
  0
VERTEX
  8
AM_VIS
  5
175A
 10
130.907
 20
132.336
 30
0.000000
  70
    32
  0
VERTEX
  8
AM_VIS
  5
175B
 10
130.936
 20
132.369
 30
0.000000
  70
    32
  0
VERTEX
  8
AM_VIS
  5
175C
 10
130.964
 20
132.403
 30
0.000000
  70
    32
  0
VERTEX
  8
AM_VIS
  5
175D
 10
130.994
 20
132.436
 30
0.000000
  70
    32
  0
VERTEX
  8
AM_VIS
  5
175E
 10
131.023
 20
132.470
 30
0.000000
  70
    32
  0
VERTEX
  8
AM_VIS
  5
175F
 10
131.053
 20
132.504
 30
0.000000
  70
    32
  0
VERTEX
  8
AM_VIS
  5
1760
 10
131.084
 20
132.538
 30
0.000000
  70
    32
  0
VERTEX
  8
AM_VIS
  5
1761
 10
131.115
 20
132.573
 30
0.000000
  70
    32
  0
VERTEX
  8
AM_VIS
  5
1762
 10
131.147
 20
132.607
 30
0.000000
  70
    32
  0
VERTEX
  8
AM_VIS
  5
1763
 10
131.178
 20
132.642
 30
0.000000
  70
    32
  0
VERTEX
  8
AM_VIS
  5
1764
 10
131.211
 20
132.677
 30
0.000000
  70
    32
  0
VERTEX
  8
AM_VIS
  5
1765
 10
131.244
 20
132.712
 30
0.000000
  70
    32
  0
VERTEX
  8
AM_VIS
  5
1766
 10
131.277
 20
132.747
 30
0.000000
  70
    32
  0
VERTEX
  8
AM_VIS
  5
1767
 10
131.311
 20
132.782
 30
0.000000
  70
    32
  0
VERTEX
  8
AM_VIS
  5
1768
 10
131.345
 20
132.818
 30
0.000000
  70
    32
  0
VERTEX
  8
AM_VIS
  5
1769
 10
131.380
 20
132.853
 30
0.000000
  70
    32
  0
VERTEX
  8
AM_VIS
  5
176A
 10
131.416
 20
132.889
 30
0.000000
  70
    32
  0
VERTEX
  8
AM_VIS
  5
176B
 10
131.451
 20
132.925
 30
0.000000
  70
    32
  0
VERTEX
  8
AM_VIS
  5
176C
 10
131.488
 20
132.962
 30
0.000000
  70
    32
  0
VERTEX
  8
AM_VIS
  5
176D
 10
131.525
 20
132.998
 30
0.000000
  70
    32
  0
VERTEX
  8
AM_VIS
  5
176E
 10
131.562
 20
133.035
 30
0.000000
  70
    32
  0
VERTEX
  8
AM_VIS
  5
176F
 10
131.600
 20
133.072
 30
0.000000
  70
    32
  0
VERTEX
  8
AM_VIS
  5
1770
 10
131.638
 20
133.109
 30
0.000000
  70
    32
  0
SEQEND
  8
AM_VIS
  5
1771
  0
LINE
  5
D2C
 67
     1
  8
AM_VIS
 10
133.9062641013669
 20
127.1088617718264
 30
0.0
 11
131.6383149089356
 21
127.1088617718264
 31
0.0
  0
ARC
  5
D2D
 67
     1
  8
AM_VIS
 10
129.90626410136699
 20
130.1088617718265
 30
0.0
 40
5.0000000000000053
 50
25.841932763167819
 51
36.869897645841583
  0
ARC
  5
D2E
 67
     1
  8
AM_VIS
 10
129.90626410136699
 20
130.1088617718265
 30
0.0
 40
5.0000000000000053
 50
323.1301023541555
 51
334.15806723682971
  0
LINE
  5
D2F
 67
     1
  8
AM_VIS
 10
131.6383149089356
 20
133.10886177182641
 30
0.0
 11
133.9062641013669
 21
133.10886177182641
 31
0.0
  0
POLYLINE
  8
AM_VIS
  5
1772
  66
     1
 10
0.000000
 20
0.000000
 30
0.000000
  70
     8
  0
VERTEX
  8
AM_VIS
  5
1773
 10
131.638
 20
127.109
 30
0.000000
  70
    32
  0
VERTEX
  8
AM_VIS
  5
1774
 10
131.600
 20
127.146
 30
5.01798e-015
  70
    32
  0
VERTEX
  8
AM_VIS
  5
1775
 10
131.562
 20
127.183
 30
9.91695e-015
  70
    32
  0
VERTEX
  8
AM_VIS
  5
1776
 10
131.525
 20
127.220
 30
1.46977e-014
  70
    32
  0
VERTEX
  8
AM_VIS
  5
1777
 10
131.488
 20
127.256
 30
1.93611e-014
  70
    32
  0
VERTEX
  8
AM_VIS
  5
1778
 10
131.451
 20
127.292
 30
2.39080e-014
  70
    32
  0
VERTEX
  8
AM_VIS
  5
1779
 10
131.416
 20
127.328
 30
2.83390e-014
  70
    32
  0
VERTEX
  8
AM_VIS
  5
177A
 10
131.380
 20
127.364
 30
3.26549e-014
  70
    32
  0
VERTEX
  8
AM_VIS
  5
177B
 10
131.345
 20
127.400
 30
3.68565e-014
  70
    32
  0
VERTEX
  8
AM_VIS
  5
177C
 10
131.311
 20
127.436
 30
4.09445e-014
  70
    32
  0
VERTEX
  8
AM_VIS
  5
177D
 10
131.277
 20
127.471
 30
4.49194e-014
  70
    32
  0
VERTEX
  8
AM_VIS
  5
177E
 10
131.244
 20
127.506
 30
4.87821e-014
  70
    32
  0
VERTEX
  8
AM_VIS
  5
177F
 10
131.211
 20
127.541
 30
5.25331e-014
  70
    32
  0
VERTEX
  8
AM_VIS
  5
1780
 10
131.178
 20
127.576
 30
5.61730e-014
  70
    32
  0
VERTEX
  8
AM_VIS
  5
1781
 10
131.147
 20
127.611
 30
5.97024e-014
  70
    32
  0
VERTEX
  8
AM_VIS
  5
1782
 10
131.115
 20
127.645
 30
6.31220e-014
  70
    32
  0
VERTEX
  8
AM_VIS
  5
1783
 10
131.084
 20
127.679
 30
6.64323e-014
  70
    32
  0
VERTEX
  8
AM_VIS
  5
1784
 10
131.053
 20
127.714
 30
6.96338e-014
  70
    32
  0
VERTEX
  8
AM_VIS
  5
1785
 10
131.023
 20
127.748
 30
7.27270e-014
  70
    32
  0
VERTEX
  8
AM_VIS
  5
1786
 10
130.994
 20
127.781
 30
7.57124e-014
  70
    32
  0
VERTEX
  8
AM_VIS
  5
1787
 10
130.964
 20
127.815
 30
7.85906e-014
  70
    32
  0
VERTEX
  8
AM_VIS
  5
1788
 10
130.936
 20
127.849
 30
8.13620e-014
  70
    32
  0
VERTEX
  8
AM_VIS
  5
1789
 10
130.907
 20
127.882
 30
8.40270e-014
  70
    32
  0
VERTEX
  8
AM_VIS
  5
178A
 10
130.879
 20
127.915
 30
8.65861e-014
  70
    32
  0
VERTEX
  8
AM_VIS
  5
178B
 10
130.852
 20
127.949
 30
8.90396e-014
  70
    32
  0
VERTEX
  8
AM_VIS
  5
178C
 10
130.825
 20
127.982
 30
9.13880e-014
  70
    32
  0
VERTEX
  8
AM_VIS
  5
178D
 10
130.798
 20
128.015
 30
9.36317e-014
  70
    32
  0
VERTEX
  8
AM_VIS
  5
178E
 10
130.772
 20
128.047
 30
9.57709e-014
  70
    32
  0
VERTEX
  8
AM_VIS
  5
178F
 10
130.747
 20
128.080
 30
9.78061e-014
  70
    32
  0
VERTEX
  8
AM_VIS
  5
1790
 10
130.721
 20
128.112
 30
9.97375e-014
  70
    32
  0
VERTEX
  8
AM_VIS
  5
1791
 10
130.696
 20
128.145
 30
1.01566e-013
  70
    32
  0
VERTEX
  8
AM_VIS
  5
1792
 10
130.672
 20
128.177
 30
1.03290e-013
  70
    32
  0
VERTEX
  8
AM_VIS
  5
1793
 10
130.648
 20
128.209
 30
1.04912e-013
  70
    32
  0
VERTEX
  8
AM_VIS
  5
1794
 10
130.624
 20
128.241
 30
1.06432e-013
  70
    32
  0
VERTEX
  8
AM_VIS
  5
1795
 10
130.601
 20
128.273
 30
1.07849e-013
  70
    32
  0
VERTEX
  8
AM_VIS
  5
1796
 10
130.578
 20
128.305
 30
1.09164e-013
  70
    32
  0
VERTEX
  8
AM_VIS
  5
1797
 10
130.556
 20
128.337
 30
1.10377e-013
  70
    32
  0
VERTEX
  8
AM_VIS
  5
1798
 10
130.534
 20
128.368
 30
1.11488e-013
  70
    32
  0
VERTEX
  8
AM_VIS
  5
1799
 10
130.512
 20
128.400
 30
1.12498e-013
  70
    32
  0
VERTEX
  8
AM_VIS
  5
179A
 10
130.491
 20
128.431
 30
1.13406e-013
  70
    32
  0
VERTEX
  8
AM_VIS
  5
179B
 10
130.470
 20
128.463
 30
1.14213e-013
  70
    32
  0
VERTEX
  8
AM_VIS
  5
179C
 10
130.450
 20
128.494
 30
1.14919e-013
  70
    32
  0
VERTEX
  8
AM_VIS
  5
179D
 10
130.430
 20
128.525
 30
1.15523e-013
  70
    32
  0
VERTEX
  8
AM_VIS
  5
179E
 10
130.410
 20
128.556
 30
1.16027e-013
  70
    32
  0
VERTEX
  8
AM_VIS
  5
179F
 10
130.391
 20
128.587
 30
1.16430e-013
  70
    32
  0
VERTEX
  8
AM_VIS
  5
17A0
 10
130.372
 20
128.618
 30
1.16732e-013
  70
    32
  0
VERTEX
  8
AM_VIS
  5
17A1
 10
130.354
 20
128.649
 30
1.16934e-013
  70
    32
  0
VERTEX
  8
AM_VIS
  5
17A2
 10
130.335
 20
128.679
 30
1.17034e-013
  70
    32
  0
VERTEX
  8
AM_VIS
  5
17A3
 10
130.318
 20
128.710
 30
1.17034e-013
  70
    32
  0
VERTEX
  8
AM_VIS
  5
17A4
 10
130.300
 20
128.741
 30
1.16934e-013
  70
    32
  0
VERTEX
  8
AM_VIS
  5
17A5
 10
130.283
 20
128.771
 30
1.16732e-013
  70
    32
  0
VERTEX
  8
AM_VIS
  5
17A6
 10
130.267
 20
128.801
 30
1.16430e-013
  70
    32
  0
VERTEX
  8
AM_VIS
  5
17A7
 10
130.251
 20
128.832
 30
1.16027e-013
  70
    32
  0
VERTEX
  8
AM_VIS
  5
17A8
 10
130.235
 20
128.862
 30
1.15523e-013
  70
    32
  0
VERTEX
  8
AM_VIS
  5
17A9
 10
130.220
 20
128.892
 30
1.14919e-013
  70
    32
  0
VERTEX
  8
AM_VIS
  5
17AA
 10
130.205
 20
128.923
 30
1.14213e-013
  70
    32
  0
VERTEX
  8
AM_VIS
  5
17AB
 10
130.190
 20
128.953
 30
1.13406e-013
  70
    32
  0
VERTEX
  8
AM_VIS
  5
17AC
 10
130.176
 20
128.983
 30
1.12498e-013
  70
    32
  0
VERTEX
  8
AM_VIS
  5
17AD
 10
130.162
 20
129.013
 30
1.11488e-013
  70
    32
  0
VERTEX
  8
AM_VIS
  5
17AE
 10
130.148
 20
129.043
 30
1.10377e-013
  70
    32
  0
VERTEX
  8
AM_VIS
  5
17AF
 10
130.135
 20
129.073
 30
1.09164e-013
  70
    32
  0
VERTEX
  8
AM_VIS
  5
17B0
 10
130.122
 20
129.103
 30
1.07849e-013
  70
    32
  0
VERTEX
  8
AM_VIS
  5
17B1
 10
130.110
 20
129.133
 30
1.06432e-013
  70
    32
  0
VERTEX
  8
AM_VIS
  5
17B2
 10
130.098
 20
129.162
 30
1.04912e-013
  70
    32
  0
VERTEX
  8
AM_VIS
  5
17B3
 10
130.086
 20
129.192
 30
1.03290e-013
  70
    32
  0
VERTEX
  8
AM_VIS
  5
17B4
 10
130.075
 20
129.222
 30
1.01566e-013
  70
    32
  0
VERTEX
  8
AM_VIS
  5
17B5
 10
130.064
 20
129.252
 30
9.97375e-014
  70
    32
  0
VERTEX
  8
AM_VIS
  5
17B6
 10
130.053
 20
129.281
 30
9.78061e-014
  70
    32
  0
VERTEX
  8
AM_VIS
  5
17B7
 10
130.043
 20
129.311
 30
9.57709e-014
  70
    32
  0
VERTEX
  8
AM_VIS
  5
17B8
 10
130.033
 20
129.340
 30
9.36317e-014
  70
    32
  0
VERTEX
  8
AM_VIS
  5
17B9
 10
130.023
 20
129.370
 30
9.13880e-014
  70
    32
  0
VERTEX
  8
AM_VIS
  5
17BA
 10
130.014
 20
129.400
 30
8.90396e-014
  70
    32
  0
VERTEX
  8
AM_VIS
  5
17BB
 10
130.006
 20
129.429
 30
8.65861e-014
  70
    32
  0
VERTEX
  8
AM_VIS
  5
17BC
 10
129.997
 20
129.459
 30
8.40270e-014
  70
    32
  0
VERTEX
  8
AM_VIS
  5
17BD
 10
129.989
 20
129.488
 30
8.13620e-014
  70
    32
  0
VERTEX
  8
AM_VIS
  5
17BE
 10
129.982
 20
129.518
 30
7.85906e-014
  70
    32
  0
VERTEX
  8
AM_VIS
  5
17BF
 10
129.974
 20
129.547
 30
7.57124e-014
  70
    32
  0
VERTEX
  8
AM_VIS
  5
17C0
 10
129.967
 20
129.577
 30
7.27270e-014
  70
    32
  0
VERTEX
  8
AM_VIS
  5
17C1
 10
129.961
 20
129.606
 30
6.96338e-014
  70
    32
  0
VERTEX
  8
AM_VIS
  5
17C2
 10
129.955
 20
129.636
 30
6.64323e-014
  70
    32
  0
VERTEX
  8
AM_VIS
  5
17C3
 10
129.949
 20
129.665
 30
6.31220e-014
  70
    32
  0
VERTEX
  8
AM_VIS
  5
17C4
 10
129.943
 20
129.695
 30
5.97024e-014
  70
    32
  0
VERTEX
  8
AM_VIS
  5
17C5
 10
129.938
 20
129.724
 30
5.61730e-014
  70
    32
  0
VERTEX
  8
AM_VIS
  5
17C6
 10
129.934
 20
129.754
 30
5.25331e-014
  70
    32
  0
VERTEX
  8
AM_VIS
  5
17C7
 10
129.929
 20
129.783
 30
4.87821e-014
  70
    32
  0
VERTEX
  8
AM_VIS
  5
17C8
 10
129.925
 20
129.813
 30
4.49194e-014
  70
    32
  0
VERTEX
  8
AM_VIS
  5
17C9
 10
129.922
 20
129.842
 30
4.09445e-014
  70
    32
  0
VERTEX
  8
AM_VIS
  5
17CA
 10
129.918
 20
129.872
 30
3.68565e-014
  70
    32
  0
VERTEX
  8
AM_VIS
  5
17CB
 10
129.916
 20
129.901
 30
3.26549e-014
  70
    32
  0
VERTEX
  8
AM_VIS
  5
17CC
 10
129.913
 20
129.931
 30
2.83390e-014
  70
    32
  0
VERTEX
  8
AM_VIS
  5
17CD
 10
129.911
 20
129.960
 30
2.39080e-014
  70
    32
  0
VERTEX
  8
AM_VIS
  5
17CE
 10
129.909
 20
129.990
 30
1.93611e-014
  70
    32
  0
VERTEX
  8
AM_VIS
  5
17CF
 10
129.908
 20
130.020
 30
1.46977e-014
  70
    32
  0
VERTEX
  8
AM_VIS
  5
17D0
 10
129.907
 20
130.049
 30
9.91695e-015
  70
    32
  0
VERTEX
  8
AM_VIS
  5
17D1
 10
129.906
 20
130.079
 30
5.01798e-015
  70
    32
  0
VERTEX
  8
AM_VIS
  5
17D2
 10
129.906
 20
130.109
 30
1.36519e-024
  70
    32
  0
SEQEND
  8
AM_VIS
  5
17D3
  0
LINE
  5
D31
 67
     1
  8
AM_VIS
 10
129.9062641013667
 20
134.1088617718263
 30
0.0
 11
131.63831490893551
 21
135.10886177182641
 31
0.0
  0
LINE
  5
D32
 67
     1
  8
AM_VIS
 10
134.40626410136679
 20
135.1088617718263
 30
0.0
 11
131.6383149089356
 21
135.1088617718263
 31
0.0
  0
LINE
  5
D33
 67
     1
  8
AM_VIS
 10
134.40626410136679
 20
125.1088617718265
 30
0.0
 11
131.6383149089356
 21
125.1088617718265
 31
0.0
  0
LINE
  5
D34
 67
     1
  8
AM_VIS
 10
129.9062641013667
 20
134.1088617718263
 30
0.0
 11
127.9062641013667
 21
134.1088617718263
 31
0.0
  0
LINE
  5
D35
 67
     1
  8
AM_VIS
 10
129.9062641013667
 20
126.1088617718263
 30
0.0
 11
127.9062641013667
 21
126.1088617718263
 31
0.0
  0
LINE
  5
D36
 67
     1
  8
AM_VIS
 10
115.9062641013667
 20
126.9088617718262
 30
0.0
 11
116.7062641013667
 21
126.1088617718264
 31
0.0
  0
LINE
  5
D37
 67
     1
  8
AM_VIS
 10
115.9062641013668
 20
133.30886177182651
 30
0.0
 11
116.7062641013667
 21
134.10886177182641
 31
0.0
  0
LINE
  5
D38
 67
     1
  8
AM_VIS
 10
129.9062641013667
 20
126.1088617718263
 30
0.0
 11
131.63831490893551
 21
125.1088617718261
 31
0.0
  0
LINE
  5
D39
 67
     1
  8
AM_VIS
 10
127.9062641013667
 20
134.1088617718263
 30
0.0
 11
116.7062641013667
 21
134.1088617718263
 31
0.0
  0
LINE
  5
D3A
 67
     1
  8
AM_VIS
 10
127.9062641013667
 20
126.1088617718263
 30
0.0
 11
116.7062641013667
 21
126.1088617718263
 31
0.0
  0
LINE
  5
D3B
 67
     1
  8
AM_VIS
 10
131.6383149089356
 20
135.1088617718263
 30
0.0
 11
131.6383149089356
 21
133.10886177182641
 31
0.0
  0
LINE
  5
D3C
 67
     1
  8
AM_VIS
 10
129.9062641013667
 20
130.1088617718265
 30
0.0
 11
129.9062641013667
 21
134.10886177182641
 31
0.0
  0
LINE
  5
D3D
 67
     1
  8
AM_VIS
 10
115.9062641013667
 20
126.9088617718262
 30
0.0
 11
115.9062641013667
 21
133.30886177182651
 31
0.0
  0
LINE
  5
D3E
 67
     1
  8
AM_VIS
 10
129.9062641013667
 20
126.1088617718263
 30
0.0
 11
129.9062641013667
 21
130.1088617718265
 31
0.0
  0
LINE
  5
D3F
 67
     1
  8
AM_VIS
 10
131.6383149089356
 20
127.1088617718264
 30
0.0
 11
131.6383149089356
 21
125.1088617718265
 31
0.0
  0
LINE
  5
D40
 67
     1
  8
AM_VIS
 10
116.7062641013667
 20
134.1088617718263
 30
0.0
 11
116.7062641013667
 21
126.1088617718262
 31
0.0
  0
LINE
  5
D41
 67
     1
  8
AM_VIS
 10
134.40626410136679
 20
42.481091834385602
 30
0.0
 11
170.90626410136679
 21
42.481091834385602
 31
0.0
  0
LINE
  5
D42
 67
     1
  8
AM_VIS
 10
170.90626410136679
 20
79.250644456086377
 30
0.0
 11
134.40626410136679
 21
79.250644456086377
 31
0.0
  0
LINE
  5
D43
 67
     1
  8
AM_VIS
 10
134.40626410136679
 20
75.149409464590065
 30
0.0
 11
134.40626410136679
 21
58.451654582863128
 31
0.0
  0
LINE
  5
D44
 67
     1
  8
AM_VIS
 10
134.40626410136679
 20
57.744547801676667
 30
0.0
 11
134.40626410136679
 21
42.773985053199553
 31
0.0
  0
LINE
  5
D45
 67
     1
  8
AM_VIS
 10
170.90626410136679
 20
42.773985053199389
 30
0.0
 11
170.90626410136679
 21
57.744547801676511
 31
0.0
  0
LINE
  5
D46
 67
     1
  8
AM_VIS
 10
170.90626410136679
 20
58.451654582863107
 30
0.0
 11
170.90626410136679
 21
75.149409464590036
 31
0.0
  0
CIRCLE
  5
D49
 67
     1
  8
AM_VIS
 10
144.90626410136679
 20
64.950644456086195
 30
0.0
 40
2.1669999999999989
  0
CIRCLE
  5
D4C
 67
     1
  8
AM_VIS
 10
165.40626410136679
 20
64.950644456086195
 30
0.0
 40
2.1669999999999989
  0
LINE
  5
D4D
 67
     1
  8
AM_VIS
 10
134.40626410136679
 20
79.023301181012869
 30
0.0
 11
134.40626410136679
 21
79.250644456086064
 31
0.0
  0
LINE
  5
D4E
 67
     1
  8
AM_VIS
 10
134.40626410136679
 20
75.784233523227897
 30
0.0
 11
134.40626410136679
 21
79.023301181012926
 31
0.0
  0
LINE
  5
D4F
 67
     1
  8
AM_VIS
 10
134.40626410136679
 20
75.149409464589837
 30
0.0
 11
134.40626410136679
 21
75.78423352322784
 31
0.0
  0
LINE
  5
D50
 67
     1
  8
AM_VIS
 10
134.40626410136679
 20
57.744547801676667
 30
0.0
 11
134.40626410136679
 21
58.451654582863057
 31
0.0
  0
LINE
  5
D51
 67
     1
  8
AM_VIS
 10
134.40626410136679
 20
42.481091834386064
 30
0.0
 11
134.40626410136679
 21
42.773985053199361
 31
0.0
  0
LINE
  5
D52
 67
     1
  8
AM_VIS
 10
170.90626410136679
 20
42.773985053199389
 30
0.0
 11
170.90626410136679
 21
42.481091834386092
 31
0.0
  0
LINE
  5
D53
 67
     1
  8
AM_VIS
 10
170.90626410136679
 20
58.451654582862879
 30
0.0
 11
170.90626410136679
 21
57.744547801676497
 31
0.0
  0
LINE
  5
D54
 67
     1
  8
AM_VIS
 10
170.90626410136679
 20
75.784233523227897
 30
0.0
 11
170.90626410136679
 21
75.149409464589894
 31
0.0
  0
LINE
  5
D55
 67
     1
  8
AM_VIS
 10
170.90626410136679
 20
79.023301181012869
 30
0.0
 11
170.90626410136679
 21
75.78423352322784
 31
0.0
  0
LINE
  5
D56
 67
     1
  8
AM_VIS
 10
170.90626410136679
 20
79.25064445608615
 30
0.0
 11
170.90626410136679
 21
79.023301181012954
 31
0.0
  0
LINE
  5
D5B
 67
     1
  8
AM_VIS
 10
133.9062641013669
 20
64.865868145235765
 30
0.0
 11
131.6383149089356
 21
64.865868145235765
 31
0.0
  0
LINE
  5
D5C
 67
     1
  8
AM_VIS
 10
133.9062641013669
 20
64.865868145235765
 30
0.0
 11
134.4062641013667
 21
65.365868145235851
 31
0.0
  0
LINE
  5
D5D
 67
     1
  8
AM_VIS
 10
129.9062641013667
 20
64.865868145235765
 30
0.0
 11
131.6383149089356
 21
64.865868145235765
 31
0.0
  0
LINE
  5
D5E
 67
     1
  8
AM_VIS
 10
134.4062641013667
 20
56.36586814523622
 30
0.0
 11
133.9062641013669
 21
56.865868145235822
 31
0.0
  0
LINE
  5
D5F
 67
     1
  8
AM_VIS
 10
129.90626410136679
 20
56.865868145235758
 30
0.0
 11
131.6383149089356
 21
56.865868145235758
 31
0.0
  0
LINE
  5
D60
 67
     1
  8
AM_VIS
 10
131.6383149089356
 20
56.86586814523622
 30
0.0
 11
133.9062641013669
 21
56.86586814523622
 31
0.0
  0
LINE
  5
D61
 67
     1
  8
AM_VIS
 10
129.9062641013667
 20
64.865868145235993
 30
0.0
 11
127.9062641013667
 21
64.865868145235993
 31
0.0
  0
LINE
  5
D62
 67
     1
  8
AM_VIS
 10
129.90626410136679
 20
56.865868145235758
 30
0.0
 11
127.9062641013668
 21
56.865868145235758
 31
0.0
  0
LINE
  5
D63
 67
     1
  8
AM_VIS
 10
115.9062641013668
 20
57.665868145235493
 30
0.0
 11
116.7062641013667
 21
56.865868145235609
 31
0.0
  0
LINE
  5
D64
 67
     1
  8
AM_VIS
 10
115.9062641013668
 20
64.065868145236038
 30
0.0
 11
116.7062641013667
 21
64.865868145235922
 31
0.0
  0
LINE
  5
D65
 67
     1
  8
AM_VIS
 10
127.9062641013667
 20
64.865868145235993
 30
0.0
 11
116.7062641013667
 21
64.865868145235993
 31
0.0
  0
LINE
  5
D66
 67
     1
  8
AM_VIS
 10
127.9062641013667
 20
56.865868145235758
 30
0.0
 11
116.7062641013667
 21
56.865868145235758
 31
0.0
  0
LINE
  5
D67
 67
     1
  8
AM_VIS
 10
115.9062641013667
 20
57.66586814523572
 30
0.0
 11
115.9062641013667
 21
64.065868145236024
 31
0.0
  0
LINE
  5
D68
 67
     1
  8
AM_VIS
 10
129.9062641013667
 20
56.865868145235758
 30
0.0
 11
129.9062641013667
 21
64.865868145235822
 31
0.0
  0
LINE
  5
D69
 67
     1
  8
AM_VIS
 10
131.6383149089356
 20
64.865868145235765
 30
0.0
 11
131.6383149089356
 21
56.865868145235709
 31
0.0
  0
LINE
  5
D6A
 67
     1
  8
AM_VIS
 10
116.7062641013667
 20
64.865868145235993
 30
0.0
 11
116.7062641013667
 21
56.865868145235929
 31
0.0
  0
LINE
  5
D6B
 67
     1
  8
AM_VIS
 10
216.66388808927019
 20
145.41772358451431
 30
0.0
 11
218.89457530890709
 21
145.41772358451431
 31
0.0
  0
LINE
  5
D6C
 67
     1
  8
AM_VIS
 10
218.89457530890709
 20
145.41772358451431
 30
0.0
 11
221.97048980706859
 21
148.49363808267589
 31
0.0
  0
LINE
  5
D6D
 67
     1
  8
AM_VIS
 10
221.9704898070687
 20
148.493638082676
 30
0.0
 11
225.6474294086251
 21
148.493638082676
 31
0.0
  0
LINE
  5
D6E
 67
     1
  8
AM_VIS
 10
229.7486644001207
 20
144.39240309118031
 30
0.0
 11
229.7486644001207
 21
127.69464820945279
 31
0.0
  0
LINE
  5
D6F
 67
     1
  8
AM_VIS
 10
229.45577118130711
 20
126.987541428266
 30
0.0
 11
214.48520843283001
 21
112.01697867978891
 31
0.0
  0
LINE
  5
D70
 67
     1
  8
AM_VIS
 10
213.7781016516434
 20
111.7240854609756
 30
0.0
 11
197.08034676991639
 21
111.7240854609756
 31
0.0
  0
LINE
  5
D71
 67
     1
  8
AM_VIS
 10
192.9791117784201
 20
115.8253204524718
 30
0.0
 11
192.9791117784201
 21
119.5022600540275
 31
0.0
  0
LINE
  5
D72
 67
     1
  8
AM_VIS
 10
192.9791117784203
 20
119.5022600540275
 30
0.0
 11
196.05502627658171
 21
122.5781745521889
 31
0.0
  0
LINE
  5
D73
 67
     1
  8
AM_VIS
 10
196.05502627658149
 20
122.5781745521889
 30
0.0
 11
196.05502627658149
 21
124.8088617718261
 31
0.0
  0
LINE
  5
D74
 67
     1
  8
AM_VIS
 10
198.7538880892703
 20
125.1088617718262
 30
0.0
 11
196.3550262765817
 21
125.1088617718262
 31
0.0
  0
LINE
  5
D75
 67
     1
  8
AM_VIS
 10
199.05388808927009
 20
133.80886177182629
 30
0.0
 11
199.05388808927009
 21
125.4088617718263
 31
0.0
  0
LINE
  5
D76
 67
     1
  8
AM_VIS
 10
198.1538880892702
 20
134.1088617718263
 30
0.0
 11
198.75388808927011
 21
134.1088617718263
 31
0.0
  0
LINE
  5
D77
 67
     1
  8
AM_VIS
 10
197.85388808926999
 20
132.70886177182621
 30
0.0
 11
197.85388808926999
 21
133.8088617718262
 31
0.0
  0
LINE
  5
D78
 67
     1
  8
AM_VIS
 10
196.3550262765817
 20
132.40886177182631
 30
0.0
 11
197.55388808927049
 21
132.40886177182631
 31
0.0
  0
LINE
  5
D79
 67
     1
  8
AM_VIS
 10
196.05502627658149
 20
132.70886177182629
 30
0.0
 11
196.05502627658149
 21
135.59898983236039
 31
0.0
  0
LINE
  5
D7A
 67
     1
  8
AM_VIS
 10
196.34791949539479
 20
136.30609661354691
 30
0.0
 11
205.16665324754911
 21
145.1248303657012
 31
0.0
  0
LINE
  5
D7B
 67
     1
  8
AM_VIS
 10
205.873760028736
 20
145.41772358451439
 30
0.0
 11
208.76388808927041
 21
145.41772358451439
 31
0.0
  0
LINE
  5
D7C
 67
     1
  8
AM_VIS
 10
209.06388808927031
 20
143.9188617718263
 30
0.0
 11
209.06388808927031
 21
145.11772358451449
 31
0.0
  0
LINE
  5
D7D
 67
     1
  8
AM_VIS
 10
207.66388808927019
 20
143.61886177182609
 30
0.0
 11
208.76388808927021
 21
143.61886177182609
 31
0.0
  0
LINE
  5
D7E
 67
     1
  8
AM_VIS
 10
207.36388808927029
 20
142.7188617718262
 30
0.0
 11
207.3638880892704
 21
143.31886177182631
 31
0.0
  0
LINE
  5
D7F
 67
     1
  8
AM_VIS
 10
216.06388808927031
 20
142.4188617718263
 30
0.0
 11
207.6638880892703
 21
142.4188617718263
 31
0.0
  0
LINE
  5
D80
 67
     1
  8
AM_VIS
 10
216.3638880892702
 20
145.11772358451441
 30
0.0
 11
216.3638880892702
 21
142.71886177182611
 31
0.0
  0
CIRCLE
  5
D81
 67
     1
  8
AM_VIS
 10
224.09181015062779
 20
142.83678383318389
 30
0.0
 40
2.75
  0
CIRCLE
  5
D82
 67
     1
  8
AM_VIS
 10
198.6359660279123
 20
117.3809397104682
 30
0.0
 40
2.75
  0
CIRCLE
  5
D85
 67
     1
  8
AM_VIS
 10
224.09181015062779
 20
142.83678383318389
 30
0.0
 40
4.1999999999999993
  0
CIRCLE
  5
D86
 67
     1
  8
AM_VIS
 10
198.6359660279123
 20
117.3809397104682
 30
0.0
 40
4.5
  0
CIRCLE
  5
D87
 67
     1
  8
AM_VIS
 10
224.09181015062779
 20
142.83678383318389
 30
0.0
 40
4.5
  0
ARC
  5
D88
 67
     1
  8
AM_VIS
 10
225.64742940862519
 20
147.493638082676
 30
0.0
 40
1.0
 50
50.593063553382898
 51
90.0
  0
ARC
  5
D89
 67
     1
  8
AM_VIS
 10
211.36388808927001
 20
130.10886177182621
 30
0.0
 40
23.5
 50
39.406936446613599
 51
50.593063553382898
  0
ARC
  5
D8A
 67
     1
  8
AM_VIS
 10
228.74866440012059
 20
144.3924030911802
 30
0.0
 40
1.0
 50
0.0
 51
39.406936446617088
  0
ARC
  5
D8B
 67
     1
  8
AM_VIS
 10
228.74866440012059
 20
127.69464820945259
 30
0.0
 40
1.0
 50
315.0
 51
0.0
  0
ARC
  5
D8C
 67
     1
  8
AM_VIS
 10
213.7781016516434
 20
112.7240854609755
 30
0.0
 40
1.0
 50
270.0
 51
315.0
  0
ARC
  5
D8D
 67
     1
  8
AM_VIS
 10
197.08034676991659
 20
112.7240854609755
 30
0.0
 40
0.9999999999999998
 50
230.5930635533829
 51
270.0
  0
ARC
  5
D8E
 67
     1
  8
AM_VIS
 10
211.36388808927001
 20
130.10886177182621
 30
0.0
 40
23.5
 50
219.40693644661479
 51
230.593063553387
  0
ARC
  5
D8F
 67
     1
  8
AM_VIS
 10
193.9791117784201
 20
115.825320452472
 30
0.0
 40
1.0
 50
180.0
 51
219.4069364466171
  0
ARC
  5
D90
 67
     1
  8
AM_VIS
 10
196.3550262765815
 20
124.8088617718263
 30
0.0
 40
0.3
 50
90.0
 51
180.0
  0
ARC
  5
D91
 67
     1
  8
AM_VIS
 10
198.7538880892703
 20
125.4088617718263
 30
0.0
 40
0.3
 50
270.0
 51
0.0
  0
ARC
  5
D92
 67
     1
  8
AM_VIS
 10
198.7538880892703
 20
133.80886177182629
 30
0.0
 40
0.3
 50
0.0
 51
90.0
  0
ARC
  5
D93
 67
     1
  8
AM_VIS
 10
198.1538880892702
 20
133.80886177182609
 30
0.0
 40
0.3
 50
90.0
 51
180.0
  0
ARC
  5
D94
 67
     1
  8
AM_VIS
 10
197.55388808927009
 20
132.70886177182629
 30
0.0
 40
0.3
 50
270.0
 51
0.0
  0
ARC
  5
D95
 67
     1
  8
AM_VIS
 10
196.3550262765817
 20
132.70886177182629
 30
0.0
 40
0.3
 50
180.0
 51
270.0
  0
ARC
  5
D96
 67
     1
  8
AM_VIS
 10
197.05502627658149
 20
135.5989898323603
 30
0.0
 40
1.0
 50
135.0
 51
180.0
  0
ARC
  5
D97
 67
     1
  8
AM_VIS
 10
205.87376002873569
 20
144.41772358451459
 30
0.0
 40
1.0
 50
90.0
 51
135.0
  0
ARC
  5
D98
 67
     1
  8
AM_VIS
 10
208.7638880892701
 20
145.11772358451441
 30
0.0
 40
0.3
 50
0.0
 51
90.0
  0
ARC
  5
D99
 67
     1
  8
AM_VIS
 10
208.7638880892701
 20
143.91886177182619
 30
0.0
 40
0.3
 50
270.0
 51
0.0
  0
ARC
  5
D9A
 67
     1
  8
AM_VIS
 10
207.66388808927019
 20
143.31886177182619
 30
0.0
 40
0.3
 50
90.0
 51
180.0
  0
ARC
  5
D9B
 67
     1
  8
AM_VIS
 10
207.66388808927019
 20
142.71886177182611
 30
0.0
 40
0.3
 50
180.0
 51
270.0
  0
ARC
  5
D9C
 67
     1
  8
AM_VIS
 10
216.06388808927011
 20
142.7188617718262
 30
0.0
 40
0.3
 50
270.0
 51
0.0
  0
ARC
  5
D9D
 67
     1
  8
AM_VIS
 10
216.66388808927019
 20
145.11772358451461
 30
0.0
 40
0.3
 50
90.0
 51
180.0
  0
CIRCLE
  5
D9E
 67
     1
  8
AM_VIS
 10
198.6359660279123
 20
117.3809397104682
 30
0.0
 40
4.7999999999999998
  0
CIRCLE
  5
D9F
 67
     1
  8
AM_VIS
 10
211.36388808927001
 20
130.10886177182621
 30
0.0
 40
9.4500000000000011
  0
CIRCLE
  5
DA0
 67
     1
  8
AM_VIS
 10
211.36388808927001
 20
130.10886177182621
 30
0.0
 40
9.1500000000000004
  0
CIRCLE
  5
DA1
 67
     1
  8
AM_VIS
 10
211.36388808927001
 20
130.10886177182621
 30
0.0
 40
8.75
  0
DIMENSION
  5
DA3
 67
     1
  8
AM_5
  2
*D11
 10
127.9062641013667
 20
113.58283516865519
 30
0.0
 11
121.9062641013667
 21
116.08283516865519
 31
0.0
 70
     0
 13
115.9062641013667
 23
126.9088617718262
 33
0.0
 14
127.9062641013667
 24
126.1088617718263
 34
0.0
 50
0.0000000000001018
1001
ACAD
1000
DSTYLE
1002
{
1070
   287
1070
     3
1070
   176
1070
     5
1070
   177
1070
     5
1070
   178
1070
     5
1070
   272
1070
     2
1070
   289
1070
     3
1002
}
  0
DIMENSION
  5
DE5
 67
     1
  8
AM_5
  2
*D12
 10
115.9062641013667
 20
105.58283516865519
 30
0.0
 11
122.9062641013667
 21
108.08283516865519
 31
0.0
 70
     0
 13
129.9062641013667
 23
126.1088617718263
 33
0.0
 14
115.9062641013667
 24
126.9088617718262
 34
0.0
 50
0.0000000000001018
1001
ACAD
1000
DSTYLE
1002
{
1070
   287
1070
     3
1070
   176
1070
     5
1070
   177
1070
     5
1070
   178
1070
     5
1070
   272
1070
     2
1070
   289
1070
     3
1002
}
  0
DIMENSION
  5
E06
 67
     1
  8
AM_5
  2
*D13
 10
134.40626410136679
 20
97.582835168655265
 30
0.0
 11
125.1562641013667
 21
100.08283516865519
 31
0.0
 70
     0
 13
115.9062641013667
 23
126.9088617718262
 33
0.0
 14
134.40626410136679
 24
111.7240854609756
 34
0.0
 50
0.0000000000001018
1001
ACAD
1000
DSTYLE
1002
{
1070
   287
1070
     3
1070
   176
1070
     5
1070
   177
1070
     5
1070
   178
1070
     5
1070
   272
1070
     2
1070
   289
1070
     3
1002
}
  0
DIMENSION
  5
E27
 67
     1
  8
AM_5
  2
*D14
 10
170.90626410136679
 20
97.582835168655322
 30
0.0
 11
152.65626410136679
 21
100.08283516865529
 31
0.0
 70
     0
  1
31.5+Stroke
 13
134.40626410136679
 23
111.7240854609756
 33
0.0
 14
170.90626410136679
 24
111.7240854609756
 34
0.0
 50
0.0000000000001018
1001
ACAD
1000
DSTYLE
1002
{
1070
   287
1070
     3
1070
   176
1070
     5
1070
   177
1070
     5
1070
   178
1070
     5
1070
   272
1070
     2
1070
   289
1070
     3
1002
}
  0
DIMENSION
  5
E51
 67
     1
  8
AM_5
  2
*D15
 10
115.9062641013667
 20
89.582835168655237
 30
0.0
 11
143.4062641013667
 21
92.082835168655237
 31
0.0
 70
     0
  1
50+Stroke
 13
170.90626410136679
 23
111.9514287360489
 33
0.0
 14
115.9062641013667
 24
126.9088617718262
 34
0.0
 50
0.0000000000001018
1001
ACAD
1000
DSTYLE
1002
{
1070
   287
1070
     3
1070
   176
1070
     5
1070
   177
1070
     5
1070
   178
1070
     5
1070
   272
1070
     2
1070
   289
1070
     3
1002
}
  0
INSERT
  5
E84
 67
     1
  8
0
 62
     5
  2
*U26
 10
0.0
 20
0.0
 30
0.0
1001
ACAD
1000
DSTYLE
1002
{
1070
   147
1040
1.5
1070
    77
1070
     0
1070
   176
1070
     5
1070
   177
1070
     5
1070
   178
1070
     5
1070
   272
1070
     2
1070
   289
1070
     3
1002
}
  0
TEXT
  5
E85
 67
     1
  8
0
 62
     5
 10
96.737250513655226
 20
146.4433371489007
 30
0.0
 40
3.0
  1
M8*1.25
  0
TEXT
  5
EBA
 67
     1
  8
0
 62
     5
 10
6.8001140067786991
 20
349.29008278875551
 30
0.0
 40
5.0
  1
MCJQ2-12-20
  0
TEXT
  5
EC2
 67
     1
  8
0
 62
     5
 10
7.0507923541192659
 20
162.19852583610111
 30
0.0
 40
5.0
  1
MCJQ2-11-20
  0
TEXT
  5
FC4
 67
     1
  8
0
 62
     5
 10
76.429767686096739
 20
241.28011160370369
 30
0.0
 40
3.0
  1

  0
ARC
  5
FD5
 67
     1
  8
AM_VIS
 10
58.193284325350099
 20
305.36201319756969
 30
0.0
 40
1.0
 50
90.0
 51
129.4069364466169
  0
DIMENSION
  5
FDD
 67
     1
  8
AM_5
  2
*D16
 10
122.39926999389171
 20
227.34943146764689
 30
0.0
 11
119.89926999389159
 21
231.3494314676467
 31
0.0
 70
     0
 13
129.90626410136679
 23
235.3494314676465
 33
0.0
 14
129.90626410136679
 24
227.34943146764689
 34
0.0
 50
90.0
1001
ACAD
1000
DSTYLE
1002
{
1070
   287
1070
     3
1070
   176
1070
     5
1070
   177
1070
     5
1070
   178
1070
     5
1070
   272
1070
     2
1070
   289
1070
     3
1002
}
  0
DIMENSION
  5
1031
 67
     1
  8
AM_5
  2
*D17
 10
170.90626410136679
 20
30.481091834385669
 30
0.0
 11
181.0491212442239
 21
32.981091834385673
 31
0.0
 70
     0
 13
165.40626410136679
 23
62.458594456086217
 33
0.0
 14
170.90626410136679
 24
42.481091834386092
 34
0.0
 50
0.0000000000001018
1001
ACAD
1000
DSTYLE
1002
{
1070
   287
1070
     3
1070
   176
1070
     5
1070
   177
1070
     5
1070
   178
1070
     5
1070
   272
1070
     2
1070
   289
1070
     3
1002
}
  0
DIMENSION
  5
1058
 67
     1
  8
AM_5
  2
*D18
 10
134.40626410136679
 20
30.481091834385609
 30
0.0
 11
126.1205498156525
 21
32.981091834385609
 31
0.0
 70
     0
 13
144.90626410136679
 23
62.458594456086217
 33
0.0
 14
134.40626410136679
 24
42.481091834385602
 34
0.0
 50
0.0000000000001018
1001
ACAD
1000
DSTYLE
1002
{
1070
   287
1070
     3
1070
   176
1070
     5
1070
   177
1070
     5
1070
   178
1070
     5
1070
   272
1070
     2
1070
   289
1070
     3
1002
}
  0
LINE
  5
11EE
 67
     1
  8
SL
  6
ACISOTGB
 10
155.8438509924199
 20
264.44690544694959
 30
0.0
 11
155.8438509924199
 21
312.447740356005
 31
0.0
  0
INSERT
  5
11EF
 67
     1
  8
0
  2
A$C2B8D1ACD
 10
155.84385110195399
 20
310.76244017893231
 30
0.0
  0
LINE
  5
11F0
 67
     1
  8
SL
  6
ACISOTGB
 10
155.8438509924199
 20
206.1818030782774
 30
0.0
 11
155.8438509924199
 21
254.1826379873329
 31
0.0
  0
INSERT
  5
11F1
 67
     1
  8
0
  2
A$C2B8D1ACD
 10
155.84385110195399
 20
252.49733781026009
 30
0.0
  0
LINE
  5
11F2
 67
     1
  8
SL
  6
ACISOTGB
 10
155.8438509924199
 20
109.0767533808591
 30
0.0
 11
155.8438509924199
 21
152.46984077930529
 31
0.0
  0
INSERT
  5
11F3
 67
     1
  8
0
  2
A$C2B8D1ACD
 10
155.84385110195399
 20
150.78454060223251
 30
0.0
  0
LINE
  5
11F4
 67
     1
  8
SL
  6
ACISOTGB
 10
155.8438509924199
 20
34.022496927553448
 30
0.0
 11
155.8438509924199
 21
82.023331836608918
 31
0.0
  0
INSERT
  5
11F5
 67
     1
  8
0
  2
A$C2B8D1ACD
 10
155.84385110195399
 20
80.338031659536171
 30
0.0
  0
LINE
  5
1316
 67
     1
  8
AM_7
 10
72.476825698117779
 20
130.10886177182621
 30
0.0
 11
72.476825698117779
 21
130.10886177182621
 31
0.0
  0
LINE
  5
1317
 67
     1
  8
AM_7
 10
72.476825698117779
 20
130.10886177182621
 30
0.0
 11
72.476825698117779
 21
130.10886177182621
 31
0.0
  0
LINE
  5
1318
 67
     1
  8
AM_7
 10
49.681668983200183
 20
130.10886177182621
 30
0.0
 11
91.141772006056271
 21
130.10886177182621
 31
0.0
  0
LINE
  5
1319
 67
     1
  8
AM_7
 10
72.476825698117779
 20
108.2925244028059
 30
0.0
 11
72.476825698117779
 21
149.0263617718262
 31
0.0
  0
LINE
  5
131A
 67
     1
  8
AM_7
 10
72.476825698118745
 20
287.97723678988189
 30
0.0
 11
72.476825698118745
 21
287.97723678988189
 31
0.0
  0
LINE
  5
131B
 67
     1
  8
AM_7
 10
72.476825698118745
 20
287.97723678988189
 30
0.0
 11
72.476825698118745
 21
287.97723678988189
 31
0.0
  0
LINE
  5
131C
 67
     1
  8
AM_7
 10
49.424496990292958
 20
287.97723678988189
 30
0.0
 11
90.884600013149054
 21
287.97723678988189
 31
0.0
  0
LINE
  5
131D
 67
     1
  8
AM_7
 10
72.476825698118745
 20
266.1608994208616
 30
0.0
 11
72.476825698118745
 21
306.8947367898819
 31
0.0
  0
LINE
  5
131E
 67
     1
  8
AM_7
 10
211.36388808927049
 20
287.97723678988211
 30
0.0
 11
211.36388808927049
 21
287.97723678988211
 31
0.0
  0
LINE
  5
131F
 67
     1
  8
AM_7
 10
211.36388808927049
 20
287.97723678988211
 30
0.0
 11
211.36388808927049
 21
287.97723678988211
 31
0.0
  0
LINE
  5
1320
 67
     1
  8
AM_7
 10
192.4463880892705
 20
287.97723678988211
 30
0.0
 11
233.90649111212659
 21
287.97723678988211
 31
0.0
  0
LINE
  5
1321
 67
     1
  8
AM_7
 10
211.36388808927049
 20
266.16089942086199
 30
0.0
 11
211.36388808927049
 21
306.89473678988219
 31
0.0
  0
DIMENSION
  5
13F3
 67
     1
  8
AM_5
  2
*D20
 10
61.213586859942339
 20
296.13408643267837
 30
0.0
 11
37.977996471301452
 21
327.18626447524889
 31
0.0
 70
   131
  1
2-%%c5.5thru
 15
58.284220413579881
 25
305.27623126980092
 35
0.0
 40
0.0
1001
ACAD
1000
DSTYLE
1002
{
1070
   287
1070
     3
1070
    40
1040
1.0
1070
   144
1040
1.0
1070
   176
1070
     5
1070
   177
1070
     5
1070
   178
1070
     5
1070
   272
1070
     2
1070
   289
1070
     3
1002
}
  0
DIMENSION
  5
1418
 67
     1
  8
AM_5
  2
*D21
 10
83.710219824584243
 20
277.55775278310239
 30
0.0
 11
119.2215268182196
 21
259.66713533108509
 31
0.0
 70
   131
  1
2*2-M6*1.0*10depth
 15
86.699275694369064
 25
272.94087667394541
 35
0.0
 40
0.0
1001
ACAD
1000
DSTYLE
1002
{
1070
   287
1070
     3
1070
    40
1040
1.0
1070
   144
1040
1.0
1070
   176
1070
     5
1070
   177
1070
     5
1070
   178
1070
     5
1070
   272
1070
     2
1070
   289
1070
     3
1002
}
  0
DIMENSION
  5
143E
 67
     1
  8
AM_5
  2
*D22
 10
165.40626410136679
 20
64.950644456086451
 30
0.0
 11
186.97052664226129
 21
72.034216054323622
 31
0.0
 70
   132
  1
2-M5*0.8
 15
167.53334508963141
 25
66.480326275734853
 35
0.0
 40
0.0
1001
ACAD
1000
DSTYLE
1002
{
1070
   287
1070
     3
1070
    40
1040
1.0
1070
   144
1040
1.0
1070
   176
1070
     5
1070
   177
1070
     5
1070
   178
1070
     5
1070
   272
1070
     2
1070
   289
1070
     3
1002
}
  0
ENDSEC
  0
EOF
