  0
SECTION
  2
HEADER
  9
$ACADVER
  1
AC1015
  9
$ACADMAINTVER
 70
    20
  9
$DWGCODEPAGE
  3
ANSI_950
  9
$INSBASE
 10
0.0
 20
0.0
 30
0.0
  9
$EXTMIN
 10
-15.16624538041401
 20
-21.71070935876173
 30
-0.0077755597907867
  9
$EXTMAX
 10
307.93956186945
 20
406.556347559191
 30
254.8167600553144
  9
$LIMMIN
 10
0.0
 20
0.0
  9
$LIMMAX
 10
12.0
 20
9.0
  9
$ORTHOMODE
 70
     1
  9
$REGENMODE
 70
     1
  9
$FILLMODE
 70
     1
  9
$QTEXTMODE
 70
     0
  9
$MIRRTEXT
 70
     1
  9
$LTSCALE
 40
5.0
  9
$ATTMODE
 70
     1
  9
$TEXTSIZE
 40
4.5
  9
$TRACEWID
 40
0.05
  9
$TEXTSTYLE
  7
CHINESET
  9
$CLAYER
  8
0
  9
$CELTYPE
  6
ByLayer
  9
$CECOLOR
 62
   256
  9
$CELTSCALE
 40
1.0
  9
$DISPSILH
 70
     0
  9
$DIMSCALE
 40
1.0
  9
$DIMASZ
 40
3.0
  9
$DIMEXO
 40
3.0
  9
$DIMDLI
 40
2.0
  9
$DIMRND
 40
0.0
  9
$DIMDLE
 40
0.0
  9
$DIMEXE
 40
2.0
  9
$DIMTP
 40
0.0
  9
$DIMTM
 40
0.0
  9
$DIMTXT
 40
3.0
  9
$DIMCEN
 40
-3.0
  9
$DIMTSZ
 40
0.0
  9
$DIMTOL
 70
     0
  9
$DIMLIM
 70
     0
  9
$DIMTIH
 70
     0
  9
$DIMTOH
 70
     0
  9
$DIMSE1
 70
     0
  9
$DIMSE2
 70
     0
  9
$DIMTAD
 70
     1
  9
$DIMZIN
 70
     8
  9
$DIMBLK
  1

  9
$DIMASO
 70
     1
  9
$DIMSHO
 70
     1
  9
$DIMPOST
  1

  9
$DIMAPOST
  1

  9
$DIMALT
 70
     0
  9
$DIMALTD
 70
     2
  9
$DIMALTF
 40
25.4
  9
$DIMLFAC
 40
1.0
  9
$DIMTOFL
 70
     1
  9
$DIMTVP
 40
0.0
  9
$DIMTIX
 70
     0
  9
$DIMSOXD
 70
     0
  9
$DIMSAH
 70
     0
  9
$DIMBLK1
  1

  9
$DIMBLK2
  1

  9
$DIMSTYLE
  2
ISO-25-1
  9
$DIMCLRD
 70
   256
  9
$DIMCLRE
 70
   256
  9
$DIMCLRT
 70
   256
  9
$DIMTFAC
 40
0.7
  9
$DIMGAP
 40
1.0
  9
$DIMJUST
 70
     0
  9
$DIMSD1
 70
     0
  9
$DIMSD2
 70
     0
  9
$DIMTOLJ
 70
     1
  9
$DIMTZIN
 70
     8
  9
$DIMALTZ
 70
     0
  9
$DIMALTTZ
 70
     0
  9
$DIMUPT
 70
     0
  9
$DIMDEC
 70
     2
  9
$DIMTDEC
 70
     8
  9
$DIMALTU
 70
     2
  9
$DIMALTTD
 70
     2
  9
$DIMTXSTY
  7
CHINESET
  9
$DIMAUNIT
 70
     0
  9
$DIMADEC
 70
     0
  9
$DIMALTRND
 40
0.0
  9
$DIMAZIN
 70
     2
  9
$DIMDSEP
 70
    46
  9
$DIMATFIT
 70
     0
  9
$DIMFRAC
 70
     0
  9
$DIMLDRBLK
  1

  9
$DIMLUNIT
 70
     2
  9
$DIMLWD
 70
    -1
  9
$DIMLWE
 70
    -1
  9
$DIMTMOVE
 70
     0
  9
$LUNITS
 70
     2
  9
$LUPREC
 70
     2
  9
$SKETCHINC
 40
0.1
  9
$FILLETRAD
 40
0.5
  9
$AUNITS
 70
     0
  9
$AUPREC
 70
     0
  9
$MENU
  1
.
  9
$ELEVATION
 40
0.0
  9
$PELEVATION
 40
0.0
  9
$THICKNESS
 40
0.0
  9
$LIMCHECK
 70
     0
  9
$CHAMFERA
 40
0.0
  9
$CHAMFERB
 40
0.0
  9
$CHAMFERC
 40
1.0
  9
$CHAMFERD
 40
0.0
  9
$SKPOLY
 70
     0
  9
$TDCREATE
 40
2452019.631085301
  9
$TDUCREATE
 40
2452019.297751968
  9
$TDUPDATE
 40
2454308.388934815
  9
$TDUUPDATE
 40
2454308.055601481
  9
$TDINDWG
 40
0.4180148380
  9
$TDUSRTIMER
 40
0.4180148380
  9
$USRTIMER
 70
     1
  9
$ANGBASE
 50
0.0
  9
$ANGDIR
 70
     0
  9
$PDMODE
 70
     0
  9
$PDSIZE
 40
0.0
  9
$PLINEWID
 40
0.0
  9
$SPLFRAME
 70
     0
  9
$SPLINETYPE
 70
     6
  9
$SPLINESEGS
 70
     8
  9
$HANDSEED
  5
6144
  9
$SURFTAB1
 70
     6
  9
$SURFTAB2
 70
     6
  9
$SURFTYPE
 70
     6
  9
$SURFU
 70
     6
  9
$SURFV
 70
     6
  9
$UCSBASE
  2

  9
$UCSNAME
  2

  9
$UCSORG
 10
0.0
 20
0.0
 30
0.0
  9
$UCSXDIR
 10
1.0
 20
0.0
 30
0.0
  9
$UCSYDIR
 10
0.0
 20
1.0
 30
0.0
  9
$UCSORTHOREF
  2

  9
$UCSORTHOVIEW
 70
     0
  9
$UCSORGTOP
 10
0.0
 20
0.0
 30
0.0
  9
$UCSORGBOTTOM
 10
0.0
 20
0.0
 30
0.0
  9
$UCSORGLEFT
 10
0.0
 20
0.0
 30
0.0
  9
$UCSORGRIGHT
 10
0.0
 20
0.0
 30
0.0
  9
$UCSORGFRONT
 10
0.0
 20
0.0
 30
0.0
  9
$UCSORGBACK
 10
0.0
 20
0.0
 30
0.0
  9
$PUCSBASE
  2

  9
$PUCSNAME
  2

  9
$PUCSORG
 10
0.0
 20
0.0
 30
0.0
  9
$PUCSXDIR
 10
1.0
 20
0.0
 30
0.0
  9
$PUCSYDIR
 10
0.0
 20
1.0
 30
0.0
  9
$PUCSORTHOREF
  2

  9
$PUCSORTHOVIEW
 70
     0
  9
$PUCSORGTOP
 10
0.0
 20
0.0
 30
0.0
  9
$PUCSORGBOTTOM
 10
0.0
 20
0.0
 30
0.0
  9
$PUCSORGLEFT
 10
0.0
 20
0.0
 30
0.0
  9
$PUCSORGRIGHT
 10
0.0
 20
0.0
 30
0.0
  9
$PUCSORGFRONT
 10
0.0
 20
0.0
 30
0.0
  9
$PUCSORGBACK
 10
0.0
 20
0.0
 30
0.0
  9
$USERI1
 70
     0
  9
$USERI2
 70
     0
  9
$USERI3
 70
     0
  9
$USERI4
 70
     0
  9
$USERI5
 70
     0
  9
$USERR1
 40
0.0
  9
$USERR2
 40
0.0
  9
$USERR3
 40
0.0
  9
$USERR4
 40
0.0
  9
$USERR5
 40
0.0
  9
$WORLDVIEW
 70
     1
  9
$SHADEDGE
 70
     3
  9
$SHADEDIF
 70
    70
  9
$TILEMODE
 70
     1
  9
$MAXACTVP
 70
    48
  9
$PINSBASE
 10
0.0
 20
0.0
 30
0.0
  9
$PLIMCHECK
 70
     0
  9
$PEXTMIN
 10
1.000000000000000E+20
 20
1.000000000000000E+20
 30
1.000000000000000E+20
  9
$PEXTMAX
 10
-1.000000000000000E+20
 20
-1.000000000000000E+20
 30
-1.000000000000000E+20
  9
$PLIMMIN
 10
0.0
 20
0.0
  9
$PLIMMAX
 10
12.0
 20
9.0
  9
$UNITMODE
 70
     0
  9
$VISRETAIN
 70
     1
  9
$PLINEGEN
 70
     0
  9
$PSLTSCALE
 70
     1
  9
$TREEDEPTH
 70
  3020
  9
$CMLSTYLE
  2
Standard
  9
$CMLJUST
 70
     0
  9
$CMLSCALE
 40
1.0
  9
$PROXYGRAPHICS
 70
     1
  9
$MEASUREMENT
 70
     1
  9
$CELWEIGHT
370
    -1
  9
$ENDCAPS
280
     0
  9
$JOINSTYLE
280
     0
  9
$LWDISPLAY
290
     0
  9
$INSUNITS
 70
     1
  9
$HYPERLINKBASE
  1

  9
$STYLESHEET
  1
彩色出圖.ctb
  9
$XEDIT
290
     1
  9
$CEPSNTYPE
380
     0
  9
$PSTYLEMODE
290
     1
  9
$FINGERPRINTGUID
  2
{FDEAD576-A652-11D2-9A35-0060089B3A3F}
  9
$VERSIONGUID
  2
{091C6119-CA5B-4C4F-A692-58798AB10BA8}
  9
$EXTNAMES
290
     1
  9
$PSVPSCALE
 40
0.0
  9
$OLESTARTUP
290
     0
  0
ENDSEC
  0
SECTION
  2
CLASSES
  0
CLASS
  1
ACDBDICTIONARYWDFLT
  2
AcDbDictionaryWithDefault
  3
ObjectDBX Classes
 90
        0
280
     0
281
     0
  0
CLASS
  1
ACDBPLACEHOLDER
  2
AcDbPlaceHolder
  3
ObjectDBX Classes
 90
        0
280
     0
281
     0
  0
CLASS
  1
LAYOUT
  2
AcDbLayout
  3
ObjectDBX Classes
 90
        0
280
     0
281
     0
  0
CLASS
  1
DICTIONARYVAR
  2
AcDbDictionaryVar
  3
ObjectDBX Classes
 90
        0
280
     0
281
     0
  0
CLASS
  1
ACME_DOCUMENT
  2
AcMeDbDoc
  3
AcMeServices
 90
        0
280
     0
281
     0
  0
CLASS
  1
AMGSETTINGSOBJ
  2
AmgSettingsObj
  3
"AcadM|Product Description: AutoCAD Mechanical 2000|Company: Autodesk"
 90
        0
280
     0
281
     0
  0
CLASS
  1
ACMESCOPE
  2
AcMeScope
  3
AcMeServices
 90
        0
280
     0
281
     0
  0
CLASS
  1
ACMECOMMANDHISTORY
  2
AcMeCommandHistory
  3
AcMeServices
 90
        0
280
     0
281
     0
  0
CLASS
  1
ACIMSYSVARMAN
  2
AcImSysVarManager
  3
AcMeServices
 90
        0
280
     0
281
     0
  0
CLASS
  1
ACIMREALSYSVAR
  2
AcImRealSysVar
  3
AcMeServices
 90
        0
280
     0
281
     0
  0
CLASS
  1
ACIMINTSYSVAR
  2
AcImIntSysVar
  3
AcMeServices
 90
        0
280
     0
281
     0
  0
CLASS
  1
ACMEDRAWINGMAN
  2
AcMeDrawingMan
  3
AcMeServices
 90
        0
280
     0
281
     0
  0
CLASS
  1
ACMEVIEW
  2
AcMeView
  3
AcMeServices
 90
        0
280
     0
281
     0
  0
CLASS
  1
ACDBENTITYCACHE
  2
AcMeEntityCache
  3
AcMeServices
 90
        0
280
     0
281
     0
  0
CLASS
  1
GSMANAGER
  2
AcMeGSManager
  3
AcMeServices
 90
        0
280
     0
281
     0
  0
CLASS
  1
AMDTINTERNALREACTOR
  2
AmdtInternalReactor
  3
AcMeServices
 90
        0
280
     0
281
     0
  0
CLASS
  1
ACMESTATEMGR
  2
AcMeStateMgr
  3
AcMeServices
 90
        0
280
     0
281
     0
  0
CLASS
  1
ACGREFMASTER
  2
AcGrefMaster
  3
AcAttribServices
 90
        0
280
     0
281
     0
  0
CLASS
  1
ACME_DATABASE
  2
AcMeDbDatabase
  3
AcMeServices
 90
        0
280
     0
281
     0
  0
CLASS
  1
ACRFINSADJUSTERMGR
  2
AcRfInsAdjusterMgr
  3
AcMeServices
 90
        0
280
     0
281
     0
  0
CLASS
  1
ACGREFACADMASTER
  2
AcGrefacadMaster
  3
AcGrefServices
 90
        0
280
     0
281
     0
  0
CLASS
  1
AMIMASTER
  2
AmiMaster
  3
AmiServices
 90
        0
280
     0
281
     0
  0
CLASS
  1
ACMDATADICTIONARY
  2
AcmDataDictionary
  3
"AcmSymBB|Product Description: AutoCAD Mechanical 2004 DX|Company: Autodesk"
 90
        0
280
     0
281
     0
  0
CLASS
  1
ACMDATAENTRYBLOCK
  2
AcmDataEntryBlock
  3
"AcmSymBB|Product Description: AutoCAD Mechanical 2004 DX|Company: Autodesk"
 90
    32768
280
     0
281
     0
  0
CLASS
  1
ACIMSTRSYSVAR
  2
AcImStrSysVar
  3
AcMeServices
 90
        0
280
     0
281
     0
  0
CLASS
  1
ACMSTANDARDISO
  2
AcmStandardISO
  3
"Amdt_StdImp|Product Description: AutoCAD Mechanical 2004 DX|Company: Autodesk"
 90
        0
280
     0
281
     0
  0
CLASS
  1
AMGOBJPROPCFG
  2
AmgObjPropCfg
  3
"AmgLay|Product Description: AutoCAD Mechanical 2000|Company: Autodesk"
 90
        1
280
     0
281
     0
  0
CLASS
  1
AMDTEDGESTANDARDISO
  2
AmdtEdgeStdISO
  3
"Amdt_StdImp|Product Description: AutoCAD Mechanical 2004 DX|Company: Autodesk"
 90
    32768
280
     0
281
     0
  0
CLASS
  1
ACMSURFSTANDARDISO
  2
AcmSurfTextStdISO
  3
"Amdt_StdImp|Product Description: AutoCAD Mechanical 2004 DX|Company: Autodesk"
 90
        0
280
     0
281
     0
  0
CLASS
  1
ACMFCFSTANDARDISO
  2
AcmFCFStdISO
  3
"Amdt_StdImp|Product Description: AutoCAD Mechanical 2004 DX|Company: Autodesk"
 90
        0
280
     0
281
     0
  0
CLASS
  1
ACMWELDSTANDARDISO
  2
AcmWeldingStdISO
  3
"Amdt_StdImp|Product Description: AutoCAD Mechanical 2004 DX|Company: Autodesk"
 90
        0
280
     0
281
     0
  0
CLASS
  1
ACMIDSTANDARDISO
  2
AcmIdStdISO
  3
"Amdt_StdImp|Product Description: AutoCAD Mechanical 2004 DX|Company: Autodesk"
 90
        0
280
     0
281
     0
  0
CLASS
  1
ACMDATUMSTANDARDISO
  2
AcmDatumStdISO
  3
"Amdt_StdImp|Product Description: AutoCAD Mechanical 2004 DX|Company: Autodesk"
 90
        0
280
     0
281
     0
  0
CLASS
  1
ACMBOMSTANDARDISO
  2
AcmBOMStdISO
  3
"Amdt_StdImp|Product Description: AutoCAD Mechanical 2004 DX|Company: Autodesk"
 90
        0
280
     0
281
     0
  0
CLASS
  1
ACMDETAILSTANDARDISO
  2
AmdtDetailSymStdISO
  3
"Amdt_StdImp|Product Description: AutoCAD Mechanical 2004 DX|Company: Autodesk"
 90
        0
280
     0
281
     0
  0
CLASS
  1
ACMSECTIONSTANDARDISO
  2
AmdtSectionSymStdISO
  3
"Amdt_StdImp|Product Description: AutoCAD Mechanical 2004 DX|Company: Autodesk"
 90
        0
280
     0
281
     0
  0
CLASS
  1
ACMCENTERLINESTANDARDISO
  2
AmdtCenterLineStdISO
  3
"Amdt_StdImp|Product Description: AutoCAD Mechanical 2004 DX|Company: Autodesk"
 90
        0
280
     0
281
     0
  0
CLASS
  1
ACMNOTESTANDARDISO
  2
AmdtNoteStdISO
  3
"Amdt_StdImp|Product Description: AutoCAD Mechanical 2004 DX|Company: Autodesk"
 90
        0
280
     0
281
     0
  0
CLASS
  1
ACAMGLAYSTD
  2
AcAmgLayStd
  3
"AcAmgLayStd|Product Description: AutoCAD Mechanical 2000|Company: Autodesk"
 90
        0
280
     0
281
     0
  0
CLASS
  1
ACAMGDIMSTD
  2
AcAmgDimStd
  3
"AcAmgDimStd|Product Description: AutoCAD Mechanical 2000|Company: Autodesk"
 90
        0
280
     0
281
     0
  0
CLASS
  1
ACAMGHOLECHARTSTDISO
  2
AcAmgHoleChartStdISO
  3
ACMSYMBB_MODULE_NAME
 90
        0
280
     0
281
     0
  0
CLASS
  1
ACAMGTITLESTD
  2
AcAmgTitleStd
  3
"TITLEAPP"
 90
        0
280
     0
281
     0
  0
CLASS
  1
ACAMGFILTERDAT
  2
AcAmgFilterDat
  3
"AcadM|Product Description: AutoCAD Mechanical 2000|Company: Autodesk"
 90
    32768
280
     0
281
     0
  0
CLASS
  1
LAYER_INDEX
  2
AcDbLayerIndex
  3
ObjectDBX Classes
 90
        0
280
     0
281
     0
  0
CLASS
  1
IDBUFFER
  2
AcDbIdBuffer
  3
ObjectDBX Classes
 90
        0
280
     0
281
     0
  0
CLASS
  1
TABLESTYLE
  2
AcDbTableStyle
  3
ObjectDBX Classes
 90
     2047
280
     0
281
     0
  0
CLASS
  1
DIMASSOC
  2
AcDbDimAssoc
  3
"AcDbDimAssoc|Product Desc:     AcDim ARX App For Dimension|Company:          Autodesk, Inc.|WEB Address:      www.autodesk.com"
 90
        0
280
     0
281
     0
  0
CLASS
  1
SORTENTSTABLE
  2
AcDbSortentsTable
  3
ObjectDBX Classes
 90
        0
280
     0
281
     0
  0
CLASS
  1
AM_DRAWING_MGR
  2
AcDmDwgMgr
  3
AcMechDwgViewMgmt
 90
        0
280
     0
281
     0
  0
CLASS
  1
AM_DWG_DOCUMENT
  2
AcDmDwgDocument
  3
AcMechDwgViewMgmt
 90
        0
280
     0
281
     0
  0
CLASS
  1
AM_DWG_SHEET
  2
AcDmSheet
  3
AcMechDwgViewMgmt
 90
        0
280
     0
281
     0
  0
CLASS
  1
AM_VIEWDIMPARMAP
  2
AcDmViewDimParMap
  3
AcMechDwgViewMgmt
 90
        0
280
     0
281
     0
  0
CLASS
  1
AM_DWGMGR_NAME
  2
AcDmDwgMgrName
  3
AcMechDwgViewMgmt
 90
        0
280
     0
281
     0
  0
CLASS
  1
AMDTMENUSTATEMGR
  2
AmdtMenuStateMgr
  3
McadcomServices
 90
        0
280
     0
281
     0
  0
CLASS
  1
AMDTMCOMMENUSTATE
  2
AmdtMcomMenuState
  3
McadcomServices
 90
        0
280
     0
281
     0
  0
CLASS
  1
MAPIAMMOUDLE
  2
MApiAmModule
  3
MApiAmServices
 90
        0
280
     0
281
     0
  0
CLASS
  1
AMDTADMENUSTATE
  2
AmdtAdMenuState
  3
DesignerServices
 90
        0
280
     0
281
     0
  0
CLASS
  1
ADAPPL
  2
AcAdAppl
  3
DesignerServices
 90
        0
280
     0
281
     0
  0
CLASS
  1
DEPMGR
  2
AcAdDepMgr
  3
DesignerServices
 90
        0
280
     0
281
     0
  0
CLASS
  1
PARAMMGR
  2
AcAdParamMgr
  3
DesignerServices
 90
        0
280
     0
281
     0
  0
CLASS
  1
PARAMSCOPE
  2
AcAdParamScope
  3
DesignerServices
 90
        0
280
     0
281
     0
  0
CLASS
  1
NAMEDAPPL
  2
AcAdNamedAppl
  3
DesignerServices
 90
        0
280
     0
281
     0
  0
CLASS
  1
AMDTDMMENUSTATE
  2
AmdtDmMenuState
  3
AcMechDwgViewMgmt
 90
        0
280
     0
281
     0
  0
CLASS
  1
AMDTAMMENUSTATE
  2
AmdtAmMenuState
  3
DesignerAssemblies
 90
        0
280
     0
281
     0
  0
CLASS
  1
ACAMPROJECT
  2
AcAmProject
  3
DesignerAssemblies
 90
        0
280
     0
281
     0
  0
CLASS
  1
ACAMGRCOMPDEF
  2
AcAmGrCompDef
  3
DesignerAssemblies
 90
        0
280
     0
281
     0
  0
CLASS
  1
ACCMCONTEXT
  2
AcCmContext
  3
DesignerAssemblies
 90
        0
280
     0
281
     0
  0
CLASS
  1
ACAMCOMPDEF
  2
AcAmCompDef
  3
DesignerAssemblies
 90
        0
280
     0
281
     0
  0
CLASS
  1
ACAMCOMPDEFMGR
  2
AcAmCompDefMgr
  3
DesignerAssemblies
 90
        0
280
     0
281
     0
  0
CLASS
  1
AMCONTEXTMGR
  2
AcAmContextMgr
  3
DesignerAssemblies
 90
        0
280
     0
281
     0
  0
CLASS
  1
ACAMCONTEXTMODELER
  2
AcAmContextModeler
  3
DesignerAssemblies
 90
        0
280
     0
281
     0
  0
CLASS
  1
CATALOGSTATE
  2
AcAmCatalogState
  3
DesignerAssemblies
 90
        0
280
     0
281
     0
  0
CLASS
  1
ACAMGRCOMPDEFSET
  2
AcAmGrCompDefSet
  3
DesignerAssemblies
 90
        0
280
     0
281
     0
  0
CLASS
  1
AMDTBROWSERDBTAB
  2
AmdtBrowserDbTab
  3
McadcomServices
 90
        0
280
     0
281
     0
  0
CLASS
  1
CBROWSERAPPOBJECT
  2
CBrowserAppObject
  3
McadcomServices
 90
        0
280
     0
281
     0
  0
CLASS
  1
DM_PLACEHOLDER
  2
AcDmSelsetPlaceholder
  3
AcMechDwgViewMgmt
 90
        0
280
     0
281
     0
  0
CLASS
  1
AMDTEDGESTANDARDISO13715
  2
AmdtEdgeStdISO13715
  3
"Amdt_StdImp|Product Description: AutoCAD Mechanical 2004 DX|Company: Autodesk"
 90
        0
280
     0
281
     0
  0
CLASS
  1
ACMTHREADLINESTANDARDISO
  2
AmdtThreadLineStdISO
  3
"Amdt_StdImp|Product Description: AutoCAD Mechanical 2004 DX|Company: Autodesk"
 90
        0
280
     0
281
     0
  0
CLASS
  1
AMDTNOTETEMPLATEDB
  2
AmdtNoteTemplateDB
  3
AMDT_STDIMP_MODULE_NAME
 90
        0
280
     0
281
     0
  0
CLASS
  1
ACRFATTGENMGR
  2
AcRfAttGeneralMgr
  3
AcAttribServices
 90
        0
280
     0
281
     0
  0
ENDSEC
  0
SECTION
  2
TABLES
  0
TABLE
  2
VPORT
  5
8
330
0
100
AcDbSymbolTable
 70
     8
  0
VPORT
  5
613B
330
8
100
AcDbSymbolTableRecord
100
AcDbViewportTableRecord
  2
*Active
 70
     0
 10
0.0
 20
0.0
 11
1.0
 21
1.0
 12
146.386658244518
 22
192.4228191002147
 13
0.0
 23
0.0
 14
0.5
 24
0.5
 15
0.5
 25
0.5
 16
0.0
 26
0.0
 36
1.0
 17
0.0
 27
0.0
 37
0.0
 40
431.7536272592116
 41
1.661684782608695
 42
50.0
 43
0.0
 44
0.0
 50
0.0
 51
0.0
 71
     0
 72
   100
 73
     1
 74
     3
 75
     0
 76
     0
 77
     0
 78
     0
281
     0
 65
     1
110
0.0
120
0.0
130
0.0
111
1.0
121
0.0
131
0.0
112
0.0
122
1.0
132
0.0
 79
     0
146
0.0
  0
ENDTAB
  0
TABLE
  2
LTYPE
  5
5
330
0
100
AcDbSymbolTable
 70
    14
  0
LTYPE
  5
14
330
5
100
AcDbSymbolTableRecord
100
AcDbLinetypeTableRecord
  2
ByBlock
 70
     0
  3

 72
    65
 73
     0
 40
0.0
  0
LTYPE
  5
15
330
5
100
AcDbSymbolTableRecord
100
AcDbLinetypeTableRecord
  2
ByLayer
 70
     0
  3

 72
    65
 73
     0
 40
0.0
  0
LTYPE
  5
16
330
5
100
AcDbSymbolTableRecord
100
AcDbLinetypeTableRecord
  2
Continuous
 70
     0
  3
Solid line
 72
    65
 73
     0
 40
0.0
  0
LTYPE
  5
4F
330
5
100
AcDbSymbolTableRecord
100
AcDbLinetypeTableRecord
  2
CENTER
 70
     0
  3
Center ____ _ ____ _ ____ _ ____ _ ____ _ ____
 72
    65
 73
     4
 40
2.0
 49
1.25
 74
     0
 49
-0.25
 74
     0
 49
0.25
 74
     0
 49
-0.25
 74
     0
  0
LTYPE
  5
4D8C
330
5
100
AcDbSymbolTableRecord
100
AcDbLinetypeTableRecord
  2
AM_ISO02W050
 70
     0
  3
__ __ __ __ __ __ __ __ __ __ __ __ __ __ __
 72
    65
 73
     2
 40
7.5
 49
6.0
 74
     0
 49
-1.5
 74
     0
  0
LTYPE
  5
4D8D
330
5
100
AcDbSymbolTableRecord
100
AcDbLinetypeTableRecord
  2
AM_ISO08W050
 70
     0
  3
____ . ____ . ____ . ____ . ____ . ____ . ____
 72
    65
 73
     4
 40
18.0
 49
12.0
 74
     0
 49
-1.5
 74
     0
 49
3.0
 74
     0
 49
-1.5
 74
     0
  0
LTYPE
  5
4D8E
330
5
100
AcDbSymbolTableRecord
100
AcDbLinetypeTableRecord
  2
AM_ISO09W050
 70
     0
  3
_____ . . _____ . . _____ . . ____ .. ____
 72
    65
 73
     6
 40
22.5
 49
12.0
 74
     0
 49
-1.5
 74
     0
 49
3.0
 74
     0
 49
-1.5
 74
     0
 49
3.0
 74
     0
 49
-1.5
 74
     0
  0
LTYPE
  5
4D8F
330
5
100
AcDbSymbolTableRecord
100
AcDbLinetypeTableRecord
  2
Amconstr
 70
     0
  3
_______________________
 72
    65
 73
     2
 40
9999.0
 49
9999.0
 74
     0
 49
0.0
 74
     0
  0
LTYPE
  5
4D90
330
5
100
AcDbSymbolTableRecord
100
AcDbLinetypeTableRecord
  2
AM_ISO08W050x2
 70
     0
  3
__ . __ . __ . __ . __ . __
 72
    65
 73
     4
 40
9.0
 49
6.0
 74
     0
 49
-0.75
 74
     0
 49
1.5
 74
     0
 49
-0.75
 74
     0
  0
LTYPE
  5
4D91
330
5
100
AcDbSymbolTableRecord
100
AcDbLinetypeTableRecord
  2
AM_ISO02W050x2
 70
     0
  3
 _ _ _ _ _ _ _ _ _ _ _ _
 72
    65
 73
     2
 40
3.75
 49
3.0
 74
     0
 49
-0.75
 74
     0
  0
LTYPE
  5
4D94
330
5
100
AcDbSymbolTableRecord
100
AcDbLinetypeTableRecord
  2
Amzigzag
 70
     0
  3
/\/-/\/-/\/-/\/-/\/-/\/
 72
    65
 73
     2
 40
11.0001
 49
0.0001
 74
     4
 75
   135
340
4D93
 46
0.04
 50
0.0
 44
0.0
 45
0.0
 49
-11.0
 74
     0
  0
LTYPE
  5
4DA2
330
5
100
AcDbSymbolTableRecord
100
AcDbLinetypeTableRecord
  2
ACISOWELD
 70
     0
  3
_ _ _ _ _
 72
    65
 73
     2
 40
2.0
 49
2.0
 74
     0
 49
-1.0
 74
     0
  0
LTYPE
  5
4DA3
330
5
100
AcDbSymbolTableRecord
100
AcDbLinetypeTableRecord
  2
ACISOTGB
 70
     0
  3
__ . . __ . .
 72
    65
 73
     6
 40
9.0
 49
4.0
 74
     0
 49
-1.0
 74
     0
 49
1.0
 74
     0
 49
-1.0
 74
     0
 49
1.0
 74
     0
 49
-1.0
 74
     0
  0
LTYPE
  5
4DA4
330
5
100
AcDbSymbolTableRecord
100
AcDbLinetypeTableRecord
  2
ACISOTGL
 70
     0
  3
_ _ _ _ _
 72
    65
 73
     2
 40
3.0
 49
2.0
 74
     0
 49
-1.0
 74
     0
  0
LTYPE
  5
4FA5
330
5
100
AcDbSymbolTableRecord
100
AcDbLinetypeTableRecord
  2
HIDDEN
 70
     0
  3
__ __ __ __ __ __ __ __ __ __ __ __ __ __ __ __
 72
    65
 73
     2
 40
0.375
 49
0.25
 74
     0
 49
-0.125
 74
     0
  0
LTYPE
  5
4FA6
330
5
100
AcDbSymbolTableRecord
100
AcDbLinetypeTableRecord
  2
PHANTOM2
 70
     0
  3
___ _ _ ___ _ _ ___ _ _ ___ _ _ ___ _ _ ___ _ _
 72
    65
 73
     6
 40
1.25
 49
0.625
 74
     0
 49
-0.125
 74
     0
 49
0.125
 74
     0
 49
-0.125
 74
     0
 49
0.125
 74
     0
 49
-0.125
 74
     0
  0
ENDTAB
  0
TABLE
  2
LAYER
  5
2
102
{ACAD_XDICTIONARY
360
4FB7
102
}
330
0
100
AcDbSymbolTable
 70
     7
  0
LAYER
  5
10
330
2
100
AcDbSymbolTableRecord
100
AcDbLayerTableRecord
  2
0
 70
     0
 62
     7
  6
Continuous
370
    -3
390
F
  0
LAYER
  5
48
330
2
100
AcDbSymbolTableRecord
100
AcDbLayerTableRecord
  2
DIM
 70
     0
 62
     5
  6
Continuous
370
    -3
390
F
  0
LAYER
  5
1545
330
2
100
AcDbSymbolTableRecord
100
AcDbLayerTableRecord
  2
LOGO
 70
     0
 62
     7
  6
Continuous
370
    -3
390
F
  0
LAYER
  5
1A52
330
2
100
AcDbSymbolTableRecord
100
AcDbLayerTableRecord
  2
Defpoints
 70
     0
 62
     7
  6
Continuous
290
     0
370
    -3
390
F
  0
LAYER
  5
4FAC
330
2
100
AcDbSymbolTableRecord
100
AcDbLayerTableRecord
  2
CENTER
 70
     0
 62
     1
  6
CENTER
370
    -3
390
F
  0
LAYER
  5
60B5
330
2
100
AcDbSymbolTableRecord
100
AcDbLayerTableRecord
  2
AM_7
 70
     0
 62
     4
  6
AM_ISO08W050
370
    25
390
F
  0
LAYER
  5
60B6
330
2
100
AcDbSymbolTableRecord
100
AcDbLayerTableRecord
  2
AM_5
 70
     0
 62
     3
  6
Continuous
370
    25
390
F
  0
ENDTAB
  0
TABLE
  2
STYLE
  5
3
330
0
100
AcDbSymbolTable
 70
     7
  0
STYLE
  5
11
330
3
100
AcDbSymbolTableRecord
100
AcDbTextStyleTableRecord
  2
Standard
 70
     0
 40
3.0
 41
1.0
 50
0.0
 71
     0
 42
3.0
  3
KAIU.TTF
  4

1001
ACAD
1000
DFKai-SB
1071
    34865
  0
STYLE
  5
5C
330
3
100
AcDbSymbolTableRecord
100
AcDbTextStyleTableRecord
  2
CHINESET
 70
     0
 40
3.0
 41
1.0
 50
0.0
 71
     0
 42
4.5
  3
simplex.shx
  4
CHINESET.shx
  0
STYLE
  5
4D93
330
3
100
AcDbSymbolTableRecord
100
AcDbTextStyleTableRecord
  2

 70
     1
 40
0.0
 41
1.0
 50
0.0
 71
     0
 42
4.5
  3
ltypeshp.shx
  4

  0
STYLE
  5
4D95
330
3
100
AcDbSymbolTableRecord
100
AcDbTextStyleTableRecord
  2
ACISOTS
 70
     0
 40
1.0
 41
1.0
 50
0.0
 71
     0
 42
4.5
  3
isocp.shx
  4
chineset.shx
  0
STYLE
  5
4DA1
330
3
100
AcDbSymbolTableRecord
100
AcDbTextStyleTableRecord
  2
ACISOGDT
 70
     0
 40
0.0
 41
1.0
 50
0.0
 71
     0
 42
4.5
  3
amgdt.shx
  4

  0
STYLE
  5
4FAD
330
3
100
AcDbSymbolTableRecord
100
AcDbTextStyleTableRecord
  2
dayus
 70
     0
 40
3.0
 41
1.0
 50
0.0
 71
     0
 42
6.0
  3
simplex.shx
  4
dayus.shx
  0
ENDTAB
  0
TABLE
  2
VIEW
  5
6
330
0
100
AcDbSymbolTable
 70
     0
  0
ENDTAB
  0
TABLE
  2
UCS
  5
7
330
0
100
AcDbSymbolTable
 70
     0
  0
ENDTAB
  0
TABLE
  2
APPID
  5
9
330
0
100
AcDbSymbolTable
 70
    24
  0
APPID
  5
12
330
9
100
AcDbSymbolTableRecord
100
AcDbRegAppTableRecord
  2
ACAD
 70
     0
  0
APPID
  5
5F
330
9
100
AcDbSymbolTableRecord
100
AcDbRegAppTableRecord
  2
AD_DRAW
 70
     0
  0
APPID
  5
60
330
9
100
AcDbSymbolTableRecord
100
AcDbRegAppTableRecord
  2
DESIGNERASSEMBLIES
 70
     0
  0
APPID
  5
61
330
9
100
AcDbSymbolTableRecord
100
AcDbRegAppTableRecord
  2
MCAD_NO_VIS
 70
     0
  0
APPID
  5
62
330
9
100
AcDbSymbolTableRecord
100
AcDbRegAppTableRecord
  2
ASURF_PCURVE_APPNAME
 70
     0
  0
APPID
  5
11A1
330
9
100
AcDbSymbolTableRecord
100
AcDbRegAppTableRecord
  2
CONTENTBLOCKICON
 70
     0
  0
APPID
  5
31CE
330
9
100
AcDbSymbolTableRecord
100
AcDbRegAppTableRecord
  2
GENIUS_GENODEF_13
 70
     0
  0
APPID
  5
31CF
330
9
100
AcDbSymbolTableRecord
100
AcDbRegAppTableRecord
  2
GENIUS_GENOBJ-N-FIL_13
 70
     0
  0
APPID
  5
3922
330
9
100
AcDbSymbolTableRecord
100
AcDbRegAppTableRecord
  2
GENIUS_GENFIL_13
 70
     0
  0
APPID
  5
3923
330
9
100
AcDbSymbolTableRecord
100
AcDbRegAppTableRecord
  2
GENIUS_GENOBJ-N-CHA_13
 70
     0
  0
APPID
  5
4D6F
330
9
100
AcDbSymbolTableRecord
100
AcDbRegAppTableRecord
  2
ACAD_TEMP_GRAPHIC
 70
     0
  0
APPID
  5
4D80
330
9
100
AcDbSymbolTableRecord
100
AcDbRegAppTableRecord
  2
ACATTRIBSERVICES
 70
     0
  0
APPID
  5
4FB6
330
9
100
AcDbSymbolTableRecord
100
AcDbRegAppTableRecord
  2
GENIUS_GENDTOL_13
 70
     0
  0
APPID
  5
5B39
330
9
100
AcDbSymbolTableRecord
100
AcDbRegAppTableRecord
  2
ACADM_DIM_EDIT
 70
     0
  0
APPID
  5
5B3A
330
9
100
AcDbSymbolTableRecord
100
AcDbRegAppTableRecord
  2
AMDT_DM_ADJ
 70
     0
  0
APPID
  5
5B5C
330
9
100
AcDbSymbolTableRecord
100
AcDbRegAppTableRecord
  2
GENIUS_GENOENT_13
 70
     0
  0
APPID
  5
5B5D
330
9
100
AcDbSymbolTableRecord
100
AcDbRegAppTableRecord
  2
GENIUS_GENOBJ-N-CRS_13
 70
     0
  0
APPID
  5
5B5E
330
9
100
AcDbSymbolTableRecord
100
AcDbRegAppTableRecord
  2
GENIUS_GENOLIS_13
 70
     0
  0
APPID
  5
5B5F
330
9
100
AcDbSymbolTableRecord
100
AcDbRegAppTableRecord
  2
GENIUS_GENOREF_13
 70
     0
  0
APPID
  5
5B60
330
9
100
AcDbSymbolTableRecord
100
AcDbRegAppTableRecord
  2
ACAD_PSEXT
 70
     0
  0
APPID
  5
5B61
330
9
100
AcDbSymbolTableRecord
100
AcDbRegAppTableRecord
  2
GENIUS_GENREC_14
 70
     0
  0
APPID
  5
5B62
330
9
100
AcDbSymbolTableRecord
100
AcDbRegAppTableRecord
  2
GENIUS_GENOBJ-N-REC_13
 70
     0
  0
APPID
  5
60B7
330
9
100
AcDbSymbolTableRecord
100
AcDbRegAppTableRecord
  2
GENIUS_GENOBJ-N-CEN_13
 70
     0
  0
APPID
  5
60B8
330
9
100
AcDbSymbolTableRecord
100
AcDbRegAppTableRecord
  2
GENIUS_GENCEN_19
 70
     0
  0
ENDTAB
  0
TABLE
  2
DIMSTYLE
  5
A
330
0
100
AcDbSymbolTable
 70
    11
100
AcDbDimStyleTable
 71
     1
340
1A4
  0
DIMSTYLE
105
1A4
330
A
100
AcDbSymbolTableRecord
100
AcDbDimStyleTableRecord
  2
ISO-25-1
 70
     0
 41
3.0
 42
3.0
 43
2.0
 44
2.0
 73
     0
 74
     0
 77
     1
 78
     8
 79
     2
140
3.0
141
-3.0
146
0.7
147
1.0
172
     1
176
   256
177
   256
178
   256
271
     2
272
     2
284
     8
289
     0
340
5C
371
    -1
372
    -1
  0
DIMSTYLE
105
4DA8
330
A
100
AcDbSymbolTableRecord
100
AcDbDimStyleTableRecord
  2
AM_ISO
 70
     0
  4
"
 41
2.5
 42
1.0
 43
10.0
 44
1.0
 47
0.1
 48
0.1
 73
     0
 74
     0
 77
     1
 78
     8
 79
     2
140
3.5
141
0.0
143
0.0393701
146
0.71
147
1.5
172
     1
176
   256
177
   256
178
     2
271
     2
272
     3
274
     4
283
     0
284
     8
340
11
371
    -1
372
    -1
  0
DIMSTYLE
105
4DA9
330
A
100
AcDbSymbolTableRecord
100
AcDbDimStyleTableRecord
  2
AM_ISO$3
 70
     0
  4
"
 41
2.5
 42
1.0
 43
10.0
 44
1.0
 47
0.1
 48
0.1
 73
     0
 77
     1
 78
     8
 79
     2
140
3.5
141
0.0
143
0.0393701
146
0.71
147
1.5
176
   256
177
   256
178
     2
271
     2
272
     3
274
     4
283
     0
284
     8
288
     1
289
     0
340
11
371
    -1
372
    -1
  0
DIMSTYLE
105
4DAA
330
A
100
AcDbSymbolTableRecord
100
AcDbDimStyleTableRecord
  2
AM_ISO$4
 70
     0
  4
"
 41
2.5
 42
1.0
 43
10.0
 44
1.0
 47
0.1
 48
0.1
 73
     0
 77
     1
 78
     8
 79
     2
140
3.5
141
0.0
143
0.0393701
146
0.71
147
1.5
176
   256
177
   256
178
     2
271
     2
272
     3
274
     4
283
     0
284
     8
288
     1
289
     0
340
11
371
    -1
372
    -1
  0
DIMSTYLE
105
4DAB
330
A
100
AcDbSymbolTableRecord
100
AcDbDimStyleTableRecord
  2
AM_ISO$6
 70
     0
  4
"
 41
2.5
 42
1.0
 43
10.0
 44
1.0
 47
0.1
 48
0.1
 73
     0
 74
     0
 78
     8
 79
     2
140
3.5
141
0.0
143
0.0393701
146
0.71
147
1.5
172
     1
176
   256
177
   256
178
     2
271
     2
272
     3
274
     4
283
     0
284
     8
340
11
371
    -1
372
    -1
  0
DIMSTYLE
105
4DAC
330
A
100
AcDbSymbolTableRecord
100
AcDbDimStyleTableRecord
  2
AM_ISO$7
 70
     0
  4
"
 41
2.5
 42
1.0
 43
10.0
 44
1.0
 47
0.1
 48
0.1
 73
     0
 74
     0
 77
     1
 78
     8
 79
     2
140
5.0
141
0.0
143
0.0393701
146
0.71
147
1.5
172
     1
176
   256
177
   256
178
     2
271
     2
272
     3
274
     4
283
     0
284
     8
340
11
371
    -1
372
    -1
  0
DIMSTYLE
105
4DAD
330
A
100
AcDbSymbolTableRecord
100
AcDbDimStyleTableRecord
  2
AM_ISO$SF
 70
     0
  4
"
 41
2.5
 42
1.0
 43
10.0
 44
1.0
 47
0.1
 48
0.1
 73
     0
 74
     0
 75
     1
 76
     1
 77
     1
 78
     8
 79
     2
140
3.5
141
0.0
143
0.0393701
146
0.71
147
1.5
172
     1
176
   256
177
   256
178
     2
271
     2
272
     3
274
     4
283
     0
284
     8
340
11
371
    -1
372
    -1
  0
DIMSTYLE
105
4DB2
330
A
100
AcDbSymbolTableRecord
100
AcDbDimStyleTableRecord
  2
AM_ISO$SH
 70
     0
  4
"
 41
2.5
 42
1.0
 43
10.0
 44
1.0
 47
0.1
 48
0.1
 73
     0
 74
     0
 75
     1
 76
     1
 77
     1
 78
     8
 79
     2
140
3.5
141
0.0
143
0.0393701
144
2.0
146
0.71
147
1.5
172
     1
173
     1
176
   256
177
   256
178
     2
271
     2
272
     3
274
     4
283
     0
284
     8
340
11
341
4DAE
343
4DAE
371
    -1
372
    -1
  0
DIMSTYLE
105
4FB0
102
{ACAD_REACTORS
330
54DE
330
54E1
330
54E4
330
54E7
330
54EA
330
54ED
330
54F0
330
54F3
330
54F6
330
54F9
330
54FC
330
5503
330
5508
330
550B
330
550E
330
5511
330
5514
330
5519
330
551C
330
551F
330
5522
330
5525
330
5528
330
552B
330
552E
330
5531
330
5536
330
5539
330
553F
330
5542
330
5723
330
5726
330
5729
330
572C
330
572F
330
5732
330
5735
102
}
330
A
100
AcDbSymbolTableRecord
100
AcDbDimStyleTableRecord
  2
AM_ANSI
 70
     0
  4
"
 41
2.5
 42
1.0
 43
10.0
 44
1.0
 47
0.1
 48
0.1
 78
     8
 79
     2
140
3.5
141
0.0
143
0.0393701
146
0.71
147
1.5
176
   256
177
   256
178
     2
271
     2
272
     3
274
     4
284
     8
340
11
371
    -1
372
    -1
  0
DIMSTYLE
105
4FB3
330
A
100
AcDbSymbolTableRecord
100
AcDbDimStyleTableRecord
  2
AM_ANSI$7
 70
     0
  4
"
 41
2.5
 42
1.0
 43
10.0
 44
1.0
 47
0.1
 48
0.1
 78
     8
 79
     2
140
5.0
141
0.0
143
0.0393701
146
0.71
147
1.5
176
   256
177
   256
178
     2
271
     2
272
     3
274
     4
284
     8
340
11
371
    -1
372
    -1
  0
ENDTAB
  0
TABLE
  2
BLOCK_RECORD
  5
1
330
0
100
AcDbSymbolTable
 70
    43
  0
BLOCK_RECORD
  5
1F
102
{ACAD_XDICTIONARY
360
4CD1
102
}
330
1
100
AcDbSymbolTableRecord
100
AcDbBlockTableRecord
  2
*Model_Space
340
22
  0
BLOCK_RECORD
  5
1B
102
{ACAD_XDICTIONARY
360
4CD3
102
}
330
1
100
AcDbSymbolTableRecord
100
AcDbBlockTableRecord
  2
*Paper_Space
340
1E
  0
BLOCK_RECORD
  5
23
102
{ACAD_XDICTIONARY
360
4CD5
102
}
330
1
100
AcDbSymbolTableRecord
100
AcDbBlockTableRecord
  2
*Paper_Space0
340
26
  0
BLOCK_RECORD
  5
4DAE
330
1
100
AcDbSymbolTableRecord
100
AcDbBlockTableRecord
  2
GENAXEH
340
0
  0
BLOCK_RECORD
  5
5549
330
1
100
AcDbSymbolTableRecord
100
AcDbBlockTableRecord
  2
*D2
340
0
  0
BLOCK_RECORD
  5
5555
330
1
100
AcDbSymbolTableRecord
100
AcDbBlockTableRecord
  2
*D3
340
0
  0
BLOCK_RECORD
  5
5561
330
1
100
AcDbSymbolTableRecord
100
AcDbBlockTableRecord
  2
*D4
340
0
  0
BLOCK_RECORD
  5
556D
330
1
100
AcDbSymbolTableRecord
100
AcDbBlockTableRecord
  2
*D5
340
0
  0
BLOCK_RECORD
  5
557B
330
1
100
AcDbSymbolTableRecord
100
AcDbBlockTableRecord
  2
*D6
340
0
  0
BLOCK_RECORD
  5
5587
330
1
100
AcDbSymbolTableRecord
100
AcDbBlockTableRecord
  2
*D7
340
0
  0
BLOCK_RECORD
  5
5593
330
1
100
AcDbSymbolTableRecord
100
AcDbBlockTableRecord
  2
*D8
340
0
  0
BLOCK_RECORD
  5
559F
330
1
100
AcDbSymbolTableRecord
100
AcDbBlockTableRecord
  2
*D9
340
0
  0
BLOCK_RECORD
  5
55AB
330
1
100
AcDbSymbolTableRecord
100
AcDbBlockTableRecord
  2
*D10
340
0
  0
BLOCK_RECORD
  5
55B7
330
1
100
AcDbSymbolTableRecord
100
AcDbBlockTableRecord
  2
*D11
340
0
  0
BLOCK_RECORD
  5
55C3
330
1
100
AcDbSymbolTableRecord
100
AcDbBlockTableRecord
  2
*D12
340
0
  0
BLOCK_RECORD
  5
55CF
330
1
100
AcDbSymbolTableRecord
100
AcDbBlockTableRecord
  2
*D13
340
0
  0
BLOCK_RECORD
  5
55DD
330
1
100
AcDbSymbolTableRecord
100
AcDbBlockTableRecord
  2
*D14
340
0
  0
BLOCK_RECORD
  5
55E9
330
1
100
AcDbSymbolTableRecord
100
AcDbBlockTableRecord
  2
*D15
340
0
  0
BLOCK_RECORD
  5
55F5
330
1
100
AcDbSymbolTableRecord
100
AcDbBlockTableRecord
  2
*D16
340
0
  0
BLOCK_RECORD
  5
5601
330
1
100
AcDbSymbolTableRecord
100
AcDbBlockTableRecord
  2
*D17
340
0
  0
BLOCK_RECORD
  5
560D
330
1
100
AcDbSymbolTableRecord
100
AcDbBlockTableRecord
  2
*D18
340
0
  0
BLOCK_RECORD
  5
5619
330
1
100
AcDbSymbolTableRecord
100
AcDbBlockTableRecord
  2
*D19
340
0
  0
BLOCK_RECORD
  5
5625
330
1
100
AcDbSymbolTableRecord
100
AcDbBlockTableRecord
  2
*D20
340
0
  0
BLOCK_RECORD
  5
5633
330
1
100
AcDbSymbolTableRecord
100
AcDbBlockTableRecord
  2
*D21
340
0
  0
BLOCK_RECORD
  5
563F
330
1
100
AcDbSymbolTableRecord
100
AcDbBlockTableRecord
  2
*D22
340
0
  0
BLOCK_RECORD
  5
564B
330
1
100
AcDbSymbolTableRecord
100
AcDbBlockTableRecord
  2
*D23
340
0
  0
BLOCK_RECORD
  5
5657
330
1
100
AcDbSymbolTableRecord
100
AcDbBlockTableRecord
  2
*D24
340
0
  0
BLOCK_RECORD
  5
5663
330
1
100
AcDbSymbolTableRecord
100
AcDbBlockTableRecord
  2
*D25
340
0
  0
BLOCK_RECORD
  5
566F
330
1
100
AcDbSymbolTableRecord
100
AcDbBlockTableRecord
  2
*D26
340
0
  0
BLOCK_RECORD
  5
567B
330
1
100
AcDbSymbolTableRecord
100
AcDbBlockTableRecord
  2
*D27
340
0
  0
BLOCK_RECORD
  5
5689
330
1
100
AcDbSymbolTableRecord
100
AcDbBlockTableRecord
  2
*D28
340
0
  0
BLOCK_RECORD
  5
5695
330
1
100
AcDbSymbolTableRecord
100
AcDbBlockTableRecord
  2
*D29
340
0
  0
BLOCK_RECORD
  5
56AD
330
1
100
AcDbSymbolTableRecord
100
AcDbBlockTableRecord
  2
*D30
340
0
  0
BLOCK_RECORD
  5
56B9
330
1
100
AcDbSymbolTableRecord
100
AcDbBlockTableRecord
  2
*D31
340
0
  0
BLOCK_RECORD
  5
5738
330
1
100
AcDbSymbolTableRecord
100
AcDbBlockTableRecord
  2
*D32
340
0
  0
BLOCK_RECORD
  5
5744
330
1
100
AcDbSymbolTableRecord
100
AcDbBlockTableRecord
  2
*D33
340
0
  0
BLOCK_RECORD
  5
5750
330
1
100
AcDbSymbolTableRecord
100
AcDbBlockTableRecord
  2
*D34
340
0
  0
BLOCK_RECORD
  5
575C
330
1
100
AcDbSymbolTableRecord
100
AcDbBlockTableRecord
  2
*D35
340
0
  0
BLOCK_RECORD
  5
5768
330
1
100
AcDbSymbolTableRecord
100
AcDbBlockTableRecord
  2
*D36
340
0
  0
BLOCK_RECORD
  5
5774
330
1
100
AcDbSymbolTableRecord
100
AcDbBlockTableRecord
  2
*D37
340
0
  0
BLOCK_RECORD
  5
5780
330
1
100
AcDbSymbolTableRecord
100
AcDbBlockTableRecord
  2
*D38
340
0
  0
BLOCK_RECORD
  5
6046
102
{ACAD_XDICTIONARY
360
6047
102
}
330
1
100
AcDbSymbolTableRecord
100
AcDbBlockTableRecord
  2
A$C5ECF147B
340
0
102
{BLKREFS
331
6073
331
6081
331
6082
331
6094
331
60A2
331
60A3
102
}
  0
BLOCK_RECORD
  5
60AC
102
{ACAD_XDICTIONARY
360
60AD
102
}
330
1
100
AcDbSymbolTableRecord
100
AcDbBlockTableRecord
  2
A$C1F6E6265
340
0
102
{BLKREFS
331
60C2
331
60C5
102
}
  0
ENDTAB
  0
ENDSEC
  0
SECTION
  2
BLOCKS
  0
BLOCK
  5
20
330
1F
100
AcDbEntity
  8
0
100
AcDbBlockBegin
  2
*Model_Space
 70
     0
 10
0.0
 20
0.0
 30
0.0
  3
*Model_Space
  1

  0
ENDBLK
  5
21
330
1F
100
AcDbEntity
  8
0
100
AcDbBlockEnd
  0
BLOCK
  5
1C
330
1B
100
AcDbEntity
 67
     1
  8
0
100
AcDbBlockBegin
  2
*Paper_Space
 70
     0
 10
0.0
 20
0.0
 30
0.0
  3
*Paper_Space
  1

  0
ENDBLK
  5
1D
330
1B
100
AcDbEntity
 67
     1
  8
0
100
AcDbBlockEnd
  0
BLOCK
  5
24
330
23
100
AcDbEntity
  8
0
100
AcDbBlockBegin
  2
*Paper_Space0
 70
     0
 10
0.0
 20
0.0
 30
0.0
  3
*Paper_Space0
  1

  0
ENDBLK
  5
25
330
23
100
AcDbEntity
  8
0
100
AcDbBlockEnd
  0
BLOCK
  5
4DB0
330
4DAE
100
AcDbEntity
  8
0
100
AcDbBlockBegin
  2
GENAXEH
 70
     0
 10
0.0
 20
0.0
 30
0.0
  3
GENAXEH
  1

  0
LINE
  5
4DAF
330
4DAE
100
AcDbEntity
  8
0
100
AcDbLine
 10
-1.0
 20
0.0
 30
0.0
 11
1.0
 21
0.0
 31
0.0
  0
ENDBLK
  5
4DB1
330
4DAE
100
AcDbEntity
  8
0
100
AcDbBlockEnd
  0
BLOCK
  5
5553
330
5549
100
AcDbEntity
  8
0
100
AcDbBlockBegin
  2
*D2
 70
     1
 10
0.0
 20
0.0
 30
0.0
  3
*D2
  1

  0
LINE
  5
5F7D
330
5549
100
AcDbEntity
  8
DIM
100
AcDbLine
 10
100.1059902486054
 20
291.1322168679484
 30
0.0
 11
100.1059902486054
 21
303.2556034048503
 31
0.0
  0
LINE
  5
5F7E
330
5549
100
AcDbEntity
  8
DIM
100
AcDbLine
 10
111.1057711457497
 20
291.1866029005988
 30
0.0
 11
111.1057711457497
 21
303.2556034048503
 31
0.0
  0
LINE
  5
5F7F
330
5549
100
AcDbEntity
  8
DIM
100
AcDbLine
 10
103.1059902486054
 20
301.2556034048503
 30
0.0
 11
108.1057711457497
 21
301.2556034048503
 31
0.0
  0
SOLID
  5
5F80
330
5549
100
AcDbEntity
  8
DIM
100
AcDbTrace
 10
103.1059902486054
 20
301.7556034048503
 30
0.0
 11
103.1059902486054
 21
300.7556034048503
 31
0.0
 12
100.1059902486054
 22
301.2556034048503
 32
0.0
 13
100.1059902486054
 23
301.2556034048503
 33
0.0
  0
SOLID
  5
5F81
330
5549
100
AcDbEntity
  8
DIM
100
AcDbTrace
 10
108.1057711457497
 20
301.7556034048503
 30
0.0
 11
108.1057711457497
 21
300.7556034048503
 31
0.0
 12
111.1057711457497
 22
301.2556034048503
 32
0.0
 13
111.1057711457497
 23
301.2556034048503
 33
0.0
  0
MTEXT
  5
5F82
330
5549
100
AcDbEntity
  8
DIM
100
AcDbMText
 10
105.6058806971775
 20
303.7556034048503
 30
0.0
 40
3.0
 41
0.0
 71
     5
 72
     1
  1
\A1;11
  7
dayus
 73
     1
 44
1.0
1001
ACAD
1000
MTEXTBEGIN
1070
    73
1070
     1
1070
    44
1040
1.0
1070
    74
1070
     0
1000
MTEXTEND
  0
POINT
  5
5F83
330
5549
100
AcDbEntity
  8
Defpoints
 62
     0
100
AcDbPoint
 10
100.1059902486054
 20
289.1322168679484
 30
0.0
  0
POINT
  5
5F84
330
5549
100
AcDbEntity
  8
Defpoints
 62
     0
100
AcDbPoint
 10
111.1057711457497
 20
289.1866029005988
 30
0.0
  0
POINT
  5
5F85
330
5549
100
AcDbEntity
  8
Defpoints
 62
     0
100
AcDbPoint
 10
111.1057711457497
 20
301.2556034048503
 30
0.0
  0
ENDBLK
  5
5554
330
5549
100
AcDbEntity
  8
0
100
AcDbBlockEnd
  0
BLOCK
  5
555F
330
5555
100
AcDbEntity
  8
0
100
AcDbBlockBegin
  2
*D3
 70
     1
 10
0.0
 20
0.0
 30
0.0
  3
*D3
  1

  0
LINE
  5
5F86
330
5555
100
AcDbEntity
  8
DIM
100
AcDbLine
 10
93.09818396620675
 20
288.4408739168585
 30
0.0
 11
93.09818396620675
 21
311.3674272492452
 31
0.0
  0
LINE
  5
5F87
330
5555
100
AcDbEntity
  8
DIM
100
AcDbLine
 10
118.0981839662067
 20
287.2408739168585
 30
0.0
 11
118.0981839662067
 21
311.3674272492452
 31
0.0
  0
LINE
  5
5F88
330
5555
100
AcDbEntity
  8
DIM
100
AcDbLine
 10
96.09818396620676
 20
309.3674272492452
 30
0.0
 11
115.0981839662067
 21
309.3674272492452
 31
0.0
  0
SOLID
  5
5F89
330
5555
100
AcDbEntity
  8
DIM
100
AcDbTrace
 10
96.09818396620676
 20
309.8674272492452
 30
0.0
 11
96.09818396620676
 21
308.8674272492452
 31
0.0
 12
93.09818396620675
 22
309.3674272492452
 32
0.0
 13
93.09818396620675
 23
309.3674272492452
 33
0.0
  0
SOLID
  5
5F8A
330
5555
100
AcDbEntity
  8
DIM
100
AcDbTrace
 10
115.0981839662067
 20
309.8674272492452
 30
0.0
 11
115.0981839662067
 21
308.8674272492452
 31
0.0
 12
118.0981839662067
 22
309.3674272492452
 32
0.0
 13
118.0981839662067
 23
309.3674272492452
 33
0.0
  0
MTEXT
  5
5F8B
330
5555
100
AcDbEntity
  8
DIM
100
AcDbMText
 10
105.5981839662067
 20
311.8674272492452
 30
0.0
 40
3.0
 41
0.0
 71
     5
 72
     1
  1
\A1;25
  7
dayus
 73
     1
 44
1.0
1001
ACAD
1000
MTEXTBEGIN
1070
    73
1070
     1
1070
    44
1040
1.0
1070
    74
1070
     0
1000
MTEXTEND
  0
POINT
  5
5F8C
330
5555
100
AcDbEntity
  8
Defpoints
 62
     0
100
AcDbPoint
 10
93.09818396620675
 20
286.4408739168585
 30
0.0
  0
POINT
  5
5F8D
330
5555
100
AcDbEntity
  8
Defpoints
 62
     0
100
AcDbPoint
 10
118.0981839662067
 20
285.2408739168585
 30
0.0
  0
POINT
  5
5F8E
330
5555
100
AcDbEntity
  8
Defpoints
 62
     0
100
AcDbPoint
 10
118.0981839662067
 20
309.3674272492452
 30
0.0
  0
ENDBLK
  5
5560
330
5555
100
AcDbEntity
  8
0
100
AcDbBlockEnd
  0
BLOCK
  5
556B
330
5561
100
AcDbEntity
  8
0
100
AcDbBlockBegin
  2
*D4
 70
     1
 10
0.0
 20
0.0
 30
0.0
  3
*D4
  1

  0
LINE
  5
5F8F
330
5561
100
AcDbEntity
  8
DIM
100
AcDbLine
 10
90.09818396620676
 20
288.4408739168585
 30
0.0
 11
90.09818396620676
 21
319.479252402412
 31
0.0
  0
LINE
  5
5F90
330
5561
100
AcDbEntity
  8
DIM
100
AcDbLine
 10
118.0981839662067
 20
287.2408739168585
 30
0.0
 11
118.0981839662067
 21
319.479252402412
 31
0.0
  0
LINE
  5
5F91
330
5561
100
AcDbEntity
  8
DIM
100
AcDbLine
 10
93.09818396620675
 20
317.479252402412
 30
0.0
 11
115.0981839662067
 21
317.479252402412
 31
0.0
  0
SOLID
  5
5F92
330
5561
100
AcDbEntity
  8
DIM
100
AcDbTrace
 10
93.09818396620675
 20
317.979252402412
 30
0.0
 11
93.09818396620675
 21
316.979252402412
 31
0.0
 12
90.09818396620676
 22
317.479252402412
 32
0.0
 13
90.09818396620676
 23
317.479252402412
 33
0.0
  0
SOLID
  5
5F93
330
5561
100
AcDbEntity
  8
DIM
100
AcDbTrace
 10
115.0981839662067
 20
317.979252402412
 30
0.0
 11
115.0981839662067
 21
316.979252402412
 31
0.0
 12
118.0981839662067
 22
317.479252402412
 32
0.0
 13
118.0981839662067
 23
317.479252402412
 33
0.0
  0
MTEXT
  5
5F94
330
5561
100
AcDbEntity
  8
DIM
100
AcDbMText
 10
104.0981839662067
 20
319.979252402412
 30
0.0
 40
3.0
 41
0.0
 71
     5
 72
     1
  1
\A1;28
  7
dayus
 73
     1
 44
1.0
1001
ACAD
1000
MTEXTBEGIN
1070
    73
1070
     1
1070
    44
1040
1.0
1070
    74
1070
     0
1000
MTEXTEND
  0
POINT
  5
5F95
330
5561
100
AcDbEntity
  8
Defpoints
 62
     0
100
AcDbPoint
 10
90.09818396620676
 20
286.4408739168585
 30
0.0
  0
POINT
  5
5F96
330
5561
100
AcDbEntity
  8
Defpoints
 62
     0
100
AcDbPoint
 10
118.0981839662067
 20
285.2408739168585
 30
0.0
  0
POINT
  5
5F97
330
5561
100
AcDbEntity
  8
Defpoints
 62
     0
100
AcDbPoint
 10
118.0981839662067
 20
317.479252402412
 30
0.0
  0
ENDBLK
  5
556C
330
5561
100
AcDbEntity
  8
0
100
AcDbBlockEnd
  0
BLOCK
  5
5579
330
556D
100
AcDbEntity
  8
0
100
AcDbBlockBegin
  2
*D5
 70
     1
 10
0.0
 20
0.0
 30
0.0
  3
*D5
  1

  0
LINE
  5
5F98
330
556D
100
AcDbEntity
  8
DIM
100
AcDbLine
 10
81.0981839662063
 20
316.9408739168582
 30
0.0
 11
81.0981839662063
 21
327.408710676529
 31
0.0
  0
LINE
  5
5F99
330
556D
100
AcDbEntity
  8
DIM
100
AcDbLine
 10
85.0981839662063
 20
297.4408739168584
 30
0.0
 11
85.0981839662063
 21
327.408710676529
 31
0.0
  0
LINE
  5
5F9A
330
556D
100
AcDbEntity
  8
DIM
100
AcDbLine
 10
78.09818396620631
 20
325.408710676529
 30
0.0
 11
75.0981839662063
 21
325.408710676529
 31
0.0
  0
LINE
  5
5F9B
330
556D
100
AcDbEntity
  8
DIM
100
AcDbLine
 10
88.09818396620631
 20
325.408710676529
 30
0.0
 11
91.0981839662063
 21
325.408710676529
 31
0.0
  0
LINE
  5
5F9C
330
556D
100
AcDbEntity
  8
DIM
100
AcDbLine
 10
81.0981839662063
 20
325.408710676529
 30
0.0
 11
85.0981839662063
 21
325.408710676529
 31
0.0
  0
SOLID
  5
5F9D
330
556D
100
AcDbEntity
  8
DIM
100
AcDbTrace
 10
78.09818396620631
 20
325.908710676529
 30
0.0
 11
78.09818396620631
 21
324.908710676529
 31
0.0
 12
81.0981839662063
 22
325.408710676529
 32
0.0
 13
81.0981839662063
 23
325.408710676529
 33
0.0
  0
SOLID
  5
5F9E
330
556D
100
AcDbEntity
  8
DIM
100
AcDbTrace
 10
88.09818396620631
 20
325.908710676529
 30
0.0
 11
88.09818396620631
 21
324.908710676529
 31
0.0
 12
85.0981839662063
 22
325.408710676529
 32
0.0
 13
85.0981839662063
 23
325.408710676529
 33
0.0
  0
MTEXT
  5
5F9F
330
556D
100
AcDbEntity
  8
DIM
100
AcDbMText
 10
83.09818396620631
 20
327.908710676529
 30
0.0
 40
3.0
 41
0.0
 71
     5
 72
     1
  1
\A1;4
  7
dayus
 73
     1
 44
1.0
1001
ACAD
1000
MTEXTBEGIN
1070
    73
1070
     1
1070
    44
1040
1.0
1070
    74
1070
     0
1000
MTEXTEND
  0
POINT
  5
5FA0
330
556D
100
AcDbEntity
  8
Defpoints
 62
     0
100
AcDbPoint
 10
81.0981839662063
 20
314.9408739168582
 30
0.0
  0
POINT
  5
5FA1
330
556D
100
AcDbEntity
  8
Defpoints
 62
     0
100
AcDbPoint
 10
85.0981839662063
 20
295.4408739168584
 30
0.0
  0
POINT
  5
5FA2
330
556D
100
AcDbEntity
  8
Defpoints
 62
     0
100
AcDbPoint
 10
85.0981839662063
 20
325.408710676529
 30
0.0
  0
ENDBLK
  5
557A
330
556D
100
AcDbEntity
  8
0
100
AcDbBlockEnd
  0
BLOCK
  5
5585
330
557B
100
AcDbEntity
  8
0
100
AcDbBlockBegin
  2
*D6
 70
     1
 10
0.0
 20
0.0
 30
0.0
  3
*D6
  1

  0
LINE
  5
5FA3
330
557B
100
AcDbEntity
  8
DIM
100
AcDbLine
 10
44.09818396620631
 20
316.9408739168586
 30
0.0
 11
44.09818396620631
 21
327.408710676529
 31
0.0
  0
LINE
  5
5FA4
330
557B
100
AcDbEntity
  8
DIM
100
AcDbLine
 10
56.09818396620631
 20
287.0952011230916
 30
0.0
 11
56.09818396620631
 21
327.408710676529
 31
0.0
  0
LINE
  5
5FA5
330
557B
100
AcDbEntity
  8
DIM
100
AcDbLine
 10
47.0981839662063
 20
325.408710676529
 30
0.0
 11
53.09818396620631
 21
325.408710676529
 31
0.0
  0
SOLID
  5
5FA6
330
557B
100
AcDbEntity
  8
DIM
100
AcDbTrace
 10
47.0981839662063
 20
325.908710676529
 30
0.0
 11
47.0981839662063
 21
324.908710676529
 31
0.0
 12
44.09818396620631
 22
325.408710676529
 32
0.0
 13
44.09818396620631
 23
325.408710676529
 33
0.0
  0
SOLID
  5
5FA7
330
557B
100
AcDbEntity
  8
DIM
100
AcDbTrace
 10
53.09818396620631
 20
325.908710676529
 30
0.0
 11
53.09818396620631
 21
324.908710676529
 31
0.0
 12
56.09818396620631
 22
325.408710676529
 32
0.0
 13
56.09818396620631
 23
325.408710676529
 33
0.0
  0
MTEXT
  5
5FA8
330
557B
100
AcDbEntity
  8
DIM
100
AcDbMText
 10
50.0981839662063
 20
327.908710676529
 30
0.0
 40
3.0
 41
0.0
 71
     5
 72
     1
  1
\A1;12
  7
dayus
 73
     1
 44
1.0
1001
ACAD
1000
MTEXTBEGIN
1070
    73
1070
     1
1070
    44
1040
1.0
1070
    74
1070
     0
1000
MTEXTEND
  0
POINT
  5
5FA9
330
557B
100
AcDbEntity
  8
Defpoints
 62
     0
100
AcDbPoint
 10
44.09818396620631
 20
314.9408739168586
 30
0.0
  0
POINT
  5
5FAA
330
557B
100
AcDbEntity
  8
Defpoints
 62
     0
100
AcDbPoint
 10
56.09818396620631
 20
285.0952011230916
 30
0.0
  0
POINT
  5
5FAB
330
557B
100
AcDbEntity
  8
Defpoints
 62
     0
100
AcDbPoint
 10
56.09818396620631
 20
325.408710676529
 30
0.0
  0
ENDBLK
  5
5586
330
557B
100
AcDbEntity
  8
0
100
AcDbBlockEnd
  0
BLOCK
  5
5591
330
5587
100
AcDbEntity
  8
0
100
AcDbBlockBegin
  2
*D7
 70
     1
 10
0.0
 20
0.0
 30
0.0
  3
*D7
  1

  0
LINE
  5
5FAC
330
5587
100
AcDbEntity
  8
DIM
100
AcDbLine
 10
69.09818396620631
 20
287.0952011230916
 30
0.0
 11
69.09818396620631
 21
327.408710676529
 31
0.0
  0
LINE
  5
5FAD
330
5587
100
AcDbEntity
  8
DIM
100
AcDbLine
 10
81.0981839662063
 20
316.9408739168586
 30
0.0
 11
81.0981839662063
 21
327.408710676529
 31
0.0
  0
LINE
  5
5FAE
330
5587
100
AcDbEntity
  8
DIM
100
AcDbLine
 10
72.0981839662063
 20
325.408710676529
 30
0.0
 11
78.09818396620631
 21
325.408710676529
 31
0.0
  0
SOLID
  5
5FAF
330
5587
100
AcDbEntity
  8
DIM
100
AcDbTrace
 10
72.0981839662063
 20
325.908710676529
 30
0.0
 11
72.0981839662063
 21
324.908710676529
 31
0.0
 12
69.09818396620631
 22
325.408710676529
 32
0.0
 13
69.09818396620631
 23
325.408710676529
 33
0.0
  0
SOLID
  5
5FB0
330
5587
100
AcDbEntity
  8
DIM
100
AcDbTrace
 10
78.09818396620631
 20
325.908710676529
 30
0.0
 11
78.09818396620631
 21
324.908710676529
 31
0.0
 12
81.0981839662063
 22
325.408710676529
 32
0.0
 13
81.0981839662063
 23
325.408710676529
 33
0.0
  0
MTEXT
  5
5FB1
330
5587
100
AcDbEntity
  8
DIM
100
AcDbMText
 10
75.0981839662063
 20
327.908710676529
 30
0.0
 40
3.0
 41
0.0
 71
     5
 72
     1
  1
\A1;12
  7
dayus
 73
     1
 44
1.0
1001
ACAD
1000
MTEXTBEGIN
1070
    73
1070
     1
1070
    44
1040
1.0
1070
    74
1070
     0
1000
MTEXTEND
  0
POINT
  5
5FB2
330
5587
100
AcDbEntity
  8
Defpoints
 62
     0
100
AcDbPoint
 10
69.09818396620631
 20
285.0952011230916
 30
0.0
  0
POINT
  5
5FB3
330
5587
100
AcDbEntity
  8
Defpoints
 62
     0
100
AcDbPoint
 10
81.0981839662063
 20
314.9408739168586
 30
0.0
  0
POINT
  5
5FB4
330
5587
100
AcDbEntity
  8
Defpoints
 62
     0
100
AcDbPoint
 10
81.0981839662063
 20
325.408710676529
 30
0.0
  0
ENDBLK
  5
5592
330
5587
100
AcDbEntity
  8
0
100
AcDbBlockEnd
  0
BLOCK
  5
559D
330
5593
100
AcDbEntity
  8
0
100
AcDbBlockBegin
  2
*D8
 70
     1
 10
0.0
 20
0.0
 30
0.0
  3
*D8
  1

  0
LINE
  5
5FB5
330
5593
100
AcDbEntity
  8
DIM
100
AcDbLine
 10
44.09818396620631
 20
316.9408739168586
 30
0.0
 11
44.09818396620631
 21
335.9368783858716
 31
0.0
  0
LINE
  5
5FB6
330
5593
100
AcDbEntity
  8
DIM
100
AcDbLine
 10
81.0981839662063
 20
316.9408739168586
 30
0.0
 11
81.0981839662063
 21
335.9368783858716
 31
0.0
  0
LINE
  5
5FB7
330
5593
100
AcDbEntity
  8
DIM
100
AcDbLine
 10
47.0981839662063
 20
333.9368783858716
 30
0.0
 11
78.09818396620631
 21
333.9368783858716
 31
0.0
  0
SOLID
  5
5FB8
330
5593
100
AcDbEntity
  8
DIM
100
AcDbTrace
 10
47.0981839662063
 20
334.4368783858716
 30
0.0
 11
47.0981839662063
 21
333.4368783858716
 31
0.0
 12
44.09818396620631
 22
333.9368783858716
 32
0.0
 13
44.09818396620631
 23
333.9368783858716
 33
0.0
  0
SOLID
  5
5FB9
330
5593
100
AcDbEntity
  8
DIM
100
AcDbTrace
 10
78.09818396620631
 20
334.4368783858716
 30
0.0
 11
78.09818396620631
 21
333.4368783858716
 31
0.0
 12
81.0981839662063
 22
333.9368783858716
 32
0.0
 13
81.0981839662063
 23
333.9368783858716
 33
0.0
  0
MTEXT
  5
5FBA
330
5593
100
AcDbEntity
  8
DIM
100
AcDbMText
 10
62.5981839662063
 20
336.4368783858716
 30
0.0
 40
3.0
 41
0.0
 71
     5
 72
     1
  1
\A1;32+stroke=S
  7
dayus
 73
     1
 44
1.0
1001
ACAD
1000
MTEXTBEGIN
1070
    73
1070
     1
1070
    44
1040
1.0
1070
    74
1070
     0
1000
MTEXTEND
  0
POINT
  5
5FBB
330
5593
100
AcDbEntity
  8
Defpoints
 62
     0
100
AcDbPoint
 10
44.09818396620631
 20
314.9408739168586
 30
0.0
  0
POINT
  5
5FBC
330
5593
100
AcDbEntity
  8
Defpoints
 62
     0
100
AcDbPoint
 10
81.0981839662063
 20
314.9408739168586
 30
0.0
  0
POINT
  5
5FBD
330
5593
100
AcDbEntity
  8
Defpoints
 62
     0
100
AcDbPoint
 10
81.0981839662063
 20
333.9368783858716
 30
0.0
  0
ENDBLK
  5
559E
330
5593
100
AcDbEntity
  8
0
100
AcDbBlockEnd
  0
BLOCK
  5
55A9
330
559F
100
AcDbEntity
  8
0
100
AcDbBlockBegin
  2
*D9
 70
     1
 10
0.0
 20
0.0
 30
0.0
  3
*D9
  1

  0
LINE
  5
5FBE
330
559F
100
AcDbEntity
  8
DIM
100
AcDbLine
 10
81.0981839662063
 20
316.9408739168586
 30
0.0
 11
81.0981839662063
 21
335.9368783858716
 31
0.0
  0
LINE
  5
5FBF
330
559F
100
AcDbEntity
  8
DIM
100
AcDbLine
 10
118.0981839662067
 20
287.2408739168585
 30
0.0
 11
118.0981839662067
 21
335.9368783858716
 31
0.0
  0
LINE
  5
5FC0
330
559F
100
AcDbEntity
  8
DIM
100
AcDbLine
 10
84.09818396620631
 20
333.9368783858716
 30
0.0
 11
115.0981839662067
 21
333.9368783858716
 31
0.0
  0
SOLID
  5
5FC1
330
559F
100
AcDbEntity
  8
DIM
100
AcDbTrace
 10
84.09818396620631
 20
334.4368783858716
 30
0.0
 11
84.09818396620631
 21
333.4368783858716
 31
0.0
 12
81.0981839662063
 22
333.9368783858716
 32
0.0
 13
81.0981839662063
 23
333.9368783858716
 33
0.0
  0
SOLID
  5
5FC2
330
559F
100
AcDbEntity
  8
DIM
100
AcDbTrace
 10
115.0981839662067
 20
334.4368783858716
 30
0.0
 11
115.0981839662067
 21
333.4368783858716
 31
0.0
 12
118.0981839662067
 22
333.9368783858716
 32
0.0
 13
118.0981839662067
 23
333.9368783858716
 33
0.0
  0
MTEXT
  5
5FC3
330
559F
100
AcDbEntity
  8
DIM
100
AcDbMText
 10
99.59818396620654
 20
336.4368783858716
 30
0.0
 40
3.0
 41
0.0
 71
     5
 72
     1
  1
\A1;37
  7
dayus
 73
     1
 44
1.0
1001
ACAD
1000
MTEXTBEGIN
1070
    73
1070
     1
1070
    44
1040
1.0
1070
    74
1070
     0
1000
MTEXTEND
  0
POINT
  5
5FC4
330
559F
100
AcDbEntity
  8
Defpoints
 62
     0
100
AcDbPoint
 10
81.0981839662063
 20
314.9408739168586
 30
0.0
  0
POINT
  5
5FC5
330
559F
100
AcDbEntity
  8
Defpoints
 62
     0
100
AcDbPoint
 10
118.0981839662067
 20
285.2408739168585
 30
0.0
  0
POINT
  5
5FC6
330
559F
100
AcDbEntity
  8
Defpoints
 62
     0
100
AcDbPoint
 10
118.0981839662067
 20
333.9368783858716
 30
0.0
  0
ENDBLK
  5
55AA
330
559F
100
AcDbEntity
  8
0
100
AcDbBlockEnd
  0
BLOCK
  5
55B5
330
55AB
100
AcDbEntity
  8
0
100
AcDbBlockBegin
  2
*D10
 70
     1
 10
0.0
 20
0.0
 30
0.0
  3
*D10
  1

  0
LINE
  5
5FC7
330
55AB
100
AcDbEntity
  8
DIM
100
AcDbLine
 10
44.09818396620676
 20
316.9408739168586
 30
0.0
 11
44.09818396620676
 21
343.9221387628868
 31
0.0
  0
LINE
  5
5FC8
330
55AB
100
AcDbEntity
  8
DIM
100
AcDbLine
 10
118.0981839662067
 20
287.2408739168585
 30
0.0
 11
118.0981839662067
 21
343.9221387628868
 31
0.0
  0
LINE
  5
5FC9
330
55AB
100
AcDbEntity
  8
DIM
100
AcDbLine
 10
47.09818396620676
 20
341.9221387628868
 30
0.0
 11
115.0981839662067
 21
341.9221387628868
 31
0.0
  0
SOLID
  5
5FCA
330
55AB
100
AcDbEntity
  8
DIM
100
AcDbTrace
 10
47.09818396620676
 20
342.4221387628869
 30
0.0
 11
47.09818396620676
 21
341.4221387628868
 31
0.0
 12
44.09818396620676
 22
341.9221387628868
 32
0.0
 13
44.09818396620676
 23
341.9221387628868
 33
0.0
  0
SOLID
  5
5FCB
330
55AB
100
AcDbEntity
  8
DIM
100
AcDbTrace
 10
115.0981839662067
 20
342.4221387628869
 30
0.0
 11
115.0981839662067
 21
341.4221387628868
 31
0.0
 12
118.0981839662067
 22
341.9221387628868
 32
0.0
 13
118.0981839662067
 23
341.9221387628868
 33
0.0
  0
MTEXT
  5
5FCC
330
55AB
100
AcDbEntity
  8
DIM
100
AcDbMText
 10
81.09818396620676
 20
344.4221387628868
 30
0.0
 40
3.0
 41
0.0
 71
     5
 72
     1
  1
\A1;69+stroke=ZZ
  7
dayus
 73
     1
 44
1.0
1001
ACAD
1000
MTEXTBEGIN
1070
    73
1070
     1
1070
    44
1040
1.0
1070
    74
1070
     0
1000
MTEXTEND
  0
POINT
  5
5FCD
330
55AB
100
AcDbEntity
  8
Defpoints
 62
     0
100
AcDbPoint
 10
44.09818396620676
 20
314.9408739168586
 30
0.0
  0
POINT
  5
5FCE
330
55AB
100
AcDbEntity
  8
Defpoints
 62
     0
100
AcDbPoint
 10
118.0981839662067
 20
285.2408739168585
 30
0.0
  0
POINT
  5
5FCF
330
55AB
100
AcDbEntity
  8
Defpoints
 62
     0
100
AcDbPoint
 10
118.0981839662067
 20
341.9221387628868
 30
0.0
  0
ENDBLK
  5
55B6
330
55AB
100
AcDbEntity
  8
0
100
AcDbBlockEnd
  0
BLOCK
  5
55C1
330
55B7
100
AcDbEntity
  8
0
100
AcDbBlockBegin
  2
*D11
 70
     1
 10
0.0
 20
0.0
 30
0.0
  3
*D11
  1

  0
LINE
  5
5FD0
330
55B7
100
AcDbEntity
  8
DIM
100
AcDbLine
 10
87.59818396620676
 20
267.4408739168585
 30
0.0
 11
132.6475105189161
 21
267.4408739168584
 31
0.0
  0
LINE
  5
5FD1
330
55B7
100
AcDbEntity
  8
DIM
100
AcDbLine
 10
87.59818396620676
 20
287.4408739168585
 30
0.0
 11
132.6475105189161
 21
287.4408739168584
 31
0.0
  0
LINE
  5
5FD2
330
55B7
100
AcDbEntity
  8
DIM
100
AcDbLine
 10
130.647510518916
 20
270.4408739168584
 30
0.0
 11
130.647510518916
 21
284.4408739168585
 31
0.0
  0
SOLID
  5
5FD3
330
55B7
100
AcDbEntity
  8
DIM
100
AcDbTrace
 10
130.1475105189161
 20
270.4408739168584
 30
0.0
 11
131.1475105189161
 21
270.4408739168584
 31
0.0
 12
130.647510518916
 22
267.4408739168584
 32
0.0
 13
130.647510518916
 23
267.4408739168584
 33
0.0
  0
SOLID
  5
5FD4
330
55B7
100
AcDbEntity
  8
DIM
100
AcDbTrace
 10
130.1475105189161
 20
284.4408739168585
 30
0.0
 11
131.1475105189161
 21
284.4408739168585
 31
0.0
 12
130.647510518916
 22
287.4408739168584
 32
0.0
 13
130.647510518916
 23
287.4408739168584
 33
0.0
  0
MTEXT
  5
5FD5
330
55B7
100
AcDbEntity
  8
DIM
100
AcDbMText
 10
128.147510518916
 20
277.4408739168585
 30
0.0
 40
3.0
 41
0.0
 71
     5
 72
     1
  1
\A1;%%c20
  7
dayus
 11
0.0000000000000001
 21
1.0
 31
0.0
 73
     1
 44
1.0
1001
ACAD
1000
MTEXTBEGIN
1070
    73
1070
     1
1070
    44
1040
1.0
1070
    74
1070
     0
1000
MTEXTEND
  0
POINT
  5
5FD6
330
55B7
100
AcDbEntity
  8
Defpoints
 62
     0
100
AcDbPoint
 10
85.59818396620675
 20
267.4408739168585
 30
0.0
  0
POINT
  5
5FD7
330
55B7
100
AcDbEntity
  8
Defpoints
 62
     0
100
AcDbPoint
 10
85.59818396620675
 20
287.4408739168585
 30
0.0
  0
POINT
  5
5FD8
330
55B7
100
AcDbEntity
  8
Defpoints
 62
     0
100
AcDbPoint
 10
130.647510518916
 20
287.4408739168584
 30
0.0
  0
ENDBLK
  5
55C2
330
55B7
100
AcDbEntity
  8
0
100
AcDbBlockEnd
  0
BLOCK
  5
55CD
330
55C3
100
AcDbEntity
  8
0
100
AcDbBlockBegin
  2
*D12
 70
     1
 10
0.0
 20
0.0
 30
0.0
  3
*D12
  1

  0
LINE
  5
5FD9
330
55C3
100
AcDbEntity
  8
DIM
100
AcDbLine
 10
85.0981839662063
 20
297.4408739168584
 30
0.0
 11
141.8744318066988
 21
297.4408739168584
 31
0.0
  0
LINE
  5
5FDA
330
55C3
100
AcDbEntity
  8
DIM
100
AcDbLine
 10
85.0981839662063
 20
257.4408739168585
 30
0.0
 11
141.8744318066988
 21
257.4408739168585
 31
0.0
  0
LINE
  5
5FDB
330
55C3
100
AcDbEntity
  8
DIM
100
AcDbLine
 10
139.8744318066988
 20
294.4408739168584
 30
0.0
 11
139.8744318066988
 21
260.4408739168585
 31
0.0
  0
SOLID
  5
5FDC
330
55C3
100
AcDbEntity
  8
DIM
100
AcDbTrace
 10
139.3744318066988
 20
294.4408739168584
 30
0.0
 11
140.3744318066988
 21
294.4408739168584
 31
0.0
 12
139.8744318066988
 22
297.4408739168584
 32
0.0
 13
139.8744318066988
 23
297.4408739168584
 33
0.0
  0
SOLID
  5
5FDD
330
55C3
100
AcDbEntity
  8
DIM
100
AcDbTrace
 10
139.3744318066988
 20
260.4408739168585
 30
0.0
 11
140.3744318066988
 21
260.4408739168585
 31
0.0
 12
139.8744318066988
 22
257.4408739168585
 32
0.0
 13
139.8744318066988
 23
257.4408739168585
 33
0.0
  0
MTEXT
  5
5FDE
330
55C3
100
AcDbEntity
  8
DIM
100
AcDbMText
 10
136.3894318066987
 20
277.4408739168585
 30
0.0
 40
3.0
 41
0.0
 71
     5
 72
     1
  1
\A1;%%c40{}{\H0.71x;\C3;\S 0^ -0.05;}
  7
dayus
 11
0.0000000000000001
 21
1.0
 31
0.0
 73
     1
 44
1.0
1001
ACAD
1000
MTEXTBEGIN
1070
    73
1070
     1
1070
    44
1040
1.0
1070
    74
1070
     0
1000
MTEXTEND
  0
POINT
  5
5FDF
330
55C3
100
AcDbEntity
  8
Defpoints
 62
     0
100
AcDbPoint
 10
83.09818396620631
 20
297.4408739168584
 30
0.0
  0
POINT
  5
5FE0
330
55C3
100
AcDbEntity
  8
Defpoints
 62
     0
100
AcDbPoint
 10
83.09818396620631
 20
257.4408739168585
 30
0.0
  0
POINT
  5
5FE1
330
55C3
100
AcDbEntity
  8
Defpoints
 62
     0
100
AcDbPoint
 10
139.8744318066988
 20
257.4408739168585
 30
0.0
  0
ENDBLK
  5
55CE
330
55C3
100
AcDbEntity
  8
0
100
AcDbBlockEnd
  0
BLOCK
  5
55DB
330
55CF
100
AcDbEntity
  8
0
100
AcDbBlockBegin
  2
*D13
 70
     1
 10
0.0
 20
0.0
 30
0.0
  3
*D13
  1

  0
LINE
  5
5FE2
330
55CF
100
AcDbEntity
  8
DIM
100
AcDbLine
 10
87.09818396620715
 20
270.1730470404315
 30
0.0
 11
87.09818396620715
 21
246.8286371127865
 31
0.0
  0
LINE
  5
5FE3
330
55CF
100
AcDbEntity
  8
DIM
100
AcDbLine
 10
90.09818396620721
 20
266.4408739168583
 30
0.0
 11
90.09818396620721
 21
246.8286371127865
 31
0.0
  0
LINE
  5
5FE4
330
55CF
100
AcDbEntity
  8
DIM
100
AcDbLine
 10
84.09818396620714
 20
248.8286371127865
 30
0.0
 11
81.09818396620715
 21
248.8286371127865
 31
0.0
  0
LINE
  5
5FE5
330
55CF
100
AcDbEntity
  8
DIM
100
AcDbLine
 10
93.0981839662072
 20
248.8286371127865
 30
0.0
 11
96.0981839662072
 21
248.8286371127865
 31
0.0
  0
LINE
  5
5FE6
330
55CF
100
AcDbEntity
  8
DIM
100
AcDbLine
 10
87.09818396620715
 20
248.8286371127865
 30
0.0
 11
90.09818396620721
 21
248.8286371127865
 31
0.0
  0
SOLID
  5
5FE7
330
55CF
100
AcDbEntity
  8
DIM
100
AcDbTrace
 10
84.09818396620714
 20
249.3286371127865
 30
0.0
 11
84.09818396620714
 21
248.3286371127865
 31
0.0
 12
87.09818396620715
 22
248.8286371127865
 32
0.0
 13
87.09818396620715
 23
248.8286371127865
 33
0.0
  0
SOLID
  5
5FE8
330
55CF
100
AcDbEntity
  8
DIM
100
AcDbTrace
 10
93.0981839662072
 20
249.3286371127865
 30
0.0
 11
93.0981839662072
 21
248.3286371127865
 31
0.0
 12
90.09818396620721
 22
248.8286371127865
 32
0.0
 13
90.09818396620721
 23
248.8286371127865
 33
0.0
  0
MTEXT
  5
5FE9
330
55CF
100
AcDbEntity
  8
DIM
100
AcDbMText
 10
88.59818396620717
 20
251.3286371127865
 30
0.0
 40
3.0
 41
0.0
 71
     5
 72
     1
  1
\A1;3
  7
dayus
 73
     1
 44
1.0
1001
ACAD
1000
MTEXTBEGIN
1070
    73
1070
     1
1070
    44
1040
1.0
1070
    74
1070
     0
1000
MTEXTEND
  0
POINT
  5
5FEA
330
55CF
100
AcDbEntity
  8
Defpoints
 62
     0
100
AcDbPoint
 10
87.09818396620715
 20
272.1730470404315
 30
0.0
  0
POINT
  5
5FEB
330
55CF
100
AcDbEntity
  8
Defpoints
 62
     0
100
AcDbPoint
 10
90.09818396620721
 20
268.4408739168583
 30
0.0
  0
POINT
  5
5FEC
330
55CF
100
AcDbEntity
  8
Defpoints
 62
     0
100
AcDbPoint
 10
90.09818396620721
 20
248.8286371127865
 30
0.0
  0
ENDBLK
  5
55DC
330
55CF
100
AcDbEntity
  8
0
100
AcDbBlockEnd
  0
BLOCK
  5
55E7
330
55DD
100
AcDbEntity
  8
0
100
AcDbBlockBegin
  2
*D14
 70
     1
 10
0.0
 20
0.0
 30
0.0
  3
*D14
  1

  0
LINE
  5
5D26
330
55DD
100
AcDbEntity
  8
DIM
100
AcDbLine
 10
196.7080645512434
 20
317.2648731450728
 30
0.0
 11
196.7080645512434
 21
327.408710676529
 31
0.0
  0
LINE
  5
5D27
330
55DD
100
AcDbEntity
  8
DIM
100
AcDbLine
 10
256.708064551243
 20
317.2648731450728
 30
0.0
 11
256.708064551243
 21
327.408710676529
 31
0.0
  0
LINE
  5
5D28
330
55DD
100
AcDbEntity
  8
DIM
100
AcDbLine
 10
199.7080645512435
 20
325.408710676529
 30
0.0
 11
253.708064551243
 21
325.408710676529
 31
0.0
  0
SOLID
  5
5D29
330
55DD
100
AcDbEntity
  8
DIM
100
AcDbTrace
 10
199.7080645512435
 20
325.908710676529
 30
0.0
 11
199.7080645512435
 21
324.908710676529
 31
0.0
 12
196.7080645512434
 22
325.408710676529
 32
0.0
 13
196.7080645512434
 23
325.408710676529
 33
0.0
  0
SOLID
  5
5D2A
330
55DD
100
AcDbEntity
  8
DIM
100
AcDbTrace
 10
253.708064551243
 20
325.908710676529
 30
0.0
 11
253.708064551243
 21
324.908710676529
 31
0.0
 12
256.708064551243
 22
325.408710676529
 32
0.0
 13
256.708064551243
 23
325.408710676529
 33
0.0
  0
MTEXT
  5
5D2B
330
55DD
100
AcDbEntity
  8
DIM
100
AcDbMText
 10
226.7080645512432
 20
327.908710676529
 30
0.0
 40
3.0
 41
0.0
 71
     5
 72
     1
  1
\A1;□60
  7
dayus
 73
     1
 44
1.0
1001
ACAD
1000
MTEXTBEGIN
1070
    73
1070
     1
1070
    44
1040
1.0
1070
    74
1070
     0
1000
MTEXTEND
  0
POINT
  5
5D2C
330
55DD
100
AcDbEntity
  8
Defpoints
 62
     0
100
AcDbPoint
 10
196.7080645512434
 20
315.2648731450728
 30
0.0
  0
POINT
  5
5D2D
330
55DD
100
AcDbEntity
  8
Defpoints
 62
     0
100
AcDbPoint
 10
256.708064551243
 20
315.2648731450728
 30
0.0
  0
POINT
  5
5D2E
330
55DD
100
AcDbEntity
  8
Defpoints
 62
     0
100
AcDbPoint
 10
256.708064551243
 20
325.408710676529
 30
0.0
  0
ENDBLK
  5
55E8
330
55DD
100
AcDbEntity
  8
0
100
AcDbBlockEnd
  0
BLOCK
  5
55F3
330
55E9
100
AcDbEntity
  8
0
100
AcDbBlockBegin
  2
*D15
 70
     1
 10
0.0
 20
0.0
 30
0.0
  3
*D15
  1

  0
LINE
  5
5D2F
330
55E9
100
AcDbEntity
  8
DIM
100
AcDbLine
 10
189.2080645512433
 20
312.5127653051654
 30
0.0
 11
189.2080645512433
 21
335.9368783858721
 31
0.0
  0
LINE
  5
5D30
330
55E9
100
AcDbEntity
  8
DIM
100
AcDbLine
 10
264.2080645512443
 20
312.5127653051654
 30
0.0
 11
264.2080645512443
 21
335.9368783858721
 31
0.0
  0
LINE
  5
5D31
330
55E9
100
AcDbEntity
  8
DIM
100
AcDbLine
 10
192.2080645512433
 20
333.9368783858721
 30
0.0
 11
261.2080645512443
 21
333.9368783858721
 31
0.0
  0
SOLID
  5
5D32
330
55E9
100
AcDbEntity
  8
DIM
100
AcDbTrace
 10
192.2080645512433
 20
334.4368783858722
 30
0.0
 11
192.2080645512433
 21
333.4368783858721
 31
0.0
 12
189.2080645512433
 22
333.9368783858721
 32
0.0
 13
189.2080645512433
 23
333.9368783858721
 33
0.0
  0
SOLID
  5
5D33
330
55E9
100
AcDbEntity
  8
DIM
100
AcDbTrace
 10
261.2080645512443
 20
334.4368783858722
 30
0.0
 11
261.2080645512443
 21
333.4368783858721
 31
0.0
 12
264.2080645512443
 22
333.9368783858721
 32
0.0
 13
264.2080645512443
 23
333.9368783858721
 33
0.0
  0
MTEXT
  5
5D34
330
55E9
100
AcDbEntity
  8
DIM
100
AcDbMText
 10
226.7080645512438
 20
336.4368783858722
 30
0.0
 40
3.0
 41
0.0
 71
     5
 72
     1
  1
\A1;□75
  7
dayus
 73
     1
 44
1.0
1001
ACAD
1000
MTEXTBEGIN
1070
    73
1070
     1
1070
    44
1040
1.0
1070
    74
1070
     0
1000
MTEXTEND
  0
POINT
  5
5D35
330
55E9
100
AcDbEntity
  8
Defpoints
 62
     0
100
AcDbPoint
 10
189.2080645512433
 20
310.5127653051654
 30
0.0
  0
POINT
  5
5D36
330
55E9
100
AcDbEntity
  8
Defpoints
 62
     0
100
AcDbPoint
 10
264.2080645512443
 20
310.5127653051654
 30
0.0
  0
POINT
  5
5D37
330
55E9
100
AcDbEntity
  8
Defpoints
 62
     0
100
AcDbPoint
 10
264.2080645512443
 20
333.9368783858721
 30
0.0
  0
ENDBLK
  5
55F4
330
55E9
100
AcDbEntity
  8
0
100
AcDbBlockEnd
  0
BLOCK
  5
55FF
330
55F5
100
AcDbEntity
  8
0
100
AcDbBlockBegin
  2
*D16
 70
     1
 10
0.0
 20
0.0
 30
0.0
  3
*D16
  1

  0
LINE
  5
5D38
330
55F5
100
AcDbEntity
  8
DIM
100
AcDbLine
 10
181.208064551243
 20
289.3080788839313
 30
0.0
 11
181.208064551243
 21
343.9221387628868
 31
0.0
  0
LINE
  5
5D39
330
55F5
100
AcDbEntity
  8
DIM
100
AcDbLine
 10
264.208064551243
 20
312.5127653051663
 30
0.0
 11
264.208064551243
 21
343.9221387628868
 31
0.0
  0
LINE
  5
5D3A
330
55F5
100
AcDbEntity
  8
DIM
100
AcDbLine
 10
184.208064551243
 20
341.9221387628868
 30
0.0
 11
261.208064551243
 21
341.9221387628868
 31
0.0
  0
SOLID
  5
5D3B
330
55F5
100
AcDbEntity
  8
DIM
100
AcDbTrace
 10
184.208064551243
 20
342.4221387628869
 30
0.0
 11
184.208064551243
 21
341.4221387628868
 31
0.0
 12
181.208064551243
 22
341.9221387628868
 32
0.0
 13
181.208064551243
 23
341.9221387628868
 33
0.0
  0
SOLID
  5
5D3C
330
55F5
100
AcDbEntity
  8
DIM
100
AcDbTrace
 10
261.208064551243
 20
342.4221387628869
 30
0.0
 11
261.208064551243
 21
341.4221387628868
 31
0.0
 12
264.208064551243
 22
341.9221387628868
 32
0.0
 13
264.208064551243
 23
341.9221387628868
 33
0.0
  0
MTEXT
  5
5D3D
330
55F5
100
AcDbEntity
  8
DIM
100
AcDbMText
 10
222.708064551243
 20
344.4221387628868
 30
0.0
 40
3.0
 41
0.0
 71
     5
 72
     1
  1
\A1;83
  7
dayus
 73
     1
 44
1.0
1001
ACAD
1000
MTEXTBEGIN
1070
    73
1070
     1
1070
    44
1040
1.0
1070
    74
1070
     0
1000
MTEXTEND
  0
POINT
  5
5D3E
330
55F5
100
AcDbEntity
  8
Defpoints
 62
     0
100
AcDbPoint
 10
181.208064551243
 20
287.3080788839313
 30
0.0
  0
POINT
  5
5D3F
330
55F5
100
AcDbEntity
  8
Defpoints
 62
     0
100
AcDbPoint
 10
264.208064551243
 20
310.5127653051663
 30
0.0
  0
POINT
  5
5D40
330
55F5
100
AcDbEntity
  8
Defpoints
 62
     0
100
AcDbPoint
 10
264.208064551243
 20
341.9221387628868
 30
0.0
  0
ENDBLK
  5
5600
330
55F5
100
AcDbEntity
  8
0
100
AcDbBlockEnd
  0
BLOCK
  5
560B
330
5601
100
AcDbEntity
  8
0
100
AcDbBlockBegin
  2
*D17
 70
     1
 10
0.0
 20
0.0
 30
0.0
  3
*D17
  1

  0
LINE
  5
5D41
330
5601
100
AcDbEntity
  8
DIM
100
AcDbLine
 10
218.2080645512439
 20
270.1730470404316
 30
0.0
 11
218.2080645512439
 21
226.6213191552895
 31
0.0
  0
LINE
  5
5D42
330
5601
100
AcDbEntity
  8
DIM
100
AcDbLine
 10
235.2080645512439
 20
270.1730470404316
 30
0.0
 11
235.2080645512439
 21
226.6213191552895
 31
0.0
  0
LINE
  5
5D43
330
5601
100
AcDbEntity
  8
DIM
100
AcDbLine
 10
221.2080645512439
 20
228.6213191552895
 30
0.0
 11
232.2080645512439
 21
228.6213191552895
 31
0.0
  0
SOLID
  5
5D44
330
5601
100
AcDbEntity
  8
DIM
100
AcDbTrace
 10
221.2080645512439
 20
229.1213191552895
 30
0.0
 11
221.2080645512439
 21
228.1213191552895
 31
0.0
 12
218.2080645512439
 22
228.6213191552895
 32
0.0
 13
218.2080645512439
 23
228.6213191552895
 33
0.0
  0
SOLID
  5
5D45
330
5601
100
AcDbEntity
  8
DIM
100
AcDbTrace
 10
232.2080645512439
 20
229.1213191552895
 30
0.0
 11
232.2080645512439
 21
228.1213191552895
 31
0.0
 12
235.2080645512439
 22
228.6213191552895
 32
0.0
 13
235.2080645512439
 23
228.6213191552895
 33
0.0
  0
MTEXT
  5
5D46
330
5601
100
AcDbEntity
  8
DIM
100
AcDbMText
 10
226.7080645512439
 20
231.1213191552895
 30
0.0
 40
3.0
 41
0.0
 71
     5
 72
     1
  1
\A1;□17
  7
dayus
 73
     1
 44
1.0
1001
ACAD
1000
MTEXTBEGIN
1070
    73
1070
     1
1070
    44
1040
1.0
1070
    74
1070
     0
1000
MTEXTEND
  0
POINT
  5
5D47
330
5601
100
AcDbEntity
  8
Defpoints
 62
     0
100
AcDbPoint
 10
218.2080645512439
 20
272.1730470404316
 30
0.0
  0
POINT
  5
5D48
330
5601
100
AcDbEntity
  8
Defpoints
 62
     0
100
AcDbPoint
 10
235.2080645512439
 20
272.1730470404316
 30
0.0
  0
POINT
  5
5D49
330
5601
100
AcDbEntity
  8
Defpoints
 62
     0
100
AcDbPoint
 10
235.2080645512439
 20
228.6213191552895
 30
0.0
  0
ENDBLK
  5
560C
330
5601
100
AcDbEntity
  8
0
100
AcDbBlockEnd
  0
BLOCK
  5
5617
330
560D
100
AcDbEntity
  8
0
100
AcDbBlockBegin
  2
*D18
 70
     1
 10
0.0
 20
0.0
 30
0.0
  3
*D18
  1

  0
LINE
  5
5D4A
330
560D
100
AcDbEntity
  8
DIM
100
AcDbLine
 10
179.2414478053827
 20
287.4187082651951
 30
0.0
 11
167.7103612385506
 21
287.4187082651951
 31
0.0
  0
LINE
  5
5D4B
330
560D
100
AcDbEntity
  8
DIM
100
AcDbLine
 10
179.2414478053827
 20
267.4630395685217
 30
0.0
 11
167.7103612385506
 21
267.4630395685217
 31
0.0
  0
LINE
  5
5D4C
330
560D
100
AcDbEntity
  8
DIM
100
AcDbLine
 10
169.7103612385506
 20
284.4187082651951
 30
0.0
 11
169.7103612385506
 21
270.4630395685216
 31
0.0
  0
SOLID
  5
5D4D
330
560D
100
AcDbEntity
  8
DIM
100
AcDbTrace
 10
169.2103612385506
 20
284.4187082651951
 30
0.0
 11
170.2103612385506
 21
284.4187082651951
 31
0.0
 12
169.7103612385506
 22
287.4187082651951
 32
0.0
 13
169.7103612385506
 23
287.4187082651951
 33
0.0
  0
SOLID
  5
5D4E
330
560D
100
AcDbEntity
  8
DIM
100
AcDbTrace
 10
169.2103612385506
 20
270.4630395685216
 30
0.0
 11
170.2103612385506
 21
270.4630395685216
 31
0.0
 12
169.7103612385506
 22
267.4630395685217
 32
0.0
 13
169.7103612385506
 23
267.4630395685217
 33
0.0
  0
MTEXT
  5
5D4F
330
560D
100
AcDbEntity
  8
DIM
100
AcDbMText
 10
167.2103612385506
 20
277.4408739168584
 30
0.0
 40
3.0
 41
0.0
 71
     5
 72
     1
  1
\A1;20
  7
dayus
 11
0.0000000000000001
 21
1.0
 31
0.0
 73
     1
 44
1.0
1001
ACAD
1000
MTEXTBEGIN
1070
    73
1070
     1
1070
    44
1040
1.0
1070
    74
1070
     0
1000
MTEXTEND
  0
POINT
  5
5D50
330
560D
100
AcDbEntity
  8
Defpoints
 62
     0
100
AcDbPoint
 10
181.2414478053827
 20
287.4187082651951
 30
0.0
  0
POINT
  5
5D51
330
560D
100
AcDbEntity
  8
Defpoints
 62
     0
100
AcDbPoint
 10
181.2414478053827
 20
267.4630395685217
 30
0.0
  0
POINT
  5
5D52
330
560D
100
AcDbEntity
  8
Defpoints
 62
     0
100
AcDbPoint
 10
169.7103612385506
 20
267.4630395685217
 30
0.0
  0
ENDBLK
  5
5618
330
560D
100
AcDbEntity
  8
0
100
AcDbBlockEnd
  0
BLOCK
  5
5623
330
5619
100
AcDbEntity
  8
0
100
AcDbBlockBegin
  2
*D19
 70
     1
 10
0.0
 20
0.0
 30
0.0
  3
*D19
  1

  0
LINE
  5
5FED
330
5619
100
AcDbEntity
  8
DIM
100
AcDbLine
 10
81.09818396620653
 20
126.6470428669461
 30
0.0
 11
81.09818396620653
 21
143.5885647313213
 31
0.0
  0
LINE
  5
5FEE
330
5619
100
AcDbEntity
  8
DIM
100
AcDbLine
 10
90.09818396620699
 20
97.64704286694721
 30
0.0
 11
90.09818396620699
 21
143.5885647313213
 31
0.0
  0
LINE
  5
5FEF
330
5619
100
AcDbEntity
  8
DIM
100
AcDbLine
 10
84.09818396620654
 20
141.5885647313213
 30
0.0
 11
87.09818396620699
 21
141.5885647313213
 31
0.0
  0
SOLID
  5
5FF0
330
5619
100
AcDbEntity
  8
DIM
100
AcDbTrace
 10
84.09818396620654
 20
142.0885647313213
 30
0.0
 11
84.09818396620654
 21
141.0885647313213
 31
0.0
 12
81.09818396620653
 22
141.5885647313213
 32
0.0
 13
81.09818396620653
 23
141.5885647313213
 33
0.0
  0
SOLID
  5
5FF1
330
5619
100
AcDbEntity
  8
DIM
100
AcDbTrace
 10
87.09818396620699
 20
142.0885647313213
 30
0.0
 11
87.09818396620699
 21
141.0885647313213
 31
0.0
 12
90.09818396620699
 22
141.5885647313213
 32
0.0
 13
90.09818396620699
 23
141.5885647313213
 33
0.0
  0
MTEXT
  5
5FF2
330
5619
100
AcDbEntity
  8
DIM
100
AcDbMText
 10
85.59818396620675
 20
144.0885647313213
 30
0.0
 40
3.0
 41
0.0
 71
     5
 72
     1
  1
\A1;9
  7
dayus
 73
     1
 44
1.0
1001
ACAD
1000
MTEXTBEGIN
1070
    73
1070
     1
1070
    44
1040
1.0
1070
    74
1070
     0
1000
MTEXTEND
  0
POINT
  5
5FF3
330
5619
100
AcDbEntity
  8
Defpoints
 62
     0
100
AcDbPoint
 10
81.09818396620653
 20
124.6470428669461
 30
0.0
  0
POINT
  5
5FF4
330
5619
100
AcDbEntity
  8
Defpoints
 62
     0
100
AcDbPoint
 10
90.09818396620699
 20
95.6470428669472
 30
0.0
  0
POINT
  5
5FF5
330
5619
100
AcDbEntity
  8
Defpoints
 62
     0
100
AcDbPoint
 10
90.09818396620699
 20
141.5885647313213
 30
0.0
  0
ENDBLK
  5
5624
330
5619
100
AcDbEntity
  8
0
100
AcDbBlockEnd
  0
BLOCK
  5
5631
330
5625
100
AcDbEntity
  8
0
100
AcDbBlockBegin
  2
*D20
 70
     1
 10
0.0
 20
0.0
 30
0.0
  3
*D20
  1

  0
LINE
  5
5FF6
330
5625
100
AcDbEntity
  8
DIM
100
AcDbLine
 10
81.09818396620653
 20
126.6470428669461
 30
0.0
 11
81.09818396620653
 21
135.4193551114509
 31
0.0
  0
LINE
  5
5FF7
330
5625
100
AcDbEntity
  8
DIM
100
AcDbLine
 10
85.09818396620653
 20
107.1470428669463
 30
0.0
 11
85.09818396620653
 21
135.4193551114509
 31
0.0
  0
LINE
  5
5FF8
330
5625
100
AcDbEntity
  8
DIM
100
AcDbLine
 10
78.09818396620653
 20
133.4193551114509
 30
0.0
 11
75.09818396620653
 21
133.4193551114509
 31
0.0
  0
LINE
  5
5FF9
330
5625
100
AcDbEntity
  8
DIM
100
AcDbLine
 10
88.09818396620654
 20
133.4193551114509
 30
0.0
 11
91.09818396620653
 21
133.4193551114509
 31
0.0
  0
LINE
  5
5FFA
330
5625
100
AcDbEntity
  8
DIM
100
AcDbLine
 10
81.09818396620653
 20
133.4193551114509
 30
0.0
 11
85.09818396620653
 21
133.4193551114509
 31
0.0
  0
SOLID
  5
5FFB
330
5625
100
AcDbEntity
  8
DIM
100
AcDbTrace
 10
78.09818396620653
 20
133.9193551114509
 30
0.0
 11
78.09818396620653
 21
132.9193551114509
 31
0.0
 12
81.09818396620653
 22
133.4193551114509
 32
0.0
 13
81.09818396620653
 23
133.4193551114509
 33
0.0
  0
SOLID
  5
5FFC
330
5625
100
AcDbEntity
  8
DIM
100
AcDbTrace
 10
88.09818396620654
 20
133.9193551114509
 30
0.0
 11
88.09818396620654
 21
132.9193551114509
 31
0.0
 12
85.09818396620653
 22
133.4193551114509
 32
0.0
 13
85.09818396620653
 23
133.4193551114509
 33
0.0
  0
MTEXT
  5
5FFD
330
5625
100
AcDbEntity
  8
DIM
100
AcDbMText
 10
83.09818396620654
 20
135.9193551114509
 30
0.0
 40
3.0
 41
0.0
 71
     5
 72
     1
  1
\A1;4
  7
dayus
 73
     1
 44
1.0
1001
ACAD
1000
MTEXTBEGIN
1070
    73
1070
     1
1070
    44
1040
1.0
1070
    74
1070
     0
1000
MTEXTEND
  0
POINT
  5
5FFE
330
5625
100
AcDbEntity
  8
Defpoints
 62
     0
100
AcDbPoint
 10
81.09818396620653
 20
124.6470428669461
 30
0.0
  0
POINT
  5
5FFF
330
5625
100
AcDbEntity
  8
Defpoints
 62
     0
100
AcDbPoint
 10
85.09818396620653
 20
105.1470428669463
 30
0.0
  0
POINT
  5
6000
330
5625
100
AcDbEntity
  8
Defpoints
 62
     0
100
AcDbPoint
 10
85.09818396620653
 20
133.4193551114509
 30
0.0
  0
ENDBLK
  5
5632
330
5625
100
AcDbEntity
  8
0
100
AcDbBlockEnd
  0
BLOCK
  5
563D
330
5633
100
AcDbEntity
  8
0
100
AcDbBlockBegin
  2
*D21
 70
     1
 10
0.0
 20
0.0
 30
0.0
  3
*D21
  1

  0
LINE
  5
6001
330
5633
100
AcDbEntity
  8
DIM
100
AcDbLine
 10
44.09818396620653
 20
126.6470428669465
 30
0.0
 11
44.09818396620653
 21
135.4193551114509
 31
0.0
  0
LINE
  5
6002
330
5633
100
AcDbEntity
  8
DIM
100
AcDbLine
 10
56.09818396620653
 20
96.80137007317956
 30
0.0
 11
56.09818396620653
 21
135.4193551114509
 31
0.0
  0
LINE
  5
6003
330
5633
100
AcDbEntity
  8
DIM
100
AcDbLine
 10
47.09818396620653
 20
133.4193551114509
 30
0.0
 11
53.09818396620653
 21
133.4193551114509
 31
0.0
  0
SOLID
  5
6004
330
5633
100
AcDbEntity
  8
DIM
100
AcDbTrace
 10
47.09818396620653
 20
133.9193551114509
 30
0.0
 11
47.09818396620653
 21
132.9193551114509
 31
0.0
 12
44.09818396620653
 22
133.4193551114509
 32
0.0
 13
44.09818396620653
 23
133.4193551114509
 33
0.0
  0
SOLID
  5
6005
330
5633
100
AcDbEntity
  8
DIM
100
AcDbTrace
 10
53.09818396620653
 20
133.9193551114509
 30
0.0
 11
53.09818396620653
 21
132.9193551114509
 31
0.0
 12
56.09818396620653
 22
133.4193551114509
 32
0.0
 13
56.09818396620653
 23
133.4193551114509
 33
0.0
  0
MTEXT
  5
6006
330
5633
100
AcDbEntity
  8
DIM
100
AcDbMText
 10
50.09818396620653
 20
135.9193551114509
 30
0.0
 40
3.0
 41
0.0
 71
     5
 72
     1
  1
\A1;12
  7
dayus
 73
     1
 44
1.0
1001
ACAD
1000
MTEXTBEGIN
1070
    73
1070
     1
1070
    44
1040
1.0
1070
    74
1070
     0
1000
MTEXTEND
  0
POINT
  5
6007
330
5633
100
AcDbEntity
  8
Defpoints
 62
     0
100
AcDbPoint
 10
44.09818396620653
 20
124.6470428669465
 30
0.0
  0
POINT
  5
6008
330
5633
100
AcDbEntity
  8
Defpoints
 62
     0
100
AcDbPoint
 10
56.09818396620653
 20
94.80137007317955
 30
0.0
  0
POINT
  5
6009
330
5633
100
AcDbEntity
  8
Defpoints
 62
     0
100
AcDbPoint
 10
56.09818396620653
 20
133.4193551114509
 30
0.0
  0
ENDBLK
  5
563E
330
5633
100
AcDbEntity
  8
0
100
AcDbBlockEnd
  0
BLOCK
  5
5649
330
563F
100
AcDbEntity
  8
0
100
AcDbBlockBegin
  2
*D22
 70
     1
 10
0.0
 20
0.0
 30
0.0
  3
*D22
  1

  0
LINE
  5
600A
330
563F
100
AcDbEntity
  8
DIM
100
AcDbLine
 10
69.09818396620654
 20
96.80137007317956
 30
0.0
 11
69.09818396620654
 21
135.4193551114509
 31
0.0
  0
LINE
  5
600B
330
563F
100
AcDbEntity
  8
DIM
100
AcDbLine
 10
81.09818396620653
 20
126.6470428669465
 30
0.0
 11
81.09818396620653
 21
135.4193551114509
 31
0.0
  0
LINE
  5
600C
330
563F
100
AcDbEntity
  8
DIM
100
AcDbLine
 10
72.09818396620653
 20
133.4193551114509
 30
0.0
 11
78.09818396620653
 21
133.4193551114509
 31
0.0
  0
SOLID
  5
600D
330
563F
100
AcDbEntity
  8
DIM
100
AcDbTrace
 10
72.09818396620653
 20
133.9193551114509
 30
0.0
 11
72.09818396620653
 21
132.9193551114509
 31
0.0
 12
69.09818396620654
 22
133.4193551114509
 32
0.0
 13
69.09818396620654
 23
133.4193551114509
 33
0.0
  0
SOLID
  5
600E
330
563F
100
AcDbEntity
  8
DIM
100
AcDbTrace
 10
78.09818396620653
 20
133.9193551114509
 30
0.0
 11
78.09818396620653
 21
132.9193551114509
 31
0.0
 12
81.09818396620653
 22
133.4193551114509
 32
0.0
 13
81.09818396620653
 23
133.4193551114509
 33
0.0
  0
MTEXT
  5
600F
330
563F
100
AcDbEntity
  8
DIM
100
AcDbMText
 10
75.09818396620653
 20
135.9193551114509
 30
0.0
 40
3.0
 41
0.0
 71
     5
 72
     1
  1
\A1;12
  7
dayus
 73
     1
 44
1.0
1001
ACAD
1000
MTEXTBEGIN
1070
    73
1070
     1
1070
    44
1040
1.0
1070
    74
1070
     0
1000
MTEXTEND
  0
POINT
  5
6010
330
563F
100
AcDbEntity
  8
Defpoints
 62
     0
100
AcDbPoint
 10
69.09818396620654
 20
94.80137007317955
 30
0.0
  0
POINT
  5
6011
330
563F
100
AcDbEntity
  8
Defpoints
 62
     0
100
AcDbPoint
 10
81.09818396620653
 20
124.6470428669465
 30
0.0
  0
POINT
  5
6012
330
563F
100
AcDbEntity
  8
Defpoints
 62
     0
100
AcDbPoint
 10
81.09818396620653
 20
133.4193551114509
 30
0.0
  0
ENDBLK
  5
564A
330
563F
100
AcDbEntity
  8
0
100
AcDbBlockEnd
  0
BLOCK
  5
5655
330
564B
100
AcDbEntity
  8
0
100
AcDbBlockBegin
  2
*D23
 70
     1
 10
0.0
 20
0.0
 30
0.0
  3
*D23
  1

  0
LINE
  5
6013
330
564B
100
AcDbEntity
  8
DIM
100
AcDbLine
 10
44.09818396620653
 20
126.647042866946
 30
0.0
 11
44.09818396620653
 21
143.5885647313213
 31
0.0
  0
LINE
  5
6014
330
564B
100
AcDbEntity
  8
DIM
100
AcDbLine
 10
81.09818396620653
 20
126.6470428669465
 30
0.0
 11
81.09818396620653
 21
143.5885647313213
 31
0.0
  0
LINE
  5
6015
330
564B
100
AcDbEntity
  8
DIM
100
AcDbLine
 10
47.09818396620653
 20
141.5885647313213
 30
0.0
 11
78.09818396620653
 21
141.5885647313213
 31
0.0
  0
SOLID
  5
6016
330
564B
100
AcDbEntity
  8
DIM
100
AcDbTrace
 10
47.09818396620653
 20
142.0885647313213
 30
0.0
 11
47.09818396620653
 21
141.0885647313213
 31
0.0
 12
44.09818396620653
 22
141.5885647313213
 32
0.0
 13
44.09818396620653
 23
141.5885647313213
 33
0.0
  0
SOLID
  5
6017
330
564B
100
AcDbEntity
  8
DIM
100
AcDbTrace
 10
78.09818396620653
 20
142.0885647313213
 30
0.0
 11
78.09818396620653
 21
141.0885647313213
 31
0.0
 12
81.09818396620653
 22
141.5885647313213
 32
0.0
 13
81.09818396620653
 23
141.5885647313213
 33
0.0
  0
MTEXT
  5
6018
330
564B
100
AcDbEntity
  8
DIM
100
AcDbMText
 10
62.59818396620653
 20
144.0885647313213
 30
0.0
 40
3.0
 41
0.0
 71
     5
 72
     1
  1
\A1;32+stroke=S
  7
dayus
 73
     1
 44
1.0
1001
ACAD
1000
MTEXTBEGIN
1070
    73
1070
     1
1070
    44
1040
1.0
1070
    74
1070
     0
1000
MTEXTEND
  0
POINT
  5
6019
330
564B
100
AcDbEntity
  8
Defpoints
 62
     0
100
AcDbPoint
 10
44.09818396620653
 20
124.647042866946
 30
0.0
  0
POINT
  5
601A
330
564B
100
AcDbEntity
  8
Defpoints
 62
     0
100
AcDbPoint
 10
81.09818396620653
 20
124.6470428669465
 30
0.0
  0
POINT
  5
601B
330
564B
100
AcDbEntity
  8
Defpoints
 62
     0
100
AcDbPoint
 10
81.09818396620653
 20
141.5885647313213
 30
0.0
  0
ENDBLK
  5
5656
330
564B
100
AcDbEntity
  8
0
100
AcDbBlockEnd
  0
BLOCK
  5
5661
330
5657
100
AcDbEntity
  8
0
100
AcDbBlockBegin
  2
*D24
 70
     1
 10
0.0
 20
0.0
 30
0.0
  3
*D24
  1

  0
LINE
  5
601C
330
5657
100
AcDbEntity
  8
DIM
100
AcDbLine
 10
44.09818396620699
 20
126.6470428669465
 30
0.0
 11
44.09818396620699
 21
152.1936286734682
 31
0.0
  0
LINE
  5
601D
330
5657
100
AcDbEntity
  8
DIM
100
AcDbLine
 10
90.09818396620699
 20
97.64704286694721
 30
0.0
 11
90.09818396620699
 21
152.1936286734682
 31
0.0
  0
LINE
  5
601E
330
5657
100
AcDbEntity
  8
DIM
100
AcDbLine
 10
47.09818396620699
 20
150.1936286734682
 30
0.0
 11
87.09818396620699
 21
150.1936286734682
 31
0.0
  0
SOLID
  5
601F
330
5657
100
AcDbEntity
  8
DIM
100
AcDbTrace
 10
47.09818396620699
 20
150.6936286734682
 30
0.0
 11
47.09818396620699
 21
149.6936286734682
 31
0.0
 12
44.09818396620699
 22
150.1936286734682
 32
0.0
 13
44.09818396620699
 23
150.1936286734682
 33
0.0
  0
SOLID
  5
6020
330
5657
100
AcDbEntity
  8
DIM
100
AcDbTrace
 10
87.09818396620699
 20
150.6936286734682
 30
0.0
 11
87.09818396620699
 21
149.6936286734682
 31
0.0
 12
90.09818396620699
 22
150.1936286734682
 32
0.0
 13
90.09818396620699
 23
150.1936286734682
 33
0.0
  0
MTEXT
  5
6021
330
5657
100
AcDbEntity
  8
DIM
100
AcDbMText
 10
67.09818396620699
 20
152.6936286734682
 30
0.0
 40
3.0
 41
0.0
 71
     5
 72
     1
  1
\A1;41+stroke=ZZ
  7
dayus
 73
     1
 44
1.0
1001
ACAD
1000
MTEXTBEGIN
1070
    73
1070
     1
1070
    44
1040
1.0
1070
    74
1070
     0
1000
MTEXTEND
  0
POINT
  5
6022
330
5657
100
AcDbEntity
  8
Defpoints
 62
     0
100
AcDbPoint
 10
44.09818396620699
 20
124.6470428669465
 30
0.0
  0
POINT
  5
6023
330
5657
100
AcDbEntity
  8
Defpoints
 62
     0
100
AcDbPoint
 10
90.09818396620699
 20
95.6470428669472
 30
0.0
  0
POINT
  5
6024
330
5657
100
AcDbEntity
  8
Defpoints
 62
     0
100
AcDbPoint
 10
90.09818396620699
 20
150.1936286734682
 30
0.0
  0
ENDBLK
  5
5662
330
5657
100
AcDbEntity
  8
0
100
AcDbBlockEnd
  0
BLOCK
  5
566D
330
5663
100
AcDbEntity
  8
0
100
AcDbBlockBegin
  2
*D25
 70
     1
 10
0.0
 20
0.0
 30
0.0
  3
*D25
  1

  0
LINE
  5
6025
330
5663
100
AcDbEntity
  8
DIM
100
AcDbLine
 10
87.59818396620699
 20
77.1470428669472
 30
0.0
 11
104.9712828148256
 21
77.14704286694718
 31
0.0
  0
LINE
  5
6026
330
5663
100
AcDbEntity
  8
DIM
100
AcDbLine
 10
87.59818396620699
 20
97.1470428669472
 30
0.0
 11
104.9712828148256
 21
97.14704286694718
 31
0.0
  0
LINE
  5
6027
330
5663
100
AcDbEntity
  8
DIM
100
AcDbLine
 10
102.9712828148256
 20
80.14704286694719
 30
0.0
 11
102.9712828148256
 21
94.14704286694719
 31
0.0
  0
SOLID
  5
6028
330
5663
100
AcDbEntity
  8
DIM
100
AcDbTrace
 10
102.4712828148256
 20
80.14704286694719
 30
0.0
 11
103.4712828148256
 21
80.14704286694719
 31
0.0
 12
102.9712828148256
 22
77.14704286694718
 32
0.0
 13
102.9712828148256
 23
77.14704286694718
 33
0.0
  0
SOLID
  5
6029
330
5663
100
AcDbEntity
  8
DIM
100
AcDbTrace
 10
102.4712828148256
 20
94.14704286694719
 30
0.0
 11
103.4712828148256
 21
94.14704286694719
 31
0.0
 12
102.9712828148256
 22
97.14704286694718
 32
0.0
 13
102.9712828148256
 23
97.14704286694718
 33
0.0
  0
MTEXT
  5
602A
330
5663
100
AcDbEntity
  8
DIM
100
AcDbMText
 10
100.4712828148256
 20
87.14704286694722
 30
0.0
 40
3.0
 41
0.0
 71
     5
 72
     1
  1
\A1;%%c20
  7
dayus
 11
0.0000000000000001
 21
1.0
 31
0.0
 73
     1
 44
1.0
1001
ACAD
1000
MTEXTBEGIN
1070
    73
1070
     1
1070
    44
1040
1.0
1070
    74
1070
     0
1000
MTEXTEND
  0
POINT
  5
602B
330
5663
100
AcDbEntity
  8
Defpoints
 62
     0
100
AcDbPoint
 10
85.59818396620698
 20
77.1470428669472
 30
0.0
  0
POINT
  5
602C
330
5663
100
AcDbEntity
  8
Defpoints
 62
     0
100
AcDbPoint
 10
85.59818396620698
 20
97.1470428669472
 30
0.0
  0
POINT
  5
602D
330
5663
100
AcDbEntity
  8
Defpoints
 62
     0
100
AcDbPoint
 10
102.9712828148256
 20
97.14704286694718
 30
0.0
  0
ENDBLK
  5
566E
330
5663
100
AcDbEntity
  8
0
100
AcDbBlockEnd
  0
BLOCK
  5
5679
330
566F
100
AcDbEntity
  8
0
100
AcDbBlockBegin
  2
*D26
 70
     1
 10
0.0
 20
0.0
 30
0.0
  3
*D26
  1

  0
LINE
  5
602E
330
566F
100
AcDbEntity
  8
DIM
100
AcDbLine
 10
85.09818396620653
 20
107.1470428669464
 30
0.0
 11
114.374649535084
 21
107.1470428669463
 31
0.0
  0
LINE
  5
602F
330
566F
100
AcDbEntity
  8
DIM
100
AcDbLine
 10
85.09818396620653
 20
67.14704286694649
 30
0.0
 11
114.374649535084
 21
67.14704286694647
 31
0.0
  0
LINE
  5
6030
330
566F
100
AcDbEntity
  8
DIM
100
AcDbLine
 10
112.374649535084
 20
104.1470428669463
 30
0.0
 11
112.374649535084
 21
70.14704286694648
 31
0.0
  0
SOLID
  5
6031
330
566F
100
AcDbEntity
  8
DIM
100
AcDbTrace
 10
111.874649535084
 20
104.1470428669463
 30
0.0
 11
112.874649535084
 21
104.1470428669463
 31
0.0
 12
112.374649535084
 22
107.1470428669463
 32
0.0
 13
112.374649535084
 23
107.1470428669463
 33
0.0
  0
SOLID
  5
6032
330
566F
100
AcDbEntity
  8
DIM
100
AcDbTrace
 10
111.874649535084
 20
70.14704286694648
 30
0.0
 11
112.874649535084
 21
70.14704286694648
 31
0.0
 12
112.374649535084
 22
67.14704286694647
 32
0.0
 13
112.374649535084
 23
67.14704286694647
 33
0.0
  0
MTEXT
  5
6033
330
566F
100
AcDbEntity
  8
DIM
100
AcDbMText
 10
108.889649535084
 20
87.14704286694646
 30
0.0
 40
3.0
 41
0.0
 71
     5
 72
     1
  1
\A1;%%c40{}{\H0.71x;\C3;\S 0^ -0.05;}
  7
dayus
 11
0.0000000000000001
 21
1.0
 31
0.0
 73
     1
 44
1.0
1001
ACAD
1000
MTEXTBEGIN
1070
    73
1070
     1
1070
    44
1040
1.0
1070
    74
1070
     0
1000
MTEXTEND
  0
POINT
  5
6034
330
566F
100
AcDbEntity
  8
Defpoints
 62
     0
100
AcDbPoint
 10
83.09818396620654
 20
107.1470428669464
 30
0.0
  0
POINT
  5
6035
330
566F
100
AcDbEntity
  8
Defpoints
 62
     0
100
AcDbPoint
 10
83.09818396620654
 20
67.14704286694649
 30
0.0
  0
POINT
  5
6036
330
566F
100
AcDbEntity
  8
Defpoints
 62
     0
100
AcDbPoint
 10
112.374649535084
 20
67.14704286694647
 30
0.0
  0
ENDBLK
  5
567A
330
566F
100
AcDbEntity
  8
0
100
AcDbBlockEnd
  0
BLOCK
  5
5687
330
567B
100
AcDbEntity
  8
0
100
AcDbBlockBegin
  2
*D27
 70
     1
 10
0.0
 20
0.0
 30
0.0
  3
*D27
  1

  0
LINE
  5
6037
330
567B
100
AcDbEntity
  8
DIM
100
AcDbLine
 10
87.0981839662074
 20
79.87921599052016
 30
0.0
 11
87.0981839662074
 21
54.88701008879329
 31
0.0
  0
LINE
  5
6038
330
567B
100
AcDbEntity
  8
DIM
100
AcDbLine
 10
90.09818396620699
 20
76.64704286694695
 30
0.0
 11
90.09818396620699
 21
54.88701008879329
 31
0.0
  0
LINE
  5
6039
330
567B
100
AcDbEntity
  8
DIM
100
AcDbLine
 10
84.09818396620741
 20
56.88701008879329
 30
0.0
 11
81.0981839662074
 21
56.88701008879329
 31
0.0
  0
LINE
  5
603A
330
567B
100
AcDbEntity
  8
DIM
100
AcDbLine
 10
93.098183966207
 20
56.88701008879329
 30
0.0
 11
96.09818396620701
 21
56.88701008879329
 31
0.0
  0
LINE
  5
603B
330
567B
100
AcDbEntity
  8
DIM
100
AcDbLine
 10
87.0981839662074
 20
56.88701008879329
 30
0.0
 11
90.09818396620699
 21
56.88701008879329
 31
0.0
  0
SOLID
  5
603C
330
567B
100
AcDbEntity
  8
DIM
100
AcDbTrace
 10
84.09818396620741
 20
57.38701008879329
 30
0.0
 11
84.09818396620741
 21
56.38701008879329
 31
0.0
 12
87.0981839662074
 22
56.88701008879329
 32
0.0
 13
87.0981839662074
 23
56.88701008879329
 33
0.0
  0
SOLID
  5
603D
330
567B
100
AcDbEntity
  8
DIM
100
AcDbTrace
 10
93.098183966207
 20
57.38701008879329
 30
0.0
 11
93.098183966207
 21
56.38701008879329
 31
0.0
 12
90.09818396620699
 22
56.88701008879329
 32
0.0
 13
90.09818396620699
 23
56.88701008879329
 33
0.0
  0
MTEXT
  5
603E
330
567B
100
AcDbEntity
  8
DIM
100
AcDbMText
 10
88.5981839662072
 20
59.38701008879329
 30
0.0
 40
3.0
 41
0.0
 71
     5
 72
     1
  1
\A1;3
  7
dayus
 73
     1
 44
1.0
1001
ACAD
1000
MTEXTBEGIN
1070
    73
1070
     1
1070
    44
1040
1.0
1070
    74
1070
     0
1000
MTEXTEND
  0
POINT
  5
603F
330
567B
100
AcDbEntity
  8
Defpoints
 62
     0
100
AcDbPoint
 10
87.0981839662074
 20
81.87921599052016
 30
0.0
  0
POINT
  5
6040
330
567B
100
AcDbEntity
  8
Defpoints
 62
     0
100
AcDbPoint
 10
90.09818396620699
 20
78.64704286694695
 30
0.0
  0
POINT
  5
6041
330
567B
100
AcDbEntity
  8
Defpoints
 62
     0
100
AcDbPoint
 10
90.09818396620699
 20
56.88701008879329
 30
0.0
  0
ENDBLK
  5
5688
330
567B
100
AcDbEntity
  8
0
100
AcDbBlockEnd
  0
BLOCK
  5
5693
330
5689
100
AcDbEntity
  8
0
100
AcDbBlockBegin
  2
*D28
 70
     1
 10
0.0
 20
0.0
 30
0.0
  3
*D28
  1

  0
LINE
  5
5DA8
330
5689
100
AcDbEntity
  8
DIM
100
AcDbLine
 10
196.7080645512434
 20
317.2648731450728
 30
0.0
 11
196.7080645512434
 21
327.408710676529
 31
0.0
  0
LINE
  5
5DA9
330
5689
100
AcDbEntity
  8
DIM
100
AcDbLine
 10
256.708064551243
 20
317.2648731450728
 30
0.0
 11
256.708064551243
 21
327.408710676529
 31
0.0
  0
LINE
  5
5DAA
330
5689
100
AcDbEntity
  8
DIM
100
AcDbLine
 10
199.7080645512435
 20
325.408710676529
 30
0.0
 11
253.708064551243
 21
325.408710676529
 31
0.0
  0
SOLID
  5
5DAB
330
5689
100
AcDbEntity
  8
DIM
100
AcDbTrace
 10
199.7080645512435
 20
325.908710676529
 30
0.0
 11
199.7080645512435
 21
324.908710676529
 31
0.0
 12
196.7080645512434
 22
325.408710676529
 32
0.0
 13
196.7080645512434
 23
325.408710676529
 33
0.0
  0
SOLID
  5
5DAC
330
5689
100
AcDbEntity
  8
DIM
100
AcDbTrace
 10
253.708064551243
 20
325.908710676529
 30
0.0
 11
253.708064551243
 21
324.908710676529
 31
0.0
 12
256.708064551243
 22
325.408710676529
 32
0.0
 13
256.708064551243
 23
325.408710676529
 33
0.0
  0
MTEXT
  5
5DAD
330
5689
100
AcDbEntity
  8
DIM
100
AcDbMText
 10
226.7080645512432
 20
327.908710676529
 30
0.0
 40
3.0
 41
0.0
 71
     5
 72
     1
  1
\A1;□60
  7
dayus
 73
     1
 44
1.0
1001
ACAD
1000
MTEXTBEGIN
1070
    73
1070
     1
1070
    44
1040
1.0
1070
    74
1070
     0
1000
MTEXTEND
  0
POINT
  5
5DAE
330
5689
100
AcDbEntity
  8
Defpoints
 62
     0
100
AcDbPoint
 10
196.7080645512434
 20
315.2648731450728
 30
0.0
  0
POINT
  5
5DAF
330
5689
100
AcDbEntity
  8
Defpoints
 62
     0
100
AcDbPoint
 10
256.708064551243
 20
315.2648731450728
 30
0.0
  0
POINT
  5
5DB0
330
5689
100
AcDbEntity
  8
Defpoints
 62
     0
100
AcDbPoint
 10
256.708064551243
 20
325.408710676529
 30
0.0
  0
ENDBLK
  5
5694
330
5689
100
AcDbEntity
  8
0
100
AcDbBlockEnd
  0
BLOCK
  5
569F
330
5695
100
AcDbEntity
  8
0
100
AcDbBlockBegin
  2
*D29
 70
     1
 10
0.0
 20
0.0
 30
0.0
  3
*D29
  1

  0
LINE
  5
5DB1
330
5695
100
AcDbEntity
  8
DIM
100
AcDbLine
 10
189.2080645512433
 20
312.5127653051654
 30
0.0
 11
189.2080645512433
 21
335.9368783858721
 31
0.0
  0
LINE
  5
5DB2
330
5695
100
AcDbEntity
  8
DIM
100
AcDbLine
 10
264.2080645512443
 20
312.5127653051654
 30
0.0
 11
264.2080645512443
 21
335.9368783858721
 31
0.0
  0
LINE
  5
5DB3
330
5695
100
AcDbEntity
  8
DIM
100
AcDbLine
 10
192.2080645512433
 20
333.9368783858721
 30
0.0
 11
261.2080645512443
 21
333.9368783858721
 31
0.0
  0
SOLID
  5
5DB4
330
5695
100
AcDbEntity
  8
DIM
100
AcDbTrace
 10
192.2080645512433
 20
334.4368783858722
 30
0.0
 11
192.2080645512433
 21
333.4368783858721
 31
0.0
 12
189.2080645512433
 22
333.9368783858721
 32
0.0
 13
189.2080645512433
 23
333.9368783858721
 33
0.0
  0
SOLID
  5
5DB5
330
5695
100
AcDbEntity
  8
DIM
100
AcDbTrace
 10
261.2080645512443
 20
334.4368783858722
 30
0.0
 11
261.2080645512443
 21
333.4368783858721
 31
0.0
 12
264.2080645512443
 22
333.9368783858721
 32
0.0
 13
264.2080645512443
 23
333.9368783858721
 33
0.0
  0
MTEXT
  5
5DB6
330
5695
100
AcDbEntity
  8
DIM
100
AcDbMText
 10
226.7080645512438
 20
336.4368783858722
 30
0.0
 40
3.0
 41
0.0
 71
     5
 72
     1
  1
\A1;□75
  7
dayus
 73
     1
 44
1.0
1001
ACAD
1000
MTEXTBEGIN
1070
    73
1070
     1
1070
    44
1040
1.0
1070
    74
1070
     0
1000
MTEXTEND
  0
POINT
  5
5DB7
330
5695
100
AcDbEntity
  8
Defpoints
 62
     0
100
AcDbPoint
 10
189.2080645512433
 20
310.5127653051654
 30
0.0
  0
POINT
  5
5DB8
330
5695
100
AcDbEntity
  8
Defpoints
 62
     0
100
AcDbPoint
 10
264.2080645512443
 20
310.5127653051654
 30
0.0
  0
POINT
  5
5DB9
330
5695
100
AcDbEntity
  8
Defpoints
 62
     0
100
AcDbPoint
 10
264.2080645512443
 20
333.9368783858721
 30
0.0
  0
ENDBLK
  5
56A0
330
5695
100
AcDbEntity
  8
0
100
AcDbBlockEnd
  0
BLOCK
  5
56B7
330
56AD
100
AcDbEntity
  8
0
100
AcDbBlockBegin
  2
*D30
 70
     1
 10
0.0
 20
0.0
 30
0.0
  3
*D30
  1

  0
LINE
  5
5DBA
330
56AD
100
AcDbEntity
  8
DIM
100
AcDbLine
 10
218.2080645512439
 20
270.1730470404316
 30
0.0
 11
218.2080645512439
 21
226.6213191552895
 31
0.0
  0
LINE
  5
5DBB
330
56AD
100
AcDbEntity
  8
DIM
100
AcDbLine
 10
235.2080645512439
 20
270.1730470404316
 30
0.0
 11
235.2080645512439
 21
226.6213191552895
 31
0.0
  0
LINE
  5
5DBC
330
56AD
100
AcDbEntity
  8
DIM
100
AcDbLine
 10
221.2080645512439
 20
228.6213191552895
 30
0.0
 11
232.2080645512439
 21
228.6213191552895
 31
0.0
  0
SOLID
  5
5DBD
330
56AD
100
AcDbEntity
  8
DIM
100
AcDbTrace
 10
221.2080645512439
 20
229.1213191552895
 30
0.0
 11
221.2080645512439
 21
228.1213191552895
 31
0.0
 12
218.2080645512439
 22
228.6213191552895
 32
0.0
 13
218.2080645512439
 23
228.6213191552895
 33
0.0
  0
SOLID
  5
5DBE
330
56AD
100
AcDbEntity
  8
DIM
100
AcDbTrace
 10
232.2080645512439
 20
229.1213191552895
 30
0.0
 11
232.2080645512439
 21
228.1213191552895
 31
0.0
 12
235.2080645512439
 22
228.6213191552895
 32
0.0
 13
235.2080645512439
 23
228.6213191552895
 33
0.0
  0
MTEXT
  5
5DBF
330
56AD
100
AcDbEntity
  8
DIM
100
AcDbMText
 10
226.7080645512439
 20
231.1213191552895
 30
0.0
 40
3.0
 41
0.0
 71
     5
 72
     1
  1
\A1;□17
  7
dayus
 73
     1
 44
1.0
1001
ACAD
1000
MTEXTBEGIN
1070
    73
1070
     1
1070
    44
1040
1.0
1070
    74
1070
     0
1000
MTEXTEND
  0
POINT
  5
5DC0
330
56AD
100
AcDbEntity
  8
Defpoints
 62
     0
100
AcDbPoint
 10
218.2080645512439
 20
272.1730470404316
 30
0.0
  0
POINT
  5
5DC1
330
56AD
100
AcDbEntity
  8
Defpoints
 62
     0
100
AcDbPoint
 10
235.2080645512439
 20
272.1730470404316
 30
0.0
  0
POINT
  5
5DC2
330
56AD
100
AcDbEntity
  8
Defpoints
 62
     0
100
AcDbPoint
 10
235.2080645512439
 20
228.6213191552895
 30
0.0
  0
ENDBLK
  5
56B8
330
56AD
100
AcDbEntity
  8
0
100
AcDbBlockEnd
  0
BLOCK
  5
56C3
330
56B9
100
AcDbEntity
  8
0
100
AcDbBlockBegin
  2
*D31
 70
     1
 10
0.0
 20
0.0
 30
0.0
  3
*D31
  1

  0
LINE
  5
5DC3
330
56B9
100
AcDbEntity
  8
DIM
100
AcDbLine
 10
179.2414478053827
 20
287.4187082651951
 30
0.0
 11
167.7103612385506
 21
287.4187082651951
 31
0.0
  0
LINE
  5
5DC4
330
56B9
100
AcDbEntity
  8
DIM
100
AcDbLine
 10
179.2414478053827
 20
267.4630395685217
 30
0.0
 11
167.7103612385506
 21
267.4630395685217
 31
0.0
  0
LINE
  5
5DC5
330
56B9
100
AcDbEntity
  8
DIM
100
AcDbLine
 10
169.7103612385506
 20
284.4187082651951
 30
0.0
 11
169.7103612385506
 21
270.4630395685216
 31
0.0
  0
SOLID
  5
5DC6
330
56B9
100
AcDbEntity
  8
DIM
100
AcDbTrace
 10
169.2103612385506
 20
284.4187082651951
 30
0.0
 11
170.2103612385506
 21
284.4187082651951
 31
0.0
 12
169.7103612385506
 22
287.4187082651951
 32
0.0
 13
169.7103612385506
 23
287.4187082651951
 33
0.0
  0
SOLID
  5
5DC7
330
56B9
100
AcDbEntity
  8
DIM
100
AcDbTrace
 10
169.2103612385506
 20
270.4630395685216
 30
0.0
 11
170.2103612385506
 21
270.4630395685216
 31
0.0
 12
169.7103612385506
 22
267.4630395685217
 32
0.0
 13
169.7103612385506
 23
267.4630395685217
 33
0.0
  0
MTEXT
  5
5DC8
330
56B9
100
AcDbEntity
  8
DIM
100
AcDbMText
 10
167.2103612385506
 20
277.4408739168584
 30
0.0
 40
3.0
 41
0.0
 71
     5
 72
     1
  1
\A1;20
  7
dayus
 11
0.0000000000000001
 21
1.0
 31
0.0
 73
     1
 44
1.0
1001
ACAD
1000
MTEXTBEGIN
1070
    73
1070
     1
1070
    44
1040
1.0
1070
    74
1070
     0
1000
MTEXTEND
  0
POINT
  5
5DC9
330
56B9
100
AcDbEntity
  8
Defpoints
 62
     0
100
AcDbPoint
 10
181.2414478053827
 20
287.4187082651951
 30
0.0
  0
POINT
  5
5DCA
330
56B9
100
AcDbEntity
  8
Defpoints
 62
     0
100
AcDbPoint
 10
181.2414478053827
 20
267.4630395685217
 30
0.0
  0
POINT
  5
5DCB
330
56B9
100
AcDbEntity
  8
Defpoints
 62
     0
100
AcDbPoint
 10
169.7103612385506
 20
267.4630395685217
 30
0.0
  0
ENDBLK
  5
56C4
330
56B9
100
AcDbEntity
  8
0
100
AcDbBlockEnd
  0
BLOCK
  5
5742
330
5738
100
AcDbEntity
  8
0
100
AcDbBlockBegin
  2
*D32
 70
     1
 10
0.0
 20
0.0
 30
0.0
  3
*D32
  1

  0
LINE
  5
5F39
330
5738
100
AcDbEntity
  8
DIM
100
AcDbLine
 10
196.7080645512434
 20
126.9710420951606
 30
0.0
 11
196.7080645512434
 21
137.1148796266168
 31
0.0
  0
LINE
  5
5F3A
330
5738
100
AcDbEntity
  8
DIM
100
AcDbLine
 10
256.708064551243
 20
126.9710420951606
 30
0.0
 11
256.708064551243
 21
137.1148796266168
 31
0.0
  0
LINE
  5
5F3B
330
5738
100
AcDbEntity
  8
DIM
100
AcDbLine
 10
199.7080645512435
 20
135.1148796266168
 30
0.0
 11
253.708064551243
 21
135.1148796266168
 31
0.0
  0
SOLID
  5
5F3C
330
5738
100
AcDbEntity
  8
DIM
100
AcDbTrace
 10
199.7080645512435
 20
135.6148796266168
 30
0.0
 11
199.7080645512435
 21
134.6148796266168
 31
0.0
 12
196.7080645512434
 22
135.1148796266168
 32
0.0
 13
196.7080645512434
 23
135.1148796266168
 33
0.0
  0
SOLID
  5
5F3D
330
5738
100
AcDbEntity
  8
DIM
100
AcDbTrace
 10
253.708064551243
 20
135.6148796266168
 30
0.0
 11
253.708064551243
 21
134.6148796266168
 31
0.0
 12
256.708064551243
 22
135.1148796266168
 32
0.0
 13
256.708064551243
 23
135.1148796266168
 33
0.0
  0
MTEXT
  5
5F3E
330
5738
100
AcDbEntity
  8
DIM
100
AcDbMText
 10
226.7080645512432
 20
137.6148796266168
 30
0.0
 40
3.0
 41
0.0
 71
     5
 72
     1
  1
\A1;□60
  7
dayus
 73
     1
 44
1.0
1001
ACAD
1000
MTEXTBEGIN
1070
    73
1070
     1
1070
    44
1040
1.0
1070
    74
1070
     0
1000
MTEXTEND
  0
POINT
  5
5F3F
330
5738
100
AcDbEntity
  8
Defpoints
 62
     0
100
AcDbPoint
 10
196.7080645512434
 20
124.9710420951606
 30
0.0
  0
POINT
  5
5F40
330
5738
100
AcDbEntity
  8
Defpoints
 62
     0
100
AcDbPoint
 10
256.708064551243
 20
124.9710420951606
 30
0.0
  0
POINT
  5
5F41
330
5738
100
AcDbEntity
  8
Defpoints
 62
     0
100
AcDbPoint
 10
256.708064551243
 20
135.1148796266168
 30
0.0
  0
ENDBLK
  5
5743
330
5738
100
AcDbEntity
  8
0
100
AcDbBlockEnd
  0
BLOCK
  5
574E
330
5744
100
AcDbEntity
  8
0
100
AcDbBlockBegin
  2
*D33
 70
     1
 10
0.0
 20
0.0
 30
0.0
  3
*D33
  1

  0
LINE
  5
5F42
330
5744
100
AcDbEntity
  8
DIM
100
AcDbLine
 10
189.2080645512433
 20
122.2189342552532
 30
0.0
 11
189.2080645512433
 21
145.64304733596
 31
0.0
  0
LINE
  5
5F43
330
5744
100
AcDbEntity
  8
DIM
100
AcDbLine
 10
264.2080645512443
 20
122.2189342552532
 30
0.0
 11
264.2080645512443
 21
145.64304733596
 31
0.0
  0
LINE
  5
5F44
330
5744
100
AcDbEntity
  8
DIM
100
AcDbLine
 10
192.2080645512433
 20
143.64304733596
 30
0.0
 11
261.2080645512443
 21
143.64304733596
 31
0.0
  0
SOLID
  5
5F45
330
5744
100
AcDbEntity
  8
DIM
100
AcDbTrace
 10
192.2080645512433
 20
144.1430473359599
 30
0.0
 11
192.2080645512433
 21
143.1430473359599
 31
0.0
 12
189.2080645512433
 22
143.64304733596
 32
0.0
 13
189.2080645512433
 23
143.64304733596
 33
0.0
  0
SOLID
  5
5F46
330
5744
100
AcDbEntity
  8
DIM
100
AcDbTrace
 10
261.2080645512443
 20
144.1430473359599
 30
0.0
 11
261.2080645512443
 21
143.1430473359599
 31
0.0
 12
264.2080645512443
 22
143.64304733596
 32
0.0
 13
264.2080645512443
 23
143.64304733596
 33
0.0
  0
MTEXT
  5
5F47
330
5744
100
AcDbEntity
  8
DIM
100
AcDbMText
 10
226.7080645512438
 20
146.1430473359599
 30
0.0
 40
3.0
 41
0.0
 71
     5
 72
     1
  1
\A1;□75
  7
dayus
 73
     1
 44
1.0
1001
ACAD
1000
MTEXTBEGIN
1070
    73
1070
     1
1070
    44
1040
1.0
1070
    74
1070
     0
1000
MTEXTEND
  0
POINT
  5
5F48
330
5744
100
AcDbEntity
  8
Defpoints
 62
     0
100
AcDbPoint
 10
189.2080645512433
 20
120.2189342552532
 30
0.0
  0
POINT
  5
5F49
330
5744
100
AcDbEntity
  8
Defpoints
 62
     0
100
AcDbPoint
 10
264.2080645512443
 20
120.2189342552532
 30
0.0
  0
POINT
  5
5F4A
330
5744
100
AcDbEntity
  8
Defpoints
 62
     0
100
AcDbPoint
 10
264.2080645512443
 20
143.64304733596
 30
0.0
  0
ENDBLK
  5
574F
330
5744
100
AcDbEntity
  8
0
100
AcDbBlockEnd
  0
BLOCK
  5
575A
330
5750
100
AcDbEntity
  8
0
100
AcDbBlockBegin
  2
*D34
 70
     1
 10
0.0
 20
0.0
 30
0.0
  3
*D34
  1

  0
LINE
  5
5F4B
330
5750
100
AcDbEntity
  8
DIM
100
AcDbLine
 10
181.208064551243
 20
99.0142478340191
 30
0.0
 11
181.208064551243
 21
153.6283077129747
 31
0.0
  0
LINE
  5
5F4C
330
5750
100
AcDbEntity
  8
DIM
100
AcDbLine
 10
264.208064551243
 20
122.2189342552541
 30
0.0
 11
264.208064551243
 21
153.6283077129747
 31
0.0
  0
LINE
  5
5F4D
330
5750
100
AcDbEntity
  8
DIM
100
AcDbLine
 10
184.208064551243
 20
151.6283077129747
 30
0.0
 11
261.208064551243
 21
151.6283077129747
 31
0.0
  0
SOLID
  5
5F4E
330
5750
100
AcDbEntity
  8
DIM
100
AcDbTrace
 10
184.208064551243
 20
152.1283077129746
 30
0.0
 11
184.208064551243
 21
151.1283077129746
 31
0.0
 12
181.208064551243
 22
151.6283077129747
 32
0.0
 13
181.208064551243
 23
151.6283077129747
 33
0.0
  0
SOLID
  5
5F4F
330
5750
100
AcDbEntity
  8
DIM
100
AcDbTrace
 10
261.208064551243
 20
152.1283077129746
 30
0.0
 11
261.208064551243
 21
151.1283077129746
 31
0.0
 12
264.208064551243
 22
151.6283077129747
 32
0.0
 13
264.208064551243
 23
151.6283077129747
 33
0.0
  0
MTEXT
  5
5F50
330
5750
100
AcDbEntity
  8
DIM
100
AcDbMText
 10
222.708064551243
 20
154.1283077129746
 30
0.0
 40
3.0
 41
0.0
 71
     5
 72
     1
  1
\A1;83
  7
dayus
 73
     1
 44
1.0
1001
ACAD
1000
MTEXTBEGIN
1070
    73
1070
     1
1070
    44
1040
1.0
1070
    74
1070
     0
1000
MTEXTEND
  0
POINT
  5
5F51
330
5750
100
AcDbEntity
  8
Defpoints
 62
     0
100
AcDbPoint
 10
181.208064551243
 20
97.01424783401911
 30
0.0
  0
POINT
  5
5F52
330
5750
100
AcDbEntity
  8
Defpoints
 62
     0
100
AcDbPoint
 10
264.208064551243
 20
120.2189342552541
 30
0.0
  0
POINT
  5
5F53
330
5750
100
AcDbEntity
  8
Defpoints
 62
     0
100
AcDbPoint
 10
264.208064551243
 20
151.6283077129747
 30
0.0
  0
ENDBLK
  5
575B
330
5750
100
AcDbEntity
  8
0
100
AcDbBlockEnd
  0
BLOCK
  5
5766
330
575C
100
AcDbEntity
  8
0
100
AcDbBlockBegin
  2
*D35
 70
     1
 10
0.0
 20
0.0
 30
0.0
  3
*D35
  1

  0
LINE
  5
5F54
330
575C
100
AcDbEntity
  8
DIM
100
AcDbLine
 10
196.7080645512434
 20
126.9710420951606
 30
0.0
 11
196.7080645512434
 21
137.1148796266168
 31
0.0
  0
LINE
  5
5F55
330
575C
100
AcDbEntity
  8
DIM
100
AcDbLine
 10
256.708064551243
 20
126.9710420951606
 30
0.0
 11
256.708064551243
 21
137.1148796266168
 31
0.0
  0
LINE
  5
5F56
330
575C
100
AcDbEntity
  8
DIM
100
AcDbLine
 10
199.7080645512435
 20
135.1148796266168
 30
0.0
 11
253.708064551243
 21
135.1148796266168
 31
0.0
  0
SOLID
  5
5F57
330
575C
100
AcDbEntity
  8
DIM
100
AcDbTrace
 10
199.7080645512435
 20
135.6148796266168
 30
0.0
 11
199.7080645512435
 21
134.6148796266168
 31
0.0
 12
196.7080645512434
 22
135.1148796266168
 32
0.0
 13
196.7080645512434
 23
135.1148796266168
 33
0.0
  0
SOLID
  5
5F58
330
575C
100
AcDbEntity
  8
DIM
100
AcDbTrace
 10
253.708064551243
 20
135.6148796266168
 30
0.0
 11
253.708064551243
 21
134.6148796266168
 31
0.0
 12
256.708064551243
 22
135.1148796266168
 32
0.0
 13
256.708064551243
 23
135.1148796266168
 33
0.0
  0
MTEXT
  5
5F59
330
575C
100
AcDbEntity
  8
DIM
100
AcDbMText
 10
226.7080645512432
 20
137.6148796266168
 30
0.0
 40
3.0
 41
0.0
 71
     5
 72
     1
  1
\A1;□60
  7
dayus
 73
     1
 44
1.0
1001
ACAD
1000
MTEXTBEGIN
1070
    73
1070
     1
1070
    44
1040
1.0
1070
    74
1070
     0
1000
MTEXTEND
  0
POINT
  5
5F5A
330
575C
100
AcDbEntity
  8
Defpoints
 62
     0
100
AcDbPoint
 10
196.7080645512434
 20
124.9710420951606
 30
0.0
  0
POINT
  5
5F5B
330
575C
100
AcDbEntity
  8
Defpoints
 62
     0
100
AcDbPoint
 10
256.708064551243
 20
124.9710420951606
 30
0.0
  0
POINT
  5
5F5C
330
575C
100
AcDbEntity
  8
Defpoints
 62
     0
100
AcDbPoint
 10
256.708064551243
 20
135.1148796266168
 30
0.0
  0
ENDBLK
  5
5767
330
575C
100
AcDbEntity
  8
0
100
AcDbBlockEnd
  0
BLOCK
  5
5772
330
5768
100
AcDbEntity
  8
0
100
AcDbBlockBegin
  2
*D36
 70
     1
 10
0.0
 20
0.0
 30
0.0
  3
*D36
  1

  0
LINE
  5
5F5D
330
5768
100
AcDbEntity
  8
DIM
100
AcDbLine
 10
189.2080645512433
 20
122.2189342552532
 30
0.0
 11
189.2080645512433
 21
145.64304733596
 31
0.0
  0
LINE
  5
5F5E
330
5768
100
AcDbEntity
  8
DIM
100
AcDbLine
 10
264.2080645512443
 20
122.2189342552532
 30
0.0
 11
264.2080645512443
 21
145.64304733596
 31
0.0
  0
LINE
  5
5F5F
330
5768
100
AcDbEntity
  8
DIM
100
AcDbLine
 10
192.2080645512433
 20
143.64304733596
 30
0.0
 11
261.2080645512443
 21
143.64304733596
 31
0.0
  0
SOLID
  5
5F60
330
5768
100
AcDbEntity
  8
DIM
100
AcDbTrace
 10
192.2080645512433
 20
144.1430473359599
 30
0.0
 11
192.2080645512433
 21
143.1430473359599
 31
0.0
 12
189.2080645512433
 22
143.64304733596
 32
0.0
 13
189.2080645512433
 23
143.64304733596
 33
0.0
  0
SOLID
  5
5F61
330
5768
100
AcDbEntity
  8
DIM
100
AcDbTrace
 10
261.2080645512443
 20
144.1430473359599
 30
0.0
 11
261.2080645512443
 21
143.1430473359599
 31
0.0
 12
264.2080645512443
 22
143.64304733596
 32
0.0
 13
264.2080645512443
 23
143.64304733596
 33
0.0
  0
MTEXT
  5
5F62
330
5768
100
AcDbEntity
  8
DIM
100
AcDbMText
 10
226.7080645512438
 20
146.1430473359599
 30
0.0
 40
3.0
 41
0.0
 71
     5
 72
     1
  1
\A1;□75
  7
dayus
 73
     1
 44
1.0
1001
ACAD
1000
MTEXTBEGIN
1070
    73
1070
     1
1070
    44
1040
1.0
1070
    74
1070
     0
1000
MTEXTEND
  0
POINT
  5
5F63
330
5768
100
AcDbEntity
  8
Defpoints
 62
     0
100
AcDbPoint
 10
189.2080645512433
 20
120.2189342552532
 30
0.0
  0
POINT
  5
5F64
330
5768
100
AcDbEntity
  8
Defpoints
 62
     0
100
AcDbPoint
 10
264.2080645512443
 20
120.2189342552532
 30
0.0
  0
POINT
  5
5F65
330
5768
100
AcDbEntity
  8
Defpoints
 62
     0
100
AcDbPoint
 10
264.2080645512443
 20
143.64304733596
 30
0.0
  0
ENDBLK
  5
5773
330
5768
100
AcDbEntity
  8
0
100
AcDbBlockEnd
  0
BLOCK
  5
577E
330
5774
100
AcDbEntity
  8
0
100
AcDbBlockBegin
  2
*D37
 70
     1
 10
0.0
 20
0.0
 30
0.0
  3
*D37
  1

  0
LINE
  5
5F66
330
5774
100
AcDbEntity
  8
DIM
100
AcDbLine
 10
218.2080645512438
 20
79.87921599051944
 30
0.0
 11
218.2080645512438
 21
36.32748810537729
 31
0.0
  0
LINE
  5
5F67
330
5774
100
AcDbEntity
  8
DIM
100
AcDbLine
 10
235.2080645512438
 20
79.87921599051944
 30
0.0
 11
235.2080645512438
 21
36.32748810537729
 31
0.0
  0
LINE
  5
5F68
330
5774
100
AcDbEntity
  8
DIM
100
AcDbLine
 10
221.2080645512438
 20
38.32748810537728
 30
0.0
 11
232.2080645512438
 21
38.32748810537728
 31
0.0
  0
SOLID
  5
5F69
330
5774
100
AcDbEntity
  8
DIM
100
AcDbTrace
 10
221.2080645512438
 20
38.82748810537729
 30
0.0
 11
221.2080645512438
 21
37.82748810537729
 31
0.0
 12
218.2080645512438
 22
38.32748810537728
 32
0.0
 13
218.2080645512438
 23
38.32748810537728
 33
0.0
  0
SOLID
  5
5F6A
330
5774
100
AcDbEntity
  8
DIM
100
AcDbTrace
 10
232.2080645512438
 20
38.82748810537729
 30
0.0
 11
232.2080645512438
 21
37.82748810537729
 31
0.0
 12
235.2080645512438
 22
38.32748810537728
 32
0.0
 13
235.2080645512438
 23
38.32748810537728
 33
0.0
  0
MTEXT
  5
5F6B
330
5774
100
AcDbEntity
  8
DIM
100
AcDbMText
 10
226.7080645512438
 20
40.82748810537728
 30
0.0
 40
3.0
 41
0.0
 71
     5
 72
     1
  1
\A1;□17
  7
dayus
 73
     1
 44
1.0
1001
ACAD
1000
MTEXTBEGIN
1070
    73
1070
     1
1070
    44
1040
1.0
1070
    74
1070
     0
1000
MTEXTEND
  0
POINT
  5
5F6C
330
5774
100
AcDbEntity
  8
Defpoints
 62
     0
100
AcDbPoint
 10
218.2080645512438
 20
81.87921599051945
 30
0.0
  0
POINT
  5
5F6D
330
5774
100
AcDbEntity
  8
Defpoints
 62
     0
100
AcDbPoint
 10
235.2080645512438
 20
81.87921599051945
 30
0.0
  0
POINT
  5
5F6E
330
5774
100
AcDbEntity
  8
Defpoints
 62
     0
100
AcDbPoint
 10
235.2080645512438
 20
38.32748810537728
 30
0.0
  0
ENDBLK
  5
577F
330
5774
100
AcDbEntity
  8
0
100
AcDbBlockEnd
  0
BLOCK
  5
578A
330
5780
100
AcDbEntity
  8
0
100
AcDbBlockBegin
  2
*D38
 70
     1
 10
0.0
 20
0.0
 30
0.0
  3
*D38
  1

  0
LINE
  5
5F6F
330
5780
100
AcDbEntity
  8
DIM
100
AcDbLine
 10
179.2414478053827
 20
97.12487721528294
 30
0.0
 11
167.7103612385506
 21
97.12487721528294
 31
0.0
  0
LINE
  5
5F70
330
5780
100
AcDbEntity
  8
DIM
100
AcDbLine
 10
179.2414478053827
 20
77.16920851860948
 30
0.0
 11
167.7103612385506
 21
77.16920851860948
 31
0.0
  0
LINE
  5
5F71
330
5780
100
AcDbEntity
  8
DIM
100
AcDbLine
 10
169.7103612385506
 20
94.12487721528293
 30
0.0
 11
169.7103612385506
 21
80.16920851860948
 31
0.0
  0
SOLID
  5
5F72
330
5780
100
AcDbEntity
  8
DIM
100
AcDbTrace
 10
169.2103612385506
 20
94.12487721528293
 30
0.0
 11
170.2103612385506
 21
94.12487721528293
 31
0.0
 12
169.7103612385506
 22
97.12487721528294
 32
0.0
 13
169.7103612385506
 23
97.12487721528294
 33
0.0
  0
SOLID
  5
5F73
330
5780
100
AcDbEntity
  8
DIM
100
AcDbTrace
 10
169.2103612385506
 20
80.16920851860948
 30
0.0
 11
170.2103612385506
 21
80.16920851860948
 31
0.0
 12
169.7103612385506
 22
77.16920851860948
 32
0.0
 13
169.7103612385506
 23
77.16920851860948
 33
0.0
  0
MTEXT
  5
5F74
330
5780
100
AcDbEntity
  8
DIM
100
AcDbMText
 10
167.2103612385506
 20
87.14704286694624
 30
0.0
 40
3.0
 41
0.0
 71
     5
 72
     1
  1
\A1;20
  7
dayus
 11
0.0000000000000001
 21
1.0
 31
0.0
 73
     1
 44
1.0
1001
ACAD
1000
MTEXTBEGIN
1070
    73
1070
     1
1070
    44
1040
1.0
1070
    74
1070
     0
1000
MTEXTEND
  0
POINT
  5
5F75
330
5780
100
AcDbEntity
  8
Defpoints
 62
     0
100
AcDbPoint
 10
181.2414478053827
 20
97.12487721528294
 30
0.0
  0
POINT
  5
5F76
330
5780
100
AcDbEntity
  8
Defpoints
 62
     0
100
AcDbPoint
 10
181.2414478053827
 20
77.16920851860948
 30
0.0
  0
POINT
  5
5F77
330
5780
100
AcDbEntity
  8
Defpoints
 62
     0
100
AcDbPoint
 10
169.7103612385506
 20
77.16920851860948
 30
0.0
  0
ENDBLK
  5
578B
330
5780
100
AcDbEntity
  8
0
100
AcDbBlockEnd
  0
BLOCK
  5
6048
330
6046
100
AcDbEntity
  8
0
100
AcDbBlockBegin
  2
A$C5ECF147B
 70
     0
 10
0.0
 20
0.0
 30
0.0
  3
A$C5ECF147B
  1

  0
CIRCLE
  5
6049
330
6046
100
AcDbEntity
  8
0
100
AcDbCircle
 10
-3.079240456948355
 20
2.061381943681453
 30
0.0
 40
1.25
  0
CIRCLE
  5
604A
330
6046
100
AcDbEntity
  8
0
100
AcDbCircle
 10
-3.079240456948355
 20
2.061381943681453
 30
0.0
 40
0.75
  0
ENDBLK
  5
604B
330
6046
100
AcDbEntity
  8
0
100
AcDbBlockEnd
  0
BLOCK
  5
60AF
330
60AC
100
AcDbEntity
  8
0
100
AcDbBlockBegin
  2
A$C1F6E6265
 70
     0
 10
0.0
 20
0.0
 30
0.0
  3
A$C1F6E6265
  1

  0
LINE
  5
60B0
330
60AC
100
AcDbEntity
  8
AM_5
 62
     5
100
AcDbLine
 10
12.57846733029419
 20
0.460783587398737
 30
0.0
 11
7.091423997858555
 21
0.460783587398737
 31
0.0
  0
LINE
  5
60B1
330
60AC
100
AcDbEntity
  8
AM_5
 62
     5
100
AcDbLine
 10
7.091423997858555
 20
0.460783587398737
 30
0.0
 11
3.50000046420655
 21
0.460783587398737
 31
0.0
  0
TRACE
  5
60B2
330
60AC
100
AcDbEntity
  8
AM_5
 62
     5
370
    35
100
AcDbTrace
 10
3.50000046420655
 20
0.9215673268987245
 30
0.0
 11
3.50000046420655
 21
-0.0000001521012507
 31
0.0
 12
0.0000004642065505
 22
0.460783587398737
 32
0.0
 13
0.0000004642065505
 23
0.460783587398737
 33
0.0
  0
MTEXT
  5
60B3
330
60AC
100
AcDbEntity
  8
AM_5
 62
     5
100
AcDbMText
 10
6.603782167567317
 20
1.421084835219261
 30
0.0
 40
2.449999999999999
 41
0.0
 71
     7
 72
     5
  1
SL
  7
ACISOTS
 73
     1
 44
1.0
1001
ACAD
1000
MTEXTBEGIN
1070
    73
1070
     1
1070
    44
1040
1.0
1070
    74
1070
     0
1000
MTEXTEND
  0
ENDBLK
  5
60B4
330
60AC
100
AcDbEntity
  8
0
100
AcDbBlockEnd
  0
ENDSEC
  0
SECTION
  2
ENTITIES
  0
MTEXT
  5
A9
330
1F
100
AcDbEntity
  8
0
100
AcDbMText
 10
-112.8858816556399
 20
179.1757813154577
 30
0.0
 40
3.0
 41
0.0
 71
     4
 72
     5
  1

 73
     1
 44
1.0
1001
ACAD
1000
MTEXTBEGIN
1070
    73
1070
     1
1070
    44
1040
1.0
1070
    74
1070
     0
1000
MTEXTEND
  0
MTEXT
  5
AA
330
1F
100
AcDbEntity
  8
0
100
AcDbMText
 10
-176.2667196970539
 20
189.9084924046809
 30
0.0
 40
1.799999999999999
 41
0.0
 71
     9
 72
     5
  1

 73
     1
 44
1.0
1001
ACAD
1000
MTEXTBEGIN
1070
    73
1070
     1
1070
    44
1040
1.0
1070
    74
1070
     0
1000
MTEXTEND
  0
MTEXT
  5
AB
330
1F
100
AcDbEntity
  8
0
100
AcDbMText
 10
82.64233389287733
 20
174.944592339129
 30
0.0
 40
3.0
 41
0.0
 71
     4
 72
     5
  1

 73
     1
 44
1.0
1001
ACAD
1000
MTEXTBEGIN
1070
    73
1070
     1
1070
    44
1040
1.0
1070
    74
1070
     0
1000
MTEXTEND
  0
MTEXT
  5
AC
330
1F
100
AcDbEntity
  8
0
100
AcDbMText
 10
19.26149585146331
 20
185.6773034283523
 30
0.0
 40
1.799999999999999
 41
0.0
 71
     9
 72
     5
  1

 73
     1
 44
1.0
1001
ACAD
1000
MTEXTBEGIN
1070
    73
1070
     1
1070
    44
1040
1.0
1070
    74
1070
     0
1000
MTEXTEND
  0
MTEXT
  5
B1
330
1F
100
AcDbEntity
  8
0
100
AcDbMText
 10
-211.0828086697475
 20
93.72900974557683
 30
0.0
 40
3.0
 41
59.51
 71
     1
 72
     5
  1

  7
CHINESET
 73
     1
 44
1.0
1001
ACAD
1000
MTEXTBEGIN
1070
    73
1070
     1
1070
    44
1040
1.0
1070
    74
1070
     0
1000
MTEXTEND
  0
MTEXT
  5
B2
330
1F
100
AcDbEntity
  8
0
100
AcDbMText
 10
-179.9099428209695
 20
86.93407807798587
 30
0.0
 40
3.0
 41
38.26
 71
     1
 72
     5
  1

  7
CHINESET
 73
     1
 44
1.0
1001
ACAD
1000
MTEXTBEGIN
1070
    73
1070
     1
1070
    44
1040
1.0
1070
    74
1070
     0
1000
MTEXTEND
  0
MTEXT
  5
10B3
330
1F
100
AcDbEntity
  8
0
100
AcDbMText
 10
81.67014302795905
 20
125.5492500028813
 30
0.0
 40
3.0
 41
0.0
 71
     7
 72
     5
  1

  7
CHINESET
 73
     1
 44
1.0
1001
ACAD
1000
MTEXTBEGIN
1070
    73
1070
     1
1070
    44
1040
1.0
1070
    74
1070
     0
1000
MTEXTEND
  0
LINE
  5
17B4
330
1F
100
AcDbEntity
  8
0
 62
     4
100
AcDbLine
 10
307.9297013122746
 20
17.18172811264543
 30
0.0
 11
307.9297013122746
 21
406.5432776863929
 31
0.0
  0
LINE
  5
17B5
330
1F
100
AcDbEntity
  8
0
 62
     4
100
AcDbLine
 10
-15.15638632772516
 20
17.1817281126454
 30
0.0
 11
-15.15638632772516
 21
406.5432776863929
 31
0.0
  0
TEXT
  5
17BD
330
1F
100
AcDbEntity
  8
LOGO
  6
Continuous
 62
     7
100
AcDbText
 10
166.2435397088196
 20
3.988022225160155
 30
0.0
 40
6.804875
  1
11/12
  7
CHINESET
 72
     1
 11
179.8532897088196
 21
7.390459725160155
 31
0.0
100
AcDbText
 73
     2
  0
TEXT
  5
17BE
330
1F
100
AcDbEntity
  8
LOGO
100
AcDbText
 10
168.7158607533402
 20
-11.03833538296197
 30
0.0
 40
4.860625
  1
作動型式
  7
CHINESET
 72
     4
 11
178.3864792429235
 21
-8.732408955796614
 31
0.0
100
AcDbText
  0
LINE
  5
17BF
330
1F
100
AcDbEntity
  8
0
 62
     4
100
AcDbLine
 10
307.9297013122746
 20
211.8625028995192
 30
0.0
 11
-15.15638632772516
 21
211.8625028995192
 31
0.0
  0
LINE
  5
17C0
330
1F
100
AcDbEntity
  8
0
 62
     4
100
AcDbLine
 10
307.9297013122746
 20
17.1817281126454
 30
0.0
 11
-15.15638632772516
 21
17.1817281126454
 31
0.0
  0
TEXT
  5
17C3
330
1F
100
AcDbEntity
  8
LOGO
  6
Continuous
100
AcDbText
 10
168.3874792429235
 20
-16.18306822290713
 30
0.0
 40
2.916375
  1
Acting type
 41
0.8
  7
CHINESET
 72
     4
 11
178.3864792429235
 21
-15.21094322290713
 31
0.0
100
AcDbText
  0
LINE
  5
17C4
330
1F
100
AcDbEntity
  8
LOGO
 62
     4
100
AcDbLine
 10
195.0953482406814
 20
1.633245871580157
 30
0.0
 11
164.0978101729291
 21
1.633245871580157
 31
0.0
  0
LINE
  5
17C5
330
1F
100
AcDbEntity
  8
LOGO
 62
     4
100
AcDbLine
 10
195.0953482406814
 20
-4.197434968819266
 30
0.0
 11
164.0978101729291
 21
-4.197434968819266
 31
0.0
  0
LINE
  5
17C6
330
1F
100
AcDbEntity
  8
LOGO
 62
     4
100
AcDbLine
 10
195.0953482406814
 20
-18.45021035646238
 30
0.0
 11
164.0978101729291
 21
-18.4502103564624
 31
0.0
  0
LINE
  5
17C7
330
1F
100
AcDbEntity
  8
LOGO
 62
     4
100
AcDbLine
 10
195.0953482406814
 20
13.29460755237915
 30
0.0
 11
164.0978101729291
 21
13.29460755237909
 31
0.0
  0
LINE
  5
1802
330
1F
100
AcDbEntity
  8
LOGO
 62
     4
100
AcDbLine
 10
152.3314348881987
 20
-4.197434968819266
 30
0.0
 11
126.4172978197567
 21
-4.197434968819266
 31
0.0
  0
TEXT
  5
1803
330
1F
100
AcDbEntity
  8
LOGO
  6
Continuous
 62
     7
100
AcDbText
 10
126.8987621873109
 20
4.061489211979638
 30
0.0
 40
6.804875
  1
MCJA
  7
CHINESET
 72
     1
 11
139.3743663539776
 21
7.463926711979638
 31
0.0
100
AcDbText
 73
     2
  0
LINE
  5
1804
330
1F
100
AcDbEntity
  8
LOGO
 62
     4
100
AcDbLine
 10
152.3314348881987
 20
-18.45021035646238
 30
0.0
 11
126.4172978197567
 21
-18.4502103564624
 31
0.0
  0
TEXT
  5
1805
330
1F
100
AcDbEntity
  8
LOGO
  6
Continuous
100
AcDbText
 10
134.9303663539776
 20
-16.66913072290713
 30
0.0
 40
2.916375
  1
Model
 41
0.8
  7
CHINESET
 72
     4
 11
139.3743663539776
 21
-15.21094322290713
 31
0.0
100
AcDbText
  0
TEXT
  5
1806
330
1F
100
AcDbEntity
  8
LOGO
100
AcDbText
 10
134.5137413539776
 20
-11.03833538296197
 30
0.0
 40
4.860625
  1
型式
  7
CHINESET
 72
     4
 11
139.3743663539776
 21
-8.732408955796614
 31
0.0
100
AcDbText
  0
LINE
  5
1807
330
1F
100
AcDbEntity
  8
LOGO
 62
     4
100
AcDbLine
 10
154.9228485950428
 20
1.633245871580157
 30
0.0
 11
123.8258841129125
 21
1.633245871580157
 31
0.0
  0
LINE
  5
1808
330
1F
100
AcDbEntity
  8
LOGO
 62
     4
100
AcDbLine
 10
154.9228485950428
 20
13.29460755237909
 30
0.0
 11
123.8258841129125
 21
13.29460755237909
 31
0.0
  0
LINE
  5
1809
330
1F
100
AcDbEntity
  8
LOGO
 62
     4
100
AcDbLine
 10
139.3743663539776
 20
1.633245871580157
 30
0.0
 11
139.3743663539776
 21
-4.197434968819266
 31
0.0
  0
LINE
  5
180A
330
1F
100
AcDbEntity
  8
LOGO
 62
     4
100
AcDbLine
 10
126.4172978197567
 20
-4.197434968819266
 30
0.0
 11
126.4172978197567
 21
-18.4502103564624
 31
0.0
  0
LINE
  5
180B
330
1F
100
AcDbEntity
  8
LOGO
 62
     4
100
AcDbLine
 10
123.8258841129125
 20
13.29460755237909
 30
0.0
 11
123.8258841129125
 21
1.633245871580157
 31
0.0
  0
LINE
  5
180C
330
1F
100
AcDbEntity
  8
LOGO
 62
     4
100
AcDbLine
 10
152.3314348881987
 20
-4.197434968819266
 30
0.0
 11
152.3314348881987
 21
-18.45021035646238
 31
0.0
  0
LINE
  5
180D
330
1F
100
AcDbEntity
  8
LOGO
 62
     4
100
AcDbLine
 10
164.0978101729291
 20
-4.197434968819266
 30
0.0
 11
164.0978101729291
 21
-18.45021035646238
 31
0.0
  0
LINE
  5
180E
330
1F
100
AcDbEntity
  8
LOGO
  6
Continuous
 62
     7
100
AcDbLine
 10
156.9319259599365
 20
7.422620325975486
 30
0.0
 11
162.0811577739968
 21
7.422620325975486
 31
0.0
  0
LINE
  5
180F
330
1F
100
AcDbEntity
  8
LOGO
 62
     4
100
AcDbLine
 10
154.922848595043
 20
13.29460755237909
 30
0.0
 11
154.922848595043
 21
1.633245871580157
 31
0.0
  0
LINE
  5
1810
330
1F
100
AcDbEntity
  8
LOGO
 62
     4
100
AcDbLine
 10
164.0978101729291
 20
13.29460755237909
 30
0.0
 11
164.0978101729291
 21
1.633245871580157
 31
0.0
  0
LINE
  5
1868
330
1F
100
AcDbEntity
  8
LOGO
 62
     4
100
AcDbLine
 10
255.8327949926164
 20
13.29460755237909
 30
0.0
 11
234.24836841591
 21
13.29460755237909
 31
0.0
  0
LINE
  5
1869
330
1F
100
AcDbEntity
  8
LOGO
 62
     4
100
AcDbLine
 10
255.8327949926164
 20
1.633245871580157
 30
0.0
 11
234.24836841591
 21
1.633245871580157
 31
0.0
  0
LINE
  5
186A
330
1F
100
AcDbEntity
  8
LOGO
 62
     4
100
AcDbLine
 10
254.5370881391943
 20
-4.197434968819266
 30
0.0
 11
235.544075269332
 21
-4.197434968819266
 31
0.0
  0
LINE
  5
186B
330
1F
100
AcDbEntity
  8
LOGO
 62
     4
100
AcDbLine
 10
254.5370881391943
 20
-18.45021035646238
 30
0.0
 11
235.544075269332
 21
-18.4502103564624
 31
0.0
  0
LINE
  5
186C
330
1F
100
AcDbEntity
  8
LOGO
 62
     4
100
AcDbLine
 10
225.0734068380238
 20
1.633245871580271
 30
0.0
 11
204.2703098185675
 21
1.633245871580271
 31
0.0
  0
LINE
  5
186D
330
1F
100
AcDbEntity
  8
LOGO
 62
     4
100
AcDbLine
 10
225.0734068380238
 20
-4.197434968819209
 30
0.0
 11
204.2703098185675
 21
-4.197434968819209
 31
0.0
  0
LINE
  5
186E
330
1F
100
AcDbEntity
  8
LOGO
 62
     4
100
AcDbLine
 10
225.0734068380238
 20
13.29460755237923
 30
0.0
 11
204.2703098185675
 21
13.29460755237915
 31
0.0
  0
TEXT
  5
186F
330
1F
100
AcDbEntity
  8
LOGO
  6
Continuous
 62
     7
100
AcDbText
 10
209.767813360101
 20
3.98802222516024
 30
0.0
 40
6.804875
  1
63
  7
CHINESET
 72
     1
 11
215.2765216934343
 21
7.390459725160241
 31
0.0
100
AcDbText
 73
     2
  0
LINE
  5
1870
330
1F
100
AcDbEntity
  8
LOGO
 62
     4
100
AcDbLine
 10
225.0734068380238
 20
-18.45021035646229
 30
0.0
 11
204.2703098185675
 21
-18.45021035646235
 31
0.0
  0
TEXT
  5
1871
330
1F
100
AcDbEntity
  8
LOGO
  6
Continuous
100
AcDbText
 10
211.0611083282957
 20
-16.66913072290707
 30
0.0
 40
2.916375
  1
Bore
 41
0.8
  7
CHINESET
 72
     4
 11
214.6718583282957
 21
-15.21094322290707
 31
0.0
100
AcDbText
  0
TEXT
  5
1872
330
1F
100
AcDbEntity
  8
LOGO
100
AcDbText
 10
209.5074442657958
 20
-11.16272145579658
 30
0.0
 40
4.860625
  1
內徑
  7
CHINESET
 72
     4
 11
214.6718583282957
 21
-8.732408955796586
 31
0.0
100
AcDbText
  0
LINE
  5
1873
330
1F
100
AcDbEntity
  8
LOGO
 62
     4
100
AcDbLine
 10
214.6718580295259
 20
1.633245871580271
 30
0.0
 11
214.6718580295259
 21
-4.197434968819209
 31
0.0
  0
LINE
  5
1874
330
1F
100
AcDbEntity
  8
LOGO
 62
     4
100
AcDbLine
 10
178.3864792429235
 20
1.633245871580157
 30
0.0
 11
178.3864792429235
 21
-4.197434968819266
 31
0.0
  0
LINE
  5
1875
330
1F
100
AcDbEntity
  8
LOGO
 62
     4
100
AcDbLine
 10
195.0953482406814
 20
-4.197434968819266
 30
0.0
 11
195.0953482406814
 21
-18.45021035646235
 31
0.0
  0
LINE
  5
1876
330
1F
100
AcDbEntity
  8
LOGO
 62
     4
100
AcDbLine
 10
204.2703098185675
 20
-4.197434968819209
 30
0.0
 11
204.2703098185675
 21
-18.45021035646229
 31
0.0
  0
LINE
  5
1877
330
1F
100
AcDbEntity
  8
LOGO
 62
     4
100
AcDbLine
 10
195.0953482406814
 20
13.29460755237915
 30
0.0
 11
195.0953482406814
 21
1.633245871580157
 31
0.0
  0
LINE
  5
1878
330
1F
100
AcDbEntity
  8
LOGO
 62
     4
100
AcDbLine
 10
204.2703098185675
 20
13.29460755237915
 30
0.0
 11
204.2703098185675
 21
1.633245871580271
 31
0.0
  0
LINE
  5
1879
330
1F
100
AcDbEntity
  8
LOGO
  6
Continuous
 62
     7
100
AcDbLine
 10
197.1044256055749
 20
7.422620325975543
 30
0.0
 11
202.2536574196353
 21
7.422620325975543
 31
0.0
  0
LINE
  5
187A
330
1F
100
AcDbEntity
  8
LOGO
 62
     4
100
AcDbLine
 10
245.3150006509881
 20
1.633245871580157
 30
0.0
 11
245.3150006509881
 21
-4.197434968819266
 31
0.0
  0
LINE
  5
187B
330
1F
100
AcDbEntity
  8
LOGO
 62
     4
100
AcDbLine
 10
225.0734068380238
 20
-4.197434968819209
 30
0.0
 11
225.0734068380238
 21
-18.45021035646223
 31
0.0
  0
LINE
  5
187C
330
1F
100
AcDbEntity
  8
LOGO
 62
     4
100
AcDbLine
 10
235.544075269332
 20
-4.197434968819266
 30
0.0
 11
235.544075269332
 21
-18.4502103564624
 31
0.0
  0
TEXT
  5
187D
330
1F
100
AcDbEntity
  8
LOGO
  6
Continuous
100
AcDbText
 10
239.7633317042632
 20
-16.66913072290713
 30
0.0
 40
2.916375
  1
Stroke
 41
0.8
  7
CHINESET
 72
     4
 11
245.0405817042632
 21
-15.21094322290713
 31
0.0
100
AcDbText
  0
TEXT
  5
187E
330
1F
100
AcDbEntity
  8
LOGO
100
AcDbText
 10
240.1799567042632
 20
-11.16272145579667
 30
0.0
 40
4.860625
  1
行程
  7
CHINESET
 72
     4
 11
245.0405817042632
 21
-8.732408955796671
 31
0.0
100
AcDbText
  0
LINE
  5
187F
330
1F
100
AcDbEntity
  8
LOGO
 62
     4
100
AcDbLine
 10
225.0734068380238
 20
13.29460755237923
 30
0.0
 11
225.0734068380238
 21
1.633245871580271
 31
0.0
  0
LINE
  5
1880
330
1F
100
AcDbEntity
  8
LOGO
  6
Continuous
 62
     7
100
AcDbLine
 10
227.0824842029174
 20
7.422620325975628
 30
0.0
 11
232.2317160169778
 21
7.422620325975628
 31
0.0
  0
LINE
  5
1881
330
1F
100
AcDbEntity
  8
LOGO
 62
     4
100
AcDbLine
 10
234.24836841591
 20
13.29460755237909
 30
0.0
 11
234.24836841591
 21
1.633245871580157
 31
0.0
  0
TEXT
  5
1882
330
1F
100
AcDbEntity
  8
LOGO
  6
Continuous
 62
     7
100
AcDbText
 10
244.0250367360686
 20
3.988022225160155
 30
0.0
 40
6.804875
  1
*
  7
CHINESET
 72
     1
 11
245.6452450694019
 21
7.390459725160155
 31
0.0
100
AcDbText
 73
     2
  0
LINE
  5
1883
330
1F
100
AcDbEntity
  8
LOGO
 62
     4
100
AcDbLine
 10
267.0420297023351
 20
1.633245871580157
 30
0.0
 11
267.0420297023351
 21
-4.197434968819266
 31
0.0
  0
LINE
  5
1885
330
1F
100
AcDbEntity
  8
LOGO
 62
     4
100
AcDbLine
 10
276.5385361372663
 20
-18.45021035646238
 30
0.0
 11
257.5455232674041
 21
-18.4502103564624
 31
0.0
  0
LINE
  5
1886
330
1F
100
AcDbEntity
  8
LOGO
 62
     4
100
AcDbLine
 10
276.5385361372663
 20
-4.197434968819266
 30
0.0
 11
257.5455232674041
 21
-4.197434968819266
 31
0.0
  0
TEXT
  5
1887
330
1F
100
AcDbEntity
  8
LOGO
  6
Continuous
100
AcDbText
 10
261.0981797023351
 20
-16.18306822290713
 30
0.0
 40
2.916375
  1
Magnet
 41
0.8
  7
CHINESET
 72
     4
 11
267.0420297023351
 21
-15.21094322290713
 31
0.0
100
AcDbText
  0
TEXT
  5
1888
330
1F
100
AcDbEntity
  8
LOGO
100
AcDbText
 10
259.7510922023352
 20
-11.11208994538
 30
0.0
 40
4.860625
  1
附磁石
  7
CHINESET
 72
     4
 11
267.0420297023351
 21
-8.732408955796671
 31
0.0
100
AcDbText
  0
LINE
  5
1889
330
1F
100
AcDbEntity
  8
LOGO
 62
     4
100
AcDbLine
 10
257.5455232674041
 20
-4.197434968819266
 30
0.0
 11
257.5455232674041
 21
-18.4502103564624
 31
0.0
  0
LINE
  5
188A
330
1F
100
AcDbEntity
  8
LOGO
 62
     4
100
AcDbLine
 10
254.5370881391943
 20
-4.197434968819266
 30
0.0
 11
254.5370881391943
 21
-18.50395277037606
 31
0.0
  0
LINE
  5
188B
330
1F
100
AcDbEntity
  8
LOGO
 62
     4
100
AcDbLine
 10
276.5385361372663
 20
-4.197434968819266
 30
0.0
 11
276.5385361372663
 21
-18.50395277037606
 31
0.0
  0
TEXT
  5
188C
330
1F
100
AcDbEntity
  8
LOGO
  6
Continuous
 62
     7
100
AcDbText
 10
260.3557558662436
 20
3.988022225160155
 30
0.0
 40
6.804875
  1
(M)
  7
CHINESET
 72
     1
 11
267.6466933662436
 21
7.390459725160155
 31
0.0
100
AcDbText
 73
     2
  0
LINE
  5
188D
330
1F
100
AcDbEntity
  8
LOGO
 62
     4
100
AcDbLine
 10
275.5548371012783
 20
1.633245871580157
 30
0.0
 11
258.5292223033921
 21
1.633245871580157
 31
0.0
  0
LINE
  5
188E
330
1F
100
AcDbEntity
  8
LOGO
 62
     4
100
AcDbLine
 10
275.5548371012783
 20
13.29460755237915
 30
0.0
 11
258.5292223033921
 21
13.29460755237909
 31
0.0
  0
LINE
  5
188F
330
1F
100
AcDbEntity
  8
LOGO
 62
     4
100
AcDbLine
 10
258.5292223033921
 20
13.29460755237909
 30
0.0
 11
258.5292223033921
 21
1.633245871580157
 31
0.0
  0
LINE
  5
1890
330
1F
100
AcDbEntity
  8
LOGO
 62
     4
100
AcDbLine
 10
255.8327949926164
 20
13.29460755237909
 30
0.0
 11
255.8327949926164
 21
1.633245871580157
 31
0.0
  0
LINE
  5
1891
330
1F
100
AcDbEntity
  8
LOGO
 62
     4
100
AcDbLine
 10
275.5548371012782
 20
13.29460755237915
 30
0.0
 11
275.5548371012783
 21
1.633245871580157
 31
0.0
  0
LINE
  5
18E7
330
1F
100
AcDbEntity
  8
0
 62
     4
100
AcDbLine
 10
307.9297013122746
 20
406.5432776863929
 30
0.0
 11
-15.15638632772516
 21
406.543277686393
 31
0.0
  0
TEXT
  5
18EA
330
1F
100
AcDbEntity
  8
0
100
AcDbText
 10
-6.619996748564879
 20
394.490697788562
 30
0.0
 40
5.599999999999999
  1
11 type
  7
CHINESET
100
AcDbText
  0
LINE
  5
5285
330
1F
100
AcDbEntity
  8
0
100
AcDbLine
 10
81.09818396620653
 20
87.14704286694649
 30
0.0
 11
81.09818396620653
 21
49.6470428669453
 31
0.0
  0
LINE
  5
5286
330
1F
100
AcDbEntity
  8
CENTER
 48
1.5
100
AcDbLine
 10
38.55938254383204
 20
87.14704286694644
 30
0.0
 11
93.40401155877975
 21
87.14704286694644
 31
0.0
  0
LINE
  5
5287
330
1F
100
AcDbEntity
  8
0
100
AcDbLine
 10
85.09818396620653
 20
69.14704286694649
 30
0.0
 11
85.09818396620699
 21
87.14704286694644
 31
0.0
  0
ARC
  5
5288
330
1F
100
AcDbEntity
  8
0
100
AcDbCircle
 10
83.09818396620654
 20
69.14704286694649
 30
0.0
 40
2.0
100
AcDbArc
 50
270.0
 51
0.0
  0
LINE
  5
5289
102
{ACAD_REACTORS
330
5530
102
}
330
1F
100
AcDbEntity
  8
0
100
AcDbLine
 10
83.09818396620654
 20
67.14704286694649
 30
0.0
 11
81.09818396620653
 21
67.14704286694649
 31
0.0
  0
LINE
  5
528A
102
{ACAD_REACTORS
330
551B
330
551E
102
}
330
1F
100
AcDbEntity
  8
0
100
AcDbLine
 10
81.09818396620653
 20
124.6470428669461
 30
0.0
 11
81.09818396620653
 21
87.14704286694644
 31
0.0
  0
LINE
  5
528B
330
1F
100
AcDbEntity
  8
0
100
AcDbLine
 10
85.09818396620653
 20
105.1470428669464
 30
0.0
 11
85.09818396620699
 21
87.14704286694644
 31
0.0
  0
LINE
  5
528C
330
1F
100
AcDbEntity
  8
0
100
AcDbLine
 10
83.09818396620654
 20
107.1470428669464
 30
0.0
 11
81.09818396620653
 21
107.1470428669464
 31
0.0
  0
ARC
  5
528D
102
{ACAD_REACTORS
330
551E
330
5530
102
}
330
1F
100
AcDbEntity
  8
0
100
AcDbCircle
 10
83.09818396620654
 20
105.1470428669464
 30
0.0
 40
2.0
100
AcDbArc
 50
359.9999999999992
 51
90.0
  0
LINE
  5
528E
330
1F
100
AcDbEntity
  8
CENTER
 48
1.5
100
AcDbLine
 10
39.54756135704292
 20
277.4408739168585
 30
0.0
 11
121.3415173034541
 21
277.4408739168585
 31
0.0
  0
LINE
  5
528F
330
1F
100
AcDbEntity
  8
0
100
AcDbLine
 10
85.0981839662063
 20
259.4408739168585
 30
0.0
 11
85.0981839662063
 21
265.7265145629135
 31
0.0
  0
LINE
  5
5290
330
1F
100
AcDbEntity
  8
0
100
AcDbLine
 10
81.0981839662063
 20
277.4408739168586
 30
0.0
 11
81.0981839662063
 21
239.9408739168574
 31
0.0
  0
LINE
  5
5291
330
1F
100
AcDbEntity
  8
0
100
AcDbLine
 10
83.09818396620631
 20
257.4408739168585
 30
0.0
 11
81.0981839662063
 21
257.4408739168585
 31
0.0
  0
ARC
  5
5292
102
{ACAD_REACTORS
330
54FE
102
}
330
1F
100
AcDbEntity
  8
0
100
AcDbCircle
 10
83.09818396620631
 20
259.4408739168585
 30
0.0
 40
2.0
100
AcDbArc
 50
270.0
 51
0.0
  0
LINE
  5
5293
330
1F
100
AcDbEntity
  8
0
100
AcDbLine
 10
85.0981839662063
 20
295.4408739168584
 30
0.0
 11
85.0981839662063
 21
289.1552332708035
 31
0.0
  0
LINE
  5
5294
102
{ACAD_REACTORS
330
54E9
102
}
330
1F
100
AcDbEntity
  8
0
100
AcDbLine
 10
81.0981839662063
 20
314.9408739168582
 30
0.0
 11
81.0981839662063
 21
277.4408739168585
 31
0.0
  0
LINE
  5
5295
102
{ACAD_REACTORS
330
54EC
330
54F2
102
}
330
1F
100
AcDbEntity
  8
0
100
AcDbLine
 10
44.09818396620631
 20
314.9408739168581
 30
0.0
 11
44.09818396620676
 21
239.9408739168573
 31
0.0
  0
LINE
  5
5296
330
1F
100
AcDbEntity
  8
0
100
AcDbLine
 10
85.0981839662063
 20
277.4408739168584
 30
0.0
 11
85.0981839662063
 21
265.7265145629135
 31
0.0
  0
LINE
  5
5297
330
1F
100
AcDbEntity
  8
0
100
AcDbLine
 10
85.0981839662063
 20
277.4408739168586
 30
0.0
 11
85.0981839662063
 21
289.1552332708035
 31
0.0
  0
LINE
  5
5298
330
1F
100
AcDbEntity
  8
0
100
AcDbLine
 10
83.09818396620631
 20
297.4408739168584
 30
0.0
 11
81.0981839662063
 21
297.4408739168584
 31
0.0
  0
ARC
  5
5299
102
{ACAD_REACTORS
330
54E9
330
54FE
102
}
330
1F
100
AcDbEntity
  8
0
100
AcDbCircle
 10
83.09818396620631
 20
295.4408739168584
 30
0.0
 40
2.0
100
AcDbArc
 50
359.9999999999992
 51
90.0
  0
LINE
  5
529A
330
1F
100
AcDbEntity
  8
0
100
AcDbLine
 10
236.6080645512436
 20
313.7408739168581
 30
0.0
 11
235.3080738329879
 21
313.7395114695711
 31
0.0
  0
LINE
  5
529B
330
1F
100
AcDbEntity
  8
0
100
AcDbLine
 10
235.3080738329874
 20
314.9408739168584
 30
0.0
 11
242.8184564431387
 21
314.9408739168584
 31
0.0
  0
LINE
  5
529C
330
1F
100
AcDbEntity
  8
0
100
AcDbLine
 10
236.6080645512436
 20
312.4408739168584
 30
0.0
 11
228.0080645512437
 21
312.4408739168584
 31
0.0
  0
LINE
  5
529D
330
1F
100
AcDbEntity
  8
0
100
AcDbLine
 10
235.3082258081355
 20
241.14655065665
 30
0.0
 11
236.6080645512436
 21
241.1408739168584
 31
0.0
  0
LINE
  5
529E
330
1F
100
AcDbEntity
  8
0
100
AcDbLine
 10
235.3082258081355
 20
239.94655065665
 30
0.0
 11
242.8184564431382
 21
239.9408739168584
 31
0.0
  0
LINE
  5
529F
330
1F
100
AcDbEntity
  8
0
100
AcDbLine
 10
228.0080645512437
 20
242.4408739168584
 30
0.0
 11
236.6080645512436
 21
242.4408739168584
 31
0.0
  0
ARC
  5
52A0
330
1F
100
AcDbEntity
  8
0
100
AcDbCircle
 10
228.1976498392903
 20
277.4408739168582
 30
0.0
 40
29.59391121830053
100
AcDbArc
 50
32.67320277999257
 51
327.3267972200074
  0
CIRCLE
  5
52A1
330
1F
100
AcDbEntity
  8
0
100
AcDbCircle
 10
226.7080645512435
 20
277.4408739168582
 30
0.0
 40
32.8
  0
LINE
  5
52A2
330
1F
100
AcDbEntity
  8
CENTER
 48
1.5
100
AcDbLine
 10
265.9080645512438
 20
277.4408739168582
 30
0.0
 11
179.6350216332645
 21
277.4408739168582
 31
0.0
  0
LINE
  5
52A3
330
1F
100
AcDbEntity
  8
CENTER
 48
1.5
100
AcDbLine
 10
226.7080645512435
 20
238.2408739168586
 30
0.0
 11
226.7080645512435
 21
316.6408739168586
 31
0.0
  0
ARC
  5
52A4
330
1F
100
AcDbEntity
  8
0
100
AcDbCircle
 10
194.483459930697
 20
259.8867661426556
 30
0.0
 40
1.6999999983
100
AcDbArc
 50
0.1384018273715373
 51
90.13840182738457
  0
ARC
  5
52A5
330
1F
100
AcDbEntity
  8
0
 62
     3
100
AcDbCircle
 10
196.7080645512434
 20
247.4408739168583
 30
0.0
 40
4.0
100
AcDbArc
 50
270.0
 51
180.0
  0
LINE
  5
52A6
330
1F
100
AcDbEntity
  8
CENTER
 48
1.5
100
AcDbLine
 10
188.8840653230287
 20
247.4408739168584
 30
0.0
 11
204.5320637794581
 21
247.4408739168584
 31
0.0
  0
CIRCLE
  5
52A7
330
1F
100
AcDbEntity
  8
0
100
AcDbCircle
 10
196.7080645512434
 20
247.4408739168583
 30
0.0
 40
5.5
  0
ARC
  5
52A8
330
1F
100
AcDbEntity
  8
0
100
AcDbCircle
 10
226.7080645512435
 20
277.4408739168582
 30
0.0
 40
50.0
100
AcDbArc
 50
221.4096221092707
 51
228.5903778907175
  0
LINE
  5
52A9
330
1F
100
AcDbEntity
  8
0
100
AcDbLine
 10
192.3897465290994
 20
257.2817010437323
 30
0.0
 11
194.4897404002874
 21
257.2867737307087
 31
0.0
  0
LINE
  5
52AA
330
1F
100
AcDbEntity
  8
0
100
AcDbLine
 10
189.208064551243
 20
257.7304919478019
 30
0.0
 11
189.2080645512434
 21
244.3689825285513
 31
0.0
  0
LINE
  5
52AB
330
1F
100
AcDbEntity
  8
0
100
AcDbLine
 10
191.888660983988
 20
257.7304919478021
 30
0.0
 11
189.2080645512434
 21
257.7304919478019
 31
0.0
  0
LINE
  5
52AC
330
1F
100
AcDbEntity
  8
0
100
AcDbLine
 10
192.389746529099
 20
257.2817010437323
 30
0.0
 11
191.888660983988
 21
257.7304919478021
 31
0.0
  0
LINE
  5
52AD
330
1F
100
AcDbEntity
  8
0
100
AcDbLine
 10
210.5976726593482
 20
239.9408739168584
 30
0.0
 11
218.1080552694995
 21
239.9422363641455
 31
0.0
  0
LINE
  5
52AE
330
1F
100
AcDbEntity
  8
0
100
AcDbLine
 10
193.636173162936
 20
239.9408739168584
 30
0.0
 11
206.7976825821867
 21
239.9408739168584
 31
0.0
  0
LINE
  5
52AF
330
1F
100
AcDbEntity
  8
CENTER
 48
1.5
100
AcDbLine
 10
196.7080645512434
 20
255.2648731450728
 30
0.0
 11
196.7080645512434
 21
239.6168746886439
 31
0.0
  0
CIRCLE
  5
52B0
330
1F
100
AcDbEntity
  8
0
100
AcDbCircle
 10
196.7080645512434
 20
247.4408739168583
 30
0.0
 40
3.45
  0
CIRCLE
  5
52B1
330
1F
100
AcDbEntity
  8
0
100
AcDbCircle
 10
196.7080645512434
 20
247.4408739168583
 30
0.0
 40
3.45
  0
ARC
  5
52B2
330
1F
100
AcDbEntity
  8
0
100
AcDbCircle
 10
194.4856339394015
 20
258.9867687692894
 30
0.0
 40
1.6999999983
100
AcDbArc
 50
270.1384018273845
 51
0.1384018273715373
  0
LINE
  5
52B3
330
1F
100
AcDbEntity
  8
0
100
AcDbLine
 10
196.1856289779823
 20
258.9908752301753
 30
0.0
 11
196.1834549692777
 21
259.8908726035415
 31
0.0
  0
LINE
  5
52B4
330
1F
100
AcDbEntity
  8
0
100
AcDbLine
 10
210.8488791286447
 20
243.1121689642381
 30
0.0
 11
210.853951815621
 21
245.2121628354263
 31
0.0
  0
LINE
  5
52B5
330
1F
100
AcDbEntity
  8
0
100
AcDbLine
 10
206.5488916781171
 20
243.1225558947141
 30
0.0
 11
206.5539643650934
 21
245.2225497659019
 31
0.0
  0
LINE
  5
52B6
330
1F
100
AcDbEntity
  8
0
100
AcDbLine
 10
206.9976825821866
 20
242.6214703496027
 30
0.0
 11
206.9976825821866
 21
240.1408739168585
 31
0.0
  0
ARC
  5
52B7
330
1F
100
AcDbEntity
  8
0
100
AcDbCircle
 10
206.7976825821867
 20
240.1408739168585
 30
0.0
 40
0.2
100
AcDbArc
 50
270.0
 51
0.0
  0
LINE
  5
52B8
330
1F
100
AcDbEntity
  8
0
100
AcDbLine
 10
206.5488916781171
 20
243.1225558947138
 30
0.0
 11
206.9976825821866
 21
242.6214703496027
 31
0.0
  0
LINE
  5
52B9
330
1F
100
AcDbEntity
  8
0
100
AcDbLine
 10
210.3976726593479
 20
242.6132574278311
 30
0.0
 11
210.3976726593484
 21
240.1408739168585
 31
0.0
  0
ARC
  5
52BA
330
1F
100
AcDbEntity
  8
0
100
AcDbCircle
 10
210.5976726593482
 20
240.1408739168585
 30
0.0
 40
0.2
100
AcDbArc
 50
180.0
 51
270.0
  0
LINE
  5
52BB
330
1F
100
AcDbEntity
  8
0
100
AcDbLine
 10
210.8488791286447
 20
243.1121689642381
 30
0.0
 11
210.3976726593479
 21
242.6132574278311
 31
0.0
  0
LINE
  5
52BC
330
1F
100
AcDbEntity
  8
0
100
AcDbLine
 10
208.2580658645599
 20
246.9184383435967
 30
0.0
 11
209.1580632379261
 21
246.9162643348927
 31
0.0
  0
ARC
  5
52BD
330
1F
100
AcDbEntity
  8
0
100
AcDbCircle
 10
208.2539594036741
 20
245.218443305016
 30
0.0
 40
1.6999999983
100
AcDbArc
 50
89.86159817261542
 51
179.8615981726285
  0
ARC
  5
52BE
330
1F
100
AcDbEntity
  8
0
100
AcDbCircle
 10
209.1539567770403
 20
245.2162692963119
 30
0.0
 40
1.6999999983
100
AcDbArc
 50
359.8615981726155
 51
89.86159817261542
  0
LINE
  5
52BF
330
1F
100
AcDbEntity
  8
0
100
AcDbLine
 10
216.8080645512434
 20
242.4408739168584
 30
0.0
 11
225.4080645512437
 21
242.4408739168584
 31
0.0
  0
LINE
  5
52C0
330
1F
100
AcDbEntity
  8
0
100
AcDbLine
 10
216.8080645512434
 20
241.1408739168584
 30
0.0
 11
218.1080552694995
 21
241.1422363641453
 31
0.0
  0
ARC
  5
52C1
330
1F
100
AcDbEntity
  8
0
100
AcDbCircle
 10
216.8080645512434
 20
242.2408739168585
 30
0.0
 40
0.2
100
AcDbArc
 50
90.0
 51
180.0
  0
ARC
  5
52C2
330
1F
100
AcDbEntity
  8
0
100
AcDbCircle
 10
216.8080645512434
 20
241.3408739168583
 30
0.0
 40
0.2
100
AcDbArc
 50
180.0
 51
270.0
  0
LINE
  5
52C3
330
1F
100
AcDbEntity
  8
0
100
AcDbLine
 10
216.6080645512435
 20
242.2408739168586
 30
0.0
 11
216.6080645512435
 21
241.3408739168584
 31
0.0
  0
LINE
  5
52C4
330
1F
100
AcDbEntity
  8
0
100
AcDbLine
 10
218.3080552694998
 20
240.9422363641454
 30
0.0
 11
218.3080552694998
 21
240.1422363641456
 31
0.0
  0
ARC
  5
52C5
330
1F
100
AcDbEntity
  8
0
100
AcDbCircle
 10
218.1080552694995
 20
240.1422363641456
 30
0.0
 40
0.2
100
AcDbArc
 50
270.0
 51
0.0
  0
ARC
  5
52C6
330
1F
100
AcDbEntity
  8
0
100
AcDbCircle
 10
218.1080552694995
 20
240.9422363641454
 30
0.0
 40
0.2
100
AcDbArc
 50
0.0
 51
90.0
  0
LINE
  5
52C7
330
1F
100
AcDbEntity
  8
0
100
AcDbLine
 10
225.8080645512434
 20
239.9408739168584
 30
0.0
 11
227.6080645512436
 21
239.9408739168584
 31
0.0
  0
LINE
  5
52C8
330
1F
100
AcDbEntity
  8
0
100
AcDbLine
 10
225.6080645512436
 20
242.2408739168586
 30
0.0
 11
225.6080645512436
 21
240.1408739168584
 31
0.0
  0
ARC
  5
52C9
330
1F
100
AcDbEntity
  8
0
100
AcDbCircle
 10
225.8080645512434
 20
240.1408739168584
 30
0.0
 40
0.2
100
AcDbArc
 50
180.0
 51
270.0
  0
ARC
  5
52CA
330
1F
100
AcDbEntity
  8
0
100
AcDbCircle
 10
225.4080645512437
 20
242.2408739168585
 30
0.0
 40
0.2
100
AcDbArc
 50
0.0
 51
90.0
  0
LINE
  5
52CB
330
1F
100
AcDbEntity
  8
0
100
AcDbLine
 10
227.8080645512434
 20
242.2408739168586
 30
0.0
 11
227.8080645512434
 21
240.1408739168584
 31
0.0
  0
ARC
  5
52CC
330
1F
100
AcDbEntity
  8
0
100
AcDbCircle
 10
227.6080645512436
 20
240.1408739168584
 30
0.0
 40
0.2
100
AcDbArc
 50
270.0
 51
0.0
  0
ARC
  5
52CD
330
1F
100
AcDbEntity
  8
0
100
AcDbCircle
 10
228.0080645512432
 20
242.2408739168585
 30
0.0
 40
0.2
100
AcDbArc
 50
90.0
 51
180.0
  0
LINE
  5
52CE
330
1F
100
AcDbEntity
  8
0
100
AcDbLine
 10
235.1082258081357
 20
240.94655065665
 30
0.0
 11
235.1082258081357
 21
240.1465506566501
 31
0.0
  0
ARC
  5
52CF
330
1F
100
AcDbEntity
  8
0
100
AcDbCircle
 10
235.3082258081355
 20
240.14655065665
 30
0.0
 40
0.2
100
AcDbArc
 50
180.0
 51
270.0
  0
ARC
  5
52D0
330
1F
100
AcDbEntity
  8
0
100
AcDbCircle
 10
235.3082258081355
 20
240.9465506566499
 30
0.0
 40
0.2
100
AcDbArc
 50
90.0
 51
180.0
  0
ARC
  5
52D1
102
{ACAD_REACTORS
330
550D
330
553B
102
}
330
1F
100
AcDbEntity
  8
0
100
AcDbCircle
 10
226.7080645512435
 20
277.4408739168582
 30
0.0
 40
50.0
100
AcDbArc
 50
131.4096221092824
 51
138.5903778907293
  0
LINE
  5
52D2
330
1F
100
AcDbEntity
  8
0
100
AcDbLine
 10
192.3793595986232
 20
293.3000593394567
 30
0.0
 11
194.4793534698116
 21
293.2949866524804
 31
0.0
  0
LINE
  5
52D3
330
1F
100
AcDbEntity
  8
0
100
AcDbLine
 10
192.3897465290994
 20
297.6000467899843
 30
0.0
 11
194.4897404002874
 21
297.594974103008
 31
0.0
  0
ARC
  5
52D4
330
1F
100
AcDbEntity
  8
0
 62
     3
100
AcDbCircle
 10
196.7080645512434
 20
307.4408739168583
 30
0.0
 40
4.0
100
AcDbArc
 50
270.0
 51
180.0
  0
CIRCLE
  5
52D5
330
1F
100
AcDbEntity
  8
0
100
AcDbCircle
 10
196.7080645512434
 20
307.4408739168583
 30
0.0
 40
5.5
  0
LINE
  5
52D6
330
1F
100
AcDbEntity
  8
0
100
AcDbLine
 10
192.3793595986232
 20
261.5816884942599
 30
0.0
 11
194.4793534698116
 21
261.5867611812366
 31
0.0
  0
LINE
  5
52D7
330
1F
100
AcDbEntity
  8
0
100
AcDbLine
 10
189.208064551243
 20
293.7512658087534
 30
0.0
 11
189.2080645512434
 21
291.4408739168584
 31
0.0
  0
LINE
  5
52D8
330
1F
100
AcDbEntity
  8
0
100
AcDbLine
 10
189.2080645512434
 20
291.4408739168584
 30
0.0
 11
181.3304531512319
 21
287.4924059589588
 31
0.0
  0
LINE
  5
52D9
330
1F
100
AcDbEntity
  8
0
100
AcDbLine
 10
181.3304531512319
 20
267.3893418747578
 30
0.0
 11
189.208064551243
 21
263.4408739168584
 31
0.0
  0
LINE
  5
52DA
102
{ACAD_REACTORS
330
5510
102
}
330
1F
100
AcDbEntity
  8
0
100
AcDbLine
 10
181.208064551243
 20
287.3080788839313
 30
0.0
 11
181.208064551243
 21
267.5736689497856
 31
0.0
  0
ARC
  5
52DB
102
{ACAD_REACTORS
330
5516
330
5544
102
}
330
1F
100
AcDbEntity
  8
0
100
AcDbCircle
 10
181.4080645512433
 20
267.5736689497855
 30
0.0
 40
0.2
100
AcDbArc
 50
180.0
 51
247.1663458220706
  0
ARC
  5
52DC
102
{ACAD_REACTORS
330
5516
330
5544
102
}
330
1F
100
AcDbEntity
  8
0
100
AcDbCircle
 10
181.4080645512433
 20
287.3080788839312
 30
0.0
 40
0.2
100
AcDbArc
 50
112.8336541779294
 51
180.0
  0
LINE
  5
52DD
330
1F
100
AcDbEntity
  8
0
100
AcDbLine
 10
191.8804480622163
 20
261.1304820249635
 30
0.0
 11
189.2080645512434
 21
261.1304820249635
 31
0.0
  0
LINE
  5
52DE
330
1F
100
AcDbEntity
  8
0
100
AcDbLine
 10
189.208064551243
 20
263.4408739168584
 30
0.0
 11
189.208064551243
 21
261.1304820249635
 31
0.0
  0
LINE
  5
52DF
330
1F
100
AcDbEntity
  8
0
100
AcDbLine
 10
192.3793595986232
 20
261.5816884942599
 30
0.0
 11
191.8804480622163
 21
261.1304820249635
 31
0.0
  0
LINE
  5
52E0
330
1F
100
AcDbEntity
  8
0
100
AcDbLine
 10
189.2080645512434
 20
310.5127653051658
 30
0.0
 11
189.2080645512434
 21
297.1512558859148
 31
0.0
  0
LINE
  5
52E1
330
1F
100
AcDbEntity
  8
0
100
AcDbLine
 10
191.888660983988
 20
297.1512558859148
 30
0.0
 11
189.2080645512434
 21
297.1512558859148
 31
0.0
  0
LINE
  5
52E2
330
1F
100
AcDbEntity
  8
0
100
AcDbLine
 10
191.8804480622163
 20
293.7512658087534
 30
0.0
 11
189.2080645512434
 21
293.7512658087532
 31
0.0
  0
LINE
  5
52E3
330
1F
100
AcDbEntity
  8
0
100
AcDbLine
 10
192.389746529099
 20
297.6000467899843
 30
0.0
 11
191.888660983988
 21
297.1512558859148
 31
0.0
  0
LINE
  5
52E4
330
1F
100
AcDbEntity
  8
0
100
AcDbLine
 10
192.3793595986232
 20
293.3000593394567
 30
0.0
 11
191.8804480622163
 21
293.7512658087534
 31
0.0
  0
LINE
  5
52E5
330
1F
100
AcDbEntity
  8
0
100
AcDbLine
 10
210.5976726593492
 20
314.9408739168584
 30
0.0
 11
218.1079032943514
 21
314.9408739168584
 31
0.0
  0
LINE
  5
52E6
330
1F
100
AcDbEntity
  8
0
100
AcDbLine
 10
193.636173162936
 20
314.9408739168584
 30
0.0
 11
206.7976825821876
 21
314.9408739168584
 31
0.0
  0
CIRCLE
  5
52E7
330
1F
100
AcDbEntity
  8
0
100
AcDbCircle
 10
196.7080645512434
 20
307.4408739168583
 30
0.0
 40
3.45
  0
CIRCLE
  5
52E8
330
1F
100
AcDbEntity
  8
0
100
AcDbCircle
 10
196.7080645512434
 20
307.4408739168583
 30
0.0
 40
3.45
  0
ARC
  5
52E9
330
1F
100
AcDbEntity
  8
0
100
AcDbCircle
 10
194.483459930697
 20
294.9949816910611
 30
0.0
 40
1.6999999983
100
AcDbArc
 50
269.8615981726155
 51
359.8615981726285
  0
ARC
  5
52EA
330
1F
100
AcDbEntity
  8
0
100
AcDbCircle
 10
194.4856339394015
 20
295.8949790644273
 30
0.0
 40
1.6999999983
100
AcDbArc
 50
359.8615981726285
 51
89.86159817261542
  0
LINE
  5
52EB
330
1F
100
AcDbEntity
  8
0
100
AcDbLine
 10
196.1856289779823
 20
295.8908726035415
 30
0.0
 11
196.1834549692777
 21
294.9908752301753
 31
0.0
  0
ARC
  5
52EC
330
1F
100
AcDbEntity
  8
0
100
AcDbCircle
 10
209.1539567770412
 20
309.6654785374045
 30
0.0
 40
1.6999999983
100
AcDbArc
 50
270.1384018273585
 51
0.1384018273715373
  0
ARC
  5
52ED
330
1F
100
AcDbEntity
  8
0
100
AcDbCircle
 10
208.253959403675
 20
309.6633045287002
 30
0.0
 40
1.6999999983
100
AcDbArc
 50
180.1384018273715
 51
270.1384018273585
  0
LINE
  5
52EE
330
1F
100
AcDbEntity
  8
0
100
AcDbLine
 10
208.2580658645608
 20
307.9633094901196
 30
0.0
 11
209.158063237927
 21
307.9654834988239
 31
0.0
  0
ARC
  5
52EF
330
1F
100
AcDbEntity
  8
0
100
AcDbCircle
 10
206.7976825821876
 20
314.7408739168585
 30
0.0
 40
0.2
100
AcDbArc
 50
0.0
 51
90.0
  0
LINE
  5
52F0
330
1F
100
AcDbEntity
  8
0
100
AcDbLine
 10
206.5488916781175
 20
311.7591919390024
 30
0.0
 11
206.5539643650943
 21
309.6591980678145
 31
0.0
  0
LINE
  5
52F1
330
1F
100
AcDbEntity
  8
0
100
AcDbLine
 10
206.548891678118
 20
311.7591919390026
 30
0.0
 11
206.9976825821874
 21
312.2602774841136
 31
0.0
  0
LINE
  5
52F2
330
1F
100
AcDbEntity
  8
0
100
AcDbLine
 10
206.9976825821874
 20
312.2602774841136
 30
0.0
 11
206.9976825821874
 21
314.7408739168586
 31
0.0
  0
ARC
  5
52F3
330
1F
100
AcDbEntity
  8
0
100
AcDbCircle
 10
210.5976726593492
 20
314.7408739168585
 30
0.0
 40
0.2
100
AcDbArc
 50
90.0
 51
180.0
  0
LINE
  5
52F4
330
1F
100
AcDbEntity
  8
0
100
AcDbLine
 10
210.8488791286456
 20
311.7695788694782
 30
0.0
 11
210.3976726593489
 21
312.2684904058851
 31
0.0
  0
LINE
  5
52F5
330
1F
100
AcDbEntity
  8
0
100
AcDbLine
 10
210.8488791286456
 20
311.7695788694782
 30
0.0
 11
210.8539518156219
 21
309.6695849982902
 31
0.0
  0
LINE
  5
52F6
330
1F
100
AcDbEntity
  8
0
100
AcDbLine
 10
210.3976726593489
 20
312.2684904058851
 30
0.0
 11
210.3976726593489
 21
314.7408739168586
 31
0.0
  0
LINE
  5
52F7
330
1F
100
AcDbEntity
  8
0
100
AcDbLine
 10
225.4080645512437
 20
312.4408739168584
 30
0.0
 11
216.8080645512438
 21
312.4408739168584
 31
0.0
  0
LINE
  5
52F8
330
1F
100
AcDbEntity
  8
0
100
AcDbLine
 10
218.1079032943514
 20
313.7351971770667
 30
0.0
 11
216.8080645512434
 21
313.7408739168583
 31
0.0
  0
ARC
  5
52F9
330
1F
100
AcDbEntity
  8
0
100
AcDbCircle
 10
216.8080645512438
 20
313.5408739168582
 30
0.0
 40
0.2
100
AcDbArc
 50
90.0
 51
180.0
  0
ARC
  5
52FA
330
1F
100
AcDbEntity
  8
0
100
AcDbCircle
 10
216.8080645512438
 20
312.6408739168581
 30
0.0
 40
0.2
100
AcDbArc
 50
180.0
 51
270.0
  0
LINE
  5
52FB
330
1F
100
AcDbEntity
  8
0
100
AcDbLine
 10
216.6080645512435
 20
312.6408739168582
 30
0.0
 11
216.6080645512435
 21
313.5408739168583
 31
0.0
  0
ARC
  5
52FC
330
1F
100
AcDbEntity
  8
0
100
AcDbCircle
 10
218.1079032943514
 20
314.7408739168583
 30
0.0
 40
0.2
100
AcDbArc
 50
0.0
 51
90.0
  0
ARC
  5
52FD
330
1F
100
AcDbEntity
  8
0
100
AcDbCircle
 10
218.1079032943514
 20
313.9351971770667
 30
0.0
 40
0.2
100
AcDbArc
 50
270.0
 51
0.0
  0
LINE
  5
52FE
330
1F
100
AcDbEntity
  8
0
100
AcDbLine
 10
218.3079032943512
 20
313.9351971770667
 30
0.0
 11
218.3079032943512
 21
314.7408739168583
 31
0.0
  0
LINE
  5
52FF
330
1F
100
AcDbEntity
  8
0
100
AcDbLine
 10
227.6080645512436
 20
314.9408739168582
 30
0.0
 11
225.8080645512438
 21
314.9408739168584
 31
0.0
  0
ARC
  5
5300
330
1F
100
AcDbEntity
  8
0
100
AcDbCircle
 10
225.8080645512438
 20
314.740873916858
 30
0.0
 40
0.2
100
AcDbArc
 50
90.0
 51
180.0
  0
ARC
  5
5301
330
1F
100
AcDbEntity
  8
0
100
AcDbCircle
 10
225.4080645512437
 20
312.6408739168581
 30
0.0
 40
0.2
100
AcDbArc
 50
270.0
 51
0.0
  0
LINE
  5
5302
330
1F
100
AcDbEntity
  8
0
100
AcDbLine
 10
225.6080645512436
 20
312.6408739168582
 30
0.0
 11
225.6080645512436
 21
314.7408739168581
 31
0.0
  0
ARC
  5
5303
330
1F
100
AcDbEntity
  8
0
100
AcDbCircle
 10
227.6080645512436
 20
314.740873916858
 30
0.0
 40
0.2
100
AcDbArc
 50
0.0
 51
90.0
  0
ARC
  5
5304
330
1F
100
AcDbEntity
  8
0
100
AcDbCircle
 10
228.0080645512437
 20
312.6408739168581
 30
0.0
 40
0.2
100
AcDbArc
 50
180.0
 51
270.0
  0
LINE
  5
5305
330
1F
100
AcDbEntity
  8
0
100
AcDbLine
 10
227.8080645512438
 20
312.6408739168582
 30
0.0
 11
227.8080645512438
 21
314.7408739168581
 31
0.0
  0
ARC
  5
5306
330
1F
100
AcDbEntity
  8
0
100
AcDbCircle
 10
235.3080738329874
 20
314.7408739168583
 30
0.0
 40
0.2
100
AcDbArc
 50
90.0
 51
180.0
  0
ARC
  5
5307
330
1F
100
AcDbEntity
  8
0
100
AcDbCircle
 10
235.3080738329879
 20
313.9395114695711
 30
0.0
 40
0.2
100
AcDbArc
 50
180.0
 51
270.0
  0
LINE
  5
5308
330
1F
100
AcDbEntity
  8
0
100
AcDbLine
 10
235.1080738329871
 20
313.9395114695712
 30
0.0
 11
235.1080738329871
 21
314.7408739168583
 31
0.0
  0
ARC
  5
5309
330
1F
100
AcDbEntity
  8
0
100
AcDbCircle
 10
258.9326691717899
 20
259.886766142655
 30
0.0
 40
1.6999999983
100
AcDbArc
 50
89.86159817261542
 51
179.8615981726285
  0
CIRCLE
  5
530A
330
1F
100
AcDbEntity
  8
0
100
AcDbCircle
 10
256.7080645512435
 20
247.4408739168583
 30
0.0
 40
5.5
  0
LINE
  5
530B
330
1F
100
AcDbEntity
  8
0
100
AcDbLine
 10
246.6184465202993
 20
239.9408739168584
 30
0.0
 11
259.7799559395509
 21
239.9408739168584
 31
0.0
  0
CIRCLE
  5
530C
330
1F
100
AcDbEntity
  8
0
100
AcDbCircle
 10
256.7080645512435
 20
247.4408739168583
 30
0.0
 40
3.45
  0
CIRCLE
  5
530D
330
1F
100
AcDbEntity
  8
0
100
AcDbCircle
 10
256.7080645512435
 20
247.4408739168583
 30
0.0
 40
3.45
  0
ARC
  5
530E
330
1F
100
AcDbEntity
  8
0
 62
     3
100
AcDbCircle
 10
256.7080645512435
 20
247.4408739168583
 30
0.0
 40
4.0
100
AcDbArc
 50
270.0
 51
180.0
  0
ARC
  5
530F
330
1F
100
AcDbEntity
  8
0
100
AcDbCircle
 10
245.1621696988119
 20
245.218443305016
 30
0.0
 40
1.6999999983
100
AcDbArc
 50
0.1384018273715373
 51
90.13840182735851
  0
LINE
  5
5310
330
1F
100
AcDbEntity
  8
0
100
AcDbLine
 10
242.5672499738413
 20
243.1121689642381
 30
0.0
 11
242.562177286865
 21
245.2121628354263
 31
0.0
  0
ARC
  5
5311
330
1F
100
AcDbEntity
  8
0
100
AcDbCircle
 10
236.6080645512431
 20
242.2408739168585
 30
0.0
 40
0.2
100
AcDbArc
 50
0.0
 51
90.0
  0
ARC
  5
5312
330
1F
100
AcDbEntity
  8
0
100
AcDbCircle
 10
236.6080645512436
 20
241.3408739168583
 30
0.0
 40
0.2
100
AcDbArc
 50
270.0
 51
0.0
  0
LINE
  5
5313
330
1F
100
AcDbEntity
  8
0
100
AcDbLine
 10
236.8080645512434
 20
242.2408739168586
 30
0.0
 11
236.8080645512434
 21
241.3408739168584
 31
0.0
  0
LINE
  5
5314
330
1F
100
AcDbEntity
  8
0
100
AcDbLine
 10
243.0184564431381
 20
242.6132574278311
 30
0.0
 11
243.0184564431381
 21
240.1408739168584
 31
0.0
  0
ARC
  5
5315
330
1F
100
AcDbEntity
  8
0
100
AcDbCircle
 10
242.8184564431382
 20
240.1408739168584
 30
0.0
 40
0.2
100
AcDbArc
 50
270.0
 51
0.0
  0
LINE
  5
5316
330
1F
100
AcDbEntity
  8
0
100
AcDbLine
 10
242.5672499738413
 20
243.1121689642381
 30
0.0
 11
243.0184564431381
 21
242.6132574278311
 31
0.0
  0
ARC
  5
5317
330
1F
100
AcDbEntity
  8
0
100
AcDbCircle
 10
244.2621723254458
 20
245.2162692963119
 30
0.0
 40
1.6999999983
100
AcDbArc
 50
90.13840182735851
 51
180.1384018273845
  0
LINE
  5
5318
330
1F
100
AcDbEntity
  8
0
100
AcDbLine
 10
245.1580632379261
 20
246.9184383435967
 30
0.0
 11
244.2580658645599
 21
246.9162643348927
 31
0.0
  0
LINE
  5
5319
330
1F
100
AcDbEntity
  8
0
100
AcDbLine
 10
246.8672374243694
 20
243.1225558947141
 30
0.0
 11
246.8621647373927
 21
245.2225497659019
 31
0.0
  0
LINE
  5
531A
330
1F
100
AcDbEntity
  8
0
100
AcDbLine
 10
246.4184465202995
 20
242.6214703496027
 30
0.0
 11
246.4184465202995
 21
240.1408739168585
 31
0.0
  0
ARC
  5
531B
330
1F
100
AcDbEntity
  8
0
100
AcDbCircle
 10
246.6184465202993
 20
240.1408739168585
 30
0.0
 40
0.2
100
AcDbArc
 50
180.0
 51
270.0
  0
LINE
  5
531C
330
1F
100
AcDbEntity
  8
0
100
AcDbLine
 10
246.867237424369
 20
243.1225558947138
 30
0.0
 11
246.4184465202995
 21
242.6214703496027
 31
0.0
  0
ARC
  5
531D
330
1F
100
AcDbEntity
  8
0
100
AcDbCircle
 10
226.7080645512435
 20
277.4408739168582
 30
0.0
 40
50.0
100
AcDbArc
 50
311.4096221092824
 51
318.5903778907293
  0
LINE
  5
531E
330
1F
100
AcDbEntity
  8
0
100
AcDbLine
 10
261.5274681184989
 20
257.7304919478013
 30
0.0
 11
264.0080645512432
 21
257.7304919478013
 31
0.0
  0
LINE
  5
531F
330
1F
100
AcDbEntity
  8
0
100
AcDbLine
 10
261.0263825733875
 20
257.2817010437317
 30
0.0
 11
258.9263887021995
 21
257.2867737307082
 31
0.0
  0
LINE
  5
5320
330
1F
100
AcDbEntity
  8
0
100
AcDbLine
 10
257.2305001245047
 20
258.9908752301747
 30
0.0
 11
257.2326741332092
 21
259.8908726035409
 31
0.0
  0
ARC
  5
5321
330
1F
100
AcDbEntity
  8
0
100
AcDbCircle
 10
258.9304951630854
 20
258.9867687692888
 30
0.0
 40
1.6999999983
100
AcDbArc
 50
179.8615981726285
 51
269.8615981726155
  0
LINE
  5
5322
330
1F
100
AcDbEntity
  8
0
100
AcDbLine
 10
261.0263825733879
 20
257.281701043732
 30
0.0
 11
261.5274681184989
 21
257.7304919478013
 31
0.0
  0
LINE
  5
5323
330
1F
100
AcDbEntity
  8
0
100
AcDbLine
 10
264.208064551243
 20
257.5304919478015
 30
0.0
 11
264.208064551243
 21
244.3689825285509
 31
0.0
  0
ARC
  5
5324
330
1F
100
AcDbEntity
  8
0
100
AcDbCircle
 10
264.0080645512432
 20
257.5304919478015
 30
0.0
 40
0.2
100
AcDbArc
 50
0.0
 51
90.0
  0
LINE
  5
5325
330
1F
100
AcDbEntity
  8
0
100
AcDbLine
 10
246.6184465203002
 20
314.9408739168584
 30
0.0
 11
259.7799559395509
 21
314.9408739168584
 31
0.0
  0
LINE
  5
5326
330
1F
100
AcDbEntity
  8
0
100
AcDbLine
 10
253.5214626550143
 20
287.3863285184015
 30
0.0
 11
257.9639109286597
 21
287.3863285184015
 31
0.0
  0
CIRCLE
  5
5327
330
1F
100
AcDbEntity
  8
0
100
AcDbCircle
 10
256.708064551243
 20
307.4408739168583
 30
0.0
 40
5.5
  0
CIRCLE
  5
5328
330
1F
100
AcDbEntity
  8
0
100
AcDbCircle
 10
256.708064551243
 20
307.4408739168583
 30
0.0
 40
3.45
  0
ARC
  5
5329
330
1F
100
AcDbEntity
  8
0
 62
     3
100
AcDbCircle
 10
256.7080645512435
 20
307.4408739168583
 30
0.0
 40
4.0
100
AcDbArc
 50
270.0
 51
180.0
  0
CIRCLE
  5
532A
330
1F
100
AcDbEntity
  8
0
100
AcDbCircle
 10
256.7080645512435
 20
307.4408739168581
 30
0.0
 40
3.45
  0
LINE
  5
532B
330
1F
100
AcDbEntity
  8
0
100
AcDbLine
 10
253.52373356173
 20
267.5189039922804
 30
0.0
 11
257.9713739220662
 21
267.5189039922804
 31
0.0
  0
LINE
  5
532C
330
1F
100
AcDbEntity
  8
0
100
AcDbLine
 10
252.0596244537907
 20
290.9286381313608
 30
0.0
 11
253.1087199862406
 21
293.4170488448682
 31
0.0
  0
ARC
  5
532D
330
1F
100
AcDbEntity
  8
0
100
AcDbCircle
 10
253.5104665028291
 20
265.4408739168583
 30
0.0
 40
2.078072426362859
100
AcDbArc
 50
89.63420348800621
 51
225.7198558604214
  0
CIRCLE
  5
532E
330
1F
100
AcDbEntity
  8
0
100
AcDbCircle
 10
253.5104665028291
 20
265.4408739168583
 30
0.0
 40
1.242449324426689
  0
LINE
  5
532F
330
1F
100
AcDbEntity
  8
0
100
AcDbLine
 10
252.0596244537907
 20
263.9531097023564
 30
0.0
 11
253.1087199862406
 21
261.4646989888488
 31
0.0
  0
ARC
  5
5330
330
1F
100
AcDbEntity
  8
0
100
AcDbCircle
 10
253.5104665028291
 20
289.4643718514065
 30
0.0
 40
2.078072426362859
100
AcDbArc
 50
133.6407183530367
 51
270.3031829140065
  0
CIRCLE
  5
5331
330
1F
100
AcDbEntity
  8
0
100
AcDbCircle
 10
253.5104665028291
 20
289.4643718514065
 30
0.0
 40
1.242449324426689
  0
ARC
  5
5332
330
1F
100
AcDbEntity
  8
0
100
AcDbCircle
 10
245.1621696988129
 20
309.6633045287002
 30
0.0
 40
1.6999999983
100
AcDbArc
 50
269.8615981726155
 51
359.8615981726155
  0
ARC
  5
5333
330
1F
100
AcDbEntity
  8
0
100
AcDbCircle
 10
244.2621723254467
 20
309.6654785374045
 30
0.0
 40
1.6999999983
100
AcDbArc
 50
179.8615981726154
 51
269.8615981726155
  0
LINE
  5
5334
330
1F
100
AcDbEntity
  8
0
100
AcDbLine
 10
245.158063237927
 20
307.9633094901196
 30
0.0
 11
244.2580658645608
 21
307.9654834988239
 31
0.0
  0
ARC
  5
5335
330
1F
100
AcDbEntity
  8
0
100
AcDbCircle
 10
236.6080645512436
 20
313.5408739168582
 30
0.0
 40
0.2
100
AcDbArc
 50
0.0
 51
90.0
  0
ARC
  5
5336
330
1F
100
AcDbEntity
  8
0
100
AcDbCircle
 10
236.6080645512436
 20
312.6408739168581
 30
0.0
 40
0.2
100
AcDbArc
 50
270.0
 51
0.0
  0
LINE
  5
5337
330
1F
100
AcDbEntity
  8
0
100
AcDbLine
 10
236.8080645512439
 20
312.6408739168582
 30
0.0
 11
236.8080645512439
 21
313.5408739168583
 31
0.0
  0
ARC
  5
5338
330
1F
100
AcDbEntity
  8
0
100
AcDbCircle
 10
242.8184564431387
 20
314.7408739168585
 30
0.0
 40
0.2
100
AcDbArc
 50
0.0
 51
90.0
  0
LINE
  5
5339
330
1F
100
AcDbEntity
  8
0
100
AcDbLine
 10
242.5672499738423
 20
311.7695788694782
 30
0.0
 11
242.562177286866
 21
309.6695849982902
 31
0.0
  0
LINE
  5
533A
330
1F
100
AcDbEntity
  8
0
100
AcDbLine
 10
242.5672499738423
 20
311.7695788694782
 30
0.0
 11
243.018456443139
 21
312.2684904058851
 31
0.0
  0
LINE
  5
533B
330
1F
100
AcDbEntity
  8
0
100
AcDbLine
 10
243.018456443139
 20
312.2684904058851
 30
0.0
 11
243.0184564431385
 21
314.7408739168586
 31
0.0
  0
ARC
  5
533C
330
1F
100
AcDbEntity
  8
0
100
AcDbCircle
 10
246.6184465203002
 20
314.7408739168585
 30
0.0
 40
0.2
100
AcDbArc
 50
90.0
 51
180.0
  0
LINE
  5
533D
330
1F
100
AcDbEntity
  8
0
100
AcDbLine
 10
246.8672374243699
 20
311.7591919390024
 30
0.0
 11
246.8621647373936
 21
309.6591980678145
 31
0.0
  0
LINE
  5
533E
330
1F
100
AcDbEntity
  8
0
100
AcDbLine
 10
246.8672374243699
 20
311.7591919390026
 30
0.0
 11
246.4184465203004
 21
312.2602774841136
 31
0.0
  0
LINE
  5
533F
330
1F
100
AcDbEntity
  8
0
100
AcDbLine
 10
246.4184465203004
 20
312.2602774841136
 30
0.0
 11
246.4184465203004
 21
314.7408739168586
 31
0.0
  0
LINE
  5
5340
330
1F
100
AcDbEntity
  8
0
100
AcDbLine
 10
264.208064551243
 20
293.5512658087527
 30
0.0
 11
264.208064551243
 21
286.0410351737505
 31
0.0
  0
ARC
  5
5341
330
1F
100
AcDbEntity
  8
0
100
AcDbCircle
 10
264.0080645512432
 20
276.540873916858
 30
0.0
 40
0.2
100
AcDbArc
 50
270.0
 51
0.0
  0
LINE
  5
5342
330
1F
100
AcDbEntity
  8
0
100
AcDbLine
 10
261.9080645512433
 20
276.340873916858
 30
0.0
 11
264.0080645512437
 21
276.340873916858
 31
0.0
  0
LINE
  5
5343
330
1F
100
AcDbEntity
  8
0
100
AcDbLine
 10
261.9080645512433
 20
267.3408739168583
 30
0.0
 11
262.8080645512434
 21
267.3408739168583
 31
0.0
  0
LINE
  5
5344
330
1F
100
AcDbEntity
  8
0
100
AcDbLine
 10
261.5356810402706
 20
261.1304820249628
 30
0.0
 11
264.0080645512432
 21
261.1304820249631
 31
0.0
  0
LINE
  5
5345
330
1F
100
AcDbEntity
  8
0
100
AcDbLine
 10
261.7080645512435
 20
267.5408739168582
 30
0.0
 11
261.7080645512435
 21
276.1408739168582
 31
0.0
  0
LINE
  5
5346
330
1F
100
AcDbEntity
  8
0
100
AcDbLine
 10
261.0367695038637
 20
261.5816884942596
 30
0.0
 11
258.9367756326753
 21
261.5867611812358
 31
0.0
  0
ARC
  5
5347
330
1F
100
AcDbEntity
  8
0
100
AcDbCircle
 10
261.9080645512433
 20
267.5408739168581
 30
0.0
 40
0.2
100
AcDbArc
 50
180.0
 51
270.0
  0
LINE
  5
5348
330
1F
100
AcDbEntity
  8
0
100
AcDbLine
 10
261.0367695038637
 20
261.5816884942596
 30
0.0
 11
261.5356810402706
 21
261.1304820249628
 31
0.0
  0
ARC
  5
5349
330
1F
100
AcDbEntity
  8
0
100
AcDbCircle
 10
261.9080645512433
 20
276.1408739168581
 30
0.0
 40
0.2
100
AcDbArc
 50
90.0
 51
180.0
  0
LINE
  5
534A
330
1F
100
AcDbEntity
  8
0
100
AcDbLine
 10
263.0080645512436
 20
267.5408739168582
 30
0.0
 11
263.0067021039565
 21
268.8408646351142
 31
0.0
  0
LINE
  5
534B
330
1F
100
AcDbEntity
  8
0
100
AcDbLine
 10
264.208064551243
 20
268.8408646351144
 30
0.0
 11
264.208064551243
 21
261.3304820249632
 31
0.0
  0
ARC
  5
534C
330
1F
100
AcDbEntity
  8
0
100
AcDbCircle
 10
262.8080645512434
 20
267.5408739168581
 30
0.0
 40
0.2
100
AcDbArc
 50
270.0
 51
0.0
  0
ARC
  5
534D
330
1F
100
AcDbEntity
  8
0
100
AcDbCircle
 10
264.0080645512432
 20
261.3304820249631
 30
0.0
 40
0.2
100
AcDbArc
 50
270.0
 51
0.0
  0
LINE
  5
534E
330
1F
100
AcDbEntity
  8
0
100
AcDbLine
 10
263.2067021039563
 20
269.0408646351145
 30
0.0
 11
264.0080645512432
 21
269.0408646351145
 31
0.0
  0
ARC
  5
534F
330
1F
100
AcDbEntity
  8
0
100
AcDbCircle
 10
263.2067021039563
 20
268.8408646351141
 30
0.0
 40
0.2
100
AcDbArc
 50
90.0
 51
180.0
  0
ARC
  5
5350
330
1F
100
AcDbEntity
  8
0
100
AcDbCircle
 10
264.0080645512432
 20
268.8408646351144
 30
0.0
 40
0.2
100
AcDbArc
 50
0.0
 51
90.0
  0
LINE
  5
5351
330
1F
100
AcDbEntity
  8
0
100
AcDbLine
 10
261.9080645512433
 20
287.5408739168583
 30
0.0
 11
262.8080645512434
 21
287.5408739168583
 31
0.0
  0
LINE
  5
5352
330
1F
100
AcDbEntity
  8
0
100
AcDbLine
 10
261.9080645512433
 20
278.5408739168583
 30
0.0
 11
264.0080645512437
 21
278.5408739168583
 31
0.0
  0
LINE
  5
5353
330
1F
100
AcDbEntity
  8
0
100
AcDbLine
 10
261.7080645512435
 20
278.7408739168581
 30
0.0
 11
261.7080645512435
 21
287.340873916858
 31
0.0
  0
ARC
  5
5354
330
1F
100
AcDbEntity
  8
0
100
AcDbCircle
 10
261.9080645512433
 20
278.7408739168581
 30
0.0
 40
0.2
100
AcDbArc
 50
180.0
 51
270.0
  0
ARC
  5
5355
330
1F
100
AcDbEntity
  8
0
100
AcDbCircle
 10
261.9080645512433
 20
287.340873916858
 30
0.0
 40
0.2
100
AcDbArc
 50
90.0
 51
180.0
  0
LINE
  5
5356
330
1F
100
AcDbEntity
  8
0
100
AcDbLine
 10
264.2080645512435
 20
276.5408739168582
 30
0.0
 11
264.2080645512435
 21
278.3408739168579
 31
0.0
  0
ARC
  5
5357
330
1F
100
AcDbEntity
  8
0
100
AcDbCircle
 10
264.0080645512432
 20
278.3408739168578
 30
0.0
 40
0.2
100
AcDbArc
 50
0.0
 51
90.0
  0
ARC
  5
5358
330
1F
100
AcDbEntity
  8
0
100
AcDbCircle
 10
262.8080645512434
 20
287.3408739168582
 30
0.0
 40
0.2
100
AcDbArc
 50
0.0
 51
90.0
  0
LINE
  5
5359
330
1F
100
AcDbEntity
  8
0
100
AcDbLine
 10
263.2023878114521
 20
285.8410351737504
 30
0.0
 11
264.0080645512432
 21
285.8410351737504
 31
0.0
  0
ARC
  5
535A
330
1F
100
AcDbEntity
  8
0
100
AcDbCircle
 10
263.2023878114521
 20
286.0410351737504
 30
0.0
 40
0.2
100
AcDbArc
 50
180.0
 51
270.0
  0
LINE
  5
535B
330
1F
100
AcDbEntity
  8
0
100
AcDbLine
 10
263.0023878114518
 20
286.0410351737505
 30
0.0
 11
263.0080645512436
 21
287.3408739168582
 31
0.0
  0
ARC
  5
535C
330
1F
100
AcDbEntity
  8
0
100
AcDbCircle
 10
264.0080645512432
 20
286.0410351737504
 30
0.0
 40
0.2
100
AcDbArc
 50
270.0
 51
0.0
  0
LINE
  5
535D
330
1F
100
AcDbEntity
  8
0
100
AcDbLine
 10
264.208064551243
 20
310.5127653051661
 30
0.0
 11
264.208064551243
 21
297.3512558859142
 31
0.0
  0
LINE
  5
535E
330
1F
100
AcDbEntity
  8
0
100
AcDbLine
 10
261.5356810402706
 20
293.7512658087527
 30
0.0
 11
264.0080645512432
 21
293.7512658087527
 31
0.0
  0
LINE
  5
535F
330
1F
100
AcDbEntity
  8
0
100
AcDbLine
 10
261.5274681184989
 20
297.1512558859142
 30
0.0
 11
264.0080645512432
 21
297.1512558859142
 31
0.0
  0
LINE
  5
5360
330
1F
100
AcDbEntity
  8
0
100
AcDbLine
 10
261.0263825733875
 20
297.6000467899839
 30
0.0
 11
258.9263887021995
 21
297.5949741030074
 31
0.0
  0
LINE
  5
5361
330
1F
100
AcDbEntity
  8
0
100
AcDbLine
 10
261.0367695038637
 20
293.3000593394563
 30
0.0
 11
258.9367756326753
 21
293.2949866524797
 31
0.0
  0
LINE
  5
5362
330
1F
100
AcDbEntity
  8
0
100
AcDbLine
 10
257.2305001245047
 20
295.890872603541
 30
0.0
 11
257.2326741332092
 21
294.9908752301748
 31
0.0
  0
ARC
  5
5363
330
1F
100
AcDbEntity
  8
0
100
AcDbCircle
 10
258.9326691717899
 20
294.9949816910604
 30
0.0
 40
1.6999999983
100
AcDbArc
 50
180.1384018273715
 51
270.1384018273845
  0
ARC
  5
5364
330
1F
100
AcDbEntity
  8
0
100
AcDbCircle
 10
258.9304951630854
 20
295.8949790644266
 30
0.0
 40
1.6999999983
100
AcDbArc
 50
90.13840182738457
 51
180.1384018273715
  0
LINE
  5
5365
330
1F
100
AcDbEntity
  8
0
100
AcDbLine
 10
261.0263825733879
 20
297.6000467899839
 30
0.0
 11
261.5274681184989
 21
297.1512558859142
 31
0.0
  0
LINE
  5
5366
330
1F
100
AcDbEntity
  8
0
100
AcDbLine
 10
261.0367695038637
 20
293.3000593394563
 30
0.0
 11
261.5356810402706
 21
293.7512658087527
 31
0.0
  0
ARC
  5
5367
330
1F
100
AcDbEntity
  8
0
100
AcDbCircle
 10
264.0080645512432
 20
297.3512558859141
 30
0.0
 40
0.2
100
AcDbArc
 50
270.0
 51
0.0
  0
ARC
  5
5368
330
1F
100
AcDbEntity
  8
0
100
AcDbCircle
 10
264.0080645512432
 20
293.5512658087526
 30
0.0
 40
0.2
100
AcDbArc
 50
0.0
 51
90.0
  0
ARC
  5
5369
102
{ACAD_REACTORS
330
550D
330
553B
102
}
330
1F
100
AcDbEntity
  8
0
100
AcDbCircle
 10
226.7080645512435
 20
277.4408739168582
 30
0.0
 40
50.0
100
AcDbArc
 50
41.40962210927066
 51
48.59037789071755
  0
ARC
  5
536A
330
1F
100
AcDbEntity
  8
0
100
AcDbCircle
 10
84.10599024860539
 20
277.4408739168585
 30
0.0
 40
26.99999999999983
100
AcDbArc
 50
343.0232811802392
 51
16.97671881976082
  0
LINE
  5
536B
330
1F
100
AcDbEntity
  8
0
100
AcDbLine
 10
111.1059902486054
 20
265.7495309657686
 30
0.0
 11
111.1059902486054
 21
289.1322168679484
 31
0.0
  0
ARC
  5
536C
330
1F
100
AcDbEntity
  8
0
100
AcDbCircle
 10
127.1059902486054
 20
277.4408739168585
 30
0.0
 40
26.99999999999983
100
AcDbArc
 50
163.0232811802391
 51
196.9767188197608
  0
LINE
  5
536D
102
{ACAD_REACTORS
330
54E0
102
}
330
1F
100
AcDbEntity
  8
0
100
AcDbLine
 10
100.1059902486054
 20
265.7495309657686
 30
0.0
 11
100.1059902486054
 21
289.1322168679484
 31
0.0
  0
LINE
  5
536E
330
1F
100
AcDbEntity
  8
0
100
AcDbLine
 10
111.1059902486054
 20
265.7495309657686
 30
0.0
 11
111.1059902486054
 21
289.1322168679484
 31
0.0
  0
ARC
  5
536F
330
1F
100
AcDbEntity
  8
0
100
AcDbCircle
 10
104.3559902486054
 20
265.7495309657686
 30
0.0
 40
6.749999999999914
100
AcDbArc
 50
324.7356103172511
 51
34.34109372674026
  0
ARC
  5
5370
330
1F
100
AcDbEntity
  8
0
100
AcDbCircle
 10
106.8559902486054
 20
265.7495309657686
 30
0.0
 40
6.749999999999914
100
AcDbArc
 50
145.6589062732597
 51
215.2643896827489
  0
LINE
  5
5371
330
1F
100
AcDbEntity
  8
0
100
AcDbLine
 10
101.3446383273431
 20
261.8524166487386
 30
0.0
 11
109.8673421698677
 21
261.8524166487386
 31
0.0
  0
LINE
  5
5372
330
1F
100
AcDbEntity
  8
0
100
AcDbLine
 10
101.2825563599326
 20
269.557330158031
 30
0.0
 11
109.9294241372781
 21
269.557330158031
 31
0.0
  0
LINE
  5
5373
330
1F
100
AcDbEntity
  8
0
100
AcDbLine
 10
101.2825563599326
 20
285.324417675686
 30
0.0
 11
109.9294241372781
 21
285.324417675686
 31
0.0
  0
LINE
  5
5374
330
1F
100
AcDbEntity
  8
0
100
AcDbLine
 10
101.3446383273431
 20
293.0293311849784
 30
0.0
 11
109.8673421698677
 21
293.0293311849784
 31
0.0
  0
ARC
  5
5375
102
{ACAD_REACTORS
330
54E0
102
}
330
1F
100
AcDbEntity
  8
0
100
AcDbCircle
 10
104.3559902486054
 20
289.1322168679484
 30
0.0
 40
6.749999999999914
100
AcDbArc
 50
325.6589062732597
 51
35.26438968274953
  0
ARC
  5
5376
330
1F
100
AcDbEntity
  8
0
100
AcDbCircle
 10
106.8559902486054
 20
289.1322168679484
 30
0.0
 40
6.749999999999914
100
AcDbArc
 50
144.7356103172504
 51
214.3410937267403
  0
LINE
  5
5377
102
{ACAD_REACTORS
330
54EC
102
}
330
1F
100
AcDbEntity
  8
CENTER
 48
1.5
100
AcDbLine
 10
56.09818396620631
 20
285.0952011230916
 30
0.0
 11
56.09818396620631
 21
269.7865467106254
 31
0.0
  0
CIRCLE
  5
5378
330
1F
100
AcDbEntity
  8
0
100
AcDbCircle
 10
56.09818396620631
 20
277.4408739168585
 30
0.0
 40
4.299999999999999
  0
ARC
  5
5379
330
1F
100
AcDbEntity
  8
0
 62
     3
100
AcDbCircle
 10
56.09818396620631
 20
277.4408739168585
 30
0.0
 40
4.849999999999999
100
AcDbArc
 50
336.7043162242286
 51
244.8890606854686
  0
LINE
  5
537A
102
{ACAD_REACTORS
330
54EF
102
}
330
1F
100
AcDbEntity
  8
CENTER
 48
1.5
100
AcDbLine
 10
69.09818396620631
 20
285.0952011230916
 30
0.0
 11
69.09818396620631
 21
269.7865467106254
 31
0.0
  0
CIRCLE
  5
537B
330
1F
100
AcDbEntity
  8
0
100
AcDbCircle
 10
69.09818396620631
 20
277.4408739168585
 30
0.0
 40
4.299999999999999
  0
ARC
  5
537C
330
1F
100
AcDbEntity
  8
0
 62
     3
100
AcDbCircle
 10
69.09818396620631
 20
277.4408739168585
 30
0.0
 40
4.849999999999999
100
AcDbArc
 50
336.7043162242286
 51
244.8890606854686
  0
CIRCLE
  5
537D
330
1F
100
AcDbEntity
  8
0
100
AcDbCircle
 10
226.7080645512435
 20
277.4408739168586
 30
0.0
 40
19.99999999999983
  0
LINE
  5
537E
330
1F
100
AcDbEntity
  8
0
 62
     3
100
AcDbLine
 10
116.8981839662069
 20
285.6128739168585
 30
0.0
 11
111.1059902486054
 21
285.6128739168585
 31
0.0
  0
LINE
  5
537F
330
1F
100
AcDbEntity
  8
0
 62
     3
100
AcDbLine
 10
100.1059902486058
 20
285.6128739168585
 30
0.0
 11
93.09818396620675
 21
285.6128739168585
 31
0.0
  0
LINE
  5
5380
330
1F
100
AcDbEntity
  8
0
 62
     3
100
AcDbLine
 10
116.8981839662069
 20
269.2688739168585
 30
0.0
 11
111.1059902486054
 21
269.2688739168585
 31
0.0
  0
LINE
  5
5381
330
1F
100
AcDbEntity
  8
0
 62
     3
100
AcDbLine
 10
100.1059902486058
 20
269.2688739168585
 30
0.0
 11
93.09818396620675
 21
269.2688739168585
 31
0.0
  0
LINE
  5
5382
330
1F
100
AcDbEntity
  8
0
 62
     3
100
AcDbLine
 10
93.09818396620675
 20
269.2688739168585
 30
0.0
 11
92.27018396620678
 21
268.4408739168585
 31
0.0
  0
LINE
  5
5383
330
1F
100
AcDbEntity
  8
0
 62
     3
100
AcDbLine
 10
93.09818396620675
 20
285.6128739168585
 30
0.0
 11
92.27018396620678
 21
286.4408739168585
 31
0.0
  0
LINE
  5
5384
102
{ACAD_REACTORS
330
54E3
102
}
330
1F
100
AcDbEntity
  8
0
100
AcDbLine
 10
93.09818396620675
 20
286.4408739168585
 30
0.0
 11
93.09818396620675
 21
268.4408739168585
 31
0.0
  0
LINE
  5
5385
330
1F
100
AcDbEntity
  8
0
100
AcDbLine
 10
89.09818396620677
 20
285.9408739168585
 30
0.0
 11
90.09818396620676
 21
285.9408739168585
 31
0.0
  0
LINE
  5
5386
330
1F
100
AcDbEntity
  8
0
100
AcDbLine
 10
85.59818396620675
 20
287.4408739168585
 30
0.0
 11
87.09818396620676
 21
285.9408739168585
 31
0.0
  0
LINE
  5
5387
330
1F
100
AcDbEntity
  8
0
100
AcDbLine
 10
89.09818396620677
 20
285.9408739168585
 30
0.0
 11
87.09818396620676
 21
285.9408739168585
 31
0.0
  0
LINE
  5
5388
330
1F
100
AcDbEntity
  8
0
100
AcDbLine
 10
87.09818396620676
 20
282.7087007932849
 30
0.0
 11
89.09818396620677
 21
282.7087007932849
 31
0.0
  0
SPLINE
  5
5389
330
1F
100
AcDbEntity
  8
0
100
AcDbSpline
210
0.0
220
0.0
230
1.0
 70
    12
 71
     2
 72
     6
 73
     3
 74
     0
 42
0.0000000001
 43
0.0000000001
 40
0.0
 40
0.0
 40
0.0
 40
2.519162529224016
 40
2.519162529224016
 40
2.519162529224016
 10
89.09818396620677
 20
282.7087007932849
 30
0.0
 41
1.0
 10
89.73858175345727
 20
281.4930234328235
 30
0.0
 41
1.007472283038803
 10
90.09818396620676
 20
280.3989138084083
 30
0.0
 41
1.0
  0
SPLINE
  5
538A
330
1F
100
AcDbEntity
  8
0
100
AcDbSpline
210
0.0
220
0.0
230
1.0
 70
    12
 71
     2
 72
     6
 73
     3
 74
     0
 42
0.0000000001
 43
0.0000000001
 40
0.0
 40
0.0
 40
0.0
 40
2.519162529224017
 40
2.519162529224017
 40
2.519162529224017
 10
90.09818396620676
 20
274.4828340253087
 30
0.0
 41
1.0
 10
89.73858175345684
 20
273.3887244008935
 30
0.0
 41
1.007472283039263
 10
89.09818396620677
 20
272.1730470404322
 30
0.0
 41
1.0
  0
LINE
  5
538B
330
1F
100
AcDbEntity
  8
0
100
AcDbLine
 10
89.09818396620677
 20
272.1730470404322
 30
0.0
 11
87.09818396620676
 21
272.1730470404322
 31
0.0
  0
LINE
  5
538C
330
1F
100
AcDbEntity
  8
0
100
AcDbLine
 10
87.09818396620676
 20
268.9408739168585
 30
0.0
 11
89.09818396620677
 21
268.9408739168585
 31
0.0
  0
LINE
  5
538D
330
1F
100
AcDbEntity
  8
0
100
AcDbLine
 10
89.09818396620677
 20
268.9408739168585
 30
0.0
 11
90.09818396620676
 21
268.9408739168585
 31
0.0
  0
LINE
  5
538E
330
1F
100
AcDbEntity
  8
0
100
AcDbLine
 10
87.09818396620676
 20
272.1730470404322
 30
0.0
 11
87.09818396620676
 21
282.7087007932849
 31
0.0
  0
ARC
  5
538F
102
{ACAD_REACTORS
330
5505
102
}
330
1F
100
AcDbEntity
  8
0
100
AcDbCircle
 10
95.59818396620675
 20
277.4408739168585
 30
0.0
 40
10.0
100
AcDbArc
 50
148.2116693829442
 51
211.7883306170558
  0
LINE
  5
5390
330
1F
100
AcDbEntity
  8
0
100
AcDbLine
 10
87.09818396620676
 20
268.9408739168585
 30
0.0
 11
85.59818396620675
 21
267.4408739168585
 31
0.0
  0
LINE
  5
5391
330
1F
100
AcDbEntity
  8
0
100
AcDbLine
 10
90.09818396620676
 20
268.4408739168585
 30
0.0
 11
94.29818396620703
 21
268.4408739168585
 31
0.0
  0
LINE
  5
5392
330
1F
100
AcDbEntity
  8
0
100
AcDbLine
 10
90.09818396620676
 20
286.4408739168585
 30
0.0
 11
94.29818396620703
 21
286.4408739168585
 31
0.0
  0
LINE
  5
5393
330
1F
100
AcDbEntity
  8
0
100
AcDbLine
 10
94.29818396620703
 20
268.4408739168585
 30
0.0
 11
100.1059902486058
 21
268.4408739168585
 31
0.0
  0
LINE
  5
5394
330
1F
100
AcDbEntity
  8
0
100
AcDbLine
 10
111.1059902486054
 20
268.4408739168585
 30
0.0
 11
116.8981839662069
 21
268.4408739168585
 31
0.0
  0
LINE
  5
5395
330
1F
100
AcDbEntity
  8
0
100
AcDbLine
 10
94.29818396620703
 20
286.4408739168585
 30
0.0
 11
100.1059902486058
 21
286.4408739168585
 31
0.0
  0
LINE
  5
5396
330
1F
100
AcDbEntity
  8
0
100
AcDbLine
 10
111.1059902486054
 20
286.4408739168585
 30
0.0
 11
116.8981839662069
 21
286.4408739168585
 31
0.0
  0
LINE
  5
5397
330
1F
100
AcDbEntity
  8
0
100
AcDbLine
 10
118.0981839662067
 20
285.2408739168585
 30
0.0
 11
116.8981839662069
 21
286.4408739168585
 31
0.0
  0
LINE
  5
5398
330
1F
100
AcDbEntity
  8
0
100
AcDbLine
 10
118.0981839662067
 20
269.6408739168585
 30
0.0
 11
116.8981839662069
 21
268.4408739168585
 31
0.0
  0
LINE
  5
5399
102
{ACAD_REACTORS
330
54E6
102
}
330
1F
100
AcDbEntity
  8
0
100
AcDbLine
 10
90.09818396620676
 20
286.4408739168585
 30
0.0
 11
90.09818396620676
 21
285.9408739168585
 31
0.0
  0
LINE
  5
539A
330
1F
100
AcDbEntity
  8
0
100
AcDbLine
 10
90.09818396620676
 20
274.4828340253087
 30
0.0
 11
90.09818396620676
 21
268.9408739168585
 31
0.0
  0
LINE
  5
539B
330
1F
100
AcDbEntity
  8
0
100
AcDbLine
 10
90.09818396620676
 20
285.9408739168585
 30
0.0
 11
90.09818396620676
 21
280.3989138084083
 31
0.0
  0
LINE
  5
539C
330
1F
100
AcDbEntity
  8
0
100
AcDbLine
 10
89.09818396620677
 20
282.7087007932849
 30
0.0
 11
89.09818396620677
 21
285.9408739168585
 31
0.0
  0
LINE
  5
539D
330
1F
100
AcDbEntity
  8
0
100
AcDbLine
 10
89.09818396620677
 20
268.9408739168585
 30
0.0
 11
89.09818396620677
 21
272.1730470404322
 31
0.0
  0
LINE
  5
539E
102
{ACAD_REACTORS
330
5505
102
}
330
1F
100
AcDbEntity
  8
0
100
AcDbLine
 10
90.09818396620676
 20
268.9408739168585
 30
0.0
 11
90.09818396620676
 21
268.4408739168585
 31
0.0
  0
LINE
  5
539F
330
1F
100
AcDbEntity
  8
0
100
AcDbLine
 10
90.09818396620676
 20
280.3989138084083
 30
0.0
 11
90.09818396620676
 21
274.4828340253087
 31
0.0
  0
LINE
  5
53A0
330
1F
100
AcDbEntity
  8
0
100
AcDbLine
 10
116.8981839662069
 20
268.4408739168585
 30
0.0
 11
116.8981839662069
 21
286.4408739168585
 31
0.0
  0
LINE
  5
53A1
102
{ACAD_REACTORS
330
54E3
330
54E6
330
54F5
330
54F8
102
}
330
1F
100
AcDbEntity
  8
0
100
AcDbLine
 10
118.0981839662067
 20
285.2408739168585
 30
0.0
 11
118.0981839662067
 21
269.6408739168585
 31
0.0
  0
LINE
  5
53A2
102
{ACAD_REACTORS
330
54FB
102
}
330
1F
100
AcDbEntity
  8
0
100
AcDbLine
 10
85.09818396620586
 20
267.4408739168584
 30
0.0
 11
85.59818396620675
 21
267.4408739168585
 31
0.0
  0
LINE
  5
53A3
102
{ACAD_REACTORS
330
54FB
102
}
330
1F
100
AcDbEntity
  8
0
100
AcDbLine
 10
85.09818396620586
 20
287.4408739168585
 30
0.0
 11
85.59818396620675
 21
287.4408739168585
 31
0.0
  0
ARC
  5
53A4
330
1F
100
AcDbEntity
  8
0
 62
     3
100
AcDbCircle
 10
226.7080645512435
 20
277.4408739168586
 30
0.0
 40
8.172
100
AcDbArc
 50
259.9999999999948
 51
189.9999999999982
  0
LINE
  5
53A5
330
1F
100
AcDbEntity
  8
0
100
AcDbLine
 10
229.6661044427935
 20
285.9408739168586
 30
0.0
 11
231.9758914276701
 21
285.9408739168586
 31
0.0
  0
LINE
  5
53A6
330
1F
100
AcDbEntity
  8
0
100
AcDbLine
 10
221.4402376748173
 20
285.9408739168586
 30
0.0
 11
223.7500246596939
 21
285.9408739168586
 31
0.0
  0
ARC
  5
53A7
330
1F
100
AcDbEntity
  8
0
100
AcDbCircle
 10
226.7080645512435
 20
277.4408739168586
 30
0.0
 40
10.0
100
AcDbArc
 50
58.2116693829586
 51
121.7883306170414
  0
LINE
  5
53A8
330
1F
100
AcDbEntity
  8
0
100
AcDbLine
 10
218.2080645512435
 20
282.708700793285
 30
0.0
 11
218.2080645512435
 21
280.3989138084084
 31
0.0
  0
LINE
  5
53A9
330
1F
100
AcDbEntity
  8
0
100
AcDbLine
 10
218.2080645512435
 20
274.4828340253088
 30
0.0
 11
218.2080645512435
 21
272.1730470404323
 31
0.0
  0
LINE
  5
53AA
330
1F
100
AcDbEntity
  8
0
100
AcDbLine
 10
221.4402376748173
 20
268.9408739168586
 30
0.0
 11
223.7500246596939
 21
268.9408739168586
 31
0.0
  0
LINE
  5
53AB
330
1F
100
AcDbEntity
  8
0
100
AcDbLine
 10
229.6661044427935
 20
268.9408739168586
 30
0.0
 11
231.9758914276701
 21
268.9408739168586
 31
0.0
  0
LINE
  5
53AC
330
1F
100
AcDbEntity
  8
0
100
AcDbLine
 10
235.2080645512435
 20
274.4828340253088
 30
0.0
 11
235.2080645512435
 21
272.1730470404323
 31
0.0
  0
LINE
  5
53AD
330
1F
100
AcDbEntity
  8
0
100
AcDbLine
 10
235.2080645512435
 20
282.708700793285
 30
0.0
 11
235.2080645512435
 21
280.3989138084084
 31
0.0
  0
ARC
  5
53AE
330
1F
100
AcDbEntity
  8
0
100
AcDbCircle
 10
226.7080645512435
 20
277.4408739168586
 30
0.0
 40
10.0
100
AcDbArc
 50
148.2116693829442
 51
211.7883306170558
  0
ARC
  5
53AF
330
1F
100
AcDbEntity
  8
0
100
AcDbCircle
 10
226.7080645512435
 20
277.4408739168586
 30
0.0
 40
10.0
100
AcDbArc
 50
238.2116693829586
 51
301.7883306170414
  0
ARC
  5
53B0
330
1F
100
AcDbEntity
  8
0
100
AcDbCircle
 10
226.7080645512435
 20
277.4408739168586
 30
0.0
 40
10.0
100
AcDbArc
 50
328.2116693829443
 51
31.78833061705577
  0
ARC
  5
53B1
330
1F
100
AcDbEntity
  8
0
100
AcDbCircle
 10
226.7080645512435
 20
277.4408739168586
 30
0.0
 40
10.0
100
AcDbArc
 50
31.78833061705577
 51
58.2116693829586
  0
ARC
  5
53B2
330
1F
100
AcDbEntity
  8
0
100
AcDbCircle
 10
226.7080645512435
 20
277.4408739168586
 30
0.0
 40
10.0
100
AcDbArc
 50
121.7883306170414
 51
148.2116693829442
  0
ARC
  5
53B3
102
{ACAD_REACTORS
330
5513
330
5541
102
}
330
1F
100
AcDbEntity
  8
0
100
AcDbCircle
 10
226.7080645512435
 20
277.4408739168586
 30
0.0
 40
10.0
100
AcDbArc
 50
211.7883306170558
 51
238.2116693829586
  0
ARC
  5
53B4
102
{ACAD_REACTORS
330
5513
330
5541
102
}
330
1F
100
AcDbEntity
  8
0
100
AcDbCircle
 10
226.7080645512435
 20
277.4408739168586
 30
0.0
 40
10.0
100
AcDbArc
 50
301.7883306170414
 51
328.2116693829443
  0
CIRCLE
  5
53B5
330
1F
100
AcDbEntity
  8
0
100
AcDbCircle
 10
226.7080645512435
 20
277.4408739168586
 30
0.0
 40
9.0
  0
CIRCLE
  5
53B6
330
1F
100
AcDbEntity
  8
0
100
AcDbCircle
 10
226.7080645512435
 20
277.4408739168586
 30
0.0
 40
7.799999999999997
  0
LINE
  5
53B7
330
1F
100
AcDbEntity
  8
CENTER
 48
1.5
100
AcDbLine
 10
248.8840653230288
 20
247.4408739168584
 30
0.0
 11
264.5320637794581
 21
247.4408739168584
 31
0.0
  0
LINE
  5
53B8
330
1F
100
AcDbEntity
  8
CENTER
 48
1.5
100
AcDbLine
 10
256.7080645512435
 20
255.2648731450728
 30
0.0
 11
256.7080645512435
 21
239.6168746886439
 31
0.0
  0
LINE
  5
53B9
330
1F
100
AcDbEntity
  8
CENTER
 48
1.5
100
AcDbLine
 10
248.8840653230283
 20
307.4408739168584
 30
0.0
 11
264.5320637794577
 21
307.4408739168584
 31
0.0
  0
LINE
  5
53BA
102
{ACAD_REACTORS
330
550A
330
5538
102
}
330
1F
100
AcDbEntity
  8
CENTER
 48
1.5
100
AcDbLine
 10
256.708064551243
 20
315.2648731450728
 30
0.0
 11
256.708064551243
 21
299.6168746886439
 31
0.0
  0
LINE
  5
53BB
330
1F
100
AcDbEntity
  8
CENTER
 48
1.5
100
AcDbLine
 10
188.8840653230287
 20
307.4408739168584
 30
0.0
 11
204.5320637794581
 21
307.4408739168584
 31
0.0
  0
LINE
  5
53BC
102
{ACAD_REACTORS
330
550A
330
5538
102
}
330
1F
100
AcDbEntity
  8
CENTER
 48
1.5
100
AcDbLine
 10
196.7080645512434
 20
315.2648731450728
 30
0.0
 11
196.7080645512434
 21
299.6168746886439
 31
0.0
  0
LINE
  5
53BD
330
1F
100
AcDbEntity
  8
0
100
AcDbLine
 10
81.09818396620676
 20
267.4630395685216
 30
0.0
 11
44.09818396620631
 21
267.4630395685216
 31
0.0
  0
LINE
  5
53BE
330
1F
100
AcDbEntity
  8
0
100
AcDbLine
 10
81.0981839662063
 20
263.4408739168584
 30
0.0
 11
44.09818396620676
 21
263.4408739168584
 31
0.0
  0
LINE
  5
53BF
330
1F
100
AcDbEntity
  8
0
100
AcDbLine
 10
81.0981839662063
 20
261.1304820249635
 30
0.0
 11
44.09818396620631
 21
261.1304820249635
 31
0.0
  0
LINE
  5
53C0
330
1F
100
AcDbEntity
  8
0
100
AcDbLine
 10
81.0981839662063
 20
257.7304919478021
 30
0.0
 11
44.09818396620721
 21
257.7304919478021
 31
0.0
  0
LINE
  5
53C1
330
1F
100
AcDbEntity
  8
0
100
AcDbLine
 10
81.09818396620585
 20
244.3689825285515
 30
0.0
 11
44.09818396620631
 21
244.3689825285515
 31
0.0
  0
LINE
  5
53C2
330
1F
100
AcDbEntity
  8
0
100
AcDbLine
 10
81.0981839662063
 20
239.9408739168584
 30
0.0
 11
44.09818396620676
 21
239.9408739168584
 31
0.0
  0
LINE
  5
53C3
330
1F
100
AcDbEntity
  8
0
100
AcDbLine
 10
81.09818396620676
 20
287.4187082651953
 30
0.0
 11
44.09818396620631
 21
287.4187082651953
 31
0.0
  0
LINE
  5
53C4
330
1F
100
AcDbEntity
  8
0
100
AcDbLine
 10
81.0981839662063
 20
291.4408739168586
 30
0.0
 11
44.09818396620676
 21
291.4408739168586
 31
0.0
  0
LINE
  5
53C5
330
1F
100
AcDbEntity
  8
0
100
AcDbLine
 10
81.0981839662063
 20
293.7512658087534
 30
0.0
 11
44.09818396620631
 21
293.7512658087534
 31
0.0
  0
LINE
  5
53C6
330
1F
100
AcDbEntity
  8
0
100
AcDbLine
 10
81.0981839662063
 20
297.1512558859149
 30
0.0
 11
44.09818396620721
 21
297.151255885915
 31
0.0
  0
LINE
  5
53C7
330
1F
100
AcDbEntity
  8
0
100
AcDbLine
 10
81.09818396620585
 20
310.5127653051655
 30
0.0
 11
44.09818396620631
 21
310.5127653051655
 31
0.0
  0
LINE
  5
53C8
102
{ACAD_REACTORS
330
54EC
330
54EF
330
54F2
330
54F5
330
54F8
102
}
330
1F
100
AcDbEntity
  8
0
100
AcDbLine
 10
81.0981839662063
 20
314.9408739168586
 30
0.0
 11
44.09818396620676
 21
314.9408739168586
 31
0.0
  0
LINE
  5
53C9
102
{ACAD_REACTORS
330
5521
330
5527
102
}
330
1F
100
AcDbEntity
  8
0
100
AcDbLine
 10
44.09818396620653
 20
124.647042866946
 30
0.0
 11
44.09818396620699
 21
49.6470428669453
 31
0.0
  0
LINE
  5
53CA
102
{ACAD_REACTORS
330
5521
102
}
330
1F
100
AcDbEntity
  8
CENTER
 48
1.5
100
AcDbLine
 10
56.09818396620653
 20
94.80137007317955
 30
0.0
 11
56.09818396620653
 21
79.49271566071333
 31
0.0
  0
CIRCLE
  5
53CB
330
1F
100
AcDbEntity
  8
0
100
AcDbCircle
 10
56.09818396620653
 20
87.14704286694644
 30
0.0
 40
4.299999999999999
  0
ARC
  5
53CC
330
1F
100
AcDbEntity
  8
0
 62
     3
100
AcDbCircle
 10
56.09818396620653
 20
87.14704286694644
 30
0.0
 40
4.849999999999999
100
AcDbArc
 50
336.7043162242286
 51
244.8890606854686
  0
LINE
  5
53CD
102
{ACAD_REACTORS
330
5524
102
}
330
1F
100
AcDbEntity
  8
CENTER
 48
1.5
100
AcDbLine
 10
69.09818396620654
 20
94.80137007317955
 30
0.0
 11
69.09818396620654
 21
79.49271566071333
 31
0.0
  0
CIRCLE
  5
53CE
330
1F
100
AcDbEntity
  8
0
100
AcDbCircle
 10
69.09818396620654
 20
87.14704286694644
 30
0.0
 40
4.299999999999999
  0
ARC
  5
53CF
330
1F
100
AcDbEntity
  8
0
 62
     3
100
AcDbCircle
 10
69.09818396620654
 20
87.14704286694644
 30
0.0
 40
4.849999999999999
100
AcDbArc
 50
336.7043162242286
 51
244.8890606854686
  0
LINE
  5
53D0
330
1F
100
AcDbEntity
  8
0
100
AcDbLine
 10
81.09818396620699
 20
77.16920851860958
 30
0.0
 11
44.09818396620653
 21
77.16920851860958
 31
0.0
  0
LINE
  5
53D1
330
1F
100
AcDbEntity
  8
0
100
AcDbLine
 10
81.09818396620653
 20
73.14704286694634
 30
0.0
 11
44.09818396620699
 21
73.14704286694636
 31
0.0
  0
LINE
  5
53D2
330
1F
100
AcDbEntity
  8
0
100
AcDbLine
 10
81.09818396620653
 20
70.83665097505151
 30
0.0
 11
44.09818396620653
 21
70.83665097505148
 31
0.0
  0
LINE
  5
53D3
330
1F
100
AcDbEntity
  8
0
100
AcDbLine
 10
81.09818396620653
 20
67.43666089789003
 30
0.0
 11
44.09818396620744
 21
67.43666089789001
 31
0.0
  0
LINE
  5
53D4
330
1F
100
AcDbEntity
  8
0
100
AcDbLine
 10
81.09818396620608
 20
54.0751514786395
 30
0.0
 11
44.09818396620653
 21
54.0751514786395
 31
0.0
  0
LINE
  5
53D5
330
1F
100
AcDbEntity
  8
0
100
AcDbLine
 10
81.09818396620653
 20
49.64704286694632
 30
0.0
 11
44.09818396620699
 21
49.64704286694632
 31
0.0
  0
LINE
  5
53D6
330
1F
100
AcDbEntity
  8
0
100
AcDbLine
 10
81.09818396620699
 20
97.12487721528328
 30
0.0
 11
44.09818396620653
 21
97.12487721528328
 31
0.0
  0
LINE
  5
53D7
330
1F
100
AcDbEntity
  8
0
100
AcDbLine
 10
81.09818396620653
 20
101.1470428669465
 30
0.0
 11
44.09818396620699
 21
101.1470428669465
 31
0.0
  0
LINE
  5
53D8
330
1F
100
AcDbEntity
  8
0
100
AcDbLine
 10
81.09818396620653
 20
103.4574347588413
 30
0.0
 11
44.09818396620653
 21
103.4574347588413
 31
0.0
  0
LINE
  5
53D9
330
1F
100
AcDbEntity
  8
0
100
AcDbLine
 10
81.09818396620653
 20
106.8574248360028
 30
0.0
 11
44.09818396620744
 21
106.8574248360029
 31
0.0
  0
LINE
  5
53DA
330
1F
100
AcDbEntity
  8
0
100
AcDbLine
 10
81.09818396620608
 20
120.2189342552534
 30
0.0
 11
44.09818396620653
 21
120.2189342552534
 31
0.0
  0
LINE
  5
53DB
102
{ACAD_REACTORS
330
5521
330
5524
330
5527
330
552A
102
}
330
1F
100
AcDbEntity
  8
0
100
AcDbLine
 10
81.09818396620653
 20
124.6470428669465
 30
0.0
 11
44.09818396620699
 21
124.6470428669465
 31
0.0
  0
LINE
  5
53DC
330
1F
100
AcDbEntity
  8
0
100
AcDbLine
 10
88.59818396620699
 20
95.6470428669472
 30
0.0
 11
87.09818396620699
 21
95.6470428669472
 31
0.0
  0
LINE
  5
53DD
330
1F
100
AcDbEntity
  8
0
100
AcDbLine
 10
85.59818396620698
 20
97.1470428669472
 30
0.0
 11
87.09818396620699
 21
95.64704286694718
 31
0.0
  0
LINE
  5
53DE
330
1F
100
AcDbEntity
  8
0
100
AcDbLine
 10
88.59818396620699
 20
95.6470428669472
 30
0.0
 11
90.09818396620699
 21
95.6470428669472
 31
0.0
  0
LINE
  5
53DF
330
1F
100
AcDbEntity
  8
0
100
AcDbLine
 10
87.09818396620699
 20
78.64704286694721
 30
0.0
 11
88.59818396620699
 21
78.64704286694721
 31
0.0
  0
LINE
  5
53E0
330
1F
100
AcDbEntity
  8
0
100
AcDbLine
 10
88.59818396620699
 20
78.64704286694721
 30
0.0
 11
90.09818396620699
 21
78.64704286694721
 31
0.0
  0
ARC
  5
53E1
102
{ACAD_REACTORS
330
5533
102
}
330
1F
100
AcDbEntity
  8
0
100
AcDbCircle
 10
95.59818396620698
 20
87.1470428669472
 30
0.0
 40
10.0
100
AcDbArc
 50
148.2116693829439
 51
211.7883306170561
  0
LINE
  5
53E2
330
1F
100
AcDbEntity
  8
0
100
AcDbLine
 10
87.09818396620699
 20
78.64704286694721
 30
0.0
 11
85.59818396620698
 21
77.1470428669472
 31
0.0
  0
SPLINE
  5
53E3
330
1F
100
AcDbEntity
  8
0
100
AcDbSpline
210
0.0
220
0.0
230
1.0
 70
    12
 71
     2
 72
     6
 73
     3
 74
     0
 42
0.0000000001
 43
0.0000000001
 40
0.0
 40
0.0
 40
0.0
 40
5.519129359409461
 40
5.519129359409461
 40
5.519129359409461
 10
88.59818396620699
 20
92.41486974337357
 30
0.0
 41
1.0
 10
90.09818396620792
 20
89.56739575611612
 30
0.0
 41
1.043185167703976
 10
90.09818396620699
 20
87.1470428669472
 30
0.0
 41
1.0
  0
SPLINE
  5
53E4
330
1F
100
AcDbEntity
  8
0
100
AcDbSpline
210
0.0
220
0.0
230
1.0
 70
    12
 71
     2
 72
     6
 73
     3
 74
     0
 42
0.0000000001
 43
0.0000000001
 40
5.519129359409461
 40
5.519129359409461
 40
5.519129359409461
 40
11.03825871881892
 40
11.03825871881892
 40
11.03825871881892
 10
90.09818396620699
 20
87.1470428669472
 30
0.0
 41
1.0
 10
90.09818396620792
 20
84.72668997777835
 30
0.0
 41
1.043185167703976
 10
88.59818396620699
 20
81.87921599052081
 30
0.0
 41
1.0
  0
LINE
  5
53E5
330
1F
100
AcDbEntity
  8
0
100
AcDbLine
 10
88.59818396620699
 20
81.87921599052083
 30
0.0
 11
87.09818396620699
 21
81.87921599052083
 31
0.0
  0
LINE
  5
53E6
330
1F
100
AcDbEntity
  8
0
100
AcDbLine
 10
87.09818396620699
 20
81.87921599052083
 30
0.0
 11
87.09818396620699
 21
92.41486974337357
 31
0.0
  0
LINE
  5
53E7
330
1F
100
AcDbEntity
  8
0
100
AcDbLine
 10
87.09818396620699
 20
92.41486974337357
 30
0.0
 11
88.59818396620699
 21
92.41486974337357
 31
0.0
  0
LINE
  5
53E8
330
1F
100
AcDbEntity
  8
0
100
AcDbLine
 10
88.59818396620699
 20
92.41486974337357
 30
0.0
 11
88.59818396620699
 21
95.6470428669472
 31
0.0
  0
LINE
  5
53E9
102
{ACAD_REACTORS
330
551B
330
552A
102
}
330
1F
100
AcDbEntity
  8
0
100
AcDbLine
 10
90.09818396620699
 20
95.6470428669472
 30
0.0
 11
90.09818396620699
 21
87.1470428669472
 31
0.0
  0
LINE
  5
53EA
102
{ACAD_REACTORS
330
5533
102
}
330
1F
100
AcDbEntity
  8
0
100
AcDbLine
 10
90.09818396620699
 20
87.1470428669472
 30
0.0
 11
90.09818396620699
 21
78.6470428669472
 31
0.0
  0
LINE
  5
53EB
330
1F
100
AcDbEntity
  8
0
100
AcDbLine
 10
88.59818396620699
 20
78.64704286694721
 30
0.0
 11
88.59818396620699
 21
81.87921599052085
 31
0.0
  0
LINE
  5
53EC
102
{ACAD_REACTORS
330
552D
102
}
330
1F
100
AcDbEntity
  8
0
100
AcDbLine
 10
85.09818396620653
 20
77.14704286694718
 30
0.0
 11
85.59818396620698
 21
77.1470428669472
 31
0.0
  0
LINE
  5
53ED
102
{ACAD_REACTORS
330
552D
102
}
330
1F
100
AcDbEntity
  8
0
100
AcDbLine
 10
85.09818396620653
 20
97.14704286694718
 30
0.0
 11
85.59818396620698
 21
97.1470428669472
 31
0.0
  0
LINE
  5
53EE
330
1F
100
AcDbEntity
  8
0
100
AcDbLine
 10
236.6080645512436
 20
123.4470428669459
 30
0.0
 11
235.3080738329879
 21
123.4456804196589
 31
0.0
  0
LINE
  5
53EF
330
1F
100
AcDbEntity
  8
0
100
AcDbLine
 10
235.3080738329874
 20
124.6470428669462
 30
0.0
 11
242.8184564431387
 21
124.6470428669462
 31
0.0
  0
LINE
  5
53F0
330
1F
100
AcDbEntity
  8
0
100
AcDbLine
 10
236.6080645512436
 20
122.1470428669462
 30
0.0
 11
228.0080645512437
 21
122.1470428669462
 31
0.0
  0
LINE
  5
53F1
330
1F
100
AcDbEntity
  8
0
100
AcDbLine
 10
235.3082258081355
 20
50.85271960673789
 30
0.0
 11
236.6080645512436
 21
50.84704286694627
 31
0.0
  0
LINE
  5
53F2
330
1F
100
AcDbEntity
  8
0
100
AcDbLine
 10
235.3082258081355
 20
49.65271960673785
 30
0.0
 11
242.8184564431382
 21
49.64704286694622
 31
0.0
  0
LINE
  5
53F3
330
1F
100
AcDbEntity
  8
0
100
AcDbLine
 10
228.0080645512437
 20
52.14704286694622
 30
0.0
 11
236.6080645512436
 21
52.14704286694622
 31
0.0
  0
ARC
  5
53F4
330
1F
100
AcDbEntity
  8
0
100
AcDbCircle
 10
228.1976498392903
 20
87.14704286694603
 30
0.0
 40
29.59391121830053
100
AcDbArc
 50
32.67320277999257
 51
327.3267972200074
  0
CIRCLE
  5
53F5
330
1F
100
AcDbEntity
  8
0
100
AcDbCircle
 10
226.7080645512435
 20
87.14704286694603
 30
0.0
 40
32.8
  0
LINE
  5
53F6
330
1F
100
AcDbEntity
  8
CENTER
 48
1.5
100
AcDbLine
 10
265.9080645512438
 20
87.1470428669461
 30
0.0
 11
179.6350216332645
 21
87.1470428669461
 31
0.0
  0
LINE
  5
53F7
330
1F
100
AcDbEntity
  8
CENTER
 48
1.5
100
AcDbLine
 10
226.7080645512435
 20
47.9470428669464
 30
0.0
 11
226.7080645512435
 21
126.3470428669465
 31
0.0
  0
ARC
  5
53F8
330
1F
100
AcDbEntity
  8
0
100
AcDbCircle
 10
194.483459930697
 20
69.59293509274342
 30
0.0
 40
1.6999999983
100
AcDbArc
 50
0.1384018273715373
 51
90.13840182738457
  0
ARC
  5
53F9
330
1F
100
AcDbEntity
  8
0
 62
     3
100
AcDbCircle
 10
196.7080645512434
 20
57.14704286694616
 30
0.0
 40
4.0
100
AcDbArc
 50
270.0
 51
180.0
  0
LINE
  5
53FA
330
1F
100
AcDbEntity
  8
CENTER
 48
1.5
100
AcDbLine
 10
188.8840653230287
 20
57.14704286694619
 30
0.0
 11
204.5320637794581
 21
57.14704286694619
 31
0.0
  0
CIRCLE
  5
53FB
330
1F
100
AcDbEntity
  8
0
100
AcDbCircle
 10
196.7080645512434
 20
57.14704286694616
 30
0.0
 40
5.5
  0
ARC
  5
53FC
330
1F
100
AcDbEntity
  8
0
100
AcDbCircle
 10
226.7080645512435
 20
87.14704286694603
 30
0.0
 40
50.0
100
AcDbArc
 50
221.4096221092707
 51
228.5903778907175
  0
LINE
  5
53FD
330
1F
100
AcDbEntity
  8
0
100
AcDbLine
 10
192.3897465290994
 20
66.98786999382015
 30
0.0
 11
194.4897404002874
 21
66.99294268079656
 31
0.0
  0
LINE
  5
53FE
330
1F
100
AcDbEntity
  8
0
100
AcDbLine
 10
189.208064551243
 20
67.43666089788975
 30
0.0
 11
189.2080645512434
 21
54.07515147863911
 31
0.0
  0
LINE
  5
53FF
330
1F
100
AcDbEntity
  8
0
100
AcDbLine
 10
191.888660983988
 20
67.43666089788998
 30
0.0
 11
189.2080645512434
 21
67.43666089788975
 31
0.0
  0
LINE
  5
5400
330
1F
100
AcDbEntity
  8
0
100
AcDbLine
 10
192.389746529099
 20
66.98786999382015
 30
0.0
 11
191.888660983988
 21
67.43666089788998
 31
0.0
  0
LINE
  5
5401
330
1F
100
AcDbEntity
  8
0
100
AcDbLine
 10
210.5976726593482
 20
49.64704286694622
 30
0.0
 11
218.1080552694995
 21
49.6484053142333
 31
0.0
  0
LINE
  5
5402
330
1F
100
AcDbEntity
  8
0
100
AcDbLine
 10
193.636173162936
 20
49.64704286694622
 30
0.0
 11
206.7976825821867
 21
49.64704286694622
 31
0.0
  0
LINE
  5
5403
330
1F
100
AcDbEntity
  8
CENTER
 48
1.5
100
AcDbLine
 10
196.7080645512434
 20
64.97104209516063
 30
0.0
 11
196.7080645512434
 21
49.3230436387317
 31
0.0
  0
CIRCLE
  5
5404
330
1F
100
AcDbEntity
  8
0
100
AcDbCircle
 10
196.7080645512434
 20
57.14704286694616
 30
0.0
 40
3.45
  0
CIRCLE
  5
5405
330
1F
100
AcDbEntity
  8
0
100
AcDbCircle
 10
196.7080645512434
 20
57.14704286694616
 30
0.0
 40
3.45
  0
ARC
  5
5406
330
1F
100
AcDbEntity
  8
0
100
AcDbCircle
 10
194.4856339394015
 20
68.69293771937721
 30
0.0
 40
1.6999999983
100
AcDbArc
 50
270.1384018273845
 51
0.1384018273715373
  0
LINE
  5
5407
330
1F
100
AcDbEntity
  8
0
100
AcDbLine
 10
196.1856289779823
 20
68.69704418026312
 30
0.0
 11
196.1834549692777
 21
69.59704155362932
 31
0.0
  0
LINE
  5
5408
330
1F
100
AcDbEntity
  8
0
100
AcDbLine
 10
210.8488791286447
 20
52.81833791432588
 30
0.0
 11
210.853951815621
 21
54.91833178551418
 31
0.0
  0
LINE
  5
5409
330
1F
100
AcDbEntity
  8
0
100
AcDbLine
 10
206.5488916781171
 20
52.82872484480198
 30
0.0
 11
206.5539643650934
 21
54.92871871598971
 31
0.0
  0
LINE
  5
540A
330
1F
100
AcDbEntity
  8
0
100
AcDbLine
 10
206.9976825821866
 20
52.32763929969054
 30
0.0
 11
206.9976825821866
 21
49.84704286694638
 31
0.0
  0
ARC
  5
540B
330
1F
100
AcDbEntity
  8
0
100
AcDbCircle
 10
206.7976825821867
 20
49.84704286694633
 30
0.0
 40
0.2
100
AcDbArc
 50
270.0
 51
0.0
  0
LINE
  5
540C
330
1F
100
AcDbEntity
  8
0
100
AcDbLine
 10
206.5488916781171
 20
52.82872484480164
 30
0.0
 11
206.9976825821866
 21
52.32763929969054
 31
0.0
  0
LINE
  5
540D
330
1F
100
AcDbEntity
  8
0
100
AcDbLine
 10
210.3976726593479
 20
52.31942637791895
 30
0.0
 11
210.3976726593484
 21
49.84704286694638
 31
0.0
  0
ARC
  5
540E
330
1F
100
AcDbEntity
  8
0
100
AcDbCircle
 10
210.5976726593482
 20
49.84704286694633
 30
0.0
 40
0.2
100
AcDbArc
 50
180.0
 51
270.0
  0
LINE
  5
540F
330
1F
100
AcDbEntity
  8
0
100
AcDbLine
 10
210.8488791286447
 20
52.81833791432588
 30
0.0
 11
210.3976726593479
 21
52.31942637791895
 31
0.0
  0
LINE
  5
5410
330
1F
100
AcDbEntity
  8
0
100
AcDbLine
 10
208.2580658645599
 20
56.62460729368458
 30
0.0
 11
209.1580632379261
 21
56.62243328498052
 31
0.0
  0
ARC
  5
5411
330
1F
100
AcDbEntity
  8
0
100
AcDbCircle
 10
208.2539594036741
 20
54.92461225510381
 30
0.0
 40
1.6999999983
100
AcDbArc
 50
89.86159817261542
 51
179.8615981726285
  0
ARC
  5
5412
330
1F
100
AcDbEntity
  8
0
100
AcDbCircle
 10
209.1539567770403
 20
54.92243824639975
 30
0.0
 40
1.6999999983
100
AcDbArc
 50
359.8615981726155
 51
89.86159817261542
  0
LINE
  5
5413
330
1F
100
AcDbEntity
  8
0
100
AcDbLine
 10
216.8080645512434
 20
52.14704286694622
 30
0.0
 11
225.4080645512437
 21
52.14704286694622
 31
0.0
  0
LINE
  5
5414
330
1F
100
AcDbEntity
  8
0
100
AcDbLine
 10
216.8080645512434
 20
50.84704286694627
 30
0.0
 11
218.1080552694995
 21
50.84840531423312
 31
0.0
  0
ARC
  5
5415
330
1F
100
AcDbEntity
  8
0
100
AcDbCircle
 10
216.8080645512434
 20
51.94704286694634
 30
0.0
 40
0.2
100
AcDbArc
 50
90.0
 51
180.0
  0
ARC
  5
5416
330
1F
100
AcDbEntity
  8
0
100
AcDbCircle
 10
216.8080645512434
 20
51.04704286694614
 30
0.0
 40
0.2
100
AcDbArc
 50
180.0
 51
270.0
  0
LINE
  5
5417
330
1F
100
AcDbEntity
  8
0
100
AcDbLine
 10
216.6080645512435
 20
51.94704286694641
 30
0.0
 11
216.6080645512435
 21
51.04704286694619
 31
0.0
  0
LINE
  5
5418
330
1F
100
AcDbEntity
  8
0
100
AcDbLine
 10
218.3080552694998
 20
50.6484053142333
 30
0.0
 11
218.3080552694998
 21
49.84840531423346
 31
0.0
  0
ARC
  5
5419
330
1F
100
AcDbEntity
  8
0
100
AcDbCircle
 10
218.1080552694995
 20
49.84840531423341
 30
0.0
 40
0.2
100
AcDbArc
 50
270.0
 51
0.0
  0
ARC
  5
541A
330
1F
100
AcDbEntity
  8
0
100
AcDbCircle
 10
218.1080552694995
 20
50.64840531423325
 30
0.0
 40
0.2
100
AcDbArc
 50
0.0
 51
90.0
  0
LINE
  5
541B
330
1F
100
AcDbEntity
  8
0
100
AcDbLine
 10
225.8080645512434
 20
49.64704286694622
 30
0.0
 11
227.6080645512436
 21
49.64704286694622
 31
0.0
  0
LINE
  5
541C
330
1F
100
AcDbEntity
  8
0
100
AcDbLine
 10
225.6080645512436
 20
51.94704286694641
 30
0.0
 11
225.6080645512436
 21
49.84704286694626
 31
0.0
  0
ARC
  5
541D
330
1F
100
AcDbEntity
  8
0
100
AcDbCircle
 10
225.8080645512434
 20
49.84704286694621
 30
0.0
 40
0.2
100
AcDbArc
 50
180.0
 51
270.0
  0
ARC
  5
541E
330
1F
100
AcDbEntity
  8
0
100
AcDbCircle
 10
225.4080645512437
 20
51.94704286694634
 30
0.0
 40
0.2
100
AcDbArc
 50
0.0
 51
90.0
  0
LINE
  5
541F
330
1F
100
AcDbEntity
  8
0
100
AcDbLine
 10
227.8080645512434
 20
51.94704286694641
 30
0.0
 11
227.8080645512434
 21
49.84704286694626
 31
0.0
  0
ARC
  5
5420
330
1F
100
AcDbEntity
  8
0
100
AcDbCircle
 10
227.6080645512436
 20
49.84704286694621
 30
0.0
 40
0.2
100
AcDbArc
 50
270.0
 51
0.0
  0
ARC
  5
5421
330
1F
100
AcDbEntity
  8
0
100
AcDbCircle
 10
228.0080645512432
 20
51.94704286694634
 30
0.0
 40
0.2
100
AcDbArc
 50
90.0
 51
180.0
  0
LINE
  5
5422
330
1F
100
AcDbEntity
  8
0
100
AcDbLine
 10
235.1082258081357
 20
50.65271960673785
 30
0.0
 11
235.1082258081357
 21
49.85271960673789
 31
0.0
  0
ARC
  5
5423
330
1F
100
AcDbEntity
  8
0
100
AcDbCircle
 10
235.3082258081355
 20
49.85271960673784
 30
0.0
 40
0.2
100
AcDbArc
 50
180.0
 51
270.0
  0
ARC
  5
5424
330
1F
100
AcDbEntity
  8
0
100
AcDbCircle
 10
235.3082258081355
 20
50.65271960673779
 30
0.0
 40
0.2
100
AcDbArc
 50
90.0
 51
180.0
  0
ARC
  5
5425
330
1F
100
AcDbEntity
  8
0
100
AcDbCircle
 10
226.7080645512435
 20
87.14704286694603
 30
0.0
 40
50.0
100
AcDbArc
 50
131.4096221092824
 51
138.5903778907293
  0
LINE
  5
5426
330
1F
100
AcDbEntity
  8
0
100
AcDbLine
 10
192.3793595986232
 20
103.0062282895445
 30
0.0
 11
194.4793534698116
 21
103.0011556025682
 31
0.0
  0
LINE
  5
5427
330
1F
100
AcDbEntity
  8
0
100
AcDbLine
 10
192.3897465290994
 20
107.3062157400721
 30
0.0
 11
194.4897404002874
 21
107.3011430530959
 31
0.0
  0
ARC
  5
5428
330
1F
100
AcDbEntity
  8
0
 62
     3
100
AcDbCircle
 10
196.7080645512434
 20
117.1470428669461
 30
0.0
 40
4.0
100
AcDbArc
 50
270.0
 51
180.0
  0
CIRCLE
  5
5429
330
1F
100
AcDbEntity
  8
0
100
AcDbCircle
 10
196.7080645512434
 20
117.1470428669461
 30
0.0
 40
5.5
  0
LINE
  5
542A
330
1F
100
AcDbEntity
  8
0
100
AcDbLine
 10
192.3793595986232
 20
71.28785744434778
 30
0.0
 11
194.4793534698116
 21
71.29293013132441
 31
0.0
  0
LINE
  5
542B
330
1F
100
AcDbEntity
  8
0
100
AcDbLine
 10
189.208064551243
 20
103.4574347588412
 30
0.0
 11
189.2080645512434
 21
101.1470428669462
 31
0.0
  0
LINE
  5
542C
330
1F
100
AcDbEntity
  8
0
100
AcDbLine
 10
189.2080645512434
 20
101.1470428669462
 30
0.0
 11
181.3304531512319
 21
97.19857490904667
 31
0.0
  0
LINE
  5
542D
330
1F
100
AcDbEntity
  8
0
100
AcDbLine
 10
181.3304531512319
 20
77.09551082484565
 30
0.0
 11
189.208064551243
 21
73.14704286694622
 31
0.0
  0
LINE
  5
542E
330
1F
100
AcDbEntity
  8
0
100
AcDbLine
 10
181.208064551243
 20
97.01424783401911
 30
0.0
 11
181.208064551243
 21
77.27983789987344
 31
0.0
  0
ARC
  5
542F
330
1F
100
AcDbEntity
  8
0
100
AcDbCircle
 10
181.4080645512433
 20
77.27983789987338
 30
0.0
 40
0.2
100
AcDbArc
 50
180.0
 51
247.1663458220706
  0
ARC
  5
5430
330
1F
100
AcDbEntity
  8
0
100
AcDbCircle
 10
181.4080645512433
 20
97.01424783401904
 30
0.0
 40
0.2
100
AcDbArc
 50
112.8336541779294
 51
180.0
  0
LINE
  5
5431
330
1F
100
AcDbEntity
  8
0
100
AcDbLine
 10
191.8804480622163
 20
70.83665097505139
 30
0.0
 11
189.2080645512434
 21
70.83665097505139
 31
0.0
  0
LINE
  5
5432
330
1F
100
AcDbEntity
  8
0
100
AcDbLine
 10
189.208064551243
 20
73.14704286694622
 30
0.0
 11
189.208064551243
 21
70.83665097505139
 31
0.0
  0
LINE
  5
5433
330
1F
100
AcDbEntity
  8
0
100
AcDbLine
 10
192.3793595986232
 20
71.28785744434778
 30
0.0
 11
191.8804480622163
 21
70.83665097505139
 31
0.0
  0
LINE
  5
5434
330
1F
100
AcDbEntity
  8
0
100
AcDbLine
 10
189.2080645512434
 20
120.2189342552536
 30
0.0
 11
189.2080645512434
 21
106.8574248360027
 31
0.0
  0
LINE
  5
5435
330
1F
100
AcDbEntity
  8
0
100
AcDbLine
 10
191.888660983988
 20
106.8574248360027
 30
0.0
 11
189.2080645512434
 21
106.8574248360027
 31
0.0
  0
LINE
  5
5436
330
1F
100
AcDbEntity
  8
0
100
AcDbLine
 10
191.8804480622163
 20
103.4574347588412
 30
0.0
 11
189.2080645512434
 21
103.457434758841
 31
0.0
  0
LINE
  5
5437
330
1F
100
AcDbEntity
  8
0
100
AcDbLine
 10
192.389746529099
 20
107.3062157400721
 30
0.0
 11
191.888660983988
 21
106.8574248360027
 31
0.0
  0
LINE
  5
5438
330
1F
100
AcDbEntity
  8
0
100
AcDbLine
 10
192.3793595986232
 20
103.0062282895445
 30
0.0
 11
191.8804480622163
 21
103.4574347588412
 31
0.0
  0
LINE
  5
5439
330
1F
100
AcDbEntity
  8
0
100
AcDbLine
 10
210.5976726593492
 20
124.6470428669462
 30
0.0
 11
218.1079032943514
 21
124.6470428669462
 31
0.0
  0
LINE
  5
543A
330
1F
100
AcDbEntity
  8
0
100
AcDbLine
 10
193.636173162936
 20
124.6470428669462
 30
0.0
 11
206.7976825821876
 21
124.6470428669462
 31
0.0
  0
CIRCLE
  5
543B
330
1F
100
AcDbEntity
  8
0
100
AcDbCircle
 10
196.7080645512434
 20
117.1470428669461
 30
0.0
 40
3.45
  0
CIRCLE
  5
543C
330
1F
100
AcDbEntity
  8
0
100
AcDbCircle
 10
196.7080645512434
 20
117.1470428669461
 30
0.0
 40
3.45
  0
ARC
  5
543D
330
1F
100
AcDbEntity
  8
0
100
AcDbCircle
 10
194.483459930697
 20
104.7011506411489
 30
0.0
 40
1.6999999983
100
AcDbArc
 50
269.8615981726155
 51
359.8615981726285
  0
ARC
  5
543E
330
1F
100
AcDbEntity
  8
0
100
AcDbCircle
 10
194.4856339394015
 20
105.6011480145151
 30
0.0
 40
1.6999999983
100
AcDbArc
 50
359.8615981726285
 51
89.86159817261542
  0
LINE
  5
543F
330
1F
100
AcDbEntity
  8
0
100
AcDbLine
 10
196.1856289779823
 20
105.5970415536293
 30
0.0
 11
196.1834549692777
 21
104.6970441802631
 31
0.0
  0
ARC
  5
5440
330
1F
100
AcDbEntity
  8
0
100
AcDbCircle
 10
209.1539567770412
 20
119.3716474874923
 30
0.0
 40
1.6999999983
100
AcDbArc
 50
270.1384018273585
 51
0.1384018273715373
  0
ARC
  5
5441
330
1F
100
AcDbEntity
  8
0
100
AcDbCircle
 10
208.253959403675
 20
119.369473478788
 30
0.0
 40
1.6999999983
100
AcDbArc
 50
180.1384018273715
 51
270.1384018273585
  0
LINE
  5
5442
330
1F
100
AcDbEntity
  8
0
100
AcDbLine
 10
208.2580658645608
 20
117.6694784402074
 30
0.0
 11
209.158063237927
 21
117.6716524489117
 31
0.0
  0
ARC
  5
5443
330
1F
100
AcDbEntity
  8
0
100
AcDbCircle
 10
206.7976825821876
 20
124.4470428669463
 30
0.0
 40
0.2
100
AcDbArc
 50
0.0
 51
90.0
  0
LINE
  5
5444
330
1F
100
AcDbEntity
  8
0
100
AcDbLine
 10
206.5488916781175
 20
121.4653608890902
 30
0.0
 11
206.5539643650943
 21
119.3653670179022
 31
0.0
  0
LINE
  5
5445
330
1F
100
AcDbEntity
  8
0
100
AcDbLine
 10
206.548891678118
 20
121.4653608890904
 30
0.0
 11
206.9976825821874
 21
121.9664464342014
 31
0.0
  0
LINE
  5
5446
330
1F
100
AcDbEntity
  8
0
100
AcDbLine
 10
206.9976825821874
 20
121.9664464342014
 30
0.0
 11
206.9976825821874
 21
124.4470428669464
 31
0.0
  0
ARC
  5
5447
330
1F
100
AcDbEntity
  8
0
100
AcDbCircle
 10
210.5976726593492
 20
124.4470428669463
 30
0.0
 40
0.2
100
AcDbArc
 50
90.0
 51
180.0
  0
LINE
  5
5448
330
1F
100
AcDbEntity
  8
0
100
AcDbLine
 10
210.8488791286456
 20
121.475747819566
 30
0.0
 11
210.3976726593489
 21
121.9746593559729
 31
0.0
  0
LINE
  5
5449
330
1F
100
AcDbEntity
  8
0
100
AcDbLine
 10
210.8488791286456
 20
121.475747819566
 30
0.0
 11
210.8539518156219
 21
119.375753948378
 31
0.0
  0
LINE
  5
544A
330
1F
100
AcDbEntity
  8
0
100
AcDbLine
 10
210.3976726593489
 20
121.9746593559729
 30
0.0
 11
210.3976726593489
 21
124.4470428669464
 31
0.0
  0
LINE
  5
544B
330
1F
100
AcDbEntity
  8
0
100
AcDbLine
 10
225.4080645512437
 20
122.1470428669462
 30
0.0
 11
216.8080645512438
 21
122.1470428669462
 31
0.0
  0
LINE
  5
544C
330
1F
100
AcDbEntity
  8
0
100
AcDbLine
 10
218.1079032943514
 20
123.4413661271545
 30
0.0
 11
216.8080645512434
 21
123.4470428669461
 31
0.0
  0
ARC
  5
544D
330
1F
100
AcDbEntity
  8
0
100
AcDbCircle
 10
216.8080645512438
 20
123.247042866946
 30
0.0
 40
0.2
100
AcDbArc
 50
90.0
 51
180.0
  0
ARC
  5
544E
330
1F
100
AcDbEntity
  8
0
100
AcDbCircle
 10
216.8080645512438
 20
122.3470428669459
 30
0.0
 40
0.2
100
AcDbArc
 50
180.0
 51
270.0
  0
LINE
  5
544F
330
1F
100
AcDbEntity
  8
0
100
AcDbLine
 10
216.6080645512435
 20
122.347042866946
 30
0.0
 11
216.6080645512435
 21
123.2470428669461
 31
0.0
  0
ARC
  5
5450
330
1F
100
AcDbEntity
  8
0
100
AcDbCircle
 10
218.1079032943514
 20
124.4470428669461
 30
0.0
 40
0.2
100
AcDbArc
 50
0.0
 51
90.0
  0
ARC
  5
5451
330
1F
100
AcDbEntity
  8
0
100
AcDbCircle
 10
218.1079032943514
 20
123.6413661271545
 30
0.0
 40
0.2
100
AcDbArc
 50
270.0
 51
0.0
  0
LINE
  5
5452
330
1F
100
AcDbEntity
  8
0
100
AcDbLine
 10
218.3079032943512
 20
123.6413661271546
 30
0.0
 11
218.3079032943512
 21
124.4470428669461
 31
0.0
  0
LINE
  5
5453
330
1F
100
AcDbEntity
  8
0
100
AcDbLine
 10
227.6080645512436
 20
124.647042866946
 30
0.0
 11
225.8080645512438
 21
124.6470428669462
 31
0.0
  0
ARC
  5
5454
330
1F
100
AcDbEntity
  8
0
100
AcDbCircle
 10
225.8080645512438
 20
124.4470428669459
 30
0.0
 40
0.2
100
AcDbArc
 50
90.0
 51
180.0
  0
ARC
  5
5455
330
1F
100
AcDbEntity
  8
0
100
AcDbCircle
 10
225.4080645512437
 20
122.3470428669459
 30
0.0
 40
0.2
100
AcDbArc
 50
270.0
 51
0.0
  0
LINE
  5
5456
330
1F
100
AcDbEntity
  8
0
100
AcDbLine
 10
225.6080645512436
 20
122.347042866946
 30
0.0
 11
225.6080645512436
 21
124.4470428669459
 31
0.0
  0
ARC
  5
5457
330
1F
100
AcDbEntity
  8
0
100
AcDbCircle
 10
227.6080645512436
 20
124.4470428669459
 30
0.0
 40
0.2
100
AcDbArc
 50
0.0
 51
90.0
  0
ARC
  5
5458
330
1F
100
AcDbEntity
  8
0
100
AcDbCircle
 10
228.0080645512437
 20
122.3470428669459
 30
0.0
 40
0.2
100
AcDbArc
 50
180.0
 51
270.0
  0
LINE
  5
5459
330
1F
100
AcDbEntity
  8
0
100
AcDbLine
 10
227.8080645512438
 20
122.347042866946
 30
0.0
 11
227.8080645512438
 21
124.4470428669459
 31
0.0
  0
ARC
  5
545A
330
1F
100
AcDbEntity
  8
0
100
AcDbCircle
 10
235.3080738329874
 20
124.4470428669461
 30
0.0
 40
0.2
100
AcDbArc
 50
90.0
 51
180.0
  0
ARC
  5
545B
330
1F
100
AcDbEntity
  8
0
100
AcDbCircle
 10
235.3080738329879
 20
123.6456804196589
 30
0.0
 40
0.2
100
AcDbArc
 50
180.0
 51
270.0
  0
LINE
  5
545C
330
1F
100
AcDbEntity
  8
0
100
AcDbLine
 10
235.1080738329871
 20
123.645680419659
 30
0.0
 11
235.1080738329871
 21
124.4470428669461
 31
0.0
  0
ARC
  5
545D
330
1F
100
AcDbEntity
  8
0
100
AcDbCircle
 10
258.9326691717899
 20
69.59293509274285
 30
0.0
 40
1.6999999983
100
AcDbArc
 50
89.86159817261542
 51
179.8615981726285
  0
CIRCLE
  5
545E
330
1F
100
AcDbEntity
  8
0
100
AcDbCircle
 10
256.7080645512435
 20
57.14704286694616
 30
0.0
 40
5.5
  0
LINE
  5
545F
330
1F
100
AcDbEntity
  8
0
100
AcDbLine
 10
246.6184465202993
 20
49.64704286694622
 30
0.0
 11
259.7799559395509
 21
49.64704286694622
 31
0.0
  0
CIRCLE
  5
5460
330
1F
100
AcDbEntity
  8
0
100
AcDbCircle
 10
256.7080645512435
 20
57.14704286694616
 30
0.0
 40
3.45
  0
CIRCLE
  5
5461
330
1F
100
AcDbEntity
  8
0
100
AcDbCircle
 10
256.7080645512435
 20
57.14704286694616
 30
0.0
 40
3.45
  0
ARC
  5
5462
330
1F
100
AcDbEntity
  8
0
 62
     3
100
AcDbCircle
 10
256.7080645512435
 20
57.14704286694616
 30
0.0
 40
4.0
100
AcDbArc
 50
270.0
 51
180.0
  0
ARC
  5
5463
330
1F
100
AcDbEntity
  8
0
100
AcDbCircle
 10
245.1621696988119
 20
54.92461225510381
 30
0.0
 40
1.6999999983
100
AcDbArc
 50
0.1384018273715373
 51
90.13840182735851
  0
LINE
  5
5464
330
1F
100
AcDbEntity
  8
0
100
AcDbLine
 10
242.5672499738413
 20
52.81833791432588
 30
0.0
 11
242.562177286865
 21
54.91833178551418
 31
0.0
  0
ARC
  5
5465
330
1F
100
AcDbEntity
  8
0
100
AcDbCircle
 10
236.6080645512431
 20
51.94704286694634
 30
0.0
 40
0.2
100
AcDbArc
 50
0.0
 51
90.0
  0
ARC
  5
5466
330
1F
100
AcDbEntity
  8
0
100
AcDbCircle
 10
236.6080645512436
 20
51.04704286694614
 30
0.0
 40
0.2
100
AcDbArc
 50
270.0
 51
0.0
  0
LINE
  5
5467
330
1F
100
AcDbEntity
  8
0
100
AcDbLine
 10
236.8080645512434
 20
51.94704286694641
 30
0.0
 11
236.8080645512434
 21
51.04704286694619
 31
0.0
  0
LINE
  5
5468
330
1F
100
AcDbEntity
  8
0
100
AcDbLine
 10
243.0184564431381
 20
52.31942637791895
 30
0.0
 11
243.0184564431381
 21
49.84704286694626
 31
0.0
  0
ARC
  5
5469
330
1F
100
AcDbEntity
  8
0
100
AcDbCircle
 10
242.8184564431382
 20
49.84704286694621
 30
0.0
 40
0.2
100
AcDbArc
 50
270.0
 51
0.0
  0
LINE
  5
546A
330
1F
100
AcDbEntity
  8
0
100
AcDbLine
 10
242.5672499738413
 20
52.81833791432588
 30
0.0
 11
243.0184564431381
 21
52.31942637791895
 31
0.0
  0
ARC
  5
546B
330
1F
100
AcDbEntity
  8
0
100
AcDbCircle
 10
244.2621723254458
 20
54.92243824639975
 30
0.0
 40
1.6999999983
100
AcDbArc
 50
90.13840182735851
 51
180.1384018273845
  0
LINE
  5
546C
330
1F
100
AcDbEntity
  8
0
100
AcDbLine
 10
245.1580632379261
 20
56.62460729368458
 30
0.0
 11
244.2580658645599
 21
56.62243328498052
 31
0.0
  0
LINE
  5
546D
330
1F
100
AcDbEntity
  8
0
100
AcDbLine
 10
246.8672374243694
 20
52.82872484480198
 30
0.0
 11
246.8621647373927
 21
54.92871871598971
 31
0.0
  0
LINE
  5
546E
330
1F
100
AcDbEntity
  8
0
100
AcDbLine
 10
246.4184465202995
 20
52.32763929969054
 30
0.0
 11
246.4184465202995
 21
49.84704286694638
 31
0.0
  0
ARC
  5
546F
330
1F
100
AcDbEntity
  8
0
100
AcDbCircle
 10
246.6184465202993
 20
49.84704286694633
 30
0.0
 40
0.2
100
AcDbArc
 50
180.0
 51
270.0
  0
LINE
  5
5470
330
1F
100
AcDbEntity
  8
0
100
AcDbLine
 10
246.867237424369
 20
52.82872484480164
 30
0.0
 11
246.4184465202995
 21
52.32763929969054
 31
0.0
  0
ARC
  5
5471
330
1F
100
AcDbEntity
  8
0
100
AcDbCircle
 10
226.7080645512435
 20
87.14704286694603
 30
0.0
 40
50.0
100
AcDbArc
 50
311.4096221092824
 51
318.5903778907293
  0
LINE
  5
5472
330
1F
100
AcDbEntity
  8
0
100
AcDbLine
 10
261.5274681184989
 20
67.43666089788918
 30
0.0
 11
264.0080645512432
 21
67.43666089788918
 31
0.0
  0
LINE
  5
5473
330
1F
100
AcDbEntity
  8
0
100
AcDbLine
 10
261.0263825733875
 20
66.98786999381958
 30
0.0
 11
258.9263887021995
 21
66.99294268079599
 31
0.0
  0
LINE
  5
5474
330
1F
100
AcDbEntity
  8
0
100
AcDbLine
 10
257.2305001245047
 20
68.69704418026255
 30
0.0
 11
257.2326741332092
 21
69.59704155362875
 31
0.0
  0
ARC
  5
5475
330
1F
100
AcDbEntity
  8
0
100
AcDbCircle
 10
258.9304951630854
 20
68.69293771937664
 30
0.0
 40
1.6999999983
100
AcDbArc
 50
179.8615981726285
 51
269.8615981726155
  0
LINE
  5
5476
330
1F
100
AcDbEntity
  8
0
100
AcDbLine
 10
261.0263825733879
 20
66.98786999381981
 30
0.0
 11
261.5274681184989
 21
67.43666089788918
 31
0.0
  0
LINE
  5
5477
330
1F
100
AcDbEntity
  8
0
100
AcDbLine
 10
264.208064551243
 20
67.23666089788936
 30
0.0
 11
264.208064551243
 21
54.07515147863877
 31
0.0
  0
ARC
  5
5478
330
1F
100
AcDbEntity
  8
0
100
AcDbCircle
 10
264.0080645512432
 20
67.23666089788931
 30
0.0
 40
0.2
100
AcDbArc
 50
0.0
 51
90.0
  0
LINE
  5
5479
330
1F
100
AcDbEntity
  8
0
100
AcDbLine
 10
246.6184465203002
 20
124.6470428669462
 30
0.0
 11
259.7799559395509
 21
124.6470428669462
 31
0.0
  0
LINE
  5
547A
330
1F
100
AcDbEntity
  8
0
100
AcDbLine
 10
253.5214626550143
 20
97.09249746848934
 30
0.0
 11
257.9639109286597
 21
97.09249746848934
 31
0.0
  0
CIRCLE
  5
547B
330
1F
100
AcDbEntity
  8
0
100
AcDbCircle
 10
256.708064551243
 20
117.1470428669461
 30
0.0
 40
5.5
  0
CIRCLE
  5
547C
330
1F
100
AcDbEntity
  8
0
100
AcDbCircle
 10
256.708064551243
 20
117.1470428669461
 30
0.0
 40
3.45
  0
ARC
  5
547D
330
1F
100
AcDbEntity
  8
0
 62
     3
100
AcDbCircle
 10
256.7080645512435
 20
117.1470428669461
 30
0.0
 40
4.0
100
AcDbArc
 50
270.0
 51
180.0
  0
CIRCLE
  5
547E
330
1F
100
AcDbEntity
  8
0
100
AcDbCircle
 10
256.7080645512435
 20
117.1470428669459
 30
0.0
 40
3.45
  0
LINE
  5
547F
330
1F
100
AcDbEntity
  8
0
100
AcDbLine
 10
253.52373356173
 20
77.22507294236824
 30
0.0
 11
257.9713739220662
 21
77.22507294236824
 31
0.0
  0
LINE
  5
5480
330
1F
100
AcDbEntity
  8
0
100
AcDbLine
 10
252.0596244537907
 20
100.6348070814487
 30
0.0
 11
253.1087199862406
 21
103.1232177949561
 31
0.0
  0
ARC
  5
5481
330
1F
100
AcDbEntity
  8
0
100
AcDbCircle
 10
253.5104665028291
 20
75.14704286694616
 30
0.0
 40
2.078072426362859
100
AcDbArc
 50
89.63420348800621
 51
225.7198558604214
  0
CIRCLE
  5
5482
330
1F
100
AcDbEntity
  8
0
100
AcDbCircle
 10
253.5104665028291
 20
75.14704286694616
 30
0.0
 40
1.242449324426689
  0
LINE
  5
5483
330
1F
100
AcDbEntity
  8
0
100
AcDbLine
 10
252.0596244537907
 20
73.6592786524442
 30
0.0
 11
253.1087199862406
 21
71.17086793893658
 31
0.0
  0
ARC
  5
5484
330
1F
100
AcDbEntity
  8
0
100
AcDbCircle
 10
253.5104665028291
 20
99.17054080149439
 30
0.0
 40
2.078072426362859
100
AcDbArc
 50
133.6407183530367
 51
270.3031829140065
  0
CIRCLE
  5
5485
330
1F
100
AcDbEntity
  8
0
100
AcDbCircle
 10
253.5104665028291
 20
99.17054080149439
 30
0.0
 40
1.242449324426689
  0
ARC
  5
5486
330
1F
100
AcDbEntity
  8
0
100
AcDbCircle
 10
245.1621696988129
 20
119.369473478788
 30
0.0
 40
1.6999999983
100
AcDbArc
 50
269.8615981726155
 51
359.8615981726155
  0
ARC
  5
5487
330
1F
100
AcDbEntity
  8
0
100
AcDbCircle
 10
244.2621723254467
 20
119.3716474874923
 30
0.0
 40
1.6999999983
100
AcDbArc
 50
179.8615981726154
 51
269.8615981726155
  0
LINE
  5
5488
330
1F
100
AcDbEntity
  8
0
100
AcDbLine
 10
245.158063237927
 20
117.6694784402074
 30
0.0
 11
244.2580658645608
 21
117.6716524489117
 31
0.0
  0
ARC
  5
5489
330
1F
100
AcDbEntity
  8
0
100
AcDbCircle
 10
236.6080645512436
 20
123.247042866946
 30
0.0
 40
0.2
100
AcDbArc
 50
0.0
 51
90.0
  0
ARC
  5
548A
330
1F
100
AcDbEntity
  8
0
100
AcDbCircle
 10
236.6080645512436
 20
122.3470428669459
 30
0.0
 40
0.2
100
AcDbArc
 50
270.0
 51
0.0
  0
LINE
  5
548B
330
1F
100
AcDbEntity
  8
0
100
AcDbLine
 10
236.8080645512439
 20
122.347042866946
 30
0.0
 11
236.8080645512439
 21
123.2470428669461
 31
0.0
  0
ARC
  5
548C
330
1F
100
AcDbEntity
  8
0
100
AcDbCircle
 10
242.8184564431387
 20
124.4470428669463
 30
0.0
 40
0.2
100
AcDbArc
 50
0.0
 51
90.0
  0
LINE
  5
548D
330
1F
100
AcDbEntity
  8
0
100
AcDbLine
 10
242.5672499738423
 20
121.475747819566
 30
0.0
 11
242.562177286866
 21
119.375753948378
 31
0.0
  0
LINE
  5
548E
330
1F
100
AcDbEntity
  8
0
100
AcDbLine
 10
242.5672499738423
 20
121.475747819566
 30
0.0
 11
243.018456443139
 21
121.9746593559729
 31
0.0
  0
LINE
  5
548F
330
1F
100
AcDbEntity
  8
0
100
AcDbLine
 10
243.018456443139
 20
121.9746593559729
 30
0.0
 11
243.0184564431385
 21
124.4470428669464
 31
0.0
  0
ARC
  5
5490
330
1F
100
AcDbEntity
  8
0
100
AcDbCircle
 10
246.6184465203002
 20
124.4470428669463
 30
0.0
 40
0.2
100
AcDbArc
 50
90.0
 51
180.0
  0
LINE
  5
5491
330
1F
100
AcDbEntity
  8
0
100
AcDbLine
 10
246.8672374243699
 20
121.4653608890902
 30
0.0
 11
246.8621647373936
 21
119.3653670179022
 31
0.0
  0
LINE
  5
5492
330
1F
100
AcDbEntity
  8
0
100
AcDbLine
 10
246.8672374243699
 20
121.4653608890904
 30
0.0
 11
246.4184465203004
 21
121.9664464342014
 31
0.0
  0
LINE
  5
5493
330
1F
100
AcDbEntity
  8
0
100
AcDbLine
 10
246.4184465203004
 20
121.9664464342014
 30
0.0
 11
246.4184465203004
 21
124.4470428669464
 31
0.0
  0
LINE
  5
5494
330
1F
100
AcDbEntity
  8
0
100
AcDbLine
 10
264.208064551243
 20
103.2574347588405
 30
0.0
 11
264.208064551243
 21
95.74720412383829
 31
0.0
  0
ARC
  5
5495
330
1F
100
AcDbEntity
  8
0
100
AcDbCircle
 10
264.0080645512432
 20
86.24704286694583
 30
0.0
 40
0.2
100
AcDbArc
 50
270.0
 51
0.0
  0
LINE
  5
5496
330
1F
100
AcDbEntity
  8
0
100
AcDbLine
 10
261.9080645512433
 20
86.04704286694584
 30
0.0
 11
264.0080645512437
 21
86.04704286694584
 31
0.0
  0
LINE
  5
5497
330
1F
100
AcDbEntity
  8
0
100
AcDbLine
 10
261.9080645512433
 20
77.04704286694608
 30
0.0
 11
262.8080645512434
 21
77.04704286694608
 31
0.0
  0
LINE
  5
5498
330
1F
100
AcDbEntity
  8
0
100
AcDbLine
 10
261.5356810402706
 20
70.8366509750506
 30
0.0
 11
264.0080645512432
 21
70.83665097505094
 31
0.0
  0
LINE
  5
5499
330
1F
100
AcDbEntity
  8
0
100
AcDbLine
 10
261.7080645512435
 20
77.24704286694602
 30
0.0
 11
261.7080645512435
 21
85.84704286694602
 31
0.0
  0
LINE
  5
549A
330
1F
100
AcDbEntity
  8
0
100
AcDbLine
 10
261.0367695038637
 20
71.28785744434743
 30
0.0
 11
258.9367756326753
 21
71.29293013132361
 31
0.0
  0
ARC
  5
549B
330
1F
100
AcDbEntity
  8
0
100
AcDbCircle
 10
261.9080645512433
 20
77.24704286694596
 30
0.0
 40
0.2
100
AcDbArc
 50
180.0
 51
270.0
  0
LINE
  5
549C
330
1F
100
AcDbEntity
  8
0
100
AcDbLine
 10
261.0367695038637
 20
71.28785744434743
 30
0.0
 11
261.5356810402706
 21
70.8366509750506
 31
0.0
  0
ARC
  5
549D
330
1F
100
AcDbEntity
  8
0
100
AcDbCircle
 10
261.9080645512433
 20
85.84704286694597
 30
0.0
 40
0.2
100
AcDbArc
 50
90.0
 51
180.0
  0
LINE
  5
549E
330
1F
100
AcDbEntity
  8
0
100
AcDbLine
 10
263.0080645512436
 20
77.24704286694602
 30
0.0
 11
263.0067021039565
 21
78.54703358520204
 31
0.0
  0
LINE
  5
549F
330
1F
100
AcDbEntity
  8
0
100
AcDbLine
 10
264.208064551243
 20
78.54703358520227
 30
0.0
 11
264.208064551243
 21
71.03665097505099
 31
0.0
  0
ARC
  5
54A0
330
1F
100
AcDbEntity
  8
0
100
AcDbCircle
 10
262.8080645512434
 20
77.24704286694596
 30
0.0
 40
0.2
100
AcDbArc
 50
270.0
 51
0.0
  0
ARC
  5
54A1
330
1F
100
AcDbEntity
  8
0
100
AcDbCircle
 10
264.0080645512432
 20
71.03665097505093
 30
0.0
 40
0.2
100
AcDbArc
 50
270.0
 51
0.0
  0
LINE
  5
54A2
330
1F
100
AcDbEntity
  8
0
100
AcDbLine
 10
263.2067021039563
 20
78.74703358520232
 30
0.0
 11
264.0080645512432
 21
78.74703358520232
 31
0.0
  0
ARC
  5
54A3
330
1F
100
AcDbEntity
  8
0
100
AcDbCircle
 10
263.2067021039563
 20
78.54703358520199
 30
0.0
 40
0.2
100
AcDbArc
 50
90.0
 51
180.0
  0
ARC
  5
54A4
330
1F
100
AcDbEntity
  8
0
100
AcDbCircle
 10
264.0080645512432
 20
78.54703358520222
 30
0.0
 40
0.2
100
AcDbArc
 50
0.0
 51
90.0
  0
LINE
  5
54A5
330
1F
100
AcDbEntity
  8
0
100
AcDbLine
 10
261.9080645512433
 20
97.24704286694612
 30
0.0
 11
262.8080645512434
 21
97.24704286694612
 31
0.0
  0
LINE
  5
54A6
330
1F
100
AcDbEntity
  8
0
100
AcDbLine
 10
261.9080645512433
 20
88.24704286694611
 30
0.0
 11
264.0080645512437
 21
88.24704286694611
 31
0.0
  0
LINE
  5
54A7
330
1F
100
AcDbEntity
  8
0
100
AcDbLine
 10
261.7080645512435
 20
88.44704286694593
 30
0.0
 11
261.7080645512435
 21
97.04704286694585
 31
0.0
  0
ARC
  5
54A8
330
1F
100
AcDbEntity
  8
0
100
AcDbCircle
 10
261.9080645512433
 20
88.44704286694588
 30
0.0
 40
0.2
100
AcDbArc
 50
180.0
 51
270.0
  0
ARC
  5
54A9
330
1F
100
AcDbEntity
  8
0
100
AcDbCircle
 10
261.9080645512433
 20
97.04704286694578
 30
0.0
 40
0.2
100
AcDbArc
 50
90.0
 51
180.0
  0
LINE
  5
54AA
330
1F
100
AcDbEntity
  8
0
100
AcDbLine
 10
264.2080645512435
 20
86.24704286694599
 30
0.0
 11
264.2080645512435
 21
88.04704286694573
 31
0.0
  0
ARC
  5
54AB
330
1F
100
AcDbEntity
  8
0
100
AcDbCircle
 10
264.0080645512432
 20
88.04704286694567
 30
0.0
 40
0.2
100
AcDbArc
 50
0.0
 51
90.0
  0
ARC
  5
54AC
330
1F
100
AcDbEntity
  8
0
100
AcDbCircle
 10
262.8080645512434
 20
97.04704286694601
 30
0.0
 40
0.2
100
AcDbArc
 50
0.0
 51
90.0
  0
LINE
  5
54AD
330
1F
100
AcDbEntity
  8
0
100
AcDbLine
 10
263.2023878114521
 20
95.54720412383824
 30
0.0
 11
264.0080645512432
 21
95.54720412383824
 31
0.0
  0
ARC
  5
54AE
330
1F
100
AcDbEntity
  8
0
100
AcDbCircle
 10
263.2023878114521
 20
95.74720412383824
 30
0.0
 40
0.2
100
AcDbArc
 50
180.0
 51
270.0
  0
LINE
  5
54AF
330
1F
100
AcDbEntity
  8
0
100
AcDbLine
 10
263.0023878114518
 20
95.74720412383829
 30
0.0
 11
263.0080645512436
 21
97.04704286694607
 31
0.0
  0
ARC
  5
54B0
330
1F
100
AcDbEntity
  8
0
100
AcDbCircle
 10
264.0080645512432
 20
95.74720412383824
 30
0.0
 40
0.2
100
AcDbArc
 50
270.0
 51
0.0
  0
LINE
  5
54B1
330
1F
100
AcDbEntity
  8
0
100
AcDbLine
 10
264.208064551243
 20
120.2189342552539
 30
0.0
 11
264.208064551243
 21
107.057424836002
 31
0.0
  0
LINE
  5
54B2
330
1F
100
AcDbEntity
  8
0
100
AcDbLine
 10
261.5356810402706
 20
103.4574347588405
 30
0.0
 11
264.0080645512432
 21
103.4574347588405
 31
0.0
  0
LINE
  5
54B3
330
1F
100
AcDbEntity
  8
0
100
AcDbLine
 10
261.5274681184989
 20
106.857424836002
 30
0.0
 11
264.0080645512432
 21
106.857424836002
 31
0.0
  0
LINE
  5
54B4
330
1F
100
AcDbEntity
  8
0
100
AcDbLine
 10
261.0263825733875
 20
107.3062157400717
 30
0.0
 11
258.9263887021995
 21
107.3011430530952
 31
0.0
  0
LINE
  5
54B5
330
1F
100
AcDbEntity
  8
0
100
AcDbLine
 10
261.0367695038637
 20
103.0062282895441
 30
0.0
 11
258.9367756326753
 21
103.0011556025675
 31
0.0
  0
LINE
  5
54B6
330
1F
100
AcDbEntity
  8
0
100
AcDbLine
 10
257.2305001245047
 20
105.5970415536288
 30
0.0
 11
257.2326741332092
 21
104.6970441802626
 31
0.0
  0
ARC
  5
54B7
330
1F
100
AcDbEntity
  8
0
100
AcDbCircle
 10
258.9326691717899
 20
104.7011506411482
 30
0.0
 40
1.6999999983
100
AcDbArc
 50
180.1384018273715
 51
270.1384018273845
  0
ARC
  5
54B8
330
1F
100
AcDbEntity
  8
0
100
AcDbCircle
 10
258.9304951630854
 20
105.6011480145144
 30
0.0
 40
1.6999999983
100
AcDbArc
 50
90.13840182738457
 51
180.1384018273715
  0
LINE
  5
54B9
330
1F
100
AcDbEntity
  8
0
100
AcDbLine
 10
261.0263825733879
 20
107.3062157400717
 30
0.0
 11
261.5274681184989
 21
106.857424836002
 31
0.0
  0
LINE
  5
54BA
330
1F
100
AcDbEntity
  8
0
100
AcDbLine
 10
261.0367695038637
 20
103.0062282895441
 30
0.0
 11
261.5356810402706
 21
103.4574347588405
 31
0.0
  0
ARC
  5
54BB
330
1F
100
AcDbEntity
  8
0
100
AcDbCircle
 10
264.0080645512432
 20
107.057424836002
 30
0.0
 40
0.2
100
AcDbArc
 50
270.0
 51
0.0
  0
ARC
  5
54BC
330
1F
100
AcDbEntity
  8
0
100
AcDbCircle
 10
264.0080645512432
 20
103.2574347588405
 30
0.0
 40
0.2
100
AcDbArc
 50
0.0
 51
90.0
  0
ARC
  5
54BD
330
1F
100
AcDbEntity
  8
0
100
AcDbCircle
 10
226.7080645512435
 20
87.14704286694603
 30
0.0
 40
50.0
100
AcDbArc
 50
41.40962210927066
 51
48.59037789071755
  0
CIRCLE
  5
54BE
330
1F
100
AcDbEntity
  8
0
100
AcDbCircle
 10
226.7080645512435
 20
87.14704286694644
 30
0.0
 40
19.99999999999983
  0
LINE
  5
54BF
330
1F
100
AcDbEntity
  8
CENTER
 48
1.5
100
AcDbLine
 10
248.8840653230288
 20
57.14704286694619
 30
0.0
 11
264.5320637794581
 21
57.14704286694619
 31
0.0
  0
LINE
  5
54C0
330
1F
100
AcDbEntity
  8
CENTER
 48
1.5
100
AcDbLine
 10
256.7080645512435
 20
64.97104209516063
 30
0.0
 11
256.7080645512435
 21
49.3230436387317
 31
0.0
  0
LINE
  5
54C1
330
1F
100
AcDbEntity
  8
CENTER
 48
1.5
100
AcDbLine
 10
248.8840653230283
 20
117.1470428669462
 30
0.0
 11
264.5320637794577
 21
117.1470428669462
 31
0.0
  0
LINE
  5
54C2
330
1F
100
AcDbEntity
  8
CENTER
 48
1.5
100
AcDbLine
 10
256.708064551243
 20
124.9710420951606
 30
0.0
 11
256.708064551243
 21
109.3230436387317
 31
0.0
  0
LINE
  5
54C3
330
1F
100
AcDbEntity
  8
CENTER
 48
1.5
100
AcDbLine
 10
188.8840653230287
 20
117.1470428669462
 30
0.0
 11
204.5320637794581
 21
117.1470428669462
 31
0.0
  0
LINE
  5
54C4
330
1F
100
AcDbEntity
  8
CENTER
 48
1.5
100
AcDbLine
 10
196.7080645512434
 20
124.9710420951606
 30
0.0
 11
196.7080645512434
 21
109.3230436387317
 31
0.0
  0
LINE
  5
54C5
330
1F
100
AcDbEntity
  8
CENTER
 48
1.5
100
AcDbLine
 10
226.7080645512435
 20
87.14704286694644
 30
0.0
 11
226.7080645512435
 21
87.14704286694644
 31
0.0
  0
LINE
  5
54C6
330
1F
100
AcDbEntity
  8
CENTER
 48
1.5
100
AcDbLine
 10
226.7080645512435
 20
87.14704286694644
 30
0.0
 11
226.7080645512435
 21
87.14704286694644
 31
0.0
  0
ARC
  5
54C7
330
1F
100
AcDbEntity
  8
0
 62
     3
100
AcDbCircle
 10
226.7080645512435
 20
87.14704286694644
 30
0.0
 40
5.198
100
AcDbArc
 50
259.9999999999948
 51
189.9999999999982
  0
ARC
  5
54C8
330
1F
100
AcDbEntity
  8
0
100
AcDbCircle
 10
226.7080645512435
 20
87.14704286694644
 30
0.0
 40
10.0
100
AcDbArc
 50
58.2116693829586
 51
121.7883306170414
  0
LINE
  5
54C9
330
1F
100
AcDbEntity
  8
0
100
AcDbLine
 10
221.4402376748168
 20
95.64704286694643
 30
0.0
 11
226.7080645512435
 21
95.64704286694643
 31
0.0
  0
LINE
  5
54CA
330
1F
100
AcDbEntity
  8
0
100
AcDbLine
 10
226.7080645512435
 20
95.64704286694643
 30
0.0
 11
231.9758914276696
 21
95.64704286694643
 31
0.0
  0
ARC
  5
54CB
330
1F
100
AcDbEntity
  8
0
100
AcDbCircle
 10
226.7080645512435
 20
87.14704286694644
 30
0.0
 40
10.0
100
AcDbArc
 50
328.2116693829439
 51
31.78833061705611
  0
LINE
  5
54CC
330
1F
100
AcDbEntity
  8
0
100
AcDbLine
 10
221.4402376748168
 20
78.64704286694645
 30
0.0
 11
226.7080645512435
 21
78.64704286694645
 31
0.0
  0
LINE
  5
54CD
330
1F
100
AcDbEntity
  8
0
100
AcDbLine
 10
226.7080645512435
 20
78.64704286694645
 30
0.0
 11
231.9758914276696
 21
78.64704286694645
 31
0.0
  0
ARC
  5
54CE
330
1F
100
AcDbEntity
  8
0
100
AcDbCircle
 10
226.7080645512435
 20
87.14704286694644
 30
0.0
 40
10.0
100
AcDbArc
 50
148.2116693829439
 51
211.7883306170561
  0
LINE
  5
54CF
330
1F
100
AcDbEntity
  8
0
100
AcDbLine
 10
235.2080645512435
 20
87.14704286694644
 30
0.0
 11
235.2080645512435
 21
81.87921599052009
 31
0.0
  0
LINE
  5
54D0
330
1F
100
AcDbEntity
  8
0
100
AcDbLine
 10
235.2080645512435
 20
92.41486974337282
 30
0.0
 11
235.2080645512435
 21
87.14704286694644
 31
0.0
  0
ARC
  5
54D1
330
1F
100
AcDbEntity
  8
0
100
AcDbCircle
 10
226.7080645512435
 20
87.14704286694644
 30
0.0
 40
10.0
100
AcDbArc
 50
238.2116693829586
 51
301.7883306170414
  0
LINE
  5
54D2
330
1F
100
AcDbEntity
  8
0
100
AcDbLine
 10
218.2080645512435
 20
92.41486974337282
 30
0.0
 11
218.2080645512435
 21
87.14704286694644
 31
0.0
  0
LINE
  5
54D3
330
1F
100
AcDbEntity
  8
0
100
AcDbLine
 10
218.2080645512435
 20
87.14704286694644
 30
0.0
 11
218.2080645512435
 21
81.87921599052009
 31
0.0
  0
CIRCLE
  5
54D4
330
1F
100
AcDbEntity
  8
0
100
AcDbCircle
 10
226.7080645512435
 20
87.14704286694644
 30
0.0
 40
5.538000000000002
  0
CIRCLE
  5
54D5
330
1F
100
AcDbEntity
  8
0
100
AcDbCircle
 10
226.7080645512435
 20
87.14704286694644
 30
0.0
 40
4.338
  0
ARC
  5
54D6
330
1F
100
AcDbEntity
  8
0
100
AcDbCircle
 10
226.7080645512435
 20
87.14704286694644
 30
0.0
 40
10.0
100
AcDbArc
 50
121.7883306170414
 51
148.2116693829439
  0
ARC
  5
54D7
330
1F
100
AcDbEntity
  8
0
100
AcDbCircle
 10
226.7080645512435
 20
87.14704286694644
 30
0.0
 40
8.5
100
AcDbArc
 50
90.0
 51
180.0
  0
ARC
  5
54D8
330
1F
100
AcDbEntity
  8
0
100
AcDbCircle
 10
226.7080645512435
 20
87.14704286694644
 30
0.0
 40
8.5
100
AcDbArc
 50
180.0
 51
270.0
  0
ARC
  5
54D9
330
1F
100
AcDbEntity
  8
0
100
AcDbCircle
 10
226.7080645512435
 20
87.14704286694644
 30
0.0
 40
10.0
100
AcDbArc
 50
211.7883306170561
 51
238.2116693829586
  0
ARC
  5
54DA
330
1F
100
AcDbEntity
  8
0
100
AcDbCircle
 10
226.7080645512435
 20
87.14704286694644
 30
0.0
 40
8.5
100
AcDbArc
 50
270.0
 51
0.0
  0
ARC
  5
54DB
330
1F
100
AcDbEntity
  8
0
100
AcDbCircle
 10
226.7080645512435
 20
87.14704286694644
 30
0.0
 40
10.0
100
AcDbArc
 50
301.7883306170414
 51
328.2116693829439
  0
ARC
  5
54DC
330
1F
100
AcDbEntity
  8
0
100
AcDbCircle
 10
226.7080645512435
 20
87.14704286694644
 30
0.0
 40
8.5
100
AcDbArc
 50
0.0
 51
90.0
  0
ARC
  5
54DD
330
1F
100
AcDbEntity
  8
0
100
AcDbCircle
 10
226.7080645512435
 20
87.14704286694644
 30
0.0
 40
10.0
100
AcDbArc
 50
31.78833061705611
 51
58.2116693829586
  0
DIMENSION
  5
54DE
102
{ACAD_XDICTIONARY
360
54DF
102
}
102
{ACAD_REACTORS
330
54E0
102
}
330
1F
100
AcDbEntity
  8
DIM
100
AcDbDimension
  2
*D2
 10
111.1057711457497
 20
301.2556034048503
 30
0.0
 11
105.6058806971775
 21
303.7556034048503
 31
0.0
 70
    32
 71
     5
 42
10.99978089714432
  3
AM_ANSI
100
AcDbAlignedDimension
 13
100.1059902486054
 23
289.1322168679484
 33
0.0
 14
111.1057711457497
 24
289.1866029005988
 34
0.0
100
AcDbRotatedDimension
1001
ACAD
1000
DSTYLE
1002
{
1070
    41
1040
3.0
1070
    42
1040
2.0
1070
    43
1040
8.0
1070
    44
1040
2.0
1070
    73
1070
     0
1070
    74
1070
     0
1070
    77
1070
     3
1070
   140
1040
3.0
1070
   141
1040
3.0
1070
   146
1040
0.6
1070
   147
1040
1.0
1070
   172
1070
     1
1070
   178
1070
   256
1070
   272
1070
     2
1070
   274
1070
     2
1070
   340
1005
4FAD
1002
}
  0
DIMENSION
  5
54E1
102
{ACAD_XDICTIONARY
360
54E2
102
}
102
{ACAD_REACTORS
330
54E3
102
}
330
1F
100
AcDbEntity
  8
DIM
100
AcDbDimension
  2
*D3
 10
118.0981839662067
 20
309.3674272492452
 30
0.0
 11
105.5981839662067
 21
311.8674272492452
 31
0.0
 70
    32
 71
     5
 42
25.0
  3
AM_ANSI
100
AcDbAlignedDimension
 13
93.09818396620675
 23
286.4408739168585
 33
0.0
 14
118.0981839662067
 24
285.2408739168585
 34
0.0
100
AcDbRotatedDimension
1001
ACAD
1000
DSTYLE
1002
{
1070
    41
1040
3.0
1070
    42
1040
2.0
1070
    43
1040
8.0
1070
    44
1040
2.0
1070
    73
1070
     0
1070
    74
1070
     0
1070
    77
1070
     3
1070
   140
1040
3.0
1070
   141
1040
3.0
1070
   146
1040
0.6
1070
   147
1040
1.0
1070
   172
1070
     1
1070
   178
1070
   256
1070
   272
1070
     2
1070
   274
1070
     2
1070
   340
1005
4FAD
1002
}
  0
DIMENSION
  5
54E4
102
{ACAD_XDICTIONARY
360
54E5
102
}
102
{ACAD_REACTORS
330
54E6
102
}
330
1F
100
AcDbEntity
  8
DIM
100
AcDbDimension
  2
*D4
 10
118.0981839662067
 20
317.479252402412
 30
0.0
 11
104.0981839662067
 21
319.979252402412
 31
0.0
 70
    32
 71
     5
 42
28.0
  3
AM_ANSI
100
AcDbAlignedDimension
 13
90.09818396620676
 23
286.4408739168585
 33
0.0
 14
118.0981839662067
 24
285.2408739168585
 34
0.0
100
AcDbRotatedDimension
1001
ACAD
1000
DSTYLE
1002
{
1070
    41
1040
3.0
1070
    42
1040
2.0
1070
    43
1040
8.0
1070
    44
1040
2.0
1070
    73
1070
     0
1070
    74
1070
     0
1070
    77
1070
     3
1070
   140
1040
3.0
1070
   141
1040
3.0
1070
   146
1040
0.6
1070
   147
1040
1.0
1070
   172
1070
     1
1070
   178
1070
   256
1070
   272
1070
     2
1070
   274
1070
     2
1070
   340
1005
4FAD
1002
}
  0
DIMENSION
  5
54E7
102
{ACAD_XDICTIONARY
360
54E8
102
}
102
{ACAD_REACTORS
330
54E9
102
}
330
1F
100
AcDbEntity
  8
DIM
100
AcDbDimension
  2
*D5
 10
85.0981839662063
 20
325.408710676529
 30
0.0
 11
83.09818396620631
 21
325.408710676529
 31
0.0
 70
   160
 71
     5
 42
4.0
  3
AM_ANSI
100
AcDbAlignedDimension
 13
81.0981839662063
 23
314.9408739168582
 33
0.0
 14
85.0981839662063
 24
295.4408739168584
 34
0.0
100
AcDbRotatedDimension
1001
ACAD
1000
DSTYLE
1002
{
1070
    41
1040
3.0
1070
    42
1040
2.0
1070
    43
1040
8.0
1070
    44
1040
2.0
1070
    73
1070
     0
1070
    74
1070
     0
1070
    77
1070
     3
1070
   140
1040
3.0
1070
   141
1040
3.0
1070
   146
1040
0.6
1070
   147
1040
1.0
1070
   172
1070
     1
1070
   178
1070
   256
1070
   272
1070
     2
1070
   274
1070
     2
1070
   340
1005
4FAD
1002
}
  0
DIMENSION
  5
54EA
102
{ACAD_XDICTIONARY
360
54EB
102
}
102
{ACAD_REACTORS
330
54EC
102
}
330
1F
100
AcDbEntity
  8
DIM
100
AcDbDimension
  2
*D6
 10
56.09818396620631
 20
325.408710676529
 30
0.0
 11
50.0981839662063
 21
327.908710676529
 31
0.0
 70
    32
 71
     5
 42
12.0
  3
AM_ANSI
100
AcDbAlignedDimension
 13
44.09818396620631
 23
314.9408739168586
 33
0.0
 14
56.09818396620631
 24
285.0952011230916
 34
0.0
100
AcDbRotatedDimension
1001
ACAD
1000
DSTYLE
1002
{
1070
    41
1040
3.0
1070
    42
1040
2.0
1070
    43
1040
8.0
1070
    44
1040
2.0
1070
    73
1070
     0
1070
    74
1070
     0
1070
    77
1070
     3
1070
   140
1040
3.0
1070
   141
1040
3.0
1070
   146
1040
0.6
1070
   147
1040
1.0
1070
   172
1070
     1
1070
   178
1070
   256
1070
   272
1070
     2
1070
   274
1070
     2
1070
   340
1005
4FAD
1002
}
  0
DIMENSION
  5
54ED
102
{ACAD_XDICTIONARY
360
54EE
102
}
102
{ACAD_REACTORS
330
54EF
102
}
330
1F
100
AcDbEntity
  8
DIM
100
AcDbDimension
  2
*D7
 10
81.0981839662063
 20
325.408710676529
 30
0.0
 11
75.0981839662063
 21
327.908710676529
 31
0.0
 70
    32
 71
     5
 42
12.0
  3
AM_ANSI
100
AcDbAlignedDimension
 13
69.09818396620631
 23
285.0952011230916
 33
0.0
 14
81.0981839662063
 24
314.9408739168586
 34
0.0
100
AcDbRotatedDimension
1001
ACAD
1000
DSTYLE
1002
{
1070
    41
1040
3.0
1070
    42
1040
2.0
1070
    43
1040
8.0
1070
    44
1040
2.0
1070
    73
1070
     0
1070
    74
1070
     0
1070
    77
1070
     3
1070
   140
1040
3.0
1070
   141
1040
3.0
1070
   146
1040
0.6
1070
   147
1040
1.0
1070
   172
1070
     1
1070
   178
1070
   256
1070
   272
1070
     2
1070
   274
1070
     2
1070
   340
1005
4FAD
1002
}
  0
DIMENSION
  5
54F0
102
{ACAD_XDICTIONARY
360
54F1
102
}
102
{ACAD_REACTORS
330
54F2
102
}
330
1F
100
AcDbEntity
  8
DIM
100
AcDbDimension
  2
*D8
 10
81.0981839662063
 20
333.9368783858716
 30
0.0
 11
62.5981839662063
 21
336.4368783858716
 31
0.0
 70
    32
  1
32+stroke=S
 71
     5
 42
37.0
  3
AM_ANSI
100
AcDbAlignedDimension
 13
44.09818396620631
 23
314.9408739168586
 33
0.0
 14
81.0981839662063
 24
314.9408739168586
 34
0.0
100
AcDbRotatedDimension
1001
ACAD
1000
DSTYLE
1002
{
1070
    41
1040
3.0
1070
    42
1040
2.0
1070
    43
1040
8.0
1070
    44
1040
2.0
1070
    73
1070
     0
1070
    74
1070
     0
1070
    77
1070
     3
1070
   140
1040
3.0
1070
   141
1040
3.0
1070
   146
1040
0.6
1070
   147
1040
1.0
1070
   172
1070
     1
1070
   178
1070
   256
1070
   272
1070
     2
1070
   274
1070
     2
1070
   340
1005
4FAD
1002
}
  0
DIMENSION
  5
54F3
102
{ACAD_XDICTIONARY
360
54F4
102
}
102
{ACAD_REACTORS
330
54F5
102
}
330
1F
100
AcDbEntity
  8
DIM
100
AcDbDimension
  2
*D9
 10
118.0981839662067
 20
333.9368783858716
 30
0.0
 11
99.59818396620654
 21
336.4368783858716
 31
0.0
 70
    32
 71
     5
 42
37.00000000000045
  3
AM_ANSI
100
AcDbAlignedDimension
 13
81.0981839662063
 23
314.9408739168586
 33
0.0
 14
118.0981839662067
 24
285.2408739168585
 34
0.0
100
AcDbRotatedDimension
1001
ACAD
1000
DSTYLE
1002
{
1070
    41
1040
3.0
1070
    42
1040
2.0
1070
    43
1040
8.0
1070
    44
1040
2.0
1070
    73
1070
     0
1070
    74
1070
     0
1070
    77
1070
     3
1070
   140
1040
3.0
1070
   141
1040
3.0
1070
   146
1040
0.6
1070
   147
1040
1.0
1070
   172
1070
     1
1070
   178
1070
   256
1070
   272
1070
     2
1070
   274
1070
     2
1070
   340
1005
4FAD
1002
}
  0
DIMENSION
  5
54F6
102
{ACAD_XDICTIONARY
360
54F7
102
}
102
{ACAD_REACTORS
330
54F8
102
}
330
1F
100
AcDbEntity
  8
DIM
100
AcDbDimension
  2
*D10
 10
118.0981839662067
 20
341.9221387628868
 30
0.0
 11
81.09818396620676
 21
344.4221387628868
 31
0.0
 70
    32
  1
69+stroke=ZZ
 71
     5
 42
74.0
  3
AM_ANSI
100
AcDbAlignedDimension
 13
44.09818396620676
 23
314.9408739168586
 33
0.0
 14
118.0981839662067
 24
285.2408739168585
 34
0.0
100
AcDbRotatedDimension
1001
ACAD
1000
DSTYLE
1002
{
1070
    41
1040
3.0
1070
    42
1040
2.0
1070
    43
1040
8.0
1070
    44
1040
2.0
1070
    73
1070
     0
1070
    74
1070
     0
1070
    77
1070
     3
1070
   140
1040
3.0
1070
   141
1040
3.0
1070
   146
1040
0.6
1070
   147
1040
1.0
1070
   172
1070
     1
1070
   178
1070
   256
1070
   272
1070
     2
1070
   274
1070
     2
1070
   340
1005
4FAD
1002
}
  0
DIMENSION
  5
54F9
102
{ACAD_XDICTIONARY
360
54FA
102
}
102
{ACAD_REACTORS
330
54FB
102
}
330
1F
100
AcDbEntity
  8
DIM
100
AcDbDimension
  2
*D11
 10
130.647510518916
 20
287.4408739168584
 30
0.0
 11
128.147510518916
 21
277.4408739168585
 31
0.0
 70
    32
  1
%%c<>
 71
     5
 42
20.0
  3
AM_ANSI
100
AcDbAlignedDimension
 13
85.59818396620675
 23
267.4408739168585
 33
0.0
 14
85.59818396620675
 24
287.4408739168585
 34
0.0
 50
90.0
100
AcDbRotatedDimension
1001
ACAD
1000
DSTYLE
1002
{
1070
    41
1040
3.0
1070
    42
1040
2.0
1070
    43
1040
8.0
1070
    44
1040
2.0
1070
    73
1070
     0
1070
    74
1070
     0
1070
    77
1070
     3
1070
   140
1040
3.0
1070
   141
1040
3.0
1070
   146
1040
0.6
1070
   147
1040
1.0
1070
   172
1070
     1
1070
   178
1070
   256
1070
   272
1070
     2
1070
   274
1070
     2
1070
   340
1005
4FAD
1002
}
  0
DIMENSION
  5
54FC
102
{ACAD_XDICTIONARY
360
54FD
102
}
102
{ACAD_REACTORS
330
54FE
102
}
330
1F
100
AcDbEntity
  8
DIM
100
AcDbDimension
  2
*D12
 10
139.8744318066988
 20
257.4408739168585
 30
0.0
 11
136.3894318066987
 21
277.4408739168585
 31
0.0
 70
    32
  1
%%c<>{}{\H0.71x;\C3;\S 0^ -0.05;}
 71
     5
 42
39.99999999999989
  3
AM_ANSI
100
AcDbAlignedDimension
 13
83.09818396620631
 23
297.4408739168584
 33
0.0
 14
83.09818396620631
 24
257.4408739168585
 34
0.0
 50
90.0
100
AcDbRotatedDimension
1001
GENIUS_GENDTOL_13
1000
TolSmNrm
1000

1000
{\H0.71x;$2\S$+$P^ $-$M;}
1040
40.0
1001
ACAD
1000
DSTYLE
1002
{
1070
   286
1070
     0
1070
   284
1070
     8
1070
    41
1040
3.0
1070
    42
1040
2.0
1070
    43
1040
8.0
1070
    44
1040
2.0
1070
    47
1040
0.0
1070
    48
1040
0.05
1070
    73
1070
     0
1070
    74
1070
     0
1070
    77
1070
     3
1070
   140
1040
3.0
1070
   141
1040
3.0
1070
   146
1040
0.6
1070
   147
1040
1.0
1070
   172
1070
     1
1070
   178
1070
   256
1070
   272
1070
     2
1070
   274
1070
     2
1070
   340
1005
4FAD
1002
}
  0
LEADER
  5
54FF
330
1F
100
AcDbEntity
  8
DIM
100
AcDbLeader
  3
AM_ANSI$7
 73
     0
 74
     0
 75
     1
 40
3.0
 41
16.57142857142857
 76
     3
 10
114.0020871074062
 20
268.4408739168585
 30
0.0
 10
125.7310091138494
 20
248.885653755908
 30
0.0
 10
128.2310091138494
 20
248.885653755908
 30
0.0
340
5500
213
1.282147892448961
223
0.1232296656107508
233
0.0
1001
ACAD
1000
DSTYLE
1002
{
1070
    41
1040
2.5
1070
    42
1040
1.5
1070
    43
1040
8.0
1070
    44
1040
1.5
1070
    73
1070
     0
1070
    74
1070
     0
1070
    77
1070
     3
1070
   140
1040
2.0
1070
   141
1040
3.0
1070
   146
1040
0.6
1070
   147
1040
1.0
1070
   172
1070
     1
1070
   178
1070
   256
1070
   272
1070
     2
1070
   274
1070
     2
1070
   340
1005
4FAD
1002
}
  0
MTEXT
  5
5500
102
{ACAD_REACTORS
330
54FF
102
}
330
1F
100
AcDbEntity
  8
DIM
100
AcDbMText
 10
127.9488612214004
 20
252.7624240902972
 30
0.0
 40
3.0
 41
0.0
 71
     1
 72
     1
  1
M18*1.5
  7
dayus
 73
     1
 44
1.0
1001
ACAD
1000
MTEXTBEGIN
1070
    73
1070
     1
1070
    44
1040
1.0
1070
    74
1070
     0
1000
MTEXTEND
  0
LEADER
  5
5501
330
1F
100
AcDbEntity
  8
DIM
100
AcDbLeader
  3
AM_ANSI$7
 73
     0
 74
     0
 75
     1
 40
3.0
 41
4.714285714285713
 76
     3
 10
104.5635511273508
 20
263.5198525117862
 30
0.0
 10
110.6950224888526
 20
249.270618720687
 30
0.0
 10
113.1950224888526
 20
249.270618720687
 30
0.0
340
5502
213
1.28621199348413
223
0.2860289400440479
233
0.0
1001
ACAD
1000
DSTYLE
1002
{
1070
    42
1040
1.5
1070
    43
1040
8.0
1070
    44
1040
1.5
1070
    73
1070
     0
1070
    74
1070
     0
1070
    77
1070
     3
1070
   140
1040
2.0
1070
   141
1040
3.0
1070
   146
1040
0.6
1070
   147
1040
1.0
1070
   172
1070
     1
1070
   178
1070
   256
1070
   272
1070
     2
1070
   274
1070
     2
1070
   340
1005
4FAD
1002
}
  0
MTEXT
  5
5502
102
{ACAD_REACTORS
330
5501
102
}
330
1F
100
AcDbEntity
  8
DIM
100
AcDbMText
 10
112.9088104953684
 20
252.9845897806429
 30
0.0
 40
3.0
 41
0.0
 71
     1
 72
     1
  1
26
  7
dayus
 73
     1
 44
1.0
1001
ACAD
1000
MTEXTBEGIN
1070
    73
1070
     1
1070
    44
1040
1.0
1070
    74
1070
     0
1000
MTEXTEND
  0
DIMENSION
  5
5503
102
{ACAD_XDICTIONARY
360
5504
102
}
102
{ACAD_REACTORS
330
5505
102
}
330
1F
100
AcDbEntity
  8
DIM
100
AcDbDimension
  2
*D13
 10
90.09818396620721
 20
248.8286371127865
 30
0.0
 11
88.59818396620717
 21
248.8286371127865
 31
0.0
 70
   160
 71
     5
 42
3.000000000000056
  3
AM_ANSI
100
AcDbAlignedDimension
 13
87.09818396620715
 23
272.1730470404315
 33
0.0
 14
90.09818396620721
 24
268.4408739168583
 34
0.0
100
AcDbRotatedDimension
1001
ACAD
1000
DSTYLE
1002
{
1070
    41
1040
3.0
1070
    42
1040
2.0
1070
    43
1040
8.0
1070
    44
1040
2.0
1070
    73
1070
     0
1070
    74
1070
     0
1070
    77
1070
     3
1070
   140
1040
3.0
1070
   141
1040
3.0
1070
   146
1040
0.6
1070
   147
1040
1.0
1070
   172
1070
     1
1070
   178
1070
   256
1070
   272
1070
     2
1070
   274
1070
     2
1070
   340
1005
4FAD
1002
}
  0
LEADER
  5
5506
330
1F
100
AcDbEntity
  8
DIM
100
AcDbLeader
  3
AM_ANSI$7
 73
     0
 75
     1
 40
8.452380952380952
 41
36.66666666666664
 76
     3
 10
52.43529931755301
 20
280.6198322447801
 30
0.0
 10
42.5237310224179
 20
289.6558639283646
 30
0.0
 10
40.0237310224179
 20
289.6558639283646
 30
0.0
340
5507
213
-1.543897086449305
223
0.4194728829406813
233
0.0
1001
ACAD
1000
DSTYLE
1002
{
1070
    41
1040
2.5
1070
    42
1040
1.5
1070
    43
1040
8.0
1070
    44
1040
1.5
1070
    73
1070
     0
1070
    74
1070
     0
1070
    77
1070
     3
1070
   140
1040
2.0
1070
   141
1040
3.0
1070
   146
1040
0.6
1070
   147
1040
1.0
1070
   172
1070
     1
1070
   178
1070
   256
1070
   272
1070
     8
1070
   274
1070
     2
1070
   340
1005
4FAD
1002
}
  0
MTEXT
  5
5507
102
{ACAD_REACTORS
330
5506
102
}
330
1F
100
AcDbEntity
  8
DIM
100
AcDbMText
 10
40.56762810886721
 20
290.2363910454239
 30
0.0
 40
2.5
 41
0.0
 71
     9
 72
     1
  1
2-PT1/8(ST=5mm)\PPT1/4
  7
dayus
 73
     1
 44
1.0
1001
ACAD
1000
MTEXTBEGIN
1070
    73
1070
     1
1070
    44
1040
1.0
1070
    74
1070
     0
1000
MTEXTEND
  0
DIMENSION
  5
5508
102
{ACAD_XDICTIONARY
360
5509
102
}
102
{ACAD_REACTORS
330
550A
102
}
330
1F
100
AcDbEntity
  8
DIM
100
AcDbDimension
  2
*D14
 10
256.708064551243
 20
325.408710676529
 30
0.0
 11
226.7080645512432
 21
327.908710676529
 31
0.0
 70
    32
  1
□<>
 71
     5
 42
59.99999999999954
  3
AM_ANSI
100
AcDbAlignedDimension
 13
196.7080645512434
 23
315.2648731450728
 33
0.0
 14
256.708064551243
 24
315.2648731450728
 34
0.0
100
AcDbRotatedDimension
1001
ACAD
1000
DSTYLE
1002
{
1070
    41
1040
3.0
1070
    42
1040
2.0
1070
    43
1040
8.0
1070
    44
1040
2.0
1070
    73
1070
     0
1070
    74
1070
     0
1070
    77
1070
     3
1070
   140
1040
3.0
1070
   141
1040
3.0
1070
   146
1040
0.6
1070
   147
1040
1.0
1070
   172
1070
     1
1070
   178
1070
   256
1070
   272
1070
     2
1070
   274
1070
     2
1070
   340
1005
4FAD
1002
}
  0
DIMENSION
  5
550B
102
{ACAD_XDICTIONARY
360
550C
102
}
102
{ACAD_REACTORS
330
550D
102
}
330
1F
100
AcDbEntity
  8
DIM
100
AcDbDimension
  2
*D15
 10
264.2080645512443
 20
333.9368783858721
 30
0.0
 11
226.7080645512438
 21
336.4368783858722
 31
0.0
 70
    32
  1
□<>
 71
     5
 42
75.00000000000091
  3
AM_ANSI
100
AcDbAlignedDimension
 13
189.2080645512433
 23
310.5127653051654
 33
0.0
 14
264.2080645512443
 24
310.5127653051654
 34
0.0
100
AcDbRotatedDimension
1001
ACAD
1000
DSTYLE
1002
{
1070
    41
1040
3.0
1070
    42
1040
2.0
1070
    43
1040
8.0
1070
    44
1040
2.0
1070
    73
1070
     0
1070
    74
1070
     0
1070
    77
1070
     3
1070
   140
1040
3.0
1070
   141
1040
3.0
1070
   146
1040
0.6
1070
   147
1040
1.0
1070
   172
1070
     1
1070
   178
1070
   256
1070
   272
1070
     2
1070
   274
1070
     2
1070
   340
1005
4FAD
1002
}
  0
DIMENSION
  5
550E
102
{ACAD_XDICTIONARY
360
550F
102
}
102
{ACAD_REACTORS
330
5510
102
}
330
1F
100
AcDbEntity
  8
DIM
100
AcDbDimension
  2
*D16
 10
264.208064551243
 20
341.9221387628868
 30
0.0
 11
222.708064551243
 21
344.4221387628868
 31
0.0
 70
    32
 71
     5
 42
83.0
  3
AM_ANSI
100
AcDbAlignedDimension
 13
181.208064551243
 23
287.3080788839313
 33
0.0
 14
264.208064551243
 24
310.5127653051663
 34
0.0
100
AcDbRotatedDimension
1001
ACAD
1000
DSTYLE
1002
{
1070
    41
1040
3.0
1070
    42
1040
2.0
1070
    43
1040
8.0
1070
    44
1040
2.0
1070
    73
1070
     0
1070
    74
1070
     0
1070
    77
1070
     3
1070
   140
1040
3.0
1070
   141
1040
3.0
1070
   146
1040
0.6
1070
   147
1040
1.0
1070
   172
1070
     1
1070
   178
1070
   256
1070
   272
1070
     2
1070
   274
1070
     2
1070
   340
1005
4FAD
1002
}
  0
DIMENSION
  5
5511
102
{ACAD_XDICTIONARY
360
5512
102
}
102
{ACAD_REACTORS
330
5513
102
}
330
1F
100
AcDbEntity
  8
DIM
100
AcDbDimension
  2
*D17
 10
235.2080645512439
 20
228.6213191552895
 30
0.0
 11
226.7080645512439
 21
231.1213191552895
 31
0.0
 70
    32
  1
□<>
 71
     5
 42
17.0
  3
AM_ANSI
100
AcDbAlignedDimension
 13
218.2080645512439
 23
272.1730470404316
 33
0.0
 14
235.2080645512439
 24
272.1730470404316
 34
0.0
100
AcDbRotatedDimension
1001
ACAD
1000
DSTYLE
1002
{
1070
    41
1040
3.0
1070
    42
1040
2.0
1070
    43
1040
8.0
1070
    44
1040
2.0
1070
    73
1070
     0
1070
    74
1070
     0
1070
    77
1070
     3
1070
   140
1040
3.0
1070
   141
1040
3.0
1070
   146
1040
0.6
1070
   147
1040
1.0
1070
   172
1070
     1
1070
   178
1070
   256
1070
   272
1070
     2
1070
   274
1070
     2
1070
   340
1005
4FAD
1002
}
  0
DIMENSION
  5
5514
102
{ACAD_XDICTIONARY
360
5515
102
}
102
{ACAD_REACTORS
330
5516
102
}
330
1F
100
AcDbEntity
  8
DIM
100
AcDbDimension
  2
*D18
 10
169.7103612385506
 20
267.4630395685217
 30
0.0
 11
167.2103612385506
 21
277.4408739168584
 31
0.0
 70
    32
 71
     5
 42
19.95566869667345
  3
AM_ANSI
100
AcDbAlignedDimension
 13
181.2414478053827
 23
287.4187082651951
 33
0.0
 14
181.2414478053827
 24
267.4630395685217
 34
0.0
 50
90.0
100
AcDbRotatedDimension
1001
ACAD
1000
DSTYLE
1002
{
1070
    41
1040
3.0
1070
    42
1040
2.0
1070
    43
1040
8.0
1070
    44
1040
2.0
1070
    73
1070
     0
1070
    74
1070
     0
1070
    77
1070
     3
1070
   140
1040
3.0
1070
   141
1040
3.0
1070
   146
1040
0.6
1070
   147
1040
1.0
1070
   172
1070
     1
1070
   178
1070
   256
1070
   271
1070
     0
1070
   272
1070
     2
1070
   274
1070
     2
1070
   340
1005
4FAD
1002
}
  0
LEADER
  5
5517
330
1F
100
AcDbEntity
  8
DIM
100
AcDbLeader
  3
AM_ANSI$7
 73
     0
 75
     1
 40
13.0
 41
43.99999999999999
 76
     3
 10
192.4354155069904
 20
310.9041772741524
 30
0.0
 10
176.983925682497
 20
323.4287717423875
 30
0.0
 10
173.983925682497
 20
323.4287717423875
 30
0.0
340
5518
213
-0.1905629376930165
223
0.2179465301056638
233
0.0
1001
ACAD
1000
DSTYLE
1002
{
1070
    41
1040
3.0
1070
    42
1040
1.5
1070
    43
1040
8.0
1070
    44
1040
1.5
1070
    73
1070
     0
1070
    74
1070
     0
1070
    77
1070
     3
1070
   140
1040
2.0
1070
   141
1040
3.0
1070
   146
1040
0.6
1070
   147
1040
1.0
1070
   172
1070
     1
1070
   178
1070
   256
1070
   272
1070
     2
1070
   274
1070
     2
1070
   340
1005
4FAD
1002
}
  0
MTEXT
  5
5518
102
{ACAD_REACTORS
330
5517
102
}
330
1F
100
AcDbEntity
  8
DIM
100
AcDbMText
 10
173.17448862019
 20
337.2108252122818
 30
0.0
 40
3.0
 41
0.0
 71
     3
 72
     1
  1
%%C11*8.5 depth\PM8*1.25*16.5 depth\P%%C6.9 thru
  7
dayus
 73
     1
 44
1.0
1001
ACAD
1000
MTEXTBEGIN
1070
    73
1070
     1
1070
    44
1040
1.0
1070
    74
1070
     0
1000
MTEXTEND
  0
DIMENSION
  5
5519
102
{ACAD_XDICTIONARY
360
551A
102
}
102
{ACAD_REACTORS
330
551B
102
}
330
1F
100
AcDbEntity
  8
DIM
100
AcDbDimension
  2
*D19
 10
90.09818396620699
 20
141.5885647313213
 30
0.0
 11
85.59818396620675
 21
144.0885647313213
 31
0.0
 70
    32
 71
     5
 42
9.000000000000454
  3
AM_ANSI
100
AcDbAlignedDimension
 13
81.09818396620653
 23
124.6470428669461
 33
0.0
 14
90.09818396620699
 24
95.6470428669472
 34
0.0
100
AcDbRotatedDimension
1001
ACAD
1000
DSTYLE
1002
{
1070
    41
1040
3.0
1070
    42
1040
2.0
1070
    43
1040
8.0
1070
    44
1040
2.0
1070
    73
1070
     0
1070
    74
1070
     0
1070
    77
1070
     3
1070
   140
1040
3.0
1070
   141
1040
3.0
1070
   146
1040
0.6
1070
   147
1040
1.0
1070
   172
1070
     1
1070
   178
1070
   256
1070
   272
1070
     2
1070
   274
1070
     2
1070
   340
1005
4FAD
1002
}
  0
DIMENSION
  5
551C
102
{ACAD_XDICTIONARY
360
551D
102
}
102
{ACAD_REACTORS
330
551E
102
}
330
1F
100
AcDbEntity
  8
DIM
100
AcDbDimension
  2
*D20
 10
85.09818396620653
 20
133.4193551114509
 30
0.0
 11
83.09818396620654
 21
133.4193551114509
 31
0.0
 70
   160
 71
     5
 42
4.0
  3
AM_ANSI
100
AcDbAlignedDimension
 13
81.09818396620653
 23
124.6470428669461
 33
0.0
 14
85.09818396620653
 24
105.1470428669463
 34
0.0
100
AcDbRotatedDimension
1001
ACAD
1000
DSTYLE
1002
{
1070
    41
1040
3.0
1070
    42
1040
2.0
1070
    43
1040
8.0
1070
    44
1040
2.0
1070
    73
1070
     0
1070
    74
1070
     0
1070
    77
1070
     3
1070
   140
1040
3.0
1070
   141
1040
3.0
1070
   146
1040
0.6
1070
   147
1040
1.0
1070
   172
1070
     1
1070
   178
1070
   256
1070
   272
1070
     2
1070
   274
1070
     2
1070
   340
1005
4FAD
1002
}
  0
DIMENSION
  5
551F
102
{ACAD_XDICTIONARY
360
5520
102
}
102
{ACAD_REACTORS
330
5521
102
}
330
1F
100
AcDbEntity
  8
DIM
100
AcDbDimension
  2
*D21
 10
56.09818396620653
 20
133.4193551114509
 30
0.0
 11
50.09818396620653
 21
135.9193551114509
 31
0.0
 70
    32
 71
     5
 42
12.0
  3
AM_ANSI
100
AcDbAlignedDimension
 13
44.09818396620653
 23
124.6470428669465
 33
0.0
 14
56.09818396620653
 24
94.80137007317955
 34
0.0
100
AcDbRotatedDimension
1001
ACAD
1000
DSTYLE
1002
{
1070
    41
1040
3.0
1070
    42
1040
2.0
1070
    43
1040
8.0
1070
    44
1040
2.0
1070
    73
1070
     0
1070
    74
1070
     0
1070
    77
1070
     3
1070
   140
1040
3.0
1070
   141
1040
3.0
1070
   146
1040
0.6
1070
   147
1040
1.0
1070
   172
1070
     1
1070
   178
1070
   256
1070
   272
1070
     2
1070
   274
1070
     2
1070
   340
1005
4FAD
1002
}
  0
DIMENSION
  5
5522
102
{ACAD_XDICTIONARY
360
5523
102
}
102
{ACAD_REACTORS
330
5524
102
}
330
1F
100
AcDbEntity
  8
DIM
100
AcDbDimension
  2
*D22
 10
81.09818396620653
 20
133.4193551114509
 30
0.0
 11
75.09818396620653
 21
135.9193551114509
 31
0.0
 70
    32
 71
     5
 42
12.0
  3
AM_ANSI
100
AcDbAlignedDimension
 13
69.09818396620654
 23
94.80137007317955
 33
0.0
 14
81.09818396620653
 24
124.6470428669465
 34
0.0
100
AcDbRotatedDimension
1001
ACAD
1000
DSTYLE
1002
{
1070
    41
1040
3.0
1070
    42
1040
2.0
1070
    43
1040
8.0
1070
    44
1040
2.0
1070
    73
1070
     0
1070
    74
1070
     0
1070
    77
1070
     3
1070
   140
1040
3.0
1070
   141
1040
3.0
1070
   146
1040
0.6
1070
   147
1040
1.0
1070
   172
1070
     1
1070
   178
1070
   256
1070
   272
1070
     2
1070
   274
1070
     2
1070
   340
1005
4FAD
1002
}
  0
DIMENSION
  5
5525
102
{ACAD_XDICTIONARY
360
5526
102
}
102
{ACAD_REACTORS
330
5527
102
}
330
1F
100
AcDbEntity
  8
DIM
100
AcDbDimension
  2
*D23
 10
81.09818396620653
 20
141.5885647313213
 30
0.0
 11
62.59818396620653
 21
144.0885647313213
 31
0.0
 70
    32
  1
32+stroke=S
 71
     5
 42
37.0
  3
AM_ANSI
100
AcDbAlignedDimension
 13
44.09818396620653
 23
124.647042866946
 33
0.0
 14
81.09818396620653
 24
124.6470428669465
 34
0.0
100
AcDbRotatedDimension
1001
ACAD
1000
DSTYLE
1002
{
1070
    41
1040
3.0
1070
    42
1040
2.0
1070
    43
1040
8.0
1070
    44
1040
2.0
1070
    73
1070
     0
1070
    74
1070
     0
1070
    77
1070
     3
1070
   140
1040
3.0
1070
   141
1040
3.0
1070
   146
1040
0.6
1070
   147
1040
1.0
1070
   172
1070
     1
1070
   178
1070
   256
1070
   272
1070
     2
1070
   274
1070
     2
1070
   340
1005
4FAD
1002
}
  0
DIMENSION
  5
5528
102
{ACAD_XDICTIONARY
360
5529
102
}
102
{ACAD_REACTORS
330
552A
102
}
330
1F
100
AcDbEntity
  8
DIM
100
AcDbDimension
  2
*D24
 10
90.09818396620699
 20
150.1936286734682
 30
0.0
 11
67.09818396620699
 21
152.6936286734682
 31
0.0
 70
    32
  1
41+stroke=ZZ
 71
     5
 42
46.0
  3
AM_ANSI
100
AcDbAlignedDimension
 13
44.09818396620699
 23
124.6470428669465
 33
0.0
 14
90.09818396620699
 24
95.6470428669472
 34
0.0
100
AcDbRotatedDimension
1001
ACAD
1000
DSTYLE
1002
{
1070
    41
1040
3.0
1070
    42
1040
2.0
1070
    43
1040
8.0
1070
    44
1040
2.0
1070
    73
1070
     0
1070
    74
1070
     0
1070
    77
1070
     3
1070
   140
1040
3.0
1070
   141
1040
3.0
1070
   146
1040
0.6
1070
   147
1040
1.0
1070
   172
1070
     1
1070
   178
1070
   256
1070
   272
1070
     2
1070
   274
1070
     2
1070
   340
1005
4FAD
1002
}
  0
DIMENSION
  5
552B
102
{ACAD_XDICTIONARY
360
552C
102
}
102
{ACAD_REACTORS
330
552D
102
}
330
1F
100
AcDbEntity
  8
DIM
100
AcDbDimension
  2
*D25
 10
102.9712828148256
 20
97.14704286694718
 30
0.0
 11
100.4712828148256
 21
87.14704286694722
 31
0.0
 70
    32
  1
%%c<>
 71
     5
 42
20.0
  3
AM_ANSI
100
AcDbAlignedDimension
 13
85.59818396620698
 23
77.1470428669472
 33
0.0
 14
85.59818396620698
 24
97.1470428669472
 34
0.0
 50
90.0
100
AcDbRotatedDimension
1001
ACAD
1000
DSTYLE
1002
{
1070
    41
1040
3.0
1070
    42
1040
2.0
1070
    43
1040
8.0
1070
    44
1040
2.0
1070
    73
1070
     0
1070
    74
1070
     0
1070
    77
1070
     3
1070
   140
1040
3.0
1070
   141
1040
3.0
1070
   146
1040
0.6
1070
   147
1040
1.0
1070
   172
1070
     1
1070
   178
1070
   256
1070
   272
1070
     2
1070
   274
1070
     2
1070
   340
1005
4FAD
1002
}
  0
DIMENSION
  5
552E
102
{ACAD_XDICTIONARY
360
552F
102
}
102
{ACAD_REACTORS
330
5530
102
}
330
1F
100
AcDbEntity
  8
DIM
100
AcDbDimension
  2
*D26
 10
112.374649535084
 20
67.14704286694647
 30
0.0
 11
108.889649535084
 21
87.14704286694646
 31
0.0
 70
    32
  1
%%c<>{}{\H0.71x;\C3;\S 0^ -0.05;}
 71
     5
 42
39.99999999999989
  3
AM_ANSI
100
AcDbAlignedDimension
 13
83.09818396620654
 23
107.1470428669464
 33
0.0
 14
83.09818396620654
 24
67.14704286694649
 34
0.0
 50
90.0
100
AcDbRotatedDimension
1001
GENIUS_GENDTOL_13
1000
TolSmNrm
1000

1000
{\H0.71x;$2\S$+$P^ $-$M;}
1040
40.0
1001
ACAD
1000
DSTYLE
1002
{
1070
   286
1070
     0
1070
   284
1070
     8
1070
    41
1040
3.0
1070
    42
1040
2.0
1070
    43
1040
8.0
1070
    44
1040
2.0
1070
    47
1040
0.0
1070
    48
1040
0.05
1070
    73
1070
     0
1070
    74
1070
     0
1070
    77
1070
     3
1070
   140
1040
3.0
1070
   141
1040
3.0
1070
   146
1040
0.6
1070
   147
1040
1.0
1070
   172
1070
     1
1070
   178
1070
   256
1070
   272
1070
     2
1070
   274
1070
     2
1070
   340
1005
4FAD
1002
}
  0
DIMENSION
  5
5531
102
{ACAD_XDICTIONARY
360
5532
102
}
102
{ACAD_REACTORS
330
5533
102
}
330
1F
100
AcDbEntity
  8
DIM
100
AcDbDimension
  2
*D27
 10
90.09818396620699
 20
56.88701008879329
 30
0.0
 11
88.5981839662072
 21
56.88701008879329
 31
0.0
 70
   160
 71
     5
 42
2.999999999999602
  3
AM_ANSI
100
AcDbAlignedDimension
 13
87.0981839662074
 23
81.87921599052016
 33
0.0
 14
90.09818396620699
 24
78.64704286694695
 34
0.0
100
AcDbRotatedDimension
1001
ACAD
1000
DSTYLE
1002
{
1070
    41
1040
3.0
1070
    42
1040
2.0
1070
    43
1040
8.0
1070
    44
1040
2.0
1070
    73
1070
     0
1070
    74
1070
     0
1070
    77
1070
     3
1070
   140
1040
3.0
1070
   141
1040
3.0
1070
   146
1040
0.6
1070
   147
1040
1.0
1070
   172
1070
     1
1070
   178
1070
   256
1070
   272
1070
     2
1070
   274
1070
     2
1070
   340
1005
4FAD
1002
}
  0
LEADER
  5
5534
330
1F
100
AcDbEntity
  8
DIM
100
AcDbLeader
  3
AM_ANSI$7
 73
     0
 75
     1
 40
8.452380952380952
 41
36.66666666666664
 76
     3
 10
52.43529931755325
 20
90.32600119486801
 30
0.0
 10
42.52373102241813
 20
99.36203287845252
 30
0.0
 10
40.02373102241813
 20
99.36203287845252
 30
0.0
340
5535
213
-1.543897086449305
223
0.4194728829406813
233
0.0
1001
ACAD
1000
DSTYLE
1002
{
1070
    41
1040
2.5
1070
    42
1040
1.5
1070
    43
1040
8.0
1070
    44
1040
1.5
1070
    73
1070
     0
1070
    74
1070
     0
1070
    77
1070
     3
1070
   140
1040
2.0
1070
   141
1040
3.0
1070
   146
1040
0.6
1070
   147
1040
1.0
1070
   172
1070
     1
1070
   178
1070
   256
1070
   272
1070
     8
1070
   274
1070
     2
1070
   340
1005
4FAD
1002
}
  0
MTEXT
  5
5535
102
{ACAD_REACTORS
330
5534
102
}
330
1F
100
AcDbEntity
  8
DIM
100
AcDbMText
 10
40.56762810886744
 20
99.94255999551183
 30
0.0
 40
2.5
 41
0.0
 71
     9
 72
     1
  1
2-PT1/8(ST=5mm)\PPT1/4
  7
dayus
 73
     1
 44
1.0
1001
ACAD
1000
MTEXTBEGIN
1070
    73
1070
     1
1070
    44
1040
1.0
1070
    74
1070
     0
1000
MTEXTEND
  0
DIMENSION
  5
5536
102
{ACAD_XDICTIONARY
360
5537
102
}
102
{ACAD_REACTORS
330
5538
102
}
330
1F
100
AcDbEntity
  8
DIM
100
AcDbDimension
  2
*D28
 10
256.708064551243
 20
325.408710676529
 30
0.0
 11
226.7080645512432
 21
327.908710676529
 31
0.0
 70
    32
  1
□<>
 71
     5
 42
59.99999999999954
  3
AM_ANSI
100
AcDbAlignedDimension
 13
196.7080645512434
 23
315.2648731450728
 33
0.0
 14
256.708064551243
 24
315.2648731450728
 34
0.0
100
AcDbRotatedDimension
1001
ACAD
1000
DSTYLE
1002
{
1070
    41
1040
3.0
1070
    42
1040
2.0
1070
    43
1040
8.0
1070
    44
1040
2.0
1070
    73
1070
     0
1070
    74
1070
     0
1070
    77
1070
     3
1070
   140
1040
3.0
1070
   141
1040
3.0
1070
   146
1040
0.6
1070
   147
1040
1.0
1070
   172
1070
     1
1070
   178
1070
   256
1070
   272
1070
     2
1070
   274
1070
     2
1070
   340
1005
4FAD
1002
}
  0
DIMENSION
  5
5539
102
{ACAD_XDICTIONARY
360
553A
102
}
102
{ACAD_REACTORS
330
553B
102
}
330
1F
100
AcDbEntity
  8
DIM
100
AcDbDimension
  2
*D29
 10
264.2080645512443
 20
333.9368783858721
 30
0.0
 11
226.7080645512438
 21
336.4368783858722
 31
0.0
 70
    32
  1
□<>
 71
     5
 42
75.00000000000091
  3
AM_ANSI
100
AcDbAlignedDimension
 13
189.2080645512433
 23
310.5127653051654
 33
0.0
 14
264.2080645512443
 24
310.5127653051654
 34
0.0
100
AcDbRotatedDimension
1001
ACAD
1000
DSTYLE
1002
{
1070
    41
1040
3.0
1070
    42
1040
2.0
1070
    43
1040
8.0
1070
    44
1040
2.0
1070
    73
1070
     0
1070
    74
1070
     0
1070
    77
1070
     3
1070
   140
1040
3.0
1070
   141
1040
3.0
1070
   146
1040
0.6
1070
   147
1040
1.0
1070
   172
1070
     1
1070
   178
1070
   256
1070
   272
1070
     2
1070
   274
1070
     2
1070
   340
1005
4FAD
1002
}
  0
DIMENSION
  5
553F
102
{ACAD_XDICTIONARY
360
5540
102
}
102
{ACAD_REACTORS
330
5541
102
}
330
1F
100
AcDbEntity
  8
DIM
100
AcDbDimension
  2
*D30
 10
235.2080645512439
 20
228.6213191552895
 30
0.0
 11
226.7080645512439
 21
231.1213191552895
 31
0.0
 70
    32
  1
□<>
 71
     5
 42
17.0
  3
AM_ANSI
100
AcDbAlignedDimension
 13
218.2080645512439
 23
272.1730470404316
 33
0.0
 14
235.2080645512439
 24
272.1730470404316
 34
0.0
100
AcDbRotatedDimension
1001
ACAD
1000
DSTYLE
1002
{
1070
    41
1040
3.0
1070
    42
1040
2.0
1070
    43
1040
8.0
1070
    44
1040
2.0
1070
    73
1070
     0
1070
    74
1070
     0
1070
    77
1070
     3
1070
   140
1040
3.0
1070
   141
1040
3.0
1070
   146
1040
0.6
1070
   147
1040
1.0
1070
   172
1070
     1
1070
   178
1070
   256
1070
   272
1070
     2
1070
   274
1070
     2
1070
   340
1005
4FAD
1002
}
  0
DIMENSION
  5
5542
102
{ACAD_XDICTIONARY
360
5543
102
}
102
{ACAD_REACTORS
330
5544
102
}
330
1F
100
AcDbEntity
  8
DIM
100
AcDbDimension
  2
*D31
 10
169.7103612385506
 20
267.4630395685217
 30
0.0
 11
167.2103612385506
 21
277.4408739168584
 31
0.0
 70
    32
 71
     5
 42
19.95566869667345
  3
AM_ANSI
100
AcDbAlignedDimension
 13
181.2414478053827
 23
287.4187082651951
 33
0.0
 14
181.2414478053827
 24
267.4630395685217
 34
0.0
 50
90.0
100
AcDbRotatedDimension
1001
ACAD
1000
DSTYLE
1002
{
1070
    41
1040
3.0
1070
    42
1040
2.0
1070
    43
1040
8.0
1070
    44
1040
2.0
1070
    73
1070
     0
1070
    74
1070
     0
1070
    77
1070
     3
1070
   140
1040
3.0
1070
   141
1040
3.0
1070
   146
1040
0.6
1070
   147
1040
1.0
1070
   172
1070
     1
1070
   178
1070
   256
1070
   271
1070
     0
1070
   272
1070
     2
1070
   274
1070
     2
1070
   340
1005
4FAD
1002
}
  0
LEADER
  5
5547
330
1F
100
AcDbEntity
  8
DIM
100
AcDbLeader
  3
AM_ANSI$7
 73
     0
 75
     1
 40
4.0
 41
39.14285714285713
 76
     3
 10
221.6946924289052
 20
89.49981654134898
 30
0.0
 10
169.5208860308364
 20
112.9849644999048
 30
0.0
 10
167.0208860308364
 20
112.9849644999048
 30
0.0
340
5548
213
-1.919111611584412
223
-0.8030988559116849
233
0.0
1001
ACAD
1000
DSTYLE
1002
{
1070
    41
1040
2.5
1070
    42
1040
1.5
1070
    43
1040
8.0
1070
    44
1040
1.5
1070
    73
1070
     0
1070
    74
1070
     0
1070
    77
1070
     3
1070
   140
1040
2.0
1070
   141
1040
3.0
1070
   146
1040
0.6
1070
   147
1040
1.0
1070
   172
1070
     1
1070
   178
1070
   256
1070
   272
1070
     8
1070
   274
1070
     2
1070
   340
1005
4FAD
1002
}
  0
MTEXT
  5
5548
102
{ACAD_REACTORS
330
5547
102
}
330
1F
100
AcDbEntity
  8
DIM
100
AcDbMText
 10
167.9399976424208
 20
118.7880633558164
 30
0.0
 40
3.0
 41
0.0
 71
     3
 72
     1
  1
M10*1.5*15 depth
  7
dayus
 73
     1
 44
1.0
1001
ACAD
1000
MTEXTBEGIN
1070
    73
1070
     1
1070
    44
1040
1.0
1070
    74
1070
     0
1000
MTEXTEND
  0
DIMENSION
  5
5723
330
1F
100
AcDbEntity
  8
DIM
100
AcDbDimension
  2
*D32
 10
256.708064551243
 20
135.1148796266168
 30
0.0
 11
226.7080645512432
 21
137.6148796266168
 31
0.0
 70
    32
  1
□<>
 71
     5
 42
59.99999999999954
  3
AM_ANSI
100
AcDbAlignedDimension
 13
196.7080645512434
 23
124.9710420951606
 33
0.0
 14
256.708064551243
 24
124.9710420951606
 34
0.0
100
AcDbRotatedDimension
1001
ACAD
1000
DSTYLE
1002
{
1070
    41
1040
3.0
1070
    42
1040
2.0
1070
    43
1040
8.0
1070
    44
1040
2.0
1070
    73
1070
     0
1070
    74
1070
     0
1070
    77
1070
     3
1070
   140
1040
3.0
1070
   141
1040
3.0
1070
   146
1040
0.6
1070
   147
1040
1.0
1070
   172
1070
     1
1070
   178
1070
   256
1070
   272
1070
     2
1070
   274
1070
     2
1070
   340
1005
4FAD
1002
}
  0
DIMENSION
  5
5726
330
1F
100
AcDbEntity
  8
DIM
100
AcDbDimension
  2
*D33
 10
264.2080645512443
 20
143.64304733596
 30
0.0
 11
226.7080645512438
 21
146.1430473359599
 31
0.0
 70
    32
  1
□<>
 71
     5
 42
75.00000000000091
  3
AM_ANSI
100
AcDbAlignedDimension
 13
189.2080645512433
 23
120.2189342552532
 33
0.0
 14
264.2080645512443
 24
120.2189342552532
 34
0.0
100
AcDbRotatedDimension
1001
ACAD
1000
DSTYLE
1002
{
1070
    41
1040
3.0
1070
    42
1040
2.0
1070
    43
1040
8.0
1070
    44
1040
2.0
1070
    73
1070
     0
1070
    74
1070
     0
1070
    77
1070
     3
1070
   140
1040
3.0
1070
   141
1040
3.0
1070
   146
1040
0.6
1070
   147
1040
1.0
1070
   172
1070
     1
1070
   178
1070
   256
1070
   272
1070
     2
1070
   274
1070
     2
1070
   340
1005
4FAD
1002
}
  0
DIMENSION
  5
5729
330
1F
100
AcDbEntity
  8
DIM
100
AcDbDimension
  2
*D34
 10
264.208064551243
 20
151.6283077129747
 30
0.0
 11
222.708064551243
 21
154.1283077129746
 31
0.0
 70
    32
 71
     5
 42
83.0
  3
AM_ANSI
100
AcDbAlignedDimension
 13
181.208064551243
 23
97.01424783401911
 33
0.0
 14
264.208064551243
 24
120.2189342552541
 34
0.0
100
AcDbRotatedDimension
1001
ACAD
1000
DSTYLE
1002
{
1070
    41
1040
3.0
1070
    42
1040
2.0
1070
    43
1040
8.0
1070
    44
1040
2.0
1070
    73
1070
     0
1070
    74
1070
     0
1070
    77
1070
     3
1070
   140
1040
3.0
1070
   141
1040
3.0
1070
   146
1040
0.6
1070
   147
1040
1.0
1070
   172
1070
     1
1070
   178
1070
   256
1070
   272
1070
     2
1070
   274
1070
     2
1070
   340
1005
4FAD
1002
}
  0
DIMENSION
  5
572C
330
1F
100
AcDbEntity
  8
DIM
100
AcDbDimension
  2
*D35
 10
256.708064551243
 20
135.1148796266168
 30
0.0
 11
226.7080645512432
 21
137.6148796266168
 31
0.0
 70
    32
  1
□<>
 71
     5
 42
59.99999999999954
  3
AM_ANSI
100
AcDbAlignedDimension
 13
196.7080645512434
 23
124.9710420951606
 33
0.0
 14
256.708064551243
 24
124.9710420951606
 34
0.0
100
AcDbRotatedDimension
1001
ACAD
1000
DSTYLE
1002
{
1070
    41
1040
3.0
1070
    42
1040
2.0
1070
    43
1040
8.0
1070
    44
1040
2.0
1070
    73
1070
     0
1070
    74
1070
     0
1070
    77
1070
     3
1070
   140
1040
3.0
1070
   141
1040
3.0
1070
   146
1040
0.6
1070
   147
1040
1.0
1070
   172
1070
     1
1070
   178
1070
   256
1070
   272
1070
     2
1070
   274
1070
     2
1070
   340
1005
4FAD
1002
}
  0
DIMENSION
  5
572F
330
1F
100
AcDbEntity
  8
DIM
100
AcDbDimension
  2
*D36
 10
264.2080645512443
 20
143.64304733596
 30
0.0
 11
226.7080645512438
 21
146.1430473359599
 31
0.0
 70
    32
  1
□<>
 71
     5
 42
75.00000000000091
  3
AM_ANSI
100
AcDbAlignedDimension
 13
189.2080645512433
 23
120.2189342552532
 33
0.0
 14
264.2080645512443
 24
120.2189342552532
 34
0.0
100
AcDbRotatedDimension
1001
ACAD
1000
DSTYLE
1002
{
1070
    41
1040
3.0
1070
    42
1040
2.0
1070
    43
1040
8.0
1070
    44
1040
2.0
1070
    73
1070
     0
1070
    74
1070
     0
1070
    77
1070
     3
1070
   140
1040
3.0
1070
   141
1040
3.0
1070
   146
1040
0.6
1070
   147
1040
1.0
1070
   172
1070
     1
1070
   178
1070
   256
1070
   272
1070
     2
1070
   274
1070
     2
1070
   340
1005
4FAD
1002
}
  0
DIMENSION
  5
5732
330
1F
100
AcDbEntity
  8
DIM
100
AcDbDimension
  2
*D37
 10
235.2080645512438
 20
38.32748810537728
 30
0.0
 11
226.7080645512438
 21
40.82748810537728
 31
0.0
 70
    32
  1
□<>
 71
     5
 42
17.0
  3
AM_ANSI
100
AcDbAlignedDimension
 13
218.2080645512438
 23
81.87921599051945
 33
0.0
 14
235.2080645512438
 24
81.87921599051945
 34
0.0
100
AcDbRotatedDimension
1001
ACAD
1000
DSTYLE
1002
{
1070
    41
1040
3.0
1070
    42
1040
2.0
1070
    43
1040
8.0
1070
    44
1040
2.0
1070
    73
1070
     0
1070
    74
1070
     0
1070
    77
1070
     3
1070
   140
1040
3.0
1070
   141
1040
3.0
1070
   146
1040
0.6
1070
   147
1040
1.0
1070
   172
1070
     1
1070
   178
1070
   256
1070
   272
1070
     2
1070
   274
1070
     2
1070
   340
1005
4FAD
1002
}
  0
DIMENSION
  5
5735
330
1F
100
AcDbEntity
  8
DIM
100
AcDbDimension
  2
*D38
 10
169.7103612385506
 20
77.16920851860948
 30
0.0
 11
167.2103612385506
 21
87.14704286694624
 31
0.0
 70
    32
 71
     5
 42
19.95566869667345
  3
AM_ANSI
100
AcDbAlignedDimension
 13
181.2414478053827
 23
97.12487721528294
 33
0.0
 14
181.2414478053827
 24
77.16920851860948
 34
0.0
 50
90.0
100
AcDbRotatedDimension
1001
ACAD
1000
DSTYLE
1002
{
1070
    41
1040
3.0
1070
    42
1040
2.0
1070
    43
1040
8.0
1070
    44
1040
2.0
1070
    73
1070
     0
1070
    74
1070
     0
1070
    77
1070
     3
1070
   140
1040
3.0
1070
   141
1040
3.0
1070
   146
1040
0.6
1070
   147
1040
1.0
1070
   172
1070
     1
1070
   178
1070
   256
1070
   271
1070
     0
1070
   272
1070
     2
1070
   274
1070
     2
1070
   340
1005
4FAD
1002
}
  0
LWPOLYLINE
  5
5BFF
330
1F
100
AcDbEntity
  8
LOGO
 62
     4
100
AcDbPolyline
 90
        4
 70
     1
 43
0.0
 10
-15.15638632772517
 20
17.18172811264539
 10
307.9297013122746
 20
17.18172811264539
 10
307.9297013122746
 20
-21.69764148011548
 10
-15.15638632772517
 20
-21.69764148011548
1001
GENIUS_GENREC_14
1002
{
1000
PYDIR
1011
-15.15638632772517
1021
-21.69764148011548
1031
0.0
1002
}
1002
{
1000
PXDIR
1011
307.9297013122746
1021
17.18172811264539
1031
0.0
1002
}
1002
{
1000
PORI
1011
-15.15638632772517
1021
17.18172811264539
1031
0.0
1002
}
1002
{
1000
PINS
1011
-15.15638632772517
1021
17.18172811264539
1031
0.0
1002
}
1002
{
1000
PINS2
1011
307.9297013122746
1021
-21.69764148011548
1031
0.0
1002
}
1002
{
1000
C
1070
     1
1002
}
1001
GENIUS_GENOBJ-N-REC_13
1002
{
1000
OWNER
1000
GEN
1002
}
1001
GENIUS_GENODEF_13
1002
{
1000
HIER
1070
     0
1002
}
1002
{
1000
MANEDIT
1070
     0
1002
}
1002
{
1000
NOSEL
1070
     0
1002
}
1002
{
1000
BEHIND
1070
     0
1002
}
1002
{
1000
OTHER
1070
     0
1002
}
1002
{
1000
REACTOR
1002
}
  0
TEXT
  5
5C00
330
1F
100
AcDbEntity
  8
LOGO
 62
     7
100
AcDbText
 10
72.63065583758654
 20
0.1493378830634242
 30
0.0
 40
5.183915945701357
  1
Order example:
 41
0.8
  7
CHINESET
100
AcDbText
  0
TEXT
  5
5C01
330
1F
100
AcDbEntity
  8
LOGO
 62
     7
100
AcDbText
 10
73.56069322748625
 20
7.447218191118651
 30
0.0
 40
7.775873918552036
  1
訂購代號：
  7
CHINESET
100
AcDbText
  0
LINE
  5
5C02
330
1F
100
AcDbEntity
  8
LOGO
 62
     4
100
AcDbLine
 10
70.37822677634725
 20
-21.69764148011504
 30
0.0
 11
70.37822677634725
 21
17.1817281126454
 31
0.0
  0
TEXT
  5
5C03
330
1F
100
AcDbEntity
  8
LOGO
  6
Continuous
100
AcDbText
 10
-1.190742003858019
 20
-14.05984799770178
 30
0.0
 40
5.831905438914027
  1
金器工業股份有限公司
  7
CHINESET
100
AcDbText
  0
TEXT
  5
5C04
330
1F
100
AcDbEntity
  8
LOGO
  6
Continuous
100
AcDbText
 10
-11.90279850955065
 20
-19.89289603284274
 30
0.0
 40
3.887936959276018
  1
MINDMAN INDUSTRIAL CO., LTD.
 41
0.85
  7
CHINESET
100
AcDbText
  0
LINE
  5
5C05
330
1F
100
AcDbEntity
  8
LOGO
 62
     4
100
AcDbLine
 10
70.37822677634725
 20
9.405854194093308
 30
0.0
 11
13.355151373632
 21
9.405854194093308
 31
0.0
  0
LINE
  5
5C06
330
1F
100
AcDbEntity
  8
LOGO
 62
     4
100
AcDbLine
 10
70.37822677634725
 20
1.629980275541242
 30
0.0
 11
13.355151373632
 21
1.629980275541242
 31
0.0
  0
LINE
  5
5C07
330
1F
100
AcDbEntity
  8
LOGO
 62
     4
100
AcDbLine
 10
70.37822677634725
 20
-6.145893643010424
 30
0.0
 11
-15.15638632772524
 21
-6.145893643010424
 31
0.0
  0
LINE
  5
5C08
330
1F
100
AcDbEntity
  8
LOGO
 62
     4
100
AcDbLine
 10
13.355151373632
 20
-6.145893643010424
 30
0.0
 11
13.355151373632
 21
17.1817281126454
 31
0.0
  0
TEXT
  5
5C09
330
1F
100
AcDbEntity
  8
LOGO
100
AcDbText
 10
52.32773196322465
 20
-4.201925163373054
 30
0.0
 40
3.887936959276018
  1
mm
  7
CHINESET
 72
     1
 11
57.14136819851877
 21
-2.257956683735045
 31
0.0
100
AcDbText
 73
     2
  0
TEXT
  5
5C0A
330
1F
100
AcDbEntity
  8
LOGO
100
AcDbText
 10
50.29119355598484
 20
11.34982267373113
 30
0.0
 40
3.887936959276018
  1
1 : 1
  7
CHINESET
 72
     1
 11
57.14136819851877
 21
13.29379115336914
 31
0.0
100
AcDbText
 73
     2
  0
LINE
  5
5C0B
330
1F
100
AcDbEntity
  8
LOGO
 62
     4
100
AcDbLine
 10
44.4586470478403
 20
-6.145893643010424
 30
0.0
 11
44.4586470478403
 21
17.1817281126454
 31
0.0
  0
CIRCLE
  5
5C0C
330
1F
100
AcDbEntity
  8
LOGO
  6
Continuous
100
AcDbCircle
 10
51.65764862340727
 20
5.526233560424486
 30
0.0
 40
2.257427710275888
  0
CIRCLE
  5
5C0D
330
1F
100
AcDbEntity
  8
LOGO
  6
Continuous
100
AcDbCircle
 10
51.65764862340727
 20
5.526233560424486
 30
0.0
 40
1.322652799453087
  0
LINE
  5
5C0E
330
1F
100
AcDbEntity
  8
LOGO
100
AcDbLine
 10
65.84358629561528
 20
3.26880585014814
 30
0.0
 11
65.84358629561528
 21
7.783661270700804
 31
0.0
  0
LINE
  5
5C0F
330
1F
100
AcDbEntity
  8
LOGO
100
AcDbLine
 10
58.76668000643426
 20
4.203580760971647
 30
0.0
 11
58.76668000643426
 21
6.848886359877781
 31
0.0
  0
LINE
  5
5C10
330
1F
100
AcDbEntity
  8
LOGO
  6
Continuous
100
AcDbLine
 10
58.76668000643426
 20
6.848886359877781
 30
0.0
 11
65.84358629561528
 21
7.783661270700804
 31
0.0
  0
LINE
  5
5C11
330
1F
100
AcDbEntity
  8
LOGO
  6
Continuous
100
AcDbLine
 10
58.76668000643426
 20
4.203580760971647
 30
0.0
 11
65.84358629561528
 21
3.26880585014814
 31
0.0
  0
TEXT
  5
5C12
330
1F
100
AcDbEntity
  8
LOGO
100
AcDbText
 10
16.56096367889225
 20
11.35173602853392
 30
254.8089833089768
 40
3.887936959276018
  1
比例 Scale:
 41
0.9
  7
CHINESET
 72
     4
 11
28.90689921073614
 21
13.29379115336914
 31
254.8089833089768
100
AcDbText
  0
TEXT
  5
5C13
330
1F
100
AcDbEntity
  8
LOGO
100
AcDbText
 10
16.33706016650537
 20
3.628638813292188
 30
254.8089833089768
 40
3.887936959276018
  1
投影  View:
 41
0.9
  7
CHINESET
 72
     4
 11
28.90689921073614
 21
5.517917234817019
 31
254.8089833089768
100
AcDbText
  0
TEXT
  5
5C14
330
1F
100
AcDbEntity
  8
LOGO
100
AcDbText
 10
16.7171754317203
 20
-4.201925163373053
 30
254.8089833089768
 40
3.887936959276018
  1
單位  Unit:
 41
0.9
  7
CHINESET
 72
     4
 11
28.90689921073614
 21
-2.257956683735045
 31
254.8089833089768
100
AcDbText
  0
SOLID
  5
5C15
330
1F
100
AcDbEntity
  8
LOGO
 62
     5
100
AcDbTrace
 10
-11.1225893358343
 20
0.3172481475375832
 30
0.0
 11
-9.441547414109265
 21
0.3172481475371569
 31
0.0
 12
-2.427544913118452
 22
16.2581629225177
 32
0.0
 13
-0.7465029913925037
 23
16.25816292251684
 33
0.0
  0
SOLID
  5
5C16
330
1F
100
AcDbEntity
  8
LOGO
 62
     5
100
AcDbTrace
 10
-8.74594386029014
 20
0.3172481475375832
 30
0.0
 11
-7.064901938565043
 21
0.3172481475375832
 31
0.0
 12
-0.7465029913925037
 22
14.98288974051869
 32
0.0
 13
-2.427544913118452
 23
8.819069360859714
 33
0.0
  0
SOLID
  5
5C17
330
1F
100
AcDbEntity
  8
LOGO
 62
     2
100
AcDbTrace
 10
-9.441547414109265
 20
0.3172481475371569
 30
0.0
 11
-8.74594386029014
 21
0.3172481475375832
 31
0.0
 12
-0.7465029913925037
 22
16.25816292251684
 32
0.0
 13
-0.0508994375742873
 23
16.25816292251684
 33
0.0
  0
SOLID
  5
5C18
330
1F
100
AcDbEntity
  8
LOGO
 62
     5
100
AcDbTrace
 10
-13.81771177833579
 20
-5.479448134272843
 30
0.0
 11
-13.23804215015409
 21
-5.479448134272843
 31
0.0
 12
-11.60564735931808
 22
-2.581099993367843
 32
0.0
 13
-11.02597773113811
 23
-2.581099993367843
 33
0.0
  0
SOLID
  5
5C19
330
1F
100
AcDbEntity
  8
LOGO
 62
     5
100
AcDbTrace
 10
-11.60564735931808
 20
-2.581099993367843
 30
0.0
 11
-11.02597773113811
 21
-2.581099993367843
 31
0.0
 12
-11.60564735931808
 22
-5.479448134272843
 32
0.0
 13
-11.02597773113811
 23
-5.479448134272843
 33
0.0
  0
SOLID
  5
5C1A
330
1F
100
AcDbEntity
  8
LOGO
 62
     5
100
AcDbTrace
 10
-11.60564735931808
 20
-5.479448134272843
 30
0.0
 11
-11.02597773113811
 21
-5.479448134272843
 31
0.0
 12
-9.393582940299495
 22
-2.581099993367843
 32
0.0
 13
-8.813913312118643
 23
-2.581099993367843
 33
0.0
  0
SOLID
  5
5C1B
330
1F
100
AcDbEntity
  8
LOGO
 62
     5
100
AcDbTrace
 10
-9.393582940299495
 20
-2.581099993367843
 30
0.0
 11
-8.813913312118643
 21
-2.581099993367843
 31
0.0
 12
-9.393582940299495
 22
-5.479448134272843
 32
0.0
 13
-8.813913312118643
 23
-5.479448134272843
 33
0.0
  0
POLYLINE
  5
5C1C
330
1F
100
AcDbEntity
  8
LOGO
 62
     5
100
AcDb2dPolyline
 66
     1
 10
0.0
 20
0.0
 30
0.0
 40
0.580598585918552
 41
0.580598585918552
  0
VERTEX
  5
5C1D
330
5C1C
100
AcDbEntity
  8
LOGO
 62
     5
100
AcDbVertex
100
AcDb2dVertex
 10
10.03674552938258
 20
-3.740439249729945
 30
0.0
 42
1.0
  0
VERTEX
  5
5C1E
330
5C1C
100
AcDbEntity
  8
LOGO
 62
     5
100
AcDbVertex
100
AcDb2dVertex
 10
8.294949771626562
 20
-3.740439249729945
 30
0.0
 42
1.0
  0
SEQEND
  5
5C1F
330
5C1C
100
AcDbEntity
  8
LOGO
 62
     5
  0
POLYLINE
  5
5C20
330
1F
100
AcDbEntity
  8
LOGO
 62
     5
100
AcDb2dPolyline
 66
     1
 10
0.0
 20
0.0
 30
0.0
 70
     1
  0
VERTEX
  5
5C21
330
5C20
100
AcDbEntity
  8
LOGO
 62
     5
100
AcDbVertex
100
AcDb2dVertex
 10
5.011587293180838
 20
-4.030274063820769
 30
0.0
 42
1.000000057330635
  0
VERTEX
  5
5C22
330
5C20
100
AcDbEntity
  8
LOGO
 62
     5
100
AcDbVertex
100
AcDb2dVertex
 10
6.750596177724219
 20
-4.030274063820769
 30
0.0
 42
1.000000057330635
  0
SEQEND
  5
5C23
330
5C20
100
AcDbEntity
  8
LOGO
 62
     5
  0
CIRCLE
  5
5C24
330
1F
100
AcDbEntity
  8
LOGO
 62
     5
100
AcDbCircle
 10
5.881091735453878
 20
-4.030274063820769
 30
0.0
 40
0.8695044422716236
  0
POLYLINE
  5
5C25
330
1F
100
AcDbEntity
  8
LOGO
 62
     5
100
AcDb2dPolyline
 66
     1
 10
0.0
 20
0.0
 30
0.0
 70
     1
 40
0.580598585918552
 41
0.580598585918552
  0
VERTEX
  5
5C26
330
5C25
100
AcDbEntity
  8
LOGO
 62
     5
100
AcDbVertex
100
AcDb2dVertex
 10
4.719894563615923
 20
-4.030274063820769
 30
0.0
 42
1.0
  0
VERTEX
  5
5C27
330
5C25
100
AcDbEntity
  8
LOGO
 62
     5
100
AcDbVertex
100
AcDb2dVertex
 10
7.042288907290014
 20
-4.030274063820769
 30
0.0
 42
1.0
  0
SEQEND
  5
5C28
330
5C25
100
AcDbEntity
  8
LOGO
 62
     5
  0
LINE
  5
5C29
330
1F
100
AcDbEntity
  8
LOGO
100
AcDbLine
 10
10.32518690686578
 20
-5.479448134272843
 30
0.0
 11
10.32518690686578
 21
-3.740439249729945
 31
0.0
  0
SOLID
  5
5C2A
330
1F
100
AcDbEntity
  8
LOGO
 62
     5
100
AcDbTrace
 10
6.750538210763977
 20
-2.581099993367843
 30
0.0
 11
7.330207838943948
 21
-2.581099993367843
 31
0.0
 12
6.750538210763977
 22
-5.479448134272843
 32
0.0
 13
7.330207838943948
 23
-5.479448134272843
 33
0.0
  0
SOLID
  5
5C2B
330
1F
100
AcDbEntity
  8
LOGO
 62
     5
100
AcDbTrace
 10
8.006508394141633
 20
-5.479448134272843
 30
0.0
 11
8.586178022323366
 21
-5.479448134272843
 31
0.0
 12
8.006508394141633
 22
-2.581099993367843
 32
0.0
 13
8.586178022323366
 23
-2.581099993367843
 33
0.0
  0
SOLID
  5
5C2C
330
1F
100
AcDbEntity
  8
LOGO
 62
     5
100
AcDbTrace
 10
9.745517278685866
 20
-3.740439249729945
 30
0.0
 11
10.32518690686578
 21
-3.740439249729945
 31
0.0
 12
9.745517278685866
 22
-5.479448134272843
 32
0.0
 13
10.32518690686578
 23
-5.479448134272843
 33
0.0
  0
SOLID
  5
5C2D
330
1F
100
AcDbEntity
  8
LOGO
 62
     5
100
AcDbTrace
 10
7.948541431323349
 20
14.98288974051869
 30
0.0
 11
6.26749950959919
 21
8.819069360859714
 31
0.0
 12
7.948541431323349
 22
0.3172481475371569
 32
0.0
 13
6.26749950959919
 23
0.3172481475371569
 33
0.0
  0
SOLID
  5
5C2E
330
1F
100
AcDbEntity
  8
LOGO
 62
     5
100
AcDbTrace
 10
8.644144985141622
 20
0.3172481475371569
 30
0.0
 11
10.32518690686578
 21
0.3172481475371569
 31
0.0
 12
8.644144985141622
 22
16.25816292251684
 32
0.0
 13
10.32518690686578
 23
16.2581629225177
 33
0.0
  0
SOLID
  5
5C2F
330
1F
100
AcDbEntity
  8
LOGO
 62
     2
100
AcDbTrace
 10
7.948541431323349
 20
16.2581629225177
 30
0.0
 11
8.644144985141622
 21
16.25816292251684
 31
0.0
 12
7.948541431323349
 22
0.3172481475371569
 32
0.0
 13
8.644144985141622
 23
0.3172481475371569
 33
0.0
  0
POLYLINE
  5
5C30
330
1F
100
AcDbEntity
  8
LOGO
 62
     5
100
AcDb2dPolyline
 66
     1
 10
0.0
 20
0.0
 30
0.0
 40
0.580598585918552
 41
0.580598585918552
  0
VERTEX
  5
5C31
330
5C30
100
AcDbEntity
  8
LOGO
 62
     5
100
AcDbVertex
100
AcDb2dVertex
 10
1.728108880812015
 20
-3.740439249729945
 30
0.0
 42
1.0
  0
VERTEX
  5
5C32
330
5C30
100
AcDbEntity
  8
LOGO
 62
     5
100
AcDbVertex
100
AcDb2dVertex
 10
-0.0136868769439502
 20
-3.740439249729945
 30
0.0
 42
1.0
  0
SEQEND
  5
5C33
330
5C30
100
AcDbEntity
  8
LOGO
 62
     5
  0
POLYLINE
  5
5C34
330
1F
100
AcDbEntity
  8
LOGO
 62
     5
100
AcDb2dPolyline
 66
     1
 10
0.0
 20
0.0
 30
0.0
 40
0.580598585918552
 41
0.580598585918552
  0
VERTEX
  5
5C35
330
5C34
100
AcDbEntity
  8
LOGO
 62
     5
100
AcDbVertex
100
AcDb2dVertex
 10
3.467117765353634
 20
-3.740439249729945
 30
0.0
 42
1.0
  0
VERTEX
  5
5C36
330
5C34
100
AcDbEntity
  8
LOGO
 62
     5
100
AcDbVertex
100
AcDb2dVertex
 10
1.725322007598492
 20
-3.740439249729945
 30
0.0
 42
1.0
  0
SEQEND
  5
5C37
330
5C34
100
AcDbEntity
  8
LOGO
 62
     5
  0
POLYLINE
  5
5C38
330
1F
100
AcDbEntity
  8
LOGO
 62
     5
100
AcDb2dPolyline
 66
     1
 10
0.0
 20
0.0
 30
0.0
 40
0.580598585918552
 41
0.580598585918552
  0
VERTEX
  5
5C39
330
5C38
100
AcDbEntity
  8
LOGO
 62
     5
100
AcDbVertex
100
AcDb2dVertex
 10
-4.841518883216963
 20
-3.740439249729945
 30
0.0
 42
1.0
  0
VERTEX
  5
5C3A
330
5C38
100
AcDbEntity
  8
LOGO
 62
     5
100
AcDbVertex
100
AcDb2dVertex
 10
-6.583314640972105
 20
-3.740439249729945
 30
0.0
 42
1.0
  0
SEQEND
  5
5C3B
330
5C38
100
AcDbEntity
  8
LOGO
 62
     5
  0
SOLID
  5
5C3C
330
1F
100
AcDbEntity
  8
LOGO
 62
     5
100
AcDbTrace
 10
-6.871756018456181
 20
-2.581099993367843
 30
0.0
 11
-6.292086390276267
 21
-2.581099993367843
 31
0.0
 12
-6.871756018456181
 22
-5.479448134272843
 32
0.0
 13
-6.292086390276267
 23
-5.479448134272843
 33
0.0
  0
SOLID
  5
5C3D
330
1F
100
AcDbEntity
  8
LOGO
 62
     5
100
AcDbTrace
 10
-5.132747133912801
 20
-3.740439249729945
 30
0.0
 11
-4.553077505731152
 21
-3.740439249729945
 31
0.0
 12
-5.132747133912801
 22
-5.479448134272843
 32
0.0
 13
-4.553077505731152
 23
-5.479448134272843
 33
0.0
  0
POLYLINE
  5
5C3E
330
1F
100
AcDbEntity
  8
LOGO
 62
     5
100
AcDb2dPolyline
 66
     1
 10
0.0
 20
0.0
 30
0.0
 70
     1
 40
0.580598585918552
 41
0.580598585918552
  0
VERTEX
  5
5C3F
330
5C3E
100
AcDbEntity
  8
LOGO
 62
     5
100
AcDbVertex
100
AcDb2dVertex
 10
-3.588742084955526
 20
-4.030274063820769
 30
0.0
 42
1.0
  0
VERTEX
  5
5C40
330
5C3E
100
AcDbEntity
  8
LOGO
 62
     5
100
AcDbVertex
100
AcDb2dVertex
 10
-1.266347741280526
 20
-4.030274063820769
 30
0.0
 42
1.0
  0
SEQEND
  5
5C41
330
5C3E
100
AcDbEntity
  8
LOGO
 62
     5
  0
SOLID
  5
5C42
330
1F
100
AcDbEntity
  8
LOGO
 62
     5
100
AcDbTrace
 10
-1.558098437808354
 20
-1.711595551095712
 30
0.0
 11
-0.978428809627502
 21
-1.711595551095712
 31
0.0
 12
-1.558098437808354
 22
-5.479448134272843
 32
0.0
 13
-0.978428809627502
 23
-5.479448134272843
 33
0.0
  0
SOLID
  5
5C43
330
1F
100
AcDbEntity
  8
LOGO
 62
     5
100
AcDbTrace
 10
-0.3021282544271457
 20
-2.581099993367843
 30
0.0
 11
0.2775413737527685
 21
-2.581099993367843
 31
0.0
 12
-0.3021282544271457
 22
-5.479448134272843
 32
0.0
 13
0.2775413737527685
 23
-5.479448134272843
 33
0.0
  0
SOLID
  5
5C44
330
1F
100
AcDbEntity
  8
LOGO
 62
     5
100
AcDbTrace
 10
1.436880630114416
 20
-3.740439249729945
 30
0.0
 11
2.016550258296149
 21
-3.740439249729945
 31
0.0
 12
1.436880630114416
 22
-5.479448134272843
 32
0.0
 13
2.016550258296149
 23
-5.479448134272843
 33
0.0
  0
SOLID
  5
5C45
330
1F
100
AcDbEntity
  8
LOGO
 62
     5
100
AcDbTrace
 10
3.175889514657768
 20
-3.740439249729945
 30
0.0
 11
3.755559142838563
 21
-3.740439249729945
 31
0.0
 12
3.175889514657768
 22
-5.479448134273724
 32
0.0
 13
3.755559142838563
 23
-5.479448134273724
 33
0.0
  0
SOLID
  5
5C46
330
1F
100
AcDbEntity
  8
LOGO
 62
     5
100
AcDbTrace
 10
-8.127726201836452
 20
-2.175331253640933
 30
0.0
 11
-7.548056573653866
 21
-2.175331253640933
 31
0.0
 12
-8.127726201836452
 22
-1.711595551095712
 32
0.0
 13
-7.548056573653866
 23
-1.711595551095712
 33
0.0
  0
SOLID
  5
5C47
330
1F
100
AcDbEntity
  8
LOGO
 62
     5
100
AcDbTrace
 10
-8.127726201836452
 20
-2.581099993367843
 30
0.0
 11
-7.548056573653866
 21
-2.581099993367843
 31
0.0
 12
-8.127726201836452
 22
-5.479448134273724
 32
0.0
 13
-7.548056573653866
 23
-5.479448134272843
 33
0.0
  0
SOLID
  5
5C48
330
1F
100
AcDbEntity
  8
LOGO
 62
     5
100
AcDbTrace
 10
-2.427544913118452
 20
0.3172481475375832
 30
0.0
 11
-0.7465029913925037
 21
0.3172481475375832
 31
0.0
 12
-2.427544913118452
 22
8.819069360859714
 32
0.0
 13
-0.7465029913925037
 23
14.98288974051869
 33
0.0
  0
SOLID
  5
5C49
330
1F
100
AcDbEntity
  8
LOGO
 62
     5
100
AcDbTrace
 10
-0.0508994375742873
 20
16.25816292251684
 30
0.0
 11
1.630142484149928
 21
16.2581629225177
 31
0.0
 12
-0.0508994375742873
 22
1.59252132953577
 32
0.0
 13
1.630142484149928
 23
7.756341709194714
 33
0.0
  0
SOLID
  5
5C4A
330
1F
100
AcDbEntity
  8
LOGO
 62
     2
100
AcDbTrace
 10
-0.7465029913925037
 20
16.25816292251684
 30
0.0
 11
-0.0508994375742873
 21
16.25816292251684
 31
0.0
 12
-0.7465029913925037
 22
0.3172481475375832
 32
0.0
 13
-0.0508994375742873
 23
0.3172481475375832
 33
0.0
  0
SOLID
  5
5C4B
330
1F
100
AcDbEntity
  8
LOGO
 62
     5
100
AcDbTrace
 10
-0.0508994375742873
 20
1.59252132953577
 30
0.0
 11
1.630142484149928
 21
7.756341709194714
 31
0.0
 12
7.948541431323349
 22
16.2581629225177
 32
0.0
 13
6.26749950959919
 23
16.2581629225177
 33
0.0
  0
SOLID
  5
5C4C
330
1F
100
AcDbEntity
  8
LOGO
 62
     5
100
AcDbTrace
 10
-0.0508994375742873
 20
0.3172481475375832
 30
0.0
 11
1.630142484149928
 21
0.3172481475375832
 31
0.0
 12
7.948541431323349
 22
14.98288974051869
 32
0.0
 13
6.26749950959919
 23
8.819069360859714
 33
0.0
  0
SOLID
  5
5C4D
330
1F
100
AcDbEntity
  8
LOGO
 62
     2
100
AcDbTrace
 10
-0.7465029913925037
 20
0.3172481475375832
 30
0.0
 11
-0.0508994375742873
 21
0.3172481475375832
 31
0.0
 12
7.948541431323349
 22
16.2581629225177
 32
0.0
 13
8.644144985141622
 23
16.25816292251684
 33
0.0
  0
TEXT
  5
5C8D
330
1F
100
AcDbEntity
  8
LOGO
100
AcDbText
 10
71.92041026627777
 20
-19.62927436322096
 30
0.0
 40
3.8885
  1
10707268
 41
0.7
  7
CHINESET
 72
     1
 11
81.64166026627777
 21
-19.62927436322096
 31
0.0
100
AcDbText
  0
LINE
  5
5C8E
330
1F
100
AcDbEntity
  8
LOGO
 62
     4
100
AcDbLine
 10
93.70922677634553
 20
-13.92176756156206
 30
0.0
 11
93.70922677634728
 21
-21.69764148011458
 31
0.0
  0
LINE
  5
5C8F
330
1F
100
AcDbEntity
  8
LOGO
 62
     4
100
AcDbLine
 10
93.70922677634553
 20
-13.92176756156206
 30
0.0
 11
70.37822677634725
 21
-13.92176756156206
 31
0.0
  0
LINE
  5
5C90
330
1F
100
AcDbEntity
  8
LOGO
  6
AM_ISO08W050x2
 48
0.3
100
AcDbLine
 10
48.54575072247375
 20
5.526233560424486
 30
0.0
 11
54.76954652434078
 21
5.526233560424486
 31
0.0
1001
GENIUS_GENOREF_13
1005
5C95
  0
LINE
  5
5C91
330
1F
100
AcDbEntity
  8
LOGO
  6
AM_ISO08W050x2
 48
0.3
100
AcDbLine
 10
51.65764862340727
 20
2.414335659491001
 30
0.0
 11
51.65764862340727
 21
8.638131461358
 31
0.0
1001
GENIUS_GENOREF_13
1005
5C94
  0
LINE
  5
5C92
330
1F
100
AcDbEntity
  8
LOGO
  6
CENTER
 48
0.5
100
AcDbLine
 10
58.20072420498975
 20
5.526233560424486
 30
0.0
 11
66.556207849809
 21
5.526233560424486
 31
0.0
1001
GENIUS_GENOREF_13
1005
5C93
  0
POINT
  5
5C93
330
1F
100
AcDbEntity
  8
0
 60
     1
100
AcDbPoint
 10
-1764.337272211146
 20
-934.1955701169965
 30
0.0
1001
GENIUS_GENOBJ-N-CRS_13
1002
{
1000
OWNER
1000
GEN
1002
}
1001
GENIUS_GENOLIS_13
1002
{
1000
ENT
1005
0
1005
0
1005
0
1005
5C92
1002
}
1001
GENIUS_GENOENT_13
1002
{
1000
MYREF
1005
5C93
1002
}
1002
{
1000
GRP
1005
0
1002
}
1001
GENIUS_GENODEF_13
1002
{
1000
HIER
1070
    10
1002
}
1002
{
1000
MANEDIT
1070
     1
1002
}
1002
{
1000
NOSEL
1070
     0
1002
}
1002
{
1000
BEHIND
1070
     0
1002
}
1002
{
1000
OTHER
1070
     0
1002
}
1002
{
1000
REACTOR
1002
}
  0
POINT
  5
5C94
330
1F
100
AcDbEntity
  8
0
 60
     1
100
AcDbPoint
 10
-1775.661857434
 20
-925.3199836383602
 30
0.0
1001
GENIUS_GENOBJ-N-CRS_13
1002
{
1000
OWNER
1000
GEN
1002
}
1001
GENIUS_GENOLIS_13
1002
{
1000
ENT
1005
0
1005
0
1005
0
1005
5C91
1002
}
1001
GENIUS_GENOENT_13
1002
{
1000
MYREF
1005
5C94
1002
}
1002
{
1000
GRP
1005
0
1002
}
1001
GENIUS_GENODEF_13
1002
{
1000
HIER
1070
    10
1002
}
1002
{
1000
MANEDIT
1070
     1
1002
}
1002
{
1000
NOSEL
1070
     0
1002
}
1002
{
1000
BEHIND
1070
     0
1002
}
1002
{
1000
OTHER
1070
     0
1002
}
1002
{
1000
REACTOR
1002
}
  0
POINT
  5
5C95
330
1F
100
AcDbEntity
  8
0
 60
     1
100
AcDbPoint
 10
-1769.303183736164
 20
-934.1955701169965
 30
0.0
1001
GENIUS_GENOBJ-N-CRS_13
1002
{
1000
OWNER
1000
GEN
1002
}
1001
GENIUS_GENOLIS_13
1002
{
1000
ENT
1005
0
1005
0
1005
0
1005
5C90
1002
}
1001
GENIUS_GENOENT_13
1002
{
1000
MYREF
1005
5C95
1002
}
1002
{
1000
GRP
1005
0
1002
}
1001
GENIUS_GENODEF_13
1002
{
1000
HIER
1070
    10
1002
}
1002
{
1000
MANEDIT
1070
     1
1002
}
1002
{
1000
NOSEL
1070
     0
1002
}
1002
{
1000
BEHIND
1070
     0
1002
}
1002
{
1000
OTHER
1070
     0
1002
}
1002
{
1000
REACTOR
1002
}
  0
TEXT
  5
5F79
330
1F
100
AcDbEntity
  8
0
100
AcDbText
 10
-6.619996748564879
 20
199.8099230016881
 30
0.0
 40
5.599999999999999
  1
12 type
  7
CHINESET
100
AcDbText
  0
LEADER
  5
6042
330
1F
100
AcDbEntity
  8
DIM
100
AcDbLeader
  3
AM_ANSI$7
 73
     0
 75
     1
 40
13.0
 41
43.99999999999999
 76
     3
 10
192.4354155069904
 20
120.6103462242402
 30
0.0
 10
176.983925682497
 20
133.1349406924754
 30
0.0
 10
173.983925682497
 20
133.1349406924754
 30
0.0
340
6043
213
-0.1905629376930165
223
0.2179465301056638
233
0.0
1001
ACAD
1000
DSTYLE
1002
{
1070
    41
1040
3.0
1070
    42
1040
1.5
1070
    43
1040
8.0
1070
    44
1040
1.5
1070
    73
1070
     0
1070
    74
1070
     0
1070
    77
1070
     3
1070
   140
1040
2.0
1070
   141
1040
3.0
1070
   146
1040
0.6
1070
   147
1040
1.0
1070
   172
1070
     1
1070
   178
1070
   256
1070
   272
1070
     2
1070
   274
1070
     2
1070
   340
1005
4FAD
1002
}
  0
MTEXT
  5
6043
102
{ACAD_REACTORS
330
6042
102
}
330
1F
100
AcDbEntity
  8
DIM
100
AcDbMText
 10
173.17448862019
 20
146.9169941623697
 30
0.0
 40
3.0
 41
0.0
 71
     3
 72
     1
  1
%%C11*8.5 depth\PM8*1.25*16.5 depth\P%%C6.9 thru
  7
dayus
 73
     1
 44
1.0
1001
ACAD
1000
MTEXTBEGIN
1070
    73
1070
     1
1070
    44
1040
1.0
1070
    74
1070
     0
1000
MTEXTEND
  0
LINE
  5
606A
330
1F
100
AcDbEntity
  8
0
100
AcDbLine
 10
175.9635169337415
 20
382.7249548962546
 30
0.0
 11
175.9635169337396
 21
367.8226828962553
 31
0.0
  0
LINE
  5
606B
330
1F
100
AcDbEntity
  8
0
100
AcDbLine
 10
212.6684645081834
 20
377.7575308962551
 30
0.0
 11
212.6684645081836
 21
367.8226828962551
 31
0.0
  0
LINE
  5
606C
330
1F
100
AcDbEntity
  8
0
100
AcDbLine
 10
193.8589809693633
 20
382.7249548962546
 30
0.0
 11
193.8589809693642
 21
367.8226828962553
 31
0.0
  0
LINE
  5
606D
330
1F
100
AcDbEntity
  8
0
100
AcDbLine
 10
175.9635169337419
 20
367.8226828962551
 30
0.0
 11
269.0969151246417
 21
367.8226828962551
 31
0.0
  0
LINE
  5
606E
330
1F
100
AcDbEntity
  8
0
100
AcDbLine
 10
175.9635169337419
 20
372.7901068962551
 30
0.0
 11
269.0969151246414
 21
372.7901068962551
 31
0.0
  0
TEXT
  5
606F
330
1F
100
AcDbEntity
  8
0
100
AcDbText
 10
184.1515197391065
 20
368.6670730053549
 30
0.0
 40
3.118732468392297
  1
5
 41
0.8
  7
CHINESET
 72
     4
 11
184.9831817306778
 21
370.226439239551
 31
0.0
100
AcDbText
  0
TEXT
  5
6070
330
1F
100
AcDbEntity
  8
0
100
AcDbText
 10
180.2623492976449
 20
373.9918879342053
 30
0.0
 40
2.483712
  1
Stroke
 41
0.8
  7
CHINESET
100
AcDbText
  0
TEXT
  5
6071
330
1F
100
AcDbEntity
  8
0
100
AcDbText
 10
200.3447867581475
 20
368.6928067296559
 30
0.0
 40
3.104639999999999
  1
37
 41
0.8
  7
CHINESET
100
AcDbText
  0
LINE
  5
6072
330
1F
100
AcDbEntity
  8
0
100
AcDbLine
 10
175.9635169337415
 20
382.7249548962547
 30
0.0
 11
269.0969151246408
 21
382.7249548962547
 31
0.0
  0
INSERT
  5
6073
330
1F
100
AcDbEntity
  8
0
100
AcDbBlockReference
  2
A$C5ECF147B
 10
175.2971275232651
 20
368.258443268213
 30
0.0
 41
0.9934848000000558
 42
0.9934848000000558
 43
0.9934848
  0
LINE
  5
6074
330
1F
100
AcDbEntity
  8
0
100
AcDbLine
 10
175.9635169337417
 20
377.757530896255
 30
0.0
 11
269.0969151246413
 21
377.757530896255
 31
0.0
  0
TEXT
  5
6075
330
1F
100
AcDbEntity
  8
0
100
AcDbText
 10
201.5547304902366
 20
373.660230729656
 30
0.0
 40
3.104639999999999
  1
S
 41
0.8
  7
CHINESET
100
AcDbText
  0
TEXT
  5
6076
330
1F
100
AcDbEntity
  8
0
100
AcDbText
 10
198.1225537331226
 20
378.6501776855315
 30
0.0
 40
3.104639999999999
  1
Without magnet
 41
0.8
  7
CHINESET
100
AcDbText
  0
LINE
  5
6077
330
1F
100
AcDbEntity
  8
0
100
AcDbLine
 10
231.4779480470027
 20
382.7249548962547
 30
0.0
 11
231.4779480470029
 21
367.8226828962548
 31
0.0
  0
TEXT
  5
6078
330
1F
100
AcDbEntity
  8
0
100
AcDbText
 10
220.0954247624075
 20
368.6928067296557
 30
0.0
 40
3.104639999999999
  1
74
 41
0.8
  7
CHINESET
100
AcDbText
  0
TEXT
  5
6079
330
1F
100
AcDbEntity
  8
0
100
AcDbText
 10
220.3642140290563
 20
373.660230729656
 30
0.0
 40
3.104639999999999
  1
ZZ
 41
0.8
  7
CHINESET
100
AcDbText
  0
LINE
  5
607A
330
1F
100
AcDbEntity
  8
0
100
AcDbLine
 10
250.2874315858222
 20
377.7575308962551
 30
0.0
 11
250.2874315858224
 21
367.8226828962551
 31
0.0
  0
TEXT
  5
607B
330
1F
100
AcDbEntity
  8
0
100
AcDbText
 10
238.2197551045306
 20
368.6928067296559
 30
0.0
 40
3.104639999999999
  1
47
 41
0.8
  7
CHINESET
100
AcDbText
  0
TEXT
  5
607C
330
1F
100
AcDbEntity
  8
0
100
AcDbText
 10
239.1736975678754
 20
373.660230729656
 30
0.0
 40
3.104639999999999
  1
S
 41
0.8
  7
CHINESET
100
AcDbText
  0
TEXT
  5
607D
330
1F
100
AcDbEntity
  8
0
100
AcDbText
 10
238.3456687972301
 20
378.6501776855315
 30
0.0
 40
3.104639999999999
  1
With magnet
 41
0.8
  7
CHINESET
100
AcDbText
  0
TEXT
  5
607E
330
1F
100
AcDbEntity
  8
0
100
AcDbText
 10
257.4786280435865
 20
368.6928067296557
 30
0.0
 40
3.104639999999999
  1
84
 41
0.8
  7
CHINESET
100
AcDbText
  0
TEXT
  5
607F
330
1F
100
AcDbEntity
  8
0
100
AcDbText
 10
257.9831811066951
 20
373.660230729656
 30
0.0
 40
3.104639999999999
  1
ZZ
 41
0.8
  7
CHINESET
100
AcDbText
  0
LINE
  5
6080
330
1F
100
AcDbEntity
  8
0
100
AcDbLine
 10
269.0969151246415
 20
382.7249548962547
 30
0.0
 11
269.0969151246417
 21
367.8226828962548
 31
0.0
  0
INSERT
  5
6081
330
1F
100
AcDbEntity
  8
0
100
AcDbBlockReference
  2
A$C5ECF147B
 10
199.7038619950815
 20
368.258443268213
 30
0.0
 41
0.9934848000000558
 42
0.9934848000000558
 43
0.9934848
  0
INSERT
  5
6082
330
1F
100
AcDbEntity
  8
0
100
AcDbBlockReference
  2
A$C5ECF147B
 10
218.513345533901
 20
368.2584432682127
 30
0.0
 41
0.9934848000000558
 42
0.9934848000000558
 43
0.9934848
  0
LINE
  5
608B
330
1F
100
AcDbEntity
  8
0
100
AcDbLine
 10
175.9635169337415
 20
188.0441801093808
 30
0.0
 11
175.9635169337396
 21
173.1419081093815
 31
0.0
  0
LINE
  5
608C
330
1F
100
AcDbEntity
  8
0
100
AcDbLine
 10
212.6684645081834
 20
183.0767561093813
 30
0.0
 11
212.6684645081836
 21
173.1419081093813
 31
0.0
  0
LINE
  5
608D
330
1F
100
AcDbEntity
  8
0
100
AcDbLine
 10
193.8589809693633
 20
188.0441801093808
 30
0.0
 11
193.8589809693642
 21
173.1419081093815
 31
0.0
  0
LINE
  5
608E
330
1F
100
AcDbEntity
  8
0
100
AcDbLine
 10
175.9635169337419
 20
173.1419081093813
 30
0.0
 11
269.0969151246417
 21
173.1419081093813
 31
0.0
  0
LINE
  5
608F
330
1F
100
AcDbEntity
  8
0
100
AcDbLine
 10
175.9635169337419
 20
178.1093321093814
 30
0.0
 11
269.0969151246414
 21
178.1093321093814
 31
0.0
  0
TEXT
  5
6090
330
1F
100
AcDbEntity
  8
0
100
AcDbText
 10
184.1515197391065
 20
173.9862982184811
 30
0.0
 40
3.118732468392297
  1
5
 41
0.8
  7
CHINESET
 72
     4
 11
184.9831817306778
 21
175.5456644526772
 31
0.0
100
AcDbText
  0
TEXT
  5
6091
330
1F
100
AcDbEntity
  8
0
100
AcDbText
 10
180.2623492976449
 20
179.3111131473315
 30
0.0
 40
2.483712
  1
Stroke
 41
0.8
  7
CHINESET
100
AcDbText
  0
TEXT
  5
6092
330
1F
100
AcDbEntity
  8
0
100
AcDbText
 10
200.3447867581475
 20
174.0120319427822
 30
0.0
 40
3.104639999999999
  1
37
 41
0.8
  7
CHINESET
100
AcDbText
  0
LINE
  5
6093
330
1F
100
AcDbEntity
  8
0
100
AcDbLine
 10
175.9635169337415
 20
188.0441801093809
 30
0.0
 11
269.0969151246408
 21
188.0441801093809
 31
0.0
  0
INSERT
  5
6094
330
1F
100
AcDbEntity
  8
0
100
AcDbBlockReference
  2
A$C5ECF147B
 10
175.2971275232651
 20
173.5776684813393
 30
0.0
 41
0.9934848000000558
 42
0.9934848000000558
 43
0.9934848
  0
LINE
  5
6095
330
1F
100
AcDbEntity
  8
0
100
AcDbLine
 10
175.9635169337417
 20
183.0767561093813
 30
0.0
 11
269.0969151246413
 21
183.0767561093813
 31
0.0
  0
TEXT
  5
6096
330
1F
100
AcDbEntity
  8
0
100
AcDbText
 10
201.5547304902366
 20
178.9794559427822
 30
0.0
 40
3.104639999999999
  1
S
 41
0.8
  7
CHINESET
100
AcDbText
  0
TEXT
  5
6097
330
1F
100
AcDbEntity
  8
0
100
AcDbText
 10
198.1225537331226
 20
183.9694028986578
 30
0.0
 40
3.104639999999999
  1
Without magnet
 41
0.8
  7
CHINESET
100
AcDbText
  0
LINE
  5
6098
330
1F
100
AcDbEntity
  8
0
100
AcDbLine
 10
231.4779480470027
 20
188.0441801093809
 30
0.0
 11
231.4779480470029
 21
173.1419081093811
 31
0.0
  0
TEXT
  5
6099
330
1F
100
AcDbEntity
  8
0
100
AcDbText
 10
220.0954247624075
 20
174.012031942782
 30
0.0
 40
3.104639999999999
  1
46
 41
0.8
  7
CHINESET
100
AcDbText
  0
TEXT
  5
609A
330
1F
100
AcDbEntity
  8
0
100
AcDbText
 10
220.3642140290563
 20
178.9794559427822
 30
0.0
 40
3.104639999999999
  1
ZZ
 41
0.8
  7
CHINESET
100
AcDbText
  0
LINE
  5
609B
330
1F
100
AcDbEntity
  8
0
100
AcDbLine
 10
250.2874315858222
 20
183.0767561093813
 30
0.0
 11
250.2874315858224
 21
173.1419081093813
 31
0.0
  0
TEXT
  5
609C
330
1F
100
AcDbEntity
  8
0
100
AcDbText
 10
238.2197551045306
 20
174.0120319427822
 30
0.0
 40
3.104639999999999
  1
47
 41
0.8
  7
CHINESET
100
AcDbText
  0
TEXT
  5
609D
330
1F
100
AcDbEntity
  8
0
100
AcDbText
 10
239.1736975678754
 20
178.9794559427822
 30
0.0
 40
3.104639999999999
  1
S
 41
0.8
  7
CHINESET
100
AcDbText
  0
TEXT
  5
609E
330
1F
100
AcDbEntity
  8
0
100
AcDbText
 10
238.3456687972301
 20
183.9694028986578
 30
0.0
 40
3.104639999999999
  1
With magnet
 41
0.8
  7
CHINESET
100
AcDbText
  0
TEXT
  5
609F
330
1F
100
AcDbEntity
  8
0
100
AcDbText
 10
257.4786280435865
 20
174.012031942782
 30
0.0
 40
3.104639999999999
  1
56
 41
0.8
  7
CHINESET
100
AcDbText
  0
TEXT
  5
60A0
330
1F
100
AcDbEntity
  8
0
100
AcDbText
 10
257.9831811066951
 20
178.9794559427822
 30
0.0
 40
3.104639999999999
  1
ZZ
 41
0.8
  7
CHINESET
100
AcDbText
  0
LINE
  5
60A1
330
1F
100
AcDbEntity
  8
0
100
AcDbLine
 10
269.0969151246415
 20
188.0441801093809
 30
0.0
 11
269.0969151246417
 21
173.1419081093811
 31
0.0
  0
INSERT
  5
60A2
330
1F
100
AcDbEntity
  8
0
100
AcDbBlockReference
  2
A$C5ECF147B
 10
199.7038619950815
 20
173.5776684813393
 30
0.0
 41
0.9934848000000558
 42
0.9934848000000558
 43
0.9934848
  0
INSERT
  5
60A3
330
1F
100
AcDbEntity
  8
0
100
AcDbBlockReference
  2
A$C5ECF147B
 10
218.513345533901
 20
173.5776684813389
 30
0.0
 41
0.9934848000000558
 42
0.9934848000000558
 43
0.9934848
  0
LINE
  5
60C1
330
1F
100
AcDbEntity
  8
AM_7
  6
ACISOTGB
 62
     2
100
AcDbLine
 10
62.59818396620653
 20
319.1564187691909
 30
0.0
 11
62.59818396620653
 21
229.3891974067904
 31
0.0
1001
GENIUS_GENOBJ-N-CEN_13
1002
{
1000
OWNER
1000
GEN
1002
}
1001
GENIUS_GENODEF_13
1002
{
1000
HIER
1070
     0
1002
}
1002
{
1000
MANEDIT
1070
     0
1002
}
1002
{
1000
NOSEL
1070
     0
1002
}
1002
{
1000
BEHIND
1070
     0
1002
}
1002
{
1000
OTHER
1070
     0
1002
}
1002
{
1000
REACTOR
1002
}
1001
GENIUS_GENCEN_19
1002
{
1040
3.0
1002
}
  0
INSERT
  5
60C2
330
1F
100
AcDbEntity
  8
0
100
AcDbBlockReference
  2
A$C1F6E6265
 10
62.59818340915867
 20
230.4628600005684
 30
0.0
 41
1.199999999999999
 42
1.199999999999999
 43
1.199999999999999
  0
LINE
  5
60C4
330
1F
100
AcDbEntity
  8
AM_7
  6
ACISOTGB
 62
     2
100
AcDbLine
 10
62.59818396620676
 20
128.8625877192788
 30
0.0
 11
62.59818396620676
 21
39.09536635687829
 31
0.0
1001
GENIUS_GENOBJ-N-CEN_13
1002
{
1000
OWNER
1000
GEN
1002
}
1001
GENIUS_GENODEF_13
1002
{
1000
HIER
1070
     0
1002
}
1002
{
1000
MANEDIT
1070
     0
1002
}
1002
{
1000
NOSEL
1070
     0
1002
}
1002
{
1000
BEHIND
1070
     0
1002
}
1002
{
1000
OTHER
1070
     0
1002
}
1002
{
1000
REACTOR
1002
}
1001
GENIUS_GENCEN_19
1002
{
1040
3.0
1002
}
  0
INSERT
  5
60C5
330
1F
100
AcDbEntity
  8
0
100
AcDbBlockReference
  2
A$C1F6E6265
 10
62.5981834091589
 20
40.49434953038764
 30
0.0
 41
1.199999999999999
 42
1.199999999999999
 43
1.199999999999999
  0
ENDSEC
  0
SECTION
  2
OBJECTS
  0
DICTIONARY
  5
C
330
0
100
AcDbDictionary
281
     1
  3
ACAD_COLOR
350
4E20
  3
ACAD_GROUP
350
D
  3
ACAD_LAYOUT
350
1A
  3
ACAD_MATERIAL
350
4E1F
  3
ACAD_MLINESTYLE
350
17
  3
ACAD_PLOTSETTINGS
350
19
  3
ACAD_PLOTSTYLENAME
350
E
  3
ACAD_TABLESTYLE
350
4E21
  3
AcadDim
350
1E82
  3
ACDBHEADERROUNDTRIPXREC
350
613D
  3
AcDbVariableDictionary
350
1488
  3
AcmDictionary
350
4D83
  3
AMG
350
4D6A
  3
AMGSNAPSETTINGS
350
4DB6
  3
DWGPROPS
350
613C
  0
DICTIONARY
  5
4FB7
330
2
100
AcDbDictionary
280
     1
281
     1
  3
ACAD_LAYERSTATES
360
4FB8
  0
DICTIONARY
  5
4CD1
330
1F
100
AcDbDictionary
280
     1
281
     1
  3
ACAD_INDEX
360
60D5
  3
ACAD_LAYOUTSELFREF
360
4E06
  0
DICTIONARY
  5
4CD3
330
1B
100
AcDbDictionary
280
     1
281
     1
  3
ACAD_LAYOUTSELFREF
360
4E05
  0
DICTIONARY
  5
4CD5
330
23
100
AcDbDictionary
280
     1
281
     1
  3
ACAD_LAYOUTSELFREF
360
4E07
  0
DICTIONARY
  5
6047
330
6046
100
AcDbDictionary
280
     1
281
     1
  0
DICTIONARY
  5
60AD
330
60AC
100
AcDbDictionary
280
     1
281
     1
  3
ACAD_SORTENTS
360
60AE
  0
DICTIONARY
  5
54DF
330
54DE
100
AcDbDictionary
280
     1
281
     1
  3
ACAD_DIMASSOC
360
54E0
  0
DICTIONARY
  5
54E2
330
54E1
100
AcDbDictionary
280
     1
281
     1
  3
ACAD_DIMASSOC
360
54E3
  0
DICTIONARY
  5
54E5
330
54E4
100
AcDbDictionary
280
     1
281
     1
  3
ACAD_DIMASSOC
360
54E6
  0
DICTIONARY
  5
54E8
330
54E7
100
AcDbDictionary
280
     1
281
     1
  3
ACAD_DIMASSOC
360
54E9
  0
DICTIONARY
  5
54EB
330
54EA
100
AcDbDictionary
280
     1
281
     1
  3
ACAD_DIMASSOC
360
54EC
  0
DICTIONARY
  5
54EE
330
54ED
100
AcDbDictionary
280
     1
281
     1
  3
ACAD_DIMASSOC
360
54EF
  0
DICTIONARY
  5
54F1
330
54F0
100
AcDbDictionary
280
     1
281
     1
  3
ACAD_DIMASSOC
360
54F2
  0
DICTIONARY
  5
54F4
330
54F3
100
AcDbDictionary
280
     1
281
     1
  3
ACAD_DIMASSOC
360
54F5
  0
DICTIONARY
  5
54F7
330
54F6
100
AcDbDictionary
280
     1
281
     1
  3
ACAD_DIMASSOC
360
54F8
  0
DICTIONARY
  5
54FA
330
54F9
100
AcDbDictionary
280
     1
281
     1
  3
ACAD_DIMASSOC
360
54FB
  0
DICTIONARY
  5
54FD
330
54FC
100
AcDbDictionary
280
     1
281
     1
  3
ACAD_DIMASSOC
360
54FE
  0
DICTIONARY
  5
5504
330
5503
100
AcDbDictionary
280
     1
281
     1
  3
ACAD_DIMASSOC
360
5505
  0
DICTIONARY
  5
5509
330
5508
100
AcDbDictionary
280
     1
281
     1
  3
ACAD_DIMASSOC
360
550A
  0
DICTIONARY
  5
550C
330
550B
100
AcDbDictionary
280
     1
281
     1
  3
ACAD_DIMASSOC
360
550D
  0
DICTIONARY
  5
550F
330
550E
100
AcDbDictionary
280
     1
281
     1
  3
ACAD_DIMASSOC
360
5510
  0
DICTIONARY
  5
5512
330
5511
100
AcDbDictionary
280
     1
281
     1
  3
ACAD_DIMASSOC
360
5513
  0
DICTIONARY
  5
5515
330
5514
100
AcDbDictionary
280
     1
281
     1
  3
ACAD_DIMASSOC
360
5516
  0
DICTIONARY
  5
551A
330
5519
100
AcDbDictionary
280
     1
281
     1
  3
ACAD_DIMASSOC
360
551B
  0
DICTIONARY
  5
551D
330
551C
100
AcDbDictionary
280
     1
281
     1
  3
ACAD_DIMASSOC
360
551E
  0
DICTIONARY
  5
5520
330
551F
100
AcDbDictionary
280
     1
281
     1
  3
ACAD_DIMASSOC
360
5521
  0
DICTIONARY
  5
5523
330
5522
100
AcDbDictionary
280
     1
281
     1
  3
ACAD_DIMASSOC
360
5524
  0
DICTIONARY
  5
5526
330
5525
100
AcDbDictionary
280
     1
281
     1
  3
ACAD_DIMASSOC
360
5527
  0
DICTIONARY
  5
5529
330
5528
100
AcDbDictionary
280
     1
281
     1
  3
ACAD_DIMASSOC
360
552A
  0
DICTIONARY
  5
552C
330
552B
100
AcDbDictionary
280
     1
281
     1
  3
ACAD_DIMASSOC
360
552D
  0
DICTIONARY
  5
552F
330
552E
100
AcDbDictionary
280
     1
281
     1
  3
ACAD_DIMASSOC
360
5530
  0
DICTIONARY
  5
5532
330
5531
100
AcDbDictionary
280
     1
281
     1
  3
ACAD_DIMASSOC
360
5533
  0
DICTIONARY
  5
5537
330
5536
100
AcDbDictionary
280
     1
281
     1
  3
ACAD_DIMASSOC
360
5538
  0
DICTIONARY
  5
553A
330
5539
100
AcDbDictionary
280
     1
281
     1
  3
ACAD_DIMASSOC
360
553B
  0
DICTIONARY
  5
5540
330
553F
100
AcDbDictionary
280
     1
281
     1
  3
ACAD_DIMASSOC
360
5541
  0
DICTIONARY
  5
5543
330
5542
100
AcDbDictionary
280
     1
281
     1
  3
ACAD_DIMASSOC
360
5544
  0
DICTIONARY
  5
4E20
102
{ACAD_REACTORS
330
C
102
}
330
C
100
AcDbDictionary
281
     1
  0
DICTIONARY
  5
D
102
{ACAD_REACTORS
330
C
102
}
330
C
100
AcDbDictionary
281
     1
  0
DICTIONARY
  5
1A
102
{ACAD_REACTORS
330
C
102
}
330
C
100
AcDbDictionary
281
     1
  3
Layout1
350
1E
  3
Layout2
350
26
  3
Model
350
22
  0
DICTIONARY
  5
4E1F
102
{ACAD_REACTORS
330
C
102
}
330
C
100
AcDbDictionary
281
     1
  0
DICTIONARY
  5
17
102
{ACAD_REACTORS
330
C
102
}
330
C
100
AcDbDictionary
281
     1
  3
Standard
350
18
  0
DICTIONARY
  5
19
102
{ACAD_REACTORS
330
C
102
}
330
C
100
AcDbDictionary
281
     1
  0
ACDBDICTIONARYWDFLT
  5
E
102
{ACAD_REACTORS
330
C
102
}
330
C
100
AcDbDictionary
281
     1
  3
Normal
350
F
100
AcDbDictionaryWithDefault
340
F
1001
ACAD
1000
TREAT_AS_HARD
1070
     0
  0
DICTIONARY
  5
4E21
102
{ACAD_REACTORS
330
C
102
}
330
C
100
AcDbDictionary
281
     1
  3
Standard
350
4E22
  0
XRECORD
  5
1E82
102
{ACAD_REACTORS
330
C
102
}
330
C
100
AcDbXrecord
280
     1
 90
   990106
  3

 60
     0
 61
     0
 62
     4
 63
     4
 64
     1
 65
     0
 66
     0
 67
     3
 68
     1
 69
     0
 70
     0
 71
     0
 72
     0
 40
0.0
170
     2
340
0
  0
DICTIONARY
  5
613D
102
{ACAD_REACTORS
330
C
102
}
330
C
100
AcDbDictionary
281
     1
  0
DICTIONARY
  5
1488
102
{ACAD_REACTORS
330
C
102
}
330
C
100
AcDbDictionary
281
     1
  3
CTABLESTYLE
350
578E
  3
DIMASSOC
350
4DC5
  3
INDEXCTL
350
4DC4
  3
PROJECTNAME
350
5E20
  3
SORTENTS
350
1489
  0
DICTIONARY
  5
4D83
102
{ACAD_REACTORS
330
C
102
}
330
C
100
AcDbDictionary
281
     1
  3
AcmStdDictionary
350
4D89
  3
AMDTSECTSYM_ARROWCOLOR
350
5B4F
  0
DICTIONARY
  5
4D6A
102
{ACAD_REACTORS
330
C
102
}
330
C
100
AcDbDictionary
281
     1
  0
DICTIONARY
  5
4DB6
102
{ACAD_REACTORS
330
C
102
}
330
C
100
AcDbDictionary
281
     1
  0
XRECORD
  5
613C
102
{ACAD_REACTORS
330
C
102
}
330
C
100
AcDbXrecord
280
     1
  1
DWGPROPS COOKIE
  2

  3

  4

  6

  7

  8

  9

300
AmdtFileType=84
301
=
302
=
303
=
304
=
305
=
306
=
307
=
308
=
309
=
 40
0.4180139351851853
 41
2452019.631085301
 42
2454308.388934815
  1

 90
        1
  0
DICTIONARY
  5
4FB8
102
{ACAD_REACTORS
330
4FB7
102
}
330
4FB7
100
AcDbDictionary
281
     1
  0
DICTIONARY
  5
60D5
102
{ACAD_REACTORS
330
4CD1
102
}
330
4CD1
100
AcDbDictionary
281
     1
  3
*A1
350
60D6
  0
XRECORD
  5
4E06
102
{ACAD_REACTORS
330
4CD1
102
}
330
4CD1
100
AcDbXrecord
280
     1
340
1F
  0
XRECORD
  5
4E05
102
{ACAD_REACTORS
330
4CD3
102
}
330
4CD3
100
AcDbXrecord
280
     1
340
1B
  0
XRECORD
  5
4E07
102
{ACAD_REACTORS
330
4CD5
102
}
330
4CD5
100
AcDbXrecord
280
     1
340
23
  0
SORTENTSTABLE
  5
60AE
102
{ACAD_REACTORS
330
60AD
102
}
330
60AD
100
AcDbSortentsTable
330
60AC
  0
DIMASSOC
  5
54E0
102
{ACAD_REACTORS
330
54DF
102
}
330
54DF
100
AcDbDimAssoc
330
54DE
 90
        3
 70
     0
 71
     0
  1
AcDbOsnapPointRef
 72
     1
331
536D
 73
     2
 91
        0
 40
1.0
 10
0.0
 20
0.0
 30
2.000000000000000E+50
 75
     0
  1
AcDbOsnapPointRef
 72
     2
331
5375
 73
     2
 91
        0
 40
6.291242584380954
 10
0.0
 20
0.0
 30
0.0
 75
     0
  0
DIMASSOC
  5
54E3
102
{ACAD_REACTORS
330
54E2
102
}
330
54E2
100
AcDbDimAssoc
330
54E1
 90
        3
 70
     0
 71
     0
  1
AcDbOsnapPointRef
 72
    13
331
5384
 73
     2
 91
        0
 40
0.0
 10
0.0
 20
0.0
 30
2.000000000000000E+50
 75
     0
  1
AcDbOsnapPointRef
 72
    13
331
53A1
 73
     2
 91
        0
 40
0.0
 10
0.0
 20
0.0
 30
2.000000000000000E+50
 75
     0
  0
DIMASSOC
  5
54E6
102
{ACAD_REACTORS
330
54E5
102
}
330
54E5
100
AcDbDimAssoc
330
54E4
 90
        3
 70
     0
 71
     0
  1
AcDbOsnapPointRef
 72
    13
331
5399
 73
     2
 91
        0
 40
0.0
 10
0.0
 20
0.0
 30
2.000000000000000E+50
 75
     0
  1
AcDbOsnapPointRef
 72
    13
331
53A1
 73
     2
 91
        0
 40
0.0
 10
0.0
 20
0.0
 30
2.000000000000000E+50
 75
     0
  0
DIMASSOC
  5
54E9
102
{ACAD_REACTORS
330
54E8
102
}
330
54E8
100
AcDbDimAssoc
330
54E7
 90
        3
 70
     0
 71
     0
  1
AcDbOsnapPointRef
 72
    13
331
5294
 73
     2
 91
        0
 40
0.0
 10
0.0
 20
0.0
 30
2.000000000000000E+50
 75
     0
  1
AcDbOsnapPointRef
 72
    13
331
5299
 73
     2
 91
        0
 40
6.283185307179586
 10
0.0
 20
0.0
 30
2.000000000000000E+50
 75
     0
  0
DIMASSOC
  5
54EC
102
{ACAD_REACTORS
330
54EB
102
}
330
54EB
100
AcDbDimAssoc
330
54EA
 90
        3
 70
     0
 71
     0
  1
AcDbOsnapPointRef
 72
     6
331
53C8
 73
     2
 91
        0
 40
1.0
 10
0.0
 20
0.0
 30
0.0
332
5295
 74
     2
 92
        0
 75
     0
  1
AcDbOsnapPointRef
 72
    13
331
5377
 73
     2
 91
        0
 40
0.0
 10
0.0
 20
0.0
 30
2.000000000000000E+50
 75
     0
  0
DIMASSOC
  5
54EF
102
{ACAD_REACTORS
330
54EE
102
}
330
54EE
100
AcDbDimAssoc
330
54ED
 90
        3
 70
     0
 71
     0
  1
AcDbOsnapPointRef
 72
    13
331
537A
 73
     2
 91
        0
 40
0.0
 10
0.0
 20
0.0
 30
2.000000000000000E+50
 75
     0
  1
AcDbOsnapPointRef
 72
    13
331
53C8
 73
     2
 91
        0
 40
0.0
 10
0.0
 20
0.0
 30
2.000000000000000E+50
 75
     0
  0
DIMASSOC
  5
54F2
102
{ACAD_REACTORS
330
54F1
102
}
330
54F1
100
AcDbDimAssoc
330
54F0
 90
        3
 70
     0
 71
     0
  1
AcDbOsnapPointRef
 72
     6
331
53C8
 73
     2
 91
        0
 40
1.0
 10
0.0
 20
0.0
 30
0.0
332
5295
 74
     2
 92
        0
 75
     0
  1
AcDbOsnapPointRef
 72
    13
331
53C8
 73
     2
 91
        0
 40
0.0
 10
0.0
 20
0.0
 30
2.000000000000000E+50
 75
     0
  0
DIMASSOC
  5
54F5
102
{ACAD_REACTORS
330
54F4
102
}
330
54F4
100
AcDbDimAssoc
330
54F3
 90
        3
 70
     0
 71
     0
  1
AcDbOsnapPointRef
 72
    13
331
53C8
 73
     2
 91
        0
 40
0.0
 10
0.0
 20
0.0
 30
2.000000000000000E+50
 75
     0
  1
AcDbOsnapPointRef
 72
    13
331
53A1
 73
     2
 91
        0
 40
0.0
 10
0.0
 20
0.0
 30
2.000000000000000E+50
 75
     0
  0
DIMASSOC
  5
54F8
102
{ACAD_REACTORS
330
54F7
102
}
330
54F7
100
AcDbDimAssoc
330
54F6
 90
        3
 70
     0
 71
     0
  1
AcDbOsnapPointRef
 72
     1
331
53C8
 73
     2
 91
        0
 40
1.0
 10
0.0
 20
0.0
 30
2.000000000000000E+50
 75
     0
  1
AcDbOsnapPointRef
 72
    13
331
53A1
 73
     2
 91
        0
 40
0.0
 10
0.0
 20
0.0
 30
2.000000000000000E+50
 75
     0
  0
DIMASSOC
  5
54FB
102
{ACAD_REACTORS
330
54FA
102
}
330
54FA
100
AcDbDimAssoc
330
54F9
 90
        3
 70
     0
 71
     0
  1
AcDbOsnapPointRef
 72
     1
331
53A2
 73
     2
 91
        0
 40
1.0
 10
0.0
 20
0.0
 30
2.000000000000000E+50
 75
     0
  1
AcDbOsnapPointRef
 72
     1
331
53A3
 73
     2
 91
        0
 40
1.0
 10
0.0
 20
0.0
 30
2.000000000000000E+50
 75
     0
  0
DIMASSOC
  5
54FE
102
{ACAD_REACTORS
330
54FD
102
}
330
54FD
100
AcDbDimAssoc
330
54FC
 90
        3
 70
     0
 71
     0
  1
AcDbOsnapPointRef
 72
     1
331
5299
 73
     2
 91
        0
 40
7.853981633974482
 10
0.0
 20
0.0
 30
2.000000000000000E+50
 75
     0
  1
AcDbOsnapPointRef
 72
    13
331
5292
 73
     2
 91
        0
 40
4.712388980384689
 10
0.0
 20
0.0
 30
2.000000000000000E+50
 75
     0
  0
DIMASSOC
  5
5505
102
{ACAD_REACTORS
330
5504
102
}
330
5504
100
AcDbDimAssoc
330
5503
 90
        3
 70
     0
 71
     0
  1
AcDbOsnapPointRef
 72
     1
331
538F
 73
     2
 91
        0
 40
3.696403686569891
 10
0.0
 20
0.0
 30
2.000000000000000E+50
 75
     0
  1
AcDbOsnapPointRef
 72
     1
331
539E
 73
     2
 91
        0
 40
1.0
 10
0.0
 20
0.0
 30
2.000000000000000E+50
 75
     0
  0
DIMASSOC
  5
550A
102
{ACAD_REACTORS
330
5509
102
}
330
5509
100
AcDbDimAssoc
330
5508
 90
        3
 70
     0
 71
     0
  1
AcDbOsnapPointRef
 72
    13
331
53BC
 73
     2
 91
        0
 40
0.0
 10
0.0
 20
0.0
 30
2.000000000000000E+50
 75
     0
  1
AcDbOsnapPointRef
 72
    13
331
53BA
 73
     2
 91
        0
 40
0.0
 10
0.0
 20
0.0
 30
2.000000000000000E+50
 75
     0
  0
DIMASSOC
  5
550D
102
{ACAD_REACTORS
330
550C
102
}
330
550C
100
AcDbDimAssoc
330
550B
 90
        3
 70
     0
 71
     0
  1
AcDbOsnapPointRef
 72
     1
331
52D1
 73
     2
 91
        0
 40
2.418858405776394
 10
0.0
 20
0.0
 30
2.000000000000000E+50
 75
     0
  1
AcDbOsnapPointRef
 72
    13
331
5369
 73
     2
 91
        0
 40
0.7227342478133986
 10
0.0
 20
0.0
 30
2.000000000000000E+50
 75
     0
  0
DIMASSOC
  5
5510
102
{ACAD_REACTORS
330
550F
102
}
330
550F
100
AcDbDimAssoc
330
550E
 90
        1
 70
     0
 71
     0
  1
AcDbOsnapPointRef
 72
    13
331
52DA
 73
     2
 91
        0
 40
0.0
 10
0.0
 20
0.0
 30
2.000000000000000E+50
 75
     0
  0
DIMASSOC
  5
5513
102
{ACAD_REACTORS
330
5512
102
}
330
5512
100
AcDbDimAssoc
330
5511
 90
        3
 70
     0
 71
     0
  1
AcDbOsnapPointRef
 72
    13
331
53B3
 73
     2
 91
        0
 40
3.69640368656989
 10
0.0
 20
0.0
 30
2.000000000000000E+50
 75
     0
  1
AcDbOsnapPointRef
 72
     1
331
53B4
 73
     2
 91
        0
 40
5.728374274199488
 10
0.0
 20
0.0
 30
2.000000000000000E+50
 75
     0
  0
DIMASSOC
  5
5516
102
{ACAD_REACTORS
330
5515
102
}
330
5515
100
AcDbDimAssoc
330
5514
 90
        3
 70
     0
 71
     0
  1
AcDbOsnapPointRef
 72
     2
331
52DC
 73
     2
 91
        0
 40
2.555455713025956
 10
0.0
 20
0.0
 30
0.0
 75
     0
  1
AcDbOsnapPointRef
 72
     2
331
52DB
 73
     2
 91
        0
 40
3.727729594153629
 10
0.0
 20
0.0
 30
0.0
 75
     0
  0
DIMASSOC
  5
551B
102
{ACAD_REACTORS
330
551A
102
}
330
551A
100
AcDbDimAssoc
330
5519
 90
        3
 70
     0
 71
     0
  1
AcDbOsnapPointRef
 72
    13
331
528A
 73
     2
 91
        0
 40
0.0
 10
0.0
 20
0.0
 30
2.000000000000000E+50
 75
     0
  1
AcDbOsnapPointRef
 72
    13
331
53E9
 73
     2
 91
        0
 40
0.0
 10
0.0
 20
0.0
 30
2.000000000000000E+50
 75
     0
  0
DIMASSOC
  5
551E
102
{ACAD_REACTORS
330
551D
102
}
330
551D
100
AcDbDimAssoc
330
551C
 90
        3
 70
     0
 71
     0
  1
AcDbOsnapPointRef
 72
    13
331
528A
 73
     2
 91
        0
 40
0.0
 10
0.0
 20
0.0
 30
2.000000000000000E+50
 75
     0
  1
AcDbOsnapPointRef
 72
    13
331
528D
 73
     2
 91
        0
 40
6.283185307179572
 10
0.0
 20
0.0
 30
2.000000000000000E+50
 75
     0
  0
DIMASSOC
  5
5521
102
{ACAD_REACTORS
330
5520
102
}
330
5520
100
AcDbDimAssoc
330
551F
 90
        3
 70
     0
 71
     0
  1
AcDbOsnapPointRef
 72
     6
331
53DB
 73
     2
 91
        0
 40
1.0
 10
0.0
 20
0.0
 30
0.0
332
53C9
 74
     2
 92
        0
 75
     0
  1
AcDbOsnapPointRef
 72
    13
331
53CA
 73
     2
 91
        0
 40
0.0
 10
0.0
 20
0.0
 30
2.000000000000000E+50
 75
     0
  0
DIMASSOC
  5
5524
102
{ACAD_REACTORS
330
5523
102
}
330
5523
100
AcDbDimAssoc
330
5522
 90
        3
 70
     0
 71
     0
  1
AcDbOsnapPointRef
 72
    13
331
53CD
 73
     2
 91
        0
 40
0.0
 10
0.0
 20
0.0
 30
2.000000000000000E+50
 75
     0
  1
AcDbOsnapPointRef
 72
    13
331
53DB
 73
     2
 91
        0
 40
0.0
 10
0.0
 20
0.0
 30
2.000000000000000E+50
 75
     0
  0
DIMASSOC
  5
5527
102
{ACAD_REACTORS
330
5526
102
}
330
5526
100
AcDbDimAssoc
330
5525
 90
        3
 70
     0
 71
     0
  1
AcDbOsnapPointRef
 72
    13
331
53C9
 73
     2
 91
        0
 40
0.0
 10
0.0
 20
0.0
 30
2.000000000000000E+50
 75
     0
  1
AcDbOsnapPointRef
 72
    13
331
53DB
 73
     2
 91
        0
 40
0.0
 10
0.0
 20
0.0
 30
2.000000000000000E+50
 75
     0
  0
DIMASSOC
  5
552A
102
{ACAD_REACTORS
330
5529
102
}
330
5529
100
AcDbDimAssoc
330
5528
 90
        3
 70
     0
 71
     0
  1
AcDbOsnapPointRef
 72
     1
331
53DB
 73
     2
 91
        0
 40
1.0
 10
0.0
 20
0.0
 30
2.000000000000000E+50
 75
     0
  1
AcDbOsnapPointRef
 72
    13
331
53E9
 73
     2
 91
        0
 40
0.0
 10
0.0
 20
0.0
 30
2.000000000000000E+50
 75
     0
  0
DIMASSOC
  5
552D
102
{ACAD_REACTORS
330
552C
102
}
330
552C
100
AcDbDimAssoc
330
552B
 90
        3
 70
     0
 71
     0
  1
AcDbOsnapPointRef
 72
     1
331
53EC
 73
     2
 91
        0
 40
1.0
 10
0.0
 20
0.0
 30
2.000000000000000E+50
 75
     0
  1
AcDbOsnapPointRef
 72
     1
331
53ED
 73
     2
 91
        0
 40
1.0
 10
0.0
 20
0.0
 30
2.000000000000000E+50
 75
     0
  0
DIMASSOC
  5
5530
102
{ACAD_REACTORS
330
552F
102
}
330
552F
100
AcDbDimAssoc
330
552E
 90
        3
 70
     0
 71
     0
  1
AcDbOsnapPointRef
 72
     1
331
528D
 73
     2
 91
        0
 40
7.853981633974482
 10
0.0
 20
0.0
 30
2.000000000000000E+50
 75
     0
  1
AcDbOsnapPointRef
 72
    13
331
5289
 73
     2
 91
        0
 40
0.0
 10
0.0
 20
0.0
 30
2.000000000000000E+50
 75
     0
  0
DIMASSOC
  5
5533
102
{ACAD_REACTORS
330
5532
102
}
330
5532
100
AcDbDimAssoc
330
5531
 90
        3
 70
     0
 71
     0
  1
AcDbOsnapPointRef
 72
     1
331
53E1
 73
     2
 91
        0
 40
3.696403686569923
 10
0.0
 20
0.0
 30
2.000000000000000E+50
 75
     0
  1
AcDbOsnapPointRef
 72
     1
331
53EA
 73
     2
 91
        0
 40
1.0
 10
0.0
 20
0.0
 30
2.000000000000000E+50
 75
     0
  0
DIMASSOC
  5
5538
102
{ACAD_REACTORS
330
5537
102
}
330
5537
100
AcDbDimAssoc
330
5536
 90
        3
 70
     0
 71
     0
  1
AcDbOsnapPointRef
 72
    13
331
53BC
 73
     2
 91
        0
 40
0.0
 10
0.0
 20
0.0
 30
2.000000000000000E+50
 75
     0
  1
AcDbOsnapPointRef
 72
    13
331
53BA
 73
     2
 91
        0
 40
0.0
 10
0.0
 20
0.0
 30
2.000000000000000E+50
 75
     0
  0
DIMASSOC
  5
553B
102
{ACAD_REACTORS
330
553A
102
}
330
553A
100
AcDbDimAssoc
330
5539
 90
        3
 70
     0
 71
     0
  1
AcDbOsnapPointRef
 72
     1
331
52D1
 73
     2
 91
        0
 40
2.418858405776394
 10
0.0
 20
0.0
 30
2.000000000000000E+50
 75
     0
  1
AcDbOsnapPointRef
 72
    13
331
5369
 73
     2
 91
        0
 40
0.7227342478133986
 10
0.0
 20
0.0
 30
2.000000000000000E+50
 75
     0
  0
DIMASSOC
  5
5541
102
{ACAD_REACTORS
330
5540
102
}
330
5540
100
AcDbDimAssoc
330
553F
 90
        3
 70
     0
 71
     0
  1
AcDbOsnapPointRef
 72
    13
331
53B3
 73
     2
 91
        0
 40
3.69640368656989
 10
0.0
 20
0.0
 30
2.000000000000000E+50
 75
     0
  1
AcDbOsnapPointRef
 72
     1
331
53B4
 73
     2
 91
        0
 40
5.728374274199488
 10
0.0
 20
0.0
 30
2.000000000000000E+50
 75
     0
  0
DIMASSOC
  5
5544
102
{ACAD_REACTORS
330
5543
102
}
330
5543
100
AcDbDimAssoc
330
5542
 90
        3
 70
     0
 71
     0
  1
AcDbOsnapPointRef
 72
     2
331
52DC
 73
     2
 91
        0
 40
2.555455713025956
 10
0.0
 20
0.0
 30
0.0
 75
     0
  1
AcDbOsnapPointRef
 72
     2
331
52DB
 73
     2
 91
        0
 40
3.727729594153629
 10
0.0
 20
0.0
 30
0.0
 75
     0
  0
LAYOUT
  5
1E
102
{ACAD_XDICTIONARY
360
613E
102
}
102
{ACAD_REACTORS
330
1A
102
}
330
1A
100
AcDbPlotSettings
  1

  2

  4

  6

 40
0.0
 41
0.0
 42
0.0
 43
0.0
 44
0.0
 45
0.0
 46
0.0
 47
0.0
 48
0.0
 49
0.0
140
0.0
141
0.0
142
1.0
143
1.0
 70
   688
 72
     0
 73
     0
 74
     5
  7

 75
    16
147
1.0
148
0.0
149
0.0
100
AcDbLayout
  1
Layout1
 70
     1
 71
     1
 10
0.0
 20
0.0
 11
12.0
 21
9.0
 12
0.0
 22
0.0
 32
0.0
 14
1.000000000000000E+20
 24
1.000000000000000E+20
 34
1.000000000000000E+20
 15
-1.000000000000000E+20
 25
-1.000000000000000E+20
 35
-1.000000000000000E+20
146
0.0
 13
0.0
 23
0.0
 33
0.0
 16
1.0
 26
0.0
 36
0.0
 17
0.0
 27
1.0
 37
0.0
 76
     0
330
1B
  0
LAYOUT
  5
26
102
{ACAD_XDICTIONARY
360
6142
102
}
102
{ACAD_REACTORS
330
1A
102
}
330
1A
100
AcDbPlotSettings
  1

  2

  4

  6

 40
0.0
 41
0.0
 42
0.0
 43
0.0
 44
0.0
 45
0.0
 46
0.0
 47
0.0
 48
0.0
 49
0.0
140
0.0
141
0.0
142
1.0
143
1.0
 70
   688
 72
     0
 73
     0
 74
     5
  7

 75
    16
147
1.0
148
0.0
149
0.0
100
AcDbLayout
  1
Layout2
 70
     1
 71
     2
 10
0.0
 20
0.0
 11
12.0
 21
9.0
 12
0.0
 22
0.0
 32
0.0
 14
0.0
 24
0.0
 34
0.0
 15
0.0
 25
0.0
 35
0.0
146
0.0
 13
0.0
 23
0.0
 33
0.0
 16
1.0
 26
0.0
 36
0.0
 17
0.0
 27
1.0
 37
0.0
 76
     0
330
23
  0
LAYOUT
  5
22
102
{ACAD_XDICTIONARY
360
6140
102
}
102
{ACAD_REACTORS
330
1A
102
}
330
1A
100
AcDbPlotSettings
  1

  2
DWF Classic.pc3
  4
ISO_A3_(420.00_x_297.00_MM)
  6

 40
5.793749809265136
 41
17.79375076293945
 42
5.79376220703125
 43
17.79376220703125
 44
420.0
 45
297.0
 46
3.16
 47
0.0
 48
0.0
 49
0.0
140
0.0
141
0.0
142
1.0
143
1.040956525863997
 70
 11956
 72
     1
 73
     1
 74
     1
  7

 75
     0
147
0.9606549122404478
148
0.4787910136826668
149
0.4766328058566387
100
AcDbLayout
  1
Model
 70
     1
 71
     0
 10
0.0
 20
0.0
 11
12.0
 21
9.0
 12
0.0
 22
0.0
 32
0.0
 14
0.0
 24
0.0
 34
0.0
 15
0.0
 25
0.0
 35
0.0
146
0.0
 13
0.0
 23
0.0
 33
0.0
 16
1.0
 26
0.0
 36
0.0
 17
0.0
 27
1.0
 37
0.0
 76
     0
330
1F
  0
MLINESTYLE
  5
18
102
{ACAD_REACTORS
330
17
102
}
330
17
100
AcDbMlineStyle
  2
STANDARD
 70
     0
  3

 62
   256
 51
90.0
 52
90.0
 71
     2
 49
0.5
 62
   256
  6
BYLAYER
 49
-0.5
 62
   256
  6
BYLAYER
  0
ACDBPLACEHOLDER
  5
F
102
{ACAD_REACTORS
330
E
102
}
330
E
  0
TABLESTYLE
  5
4E22
102
{ACAD_REACTORS
330
4E21
102
}
330
4E21
100
AcDbTableStyle
  3
Standard
 70
     0
 71
     0
 40
1.5
 41
1.5
280
     0
281
     0
  7
Standard
140
4.5
170
     2
 62
     0
 63
     7
283
     0
274
    -2
284
     1
 64
     0
275
    -2
285
     1
 65
     0
276
    -2
286
     1
 66
     0
277
    -2
287
     1
 67
     0
278
    -2
288
     1
 68
     0
279
    -2
289
     1
 69
     0
  7
Standard
140
6.0
170
     5
 62
     0
 63
     7
283
     0
274
    -2
284
     1
 64
     0
275
    -2
285
     1
 65
     0
276
    -2
286
     1
 66
     0
277
    -2
287
     1
 67
     0
278
    -2
288
     1
 68
     0
279
    -2
289
     1
 69
     0
  7
Standard
140
4.5
170
     5
 62
     0
 63
     7
283
     0
274
    -2
284
     1
 64
     0
275
    -2
285
     1
 65
     0
276
    -2
286
     1
 66
     0
277
    -2
287
     1
 67
     0
278
    -2
288
     1
 68
     0
279
    -2
289
     1
 69
     0
  0
DICTIONARYVAR
  5
578E
102
{ACAD_REACTORS
330
1488
102
}
330
1488
100
DictionaryVariables
280
     0
  1
STANDARD
  0
DICTIONARYVAR
  5
4DC5
102
{ACAD_REACTORS
330
1488
102
}
330
1488
100
DictionaryVariables
280
     0
  1
1
  0
DICTIONARYVAR
  5
4DC4
102
{ACAD_REACTORS
330
1488
102
}
330
1488
100
DictionaryVariables
280
     0
  1
1
  0
DICTIONARYVAR
  5
5E20
102
{ACAD_REACTORS
330
1488
102
}
330
1488
100
DictionaryVariables
280
     0
  1

  0
DICTIONARYVAR
  5
1489
102
{ACAD_REACTORS
330
1488
102
}
330
1488
100
DictionaryVariables
280
     0
  1
96
  0
DICTIONARY
  5
4D89
102
{ACAD_REACTORS
330
4D83
102
}
330
4D83
100
AcDbDictionary
281
     1
  0
XRECORD
  5
5B4F
102
{ACAD_REACTORS
330
4D83
102
}
330
4D83
100
AcDbXrecord
280
     1
 90
-1023410169
  0
LAYER_INDEX
  5
60D6
102
{ACAD_REACTORS
330
60D5
102
}
330
60D5
100
AcDbIndex
 40
2454308.388934815
100
AcDbLayerIndex
  8
0
360
6134
 90
      642
  8
DIM
360
6135
 90
       51
  8
LOGO
360
6136
 90
      127
  8
Defpoints
360
6137
 90
        0
  8
CENTER
360
6138
 90
       28
  8
AM_7
360
6139
 90
        2
  8
AM_5
360
613A
 90
        0
  0
DICTIONARY
  5
613E
330
1E
100
AcDbDictionary
280
     1
281
     1
  3
ACAD_XREC_ROUNDTRIP
360
613F
  0
DICTIONARY
  5
6142
330
26
100
AcDbDictionary
280
     1
281
     1
  3
ACAD_XREC_ROUNDTRIP
360
6143
  0
DICTIONARY
  5
6140
330
22
100
AcDbDictionary
280
     1
281
     1
  3
ACAD_XREC_ROUNDTRIP
360
6141
  0
IDBUFFER
  5
6134
330
0
100
AcDbIdBuffer
330
547C
330
547D
330
547E
330
547F
330
5480
330
5481
330
5482
330
5483
330
5484
330
5485
330
5486
330
5487
330
5488
330
5489
330
548A
330
548B
330
548C
330
548D
330
548E
330
548F
330
5490
330
5491
330
5492
330
5493
330
5494
330
5495
330
5496
330
5497
330
5498
330
5499
330
549A
330
549B
330
549C
330
549D
330
549E
330
549F
330
54A0
330
54A1
330
54A2
330
54A3
330
54A4
330
54A5
330
54A6
330
54A7
330
54A8
330
54A9
330
54AA
330
54AB
330
54AC
330
54AD
330
54AE
330
54AF
330
54B0
330
54B1
330
54B2
330
54B3
330
54B4
330
54B5
330
54B6
330
54B7
330
54B8
330
54B9
330
54BA
330
54BB
330
54BC
330
54BD
330
54BE
330
54C7
330
54C8
330
54C9
330
54CA
330
54CB
330
54CC
330
54CD
330
54CE
330
54CF
330
54D0
330
54D1
330
54D2
330
54D3
330
54D4
330
54D5
330
54D6
330
54D7
330
54D8
330
54D9
330
54DA
330
54DB
330
54DC
330
54DD
330
5C93
330
5C94
330
5C95
330
5F79
330
606A
330
606B
330
606C
330
606D
330
606E
330
606F
330
6070
330
6071
330
6072
330
6073
330
6074
330
6075
330
6076
330
6077
330
6078
330
6079
330
607A
330
607B
330
607C
330
607D
330
607E
330
607F
330
6080
330
6081
330
6082
330
608B
330
608C
330
608D
330
608E
330
608F
330
6090
330
6091
330
6092
330
6093
330
6094
330
6095
330
6096
330
6097
330
6098
330
6099
330
609A
330
609B
330
609C
330
609D
330
609E
330
609F
330
60A0
330
60A1
330
60A2
330
60A3
330
60C2
330
60C5
330
A9
330
AA
330
AB
330
AC
330
B1
330
B2
330
10B3
330
17B4
330
17B5
330
17BF
330
17C0
330
18E7
330
18EA
330
5285
330
5287
330
5288
330
5289
330
528A
330
528B
330
528C
330
528D
330
528F
330
5290
330
5291
330
5292
330
5293
330
5294
330
5295
330
5296
330
5297
330
5298
330
5299
330
529A
330
529B
330
529C
330
529D
330
529E
330
529F
330
52A0
330
52A1
330
52A4
330
52A5
330
52A7
330
52A8
330
52A9
330
52AA
330
52AB
330
52AC
330
52AD
330
52AE
330
52B0
330
52B1
330
52B2
330
52B3
330
52B4
330
52B5
330
52B6
330
52B7
330
52B8
330
52B9
330
52BA
330
52BB
330
52BC
330
52BD
330
52BE
330
52BF
330
52C0
330
52C1
330
52C2
330
52C3
330
52C4
330
52C5
330
52C6
330
52C7
330
52C8
330
52C9
330
52CA
330
52CB
330
52CC
330
52CD
330
52CE
330
52CF
330
52D0
330
52D1
330
52D2
330
52D3
330
52D4
330
52D5
330
52D6
330
52D7
330
52D8
330
52D9
330
52DA
330
52DB
330
52DC
330
52DD
330
52DE
330
52DF
330
52E0
330
52E1
330
52E2
330
52E3
330
52E4
330
52E5
330
52E6
330
52E7
330
52E8
330
52E9
330
52EA
330
52EB
330
52EC
330
52ED
330
52EE
330
52EF
330
52F0
330
52F1
330
52F2
330
52F3
330
52F4
330
52F5
330
52F6
330
52F7
330
52F8
330
52F9
330
52FA
330
52FB
330
52FC
330
52FD
330
52FE
330
52FF
330
5300
330
5301
330
5302
330
5303
330
5304
330
5305
330
5306
330
5307
330
5308
330
5309
330
530A
330
530B
330
530C
330
530D
330
530E
330
530F
330
5310
330
5311
330
5312
330
5313
330
5314
330
5315
330
5316
330
5317
330
5318
330
5319
330
531A
330
531B
330
531C
330
531D
330
531E
330
531F
330
5320
330
5321
330
5322
330
5323
330
5324
330
5325
330
5326
330
5327
330
5328
330
5329
330
532A
330
532B
330
532C
330
532D
330
532E
330
532F
330
5330
330
5331
330
5332
330
5333
330
5334
330
5335
330
5336
330
5337
330
5338
330
5339
330
533A
330
533B
330
533C
330
533D
330
533E
330
533F
330
5340
330
5341
330
5342
330
5343
330
5344
330
5345
330
5346
330
5347
330
5348
330
5349
330
534A
330
534B
330
534C
330
534D
330
534E
330
534F
330
5350
330
5351
330
5352
330
5353
330
5354
330
5355
330
5356
330
5357
330
5358
330
5359
330
535A
330
535B
330
535C
330
535D
330
535E
330
535F
330
5360
330
5361
330
5362
330
5363
330
5364
330
5365
330
5366
330
5367
330
5368
330
5369
330
536A
330
536B
330
536C
330
536D
330
536E
330
536F
330
5370
330
5371
330
5372
330
5373
330
5374
330
5375
330
5376
330
5378
330
5379
330
537B
330
537C
330
537D
330
537E
330
537F
330
5380
330
5381
330
5382
330
5383
330
5384
330
5385
330
5386
330
5387
330
5388
330
5389
330
538A
330
538B
330
538C
330
538D
330
538E
330
538F
330
5390
330
5391
330
5392
330
5393
330
5394
330
5395
330
5396
330
5397
330
5398
330
5399
330
539A
330
539B
330
539C
330
539D
330
539E
330
539F
330
53A0
330
53A1
330
53A2
330
53A3
330
53A4
330
53A5
330
53A6
330
53A7
330
53A8
330
53A9
330
53AA
330
53AB
330
53AC
330
53AD
330
53AE
330
53AF
330
53B0
330
53B1
330
53B2
330
53B3
330
53B4
330
53B5
330
53B6
330
53BD
330
53BE
330
53BF
330
53C0
330
53C1
330
53C2
330
53C3
330
53C4
330
53C5
330
53C6
330
53C7
330
53C8
330
53C9
330
53CB
330
53CC
330
53CE
330
53CF
330
53D0
330
53D1
330
53D2
330
53D3
330
53D4
330
53D5
330
53D6
330
53D7
330
53D8
330
53D9
330
53DA
330
53DB
330
53DC
330
53DD
330
53DE
330
53DF
330
53E0
330
53E1
330
53E2
330
53E3
330
53E4
330
53E5
330
53E6
330
53E7
330
53E8
330
53E9
330
53EA
330
53EB
330
53EC
330
53ED
330
53EE
330
53EF
330
53F0
330
53F1
330
53F2
330
53F3
330
53F4
330
53F5
330
53F8
330
53F9
330
53FB
330
53FC
330
53FD
330
53FE
330
53FF
330
5400
330
5401
330
5402
330
5404
330
5405
330
5406
330
5407
330
5408
330
5409
330
540A
330
540B
330
540C
330
540D
330
540E
330
540F
330
5410
330
5411
330
5412
330
5413
330
5414
330
5415
330
5416
330
5417
330
5418
330
5419
330
541A
330
541B
330
541C
330
541D
330
541E
330
541F
330
5420
330
5421
330
5422
330
5423
330
5424
330
5425
330
5426
330
5427
330
5428
330
5429
330
542A
330
542B
330
542C
330
542D
330
542E
330
542F
330
5430
330
5431
330
5432
330
5433
330
5434
330
5435
330
5436
330
5437
330
5438
330
5439
330
543A
330
543B
330
543C
330
543D
330
543E
330
543F
330
5440
330
5441
330
5442
330
5443
330
5444
330
5445
330
5446
330
5447
330
5448
330
5449
330
544A
330
544B
330
544C
330
544D
330
544E
330
544F
330
5450
330
5451
330
5452
330
5453
330
5454
330
5455
330
5456
330
5457
330
5458
330
5459
330
545A
330
545B
330
545C
330
545D
330
545E
330
545F
330
5460
330
5461
330
5462
330
5463
330
5464
330
5465
330
5466
330
5467
330
5468
330
5469
330
546A
330
546B
330
546C
330
546D
330
546E
330
546F
330
5470
330
5471
330
5472
330
5473
330
5474
330
5475
330
5476
330
5477
330
5478
330
5479
330
547A
330
547B
  0
IDBUFFER
  5
6135
330
0
100
AcDbIdBuffer
330
5735
330
6042
330
6043
330
54DE
330
54E1
330
54E4
330
54E7
330
54EA
330
54ED
330
54F0
330
54F3
330
54F6
330
54F9
330
54FC
330
54FF
330
5500
330
5501
330
5502
330
5503
330
5506
330
5507
330
5508
330
550B
330
550E
330
5511
330
5514
330
5517
330
5518
330
5519
330
551C
330
551F
330
5522
330
5525
330
5528
330
552B
330
552E
330
5531
330
5534
330
5535
330
5536
330
5539
330
553F
330
5542
330
5547
330
5548
330
5723
330
5726
330
5729
330
572C
330
572F
330
5732
  0
IDBUFFER
  5
6136
330
0
100
AcDbIdBuffer
330
5C45
330
5C46
330
5C47
330
5C48
330
5C49
330
5C4A
330
5C4B
330
5C4C
330
5C4D
330
5C8D
330
5C8E
330
5C8F
330
5C90
330
5C91
330
5C92
330
17BD
330
17BE
330
17C3
330
17C4
330
17C5
330
17C6
330
17C7
330
1802
330
1803
330
1804
330
1805
330
1806
330
1807
330
1808
330
1809
330
180A
330
180B
330
180C
330
180D
330
180E
330
180F
330
1810
330
1868
330
1869
330
186A
330
186B
330
186C
330
186D
330
186E
330
186F
330
1870
330
1871
330
1872
330
1873
330
1874
330
1875
330
1876
330
1877
330
1878
330
1879
330
187A
330
187B
330
187C
330
187D
330
187E
330
187F
330
1880
330
1881
330
1882
330
1883
330
1885
330
1886
330
1887
330
1888
330
1889
330
188A
330
188B
330
188C
330
188D
330
188E
330
188F
330
1890
330
1891
330
5BFF
330
5C00
330
5C01
330
5C02
330
5C03
330
5C04
330
5C05
330
5C06
330
5C07
330
5C08
330
5C09
330
5C0A
330
5C0B
330
5C0C
330
5C0D
330
5C0E
330
5C0F
330
5C10
330
5C11
330
5C12
330
5C13
330
5C14
330
5C15
330
5C16
330
5C17
330
5C18
330
5C19
330
5C1A
330
5C1B
330
5C1C
330
5C20
330
5C24
330
5C25
330
5C29
330
5C2A
330
5C2B
330
5C2C
330
5C2D
330
5C2E
330
5C2F
330
5C30
330
5C34
330
5C38
330
5C3C
330
5C3D
330
5C3E
330
5C42
330
5C43
330
5C44
  0
IDBUFFER
  5
6137
330
0
100
AcDbIdBuffer
  0
IDBUFFER
  5
6138
330
0
100
AcDbIdBuffer
330
53F6
330
53F7
330
53FA
330
5403
330
54BF
330
54C0
330
54C1
330
54C2
330
54C3
330
54C4
330
54C5
330
54C6
330
5286
330
528E
330
52A2
330
52A3
330
52A6
330
52AF
330
5377
330
537A
330
53B7
330
53B8
330
53B9
330
53BA
330
53BB
330
53BC
330
53CA
330
53CD
  0
IDBUFFER
  5
6139
330
0
100
AcDbIdBuffer
330
60C1
330
60C4
  0
IDBUFFER
  5
613A
330
0
100
AcDbIdBuffer
  0
XRECORD
  5
613F
102
{ACAD_REACTORS
330
613E
102
}
330
613E
100
AcDbXrecord
280
     1
102
SHADEPLOT
 70
     0
102
SHADEPLOTRESLEVEL
 70
     2
102
SHADEPLOTCUSTOMDPI
 70
   300
  0
XRECORD
  5
6143
102
{ACAD_REACTORS
330
6142
102
}
330
6142
100
AcDbXrecord
280
     1
102
SHADEPLOT
 70
     0
102
SHADEPLOTRESLEVEL
 70
     2
102
SHADEPLOTCUSTOMDPI
 70
   300
  0
XRECORD
  5
6141
102
{ACAD_REACTORS
330
6140
102
}
330
6140
100
AcDbXrecord
280
     1
102
SHADEPLOT
 70
     0
102
SHADEPLOTRESLEVEL
 70
     2
102
SHADEPLOTCUSTOMDPI
 70
   300
  0
ENDSEC
  0
EOF
