  0
SECTION
  2
HEADER
  9
$ACADVER
  1
AC1015
  9
$ACADMAINTVER
 70
    20
  9
$DWGCODEPAGE
  3
ANSI_950
  9
$INSBASE
 10
0.0
 20
0.0
 30
0.0
  9
$EXTMIN
 10
5.138883617248325
 20
39.16269131543982
 30
-0.0073686351623792
  9
$EXTMAX
 10
342.6165845576229
 20
429.3483440792598
 30
241.4812294725044
  9
$LIMMIN
 10
0.0
 20
0.0
  9
$LIMMAX
 10
12.0
 20
9.0
  9
$ORTHOMODE
 70
     1
  9
$REGENMODE
 70
     1
  9
$FILLMODE
 70
     1
  9
$QTEXTMODE
 70
     0
  9
$MIRRTEXT
 70
     1
  9
$LTSCALE
 40
5.0
  9
$ATTMODE
 70
     1
  9
$TEXTSIZE
 40
4.5
  9
$TRACEWID
 40
0.05
  9
$TEXTSTYLE
  7
CHINESET
  9
$CLAYER
  8
0
  9
$CELTYPE
  6
ByLayer
  9
$CECOLOR
 62
   256
  9
$CELTSCALE
 40
1.0
  9
$DISPSILH
 70
     0
  9
$DIMSCALE
 40
1.0
  9
$DIMASZ
 40
3.0
  9
$DIMEXO
 40
3.0
  9
$DIMDLI
 40
2.0
  9
$DIMRND
 40
0.0
  9
$DIMDLE
 40
0.0
  9
$DIMEXE
 40
2.0
  9
$DIMTP
 40
0.0
  9
$DIMTM
 40
0.0
  9
$DIMTXT
 40
3.0
  9
$DIMCEN
 40
-3.0
  9
$DIMTSZ
 40
0.0
  9
$DIMTOL
 70
     0
  9
$DIMLIM
 70
     0
  9
$DIMTIH
 70
     0
  9
$DIMTOH
 70
     0
  9
$DIMSE1
 70
     0
  9
$DIMSE2
 70
     0
  9
$DIMTAD
 70
     1
  9
$DIMZIN
 70
     8
  9
$DIMBLK
  1

  9
$DIMASO
 70
     1
  9
$DIMSHO
 70
     1
  9
$DIMPOST
  1

  9
$DIMAPOST
  1

  9
$DIMALT
 70
     0
  9
$DIMALTD
 70
     2
  9
$DIMALTF
 40
25.4
  9
$DIMLFAC
 40
1.0
  9
$DIMTOFL
 70
     1
  9
$DIMTVP
 40
0.0
  9
$DIMTIX
 70
     0
  9
$DIMSOXD
 70
     0
  9
$DIMSAH
 70
     0
  9
$DIMBLK1
  1

  9
$DIMBLK2
  1

  9
$DIMSTYLE
  2
ISO-25-1
  9
$DIMCLRD
 70
   256
  9
$DIMCLRE
 70
   256
  9
$DIMCLRT
 70
   256
  9
$DIMTFAC
 40
0.7
  9
$DIMGAP
 40
1.0
  9
$DIMJUST
 70
     0
  9
$DIMSD1
 70
     0
  9
$DIMSD2
 70
     0
  9
$DIMTOLJ
 70
     1
  9
$DIMTZIN
 70
     8
  9
$DIMALTZ
 70
     0
  9
$DIMALTTZ
 70
     0
  9
$DIMUPT
 70
     0
  9
$DIMDEC
 70
     2
  9
$DIMTDEC
 70
     8
  9
$DIMALTU
 70
     2
  9
$DIMALTTD
 70
     2
  9
$DIMTXSTY
  7
CHINESET
  9
$DIMAUNIT
 70
     0
  9
$DIMADEC
 70
     0
  9
$DIMALTRND
 40
0.0
  9
$DIMAZIN
 70
     2
  9
$DIMDSEP
 70
    46
  9
$DIMATFIT
 70
     0
  9
$DIMFRAC
 70
     0
  9
$DIMLDRBLK
  1

  9
$DIMLUNIT
 70
     2
  9
$DIMLWD
 70
    -1
  9
$DIMLWE
 70
    -1
  9
$DIMTMOVE
 70
     0
  9
$LUNITS
 70
     2
  9
$LUPREC
 70
     2
  9
$SKETCHINC
 40
0.1
  9
$FILLETRAD
 40
0.5
  9
$AUNITS
 70
     0
  9
$AUPREC
 70
     0
  9
$MENU
  1
.
  9
$ELEVATION
 40
0.0
  9
$PELEVATION
 40
0.0
  9
$THICKNESS
 40
0.0
  9
$LIMCHECK
 70
     0
  9
$CHAMFERA
 40
1.0
  9
$CHAMFERB
 40
1.0
  9
$CHAMFERC
 40
1.0
  9
$CHAMFERD
 40
0.0
  9
$SKPOLY
 70
     0
  9
$TDCREATE
 40
2452019.631085301
  9
$TDUCREATE
 40
2452019.297751968
  9
$TDUPDATE
 40
2454308.388577292
  9
$TDUUPDATE
 40
2454308.055243958
  9
$TDINDWG
 40
0.4036556250
  9
$TDUSRTIMER
 40
0.4036556250
  9
$USRTIMER
 70
     1
  9
$ANGBASE
 50
0.0
  9
$ANGDIR
 70
     0
  9
$PDMODE
 70
     0
  9
$PDSIZE
 40
0.0
  9
$PLINEWID
 40
0.0
  9
$SPLFRAME
 70
     0
  9
$SPLINETYPE
 70
     6
  9
$SPLINESEGS
 70
     8
  9
$HANDSEED
  5
5E73
  9
$SURFTAB1
 70
     6
  9
$SURFTAB2
 70
     6
  9
$SURFTYPE
 70
     6
  9
$SURFU
 70
     6
  9
$SURFV
 70
     6
  9
$UCSBASE
  2

  9
$UCSNAME
  2

  9
$UCSORG
 10
0.0
 20
0.0
 30
0.0
  9
$UCSXDIR
 10
1.0
 20
0.0
 30
0.0
  9
$UCSYDIR
 10
0.0
 20
1.0
 30
0.0
  9
$UCSORTHOREF
  2

  9
$UCSORTHOVIEW
 70
     0
  9
$UCSORGTOP
 10
0.0
 20
0.0
 30
0.0
  9
$UCSORGBOTTOM
 10
0.0
 20
0.0
 30
0.0
  9
$UCSORGLEFT
 10
0.0
 20
0.0
 30
0.0
  9
$UCSORGRIGHT
 10
0.0
 20
0.0
 30
0.0
  9
$UCSORGFRONT
 10
0.0
 20
0.0
 30
0.0
  9
$UCSORGBACK
 10
0.0
 20
0.0
 30
0.0
  9
$PUCSBASE
  2

  9
$PUCSNAME
  2

  9
$PUCSORG
 10
0.0
 20
0.0
 30
0.0
  9
$PUCSXDIR
 10
1.0
 20
0.0
 30
0.0
  9
$PUCSYDIR
 10
0.0
 20
1.0
 30
0.0
  9
$PUCSORTHOREF
  2

  9
$PUCSORTHOVIEW
 70
     0
  9
$PUCSORGTOP
 10
0.0
 20
0.0
 30
0.0
  9
$PUCSORGBOTTOM
 10
0.0
 20
0.0
 30
0.0
  9
$PUCSORGLEFT
 10
0.0
 20
0.0
 30
0.0
  9
$PUCSORGRIGHT
 10
0.0
 20
0.0
 30
0.0
  9
$PUCSORGFRONT
 10
0.0
 20
0.0
 30
0.0
  9
$PUCSORGBACK
 10
0.0
 20
0.0
 30
0.0
  9
$USERI1
 70
     0
  9
$USERI2
 70
     0
  9
$USERI3
 70
     0
  9
$USERI4
 70
     0
  9
$USERI5
 70
     0
  9
$USERR1
 40
0.0
  9
$USERR2
 40
0.0
  9
$USERR3
 40
0.0
  9
$USERR4
 40
0.0
  9
$USERR5
 40
0.0
  9
$WORLDVIEW
 70
     1
  9
$SHADEDGE
 70
     3
  9
$SHADEDIF
 70
    70
  9
$TILEMODE
 70
     1
  9
$MAXACTVP
 70
    48
  9
$PINSBASE
 10
0.0
 20
0.0
 30
0.0
  9
$PLIMCHECK
 70
     0
  9
$PEXTMIN
 10
1.000000000000000E+20
 20
1.000000000000000E+20
 30
1.000000000000000E+20
  9
$PEXTMAX
 10
-1.000000000000000E+20
 20
-1.000000000000000E+20
 30
-1.000000000000000E+20
  9
$PLIMMIN
 10
0.0
 20
0.0
  9
$PLIMMAX
 10
12.0
 20
9.0
  9
$UNITMODE
 70
     0
  9
$VISRETAIN
 70
     1
  9
$PLINEGEN
 70
     0
  9
$PSLTSCALE
 70
     1
  9
$TREEDEPTH
 70
  3020
  9
$CMLSTYLE
  2
Standard
  9
$CMLJUST
 70
     0
  9
$CMLSCALE
 40
1.0
  9
$PROXYGRAPHICS
 70
     1
  9
$MEASUREMENT
 70
     1
  9
$CELWEIGHT
370
    -1
  9
$ENDCAPS
280
     0
  9
$JOINSTYLE
280
     0
  9
$LWDISPLAY
290
     0
  9
$INSUNITS
 70
     1
  9
$HYPERLINKBASE
  1

  9
$STYLESHEET
  1
彩色出圖.ctb
  9
$XEDIT
290
     1
  9
$CEPSNTYPE
380
     0
  9
$PSTYLEMODE
290
     1
  9
$FINGERPRINTGUID
  2
{FDEAD576-A652-11D2-9A35-0060089B3A3F}
  9
$VERSIONGUID
  2
{15AA2488-700F-4EA9-854C-68EEBEC82645}
  9
$EXTNAMES
290
     1
  9
$PSVPSCALE
 40
0.0
  9
$OLESTARTUP
290
     0
  0
ENDSEC
  0
SECTION
  2
CLASSES
  0
CLASS
  1
ACDBDICTIONARYWDFLT
  2
AcDbDictionaryWithDefault
  3
ObjectDBX Classes
 90
        0
280
     0
281
     0
  0
CLASS
  1
ACDBPLACEHOLDER
  2
AcDbPlaceHolder
  3
ObjectDBX Classes
 90
        0
280
     0
281
     0
  0
CLASS
  1
LAYOUT
  2
AcDbLayout
  3
ObjectDBX Classes
 90
        0
280
     0
281
     0
  0
CLASS
  1
DICTIONARYVAR
  2
AcDbDictionaryVar
  3
ObjectDBX Classes
 90
        0
280
     0
281
     0
  0
CLASS
  1
ACME_DOCUMENT
  2
AcMeDbDoc
  3
AcMeServices
 90
        0
280
     0
281
     0
  0
CLASS
  1
AMGSETTINGSOBJ
  2
AmgSettingsObj
  3
"AcadM|Product Description: AutoCAD Mechanical 2000|Company: Autodesk"
 90
        0
280
     0
281
     0
  0
CLASS
  1
ACMESCOPE
  2
AcMeScope
  3
AcMeServices
 90
        0
280
     0
281
     0
  0
CLASS
  1
ACMECOMMANDHISTORY
  2
AcMeCommandHistory
  3
AcMeServices
 90
        0
280
     0
281
     0
  0
CLASS
  1
ACIMSYSVARMAN
  2
AcImSysVarManager
  3
AcMeServices
 90
        0
280
     0
281
     0
  0
CLASS
  1
ACIMREALSYSVAR
  2
AcImRealSysVar
  3
AcMeServices
 90
        0
280
     0
281
     0
  0
CLASS
  1
ACIMINTSYSVAR
  2
AcImIntSysVar
  3
AcMeServices
 90
        0
280
     0
281
     0
  0
CLASS
  1
ACMEDRAWINGMAN
  2
AcMeDrawingMan
  3
AcMeServices
 90
        0
280
     0
281
     0
  0
CLASS
  1
ACMEVIEW
  2
AcMeView
  3
AcMeServices
 90
        0
280
     0
281
     0
  0
CLASS
  1
ACDBENTITYCACHE
  2
AcMeEntityCache
  3
AcMeServices
 90
        0
280
     0
281
     0
  0
CLASS
  1
GSMANAGER
  2
AcMeGSManager
  3
AcMeServices
 90
        0
280
     0
281
     0
  0
CLASS
  1
AMDTINTERNALREACTOR
  2
AmdtInternalReactor
  3
AcMeServices
 90
        0
280
     0
281
     0
  0
CLASS
  1
ACMESTATEMGR
  2
AcMeStateMgr
  3
AcMeServices
 90
        0
280
     0
281
     0
  0
CLASS
  1
ACGREFMASTER
  2
AcGrefMaster
  3
AcAttribServices
 90
        0
280
     0
281
     0
  0
CLASS
  1
ACME_DATABASE
  2
AcMeDbDatabase
  3
AcMeServices
 90
        0
280
     0
281
     0
  0
CLASS
  1
ACRFINSADJUSTERMGR
  2
AcRfInsAdjusterMgr
  3
AcMeServices
 90
        0
280
     0
281
     0
  0
CLASS
  1
ACGREFACADMASTER
  2
AcGrefacadMaster
  3
AcGrefServices
 90
        0
280
     0
281
     0
  0
CLASS
  1
AMIMASTER
  2
AmiMaster
  3
AmiServices
 90
        0
280
     0
281
     0
  0
CLASS
  1
ACMDATADICTIONARY
  2
AcmDataDictionary
  3
"AcmSymBB|Product Description: AutoCAD Mechanical 2004 DX|Company: Autodesk"
 90
        0
280
     0
281
     0
  0
CLASS
  1
ACMDATAENTRYBLOCK
  2
AcmDataEntryBlock
  3
"AcmSymBB|Product Description: AutoCAD Mechanical 2004 DX|Company: Autodesk"
 90
    32768
280
     0
281
     0
  0
CLASS
  1
ACIMSTRSYSVAR
  2
AcImStrSysVar
  3
AcMeServices
 90
        0
280
     0
281
     0
  0
CLASS
  1
ACMSTANDARDISO
  2
AcmStandardISO
  3
"Amdt_StdImp|Product Description: AutoCAD Mechanical 2004 DX|Company: Autodesk"
 90
        0
280
     0
281
     0
  0
CLASS
  1
AMGOBJPROPCFG
  2
AmgObjPropCfg
  3
"AmgLay|Product Description: AutoCAD Mechanical 2000|Company: Autodesk"
 90
        1
280
     0
281
     0
  0
CLASS
  1
AMDTEDGESTANDARDISO
  2
AmdtEdgeStdISO
  3
"Amdt_StdImp|Product Description: AutoCAD Mechanical 2004 DX|Company: Autodesk"
 90
    32768
280
     0
281
     0
  0
CLASS
  1
ACMSURFSTANDARDISO
  2
AcmSurfTextStdISO
  3
"Amdt_StdImp|Product Description: AutoCAD Mechanical 2004 DX|Company: Autodesk"
 90
        0
280
     0
281
     0
  0
CLASS
  1
ACMFCFSTANDARDISO
  2
AcmFCFStdISO
  3
"Amdt_StdImp|Product Description: AutoCAD Mechanical 2004 DX|Company: Autodesk"
 90
        0
280
     0
281
     0
  0
CLASS
  1
ACMWELDSTANDARDISO
  2
AcmWeldingStdISO
  3
"Amdt_StdImp|Product Description: AutoCAD Mechanical 2004 DX|Company: Autodesk"
 90
        0
280
     0
281
     0
  0
CLASS
  1
ACMIDSTANDARDISO
  2
AcmIdStdISO
  3
"Amdt_StdImp|Product Description: AutoCAD Mechanical 2004 DX|Company: Autodesk"
 90
        0
280
     0
281
     0
  0
CLASS
  1
ACMDATUMSTANDARDISO
  2
AcmDatumStdISO
  3
"Amdt_StdImp|Product Description: AutoCAD Mechanical 2004 DX|Company: Autodesk"
 90
        0
280
     0
281
     0
  0
CLASS
  1
ACMBOMSTANDARDISO
  2
AcmBOMStdISO
  3
"Amdt_StdImp|Product Description: AutoCAD Mechanical 2004 DX|Company: Autodesk"
 90
        0
280
     0
281
     0
  0
CLASS
  1
ACMDETAILSTANDARDISO
  2
AmdtDetailSymStdISO
  3
"Amdt_StdImp|Product Description: AutoCAD Mechanical 2004 DX|Company: Autodesk"
 90
        0
280
     0
281
     0
  0
CLASS
  1
ACMSECTIONSTANDARDISO
  2
AmdtSectionSymStdISO
  3
"Amdt_StdImp|Product Description: AutoCAD Mechanical 2004 DX|Company: Autodesk"
 90
        0
280
     0
281
     0
  0
CLASS
  1
ACMCENTERLINESTANDARDISO
  2
AmdtCenterLineStdISO
  3
"Amdt_StdImp|Product Description: AutoCAD Mechanical 2004 DX|Company: Autodesk"
 90
        0
280
     0
281
     0
  0
CLASS
  1
ACMNOTESTANDARDISO
  2
AmdtNoteStdISO
  3
"Amdt_StdImp|Product Description: AutoCAD Mechanical 2004 DX|Company: Autodesk"
 90
        0
280
     0
281
     0
  0
CLASS
  1
ACAMGLAYSTD
  2
AcAmgLayStd
  3
"AcAmgLayStd|Product Description: AutoCAD Mechanical 2000|Company: Autodesk"
 90
        0
280
     0
281
     0
  0
CLASS
  1
ACAMGDIMSTD
  2
AcAmgDimStd
  3
"AcAmgDimStd|Product Description: AutoCAD Mechanical 2000|Company: Autodesk"
 90
        0
280
     0
281
     0
  0
CLASS
  1
ACAMGHOLECHARTSTDISO
  2
AcAmgHoleChartStdISO
  3
ACMSYMBB_MODULE_NAME
 90
        0
280
     0
281
     0
  0
CLASS
  1
ACAMGTITLESTD
  2
AcAmgTitleStd
  3
"TITLEAPP"
 90
        0
280
     0
281
     0
  0
CLASS
  1
ACAMGFILTERDAT
  2
AcAmgFilterDat
  3
"AcadM|Product Description: AutoCAD Mechanical 2000|Company: Autodesk"
 90
    32768
280
     0
281
     0
  0
CLASS
  1
LAYER_INDEX
  2
AcDbLayerIndex
  3
ObjectDBX Classes
 90
        0
280
     0
281
     0
  0
CLASS
  1
IDBUFFER
  2
AcDbIdBuffer
  3
ObjectDBX Classes
 90
        0
280
     0
281
     0
  0
CLASS
  1
TABLESTYLE
  2
AcDbTableStyle
  3
ObjectDBX Classes
 90
     2047
280
     0
281
     0
  0
CLASS
  1
DIMASSOC
  2
AcDbDimAssoc
  3
"AcDbDimAssoc|Product Desc:     AcDim ARX App For Dimension|Company:          Autodesk, Inc.|WEB Address:      www.autodesk.com"
 90
        0
280
     0
281
     0
  0
CLASS
  1
SORTENTSTABLE
  2
AcDbSortentsTable
  3
ObjectDBX Classes
 90
        0
280
     0
281
     0
  0
CLASS
  1
AM_DRAWING_MGR
  2
AcDmDwgMgr
  3
AcMechDwgViewMgmt
 90
        0
280
     0
281
     0
  0
CLASS
  1
AM_DWG_DOCUMENT
  2
AcDmDwgDocument
  3
AcMechDwgViewMgmt
 90
        0
280
     0
281
     0
  0
CLASS
  1
AM_DWG_SHEET
  2
AcDmSheet
  3
AcMechDwgViewMgmt
 90
        0
280
     0
281
     0
  0
CLASS
  1
AM_VIEWDIMPARMAP
  2
AcDmViewDimParMap
  3
AcMechDwgViewMgmt
 90
        0
280
     0
281
     0
  0
CLASS
  1
AM_DWGMGR_NAME
  2
AcDmDwgMgrName
  3
AcMechDwgViewMgmt
 90
        0
280
     0
281
     0
  0
CLASS
  1
AMDTMENUSTATEMGR
  2
AmdtMenuStateMgr
  3
McadcomServices
 90
        0
280
     0
281
     0
  0
CLASS
  1
AMDTMCOMMENUSTATE
  2
AmdtMcomMenuState
  3
McadcomServices
 90
        0
280
     0
281
     0
  0
CLASS
  1
MAPIAMMOUDLE
  2
MApiAmModule
  3
MApiAmServices
 90
        0
280
     0
281
     0
  0
CLASS
  1
AMDTADMENUSTATE
  2
AmdtAdMenuState
  3
DesignerServices
 90
        0
280
     0
281
     0
  0
CLASS
  1
ADAPPL
  2
AcAdAppl
  3
DesignerServices
 90
        0
280
     0
281
     0
  0
CLASS
  1
DEPMGR
  2
AcAdDepMgr
  3
DesignerServices
 90
        0
280
     0
281
     0
  0
CLASS
  1
PARAMMGR
  2
AcAdParamMgr
  3
DesignerServices
 90
        0
280
     0
281
     0
  0
CLASS
  1
PARAMSCOPE
  2
AcAdParamScope
  3
DesignerServices
 90
        0
280
     0
281
     0
  0
CLASS
  1
NAMEDAPPL
  2
AcAdNamedAppl
  3
DesignerServices
 90
        0
280
     0
281
     0
  0
CLASS
  1
AMDTDMMENUSTATE
  2
AmdtDmMenuState
  3
AcMechDwgViewMgmt
 90
        0
280
     0
281
     0
  0
CLASS
  1
AMDTAMMENUSTATE
  2
AmdtAmMenuState
  3
DesignerAssemblies
 90
        0
280
     0
281
     0
  0
CLASS
  1
ACAMPROJECT
  2
AcAmProject
  3
DesignerAssemblies
 90
        0
280
     0
281
     0
  0
CLASS
  1
ACAMGRCOMPDEF
  2
AcAmGrCompDef
  3
DesignerAssemblies
 90
        0
280
     0
281
     0
  0
CLASS
  1
ACCMCONTEXT
  2
AcCmContext
  3
DesignerAssemblies
 90
        0
280
     0
281
     0
  0
CLASS
  1
ACAMCOMPDEF
  2
AcAmCompDef
  3
DesignerAssemblies
 90
        0
280
     0
281
     0
  0
CLASS
  1
ACAMCOMPDEFMGR
  2
AcAmCompDefMgr
  3
DesignerAssemblies
 90
        0
280
     0
281
     0
  0
CLASS
  1
AMCONTEXTMGR
  2
AcAmContextMgr
  3
DesignerAssemblies
 90
        0
280
     0
281
     0
  0
CLASS
  1
ACAMCONTEXTMODELER
  2
AcAmContextModeler
  3
DesignerAssemblies
 90
        0
280
     0
281
     0
  0
CLASS
  1
CATALOGSTATE
  2
AcAmCatalogState
  3
DesignerAssemblies
 90
        0
280
     0
281
     0
  0
CLASS
  1
ACAMGRCOMPDEFSET
  2
AcAmGrCompDefSet
  3
DesignerAssemblies
 90
        0
280
     0
281
     0
  0
CLASS
  1
AMDTBROWSERDBTAB
  2
AmdtBrowserDbTab
  3
McadcomServices
 90
        0
280
     0
281
     0
  0
CLASS
  1
CBROWSERAPPOBJECT
  2
CBrowserAppObject
  3
McadcomServices
 90
        0
280
     0
281
     0
  0
CLASS
  1
DM_PLACEHOLDER
  2
AcDmSelsetPlaceholder
  3
AcMechDwgViewMgmt
 90
        0
280
     0
281
     0
  0
CLASS
  1
AMDTEDGESTANDARDISO13715
  2
AmdtEdgeStdISO13715
  3
"Amdt_StdImp|Product Description: AutoCAD Mechanical 2004 DX|Company: Autodesk"
 90
        0
280
     0
281
     0
  0
CLASS
  1
ACMTHREADLINESTANDARDISO
  2
AmdtThreadLineStdISO
  3
"Amdt_StdImp|Product Description: AutoCAD Mechanical 2004 DX|Company: Autodesk"
 90
        0
280
     0
281
     0
  0
CLASS
  1
AMDTNOTETEMPLATEDB
  2
AmdtNoteTemplateDB
  3
AMDT_STDIMP_MODULE_NAME
 90
        0
280
     0
281
     0
  0
CLASS
  1
ACRFATTGENMGR
  2
AcRfAttGeneralMgr
  3
AcAttribServices
 90
        0
280
     0
281
     0
  0
ENDSEC
  0
SECTION
  2
TABLES
  0
TABLE
  2
VPORT
  5
8
330
0
100
AcDbSymbolTable
 70
    10
  0
VPORT
  5
5E6A
330
8
100
AcDbSymbolTableRecord
100
AcDbViewportTableRecord
  2
*Active
 70
     0
 10
0.0
 20
0.0
 11
1.0
 21
1.0
 12
173.8777340874356
 22
234.2555176973498
 13
0.0
 23
0.0
 14
0.5
 24
0.5
 15
0.5
 25
0.5
 16
0.0
 26
0.0
 36
1.0
 17
0.0
 27
0.0
 37
0.0
 40
393.3621981051808
 41
1.661684782608695
 42
50.0
 43
0.0
 44
0.0
 50
0.0
 51
0.0
 71
     0
 72
   100
 73
     1
 74
     3
 75
     0
 76
     0
 77
     0
 78
     0
281
     0
 65
     1
110
0.0
120
0.0
130
0.0
111
1.0
121
0.0
131
0.0
112
0.0
122
1.0
132
0.0
 79
     0
146
0.0
  0
ENDTAB
  0
TABLE
  2
LTYPE
  5
5
330
0
100
AcDbSymbolTable
 70
    14
  0
LTYPE
  5
14
330
5
100
AcDbSymbolTableRecord
100
AcDbLinetypeTableRecord
  2
ByBlock
 70
     0
  3

 72
    65
 73
     0
 40
0.0
  0
LTYPE
  5
15
330
5
100
AcDbSymbolTableRecord
100
AcDbLinetypeTableRecord
  2
ByLayer
 70
     0
  3

 72
    65
 73
     0
 40
0.0
  0
LTYPE
  5
16
330
5
100
AcDbSymbolTableRecord
100
AcDbLinetypeTableRecord
  2
Continuous
 70
     0
  3
Solid line
 72
    65
 73
     0
 40
0.0
  0
LTYPE
  5
4F
330
5
100
AcDbSymbolTableRecord
100
AcDbLinetypeTableRecord
  2
CENTER
 70
     0
  3
Center ____ _ ____ _ ____ _ ____ _ ____ _ ____
 72
    65
 73
     4
 40
2.0
 49
1.25
 74
     0
 49
-0.25
 74
     0
 49
0.25
 74
     0
 49
-0.25
 74
     0
  0
LTYPE
  5
472E
330
5
100
AcDbSymbolTableRecord
100
AcDbLinetypeTableRecord
  2
AM_ISO02W050
 70
     0
  3
__ __ __ __ __ __ __ __ __ __ __ __ __ __ __
 72
    65
 73
     2
 40
7.5
 49
6.0
 74
     0
 49
-1.5
 74
     0
  0
LTYPE
  5
472F
330
5
100
AcDbSymbolTableRecord
100
AcDbLinetypeTableRecord
  2
AM_ISO08W050
 70
     0
  3
____ . ____ . ____ . ____ . ____ . ____ . ____
 72
    65
 73
     4
 40
18.0
 49
12.0
 74
     0
 49
-1.5
 74
     0
 49
3.0
 74
     0
 49
-1.5
 74
     0
  0
LTYPE
  5
4730
330
5
100
AcDbSymbolTableRecord
100
AcDbLinetypeTableRecord
  2
AM_ISO09W050
 70
     0
  3
_____ . . _____ . . _____ . . ____ .. ____
 72
    65
 73
     6
 40
22.5
 49
12.0
 74
     0
 49
-1.5
 74
     0
 49
3.0
 74
     0
 49
-1.5
 74
     0
 49
3.0
 74
     0
 49
-1.5
 74
     0
  0
LTYPE
  5
4731
330
5
100
AcDbSymbolTableRecord
100
AcDbLinetypeTableRecord
  2
Amconstr
 70
     0
  3
_______________________
 72
    65
 73
     2
 40
9999.0
 49
9999.0
 74
     0
 49
0.0
 74
     0
  0
LTYPE
  5
4732
330
5
100
AcDbSymbolTableRecord
100
AcDbLinetypeTableRecord
  2
AM_ISO08W050x2
 70
     0
  3
__ . __ . __ . __ . __ . __
 72
    65
 73
     4
 40
9.0
 49
6.0
 74
     0
 49
-0.75
 74
     0
 49
1.5
 74
     0
 49
-0.75
 74
     0
  0
LTYPE
  5
4733
330
5
100
AcDbSymbolTableRecord
100
AcDbLinetypeTableRecord
  2
AM_ISO02W050x2
 70
     0
  3
 _ _ _ _ _ _ _ _ _ _ _ _
 72
    65
 73
     2
 40
3.75
 49
3.0
 74
     0
 49
-0.75
 74
     0
  0
LTYPE
  5
4736
330
5
100
AcDbSymbolTableRecord
100
AcDbLinetypeTableRecord
  2
Amzigzag
 70
     0
  3
/\/-/\/-/\/-/\/-/\/-/\/
 72
    65
 73
     2
 40
11.0001
 49
0.0001
 74
     4
 75
   135
340
4735
 46
0.04
 50
0.0
 44
0.0
 45
0.0
 49
-11.0
 74
     0
  0
LTYPE
  5
4744
330
5
100
AcDbSymbolTableRecord
100
AcDbLinetypeTableRecord
  2
ACISOWELD
 70
     0
  3
_ _ _ _ _
 72
    65
 73
     2
 40
2.0
 49
2.0
 74
     0
 49
-1.0
 74
     0
  0
LTYPE
  5
4745
330
5
100
AcDbSymbolTableRecord
100
AcDbLinetypeTableRecord
  2
ACISOTGB
 70
     0
  3
__ . . __ . .
 72
    65
 73
     6
 40
9.0
 49
4.0
 74
     0
 49
-1.0
 74
     0
 49
1.0
 74
     0
 49
-1.0
 74
     0
 49
1.0
 74
     0
 49
-1.0
 74
     0
  0
LTYPE
  5
4746
330
5
100
AcDbSymbolTableRecord
100
AcDbLinetypeTableRecord
  2
ACISOTGL
 70
     0
  3
_ _ _ _ _
 72
    65
 73
     2
 40
3.0
 49
2.0
 74
     0
 49
-1.0
 74
     0
  0
LTYPE
  5
4A60
330
5
100
AcDbSymbolTableRecord
100
AcDbLinetypeTableRecord
  2
HIDDEN
 70
     0
  3
__ __ __ __ __ __ __ __ __ __ __ __ __ __ __ __
 72
    65
 73
     2
 40
0.375
 49
0.25
 74
     0
 49
-0.125
 74
     0
  0
LTYPE
  5
4A61
330
5
100
AcDbSymbolTableRecord
100
AcDbLinetypeTableRecord
  2
PHANTOM2
 70
     0
  3
___ _ _ ___ _ _ ___ _ _ ___ _ _ ___ _ _ ___ _ _
 72
    65
 73
     6
 40
1.25
 49
0.625
 74
     0
 49
-0.125
 74
     0
 49
0.125
 74
     0
 49
-0.125
 74
     0
 49
0.125
 74
     0
 49
-0.125
 74
     0
  0
ENDTAB
  0
TABLE
  2
LAYER
  5
2
102
{ACAD_XDICTIONARY
360
4A71
102
}
330
0
100
AcDbSymbolTable
 70
     7
  0
LAYER
  5
10
330
2
100
AcDbSymbolTableRecord
100
AcDbLayerTableRecord
  2
0
 70
     0
 62
     7
  6
Continuous
370
    -3
390
F
  0
LAYER
  5
48
330
2
100
AcDbSymbolTableRecord
100
AcDbLayerTableRecord
  2
DIM
 70
     0
 62
     5
  6
Continuous
370
    -3
390
F
  0
LAYER
  5
4A
330
2
100
AcDbSymbolTableRecord
100
AcDbLayerTableRecord
  2
CENTER
 70
     0
 62
     1
  6
CENTER
370
    -3
390
F
  0
LAYER
  5
1545
330
2
100
AcDbSymbolTableRecord
100
AcDbLayerTableRecord
  2
LOGO
 70
     0
 62
     7
  6
Continuous
370
    -3
390
F
  0
LAYER
  5
1A52
330
2
100
AcDbSymbolTableRecord
100
AcDbLayerTableRecord
  2
Defpoints
 70
     0
 62
     7
  6
Continuous
290
     0
370
    -3
390
F
  0
LAYER
  5
5DCF
330
2
100
AcDbSymbolTableRecord
100
AcDbLayerTableRecord
  2
AM_7
 70
     0
 62
     4
  6
AM_ISO08W050
370
    25
390
F
  0
LAYER
  5
5DD0
330
2
100
AcDbSymbolTableRecord
100
AcDbLayerTableRecord
  2
AM_5
 70
     0
 62
     3
  6
Continuous
370
    25
390
F
  0
ENDTAB
  0
TABLE
  2
STYLE
  5
3
330
0
100
AcDbSymbolTable
 70
     7
  0
STYLE
  5
11
330
3
100
AcDbSymbolTableRecord
100
AcDbTextStyleTableRecord
  2
Standard
 70
     0
 40
3.0
 41
1.0
 50
0.0
 71
     0
 42
3.0
  3
KAIU.TTF
  4

1001
ACAD
1000
DFKai-SB
1071
    34865
  0
STYLE
  5
5C
330
3
100
AcDbSymbolTableRecord
100
AcDbTextStyleTableRecord
  2
CHINESET
 70
     0
 40
3.0
 41
1.0
 50
0.0
 71
     0
 42
4.5
  3
simplex.shx
  4
CHINESET.shx
  0
STYLE
  5
4735
330
3
100
AcDbSymbolTableRecord
100
AcDbTextStyleTableRecord
  2

 70
     1
 40
0.0
 41
1.0
 50
0.0
 71
     0
 42
4.5
  3
ltypeshp.shx
  4

  0
STYLE
  5
4737
330
3
100
AcDbSymbolTableRecord
100
AcDbTextStyleTableRecord
  2
ACISOTS
 70
     0
 40
1.0
 41
1.0
 50
0.0
 71
     0
 42
4.5
  3
isocp.shx
  4
chineset.shx
  0
STYLE
  5
4743
330
3
100
AcDbSymbolTableRecord
100
AcDbTextStyleTableRecord
  2
ACISOGDT
 70
     0
 40
0.0
 41
1.0
 50
0.0
 71
     0
 42
4.5
  3
amgdt.shx
  4

  0
STYLE
  5
4A67
330
3
100
AcDbSymbolTableRecord
100
AcDbTextStyleTableRecord
  2
dayus
 70
     0
 40
3.0
 41
1.0
 50
0.0
 71
     0
 42
6.0
  3
simplex.shx
  4
dayus.shx
  0
ENDTAB
  0
TABLE
  2
VIEW
  5
6
330
0
100
AcDbSymbolTable
 70
     0
  0
ENDTAB
  0
TABLE
  2
UCS
  5
7
330
0
100
AcDbSymbolTable
 70
     0
  0
ENDTAB
  0
TABLE
  2
APPID
  5
9
330
0
100
AcDbSymbolTable
 70
    24
  0
APPID
  5
12
330
9
100
AcDbSymbolTableRecord
100
AcDbRegAppTableRecord
  2
ACAD
 70
     0
  0
APPID
  5
5F
330
9
100
AcDbSymbolTableRecord
100
AcDbRegAppTableRecord
  2
AD_DRAW
 70
     0
  0
APPID
  5
60
330
9
100
AcDbSymbolTableRecord
100
AcDbRegAppTableRecord
  2
DESIGNERASSEMBLIES
 70
     0
  0
APPID
  5
61
330
9
100
AcDbSymbolTableRecord
100
AcDbRegAppTableRecord
  2
MCAD_NO_VIS
 70
     0
  0
APPID
  5
62
330
9
100
AcDbSymbolTableRecord
100
AcDbRegAppTableRecord
  2
ASURF_PCURVE_APPNAME
 70
     0
  0
APPID
  5
11A1
330
9
100
AcDbSymbolTableRecord
100
AcDbRegAppTableRecord
  2
CONTENTBLOCKICON
 70
     0
  0
APPID
  5
31CE
330
9
100
AcDbSymbolTableRecord
100
AcDbRegAppTableRecord
  2
GENIUS_GENODEF_13
 70
     0
  0
APPID
  5
31CF
330
9
100
AcDbSymbolTableRecord
100
AcDbRegAppTableRecord
  2
GENIUS_GENOBJ-N-FIL_13
 70
     0
  0
APPID
  5
3922
330
9
100
AcDbSymbolTableRecord
100
AcDbRegAppTableRecord
  2
GENIUS_GENFIL_13
 70
     0
  0
APPID
  5
3923
330
9
100
AcDbSymbolTableRecord
100
AcDbRegAppTableRecord
  2
GENIUS_GENOBJ-N-CHA_13
 70
     0
  0
APPID
  5
4711
330
9
100
AcDbSymbolTableRecord
100
AcDbRegAppTableRecord
  2
ACAD_TEMP_GRAPHIC
 70
     0
  0
APPID
  5
4722
330
9
100
AcDbSymbolTableRecord
100
AcDbRegAppTableRecord
  2
ACATTRIBSERVICES
 70
     0
  0
APPID
  5
47C2
330
9
100
AcDbSymbolTableRecord
100
AcDbRegAppTableRecord
  2
GENIUS_GENOLIS_13
 70
     0
  0
APPID
  5
47C3
330
9
100
AcDbSymbolTableRecord
100
AcDbRegAppTableRecord
  2
GENIUS_GENOENT_13
 70
     0
  0
APPID
  5
47C4
330
9
100
AcDbSymbolTableRecord
100
AcDbRegAppTableRecord
  2
GENIUS_GENOBJ-N-CRS_13
 70
     0
  0
APPID
  5
47C5
330
9
100
AcDbSymbolTableRecord
100
AcDbRegAppTableRecord
  2
GENIUS_GENOREF_13
 70
     0
  0
APPID
  5
4A70
330
9
100
AcDbSymbolTableRecord
100
AcDbRegAppTableRecord
  2
GENIUS_GENDTOL_13
 70
     0
  0
APPID
  5
562A
330
9
100
AcDbSymbolTableRecord
100
AcDbRegAppTableRecord
  2
ACADM_DIM_EDIT
 70
     0
  0
APPID
  5
562B
330
9
100
AcDbSymbolTableRecord
100
AcDbRegAppTableRecord
  2
AMDT_DM_ADJ
 70
     0
  0
APPID
  5
564D
330
9
100
AcDbSymbolTableRecord
100
AcDbRegAppTableRecord
  2
ACAD_PSEXT
 70
     0
  0
APPID
  5
564E
330
9
100
AcDbSymbolTableRecord
100
AcDbRegAppTableRecord
  2
GENIUS_GENREC_14
 70
     0
  0
APPID
  5
564F
330
9
100
AcDbSymbolTableRecord
100
AcDbRegAppTableRecord
  2
GENIUS_GENOBJ-N-REC_13
 70
     0
  0
APPID
  5
5DD1
330
9
100
AcDbSymbolTableRecord
100
AcDbRegAppTableRecord
  2
GENIUS_GENOBJ-N-CEN_13
 70
     0
  0
APPID
  5
5DD2
330
9
100
AcDbSymbolTableRecord
100
AcDbRegAppTableRecord
  2
GENIUS_GENCEN_19
 70
     0
  0
ENDTAB
  0
TABLE
  2
DIMSTYLE
  5
A
330
0
100
AcDbSymbolTable
 70
    11
100
AcDbDimStyleTable
 71
     1
340
1A4
  0
DIMSTYLE
105
1A4
330
A
100
AcDbSymbolTableRecord
100
AcDbDimStyleTableRecord
  2
ISO-25-1
 70
     0
 41
3.0
 42
3.0
 43
2.0
 44
2.0
 73
     0
 74
     0
 77
     1
 78
     8
 79
     2
140
3.0
141
-3.0
146
0.7
147
1.0
172
     1
176
   256
177
   256
178
   256
271
     2
272
     2
284
     8
289
     0
340
5C
371
    -1
372
    -1
  0
DIMSTYLE
105
474A
330
A
100
AcDbSymbolTableRecord
100
AcDbDimStyleTableRecord
  2
AM_ISO
 70
     0
  4
"
 41
2.5
 42
1.0
 43
10.0
 44
1.0
 47
0.1
 48
0.1
 73
     0
 74
     0
 77
     1
 78
     8
 79
     2
140
3.5
141
0.0
143
0.0393701
146
0.71
147
1.5
172
     1
176
   256
177
   256
178
     2
271
     2
272
     3
274
     4
283
     0
284
     8
340
11
371
    -1
372
    -1
  0
DIMSTYLE
105
474B
330
A
100
AcDbSymbolTableRecord
100
AcDbDimStyleTableRecord
  2
AM_ISO$3
 70
     0
  4
"
 41
2.5
 42
1.0
 43
10.0
 44
1.0
 47
0.1
 48
0.1
 73
     0
 77
     1
 78
     8
 79
     2
140
3.5
141
0.0
143
0.0393701
146
0.71
147
1.5
176
   256
177
   256
178
     2
271
     2
272
     3
274
     4
283
     0
284
     8
288
     1
289
     0
340
11
371
    -1
372
    -1
  0
DIMSTYLE
105
474C
330
A
100
AcDbSymbolTableRecord
100
AcDbDimStyleTableRecord
  2
AM_ISO$4
 70
     0
  4
"
 41
2.5
 42
1.0
 43
10.0
 44
1.0
 47
0.1
 48
0.1
 73
     0
 77
     1
 78
     8
 79
     2
140
3.5
141
0.0
143
0.0393701
146
0.71
147
1.5
176
   256
177
   256
178
     2
271
     2
272
     3
274
     4
283
     0
284
     8
288
     1
289
     0
340
11
371
    -1
372
    -1
  0
DIMSTYLE
105
474D
330
A
100
AcDbSymbolTableRecord
100
AcDbDimStyleTableRecord
  2
AM_ISO$6
 70
     0
  4
"
 41
2.5
 42
1.0
 43
10.0
 44
1.0
 47
0.1
 48
0.1
 73
     0
 74
     0
 78
     8
 79
     2
140
3.5
141
0.0
143
0.0393701
146
0.71
147
1.5
172
     1
176
   256
177
   256
178
     2
271
     2
272
     3
274
     4
283
     0
284
     8
340
11
371
    -1
372
    -1
  0
DIMSTYLE
105
474E
330
A
100
AcDbSymbolTableRecord
100
AcDbDimStyleTableRecord
  2
AM_ISO$7
 70
     0
  4
"
 41
2.5
 42
1.0
 43
10.0
 44
1.0
 47
0.1
 48
0.1
 73
     0
 74
     0
 77
     1
 78
     8
 79
     2
140
5.0
141
0.0
143
0.0393701
146
0.71
147
1.5
172
     1
176
   256
177
   256
178
     2
271
     2
272
     3
274
     4
283
     0
284
     8
340
11
371
    -1
372
    -1
  0
DIMSTYLE
105
474F
330
A
100
AcDbSymbolTableRecord
100
AcDbDimStyleTableRecord
  2
AM_ISO$SF
 70
     0
  4
"
 41
2.5
 42
1.0
 43
10.0
 44
1.0
 47
0.1
 48
0.1
 73
     0
 74
     0
 75
     1
 76
     1
 77
     1
 78
     8
 79
     2
140
3.5
141
0.0
143
0.0393701
146
0.71
147
1.5
172
     1
176
   256
177
   256
178
     2
271
     2
272
     3
274
     4
283
     0
284
     8
340
11
371
    -1
372
    -1
  0
DIMSTYLE
105
4754
330
A
100
AcDbSymbolTableRecord
100
AcDbDimStyleTableRecord
  2
AM_ISO$SH
 70
     0
  4
"
 41
2.5
 42
1.0
 43
10.0
 44
1.0
 47
0.1
 48
0.1
 73
     0
 74
     0
 75
     1
 76
     1
 77
     1
 78
     8
 79
     2
140
3.5
141
0.0
143
0.0393701
144
2.0
146
0.71
147
1.5
172
     1
173
     1
176
   256
177
   256
178
     2
271
     2
272
     3
274
     4
283
     0
284
     8
340
11
341
4750
343
4750
371
    -1
372
    -1
  0
DIMSTYLE
105
4A6A
102
{ACAD_REACTORS
330
4F58
330
4F5B
330
4F5E
330
4F61
330
4F64
330
4F67
330
4F6A
330
4F6D
330
4F70
330
4F73
330
4F76
330
4F7D
330
4F82
330
4F85
330
4F88
330
4F8B
330
4F8E
330
4F93
330
4F96
330
4F99
330
4F9C
330
4F9F
330
4FA2
330
4FA5
330
4FA8
330
4FAB
330
4FB0
330
4FB3
330
4FB6
330
4FB9
330
4FBC
330
518B
330
518E
330
5191
330
5194
330
5197
102
}
330
A
100
AcDbSymbolTableRecord
100
AcDbDimStyleTableRecord
  2
AM_ANSI
 70
     0
  4
"
 41
2.5
 42
1.0
 43
10.0
 44
1.0
 47
0.1
 48
0.1
 78
     8
 79
     2
140
3.5
141
0.0
143
0.0393701
146
0.71
147
1.5
176
   256
177
   256
178
     2
271
     2
272
     3
274
     4
284
     8
340
11
371
    -1
372
    -1
  0
DIMSTYLE
105
4A6D
330
A
100
AcDbSymbolTableRecord
100
AcDbDimStyleTableRecord
  2
AM_ANSI$7
 70
     0
  4
"
 41
2.5
 42
1.0
 43
10.0
 44
1.0
 47
0.1
 48
0.1
 78
     8
 79
     2
140
5.0
141
0.0
143
0.0393701
146
0.71
147
1.5
176
   256
177
   256
178
     2
271
     2
272
     3
274
     4
284
     8
340
11
371
    -1
372
    -1
  0
ENDTAB
  0
TABLE
  2
BLOCK_RECORD
  5
1
330
0
100
AcDbSymbolTable
 70
    42
  0
BLOCK_RECORD
  5
1F
102
{ACAD_XDICTIONARY
360
4673
102
}
330
1
100
AcDbSymbolTableRecord
100
AcDbBlockTableRecord
  2
*Model_Space
340
22
  0
BLOCK_RECORD
  5
1B
102
{ACAD_XDICTIONARY
360
4675
102
}
330
1
100
AcDbSymbolTableRecord
100
AcDbBlockTableRecord
  2
*Paper_Space
340
1E
  0
BLOCK_RECORD
  5
23
102
{ACAD_XDICTIONARY
360
4677
102
}
330
1
100
AcDbSymbolTableRecord
100
AcDbBlockTableRecord
  2
*Paper_Space0
340
26
  0
BLOCK_RECORD
  5
4750
330
1
100
AcDbSymbolTableRecord
100
AcDbBlockTableRecord
  2
GENAXEH
340
0
  0
BLOCK_RECORD
  5
4FC3
330
1
100
AcDbSymbolTableRecord
100
AcDbBlockTableRecord
  2
*D2
340
0
  0
BLOCK_RECORD
  5
4FCF
330
1
100
AcDbSymbolTableRecord
100
AcDbBlockTableRecord
  2
*D3
340
0
  0
BLOCK_RECORD
  5
4FDB
330
1
100
AcDbSymbolTableRecord
100
AcDbBlockTableRecord
  2
*D4
340
0
  0
BLOCK_RECORD
  5
4FE7
330
1
100
AcDbSymbolTableRecord
100
AcDbBlockTableRecord
  2
*D5
340
0
  0
BLOCK_RECORD
  5
4FF5
330
1
100
AcDbSymbolTableRecord
100
AcDbBlockTableRecord
  2
*D6
340
0
  0
BLOCK_RECORD
  5
5001
330
1
100
AcDbSymbolTableRecord
100
AcDbBlockTableRecord
  2
*D7
340
0
  0
BLOCK_RECORD
  5
500D
330
1
100
AcDbSymbolTableRecord
100
AcDbBlockTableRecord
  2
*D8
340
0
  0
BLOCK_RECORD
  5
5019
330
1
100
AcDbSymbolTableRecord
100
AcDbBlockTableRecord
  2
*D9
340
0
  0
BLOCK_RECORD
  5
5025
330
1
100
AcDbSymbolTableRecord
100
AcDbBlockTableRecord
  2
*D10
340
0
  0
BLOCK_RECORD
  5
5031
330
1
100
AcDbSymbolTableRecord
100
AcDbBlockTableRecord
  2
*D11
340
0
  0
BLOCK_RECORD
  5
503D
330
1
100
AcDbSymbolTableRecord
100
AcDbBlockTableRecord
  2
*D12
340
0
  0
BLOCK_RECORD
  5
5049
330
1
100
AcDbSymbolTableRecord
100
AcDbBlockTableRecord
  2
*D13
340
0
  0
BLOCK_RECORD
  5
5057
330
1
100
AcDbSymbolTableRecord
100
AcDbBlockTableRecord
  2
*D14
340
0
  0
BLOCK_RECORD
  5
5063
330
1
100
AcDbSymbolTableRecord
100
AcDbBlockTableRecord
  2
*D15
340
0
  0
BLOCK_RECORD
  5
506F
330
1
100
AcDbSymbolTableRecord
100
AcDbBlockTableRecord
  2
*D16
340
0
  0
BLOCK_RECORD
  5
507B
330
1
100
AcDbSymbolTableRecord
100
AcDbBlockTableRecord
  2
*D17
340
0
  0
BLOCK_RECORD
  5
5087
330
1
100
AcDbSymbolTableRecord
100
AcDbBlockTableRecord
  2
*D18
340
0
  0
BLOCK_RECORD
  5
5093
330
1
100
AcDbSymbolTableRecord
100
AcDbBlockTableRecord
  2
*D19
340
0
  0
BLOCK_RECORD
  5
509F
330
1
100
AcDbSymbolTableRecord
100
AcDbBlockTableRecord
  2
*D20
340
0
  0
BLOCK_RECORD
  5
50AD
330
1
100
AcDbSymbolTableRecord
100
AcDbBlockTableRecord
  2
*D21
340
0
  0
BLOCK_RECORD
  5
50B9
330
1
100
AcDbSymbolTableRecord
100
AcDbBlockTableRecord
  2
*D22
340
0
  0
BLOCK_RECORD
  5
50C5
330
1
100
AcDbSymbolTableRecord
100
AcDbBlockTableRecord
  2
*D23
340
0
  0
BLOCK_RECORD
  5
50D1
330
1
100
AcDbSymbolTableRecord
100
AcDbBlockTableRecord
  2
*D24
340
0
  0
BLOCK_RECORD
  5
50DD
330
1
100
AcDbSymbolTableRecord
100
AcDbBlockTableRecord
  2
*D25
340
0
  0
BLOCK_RECORD
  5
50E9
330
1
100
AcDbSymbolTableRecord
100
AcDbBlockTableRecord
  2
*D26
340
0
  0
BLOCK_RECORD
  5
50F5
330
1
100
AcDbSymbolTableRecord
100
AcDbBlockTableRecord
  2
*D27
340
0
  0
BLOCK_RECORD
  5
5103
330
1
100
AcDbSymbolTableRecord
100
AcDbBlockTableRecord
  2
*D28
340
0
  0
BLOCK_RECORD
  5
510F
330
1
100
AcDbSymbolTableRecord
100
AcDbBlockTableRecord
  2
*D29
340
0
  0
BLOCK_RECORD
  5
511B
330
1
100
AcDbSymbolTableRecord
100
AcDbBlockTableRecord
  2
*D30
340
0
  0
BLOCK_RECORD
  5
5127
330
1
100
AcDbSymbolTableRecord
100
AcDbBlockTableRecord
  2
*D31
340
0
  0
BLOCK_RECORD
  5
5133
330
1
100
AcDbSymbolTableRecord
100
AcDbBlockTableRecord
  2
*D32
340
0
  0
BLOCK_RECORD
  5
519A
330
1
100
AcDbSymbolTableRecord
100
AcDbBlockTableRecord
  2
*D33
340
0
  0
BLOCK_RECORD
  5
51A6
330
1
100
AcDbSymbolTableRecord
100
AcDbBlockTableRecord
  2
*D34
340
0
  0
BLOCK_RECORD
  5
51B2
330
1
100
AcDbSymbolTableRecord
100
AcDbBlockTableRecord
  2
*D35
340
0
  0
BLOCK_RECORD
  5
51BE
330
1
100
AcDbSymbolTableRecord
100
AcDbBlockTableRecord
  2
*D36
340
0
  0
BLOCK_RECORD
  5
51CA
330
1
100
AcDbSymbolTableRecord
100
AcDbBlockTableRecord
  2
*D37
340
0
  0
BLOCK_RECORD
  5
5D57
102
{ACAD_XDICTIONARY
360
5D58
102
}
330
1
100
AcDbSymbolTableRecord
100
AcDbBlockTableRecord
  2
A$C5ECF147B
340
0
102
{BLKREFS
331
5D85
331
5D93
331
5D94
331
5DA5
331
5DB3
331
5DB4
102
}
  0
BLOCK_RECORD
  5
5DC6
102
{ACAD_XDICTIONARY
360
5DC7
102
}
330
1
100
AcDbSymbolTableRecord
100
AcDbBlockTableRecord
  2
A$C1F6E6265
340
0
102
{BLKREFS
331
5DDC
331
5DEA
102
}
  0
ENDTAB
  0
ENDSEC
  0
SECTION
  2
BLOCKS
  0
BLOCK
  5
20
330
1F
100
AcDbEntity
  8
0
100
AcDbBlockBegin
  2
*Model_Space
 70
     0
 10
0.0
 20
0.0
 30
0.0
  3
*Model_Space
  1

  0
ENDBLK
  5
21
330
1F
100
AcDbEntity
  8
0
100
AcDbBlockEnd
  0
BLOCK
  5
1C
330
1B
100
AcDbEntity
 67
     1
  8
0
100
AcDbBlockBegin
  2
*Paper_Space
 70
     0
 10
0.0
 20
0.0
 30
0.0
  3
*Paper_Space
  1

  0
ENDBLK
  5
1D
330
1B
100
AcDbEntity
 67
     1
  8
0
100
AcDbBlockEnd
  0
BLOCK
  5
24
330
23
100
AcDbEntity
  8
0
100
AcDbBlockBegin
  2
*Paper_Space0
 70
     0
 10
0.0
 20
0.0
 30
0.0
  3
*Paper_Space0
  1

  0
ENDBLK
  5
25
330
23
100
AcDbEntity
  8
0
100
AcDbBlockEnd
  0
BLOCK
  5
4752
330
4750
100
AcDbEntity
  8
0
100
AcDbBlockBegin
  2
GENAXEH
 70
     0
 10
0.0
 20
0.0
 30
0.0
  3
GENAXEH
  1

  0
LINE
  5
4751
330
4750
100
AcDbEntity
  8
0
100
AcDbLine
 10
-1.0
 20
0.0
 30
0.0
 11
1.0
 21
0.0
 31
0.0
  0
ENDBLK
  5
4753
330
4750
100
AcDbEntity
  8
0
100
AcDbBlockEnd
  0
BLOCK
  5
4FCD
330
4FC3
100
AcDbEntity
  8
0
100
AcDbBlockBegin
  2
*D2
 70
     1
 10
0.0
 20
0.0
 30
0.0
  3
*D2
  1

  0
LINE
  5
5A95
330
4FC3
100
AcDbEntity
  8
DIM
100
AcDbLine
 10
122.8795879768396
 20
322.0806744638262
 30
0.0
 11
122.8795879768396
 21
333.9602350826917
 31
0.0
  0
LINE
  5
5A96
330
4FC3
100
AcDbEntity
  8
DIM
100
AcDbLine
 10
133.8793688739839
 20
322.1350604964767
 30
0.0
 11
133.8793688739839
 21
333.9602350826917
 31
0.0
  0
LINE
  5
5A97
330
4FC3
100
AcDbEntity
  8
DIM
100
AcDbLine
 10
125.8795879768396
 20
331.9602350826917
 30
0.0
 11
130.8793688739839
 21
331.9602350826917
 31
0.0
  0
SOLID
  5
5A98
330
4FC3
100
AcDbEntity
  8
DIM
100
AcDbTrace
 10
125.8795879768396
 20
332.4602350826917
 30
0.0
 11
125.8795879768396
 21
331.4602350826917
 31
0.0
 12
122.8795879768396
 22
331.9602350826917
 32
0.0
 13
122.8795879768396
 23
331.9602350826917
 33
0.0
  0
SOLID
  5
5A99
330
4FC3
100
AcDbEntity
  8
DIM
100
AcDbTrace
 10
130.8793688739839
 20
332.4602350826917
 30
0.0
 11
130.8793688739839
 21
331.4602350826917
 31
0.0
 12
133.8793688739839
 22
331.9602350826917
 32
0.0
 13
133.8793688739839
 23
331.9602350826917
 33
0.0
  0
MTEXT
  5
5A9A
330
4FC3
100
AcDbEntity
  8
DIM
100
AcDbMText
 10
128.3794784254117
 20
334.4602350826917
 30
0.0
 40
3.0
 41
0.0
 71
     5
 72
     1
  1
\A1;11
  7
dayus
 73
     1
 44
1.0
1001
ACAD
1000
MTEXTBEGIN
1070
    73
1070
     1
1070
    44
1040
1.0
1070
    74
1070
     0
1000
MTEXTEND
  0
POINT
  5
5A9B
330
4FC3
100
AcDbEntity
  8
Defpoints
 62
     0
100
AcDbPoint
 10
122.8795879768396
 20
320.0806744638262
 30
0.0
  0
POINT
  5
5A9C
330
4FC3
100
AcDbEntity
  8
Defpoints
 62
     0
100
AcDbPoint
 10
133.8793688739839
 20
320.1350604964767
 30
0.0
  0
POINT
  5
5A9D
330
4FC3
100
AcDbEntity
  8
Defpoints
 62
     0
100
AcDbPoint
 10
133.8793688739839
 20
331.9602350826917
 30
0.0
  0
ENDBLK
  5
4FCE
330
4FC3
100
AcDbEntity
  8
0
100
AcDbBlockEnd
  0
BLOCK
  5
4FD9
330
4FCF
100
AcDbEntity
  8
0
100
AcDbBlockBegin
  2
*D3
 70
     1
 10
0.0
 20
0.0
 30
0.0
  3
*D3
  1

  0
LINE
  5
5A9E
330
4FCF
100
AcDbEntity
  8
DIM
100
AcDbLine
 10
117.6450171360198
 20
319.3893315127364
 30
0.0
 11
117.6450171360198
 21
341.3658385725989
 31
0.0
  0
LINE
  5
5A9F
330
4FCF
100
AcDbEntity
  8
DIM
100
AcDbLine
 10
142.6450171360198
 20
318.3893315127364
 30
0.0
 11
142.6450171360198
 21
341.3658385725989
 31
0.0
  0
LINE
  5
5AA0
330
4FCF
100
AcDbEntity
  8
DIM
100
AcDbLine
 10
120.6450171360198
 20
339.3658385725989
 30
0.0
 11
139.6450171360198
 21
339.3658385725989
 31
0.0
  0
SOLID
  5
5AA1
330
4FCF
100
AcDbEntity
  8
DIM
100
AcDbTrace
 10
120.6450171360198
 20
339.8658385725989
 30
0.0
 11
120.6450171360198
 21
338.8658385725989
 31
0.0
 12
117.6450171360198
 22
339.3658385725989
 32
0.0
 13
117.6450171360198
 23
339.3658385725989
 33
0.0
  0
SOLID
  5
5AA2
330
4FCF
100
AcDbEntity
  8
DIM
100
AcDbTrace
 10
139.6450171360198
 20
339.8658385725989
 30
0.0
 11
139.6450171360198
 21
338.8658385725989
 31
0.0
 12
142.6450171360198
 22
339.3658385725989
 32
0.0
 13
142.6450171360198
 23
339.3658385725989
 33
0.0
  0
MTEXT
  5
5AA3
330
4FCF
100
AcDbEntity
  8
DIM
100
AcDbMText
 10
130.1450171360198
 20
341.865838572599
 30
0.0
 40
3.0
 41
0.0
 71
     5
 72
     1
  1
\A1;25
  7
dayus
 73
     1
 44
1.0
1001
ACAD
1000
MTEXTBEGIN
1070
    73
1070
     1
1070
    44
1040
1.0
1070
    74
1070
     0
1000
MTEXTEND
  0
POINT
  5
5AA4
330
4FCF
100
AcDbEntity
  8
Defpoints
 62
     0
100
AcDbPoint
 10
117.6450171360198
 20
317.3893315127364
 30
0.0
  0
POINT
  5
5AA5
330
4FCF
100
AcDbEntity
  8
Defpoints
 62
     0
100
AcDbPoint
 10
142.6450171360198
 20
316.3893315127364
 30
0.0
  0
POINT
  5
5AA6
330
4FCF
100
AcDbEntity
  8
Defpoints
 62
     0
100
AcDbPoint
 10
142.6450171360198
 20
339.3658385725989
 30
0.0
  0
ENDBLK
  5
4FDA
330
4FCF
100
AcDbEntity
  8
0
100
AcDbBlockEnd
  0
BLOCK
  5
4FE5
330
4FDB
100
AcDbEntity
  8
0
100
AcDbBlockBegin
  2
*D4
 70
     1
 10
0.0
 20
0.0
 30
0.0
  3
*D4
  1

  0
LINE
  5
5AA7
330
4FDB
100
AcDbEntity
  8
DIM
100
AcDbLine
 10
114.6450171360207
 20
319.3893315127366
 30
0.0
 11
114.6450171360207
 21
348.6171587632193
 31
0.0
  0
LINE
  5
5AA8
330
4FDB
100
AcDbEntity
  8
DIM
100
AcDbLine
 10
142.6450171360198
 20
318.3893315127364
 30
0.0
 11
142.6450171360198
 21
348.6171587632193
 31
0.0
  0
LINE
  5
5AA9
330
4FDB
100
AcDbEntity
  8
DIM
100
AcDbLine
 10
117.6450171360208
 20
346.6171587632193
 30
0.0
 11
139.6450171360198
 21
346.6171587632193
 31
0.0
  0
SOLID
  5
5AAA
330
4FDB
100
AcDbEntity
  8
DIM
100
AcDbTrace
 10
117.6450171360208
 20
347.1171587632193
 30
0.0
 11
117.6450171360208
 21
346.1171587632193
 31
0.0
 12
114.6450171360207
 22
346.6171587632193
 32
0.0
 13
114.6450171360207
 23
346.6171587632193
 33
0.0
  0
SOLID
  5
5AAB
330
4FDB
100
AcDbEntity
  8
DIM
100
AcDbTrace
 10
139.6450171360198
 20
347.1171587632193
 30
0.0
 11
139.6450171360198
 21
346.1171587632193
 31
0.0
 12
142.6450171360198
 22
346.6171587632193
 32
0.0
 13
142.6450171360198
 23
346.6171587632193
 33
0.0
  0
MTEXT
  5
5AAC
330
4FDB
100
AcDbEntity
  8
DIM
100
AcDbMText
 10
128.6450171360203
 20
349.1171587632193
 30
0.0
 40
3.0
 41
0.0
 71
     5
 72
     1
  1
\A1;28
  7
dayus
 73
     1
 44
1.0
1001
ACAD
1000
MTEXTBEGIN
1070
    73
1070
     1
1070
    44
1040
1.0
1070
    74
1070
     0
1000
MTEXTEND
  0
POINT
  5
5AAD
330
4FDB
100
AcDbEntity
  8
Defpoints
 62
     0
100
AcDbPoint
 10
114.6450171360207
 20
317.3893315127366
 30
0.0
  0
POINT
  5
5AAE
330
4FDB
100
AcDbEntity
  8
Defpoints
 62
     0
100
AcDbPoint
 10
142.6450171360198
 20
316.3893315127364
 30
0.0
  0
POINT
  5
5AAF
330
4FDB
100
AcDbEntity
  8
Defpoints
 62
     0
100
AcDbPoint
 10
142.6450171360198
 20
346.6171587632193
 30
0.0
  0
ENDBLK
  5
4FE6
330
4FDB
100
AcDbEntity
  8
0
100
AcDbBlockEnd
  0
BLOCK
  5
4FF3
330
4FE7
100
AcDbEntity
  8
0
100
AcDbBlockBegin
  2
*D5
 70
     1
 10
0.0
 20
0.0
 30
0.0
  3
*D5
  1

  0
LINE
  5
5AB0
330
4FE7
100
AcDbEntity
  8
DIM
100
AcDbLine
 10
105.6450171360199
 20
341.3893315127374
 30
0.0
 11
105.6450171360199
 21
353.5592579445997
 31
0.0
  0
LINE
  5
5AB1
330
4FE7
100
AcDbEntity
  8
DIM
100
AcDbLine
 10
109.6450171360194
 20
328.8893315127364
 30
0.0
 11
109.6450171360194
 21
353.5592579445997
 31
0.0
  0
LINE
  5
5AB2
330
4FE7
100
AcDbEntity
  8
DIM
100
AcDbLine
 10
102.6450171360199
 20
351.5592579445997
 30
0.0
 11
99.64501713601988
 21
351.5592579445997
 31
0.0
  0
LINE
  5
5AB3
330
4FE7
100
AcDbEntity
  8
DIM
100
AcDbLine
 10
112.6450171360194
 20
351.5592579445997
 30
0.0
 11
115.6450171360194
 21
351.5592579445997
 31
0.0
  0
LINE
  5
5AB4
330
4FE7
100
AcDbEntity
  8
DIM
100
AcDbLine
 10
105.6450171360199
 20
351.5592579445997
 30
0.0
 11
109.6450171360194
 21
351.5592579445997
 31
0.0
  0
SOLID
  5
5AB5
330
4FE7
100
AcDbEntity
  8
DIM
100
AcDbTrace
 10
102.6450171360199
 20
352.0592579445997
 30
0.0
 11
102.6450171360199
 21
351.0592579445997
 31
0.0
 12
105.6450171360199
 22
351.5592579445997
 32
0.0
 13
105.6450171360199
 23
351.5592579445997
 33
0.0
  0
SOLID
  5
5AB6
330
4FE7
100
AcDbEntity
  8
DIM
100
AcDbTrace
 10
112.6450171360194
 20
352.0592579445997
 30
0.0
 11
112.6450171360194
 21
351.0592579445997
 31
0.0
 12
109.6450171360194
 22
351.5592579445997
 32
0.0
 13
109.6450171360194
 23
351.5592579445997
 33
0.0
  0
MTEXT
  5
5AB7
330
4FE7
100
AcDbEntity
  8
DIM
100
AcDbMText
 10
107.6450171360196
 20
354.0592579445997
 30
0.0
 40
3.0
 41
0.0
 71
     5
 72
     1
  1
\A1;4
  7
dayus
 73
     1
 44
1.0
1001
ACAD
1000
MTEXTBEGIN
1070
    73
1070
     1
1070
    44
1040
1.0
1070
    74
1070
     0
1000
MTEXTEND
  0
POINT
  5
5AB8
330
4FE7
100
AcDbEntity
  8
Defpoints
 62
     0
100
AcDbPoint
 10
105.6450171360199
 20
339.3893315127374
 30
0.0
  0
POINT
  5
5AB9
330
4FE7
100
AcDbEntity
  8
Defpoints
 62
     0
100
AcDbPoint
 10
109.6450171360194
 20
326.8893315127364
 30
0.0
  0
POINT
  5
5ABA
330
4FE7
100
AcDbEntity
  8
Defpoints
 62
     0
100
AcDbPoint
 10
109.6450171360194
 20
351.5592579445997
 30
0.0
  0
ENDBLK
  5
4FF4
330
4FE7
100
AcDbEntity
  8
0
100
AcDbBlockEnd
  0
BLOCK
  5
4FFF
330
4FF5
100
AcDbEntity
  8
0
100
AcDbBlockBegin
  2
*D6
 70
     1
 10
0.0
 20
0.0
 30
0.0
  3
*D6
  1

  0
LINE
  5
5ABB
330
4FF5
100
AcDbEntity
  8
DIM
100
AcDbLine
 10
105.6450171360199
 20
341.3893315127374
 30
0.0
 11
105.6450171360199
 21
361.615198143282
 31
0.0
  0
LINE
  5
5ABC
330
4FF5
100
AcDbEntity
  8
DIM
100
AcDbLine
 10
142.6450171360198
 20
318.3893315127364
 30
0.0
 11
142.6450171360198
 21
361.615198143282
 31
0.0
  0
LINE
  5
5ABD
330
4FF5
100
AcDbEntity
  8
DIM
100
AcDbLine
 10
108.6450171360199
 20
359.615198143282
 30
0.0
 11
139.6450171360198
 21
359.615198143282
 31
0.0
  0
SOLID
  5
5ABE
330
4FF5
100
AcDbEntity
  8
DIM
100
AcDbTrace
 10
108.6450171360199
 20
360.115198143282
 30
0.0
 11
108.6450171360199
 21
359.115198143282
 31
0.0
 12
105.6450171360199
 22
359.615198143282
 32
0.0
 13
105.6450171360199
 23
359.615198143282
 33
0.0
  0
SOLID
  5
5ABF
330
4FF5
100
AcDbEntity
  8
DIM
100
AcDbTrace
 10
139.6450171360198
 20
360.115198143282
 30
0.0
 11
139.6450171360198
 21
359.115198143282
 31
0.0
 12
142.6450171360198
 22
359.615198143282
 32
0.0
 13
142.6450171360198
 23
359.615198143282
 33
0.0
  0
MTEXT
  5
5AC0
330
4FF5
100
AcDbEntity
  8
DIM
100
AcDbMText
 10
124.1450171360199
 20
362.115198143282
 30
0.0
 40
3.0
 41
0.0
 71
     5
 72
     1
  1
\A1;37
  7
dayus
 73
     1
 44
1.0
1001
ACAD
1000
MTEXTBEGIN
1070
    73
1070
     1
1070
    44
1040
1.0
1070
    74
1070
     0
1000
MTEXTEND
  0
POINT
  5
5AC1
330
4FF5
100
AcDbEntity
  8
Defpoints
 62
     0
100
AcDbPoint
 10
105.6450171360199
 20
339.3893315127374
 30
0.0
  0
POINT
  5
5AC2
330
4FF5
100
AcDbEntity
  8
Defpoints
 62
     0
100
AcDbPoint
 10
142.6450171360198
 20
316.3893315127364
 30
0.0
  0
POINT
  5
5AC3
330
4FF5
100
AcDbEntity
  8
Defpoints
 62
     0
100
AcDbPoint
 10
142.6450171360198
 20
359.615198143282
 30
0.0
  0
ENDBLK
  5
5000
330
4FF5
100
AcDbEntity
  8
0
100
AcDbBlockEnd
  0
BLOCK
  5
500B
330
5001
100
AcDbEntity
  8
0
100
AcDbBlockBegin
  2
*D7
 70
     1
 10
0.0
 20
0.0
 30
0.0
  3
*D7
  1

  0
LINE
  5
5C7D
330
5001
100
AcDbEntity
  8
DIM
100
AcDbLine
 10
72.64501713601987
 20
341.3893315127374
 30
0.0
 11
72.64501713601987
 21
361.615198143282
 31
0.0
  0
LINE
  5
5C7E
330
5001
100
AcDbEntity
  8
DIM
100
AcDbLine
 10
105.6450171360199
 20
341.3893315127353
 30
0.0
 11
105.6450171360199
 21
361.615198143282
 31
0.0
  0
LINE
  5
5C7F
330
5001
100
AcDbEntity
  8
DIM
100
AcDbLine
 10
75.64501713601988
 20
359.615198143282
 30
0.0
 11
102.6450171360199
 21
359.615198143282
 31
0.0
  0
SOLID
  5
5C80
330
5001
100
AcDbEntity
  8
DIM
100
AcDbTrace
 10
75.64501713601988
 20
360.115198143282
 30
0.0
 11
75.64501713601988
 21
359.115198143282
 31
0.0
 12
72.64501713601987
 22
359.615198143282
 32
0.0
 13
72.64501713601987
 23
359.615198143282
 33
0.0
  0
SOLID
  5
5C81
330
5001
100
AcDbEntity
  8
DIM
100
AcDbTrace
 10
102.6450171360199
 20
360.115198143282
 30
0.0
 11
102.6450171360199
 21
359.115198143282
 31
0.0
 12
105.6450171360199
 22
359.615198143282
 32
0.0
 13
105.6450171360199
 23
359.615198143282
 33
0.0
  0
MTEXT
  5
5C82
330
5001
100
AcDbEntity
  8
DIM
100
AcDbMText
 10
89.14501713601987
 20
362.115198143282
 30
0.0
 40
3.0
 41
0.0
 71
     5
 72
     1
  1
\A1;28+stroke=S
  7
dayus
 73
     1
 44
1.0
1001
ACAD
1000
MTEXTBEGIN
1070
    73
1070
     1
1070
    44
1040
1.0
1070
    74
1070
     0
1000
MTEXTEND
  0
POINT
  5
5C83
330
5001
100
AcDbEntity
  8
Defpoints
 62
     0
100
AcDbPoint
 10
72.64501713601987
 20
339.3893315127374
 30
0.0
  0
POINT
  5
5C84
330
5001
100
AcDbEntity
  8
Defpoints
 62
     0
100
AcDbPoint
 10
105.6450171360199
 20
339.3893315127353
 30
0.0
  0
POINT
  5
5C85
330
5001
100
AcDbEntity
  8
Defpoints
 62
     0
100
AcDbPoint
 10
105.6450171360199
 20
359.615198143282
 30
0.0
  0
ENDBLK
  5
500C
330
5001
100
AcDbEntity
  8
0
100
AcDbBlockEnd
  0
BLOCK
  5
5017
330
500D
100
AcDbEntity
  8
0
100
AcDbBlockBegin
  2
*D8
 70
     1
 10
0.0
 20
0.0
 30
0.0
  3
*D8
  1

  0
LINE
  5
5C87
330
500D
100
AcDbEntity
  8
DIM
100
AcDbLine
 10
72.64501713601987
 20
341.3893315127374
 30
0.0
 11
72.64501713601987
 21
370.4083555374116
 31
0.0
  0
LINE
  5
5C88
330
500D
100
AcDbEntity
  8
DIM
100
AcDbLine
 10
142.6450171360198
 20
318.3893315127364
 30
0.0
 11
142.6450171360198
 21
370.4083555374116
 31
0.0
  0
LINE
  5
5C89
330
500D
100
AcDbEntity
  8
DIM
100
AcDbLine
 10
75.64501713601988
 20
368.4083555374116
 30
0.0
 11
139.6450171360198
 21
368.4083555374116
 31
0.0
  0
SOLID
  5
5C8A
330
500D
100
AcDbEntity
  8
DIM
100
AcDbTrace
 10
75.64501713601988
 20
368.9083555374116
 30
0.0
 11
75.64501713601988
 21
367.9083555374116
 31
0.0
 12
72.64501713601987
 22
368.4083555374116
 32
0.0
 13
72.64501713601987
 23
368.4083555374116
 33
0.0
  0
SOLID
  5
5C8B
330
500D
100
AcDbEntity
  8
DIM
100
AcDbTrace
 10
139.6450171360198
 20
368.9083555374116
 30
0.0
 11
139.6450171360198
 21
367.9083555374116
 31
0.0
 12
142.6450171360198
 22
368.4083555374116
 32
0.0
 13
142.6450171360198
 23
368.4083555374116
 33
0.0
  0
MTEXT
  5
5C8C
330
500D
100
AcDbEntity
  8
DIM
100
AcDbMText
 10
107.6450171360199
 20
370.9083555374116
 30
0.0
 40
3.0
 41
0.0
 71
     5
 72
     1
  1
\A1;65+stroke=ZZ
  7
dayus
 73
     1
 44
1.0
1001
ACAD
1000
MTEXTBEGIN
1070
    73
1070
     1
1070
    44
1040
1.0
1070
    74
1070
     0
1000
MTEXTEND
  0
POINT
  5
5C8D
330
500D
100
AcDbEntity
  8
Defpoints
 62
     0
100
AcDbPoint
 10
72.64501713601987
 20
339.3893315127374
 30
0.0
  0
POINT
  5
5C8E
330
500D
100
AcDbEntity
  8
Defpoints
 62
     0
100
AcDbPoint
 10
142.6450171360198
 20
316.3893315127364
 30
0.0
  0
POINT
  5
5C8F
330
500D
100
AcDbEntity
  8
Defpoints
 62
     0
100
AcDbPoint
 10
142.6450171360198
 20
368.4083555374116
 30
0.0
  0
ENDBLK
  5
5018
330
500D
100
AcDbEntity
  8
0
100
AcDbBlockEnd
  0
BLOCK
  5
5023
330
5019
100
AcDbEntity
  8
0
100
AcDbBlockBegin
  2
*D9
 70
     1
 10
0.0
 20
0.0
 30
0.0
  3
*D9
  1

  0
LINE
  5
5AD6
330
5019
100
AcDbEntity
  8
DIM
100
AcDbLine
 10
72.64501713601987
 20
341.3893315127374
 30
0.0
 11
72.64501713601987
 21
353.5592579445997
 31
0.0
  0
LINE
  5
5AD7
330
5019
100
AcDbEntity
  8
DIM
100
AcDbLine
 10
82.64501713601987
 20
318.0436587189695
 30
0.0
 11
82.64501713601987
 21
353.5592579445997
 31
0.0
  0
LINE
  5
5AD8
330
5019
100
AcDbEntity
  8
DIM
100
AcDbLine
 10
75.64501713601988
 20
351.5592579445997
 30
0.0
 11
79.64501713601987
 21
351.5592579445997
 31
0.0
  0
SOLID
  5
5AD9
330
5019
100
AcDbEntity
  8
DIM
100
AcDbTrace
 10
75.64501713601988
 20
352.0592579445997
 30
0.0
 11
75.64501713601988
 21
351.0592579445997
 31
0.0
 12
72.64501713601987
 22
351.5592579445997
 32
0.0
 13
72.64501713601987
 23
351.5592579445997
 33
0.0
  0
SOLID
  5
5ADA
330
5019
100
AcDbEntity
  8
DIM
100
AcDbTrace
 10
79.64501713601987
 20
352.0592579445997
 30
0.0
 11
79.64501713601987
 21
351.0592579445997
 31
0.0
 12
82.64501713601987
 22
351.5592579445997
 32
0.0
 13
82.64501713601987
 23
351.5592579445997
 33
0.0
  0
MTEXT
  5
5ADB
330
5019
100
AcDbEntity
  8
DIM
100
AcDbMText
 10
77.64501713601987
 20
354.0592579445997
 30
0.0
 40
3.0
 41
0.0
 71
     5
 72
     1
  1
\A1;10
  7
dayus
 73
     1
 44
1.0
1001
ACAD
1000
MTEXTBEGIN
1070
    73
1070
     1
1070
    44
1040
1.0
1070
    74
1070
     0
1000
MTEXTEND
  0
POINT
  5
5ADC
330
5019
100
AcDbEntity
  8
Defpoints
 62
     0
100
AcDbPoint
 10
72.64501713601987
 20
339.3893315127374
 30
0.0
  0
POINT
  5
5ADD
330
5019
100
AcDbEntity
  8
Defpoints
 62
     0
100
AcDbPoint
 10
82.64501713601987
 20
316.0436587189695
 30
0.0
  0
POINT
  5
5ADE
330
5019
100
AcDbEntity
  8
Defpoints
 62
     0
100
AcDbPoint
 10
82.64501713601987
 20
351.5592579445997
 30
0.0
  0
ENDBLK
  5
5024
330
5019
100
AcDbEntity
  8
0
100
AcDbBlockEnd
  0
BLOCK
  5
502F
330
5025
100
AcDbEntity
  8
0
100
AcDbBlockBegin
  2
*D10
 70
     1
 10
0.0
 20
0.0
 30
0.0
  3
*D10
  1

  0
LINE
  5
5ADF
330
5025
100
AcDbEntity
  8
DIM
100
AcDbLine
 10
95.64501713601988
 20
318.0436587189695
 30
0.0
 11
95.64501713601988
 21
353.5592579445997
 31
0.0
  0
LINE
  5
5AE0
330
5025
100
AcDbEntity
  8
DIM
100
AcDbLine
 10
105.6450171360199
 20
341.3893315127374
 30
0.0
 11
105.6450171360199
 21
353.5592579445997
 31
0.0
  0
LINE
  5
5AE1
330
5025
100
AcDbEntity
  8
DIM
100
AcDbLine
 10
98.64501713601988
 20
351.5592579445997
 30
0.0
 11
102.6450171360199
 21
351.5592579445997
 31
0.0
  0
SOLID
  5
5AE2
330
5025
100
AcDbEntity
  8
DIM
100
AcDbTrace
 10
98.64501713601988
 20
352.0592579445997
 30
0.0
 11
98.64501713601988
 21
351.0592579445997
 31
0.0
 12
95.64501713601988
 22
351.5592579445997
 32
0.0
 13
95.64501713601988
 23
351.5592579445997
 33
0.0
  0
SOLID
  5
5AE3
330
5025
100
AcDbEntity
  8
DIM
100
AcDbTrace
 10
102.6450171360199
 20
352.0592579445997
 30
0.0
 11
102.6450171360199
 21
351.0592579445997
 31
0.0
 12
105.6450171360199
 22
351.5592579445997
 32
0.0
 13
105.6450171360199
 23
351.5592579445997
 33
0.0
  0
MTEXT
  5
5AE4
330
5025
100
AcDbEntity
  8
DIM
100
AcDbMText
 10
100.6450171360198
 20
354.0592579445997
 30
0.0
 40
3.0
 41
0.0
 71
     5
 72
     1
  1
\A1;10
  7
dayus
 73
     1
 44
1.0
1001
ACAD
1000
MTEXTBEGIN
1070
    73
1070
     1
1070
    44
1040
1.0
1070
    74
1070
     0
1000
MTEXTEND
  0
POINT
  5
5AE5
330
5025
100
AcDbEntity
  8
Defpoints
 62
     0
100
AcDbPoint
 10
95.64501713601988
 20
316.0436587189695
 30
0.0
  0
POINT
  5
5AE6
330
5025
100
AcDbEntity
  8
Defpoints
 62
     0
100
AcDbPoint
 10
105.6450171360199
 20
339.3893315127374
 30
0.0
  0
POINT
  5
5AE7
330
5025
100
AcDbEntity
  8
Defpoints
 62
     0
100
AcDbPoint
 10
105.6450171360199
 20
351.5592579445997
 30
0.0
  0
ENDBLK
  5
5030
330
5025
100
AcDbEntity
  8
0
100
AcDbBlockEnd
  0
BLOCK
  5
503B
330
5031
100
AcDbEntity
  8
0
100
AcDbBlockBegin
  2
*D11
 70
     1
 10
0.0
 20
0.0
 30
0.0
  3
*D11
  1

  0
LINE
  5
5AE8
330
5031
100
AcDbEntity
  8
DIM
100
AcDbLine
 10
112.1450171360208
 20
298.3893315127368
 30
0.0
 11
157.3992641799442
 21
298.3893315127367
 31
0.0
  0
LINE
  5
5AE9
330
5031
100
AcDbEntity
  8
DIM
100
AcDbLine
 10
112.1450171360208
 20
318.3893315127364
 30
0.0
 11
157.3992641799442
 21
318.3893315127363
 31
0.0
  0
LINE
  5
5AEA
330
5031
100
AcDbEntity
  8
DIM
100
AcDbLine
 10
155.3992641799442
 20
301.3893315127368
 30
0.0
 11
155.3992641799442
 21
315.3893315127363
 31
0.0
  0
SOLID
  5
5AEB
330
5031
100
AcDbEntity
  8
DIM
100
AcDbTrace
 10
154.8992641799442
 20
301.3893315127368
 30
0.0
 11
155.8992641799442
 21
301.3893315127368
 31
0.0
 12
155.3992641799442
 22
298.3893315127367
 32
0.0
 13
155.3992641799442
 23
298.3893315127367
 33
0.0
  0
SOLID
  5
5AEC
330
5031
100
AcDbEntity
  8
DIM
100
AcDbTrace
 10
154.8992641799442
 20
315.3893315127363
 30
0.0
 11
155.8992641799442
 21
315.3893315127363
 31
0.0
 12
155.3992641799442
 22
318.3893315127363
 32
0.0
 13
155.3992641799442
 23
318.3893315127363
 33
0.0
  0
MTEXT
  5
5AED
330
5031
100
AcDbEntity
  8
DIM
100
AcDbMText
 10
152.8992641799442
 20
308.3893315127366
 30
0.0
 40
3.0
 41
0.0
 71
     5
 72
     1
  1
\A1;%%c20
  7
dayus
 11
0.0000000000000001
 21
1.0
 31
0.0
 73
     1
 44
1.0
1001
ACAD
1000
MTEXTBEGIN
1070
    73
1070
     1
1070
    44
1040
1.0
1070
    74
1070
     0
1000
MTEXTEND
  0
POINT
  5
5AEE
330
5031
100
AcDbEntity
  8
Defpoints
 62
     0
100
AcDbPoint
 10
110.1450171360208
 20
298.3893315127368
 30
0.0
  0
POINT
  5
5AEF
330
5031
100
AcDbEntity
  8
Defpoints
 62
     0
100
AcDbPoint
 10
110.1450171360208
 20
318.3893315127364
 30
0.0
  0
POINT
  5
5AF0
330
5031
100
AcDbEntity
  8
Defpoints
 62
     0
100
AcDbPoint
 10
155.3992641799442
 20
318.3893315127363
 30
0.0
  0
ENDBLK
  5
503C
330
5031
100
AcDbEntity
  8
0
100
AcDbBlockEnd
  0
BLOCK
  5
5047
330
503D
100
AcDbEntity
  8
0
100
AcDbBlockBegin
  2
*D12
 70
     1
 10
0.0
 20
0.0
 30
0.0
  3
*D12
  1

  0
LINE
  5
5AF1
330
503D
100
AcDbEntity
  8
DIM
100
AcDbLine
 10
111.1450171360194
 20
289.3893315127364
 30
0.0
 11
168.1841101859205
 21
289.3893315127363
 31
0.0
  0
LINE
  5
5AF2
330
503D
100
AcDbEntity
  8
DIM
100
AcDbLine
 10
111.1450171360194
 20
327.3893315127363
 30
0.0
 11
168.1841101859205
 21
327.3893315127363
 31
0.0
  0
LINE
  5
5AF3
330
503D
100
AcDbEntity
  8
DIM
100
AcDbLine
 10
166.1841101859205
 20
292.3893315127363
 30
0.0
 11
166.1841101859205
 21
324.3893315127363
 31
0.0
  0
SOLID
  5
5AF4
330
503D
100
AcDbEntity
  8
DIM
100
AcDbTrace
 10
165.6841101859205
 20
292.3893315127363
 30
0.0
 11
166.6841101859205
 21
292.3893315127363
 31
0.0
 12
166.1841101859205
 22
289.3893315127363
 32
0.0
 13
166.1841101859205
 23
289.3893315127363
 33
0.0
  0
SOLID
  5
5AF5
330
503D
100
AcDbEntity
  8
DIM
100
AcDbTrace
 10
165.6841101859205
 20
324.3893315127363
 30
0.0
 11
166.6841101859205
 21
324.3893315127363
 31
0.0
 12
166.1841101859205
 22
327.3893315127363
 32
0.0
 13
166.1841101859205
 23
327.3893315127363
 33
0.0
  0
MTEXT
  5
5AF6
330
503D
100
AcDbEntity
  8
DIM
100
AcDbMText
 10
162.6991101859204
 20
308.3893315127363
 30
0.0
 40
3.0
 41
0.0
 71
     5
 72
     1
  1
\A1;%%c38{}{\H0.71x;\C3;\S 0^ -0.05;}
  7
dayus
 11
0.0000000000000001
 21
1.0
 31
0.0
 73
     1
 44
1.0
1001
ACAD
1000
MTEXTBEGIN
1070
    73
1070
     1
1070
    44
1040
1.0
1070
    74
1070
     0
1000
MTEXTEND
  0
POINT
  5
5AF7
330
503D
100
AcDbEntity
  8
Defpoints
 62
     0
100
AcDbPoint
 10
109.1450171360194
 20
289.3893315127364
 30
0.0
  0
POINT
  5
5AF8
330
503D
100
AcDbEntity
  8
Defpoints
 62
     0
100
AcDbPoint
 10
109.1450171360194
 20
327.3893315127363
 30
0.0
  0
POINT
  5
5AF9
330
503D
100
AcDbEntity
  8
Defpoints
 62
     0
100
AcDbPoint
 10
166.1841101859205
 20
327.3893315127363
 30
0.0
  0
ENDBLK
  5
5048
330
503D
100
AcDbEntity
  8
0
100
AcDbBlockEnd
  0
BLOCK
  5
5055
330
5049
100
AcDbEntity
  8
0
100
AcDbBlockBegin
  2
*D13
 70
     1
 10
0.0
 20
0.0
 30
0.0
  3
*D13
  1

  0
LINE
  5
5AFA
330
5049
100
AcDbEntity
  8
DIM
100
AcDbLine
 10
111.6450171360212
 20
301.1215046363096
 30
0.0
 11
111.6450171360212
 21
278.4890590127959
 31
0.0
  0
LINE
  5
5AFB
330
5049
100
AcDbEntity
  8
DIM
100
AcDbLine
 10
114.6450171360208
 20
297.389331512736
 30
0.0
 11
114.6450171360208
 21
278.4890590127959
 31
0.0
  0
LINE
  5
5AFC
330
5049
100
AcDbEntity
  8
DIM
100
AcDbLine
 10
108.6450171360212
 20
280.4890590127959
 30
0.0
 11
105.6450171360212
 21
280.4890590127959
 31
0.0
  0
LINE
  5
5AFD
330
5049
100
AcDbEntity
  8
DIM
100
AcDbLine
 10
117.6450171360208
 20
280.4890590127959
 30
0.0
 11
120.6450171360208
 21
280.4890590127959
 31
0.0
  0
LINE
  5
5AFE
330
5049
100
AcDbEntity
  8
DIM
100
AcDbLine
 10
111.6450171360212
 20
280.4890590127959
 30
0.0
 11
114.6450171360208
 21
280.4890590127959
 31
0.0
  0
SOLID
  5
5AFF
330
5049
100
AcDbEntity
  8
DIM
100
AcDbTrace
 10
108.6450171360212
 20
280.9890590127959
 30
0.0
 11
108.6450171360212
 21
279.9890590127959
 31
0.0
 12
111.6450171360212
 22
280.4890590127959
 32
0.0
 13
111.6450171360212
 23
280.4890590127959
 33
0.0
  0
SOLID
  5
5B00
330
5049
100
AcDbEntity
  8
DIM
100
AcDbTrace
 10
117.6450171360208
 20
280.9890590127959
 30
0.0
 11
117.6450171360208
 21
279.9890590127959
 31
0.0
 12
114.6450171360208
 22
280.4890590127959
 32
0.0
 13
114.6450171360208
 23
280.4890590127959
 33
0.0
  0
MTEXT
  5
5B01
330
5049
100
AcDbEntity
  8
DIM
100
AcDbMText
 10
113.145017136021
 20
282.9890590127959
 30
0.0
 40
3.0
 41
0.0
 71
     5
 72
     1
  1
\A1;3
  7
dayus
 73
     1
 44
1.0
1001
ACAD
1000
MTEXTBEGIN
1070
    73
1070
     1
1070
    44
1040
1.0
1070
    74
1070
     0
1000
MTEXTEND
  0
POINT
  5
5B02
330
5049
100
AcDbEntity
  8
Defpoints
 62
     0
100
AcDbPoint
 10
111.6450171360212
 20
303.1215046363096
 30
0.0
  0
POINT
  5
5B03
330
5049
100
AcDbEntity
  8
Defpoints
 62
     0
100
AcDbPoint
 10
114.6450171360208
 20
299.389331512736
 30
0.0
  0
POINT
  5
5B04
330
5049
100
AcDbEntity
  8
Defpoints
 62
     0
100
AcDbPoint
 10
114.6450171360208
 20
280.4890590127959
 30
0.0
  0
ENDBLK
  5
5056
330
5049
100
AcDbEntity
  8
0
100
AcDbBlockEnd
  0
BLOCK
  5
5061
330
5057
100
AcDbEntity
  8
0
100
AcDbBlockBegin
  2
*D14
 70
     1
 10
0.0
 20
0.0
 30
0.0
  3
*D14
  1

  0
LINE
  5
5B05
330
5057
100
AcDbEntity
  8
DIM
100
AcDbLine
 10
203.1317550473112
 20
340.8893315127376
 30
0.0
 11
203.1317550473112
 21
353.5592579445997
 31
0.0
  0
LINE
  5
5B06
330
5057
100
AcDbEntity
  8
DIM
100
AcDbLine
 10
251.1317550473112
 20
340.889331512738
 30
0.0
 11
251.1317550473112
 21
353.5592579445997
 31
0.0
  0
LINE
  5
5B07
330
5057
100
AcDbEntity
  8
DIM
100
AcDbLine
 10
206.1317550473112
 20
351.5592579445997
 30
0.0
 11
248.1317550473112
 21
351.5592579445997
 31
0.0
  0
SOLID
  5
5B08
330
5057
100
AcDbEntity
  8
DIM
100
AcDbTrace
 10
206.1317550473112
 20
352.0592579445997
 30
0.0
 11
206.1317550473112
 21
351.0592579445997
 31
0.0
 12
203.1317550473112
 22
351.5592579445997
 32
0.0
 13
203.1317550473112
 23
351.5592579445997
 33
0.0
  0
SOLID
  5
5B09
330
5057
100
AcDbEntity
  8
DIM
100
AcDbTrace
 10
248.1317550473112
 20
352.0592579445997
 30
0.0
 11
248.1317550473112
 21
351.0592579445997
 31
0.0
 12
251.1317550473112
 22
351.5592579445997
 32
0.0
 13
251.1317550473112
 23
351.5592579445997
 33
0.0
  0
MTEXT
  5
5B0A
330
5057
100
AcDbEntity
  8
DIM
100
AcDbMText
 10
227.1317550473112
 20
354.0592579445997
 30
0.0
 40
3.0
 41
0.0
 71
     5
 72
     1
  1
\A1;□48
  7
dayus
 73
     1
 44
1.0
1001
ACAD
1000
MTEXTBEGIN
1070
    73
1070
     1
1070
    44
1040
1.0
1070
    74
1070
     0
1000
MTEXTEND
  0
POINT
  5
5B0B
330
5057
100
AcDbEntity
  8
Defpoints
 62
     0
100
AcDbPoint
 10
203.1317550473112
 20
338.8893315127376
 30
0.0
  0
POINT
  5
5B0C
330
5057
100
AcDbEntity
  8
Defpoints
 62
     0
100
AcDbPoint
 10
251.1317550473112
 20
338.889331512738
 30
0.0
  0
POINT
  5
5B0D
330
5057
100
AcDbEntity
  8
Defpoints
 62
     0
100
AcDbPoint
 10
251.1317550473112
 20
351.5592579445997
 30
0.0
  0
ENDBLK
  5
5062
330
5057
100
AcDbEntity
  8
0
100
AcDbBlockEnd
  0
BLOCK
  5
506D
330
5063
100
AcDbEntity
  8
0
100
AcDbBlockBegin
  2
*D15
 70
     1
 10
0.0
 20
0.0
 30
0.0
  3
*D15
  1

  0
LINE
  5
5B0E
330
5063
100
AcDbEntity
  8
DIM
100
AcDbLine
 10
196.1317550473112
 20
337.2221472427349
 30
0.0
 11
196.1317550473112
 21
361.615198143282
 31
0.0
  0
LINE
  5
5B0F
330
5063
100
AcDbEntity
  8
DIM
100
AcDbLine
 10
258.1317550473108
 20
337.2221472427347
 30
0.0
 11
258.1317550473108
 21
361.615198143282
 31
0.0
  0
LINE
  5
5B10
330
5063
100
AcDbEntity
  8
DIM
100
AcDbLine
 10
199.1317550473112
 20
359.615198143282
 30
0.0
 11
255.1317550473108
 21
359.615198143282
 31
0.0
  0
SOLID
  5
5B11
330
5063
100
AcDbEntity
  8
DIM
100
AcDbTrace
 10
199.1317550473112
 20
360.115198143282
 30
0.0
 11
199.1317550473112
 21
359.115198143282
 31
0.0
 12
196.1317550473112
 22
359.615198143282
 32
0.0
 13
196.1317550473112
 23
359.615198143282
 33
0.0
  0
SOLID
  5
5B12
330
5063
100
AcDbEntity
  8
DIM
100
AcDbTrace
 10
255.1317550473108
 20
360.115198143282
 30
0.0
 11
255.1317550473108
 21
359.115198143282
 31
0.0
 12
258.1317550473108
 22
359.615198143282
 32
0.0
 13
258.1317550473108
 23
359.615198143282
 33
0.0
  0
MTEXT
  5
5B13
330
5063
100
AcDbEntity
  8
DIM
100
AcDbMText
 10
227.131755047311
 20
362.115198143282
 30
0.0
 40
3.0
 41
0.0
 71
     5
 72
     1
  1
\A1;□62
  7
dayus
 73
     1
 44
1.0
1001
ACAD
1000
MTEXTBEGIN
1070
    73
1070
     1
1070
    44
1040
1.0
1070
    74
1070
     0
1000
MTEXTEND
  0
POINT
  5
5B14
330
5063
100
AcDbEntity
  8
Defpoints
 62
     0
100
AcDbPoint
 10
196.1317550473112
 20
335.2221472427349
 30
0.0
  0
POINT
  5
5B15
330
5063
100
AcDbEntity
  8
Defpoints
 62
     0
100
AcDbPoint
 10
258.1317550473108
 20
335.2221472427347
 30
0.0
  0
POINT
  5
5B16
330
5063
100
AcDbEntity
  8
Defpoints
 62
     0
100
AcDbPoint
 10
258.1317550473108
 20
359.615198143282
 30
0.0
  0
ENDBLK
  5
506E
330
5063
100
AcDbEntity
  8
0
100
AcDbBlockEnd
  0
BLOCK
  5
5079
330
506F
100
AcDbEntity
  8
0
100
AcDbBlockBegin
  2
*D16
 70
     1
 10
0.0
 20
0.0
 30
0.0
  3
*D16
  1

  0
LINE
  5
5B17
330
506F
100
AcDbEntity
  8
DIM
100
AcDbLine
 10
188.1317550473112
 20
319.6828587744404
 30
0.0
 11
188.1317550473112
 21
370.4083555374116
 31
0.0
  0
LINE
  5
5B18
330
506F
100
AcDbEntity
  8
DIM
100
AcDbLine
 10
258.1317550473108
 20
337.2221472427349
 30
0.0
 11
258.1317550473108
 21
370.4083555374116
 31
0.0
  0
LINE
  5
5B19
330
506F
100
AcDbEntity
  8
DIM
100
AcDbLine
 10
191.1317550473112
 20
368.4083555374116
 30
0.0
 11
255.1317550473108
 21
368.4083555374116
 31
0.0
  0
SOLID
  5
5B1A
330
506F
100
AcDbEntity
  8
DIM
100
AcDbTrace
 10
191.1317550473112
 20
368.9083555374116
 30
0.0
 11
191.1317550473112
 21
367.9083555374116
 31
0.0
 12
188.1317550473112
 22
368.4083555374116
 32
0.0
 13
188.1317550473112
 23
368.4083555374116
 33
0.0
  0
SOLID
  5
5B1B
330
506F
100
AcDbEntity
  8
DIM
100
AcDbTrace
 10
255.1317550473108
 20
368.9083555374116
 30
0.0
 11
255.1317550473108
 21
367.9083555374116
 31
0.0
 12
258.1317550473108
 22
368.4083555374116
 32
0.0
 13
258.1317550473108
 23
368.4083555374116
 33
0.0
  0
MTEXT
  5
5B1C
330
506F
100
AcDbEntity
  8
DIM
100
AcDbMText
 10
223.131755047311
 20
370.9083555374116
 30
0.0
 40
3.0
 41
0.0
 71
     5
 72
     1
  1
\A1;70
  7
dayus
 73
     1
 44
1.0
1001
ACAD
1000
MTEXTBEGIN
1070
    73
1070
     1
1070
    44
1040
1.0
1070
    74
1070
     0
1000
MTEXTEND
  0
POINT
  5
5B1D
330
506F
100
AcDbEntity
  8
Defpoints
 62
     0
100
AcDbPoint
 10
188.1317550473112
 20
317.6828587744404
 30
0.0
  0
POINT
  5
5B1E
330
506F
100
AcDbEntity
  8
Defpoints
 62
     0
100
AcDbPoint
 10
258.1317550473108
 20
335.2221472427349
 30
0.0
  0
POINT
  5
5B1F
330
506F
100
AcDbEntity
  8
Defpoints
 62
     0
100
AcDbPoint
 10
258.1317550473108
 20
368.4083555374116
 30
0.0
  0
ENDBLK
  5
507A
330
506F
100
AcDbEntity
  8
0
100
AcDbBlockEnd
  0
BLOCK
  5
5085
330
507B
100
AcDbEntity
  8
0
100
AcDbBlockBegin
  2
*D17
 70
     1
 10
0.0
 20
0.0
 30
0.0
  3
*D17
  1

  0
LINE
  5
5B20
330
507B
100
AcDbEntity
  8
DIM
100
AcDbLine
 10
218.6317550473108
 20
301.1238791025377
 30
0.0
 11
218.6317550473108
 21
263.899553517275
 31
0.0
  0
LINE
  5
5B21
330
507B
100
AcDbEntity
  8
DIM
100
AcDbLine
 10
235.6317550473085
 20
301.1238791025373
 30
0.0
 11
235.6317550473085
 21
263.899553517275
 31
0.0
  0
LINE
  5
5B22
330
507B
100
AcDbEntity
  8
DIM
100
AcDbLine
 10
221.6317550473108
 20
265.899553517275
 30
0.0
 11
232.6317550473085
 21
265.899553517275
 31
0.0
  0
SOLID
  5
5B23
330
507B
100
AcDbEntity
  8
DIM
100
AcDbTrace
 10
221.6317550473108
 20
266.399553517275
 30
0.0
 11
221.6317550473108
 21
265.399553517275
 31
0.0
 12
218.6317550473108
 22
265.899553517275
 32
0.0
 13
218.6317550473108
 23
265.899553517275
 33
0.0
  0
SOLID
  5
5B24
330
507B
100
AcDbEntity
  8
DIM
100
AcDbTrace
 10
232.6317550473085
 20
266.399553517275
 30
0.0
 11
232.6317550473085
 21
265.399553517275
 31
0.0
 12
235.6317550473085
 22
265.899553517275
 32
0.0
 13
235.6317550473085
 23
265.899553517275
 33
0.0
  0
MTEXT
  5
5B25
330
507B
100
AcDbEntity
  8
DIM
100
AcDbMText
 10
227.1317550473096
 20
268.399553517275
 30
0.0
 40
3.0
 41
0.0
 71
     5
 72
     1
  1
\A1;□17
  7
dayus
 73
     1
 44
1.0
1001
ACAD
1000
MTEXTBEGIN
1070
    73
1070
     1
1070
    44
1040
1.0
1070
    74
1070
     0
1000
MTEXTEND
  0
POINT
  5
5B26
330
507B
100
AcDbEntity
  8
Defpoints
 62
     0
100
AcDbPoint
 10
218.6317550473108
 20
303.1238791025377
 30
0.0
  0
POINT
  5
5B27
330
507B
100
AcDbEntity
  8
Defpoints
 62
     0
100
AcDbPoint
 10
235.6317550473085
 20
303.1238791025373
 30
0.0
  0
POINT
  5
5B28
330
507B
100
AcDbEntity
  8
Defpoints
 62
     0
100
AcDbPoint
 10
235.6317550473085
 20
265.899553517275
 30
0.0
  0
ENDBLK
  5
5086
330
507B
100
AcDbEntity
  8
0
100
AcDbBlockEnd
  0
BLOCK
  5
5091
330
5087
100
AcDbEntity
  8
0
100
AcDbBlockBegin
  2
*D18
 70
     1
 10
0.0
 20
0.0
 30
0.0
  3
*D18
  1

  0
LINE
  5
5B29
330
5087
100
AcDbEntity
  8
DIM
100
AcDbLine
 10
186.1775352923744
 20
298.9684611429086
 30
0.0
 11
174.9333553451254
 21
298.9684611429086
 31
0.0
  0
LINE
  5
5B2A
330
5087
100
AcDbEntity
  8
DIM
100
AcDbLine
 10
186.1775352923744
 20
317.8102018825669
 30
0.0
 11
174.9333553451254
 21
317.8102018825669
 31
0.0
  0
LINE
  5
5B2B
330
5087
100
AcDbEntity
  8
DIM
100
AcDbLine
 10
176.9333553451254
 20
301.9684611429086
 30
0.0
 11
176.9333553451254
 21
314.8102018825668
 31
0.0
  0
SOLID
  5
5B2C
330
5087
100
AcDbEntity
  8
DIM
100
AcDbTrace
 10
176.4333553451254
 20
301.9684611429086
 30
0.0
 11
177.4333553451254
 21
301.9684611429086
 31
0.0
 12
176.9333553451254
 22
298.9684611429086
 32
0.0
 13
176.9333553451254
 23
298.9684611429086
 33
0.0
  0
SOLID
  5
5B2D
330
5087
100
AcDbEntity
  8
DIM
100
AcDbTrace
 10
176.4333553451254
 20
314.8102018825668
 30
0.0
 11
177.4333553451254
 21
314.8102018825668
 31
0.0
 12
176.9333553451254
 22
317.8102018825669
 32
0.0
 13
176.9333553451254
 23
317.8102018825669
 33
0.0
  0
MTEXT
  5
5B2E
330
5087
100
AcDbEntity
  8
DIM
100
AcDbMText
 10
174.4333553451254
 20
308.3893315127378
 30
0.0
 40
3.0
 41
0.0
 71
     5
 72
     1
  1
\A1;19
  7
dayus
 11
0.0000000000000001
 21
1.0
 31
0.0
 73
     1
 44
1.0
1001
ACAD
1000
MTEXTBEGIN
1070
    73
1070
     1
1070
    44
1040
1.0
1070
    74
1070
     0
1000
MTEXTEND
  0
POINT
  5
5B2F
330
5087
100
AcDbEntity
  8
Defpoints
 62
     0
100
AcDbPoint
 10
188.1775352923744
 20
298.9684611429086
 30
0.0
  0
POINT
  5
5B30
330
5087
100
AcDbEntity
  8
Defpoints
 62
     0
100
AcDbPoint
 10
188.1775352923744
 20
317.8102018825669
 30
0.0
  0
POINT
  5
5B31
330
5087
100
AcDbEntity
  8
Defpoints
 62
     0
100
AcDbPoint
 10
176.9333553451254
 20
317.8102018825669
 30
0.0
  0
ENDBLK
  5
5092
330
5087
100
AcDbEntity
  8
0
100
AcDbBlockEnd
  0
BLOCK
  5
509D
330
5093
100
AcDbEntity
  8
0
100
AcDbBlockBegin
  2
*D19
 70
     1
 10
0.0
 20
0.0
 30
0.0
  3
*D19
  1

  0
LINE
  5
5CD4
330
5093
100
AcDbEntity
  8
DIM
100
AcDbLine
 10
105.6450171360199
 20
167.3497464250995
 30
0.0
 11
105.6450171360199
 21
183.7612797680252
 31
0.0
  0
LINE
  5
5CD5
330
5093
100
AcDbEntity
  8
DIM
100
AcDbLine
 10
114.6450171360207
 20
145.3497464250987
 30
0.0
 11
114.6450171360207
 21
183.7612797680252
 31
0.0
  0
LINE
  5
5CD6
330
5093
100
AcDbEntity
  8
DIM
100
AcDbLine
 10
108.6450171360199
 20
181.7612797680252
 30
0.0
 11
111.6450171360208
 21
181.7612797680252
 31
0.0
  0
SOLID
  5
5CD7
330
5093
100
AcDbEntity
  8
DIM
100
AcDbTrace
 10
108.6450171360199
 20
182.2612797680252
 30
0.0
 11
108.6450171360199
 21
181.2612797680252
 31
0.0
 12
105.6450171360199
 22
181.7612797680252
 32
0.0
 13
105.6450171360199
 23
181.7612797680252
 33
0.0
  0
SOLID
  5
5CD8
330
5093
100
AcDbEntity
  8
DIM
100
AcDbTrace
 10
111.6450171360208
 20
182.2612797680252
 30
0.0
 11
111.6450171360208
 21
181.2612797680252
 31
0.0
 12
114.6450171360207
 22
181.7612797680252
 32
0.0
 13
114.6450171360207
 23
181.7612797680252
 33
0.0
  0
MTEXT
  5
5CD9
330
5093
100
AcDbEntity
  8
DIM
100
AcDbMText
 10
110.1450171360203
 20
184.2612797680252
 30
0.0
 40
3.0
 41
0.0
 71
     5
 72
     1
  1
\A1;9
  7
dayus
 73
     1
 44
1.0
1001
ACAD
1000
MTEXTBEGIN
1070
    73
1070
     1
1070
    44
1040
1.0
1070
    74
1070
     0
1000
MTEXTEND
  0
POINT
  5
5CDA
330
5093
100
AcDbEntity
  8
Defpoints
 62
     0
100
AcDbPoint
 10
105.6450171360199
 20
165.3497464250994
 30
0.0
  0
POINT
  5
5CDB
330
5093
100
AcDbEntity
  8
Defpoints
 62
     0
100
AcDbPoint
 10
114.6450171360207
 20
143.3497464250987
 30
0.0
  0
POINT
  5
5CDC
330
5093
100
AcDbEntity
  8
Defpoints
 62
     0
100
AcDbPoint
 10
114.6450171360207
 20
181.7612797680252
 30
0.0
  0
ENDBLK
  5
509E
330
5093
100
AcDbEntity
  8
0
100
AcDbBlockEnd
  0
BLOCK
  5
50AB
330
509F
100
AcDbEntity
  8
0
100
AcDbBlockBegin
  2
*D20
 70
     1
 10
0.0
 20
0.0
 30
0.0
  3
*D20
  1

  0
LINE
  5
5CDD
330
509F
100
AcDbEntity
  8
DIM
100
AcDbLine
 10
105.6450171360199
 20
167.3497464250995
 30
0.0
 11
105.6450171360199
 21
175.8906161719673
 31
0.0
  0
LINE
  5
5CDE
330
509F
100
AcDbEntity
  8
DIM
100
AcDbLine
 10
109.6450171360194
 20
154.8497464250985
 30
0.0
 11
109.6450171360194
 21
175.8906161719673
 31
0.0
  0
LINE
  5
5CDF
330
509F
100
AcDbEntity
  8
DIM
100
AcDbLine
 10
102.6450171360199
 20
173.8906161719673
 30
0.0
 11
99.64501713601988
 21
173.8906161719673
 31
0.0
  0
LINE
  5
5CE0
330
509F
100
AcDbEntity
  8
DIM
100
AcDbLine
 10
112.6450171360194
 20
173.8906161719673
 30
0.0
 11
115.6450171360194
 21
173.8906161719673
 31
0.0
  0
LINE
  5
5CE1
330
509F
100
AcDbEntity
  8
DIM
100
AcDbLine
 10
105.6450171360199
 20
173.8906161719673
 30
0.0
 11
109.6450171360194
 21
173.8906161719673
 31
0.0
  0
SOLID
  5
5CE2
330
509F
100
AcDbEntity
  8
DIM
100
AcDbTrace
 10
102.6450171360199
 20
174.3906161719673
 30
0.0
 11
102.6450171360199
 21
173.3906161719673
 31
0.0
 12
105.6450171360199
 22
173.8906161719673
 32
0.0
 13
105.6450171360199
 23
173.8906161719673
 33
0.0
  0
SOLID
  5
5CE3
330
509F
100
AcDbEntity
  8
DIM
100
AcDbTrace
 10
112.6450171360194
 20
174.3906161719673
 30
0.0
 11
112.6450171360194
 21
173.3906161719673
 31
0.0
 12
109.6450171360194
 22
173.8906161719673
 32
0.0
 13
109.6450171360194
 23
173.8906161719673
 33
0.0
  0
MTEXT
  5
5CE4
330
509F
100
AcDbEntity
  8
DIM
100
AcDbMText
 10
107.6450171360196
 20
176.3906161719672
 30
0.0
 40
3.0
 41
0.0
 71
     5
 72
     1
  1
\A1;4
  7
dayus
 73
     1
 44
1.0
1001
ACAD
1000
MTEXTBEGIN
1070
    73
1070
     1
1070
    44
1040
1.0
1070
    74
1070
     0
1000
MTEXTEND
  0
POINT
  5
5CE5
330
509F
100
AcDbEntity
  8
Defpoints
 62
     0
100
AcDbPoint
 10
105.6450171360199
 20
165.3497464250994
 30
0.0
  0
POINT
  5
5CE6
330
509F
100
AcDbEntity
  8
Defpoints
 62
     0
100
AcDbPoint
 10
109.6450171360194
 20
152.8497464250985
 30
0.0
  0
POINT
  5
5CE7
330
509F
100
AcDbEntity
  8
Defpoints
 62
     0
100
AcDbPoint
 10
109.6450171360194
 20
173.8906161719673
 30
0.0
  0
ENDBLK
  5
50AC
330
509F
100
AcDbEntity
  8
0
100
AcDbBlockEnd
  0
BLOCK
  5
50B7
330
50AD
100
AcDbEntity
  8
0
100
AcDbBlockBegin
  2
*D21
 70
     1
 10
0.0
 20
0.0
 30
0.0
  3
*D21
  1

  0
LINE
  5
5CE8
330
50AD
100
AcDbEntity
  8
DIM
100
AcDbLine
 10
72.64501713601987
 20
167.3497464250994
 30
0.0
 11
72.64501713601987
 21
175.8906161719673
 31
0.0
  0
LINE
  5
5CE9
330
50AD
100
AcDbEntity
  8
DIM
100
AcDbLine
 10
82.64501713601987
 20
144.0040736313315
 30
0.0
 11
82.64501713601987
 21
175.8906161719673
 31
0.0
  0
LINE
  5
5CEA
330
50AD
100
AcDbEntity
  8
DIM
100
AcDbLine
 10
75.64501713601988
 20
173.8906161719673
 30
0.0
 11
79.64501713601987
 21
173.8906161719673
 31
0.0
  0
SOLID
  5
5CEB
330
50AD
100
AcDbEntity
  8
DIM
100
AcDbTrace
 10
75.64501713601988
 20
174.3906161719673
 30
0.0
 11
75.64501713601988
 21
173.3906161719673
 31
0.0
 12
72.64501713601987
 22
173.8906161719673
 32
0.0
 13
72.64501713601987
 23
173.8906161719673
 33
0.0
  0
SOLID
  5
5CEC
330
50AD
100
AcDbEntity
  8
DIM
100
AcDbTrace
 10
79.64501713601987
 20
174.3906161719673
 30
0.0
 11
79.64501713601987
 21
173.3906161719673
 31
0.0
 12
82.64501713601987
 22
173.8906161719673
 32
0.0
 13
82.64501713601987
 23
173.8906161719673
 33
0.0
  0
MTEXT
  5
5CED
330
50AD
100
AcDbEntity
  8
DIM
100
AcDbMText
 10
77.64501713601987
 20
176.3906161719672
 30
0.0
 40
3.0
 41
0.0
 71
     5
 72
     1
  1
\A1;10
  7
dayus
 73
     1
 44
1.0
1001
ACAD
1000
MTEXTBEGIN
1070
    73
1070
     1
1070
    44
1040
1.0
1070
    74
1070
     0
1000
MTEXTEND
  0
POINT
  5
5CEE
330
50AD
100
AcDbEntity
  8
Defpoints
 62
     0
100
AcDbPoint
 10
72.64501713601987
 20
165.3497464250994
 30
0.0
  0
POINT
  5
5CEF
330
50AD
100
AcDbEntity
  8
Defpoints
 62
     0
100
AcDbPoint
 10
82.64501713601987
 20
142.0040736313315
 30
0.0
  0
POINT
  5
5CF0
330
50AD
100
AcDbEntity
  8
Defpoints
 62
     0
100
AcDbPoint
 10
82.64501713601987
 20
173.8906161719673
 30
0.0
  0
ENDBLK
  5
50B8
330
50AD
100
AcDbEntity
  8
0
100
AcDbBlockEnd
  0
BLOCK
  5
50C3
330
50B9
100
AcDbEntity
  8
0
100
AcDbBlockBegin
  2
*D22
 70
     1
 10
0.0
 20
0.0
 30
0.0
  3
*D22
  1

  0
LINE
  5
5CF1
330
50B9
100
AcDbEntity
  8
DIM
100
AcDbLine
 10
95.64501713601988
 20
144.0040736313315
 30
0.0
 11
95.64501713601988
 21
175.8906161719673
 31
0.0
  0
LINE
  5
5CF2
330
50B9
100
AcDbEntity
  8
DIM
100
AcDbLine
 10
105.6450171360199
 20
167.3497464250995
 30
0.0
 11
105.6450171360199
 21
175.8906161719673
 31
0.0
  0
LINE
  5
5CF3
330
50B9
100
AcDbEntity
  8
DIM
100
AcDbLine
 10
98.64501713601988
 20
173.8906161719673
 30
0.0
 11
102.6450171360199
 21
173.8906161719673
 31
0.0
  0
SOLID
  5
5CF4
330
50B9
100
AcDbEntity
  8
DIM
100
AcDbTrace
 10
98.64501713601988
 20
174.3906161719673
 30
0.0
 11
98.64501713601988
 21
173.3906161719673
 31
0.0
 12
95.64501713601988
 22
173.8906161719673
 32
0.0
 13
95.64501713601988
 23
173.8906161719673
 33
0.0
  0
SOLID
  5
5CF5
330
50B9
100
AcDbEntity
  8
DIM
100
AcDbTrace
 10
102.6450171360199
 20
174.3906161719673
 30
0.0
 11
102.6450171360199
 21
173.3906161719673
 31
0.0
 12
105.6450171360199
 22
173.8906161719673
 32
0.0
 13
105.6450171360199
 23
173.8906161719673
 33
0.0
  0
MTEXT
  5
5CF6
330
50B9
100
AcDbEntity
  8
DIM
100
AcDbMText
 10
100.6450171360198
 20
176.3906161719672
 30
0.0
 40
3.0
 41
0.0
 71
     5
 72
     1
  1
\A1;10
  7
dayus
 73
     1
 44
1.0
1001
ACAD
1000
MTEXTBEGIN
1070
    73
1070
     1
1070
    44
1040
1.0
1070
    74
1070
     0
1000
MTEXTEND
  0
POINT
  5
5CF7
330
50B9
100
AcDbEntity
  8
Defpoints
 62
     0
100
AcDbPoint
 10
95.64501713601988
 20
142.0040736313315
 30
0.0
  0
POINT
  5
5CF8
330
50B9
100
AcDbEntity
  8
Defpoints
 62
     0
100
AcDbPoint
 10
105.6450171360199
 20
165.3497464250994
 30
0.0
  0
POINT
  5
5CF9
330
50B9
100
AcDbEntity
  8
Defpoints
 62
     0
100
AcDbPoint
 10
105.6450171360199
 20
173.8906161719673
 30
0.0
  0
ENDBLK
  5
50C4
330
50B9
100
AcDbEntity
  8
0
100
AcDbBlockEnd
  0
BLOCK
  5
50CF
330
50C5
100
AcDbEntity
  8
0
100
AcDbBlockBegin
  2
*D23
 70
     1
 10
0.0
 20
0.0
 30
0.0
  3
*D23
  1

  0
LINE
  5
5CFA
330
50C5
100
AcDbEntity
  8
DIM
100
AcDbLine
 10
72.64501713601987
 20
167.3497464250973
 30
0.0
 11
72.64501713601987
 21
183.7612797680252
 31
0.0
  0
LINE
  5
5CFB
330
50C5
100
AcDbEntity
  8
DIM
100
AcDbLine
 10
105.6450171360199
 20
167.3497464250995
 30
0.0
 11
105.6450171360199
 21
183.7612797680252
 31
0.0
  0
LINE
  5
5CFC
330
50C5
100
AcDbEntity
  8
DIM
100
AcDbLine
 10
75.64501713601988
 20
181.7612797680252
 30
0.0
 11
102.6450171360199
 21
181.7612797680252
 31
0.0
  0
SOLID
  5
5CFD
330
50C5
100
AcDbEntity
  8
DIM
100
AcDbTrace
 10
75.64501713601988
 20
182.2612797680252
 30
0.0
 11
75.64501713601988
 21
181.2612797680252
 31
0.0
 12
72.64501713601987
 22
181.7612797680252
 32
0.0
 13
72.64501713601987
 23
181.7612797680252
 33
0.0
  0
SOLID
  5
5CFE
330
50C5
100
AcDbEntity
  8
DIM
100
AcDbTrace
 10
102.6450171360199
 20
182.2612797680252
 30
0.0
 11
102.6450171360199
 21
181.2612797680252
 31
0.0
 12
105.6450171360199
 22
181.7612797680252
 32
0.0
 13
105.6450171360199
 23
181.7612797680252
 33
0.0
  0
MTEXT
  5
5CFF
330
50C5
100
AcDbEntity
  8
DIM
100
AcDbMText
 10
89.14501713601987
 20
184.2612797680252
 30
0.0
 40
3.0
 41
0.0
 71
     5
 72
     1
  1
\A1;28+stroke=S
  7
dayus
 73
     1
 44
1.0
1001
ACAD
1000
MTEXTBEGIN
1070
    73
1070
     1
1070
    44
1040
1.0
1070
    74
1070
     0
1000
MTEXTEND
  0
POINT
  5
5D00
330
50C5
100
AcDbEntity
  8
Defpoints
 62
     0
100
AcDbPoint
 10
72.64501713601987
 20
165.3497464250973
 30
0.0
  0
POINT
  5
5D01
330
50C5
100
AcDbEntity
  8
Defpoints
 62
     0
100
AcDbPoint
 10
105.6450171360199
 20
165.3497464250994
 30
0.0
  0
POINT
  5
5D02
330
50C5
100
AcDbEntity
  8
Defpoints
 62
     0
100
AcDbPoint
 10
105.6450171360199
 20
181.7612797680252
 30
0.0
  0
ENDBLK
  5
50D0
330
50C5
100
AcDbEntity
  8
0
100
AcDbBlockEnd
  0
BLOCK
  5
50DB
330
50D1
100
AcDbEntity
  8
0
100
AcDbBlockBegin
  2
*D24
 70
     1
 10
0.0
 20
0.0
 30
0.0
  3
*D24
  1

  0
LINE
  5
5D03
330
50D1
100
AcDbEntity
  8
DIM
100
AcDbLine
 10
72.64501713601987
 20
167.3497464250994
 30
0.0
 11
72.64501713601987
 21
192.4352217039757
 31
0.0
  0
LINE
  5
5D04
330
50D1
100
AcDbEntity
  8
DIM
100
AcDbLine
 10
114.6450171360207
 20
145.3497464250987
 30
0.0
 11
114.6450171360207
 21
192.4352217039757
 31
0.0
  0
LINE
  5
5D05
330
50D1
100
AcDbEntity
  8
DIM
100
AcDbLine
 10
75.64501713601988
 20
190.4352217039757
 30
0.0
 11
111.6450171360208
 21
190.4352217039757
 31
0.0
  0
SOLID
  5
5D06
330
50D1
100
AcDbEntity
  8
DIM
100
AcDbTrace
 10
75.64501713601988
 20
190.9352217039757
 30
0.0
 11
75.64501713601988
 21
189.9352217039757
 31
0.0
 12
72.64501713601987
 22
190.4352217039757
 32
0.0
 13
72.64501713601987
 23
190.4352217039757
 33
0.0
  0
SOLID
  5
5D07
330
50D1
100
AcDbEntity
  8
DIM
100
AcDbTrace
 10
111.6450171360208
 20
190.9352217039757
 30
0.0
 11
111.6450171360208
 21
189.9352217039757
 31
0.0
 12
114.6450171360207
 22
190.4352217039757
 32
0.0
 13
114.6450171360207
 23
190.4352217039757
 33
0.0
  0
MTEXT
  5
5D08
330
50D1
100
AcDbEntity
  8
DIM
100
AcDbMText
 10
93.64501713602033
 20
192.9352217039756
 30
0.0
 40
3.0
 41
0.0
 71
     5
 72
     1
  1
\A1;37+stroke=ZZ
  7
dayus
 73
     1
 44
1.0
1001
ACAD
1000
MTEXTBEGIN
1070
    73
1070
     1
1070
    44
1040
1.0
1070
    74
1070
     0
1000
MTEXTEND
  0
POINT
  5
5D09
330
50D1
100
AcDbEntity
  8
Defpoints
 62
     0
100
AcDbPoint
 10
72.64501713601987
 20
165.3497464250994
 30
0.0
  0
POINT
  5
5D0A
330
50D1
100
AcDbEntity
  8
Defpoints
 62
     0
100
AcDbPoint
 10
114.6450171360207
 20
143.3497464250987
 30
0.0
  0
POINT
  5
5D0B
330
50D1
100
AcDbEntity
  8
Defpoints
 62
     0
100
AcDbPoint
 10
114.6450171360207
 20
190.4352217039757
 30
0.0
  0
ENDBLK
  5
50DC
330
50D1
100
AcDbEntity
  8
0
100
AcDbBlockEnd
  0
BLOCK
  5
50E7
330
50DD
100
AcDbEntity
  8
0
100
AcDbBlockBegin
  2
*D25
 70
     1
 10
0.0
 20
0.0
 30
0.0
  3
*D25
  1

  0
LINE
  5
5D0C
330
50DD
100
AcDbEntity
  8
DIM
100
AcDbLine
 10
112.1450171360212
 20
124.3497464250987
 30
0.0
 11
130.0814860090569
 21
124.3497464250987
 31
0.0
  0
LINE
  5
5D0D
330
50DD
100
AcDbEntity
  8
DIM
100
AcDbLine
 10
112.1450171360212
 20
144.3497464250982
 30
0.0
 11
130.0814860090569
 21
144.3497464250982
 31
0.0
  0
LINE
  5
5D0E
330
50DD
100
AcDbEntity
  8
DIM
100
AcDbLine
 10
128.0814860090569
 20
127.3497464250987
 30
0.0
 11
128.0814860090569
 21
141.3497464250982
 31
0.0
  0
SOLID
  5
5D0F
330
50DD
100
AcDbEntity
  8
DIM
100
AcDbTrace
 10
127.5814860090569
 20
127.3497464250987
 30
0.0
 11
128.5814860090569
 21
127.3497464250987
 31
0.0
 12
128.0814860090569
 22
124.3497464250987
 32
0.0
 13
128.0814860090569
 23
124.3497464250987
 33
0.0
  0
SOLID
  5
5D10
330
50DD
100
AcDbEntity
  8
DIM
100
AcDbTrace
 10
127.5814860090569
 20
141.3497464250982
 30
0.0
 11
128.5814860090569
 21
141.3497464250982
 31
0.0
 12
128.0814860090569
 22
144.3497464250982
 32
0.0
 13
128.0814860090569
 23
144.3497464250982
 33
0.0
  0
MTEXT
  5
5D11
330
50DD
100
AcDbEntity
  8
DIM
100
AcDbMText
 10
125.5814860090569
 20
134.3497464250985
 30
0.0
 40
3.0
 41
0.0
 71
     5
 72
     1
  1
\A1;%%c20
  7
dayus
 11
0.0000000000000001
 21
1.0
 31
0.0
 73
     1
 44
1.0
1001
ACAD
1000
MTEXTBEGIN
1070
    73
1070
     1
1070
    44
1040
1.0
1070
    74
1070
     0
1000
MTEXTEND
  0
POINT
  5
5D12
330
50DD
100
AcDbEntity
  8
Defpoints
 62
     0
100
AcDbPoint
 10
110.1450171360212
 20
124.3497464250987
 30
0.0
  0
POINT
  5
5D13
330
50DD
100
AcDbEntity
  8
Defpoints
 62
     0
100
AcDbPoint
 10
110.1450171360212
 20
144.3497464250982
 30
0.0
  0
POINT
  5
5D14
330
50DD
100
AcDbEntity
  8
Defpoints
 62
     0
100
AcDbPoint
 10
128.0814860090569
 20
144.3497464250982
 30
0.0
  0
ENDBLK
  5
50E8
330
50DD
100
AcDbEntity
  8
0
100
AcDbBlockEnd
  0
BLOCK
  5
50F3
330
50E9
100
AcDbEntity
  8
0
100
AcDbBlockBegin
  2
*D26
 70
     1
 10
0.0
 20
0.0
 30
0.0
  3
*D26
  1

  0
LINE
  5
5D15
330
50E9
100
AcDbEntity
  8
DIM
100
AcDbLine
 10
111.1450171360194
 20
115.3497464250985
 30
0.0
 11
139.8074703557364
 21
115.3497464250985
 31
0.0
  0
LINE
  5
5D16
330
50E9
100
AcDbEntity
  8
DIM
100
AcDbLine
 10
111.1450171360194
 20
153.3497464250985
 30
0.0
 11
139.8074703557364
 21
153.3497464250985
 31
0.0
  0
LINE
  5
5D17
330
50E9
100
AcDbEntity
  8
DIM
100
AcDbLine
 10
137.8074703557364
 20
118.3497464250985
 30
0.0
 11
137.8074703557364
 21
150.3497464250985
 31
0.0
  0
SOLID
  5
5D18
330
50E9
100
AcDbEntity
  8
DIM
100
AcDbTrace
 10
137.3074703557364
 20
118.3497464250985
 30
0.0
 11
138.3074703557364
 21
118.3497464250985
 31
0.0
 12
137.8074703557364
 22
115.3497464250985
 32
0.0
 13
137.8074703557364
 23
115.3497464250985
 33
0.0
  0
SOLID
  5
5D19
330
50E9
100
AcDbEntity
  8
DIM
100
AcDbTrace
 10
137.3074703557364
 20
150.3497464250985
 30
0.0
 11
138.3074703557364
 21
150.3497464250985
 31
0.0
 12
137.8074703557364
 22
153.3497464250985
 32
0.0
 13
137.8074703557364
 23
153.3497464250985
 33
0.0
  0
MTEXT
  5
5D1A
330
50E9
100
AcDbEntity
  8
DIM
100
AcDbMText
 10
134.3224703557364
 20
134.3497464250985
 30
0.0
 40
3.0
 41
0.0
 71
     5
 72
     1
  1
\A1;%%c38{}{\H0.71x;\C3;\S 0^ -0.05;}
  7
dayus
 11
0.0000000000000001
 21
1.0
 31
0.0
 73
     1
 44
1.0
1001
ACAD
1000
MTEXTBEGIN
1070
    73
1070
     1
1070
    44
1040
1.0
1070
    74
1070
     0
1000
MTEXTEND
  0
POINT
  5
5D1B
330
50E9
100
AcDbEntity
  8
Defpoints
 62
     0
100
AcDbPoint
 10
109.1450171360194
 20
115.3497464250985
 30
0.0
  0
POINT
  5
5D1C
330
50E9
100
AcDbEntity
  8
Defpoints
 62
     0
100
AcDbPoint
 10
109.1450171360194
 20
153.3497464250985
 30
0.0
  0
POINT
  5
5D1D
330
50E9
100
AcDbEntity
  8
Defpoints
 62
     0
100
AcDbPoint
 10
137.8074703557364
 20
153.3497464250985
 30
0.0
  0
ENDBLK
  5
50F4
330
50E9
100
AcDbEntity
  8
0
100
AcDbBlockEnd
  0
BLOCK
  5
5101
330
50F5
100
AcDbEntity
  8
0
100
AcDbBlockBegin
  2
*D27
 70
     1
 10
0.0
 20
0.0
 30
0.0
  3
*D27
  1

  0
LINE
  5
5D1E
330
50F5
100
AcDbEntity
  8
DIM
100
AcDbLine
 10
111.6450171360212
 20
127.0819195486717
 30
0.0
 11
111.6450171360212
 21
104.7459632299676
 31
0.0
  0
LINE
  5
5D1F
330
50F5
100
AcDbEntity
  8
DIM
100
AcDbLine
 10
114.6450171360208
 20
123.3497464250979
 30
0.0
 11
114.6450171360208
 21
104.7459632299676
 31
0.0
  0
LINE
  5
5D20
330
50F5
100
AcDbEntity
  8
DIM
100
AcDbLine
 10
108.6450171360212
 20
106.7459632299676
 30
0.0
 11
105.6450171360212
 21
106.7459632299676
 31
0.0
  0
LINE
  5
5D21
330
50F5
100
AcDbEntity
  8
DIM
100
AcDbLine
 10
117.6450171360208
 20
106.7459632299676
 30
0.0
 11
120.6450171360208
 21
106.7459632299676
 31
0.0
  0
LINE
  5
5D22
330
50F5
100
AcDbEntity
  8
DIM
100
AcDbLine
 10
111.6450171360212
 20
106.7459632299676
 30
0.0
 11
114.6450171360208
 21
106.7459632299676
 31
0.0
  0
SOLID
  5
5D23
330
50F5
100
AcDbEntity
  8
DIM
100
AcDbTrace
 10
108.6450171360212
 20
107.2459632299676
 30
0.0
 11
108.6450171360212
 21
106.2459632299676
 31
0.0
 12
111.6450171360212
 22
106.7459632299676
 32
0.0
 13
111.6450171360212
 23
106.7459632299676
 33
0.0
  0
SOLID
  5
5D24
330
50F5
100
AcDbEntity
  8
DIM
100
AcDbTrace
 10
117.6450171360208
 20
107.2459632299676
 30
0.0
 11
117.6450171360208
 21
106.2459632299676
 31
0.0
 12
114.6450171360208
 22
106.7459632299676
 32
0.0
 13
114.6450171360208
 23
106.7459632299676
 33
0.0
  0
MTEXT
  5
5D25
330
50F5
100
AcDbEntity
  8
DIM
100
AcDbMText
 10
113.145017136021
 20
109.2459632299676
 30
0.0
 40
3.0
 41
0.0
 71
     5
 72
     1
  1
\A1;3
  7
dayus
 73
     1
 44
1.0
1001
ACAD
1000
MTEXTBEGIN
1070
    73
1070
     1
1070
    44
1040
1.0
1070
    74
1070
     0
1000
MTEXTEND
  0
POINT
  5
5D26
330
50F5
100
AcDbEntity
  8
Defpoints
 62
     0
100
AcDbPoint
 10
111.6450171360212
 20
129.0819195486717
 30
0.0
  0
POINT
  5
5D27
330
50F5
100
AcDbEntity
  8
Defpoints
 62
     0
100
AcDbPoint
 10
114.6450171360208
 20
125.3497464250979
 30
0.0
  0
POINT
  5
5D28
330
50F5
100
AcDbEntity
  8
Defpoints
 62
     0
100
AcDbPoint
 10
114.6450171360208
 20
106.7459632299676
 30
0.0
  0
ENDBLK
  5
5102
330
50F5
100
AcDbEntity
  8
0
100
AcDbBlockEnd
  0
BLOCK
  5
510D
330
5103
100
AcDbEntity
  8
0
100
AcDbBlockBegin
  2
*D28
 70
     1
 10
0.0
 20
0.0
 30
0.0
  3
*D28
  1

  0
LINE
  5
5B87
330
5103
100
AcDbEntity
  8
DIM
100
AcDbLine
 10
203.1317550473112
 20
340.8893315127376
 30
0.0
 11
203.1317550473112
 21
353.5592579445997
 31
0.0
  0
LINE
  5
5B88
330
5103
100
AcDbEntity
  8
DIM
100
AcDbLine
 10
251.1317550473112
 20
340.889331512738
 30
0.0
 11
251.1317550473112
 21
353.5592579445997
 31
0.0
  0
LINE
  5
5B89
330
5103
100
AcDbEntity
  8
DIM
100
AcDbLine
 10
206.1317550473112
 20
351.5592579445997
 30
0.0
 11
248.1317550473112
 21
351.5592579445997
 31
0.0
  0
SOLID
  5
5B8A
330
5103
100
AcDbEntity
  8
DIM
100
AcDbTrace
 10
206.1317550473112
 20
352.0592579445997
 30
0.0
 11
206.1317550473112
 21
351.0592579445997
 31
0.0
 12
203.1317550473112
 22
351.5592579445997
 32
0.0
 13
203.1317550473112
 23
351.5592579445997
 33
0.0
  0
SOLID
  5
5B8B
330
5103
100
AcDbEntity
  8
DIM
100
AcDbTrace
 10
248.1317550473112
 20
352.0592579445997
 30
0.0
 11
248.1317550473112
 21
351.0592579445997
 31
0.0
 12
251.1317550473112
 22
351.5592579445997
 32
0.0
 13
251.1317550473112
 23
351.5592579445997
 33
0.0
  0
MTEXT
  5
5B8C
330
5103
100
AcDbEntity
  8
DIM
100
AcDbMText
 10
227.1317550473112
 20
354.0592579445997
 30
0.0
 40
3.0
 41
0.0
 71
     5
 72
     1
  1
\A1;□48
  7
dayus
 73
     1
 44
1.0
1001
ACAD
1000
MTEXTBEGIN
1070
    73
1070
     1
1070
    44
1040
1.0
1070
    74
1070
     0
1000
MTEXTEND
  0
POINT
  5
5B8D
330
5103
100
AcDbEntity
  8
Defpoints
 62
     0
100
AcDbPoint
 10
203.1317550473112
 20
338.8893315127376
 30
0.0
  0
POINT
  5
5B8E
330
5103
100
AcDbEntity
  8
Defpoints
 62
     0
100
AcDbPoint
 10
251.1317550473112
 20
338.889331512738
 30
0.0
  0
POINT
  5
5B8F
330
5103
100
AcDbEntity
  8
Defpoints
 62
     0
100
AcDbPoint
 10
251.1317550473112
 20
351.5592579445997
 30
0.0
  0
ENDBLK
  5
510E
330
5103
100
AcDbEntity
  8
0
100
AcDbBlockEnd
  0
BLOCK
  5
5119
330
510F
100
AcDbEntity
  8
0
100
AcDbBlockBegin
  2
*D29
 70
     1
 10
0.0
 20
0.0
 30
0.0
  3
*D29
  1

  0
LINE
  5
5B90
330
510F
100
AcDbEntity
  8
DIM
100
AcDbLine
 10
196.1317550473112
 20
337.2221472427349
 30
0.0
 11
196.1317550473112
 21
361.615198143282
 31
0.0
  0
LINE
  5
5B91
330
510F
100
AcDbEntity
  8
DIM
100
AcDbLine
 10
258.1317550473108
 20
337.2221472427347
 30
0.0
 11
258.1317550473108
 21
361.615198143282
 31
0.0
  0
LINE
  5
5B92
330
510F
100
AcDbEntity
  8
DIM
100
AcDbLine
 10
199.1317550473112
 20
359.615198143282
 30
0.0
 11
255.1317550473108
 21
359.615198143282
 31
0.0
  0
SOLID
  5
5B93
330
510F
100
AcDbEntity
  8
DIM
100
AcDbTrace
 10
199.1317550473112
 20
360.115198143282
 30
0.0
 11
199.1317550473112
 21
359.115198143282
 31
0.0
 12
196.1317550473112
 22
359.615198143282
 32
0.0
 13
196.1317550473112
 23
359.615198143282
 33
0.0
  0
SOLID
  5
5B94
330
510F
100
AcDbEntity
  8
DIM
100
AcDbTrace
 10
255.1317550473108
 20
360.115198143282
 30
0.0
 11
255.1317550473108
 21
359.115198143282
 31
0.0
 12
258.1317550473108
 22
359.615198143282
 32
0.0
 13
258.1317550473108
 23
359.615198143282
 33
0.0
  0
MTEXT
  5
5B95
330
510F
100
AcDbEntity
  8
DIM
100
AcDbMText
 10
227.131755047311
 20
362.115198143282
 30
0.0
 40
3.0
 41
0.0
 71
     5
 72
     1
  1
\A1;□62
  7
dayus
 73
     1
 44
1.0
1001
ACAD
1000
MTEXTBEGIN
1070
    73
1070
     1
1070
    44
1040
1.0
1070
    74
1070
     0
1000
MTEXTEND
  0
POINT
  5
5B96
330
510F
100
AcDbEntity
  8
Defpoints
 62
     0
100
AcDbPoint
 10
196.1317550473112
 20
335.2221472427349
 30
0.0
  0
POINT
  5
5B97
330
510F
100
AcDbEntity
  8
Defpoints
 62
     0
100
AcDbPoint
 10
258.1317550473108
 20
335.2221472427347
 30
0.0
  0
POINT
  5
5B98
330
510F
100
AcDbEntity
  8
Defpoints
 62
     0
100
AcDbPoint
 10
258.1317550473108
 20
359.615198143282
 30
0.0
  0
ENDBLK
  5
511A
330
510F
100
AcDbEntity
  8
0
100
AcDbBlockEnd
  0
BLOCK
  5
5125
330
511B
100
AcDbEntity
  8
0
100
AcDbBlockBegin
  2
*D30
 70
     1
 10
0.0
 20
0.0
 30
0.0
  3
*D30
  1

  0
LINE
  5
5B99
330
511B
100
AcDbEntity
  8
DIM
100
AcDbLine
 10
188.1317550473112
 20
319.6828587744404
 30
0.0
 11
188.1317550473112
 21
370.4083555374116
 31
0.0
  0
LINE
  5
5B9A
330
511B
100
AcDbEntity
  8
DIM
100
AcDbLine
 10
258.1317550473108
 20
337.2221472427349
 30
0.0
 11
258.1317550473108
 21
370.4083555374116
 31
0.0
  0
LINE
  5
5B9B
330
511B
100
AcDbEntity
  8
DIM
100
AcDbLine
 10
191.1317550473112
 20
368.4083555374116
 30
0.0
 11
255.1317550473108
 21
368.4083555374116
 31
0.0
  0
SOLID
  5
5B9C
330
511B
100
AcDbEntity
  8
DIM
100
AcDbTrace
 10
191.1317550473112
 20
368.9083555374116
 30
0.0
 11
191.1317550473112
 21
367.9083555374116
 31
0.0
 12
188.1317550473112
 22
368.4083555374116
 32
0.0
 13
188.1317550473112
 23
368.4083555374116
 33
0.0
  0
SOLID
  5
5B9D
330
511B
100
AcDbEntity
  8
DIM
100
AcDbTrace
 10
255.1317550473108
 20
368.9083555374116
 30
0.0
 11
255.1317550473108
 21
367.9083555374116
 31
0.0
 12
258.1317550473108
 22
368.4083555374116
 32
0.0
 13
258.1317550473108
 23
368.4083555374116
 33
0.0
  0
MTEXT
  5
5B9E
330
511B
100
AcDbEntity
  8
DIM
100
AcDbMText
 10
223.131755047311
 20
370.9083555374116
 30
0.0
 40
3.0
 41
0.0
 71
     5
 72
     1
  1
\A1;70
  7
dayus
 73
     1
 44
1.0
1001
ACAD
1000
MTEXTBEGIN
1070
    73
1070
     1
1070
    44
1040
1.0
1070
    74
1070
     0
1000
MTEXTEND
  0
POINT
  5
5B9F
330
511B
100
AcDbEntity
  8
Defpoints
 62
     0
100
AcDbPoint
 10
188.1317550473112
 20
317.6828587744404
 30
0.0
  0
POINT
  5
5BA0
330
511B
100
AcDbEntity
  8
Defpoints
 62
     0
100
AcDbPoint
 10
258.1317550473108
 20
335.2221472427349
 30
0.0
  0
POINT
  5
5BA1
330
511B
100
AcDbEntity
  8
Defpoints
 62
     0
100
AcDbPoint
 10
258.1317550473108
 20
368.4083555374116
 30
0.0
  0
ENDBLK
  5
5126
330
511B
100
AcDbEntity
  8
0
100
AcDbBlockEnd
  0
BLOCK
  5
5131
330
5127
100
AcDbEntity
  8
0
100
AcDbBlockBegin
  2
*D31
 70
     1
 10
0.0
 20
0.0
 30
0.0
  3
*D31
  1

  0
LINE
  5
5BA2
330
5127
100
AcDbEntity
  8
DIM
100
AcDbLine
 10
218.6317550473108
 20
301.1238791025377
 30
0.0
 11
218.6317550473108
 21
263.899553517275
 31
0.0
  0
LINE
  5
5BA3
330
5127
100
AcDbEntity
  8
DIM
100
AcDbLine
 10
235.6317550473085
 20
301.1238791025373
 30
0.0
 11
235.6317550473085
 21
263.899553517275
 31
0.0
  0
LINE
  5
5BA4
330
5127
100
AcDbEntity
  8
DIM
100
AcDbLine
 10
221.6317550473108
 20
265.899553517275
 30
0.0
 11
232.6317550473085
 21
265.899553517275
 31
0.0
  0
SOLID
  5
5BA5
330
5127
100
AcDbEntity
  8
DIM
100
AcDbTrace
 10
221.6317550473108
 20
266.399553517275
 30
0.0
 11
221.6317550473108
 21
265.399553517275
 31
0.0
 12
218.6317550473108
 22
265.899553517275
 32
0.0
 13
218.6317550473108
 23
265.899553517275
 33
0.0
  0
SOLID
  5
5BA6
330
5127
100
AcDbEntity
  8
DIM
100
AcDbTrace
 10
232.6317550473085
 20
266.399553517275
 30
0.0
 11
232.6317550473085
 21
265.399553517275
 31
0.0
 12
235.6317550473085
 22
265.899553517275
 32
0.0
 13
235.6317550473085
 23
265.899553517275
 33
0.0
  0
MTEXT
  5
5BA7
330
5127
100
AcDbEntity
  8
DIM
100
AcDbMText
 10
227.1317550473096
 20
268.399553517275
 30
0.0
 40
3.0
 41
0.0
 71
     5
 72
     1
  1
\A1;□17
  7
dayus
 73
     1
 44
1.0
1001
ACAD
1000
MTEXTBEGIN
1070
    73
1070
     1
1070
    44
1040
1.0
1070
    74
1070
     0
1000
MTEXTEND
  0
POINT
  5
5BA8
330
5127
100
AcDbEntity
  8
Defpoints
 62
     0
100
AcDbPoint
 10
218.6317550473108
 20
303.1238791025377
 30
0.0
  0
POINT
  5
5BA9
330
5127
100
AcDbEntity
  8
Defpoints
 62
     0
100
AcDbPoint
 10
235.6317550473085
 20
303.1238791025373
 30
0.0
  0
POINT
  5
5BAA
330
5127
100
AcDbEntity
  8
Defpoints
 62
     0
100
AcDbPoint
 10
235.6317550473085
 20
265.899553517275
 30
0.0
  0
ENDBLK
  5
5132
330
5127
100
AcDbEntity
  8
0
100
AcDbBlockEnd
  0
BLOCK
  5
513D
330
5133
100
AcDbEntity
  8
0
100
AcDbBlockBegin
  2
*D32
 70
     1
 10
0.0
 20
0.0
 30
0.0
  3
*D32
  1

  0
LINE
  5
5BAB
330
5133
100
AcDbEntity
  8
DIM
100
AcDbLine
 10
186.1775352923744
 20
298.9684611429086
 30
0.0
 11
174.9333553451254
 21
298.9684611429086
 31
0.0
  0
LINE
  5
5BAC
330
5133
100
AcDbEntity
  8
DIM
100
AcDbLine
 10
186.1775352923744
 20
317.8102018825669
 30
0.0
 11
174.9333553451254
 21
317.8102018825669
 31
0.0
  0
LINE
  5
5BAD
330
5133
100
AcDbEntity
  8
DIM
100
AcDbLine
 10
176.9333553451254
 20
301.9684611429086
 30
0.0
 11
176.9333553451254
 21
314.8102018825668
 31
0.0
  0
SOLID
  5
5BAE
330
5133
100
AcDbEntity
  8
DIM
100
AcDbTrace
 10
176.4333553451254
 20
301.9684611429086
 30
0.0
 11
177.4333553451254
 21
301.9684611429086
 31
0.0
 12
176.9333553451254
 22
298.9684611429086
 32
0.0
 13
176.9333553451254
 23
298.9684611429086
 33
0.0
  0
SOLID
  5
5BAF
330
5133
100
AcDbEntity
  8
DIM
100
AcDbTrace
 10
176.4333553451254
 20
314.8102018825668
 30
0.0
 11
177.4333553451254
 21
314.8102018825668
 31
0.0
 12
176.9333553451254
 22
317.8102018825669
 32
0.0
 13
176.9333553451254
 23
317.8102018825669
 33
0.0
  0
MTEXT
  5
5BB0
330
5133
100
AcDbEntity
  8
DIM
100
AcDbMText
 10
174.4333553451254
 20
308.3893315127378
 30
0.0
 40
3.0
 41
0.0
 71
     5
 72
     1
  1
\A1;19
  7
dayus
 11
0.0000000000000001
 21
1.0
 31
0.0
 73
     1
 44
1.0
1001
ACAD
1000
MTEXTBEGIN
1070
    73
1070
     1
1070
    44
1040
1.0
1070
    74
1070
     0
1000
MTEXTEND
  0
POINT
  5
5BB1
330
5133
100
AcDbEntity
  8
Defpoints
 62
     0
100
AcDbPoint
 10
188.1775352923744
 20
298.9684611429086
 30
0.0
  0
POINT
  5
5BB2
330
5133
100
AcDbEntity
  8
Defpoints
 62
     0
100
AcDbPoint
 10
188.1775352923744
 20
317.8102018825669
 30
0.0
  0
POINT
  5
5BB3
330
5133
100
AcDbEntity
  8
Defpoints
 62
     0
100
AcDbPoint
 10
176.9333553451254
 20
317.8102018825669
 30
0.0
  0
ENDBLK
  5
513E
330
5133
100
AcDbEntity
  8
0
100
AcDbBlockEnd
  0
BLOCK
  5
51A4
330
519A
100
AcDbEntity
  8
0
100
AcDbBlockBegin
  2
*D33
 70
     1
 10
0.0
 20
0.0
 30
0.0
  3
*D33
  1

  0
LINE
  5
5D29
330
519A
100
AcDbEntity
  8
DIM
100
AcDbLine
 10
203.1317550473112
 20
166.8497464250985
 30
0.0
 11
203.1317550473112
 21
179.5196728569606
 31
0.0
  0
LINE
  5
5D2A
330
519A
100
AcDbEntity
  8
DIM
100
AcDbLine
 10
251.1317550473112
 20
166.8497464250989
 30
0.0
 11
251.1317550473112
 21
179.5196728569606
 31
0.0
  0
LINE
  5
5D2B
330
519A
100
AcDbEntity
  8
DIM
100
AcDbLine
 10
206.1317550473112
 20
177.5196728569606
 30
0.0
 11
248.1317550473112
 21
177.5196728569606
 31
0.0
  0
SOLID
  5
5D2C
330
519A
100
AcDbEntity
  8
DIM
100
AcDbTrace
 10
206.1317550473112
 20
178.0196728569606
 30
0.0
 11
206.1317550473112
 21
177.0196728569606
 31
0.0
 12
203.1317550473112
 22
177.5196728569606
 32
0.0
 13
203.1317550473112
 23
177.5196728569606
 33
0.0
  0
SOLID
  5
5D2D
330
519A
100
AcDbEntity
  8
DIM
100
AcDbTrace
 10
248.1317550473112
 20
178.0196728569606
 30
0.0
 11
248.1317550473112
 21
177.0196728569606
 31
0.0
 12
251.1317550473112
 22
177.5196728569606
 32
0.0
 13
251.1317550473112
 23
177.5196728569606
 33
0.0
  0
MTEXT
  5
5D2E
330
519A
100
AcDbEntity
  8
DIM
100
AcDbMText
 10
227.1317550473112
 20
180.0196728569606
 30
0.0
 40
3.0
 41
0.0
 71
     5
 72
     1
  1
\A1;□48
  7
dayus
 73
     1
 44
1.0
1001
ACAD
1000
MTEXTBEGIN
1070
    73
1070
     1
1070
    44
1040
1.0
1070
    74
1070
     0
1000
MTEXTEND
  0
POINT
  5
5D2F
330
519A
100
AcDbEntity
  8
Defpoints
 62
     0
100
AcDbPoint
 10
203.1317550473112
 20
164.8497464250985
 30
0.0
  0
POINT
  5
5D30
330
519A
100
AcDbEntity
  8
Defpoints
 62
     0
100
AcDbPoint
 10
251.1317550473112
 20
164.8497464250989
 30
0.0
  0
POINT
  5
5D31
330
519A
100
AcDbEntity
  8
Defpoints
 62
     0
100
AcDbPoint
 10
251.1317550473112
 20
177.5196728569606
 30
0.0
  0
ENDBLK
  5
51A5
330
519A
100
AcDbEntity
  8
0
100
AcDbBlockEnd
  0
BLOCK
  5
51B0
330
51A6
100
AcDbEntity
  8
0
100
AcDbBlockBegin
  2
*D34
 70
     1
 10
0.0
 20
0.0
 30
0.0
  3
*D34
  1

  0
LINE
  5
5D32
330
51A6
100
AcDbEntity
  8
DIM
100
AcDbLine
 10
196.1317550473112
 20
163.1825621550958
 30
0.0
 11
196.1317550473112
 21
187.5756130556429
 31
0.0
  0
LINE
  5
5D33
330
51A6
100
AcDbEntity
  8
DIM
100
AcDbLine
 10
258.1317550473108
 20
163.1825621550956
 30
0.0
 11
258.1317550473108
 21
187.5756130556429
 31
0.0
  0
LINE
  5
5D34
330
51A6
100
AcDbEntity
  8
DIM
100
AcDbLine
 10
199.1317550473112
 20
185.5756130556429
 30
0.0
 11
255.1317550473108
 21
185.5756130556429
 31
0.0
  0
SOLID
  5
5D35
330
51A6
100
AcDbEntity
  8
DIM
100
AcDbTrace
 10
199.1317550473112
 20
186.0756130556429
 30
0.0
 11
199.1317550473112
 21
185.0756130556429
 31
0.0
 12
196.1317550473112
 22
185.5756130556429
 32
0.0
 13
196.1317550473112
 23
185.5756130556429
 33
0.0
  0
SOLID
  5
5D36
330
51A6
100
AcDbEntity
  8
DIM
100
AcDbTrace
 10
255.1317550473108
 20
186.0756130556429
 30
0.0
 11
255.1317550473108
 21
185.0756130556429
 31
0.0
 12
258.1317550473108
 22
185.5756130556429
 32
0.0
 13
258.1317550473108
 23
185.5756130556429
 33
0.0
  0
MTEXT
  5
5D37
330
51A6
100
AcDbEntity
  8
DIM
100
AcDbMText
 10
227.131755047311
 20
188.0756130556429
 30
0.0
 40
3.0
 41
0.0
 71
     5
 72
     1
  1
\A1;□62
  7
dayus
 73
     1
 44
1.0
1001
ACAD
1000
MTEXTBEGIN
1070
    73
1070
     1
1070
    44
1040
1.0
1070
    74
1070
     0
1000
MTEXTEND
  0
POINT
  5
5D38
330
51A6
100
AcDbEntity
  8
Defpoints
 62
     0
100
AcDbPoint
 10
196.1317550473112
 20
161.1825621550958
 30
0.0
  0
POINT
  5
5D39
330
51A6
100
AcDbEntity
  8
Defpoints
 62
     0
100
AcDbPoint
 10
258.1317550473108
 20
161.1825621550956
 30
0.0
  0
POINT
  5
5D3A
330
51A6
100
AcDbEntity
  8
Defpoints
 62
     0
100
AcDbPoint
 10
258.1317550473108
 20
185.5756130556429
 30
0.0
  0
ENDBLK
  5
51B1
330
51A6
100
AcDbEntity
  8
0
100
AcDbBlockEnd
  0
BLOCK
  5
51BC
330
51B2
100
AcDbEntity
  8
0
100
AcDbBlockBegin
  2
*D35
 70
     1
 10
0.0
 20
0.0
 30
0.0
  3
*D35
  1

  0
LINE
  5
5D3B
330
51B2
100
AcDbEntity
  8
DIM
100
AcDbLine
 10
188.1317550473112
 20
145.6432736868013
 30
0.0
 11
188.1317550473112
 21
196.3687704497725
 31
0.0
  0
LINE
  5
5D3C
330
51B2
100
AcDbEntity
  8
DIM
100
AcDbLine
 10
258.1317550473108
 20
163.1825621550958
 30
0.0
 11
258.1317550473108
 21
196.3687704497725
 31
0.0
  0
LINE
  5
5D3D
330
51B2
100
AcDbEntity
  8
DIM
100
AcDbLine
 10
191.1317550473112
 20
194.3687704497725
 30
0.0
 11
255.1317550473108
 21
194.3687704497725
 31
0.0
  0
SOLID
  5
5D3E
330
51B2
100
AcDbEntity
  8
DIM
100
AcDbTrace
 10
191.1317550473112
 20
194.8687704497725
 30
0.0
 11
191.1317550473112
 21
193.8687704497725
 31
0.0
 12
188.1317550473112
 22
194.3687704497725
 32
0.0
 13
188.1317550473112
 23
194.3687704497725
 33
0.0
  0
SOLID
  5
5D3F
330
51B2
100
AcDbEntity
  8
DIM
100
AcDbTrace
 10
255.1317550473108
 20
194.8687704497725
 30
0.0
 11
255.1317550473108
 21
193.8687704497725
 31
0.0
 12
258.1317550473108
 22
194.3687704497725
 32
0.0
 13
258.1317550473108
 23
194.3687704497725
 33
0.0
  0
MTEXT
  5
5D40
330
51B2
100
AcDbEntity
  8
DIM
100
AcDbMText
 10
223.131755047311
 20
196.8687704497725
 30
0.0
 40
3.0
 41
0.0
 71
     5
 72
     1
  1
\A1;70
  7
dayus
 73
     1
 44
1.0
1001
ACAD
1000
MTEXTBEGIN
1070
    73
1070
     1
1070
    44
1040
1.0
1070
    74
1070
     0
1000
MTEXTEND
  0
POINT
  5
5D41
330
51B2
100
AcDbEntity
  8
Defpoints
 62
     0
100
AcDbPoint
 10
188.1317550473112
 20
143.6432736868013
 30
0.0
  0
POINT
  5
5D42
330
51B2
100
AcDbEntity
  8
Defpoints
 62
     0
100
AcDbPoint
 10
258.1317550473108
 20
161.1825621550958
 30
0.0
  0
POINT
  5
5D43
330
51B2
100
AcDbEntity
  8
Defpoints
 62
     0
100
AcDbPoint
 10
258.1317550473108
 20
194.3687704497725
 30
0.0
  0
ENDBLK
  5
51BD
330
51B2
100
AcDbEntity
  8
0
100
AcDbBlockEnd
  0
BLOCK
  5
51C8
330
51BE
100
AcDbEntity
  8
0
100
AcDbBlockBegin
  2
*D36
 70
     1
 10
0.0
 20
0.0
 30
0.0
  3
*D36
  1

  0
LINE
  5
5D44
330
51BE
100
AcDbEntity
  8
DIM
100
AcDbLine
 10
218.6317550473108
 20
127.0842940148986
 30
0.0
 11
218.6317550473108
 21
89.8599684296359
 31
0.0
  0
LINE
  5
5D45
330
51BE
100
AcDbEntity
  8
DIM
100
AcDbLine
 10
235.6317550473085
 20
127.0842940148982
 30
0.0
 11
235.6317550473085
 21
89.8599684296359
 31
0.0
  0
LINE
  5
5D46
330
51BE
100
AcDbEntity
  8
DIM
100
AcDbLine
 10
221.6317550473108
 20
91.85996842963589
 30
0.0
 11
232.6317550473085
 21
91.85996842963589
 31
0.0
  0
SOLID
  5
5D47
330
51BE
100
AcDbEntity
  8
DIM
100
AcDbTrace
 10
221.6317550473108
 20
92.3599684296359
 30
0.0
 11
221.6317550473108
 21
91.3599684296359
 31
0.0
 12
218.6317550473108
 22
91.85996842963589
 32
0.0
 13
218.6317550473108
 23
91.85996842963589
 33
0.0
  0
SOLID
  5
5D48
330
51BE
100
AcDbEntity
  8
DIM
100
AcDbTrace
 10
232.6317550473085
 20
92.3599684296359
 30
0.0
 11
232.6317550473085
 21
91.3599684296359
 31
0.0
 12
235.6317550473085
 22
91.85996842963589
 32
0.0
 13
235.6317550473085
 23
91.85996842963589
 33
0.0
  0
MTEXT
  5
5D49
330
51BE
100
AcDbEntity
  8
DIM
100
AcDbMText
 10
227.1317550473096
 20
94.35996842963589
 30
0.0
 40
3.0
 41
0.0
 71
     5
 72
     1
  1
\A1;□17
  7
dayus
 73
     1
 44
1.0
1001
ACAD
1000
MTEXTBEGIN
1070
    73
1070
     1
1070
    44
1040
1.0
1070
    74
1070
     0
1000
MTEXTEND
  0
POINT
  5
5D4A
330
51BE
100
AcDbEntity
  8
Defpoints
 62
     0
100
AcDbPoint
 10
218.6317550473108
 20
129.0842940148986
 30
0.0
  0
POINT
  5
5D4B
330
51BE
100
AcDbEntity
  8
Defpoints
 62
     0
100
AcDbPoint
 10
235.6317550473085
 20
129.0842940148982
 30
0.0
  0
POINT
  5
5D4C
330
51BE
100
AcDbEntity
  8
Defpoints
 62
     0
100
AcDbPoint
 10
235.6317550473085
 20
91.85996842963589
 30
0.0
  0
ENDBLK
  5
51C9
330
51BE
100
AcDbEntity
  8
0
100
AcDbBlockEnd
  0
BLOCK
  5
51D4
330
51CA
100
AcDbEntity
  8
0
100
AcDbBlockBegin
  2
*D37
 70
     1
 10
0.0
 20
0.0
 30
0.0
  3
*D37
  1

  0
LINE
  5
5D4D
330
51CA
100
AcDbEntity
  8
DIM
100
AcDbLine
 10
186.1775352923744
 20
124.9288760552695
 30
0.0
 11
174.9333553451254
 21
124.9288760552695
 31
0.0
  0
LINE
  5
5D4E
330
51CA
100
AcDbEntity
  8
DIM
100
AcDbLine
 10
186.1775352923744
 20
143.7706167949277
 30
0.0
 11
174.9333553451254
 21
143.7706167949277
 31
0.0
  0
LINE
  5
5D4F
330
51CA
100
AcDbEntity
  8
DIM
100
AcDbLine
 10
176.9333553451254
 20
127.9288760552695
 30
0.0
 11
176.9333553451254
 21
140.7706167949277
 31
0.0
  0
SOLID
  5
5D50
330
51CA
100
AcDbEntity
  8
DIM
100
AcDbTrace
 10
176.4333553451254
 20
127.9288760552695
 30
0.0
 11
177.4333553451254
 21
127.9288760552695
 31
0.0
 12
176.9333553451254
 22
124.9288760552695
 32
0.0
 13
176.9333553451254
 23
124.9288760552695
 33
0.0
  0
SOLID
  5
5D51
330
51CA
100
AcDbEntity
  8
DIM
100
AcDbTrace
 10
176.4333553451254
 20
140.7706167949277
 30
0.0
 11
177.4333553451254
 21
140.7706167949277
 31
0.0
 12
176.9333553451254
 22
143.7706167949277
 32
0.0
 13
176.9333553451254
 23
143.7706167949277
 33
0.0
  0
MTEXT
  5
5D52
330
51CA
100
AcDbEntity
  8
DIM
100
AcDbMText
 10
174.4333553451253
 20
134.3497464250987
 30
0.0
 40
3.0
 41
0.0
 71
     5
 72
     1
  1
\A1;19
  7
dayus
 11
0.0000000000000001
 21
1.0
 31
0.0
 73
     1
 44
1.0
1001
ACAD
1000
MTEXTBEGIN
1070
    73
1070
     1
1070
    44
1040
1.0
1070
    74
1070
     0
1000
MTEXTEND
  0
POINT
  5
5D53
330
51CA
100
AcDbEntity
  8
Defpoints
 62
     0
100
AcDbPoint
 10
188.1775352923744
 20
124.9288760552695
 30
0.0
  0
POINT
  5
5D54
330
51CA
100
AcDbEntity
  8
Defpoints
 62
     0
100
AcDbPoint
 10
188.1775352923744
 20
143.7706167949277
 30
0.0
  0
POINT
  5
5D55
330
51CA
100
AcDbEntity
  8
Defpoints
 62
     0
100
AcDbPoint
 10
176.9333553451254
 20
143.7706167949277
 30
0.0
  0
ENDBLK
  5
51D5
330
51CA
100
AcDbEntity
  8
0
100
AcDbBlockEnd
  0
BLOCK
  5
5D59
330
5D57
100
AcDbEntity
  8
0
100
AcDbBlockBegin
  2
A$C5ECF147B
 70
     0
 10
0.0
 20
0.0
 30
0.0
  3
A$C5ECF147B
  1

  0
CIRCLE
  5
5D5A
330
5D57
100
AcDbEntity
  8
0
100
AcDbCircle
 10
-3.079240456948355
 20
2.061381943681453
 30
0.0
 40
1.25
  0
CIRCLE
  5
5D5B
330
5D57
100
AcDbEntity
  8
0
100
AcDbCircle
 10
-3.079240456948355
 20
2.061381943681453
 30
0.0
 40
0.75
  0
ENDBLK
  5
5D5C
330
5D57
100
AcDbEntity
  8
0
100
AcDbBlockEnd
  0
BLOCK
  5
5DC9
330
5DC6
100
AcDbEntity
  8
0
100
AcDbBlockBegin
  2
A$C1F6E6265
 70
     0
 10
0.0
 20
0.0
 30
0.0
  3
A$C1F6E6265
  1

  0
LINE
  5
5DCA
330
5DC6
100
AcDbEntity
  8
AM_5
 62
     5
100
AcDbLine
 10
12.57846733029419
 20
0.460783587398737
 30
0.0
 11
7.091423997858555
 21
0.460783587398737
 31
0.0
  0
LINE
  5
5DCB
330
5DC6
100
AcDbEntity
  8
AM_5
 62
     5
100
AcDbLine
 10
7.091423997858555
 20
0.460783587398737
 30
0.0
 11
3.50000046420655
 21
0.460783587398737
 31
0.0
  0
TRACE
  5
5DCC
330
5DC6
100
AcDbEntity
  8
AM_5
 62
     5
370
    35
100
AcDbTrace
 10
3.50000046420655
 20
0.9215673268987245
 30
0.0
 11
3.50000046420655
 21
-0.0000001521012507
 31
0.0
 12
0.0000004642065505
 22
0.460783587398737
 32
0.0
 13
0.0000004642065505
 23
0.460783587398737
 33
0.0
  0
MTEXT
  5
5DCD
330
5DC6
100
AcDbEntity
  8
AM_5
 62
     5
100
AcDbMText
 10
6.603782167567317
 20
1.421084835219261
 30
0.0
 40
2.449999999999999
 41
0.0
 71
     7
 72
     5
  1
SL
  7
ACISOTS
 73
     1
 44
1.0
1001
ACAD
1000
MTEXTBEGIN
1070
    73
1070
     1
1070
    44
1040
1.0
1070
    74
1070
     0
1000
MTEXTEND
  0
ENDBLK
  5
5DCE
330
5DC6
100
AcDbEntity
  8
0
100
AcDbBlockEnd
  0
ENDSEC
  0
SECTION
  2
ENTITIES
  0
MTEXT
  5
A9
330
1F
100
AcDbEntity
  8
0
100
AcDbMText
 10
-112.8858816556399
 20
179.1757813154577
 30
0.0
 40
3.0
 41
0.0
 71
     4
 72
     5
  1

 73
     1
 44
1.0
1001
ACAD
1000
MTEXTBEGIN
1070
    73
1070
     1
1070
    44
1040
1.0
1070
    74
1070
     0
1000
MTEXTEND
  0
MTEXT
  5
AA
330
1F
100
AcDbEntity
  8
0
100
AcDbMText
 10
-176.2667196970539
 20
189.9084924046809
 30
0.0
 40
1.799999999999999
 41
0.0
 71
     9
 72
     5
  1

 73
     1
 44
1.0
1001
ACAD
1000
MTEXTBEGIN
1070
    73
1070
     1
1070
    44
1040
1.0
1070
    74
1070
     0
1000
MTEXTEND
  0
MTEXT
  5
AB
330
1F
100
AcDbEntity
  8
0
100
AcDbMText
 10
82.64233389287733
 20
174.944592339129
 30
0.0
 40
3.0
 41
0.0
 71
     4
 72
     5
  1

 73
     1
 44
1.0
1001
ACAD
1000
MTEXTBEGIN
1070
    73
1070
     1
1070
    44
1040
1.0
1070
    74
1070
     0
1000
MTEXTEND
  0
MTEXT
  5
AC
330
1F
100
AcDbEntity
  8
0
100
AcDbMText
 10
19.26149585146331
 20
185.6773034283523
 30
0.0
 40
1.799999999999999
 41
0.0
 71
     9
 72
     5
  1

 73
     1
 44
1.0
1001
ACAD
1000
MTEXTBEGIN
1070
    73
1070
     1
1070
    44
1040
1.0
1070
    74
1070
     0
1000
MTEXTEND
  0
MTEXT
  5
B1
330
1F
100
AcDbEntity
  8
0
100
AcDbMText
 10
-211.0828086697475
 20
93.72900974557683
 30
0.0
 40
3.0
 41
59.51
 71
     1
 72
     5
  1

  7
CHINESET
 73
     1
 44
1.0
1001
ACAD
1000
MTEXTBEGIN
1070
    73
1070
     1
1070
    44
1040
1.0
1070
    74
1070
     0
1000
MTEXTEND
  0
MTEXT
  5
B2
330
1F
100
AcDbEntity
  8
0
100
AcDbMText
 10
-179.9099428209695
 20
86.93407807798587
 30
0.0
 40
3.0
 41
38.26
 71
     1
 72
     5
  1

  7
CHINESET
 73
     1
 44
1.0
1001
ACAD
1000
MTEXTBEGIN
1070
    73
1070
     1
1070
    44
1040
1.0
1070
    74
1070
     0
1000
MTEXTEND
  0
MTEXT
  5
10B3
330
1F
100
AcDbEntity
  8
0
100
AcDbMText
 10
81.67014302795905
 20
125.5492500028813
 30
0.0
 40
3.0
 41
0.0
 71
     7
 72
     5
  1

  7
CHINESET
 73
     1
 44
1.0
1001
ACAD
1000
MTEXTBEGIN
1070
    73
1070
     1
1070
    44
1040
1.0
1070
    74
1070
     0
1000
MTEXTEND
  0
LINE
  5
17B4
330
1F
100
AcDbEntity
  8
0
 62
     4
100
AcDbLine
 10
342.6061282506338
 20
76.02127997416236
 30
0.0
 11
342.6061282506338
 21
429.3352408078675
 31
0.0
  0
LINE
  5
17B5
330
1F
100
AcDbEntity
  8
0
 62
     4
100
AcDbLine
 10
5.16183393303018
 20
76.02127997416229
 30
0.0
 11
5.16183393303018
 21
429.3352408078675
 31
0.0
  0
TEXT
  5
17BD
330
1F
100
AcDbEntity
  8
LOGO
  6
Continuous
 62
     7
100
AcDbText
 10
187.5402065144314
 20
64.52186397599708
 30
0.0
 40
6.44875
  1
11/12
  7
CHINESET
 72
     1
 11
200.4377065144314
 21
67.74623897599707
 31
0.0
100
AcDbText
 73
     2
  0
TEXT
  5
17BE
330
1F
100
AcDbEntity
  8
LOGO
100
AcDbText
 10
189.5401812745122
 20
49.43812177141822
 30
0.0
 40
4.60625
  1
作動型式
  7
CHINESET
 72
     4
 11
198.7046995036789
 21
51.62337029504027
 31
0.0
100
AcDbText
  0
LINE
  5
17BF
330
1F
100
AcDbEntity
  8
0
 62
     4
100
AcDbLine
 10
342.6061282506338
 20
246.0546577368494
 30
0.0
 11
5.16183393303018
 21
246.0546577368494
 31
0.0
  0
TEXT
  5
17C3
330
1F
100
AcDbEntity
  8
LOGO
  6
Continuous
100
AcDbText
 10
189.2289852179646
 20
44.22358602792981
 30
0.0
 40
2.76375
  1
Acting type
 41
0.8
  7
CHINESET
 72
     4
 11
198.7046995036789
 21
45.14483602792981
 31
0.0
100
AcDbText
  0
LINE
  5
17C4
330
1F
100
AcDbEntity
  8
LOGO
 62
     4
100
AcDbLine
 10
216.2668256002886
 20
61.9890251224171
 30
0.0
 11
184.4160304336844
 21
61.9890251224171
 31
0.0
  0
LINE
  5
17C5
330
1F
100
AcDbEntity
  8
LOGO
 62
     4
100
AcDbLine
 10
216.2668256002886
 20
56.15834428201765
 30
0.0
 11
184.4160304336844
 21
56.15834428201765
 31
0.0
  0
LINE
  5
17C6
330
1F
100
AcDbEntity
  8
LOGO
 62
     4
100
AcDbLine
 10
216.2668256002886
 20
41.90556889437454
 30
0.0
 11
184.4160304336844
 21
41.90556889437451
 31
0.0
  0
LINE
  5
17C7
330
1F
100
AcDbEntity
  8
LOGO
 62
     4
100
AcDbLine
 10
216.2668256002886
 20
73.65038680321609
 30
0.0
 11
184.4160304336844
 21
73.65038680321598
 31
0.0
  0
LINE
  5
1802
330
1F
100
AcDbEntity
  8
LOGO
 62
     4
100
AcDbLine
 10
172.649655148954
 20
56.15834428201765
 30
0.0
 11
146.735518080512
 21
56.15834428201765
 31
0.0
  0
TEXT
  5
1803
330
1F
100
AcDbEntity
  8
LOGO
  6
Continuous
 62
     7
100
AcDbText
 10
147.8698782813996
 20
64.59533096281656
 30
0.0
 40
6.44875
  1
MCJA
  7
CHINESET
 72
     1
 11
159.692586614733
 21
67.81970596281656
 31
0.0
100
AcDbText
 73
     2
  0
LINE
  5
1804
330
1F
100
AcDbEntity
  8
LOGO
 62
     4
100
AcDbLine
 10
172.649655148954
 20
41.90556889437454
 30
0.0
 11
146.735518080512
 21
41.90556889437451
 31
0.0
  0
TEXT
  5
1805
330
1F
100
AcDbEntity
  8
LOGO
  6
Continuous
100
AcDbText
 10
155.4811580433044
 20
43.76296102792981
 30
0.0
 40
2.76375
  1
Model
 41
0.8
  7
CHINESET
 72
     4
 11
159.692586614733
 21
45.14483602792981
 31
0.0
100
AcDbText
  0
TEXT
  5
1806
330
1F
100
AcDbEntity
  8
LOGO
100
AcDbText
 10
155.086336614733
 20
49.43812177141822
 30
0.0
 40
4.60625
  1
型式
  7
CHINESET
 72
     4
 11
159.692586614733
 21
51.62337029504027
 31
0.0
100
AcDbText
  0
LINE
  5
1807
330
1F
100
AcDbEntity
  8
LOGO
 62
     4
100
AcDbLine
 10
175.2410688557982
 20
61.9890251224171
 30
0.0
 11
144.1441043736679
 21
61.9890251224171
 31
0.0
  0
LINE
  5
1808
330
1F
100
AcDbEntity
  8
LOGO
 62
     4
100
AcDbLine
 10
175.2410688557982
 20
73.65038680321598
 30
0.0
 11
144.1441043736679
 21
73.65038680321598
 31
0.0
  0
LINE
  5
1809
330
1F
100
AcDbEntity
  8
LOGO
 62
     4
100
AcDbLine
 10
159.692586614733
 20
61.9890251224171
 30
0.0
 11
159.692586614733
 21
56.15834428201765
 31
0.0
  0
LINE
  5
180A
330
1F
100
AcDbEntity
  8
LOGO
 62
     4
100
AcDbLine
 10
146.735518080512
 20
56.15834428201765
 30
0.0
 11
146.735518080512
 21
41.90556889437451
 31
0.0
  0
LINE
  5
180B
330
1F
100
AcDbEntity
  8
LOGO
 62
     4
100
AcDbLine
 10
144.1441043736679
 20
73.65038680321598
 30
0.0
 11
144.1441043736679
 21
61.9890251224171
 31
0.0
  0
LINE
  5
180C
330
1F
100
AcDbEntity
  8
LOGO
 62
     4
100
AcDbLine
 10
172.649655148954
 20
56.15834428201765
 30
0.0
 11
172.649655148954
 21
41.90556889437454
 31
0.0
  0
LINE
  5
180D
330
1F
100
AcDbEntity
  8
LOGO
 62
     4
100
AcDbLine
 10
184.4160304336844
 20
56.15834428201765
 30
0.0
 11
184.4160304336844
 21
41.90556889437454
 31
0.0
  0
LINE
  5
180E
330
1F
100
AcDbEntity
  8
LOGO
  6
Continuous
 62
     7
100
AcDbLine
 10
177.2501462206918
 20
67.77839957681237
 30
0.0
 11
182.3993780347521
 21
67.77839957681237
 31
0.0
  0
LINE
  5
180F
330
1F
100
AcDbEntity
  8
LOGO
 62
     4
100
AcDbLine
 10
175.2410688557983
 20
73.65038680321598
 30
0.0
 11
175.2410688557983
 21
61.9890251224171
 31
0.0
  0
LINE
  5
1810
330
1F
100
AcDbEntity
  8
LOGO
 62
     4
100
AcDbLine
 10
184.4160304336844
 20
73.65038680321598
 30
0.0
 11
184.4160304336844
 21
61.9890251224171
 31
0.0
  0
LINE
  5
1868
330
1F
100
AcDbEntity
  8
LOGO
 62
     4
100
AcDbLine
 10
277.0042723522236
 20
73.65038680321598
 30
0.0
 11
255.4198457755172
 21
73.65038680321598
 31
0.0
  0
LINE
  5
1869
330
1F
100
AcDbEntity
  8
LOGO
 62
     4
100
AcDbLine
 10
277.0042723522236
 20
61.9890251224171
 30
0.0
 11
255.4198457755172
 21
61.9890251224171
 31
0.0
  0
LINE
  5
186A
330
1F
100
AcDbEntity
  8
LOGO
 62
     4
100
AcDbLine
 10
275.7085654988015
 20
56.15834428201765
 30
0.0
 11
256.7155526289393
 21
56.15834428201765
 31
0.0
  0
LINE
  5
186B
330
1F
100
AcDbEntity
  8
LOGO
 62
     4
100
AcDbLine
 10
275.7085654988015
 20
41.90556889437454
 30
0.0
 11
256.7155526289393
 21
41.90556889437451
 31
0.0
  0
LINE
  5
186C
330
1F
100
AcDbEntity
  8
LOGO
 62
     4
100
AcDbLine
 10
246.244884197631
 20
61.98902512241716
 30
0.0
 11
225.4417871781747
 21
61.98902512241716
 31
0.0
  0
LINE
  5
186D
330
1F
100
AcDbEntity
  8
LOGO
 62
     4
100
AcDbLine
 10
246.244884197631
 20
56.15834428201771
 30
0.0
 11
225.4417871781747
 21
56.15834428201771
 31
0.0
  0
LINE
  5
186E
330
1F
100
AcDbEntity
  8
LOGO
 62
     4
100
AcDbLine
 10
246.244884197631
 20
73.65038680321615
 30
0.0
 11
225.4417871781747
 21
73.65038680321609
 31
0.0
  0
TEXT
  5
186F
330
1F
100
AcDbEntity
  8
LOGO
  6
Continuous
 62
     7
100
AcDbText
 10
231.2275823863749
 20
64.52186397599716
 30
0.0
 40
6.44875
  1
50
  7
CHINESET
 72
     1
 11
236.4479990530416
 21
67.74623897599716
 31
0.0
100
AcDbText
 73
     2
  0
LINE
  5
1870
330
1F
100
AcDbEntity
  8
LOGO
 62
     4
100
AcDbLine
 10
246.244884197631
 20
41.90556889437462
 30
0.0
 11
225.4417871781747
 21
41.90556889437456
 31
0.0
  0
TEXT
  5
1871
330
1F
100
AcDbEntity
  8
LOGO
  6
Continuous
100
AcDbText
 10
232.4215499736173
 20
43.76296102792983
 30
0.0
 40
2.76375
  1
Bore
 41
0.8
  7
CHINESET
 72
     4
 11
235.843335687903
 21
45.14483602792984
 31
0.0
100
AcDbText
  0
TEXT
  5
1872
330
1F
100
AcDbEntity
  8
LOGO
100
AcDbText
 10
230.949195062903
 20
49.32024529504033
 30
0.0
 40
4.60625
  1
內徑
  7
CHINESET
 72
     4
 11
235.843335687903
 21
51.62337029504033
 31
0.0
100
AcDbText
  0
LINE
  5
1873
330
1F
100
AcDbEntity
  8
LOGO
 62
     4
100
AcDbLine
 10
235.8433353891331
 20
61.98902512241716
 30
0.0
 11
235.8433353891331
 21
56.15834428201771
 31
0.0
  0
LINE
  5
1874
330
1F
100
AcDbEntity
  8
LOGO
 62
     4
100
AcDbLine
 10
198.7046995036789
 20
61.9890251224171
 30
0.0
 11
198.7046995036789
 21
56.15834428201765
 31
0.0
  0
LINE
  5
1875
330
1F
100
AcDbEntity
  8
LOGO
 62
     4
100
AcDbLine
 10
216.2668256002886
 20
56.15834428201765
 30
0.0
 11
216.2668256002886
 21
41.90556889437456
 31
0.0
  0
LINE
  5
1876
330
1F
100
AcDbEntity
  8
LOGO
 62
     4
100
AcDbLine
 10
225.4417871781747
 20
56.15834428201771
 30
0.0
 11
225.4417871781747
 21
41.90556889437462
 31
0.0
  0
LINE
  5
1877
330
1F
100
AcDbEntity
  8
LOGO
 62
     4
100
AcDbLine
 10
216.2668256002886
 20
73.65038680321609
 30
0.0
 11
216.2668256002886
 21
61.9890251224171
 31
0.0
  0
LINE
  5
1878
330
1F
100
AcDbEntity
  8
LOGO
 62
     4
100
AcDbLine
 10
225.4417871781747
 20
73.65038680321609
 30
0.0
 11
225.4417871781747
 21
61.98902512241716
 31
0.0
  0
LINE
  5
1879
330
1F
100
AcDbEntity
  8
LOGO
  6
Continuous
 62
     7
100
AcDbLine
 10
218.2759029651821
 20
67.77839957681246
 30
0.0
 11
223.4251347792425
 21
67.77839957681246
 31
0.0
  0
LINE
  5
187A
330
1F
100
AcDbEntity
  8
LOGO
 62
     4
100
AcDbLine
 10
266.4864780105953
 20
61.9890251224171
 30
0.0
 11
266.4864780105953
 21
56.15834428201765
 31
0.0
  0
LINE
  5
187B
330
1F
100
AcDbEntity
  8
LOGO
 62
     4
100
AcDbLine
 10
246.244884197631
 20
56.15834428201771
 30
0.0
 11
246.244884197631
 21
41.90556889437462
 31
0.0
  0
LINE
  5
187C
330
1F
100
AcDbEntity
  8
LOGO
 62
     4
100
AcDbLine
 10
256.7155526289393
 20
56.15834428201765
 30
0.0
 11
256.7155526289393
 21
41.90556889437451
 31
0.0
  0
TEXT
  5
187D
330
1F
100
AcDbEntity
  8
LOGO
  6
Continuous
100
AcDbText
 10
261.210987635299
 20
43.76296102792973
 30
0.0
 40
2.76375
  1
Stroke
 41
0.8
  7
CHINESET
 72
     4
 11
266.2120590638704
 21
45.14483602792973
 31
0.0
100
AcDbText
  0
TEXT
  5
187E
330
1F
100
AcDbEntity
  8
LOGO
100
AcDbText
 10
261.6058090638704
 20
49.32024529504027
 30
0.0
 40
4.60625
  1
行程
  7
CHINESET
 72
     4
 11
266.2120590638704
 21
51.62337029504027
 31
0.0
100
AcDbText
  0
LINE
  5
187F
330
1F
100
AcDbEntity
  8
LOGO
 62
     4
100
AcDbLine
 10
246.244884197631
 20
73.65038680321615
 30
0.0
 11
246.244884197631
 21
61.98902512241716
 31
0.0
  0
LINE
  5
1880
330
1F
100
AcDbEntity
  8
LOGO
  6
Continuous
 62
     7
100
AcDbLine
 10
248.2539615625246
 20
67.77839957681255
 30
0.0
 11
253.403193376585
 21
67.77839957681255
 31
0.0
  0
LINE
  5
1881
330
1F
100
AcDbEntity
  8
LOGO
 62
     4
100
AcDbLine
 10
255.4198457755172
 20
73.65038680321598
 30
0.0
 11
255.4198457755172
 21
61.9890251224171
 31
0.0
  0
TEXT
  5
1882
330
1F
100
AcDbEntity
  8
LOGO
  6
Continuous
 62
     7
100
AcDbText
 10
265.2813057623425
 20
64.52186397599708
 30
0.0
 40
6.44875
  1
*
  7
CHINESET
 72
     1
 11
266.8167224290091
 21
67.74623897599707
 31
0.0
100
AcDbText
 73
     2
  0
LINE
  5
1883
330
1F
100
AcDbEntity
  8
LOGO
 62
     4
100
AcDbLine
 10
288.2135070619424
 20
61.9890251224171
 30
0.0
 11
288.2135070619424
 21
56.15834428201765
 31
0.0
  0
LINE
  5
1885
330
1F
100
AcDbEntity
  8
LOGO
 62
     4
100
AcDbLine
 10
297.7100134968736
 20
41.90556889437454
 30
0.0
 11
278.7170006270113
 21
41.90556889437451
 31
0.0
  0
LINE
  5
1886
330
1F
100
AcDbEntity
  8
LOGO
 62
     4
100
AcDbLine
 10
297.7100134968736
 20
56.15834428201765
 30
0.0
 11
278.7170006270113
 21
56.15834428201765
 31
0.0
  0
TEXT
  5
1887
330
1F
100
AcDbEntity
  8
LOGO
  6
Continuous
100
AcDbText
 10
281.7910784905138
 20
43.76296102792973
 30
0.0
 40
2.76375
  1
MAGNET
 41
0.8
  7
CHINESET
 72
     4
 11
288.2135070619424
 21
45.14483602792973
 31
0.0
100
AcDbText
  0
TEXT
  5
1888
330
1F
100
AcDbEntity
  8
LOGO
100
AcDbText
 10
281.3041320619424
 20
49.3682270658736
 30
0.0
 40
4.60625
  1
附磁石
  7
CHINESET
 72
     4
 11
288.2135070619424
 21
51.62337029504027
 31
0.0
100
AcDbText
  0
LINE
  5
1889
330
1F
100
AcDbEntity
  8
LOGO
 62
     4
100
AcDbLine
 10
278.7170006270113
 20
56.15834428201765
 30
0.0
 11
278.7170006270113
 21
41.90556889437451
 31
0.0
  0
LINE
  5
188A
330
1F
100
AcDbEntity
  8
LOGO
 62
     4
100
AcDbLine
 10
275.7085654988015
 20
56.15834428201765
 30
0.0
 11
275.7085654988015
 21
41.85182648046082
 31
0.0
  0
LINE
  5
188B
330
1F
100
AcDbEntity
  8
LOGO
 62
     4
100
AcDbLine
 10
297.7100134968736
 20
56.15834428201765
 30
0.0
 11
297.7100134968736
 21
41.85182648046082
 31
0.0
  0
TEXT
  5
188C
330
1F
100
AcDbEntity
  8
LOGO
  6
Continuous
 62
     7
100
AcDbText
 10
281.9087957258508
 20
64.52186397599708
 30
0.0
 40
6.44875
  1
(M)
  7
CHINESET
 72
     1
 11
288.8181707258508
 21
67.74623897599707
 31
0.0
100
AcDbText
 73
     2
  0
LINE
  5
188D
330
1F
100
AcDbEntity
  8
LOGO
 62
     4
100
AcDbLine
 10
296.7263144608855
 20
61.9890251224171
 30
0.0
 11
279.7006996629992
 21
61.9890251224171
 31
0.0
  0
LINE
  5
188E
330
1F
100
AcDbEntity
  8
LOGO
 62
     4
100
AcDbLine
 10
296.7263144608855
 20
73.65038680321609
 30
0.0
 11
279.7006996629992
 21
73.65038680321598
 31
0.0
  0
LINE
  5
188F
330
1F
100
AcDbEntity
  8
LOGO
 62
     4
100
AcDbLine
 10
279.7006996629992
 20
73.65038680321598
 30
0.0
 11
279.7006996629992
 21
61.9890251224171
 31
0.0
  0
LINE
  5
1890
330
1F
100
AcDbEntity
  8
LOGO
 62
     4
100
AcDbLine
 10
277.0042723522236
 20
73.65038680321598
 30
0.0
 11
277.0042723522236
 21
61.9890251224171
 31
0.0
  0
LINE
  5
1891
330
1F
100
AcDbEntity
  8
LOGO
 62
     4
100
AcDbLine
 10
296.7263144608854
 20
73.65038680321609
 30
0.0
 11
296.7263144608855
 21
61.9890251224171
 31
0.0
  0
LINE
  5
18E7
330
1F
100
AcDbEntity
  8
0
 62
     4
100
AcDbLine
 10
342.6061282506338
 20
429.3352408078675
 30
0.0
 11
5.16183393303018
 21
429.3352408078676
 31
0.0
  0
TEXT
  5
18EA
330
1F
100
AcDbEntity
  8
0
100
AcDbText
 10
14.62918886324269
 20
417.568873690408
 30
0.0
 40
6.0
  1
11 type
  7
CHINESET
100
AcDbText
  0
LINE
  5
4D1F
330
1F
100
AcDbEntity
  8
0
100
AcDbLine
 10
109.6450171360194
 20
134.3497464250985
 30
0.0
 11
109.6450171360194
 21
115.8497464250985
 31
0.0
  0
LINE
  5
4D20
330
1F
100
AcDbEntity
  8
0
100
AcDbLine
 10
112.6450171360207
 20
125.3497464250987
 30
0.0
 11
112.6450171360207
 21
129.0819195486723
 31
0.0
  0
LINE
  5
4D21
330
1F
100
AcDbEntity
  8
0
100
AcDbLine
 10
114.6450171360207
 20
125.3497464250987
 30
0.0
 11
114.6450171360207
 21
143.3497464250987
 31
0.0
  0
LINE
  5
4D22
102
{ACAD_REACTORS
330
4FA4
102
}
330
1F
100
AcDbEntity
  8
0
100
AcDbLine
 10
114.6450171360207
 20
143.3497464250987
 30
0.0
 11
114.6450171360207
 21
125.3497464250987
 31
0.0
  0
LINE
  5
4D23
330
1F
100
AcDbEntity
  8
0
100
AcDbLine
 10
105.6450171360199
 20
103.3497464250987
 30
0.0
 11
105.6450171360199
 21
134.3497464250986
 31
0.0
  0
LINE
  5
4D24
330
1F
100
AcDbEntity
  8
0
100
AcDbLine
 10
109.1450171360194
 20
115.3497464250985
 30
0.0
 11
109.6450171360194
 21
115.8497464250985
 31
0.0
1001
GENIUS_GENFIL_13
1070
     0
1040
0.5
1040
0.5
1040
0.0
1040
0.0
1002
{
1002
}
1001
GENIUS_GENODEF_13
1002
{
1000
HIER
1070
     0
1002
}
1002
{
1000
MANEDIT
1070
     0
1002
}
1002
{
1000
NOSEL
1070
     0
1002
}
1002
{
1000
BEHIND
1070
     0
1002
}
1002
{
1000
REACTOR
1002
}
1001
GENIUS_GENOBJ-N-CHA_13
1002
{
1000
OWNER
1000
GEN
1002
}
  0
LINE
  5
4D25
102
{ACAD_REACTORS
330
4FAA
102
}
330
1F
100
AcDbEntity
  8
0
100
AcDbLine
 10
105.6450171360199
 20
115.3497464250985
 30
0.0
 11
109.1450171360194
 21
115.3497464250985
 31
0.0
  0
LINE
  5
4D26
102
{ACAD_REACTORS
330
4FA7
102
}
330
1F
100
AcDbEntity
  8
0
100
AcDbLine
 10
111.6450171360208
 20
125.3497464250983
 30
0.0
 11
110.1450171360212
 21
124.3497464250987
 31
0.0
  0
LINE
  5
4D27
330
1F
100
AcDbEntity
  8
0
100
AcDbLine
 10
110.1450171360212
 20
124.3497464250987
 30
0.0
 11
109.6450171360194
 21
124.3497464250987
 31
0.0
  0
LINE
  5
4D28
102
{ACAD_REACTORS
330
4FAD
102
}
330
1F
100
AcDbEntity
  8
0
100
AcDbLine
 10
114.6450171360207
 20
125.3497464250983
 30
0.0
 11
111.6450171360208
 21
125.3497464250983
 31
0.0
  0
LINE
  5
4D29
330
1F
100
AcDbEntity
  8
CENTER
 48
1.5
100
AcDbLine
 10
68.63433780315074
 20
134.3497464250985
 30
0.0
 11
118.3868785294131
 21
134.3497464250985
 31
0.0
  0
LINE
  5
4D2A
330
1F
100
AcDbEntity
  8
0
100
AcDbLine
 10
105.6450171360199
 20
165.3497464250994
 30
0.0
 11
105.6450171360199
 21
153.3497464250986
 31
0.0
  0
LINE
  5
4D2B
102
{ACAD_REACTORS
330
4F95
330
4F98
330
4F9E
330
4FA1
102
}
330
1F
100
AcDbEntity
  8
0
100
AcDbLine
 10
105.6450171360199
 20
165.3497464250994
 30
0.0
 11
105.6450171360199
 21
134.3497464250986
 31
0.0
  0
ARC
  5
4D2C
102
{ACAD_REACTORS
330
4FAD
102
}
330
1F
100
AcDbEntity
  8
0
100
AcDbCircle
 10
120.1450171360212
 20
134.3497464250987
 30
0.0
 40
10.00000000000029
100
AcDbArc
 50
180.0
 51
211.7883306170547
  0
LINE
  5
4D2D
330
1F
100
AcDbEntity
  8
0
100
AcDbLine
 10
111.6450171360208
 20
129.0819195486723
 30
0.0
 11
111.6450171360208
 21
134.3497464250987
 31
0.0
  0
LINE
  5
4D2E
330
1F
100
AcDbEntity
  8
0
100
AcDbLine
 10
111.6450171360208
 20
139.6175733015244
 30
0.0
 11
114.6450171360207
 21
129.0819195486723
 31
0.0
  0
LINE
  5
4D2F
330
1F
100
AcDbEntity
  8
0
100
AcDbLine
 10
114.6450171360207
 20
139.6175733015246
 30
0.0
 11
111.6450171360208
 21
129.0819195486723
 31
0.0
  0
LINE
  5
4D30
330
1F
100
AcDbEntity
  8
0
100
AcDbLine
 10
114.6450171360207
 20
129.0819195486723
 30
0.0
 11
111.6450171360208
 21
129.0819195486723
 31
0.0
  0
CIRCLE
  5
4D31
330
1F
100
AcDbEntity
  8
0
100
AcDbCircle
 10
227.1317550473099
 20
134.3497464250982
 30
0.0
 40
9.998749376000031
  0
CIRCLE
  5
4D32
330
1F
100
AcDbEntity
  8
0
100
AcDbCircle
 10
227.1317550473099
 20
134.3497464250982
 30
0.0
 40
4.57689232000003
  0
ARC
  5
4D33
330
1F
100
AcDbEntity
  8
0
 62
     3
100
AcDbCircle
 10
227.1317550473099
 20
134.3497464250982
 30
0.0
 40
5.633098240000039
100
AcDbArc
 50
168.4573306482879
 51
106.0374698264616
  0
LINE
  5
4D34
102
{ACAD_REACTORS
330
4F95
102
}
330
1F
100
AcDbEntity
  8
0
100
AcDbLine
 10
114.6450171360207
 20
143.3497464250987
 30
0.0
 11
111.6450171360208
 21
143.3497464250986
 31
0.0
  0
LINE
  5
4D35
330
1F
100
AcDbEntity
  8
0
100
AcDbLine
 10
114.6450171360207
 20
139.6175733015246
 30
0.0
 11
111.6450171360208
 21
139.6175733015246
 31
0.0
  0
LINE
  5
4D36
330
1F
100
AcDbEntity
  8
0
100
AcDbLine
 10
109.6450171360194
 20
134.3497464250985
 30
0.0
 11
109.6450171360194
 21
152.8497464250985
 31
0.0
  0
LINE
  5
4D37
330
1F
100
AcDbEntity
  8
0
100
AcDbLine
 10
105.6450171360199
 20
153.3497464250984
 30
0.0
 11
109.1450171360194
 21
153.3497464250985
 31
0.0
  0
LINE
  5
4D38
102
{ACAD_REACTORS
330
4F98
330
4FAA
102
}
330
1F
100
AcDbEntity
  8
0
100
AcDbLine
 10
109.1450171360194
 20
153.3497464250985
 30
0.0
 11
109.6450171360194
 21
152.8497464250985
 31
0.0
1001
GENIUS_GENFIL_13
1070
     0
1040
0.5
1040
0.5
1040
0.0
1040
0.0
1002
{
1002
}
1001
GENIUS_GENODEF_13
1002
{
1000
HIER
1070
     0
1002
}
1002
{
1000
MANEDIT
1070
     0
1002
}
1002
{
1000
NOSEL
1070
     0
1002
}
1002
{
1000
BEHIND
1070
     0
1002
}
1002
{
1000
REACTOR
1002
}
1001
GENIUS_GENOBJ-N-CHA_13
1002
{
1000
OWNER
1000
GEN
1002
}
  0
LINE
  5
4D39
330
1F
100
AcDbEntity
  8
0
100
AcDbLine
 10
112.6450171360207
 20
143.3497464250982
 30
0.0
 11
112.6450171360207
 21
139.6175733015247
 31
0.0
  0
LINE
  5
4D3A
330
1F
100
AcDbEntity
  8
0
100
AcDbLine
 10
111.6450171360208
 20
143.3497464250986
 30
0.0
 11
110.1450171360212
 21
144.3497464250982
 31
0.0
  0
LINE
  5
4D3B
102
{ACAD_REACTORS
330
4FA7
102
}
330
1F
100
AcDbEntity
  8
0
100
AcDbLine
 10
110.1450171360212
 20
144.3497464250982
 30
0.0
 11
109.6450171360194
 21
144.3497464250983
 31
0.0
  0
ARC
  5
4D3C
330
1F
100
AcDbEntity
  8
0
100
AcDbCircle
 10
120.1450171360212
 20
134.3497464250982
 30
0.0
 40
10.00000000000029
100
AcDbArc
 50
148.2116693829452
 51
180.0
  0
LINE
  5
4D3D
330
1F
100
AcDbEntity
  8
0
100
AcDbLine
 10
111.6450171360208
 20
139.6175733015246
 30
0.0
 11
111.6450171360208
 21
134.3497464250982
 31
0.0
  0
LINE
  5
4D3E
330
1F
100
AcDbEntity
  8
0
100
AcDbLine
 10
218.6317550473108
 20
139.6151988352982
 30
0.0
 11
218.6317550473108
 21
129.0842940148982
 31
0.0
  0
LINE
  5
4D3F
330
1F
100
AcDbEntity
  8
0
100
AcDbLine
 10
235.6317550473108
 20
139.6151988352946
 30
0.0
 11
235.6317550473108
 21
129.0842940149019
 31
0.0
  0
LINE
  5
4D40
330
1F
100
AcDbEntity
  8
0
100
AcDbLine
 10
218.6317550473085
 20
129.0842940149019
 30
0.0
 11
218.6317550473085
 21
139.6151988352946
 31
0.0
  0
LINE
  5
4D41
330
1F
100
AcDbEntity
  8
0
100
AcDbLine
 10
235.6317550473085
 20
129.0842940148983
 30
0.0
 11
235.6317550473085
 21
139.6151988352982
 31
0.0
  0
LINE
  5
4D42
330
1F
100
AcDbEntity
  8
0
100
AcDbLine
 10
221.8663026371118
 20
142.8497464250982
 30
0.0
 11
232.3972074575075
 21
142.8497464250983
 31
0.0
  0
LINE
  5
4D43
330
1F
100
AcDbEntity
  8
0
100
AcDbLine
 10
221.8663026371118
 20
125.8497464250982
 30
0.0
 11
232.397207457508
 21
125.8497464250983
 31
0.0
  0
CIRCLE
  5
4D44
330
1F
100
AcDbEntity
  8
0
100
AcDbCircle
 10
227.1317550473108
 20
134.3497464250982
 30
0.0
 40
8.499999999999971
  0
LINE
  5
4D45
330
1F
100
AcDbEntity
  8
0
100
AcDbLine
 10
109.6450171360194
 20
308.3893315127363
 30
0.0
 11
109.6450171360194
 21
289.8893315127363
 31
0.0
  0
LINE
  5
4D46
330
1F
100
AcDbEntity
  8
0
100
AcDbLine
 10
105.6450171360199
 20
277.3893315127366
 30
0.0
 11
105.6450171360199
 21
308.3893315127365
 31
0.0
  0
LINE
  5
4D47
330
1F
100
AcDbEntity
  8
0
100
AcDbLine
 10
105.6450171360199
 20
289.3893315127365
 30
0.0
 11
109.1450171360194
 21
289.3893315127364
 31
0.0
  0
LINE
  5
4D48
102
{ACAD_REACTORS
330
4F78
102
}
330
1F
100
AcDbEntity
  8
0
100
AcDbLine
 10
109.1450171360194
 20
289.3893315127364
 30
0.0
 11
109.6450171360194
 21
289.8893315127363
 31
0.0
1001
GENIUS_GENFIL_13
1070
     0
1040
0.5
1040
0.5
1040
0.0
1040
0.0
1002
{
1002
}
1001
GENIUS_GENODEF_13
1002
{
1000
HIER
1070
     0
1002
}
1002
{
1000
MANEDIT
1070
     0
1002
}
1002
{
1000
NOSEL
1070
     0
1002
}
1002
{
1000
BEHIND
1070
     0
1002
}
1002
{
1000
REACTOR
1002
}
1001
GENIUS_GENOBJ-N-CHA_13
1002
{
1000
OWNER
1000
GEN
1002
}
  0
ARC
  5
4D49
102
{ACAD_REACTORS
330
4F7F
102
}
330
1F
100
AcDbEntity
  8
0
100
AcDbCircle
 10
120.1450171360212
 20
308.3893315127366
 30
0.0
 40
10.00000000000029
100
AcDbArc
 50
180.0
 51
211.7883306170547
  0
ARC
  5
4D4A
330
1F
100
AcDbEntity
  8
0
100
AcDbCircle
 10
120.1450171360212
 20
308.3893315127361
 30
0.0
 40
10.00000000000029
100
AcDbArc
 50
148.2116693829452
 51
180.0
  0
LINE
  5
4D4B
330
1F
100
AcDbEntity
  8
CENTER
 48
1.5
100
AcDbLine
 10
68.41006296050512
 20
308.3893315127363
 30
0.0
 11
144.5785362472876
 21
308.3893315127363
 31
0.0
  0
LINE
  5
4D4C
330
1F
100
AcDbEntity
  8
0
100
AcDbLine
 10
105.6450171360199
 20
339.3893315127374
 30
0.0
 11
105.6450171360199
 21
308.3893315127365
 31
0.0
  0
LINE
  5
4D4D
102
{ACAD_REACTORS
330
4F72
102
}
330
1F
100
AcDbEntity
  8
CENTER
100
AcDbLine
 10
95.64501713601988
 20
316.0436587189695
 30
0.0
 11
95.64501713601988
 21
300.7350043065033
 31
0.0
  0
LINE
  5
4D4E
102
{ACAD_REACTORS
330
4F63
330
4F66
330
4F72
102
}
330
1F
100
AcDbEntity
  8
0
100
AcDbLine
 10
105.6450171360199
 20
339.3893315127374
 30
0.0
 11
105.6450171360199
 21
327.3893315127365
 31
0.0
  0
LINE
  5
4D4F
102
{ACAD_REACTORS
330
4F69
330
4F6C
330
4F6F
102
}
330
1F
100
AcDbEntity
  8
0
100
AcDbLine
 10
72.64501713601987
 20
339.3893315127374
 30
0.0
 11
72.64501713601987
 21
277.3893315127367
 31
0.0
  0
LINE
  5
4D50
102
{ACAD_REACTORS
330
4F6F
102
}
330
1F
100
AcDbEntity
  8
CENTER
100
AcDbLine
 10
82.64501713601987
 20
316.0436587189695
 30
0.0
 11
82.64501713601987
 21
300.7350043065033
 31
0.0
  0
LINE
  5
4D51
330
1F
100
AcDbEntity
  8
0
100
AcDbLine
 10
109.6450171360194
 20
308.3893315127363
 30
0.0
 11
109.6450171360194
 21
326.8893315127364
 31
0.0
  0
LINE
  5
4D52
330
1F
100
AcDbEntity
  8
0
100
AcDbLine
 10
105.6450171360199
 20
327.3893315127363
 30
0.0
 11
109.1450171360194
 21
327.3893315127363
 31
0.0
  0
LINE
  5
4D53
102
{ACAD_REACTORS
330
4F63
330
4F78
102
}
330
1F
100
AcDbEntity
  8
0
100
AcDbLine
 10
109.1450171360194
 20
327.3893315127363
 30
0.0
 11
109.6450171360194
 21
326.8893315127364
 31
0.0
1001
GENIUS_GENFIL_13
1070
     0
1040
0.5
1040
0.5
1040
0.0
1040
0.0
1002
{
1002
}
1001
GENIUS_GENODEF_13
1002
{
1000
HIER
1070
     0
1002
}
1002
{
1000
MANEDIT
1070
     0
1002
}
1002
{
1000
NOSEL
1070
     0
1002
}
1002
{
1000
BEHIND
1070
     0
1002
}
1002
{
1000
REACTOR
1002
}
1001
GENIUS_GENOBJ-N-CHA_13
1002
{
1000
OWNER
1000
GEN
1002
}
  0
LINE
  5
4D54
102
{ACAD_REACTORS
330
4F60
102
}
330
1F
100
AcDbEntity
  8
0
100
AcDbLine
 10
114.6450171360207
 20
299.3893315127366
 30
0.0
 11
114.6450171360207
 21
317.3893315127366
 31
0.0
  0
LINE
  5
4D55
330
1F
100
AcDbEntity
  8
0
100
AcDbLine
 10
114.6450171360207
 20
317.3893315127364
 30
0.0
 11
114.6450171360207
 21
299.3893315127364
 31
0.0
  0
LINE
  5
4D56
330
1F
100
AcDbEntity
  8
0
100
AcDbLine
 10
111.6450171360208
 20
313.6571583891625
 30
0.0
 11
111.6450171360208
 21
308.3893315127361
 31
0.0
  0
LINE
  5
4D57
330
1F
100
AcDbEntity
  8
0
100
AcDbLine
 10
114.6450171360207
 20
313.6571583891625
 30
0.0
 11
111.6450171360208
 21
303.1215046363102
 31
0.0
  0
LINE
  5
4D58
330
1F
100
AcDbEntity
  8
0
100
AcDbLine
 10
111.6450171360208
 20
313.6571583891623
 30
0.0
 11
114.6450171360207
 21
303.1215046363102
 31
0.0
  0
LINE
  5
4D59
330
1F
100
AcDbEntity
  8
0
100
AcDbLine
 10
111.6450171360208
 20
303.1215046363102
 30
0.0
 11
111.6450171360208
 21
308.3893315127366
 31
0.0
  0
LINE
  5
4D5A
330
1F
100
AcDbEntity
  8
0
100
AcDbLine
 10
114.6450171360207
 20
299.8893315127361
 30
0.0
 11
111.6450171360203
 21
299.8893315127363
 31
0.0
  0
LINE
  5
4D5B
330
1F
100
AcDbEntity
  8
0
100
AcDbLine
 10
114.6450171360207
 20
303.1215046363102
 30
0.0
 11
111.6450171360208
 21
303.1215046363102
 31
0.0
  0
LINE
  5
4D5C
330
1F
100
AcDbEntity
  8
0
100
AcDbLine
 10
112.6450171360207
 20
299.8893315127362
 30
0.0
 11
112.6450171360207
 21
303.1215046363102
 31
0.0
  0
LINE
  5
4D5D
330
1F
100
AcDbEntity
  8
0
100
AcDbLine
 10
114.6450171360207
 20
313.6571583891625
 30
0.0
 11
111.6450171360208
 21
313.6571583891625
 31
0.0
  0
LINE
  5
4D5E
330
1F
100
AcDbEntity
  8
0
100
AcDbLine
 10
114.6450171360207
 20
316.8893315127366
 30
0.0
 11
111.6450171360208
 21
316.8893315127365
 31
0.0
  0
LINE
  5
4D5F
330
1F
100
AcDbEntity
  8
0
100
AcDbLine
 10
112.6450171360207
 20
316.8893315127365
 30
0.0
 11
112.6450171360207
 21
313.6571583891625
 31
0.0
  0
LINE
  5
4D60
330
1F
100
AcDbEntity
  8
0
100
AcDbLine
 10
244.031755045611
 20
339.3893315127374
 30
0.0
 11
253.9645707773082
 21
339.3893315127375
 31
0.0
  0
LINE
  5
4D61
330
1F
100
AcDbEntity
  8
0
100
AcDbLine
 10
244.031755045611
 20
277.3893315127374
 30
0.0
 11
253.9645707773082
 21
277.3893315127374
 31
0.0
  0
CIRCLE
  5
4D62
330
1F
100
AcDbEntity
  8
0
100
AcDbCircle
 10
227.1317550473099
 20
308.3893315127376
 30
0.0
 40
26.02133333333334
  0
ARC
  5
4D63
330
1F
100
AcDbEntity
  8
0
100
AcDbCircle
 10
228.3134927091599
 20
308.3893315127376
 30
0.0
 40
23.47783623318508
100
AcDbArc
 50
32.67320277999878
 51
327.3267972200013
  0
LINE
  5
4D64
330
1F
100
AcDbEntity
  8
CENTER
 48
1.5
100
AcDbLine
 10
183.1317550473112
 20
308.3893315127374
 30
0.0
 11
263.1317550473108
 21
308.3893315127379
 31
0.0
  0
LINE
  5
4D65
330
1F
100
AcDbEntity
  8
CENTER
 48
1.5
100
AcDbLine
 10
227.1317550473108
 20
344.3893315127374
 30
0.0
 11
227.1317550473108
 21
272.3893315127373
 31
0.0
  0
LINE
  5
4D66
330
1F
100
AcDbEntity
  8
0
100
AcDbLine
 10
196.1317550473112
 20
297.3893315127374
 30
0.0
 11
196.1317550473112
 21
295.0893315127377
 31
0.0
  0
LINE
  5
4D67
330
1F
100
AcDbEntity
  8
0
100
AcDbLine
 10
200.2989393173137
 20
277.3893315127374
 30
0.0
 11
210.231755049011
 21
277.3893315127371
 31
0.0
  0
CIRCLE
  5
4D68
330
1F
100
AcDbEntity
  8
0
100
AcDbCircle
 10
203.1317550473112
 20
284.3893315127375
 30
0.0
 40
3.45
  0
CIRCLE
  5
4D69
330
1F
100
AcDbEntity
  8
0
100
AcDbCircle
 10
203.1317550473112
 20
284.3893315127376
 30
0.0
 40
5.5
  0
ARC
  5
4D6A
330
1F
100
AcDbEntity
  8
0
 62
     3
100
AcDbCircle
 10
203.1317550473112
 20
284.3893315127375
 30
0.0
 40
4.0
100
AcDbArc
 50
270.0
 51
180.0
  0
ARC
  5
4D6B
330
1F
100
AcDbEntity
  8
0
100
AcDbCircle
 10
227.1317550473108
 20
308.3893315127374
 30
0.0
 40
41.0
100
AcDbArc
 50
220.8786351465317
 51
229.1213648534728
  0
LINE
  5
4D6C
330
1F
100
AcDbEntity
  8
0
100
AcDbLine
 10
197.6317550463112
 20
291.2393315148877
 30
0.0
 11
197.131755046811
 21
291.6893315144376
 31
0.0
  0
LINE
  5
4D6D
330
1F
100
AcDbEntity
  8
0
100
AcDbLine
 10
197.6317550463112
 20
295.5393315105876
 30
0.0
 11
197.131755046811
 21
295.0893315110377
 31
0.0
  0
LINE
  5
4D6E
330
1F
100
AcDbEntity
  8
0
100
AcDbLine
 10
196.1317550473112
 20
291.6893315127376
 30
0.0
 11
196.1317550473112
 21
281.5565157827399
 31
0.0
  0
LINE
  5
4D6F
330
1F
100
AcDbEntity
  8
0
100
AcDbLine
 10
196.1317550473112
 20
291.6893315144376
 30
0.0
 11
197.131755046811
 21
291.6893315144376
 31
0.0
  0
LINE
  5
4D70
330
1F
100
AcDbEntity
  8
0
100
AcDbLine
 10
196.1317550473112
 20
295.0893315110377
 30
0.0
 11
197.131755046811
 21
295.0893315110377
 31
0.0
  0
ARC
  5
4D71
330
1F
100
AcDbEntity
  8
0
100
AcDbCircle
 10
199.7317550442111
 20
292.9393315131878
 30
0.0
 40
1.6999999983
100
AcDbArc
 50
270.0
 51
0.0
  0
ARC
  5
4D72
330
1F
100
AcDbEntity
  8
0
100
AcDbCircle
 10
199.7317550442111
 20
293.8393315122877
 30
0.0
 40
1.6999999983
100
AcDbArc
 50
0.0
 51
90.0
  0
LINE
  5
4D73
330
1F
100
AcDbEntity
  8
0
100
AcDbLine
 10
197.6317550463112
 20
291.2393315148877
 30
0.0
 11
199.7317550442111
 21
291.2393315148877
 31
0.0
  0
LINE
  5
4D74
330
1F
100
AcDbEntity
  8
0
100
AcDbLine
 10
197.6317550463112
 20
295.5393315105876
 30
0.0
 11
199.7317550442111
 21
295.5393315105876
 31
0.0
  0
LINE
  5
4D75
330
1F
100
AcDbEntity
  8
0
100
AcDbLine
 10
201.4317550425111
 20
293.8393315122877
 30
0.0
 11
201.4317550425111
 21
292.9393315131878
 31
0.0
  0
LINE
  5
4D76
330
1F
100
AcDbEntity
  8
0
100
AcDbLine
 10
217.2317550473112
 20
279.8893315127374
 30
0.0
 11
225.8317550473115
 21
279.8893315127374
 31
0.0
  0
ARC
  5
4D77
330
1F
100
AcDbEntity
  8
0
100
AcDbCircle
 10
212.5817550468613
 20
280.9893315096374
 30
0.0
 40
1.6999999983
100
AcDbArc
 50
0.0
 51
90.0
  0
LINE
  5
4D78
330
1F
100
AcDbEntity
  8
0
100
AcDbLine
 10
209.9817550494612
 20
278.8893315117374
 30
0.0
 11
209.9817550494612
 21
280.9893315096375
 31
0.0
  0
LINE
  5
4D79
330
1F
100
AcDbEntity
  8
0
100
AcDbLine
 10
210.4317550490108
 20
277.5893315127374
 30
0.0
 11
210.4317550490108
 21
278.3893315122374
 31
0.0
  0
LINE
  5
4D7A
330
1F
100
AcDbEntity
  8
0
100
AcDbLine
 10
209.9817550494612
 20
278.8893315117374
 30
0.0
 11
210.4317550490108
 21
278.3893315122374
 31
0.0
  0
ARC
  5
4D7B
330
1F
100
AcDbEntity
  8
0
100
AcDbCircle
 10
210.231755049011
 20
277.5893315127374
 30
0.0
 40
0.2
100
AcDbArc
 50
270.0
 51
0.0
  0
ARC
  5
4D7C
330
1F
100
AcDbEntity
  8
0
100
AcDbCircle
 10
211.6817550477612
 20
280.9893315096375
 30
0.0
 40
1.6999999983
100
AcDbArc
 50
90.0
 51
180.0
  0
LINE
  5
4D7D
330
1F
100
AcDbEntity
  8
0
100
AcDbLine
 10
212.5817550468613
 20
282.6893315079375
 30
0.0
 11
211.6817550477612
 21
282.6893315079375
 31
0.0
  0
LINE
  5
4D7E
330
1F
100
AcDbEntity
  8
0
100
AcDbLine
 10
214.2817550451613
 20
278.8893315117375
 30
0.0
 11
214.2817550451613
 21
280.9893315096374
 31
0.0
  0
LINE
  5
4D7F
330
1F
100
AcDbEntity
  8
0
100
AcDbLine
 10
214.031755045611
 20
277.3893315127371
 30
0.0
 11
218.5317550473113
 21
277.3893315127374
 31
0.0
  0
ARC
  5
4D80
330
1F
100
AcDbEntity
  8
0
100
AcDbCircle
 10
214.031755045611
 20
277.5893315127373
 30
0.0
 40
0.2
100
AcDbArc
 50
180.0
 51
270.0
  0
LINE
  5
4D81
330
1F
100
AcDbEntity
  8
0
100
AcDbLine
 10
214.2817550451613
 20
278.8893315117374
 30
0.0
 11
213.8317550456108
 21
278.3893315122374
 31
0.0
  0
LINE
  5
4D82
330
1F
100
AcDbEntity
  8
0
100
AcDbLine
 10
213.8317550456108
 20
277.5893315127374
 30
0.0
 11
213.8317550456108
 21
278.3893315122374
 31
0.0
  0
ARC
  5
4D83
330
1F
100
AcDbEntity
  8
0
100
AcDbCircle
 10
217.2317550473112
 20
279.6893315127376
 30
0.0
 40
0.2
100
AcDbArc
 50
90.0
 51
180.0
  0
ARC
  5
4D84
330
1F
100
AcDbEntity
  8
0
100
AcDbCircle
 10
217.2317550473112
 20
278.7893315127375
 30
0.0
 40
0.2
100
AcDbArc
 50
180.0
 51
270.0
  0
LINE
  5
4D85
330
1F
100
AcDbEntity
  8
0
100
AcDbLine
 10
217.0317550473113
 20
279.6893315127376
 30
0.0
 11
217.0317550473113
 21
278.7893315127375
 31
0.0
  0
LINE
  5
4D86
330
1F
100
AcDbEntity
  8
0
100
AcDbLine
 10
218.7317550473111
 20
278.3893315127374
 30
0.0
 11
218.7317550473111
 21
277.5893315127372
 31
0.0
  0
ARC
  5
4D87
330
1F
100
AcDbEntity
  8
0
100
AcDbCircle
 10
218.5317550473113
 20
277.5893315127372
 30
0.0
 40
0.2
100
AcDbArc
 50
270.0
 51
0.0
  0
ARC
  5
4D88
330
1F
100
AcDbEntity
  8
0
100
AcDbCircle
 10
218.5317550473113
 20
278.3893315127374
 30
0.0
 40
0.2
100
AcDbArc
 50
0.0
 51
90.0
  0
LINE
  5
4D89
330
1F
100
AcDbEntity
  8
0
100
AcDbLine
 10
217.2317550473112
 20
278.5893315127377
 30
0.0
 11
218.5317550473113
 21
278.5893315127377
 31
0.0
  0
LINE
  5
4D8A
330
1F
100
AcDbEntity
  8
0
100
AcDbLine
 10
228.4317550473109
 20
279.8893315127374
 30
0.0
 11
237.0317550473109
 21
279.8893315127374
 31
0.0
  0
LINE
  5
4D8B
330
1F
100
AcDbEntity
  8
0
100
AcDbLine
 10
226.2317550473111
 20
277.3893315127374
 30
0.0
 11
228.0317550473113
 21
277.3893315127374
 31
0.0
  0
ARC
  5
4D8C
330
1F
100
AcDbEntity
  8
0
100
AcDbCircle
 10
225.8317550473115
 20
279.6893315127376
 30
0.0
 40
0.2
100
AcDbArc
 50
0.0
 51
90.0
  0
ARC
  5
4D8D
330
1F
100
AcDbEntity
  8
0
100
AcDbCircle
 10
226.2317550473111
 20
277.5893315127372
 30
0.0
 40
0.2
100
AcDbArc
 50
180.0
 51
270.0
  0
LINE
  5
4D8E
330
1F
100
AcDbEntity
  8
0
100
AcDbLine
 10
226.0317550473113
 20
279.6893315127376
 30
0.0
 11
226.0317550473113
 21
277.5893315127372
 31
0.0
  0
ARC
  5
4D8F
330
1F
100
AcDbEntity
  8
0
100
AcDbCircle
 10
228.4317550473109
 20
279.6893315127376
 30
0.0
 40
0.2
100
AcDbArc
 50
90.0
 51
180.0
  0
ARC
  5
4D90
330
1F
100
AcDbEntity
  8
0
100
AcDbCircle
 10
228.0317550473113
 20
277.5893315127377
 30
0.0
 40
0.2
100
AcDbArc
 50
270.0
 51
0.0
  0
LINE
  5
4D91
330
1F
100
AcDbEntity
  8
0
100
AcDbLine
 10
228.2317550473111
 20
279.6893315127376
 30
0.0
 11
228.2317550473111
 21
277.5893315127377
 31
0.0
  0
LINE
  5
4D92
330
1F
100
AcDbEntity
  8
0
100
AcDbLine
 10
239.9817550494612
 20
278.8893315117375
 30
0.0
 11
239.9817550494612
 21
280.9893315096374
 31
0.0
  0
LINE
  5
4D93
330
1F
100
AcDbEntity
  8
0
100
AcDbLine
 10
244.2817550451613
 20
278.8893315117374
 30
0.0
 11
244.2817550451613
 21
280.9893315096375
 31
0.0
  0
LINE
  5
4D94
330
1F
100
AcDbEntity
  8
0
100
AcDbLine
 10
239.9817550494612
 20
278.8893315117374
 30
0.0
 11
240.4317550490108
 21
278.3893315122374
 31
0.0
  0
LINE
  5
4D95
330
1F
100
AcDbEntity
  8
0
100
AcDbLine
 10
235.7317550473112
 20
277.3893315127374
 30
0.0
 11
240.231755049011
 21
277.3893315127374
 31
0.0
  0
ARC
  5
4D96
330
1F
100
AcDbEntity
  8
0
100
AcDbCircle
 10
237.0317550473109
 20
279.6893315127376
 30
0.0
 40
0.2
100
AcDbArc
 50
0.0
 51
90.0
  0
LINE
  5
4D97
330
1F
100
AcDbEntity
  8
0
100
AcDbLine
 10
235.5317550473113
 20
278.3893315127374
 30
0.0
 11
235.5317550473113
 21
277.5893315127372
 31
0.0
  0
ARC
  5
4D98
330
1F
100
AcDbEntity
  8
0
100
AcDbCircle
 10
235.7317550473112
 20
277.5893315127372
 30
0.0
 40
0.2
100
AcDbArc
 50
180.0
 51
270.0
  0
ARC
  5
4D99
330
1F
100
AcDbEntity
  8
0
100
AcDbCircle
 10
235.7317550473112
 20
278.3893315127374
 30
0.0
 40
0.2
100
AcDbArc
 50
90.0
 51
180.0
  0
ARC
  5
4D9A
330
1F
100
AcDbEntity
  8
0
100
AcDbCircle
 10
237.0317550473109
 20
278.7893315127375
 30
0.0
 40
0.2
100
AcDbArc
 50
270.0
 51
0.0
  0
LINE
  5
4D9B
330
1F
100
AcDbEntity
  8
0
100
AcDbLine
 10
235.7317550473112
 20
278.5893315127372
 30
0.0
 11
237.0317550473109
 21
278.5893315127372
 31
0.0
  0
LINE
  5
4D9C
330
1F
100
AcDbEntity
  8
0
100
AcDbLine
 10
237.2317550473111
 20
279.6893315127376
 30
0.0
 11
237.2317550473111
 21
278.7893315127375
 31
0.0
  0
ARC
  5
4D9D
330
1F
100
AcDbEntity
  8
0
100
AcDbCircle
 10
240.231755049011
 20
277.5893315127373
 30
0.0
 40
0.2
100
AcDbArc
 50
270.0
 51
0.0
  0
LINE
  5
4D9E
330
1F
100
AcDbEntity
  8
0
100
AcDbLine
 10
240.4317550490108
 20
277.5893315127374
 30
0.0
 11
240.4317550490108
 21
278.3893315122374
 31
0.0
  0
LINE
  5
4D9F
330
1F
100
AcDbEntity
  8
0
100
AcDbLine
 10
243.8317550456107
 20
277.5893315127374
 30
0.0
 11
243.8317550456107
 21
278.3893315122374
 31
0.0
  0
ARC
  5
4DA0
330
1F
100
AcDbEntity
  8
0
100
AcDbCircle
 10
244.031755045611
 20
277.5893315127373
 30
0.0
 40
0.2
100
AcDbArc
 50
180.0
 51
270.0
  0
LINE
  5
4DA1
330
1F
100
AcDbEntity
  8
0
100
AcDbLine
 10
244.2817550451613
 20
278.8893315117374
 30
0.0
 11
243.8317550456107
 21
278.3893315122374
 31
0.0
  0
ARC
  5
4DA2
330
1F
100
AcDbEntity
  8
0
100
AcDbCircle
 10
241.6817550477611
 20
280.9893315096374
 30
0.0
 40
1.6999999983
100
AcDbArc
 50
90.0
 51
180.0
  0
ARC
  5
4DA3
330
1F
100
AcDbEntity
  8
0
100
AcDbCircle
 10
242.5817550468608
 20
280.9893315096375
 30
0.0
 40
1.6999999983
100
AcDbArc
 50
0.0
 51
90.0
  0
LINE
  5
4DA4
330
1F
100
AcDbEntity
  8
0
100
AcDbLine
 10
241.6817550477611
 20
282.6893315079375
 30
0.0
 11
242.5817550468608
 21
282.6893315079375
 31
0.0
  0
LINE
  5
4DA5
330
1F
100
AcDbEntity
  8
0
100
AcDbLine
 10
200.2989393173137
 20
339.3893315127374
 30
0.0
 11
210.231755049011
 21
339.3893315127374
 31
0.0
  0
ARC
  5
4DA6
330
1F
100
AcDbEntity
  8
0
 62
     3
100
AcDbCircle
 10
203.1317550473112
 20
332.3893315127375
 30
0.0
 40
4.0
100
AcDbArc
 50
270.0
 51
180.0
  0
CIRCLE
  5
4DA7
330
1F
100
AcDbEntity
  8
0
100
AcDbCircle
 10
203.1317550473112
 20
332.3893315127376
 30
0.0
 40
5.5
  0
CIRCLE
  5
4DA8
330
1F
100
AcDbEntity
  8
0
100
AcDbCircle
 10
203.1317550473112
 20
332.3893315127375
 30
0.0
 40
3.45
  0
CIRCLE
  5
4DA9
330
1F
100
AcDbEntity
  8
0
100
AcDbCircle
 10
203.1317550473112
 20
332.3893315127375
 30
0.0
 40
3.45
  0
LINE
  5
4DAA
102
{ACAD_REACTORS
330
4F87
330
4FB5
102
}
330
1F
100
AcDbEntity
  8
0
100
AcDbLine
 10
196.1317550473112
 20
335.2221472427349
 30
0.0
 11
196.1317550473112
 21
325.0893315127377
 31
0.0
  0
LINE
  5
4DAB
330
1F
100
AcDbEntity
  8
0
100
AcDbLine
 10
188.2939177191841
 20
298.8994160217538
 30
0.0
 11
196.1317550473112
 21
297.3893315127374
 31
0.0
  0
LINE
  5
4DAC
330
1F
100
AcDbEntity
  8
0
100
AcDbLine
 10
188.2939177191841
 20
317.8792470037216
 30
0.0
 11
196.1317550473112
 21
319.3893315127376
 31
0.0
  0
LINE
  5
4DAD
102
{ACAD_REACTORS
330
4F8A
330
4FB8
102
}
330
1F
100
AcDbEntity
  8
0
100
AcDbLine
 10
188.1317550473112
 20
317.6828587744404
 30
0.0
 11
188.1317550473112
 21
299.095804251035
 31
0.0
  0
ARC
  5
4DAE
102
{ACAD_REACTORS
330
4F90
330
4FBE
102
}
330
1F
100
AcDbEntity
  8
0
100
AcDbCircle
 10
188.331755047311
 20
299.095804251035
 30
0.0
 40
0.2
100
AcDbArc
 50
180.0
 51
259.0946787101582
  0
ARC
  5
4DAF
102
{ACAD_REACTORS
330
4F90
330
4FBE
102
}
330
1F
100
AcDbEntity
  8
0
100
AcDbCircle
 10
188.331755047311
 20
317.6828587744404
 30
0.0
 40
0.2
100
AcDbArc
 50
100.9053212898418
 51
180.0
  0
LINE
  5
4DB0
330
1F
100
AcDbEntity
  8
0
100
AcDbLine
 10
197.6317550463108
 20
325.5393315105874
 30
0.0
 11
197.1317550468105
 21
325.0893315110374
 31
0.0
  0
LINE
  5
4DB1
330
1F
100
AcDbEntity
  8
0
100
AcDbLine
 10
197.6317550463108
 20
321.2393315148873
 30
0.0
 11
197.131755046811
 21
321.6893315144374
 31
0.0
  0
LINE
  5
4DB2
330
1F
100
AcDbEntity
  8
0
100
AcDbLine
 10
196.1317550473112
 20
321.6893315127375
 30
0.0
 11
196.1317550473112
 21
319.3893315127376
 31
0.0
  0
LINE
  5
4DB3
330
1F
100
AcDbEntity
  8
0
100
AcDbLine
 10
196.1317550473108
 20
325.0893315110374
 30
0.0
 11
197.1317550468105
 21
325.0893315110374
 31
0.0
  0
LINE
  5
4DB4
330
1F
100
AcDbEntity
  8
0
100
AcDbLine
 10
196.1317550473108
 20
321.6893315144373
 30
0.0
 11
197.131755046811
 21
321.6893315144374
 31
0.0
  0
ARC
  5
4DB5
330
1F
100
AcDbEntity
  8
0
100
AcDbCircle
 10
199.7317550442106
 20
322.9393315131873
 30
0.0
 40
1.6999999983
100
AcDbArc
 50
270.0
 51
0.0
  0
ARC
  5
4DB6
330
1F
100
AcDbEntity
  8
0
100
AcDbCircle
 10
199.7317550442106
 20
323.8393315122873
 30
0.0
 40
1.6999999983
100
AcDbArc
 50
0.0
 51
90.0
  0
LINE
  5
4DB7
330
1F
100
AcDbEntity
  8
0
100
AcDbLine
 10
197.6317550463112
 20
321.2393315148873
 30
0.0
 11
199.7317550442106
 21
321.2393315148873
 31
0.0
  0
LINE
  5
4DB8
330
1F
100
AcDbEntity
  8
0
100
AcDbLine
 10
197.6317550463108
 20
325.5393315105874
 30
0.0
 11
199.7317550442106
 21
325.5393315105874
 31
0.0
  0
LINE
  5
4DB9
330
1F
100
AcDbEntity
  8
0
100
AcDbLine
 10
201.4317550425106
 20
322.9393315131874
 30
0.0
 11
201.4317550425106
 21
323.8393315122875
 31
0.0
  0
ARC
  5
4DBA
330
1F
100
AcDbEntity
  8
0
100
AcDbCircle
 10
227.1317550473108
 20
308.3893315127374
 30
0.0
 40
41.0
100
AcDbArc
 50
130.8786351465272
 51
139.1213648534683
  0
LINE
  5
4DBB
330
1F
100
AcDbEntity
  8
0
100
AcDbLine
 10
225.8317550473088
 20
336.8893315127378
 30
0.0
 11
217.2317550473088
 21
336.8893315127378
 31
0.0
  0
CIRCLE
  5
4DBC
102
{ACAD_REACTORS
330
4F8D
330
4FBB
102
}
330
1F
100
AcDbEntity
  8
0
100
AcDbCircle
 10
227.1317550473099
 20
308.3893315127376
 30
0.0
 40
9.998749376000031
  0
LINE
  5
4DBD
330
1F
100
AcDbEntity
  8
0
100
AcDbLine
 10
221.8663026371118
 20
299.8893315127376
 30
0.0
 11
224.1737151557603
 21
299.8893315127375
 31
0.0
  0
LINE
  5
4DBE
330
1F
100
AcDbEntity
  8
0
100
AcDbLine
 10
221.8663026371118
 20
316.8893315127376
 30
0.0
 11
224.1737151557621
 21
316.8893315127375
 31
0.0
  0
LINE
  5
4DBF
330
1F
100
AcDbEntity
  8
0
100
AcDbLine
 10
218.631755047309
 20
303.1238791025413
 30
0.0
 11
218.631755047309
 21
305.431291621194
 31
0.0
  0
LINE
  5
4DC0
330
1F
100
AcDbEntity
  8
0
100
AcDbLine
 10
218.6317550473108
 20
313.6547839229375
 30
0.0
 11
218.6317550473108
 21
311.3473714042871
 31
0.0
  0
ARC
  5
4DC1
330
1F
100
AcDbEntity
  8
0
100
AcDbCircle
 10
212.5817550468613
 20
335.789331515838
 30
0.0
 40
1.6999999983
100
AcDbArc
 50
270.0
 51
0.0
  0
LINE
  5
4DC2
330
1F
100
AcDbEntity
  8
0
100
AcDbLine
 10
209.9817550494612
 20
337.8893315137379
 30
0.0
 11
209.9817550494612
 21
335.7893315158378
 31
0.0
  0
ARC
  5
4DC3
330
1F
100
AcDbEntity
  8
0
100
AcDbCircle
 10
211.6817550477612
 20
335.7893315158378
 30
0.0
 40
1.6999999983
100
AcDbArc
 50
180.0
 51
270.0
  0
LINE
  5
4DC4
330
1F
100
AcDbEntity
  8
0
100
AcDbLine
 10
212.5817550468613
 20
334.0893315175379
 30
0.0
 11
211.6817550477612
 21
334.0893315175379
 31
0.0
  0
LINE
  5
4DC5
330
1F
100
AcDbEntity
  8
0
100
AcDbLine
 10
210.4317550490108
 20
339.1893315127374
 30
0.0
 11
210.4317550490108
 21
338.3893315132378
 31
0.0
  0
ARC
  5
4DC6
330
1F
100
AcDbEntity
  8
0
100
AcDbCircle
 10
210.231755049011
 20
339.1893315127374
 30
0.0
 40
0.2
100
AcDbArc
 50
0.0
 51
90.0
  0
LINE
  5
4DC7
330
1F
100
AcDbEntity
  8
0
100
AcDbLine
 10
209.9817550494612
 20
337.8893315137379
 30
0.0
 11
210.4317550490108
 21
338.3893315132378
 31
0.0
  0
LINE
  5
4DC8
330
1F
100
AcDbEntity
  8
0
100
AcDbLine
 10
217.0317550473086
 20
337.0893315127377
 30
0.0
 11
217.0317550473086
 21
337.9893315127378
 31
0.0
  0
LINE
  5
4DC9
330
1F
100
AcDbEntity
  8
0
100
AcDbLine
 10
214.2817550451613
 20
337.8893315137379
 30
0.0
 11
214.2817550451613
 21
335.789331515838
 31
0.0
  0
ARC
  5
4DCA
330
1F
100
AcDbEntity
  8
0
100
AcDbCircle
 10
217.2317550473088
 20
337.0893315127377
 30
0.0
 40
0.2
100
AcDbArc
 50
180.0
 51
270.0
  0
LINE
  5
4DCB
330
1F
100
AcDbEntity
  8
0
100
AcDbLine
 10
214.031755045611
 20
339.3893315127375
 30
0.0
 11
218.5317550473086
 21
339.3893315127375
 31
0.0
  0
ARC
  5
4DCC
330
1F
100
AcDbEntity
  8
0
100
AcDbCircle
 10
214.031755045611
 20
339.1893315127374
 30
0.0
 40
0.2
100
AcDbArc
 50
90.0
 51
180.0
  0
LINE
  5
4DCD
330
1F
100
AcDbEntity
  8
0
100
AcDbLine
 10
214.2817550451613
 20
337.8893315137379
 30
0.0
 11
213.8317550456108
 21
338.3893315132378
 31
0.0
  0
LINE
  5
4DCE
330
1F
100
AcDbEntity
  8
0
100
AcDbLine
 10
213.8317550456108
 20
339.1893315127374
 30
0.0
 11
213.8317550456108
 21
338.3893315132378
 31
0.0
  0
ARC
  5
4DCF
330
1F
100
AcDbEntity
  8
0
100
AcDbCircle
 10
217.2317550473088
 20
337.9893315127378
 30
0.0
 40
0.2
100
AcDbArc
 50
90.0
 51
180.0
  0
ARC
  5
4DD0
330
1F
100
AcDbEntity
  8
0
100
AcDbCircle
 10
218.5317550473086
 20
339.189331512738
 30
0.0
 40
0.2
100
AcDbArc
 50
0.0
 51
90.0
  0
ARC
  5
4DD1
330
1F
100
AcDbEntity
  8
0
100
AcDbCircle
 10
218.5317550473086
 20
338.3893315127378
 30
0.0
 40
0.2
100
AcDbArc
 50
270.0
 51
0.0
  0
LINE
  5
4DD2
330
1F
100
AcDbEntity
  8
0
100
AcDbLine
 10
218.7317550473084
 20
338.3893315127378
 30
0.0
 11
218.7317550473084
 21
339.189331512738
 31
0.0
  0
LINE
  5
4DD3
330
1F
100
AcDbEntity
  8
0
100
AcDbLine
 10
218.5317550473086
 20
338.189331512738
 30
0.0
 11
217.2317550473088
 21
338.189331512738
 31
0.0
  0
LINE
  5
4DD4
102
{ACAD_REACTORS
330
4F8D
330
4FBB
102
}
330
1F
100
AcDbEntity
  8
0
100
AcDbLine
 10
235.6317550473089
 20
303.1238791025377
 30
0.0
 11
235.6317550473085
 21
305.4312916211809
 31
0.0
  0
LINE
  5
4DD5
330
1F
100
AcDbEntity
  8
0
100
AcDbLine
 10
235.6317550473108
 20
313.654783922934
 30
0.0
 11
235.6317550473108
 21
311.3473714042871
 31
0.0
  0
LINE
  5
4DD6
330
1F
100
AcDbEntity
  8
0
100
AcDbLine
 10
237.0317550473086
 20
336.8893315127378
 30
0.0
 11
228.4317550473082
 21
336.8893315127378
 31
0.0
  0
LINE
  5
4DD7
330
1F
100
AcDbEntity
  8
0
100
AcDbLine
 10
228.2317550473084
 20
337.0893315127377
 30
0.0
 11
228.2317550473084
 21
339.189331512738
 31
0.0
  0
LINE
  5
4DD8
330
1F
100
AcDbEntity
  8
0
100
AcDbLine
 10
226.0317550473086
 20
337.0893315127377
 30
0.0
 11
226.0317550473086
 21
339.1893315127376
 31
0.0
  0
ARC
  5
4DD9
330
1F
100
AcDbEntity
  8
0
100
AcDbCircle
 10
225.8317550473088
 20
337.0893315127377
 30
0.0
 40
0.2
100
AcDbArc
 50
270.0
 51
0.0
  0
ARC
  5
4DDA
330
1F
100
AcDbEntity
  8
0
100
AcDbCircle
 10
228.4317550473087
 20
337.0893315127377
 30
0.0
 40
0.2
100
AcDbArc
 50
180.0
 51
270.0
  0
LINE
  5
4DDB
330
1F
100
AcDbEntity
  8
0
100
AcDbLine
 10
228.0317550473086
 20
339.3893315127379
 30
0.0
 11
226.2317550473084
 21
339.3893315127379
 31
0.0
  0
ARC
  5
4DDC
330
1F
100
AcDbEntity
  8
0
100
AcDbCircle
 10
226.2317550473084
 20
339.1893315127376
 30
0.0
 40
0.2
100
AcDbArc
 50
90.0
 51
180.0
  0
ARC
  5
4DDD
330
1F
100
AcDbEntity
  8
0
100
AcDbCircle
 10
228.0317550473086
 20
339.189331512738
 30
0.0
 40
0.2
100
AcDbArc
 50
0.0
 51
90.0
  0
LINE
  5
4DDE
330
1F
100
AcDbEntity
  8
0
100
AcDbLine
 10
239.9817550494612
 20
337.8893315137379
 30
0.0
 11
240.4317550490108
 21
338.3893315132378
 31
0.0
  0
ARC
  5
4DDF
330
1F
100
AcDbEntity
  8
0
100
AcDbCircle
 10
241.6817550477611
 20
335.789331515838
 30
0.0
 40
1.6999999983
100
AcDbArc
 50
180.0
 51
270.0
  0
LINE
  5
4DE0
330
1F
100
AcDbEntity
  8
0
100
AcDbLine
 10
235.7317550473084
 20
339.3893315127374
 30
0.0
 11
240.231755049011
 21
339.3893315127374
 31
0.0
  0
LINE
  5
4DE1
330
1F
100
AcDbEntity
  8
0
100
AcDbLine
 10
239.9817550494612
 20
337.8893315137379
 30
0.0
 11
239.9817550494612
 21
335.789331515838
 31
0.0
  0
LINE
  5
4DE2
330
1F
100
AcDbEntity
  8
0
100
AcDbLine
 10
237.2317550473084
 20
337.0893315127377
 30
0.0
 11
237.2317550473084
 21
337.9893315127378
 31
0.0
  0
ARC
  5
4DE3
330
1F
100
AcDbEntity
  8
0
100
AcDbCircle
 10
237.0317550473086
 20
337.0893315127377
 30
0.0
 40
0.2
100
AcDbArc
 50
270.0
 51
0.0
  0
ARC
  5
4DE4
330
1F
100
AcDbEntity
  8
0
100
AcDbCircle
 10
235.7317550473084
 20
339.189331512738
 30
0.0
 40
0.2
100
AcDbArc
 50
90.0
 51
180.0
  0
ARC
  5
4DE5
330
1F
100
AcDbEntity
  8
0
100
AcDbCircle
 10
235.7317550473084
 20
338.3893315127378
 30
0.0
 40
0.2
100
AcDbArc
 50
180.0
 51
270.0
  0
LINE
  5
4DE6
330
1F
100
AcDbEntity
  8
0
100
AcDbLine
 10
235.5317550473086
 20
338.3893315127378
 30
0.0
 11
235.5317550473086
 21
339.189331512738
 31
0.0
  0
ARC
  5
4DE7
330
1F
100
AcDbEntity
  8
0
100
AcDbCircle
 10
237.0317550473086
 20
337.9893315127378
 30
0.0
 40
0.2
100
AcDbArc
 50
0.0
 51
90.0
  0
LINE
  5
4DE8
330
1F
100
AcDbEntity
  8
0
100
AcDbLine
 10
237.0317550473086
 20
338.1893315127376
 30
0.0
 11
235.7317550473084
 21
338.1893315127376
 31
0.0
  0
LINE
  5
4DE9
330
1F
100
AcDbEntity
  8
0
100
AcDbLine
 10
244.2817550451613
 20
337.8893315137379
 30
0.0
 11
244.2817550451613
 21
335.7893315158378
 31
0.0
  0
ARC
  5
4DEA
330
1F
100
AcDbEntity
  8
0
100
AcDbCircle
 10
242.5817550468608
 20
335.7893315158378
 30
0.0
 40
1.6999999983
100
AcDbArc
 50
270.0
 51
0.0
  0
LINE
  5
4DEB
330
1F
100
AcDbEntity
  8
0
100
AcDbLine
 10
241.6817550477611
 20
334.0893315175379
 30
0.0
 11
242.5817550468608
 21
334.0893315175379
 31
0.0
  0
ARC
  5
4DEC
330
1F
100
AcDbEntity
  8
0
100
AcDbCircle
 10
240.231755049011
 20
339.1893315127374
 30
0.0
 40
0.2
100
AcDbArc
 50
0.0
 51
90.0
  0
LINE
  5
4DED
330
1F
100
AcDbEntity
  8
0
100
AcDbLine
 10
240.4317550490108
 20
339.1893315127374
 30
0.0
 11
240.4317550490108
 21
338.3893315132378
 31
0.0
  0
ARC
  5
4DEE
330
1F
100
AcDbEntity
  8
0
100
AcDbCircle
 10
244.031755045611
 20
339.1893315127374
 30
0.0
 40
0.2
100
AcDbArc
 50
90.0
 51
180.0
  0
LINE
  5
4DEF
330
1F
100
AcDbEntity
  8
0
100
AcDbLine
 10
244.2817550451613
 20
337.8893315137379
 30
0.0
 11
243.8317550456107
 21
338.3893315132378
 31
0.0
  0
LINE
  5
4DF0
330
1F
100
AcDbEntity
  8
0
100
AcDbLine
 10
243.8317550456107
 20
339.1893315127374
 30
0.0
 11
243.8317550456107
 21
338.3893315132378
 31
0.0
  0
LINE
  5
4DF1
330
1F
100
AcDbEntity
  8
0
100
AcDbLine
 10
247.2439925699977
 20
297.6890385692326
 30
0.0
 11
248.0762750257408
 21
295.7148994031834
 31
0.0
  0
LINE
  5
4DF2
330
1F
100
AcDbEntity
  8
0
100
AcDbLine
 10
258.1317550473108
 20
299.7893315127389
 30
0.0
 11
258.1317550473108
 21
295.289331511038
 31
0.0
  0
LINE
  5
4DF3
330
1F
100
AcDbEntity
  8
0
100
AcDbLine
 10
256.6317550483112
 20
291.2393315148879
 30
0.0
 11
254.5317550504109
 21
291.2393315148879
 31
0.0
  0
LINE
  5
4DF4
330
1F
100
AcDbEntity
  8
0
100
AcDbLine
 10
256.6317550483112
 20
295.539331510588
 30
0.0
 11
254.5317550504109
 21
295.539331510588
 31
0.0
  0
ARC
  5
4DF5
330
1F
100
AcDbEntity
  8
0
100
AcDbCircle
 10
227.1317550473108
 20
308.3893315127374
 30
0.0
 40
41.0
100
AcDbArc
 50
310.8786351465271
 51
319.1213648534683
  0
CIRCLE
  5
4DF6
330
1F
100
AcDbEntity
  8
0
100
AcDbCircle
 10
251.1317550473112
 20
284.3893315127376
 30
0.0
 40
5.5
  0
CIRCLE
  5
4DF7
330
1F
100
AcDbEntity
  8
0
100
AcDbCircle
 10
251.1317550473112
 20
284.3893315127378
 30
0.0
 40
3.45
  0
ARC
  5
4DF8
330
1F
100
AcDbEntity
  8
0
 62
     3
100
AcDbCircle
 10
251.1317550473112
 20
284.3893315127375
 30
0.0
 40
4.0
100
AcDbArc
 50
270.0
 51
180.0
  0
CIRCLE
  5
4DF9
330
1F
100
AcDbEntity
  8
0
100
AcDbCircle
 10
251.1317550473112
 20
284.3893315127375
 30
0.0
 40
3.45
  0
ARC
  5
4DFA
330
1F
100
AcDbEntity
  8
0
100
AcDbCircle
 10
254.5317550504109
 20
292.9393315131881
 30
0.0
 40
1.6999999983
100
AcDbArc
 50
180.0
 51
270.0
  0
ARC
  5
4DFB
330
1F
100
AcDbEntity
  8
0
100
AcDbCircle
 10
254.5317550504109
 20
293.839331512288
 30
0.0
 40
1.6999999983
100
AcDbArc
 50
90.0
 51
180.0
  0
LINE
  5
4DFC
330
1F
100
AcDbEntity
  8
0
100
AcDbLine
 10
252.8317550521109
 20
293.839331512288
 30
0.0
 11
252.8317550521109
 21
292.9393315131881
 31
0.0
  0
LINE
  5
4DFD
330
1F
100
AcDbEntity
  8
0
100
AcDbLine
 10
258.1317550473108
 20
291.489331514438
 30
0.0
 11
258.1317550473108
 21
281.5565157827399
 31
0.0
  0
LINE
  5
4DFE
330
1F
100
AcDbEntity
  8
0
100
AcDbLine
 10
256.6317550483112
 20
291.2393315148879
 30
0.0
 11
257.131755047811
 21
291.689331514438
 31
0.0
  0
ARC
  5
4DFF
330
1F
100
AcDbEntity
  8
0
100
AcDbCircle
 10
257.931755047311
 20
291.489331514438
 30
0.0
 40
0.2
100
AcDbArc
 50
0.0
 51
90.0
  0
LINE
  5
4E00
330
1F
100
AcDbEntity
  8
0
100
AcDbLine
 10
257.931755047311
 20
291.689331514438
 30
0.0
 11
257.131755047811
 21
291.689331514438
 31
0.0
  0
LINE
  5
4E01
330
1F
100
AcDbEntity
  8
0
100
AcDbLine
 10
257.931755047311
 20
295.0893315110381
 30
0.0
 11
257.131755047811
 21
295.0893315110379
 31
0.0
  0
LINE
  5
4E02
330
1F
100
AcDbEntity
  8
0
100
AcDbLine
 10
256.6317550483112
 20
295.539331510588
 30
0.0
 11
257.131755047811
 21
295.0893315110379
 31
0.0
  0
ARC
  5
4E03
330
1F
100
AcDbEntity
  8
0
100
AcDbCircle
 10
257.931755047311
 20
295.289331511038
 30
0.0
 40
0.2
100
AcDbArc
 50
270.0
 51
0.0
  0
ARC
  5
4E04
330
1F
100
AcDbEntity
  8
0
 62
     3
100
AcDbCircle
 10
251.1317550473112
 20
332.3893315127377
 30
0.0
 40
4.0
100
AcDbArc
 50
270.0
 51
180.0
  0
CIRCLE
  5
4E05
330
1F
100
AcDbEntity
  8
0
100
AcDbCircle
 10
251.1317550473112
 20
332.3893315127378
 30
0.0
 40
5.5
  0
CIRCLE
  5
4E06
330
1F
100
AcDbEntity
  8
0
100
AcDbCircle
 10
251.1317550473112
 20
332.3893315127378
 30
0.0
 40
3.45
  0
CIRCLE
  5
4E07
330
1F
100
AcDbEntity
  8
0
100
AcDbCircle
 10
251.1317550473112
 20
332.3893315127377
 30
0.0
 40
3.45
  0
LINE
  5
4E08
102
{ACAD_REACTORS
330
4F87
330
4F8A
330
4FB5
330
4FB8
102
}
330
1F
100
AcDbEntity
  8
0
100
AcDbLine
 10
258.1317550473108
 20
335.2221472427349
 30
0.0
 11
258.1317550473108
 21
325.2893315110376
 31
0.0
  0
LINE
  5
4E09
330
1F
100
AcDbEntity
  8
0
100
AcDbLine
 10
256.6317550483112
 20
321.2393315148876
 30
0.0
 11
254.5317550504109
 21
321.2393315148876
 31
0.0
  0
LINE
  5
4E0A
330
1F
100
AcDbEntity
  8
0
100
AcDbLine
 10
256.6317550483112
 20
325.5393315105877
 30
0.0
 11
254.5317550504109
 21
325.5393315105877
 31
0.0
  0
LINE
  5
4E0B
330
1F
100
AcDbEntity
  8
0
100
AcDbLine
 10
255.8317550473097
 20
318.4893315127389
 30
0.0
 11
256.7317550473102
 21
318.4893315127389
 31
0.0
  0
LINE
  5
4E0C
330
1F
100
AcDbEntity
  8
0
100
AcDbLine
 10
255.8317550473097
 20
307.2893315127388
 30
0.0
 11
257.93175504731
 21
307.2893315127388
 31
0.0
  0
LINE
  5
4E0D
330
1F
100
AcDbEntity
  8
0
100
AcDbLine
 10
255.8317550473097
 20
309.4893315127387
 30
0.0
 11
257.93175504731
 21
309.4893315127391
 31
0.0
  0
LINE
  5
4E0E
330
1F
100
AcDbEntity
  8
0
100
AcDbLine
 10
255.8317550473097
 20
298.2893315127388
 30
0.0
 11
256.7317550473102
 21
298.2893315127388
 31
0.0
  0
LINE
  5
4E0F
330
1F
100
AcDbEntity
  8
0
100
AcDbLine
 10
255.6317550473099
 20
309.6893315127389
 30
0.0
 11
255.6317550473099
 21
318.2893315127386
 31
0.0
  0
LINE
  5
4E10
330
1F
100
AcDbEntity
  8
0
100
AcDbLine
 10
248.4055191289625
 20
300.517902039239
 30
0.0
 11
251.9339804814957
 21
300.517902039239
 31
0.0
  0
CIRCLE
  5
4E11
330
1F
100
AcDbEntity
  8
0
100
AcDbCircle
 10
248.3949939289013
 20
298.8693315127376
 30
0.0
 40
0.9856764640451737
  0
ARC
  5
4E12
330
1F
100
AcDbEntity
  8
0
100
AcDbCircle
 10
248.3949939289013
 20
298.8693315127376
 30
0.0
 40
1.648604124914535
100
AcDbArc
 50
89.63420348800621
 51
225.7198558604211
  0
LINE
  5
4E13
330
1F
100
AcDbEntity
  8
0
100
AcDbLine
 10
255.6317550473099
 20
298.4893315127386
 30
0.0
 11
255.6317550473099
 21
307.089331512739
 31
0.0
  0
ARC
  5
4E14
330
1F
100
AcDbEntity
  8
0
100
AcDbCircle
 10
255.8317550473097
 20
298.4893315127386
 30
0.0
 40
0.2
100
AcDbArc
 50
180.0
 51
270.0
  0
ARC
  5
4E15
330
1F
100
AcDbEntity
  8
0
100
AcDbCircle
 10
255.8317550473097
 20
307.0893315127388
 30
0.0
 40
0.2
100
AcDbArc
 50
90.0
 51
180.0
  0
ARC
  5
4E16
330
1F
100
AcDbEntity
  8
0
100
AcDbCircle
 10
255.8317550473097
 20
309.6893315127388
 30
0.0
 40
0.2
100
AcDbArc
 50
180.0
 51
270.0
  0
LINE
  5
4E17
330
1F
100
AcDbEntity
  8
0
100
AcDbLine
 10
248.4037175429679
 20
316.2793921632951
 30
0.0
 11
251.92805984006
 21
316.2793921632951
 31
0.0
  0
CIRCLE
  5
4E18
330
1F
100
AcDbEntity
  8
0
100
AcDbCircle
 10
248.3949939289013
 20
317.9279732074792
 30
0.0
 40
0.9856764640451737
  0
ARC
  5
4E19
330
1F
100
AcDbEntity
  8
0
100
AcDbCircle
 10
248.3949939289013
 20
317.9279732074792
 30
0.0
 40
1.648604124914535
100
AcDbArc
 50
133.6407183530364
 51
270.3031829140065
  0
LINE
  5
4E1A
330
1F
100
AcDbEntity
  8
0
100
AcDbLine
 10
247.2439925699977
 20
319.0896244562428
 30
0.0
 11
248.0762750257408
 21
321.0637636222921
 31
0.0
  0
ARC
  5
4E1B
330
1F
100
AcDbEntity
  8
0
100
AcDbCircle
 10
254.5317550504109
 20
322.9393315131876
 30
0.0
 40
1.6999999983
100
AcDbArc
 50
180.0
 51
270.0
  0
ARC
  5
4E1C
330
1F
100
AcDbEntity
  8
0
100
AcDbCircle
 10
255.8317550473097
 20
318.2893315127386
 30
0.0
 40
0.2
100
AcDbArc
 50
90.0
 51
180.0
  0
ARC
  5
4E1D
330
1F
100
AcDbEntity
  8
0
100
AcDbCircle
 10
254.5317550504109
 20
323.8393315122875
 30
0.0
 40
1.6999999983
100
AcDbArc
 50
90.0
 51
180.0
  0
LINE
  5
4E1E
330
1F
100
AcDbEntity
  8
0
100
AcDbLine
 10
252.8317550521109
 20
322.9393315131876
 30
0.0
 11
252.8317550521109
 21
323.8393315122875
 31
0.0
  0
LINE
  5
4E1F
330
1F
100
AcDbEntity
  8
0
100
AcDbLine
 10
256.9317550473101
 20
298.4893315127386
 30
0.0
 11
256.9317550473101
 21
299.7893315127391
 31
0.0
  0
ARC
  5
4E20
330
1F
100
AcDbEntity
  8
0
100
AcDbCircle
 10
256.7317550473102
 20
298.4893315127386
 30
0.0
 40
0.2
100
AcDbArc
 50
270.0
 51
0.0
  0
ARC
  5
4E21
330
1F
100
AcDbEntity
  8
0
100
AcDbCircle
 10
257.1317550473099
 20
299.7893315127389
 30
0.0
 40
0.2
100
AcDbArc
 50
90.0
 51
180.0
  0
ARC
  5
4E22
330
1F
100
AcDbEntity
  8
0
100
AcDbCircle
 10
257.93175504731
 20
299.7893315127389
 30
0.0
 40
0.2
100
AcDbArc
 50
0.0
 51
90.0
  0
LINE
  5
4E23
330
1F
100
AcDbEntity
  8
0
100
AcDbLine
 10
257.1317550473099
 20
299.9893315127389
 30
0.0
 11
257.93175504731
 21
299.9893315127389
 31
0.0
  0
LINE
  5
4E24
330
1F
100
AcDbEntity
  8
0
100
AcDbLine
 10
258.1317550473098
 20
307.4893315127391
 30
0.0
 11
258.1317550473098
 21
309.2893315127388
 31
0.0
  0
ARC
  5
4E25
330
1F
100
AcDbEntity
  8
0
100
AcDbCircle
 10
257.93175504731
 20
307.4893315127389
 30
0.0
 40
0.2
100
AcDbArc
 50
270.0
 51
0.0
  0
ARC
  5
4E26
330
1F
100
AcDbEntity
  8
0
100
AcDbCircle
 10
257.93175504731
 20
309.2893315127387
 30
0.0
 40
0.2
100
AcDbArc
 50
0.0
 51
90.0
  0
LINE
  5
4E27
330
1F
100
AcDbEntity
  8
0
100
AcDbLine
 10
258.1317550473108
 20
321.4893315144376
 30
0.0
 11
258.1317550473108
 21
316.9893315127386
 31
0.0
  0
LINE
  5
4E28
330
1F
100
AcDbEntity
  8
0
100
AcDbLine
 10
256.9317550473101
 20
316.9893315127388
 30
0.0
 11
256.9317550473101
 21
318.2893315127386
 31
0.0
  0
ARC
  5
4E29
330
1F
100
AcDbEntity
  8
0
100
AcDbCircle
 10
257.1317550473099
 20
316.9893315127386
 30
0.0
 40
0.2
100
AcDbArc
 50
180.0
 51
270.0
  0
ARC
  5
4E2A
330
1F
100
AcDbEntity
  8
0
100
AcDbCircle
 10
257.93175504731
 20
316.9893315127386
 30
0.0
 40
0.2
100
AcDbArc
 50
270.0
 51
0.0
  0
LINE
  5
4E2B
330
1F
100
AcDbEntity
  8
0
100
AcDbLine
 10
257.1317550473099
 20
316.789331512739
 30
0.0
 11
257.93175504731
 21
316.789331512739
 31
0.0
  0
ARC
  5
4E2C
330
1F
100
AcDbEntity
  8
0
100
AcDbCircle
 10
256.7317550473102
 20
318.2893315127386
 30
0.0
 40
0.2
100
AcDbArc
 50
0.0
 51
90.0
  0
LINE
  5
4E2D
330
1F
100
AcDbEntity
  8
0
100
AcDbLine
 10
256.6317550483112
 20
325.5393315105877
 30
0.0
 11
257.131755047811
 21
325.0893315110376
 31
0.0
  0
ARC
  5
4E2E
330
1F
100
AcDbEntity
  8
0
100
AcDbCircle
 10
257.931755047311
 20
325.2893315110376
 30
0.0
 40
0.2
100
AcDbArc
 50
270.0
 51
0.0
  0
LINE
  5
4E2F
330
1F
100
AcDbEntity
  8
0
100
AcDbLine
 10
257.931755047311
 20
325.0893315110376
 30
0.0
 11
257.131755047811
 21
325.0893315110376
 31
0.0
  0
LINE
  5
4E30
330
1F
100
AcDbEntity
  8
0
100
AcDbLine
 10
257.931755047311
 20
321.6893315144377
 30
0.0
 11
257.131755047811
 21
321.6893315144377
 31
0.0
  0
LINE
  5
4E31
330
1F
100
AcDbEntity
  8
0
100
AcDbLine
 10
256.6317550483112
 20
321.2393315148876
 30
0.0
 11
257.131755047811
 21
321.6893315144377
 31
0.0
  0
ARC
  5
4E32
330
1F
100
AcDbEntity
  8
0
100
AcDbCircle
 10
257.931755047311
 20
321.4893315144376
 30
0.0
 40
0.2
100
AcDbArc
 50
0.0
 51
90.0
  0
ARC
  5
4E33
102
{ACAD_REACTORS
330
4F87
330
4FB5
102
}
330
1F
100
AcDbEntity
  8
0
100
AcDbCircle
 10
227.1317550473108
 20
308.3893315127374
 30
0.0
 40
41.0
100
AcDbArc
 50
40.87863514653169
 51
49.12136485347229
  0
CIRCLE
  5
4E34
330
1F
100
AcDbEntity
  8
0
100
AcDbCircle
 10
227.1317550473108
 20
308.3893315127373
 30
0.0
 40
9.0
  0
LINE
  5
4E35
330
1F
100
AcDbEntity
  8
0
100
AcDbLine
 10
235.6317550473108
 20
305.4312916211876
 30
0.0
 11
235.6317550473108
 21
303.1238791025413
 31
0.0
  0
LINE
  5
4E36
330
1F
100
AcDbEntity
  8
0
100
AcDbLine
 10
230.0897949388599
 20
316.8893315127376
 30
0.0
 11
232.397207457508
 21
316.8893315127377
 31
0.0
  0
LINE
  5
4E37
330
1F
100
AcDbEntity
  8
0
100
AcDbLine
 10
235.6317550473085
 20
311.3473714042937
 30
0.0
 11
235.6317550473089
 21
313.6547839229377
 31
0.0
  0
LINE
  5
4E38
330
1F
100
AcDbEntity
  8
0
100
AcDbLine
 10
230.0897949388617
 20
299.8893315127376
 30
0.0
 11
232.397207457508
 21
299.8893315127377
 31
0.0
  0
LINE
  5
4E39
102
{ACAD_REACTORS
330
4F8D
330
4FBB
102
}
330
1F
100
AcDbEntity
  8
0
100
AcDbLine
 10
218.6317550473108
 20
305.4312916211876
 30
0.0
 11
218.6317550473108
 21
303.1238791025377
 31
0.0
  0
LINE
  5
4E3A
330
1F
100
AcDbEntity
  8
0
100
AcDbLine
 10
218.631755047309
 20
311.3473714042807
 30
0.0
 11
218.631755047309
 21
313.654783922934
 31
0.0
  0
ARC
  5
4E3B
330
1F
100
AcDbEntity
  8
0
 62
     3
100
AcDbCircle
 10
227.1317550473108
 20
308.3893315127373
 30
0.0
 40
8.25
100
AcDbArc
 50
165.1550120997095
 51
104.2898844500901
  0
LINE
  5
4E3C
330
1F
100
AcDbEntity
  8
0
100
AcDbLine
 10
142.6450171360198
 20
316.3893315127364
 30
0.0
 11
142.6450171360198
 21
300.3893315127364
 31
0.0
  0
LINE
  5
4E3D
330
1F
100
AcDbEntity
  8
0
100
AcDbLine
 10
114.6450171360207
 20
317.3893315127364
 30
0.0
 11
122.8795879768396
 21
317.3893315127365
 31
0.0
  0
LINE
  5
4E3E
102
{ACAD_REACTORS
330
4F7F
102
}
330
1F
100
AcDbEntity
  8
0
100
AcDbLine
 10
114.6450171360207
 20
299.3893315127364
 30
0.0
 11
122.8795879768396
 21
299.3893315127364
 31
0.0
  0
LINE
  5
4E3F
102
{ACAD_REACTORS
330
4F5D
330
4F60
330
4F66
330
4F6C
102
}
330
1F
100
AcDbEntity
  8
0
100
AcDbLine
 10
141.6450171360198
 20
317.3893315127364
 30
0.0
 11
142.6450171360198
 21
316.3893315127364
 31
0.0
  0
LINE
  5
4E40
330
1F
100
AcDbEntity
  8
0
100
AcDbLine
 10
142.6450171360198
 20
300.3893315127364
 30
0.0
 11
141.6450171360198
 21
299.3893315127364
 31
0.0
  0
LINE
  5
4E41
330
1F
100
AcDbEntity
  8
0
 62
     3
100
AcDbLine
 10
117.6450171360198
 20
316.6393315127363
 30
0.0
 11
122.8795879768396
 21
316.6393315127363
 31
0.0
  0
LINE
  5
4E42
330
1F
100
AcDbEntity
  8
0
 62
     3
100
AcDbLine
 10
117.6450171360198
 20
300.1393315127363
 30
0.0
 11
122.8795879768396
 21
300.1393315127363
 31
0.0
  0
LINE
  5
4E43
330
1F
100
AcDbEntity
  8
0
100
AcDbLine
 10
141.6450171360198
 20
317.3893315127364
 30
0.0
 11
141.6450171360198
 21
299.3893315127364
 31
0.0
  0
LINE
  5
4E44
102
{ACAD_REACTORS
330
4F5D
102
}
330
1F
100
AcDbEntity
  8
0
100
AcDbLine
 10
117.6450171360198
 20
317.3893315127364
 30
0.0
 11
117.6450171360198
 21
299.3893315127364
 31
0.0
  0
ARC
  5
4E45
330
1F
100
AcDbEntity
  8
0
100
AcDbCircle
 10
106.8795879768396
 20
308.3893315127363
 30
0.0
 40
26.99999999999983
100
AcDbArc
 50
343.0232811802357
 51
16.97671881976432
  0
LINE
  5
4E46
330
1F
100
AcDbEntity
  8
0
100
AcDbLine
 10
133.8795879768396
 20
296.6979885616464
 30
0.0
 11
133.8795879768396
 21
320.0806744638262
 31
0.0
  0
ARC
  5
4E47
330
1F
100
AcDbEntity
  8
0
100
AcDbCircle
 10
149.8795879768396
 20
308.3893315127363
 30
0.0
 40
26.99999999999983
100
AcDbArc
 50
163.0232811802357
 51
196.9767188197643
  0
LINE
  5
4E48
102
{ACAD_REACTORS
330
4F5A
102
}
330
1F
100
AcDbEntity
  8
0
100
AcDbLine
 10
122.8795879768396
 20
296.6979885616464
 30
0.0
 11
122.8795879768396
 21
320.0806744638262
 31
0.0
  0
LINE
  5
4E49
330
1F
100
AcDbEntity
  8
0
100
AcDbLine
 10
133.8795879768396
 20
296.6979885616464
 30
0.0
 11
133.8795879768396
 21
320.0806744638262
 31
0.0
  0
ARC
  5
4E4A
330
1F
100
AcDbEntity
  8
0
100
AcDbCircle
 10
127.1295879768396
 20
296.6979885616464
 30
0.0
 40
6.749999999999914
100
AcDbArc
 50
324.7356103172511
 51
34.34109372673992
  0
ARC
  5
4E4B
330
1F
100
AcDbEntity
  8
0
100
AcDbCircle
 10
129.6295879768396
 20
296.6979885616464
 30
0.0
 40
6.749999999999914
100
AcDbArc
 50
145.6589062732601
 51
215.2643896827489
  0
LINE
  5
4E4C
330
1F
100
AcDbEntity
  8
0
100
AcDbLine
 10
124.1182360555773
 20
292.8008742446165
 30
0.0
 11
132.6409398981014
 21
292.8008742446165
 31
0.0
  0
LINE
  5
4E4D
330
1F
100
AcDbEntity
  8
0
100
AcDbLine
 10
124.0561540881668
 20
300.5057877539087
 30
0.0
 11
132.7030218655123
 21
300.5057877539087
 31
0.0
  0
LINE
  5
4E4E
330
1F
100
AcDbEntity
  8
0
100
AcDbLine
 10
124.0561540881668
 20
316.2728752715639
 30
0.0
 11
132.7030218655123
 21
316.2728752715639
 31
0.0
  0
LINE
  5
4E4F
330
1F
100
AcDbEntity
  8
0
100
AcDbLine
 10
124.1182360555773
 20
323.9777887808562
 30
0.0
 11
132.6409398981014
 21
323.9777887808562
 31
0.0
  0
ARC
  5
4E50
102
{ACAD_REACTORS
330
4F5A
102
}
330
1F
100
AcDbEntity
  8
0
100
AcDbCircle
 10
127.1295879768396
 20
320.0806744638262
 30
0.0
 40
6.749999999999914
100
AcDbArc
 50
325.6589062732601
 51
35.26438968274953
  0
ARC
  5
4E51
330
1F
100
AcDbEntity
  8
0
100
AcDbCircle
 10
129.6295879768396
 20
320.0806744638262
 30
0.0
 40
6.749999999999914
100
AcDbArc
 50
144.7356103172504
 51
214.3410937267399
  0
LINE
  5
4E52
330
1F
100
AcDbEntity
  8
0
100
AcDbLine
 10
133.8795879768396
 20
317.3893315127364
 30
0.0
 11
141.6450171360198
 21
317.3893315127364
 31
0.0
  0
LINE
  5
4E53
330
1F
100
AcDbEntity
  8
0
 62
     3
100
AcDbLine
 10
133.8795879768396
 20
316.6393315127363
 30
0.0
 11
142.3950171360198
 21
316.6393315127364
 31
0.0
  0
LINE
  5
4E54
330
1F
100
AcDbEntity
  8
0
100
AcDbLine
 10
133.8795879768396
 20
299.3893315127364
 30
0.0
 11
141.6450171360198
 21
299.3893315127364
 31
0.0
  0
LINE
  5
4E55
330
1F
100
AcDbEntity
  8
0
 62
     3
100
AcDbLine
 10
133.8795879768396
 20
300.1393315127363
 30
0.0
 11
142.3950171360198
 21
300.1393315127363
 31
0.0
  0
LINE
  5
4E56
330
1F
100
AcDbEntity
  8
0
100
AcDbLine
 10
111.6450171360208
 20
316.8893315127365
 30
0.0
 11
110.1450171360208
 21
318.3893315127364
 31
0.0
  0
LINE
  5
4E57
102
{ACAD_REACTORS
330
4F75
102
}
330
1F
100
AcDbEntity
  8
0
100
AcDbLine
 10
110.1450171360208
 20
318.3893315127364
 30
0.0
 11
109.6450171360194
 21
318.3893315127364
 31
0.0
  0
LINE
  5
4E58
330
1F
100
AcDbEntity
  8
0
100
AcDbLine
 10
111.6450171360208
 20
299.8893315127367
 30
0.0
 11
110.1450171360208
 21
298.3893315127368
 31
0.0
  0
LINE
  5
4E59
102
{ACAD_REACTORS
330
4F75
102
}
330
1F
100
AcDbEntity
  8
0
100
AcDbLine
 10
110.1450171360208
 20
298.3893315127368
 30
0.0
 11
109.6450171360194
 21
298.3893315127368
 31
0.0
  0
LINE
  5
4E5A
330
1F
100
AcDbEntity
  8
CENTER
100
AcDbLine
 10
209.6317550473112
 20
284.3893315127375
 30
0.0
 11
196.6317550473112
 21
284.3893315127375
 31
0.0
1001
GENIUS_GENOREF_13
1005
0
  0
LINE
  5
4E5B
330
1F
100
AcDbEntity
  8
CENTER
100
AcDbLine
 10
203.1317550473112
 20
290.8893315127376
 30
0.0
 11
203.1317550473112
 21
277.8893315127374
 31
0.0
1001
GENIUS_GENOREF_13
1005
0
  0
CIRCLE
  5
4E5C
330
1F
100
AcDbEntity
  8
0
100
AcDbCircle
 10
82.64501713601987
 20
308.3893315127363
 30
0.0
 40
4.299999999999999
  0
ARC
  5
4E5D
330
1F
100
AcDbEntity
  8
0
 62
     3
100
AcDbCircle
 10
82.64501713601987
 20
308.3893315127363
 30
0.0
 40
4.849999999999999
100
AcDbArc
 50
336.7043162242286
 51
244.8890606854577
  0
CIRCLE
  5
4E5E
330
1F
100
AcDbEntity
  8
0
100
AcDbCircle
 10
95.64501713601988
 20
308.3893315127363
 30
0.0
 40
4.299999999999999
  0
ARC
  5
4E5F
330
1F
100
AcDbEntity
  8
0
 62
     3
100
AcDbCircle
 10
95.64501713601988
 20
308.3893315127363
 30
0.0
 40
4.849999999999999
100
AcDbArc
 50
336.7043162242286
 51
244.8890606854577
  0
CIRCLE
  5
4E60
330
1F
100
AcDbEntity
  8
0
100
AcDbCircle
 10
227.1317550473108
 20
308.3893315127373
 30
0.0
 40
19.0
  0
LINE
  5
4E61
330
1F
100
AcDbEntity
  8
0
100
AcDbLine
 10
105.6450171360199
 20
298.9684611429086
 30
0.0
 11
72.64501713601987
 21
298.9684611429086
 31
0.0
  0
LINE
  5
4E62
330
1F
100
AcDbEntity
  8
0
100
AcDbLine
 10
105.6450171360199
 20
295.0893315110377
 30
0.0
 11
72.64501713601987
 21
295.0893315110377
 31
0.0
  0
LINE
  5
4E63
330
1F
100
AcDbEntity
  8
0
100
AcDbLine
 10
105.6450171360199
 20
291.6893315127376
 30
0.0
 11
72.64501713601987
 21
291.6893315127376
 31
0.0
  0
LINE
  5
4E64
330
1F
100
AcDbEntity
  8
0
100
AcDbLine
 10
105.6450171360199
 20
281.5565157827342
 30
0.0
 11
72.64501713601987
 21
281.5565157827342
 31
0.0
  0
LINE
  5
4E65
330
1F
100
AcDbEntity
  8
0
100
AcDbLine
 10
105.6450171360199
 20
277.3893315127374
 30
0.0
 11
72.64501713601987
 21
277.3893315127375
 31
0.0
  0
LINE
  5
4E66
330
1F
100
AcDbEntity
  8
0
100
AcDbLine
 10
105.6450171360199
 20
317.8102018825641
 30
0.0
 11
72.64501713601987
 21
317.8102018825641
 31
0.0
  0
LINE
  5
4E67
330
1F
100
AcDbEntity
  8
0
100
AcDbLine
 10
105.6450171360199
 20
321.689331514435
 30
0.0
 11
72.64501713601987
 21
321.689331514435
 31
0.0
  0
LINE
  5
4E68
330
1F
100
AcDbEntity
  8
0
100
AcDbLine
 10
105.6450171360199
 20
325.0893315127352
 30
0.0
 11
72.64501713601987
 21
325.0893315127352
 31
0.0
  0
LINE
  5
4E69
330
1F
100
AcDbEntity
  8
0
100
AcDbLine
 10
105.6450171360199
 20
335.2221472427386
 30
0.0
 11
72.64501713601987
 21
335.2221472427386
 31
0.0
  0
LINE
  5
4E6A
102
{ACAD_REACTORS
330
4F69
102
}
330
1F
100
AcDbEntity
  8
0
100
AcDbLine
 10
105.6450171360199
 20
339.3893315127353
 30
0.0
 11
72.64501713601987
 21
339.3893315127353
 31
0.0
  0
LINE
  5
4E6B
330
1F
100
AcDbEntity
  8
0
100
AcDbLine
 10
244.031755045611
 20
165.3497464250983
 30
0.0
 11
253.9645707773082
 21
165.3497464250984
 31
0.0
  0
LINE
  5
4E6C
330
1F
100
AcDbEntity
  8
0
100
AcDbLine
 10
244.031755045611
 20
103.3497464250983
 30
0.0
 11
253.9645707773082
 21
103.3497464250983
 31
0.0
  0
CIRCLE
  5
4E6D
330
1F
100
AcDbEntity
  8
0
100
AcDbCircle
 10
227.1317550473099
 20
134.3497464250985
 30
0.0
 40
26.02133333333334
  0
ARC
  5
4E6E
330
1F
100
AcDbEntity
  8
0
100
AcDbCircle
 10
228.3134927091599
 20
134.3497464250985
 30
0.0
 40
23.47783623318508
100
AcDbArc
 50
32.67320277999878
 51
327.3267972200013
  0
LINE
  5
4E6F
330
1F
100
AcDbEntity
  8
CENTER
 48
1.5
100
AcDbLine
 10
183.1317550473112
 20
134.3497464250983
 30
0.0
 11
263.1317550473108
 21
134.3497464250988
 31
0.0
  0
LINE
  5
4E70
330
1F
100
AcDbEntity
  8
CENTER
 48
1.5
100
AcDbLine
 10
227.1317550473108
 20
170.3497464250983
 30
0.0
 11
227.1317550473108
 21
98.3497464250982
 31
0.0
  0
LINE
  5
4E71
330
1F
100
AcDbEntity
  8
0
100
AcDbLine
 10
196.1317550473112
 20
123.3497464250983
 30
0.0
 11
196.1317550473112
 21
121.0497464250986
 31
0.0
  0
LINE
  5
4E72
330
1F
100
AcDbEntity
  8
0
100
AcDbLine
 10
200.2989393173137
 20
103.3497464250983
 30
0.0
 11
210.231755049011
 21
103.3497464250981
 31
0.0
  0
CIRCLE
  5
4E73
330
1F
100
AcDbEntity
  8
0
100
AcDbCircle
 10
203.1317550473112
 20
110.3497464250984
 30
0.0
 40
3.45
  0
CIRCLE
  5
4E74
330
1F
100
AcDbEntity
  8
0
100
AcDbCircle
 10
203.1317550473112
 20
110.3497464250986
 30
0.0
 40
5.5
  0
ARC
  5
4E75
330
1F
100
AcDbEntity
  8
0
 62
     3
100
AcDbCircle
 10
203.1317550473112
 20
110.3497464250984
 30
0.0
 40
4.0
100
AcDbArc
 50
270.0
 51
180.0
  0
ARC
  5
4E76
330
1F
100
AcDbEntity
  8
0
100
AcDbCircle
 10
227.1317550473108
 20
134.3497464250983
 30
0.0
 40
41.0
100
AcDbArc
 50
220.8786351465317
 51
229.1213648534728
  0
LINE
  5
4E77
330
1F
100
AcDbEntity
  8
0
100
AcDbLine
 10
197.6317550463112
 20
117.1997464272486
 30
0.0
 11
197.131755046811
 21
117.6497464267985
 31
0.0
  0
LINE
  5
4E78
330
1F
100
AcDbEntity
  8
0
100
AcDbLine
 10
197.6317550463112
 20
121.4997464229486
 30
0.0
 11
197.131755046811
 21
121.0497464233986
 31
0.0
  0
LINE
  5
4E79
330
1F
100
AcDbEntity
  8
0
100
AcDbLine
 10
196.1317550473112
 20
117.6497464250985
 30
0.0
 11
196.1317550473112
 21
107.5169306951008
 31
0.0
  0
LINE
  5
4E7A
330
1F
100
AcDbEntity
  8
0
100
AcDbLine
 10
196.1317550473112
 20
117.6497464267985
 30
0.0
 11
197.131755046811
 21
117.6497464267985
 31
0.0
  0
LINE
  5
4E7B
330
1F
100
AcDbEntity
  8
0
100
AcDbLine
 10
196.1317550473112
 20
121.0497464233986
 30
0.0
 11
197.131755046811
 21
121.0497464233986
 31
0.0
  0
ARC
  5
4E7C
330
1F
100
AcDbEntity
  8
0
100
AcDbCircle
 10
199.7317550442111
 20
118.8997464255487
 30
0.0
 40
1.6999999983
100
AcDbArc
 50
270.0
 51
0.0
  0
ARC
  5
4E7D
330
1F
100
AcDbEntity
  8
0
100
AcDbCircle
 10
199.7317550442111
 20
119.7997464246486
 30
0.0
 40
1.6999999983
100
AcDbArc
 50
0.0
 51
90.0
  0
LINE
  5
4E7E
330
1F
100
AcDbEntity
  8
0
100
AcDbLine
 10
197.6317550463112
 20
117.1997464272486
 30
0.0
 11
199.7317550442111
 21
117.1997464272486
 31
0.0
  0
LINE
  5
4E7F
330
1F
100
AcDbEntity
  8
0
100
AcDbLine
 10
197.6317550463112
 20
121.4997464229486
 30
0.0
 11
199.7317550442111
 21
121.4997464229486
 31
0.0
  0
LINE
  5
4E80
330
1F
100
AcDbEntity
  8
0
100
AcDbLine
 10
201.4317550425111
 20
119.7997464246486
 30
0.0
 11
201.4317550425111
 21
118.8997464255487
 31
0.0
  0
LINE
  5
4E81
330
1F
100
AcDbEntity
  8
0
100
AcDbLine
 10
217.2317550473112
 20
105.8497464250983
 30
0.0
 11
225.8317550473115
 21
105.8497464250983
 31
0.0
  0
ARC
  5
4E82
330
1F
100
AcDbEntity
  8
0
100
AcDbCircle
 10
212.5817550468613
 20
106.9497464219983
 30
0.0
 40
1.6999999983
100
AcDbArc
 50
0.0
 51
90.0
  0
LINE
  5
4E83
330
1F
100
AcDbEntity
  8
0
100
AcDbLine
 10
209.9817550494612
 20
104.8497464240983
 30
0.0
 11
209.9817550494612
 21
106.9497464219984
 31
0.0
  0
LINE
  5
4E84
330
1F
100
AcDbEntity
  8
0
100
AcDbLine
 10
210.4317550490108
 20
103.5497464250983
 30
0.0
 11
210.4317550490108
 21
104.3497464245983
 31
0.0
  0
LINE
  5
4E85
330
1F
100
AcDbEntity
  8
0
100
AcDbLine
 10
209.9817550494612
 20
104.8497464240983
 30
0.0
 11
210.4317550490108
 21
104.3497464245983
 31
0.0
  0
ARC
  5
4E86
330
1F
100
AcDbEntity
  8
0
100
AcDbCircle
 10
210.231755049011
 20
103.5497464250984
 30
0.0
 40
0.2
100
AcDbArc
 50
270.0
 51
0.0
  0
ARC
  5
4E87
330
1F
100
AcDbEntity
  8
0
100
AcDbCircle
 10
211.6817550477612
 20
106.9497464219985
 30
0.0
 40
1.6999999983
100
AcDbArc
 50
90.0
 51
180.0
  0
LINE
  5
4E88
330
1F
100
AcDbEntity
  8
0
100
AcDbLine
 10
212.5817550468613
 20
108.6497464202984
 30
0.0
 11
211.6817550477612
 21
108.6497464202984
 31
0.0
  0
LINE
  5
4E89
330
1F
100
AcDbEntity
  8
0
100
AcDbLine
 10
214.2817550451613
 20
104.8497464240984
 30
0.0
 11
214.2817550451613
 21
106.9497464219983
 31
0.0
  0
LINE
  5
4E8A
330
1F
100
AcDbEntity
  8
0
100
AcDbLine
 10
214.031755045611
 20
103.3497464250981
 30
0.0
 11
218.5317550473113
 21
103.3497464250983
 31
0.0
  0
ARC
  5
4E8B
330
1F
100
AcDbEntity
  8
0
100
AcDbCircle
 10
214.031755045611
 20
103.5497464250983
 30
0.0
 40
0.2
100
AcDbArc
 50
180.0
 51
270.0
  0
LINE
  5
4E8C
330
1F
100
AcDbEntity
  8
0
100
AcDbLine
 10
214.2817550451613
 20
104.8497464240983
 30
0.0
 11
213.8317550456108
 21
104.3497464245983
 31
0.0
  0
LINE
  5
4E8D
330
1F
100
AcDbEntity
  8
0
100
AcDbLine
 10
213.8317550456108
 20
103.5497464250983
 30
0.0
 11
213.8317550456108
 21
104.3497464245983
 31
0.0
  0
ARC
  5
4E8E
330
1F
100
AcDbEntity
  8
0
100
AcDbCircle
 10
217.2317550473112
 20
105.6497464250985
 30
0.0
 40
0.2
100
AcDbArc
 50
90.0
 51
180.0
  0
ARC
  5
4E8F
330
1F
100
AcDbEntity
  8
0
100
AcDbCircle
 10
217.2317550473112
 20
104.7497464250984
 30
0.0
 40
0.2
100
AcDbArc
 50
180.0
 51
270.0
  0
LINE
  5
4E90
330
1F
100
AcDbEntity
  8
0
100
AcDbLine
 10
217.0317550473113
 20
105.6497464250985
 30
0.0
 11
217.0317550473113
 21
104.7497464250984
 31
0.0
  0
LINE
  5
4E91
330
1F
100
AcDbEntity
  8
0
100
AcDbLine
 10
218.7317550473111
 20
104.3497464250983
 30
0.0
 11
218.7317550473111
 21
103.5497464250981
 31
0.0
  0
ARC
  5
4E92
330
1F
100
AcDbEntity
  8
0
100
AcDbCircle
 10
218.5317550473113
 20
103.5497464250981
 30
0.0
 40
0.2
100
AcDbArc
 50
270.0
 51
0.0
  0
ARC
  5
4E93
330
1F
100
AcDbEntity
  8
0
100
AcDbCircle
 10
218.5317550473113
 20
104.3497464250983
 30
0.0
 40
0.2
100
AcDbArc
 50
0.0
 51
90.0
  0
LINE
  5
4E94
330
1F
100
AcDbEntity
  8
0
100
AcDbLine
 10
217.2317550473112
 20
104.5497464250986
 30
0.0
 11
218.5317550473113
 21
104.5497464250986
 31
0.0
  0
LINE
  5
4E95
330
1F
100
AcDbEntity
  8
0
100
AcDbLine
 10
228.4317550473109
 20
105.8497464250983
 30
0.0
 11
237.0317550473109
 21
105.8497464250983
 31
0.0
  0
LINE
  5
4E96
330
1F
100
AcDbEntity
  8
0
100
AcDbLine
 10
226.2317550473111
 20
103.3497464250983
 30
0.0
 11
228.0317550473113
 21
103.3497464250983
 31
0.0
  0
ARC
  5
4E97
330
1F
100
AcDbEntity
  8
0
100
AcDbCircle
 10
225.8317550473115
 20
105.6497464250985
 30
0.0
 40
0.2
100
AcDbArc
 50
0.0
 51
90.0
  0
ARC
  5
4E98
330
1F
100
AcDbEntity
  8
0
100
AcDbCircle
 10
226.2317550473111
 20
103.5497464250981
 30
0.0
 40
0.2
100
AcDbArc
 50
180.0
 51
270.0
  0
LINE
  5
4E99
330
1F
100
AcDbEntity
  8
0
100
AcDbLine
 10
226.0317550473113
 20
105.6497464250985
 30
0.0
 11
226.0317550473113
 21
103.5497464250981
 31
0.0
  0
ARC
  5
4E9A
330
1F
100
AcDbEntity
  8
0
100
AcDbCircle
 10
228.4317550473109
 20
105.6497464250985
 30
0.0
 40
0.2
100
AcDbArc
 50
90.0
 51
180.0
  0
ARC
  5
4E9B
330
1F
100
AcDbEntity
  8
0
100
AcDbCircle
 10
228.0317550473113
 20
103.5497464250986
 30
0.0
 40
0.2
100
AcDbArc
 50
270.0
 51
0.0
  0
LINE
  5
4E9C
330
1F
100
AcDbEntity
  8
0
100
AcDbLine
 10
228.2317550473111
 20
105.6497464250985
 30
0.0
 11
228.2317550473111
 21
103.5497464250986
 31
0.0
  0
LINE
  5
4E9D
330
1F
100
AcDbEntity
  8
0
100
AcDbLine
 10
239.9817550494612
 20
104.8497464240984
 30
0.0
 11
239.9817550494612
 21
106.9497464219983
 31
0.0
  0
LINE
  5
4E9E
330
1F
100
AcDbEntity
  8
0
100
AcDbLine
 10
244.2817550451613
 20
104.8497464240983
 30
0.0
 11
244.2817550451613
 21
106.9497464219984
 31
0.0
  0
LINE
  5
4E9F
330
1F
100
AcDbEntity
  8
0
100
AcDbLine
 10
239.9817550494612
 20
104.8497464240983
 30
0.0
 11
240.4317550490108
 21
104.3497464245983
 31
0.0
  0
LINE
  5
4EA0
330
1F
100
AcDbEntity
  8
0
100
AcDbLine
 10
235.7317550473112
 20
103.3497464250983
 30
0.0
 11
240.231755049011
 21
103.3497464250983
 31
0.0
  0
ARC
  5
4EA1
330
1F
100
AcDbEntity
  8
0
100
AcDbCircle
 10
237.0317550473109
 20
105.6497464250985
 30
0.0
 40
0.2
100
AcDbArc
 50
0.0
 51
90.0
  0
LINE
  5
4EA2
330
1F
100
AcDbEntity
  8
0
100
AcDbLine
 10
235.5317550473113
 20
104.3497464250983
 30
0.0
 11
235.5317550473113
 21
103.5497464250981
 31
0.0
  0
ARC
  5
4EA3
330
1F
100
AcDbEntity
  8
0
100
AcDbCircle
 10
235.7317550473112
 20
103.5497464250981
 30
0.0
 40
0.2
100
AcDbArc
 50
180.0
 51
270.0
  0
ARC
  5
4EA4
330
1F
100
AcDbEntity
  8
0
100
AcDbCircle
 10
235.7317550473112
 20
104.3497464250983
 30
0.0
 40
0.2
100
AcDbArc
 50
90.0
 51
180.0
  0
ARC
  5
4EA5
330
1F
100
AcDbEntity
  8
0
100
AcDbCircle
 10
237.0317550473109
 20
104.7497464250984
 30
0.0
 40
0.2
100
AcDbArc
 50
270.0
 51
0.0
  0
LINE
  5
4EA6
330
1F
100
AcDbEntity
  8
0
100
AcDbLine
 10
235.7317550473112
 20
104.5497464250981
 30
0.0
 11
237.0317550473109
 21
104.5497464250981
 31
0.0
  0
LINE
  5
4EA7
330
1F
100
AcDbEntity
  8
0
100
AcDbLine
 10
237.2317550473111
 20
105.6497464250985
 30
0.0
 11
237.2317550473111
 21
104.7497464250984
 31
0.0
  0
ARC
  5
4EA8
330
1F
100
AcDbEntity
  8
0
100
AcDbCircle
 10
240.231755049011
 20
103.5497464250983
 30
0.0
 40
0.2
100
AcDbArc
 50
270.0
 51
0.0
  0
LINE
  5
4EA9
330
1F
100
AcDbEntity
  8
0
100
AcDbLine
 10
240.4317550490108
 20
103.5497464250983
 30
0.0
 11
240.4317550490108
 21
104.3497464245983
 31
0.0
  0
LINE
  5
4EAA
330
1F
100
AcDbEntity
  8
0
100
AcDbLine
 10
243.8317550456107
 20
103.5497464250983
 30
0.0
 11
243.8317550456107
 21
104.3497464245983
 31
0.0
  0
ARC
  5
4EAB
330
1F
100
AcDbEntity
  8
0
100
AcDbCircle
 10
244.031755045611
 20
103.5497464250983
 30
0.0
 40
0.2
100
AcDbArc
 50
180.0
 51
270.0
  0
LINE
  5
4EAC
330
1F
100
AcDbEntity
  8
0
100
AcDbLine
 10
244.2817550451613
 20
104.8497464240983
 30
0.0
 11
243.8317550456107
 21
104.3497464245983
 31
0.0
  0
ARC
  5
4EAD
330
1F
100
AcDbEntity
  8
0
100
AcDbCircle
 10
241.6817550477611
 20
106.9497464219983
 30
0.0
 40
1.6999999983
100
AcDbArc
 50
90.0
 51
180.0
  0
ARC
  5
4EAE
330
1F
100
AcDbEntity
  8
0
100
AcDbCircle
 10
242.5817550468608
 20
106.9497464219985
 30
0.0
 40
1.6999999983
100
AcDbArc
 50
0.0
 51
90.0
  0
LINE
  5
4EAF
330
1F
100
AcDbEntity
  8
0
100
AcDbLine
 10
241.6817550477611
 20
108.6497464202984
 30
0.0
 11
242.5817550468608
 21
108.6497464202984
 31
0.0
  0
LINE
  5
4EB0
330
1F
100
AcDbEntity
  8
0
100
AcDbLine
 10
200.2989393173137
 20
165.3497464250983
 30
0.0
 11
210.231755049011
 21
165.3497464250983
 31
0.0
  0
ARC
  5
4EB1
330
1F
100
AcDbEntity
  8
0
 62
     3
100
AcDbCircle
 10
203.1317550473112
 20
158.3497464250984
 30
0.0
 40
4.0
100
AcDbArc
 50
270.0
 51
180.0
  0
CIRCLE
  5
4EB2
330
1F
100
AcDbEntity
  8
0
100
AcDbCircle
 10
203.1317550473112
 20
158.3497464250985
 30
0.0
 40
5.5
  0
CIRCLE
  5
4EB3
330
1F
100
AcDbEntity
  8
0
100
AcDbCircle
 10
203.1317550473112
 20
158.3497464250984
 30
0.0
 40
3.45
  0
CIRCLE
  5
4EB4
330
1F
100
AcDbEntity
  8
0
100
AcDbCircle
 10
203.1317550473112
 20
158.3497464250984
 30
0.0
 40
3.45
  0
LINE
  5
4EB5
330
1F
100
AcDbEntity
  8
0
100
AcDbLine
 10
196.1317550473112
 20
161.1825621550958
 30
0.0
 11
196.1317550473112
 21
151.0497464250986
 31
0.0
  0
LINE
  5
4EB6
330
1F
100
AcDbEntity
  8
0
100
AcDbLine
 10
188.2939177191841
 20
124.8598309341147
 30
0.0
 11
196.1317550473112
 21
123.3497464250983
 31
0.0
  0
LINE
  5
4EB7
330
1F
100
AcDbEntity
  8
0
100
AcDbLine
 10
188.2939177191841
 20
143.8396619160825
 30
0.0
 11
196.1317550473112
 21
145.3497464250985
 31
0.0
  0
LINE
  5
4EB8
330
1F
100
AcDbEntity
  8
0
100
AcDbLine
 10
188.1317550473112
 20
143.6432736868013
 30
0.0
 11
188.1317550473112
 21
125.0562191633959
 31
0.0
  0
ARC
  5
4EB9
330
1F
100
AcDbEntity
  8
0
100
AcDbCircle
 10
188.331755047311
 20
125.0562191633959
 30
0.0
 40
0.2
100
AcDbArc
 50
180.0
 51
259.0946787101582
  0
ARC
  5
4EBA
330
1F
100
AcDbEntity
  8
0
100
AcDbCircle
 10
188.331755047311
 20
143.6432736868013
 30
0.0
 40
0.2
100
AcDbArc
 50
100.9053212898418
 51
180.0
  0
LINE
  5
4EBB
330
1F
100
AcDbEntity
  8
0
100
AcDbLine
 10
197.6317550463108
 20
151.4997464229483
 30
0.0
 11
197.1317550468105
 21
151.0497464233983
 31
0.0
  0
LINE
  5
4EBC
330
1F
100
AcDbEntity
  8
0
100
AcDbLine
 10
197.6317550463108
 20
147.1997464272482
 30
0.0
 11
197.131755046811
 21
147.6497464267983
 31
0.0
  0
LINE
  5
4EBD
330
1F
100
AcDbEntity
  8
0
100
AcDbLine
 10
196.1317550473112
 20
147.6497464250985
 30
0.0
 11
196.1317550473112
 21
145.3497464250985
 31
0.0
  0
LINE
  5
4EBE
330
1F
100
AcDbEntity
  8
0
100
AcDbLine
 10
196.1317550473108
 20
151.0497464233983
 30
0.0
 11
197.1317550468105
 21
151.0497464233983
 31
0.0
  0
LINE
  5
4EBF
330
1F
100
AcDbEntity
  8
0
100
AcDbLine
 10
196.1317550473108
 20
147.6497464267982
 30
0.0
 11
197.131755046811
 21
147.6497464267983
 31
0.0
  0
ARC
  5
4EC0
330
1F
100
AcDbEntity
  8
0
100
AcDbCircle
 10
199.7317550442106
 20
148.8997464255482
 30
0.0
 40
1.6999999983
100
AcDbArc
 50
270.0
 51
0.0
  0
ARC
  5
4EC1
330
1F
100
AcDbEntity
  8
0
100
AcDbCircle
 10
199.7317550442106
 20
149.7997464246483
 30
0.0
 40
1.6999999983
100
AcDbArc
 50
0.0
 51
90.0
  0
LINE
  5
4EC2
330
1F
100
AcDbEntity
  8
0
100
AcDbLine
 10
197.6317550463112
 20
147.1997464272482
 30
0.0
 11
199.7317550442106
 21
147.1997464272482
 31
0.0
  0
LINE
  5
4EC3
330
1F
100
AcDbEntity
  8
0
100
AcDbLine
 10
197.6317550463108
 20
151.4997464229483
 30
0.0
 11
199.7317550442106
 21
151.4997464229483
 31
0.0
  0
LINE
  5
4EC4
330
1F
100
AcDbEntity
  8
0
100
AcDbLine
 10
201.4317550425106
 20
148.8997464255483
 30
0.0
 11
201.4317550425106
 21
149.7997464246484
 31
0.0
  0
ARC
  5
4EC5
330
1F
100
AcDbEntity
  8
0
100
AcDbCircle
 10
227.1317550473108
 20
134.3497464250983
 30
0.0
 40
41.0
100
AcDbArc
 50
130.8786351465272
 51
139.1213648534683
  0
LINE
  5
4EC6
330
1F
100
AcDbEntity
  8
0
100
AcDbLine
 10
225.8317550473088
 20
162.8497464250988
 30
0.0
 11
217.2317550473088
 21
162.8497464250988
 31
0.0
  0
ARC
  5
4EC7
330
1F
100
AcDbEntity
  8
0
100
AcDbCircle
 10
212.5817550468613
 20
161.7497464281989
 30
0.0
 40
1.6999999983
100
AcDbArc
 50
270.0
 51
0.0
  0
LINE
  5
4EC8
330
1F
100
AcDbEntity
  8
0
100
AcDbLine
 10
209.9817550494612
 20
163.8497464260987
 30
0.0
 11
209.9817550494612
 21
161.7497464281987
 31
0.0
  0
ARC
  5
4EC9
330
1F
100
AcDbEntity
  8
0
100
AcDbCircle
 10
211.6817550477612
 20
161.7497464281987
 30
0.0
 40
1.6999999983
100
AcDbArc
 50
180.0
 51
270.0
  0
LINE
  5
4ECA
330
1F
100
AcDbEntity
  8
0
100
AcDbLine
 10
212.5817550468613
 20
160.0497464298988
 30
0.0
 11
211.6817550477612
 21
160.0497464298988
 31
0.0
  0
LINE
  5
4ECB
330
1F
100
AcDbEntity
  8
0
100
AcDbLine
 10
210.4317550490108
 20
165.1497464250982
 30
0.0
 11
210.4317550490108
 21
164.3497464255987
 31
0.0
  0
ARC
  5
4ECC
330
1F
100
AcDbEntity
  8
0
100
AcDbCircle
 10
210.231755049011
 20
165.1497464250982
 30
0.0
 40
0.2
100
AcDbArc
 50
0.0
 51
90.0
  0
LINE
  5
4ECD
330
1F
100
AcDbEntity
  8
0
100
AcDbLine
 10
209.9817550494612
 20
163.8497464260987
 30
0.0
 11
210.4317550490108
 21
164.3497464255987
 31
0.0
  0
LINE
  5
4ECE
330
1F
100
AcDbEntity
  8
0
100
AcDbLine
 10
217.0317550473086
 20
163.0497464250986
 30
0.0
 11
217.0317550473086
 21
163.9497464250986
 31
0.0
  0
LINE
  5
4ECF
330
1F
100
AcDbEntity
  8
0
100
AcDbLine
 10
214.2817550451613
 20
163.8497464260987
 30
0.0
 11
214.2817550451613
 21
161.7497464281989
 31
0.0
  0
ARC
  5
4ED0
330
1F
100
AcDbEntity
  8
0
100
AcDbCircle
 10
217.2317550473088
 20
163.0497464250986
 30
0.0
 40
0.2
100
AcDbArc
 50
180.0
 51
270.0
  0
LINE
  5
4ED1
330
1F
100
AcDbEntity
  8
0
100
AcDbLine
 10
214.031755045611
 20
165.3497464250984
 30
0.0
 11
218.5317550473086
 21
165.3497464250984
 31
0.0
  0
ARC
  5
4ED2
330
1F
100
AcDbEntity
  8
0
100
AcDbCircle
 10
214.031755045611
 20
165.1497464250982
 30
0.0
 40
0.2
100
AcDbArc
 50
90.0
 51
180.0
  0
LINE
  5
4ED3
330
1F
100
AcDbEntity
  8
0
100
AcDbLine
 10
214.2817550451613
 20
163.8497464260987
 30
0.0
 11
213.8317550456108
 21
164.3497464255987
 31
0.0
  0
LINE
  5
4ED4
330
1F
100
AcDbEntity
  8
0
100
AcDbLine
 10
213.8317550456108
 20
165.1497464250982
 30
0.0
 11
213.8317550456108
 21
164.3497464255987
 31
0.0
  0
ARC
  5
4ED5
330
1F
100
AcDbEntity
  8
0
100
AcDbCircle
 10
217.2317550473088
 20
163.9497464250986
 30
0.0
 40
0.2
100
AcDbArc
 50
90.0
 51
180.0
  0
ARC
  5
4ED6
330
1F
100
AcDbEntity
  8
0
100
AcDbCircle
 10
218.5317550473086
 20
165.1497464250989
 30
0.0
 40
0.2
100
AcDbArc
 50
0.0
 51
90.0
  0
ARC
  5
4ED7
330
1F
100
AcDbEntity
  8
0
100
AcDbCircle
 10
218.5317550473086
 20
164.3497464250988
 30
0.0
 40
0.2
100
AcDbArc
 50
270.0
 51
0.0
  0
LINE
  5
4ED8
330
1F
100
AcDbEntity
  8
0
100
AcDbLine
 10
218.7317550473084
 20
164.3497464250988
 30
0.0
 11
218.7317550473084
 21
165.1497464250989
 31
0.0
  0
LINE
  5
4ED9
330
1F
100
AcDbEntity
  8
0
100
AcDbLine
 10
218.5317550473086
 20
164.1497464250989
 30
0.0
 11
217.2317550473088
 21
164.1497464250989
 31
0.0
  0
LINE
  5
4EDA
330
1F
100
AcDbEntity
  8
0
100
AcDbLine
 10
237.0317550473086
 20
162.8497464250988
 30
0.0
 11
228.4317550473082
 21
162.8497464250988
 31
0.0
  0
LINE
  5
4EDB
330
1F
100
AcDbEntity
  8
0
100
AcDbLine
 10
228.2317550473084
 20
163.0497464250986
 30
0.0
 11
228.2317550473084
 21
165.1497464250989
 31
0.0
  0
LINE
  5
4EDC
330
1F
100
AcDbEntity
  8
0
100
AcDbLine
 10
226.0317550473086
 20
163.0497464250986
 30
0.0
 11
226.0317550473086
 21
165.1497464250985
 31
0.0
  0
ARC
  5
4EDD
330
1F
100
AcDbEntity
  8
0
100
AcDbCircle
 10
225.8317550473088
 20
163.0497464250986
 30
0.0
 40
0.2
100
AcDbArc
 50
270.0
 51
0.0
  0
ARC
  5
4EDE
330
1F
100
AcDbEntity
  8
0
100
AcDbCircle
 10
228.4317550473087
 20
163.0497464250986
 30
0.0
 40
0.2
100
AcDbArc
 50
180.0
 51
270.0
  0
LINE
  5
4EDF
330
1F
100
AcDbEntity
  8
0
100
AcDbLine
 10
228.0317550473086
 20
165.3497464250987
 30
0.0
 11
226.2317550473084
 21
165.3497464250987
 31
0.0
  0
ARC
  5
4EE0
330
1F
100
AcDbEntity
  8
0
100
AcDbCircle
 10
226.2317550473084
 20
165.1497464250985
 30
0.0
 40
0.2
100
AcDbArc
 50
90.0
 51
180.0
  0
ARC
  5
4EE1
330
1F
100
AcDbEntity
  8
0
100
AcDbCircle
 10
228.0317550473086
 20
165.1497464250989
 30
0.0
 40
0.2
100
AcDbArc
 50
0.0
 51
90.0
  0
LINE
  5
4EE2
330
1F
100
AcDbEntity
  8
0
100
AcDbLine
 10
239.9817550494612
 20
163.8497464260987
 30
0.0
 11
240.4317550490108
 21
164.3497464255987
 31
0.0
  0
ARC
  5
4EE3
330
1F
100
AcDbEntity
  8
0
100
AcDbCircle
 10
241.6817550477611
 20
161.7497464281989
 30
0.0
 40
1.6999999983
100
AcDbArc
 50
180.0
 51
270.0
  0
LINE
  5
4EE4
330
1F
100
AcDbEntity
  8
0
100
AcDbLine
 10
235.7317550473084
 20
165.3497464250983
 30
0.0
 11
240.231755049011
 21
165.3497464250983
 31
0.0
  0
LINE
  5
4EE5
330
1F
100
AcDbEntity
  8
0
100
AcDbLine
 10
239.9817550494612
 20
163.8497464260987
 30
0.0
 11
239.9817550494612
 21
161.7497464281989
 31
0.0
  0
LINE
  5
4EE6
330
1F
100
AcDbEntity
  8
0
100
AcDbLine
 10
237.2317550473084
 20
163.0497464250986
 30
0.0
 11
237.2317550473084
 21
163.9497464250986
 31
0.0
  0
ARC
  5
4EE7
330
1F
100
AcDbEntity
  8
0
100
AcDbCircle
 10
237.0317550473086
 20
163.0497464250986
 30
0.0
 40
0.2
100
AcDbArc
 50
270.0
 51
0.0
  0
ARC
  5
4EE8
330
1F
100
AcDbEntity
  8
0
100
AcDbCircle
 10
235.7317550473084
 20
165.1497464250989
 30
0.0
 40
0.2
100
AcDbArc
 50
90.0
 51
180.0
  0
ARC
  5
4EE9
330
1F
100
AcDbEntity
  8
0
100
AcDbCircle
 10
235.7317550473084
 20
164.3497464250988
 30
0.0
 40
0.2
100
AcDbArc
 50
180.0
 51
270.0
  0
LINE
  5
4EEA
330
1F
100
AcDbEntity
  8
0
100
AcDbLine
 10
235.5317550473086
 20
164.3497464250988
 30
0.0
 11
235.5317550473086
 21
165.1497464250989
 31
0.0
  0
ARC
  5
4EEB
330
1F
100
AcDbEntity
  8
0
100
AcDbCircle
 10
237.0317550473086
 20
163.9497464250986
 30
0.0
 40
0.2
100
AcDbArc
 50
0.0
 51
90.0
  0
LINE
  5
4EEC
330
1F
100
AcDbEntity
  8
0
100
AcDbLine
 10
237.0317550473086
 20
164.1497464250985
 30
0.0
 11
235.7317550473084
 21
164.1497464250985
 31
0.0
  0
LINE
  5
4EED
330
1F
100
AcDbEntity
  8
0
100
AcDbLine
 10
244.2817550451613
 20
163.8497464260987
 30
0.0
 11
244.2817550451613
 21
161.7497464281987
 31
0.0
  0
ARC
  5
4EEE
330
1F
100
AcDbEntity
  8
0
100
AcDbCircle
 10
242.5817550468608
 20
161.7497464281987
 30
0.0
 40
1.6999999983
100
AcDbArc
 50
270.0
 51
0.0
  0
LINE
  5
4EEF
330
1F
100
AcDbEntity
  8
0
100
AcDbLine
 10
241.6817550477611
 20
160.0497464298988
 30
0.0
 11
242.5817550468608
 21
160.0497464298988
 31
0.0
  0
ARC
  5
4EF0
330
1F
100
AcDbEntity
  8
0
100
AcDbCircle
 10
240.231755049011
 20
165.1497464250982
 30
0.0
 40
0.2
100
AcDbArc
 50
0.0
 51
90.0
  0
LINE
  5
4EF1
330
1F
100
AcDbEntity
  8
0
100
AcDbLine
 10
240.4317550490108
 20
165.1497464250982
 30
0.0
 11
240.4317550490108
 21
164.3497464255987
 31
0.0
  0
ARC
  5
4EF2
330
1F
100
AcDbEntity
  8
0
100
AcDbCircle
 10
244.031755045611
 20
165.1497464250982
 30
0.0
 40
0.2
100
AcDbArc
 50
90.0
 51
180.0
  0
LINE
  5
4EF3
330
1F
100
AcDbEntity
  8
0
100
AcDbLine
 10
244.2817550451613
 20
163.8497464260987
 30
0.0
 11
243.8317550456107
 21
164.3497464255987
 31
0.0
  0
LINE
  5
4EF4
330
1F
100
AcDbEntity
  8
0
100
AcDbLine
 10
243.8317550456107
 20
165.1497464250982
 30
0.0
 11
243.8317550456107
 21
164.3497464255987
 31
0.0
  0
LINE
  5
4EF5
330
1F
100
AcDbEntity
  8
0
100
AcDbLine
 10
247.2439925699977
 20
123.6494534815935
 30
0.0
 11
248.0762750257408
 21
121.6753143155443
 31
0.0
  0
LINE
  5
4EF6
330
1F
100
AcDbEntity
  8
0
100
AcDbLine
 10
258.1317550473108
 20
125.7497464250999
 30
0.0
 11
258.1317550473108
 21
121.2497464233989
 31
0.0
  0
LINE
  5
4EF7
330
1F
100
AcDbEntity
  8
0
100
AcDbLine
 10
256.6317550483112
 20
117.1997464272488
 30
0.0
 11
254.5317550504109
 21
117.1997464272488
 31
0.0
  0
LINE
  5
4EF8
330
1F
100
AcDbEntity
  8
0
100
AcDbLine
 10
256.6317550483112
 20
121.4997464229489
 30
0.0
 11
254.5317550504109
 21
121.4997464229489
 31
0.0
  0
ARC
  5
4EF9
330
1F
100
AcDbEntity
  8
0
100
AcDbCircle
 10
227.1317550473108
 20
134.3497464250983
 30
0.0
 40
41.0
100
AcDbArc
 50
310.8786351465271
 51
319.1213648534683
  0
CIRCLE
  5
4EFA
330
1F
100
AcDbEntity
  8
0
100
AcDbCircle
 10
251.1317550473112
 20
110.3497464250986
 30
0.0
 40
5.5
  0
CIRCLE
  5
4EFB
330
1F
100
AcDbEntity
  8
0
100
AcDbCircle
 10
251.1317550473112
 20
110.3497464250988
 30
0.0
 40
3.45
  0
ARC
  5
4EFC
330
1F
100
AcDbEntity
  8
0
 62
     3
100
AcDbCircle
 10
251.1317550473112
 20
110.3497464250984
 30
0.0
 40
4.0
100
AcDbArc
 50
270.0
 51
180.0
  0
CIRCLE
  5
4EFD
330
1F
100
AcDbEntity
  8
0
100
AcDbCircle
 10
251.1317550473112
 20
110.3497464250984
 30
0.0
 40
3.45
  0
ARC
  5
4EFE
330
1F
100
AcDbEntity
  8
0
100
AcDbCircle
 10
254.5317550504109
 20
118.899746425549
 30
0.0
 40
1.6999999983
100
AcDbArc
 50
180.0
 51
270.0
  0
ARC
  5
4EFF
330
1F
100
AcDbEntity
  8
0
100
AcDbCircle
 10
254.5317550504109
 20
119.7997464246489
 30
0.0
 40
1.6999999983
100
AcDbArc
 50
90.0
 51
180.0
  0
LINE
  5
4F00
330
1F
100
AcDbEntity
  8
0
100
AcDbLine
 10
252.8317550521109
 20
119.7997464246489
 30
0.0
 11
252.8317550521109
 21
118.899746425549
 31
0.0
  0
LINE
  5
4F01
330
1F
100
AcDbEntity
  8
0
100
AcDbLine
 10
258.1317550473108
 20
117.4497464267989
 30
0.0
 11
258.1317550473108
 21
107.5169306951008
 31
0.0
  0
LINE
  5
4F02
330
1F
100
AcDbEntity
  8
0
100
AcDbLine
 10
256.6317550483112
 20
117.1997464272488
 30
0.0
 11
257.131755047811
 21
117.6497464267989
 31
0.0
  0
ARC
  5
4F03
330
1F
100
AcDbEntity
  8
0
100
AcDbCircle
 10
257.931755047311
 20
117.4497464267989
 30
0.0
 40
0.2
100
AcDbArc
 50
0.0
 51
90.0
  0
LINE
  5
4F04
330
1F
100
AcDbEntity
  8
0
100
AcDbLine
 10
257.931755047311
 20
117.6497464267989
 30
0.0
 11
257.131755047811
 21
117.6497464267989
 31
0.0
  0
LINE
  5
4F05
330
1F
100
AcDbEntity
  8
0
100
AcDbLine
 10
257.931755047311
 20
121.049746423399
 30
0.0
 11
257.131755047811
 21
121.0497464233988
 31
0.0
  0
LINE
  5
4F06
330
1F
100
AcDbEntity
  8
0
100
AcDbLine
 10
256.6317550483112
 20
121.4997464229489
 30
0.0
 11
257.131755047811
 21
121.0497464233988
 31
0.0
  0
ARC
  5
4F07
330
1F
100
AcDbEntity
  8
0
100
AcDbCircle
 10
257.931755047311
 20
121.2497464233989
 30
0.0
 40
0.2
100
AcDbArc
 50
270.0
 51
0.0
  0
ARC
  5
4F08
330
1F
100
AcDbEntity
  8
0
 62
     3
100
AcDbCircle
 10
251.1317550473112
 20
158.3497464250986
 30
0.0
 40
4.0
100
AcDbArc
 50
270.0
 51
180.0
  0
CIRCLE
  5
4F09
330
1F
100
AcDbEntity
  8
0
100
AcDbCircle
 10
251.1317550473112
 20
158.3497464250988
 30
0.0
 40
5.5
  0
CIRCLE
  5
4F0A
330
1F
100
AcDbEntity
  8
0
100
AcDbCircle
 10
251.1317550473112
 20
158.3497464250988
 30
0.0
 40
3.45
  0
CIRCLE
  5
4F0B
330
1F
100
AcDbEntity
  8
0
100
AcDbCircle
 10
251.1317550473112
 20
158.3497464250986
 30
0.0
 40
3.45
  0
LINE
  5
4F0C
330
1F
100
AcDbEntity
  8
0
100
AcDbLine
 10
258.1317550473108
 20
161.1825621550958
 30
0.0
 11
258.1317550473108
 21
151.2497464233985
 31
0.0
  0
LINE
  5
4F0D
330
1F
100
AcDbEntity
  8
0
100
AcDbLine
 10
256.6317550483112
 20
147.1997464272485
 30
0.0
 11
254.5317550504109
 21
147.1997464272485
 31
0.0
  0
LINE
  5
4F0E
330
1F
100
AcDbEntity
  8
0
100
AcDbLine
 10
256.6317550483112
 20
151.4997464229486
 30
0.0
 11
254.5317550504109
 21
151.4997464229486
 31
0.0
  0
LINE
  5
4F0F
330
1F
100
AcDbEntity
  8
0
100
AcDbLine
 10
255.8317550473097
 20
144.4497464250998
 30
0.0
 11
256.7317550473102
 21
144.4497464250998
 31
0.0
  0
LINE
  5
4F10
330
1F
100
AcDbEntity
  8
0
100
AcDbLine
 10
255.8317550473097
 20
133.2497464250997
 30
0.0
 11
257.93175504731
 21
133.2497464250997
 31
0.0
  0
LINE
  5
4F11
330
1F
100
AcDbEntity
  8
0
100
AcDbLine
 10
255.8317550473097
 20
135.4497464250996
 30
0.0
 11
257.93175504731
 21
135.4497464251
 31
0.0
  0
LINE
  5
4F12
330
1F
100
AcDbEntity
  8
0
100
AcDbLine
 10
255.8317550473097
 20
124.2497464250998
 30
0.0
 11
256.7317550473102
 21
124.2497464250998
 31
0.0
  0
LINE
  5
4F13
330
1F
100
AcDbEntity
  8
0
100
AcDbLine
 10
255.6317550473099
 20
135.6497464250998
 30
0.0
 11
255.6317550473099
 21
144.2497464250995
 31
0.0
  0
LINE
  5
4F14
330
1F
100
AcDbEntity
  8
0
100
AcDbLine
 10
248.4055191289625
 20
126.4783169516
 30
0.0
 11
251.9339804814957
 21
126.4783169516
 31
0.0
  0
CIRCLE
  5
4F15
330
1F
100
AcDbEntity
  8
0
100
AcDbCircle
 10
248.3949939289013
 20
124.8297464250985
 30
0.0
 40
0.9856764640451737
  0
ARC
  5
4F16
330
1F
100
AcDbEntity
  8
0
100
AcDbCircle
 10
248.3949939289013
 20
124.8297464250985
 30
0.0
 40
1.648604124914535
100
AcDbArc
 50
89.63420348800621
 51
225.7198558604211
  0
LINE
  5
4F17
330
1F
100
AcDbEntity
  8
0
100
AcDbLine
 10
255.6317550473099
 20
124.4497464250996
 30
0.0
 11
255.6317550473099
 21
133.0497464250999
 31
0.0
  0
ARC
  5
4F18
330
1F
100
AcDbEntity
  8
0
100
AcDbCircle
 10
255.8317550473097
 20
124.4497464250996
 30
0.0
 40
0.2
100
AcDbArc
 50
180.0
 51
270.0
  0
ARC
  5
4F19
330
1F
100
AcDbEntity
  8
0
100
AcDbCircle
 10
255.8317550473097
 20
133.0497464250997
 30
0.0
 40
0.2
100
AcDbArc
 50
90.0
 51
180.0
  0
ARC
  5
4F1A
330
1F
100
AcDbEntity
  8
0
100
AcDbCircle
 10
255.8317550473097
 20
135.6497464250997
 30
0.0
 40
0.2
100
AcDbArc
 50
180.0
 51
270.0
  0
LINE
  5
4F1B
330
1F
100
AcDbEntity
  8
0
100
AcDbLine
 10
248.4037175429679
 20
142.239807075656
 30
0.0
 11
251.92805984006
 21
142.239807075656
 31
0.0
  0
CIRCLE
  5
4F1C
330
1F
100
AcDbEntity
  8
0
100
AcDbCircle
 10
248.3949939289013
 20
143.8883881198401
 30
0.0
 40
0.9856764640451737
  0
ARC
  5
4F1D
330
1F
100
AcDbEntity
  8
0
100
AcDbCircle
 10
248.3949939289013
 20
143.8883881198401
 30
0.0
 40
1.648604124914535
100
AcDbArc
 50
133.6407183530364
 51
270.3031829140065
  0
LINE
  5
4F1E
330
1F
100
AcDbEntity
  8
0
100
AcDbLine
 10
247.2439925699977
 20
145.0500393686037
 30
0.0
 11
248.0762750257408
 21
147.024178534653
 31
0.0
  0
ARC
  5
4F1F
330
1F
100
AcDbEntity
  8
0
100
AcDbCircle
 10
254.5317550504109
 20
148.8997464255485
 30
0.0
 40
1.6999999983
100
AcDbArc
 50
180.0
 51
270.0
  0
ARC
  5
4F20
330
1F
100
AcDbEntity
  8
0
100
AcDbCircle
 10
255.8317550473097
 20
144.2497464250995
 30
0.0
 40
0.2
100
AcDbArc
 50
90.0
 51
180.0
  0
ARC
  5
4F21
330
1F
100
AcDbEntity
  8
0
100
AcDbCircle
 10
254.5317550504109
 20
149.7997464246484
 30
0.0
 40
1.6999999983
100
AcDbArc
 50
90.0
 51
180.0
  0
LINE
  5
4F22
330
1F
100
AcDbEntity
  8
0
100
AcDbLine
 10
252.8317550521109
 20
148.8997464255485
 30
0.0
 11
252.8317550521109
 21
149.7997464246484
 31
0.0
  0
LINE
  5
4F23
330
1F
100
AcDbEntity
  8
0
100
AcDbLine
 10
256.9317550473101
 20
124.4497464250996
 30
0.0
 11
256.9317550473101
 21
125.7497464251
 31
0.0
  0
ARC
  5
4F24
330
1F
100
AcDbEntity
  8
0
100
AcDbCircle
 10
256.7317550473102
 20
124.4497464250996
 30
0.0
 40
0.2
100
AcDbArc
 50
270.0
 51
0.0
  0
ARC
  5
4F25
330
1F
100
AcDbEntity
  8
0
100
AcDbCircle
 10
257.1317550473099
 20
125.7497464250999
 30
0.0
 40
0.2
100
AcDbArc
 50
90.0
 51
180.0
  0
ARC
  5
4F26
330
1F
100
AcDbEntity
  8
0
100
AcDbCircle
 10
257.93175504731
 20
125.7497464250999
 30
0.0
 40
0.2
100
AcDbArc
 50
0.0
 51
90.0
  0
LINE
  5
4F27
330
1F
100
AcDbEntity
  8
0
100
AcDbLine
 10
257.1317550473099
 20
125.9497464250998
 30
0.0
 11
257.93175504731
 21
125.9497464250998
 31
0.0
  0
LINE
  5
4F28
330
1F
100
AcDbEntity
  8
0
100
AcDbLine
 10
258.1317550473098
 20
133.4497464251
 30
0.0
 11
258.1317550473098
 21
135.2497464250997
 31
0.0
  0
ARC
  5
4F29
330
1F
100
AcDbEntity
  8
0
100
AcDbCircle
 10
257.93175504731
 20
133.4497464250998
 30
0.0
 40
0.2
100
AcDbArc
 50
270.0
 51
0.0
  0
ARC
  5
4F2A
330
1F
100
AcDbEntity
  8
0
100
AcDbCircle
 10
257.93175504731
 20
135.2497464250996
 30
0.0
 40
0.2
100
AcDbArc
 50
0.0
 51
90.0
  0
LINE
  5
4F2B
330
1F
100
AcDbEntity
  8
0
100
AcDbLine
 10
258.1317550473108
 20
147.4497464267985
 30
0.0
 11
258.1317550473108
 21
142.9497464250996
 31
0.0
  0
LINE
  5
4F2C
330
1F
100
AcDbEntity
  8
0
100
AcDbLine
 10
256.9317550473101
 20
142.9497464250997
 30
0.0
 11
256.9317550473101
 21
144.2497464250995
 31
0.0
  0
ARC
  5
4F2D
330
1F
100
AcDbEntity
  8
0
100
AcDbCircle
 10
257.1317550473099
 20
142.9497464250996
 30
0.0
 40
0.2
100
AcDbArc
 50
180.0
 51
270.0
  0
ARC
  5
4F2E
330
1F
100
AcDbEntity
  8
0
100
AcDbCircle
 10
257.93175504731
 20
142.9497464250996
 30
0.0
 40
0.2
100
AcDbArc
 50
270.0
 51
0.0
  0
LINE
  5
4F2F
330
1F
100
AcDbEntity
  8
0
100
AcDbLine
 10
257.1317550473099
 20
142.7497464250999
 30
0.0
 11
257.93175504731
 21
142.7497464250999
 31
0.0
  0
ARC
  5
4F30
330
1F
100
AcDbEntity
  8
0
100
AcDbCircle
 10
256.7317550473102
 20
144.2497464250995
 30
0.0
 40
0.2
100
AcDbArc
 50
0.0
 51
90.0
  0
LINE
  5
4F31
330
1F
100
AcDbEntity
  8
0
100
AcDbLine
 10
256.6317550483112
 20
151.4997464229486
 30
0.0
 11
257.131755047811
 21
151.0497464233985
 31
0.0
  0
ARC
  5
4F32
330
1F
100
AcDbEntity
  8
0
100
AcDbCircle
 10
257.931755047311
 20
151.2497464233985
 30
0.0
 40
0.2
100
AcDbArc
 50
270.0
 51
0.0
  0
LINE
  5
4F33
330
1F
100
AcDbEntity
  8
0
100
AcDbLine
 10
257.931755047311
 20
151.0497464233985
 30
0.0
 11
257.131755047811
 21
151.0497464233985
 31
0.0
  0
LINE
  5
4F34
330
1F
100
AcDbEntity
  8
0
100
AcDbLine
 10
257.931755047311
 20
147.6497464267986
 30
0.0
 11
257.131755047811
 21
147.6497464267986
 31
0.0
  0
LINE
  5
4F35
330
1F
100
AcDbEntity
  8
0
100
AcDbLine
 10
256.6317550483112
 20
147.1997464272485
 30
0.0
 11
257.131755047811
 21
147.6497464267986
 31
0.0
  0
ARC
  5
4F36
330
1F
100
AcDbEntity
  8
0
100
AcDbCircle
 10
257.931755047311
 20
147.4497464267985
 30
0.0
 40
0.2
100
AcDbArc
 50
0.0
 51
90.0
  0
ARC
  5
4F37
330
1F
100
AcDbEntity
  8
0
100
AcDbCircle
 10
227.1317550473108
 20
134.3497464250983
 30
0.0
 40
41.0
100
AcDbArc
 50
40.87863514653169
 51
49.12136485347229
  0
CIRCLE
  5
4F38
330
1F
100
AcDbEntity
  8
0
100
AcDbCircle
 10
227.1317550473108
 20
134.3497464250982
 30
0.0
 40
19.0
  0
LINE
  5
4F39
102
{ACAD_REACTORS
330
4F9E
102
}
330
1F
100
AcDbEntity
  8
CENTER
100
AcDbLine
 10
95.64501713601988
 20
142.0040736313315
 30
0.0
 11
95.64501713601988
 21
126.6954192188652
 31
0.0
  0
LINE
  5
4F3A
102
{ACAD_REACTORS
330
4F9B
330
4FA4
102
}
330
1F
100
AcDbEntity
  8
0
100
AcDbLine
 10
72.64501713601987
 20
165.3497464250994
 30
0.0
 11
72.64501713601987
 21
103.3497464250987
 31
0.0
  0
LINE
  5
4F3B
102
{ACAD_REACTORS
330
4F9B
102
}
330
1F
100
AcDbEntity
  8
CENTER
100
AcDbLine
 10
82.64501713601987
 20
142.0040736313315
 30
0.0
 11
82.64501713601987
 21
126.6954192188652
 31
0.0
  0
CIRCLE
  5
4F3C
330
1F
100
AcDbEntity
  8
0
100
AcDbCircle
 10
82.64501713601987
 20
134.3497464250984
 30
0.0
 40
4.299999999999999
  0
ARC
  5
4F3D
330
1F
100
AcDbEntity
  8
0
 62
     3
100
AcDbCircle
 10
82.64501713601987
 20
134.3497464250984
 30
0.0
 40
4.849999999999999
100
AcDbArc
 50
336.7043162242286
 51
244.8890606854577
  0
CIRCLE
  5
4F3E
330
1F
100
AcDbEntity
  8
0
100
AcDbCircle
 10
95.64501713601988
 20
134.3497464250984
 30
0.0
 40
4.299999999999999
  0
ARC
  5
4F3F
330
1F
100
AcDbEntity
  8
0
 62
     3
100
AcDbCircle
 10
95.64501713601988
 20
134.3497464250984
 30
0.0
 40
4.849999999999999
100
AcDbArc
 50
336.7043162242286
 51
244.8890606854577
  0
LINE
  5
4F40
330
1F
100
AcDbEntity
  8
0
100
AcDbLine
 10
105.6450171360199
 20
124.9288760552706
 30
0.0
 11
72.64501713601987
 21
124.9288760552706
 31
0.0
  0
LINE
  5
4F41
330
1F
100
AcDbEntity
  8
0
100
AcDbLine
 10
105.6450171360199
 20
121.0497464233997
 30
0.0
 11
72.64501713601987
 21
121.0497464233997
 31
0.0
  0
LINE
  5
4F42
330
1F
100
AcDbEntity
  8
0
100
AcDbLine
 10
105.6450171360199
 20
117.6497464250995
 30
0.0
 11
72.64501713601987
 21
117.6497464250995
 31
0.0
  0
LINE
  5
4F43
330
1F
100
AcDbEntity
  8
0
100
AcDbLine
 10
105.6450171360199
 20
107.5169306950962
 30
0.0
 11
72.64501713601987
 21
107.5169306950962
 31
0.0
  0
LINE
  5
4F44
330
1F
100
AcDbEntity
  8
0
100
AcDbLine
 10
105.6450171360199
 20
103.3497464250994
 30
0.0
 11
72.64501713601987
 21
103.3497464250994
 31
0.0
  0
LINE
  5
4F45
330
1F
100
AcDbEntity
  8
0
100
AcDbLine
 10
105.6450171360199
 20
143.7706167949261
 30
0.0
 11
72.64501713601987
 21
143.7706167949261
 31
0.0
  0
LINE
  5
4F46
330
1F
100
AcDbEntity
  8
0
100
AcDbLine
 10
105.6450171360199
 20
147.649746426797
 30
0.0
 11
72.64501713601987
 21
147.649746426797
 31
0.0
  0
LINE
  5
4F47
330
1F
100
AcDbEntity
  8
0
100
AcDbLine
 10
105.6450171360199
 20
151.0497464250971
 30
0.0
 11
72.64501713601987
 21
151.0497464250971
 31
0.0
  0
LINE
  5
4F48
330
1F
100
AcDbEntity
  8
0
100
AcDbLine
 10
105.6450171360199
 20
161.1825621551005
 30
0.0
 11
72.64501713601987
 21
161.1825621551005
 31
0.0
  0
LINE
  5
4F49
102
{ACAD_REACTORS
330
4FA1
102
}
330
1F
100
AcDbEntity
  8
0
100
AcDbLine
 10
105.6450171360199
 20
165.3497464250973
 30
0.0
 11
72.64501713601987
 21
165.3497464250973
 31
0.0
  0
LINE
  5
4F4A
330
1F
100
AcDbEntity
  8
CENTER
100
AcDbLine
 10
257.7059504799667
 20
284.3893315127375
 30
0.0
 11
244.7059504799666
 21
284.3893315127375
 31
0.0
  0
LINE
  5
4F4B
330
1F
100
AcDbEntity
  8
CENTER
100
AcDbLine
 10
251.2059504799666
 20
290.8893315127376
 30
0.0
 11
251.2059504799666
 21
277.8893315127374
 31
0.0
  0
LINE
  5
4F4C
330
1F
100
AcDbEntity
  8
CENTER
100
AcDbLine
 10
257.6317550473112
 20
332.3893315127378
 30
0.0
 11
244.6317550473112
 21
332.3893315127378
 31
0.0
  0
LINE
  5
4F4D
102
{ACAD_REACTORS
330
4F84
330
4FB2
102
}
330
1F
100
AcDbEntity
  8
CENTER
100
AcDbLine
 10
251.1317550473112
 20
338.889331512738
 30
0.0
 11
251.1317550473112
 21
325.8893315127377
 31
0.0
  0
LINE
  5
4F4E
330
1F
100
AcDbEntity
  8
CENTER
100
AcDbLine
 10
209.6317550473112
 20
332.3893315127375
 30
0.0
 11
196.6317550473112
 21
332.3893315127375
 31
0.0
  0
LINE
  5
4F4F
102
{ACAD_REACTORS
330
4F84
330
4FB2
102
}
330
1F
100
AcDbEntity
  8
CENTER
100
AcDbLine
 10
203.1317550473112
 20
338.8893315127376
 30
0.0
 11
203.1317550473112
 21
325.8893315127374
 31
0.0
  0
LINE
  5
4F50
330
1F
100
AcDbEntity
  8
CENTER
100
AcDbLine
 10
209.6317550473112
 20
158.3497464250984
 30
0.0
 11
196.6317550473112
 21
158.3497464250984
 31
0.0
  0
LINE
  5
4F51
330
1F
100
AcDbEntity
  8
CENTER
100
AcDbLine
 10
203.1317550473112
 20
164.8497464250985
 30
0.0
 11
203.1317550473112
 21
151.8497464250983
 31
0.0
  0
LINE
  5
4F52
330
1F
100
AcDbEntity
  8
CENTER
100
AcDbLine
 10
257.6317550473112
 20
158.3497464250986
 30
0.0
 11
244.6317550473112
 21
158.3497464250986
 31
0.0
  0
LINE
  5
4F53
330
1F
100
AcDbEntity
  8
CENTER
100
AcDbLine
 10
251.1317550473112
 20
164.8497464250987
 30
0.0
 11
251.1317550473112
 21
151.8497464250985
 31
0.0
  0
LINE
  5
4F54
330
1F
100
AcDbEntity
  8
CENTER
100
AcDbLine
 10
257.6317550473112
 20
110.3497464250988
 30
0.0
 11
244.6317550473112
 21
110.3497464250988
 31
0.0
  0
LINE
  5
4F55
330
1F
100
AcDbEntity
  8
CENTER
100
AcDbLine
 10
251.1317550473112
 20
116.8497464250989
 30
0.0
 11
251.1317550473112
 21
103.8497464250987
 31
0.0
  0
LINE
  5
4F56
330
1F
100
AcDbEntity
  8
CENTER
100
AcDbLine
 10
209.6317550473112
 20
110.3497464250984
 30
0.0
 11
196.6317550473112
 21
110.3497464250984
 31
0.0
  0
LINE
  5
4F57
330
1F
100
AcDbEntity
  8
CENTER
100
AcDbLine
 10
203.1317550473112
 20
116.8497464250985
 30
0.0
 11
203.1317550473112
 21
103.8497464250983
 31
0.0
  0
DIMENSION
  5
4F58
102
{ACAD_XDICTIONARY
360
4F59
102
}
102
{ACAD_REACTORS
330
4F5A
102
}
330
1F
100
AcDbEntity
  8
DIM
100
AcDbDimension
  2
*D2
 10
133.8793688739839
 20
331.9602350826917
 30
0.0
 11
128.3794784254117
 21
334.4602350826917
 31
0.0
 70
    32
 71
     5
 42
10.99978089714432
  3
AM_ANSI
100
AcDbAlignedDimension
 13
122.8795879768396
 23
320.0806744638262
 33
0.0
 14
133.8793688739839
 24
320.1350604964767
 34
0.0
100
AcDbRotatedDimension
1001
ACAD
1000
DSTYLE
1002
{
1070
    41
1040
3.0
1070
    42
1040
2.0
1070
    43
1040
8.0
1070
    44
1040
2.0
1070
    73
1070
     0
1070
    74
1070
     0
1070
    77
1070
     3
1070
   140
1040
3.0
1070
   141
1040
3.0
1070
   146
1040
0.6
1070
   147
1040
1.0
1070
   172
1070
     1
1070
   178
1070
   256
1070
   272
1070
     2
1070
   274
1070
     2
1070
   340
1005
4A67
1002
}
  0
DIMENSION
  5
4F5B
102
{ACAD_XDICTIONARY
360
4F5C
102
}
102
{ACAD_REACTORS
330
4F5D
102
}
330
1F
100
AcDbEntity
  8
DIM
100
AcDbDimension
  2
*D3
 10
142.6450171360198
 20
339.3658385725989
 30
0.0
 11
130.1450171360198
 21
341.865838572599
 31
0.0
 70
    32
 71
     5
 42
25.0
  3
AM_ANSI
100
AcDbAlignedDimension
 13
117.6450171360198
 23
317.3893315127364
 33
0.0
 14
142.6450171360198
 24
316.3893315127364
 34
0.0
100
AcDbRotatedDimension
1001
ACAD
1000
DSTYLE
1002
{
1070
    41
1040
3.0
1070
    42
1040
2.0
1070
    43
1040
8.0
1070
    44
1040
2.0
1070
    73
1070
     0
1070
    74
1070
     0
1070
    77
1070
     3
1070
   140
1040
3.0
1070
   141
1040
3.0
1070
   146
1040
0.6
1070
   147
1040
1.0
1070
   172
1070
     1
1070
   178
1070
   256
1070
   272
1070
     2
1070
   274
1070
     2
1070
   340
1005
4A67
1002
}
  0
DIMENSION
  5
4F5E
102
{ACAD_XDICTIONARY
360
4F5F
102
}
102
{ACAD_REACTORS
330
4F60
102
}
330
1F
100
AcDbEntity
  8
DIM
100
AcDbDimension
  2
*D4
 10
142.6450171360198
 20
346.6171587632193
 30
0.0
 11
128.6450171360203
 21
349.1171587632193
 31
0.0
 70
    32
 71
     5
 42
27.99999999999909
  3
AM_ANSI
100
AcDbAlignedDimension
 13
114.6450171360207
 23
317.3893315127366
 33
0.0
 14
142.6450171360198
 24
316.3893315127364
 34
0.0
100
AcDbRotatedDimension
1001
ACAD
1000
DSTYLE
1002
{
1070
    41
1040
3.0
1070
    42
1040
2.0
1070
    43
1040
8.0
1070
    44
1040
2.0
1070
    73
1070
     0
1070
    74
1070
     0
1070
    77
1070
     3
1070
   140
1040
3.0
1070
   141
1040
3.0
1070
   146
1040
0.6
1070
   147
1040
1.0
1070
   172
1070
     1
1070
   178
1070
   256
1070
   272
1070
     2
1070
   274
1070
     2
1070
   340
1005
4A67
1002
}
  0
DIMENSION
  5
4F61
102
{ACAD_XDICTIONARY
360
4F62
102
}
102
{ACAD_REACTORS
330
4F63
102
}
330
1F
100
AcDbEntity
  8
DIM
100
AcDbDimension
  2
*D5
 10
109.6450171360194
 20
351.5592579445997
 30
0.0
 11
107.6450171360196
 21
351.5592579445997
 31
0.0
 70
   160
 71
     5
 42
3.999999999999545
  3
AM_ANSI
100
AcDbAlignedDimension
 13
105.6450171360199
 23
339.3893315127374
 33
0.0
 14
109.6450171360194
 24
326.8893315127364
 34
0.0
100
AcDbRotatedDimension
1001
ACAD
1000
DSTYLE
1002
{
1070
    41
1040
3.0
1070
    42
1040
2.0
1070
    43
1040
8.0
1070
    44
1040
2.0
1070
    73
1070
     0
1070
    74
1070
     0
1070
    77
1070
     3
1070
   140
1040
3.0
1070
   141
1040
3.0
1070
   146
1040
0.6
1070
   147
1040
1.0
1070
   172
1070
     1
1070
   178
1070
   256
1070
   272
1070
     2
1070
   274
1070
     2
1070
   340
1005
4A67
1002
}
  0
DIMENSION
  5
4F64
102
{ACAD_XDICTIONARY
360
4F65
102
}
102
{ACAD_REACTORS
330
4F66
102
}
330
1F
100
AcDbEntity
  8
DIM
100
AcDbDimension
  2
*D6
 10
142.6450171360198
 20
359.615198143282
 30
0.0
 11
124.1450171360199
 21
362.115198143282
 31
0.0
 70
    32
 71
     5
 42
37.0
  3
AM_ANSI
100
AcDbAlignedDimension
 13
105.6450171360199
 23
339.3893315127374
 33
0.0
 14
142.6450171360198
 24
316.3893315127364
 34
0.0
100
AcDbRotatedDimension
1001
ACAD
1000
DSTYLE
1002
{
1070
    41
1040
3.0
1070
    42
1040
2.0
1070
    43
1040
8.0
1070
    44
1040
2.0
1070
    73
1070
     0
1070
    74
1070
     0
1070
    77
1070
     3
1070
   140
1040
3.0
1070
   141
1040
3.0
1070
   146
1040
0.6
1070
   147
1040
1.0
1070
   172
1070
     1
1070
   178
1070
   256
1070
   272
1070
     2
1070
   274
1070
     2
1070
   340
1005
4A67
1002
}
  0
DIMENSION
  5
4F67
102
{ACAD_XDICTIONARY
360
4F68
102
}
102
{ACAD_REACTORS
330
4F69
102
}
330
1F
100
AcDbEntity
  8
DIM
100
AcDbDimension
  2
*D7
 10
105.6450171360199
 20
359.615198143282
 30
0.0
 11
89.14501713601987
 21
362.115198143282
 31
0.0
 70
    32
  1
28+stroke=S
 71
     5
 42
33.0
  3
AM_ANSI
100
AcDbAlignedDimension
 13
72.64501713601987
 23
339.3893315127374
 33
0.0
 14
105.6450171360199
 24
339.3893315127353
 34
0.0
100
AcDbRotatedDimension
1001
ACAD
1000
DSTYLE
1002
{
1070
    41
1040
3.0
1070
    42
1040
2.0
1070
    43
1040
8.0
1070
    44
1040
2.0
1070
    73
1070
     0
1070
    74
1070
     0
1070
    77
1070
     3
1070
   140
1040
3.0
1070
   141
1040
3.0
1070
   146
1040
0.6
1070
   147
1040
1.0
1070
   172
1070
     1
1070
   178
1070
   256
1070
   272
1070
     2
1070
   274
1070
     2
1070
   340
1005
4A67
1002
}
  0
DIMENSION
  5
4F6A
102
{ACAD_XDICTIONARY
360
4F6B
102
}
102
{ACAD_REACTORS
330
4F6C
102
}
330
1F
100
AcDbEntity
  8
DIM
100
AcDbDimension
  2
*D8
 10
142.6450171360198
 20
368.4083555374116
 30
0.0
 11
107.6450171360199
 21
370.9083555374116
 31
0.0
 70
    32
  1
65+stroke=ZZ
 71
     5
 42
70.0
  3
AM_ANSI
100
AcDbAlignedDimension
 13
72.64501713601987
 23
339.3893315127374
 33
0.0
 14
142.6450171360198
 24
316.3893315127364
 34
0.0
100
AcDbRotatedDimension
1001
ACAD
1000
DSTYLE
1002
{
1070
    41
1040
3.0
1070
    42
1040
2.0
1070
    43
1040
8.0
1070
    44
1040
2.0
1070
    73
1070
     0
1070
    74
1070
     0
1070
    77
1070
     3
1070
   140
1040
3.0
1070
   141
1040
3.0
1070
   146
1040
0.6
1070
   147
1040
1.0
1070
   172
1070
     1
1070
   178
1070
   256
1070
   272
1070
     2
1070
   274
1070
     2
1070
   340
1005
4A67
1002
}
  0
DIMENSION
  5
4F6D
102
{ACAD_XDICTIONARY
360
4F6E
102
}
102
{ACAD_REACTORS
330
4F6F
102
}
330
1F
100
AcDbEntity
  8
DIM
100
AcDbDimension
  2
*D9
 10
82.64501713601987
 20
351.5592579445997
 30
0.0
 11
77.64501713601987
 21
354.0592579445997
 31
0.0
 70
    32
 71
     5
 42
10.0
  3
AM_ANSI
100
AcDbAlignedDimension
 13
72.64501713601987
 23
339.3893315127374
 33
0.0
 14
82.64501713601987
 24
316.0436587189695
 34
0.0
100
AcDbRotatedDimension
1001
ACAD
1000
DSTYLE
1002
{
1070
    41
1040
3.0
1070
    42
1040
2.0
1070
    43
1040
8.0
1070
    44
1040
2.0
1070
    73
1070
     0
1070
    74
1070
     0
1070
    77
1070
     3
1070
   140
1040
3.0
1070
   141
1040
3.0
1070
   146
1040
0.6
1070
   147
1040
1.0
1070
   172
1070
     1
1070
   178
1070
   256
1070
   272
1070
     2
1070
   274
1070
     2
1070
   340
1005
4A67
1002
}
  0
DIMENSION
  5
4F70
102
{ACAD_XDICTIONARY
360
4F71
102
}
102
{ACAD_REACTORS
330
4F72
102
}
330
1F
100
AcDbEntity
  8
DIM
100
AcDbDimension
  2
*D10
 10
105.6450171360199
 20
351.5592579445997
 30
0.0
 11
100.6450171360198
 21
354.0592579445997
 31
0.0
 70
    32
 71
     5
 42
10.0
  3
AM_ANSI
100
AcDbAlignedDimension
 13
95.64501713601988
 23
316.0436587189695
 33
0.0
 14
105.6450171360199
 24
339.3893315127374
 34
0.0
100
AcDbRotatedDimension
1001
ACAD
1000
DSTYLE
1002
{
1070
    41
1040
3.0
1070
    42
1040
2.0
1070
    43
1040
8.0
1070
    44
1040
2.0
1070
    73
1070
     0
1070
    74
1070
     0
1070
    77
1070
     3
1070
   140
1040
3.0
1070
   141
1040
3.0
1070
   146
1040
0.6
1070
   147
1040
1.0
1070
   172
1070
     1
1070
   178
1070
   256
1070
   272
1070
     2
1070
   274
1070
     2
1070
   340
1005
4A67
1002
}
  0
DIMENSION
  5
4F73
102
{ACAD_XDICTIONARY
360
4F74
102
}
102
{ACAD_REACTORS
330
4F75
102
}
330
1F
100
AcDbEntity
  8
DIM
100
AcDbDimension
  2
*D11
 10
155.3992641799442
 20
318.3893315127363
 30
0.0
 11
152.8992641799442
 21
308.3893315127366
 31
0.0
 70
    32
  1
%%c<>
 71
     5
 42
19.99999999999954
  3
AM_ANSI
100
AcDbAlignedDimension
 13
110.1450171360208
 23
298.3893315127368
 33
0.0
 14
110.1450171360208
 24
318.3893315127364
 34
0.0
 50
90.0
100
AcDbRotatedDimension
1001
ACAD
1000
DSTYLE
1002
{
1070
    41
1040
3.0
1070
    42
1040
2.0
1070
    43
1040
8.0
1070
    44
1040
2.0
1070
    73
1070
     0
1070
    74
1070
     0
1070
    77
1070
     3
1070
   140
1040
3.0
1070
   141
1040
3.0
1070
   146
1040
0.6
1070
   147
1040
1.0
1070
   172
1070
     1
1070
   178
1070
   256
1070
   272
1070
     2
1070
   274
1070
     2
1070
   340
1005
4A67
1002
}
  0
DIMENSION
  5
4F76
102
{ACAD_XDICTIONARY
360
4F77
102
}
102
{ACAD_REACTORS
330
4F78
102
}
330
1F
100
AcDbEntity
  8
DIM
100
AcDbDimension
  2
*D12
 10
166.1841101859205
 20
327.3893315127363
 30
0.0
 11
162.6991101859204
 21
308.3893315127363
 31
0.0
 70
    32
  1
%%c<>{}{\H0.71x;\C3;\S 0^ -0.05;}
 71
     5
 42
38.0
  3
AM_ANSI
100
AcDbAlignedDimension
 13
109.1450171360194
 23
289.3893315127364
 33
0.0
 14
109.1450171360194
 24
327.3893315127363
 34
0.0
 50
90.0
100
AcDbRotatedDimension
1001
GENIUS_GENDTOL_13
1000
TolSmNrm
1000

1000
{\H0.71x;$2\S$+$P^ $-$M;}
1040
38.0
1001
ACAD
1000
DSTYLE
1002
{
1070
   286
1070
     0
1070
   284
1070
     8
1070
    41
1040
3.0
1070
    42
1040
2.0
1070
    43
1040
8.0
1070
    44
1040
2.0
1070
    47
1040
0.0
1070
    48
1040
0.05
1070
    73
1070
     0
1070
    74
1070
     0
1070
    77
1070
     3
1070
   140
1040
3.0
1070
   141
1040
3.0
1070
   146
1040
0.6
1070
   147
1040
1.0
1070
   172
1070
     1
1070
   178
1070
   256
1070
   272
1070
     2
1070
   274
1070
     2
1070
   340
1005
4A67
1002
}
  0
LEADER
  5
4F79
330
1F
100
AcDbEntity
  8
DIM
100
AcDbLeader
  3
AM_ANSI$7
 73
     0
 74
     0
 75
     1
 40
2.5
 41
13.80952380952381
 76
     3
 10
137.7623025564295
 20
299.3893315127364
 30
0.0
 10
149.0241526860366
 20
280.5978616434763
 30
0.0
 10
151.5241526860366
 20
280.5978616434763
 30
0.0
340
4F7A
213
0.8150760156128171
223
0.3869799573012926
233
0.0
1001
ACAD
1000
DSTYLE
1002
{
1070
    41
1040
2.5
1070
    42
1040
1.5
1070
    43
1040
8.0
1070
    44
1040
1.5
1070
    73
1070
     0
1070
    74
1070
     0
1070
    77
1070
     3
1070
   140
1040
2.0
1070
   141
1040
3.0
1070
   146
1040
0.6
1070
   147
1040
1.0
1070
   172
1070
     1
1070
   178
1070
   256
1070
   272
1070
     2
1070
   274
1070
     2
1070
   340
1005
4A67
1002
}
  0
MTEXT
  5
4F7A
102
{ACAD_REACTORS
330
4F79
102
}
330
1F
100
AcDbEntity
  8
DIM
100
AcDbMText
 10
151.7090766704237
 20
283.7108816861751
 30
0.0
 40
2.5
 41
0.0
 71
     1
 72
     1
  1
M18*1.5
  7
dayus
 73
     1
 44
1.0
1001
ACAD
1000
MTEXTBEGIN
1070
    73
1070
     1
1070
    44
1040
1.0
1070
    74
1070
     0
1000
MTEXTEND
  0
LEADER
  5
4F7B
330
1F
100
AcDbEntity
  8
DIM
100
AcDbLeader
  3
AM_ANSI$7
 73
     0
 74
     0
 75
     1
 40
2.5
 41
3.928571428571428
 76
     3
 10
128.3237665763741
 20
294.468310107664
 30
0.0
 10
134.4552379378759
 20
280.7190763165648
 30
0.0
 10
136.9552379378759
 20
280.7190763165648
 30
0.0
340
4F7C
213
1.28621199348413
223
0.2860289400440479
233
0.0
1001
ACAD
1000
DSTYLE
1002
{
1070
    42
1040
1.5
1070
    43
1040
8.0
1070
    44
1040
1.5
1070
    73
1070
     0
1070
    74
1070
     0
1070
    77
1070
     3
1070
   140
1040
2.0
1070
   141
1040
3.0
1070
   146
1040
0.6
1070
   147
1040
1.0
1070
   172
1070
     1
1070
   178
1070
   256
1070
   272
1070
     2
1070
   274
1070
     2
1070
   340
1005
4A67
1002
}
  0
MTEXT
  5
4F7C
102
{ACAD_REACTORS
330
4F7B
102
}
330
1F
100
AcDbEntity
  8
DIM
100
AcDbMText
 10
136.6690259443918
 20
283.9330473765208
 30
0.0
 40
2.5
 41
0.0
 71
     1
 72
     1
  1
26
  7
dayus
 73
     1
 44
1.0
1001
ACAD
1000
MTEXTBEGIN
1070
    73
1070
     1
1070
    44
1040
1.0
1070
    74
1070
     0
1000
MTEXTEND
  0
DIMENSION
  5
4F7D
102
{ACAD_XDICTIONARY
360
4F7E
102
}
102
{ACAD_REACTORS
330
4F7F
102
}
330
1F
100
AcDbEntity
  8
DIM
100
AcDbDimension
  2
*D13
 10
114.6450171360208
 20
280.4890590127959
 30
0.0
 11
113.145017136021
 21
280.4890590127959
 31
0.0
 70
   160
 71
     5
 42
2.999999999999545
  3
AM_ANSI
100
AcDbAlignedDimension
 13
111.6450171360212
 23
303.1215046363096
 33
0.0
 14
114.6450171360208
 24
299.389331512736
 34
0.0
100
AcDbRotatedDimension
1001
ACAD
1000
DSTYLE
1002
{
1070
    41
1040
3.0
1070
    42
1040
2.0
1070
    43
1040
8.0
1070
    44
1040
2.0
1070
    73
1070
     0
1070
    74
1070
     0
1070
    77
1070
     3
1070
   140
1040
3.0
1070
   141
1040
3.0
1070
   146
1040
0.6
1070
   147
1040
1.0
1070
   172
1070
     1
1070
   178
1070
   256
1070
   272
1070
     2
1070
   274
1070
     2
1070
   340
1005
4A67
1002
}
  0
LEADER
  5
4F80
330
1F
100
AcDbEntity
  8
DIM
100
AcDbLeader
  3
AM_ANSI$7
 73
     0
 75
     1
 40
8.452380952380952
 41
36.66666666666664
 76
     3
 10
78.98213248736658
 20
311.5682898406579
 30
0.0
 10
69.07056419223147
 20
320.6043215242424
 30
0.0
 10
66.57056419223147
 20
320.6043215242424
 30
0.0
340
4F81
213
-1.543897086449305
223
0.4194728829406813
233
0.0
1001
ACAD
1000
DSTYLE
1002
{
1070
    41
1040
2.5
1070
    42
1040
1.5
1070
    43
1040
8.0
1070
    44
1040
1.5
1070
    73
1070
     0
1070
    74
1070
     0
1070
    77
1070
     3
1070
   140
1040
2.0
1070
   141
1040
3.0
1070
   146
1040
0.6
1070
   147
1040
1.0
1070
   172
1070
     1
1070
   178
1070
   256
1070
   272
1070
     8
1070
   274
1070
     2
1070
   340
1005
4A67
1002
}
  0
MTEXT
  5
4F81
102
{ACAD_REACTORS
330
4F80
102
}
330
1F
100
AcDbEntity
  8
DIM
100
AcDbMText
 10
67.11446127868078
 20
321.1848486413018
 30
0.0
 40
2.5
 41
0.0
 71
     9
 72
     1
  1
2-PT1/8(ST=5mm)\PPT1/4
  7
dayus
 73
     1
 44
1.0
1001
ACAD
1000
MTEXTBEGIN
1070
    73
1070
     1
1070
    44
1040
1.0
1070
    74
1070
     0
1000
MTEXTEND
  0
DIMENSION
  5
4F82
102
{ACAD_XDICTIONARY
360
4F83
102
}
102
{ACAD_REACTORS
330
4F84
102
}
330
1F
100
AcDbEntity
  8
DIM
100
AcDbDimension
  2
*D14
 10
251.1317550473112
 20
351.5592579445997
 30
0.0
 11
227.1317550473112
 21
354.0592579445997
 31
0.0
 70
    32
  1
□<>
 71
     5
 42
48.0
  3
AM_ANSI
100
AcDbAlignedDimension
 13
203.1317550473112
 23
338.8893315127376
 33
0.0
 14
251.1317550473112
 24
338.889331512738
 34
0.0
100
AcDbRotatedDimension
1001
ACAD
1000
DSTYLE
1002
{
1070
    41
1040
3.0
1070
    42
1040
2.0
1070
    43
1040
8.0
1070
    44
1040
2.0
1070
    73
1070
     0
1070
    74
1070
     0
1070
    77
1070
     3
1070
   140
1040
3.0
1070
   141
1040
3.0
1070
   146
1040
0.6
1070
   147
1040
1.0
1070
   172
1070
     1
1070
   178
1070
   256
1070
   272
1070
     2
1070
   274
1070
     2
1070
   340
1005
4A67
1002
}
  0
DIMENSION
  5
4F85
102
{ACAD_XDICTIONARY
360
4F86
102
}
102
{ACAD_REACTORS
330
4F87
102
}
330
1F
100
AcDbEntity
  8
DIM
100
AcDbDimension
  2
*D15
 10
258.1317550473108
 20
359.615198143282
 30
0.0
 11
227.131755047311
 21
362.115198143282
 31
0.0
 70
    32
  1
□<>
 71
     5
 42
61.99999999999954
  3
AM_ANSI
100
AcDbAlignedDimension
 13
196.1317550473112
 23
335.2221472427349
 33
0.0
 14
258.1317550473108
 24
335.2221472427347
 34
0.0
100
AcDbRotatedDimension
1001
ACAD
1000
DSTYLE
1002
{
1070
    41
1040
3.0
1070
    42
1040
2.0
1070
    43
1040
8.0
1070
    44
1040
2.0
1070
    73
1070
     0
1070
    74
1070
     0
1070
    77
1070
     3
1070
   140
1040
3.0
1070
   141
1040
3.0
1070
   146
1040
0.6
1070
   147
1040
1.0
1070
   172
1070
     1
1070
   178
1070
   256
1070
   272
1070
     2
1070
   274
1070
     2
1070
   340
1005
4A67
1002
}
  0
DIMENSION
  5
4F88
102
{ACAD_XDICTIONARY
360
4F89
102
}
102
{ACAD_REACTORS
330
4F8A
102
}
330
1F
100
AcDbEntity
  8
DIM
100
AcDbDimension
  2
*D16
 10
258.1317550473108
 20
368.4083555374116
 30
0.0
 11
223.131755047311
 21
370.9083555374116
 31
0.0
 70
    32
 71
     5
 42
69.99999999999954
  3
AM_ANSI
100
AcDbAlignedDimension
 13
188.1317550473112
 23
317.6828587744404
 33
0.0
 14
258.1317550473108
 24
335.2221472427349
 34
0.0
100
AcDbRotatedDimension
1001
ACAD
1000
DSTYLE
1002
{
1070
    41
1040
3.0
1070
    42
1040
2.0
1070
    43
1040
8.0
1070
    44
1040
2.0
1070
    73
1070
     0
1070
    74
1070
     0
1070
    77
1070
     3
1070
   140
1040
3.0
1070
   141
1040
3.0
1070
   146
1040
0.6
1070
   147
1040
1.0
1070
   172
1070
     1
1070
   178
1070
   256
1070
   272
1070
     2
1070
   274
1070
     2
1070
   340
1005
4A67
1002
}
  0
DIMENSION
  5
4F8B
102
{ACAD_XDICTIONARY
360
4F8C
102
}
102
{ACAD_REACTORS
330
4F8D
102
}
330
1F
100
AcDbEntity
  8
DIM
100
AcDbDimension
  2
*D17
 10
235.6317550473085
 20
265.899553517275
 30
0.0
 11
227.1317550473096
 21
268.399553517275
 31
0.0
 70
    32
  1
□<>
 71
     5
 42
16.99999999999772
  3
AM_ANSI
100
AcDbAlignedDimension
 13
218.6317550473108
 23
303.1238791025377
 33
0.0
 14
235.6317550473085
 24
303.1238791025373
 34
0.0
100
AcDbRotatedDimension
1001
ACAD
1000
DSTYLE
1002
{
1070
    41
1040
3.0
1070
    42
1040
2.0
1070
    43
1040
8.0
1070
    44
1040
2.0
1070
    73
1070
     0
1070
    74
1070
     0
1070
    77
1070
     3
1070
   140
1040
3.0
1070
   141
1040
3.0
1070
   146
1040
0.6
1070
   147
1040
1.0
1070
   172
1070
     1
1070
   178
1070
   256
1070
   272
1070
     2
1070
   274
1070
     2
1070
   340
1005
4A67
1002
}
  0
DIMENSION
  5
4F8E
102
{ACAD_XDICTIONARY
360
4F8F
102
}
102
{ACAD_REACTORS
330
4F90
102
}
330
1F
100
AcDbEntity
  8
DIM
100
AcDbDimension
  2
*D18
 10
176.9333553451254
 20
317.8102018825669
 30
0.0
 11
174.4333553451254
 21
308.3893315127378
 31
0.0
 70
    32
 71
     5
 42
18.84174073965823
  3
AM_ANSI
100
AcDbAlignedDimension
 13
188.1775352923744
 23
298.9684611429086
 33
0.0
 14
188.1775352923744
 24
317.8102018825669
 34
0.0
 50
90.0
100
AcDbRotatedDimension
1001
ACAD
1000
DSTYLE
1002
{
1070
    41
1040
3.0
1070
    42
1040
2.0
1070
    43
1040
8.0
1070
    44
1040
2.0
1070
    73
1070
     0
1070
    74
1070
     0
1070
    77
1070
     3
1070
   140
1040
3.0
1070
   141
1040
3.0
1070
   146
1040
0.6
1070
   147
1040
1.0
1070
   172
1070
     1
1070
   178
1070
   256
1070
   271
1070
     0
1070
   272
1070
     2
1070
   274
1070
     2
1070
   340
1005
4A67
1002
}
  0
LEADER
  5
4F91
330
1F
100
AcDbEntity
  8
DIM
100
AcDbLeader
  3
AM_ANSI$7
 73
     0
 74
     0
 75
     1
 40
13.0
 41
43.99999999999999
 76
     3
 10
255.4495784250434
 20
335.7961483963856
 30
0.0
 10
260.2202247568326
 20
344.366338404766
 30
0.0
 10
263.2202247568326
 20
344.366338404766
 30
0.0
340
4F92
213
-0.1905629376930165
223
0.2179465301056638
233
0.0
1001
ACAD
1000
DSTYLE
1002
{
1070
    41
1040
3.0
1070
    42
1040
1.5
1070
    43
1040
8.0
1070
    44
1040
1.5
1070
    73
1070
     0
1070
    74
1070
     0
1070
    77
1070
     3
1070
   140
1040
2.0
1070
   141
1040
3.0
1070
   146
1040
0.6
1070
   147
1040
1.0
1070
   172
1070
     1
1070
   178
1070
   256
1070
   272
1070
     2
1070
   274
1070
     2
1070
   340
1005
4A67
1002
}
  0
MTEXT
  5
4F92
102
{ACAD_REACTORS
330
4F91
102
}
330
1F
100
AcDbEntity
  8
DIM
100
AcDbMText
 10
264.4107876945256
 20
358.1483918746603
 30
0.0
 40
3.0
 41
0.0
 71
     1
 72
     1
  1
%%C11*8.5 depth\PM8*1.25*16.5 depth\P%%C6.9 thru
  7
dayus
 73
     1
 44
1.0
1001
ACAD
1000
MTEXTBEGIN
1070
    73
1070
     1
1070
    44
1040
1.0
1070
    74
1070
     0
1000
MTEXTEND
  0
DIMENSION
  5
4F93
102
{ACAD_XDICTIONARY
360
4F94
102
}
102
{ACAD_REACTORS
330
4F95
102
}
330
1F
100
AcDbEntity
  8
DIM
100
AcDbDimension
  2
*D19
 10
114.6450171360207
 20
181.7612797680252
 30
0.0
 11
110.1450171360203
 21
184.2612797680252
 31
0.0
 70
    32
 71
     5
 42
9.000000000000909
  3
AM_ANSI
100
AcDbAlignedDimension
 13
105.6450171360199
 23
165.3497464250994
 33
0.0
 14
114.6450171360207
 24
143.3497464250987
 34
0.0
100
AcDbRotatedDimension
1001
ACAD
1000
DSTYLE
1002
{
1070
    41
1040
3.0
1070
    42
1040
2.0
1070
    43
1040
8.0
1070
    44
1040
2.0
1070
    73
1070
     0
1070
    74
1070
     0
1070
    77
1070
     3
1070
   140
1040
3.0
1070
   141
1040
3.0
1070
   146
1040
0.6
1070
   147
1040
1.0
1070
   172
1070
     1
1070
   178
1070
   256
1070
   272
1070
     2
1070
   274
1070
     2
1070
   340
1005
4A67
1002
}
  0
DIMENSION
  5
4F96
102
{ACAD_XDICTIONARY
360
4F97
102
}
102
{ACAD_REACTORS
330
4F98
102
}
330
1F
100
AcDbEntity
  8
DIM
100
AcDbDimension
  2
*D20
 10
109.6450171360194
 20
173.8906161719673
 30
0.0
 11
107.6450171360196
 21
173.8906161719673
 31
0.0
 70
   160
 71
     5
 42
3.999999999999545
  3
AM_ANSI
100
AcDbAlignedDimension
 13
105.6450171360199
 23
165.3497464250994
 33
0.0
 14
109.6450171360194
 24
152.8497464250985
 34
0.0
100
AcDbRotatedDimension
1001
ACAD
1000
DSTYLE
1002
{
1070
    41
1040
3.0
1070
    42
1040
2.0
1070
    43
1040
8.0
1070
    44
1040
2.0
1070
    73
1070
     0
1070
    74
1070
     0
1070
    77
1070
     3
1070
   140
1040
3.0
1070
   141
1040
3.0
1070
   146
1040
0.6
1070
   147
1040
1.0
1070
   172
1070
     1
1070
   178
1070
   256
1070
   272
1070
     2
1070
   274
1070
     2
1070
   340
1005
4A67
1002
}
  0
DIMENSION
  5
4F99
102
{ACAD_XDICTIONARY
360
4F9A
102
}
102
{ACAD_REACTORS
330
4F9B
102
}
330
1F
100
AcDbEntity
  8
DIM
100
AcDbDimension
  2
*D21
 10
82.64501713601987
 20
173.8906161719673
 30
0.0
 11
77.64501713601987
 21
176.3906161719672
 31
0.0
 70
    32
 71
     5
 42
10.0
  3
AM_ANSI
100
AcDbAlignedDimension
 13
72.64501713601987
 23
165.3497464250994
 33
0.0
 14
82.64501713601987
 24
142.0040736313315
 34
0.0
100
AcDbRotatedDimension
1001
ACAD
1000
DSTYLE
1002
{
1070
    41
1040
3.0
1070
    42
1040
2.0
1070
    43
1040
8.0
1070
    44
1040
2.0
1070
    73
1070
     0
1070
    74
1070
     0
1070
    77
1070
     3
1070
   140
1040
3.0
1070
   141
1040
3.0
1070
   146
1040
0.6
1070
   147
1040
1.0
1070
   172
1070
     1
1070
   178
1070
   256
1070
   272
1070
     2
1070
   274
1070
     2
1070
   340
1005
4A67
1002
}
  0
DIMENSION
  5
4F9C
102
{ACAD_XDICTIONARY
360
4F9D
102
}
102
{ACAD_REACTORS
330
4F9E
102
}
330
1F
100
AcDbEntity
  8
DIM
100
AcDbDimension
  2
*D22
 10
105.6450171360199
 20
173.8906161719673
 30
0.0
 11
100.6450171360198
 21
176.3906161719672
 31
0.0
 70
    32
 71
     5
 42
10.0
  3
AM_ANSI
100
AcDbAlignedDimension
 13
95.64501713601988
 23
142.0040736313315
 33
0.0
 14
105.6450171360199
 24
165.3497464250994
 34
0.0
100
AcDbRotatedDimension
1001
ACAD
1000
DSTYLE
1002
{
1070
    41
1040
3.0
1070
    42
1040
2.0
1070
    43
1040
8.0
1070
    44
1040
2.0
1070
    73
1070
     0
1070
    74
1070
     0
1070
    77
1070
     3
1070
   140
1040
3.0
1070
   141
1040
3.0
1070
   146
1040
0.6
1070
   147
1040
1.0
1070
   172
1070
     1
1070
   178
1070
   256
1070
   272
1070
     2
1070
   274
1070
     2
1070
   340
1005
4A67
1002
}
  0
DIMENSION
  5
4F9F
102
{ACAD_XDICTIONARY
360
4FA0
102
}
102
{ACAD_REACTORS
330
4FA1
102
}
330
1F
100
AcDbEntity
  8
DIM
100
AcDbDimension
  2
*D23
 10
105.6450171360199
 20
181.7612797680252
 30
0.0
 11
89.14501713601987
 21
184.2612797680252
 31
0.0
 70
    32
  1
28+stroke=S
 71
     5
 42
33.0
  3
AM_ANSI
100
AcDbAlignedDimension
 13
72.64501713601987
 23
165.3497464250973
 33
0.0
 14
105.6450171360199
 24
165.3497464250994
 34
0.0
100
AcDbRotatedDimension
1001
ACAD
1000
DSTYLE
1002
{
1070
    41
1040
3.0
1070
    42
1040
2.0
1070
    43
1040
8.0
1070
    44
1040
2.0
1070
    73
1070
     0
1070
    74
1070
     0
1070
    77
1070
     3
1070
   140
1040
3.0
1070
   141
1040
3.0
1070
   146
1040
0.6
1070
   147
1040
1.0
1070
   172
1070
     1
1070
   178
1070
   256
1070
   272
1070
     2
1070
   274
1070
     2
1070
   340
1005
4A67
1002
}
  0
DIMENSION
  5
4FA2
102
{ACAD_XDICTIONARY
360
4FA3
102
}
102
{ACAD_REACTORS
330
4FA4
102
}
330
1F
100
AcDbEntity
  8
DIM
100
AcDbDimension
  2
*D24
 10
114.6450171360207
 20
190.4352217039757
 30
0.0
 11
93.64501713602033
 21
192.9352217039756
 31
0.0
 70
    32
  1
37+stroke=ZZ
 71
     5
 42
42.0000000000009
  3
AM_ANSI
100
AcDbAlignedDimension
 13
72.64501713601987
 23
165.3497464250994
 33
0.0
 14
114.6450171360207
 24
143.3497464250987
 34
0.0
100
AcDbRotatedDimension
1001
ACAD
1000
DSTYLE
1002
{
1070
    41
1040
3.0
1070
    42
1040
2.0
1070
    43
1040
8.0
1070
    44
1040
2.0
1070
    73
1070
     0
1070
    74
1070
     0
1070
    77
1070
     3
1070
   140
1040
3.0
1070
   141
1040
3.0
1070
   146
1040
0.6
1070
   147
1040
1.0
1070
   172
1070
     1
1070
   178
1070
   256
1070
   272
1070
     2
1070
   274
1070
     2
1070
   340
1005
4A67
1002
}
  0
DIMENSION
  5
4FA5
102
{ACAD_XDICTIONARY
360
4FA6
102
}
102
{ACAD_REACTORS
330
4FA7
102
}
330
1F
100
AcDbEntity
  8
DIM
100
AcDbDimension
  2
*D25
 10
128.0814860090569
 20
144.3497464250982
 30
0.0
 11
125.5814860090569
 21
134.3497464250985
 31
0.0
 70
    32
  1
%%c<>
 71
     5
 42
19.99999999999954
  3
AM_ANSI
100
AcDbAlignedDimension
 13
110.1450171360212
 23
124.3497464250987
 33
0.0
 14
110.1450171360212
 24
144.3497464250982
 34
0.0
 50
90.0
100
AcDbRotatedDimension
1001
ACAD
1000
DSTYLE
1002
{
1070
    41
1040
3.0
1070
    42
1040
2.0
1070
    43
1040
8.0
1070
    44
1040
2.0
1070
    73
1070
     0
1070
    74
1070
     0
1070
    77
1070
     3
1070
   140
1040
3.0
1070
   141
1040
3.0
1070
   146
1040
0.6
1070
   147
1040
1.0
1070
   172
1070
     1
1070
   178
1070
   256
1070
   272
1070
     2
1070
   274
1070
     2
1070
   340
1005
4A67
1002
}
  0
DIMENSION
  5
4FA8
102
{ACAD_XDICTIONARY
360
4FA9
102
}
102
{ACAD_REACTORS
330
4FAA
102
}
330
1F
100
AcDbEntity
  8
DIM
100
AcDbDimension
  2
*D26
 10
137.8074703557364
 20
153.3497464250985
 30
0.0
 11
134.3224703557364
 21
134.3497464250985
 31
0.0
 70
    32
  1
%%c<>{}{\H0.71x;\C3;\S 0^ -0.05;}
 71
     5
 42
38.0
  3
AM_ANSI
100
AcDbAlignedDimension
 13
109.1450171360194
 23
115.3497464250985
 33
0.0
 14
109.1450171360194
 24
153.3497464250985
 34
0.0
 50
90.0
100
AcDbRotatedDimension
1001
GENIUS_GENDTOL_13
1000
TolSmNrm
1000

1000
{\H0.71x;$2\S$+$P^ $-$M;}
1040
38.0
1001
ACAD
1000
DSTYLE
1002
{
1070
   286
1070
     0
1070
   284
1070
     8
1070
    41
1040
3.0
1070
    42
1040
2.0
1070
    43
1040
8.0
1070
    44
1040
2.0
1070
    47
1040
0.0
1070
    48
1040
0.05
1070
    73
1070
     0
1070
    74
1070
     0
1070
    77
1070
     3
1070
   140
1040
3.0
1070
   141
1040
3.0
1070
   146
1040
0.6
1070
   147
1040
1.0
1070
   172
1070
     1
1070
   178
1070
   256
1070
   272
1070
     2
1070
   274
1070
     2
1070
   340
1005
4A67
1002
}
  0
DIMENSION
  5
4FAB
102
{ACAD_XDICTIONARY
360
4FAC
102
}
102
{ACAD_REACTORS
330
4FAD
102
}
330
1F
100
AcDbEntity
  8
DIM
100
AcDbDimension
  2
*D27
 10
114.6450171360208
 20
106.7459632299676
 30
0.0
 11
113.145017136021
 21
106.7459632299676
 31
0.0
 70
   160
 71
     5
 42
2.999999999999545
  3
AM_ANSI
100
AcDbAlignedDimension
 13
111.6450171360212
 23
129.0819195486717
 33
0.0
 14
114.6450171360208
 24
125.3497464250979
 34
0.0
100
AcDbRotatedDimension
1001
ACAD
1000
DSTYLE
1002
{
1070
    41
1040
3.0
1070
    42
1040
2.0
1070
    43
1040
8.0
1070
    44
1040
2.0
1070
    73
1070
     0
1070
    74
1070
     0
1070
    77
1070
     3
1070
   140
1040
3.0
1070
   141
1040
3.0
1070
   146
1040
0.6
1070
   147
1040
1.0
1070
   172
1070
     1
1070
   178
1070
   256
1070
   272
1070
     2
1070
   274
1070
     2
1070
   340
1005
4A67
1002
}
  0
LEADER
  5
4FAE
330
1F
100
AcDbEntity
  8
DIM
100
AcDbLeader
  3
AM_ANSI$7
 73
     0
 75
     1
 40
8.452380952380952
 41
36.66666666666664
 76
     3
 10
78.98213248736658
 20
137.5287047530199
 30
0.0
 10
69.07056419223147
 20
146.5647364366044
 30
0.0
 10
66.57056419223147
 20
146.5647364366044
 30
0.0
340
4FAF
213
-1.543897086449305
223
0.4194728829406813
233
0.0
1001
ACAD
1000
DSTYLE
1002
{
1070
    41
1040
2.5
1070
    42
1040
1.5
1070
    43
1040
8.0
1070
    44
1040
1.5
1070
    73
1070
     0
1070
    74
1070
     0
1070
    77
1070
     3
1070
   140
1040
2.0
1070
   141
1040
3.0
1070
   146
1040
0.6
1070
   147
1040
1.0
1070
   172
1070
     1
1070
   178
1070
   256
1070
   272
1070
     8
1070
   274
1070
     2
1070
   340
1005
4A67
1002
}
  0
MTEXT
  5
4FAF
102
{ACAD_REACTORS
330
4FAE
102
}
330
1F
100
AcDbEntity
  8
DIM
100
AcDbMText
 10
67.11446127868078
 20
147.1452635536637
 30
0.0
 40
2.5
 41
0.0
 71
     9
 72
     1
  1
2-PT1/8(ST=5mm)\PPT1/4
  7
dayus
 73
     1
 44
1.0
1001
ACAD
1000
MTEXTBEGIN
1070
    73
1070
     1
1070
    44
1040
1.0
1070
    74
1070
     0
1000
MTEXTEND
  0
DIMENSION
  5
4FB0
102
{ACAD_XDICTIONARY
360
4FB1
102
}
102
{ACAD_REACTORS
330
4FB2
102
}
330
1F
100
AcDbEntity
  8
DIM
100
AcDbDimension
  2
*D28
 10
251.1317550473112
 20
351.5592579445997
 30
0.0
 11
227.1317550473112
 21
354.0592579445997
 31
0.0
 70
    32
  1
□<>
 71
     5
 42
48.0
  3
AM_ANSI
100
AcDbAlignedDimension
 13
203.1317550473112
 23
338.8893315127376
 33
0.0
 14
251.1317550473112
 24
338.889331512738
 34
0.0
100
AcDbRotatedDimension
1001
ACAD
1000
DSTYLE
1002
{
1070
    41
1040
3.0
1070
    42
1040
2.0
1070
    43
1040
8.0
1070
    44
1040
2.0
1070
    73
1070
     0
1070
    74
1070
     0
1070
    77
1070
     3
1070
   140
1040
3.0
1070
   141
1040
3.0
1070
   146
1040
0.6
1070
   147
1040
1.0
1070
   172
1070
     1
1070
   178
1070
   256
1070
   272
1070
     2
1070
   274
1070
     2
1070
   340
1005
4A67
1002
}
  0
DIMENSION
  5
4FB3
102
{ACAD_XDICTIONARY
360
4FB4
102
}
102
{ACAD_REACTORS
330
4FB5
102
}
330
1F
100
AcDbEntity
  8
DIM
100
AcDbDimension
  2
*D29
 10
258.1317550473108
 20
359.615198143282
 30
0.0
 11
227.131755047311
 21
362.115198143282
 31
0.0
 70
    32
  1
□<>
 71
     5
 42
61.99999999999954
  3
AM_ANSI
100
AcDbAlignedDimension
 13
196.1317550473112
 23
335.2221472427349
 33
0.0
 14
258.1317550473108
 24
335.2221472427347
 34
0.0
100
AcDbRotatedDimension
1001
ACAD
1000
DSTYLE
1002
{
1070
    41
1040
3.0
1070
    42
1040
2.0
1070
    43
1040
8.0
1070
    44
1040
2.0
1070
    73
1070
     0
1070
    74
1070
     0
1070
    77
1070
     3
1070
   140
1040
3.0
1070
   141
1040
3.0
1070
   146
1040
0.6
1070
   147
1040
1.0
1070
   172
1070
     1
1070
   178
1070
   256
1070
   272
1070
     2
1070
   274
1070
     2
1070
   340
1005
4A67
1002
}
  0
DIMENSION
  5
4FB6
102
{ACAD_XDICTIONARY
360
4FB7
102
}
102
{ACAD_REACTORS
330
4FB8
102
}
330
1F
100
AcDbEntity
  8
DIM
100
AcDbDimension
  2
*D30
 10
258.1317550473108
 20
368.4083555374116
 30
0.0
 11
223.131755047311
 21
370.9083555374116
 31
0.0
 70
    32
 71
     5
 42
69.99999999999954
  3
AM_ANSI
100
AcDbAlignedDimension
 13
188.1317550473112
 23
317.6828587744404
 33
0.0
 14
258.1317550473108
 24
335.2221472427349
 34
0.0
100
AcDbRotatedDimension
1001
ACAD
1000
DSTYLE
1002
{
1070
    41
1040
3.0
1070
    42
1040
2.0
1070
    43
1040
8.0
1070
    44
1040
2.0
1070
    73
1070
     0
1070
    74
1070
     0
1070
    77
1070
     3
1070
   140
1040
3.0
1070
   141
1040
3.0
1070
   146
1040
0.6
1070
   147
1040
1.0
1070
   172
1070
     1
1070
   178
1070
   256
1070
   272
1070
     2
1070
   274
1070
     2
1070
   340
1005
4A67
1002
}
  0
DIMENSION
  5
4FB9
102
{ACAD_XDICTIONARY
360
4FBA
102
}
102
{ACAD_REACTORS
330
4FBB
102
}
330
1F
100
AcDbEntity
  8
DIM
100
AcDbDimension
  2
*D31
 10
235.6317550473085
 20
265.899553517275
 30
0.0
 11
227.1317550473096
 21
268.399553517275
 31
0.0
 70
    32
  1
□<>
 71
     5
 42
16.99999999999772
  3
AM_ANSI
100
AcDbAlignedDimension
 13
218.6317550473108
 23
303.1238791025377
 33
0.0
 14
235.6317550473085
 24
303.1238791025373
 34
0.0
100
AcDbRotatedDimension
1001
ACAD
1000
DSTYLE
1002
{
1070
    41
1040
3.0
1070
    42
1040
2.0
1070
    43
1040
8.0
1070
    44
1040
2.0
1070
    73
1070
     0
1070
    74
1070
     0
1070
    77
1070
     3
1070
   140
1040
3.0
1070
   141
1040
3.0
1070
   146
1040
0.6
1070
   147
1040
1.0
1070
   172
1070
     1
1070
   178
1070
   256
1070
   272
1070
     2
1070
   274
1070
     2
1070
   340
1005
4A67
1002
}
  0
DIMENSION
  5
4FBC
102
{ACAD_XDICTIONARY
360
4FBD
102
}
102
{ACAD_REACTORS
330
4FBE
102
}
330
1F
100
AcDbEntity
  8
DIM
100
AcDbDimension
  2
*D32
 10
176.9333553451254
 20
317.8102018825669
 30
0.0
 11
174.4333553451254
 21
308.3893315127378
 31
0.0
 70
    32
 71
     5
 42
18.84174073965823
  3
AM_ANSI
100
AcDbAlignedDimension
 13
188.1775352923744
 23
298.9684611429086
 33
0.0
 14
188.1775352923744
 24
317.8102018825669
 34
0.0
 50
90.0
100
AcDbRotatedDimension
1001
ACAD
1000
DSTYLE
1002
{
1070
    41
1040
3.0
1070
    42
1040
2.0
1070
    43
1040
8.0
1070
    44
1040
2.0
1070
    73
1070
     0
1070
    74
1070
     0
1070
    77
1070
     3
1070
   140
1040
3.0
1070
   141
1040
3.0
1070
   146
1040
0.6
1070
   147
1040
1.0
1070
   172
1070
     1
1070
   178
1070
   256
1070
   271
1070
     0
1070
   272
1070
     2
1070
   274
1070
     2
1070
   340
1005
4A67
1002
}
  0
LEADER
  5
4FC1
330
1F
100
AcDbEntity
  8
DIM
100
AcDbLeader
  3
AM_ANSI$7
 73
     0
 74
     0
 75
     1
 40
4.0
 41
39.14285714285713
 76
     3
 10
232.3425182858299
 20
136.4897796616584
 30
0.0
 10
262.7526206604029
 20
148.1843972059887
 30
0.0
 10
265.2526206604028
 20
148.1843972059887
 30
0.0
340
4FC2
213
1.018619616125761
223
0.0463643808093366
233
0.0
1001
ACAD
1000
DSTYLE
1002
{
1070
    41
1040
2.5
1070
    42
1040
1.5
1070
    43
1040
8.0
1070
    44
1040
1.5
1070
    73
1070
     0
1070
    74
1070
     0
1070
    77
1070
     3
1070
   140
1040
2.0
1070
   141
1040
3.0
1070
   146
1040
0.6
1070
   147
1040
1.0
1070
   172
1070
     1
1070
   178
1070
   256
1070
   272
1070
     8
1070
   274
1070
     2
1070
   340
1005
4A67
1002
}
  0
MTEXT
  5
4FC2
102
{ACAD_REACTORS
330
4FC1
102
}
330
1F
100
AcDbEntity
  8
DIM
100
AcDbMText
 10
265.2340010442771
 20
153.1380328251794
 30
0.0
 40
3.0
 41
0.0
 71
     1
 72
     1
  1
M10*1.5*15 depth
  7
dayus
 73
     1
 44
1.0
1001
ACAD
1000
MTEXTBEGIN
1070
    73
1070
     1
1070
    44
1040
1.0
1070
    74
1070
     0
1000
MTEXTEND
  0
DIMENSION
  5
518B
330
1F
100
AcDbEntity
  8
DIM
100
AcDbDimension
  2
*D33
 10
251.1317550473112
 20
177.5196728569606
 30
0.0
 11
227.1317550473112
 21
180.0196728569606
 31
0.0
 70
    32
  1
□<>
 71
     5
 42
48.0
  3
AM_ANSI
100
AcDbAlignedDimension
 13
203.1317550473112
 23
164.8497464250985
 33
0.0
 14
251.1317550473112
 24
164.8497464250989
 34
0.0
100
AcDbRotatedDimension
1001
ACAD
1000
DSTYLE
1002
{
1070
    41
1040
3.0
1070
    42
1040
2.0
1070
    43
1040
8.0
1070
    44
1040
2.0
1070
    73
1070
     0
1070
    74
1070
     0
1070
    77
1070
     3
1070
   140
1040
3.0
1070
   141
1040
3.0
1070
   146
1040
0.6
1070
   147
1040
1.0
1070
   172
1070
     1
1070
   178
1070
   256
1070
   272
1070
     2
1070
   274
1070
     2
1070
   340
1005
4A67
1002
}
  0
DIMENSION
  5
518E
330
1F
100
AcDbEntity
  8
DIM
100
AcDbDimension
  2
*D34
 10
258.1317550473108
 20
185.5756130556429
 30
0.0
 11
227.131755047311
 21
188.0756130556429
 31
0.0
 70
    32
  1
□<>
 71
     5
 42
61.99999999999954
  3
AM_ANSI
100
AcDbAlignedDimension
 13
196.1317550473112
 23
161.1825621550958
 33
0.0
 14
258.1317550473108
 24
161.1825621550956
 34
0.0
100
AcDbRotatedDimension
1001
ACAD
1000
DSTYLE
1002
{
1070
    41
1040
3.0
1070
    42
1040
2.0
1070
    43
1040
8.0
1070
    44
1040
2.0
1070
    73
1070
     0
1070
    74
1070
     0
1070
    77
1070
     3
1070
   140
1040
3.0
1070
   141
1040
3.0
1070
   146
1040
0.6
1070
   147
1040
1.0
1070
   172
1070
     1
1070
   178
1070
   256
1070
   272
1070
     2
1070
   274
1070
     2
1070
   340
1005
4A67
1002
}
  0
DIMENSION
  5
5191
330
1F
100
AcDbEntity
  8
DIM
100
AcDbDimension
  2
*D35
 10
258.1317550473108
 20
194.3687704497725
 30
0.0
 11
223.131755047311
 21
196.8687704497725
 31
0.0
 70
    32
 71
     5
 42
69.99999999999954
  3
AM_ANSI
100
AcDbAlignedDimension
 13
188.1317550473112
 23
143.6432736868013
 33
0.0
 14
258.1317550473108
 24
161.1825621550958
 34
0.0
100
AcDbRotatedDimension
1001
ACAD
1000
DSTYLE
1002
{
1070
    41
1040
3.0
1070
    42
1040
2.0
1070
    43
1040
8.0
1070
    44
1040
2.0
1070
    73
1070
     0
1070
    74
1070
     0
1070
    77
1070
     3
1070
   140
1040
3.0
1070
   141
1040
3.0
1070
   146
1040
0.6
1070
   147
1040
1.0
1070
   172
1070
     1
1070
   178
1070
   256
1070
   272
1070
     2
1070
   274
1070
     2
1070
   340
1005
4A67
1002
}
  0
DIMENSION
  5
5194
330
1F
100
AcDbEntity
  8
DIM
100
AcDbDimension
  2
*D36
 10
235.6317550473085
 20
91.85996842963589
 30
0.0
 11
227.1317550473096
 21
94.35996842963589
 31
0.0
 70
    32
  1
□<>
 71
     5
 42
16.99999999999772
  3
AM_ANSI
100
AcDbAlignedDimension
 13
218.6317550473108
 23
129.0842940148986
 33
0.0
 14
235.6317550473085
 24
129.0842940148982
 34
0.0
100
AcDbRotatedDimension
1001
ACAD
1000
DSTYLE
1002
{
1070
    41
1040
3.0
1070
    42
1040
2.0
1070
    43
1040
8.0
1070
    44
1040
2.0
1070
    73
1070
     0
1070
    74
1070
     0
1070
    77
1070
     3
1070
   140
1040
3.0
1070
   141
1040
3.0
1070
   146
1040
0.6
1070
   147
1040
1.0
1070
   172
1070
     1
1070
   178
1070
   256
1070
   272
1070
     2
1070
   274
1070
     2
1070
   340
1005
4A67
1002
}
  0
DIMENSION
  5
5197
330
1F
100
AcDbEntity
  8
DIM
100
AcDbDimension
  2
*D37
 10
176.9333553451254
 20
143.7706167949277
 30
0.0
 11
174.4333553451253
 21
134.3497464250987
 31
0.0
 70
    32
 71
     5
 42
18.84174073965822
  3
AM_ANSI
100
AcDbAlignedDimension
 13
188.1775352923744
 23
124.9288760552695
 33
0.0
 14
188.1775352923744
 24
143.7706167949277
 34
0.0
 50
90.0
100
AcDbRotatedDimension
1001
ACAD
1000
DSTYLE
1002
{
1070
    41
1040
3.0
1070
    42
1040
2.0
1070
    43
1040
8.0
1070
    44
1040
2.0
1070
    73
1070
     0
1070
    74
1070
     0
1070
    77
1070
     3
1070
   140
1040
3.0
1070
   141
1040
3.0
1070
   146
1040
0.6
1070
   147
1040
1.0
1070
   172
1070
     1
1070
   178
1070
   256
1070
   271
1070
     0
1070
   272
1070
     2
1070
   274
1070
     2
1070
   340
1005
4A67
1002
}
  0
LWPOLYLINE
  5
5784
330
1F
100
AcDbEntity
  8
LOGO
 62
     4
100
AcDbPolyline
 90
        4
 70
     1
 43
0.0
 10
5.16183393303017
 20
76.02127997416231
 10
342.6061282506338
 20
76.02127997416234
 10
342.6061282506338
 20
39.17661572076803
 10
5.16183393303017
 20
39.17661572076799
1001
GENIUS_GENREC_14
1002
{
1000
PYDIR
1011
5.16183393303017
1021
39.17661572076799
1031
0.0
1002
}
1002
{
1000
PXDIR
1011
342.6061282506338
1021
76.02127997416234
1031
0.0
1002
}
1002
{
1000
PORI
1011
5.16183393303017
1021
76.02127997416231
1031
0.0
1002
}
1002
{
1000
PINS
1011
5.16183393303017
1021
76.02127997416231
1031
0.0
1002
}
1002
{
1000
PINS2
1011
342.6061282506338
1021
39.17661572076803
1031
0.0
1002
}
1002
{
1000
C
1070
     1
1002
}
1001
GENIUS_GENOBJ-N-REC_13
1002
{
1000
OWNER
1000
GEN
1002
}
1001
GENIUS_GENODEF_13
1002
{
1000
HIER
1070
     0
1002
}
1002
{
1000
MANEDIT
1070
     0
1002
}
1002
{
1000
NOSEL
1070
     0
1002
}
1002
{
1000
BEHIND
1070
     0
1002
}
1002
{
1000
OTHER
1070
     0
1002
}
1002
{
1000
REACTOR
1002
}
  0
TEXT
  5
5785
330
1F
100
AcDbEntity
  8
LOGO
 62
     7
100
AcDbText
 10
88.35464616889845
 20
59.88025953028688
 30
0.0
 40
4.912621900452489
  1
Order example:
 41
0.8
  7
CHINESET
100
AcDbText
  0
TEXT
  5
5786
330
1F
100
AcDbEntity
  8
LOGO
 62
     7
100
AcDbText
 10
89.23601116357007
 20
66.79621399478051
 30
0.0
 40
7.368932850678733
  1
訂購代號：
  7
CHINESET
100
AcDbText
  0
LINE
  5
5787
330
1F
100
AcDbEntity
  8
LOGO
 62
     4
100
AcDbLine
 10
86.22009529049636
 20
39.17661572076841
 30
0.0
 11
86.22009529049636
 21
76.02127997416229
 31
0.0
  0
TEXT
  5
5788
330
1F
100
AcDbEntity
  8
LOGO
  6
Continuous
100
AcDbText
 10
18.39660295281951
 20
46.41469440990118
 30
0.0
 40
5.526699638009049
  1
金器工業股份有限公司
  7
CHINESET
100
AcDbText
  0
TEXT
  5
5789
330
1F
100
AcDbEntity
  8
LOGO
  6
Continuous
100
AcDbText
 10
8.24514912139935
 20
40.88691197207313
 30
0.0
 40
3.684466425339366
  1
MINDMAN INDUSTRIAL CO., LTD.
 41
0.85
  7
CHINESET
100
AcDbText
  0
LINE
  5
578A
330
1F
100
AcDbEntity
  8
LOGO
 62
     4
100
AcDbLine
 10
86.22009529049636
 20
68.65234712348351
 30
0.0
 11
32.1812543855186
 21
68.65234712348351
 31
0.0
  0
LINE
  5
578B
330
1F
100
AcDbEntity
  8
LOGO
 62
     4
100
AcDbLine
 10
86.22009529049636
 20
61.28341427280474
 30
0.0
 11
32.1812543855186
 21
61.28341427280474
 31
0.0
  0
LINE
  5
578C
330
1F
100
AcDbEntity
  8
LOGO
 62
     4
100
AcDbLine
 10
86.22009529049636
 20
53.91448142212635
 30
0.0
 11
5.16183393303018
 21
53.91448142212635
 31
0.0
  0
LINE
  5
578D
330
1F
100
AcDbEntity
  8
LOGO
 62
     4
100
AcDbLine
 10
32.1812543855186
 20
53.91448142212635
 30
0.0
 11
32.1812543855186
 21
76.02127997416229
 31
0.0
  0
TEXT
  5
578E
330
1F
100
AcDbEntity
  8
LOGO
100
AcDbText
 10
69.11425154963052
 20
55.75671463479547
 30
0.0
 40
3.684466425339366
  1
mm
  7
CHINESET
 72
     1
 11
73.67597188576498
 21
57.59894784746515
 31
0.0
100
AcDbText
 73
     2
  0
TEXT
  5
578F
330
1F
100
AcDbEntity
  8
LOGO
100
AcDbText
 10
67.18429294588133
 20
70.49458033615302
 30
0.0
 40
3.684466425339366
  1
1 : 1
  7
CHINESET
 72
     1
 11
73.67597188576498
 21
72.3368135488227
 31
0.0
100
AcDbText
 73
     2
  0
LINE
  5
5790
330
1F
100
AcDbEntity
  8
LOGO
 62
     4
100
AcDbLine
 10
61.65698578823375
 20
53.91448142212635
 30
0.0
 11
61.65698578823375
 21
76.02127997416229
 31
0.0
  0
CIRCLE
  5
5791
330
1F
100
AcDbEntity
  8
LOGO
  6
Continuous
100
AcDbCircle
 10
68.47923622052492
 20
64.97576179879027
 30
0.0
 40
2.139287929115763
  0
CIRCLE
  5
5792
330
1F
100
AcDbEntity
  8
LOGO
  6
Continuous
100
AcDbCircle
 10
68.47923622052492
 20
64.97576179879027
 30
0.0
 40
1.253433346016362
  0
LINE
  5
5793
330
1F
100
AcDbEntity
  8
LOGO
100
AcDbLine
 10
81.92276979956218
 20
62.83647386967413
 30
0.0
 11
81.92276979956218
 21
67.11504972790646
 31
0.0
  0
LINE
  5
5794
330
1F
100
AcDbEntity
  8
LOGO
100
AcDbLine
 10
75.21622494277114
 20
63.72232845277418
 30
0.0
 11
75.21622494277114
 21
66.22919514480688
 31
0.0
  0
LINE
  5
5795
330
1F
100
AcDbEntity
  8
LOGO
  6
Continuous
100
AcDbLine
 10
75.21622494277114
 20
66.22919514480688
 30
0.0
 11
81.92276979956218
 21
67.11504972790646
 31
0.0
  0
LINE
  5
5796
330
1F
100
AcDbEntity
  8
LOGO
  6
Continuous
100
AcDbLine
 10
75.21622494277114
 20
63.72232845277418
 30
0.0
 11
81.92276979956218
 21
62.83647386967413
 31
0.0
  0
TEXT
  5
5797
330
1F
100
AcDbEntity
  8
LOGO
100
AcDbText
 10
35.21929433534095
 20
70.49639355781903
 30
241.4738597128918
 40
3.684466425339366
  1
比例 Scale:
 41
0.9
  7
CHINESET
 72
     4
 11
46.91912008687618
 21
72.3368135488227
 31
241.4738597128918
100
AcDbText
  0
TEXT
  5
5798
330
1F
100
AcDbEntity
  8
LOGO
100
AcDbText
 10
35.00710854566739
 20
63.17747540476112
 30
241.4738597128918
 40
3.684466425339366
  1
投影  View:
 41
0.9
  7
CHINESET
 72
     4
 11
46.91912008687618
 21
64.96788069814392
 31
241.4738597128918
100
AcDbText
  0
TEXT
  5
5799
330
1F
100
AcDbEntity
  8
LOGO
100
AcDbText
 10
35.36733093278762
 20
55.75671463479547
 30
241.4738597128918
 40
3.684466425339366
  1
單位  Unit:
 41
0.9
  7
CHINESET
 72
     4
 11
46.91912008687618
 21
57.59894784746515
 31
241.4738597128918
100
AcDbText
  0
SOLID
  5
579A
330
1F
100
AcDbEntity
  8
LOGO
 62
     5
100
AcDbTrace
 10
8.984526980508093
 20
60.03938241175465
 30
0.0
 11
10.57759358242577
 21
60.03938241175418
 31
0.0
 12
17.22452664559952
 22
75.14604846442321
 32
0.0
 13
18.81759324751803
 23
75.14604846442236
 33
0.0
  0
SOLID
  5
579B
330
1F
100
AcDbEntity
  8
LOGO
 62
     5
100
AcDbTrace
 10
11.23679355563484
 20
60.03938241175465
 30
0.0
 11
12.82986015755253
 21
60.03938241175465
 31
0.0
 12
18.81759324751803
 22
73.93751518020912
 32
0.0
 13
17.22452664559952
 23
68.09627097317727
 33
0.0
  0
SOLID
  5
579C
330
1F
100
AcDbEntity
  8
LOGO
 62
     2
100
AcDbTrace
 10
10.57759358242577
 20
60.03938241175418
 30
0.0
 11
11.23679355563484
 21
60.03938241175465
 31
0.0
 12
18.81759324751803
 22
75.14604846442236
 32
0.0
 13
19.4767932207263
 23
75.14604846442236
 33
0.0
  0
SOLID
  5
579D
330
1F
100
AcDbEntity
  8
LOGO
 62
     5
100
AcDbTrace
 10
6.430450549849012
 20
54.54604930169384
 30
0.0
 11
6.979783860855746
 21
54.54604930169384
 31
0.0
 12
8.526749221336814
 22
57.29271585672401
 32
0.0
 13
9.076082532341871
 23
57.29271585672401
 33
0.0
  0
SOLID
  5
579E
330
1F
100
AcDbEntity
  8
LOGO
 62
     5
100
AcDbTrace
 10
8.526749221336814
 20
57.29271585672401
 30
0.0
 11
9.076082532341871
 21
57.29271585672401
 31
0.0
 12
8.526749221336814
 22
54.54604930169384
 32
0.0
 13
9.076082532341871
 23
54.54604930169384
 33
0.0
  0
SOLID
  5
579F
330
1F
100
AcDbEntity
  8
LOGO
 62
     5
100
AcDbTrace
 10
8.526749221336814
 20
54.54604930169384
 30
0.0
 11
9.076082532341871
 21
54.54604930169384
 31
0.0
 12
10.62304789282547
 22
57.29271585672401
 32
0.0
 13
11.17238120383132
 23
57.29271585672401
 33
0.0
  0
SOLID
  5
57A0
330
1F
100
AcDbEntity
  8
LOGO
 62
     5
100
AcDbTrace
 10
10.62304789282547
 20
57.29271585672401
 30
0.0
 11
11.17238120383132
 21
57.29271585672401
 31
0.0
 12
10.62304789282547
 22
54.54604930169384
 32
0.0
 13
11.17238120383132
 23
54.54604930169384
 33
0.0
  0
POLYLINE
  5
57A1
330
1F
100
AcDbEntity
  8
LOGO
 62
     5
100
AcDb2dPolyline
 66
     1
 10
0.0
 20
0.0
 30
0.0
 40
0.5502136528506787
 41
0.5502136528506787
  0
VERTEX
  5
57A2
330
57A1
100
AcDbEntity
  8
LOGO
 62
     5
100
AcDbVertex
100
AcDb2dVertex
 10
29.0365133449994
 20
56.19404923471188
 30
0.0
 42
1.0
  0
VERTEX
  5
57A3
330
57A1
100
AcDbEntity
  8
LOGO
 62
     5
100
AcDbVertex
100
AcDb2dVertex
 10
27.38587238644706
 20
56.19404923471188
 30
0.0
 42
1.0
  0
SEQEND
  5
57A4
330
57A1
100
AcDbEntity
  8
LOGO
 62
     5
  0
POLYLINE
  5
57A5
330
1F
100
AcDbEntity
  8
LOGO
 62
     5
100
AcDb2dPolyline
 66
     1
 10
0.0
 20
0.0
 30
0.0
 70
     1
  0
VERTEX
  5
57A6
330
57A5
100
AcDbEntity
  8
LOGO
 62
     5
100
AcDbVertex
100
AcDb2dVertex
 10
24.27434075906564
 20
55.9193825792085
 30
0.0
 42
1.000000057330635
  0
VERTEX
  5
57A7
330
57A5
100
AcDbEntity
  8
LOGO
 62
     5
100
AcDbVertex
100
AcDb2dVertex
 10
25.92234069208408
 20
55.9193825792085
 30
0.0
 42
1.000000057330635
  0
SEQEND
  5
57A8
330
57A5
100
AcDbEntity
  8
LOGO
 62
     5
  0
CIRCLE
  5
57A9
330
1F
100
AcDbEntity
  8
LOGO
 62
     5
100
AcDbCircle
 10
25.09834072557615
 20
55.9193825792085
 30
0.0
 40
0.8239999665091765
  0
POLYLINE
  5
57AA
330
1F
100
AcDbEntity
  8
LOGO
 62
     5
100
AcDb2dPolyline
 66
     1
 10
0.0
 20
0.0
 30
0.0
 70
     1
 40
0.5502136528506787
 41
0.5502136528506787
  0
VERTEX
  5
57AB
330
57AA
100
AcDbEntity
  8
LOGO
 62
     5
100
AcDbVertex
100
AcDb2dVertex
 10
23.99791341987401
 20
55.9193825792085
 30
0.0
 42
1.0
  0
VERTEX
  5
57AC
330
57AA
100
AcDbEntity
  8
LOGO
 62
     5
100
AcDbVertex
100
AcDb2dVertex
 10
26.19876803127659
 20
55.9193825792085
 30
0.0
 42
1.0
  0
SEQEND
  5
57AD
330
57AA
100
AcDbEntity
  8
LOGO
 62
     5
  0
LINE
  5
57AE
330
1F
100
AcDbEntity
  8
LOGO
100
AcDbLine
 10
29.30985948773454
 20
54.54604930169384
 30
0.0
 11
29.30985948773454
 21
56.19404923471188
 31
0.0
  0
SOLID
  5
57AF
330
1F
100
AcDbEntity
  8
LOGO
 62
     5
100
AcDbTrace
 10
25.92228575875547
 20
57.29271585672401
 30
0.0
 11
26.47161906976049
 21
57.29271585672401
 31
0.0
 12
25.92228575875547
 22
54.54604930169384
 32
0.0
 13
26.47161906976049
 23
54.54604930169384
 33
0.0
  0
SOLID
  5
57B0
330
1F
100
AcDbEntity
  8
LOGO
 62
     5
100
AcDbTrace
 10
27.11252624371025
 20
54.54604930169384
 30
0.0
 11
27.66185955471693
 21
54.54604930169384
 31
0.0
 12
27.11252624371025
 22
57.29271585672401
 32
0.0
 13
27.66185955471693
 23
57.29271585672401
 33
0.0
  0
SOLID
  5
57B1
330
1F
100
AcDbEntity
  8
LOGO
 62
     5
100
AcDbTrace
 10
28.76052617672952
 20
56.19404923471188
 30
0.0
 11
29.30985948773454
 21
56.19404923471188
 31
0.0
 12
28.76052617672952
 22
54.54604930169384
 32
0.0
 13
29.30985948773454
 23
54.54604930169384
 33
0.0
  0
SOLID
  5
57B2
330
1F
100
AcDbEntity
  8
LOGO
 62
     5
100
AcDbTrace
 10
27.05759291260946
 20
73.93751518020912
 30
0.0
 11
25.46452631069261
 21
68.09627097317727
 31
0.0
 12
27.05759291260946
 22
60.03938241175418
 32
0.0
 13
25.46452631069261
 23
60.03938241175418
 33
0.0
  0
SOLID
  5
57B3
330
1F
100
AcDbEntity
  8
LOGO
 62
     5
100
AcDbTrace
 10
27.71679288581768
 20
60.03938241175418
 30
0.0
 11
29.30985948773454
 21
60.03938241175418
 31
0.0
 12
27.71679288581768
 22
75.14604846442236
 32
0.0
 13
29.30985948773454
 23
75.14604846442321
 33
0.0
  0
SOLID
  5
57B4
330
1F
100
AcDbEntity
  8
LOGO
 62
     2
100
AcDbTrace
 10
27.05759291260946
 20
75.14604846442321
 30
0.0
 11
27.71679288581768
 21
75.14604846442236
 31
0.0
 12
27.05759291260946
 22
60.03938241175418
 32
0.0
 13
27.71679288581768
 23
60.03938241175418
 33
0.0
  0
POLYLINE
  5
57B5
330
1F
100
AcDbEntity
  8
LOGO
 62
     5
100
AcDb2dPolyline
 66
     1
 10
0.0
 20
0.0
 30
0.0
 40
0.5502136528506787
 41
0.5502136528506787
  0
VERTEX
  5
57B6
330
57B5
100
AcDbEntity
  8
LOGO
 62
     5
100
AcDbVertex
100
AcDb2dVertex
 10
21.16269926502448
 20
56.19404923471188
 30
0.0
 42
1.0
  0
VERTEX
  5
57B7
330
57B5
100
AcDbEntity
  8
LOGO
 62
     5
100
AcDbVertex
100
AcDb2dVertex
 10
19.51205830647208
 20
56.19404923471188
 30
0.0
 42
1.0
  0
SEQEND
  5
57B8
330
57B5
100
AcDbEntity
  8
LOGO
 62
     5
  0
POLYLINE
  5
57B9
330
1F
100
AcDbEntity
  8
LOGO
 62
     5
100
AcDb2dPolyline
 66
     1
 10
0.0
 20
0.0
 30
0.0
 40
0.5502136528506787
 41
0.5502136528506787
  0
VERTEX
  5
57BA
330
57B9
100
AcDbEntity
  8
LOGO
 62
     5
100
AcDbVertex
100
AcDb2dVertex
 10
22.81069919804125
 20
56.19404923471188
 30
0.0
 42
1.0
  0
VERTEX
  5
57BB
330
57B9
100
AcDbEntity
  8
LOGO
 62
     5
100
AcDbVertex
100
AcDb2dVertex
 10
21.16005823948973
 20
56.19404923471188
 30
0.0
 42
1.0
  0
SEQEND
  5
57BC
330
57B9
100
AcDbEntity
  8
LOGO
 62
     5
  0
POLYLINE
  5
57BD
330
1F
100
AcDbEntity
  8
LOGO
 62
     5
100
AcDb2dPolyline
 66
     1
 10
0.0
 20
0.0
 30
0.0
 40
0.5502136528506787
 41
0.5502136528506787
  0
VERTEX
  5
57BE
330
57BD
100
AcDbEntity
  8
LOGO
 62
     5
100
AcDbVertex
100
AcDb2dVertex
 10
14.93688511806627
 20
56.19404923471188
 30
0.0
 42
1.0
  0
VERTEX
  5
57BF
330
57BD
100
AcDbEntity
  8
LOGO
 62
     5
100
AcDbVertex
100
AcDb2dVertex
 10
13.28624415951475
 20
56.19404923471188
 30
0.0
 42
1.0
  0
SEQEND
  5
57C0
330
57BD
100
AcDbEntity
  8
LOGO
 62
     5
  0
SOLID
  5
57C1
330
1F
100
AcDbEntity
  8
LOGO
 62
     5
100
AcDbTrace
 10
13.01289801677879
 20
57.29271585672401
 30
0.0
 11
13.56223132778385
 21
57.29271585672401
 31
0.0
 12
13.01289801677879
 22
54.54604930169384
 32
0.0
 13
13.56223132778385
 23
54.54604930169384
 33
0.0
  0
SOLID
  5
57C2
330
1F
100
AcDbEntity
  8
LOGO
 62
     5
100
AcDbTrace
 10
14.66089794979723
 20
56.19404923471188
 30
0.0
 11
15.21023126080396
 21
56.19404923471188
 31
0.0
 12
14.66089794979723
 22
54.54604930169384
 32
0.0
 13
15.21023126080396
 23
54.54604930169384
 33
0.0
  0
POLYLINE
  5
57C3
330
1F
100
AcDbEntity
  8
LOGO
 62
     5
100
AcDb2dPolyline
 66
     1
 10
0.0
 20
0.0
 30
0.0
 70
     1
 40
0.5502136528506787
 41
0.5502136528506787
  0
VERTEX
  5
57C4
330
57C3
100
AcDbEntity
  8
LOGO
 62
     5
100
AcDbVertex
100
AcDb2dVertex
 10
16.12409933989821
 20
55.9193825792085
 30
0.0
 42
1.0
  0
VERTEX
  5
57C5
330
57C3
100
AcDbEntity
  8
LOGO
 62
     5
100
AcDbVertex
100
AcDb2dVertex
 10
18.32495395130166
 20
55.9193825792085
 30
0.0
 42
1.0
  0
SEQEND
  5
57C6
330
57C3
100
AcDbEntity
  8
LOGO
 62
     5
  0
SOLID
  5
57C7
330
1F
100
AcDbEntity
  8
LOGO
 62
     5
100
AcDbTrace
 10
18.04847167877884
 20
58.11671582323365
 30
0.0
 11
18.59780498978469
 21
58.11671582323365
 31
0.0
 12
18.04847167877884
 22
54.54604930169384
 32
0.0
 13
18.59780498978469
 23
54.54604930169384
 33
0.0
  0
SOLID
  5
57C8
330
1F
100
AcDbEntity
  8
LOGO
 62
     5
100
AcDbTrace
 10
19.23871216373695
 20
57.29271585672401
 30
0.0
 11
19.788045474742
 21
57.29271585672401
 31
0.0
 12
19.23871216373695
 22
54.54604930169384
 32
0.0
 13
19.788045474742
 23
54.54604930169384
 33
0.0
  0
SOLID
  5
57C9
330
1F
100
AcDbEntity
  8
LOGO
 62
     5
100
AcDbTrace
 10
20.88671209675371
 20
56.19404923471188
 30
0.0
 11
21.43604540776045
 21
56.19404923471188
 31
0.0
 12
20.88671209675371
 22
54.54604930169384
 32
0.0
 13
21.43604540776045
 23
54.54604930169384
 33
0.0
  0
SOLID
  5
57CA
330
1F
100
AcDbEntity
  8
LOGO
 62
     5
100
AcDbTrace
 10
22.53471202977215
 20
56.19404923471188
 30
0.0
 11
23.08404534077809
 21
56.19404923471188
 31
0.0
 12
22.53471202977215
 22
54.54604930169299
 32
0.0
 13
23.08404534077809
 23
54.54604930169299
 33
0.0
  0
SOLID
  5
57CB
330
1F
100
AcDbEntity
  8
LOGO
 62
     5
100
AcDbTrace
 10
11.8226575318215
 20
57.67724917442845
 30
0.0
 11
12.37199084282903
 21
57.67724917442845
 31
0.0
 12
11.8226575318215
 22
58.11671582323365
 32
0.0
 13
12.37199084282903
 23
58.11671582323365
 33
0.0
  0
SOLID
  5
57CC
330
1F
100
AcDbEntity
  8
LOGO
 62
     5
100
AcDbTrace
 10
11.8226575318215
 20
57.29271585672401
 30
0.0
 11
12.37199084282903
 21
57.29271585672401
 31
0.0
 12
11.8226575318215
 22
54.54604930169299
 32
0.0
 13
12.37199084282903
 23
54.54604930169384
 33
0.0
  0
SOLID
  5
57CD
330
1F
100
AcDbEntity
  8
LOGO
 62
     5
100
AcDbTrace
 10
17.22452664559952
 20
60.03938241175465
 30
0.0
 11
18.81759324751803
 21
60.03938241175465
 31
0.0
 12
17.22452664559952
 22
68.09627097317727
 32
0.0
 13
18.81759324751803
 23
73.93751518020912
 33
0.0
  0
SOLID
  5
57CE
330
1F
100
AcDbEntity
  8
LOGO
 62
     5
100
AcDbTrace
 10
19.4767932207263
 20
75.14604846442236
 30
0.0
 11
21.06985982264311
 21
75.14604846442321
 31
0.0
 12
19.4767932207263
 22
61.24791569596789
 32
0.0
 13
21.06985982264311
 23
67.08915990299971
 33
0.0
  0
SOLID
  5
57CF
330
1F
100
AcDbEntity
  8
LOGO
 62
     2
100
AcDbTrace
 10
18.81759324751803
 20
75.14604846442236
 30
0.0
 11
19.4767932207263
 21
75.14604846442236
 31
0.0
 12
18.81759324751803
 22
60.03938241175465
 32
0.0
 13
19.4767932207263
 23
60.03938241175465
 33
0.0
  0
SOLID
  5
57D0
330
1F
100
AcDbEntity
  8
LOGO
 62
     5
100
AcDbTrace
 10
19.4767932207263
 20
61.24791569596789
 30
0.0
 11
21.06985982264311
 21
67.08915990299971
 31
0.0
 12
27.05759291260946
 22
75.14604846442321
 32
0.0
 13
25.46452631069261
 23
75.14604846442321
 33
0.0
  0
SOLID
  5
57D1
330
1F
100
AcDbEntity
  8
LOGO
 62
     5
100
AcDbTrace
 10
19.4767932207263
 20
60.03938241175465
 30
0.0
 11
21.06985982264311
 21
60.03938241175465
 31
0.0
 12
27.05759291260946
 22
73.93751518020912
 32
0.0
 13
25.46452631069261
 23
68.09627097317727
 33
0.0
  0
SOLID
  5
57D2
330
1F
100
AcDbEntity
  8
LOGO
 62
     2
100
AcDbTrace
 10
18.81759324751803
 20
60.03938241175465
 30
0.0
 11
19.4767932207263
 21
60.03938241175465
 31
0.0
 12
27.05759291260946
 22
75.14604846442321
 32
0.0
 13
27.71679288581768
 23
75.14604846442236
 33
0.0
  0
TEXT
  5
57D3
330
1F
100
AcDbEntity
  8
LOGO
100
AcDbText
 10
87.68157045068509
 20
41.13673731669348
 30
0.0
 40
3.685
  1
10707267
 41
0.7
  7
CHINESET
 72
     1
 11
96.89407045068509
 21
41.13673731669348
 31
0.0
100
AcDbText
  0
LINE
  5
57D4
330
1F
100
AcDbEntity
  8
LOGO
 62
     4
100
AcDbLine
 10
108.3300952904946
 20
46.54554857144804
 30
0.0
 11
108.3300952904963
 21
39.17661572076881
 31
0.0
  0
LINE
  5
57D5
330
1F
100
AcDbEntity
  8
LOGO
 62
     4
100
AcDbLine
 10
108.3300952904946
 20
46.54554857144804
 30
0.0
 11
86.22009529049636
 21
46.54554857144804
 31
0.0
  0
LINE
  5
57D6
330
1F
100
AcDbEntity
  8
LOGO
  6
AM_ISO08W050x2
 48
0.3
100
AcDbLine
 10
65.53019577692454
 20
64.97576179879027
 30
0.0
 11
71.42827666412523
 21
64.97576179879027
 31
0.0
1001
GENIUS_GENOREF_13
1005
57DB
  0
LINE
  5
57D7
330
1F
100
AcDbEntity
  8
LOGO
  6
AM_ISO08W050x2
 48
0.3
100
AcDbLine
 10
68.47923622052492
 20
62.02672135518998
 30
0.0
 11
68.47923622052492
 21
67.92480224239065
 31
0.0
1001
GENIUS_GENOREF_13
1005
57DA
  0
LINE
  5
57D8
330
1F
100
AcDbEntity
  8
LOGO
  6
CENTER
 48
0.5
100
AcDbLine
 10
74.67988776176996
 20
64.97576179879027
 30
0.0
 11
82.59809715643601
 21
64.97576179879027
 31
0.0
1001
GENIUS_GENOREF_13
1005
57D9
  0
POINT
  5
57D9
330
1F
100
AcDbEntity
  8
0
 60
     1
100
AcDbPoint
 10
-2072.811814811345
 20
-923.250426012127
 30
0.0
1001
GENIUS_GENOBJ-N-CRS_13
1002
{
1000
OWNER
1000
GEN
1002
}
1001
GENIUS_GENOLIS_13
1002
{
1000
ENT
1005
0
1005
0
1005
0
1005
57D8
1002
}
1001
GENIUS_GENOENT_13
1002
{
1000
MYREF
1005
57D9
1002
}
1002
{
1000
GRP
1005
0
1002
}
1001
GENIUS_GENODEF_13
1002
{
1000
HIER
1070
    10
1002
}
1002
{
1000
MANEDIT
1070
     1
1002
}
1002
{
1000
NOSEL
1070
     0
1002
}
1002
{
1000
BEHIND
1070
     0
1002
}
1002
{
1000
OTHER
1070
     0
1002
}
1002
{
1000
REACTOR
1002
}
  0
POINT
  5
57DA
330
1F
100
AcDbEntity
  8
0
 60
     1
100
AcDbPoint
 10
-2084.136400034199
 20
-914.3748395334908
 30
0.0
1001
GENIUS_GENOBJ-N-CRS_13
1002
{
1000
OWNER
1000
GEN
1002
}
1001
GENIUS_GENOLIS_13
1002
{
1000
ENT
1005
0
1005
0
1005
0
1005
57D7
1002
}
1001
GENIUS_GENOENT_13
1002
{
1000
MYREF
1005
57DA
1002
}
1002
{
1000
GRP
1005
0
1002
}
1001
GENIUS_GENODEF_13
1002
{
1000
HIER
1070
    10
1002
}
1002
{
1000
MANEDIT
1070
     1
1002
}
1002
{
1000
NOSEL
1070
     0
1002
}
1002
{
1000
BEHIND
1070
     0
1002
}
1002
{
1000
OTHER
1070
     0
1002
}
1002
{
1000
REACTOR
1002
}
  0
POINT
  5
57DB
330
1F
100
AcDbEntity
  8
0
 60
     1
100
AcDbPoint
 10
-2077.777726336362
 20
-923.250426012127
 30
0.0
1001
GENIUS_GENOBJ-N-CRS_13
1002
{
1000
OWNER
1000
GEN
1002
}
1001
GENIUS_GENOLIS_13
1002
{
1000
ENT
1005
0
1005
0
1005
0
1005
57D6
1002
}
1001
GENIUS_GENOENT_13
1002
{
1000
MYREF
1005
57DB
1002
}
1002
{
1000
GRP
1005
0
1002
}
1001
GENIUS_GENODEF_13
1002
{
1000
HIER
1070
    10
1002
}
1002
{
1000
MANEDIT
1070
     1
1002
}
1002
{
1000
NOSEL
1070
     0
1002
}
1002
{
1000
BEHIND
1070
     0
1002
}
1002
{
1000
OTHER
1070
     0
1002
}
1002
{
1000
REACTOR
1002
}
  0
TEXT
  5
5CCE
330
1F
100
AcDbEntity
  8
0
100
AcDbText
 10
14.62918886324269
 20
234.2882906193899
 30
0.0
 40
6.0
  1
12 type
  7
CHINESET
100
AcDbText
  0
LEADER
  5
5CD1
330
1F
100
AcDbEntity
  8
DIM
100
AcDbLeader
  3
AM_ANSI$7
 73
     0
 74
     0
 75
     1
 40
13.0
 41
43.99999999999999
 76
     3
 10
255.4495784250434
 20
161.7565633087465
 30
0.0
 10
260.2202247568326
 20
170.3267533171268
 30
0.0
 10
263.2202247568326
 20
170.3267533171268
 30
0.0
340
5CD2
213
-0.1905629376930165
223
0.2179465301056638
233
0.0
1001
ACAD
1000
DSTYLE
1002
{
1070
    41
1040
3.0
1070
    42
1040
1.5
1070
    43
1040
8.0
1070
    44
1040
1.5
1070
    73
1070
     0
1070
    74
1070
     0
1070
    77
1070
     3
1070
   140
1040
2.0
1070
   141
1040
3.0
1070
   146
1040
0.6
1070
   147
1040
1.0
1070
   172
1070
     1
1070
   178
1070
   256
1070
   272
1070
     2
1070
   274
1070
     2
1070
   340
1005
4A67
1002
}
  0
MTEXT
  5
5CD2
102
{ACAD_REACTORS
330
5CD1
102
}
330
1F
100
AcDbEntity
  8
DIM
100
AcDbMText
 10
264.4107876945256
 20
184.1088067870211
 30
0.0
 40
3.0
 41
0.0
 71
     1
 72
     1
  1
%%C11*8.5 depth\PM8*1.25*16.5 depth\P%%C6.9 thru
  7
dayus
 73
     1
 44
1.0
1001
ACAD
1000
MTEXTBEGIN
1070
    73
1070
     1
1070
    44
1040
1.0
1070
    74
1070
     0
1000
MTEXTEND
  0
LINE
  5
5D7C
330
1F
100
AcDbEntity
  8
0
100
AcDbLine
 10
206.0870852055836
 20
406.5009250581489
 30
0.0
 11
206.0870852055822
 21
395.2113250581495
 31
0.0
  0
LINE
  5
5D7D
330
1F
100
AcDbEntity
  8
0
100
AcDbLine
 10
233.8938636710699
 20
402.7377250581493
 30
0.0
 11
233.89386367107
 21
395.2113250581493
 31
0.0
  0
LINE
  5
5D7E
330
1F
100
AcDbEntity
  8
0
100
AcDbLine
 10
219.6442549295395
 20
406.5009250581489
 30
0.0
 11
219.6442549295402
 21
395.2113250581495
 31
0.0
  0
LINE
  5
5D7F
330
1F
100
AcDbEntity
  8
0
100
AcDbLine
 10
206.0870852055839
 20
395.2113250581493
 30
0.0
 11
276.6426898956595
 21
395.2113250581493
 31
0.0
  0
LINE
  5
5D80
330
1F
100
AcDbEntity
  8
0
100
AcDbLine
 10
206.0870852055839
 20
398.9745250581493
 30
0.0
 11
276.6426898956593
 21
398.9745250581493
 31
0.0
  0
TEXT
  5
5D81
330
1F
100
AcDbEntity
  8
0
100
AcDbText
 10
212.2901176338904
 20
395.8510145347401
 30
0.0
 40
2.362676112418407
  1
5
 41
0.8
  7
CHINESET
 72
     4
 11
212.920164597202
 21
397.0323525909492
 31
0.0
100
AcDbText
  0
TEXT
  5
5D82
330
1F
100
AcDbEntity
  8
0
100
AcDbText
 10
209.3437763903589
 20
399.8849652384146
 30
0.0
 40
1.881599999999999
  1
Stroke
 41
0.8
  7
CHINESET
100
AcDbText
  0
TEXT
  5
5D83
330
1F
100
AcDbEntity
  8
0
100
AcDbText
 10
224.5577441634669
 20
395.8705097804227
 30
0.0
 40
2.351999999999999
  1
33
 41
0.8
  7
CHINESET
100
AcDbText
  0
LINE
  5
5D84
330
1F
100
AcDbEntity
  8
0
100
AcDbLine
 10
206.0870852055836
 20
406.500925058149
 30
0.0
 11
276.6426898956588
 21
406.500925058149
 31
0.0
  0
INSERT
  5
5D85
330
1F
100
AcDbEntity
  8
0
100
AcDbBlockReference
  2
A$C5ECF147B
 10
205.5822447431014
 20
395.5414465520569
 30
0.0
 41
0.7526400000000422
 42
0.7526400000000422
 43
0.75264
  0
LINE
  5
5D86
330
1F
100
AcDbEntity
  8
0
100
AcDbLine
 10
206.0870852055838
 20
402.7377250581492
 30
0.0
 11
276.6426898956592
 21
402.7377250581492
 31
0.0
  0
TEXT
  5
5D87
330
1F
100
AcDbEntity
  8
0
100
AcDbText
 10
225.4743682029284
 20
399.6337097804227
 30
0.0
 40
2.351999999999999
  1
S
 41
0.8
  7
CHINESET
100
AcDbText
  0
TEXT
  5
5D88
330
1F
100
AcDbEntity
  8
0
100
AcDbText
 10
222.8742342960238
 20
403.413972625783
 30
0.0
 40
2.351999999999999
  1
Without magnet
 41
0.8
  7
CHINESET
100
AcDbText
  0
LINE
  5
5D89
330
1F
100
AcDbEntity
  8
0
100
AcDbLine
 10
248.1434724125997
 20
406.500925058149
 30
0.0
 11
248.1434724125999
 21
395.2113250581491
 31
0.0
  0
TEXT
  5
5D8A
330
1F
100
AcDbEntity
  8
0
100
AcDbText
 10
239.5203487121487
 20
395.8705097804225
 30
0.0
 40
2.351999999999999
  1
70
 41
0.8
  7
CHINESET
100
AcDbText
  0
TEXT
  5
5D8B
330
1F
100
AcDbEntity
  8
0
100
AcDbText
 10
239.7239769444584
 20
399.6337097804227
 30
0.0
 40
2.351999999999999
  1
ZZ
 41
0.8
  7
CHINESET
100
AcDbText
  0
LINE
  5
5D8C
330
1F
100
AcDbEntity
  8
0
100
AcDbLine
 10
262.3930811541296
 20
402.7377250581493
 30
0.0
 11
262.3930811541297
 21
395.2113250581493
 31
0.0
  0
TEXT
  5
5D8D
330
1F
100
AcDbEntity
  8
0
100
AcDbText
 10
253.2509020016359
 20
395.8705097804227
 30
0.0
 40
2.351999999999999
  1
43
 41
0.8
  7
CHINESET
100
AcDbText
  0
TEXT
  5
5D8E
330
1F
100
AcDbEntity
  8
0
100
AcDbText
 10
253.9735856859881
 20
399.6337097804227
 30
0.0
 40
2.351999999999999
  1
S
 41
0.8
  7
CHINESET
100
AcDbText
  0
TEXT
  5
5D8F
330
1F
100
AcDbEntity
  8
0
100
AcDbText
 10
253.3462911627719
 20
403.413972625783
 30
0.0
 40
2.351999999999999
  1
With magnet
 41
0.8
  7
CHINESET
100
AcDbText
  0
TEXT
  5
5D90
330
1F
100
AcDbEntity
  8
0
100
AcDbText
 10
267.8409572584965
 20
395.8705097804225
 30
0.0
 40
2.351999999999999
  1
80
 41
0.8
  7
CHINESET
100
AcDbText
  0
TEXT
  5
5D91
330
1F
100
AcDbEntity
  8
0
100
AcDbText
 10
268.2231944275181
 20
399.6337097804227
 30
0.0
 40
2.351999999999999
  1
ZZ
 41
0.8
  7
CHINESET
100
AcDbText
  0
LINE
  5
5D92
330
1F
100
AcDbEntity
  8
0
100
AcDbLine
 10
276.6426898956594
 20
406.500925058149
 30
0.0
 11
276.6426898956595
 21
395.2113250581491
 31
0.0
  0
INSERT
  5
5D93
330
1F
100
AcDbEntity
  8
0
100
AcDbBlockReference
  2
A$C5ECF147B
 10
224.0721951005382
 20
395.5414465520569
 30
0.0
 41
0.7526400000000422
 42
0.7526400000000422
 43
0.75264
  0
INSERT
  5
5D94
330
1F
100
AcDbEntity
  8
0
100
AcDbBlockReference
  2
A$C5ECF147B
 10
238.321803842068
 20
395.5414465520566
 30
0.0
 41
0.7526400000000422
 42
0.7526400000000422
 43
0.75264
  0
LINE
  5
5D9C
330
1F
100
AcDbEntity
  8
0
100
AcDbLine
 10
206.0870852055836
 20
223.2203419871308
 30
0.0
 11
206.0870852055822
 21
211.9307419871314
 31
0.0
  0
LINE
  5
5D9D
330
1F
100
AcDbEntity
  8
0
100
AcDbLine
 10
233.8938636710699
 20
219.4571419871312
 30
0.0
 11
233.89386367107
 21
211.9307419871312
 31
0.0
  0
LINE
  5
5D9E
330
1F
100
AcDbEntity
  8
0
100
AcDbLine
 10
219.6442549295395
 20
223.2203419871308
 30
0.0
 11
219.6442549295402
 21
211.9307419871314
 31
0.0
  0
LINE
  5
5D9F
330
1F
100
AcDbEntity
  8
0
100
AcDbLine
 10
206.0870852055839
 20
211.9307419871312
 30
0.0
 11
276.6426898956595
 21
211.9307419871312
 31
0.0
  0
LINE
  5
5DA0
330
1F
100
AcDbEntity
  8
0
100
AcDbLine
 10
206.0870852055839
 20
215.6939419871312
 30
0.0
 11
276.6426898956593
 21
215.6939419871312
 31
0.0
  0
TEXT
  5
5DA1
330
1F
100
AcDbEntity
  8
0
100
AcDbText
 10
212.2901176338904
 20
212.5704314637219
 30
0.0
 40
2.362676112418407
  1
5
 41
0.8
  7
CHINESET
 72
     4
 11
212.920164597202
 21
213.7517695199311
 31
0.0
100
AcDbText
  0
TEXT
  5
5DA2
330
1F
100
AcDbEntity
  8
0
100
AcDbText
 10
209.3437763903589
 20
216.6043821673965
 30
0.0
 40
1.881599999999999
  1
Stroke
 41
0.8
  7
CHINESET
100
AcDbText
  0
TEXT
  5
5DA3
330
1F
100
AcDbEntity
  8
0
100
AcDbText
 10
224.5577441634669
 20
212.5899267094046
 30
0.0
 40
2.351999999999999
  1
33
 41
0.8
  7
CHINESET
100
AcDbText
  0
LINE
  5
5DA4
330
1F
100
AcDbEntity
  8
0
100
AcDbLine
 10
206.0870852055836
 20
223.2203419871309
 30
0.0
 11
276.6426898956588
 21
223.2203419871309
 31
0.0
  0
INSERT
  5
5DA5
330
1F
100
AcDbEntity
  8
0
100
AcDbBlockReference
  2
A$C5ECF147B
 10
205.5822447431014
 20
212.2608634810387
 30
0.0
 41
0.7526400000000422
 42
0.7526400000000422
 43
0.75264
  0
LINE
  5
5DA6
330
1F
100
AcDbEntity
  8
0
100
AcDbLine
 10
206.0870852055838
 20
219.4571419871312
 30
0.0
 11
276.6426898956592
 21
219.4571419871312
 31
0.0
  0
TEXT
  5
5DA7
330
1F
100
AcDbEntity
  8
0
100
AcDbText
 10
225.4743682029284
 20
216.3531267094046
 30
0.0
 40
2.351999999999999
  1
S
 41
0.8
  7
CHINESET
100
AcDbText
  0
TEXT
  5
5DA8
330
1F
100
AcDbEntity
  8
0
100
AcDbText
 10
222.8742342960238
 20
220.1333895547649
 30
0.0
 40
2.351999999999999
  1
Without magnet
 41
0.8
  7
CHINESET
100
AcDbText
  0
LINE
  5
5DA9
330
1F
100
AcDbEntity
  8
0
100
AcDbLine
 10
248.1434724125997
 20
223.2203419871309
 30
0.0
 11
248.1434724125999
 21
211.930741987131
 31
0.0
  0
TEXT
  5
5DAA
330
1F
100
AcDbEntity
  8
0
100
AcDbText
 10
239.5203487121487
 20
212.5899267094044
 30
0.0
 40
2.351999999999999
  1
42
 41
0.8
  7
CHINESET
100
AcDbText
  0
TEXT
  5
5DAB
330
1F
100
AcDbEntity
  8
0
100
AcDbText
 10
239.7239769444584
 20
216.3531267094046
 30
0.0
 40
2.351999999999999
  1
ZZ
 41
0.8
  7
CHINESET
100
AcDbText
  0
LINE
  5
5DAC
330
1F
100
AcDbEntity
  8
0
100
AcDbLine
 10
262.3930811541296
 20
219.4571419871312
 30
0.0
 11
262.3930811541297
 21
211.9307419871312
 31
0.0
  0
TEXT
  5
5DAD
330
1F
100
AcDbEntity
  8
0
100
AcDbText
 10
253.2509020016359
 20
212.5899267094046
 30
0.0
 40
2.351999999999999
  1
43
 41
0.8
  7
CHINESET
100
AcDbText
  0
TEXT
  5
5DAE
330
1F
100
AcDbEntity
  8
0
100
AcDbText
 10
253.9735856859881
 20
216.3531267094046
 30
0.0
 40
2.351999999999999
  1
S
 41
0.8
  7
CHINESET
100
AcDbText
  0
TEXT
  5
5DAF
330
1F
100
AcDbEntity
  8
0
100
AcDbText
 10
253.3462911627719
 20
220.1333895547649
 30
0.0
 40
2.351999999999999
  1
With magnet
 41
0.8
  7
CHINESET
100
AcDbText
  0
TEXT
  5
5DB0
330
1F
100
AcDbEntity
  8
0
100
AcDbText
 10
267.8409572584965
 20
212.5899267094044
 30
0.0
 40
2.351999999999999
  1
52
 41
0.8
  7
CHINESET
100
AcDbText
  0
TEXT
  5
5DB1
330
1F
100
AcDbEntity
  8
0
100
AcDbText
 10
268.2231944275181
 20
216.3531267094046
 30
0.0
 40
2.351999999999999
  1
ZZ
 41
0.8
  7
CHINESET
100
AcDbText
  0
LINE
  5
5DB2
330
1F
100
AcDbEntity
  8
0
100
AcDbLine
 10
276.6426898956594
 20
223.2203419871309
 30
0.0
 11
276.6426898956595
 21
211.930741987131
 31
0.0
  0
INSERT
  5
5DB3
330
1F
100
AcDbEntity
  8
0
100
AcDbBlockReference
  2
A$C5ECF147B
 10
224.0721951005382
 20
212.2608634810387
 30
0.0
 41
0.7526400000000422
 42
0.7526400000000422
 43
0.75264
  0
INSERT
  5
5DB4
330
1F
100
AcDbEntity
  8
0
100
AcDbBlockReference
  2
A$C5ECF147B
 10
238.321803842068
 20
212.2608634810385
 30
0.0
 41
0.7526400000000422
 42
0.7526400000000422
 43
0.75264
  0
LINE
  5
5DDB
330
1F
100
AcDbEntity
  8
AM_7
  6
ACISOTGB
 62
     2
100
AcDbLine
 10
89.14501713601987
 20
342.956489651346
 30
0.0
 11
89.14501713601987
 21
267.5567579262012
 31
0.0
1001
GENIUS_GENOBJ-N-CEN_13
1002
{
1000
OWNER
1000
GEN
1002
}
1001
GENIUS_GENODEF_13
1002
{
1000
HIER
1070
     0
1002
}
1002
{
1000
MANEDIT
1070
     0
1002
}
1002
{
1000
NOSEL
1070
     0
1002
}
1002
{
1000
BEHIND
1070
     0
1002
}
1002
{
1000
OTHER
1070
     0
1002
}
1002
{
1000
REACTOR
1002
}
1001
GENIUS_GENCEN_19
1002
{
1040
3.0
1002
}
  0
INSERT
  5
5DDC
330
1F
100
AcDbEntity
  8
0
100
AcDbBlockReference
  2
A$C1F6E6265
 10
89.14501667181331
 20
268.7225772374589
 30
0.0
  0
LINE
  5
5DE9
330
1F
100
AcDbEntity
  8
AM_7
  6
ACISOTGB
 62
     2
100
AcDbLine
 10
89.14501713601987
 20
168.9169045637081
 30
0.0
 11
89.14501713601987
 21
93.51717283856322
 31
0.0
1001
GENIUS_GENOBJ-N-CEN_13
1002
{
1000
OWNER
1000
GEN
1002
}
1001
GENIUS_GENODEF_13
1002
{
1000
HIER
1070
     0
1002
}
1002
{
1000
MANEDIT
1070
     0
1002
}
1002
{
1000
NOSEL
1070
     0
1002
}
1002
{
1000
BEHIND
1070
     0
1002
}
1002
{
1000
OTHER
1070
     0
1002
}
1002
{
1000
REACTOR
1002
}
1001
GENIUS_GENCEN_19
1002
{
1040
3.0
1002
}
  0
INSERT
  5
5DEA
330
1F
100
AcDbEntity
  8
0
100
AcDbBlockReference
  2
A$C1F6E6265
 10
89.14501667181331
 20
94.68299214982101
 30
0.0
  0
ENDSEC
  0
SECTION
  2
OBJECTS
  0
DICTIONARY
  5
C
330
0
100
AcDbDictionary
281
     1
  3
ACAD_COLOR
350
48DB
  3
ACAD_GROUP
350
D
  3
ACAD_LAYOUT
350
1A
  3
ACAD_MATERIAL
350
48DA
  3
ACAD_MLINESTYLE
350
17
  3
ACAD_PLOTSETTINGS
350
19
  3
ACAD_PLOTSTYLENAME
350
E
  3
ACAD_TABLESTYLE
350
48DC
  3
AcadDim
350
1E82
  3
ACDBHEADERROUNDTRIPXREC
350
5E6C
  3
AcDbVariableDictionary
350
1488
  3
AcmDictionary
350
4725
  3
AMG
350
470C
  3
AMGSNAPSETTINGS
350
4758
  3
DWGPROPS
350
5E6B
  0
DICTIONARY
  5
4A71
330
2
100
AcDbDictionary
280
     1
281
     1
  3
ACAD_LAYERSTATES
360
4A72
  0
DICTIONARY
  5
4673
330
1F
100
AcDbDictionary
280
     1
281
     1
  3
ACAD_INDEX
360
5DBD
  3
ACAD_LAYOUTSELFREF
360
48BD
  0
DICTIONARY
  5
4675
330
1B
100
AcDbDictionary
280
     1
281
     1
  3
ACAD_LAYOUTSELFREF
360
48BC
  0
DICTIONARY
  5
4677
330
23
100
AcDbDictionary
280
     1
281
     1
  3
ACAD_LAYOUTSELFREF
360
48BE
  0
DICTIONARY
  5
5D58
330
5D57
100
AcDbDictionary
280
     1
281
     1
  0
DICTIONARY
  5
5DC7
330
5DC6
100
AcDbDictionary
280
     1
281
     1
  3
ACAD_SORTENTS
360
5DC8
  0
DICTIONARY
  5
4F59
330
4F58
100
AcDbDictionary
280
     1
281
     1
  3
ACAD_DIMASSOC
360
4F5A
  0
DICTIONARY
  5
4F5C
330
4F5B
100
AcDbDictionary
280
     1
281
     1
  3
ACAD_DIMASSOC
360
4F5D
  0
DICTIONARY
  5
4F5F
330
4F5E
100
AcDbDictionary
280
     1
281
     1
  3
ACAD_DIMASSOC
360
4F60
  0
DICTIONARY
  5
4F62
330
4F61
100
AcDbDictionary
280
     1
281
     1
  3
ACAD_DIMASSOC
360
4F63
  0
DICTIONARY
  5
4F65
330
4F64
100
AcDbDictionary
280
     1
281
     1
  3
ACAD_DIMASSOC
360
4F66
  0
DICTIONARY
  5
4F68
330
4F67
100
AcDbDictionary
280
     1
281
     1
  3
ACAD_DIMASSOC
360
4F69
  0
DICTIONARY
  5
4F6B
330
4F6A
100
AcDbDictionary
280
     1
281
     1
  3
ACAD_DIMASSOC
360
4F6C
  0
DICTIONARY
  5
4F6E
330
4F6D
100
AcDbDictionary
280
     1
281
     1
  3
ACAD_DIMASSOC
360
4F6F
  0
DICTIONARY
  5
4F71
330
4F70
100
AcDbDictionary
280
     1
281
     1
  3
ACAD_DIMASSOC
360
4F72
  0
DICTIONARY
  5
4F74
330
4F73
100
AcDbDictionary
280
     1
281
     1
  3
ACAD_DIMASSOC
360
4F75
  0
DICTIONARY
  5
4F77
330
4F76
100
AcDbDictionary
280
     1
281
     1
  3
ACAD_DIMASSOC
360
4F78
  0
DICTIONARY
  5
4F7E
330
4F7D
100
AcDbDictionary
280
     1
281
     1
  3
ACAD_DIMASSOC
360
4F7F
  0
DICTIONARY
  5
4F83
330
4F82
100
AcDbDictionary
280
     1
281
     1
  3
ACAD_DIMASSOC
360
4F84
  0
DICTIONARY
  5
4F86
330
4F85
100
AcDbDictionary
280
     1
281
     1
  3
ACAD_DIMASSOC
360
4F87
  0
DICTIONARY
  5
4F89
330
4F88
100
AcDbDictionary
280
     1
281
     1
  3
ACAD_DIMASSOC
360
4F8A
  0
DICTIONARY
  5
4F8C
330
4F8B
100
AcDbDictionary
280
     1
281
     1
  3
ACAD_DIMASSOC
360
4F8D
  0
DICTIONARY
  5
4F8F
330
4F8E
100
AcDbDictionary
280
     1
281
     1
  3
ACAD_DIMASSOC
360
4F90
  0
DICTIONARY
  5
4F94
330
4F93
100
AcDbDictionary
280
     1
281
     1
  3
ACAD_DIMASSOC
360
4F95
  0
DICTIONARY
  5
4F97
330
4F96
100
AcDbDictionary
280
     1
281
     1
  3
ACAD_DIMASSOC
360
4F98
  0
DICTIONARY
  5
4F9A
330
4F99
100
AcDbDictionary
280
     1
281
     1
  3
ACAD_DIMASSOC
360
4F9B
  0
DICTIONARY
  5
4F9D
330
4F9C
100
AcDbDictionary
280
     1
281
     1
  3
ACAD_DIMASSOC
360
4F9E
  0
DICTIONARY
  5
4FA0
330
4F9F
100
AcDbDictionary
280
     1
281
     1
  3
ACAD_DIMASSOC
360
4FA1
  0
DICTIONARY
  5
4FA3
330
4FA2
100
AcDbDictionary
280
     1
281
     1
  3
ACAD_DIMASSOC
360
4FA4
  0
DICTIONARY
  5
4FA6
330
4FA5
100
AcDbDictionary
280
     1
281
     1
  3
ACAD_DIMASSOC
360
4FA7
  0
DICTIONARY
  5
4FA9
330
4FA8
100
AcDbDictionary
280
     1
281
     1
  3
ACAD_DIMASSOC
360
4FAA
  0
DICTIONARY
  5
4FAC
330
4FAB
100
AcDbDictionary
280
     1
281
     1
  3
ACAD_DIMASSOC
360
4FAD
  0
DICTIONARY
  5
4FB1
330
4FB0
100
AcDbDictionary
280
     1
281
     1
  3
ACAD_DIMASSOC
360
4FB2
  0
DICTIONARY
  5
4FB4
330
4FB3
100
AcDbDictionary
280
     1
281
     1
  3
ACAD_DIMASSOC
360
4FB5
  0
DICTIONARY
  5
4FB7
330
4FB6
100
AcDbDictionary
280
     1
281
     1
  3
ACAD_DIMASSOC
360
4FB8
  0
DICTIONARY
  5
4FBA
330
4FB9
100
AcDbDictionary
280
     1
281
     1
  3
ACAD_DIMASSOC
360
4FBB
  0
DICTIONARY
  5
4FBD
330
4FBC
100
AcDbDictionary
280
     1
281
     1
  3
ACAD_DIMASSOC
360
4FBE
  0
DICTIONARY
  5
48DB
102
{ACAD_REACTORS
330
C
102
}
330
C
100
AcDbDictionary
281
     1
  0
DICTIONARY
  5
D
102
{ACAD_REACTORS
330
C
102
}
330
C
100
AcDbDictionary
281
     1
  0
DICTIONARY
  5
1A
102
{ACAD_REACTORS
330
C
102
}
330
C
100
AcDbDictionary
281
     1
  3
Layout1
350
1E
  3
Layout2
350
26
  3
Model
350
22
  0
DICTIONARY
  5
48DA
102
{ACAD_REACTORS
330
C
102
}
330
C
100
AcDbDictionary
281
     1
  0
DICTIONARY
  5
17
102
{ACAD_REACTORS
330
C
102
}
330
C
100
AcDbDictionary
281
     1
  3
Standard
350
18
  0
DICTIONARY
  5
19
102
{ACAD_REACTORS
330
C
102
}
330
C
100
AcDbDictionary
281
     1
  0
ACDBDICTIONARYWDFLT
  5
E
102
{ACAD_REACTORS
330
C
102
}
330
C
100
AcDbDictionary
281
     1
  3
Normal
350
F
100
AcDbDictionaryWithDefault
340
F
1001
ACAD
1000
TREAT_AS_HARD
1070
     0
  0
DICTIONARY
  5
48DC
102
{ACAD_REACTORS
330
C
102
}
330
C
100
AcDbDictionary
281
     1
  3
Standard
350
48DD
  0
XRECORD
  5
1E82
102
{ACAD_REACTORS
330
C
102
}
330
C
100
AcDbXrecord
280
     1
 90
   990106
  3

 60
     0
 61
     0
 62
     4
 63
     4
 64
     1
 65
     0
 66
     0
 67
     3
 68
     1
 69
     0
 70
     0
 71
     0
 72
     0
 40
0.0
170
     2
340
0
  0
DICTIONARY
  5
5E6C
102
{ACAD_REACTORS
330
C
102
}
330
C
100
AcDbDictionary
281
     1
  0
DICTIONARY
  5
1488
102
{ACAD_REACTORS
330
C
102
}
330
C
100
AcDbDictionary
281
     1
  3
CTABLESTYLE
350
55C0
  3
DIMASSOC
350
47AE
  3
INDEXCTL
350
47AD
  3
PROJECTNAME
350
5BF5
  3
SORTENTS
350
1489
  0
DICTIONARY
  5
4725
102
{ACAD_REACTORS
330
C
102
}
330
C
100
AcDbDictionary
281
     1
  3
AcmStdDictionary
350
472B
  3
AMDTSECTSYM_ARROWCOLOR
350
5640
  0
DICTIONARY
  5
470C
102
{ACAD_REACTORS
330
C
102
}
330
C
100
AcDbDictionary
281
     1
  0
DICTIONARY
  5
4758
102
{ACAD_REACTORS
330
C
102
}
330
C
100
AcDbDictionary
281
     1
  0
XRECORD
  5
5E6B
102
{ACAD_REACTORS
330
C
102
}
330
C
100
AcDbXrecord
280
     1
  1
DWGPROPS COOKIE
  2

  3

  4

  6

  7

  8

  9

300
AmdtFileType=84
301
=
302
=
303
=
304
=
305
=
306
=
307
=
308
=
309
=
 40
0.4036547222222222
 41
2452019.631085301
 42
2454308.388577292
  1

 90
        1
  0
DICTIONARY
  5
4A72
102
{ACAD_REACTORS
330
4A71
102
}
330
4A71
100
AcDbDictionary
281
     1
  0
DICTIONARY
  5
5DBD
102
{ACAD_REACTORS
330
4673
102
}
330
4673
100
AcDbDictionary
281
     1
  3
*A1
350
5DBE
  0
XRECORD
  5
48BD
102
{ACAD_REACTORS
330
4673
102
}
330
4673
100
AcDbXrecord
280
     1
340
1F
  0
XRECORD
  5
48BC
102
{ACAD_REACTORS
330
4675
102
}
330
4675
100
AcDbXrecord
280
     1
340
1B
  0
XRECORD
  5
48BE
102
{ACAD_REACTORS
330
4677
102
}
330
4677
100
AcDbXrecord
280
     1
340
23
  0
SORTENTSTABLE
  5
5DC8
102
{ACAD_REACTORS
330
5DC7
102
}
330
5DC7
100
AcDbSortentsTable
330
5DC6
  0
DIMASSOC
  5
4F5A
102
{ACAD_REACTORS
330
4F59
102
}
330
4F59
100
AcDbDimAssoc
330
4F58
 90
        3
 70
     0
 71
     0
  1
AcDbOsnapPointRef
 72
     1
331
4E48
 73
     2
 91
        0
 40
1.0
 10
0.0
 20
0.0
 30
2.000000000000000E+50
 75
     0
  1
AcDbOsnapPointRef
 72
     2
331
4E50
 73
     2
 91
        0
 40
6.291242584380954
 10
0.0
 20
0.0
 30
0.0
 75
     0
  0
DIMASSOC
  5
4F5D
102
{ACAD_REACTORS
330
4F5C
102
}
330
4F5C
100
AcDbDimAssoc
330
4F5B
 90
        3
 70
     0
 71
     0
  1
AcDbOsnapPointRef
 72
    13
331
4E44
 73
     2
 91
        0
 40
0.0
 10
0.0
 20
0.0
 30
2.000000000000000E+50
 75
     0
  1
AcDbOsnapPointRef
 72
     1
331
4E3F
 73
     2
 91
        0
 40
0.9999999999999998
 10
0.0
 20
0.0
 30
2.000000000000000E+50
 75
     0
  0
DIMASSOC
  5
4F60
102
{ACAD_REACTORS
330
4F5F
102
}
330
4F5F
100
AcDbDimAssoc
330
4F5E
 90
        3
 70
     0
 71
     0
  1
AcDbOsnapPointRef
 72
     1
331
4D54
 73
     2
 91
        0
 40
1.0
 10
0.0
 20
0.0
 30
2.000000000000000E+50
 75
     0
  1
AcDbOsnapPointRef
 72
     1
331
4E3F
 73
     2
 91
        0
 40
0.9999999999999998
 10
0.0
 20
0.0
 30
2.000000000000000E+50
 75
     0
  0
DIMASSOC
  5
4F63
102
{ACAD_REACTORS
330
4F62
102
}
330
4F62
100
AcDbDimAssoc
330
4F61
 90
        3
 70
     0
 71
     0
  1
AcDbOsnapPointRef
 72
    13
331
4D4E
 73
     2
 91
        0
 40
0.0
 10
0.0
 20
0.0
 30
2.000000000000000E+50
 75
     0
  1
AcDbOsnapPointRef
 72
     1
331
4D53
 73
     2
 91
        0
 40
0.9999999999999998
 10
0.0
 20
0.0
 30
2.000000000000000E+50
 75
     0
  0
DIMASSOC
  5
4F66
102
{ACAD_REACTORS
330
4F65
102
}
330
4F65
100
AcDbDimAssoc
330
4F64
 90
        3
 70
     0
 71
     0
  1
AcDbOsnapPointRef
 72
    13
331
4D4E
 73
     2
 91
        0
 40
0.0
 10
0.0
 20
0.0
 30
2.000000000000000E+50
 75
     0
  1
AcDbOsnapPointRef
 72
     1
331
4E3F
 73
     2
 91
        0
 40
0.9999999999999998
 10
0.0
 20
0.0
 30
2.000000000000000E+50
 75
     0
  0
DIMASSOC
  5
4F69
102
{ACAD_REACTORS
330
4F68
102
}
330
4F68
100
AcDbDimAssoc
330
4F67
 90
        3
 70
     0
 71
     0
  1
AcDbOsnapPointRef
 72
    13
331
4D4F
 73
     2
 91
        0
 40
0.0
 10
0.0
 20
0.0
 30
2.000000000000000E+50
 75
     0
  1
AcDbOsnapPointRef
 72
    13
331
4E6A
 73
     2
 91
        0
 40
0.0
 10
0.0
 20
0.0
 30
2.000000000000000E+50
 75
     0
  0
DIMASSOC
  5
4F6C
102
{ACAD_REACTORS
330
4F6B
102
}
330
4F6B
100
AcDbDimAssoc
330
4F6A
 90
        3
 70
     0
 71
     0
  1
AcDbOsnapPointRef
 72
    13
331
4D4F
 73
     2
 91
        0
 40
0.0
 10
0.0
 20
0.0
 30
2.000000000000000E+50
 75
     0
  1
AcDbOsnapPointRef
 72
     1
331
4E3F
 73
     2
 91
        0
 40
0.9999999999999998
 10
0.0
 20
0.0
 30
2.000000000000000E+50
 75
     0
  0
DIMASSOC
  5
4F6F
102
{ACAD_REACTORS
330
4F6E
102
}
330
4F6E
100
AcDbDimAssoc
330
4F6D
 90
        3
 70
     0
 71
     0
  1
AcDbOsnapPointRef
 72
    13
331
4D4F
 73
     2
 91
        0
 40
0.0
 10
0.0
 20
0.0
 30
2.000000000000000E+50
 75
     0
  1
AcDbOsnapPointRef
 72
    13
331
4D50
 73
     2
 91
        0
 40
0.0
 10
0.0
 20
0.0
 30
2.000000000000000E+50
 75
     0
  0
DIMASSOC
  5
4F72
102
{ACAD_REACTORS
330
4F71
102
}
330
4F71
100
AcDbDimAssoc
330
4F70
 90
        3
 70
     0
 71
     0
  1
AcDbOsnapPointRef
 72
    13
331
4D4D
 73
     2
 91
        0
 40
0.0
 10
0.0
 20
0.0
 30
2.000000000000000E+50
 75
     0
  1
AcDbOsnapPointRef
 72
    13
331
4D4E
 73
     2
 91
        0
 40
0.0
 10
0.0
 20
0.0
 30
2.000000000000000E+50
 75
     0
  0
DIMASSOC
  5
4F75
102
{ACAD_REACTORS
330
4F74
102
}
330
4F74
100
AcDbDimAssoc
330
4F73
 90
        3
 70
     0
 71
     0
  1
AcDbOsnapPointRef
 72
    13
331
4E59
 73
     2
 91
        0
 40
0.0
 10
0.0
 20
0.0
 30
2.000000000000000E+50
 75
     0
  1
AcDbOsnapPointRef
 72
    13
331
4E57
 73
     2
 91
        0
 40
0.0
 10
0.0
 20
0.0
 30
2.000000000000000E+50
 75
     0
  0
DIMASSOC
  5
4F78
102
{ACAD_REACTORS
330
4F77
102
}
330
4F77
100
AcDbDimAssoc
330
4F76
 90
        3
 70
     0
 71
     0
  1
AcDbOsnapPointRef
 72
    13
331
4D48
 73
     2
 91
        0
 40
0.0
 10
0.0
 20
0.0
 30
2.000000000000000E+50
 75
     0
  1
AcDbOsnapPointRef
 72
    13
331
4D53
 73
     2
 91
        0
 40
0.0
 10
0.0
 20
0.0
 30
2.000000000000000E+50
 75
     0
  0
DIMASSOC
  5
4F7F
102
{ACAD_REACTORS
330
4F7E
102
}
330
4F7E
100
AcDbDimAssoc
330
4F7D
 90
        3
 70
     0
 71
     0
  1
AcDbOsnapPointRef
 72
     1
331
4D49
 73
     2
 91
        0
 40
3.696403686569886
 10
0.0
 20
0.0
 30
2.000000000000000E+50
 75
     0
  1
AcDbOsnapPointRef
 72
    13
331
4E3E
 73
     2
 91
        0
 40
0.0
 10
0.0
 20
0.0
 30
2.000000000000000E+50
 75
     0
  0
DIMASSOC
  5
4F84
102
{ACAD_REACTORS
330
4F83
102
}
330
4F83
100
AcDbDimAssoc
330
4F82
 90
        3
 70
     0
 71
     0
  1
AcDbOsnapPointRef
 72
    13
331
4F4F
 73
     2
 91
        0
 40
0.0
 10
0.0
 20
0.0
 30
2.000000000000000E+50
 75
     0
  1
AcDbOsnapPointRef
 72
    13
331
4F4D
 73
     2
 91
        0
 40
0.0
 10
0.0
 20
0.0
 30
2.000000000000000E+50
 75
     0
  0
DIMASSOC
  5
4F87
102
{ACAD_REACTORS
330
4F86
102
}
330
4F86
100
AcDbDimAssoc
330
4F85
 90
        3
 70
     0
 71
     0
  1
AcDbOsnapPointRef
 72
    13
331
4DAA
 73
     2
 91
        0
 40
0.0
 10
0.0
 20
0.0
 30
2.000000000000000E+50
 75
     0
  1
AcDbOsnapPointRef
 72
     6
331
4E08
 73
     2
 91
        0
 40
0.0000000000000172
 10
0.0
 20
0.0
 30
0.0
332
4E33
 74
     2
 92
        0
 75
     0
  0
DIMASSOC
  5
4F8A
102
{ACAD_REACTORS
330
4F89
102
}
330
4F89
100
AcDbDimAssoc
330
4F88
 90
        3
 70
     0
 71
     0
  1
AcDbOsnapPointRef
 72
    13
331
4DAD
 73
     2
 91
        0
 40
0.0
 10
0.0
 20
0.0
 30
2.000000000000000E+50
 75
     0
  1
AcDbOsnapPointRef
 72
    13
331
4E08
 73
     2
 91
        0
 40
0.0
 10
0.0
 20
0.0
 30
2.000000000000000E+50
 75
     0
  0
DIMASSOC
  5
4F8D
102
{ACAD_REACTORS
330
4F8C
102
}
330
4F8C
100
AcDbDimAssoc
330
4F8B
 90
        3
 70
     0
 71
     0
  1
AcDbOsnapPointRef
 72
     1
331
4E39
 73
     2
 91
        0
 40
1.0
 10
0.0
 20
0.0
 30
2.000000000000000E+50
 75
     0
  1
AcDbOsnapPointRef
 72
     6
331
4DD4
 73
     2
 91
        0
 40
-0.0000000000001724
 10
0.0
 20
0.0
 30
0.0
332
4DBC
 74
     2
 92
        0
 75
     0
  0
DIMASSOC
  5
4F90
102
{ACAD_REACTORS
330
4F8F
102
}
330
4F8F
100
AcDbDimAssoc
330
4F8E
 90
        3
 70
     0
 71
     0
  1
AcDbOsnapPointRef
 72
     2
331
4DAE
 73
     2
 91
        0
 40
3.83182393573969
 10
0.0
 20
0.0
 30
0.0
 75
     0
  1
AcDbOsnapPointRef
 72
     2
331
4DAF
 73
     2
 91
        0
 40
2.451361371439896
 10
0.0
 20
0.0
 30
0.0
 75
     0
  0
DIMASSOC
  5
4F95
102
{ACAD_REACTORS
330
4F94
102
}
330
4F94
100
AcDbDimAssoc
330
4F93
 90
        3
 70
     0
 71
     0
  1
AcDbOsnapPointRef
 72
    13
331
4D2B
 73
     2
 91
        0
 40
0.0
 10
0.0
 20
0.0
 30
2.000000000000000E+50
 75
     0
  1
AcDbOsnapPointRef
 72
    13
331
4D34
 73
     2
 91
        0
 40
0.0
 10
0.0
 20
0.0
 30
2.000000000000000E+50
 75
     0
  0
DIMASSOC
  5
4F98
102
{ACAD_REACTORS
330
4F97
102
}
330
4F97
100
AcDbDimAssoc
330
4F96
 90
        3
 70
     0
 71
     0
  1
AcDbOsnapPointRef
 72
    13
331
4D2B
 73
     2
 91
        0
 40
0.0
 10
0.0
 20
0.0
 30
2.000000000000000E+50
 75
     0
  1
AcDbOsnapPointRef
 72
     1
331
4D38
 73
     2
 91
        0
 40
0.9999999999999998
 10
0.0
 20
0.0
 30
2.000000000000000E+50
 75
     0
  0
DIMASSOC
  5
4F9B
102
{ACAD_REACTORS
330
4F9A
102
}
330
4F9A
100
AcDbDimAssoc
330
4F99
 90
        3
 70
     0
 71
     0
  1
AcDbOsnapPointRef
 72
    13
331
4F3A
 73
     2
 91
        0
 40
0.0
 10
0.0
 20
0.0
 30
2.000000000000000E+50
 75
     0
  1
AcDbOsnapPointRef
 72
    13
331
4F3B
 73
     2
 91
        0
 40
0.0
 10
0.0
 20
0.0
 30
2.000000000000000E+50
 75
     0
  0
DIMASSOC
  5
4F9E
102
{ACAD_REACTORS
330
4F9D
102
}
330
4F9D
100
AcDbDimAssoc
330
4F9C
 90
        3
 70
     0
 71
     0
  1
AcDbOsnapPointRef
 72
    13
331
4F39
 73
     2
 91
        0
 40
0.0
 10
0.0
 20
0.0
 30
2.000000000000000E+50
 75
     0
  1
AcDbOsnapPointRef
 72
    13
331
4D2B
 73
     2
 91
        0
 40
0.0
 10
0.0
 20
0.0
 30
2.000000000000000E+50
 75
     0
  0
DIMASSOC
  5
4FA1
102
{ACAD_REACTORS
330
4FA0
102
}
330
4FA0
100
AcDbDimAssoc
330
4F9F
 90
        3
 70
     0
 71
     0
  1
AcDbOsnapPointRef
 72
     1
331
4F49
 73
     2
 91
        0
 40
1.0
 10
0.0
 20
0.0
 30
2.000000000000000E+50
 75
     0
  1
AcDbOsnapPointRef
 72
    13
331
4D2B
 73
     2
 91
        0
 40
0.0
 10
0.0
 20
0.0
 30
2.000000000000000E+50
 75
     0
  0
DIMASSOC
  5
4FA4
102
{ACAD_REACTORS
330
4FA3
102
}
330
4FA3
100
AcDbDimAssoc
330
4FA2
 90
        3
 70
     0
 71
     0
  1
AcDbOsnapPointRef
 72
    13
331
4F3A
 73
     2
 91
        0
 40
0.0
 10
0.0
 20
0.0
 30
2.000000000000000E+50
 75
     0
  1
AcDbOsnapPointRef
 72
    13
331
4D22
 73
     2
 91
        0
 40
0.0
 10
0.0
 20
0.0
 30
2.000000000000000E+50
 75
     0
  0
DIMASSOC
  5
4FA7
102
{ACAD_REACTORS
330
4FA6
102
}
330
4FA6
100
AcDbDimAssoc
330
4FA5
 90
        3
 70
     0
 71
     0
  1
AcDbOsnapPointRef
 72
     1
331
4D26
 73
     2
 91
        0
 40
1.0
 10
0.0
 20
0.0
 30
2.000000000000000E+50
 75
     0
  1
AcDbOsnapPointRef
 72
    13
331
4D3B
 73
     2
 91
        0
 40
0.0
 10
0.0
 20
0.0
 30
2.000000000000000E+50
 75
     0
  0
DIMASSOC
  5
4FAA
102
{ACAD_REACTORS
330
4FA9
102
}
330
4FA9
100
AcDbDimAssoc
330
4FA8
 90
        3
 70
     0
 71
     0
  1
AcDbOsnapPointRef
 72
     1
331
4D25
 73
     2
 91
        0
 40
1.0
 10
0.0
 20
0.0
 30
2.000000000000000E+50
 75
     0
  1
AcDbOsnapPointRef
 72
    13
331
4D38
 73
     2
 91
        0
 40
0.0
 10
0.0
 20
0.0
 30
2.000000000000000E+50
 75
     0
  0
DIMASSOC
  5
4FAD
102
{ACAD_REACTORS
330
4FAC
102
}
330
4FAC
100
AcDbDimAssoc
330
4FAB
 90
        3
 70
     0
 71
     0
  1
AcDbOsnapPointRef
 72
     1
331
4D2C
 73
     2
 91
        0
 40
3.696403686569886
 10
0.0
 20
0.0
 30
2.000000000000000E+50
 75
     0
  1
AcDbOsnapPointRef
 72
    13
331
4D28
 73
     2
 91
        0
 40
0.0
 10
0.0
 20
0.0
 30
2.000000000000000E+50
 75
     0
  0
DIMASSOC
  5
4FB2
102
{ACAD_REACTORS
330
4FB1
102
}
330
4FB1
100
AcDbDimAssoc
330
4FB0
 90
        3
 70
     0
 71
     0
  1
AcDbOsnapPointRef
 72
    13
331
4F4F
 73
     2
 91
        0
 40
0.0
 10
0.0
 20
0.0
 30
2.000000000000000E+50
 75
     0
  1
AcDbOsnapPointRef
 72
    13
331
4F4D
 73
     2
 91
        0
 40
0.0
 10
0.0
 20
0.0
 30
2.000000000000000E+50
 75
     0
  0
DIMASSOC
  5
4FB5
102
{ACAD_REACTORS
330
4FB4
102
}
330
4FB4
100
AcDbDimAssoc
330
4FB3
 90
        3
 70
     0
 71
     0
  1
AcDbOsnapPointRef
 72
    13
331
4DAA
 73
     2
 91
        0
 40
0.0
 10
0.0
 20
0.0
 30
2.000000000000000E+50
 75
     0
  1
AcDbOsnapPointRef
 72
     6
331
4E08
 73
     2
 91
        0
 40
0.0000000000000172
 10
0.0
 20
0.0
 30
0.0
332
4E33
 74
     2
 92
        0
 75
     0
  0
DIMASSOC
  5
4FB8
102
{ACAD_REACTORS
330
4FB7
102
}
330
4FB7
100
AcDbDimAssoc
330
4FB6
 90
        3
 70
     0
 71
     0
  1
AcDbOsnapPointRef
 72
    13
331
4DAD
 73
     2
 91
        0
 40
0.0
 10
0.0
 20
0.0
 30
2.000000000000000E+50
 75
     0
  1
AcDbOsnapPointRef
 72
    13
331
4E08
 73
     2
 91
        0
 40
0.0
 10
0.0
 20
0.0
 30
2.000000000000000E+50
 75
     0
  0
DIMASSOC
  5
4FBB
102
{ACAD_REACTORS
330
4FBA
102
}
330
4FBA
100
AcDbDimAssoc
330
4FB9
 90
        3
 70
     0
 71
     0
  1
AcDbOsnapPointRef
 72
     1
331
4E39
 73
     2
 91
        0
 40
1.0
 10
0.0
 20
0.0
 30
2.000000000000000E+50
 75
     0
  1
AcDbOsnapPointRef
 72
     6
331
4DD4
 73
     2
 91
        0
 40
-0.0000000000001724
 10
0.0
 20
0.0
 30
0.0
332
4DBC
 74
     2
 92
        0
 75
     0
  0
DIMASSOC
  5
4FBE
102
{ACAD_REACTORS
330
4FBD
102
}
330
4FBD
100
AcDbDimAssoc
330
4FBC
 90
        3
 70
     0
 71
     0
  1
AcDbOsnapPointRef
 72
     2
331
4DAE
 73
     2
 91
        0
 40
3.83182393573969
 10
0.0
 20
0.0
 30
0.0
 75
     0
  1
AcDbOsnapPointRef
 72
     2
331
4DAF
 73
     2
 91
        0
 40
2.451361371439896
 10
0.0
 20
0.0
 30
0.0
 75
     0
  0
LAYOUT
  5
1E
102
{ACAD_XDICTIONARY
360
5E6D
102
}
102
{ACAD_REACTORS
330
1A
102
}
330
1A
100
AcDbPlotSettings
  1

  2

  4

  6

 40
0.0
 41
0.0
 42
0.0
 43
0.0
 44
0.0
 45
0.0
 46
0.0
 47
0.0
 48
0.0
 49
0.0
140
0.0
141
0.0
142
1.0
143
1.0
 70
   688
 72
     0
 73
     0
 74
     5
  7

 75
    16
147
1.0
148
0.0
149
0.0
100
AcDbLayout
  1
Layout1
 70
     1
 71
     1
 10
0.0
 20
0.0
 11
12.0
 21
9.0
 12
0.0
 22
0.0
 32
0.0
 14
1.000000000000000E+20
 24
1.000000000000000E+20
 34
1.000000000000000E+20
 15
-1.000000000000000E+20
 25
-1.000000000000000E+20
 35
-1.000000000000000E+20
146
0.0
 13
0.0
 23
0.0
 33
0.0
 16
1.0
 26
0.0
 36
0.0
 17
0.0
 27
1.0
 37
0.0
 76
     0
330
1B
  0
LAYOUT
  5
26
102
{ACAD_XDICTIONARY
360
5E71
102
}
102
{ACAD_REACTORS
330
1A
102
}
330
1A
100
AcDbPlotSettings
  1

  2

  4

  6

 40
0.0
 41
0.0
 42
0.0
 43
0.0
 44
0.0
 45
0.0
 46
0.0
 47
0.0
 48
0.0
 49
0.0
140
0.0
141
0.0
142
1.0
143
1.0
 70
   688
 72
     0
 73
     0
 74
     5
  7

 75
    16
147
1.0
148
0.0
149
0.0
100
AcDbLayout
  1
Layout2
 70
     1
 71
     2
 10
0.0
 20
0.0
 11
12.0
 21
9.0
 12
0.0
 22
0.0
 32
0.0
 14
0.0
 24
0.0
 34
0.0
 15
0.0
 25
0.0
 35
0.0
146
0.0
 13
0.0
 23
0.0
 33
0.0
 16
1.0
 26
0.0
 36
0.0
 17
0.0
 27
1.0
 37
0.0
 76
     0
330
23
  0
LAYOUT
  5
22
102
{ACAD_XDICTIONARY
360
5E6F
102
}
102
{ACAD_REACTORS
330
1A
102
}
330
1A
100
AcDbPlotSettings
  1

  2
DWF Classic.pc3
  4
ISO_A3_(420.00_x_297.00_MM)
  6

 40
5.793749809265136
 41
17.79375076293945
 42
5.79376220703125
 43
17.79376220703125
 44
420.0
 45
297.0
 46
31.5
 47
0.0
 48
0.0
 49
0.0
140
0.0
141
0.0
142
1.0
143
1.040956525863997
 70
 11956
 72
     1
 73
     1
 74
     1
  7

 75
     0
147
0.9606549122404478
148
0.4787910136826668
149
0.4766328058566387
100
AcDbLayout
  1
Model
 70
     1
 71
     0
 10
0.0
 20
0.0
 11
12.0
 21
9.0
 12
0.0
 22
0.0
 32
0.0
 14
0.0
 24
0.0
 34
0.0
 15
0.0
 25
0.0
 35
0.0
146
0.0
 13
0.0
 23
0.0
 33
0.0
 16
1.0
 26
0.0
 36
0.0
 17
0.0
 27
1.0
 37
0.0
 76
     0
330
1F
  0
MLINESTYLE
  5
18
102
{ACAD_REACTORS
330
17
102
}
330
17
100
AcDbMlineStyle
  2
STANDARD
 70
     0
  3

 62
   256
 51
90.0
 52
90.0
 71
     2
 49
0.5
 62
   256
  6
BYLAYER
 49
-0.5
 62
   256
  6
BYLAYER
  0
ACDBPLACEHOLDER
  5
F
102
{ACAD_REACTORS
330
E
102
}
330
E
  0
TABLESTYLE
  5
48DD
102
{ACAD_REACTORS
330
48DC
102
}
330
48DC
100
AcDbTableStyle
  3
Standard
 70
     0
 71
     0
 40
1.5
 41
1.5
280
     0
281
     0
  7
Standard
140
4.5
170
     2
 62
     0
 63
     7
283
     0
274
    -2
284
     1
 64
     0
275
    -2
285
     1
 65
     0
276
    -2
286
     1
 66
     0
277
    -2
287
     1
 67
     0
278
    -2
288
     1
 68
     0
279
    -2
289
     1
 69
     0
  7
Standard
140
6.0
170
     5
 62
     0
 63
     7
283
     0
274
    -2
284
     1
 64
     0
275
    -2
285
     1
 65
     0
276
    -2
286
     1
 66
     0
277
    -2
287
     1
 67
     0
278
    -2
288
     1
 68
     0
279
    -2
289
     1
 69
     0
  7
Standard
140
4.5
170
     5
 62
     0
 63
     7
283
     0
274
    -2
284
     1
 64
     0
275
    -2
285
     1
 65
     0
276
    -2
286
     1
 66
     0
277
    -2
287
     1
 67
     0
278
    -2
288
     1
 68
     0
279
    -2
289
     1
 69
     0
  0
DICTIONARYVAR
  5
55C0
102
{ACAD_REACTORS
330
1488
102
}
330
1488
100
DictionaryVariables
280
     0
  1
STANDARD
  0
DICTIONARYVAR
  5
47AE
102
{ACAD_REACTORS
330
1488
102
}
330
1488
100
DictionaryVariables
280
     0
  1
1
  0
DICTIONARYVAR
  5
47AD
102
{ACAD_REACTORS
330
1488
102
}
330
1488
100
DictionaryVariables
280
     0
  1
1
  0
DICTIONARYVAR
  5
5BF5
102
{ACAD_REACTORS
330
1488
102
}
330
1488
100
DictionaryVariables
280
     0
  1

  0
DICTIONARYVAR
  5
1489
102
{ACAD_REACTORS
330
1488
102
}
330
1488
100
DictionaryVariables
280
     0
  1
96
  0
DICTIONARY
  5
472B
102
{ACAD_REACTORS
330
4725
102
}
330
4725
100
AcDbDictionary
281
     1
  0
XRECORD
  5
5640
102
{ACAD_REACTORS
330
4725
102
}
330
4725
100
AcDbXrecord
280
     1
 90
-1023410169
  0
LAYER_INDEX
  5
5DBE
102
{ACAD_REACTORS
330
5DBD
102
}
330
5DBD
100
AcDbIndex
 40
2454308.388577292
100
AcDbLayerIndex
  8
0
360
5E63
 90
      611
  8
DIM
360
5E64
 90
       50
  8
CENTER
360
5E65
 90
       26
  8
LOGO
360
5E66
 90
      127
  8
Defpoints
360
5E67
 90
        0
  8
AM_7
360
5E68
 90
        2
  8
AM_5
360
5E69
 90
        0
  0
DICTIONARY
  5
5E6D
330
1E
100
AcDbDictionary
280
     1
281
     1
  3
ACAD_XREC_ROUNDTRIP
360
5E6E
  0
DICTIONARY
  5
5E71
330
26
100
AcDbDictionary
280
     1
281
     1
  3
ACAD_XREC_ROUNDTRIP
360
5E72
  0
DICTIONARY
  5
5E6F
330
22
100
AcDbDictionary
280
     1
281
     1
  3
ACAD_XREC_ROUNDTRIP
360
5E70
  0
IDBUFFER
  5
5E63
330
0
100
AcDbIdBuffer
330
4F0D
330
4F0E
330
4F0F
330
4F10
330
4F11
330
4F12
330
4F13
330
4F14
330
4F15
330
4F16
330
4F17
330
4F18
330
4F19
330
4F1A
330
4F1B
330
4F1C
330
4F1D
330
4F1E
330
4F1F
330
4F20
330
4F21
330
4F22
330
4F23
330
4F24
330
4F25
330
4F26
330
4F27
330
4F28
330
4F29
330
4F2A
330
4F2B
330
4F2C
330
4F2D
330
4F2E
330
4F2F
330
4F30
330
4F31
330
4F32
330
4F33
330
4F34
330
4F35
330
4F36
330
4F37
330
4F38
330
4F3A
330
4F3C
330
4F3D
330
4F3E
330
4F3F
330
4F40
330
4F41
330
4F42
330
4F43
330
4F44
330
4F45
330
4F46
330
4F47
330
4F48
330
4F49
330
57D9
330
57DA
330
57DB
330
5CCE
330
5D7C
330
5D7D
330
5D7E
330
5D7F
330
5D80
330
5D81
330
5D82
330
5D83
330
5D84
330
5D85
330
5D86
330
5D87
330
5D88
330
5D89
330
5D8A
330
5D8B
330
5D8C
330
5D8D
330
5D8E
330
5D8F
330
5D90
330
5D91
330
5D92
330
5D93
330
5D94
330
5D9C
330
5D9D
330
5D9E
330
5D9F
330
5DA0
330
5DA1
330
5DA2
330
5DA3
330
5DA4
330
5DA5
330
5DA6
330
5DA7
330
5DA8
330
5DA9
330
5DAA
330
5DAB
330
5DAC
330
5DAD
330
5DAE
330
5DAF
330
5DB0
330
5DB1
330
5DB2
330
5DB3
330
5DB4
330
5DDC
330
5DEA
330
A9
330
AA
330
AB
330
AC
330
B1
330
B2
330
10B3
330
17B4
330
17B5
330
17BF
330
18E7
330
18EA
330
4D1F
330
4D20
330
4D21
330
4D22
330
4D23
330
4D24
330
4D25
330
4D26
330
4D27
330
4D28
330
4D2A
330
4D2B
330
4D2C
330
4D2D
330
4D2E
330
4D2F
330
4D30
330
4D31
330
4D32
330
4D33
330
4D34
330
4D35
330
4D36
330
4D37
330
4D38
330
4D39
330
4D3A
330
4D3B
330
4D3C
330
4D3D
330
4D3E
330
4D3F
330
4D40
330
4D41
330
4D42
330
4D43
330
4D44
330
4D45
330
4D46
330
4D47
330
4D48
330
4D49
330
4D4A
330
4D4C
330
4D4E
330
4D4F
330
4D51
330
4D52
330
4D53
330
4D54
330
4D55
330
4D56
330
4D57
330
4D58
330
4D59
330
4D5A
330
4D5B
330
4D5C
330
4D5D
330
4D5E
330
4D5F
330
4D60
330
4D61
330
4D62
330
4D63
330
4D66
330
4D67
330
4D68
330
4D69
330
4D6A
330
4D6B
330
4D6C
330
4D6D
330
4D6E
330
4D6F
330
4D70
330
4D71
330
4D72
330
4D73
330
4D74
330
4D75
330
4D76
330
4D77
330
4D78
330
4D79
330
4D7A
330
4D7B
330
4D7C
330
4D7D
330
4D7E
330
4D7F
330
4D80
330
4D81
330
4D82
330
4D83
330
4D84
330
4D85
330
4D86
330
4D87
330
4D88
330
4D89
330
4D8A
330
4D8B
330
4D8C
330
4D8D
330
4D8E
330
4D8F
330
4D90
330
4D91
330
4D92
330
4D93
330
4D94
330
4D95
330
4D96
330
4D97
330
4D98
330
4D99
330
4D9A
330
4D9B
330
4D9C
330
4D9D
330
4D9E
330
4D9F
330
4DA0
330
4DA1
330
4DA2
330
4DA3
330
4DA4
330
4DA5
330
4DA6
330
4DA7
330
4DA8
330
4DA9
330
4DAA
330
4DAB
330
4DAC
330
4DAD
330
4DAE
330
4DAF
330
4DB0
330
4DB1
330
4DB2
330
4DB3
330
4DB4
330
4DB5
330
4DB6
330
4DB7
330
4DB8
330
4DB9
330
4DBA
330
4DBB
330
4DBC
330
4DBD
330
4DBE
330
4DBF
330
4DC0
330
4DC1
330
4DC2
330
4DC3
330
4DC4
330
4DC5
330
4DC6
330
4DC7
330
4DC8
330
4DC9
330
4DCA
330
4DCB
330
4DCC
330
4DCD
330
4DCE
330
4DCF
330
4DD0
330
4DD1
330
4DD2
330
4DD3
330
4DD4
330
4DD5
330
4DD6
330
4DD7
330
4DD8
330
4DD9
330
4DDA
330
4DDB
330
4DDC
330
4DDD
330
4DDE
330
4DDF
330
4DE0
330
4DE1
330
4DE2
330
4DE3
330
4DE4
330
4DE5
330
4DE6
330
4DE7
330
4DE8
330
4DE9
330
4DEA
330
4DEB
330
4DEC
330
4DED
330
4DEE
330
4DEF
330
4DF0
330
4DF1
330
4DF2
330
4DF3
330
4DF4
330
4DF5
330
4DF6
330
4DF7
330
4DF8
330
4DF9
330
4DFA
330
4DFB
330
4DFC
330
4DFD
330
4DFE
330
4DFF
330
4E00
330
4E01
330
4E02
330
4E03
330
4E04
330
4E05
330
4E06
330
4E07
330
4E08
330
4E09
330
4E0A
330
4E0B
330
4E0C
330
4E0D
330
4E0E
330
4E0F
330
4E10
330
4E11
330
4E12
330
4E13
330
4E14
330
4E15
330
4E16
330
4E17
330
4E18
330
4E19
330
4E1A
330
4E1B
330
4E1C
330
4E1D
330
4E1E
330
4E1F
330
4E20
330
4E21
330
4E22
330
4E23
330
4E24
330
4E25
330
4E26
330
4E27
330
4E28
330
4E29
330
4E2A
330
4E2B
330
4E2C
330
4E2D
330
4E2E
330
4E2F
330
4E30
330
4E31
330
4E32
330
4E33
330
4E34
330
4E35
330
4E36
330
4E37
330
4E38
330
4E39
330
4E3A
330
4E3B
330
4E3C
330
4E3D
330
4E3E
330
4E3F
330
4E40
330
4E41
330
4E42
330
4E43
330
4E44
330
4E45
330
4E46
330
4E47
330
4E48
330
4E49
330
4E4A
330
4E4B
330
4E4C
330
4E4D
330
4E4E
330
4E4F
330
4E50
330
4E51
330
4E52
330
4E53
330
4E54
330
4E55
330
4E56
330
4E57
330
4E58
330
4E59
330
4E5C
330
4E5D
330
4E5E
330
4E5F
330
4E60
330
4E61
330
4E62
330
4E63
330
4E64
330
4E65
330
4E66
330
4E67
330
4E68
330
4E69
330
4E6A
330
4E6B
330
4E6C
330
4E6D
330
4E6E
330
4E71
330
4E72
330
4E73
330
4E74
330
4E75
330
4E76
330
4E77
330
4E78
330
4E79
330
4E7A
330
4E7B
330
4E7C
330
4E7D
330
4E7E
330
4E7F
330
4E80
330
4E81
330
4E82
330
4E83
330
4E84
330
4E85
330
4E86
330
4E87
330
4E88
330
4E89
330
4E8A
330
4E8B
330
4E8C
330
4E8D
330
4E8E
330
4E8F
330
4E90
330
4E91
330
4E92
330
4E93
330
4E94
330
4E95
330
4E96
330
4E97
330
4E98
330
4E99
330
4E9A
330
4E9B
330
4E9C
330
4E9D
330
4E9E
330
4E9F
330
4EA0
330
4EA1
330
4EA2
330
4EA3
330
4EA4
330
4EA5
330
4EA6
330
4EA7
330
4EA8
330
4EA9
330
4EAA
330
4EAB
330
4EAC
330
4EAD
330
4EAE
330
4EAF
330
4EB0
330
4EB1
330
4EB2
330
4EB3
330
4EB4
330
4EB5
330
4EB6
330
4EB7
330
4EB8
330
4EB9
330
4EBA
330
4EBB
330
4EBC
330
4EBD
330
4EBE
330
4EBF
330
4EC0
330
4EC1
330
4EC2
330
4EC3
330
4EC4
330
4EC5
330
4EC6
330
4EC7
330
4EC8
330
4EC9
330
4ECA
330
4ECB
330
4ECC
330
4ECD
330
4ECE
330
4ECF
330
4ED0
330
4ED1
330
4ED2
330
4ED3
330
4ED4
330
4ED5
330
4ED6
330
4ED7
330
4ED8
330
4ED9
330
4EDA
330
4EDB
330
4EDC
330
4EDD
330
4EDE
330
4EDF
330
4EE0
330
4EE1
330
4EE2
330
4EE3
330
4EE4
330
4EE5
330
4EE6
330
4EE7
330
4EE8
330
4EE9
330
4EEA
330
4EEB
330
4EEC
330
4EED
330
4EEE
330
4EEF
330
4EF0
330
4EF1
330
4EF2
330
4EF3
330
4EF4
330
4EF5
330
4EF6
330
4EF7
330
4EF8
330
4EF9
330
4EFA
330
4EFB
330
4EFC
330
4EFD
330
4EFE
330
4EFF
330
4F00
330
4F01
330
4F02
330
4F03
330
4F04
330
4F05
330
4F06
330
4F07
330
4F08
330
4F09
330
4F0A
330
4F0B
330
4F0C
  0
IDBUFFER
  5
5E64
330
0
100
AcDbIdBuffer
330
5CD1
330
5CD2
330
4F58
330
4F5B
330
4F5E
330
4F61
330
4F64
330
4F67
330
4F6A
330
4F6D
330
4F70
330
4F73
330
4F76
330
4F79
330
4F7A
330
4F7B
330
4F7C
330
4F7D
330
4F80
330
4F81
330
4F82
330
4F85
330
4F88
330
4F8B
330
4F8E
330
4F91
330
4F92
330
4F93
330
4F96
330
4F99
330
4F9C
330
4F9F
330
4FA2
330
4FA5
330
4FA8
330
4FAB
330
4FAE
330
4FAF
330
4FB0
330
4FB3
330
4FB6
330
4FB9
330
4FBC
330
4FC1
330
4FC2
330
518B
330
518E
330
5191
330
5194
330
5197
  0
IDBUFFER
  5
5E65
330
0
100
AcDbIdBuffer
330
4F4E
330
4F4F
330
4F50
330
4F51
330
4F52
330
4F53
330
4F54
330
4F55
330
4F56
330
4F57
330
4D29
330
4D4B
330
4D4D
330
4D50
330
4D64
330
4D65
330
4E5A
330
4E5B
330
4E6F
330
4E70
330
4F39
330
4F3B
330
4F4A
330
4F4B
330
4F4C
330
4F4D
  0
IDBUFFER
  5
5E66
330
0
100
AcDbIdBuffer
330
57CA
330
57CB
330
57CC
330
57CD
330
57CE
330
57CF
330
57D0
330
57D1
330
57D2
330
57D3
330
57D4
330
57D5
330
57D6
330
57D7
330
57D8
330
17BD
330
17BE
330
17C3
330
17C4
330
17C5
330
17C6
330
17C7
330
1802
330
1803
330
1804
330
1805
330
1806
330
1807
330
1808
330
1809
330
180A
330
180B
330
180C
330
180D
330
180E
330
180F
330
1810
330
1868
330
1869
330
186A
330
186B
330
186C
330
186D
330
186E
330
186F
330
1870
330
1871
330
1872
330
1873
330
1874
330
1875
330
1876
330
1877
330
1878
330
1879
330
187A
330
187B
330
187C
330
187D
330
187E
330
187F
330
1880
330
1881
330
1882
330
1883
330
1885
330
1886
330
1887
330
1888
330
1889
330
188A
330
188B
330
188C
330
188D
330
188E
330
188F
330
1890
330
1891
330
5784
330
5785
330
5786
330
5787
330
5788
330
5789
330
578A
330
578B
330
578C
330
578D
330
578E
330
578F
330
5790
330
5791
330
5792
330
5793
330
5794
330
5795
330
5796
330
5797
330
5798
330
5799
330
579A
330
579B
330
579C
330
579D
330
579E
330
579F
330
57A0
330
57A1
330
57A5
330
57A9
330
57AA
330
57AE
330
57AF
330
57B0
330
57B1
330
57B2
330
57B3
330
57B4
330
57B5
330
57B9
330
57BD
330
57C1
330
57C2
330
57C3
330
57C7
330
57C8
330
57C9
  0
IDBUFFER
  5
5E67
330
0
100
AcDbIdBuffer
  0
IDBUFFER
  5
5E68
330
0
100
AcDbIdBuffer
330
5DDB
330
5DE9
  0
IDBUFFER
  5
5E69
330
0
100
AcDbIdBuffer
  0
XRECORD
  5
5E6E
102
{ACAD_REACTORS
330
5E6D
102
}
330
5E6D
100
AcDbXrecord
280
     1
102
SHADEPLOT
 70
     0
102
SHADEPLOTRESLEVEL
 70
     2
102
SHADEPLOTCUSTOMDPI
 70
   300
  0
XRECORD
  5
5E72
102
{ACAD_REACTORS
330
5E71
102
}
330
5E71
100
AcDbXrecord
280
     1
102
SHADEPLOT
 70
     0
102
SHADEPLOTRESLEVEL
 70
     2
102
SHADEPLOTCUSTOMDPI
 70
   300
  0
XRECORD
  5
5E70
102
{ACAD_REACTORS
330
5E6F
102
}
330
5E6F
100
AcDbXrecord
280
     1
102
SHADEPLOT
 70
     0
102
SHADEPLOTRESLEVEL
 70
     2
102
SHADEPLOTCUSTOMDPI
 70
   300
  0
ENDSEC
  0
EOF
