  0
SECTION
  2
HEADER
  9
$ACADVER
  1
AC1015
  9
$ACADMAINTVER
 70
    20
  9
$DWGCODEPAGE
  3
ANSI_950
  9
$INSBASE
 10
0.0
 20
0.0
 30
0.0
  9
$EXTMIN
 10
-0.4872618818609454
 20
201.1557916113236
 30
-0.0141378128763563
  9
$EXTMAX
 10
271.6443934919706
 20
498.3687373804428
 30
231.658670251188
  9
$LIMMIN
 10
0.0
 20
0.0
  9
$LIMMAX
 10
12.0
 20
9.0
  9
$ORTHOMODE
 70
     1
  9
$REGENMODE
 70
     1
  9
$FILLMODE
 70
     1
  9
$QTEXTMODE
 70
     0
  9
$MIRRTEXT
 70
     1
  9
$LTSCALE
 40
5.0
  9
$ATTMODE
 70
     1
  9
$TEXTSIZE
 40
4.5
  9
$TRACEWID
 40
0.05
  9
$TEXTSTYLE
  7
CHINESET
  9
$CLAYER
  8
0
  9
$CELTYPE
  6
ByLayer
  9
$CECOLOR
 62
   256
  9
$CELTSCALE
 40
1.0
  9
$DISPSILH
 70
     0
  9
$DIMSCALE
 40
1.0
  9
$DIMASZ
 40
3.0
  9
$DIMEXO
 40
3.0
  9
$DIMDLI
 40
2.0
  9
$DIMRND
 40
0.0
  9
$DIMDLE
 40
0.0
  9
$DIMEXE
 40
2.0
  9
$DIMTP
 40
0.0
  9
$DIMTM
 40
0.0
  9
$DIMTXT
 40
3.0
  9
$DIMCEN
 40
-3.0
  9
$DIMTSZ
 40
0.0
  9
$DIMTOL
 70
     0
  9
$DIMLIM
 70
     0
  9
$DIMTIH
 70
     0
  9
$DIMTOH
 70
     0
  9
$DIMSE1
 70
     0
  9
$DIMSE2
 70
     0
  9
$DIMTAD
 70
     1
  9
$DIMZIN
 70
     8
  9
$DIMBLK
  1

  9
$DIMASO
 70
     1
  9
$DIMSHO
 70
     1
  9
$DIMPOST
  1

  9
$DIMAPOST
  1

  9
$DIMALT
 70
     0
  9
$DIMALTD
 70
     2
  9
$DIMALTF
 40
25.4
  9
$DIMLFAC
 40
1.0
  9
$DIMTOFL
 70
     1
  9
$DIMTVP
 40
0.0
  9
$DIMTIX
 70
     0
  9
$DIMSOXD
 70
     0
  9
$DIMSAH
 70
     0
  9
$DIMBLK1
  1

  9
$DIMBLK2
  1

  9
$DIMSTYLE
  2
ISO-25-1
  9
$DIMCLRD
 70
   256
  9
$DIMCLRE
 70
   256
  9
$DIMCLRT
 70
   256
  9
$DIMTFAC
 40
0.7
  9
$DIMGAP
 40
1.0
  9
$DIMJUST
 70
     0
  9
$DIMSD1
 70
     0
  9
$DIMSD2
 70
     0
  9
$DIMTOLJ
 70
     1
  9
$DIMTZIN
 70
     8
  9
$DIMALTZ
 70
     0
  9
$DIMALTTZ
 70
     0
  9
$DIMUPT
 70
     0
  9
$DIMDEC
 70
     2
  9
$DIMTDEC
 70
     8
  9
$DIMALTU
 70
     2
  9
$DIMALTTD
 70
     2
  9
$DIMTXSTY
  7
CHINESET
  9
$DIMAUNIT
 70
     0
  9
$DIMADEC
 70
     0
  9
$DIMALTRND
 40
0.0
  9
$DIMAZIN
 70
     2
  9
$DIMDSEP
 70
    46
  9
$DIMATFIT
 70
     0
  9
$DIMFRAC
 70
     0
  9
$DIMLDRBLK
  1

  9
$DIMLUNIT
 70
     2
  9
$DIMLWD
 70
    -1
  9
$DIMLWE
 70
    -1
  9
$DIMTMOVE
 70
     0
  9
$LUNITS
 70
     2
  9
$LUPREC
 70
     2
  9
$SKETCHINC
 40
0.1
  9
$FILLETRAD
 40
0.5
  9
$AUNITS
 70
     0
  9
$AUPREC
 70
     0
  9
$MENU
  1
.
  9
$ELEVATION
 40
0.0
  9
$PELEVATION
 40
0.0
  9
$THICKNESS
 40
0.0
  9
$LIMCHECK
 70
     0
  9
$CHAMFERA
 40
1.199999999999999
  9
$CHAMFERB
 40
1.199999999999999
  9
$CHAMFERC
 40
1.0
  9
$CHAMFERD
 40
0.0
  9
$SKPOLY
 70
     0
  9
$TDCREATE
 40
2452019.631085301
  9
$TDUCREATE
 40
2452019.297751968
  9
$TDUPDATE
 40
2454308.387734907
  9
$TDUUPDATE
 40
2454308.054401574
  9
$TDINDWG
 40
0.6932604630
  9
$TDUSRTIMER
 40
0.6932604630
  9
$USRTIMER
 70
     1
  9
$ANGBASE
 50
0.0
  9
$ANGDIR
 70
     0
  9
$PDMODE
 70
     0
  9
$PDSIZE
 40
0.0
  9
$PLINEWID
 40
0.0
  9
$SPLFRAME
 70
     0
  9
$SPLINETYPE
 70
     6
  9
$SPLINESEGS
 70
     8
  9
$HANDSEED
  5
47ED
  9
$SURFTAB1
 70
     6
  9
$SURFTAB2
 70
     6
  9
$SURFTYPE
 70
     6
  9
$SURFU
 70
     6
  9
$SURFV
 70
     6
  9
$UCSBASE
  2

  9
$UCSNAME
  2

  9
$UCSORG
 10
0.0
 20
0.0
 30
0.0
  9
$UCSXDIR
 10
1.0
 20
0.0
 30
0.0
  9
$UCSYDIR
 10
0.0
 20
1.0
 30
0.0
  9
$UCSORTHOREF
  2

  9
$UCSORTHOVIEW
 70
     0
  9
$UCSORGTOP
 10
0.0
 20
0.0
 30
0.0
  9
$UCSORGBOTTOM
 10
0.0
 20
0.0
 30
0.0
  9
$UCSORGLEFT
 10
0.0
 20
0.0
 30
0.0
  9
$UCSORGRIGHT
 10
0.0
 20
0.0
 30
0.0
  9
$UCSORGFRONT
 10
0.0
 20
0.0
 30
0.0
  9
$UCSORGBACK
 10
0.0
 20
0.0
 30
0.0
  9
$PUCSBASE
  2

  9
$PUCSNAME
  2

  9
$PUCSORG
 10
0.0
 20
0.0
 30
0.0
  9
$PUCSXDIR
 10
1.0
 20
0.0
 30
0.0
  9
$PUCSYDIR
 10
0.0
 20
1.0
 30
0.0
  9
$PUCSORTHOREF
  2

  9
$PUCSORTHOVIEW
 70
     0
  9
$PUCSORGTOP
 10
0.0
 20
0.0
 30
0.0
  9
$PUCSORGBOTTOM
 10
0.0
 20
0.0
 30
0.0
  9
$PUCSORGLEFT
 10
0.0
 20
0.0
 30
0.0
  9
$PUCSORGRIGHT
 10
0.0
 20
0.0
 30
0.0
  9
$PUCSORGFRONT
 10
0.0
 20
0.0
 30
0.0
  9
$PUCSORGBACK
 10
0.0
 20
0.0
 30
0.0
  9
$USERI1
 70
     0
  9
$USERI2
 70
     0
  9
$USERI3
 70
     0
  9
$USERI4
 70
     0
  9
$USERI5
 70
     0
  9
$USERR1
 40
0.0
  9
$USERR2
 40
0.0
  9
$USERR3
 40
0.0
  9
$USERR4
 40
0.0
  9
$USERR5
 40
0.0
  9
$WORLDVIEW
 70
     1
  9
$SHADEDGE
 70
     3
  9
$SHADEDIF
 70
    70
  9
$TILEMODE
 70
     1
  9
$MAXACTVP
 70
    48
  9
$PINSBASE
 10
0.0
 20
0.0
 30
0.0
  9
$PLIMCHECK
 70
     0
  9
$PEXTMIN
 10
1.000000000000000E+20
 20
1.000000000000000E+20
 30
1.000000000000000E+20
  9
$PEXTMAX
 10
-1.000000000000000E+20
 20
-1.000000000000000E+20
 30
-1.000000000000000E+20
  9
$PLIMMIN
 10
0.0
 20
0.0
  9
$PLIMMAX
 10
12.0
 20
9.0
  9
$UNITMODE
 70
     0
  9
$VISRETAIN
 70
     1
  9
$PLINEGEN
 70
     0
  9
$PSLTSCALE
 70
     1
  9
$TREEDEPTH
 70
  3020
  9
$CMLSTYLE
  2
Standard
  9
$CMLJUST
 70
     0
  9
$CMLSCALE
 40
1.0
  9
$PROXYGRAPHICS
 70
     1
  9
$MEASUREMENT
 70
     1
  9
$CELWEIGHT
370
    -1
  9
$ENDCAPS
280
     0
  9
$JOINSTYLE
280
     0
  9
$LWDISPLAY
290
     0
  9
$INSUNITS
 70
     1
  9
$HYPERLINKBASE
  1

  9
$STYLESHEET
  1
彩色出圖.ctb
  9
$XEDIT
290
     1
  9
$CEPSNTYPE
380
     0
  9
$PSTYLEMODE
290
     1
  9
$FINGERPRINTGUID
  2
{FDEAD576-A652-11D2-9A35-0060089B3A3F}
  9
$VERSIONGUID
  2
{C3EAF069-CDD6-4F84-AB27-48083BE89A94}
  9
$EXTNAMES
290
     1
  9
$PSVPSCALE
 40
0.0
  9
$OLESTARTUP
290
     0
  0
ENDSEC
  0
SECTION
  2
CLASSES
  0
CLASS
  1
ACDBDICTIONARYWDFLT
  2
AcDbDictionaryWithDefault
  3
ObjectDBX Classes
 90
        0
280
     0
281
     0
  0
CLASS
  1
ACDBPLACEHOLDER
  2
AcDbPlaceHolder
  3
ObjectDBX Classes
 90
        0
280
     0
281
     0
  0
CLASS
  1
LAYOUT
  2
AcDbLayout
  3
ObjectDBX Classes
 90
        0
280
     0
281
     0
  0
CLASS
  1
DICTIONARYVAR
  2
AcDbDictionaryVar
  3
ObjectDBX Classes
 90
        0
280
     0
281
     0
  0
CLASS
  1
ACME_DOCUMENT
  2
AcMeDbDoc
  3
AcMeServices
 90
        0
280
     0
281
     0
  0
CLASS
  1
AMGSETTINGSOBJ
  2
AmgSettingsObj
  3
"AcadM|Product Description: AutoCAD Mechanical 2000|Company: Autodesk"
 90
        0
280
     0
281
     0
  0
CLASS
  1
ACMESCOPE
  2
AcMeScope
  3
AcMeServices
 90
        0
280
     0
281
     0
  0
CLASS
  1
ACMECOMMANDHISTORY
  2
AcMeCommandHistory
  3
AcMeServices
 90
        0
280
     0
281
     0
  0
CLASS
  1
ACIMSYSVARMAN
  2
AcImSysVarManager
  3
AcMeServices
 90
        0
280
     0
281
     0
  0
CLASS
  1
ACIMREALSYSVAR
  2
AcImRealSysVar
  3
AcMeServices
 90
        0
280
     0
281
     0
  0
CLASS
  1
ACIMINTSYSVAR
  2
AcImIntSysVar
  3
AcMeServices
 90
        0
280
     0
281
     0
  0
CLASS
  1
ACMEDRAWINGMAN
  2
AcMeDrawingMan
  3
AcMeServices
 90
        0
280
     0
281
     0
  0
CLASS
  1
ACMEVIEW
  2
AcMeView
  3
AcMeServices
 90
        0
280
     0
281
     0
  0
CLASS
  1
ACDBENTITYCACHE
  2
AcMeEntityCache
  3
AcMeServices
 90
        0
280
     0
281
     0
  0
CLASS
  1
GSMANAGER
  2
AcMeGSManager
  3
AcMeServices
 90
        0
280
     0
281
     0
  0
CLASS
  1
AMDTINTERNALREACTOR
  2
AmdtInternalReactor
  3
AcMeServices
 90
        0
280
     0
281
     0
  0
CLASS
  1
ACMESTATEMGR
  2
AcMeStateMgr
  3
AcMeServices
 90
        0
280
     0
281
     0
  0
CLASS
  1
ACGREFMASTER
  2
AcGrefMaster
  3
AcAttribServices
 90
        0
280
     0
281
     0
  0
CLASS
  1
ACME_DATABASE
  2
AcMeDbDatabase
  3
AcMeServices
 90
        0
280
     0
281
     0
  0
CLASS
  1
ACRFINSADJUSTERMGR
  2
AcRfInsAdjusterMgr
  3
AcMeServices
 90
        0
280
     0
281
     0
  0
CLASS
  1
ACGREFACADMASTER
  2
AcGrefacadMaster
  3
AcGrefServices
 90
        0
280
     0
281
     0
  0
CLASS
  1
AMIMASTER
  2
AmiMaster
  3
AmiServices
 90
        0
280
     0
281
     0
  0
CLASS
  1
ACMDATADICTIONARY
  2
AcmDataDictionary
  3
"AcmSymBB|Product Description: AutoCAD Mechanical 2004 DX|Company: Autodesk"
 90
        0
280
     0
281
     0
  0
CLASS
  1
ACMDATAENTRYBLOCK
  2
AcmDataEntryBlock
  3
"AcmSymBB|Product Description: AutoCAD Mechanical 2004 DX|Company: Autodesk"
 90
    32768
280
     0
281
     0
  0
CLASS
  1
ACIMSTRSYSVAR
  2
AcImStrSysVar
  3
AcMeServices
 90
        0
280
     0
281
     0
  0
CLASS
  1
ACMSTANDARDISO
  2
AcmStandardISO
  3
"Amdt_StdImp|Product Description: AutoCAD Mechanical 2004 DX|Company: Autodesk"
 90
        0
280
     0
281
     0
  0
CLASS
  1
AMGOBJPROPCFG
  2
AmgObjPropCfg
  3
"AmgLay|Product Description: AutoCAD Mechanical 2000|Company: Autodesk"
 90
        1
280
     0
281
     0
  0
CLASS
  1
AMDTEDGESTANDARDISO
  2
AmdtEdgeStdISO
  3
"Amdt_StdImp|Product Description: AutoCAD Mechanical 2004 DX|Company: Autodesk"
 90
    32768
280
     0
281
     0
  0
CLASS
  1
ACMSURFSTANDARDISO
  2
AcmSurfTextStdISO
  3
"Amdt_StdImp|Product Description: AutoCAD Mechanical 2004 DX|Company: Autodesk"
 90
        0
280
     0
281
     0
  0
CLASS
  1
ACMFCFSTANDARDISO
  2
AcmFCFStdISO
  3
"Amdt_StdImp|Product Description: AutoCAD Mechanical 2004 DX|Company: Autodesk"
 90
        0
280
     0
281
     0
  0
CLASS
  1
ACMWELDSTANDARDISO
  2
AcmWeldingStdISO
  3
"Amdt_StdImp|Product Description: AutoCAD Mechanical 2004 DX|Company: Autodesk"
 90
        0
280
     0
281
     0
  0
CLASS
  1
ACMIDSTANDARDISO
  2
AcmIdStdISO
  3
"Amdt_StdImp|Product Description: AutoCAD Mechanical 2004 DX|Company: Autodesk"
 90
        0
280
     0
281
     0
  0
CLASS
  1
ACMDATUMSTANDARDISO
  2
AcmDatumStdISO
  3
"Amdt_StdImp|Product Description: AutoCAD Mechanical 2004 DX|Company: Autodesk"
 90
        0
280
     0
281
     0
  0
CLASS
  1
ACMBOMSTANDARDISO
  2
AcmBOMStdISO
  3
"Amdt_StdImp|Product Description: AutoCAD Mechanical 2004 DX|Company: Autodesk"
 90
        0
280
     0
281
     0
  0
CLASS
  1
ACMDETAILSTANDARDISO
  2
AmdtDetailSymStdISO
  3
"Amdt_StdImp|Product Description: AutoCAD Mechanical 2004 DX|Company: Autodesk"
 90
        0
280
     0
281
     0
  0
CLASS
  1
ACMSECTIONSTANDARDISO
  2
AmdtSectionSymStdISO
  3
"Amdt_StdImp|Product Description: AutoCAD Mechanical 2004 DX|Company: Autodesk"
 90
        0
280
     0
281
     0
  0
CLASS
  1
ACMCENTERLINESTANDARDISO
  2
AmdtCenterLineStdISO
  3
"Amdt_StdImp|Product Description: AutoCAD Mechanical 2004 DX|Company: Autodesk"
 90
        0
280
     0
281
     0
  0
CLASS
  1
ACMNOTESTANDARDISO
  2
AmdtNoteStdISO
  3
"Amdt_StdImp|Product Description: AutoCAD Mechanical 2004 DX|Company: Autodesk"
 90
        0
280
     0
281
     0
  0
CLASS
  1
ACAMGLAYSTD
  2
AcAmgLayStd
  3
"AcAmgLayStd|Product Description: AutoCAD Mechanical 2000|Company: Autodesk"
 90
        0
280
     0
281
     0
  0
CLASS
  1
ACAMGDIMSTD
  2
AcAmgDimStd
  3
"AcAmgDimStd|Product Description: AutoCAD Mechanical 2000|Company: Autodesk"
 90
        0
280
     0
281
     0
  0
CLASS
  1
ACAMGHOLECHARTSTDISO
  2
AcAmgHoleChartStdISO
  3
ACMSYMBB_MODULE_NAME
 90
        0
280
     0
281
     0
  0
CLASS
  1
ACAMGTITLESTD
  2
AcAmgTitleStd
  3
"TITLEAPP"
 90
        0
280
     0
281
     0
  0
CLASS
  1
ACAMGFILTERDAT
  2
AcAmgFilterDat
  3
"AcadM|Product Description: AutoCAD Mechanical 2000|Company: Autodesk"
 90
    32768
280
     0
281
     0
  0
CLASS
  1
LAYER_INDEX
  2
AcDbLayerIndex
  3
ObjectDBX Classes
 90
        0
280
     0
281
     0
  0
CLASS
  1
IDBUFFER
  2
AcDbIdBuffer
  3
ObjectDBX Classes
 90
        0
280
     0
281
     0
  0
CLASS
  1
TABLESTYLE
  2
AcDbTableStyle
  3
ObjectDBX Classes
 90
     2047
280
     0
281
     0
  0
CLASS
  1
DIMASSOC
  2
AcDbDimAssoc
  3
"AcDbDimAssoc|Product Desc:     AcDim ARX App For Dimension|Company:          Autodesk, Inc.|WEB Address:      www.autodesk.com"
 90
        0
280
     0
281
     0
  0
CLASS
  1
SORTENTSTABLE
  2
AcDbSortentsTable
  3
ObjectDBX Classes
 90
        0
280
     0
281
     0
  0
CLASS
  1
AM_DRAWING_MGR
  2
AcDmDwgMgr
  3
AcMechDwgViewMgmt
 90
        0
280
     0
281
     0
  0
CLASS
  1
AM_DWG_DOCUMENT
  2
AcDmDwgDocument
  3
AcMechDwgViewMgmt
 90
        0
280
     0
281
     0
  0
CLASS
  1
AM_DWG_SHEET
  2
AcDmSheet
  3
AcMechDwgViewMgmt
 90
        0
280
     0
281
     0
  0
CLASS
  1
AM_VIEWDIMPARMAP
  2
AcDmViewDimParMap
  3
AcMechDwgViewMgmt
 90
        0
280
     0
281
     0
  0
CLASS
  1
AM_DWGMGR_NAME
  2
AcDmDwgMgrName
  3
AcMechDwgViewMgmt
 90
        0
280
     0
281
     0
  0
CLASS
  1
AMDTMENUSTATEMGR
  2
AmdtMenuStateMgr
  3
McadcomServices
 90
        0
280
     0
281
     0
  0
CLASS
  1
AMDTMCOMMENUSTATE
  2
AmdtMcomMenuState
  3
McadcomServices
 90
        0
280
     0
281
     0
  0
CLASS
  1
MAPIAMMOUDLE
  2
MApiAmModule
  3
MApiAmServices
 90
        0
280
     0
281
     0
  0
CLASS
  1
AMDTADMENUSTATE
  2
AmdtAdMenuState
  3
DesignerServices
 90
        0
280
     0
281
     0
  0
CLASS
  1
ADAPPL
  2
AcAdAppl
  3
DesignerServices
 90
        0
280
     0
281
     0
  0
CLASS
  1
DEPMGR
  2
AcAdDepMgr
  3
DesignerServices
 90
        0
280
     0
281
     0
  0
CLASS
  1
PARAMMGR
  2
AcAdParamMgr
  3
DesignerServices
 90
        0
280
     0
281
     0
  0
CLASS
  1
PARAMSCOPE
  2
AcAdParamScope
  3
DesignerServices
 90
        0
280
     0
281
     0
  0
CLASS
  1
NAMEDAPPL
  2
AcAdNamedAppl
  3
DesignerServices
 90
        0
280
     0
281
     0
  0
CLASS
  1
AMDTDMMENUSTATE
  2
AmdtDmMenuState
  3
AcMechDwgViewMgmt
 90
        0
280
     0
281
     0
  0
CLASS
  1
AMDTAMMENUSTATE
  2
AmdtAmMenuState
  3
DesignerAssemblies
 90
        0
280
     0
281
     0
  0
CLASS
  1
ACAMPROJECT
  2
AcAmProject
  3
DesignerAssemblies
 90
        0
280
     0
281
     0
  0
CLASS
  1
ACAMGRCOMPDEF
  2
AcAmGrCompDef
  3
DesignerAssemblies
 90
        0
280
     0
281
     0
  0
CLASS
  1
ACCMCONTEXT
  2
AcCmContext
  3
DesignerAssemblies
 90
        0
280
     0
281
     0
  0
CLASS
  1
ACAMCOMPDEF
  2
AcAmCompDef
  3
DesignerAssemblies
 90
        0
280
     0
281
     0
  0
CLASS
  1
ACAMCOMPDEFMGR
  2
AcAmCompDefMgr
  3
DesignerAssemblies
 90
        0
280
     0
281
     0
  0
CLASS
  1
AMCONTEXTMGR
  2
AcAmContextMgr
  3
DesignerAssemblies
 90
        0
280
     0
281
     0
  0
CLASS
  1
ACAMCONTEXTMODELER
  2
AcAmContextModeler
  3
DesignerAssemblies
 90
        0
280
     0
281
     0
  0
CLASS
  1
CATALOGSTATE
  2
AcAmCatalogState
  3
DesignerAssemblies
 90
        0
280
     0
281
     0
  0
CLASS
  1
ACAMGRCOMPDEFSET
  2
AcAmGrCompDefSet
  3
DesignerAssemblies
 90
        0
280
     0
281
     0
  0
CLASS
  1
AMDTBROWSERDBTAB
  2
AmdtBrowserDbTab
  3
McadcomServices
 90
        0
280
     0
281
     0
  0
CLASS
  1
CBROWSERAPPOBJECT
  2
CBrowserAppObject
  3
McadcomServices
 90
        0
280
     0
281
     0
  0
CLASS
  1
DM_PLACEHOLDER
  2
AcDmSelsetPlaceholder
  3
AcMechDwgViewMgmt
 90
        0
280
     0
281
     0
  0
CLASS
  1
AMDTEDGESTANDARDISO13715
  2
AmdtEdgeStdISO13715
  3
"Amdt_StdImp|Product Description: AutoCAD Mechanical 2004 DX|Company: Autodesk"
 90
        0
280
     0
281
     0
  0
CLASS
  1
ACMTHREADLINESTANDARDISO
  2
AmdtThreadLineStdISO
  3
"Amdt_StdImp|Product Description: AutoCAD Mechanical 2004 DX|Company: Autodesk"
 90
        0
280
     0
281
     0
  0
CLASS
  1
AMDTNOTETEMPLATEDB
  2
AmdtNoteTemplateDB
  3
AMDT_STDIMP_MODULE_NAME
 90
        0
280
     0
281
     0
  0
CLASS
  1
ACRFATTGENMGR
  2
AcRfAttGeneralMgr
  3
AcAttribServices
 90
        0
280
     0
281
     0
  0
ENDSEC
  0
SECTION
  2
TABLES
  0
TABLE
  2
VPORT
  5
8
330
0
100
AcDbSymbolTable
 70
     7
  0
VPORT
  5
47E4
330
8
100
AcDbSymbolTableRecord
100
AcDbViewportTableRecord
  2
*Active
 70
     0
 10
0.0
 20
0.0
 11
1.0
 21
1.0
 12
135.5785658050548
 22
349.7622644958832
 13
0.0
 23
0.0
 14
0.5
 24
0.5
 15
0.5
 25
0.5
 16
0.0
 26
0.0
 36
1.0
 17
0.0
 27
0.0
 37
0.0
 40
299.6325898323685
 41
1.661684782608695
 42
50.0
 43
0.0
 44
0.0
 50
0.0
 51
0.0
 71
     0
 72
   100
 73
     1
 74
     3
 75
     0
 76
     0
 77
     0
 78
     0
281
     0
 65
     1
110
0.0
120
0.0
130
0.0
111
1.0
121
0.0
131
0.0
112
0.0
122
1.0
132
0.0
 79
     0
146
0.0
  0
ENDTAB
  0
TABLE
  2
LTYPE
  5
5
330
0
100
AcDbSymbolTable
 70
    14
  0
LTYPE
  5
14
330
5
100
AcDbSymbolTableRecord
100
AcDbLinetypeTableRecord
  2
ByBlock
 70
     0
  3

 72
    65
 73
     0
 40
0.0
  0
LTYPE
  5
15
330
5
100
AcDbSymbolTableRecord
100
AcDbLinetypeTableRecord
  2
ByLayer
 70
     0
  3

 72
    65
 73
     0
 40
0.0
  0
LTYPE
  5
16
330
5
100
AcDbSymbolTableRecord
100
AcDbLinetypeTableRecord
  2
Continuous
 70
     0
  3
Solid line
 72
    65
 73
     0
 40
0.0
  0
LTYPE
  5
4F
330
5
100
AcDbSymbolTableRecord
100
AcDbLinetypeTableRecord
  2
CENTER
 70
     0
  3
Center ____ _ ____ _ ____ _ ____ _ ____ _ ____
 72
    65
 73
     4
 40
2.0
 49
1.25
 74
     0
 49
-0.25
 74
     0
 49
0.25
 74
     0
 49
-0.25
 74
     0
  0
LTYPE
  5
350E
330
5
100
AcDbSymbolTableRecord
100
AcDbLinetypeTableRecord
  2
AM_ISO02W050
 70
     0
  3
__ __ __ __ __ __ __ __ __ __ __ __ __ __ __
 72
    65
 73
     2
 40
7.5
 49
6.0
 74
     0
 49
-1.5
 74
     0
  0
LTYPE
  5
350F
330
5
100
AcDbSymbolTableRecord
100
AcDbLinetypeTableRecord
  2
AM_ISO08W050
 70
     0
  3
____ . ____ . ____ . ____ . ____ . ____ . ____
 72
    65
 73
     4
 40
18.0
 49
12.0
 74
     0
 49
-1.5
 74
     0
 49
3.0
 74
     0
 49
-1.5
 74
     0
  0
LTYPE
  5
3510
330
5
100
AcDbSymbolTableRecord
100
AcDbLinetypeTableRecord
  2
AM_ISO09W050
 70
     0
  3
_____ . . _____ . . _____ . . ____ .. ____
 72
    65
 73
     6
 40
22.5
 49
12.0
 74
     0
 49
-1.5
 74
     0
 49
3.0
 74
     0
 49
-1.5
 74
     0
 49
3.0
 74
     0
 49
-1.5
 74
     0
  0
LTYPE
  5
3511
330
5
100
AcDbSymbolTableRecord
100
AcDbLinetypeTableRecord
  2
Amconstr
 70
     0
  3
_______________________
 72
    65
 73
     2
 40
9999.0
 49
9999.0
 74
     0
 49
0.0
 74
     0
  0
LTYPE
  5
3512
330
5
100
AcDbSymbolTableRecord
100
AcDbLinetypeTableRecord
  2
AM_ISO08W050x2
 70
     0
  3
__ . __ . __ . __ . __ . __
 72
    65
 73
     4
 40
9.0
 49
6.0
 74
     0
 49
-0.75
 74
     0
 49
1.5
 74
     0
 49
-0.75
 74
     0
  0
LTYPE
  5
3513
330
5
100
AcDbSymbolTableRecord
100
AcDbLinetypeTableRecord
  2
AM_ISO02W050x2
 70
     0
  3
 _ _ _ _ _ _ _ _ _ _ _ _
 72
    65
 73
     2
 40
3.75
 49
3.0
 74
     0
 49
-0.75
 74
     0
  0
LTYPE
  5
3516
330
5
100
AcDbSymbolTableRecord
100
AcDbLinetypeTableRecord
  2
Amzigzag
 70
     0
  3
/\/-/\/-/\/-/\/-/\/-/\/
 72
    65
 73
     2
 40
11.0001
 49
0.0001
 74
     4
 75
   135
340
3515
 46
0.04
 50
0.0
 44
0.0
 45
0.0
 49
-11.0
 74
     0
  0
LTYPE
  5
3524
330
5
100
AcDbSymbolTableRecord
100
AcDbLinetypeTableRecord
  2
ACISOWELD
 70
     0
  3
_ _ _ _ _
 72
    65
 73
     2
 40
2.0
 49
2.0
 74
     0
 49
-1.0
 74
     0
  0
LTYPE
  5
3525
330
5
100
AcDbSymbolTableRecord
100
AcDbLinetypeTableRecord
  2
ACISOTGB
 70
     0
  3
__ . . __ . .
 72
    65
 73
     6
 40
9.0
 49
4.0
 74
     0
 49
-1.0
 74
     0
 49
1.0
 74
     0
 49
-1.0
 74
     0
 49
1.0
 74
     0
 49
-1.0
 74
     0
  0
LTYPE
  5
3526
330
5
100
AcDbSymbolTableRecord
100
AcDbLinetypeTableRecord
  2
ACISOTGL
 70
     0
  3
_ _ _ _ _
 72
    65
 73
     2
 40
3.0
 49
2.0
 74
     0
 49
-1.0
 74
     0
  0
LTYPE
  5
3755
330
5
100
AcDbSymbolTableRecord
100
AcDbLinetypeTableRecord
  2
HIDDEN
 70
     0
  3
__ __ __ __ __ __ __ __ __ __ __ __ __ __ __ __
 72
    65
 73
     2
 40
0.375
 49
0.25
 74
     0
 49
-0.125
 74
     0
  0
LTYPE
  5
3756
330
5
100
AcDbSymbolTableRecord
100
AcDbLinetypeTableRecord
  2
PHANTOM2
 70
     0
  3
___ _ _ ___ _ _ ___ _ _ ___ _ _ ___ _ _ ___ _ _
 72
    65
 73
     6
 40
1.25
 49
0.625
 74
     0
 49
-0.125
 74
     0
 49
0.125
 74
     0
 49
-0.125
 74
     0
 49
0.125
 74
     0
 49
-0.125
 74
     0
  0
ENDTAB
  0
TABLE
  2
LAYER
  5
2
102
{ACAD_XDICTIONARY
360
3766
102
}
330
0
100
AcDbSymbolTable
 70
     7
  0
LAYER
  5
10
330
2
100
AcDbSymbolTableRecord
100
AcDbLayerTableRecord
  2
0
 70
     0
 62
     7
  6
Continuous
370
    -3
390
F
  0
LAYER
  5
48
330
2
100
AcDbSymbolTableRecord
100
AcDbLayerTableRecord
  2
DIM
 70
     0
 62
     5
  6
Continuous
370
    -3
390
F
  0
LAYER
  5
4A
330
2
100
AcDbSymbolTableRecord
100
AcDbLayerTableRecord
  2
CENTER
 70
     0
 62
     1
  6
CENTER
370
    -3
390
F
  0
LAYER
  5
1545
330
2
100
AcDbSymbolTableRecord
100
AcDbLayerTableRecord
  2
LOGO
 70
     0
 62
     7
  6
Continuous
370
    -3
390
F
  0
LAYER
  5
1A52
330
2
100
AcDbSymbolTableRecord
100
AcDbLayerTableRecord
  2
Defpoints
 70
     0
 62
     7
  6
Continuous
290
     0
370
    -3
390
F
  0
LAYER
  5
4747
330
2
100
AcDbSymbolTableRecord
100
AcDbLayerTableRecord
  2
AM_7
 70
     0
 62
     4
  6
AM_ISO08W050
370
    25
390
F
  0
LAYER
  5
4748
330
2
100
AcDbSymbolTableRecord
100
AcDbLayerTableRecord
  2
AM_5
 70
     0
 62
     3
  6
Continuous
370
    25
390
F
  0
ENDTAB
  0
TABLE
  2
STYLE
  5
3
330
0
100
AcDbSymbolTable
 70
     7
  0
STYLE
  5
11
330
3
100
AcDbSymbolTableRecord
100
AcDbTextStyleTableRecord
  2
Standard
 70
     0
 40
3.0
 41
1.0
 50
0.0
 71
     0
 42
3.0
  3
KAIU.TTF
  4

1001
ACAD
1000
DFKai-SB
1071
    34865
  0
STYLE
  5
5C
330
3
100
AcDbSymbolTableRecord
100
AcDbTextStyleTableRecord
  2
CHINESET
 70
     0
 40
3.0
 41
1.0
 50
0.0
 71
     0
 42
4.5
  3
simplex.shx
  4
CHINESET.shx
  0
STYLE
  5
3515
330
3
100
AcDbSymbolTableRecord
100
AcDbTextStyleTableRecord
  2

 70
     1
 40
0.0
 41
1.0
 50
0.0
 71
     0
 42
4.5
  3
ltypeshp.shx
  4

  0
STYLE
  5
3517
330
3
100
AcDbSymbolTableRecord
100
AcDbTextStyleTableRecord
  2
ACISOTS
 70
     0
 40
1.0
 41
1.0
 50
0.0
 71
     0
 42
4.5
  3
isocp.shx
  4
chineset.shx
  0
STYLE
  5
3523
330
3
100
AcDbSymbolTableRecord
100
AcDbTextStyleTableRecord
  2
ACISOGDT
 70
     0
 40
0.0
 41
1.0
 50
0.0
 71
     0
 42
4.5
  3
amgdt.shx
  4

  0
STYLE
  5
375C
330
3
100
AcDbSymbolTableRecord
100
AcDbTextStyleTableRecord
  2
dayus
 70
     0
 40
2.0
 41
1.0
 50
0.0
 71
     0
 42
6.0
  3
simplex.shx
  4
dayus.shx
  0
ENDTAB
  0
TABLE
  2
VIEW
  5
6
330
0
100
AcDbSymbolTable
 70
     0
  0
ENDTAB
  0
TABLE
  2
UCS
  5
7
330
0
100
AcDbSymbolTable
 70
     0
  0
ENDTAB
  0
TABLE
  2
APPID
  5
9
330
0
100
AcDbSymbolTable
 70
    21
  0
APPID
  5
12
330
9
100
AcDbSymbolTableRecord
100
AcDbRegAppTableRecord
  2
ACAD
 70
     0
  0
APPID
  5
5F
330
9
100
AcDbSymbolTableRecord
100
AcDbRegAppTableRecord
  2
AD_DRAW
 70
     0
  0
APPID
  5
60
330
9
100
AcDbSymbolTableRecord
100
AcDbRegAppTableRecord
  2
DESIGNERASSEMBLIES
 70
     0
  0
APPID
  5
61
330
9
100
AcDbSymbolTableRecord
100
AcDbRegAppTableRecord
  2
MCAD_NO_VIS
 70
     0
  0
APPID
  5
62
330
9
100
AcDbSymbolTableRecord
100
AcDbRegAppTableRecord
  2
ASURF_PCURVE_APPNAME
 70
     0
  0
APPID
  5
11A1
330
9
100
AcDbSymbolTableRecord
100
AcDbRegAppTableRecord
  2
CONTENTBLOCKICON
 70
     0
  0
APPID
  5
34F1
330
9
100
AcDbSymbolTableRecord
100
AcDbRegAppTableRecord
  2
ACAD_TEMP_GRAPHIC
 70
     0
  0
APPID
  5
3502
330
9
100
AcDbSymbolTableRecord
100
AcDbRegAppTableRecord
  2
ACATTRIBSERVICES
 70
     0
  0
APPID
  5
3765
330
9
100
AcDbSymbolTableRecord
100
AcDbRegAppTableRecord
  2
GENIUS_GENDTOL_13
 70
     0
  0
APPID
  5
3F1B
330
9
100
AcDbSymbolTableRecord
100
AcDbRegAppTableRecord
  2
ACADM_DIM_EDIT
 70
     0
  0
APPID
  5
3F1C
330
9
100
AcDbSymbolTableRecord
100
AcDbRegAppTableRecord
  2
AMDT_DM_ADJ
 70
     0
  0
APPID
  5
3F3E
330
9
100
AcDbSymbolTableRecord
100
AcDbRegAppTableRecord
  2
GENIUS_GENOENT_13
 70
     0
  0
APPID
  5
3F3F
330
9
100
AcDbSymbolTableRecord
100
AcDbRegAppTableRecord
  2
GENIUS_GENOBJ-N-CRS_13
 70
     0
  0
APPID
  5
3F40
330
9
100
AcDbSymbolTableRecord
100
AcDbRegAppTableRecord
  2
GENIUS_GENOLIS_13
 70
     0
  0
APPID
  5
3F41
330
9
100
AcDbSymbolTableRecord
100
AcDbRegAppTableRecord
  2
GENIUS_GENODEF_13
 70
     0
  0
APPID
  5
3F42
330
9
100
AcDbSymbolTableRecord
100
AcDbRegAppTableRecord
  2
GENIUS_GENOREF_13
 70
     0
  0
APPID
  5
3F43
330
9
100
AcDbSymbolTableRecord
100
AcDbRegAppTableRecord
  2
ACAD_PSEXT
 70
     0
  0
APPID
  5
3F44
330
9
100
AcDbSymbolTableRecord
100
AcDbRegAppTableRecord
  2
GENIUS_GENREC_14
 70
     0
  0
APPID
  5
3F45
330
9
100
AcDbSymbolTableRecord
100
AcDbRegAppTableRecord
  2
GENIUS_GENOBJ-N-REC_13
 70
     0
  0
APPID
  5
4749
330
9
100
AcDbSymbolTableRecord
100
AcDbRegAppTableRecord
  2
GENIUS_GENOBJ-N-CEN_13
 70
     0
  0
APPID
  5
474A
330
9
100
AcDbSymbolTableRecord
100
AcDbRegAppTableRecord
  2
GENIUS_GENCEN_19
 70
     0
  0
ENDTAB
  0
TABLE
  2
DIMSTYLE
  5
A
330
0
100
AcDbSymbolTable
 70
    11
100
AcDbDimStyleTable
 71
     1
340
1A4
  0
DIMSTYLE
105
1A4
330
A
100
AcDbSymbolTableRecord
100
AcDbDimStyleTableRecord
  2
ISO-25-1
 70
     0
 41
3.0
 42
3.0
 43
2.0
 44
2.0
 73
     0
 74
     0
 77
     1
 78
     8
 79
     2
140
3.0
141
-3.0
146
0.7
147
1.0
172
     1
176
   256
177
   256
178
   256
271
     2
272
     2
284
     8
289
     0
340
5C
371
    -1
372
    -1
  0
DIMSTYLE
105
352A
330
A
100
AcDbSymbolTableRecord
100
AcDbDimStyleTableRecord
  2
AM_ISO
 70
     0
  4
"
 41
2.5
 42
1.0
 43
10.0
 44
1.0
 47
0.1
 48
0.1
 73
     0
 74
     0
 77
     1
 78
     8
 79
     2
140
3.5
141
0.0
143
0.0393701
146
0.71
147
1.5
172
     1
176
   256
177
   256
178
     2
271
     2
272
     3
274
     4
283
     0
284
     8
340
11
371
    -1
372
    -1
  0
DIMSTYLE
105
352B
330
A
100
AcDbSymbolTableRecord
100
AcDbDimStyleTableRecord
  2
AM_ISO$3
 70
     0
  4
"
 41
2.5
 42
1.0
 43
10.0
 44
1.0
 47
0.1
 48
0.1
 73
     0
 77
     1
 78
     8
 79
     2
140
3.5
141
0.0
143
0.0393701
146
0.71
147
1.5
176
   256
177
   256
178
     2
271
     2
272
     3
274
     4
283
     0
284
     8
288
     1
289
     0
340
11
371
    -1
372
    -1
  0
DIMSTYLE
105
352C
330
A
100
AcDbSymbolTableRecord
100
AcDbDimStyleTableRecord
  2
AM_ISO$4
 70
     0
  4
"
 41
2.5
 42
1.0
 43
10.0
 44
1.0
 47
0.1
 48
0.1
 73
     0
 77
     1
 78
     8
 79
     2
140
3.5
141
0.0
143
0.0393701
146
0.71
147
1.5
176
   256
177
   256
178
     2
271
     2
272
     3
274
     4
283
     0
284
     8
288
     1
289
     0
340
11
371
    -1
372
    -1
  0
DIMSTYLE
105
352D
330
A
100
AcDbSymbolTableRecord
100
AcDbDimStyleTableRecord
  2
AM_ISO$6
 70
     0
  4
"
 41
2.5
 42
1.0
 43
10.0
 44
1.0
 47
0.1
 48
0.1
 73
     0
 74
     0
 78
     8
 79
     2
140
3.5
141
0.0
143
0.0393701
146
0.71
147
1.5
172
     1
176
   256
177
   256
178
     2
271
     2
272
     3
274
     4
283
     0
284
     8
340
11
371
    -1
372
    -1
  0
DIMSTYLE
105
352E
330
A
100
AcDbSymbolTableRecord
100
AcDbDimStyleTableRecord
  2
AM_ISO$7
 70
     0
  4
"
 41
2.5
 42
1.0
 43
10.0
 44
1.0
 47
0.1
 48
0.1
 73
     0
 74
     0
 77
     1
 78
     8
 79
     2
140
5.0
141
0.0
143
0.0393701
146
0.71
147
1.5
172
     1
176
   256
177
   256
178
     2
271
     2
272
     3
274
     4
283
     0
284
     8
340
11
371
    -1
372
    -1
  0
DIMSTYLE
105
352F
330
A
100
AcDbSymbolTableRecord
100
AcDbDimStyleTableRecord
  2
AM_ISO$SF
 70
     0
  4
"
 41
2.5
 42
1.0
 43
10.0
 44
1.0
 47
0.1
 48
0.1
 73
     0
 74
     0
 75
     1
 76
     1
 77
     1
 78
     8
 79
     2
140
3.5
141
0.0
143
0.0393701
146
0.71
147
1.5
172
     1
176
   256
177
   256
178
     2
271
     2
272
     3
274
     4
283
     0
284
     8
340
11
371
    -1
372
    -1
  0
DIMSTYLE
105
3534
330
A
100
AcDbSymbolTableRecord
100
AcDbDimStyleTableRecord
  2
AM_ISO$SH
 70
     0
  4
"
 41
2.5
 42
1.0
 43
10.0
 44
1.0
 47
0.1
 48
0.1
 73
     0
 74
     0
 75
     1
 76
     1
 77
     1
 78
     8
 79
     2
140
3.5
141
0.0
143
0.0393701
144
2.0
146
0.71
147
1.5
172
     1
173
     1
176
   256
177
   256
178
     2
271
     2
272
     3
274
     4
283
     0
284
     8
340
11
341
3530
343
3530
371
    -1
372
    -1
  0
DIMSTYLE
105
375F
102
{ACAD_REACTORS
330
3A9A
330
3A9D
330
3AA0
330
3AA3
330
3AA6
330
3AA9
330
3AAC
330
3AAF
330
3AB2
330
3AB5
330
3AB8
330
3ABF
330
3AC4
330
3AC7
330
3ACA
330
3ACD
330
3AD0
330
3AD5
330
3AD8
330
3ADB
330
3ADE
330
3AE1
330
3AE4
330
3AE7
330
3AEA
330
3AED
330
3AF5
330
3AF8
330
3AFB
330
3AFE
330
3B01
330
3CD0
330
3CD3
330
3CD6
330
3CD9
330
3CDC
102
}
330
A
100
AcDbSymbolTableRecord
100
AcDbDimStyleTableRecord
  2
AM_ANSI
 70
     0
  4
"
 41
2.5
 42
1.0
 43
10.0
 44
1.0
 47
0.1
 48
0.1
 78
     8
 79
     2
140
3.5
141
0.0
143
0.0393701
146
0.71
147
1.5
176
   256
177
   256
178
     2
271
     2
272
     3
274
     4
284
     8
340
11
371
    -1
372
    -1
  0
DIMSTYLE
105
3762
330
A
100
AcDbSymbolTableRecord
100
AcDbDimStyleTableRecord
  2
AM_ANSI$7
 70
     0
  4
"
 41
2.5
 42
1.0
 43
10.0
 44
1.0
 47
0.1
 48
0.1
 78
     8
 79
     2
140
5.0
141
0.0
143
0.0393701
146
0.71
147
1.5
176
   256
177
   256
178
     2
271
     2
272
     3
274
     4
284
     8
340
11
371
    -1
372
    -1
  0
ENDTAB
  0
TABLE
  2
BLOCK_RECORD
  5
1
330
0
100
AcDbSymbolTable
 70
    42
  0
BLOCK_RECORD
  5
1F
102
{ACAD_XDICTIONARY
360
344C
102
}
330
1
100
AcDbSymbolTableRecord
100
AcDbBlockTableRecord
  2
*Model_Space
340
22
  0
BLOCK_RECORD
  5
1B
102
{ACAD_XDICTIONARY
360
344E
102
}
330
1
100
AcDbSymbolTableRecord
100
AcDbBlockTableRecord
  2
*Paper_Space
340
1E
  0
BLOCK_RECORD
  5
23
102
{ACAD_XDICTIONARY
360
3450
102
}
330
1
100
AcDbSymbolTableRecord
100
AcDbBlockTableRecord
  2
*Paper_Space0
340
26
  0
BLOCK_RECORD
  5
3530
330
1
100
AcDbSymbolTableRecord
100
AcDbBlockTableRecord
  2
GENAXEH
340
0
  0
BLOCK_RECORD
  5
3B08
330
1
100
AcDbSymbolTableRecord
100
AcDbBlockTableRecord
  2
*D2
340
0
  0
BLOCK_RECORD
  5
3B16
330
1
100
AcDbSymbolTableRecord
100
AcDbBlockTableRecord
  2
*D3
340
0
  0
BLOCK_RECORD
  5
3B22
330
1
100
AcDbSymbolTableRecord
100
AcDbBlockTableRecord
  2
*D4
340
0
  0
BLOCK_RECORD
  5
3B2E
330
1
100
AcDbSymbolTableRecord
100
AcDbBlockTableRecord
  2
*D5
340
0
  0
BLOCK_RECORD
  5
3B3A
330
1
100
AcDbSymbolTableRecord
100
AcDbBlockTableRecord
  2
*D6
340
0
  0
BLOCK_RECORD
  5
3B46
330
1
100
AcDbSymbolTableRecord
100
AcDbBlockTableRecord
  2
*D7
340
0
  0
BLOCK_RECORD
  5
3B52
330
1
100
AcDbSymbolTableRecord
100
AcDbBlockTableRecord
  2
*D8
340
0
  0
BLOCK_RECORD
  5
3B5E
330
1
100
AcDbSymbolTableRecord
100
AcDbBlockTableRecord
  2
*D9
340
0
  0
BLOCK_RECORD
  5
3B6C
330
1
100
AcDbSymbolTableRecord
100
AcDbBlockTableRecord
  2
*D10
340
0
  0
BLOCK_RECORD
  5
3B78
330
1
100
AcDbSymbolTableRecord
100
AcDbBlockTableRecord
  2
*D11
340
0
  0
BLOCK_RECORD
  5
3B84
330
1
100
AcDbSymbolTableRecord
100
AcDbBlockTableRecord
  2
*D12
340
0
  0
BLOCK_RECORD
  5
3B90
330
1
100
AcDbSymbolTableRecord
100
AcDbBlockTableRecord
  2
*D13
340
0
  0
BLOCK_RECORD
  5
3B9E
330
1
100
AcDbSymbolTableRecord
100
AcDbBlockTableRecord
  2
*D14
340
0
  0
BLOCK_RECORD
  5
3BAA
330
1
100
AcDbSymbolTableRecord
100
AcDbBlockTableRecord
  2
*D15
340
0
  0
BLOCK_RECORD
  5
3BB6
330
1
100
AcDbSymbolTableRecord
100
AcDbBlockTableRecord
  2
*D16
340
0
  0
BLOCK_RECORD
  5
3BC2
330
1
100
AcDbSymbolTableRecord
100
AcDbBlockTableRecord
  2
*D17
340
0
  0
BLOCK_RECORD
  5
3BCE
330
1
100
AcDbSymbolTableRecord
100
AcDbBlockTableRecord
  2
*D18
340
0
  0
BLOCK_RECORD
  5
3BDA
330
1
100
AcDbSymbolTableRecord
100
AcDbBlockTableRecord
  2
*D19
340
0
  0
BLOCK_RECORD
  5
3BE6
330
1
100
AcDbSymbolTableRecord
100
AcDbBlockTableRecord
  2
*D20
340
0
  0
BLOCK_RECORD
  5
3BF4
330
1
100
AcDbSymbolTableRecord
100
AcDbBlockTableRecord
  2
*D21
340
0
  0
BLOCK_RECORD
  5
3C00
330
1
100
AcDbSymbolTableRecord
100
AcDbBlockTableRecord
  2
*D22
340
0
  0
BLOCK_RECORD
  5
3C0C
330
1
100
AcDbSymbolTableRecord
100
AcDbBlockTableRecord
  2
*D23
340
0
  0
BLOCK_RECORD
  5
3C18
330
1
100
AcDbSymbolTableRecord
100
AcDbBlockTableRecord
  2
*D24
340
0
  0
BLOCK_RECORD
  5
3C24
330
1
100
AcDbSymbolTableRecord
100
AcDbBlockTableRecord
  2
*D25
340
0
  0
BLOCK_RECORD
  5
3C30
330
1
100
AcDbSymbolTableRecord
100
AcDbBlockTableRecord
  2
*D26
340
0
  0
BLOCK_RECORD
  5
3C3C
330
1
100
AcDbSymbolTableRecord
100
AcDbBlockTableRecord
  2
*D27
340
0
  0
BLOCK_RECORD
  5
3C4A
330
1
100
AcDbSymbolTableRecord
100
AcDbBlockTableRecord
  2
*D28
340
0
  0
BLOCK_RECORD
  5
3C56
330
1
100
AcDbSymbolTableRecord
100
AcDbBlockTableRecord
  2
*D29
340
0
  0
BLOCK_RECORD
  5
3C62
330
1
100
AcDbSymbolTableRecord
100
AcDbBlockTableRecord
  2
*D30
340
0
  0
BLOCK_RECORD
  5
3C6E
330
1
100
AcDbSymbolTableRecord
100
AcDbBlockTableRecord
  2
*D31
340
0
  0
BLOCK_RECORD
  5
3C7A
330
1
100
AcDbSymbolTableRecord
100
AcDbBlockTableRecord
  2
*D32
340
0
  0
BLOCK_RECORD
  5
3CDF
330
1
100
AcDbSymbolTableRecord
100
AcDbBlockTableRecord
  2
*D33
340
0
  0
BLOCK_RECORD
  5
3CEB
330
1
100
AcDbSymbolTableRecord
100
AcDbBlockTableRecord
  2
*D34
340
0
  0
BLOCK_RECORD
  5
3CF7
330
1
100
AcDbSymbolTableRecord
100
AcDbBlockTableRecord
  2
*D35
340
0
  0
BLOCK_RECORD
  5
3D03
330
1
100
AcDbSymbolTableRecord
100
AcDbBlockTableRecord
  2
*D36
340
0
  0
BLOCK_RECORD
  5
3D0F
330
1
100
AcDbSymbolTableRecord
100
AcDbBlockTableRecord
  2
*D37
340
0
  0
BLOCK_RECORD
  5
438E
102
{ACAD_XDICTIONARY
360
438F
102
}
330
1
100
AcDbSymbolTableRecord
100
AcDbBlockTableRecord
  2
A$C5ECF147B
340
0
102
{BLKREFS
331
43BB
331
43C9
331
43CA
331
4531
331
453F
331
4540
102
}
  0
BLOCK_RECORD
  5
473E
102
{ACAD_XDICTIONARY
360
473F
102
}
330
1
100
AcDbSymbolTableRecord
100
AcDbBlockTableRecord
  2
A$C1F6E6265
340
0
102
{BLKREFS
331
4754
331
4757
102
}
  0
ENDTAB
  0
ENDSEC
  0
SECTION
  2
BLOCKS
  0
BLOCK
  5
20
330
1F
100
AcDbEntity
  8
0
100
AcDbBlockBegin
  2
*Model_Space
 70
     0
 10
0.0
 20
0.0
 30
0.0
  3
*Model_Space
  1

  0
ENDBLK
  5
21
330
1F
100
AcDbEntity
  8
0
100
AcDbBlockEnd
  0
BLOCK
  5
1C
330
1B
100
AcDbEntity
 67
     1
  8
0
100
AcDbBlockBegin
  2
*Paper_Space
 70
     0
 10
0.0
 20
0.0
 30
0.0
  3
*Paper_Space
  1

  0
ENDBLK
  5
1D
330
1B
100
AcDbEntity
 67
     1
  8
0
100
AcDbBlockEnd
  0
BLOCK
  5
24
330
23
100
AcDbEntity
  8
0
100
AcDbBlockBegin
  2
*Paper_Space0
 70
     0
 10
0.0
 20
0.0
 30
0.0
  3
*Paper_Space0
  1

  0
ENDBLK
  5
25
330
23
100
AcDbEntity
  8
0
100
AcDbBlockEnd
  0
BLOCK
  5
3532
330
3530
100
AcDbEntity
  8
0
100
AcDbBlockBegin
  2
GENAXEH
 70
     0
 10
0.0
 20
0.0
 30
0.0
  3
GENAXEH
  1

  0
LINE
  5
3531
330
3530
100
AcDbEntity
  8
0
100
AcDbLine
 10
-1.0
 20
0.0
 30
0.0
 11
1.0
 21
0.0
 31
0.0
  0
ENDBLK
  5
3533
330
3530
100
AcDbEntity
  8
0
100
AcDbBlockEnd
  0
BLOCK
  5
3B14
330
3B08
100
AcDbEntity
  8
0
100
AcDbBlockBegin
  2
*D2
 70
     1
 10
0.0
 20
0.0
 30
0.0
  3
*D2
  1

  0
LINE
  5
45C8
330
3B08
100
AcDbEntity
  8
DIM
100
AcDbLine
 10
113.8089886062433
 20
426.6257563405042
 30
0.0
 11
113.8089886062433
 21
433.3787304709638
 31
0.0
  0
LINE
  5
45C9
330
3B08
100
AcDbEntity
  8
DIM
100
AcDbLine
 10
119.8089886062433
 20
426.6257563405043
 30
0.0
 11
119.8089886062433
 21
433.3787304709638
 31
0.0
  0
LINE
  5
45CA
330
3B08
100
AcDbEntity
  8
DIM
100
AcDbLine
 10
111.8089886062433
 20
431.8787304709637
 30
0.0
 11
109.8089886062433
 21
431.8787304709637
 31
0.0
  0
LINE
  5
45CB
330
3B08
100
AcDbEntity
  8
DIM
100
AcDbLine
 10
121.8089886062433
 20
431.8787304709637
 30
0.0
 11
123.8089886062433
 21
431.8787304709637
 31
0.0
  0
LINE
  5
45CC
330
3B08
100
AcDbEntity
  8
DIM
100
AcDbLine
 10
113.8089886062433
 20
431.8787304709637
 30
0.0
 11
119.8089886062433
 21
431.8787304709637
 31
0.0
  0
SOLID
  5
45CD
330
3B08
100
AcDbEntity
  8
DIM
100
AcDbTrace
 10
111.8089886062433
 20
432.2120638042971
 30
0.0
 11
111.8089886062433
 21
431.5453971376304
 31
0.0
 12
113.8089886062433
 22
431.8787304709637
 32
0.0
 13
113.8089886062433
 23
431.8787304709637
 33
0.0
  0
SOLID
  5
45CE
330
3B08
100
AcDbEntity
  8
DIM
100
AcDbTrace
 10
121.8089886062433
 20
432.2120638042971
 30
0.0
 11
121.8089886062433
 21
431.5453971376304
 31
0.0
 12
119.8089886062433
 22
431.8787304709637
 32
0.0
 13
119.8089886062433
 23
431.8787304709637
 33
0.0
  0
MTEXT
  5
45CF
330
3B08
100
AcDbEntity
  8
DIM
100
AcDbMText
 10
116.8089886062433
 20
433.8787304709637
 30
0.0
 40
2.0
 41
0.0
 71
     5
 72
     1
  1
\A1;6
  7
dayus
 73
     1
 44
1.0
1001
ACAD
1000
MTEXTBEGIN
1070
    73
1070
     1
1070
    44
1040
1.0
1070
    74
1070
     0
1000
MTEXTEND
  0
POINT
  5
45D0
330
3B08
100
AcDbEntity
  8
Defpoints
 62
     0
100
AcDbPoint
 10
113.8089886062433
 20
425.1257563405042
 30
0.0
  0
POINT
  5
45D1
330
3B08
100
AcDbEntity
  8
Defpoints
 62
     0
100
AcDbPoint
 10
119.8089886062433
 20
425.1257563405044
 30
0.0
  0
POINT
  5
45D2
330
3B08
100
AcDbEntity
  8
Defpoints
 62
     0
100
AcDbPoint
 10
119.8089886062433
 20
431.8787304709637
 30
0.0
  0
ENDBLK
  5
3B15
330
3B08
100
AcDbEntity
  8
0
100
AcDbBlockEnd
  0
BLOCK
  5
3B20
330
3B16
100
AcDbEntity
  8
0
100
AcDbBlockBegin
  2
*D3
 70
     1
 10
0.0
 20
0.0
 30
0.0
  3
*D3
  1

  0
LINE
  5
45D3
330
3B16
100
AcDbEntity
  8
DIM
100
AcDbLine
 10
109.3089886062433
 20
423.4671583209396
 30
0.0
 11
109.3089886062433
 21
438.743749413617
 31
0.0
  0
LINE
  5
45D4
330
3B16
100
AcDbEntity
  8
DIM
100
AcDbLine
 10
124.3089886062433
 20
422.4671583209397
 30
0.0
 11
124.3089886062433
 21
438.743749413617
 31
0.0
  0
LINE
  5
45D5
330
3B16
100
AcDbEntity
  8
DIM
100
AcDbLine
 10
111.3089886062433
 20
437.243749413617
 30
0.0
 11
122.3089886062433
 21
437.243749413617
 31
0.0
  0
SOLID
  5
45D6
330
3B16
100
AcDbEntity
  8
DIM
100
AcDbTrace
 10
111.3089886062433
 20
437.5770827469503
 30
0.0
 11
111.3089886062433
 21
436.9104160802836
 31
0.0
 12
109.3089886062433
 22
437.243749413617
 32
0.0
 13
109.3089886062433
 23
437.243749413617
 33
0.0
  0
SOLID
  5
45D7
330
3B16
100
AcDbEntity
  8
DIM
100
AcDbTrace
 10
122.3089886062433
 20
437.5770827469503
 30
0.0
 11
122.3089886062433
 21
436.9104160802836
 31
0.0
 12
124.3089886062433
 22
437.243749413617
 32
0.0
 13
124.3089886062433
 23
437.243749413617
 33
0.0
  0
MTEXT
  5
45D8
330
3B16
100
AcDbEntity
  8
DIM
100
AcDbMText
 10
116.8089886062433
 20
439.243749413617
 30
0.0
 40
2.0
 41
0.0
 71
     5
 72
     1
  1
\A1;15
  7
dayus
 73
     1
 44
1.0
1001
ACAD
1000
MTEXTBEGIN
1070
    73
1070
     1
1070
    44
1040
1.0
1070
    74
1070
     0
1000
MTEXTEND
  0
POINT
  5
45D9
330
3B16
100
AcDbEntity
  8
Defpoints
 62
     0
100
AcDbPoint
 10
109.3089886062433
 20
421.9671583209397
 30
0.0
  0
POINT
  5
45DA
330
3B16
100
AcDbEntity
  8
Defpoints
 62
     0
100
AcDbPoint
 10
124.3089886062433
 20
420.9671583209397
 30
0.0
  0
POINT
  5
45DB
330
3B16
100
AcDbEntity
  8
Defpoints
 62
     0
100
AcDbPoint
 10
124.3089886062433
 20
437.243749413617
 30
0.0
  0
ENDBLK
  5
3B21
330
3B16
100
AcDbEntity
  8
0
100
AcDbBlockEnd
  0
BLOCK
  5
3B2C
330
3B22
100
AcDbEntity
  8
0
100
AcDbBlockBegin
  2
*D4
 70
     1
 10
0.0
 20
0.0
 30
0.0
  3
*D4
  1

  0
LINE
  5
45DC
330
3B22
100
AcDbEntity
  8
DIM
100
AcDbLine
 10
106.3089886062433
 20
423.4671583209399
 30
0.0
 11
106.3089886062433
 21
444.1990109825324
 31
0.0
  0
LINE
  5
45DD
330
3B22
100
AcDbEntity
  8
DIM
100
AcDbLine
 10
124.3089886062433
 20
422.4671583209397
 30
0.0
 11
124.3089886062433
 21
444.1990109825324
 31
0.0
  0
LINE
  5
45DE
330
3B22
100
AcDbEntity
  8
DIM
100
AcDbLine
 10
108.3089886062433
 20
442.6990109825323
 30
0.0
 11
122.3089886062433
 21
442.6990109825323
 31
0.0
  0
SOLID
  5
45DF
330
3B22
100
AcDbEntity
  8
DIM
100
AcDbTrace
 10
108.3089886062433
 20
443.0323443158656
 30
0.0
 11
108.3089886062433
 21
442.365677649199
 31
0.0
 12
106.3089886062433
 22
442.6990109825323
 32
0.0
 13
106.3089886062433
 23
442.6990109825323
 33
0.0
  0
SOLID
  5
45E0
330
3B22
100
AcDbEntity
  8
DIM
100
AcDbTrace
 10
122.3089886062433
 20
443.0323443158656
 30
0.0
 11
122.3089886062433
 21
442.365677649199
 31
0.0
 12
124.3089886062433
 22
442.6990109825323
 32
0.0
 13
124.3089886062433
 23
442.6990109825323
 33
0.0
  0
MTEXT
  5
45E1
330
3B22
100
AcDbEntity
  8
DIM
100
AcDbMText
 10
115.3089886062433
 20
444.6990109825324
 30
0.0
 40
2.0
 41
0.0
 71
     5
 72
     1
  1
\A1;18
  7
dayus
 73
     1
 44
1.0
1001
ACAD
1000
MTEXTBEGIN
1070
    73
1070
     1
1070
    44
1040
1.0
1070
    74
1070
     0
1000
MTEXTEND
  0
POINT
  5
45E2
330
3B22
100
AcDbEntity
  8
Defpoints
 62
     0
100
AcDbPoint
 10
106.3089886062433
 20
421.9671583209398
 30
0.0
  0
POINT
  5
45E3
330
3B22
100
AcDbEntity
  8
Defpoints
 62
     0
100
AcDbPoint
 10
124.3089886062433
 20
420.9671583209397
 30
0.0
  0
POINT
  5
45E4
330
3B22
100
AcDbEntity
  8
Defpoints
 62
     0
100
AcDbPoint
 10
124.3089886062433
 20
442.6990109825323
 30
0.0
  0
ENDBLK
  5
3B2D
330
3B22
100
AcDbEntity
  8
0
100
AcDbBlockEnd
  0
BLOCK
  5
3B38
330
3B2E
100
AcDbEntity
  8
0
100
AcDbBlockBegin
  2
*D5
 70
     1
 10
0.0
 20
0.0
 30
0.0
  3
*D5
  1

  0
LINE
  5
45E5
330
3B2E
100
AcDbEntity
  8
DIM
100
AcDbLine
 10
99.30898860624337
 20
440.4671583209396
 30
0.0
 11
99.30898860624337
 21
452.6167877835731
 31
0.0
  0
LINE
  5
45E6
330
3B2E
100
AcDbEntity
  8
DIM
100
AcDbLine
 10
124.3089886062433
 20
422.4671583209397
 30
0.0
 11
124.3089886062433
 21
452.6167877835731
 31
0.0
  0
LINE
  5
45E7
330
3B2E
100
AcDbEntity
  8
DIM
100
AcDbLine
 10
101.3089886062433
 20
451.1167877835731
 30
0.0
 11
122.3089886062433
 21
451.1167877835731
 31
0.0
  0
SOLID
  5
45E8
330
3B2E
100
AcDbEntity
  8
DIM
100
AcDbTrace
 10
101.3089886062433
 20
451.4501211169064
 30
0.0
 11
101.3089886062433
 21
450.7834544502398
 31
0.0
 12
99.30898860624337
 22
451.1167877835731
 32
0.0
 13
99.30898860624337
 23
451.1167877835731
 33
0.0
  0
SOLID
  5
45E9
330
3B2E
100
AcDbEntity
  8
DIM
100
AcDbTrace
 10
122.3089886062433
 20
451.4501211169064
 30
0.0
 11
122.3089886062433
 21
450.7834544502398
 31
0.0
 12
124.3089886062433
 22
451.1167877835731
 32
0.0
 13
124.3089886062433
 23
451.1167877835731
 33
0.0
  0
MTEXT
  5
45EA
330
3B2E
100
AcDbEntity
  8
DIM
100
AcDbMText
 10
111.8089886062433
 20
453.1167877835732
 30
0.0
 40
2.0
 41
0.0
 71
     5
 72
     1
  1
\A1;25
  7
dayus
 73
     1
 44
1.0
1001
ACAD
1000
MTEXTBEGIN
1070
    73
1070
     1
1070
    44
1040
1.0
1070
    74
1070
     0
1000
MTEXTEND
  0
POINT
  5
45EB
330
3B2E
100
AcDbEntity
  8
Defpoints
 62
     0
100
AcDbPoint
 10
99.30898860624337
 20
438.9671583209397
 30
0.0
  0
POINT
  5
45EC
330
3B2E
100
AcDbEntity
  8
Defpoints
 62
     0
100
AcDbPoint
 10
124.3089886062433
 20
420.9671583209397
 30
0.0
  0
POINT
  5
45ED
330
3B2E
100
AcDbEntity
  8
Defpoints
 62
     0
100
AcDbPoint
 10
124.3089886062433
 20
451.1167877835731
 30
0.0
  0
ENDBLK
  5
3B39
330
3B2E
100
AcDbEntity
  8
0
100
AcDbBlockEnd
  0
BLOCK
  5
3B44
330
3B3A
100
AcDbEntity
  8
0
100
AcDbBlockBegin
  2
*D6
 70
     1
 10
0.0
 20
0.0
 30
0.0
  3
*D6
  1

  0
LINE
  5
45EE
330
3B3A
100
AcDbEntity
  8
DIM
100
AcDbLine
 10
69.80898860624336
 20
440.4671583209396
 30
0.0
 11
69.80898860624336
 21
452.6167877835731
 31
0.0
  0
LINE
  5
45EF
330
3B3A
100
AcDbEntity
  8
DIM
100
AcDbLine
 10
99.30898860624337
 20
440.4671583209396
 30
0.0
 11
99.30898860624337
 21
452.6167877835731
 31
0.0
  0
LINE
  5
45F0
330
3B3A
100
AcDbEntity
  8
DIM
100
AcDbLine
 10
71.80898860624336
 20
451.1167877835731
 30
0.0
 11
97.30898860624336
 21
451.1167877835731
 31
0.0
  0
SOLID
  5
45F1
330
3B3A
100
AcDbEntity
  8
DIM
100
AcDbTrace
 10
71.80898860624336
 20
451.4501211169064
 30
0.0
 11
71.80898860624336
 21
450.7834544502398
 31
0.0
 12
69.80898860624336
 22
451.1167877835731
 32
0.0
 13
69.80898860624336
 23
451.1167877835731
 33
0.0
  0
SOLID
  5
45F2
330
3B3A
100
AcDbEntity
  8
DIM
100
AcDbTrace
 10
97.30898860624336
 20
451.4501211169064
 30
0.0
 11
97.30898860624336
 21
450.7834544502398
 31
0.0
 12
99.30898860624337
 22
451.1167877835731
 32
0.0
 13
99.30898860624337
 23
451.1167877835731
 33
0.0
  0
MTEXT
  5
45F3
330
3B3A
100
AcDbEntity
  8
DIM
100
AcDbMText
 10
84.55898860624335
 20
453.1167877835732
 30
0.0
 40
2.0
 41
0.0
 71
     5
 72
     1
  1
\A1;24.5+stroke=S
  7
dayus
 73
     1
 44
1.0
1001
ACAD
1000
MTEXTBEGIN
1070
    73
1070
     1
1070
    44
1040
1.0
1070
    74
1070
     0
1000
MTEXTEND
  0
POINT
  5
45F4
330
3B3A
100
AcDbEntity
  8
Defpoints
 62
     0
100
AcDbPoint
 10
69.80898860624336
 20
438.9671583209397
 30
0.0
  0
POINT
  5
45F5
330
3B3A
100
AcDbEntity
  8
Defpoints
 62
     0
100
AcDbPoint
 10
99.30898860624337
 20
438.9671583209397
 30
0.0
  0
POINT
  5
45F6
330
3B3A
100
AcDbEntity
  8
Defpoints
 62
     0
100
AcDbPoint
 10
99.30898860624337
 20
451.1167877835731
 30
0.0
  0
ENDBLK
  5
3B45
330
3B3A
100
AcDbEntity
  8
0
100
AcDbBlockEnd
  0
BLOCK
  5
3B50
330
3B46
100
AcDbEntity
  8
0
100
AcDbBlockBegin
  2
*D7
 70
     1
 10
0.0
 20
0.0
 30
0.0
  3
*D7
  1

  0
LINE
  5
45F7
330
3B46
100
AcDbEntity
  8
DIM
100
AcDbLine
 10
69.80898860624336
 20
440.4671583209396
 30
0.0
 11
69.80898860624336
 21
446.3555112352017
 31
0.0
  0
LINE
  5
45F8
330
3B46
100
AcDbEntity
  8
DIM
100
AcDbLine
 10
78.80898860624336
 20
423.2918969902393
 30
0.0
 11
78.80898860624336
 21
446.3555112352017
 31
0.0
  0
LINE
  5
45F9
330
3B46
100
AcDbEntity
  8
DIM
100
AcDbLine
 10
71.80898860624336
 20
444.8555112352018
 30
0.0
 11
76.80898860624336
 21
444.8555112352018
 31
0.0
  0
SOLID
  5
45FA
330
3B46
100
AcDbEntity
  8
DIM
100
AcDbTrace
 10
71.80898860624336
 20
445.1888445685351
 30
0.0
 11
71.80898860624336
 21
444.5221779018685
 31
0.0
 12
69.80898860624336
 22
444.8555112352018
 32
0.0
 13
69.80898860624336
 23
444.8555112352018
 33
0.0
  0
SOLID
  5
45FB
330
3B46
100
AcDbEntity
  8
DIM
100
AcDbTrace
 10
76.80898860624336
 20
445.1888445685351
 30
0.0
 11
76.80898860624336
 21
444.5221779018685
 31
0.0
 12
78.80898860624336
 22
444.8555112352018
 32
0.0
 13
78.80898860624336
 23
444.8555112352018
 33
0.0
  0
MTEXT
  5
45FC
330
3B46
100
AcDbEntity
  8
DIM
100
AcDbMText
 10
74.30898860624336
 20
446.8555112352017
 30
0.0
 40
2.0
 41
0.0
 71
     5
 72
     1
  1
\A1;9
  7
dayus
 73
     1
 44
1.0
1001
ACAD
1000
MTEXTBEGIN
1070
    73
1070
     1
1070
    44
1040
1.0
1070
    74
1070
     0
1000
MTEXTEND
  0
POINT
  5
45FD
330
3B46
100
AcDbEntity
  8
Defpoints
 62
     0
100
AcDbPoint
 10
69.80898860624336
 20
438.9671583209397
 30
0.0
  0
POINT
  5
45FE
330
3B46
100
AcDbEntity
  8
Defpoints
 62
     0
100
AcDbPoint
 10
78.80898860624336
 20
421.7918969902394
 30
0.0
  0
POINT
  5
45FF
330
3B46
100
AcDbEntity
  8
Defpoints
 62
     0
100
AcDbPoint
 10
78.80898860624336
 20
444.8555112352018
 30
0.0
  0
ENDBLK
  5
3B51
330
3B46
100
AcDbEntity
  8
0
100
AcDbBlockEnd
  0
BLOCK
  5
3B5C
330
3B52
100
AcDbEntity
  8
0
100
AcDbBlockBegin
  2
*D8
 70
     1
 10
0.0
 20
0.0
 30
0.0
  3
*D8
  1

  0
LINE
  5
4600
330
3B52
100
AcDbEntity
  8
DIM
100
AcDbLine
 10
90.30898860624336
 20
423.3405771267765
 30
0.0
 11
90.30898860624336
 21
446.3555112352017
 31
0.0
  0
LINE
  5
4601
330
3B52
100
AcDbEntity
  8
DIM
100
AcDbLine
 10
99.30898860624337
 20
440.4671583209396
 30
0.0
 11
99.30898860624337
 21
446.3555112352017
 31
0.0
  0
LINE
  5
4602
330
3B52
100
AcDbEntity
  8
DIM
100
AcDbLine
 10
92.30898860624336
 20
444.8555112352018
 30
0.0
 11
97.30898860624336
 21
444.8555112352018
 31
0.0
  0
SOLID
  5
4603
330
3B52
100
AcDbEntity
  8
DIM
100
AcDbTrace
 10
92.30898860624336
 20
445.1888445685351
 30
0.0
 11
92.30898860624336
 21
444.5221779018685
 31
0.0
 12
90.30898860624336
 22
444.8555112352018
 32
0.0
 13
90.30898860624336
 23
444.8555112352018
 33
0.0
  0
SOLID
  5
4604
330
3B52
100
AcDbEntity
  8
DIM
100
AcDbTrace
 10
97.30898860624336
 20
445.1888445685351
 30
0.0
 11
97.30898860624336
 21
444.5221779018685
 31
0.0
 12
99.30898860624337
 22
444.8555112352018
 32
0.0
 13
99.30898860624337
 23
444.8555112352018
 33
0.0
  0
MTEXT
  5
4605
330
3B52
100
AcDbEntity
  8
DIM
100
AcDbMText
 10
94.80898860624336
 20
446.8555112352017
 30
0.0
 40
2.0
 41
0.0
 71
     5
 72
     1
  1
\A1;9
  7
dayus
 73
     1
 44
1.0
1001
ACAD
1000
MTEXTBEGIN
1070
    73
1070
     1
1070
    44
1040
1.0
1070
    74
1070
     0
1000
MTEXTEND
  0
POINT
  5
4606
330
3B52
100
AcDbEntity
  8
Defpoints
 62
     0
100
AcDbPoint
 10
90.30898860624336
 20
421.8405771267765
 30
0.0
  0
POINT
  5
4607
330
3B52
100
AcDbEntity
  8
Defpoints
 62
     0
100
AcDbPoint
 10
99.30898860624337
 20
438.9671583209397
 30
0.0
  0
POINT
  5
4608
330
3B52
100
AcDbEntity
  8
Defpoints
 62
     0
100
AcDbPoint
 10
99.30898860624337
 20
444.8555112352018
 30
0.0
  0
ENDBLK
  5
3B5D
330
3B52
100
AcDbEntity
  8
0
100
AcDbBlockEnd
  0
BLOCK
  5
3B6A
330
3B5E
100
AcDbEntity
  8
0
100
AcDbBlockBegin
  2
*D9
 70
     1
 10
0.0
 20
0.0
 30
0.0
  3
*D9
  1

  0
LINE
  5
4609
330
3B5E
100
AcDbEntity
  8
DIM
100
AcDbLine
 10
99.30898860624337
 20
440.4671583209396
 30
0.0
 11
99.30898860624337
 21
446.3555112352017
 31
0.0
  0
LINE
  5
460A
330
3B5E
100
AcDbEntity
  8
DIM
100
AcDbLine
 10
102.3089886062433
 20
428.4671583209396
 30
0.0
 11
102.3089886062433
 21
446.3555112352017
 31
0.0
  0
LINE
  5
460B
330
3B5E
100
AcDbEntity
  8
DIM
100
AcDbLine
 10
97.30898860624336
 20
444.8555112352018
 30
0.0
 11
95.30898860624336
 21
444.8555112352018
 31
0.0
  0
LINE
  5
460C
330
3B5E
100
AcDbEntity
  8
DIM
100
AcDbLine
 10
104.3089886062433
 20
444.8555112352018
 30
0.0
 11
106.3089886062433
 21
444.8555112352018
 31
0.0
  0
LINE
  5
460D
330
3B5E
100
AcDbEntity
  8
DIM
100
AcDbLine
 10
99.30898860624337
 20
444.8555112352018
 30
0.0
 11
102.3089886062433
 21
444.8555112352018
 31
0.0
  0
SOLID
  5
460E
330
3B5E
100
AcDbEntity
  8
DIM
100
AcDbTrace
 10
97.30898860624336
 20
445.1888445685351
 30
0.0
 11
97.30898860624336
 21
444.5221779018685
 31
0.0
 12
99.30898860624337
 22
444.8555112352018
 32
0.0
 13
99.30898860624337
 23
444.8555112352018
 33
0.0
  0
SOLID
  5
460F
330
3B5E
100
AcDbEntity
  8
DIM
100
AcDbTrace
 10
104.3089886062433
 20
445.1888445685351
 30
0.0
 11
104.3089886062433
 21
444.5221779018685
 31
0.0
 12
102.3089886062433
 22
444.8555112352018
 32
0.0
 13
102.3089886062433
 23
444.8555112352018
 33
0.0
  0
MTEXT
  5
4610
330
3B5E
100
AcDbEntity
  8
DIM
100
AcDbMText
 10
100.8089886062433
 20
446.8555112352017
 30
0.0
 40
2.0
 41
0.0
 71
     5
 72
     1
  1
\A1;3
  7
dayus
 73
     1
 44
1.0
1001
ACAD
1000
MTEXTBEGIN
1070
    73
1070
     1
1070
    44
1040
1.0
1070
    74
1070
     0
1000
MTEXTEND
  0
POINT
  5
4611
330
3B5E
100
AcDbEntity
  8
Defpoints
 62
     0
100
AcDbPoint
 10
99.30898860624337
 20
438.9671583209397
 30
0.0
  0
POINT
  5
4612
330
3B5E
100
AcDbEntity
  8
Defpoints
 62
     0
100
AcDbPoint
 10
102.3089886062433
 20
426.9671583209396
 30
0.0
  0
POINT
  5
4613
330
3B5E
100
AcDbEntity
  8
Defpoints
 62
     0
100
AcDbPoint
 10
102.3089886062433
 20
444.8555112352018
 30
0.0
  0
ENDBLK
  5
3B6B
330
3B5E
100
AcDbEntity
  8
0
100
AcDbBlockEnd
  0
BLOCK
  5
3B76
330
3B6C
100
AcDbEntity
  8
0
100
AcDbBlockBegin
  2
*D10
 70
     1
 10
0.0
 20
0.0
 30
0.0
  3
*D10
  1

  0
LINE
  5
4614
330
3B6C
100
AcDbEntity
  8
DIM
100
AcDbLine
 10
69.80898860624336
 20
440.4671583209396
 30
0.0
 11
69.80898860624336
 21
459.2201264383541
 31
0.0
  0
LINE
  5
4615
330
3B6C
100
AcDbEntity
  8
DIM
100
AcDbLine
 10
124.3089886062433
 20
422.4671583209397
 30
0.0
 11
124.3089886062433
 21
459.2201264383541
 31
0.0
  0
LINE
  5
4616
330
3B6C
100
AcDbEntity
  8
DIM
100
AcDbLine
 10
71.80898860624336
 20
457.7201264383541
 30
0.0
 11
122.3089886062433
 21
457.7201264383541
 31
0.0
  0
SOLID
  5
4617
330
3B6C
100
AcDbEntity
  8
DIM
100
AcDbTrace
 10
71.80898860624336
 20
458.0534597716875
 30
0.0
 11
71.80898860624336
 21
457.3867931050208
 31
0.0
 12
69.80898860624336
 22
457.7201264383541
 32
0.0
 13
69.80898860624336
 23
457.7201264383541
 33
0.0
  0
SOLID
  5
4618
330
3B6C
100
AcDbEntity
  8
DIM
100
AcDbTrace
 10
122.3089886062433
 20
458.0534597716875
 30
0.0
 11
122.3089886062433
 21
457.3867931050208
 31
0.0
 12
124.3089886062433
 22
457.7201264383541
 32
0.0
 13
124.3089886062433
 23
457.7201264383541
 33
0.0
  0
MTEXT
  5
4619
330
3B6C
100
AcDbEntity
  8
DIM
100
AcDbMText
 10
97.05898860624337
 20
459.7201264383541
 30
0.0
 40
2.0
 41
0.0
 71
     5
 72
     1
  1
\A1;49.5+stroke=ZZ
  7
dayus
 73
     1
 44
1.0
1001
ACAD
1000
MTEXTBEGIN
1070
    73
1070
     1
1070
    44
1040
1.0
1070
    74
1070
     0
1000
MTEXTEND
  0
POINT
  5
461A
330
3B6C
100
AcDbEntity
  8
Defpoints
 62
     0
100
AcDbPoint
 10
69.80898860624336
 20
438.9671583209397
 30
0.0
  0
POINT
  5
461B
330
3B6C
100
AcDbEntity
  8
Defpoints
 62
     0
100
AcDbPoint
 10
124.3089886062433
 20
420.9671583209397
 30
0.0
  0
POINT
  5
461C
330
3B6C
100
AcDbEntity
  8
Defpoints
 62
     0
100
AcDbPoint
 10
124.3089886062433
 20
457.7201264383541
 30
0.0
  0
ENDBLK
  5
3B77
330
3B6C
100
AcDbEntity
  8
0
100
AcDbBlockEnd
  0
BLOCK
  5
3B82
330
3B78
100
AcDbEntity
  8
0
100
AcDbBlockBegin
  2
*D11
 70
     1
 10
0.0
 20
0.0
 30
0.0
  3
*D11
  1

  0
LINE
  5
461D
330
3B78
100
AcDbEntity
  8
DIM
100
AcDbLine
 10
103.8089886062433
 20
410.9671583209393
 30
0.0
 11
134.73897880386
 21
410.9671583209393
 31
0.0
  0
LINE
  5
461E
330
3B78
100
AcDbEntity
  8
DIM
100
AcDbLine
 10
103.8089886062438
 20
422.9671583209397
 30
0.0
 11
134.73897880386
 21
422.9671583209397
 31
0.0
  0
LINE
  5
461F
330
3B78
100
AcDbEntity
  8
DIM
100
AcDbLine
 10
133.23897880386
 20
412.9671583209392
 30
0.0
 11
133.23897880386
 21
420.9671583209397
 31
0.0
  0
SOLID
  5
4620
330
3B78
100
AcDbEntity
  8
DIM
100
AcDbTrace
 10
132.9056454705267
 20
412.9671583209392
 30
0.0
 11
133.5723121371934
 21
412.9671583209392
 31
0.0
 12
133.23897880386
 22
410.9671583209393
 32
0.0
 13
133.23897880386
 23
410.9671583209393
 33
0.0
  0
SOLID
  5
4621
330
3B78
100
AcDbEntity
  8
DIM
100
AcDbTrace
 10
132.9056454705267
 20
420.9671583209397
 30
0.0
 11
133.5723121371934
 21
420.9671583209397
 31
0.0
 12
133.23897880386
 22
422.9671583209397
 32
0.0
 13
133.23897880386
 23
422.9671583209397
 33
0.0
  0
MTEXT
  5
4622
330
3B78
100
AcDbEntity
  8
DIM
100
AcDbMText
 10
131.23897880386
 20
416.9671583209395
 30
0.0
 40
2.0
 41
0.0
 71
     5
 72
     1
  1
\A1;%%c12
  7
dayus
 11
0.0000000000000001
 21
1.0
 31
0.0
 73
     1
 44
1.0
1001
ACAD
1000
MTEXTBEGIN
1070
    73
1070
     1
1070
    44
1040
1.0
1070
    74
1070
     0
1000
MTEXTEND
  0
POINT
  5
4623
330
3B78
100
AcDbEntity
  8
Defpoints
 62
     0
100
AcDbPoint
 10
102.3089886062433
 20
410.9671583209393
 30
0.0
  0
POINT
  5
4624
330
3B78
100
AcDbEntity
  8
Defpoints
 62
     0
100
AcDbPoint
 10
102.3089886062438
 20
422.9671583209397
 30
0.0
  0
POINT
  5
4625
330
3B78
100
AcDbEntity
  8
Defpoints
 62
     0
100
AcDbPoint
 10
133.23897880386
 20
422.9671583209397
 30
0.0
  0
ENDBLK
  5
3B83
330
3B78
100
AcDbEntity
  8
0
100
AcDbBlockEnd
  0
BLOCK
  5
3B8E
330
3B84
100
AcDbEntity
  8
0
100
AcDbBlockBegin
  2
*D12
 70
     1
 10
0.0
 20
0.0
 30
0.0
  3
*D12
  1

  0
LINE
  5
4626
330
3B84
100
AcDbEntity
  8
DIM
100
AcDbLine
 10
102.8089886062433
 20
405.9671583209397
 30
0.0
 11
142.1240264087697
 21
405.9671583209396
 31
0.0
  0
LINE
  5
4627
330
3B84
100
AcDbEntity
  8
DIM
100
AcDbLine
 10
102.8089886062433
 20
427.9671583209396
 30
0.0
 11
142.1240264087697
 21
427.9671583209396
 31
0.0
  0
LINE
  5
4628
330
3B84
100
AcDbEntity
  8
DIM
100
AcDbLine
 10
140.6240264087697
 20
407.9671583209396
 30
0.0
 11
140.6240264087697
 21
425.9671583209396
 31
0.0
  0
SOLID
  5
4629
330
3B84
100
AcDbEntity
  8
DIM
100
AcDbTrace
 10
140.2906930754364
 20
407.9671583209396
 30
0.0
 11
140.9573597421031
 21
407.9671583209396
 31
0.0
 12
140.6240264087697
 22
405.9671583209396
 32
0.0
 13
140.6240264087697
 23
405.9671583209396
 33
0.0
  0
SOLID
  5
462A
330
3B84
100
AcDbEntity
  8
DIM
100
AcDbTrace
 10
140.2906930754364
 20
425.9671583209396
 30
0.0
 11
140.9573597421031
 21
425.9671583209396
 31
0.0
 12
140.6240264087697
 22
427.9671583209396
 32
0.0
 13
140.6240264087697
 23
427.9671583209396
 33
0.0
  0
MTEXT
  5
462B
330
3B84
100
AcDbEntity
  8
DIM
100
AcDbMText
 10
137.967359742103
 20
416.9671583209397
 30
0.0
 40
2.0
 41
0.0
 71
     5
 72
     1
  1
\A1;%%c22{}{\H0.71x;\C3;\S 0^ -0.05;}
  7
dayus
 11
0.0000000000000001
 21
1.0
 31
0.0
 73
     1
 44
1.0
1001
ACAD
1000
MTEXTBEGIN
1070
    73
1070
     1
1070
    44
1040
1.0
1070
    74
1070
     0
1000
MTEXTEND
  0
POINT
  5
462C
330
3B84
100
AcDbEntity
  8
Defpoints
 62
     0
100
AcDbPoint
 10
101.3089886062433
 20
405.9671583209397
 30
0.0
  0
POINT
  5
462D
330
3B84
100
AcDbEntity
  8
Defpoints
 62
     0
100
AcDbPoint
 10
101.3089886062433
 20
427.9671583209396
 30
0.0
  0
POINT
  5
462E
330
3B84
100
AcDbEntity
  8
Defpoints
 62
     0
100
AcDbPoint
 10
140.6240264087697
 20
427.9671583209396
 30
0.0
  0
ENDBLK
  5
3B8F
330
3B84
100
AcDbEntity
  8
0
100
AcDbBlockEnd
  0
BLOCK
  5
3B9C
330
3B90
100
AcDbEntity
  8
0
100
AcDbBlockBegin
  2
*D13
 70
     1
 10
0.0
 20
0.0
 30
0.0
  3
*D13
  1

  0
LINE
  5
462F
330
3B90
100
AcDbEntity
  8
DIM
100
AcDbLine
 10
103.3089886062438
 20
412.3446593217401
 30
0.0
 11
103.3089886062438
 21
397.3247150677812
 31
0.0
  0
LINE
  5
4630
330
3B90
100
AcDbEntity
  8
DIM
100
AcDbLine
 10
106.3089886062433
 20
410.4671583209396
 30
0.0
 11
106.3089886062433
 21
397.3247150677812
 31
0.0
  0
LINE
  5
4631
330
3B90
100
AcDbEntity
  8
DIM
100
AcDbLine
 10
101.3089886062438
 20
398.8247150677812
 30
0.0
 11
99.30898860624381
 21
398.8247150677812
 31
0.0
  0
LINE
  5
4632
330
3B90
100
AcDbEntity
  8
DIM
100
AcDbLine
 10
108.3089886062433
 20
398.8247150677812
 30
0.0
 11
110.3089886062433
 21
398.8247150677812
 31
0.0
  0
LINE
  5
4633
330
3B90
100
AcDbEntity
  8
DIM
100
AcDbLine
 10
103.3089886062438
 20
398.8247150677812
 30
0.0
 11
106.3089886062433
 21
398.8247150677812
 31
0.0
  0
SOLID
  5
4634
330
3B90
100
AcDbEntity
  8
DIM
100
AcDbTrace
 10
101.3089886062438
 20
399.1580484011145
 30
0.0
 11
101.3089886062438
 21
398.4913817344479
 31
0.0
 12
103.3089886062438
 22
398.8247150677812
 32
0.0
 13
103.3089886062438
 23
398.8247150677812
 33
0.0
  0
SOLID
  5
4635
330
3B90
100
AcDbEntity
  8
DIM
100
AcDbTrace
 10
108.3089886062433
 20
399.1580484011145
 30
0.0
 11
108.3089886062433
 21
398.4913817344479
 31
0.0
 12
106.3089886062433
 22
398.8247150677812
 32
0.0
 13
106.3089886062433
 23
398.8247150677812
 33
0.0
  0
MTEXT
  5
4636
330
3B90
100
AcDbEntity
  8
DIM
100
AcDbMText
 10
104.8089886062436
 20
400.8247150677812
 30
0.0
 40
2.0
 41
0.0
 71
     5
 72
     1
  1
\A1;3
  7
dayus
 73
     1
 44
1.0
1001
ACAD
1000
MTEXTBEGIN
1070
    73
1070
     1
1070
    44
1040
1.0
1070
    74
1070
     0
1000
MTEXTEND
  0
POINT
  5
4637
330
3B90
100
AcDbEntity
  8
Defpoints
 62
     0
100
AcDbPoint
 10
103.3089886062438
 20
413.8446593217401
 30
0.0
  0
POINT
  5
4638
330
3B90
100
AcDbEntity
  8
Defpoints
 62
     0
100
AcDbPoint
 10
106.3089886062433
 20
411.9671583209396
 30
0.0
  0
POINT
  5
4639
330
3B90
100
AcDbEntity
  8
Defpoints
 62
     0
100
AcDbPoint
 10
106.3089886062433
 20
398.8247150677812
 30
0.0
  0
ENDBLK
  5
3B9D
330
3B90
100
AcDbEntity
  8
0
100
AcDbBlockEnd
  0
BLOCK
  5
3BA8
330
3B9E
100
AcDbEntity
  8
0
100
AcDbBlockBegin
  2
*D14
 70
     1
 10
0.0
 20
0.0
 30
0.0
  3
*D14
  1

  0
LINE
  5
463A
330
3B9E
100
AcDbEntity
  8
DIM
100
AcDbLine
 10
174.3861181759035
 20
441.4075740883431
 30
0.0
 11
174.3861181759035
 21
446.3555112352017
 31
0.0
  0
LINE
  5
463B
330
3B9E
100
AcDbEntity
  8
DIM
100
AcDbLine
 10
208.3861181759036
 20
441.4075740883431
 30
0.0
 11
208.3861181759036
 21
446.3555112352017
 31
0.0
  0
LINE
  5
463C
330
3B9E
100
AcDbEntity
  8
DIM
100
AcDbLine
 10
176.3861181759035
 20
444.8555112352018
 30
0.0
 11
206.3861181759035
 21
444.8555112352018
 31
0.0
  0
SOLID
  5
463D
330
3B9E
100
AcDbEntity
  8
DIM
100
AcDbTrace
 10
176.3861181759035
 20
445.1888445685351
 30
0.0
 11
176.3861181759035
 21
444.5221779018685
 31
0.0
 12
174.3861181759035
 22
444.8555112352018
 32
0.0
 13
174.3861181759035
 23
444.8555112352018
 33
0.0
  0
SOLID
  5
463E
330
3B9E
100
AcDbEntity
  8
DIM
100
AcDbTrace
 10
206.3861181759035
 20
445.1888445685351
 30
0.0
 11
206.3861181759035
 21
444.5221779018685
 31
0.0
 12
208.3861181759036
 22
444.8555112352018
 32
0.0
 13
208.3861181759036
 23
444.8555112352018
 33
0.0
  0
MTEXT
  5
463F
330
3B9E
100
AcDbEntity
  8
DIM
100
AcDbMText
 10
191.3861181759035
 20
446.8555112352017
 30
0.0
 40
2.0
 41
0.0
 71
     5
 72
     1
  1
\A1;□34
  7
dayus
 73
     1
 44
1.0
1001
ACAD
1000
MTEXTBEGIN
1070
    73
1070
     1
1070
    44
1040
1.0
1070
    74
1070
     0
1000
MTEXTEND
  0
POINT
  5
4640
330
3B9E
100
AcDbEntity
  8
Defpoints
 62
     0
100
AcDbPoint
 10
174.3861181759035
 20
439.9075740883431
 30
0.0
  0
POINT
  5
4641
330
3B9E
100
AcDbEntity
  8
Defpoints
 62
     0
100
AcDbPoint
 10
208.3861181759036
 20
439.9075740883431
 30
0.0
  0
POINT
  5
4642
330
3B9E
100
AcDbEntity
  8
Defpoints
 62
     0
100
AcDbPoint
 10
208.3861181759036
 20
444.8555112352018
 30
0.0
  0
ENDBLK
  5
3BA9
330
3B9E
100
AcDbEntity
  8
0
100
AcDbBlockEnd
  0
BLOCK
  5
3BB4
330
3BAA
100
AcDbEntity
  8
0
100
AcDbBlockBegin
  2
*D15
 70
     1
 10
0.0
 20
0.0
 30
0.0
  3
*D15
  1

  0
LINE
  5
4643
330
3BAA
100
AcDbEntity
  8
DIM
100
AcDbLine
 10
169.3861181759035
 20
438.2488976303086
 30
0.0
 11
169.3861181759035
 21
452.6167877835731
 31
0.0
  0
LINE
  5
4644
330
3BAA
100
AcDbEntity
  8
DIM
100
AcDbLine
 10
213.3861181759038
 20
438.1204023279729
 30
0.0
 11
213.3861181759038
 21
452.6167877835731
 31
0.0
  0
LINE
  5
4645
330
3BAA
100
AcDbEntity
  8
DIM
100
AcDbLine
 10
171.3861181759035
 20
451.1167877835731
 30
0.0
 11
211.3861181759038
 21
451.1167877835731
 31
0.0
  0
SOLID
  5
4646
330
3BAA
100
AcDbEntity
  8
DIM
100
AcDbTrace
 10
171.3861181759035
 20
451.4501211169064
 30
0.0
 11
171.3861181759035
 21
450.7834544502398
 31
0.0
 12
169.3861181759035
 22
451.1167877835731
 32
0.0
 13
169.3861181759035
 23
451.1167877835731
 33
0.0
  0
SOLID
  5
4647
330
3BAA
100
AcDbEntity
  8
DIM
100
AcDbTrace
 10
211.3861181759038
 20
451.4501211169064
 30
0.0
 11
211.3861181759038
 21
450.7834544502398
 31
0.0
 12
213.3861181759038
 22
451.1167877835731
 32
0.0
 13
213.3861181759038
 23
451.1167877835731
 33
0.0
  0
MTEXT
  5
4648
330
3BAA
100
AcDbEntity
  8
DIM
100
AcDbMText
 10
191.3861181759036
 20
453.1167877835732
 30
0.0
 40
2.0
 41
0.0
 71
     5
 72
     1
  1
\A1;□44
  7
dayus
 73
     1
 44
1.0
1001
ACAD
1000
MTEXTBEGIN
1070
    73
1070
     1
1070
    44
1040
1.0
1070
    74
1070
     0
1000
MTEXTEND
  0
POINT
  5
4649
330
3BAA
100
AcDbEntity
  8
Defpoints
 62
     0
100
AcDbPoint
 10
169.3861181759035
 20
436.7488976303086
 30
0.0
  0
POINT
  5
464A
330
3BAA
100
AcDbEntity
  8
Defpoints
 62
     0
100
AcDbPoint
 10
213.3861181759038
 20
436.6204023279729
 30
0.0
  0
POINT
  5
464B
330
3BAA
100
AcDbEntity
  8
Defpoints
 62
     0
100
AcDbPoint
 10
213.3861181759038
 20
451.1167877835731
 30
0.0
  0
ENDBLK
  5
3BB5
330
3BAA
100
AcDbEntity
  8
0
100
AcDbBlockEnd
  0
BLOCK
  5
3BC0
330
3BB6
100
AcDbEntity
  8
0
100
AcDbBlockBegin
  2
*D16
 70
     1
 10
0.0
 20
0.0
 30
0.0
  3
*D16
  1

  0
LINE
  5
464C
330
3BB6
100
AcDbEntity
  8
DIM
100
AcDbLine
 10
164.8861181759035
 20
425.2831317446264
 30
0.0
 11
164.8861181759035
 21
459.2201264383541
 31
0.0
  0
LINE
  5
464D
330
3BB6
100
AcDbEntity
  8
DIM
100
AcDbLine
 10
213.3861181759036
 20
438.1204023279732
 30
0.0
 11
213.3861181759036
 21
459.2201264383541
 31
0.0
  0
LINE
  5
464E
330
3BB6
100
AcDbEntity
  8
DIM
100
AcDbLine
 10
166.8861181759035
 20
457.7201264383541
 30
0.0
 11
211.3861181759036
 21
457.7201264383541
 31
0.0
  0
SOLID
  5
464F
330
3BB6
100
AcDbEntity
  8
DIM
100
AcDbTrace
 10
166.8861181759035
 20
458.0534597716875
 30
0.0
 11
166.8861181759035
 21
457.3867931050208
 31
0.0
 12
164.8861181759035
 22
457.7201264383541
 32
0.0
 13
164.8861181759035
 23
457.7201264383541
 33
0.0
  0
SOLID
  5
4650
330
3BB6
100
AcDbEntity
  8
DIM
100
AcDbTrace
 10
211.3861181759036
 20
458.0534597716875
 30
0.0
 11
211.3861181759036
 21
457.3867931050208
 31
0.0
 12
213.3861181759036
 22
457.7201264383541
 32
0.0
 13
213.3861181759036
 23
457.7201264383541
 33
0.0
  0
MTEXT
  5
4651
330
3BB6
100
AcDbEntity
  8
DIM
100
AcDbMText
 10
189.1361181759035
 20
459.7201264383541
 30
0.0
 40
2.0
 41
0.0
 71
     5
 72
     1
  1
\A1;48.5
  7
dayus
 73
     1
 44
1.0
1001
ACAD
1000
MTEXTBEGIN
1070
    73
1070
     1
1070
    44
1040
1.0
1070
    74
1070
     0
1000
MTEXTEND
  0
POINT
  5
4652
330
3BB6
100
AcDbEntity
  8
Defpoints
 62
     0
100
AcDbPoint
 10
164.8861181759035
 20
423.7831317446263
 30
0.0
  0
POINT
  5
4653
330
3BB6
100
AcDbEntity
  8
Defpoints
 62
     0
100
AcDbPoint
 10
213.3861181759036
 20
436.6204023279732
 30
0.0
  0
POINT
  5
4654
330
3BB6
100
AcDbEntity
  8
Defpoints
 62
     0
100
AcDbPoint
 10
213.3861181759036
 20
457.7201264383541
 30
0.0
  0
ENDBLK
  5
3BC1
330
3BB6
100
AcDbEntity
  8
0
100
AcDbBlockEnd
  0
BLOCK
  5
3BCC
330
3BC2
100
AcDbEntity
  8
0
100
AcDbBlockBegin
  2
*D17
 70
     1
 10
0.0
 20
0.0
 30
0.0
  3
*D17
  1

  0
LINE
  5
4655
330
3BC2
100
AcDbEntity
  8
DIM
100
AcDbLine
 10
163.4389417185568
 20
423.9185536424233
 30
0.0
 11
156.3695610923487
 21
423.9185536424233
 31
0.0
  0
LINE
  5
4656
330
3BC2
100
AcDbEntity
  8
DIM
100
AcDbLine
 10
163.4389417185568
 20
410.0157629994559
 30
0.0
 11
156.3695610923487
 21
410.0157629994559
 31
0.0
  0
LINE
  5
4657
330
3BC2
100
AcDbEntity
  8
DIM
100
AcDbLine
 10
157.8695610923487
 20
421.9185536424233
 30
0.0
 11
157.8695610923487
 21
412.0157629994558
 31
0.0
  0
SOLID
  5
4658
330
3BC2
100
AcDbEntity
  8
DIM
100
AcDbTrace
 10
157.5362277590153
 20
421.9185536424233
 30
0.0
 11
158.202894425682
 21
421.9185536424233
 31
0.0
 12
157.8695610923487
 22
423.9185536424233
 32
0.0
 13
157.8695610923487
 23
423.9185536424233
 33
0.0
  0
SOLID
  5
4659
330
3BC2
100
AcDbEntity
  8
DIM
100
AcDbTrace
 10
157.5362277590153
 20
412.0157629994558
 30
0.0
 11
158.202894425682
 21
412.0157629994558
 31
0.0
 12
157.8695610923487
 22
410.0157629994559
 32
0.0
 13
157.8695610923487
 23
410.0157629994559
 33
0.0
  0
MTEXT
  5
465A
330
3BC2
100
AcDbEntity
  8
DIM
100
AcDbMText
 10
155.8695610923486
 20
416.9671583209397
 30
0.0
 40
2.0
 41
0.0
 71
     5
 72
     1
  1
\A1;14
  7
dayus
 11
0.0000000000000001
 21
1.0
 31
0.0
 73
     1
 44
1.0
1001
ACAD
1000
MTEXTBEGIN
1070
    73
1070
     1
1070
    44
1040
1.0
1070
    74
1070
     0
1000
MTEXTEND
  0
POINT
  5
465B
330
3BC2
100
AcDbEntity
  8
Defpoints
 62
     0
100
AcDbPoint
 10
164.9389417185568
 20
423.9185536424233
 30
0.0
  0
POINT
  5
465C
330
3BC2
100
AcDbEntity
  8
Defpoints
 62
     0
100
AcDbPoint
 10
164.9389417185568
 20
410.0157629994559
 30
0.0
  0
POINT
  5
465D
330
3BC2
100
AcDbEntity
  8
Defpoints
 62
     0
100
AcDbPoint
 10
157.8695610923487
 20
410.0157629994559
 30
0.0
  0
ENDBLK
  5
3BCD
330
3BC2
100
AcDbEntity
  8
0
100
AcDbBlockEnd
  0
BLOCK
  5
3BD8
330
3BCE
100
AcDbEntity
  8
0
100
AcDbBlockBegin
  2
*D18
 70
     1
 10
0.0
 20
0.0
 30
0.0
  3
*D18
  1

  0
LINE
  5
465E
330
3BCE
100
AcDbEntity
  8
DIM
100
AcDbLine
 10
186.3861181759033
 20
412.1505335305845
 30
0.0
 11
186.3861181759033
 21
385.5309438090231
 31
0.0
  0
LINE
  5
465F
330
3BCE
100
AcDbEntity
  8
DIM
100
AcDbLine
 10
196.3861181759033
 20
412.1505335305843
 30
0.0
 11
196.3861181759033
 21
385.5309438090231
 31
0.0
  0
LINE
  5
4660
330
3BCE
100
AcDbEntity
  8
DIM
100
AcDbLine
 10
188.3861181759033
 20
387.0309438090231
 30
0.0
 11
194.3861181759033
 21
387.0309438090231
 31
0.0
  0
SOLID
  5
4661
330
3BCE
100
AcDbEntity
  8
DIM
100
AcDbTrace
 10
188.3861181759033
 20
387.3642771423564
 30
0.0
 11
188.3861181759033
 21
386.6976104756898
 31
0.0
 12
186.3861181759033
 22
387.0309438090231
 32
0.0
 13
186.3861181759033
 23
387.0309438090231
 33
0.0
  0
SOLID
  5
4662
330
3BCE
100
AcDbEntity
  8
DIM
100
AcDbTrace
 10
194.3861181759033
 20
387.3642771423564
 30
0.0
 11
194.3861181759033
 21
386.6976104756898
 31
0.0
 12
196.3861181759033
 22
387.0309438090231
 32
0.0
 13
196.3861181759033
 23
387.0309438090231
 33
0.0
  0
MTEXT
  5
4663
330
3BCE
100
AcDbEntity
  8
DIM
100
AcDbMText
 10
191.3861181759033
 20
389.0309438090231
 30
0.0
 40
2.0
 41
0.0
 71
     5
 72
     1
  1
\A1;□10
  7
dayus
 73
     1
 44
1.0
1001
ACAD
1000
MTEXTBEGIN
1070
    73
1070
     1
1070
    44
1040
1.0
1070
    74
1070
     0
1000
MTEXTEND
  0
POINT
  5
4664
330
3BCE
100
AcDbEntity
  8
Defpoints
 62
     0
100
AcDbPoint
 10
186.3861181759033
 20
413.6505335305845
 30
0.0
  0
POINT
  5
4665
330
3BCE
100
AcDbEntity
  8
Defpoints
 62
     0
100
AcDbPoint
 10
196.3861181759033
 20
413.6505335305844
 30
0.0
  0
POINT
  5
4666
330
3BCE
100
AcDbEntity
  8
Defpoints
 62
     0
100
AcDbPoint
 10
196.3861181759033
 20
387.0309438090231
 30
0.0
  0
ENDBLK
  5
3BD9
330
3BCE
100
AcDbEntity
  8
0
100
AcDbBlockEnd
  0
BLOCK
  5
3BE4
330
3BDA
100
AcDbEntity
  8
0
100
AcDbBlockBegin
  2
*D19
 70
     1
 10
0.0
 20
0.0
 30
0.0
  3
*D19
  1

  0
LINE
  5
4667
330
3BDA
100
AcDbEntity
  8
DIM
100
AcDbLine
 10
99.30898860624337
 20
307.3231171283887
 30
0.0
 11
99.30898860624337
 21
318.764760134087
 31
0.0
  0
LINE
  5
4668
330
3BDA
100
AcDbEntity
  8
DIM
100
AcDbLine
 10
106.3089886062433
 20
290.3231171283887
 30
0.0
 11
106.3089886062433
 21
318.764760134087
 31
0.0
  0
LINE
  5
4669
330
3BDA
100
AcDbEntity
  8
DIM
100
AcDbLine
 10
101.3089886062433
 20
317.264760134087
 30
0.0
 11
104.3089886062433
 21
317.264760134087
 31
0.0
  0
SOLID
  5
466A
330
3BDA
100
AcDbEntity
  8
DIM
100
AcDbTrace
 10
101.3089886062433
 20
317.5980934674204
 30
0.0
 11
101.3089886062433
 21
316.9314268007537
 31
0.0
 12
99.30898860624337
 22
317.264760134087
 32
0.0
 13
99.30898860624337
 23
317.264760134087
 33
0.0
  0
SOLID
  5
466B
330
3BDA
100
AcDbEntity
  8
DIM
100
AcDbTrace
 10
104.3089886062433
 20
317.5980934674204
 30
0.0
 11
104.3089886062433
 21
316.9314268007537
 31
0.0
 12
106.3089886062433
 22
317.264760134087
 32
0.0
 13
106.3089886062433
 23
317.264760134087
 33
0.0
  0
MTEXT
  5
466C
330
3BDA
100
AcDbEntity
  8
DIM
100
AcDbMText
 10
102.8089886062433
 20
319.264760134087
 30
0.0
 40
2.0
 41
0.0
 71
     5
 72
     1
  1
\A1;7
  7
dayus
 73
     1
 44
1.0
1001
ACAD
1000
MTEXTBEGIN
1070
    73
1070
     1
1070
    44
1040
1.0
1070
    74
1070
     0
1000
MTEXTEND
  0
POINT
  5
466D
330
3BDA
100
AcDbEntity
  8
Defpoints
 62
     0
100
AcDbPoint
 10
99.30898860624337
 20
305.8231171283887
 30
0.0
  0
POINT
  5
466E
330
3BDA
100
AcDbEntity
  8
Defpoints
 62
     0
100
AcDbPoint
 10
106.3089886062433
 20
288.8231171283887
 30
0.0
  0
POINT
  5
466F
330
3BDA
100
AcDbEntity
  8
Defpoints
 62
     0
100
AcDbPoint
 10
106.3089886062433
 20
317.264760134087
 30
0.0
  0
ENDBLK
  5
3BE5
330
3BDA
100
AcDbEntity
  8
0
100
AcDbBlockEnd
  0
BLOCK
  5
3BF2
330
3BE6
100
AcDbEntity
  8
0
100
AcDbBlockBegin
  2
*D20
 70
     1
 10
0.0
 20
0.0
 30
0.0
  3
*D20
  1

  0
LINE
  5
4670
330
3BE6
100
AcDbEntity
  8
DIM
100
AcDbLine
 10
99.30898860624337
 20
307.3231171283887
 30
0.0
 11
99.30898860624337
 21
313.3778163756082
 31
0.0
  0
LINE
  5
4671
330
3BE6
100
AcDbEntity
  8
DIM
100
AcDbLine
 10
102.3089886062433
 20
295.3231171283887
 30
0.0
 11
102.3089886062433
 21
313.3778163756082
 31
0.0
  0
LINE
  5
4672
330
3BE6
100
AcDbEntity
  8
DIM
100
AcDbLine
 10
97.30898860624336
 20
311.8778163756082
 30
0.0
 11
95.30898860624336
 21
311.8778163756082
 31
0.0
  0
LINE
  5
4673
330
3BE6
100
AcDbEntity
  8
DIM
100
AcDbLine
 10
104.3089886062433
 20
311.8778163756082
 30
0.0
 11
106.3089886062433
 21
311.8778163756082
 31
0.0
  0
LINE
  5
4674
330
3BE6
100
AcDbEntity
  8
DIM
100
AcDbLine
 10
99.30898860624337
 20
311.8778163756082
 30
0.0
 11
102.3089886062433
 21
311.8778163756082
 31
0.0
  0
SOLID
  5
4675
330
3BE6
100
AcDbEntity
  8
DIM
100
AcDbTrace
 10
97.30898860624336
 20
312.2111497089415
 30
0.0
 11
97.30898860624336
 21
311.5444830422749
 31
0.0
 12
99.30898860624337
 22
311.8778163756082
 32
0.0
 13
99.30898860624337
 23
311.8778163756082
 33
0.0
  0
SOLID
  5
4676
330
3BE6
100
AcDbEntity
  8
DIM
100
AcDbTrace
 10
104.3089886062433
 20
312.2111497089415
 30
0.0
 11
104.3089886062433
 21
311.5444830422749
 31
0.0
 12
102.3089886062433
 22
311.8778163756082
 32
0.0
 13
102.3089886062433
 23
311.8778163756082
 33
0.0
  0
MTEXT
  5
4677
330
3BE6
100
AcDbEntity
  8
DIM
100
AcDbMText
 10
100.8089886062433
 20
313.8778163756082
 30
0.0
 40
2.0
 41
0.0
 71
     5
 72
     1
  1
\A1;3
  7
dayus
 73
     1
 44
1.0
1001
ACAD
1000
MTEXTBEGIN
1070
    73
1070
     1
1070
    44
1040
1.0
1070
    74
1070
     0
1000
MTEXTEND
  0
POINT
  5
4678
330
3BE6
100
AcDbEntity
  8
Defpoints
 62
     0
100
AcDbPoint
 10
99.30898860624337
 20
305.8231171283887
 30
0.0
  0
POINT
  5
4679
330
3BE6
100
AcDbEntity
  8
Defpoints
 62
     0
100
AcDbPoint
 10
102.3089886062433
 20
293.8231171283888
 30
0.0
  0
POINT
  5
467A
330
3BE6
100
AcDbEntity
  8
Defpoints
 62
     0
100
AcDbPoint
 10
102.3089886062433
 20
311.8778163756082
 30
0.0
  0
ENDBLK
  5
3BF3
330
3BE6
100
AcDbEntity
  8
0
100
AcDbBlockEnd
  0
BLOCK
  5
3BFE
330
3BF4
100
AcDbEntity
  8
0
100
AcDbBlockBegin
  2
*D21
 70
     1
 10
0.0
 20
0.0
 30
0.0
  3
*D21
  1

  0
LINE
  5
467B
330
3BF4
100
AcDbEntity
  8
DIM
100
AcDbLine
 10
69.80898860624336
 20
307.3231171283887
 30
0.0
 11
69.80898860624336
 21
313.3778163756082
 31
0.0
  0
LINE
  5
467C
330
3BF4
100
AcDbEntity
  8
DIM
100
AcDbLine
 10
78.80898860624336
 20
290.1478557976883
 30
0.0
 11
78.80898860624336
 21
313.3778163756082
 31
0.0
  0
LINE
  5
467D
330
3BF4
100
AcDbEntity
  8
DIM
100
AcDbLine
 10
71.80898860624336
 20
311.8778163756082
 30
0.0
 11
76.80898860624336
 21
311.8778163756082
 31
0.0
  0
SOLID
  5
467E
330
3BF4
100
AcDbEntity
  8
DIM
100
AcDbTrace
 10
71.80898860624336
 20
312.2111497089415
 30
0.0
 11
71.80898860624336
 21
311.5444830422749
 31
0.0
 12
69.80898860624336
 22
311.8778163756082
 32
0.0
 13
69.80898860624336
 23
311.8778163756082
 33
0.0
  0
SOLID
  5
467F
330
3BF4
100
AcDbEntity
  8
DIM
100
AcDbTrace
 10
76.80898860624336
 20
312.2111497089415
 30
0.0
 11
76.80898860624336
 21
311.5444830422749
 31
0.0
 12
78.80898860624336
 22
311.8778163756082
 32
0.0
 13
78.80898860624336
 23
311.8778163756082
 33
0.0
  0
MTEXT
  5
4680
330
3BF4
100
AcDbEntity
  8
DIM
100
AcDbMText
 10
74.30898860624336
 20
313.8778163756082
 30
0.0
 40
2.0
 41
0.0
 71
     5
 72
     1
  1
\A1;9
  7
dayus
 73
     1
 44
1.0
1001
ACAD
1000
MTEXTBEGIN
1070
    73
1070
     1
1070
    44
1040
1.0
1070
    74
1070
     0
1000
MTEXTEND
  0
POINT
  5
4681
330
3BF4
100
AcDbEntity
  8
Defpoints
 62
     0
100
AcDbPoint
 10
69.80898860624336
 20
305.8231171283887
 30
0.0
  0
POINT
  5
4682
330
3BF4
100
AcDbEntity
  8
Defpoints
 62
     0
100
AcDbPoint
 10
78.80898860624336
 20
288.6478557976884
 30
0.0
  0
POINT
  5
4683
330
3BF4
100
AcDbEntity
  8
Defpoints
 62
     0
100
AcDbPoint
 10
78.80898860624336
 20
311.8778163756082
 30
0.0
  0
ENDBLK
  5
3BFF
330
3BF4
100
AcDbEntity
  8
0
100
AcDbBlockEnd
  0
BLOCK
  5
3C0A
330
3C00
100
AcDbEntity
  8
0
100
AcDbBlockBegin
  2
*D22
 70
     1
 10
0.0
 20
0.0
 30
0.0
  3
*D22
  1

  0
LINE
  5
4684
330
3C00
100
AcDbEntity
  8
DIM
100
AcDbLine
 10
90.30898860624336
 20
290.1965359342256
 30
0.0
 11
90.30898860624336
 21
313.3778163756082
 31
0.0
  0
LINE
  5
4685
330
3C00
100
AcDbEntity
  8
DIM
100
AcDbLine
 10
99.30898860624337
 20
307.3231171283887
 30
0.0
 11
99.30898860624337
 21
313.3778163756082
 31
0.0
  0
LINE
  5
4686
330
3C00
100
AcDbEntity
  8
DIM
100
AcDbLine
 10
92.30898860624336
 20
311.8778163756082
 30
0.0
 11
97.30898860624336
 21
311.8778163756082
 31
0.0
  0
SOLID
  5
4687
330
3C00
100
AcDbEntity
  8
DIM
100
AcDbTrace
 10
92.30898860624336
 20
312.2111497089415
 30
0.0
 11
92.30898860624336
 21
311.5444830422749
 31
0.0
 12
90.30898860624336
 22
311.8778163756082
 32
0.0
 13
90.30898860624336
 23
311.8778163756082
 33
0.0
  0
SOLID
  5
4688
330
3C00
100
AcDbEntity
  8
DIM
100
AcDbTrace
 10
97.30898860624336
 20
312.2111497089415
 30
0.0
 11
97.30898860624336
 21
311.5444830422749
 31
0.0
 12
99.30898860624337
 22
311.8778163756082
 32
0.0
 13
99.30898860624337
 23
311.8778163756082
 33
0.0
  0
MTEXT
  5
4689
330
3C00
100
AcDbEntity
  8
DIM
100
AcDbMText
 10
94.80898860624336
 20
313.8778163756082
 30
0.0
 40
2.0
 41
0.0
 71
     5
 72
     1
  1
\A1;9
  7
dayus
 73
     1
 44
1.0
1001
ACAD
1000
MTEXTBEGIN
1070
    73
1070
     1
1070
    44
1040
1.0
1070
    74
1070
     0
1000
MTEXTEND
  0
POINT
  5
468A
330
3C00
100
AcDbEntity
  8
Defpoints
 62
     0
100
AcDbPoint
 10
90.30898860624336
 20
288.6965359342255
 30
0.0
  0
POINT
  5
468B
330
3C00
100
AcDbEntity
  8
Defpoints
 62
     0
100
AcDbPoint
 10
99.30898860624337
 20
305.8231171283887
 30
0.0
  0
POINT
  5
468C
330
3C00
100
AcDbEntity
  8
Defpoints
 62
     0
100
AcDbPoint
 10
99.30898860624337
 20
311.8778163756082
 30
0.0
  0
ENDBLK
  5
3C0B
330
3C00
100
AcDbEntity
  8
0
100
AcDbBlockEnd
  0
BLOCK
  5
3C16
330
3C0C
100
AcDbEntity
  8
0
100
AcDbBlockBegin
  2
*D23
 70
     1
 10
0.0
 20
0.0
 30
0.0
  3
*D23
  1

  0
LINE
  5
468D
330
3C0C
100
AcDbEntity
  8
DIM
100
AcDbLine
 10
69.80898860624336
 20
307.3231171283887
 30
0.0
 11
69.80898860624336
 21
318.764760134087
 31
0.0
  0
LINE
  5
468E
330
3C0C
100
AcDbEntity
  8
DIM
100
AcDbLine
 10
99.30898860624337
 20
307.3231171283887
 30
0.0
 11
99.30898860624337
 21
318.764760134087
 31
0.0
  0
LINE
  5
468F
330
3C0C
100
AcDbEntity
  8
DIM
100
AcDbLine
 10
71.80898860624336
 20
317.264760134087
 30
0.0
 11
97.30898860624336
 21
317.264760134087
 31
0.0
  0
SOLID
  5
4690
330
3C0C
100
AcDbEntity
  8
DIM
100
AcDbTrace
 10
71.80898860624336
 20
317.5980934674204
 30
0.0
 11
71.80898860624336
 21
316.9314268007537
 31
0.0
 12
69.80898860624336
 22
317.264760134087
 32
0.0
 13
69.80898860624336
 23
317.264760134087
 33
0.0
  0
SOLID
  5
4691
330
3C0C
100
AcDbEntity
  8
DIM
100
AcDbTrace
 10
97.30898860624336
 20
317.5980934674204
 30
0.0
 11
97.30898860624336
 21
316.9314268007537
 31
0.0
 12
99.30898860624337
 22
317.264760134087
 32
0.0
 13
99.30898860624337
 23
317.264760134087
 33
0.0
  0
MTEXT
  5
4692
330
3C0C
100
AcDbEntity
  8
DIM
100
AcDbMText
 10
84.55898860624335
 20
319.264760134087
 30
0.0
 40
2.0
 41
0.0
 71
     5
 72
     1
  1
\A1;24.5+stroke=S
  7
dayus
 73
     1
 44
1.0
1001
ACAD
1000
MTEXTBEGIN
1070
    73
1070
     1
1070
    44
1040
1.0
1070
    74
1070
     0
1000
MTEXTEND
  0
POINT
  5
4693
330
3C0C
100
AcDbEntity
  8
Defpoints
 62
     0
100
AcDbPoint
 10
69.80898860624336
 20
305.8231171283887
 30
0.0
  0
POINT
  5
4694
330
3C0C
100
AcDbEntity
  8
Defpoints
 62
     0
100
AcDbPoint
 10
99.30898860624337
 20
305.8231171283887
 30
0.0
  0
POINT
  5
4695
330
3C0C
100
AcDbEntity
  8
Defpoints
 62
     0
100
AcDbPoint
 10
99.30898860624337
 20
317.264760134087
 30
0.0
  0
ENDBLK
  5
3C17
330
3C0C
100
AcDbEntity
  8
0
100
AcDbBlockEnd
  0
BLOCK
  5
3C22
330
3C18
100
AcDbEntity
  8
0
100
AcDbBlockBegin
  2
*D24
 70
     1
 10
0.0
 20
0.0
 30
0.0
  3
*D24
  1

  0
LINE
  5
4696
330
3C18
100
AcDbEntity
  8
DIM
100
AcDbLine
 10
69.80898860624336
 20
307.3231171283887
 30
0.0
 11
69.80898860624336
 21
324.5643463145835
 31
0.0
  0
LINE
  5
4697
330
3C18
100
AcDbEntity
  8
DIM
100
AcDbLine
 10
106.3089886062433
 20
290.3231171283887
 30
0.0
 11
106.3089886062433
 21
324.5643463145835
 31
0.0
  0
LINE
  5
4698
330
3C18
100
AcDbEntity
  8
DIM
100
AcDbLine
 10
71.80898860624336
 20
323.0643463145835
 30
0.0
 11
104.3089886062433
 21
323.0643463145835
 31
0.0
  0
SOLID
  5
4699
330
3C18
100
AcDbEntity
  8
DIM
100
AcDbTrace
 10
71.80898860624336
 20
323.3976796479169
 30
0.0
 11
71.80898860624336
 21
322.7310129812502
 31
0.0
 12
69.80898860624336
 22
323.0643463145835
 32
0.0
 13
69.80898860624336
 23
323.0643463145835
 33
0.0
  0
SOLID
  5
469A
330
3C18
100
AcDbEntity
  8
DIM
100
AcDbTrace
 10
104.3089886062433
 20
323.3976796479169
 30
0.0
 11
104.3089886062433
 21
322.7310129812502
 31
0.0
 12
106.3089886062433
 22
323.0643463145835
 32
0.0
 13
106.3089886062433
 23
323.0643463145835
 33
0.0
  0
MTEXT
  5
469B
330
3C18
100
AcDbEntity
  8
DIM
100
AcDbMText
 10
88.05898860624337
 20
325.0643463145835
 30
0.0
 40
2.0
 41
0.0
 71
     5
 72
     1
  1
\A1;31.5+stroke=ZZ
  7
dayus
 73
     1
 44
1.0
1001
ACAD
1000
MTEXTBEGIN
1070
    73
1070
     1
1070
    44
1040
1.0
1070
    74
1070
     0
1000
MTEXTEND
  0
POINT
  5
469C
330
3C18
100
AcDbEntity
  8
Defpoints
 62
     0
100
AcDbPoint
 10
69.80898860624336
 20
305.8231171283887
 30
0.0
  0
POINT
  5
469D
330
3C18
100
AcDbEntity
  8
Defpoints
 62
     0
100
AcDbPoint
 10
106.3089886062433
 20
288.8231171283887
 30
0.0
  0
POINT
  5
469E
330
3C18
100
AcDbEntity
  8
Defpoints
 62
     0
100
AcDbPoint
 10
106.3089886062433
 20
323.0643463145835
 30
0.0
  0
ENDBLK
  5
3C23
330
3C18
100
AcDbEntity
  8
0
100
AcDbBlockEnd
  0
BLOCK
  5
3C2E
330
3C24
100
AcDbEntity
  8
0
100
AcDbBlockBegin
  2
*D25
 70
     1
 10
0.0
 20
0.0
 30
0.0
  3
*D25
  1

  0
LINE
  5
469F
330
3C24
100
AcDbEntity
  8
DIM
100
AcDbLine
 10
103.8089886062433
 20
277.8231171283887
 30
0.0
 11
116.9735061035625
 21
277.8231171283887
 31
0.0
  0
LINE
  5
46A0
330
3C24
100
AcDbEntity
  8
DIM
100
AcDbLine
 10
103.8089886062433
 20
289.8231171283887
 30
0.0
 11
116.9735061035625
 21
289.8231171283887
 31
0.0
  0
LINE
  5
46A1
330
3C24
100
AcDbEntity
  8
DIM
100
AcDbLine
 10
115.4735061035625
 20
279.8231171283887
 30
0.0
 11
115.4735061035625
 21
287.8231171283887
 31
0.0
  0
SOLID
  5
46A2
330
3C24
100
AcDbEntity
  8
DIM
100
AcDbTrace
 10
115.1401727702291
 20
279.8231171283887
 30
0.0
 11
115.8068394368958
 21
279.8231171283887
 31
0.0
 12
115.4735061035625
 22
277.8231171283887
 32
0.0
 13
115.4735061035625
 23
277.8231171283887
 33
0.0
  0
SOLID
  5
46A3
330
3C24
100
AcDbEntity
  8
DIM
100
AcDbTrace
 10
115.1401727702291
 20
287.8231171283887
 30
0.0
 11
115.8068394368958
 21
287.8231171283887
 31
0.0
 12
115.4735061035625
 22
289.8231171283887
 32
0.0
 13
115.4735061035625
 23
289.8231171283887
 33
0.0
  0
MTEXT
  5
46A4
330
3C24
100
AcDbEntity
  8
DIM
100
AcDbMText
 10
113.4735061035624
 20
283.8231171283887
 30
0.0
 40
2.0
 41
0.0
 71
     5
 72
     1
  1
\A1;%%c12
  7
dayus
 11
0.0000000000000001
 21
1.0
 31
0.0
 73
     1
 44
1.0
1001
ACAD
1000
MTEXTBEGIN
1070
    73
1070
     1
1070
    44
1040
1.0
1070
    74
1070
     0
1000
MTEXTEND
  0
POINT
  5
46A5
330
3C24
100
AcDbEntity
  8
Defpoints
 62
     0
100
AcDbPoint
 10
102.3089886062433
 20
277.8231171283887
 30
0.0
  0
POINT
  5
46A6
330
3C24
100
AcDbEntity
  8
Defpoints
 62
     0
100
AcDbPoint
 10
102.3089886062433
 20
289.8231171283887
 30
0.0
  0
POINT
  5
46A7
330
3C24
100
AcDbEntity
  8
Defpoints
 62
     0
100
AcDbPoint
 10
115.4735061035625
 20
289.8231171283887
 30
0.0
  0
ENDBLK
  5
3C2F
330
3C24
100
AcDbEntity
  8
0
100
AcDbBlockEnd
  0
BLOCK
  5
3C3A
330
3C30
100
AcDbEntity
  8
0
100
AcDbBlockBegin
  2
*D26
 70
     1
 10
0.0
 20
0.0
 30
0.0
  3
*D26
  1

  0
LINE
  5
46A8
330
3C30
100
AcDbEntity
  8
DIM
100
AcDbLine
 10
102.8089886062433
 20
294.8231171283887
 30
0.0
 11
123.949129807757
 21
294.8231171283887
 31
0.0
  0
LINE
  5
46A9
330
3C30
100
AcDbEntity
  8
DIM
100
AcDbLine
 10
102.8089886062433
 20
272.8231171283887
 30
0.0
 11
123.949129807757
 21
272.8231171283887
 31
0.0
  0
LINE
  5
46AA
330
3C30
100
AcDbEntity
  8
DIM
100
AcDbLine
 10
122.449129807757
 20
292.8231171283887
 30
0.0
 11
122.449129807757
 21
274.8231171283887
 31
0.0
  0
SOLID
  5
46AB
330
3C30
100
AcDbEntity
  8
DIM
100
AcDbTrace
 10
122.1157964744237
 20
292.8231171283887
 30
0.0
 11
122.7824631410903
 21
292.8231171283887
 31
0.0
 12
122.449129807757
 22
294.8231171283887
 32
0.0
 13
122.449129807757
 23
294.8231171283887
 33
0.0
  0
SOLID
  5
46AC
330
3C30
100
AcDbEntity
  8
DIM
100
AcDbTrace
 10
122.1157964744236
 20
274.8231171283887
 30
0.0
 11
122.7824631410903
 21
274.8231171283887
 31
0.0
 12
122.449129807757
 22
272.8231171283887
 32
0.0
 13
122.449129807757
 23
272.8231171283887
 33
0.0
  0
MTEXT
  5
46AD
330
3C30
100
AcDbEntity
  8
DIM
100
AcDbMText
 10
119.7924631410903
 20
283.8231171283887
 30
0.0
 40
2.0
 41
0.0
 71
     5
 72
     1
  1
\A1;%%c22{}{\H0.71x;\C3;\S 0^ -0.05;}
  7
dayus
 11
0.0000000000000001
 21
1.0
 31
0.0
 73
     1
 44
1.0
1001
ACAD
1000
MTEXTBEGIN
1070
    73
1070
     1
1070
    44
1040
1.0
1070
    74
1070
     0
1000
MTEXTEND
  0
POINT
  5
46AE
330
3C30
100
AcDbEntity
  8
Defpoints
 62
     0
100
AcDbPoint
 10
101.3089886062433
 20
294.8231171283887
 30
0.0
  0
POINT
  5
46AF
330
3C30
100
AcDbEntity
  8
Defpoints
 62
     0
100
AcDbPoint
 10
101.3089886062433
 20
272.8231171283887
 30
0.0
  0
POINT
  5
46B0
330
3C30
100
AcDbEntity
  8
Defpoints
 62
     0
100
AcDbPoint
 10
122.449129807757
 20
272.8231171283887
 30
0.0
  0
ENDBLK
  5
3C3B
330
3C30
100
AcDbEntity
  8
0
100
AcDbBlockEnd
  0
BLOCK
  5
3C48
330
3C3C
100
AcDbEntity
  8
0
100
AcDbBlockBegin
  2
*D27
 70
     1
 10
0.0
 20
0.0
 30
0.0
  3
*D27
  1

  0
LINE
  5
46B1
330
3C3C
100
AcDbEntity
  8
DIM
100
AcDbLine
 10
103.3089886062433
 20
278.5814597416148
 30
0.0
 11
103.3089886062433
 21
264.1541549809708
 31
0.0
  0
LINE
  5
46B2
330
3C3C
100
AcDbEntity
  8
DIM
100
AcDbLine
 10
106.3089886062433
 20
277.3231171283887
 30
0.0
 11
106.3089886062433
 21
264.1541549809708
 31
0.0
  0
LINE
  5
46B3
330
3C3C
100
AcDbEntity
  8
DIM
100
AcDbLine
 10
101.3089886062433
 20
265.6541549809708
 30
0.0
 11
99.30898860624337
 21
265.6541549809708
 31
0.0
  0
LINE
  5
46B4
330
3C3C
100
AcDbEntity
  8
DIM
100
AcDbLine
 10
108.3089886062433
 20
265.6541549809708
 30
0.0
 11
110.3089886062433
 21
265.6541549809708
 31
0.0
  0
LINE
  5
46B5
330
3C3C
100
AcDbEntity
  8
DIM
100
AcDbLine
 10
103.3089886062433
 20
265.6541549809708
 30
0.0
 11
106.3089886062433
 21
265.6541549809708
 31
0.0
  0
SOLID
  5
46B6
330
3C3C
100
AcDbEntity
  8
DIM
100
AcDbTrace
 10
101.3089886062433
 20
265.9874883143041
 30
0.0
 11
101.3089886062433
 21
265.3208216476375
 31
0.0
 12
103.3089886062433
 22
265.6541549809708
 32
0.0
 13
103.3089886062433
 23
265.6541549809708
 33
0.0
  0
SOLID
  5
46B7
330
3C3C
100
AcDbEntity
  8
DIM
100
AcDbTrace
 10
108.3089886062433
 20
265.9874883143041
 30
0.0
 11
108.3089886062433
 21
265.3208216476375
 31
0.0
 12
106.3089886062433
 22
265.6541549809708
 32
0.0
 13
106.3089886062433
 23
265.6541549809708
 33
0.0
  0
MTEXT
  5
46B8
330
3C3C
100
AcDbEntity
  8
DIM
100
AcDbMText
 10
104.8089886062433
 20
267.6541549809708
 30
0.0
 40
2.0
 41
0.0
 71
     5
 72
     1
  1
\A1;3
  7
dayus
 73
     1
 44
1.0
1001
ACAD
1000
MTEXTBEGIN
1070
    73
1070
     1
1070
    44
1040
1.0
1070
    74
1070
     0
1000
MTEXTEND
  0
POINT
  5
46B9
330
3C3C
100
AcDbEntity
  8
Defpoints
 62
     0
100
AcDbPoint
 10
103.3089886062433
 20
280.0814597416147
 30
0.0
  0
POINT
  5
46BA
330
3C3C
100
AcDbEntity
  8
Defpoints
 62
     0
100
AcDbPoint
 10
106.3089886062433
 20
278.8231171283887
 30
0.0
  0
POINT
  5
46BB
330
3C3C
100
AcDbEntity
  8
Defpoints
 62
     0
100
AcDbPoint
 10
106.3089886062433
 20
265.6541549809708
 30
0.0
  0
ENDBLK
  5
3C49
330
3C3C
100
AcDbEntity
  8
0
100
AcDbBlockEnd
  0
BLOCK
  5
3C54
330
3C4A
100
AcDbEntity
  8
0
100
AcDbBlockBegin
  2
*D28
 70
     1
 10
0.0
 20
0.0
 30
0.0
  3
*D28
  1

  0
LINE
  5
46BC
330
3C4A
100
AcDbEntity
  8
DIM
100
AcDbLine
 10
174.3861181759035
 20
441.4075740883431
 30
0.0
 11
174.3861181759035
 21
446.3555112352017
 31
0.0
  0
LINE
  5
46BD
330
3C4A
100
AcDbEntity
  8
DIM
100
AcDbLine
 10
208.3861181759036
 20
441.4075740883431
 30
0.0
 11
208.3861181759036
 21
446.3555112352017
 31
0.0
  0
LINE
  5
46BE
330
3C4A
100
AcDbEntity
  8
DIM
100
AcDbLine
 10
176.3861181759035
 20
444.8555112352018
 30
0.0
 11
206.3861181759035
 21
444.8555112352018
 31
0.0
  0
SOLID
  5
46BF
330
3C4A
100
AcDbEntity
  8
DIM
100
AcDbTrace
 10
176.3861181759035
 20
445.1888445685351
 30
0.0
 11
176.3861181759035
 21
444.5221779018685
 31
0.0
 12
174.3861181759035
 22
444.8555112352018
 32
0.0
 13
174.3861181759035
 23
444.8555112352018
 33
0.0
  0
SOLID
  5
46C0
330
3C4A
100
AcDbEntity
  8
DIM
100
AcDbTrace
 10
206.3861181759035
 20
445.1888445685351
 30
0.0
 11
206.3861181759035
 21
444.5221779018685
 31
0.0
 12
208.3861181759036
 22
444.8555112352018
 32
0.0
 13
208.3861181759036
 23
444.8555112352018
 33
0.0
  0
MTEXT
  5
46C1
330
3C4A
100
AcDbEntity
  8
DIM
100
AcDbMText
 10
191.3861181759035
 20
446.8555112352017
 30
0.0
 40
2.0
 41
0.0
 71
     5
 72
     1
  1
\A1;□34
  7
dayus
 73
     1
 44
1.0
1001
ACAD
1000
MTEXTBEGIN
1070
    73
1070
     1
1070
    44
1040
1.0
1070
    74
1070
     0
1000
MTEXTEND
  0
POINT
  5
46C2
330
3C4A
100
AcDbEntity
  8
Defpoints
 62
     0
100
AcDbPoint
 10
174.3861181759035
 20
439.9075740883431
 30
0.0
  0
POINT
  5
46C3
330
3C4A
100
AcDbEntity
  8
Defpoints
 62
     0
100
AcDbPoint
 10
208.3861181759036
 20
439.9075740883431
 30
0.0
  0
POINT
  5
46C4
330
3C4A
100
AcDbEntity
  8
Defpoints
 62
     0
100
AcDbPoint
 10
208.3861181759036
 20
444.8555112352018
 30
0.0
  0
ENDBLK
  5
3C55
330
3C4A
100
AcDbEntity
  8
0
100
AcDbBlockEnd
  0
BLOCK
  5
3C60
330
3C56
100
AcDbEntity
  8
0
100
AcDbBlockBegin
  2
*D29
 70
     1
 10
0.0
 20
0.0
 30
0.0
  3
*D29
  1

  0
LINE
  5
46C5
330
3C56
100
AcDbEntity
  8
DIM
100
AcDbLine
 10
169.3861181759035
 20
438.2488976303086
 30
0.0
 11
169.3861181759035
 21
452.6167877835731
 31
0.0
  0
LINE
  5
46C6
330
3C56
100
AcDbEntity
  8
DIM
100
AcDbLine
 10
213.3861181759038
 20
438.1204023279728
 30
0.0
 11
213.3861181759038
 21
452.6167877835731
 31
0.0
  0
LINE
  5
46C7
330
3C56
100
AcDbEntity
  8
DIM
100
AcDbLine
 10
171.3861181759035
 20
451.1167877835731
 30
0.0
 11
211.3861181759038
 21
451.1167877835731
 31
0.0
  0
SOLID
  5
46C8
330
3C56
100
AcDbEntity
  8
DIM
100
AcDbTrace
 10
171.3861181759035
 20
451.4501211169064
 30
0.0
 11
171.3861181759035
 21
450.7834544502398
 31
0.0
 12
169.3861181759035
 22
451.1167877835731
 32
0.0
 13
169.3861181759035
 23
451.1167877835731
 33
0.0
  0
SOLID
  5
46C9
330
3C56
100
AcDbEntity
  8
DIM
100
AcDbTrace
 10
211.3861181759038
 20
451.4501211169064
 30
0.0
 11
211.3861181759038
 21
450.7834544502398
 31
0.0
 12
213.3861181759038
 22
451.1167877835731
 32
0.0
 13
213.3861181759038
 23
451.1167877835731
 33
0.0
  0
MTEXT
  5
46CA
330
3C56
100
AcDbEntity
  8
DIM
100
AcDbMText
 10
191.3861181759036
 20
453.1167877835732
 30
0.0
 40
2.0
 41
0.0
 71
     5
 72
     1
  1
\A1;□44
  7
dayus
 73
     1
 44
1.0
1001
ACAD
1000
MTEXTBEGIN
1070
    73
1070
     1
1070
    44
1040
1.0
1070
    74
1070
     0
1000
MTEXTEND
  0
POINT
  5
46CB
330
3C56
100
AcDbEntity
  8
Defpoints
 62
     0
100
AcDbPoint
 10
169.3861181759035
 20
436.7488976303086
 30
0.0
  0
POINT
  5
46CC
330
3C56
100
AcDbEntity
  8
Defpoints
 62
     0
100
AcDbPoint
 10
213.3861181759038
 20
436.6204023279729
 30
0.0
  0
POINT
  5
46CD
330
3C56
100
AcDbEntity
  8
Defpoints
 62
     0
100
AcDbPoint
 10
213.3861181759038
 20
451.1167877835731
 30
0.0
  0
ENDBLK
  5
3C61
330
3C56
100
AcDbEntity
  8
0
100
AcDbBlockEnd
  0
BLOCK
  5
3C6C
330
3C62
100
AcDbEntity
  8
0
100
AcDbBlockBegin
  2
*D30
 70
     1
 10
0.0
 20
0.0
 30
0.0
  3
*D30
  1

  0
LINE
  5
46CE
330
3C62
100
AcDbEntity
  8
DIM
100
AcDbLine
 10
164.8861181759035
 20
425.2831317446264
 30
0.0
 11
164.8861181759035
 21
459.2201264383541
 31
0.0
  0
LINE
  5
46CF
330
3C62
100
AcDbEntity
  8
DIM
100
AcDbLine
 10
213.3861181759036
 20
438.1204023279732
 30
0.0
 11
213.3861181759036
 21
459.2201264383541
 31
0.0
  0
LINE
  5
46D0
330
3C62
100
AcDbEntity
  8
DIM
100
AcDbLine
 10
166.8861181759035
 20
457.7201264383541
 30
0.0
 11
211.3861181759036
 21
457.7201264383541
 31
0.0
  0
SOLID
  5
46D1
330
3C62
100
AcDbEntity
  8
DIM
100
AcDbTrace
 10
166.8861181759035
 20
458.0534597716875
 30
0.0
 11
166.8861181759035
 21
457.3867931050208
 31
0.0
 12
164.8861181759035
 22
457.7201264383541
 32
0.0
 13
164.8861181759035
 23
457.7201264383541
 33
0.0
  0
SOLID
  5
46D2
330
3C62
100
AcDbEntity
  8
DIM
100
AcDbTrace
 10
211.3861181759036
 20
458.0534597716875
 30
0.0
 11
211.3861181759036
 21
457.3867931050208
 31
0.0
 12
213.3861181759036
 22
457.7201264383541
 32
0.0
 13
213.3861181759036
 23
457.7201264383541
 33
0.0
  0
MTEXT
  5
46D3
330
3C62
100
AcDbEntity
  8
DIM
100
AcDbMText
 10
189.1361181759035
 20
459.7201264383541
 30
0.0
 40
2.0
 41
0.0
 71
     5
 72
     1
  1
\A1;48.5
  7
dayus
 73
     1
 44
1.0
1001
ACAD
1000
MTEXTBEGIN
1070
    73
1070
     1
1070
    44
1040
1.0
1070
    74
1070
     0
1000
MTEXTEND
  0
POINT
  5
46D4
330
3C62
100
AcDbEntity
  8
Defpoints
 62
     0
100
AcDbPoint
 10
164.8861181759035
 20
423.7831317446263
 30
0.0
  0
POINT
  5
46D5
330
3C62
100
AcDbEntity
  8
Defpoints
 62
     0
100
AcDbPoint
 10
213.3861181759036
 20
436.6204023279732
 30
0.0
  0
POINT
  5
46D6
330
3C62
100
AcDbEntity
  8
Defpoints
 62
     0
100
AcDbPoint
 10
213.3861181759036
 20
457.7201264383541
 30
0.0
  0
ENDBLK
  5
3C6D
330
3C62
100
AcDbEntity
  8
0
100
AcDbBlockEnd
  0
BLOCK
  5
3C78
330
3C6E
100
AcDbEntity
  8
0
100
AcDbBlockBegin
  2
*D31
 70
     1
 10
0.0
 20
0.0
 30
0.0
  3
*D31
  1

  0
LINE
  5
46D7
330
3C6E
100
AcDbEntity
  8
DIM
100
AcDbLine
 10
163.4389417185568
 20
423.9185536424233
 30
0.0
 11
156.3695610923487
 21
423.9185536424233
 31
0.0
  0
LINE
  5
46D8
330
3C6E
100
AcDbEntity
  8
DIM
100
AcDbLine
 10
163.4389417185568
 20
410.0157629994559
 30
0.0
 11
156.3695610923487
 21
410.0157629994559
 31
0.0
  0
LINE
  5
46D9
330
3C6E
100
AcDbEntity
  8
DIM
100
AcDbLine
 10
157.8695610923487
 20
421.9185536424233
 30
0.0
 11
157.8695610923487
 21
412.0157629994558
 31
0.0
  0
SOLID
  5
46DA
330
3C6E
100
AcDbEntity
  8
DIM
100
AcDbTrace
 10
157.5362277590153
 20
421.9185536424233
 30
0.0
 11
158.202894425682
 21
421.9185536424233
 31
0.0
 12
157.8695610923487
 22
423.9185536424233
 32
0.0
 13
157.8695610923487
 23
423.9185536424233
 33
0.0
  0
SOLID
  5
46DB
330
3C6E
100
AcDbEntity
  8
DIM
100
AcDbTrace
 10
157.5362277590153
 20
412.0157629994558
 30
0.0
 11
158.202894425682
 21
412.0157629994558
 31
0.0
 12
157.8695610923487
 22
410.0157629994559
 32
0.0
 13
157.8695610923487
 23
410.0157629994559
 33
0.0
  0
MTEXT
  5
46DC
330
3C6E
100
AcDbEntity
  8
DIM
100
AcDbMText
 10
155.8695610923486
 20
416.9671583209397
 30
0.0
 40
2.0
 41
0.0
 71
     5
 72
     1
  1
\A1;14
  7
dayus
 11
0.0000000000000001
 21
1.0
 31
0.0
 73
     1
 44
1.0
1001
ACAD
1000
MTEXTBEGIN
1070
    73
1070
     1
1070
    44
1040
1.0
1070
    74
1070
     0
1000
MTEXTEND
  0
POINT
  5
46DD
330
3C6E
100
AcDbEntity
  8
Defpoints
 62
     0
100
AcDbPoint
 10
164.9389417185568
 20
423.9185536424233
 30
0.0
  0
POINT
  5
46DE
330
3C6E
100
AcDbEntity
  8
Defpoints
 62
     0
100
AcDbPoint
 10
164.9389417185568
 20
410.0157629994559
 30
0.0
  0
POINT
  5
46DF
330
3C6E
100
AcDbEntity
  8
Defpoints
 62
     0
100
AcDbPoint
 10
157.8695610923487
 20
410.0157629994559
 30
0.0
  0
ENDBLK
  5
3C79
330
3C6E
100
AcDbEntity
  8
0
100
AcDbBlockEnd
  0
BLOCK
  5
3C84
330
3C7A
100
AcDbEntity
  8
0
100
AcDbBlockBegin
  2
*D32
 70
     1
 10
0.0
 20
0.0
 30
0.0
  3
*D32
  1

  0
LINE
  5
46E0
330
3C7A
100
AcDbEntity
  8
DIM
100
AcDbLine
 10
186.3861181759033
 20
412.1505335305845
 30
0.0
 11
186.3861181759033
 21
385.5309438090231
 31
0.0
  0
LINE
  5
46E1
330
3C7A
100
AcDbEntity
  8
DIM
100
AcDbLine
 10
196.3861181759033
 20
412.1505335305843
 30
0.0
 11
196.3861181759033
 21
385.5309438090231
 31
0.0
  0
LINE
  5
46E2
330
3C7A
100
AcDbEntity
  8
DIM
100
AcDbLine
 10
188.3861181759033
 20
387.0309438090231
 30
0.0
 11
194.3861181759033
 21
387.0309438090231
 31
0.0
  0
SOLID
  5
46E3
330
3C7A
100
AcDbEntity
  8
DIM
100
AcDbTrace
 10
188.3861181759033
 20
387.3642771423564
 30
0.0
 11
188.3861181759033
 21
386.6976104756898
 31
0.0
 12
186.3861181759033
 22
387.0309438090231
 32
0.0
 13
186.3861181759033
 23
387.0309438090231
 33
0.0
  0
SOLID
  5
46E4
330
3C7A
100
AcDbEntity
  8
DIM
100
AcDbTrace
 10
194.3861181759033
 20
387.3642771423564
 30
0.0
 11
194.3861181759033
 21
386.6976104756898
 31
0.0
 12
196.3861181759033
 22
387.0309438090231
 32
0.0
 13
196.3861181759033
 23
387.0309438090231
 33
0.0
  0
MTEXT
  5
46E5
330
3C7A
100
AcDbEntity
  8
DIM
100
AcDbMText
 10
191.3861181759033
 20
389.0309438090231
 30
0.0
 40
2.0
 41
0.0
 71
     5
 72
     1
  1
\A1;□10
  7
dayus
 73
     1
 44
1.0
1001
ACAD
1000
MTEXTBEGIN
1070
    73
1070
     1
1070
    44
1040
1.0
1070
    74
1070
     0
1000
MTEXTEND
  0
POINT
  5
46E6
330
3C7A
100
AcDbEntity
  8
Defpoints
 62
     0
100
AcDbPoint
 10
186.3861181759033
 20
413.6505335305845
 30
0.0
  0
POINT
  5
46E7
330
3C7A
100
AcDbEntity
  8
Defpoints
 62
     0
100
AcDbPoint
 10
196.3861181759033
 20
413.6505335305844
 30
0.0
  0
POINT
  5
46E8
330
3C7A
100
AcDbEntity
  8
Defpoints
 62
     0
100
AcDbPoint
 10
196.3861181759033
 20
387.0309438090231
 30
0.0
  0
ENDBLK
  5
3C85
330
3C7A
100
AcDbEntity
  8
0
100
AcDbBlockEnd
  0
BLOCK
  5
3CE9
330
3CDF
100
AcDbEntity
  8
0
100
AcDbBlockBegin
  2
*D33
 70
     1
 10
0.0
 20
0.0
 30
0.0
  3
*D33
  1

  0
LINE
  5
46E9
330
3CDF
100
AcDbEntity
  8
DIM
100
AcDbLine
 10
174.7242423248446
 20
308.2635328957922
 30
0.0
 11
174.7242423248446
 21
313.2114700426508
 31
0.0
  0
LINE
  5
46EA
330
3CDF
100
AcDbEntity
  8
DIM
100
AcDbLine
 10
208.7242423248446
 20
308.2635328957922
 30
0.0
 11
208.7242423248446
 21
313.2114700426508
 31
0.0
  0
LINE
  5
46EB
330
3CDF
100
AcDbEntity
  8
DIM
100
AcDbLine
 10
176.7242423248445
 20
311.7114700426508
 30
0.0
 11
206.7242423248446
 21
311.7114700426508
 31
0.0
  0
SOLID
  5
46EC
330
3CDF
100
AcDbEntity
  8
DIM
100
AcDbTrace
 10
176.7242423248445
 20
312.0448033759842
 30
0.0
 11
176.7242423248445
 21
311.3781367093175
 31
0.0
 12
174.7242423248446
 22
311.7114700426508
 32
0.0
 13
174.7242423248446
 23
311.7114700426508
 33
0.0
  0
SOLID
  5
46ED
330
3CDF
100
AcDbEntity
  8
DIM
100
AcDbTrace
 10
206.7242423248446
 20
312.0448033759842
 30
0.0
 11
206.7242423248446
 21
311.3781367093175
 31
0.0
 12
208.7242423248446
 22
311.7114700426508
 32
0.0
 13
208.7242423248446
 23
311.7114700426508
 33
0.0
  0
MTEXT
  5
46EE
330
3CDF
100
AcDbEntity
  8
DIM
100
AcDbMText
 10
191.7242423248445
 20
313.7114700426508
 30
0.0
 40
2.0
 41
0.0
 71
     5
 72
     1
  1
\A1;□34
  7
dayus
 73
     1
 44
1.0
1001
ACAD
1000
MTEXTBEGIN
1070
    73
1070
     1
1070
    44
1040
1.0
1070
    74
1070
     0
1000
MTEXTEND
  0
POINT
  5
46EF
330
3CDF
100
AcDbEntity
  8
Defpoints
 62
     0
100
AcDbPoint
 10
174.7242423248446
 20
306.7635328957922
 30
0.0
  0
POINT
  5
46F0
330
3CDF
100
AcDbEntity
  8
Defpoints
 62
     0
100
AcDbPoint
 10
208.7242423248446
 20
306.7635328957922
 30
0.0
  0
POINT
  5
46F1
330
3CDF
100
AcDbEntity
  8
Defpoints
 62
     0
100
AcDbPoint
 10
208.7242423248446
 20
311.7114700426508
 30
0.0
  0
ENDBLK
  5
3CEA
330
3CDF
100
AcDbEntity
  8
0
100
AcDbBlockEnd
  0
BLOCK
  5
3CF5
330
3CEB
100
AcDbEntity
  8
0
100
AcDbBlockBegin
  2
*D34
 70
     1
 10
0.0
 20
0.0
 30
0.0
  3
*D34
  1

  0
LINE
  5
46F2
330
3CEB
100
AcDbEntity
  8
DIM
100
AcDbLine
 10
169.7242423248446
 20
305.1048564377577
 30
0.0
 11
169.7242423248446
 21
319.4727465910222
 31
0.0
  0
LINE
  5
46F3
330
3CEB
100
AcDbEntity
  8
DIM
100
AcDbLine
 10
213.7242423248448
 20
304.9763611354219
 30
0.0
 11
213.7242423248448
 21
319.4727465910222
 31
0.0
  0
LINE
  5
46F4
330
3CEB
100
AcDbEntity
  8
DIM
100
AcDbLine
 10
171.7242423248445
 20
317.9727465910222
 30
0.0
 11
211.7242423248448
 21
317.9727465910222
 31
0.0
  0
SOLID
  5
46F5
330
3CEB
100
AcDbEntity
  8
DIM
100
AcDbTrace
 10
171.7242423248445
 20
318.3060799243555
 30
0.0
 11
171.7242423248445
 21
317.6394132576889
 31
0.0
 12
169.7242423248446
 22
317.9727465910222
 32
0.0
 13
169.7242423248446
 23
317.9727465910222
 33
0.0
  0
SOLID
  5
46F6
330
3CEB
100
AcDbEntity
  8
DIM
100
AcDbTrace
 10
211.7242423248448
 20
318.3060799243555
 30
0.0
 11
211.7242423248448
 21
317.6394132576889
 31
0.0
 12
213.7242423248448
 22
317.9727465910222
 32
0.0
 13
213.7242423248448
 23
317.9727465910222
 33
0.0
  0
MTEXT
  5
46F7
330
3CEB
100
AcDbEntity
  8
DIM
100
AcDbMText
 10
191.7242423248447
 20
319.9727465910222
 30
0.0
 40
2.0
 41
0.0
 71
     5
 72
     1
  1
\A1;□44
  7
dayus
 73
     1
 44
1.0
1001
ACAD
1000
MTEXTBEGIN
1070
    73
1070
     1
1070
    44
1040
1.0
1070
    74
1070
     0
1000
MTEXTEND
  0
POINT
  5
46F8
330
3CEB
100
AcDbEntity
  8
Defpoints
 62
     0
100
AcDbPoint
 10
169.7242423248446
 20
303.6048564377577
 30
0.0
  0
POINT
  5
46F9
330
3CEB
100
AcDbEntity
  8
Defpoints
 62
     0
100
AcDbPoint
 10
213.7242423248448
 20
303.476361135422
 30
0.0
  0
POINT
  5
46FA
330
3CEB
100
AcDbEntity
  8
Defpoints
 62
     0
100
AcDbPoint
 10
213.7242423248448
 20
317.9727465910222
 30
0.0
  0
ENDBLK
  5
3CF6
330
3CEB
100
AcDbEntity
  8
0
100
AcDbBlockEnd
  0
BLOCK
  5
3D01
330
3CF7
100
AcDbEntity
  8
0
100
AcDbBlockBegin
  2
*D35
 70
     1
 10
0.0
 20
0.0
 30
0.0
  3
*D35
  1

  0
LINE
  5
46FB
330
3CF7
100
AcDbEntity
  8
DIM
100
AcDbLine
 10
165.2242423248445
 20
292.1390905520754
 30
0.0
 11
165.2242423248445
 21
326.0760852458032
 31
0.0
  0
LINE
  5
46FC
330
3CF7
100
AcDbEntity
  8
DIM
100
AcDbLine
 10
213.7242423248446
 20
304.9763611354223
 30
0.0
 11
213.7242423248446
 21
326.0760852458032
 31
0.0
  0
LINE
  5
46FD
330
3CF7
100
AcDbEntity
  8
DIM
100
AcDbLine
 10
167.2242423248445
 20
324.5760852458033
 30
0.0
 11
211.7242423248446
 21
324.5760852458033
 31
0.0
  0
SOLID
  5
46FE
330
3CF7
100
AcDbEntity
  8
DIM
100
AcDbTrace
 10
167.2242423248445
 20
324.9094185791366
 30
0.0
 11
167.2242423248445
 21
324.2427519124699
 31
0.0
 12
165.2242423248445
 22
324.5760852458033
 32
0.0
 13
165.2242423248445
 23
324.5760852458033
 33
0.0
  0
SOLID
  5
46FF
330
3CF7
100
AcDbEntity
  8
DIM
100
AcDbTrace
 10
211.7242423248446
 20
324.9094185791366
 30
0.0
 11
211.7242423248446
 21
324.2427519124699
 31
0.0
 12
213.7242423248446
 22
324.5760852458033
 32
0.0
 13
213.7242423248446
 23
324.5760852458033
 33
0.0
  0
MTEXT
  5
4700
330
3CF7
100
AcDbEntity
  8
DIM
100
AcDbMText
 10
189.4742423248445
 20
326.5760852458033
 30
0.0
 40
2.0
 41
0.0
 71
     5
 72
     1
  1
\A1;48.5
  7
dayus
 73
     1
 44
1.0
1001
ACAD
1000
MTEXTBEGIN
1070
    73
1070
     1
1070
    44
1040
1.0
1070
    74
1070
     0
1000
MTEXTEND
  0
POINT
  5
4701
330
3CF7
100
AcDbEntity
  8
Defpoints
 62
     0
100
AcDbPoint
 10
165.2242423248445
 20
290.6390905520755
 30
0.0
  0
POINT
  5
4702
330
3CF7
100
AcDbEntity
  8
Defpoints
 62
     0
100
AcDbPoint
 10
213.7242423248446
 20
303.4763611354223
 30
0.0
  0
POINT
  5
4703
330
3CF7
100
AcDbEntity
  8
Defpoints
 62
     0
100
AcDbPoint
 10
213.7242423248446
 20
324.5760852458033
 30
0.0
  0
ENDBLK
  5
3D02
330
3CF7
100
AcDbEntity
  8
0
100
AcDbBlockEnd
  0
BLOCK
  5
3D0D
330
3D03
100
AcDbEntity
  8
0
100
AcDbBlockBegin
  2
*D36
 70
     1
 10
0.0
 20
0.0
 30
0.0
  3
*D36
  1

  0
LINE
  5
4704
330
3D03
100
AcDbEntity
  8
DIM
100
AcDbLine
 10
163.7770658674978
 20
290.7745124498724
 30
0.0
 11
156.7076852412897
 21
290.7745124498724
 31
0.0
  0
LINE
  5
4705
330
3D03
100
AcDbEntity
  8
DIM
100
AcDbLine
 10
163.7770658674978
 20
276.8717218069049
 30
0.0
 11
156.7076852412897
 21
276.8717218069049
 31
0.0
  0
LINE
  5
4706
330
3D03
100
AcDbEntity
  8
DIM
100
AcDbLine
 10
158.2076852412897
 20
288.7745124498724
 30
0.0
 11
158.2076852412897
 21
278.8717218069049
 31
0.0
  0
SOLID
  5
4707
330
3D03
100
AcDbEntity
  8
DIM
100
AcDbTrace
 10
157.8743519079564
 20
288.7745124498724
 30
0.0
 11
158.541018574623
 21
288.7745124498724
 31
0.0
 12
158.2076852412897
 22
290.7745124498724
 32
0.0
 13
158.2076852412897
 23
290.7745124498724
 33
0.0
  0
SOLID
  5
4708
330
3D03
100
AcDbEntity
  8
DIM
100
AcDbTrace
 10
157.8743519079564
 20
278.8717218069049
 30
0.0
 11
158.541018574623
 21
278.8717218069049
 31
0.0
 12
158.2076852412897
 22
276.8717218069049
 32
0.0
 13
158.2076852412897
 23
276.8717218069049
 33
0.0
  0
MTEXT
  5
4709
330
3D03
100
AcDbEntity
  8
DIM
100
AcDbMText
 10
156.2076852412897
 20
283.8231171283887
 30
0.0
 40
2.0
 41
0.0
 71
     5
 72
     1
  1
\A1;14
  7
dayus
 11
0.0000000000000001
 21
1.0
 31
0.0
 73
     1
 44
1.0
1001
ACAD
1000
MTEXTBEGIN
1070
    73
1070
     1
1070
    44
1040
1.0
1070
    74
1070
     0
1000
MTEXTEND
  0
POINT
  5
470A
330
3D03
100
AcDbEntity
  8
Defpoints
 62
     0
100
AcDbPoint
 10
165.2770658674978
 20
290.7745124498724
 30
0.0
  0
POINT
  5
470B
330
3D03
100
AcDbEntity
  8
Defpoints
 62
     0
100
AcDbPoint
 10
165.2770658674978
 20
276.8717218069049
 30
0.0
  0
POINT
  5
470C
330
3D03
100
AcDbEntity
  8
Defpoints
 62
     0
100
AcDbPoint
 10
158.2076852412897
 20
276.8717218069049
 30
0.0
  0
ENDBLK
  5
3D0E
330
3D03
100
AcDbEntity
  8
0
100
AcDbBlockEnd
  0
BLOCK
  5
3D19
330
3D0F
100
AcDbEntity
  8
0
100
AcDbBlockBegin
  2
*D37
 70
     1
 10
0.0
 20
0.0
 30
0.0
  3
*D37
  1

  0
LINE
  5
470D
330
3D0F
100
AcDbEntity
  8
DIM
100
AcDbLine
 10
186.7242423248443
 20
279.0064923380336
 30
0.0
 11
186.7242423248443
 21
252.3869026164721
 31
0.0
  0
LINE
  5
470E
330
3D0F
100
AcDbEntity
  8
DIM
100
AcDbLine
 10
196.7242423248443
 20
279.0064923380334
 30
0.0
 11
196.7242423248443
 21
252.3869026164721
 31
0.0
  0
LINE
  5
470F
330
3D0F
100
AcDbEntity
  8
DIM
100
AcDbLine
 10
188.7242423248443
 20
253.8869026164721
 30
0.0
 11
194.7242423248443
 21
253.8869026164721
 31
0.0
  0
SOLID
  5
4710
330
3D0F
100
AcDbEntity
  8
DIM
100
AcDbTrace
 10
188.7242423248443
 20
254.2202359498055
 30
0.0
 11
188.7242423248443
 21
253.5535692831388
 31
0.0
 12
186.7242423248443
 22
253.8869026164721
 32
0.0
 13
186.7242423248443
 23
253.8869026164721
 33
0.0
  0
SOLID
  5
4711
330
3D0F
100
AcDbEntity
  8
DIM
100
AcDbTrace
 10
194.7242423248443
 20
254.2202359498055
 30
0.0
 11
194.7242423248443
 21
253.5535692831388
 31
0.0
 12
196.7242423248443
 22
253.8869026164721
 32
0.0
 13
196.7242423248443
 23
253.8869026164721
 33
0.0
  0
MTEXT
  5
4712
330
3D0F
100
AcDbEntity
  8
DIM
100
AcDbMText
 10
191.7242423248443
 20
255.8869026164722
 30
0.0
 40
2.0
 41
0.0
 71
     5
 72
     1
  1
\A1;□10
  7
dayus
 73
     1
 44
1.0
1001
ACAD
1000
MTEXTBEGIN
1070
    73
1070
     1
1070
    44
1040
1.0
1070
    74
1070
     0
1000
MTEXTEND
  0
POINT
  5
4713
330
3D0F
100
AcDbEntity
  8
Defpoints
 62
     0
100
AcDbPoint
 10
186.7242423248443
 20
280.5064923380336
 30
0.0
  0
POINT
  5
4714
330
3D0F
100
AcDbEntity
  8
Defpoints
 62
     0
100
AcDbPoint
 10
196.7242423248443
 20
280.5064923380335
 30
0.0
  0
POINT
  5
4715
330
3D0F
100
AcDbEntity
  8
Defpoints
 62
     0
100
AcDbPoint
 10
196.7242423248443
 20
253.8869026164721
 30
0.0
  0
ENDBLK
  5
3D1A
330
3D0F
100
AcDbEntity
  8
0
100
AcDbBlockEnd
  0
BLOCK
  5
4390
330
438E
100
AcDbEntity
  8
0
100
AcDbBlockBegin
  2
A$C5ECF147B
 70
     0
 10
0.0
 20
0.0
 30
0.0
  3
A$C5ECF147B
  1

  0
CIRCLE
  5
4391
330
438E
100
AcDbEntity
  8
0
100
AcDbCircle
 10
-3.079240456948355
 20
2.061381943681453
 30
0.0
 40
1.25
  0
CIRCLE
  5
4392
330
438E
100
AcDbEntity
  8
0
100
AcDbCircle
 10
-3.079240456948355
 20
2.061381943681453
 30
0.0
 40
0.75
  0
ENDBLK
  5
4393
330
438E
100
AcDbEntity
  8
0
100
AcDbBlockEnd
  0
BLOCK
  5
4741
330
473E
100
AcDbEntity
  8
0
100
AcDbBlockBegin
  2
A$C1F6E6265
 70
     0
 10
0.0
 20
0.0
 30
0.0
  3
A$C1F6E6265
  1

  0
LINE
  5
4742
330
473E
100
AcDbEntity
  8
AM_5
 62
     5
100
AcDbLine
 10
12.57846733029419
 20
0.460783587398737
 30
0.0
 11
7.091423997858555
 21
0.460783587398737
 31
0.0
  0
LINE
  5
4743
330
473E
100
AcDbEntity
  8
AM_5
 62
     5
100
AcDbLine
 10
7.091423997858555
 20
0.460783587398737
 30
0.0
 11
3.50000046420655
 21
0.460783587398737
 31
0.0
  0
TRACE
  5
4744
330
473E
100
AcDbEntity
  8
AM_5
 62
     5
370
    35
100
AcDbTrace
 10
3.50000046420655
 20
0.9215673268987245
 30
0.0
 11
3.50000046420655
 21
-0.0000001521012507
 31
0.0
 12
0.0000004642065505
 22
0.460783587398737
 32
0.0
 13
0.0000004642065505
 23
0.460783587398737
 33
0.0
  0
MTEXT
  5
4745
330
473E
100
AcDbEntity
  8
AM_5
 62
     5
100
AcDbMText
 10
6.603782167567317
 20
1.421084835219261
 30
0.0
 40
2.449999999999999
 41
0.0
 71
     7
 72
     5
  1
SL
  7
ACISOTS
 73
     1
 44
1.0
1001
ACAD
1000
MTEXTBEGIN
1070
    73
1070
     1
1070
    44
1040
1.0
1070
    74
1070
     0
1000
MTEXTEND
  0
ENDBLK
  5
4746
330
473E
100
AcDbEntity
  8
0
100
AcDbBlockEnd
  0
ENDSEC
  0
SECTION
  2
ENTITIES
  0
MTEXT
  5
A9
330
1F
100
AcDbEntity
  8
0
100
AcDbMText
 10
-112.8858816556399
 20
179.1757813154577
 30
0.0
 40
3.0
 41
0.0
 71
     4
 72
     5
  1

 73
     1
 44
1.0
1001
ACAD
1000
MTEXTBEGIN
1070
    73
1070
     1
1070
    44
1040
1.0
1070
    74
1070
     0
1000
MTEXTEND
  0
MTEXT
  5
AA
330
1F
100
AcDbEntity
  8
0
100
AcDbMText
 10
-176.2667196970539
 20
189.9084924046809
 30
0.0
 40
1.799999999999999
 41
0.0
 71
     9
 72
     5
  1

 73
     1
 44
1.0
1001
ACAD
1000
MTEXTBEGIN
1070
    73
1070
     1
1070
    44
1040
1.0
1070
    74
1070
     0
1000
MTEXTEND
  0
MTEXT
  5
AB
330
1F
100
AcDbEntity
  8
0
100
AcDbMText
 10
82.64233389287733
 20
174.944592339129
 30
0.0
 40
3.0
 41
0.0
 71
     4
 72
     5
  1

 73
     1
 44
1.0
1001
ACAD
1000
MTEXTBEGIN
1070
    73
1070
     1
1070
    44
1040
1.0
1070
    74
1070
     0
1000
MTEXTEND
  0
MTEXT
  5
AC
330
1F
100
AcDbEntity
  8
0
100
AcDbMText
 10
19.26149585146331
 20
185.6773034283523
 30
0.0
 40
1.799999999999999
 41
0.0
 71
     9
 72
     5
  1

 73
     1
 44
1.0
1001
ACAD
1000
MTEXTBEGIN
1070
    73
1070
     1
1070
    44
1040
1.0
1070
    74
1070
     0
1000
MTEXTEND
  0
MTEXT
  5
B1
330
1F
100
AcDbEntity
  8
0
100
AcDbMText
 10
-211.0828086697475
 20
93.72900974557683
 30
0.0
 40
3.0
 41
59.51
 71
     1
 72
     5
  1

  7
CHINESET
 73
     1
 44
1.0
1001
ACAD
1000
MTEXTBEGIN
1070
    73
1070
     1
1070
    44
1040
1.0
1070
    74
1070
     0
1000
MTEXTEND
  0
MTEXT
  5
B2
330
1F
100
AcDbEntity
  8
0
100
AcDbMText
 10
-179.9099428209695
 20
86.93407807798587
 30
0.0
 40
3.0
 41
38.26
 71
     1
 72
     5
  1

  7
CHINESET
 73
     1
 44
1.0
1001
ACAD
1000
MTEXTBEGIN
1070
    73
1070
     1
1070
    44
1040
1.0
1070
    74
1070
     0
1000
MTEXTEND
  0
MTEXT
  5
10B3
330
1F
100
AcDbEntity
  8
0
100
AcDbMText
 10
81.67014302795905
 20
125.5492500028813
 30
0.0
 40
3.0
 41
0.0
 71
     7
 72
     5
  1

  7
CHINESET
 73
     1
 44
1.0
1001
ACAD
1000
MTEXTBEGIN
1070
    73
1070
     1
1070
    44
1040
1.0
1070
    74
1070
     0
1000
MTEXTEND
  0
LINE
  5
17B4
330
1F
100
AcDbEntity
  8
0
 62
     4
100
AcDbLine
 10
271.6277841472795
 20
236.5075700388601
 30
0.0
 11
271.6277841472795
 21
498.3383184385226
 31
0.0
  0
LINE
  5
17B5
330
1F
100
AcDbEntity
  8
0
 62
     4
100
AcDbLine
 10
-0.4706550713615343
 20
236.50757003886
 30
0.0
 11
-0.4706550713615343
 21
498.3383184385226
 31
0.0
  0
TEXT
  5
17BD
330
1F
100
AcDbEntity
  8
LOGO
  6
Continuous
 62
     7
100
AcDbText
 10
163.7998881591111
 20
224.513291959328
 30
0.0
 40
6.18625
  1
11/12
  7
CHINESET
 72
     1
 11
176.1723881591111
 21
227.6064169593281
 31
0.0
100
AcDbText
 73
     2
  0
TEXT
  5
17BE
330
1F
100
AcDbEntity
  8
LOGO
100
AcDbText
 10
166.6859331841524
 20
210.8529668610351
 30
0.0
 40
4.41875
  1
作動型式
  7
CHINESET
 72
     4
 11
175.4774045383191
 21
212.9492636130037
 31
0.0
100
AcDbText
  0
LINE
  5
17BF
330
1F
100
AcDbEntity
  8
0
 62
     4
100
AcDbLine
 10
271.6277841472795
 20
371.15811785134
 30
0.0
 11
-0.4706550713615343
 21
371.15811785134
 31
0.0
  0
LINE
  5
17C0
330
1F
100
AcDbEntity
  8
0
 62
     4
100
AcDbLine
 10
271.6277841472795
 20
236.50757003886
 30
0.0
 11
-0.4706550713615343
 21
236.50757003886
 31
0.0
  0
TEXT
  5
17C3
330
1F
100
AcDbEntity
  8
LOGO
  6
Continuous
100
AcDbText
 10
166.3874045383191
 20
206.1759370065396
 30
0.0
 40
2.65125
  1
Acting type
 41
0.8
  7
CHINESET
 72
     4
 11
175.4774045383191
 21
207.0596870065396
 31
0.0
100
AcDbText
  0
LINE
  5
17C4
330
1F
100
AcDbEntity
  8
LOGO
 62
     4
100
AcDbLine
 10
191.1208962336912
 20
222.3725861833462
 30
0.0
 11
162.4877053837787
 21
222.3725861833462
 31
0.0
  0
LINE
  5
17C5
330
1F
100
AcDbEntity
  8
LOGO
 62
     4
100
AcDbLine
 10
191.1208962336912
 20
217.0719672375286
 30
0.0
 11
162.4877053837787
 21
217.0719672375286
 31
0.0
  0
LINE
  5
17C6
330
1F
100
AcDbEntity
  8
LOGO
 62
     4
100
AcDbLine
 10
191.1208962336912
 20
204.1148987033075
 30
0.0
 11
162.4877053837787
 21
204.1148987033075
 31
0.0
  0
LINE
  5
17C7
330
1F
100
AcDbEntity
  8
LOGO
 62
     4
100
AcDbLine
 10
191.1208962336912
 20
232.9738240749817
 30
0.0
 11
162.4877053837787
 21
232.9738240749816
 31
0.0
  0
LINE
  5
1802
330
1F
100
AcDbEntity
  8
LOGO
 62
     4
100
AcDbLine
 10
151.7910005794783
 20
217.0719672375286
 30
0.0
 11
128.232694153622
 21
217.0719672375286
 31
0.0
  0
TEXT
  5
1803
330
1F
100
AcDbEntity
  8
LOGO
  6
Continuous
 62
     7
100
AcDbText
 10
128.6703890332168
 20
224.580080129164
 30
0.0
 40
6.18625
  1
MCJA
  7
CHINESET
 72
     1
 11
140.0118473665501
 21
227.6732051291639
 31
0.0
100
AcDbText
 73
     2
  0
LINE
  5
1804
330
1F
100
AcDbEntity
  8
LOGO
 62
     4
100
AcDbLine
 10
151.7910005794783
 20
204.1148987033075
 30
0.0
 11
128.232694153622
 21
204.1148987033075
 31
0.0
  0
TEXT
  5
1805
330
1F
100
AcDbEntity
  8
LOGO
  6
Continuous
100
AcDbText
 10
135.9718473665501
 20
205.7340620065396
 30
0.0
 40
2.65125
  1
Model
 41
0.8
  7
CHINESET
 72
     4
 11
140.0118473665501
 21
207.0596870065396
 31
0.0
100
AcDbText
  0
TEXT
  5
1806
330
1F
100
AcDbEntity
  8
LOGO
100
AcDbText
 10
135.5930973665501
 20
210.8529668610351
 30
0.0
 40
4.41875
  1
型式
  7
CHINESET
 72
     4
 11
140.0118473665501
 21
212.9492636130037
 31
0.0
100
AcDbText
  0
LINE
  5
1807
330
1F
100
AcDbEntity
  8
LOGO
 62
     4
100
AcDbLine
 10
154.1468312220639
 20
222.3725861833462
 30
0.0
 11
125.8768635110364
 21
222.3725861833462
 31
0.0
  0
LINE
  5
1808
330
1F
100
AcDbEntity
  8
LOGO
 62
     4
100
AcDbLine
 10
154.1468312220639
 20
232.9738240749816
 30
0.0
 11
125.8768635110364
 21
232.9738240749816
 31
0.0
  0
LINE
  5
1809
330
1F
100
AcDbEntity
  8
LOGO
 62
     4
100
AcDbLine
 10
140.0118473665501
 20
222.3725861833462
 30
0.0
 11
140.0118473665501
 21
217.0719672375286
 31
0.0
  0
LINE
  5
180A
330
1F
100
AcDbEntity
  8
LOGO
 62
     4
100
AcDbLine
 10
128.232694153622
 20
217.0719672375286
 30
0.0
 11
128.232694153622
 21
204.1148987033075
 31
0.0
  0
LINE
  5
180B
330
1F
100
AcDbEntity
  8
LOGO
 62
     4
100
AcDbLine
 10
125.8768635110364
 20
232.9738240749816
 30
0.0
 11
125.8768635110364
 21
222.3725861833462
 31
0.0
  0
LINE
  5
180C
330
1F
100
AcDbEntity
  8
LOGO
 62
     4
100
AcDbLine
 10
151.7910005794783
 20
217.0719672375286
 30
0.0
 11
151.7910005794783
 21
204.1148987033075
 31
0.0
  0
LINE
  5
180D
330
1F
100
AcDbEntity
  8
LOGO
 62
     4
100
AcDbLine
 10
162.4877053837787
 20
217.0719672375286
 30
0.0
 11
162.4877053837787
 21
204.1148987033075
 31
0.0
  0
LINE
  5
180E
330
1F
100
AcDbEntity
  8
LOGO
  6
Continuous
 62
     7
100
AcDbLine
 10
155.973265190149
 20
227.6356538691601
 30
0.0
 11
160.6543850211129
 21
227.6356538691601
 31
0.0
  0
LINE
  5
180F
330
1F
100
AcDbEntity
  8
LOGO
 62
     4
100
AcDbLine
 10
154.146831222064
 20
232.9738240749816
 30
0.0
 11
154.146831222064
 21
222.3725861833462
 31
0.0
  0
LINE
  5
1810
330
1F
100
AcDbEntity
  8
LOGO
 62
     4
100
AcDbLine
 10
162.4877053837787
 20
232.9738240749816
 30
0.0
 11
162.4877053837787
 21
222.3725861833462
 31
0.0
  0
LINE
  5
1868
330
1F
100
AcDbEntity
  8
LOGO
 62
     4
100
AcDbLine
 10
246.3367569172685
 20
232.9738240749816
 30
0.0
 11
226.7145509384445
 21
232.9738240749816
 31
0.0
  0
LINE
  5
1869
330
1F
100
AcDbEntity
  8
LOGO
 62
     4
100
AcDbLine
 10
246.3367569172685
 20
222.3725861833462
 30
0.0
 11
226.7145509384445
 21
222.3725861833462
 31
0.0
  0
LINE
  5
186A
330
1F
100
AcDbEntity
  8
LOGO
 62
     4
100
AcDbLine
 10
245.1588415959757
 20
217.0719672375286
 30
0.0
 11
227.8924662597372
 21
217.0719672375286
 31
0.0
  0
LINE
  5
186B
330
1F
100
AcDbEntity
  8
LOGO
 62
     4
100
AcDbLine
 10
245.1588415959757
 20
204.1148987033075
 30
0.0
 11
227.8924662597372
 21
204.1148987033075
 31
0.0
  0
LINE
  5
186C
330
1F
100
AcDbEntity
  8
LOGO
 62
     4
100
AcDbLine
 10
218.3736767767298
 20
222.3725861833463
 30
0.0
 11
199.4617703954059
 21
222.3725861833463
 31
0.0
  0
LINE
  5
186D
330
1F
100
AcDbEntity
  8
LOGO
 62
     4
100
AcDbLine
 10
218.3736767767298
 20
217.0719672375286
 30
0.0
 11
199.4617703954059
 21
217.0719672375286
 31
0.0
  0
LINE
  5
186E
330
1F
100
AcDbEntity
  8
LOGO
 62
     4
100
AcDbLine
 10
218.3736767767298
 20
232.9738240749817
 30
0.0
 11
199.4617703954059
 21
232.9738240749817
 31
0.0
  0
TEXT
  5
186F
330
1F
100
AcDbEntity
  8
LOGO
  6
Continuous
 62
     7
100
AcDbText
 10
204.4595008877091
 20
224.5132919593281
 30
0.0
 40
6.18625
  1
32
  7
CHINESET
 72
     1
 11
209.4674175543758
 21
227.6064169593281
 31
0.0
100
AcDbText
 73
     2
  0
LINE
  5
1870
330
1F
100
AcDbEntity
  8
LOGO
 62
     4
100
AcDbLine
 10
218.3736767767298
 20
204.1148987033076
 30
0.0
 11
199.4617703954059
 21
204.1148987033076
 31
0.0
  0
TEXT
  5
1871
330
1F
100
AcDbEntity
  8
LOGO
  6
Continuous
100
AcDbText
 10
205.6352235860679
 20
205.7340620065396
 30
0.0
 40
2.65125
  1
Bore
 41
0.8
  7
CHINESET
 72
     4
 11
208.917723586068
 21
207.0596870065396
 31
0.0
100
AcDbText
  0
TEXT
  5
1872
330
1F
100
AcDbEntity
  8
LOGO
100
AcDbText
 10
204.222801711068
 20
210.7398886130037
 30
0.0
 40
4.41875
  1
內徑
  7
CHINESET
 72
     4
 11
208.917723586068
 21
212.9492636130037
 31
0.0
100
AcDbText
  0
LINE
  5
1873
330
1F
100
AcDbEntity
  8
LOGO
 62
     4
100
AcDbLine
 10
208.917723314459
 20
222.3725861833463
 30
0.0
 11
208.917723314459
 21
217.0719672375286
 31
0.0
  0
LINE
  5
1874
330
1F
100
AcDbEntity
  8
LOGO
 62
     4
100
AcDbLine
 10
175.4774045383191
 20
222.3725861833462
 30
0.0
 11
175.4774045383191
 21
217.0719672375286
 31
0.0
  0
LINE
  5
1875
330
1F
100
AcDbEntity
  8
LOGO
 62
     4
100
AcDbLine
 10
191.1208962336912
 20
217.0719672375286
 30
0.0
 11
191.1208962336912
 21
204.1148987033076
 31
0.0
  0
LINE
  5
1876
330
1F
100
AcDbEntity
  8
LOGO
 62
     4
100
AcDbLine
 10
199.4617703954059
 20
217.0719672375286
 30
0.0
 11
199.4617703954059
 21
204.1148987033076
 31
0.0
  0
LINE
  5
1877
330
1F
100
AcDbEntity
  8
LOGO
 62
     4
100
AcDbLine
 10
191.1208962336912
 20
232.9738240749817
 30
0.0
 11
191.1208962336912
 21
222.3725861833462
 31
0.0
  0
LINE
  5
1878
330
1F
100
AcDbEntity
  8
LOGO
 62
     4
100
AcDbLine
 10
199.4617703954059
 20
232.9738240749817
 30
0.0
 11
199.4617703954059
 21
222.3725861833463
 31
0.0
  0
LINE
  5
1879
330
1F
100
AcDbEntity
  8
LOGO
  6
Continuous
 62
     7
100
AcDbLine
 10
192.9473302017762
 20
227.6356538691602
 30
0.0
 11
197.6284500327402
 21
227.6356538691602
 31
0.0
  0
LINE
  5
187A
330
1F
100
AcDbEntity
  8
LOGO
 62
     4
100
AcDbLine
 10
236.7751256976064
 20
222.3725861833462
 30
0.0
 11
236.7751256976064
 21
217.0719672375286
 31
0.0
  0
LINE
  5
187B
330
1F
100
AcDbEntity
  8
LOGO
 62
     4
100
AcDbLine
 10
218.3736767767298
 20
217.0719672375286
 30
0.0
 11
218.3736767767298
 21
204.1148987033076
 31
0.0
  0
LINE
  5
187C
330
1F
100
AcDbEntity
  8
LOGO
 62
     4
100
AcDbLine
 10
227.8924662597372
 20
217.0719672375286
 30
0.0
 11
227.8924662597372
 21
204.1148987033075
 31
0.0
  0
TEXT
  5
187D
330
1F
100
AcDbEntity
  8
LOGO
  6
Continuous
100
AcDbText
 10
231.7281539278565
 20
205.7340620065395
 30
0.0
 40
2.65125
  1
Stroke
 41
0.8
  7
CHINESET
 72
     4
 11
236.5256539278565
 21
207.0596870065395
 31
0.0
100
AcDbText
  0
TEXT
  5
187E
330
1F
100
AcDbEntity
  8
LOGO
100
AcDbText
 10
232.1069039278565
 20
210.7398886130037
 30
0.0
 40
4.41875
  1
行程
  7
CHINESET
 72
     4
 11
236.5256539278565
 21
212.9492636130037
 31
0.0
100
AcDbText
  0
LINE
  5
187F
330
1F
100
AcDbEntity
  8
LOGO
 62
     4
100
AcDbLine
 10
218.3736767767298
 20
232.9738240749817
 30
0.0
 11
218.3736767767298
 21
222.3725861833463
 31
0.0
  0
LINE
  5
1880
330
1F
100
AcDbEntity
  8
LOGO
  6
Continuous
 62
     7
100
AcDbLine
 10
220.2001107448149
 20
227.6356538691603
 30
0.0
 11
224.8812305757789
 21
227.6356538691603
 31
0.0
  0
LINE
  5
1881
330
1F
100
AcDbEntity
  8
LOGO
 62
     4
100
AcDbLine
 10
226.7145509384445
 20
232.9738240749816
 30
0.0
 11
226.7145509384445
 21
222.3725861833462
 31
0.0
  0
TEXT
  5
1882
330
1F
100
AcDbEntity
  8
LOGO
  6
Continuous
 62
     7
100
AcDbText
 10
235.6024312294977
 20
224.513291959328
 30
0.0
 40
6.18625
  1
*
  7
CHINESET
 72
     1
 11
237.0753478961644
 21
227.6064169593281
 31
0.0
100
AcDbText
 73
     2
  0
LINE
  5
1883
330
1F
100
AcDbEntity
  8
LOGO
 62
     4
100
AcDbLine
 10
256.5269702897401
 20
222.3725861833462
 30
0.0
 11
256.5269702897401
 21
217.0719672375286
 31
0.0
  0
LINE
  5
1885
330
1F
100
AcDbEntity
  8
LOGO
 62
     4
100
AcDbLine
 10
266.3223277385591
 20
204.1148987033075
 30
0.0
 11
247.893782621621
 21
204.1148987033075
 31
0.0
  0
LINE
  5
1886
330
1F
100
AcDbEntity
  8
LOGO
 62
     4
100
AcDbLine
 10
266.3223277385591
 20
217.0719672375286
 30
0.0
 11
247.893782621621
 21
217.0719672375286
 31
0.0
  0
TEXT
  5
1887
330
1F
100
AcDbEntity
  8
LOGO
  6
Continuous
100
AcDbText
 10
250.3659702897401
 20
205.7340620065395
 30
0.0
 40
2.65125
  1
MAGNET
 41
0.8
  7
CHINESET
 72
     4
 11
256.5269702897401
 21
207.0596870065395
 31
0.0
100
AcDbText
  0
TEXT
  5
1888
330
1F
100
AcDbEntity
  8
LOGO
100
AcDbText
 10
249.8988452897401
 20
210.785917258837
 30
0.0
 40
4.41875
  1
附磁石
  7
CHINESET
 72
     4
 11
256.5269702897401
 21
212.9492636130037
 31
0.0
100
AcDbText
  0
LINE
  5
1889
330
1F
100
AcDbEntity
  8
LOGO
 62
     4
100
AcDbLine
 10
247.893782621621
 20
217.0719672375286
 30
0.0
 11
247.893782621621
 21
204.1148987033075
 31
0.0
  0
LINE
  5
188A
330
1F
100
AcDbEntity
  8
LOGO
 62
     4
100
AcDbLine
 10
245.1588415959757
 20
217.0719672375286
 30
0.0
 11
245.1588415959757
 21
204.066041963386
 31
0.0
  0
LINE
  5
188B
330
1F
100
AcDbEntity
  8
LOGO
 62
     4
100
AcDbLine
 10
266.3223277385591
 20
217.0719672375286
 30
0.0
 11
266.3223277385591
 21
204.066041963386
 31
0.0
  0
TEXT
  5
188C
330
1F
100
AcDbEntity
  8
LOGO
  6
Continuous
 62
     7
100
AcDbText
 10
250.4485395296569
 20
224.513291959328
 30
0.0
 40
6.18625
  1
(M)
  7
CHINESET
 72
     1
 11
257.0766645296569
 21
227.6064169593281
 31
0.0
100
AcDbText
 73
     2
  0
LINE
  5
188D
330
1F
100
AcDbEntity
  8
LOGO
 62
     4
100
AcDbLine
 10
265.4280558876609
 20
222.3725861833462
 30
0.0
 11
248.7880544725191
 21
222.3725861833462
 31
0.0
  0
LINE
  5
188E
330
1F
100
AcDbEntity
  8
LOGO
 62
     4
100
AcDbLine
 10
265.4280558876609
 20
232.9738240749817
 30
0.0
 11
248.7880544725191
 21
232.9738240749816
 31
0.0
  0
LINE
  5
188F
330
1F
100
AcDbEntity
  8
LOGO
 62
     4
100
AcDbLine
 10
248.7880544725191
 20
232.9738240749816
 30
0.0
 11
248.7880544725191
 21
222.3725861833462
 31
0.0
  0
LINE
  5
1890
330
1F
100
AcDbEntity
  8
LOGO
 62
     4
100
AcDbLine
 10
246.3367569172685
 20
232.9738240749816
 30
0.0
 11
246.3367569172685
 21
222.3725861833462
 31
0.0
  0
LINE
  5
1891
330
1F
100
AcDbEntity
  8
LOGO
 62
     4
100
AcDbLine
 10
265.4280558876608
 20
232.9738240749817
 30
0.0
 11
265.4280558876609
 21
222.3725861833462
 31
0.0
  0
LINE
  5
18E7
330
1F
100
AcDbEntity
  8
0
 62
     4
100
AcDbLine
 10
271.6277841472795
 20
498.3383184385226
 30
0.0
 11
-0.4706550713615343
 21
498.3383184385226
 31
0.0
  0
TEXT
  5
18EA
330
1F
100
AcDbEntity
  8
0
100
AcDbText
 10
5.575756269376597
 20
489.3703000572422
 30
0.0
 40
4.0
  1
11 type
  7
CHINESET
100
AcDbText
  0
ARC
  5
393C
330
1F
100
AcDbEntity
  8
0
100
AcDbCircle
 10
190.4498295624099
 20
416.9671583209397
 30
0.0
 40
14.89838549086941
100
AcDbArc
 50
226.5092604653625
 51
133.4907395346375
  0
CIRCLE
  5
393D
330
1F
100
AcDbEntity
  8
0
100
AcDbCircle
 10
191.3861181759035
 20
416.9671583209395
 30
0.0
 40
17.0
  0
LINE
  5
393E
330
1F
100
AcDbEntity
  8
0
100
AcDbLine
 10
192.4861181759034
 20
435.9671583209395
 30
0.0
 11
201.4861181759035
 21
435.9671583209393
 31
0.0
  0
LINE
  5
393F
330
1F
100
AcDbEntity
  8
0
100
AcDbLine
 10
192.4861181759034
 20
397.9671583209398
 30
0.0
 11
201.4861181759035
 21
397.9671583209398
 31
0.0
  0
LINE
  5
3940
330
1F
100
AcDbEntity
  8
CENTER
100
AcDbLine
 10
215.0747228417921
 20
416.9671583209397
 30
0.0
 11
162.9575639214748
 21
416.9671583209397
 31
0.0
  0
LINE
  5
3941
330
1F
100
AcDbEntity
  8
CENTER
100
AcDbLine
 10
214.326533943307
 20
433.9671583209397
 30
0.0
 11
202.4457024085001
 21
433.9671583209397
 31
0.0
  0
LINE
  5
3942
330
1F
100
AcDbEntity
  8
CENTER
100
AcDbLine
 10
180.326533943307
 20
433.9671583209397
 30
0.0
 11
168.4457024085001
 21
433.9671583209397
 31
0.0
  0
LINE
  5
3943
330
1F
100
AcDbEntity
  8
CENTER
100
AcDbLine
 10
214.326533943307
 20
399.9671583209397
 30
0.0
 11
202.4457024085001
 21
399.9671583209397
 31
0.0
  0
LINE
  5
3944
330
1F
100
AcDbEntity
  8
CENTER
100
AcDbLine
 10
180.326533943307
 20
399.9671583209397
 30
0.0
 11
168.4457024085001
 21
399.9671583209397
 31
0.0
  0
LINE
  5
3945
330
1F
100
AcDbEntity
  8
0
100
AcDbLine
 10
194.7027429662588
 20
421.9671583209397
 30
0.0
 11
188.0694933855483
 21
421.9671583209397
 31
0.0
  0
LINE
  5
3946
330
1F
100
AcDbEntity
  8
0
100
AcDbLine
 10
194.702742966259
 20
411.9671583209396
 30
0.0
 11
188.0694933855481
 21
411.9671583209396
 31
0.0
  0
LINE
  5
3947
102
{ACAD_REACTORS
330
3ACC
330
3AFD
102
}
330
1F
100
AcDbEntity
  8
0
100
AcDbLine
 10
213.3861181759036
 20
436.6204023279732
 30
0.0
 11
213.3861181759036
 21
425.3671583209395
 31
0.0
  0
LINE
  5
3948
330
1F
100
AcDbEntity
  8
0
100
AcDbLine
 10
213.3861181759036
 20
408.5671583209396
 30
0.0
 11
213.3861181759036
 21
397.1854190115707
 31
0.0
  0
LINE
  5
3949
330
1F
100
AcDbEntity
  8
0
100
AcDbLine
 10
211.0393621829372
 20
394.9671583209397
 30
0.0
 11
199.7861181759034
 21
394.9671583209397
 31
0.0
  0
LINE
  5
394A
330
1F
100
AcDbEntity
  8
0
100
AcDbLine
 10
213.3861181759036
 20
397.1854190115707
 30
0.0
 11
211.0393621829372
 21
394.9671583209397
 31
0.0
  0
LINE
  5
394B
330
1F
100
AcDbEntity
  8
0
100
AcDbLine
 10
199.7861181759034
 20
396.6671583209396
 30
0.0
 11
201.4861181759035
 21
396.6671583209396
 31
0.0
  0
LINE
  5
394C
330
1F
100
AcDbEntity
  8
0
100
AcDbLine
 10
201.4861181759035
 20
397.9671583209398
 30
0.0
 11
201.4861181759035
 21
396.6671583209396
 31
0.0
  0
LINE
  5
394D
330
1F
100
AcDbEntity
  8
0
100
AcDbLine
 10
199.7861181759034
 20
396.6671583209396
 30
0.0
 11
199.7861181759034
 21
394.9671583209397
 31
0.0
  0
LINE
  5
394E
330
1F
100
AcDbEntity
  8
0
100
AcDbLine
 10
210.3861181759033
 20
415.8671583209396
 30
0.0
 11
210.3861181759033
 21
406.8671583209396
 31
0.0
  0
LINE
  5
394F
330
1F
100
AcDbEntity
  8
0
100
AcDbLine
 10
177.1012817630541
 20
420.3170588109176
 30
0.0
 11
175.3737468733144
 21
420.7799503895199
 31
0.0
  0
CIRCLE
  5
3950
330
1F
100
AcDbEntity
  8
0
100
AcDbCircle
 10
177.7742112803208
 20
422.8284659592692
 30
0.0
 40
1.25
  0
LINE
  5
3951
330
1F
100
AcDbEntity
  8
0
100
AcDbLine
 10
211.6861181759035
 20
408.5671583209396
 30
0.0
 11
211.6861181759035
 21
406.8671583209396
 31
0.0
  0
LINE
  5
3952
330
1F
100
AcDbEntity
  8
0
100
AcDbLine
 10
210.3861181759033
 20
406.8671583209396
 30
0.0
 11
211.6861181759035
 21
406.8671583209396
 31
0.0
  0
LINE
  5
3953
330
1F
100
AcDbEntity
  8
0
100
AcDbLine
 10
211.6861181759035
 20
408.5671583209396
 30
0.0
 11
213.3861181759036
 21
408.5671583209396
 31
0.0
  0
ARC
  5
3954
330
1F
100
AcDbEntity
  8
0
100
AcDbCircle
 10
175.6325659184168
 20
421.7458762158091
 30
0.0
 40
1.0
100
AcDbArc
 50
222.0604018761107
 51
255.0000000000056
  0
ARC
  5
3955
330
1F
100
AcDbEntity
  8
0
100
AcDbCircle
 10
181.9809999549417
 20
425.8850864864334
 30
0.0
 40
2.6
100
AcDbArc
 50
133.3505184042806
 51
216.0018688272135
  0
ARC
  5
3956
330
1F
100
AcDbEntity
  8
0
100
AcDbCircle
 10
177.7742112803208
 20
422.8284659592692
 30
0.0
 40
2.6
100
AcDbArc
 50
335.4368720697919
 51
36.00186882721347
  0
ARC
  5
3957
330
1F
100
AcDbEntity
  8
0
100
AcDbCircle
 10
190.5982150532796
 20
416.9671583209397
 30
0.0
 40
13.05
100
AcDbArc
 50
155.4368720697919
 51
155.4368720697919
  0
ARC
  5
3958
330
1F
100
AcDbEntity
  8
0
100
AcDbCircle
 10
177.7742112803208
 20
422.8284659592692
 30
0.0
 40
2.6
100
AcDbArc
 50
255.0000000000056
 51
335.4368720697919
  0
CIRCLE
  5
3959
330
1F
100
AcDbEntity
  8
0
100
AcDbCircle
 10
177.7742112803208
 20
411.1058506826102
 30
0.0
 40
1.25
  0
LINE
  5
395A
330
1F
100
AcDbEntity
  8
0
100
AcDbLine
 10
177.1012817630541
 20
413.6172578309617
 30
0.0
 11
175.3737468733144
 21
413.1543662523593
 31
0.0
  0
LINE
  5
395B
330
1F
100
AcDbEntity
  8
0
100
AcDbLine
 10
210.3861181759033
 20
418.0671583209394
 30
0.0
 11
210.3861181759033
 21
427.0671583209394
 31
0.0
  0
LINE
  5
395C
330
1F
100
AcDbEntity
  8
0
100
AcDbLine
 10
210.3861181759033
 20
415.8671583209396
 30
0.0
 11
213.3861181759036
 21
415.8671583209396
 31
0.0
  0
LINE
  5
395D
330
1F
100
AcDbEntity
  8
0
100
AcDbLine
 10
210.3861181759033
 20
418.0671583209394
 30
0.0
 11
213.3861181759036
 21
418.0671583209394
 31
0.0
  0
LINE
  5
395E
330
1F
100
AcDbEntity
  8
0
100
AcDbLine
 10
213.3861181759036
 20
418.0671583209394
 30
0.0
 11
213.3861181759036
 21
415.8671583209396
 31
0.0
  0
ARC
  5
395F
330
1F
100
AcDbEntity
  8
0
100
AcDbCircle
 10
175.6325659184168
 20
412.1884404260702
 30
0.0
 40
1.0
100
AcDbArc
 50
104.9999999999944
 51
137.9395981238927
  0
LINE
  5
3960
330
1F
100
AcDbEntity
  8
0
100
AcDbLine
 10
210.3861181759033
 20
427.0671583209394
 30
0.0
 11
211.6861181759035
 21
427.0671583209394
 31
0.0
  0
LINE
  5
3961
330
1F
100
AcDbEntity
  8
0
100
AcDbLine
 10
211.6861181759035
 20
425.3671583209395
 30
0.0
 11
211.6861181759035
 21
427.0671583209394
 31
0.0
  0
LINE
  5
3962
330
1F
100
AcDbEntity
  8
0
100
AcDbLine
 10
211.6861181759035
 20
425.3671583209395
 30
0.0
 11
213.3861181759036
 21
425.3671583209395
 31
0.0
  0
ARC
  5
3963
330
1F
100
AcDbEntity
  8
0
100
AcDbCircle
 10
177.7742112803208
 20
411.1058506826102
 30
0.0
 40
2.6
100
AcDbArc
 50
323.9981311727865
 51
24.56312793020811
  0
ARC
  5
3964
330
1F
100
AcDbEntity
  8
0
100
AcDbCircle
 10
177.7742112803208
 20
411.1058506826102
 30
0.0
 40
2.6
100
AcDbArc
 50
24.56312793020811
 51
104.9999999999944
  0
ARC
  5
3965
330
1F
100
AcDbEntity
  8
0
100
AcDbCircle
 10
181.9809999549417
 20
408.0492301554459
 30
0.0
 40
2.6
100
AcDbArc
 50
143.9981311727865
 51
226.6494815957191
  0
LINE
  5
3966
330
1F
100
AcDbEntity
  8
0
100
AcDbLine
 10
211.0393621829372
 20
438.9671583209397
 30
0.0
 11
199.7861181759036
 21
438.9671583209397
 31
0.0
  0
ARC
  5
3967
102
{ACAD_REACTORS
330
3AC9
330
3AFA
102
}
330
1F
100
AcDbEntity
  8
0
100
AcDbCircle
 10
191.3861181759035
 20
416.9671583209397
 30
0.0
 40
29.5
100
AcDbArc
 50
41.77534800972374
 51
48.22465199027448
  0
LINE
  5
3968
330
1F
100
AcDbEntity
  8
0
100
AcDbLine
 10
199.7861181759036
 20
437.2671583209394
 30
0.0
 11
201.4861181759035
 21
437.2671583209394
 31
0.0
  0
LINE
  5
3969
330
1F
100
AcDbEntity
  8
0
100
AcDbLine
 10
201.4861181759035
 20
435.9671583209393
 30
0.0
 11
201.4861181759035
 21
437.2671583209394
 31
0.0
  0
LINE
  5
396A
330
1F
100
AcDbEntity
  8
0
100
AcDbLine
 10
199.7861181759036
 20
437.2671583209394
 30
0.0
 11
199.7861181759036
 21
438.9671583209397
 31
0.0
  0
LINE
  5
396B
330
1F
100
AcDbEntity
  8
CENTER
100
AcDbLine
 10
191.3861181759035
 20
441.1418289354046
 30
0.0
 11
191.3861181759035
 21
393.9895977234887
 31
0.0
  0
LINE
  5
396C
102
{ACAD_REACTORS
330
3AC6
330
3AF7
102
}
330
1F
100
AcDbEntity
  8
CENTER
100
AcDbLine
 10
208.3861181759036
 20
439.9075740883431
 30
0.0
 11
208.3861181759036
 21
428.0267425535362
 31
0.0
  0
LINE
  5
396D
330
1F
100
AcDbEntity
  8
CENTER
100
AcDbLine
 10
208.3861181759036
 20
405.9075740883431
 30
0.0
 11
208.3861181759036
 21
393.9895977234887
 31
0.0
  0
LINE
  5
396E
102
{ACAD_REACTORS
330
3AC6
330
3AF7
102
}
330
1F
100
AcDbEntity
  8
CENTER
100
AcDbLine
 10
174.3861181759035
 20
439.9075740883431
 30
0.0
 11
174.3861181759035
 21
428.0267425535362
 31
0.0
  0
LINE
  5
396F
330
1F
100
AcDbEntity
  8
CENTER
100
AcDbLine
 10
174.3861181759035
 20
405.9075740883431
 30
0.0
 11
174.3861181759035
 21
393.9895977234887
 31
0.0
  0
LINE
  5
3970
102
{ACAD_REACTORS
330
3AD2
330
3B03
102
}
330
1F
100
AcDbEntity
  8
0
100
AcDbLine
 10
186.3861181759035
 20
420.2837831112949
 30
0.0
 11
186.3861181759033
 21
413.6505335305845
 31
0.0
  0
LINE
  5
3971
102
{ACAD_REACTORS
330
3AD2
330
3B03
102
}
330
1F
100
AcDbEntity
  8
0
100
AcDbLine
 10
196.3861181759035
 20
420.2837831112951
 30
0.0
 11
196.3861181759035
 21
413.650533530584
 31
0.0
  0
LINE
  5
3972
330
1F
100
AcDbEntity
  8
0
100
AcDbLine
 10
169.3861181759035
 20
436.7488976303086
 30
0.0
 11
169.3861181759035
 21
428.6671583209397
 31
0.0
  0
ARC
  5
3973
330
1F
100
AcDbEntity
  8
0
 62
     3
100
AcDbCircle
 10
174.3861181759035
 20
399.9671583209397
 30
0.0
 40
3.05
100
AcDbArc
 50
253.8051719534527
 51
192.3546205970284
  0
CIRCLE
  5
3974
330
1F
100
AcDbEntity
  8
0
100
AcDbCircle
 10
174.3861181759035
 20
399.9671583209397
 30
0.0
 40
2.55
  0
LINE
  5
3975
330
1F
100
AcDbEntity
  8
0
100
AcDbLine
 10
169.3861181759035
 20
405.2671583209396
 30
0.0
 11
169.3861181759035
 21
397.3139143139062
 31
0.0
  0
LINE
  5
3976
330
1F
100
AcDbEntity
  8
0
100
AcDbLine
 10
182.9861181759034
 20
394.9671583209397
 30
0.0
 11
171.7328741688699
 21
394.9671583209397
 31
0.0
  0
LINE
  5
3977
330
1F
100
AcDbEntity
  8
0
100
AcDbLine
 10
190.2861181759036
 20
397.9671583209398
 30
0.0
 11
181.2861181759036
 21
397.9671583209398
 31
0.0
  0
LINE
  5
3978
330
1F
100
AcDbEntity
  8
0
100
AcDbLine
 10
192.4861181759034
 20
397.9671583209398
 30
0.0
 11
192.4861181759034
 21
394.9671583209397
 31
0.0
  0
LINE
  5
3979
330
1F
100
AcDbEntity
  8
0
100
AcDbLine
 10
190.2861181759036
 20
397.9671583209398
 30
0.0
 11
190.2861181759036
 21
394.9671583209397
 31
0.0
  0
LINE
  5
397A
330
1F
100
AcDbEntity
  8
0
100
AcDbLine
 10
192.4861181759034
 20
394.9671583209397
 30
0.0
 11
190.2861181759036
 21
394.9671583209397
 31
0.0
  0
LINE
  5
397B
330
1F
100
AcDbEntity
  8
0
100
AcDbLine
 10
182.9861181759034
 20
396.6671583209396
 30
0.0
 11
182.9861181759034
 21
394.9671583209397
 31
0.0
  0
LINE
  5
397C
330
1F
100
AcDbEntity
  8
0
100
AcDbLine
 10
181.2861181759036
 20
397.9671583209398
 30
0.0
 11
181.2861181759036
 21
396.6671583209396
 31
0.0
  0
LINE
  5
397D
330
1F
100
AcDbEntity
  8
0
100
AcDbLine
 10
182.9861181759034
 20
396.6671583209396
 30
0.0
 11
181.2861181759036
 21
396.6671583209396
 31
0.0
  0
ARC
  5
397E
330
1F
100
AcDbEntity
  8
0
100
AcDbCircle
 10
191.3861181759035
 20
416.9671583209397
 30
0.0
 40
29.5
100
AcDbArc
 50
221.7753480097237
 51
228.2246519902745
  0
LINE
  5
397F
330
1F
100
AcDbEntity
  8
0
100
AcDbLine
 10
172.9861181759035
 20
424.8171583209397
 30
0.0
 11
170.8861181759035
 21
424.8171583209397
 31
0.0
  0
LINE
  5
3980
330
1F
100
AcDbEntity
  8
0
100
AcDbLine
 10
170.8861181759035
 20
429.1171583209396
 30
0.0
 11
172.9861181759035
 21
429.1171583209396
 31
0.0
  0
LINE
  5
3981
330
1F
100
AcDbEntity
  8
0
100
AcDbLine
 10
170.8861181759035
 20
404.8171583209396
 30
0.0
 11
172.9861181759035
 21
404.8171583209396
 31
0.0
  0
LINE
  5
3982
330
1F
100
AcDbEntity
  8
0
100
AcDbLine
 10
172.9861181759035
 20
409.1171583209396
 30
0.0
 11
170.8861181759035
 21
409.1171583209396
 31
0.0
  0
ARC
  5
3983
330
1F
100
AcDbEntity
  8
0
100
AcDbCircle
 10
172.9861181759035
 20
407.4171583209396
 30
0.0
 40
1.7
100
AcDbArc
 50
0.0
 51
90.0
  0
ARC
  5
3984
330
1F
100
AcDbEntity
  8
0
100
AcDbCircle
 10
172.9861181759035
 20
406.5171583209396
 30
0.0
 40
1.7
100
AcDbArc
 50
270.0
 51
0.0
  0
LINE
  5
3985
330
1F
100
AcDbEntity
  8
0
100
AcDbLine
 10
174.6861181759035
 20
406.5171583209396
 30
0.0
 11
174.6861181759035
 21
407.4171583209396
 31
0.0
  0
ARC
  5
3986
330
1F
100
AcDbEntity
  8
0
100
AcDbCircle
 10
172.9861181759035
 20
427.4171583209397
 30
0.0
 40
1.7
100
AcDbArc
 50
0.0
 51
90.0
  0
ARC
  5
3987
330
1F
100
AcDbEntity
  8
0
100
AcDbCircle
 10
172.9861181759035
 20
426.5171583209396
 30
0.0
 40
1.7
100
AcDbArc
 50
270.0
 51
0.0
  0
LINE
  5
3988
330
1F
100
AcDbEntity
  8
0
100
AcDbLine
 10
174.6861181759035
 20
427.4171583209397
 30
0.0
 11
174.6861181759035
 21
426.5171583209396
 31
0.0
  0
LINE
  5
3989
102
{ACAD_REACTORS
330
3ACC
330
3AFD
102
}
330
1F
100
AcDbEntity
  8
0
100
AcDbLine
 10
164.8861181759035
 20
423.7831317446263
 30
0.0
 11
164.8861181759035
 21
410.1511848972528
 31
0.0
  0
LINE
  5
398A
330
1F
100
AcDbEntity
  8
0
100
AcDbLine
 10
169.3861181759035
 20
405.2671583209396
 30
0.0
 11
170.3861181759035
 21
405.2671583209396
 31
0.0
  0
LINE
  5
398B
330
1F
100
AcDbEntity
  8
0
100
AcDbLine
 10
170.3861181759035
 20
405.2671583209396
 30
0.0
 11
170.8861181759035
 21
404.8171583209396
 31
0.0
  0
LINE
  5
398C
330
1F
100
AcDbEntity
  8
0
100
AcDbLine
 10
169.3861181759035
 20
409.4671583209397
 30
0.0
 11
165.0695090799328
 21
409.9518757456038
 31
0.0
  0
LINE
  5
398D
330
1F
100
AcDbEntity
  8
0
100
AcDbLine
 10
170.3861181759035
 20
408.6671583209396
 30
0.0
 11
169.3861181759035
 21
408.6671583209396
 31
0.0
  0
LINE
  5
398E
330
1F
100
AcDbEntity
  8
0
100
AcDbLine
 10
170.3861181759035
 20
408.6671583209396
 30
0.0
 11
170.8861181759035
 21
409.1171583209396
 31
0.0
  0
LINE
  5
398F
330
1F
100
AcDbEntity
  8
0
100
AcDbLine
 10
169.3861181759035
 20
409.4671583209397
 30
0.0
 11
169.3861181759035
 21
408.6671583209396
 31
0.0
  0
ARC
  5
3990
102
{ACAD_REACTORS
330
3ACF
330
3B00
102
}
330
1F
100
AcDbEntity
  8
0
100
AcDbCircle
 10
165.0861181759033
 20
410.1511848972528
 30
0.0
 40
0.2
100
AcDbArc
 50
180.0
 51
265.2363583092699
  0
LINE
  5
3991
330
1F
100
AcDbEntity
  8
0
100
AcDbLine
 10
169.3861181759035
 20
424.4671583209396
 30
0.0
 11
165.0695090799328
 21
423.9824408962753
 31
0.0
  0
LINE
  5
3992
330
1F
100
AcDbEntity
  8
0
100
AcDbLine
 10
170.3861181759035
 20
425.2671583209396
 30
0.0
 11
169.3861181759035
 21
425.2671583209396
 31
0.0
  0
LINE
  5
3993
330
1F
100
AcDbEntity
  8
0
100
AcDbLine
 10
170.3861181759035
 20
425.2671583209396
 30
0.0
 11
170.8861181759035
 21
424.8171583209397
 31
0.0
  0
LINE
  5
3994
330
1F
100
AcDbEntity
  8
0
100
AcDbLine
 10
169.3861181759035
 20
425.2671583209396
 30
0.0
 11
169.3861181759035
 21
424.4671583209396
 31
0.0
  0
LINE
  5
3995
330
1F
100
AcDbEntity
  8
0
100
AcDbLine
 10
169.3861181759035
 20
428.6671583209397
 30
0.0
 11
170.3861181759035
 21
428.6671583209397
 31
0.0
  0
LINE
  5
3996
330
1F
100
AcDbEntity
  8
0
100
AcDbLine
 10
170.3861181759035
 20
428.6671583209397
 30
0.0
 11
170.8861181759035
 21
429.1171583209396
 31
0.0
  0
ARC
  5
3997
102
{ACAD_REACTORS
330
3ACF
330
3B00
102
}
330
1F
100
AcDbEntity
  8
0
100
AcDbCircle
 10
165.0861181759033
 20
423.7831317446263
 30
0.0
 40
0.2
100
AcDbArc
 50
94.76364169071706
 51
180.0
  0
LINE
  5
3998
330
1F
100
AcDbEntity
  8
0
100
AcDbLine
 10
182.9861181759037
 20
438.9671583209397
 30
0.0
 11
171.7328741688701
 21
438.9671583209397
 31
0.0
  0
LINE
  5
3999
330
1F
100
AcDbEntity
  8
0
100
AcDbLine
 10
190.2861181759036
 20
435.9671583209395
 30
0.0
 11
181.2861181759036
 21
435.9671583209395
 31
0.0
  0
LINE
  5
399A
330
1F
100
AcDbEntity
  8
0
100
AcDbLine
 10
190.2861181759036
 20
438.9671583209396
 30
0.0
 11
192.4861181759034
 21
438.9671583209396
 31
0.0
  0
LINE
  5
399B
330
1F
100
AcDbEntity
  8
0
100
AcDbLine
 10
192.4861181759034
 20
435.9671583209395
 30
0.0
 11
192.4861181759034
 21
438.9671583209396
 31
0.0
  0
LINE
  5
399C
330
1F
100
AcDbEntity
  8
0
100
AcDbLine
 10
190.2861181759036
 20
435.9671583209395
 30
0.0
 11
190.2861181759036
 21
438.9671583209396
 31
0.0
  0
LINE
  5
399D
330
1F
100
AcDbEntity
  8
0
100
AcDbLine
 10
181.2861181759036
 20
435.9671583209395
 30
0.0
 11
181.2861181759036
 21
437.2671583209396
 31
0.0
  0
LINE
  5
399E
330
1F
100
AcDbEntity
  8
0
100
AcDbLine
 10
182.9861181759037
 20
437.2671583209396
 30
0.0
 11
182.9861181759037
 21
438.9671583209397
 31
0.0
  0
LINE
  5
399F
330
1F
100
AcDbEntity
  8
0
100
AcDbLine
 10
182.9861181759037
 20
437.2671583209396
 30
0.0
 11
181.2861181759036
 21
437.2671583209396
 31
0.0
  0
LINE
  5
39A0
102
{ACAD_REACTORS
330
3AC9
330
3AFA
102
}
330
1F
100
AcDbEntity
  8
0
100
AcDbLine
 10
169.3861181759035
 20
436.7488976303086
 30
0.0
 11
171.7328741688701
 21
438.9671583209397
 31
0.0
  0
LINE
  5
39A1
330
1F
100
AcDbEntity
  8
0
100
AcDbLine
 10
99.30898860624337
 20
394.9671583209397
 30
0.0
 11
99.30898860624337
 21
416.9671583209397
 31
0.0
  0
LINE
  5
39A2
330
1F
100
AcDbEntity
  8
0
100
AcDbLine
 10
99.30898860624337
 20
394.9671583209397
 30
0.0
 11
69.80898860624336
 21
394.9671583209397
 31
0.0
  0
LINE
  5
39A3
330
1F
100
AcDbEntity
  8
CENTER
100
AcDbLine
 10
126.5613628261393
 20
416.9671583209397
 30
0.0
 11
66.85418180148428
 21
416.9671583209397
 31
0.0
  0
LINE
  5
39A4
102
{ACAD_REACTORS
330
3AA8
102
}
330
1F
100
AcDbEntity
  8
0
100
AcDbLine
 10
99.30898860624337
 20
416.9671583209397
 30
0.0
 11
99.30898860624337
 21
438.9671583209397
 31
0.0
  0
LINE
  5
39A5
102
{ACAD_REACTORS
330
3AA8
102
}
330
1F
100
AcDbEntity
  8
0
100
AcDbLine
 10
69.80898860624336
 20
394.9671583209397
 30
0.0
 11
69.80898860624336
 21
438.9671583209397
 31
0.0
  0
LINE
  5
39A6
330
1F
100
AcDbEntity
  8
0
100
AcDbLine
 10
99.30898860624337
 20
408.6671583209396
 30
0.0
 11
69.80898860624336
 21
408.6671583209396
 31
0.0
  0
LINE
  5
39A7
330
1F
100
AcDbEntity
  8
0
100
AcDbLine
 10
99.30898860624337
 20
409.4671583209397
 30
0.0
 11
69.80898860624336
 21
409.4671583209397
 31
0.0
  0
LINE
  5
39A8
330
1F
100
AcDbEntity
  8
0
100
AcDbLine
 10
99.30898860624337
 20
410.1511848972528
 30
0.0
 11
69.80898860624336
 21
410.1511848972528
 31
0.0
  0
LINE
  5
39A9
102
{ACAD_REACTORS
330
3AAB
102
}
330
1F
100
AcDbEntity
  8
CENTER
 48
0.5
100
AcDbLine
 10
78.80898860624336
 20
421.7918969902394
 30
0.0
 11
78.80898860624336
 21
412.1424196516399
 31
0.0
  0
LINE
  5
39AA
102
{ACAD_REACTORS
330
3AB7
102
}
330
1F
100
AcDbEntity
  8
0
100
AcDbLine
 10
102.3089886062433
 20
416.9671583209397
 30
0.0
 11
102.3089886062433
 21
406.9671583209396
 31
0.0
  0
LINE
  5
39AB
102
{ACAD_REACTORS
330
3ABA
102
}
330
1F
100
AcDbEntity
  8
0
100
AcDbLine
 10
101.3089886062433
 20
427.9671583209396
 30
0.0
 11
99.30898860624337
 21
427.9671583209396
 31
0.0
  0
LINE
  5
39AC
102
{ACAD_REACTORS
330
3AB1
102
}
330
1F
100
AcDbEntity
  8
0
100
AcDbLine
 10
102.3089886062433
 20
416.9671583209397
 30
0.0
 11
102.3089886062433
 21
426.9671583209396
 31
0.0
  0
ARC
  5
39AD
330
1F
100
AcDbEntity
  8
0
100
AcDbCircle
 10
101.3089886062433
 20
426.9671583209396
 30
0.0
 40
1.0
100
AcDbArc
 50
0.0
 51
90.0
  0
LINE
  5
39AE
330
1F
100
AcDbEntity
  8
0
100
AcDbLine
 10
101.3089886062433
 20
405.9671583209397
 30
0.0
 11
99.30898860624337
 21
405.9671583209397
 31
0.0
  0
ARC
  5
39AF
102
{ACAD_REACTORS
330
3ABA
102
}
330
1F
100
AcDbEntity
  8
0
100
AcDbCircle
 10
101.3089886062433
 20
406.9671583209396
 30
0.0
 40
1.0
100
AcDbArc
 50
270.0
 51
0.0
  0
LINE
  5
39B0
330
1F
100
AcDbEntity
  8
0
100
AcDbLine
 10
99.30898860624337
 20
405.2671583209396
 30
0.0
 11
69.80898860624336
 21
405.2671583209396
 31
0.0
  0
LINE
  5
39B1
330
1F
100
AcDbEntity
  8
0
100
AcDbLine
 10
99.30898860624337
 20
397.313914313906
 30
0.0
 11
69.80898860624336
 21
397.313914313906
 31
0.0
  0
CIRCLE
  5
39B2
102
{ACAD_REACTORS
330
3AD2
330
3B03
102
}
330
1F
100
AcDbEntity
  8
0
100
AcDbCircle
 10
191.3861181759035
 20
416.9671583209395
 30
0.0
 40
6.0
  0
CIRCLE
  5
39B3
330
1F
100
AcDbEntity
  8
0
100
AcDbCircle
 10
191.3861181759035
 20
416.9671583209395
 30
0.0
 40
5.0
  0
ARC
  5
39B4
330
1F
100
AcDbEntity
  8
0
 62
     3
100
AcDbCircle
 10
191.3861181759035
 20
416.9671583209395
 30
0.0
 40
4.299999999999999
100
AcDbArc
 50
158.2523751988779
 51
65.50514932167013
  0
CIRCLE
  5
39B5
330
1F
100
AcDbEntity
  8
0
100
AcDbCircle
 10
191.3861181759035
 20
416.9671583209395
 30
0.0
 40
11.0
  0
CIRCLE
  5
39B6
330
1F
100
AcDbEntity
  8
0
100
AcDbCircle
 10
174.3861181759035
 20
399.9671583209397
 30
0.0
 40
4.5
  0
LINE
  5
39B7
330
1F
100
AcDbEntity
  8
0
100
AcDbLine
 10
106.3089886062433
 20
411.9671583209398
 30
0.0
 11
106.3089886062433
 21
421.9671583209398
 31
0.0
  0
LINE
  5
39B8
330
1F
100
AcDbEntity
  8
0
100
AcDbLine
 10
124.3089886062433
 20
412.9671583209397
 30
0.0
 11
124.3089886062433
 21
420.9671583209397
 31
0.0
  0
LINE
  5
39B9
102
{ACAD_REACTORS
330
3A9F
102
}
330
1F
100
AcDbEntity
  8
0
100
AcDbLine
 10
109.3089886062433
 20
411.9671583209396
 30
0.0
 11
109.3089886062433
 21
421.9671583209397
 31
0.0
  0
LINE
  5
39BA
102
{ACAD_REACTORS
330
3AA2
102
}
330
1F
100
AcDbEntity
  8
0
100
AcDbLine
 10
106.3089886062433
 20
421.9671583209398
 30
0.0
 11
103.3089886062438
 21
421.9671583209398
 31
0.0
  0
LINE
  5
39BB
330
1F
100
AcDbEntity
  8
0
100
AcDbLine
 10
106.3089886062433
 20
411.9671583209398
 30
0.0
 11
103.3089886062438
 21
411.9671583209398
 31
0.0
  0
LINE
  5
39BC
330
1F
100
AcDbEntity
  8
0
100
AcDbLine
 10
104.8089886062433
 20
411.9671583209398
 30
0.0
 11
104.8089886062433
 21
413.0941749747323
 31
0.0
  0
LINE
  5
39BD
330
1F
100
AcDbEntity
  8
0
100
AcDbLine
 10
123.3089886062433
 20
421.9671583209397
 30
0.0
 11
119.8089886062436
 21
421.9671583209397
 31
0.0
  0
LINE
  5
39BE
330
1F
100
AcDbEntity
  8
0
100
AcDbLine
 10
113.8089886062433
 20
421.9671583209397
 30
0.0
 11
106.3089886062433
 21
421.9671583209397
 31
0.0
  0
LINE
  5
39BF
330
1F
100
AcDbEntity
  8
0
100
AcDbLine
 10
123.3089886062433
 20
411.9671583209396
 30
0.0
 11
119.8089886062436
 21
411.9671583209397
 31
0.0
  0
LINE
  5
39C0
102
{ACAD_REACTORS
330
3AC1
102
}
330
1F
100
AcDbEntity
  8
0
100
AcDbLine
 10
113.8089886062433
 20
411.9671583209396
 30
0.0
 11
106.3089886062433
 21
411.9671583209396
 31
0.0
  0
LINE
  5
39C1
330
1F
100
AcDbEntity
  8
0
 62
     3
100
AcDbLine
 10
124.0589886062433
 20
421.2171583209396
 30
0.0
 11
119.8089886062433
 21
421.2171583209396
 31
0.0
  0
LINE
  5
39C2
330
1F
100
AcDbEntity
  8
0
 62
     3
100
AcDbLine
 10
113.8089886062436
 20
421.2171583209396
 30
0.0
 11
109.3089886062433
 21
421.2171583209396
 31
0.0
  0
LINE
  5
39C3
330
1F
100
AcDbEntity
  8
0
 62
     3
100
AcDbLine
 10
124.0589886062433
 20
412.7171583209396
 30
0.0
 11
119.8089886062433
 21
412.7171583209396
 31
0.0
  0
LINE
  5
39C4
330
1F
100
AcDbEntity
  8
0
 62
     3
100
AcDbLine
 10
113.8089886062436
 20
412.7171583209396
 30
0.0
 11
109.3089886062433
 21
412.7171583209396
 31
0.0
  0
LINE
  5
39C5
102
{ACAD_REACTORS
330
3A9F
330
3AA2
330
3AA5
330
3AB4
102
}
330
1F
100
AcDbEntity
  8
0
100
AcDbLine
 10
123.3089886062433
 20
421.9671583209397
 30
0.0
 11
124.3089886062433
 21
420.9671583209397
 31
0.0
  0
LINE
  5
39C6
330
1F
100
AcDbEntity
  8
0
100
AcDbLine
 10
124.3089886062433
 20
412.9671583209397
 30
0.0
 11
123.3089886062433
 21
411.9671583209396
 31
0.0
  0
LINE
  5
39C7
330
1F
100
AcDbEntity
  8
0
100
AcDbLine
 10
123.3089886062433
 20
421.9671583209397
 30
0.0
 11
123.3089886062433
 21
411.9671583209396
 31
0.0
  0
LINE
  5
39C8
330
1F
100
AcDbEntity
  8
0
 62
     3
100
AcDbLine
 10
109.3089886062433
 20
421.2171583209396
 30
0.0
 11
108.8759759043513
 21
421.9671583209397
 31
0.0
  0
LINE
  5
39C9
330
1F
100
AcDbEntity
  8
0
 62
     3
100
AcDbLine
 10
109.3089886062433
 20
412.7171583209396
 30
0.0
 11
108.8759759043513
 21
411.9671583209396
 31
0.0
  0
LINE
  5
39CA
102
{ACAD_REACTORS
330
3AB7
102
}
330
1F
100
AcDbEntity
  8
0
100
AcDbLine
 10
103.3089886062438
 20
411.9671583209398
 30
0.0
 11
102.3089886062438
 21
410.9671583209397
 31
0.0
  0
LINE
  5
39CB
102
{ACAD_REACTORS
330
3AB7
102
}
330
1F
100
AcDbEntity
  8
0
100
AcDbLine
 10
103.3089886062438
 20
421.9671583209398
 30
0.0
 11
102.3089886062438
 21
422.9671583209397
 31
0.0
  0
LINE
  5
39CC
330
1F
100
AcDbEntity
  8
0
100
AcDbLine
 10
104.8089886062438
 20
416.9671583209397
 30
0.0
 11
106.3089886062438
 21
413.8446593217405
 31
0.0
  0
LINE
  5
39CD
330
1F
100
AcDbEntity
  8
0
100
AcDbLine
 10
106.3089886062438
 20
413.8446593217405
 30
0.0
 11
103.3089886062438
 21
413.8446593217405
 31
0.0
  0
LINE
  5
39CE
102
{ACAD_REACTORS
330
3AC1
102
}
330
1F
100
AcDbEntity
  8
0
100
AcDbLine
 10
103.3089886062438
 20
413.8446593217405
 30
0.0
 11
103.3089886062438
 21
416.9671583209397
 31
0.0
  0
LINE
  5
39CF
330
1F
100
AcDbEntity
  8
0
100
AcDbLine
 10
103.3089886062438
 20
413.8446593217405
 30
0.0
 11
104.8089886062438
 21
416.9671583209397
 31
0.0
  0
ARC
  5
39D0
102
{ACAD_REACTORS
330
3AC1
102
}
330
1F
100
AcDbEntity
  8
0
100
AcDbCircle
 10
107.6839886062433
 20
416.9671583209397
 30
0.0
 40
5.374999999999814
100
AcDbArc
 50
180.0
 51
215.5159837645313
  0
LINE
  5
39D1
330
1F
100
AcDbEntity
  8
0
100
AcDbLine
 10
103.3089886062438
 20
420.0896573201389
 30
0.0
 11
104.8089886062438
 21
416.9671583209398
 31
0.0
  0
LINE
  5
39D2
330
1F
100
AcDbEntity
  8
0
100
AcDbLine
 10
106.3089886062438
 20
420.0896573201389
 30
0.0
 11
103.3089886062438
 21
420.0896573201389
 31
0.0
  0
ARC
  5
39D3
330
1F
100
AcDbEntity
  8
0
100
AcDbCircle
 10
107.6839886062433
 20
416.9671583209398
 30
0.0
 40
5.374999999999814
100
AcDbArc
 50
144.4840162354687
 51
180.0
  0
LINE
  5
39D4
330
1F
100
AcDbEntity
  8
0
100
AcDbLine
 10
103.3089886062438
 20
420.0896573201389
 30
0.0
 11
103.3089886062438
 21
416.9671583209398
 31
0.0
  0
LINE
  5
39D5
330
1F
100
AcDbEntity
  8
0
100
AcDbLine
 10
104.8089886062438
 20
416.9671583209398
 30
0.0
 11
106.3089886062438
 21
420.0896573201389
 31
0.0
  0
LINE
  5
39D6
330
1F
100
AcDbEntity
  8
0
100
AcDbLine
 10
104.8089886062438
 20
411.9671583209396
 30
0.0
 11
104.8089886062433
 21
413.8446593217405
 31
0.0
  0
LINE
  5
39D7
330
1F
100
AcDbEntity
  8
0
100
AcDbLine
 10
104.8089886062433
 20
420.0896573201389
 30
0.0
 11
104.8089886062433
 21
421.9671583209398
 31
0.0
  0
LINE
  5
39D8
102
{ACAD_REACTORS
330
3A9C
102
}
330
1F
100
AcDbEntity
  8
0
100
AcDbLine
 10
119.8089886062433
 20
408.8085603013752
 30
0.0
 11
119.8089886062433
 21
425.1257563405044
 31
0.0
  0
LINE
  5
39D9
102
{ACAD_REACTORS
330
3A9C
102
}
330
1F
100
AcDbEntity
  8
0
100
AcDbLine
 10
113.8089886062433
 20
408.8085603013752
 30
0.0
 11
113.8089886062433
 21
425.1257563405042
 31
0.0
  0
LINE
  5
39DA
330
1F
100
AcDbEntity
  8
0
100
AcDbLine
 10
119.3812650298408
 20
407.152203744716
 30
0.0
 11
114.2367121826463
 21
407.152203744716
 31
0.0
  0
LINE
  5
39DB
330
1F
100
AcDbEntity
  8
0
100
AcDbLine
 10
119.3089886062433
 20
412.0596810328279
 30
0.0
 11
114.3089886062433
 21
412.0596810328278
 31
0.0
  0
LINE
  5
39DC
330
1F
100
AcDbEntity
  8
0
100
AcDbLine
 10
119.3089886062433
 20
421.8746356090514
 30
0.0
 11
114.3089886062433
 21
421.8746356090514
 31
0.0
  0
LINE
  5
39DD
330
1F
100
AcDbEntity
  8
0
100
AcDbLine
 10
119.3812650298413
 20
426.7821128971633
 30
0.0
 11
114.2367121826463
 21
426.7821128971633
 31
0.0
  0
ARC
  5
39DE
330
1F
100
AcDbEntity
  8
0
100
AcDbCircle
 10
113.5381552729103
 20
409.6059423887719
 30
0.0
 40
6.270833333333208
100
AcDbArc
 50
336.9649682362131
 51
23.03503176378685
  0
ARC
  5
39DF
330
1F
100
AcDbEntity
  8
0
100
AcDbCircle
 10
95.47565527291032
 20
416.9671583209397
 30
0.0
 40
24.33333333333314
100
AcDbArc
 50
348.3649487111155
 51
11.63505128888454
  0
ARC
  5
39E0
330
1F
100
AcDbEntity
  8
0
100
AcDbCircle
 10
113.5381552729103
 20
424.3283742531074
 30
0.0
 40
6.270833333333254
100
AcDbArc
 50
336.9649682362131
 51
23.03503176378685
  0
ARC
  5
39E1
330
1F
100
AcDbEntity
  8
0
100
AcDbCircle
 10
120.0798219395768
 20
409.6059423887719
 30
0.0
 40
6.270833333333198
100
AcDbArc
 50
156.9649682362132
 51
203.0350317637865
  0
ARC
  5
39E2
330
1F
100
AcDbEntity
  8
0
100
AcDbCircle
 10
138.1423219395768
 20
416.9671583209397
 30
0.0
 40
24.33333333333337
100
AcDbArc
 50
168.3649487111154
 51
191.6350512888845
  0
ARC
  5
39E3
330
1F
100
AcDbEntity
  8
0
100
AcDbCircle
 10
120.0798219395768
 20
424.3283742531074
 30
0.0
 40
6.270833333333087
100
AcDbArc
 50
156.9649682362132
 51
203.0350317637865
  0
LINE
  5
39E4
330
1F
100
AcDbEntity
  8
0
100
AcDbLine
 10
119.3812650298408
 20
407.152203744716
 30
0.0
 11
119.8089886062433
 21
408.8085603013752
 31
0.0
  0
LINE
  5
39E5
330
1F
100
AcDbEntity
  8
0
100
AcDbLine
 10
114.2367121826459
 20
407.152203744716
 30
0.0
 11
113.8089886062433
 21
408.8085603013752
 31
0.0
  0
LINE
  5
39E6
330
1F
100
AcDbEntity
  8
0
100
AcDbLine
 10
119.3812650298408
 20
426.7821128971633
 30
0.0
 11
119.8089886062433
 21
425.1257563405041
 31
0.0
  0
LINE
  5
39E7
330
1F
100
AcDbEntity
  8
0
100
AcDbLine
 10
114.2367121826459
 20
426.7821128971633
 30
0.0
 11
113.8089886062433
 21
425.1257563405041
 31
0.0
  0
ARC
  5
39E8
330
1F
100
AcDbEntity
  8
0
 62
     3
100
AcDbCircle
 10
191.7242423248445
 20
283.8231171283886
 30
0.0
 40
3.162277660168388
100
AcDbArc
 50
257.1915575030731
 51
199.1700112992377
  0
CIRCLE
  5
39E9
330
1F
100
AcDbEntity
  8
0
100
AcDbCircle
 10
191.7242423248445
 20
283.8231171283886
 30
0.0
 40
2.692582403567251
  0
LINE
  5
39EA
330
1F
100
AcDbEntity
  8
0
100
AcDbLine
 10
195.0408671151996
 20
288.8231171283887
 30
0.0
 11
188.4076175344891
 21
288.8231171283887
 31
0.0
  0
LINE
  5
39EB
330
1F
100
AcDbEntity
  8
0
100
AcDbLine
 10
195.0408671152
 20
278.8231171283887
 30
0.0
 11
188.4076175344891
 21
278.8231171283887
 31
0.0
  0
LINE
  5
39EC
330
1F
100
AcDbEntity
  8
0
100
AcDbLine
 10
186.7242423248443
 20
287.1397419187439
 30
0.0
 11
186.7242423248441
 21
280.5064923380336
 31
0.0
  0
LINE
  5
39ED
330
1F
100
AcDbEntity
  8
0
100
AcDbLine
 10
196.7242423248443
 20
287.1397419187442
 30
0.0
 11
196.7242423248443
 21
280.5064923380331
 31
0.0
  0
CIRCLE
  5
39EE
330
1F
100
AcDbEntity
  8
0
100
AcDbCircle
 10
191.7242423248445
 20
283.8231171283886
 30
0.0
 40
6.0
  0
CIRCLE
  5
39EF
330
1F
100
AcDbEntity
  8
0
100
AcDbCircle
 10
191.7242423248445
 20
283.8231171283886
 30
0.0
 40
5.0
  0
LINE
  5
39F0
102
{ACAD_REACTORS
330
3AA5
330
3AAB
330
3AAE
330
3AB1
330
3AB4
102
}
330
1F
100
AcDbEntity
  8
0
100
AcDbLine
 10
99.30898860624337
 20
438.9671583209397
 30
0.0
 11
69.80898860624336
 21
438.9671583209397
 31
0.0
  0
LINE
  5
39F1
330
1F
100
AcDbEntity
  8
0
100
AcDbLine
 10
99.30898860624337
 20
425.2671583209397
 30
0.0
 11
69.80898860624336
 21
425.2671583209397
 31
0.0
  0
LINE
  5
39F2
330
1F
100
AcDbEntity
  8
0
100
AcDbLine
 10
99.30898860624337
 20
424.4671583209396
 30
0.0
 11
69.80898860624336
 21
424.4671583209396
 31
0.0
  0
LINE
  5
39F3
330
1F
100
AcDbEntity
  8
0
100
AcDbLine
 10
99.30898860624337
 20
423.7831317446265
 30
0.0
 11
69.80898860624336
 21
423.7831317446265
 31
0.0
  0
LINE
  5
39F4
330
1F
100
AcDbEntity
  8
0
100
AcDbLine
 10
99.30898860624337
 20
428.6671583209397
 30
0.0
 11
69.80898860624336
 21
428.6671583209397
 31
0.0
  0
LINE
  5
39F5
330
1F
100
AcDbEntity
  8
0
100
AcDbLine
 10
99.30898860624337
 20
436.6204023279733
 30
0.0
 11
69.80898860624336
 21
436.6204023279734
 31
0.0
  0
ARC
  5
39F6
330
1F
100
AcDbEntity
  8
0
 62
     3
100
AcDbCircle
 10
78.80898860624336
 20
416.9671583209397
 30
0.0
 40
2.5
100
AcDbArc
 50
337.3605290677909
 51
251.6049974961714
  0
CIRCLE
  5
39F7
330
1F
100
AcDbEntity
  8
0
100
AcDbCircle
 10
78.80898860624336
 20
416.9671583209397
 30
0.0
 40
2.0
  0
LINE
  5
39F8
102
{ACAD_REACTORS
330
3AAE
102
}
330
1F
100
AcDbEntity
  8
CENTER
 48
0.5
100
AcDbLine
 10
90.30898860624336
 20
421.8405771267765
 30
0.0
 11
90.30898860624336
 21
412.1910997881772
 31
0.0
  0
CIRCLE
  5
39F9
330
1F
100
AcDbEntity
  8
0
100
AcDbCircle
 10
90.30898860624336
 20
417.0158384574769
 30
0.0
 40
2.0
  0
LINE
  5
39FA
330
1F
100
AcDbEntity
  8
0
100
AcDbLine
 10
99.30898860624337
 20
261.8231171283887
 30
0.0
 11
99.30898860624337
 21
283.8231171283887
 31
0.0
  0
LINE
  5
39FB
330
1F
100
AcDbEntity
  8
0
100
AcDbLine
 10
99.30898860624337
 20
261.8231171283887
 30
0.0
 11
69.80898860624336
 21
261.8231171283887
 31
0.0
  0
LINE
  5
39FC
102
{ACAD_REACTORS
330
3AD7
330
3ADA
330
3AE3
102
}
330
1F
100
AcDbEntity
  8
0
100
AcDbLine
 10
99.30898860624337
 20
283.8231171283887
 30
0.0
 11
99.30898860624337
 21
305.8231171283887
 31
0.0
  0
LINE
  5
39FD
330
1F
100
AcDbEntity
  8
0
100
AcDbLine
 10
69.80898860624336
 20
261.8231171283887
 30
0.0
 11
69.80898860624336
 21
305.8231171283887
 31
0.0
  0
LINE
  5
39FE
330
1F
100
AcDbEntity
  8
0
100
AcDbLine
 10
99.30898860624337
 20
275.5231171283887
 30
0.0
 11
69.80898860624336
 21
275.5231171283887
 31
0.0
  0
LINE
  5
39FF
330
1F
100
AcDbEntity
  8
0
100
AcDbLine
 10
99.30898860624337
 20
276.3231171283887
 30
0.0
 11
69.80898860624336
 21
276.3231171283887
 31
0.0
  0
LINE
  5
3A00
330
1F
100
AcDbEntity
  8
0
100
AcDbLine
 10
99.30898860624337
 20
277.0071437047019
 30
0.0
 11
69.80898860624336
 21
277.0071437047019
 31
0.0
  0
LINE
  5
3A01
102
{ACAD_REACTORS
330
3ADD
102
}
330
1F
100
AcDbEntity
  8
CENTER
 48
0.5
100
AcDbLine
 10
78.80898860624336
 20
288.6478557976884
 30
0.0
 11
78.80898860624336
 21
278.9983784590891
 31
0.0
  0
LINE
  5
3A02
330
1F
100
AcDbEntity
  8
0
100
AcDbLine
 10
99.30898860624337
 20
272.1231171283887
 30
0.0
 11
69.80898860624336
 21
272.1231171283887
 31
0.0
  0
LINE
  5
3A03
330
1F
100
AcDbEntity
  8
0
100
AcDbLine
 10
99.30898860624337
 20
264.1698731213551
 30
0.0
 11
69.80898860624336
 21
264.1698731213551
 31
0.0
  0
LINE
  5
3A04
102
{ACAD_REACTORS
330
3ADD
330
3AE0
330
3AE3
330
3AE6
102
}
330
1F
100
AcDbEntity
  8
0
100
AcDbLine
 10
99.30898860624337
 20
305.8231171283887
 30
0.0
 11
69.80898860624336
 21
305.8231171283887
 31
0.0
  0
LINE
  5
3A05
330
1F
100
AcDbEntity
  8
0
100
AcDbLine
 10
99.30898860624337
 20
292.1231171283888
 30
0.0
 11
69.80898860624336
 21
292.1231171283888
 31
0.0
  0
LINE
  5
3A06
330
1F
100
AcDbEntity
  8
0
100
AcDbLine
 10
99.30898860624337
 20
291.3231171283887
 30
0.0
 11
69.80898860624336
 21
291.3231171283887
 31
0.0
  0
LINE
  5
3A07
330
1F
100
AcDbEntity
  8
0
100
AcDbLine
 10
99.30898860624337
 20
290.6390905520756
 30
0.0
 11
69.80898860624336
 21
290.6390905520756
 31
0.0
  0
LINE
  5
3A08
330
1F
100
AcDbEntity
  8
0
100
AcDbLine
 10
99.30898860624337
 20
295.5231171283888
 30
0.0
 11
69.80898860624336
 21
295.5231171283888
 31
0.0
  0
LINE
  5
3A09
330
1F
100
AcDbEntity
  8
0
100
AcDbLine
 10
99.30898860624337
 20
303.4763611354224
 30
0.0
 11
69.80898860624336
 21
303.4763611354224
 31
0.0
  0
CIRCLE
  5
3A0A
330
1F
100
AcDbEntity
  8
0
100
AcDbCircle
 10
78.80898860624336
 20
283.8231171283887
 30
0.0
 40
2.0
  0
LINE
  5
3A0B
102
{ACAD_REACTORS
330
3AE0
102
}
330
1F
100
AcDbEntity
  8
CENTER
 48
0.5
100
AcDbLine
 10
90.30898860624336
 20
288.6965359342255
 30
0.0
 11
90.30898860624336
 21
279.0470585956263
 31
0.0
  0
CIRCLE
  5
3A0C
330
1F
100
AcDbEntity
  8
0
100
AcDbCircle
 10
90.30898860624336
 20
283.8717972649259
 30
0.0
 40
2.0
  0
LINE
  5
3A0D
330
1F
100
AcDbEntity
  8
0
100
AcDbLine
 10
102.3089886062433
 20
283.8231171283887
 30
0.0
 11
102.3089886062433
 21
273.8231171283887
 31
0.0
  0
LINE
  5
3A0E
330
1F
100
AcDbEntity
  8
0
100
AcDbLine
 10
103.3089886062433
 20
280.0814597416147
 30
0.0
 11
103.3089886062433
 21
283.8231171283887
 31
0.0
  0
LINE
  5
3A0F
330
1F
100
AcDbEntity
  8
0
100
AcDbLine
 10
103.3089886062433
 20
280.0814597416147
 30
0.0
 11
104.8089886062433
 21
283.8231171283887
 31
0.0
  0
LINE
  5
3A10
330
1F
100
AcDbEntity
  8
0
100
AcDbLine
 10
104.8089886062433
 20
283.8231171283887
 30
0.0
 11
106.3089886062433
 21
280.0814597416147
 31
0.0
  0
ARC
  5
3A11
330
1F
100
AcDbEntity
  8
0
100
AcDbCircle
 10
109.8089886062433
 20
283.8231171283887
 30
0.0
 40
7.499999999999924
100
AcDbArc
 50
180.0
 51
209.9264348666075
  0
LINE
  5
3A12
330
1F
100
AcDbEntity
  8
0
100
AcDbLine
 10
106.3089886062433
 20
278.8231171283887
 30
0.0
 11
106.3089886062433
 21
288.8231171283887
 31
0.0
  0
ARC
  5
3A13
330
1F
100
AcDbEntity
  8
0
100
AcDbCircle
 10
101.3089886062433
 20
273.8231171283887
 30
0.0
 40
1.0
100
AcDbArc
 50
270.0
 51
0.0
  0
LINE
  5
3A14
102
{ACAD_REACTORS
330
3AEC
102
}
330
1F
100
AcDbEntity
  8
0
100
AcDbLine
 10
101.3089886062433
 20
272.8231171283887
 30
0.0
 11
99.30898860624337
 21
272.8231171283887
 31
0.0
  0
LINE
  5
3A15
102
{ACAD_REACTORS
330
3AEF
102
}
330
1F
100
AcDbEntity
  8
0
100
AcDbLine
 10
106.3089886062433
 20
280.0814597416147
 30
0.0
 11
103.3089886062433
 21
280.0814597416147
 31
0.0
  0
ARC
  5
3A16
330
1F
100
AcDbEntity
  8
0
100
AcDbCircle
 10
101.3089886062433
 20
293.8231171283888
 30
0.0
 40
1.0
100
AcDbArc
 50
0.0
 51
90.0
  0
LINE
  5
3A17
102
{ACAD_REACTORS
330
3AEC
102
}
330
1F
100
AcDbEntity
  8
0
100
AcDbLine
 10
101.3089886062433
 20
294.8231171283887
 30
0.0
 11
99.30898860624337
 21
294.8231171283887
 31
0.0
  0
LINE
  5
3A18
102
{ACAD_REACTORS
330
3ADA
102
}
330
1F
100
AcDbEntity
  8
0
100
AcDbLine
 10
102.3089886062433
 20
283.8231171283887
 30
0.0
 11
102.3089886062433
 21
293.8231171283888
 31
0.0
  0
ARC
  5
3A19
330
1F
100
AcDbEntity
  8
0
100
AcDbCircle
 10
109.8089886062433
 20
283.8231171283887
 30
0.0
 40
7.499999999999924
100
AcDbArc
 50
150.0735651333925
 51
180.0
  0
LINE
  5
3A1A
330
1F
100
AcDbEntity
  8
0
100
AcDbLine
 10
104.8089886062433
 20
283.8231171283887
 30
0.0
 11
106.3089886062433
 21
287.5647745151626
 31
0.0
  0
LINE
  5
3A1B
330
1F
100
AcDbEntity
  8
0
100
AcDbLine
 10
103.3089886062433
 20
287.5647745151626
 30
0.0
 11
104.8089886062433
 21
283.8231171283887
 31
0.0
  0
LINE
  5
3A1C
330
1F
100
AcDbEntity
  8
0
100
AcDbLine
 10
103.3089886062433
 20
287.5647745151626
 30
0.0
 11
103.3089886062433
 21
283.8231171283887
 31
0.0
  0
LINE
  5
3A1D
330
1F
100
AcDbEntity
  8
0
100
AcDbLine
 10
106.3089886062433
 20
287.5647745151626
 30
0.0
 11
103.3089886062433
 21
287.5647745151626
 31
0.0
  0
LINE
  5
3A1E
102
{ACAD_REACTORS
330
3AEF
102
}
330
1F
100
AcDbEntity
  8
0
100
AcDbLine
 10
106.3089886062433
 20
278.8231171283887
 30
0.0
 11
103.3089886062433
 21
278.8231171283887
 31
0.0
  0
LINE
  5
3A1F
102
{ACAD_REACTORS
330
3AE9
102
}
330
1F
100
AcDbEntity
  8
0
100
AcDbLine
 10
103.3089886062433
 20
278.8231171283887
 30
0.0
 11
102.3089886062433
 21
277.8231171283887
 31
0.0
  0
LINE
  5
3A20
102
{ACAD_REACTORS
330
3AE9
102
}
330
1F
100
AcDbEntity
  8
0
100
AcDbLine
 10
103.3089886062433
 20
288.8231171283887
 30
0.0
 11
102.3089886062433
 21
289.8231171283887
 31
0.0
  0
LINE
  5
3A21
102
{ACAD_REACTORS
330
3AD7
330
3AE6
102
}
330
1F
100
AcDbEntity
  8
0
100
AcDbLine
 10
106.3089886062433
 20
288.8231171283887
 30
0.0
 11
103.3089886062433
 21
288.8231171283887
 31
0.0
  0
LINE
  5
3A22
330
1F
100
AcDbEntity
  8
0
100
AcDbLine
 10
104.8089886062433
 20
278.8231171283887
 30
0.0
 11
104.8089886062433
 21
280.0814597416147
 31
0.0
  0
LINE
  5
3A23
330
1F
100
AcDbEntity
  8
0
100
AcDbLine
 10
104.8089886062433
 20
287.5647745151626
 30
0.0
 11
104.8089886062433
 21
288.8231171283887
 31
0.0
  0
LINE
  5
3A24
330
1F
100
AcDbEntity
  8
CENTER
100
AcDbLine
 10
109.2715564832086
 20
283.8231171283887
 30
0.0
 11
66.85418180148428
 21
283.8231171283887
 31
0.0
  0
ARC
  5
3A25
330
1F
100
AcDbEntity
  8
0
 62
     3
100
AcDbCircle
 10
208.3861181759036
 20
399.9671583209397
 30
0.0
 40
3.05
100
AcDbArc
 50
253.8051719534527
 51
192.3546205970284
  0
CIRCLE
  5
3A26
330
1F
100
AcDbEntity
  8
0
100
AcDbCircle
 10
208.3861181759036
 20
399.9671583209397
 30
0.0
 40
2.55
  0
CIRCLE
  5
3A27
330
1F
100
AcDbEntity
  8
0
100
AcDbCircle
 10
208.3861181759036
 20
399.9671583209397
 30
0.0
 40
4.5
  0
ARC
  5
3A28
330
1F
100
AcDbEntity
  8
0
 62
     3
100
AcDbCircle
 10
208.3861181759036
 20
433.9671583209397
 30
0.0
 40
3.05
100
AcDbArc
 50
253.8051719534527
 51
192.3546205970284
  0
CIRCLE
  5
3A29
330
1F
100
AcDbEntity
  8
0
100
AcDbCircle
 10
208.3861181759036
 20
433.9671583209397
 30
0.0
 40
2.55
  0
CIRCLE
  5
3A2A
330
1F
100
AcDbEntity
  8
0
100
AcDbCircle
 10
208.3861181759036
 20
433.9671583209397
 30
0.0
 40
4.5
  0
ARC
  5
3A2B
330
1F
100
AcDbEntity
  8
0
 62
     3
100
AcDbCircle
 10
174.3861181759035
 20
433.9671583209397
 30
0.0
 40
3.05
100
AcDbArc
 50
253.8051719534527
 51
192.3546205970284
  0
CIRCLE
  5
3A2C
330
1F
100
AcDbEntity
  8
0
100
AcDbCircle
 10
174.3861181759035
 20
433.9671583209397
 30
0.0
 40
2.55
  0
CIRCLE
  5
3A2D
330
1F
100
AcDbEntity
  8
0
100
AcDbCircle
 10
174.3861181759035
 20
433.9671583209397
 30
0.0
 40
4.5
  0
ARC
  5
3A2E
330
1F
100
AcDbEntity
  8
0
100
AcDbCircle
 10
190.7879537113509
 20
283.8231171283887
 30
0.0
 40
14.89838549086941
100
AcDbArc
 50
226.5092604653625
 51
133.4907395346375
  0
CIRCLE
  5
3A2F
330
1F
100
AcDbEntity
  8
0
100
AcDbCircle
 10
191.7242423248445
 20
283.8231171283886
 30
0.0
 40
17.0
  0
LINE
  5
3A30
330
1F
100
AcDbEntity
  8
0
100
AcDbLine
 10
192.8242423248445
 20
302.8231171283885
 30
0.0
 11
201.8242423248445
 21
302.8231171283884
 31
0.0
  0
LINE
  5
3A31
330
1F
100
AcDbEntity
  8
0
100
AcDbLine
 10
192.8242423248445
 20
264.8231171283888
 30
0.0
 11
201.8242423248445
 21
264.8231171283888
 31
0.0
  0
LINE
  5
3A32
330
1F
100
AcDbEntity
  8
CENTER
100
AcDbLine
 10
215.4128469907331
 20
283.8231171283887
 30
0.0
 11
163.2956880704158
 21
283.8231171283887
 31
0.0
  0
LINE
  5
3A33
330
1F
100
AcDbEntity
  8
CENTER
100
AcDbLine
 10
214.664658092248
 20
300.8231171283887
 30
0.0
 11
202.7838265574411
 21
300.8231171283887
 31
0.0
  0
LINE
  5
3A34
330
1F
100
AcDbEntity
  8
CENTER
100
AcDbLine
 10
180.664658092248
 20
300.8231171283887
 30
0.0
 11
168.7838265574411
 21
300.8231171283887
 31
0.0
  0
LINE
  5
3A35
330
1F
100
AcDbEntity
  8
CENTER
100
AcDbLine
 10
214.664658092248
 20
266.8231171283887
 30
0.0
 11
202.7838265574411
 21
266.8231171283887
 31
0.0
  0
LINE
  5
3A36
330
1F
100
AcDbEntity
  8
CENTER
100
AcDbLine
 10
180.664658092248
 20
266.8231171283887
 30
0.0
 11
168.7838265574411
 21
266.8231171283887
 31
0.0
  0
LINE
  5
3A37
330
1F
100
AcDbEntity
  8
0
100
AcDbLine
 10
213.7242423248446
 20
303.4763611354223
 30
0.0
 11
213.7242423248446
 21
292.2231171283886
 31
0.0
  0
LINE
  5
3A38
330
1F
100
AcDbEntity
  8
0
100
AcDbLine
 10
213.7242423248446
 20
275.4231171283887
 30
0.0
 11
213.7242423248446
 21
264.0413778190197
 31
0.0
  0
LINE
  5
3A39
330
1F
100
AcDbEntity
  8
0
100
AcDbLine
 10
211.3774863318782
 20
261.8231171283887
 30
0.0
 11
200.1242423248444
 21
261.8231171283887
 31
0.0
  0
LINE
  5
3A3A
330
1F
100
AcDbEntity
  8
0
100
AcDbLine
 10
213.7242423248446
 20
264.0413778190197
 30
0.0
 11
211.3774863318782
 21
261.8231171283887
 31
0.0
  0
LINE
  5
3A3B
330
1F
100
AcDbEntity
  8
0
100
AcDbLine
 10
200.1242423248444
 20
263.5231171283886
 30
0.0
 11
201.8242423248445
 21
263.5231171283886
 31
0.0
  0
LINE
  5
3A3C
330
1F
100
AcDbEntity
  8
0
100
AcDbLine
 10
201.8242423248445
 20
264.8231171283888
 30
0.0
 11
201.8242423248445
 21
263.5231171283886
 31
0.0
  0
LINE
  5
3A3D
330
1F
100
AcDbEntity
  8
0
100
AcDbLine
 10
200.1242423248444
 20
263.5231171283886
 30
0.0
 11
200.1242423248444
 21
261.8231171283887
 31
0.0
  0
LINE
  5
3A3E
330
1F
100
AcDbEntity
  8
0
100
AcDbLine
 10
210.7242423248443
 20
282.7231171283887
 30
0.0
 11
210.7242423248443
 21
273.7231171283887
 31
0.0
  0
LINE
  5
3A3F
330
1F
100
AcDbEntity
  8
0
100
AcDbLine
 10
177.4394059119951
 20
287.1730176183667
 30
0.0
 11
175.7118710222554
 21
287.6359091969691
 31
0.0
  0
CIRCLE
  5
3A40
330
1F
100
AcDbEntity
  8
0
100
AcDbCircle
 10
178.1123354292618
 20
289.6844247667183
 30
0.0
 40
1.25
  0
LINE
  5
3A41
330
1F
100
AcDbEntity
  8
0
100
AcDbLine
 10
212.0242423248445
 20
275.4231171283887
 30
0.0
 11
212.0242423248445
 21
273.7231171283887
 31
0.0
  0
LINE
  5
3A42
330
1F
100
AcDbEntity
  8
0
100
AcDbLine
 10
210.7242423248443
 20
273.7231171283887
 30
0.0
 11
212.0242423248445
 21
273.7231171283887
 31
0.0
  0
LINE
  5
3A43
330
1F
100
AcDbEntity
  8
0
100
AcDbLine
 10
212.0242423248445
 20
275.4231171283887
 30
0.0
 11
213.7242423248446
 21
275.4231171283887
 31
0.0
  0
ARC
  5
3A44
330
1F
100
AcDbEntity
  8
0
100
AcDbCircle
 10
175.9706900673578
 20
288.6018350232582
 30
0.0
 40
1.0
100
AcDbArc
 50
222.0604018761107
 51
255.0000000000056
  0
ARC
  5
3A45
330
1F
100
AcDbEntity
  8
0
100
AcDbCircle
 10
182.3191241038827
 20
292.7410452938825
 30
0.0
 40
2.6
100
AcDbArc
 50
133.3505184042806
 51
216.0018688272135
  0
ARC
  5
3A46
330
1F
100
AcDbEntity
  8
0
100
AcDbCircle
 10
178.1123354292618
 20
289.6844247667183
 30
0.0
 40
2.6
100
AcDbArc
 50
335.4368720697919
 51
36.00186882721347
  0
ARC
  5
3A47
330
1F
100
AcDbEntity
  8
0
100
AcDbCircle
 10
190.9363392022206
 20
283.8231171283887
 30
0.0
 40
13.05
100
AcDbArc
 50
155.4368720697919
 51
155.4368720697919
  0
ARC
  5
3A48
330
1F
100
AcDbEntity
  8
0
100
AcDbCircle
 10
178.1123354292618
 20
289.6844247667183
 30
0.0
 40
2.6
100
AcDbArc
 50
255.0000000000056
 51
335.4368720697919
  0
CIRCLE
  5
3A49
330
1F
100
AcDbEntity
  8
0
100
AcDbCircle
 10
178.1123354292618
 20
277.9618094900593
 30
0.0
 40
1.25
  0
LINE
  5
3A4A
330
1F
100
AcDbEntity
  8
0
100
AcDbLine
 10
177.4394059119951
 20
280.4732166384109
 30
0.0
 11
175.7118710222554
 21
280.0103250598085
 31
0.0
  0
LINE
  5
3A4B
330
1F
100
AcDbEntity
  8
0
100
AcDbLine
 10
210.7242423248443
 20
284.9231171283885
 30
0.0
 11
210.7242423248443
 21
293.9231171283885
 31
0.0
  0
LINE
  5
3A4C
330
1F
100
AcDbEntity
  8
0
100
AcDbLine
 10
210.7242423248443
 20
282.7231171283887
 30
0.0
 11
213.7242423248446
 21
282.7231171283887
 31
0.0
  0
LINE
  5
3A4D
330
1F
100
AcDbEntity
  8
0
100
AcDbLine
 10
210.7242423248443
 20
284.9231171283885
 30
0.0
 11
213.7242423248446
 21
284.9231171283885
 31
0.0
  0
LINE
  5
3A4E
330
1F
100
AcDbEntity
  8
0
100
AcDbLine
 10
213.7242423248446
 20
284.9231171283885
 30
0.0
 11
213.7242423248446
 21
282.7231171283887
 31
0.0
  0
ARC
  5
3A4F
330
1F
100
AcDbEntity
  8
0
100
AcDbCircle
 10
175.9706900673578
 20
279.0443992335194
 30
0.0
 40
1.0
100
AcDbArc
 50
104.9999999999944
 51
137.9395981238927
  0
LINE
  5
3A50
330
1F
100
AcDbEntity
  8
0
100
AcDbLine
 10
210.7242423248443
 20
293.9231171283885
 30
0.0
 11
212.0242423248445
 21
293.9231171283885
 31
0.0
  0
LINE
  5
3A51
330
1F
100
AcDbEntity
  8
0
100
AcDbLine
 10
212.0242423248445
 20
292.2231171283886
 30
0.0
 11
212.0242423248445
 21
293.9231171283885
 31
0.0
  0
LINE
  5
3A52
330
1F
100
AcDbEntity
  8
0
100
AcDbLine
 10
212.0242423248445
 20
292.2231171283886
 30
0.0
 11
213.7242423248446
 21
292.2231171283886
 31
0.0
  0
ARC
  5
3A53
330
1F
100
AcDbEntity
  8
0
100
AcDbCircle
 10
178.1123354292618
 20
277.9618094900593
 30
0.0
 40
2.6
100
AcDbArc
 50
323.9981311727865
 51
24.56312793020811
  0
ARC
  5
3A54
330
1F
100
AcDbEntity
  8
0
100
AcDbCircle
 10
178.1123354292618
 20
277.9618094900593
 30
0.0
 40
2.6
100
AcDbArc
 50
24.56312793020811
 51
104.9999999999944
  0
ARC
  5
3A55
330
1F
100
AcDbEntity
  8
0
100
AcDbCircle
 10
182.3191241038827
 20
274.905188962895
 30
0.0
 40
2.6
100
AcDbArc
 50
143.9981311727865
 51
226.6494815957191
  0
LINE
  5
3A56
330
1F
100
AcDbEntity
  8
0
100
AcDbLine
 10
211.3774863318782
 20
305.8231171283887
 30
0.0
 11
200.1242423248446
 21
305.8231171283887
 31
0.0
  0
ARC
  5
3A57
330
1F
100
AcDbEntity
  8
0
100
AcDbCircle
 10
191.7242423248445
 20
283.8231171283887
 30
0.0
 40
29.5
100
AcDbArc
 50
41.77534800972374
 51
48.22465199027448
  0
LINE
  5
3A58
330
1F
100
AcDbEntity
  8
0
100
AcDbLine
 10
200.1242423248446
 20
304.1231171283886
 30
0.0
 11
201.8242423248445
 21
304.1231171283886
 31
0.0
  0
LINE
  5
3A59
330
1F
100
AcDbEntity
  8
0
100
AcDbLine
 10
201.8242423248445
 20
302.8231171283884
 30
0.0
 11
201.8242423248445
 21
304.1231171283886
 31
0.0
  0
LINE
  5
3A5A
330
1F
100
AcDbEntity
  8
0
100
AcDbLine
 10
200.1242423248446
 20
304.1231171283886
 30
0.0
 11
200.1242423248446
 21
305.8231171283887
 31
0.0
  0
LINE
  5
3A5B
330
1F
100
AcDbEntity
  8
CENTER
100
AcDbLine
 10
191.7242423248445
 20
307.9977877428537
 30
0.0
 11
191.7242423248445
 21
260.8455565309377
 31
0.0
  0
LINE
  5
3A5C
330
1F
100
AcDbEntity
  8
CENTER
100
AcDbLine
 10
208.7242423248446
 20
306.7635328957922
 30
0.0
 11
208.7242423248446
 21
294.8827013609853
 31
0.0
  0
LINE
  5
3A5D
330
1F
100
AcDbEntity
  8
CENTER
100
AcDbLine
 10
208.7242423248446
 20
272.7635328957922
 30
0.0
 11
208.7242423248446
 21
260.8455565309377
 31
0.0
  0
LINE
  5
3A5E
330
1F
100
AcDbEntity
  8
CENTER
100
AcDbLine
 10
174.7242423248446
 20
306.7635328957922
 30
0.0
 11
174.7242423248446
 21
294.8827013609853
 31
0.0
  0
LINE
  5
3A5F
330
1F
100
AcDbEntity
  8
CENTER
100
AcDbLine
 10
174.7242423248446
 20
272.7635328957922
 30
0.0
 11
174.7242423248446
 21
260.8455565309377
 31
0.0
  0
LINE
  5
3A60
330
1F
100
AcDbEntity
  8
0
100
AcDbLine
 10
169.7242423248446
 20
303.6048564377577
 30
0.0
 11
169.7242423248446
 21
295.5231171283888
 31
0.0
  0
ARC
  5
3A61
330
1F
100
AcDbEntity
  8
0
 62
     3
100
AcDbCircle
 10
174.7242423248446
 20
266.8231171283887
 30
0.0
 40
3.05
100
AcDbArc
 50
253.8051719534527
 51
192.3546205970284
  0
CIRCLE
  5
3A62
330
1F
100
AcDbEntity
  8
0
100
AcDbCircle
 10
174.7242423248446
 20
266.8231171283887
 30
0.0
 40
2.55
  0
LINE
  5
3A63
330
1F
100
AcDbEntity
  8
0
100
AcDbLine
 10
169.7242423248446
 20
272.1231171283887
 30
0.0
 11
169.7242423248446
 21
264.1698731213551
 31
0.0
  0
LINE
  5
3A64
330
1F
100
AcDbEntity
  8
0
100
AcDbLine
 10
183.3242423248444
 20
261.8231171283887
 30
0.0
 11
172.0709983178109
 21
261.8231171283887
 31
0.0
  0
LINE
  5
3A65
330
1F
100
AcDbEntity
  8
0
100
AcDbLine
 10
190.6242423248446
 20
264.8231171283888
 30
0.0
 11
181.6242423248446
 21
264.8231171283888
 31
0.0
  0
LINE
  5
3A66
330
1F
100
AcDbEntity
  8
0
100
AcDbLine
 10
192.8242423248445
 20
264.8231171283888
 30
0.0
 11
192.8242423248445
 21
261.8231171283887
 31
0.0
  0
LINE
  5
3A67
330
1F
100
AcDbEntity
  8
0
100
AcDbLine
 10
190.6242423248446
 20
264.8231171283888
 30
0.0
 11
190.6242423248446
 21
261.8231171283887
 31
0.0
  0
LINE
  5
3A68
330
1F
100
AcDbEntity
  8
0
100
AcDbLine
 10
192.8242423248445
 20
261.8231171283887
 30
0.0
 11
190.6242423248446
 21
261.8231171283887
 31
0.0
  0
LINE
  5
3A69
330
1F
100
AcDbEntity
  8
0
100
AcDbLine
 10
183.3242423248444
 20
263.5231171283886
 30
0.0
 11
183.3242423248444
 21
261.8231171283887
 31
0.0
  0
LINE
  5
3A6A
330
1F
100
AcDbEntity
  8
0
100
AcDbLine
 10
181.6242423248446
 20
264.8231171283888
 30
0.0
 11
181.6242423248446
 21
263.5231171283886
 31
0.0
  0
LINE
  5
3A6B
330
1F
100
AcDbEntity
  8
0
100
AcDbLine
 10
183.3242423248444
 20
263.5231171283886
 30
0.0
 11
181.6242423248446
 21
263.5231171283886
 31
0.0
  0
ARC
  5
3A6C
330
1F
100
AcDbEntity
  8
0
100
AcDbCircle
 10
191.7242423248445
 20
283.8231171283887
 30
0.0
 40
29.5
100
AcDbArc
 50
221.7753480097237
 51
228.2246519902745
  0
LINE
  5
3A6D
330
1F
100
AcDbEntity
  8
0
100
AcDbLine
 10
173.3242423248445
 20
291.6731171283887
 30
0.0
 11
171.2242423248445
 21
291.6731171283887
 31
0.0
  0
LINE
  5
3A6E
330
1F
100
AcDbEntity
  8
0
100
AcDbLine
 10
171.2242423248445
 20
295.9731171283887
 30
0.0
 11
173.3242423248445
 21
295.9731171283887
 31
0.0
  0
LINE
  5
3A6F
330
1F
100
AcDbEntity
  8
0
100
AcDbLine
 10
171.2242423248445
 20
271.6731171283886
 30
0.0
 11
173.3242423248445
 21
271.6731171283886
 31
0.0
  0
LINE
  5
3A70
330
1F
100
AcDbEntity
  8
0
100
AcDbLine
 10
173.3242423248445
 20
275.9731171283887
 30
0.0
 11
171.2242423248445
 21
275.9731171283887
 31
0.0
  0
ARC
  5
3A71
330
1F
100
AcDbEntity
  8
0
100
AcDbCircle
 10
173.3242423248445
 20
274.2731171283887
 30
0.0
 40
1.7
100
AcDbArc
 50
0.0
 51
90.0
  0
ARC
  5
3A72
330
1F
100
AcDbEntity
  8
0
100
AcDbCircle
 10
173.3242423248445
 20
273.3731171283887
 30
0.0
 40
1.7
100
AcDbArc
 50
270.0
 51
0.0
  0
LINE
  5
3A73
330
1F
100
AcDbEntity
  8
0
100
AcDbLine
 10
175.0242423248445
 20
273.3731171283887
 30
0.0
 11
175.0242423248445
 21
274.2731171283887
 31
0.0
  0
ARC
  5
3A74
330
1F
100
AcDbEntity
  8
0
100
AcDbCircle
 10
173.3242423248445
 20
294.2731171283888
 30
0.0
 40
1.7
100
AcDbArc
 50
0.0
 51
90.0
  0
ARC
  5
3A75
330
1F
100
AcDbEntity
  8
0
100
AcDbCircle
 10
173.3242423248445
 20
293.3731171283887
 30
0.0
 40
1.7
100
AcDbArc
 50
270.0
 51
0.0
  0
LINE
  5
3A76
330
1F
100
AcDbEntity
  8
0
100
AcDbLine
 10
175.0242423248445
 20
294.2731171283888
 30
0.0
 11
175.0242423248445
 21
293.3731171283887
 31
0.0
  0
LINE
  5
3A77
330
1F
100
AcDbEntity
  8
0
100
AcDbLine
 10
165.2242423248445
 20
290.6390905520755
 30
0.0
 11
165.2242423248445
 21
277.0071437047019
 31
0.0
  0
LINE
  5
3A78
330
1F
100
AcDbEntity
  8
0
100
AcDbLine
 10
169.7242423248446
 20
272.1231171283887
 30
0.0
 11
170.7242423248445
 21
272.1231171283887
 31
0.0
  0
LINE
  5
3A79
330
1F
100
AcDbEntity
  8
0
100
AcDbLine
 10
170.7242423248445
 20
272.1231171283887
 30
0.0
 11
171.2242423248445
 21
271.6731171283886
 31
0.0
  0
LINE
  5
3A7A
330
1F
100
AcDbEntity
  8
0
100
AcDbLine
 10
169.7242423248446
 20
276.3231171283887
 30
0.0
 11
165.4076332288738
 21
276.807834553053
 31
0.0
  0
LINE
  5
3A7B
330
1F
100
AcDbEntity
  8
0
100
AcDbLine
 10
170.7242423248445
 20
275.5231171283887
 30
0.0
 11
169.7242423248446
 21
275.5231171283887
 31
0.0
  0
LINE
  5
3A7C
330
1F
100
AcDbEntity
  8
0
100
AcDbLine
 10
170.7242423248445
 20
275.5231171283887
 30
0.0
 11
171.2242423248445
 21
275.9731171283887
 31
0.0
  0
LINE
  5
3A7D
330
1F
100
AcDbEntity
  8
0
100
AcDbLine
 10
169.7242423248446
 20
276.3231171283887
 30
0.0
 11
169.7242423248446
 21
275.5231171283887
 31
0.0
  0
ARC
  5
3A7E
330
1F
100
AcDbEntity
  8
0
100
AcDbCircle
 10
165.4242423248444
 20
277.0071437047019
 30
0.0
 40
0.2
100
AcDbArc
 50
180.0
 51
265.2363583092699
  0
LINE
  5
3A7F
330
1F
100
AcDbEntity
  8
0
100
AcDbLine
 10
169.7242423248446
 20
291.3231171283887
 30
0.0
 11
165.4076332288738
 21
290.8383997037244
 31
0.0
  0
LINE
  5
3A80
330
1F
100
AcDbEntity
  8
0
100
AcDbLine
 10
170.7242423248445
 20
292.1231171283887
 30
0.0
 11
169.7242423248446
 21
292.1231171283887
 31
0.0
  0
LINE
  5
3A81
330
1F
100
AcDbEntity
  8
0
100
AcDbLine
 10
170.7242423248445
 20
292.1231171283887
 30
0.0
 11
171.2242423248445
 21
291.6731171283887
 31
0.0
  0
LINE
  5
3A82
330
1F
100
AcDbEntity
  8
0
100
AcDbLine
 10
169.7242423248446
 20
292.1231171283887
 30
0.0
 11
169.7242423248446
 21
291.3231171283887
 31
0.0
  0
LINE
  5
3A83
330
1F
100
AcDbEntity
  8
0
100
AcDbLine
 10
169.7242423248446
 20
295.5231171283888
 30
0.0
 11
170.7242423248445
 21
295.5231171283888
 31
0.0
  0
LINE
  5
3A84
330
1F
100
AcDbEntity
  8
0
100
AcDbLine
 10
170.7242423248445
 20
295.5231171283888
 30
0.0
 11
171.2242423248445
 21
295.9731171283887
 31
0.0
  0
ARC
  5
3A85
330
1F
100
AcDbEntity
  8
0
100
AcDbCircle
 10
165.4242423248444
 20
290.6390905520755
 30
0.0
 40
0.2
100
AcDbArc
 50
94.76364169071706
 51
180.0
  0
LINE
  5
3A86
330
1F
100
AcDbEntity
  8
0
100
AcDbLine
 10
183.3242423248447
 20
305.8231171283887
 30
0.0
 11
172.0709983178111
 21
305.8231171283887
 31
0.0
  0
LINE
  5
3A87
330
1F
100
AcDbEntity
  8
0
100
AcDbLine
 10
190.6242423248446
 20
302.8231171283885
 30
0.0
 11
181.6242423248446
 21
302.8231171283885
 31
0.0
  0
LINE
  5
3A88
330
1F
100
AcDbEntity
  8
0
100
AcDbLine
 10
190.6242423248446
 20
305.8231171283886
 30
0.0
 11
192.8242423248445
 21
305.8231171283886
 31
0.0
  0
LINE
  5
3A89
330
1F
100
AcDbEntity
  8
0
100
AcDbLine
 10
192.8242423248445
 20
302.8231171283885
 30
0.0
 11
192.8242423248445
 21
305.8231171283886
 31
0.0
  0
LINE
  5
3A8A
330
1F
100
AcDbEntity
  8
0
100
AcDbLine
 10
190.6242423248446
 20
302.8231171283885
 30
0.0
 11
190.6242423248446
 21
305.8231171283886
 31
0.0
  0
LINE
  5
3A8B
330
1F
100
AcDbEntity
  8
0
100
AcDbLine
 10
181.6242423248446
 20
302.8231171283885
 30
0.0
 11
181.6242423248446
 21
304.1231171283887
 31
0.0
  0
LINE
  5
3A8C
330
1F
100
AcDbEntity
  8
0
100
AcDbLine
 10
183.3242423248447
 20
304.1231171283887
 30
0.0
 11
183.3242423248447
 21
305.8231171283887
 31
0.0
  0
LINE
  5
3A8D
330
1F
100
AcDbEntity
  8
0
100
AcDbLine
 10
183.3242423248447
 20
304.1231171283887
 30
0.0
 11
181.6242423248446
 21
304.1231171283887
 31
0.0
  0
LINE
  5
3A8E
330
1F
100
AcDbEntity
  8
0
100
AcDbLine
 10
169.7242423248446
 20
303.6048564377577
 30
0.0
 11
172.0709983178111
 21
305.8231171283887
 31
0.0
  0
CIRCLE
  5
3A8F
330
1F
100
AcDbEntity
  8
0
100
AcDbCircle
 10
191.7242423248445
 20
283.8231171283886
 30
0.0
 40
11.0
  0
CIRCLE
  5
3A90
330
1F
100
AcDbEntity
  8
0
100
AcDbCircle
 10
174.7242423248446
 20
266.8231171283887
 30
0.0
 40
4.5
  0
ARC
  5
3A91
330
1F
100
AcDbEntity
  8
0
 62
     3
100
AcDbCircle
 10
208.7242423248446
 20
266.8231171283887
 30
0.0
 40
3.05
100
AcDbArc
 50
253.8051719534527
 51
192.3546205970284
  0
CIRCLE
  5
3A92
330
1F
100
AcDbEntity
  8
0
100
AcDbCircle
 10
208.7242423248446
 20
266.8231171283887
 30
0.0
 40
2.55
  0
CIRCLE
  5
3A93
330
1F
100
AcDbEntity
  8
0
100
AcDbCircle
 10
208.7242423248446
 20
266.8231171283887
 30
0.0
 40
4.5
  0
ARC
  5
3A94
330
1F
100
AcDbEntity
  8
0
 62
     3
100
AcDbCircle
 10
208.7242423248446
 20
300.8231171283887
 30
0.0
 40
3.05
100
AcDbArc
 50
253.8051719534527
 51
192.3546205970284
  0
CIRCLE
  5
3A95
330
1F
100
AcDbEntity
  8
0
100
AcDbCircle
 10
208.7242423248446
 20
300.8231171283887
 30
0.0
 40
2.55
  0
CIRCLE
  5
3A96
330
1F
100
AcDbEntity
  8
0
100
AcDbCircle
 10
208.7242423248446
 20
300.8231171283887
 30
0.0
 40
4.5
  0
ARC
  5
3A97
330
1F
100
AcDbEntity
  8
0
 62
     3
100
AcDbCircle
 10
174.7242423248446
 20
300.8231171283887
 30
0.0
 40
3.05
100
AcDbArc
 50
253.8051719534527
 51
192.3546205970284
  0
CIRCLE
  5
3A98
330
1F
100
AcDbEntity
  8
0
100
AcDbCircle
 10
174.7242423248446
 20
300.8231171283887
 30
0.0
 40
2.55
  0
CIRCLE
  5
3A99
330
1F
100
AcDbEntity
  8
0
100
AcDbCircle
 10
174.7242423248446
 20
300.8231171283887
 30
0.0
 40
4.5
  0
DIMENSION
  5
3A9A
102
{ACAD_XDICTIONARY
360
3A9B
102
}
102
{ACAD_REACTORS
330
3A9C
102
}
330
1F
100
AcDbEntity
  8
DIM
100
AcDbDimension
  2
*D2
 10
119.8089886062433
 20
431.8787304709637
 30
0.0
 11
116.8089886062433
 21
433.8787304709637
 31
0.0
 70
    32
 71
     5
 42
6.0
  3
AM_ANSI
100
AcDbAlignedDimension
 13
113.8089886062433
 23
425.1257563405042
 33
0.0
 14
119.8089886062433
 24
425.1257563405044
 34
0.0
100
AcDbRotatedDimension
1001
ACAD
1000
DSTYLE
1002
{
1070
    41
1040
2.0
1070
    42
1040
1.5
1070
    43
1040
8.0
1070
    44
1040
1.5
1070
    73
1070
     0
1070
    74
1070
     0
1070
    77
1070
     3
1070
   140
1040
2.0
1070
   141
1040
3.0
1070
   146
1040
0.6
1070
   147
1040
1.0
1070
   172
1070
     1
1070
   178
1070
   256
1070
   272
1070
     8
1070
   274
1070
     2
1070
   340
1005
375C
1002
}
  0
DIMENSION
  5
3A9D
102
{ACAD_XDICTIONARY
360
3A9E
102
}
102
{ACAD_REACTORS
330
3A9F
102
}
330
1F
100
AcDbEntity
  8
DIM
100
AcDbDimension
  2
*D3
 10
124.3089886062433
 20
437.243749413617
 30
0.0
 11
116.8089886062433
 21
439.243749413617
 31
0.0
 70
    32
 71
     5
 42
15.0
  3
AM_ANSI
100
AcDbAlignedDimension
 13
109.3089886062433
 23
421.9671583209397
 33
0.0
 14
124.3089886062433
 24
420.9671583209397
 34
0.0
100
AcDbRotatedDimension
1001
ACAD
1000
DSTYLE
1002
{
1070
    41
1040
2.0
1070
    42
1040
1.5
1070
    43
1040
8.0
1070
    44
1040
1.5
1070
    73
1070
     0
1070
    74
1070
     0
1070
    77
1070
     3
1070
   140
1040
2.0
1070
   141
1040
3.0
1070
   146
1040
0.6
1070
   147
1040
1.0
1070
   172
1070
     1
1070
   178
1070
   256
1070
   272
1070
     8
1070
   274
1070
     2
1070
   340
1005
375C
1002
}
  0
DIMENSION
  5
3AA0
102
{ACAD_XDICTIONARY
360
3AA1
102
}
102
{ACAD_REACTORS
330
3AA2
102
}
330
1F
100
AcDbEntity
  8
DIM
100
AcDbDimension
  2
*D4
 10
124.3089886062433
 20
442.6990109825323
 30
0.0
 11
115.3089886062433
 21
444.6990109825324
 31
0.0
 70
    32
 71
     5
 42
18.0
  3
AM_ANSI
100
AcDbAlignedDimension
 13
106.3089886062433
 23
421.9671583209398
 33
0.0
 14
124.3089886062433
 24
420.9671583209397
 34
0.0
100
AcDbRotatedDimension
1001
ACAD
1000
DSTYLE
1002
{
1070
    41
1040
2.0
1070
    42
1040
1.5
1070
    43
1040
8.0
1070
    44
1040
1.5
1070
    73
1070
     0
1070
    74
1070
     0
1070
    77
1070
     3
1070
   140
1040
2.0
1070
   141
1040
3.0
1070
   146
1040
0.6
1070
   147
1040
1.0
1070
   172
1070
     1
1070
   178
1070
   256
1070
   272
1070
     8
1070
   274
1070
     2
1070
   340
1005
375C
1002
}
  0
DIMENSION
  5
3AA3
102
{ACAD_XDICTIONARY
360
3AA4
102
}
102
{ACAD_REACTORS
330
3AA5
102
}
330
1F
100
AcDbEntity
  8
DIM
100
AcDbDimension
  2
*D5
 10
124.3089886062433
 20
451.1167877835731
 30
0.0
 11
111.8089886062433
 21
453.1167877835732
 31
0.0
 70
    32
 71
     5
 42
25.0
  3
AM_ANSI
100
AcDbAlignedDimension
 13
99.30898860624337
 23
438.9671583209397
 33
0.0
 14
124.3089886062433
 24
420.9671583209397
 34
0.0
100
AcDbRotatedDimension
1001
ACAD
1000
DSTYLE
1002
{
1070
    41
1040
2.0
1070
    42
1040
1.5
1070
    43
1040
8.0
1070
    44
1040
1.5
1070
    73
1070
     0
1070
    74
1070
     0
1070
    77
1070
     3
1070
   140
1040
2.0
1070
   141
1040
3.0
1070
   146
1040
0.6
1070
   147
1040
1.0
1070
   172
1070
     1
1070
   178
1070
   256
1070
   272
1070
     8
1070
   274
1070
     2
1070
   340
1005
375C
1002
}
  0
DIMENSION
  5
3AA6
102
{ACAD_XDICTIONARY
360
3AA7
102
}
102
{ACAD_REACTORS
330
3AA8
102
}
330
1F
100
AcDbEntity
  8
DIM
100
AcDbDimension
  2
*D6
 10
99.30898860624337
 20
451.1167877835731
 30
0.0
 11
84.55898860624335
 21
453.1167877835732
 31
0.0
 70
    32
  1
24.5+stroke=S
 71
     5
 42
29.5
  3
AM_ANSI
100
AcDbAlignedDimension
 13
69.80898860624336
 23
438.9671583209397
 33
0.0
 14
99.30898860624337
 24
438.9671583209397
 34
0.0
100
AcDbRotatedDimension
1001
ACAD
1000
DSTYLE
1002
{
1070
    41
1040
2.0
1070
    42
1040
1.5
1070
    43
1040
8.0
1070
    44
1040
1.5
1070
    73
1070
     0
1070
    74
1070
     0
1070
    77
1070
     3
1070
   140
1040
2.0
1070
   141
1040
3.0
1070
   146
1040
0.6
1070
   147
1040
1.0
1070
   172
1070
     1
1070
   178
1070
   256
1070
   272
1070
     8
1070
   274
1070
     2
1070
   340
1005
375C
1002
}
  0
DIMENSION
  5
3AA9
102
{ACAD_XDICTIONARY
360
3AAA
102
}
102
{ACAD_REACTORS
330
3AAB
102
}
330
1F
100
AcDbEntity
  8
DIM
100
AcDbDimension
  2
*D7
 10
78.80898860624336
 20
444.8555112352018
 30
0.0
 11
74.30898860624336
 21
446.8555112352017
 31
0.0
 70
    32
 71
     5
 42
9.0
  3
AM_ANSI
100
AcDbAlignedDimension
 13
69.80898860624336
 23
438.9671583209397
 33
0.0
 14
78.80898860624336
 24
421.7918969902394
 34
0.0
100
AcDbRotatedDimension
1001
ACAD
1000
DSTYLE
1002
{
1070
    41
1040
2.0
1070
    42
1040
1.5
1070
    43
1040
8.0
1070
    44
1040
1.5
1070
    73
1070
     0
1070
    74
1070
     0
1070
    77
1070
     3
1070
   140
1040
2.0
1070
   141
1040
3.0
1070
   146
1040
0.6
1070
   147
1040
1.0
1070
   172
1070
     1
1070
   178
1070
   256
1070
   272
1070
     8
1070
   274
1070
     2
1070
   340
1005
375C
1002
}
  0
DIMENSION
  5
3AAC
102
{ACAD_XDICTIONARY
360
3AAD
102
}
102
{ACAD_REACTORS
330
3AAE
102
}
330
1F
100
AcDbEntity
  8
DIM
100
AcDbDimension
  2
*D8
 10
99.30898860624337
 20
444.8555112352018
 30
0.0
 11
94.80898860624336
 21
446.8555112352017
 31
0.0
 70
    32
 71
     5
 42
9.0
  3
AM_ANSI
100
AcDbAlignedDimension
 13
90.30898860624336
 23
421.8405771267765
 33
0.0
 14
99.30898860624337
 24
438.9671583209397
 34
0.0
100
AcDbRotatedDimension
1001
ACAD
1000
DSTYLE
1002
{
1070
    41
1040
2.0
1070
    42
1040
1.5
1070
    43
1040
8.0
1070
    44
1040
1.5
1070
    73
1070
     0
1070
    74
1070
     0
1070
    77
1070
     3
1070
   140
1040
2.0
1070
   141
1040
3.0
1070
   146
1040
0.6
1070
   147
1040
1.0
1070
   172
1070
     1
1070
   178
1070
   256
1070
   272
1070
     8
1070
   274
1070
     2
1070
   340
1005
375C
1002
}
  0
DIMENSION
  5
3AAF
102
{ACAD_XDICTIONARY
360
3AB0
102
}
102
{ACAD_REACTORS
330
3AB1
102
}
330
1F
100
AcDbEntity
  8
DIM
100
AcDbDimension
  2
*D9
 10
102.3089886062433
 20
444.8555112352018
 30
0.0
 11
100.8089886062433
 21
444.8555112352018
 31
0.0
 70
   160
 71
     5
 42
3.0
  3
AM_ANSI
100
AcDbAlignedDimension
 13
99.30898860624337
 23
438.9671583209397
 33
0.0
 14
102.3089886062433
 24
426.9671583209396
 34
0.0
100
AcDbRotatedDimension
1001
ACAD
1000
DSTYLE
1002
{
1070
    41
1040
2.0
1070
    42
1040
1.5
1070
    43
1040
8.0
1070
    44
1040
1.5
1070
    73
1070
     0
1070
    74
1070
     0
1070
    77
1070
     3
1070
   140
1040
2.0
1070
   141
1040
3.0
1070
   146
1040
0.6
1070
   147
1040
1.0
1070
   172
1070
     1
1070
   178
1070
   256
1070
   272
1070
     8
1070
   274
1070
     2
1070
   340
1005
375C
1002
}
  0
DIMENSION
  5
3AB2
102
{ACAD_XDICTIONARY
360
3AB3
102
}
102
{ACAD_REACTORS
330
3AB4
102
}
330
1F
100
AcDbEntity
  8
DIM
100
AcDbDimension
  2
*D10
 10
124.3089886062433
 20
457.7201264383541
 30
0.0
 11
97.05898860624337
 21
459.7201264383541
 31
0.0
 70
    32
  1
49.5+stroke=ZZ
 71
     5
 42
54.5
  3
AM_ANSI
100
AcDbAlignedDimension
 13
69.80898860624336
 23
438.9671583209397
 33
0.0
 14
124.3089886062433
 24
420.9671583209397
 34
0.0
100
AcDbRotatedDimension
1001
ACAD
1000
DSTYLE
1002
{
1070
    41
1040
2.0
1070
    42
1040
1.5
1070
    43
1040
8.0
1070
    44
1040
1.5
1070
    73
1070
     0
1070
    74
1070
     0
1070
    77
1070
     3
1070
   140
1040
2.0
1070
   141
1040
3.0
1070
   146
1040
0.6
1070
   147
1040
1.0
1070
   172
1070
     1
1070
   178
1070
   256
1070
   272
1070
     8
1070
   274
1070
     2
1070
   340
1005
375C
1002
}
  0
DIMENSION
  5
3AB5
102
{ACAD_XDICTIONARY
360
3AB6
102
}
102
{ACAD_REACTORS
330
3AB7
102
}
330
1F
100
AcDbEntity
  8
DIM
100
AcDbDimension
  2
*D11
 10
133.23897880386
 20
422.9671583209397
 30
0.0
 11
131.23897880386
 21
416.9671583209395
 31
0.0
 70
    32
  1
%%c<>
 71
     5
 42
12.00000000000045
  3
AM_ANSI
100
AcDbAlignedDimension
 13
102.3089886062433
 23
410.9671583209393
 33
0.0
 14
102.3089886062438
 24
422.9671583209397
 34
0.0
 50
90.0
100
AcDbRotatedDimension
1001
ACAD
1000
DSTYLE
1002
{
1070
    41
1040
2.0
1070
    42
1040
1.5
1070
    43
1040
8.0
1070
    44
1040
1.5
1070
    73
1070
     0
1070
    74
1070
     0
1070
    77
1070
     3
1070
   140
1040
2.0
1070
   141
1040
3.0
1070
   146
1040
0.6
1070
   147
1040
1.0
1070
   172
1070
     1
1070
   178
1070
   256
1070
   272
1070
     8
1070
   274
1070
     2
1070
   340
1005
375C
1002
}
  0
DIMENSION
  5
3AB8
102
{ACAD_XDICTIONARY
360
3AB9
102
}
102
{ACAD_REACTORS
330
3ABA
102
}
330
1F
100
AcDbEntity
  8
DIM
100
AcDbDimension
  2
*D12
 10
140.6240264087697
 20
427.9671583209396
 30
0.0
 11
137.967359742103
 21
416.9671583209397
 31
0.0
 70
    32
  1
%%c<>{}{\H0.71x;\C3;\S 0^ -0.05;}
 71
     5
 42
22.0
  3
AM_ANSI
100
AcDbAlignedDimension
 13
101.3089886062433
 23
405.9671583209397
 33
0.0
 14
101.3089886062433
 24
427.9671583209396
 34
0.0
 50
90.0
100
AcDbRotatedDimension
1001
GENIUS_GENDTOL_13
1000
TolSmNrm
1000

1000
{\H0.71x;$2\S$+$P^ $-$M;}
1040
22.0
1001
ACAD
1000
DSTYLE
1002
{
1070
   286
1070
     0
1070
   284
1070
     8
1070
    41
1040
2.0
1070
    42
1040
1.5
1070
    43
1040
8.0
1070
    44
1040
1.5
1070
    47
1040
0.0
1070
    48
1040
0.05
1070
    73
1070
     0
1070
    74
1070
     0
1070
    77
1070
     3
1070
   140
1040
2.0
1070
   141
1040
3.0
1070
   146
1040
0.6
1070
   147
1040
1.0
1070
   172
1070
     1
1070
   178
1070
   256
1070
   272
1070
     8
1070
   274
1070
     2
1070
   340
1005
375C
1002
}
  0
LEADER
  5
3ABB
330
1F
100
AcDbEntity
  8
DIM
100
AcDbLeader
  3
AM_ANSI$7
 73
     0
 74
     0
 75
     1
 40
2.0
 41
12.95238095238095
 76
     3
 10
121.5589886062433
 20
411.9671583209396
 30
0.0
 10
130.4914359471345
 20
397.7829271181692
 30
0.0
 10
132.4914359471345
 20
397.7829271181692
 30
0.0
340
3ABC
213
0.8150760156128171
223
0.3869799573012926
233
0.0
1001
ACAD
1000
DSTYLE
1002
{
1070
    41
1040
2.0
1070
    42
1040
1.5
1070
    43
1040
8.0
1070
    44
1040
1.5
1070
    73
1070
     0
1070
    74
1070
     0
1070
    77
1070
     3
1070
   140
1040
2.0
1070
   141
1040
3.0
1070
   146
1040
0.6
1070
   147
1040
1.0
1070
   172
1070
     1
1070
   178
1070
   256
1070
   272
1070
     2
1070
   274
1070
     2
1070
   340
1005
375C
1002
}
  0
MTEXT
  5
3ABC
102
{ACAD_REACTORS
330
3ABB
102
}
330
1F
100
AcDbEntity
  8
DIM
100
AcDbMText
 10
132.6763599315217
 20
400.395947160868
 30
0.0
 40
2.0
 41
0.0
 71
     1
 72
     1
  1
M10*1.25
  7
dayus
 73
     1
 44
1.0
1001
ACAD
1000
MTEXTBEGIN
1070
    73
1070
     1
1070
    44
1040
1.0
1070
    74
1070
     0
1000
MTEXTEND
  0
LEADER
  5
3ABD
330
1F
100
AcDbEntity
  8
DIM
100
AcDbLeader
  3
AM_ANSI$7
 73
     0
 74
     0
 75
     1
 40
2.0
 41
2.857142857142856
 76
     3
 10
116.7480642019269
 20
408.4393811228427
 30
0.0
 10
123.3795355634287
 20
395.1901473317436
 30
0.0
 10
125.3795355634287
 20
395.1901473317436
 30
0.0
340
3ABE
213
1.28621199348413
223
0.2860289400440479
233
0.0
1001
ACAD
1000
DSTYLE
1002
{
1070
    41
1040
2.0
1070
    42
1040
1.5
1070
    43
1040
8.0
1070
    44
1040
1.5
1070
    73
1070
     0
1070
    74
1070
     0
1070
    77
1070
     3
1070
   140
1040
2.0
1070
   141
1040
3.0
1070
   146
1040
0.6
1070
   147
1040
1.0
1070
   172
1070
     1
1070
   178
1070
   256
1070
   272
1070
     2
1070
   274
1070
     2
1070
   340
1005
375C
1002
}
  0
MTEXT
  5
3ABE
102
{ACAD_REACTORS
330
3ABD
102
}
330
1F
100
AcDbEntity
  8
DIM
100
AcDbMText
 10
125.0933235699446
 20
397.9041183916995
 30
0.0
 40
2.0
 41
0.0
 71
     1
 72
     1
  1
17
  7
dayus
 73
     1
 44
1.0
1001
ACAD
1000
MTEXTBEGIN
1070
    73
1070
     1
1070
    44
1040
1.0
1070
    74
1070
     0
1000
MTEXTEND
  0
DIMENSION
  5
3ABF
102
{ACAD_XDICTIONARY
360
3AC0
102
}
102
{ACAD_REACTORS
330
3AC1
102
}
330
1F
100
AcDbEntity
  8
DIM
100
AcDbDimension
  2
*D13
 10
106.3089886062433
 20
398.8247150677812
 30
0.0
 11
104.8089886062436
 21
398.8247150677812
 31
0.0
 70
   160
 71
     5
 42
2.999999999999545
  3
AM_ANSI
100
AcDbAlignedDimension
 13
103.3089886062438
 23
413.8446593217401
 33
0.0
 14
106.3089886062433
 24
411.9671583209396
 34
0.0
100
AcDbRotatedDimension
1001
ACAD
1000
DSTYLE
1002
{
1070
    41
1040
2.0
1070
    42
1040
1.5
1070
    43
1040
8.0
1070
    44
1040
1.5
1070
    73
1070
     0
1070
    74
1070
     0
1070
    77
1070
     3
1070
   140
1040
2.0
1070
   141
1040
3.0
1070
   146
1040
0.6
1070
   147
1040
1.0
1070
   172
1070
     1
1070
   178
1070
   256
1070
   272
1070
     8
1070
   274
1070
     2
1070
   340
1005
375C
1002
}
  0
LEADER
  5
3AC2
330
1F
100
AcDbEntity
  8
DIM
100
AcDbLeader
  3
AM_ANSI$7
 73
     0
 75
     1
 40
6.76190476190476
 41
30.57142857142856
 76
     3
 10
76.73050431413151
 20
418.3563678254582
 30
0.0
 10
64.73453566245473
 20
429.1821483324457
 30
0.0
 10
62.73453566245473
 20
429.1821483324457
 30
0.0
340
3AC3
213
-1.543897086449305
223
0.4194728829406813
233
0.0
1001
ACAD
1000
DSTYLE
1002
{
1070
    41
1040
2.0
1070
    42
1040
1.5
1070
    43
1040
8.0
1070
    44
1040
1.5
1070
    73
1070
     0
1070
    74
1070
     0
1070
    77
1070
     3
1070
   140
1040
2.0
1070
   141
1040
3.0
1070
   146
1040
0.6
1070
   147
1040
1.0
1070
   172
1070
     1
1070
   178
1070
   256
1070
   272
1070
     8
1070
   274
1070
     2
1070
   340
1005
375C
1002
}
  0
MTEXT
  5
3AC3
102
{ACAD_REACTORS
330
3AC2
102
}
330
1F
100
AcDbEntity
  8
DIM
100
AcDbMText
 10
63.27843274890404
 20
429.762675449505
 30
0.0
 40
2.0
 41
0.0
 71
     9
 72
     1
  1
2-M5*0.8(ST=5mm)\PPT1/8
  7
dayus
 73
     1
 44
1.0
1001
ACAD
1000
MTEXTBEGIN
1070
    73
1070
     1
1070
    44
1040
1.0
1070
    74
1070
     0
1000
MTEXTEND
  0
DIMENSION
  5
3AC4
102
{ACAD_XDICTIONARY
360
3AC5
102
}
102
{ACAD_REACTORS
330
3AC6
102
}
330
1F
100
AcDbEntity
  8
DIM
100
AcDbDimension
  2
*D14
 10
208.3861181759036
 20
444.8555112352018
 30
0.0
 11
191.3861181759035
 21
446.8555112352017
 31
0.0
 70
    32
  1
□<>
 71
     5
 42
34.0
  3
AM_ANSI
100
AcDbAlignedDimension
 13
174.3861181759035
 23
439.9075740883431
 33
0.0
 14
208.3861181759036
 24
439.9075740883431
 34
0.0
100
AcDbRotatedDimension
1001
ACAD
1000
DSTYLE
1002
{
1070
    41
1040
2.0
1070
    42
1040
1.5
1070
    43
1040
8.0
1070
    44
1040
1.5
1070
    73
1070
     0
1070
    74
1070
     0
1070
    77
1070
     3
1070
   140
1040
2.0
1070
   141
1040
3.0
1070
   146
1040
0.6
1070
   147
1040
1.0
1070
   172
1070
     1
1070
   178
1070
   256
1070
   272
1070
     8
1070
   274
1070
     2
1070
   340
1005
375C
1002
}
  0
DIMENSION
  5
3AC7
102
{ACAD_XDICTIONARY
360
3AC8
102
}
102
{ACAD_REACTORS
330
3AC9
102
}
330
1F
100
AcDbEntity
  8
DIM
100
AcDbDimension
  2
*D15
 10
213.3861181759038
 20
451.1167877835731
 30
0.0
 11
191.3861181759036
 21
453.1167877835732
 31
0.0
 70
    32
  1
□<>
 71
     5
 42
44.00000000000022
  3
AM_ANSI
100
AcDbAlignedDimension
 13
169.3861181759035
 23
436.7488976303086
 33
0.0
 14
213.3861181759038
 24
436.6204023279729
 34
0.0
100
AcDbRotatedDimension
1001
ACAD
1000
DSTYLE
1002
{
1070
    41
1040
2.0
1070
    42
1040
1.5
1070
    43
1040
8.0
1070
    44
1040
1.5
1070
    73
1070
     0
1070
    74
1070
     0
1070
    77
1070
     3
1070
   140
1040
2.0
1070
   141
1040
3.0
1070
   146
1040
0.6
1070
   147
1040
1.0
1070
   172
1070
     1
1070
   178
1070
   256
1070
   272
1070
     8
1070
   274
1070
     2
1070
   340
1005
375C
1002
}
  0
DIMENSION
  5
3ACA
102
{ACAD_XDICTIONARY
360
3ACB
102
}
102
{ACAD_REACTORS
330
3ACC
102
}
330
1F
100
AcDbEntity
  8
DIM
100
AcDbDimension
  2
*D16
 10
213.3861181759036
 20
457.7201264383541
 30
0.0
 11
189.1361181759035
 21
459.7201264383541
 31
0.0
 70
    32
 71
     5
 42
48.5
  3
AM_ANSI
100
AcDbAlignedDimension
 13
164.8861181759035
 23
423.7831317446263
 33
0.0
 14
213.3861181759036
 24
436.6204023279732
 34
0.0
100
AcDbRotatedDimension
1001
ACAD
1000
DSTYLE
1002
{
1070
    41
1040
2.0
1070
    42
1040
1.5
1070
    43
1040
8.0
1070
    44
1040
1.5
1070
    73
1070
     0
1070
    74
1070
     0
1070
    77
1070
     3
1070
   140
1040
2.0
1070
   141
1040
3.0
1070
   146
1040
0.6
1070
   147
1040
1.0
1070
   172
1070
     1
1070
   178
1070
   256
1070
   272
1070
     8
1070
   274
1070
     2
1070
   340
1005
375C
1002
}
  0
DIMENSION
  5
3ACD
102
{ACAD_XDICTIONARY
360
3ACE
102
}
102
{ACAD_REACTORS
330
3ACF
102
}
330
1F
100
AcDbEntity
  8
DIM
100
AcDbDimension
  2
*D17
 10
157.8695610923487
 20
410.0157629994559
 30
0.0
 11
155.8695610923486
 21
416.9671583209397
 31
0.0
 70
    32
 71
     5
 42
13.90279064296749
  3
AM_ANSI
100
AcDbAlignedDimension
 13
164.9389417185568
 23
423.9185536424233
 33
0.0
 14
164.9389417185568
 24
410.0157629994559
 34
0.0
 50
90.0
100
AcDbRotatedDimension
1001
ACAD
1000
DSTYLE
1002
{
1070
    41
1040
2.0
1070
    42
1040
1.5
1070
    43
1040
8.0
1070
    44
1040
1.5
1070
    73
1070
     0
1070
    74
1070
     0
1070
    77
1070
     3
1070
   140
1040
2.0
1070
   141
1040
3.0
1070
   146
1040
0.6
1070
   147
1040
1.0
1070
   172
1070
     1
1070
   178
1070
   256
1070
   271
1070
     0
1070
   272
1070
     8
1070
   274
1070
     2
1070
   340
1005
375C
1002
}
  0
DIMENSION
  5
3AD0
102
{ACAD_XDICTIONARY
360
3AD1
102
}
102
{ACAD_REACTORS
330
3AD2
102
}
330
1F
100
AcDbEntity
  8
DIM
100
AcDbDimension
  2
*D18
 10
196.3861181759033
 20
387.0309438090231
 30
0.0
 11
191.3861181759033
 21
389.0309438090231
 31
0.0
 70
    32
  1
□<>
 71
     5
 42
10.0
  3
AM_ANSI
100
AcDbAlignedDimension
 13
186.3861181759033
 23
413.6505335305845
 33
0.0
 14
196.3861181759033
 24
413.6505335305844
 34
0.0
100
AcDbRotatedDimension
1001
ACAD
1000
DSTYLE
1002
{
1070
    41
1040
2.0
1070
    42
1040
1.5
1070
    43
1040
8.0
1070
    44
1040
1.5
1070
    73
1070
     0
1070
    74
1070
     0
1070
    77
1070
     3
1070
   140
1040
2.0
1070
   141
1040
3.0
1070
   146
1040
0.6
1070
   147
1040
1.0
1070
   172
1070
     1
1070
   178
1070
   256
1070
   272
1070
     8
1070
   274
1070
     2
1070
   340
1005
375C
1002
}
  0
LEADER
  5
3AD3
330
1F
100
AcDbEntity
  8
DIM
100
AcDbLeader
  3
AM_ANSI$7
 73
     0
 74
     0
 75
     1
 40
8.666666666666666
 41
24.57142857142857
 76
     3
 10
211.9506044490151
 20
436.7138722865354
 30
0.0
 10
220.0299399559142
 20
442.9396288105357
 30
0.0
 10
222.0299399559142
 20
442.9396288105357
 30
0.0
340
3AD4
213
-0.1905629376930165
223
0.2179465301056638
233
0.0
1001
ACAD
1000
DSTYLE
1002
{
1070
    41
1040
2.0
1070
    42
1040
1.5
1070
    43
1040
8.0
1070
    44
1040
1.5
1070
    73
1070
     0
1070
    74
1070
     0
1070
    77
1070
     3
1070
   140
1040
2.0
1070
   141
1040
3.0
1070
   146
1040
0.6
1070
   147
1040
1.0
1070
   172
1070
     1
1070
   178
1070
   256
1070
   272
1070
     2
1070
   274
1070
     2
1070
   340
1005
375C
1002
}
  0
MTEXT
  5
3AD4
102
{ACAD_REACTORS
330
3AD3
102
}
330
1F
100
AcDbEntity
  8
DIM
100
AcDbMText
 10
223.2205028936072
 20
452.3883489470967
 30
0.0
 40
2.0
 41
0.0
 71
     1
 72
     1
  1
%%C9*7 depth\PM6*1.0*10 depth\P%%C5.1 thru
  7
dayus
 73
     1
 44
1.0
1001
ACAD
1000
MTEXTBEGIN
1070
    73
1070
     1
1070
    44
1040
1.0
1070
    74
1070
     0
1000
MTEXTEND
  0
DIMENSION
  5
3AD5
102
{ACAD_XDICTIONARY
360
3AD6
102
}
102
{ACAD_REACTORS
330
3AD7
102
}
330
1F
100
AcDbEntity
  8
DIM
100
AcDbDimension
  2
*D19
 10
106.3089886062433
 20
317.264760134087
 30
0.0
 11
102.8089886062433
 21
319.264760134087
 31
0.0
 70
    32
 71
     5
 42
7.0
  3
AM_ANSI
100
AcDbAlignedDimension
 13
99.30898860624337
 23
305.8231171283887
 33
0.0
 14
106.3089886062433
 24
288.8231171283887
 34
0.0
100
AcDbRotatedDimension
1001
ACAD
1000
DSTYLE
1002
{
1070
    41
1040
2.0
1070
    42
1040
1.5
1070
    43
1040
8.0
1070
    44
1040
1.5
1070
    73
1070
     0
1070
    74
1070
     0
1070
    77
1070
     3
1070
   140
1040
2.0
1070
   141
1040
3.0
1070
   146
1040
0.6
1070
   147
1040
1.0
1070
   172
1070
     1
1070
   178
1070
   256
1070
   272
1070
     8
1070
   274
1070
     2
1070
   340
1005
375C
1002
}
  0
DIMENSION
  5
3AD8
102
{ACAD_XDICTIONARY
360
3AD9
102
}
102
{ACAD_REACTORS
330
3ADA
102
}
330
1F
100
AcDbEntity
  8
DIM
100
AcDbDimension
  2
*D20
 10
102.3089886062433
 20
311.8778163756082
 30
0.0
 11
100.8089886062433
 21
311.8778163756082
 31
0.0
 70
   160
 71
     5
 42
3.0
  3
AM_ANSI
100
AcDbAlignedDimension
 13
99.30898860624337
 23
305.8231171283887
 33
0.0
 14
102.3089886062433
 24
293.8231171283888
 34
0.0
100
AcDbRotatedDimension
1001
ACAD
1000
DSTYLE
1002
{
1070
    41
1040
2.0
1070
    42
1040
1.5
1070
    43
1040
8.0
1070
    44
1040
1.5
1070
    73
1070
     0
1070
    74
1070
     0
1070
    77
1070
     3
1070
   140
1040
2.0
1070
   141
1040
3.0
1070
   146
1040
0.6
1070
   147
1040
1.0
1070
   172
1070
     1
1070
   178
1070
   256
1070
   272
1070
     8
1070
   274
1070
     2
1070
   340
1005
375C
1002
}
  0
DIMENSION
  5
3ADB
102
{ACAD_XDICTIONARY
360
3ADC
102
}
102
{ACAD_REACTORS
330
3ADD
102
}
330
1F
100
AcDbEntity
  8
DIM
100
AcDbDimension
  2
*D21
 10
78.80898860624336
 20
311.8778163756082
 30
0.0
 11
74.30898860624336
 21
313.8778163756082
 31
0.0
 70
    32
 71
     5
 42
9.0
  3
AM_ANSI
100
AcDbAlignedDimension
 13
69.80898860624336
 23
305.8231171283887
 33
0.0
 14
78.80898860624336
 24
288.6478557976884
 34
0.0
100
AcDbRotatedDimension
1001
ACAD
1000
DSTYLE
1002
{
1070
    41
1040
2.0
1070
    42
1040
1.5
1070
    43
1040
8.0
1070
    44
1040
1.5
1070
    73
1070
     0
1070
    74
1070
     0
1070
    77
1070
     3
1070
   140
1040
2.0
1070
   141
1040
3.0
1070
   146
1040
0.6
1070
   147
1040
1.0
1070
   172
1070
     1
1070
   178
1070
   256
1070
   272
1070
     8
1070
   274
1070
     2
1070
   340
1005
375C
1002
}
  0
DIMENSION
  5
3ADE
102
{ACAD_XDICTIONARY
360
3ADF
102
}
102
{ACAD_REACTORS
330
3AE0
102
}
330
1F
100
AcDbEntity
  8
DIM
100
AcDbDimension
  2
*D22
 10
99.30898860624337
 20
311.8778163756082
 30
0.0
 11
94.80898860624336
 21
313.8778163756082
 31
0.0
 70
    32
 71
     5
 42
9.0
  3
AM_ANSI
100
AcDbAlignedDimension
 13
90.30898860624336
 23
288.6965359342255
 33
0.0
 14
99.30898860624337
 24
305.8231171283887
 34
0.0
100
AcDbRotatedDimension
1001
ACAD
1000
DSTYLE
1002
{
1070
    41
1040
2.0
1070
    42
1040
1.5
1070
    43
1040
8.0
1070
    44
1040
1.5
1070
    73
1070
     0
1070
    74
1070
     0
1070
    77
1070
     3
1070
   140
1040
2.0
1070
   141
1040
3.0
1070
   146
1040
0.6
1070
   147
1040
1.0
1070
   172
1070
     1
1070
   178
1070
   256
1070
   272
1070
     8
1070
   274
1070
     2
1070
   340
1005
375C
1002
}
  0
DIMENSION
  5
3AE1
102
{ACAD_XDICTIONARY
360
3AE2
102
}
102
{ACAD_REACTORS
330
3AE3
102
}
330
1F
100
AcDbEntity
  8
DIM
100
AcDbDimension
  2
*D23
 10
99.30898860624337
 20
317.264760134087
 30
0.0
 11
84.55898860624335
 21
319.264760134087
 31
0.0
 70
    32
  1
24.5+stroke=S
 71
     5
 42
29.5
  3
AM_ANSI
100
AcDbAlignedDimension
 13
69.80898860624336
 23
305.8231171283887
 33
0.0
 14
99.30898860624337
 24
305.8231171283887
 34
0.0
100
AcDbRotatedDimension
1001
ACAD
1000
DSTYLE
1002
{
1070
    41
1040
2.0
1070
    42
1040
1.5
1070
    43
1040
8.0
1070
    44
1040
1.5
1070
    73
1070
     0
1070
    74
1070
     0
1070
    77
1070
     3
1070
   140
1040
2.0
1070
   141
1040
3.0
1070
   146
1040
0.6
1070
   147
1040
1.0
1070
   172
1070
     1
1070
   178
1070
   256
1070
   272
1070
     8
1070
   274
1070
     2
1070
   340
1005
375C
1002
}
  0
DIMENSION
  5
3AE4
102
{ACAD_XDICTIONARY
360
3AE5
102
}
102
{ACAD_REACTORS
330
3AE6
102
}
330
1F
100
AcDbEntity
  8
DIM
100
AcDbDimension
  2
*D24
 10
106.3089886062433
 20
323.0643463145835
 30
0.0
 11
88.05898860624337
 21
325.0643463145835
 31
0.0
 70
    32
  1
31.5+stroke=ZZ
 71
     5
 42
36.5
  3
AM_ANSI
100
AcDbAlignedDimension
 13
69.80898860624336
 23
305.8231171283887
 33
0.0
 14
106.3089886062433
 24
288.8231171283887
 34
0.0
100
AcDbRotatedDimension
1001
ACAD
1000
DSTYLE
1002
{
1070
    41
1040
2.0
1070
    42
1040
1.5
1070
    43
1040
8.0
1070
    44
1040
1.5
1070
    73
1070
     0
1070
    74
1070
     0
1070
    77
1070
     3
1070
   140
1040
2.0
1070
   141
1040
3.0
1070
   146
1040
0.6
1070
   147
1040
1.0
1070
   172
1070
     1
1070
   178
1070
   256
1070
   272
1070
     8
1070
   274
1070
     2
1070
   340
1005
375C
1002
}
  0
DIMENSION
  5
3AE7
102
{ACAD_XDICTIONARY
360
3AE8
102
}
102
{ACAD_REACTORS
330
3AE9
102
}
330
1F
100
AcDbEntity
  8
DIM
100
AcDbDimension
  2
*D25
 10
115.4735061035625
 20
289.8231171283887
 30
0.0
 11
113.4735061035624
 21
283.8231171283887
 31
0.0
 70
    32
  1
%%c<>
 71
     5
 42
12.0
  3
AM_ANSI
100
AcDbAlignedDimension
 13
102.3089886062433
 23
277.8231171283887
 33
0.0
 14
102.3089886062433
 24
289.8231171283887
 34
0.0
 50
90.0
100
AcDbRotatedDimension
1001
ACAD
1000
DSTYLE
1002
{
1070
    41
1040
2.0
1070
    42
1040
1.5
1070
    43
1040
8.0
1070
    44
1040
1.5
1070
    73
1070
     0
1070
    74
1070
     0
1070
    77
1070
     3
1070
   140
1040
2.0
1070
   141
1040
3.0
1070
   146
1040
0.6
1070
   147
1040
1.0
1070
   172
1070
     1
1070
   178
1070
   256
1070
   272
1070
     8
1070
   274
1070
     2
1070
   340
1005
375C
1002
}
  0
DIMENSION
  5
3AEA
102
{ACAD_XDICTIONARY
360
3AEB
102
}
102
{ACAD_REACTORS
330
3AEC
102
}
330
1F
100
AcDbEntity
  8
DIM
100
AcDbDimension
  2
*D26
 10
122.449129807757
 20
272.8231171283887
 30
0.0
 11
119.7924631410903
 21
283.8231171283887
 31
0.0
 70
    32
  1
%%c<>{}{\H0.71x;\C3;\S 0^ -0.05;}
 71
     5
 42
22.00000000000006
  3
AM_ANSI
100
AcDbAlignedDimension
 13
101.3089886062433
 23
294.8231171283887
 33
0.0
 14
101.3089886062433
 24
272.8231171283887
 34
0.0
 50
90.0
100
AcDbRotatedDimension
1001
GENIUS_GENDTOL_13
1000
TolSmNrm
1000

1000
{\H0.71x;$2\S$+$P^ $-$M;}
1040
22.0
1001
ACAD
1000
DSTYLE
1002
{
1070
   286
1070
     0
1070
   284
1070
     8
1070
    41
1040
2.0
1070
    42
1040
1.5
1070
    43
1040
8.0
1070
    44
1040
1.5
1070
    47
1040
0.0
1070
    48
1040
0.05
1070
    73
1070
     0
1070
    74
1070
     0
1070
    77
1070
     3
1070
   140
1040
2.0
1070
   141
1040
3.0
1070
   146
1040
0.6
1070
   147
1040
1.0
1070
   172
1070
     1
1070
   178
1070
   256
1070
   272
1070
     8
1070
   274
1070
     2
1070
   340
1005
375C
1002
}
  0
DIMENSION
  5
3AED
102
{ACAD_XDICTIONARY
360
3AEE
102
}
102
{ACAD_REACTORS
330
3AEF
102
}
330
1F
100
AcDbEntity
  8
DIM
100
AcDbDimension
  2
*D27
 10
106.3089886062433
 20
265.6541549809708
 30
0.0
 11
104.8089886062433
 21
265.6541549809708
 31
0.0
 70
   160
 71
     5
 42
3.0
  3
AM_ANSI
100
AcDbAlignedDimension
 13
103.3089886062433
 23
280.0814597416147
 33
0.0
 14
106.3089886062433
 24
278.8231171283887
 34
0.0
100
AcDbRotatedDimension
1001
ACAD
1000
DSTYLE
1002
{
1070
    41
1040
2.0
1070
    42
1040
1.5
1070
    43
1040
8.0
1070
    44
1040
1.5
1070
    73
1070
     0
1070
    74
1070
     0
1070
    77
1070
     3
1070
   140
1040
2.0
1070
   141
1040
3.0
1070
   146
1040
0.6
1070
   147
1040
1.0
1070
   172
1070
     1
1070
   178
1070
   256
1070
   272
1070
     8
1070
   274
1070
     2
1070
   340
1005
375C
1002
}
  0
ARC
  5
3AF0
330
1F
100
AcDbEntity
  8
0
 62
     3
100
AcDbCircle
 10
90.30898860624336
 20
417.0158384574769
 30
0.0
 40
2.5
100
AcDbArc
 50
337.3605290677909
 51
251.6049974961714
  0
ARC
  5
3AF1
330
1F
100
AcDbEntity
  8
0
 62
     3
100
AcDbCircle
 10
78.80898860624336
 20
283.8231171283887
 30
0.0
 40
2.5
100
AcDbArc
 50
337.3605290677909
 51
251.6049974961714
  0
ARC
  5
3AF2
330
1F
100
AcDbEntity
  8
0
 62
     3
100
AcDbCircle
 10
90.30898860624336
 20
283.8717972649259
 30
0.0
 40
2.5
100
AcDbArc
 50
337.3605290677909
 51
251.6049974961714
  0
LEADER
  5
3AF3
330
1F
100
AcDbEntity
  8
DIM
100
AcDbLeader
  3
AM_ANSI$7
 73
     0
 75
     1
 40
6.76190476190476
 41
30.57142857142856
 76
     3
 10
76.73050431413151
 20
285.2123266329073
 30
0.0
 10
64.73453566245473
 20
296.0381071398948
 30
0.0
 10
62.73453566245473
 20
296.0381071398948
 30
0.0
340
3AF4
213
-1.543897086449305
223
0.4194728829406813
233
0.0
1001
ACAD
1000
DSTYLE
1002
{
1070
    41
1040
2.0
1070
    42
1040
1.5
1070
    43
1040
8.0
1070
    44
1040
1.5
1070
    73
1070
     0
1070
    74
1070
     0
1070
    77
1070
     3
1070
   140
1040
2.0
1070
   141
1040
3.0
1070
   146
1040
0.6
1070
   147
1040
1.0
1070
   172
1070
     1
1070
   178
1070
   256
1070
   272
1070
     8
1070
   274
1070
     2
1070
   340
1005
375C
1002
}
  0
MTEXT
  5
3AF4
102
{ACAD_REACTORS
330
3AF3
102
}
330
1F
100
AcDbEntity
  8
DIM
100
AcDbMText
 10
63.27843274890404
 20
296.6186342569541
 30
0.0
 40
2.0
 41
0.0
 71
     9
 72
     1
  1
2-M5*0.8(ST=5mm)\PPT1/8
  7
dayus
 73
     1
 44
1.0
1001
ACAD
1000
MTEXTBEGIN
1070
    73
1070
     1
1070
    44
1040
1.0
1070
    74
1070
     0
1000
MTEXTEND
  0
DIMENSION
  5
3AF5
102
{ACAD_XDICTIONARY
360
3AF6
102
}
102
{ACAD_REACTORS
330
3AF7
102
}
330
1F
100
AcDbEntity
  8
DIM
100
AcDbDimension
  2
*D28
 10
208.3861181759036
 20
444.8555112352018
 30
0.0
 11
191.3861181759035
 21
446.8555112352017
 31
0.0
 70
    32
  1
□<>
 71
     5
 42
34.0
  3
AM_ANSI
100
AcDbAlignedDimension
 13
174.3861181759035
 23
439.9075740883431
 33
0.0
 14
208.3861181759036
 24
439.9075740883431
 34
0.0
100
AcDbRotatedDimension
1001
ACAD
1000
DSTYLE
1002
{
1070
    41
1040
2.0
1070
    42
1040
1.5
1070
    43
1040
8.0
1070
    44
1040
1.5
1070
    73
1070
     0
1070
    74
1070
     0
1070
    77
1070
     3
1070
   140
1040
2.0
1070
   141
1040
3.0
1070
   146
1040
0.6
1070
   147
1040
1.0
1070
   172
1070
     1
1070
   178
1070
   256
1070
   272
1070
     8
1070
   274
1070
     2
1070
   340
1005
375C
1002
}
  0
DIMENSION
  5
3AF8
102
{ACAD_XDICTIONARY
360
3AF9
102
}
102
{ACAD_REACTORS
330
3AFA
102
}
330
1F
100
AcDbEntity
  8
DIM
100
AcDbDimension
  2
*D29
 10
213.3861181759038
 20
451.1167877835731
 30
0.0
 11
191.3861181759036
 21
453.1167877835732
 31
0.0
 70
    32
  1
□<>
 71
     5
 42
44.00000000000022
  3
AM_ANSI
100
AcDbAlignedDimension
 13
169.3861181759035
 23
436.7488976303086
 33
0.0
 14
213.3861181759038
 24
436.6204023279729
 34
0.0
100
AcDbRotatedDimension
1001
ACAD
1000
DSTYLE
1002
{
1070
    41
1040
2.0
1070
    42
1040
1.5
1070
    43
1040
8.0
1070
    44
1040
1.5
1070
    73
1070
     0
1070
    74
1070
     0
1070
    77
1070
     3
1070
   140
1040
2.0
1070
   141
1040
3.0
1070
   146
1040
0.6
1070
   147
1040
1.0
1070
   172
1070
     1
1070
   178
1070
   256
1070
   272
1070
     8
1070
   274
1070
     2
1070
   340
1005
375C
1002
}
  0
DIMENSION
  5
3AFB
102
{ACAD_XDICTIONARY
360
3AFC
102
}
102
{ACAD_REACTORS
330
3AFD
102
}
330
1F
100
AcDbEntity
  8
DIM
100
AcDbDimension
  2
*D30
 10
213.3861181759036
 20
457.7201264383541
 30
0.0
 11
189.1361181759035
 21
459.7201264383541
 31
0.0
 70
    32
 71
     5
 42
48.5
  3
AM_ANSI
100
AcDbAlignedDimension
 13
164.8861181759035
 23
423.7831317446263
 33
0.0
 14
213.3861181759036
 24
436.6204023279732
 34
0.0
100
AcDbRotatedDimension
1001
ACAD
1000
DSTYLE
1002
{
1070
    41
1040
2.0
1070
    42
1040
1.5
1070
    43
1040
8.0
1070
    44
1040
1.5
1070
    73
1070
     0
1070
    74
1070
     0
1070
    77
1070
     3
1070
   140
1040
2.0
1070
   141
1040
3.0
1070
   146
1040
0.6
1070
   147
1040
1.0
1070
   172
1070
     1
1070
   178
1070
   256
1070
   272
1070
     8
1070
   274
1070
     2
1070
   340
1005
375C
1002
}
  0
DIMENSION
  5
3AFE
102
{ACAD_XDICTIONARY
360
3AFF
102
}
102
{ACAD_REACTORS
330
3B00
102
}
330
1F
100
AcDbEntity
  8
DIM
100
AcDbDimension
  2
*D31
 10
157.8695610923487
 20
410.0157629994559
 30
0.0
 11
155.8695610923486
 21
416.9671583209397
 31
0.0
 70
    32
 71
     5
 42
13.90279064296749
  3
AM_ANSI
100
AcDbAlignedDimension
 13
164.9389417185568
 23
423.9185536424233
 33
0.0
 14
164.9389417185568
 24
410.0157629994559
 34
0.0
 50
90.0
100
AcDbRotatedDimension
1001
ACAD
1000
DSTYLE
1002
{
1070
    41
1040
2.0
1070
    42
1040
1.5
1070
    43
1040
8.0
1070
    44
1040
1.5
1070
    73
1070
     0
1070
    74
1070
     0
1070
    77
1070
     3
1070
   140
1040
2.0
1070
   141
1040
3.0
1070
   146
1040
0.6
1070
   147
1040
1.0
1070
   172
1070
     1
1070
   178
1070
   256
1070
   271
1070
     0
1070
   272
1070
     8
1070
   274
1070
     2
1070
   340
1005
375C
1002
}
  0
DIMENSION
  5
3B01
102
{ACAD_XDICTIONARY
360
3B02
102
}
102
{ACAD_REACTORS
330
3B03
102
}
330
1F
100
AcDbEntity
  8
DIM
100
AcDbDimension
  2
*D32
 10
196.3861181759033
 20
387.0309438090231
 30
0.0
 11
191.3861181759033
 21
389.0309438090231
 31
0.0
 70
    32
  1
□<>
 71
     5
 42
10.0
  3
AM_ANSI
100
AcDbAlignedDimension
 13
186.3861181759033
 23
413.6505335305845
 33
0.0
 14
196.3861181759033
 24
413.6505335305844
 34
0.0
100
AcDbRotatedDimension
1001
ACAD
1000
DSTYLE
1002
{
1070
    41
1040
2.0
1070
    42
1040
1.5
1070
    43
1040
8.0
1070
    44
1040
1.5
1070
    73
1070
     0
1070
    74
1070
     0
1070
    77
1070
     3
1070
   140
1040
2.0
1070
   141
1040
3.0
1070
   146
1040
0.6
1070
   147
1040
1.0
1070
   172
1070
     1
1070
   178
1070
   256
1070
   272
1070
     8
1070
   274
1070
     2
1070
   340
1005
375C
1002
}
  0
LEADER
  5
3B06
330
1F
100
AcDbEntity
  8
DIM
100
AcDbLeader
  3
AM_ANSI$7
 73
     0
 74
     0
 40
2.666666666666666
 41
24.57142857142857
 76
     2
 10
194.8060231366218
 20
284.5320790654221
 30
0.0
 10
217.8411527850088
 20
289.9950809648265
 30
0.0
340
3B07
213
0.5511825494140794
223
0.3357795278853928
233
0.0
1001
ACAD
1000
DSTYLE
1002
{
1070
    41
1040
2.0
1070
    42
1040
1.5
1070
    43
1040
8.0
1070
    44
1040
1.5
1070
    73
1070
     0
1070
    74
1070
     0
1070
    77
1070
     3
1070
   140
1040
2.0
1070
   141
1040
3.0
1070
   146
1040
0.6
1070
   147
1040
1.0
1070
   172
1070
     1
1070
   178
1070
   256
1070
   272
1070
     8
1070
   274
1070
     2
1070
   340
1005
375C
1002
}
  0
MTEXT
  5
3B07
102
{ACAD_REACTORS
330
3B06
102
}
330
1F
100
AcDbEntity
  8
DIM
100
AcDbMText
 10
218.2899702355947
 20
293.3259681036078
 30
0.0
 40
2.0
 41
0.0
 71
     1
 72
     1
  1
M6*1.0*12 depth
  7
dayus
 73
     1
 44
1.0
1001
ACAD
1000
MTEXTBEGIN
1070
    73
1070
     1
1070
    44
1040
1.0
1070
    74
1070
     0
1000
MTEXTEND
  0
DIMENSION
  5
3CD0
330
1F
100
AcDbEntity
  8
DIM
100
AcDbDimension
  2
*D33
 10
208.7242423248446
 20
311.7114700426508
 30
0.0
 11
191.7242423248445
 21
313.7114700426508
 31
0.0
 70
    32
  1
□<>
 71
     5
 42
34.0
  3
AM_ANSI
100
AcDbAlignedDimension
 13
174.7242423248446
 23
306.7635328957922
 33
0.0
 14
208.7242423248446
 24
306.7635328957922
 34
0.0
100
AcDbRotatedDimension
1001
ACAD
1000
DSTYLE
1002
{
1070
    41
1040
2.0
1070
    42
1040
1.5
1070
    43
1040
8.0
1070
    44
1040
1.5
1070
    73
1070
     0
1070
    74
1070
     0
1070
    77
1070
     3
1070
   140
1040
2.0
1070
   141
1040
3.0
1070
   146
1040
0.6
1070
   147
1040
1.0
1070
   172
1070
     1
1070
   178
1070
   256
1070
   272
1070
     8
1070
   274
1070
     2
1070
   340
1005
375C
1002
}
  0
DIMENSION
  5
3CD3
330
1F
100
AcDbEntity
  8
DIM
100
AcDbDimension
  2
*D34
 10
213.7242423248448
 20
317.9727465910222
 30
0.0
 11
191.7242423248447
 21
319.9727465910222
 31
0.0
 70
    32
  1
□<>
 71
     5
 42
44.00000000000022
  3
AM_ANSI
100
AcDbAlignedDimension
 13
169.7242423248446
 23
303.6048564377577
 33
0.0
 14
213.7242423248448
 24
303.476361135422
 34
0.0
100
AcDbRotatedDimension
1001
ACAD
1000
DSTYLE
1002
{
1070
    41
1040
2.0
1070
    42
1040
1.5
1070
    43
1040
8.0
1070
    44
1040
1.5
1070
    73
1070
     0
1070
    74
1070
     0
1070
    77
1070
     3
1070
   140
1040
2.0
1070
   141
1040
3.0
1070
   146
1040
0.6
1070
   147
1040
1.0
1070
   172
1070
     1
1070
   178
1070
   256
1070
   272
1070
     8
1070
   274
1070
     2
1070
   340
1005
375C
1002
}
  0
DIMENSION
  5
3CD6
330
1F
100
AcDbEntity
  8
DIM
100
AcDbDimension
  2
*D35
 10
213.7242423248446
 20
324.5760852458033
 30
0.0
 11
189.4742423248445
 21
326.5760852458033
 31
0.0
 70
    32
 71
     5
 42
48.5
  3
AM_ANSI
100
AcDbAlignedDimension
 13
165.2242423248445
 23
290.6390905520755
 33
0.0
 14
213.7242423248446
 24
303.4763611354223
 34
0.0
100
AcDbRotatedDimension
1001
ACAD
1000
DSTYLE
1002
{
1070
    41
1040
2.0
1070
    42
1040
1.5
1070
    43
1040
8.0
1070
    44
1040
1.5
1070
    73
1070
     0
1070
    74
1070
     0
1070
    77
1070
     3
1070
   140
1040
2.0
1070
   141
1040
3.0
1070
   146
1040
0.6
1070
   147
1040
1.0
1070
   172
1070
     1
1070
   178
1070
   256
1070
   272
1070
     8
1070
   274
1070
     2
1070
   340
1005
375C
1002
}
  0
DIMENSION
  5
3CD9
330
1F
100
AcDbEntity
  8
DIM
100
AcDbDimension
  2
*D36
 10
158.2076852412897
 20
276.8717218069049
 30
0.0
 11
156.2076852412897
 21
283.8231171283887
 31
0.0
 70
    32
 71
     5
 42
13.90279064296749
  3
AM_ANSI
100
AcDbAlignedDimension
 13
165.2770658674978
 23
290.7745124498724
 33
0.0
 14
165.2770658674978
 24
276.8717218069049
 34
0.0
 50
90.0
100
AcDbRotatedDimension
1001
ACAD
1000
DSTYLE
1002
{
1070
    41
1040
2.0
1070
    42
1040
1.5
1070
    43
1040
8.0
1070
    44
1040
1.5
1070
    73
1070
     0
1070
    74
1070
     0
1070
    77
1070
     3
1070
   140
1040
2.0
1070
   141
1040
3.0
1070
   146
1040
0.6
1070
   147
1040
1.0
1070
   172
1070
     1
1070
   178
1070
   256
1070
   271
1070
     0
1070
   272
1070
     8
1070
   274
1070
     2
1070
   340
1005
375C
1002
}
  0
DIMENSION
  5
3CDC
330
1F
100
AcDbEntity
  8
DIM
100
AcDbDimension
  2
*D37
 10
196.7242423248443
 20
253.8869026164721
 30
0.0
 11
191.7242423248443
 21
255.8869026164722
 31
0.0
 70
    32
  1
□<>
 71
     5
 42
10.0
  3
AM_ANSI
100
AcDbAlignedDimension
 13
186.7242423248443
 23
280.5064923380336
 33
0.0
 14
196.7242423248443
 24
280.5064923380335
 34
0.0
100
AcDbRotatedDimension
1001
ACAD
1000
DSTYLE
1002
{
1070
    41
1040
2.0
1070
    42
1040
1.5
1070
    43
1040
8.0
1070
    44
1040
1.5
1070
    73
1070
     0
1070
    74
1070
     0
1070
    77
1070
     3
1070
   140
1040
2.0
1070
   141
1040
3.0
1070
   146
1040
0.6
1070
   147
1040
1.0
1070
   172
1070
     1
1070
   178
1070
   256
1070
   272
1070
     8
1070
   274
1070
     2
1070
   340
1005
375C
1002
}
  0
LWPOLYLINE
  5
4079
330
1F
100
AcDbEntity
  8
LOGO
 62
     4
100
AcDbPolyline
 90
        4
 70
     1
 43
0.0
 10
-0.4706550713615343
 20
236.50757003886
 10
271.6277841472795
 20
236.50757003886
 10
271.6277841472795
 20
201.1626885908956
 10
-0.4706550713615343
 20
201.1626885908956
1001
GENIUS_GENREC_14
1002
{
1000
PYDIR
1011
-0.4706550713615343
1021
201.1626885908956
1031
0.0
1002
}
1002
{
1000
PXDIR
1011
271.6277841472795
1021
236.50757003886
1031
0.0
1002
}
1002
{
1000
PORI
1011
-0.4706550713615343
1021
236.50757003886
1031
0.0
1002
}
1002
{
1000
PINS
1011
-0.4706550713615343
1021
236.50757003886
1031
0.0
1002
}
1002
{
1000
PINS2
1011
271.6277841472795
1021
201.1626885908956
1031
0.0
1002
}
1002
{
1000
C
1070
     1
1002
}
1001
GENIUS_GENOBJ-N-REC_13
1002
{
1000
OWNER
1000
GEN
1002
}
1001
GENIUS_GENODEF_13
1002
{
1000
HIER
1070
     0
1002
}
1002
{
1000
MANEDIT
1070
     0
1002
}
1002
{
1000
NOSEL
1070
     0
1002
}
1002
{
1000
BEHIND
1070
     0
1002
}
1002
{
1000
OTHER
1070
     0
1002
}
1002
{
1000
REACTOR
1002
}
  0
TEXT
  5
407A
330
1F
100
AcDbEntity
  8
LOGO
 62
     7
100
AcDbText
 10
79.33574689710372
 20
221.0235789210583
 30
0.0
 40
4.712650859728507
  1
Order example:
 41
0.8
  7
CHINESET
100
AcDbText
  0
TEXT
  5
407B
330
1F
100
AcDbEntity
  8
LOGO
 62
     7
100
AcDbText
 10
80.18123543337617
 20
227.6580155647448
 30
0.0
 40
7.068976289592759
  1
訂購代號：
  7
CHINESET
100
AcDbText
  0
LINE
  5
407C
330
1F
100
AcDbEntity
  8
LOGO
 62
     4
100
AcDbLine
 10
77.28808411415889
 20
201.162688590896
 30
0.0
 11
77.28808411415889
 21
236.50757003886
 31
0.0
  0
TEXT
  5
407D
330
1F
100
AcDbEntity
  8
LOGO
  6
Continuous
100
AcDbText
 10
12.2253852230632
 20
208.1061372112717
 30
0.0
 40
5.30173221719457
  1
金器工業股份有限公司
  7
CHINESET
100
AcDbText
  0
TEXT
  5
407E
330
1F
100
AcDbEntity
  8
LOGO
  6
Continuous
100
AcDbText
 10
2.487152036069915
 20
202.8033662702345
 30
0.0
 40
3.534488144796379
  1
MINDMAN INDUSTRIAL CO., LTD.
 41
0.85
  7
CHINESET
100
AcDbText
  0
LINE
  5
407F
330
1F
100
AcDbEntity
  8
LOGO
 62
     4
100
AcDbLine
 10
77.28808411415889
 20
229.4385937492672
 30
0.0
 11
25.44892465714503
 21
229.4385937492672
 31
0.0
  0
LINE
  5
4080
330
1F
100
AcDbEntity
  8
LOGO
 62
     4
100
AcDbLine
 10
77.28808411415889
 20
222.3696174596744
 30
0.0
 11
25.44892465714503
 21
222.3696174596744
 31
0.0
  0
LINE
  5
4081
330
1F
100
AcDbEntity
  8
LOGO
 62
     4
100
AcDbLine
 10
77.28808411415889
 20
215.300641170082
 30
0.0
 11
-0.4706550713615343
 21
215.300641170082
 31
0.0
  0
LINE
  5
4082
330
1F
100
AcDbEntity
  8
LOGO
 62
     4
100
AcDbLine
 10
25.44892465714503
 20
215.300641170082
 30
0.0
 11
25.44892465714503
 21
236.50757003886
 31
0.0
  0
TEXT
  5
4083
330
1F
100
AcDbEntity
  8
LOGO
100
AcDbText
 10
60.87854337495654
 20
217.0678852424796
 30
0.0
 40
3.534488144796379
  1
mm
  7
CHINESET
 72
     1
 11
65.25457631613301
 21
218.8351293148778
 31
0.0
100
AcDbText
 73
     2
  0
TEXT
  5
4084
330
1F
100
AcDbEntity
  8
LOGO
100
AcDbText
 10
59.02714482292034
 20
231.2058378216653
 30
0.0
 40
3.534488144796379
  1
1 : 1
  7
CHINESET
 72
     1
 11
65.25457631613301
 21
232.9730818940634
 31
0.0
100
AcDbText
 73
     2
  0
LINE
  5
4085
330
1F
100
AcDbEntity
  8
LOGO
 62
     4
100
AcDbLine
 10
53.72482981551621
 20
215.300641170082
 30
0.0
 11
53.72482981551621
 21
236.50757003886
 31
0.0
  0
CIRCLE
  5
4086
330
1F
100
AcDbEntity
  8
LOGO
  6
Continuous
100
AcDbCircle
 10
60.26937670239528
 20
225.9116659004774
 30
0.0
 40
2.052207009341716
  0
CIRCLE
  5
4087
330
1F
100
AcDbEntity
  8
LOGO
  6
Continuous
100
AcDbCircle
 10
60.26937670239528
 20
225.9116659004774
 30
0.0
 40
1.202411635866442
  0
LINE
  5
4088
330
1F
100
AcDbEntity
  8
LOGO
100
AcDbLine
 10
73.16568367712983
 20
223.8594588911353
 30
0.0
 11
73.16568367712983
 21
227.9638729098195
 31
0.0
  0
LINE
  5
4089
330
1F
100
AcDbEntity
  8
LOGO
100
AcDbLine
 10
66.73213250514709
 20
224.7092542646112
 30
0.0
 11
66.73213250514709
 21
227.114077536344
 31
0.0
  0
LINE
  5
408A
330
1F
100
AcDbEntity
  8
LOGO
  6
Continuous
100
AcDbLine
 10
66.73213250514709
 20
227.114077536344
 30
0.0
 11
73.16568367712983
 21
227.9638729098195
 31
0.0
  0
LINE
  5
408B
330
1F
100
AcDbEntity
  8
LOGO
  6
Continuous
100
AcDbLine
 10
66.73213250514709
 20
224.7092542646112
 30
0.0
 11
73.16568367712983
 21
223.8594588911353
 31
0.0
  0
TEXT
  5
408C
330
1F
100
AcDbEntity
  8
LOGO
100
AcDbText
 10
28.3632994801089
 20
231.2075772351223
 30
231.644530280888
 40
3.534488144796379
  1
比例 Scale:
 41
0.9
  7
CHINESET
 72
     4
 11
39.58687723633062
 21
232.9730818940634
 31
231.644530280888
100
AcDbText
  0
TEXT
  5
408D
330
1F
100
AcDbEntity
  8
LOGO
100
AcDbText
 10
28.15975083248447
 20
224.1865797667208
 30
231.644530280888
 40
3.534488144796379
  1
投影  View:
 41
0.9
  7
CHINESET
 72
     4
 11
39.58687723633062
 21
225.9041056044706
 31
231.644530280888
100
AcDbText
  0
TEXT
  5
408E
330
1F
100
AcDbEntity
  8
LOGO
100
AcDbText
 10
28.50531016449804
 20
217.0678852424796
 30
231.644530280888
 40
3.534488144796379
  1
單位  Unit:
 41
0.9
  7
CHINESET
 72
     4
 11
39.58687723633062
 21
218.8351293148778
 31
231.644530280888
100
AcDbText
  0
SOLID
  5
408F
330
1F
100
AcDbEntity
  8
LOGO
 62
     5
100
AcDbTrace
 10
3.196433103084757
 20
221.1762246160348
 30
0.0
 11
4.724653031925697
 21
221.1762246160344
 31
0.0
 12
11.10101894191734
 22
235.6679653205622
 32
0.0
 13
12.62923887075914
 23
235.6679653205614
 33
0.0
  0
SOLID
  5
4090
330
1F
100
AcDbEntity
  8
LOGO
 62
     5
100
AcDbTrace
 10
5.357019899034014
 20
221.1762246160348
 30
0.0
 11
6.885239827875011
 21
221.1762246160348
 31
0.0
 12
12.62923887075914
 22
234.5086260641994
 32
0.0
 13
11.10101894191734
 23
228.9051529917822
 33
0.0
  0
SOLID
  5
4091
330
1F
100
AcDbEntity
  8
LOGO
 62
     2
100
AcDbTrace
 10
4.724653031925697
 20
221.1762246160344
 30
0.0
 11
5.357019899034014
 21
221.1762246160348
 31
0.0
 12
12.62923887075914
 22
235.6679653205614
 32
0.0
 13
13.2616057378666
 23
235.6679653205614
 33
0.0
  0
SOLID
  5
4092
330
1F
100
AcDbEntity
  8
LOGO
 62
     5
100
AcDbTrace
 10
0.7463217917197654
 20
215.9065007234798
 30
0.0
 11
1.273294180975881
 21
215.9065007234798
 31
0.0
 12
2.757289445372236
 22
218.5413626697571
 32
0.0
 13
3.284261834626761
 23
218.5413626697571
 33
0.0
  0
SOLID
  5
4093
330
1F
100
AcDbEntity
  8
LOGO
 62
     5
100
AcDbTrace
 10
2.757289445372236
 20
218.5413626697571
 30
0.0
 11
3.284261834626761
 21
218.5413626697571
 31
0.0
 12
2.757289445372236
 22
215.9065007234798
 32
0.0
 13
3.284261834626761
 23
215.9065007234798
 33
0.0
  0
SOLID
  5
4094
330
1F
100
AcDbEntity
  8
LOGO
 62
     5
100
AcDbTrace
 10
2.757289445372236
 20
215.9065007234798
 30
0.0
 11
3.284261834626761
 21
215.9065007234798
 31
0.0
 12
4.768257099025504
 22
218.5413626697571
 32
0.0
 13
5.295229488280824
 23
218.5413626697571
 33
0.0
  0
SOLID
  5
4095
330
1F
100
AcDbEntity
  8
LOGO
 62
     5
100
AcDbTrace
 10
4.768257099025504
 20
218.5413626697571
 30
0.0
 11
5.295229488280824
 21
218.5413626697571
 31
0.0
 12
4.768257099025504
 22
215.9065007234798
 32
0.0
 13
5.295229488280824
 23
215.9065007234798
 33
0.0
  0
POLYLINE
  5
4096
330
1F
100
AcDbEntity
  8
LOGO
 62
     5
100
AcDb2dPolyline
 66
     1
 10
0.0
 20
0.0
 30
0.0
 40
0.5278168962895926
 41
0.5278168962895926
  0
VERTEX
  5
4097
330
4096
100
AcDbEntity
  8
LOGO
 62
     5
100
AcDbVertex
100
AcDb2dVertex
 10
22.43219207146376
 20
217.4874178912461
 30
0.0
 42
1.0
  0
VERTEX
  5
4098
330
4096
100
AcDbEntity
  8
LOGO
 62
     5
100
AcDbVertex
100
AcDb2dVertex
 10
20.84874138259465
 20
217.4874178912461
 30
0.0
 42
1.0
  0
SEQEND
  5
4099
330
4096
100
AcDbEntity
  8
LOGO
 62
     5
  0
POLYLINE
  5
409A
330
1F
100
AcDbEntity
  8
LOGO
 62
     5
100
AcDb2dPolyline
 66
     1
 10
0.0
 20
0.0
 30
0.0
 70
     1
  0
VERTEX
  5
409B
330
409A
100
AcDbEntity
  8
LOGO
 62
     5
100
AcDbVertex
100
AcDb2dVertex
 10
17.86386640218944
 20
217.2239316966181
 30
0.0
 42
1.000000057330635
  0
VERTEX
  5
409C
330
409A
100
AcDbEntity
  8
LOGO
 62
     5
100
AcDbVertex
100
AcDb2dVertex
 10
19.44478356995614
 20
217.2239316966181
 30
0.0
 42
1.000000057330635
  0
SEQEND
  5
409D
330
409A
100
AcDbEntity
  8
LOGO
 62
     5
  0
CIRCLE
  5
409E
330
1F
100
AcDbEntity
  8
LOGO
 62
     5
100
AcDbCircle
 10
18.65432498607401
 20
217.2239316966181
 30
0.0
 40
0.7904585838832942
  0
POLYLINE
  5
409F
330
1F
100
AcDbEntity
  8
LOGO
 62
     5
100
AcDb2dPolyline
 66
     1
 10
0.0
 20
0.0
 30
0.0
 70
     1
 40
0.5278168962895926
 41
0.5278168962895926
  0
VERTEX
  5
40A0
330
409F
100
AcDbEntity
  8
LOGO
 62
     5
100
AcDbVertex
100
AcDb2dVertex
 10
17.59869119349406
 20
217.2239316966181
 30
0.0
 42
1.0
  0
VERTEX
  5
40A1
330
409F
100
AcDbEntity
  8
LOGO
 62
     5
100
AcDbVertex
100
AcDb2dVertex
 10
19.70995877865232
 20
217.2239316966181
 30
0.0
 42
1.0
  0
SEQEND
  5
40A2
330
409F
100
AcDbEntity
  8
LOGO
 62
     5
  0
LINE
  5
40A3
330
1F
100
AcDbEntity
  8
LOGO
100
AcDbLine
 10
22.69441150553939
 20
215.9065007234798
 30
0.0
 11
22.69441150553939
 21
217.4874178912461
 31
0.0
  0
SOLID
  5
40A4
330
1F
100
AcDbEntity
  8
LOGO
 62
     5
100
AcDbTrace
 10
19.44473087271956
 20
218.5413626697571
 30
0.0
 11
19.97170326197408
 21
218.5413626697571
 31
0.0
 12
19.44473087271956
 22
215.9065007234798
 32
0.0
 13
19.97170326197408
 23
215.9065007234798
 33
0.0
  0
SOLID
  5
40A5
330
1F
100
AcDbEntity
  8
LOGO
 62
     5
100
AcDbTrace
 10
20.58652194851743
 20
215.9065007234798
 30
0.0
 11
21.11349433777355
 21
215.9065007234798
 31
0.0
 12
20.58652194851743
 22
218.5413626697571
 32
0.0
 13
21.11349433777355
 23
218.5413626697571
 33
0.0
  0
SOLID
  5
40A6
330
1F
100
AcDbEntity
  8
LOGO
 62
     5
100
AcDbTrace
 10
22.16743911628492
 20
217.4874178912461
 30
0.0
 11
22.69441150553939
 21
217.4874178912461
 31
0.0
 12
22.16743911628492
 22
215.9065007234798
 32
0.0
 13
22.69441150553939
 23
215.9065007234798
 33
0.0
  0
SOLID
  5
40A7
330
1F
100
AcDbEntity
  8
LOGO
 62
     5
100
AcDbTrace
 10
20.53382470959173
 20
234.5086260641994
 30
0.0
 11
19.00560478075158
 21
228.9051529917822
 31
0.0
 12
20.53382470959173
 22
221.1762246160344
 32
0.0
 13
19.00560478075158
 23
221.1762246160344
 33
0.0
  0
SOLID
  5
40A8
330
1F
100
AcDbEntity
  8
LOGO
 62
     5
100
AcDbTrace
 10
21.16619157669925
 20
221.1762246160344
 30
0.0
 11
22.69441150553939
 21
221.1762246160344
 31
0.0
 12
21.16619157669925
 22
235.6679653205614
 32
0.0
 13
22.69441150553939
 23
235.6679653205622
 33
0.0
  0
SOLID
  5
40A9
330
1F
100
AcDbEntity
  8
LOGO
 62
     2
100
AcDbTrace
 10
20.53382470959173
 20
235.6679653205622
 30
0.0
 11
21.16619157669925
 21
235.6679653205614
 31
0.0
 12
20.53382470959173
 22
221.1762246160344
 32
0.0
 13
21.16619157669925
 23
221.1762246160344
 33
0.0
  0
POLYLINE
  5
40AA
330
1F
100
AcDbEntity
  8
LOGO
 62
     5
100
AcDb2dPolyline
 66
     1
 10
0.0
 20
0.0
 30
0.0
 40
0.5278168962895926
 41
0.5278168962895926
  0
VERTEX
  5
40AB
330
40AA
100
AcDbEntity
  8
LOGO
 62
     5
100
AcDbVertex
100
AcDb2dVertex
 10
14.87888602730868
 20
217.4874178912461
 30
0.0
 42
1.0
  0
VERTEX
  5
40AC
330
40AA
100
AcDbEntity
  8
LOGO
 62
     5
100
AcDbVertex
100
AcDb2dVertex
 10
13.29543533843963
 20
217.4874178912461
 30
0.0
 42
1.0
  0
SEQEND
  5
40AD
330
40AA
100
AcDbEntity
  8
LOGO
 62
     5
  0
POLYLINE
  5
40AE
330
1F
100
AcDbEntity
  8
LOGO
 62
     5
100
AcDb2dPolyline
 66
     1
 10
0.0
 20
0.0
 30
0.0
 40
0.5278168962895926
 41
0.5278168962895926
  0
VERTEX
  5
40AF
330
40AE
100
AcDbEntity
  8
LOGO
 62
     5
100
AcDbVertex
100
AcDb2dVertex
 10
16.45980319507379
 20
217.4874178912461
 30
0.0
 42
1.0
  0
VERTEX
  5
40B0
330
40AE
100
AcDbEntity
  8
LOGO
 62
     5
100
AcDbVertex
100
AcDb2dVertex
 10
14.87635250620548
 20
217.4874178912461
 30
0.0
 42
1.0
  0
SEQEND
  5
40B1
330
40AE
100
AcDbEntity
  8
LOGO
 62
     5
  0
POLYLINE
  5
40B2
330
1F
100
AcDbEntity
  8
LOGO
 62
     5
100
AcDb2dPolyline
 66
     1
 10
0.0
 20
0.0
 30
0.0
 40
0.5278168962895926
 41
0.5278168962895926
  0
VERTEX
  5
40B3
330
40B2
100
AcDbEntity
  8
LOGO
 62
     5
100
AcDbVertex
100
AcDb2dVertex
 10
8.90649715091871
 20
217.4874178912461
 30
0.0
 42
1.0
  0
VERTEX
  5
40B4
330
40B2
100
AcDbEntity
  8
LOGO
 62
     5
100
AcDbVertex
100
AcDb2dVertex
 10
7.323046462050399
 20
217.4874178912461
 30
0.0
 42
1.0
  0
SEQEND
  5
40B5
330
40B2
100
AcDbEntity
  8
LOGO
 62
     5
  0
SOLID
  5
40B6
330
1F
100
AcDbEntity
  8
LOGO
 62
     5
100
AcDbTrace
 10
7.060827027973971
 20
218.5413626697571
 30
0.0
 11
7.587799417228438
 21
218.5413626697571
 31
0.0
 12
7.060827027973971
 22
215.9065007234798
 32
0.0
 13
7.587799417228438
 23
215.9065007234798
 33
0.0
  0
SOLID
  5
40B7
330
1F
100
AcDbEntity
  8
LOGO
 62
     5
100
AcDbTrace
 10
8.64174419574067
 20
217.4874178912461
 30
0.0
 11
9.16871658499673
 21
217.4874178912461
 31
0.0
 12
8.64174419574067
 22
215.9065007234798
 32
0.0
 13
9.16871658499673
 23
215.9065007234798
 33
0.0
  0
POLYLINE
  5
40B8
330
1F
100
AcDbEntity
  8
LOGO
 62
     5
100
AcDb2dPolyline
 66
     1
 10
0.0
 20
0.0
 30
0.0
 70
     1
 40
0.5278168962895926
 41
0.5278168962895926
  0
VERTEX
  5
40B9
330
40B8
100
AcDbEntity
  8
LOGO
 62
     5
100
AcDbVertex
100
AcDb2dVertex
 10
10.04538514933819
 20
217.2239316966181
 30
0.0
 42
1.0
  0
VERTEX
  5
40BA
330
40B8
100
AcDbEntity
  8
LOGO
 62
     5
100
AcDbVertex
100
AcDb2dVertex
 10
12.1566527344973
 20
217.2239316966181
 30
0.0
 42
1.0
  0
SEQEND
  5
40BB
330
40B8
100
AcDbEntity
  8
LOGO
 62
     5
  0
SOLID
  5
40BC
330
1F
100
AcDbEntity
  8
LOGO
 62
     5
100
AcDbTrace
 10
11.89142482856289
 20
219.3318212536409
 30
0.0
 11
12.41839721781821
 21
219.3318212536409
 31
0.0
 12
11.89142482856289
 22
215.9065007234798
 32
0.0
 13
12.41839721781821
 23
215.9065007234798
 33
0.0
  0
SOLID
  5
40BD
330
1F
100
AcDbEntity
  8
LOGO
 62
     5
100
AcDbTrace
 10
13.033215904364
 20
218.5413626697571
 30
0.0
 11
13.56018829361846
 21
218.5413626697571
 31
0.0
 12
13.033215904364
 22
215.9065007234798
 32
0.0
 13
13.56018829361846
 23
215.9065007234798
 33
0.0
  0
SOLID
  5
40BE
330
1F
100
AcDbEntity
  8
LOGO
 62
     5
100
AcDbTrace
 10
14.61413307212905
 20
217.4874178912461
 30
0.0
 11
15.14110546138516
 21
217.4874178912461
 31
0.0
 12
14.61413307212905
 22
215.9065007234798
 32
0.0
 13
15.14110546138516
 23
215.9065007234798
 33
0.0
  0
SOLID
  5
40BF
330
1F
100
AcDbEntity
  8
LOGO
 62
     5
100
AcDbTrace
 10
16.19505023989575
 20
217.4874178912461
 30
0.0
 11
16.72202262915101
 21
217.4874178912461
 31
0.0
 12
16.19505023989575
 22
215.9065007234791
 32
0.0
 13
16.72202262915101
 23
215.9065007234791
 33
0.0
  0
SOLID
  5
40C0
330
1F
100
AcDbEntity
  8
LOGO
 62
     5
100
AcDbTrace
 10
5.919035952173715
 20
218.9102433422361
 30
0.0
 11
6.446008341430626
 21
218.9102433422361
 31
0.0
 12
5.919035952173715
 22
219.3318212536409
 32
0.0
 13
6.446008341430626
 23
219.3318212536409
 33
0.0
  0
SOLID
  5
40C1
330
1F
100
AcDbEntity
  8
LOGO
 62
     5
100
AcDbTrace
 10
5.919035952173715
 20
218.5413626697571
 30
0.0
 11
6.446008341430626
 21
218.5413626697571
 31
0.0
 12
5.919035952173715
 22
215.9065007234791
 32
0.0
 13
6.446008341430626
 23
215.9065007234798
 33
0.0
  0
SOLID
  5
40C2
330
1F
100
AcDbEntity
  8
LOGO
 62
     5
100
AcDbTrace
 10
11.10101894191734
 20
221.1762246160348
 30
0.0
 11
12.62923887075914
 21
221.1762246160348
 31
0.0
 12
11.10101894191734
 22
228.9051529917822
 32
0.0
 13
12.62923887075914
 23
234.5086260641994
 33
0.0
  0
SOLID
  5
40C3
330
1F
100
AcDbEntity
  8
LOGO
 62
     5
100
AcDbTrace
 10
13.2616057378666
 20
235.6679653205614
 30
0.0
 11
14.7898256667068
 21
235.6679653205622
 31
0.0
 12
13.2616057378666
 22
222.3355638723967
 32
0.0
 13
14.7898256667068
 23
227.939036944814
 33
0.0
  0
SOLID
  5
40C4
330
1F
100
AcDbEntity
  8
LOGO
 62
     2
100
AcDbTrace
 10
12.62923887075914
 20
235.6679653205614
 30
0.0
 11
13.2616057378666
 21
235.6679653205614
 31
0.0
 12
12.62923887075914
 22
221.1762246160348
 32
0.0
 13
13.2616057378666
 23
221.1762246160348
 33
0.0
  0
SOLID
  5
40C5
330
1F
100
AcDbEntity
  8
LOGO
 62
     5
100
AcDbTrace
 10
13.2616057378666
 20
222.3355638723967
 30
0.0
 11
14.7898256667068
 21
227.939036944814
 31
0.0
 12
20.53382470959173
 22
235.6679653205622
 32
0.0
 13
19.00560478075158
 23
235.6679653205622
 33
0.0
  0
SOLID
  5
40C6
330
1F
100
AcDbEntity
  8
LOGO
 62
     5
100
AcDbTrace
 10
13.2616057378666
 20
221.1762246160348
 30
0.0
 11
14.7898256667068
 21
221.1762246160348
 31
0.0
 12
20.53382470959173
 22
234.5086260641994
 32
0.0
 13
19.00560478075158
 23
228.9051529917822
 33
0.0
  0
SOLID
  5
40C7
330
1F
100
AcDbEntity
  8
LOGO
 62
     2
100
AcDbTrace
 10
12.62923887075914
 20
221.1762246160348
 30
0.0
 11
13.2616057378666
 21
221.1762246160348
 31
0.0
 12
20.53382470959173
 22
235.6679653205622
 32
0.0
 13
21.16619157669925
 23
235.6679653205614
 33
0.0
  0
TEXT
  5
40C8
330
1F
100
AcDbEntity
  8
LOGO
100
AcDbText
 10
78.69006910500482
 20
203.043022333527
 30
0.0
 40
3.535
  1
10707265
 41
0.7
  7
CHINESET
 72
     1
 11
87.52756910500483
 21
203.043022333527
 31
0.0
100
AcDbText
  0
LINE
  5
40C9
330
1F
100
AcDbEntity
  8
LOGO
 62
     4
100
AcDbLine
 10
98.49808411415734
 20
208.2316648804896
 30
0.0
 11
98.49808411415892
 21
201.1626885908964
 31
0.0
  0
LINE
  5
40CA
330
1F
100
AcDbEntity
  8
LOGO
 62
     4
100
AcDbLine
 10
98.49808411415734
 20
208.2316648804896
 30
0.0
 11
77.28808411415889
 21
208.2316648804896
 31
0.0
  0
LINE
  5
40CB
330
1F
100
AcDbEntity
  8
LOGO
  6
AM_ISO08W050x2
 48
0.3
100
AcDbLine
 10
57.44037861063754
 20
225.9116659004774
 30
0.0
 11
63.09837479415302
 21
225.9116659004774
 31
0.0
1001
GENIUS_GENOREF_13
1005
40D0
  0
LINE
  5
40CC
330
1F
100
AcDbEntity
  8
LOGO
  6
AM_ISO08W050x2
 48
0.3
100
AcDbLine
 10
60.26937670239528
 20
223.0826678087197
 30
0.0
 11
60.26937670239528
 21
228.7406639922351
 31
0.0
1001
GENIUS_GENOREF_13
1005
40CF
  0
LINE
  5
40CD
330
1F
100
AcDbEntity
  8
LOGO
  6
CENTER
 48
0.5
100
AcDbLine
 10
66.21762723110663
 20
225.9116659004774
 30
0.0
 11
73.81352145366958
 21
225.9116659004774
 31
0.0
1001
GENIUS_GENOREF_13
1005
40CE
  0
POINT
  5
40CE
330
1F
100
AcDbEntity
  8
0
 60
     1
100
AcDbPoint
 10
-2072.811814811345
 20
-938.5982033876929
 30
0.0
1001
GENIUS_GENOBJ-N-CRS_13
1002
{
1000
OWNER
1000
GEN
1002
}
1001
GENIUS_GENOLIS_13
1002
{
1000
ENT
1005
0
1005
0
1005
0
1005
40CD
1002
}
1001
GENIUS_GENOENT_13
1002
{
1000
MYREF
1005
40CE
1002
}
1002
{
1000
GRP
1005
0
1002
}
1001
GENIUS_GENODEF_13
1002
{
1000
HIER
1070
    10
1002
}
1002
{
1000
MANEDIT
1070
     1
1002
}
1002
{
1000
NOSEL
1070
     0
1002
}
1002
{
1000
BEHIND
1070
     0
1002
}
1002
{
1000
OTHER
1070
     0
1002
}
1002
{
1000
REACTOR
1002
}
  0
POINT
  5
40CF
330
1F
100
AcDbEntity
  8
0
 60
     1
100
AcDbPoint
 10
-2084.136400034199
 20
-929.7226169090567
 30
0.0
1001
GENIUS_GENOBJ-N-CRS_13
1002
{
1000
OWNER
1000
GEN
1002
}
1001
GENIUS_GENOLIS_13
1002
{
1000
ENT
1005
0
1005
0
1005
0
1005
40CC
1002
}
1001
GENIUS_GENOENT_13
1002
{
1000
MYREF
1005
40CF
1002
}
1002
{
1000
GRP
1005
0
1002
}
1001
GENIUS_GENODEF_13
1002
{
1000
HIER
1070
    10
1002
}
1002
{
1000
MANEDIT
1070
     1
1002
}
1002
{
1000
NOSEL
1070
     0
1002
}
1002
{
1000
BEHIND
1070
     0
1002
}
1002
{
1000
OTHER
1070
     0
1002
}
1002
{
1000
REACTOR
1002
}
  0
POINT
  5
40D0
330
1F
100
AcDbEntity
  8
0
 60
     1
100
AcDbPoint
 10
-2077.777726336362
 20
-938.5982033876929
 30
0.0
1001
GENIUS_GENOBJ-N-CRS_13
1002
{
1000
OWNER
1000
GEN
1002
}
1001
GENIUS_GENOLIS_13
1002
{
1000
ENT
1005
0
1005
0
1005
0
1005
40CB
1002
}
1001
GENIUS_GENOENT_13
1002
{
1000
MYREF
1005
40D0
1002
}
1002
{
1000
GRP
1005
0
1002
}
1001
GENIUS_GENODEF_13
1002
{
1000
HIER
1070
    10
1002
}
1002
{
1000
MANEDIT
1070
     1
1002
}
1002
{
1000
NOSEL
1070
     0
1002
}
1002
{
1000
BEHIND
1070
     0
1002
}
1002
{
1000
OTHER
1070
     0
1002
}
1002
{
1000
REACTOR
1002
}
  0
LINE
  5
43B2
330
1F
100
AcDbEntity
  8
0
100
AcDbLine
 10
159.0794417028771
 20
481.6259877570823
 30
0.0
 11
159.0794417028756
 21
470.3363877570828
 31
0.0
  0
LINE
  5
43B3
330
1F
100
AcDbEntity
  8
0
100
AcDbLine
 10
186.8862201683633
 20
477.8627877570827
 30
0.0
 11
186.8862201683635
 21
470.3363877570827
 31
0.0
  0
LINE
  5
43B4
330
1F
100
AcDbEntity
  8
0
100
AcDbLine
 10
172.636611426833
 20
481.6259877570823
 30
0.0
 11
172.6366114268336
 21
470.3363877570828
 31
0.0
  0
LINE
  5
43B5
330
1F
100
AcDbEntity
  8
0
100
AcDbLine
 10
159.0794417028773
 20
470.3363877570827
 30
0.0
 11
229.635046392953
 21
470.3363877570827
 31
0.0
  0
LINE
  5
43B6
330
1F
100
AcDbEntity
  8
0
100
AcDbLine
 10
159.0794417028773
 20
474.0995877570827
 30
0.0
 11
229.6350463929528
 21
474.0995877570827
 31
0.0
  0
TEXT
  5
43B7
330
1F
100
AcDbEntity
  8
0
100
AcDbText
 10
165.2824741311839
 20
470.9760772336734
 30
0.0
 40
2.362676112418407
  1
5
 41
0.8
  7
CHINESET
 72
     4
 11
165.9125210944955
 21
472.1574152898826
 31
0.0
100
AcDbText
  0
TEXT
  5
43B8
330
1F
100
AcDbEntity
  8
0
100
AcDbText
 10
162.3361328876524
 20
475.010027937348
 30
0.0
 40
1.881599999999999
  1
Stroke
 41
0.8
  7
CHINESET
100
AcDbText
  0
TEXT
  5
43B9
330
1F
100
AcDbEntity
  8
0
100
AcDbText
 10
177.5501006607604
 20
470.9955724793561
 30
0.0
 40
2.351999999999999
  1
29.5
 41
0.8
  7
CHINESET
100
AcDbText
  0
LINE
  5
43BA
330
1F
100
AcDbEntity
  8
0
100
AcDbLine
 10
159.0794417028771
 20
481.6259877570824
 30
0.0
 11
229.6350463929523
 21
481.6259877570824
 31
0.0
  0
INSERT
  5
43BB
330
1F
100
AcDbEntity
  8
0
100
AcDbBlockReference
  2
A$C5ECF147B
 10
158.574601240395
 20
470.6665092509902
 30
0.0
 41
0.7526400000000285
 42
0.7526400000000285
 43
0.75264
  0
LINE
  5
43BC
330
1F
100
AcDbEntity
  8
0
100
AcDbLine
 10
159.0794417028772
 20
477.8627877570826
 30
0.0
 11
229.6350463929527
 21
477.8627877570826
 31
0.0
  0
TEXT
  5
43BD
330
1F
100
AcDbEntity
  8
0
100
AcDbText
 10
178.4667247002218
 20
474.7587724793561
 30
0.0
 40
2.351999999999999
  1
S
 41
0.8
  7
CHINESET
100
AcDbText
  0
TEXT
  5
43BE
330
1F
100
AcDbEntity
  8
0
100
AcDbText
 10
175.8665907933173
 20
478.5390353247164
 30
0.0
 40
2.351999999999999
  1
Without magnet
 41
0.8
  7
CHINESET
100
AcDbText
  0
LINE
  5
43BF
330
1F
100
AcDbEntity
  8
0
100
AcDbLine
 10
201.1358289098932
 20
481.6259877570824
 30
0.0
 11
201.1358289098934
 21
470.3363877570825
 31
0.0
  0
TEXT
  5
43C0
330
1F
100
AcDbEntity
  8
0
100
AcDbText
 10
191.3902033120744
 20
470.9955724793559
 30
0.0
 40
2.351999999999999
  1
54.5
 41
0.8
  7
CHINESET
100
AcDbText
  0
TEXT
  5
43C1
330
1F
100
AcDbEntity
  8
0
100
AcDbText
 10
192.7163334417519
 20
474.7587724793561
 30
0.0
 40
2.351999999999999
  1
ZZ
 41
0.8
  7
CHINESET
100
AcDbText
  0
LINE
  5
43C2
330
1F
100
AcDbEntity
  8
0
100
AcDbLine
 10
215.385437651423
 20
477.8627877570827
 30
0.0
 11
215.3854376514232
 21
470.3363877570827
 31
0.0
  0
TEXT
  5
43C3
330
1F
100
AcDbEntity
  8
0
100
AcDbText
 10
204.7959542564629
 20
470.9955724793561
 30
0.0
 40
2.351999999999999
  1
39.5
 41
0.8
  7
CHINESET
100
AcDbText
  0
TEXT
  5
43C4
330
1F
100
AcDbEntity
  8
0
100
AcDbText
 10
206.9659421832816
 20
474.7587724793561
 30
0.0
 40
2.351999999999999
  1
S
 41
0.8
  7
CHINESET
100
AcDbText
  0
TEXT
  5
43C5
330
1F
100
AcDbEntity
  8
0
100
AcDbText
 10
206.3386476600654
 20
478.5390353247164
 30
0.0
 40
2.351999999999999
  1
With magnet
 41
0.8
  7
CHINESET
100
AcDbText
  0
TEXT
  5
43C6
330
1F
100
AcDbEntity
  8
0
100
AcDbText
 10
219.8894207951341
 20
470.9955724793559
 30
0.0
 40
2.351999999999999
  1
64.5
 41
0.8
  7
CHINESET
100
AcDbText
  0
TEXT
  5
43C7
330
1F
100
AcDbEntity
  8
0
100
AcDbText
 10
221.2155509248116
 20
474.7587724793561
 30
0.0
 40
2.351999999999999
  1
ZZ
 41
0.8
  7
CHINESET
100
AcDbText
  0
LINE
  5
43C8
330
1F
100
AcDbEntity
  8
0
100
AcDbLine
 10
229.6350463929528
 20
481.6259877570824
 30
0.0
 11
229.635046392953
 21
470.3363877570825
 31
0.0
  0
INSERT
  5
43C9
330
1F
100
AcDbEntity
  8
0
100
AcDbBlockReference
  2
A$C5ECF147B
 10
176.4859278898552
 20
470.6665092509902
 30
0.0
 41
0.7526400000000285
 42
0.7526400000000285
 43
0.75264
  0
INSERT
  5
43CA
330
1F
100
AcDbEntity
  8
0
100
AcDbBlockReference
  2
A$C5ECF147B
 10
190.735536631385
 20
470.66650925099
 30
0.0
 41
0.7526400000000285
 42
0.7526400000000285
 43
0.75264
  0
LEADER
  5
451B
330
1F
100
AcDbEntity
  8
DIM
100
AcDbLeader
  3
AM_ANSI$7
 73
     0
 74
     0
 75
     1
 40
8.666666666666666
 41
24.57142857142857
 76
     3
 10
212.288728597956
 20
303.5698310939845
 30
0.0
 10
220.3680641048552
 20
309.7955876179848
 30
0.0
 10
222.3680641048552
 20
309.7955876179848
 30
0.0
340
451C
213
-0.1905629376930165
223
0.2179465301056638
233
0.0
1001
ACAD
1000
DSTYLE
1002
{
1070
    41
1040
2.0
1070
    42
1040
1.5
1070
    43
1040
8.0
1070
    44
1040
1.5
1070
    73
1070
     0
1070
    74
1070
     0
1070
    77
1070
     3
1070
   140
1040
2.0
1070
   141
1040
3.0
1070
   146
1040
0.6
1070
   147
1040
1.0
1070
   172
1070
     1
1070
   178
1070
   256
1070
   272
1070
     2
1070
   274
1070
     2
1070
   340
1005
375C
1002
}
  0
MTEXT
  5
451C
102
{ACAD_REACTORS
330
451B
102
}
330
1F
100
AcDbEntity
  8
DIM
100
AcDbMText
 10
223.5586270425482
 20
319.2443077545458
 30
0.0
 40
2.0
 41
0.0
 71
     1
 72
     1
  1
%%C9*7 depth\PM6*1.0*10 depth\P%%C5.1 thru
  7
dayus
 73
     1
 44
1.0
1001
ACAD
1000
MTEXTBEGIN
1070
    73
1070
     1
1070
    44
1040
1.0
1070
    74
1070
     0
1000
MTEXTEND
  0
TEXT
  5
451F
330
1F
100
AcDbEntity
  8
0
100
AcDbText
 10
5.575756269376597
 20
362.1900994700596
 30
0.0
 40
4.0
  1
12 type
  7
CHINESET
100
AcDbText
  0
LINE
  5
4528
330
1F
100
AcDbEntity
  8
0
100
AcDbLine
 10
159.0794417028771
 20
354.4457871698996
 30
0.0
 11
159.0794417028756
 21
343.1561871699002
 31
0.0
  0
LINE
  5
4529
330
1F
100
AcDbEntity
  8
0
100
AcDbLine
 10
186.8862201683633
 20
350.6825871699001
 30
0.0
 11
186.8862201683635
 21
343.1561871699
 31
0.0
  0
LINE
  5
452A
330
1F
100
AcDbEntity
  8
0
100
AcDbLine
 10
172.636611426833
 20
354.4457871698996
 30
0.0
 11
172.6366114268336
 21
343.1561871699002
 31
0.0
  0
LINE
  5
452B
330
1F
100
AcDbEntity
  8
0
100
AcDbLine
 10
159.0794417028773
 20
343.1561871699
 30
0.0
 11
229.635046392953
 21
343.1561871699
 31
0.0
  0
LINE
  5
452C
330
1F
100
AcDbEntity
  8
0
100
AcDbLine
 10
159.0794417028773
 20
346.9193871699
 30
0.0
 11
229.6350463929528
 21
346.9193871699
 31
0.0
  0
TEXT
  5
452D
330
1F
100
AcDbEntity
  8
0
100
AcDbText
 10
165.2824741311839
 20
343.7958766464908
 30
0.0
 40
2.362676112418407
  1
5
 41
0.8
  7
CHINESET
 72
     4
 11
165.9125210944955
 21
344.9772147026999
 31
0.0
100
AcDbText
  0
TEXT
  5
452E
330
1F
100
AcDbEntity
  8
0
100
AcDbText
 10
162.3361328876524
 20
347.8298273501653
 30
0.0
 40
1.881599999999999
  1
Stroke
 41
0.8
  7
CHINESET
100
AcDbText
  0
TEXT
  5
452F
330
1F
100
AcDbEntity
  8
0
100
AcDbText
 10
177.5501006607604
 20
343.8153718921734
 30
0.0
 40
2.351999999999999
  1
29.5
 41
0.8
  7
CHINESET
100
AcDbText
  0
LINE
  5
4530
330
1F
100
AcDbEntity
  8
0
100
AcDbLine
 10
159.0794417028771
 20
354.4457871698997
 30
0.0
 11
229.6350463929523
 21
354.4457871698997
 31
0.0
  0
INSERT
  5
4531
330
1F
100
AcDbEntity
  8
0
100
AcDbBlockReference
  2
A$C5ECF147B
 10
158.574601240395
 20
343.4863086638076
 30
0.0
 41
0.7526400000000285
 42
0.7526400000000285
 43
0.75264
  0
LINE
  5
4532
330
1F
100
AcDbEntity
  8
0
100
AcDbLine
 10
159.0794417028772
 20
350.6825871699
 30
0.0
 11
229.6350463929527
 21
350.6825871699
 31
0.0
  0
TEXT
  5
4533
330
1F
100
AcDbEntity
  8
0
100
AcDbText
 10
178.4667247002218
 20
347.5785718921735
 30
0.0
 40
2.351999999999999
  1
S
 41
0.8
  7
CHINESET
100
AcDbText
  0
TEXT
  5
4534
330
1F
100
AcDbEntity
  8
0
100
AcDbText
 10
175.8665907933173
 20
351.3588347375337
 30
0.0
 40
2.351999999999999
  1
Without magnet
 41
0.8
  7
CHINESET
100
AcDbText
  0
LINE
  5
4535
330
1F
100
AcDbEntity
  8
0
100
AcDbLine
 10
201.1358289098932
 20
354.4457871698997
 30
0.0
 11
201.1358289098934
 21
343.1561871698998
 31
0.0
  0
TEXT
  5
4536
330
1F
100
AcDbEntity
  8
0
100
AcDbText
 10
191.3902033120744
 20
343.8153718921733
 30
0.0
 40
2.351999999999999
  1
36.5
 41
0.8
  7
CHINESET
100
AcDbText
  0
TEXT
  5
4537
330
1F
100
AcDbEntity
  8
0
100
AcDbText
 10
192.7163334417519
 20
347.5785718921735
 30
0.0
 40
2.351999999999999
  1
ZZ
 41
0.8
  7
CHINESET
100
AcDbText
  0
LINE
  5
4538
330
1F
100
AcDbEntity
  8
0
100
AcDbLine
 10
215.385437651423
 20
350.6825871699001
 30
0.0
 11
215.3854376514232
 21
343.1561871699
 31
0.0
  0
TEXT
  5
4539
330
1F
100
AcDbEntity
  8
0
100
AcDbText
 10
204.7959542564629
 20
343.8153718921734
 30
0.0
 40
2.351999999999999
  1
39.5
 41
0.8
  7
CHINESET
100
AcDbText
  0
TEXT
  5
453A
330
1F
100
AcDbEntity
  8
0
100
AcDbText
 10
206.9659421832816
 20
347.5785718921735
 30
0.0
 40
2.351999999999999
  1
S
 41
0.8
  7
CHINESET
100
AcDbText
  0
TEXT
  5
453B
330
1F
100
AcDbEntity
  8
0
100
AcDbText
 10
206.3386476600654
 20
351.3588347375337
 30
0.0
 40
2.351999999999999
  1
With magnet
 41
0.8
  7
CHINESET
100
AcDbText
  0
TEXT
  5
453C
330
1F
100
AcDbEntity
  8
0
100
AcDbText
 10
219.8894207951341
 20
343.8153718921733
 30
0.0
 40
2.351999999999999
  1
46.5
 41
0.8
  7
CHINESET
100
AcDbText
  0
TEXT
  5
453D
330
1F
100
AcDbEntity
  8
0
100
AcDbText
 10
221.2155509248116
 20
347.5785718921735
 30
0.0
 40
2.351999999999999
  1
ZZ
 41
0.8
  7
CHINESET
100
AcDbText
  0
LINE
  5
453E
330
1F
100
AcDbEntity
  8
0
100
AcDbLine
 10
229.6350463929528
 20
354.4457871698997
 30
0.0
 11
229.635046392953
 21
343.1561871698998
 31
0.0
  0
INSERT
  5
453F
330
1F
100
AcDbEntity
  8
0
100
AcDbBlockReference
  2
A$C5ECF147B
 10
176.4859278898552
 20
343.4863086638076
 30
0.0
 41
0.7526400000000285
 42
0.7526400000000285
 43
0.75264
  0
INSERT
  5
4540
330
1F
100
AcDbEntity
  8
0
100
AcDbBlockReference
  2
A$C5ECF147B
 10
190.735536631385
 20
343.4863086638073
 30
0.0
 41
0.7526400000000285
 42
0.7526400000000285
 43
0.75264
  0
LINE
  5
4753
330
1F
100
AcDbEntity
  8
AM_7
  6
ACISOTGB
 62
     2
100
AcDbLine
 10
84.55898860624335
 20
441.5021398479953
 30
0.0
 11
84.55898860624335
 21
387.5603095814367
 31
0.0
1001
GENIUS_GENOBJ-N-CEN_13
1002
{
1000
OWNER
1000
GEN
1002
}
1001
GENIUS_GENODEF_13
1002
{
1000
HIER
1070
     0
1002
}
1002
{
1000
MANEDIT
1070
     0
1002
}
1002
{
1000
NOSEL
1070
     0
1002
}
1002
{
1000
BEHIND
1070
     0
1002
}
1002
{
1000
OTHER
1070
     0
1002
}
1002
{
1000
REACTOR
1002
}
1001
GENIUS_GENCEN_19
1002
{
1040
3.0
1002
}
  0
INSERT
  5
4754
330
1F
100
AcDbEntity
  8
0
100
AcDbBlockReference
  2
A$C1F6E6265
 10
84.55898814203681
 20
388.7261288926946
 30
0.0
  0
LINE
  5
4756
330
1F
100
AcDbEntity
  8
AM_7
  6
ACISOTGB
 62
     2
100
AcDbLine
 10
84.55898860624335
 20
308.3580986554444
 30
0.0
 11
84.55898860624335
 21
254.4162683888858
 31
0.0
1001
GENIUS_GENOBJ-N-CEN_13
1002
{
1000
OWNER
1000
GEN
1002
}
1001
GENIUS_GENODEF_13
1002
{
1000
HIER
1070
     0
1002
}
1002
{
1000
MANEDIT
1070
     0
1002
}
1002
{
1000
NOSEL
1070
     0
1002
}
1002
{
1000
BEHIND
1070
     0
1002
}
1002
{
1000
OTHER
1070
     0
1002
}
1002
{
1000
REACTOR
1002
}
1001
GENIUS_GENCEN_19
1002
{
1040
3.0
1002
}
  0
INSERT
  5
4757
330
1F
100
AcDbEntity
  8
0
100
AcDbBlockReference
  2
A$C1F6E6265
 10
84.55898814203681
 20
255.5820877001436
 30
0.0
  0
ENDSEC
  0
SECTION
  2
OBJECTS
  0
DICTIONARY
  5
C
330
0
100
AcDbDictionary
281
     1
  3
ACAD_COLOR
350
35CE
  3
ACAD_GROUP
350
D
  3
ACAD_LAYOUT
350
1A
  3
ACAD_MATERIAL
350
35CD
  3
ACAD_MLINESTYLE
350
17
  3
ACAD_PLOTSETTINGS
350
19
  3
ACAD_PLOTSTYLENAME
350
E
  3
ACAD_TABLESTYLE
350
35CF
  3
AcadDim
350
1E82
  3
ACDBHEADERROUNDTRIPXREC
350
47E6
  3
AcDbVariableDictionary
350
1488
  3
AcmDictionary
350
3505
  3
AMG
350
34EC
  3
AMGSNAPSETTINGS
350
3538
  3
DWGPROPS
350
47E5
  0
DICTIONARY
  5
3766
330
2
100
AcDbDictionary
280
     1
281
     1
  3
ACAD_LAYERSTATES
360
3767
  0
DICTIONARY
  5
344C
330
1F
100
AcDbDictionary
280
     1
281
     1
  3
ACAD_INDEX
360
4780
  3
ACAD_LAYOUTSELFREF
360
35B4
  0
DICTIONARY
  5
344E
330
1B
100
AcDbDictionary
280
     1
281
     1
  3
ACAD_LAYOUTSELFREF
360
35B3
  0
DICTIONARY
  5
3450
330
23
100
AcDbDictionary
280
     1
281
     1
  3
ACAD_LAYOUTSELFREF
360
35B5
  0
DICTIONARY
  5
438F
330
438E
100
AcDbDictionary
280
     1
281
     1
  0
DICTIONARY
  5
473F
330
473E
100
AcDbDictionary
280
     1
281
     1
  3
ACAD_SORTENTS
360
4740
  0
DICTIONARY
  5
3A9B
330
3A9A
100
AcDbDictionary
280
     1
281
     1
  3
ACAD_DIMASSOC
360
3A9C
  0
DICTIONARY
  5
3A9E
330
3A9D
100
AcDbDictionary
280
     1
281
     1
  3
ACAD_DIMASSOC
360
3A9F
  0
DICTIONARY
  5
3AA1
330
3AA0
100
AcDbDictionary
280
     1
281
     1
  3
ACAD_DIMASSOC
360
3AA2
  0
DICTIONARY
  5
3AA4
330
3AA3
100
AcDbDictionary
280
     1
281
     1
  3
ACAD_DIMASSOC
360
3AA5
  0
DICTIONARY
  5
3AA7
330
3AA6
100
AcDbDictionary
280
     1
281
     1
  3
ACAD_DIMASSOC
360
3AA8
  0
DICTIONARY
  5
3AAA
330
3AA9
100
AcDbDictionary
280
     1
281
     1
  3
ACAD_DIMASSOC
360
3AAB
  0
DICTIONARY
  5
3AAD
330
3AAC
100
AcDbDictionary
280
     1
281
     1
  3
ACAD_DIMASSOC
360
3AAE
  0
DICTIONARY
  5
3AB0
330
3AAF
100
AcDbDictionary
280
     1
281
     1
  3
ACAD_DIMASSOC
360
3AB1
  0
DICTIONARY
  5
3AB3
330
3AB2
100
AcDbDictionary
280
     1
281
     1
  3
ACAD_DIMASSOC
360
3AB4
  0
DICTIONARY
  5
3AB6
330
3AB5
100
AcDbDictionary
280
     1
281
     1
  3
ACAD_DIMASSOC
360
3AB7
  0
DICTIONARY
  5
3AB9
330
3AB8
100
AcDbDictionary
280
     1
281
     1
  3
ACAD_DIMASSOC
360
3ABA
  0
DICTIONARY
  5
3AC0
330
3ABF
100
AcDbDictionary
280
     1
281
     1
  3
ACAD_DIMASSOC
360
3AC1
  0
DICTIONARY
  5
3AC5
330
3AC4
100
AcDbDictionary
280
     1
281
     1
  3
ACAD_DIMASSOC
360
3AC6
  0
DICTIONARY
  5
3AC8
330
3AC7
100
AcDbDictionary
280
     1
281
     1
  3
ACAD_DIMASSOC
360
3AC9
  0
DICTIONARY
  5
3ACB
330
3ACA
100
AcDbDictionary
280
     1
281
     1
  3
ACAD_DIMASSOC
360
3ACC
  0
DICTIONARY
  5
3ACE
330
3ACD
100
AcDbDictionary
280
     1
281
     1
  3
ACAD_DIMASSOC
360
3ACF
  0
DICTIONARY
  5
3AD1
330
3AD0
100
AcDbDictionary
280
     1
281
     1
  3
ACAD_DIMASSOC
360
3AD2
  0
DICTIONARY
  5
3AD6
330
3AD5
100
AcDbDictionary
280
     1
281
     1
  3
ACAD_DIMASSOC
360
3AD7
  0
DICTIONARY
  5
3AD9
330
3AD8
100
AcDbDictionary
280
     1
281
     1
  3
ACAD_DIMASSOC
360
3ADA
  0
DICTIONARY
  5
3ADC
330
3ADB
100
AcDbDictionary
280
     1
281
     1
  3
ACAD_DIMASSOC
360
3ADD
  0
DICTIONARY
  5
3ADF
330
3ADE
100
AcDbDictionary
280
     1
281
     1
  3
ACAD_DIMASSOC
360
3AE0
  0
DICTIONARY
  5
3AE2
330
3AE1
100
AcDbDictionary
280
     1
281
     1
  3
ACAD_DIMASSOC
360
3AE3
  0
DICTIONARY
  5
3AE5
330
3AE4
100
AcDbDictionary
280
     1
281
     1
  3
ACAD_DIMASSOC
360
3AE6
  0
DICTIONARY
  5
3AE8
330
3AE7
100
AcDbDictionary
280
     1
281
     1
  3
ACAD_DIMASSOC
360
3AE9
  0
DICTIONARY
  5
3AEB
330
3AEA
100
AcDbDictionary
280
     1
281
     1
  3
ACAD_DIMASSOC
360
3AEC
  0
DICTIONARY
  5
3AEE
330
3AED
100
AcDbDictionary
280
     1
281
     1
  3
ACAD_DIMASSOC
360
3AEF
  0
DICTIONARY
  5
3AF6
330
3AF5
100
AcDbDictionary
280
     1
281
     1
  3
ACAD_DIMASSOC
360
3AF7
  0
DICTIONARY
  5
3AF9
330
3AF8
100
AcDbDictionary
280
     1
281
     1
  3
ACAD_DIMASSOC
360
3AFA
  0
DICTIONARY
  5
3AFC
330
3AFB
100
AcDbDictionary
280
     1
281
     1
  3
ACAD_DIMASSOC
360
3AFD
  0
DICTIONARY
  5
3AFF
330
3AFE
100
AcDbDictionary
280
     1
281
     1
  3
ACAD_DIMASSOC
360
3B00
  0
DICTIONARY
  5
3B02
330
3B01
100
AcDbDictionary
280
     1
281
     1
  3
ACAD_DIMASSOC
360
3B03
  0
DICTIONARY
  5
35CE
102
{ACAD_REACTORS
330
C
102
}
330
C
100
AcDbDictionary
281
     1
  0
DICTIONARY
  5
D
102
{ACAD_REACTORS
330
C
102
}
330
C
100
AcDbDictionary
281
     1
  0
DICTIONARY
  5
1A
102
{ACAD_REACTORS
330
C
102
}
330
C
100
AcDbDictionary
281
     1
  3
Layout1
350
1E
  3
Layout2
350
26
  3
Model
350
22
  0
DICTIONARY
  5
35CD
102
{ACAD_REACTORS
330
C
102
}
330
C
100
AcDbDictionary
281
     1
  0
DICTIONARY
  5
17
102
{ACAD_REACTORS
330
C
102
}
330
C
100
AcDbDictionary
281
     1
  3
Standard
350
18
  0
DICTIONARY
  5
19
102
{ACAD_REACTORS
330
C
102
}
330
C
100
AcDbDictionary
281
     1
  0
ACDBDICTIONARYWDFLT
  5
E
102
{ACAD_REACTORS
330
C
102
}
330
C
100
AcDbDictionary
281
     1
  3
Normal
350
F
100
AcDbDictionaryWithDefault
340
F
1001
ACAD
1000
TREAT_AS_HARD
1070
     0
  0
DICTIONARY
  5
35CF
102
{ACAD_REACTORS
330
C
102
}
330
C
100
AcDbDictionary
281
     1
  3
Standard
350
35D0
  0
XRECORD
  5
1E82
102
{ACAD_REACTORS
330
C
102
}
330
C
100
AcDbXrecord
280
     1
 90
   990106
  3

 60
     0
 61
     0
 62
     4
 63
     4
 64
     1
 65
     0
 66
     0
 67
     3
 68
     1
 69
     0
 70
     0
 71
     0
 72
     0
 40
0.0
170
     2
340
0
  0
DICTIONARY
  5
47E6
102
{ACAD_REACTORS
330
C
102
}
330
C
100
AcDbDictionary
281
     1
  0
DICTIONARY
  5
1488
102
{ACAD_REACTORS
330
C
102
}
330
C
100
AcDbDictionary
281
     1
  3
CTABLESTYLE
350
3D1D
  3
DIMASSOC
350
3548
  3
INDEXCTL
350
3547
  3
PROJECTNAME
350
42E5
  3
SORTENTS
350
1489
  0
DICTIONARY
  5
3505
102
{ACAD_REACTORS
330
C
102
}
330
C
100
AcDbDictionary
281
     1
  3
AcmStdDictionary
350
350B
  3
AMDTSECTSYM_ARROWCOLOR
350
3F31
  0
DICTIONARY
  5
34EC
102
{ACAD_REACTORS
330
C
102
}
330
C
100
AcDbDictionary
281
     1
  0
DICTIONARY
  5
3538
102
{ACAD_REACTORS
330
C
102
}
330
C
100
AcDbDictionary
281
     1
  0
XRECORD
  5
47E5
102
{ACAD_REACTORS
330
C
102
}
330
C
100
AcDbXrecord
280
     1
  1
DWGPROPS COOKIE
  2

  3

  4

  6

  7

  8

  9

300
AmdtFileType=84
301
=
302
=
303
=
304
=
305
=
306
=
307
=
308
=
309
=
 40
0.6932595601851852
 41
2452019.631085301
 42
2454308.387734907
  1

 90
        1
  0
DICTIONARY
  5
3767
102
{ACAD_REACTORS
330
3766
102
}
330
3766
100
AcDbDictionary
281
     1
  0
DICTIONARY
  5
4780
102
{ACAD_REACTORS
330
344C
102
}
330
344C
100
AcDbDictionary
281
     1
  3
*A1
350
4781
  0
XRECORD
  5
35B4
102
{ACAD_REACTORS
330
344C
102
}
330
344C
100
AcDbXrecord
280
     1
340
1F
  0
XRECORD
  5
35B3
102
{ACAD_REACTORS
330
344E
102
}
330
344E
100
AcDbXrecord
280
     1
340
1B
  0
XRECORD
  5
35B5
102
{ACAD_REACTORS
330
3450
102
}
330
3450
100
AcDbXrecord
280
     1
340
23
  0
SORTENTSTABLE
  5
4740
102
{ACAD_REACTORS
330
473F
102
}
330
473F
100
AcDbSortentsTable
330
473E
  0
DIMASSOC
  5
3A9C
102
{ACAD_REACTORS
330
3A9B
102
}
330
3A9B
100
AcDbDimAssoc
330
3A9A
 90
        3
 70
     0
 71
     0
  1
AcDbOsnapPointRef
 72
     1
331
39D9
 73
     2
 91
        0
 40
1.0
 10
0.0
 20
0.0
 30
2.000000000000000E+50
 75
     0
  1
AcDbOsnapPointRef
 72
     1
331
39D8
 73
     2
 91
        0
 40
1.0
 10
0.0
 20
0.0
 30
2.000000000000000E+50
 75
     0
  0
DIMASSOC
  5
3A9F
102
{ACAD_REACTORS
330
3A9E
102
}
330
3A9E
100
AcDbDimAssoc
330
3A9D
 90
        3
 70
     0
 71
     0
  1
AcDbOsnapPointRef
 72
     1
331
39B9
 73
     2
 91
        0
 40
1.0
 10
0.0
 20
0.0
 30
2.000000000000000E+50
 75
     0
  1
AcDbOsnapPointRef
 72
     1
331
39C5
 73
     2
 91
        0
 40
0.9999999999999998
 10
0.0
 20
0.0
 30
2.000000000000000E+50
 75
     0
  0
DIMASSOC
  5
3AA2
102
{ACAD_REACTORS
330
3AA1
102
}
330
3AA1
100
AcDbDimAssoc
330
3AA0
 90
        3
 70
     0
 71
     0
  1
AcDbOsnapPointRef
 72
    13
331
39BA
 73
     2
 91
        0
 40
0.0
 10
0.0
 20
0.0
 30
2.000000000000000E+50
 75
     0
  1
AcDbOsnapPointRef
 72
     1
331
39C5
 73
     2
 91
        0
 40
0.9999999999999998
 10
0.0
 20
0.0
 30
2.000000000000000E+50
 75
     0
  0
DIMASSOC
  5
3AA5
102
{ACAD_REACTORS
330
3AA4
102
}
330
3AA4
100
AcDbDimAssoc
330
3AA3
 90
        3
 70
     0
 71
     0
  1
AcDbOsnapPointRef
 72
    13
331
39F0
 73
     2
 91
        0
 40
0.0
 10
0.0
 20
0.0
 30
2.000000000000000E+50
 75
     0
  1
AcDbOsnapPointRef
 72
     1
331
39C5
 73
     2
 91
        0
 40
0.9999999999999998
 10
0.0
 20
0.0
 30
2.000000000000000E+50
 75
     0
  0
DIMASSOC
  5
3AA8
102
{ACAD_REACTORS
330
3AA7
102
}
330
3AA7
100
AcDbDimAssoc
330
3AA6
 90
        3
 70
     0
 71
     0
  1
AcDbOsnapPointRef
 72
     1
331
39A5
 73
     2
 91
        0
 40
1.0
 10
0.0
 20
0.0
 30
2.000000000000000E+50
 75
     0
  1
AcDbOsnapPointRef
 72
     1
331
39A4
 73
     2
 91
        0
 40
1.0
 10
0.0
 20
0.0
 30
2.000000000000000E+50
 75
     0
  0
DIMASSOC
  5
3AAB
102
{ACAD_REACTORS
330
3AAA
102
}
330
3AAA
100
AcDbDimAssoc
330
3AA9
 90
        3
 70
     0
 71
     0
  1
AcDbOsnapPointRef
 72
     1
331
39F0
 73
     2
 91
        0
 40
1.0
 10
0.0
 20
0.0
 30
2.000000000000000E+50
 75
     0
  1
AcDbOsnapPointRef
 72
    13
331
39A9
 73
     2
 91
        0
 40
0.0
 10
0.0
 20
0.0
 30
2.000000000000000E+50
 75
     0
  0
DIMASSOC
  5
3AAE
102
{ACAD_REACTORS
330
3AAD
102
}
330
3AAD
100
AcDbDimAssoc
330
3AAC
 90
        3
 70
     0
 71
     0
  1
AcDbOsnapPointRef
 72
    13
331
39F8
 73
     2
 91
        0
 40
0.0
 10
0.0
 20
0.0
 30
2.000000000000000E+50
 75
     0
  1
AcDbOsnapPointRef
 72
    13
331
39F0
 73
     2
 91
        0
 40
0.0
 10
0.0
 20
0.0
 30
2.000000000000000E+50
 75
     0
  0
DIMASSOC
  5
3AB1
102
{ACAD_REACTORS
330
3AB0
102
}
330
3AB0
100
AcDbDimAssoc
330
3AAF
 90
        3
 70
     0
 71
     0
  1
AcDbOsnapPointRef
 72
    13
331
39F0
 73
     2
 91
        0
 40
0.0
 10
0.0
 20
0.0
 30
2.000000000000000E+50
 75
     0
  1
AcDbOsnapPointRef
 72
     1
331
39AC
 73
     2
 91
        0
 40
1.0
 10
0.0
 20
0.0
 30
2.000000000000000E+50
 75
     0
  0
DIMASSOC
  5
3AB4
102
{ACAD_REACTORS
330
3AB3
102
}
330
3AB3
100
AcDbDimAssoc
330
3AB2
 90
        3
 70
     0
 71
     0
  1
AcDbOsnapPointRef
 72
     1
331
39F0
 73
     2
 91
        0
 40
1.0
 10
0.0
 20
0.0
 30
2.000000000000000E+50
 75
     0
  1
AcDbOsnapPointRef
 72
     1
331
39C5
 73
     2
 91
        0
 40
0.9999999999999998
 10
0.0
 20
0.0
 30
2.000000000000000E+50
 75
     0
  0
DIMASSOC
  5
3AB7
102
{ACAD_REACTORS
330
3AB6
102
}
330
3AB6
100
AcDbDimAssoc
330
3AB5
 90
        3
 70
     0
 71
     0
  1
AcDbOsnapPointRef
 72
     6
331
39CA
 73
     2
 91
        0
 40
1.0
 10
0.0
 20
0.0
 30
0.0
332
39AA
 74
     2
 92
        0
 75
     0
  1
AcDbOsnapPointRef
 72
     1
331
39CB
 73
     2
 91
        0
 40
0.9999999999999998
 10
0.0
 20
0.0
 30
2.000000000000000E+50
 75
     0
  0
DIMASSOC
  5
3ABA
102
{ACAD_REACTORS
330
3AB9
102
}
330
3AB9
100
AcDbDimAssoc
330
3AB8
 90
        3
 70
     0
 71
     0
  1
AcDbOsnapPointRef
 72
    13
331
39AF
 73
     2
 91
        0
 40
4.712388980384689
 10
0.0
 20
0.0
 30
2.000000000000000E+50
 75
     0
  1
AcDbOsnapPointRef
 72
    13
331
39AB
 73
     2
 91
        0
 40
0.0
 10
0.0
 20
0.0
 30
2.000000000000000E+50
 75
     0
  0
DIMASSOC
  5
3AC1
102
{ACAD_REACTORS
330
3AC0
102
}
330
3AC0
100
AcDbDimAssoc
330
3ABF
 90
        3
 70
     0
 71
     0
  1
AcDbOsnapPointRef
 72
     6
331
39CE
 73
     2
 91
        0
 40
-0.0000000000001047
 10
0.0
 20
0.0
 30
0.0
332
39D0
 74
     2
 92
        0
 75
     0
  1
AcDbOsnapPointRef
 72
     1
331
39C0
 73
     2
 91
        0
 40
1.0
 10
0.0
 20
0.0
 30
2.000000000000000E+50
 75
     0
  0
DIMASSOC
  5
3AC6
102
{ACAD_REACTORS
330
3AC5
102
}
330
3AC5
100
AcDbDimAssoc
330
3AC4
 90
        3
 70
     0
 71
     0
  1
AcDbOsnapPointRef
 72
    13
331
396E
 73
     2
 91
        0
 40
0.0
 10
0.0
 20
0.0
 30
2.000000000000000E+50
 75
     0
  1
AcDbOsnapPointRef
 72
    13
331
396C
 73
     2
 91
        0
 40
0.0
 10
0.0
 20
0.0
 30
2.000000000000000E+50
 75
     0
  0
DIMASSOC
  5
3AC9
102
{ACAD_REACTORS
330
3AC8
102
}
330
3AC8
100
AcDbDimAssoc
330
3AC7
 90
        3
 70
     0
 71
     0
  1
AcDbOsnapPointRef
 72
    13
331
39A0
 73
     2
 91
        0
 40
0.0
 10
0.0
 20
0.0
 30
2.000000000000000E+50
 75
     0
  1
AcDbOsnapPointRef
 72
    13
331
3967
 73
     2
 91
        0
 40
0.7291173689361603
 10
0.0
 20
0.0
 30
2.000000000000000E+50
 75
     0
  0
DIMASSOC
  5
3ACC
102
{ACAD_REACTORS
330
3ACB
102
}
330
3ACB
100
AcDbDimAssoc
330
3ACA
 90
        3
 70
     0
 71
     0
  1
AcDbOsnapPointRef
 72
    13
331
3989
 73
     2
 91
        0
 40
0.0
 10
0.0
 20
0.0
 30
2.000000000000000E+50
 75
     0
  1
AcDbOsnapPointRef
 72
    13
331
3947
 73
     2
 91
        0
 40
0.0
 10
0.0
 20
0.0
 30
2.000000000000000E+50
 75
     0
  0
DIMASSOC
  5
3ACF
102
{ACAD_REACTORS
330
3ACE
102
}
330
3ACE
100
AcDbDimAssoc
330
3ACD
 90
        3
 70
     0
 71
     0
  1
AcDbOsnapPointRef
 72
     2
331
3997
 73
     2
 91
        0
 40
2.397765106136844
 10
0.0
 20
0.0
 30
0.0
 75
     0
  1
AcDbOsnapPointRef
 72
     2
331
3990
 73
     2
 91
        0
 40
3.885420201042636
 10
0.0
 20
0.0
 30
0.0
 75
     0
  0
DIMASSOC
  5
3AD2
102
{ACAD_REACTORS
330
3AD1
102
}
330
3AD1
100
AcDbDimAssoc
330
3AD0
 90
        3
 70
     0
 71
     0
  1
AcDbOsnapPointRef
 72
     6
331
3970
 73
     2
 91
        0
 40
1.0
 10
0.0
 20
0.0
 30
0.0
332
39B2
 74
     2
 92
        0
 75
     0
  1
AcDbOsnapPointRef
 72
     1
331
3971
 73
     2
 91
        0
 40
1.0
 10
0.0
 20
0.0
 30
2.000000000000000E+50
 75
     0
  0
DIMASSOC
  5
3AD7
102
{ACAD_REACTORS
330
3AD6
102
}
330
3AD6
100
AcDbDimAssoc
330
3AD5
 90
        3
 70
     0
 71
     0
  1
AcDbOsnapPointRef
 72
     1
331
39FC
 73
     2
 91
        0
 40
1.0
 10
0.0
 20
0.0
 30
2.000000000000000E+50
 75
     0
  1
AcDbOsnapPointRef
 72
    13
331
3A21
 73
     2
 91
        0
 40
0.0
 10
0.0
 20
0.0
 30
2.000000000000000E+50
 75
     0
  0
DIMASSOC
  5
3ADA
102
{ACAD_REACTORS
330
3AD9
102
}
330
3AD9
100
AcDbDimAssoc
330
3AD8
 90
        3
 70
     0
 71
     0
  1
AcDbOsnapPointRef
 72
     1
331
39FC
 73
     2
 91
        0
 40
1.0
 10
0.0
 20
0.0
 30
2.000000000000000E+50
 75
     0
  1
AcDbOsnapPointRef
 72
     1
331
3A18
 73
     2
 91
        0
 40
1.0
 10
0.0
 20
0.0
 30
2.000000000000000E+50
 75
     0
  0
DIMASSOC
  5
3ADD
102
{ACAD_REACTORS
330
3ADC
102
}
330
3ADC
100
AcDbDimAssoc
330
3ADB
 90
        3
 70
     0
 71
     0
  1
AcDbOsnapPointRef
 72
     1
331
3A04
 73
     2
 91
        0
 40
1.0
 10
0.0
 20
0.0
 30
2.000000000000000E+50
 75
     0
  1
AcDbOsnapPointRef
 72
    13
331
3A01
 73
     2
 91
        0
 40
0.0
 10
0.0
 20
0.0
 30
2.000000000000000E+50
 75
     0
  0
DIMASSOC
  5
3AE0
102
{ACAD_REACTORS
330
3ADF
102
}
330
3ADF
100
AcDbDimAssoc
330
3ADE
 90
        3
 70
     0
 71
     0
  1
AcDbOsnapPointRef
 72
    13
331
3A0B
 73
     2
 91
        0
 40
0.0
 10
0.0
 20
0.0
 30
2.000000000000000E+50
 75
     0
  1
AcDbOsnapPointRef
 72
    13
331
3A04
 73
     2
 91
        0
 40
0.0
 10
0.0
 20
0.0
 30
2.000000000000000E+50
 75
     0
  0
DIMASSOC
  5
3AE3
102
{ACAD_REACTORS
330
3AE2
102
}
330
3AE2
100
AcDbDimAssoc
330
3AE1
 90
        3
 70
     0
 71
     0
  1
AcDbOsnapPointRef
 72
     1
331
3A04
 73
     2
 91
        0
 40
1.0
 10
0.0
 20
0.0
 30
2.000000000000000E+50
 75
     0
  1
AcDbOsnapPointRef
 72
     1
331
39FC
 73
     2
 91
        0
 40
1.0
 10
0.0
 20
0.0
 30
2.000000000000000E+50
 75
     0
  0
DIMASSOC
  5
3AE6
102
{ACAD_REACTORS
330
3AE5
102
}
330
3AE5
100
AcDbDimAssoc
330
3AE4
 90
        3
 70
     0
 71
     0
  1
AcDbOsnapPointRef
 72
     1
331
3A04
 73
     2
 91
        0
 40
1.0
 10
0.0
 20
0.0
 30
2.000000000000000E+50
 75
     0
  1
AcDbOsnapPointRef
 72
    13
331
3A21
 73
     2
 91
        0
 40
0.0
 10
0.0
 20
0.0
 30
2.000000000000000E+50
 75
     0
  0
DIMASSOC
  5
3AE9
102
{ACAD_REACTORS
330
3AE8
102
}
330
3AE8
100
AcDbDimAssoc
330
3AE7
 90
        3
 70
     0
 71
     0
  1
AcDbOsnapPointRef
 72
     1
331
3A1F
 73
     2
 91
        0
 40
0.9999999999999998
 10
0.0
 20
0.0
 30
2.000000000000000E+50
 75
     0
  1
AcDbOsnapPointRef
 72
     1
331
3A20
 73
     2
 91
        0
 40
0.9999999999999998
 10
0.0
 20
0.0
 30
2.000000000000000E+50
 75
     0
  0
DIMASSOC
  5
3AEC
102
{ACAD_REACTORS
330
3AEB
102
}
330
3AEB
100
AcDbDimAssoc
330
3AEA
 90
        3
 70
     0
 71
     0
  1
AcDbOsnapPointRef
 72
    13
331
3A17
 73
     2
 91
        0
 40
0.0
 10
0.0
 20
0.0
 30
2.000000000000000E+50
 75
     0
  1
AcDbOsnapPointRef
 72
    13
331
3A14
 73
     2
 91
        0
 40
0.0
 10
0.0
 20
0.0
 30
2.000000000000000E+50
 75
     0
  0
DIMASSOC
  5
3AEF
102
{ACAD_REACTORS
330
3AEE
102
}
330
3AEE
100
AcDbDimAssoc
330
3AED
 90
        3
 70
     0
 71
     0
  1
AcDbOsnapPointRef
 72
     1
331
3A15
 73
     2
 91
        0
 40
1.0
 10
0.0
 20
0.0
 30
2.000000000000000E+50
 75
     0
  1
AcDbOsnapPointRef
 72
    13
331
3A1E
 73
     2
 91
        0
 40
0.0
 10
0.0
 20
0.0
 30
2.000000000000000E+50
 75
     0
  0
DIMASSOC
  5
3AF7
102
{ACAD_REACTORS
330
3AF6
102
}
330
3AF6
100
AcDbDimAssoc
330
3AF5
 90
        3
 70
     0
 71
     0
  1
AcDbOsnapPointRef
 72
    13
331
396E
 73
     2
 91
        0
 40
0.0
 10
0.0
 20
0.0
 30
2.000000000000000E+50
 75
     0
  1
AcDbOsnapPointRef
 72
    13
331
396C
 73
     2
 91
        0
 40
0.0
 10
0.0
 20
0.0
 30
2.000000000000000E+50
 75
     0
  0
DIMASSOC
  5
3AFA
102
{ACAD_REACTORS
330
3AF9
102
}
330
3AF9
100
AcDbDimAssoc
330
3AF8
 90
        3
 70
     0
 71
     0
  1
AcDbOsnapPointRef
 72
    13
331
39A0
 73
     2
 91
        0
 40
0.0
 10
0.0
 20
0.0
 30
2.000000000000000E+50
 75
     0
  1
AcDbOsnapPointRef
 72
    13
331
3967
 73
     2
 91
        0
 40
0.7291173689361603
 10
0.0
 20
0.0
 30
2.000000000000000E+50
 75
     0
  0
DIMASSOC
  5
3AFD
102
{ACAD_REACTORS
330
3AFC
102
}
330
3AFC
100
AcDbDimAssoc
330
3AFB
 90
        3
 70
     0
 71
     0
  1
AcDbOsnapPointRef
 72
    13
331
3989
 73
     2
 91
        0
 40
0.0
 10
0.0
 20
0.0
 30
2.000000000000000E+50
 75
     0
  1
AcDbOsnapPointRef
 72
    13
331
3947
 73
     2
 91
        0
 40
0.0
 10
0.0
 20
0.0
 30
2.000000000000000E+50
 75
     0
  0
DIMASSOC
  5
3B00
102
{ACAD_REACTORS
330
3AFF
102
}
330
3AFF
100
AcDbDimAssoc
330
3AFE
 90
        3
 70
     0
 71
     0
  1
AcDbOsnapPointRef
 72
     2
331
3997
 73
     2
 91
        0
 40
2.397765106136844
 10
0.0
 20
0.0
 30
0.0
 75
     0
  1
AcDbOsnapPointRef
 72
     2
331
3990
 73
     2
 91
        0
 40
3.885420201042636
 10
0.0
 20
0.0
 30
0.0
 75
     0
  0
DIMASSOC
  5
3B03
102
{ACAD_REACTORS
330
3B02
102
}
330
3B02
100
AcDbDimAssoc
330
3B01
 90
        3
 70
     0
 71
     0
  1
AcDbOsnapPointRef
 72
     6
331
3970
 73
     2
 91
        0
 40
1.0
 10
0.0
 20
0.0
 30
0.0
332
39B2
 74
     2
 92
        0
 75
     0
  1
AcDbOsnapPointRef
 72
     1
331
3971
 73
     2
 91
        0
 40
1.0
 10
0.0
 20
0.0
 30
2.000000000000000E+50
 75
     0
  0
LAYOUT
  5
1E
102
{ACAD_XDICTIONARY
360
47E7
102
}
102
{ACAD_REACTORS
330
1A
102
}
330
1A
100
AcDbPlotSettings
  1

  2

  4

  6

 40
0.0
 41
0.0
 42
0.0
 43
0.0
 44
0.0
 45
0.0
 46
0.0
 47
0.0
 48
0.0
 49
0.0
140
0.0
141
0.0
142
1.0
143
1.0
 70
   688
 72
     0
 73
     0
 74
     5
  7
彩色出圖.ctb
 75
    16
147
1.0
148
0.0
149
0.0
100
AcDbLayout
  1
Layout1
 70
     1
 71
     1
 10
0.0
 20
0.0
 11
12.0
 21
9.0
 12
0.0
 22
0.0
 32
0.0
 14
1.000000000000000E+20
 24
1.000000000000000E+20
 34
1.000000000000000E+20
 15
-1.000000000000000E+20
 25
-1.000000000000000E+20
 35
-1.000000000000000E+20
146
0.0
 13
0.0
 23
0.0
 33
0.0
 16
1.0
 26
0.0
 36
0.0
 17
0.0
 27
1.0
 37
0.0
 76
     0
330
1B
  0
LAYOUT
  5
26
102
{ACAD_XDICTIONARY
360
47EB
102
}
102
{ACAD_REACTORS
330
1A
102
}
330
1A
100
AcDbPlotSettings
  1

  2

  4

  6

 40
0.0
 41
0.0
 42
0.0
 43
0.0
 44
0.0
 45
0.0
 46
0.0
 47
0.0
 48
0.0
 49
0.0
140
0.0
141
0.0
142
1.0
143
1.0
 70
   688
 72
     0
 73
     0
 74
     5
  7
彩色出圖.ctb
 75
    16
147
1.0
148
0.0
149
0.0
100
AcDbLayout
  1
Layout2
 70
     1
 71
     2
 10
0.0
 20
0.0
 11
12.0
 21
9.0
 12
0.0
 22
0.0
 32
0.0
 14
0.0
 24
0.0
 34
0.0
 15
0.0
 25
0.0
 35
0.0
146
0.0
 13
0.0
 23
0.0
 33
0.0
 16
1.0
 26
0.0
 36
0.0
 17
0.0
 27
1.0
 37
0.0
 76
     0
330
23
  0
LAYOUT
  5
22
102
{ACAD_XDICTIONARY
360
47E9
102
}
102
{ACAD_REACTORS
330
1A
102
}
330
1A
100
AcDbPlotSettings
  1

  2
DWF Classic.pc3
  4
ISO_A3_(420.00_x_297.00_MM)
  6

 40
5.793749809265136
 41
17.79375076293945
 42
5.79376220703125
 43
17.79376220703125
 44
420.0
 45
297.0
 46
47.40999999999999
 47
0.0
 48
0.0
 49
0.0
140
0.0
141
0.0
142
1.0
143
1.040940642127927
 70
 11956
 72
     1
 73
     1
 74
     1
  7
彩色出圖.ctb
 75
     0
147
0.9606695708948064
148
0.4870947940048609
149
0.4894054010007949
100
AcDbLayout
  1
Model
 70
     1
 71
     0
 10
0.0
 20
0.0
 11
12.0
 21
9.0
 12
0.0
 22
0.0
 32
0.0
 14
0.0
 24
0.0
 34
0.0
 15
0.0
 25
0.0
 35
0.0
146
0.0
 13
0.0
 23
0.0
 33
0.0
 16
1.0
 26
0.0
 36
0.0
 17
0.0
 27
1.0
 37
0.0
 76
     0
330
1F
  0
MLINESTYLE
  5
18
102
{ACAD_REACTORS
330
17
102
}
330
17
100
AcDbMlineStyle
  2
STANDARD
 70
     0
  3

 62
   256
 51
90.0
 52
90.0
 71
     2
 49
0.5
 62
   256
  6
BYLAYER
 49
-0.5
 62
   256
  6
BYLAYER
  0
ACDBPLACEHOLDER
  5
F
102
{ACAD_REACTORS
330
E
102
}
330
E
  0
TABLESTYLE
  5
35D0
102
{ACAD_REACTORS
330
35CF
102
}
330
35CF
100
AcDbTableStyle
  3
Standard
 70
     0
 71
     0
 40
1.5
 41
1.5
280
     0
281
     0
  7
Standard
140
4.5
170
     2
 62
     0
 63
     7
283
     0
274
    -2
284
     1
 64
     0
275
    -2
285
     1
 65
     0
276
    -2
286
     1
 66
     0
277
    -2
287
     1
 67
     0
278
    -2
288
     1
 68
     0
279
    -2
289
     1
 69
     0
  7
Standard
140
6.0
170
     5
 62
     0
 63
     7
283
     0
274
    -2
284
     1
 64
     0
275
    -2
285
     1
 65
     0
276
    -2
286
     1
 66
     0
277
    -2
287
     1
 67
     0
278
    -2
288
     1
 68
     0
279
    -2
289
     1
 69
     0
  7
Standard
140
4.5
170
     5
 62
     0
 63
     7
283
     0
274
    -2
284
     1
 64
     0
275
    -2
285
     1
 65
     0
276
    -2
286
     1
 66
     0
277
    -2
287
     1
 67
     0
278
    -2
288
     1
 68
     0
279
    -2
289
     1
 69
     0
  0
DICTIONARYVAR
  5
3D1D
102
{ACAD_REACTORS
330
1488
102
}
330
1488
100
DictionaryVariables
280
     0
  1
STANDARD
  0
DICTIONARYVAR
  5
3548
102
{ACAD_REACTORS
330
1488
102
}
330
1488
100
DictionaryVariables
280
     0
  1
1
  0
DICTIONARYVAR
  5
3547
102
{ACAD_REACTORS
330
1488
102
}
330
1488
100
DictionaryVariables
280
     0
  1
1
  0
DICTIONARYVAR
  5
42E5
102
{ACAD_REACTORS
330
1488
102
}
330
1488
100
DictionaryVariables
280
     0
  1

  0
DICTIONARYVAR
  5
1489
102
{ACAD_REACTORS
330
1488
102
}
330
1488
100
DictionaryVariables
280
     0
  1
96
  0
DICTIONARY
  5
350B
102
{ACAD_REACTORS
330
3505
102
}
330
3505
100
AcDbDictionary
281
     1
  0
XRECORD
  5
3F31
102
{ACAD_REACTORS
330
3505
102
}
330
3505
100
AcDbXrecord
280
     1
 90
-1023410169
  0
LAYER_INDEX
  5
4781
102
{ACAD_REACTORS
330
4780
102
}
330
4780
100
AcDbIndex
 40
2454308.387734907
100
AcDbLayerIndex
  8
0
360
47DD
 90
      396
  8
DIM
360
47DE
 90
       50
  8
CENTER
360
47DF
 90
       26
  8
LOGO
360
47E0
 90
      127
  8
Defpoints
360
47E1
 90
        0
  8
AM_7
360
47E2
 90
        2
  8
AM_5
360
47E3
 90
        0
  0
DICTIONARY
  5
47E7
330
1E
100
AcDbDictionary
280
     1
281
     1
  3
ACAD_XREC_ROUNDTRIP
360
47E8
  0
DICTIONARY
  5
47EB
330
26
100
AcDbDictionary
280
     1
281
     1
  3
ACAD_XREC_ROUNDTRIP
360
47EC
  0
DICTIONARY
  5
47E9
330
22
100
AcDbDictionary
280
     1
281
     1
  3
ACAD_XREC_ROUNDTRIP
360
47EA
  0
IDBUFFER
  5
47DD
330
0
100
AcDbIdBuffer
330
3A2F
330
3A30
330
3A31
330
3A37
330
3A38
330
3A39
330
3A3A
330
3A3B
330
3A3C
330
3A3D
330
3A3E
330
3A3F
330
3A40
330
3A41
330
3A42
330
3A43
330
3A44
330
3A45
330
3A46
330
3A47
330
3A48
330
3A49
330
3A4A
330
3A4B
330
3A4C
330
3A4D
330
3A4E
330
3A4F
330
3A50
330
3A51
330
3A52
330
3A53
330
3A54
330
3A55
330
3A56
330
3A57
330
3A58
330
3A59
330
3A5A
330
3A60
330
3A61
330
3A62
330
3A63
330
3A64
330
3A65
330
3A66
330
3A67
330
3A68
330
3A69
330
3A6A
330
3A6B
330
3A6C
330
3A6D
330
3A6E
330
3A6F
330
3A70
330
3A71
330
3A72
330
3A73
330
3A74
330
3A75
330
3A76
330
3A77
330
3A78
330
3A79
330
3A7A
330
3A7B
330
3A7C
330
3A7D
330
3A7E
330
3A7F
330
3A80
330
3A81
330
3A82
330
3A83
330
3A84
330
3A85
330
3A86
330
3A87
330
3A88
330
3A89
330
3A8A
330
3A8B
330
3A8C
330
3A8D
330
3A8E
330
3A8F
330
3A90
330
3A91
330
3A92
330
3A93
330
3A94
330
3A95
330
3A96
330
3A97
330
3A98
330
3A99
330
3AF0
330
3AF1
330
3AF2
330
40CE
330
40CF
330
40D0
330
43B2
330
43B3
330
43B4
330
43B5
330
43B6
330
43B7
330
43B8
330
43B9
330
43BA
330
43BB
330
43BC
330
43BD
330
43BE
330
43BF
330
43C0
330
43C1
330
43C2
330
43C3
330
43C4
330
43C5
330
43C6
330
43C7
330
43C8
330
43C9
330
43CA
330
451F
330
4528
330
4529
330
452A
330
452B
330
452C
330
452D
330
452E
330
452F
330
4530
330
4531
330
4532
330
4533
330
4534
330
4535
330
4536
330
4537
330
4538
330
4539
330
453A
330
453B
330
453C
330
453D
330
453E
330
453F
330
4540
330
4754
330
4757
330
A9
330
AA
330
AB
330
AC
330
B1
330
B2
330
10B3
330
17B4
330
17B5
330
17BF
330
17C0
330
18E7
330
18EA
330
393C
330
393D
330
393E
330
393F
330
3945
330
3946
330
3947
330
3948
330
3949
330
394A
330
394B
330
394C
330
394D
330
394E
330
394F
330
3950
330
3951
330
3952
330
3953
330
3954
330
3955
330
3956
330
3957
330
3958
330
3959
330
395A
330
395B
330
395C
330
395D
330
395E
330
395F
330
3960
330
3961
330
3962
330
3963
330
3964
330
3965
330
3966
330
3967
330
3968
330
3969
330
396A
330
3970
330
3971
330
3972
330
3973
330
3974
330
3975
330
3976
330
3977
330
3978
330
3979
330
397A
330
397B
330
397C
330
397D
330
397E
330
397F
330
3980
330
3981
330
3982
330
3983
330
3984
330
3985
330
3986
330
3987
330
3988
330
3989
330
398A
330
398B
330
398C
330
398D
330
398E
330
398F
330
3990
330
3991
330
3992
330
3993
330
3994
330
3995
330
3996
330
3997
330
3998
330
3999
330
399A
330
399B
330
399C
330
399D
330
399E
330
399F
330
39A0
330
39A1
330
39A2
330
39A4
330
39A5
330
39A6
330
39A7
330
39A8
330
39AA
330
39AB
330
39AC
330
39AD
330
39AE
330
39AF
330
39B0
330
39B1
330
39B2
330
39B3
330
39B4
330
39B5
330
39B6
330
39B7
330
39B8
330
39B9
330
39BA
330
39BB
330
39BC
330
39BD
330
39BE
330
39BF
330
39C0
330
39C1
330
39C2
330
39C3
330
39C4
330
39C5
330
39C6
330
39C7
330
39C8
330
39C9
330
39CA
330
39CB
330
39CC
330
39CD
330
39CE
330
39CF
330
39D0
330
39D1
330
39D2
330
39D3
330
39D4
330
39D5
330
39D6
330
39D7
330
39D8
330
39D9
330
39DA
330
39DB
330
39DC
330
39DD
330
39DE
330
39DF
330
39E0
330
39E1
330
39E2
330
39E3
330
39E4
330
39E5
330
39E6
330
39E7
330
39E8
330
39E9
330
39EA
330
39EB
330
39EC
330
39ED
330
39EE
330
39EF
330
39F0
330
39F1
330
39F2
330
39F3
330
39F4
330
39F5
330
39F6
330
39F7
330
39F9
330
39FA
330
39FB
330
39FC
330
39FD
330
39FE
330
39FF
330
3A00
330
3A02
330
3A03
330
3A04
330
3A05
330
3A06
330
3A07
330
3A08
330
3A09
330
3A0A
330
3A0C
330
3A0D
330
3A0E
330
3A0F
330
3A10
330
3A11
330
3A12
330
3A13
330
3A14
330
3A15
330
3A16
330
3A17
330
3A18
330
3A19
330
3A1A
330
3A1B
330
3A1C
330
3A1D
330
3A1E
330
3A1F
330
3A20
330
3A21
330
3A22
330
3A23
330
3A25
330
3A26
330
3A27
330
3A28
330
3A29
330
3A2A
330
3A2B
330
3A2C
330
3A2D
330
3A2E
  0
IDBUFFER
  5
47DE
330
0
100
AcDbIdBuffer
330
451B
330
451C
330
3A9A
330
3A9D
330
3AA0
330
3AA3
330
3AA6
330
3AA9
330
3AAC
330
3AAF
330
3AB2
330
3AB5
330
3AB8
330
3ABB
330
3ABC
330
3ABD
330
3ABE
330
3ABF
330
3AC2
330
3AC3
330
3AC4
330
3AC7
330
3ACA
330
3ACD
330
3AD0
330
3AD3
330
3AD4
330
3AD5
330
3AD8
330
3ADB
330
3ADE
330
3AE1
330
3AE4
330
3AE7
330
3AEA
330
3AED
330
3AF3
330
3AF4
330
3AF5
330
3AF8
330
3AFB
330
3AFE
330
3B01
330
3B06
330
3B07
330
3CD0
330
3CD3
330
3CD6
330
3CD9
330
3CDC
  0
IDBUFFER
  5
47DF
330
0
100
AcDbIdBuffer
330
3A32
330
3A33
330
3A34
330
3A35
330
3A36
330
3A5B
330
3A5C
330
3A5D
330
3A5E
330
3A5F
330
3940
330
3941
330
3942
330
3943
330
3944
330
396B
330
396C
330
396D
330
396E
330
396F
330
39A3
330
39A9
330
39F8
330
3A01
330
3A0B
330
3A24
  0
IDBUFFER
  5
47E0
330
0
100
AcDbIdBuffer
330
40BF
330
40C0
330
40C1
330
40C2
330
40C3
330
40C4
330
40C5
330
40C6
330
40C7
330
40C8
330
40C9
330
40CA
330
40CB
330
40CC
330
40CD
330
17BD
330
17BE
330
17C3
330
17C4
330
17C5
330
17C6
330
17C7
330
1802
330
1803
330
1804
330
1805
330
1806
330
1807
330
1808
330
1809
330
180A
330
180B
330
180C
330
180D
330
180E
330
180F
330
1810
330
1868
330
1869
330
186A
330
186B
330
186C
330
186D
330
186E
330
186F
330
1870
330
1871
330
1872
330
1873
330
1874
330
1875
330
1876
330
1877
330
1878
330
1879
330
187A
330
187B
330
187C
330
187D
330
187E
330
187F
330
1880
330
1881
330
1882
330
1883
330
1885
330
1886
330
1887
330
1888
330
1889
330
188A
330
188B
330
188C
330
188D
330
188E
330
188F
330
1890
330
1891
330
4079
330
407A
330
407B
330
407C
330
407D
330
407E
330
407F
330
4080
330
4081
330
4082
330
4083
330
4084
330
4085
330
4086
330
4087
330
4088
330
4089
330
408A
330
408B
330
408C
330
408D
330
408E
330
408F
330
4090
330
4091
330
4092
330
4093
330
4094
330
4095
330
4096
330
409A
330
409E
330
409F
330
40A3
330
40A4
330
40A5
330
40A6
330
40A7
330
40A8
330
40A9
330
40AA
330
40AE
330
40B2
330
40B6
330
40B7
330
40B8
330
40BC
330
40BD
330
40BE
  0
IDBUFFER
  5
47E1
330
0
100
AcDbIdBuffer
  0
IDBUFFER
  5
47E2
330
0
100
AcDbIdBuffer
330
4753
330
4756
  0
IDBUFFER
  5
47E3
330
0
100
AcDbIdBuffer
  0
XRECORD
  5
47E8
102
{ACAD_REACTORS
330
47E7
102
}
330
47E7
100
AcDbXrecord
280
     1
102
SHADEPLOT
 70
     0
102
SHADEPLOTRESLEVEL
 70
     2
102
SHADEPLOTCUSTOMDPI
 70
   300
  0
XRECORD
  5
47EC
102
{ACAD_REACTORS
330
47EB
102
}
330
47EB
100
AcDbXrecord
280
     1
102
SHADEPLOT
 70
     0
102
SHADEPLOTRESLEVEL
 70
     2
102
SHADEPLOTCUSTOMDPI
 70
   300
  0
XRECORD
  5
47EA
102
{ACAD_REACTORS
330
47E9
102
}
330
47E9
100
AcDbXrecord
280
     1
102
SHADEPLOT
 70
     0
102
SHADEPLOTRESLEVEL
 70
     2
102
SHADEPLOTCUSTOMDPI
 70
   300
  0
ENDSEC
  0
EOF
