  0
SECTION
  2
HEADER
  9
$ACADVER
  1
AC1015
  9
$ACADMAINTVER
 70
    20
  9
$DWGCODEPAGE
  3
ANSI_950
  9
$INSBASE
 10
0.0
 20
0.0
 30
0.0
  9
$EXTMIN
 10
57.12655326396907
 20
7.016729279656885
 30
-0.0055689685013363
  9
$EXTMAX
 10
271.6360742018455
 20
251.5658455577616
 30
182.5034529391925
  9
$LIMMIN
 10
0.0
 20
0.0
  9
$LIMMAX
 10
12.0
 20
9.0
  9
$ORTHOMODE
 70
     1
  9
$REGENMODE
 70
     1
  9
$FILLMODE
 70
     1
  9
$QTEXTMODE
 70
     0
  9
$MIRRTEXT
 70
     1
  9
$LTSCALE
 40
3.0
  9
$ATTMODE
 70
     1
  9
$TEXTSIZE
 40
4.5
  9
$TRACEWID
 40
0.05
  9
$TEXTSTYLE
  7
CHINESET
  9
$CLAYER
  8
0
  9
$CELTYPE
  6
ByLayer
  9
$CECOLOR
 62
   256
  9
$CELTSCALE
 40
1.0
  9
$DISPSILH
 70
     0
  9
$DIMSCALE
 40
1.0
  9
$DIMASZ
 40
3.0
  9
$DIMEXO
 40
3.0
  9
$DIMDLI
 40
2.0
  9
$DIMRND
 40
0.0
  9
$DIMDLE
 40
0.0
  9
$DIMEXE
 40
2.0
  9
$DIMTP
 40
0.0
  9
$DIMTM
 40
0.0
  9
$DIMTXT
 40
3.0
  9
$DIMCEN
 40
-3.0
  9
$DIMTSZ
 40
0.0
  9
$DIMTOL
 70
     0
  9
$DIMLIM
 70
     0
  9
$DIMTIH
 70
     0
  9
$DIMTOH
 70
     0
  9
$DIMSE1
 70
     0
  9
$DIMSE2
 70
     0
  9
$DIMTAD
 70
     1
  9
$DIMZIN
 70
     8
  9
$DIMBLK
  1

  9
$DIMASO
 70
     1
  9
$DIMSHO
 70
     1
  9
$DIMPOST
  1

  9
$DIMAPOST
  1

  9
$DIMALT
 70
     0
  9
$DIMALTD
 70
     2
  9
$DIMALTF
 40
25.4
  9
$DIMLFAC
 40
1.0
  9
$DIMTOFL
 70
     1
  9
$DIMTVP
 40
0.0
  9
$DIMTIX
 70
     0
  9
$DIMSOXD
 70
     0
  9
$DIMSAH
 70
     0
  9
$DIMBLK1
  1

  9
$DIMBLK2
  1

  9
$DIMSTYLE
  2
ISO-25-1
  9
$DIMCLRD
 70
   256
  9
$DIMCLRE
 70
   256
  9
$DIMCLRT
 70
   256
  9
$DIMTFAC
 40
0.7
  9
$DIMGAP
 40
1.0
  9
$DIMJUST
 70
     0
  9
$DIMSD1
 70
     0
  9
$DIMSD2
 70
     0
  9
$DIMTOLJ
 70
     1
  9
$DIMTZIN
 70
     8
  9
$DIMALTZ
 70
     0
  9
$DIMALTTZ
 70
     0
  9
$DIMUPT
 70
     0
  9
$DIMDEC
 70
     2
  9
$DIMTDEC
 70
     8
  9
$DIMALTU
 70
     2
  9
$DIMALTTD
 70
     2
  9
$DIMTXSTY
  7
CHINESET
  9
$DIMAUNIT
 70
     0
  9
$DIMADEC
 70
     0
  9
$DIMALTRND
 40
0.0
  9
$DIMAZIN
 70
     2
  9
$DIMDSEP
 70
    46
  9
$DIMATFIT
 70
     0
  9
$DIMFRAC
 70
     0
  9
$DIMLDRBLK
  1

  9
$DIMLUNIT
 70
     2
  9
$DIMLWD
 70
    -1
  9
$DIMLWE
 70
    -1
  9
$DIMTMOVE
 70
     0
  9
$LUNITS
 70
     2
  9
$LUPREC
 70
     2
  9
$SKETCHINC
 40
0.1
  9
$FILLETRAD
 40
0.5
  9
$AUNITS
 70
     0
  9
$AUPREC
 70
     0
  9
$MENU
  1
.
  9
$ELEVATION
 40
0.0
  9
$PELEVATION
 40
0.0
  9
$THICKNESS
 40
0.0
  9
$LIMCHECK
 70
     0
  9
$CHAMFERA
 40
1.0
  9
$CHAMFERB
 40
1.0
  9
$CHAMFERC
 40
1.0
  9
$CHAMFERD
 40
0.0
  9
$SKPOLY
 70
     0
  9
$TDCREATE
 40
2452019.631085301
  9
$TDUCREATE
 40
2452019.297751968
  9
$TDUPDATE
 40
2453983.675011204
  9
$TDUUPDATE
 40
2453983.341677871
  9
$TDINDWG
 40
0.5791365741
  9
$TDUSRTIMER
 40
0.5791365741
  9
$USRTIMER
 70
     1
  9
$ANGBASE
 50
0.0
  9
$ANGDIR
 70
     0
  9
$PDMODE
 70
     0
  9
$PDSIZE
 40
0.0
  9
$PLINEWID
 40
0.0
  9
$SPLFRAME
 70
     0
  9
$SPLINETYPE
 70
     6
  9
$SPLINESEGS
 70
     8
  9
$HANDSEED
  5
3CBF
  9
$SURFTAB1
 70
     6
  9
$SURFTAB2
 70
     6
  9
$SURFTYPE
 70
     6
  9
$SURFU
 70
     6
  9
$SURFV
 70
     6
  9
$UCSBASE
  2

  9
$UCSNAME
  2

  9
$UCSORG
 10
0.0
 20
0.0
 30
0.0
  9
$UCSXDIR
 10
1.0
 20
0.0
 30
0.0
  9
$UCSYDIR
 10
0.0
 20
1.0
 30
0.0
  9
$UCSORTHOREF
  2

  9
$UCSORTHOVIEW
 70
     0
  9
$UCSORGTOP
 10
0.0
 20
0.0
 30
0.0
  9
$UCSORGBOTTOM
 10
0.0
 20
0.0
 30
0.0
  9
$UCSORGLEFT
 10
0.0
 20
0.0
 30
0.0
  9
$UCSORGRIGHT
 10
0.0
 20
0.0
 30
0.0
  9
$UCSORGFRONT
 10
0.0
 20
0.0
 30
0.0
  9
$UCSORGBACK
 10
0.0
 20
0.0
 30
0.0
  9
$PUCSBASE
  2

  9
$PUCSNAME
  2

  9
$PUCSORG
 10
0.0
 20
0.0
 30
0.0
  9
$PUCSXDIR
 10
1.0
 20
0.0
 30
0.0
  9
$PUCSYDIR
 10
0.0
 20
1.0
 30
0.0
  9
$PUCSORTHOREF
  2

  9
$PUCSORTHOVIEW
 70
     0
  9
$PUCSORGTOP
 10
0.0
 20
0.0
 30
0.0
  9
$PUCSORGBOTTOM
 10
0.0
 20
0.0
 30
0.0
  9
$PUCSORGLEFT
 10
0.0
 20
0.0
 30
0.0
  9
$PUCSORGRIGHT
 10
0.0
 20
0.0
 30
0.0
  9
$PUCSORGFRONT
 10
0.0
 20
0.0
 30
0.0
  9
$PUCSORGBACK
 10
0.0
 20
0.0
 30
0.0
  9
$USERI1
 70
     0
  9
$USERI2
 70
     0
  9
$USERI3
 70
     0
  9
$USERI4
 70
     0
  9
$USERI5
 70
     0
  9
$USERR1
 40
0.0
  9
$USERR2
 40
0.0
  9
$USERR3
 40
0.0
  9
$USERR4
 40
0.0
  9
$USERR5
 40
0.0
  9
$WORLDVIEW
 70
     1
  9
$SHADEDGE
 70
     3
  9
$SHADEDIF
 70
    70
  9
$TILEMODE
 70
     1
  9
$MAXACTVP
 70
    48
  9
$PINSBASE
 10
0.0
 20
0.0
 30
0.0
  9
$PLIMCHECK
 70
     0
  9
$PEXTMIN
 10
1.000000000000000E+20
 20
1.000000000000000E+20
 30
1.000000000000000E+20
  9
$PEXTMAX
 10
-1.000000000000000E+20
 20
-1.000000000000000E+20
 30
-1.000000000000000E+20
  9
$PLIMMIN
 10
0.0
 20
0.0
  9
$PLIMMAX
 10
12.0
 20
9.0
  9
$UNITMODE
 70
     0
  9
$VISRETAIN
 70
     1
  9
$PLINEGEN
 70
     0
  9
$PSLTSCALE
 70
     1
  9
$TREEDEPTH
 70
  3020
  9
$CMLSTYLE
  2
Standard
  9
$CMLJUST
 70
     0
  9
$CMLSCALE
 40
1.0
  9
$PROXYGRAPHICS
 70
     1
  9
$MEASUREMENT
 70
     1
  9
$CELWEIGHT
370
    -1
  9
$ENDCAPS
280
     0
  9
$JOINSTYLE
280
     0
  9
$LWDISPLAY
290
     0
  9
$INSUNITS
 70
     1
  9
$HYPERLINKBASE
  1

  9
$STYLESHEET
  1
彩色出圖.ctb
  9
$XEDIT
290
     1
  9
$CEPSNTYPE
380
     0
  9
$PSTYLEMODE
290
     1
  9
$FINGERPRINTGUID
  2
{FDEAD576-A652-11D2-9A35-0060089B3A3F}
  9
$VERSIONGUID
  2
{5BB87C9F-1EDF-4789-9188-6D19E2EF7687}
  9
$EXTNAMES
290
     1
  9
$PSVPSCALE
 40
0.0
  9
$OLESTARTUP
290
     0
  0
ENDSEC
  0
SECTION
  2
CLASSES
  0
CLASS
  1
ACDBDICTIONARYWDFLT
  2
AcDbDictionaryWithDefault
  3
ObjectDBX Classes
 90
        0
280
     0
281
     0
  0
CLASS
  1
ACDBPLACEHOLDER
  2
AcDbPlaceHolder
  3
ObjectDBX Classes
 90
        0
280
     0
281
     0
  0
CLASS
  1
LAYOUT
  2
AcDbLayout
  3
ObjectDBX Classes
 90
        0
280
     0
281
     0
  0
CLASS
  1
DICTIONARYVAR
  2
AcDbDictionaryVar
  3
ObjectDBX Classes
 90
        0
280
     0
281
     0
  0
CLASS
  1
TABLESTYLE
  2
AcDbTableStyle
  3
ObjectDBX Classes
 90
     2047
280
     0
281
     0
  0
CLASS
  1
DIMASSOC
  2
AcDbDimAssoc
  3
"AcDbDimAssoc|Product Desc:     AcDim ARX App For Dimension|Company:          Autodesk, Inc.|WEB Address:      www.autodesk.com"
 90
        0
280
     0
281
     0
  0
CLASS
  1
SORTENTSTABLE
  2
AcDbSortentsTable
  3
ObjectDBX Classes
 90
        0
280
     0
281
     0
  0
CLASS
  1
ACME_DOCUMENT
  2
AcMeDbDoc
  3
AcMeServices
 90
        0
280
     0
281
     0
  0
CLASS
  1
AMGSETTINGSOBJ
  2
AmgSettingsObj
  3
"AcadM|Product Description: AutoCAD Mechanical 2000|Company: Autodesk"
 90
        0
280
     0
281
     0
  0
CLASS
  1
ACMESCOPE
  2
AcMeScope
  3
AcMeServices
 90
        0
280
     0
281
     0
  0
CLASS
  1
ACMECOMMANDHISTORY
  2
AcMeCommandHistory
  3
AcMeServices
 90
        0
280
     0
281
     0
  0
CLASS
  1
ACIMSYSVARMAN
  2
AcImSysVarManager
  3
AcMeServices
 90
        0
280
     0
281
     0
  0
CLASS
  1
ACIMINTSYSVAR
  2
AcImIntSysVar
  3
AcMeServices
 90
        0
280
     0
281
     0
  0
CLASS
  1
ACMEDRAWINGMAN
  2
AcMeDrawingMan
  3
AcMeServices
 90
        0
280
     0
281
     0
  0
CLASS
  1
ACMEVIEW
  2
AcMeView
  3
AcMeServices
 90
        0
280
     0
281
     0
  0
CLASS
  1
ACDBENTITYCACHE
  2
AcMeEntityCache
  3
AcMeServices
 90
        0
280
     0
281
     0
  0
CLASS
  1
GSMANAGER
  2
AcMeGSManager
  3
AcMeServices
 90
        0
280
     0
281
     0
  0
CLASS
  1
AMDTINTERNALREACTOR
  2
AmdtInternalReactor
  3
AcMeServices
 90
        0
280
     0
281
     0
  0
CLASS
  1
ACMESTATEMGR
  2
AcMeStateMgr
  3
AcMeServices
 90
        0
280
     0
281
     0
  0
CLASS
  1
ACGREFMASTER
  2
AcGrefMaster
  3
AcAttribServices
 90
        0
280
     0
281
     0
  0
CLASS
  1
AM_DRAWING_MGR
  2
AcDmDwgMgr
  3
AcMechDwgViewMgmt
 90
        0
280
     0
281
     0
  0
CLASS
  1
AM_DWG_DOCUMENT
  2
AcDmDwgDocument
  3
AcMechDwgViewMgmt
 90
        0
280
     0
281
     0
  0
CLASS
  1
AM_DWG_SHEET
  2
AcDmSheet
  3
AcMechDwgViewMgmt
 90
        0
280
     0
281
     0
  0
CLASS
  1
AM_VIEWDIMPARMAP
  2
AcDmViewDimParMap
  3
AcMechDwgViewMgmt
 90
        0
280
     0
281
     0
  0
CLASS
  1
ACIMREALSYSVAR
  2
AcImRealSysVar
  3
AcMeServices
 90
        0
280
     0
281
     0
  0
CLASS
  1
AM_DWGMGR_NAME
  2
AcDmDwgMgrName
  3
AcMechDwgViewMgmt
 90
        0
280
     0
281
     0
  0
CLASS
  1
ACME_DATABASE
  2
AcMeDbDatabase
  3
AcMeServices
 90
        0
280
     0
281
     0
  0
CLASS
  1
ACRFINSADJUSTERMGR
  2
AcRfInsAdjusterMgr
  3
AcMeServices
 90
        0
280
     0
281
     0
  0
CLASS
  1
ACGREFACADMASTER
  2
AcGrefacadMaster
  3
AcGrefServices
 90
        0
280
     0
281
     0
  0
CLASS
  1
AMDTMENUSTATEMGR
  2
AmdtMenuStateMgr
  3
McadcomServices
 90
        0
280
     0
281
     0
  0
CLASS
  1
AMDTMCOMMENUSTATE
  2
AmdtMcomMenuState
  3
McadcomServices
 90
        0
280
     0
281
     0
  0
CLASS
  1
AMIMASTER
  2
AmiMaster
  3
AmiServices
 90
        0
280
     0
281
     0
  0
CLASS
  1
MAPIAMMOUDLE
  2
MApiAmModule
  3
MApiAmServices
 90
        0
280
     0
281
     0
  0
CLASS
  1
AMDTADMENUSTATE
  2
AmdtAdMenuState
  3
DesignerServices
 90
        0
280
     0
281
     0
  0
CLASS
  1
ADAPPL
  2
AcAdAppl
  3
DesignerServices
 90
        0
280
     0
281
     0
  0
CLASS
  1
DEPMGR
  2
AcAdDepMgr
  3
DesignerServices
 90
        0
280
     0
281
     0
  0
CLASS
  1
PARAMMGR
  2
AcAdParamMgr
  3
DesignerServices
 90
        0
280
     0
281
     0
  0
CLASS
  1
PARAMSCOPE
  2
AcAdParamScope
  3
DesignerServices
 90
        0
280
     0
281
     0
  0
CLASS
  1
NAMEDAPPL
  2
AcAdNamedAppl
  3
DesignerServices
 90
        0
280
     0
281
     0
  0
CLASS
  1
AMDTDMMENUSTATE
  2
AmdtDmMenuState
  3
AcMechDwgViewMgmt
 90
        0
280
     0
281
     0
  0
CLASS
  1
AMDTAMMENUSTATE
  2
AmdtAmMenuState
  3
DesignerAssemblies
 90
        0
280
     0
281
     0
  0
CLASS
  1
ACIMSTRSYSVAR
  2
AcImStrSysVar
  3
AcMeServices
 90
        0
280
     0
281
     0
  0
CLASS
  1
ACAMPROJECT
  2
AcAmProject
  3
DesignerAssemblies
 90
        0
280
     0
281
     0
  0
CLASS
  1
ACAMGRCOMPDEF
  2
AcAmGrCompDef
  3
DesignerAssemblies
 90
        0
280
     0
281
     0
  0
CLASS
  1
ACCMCONTEXT
  2
AcCmContext
  3
DesignerAssemblies
 90
        0
280
     0
281
     0
  0
CLASS
  1
ACAMCOMPDEF
  2
AcAmCompDef
  3
DesignerAssemblies
 90
        0
280
     0
281
     0
  0
CLASS
  1
ACAMCOMPDEFMGR
  2
AcAmCompDefMgr
  3
DesignerAssemblies
 90
        0
280
     0
281
     0
  0
CLASS
  1
AMCONTEXTMGR
  2
AcAmContextMgr
  3
DesignerAssemblies
 90
        0
280
     0
281
     0
  0
CLASS
  1
ACAMCONTEXTMODELER
  2
AcAmContextModeler
  3
DesignerAssemblies
 90
        0
280
     0
281
     0
  0
CLASS
  1
ACMDATADICTIONARY
  2
AcmDataDictionary
  3
"AcmSymBB|Product Description: AutoCAD Mechanical 2004 DX|Company: Autodesk"
 90
        0
280
     0
281
     0
  0
CLASS
  1
CATALOGSTATE
  2
AcAmCatalogState
  3
DesignerAssemblies
 90
        0
280
     0
281
     0
  0
CLASS
  1
ACAMGRCOMPDEFSET
  2
AcAmGrCompDefSet
  3
DesignerAssemblies
 90
        0
280
     0
281
     0
  0
CLASS
  1
AMDTBROWSERDBTAB
  2
AmdtBrowserDbTab
  3
McadcomServices
 90
        0
280
     0
281
     0
  0
CLASS
  1
CBROWSERAPPOBJECT
  2
CBrowserAppObject
  3
McadcomServices
 90
        0
280
     0
281
     0
  0
CLASS
  1
DM_PLACEHOLDER
  2
AcDmSelsetPlaceholder
  3
AcMechDwgViewMgmt
 90
        0
280
     0
281
     0
  0
CLASS
  1
ACMSTANDARDISO
  2
AcmStandardISO
  3
"Amdt_StdImp|Product Description: AutoCAD Mechanical 2004 DX|Company: Autodesk"
 90
        0
280
     0
281
     0
  0
CLASS
  1
AMGOBJPROPCFG
  2
AmgObjPropCfg
  3
"AmgLay|Product Description: AutoCAD Mechanical 2000|Company: Autodesk"
 90
        1
280
     0
281
     0
  0
CLASS
  1
AMDTEDGESTANDARDISO13715
  2
AmdtEdgeStdISO13715
  3
"Amdt_StdImp|Product Description: AutoCAD Mechanical 2004 DX|Company: Autodesk"
 90
        0
280
     0
281
     0
  0
CLASS
  1
ACMSURFSTANDARDISO
  2
AcmSurfTextStdISO
  3
"Amdt_StdImp|Product Description: AutoCAD Mechanical 2004 DX|Company: Autodesk"
 90
        0
280
     0
281
     0
  0
CLASS
  1
ACMFCFSTANDARDISO
  2
AcmFCFStdISO
  3
"Amdt_StdImp|Product Description: AutoCAD Mechanical 2004 DX|Company: Autodesk"
 90
        0
280
     0
281
     0
  0
CLASS
  1
ACMWELDSTANDARDISO
  2
AcmWeldingStdISO
  3
"Amdt_StdImp|Product Description: AutoCAD Mechanical 2004 DX|Company: Autodesk"
 90
        0
280
     0
281
     0
  0
CLASS
  1
ACMIDSTANDARDISO
  2
AcmIdStdISO
  3
"Amdt_StdImp|Product Description: AutoCAD Mechanical 2004 DX|Company: Autodesk"
 90
        0
280
     0
281
     0
  0
CLASS
  1
ACMDATUMSTANDARDISO
  2
AcmDatumStdISO
  3
"Amdt_StdImp|Product Description: AutoCAD Mechanical 2004 DX|Company: Autodesk"
 90
        0
280
     0
281
     0
  0
CLASS
  1
ACMBOMSTANDARDISO
  2
AcmBOMStdISO
  3
"Amdt_StdImp|Product Description: AutoCAD Mechanical 2004 DX|Company: Autodesk"
 90
        0
280
     0
281
     0
  0
CLASS
  1
ACMDETAILSTANDARDISO
  2
AmdtDetailSymStdISO
  3
"Amdt_StdImp|Product Description: AutoCAD Mechanical 2004 DX|Company: Autodesk"
 90
        0
280
     0
281
     0
  0
CLASS
  1
ACMSECTIONSTANDARDISO
  2
AmdtSectionSymStdISO
  3
"Amdt_StdImp|Product Description: AutoCAD Mechanical 2004 DX|Company: Autodesk"
 90
        0
280
     0
281
     0
  0
CLASS
  1
ACMCENTERLINESTANDARDISO
  2
AmdtCenterLineStdISO
  3
"Amdt_StdImp|Product Description: AutoCAD Mechanical 2004 DX|Company: Autodesk"
 90
        0
280
     0
281
     0
  0
CLASS
  1
ACMTHREADLINESTANDARDISO
  2
AmdtThreadLineStdISO
  3
"Amdt_StdImp|Product Description: AutoCAD Mechanical 2004 DX|Company: Autodesk"
 90
        0
280
     0
281
     0
  0
CLASS
  1
ACMNOTESTANDARDISO
  2
AmdtNoteStdISO
  3
"Amdt_StdImp|Product Description: AutoCAD Mechanical 2004 DX|Company: Autodesk"
 90
        0
280
     0
281
     0
  0
CLASS
  1
AMDTNOTETEMPLATEDB
  2
AmdtNoteTemplateDB
  3
AMDT_STDIMP_MODULE_NAME
 90
        0
280
     0
281
     0
  0
CLASS
  1
ACAMGLAYSTD
  2
AcAmgLayStd
  3
"AcAmgLayStd|Product Description: AutoCAD Mechanical 2000|Company: Autodesk"
 90
        0
280
     0
281
     0
  0
CLASS
  1
ACAMGDIMSTD
  2
AcAmgDimStd
  3
"AcAmgDimStd|Product Description: AutoCAD Mechanical 2000|Company: Autodesk"
 90
        0
280
     0
281
     0
  0
CLASS
  1
ACAMGHOLECHARTSTDISO
  2
AcAmgHoleChartStdISO
  3
ACMSYMBB_MODULE_NAME
 90
        0
280
     0
281
     0
  0
CLASS
  1
ACAMGTITLESTD
  2
AcAmgTitleStd
  3
"TITLEAPP"
 90
        0
280
     0
281
     0
  0
CLASS
  1
ACAMGFILTERDAT
  2
AcAmgFilterDat
  3
"AcadM|Product Description: AutoCAD Mechanical 2000|Company: Autodesk"
 90
    32768
280
     0
281
     0
  0
ENDSEC
  0
SECTION
  2
TABLES
  0
TABLE
  2
VPORT
  5
8
330
0
100
AcDbSymbolTable
 70
     3
  0
VPORT
  5
3CB7
330
8
100
AcDbSymbolTableRecord
100
AcDbViewportTableRecord
  2
*Active
 70
     0
 10
0.0
 20
0.0
 11
1.0
 21
1.0
 12
164.3813137329073
 22
129.2912874187092
 13
0.0
 23
0.0
 14
0.5
 24
0.5
 15
0.5
 25
0.5
 16
0.0
 26
0.0
 36
1.0
 17
0.0
 27
0.0
 37
0.0
 40
246.6265755551198
 41
1.609210526315789
 42
50.0
 43
0.0
 44
0.0
 50
0.0
 51
0.0
 71
     0
 72
   100
 73
     1
 74
     3
 75
     0
 76
     0
 77
     0
 78
     0
281
     0
 65
     1
110
0.0
120
0.0
130
0.0
111
1.0
121
0.0
131
0.0
112
0.0
122
1.0
132
0.0
 79
     0
146
0.0
  0
ENDTAB
  0
TABLE
  2
LTYPE
  5
5
330
0
100
AcDbSymbolTable
 70
    14
  0
LTYPE
  5
14
330
5
100
AcDbSymbolTableRecord
100
AcDbLinetypeTableRecord
  2
ByBlock
 70
     0
  3

 72
    65
 73
     0
 40
0.0
  0
LTYPE
  5
15
330
5
100
AcDbSymbolTableRecord
100
AcDbLinetypeTableRecord
  2
ByLayer
 70
     0
  3

 72
    65
 73
     0
 40
0.0
  0
LTYPE
  5
16
330
5
100
AcDbSymbolTableRecord
100
AcDbLinetypeTableRecord
  2
Continuous
 70
     0
  3
Solid line
 72
    65
 73
     0
 40
0.0
  0
LTYPE
  5
4F
330
5
100
AcDbSymbolTableRecord
100
AcDbLinetypeTableRecord
  2
CENTER
 70
     0
  3
Center ____ _ ____ _ ____ _ ____ _ ____ _ ____
 72
    65
 73
     4
 40
2.0
 49
1.25
 74
     0
 49
-0.25
 74
     0
 49
0.25
 74
     0
 49
-0.25
 74
     0
  0
LTYPE
  5
3145
330
5
100
AcDbSymbolTableRecord
100
AcDbLinetypeTableRecord
  2
HIDDEN
 70
     0
  3
__ __ __ __ __ __ __ __ __ __ __ __ __ __ __ __
 72
    65
 73
     2
 40
0.375
 49
0.25
 74
     0
 49
-0.125
 74
     0
  0
LTYPE
  5
3146
330
5
100
AcDbSymbolTableRecord
100
AcDbLinetypeTableRecord
  2
PHANTOM2
 70
     0
  3
___ _ _ ___ _ _ ___ _ _ ___ _ _ ___ _ _ ___ _ _
 72
    65
 73
     6
 40
1.25
 49
0.625
 74
     0
 49
-0.125
 74
     0
 49
0.125
 74
     0
 49
-0.125
 74
     0
 49
0.125
 74
     0
 49
-0.125
 74
     0
  0
LTYPE
  5
314B
330
5
100
AcDbSymbolTableRecord
100
AcDbLinetypeTableRecord
  2
Amconstr
 70
     0
  3
_______________________
 72
    65
 73
     2
 40
9999.0
 49
9999.0
 74
     0
 49
0.0
 74
     0
  0
LTYPE
  5
3910
330
5
100
AcDbSymbolTableRecord
100
AcDbLinetypeTableRecord
  2
AM_ISO02W050
 70
     0
  3
__ __ __ __ __ __ __ __ __ __ __ __ __ __ __
 72
    65
 73
     2
 40
7.5
 49
6.0
 74
     0
 49
-1.5
 74
     0
  0
LTYPE
  5
3911
330
5
100
AcDbSymbolTableRecord
100
AcDbLinetypeTableRecord
  2
AM_ISO08W050
 70
     0
  3
____ . ____ . ____ . ____ . ____ . ____ . ____
 72
    65
 73
     4
 40
18.0
 49
12.0
 74
     0
 49
-1.5
 74
     0
 49
3.0
 74
     0
 49
-1.5
 74
     0
  0
LTYPE
  5
3912
330
5
100
AcDbSymbolTableRecord
100
AcDbLinetypeTableRecord
  2
AM_ISO09W050
 70
     0
  3
_____ . . _____ . . _____ . . ____ .. ____
 72
    65
 73
     6
 40
22.5
 49
12.0
 74
     0
 49
-1.5
 74
     0
 49
3.0
 74
     0
 49
-1.5
 74
     0
 49
3.0
 74
     0
 49
-1.5
 74
     0
  0
LTYPE
  5
3913
330
5
100
AcDbSymbolTableRecord
100
AcDbLinetypeTableRecord
  2
AM_ISO08W050x2
 70
     0
  3
__ . __ . __ . __ . __ . __
 72
    65
 73
     4
 40
9.0
 49
6.0
 74
     0
 49
-0.75
 74
     0
 49
1.5
 74
     0
 49
-0.75
 74
     0
  0
LTYPE
  5
3914
330
5
100
AcDbSymbolTableRecord
100
AcDbLinetypeTableRecord
  2
AM_ISO02W050x2
 70
     0
  3
 _ _ _ _ _ _ _ _ _ _ _ _
 72
    65
 73
     2
 40
3.75
 49
3.0
 74
     0
 49
-0.75
 74
     0
  0
LTYPE
  5
3915
330
5
100
AcDbSymbolTableRecord
100
AcDbLinetypeTableRecord
  2
Amzigzag
 70
     0
  3
/\/-/\/-/\/-/\/-/\/-/\/
 72
    65
 73
     2
 40
11.0001
 49
0.0001
 74
     4
 75
   135
340
3150
 46
0.04
 50
0.0
 44
0.0
 45
0.0
 49
-11.0
 74
     0
  0
LTYPE
  5
3924
330
5
100
AcDbSymbolTableRecord
100
AcDbLinetypeTableRecord
  2
ACISOWELD
 70
     0
  3
_ _ _ _ _
 72
    65
 73
     2
 40
2.0
 49
2.0
 74
     0
 49
-1.0
 74
     0
  0
LTYPE
  5
3925
330
5
100
AcDbSymbolTableRecord
100
AcDbLinetypeTableRecord
  2
ACISOTGB
 70
     0
  3
__ . . __ . .
 72
    65
 73
     6
 40
9.0
 49
4.0
 74
     0
 49
-1.0
 74
     0
 49
1.0
 74
     0
 49
-1.0
 74
     0
 49
1.0
 74
     0
 49
-1.0
 74
     0
  0
LTYPE
  5
3926
330
5
100
AcDbSymbolTableRecord
100
AcDbLinetypeTableRecord
  2
ACISOTGL
 70
     0
  3
_ _ _ _ _
 72
    65
 73
     2
 40
3.0
 49
2.0
 74
     0
 49
-1.0
 74
     0
  0
ENDTAB
  0
TABLE
  2
LAYER
  5
2
102
{ACAD_XDICTIONARY
360
315B
102
}
330
0
100
AcDbSymbolTable
 70
     9
  0
LAYER
  5
10
330
2
100
AcDbSymbolTableRecord
100
AcDbLayerTableRecord
  2
0
 70
     0
 62
     7
  6
Continuous
370
    -3
390
F
  0
LAYER
  5
48
330
2
100
AcDbSymbolTableRecord
100
AcDbLayerTableRecord
  2
DIM
 70
     0
 62
     5
  6
Continuous
370
    -3
390
F
  0
LAYER
  5
4A
330
2
100
AcDbSymbolTableRecord
100
AcDbLayerTableRecord
  2
CENTER
 70
     0
 62
     1
  6
CENTER
370
    -3
390
F
  0
LAYER
  5
1545
330
2
100
AcDbSymbolTableRecord
100
AcDbLayerTableRecord
  2
LOGO
 70
     0
 62
     7
  6
Continuous
370
    -3
390
F
  0
LAYER
  5
1A52
330
2
100
AcDbSymbolTableRecord
100
AcDbLayerTableRecord
  2
Defpoints
 70
     0
 62
     7
  6
Continuous
290
     0
370
    -3
390
F
  0
LAYER
  5
314D
330
2
100
AcDbSymbolTableRecord
100
AcDbLayerTableRecord
  2
AM_VIS
 70
     0
 62
     7
  6
Continuous
370
    30
390
F
  0
LAYER
  5
314E
330
2
100
AcDbSymbolTableRecord
100
AcDbLayerTableRecord
  2
AM_4
 70
     0
 62
     3
  6
Continuous
370
    15
390
F
  0
LAYER
  5
3C60
330
2
100
AcDbSymbolTableRecord
100
AcDbLayerTableRecord
  2
AM_7
 70
     0
 62
     4
  6
AM_ISO08W050
370
    25
390
F
  0
LAYER
  5
3C61
330
2
100
AcDbSymbolTableRecord
100
AcDbLayerTableRecord
  2
AM_5
 70
     0
 62
     3
  6
Continuous
370
    25
390
F
  0
ENDTAB
  0
TABLE
  2
STYLE
  5
3
330
0
100
AcDbSymbolTable
 70
     7
  0
STYLE
  5
11
330
3
100
AcDbSymbolTableRecord
100
AcDbTextStyleTableRecord
  2
Standard
 70
     0
 40
3.0
 41
1.0
 50
0.0
 71
     0
 42
3.0
  3
KAIU.TTF
  4

1001
ACAD
1000
DFKai-SB
1071
    34865
  0
STYLE
  5
5C
330
3
100
AcDbSymbolTableRecord
100
AcDbTextStyleTableRecord
  2
CHINESET
 70
     0
 40
3.0
 41
1.0
 50
0.0
 71
     0
 42
4.5
  3
simplex.shx
  4
CHINESET.shx
  0
STYLE
  5
3150
330
3
100
AcDbSymbolTableRecord
100
AcDbTextStyleTableRecord
  2

 70
     1
 40
0.0
 41
1.0
 50
0.0
 71
     0
 42
0.12
  3
ltypeshp.shx
  4

  0
STYLE
  5
3151
330
3
100
AcDbSymbolTableRecord
100
AcDbTextStyleTableRecord
  2
dayus
 70
     0
 40
2.0
 41
1.0
 50
0.0
 71
     0
 42
6.0
  3
simplex.shx
  4
dayus.shx
  0
STYLE
  5
3916
330
3
100
AcDbSymbolTableRecord
100
AcDbTextStyleTableRecord
  2
ACISOTS
 70
     0
 40
1.0
 41
1.0
 50
0.0
 71
     0
 42
4.5
  3
isocp.shx
  4
chineset.shx
  0
STYLE
  5
3923
330
3
100
AcDbSymbolTableRecord
100
AcDbTextStyleTableRecord
  2
ACISOGDT
 70
     0
 40
0.0
 41
1.0
 50
0.0
 71
     0
 42
4.5
  3
amgdt.shx
  4

  0
ENDTAB
  0
TABLE
  2
VIEW
  5
6
330
0
100
AcDbSymbolTable
 70
     0
  0
ENDTAB
  0
TABLE
  2
UCS
  5
7
330
0
100
AcDbSymbolTable
 70
     0
  0
ENDTAB
  0
TABLE
  2
APPID
  5
9
330
0
100
AcDbSymbolTable
 70
    21
  0
APPID
  5
12
330
9
100
AcDbSymbolTableRecord
100
AcDbRegAppTableRecord
  2
ACAD
 70
     0
  0
APPID
  5
5F
330
9
100
AcDbSymbolTableRecord
100
AcDbRegAppTableRecord
  2
AD_DRAW
 70
     0
  0
APPID
  5
60
330
9
100
AcDbSymbolTableRecord
100
AcDbRegAppTableRecord
  2
DESIGNERASSEMBLIES
 70
     0
  0
APPID
  5
61
330
9
100
AcDbSymbolTableRecord
100
AcDbRegAppTableRecord
  2
MCAD_NO_VIS
 70
     0
  0
APPID
  5
62
330
9
100
AcDbSymbolTableRecord
100
AcDbRegAppTableRecord
  2
ASURF_PCURVE_APPNAME
 70
     0
  0
APPID
  5
11A1
330
9
100
AcDbSymbolTableRecord
100
AcDbRegAppTableRecord
  2
CONTENTBLOCKICON
 70
     0
  0
APPID
  5
315A
330
9
100
AcDbSymbolTableRecord
100
AcDbRegAppTableRecord
  2
GENIUS_GENDTOL_13
 70
     0
  0
APPID
  5
38B1
330
9
100
AcDbSymbolTableRecord
100
AcDbRegAppTableRecord
  2
ACAD_TEMP_GRAPHIC
 70
     0
  0
APPID
  5
38E2
330
9
100
AcDbSymbolTableRecord
100
AcDbRegAppTableRecord
  2
ACATTRIBSERVICES
 70
     0
  0
APPID
  5
3905
330
9
100
AcDbSymbolTableRecord
100
AcDbRegAppTableRecord
  2
ACADM_DIM_EDIT
 70
     0
  0
APPID
  5
3906
330
9
100
AcDbSymbolTableRecord
100
AcDbRegAppTableRecord
  2
AMDT_DM_ADJ
 70
     0
  0
APPID
  5
393C
330
9
100
AcDbSymbolTableRecord
100
AcDbRegAppTableRecord
  2
GENIUS_GENOENT_13
 70
     0
  0
APPID
  5
393D
330
9
100
AcDbSymbolTableRecord
100
AcDbRegAppTableRecord
  2
GENIUS_GENOBJ-N-CRS_13
 70
     0
  0
APPID
  5
393E
330
9
100
AcDbSymbolTableRecord
100
AcDbRegAppTableRecord
  2
GENIUS_GENOLIS_13
 70
     0
  0
APPID
  5
393F
330
9
100
AcDbSymbolTableRecord
100
AcDbRegAppTableRecord
  2
GENIUS_GENODEF_13
 70
     0
  0
APPID
  5
3940
330
9
100
AcDbSymbolTableRecord
100
AcDbRegAppTableRecord
  2
GENIUS_GENOREF_13
 70
     0
  0
APPID
  5
3941
330
9
100
AcDbSymbolTableRecord
100
AcDbRegAppTableRecord
  2
ACAD_PSEXT
 70
     0
  0
APPID
  5
3942
330
9
100
AcDbSymbolTableRecord
100
AcDbRegAppTableRecord
  2
GENIUS_GENREC_14
 70
     0
  0
APPID
  5
3943
330
9
100
AcDbSymbolTableRecord
100
AcDbRegAppTableRecord
  2
GENIUS_GENOBJ-N-REC_13
 70
     0
  0
APPID
  5
3C62
330
9
100
AcDbSymbolTableRecord
100
AcDbRegAppTableRecord
  2
GENIUS_GENOBJ-N-CEN_13
 70
     0
  0
APPID
  5
3C63
330
9
100
AcDbSymbolTableRecord
100
AcDbRegAppTableRecord
  2
GENIUS_GENCEN_19
 70
     0
  0
ENDTAB
  0
TABLE
  2
DIMSTYLE
  5
A
330
0
100
AcDbSymbolTable
 70
    11
100
AcDbDimStyleTable
 71
     1
340
1A4
  0
DIMSTYLE
105
1A4
330
A
100
AcDbSymbolTableRecord
100
AcDbDimStyleTableRecord
  2
ISO-25-1
 70
     0
 41
3.0
 42
3.0
 43
2.0
 44
2.0
 73
     0
 74
     0
 77
     1
 78
     8
 79
     2
140
3.0
141
-3.0
146
0.7
147
1.0
172
     1
176
   256
177
   256
178
   256
271
     2
272
     2
284
     8
289
     0
340
5C
371
    -1
372
    -1
  0
DIMSTYLE
105
3154
102
{ACAD_REACTORS
330
3575
330
3578
330
357B
330
357E
330
3581
330
3584
330
3587
330
358A
330
358D
330
3590
330
3593
330
359A
330
359F
330
35A2
330
35A5
330
35AA
330
35AD
330
35B0
330
35B3
330
35B6
330
35B9
330
35BC
330
35BF
330
35C4
330
35C7
330
35C8
330
35C9
102
}
330
A
100
AcDbSymbolTableRecord
100
AcDbDimStyleTableRecord
  2
AM_ANSI
 70
     0
  4
"
 41
2.5
 42
1.0
 43
10.0
 44
1.0
 47
0.1
 48
0.1
 78
     8
 79
     2
140
3.5
141
0.0
143
0.0393701
146
0.71
147
1.5
176
   256
177
   256
178
     2
271
     2
272
     3
274
     4
284
     8
340
11
371
    -1
372
    -1
  0
DIMSTYLE
105
3157
330
A
100
AcDbSymbolTableRecord
100
AcDbDimStyleTableRecord
  2
AM_ANSI$7
 70
     0
  4
"
 41
2.5
 42
1.0
 43
10.0
 44
1.0
 47
0.1
 48
0.1
 78
     8
 79
     2
140
5.0
141
0.0
143
0.0393701
146
0.71
147
1.5
176
   256
177
   256
178
     2
271
     2
272
     3
274
     4
284
     8
340
11
371
    -1
372
    -1
  0
DIMSTYLE
105
3930
330
A
100
AcDbSymbolTableRecord
100
AcDbDimStyleTableRecord
  2
AM_ISO
 70
     0
  4
"
 41
2.5
 42
1.0
 43
10.0
 44
1.0
 47
0.1
 48
0.1
 73
     0
 74
     0
 77
     1
 78
     8
 79
     2
140
3.5
141
0.0
143
0.0393701
146
0.71
147
1.5
172
     1
176
   256
177
   256
178
     2
271
     2
272
     3
274
     4
283
     0
284
     8
340
11
371
    -1
372
    -1
  0
DIMSTYLE
105
3931
330
A
100
AcDbSymbolTableRecord
100
AcDbDimStyleTableRecord
  2
AM_ISO$3
 70
     0
  4
"
 41
2.5
 42
1.0
 43
10.0
 44
1.0
 47
0.1
 48
0.1
 73
     0
 77
     1
 78
     8
 79
     2
140
3.5
141
0.0
143
0.0393701
146
0.71
147
1.5
176
   256
177
   256
178
     2
271
     2
272
     3
274
     4
283
     0
284
     8
288
     1
289
     0
340
11
371
    -1
372
    -1
  0
DIMSTYLE
105
3932
330
A
100
AcDbSymbolTableRecord
100
AcDbDimStyleTableRecord
  2
AM_ISO$4
 70
     0
  4
"
 41
2.5
 42
1.0
 43
10.0
 44
1.0
 47
0.1
 48
0.1
 73
     0
 77
     1
 78
     8
 79
     2
140
3.5
141
0.0
143
0.0393701
146
0.71
147
1.5
176
   256
177
   256
178
     2
271
     2
272
     3
274
     4
283
     0
284
     8
288
     1
289
     0
340
11
371
    -1
372
    -1
  0
DIMSTYLE
105
3933
330
A
100
AcDbSymbolTableRecord
100
AcDbDimStyleTableRecord
  2
AM_ISO$6
 70
     0
  4
"
 41
2.5
 42
1.0
 43
10.0
 44
1.0
 47
0.1
 48
0.1
 73
     0
 74
     0
 78
     8
 79
     2
140
3.5
141
0.0
143
0.0393701
146
0.71
147
1.5
172
     1
176
   256
177
   256
178
     2
271
     2
272
     3
274
     4
283
     0
284
     8
340
11
371
    -1
372
    -1
  0
DIMSTYLE
105
3934
330
A
100
AcDbSymbolTableRecord
100
AcDbDimStyleTableRecord
  2
AM_ISO$7
 70
     0
  4
"
 41
2.5
 42
1.0
 43
10.0
 44
1.0
 47
0.1
 48
0.1
 73
     0
 74
     0
 77
     1
 78
     8
 79
     2
140
5.0
141
0.0
143
0.0393701
146
0.71
147
1.5
172
     1
176
   256
177
   256
178
     2
271
     2
272
     3
274
     4
283
     0
284
     8
340
11
371
    -1
372
    -1
  0
DIMSTYLE
105
3935
330
A
100
AcDbSymbolTableRecord
100
AcDbDimStyleTableRecord
  2
AM_ISO$SF
 70
     0
  4
"
 41
2.5
 42
1.0
 43
10.0
 44
1.0
 47
0.1
 48
0.1
 73
     0
 74
     0
 75
     1
 76
     1
 77
     1
 78
     8
 79
     2
140
3.5
141
0.0
143
0.0393701
146
0.71
147
1.5
172
     1
176
   256
177
   256
178
     2
271
     2
272
     3
274
     4
283
     0
284
     8
340
11
371
    -1
372
    -1
  0
DIMSTYLE
105
3936
330
A
100
AcDbSymbolTableRecord
100
AcDbDimStyleTableRecord
  2
AM_ISO$SH
 70
     0
  4
"
 41
2.5
 42
1.0
 43
10.0
 44
1.0
 47
0.1
 48
0.1
 73
     0
 74
     0
 75
     1
 76
     1
 77
     1
 78
     8
 79
     2
140
3.5
141
0.0
143
0.0393701
144
2.0
146
0.71
147
1.5
172
     1
173
     1
176
   256
177
   256
178
     2
271
     2
272
     3
274
     4
283
     0
284
     8
340
11
343
2FF1
371
    -1
372
    -1
  0
ENDTAB
  0
TABLE
  2
BLOCK_RECORD
  5
1
330
0
100
AcDbSymbolTable
 70
    33
  0
BLOCK_RECORD
  5
1F
102
{ACAD_XDICTIONARY
360
2F55
102
}
330
1
100
AcDbSymbolTableRecord
100
AcDbBlockTableRecord
  2
*Model_Space
340
22
  0
BLOCK_RECORD
  5
1B
102
{ACAD_XDICTIONARY
360
2F57
102
}
330
1
100
AcDbSymbolTableRecord
100
AcDbBlockTableRecord
  2
*Paper_Space
340
1E
  0
BLOCK_RECORD
  5
23
102
{ACAD_XDICTIONARY
360
2F59
102
}
330
1
100
AcDbSymbolTableRecord
100
AcDbBlockTableRecord
  2
*Paper_Space0
340
26
  0
BLOCK_RECORD
  5
2FF1
330
1
100
AcDbSymbolTableRecord
100
AcDbBlockTableRecord
  2
GENAXEH
340
0
  0
BLOCK_RECORD
  5
35CE
330
1
100
AcDbSymbolTableRecord
100
AcDbBlockTableRecord
  2
*D2
340
0
  0
BLOCK_RECORD
  5
35DA
330
1
100
AcDbSymbolTableRecord
100
AcDbBlockTableRecord
  2
*D3
340
0
  0
BLOCK_RECORD
  5
35E6
330
1
100
AcDbSymbolTableRecord
100
AcDbBlockTableRecord
  2
*D4
340
0
  0
BLOCK_RECORD
  5
35F2
330
1
100
AcDbSymbolTableRecord
100
AcDbBlockTableRecord
  2
*D5
340
0
  0
BLOCK_RECORD
  5
3600
330
1
100
AcDbSymbolTableRecord
100
AcDbBlockTableRecord
  2
*D6
340
0
  0
BLOCK_RECORD
  5
360C
330
1
100
AcDbSymbolTableRecord
100
AcDbBlockTableRecord
  2
*D7
340
0
  0
BLOCK_RECORD
  5
3618
330
1
100
AcDbSymbolTableRecord
100
AcDbBlockTableRecord
  2
*D8
340
0
  0
BLOCK_RECORD
  5
3626
330
1
100
AcDbSymbolTableRecord
100
AcDbBlockTableRecord
  2
*D9
340
0
  0
BLOCK_RECORD
  5
3632
330
1
100
AcDbSymbolTableRecord
100
AcDbBlockTableRecord
  2
*D10
340
0
  0
BLOCK_RECORD
  5
363E
330
1
100
AcDbSymbolTableRecord
100
AcDbBlockTableRecord
  2
*D11
340
0
  0
BLOCK_RECORD
  5
364A
330
1
100
AcDbSymbolTableRecord
100
AcDbBlockTableRecord
  2
*D12
340
0
  0
BLOCK_RECORD
  5
3656
330
1
100
AcDbSymbolTableRecord
100
AcDbBlockTableRecord
  2
*D13
340
0
  0
BLOCK_RECORD
  5
3662
330
1
100
AcDbSymbolTableRecord
100
AcDbBlockTableRecord
  2
*D14
340
0
  0
BLOCK_RECORD
  5
366E
330
1
100
AcDbSymbolTableRecord
100
AcDbBlockTableRecord
  2
*D15
340
0
  0
BLOCK_RECORD
  5
367A
330
1
100
AcDbSymbolTableRecord
100
AcDbBlockTableRecord
  2
*D16
340
0
  0
BLOCK_RECORD
  5
3688
330
1
100
AcDbSymbolTableRecord
100
AcDbBlockTableRecord
  2
*D17
340
0
  0
BLOCK_RECORD
  5
3694
330
1
100
AcDbSymbolTableRecord
100
AcDbBlockTableRecord
  2
*D18
340
0
  0
BLOCK_RECORD
  5
36A0
330
1
100
AcDbSymbolTableRecord
100
AcDbBlockTableRecord
  2
*D19
340
0
  0
BLOCK_RECORD
  5
36AC
330
1
100
AcDbSymbolTableRecord
100
AcDbBlockTableRecord
  2
*D20
340
0
  0
BLOCK_RECORD
  5
36BA
330
1
100
AcDbSymbolTableRecord
100
AcDbBlockTableRecord
  2
*D21
340
0
  0
BLOCK_RECORD
  5
36C8
330
1
100
AcDbSymbolTableRecord
100
AcDbBlockTableRecord
  2
*D22
340
0
  0
BLOCK_RECORD
  5
36D4
330
1
100
AcDbSymbolTableRecord
100
AcDbBlockTableRecord
  2
*D23
340
0
  0
BLOCK_RECORD
  5
36E0
330
1
100
AcDbSymbolTableRecord
100
AcDbBlockTableRecord
  2
*D24
340
0
  0
BLOCK_RECORD
  5
36EC
330
1
100
AcDbSymbolTableRecord
100
AcDbBlockTableRecord
  2
*D25
340
0
  0
BLOCK_RECORD
  5
36F8
330
1
100
AcDbSymbolTableRecord
100
AcDbBlockTableRecord
  2
*D26
340
0
  0
BLOCK_RECORD
  5
3704
330
1
100
AcDbSymbolTableRecord
100
AcDbBlockTableRecord
  2
*D27
340
0
  0
BLOCK_RECORD
  5
3710
330
1
100
AcDbSymbolTableRecord
100
AcDbBlockTableRecord
  2
*D28
340
0
  0
BLOCK_RECORD
  5
3BCE
102
{ACAD_XDICTIONARY
360
3BCF
102
}
330
1
100
AcDbSymbolTableRecord
100
AcDbBlockTableRecord
  2
A$C5ECF147B
340
0
102
{BLKREFS
331
3BFB
331
3C09
331
3C0A
331
3C23
331
3C31
331
3C32
102
}
  0
BLOCK_RECORD
  5
3C57
102
{ACAD_XDICTIONARY
360
3C58
102
}
330
1
100
AcDbSymbolTableRecord
100
AcDbBlockTableRecord
  2
A$C1F6E6265
340
0
102
{BLKREFS
331
3C6C
331
3C6F
102
}
  0
ENDTAB
  0
ENDSEC
  0
SECTION
  2
BLOCKS
  0
BLOCK
  5
20
330
1F
100
AcDbEntity
  8
0
100
AcDbBlockBegin
  2
*Model_Space
 70
     0
 10
0.0
 20
0.0
 30
0.0
  3
*Model_Space
  1

  0
ENDBLK
  5
21
330
1F
100
AcDbEntity
  8
0
100
AcDbBlockEnd
  0
BLOCK
  5
1C
330
1B
100
AcDbEntity
 67
     1
  8
0
100
AcDbBlockBegin
  2
*Paper_Space
 70
     0
 10
0.0
 20
0.0
 30
0.0
  3
*Paper_Space
  1

  0
ENDBLK
  5
1D
330
1B
100
AcDbEntity
 67
     1
  8
0
100
AcDbBlockEnd
  0
BLOCK
  5
24
330
23
100
AcDbEntity
  8
0
100
AcDbBlockBegin
  2
*Paper_Space0
 70
     0
 10
0.0
 20
0.0
 30
0.0
  3
*Paper_Space0
  1

  0
ENDBLK
  5
25
330
23
100
AcDbEntity
  8
0
100
AcDbBlockEnd
  0
BLOCK
  5
2FF2
330
2FF1
100
AcDbEntity
  8
0
100
AcDbBlockBegin
  2
GENAXEH
 70
     0
 10
0.0
 20
0.0
 30
0.0
  3
GENAXEH
  1

  0
LINE
  5
2FF3
330
2FF1
100
AcDbEntity
  8
0
100
AcDbLine
 10
-1.0
 20
0.0
 30
0.0
 11
1.0
 21
0.0
 31
0.0
  0
ENDBLK
  5
2FF4
330
2FF1
100
AcDbEntity
  8
0
100
AcDbBlockEnd
  0
BLOCK
  5
35D8
330
35CE
100
AcDbEntity
  8
0
100
AcDbBlockBegin
  2
*D2
 70
     1
 10
0.0
 20
0.0
 30
0.0
  3
*D2
  1

  0
LINE
  5
3AD7
330
35CE
100
AcDbEntity
  8
DIM
100
AcDbLine
 10
195.9339195559601
 20
98.23680366977406
 30
0.0
 11
195.9339195559601
 21
103.5621039384215
 31
0.0
  0
LINE
  5
3AD8
330
35CE
100
AcDbEntity
  8
DIM
100
AcDbLine
 10
223.9339195559601
 20
98.23680366977406
 30
0.0
 11
223.9339195559601
 21
103.5621039384215
 31
0.0
  0
LINE
  5
3AD9
330
35CE
100
AcDbEntity
  8
DIM
100
AcDbLine
 10
197.9339195559601
 20
102.0621039384215
 30
0.0
 11
221.9339195559602
 21
102.0621039384215
 31
0.0
  0
SOLID
  5
3ADA
330
35CE
100
AcDbEntity
  8
DIM
100
AcDbTrace
 10
197.9339195559601
 20
102.3954372717549
 30
0.0
 11
197.9339195559601
 21
101.7287706050882
 31
0.0
 12
195.9339195559601
 22
102.0621039384215
 32
0.0
 13
195.9339195559601
 23
102.0621039384215
 33
0.0
  0
SOLID
  5
3ADB
330
35CE
100
AcDbEntity
  8
DIM
100
AcDbTrace
 10
221.9339195559602
 20
102.3954372717549
 30
0.0
 11
221.9339195559602
 21
101.7287706050882
 31
0.0
 12
223.9339195559601
 22
102.0621039384215
 32
0.0
 13
223.9339195559601
 23
102.0621039384215
 33
0.0
  0
MTEXT
  5
3ADC
330
35CE
100
AcDbEntity
  8
DIM
100
AcDbMText
 10
209.9339195559601
 20
104.0621039384215
 30
0.0
 40
2.0
 41
0.0
 71
     5
 72
     1
  1
\A1;□28
  7
dayus
 73
     1
 44
1.0
1001
ACAD
1000
MTEXTBEGIN
1070
    73
1070
     1
1070
    44
1040
1.0
1070
    74
1070
     0
1000
MTEXTEND
  0
POINT
  5
3ADD
330
35CE
100
AcDbEntity
  8
Defpoints
 62
     0
100
AcDbPoint
 10
195.9339195559601
 20
96.73680366977405
 30
0.0
  0
POINT
  5
3ADE
330
35CE
100
AcDbEntity
  8
Defpoints
 62
     0
100
AcDbPoint
 10
223.9339195559601
 20
96.73680366977405
 30
0.0
  0
POINT
  5
3ADF
330
35CE
100
AcDbEntity
  8
Defpoints
 62
     0
100
AcDbPoint
 10
223.9339195559601
 20
102.0621039384215
 30
0.0
  0
ENDBLK
  5
35D9
330
35CE
100
AcDbEntity
  8
0
100
AcDbBlockEnd
  0
BLOCK
  5
35E4
330
35DA
100
AcDbEntity
  8
0
100
AcDbBlockBegin
  2
*D3
 70
     1
 10
0.0
 20
0.0
 30
0.0
  3
*D3
  1

  0
LINE
  5
3AE0
330
35DA
100
AcDbEntity
  8
DIM
100
AcDbLine
 10
229.9339195559603
 20
94.67364588111221
 30
0.0
 11
229.9339195559603
 21
109.4224506697914
 31
0.0
  0
LINE
  5
3AE1
330
35DA
100
AcDbEntity
  8
DIM
100
AcDbLine
 10
189.9339195559603
 20
94.67364588111221
 30
0.0
 11
189.9339195559603
 21
109.4224506697914
 31
0.0
  0
LINE
  5
3AE2
330
35DA
100
AcDbEntity
  8
DIM
100
AcDbLine
 10
227.9339195559604
 20
107.9224506697914
 30
0.0
 11
191.9339195559603
 21
107.9224506697914
 31
0.0
  0
SOLID
  5
3AE3
330
35DA
100
AcDbEntity
  8
DIM
100
AcDbTrace
 10
227.9339195559604
 20
108.2557840031247
 30
0.0
 11
227.9339195559604
 21
107.5891173364581
 31
0.0
 12
229.9339195559603
 22
107.9224506697914
 32
0.0
 13
229.9339195559603
 23
107.9224506697914
 33
0.0
  0
SOLID
  5
3AE4
330
35DA
100
AcDbEntity
  8
DIM
100
AcDbTrace
 10
191.9339195559603
 20
108.2557840031247
 30
0.0
 11
191.9339195559603
 21
107.5891173364581
 31
0.0
 12
189.9339195559603
 22
107.9224506697914
 32
0.0
 13
189.9339195559603
 23
107.9224506697914
 33
0.0
  0
MTEXT
  5
3AE5
330
35DA
100
AcDbEntity
  8
DIM
100
AcDbMText
 10
209.9339195559604
 20
109.9224506697914
 30
0.0
 40
2.0
 41
0.0
 71
     5
 72
     1
  1
\A1;□40
  7
dayus
 73
     1
 44
1.0
1001
ACAD
1000
MTEXTBEGIN
1070
    73
1070
     1
1070
    44
1040
1.0
1070
    74
1070
     0
1000
MTEXTEND
  0
POINT
  5
3AE6
330
35DA
100
AcDbEntity
  8
Defpoints
 62
     0
100
AcDbPoint
 10
229.9339195559603
 20
93.17364588111221
 30
0.0
  0
POINT
  5
3AE7
330
35DA
100
AcDbEntity
  8
Defpoints
 62
     0
100
AcDbPoint
 10
189.9339195559603
 20
93.17364588111221
 30
0.0
  0
POINT
  5
3AE8
330
35DA
100
AcDbEntity
  8
Defpoints
 62
     0
100
AcDbPoint
 10
189.9339195559603
 20
107.9224506697914
 30
0.0
  0
ENDBLK
  5
35E5
330
35DA
100
AcDbEntity
  8
0
100
AcDbBlockEnd
  0
BLOCK
  5
35F0
330
35E6
100
AcDbEntity
  8
0
100
AcDbBlockBegin
  2
*D4
 70
     1
 10
0.0
 20
0.0
 30
0.0
  3
*D4
  1

  0
LINE
  5
3AE9
330
35E6
100
AcDbEntity
  8
DIM
100
AcDbLine
 10
205.9339195559606
 20
72.13278737860382
 30
0.0
 11
205.9339195559606
 21
46.94018153491839
 31
0.0
  0
LINE
  5
3AEA
330
35E6
100
AcDbEntity
  8
DIM
100
AcDbLine
 10
213.9339195559601
 20
72.13278737860432
 30
0.0
 11
213.9339195559601
 21
46.94018153491839
 31
0.0
  0
LINE
  5
3AEB
330
35E6
100
AcDbEntity
  8
DIM
100
AcDbLine
 10
207.9339195559606
 20
48.44018153491839
 30
0.0
 11
211.9339195559601
 21
48.44018153491839
 31
0.0
  0
SOLID
  5
3AEC
330
35E6
100
AcDbEntity
  8
DIM
100
AcDbTrace
 10
207.9339195559606
 20
48.77351486825173
 30
0.0
 11
207.9339195559606
 21
48.10684820158506
 31
0.0
 12
205.9339195559606
 22
48.44018153491839
 32
0.0
 13
205.9339195559606
 23
48.44018153491839
 33
0.0
  0
SOLID
  5
3AED
330
35E6
100
AcDbEntity
  8
DIM
100
AcDbTrace
 10
211.9339195559601
 20
48.77351486825173
 30
0.0
 11
211.9339195559601
 21
48.10684820158506
 31
0.0
 12
213.9339195559601
 22
48.44018153491839
 32
0.0
 13
213.9339195559601
 23
48.44018153491839
 33
0.0
  0
MTEXT
  5
3AEE
330
35E6
100
AcDbEntity
  8
DIM
100
AcDbMText
 10
209.9339195559604
 20
50.4401815349184
 30
0.0
 40
2.0
 41
0.0
 71
     5
 72
     1
  1
\A1;□8
  7
dayus
 73
     1
 44
1.0
1001
ACAD
1000
MTEXTBEGIN
1070
    73
1070
     1
1070
    44
1040
1.0
1070
    74
1070
     0
1000
MTEXTEND
  0
POINT
  5
3AEF
330
35E6
100
AcDbEntity
  8
Defpoints
 62
     0
100
AcDbPoint
 10
205.9339195559606
 20
73.63278737860382
 30
0.0
  0
POINT
  5
3AF0
330
35E6
100
AcDbEntity
  8
Defpoints
 62
     0
100
AcDbPoint
 10
213.9339195559601
 20
73.63278737860432
 30
0.0
  0
POINT
  5
3AF1
330
35E6
100
AcDbEntity
  8
Defpoints
 62
     0
100
AcDbPoint
 10
213.9339195559601
 20
48.44018153491839
 30
0.0
  0
ENDBLK
  5
35F1
330
35E6
100
AcDbEntity
  8
0
100
AcDbBlockEnd
  0
BLOCK
  5
35FE
330
35F2
100
AcDbEntity
  8
0
100
AcDbBlockBegin
  2
*D5
 70
     1
 10
0.0
 20
0.0
 30
0.0
  3
*D5
  1

  0
LINE
  5
3750
330
35F2
100
AcDbEntity
  8
DIM
100
AcDbLine
 10
140.4870491023665
 20
188.6804901696338
 30
0.0
 11
140.4870491023665
 21
194.2421455916594
 31
0.0
  0
LINE
  5
3751
330
35F2
100
AcDbEntity
  8
DIM
100
AcDbLine
 10
145.4869436083989
 20
188.7066760372062
 30
0.0
 11
145.4869436083989
 21
194.2421455916594
 31
0.0
  0
LINE
  5
3752
330
35F2
100
AcDbEntity
  8
DIM
100
AcDbLine
 10
138.4870491023665
 20
192.7421455916594
 30
0.0
 11
136.4870491023665
 21
192.7421455916594
 31
0.0
  0
LINE
  5
3753
330
35F2
100
AcDbEntity
  8
DIM
100
AcDbLine
 10
147.4869436083989
 20
192.7421455916594
 30
0.0
 11
149.4869436083989
 21
192.7421455916594
 31
0.0
  0
LINE
  5
3754
330
35F2
100
AcDbEntity
  8
DIM
100
AcDbLine
 10
140.4870491023665
 20
192.7421455916594
 30
0.0
 11
145.4869436083989
 21
192.7421455916594
 31
0.0
  0
SOLID
  5
3755
330
35F2
100
AcDbEntity
  8
DIM
100
AcDbTrace
 10
138.4870491023665
 20
193.0754789249928
 30
0.0
 11
138.4870491023665
 21
192.4088122583261
 31
0.0
 12
140.4870491023665
 22
192.7421455916594
 32
0.0
 13
140.4870491023665
 23
192.7421455916594
 33
0.0
  0
SOLID
  5
3756
330
35F2
100
AcDbEntity
  8
DIM
100
AcDbTrace
 10
147.4869436083989
 20
193.0754789249928
 30
0.0
 11
147.4869436083989
 21
192.4088122583261
 31
0.0
 12
145.4869436083989
 22
192.7421455916594
 32
0.0
 13
145.4869436083989
 23
192.7421455916594
 33
0.0
  0
MTEXT
  5
3757
330
35F2
100
AcDbEntity
  8
DIM
100
AcDbMText
 10
142.9869963553827
 20
194.7421455916594
 30
0.0
 40
2.0
 41
0.0
 71
     5
 72
     1
  1
\A1;5
  7
dayus
 73
     1
 44
1.0
1001
ACAD
1000
MTEXTBEGIN
1070
    73
1070
     1
1070
    44
1040
1.0
1070
    74
1070
     0
1000
MTEXTEND
  0
POINT
  5
3758
330
35F2
100
AcDbEntity
  8
Defpoints
 62
     0
100
AcDbPoint
 10
140.4870491023665
 20
187.1804901696338
 30
0.0
  0
POINT
  5
3759
330
35F2
100
AcDbEntity
  8
Defpoints
 62
     0
100
AcDbPoint
 10
145.4869436083989
 20
187.2066760372062
 30
0.0
  0
POINT
  5
375A
330
35F2
100
AcDbEntity
  8
Defpoints
 62
     0
100
AcDbPoint
 10
145.4869436083989
 20
192.7421455916594
 30
0.0
  0
ENDBLK
  5
35FF
330
35F2
100
AcDbEntity
  8
0
100
AcDbBlockEnd
  0
BLOCK
  5
360A
330
3600
100
AcDbEntity
  8
0
100
AcDbBlockBegin
  2
*D6
 70
     1
 10
0.0
 20
0.0
 30
0.0
  3
*D6
  1

  0
LINE
  5
375B
330
3600
100
AcDbEntity
  8
DIM
100
AcDbLine
 10
135.4870491023662
 20
187.0513250450349
 30
0.0
 11
135.4870491023662
 21
198.8165895043469
 31
0.0
  0
LINE
  5
375C
330
3600
100
AcDbEntity
  8
DIM
100
AcDbLine
 10
150.487049102366
 20
186.0513250450347
 30
0.0
 11
150.487049102366
 21
198.8165895043469
 31
0.0
  0
LINE
  5
375D
330
3600
100
AcDbEntity
  8
DIM
100
AcDbLine
 10
137.4870491023662
 20
197.3165895043469
 30
0.0
 11
148.487049102366
 21
197.3165895043469
 31
0.0
  0
SOLID
  5
375E
330
3600
100
AcDbEntity
  8
DIM
100
AcDbTrace
 10
137.4870491023662
 20
197.6499228376802
 30
0.0
 11
137.4870491023662
 21
196.9832561710135
 31
0.0
 12
135.4870491023662
 22
197.3165895043469
 32
0.0
 13
135.4870491023662
 23
197.3165895043469
 33
0.0
  0
SOLID
  5
375F
330
3600
100
AcDbEntity
  8
DIM
100
AcDbTrace
 10
148.487049102366
 20
197.6499228376802
 30
0.0
 11
148.487049102366
 21
196.9832561710135
 31
0.0
 12
150.487049102366
 22
197.3165895043469
 32
0.0
 13
150.487049102366
 23
197.3165895043469
 33
0.0
  0
MTEXT
  5
3760
330
3600
100
AcDbEntity
  8
DIM
100
AcDbMText
 10
142.9870491023661
 20
199.3165895043469
 30
0.0
 40
2.0
 41
0.0
 71
     5
 72
     1
  1
\A1;15
  7
dayus
 73
     1
 44
1.0
1001
ACAD
1000
MTEXTBEGIN
1070
    73
1070
     1
1070
    44
1040
1.0
1070
    74
1070
     0
1000
MTEXTEND
  0
POINT
  5
3761
330
3600
100
AcDbEntity
  8
Defpoints
 62
     0
100
AcDbPoint
 10
135.4870491023662
 20
185.5513250450349
 30
0.0
  0
POINT
  5
3762
330
3600
100
AcDbEntity
  8
Defpoints
 62
     0
100
AcDbPoint
 10
150.487049102366
 20
184.5513250450347
 30
0.0
  0
POINT
  5
3763
330
3600
100
AcDbEntity
  8
Defpoints
 62
     0
100
AcDbPoint
 10
150.487049102366
 20
197.3165895043469
 30
0.0
  0
ENDBLK
  5
360B
330
3600
100
AcDbEntity
  8
0
100
AcDbBlockEnd
  0
BLOCK
  5
3616
330
360C
100
AcDbEntity
  8
0
100
AcDbBlockBegin
  2
*D7
 70
     1
 10
0.0
 20
0.0
 30
0.0
  3
*D7
  1

  0
LINE
  5
3764
330
360C
100
AcDbEntity
  8
DIM
100
AcDbLine
 10
133.487049102366
 20
187.0513250450349
 30
0.0
 11
133.487049102366
 21
203.7888109731682
 31
0.0
  0
LINE
  5
3765
330
360C
100
AcDbEntity
  8
DIM
100
AcDbLine
 10
150.487049102366
 20
186.0513250450347
 30
0.0
 11
150.487049102366
 21
203.7888109731682
 31
0.0
  0
LINE
  5
3766
330
360C
100
AcDbEntity
  8
DIM
100
AcDbLine
 10
135.487049102366
 20
202.2888109731682
 30
0.0
 11
148.487049102366
 21
202.2888109731682
 31
0.0
  0
SOLID
  5
3767
330
360C
100
AcDbEntity
  8
DIM
100
AcDbTrace
 10
135.487049102366
 20
202.6221443065015
 30
0.0
 11
135.487049102366
 21
201.9554776398349
 31
0.0
 12
133.487049102366
 22
202.2888109731682
 32
0.0
 13
133.487049102366
 23
202.2888109731682
 33
0.0
  0
SOLID
  5
3768
330
360C
100
AcDbEntity
  8
DIM
100
AcDbTrace
 10
148.487049102366
 20
202.6221443065015
 30
0.0
 11
148.487049102366
 21
201.9554776398349
 31
0.0
 12
150.487049102366
 22
202.2888109731682
 32
0.0
 13
150.487049102366
 23
202.2888109731682
 33
0.0
  0
MTEXT
  5
3769
330
360C
100
AcDbEntity
  8
DIM
100
AcDbMText
 10
141.987049102366
 20
204.2888109731682
 30
0.0
 40
2.0
 41
0.0
 71
     5
 72
     1
  1
\A1;17
  7
dayus
 73
     1
 44
1.0
1001
ACAD
1000
MTEXTBEGIN
1070
    73
1070
     1
1070
    44
1040
1.0
1070
    74
1070
     0
1000
MTEXTEND
  0
POINT
  5
376A
330
360C
100
AcDbEntity
  8
Defpoints
 62
     0
100
AcDbPoint
 10
133.487049102366
 20
185.5513250450349
 30
0.0
  0
POINT
  5
376B
330
360C
100
AcDbEntity
  8
Defpoints
 62
     0
100
AcDbPoint
 10
150.487049102366
 20
184.5513250450347
 30
0.0
  0
POINT
  5
376C
330
360C
100
AcDbEntity
  8
Defpoints
 62
     0
100
AcDbPoint
 10
150.487049102366
 20
202.2888109731682
 30
0.0
  0
ENDBLK
  5
3617
330
360C
100
AcDbEntity
  8
0
100
AcDbBlockEnd
  0
BLOCK
  5
3624
330
3618
100
AcDbEntity
  8
0
100
AcDbBlockBegin
  2
*D8
 70
     1
 10
0.0
 20
0.0
 30
0.0
  3
*D8
  1

  0
LINE
  5
376D
330
3618
100
AcDbEntity
  8
DIM
100
AcDbLine
 10
127.487049102366
 20
203.0513250450352
 30
0.0
 11
127.487049102366
 21
208.4806416048522
 31
0.0
  0
LINE
  5
376E
330
3618
100
AcDbEntity
  8
DIM
100
AcDbLine
 10
129.487049102366
 20
191.0513250450349
 30
0.0
 11
129.487049102366
 21
208.4806416048522
 31
0.0
  0
LINE
  5
376F
330
3618
100
AcDbEntity
  8
DIM
100
AcDbLine
 10
125.487049102366
 20
206.9806416048522
 30
0.0
 11
123.487049102366
 21
206.9806416048522
 31
0.0
  0
LINE
  5
3770
330
3618
100
AcDbEntity
  8
DIM
100
AcDbLine
 10
131.487049102366
 20
206.9806416048522
 30
0.0
 11
136.8203824356994
 21
206.9806416048522
 31
0.0
  0
LINE
  5
3771
330
3618
100
AcDbEntity
  8
DIM
100
AcDbLine
 10
127.487049102366
 20
206.9806416048522
 30
0.0
 11
129.487049102366
 21
206.9806416048522
 31
0.0
  0
SOLID
  5
3772
330
3618
100
AcDbEntity
  8
DIM
100
AcDbTrace
 10
125.487049102366
 20
207.3139749381855
 30
0.0
 11
125.487049102366
 21
206.6473082715188
 31
0.0
 12
127.487049102366
 22
206.9806416048522
 32
0.0
 13
127.487049102366
 23
206.9806416048522
 33
0.0
  0
SOLID
  5
3773
330
3618
100
AcDbEntity
  8
DIM
100
AcDbTrace
 10
131.487049102366
 20
207.3139749381855
 30
0.0
 11
131.487049102366
 21
206.6473082715188
 31
0.0
 12
129.487049102366
 22
206.9806416048522
 32
0.0
 13
129.487049102366
 23
206.9806416048522
 33
0.0
  0
MTEXT
  5
3774
330
3618
100
AcDbEntity
  8
DIM
100
AcDbMText
 10
135.1537157690327
 20
208.9806416048522
 30
0.0
 40
2.0
 41
0.0
 71
     5
 72
     1
  1
\A1;2
  7
dayus
 73
     1
 44
1.0
1001
ACAD
1000
MTEXTBEGIN
1070
    73
1070
     1
1070
    44
1040
1.0
1070
    74
1070
     0
1000
MTEXTEND
  0
POINT
  5
3775
330
3618
100
AcDbEntity
  8
Defpoints
 62
     0
100
AcDbPoint
 10
127.487049102366
 20
201.5513250450351
 30
0.0
  0
POINT
  5
3776
330
3618
100
AcDbEntity
  8
Defpoints
 62
     0
100
AcDbPoint
 10
129.487049102366
 20
189.5513250450349
 30
0.0
  0
POINT
  5
3777
330
3618
100
AcDbEntity
  8
Defpoints
 62
     0
100
AcDbPoint
 10
129.487049102366
 20
206.9806416048522
 30
0.0
  0
ENDBLK
  5
3625
330
3618
100
AcDbEntity
  8
0
100
AcDbBlockEnd
  0
BLOCK
  5
3630
330
3626
100
AcDbEntity
  8
0
100
AcDbBlockBegin
  2
*D9
 70
     1
 10
0.0
 20
0.0
 30
0.0
  3
*D9
  1

  0
LINE
  5
3778
330
3626
100
AcDbEntity
  8
DIM
100
AcDbLine
 10
127.487049102366
 20
203.0513250450351
 30
0.0
 11
127.487049102366
 21
214.340988336222
 31
0.0
  0
LINE
  5
3779
330
3626
100
AcDbEntity
  8
DIM
100
AcDbLine
 10
150.487049102366
 20
186.0513250450347
 30
0.0
 11
150.487049102366
 21
214.340988336222
 31
0.0
  0
LINE
  5
377A
330
3626
100
AcDbEntity
  8
DIM
100
AcDbLine
 10
129.487049102366
 20
212.840988336222
 30
0.0
 11
148.487049102366
 21
212.840988336222
 31
0.0
  0
SOLID
  5
377B
330
3626
100
AcDbEntity
  8
DIM
100
AcDbTrace
 10
129.487049102366
 20
213.1743216695554
 30
0.0
 11
129.487049102366
 21
212.5076550028887
 31
0.0
 12
127.487049102366
 22
212.840988336222
 32
0.0
 13
127.487049102366
 23
212.840988336222
 33
0.0
  0
SOLID
  5
377C
330
3626
100
AcDbEntity
  8
DIM
100
AcDbTrace
 10
148.487049102366
 20
213.1743216695554
 30
0.0
 11
148.487049102366
 21
212.5076550028887
 31
0.0
 12
150.487049102366
 22
212.840988336222
 32
0.0
 13
150.487049102366
 23
212.840988336222
 33
0.0
  0
MTEXT
  5
377D
330
3626
100
AcDbEntity
  8
DIM
100
AcDbMText
 10
138.987049102366
 20
214.840988336222
 30
0.0
 40
2.0
 41
0.0
 71
     5
 72
     1
  1
\A1;23
  7
dayus
 73
     1
 44
1.0
1001
ACAD
1000
MTEXTBEGIN
1070
    73
1070
     1
1070
    44
1040
1.0
1070
    74
1070
     0
1000
MTEXTEND
  0
POINT
  5
377E
330
3626
100
AcDbEntity
  8
Defpoints
 62
     0
100
AcDbPoint
 10
127.487049102366
 20
201.5513250450351
 30
0.0
  0
POINT
  5
377F
330
3626
100
AcDbEntity
  8
Defpoints
 62
     0
100
AcDbPoint
 10
150.487049102366
 20
184.5513250450347
 30
0.0
  0
POINT
  5
3780
330
3626
100
AcDbEntity
  8
Defpoints
 62
     0
100
AcDbPoint
 10
150.487049102366
 20
212.840988336222
 30
0.0
  0
ENDBLK
  5
3631
330
3626
100
AcDbEntity
  8
0
100
AcDbBlockEnd
  0
BLOCK
  5
363C
330
3632
100
AcDbEntity
  8
0
100
AcDbBlockBegin
  2
*D10
 70
     1
 10
0.0
 20
0.0
 30
0.0
  3
*D10
  1

  0
LINE
  5
3B9C
330
3632
100
AcDbEntity
  8
DIM
100
AcDbLine
 10
101.487049102366
 20
203.0513250450352
 30
0.0
 11
101.487049102366
 21
214.340988336222
 31
0.0
  0
LINE
  5
3B9D
330
3632
100
AcDbEntity
  8
DIM
100
AcDbLine
 10
127.487049102366
 20
203.0513250450351
 30
0.0
 11
127.487049102366
 21
214.340988336222
 31
0.0
  0
LINE
  5
3B9E
330
3632
100
AcDbEntity
  8
DIM
100
AcDbLine
 10
103.487049102366
 20
212.840988336222
 30
0.0
 11
125.487049102366
 21
212.840988336222
 31
0.0
  0
SOLID
  5
3B9F
330
3632
100
AcDbEntity
  8
DIM
100
AcDbTrace
 10
103.487049102366
 20
213.1743216695554
 30
0.0
 11
103.487049102366
 21
212.5076550028887
 31
0.0
 12
101.487049102366
 22
212.840988336222
 32
0.0
 13
101.487049102366
 23
212.840988336222
 33
0.0
  0
SOLID
  5
3BA0
330
3632
100
AcDbEntity
  8
DIM
100
AcDbTrace
 10
125.487049102366
 20
213.1743216695554
 30
0.0
 11
125.487049102366
 21
212.5076550028887
 31
0.0
 12
127.487049102366
 22
212.840988336222
 32
0.0
 13
127.487049102366
 23
212.840988336222
 33
0.0
  0
MTEXT
  5
3BA1
330
3632
100
AcDbEntity
  8
DIM
100
AcDbMText
 10
114.487049102366
 20
214.840988336222
 30
0.0
 40
2.0
 41
0.0
 71
     5
 72
     1
  1
\A1;21+stroke=S
  7
dayus
 73
     1
 44
1.0
1001
ACAD
1000
MTEXTBEGIN
1070
    73
1070
     1
1070
    44
1040
1.0
1070
    74
1070
     0
1000
MTEXTEND
  0
POINT
  5
3BA2
330
3632
100
AcDbEntity
  8
Defpoints
 62
     0
100
AcDbPoint
 10
101.487049102366
 20
201.5513250450351
 30
0.0
  0
POINT
  5
3BA3
330
3632
100
AcDbEntity
  8
Defpoints
 62
     0
100
AcDbPoint
 10
127.487049102366
 20
201.5513250450351
 30
0.0
  0
POINT
  5
3BA4
330
3632
100
AcDbEntity
  8
Defpoints
 62
     0
100
AcDbPoint
 10
127.487049102366
 20
212.840988336222
 30
0.0
  0
ENDBLK
  5
363D
330
3632
100
AcDbEntity
  8
0
100
AcDbBlockEnd
  0
BLOCK
  5
3648
330
363E
100
AcDbEntity
  8
0
100
AcDbBlockBegin
  2
*D11
 70
     1
 10
0.0
 20
0.0
 30
0.0
  3
*D11
  1

  0
LINE
  5
378A
330
363E
100
AcDbEntity
  8
DIM
100
AcDbLine
 10
101.487049102366
 20
203.0513250450351
 30
0.0
 11
101.487049102366
 21
208.4806416048522
 31
0.0
  0
LINE
  5
378B
330
363E
100
AcDbEntity
  8
DIM
100
AcDbLine
 10
109.487049102366
 20
187.4986357592422
 30
0.0
 11
109.487049102366
 21
208.4806416048522
 31
0.0
  0
LINE
  5
378C
330
363E
100
AcDbEntity
  8
DIM
100
AcDbLine
 10
103.487049102366
 20
206.9806416048522
 30
0.0
 11
107.487049102366
 21
206.9806416048522
 31
0.0
  0
SOLID
  5
378D
330
363E
100
AcDbEntity
  8
DIM
100
AcDbTrace
 10
103.487049102366
 20
207.3139749381855
 30
0.0
 11
103.487049102366
 21
206.6473082715188
 31
0.0
 12
101.487049102366
 22
206.9806416048522
 32
0.0
 13
101.487049102366
 23
206.9806416048522
 33
0.0
  0
SOLID
  5
378E
330
363E
100
AcDbEntity
  8
DIM
100
AcDbTrace
 10
107.487049102366
 20
207.3139749381855
 30
0.0
 11
107.487049102366
 21
206.6473082715188
 31
0.0
 12
109.487049102366
 22
206.9806416048522
 32
0.0
 13
109.487049102366
 23
206.9806416048522
 33
0.0
  0
MTEXT
  5
378F
330
363E
100
AcDbEntity
  8
DIM
100
AcDbMText
 10
105.487049102366
 20
208.9806416048522
 30
0.0
 40
2.0
 41
0.0
 71
     5
 72
     1
  1
\A1;8
  7
dayus
 73
     1
 44
1.0
1001
ACAD
1000
MTEXTBEGIN
1070
    73
1070
     1
1070
    44
1040
1.0
1070
    74
1070
     0
1000
MTEXTEND
  0
POINT
  5
3790
330
363E
100
AcDbEntity
  8
Defpoints
 62
     0
100
AcDbPoint
 10
101.487049102366
 20
201.5513250450351
 30
0.0
  0
POINT
  5
3791
330
363E
100
AcDbEntity
  8
Defpoints
 62
     0
100
AcDbPoint
 10
109.487049102366
 20
185.9986357592422
 30
0.0
  0
POINT
  5
3792
330
363E
100
AcDbEntity
  8
Defpoints
 62
     0
100
AcDbPoint
 10
109.487049102366
 20
206.9806416048522
 30
0.0
  0
ENDBLK
  5
3649
330
363E
100
AcDbEntity
  8
0
100
AcDbBlockEnd
  0
BLOCK
  5
3654
330
364A
100
AcDbEntity
  8
0
100
AcDbBlockBegin
  2
*D12
 70
     1
 10
0.0
 20
0.0
 30
0.0
  3
*D12
  1

  0
LINE
  5
3793
330
364A
100
AcDbEntity
  8
DIM
100
AcDbLine
 10
119.487049102366
 20
187.4986357592422
 30
0.0
 11
119.487049102366
 21
208.4806416048522
 31
0.0
  0
LINE
  5
3794
330
364A
100
AcDbEntity
  8
DIM
100
AcDbLine
 10
127.487049102366
 20
203.0513250450352
 30
0.0
 11
127.487049102366
 21
208.4806416048522
 31
0.0
  0
LINE
  5
3795
330
364A
100
AcDbEntity
  8
DIM
100
AcDbLine
 10
121.487049102366
 20
206.9806416048522
 30
0.0
 11
125.487049102366
 21
206.9806416048522
 31
0.0
  0
SOLID
  5
3796
330
364A
100
AcDbEntity
  8
DIM
100
AcDbTrace
 10
121.487049102366
 20
207.3139749381855
 30
0.0
 11
121.487049102366
 21
206.6473082715188
 31
0.0
 12
119.487049102366
 22
206.9806416048522
 32
0.0
 13
119.487049102366
 23
206.9806416048522
 33
0.0
  0
SOLID
  5
3797
330
364A
100
AcDbEntity
  8
DIM
100
AcDbTrace
 10
125.487049102366
 20
207.3139749381855
 30
0.0
 11
125.487049102366
 21
206.6473082715188
 31
0.0
 12
127.487049102366
 22
206.9806416048522
 32
0.0
 13
127.487049102366
 23
206.9806416048522
 33
0.0
  0
MTEXT
  5
3798
330
364A
100
AcDbEntity
  8
DIM
100
AcDbMText
 10
123.487049102366
 20
208.9806416048522
 30
0.0
 40
2.0
 41
0.0
 71
     5
 72
     1
  1
\A1;8
  7
dayus
 73
     1
 44
1.0
1001
ACAD
1000
MTEXTBEGIN
1070
    73
1070
     1
1070
    44
1040
1.0
1070
    74
1070
     0
1000
MTEXTEND
  0
POINT
  5
3799
330
364A
100
AcDbEntity
  8
Defpoints
 62
     0
100
AcDbPoint
 10
119.487049102366
 20
185.9986357592422
 30
0.0
  0
POINT
  5
379A
330
364A
100
AcDbEntity
  8
Defpoints
 62
     0
100
AcDbPoint
 10
127.487049102366
 20
201.5513250450351
 30
0.0
  0
POINT
  5
379B
330
364A
100
AcDbEntity
  8
Defpoints
 62
     0
100
AcDbPoint
 10
127.487049102366
 20
206.9806416048522
 30
0.0
  0
ENDBLK
  5
3655
330
364A
100
AcDbEntity
  8
0
100
AcDbBlockEnd
  0
BLOCK
  5
3660
330
3656
100
AcDbEntity
  8
0
100
AcDbBlockBegin
  2
*D13
 70
     1
 10
0.0
 20
0.0
 30
0.0
  3
*D13
  1

  0
LINE
  5
3BAF
330
3656
100
AcDbEntity
  8
DIM
100
AcDbLine
 10
101.487049102366
 20
203.0513250450352
 30
0.0
 11
101.487049102366
 21
220.3872096100345
 31
0.0
  0
LINE
  5
3BB0
330
3656
100
AcDbEntity
  8
DIM
100
AcDbLine
 10
150.487049102366
 20
186.0513250450347
 30
0.0
 11
150.487049102366
 21
220.3872096100345
 31
0.0
  0
LINE
  5
3BB1
330
3656
100
AcDbEntity
  8
DIM
100
AcDbLine
 10
103.487049102366
 20
218.8872096100344
 30
0.0
 11
148.487049102366
 21
218.8872096100344
 31
0.0
  0
SOLID
  5
3BB2
330
3656
100
AcDbEntity
  8
DIM
100
AcDbTrace
 10
103.487049102366
 20
219.2205429433678
 30
0.0
 11
103.487049102366
 21
218.5538762767011
 31
0.0
 12
101.487049102366
 22
218.8872096100344
 32
0.0
 13
101.487049102366
 23
218.8872096100344
 33
0.0
  0
SOLID
  5
3BB3
330
3656
100
AcDbEntity
  8
DIM
100
AcDbTrace
 10
148.487049102366
 20
219.2205429433678
 30
0.0
 11
148.487049102366
 21
218.5538762767011
 31
0.0
 12
150.487049102366
 22
218.8872096100344
 32
0.0
 13
150.487049102366
 23
218.8872096100344
 33
0.0
  0
MTEXT
  5
3BB4
330
3656
100
AcDbEntity
  8
DIM
100
AcDbMText
 10
125.987049102366
 20
220.8872096100344
 30
0.0
 40
2.0
 41
0.0
 71
     5
 72
     1
  1
\A1;44+stroke=ZZ
  7
dayus
 73
     1
 44
1.0
1001
ACAD
1000
MTEXTBEGIN
1070
    73
1070
     1
1070
    44
1040
1.0
1070
    74
1070
     0
1000
MTEXTEND
  0
POINT
  5
3BB5
330
3656
100
AcDbEntity
  8
Defpoints
 62
     0
100
AcDbPoint
 10
101.487049102366
 20
201.5513250450351
 30
0.0
  0
POINT
  5
3BB6
330
3656
100
AcDbEntity
  8
Defpoints
 62
     0
100
AcDbPoint
 10
150.487049102366
 20
184.5513250450347
 30
0.0
  0
POINT
  5
3BB7
330
3656
100
AcDbEntity
  8
Defpoints
 62
     0
100
AcDbPoint
 10
150.487049102366
 20
218.8872096100344
 30
0.0
  0
ENDBLK
  5
3661
330
3656
100
AcDbEntity
  8
0
100
AcDbBlockEnd
  0
BLOCK
  5
366C
330
3662
100
AcDbEntity
  8
0
100
AcDbBlockBegin
  2
*D14
 70
     1
 10
0.0
 20
0.0
 30
0.0
  3
*D14
  1

  0
LINE
  5
37A5
330
3662
100
AcDbEntity
  8
DIM
100
AcDbLine
 10
130.987049102366
 20
176.5513250450349
 30
0.0
 11
161.017678015887
 21
176.5513250450349
 31
0.0
  0
LINE
  5
37A6
330
3662
100
AcDbEntity
  8
DIM
100
AcDbLine
 10
130.987049102366
 20
186.5513250450348
 30
0.0
 11
161.017678015887
 21
186.5513250450348
 31
0.0
  0
LINE
  5
37A7
330
3662
100
AcDbEntity
  8
DIM
100
AcDbLine
 10
159.517678015887
 20
178.5513250450349
 30
0.0
 11
159.517678015887
 21
184.5513250450349
 31
0.0
  0
SOLID
  5
37A8
330
3662
100
AcDbEntity
  8
DIM
100
AcDbTrace
 10
159.1843446825537
 20
178.5513250450349
 30
0.0
 11
159.8510113492204
 21
178.5513250450349
 31
0.0
 12
159.517678015887
 22
176.5513250450349
 32
0.0
 13
159.517678015887
 23
176.5513250450349
 33
0.0
  0
SOLID
  5
37A9
330
3662
100
AcDbEntity
  8
DIM
100
AcDbTrace
 10
159.1843446825537
 20
184.5513250450349
 30
0.0
 11
159.8510113492204
 21
184.5513250450349
 31
0.0
 12
159.517678015887
 22
186.5513250450348
 32
0.0
 13
159.517678015887
 23
186.5513250450348
 33
0.0
  0
MTEXT
  5
37AA
330
3662
100
AcDbEntity
  8
DIM
100
AcDbMText
 10
157.517678015887
 20
181.5513250450349
 30
0.0
 40
2.0
 41
0.0
 71
     5
 72
     1
  1
\A1;%%c10
  7
dayus
 11
0.0000000000000001
 21
1.0
 31
0.0
 73
     1
 44
1.0
1001
ACAD
1000
MTEXTBEGIN
1070
    73
1070
     1
1070
    44
1040
1.0
1070
    74
1070
     0
1000
MTEXTEND
  0
POINT
  5
37AB
330
3662
100
AcDbEntity
  8
Defpoints
 62
     0
100
AcDbPoint
 10
129.487049102366
 20
176.5513250450349
 30
0.0
  0
POINT
  5
37AC
330
3662
100
AcDbEntity
  8
Defpoints
 62
     0
100
AcDbPoint
 10
129.487049102366
 20
186.5513250450348
 30
0.0
  0
POINT
  5
37AD
330
3662
100
AcDbEntity
  8
Defpoints
 62
     0
100
AcDbPoint
 10
159.517678015887
 20
186.5513250450348
 30
0.0
  0
ENDBLK
  5
366D
330
3662
100
AcDbEntity
  8
0
100
AcDbBlockEnd
  0
BLOCK
  5
3678
330
366E
100
AcDbEntity
  8
0
100
AcDbBlockBegin
  2
*D15
 70
     1
 10
0.0
 20
0.0
 30
0.0
  3
*D15
  1

  0
LINE
  5
37AE
330
366E
100
AcDbEntity
  8
DIM
100
AcDbLine
 10
130.487049102366
 20
173.0513250450348
 30
0.0
 11
168.3902898895754
 21
173.0513250450348
 31
0.0
  0
LINE
  5
37AF
330
366E
100
AcDbEntity
  8
DIM
100
AcDbLine
 10
130.487049102366
 20
190.0513250450349
 30
0.0
 11
168.3902898895754
 21
190.0513250450349
 31
0.0
  0
LINE
  5
37B0
330
366E
100
AcDbEntity
  8
DIM
100
AcDbLine
 10
166.8902898895754
 20
175.0513250450348
 30
0.0
 11
166.8902898895754
 21
188.0513250450349
 31
0.0
  0
SOLID
  5
37B1
330
366E
100
AcDbEntity
  8
DIM
100
AcDbTrace
 10
166.556956556242
 20
175.0513250450348
 30
0.0
 11
167.2236232229087
 21
175.0513250450348
 31
0.0
 12
166.8902898895754
 22
173.0513250450348
 32
0.0
 13
166.8902898895754
 23
173.0513250450348
 33
0.0
  0
SOLID
  5
37B2
330
366E
100
AcDbEntity
  8
DIM
100
AcDbTrace
 10
166.556956556242
 20
188.0513250450349
 30
0.0
 11
167.2236232229087
 21
188.0513250450349
 31
0.0
 12
166.8902898895754
 22
190.0513250450349
 32
0.0
 13
166.8902898895754
 23
190.0513250450349
 33
0.0
  0
MTEXT
  5
37B3
330
366E
100
AcDbEntity
  8
DIM
100
AcDbMText
 10
164.2336232229087
 20
181.5513250450349
 30
0.0
 40
2.0
 41
0.0
 71
     5
 72
     1
  1
\A1;%%c17{}{\H0.71x;\C3;\S 0^ -0.05;}
  7
dayus
 11
0.0000000000000001
 21
1.0
 31
0.0
 73
     1
 44
1.0
1001
ACAD
1000
MTEXTBEGIN
1070
    73
1070
     1
1070
    44
1040
1.0
1070
    74
1070
     0
1000
MTEXTEND
  0
POINT
  5
37B4
330
366E
100
AcDbEntity
  8
Defpoints
 62
     0
100
AcDbPoint
 10
128.987049102366
 20
173.0513250450348
 30
0.0
  0
POINT
  5
37B5
330
366E
100
AcDbEntity
  8
Defpoints
 62
     0
100
AcDbPoint
 10
128.987049102366
 20
190.0513250450349
 30
0.0
  0
POINT
  5
37B6
330
366E
100
AcDbEntity
  8
Defpoints
 62
     0
100
AcDbPoint
 10
166.8902898895754
 20
190.0513250450349
 30
0.0
  0
ENDBLK
  5
3679
330
366E
100
AcDbEntity
  8
0
100
AcDbBlockEnd
  0
BLOCK
  5
3686
330
367A
100
AcDbEntity
  8
0
100
AcDbBlockBegin
  2
*D16
 70
     1
 10
0.0
 20
0.0
 30
0.0
  3
*D16
  1

  0
LINE
  5
37B7
330
367A
100
AcDbEntity
  8
DIM
100
AcDbLine
 10
130.4870491023662
 20
177.0513250450346
 30
0.0
 11
130.4870491023662
 21
164.8599448446658
 31
0.0
  0
LINE
  5
37B8
330
367A
100
AcDbEntity
  8
DIM
100
AcDbLine
 10
133.4870491023662
 20
176.0513250450348
 30
0.0
 11
133.4870491023662
 21
164.8599448446658
 31
0.0
  0
LINE
  5
37B9
330
367A
100
AcDbEntity
  8
DIM
100
AcDbLine
 10
128.4870491023662
 20
166.3599448446658
 30
0.0
 11
126.4870491023662
 21
166.3599448446658
 31
0.0
  0
LINE
  5
37BA
330
367A
100
AcDbEntity
  8
DIM
100
AcDbLine
 10
135.4870491023662
 20
166.3599448446658
 30
0.0
 11
137.4870491023662
 21
166.3599448446658
 31
0.0
  0
LINE
  5
37BB
330
367A
100
AcDbEntity
  8
DIM
100
AcDbLine
 10
130.4870491023662
 20
166.3599448446658
 30
0.0
 11
133.4870491023662
 21
166.3599448446658
 31
0.0
  0
SOLID
  5
37BC
330
367A
100
AcDbEntity
  8
DIM
100
AcDbTrace
 10
128.4870491023662
 20
166.6932781779992
 30
0.0
 11
128.4870491023662
 21
166.0266115113325
 31
0.0
 12
130.4870491023662
 22
166.3599448446658
 32
0.0
 13
130.4870491023662
 23
166.3599448446658
 33
0.0
  0
SOLID
  5
37BD
330
367A
100
AcDbEntity
  8
DIM
100
AcDbTrace
 10
135.4870491023662
 20
166.6932781779992
 30
0.0
 11
135.4870491023662
 21
166.0266115113325
 31
0.0
 12
133.4870491023662
 22
166.3599448446658
 32
0.0
 13
133.4870491023662
 23
166.3599448446658
 33
0.0
  0
MTEXT
  5
37BE
330
367A
100
AcDbEntity
  8
DIM
100
AcDbMText
 10
131.9870491023662
 20
168.3599448446658
 30
0.0
 40
2.0
 41
0.0
 71
     5
 72
     1
  1
\A1;3
  7
dayus
 73
     1
 44
1.0
1001
ACAD
1000
MTEXTBEGIN
1070
    73
1070
     1
1070
    44
1040
1.0
1070
    74
1070
     0
1000
MTEXTEND
  0
POINT
  5
37BF
330
367A
100
AcDbEntity
  8
Defpoints
 62
     0
100
AcDbPoint
 10
130.4870491023662
 20
178.5513250450347
 30
0.0
  0
POINT
  5
37C0
330
367A
100
AcDbEntity
  8
Defpoints
 62
     0
100
AcDbPoint
 10
133.4870491023662
 20
177.5513250450348
 30
0.0
  0
POINT
  5
37C1
330
367A
100
AcDbEntity
  8
Defpoints
 62
     0
100
AcDbPoint
 10
133.4870491023662
 20
166.3599448446658
 30
0.0
  0
ENDBLK
  5
3687
330
367A
100
AcDbEntity
  8
0
100
AcDbBlockEnd
  0
BLOCK
  5
3692
330
3688
100
AcDbEntity
  8
0
100
AcDbBlockBegin
  2
*D17
 70
     1
 10
0.0
 20
0.0
 30
0.0
  3
*D17
  1

  0
LINE
  5
3ABC
330
3688
100
AcDbEntity
  8
DIM
100
AcDbLine
 10
195.9339195559601
 20
203.1553413362046
 30
0.0
 11
195.9339195559601
 21
208.4806416048522
 31
0.0
  0
LINE
  5
3ABD
330
3688
100
AcDbEntity
  8
DIM
100
AcDbLine
 10
223.9339195559601
 20
203.1553413362046
 30
0.0
 11
223.9339195559601
 21
208.4806416048522
 31
0.0
  0
LINE
  5
3ABE
330
3688
100
AcDbEntity
  8
DIM
100
AcDbLine
 10
197.9339195559601
 20
206.9806416048522
 30
0.0
 11
221.9339195559602
 21
206.9806416048522
 31
0.0
  0
SOLID
  5
3ABF
330
3688
100
AcDbEntity
  8
DIM
100
AcDbTrace
 10
197.9339195559601
 20
207.3139749381855
 30
0.0
 11
197.9339195559601
 21
206.6473082715188
 31
0.0
 12
195.9339195559601
 22
206.9806416048522
 32
0.0
 13
195.9339195559601
 23
206.9806416048522
 33
0.0
  0
SOLID
  5
3AC0
330
3688
100
AcDbEntity
  8
DIM
100
AcDbTrace
 10
221.9339195559602
 20
207.3139749381855
 30
0.0
 11
221.9339195559602
 21
206.6473082715188
 31
0.0
 12
223.9339195559601
 22
206.9806416048522
 32
0.0
 13
223.9339195559601
 23
206.9806416048522
 33
0.0
  0
MTEXT
  5
3AC1
330
3688
100
AcDbEntity
  8
DIM
100
AcDbMText
 10
209.9339195559601
 20
208.9806416048522
 30
0.0
 40
2.0
 41
0.0
 71
     5
 72
     1
  1
\A1;□28
  7
dayus
 73
     1
 44
1.0
1001
ACAD
1000
MTEXTBEGIN
1070
    73
1070
     1
1070
    44
1040
1.0
1070
    74
1070
     0
1000
MTEXTEND
  0
POINT
  5
3AC2
330
3688
100
AcDbEntity
  8
Defpoints
 62
     0
100
AcDbPoint
 10
195.9339195559601
 20
201.6553413362046
 30
0.0
  0
POINT
  5
3AC3
330
3688
100
AcDbEntity
  8
Defpoints
 62
     0
100
AcDbPoint
 10
223.9339195559601
 20
201.6553413362046
 30
0.0
  0
POINT
  5
3AC4
330
3688
100
AcDbEntity
  8
Defpoints
 62
     0
100
AcDbPoint
 10
223.9339195559601
 20
206.9806416048522
 30
0.0
  0
ENDBLK
  5
3693
330
3688
100
AcDbEntity
  8
0
100
AcDbBlockEnd
  0
BLOCK
  5
369E
330
3694
100
AcDbEntity
  8
0
100
AcDbBlockBegin
  2
*D18
 70
     1
 10
0.0
 20
0.0
 30
0.0
  3
*D18
  1

  0
LINE
  5
3AC5
330
3694
100
AcDbEntity
  8
DIM
100
AcDbLine
 10
229.9339195559603
 20
199.5921835475428
 30
0.0
 11
229.9339195559603
 21
214.340988336222
 31
0.0
  0
LINE
  5
3AC6
330
3694
100
AcDbEntity
  8
DIM
100
AcDbLine
 10
189.9339195559603
 20
199.5921835475428
 30
0.0
 11
189.9339195559603
 21
214.340988336222
 31
0.0
  0
LINE
  5
3AC7
330
3694
100
AcDbEntity
  8
DIM
100
AcDbLine
 10
227.9339195559603
 20
212.840988336222
 30
0.0
 11
191.9339195559603
 21
212.840988336222
 31
0.0
  0
SOLID
  5
3AC8
330
3694
100
AcDbEntity
  8
DIM
100
AcDbTrace
 10
227.9339195559603
 20
213.1743216695554
 30
0.0
 11
227.9339195559603
 21
212.5076550028887
 31
0.0
 12
229.9339195559603
 22
212.840988336222
 32
0.0
 13
229.9339195559603
 23
212.840988336222
 33
0.0
  0
SOLID
  5
3AC9
330
3694
100
AcDbEntity
  8
DIM
100
AcDbTrace
 10
191.9339195559603
 20
213.1743216695554
 30
0.0
 11
191.9339195559603
 21
212.5076550028887
 31
0.0
 12
189.9339195559603
 22
212.840988336222
 32
0.0
 13
189.9339195559603
 23
212.840988336222
 33
0.0
  0
MTEXT
  5
3ACA
330
3694
100
AcDbEntity
  8
DIM
100
AcDbMText
 10
209.9339195559603
 20
214.840988336222
 30
0.0
 40
2.0
 41
0.0
 71
     5
 72
     1
  1
\A1;□40
  7
dayus
 73
     1
 44
1.0
1001
ACAD
1000
MTEXTBEGIN
1070
    73
1070
     1
1070
    44
1040
1.0
1070
    74
1070
     0
1000
MTEXTEND
  0
POINT
  5
3ACB
330
3694
100
AcDbEntity
  8
Defpoints
 62
     0
100
AcDbPoint
 10
229.9339195559603
 20
198.0921835475428
 30
0.0
  0
POINT
  5
3ACC
330
3694
100
AcDbEntity
  8
Defpoints
 62
     0
100
AcDbPoint
 10
189.9339195559603
 20
198.0921835475428
 30
0.0
  0
POINT
  5
3ACD
330
3694
100
AcDbEntity
  8
Defpoints
 62
     0
100
AcDbPoint
 10
189.9339195559603
 20
212.840988336222
 30
0.0
  0
ENDBLK
  5
369F
330
3694
100
AcDbEntity
  8
0
100
AcDbBlockEnd
  0
BLOCK
  5
36AA
330
36A0
100
AcDbEntity
  8
0
100
AcDbBlockBegin
  2
*D19
 70
     1
 10
0.0
 20
0.0
 30
0.0
  3
*D19
  1

  0
LINE
  5
3ACE
330
36A0
100
AcDbEntity
  8
DIM
100
AcDbLine
 10
205.9339195559604
 20
177.0513250450346
 30
0.0
 11
205.9339195559604
 21
151.8587192013491
 31
0.0
  0
LINE
  5
3ACF
330
36A0
100
AcDbEntity
  8
DIM
100
AcDbLine
 10
213.9339195559599
 20
177.0513250450351
 30
0.0
 11
213.9339195559599
 21
151.8587192013491
 31
0.0
  0
LINE
  5
3AD0
330
36A0
100
AcDbEntity
  8
DIM
100
AcDbLine
 10
207.9339195559604
 20
153.3587192013492
 30
0.0
 11
211.9339195559599
 21
153.3587192013492
 31
0.0
  0
SOLID
  5
3AD1
330
36A0
100
AcDbEntity
  8
DIM
100
AcDbTrace
 10
207.9339195559604
 20
153.6920525346825
 30
0.0
 11
207.9339195559604
 21
153.0253858680158
 31
0.0
 12
205.9339195559604
 22
153.3587192013492
 32
0.0
 13
205.9339195559604
 23
153.3587192013492
 33
0.0
  0
SOLID
  5
3AD2
330
36A0
100
AcDbEntity
  8
DIM
100
AcDbTrace
 10
211.9339195559599
 20
153.6920525346825
 30
0.0
 11
211.9339195559599
 21
153.0253858680158
 31
0.0
 12
213.9339195559599
 22
153.3587192013492
 32
0.0
 13
213.9339195559599
 23
153.3587192013492
 33
0.0
  0
MTEXT
  5
3AD3
330
36A0
100
AcDbEntity
  8
DIM
100
AcDbMText
 10
209.9339195559601
 20
155.3587192013492
 30
0.0
 40
2.0
 41
0.0
 71
     5
 72
     1
  1
\A1;□8
  7
dayus
 73
     1
 44
1.0
1001
ACAD
1000
MTEXTBEGIN
1070
    73
1070
     1
1070
    44
1040
1.0
1070
    74
1070
     0
1000
MTEXTEND
  0
POINT
  5
3AD4
330
36A0
100
AcDbEntity
  8
Defpoints
 62
     0
100
AcDbPoint
 10
205.9339195559604
 20
178.5513250450346
 30
0.0
  0
POINT
  5
3AD5
330
36A0
100
AcDbEntity
  8
Defpoints
 62
     0
100
AcDbPoint
 10
213.9339195559599
 20
178.5513250450351
 30
0.0
  0
POINT
  5
3AD6
330
36A0
100
AcDbEntity
  8
Defpoints
 62
     0
100
AcDbPoint
 10
213.9339195559599
 20
153.3587192013492
 30
0.0
  0
ENDBLK
  5
36AB
330
36A0
100
AcDbEntity
  8
0
100
AcDbBlockEnd
  0
BLOCK
  5
36B8
330
36AC
100
AcDbEntity
  8
0
100
AcDbBlockBegin
  2
*D20
 70
     1
 10
0.0
 20
0.0
 30
0.0
  3
*D20
  1

  0
LINE
  5
3804
330
36AC
100
AcDbEntity
  8
DIM
100
AcDbLine
 10
127.487049102366
 20
98.13278737860455
 30
0.0
 11
127.487049102366
 21
108.8792192192539
 31
0.0
  0
LINE
  5
3805
330
36AC
100
AcDbEntity
  8
DIM
100
AcDbLine
 10
133.487049102366
 20
82.13278737860436
 30
0.0
 11
133.487049102366
 21
108.8792192192539
 31
0.0
  0
LINE
  5
3806
330
36AC
100
AcDbEntity
  8
DIM
100
AcDbLine
 10
125.487049102366
 20
107.3792192192539
 30
0.0
 11
123.487049102366
 21
107.3792192192539
 31
0.0
  0
LINE
  5
3807
330
36AC
100
AcDbEntity
  8
DIM
100
AcDbLine
 10
135.487049102366
 20
107.3792192192539
 30
0.0
 11
137.487049102366
 21
107.3792192192539
 31
0.0
  0
LINE
  5
3808
330
36AC
100
AcDbEntity
  8
DIM
100
AcDbLine
 10
127.487049102366
 20
107.3792192192539
 30
0.0
 11
133.487049102366
 21
107.3792192192539
 31
0.0
  0
SOLID
  5
3809
330
36AC
100
AcDbEntity
  8
DIM
100
AcDbTrace
 10
125.487049102366
 20
107.7125525525872
 30
0.0
 11
125.487049102366
 21
107.0458858859206
 31
0.0
 12
127.487049102366
 22
107.3792192192539
 32
0.0
 13
127.487049102366
 23
107.3792192192539
 33
0.0
  0
SOLID
  5
380A
330
36AC
100
AcDbEntity
  8
DIM
100
AcDbTrace
 10
135.487049102366
 20
107.7125525525872
 30
0.0
 11
135.487049102366
 21
107.0458858859206
 31
0.0
 12
133.487049102366
 22
107.3792192192539
 32
0.0
 13
133.487049102366
 23
107.3792192192539
 33
0.0
  0
MTEXT
  5
380B
330
36AC
100
AcDbEntity
  8
DIM
100
AcDbMText
 10
130.487049102366
 20
109.3792192192539
 30
0.0
 40
2.0
 41
0.0
 71
     5
 72
     1
  1
\A1;6
  7
dayus
 73
     1
 44
1.0
1001
ACAD
1000
MTEXTBEGIN
1070
    73
1070
     1
1070
    44
1040
1.0
1070
    74
1070
     0
1000
MTEXTEND
  0
POINT
  5
380C
330
36AC
100
AcDbEntity
  8
Defpoints
 62
     0
100
AcDbPoint
 10
127.487049102366
 20
96.63278737860455
 30
0.0
  0
POINT
  5
380D
330
36AC
100
AcDbEntity
  8
Defpoints
 62
     0
100
AcDbPoint
 10
133.487049102366
 20
80.63278737860436
 30
0.0
  0
POINT
  5
380E
330
36AC
100
AcDbEntity
  8
Defpoints
 62
     0
100
AcDbPoint
 10
133.487049102366
 20
107.3792192192539
 30
0.0
  0
ENDBLK
  5
36B9
330
36AC
100
AcDbEntity
  8
0
100
AcDbBlockEnd
  0
BLOCK
  5
36C6
330
36BA
100
AcDbEntity
  8
0
100
AcDbBlockBegin
  2
*D21
 70
     1
 10
0.0
 20
0.0
 30
0.0
  3
*D21
  1

  0
LINE
  5
380F
330
36BA
100
AcDbEntity
  8
DIM
100
AcDbLine
 10
127.487049102366
 20
98.13278737860455
 30
0.0
 11
127.487049102366
 21
103.4893601617088
 31
0.0
  0
LINE
  5
3810
330
36BA
100
AcDbEntity
  8
DIM
100
AcDbLine
 10
129.487049102366
 20
86.13278737860431
 30
0.0
 11
129.487049102366
 21
103.4893601617088
 31
0.0
  0
LINE
  5
3811
330
36BA
100
AcDbEntity
  8
DIM
100
AcDbLine
 10
125.487049102366
 20
101.9893601617088
 30
0.0
 11
123.487049102366
 21
101.9893601617088
 31
0.0
  0
LINE
  5
3812
330
36BA
100
AcDbEntity
  8
DIM
100
AcDbLine
 10
131.487049102366
 20
101.9893601617088
 30
0.0
 11
133.487049102366
 21
101.9893601617088
 31
0.0
  0
LINE
  5
3813
330
36BA
100
AcDbEntity
  8
DIM
100
AcDbLine
 10
127.487049102366
 20
101.9893601617088
 30
0.0
 11
129.487049102366
 21
101.9893601617088
 31
0.0
  0
SOLID
  5
3814
330
36BA
100
AcDbEntity
  8
DIM
100
AcDbTrace
 10
125.487049102366
 20
102.3226934950421
 30
0.0
 11
125.487049102366
 21
101.6560268283755
 31
0.0
 12
127.487049102366
 22
101.9893601617088
 32
0.0
 13
127.487049102366
 23
101.9893601617088
 33
0.0
  0
SOLID
  5
3815
330
36BA
100
AcDbEntity
  8
DIM
100
AcDbTrace
 10
131.487049102366
 20
102.3226934950421
 30
0.0
 11
131.487049102366
 21
101.6560268283755
 31
0.0
 12
129.487049102366
 22
101.9893601617088
 32
0.0
 13
129.487049102366
 23
101.9893601617088
 33
0.0
  0
MTEXT
  5
3816
330
36BA
100
AcDbEntity
  8
DIM
100
AcDbMText
 10
128.487049102366
 20
103.9893601617088
 30
0.0
 40
2.0
 41
0.0
 71
     5
 72
     1
  1
\A1;2
  7
dayus
 73
     1
 44
1.0
1001
ACAD
1000
MTEXTBEGIN
1070
    73
1070
     1
1070
    44
1040
1.0
1070
    74
1070
     0
1000
MTEXTEND
  0
POINT
  5
3817
330
36BA
100
AcDbEntity
  8
Defpoints
 62
     0
100
AcDbPoint
 10
127.487049102366
 20
96.63278737860455
 30
0.0
  0
POINT
  5
3818
330
36BA
100
AcDbEntity
  8
Defpoints
 62
     0
100
AcDbPoint
 10
129.487049102366
 20
84.63278737860433
 30
0.0
  0
POINT
  5
3819
330
36BA
100
AcDbEntity
  8
Defpoints
 62
     0
100
AcDbPoint
 10
129.487049102366
 20
101.9893601617088
 30
0.0
  0
ENDBLK
  5
36C7
330
36BA
100
AcDbEntity
  8
0
100
AcDbBlockEnd
  0
BLOCK
  5
36D2
330
36C8
100
AcDbEntity
  8
0
100
AcDbBlockBegin
  2
*D22
 70
     1
 10
0.0
 20
0.0
 30
0.0
  3
*D22
  1

  0
LINE
  5
381A
330
36C8
100
AcDbEntity
  8
DIM
100
AcDbLine
 10
101.4870491023658
 20
98.13278737860455
 30
0.0
 11
101.4870491023658
 21
103.4893601617088
 31
0.0
  0
LINE
  5
381B
330
36C8
100
AcDbEntity
  8
DIM
100
AcDbLine
 10
109.487049102366
 20
82.58009809281166
 30
0.0
 11
109.487049102366
 21
103.4893601617088
 31
0.0
  0
LINE
  5
381C
330
36C8
100
AcDbEntity
  8
DIM
100
AcDbLine
 10
103.4870491023658
 20
101.9893601617088
 30
0.0
 11
107.487049102366
 21
101.9893601617088
 31
0.0
  0
SOLID
  5
381D
330
36C8
100
AcDbEntity
  8
DIM
100
AcDbTrace
 10
103.4870491023658
 20
102.3226934950421
 30
0.0
 11
103.4870491023658
 21
101.6560268283755
 31
0.0
 12
101.4870491023658
 22
101.9893601617088
 32
0.0
 13
101.4870491023658
 23
101.9893601617088
 33
0.0
  0
SOLID
  5
381E
330
36C8
100
AcDbEntity
  8
DIM
100
AcDbTrace
 10
107.487049102366
 20
102.3226934950421
 30
0.0
 11
107.487049102366
 21
101.6560268283755
 31
0.0
 12
109.487049102366
 22
101.9893601617088
 32
0.0
 13
109.487049102366
 23
101.9893601617088
 33
0.0
  0
MTEXT
  5
381F
330
36C8
100
AcDbEntity
  8
DIM
100
AcDbMText
 10
105.4870491023659
 20
103.9893601617088
 30
0.0
 40
2.0
 41
0.0
 71
     5
 72
     1
  1
\A1;8
  7
dayus
 73
     1
 44
1.0
1001
ACAD
1000
MTEXTBEGIN
1070
    73
1070
     1
1070
    44
1040
1.0
1070
    74
1070
     0
1000
MTEXTEND
  0
POINT
  5
3820
330
36C8
100
AcDbEntity
  8
Defpoints
 62
     0
100
AcDbPoint
 10
101.4870491023658
 20
96.63278737860455
 30
0.0
  0
POINT
  5
3821
330
36C8
100
AcDbEntity
  8
Defpoints
 62
     0
100
AcDbPoint
 10
109.487049102366
 20
81.08009809281165
 30
0.0
  0
POINT
  5
3822
330
36C8
100
AcDbEntity
  8
Defpoints
 62
     0
100
AcDbPoint
 10
109.487049102366
 20
101.9893601617088
 30
0.0
  0
ENDBLK
  5
36D3
330
36C8
100
AcDbEntity
  8
0
100
AcDbBlockEnd
  0
BLOCK
  5
36DE
330
36D4
100
AcDbEntity
  8
0
100
AcDbBlockBegin
  2
*D23
 70
     1
 10
0.0
 20
0.0
 30
0.0
  3
*D23
  1

  0
LINE
  5
3823
330
36D4
100
AcDbEntity
  8
DIM
100
AcDbLine
 10
119.487049102366
 20
82.58009809281166
 30
0.0
 11
119.487049102366
 21
103.4893601617088
 31
0.0
  0
LINE
  5
3824
330
36D4
100
AcDbEntity
  8
DIM
100
AcDbLine
 10
127.487049102366
 20
98.13278737860455
 30
0.0
 11
127.487049102366
 21
103.4893601617088
 31
0.0
  0
LINE
  5
3825
330
36D4
100
AcDbEntity
  8
DIM
100
AcDbLine
 10
121.487049102366
 20
101.9893601617088
 30
0.0
 11
125.487049102366
 21
101.9893601617088
 31
0.0
  0
SOLID
  5
3826
330
36D4
100
AcDbEntity
  8
DIM
100
AcDbTrace
 10
121.487049102366
 20
102.3226934950421
 30
0.0
 11
121.487049102366
 21
101.6560268283755
 31
0.0
 12
119.487049102366
 22
101.9893601617088
 32
0.0
 13
119.487049102366
 23
101.9893601617088
 33
0.0
  0
SOLID
  5
3827
330
36D4
100
AcDbEntity
  8
DIM
100
AcDbTrace
 10
125.487049102366
 20
102.3226934950421
 30
0.0
 11
125.487049102366
 21
101.6560268283755
 31
0.0
 12
127.487049102366
 22
101.9893601617088
 32
0.0
 13
127.487049102366
 23
101.9893601617088
 33
0.0
  0
MTEXT
  5
3828
330
36D4
100
AcDbEntity
  8
DIM
100
AcDbMText
 10
123.487049102366
 20
103.9893601617088
 30
0.0
 40
2.0
 41
0.0
 71
     5
 72
     1
  1
\A1;8
  7
dayus
 73
     1
 44
1.0
1001
ACAD
1000
MTEXTBEGIN
1070
    73
1070
     1
1070
    44
1040
1.0
1070
    74
1070
     0
1000
MTEXTEND
  0
POINT
  5
3829
330
36D4
100
AcDbEntity
  8
Defpoints
 62
     0
100
AcDbPoint
 10
119.487049102366
 20
81.08009809281165
 30
0.0
  0
POINT
  5
382A
330
36D4
100
AcDbEntity
  8
Defpoints
 62
     0
100
AcDbPoint
 10
127.487049102366
 20
96.63278737860455
 30
0.0
  0
POINT
  5
382B
330
36D4
100
AcDbEntity
  8
Defpoints
 62
     0
100
AcDbPoint
 10
127.487049102366
 20
101.9893601617088
 30
0.0
  0
ENDBLK
  5
36DF
330
36D4
100
AcDbEntity
  8
0
100
AcDbBlockEnd
  0
BLOCK
  5
36EA
330
36E0
100
AcDbEntity
  8
0
100
AcDbBlockBegin
  2
*D24
 70
     1
 10
0.0
 20
0.0
 30
0.0
  3
*D24
  1

  0
LINE
  5
3BB9
330
36E0
100
AcDbEntity
  8
DIM
100
AcDbLine
 10
101.487049102366
 20
98.13278737860455
 30
0.0
 11
101.487049102366
 21
108.8792192192539
 31
0.0
  0
LINE
  5
3BBA
330
36E0
100
AcDbEntity
  8
DIM
100
AcDbLine
 10
127.487049102366
 20
98.13278737860455
 30
0.0
 11
127.487049102366
 21
108.8792192192539
 31
0.0
  0
LINE
  5
3BBB
330
36E0
100
AcDbEntity
  8
DIM
100
AcDbLine
 10
103.487049102366
 20
107.3792192192539
 30
0.0
 11
125.487049102366
 21
107.3792192192539
 31
0.0
  0
SOLID
  5
3BBC
330
36E0
100
AcDbEntity
  8
DIM
100
AcDbTrace
 10
103.487049102366
 20
107.7125525525872
 30
0.0
 11
103.487049102366
 21
107.0458858859206
 31
0.0
 12
101.487049102366
 22
107.3792192192539
 32
0.0
 13
101.487049102366
 23
107.3792192192539
 33
0.0
  0
SOLID
  5
3BBD
330
36E0
100
AcDbEntity
  8
DIM
100
AcDbTrace
 10
125.487049102366
 20
107.7125525525872
 30
0.0
 11
125.487049102366
 21
107.0458858859206
 31
0.0
 12
127.487049102366
 22
107.3792192192539
 32
0.0
 13
127.487049102366
 23
107.3792192192539
 33
0.0
  0
MTEXT
  5
3BBE
330
36E0
100
AcDbEntity
  8
DIM
100
AcDbMText
 10
114.487049102366
 20
109.3792192192539
 30
0.0
 40
2.0
 41
0.0
 71
     5
 72
     1
  1
\A1;21+stroke=S
  7
dayus
 73
     1
 44
1.0
1001
ACAD
1000
MTEXTBEGIN
1070
    73
1070
     1
1070
    44
1040
1.0
1070
    74
1070
     0
1000
MTEXTEND
  0
POINT
  5
3BBF
330
36E0
100
AcDbEntity
  8
Defpoints
 62
     0
100
AcDbPoint
 10
101.487049102366
 20
96.63278737860455
 30
0.0
  0
POINT
  5
3BC0
330
36E0
100
AcDbEntity
  8
Defpoints
 62
     0
100
AcDbPoint
 10
127.487049102366
 20
96.63278737860455
 30
0.0
  0
POINT
  5
3BC1
330
36E0
100
AcDbEntity
  8
Defpoints
 62
     0
100
AcDbPoint
 10
127.487049102366
 20
107.3792192192539
 30
0.0
  0
ENDBLK
  5
36EB
330
36E0
100
AcDbEntity
  8
0
100
AcDbBlockEnd
  0
BLOCK
  5
36F6
330
36EC
100
AcDbEntity
  8
0
100
AcDbBlockBegin
  2
*D25
 70
     1
 10
0.0
 20
0.0
 30
0.0
  3
*D25
  1

  0
LINE
  5
3BC3
330
36EC
100
AcDbEntity
  8
DIM
100
AcDbLine
 10
101.487049102366
 20
98.13278737860455
 30
0.0
 11
101.487049102366
 21
114.9379242187603
 31
0.0
  0
LINE
  5
3BC4
330
36EC
100
AcDbEntity
  8
DIM
100
AcDbLine
 10
133.487049102366
 20
82.13278737860436
 30
0.0
 11
133.487049102366
 21
114.9379242187603
 31
0.0
  0
LINE
  5
3BC5
330
36EC
100
AcDbEntity
  8
DIM
100
AcDbLine
 10
103.487049102366
 20
113.4379242187603
 30
0.0
 11
131.487049102366
 21
113.4379242187603
 31
0.0
  0
SOLID
  5
3BC6
330
36EC
100
AcDbEntity
  8
DIM
100
AcDbTrace
 10
103.487049102366
 20
113.7712575520936
 30
0.0
 11
103.487049102366
 21
113.104590885427
 31
0.0
 12
101.487049102366
 22
113.4379242187603
 32
0.0
 13
101.487049102366
 23
113.4379242187603
 33
0.0
  0
SOLID
  5
3BC7
330
36EC
100
AcDbEntity
  8
DIM
100
AcDbTrace
 10
131.487049102366
 20
113.7712575520936
 30
0.0
 11
131.487049102366
 21
113.104590885427
 31
0.0
 12
133.487049102366
 22
113.4379242187603
 32
0.0
 13
133.487049102366
 23
113.4379242187603
 33
0.0
  0
MTEXT
  5
3BC8
330
36EC
100
AcDbEntity
  8
DIM
100
AcDbMText
 10
117.487049102366
 20
115.4379242187603
 30
0.0
 40
2.0
 41
0.0
 71
     5
 72
     1
  1
\A1;27+stroke=ZZ
  7
dayus
 73
     1
 44
1.0
1001
ACAD
1000
MTEXTBEGIN
1070
    73
1070
     1
1070
    44
1040
1.0
1070
    74
1070
     0
1000
MTEXTEND
  0
POINT
  5
3BC9
330
36EC
100
AcDbEntity
  8
Defpoints
 62
     0
100
AcDbPoint
 10
101.487049102366
 20
96.63278737860455
 30
0.0
  0
POINT
  5
3BCA
330
36EC
100
AcDbEntity
  8
Defpoints
 62
     0
100
AcDbPoint
 10
133.487049102366
 20
80.63278737860436
 30
0.0
  0
POINT
  5
3BCB
330
36EC
100
AcDbEntity
  8
Defpoints
 62
     0
100
AcDbPoint
 10
133.487049102366
 20
113.4379242187603
 30
0.0
  0
ENDBLK
  5
36F7
330
36EC
100
AcDbEntity
  8
0
100
AcDbBlockEnd
  0
BLOCK
  5
3702
330
36F8
100
AcDbEntity
  8
0
100
AcDbBlockBegin
  2
*D26
 70
     1
 10
0.0
 20
0.0
 30
0.0
  3
*D26
  1

  0
LINE
  5
383E
330
36F8
100
AcDbEntity
  8
DIM
100
AcDbLine
 10
130.987049102366
 20
71.63278737860412
 30
0.0
 11
144.2625941314223
 21
71.63278737860412
 31
0.0
  0
LINE
  5
383F
330
36F8
100
AcDbEntity
  8
DIM
100
AcDbLine
 10
130.987049102366
 20
81.63278737860457
 30
0.0
 11
144.2625941314223
 21
81.63278737860457
 31
0.0
  0
LINE
  5
3840
330
36F8
100
AcDbEntity
  8
DIM
100
AcDbLine
 10
142.7625941314223
 20
73.63278737860412
 30
0.0
 11
142.7625941314223
 21
79.63278737860456
 31
0.0
  0
SOLID
  5
3841
330
36F8
100
AcDbEntity
  8
DIM
100
AcDbTrace
 10
142.4292607980889
 20
73.63278737860412
 30
0.0
 11
143.0959274647556
 21
73.63278737860412
 31
0.0
 12
142.7625941314223
 22
71.63278737860412
 32
0.0
 13
142.7625941314223
 23
71.63278737860412
 33
0.0
  0
SOLID
  5
3842
330
36F8
100
AcDbEntity
  8
DIM
100
AcDbTrace
 10
142.4292607980889
 20
79.63278737860456
 30
0.0
 11
143.0959274647556
 21
79.63278737860456
 31
0.0
 12
142.7625941314223
 22
81.63278737860457
 32
0.0
 13
142.7625941314223
 23
81.63278737860457
 33
0.0
  0
MTEXT
  5
3843
330
36F8
100
AcDbEntity
  8
DIM
100
AcDbMText
 10
140.7625941314222
 20
76.63278737860436
 30
0.0
 40
2.0
 41
0.0
 71
     5
 72
     1
  1
\A1;%%c10
  7
dayus
 11
0.0000000000000001
 21
1.0
 31
0.0
 73
     1
 44
1.0
1001
ACAD
1000
MTEXTBEGIN
1070
    73
1070
     1
1070
    44
1040
1.0
1070
    74
1070
     0
1000
MTEXTEND
  0
POINT
  5
3844
330
36F8
100
AcDbEntity
  8
Defpoints
 62
     0
100
AcDbPoint
 10
129.487049102366
 20
71.63278737860412
 30
0.0
  0
POINT
  5
3845
330
36F8
100
AcDbEntity
  8
Defpoints
 62
     0
100
AcDbPoint
 10
129.487049102366
 20
81.63278737860457
 30
0.0
  0
POINT
  5
3846
330
36F8
100
AcDbEntity
  8
Defpoints
 62
     0
100
AcDbPoint
 10
142.7625941314223
 20
81.63278737860457
 30
0.0
  0
ENDBLK
  5
3703
330
36F8
100
AcDbEntity
  8
0
100
AcDbBlockEnd
  0
BLOCK
  5
370E
330
3704
100
AcDbEntity
  8
0
100
AcDbBlockBegin
  2
*D27
 70
     1
 10
0.0
 20
0.0
 30
0.0
  3
*D27
  1

  0
LINE
  5
3847
330
3704
100
AcDbEntity
  8
DIM
100
AcDbLine
 10
130.487049102366
 20
68.1327873786043
 30
0.0
 11
150.7508143292001
 21
68.1327873786043
 31
0.0
  0
LINE
  5
3848
330
3704
100
AcDbEntity
  8
DIM
100
AcDbLine
 10
130.487049102366
 20
85.13278737860431
 30
0.0
 11
150.7508143292001
 21
85.13278737860431
 31
0.0
  0
LINE
  5
3849
330
3704
100
AcDbEntity
  8
DIM
100
AcDbLine
 10
149.2508143292
 20
70.13278737860431
 30
0.0
 11
149.2508143292
 21
83.13278737860432
 31
0.0
  0
SOLID
  5
384A
330
3704
100
AcDbEntity
  8
DIM
100
AcDbTrace
 10
148.9174809958667
 20
70.13278737860431
 30
0.0
 11
149.5841476625334
 21
70.13278737860431
 31
0.0
 12
149.2508143292
 22
68.1327873786043
 32
0.0
 13
149.2508143292
 23
68.1327873786043
 33
0.0
  0
SOLID
  5
384B
330
3704
100
AcDbEntity
  8
DIM
100
AcDbTrace
 10
148.9174809958667
 20
83.13278737860432
 30
0.0
 11
149.5841476625334
 21
83.13278737860432
 31
0.0
 12
149.2508143292
 22
85.13278737860431
 32
0.0
 13
149.2508143292
 23
85.13278737860431
 33
0.0
  0
MTEXT
  5
384C
330
3704
100
AcDbEntity
  8
DIM
100
AcDbMText
 10
146.5941476625333
 20
76.63278737860434
 30
0.0
 40
2.0
 41
0.0
 71
     5
 72
     1
  1
\A1;%%c17{}{\H0.71x;\C3;\S 0^ -0.05;}
  7
dayus
 11
0.0000000000000001
 21
1.0
 31
0.0
 73
     1
 44
1.0
1001
ACAD
1000
MTEXTBEGIN
1070
    73
1070
     1
1070
    44
1040
1.0
1070
    74
1070
     0
1000
MTEXTEND
  0
POINT
  5
384D
330
3704
100
AcDbEntity
  8
Defpoints
 62
     0
100
AcDbPoint
 10
128.987049102366
 20
68.1327873786043
 30
0.0
  0
POINT
  5
384E
330
3704
100
AcDbEntity
  8
Defpoints
 62
     0
100
AcDbPoint
 10
128.987049102366
 20
85.13278737860431
 30
0.0
  0
POINT
  5
384F
330
3704
100
AcDbEntity
  8
Defpoints
 62
     0
100
AcDbPoint
 10
149.2508143292
 20
85.13278737860431
 30
0.0
  0
ENDBLK
  5
370F
330
3704
100
AcDbEntity
  8
0
100
AcDbBlockEnd
  0
BLOCK
  5
371C
330
3710
100
AcDbEntity
  8
0
100
AcDbBlockBegin
  2
*D28
 70
     1
 10
0.0
 20
0.0
 30
0.0
  3
*D28
  1

  0
LINE
  5
3850
330
3710
100
AcDbEntity
  8
DIM
100
AcDbLine
 10
130.487049102366
 20
72.13278737860429
 30
0.0
 11
130.487049102366
 21
60.03153709617092
 31
0.0
  0
LINE
  5
3851
330
3710
100
AcDbEntity
  8
DIM
100
AcDbLine
 10
133.487049102366
 20
71.13278737860429
 30
0.0
 11
133.487049102366
 21
60.03153709617092
 31
0.0
  0
LINE
  5
3852
330
3710
100
AcDbEntity
  8
DIM
100
AcDbLine
 10
128.487049102366
 20
61.53153709617092
 30
0.0
 11
126.487049102366
 21
61.53153709617092
 31
0.0
  0
LINE
  5
3853
330
3710
100
AcDbEntity
  8
DIM
100
AcDbLine
 10
135.487049102366
 20
61.53153709617092
 30
0.0
 11
137.487049102366
 21
61.53153709617092
 31
0.0
  0
LINE
  5
3854
330
3710
100
AcDbEntity
  8
DIM
100
AcDbLine
 10
130.487049102366
 20
61.53153709617092
 30
0.0
 11
133.487049102366
 21
61.53153709617092
 31
0.0
  0
SOLID
  5
3855
330
3710
100
AcDbEntity
  8
DIM
100
AcDbTrace
 10
128.487049102366
 20
61.86487042950425
 30
0.0
 11
128.487049102366
 21
61.19820376283758
 31
0.0
 12
130.487049102366
 22
61.53153709617092
 32
0.0
 13
130.487049102366
 23
61.53153709617092
 33
0.0
  0
SOLID
  5
3856
330
3710
100
AcDbEntity
  8
DIM
100
AcDbTrace
 10
135.487049102366
 20
61.86487042950425
 30
0.0
 11
135.487049102366
 21
61.19820376283758
 31
0.0
 12
133.487049102366
 22
61.53153709617092
 32
0.0
 13
133.487049102366
 23
61.53153709617092
 33
0.0
  0
MTEXT
  5
3857
330
3710
100
AcDbEntity
  8
DIM
100
AcDbMText
 10
131.987049102366
 20
63.53153709617092
 30
0.0
 40
2.0
 41
0.0
 71
     5
 72
     1
  1
\A1;3
  7
dayus
 73
     1
 44
1.0
1001
ACAD
1000
MTEXTBEGIN
1070
    73
1070
     1
1070
    44
1040
1.0
1070
    74
1070
     0
1000
MTEXTEND
  0
POINT
  5
3858
330
3710
100
AcDbEntity
  8
Defpoints
 62
     0
100
AcDbPoint
 10
130.487049102366
 20
73.63278737860429
 30
0.0
  0
POINT
  5
3859
330
3710
100
AcDbEntity
  8
Defpoints
 62
     0
100
AcDbPoint
 10
133.487049102366
 20
72.63278737860429
 30
0.0
  0
POINT
  5
385A
330
3710
100
AcDbEntity
  8
Defpoints
 62
     0
100
AcDbPoint
 10
133.487049102366
 20
61.53153709617092
 30
0.0
  0
ENDBLK
  5
371D
330
3710
100
AcDbEntity
  8
0
100
AcDbBlockEnd
  0
BLOCK
  5
3BD0
330
3BCE
100
AcDbEntity
  8
0
100
AcDbBlockBegin
  2
A$C5ECF147B
 70
     0
 10
0.0
 20
0.0
 30
0.0
  3
A$C5ECF147B
  1

  0
CIRCLE
  5
3BD1
330
3BCE
100
AcDbEntity
  8
0
100
AcDbCircle
 10
-3.079240456948355
 20
2.061381943681453
 30
0.0
 40
1.25
  0
CIRCLE
  5
3BD2
330
3BCE
100
AcDbEntity
  8
0
100
AcDbCircle
 10
-3.079240456948355
 20
2.061381943681453
 30
0.0
 40
0.75
  0
ENDBLK
  5
3BD3
330
3BCE
100
AcDbEntity
  8
0
100
AcDbBlockEnd
  0
BLOCK
  5
3C5A
330
3C57
100
AcDbEntity
  8
0
100
AcDbBlockBegin
  2
A$C1F6E6265
 70
     0
 10
0.0
 20
0.0
 30
0.0
  3
A$C1F6E6265
  1

  0
LINE
  5
3C5B
330
3C57
100
AcDbEntity
  8
AM_5
 62
     5
100
AcDbLine
 10
12.57846733029419
 20
0.460783587398737
 30
0.0
 11
7.091423997858555
 21
0.460783587398737
 31
0.0
  0
LINE
  5
3C5C
330
3C57
100
AcDbEntity
  8
AM_5
 62
     5
100
AcDbLine
 10
7.091423997858555
 20
0.460783587398737
 30
0.0
 11
3.50000046420655
 21
0.460783587398737
 31
0.0
  0
TRACE
  5
3C5D
330
3C57
100
AcDbEntity
  8
AM_5
 62
     5
370
    35
100
AcDbTrace
 10
3.50000046420655
 20
0.9215673268987245
 30
0.0
 11
3.50000046420655
 21
-0.0000001521012507
 31
0.0
 12
0.0000004642065505
 22
0.460783587398737
 32
0.0
 13
0.0000004642065505
 23
0.460783587398737
 33
0.0
  0
MTEXT
  5
3C5E
330
3C57
100
AcDbEntity
  8
AM_5
 62
     5
100
AcDbMText
 10
6.603782167567317
 20
1.421084835219261
 30
0.0
 40
2.449999999999999
 41
0.0
 71
     7
 72
     5
  1
SL
  7
ACISOTS
 73
     1
 44
1.0
1001
ACAD
1000
MTEXTBEGIN
1070
    73
1070
     1
1070
    44
1040
1.0
1070
    74
1070
     0
1000
MTEXTEND
  0
ENDBLK
  5
3C5F
330
3C57
100
AcDbEntity
  8
0
100
AcDbBlockEnd
  0
ENDSEC
  0
SECTION
  2
ENTITIES
  0
MTEXT
  5
A9
330
1F
100
AcDbEntity
  8
0
100
AcDbMText
 10
-112.8858816556399
 20
179.1757813154577
 30
0.0
 40
3.0
 41
0.0
 71
     4
 72
     5
  1

 73
     1
 44
1.0
1001
ACAD
1000
MTEXTBEGIN
1070
    73
1070
     1
1070
    44
1040
1.0
1070
    74
1070
     0
1000
MTEXTEND
  0
MTEXT
  5
AA
330
1F
100
AcDbEntity
  8
0
100
AcDbMText
 10
-176.2667196970539
 20
189.9084924046809
 30
0.0
 40
1.799999999999999
 41
0.0
 71
     9
 72
     5
  1

 73
     1
 44
1.0
1001
ACAD
1000
MTEXTBEGIN
1070
    73
1070
     1
1070
    44
1040
1.0
1070
    74
1070
     0
1000
MTEXTEND
  0
MTEXT
  5
AB
330
1F
100
AcDbEntity
  8
0
100
AcDbMText
 10
82.64233389287733
 20
174.944592339129
 30
0.0
 40
3.0
 41
0.0
 71
     4
 72
     5
  1

 73
     1
 44
1.0
1001
ACAD
1000
MTEXTBEGIN
1070
    73
1070
     1
1070
    44
1040
1.0
1070
    74
1070
     0
1000
MTEXTEND
  0
MTEXT
  5
AC
330
1F
100
AcDbEntity
  8
0
100
AcDbMText
 10
19.26149585146331
 20
185.6773034283523
 30
0.0
 40
1.799999999999999
 41
0.0
 71
     9
 72
     5
  1

 73
     1
 44
1.0
1001
ACAD
1000
MTEXTBEGIN
1070
    73
1070
     1
1070
    44
1040
1.0
1070
    74
1070
     0
1000
MTEXTEND
  0
MTEXT
  5
B1
330
1F
100
AcDbEntity
  8
0
100
AcDbMText
 10
-211.0828086697475
 20
93.72900974557683
 30
0.0
 40
3.0
 41
59.51
 71
     1
 72
     5
  1

  7
CHINESET
 73
     1
 44
1.0
1001
ACAD
1000
MTEXTBEGIN
1070
    73
1070
     1
1070
    44
1040
1.0
1070
    74
1070
     0
1000
MTEXTEND
  0
MTEXT
  5
B2
330
1F
100
AcDbEntity
  8
0
100
AcDbMText
 10
-179.9099428209695
 20
86.93407807798587
 30
0.0
 40
3.0
 41
38.26
 71
     1
 72
     5
  1

  7
CHINESET
 73
     1
 44
1.0
1001
ACAD
1000
MTEXTBEGIN
1070
    73
1070
     1
1070
    44
1040
1.0
1070
    74
1070
     0
1000
MTEXTEND
  0
MTEXT
  5
10B3
330
1F
100
AcDbEntity
  8
0
100
AcDbMText
 10
81.67014302795905
 20
125.5492500028813
 30
0.0
 40
3.0
 41
0.0
 71
     7
 72
     5
  1

  7
CHINESET
 73
     1
 44
1.0
1001
ACAD
1000
MTEXTBEGIN
1070
    73
1070
     1
1070
    44
1040
1.0
1070
    74
1070
     0
1000
MTEXTEND
  0
LINE
  5
17B4
330
1F
100
AcDbEntity
  8
0
 62
     4
100
AcDbLine
 10
271.6277841472795
 20
34.8799803659976
 30
0.0
 11
271.6277841472795
 21
251.5581680260025
 31
0.0
  0
LINE
  5
17B5
330
1F
100
AcDbEntity
  8
0
 62
     4
100
AcDbLine
 10
57.1460469314577
 20
34.87998036599757
 30
0.0
 11
57.1460469314577
 21
251.5581680260025
 31
0.0
  0
TEXT
  5
17BD
330
1F
100
AcDbEntity
  8
LOGO
  6
Continuous
 62
     7
100
AcDbText
 10
186.8252464383467
 20
25.42676678939908
 30
0.0
 40
4.87375
  1
11/12
  7
CHINESET
 72
     1
 11
196.5727464383467
 21
27.86364178939908
 31
0.0
100
AcDbText
 73
     2
  0
TEXT
  5
17BE
330
1F
100
AcDbEntity
  8
LOGO
100
AcDbText
 10
188.9109600860619
 20
14.65859509430354
 30
0.0
 40
3.48125
  1
作動型式
  7
CHINESET
 72
     4
 11
195.8371970652286
 21
16.31013298800433
 31
0.0
100
AcDbText
  0
LINE
  5
17BF
330
1F
100
AcDbEntity
  8
0
 62
     4
100
AcDbLine
 10
271.6277841472795
 20
144.1593953270845
 30
0.0
 11
57.1460469314577
 21
144.1593953270845
 31
0.0
  0
TEXT
  5
17C3
330
1F
100
AcDbEntity
  8
LOGO
  6
Continuous
100
AcDbText
 10
188.6757684938
 20
10.97142114350603
 30
0.0
 40
2.08875
  1
Acting type
 41
0.8
  7
CHINESET
 72
     4
 11
195.8371970652286
 21
11.66767114350603
 31
0.0
100
AcDbText
  0
LINE
  5
17C4
330
1F
100
AcDbEntity
  8
LOGO
 62
     4
100
AcDbLine
 10
208.3796316618978
 20
23.73807193920163
 30
0.0
 11
185.5980599037764
 21
23.73807193920163
 31
0.0
  0
LINE
  5
17C5
330
1F
100
AcDbEntity
  8
LOGO
 62
     4
100
AcDbLine
 10
208.3796316618978
 20
19.55985627915316
 30
0.0
 11
185.5980599037764
 21
19.55985627915316
 31
0.0
  0
LINE
  5
17C6
330
1F
100
AcDbEntity
  8
LOGO
 62
     4
100
AcDbLine
 10
208.3796316618978
 20
9.346440221256877
 30
0.0
 11
185.5980599037764
 21
9.346440221256852
 31
0.0
  0
LINE
  5
17C7
330
1F
100
AcDbEntity
  8
LOGO
 62
     4
100
AcDbLine
 10
208.3796316618978
 20
32.09450325929863
 30
0.0
 11
185.5980599037764
 21
32.09450325929858
 31
0.0
  0
LINE
  5
1802
330
1F
100
AcDbEntity
  8
LOGO
 62
     4
100
AcDbLine
 10
177.166376739774
 20
19.55985627915316
 30
0.0
 11
158.5965293617807
 21
19.55985627915316
 31
0.0
  0
TEXT
  5
1803
330
1F
100
AcDbEntity
  8
LOGO
  6
Continuous
 62
     7
100
AcDbText
 10
158.9462447174439
 20
25.47941259925011
 30
0.0
 40
4.87375
  1
MCJA
  7
CHINESET
 72
     1
 11
167.8814530507773
 21
27.91628759925011
 31
0.0
100
AcDbText
 73
     2
  0
LINE
  5
1804
330
1F
100
AcDbEntity
  8
LOGO
 62
     4
100
AcDbLine
 10
177.166376739774
 20
9.346440221256877
 30
0.0
 11
158.5965293617807
 21
9.346440221256852
 31
0.0
  0
TEXT
  5
1805
330
1F
100
AcDbEntity
  8
LOGO
  6
Continuous
100
AcDbText
 10
164.6985959079201
 20
10.62329614350603
 30
0.0
 40
2.08875
  1
Model
 41
0.8
  7
CHINESET
 72
     4
 11
167.8814530507773
 21
11.66767114350603
 31
0.0
100
AcDbText
  0
TEXT
  5
1806
330
1F
100
AcDbEntity
  8
LOGO
100
AcDbText
 10
164.4002030507773
 20
14.65859509430354
 30
0.0
 40
3.48125
  1
型式
  7
CHINESET
 72
     4
 11
167.8814530507773
 21
16.31013298800433
 31
0.0
100
AcDbText
  0
LINE
  5
1807
330
1F
100
AcDbEntity
  8
LOGO
 62
     4
100
AcDbLine
 10
179.0233614775732
 20
23.73807193920163
 30
0.0
 11
156.7395446239814
 21
23.73807193920163
 31
0.0
  0
LINE
  5
1808
330
1F
100
AcDbEntity
  8
LOGO
 62
     4
100
AcDbLine
 10
179.0233614775732
 20
32.09450325929858
 30
0.0
 11
156.7395446239814
 21
32.09450325929858
 31
0.0
  0
LINE
  5
1809
330
1F
100
AcDbEntity
  8
LOGO
 62
     4
100
AcDbLine
 10
167.8814530507773
 20
23.73807193920163
 30
0.0
 11
167.8814530507773
 21
19.55985627915316
 31
0.0
  0
LINE
  5
180A
330
1F
100
AcDbEntity
  8
LOGO
 62
     4
100
AcDbLine
 10
158.5965293617807
 20
19.55985627915316
 30
0.0
 11
158.5965293617807
 21
9.346440221256852
 31
0.0
  0
LINE
  5
180B
330
1F
100
AcDbEntity
  8
LOGO
 62
     4
100
AcDbLine
 10
156.7395446239814
 20
32.09450325929858
 30
0.0
 11
156.7395446239814
 21
23.73807193920163
 31
0.0
  0
LINE
  5
180C
330
1F
100
AcDbEntity
  8
LOGO
 62
     4
100
AcDbLine
 10
177.166376739774
 20
19.55985627915316
 30
0.0
 11
177.166376739774
 21
9.346440221256877
 31
0.0
  0
LINE
  5
180D
330
1F
100
AcDbEntity
  8
LOGO
 62
     4
100
AcDbLine
 10
185.5980599037764
 20
19.55985627915316
 30
0.0
 11
185.5980599037764
 21
9.346440221256877
 31
0.0
  0
LINE
  5
180E
330
1F
100
AcDbEntity
  8
LOGO
  6
Continuous
 62
     7
100
AcDbLine
 10
180.4630490094451
 20
27.88668779888602
 30
0.0
 11
184.1529441677698
 21
27.88668779888602
 31
0.0
  0
LINE
  5
180F
330
1F
100
AcDbEntity
  8
LOGO
 62
     4
100
AcDbLine
 10
179.0233614775733
 20
32.09450325929858
 30
0.0
 11
179.0233614775733
 21
23.73807193920163
 31
0.0
  0
LINE
  5
1810
330
1F
100
AcDbEntity
  8
LOGO
 62
     4
100
AcDbLine
 10
185.5980599037764
 20
32.09450325929858
 30
0.0
 11
185.5980599037764
 21
23.73807193920163
 31
0.0
  0
LINE
  5
1868
330
1F
100
AcDbEntity
  8
LOGO
 62
     4
100
AcDbLine
 10
251.9035627630399
 20
32.09450325929858
 30
0.0
 11
236.4363486238103
 21
32.09450325929858
 31
0.0
  0
LINE
  5
1869
330
1F
100
AcDbEntity
  8
LOGO
 62
     4
100
AcDbLine
 10
251.9035627630399
 20
23.73807193920163
 30
0.0
 11
236.4363486238103
 21
23.73807193920163
 31
0.0
  0
LINE
  5
186A
330
1F
100
AcDbEntity
  8
LOGO
 62
     4
100
AcDbLine
 10
250.9750703941402
 20
19.55985627915316
 30
0.0
 11
237.3648409927099
 21
19.55985627915316
 31
0.0
  0
LINE
  5
186B
330
1F
100
AcDbEntity
  8
LOGO
 62
     4
100
AcDbLine
 10
250.9750703941402
 20
9.346440221256877
 30
0.0
 11
237.3648409927099
 21
9.346440221256852
 31
0.0
  0
LINE
  5
186C
330
1F
100
AcDbEntity
  8
LOGO
 62
     4
100
AcDbLine
 10
229.8616501976071
 20
23.73807193920168
 30
0.0
 11
214.9543300881008
 21
23.73807193920168
 31
0.0
  0
LINE
  5
186D
330
1F
100
AcDbEntity
  8
LOGO
 62
     4
100
AcDbLine
 10
229.8616501976071
 20
19.5598562791532
 30
0.0
 11
214.9543300881008
 21
19.5598562791532
 31
0.0
  0
LINE
  5
186E
330
1F
100
AcDbEntity
  8
LOGO
 62
     4
100
AcDbLine
 10
229.8616501976071
 20
32.09450325929869
 30
0.0
 11
214.9543300881008
 21
32.09450325929863
 31
0.0
  0
TEXT
  5
186F
330
1F
100
AcDbEntity
  8
LOGO
  6
Continuous
 62
     7
100
AcDbText
 10
218.8958700345884
 20
25.42676678939913
 30
0.0
 40
4.87375
  1
25
  7
CHINESET
 72
     1
 11
222.8412867012551
 21
27.86364178939913
 31
0.0
100
AcDbText
 73
     2
  0
LINE
  5
1870
330
1F
100
AcDbEntity
  8
LOGO
 62
     4
100
AcDbLine
 10
229.8616501976071
 20
9.346440221256933
 30
0.0
 11
214.9543300881008
 21
9.346440221256898
 31
0.0
  0
TEXT
  5
1871
330
1F
100
AcDbEntity
  8
LOGO
  6
Continuous
100
AcDbText
 10
219.8219187142826
 20
10.62329614350606
 30
0.0
 40
2.08875
  1
Bore
 41
0.8
  7
CHINESET
 72
     4
 11
222.4079901428541
 21
11.66767114350606
 31
0.0
100
AcDbText
  0
TEXT
  5
1872
330
1F
100
AcDbEntity
  8
LOGO
100
AcDbText
 10
218.7091620178541
 20
14.56950798800437
 30
0.0
 40
3.48125
  1
內徑
  7
CHINESET
 72
     4
 11
222.4079901428541
 21
16.31013298800437
 31
0.0
100
AcDbText
  0
LINE
  5
1873
330
1F
100
AcDbEntity
  8
LOGO
 62
     4
100
AcDbLine
 10
222.4079899287581
 20
23.73807193920168
 30
0.0
 11
222.4079899287581
 21
19.5598562791532
 31
0.0
  0
LINE
  5
1874
330
1F
100
AcDbEntity
  8
LOGO
 62
     4
100
AcDbLine
 10
195.8371970652286
 20
23.73807193920163
 30
0.0
 11
195.8371970652286
 21
19.55985627915316
 31
0.0
  0
LINE
  5
1875
330
1F
100
AcDbEntity
  8
LOGO
 62
     4
100
AcDbLine
 10
208.3796316618978
 20
19.55985627915316
 30
0.0
 11
208.3796316618978
 21
9.346440221256898
 31
0.0
  0
LINE
  5
1876
330
1F
100
AcDbEntity
  8
LOGO
 62
     4
100
AcDbLine
 10
214.9543300881008
 20
19.5598562791532
 30
0.0
 11
214.9543300881008
 21
9.346440221256933
 31
0.0
  0
LINE
  5
1877
330
1F
100
AcDbEntity
  8
LOGO
 62
     4
100
AcDbLine
 10
208.3796316618978
 20
32.09450325929863
 30
0.0
 11
208.3796316618978
 21
23.73807193920163
 31
0.0
  0
LINE
  5
1878
330
1F
100
AcDbEntity
  8
LOGO
 62
     4
100
AcDbLine
 10
214.9543300881008
 20
32.09450325929863
 30
0.0
 11
214.9543300881008
 21
23.73807193920168
 31
0.0
  0
LINE
  5
1879
330
1F
100
AcDbEntity
  8
LOGO
  6
Continuous
 62
     7
100
AcDbLine
 10
209.8193191937695
 20
27.88668779888606
 30
0.0
 11
213.5092143520943
 21
27.88668779888606
 31
0.0
  0
LINE
  5
187A
330
1F
100
AcDbEntity
  8
LOGO
 62
     4
100
AcDbLine
 10
244.3666019465823
 20
23.73807193920163
 30
0.0
 11
244.3666019465823
 21
19.55985627915316
 31
0.0
  0
LINE
  5
187B
330
1F
100
AcDbEntity
  8
LOGO
 62
     4
100
AcDbLine
 10
229.8616501976071
 20
19.5598562791532
 30
0.0
 11
229.8616501976071
 21
9.346440221256955
 31
0.0
  0
LINE
  5
187C
330
1F
100
AcDbEntity
  8
LOGO
 62
     4
100
AcDbLine
 10
237.3648409927099
 20
19.55985627915316
 30
0.0
 11
237.3648409927099
 21
9.346440221256852
 31
0.0
  0
TEXT
  5
187D
330
1F
100
AcDbEntity
  8
LOGO
  6
Continuous
100
AcDbText
 10
240.3903128362823
 20
10.623296143506
 30
0.0
 40
2.08875
  1
Stroke
 41
0.8
  7
CHINESET
 72
     4
 11
244.1699556934251
 21
11.667671143506
 31
0.0
100
AcDbText
  0
TEXT
  5
187E
330
1F
100
AcDbEntity
  8
LOGO
100
AcDbText
 10
240.6887056934251
 20
14.56950798800431
 30
0.0
 40
3.48125
  1
行程
  7
CHINESET
 72
     4
 11
244.1699556934251
 21
16.31013298800431
 31
0.0
100
AcDbText
  0
LINE
  5
187F
330
1F
100
AcDbEntity
  8
LOGO
 62
     4
100
AcDbLine
 10
229.8616501976071
 20
32.09450325929869
 30
0.0
 11
229.8616501976071
 21
23.73807193920168
 31
0.0
  0
LINE
  5
1880
330
1F
100
AcDbEntity
  8
LOGO
  6
Continuous
 62
     7
100
AcDbLine
 10
231.301337729479
 20
27.88668779888612
 30
0.0
 11
234.9912328878038
 21
27.88668779888612
 31
0.0
  0
LINE
  5
1881
330
1F
100
AcDbEntity
  8
LOGO
 62
     4
100
AcDbLine
 10
236.4363486238103
 20
32.09450325929858
 30
0.0
 11
236.4363486238103
 21
23.73807193920163
 31
0.0
  0
TEXT
  5
1882
330
1F
100
AcDbEntity
  8
LOGO
  6
Continuous
 62
     7
100
AcDbText
 10
243.4428355851595
 20
25.42676678939908
 30
0.0
 40
4.87375
  1
*
  7
CHINESET
 72
     1
 11
244.6032522518262
 21
27.86364178939908
 31
0.0
100
AcDbText
 73
     2
  0
LINE
  5
1883
330
1F
100
AcDbEntity
  8
LOGO
 62
     4
100
AcDbLine
 10
259.9360037906468
 20
23.73807193920163
 30
0.0
 11
259.9360037906468
 21
19.55985627915316
 31
0.0
  0
LINE
  5
1885
330
1F
100
AcDbEntity
  8
LOGO
 62
     4
100
AcDbLine
 10
266.7411184913619
 20
9.346440221256877
 30
0.0
 11
253.1308890899317
 21
9.346440221256852
 31
0.0
  0
LINE
  5
1886
330
1F
100
AcDbEntity
  8
LOGO
 62
     4
100
AcDbLine
 10
266.7411184913619
 20
19.55985627915316
 30
0.0
 11
253.1308890899317
 21
19.55985627915316
 31
0.0
  0
TEXT
  5
1887
330
1F
100
AcDbEntity
  8
LOGO
  6
Continuous
100
AcDbText
 10
255.6789323620753
 20
10.971421143506
 30
0.0
 40
2.08875
  1
Magnet
 41
0.8
  7
CHINESET
 72
     4
 11
259.9360037906468
 21
11.667671143506
 31
0.0
100
AcDbText
  0
TEXT
  5
1888
330
1F
100
AcDbEntity
  8
LOGO
100
AcDbText
 10
254.7141287906467
 20
14.60577100883764
 30
0.0
 40
3.48125
  1
附磁石
  7
CHINESET
 72
     4
 11
259.9360037906468
 21
16.31013298800431
 31
0.0
100
AcDbText
  0
LINE
  5
1889
330
1F
100
AcDbEntity
  8
LOGO
 62
     4
100
AcDbLine
 10
253.1308890899317
 20
19.55985627915316
 30
0.0
 11
253.1308890899317
 21
9.346440221256852
 31
0.0
  0
LINE
  5
188A
330
1F
100
AcDbEntity
  8
LOGO
 62
     4
100
AcDbLine
 10
250.9750703941402
 20
19.55985627915316
 30
0.0
 11
250.9750703941402
 21
9.307928870426763
 31
0.0
  0
LINE
  5
188B
330
1F
100
AcDbEntity
  8
LOGO
 62
     4
100
AcDbLine
 10
266.7411184913619
 20
19.55985627915316
 30
0.0
 11
266.7411184913619
 21
9.307928870426763
 31
0.0
  0
TEXT
  5
188C
330
1F
100
AcDbEntity
  8
LOGO
  6
Continuous
 62
     7
100
AcDbText
 10
255.1474255631436
 20
25.42676678939908
 30
0.0
 40
4.87375
  1
(M)
  7
CHINESET
 72
     1
 11
260.3693005631436
 21
27.86364178939908
 31
0.0
100
AcDbText
 73
     2
  0
LINE
  5
188D
330
1F
100
AcDbEntity
  8
LOGO
 62
     4
100
AcDbLine
 10
266.0362082365488
 20
23.73807193920163
 30
0.0
 11
253.8357993447447
 21
23.73807193920163
 31
0.0
  0
LINE
  5
188E
330
1F
100
AcDbEntity
  8
LOGO
 62
     4
100
AcDbLine
 10
266.0362082365488
 20
32.09450325929863
 30
0.0
 11
253.8357993447447
 21
32.09450325929858
 31
0.0
  0
LINE
  5
188F
330
1F
100
AcDbEntity
  8
LOGO
 62
     4
100
AcDbLine
 10
253.8357993447447
 20
32.09450325929858
 30
0.0
 11
253.8357993447447
 21
23.73807193920163
 31
0.0
  0
LINE
  5
1890
330
1F
100
AcDbEntity
  8
LOGO
 62
     4
100
AcDbLine
 10
251.9035627630399
 20
32.09450325929858
 30
0.0
 11
251.9035627630399
 21
23.73807193920163
 31
0.0
  0
LINE
  5
1891
330
1F
100
AcDbEntity
  8
LOGO
 62
     4
100
AcDbLine
 10
266.0362082365487
 20
32.09450325929863
 30
0.0
 11
266.0362082365488
 21
23.73807193920163
 31
0.0
  0
LINE
  5
18E7
330
1F
100
AcDbEntity
  8
0
 62
     4
100
AcDbLine
 10
271.6277841472795
 20
251.5581680260025
 30
0.0
 11
57.1460469314577
 21
251.5581680260025
 31
0.0
  0
TEXT
  5
18EA
330
1F
100
AcDbEntity
  8
0
100
AcDbText
 10
62.28501150021305
 20
244.0187606985694
 30
0.0
 40
4.0
  1
11 type
  7
CHINESET
100
AcDbText
  0
LINE
  5
339A
330
1F
100
AcDbEntity
  8
0
100
AcDbLine
 10
229.9339195559603
 20
165.010466542527
 30
0.0
 11
229.9339195559603
 21
172.9513250450349
 31
0.0
  0
LINE
  5
339B
330
1F
100
AcDbEntity
  8
0
100
AcDbLine
 10
189.9339195559603
 20
165.010466542527
 30
0.0
 11
189.9339195559603
 21
173.3513250450351
 31
0.0
  0
LINE
  5
339C
330
1F
100
AcDbEntity
  8
0
100
AcDbLine
 10
200.0339195559605
 20
198.5563250450346
 30
0.0
 11
208.6339195559604
 21
198.5563250450346
 31
0.0
  0
ARC
  5
339D
330
1F
100
AcDbEntity
  8
0
 62
     3
100
AcDbCircle
 10
223.9339195559604
 20
195.5513250450349
 30
0.0
 40
3.049999999999999
100
AcDbArc
 50
254.5979111544938
 51
204.1136183642503
  0
CIRCLE
  5
339E
330
1F
100
AcDbEntity
  8
0
100
AcDbCircle
 10
223.9339195559604
 20
195.5513250450349
 30
0.0
 40
2.549999999999999
  0
LINE
  5
339F
330
1F
100
AcDbEntity
  8
0
100
AcDbLine
 10
218.5339195559605
 20
201.5513250450349
 30
0.0
 11
226.4747780584685
 21
201.5513250450349
 31
0.0
  0
LINE
  5
33A0
330
1F
100
AcDbEntity
  8
0
100
AcDbLine
 10
226.9389195559603
 20
191.4513250450349
 30
0.0
 11
226.9389195559603
 21
182.8513250450349
 31
0.0
  0
LINE
  5
33A1
330
1F
100
AcDbEntity
  8
0
100
AcDbLine
 10
229.9339195559603
 20
190.1513250450348
 30
0.0
 11
229.9339195559603
 21
198.0921835475428
 31
0.0
  0
ARC
  5
33A2
330
1F
100
AcDbEntity
  8
0
100
AcDbCircle
 10
209.9339195559604
 20
181.5513250450349
 30
0.0
 40
26.0
100
AcDbArc
 50
39.87527735707813
 51
50.12472264291957
  0
ARC
  5
33A3
330
1F
100
AcDbEntity
  8
0
100
AcDbCircle
 10
226.4747780584685
 20
201.3513250450351
 30
0.0
 40
0.2
100
AcDbArc
 50
50.12472264291957
 51
90.0
  0
ARC
  5
33A4
102
{ACAD_REACTORS
330
35A4
102
}
330
1F
100
AcDbEntity
  8
0
100
AcDbCircle
 10
229.7339195559603
 20
198.0921835475428
 30
0.0
 40
0.2
100
AcDbArc
 50
0.0
 51
39.87527735707813
  0
LINE
  5
33A5
330
1F
100
AcDbEntity
  8
0
100
AcDbLine
 10
228.2389195559604
 20
191.4513250450349
 30
0.0
 11
228.2389195559604
 21
190.1513250450348
 31
0.0
  0
ARC
  5
33A6
330
1F
100
AcDbEntity
  8
0
100
AcDbCircle
 10
228.0389195559606
 20
191.4513250450349
 30
0.0
 40
0.2
100
AcDbArc
 50
0.0
 51
90.0
  0
ARC
  5
33A7
330
1F
100
AcDbEntity
  8
0
100
AcDbCircle
 10
227.1389195559605
 20
191.4513250450349
 30
0.0
 40
0.2
100
AcDbArc
 50
90.0
 51
180.0
  0
LINE
  5
33A8
330
1F
100
AcDbEntity
  8
0
100
AcDbLine
 10
227.1389195559605
 20
191.6513250450349
 30
0.0
 11
228.0389195559606
 21
191.6513250450349
 31
0.0
  0
ARC
  5
33A9
330
1F
100
AcDbEntity
  8
0
100
AcDbCircle
 10
228.4389195559602
 20
190.1513250450348
 30
0.0
 40
0.2
100
AcDbArc
 50
180.0
 51
270.0
  0
ARC
  5
33AA
330
1F
100
AcDbEntity
  8
0
100
AcDbCircle
 10
229.7339195559608
 20
190.1513250450348
 30
0.0
 40
0.2
100
AcDbArc
 50
270.0
 51
0.0
  0
LINE
  5
33AB
330
1F
100
AcDbEntity
  8
0
100
AcDbLine
 10
228.4389195559602
 20
189.951325045035
 30
0.0
 11
229.7339195559605
 21
189.951325045035
 31
0.0
  0
LINE
  5
33AC
330
1F
100
AcDbEntity
  8
0
100
AcDbLine
 10
226.9389195559603
 20
180.2513250450349
 30
0.0
 11
226.9389195559603
 21
171.6513250450348
 31
0.0
  0
LINE
  5
33AD
330
1F
100
AcDbEntity
  8
0
100
AcDbLine
 10
227.1389195559605
 20
182.6513250450348
 30
0.0
 11
229.7339195559605
 21
182.6513250450348
 31
0.0
  0
LINE
  5
33AE
330
1F
100
AcDbEntity
  8
0
100
AcDbLine
 10
227.1389195559601
 20
180.4513250450348
 30
0.0
 11
229.7339195559605
 21
180.4513250450348
 31
0.0
  0
LINE
  5
33AF
330
1F
100
AcDbEntity
  8
0
100
AcDbLine
 10
229.9339195559603
 20
182.4513250450348
 30
0.0
 11
229.9339195559603
 21
180.6513250450348
 31
0.0
  0
ARC
  5
33B0
330
1F
100
AcDbEntity
  8
0
100
AcDbCircle
 10
229.7339195559608
 20
182.4513250450349
 30
0.0
 40
0.2
100
AcDbArc
 50
0.0
 51
90.0
  0
ARC
  5
33B1
330
1F
100
AcDbEntity
  8
0
100
AcDbCircle
 10
229.7339195559608
 20
180.6513250450349
 30
0.0
 40
0.2
100
AcDbArc
 50
270.0
 51
0.0
  0
ARC
  5
33B2
330
1F
100
AcDbEntity
  8
0
100
AcDbCircle
 10
227.1389195559605
 20
182.8513250450349
 30
0.0
 40
0.2
100
AcDbArc
 50
180.0
 51
270.0
  0
ARC
  5
33B3
330
1F
100
AcDbEntity
  8
0
100
AcDbCircle
 10
227.1389195559601
 20
180.2513250450349
 30
0.0
 40
0.2
100
AcDbArc
 50
90.0
 51
180.0
  0
ARC
  5
33B4
330
1F
100
AcDbEntity
  8
0
100
AcDbCircle
 10
228.0389195559606
 20
171.6513250450348
 30
0.0
 40
0.2
100
AcDbArc
 50
270.0
 51
0.0
  0
LINE
  5
33B5
330
1F
100
AcDbEntity
  8
0
100
AcDbLine
 10
228.2389195559604
 20
172.9513250450349
 30
0.0
 11
228.2389195559604
 21
171.6513250450348
 31
0.0
  0
ARC
  5
33B6
330
1F
100
AcDbEntity
  8
0
100
AcDbCircle
 10
228.4389195559602
 20
172.9513250450349
 30
0.0
 40
0.2
100
AcDbArc
 50
90.0
 51
180.0
  0
ARC
  5
33B7
330
1F
100
AcDbEntity
  8
0
100
AcDbCircle
 10
229.7339195559608
 20
172.9513250450349
 30
0.0
 40
0.2
100
AcDbArc
 50
0.0
 51
90.0
  0
LINE
  5
33B8
330
1F
100
AcDbEntity
  8
0
100
AcDbLine
 10
228.4389195559602
 20
173.1513250450349
 30
0.0
 11
229.7339195559608
 21
173.1513250450349
 31
0.0
  0
LINE
  5
33B9
330
1F
100
AcDbEntity
  8
0
100
AcDbLine
 10
227.1389195559601
 20
171.451325045035
 30
0.0
 11
228.0389195559606
 21
171.451325045035
 31
0.0
  0
ARC
  5
33BA
330
1F
100
AcDbEntity
  8
0
100
AcDbCircle
 10
227.1389195559601
 20
171.6513250450348
 30
0.0
 40
0.2
100
AcDbArc
 50
180.0
 51
270.0
  0
LINE
  5
33BB
330
1F
100
AcDbEntity
  8
0
100
AcDbLine
 10
211.2339195559603
 20
198.5563250450346
 30
0.0
 11
219.8339195559602
 21
198.5563250450347
 31
0.0
  0
LINE
  5
33BC
330
1F
100
AcDbEntity
  8
0
100
AcDbLine
 10
218.5339195559605
 20
199.8563250450349
 30
0.0
 11
219.8339195559602
 21
199.8563250450349
 31
0.0
  0
ARC
  5
33BD
330
1F
100
AcDbEntity
  8
0
100
AcDbCircle
 10
219.8339195559602
 20
198.7563250450345
 30
0.0
 40
0.2
100
AcDbArc
 50
270.0
 51
0.0
  0
LINE
  5
33BE
330
1F
100
AcDbEntity
  8
0
100
AcDbLine
 10
220.0339195559603
 20
198.7563250450345
 30
0.0
 11
220.0339195559603
 21
199.656325045035
 31
0.0
  0
ARC
  5
33BF
330
1F
100
AcDbEntity
  8
0
100
AcDbCircle
 10
219.8339195559602
 20
199.656325045035
 30
0.0
 40
0.2
100
AcDbArc
 50
0.0
 51
90.0
  0
LINE
  5
33C0
330
1F
100
AcDbEntity
  8
0
100
AcDbLine
 10
218.3339195559602
 20
200.0563250450347
 30
0.0
 11
218.3339195559602
 21
201.3513250450351
 31
0.0
  0
ARC
  5
33C1
330
1F
100
AcDbEntity
  8
0
100
AcDbCircle
 10
218.5339195559605
 20
201.3513250450351
 30
0.0
 40
0.2
100
AcDbArc
 50
90.0
 51
180.0
  0
ARC
  5
33C2
330
1F
100
AcDbEntity
  8
0
100
AcDbCircle
 10
218.5339195559605
 20
200.0563250450347
 30
0.0
 40
0.2
100
AcDbArc
 50
180.0
 51
270.0
  0
ARC
  5
33C3
330
1F
100
AcDbEntity
  8
0
100
AcDbCircle
 10
208.6339195559604
 20
198.7563250450349
 30
0.0
 40
0.2
100
AcDbArc
 50
270.0
 51
0.0
  0
ARC
  5
33C4
330
1F
100
AcDbEntity
  8
0
100
AcDbCircle
 10
211.2339195559603
 20
198.7563250450345
 30
0.0
 40
0.2
100
AcDbArc
 50
180.0
 51
270.0
  0
LINE
  5
33C5
330
1F
100
AcDbEntity
  8
0
100
AcDbLine
 10
211.0339195559605
 20
198.7563250450344
 30
0.0
 11
211.0339195559605
 21
201.3513250450351
 31
0.0
  0
LINE
  5
33C6
330
1F
100
AcDbEntity
  8
0
100
AcDbLine
 10
208.8339195559602
 20
198.7563250450349
 30
0.0
 11
208.8339195559602
 21
201.3513250450351
 31
0.0
  0
ARC
  5
33C7
330
1F
100
AcDbEntity
  8
0
100
AcDbCircle
 10
209.0339195559605
 20
201.3513250450351
 30
0.0
 40
0.2
100
AcDbArc
 50
90.0
 51
180.0
  0
ARC
  5
33C8
330
1F
100
AcDbEntity
  8
0
100
AcDbCircle
 10
210.8339195559602
 20
201.3513250450351
 30
0.0
 40
0.2
100
AcDbArc
 50
0.0
 51
90.0
  0
LINE
  5
33C9
330
1F
100
AcDbEntity
  8
0
100
AcDbLine
 10
209.0339195559605
 20
201.5513250450349
 30
0.0
 11
210.8339195559602
 21
201.5513250450349
 31
0.0
  0
ARC
  5
33CA
330
1F
100
AcDbEntity
  8
0
100
AcDbCircle
 10
193.5339195559602
 20
187.6013250450349
 30
0.0
 40
1.7
100
AcDbArc
 50
270.0
 51
0.0
  0
LINE
  5
33CB
330
1F
100
AcDbEntity
  8
0
100
AcDbLine
 10
191.4339195559601
 20
190.2013250450349
 30
0.0
 11
193.5339195559602
 21
190.2013250450349
 31
0.0
  0
ARC
  5
33CC
330
1F
100
AcDbEntity
  8
0
100
AcDbCircle
 10
209.9339195559604
 20
181.5513250450349
 30
0.0
 40
26.0
100
AcDbArc
 50
129.8752773570804
 51
140.1247226429218
  0
ARC
  5
33CD
330
1F
100
AcDbEntity
  8
0
 62
     3
100
AcDbCircle
 10
195.9339195559603
 20
195.5513250450349
 30
0.0
 40
3.049999999999999
100
AcDbArc
 50
254.5979111544938
 51
204.1136183642503
  0
CIRCLE
  5
33CE
330
1F
100
AcDbEntity
  8
0
100
AcDbCircle
 10
195.9339195559603
 20
195.5513250450349
 30
0.0
 40
2.549999999999999
  0
LINE
  5
33CF
330
1F
100
AcDbEntity
  8
0
100
AcDbLine
 10
193.3930610534522
 20
201.5513250450349
 30
0.0
 11
201.3339195559602
 21
201.5513250450349
 31
0.0
  0
ARC
  5
33D0
330
1F
100
AcDbEntity
  8
0
100
AcDbCircle
 10
200.0339195559605
 20
198.7563250450349
 30
0.0
 40
0.2
100
AcDbArc
 50
180.0
 51
270.0
  0
LINE
  5
33D1
330
1F
100
AcDbEntity
  8
0
100
AcDbLine
 10
200.0339195559605
 20
199.8563250450348
 30
0.0
 11
201.3339195559602
 21
199.8563250450348
 31
0.0
  0
LINE
  5
33D2
330
1F
100
AcDbEntity
  8
0
100
AcDbLine
 10
201.5339195559603
 20
200.0563250450346
 30
0.0
 11
201.5339195559603
 21
201.3513250450351
 31
0.0
  0
ARC
  5
33D3
330
1F
100
AcDbEntity
  8
0
100
AcDbCircle
 10
201.3339195559602
 20
201.3513250450351
 30
0.0
 40
0.2
100
AcDbArc
 50
0.0
 51
90.0
  0
ARC
  5
33D4
330
1F
100
AcDbEntity
  8
0
100
AcDbCircle
 10
201.3339195559602
 20
200.0563250450347
 30
0.0
 40
0.2
100
AcDbArc
 50
270.0
 51
0.0
  0
LINE
  5
33D5
330
1F
100
AcDbEntity
  8
0
100
AcDbLine
 10
199.8339195559602
 20
198.7563250450349
 30
0.0
 11
199.8339195559602
 21
199.656325045035
 31
0.0
  0
ARC
  5
33D6
330
1F
100
AcDbEntity
  8
0
100
AcDbCircle
 10
200.0339195559605
 20
199.656325045035
 30
0.0
 40
0.2
100
AcDbArc
 50
90.0
 51
180.0
  0
ARC
  5
33D7
330
1F
100
AcDbEntity
  8
0
100
AcDbCircle
 10
193.3930610534522
 20
201.3513250450351
 30
0.0
 40
0.2
100
AcDbArc
 50
90.0
 51
129.8752773570809
  0
ARC
  5
33D8
330
1F
100
AcDbEntity
  8
0
100
AcDbCircle
 10
193.5339195559602
 20
188.501325045035
 30
0.0
 40
1.7
100
AcDbArc
 50
0.0
 51
90.0
  0
LINE
  5
33D9
330
1F
100
AcDbEntity
  8
0
100
AcDbLine
 10
195.2339195559603
 20
188.501325045035
 30
0.0
 11
195.2339195559603
 21
187.6013250450349
 31
0.0
  0
LINE
  5
33DA
102
{ACAD_REACTORS
330
35A4
102
}
330
1F
100
AcDbEntity
  8
0
100
AcDbLine
 10
189.9339195559603
 20
189.7513250450347
 30
0.0
 11
189.9339195559603
 21
198.0921835475428
 31
0.0
  0
ARC
  5
33DB
330
1F
100
AcDbEntity
  8
0
100
AcDbCircle
 10
190.1339195559604
 20
198.0921835475428
 30
0.0
 40
0.2
100
AcDbArc
 50
140.1247226429056
 51
180.0
  0
LINE
  5
33DC
330
1F
100
AcDbEntity
  8
0
100
AcDbLine
 10
190.9339195559601
 20
189.751325045035
 30
0.0
 11
191.4339195559601
 21
190.2013250450349
 31
0.0
  0
LINE
  5
33DD
330
1F
100
AcDbEntity
  8
0
100
AcDbLine
 10
189.9339195559601
 20
189.751325045035
 30
0.0
 11
190.9339195559601
 21
189.751325045035
 31
0.0
  0
LINE
  5
33DE
330
1F
100
AcDbEntity
  8
0
100
AcDbLine
 10
193.5339195559605
 20
172.9013250450348
 30
0.0
 11
191.4339195559603
 21
172.9013250450348
 31
0.0
  0
LINE
  5
33DF
330
1F
100
AcDbEntity
  8
0
100
AcDbLine
 10
191.4339195559603
 20
177.2013250450349
 30
0.0
 11
193.5339195559605
 21
177.2013250450349
 31
0.0
  0
LINE
  5
33E0
330
1F
100
AcDbEntity
  8
0
100
AcDbLine
 10
193.5339195559602
 20
185.9013250450348
 30
0.0
 11
191.4339195559601
 21
185.9013250450348
 31
0.0
  0
LINE
  5
33EB
330
1F
100
AcDbEntity
  8
0
100
AcDbLine
 10
195.2339195559603
 20
175.5013250450349
 30
0.0
 11
195.2339195559603
 21
174.6013250450349
 31
0.0
  0
ARC
  5
33EC
330
1F
100
AcDbEntity
  8
0
100
AcDbCircle
 10
193.5339195559605
 20
175.5013250450349
 30
0.0
 40
1.7
100
AcDbArc
 50
0.0
 51
90.0
  0
ARC
  5
33ED
330
1F
100
AcDbEntity
  8
0
100
AcDbCircle
 10
193.5339195559605
 20
174.6013250450349
 30
0.0
 40
1.7
100
AcDbArc
 50
270.0
 51
0.0
  0
LINE
  5
33EE
330
1F
100
AcDbEntity
  8
0
100
AcDbLine
 10
189.9339195559603
 20
176.7513250450347
 30
0.0
 11
189.9339195559601
 21
186.3513250450351
 31
0.0
  0
LINE
  5
33F1
330
1F
100
AcDbEntity
  8
0
100
AcDbLine
 10
190.9339195559601
 20
186.3513250450349
 30
0.0
 11
191.4339195559601
 21
185.9013250450348
 31
0.0
  0
LINE
  5
33F2
330
1F
100
AcDbEntity
  8
0
100
AcDbLine
 10
190.9339195559603
 20
186.3513250450349
 30
0.0
 11
189.9339195559601
 21
186.3513250450349
 31
0.0
  0
LINE
  5
33F4
330
1F
100
AcDbEntity
  8
0
100
AcDbLine
 10
190.9339195559603
 20
176.7513250450349
 30
0.0
 11
191.4339195559603
 21
177.2013250450349
 31
0.0
  0
LINE
  5
33F5
330
1F
100
AcDbEntity
  8
0
100
AcDbLine
 10
189.9339195559603
 20
176.7513250450349
 30
0.0
 11
190.9339195559603
 21
176.7513250450349
 31
0.0
  0
LINE
  5
33F6
330
1F
100
AcDbEntity
  8
0
100
AcDbLine
 10
190.9339195559603
 20
173.3513250450348
 30
0.0
 11
191.4339195559603
 21
172.9013250450348
 31
0.0
  0
LINE
  5
33F7
330
1F
100
AcDbEntity
  8
0
100
AcDbLine
 10
190.9339195559603
 20
173.3513250450348
 30
0.0
 11
189.9339195559603
 21
173.3513250450348
 31
0.0
  0
LINE
  5
33F8
330
1F
100
AcDbEntity
  8
0
100
AcDbLine
 10
208.6339195559604
 20
164.546325045035
 30
0.0
 11
200.0339195559605
 21
164.546325045035
 31
0.0
  0
ARC
  5
33F9
330
1F
100
AcDbEntity
  8
0
 62
     3
100
AcDbCircle
 10
223.9339195559604
 20
167.5513250450349
 30
0.0
 40
3.049999999999999
100
AcDbArc
 50
254.5979111544938
 51
204.1136183642503
  0
CIRCLE
  5
33FA
330
1F
100
AcDbEntity
  8
0
100
AcDbCircle
 10
223.9339195559604
 20
167.5513250450349
 30
0.0
 40
2.549999999999999
  0
LINE
  5
33FB
330
1F
100
AcDbEntity
  8
0
100
AcDbLine
 10
218.5339195559605
 20
161.5513250450349
 30
0.0
 11
226.4747780584685
 21
161.5513250450349
 31
0.0
  0
ARC
  5
33FC
330
1F
100
AcDbEntity
  8
0
100
AcDbCircle
 10
209.9339195559604
 20
181.5513250450349
 30
0.0
 40
26.0
100
AcDbArc
 50
309.8752773570804
 51
320.1247226429219
  0
ARC
  5
33FD
330
1F
100
AcDbEntity
  8
0
100
AcDbCircle
 10
229.7339195559603
 20
165.010466542527
 30
0.0
 40
0.2
100
AcDbArc
 50
320.1247226429219
 51
0.0
  0
ARC
  5
33FE
330
1F
100
AcDbEntity
  8
0
100
AcDbCircle
 10
226.4747780584685
 20
161.7513250450347
 30
0.0
 40
0.2
100
AcDbArc
 50
270.0
 51
309.8752773570804
  0
LINE
  5
33FF
330
1F
100
AcDbEntity
  8
0
100
AcDbLine
 10
219.8339195559604
 20
164.546325045035
 30
0.0
 11
211.2339195559603
 21
164.546325045035
 31
0.0
  0
LINE
  5
3400
330
1F
100
AcDbEntity
  8
0
100
AcDbLine
 10
220.0339195559605
 20
164.3463250450347
 30
0.0
 11
220.0339195559605
 21
163.4463250450347
 31
0.0
  0
ARC
  5
3401
330
1F
100
AcDbEntity
  8
0
100
AcDbCircle
 10
219.8339195559604
 20
164.3463250450347
 30
0.0
 40
0.2
100
AcDbArc
 50
0.0
 51
90.0
  0
LINE
  5
3402
330
1F
100
AcDbEntity
  8
0
100
AcDbLine
 10
219.8339195559604
 20
163.2463250450348
 30
0.0
 11
218.5339195559605
 21
163.2463250450348
 31
0.0
  0
ARC
  5
3403
330
1F
100
AcDbEntity
  8
0
100
AcDbCircle
 10
219.8339195559604
 20
163.4463250450347
 30
0.0
 40
0.2
100
AcDbArc
 50
270.0
 51
0.0
  0
ARC
  5
3404
330
1F
100
AcDbEntity
  8
0
100
AcDbCircle
 10
218.5339195559605
 20
163.046325045035
 30
0.0
 40
0.2
100
AcDbArc
 50
90.0
 51
180.0
  0
ARC
  5
3405
330
1F
100
AcDbEntity
  8
0
100
AcDbCircle
 10
218.5339195559605
 20
161.7513250450346
 30
0.0
 40
0.2
100
AcDbArc
 50
180.0
 51
270.0
  0
LINE
  5
3406
330
1F
100
AcDbEntity
  8
0
100
AcDbLine
 10
218.3339195559605
 20
163.046325045035
 30
0.0
 11
218.3339195559605
 21
161.7513250450347
 31
0.0
  0
LINE
  5
3407
330
1F
100
AcDbEntity
  8
0
100
AcDbLine
 10
211.0339195559605
 20
164.3463250450347
 30
0.0
 11
211.0339195559605
 21
161.7513250450347
 31
0.0
  0
LINE
  5
3408
330
1F
100
AcDbEntity
  8
0
100
AcDbLine
 10
208.8339195559604
 20
164.3463250450352
 30
0.0
 11
208.8339195559604
 21
161.7513250450347
 31
0.0
  0
ARC
  5
3409
330
1F
100
AcDbEntity
  8
0
100
AcDbCircle
 10
208.6339195559604
 20
164.3463250450352
 30
0.0
 40
0.2
100
AcDbArc
 50
0.0
 51
90.0
  0
ARC
  5
340A
330
1F
100
AcDbEntity
  8
0
100
AcDbCircle
 10
211.2339195559603
 20
164.3463250450347
 30
0.0
 40
0.2
100
AcDbArc
 50
90.0
 51
180.0
  0
ARC
  5
340B
330
1F
100
AcDbEntity
  8
0
100
AcDbCircle
 10
210.8339195559604
 20
161.7513250450346
 30
0.0
 40
0.2
100
AcDbArc
 50
270.0
 51
0.0
  0
ARC
  5
340C
330
1F
100
AcDbEntity
  8
0
100
AcDbCircle
 10
209.0339195559605
 20
161.7513250450346
 30
0.0
 40
0.2
100
AcDbArc
 50
180.0
 51
270.0
  0
LINE
  5
340D
330
1F
100
AcDbEntity
  8
0
100
AcDbLine
 10
210.8339195559604
 20
161.5513250450349
 30
0.0
 11
209.0339195559605
 21
161.5513250450349
 31
0.0
  0
ARC
  5
340E
330
1F
100
AcDbEntity
  8
0
100
AcDbCircle
 10
209.9339195559604
 20
181.5513250450349
 30
0.0
 40
26.0
100
AcDbArc
 50
219.8752773570781
 51
230.1247226429196
  0
LINE
  5
340F
330
1F
100
AcDbEntity
  8
0
100
AcDbLine
 10
199.8339195559604
 20
164.3463250450352
 30
0.0
 11
199.8339195559604
 21
163.4463250450347
 31
0.0
  0
ARC
  5
3410
330
1F
100
AcDbEntity
  8
0
 62
     3
100
AcDbCircle
 10
195.9339195559603
 20
167.5513250450349
 30
0.0
 40
3.049999999999999
100
AcDbArc
 50
254.5979111544938
 51
204.1136183642503
  0
CIRCLE
  5
3411
330
1F
100
AcDbEntity
  8
0
100
AcDbCircle
 10
195.9339195559603
 20
167.5513250450349
 30
0.0
 40
2.549999999999999
  0
ARC
  5
3412
330
1F
100
AcDbEntity
  8
0
100
AcDbCircle
 10
200.0339195559605
 20
164.3463250450352
 30
0.0
 40
0.2
100
AcDbArc
 50
90.0
 51
180.0
  0
LINE
  5
3413
330
1F
100
AcDbEntity
  8
0
100
AcDbLine
 10
193.3930610534522
 20
161.5513250450349
 30
0.0
 11
201.3339195559605
 21
161.5513250450349
 31
0.0
  0
LINE
  5
3414
330
1F
100
AcDbEntity
  8
0
100
AcDbLine
 10
201.3339195559605
 20
163.2463250450348
 30
0.0
 11
200.0339195559605
 21
163.2463250450348
 31
0.0
  0
ARC
  5
3415
330
1F
100
AcDbEntity
  8
0
100
AcDbCircle
 10
201.3339195559605
 20
163.046325045035
 30
0.0
 40
0.2
100
AcDbArc
 50
0.0
 51
90.0
  0
ARC
  5
3416
330
1F
100
AcDbEntity
  8
0
100
AcDbCircle
 10
201.3339195559605
 20
161.7513250450346
 30
0.0
 40
0.2
100
AcDbArc
 50
270.0
 51
0.0
  0
LINE
  5
3417
330
1F
100
AcDbEntity
  8
0
100
AcDbLine
 10
201.5339195559605
 20
163.046325045035
 30
0.0
 11
201.5339195559605
 21
161.7513250450346
 31
0.0
  0
ARC
  5
3418
330
1F
100
AcDbEntity
  8
0
100
AcDbCircle
 10
200.0339195559605
 20
163.4463250450347
 30
0.0
 40
0.2
100
AcDbArc
 50
180.0
 51
270.0
  0
ARC
  5
3419
330
1F
100
AcDbEntity
  8
0
100
AcDbCircle
 10
193.3930610534522
 20
161.7513250450347
 30
0.0
 40
0.2
100
AcDbArc
 50
230.1247226429191
 51
270.0
  0
ARC
  5
341A
330
1F
100
AcDbEntity
  8
0
100
AcDbCircle
 10
190.1339195559604
 20
165.010466542527
 30
0.0
 40
0.2
100
AcDbArc
 50
180.0
 51
219.8752773570781
  0
LINE
  5
341B
102
{ACAD_REACTORS
330
35A7
102
}
330
1F
100
AcDbEntity
  8
0
100
AcDbLine
 10
213.9339195559601
 20
179.4947860451494
 30
0.0
 11
213.9339195559601
 21
178.5513250450349
 31
0.0
  0
ARC
  5
341C
330
1F
100
AcDbEntity
  8
0
100
AcDbCircle
 10
209.9339195559601
 20
181.5513250450349
 30
0.0
 40
5.000000000000005
100
AcDbArc
 50
323.1301023541521
 51
36.86989764584794
  0
LINE
  5
341D
330
1F
100
AcDbEntity
  8
0
100
AcDbLine
 10
213.9339195559601
 20
184.5513250450349
 30
0.0
 11
213.9339195559601
 21
183.6078640449204
 31
0.0
  0
ARC
  5
341E
330
1F
100
AcDbEntity
  8
0
100
AcDbCircle
 10
209.9339195559601
 20
181.5513250450349
 30
0.0
 40
5.000000000000005
100
AcDbArc
 50
53.130102354162
 51
126.869897645838
  0
LINE
  5
341F
330
1F
100
AcDbEntity
  8
0
100
AcDbLine
 10
212.9339195559603
 20
185.5513250450349
 30
0.0
 11
211.9904585558457
 21
185.5513250450349
 31
0.0
  0
LINE
  5
3420
330
1F
100
AcDbEntity
  8
0
100
AcDbLine
 10
207.8773805560746
 20
185.5513250450349
 30
0.0
 11
206.9339195559601
 21
185.5513250450349
 31
0.0
  0
ARC
  5
3421
330
1F
100
AcDbEntity
  8
0
100
AcDbCircle
 10
209.9339195559601
 20
181.5513250450349
 30
0.0
 40
5.000000000000005
100
AcDbArc
 50
143.130102354152
 51
216.8698976458479
  0
LINE
  5
3422
330
1F
100
AcDbEntity
  8
0
100
AcDbLine
 10
205.9339195559604
 20
184.551325045035
 30
0.0
 11
205.9339195559604
 21
183.6078640449206
 31
0.0
  0
LINE
  5
3423
102
{ACAD_REACTORS
330
35A7
102
}
330
1F
100
AcDbEntity
  8
0
100
AcDbLine
 10
205.9339195559604
 20
179.4947860451492
 30
0.0
 11
205.9339195559604
 21
178.5513250450349
 31
0.0
  0
LINE
  5
3424
330
1F
100
AcDbEntity
  8
0
100
AcDbLine
 10
213.9339195559601
 20
183.6078640449204
 30
0.0
 11
213.9339195559601
 21
179.4947860451493
 31
0.0
  0
LINE
  5
3425
330
1F
100
AcDbEntity
  8
0
100
AcDbLine
 10
207.8773805560746
 20
185.5513250450349
 30
0.0
 11
211.9904585558457
 21
185.5513250450349
 31
0.0
  0
LINE
  5
3426
330
1F
100
AcDbEntity
  8
0
100
AcDbLine
 10
205.9339195559604
 20
179.4947860451492
 30
0.0
 11
205.9339195559604
 21
183.6078640449205
 31
0.0
  0
ARC
  5
3427
330
1F
100
AcDbEntity
  8
0
100
AcDbCircle
 10
209.9339195559601
 20
181.5513250450349
 30
0.0
 40
5.000000000000005
100
AcDbArc
 50
233.130102354162
 51
306.869897645838
  0
LINE
  5
3428
330
1F
100
AcDbEntity
  8
0
100
AcDbLine
 10
211.9904585558457
 20
177.5513250450349
 30
0.0
 11
207.8773805560746
 21
177.5513250450349
 31
0.0
  0
LINE
  5
3429
330
1F
100
AcDbEntity
  8
0
100
AcDbLine
 10
207.8773805560746
 20
177.5513250450349
 30
0.0
 11
206.9339195559601
 21
177.5513250450349
 31
0.0
  0
LINE
  5
342A
330
1F
100
AcDbEntity
  8
0
100
AcDbLine
 10
212.9339195559603
 20
177.5513250450349
 30
0.0
 11
211.9904585558457
 21
177.5513250450349
 31
0.0
  0
CIRCLE
  5
342B
330
1F
100
AcDbEntity
  8
0
100
AcDbCircle
 10
209.9339195559601
 20
181.5513250450349
 30
0.0
 40
2.900000000000002
  0
ARC
  5
342C
330
1F
100
AcDbEntity
  8
0
100
AcDbCircle
 10
209.9339195559601
 20
181.5513250450349
 30
0.0
 40
5.000000000000005
100
AcDbArc
 50
306.869897645838
 51
323.1301023541521
  0
ARC
  5
342D
330
1F
100
AcDbEntity
  8
0
100
AcDbCircle
 10
209.9339195559601
 20
181.5513250450349
 30
0.0
 40
5.000000000000005
100
AcDbArc
 50
36.86989764584794
 51
53.130102354162
  0
ARC
  5
342E
330
1F
100
AcDbEntity
  8
0
100
AcDbCircle
 10
209.9339195559601
 20
181.5513250450349
 30
0.0
 40
5.000000000000005
100
AcDbArc
 50
126.869897645838
 51
143.130102354152
  0
ARC
  5
342F
102
{ACAD_REACTORS
330
35A7
102
}
330
1F
100
AcDbEntity
  8
0
100
AcDbCircle
 10
209.9339195559601
 20
181.5513250450349
 30
0.0
 40
5.000000000000005
100
AcDbArc
 50
216.8698976458479
 51
233.130102354162
  0
ARC
  5
3430
330
1F
100
AcDbEntity
  8
0
100
AcDbCircle
 10
209.9339195559601
 20
181.5513250450349
 30
0.0
 40
4.497705265805031
100
AcDbArc
 50
297.2092707356718
 51
332.7907292643155
  0
ARC
  5
3431
330
1F
100
AcDbEntity
  8
0
100
AcDbCircle
 10
209.9339195559601
 20
181.5513250450349
 30
0.0
 40
4.497705265805031
100
AcDbArc
 50
27.20927073568456
 51
62.79072926432818
  0
ARC
  5
3432
330
1F
100
AcDbEntity
  8
0
100
AcDbCircle
 10
209.9339195559601
 20
181.5513250450349
 30
0.0
 40
4.497705265805031
100
AcDbArc
 50
117.2092707356718
 51
152.7907292643147
  0
ARC
  5
3433
330
1F
100
AcDbEntity
  8
0
100
AcDbCircle
 10
209.9339195559601
 20
181.5513250450349
 30
0.0
 40
4.497705265805031
100
AcDbArc
 50
207.2092707356853
 51
242.7907292643282
  0
CIRCLE
  5
3434
330
1F
100
AcDbEntity
  8
0
100
AcDbCircle
 10
209.9339195559601
 20
181.5513250450349
 30
0.0
 40
3.900000000000003
  0
CIRCLE
  5
3435
330
1F
100
AcDbEntity
  8
0
100
AcDbCircle
 10
209.9339195559601
 20
181.5513250450349
 30
0.0
 40
14.0
  0
CIRCLE
  5
3436
330
1F
100
AcDbEntity
  8
0
100
AcDbCircle
 10
209.9339195559601
 20
181.5513250450349
 30
0.0
 40
13.5
  0
ARC
  5
3437
330
1F
100
AcDbEntity
  8
0
100
AcDbCircle
 10
209.9339195559601
 20
181.5513250450349
 30
0.0
 40
13.35
100
AcDbArc
 50
149.4507848031278
 51
152.2318688833578
  0
ARC
  5
3439
330
1F
100
AcDbEntity
  8
0
100
AcDbCircle
 10
209.9339195559601
 20
181.5513250450349
 30
0.0
 40
13.35
100
AcDbArc
 50
207.7681311166422
 51
210.5492151968722
  0
CIRCLE
  5
343A
330
1F
100
AcDbEntity
  8
0
100
AcDbCircle
 10
209.9339195559601
 20
181.5513250450349
 30
0.0
 40
8.5
  0
LINE
  5
343B
330
1F
100
AcDbEntity
  8
0
100
AcDbLine
 10
197.2381761748107
 20
186.1413250450349
 30
0.0
 11
198.425325202174
 21
185.7121249681266
 31
0.0
  0
LINE
  5
343C
330
1F
100
AcDbEntity
  8
0
100
AcDbLine
 10
198.425325202174
 20
177.3905251219432
 30
0.0
 11
197.2381761748107
 21
176.9613250450349
 31
0.0
  0
CIRCLE
  5
343D
330
1F
100
AcDbEntity
  8
0
100
AcDbCircle
 10
199.1053252021739
 20
187.5929758394079
 30
0.0
 40
1.0
  0
CIRCLE
  5
343E
330
1F
100
AcDbEntity
  8
0
100
AcDbCircle
 10
199.1053252021739
 20
175.5096742506618
 30
0.0
 40
1.0
  0
ARC
  5
343F
330
1F
100
AcDbEntity
  8
0
100
AcDbCircle
 10
199.1053252021739
 20
187.5929758394079
 30
0.0
 40
2.0
100
AcDbArc
 50
250.1231259299262
 51
30.54441681211612
  0
ARC
  5
3440
330
1F
100
AcDbEntity
  8
0
100
AcDbCircle
 10
202.5502669937023
 20
189.6258004882602
 30
0.0
 40
2.0
100
AcDbArc
 50
129.4050996415933
 51
210.5444168121161
  0
ARC
  5
3441
330
1F
100
AcDbEntity
  8
0
100
AcDbCircle
 10
209.1839195559601
 20
181.5513250450349
 30
0.0
 40
12.45
100
AcDbArc
 50
230.5949003584067
 51
129.4050996415933
  0
ARC
  5
3442
330
1F
100
AcDbEntity
  8
0
100
AcDbCircle
 10
202.5502669937023
 20
173.4768496018095
 30
0.0
 40
2.0
100
AcDbArc
 50
149.4555831878839
 51
230.5949003584067
  0
ARC
  5
3443
330
1F
100
AcDbEntity
  8
0
100
AcDbCircle
 10
199.1053252021739
 20
175.5096742506617
 30
0.0
 40
2.0
100
AcDbArc
 50
329.4555831878839
 51
109.8768740700737
  0
CIRCLE
  5
3444
330
1F
100
AcDbEntity
  8
0
100
AcDbCircle
 10
223.9339195559604
 20
167.5513250450349
 30
0.0
 40
4.5
  0
CIRCLE
  5
3445
330
1F
100
AcDbEntity
  8
0
100
AcDbCircle
 10
195.9339195559603
 20
167.5513250450349
 30
0.0
 40
4.5
  0
CIRCLE
  5
3446
330
1F
100
AcDbEntity
  8
0
100
AcDbCircle
 10
195.9339195559603
 20
195.5513250450349
 30
0.0
 40
4.5
  0
CIRCLE
  5
3447
330
1F
100
AcDbEntity
  8
0
100
AcDbCircle
 10
223.9339195559604
 20
195.5513250450349
 30
0.0
 40
4.5
  0
LINE
  5
3448
330
1F
100
AcDbEntity
  8
0
100
AcDbLine
 10
127.487049102366
 20
68.1327873786043
 30
0.0
 11
128.987049102366
 21
68.1327873786043
 31
0.0
  0
LINE
  5
3449
330
1F
100
AcDbEntity
  8
0
100
AcDbLine
 10
129.487049102366
 20
76.6327873786043
 30
0.0
 11
129.487049102366
 21
68.6327873786043
 31
0.0
  0
ARC
  5
344A
102
{ACAD_REACTORS
330
35C1
102
}
330
1F
100
AcDbEntity
  8
0
100
AcDbCircle
 10
128.987049102366
 20
68.6327873786043
 30
0.0
 40
0.5
100
AcDbArc
 50
270.0
 51
0.0
  0
LINE
  5
344B
330
1F
100
AcDbEntity
  8
0
100
AcDbLine
 10
132.6170491023661
 20
72.63278737860429
 30
0.0
 11
133.487049102366
 21
72.63278737860429
 31
0.0
  0
LINE
  5
344C
330
1F
100
AcDbEntity
  8
0
100
AcDbLine
 10
130.487049102366
 20
72.63278737860429
 30
0.0
 11
132.6170491023661
 21
72.63278737860429
 31
0.0
  0
LINE
  5
344D
102
{ACAD_REACTORS
330
35BE
102
}
330
1F
100
AcDbEntity
  8
0
100
AcDbLine
 10
130.487049102366
 20
72.63278737860429
 30
0.0
 11
129.487049102366
 21
71.63278737860412
 31
0.0
  0
ARC
  5
344E
330
1F
100
AcDbEntity
  8
0
100
AcDbCircle
 10
134.487049102366
 20
76.63278737860429
 30
0.0
 40
5.000000000000005
100
AcDbArc
 50
179.9999999999992
 51
216.8698976458473
  0
LINE
  5
344F
330
1F
100
AcDbEntity
  8
0
100
AcDbLine
 10
133.487049102366
 20
76.63278737860432
 30
0.0
 11
133.487049102366
 21
74.57624837871873
 31
0.0
  0
SPLINE
  5
3450
330
1F
100
AcDbEntity
  8
0
100
AcDbSpline
210
-0.0000000000000121
220
0.0000000000000113
230
-1.0
 70
    12
 71
     2
 72
     6
 73
     3
 74
     0
 42
0.0000000001
 43
0.0000000001
 40
0.0
 40
0.0
 40
0.0
 40
1.284080115715944
 40
1.284080115715944
 40
1.284080115715944
 10
133.487049102366
 20
74.57624837871873
 30
0.0
 41
1.0
 10
133.1332124306937
 20
74.12946577286402
 30
0.0000000000000018
 41
1.00497060481544
 10
132.6170491023661
 20
73.63278737860429
 30
0.0
 41
1.0
  0
LINE
  5
3451
330
1F
100
AcDbEntity
  8
0
100
AcDbLine
 10
132.6170491023661
 20
73.63278737860429
 30
0.0
 11
130.487049102366
 21
73.63278737860429
 31
0.0
  0
LINE
  5
3452
102
{ACAD_REACTORS
330
35C6
102
}
330
1F
100
AcDbEntity
  8
0
100
AcDbLine
 10
130.487049102366
 20
76.63278737860432
 30
0.0
 11
130.487049102366
 21
73.63278737860429
 31
0.0
  0
LINE
  5
3453
330
1F
100
AcDbEntity
  8
CENTER
100
AcDbLine
 10
135.3190595520485
 20
76.63278737860432
 30
0.0
 11
99.34333575182456
 21
76.63278737860432
 31
0.0
  0
LINE
  5
3454
102
{ACAD_REACTORS
330
35C6
102
}
330
1F
100
AcDbEntity
  8
0
100
AcDbLine
 10
133.487049102366
 20
74.57624837871873
 30
0.0
 11
133.487049102366
 21
72.63278737860429
 31
0.0
  0
LINE
  5
3455
330
1F
100
AcDbEntity
  8
0
100
AcDbLine
 10
132.6170491023661
 20
72.63278737860429
 30
0.0
 11
132.6170491023661
 21
73.63278737860429
 31
0.0
  0
LINE
  5
3456
330
1F
100
AcDbEntity
  8
0
100
AcDbLine
 10
127.487049102366
 20
85.13278737860433
 30
0.0
 11
128.987049102366
 21
85.13278737860431
 31
0.0
  0
LINE
  5
3457
330
1F
100
AcDbEntity
  8
0
100
AcDbLine
 10
129.487049102366
 20
76.63278737860432
 30
0.0
 11
129.487049102366
 21
84.63278737860433
 31
0.0
  0
ARC
  5
3458
102
{ACAD_REACTORS
330
35AF
330
35C1
102
}
330
1F
100
AcDbEntity
  8
0
100
AcDbCircle
 10
128.987049102366
 20
84.63278737860433
 30
0.0
 40
0.5
100
AcDbArc
 50
0.0
 51
90.0
  0
LINE
  5
3459
330
1F
100
AcDbEntity
  8
0
100
AcDbLine
 10
132.6170491023661
 20
80.63278737860436
 30
0.0
 11
133.487049102366
 21
80.63278737860436
 31
0.0
  0
LINE
  5
345A
330
1F
100
AcDbEntity
  8
0
100
AcDbLine
 10
130.487049102366
 20
80.63278737860436
 30
0.0
 11
132.6170491023661
 21
80.63278737860436
 31
0.0
  0
LINE
  5
345B
102
{ACAD_REACTORS
330
35BE
102
}
330
1F
100
AcDbEntity
  8
0
100
AcDbLine
 10
130.487049102366
 20
80.63278737860436
 30
0.0
 11
129.487049102366
 21
81.63278737860457
 31
0.0
  0
ARC
  5
345C
330
1F
100
AcDbEntity
  8
0
100
AcDbCircle
 10
134.487049102366
 20
76.63278737860436
 30
0.0
 40
5.000000000000005
100
AcDbArc
 50
143.1301023541527
 51
180.0
  0
LINE
  5
345D
330
1F
100
AcDbEntity
  8
0
100
AcDbLine
 10
133.487049102366
 20
76.63278737860434
 30
0.0
 11
133.487049102366
 21
78.68932637848992
 31
0.0
  0
SPLINE
  5
345E
330
1F
100
AcDbEntity
  8
0
100
AcDbSpline
210
0.0000000000000121
220
0.0000000000000113
230
1.0
 70
    12
 71
     2
 72
     6
 73
     3
 74
     0
 42
0.0000000001
 43
0.0000000001
 40
0.0
 40
0.0
 40
0.0
 40
1.284080115715944
 40
1.284080115715944
 40
1.284080115715944
 10
133.487049102366
 20
78.68932637848992
 30
0.0
 41
1.0
 10
133.1332124306937
 20
79.13610898434466
 30
0.0000000000000018
 41
1.00497060481544
 10
132.6170491023661
 20
79.63278737860436
 30
0.0
 41
1.0
  0
LINE
  5
345F
330
1F
100
AcDbEntity
  8
0
100
AcDbLine
 10
132.6170491023661
 20
79.63278737860436
 30
0.0
 11
130.487049102366
 21
79.63278737860436
 31
0.0
  0
LINE
  5
3460
330
1F
100
AcDbEntity
  8
0
100
AcDbLine
 10
130.487049102366
 20
76.63278737860434
 30
0.0
 11
130.487049102366
 21
79.63278737860436
 31
0.0
  0
LINE
  5
3461
102
{ACAD_REACTORS
330
35AC
330
35BB
102
}
330
1F
100
AcDbEntity
  8
0
100
AcDbLine
 10
133.487049102366
 20
78.68932637848992
 30
0.0
 11
133.487049102366
 21
80.63278737860436
 31
0.0
  0
LINE
  5
3462
330
1F
100
AcDbEntity
  8
0
100
AcDbLine
 10
132.6170491023661
 20
80.63278737860436
 30
0.0
 11
132.6170491023661
 21
79.63278737860436
 31
0.0
  0
LINE
  5
3463
330
1F
100
AcDbEntity
  8
0
100
AcDbLine
 10
127.4870491023662
 20
71.83278737860409
 30
0.0
 11
101.487049102366
 21
71.83278737860407
 31
0.0
  0
LINE
  5
3464
330
1F
100
AcDbEntity
  8
0
100
AcDbLine
 10
127.4870491023662
 20
68.43278737860423
 30
0.0
 11
101.487049102366
 21
68.43278737860424
 31
0.0
  0
LINE
  5
3465
330
1F
100
AcDbEntity
  8
0
100
AcDbLine
 10
127.487049102366
 20
60.02372944214927
 30
0.0
 11
101.4870491023658
 21
60.02372944214927
 31
0.0
  0
LINE
  5
3466
330
1F
100
AcDbEntity
  8
0
100
AcDbLine
 10
127.487049102366
 20
56.63278737860408
 30
0.0
 11
101.4870491023658
 21
56.63278737860406
 31
0.0
  0
LINE
  5
3467
102
{ACAD_REACTORS
330
35B2
102
}
330
1F
100
AcDbEntity
  8
CENTER
 48
0.6
100
AcDbLine
 10
109.487049102366
 20
72.18547666439699
 30
0.0
 11
109.487049102366
 21
81.08009809281165
 31
0.0
  0
LINE
  5
3468
102
{ACAD_REACTORS
330
35AC
330
35AF
102
}
330
1F
100
AcDbEntity
  8
0
100
AcDbLine
 10
127.487049102366
 20
56.63278737860409
 30
0.0
 11
127.487049102366
 21
96.63278737860455
 31
0.0
  0
LINE
  5
3469
102
{ACAD_REACTORS
330
35B8
330
35BB
102
}
330
1F
100
AcDbEntity
  8
0
100
AcDbLine
 10
101.487049102366
 20
56.63278737860409
 30
0.0
 11
101.487049102366
 21
96.63278737860455
 31
0.0
  0
LINE
  5
346A
102
{ACAD_REACTORS
330
35B5
102
}
330
1F
100
AcDbEntity
  8
CENTER
 48
0.6
100
AcDbLine
 10
119.487049102366
 20
72.18547666439699
 30
0.0
 11
119.487049102366
 21
81.08009809281165
 31
0.0
  0
LINE
  5
346B
330
1F
100
AcDbEntity
  8
0
100
AcDbLine
 10
127.4870491023662
 20
81.43278737860454
 30
0.0
 11
101.487049102366
 21
81.43278737860457
 31
0.0
  0
LINE
  5
346C
330
1F
100
AcDbEntity
  8
0
100
AcDbLine
 10
127.4870491023662
 20
84.83278737860441
 30
0.0
 11
101.487049102366
 21
84.83278737860441
 31
0.0
  0
LINE
  5
346D
330
1F
100
AcDbEntity
  8
0
100
AcDbLine
 10
127.487049102366
 20
93.24184531505935
 30
0.0
 11
101.4870491023658
 21
93.24184531505935
 31
0.0
  0
LINE
  5
346E
102
{ACAD_REACTORS
330
35B2
330
35B5
330
35B8
102
}
330
1F
100
AcDbEntity
  8
0
100
AcDbLine
 10
127.487049102366
 20
96.63278737860455
 30
0.0
 11
101.4870491023658
 21
96.63278737860455
 31
0.0
  0
ARC
  5
346F
330
1F
100
AcDbEntity
  8
0
100
AcDbCircle
 10
109.487049102366
 20
76.63278737860432
 30
0.0
 40
2.149999999999999
100
AcDbArc
 50
0.0
 51
180.0
  0
ARC
  5
3470
330
1F
100
AcDbEntity
  8
0
100
AcDbCircle
 10
109.487049102366
 20
76.63278737860432
 30
0.0
 40
2.149999999999999
100
AcDbArc
 50
180.0
 51
0.0
  0
ARC
  5
3471
330
1F
100
AcDbEntity
  8
0
 62
     3
100
AcDbCircle
 10
109.487049102366
 20
76.63278737860432
 30
0.0
 40
2.5
100
AcDbArc
 50
344.4632242434407
 51
243.3773293786601
  0
ARC
  5
3472
330
1F
100
AcDbEntity
  8
0
100
AcDbCircle
 10
119.487049102366
 20
76.63278737860432
 30
0.0
 40
2.149999999999999
100
AcDbArc
 50
0.0
 51
180.0
  0
ARC
  5
3473
330
1F
100
AcDbEntity
  8
0
100
AcDbCircle
 10
119.487049102366
 20
76.63278737860432
 30
0.0
 40
2.149999999999999
100
AcDbArc
 50
180.0
 51
0.0
  0
ARC
  5
3474
330
1F
100
AcDbEntity
  8
0
 62
     3
100
AcDbCircle
 10
119.487049102366
 20
76.63278737860432
 30
0.0
 40
2.5
100
AcDbArc
 50
344.4632242434407
 51
243.3773293786601
  0
LINE
  5
3475
330
1F
100
AcDbEntity
  8
0
100
AcDbLine
 10
229.9339195559601
 20
93.17364588111226
 30
0.0
 11
229.9339195559601
 21
85.23278737860435
 31
0.0
  0
LINE
  5
3476
330
1F
100
AcDbEntity
  8
0
100
AcDbLine
 10
189.9339195559601
 20
93.17364588111226
 30
0.0
 11
189.9339195559601
 21
84.83278737860414
 31
0.0
  0
LINE
  5
3477
330
1F
100
AcDbEntity
  8
CENTER
100
AcDbLine
 10
209.9339195559601
 20
99.23196311640239
 30
0.0
 11
209.9339195559601
 21
54.03361164080624
 31
0.0
  0
LINE
  5
3478
330
1F
100
AcDbEntity
  8
0
100
AcDbLine
 10
200.03391955596
 20
59.6277873786046
 30
0.0
 11
208.6339195559602
 21
59.6277873786046
 31
0.0
  0
LINE
  5
3479
330
1F
100
AcDbEntity
  8
CENTER
100
AcDbLine
 10
187.334743818162
 20
76.63278737860429
 30
0.0
 11
232.5330952937582
 21
76.63278737860432
 31
0.0
  0
ARC
  5
347A
330
1F
100
AcDbEntity
  8
0
 62
     3
100
AcDbCircle
 10
223.9339195559601
 20
62.63278737860436
 30
0.0
 40
3.049999999999999
100
AcDbArc
 50
155.8863816357524
 51
105.4020888455062
  0
CIRCLE
  5
347B
330
1F
100
AcDbEntity
  8
0
100
AcDbCircle
 10
223.9339195559601
 20
62.63278737860436
 30
0.0
 40
2.549999999999999
  0
LINE
  5
347C
330
1F
100
AcDbEntity
  8
0
100
AcDbLine
 10
218.53391955596
 20
56.63278737860437
 30
0.0
 11
226.4747780584683
 21
56.63278737860437
 31
0.0
  0
LINE
  5
347D
330
1F
100
AcDbEntity
  8
0
100
AcDbLine
 10
226.93891955596
 20
66.73278737860434
 30
0.0
 11
226.93891955596
 21
75.33278737860436
 31
0.0
  0
LINE
  5
347E
330
1F
100
AcDbEntity
  8
0
100
AcDbLine
 10
229.9339195559601
 20
68.03278737860441
 30
0.0
 11
229.9339195559601
 21
60.09192887609643
 31
0.0
  0
ARC
  5
347F
330
1F
100
AcDbEntity
  8
0
100
AcDbCircle
 10
209.9339195559601
 20
76.63278737860432
 30
0.0
 40
26.0
100
AcDbArc
 50
309.8752773570804
 51
320.1247226429219
  0
ARC
  5
3480
330
1F
100
AcDbEntity
  8
0
100
AcDbCircle
 10
226.4747780584683
 20
56.83278737860418
 30
0.0
 40
0.2
100
AcDbArc
 50
270.0
 51
309.8752773570804
  0
ARC
  5
3481
330
1F
100
AcDbEntity
  8
0
100
AcDbCircle
 10
229.7339195559601
 20
60.09192887609642
 30
0.0
 40
0.2
100
AcDbArc
 50
320.1247226429219
 51
0.0
  0
LINE
  5
3482
330
1F
100
AcDbEntity
  8
0
100
AcDbLine
 10
228.2389195559602
 20
66.73278737860434
 30
0.0
 11
228.2389195559602
 21
68.03278737860441
 31
0.0
  0
ARC
  5
3483
330
1F
100
AcDbEntity
  8
0
100
AcDbCircle
 10
228.0389195559604
 20
66.73278737860433
 30
0.0
 40
0.2
100
AcDbArc
 50
270.0
 51
0.0
  0
ARC
  5
3484
330
1F
100
AcDbEntity
  8
0
100
AcDbCircle
 10
227.1389195559603
 20
66.73278737860433
 30
0.0
 40
0.2
100
AcDbArc
 50
180.0
 51
270.0
  0
LINE
  5
3485
330
1F
100
AcDbEntity
  8
0
100
AcDbLine
 10
227.1389195559603
 20
66.53278737860429
 30
0.0
 11
228.0389195559604
 21
66.53278737860429
 31
0.0
  0
ARC
  5
3486
330
1F
100
AcDbEntity
  8
0
100
AcDbCircle
 10
228.43891955596
 20
68.0327873786044
 30
0.0
 40
0.2
100
AcDbArc
 50
90.0
 51
180.0
  0
ARC
  5
3487
330
1F
100
AcDbEntity
  8
0
100
AcDbCircle
 10
229.7339195559603
 20
68.0327873786044
 30
0.0
 40
0.2
100
AcDbArc
 50
0.0
 51
90.0
  0
LINE
  5
3488
330
1F
100
AcDbEntity
  8
0
100
AcDbLine
 10
228.43891955596
 20
68.23278737860423
 30
0.0
 11
229.7339195559603
 21
68.23278737860423
 31
0.0
  0
LINE
  5
3489
330
1F
100
AcDbEntity
  8
0
100
AcDbLine
 10
226.93891955596
 20
77.93278737860427
 30
0.0
 11
226.93891955596
 21
86.53278737860441
 31
0.0
  0
LINE
  5
348A
330
1F
100
AcDbEntity
  8
0
100
AcDbLine
 10
227.1389195559603
 20
75.53278737860441
 30
0.0
 11
229.7339195559603
 21
75.53278737860441
 31
0.0
  0
LINE
  5
348B
330
1F
100
AcDbEntity
  8
0
100
AcDbLine
 10
227.1389195559598
 20
77.73278737860445
 30
0.0
 11
229.7339195559603
 21
77.73278737860445
 31
0.0
  0
LINE
  5
348C
330
1F
100
AcDbEntity
  8
0
100
AcDbLine
 10
229.9339195559601
 20
75.73278737860445
 30
0.0
 11
229.9339195559601
 21
77.53278737860441
 31
0.0
  0
ARC
  5
348D
330
1F
100
AcDbEntity
  8
0
100
AcDbCircle
 10
229.7339195559603
 20
75.73278737860433
 30
0.0
 40
0.2
100
AcDbArc
 50
270.0
 51
0.0
  0
ARC
  5
348E
330
1F
100
AcDbEntity
  8
0
100
AcDbCircle
 10
229.7339195559603
 20
77.53278737860428
 30
0.0
 40
0.2
100
AcDbArc
 50
0.0
 51
90.0
  0
ARC
  5
348F
330
1F
100
AcDbEntity
  8
0
100
AcDbCircle
 10
227.1389195559603
 20
75.33278737860435
 30
0.0
 40
0.2
100
AcDbArc
 50
90.0
 51
180.0
  0
ARC
  5
3490
330
1F
100
AcDbEntity
  8
0
100
AcDbCircle
 10
227.1389195559598
 20
77.93278737860426
 30
0.0
 40
0.2
100
AcDbArc
 50
180.0
 51
270.0
  0
ARC
  5
3491
330
1F
100
AcDbEntity
  8
0
100
AcDbCircle
 10
228.0389195559604
 20
86.53278737860441
 30
0.0
 40
0.2
100
AcDbArc
 50
0.0
 51
90.0
  0
LINE
  5
3492
330
1F
100
AcDbEntity
  8
0
100
AcDbLine
 10
228.2389195559602
 20
85.23278737860435
 30
0.0
 11
228.2389195559602
 21
86.53278737860441
 31
0.0
  0
ARC
  5
3493
330
1F
100
AcDbEntity
  8
0
100
AcDbCircle
 10
228.43891955596
 20
85.23278737860433
 30
0.0
 40
0.2
100
AcDbArc
 50
180.0
 51
270.0
  0
ARC
  5
3494
330
1F
100
AcDbEntity
  8
0
100
AcDbCircle
 10
229.7339195559603
 20
85.23278737860433
 30
0.0
 40
0.2
100
AcDbArc
 50
270.0
 51
0.0
  0
LINE
  5
3495
330
1F
100
AcDbEntity
  8
0
100
AcDbLine
 10
228.43891955596
 20
85.0327873786043
 30
0.0
 11
229.7339195559603
 21
85.0327873786043
 31
0.0
  0
LINE
  5
3496
330
1F
100
AcDbEntity
  8
0
100
AcDbLine
 10
227.1389195559598
 20
86.73278737860423
 30
0.0
 11
228.0389195559604
 21
86.73278737860423
 31
0.0
  0
ARC
  5
3497
330
1F
100
AcDbEntity
  8
0
100
AcDbCircle
 10
227.1389195559598
 20
86.53278737860441
 30
0.0
 40
0.2
100
AcDbArc
 50
90.0
 51
180.0
  0
LINE
  5
3498
330
1F
100
AcDbEntity
  8
0
100
AcDbLine
 10
211.2339195559601
 20
59.6277873786046
 30
0.0
 11
219.83391955596
 21
59.62778737860455
 31
0.0
  0
LINE
  5
3499
330
1F
100
AcDbEntity
  8
0
100
AcDbLine
 10
218.53391955596
 20
58.32778737860436
 30
0.0
 11
219.83391955596
 21
58.32778737860436
 31
0.0
  0
ARC
  5
349A
330
1F
100
AcDbEntity
  8
0
100
AcDbCircle
 10
219.83391955596
 20
59.42778737860473
 30
0.0
 40
0.2
100
AcDbArc
 50
0.0
 51
90.0
  0
LINE
  5
349B
330
1F
100
AcDbEntity
  8
0
100
AcDbLine
 10
220.0339195559601
 20
59.42778737860473
 30
0.0
 11
220.0339195559601
 21
58.52778737860418
 31
0.0
  0
ARC
  5
349C
330
1F
100
AcDbEntity
  8
0
100
AcDbCircle
 10
219.83391955596
 20
58.52778737860418
 30
0.0
 40
0.2
100
AcDbArc
 50
270.0
 51
0.0
  0
LINE
  5
349D
330
1F
100
AcDbEntity
  8
0
100
AcDbLine
 10
218.33391955596
 20
58.12778737860455
 30
0.0
 11
218.33391955596
 21
56.83278737860419
 31
0.0
  0
ARC
  5
349E
330
1F
100
AcDbEntity
  8
0
100
AcDbCircle
 10
218.53391955596
 20
56.83278737860419
 30
0.0
 40
0.2
100
AcDbArc
 50
180.0
 51
270.0
  0
ARC
  5
349F
330
1F
100
AcDbEntity
  8
0
100
AcDbCircle
 10
218.53391955596
 20
58.12778737860455
 30
0.0
 40
0.2
100
AcDbArc
 50
90.0
 51
180.0
  0
ARC
  5
34A0
330
1F
100
AcDbEntity
  8
0
100
AcDbCircle
 10
208.6339195559602
 20
59.42778737860428
 30
0.0
 40
0.2
100
AcDbArc
 50
0.0
 51
90.0
  0
ARC
  5
34A1
330
1F
100
AcDbEntity
  8
0
100
AcDbCircle
 10
211.2339195559601
 20
59.42778737860473
 30
0.0
 40
0.2
100
AcDbArc
 50
90.0
 51
180.0
  0
LINE
  5
34A2
330
1F
100
AcDbEntity
  8
0
100
AcDbLine
 10
211.03391955596
 20
59.42778737860479
 30
0.0
 11
211.03391955596
 21
56.83278737860419
 31
0.0
  0
LINE
  5
34A3
330
1F
100
AcDbEntity
  8
0
100
AcDbLine
 10
208.83391955596
 20
59.42778737860433
 30
0.0
 11
208.83391955596
 21
56.83278737860419
 31
0.0
  0
ARC
  5
34A4
330
1F
100
AcDbEntity
  8
0
100
AcDbCircle
 10
209.03391955596
 20
56.83278737860419
 30
0.0
 40
0.2
100
AcDbArc
 50
180.0
 51
270.0
  0
ARC
  5
34A5
330
1F
100
AcDbEntity
  8
0
100
AcDbCircle
 10
210.83391955596
 20
56.83278737860419
 30
0.0
 40
0.2
100
AcDbArc
 50
270.0
 51
0.0
  0
LINE
  5
34A6
330
1F
100
AcDbEntity
  8
0
100
AcDbLine
 10
209.03391955596
 20
56.63278737860437
 30
0.0
 11
210.83391955596
 21
56.63278737860437
 31
0.0
  0
ARC
  5
34A7
330
1F
100
AcDbEntity
  8
0
 62
     3
100
AcDbCircle
 10
209.9339195559599
 20
76.63278737860432
 30
0.0
 40
2.549509756796392
100
AcDbArc
 50
251.2527987796562
 51
203.6538108817175
  0
CIRCLE
  5
34A8
330
1F
100
AcDbEntity
  8
0
100
AcDbCircle
 10
209.9339195559601
 20
76.63278737860432
 30
0.0
 40
2.158703314492353
  0
ARC
  5
34A9
330
1F
100
AcDbEntity
  8
0
100
AcDbCircle
 10
193.53391955596
 20
70.58278737860437
 30
0.0
 40
1.7
100
AcDbArc
 50
0.0
 51
90.0
  0
LINE
  5
34AA
330
1F
100
AcDbEntity
  8
CENTER
 48
0.7
100
AcDbLine
 10
202.0379358471299
 20
62.63278737860438
 30
0.0
 11
189.8299032647904
 21
62.63278737860438
 31
0.0
  0
LINE
  5
34AB
330
1F
100
AcDbEntity
  8
0
100
AcDbLine
 10
191.4339195559599
 20
67.98278737860434
 30
0.0
 11
193.53391955596
 21
67.98278737860434
 31
0.0
  0
ARC
  5
34AC
330
1F
100
AcDbEntity
  8
0
100
AcDbCircle
 10
209.9339195559601
 20
76.63278737860432
 30
0.0
 40
26.0
100
AcDbArc
 50
219.8752773570781
 51
230.1247226429196
  0
ARC
  5
34AD
330
1F
100
AcDbEntity
  8
0
 62
     3
100
AcDbCircle
 10
195.9339195559601
 20
62.63278737860438
 30
0.0
 40
3.049999999999999
100
AcDbArc
 50
155.8863816357524
 51
105.4020888455062
  0
LINE
  5
34AE
330
1F
100
AcDbEntity
  8
CENTER
 48
0.7
100
AcDbLine
 10
195.9339195559601
 20
68.7368036697741
 30
0.0
 11
195.9339195559601
 21
56.52877108743465
 31
0.0
  0
CIRCLE
  5
34AF
330
1F
100
AcDbEntity
  8
0
100
AcDbCircle
 10
195.9339195559601
 20
62.63278737860438
 30
0.0
 40
2.549999999999999
  0
LINE
  5
34B0
330
1F
100
AcDbEntity
  8
0
100
AcDbLine
 10
193.3930610534517
 20
56.63278737860437
 30
0.0
 11
201.33391955596
 21
56.63278737860437
 31
0.0
  0
ARC
  5
34B1
330
1F
100
AcDbEntity
  8
0
100
AcDbCircle
 10
200.03391955596
 20
59.42778737860428
 30
0.0
 40
0.2
100
AcDbArc
 50
90.0
 51
180.0
  0
LINE
  5
34B2
330
1F
100
AcDbEntity
  8
0
100
AcDbLine
 10
200.03391955596
 20
58.32778737860443
 30
0.0
 11
201.33391955596
 21
58.32778737860443
 31
0.0
  0
LINE
  5
34B3
330
1F
100
AcDbEntity
  8
0
100
AcDbLine
 10
201.53391955596
 20
58.12778737860461
 30
0.0
 11
201.53391955596
 21
56.83278737860419
 31
0.0
  0
ARC
  5
34B4
330
1F
100
AcDbEntity
  8
0
100
AcDbCircle
 10
201.33391955596
 20
56.83278737860419
 30
0.0
 40
0.2
100
AcDbArc
 50
270.0
 51
0.0
  0
ARC
  5
34B5
330
1F
100
AcDbEntity
  8
0
100
AcDbCircle
 10
201.33391955596
 20
58.12778737860455
 30
0.0
 40
0.2
100
AcDbArc
 50
0.0
 51
90.0
  0
LINE
  5
34B6
330
1F
100
AcDbEntity
  8
0
100
AcDbLine
 10
199.83391955596
 20
59.42778737860433
 30
0.0
 11
199.83391955596
 21
58.52778737860425
 31
0.0
  0
ARC
  5
34B7
330
1F
100
AcDbEntity
  8
0
100
AcDbCircle
 10
200.03391955596
 20
58.52778737860418
 30
0.0
 40
0.2
100
AcDbArc
 50
180.0
 51
270.0
  0
ARC
  5
34B8
330
1F
100
AcDbEntity
  8
0
100
AcDbCircle
 10
193.3930610534517
 20
56.83278737860419
 30
0.0
 40
0.2
100
AcDbArc
 50
230.1247226429191
 51
270.0
  0
ARC
  5
34B9
330
1F
100
AcDbEntity
  8
0
100
AcDbCircle
 10
193.53391955596
 20
69.68278737860427
 30
0.0
 40
1.7
100
AcDbArc
 50
270.0
 51
0.0
  0
LINE
  5
34BA
330
1F
100
AcDbEntity
  8
0
100
AcDbLine
 10
195.2339195559601
 20
69.68278737860427
 30
0.0
 11
195.2339195559601
 21
70.58278737860437
 31
0.0
  0
LINE
  5
34BB
330
1F
100
AcDbEntity
  8
0
100
AcDbLine
 10
189.9339195559601
 20
68.4327873786045
 30
0.0
 11
189.9339195559601
 21
60.09192887609643
 31
0.0
  0
ARC
  5
34BC
330
1F
100
AcDbEntity
  8
0
100
AcDbCircle
 10
190.1339195559599
 20
60.09192887609643
 30
0.0
 40
0.2
100
AcDbArc
 50
180.0
 51
219.8752773570937
  0
LINE
  5
34BD
330
1F
100
AcDbEntity
  8
0
100
AcDbLine
 10
190.9339195559599
 20
68.43278737860427
 30
0.0
 11
191.4339195559599
 21
67.98278737860434
 31
0.0
  0
LINE
  5
34BE
330
1F
100
AcDbEntity
  8
0
100
AcDbLine
 10
189.9339195559599
 20
68.43278737860427
 30
0.0
 11
190.9339195559599
 21
68.43278737860427
 31
0.0
  0
LINE
  5
34BF
330
1F
100
AcDbEntity
  8
0
100
AcDbLine
 10
193.53391955596
 20
85.28278737860441
 30
0.0
 11
191.4339195559601
 21
85.28278737860441
 31
0.0
  0
LINE
  5
34C0
330
1F
100
AcDbEntity
  8
0
100
AcDbLine
 10
191.4339195559601
 20
80.98278737860434
 30
0.0
 11
193.53391955596
 21
80.98278737860434
 31
0.0
  0
LINE
  5
34C1
330
1F
100
AcDbEntity
  8
0
100
AcDbLine
 10
193.53391955596
 20
72.28278737860441
 30
0.0
 11
191.4339195559599
 21
72.28278737860441
 31
0.0
  0
LINE
  5
34C2
330
1F
100
AcDbEntity
  8
0
100
AcDbLine
 10
195.2339195559601
 20
82.68278737860427
 30
0.0
 11
195.2339195559601
 21
83.58278737860436
 31
0.0
  0
ARC
  5
34C3
330
1F
100
AcDbEntity
  8
0
100
AcDbCircle
 10
193.53391955596
 20
82.68278737860427
 30
0.0
 40
1.7
100
AcDbArc
 50
270.0
 51
0.0
  0
ARC
  5
34C4
330
1F
100
AcDbEntity
  8
0
100
AcDbCircle
 10
193.53391955596
 20
83.58278737860436
 30
0.0
 40
1.7
100
AcDbArc
 50
0.0
 51
90.0
  0
LINE
  5
34C5
330
1F
100
AcDbEntity
  8
0
100
AcDbLine
 10
189.9339195559601
 20
81.4327873786045
 30
0.0
 11
189.9339195559599
 21
71.83278737860414
 31
0.0
  0
LINE
  5
34C6
330
1F
100
AcDbEntity
  8
0
100
AcDbLine
 10
190.9339195559599
 20
71.83278737860437
 30
0.0
 11
191.4339195559599
 21
72.28278737860441
 31
0.0
  0
LINE
  5
34C7
330
1F
100
AcDbEntity
  8
0
100
AcDbLine
 10
190.9339195559601
 20
71.83278737860437
 30
0.0
 11
189.9339195559599
 21
71.83278737860437
 31
0.0
  0
LINE
  5
34C8
330
1F
100
AcDbEntity
  8
0
100
AcDbLine
 10
190.9339195559601
 20
81.43278737860427
 30
0.0
 11
191.4339195559601
 21
80.98278737860434
 31
0.0
  0
LINE
  5
34C9
330
1F
100
AcDbEntity
  8
0
100
AcDbLine
 10
189.9339195559601
 20
81.43278737860427
 30
0.0
 11
190.9339195559601
 21
81.43278737860427
 31
0.0
  0
LINE
  5
34CA
330
1F
100
AcDbEntity
  8
0
100
AcDbLine
 10
190.9339195559601
 20
84.83278737860436
 30
0.0
 11
191.4339195559601
 21
85.28278737860441
 31
0.0
  0
LINE
  5
34CB
330
1F
100
AcDbEntity
  8
0
100
AcDbLine
 10
190.9339195559601
 20
84.83278737860436
 30
0.0
 11
189.9339195559601
 21
84.83278737860436
 31
0.0
  0
LINE
  5
34CC
330
1F
100
AcDbEntity
  8
0
100
AcDbLine
 10
208.6339195559602
 20
93.63778737860419
 30
0.0
 11
200.03391955596
 21
93.63778737860419
 31
0.0
  0
ARC
  5
34CD
330
1F
100
AcDbEntity
  8
0
 62
     3
100
AcDbCircle
 10
223.9339195559601
 20
90.63278737860432
 30
0.0
 40
3.049999999999999
100
AcDbArc
 50
155.8863816357524
 51
105.4020888455062
  0
CIRCLE
  5
34CE
330
1F
100
AcDbEntity
  8
0
100
AcDbCircle
 10
223.9339195559601
 20
90.63278737860432
 30
0.0
 40
2.549999999999999
  0
LINE
  5
34CF
330
1F
100
AcDbEntity
  8
0
100
AcDbLine
 10
218.53391955596
 20
96.63278737860432
 30
0.0
 11
226.4747780584683
 21
96.63278737860432
 31
0.0
  0
ARC
  5
34D0
330
1F
100
AcDbEntity
  8
0
100
AcDbCircle
 10
209.9339195559601
 20
76.63278737860432
 30
0.0
 40
26.0
100
AcDbArc
 50
39.87527735707813
 51
50.12472264291957
  0
ARC
  5
34D1
330
1F
100
AcDbEntity
  8
0
100
AcDbCircle
 10
229.7339195559601
 20
93.17364588111226
 30
0.0
 40
0.2
100
AcDbArc
 50
0.0
 51
39.87527735707813
  0
ARC
  5
34D2
330
1F
100
AcDbEntity
  8
0
100
AcDbCircle
 10
226.4747780584683
 20
96.4327873786045
 30
0.0
 40
0.2
100
AcDbArc
 50
50.12472264291957
 51
90.0
  0
LINE
  5
34D3
330
1F
100
AcDbEntity
  8
0
100
AcDbLine
 10
219.8339195559602
 20
93.63778737860419
 30
0.0
 11
211.2339195559601
 21
93.63778737860419
 31
0.0
  0
LINE
  5
34D4
330
1F
100
AcDbEntity
  8
0
100
AcDbLine
 10
220.0339195559603
 20
93.83778737860447
 30
0.0
 11
220.0339195559603
 21
94.73778737860456
 31
0.0
  0
ARC
  5
34D5
330
1F
100
AcDbEntity
  8
0
100
AcDbCircle
 10
219.8339195559602
 20
93.83778737860447
 30
0.0
 40
0.2
100
AcDbArc
 50
270.0
 51
0.0
  0
LINE
  5
34D6
330
1F
100
AcDbEntity
  8
0
100
AcDbLine
 10
219.8339195559602
 20
94.93778737860438
 30
0.0
 11
218.53391955596
 21
94.93778737860438
 31
0.0
  0
ARC
  5
34D7
330
1F
100
AcDbEntity
  8
0
100
AcDbCircle
 10
219.8339195559602
 20
94.73778737860456
 30
0.0
 40
0.2
100
AcDbArc
 50
0.0
 51
90.0
  0
ARC
  5
34D8
330
1F
100
AcDbEntity
  8
0
100
AcDbCircle
 10
218.5339195559603
 20
95.1377873786042
 30
0.0
 40
0.2
100
AcDbArc
 50
180.0
 51
270.0
  0
ARC
  5
34D9
330
1F
100
AcDbEntity
  8
0
100
AcDbCircle
 10
218.5339195559603
 20
96.43278737860462
 30
0.0
 40
0.2
100
AcDbArc
 50
90.0
 51
180.0
  0
LINE
  5
34DA
330
1F
100
AcDbEntity
  8
0
100
AcDbLine
 10
218.3339195559602
 20
95.1377873786042
 30
0.0
 11
218.3339195559602
 21
96.4327873786045
 31
0.0
  0
LINE
  5
34DB
330
1F
100
AcDbEntity
  8
0
100
AcDbLine
 10
211.0339195559603
 20
93.83778737860447
 30
0.0
 11
211.0339195559603
 21
96.4327873786045
 31
0.0
  0
LINE
  5
34DC
330
1F
100
AcDbEntity
  8
0
100
AcDbLine
 10
208.8339195559602
 20
93.83778737860401
 30
0.0
 11
208.8339195559602
 21
96.4327873786045
 31
0.0
  0
ARC
  5
34DD
330
1F
100
AcDbEntity
  8
0
100
AcDbCircle
 10
208.6339195559602
 20
93.83778737860401
 30
0.0
 40
0.2
100
AcDbArc
 50
270.0
 51
0.0
  0
ARC
  5
34DE
330
1F
100
AcDbEntity
  8
0
100
AcDbCircle
 10
211.2339195559601
 20
93.83778737860447
 30
0.0
 40
0.2
100
AcDbArc
 50
180.0
 51
270.0
  0
ARC
  5
34DF
330
1F
100
AcDbEntity
  8
0
100
AcDbCircle
 10
210.8339195559602
 20
96.43278737860462
 30
0.0
 40
0.2
100
AcDbArc
 50
0.0
 51
90.0
  0
ARC
  5
34E0
330
1F
100
AcDbEntity
  8
0
100
AcDbCircle
 10
209.0339195559603
 20
96.43278737860462
 30
0.0
 40
0.2
100
AcDbArc
 50
90.0
 51
180.0
  0
LINE
  5
34E1
330
1F
100
AcDbEntity
  8
0
100
AcDbLine
 10
210.8339195559602
 20
96.63278737860432
 30
0.0
 11
209.0339195559603
 21
96.63278737860432
 31
0.0
  0
ARC
  5
34E2
330
1F
100
AcDbEntity
  8
0
100
AcDbCircle
 10
209.9339195559601
 20
76.63278737860432
 30
0.0
 40
26.0
100
AcDbArc
 50
129.8752773570804
 51
140.1247226429218
  0
LINE
  5
34E3
330
1F
100
AcDbEntity
  8
0
100
AcDbLine
 10
199.8339195559602
 20
93.83778737860401
 30
0.0
 11
199.8339195559602
 21
94.73778737860456
 31
0.0
  0
ARC
  5
34E4
330
1F
100
AcDbEntity
  8
0
 62
     3
100
AcDbCircle
 10
195.9339195559601
 20
90.63278737860432
 30
0.0
 40
3.049999999999999
100
AcDbArc
 50
155.8863816357524
 51
105.4020888455062
  0
CIRCLE
  5
34E5
330
1F
100
AcDbEntity
  8
0
100
AcDbCircle
 10
195.9339195559601
 20
90.63278737860432
 30
0.0
 40
2.549999999999999
  0
ARC
  5
34E6
330
1F
100
AcDbEntity
  8
0
100
AcDbCircle
 10
200.0339195559603
 20
93.83778737860401
 30
0.0
 40
0.2
100
AcDbArc
 50
180.0
 51
270.0
  0
LINE
  5
34E7
330
1F
100
AcDbEntity
  8
0
100
AcDbLine
 10
193.3930610534517
 20
96.63278737860432
 30
0.0
 11
201.3339195559602
 21
96.63278737860432
 31
0.0
  0
LINE
  5
34E8
330
1F
100
AcDbEntity
  8
0
100
AcDbLine
 10
201.3339195559602
 20
94.93778737860438
 30
0.0
 11
200.03391955596
 21
94.93778737860438
 31
0.0
  0
ARC
  5
34E9
330
1F
100
AcDbEntity
  8
0
100
AcDbCircle
 10
201.3339195559602
 20
95.1377873786042
 30
0.0
 40
0.2
100
AcDbArc
 50
270.0
 51
0.0
  0
ARC
  5
34EA
330
1F
100
AcDbEntity
  8
0
100
AcDbCircle
 10
201.3339195559602
 20
96.43278737860462
 30
0.0
 40
0.2
100
AcDbArc
 50
0.0
 51
90.0
  0
LINE
  5
34EB
330
1F
100
AcDbEntity
  8
0
100
AcDbLine
 10
201.5339195559603
 20
95.1377873786042
 30
0.0
 11
201.5339195559603
 21
96.43278737860462
 31
0.0
  0
ARC
  5
34EC
330
1F
100
AcDbEntity
  8
0
100
AcDbCircle
 10
200.0339195559603
 20
94.73778737860456
 30
0.0
 40
0.2
100
AcDbArc
 50
90.0
 51
180.0
  0
ARC
  5
34ED
330
1F
100
AcDbEntity
  8
0
100
AcDbCircle
 10
193.3930610534519
 20
96.4327873786045
 30
0.0
 40
0.2
100
AcDbArc
 50
90.0
 51
129.8752773570809
  0
ARC
  5
34EE
330
1F
100
AcDbEntity
  8
0
100
AcDbCircle
 10
190.1339195559602
 20
93.17364588111226
 30
0.0
 40
0.2
100
AcDbArc
 50
140.1247226429218
 51
180.0
  0
CIRCLE
  5
34EF
330
1F
100
AcDbEntity
  8
0
100
AcDbCircle
 10
223.9339195559601
 20
90.63278737860432
 30
0.0
 40
4.5
  0
CIRCLE
  5
34F0
330
1F
100
AcDbEntity
  8
0
100
AcDbCircle
 10
195.9339195559601
 20
90.63278737860432
 30
0.0
 40
4.5
  0
CIRCLE
  5
34F1
330
1F
100
AcDbEntity
  8
0
100
AcDbCircle
 10
195.9339195559601
 20
62.63278737860438
 30
0.0
 40
4.5
  0
CIRCLE
  5
34F2
330
1F
100
AcDbEntity
  8
0
100
AcDbCircle
 10
223.9339195559601
 20
62.63278737860436
 30
0.0
 40
4.5
  0
LINE
  5
34F3
330
1F
100
AcDbEntity
  8
0
100
AcDbLine
 10
213.9339195559601
 20
78.68932637848985
 30
0.0
 11
213.9339195559601
 21
79.63278737860432
 31
0.0
  0
ARC
  5
34F4
330
1F
100
AcDbEntity
  8
0
100
AcDbCircle
 10
209.9339195559601
 20
76.63278737860432
 30
0.0
 40
5.000000000000005
100
AcDbArc
 50
323.1301023541521
 51
36.86989764584794
  0
LINE
  5
34F5
330
1F
100
AcDbEntity
  8
0
100
AcDbLine
 10
213.9339195559601
 20
73.63278737860432
 30
0.0
 11
213.9339195559601
 21
74.57624837871879
 31
0.0
  0
ARC
  5
34F6
330
1F
100
AcDbEntity
  8
0
100
AcDbCircle
 10
209.9339195559601
 20
76.63278737860432
 30
0.0
 40
5.000000000000005
100
AcDbArc
 50
233.130102354162
 51
306.869897645838
  0
LINE
  5
34F7
330
1F
100
AcDbEntity
  8
0
100
AcDbLine
 10
212.9339195559601
 20
72.63278737860431
 30
0.0
 11
211.9904585558457
 21
72.63278737860431
 31
0.0
  0
LINE
  5
34F8
330
1F
100
AcDbEntity
  8
0
100
AcDbLine
 10
207.8773805560746
 20
72.63278737860431
 30
0.0
 11
206.9339195559601
 21
72.63278737860431
 31
0.0
  0
ARC
  5
34F9
330
1F
100
AcDbEntity
  8
0
100
AcDbCircle
 10
209.9339195559601
 20
76.63278737860432
 30
0.0
 40
5.000000000000005
100
AcDbArc
 50
143.130102354152
 51
216.8698976458479
  0
LINE
  5
34FA
330
1F
100
AcDbEntity
  8
0
100
AcDbLine
 10
205.9339195559601
 20
73.63278737860426
 30
0.0
 11
205.9339195559601
 21
74.57624837871867
 31
0.0
  0
LINE
  5
34FB
330
1F
100
AcDbEntity
  8
0
100
AcDbLine
 10
205.9339195559601
 20
78.68932637848996
 30
0.0
 11
205.9339195559601
 21
79.63278737860438
 31
0.0
  0
LINE
  5
34FC
330
1F
100
AcDbEntity
  8
0
100
AcDbLine
 10
213.9339195559601
 20
74.57624837871879
 30
0.0
 11
213.9339195559601
 21
78.68932637848988
 31
0.0
  0
LINE
  5
34FD
330
1F
100
AcDbEntity
  8
0
100
AcDbLine
 10
207.8773805560746
 20
72.63278737860431
 30
0.0
 11
211.9904585558457
 21
72.63278737860431
 31
0.0
  0
LINE
  5
34FE
330
1F
100
AcDbEntity
  8
0
100
AcDbLine
 10
205.9339195559601
 20
78.68932637848996
 30
0.0
 11
205.9339195559601
 21
74.5762483787187
 31
0.0
  0
ARC
  5
34FF
330
1F
100
AcDbEntity
  8
0
100
AcDbCircle
 10
209.9339195559601
 20
76.63278737860432
 30
0.0
 40
5.000000000000005
100
AcDbArc
 50
53.130102354162
 51
126.869897645838
  0
LINE
  5
3500
330
1F
100
AcDbEntity
  8
0
100
AcDbLine
 10
211.9904585558457
 20
80.63278737860432
 30
0.0
 11
207.8773805560746
 21
80.63278737860432
 31
0.0
  0
LINE
  5
3501
330
1F
100
AcDbEntity
  8
0
100
AcDbLine
 10
207.8773805560746
 20
80.63278737860432
 30
0.0
 11
206.9339195559601
 21
80.63278737860432
 31
0.0
  0
LINE
  5
3502
330
1F
100
AcDbEntity
  8
0
100
AcDbLine
 10
212.9339195559601
 20
80.63278737860432
 30
0.0
 11
211.9904585558457
 21
80.63278737860432
 31
0.0
  0
ARC
  5
3503
330
1F
100
AcDbEntity
  8
0
100
AcDbCircle
 10
209.9339195559601
 20
76.63278737860432
 30
0.0
 40
5.000000000000005
100
AcDbArc
 50
36.86989764584794
 51
53.130102354162
  0
ARC
  5
3504
330
1F
100
AcDbEntity
  8
0
100
AcDbCircle
 10
209.9339195559601
 20
76.63278737860432
 30
0.0
 40
5.000000000000005
100
AcDbArc
 50
306.869897645838
 51
323.1301023541521
  0
ARC
  5
3505
330
1F
100
AcDbEntity
  8
0
100
AcDbCircle
 10
209.9339195559601
 20
76.63278737860432
 30
0.0
 40
5.000000000000005
100
AcDbArc
 50
216.8698976458479
 51
233.130102354162
  0
ARC
  5
3506
330
1F
100
AcDbEntity
  8
0
100
AcDbCircle
 10
209.9339195559601
 20
76.63278737860432
 30
0.0
 40
5.000000000000005
100
AcDbArc
 50
126.869897645838
 51
143.130102354152
  0
ARC
  5
3507
330
1F
100
AcDbEntity
  8
0
100
AcDbCircle
 10
209.9339195559601
 20
76.63278737860432
 30
0.0
 40
4.497705265805031
100
AcDbArc
 50
27.20927073568456
 51
62.79072926432818
  0
ARC
  5
3508
330
1F
100
AcDbEntity
  8
0
100
AcDbCircle
 10
209.9339195559601
 20
76.63278737860432
 30
0.0
 40
4.497705265805031
100
AcDbArc
 50
297.2092707356718
 51
332.7907292643155
  0
ARC
  5
3509
330
1F
100
AcDbEntity
  8
0
100
AcDbCircle
 10
209.9339195559601
 20
76.63278737860432
 30
0.0
 40
4.497705265805031
100
AcDbArc
 50
207.2092707356853
 51
242.7907292643282
  0
ARC
  5
350A
330
1F
100
AcDbEntity
  8
0
100
AcDbCircle
 10
209.9339195559601
 20
76.63278737860432
 30
0.0
 40
4.497705265805031
100
AcDbArc
 50
117.2092707356718
 51
152.7907292643147
  0
CIRCLE
  5
350B
330
1F
100
AcDbEntity
  8
0
100
AcDbCircle
 10
209.9339195559601
 20
76.63278737860432
 30
0.0
 40
14.0
  0
CIRCLE
  5
350C
330
1F
100
AcDbEntity
  8
0
100
AcDbCircle
 10
209.9339195559601
 20
76.63278737860432
 30
0.0
 40
13.5
  0
ARC
  5
350D
330
1F
100
AcDbEntity
  8
0
100
AcDbCircle
 10
209.9339195559601
 20
76.63278737860432
 30
0.0
 40
13.35
100
AcDbArc
 50
207.7681311166429
 51
210.5492151968722
  0
ARC
  5
350F
330
1F
100
AcDbEntity
  8
0
100
AcDbCircle
 10
209.9339195559601
 20
76.63278737860432
 30
0.0
 40
13.35
100
AcDbArc
 50
149.4507848031278
 51
152.231868883357
  0
LINE
  5
3510
330
1F
100
AcDbEntity
  8
0
100
AcDbLine
 10
197.2381761748107
 20
72.04278737860438
 30
0.0
 11
198.4253252021738
 21
72.47198745551265
 31
0.0
  0
LINE
  5
3511
330
1F
100
AcDbEntity
  8
0
100
AcDbLine
 10
198.4253252021738
 20
80.79358730169605
 30
0.0
 11
197.2381761748107
 21
81.22278737860431
 31
0.0
  0
CIRCLE
  5
3512
330
1F
100
AcDbEntity
  8
0
100
AcDbCircle
 10
199.1053252021739
 20
70.59113658423129
 30
0.0
 40
1.0
  0
CIRCLE
  5
3513
330
1F
100
AcDbEntity
  8
0
100
AcDbCircle
 10
199.1053252021739
 20
82.67443817297746
 30
0.0
 40
1.0
  0
ARC
  5
3514
330
1F
100
AcDbEntity
  8
0
100
AcDbCircle
 10
199.1053252021739
 20
70.59113658423129
 30
0.0
 40
2.0
100
AcDbArc
 50
329.4555831878832
 51
109.8768740700737
  0
ARC
  5
3515
330
1F
100
AcDbEntity
  8
0
100
AcDbCircle
 10
202.5502669937021
 20
68.55831193537901
 30
0.0
 40
2.0
100
AcDbArc
 50
149.4555831878832
 51
230.5949003584073
  0
ARC
  5
3516
330
1F
100
AcDbEntity
  8
0
100
AcDbCircle
 10
209.1839195559601
 20
76.63278737860432
 30
0.0
 40
12.45
100
AcDbArc
 50
230.5949003584061
 51
129.4050996415927
  0
ARC
  5
3517
330
1F
100
AcDbEntity
  8
0
100
AcDbCircle
 10
202.5502669937021
 20
84.70726282182974
 30
0.0
 40
2.0
100
AcDbArc
 50
129.4050996415927
 51
210.5444168121168
  0
ARC
  5
3518
330
1F
100
AcDbEntity
  8
0
100
AcDbCircle
 10
199.1053252021739
 20
82.67443817297758
 30
0.0
 40
2.0
100
AcDbArc
 50
250.1231259299262
 51
30.54441681211682
  0
CIRCLE
  5
3519
330
1F
100
AcDbEntity
  8
0
100
AcDbCircle
 10
209.9339195559601
 20
76.63278737860432
 30
0.0
 40
8.5
  0
LINE
  5
351A
330
1F
100
AcDbEntity
  8
0
100
AcDbLine
 10
127.487049102366
 20
173.0513250450348
 30
0.0
 11
128.987049102366
 21
173.0513250450348
 31
0.0
  0
LINE
  5
351B
330
1F
100
AcDbEntity
  8
0
100
AcDbLine
 10
129.487049102366
 20
181.5513250450349
 30
0.0
 11
129.487049102366
 21
173.5513250450348
 31
0.0
  0
ARC
  5
351C
102
{ACAD_REACTORS
330
3595
102
}
330
1F
100
AcDbEntity
  8
0
100
AcDbCircle
 10
128.987049102366
 20
173.5513250450348
 30
0.0
 40
0.5
100
AcDbArc
 50
270.0
 51
0.0
  0
LINE
  5
351D
330
1F
100
AcDbEntity
  8
CENTER
100
AcDbLine
 10
152.3231540033742
 20
181.5513250450349
 30
0.0
 11
99.34333575182456
 21
181.5513250450349
 31
0.0
  0
LINE
  5
351E
330
1F
100
AcDbEntity
  8
0
100
AcDbLine
 10
127.487049102366
 20
190.0513250450349
 30
0.0
 11
128.987049102366
 21
190.0513250450349
 31
0.0
  0
LINE
  5
351F
330
1F
100
AcDbEntity
  8
0
100
AcDbLine
 10
129.487049102366
 20
181.5513250450349
 30
0.0
 11
129.487049102366
 21
189.5513250450349
 31
0.0
  0
ARC
  5
3520
102
{ACAD_REACTORS
330
3580
330
3595
102
}
330
1F
100
AcDbEntity
  8
0
100
AcDbCircle
 10
128.987049102366
 20
189.5513250450349
 30
0.0
 40
0.5
100
AcDbArc
 50
0.0
 51
90.0
  0
LINE
  5
3521
330
1F
100
AcDbEntity
  8
0
100
AcDbLine
 10
127.4870491023662
 20
176.7513250450347
 30
0.0
 11
101.487049102366
 21
176.7513250450346
 31
0.0
  0
LINE
  5
3522
330
1F
100
AcDbEntity
  8
0
100
AcDbLine
 10
127.4870491023662
 20
173.3513250450348
 30
0.0
 11
101.487049102366
 21
173.3513250450348
 31
0.0
  0
LINE
  5
3523
330
1F
100
AcDbEntity
  8
0
100
AcDbLine
 10
127.487049102366
 20
164.9422671085798
 30
0.0
 11
101.4870491023658
 21
164.9422671085798
 31
0.0
  0
LINE
  5
3524
330
1F
100
AcDbEntity
  8
0
100
AcDbLine
 10
127.487049102366
 20
161.5513250450346
 30
0.0
 11
101.4870491023658
 21
161.5513250450346
 31
0.0
  0
LINE
  5
3525
102
{ACAD_REACTORS
330
3589
102
}
330
1F
100
AcDbEntity
  8
CENTER
 48
0.6
100
AcDbLine
 10
109.487049102366
 20
177.1040143308275
 30
0.0
 11
109.487049102366
 21
185.9986357592422
 31
0.0
  0
LINE
  5
3526
102
{ACAD_REACTORS
330
3580
330
358C
102
}
330
1F
100
AcDbEntity
  8
0
100
AcDbLine
 10
127.487049102366
 20
161.5513250450346
 30
0.0
 11
127.487049102366
 21
201.5513250450351
 31
0.0
  0
LINE
  5
3527
102
{ACAD_REACTORS
330
3586
330
3589
330
358F
102
}
330
1F
100
AcDbEntity
  8
0
100
AcDbLine
 10
101.487049102366
 20
161.5513250450346
 30
0.0
 11
101.487049102366
 21
201.5513250450351
 31
0.0
  0
LINE
  5
3528
102
{ACAD_REACTORS
330
358C
102
}
330
1F
100
AcDbEntity
  8
CENTER
 48
0.6
100
AcDbLine
 10
119.487049102366
 20
177.1040143308275
 30
0.0
 11
119.487049102366
 21
185.9986357592422
 31
0.0
  0
LINE
  5
3529
330
1F
100
AcDbEntity
  8
0
100
AcDbLine
 10
127.4870491023662
 20
186.3513250450351
 30
0.0
 11
101.487049102366
 21
186.3513250450352
 31
0.0
  0
LINE
  5
352A
330
1F
100
AcDbEntity
  8
0
100
AcDbLine
 10
127.4870491023662
 20
189.751325045035
 30
0.0
 11
101.487049102366
 21
189.751325045035
 31
0.0
  0
LINE
  5
352B
330
1F
100
AcDbEntity
  8
0
100
AcDbLine
 10
127.487049102366
 20
198.1603829814899
 30
0.0
 11
101.4870491023658
 21
198.1603829814899
 31
0.0
  0
LINE
  5
352C
102
{ACAD_REACTORS
330
3583
330
3586
330
3589
102
}
330
1F
100
AcDbEntity
  8
0
100
AcDbLine
 10
127.487049102366
 20
201.5513250450351
 30
0.0
 11
101.4870491023658
 21
201.5513250450351
 31
0.0
  0
ARC
  5
352D
330
1F
100
AcDbEntity
  8
0
100
AcDbCircle
 10
109.487049102366
 20
181.5513250450349
 30
0.0
 40
2.149999999999999
100
AcDbArc
 50
0.0
 51
180.0
  0
ARC
  5
352E
330
1F
100
AcDbEntity
  8
0
100
AcDbCircle
 10
109.487049102366
 20
181.5513250450349
 30
0.0
 40
2.149999999999999
100
AcDbArc
 50
180.0
 51
0.0
  0
ARC
  5
352F
330
1F
100
AcDbEntity
  8
0
 62
     3
100
AcDbCircle
 10
109.487049102366
 20
181.5513250450349
 30
0.0
 40
2.5
100
AcDbArc
 50
344.4632242434407
 51
243.3773293786601
  0
ARC
  5
3530
330
1F
100
AcDbEntity
  8
0
100
AcDbCircle
 10
119.487049102366
 20
181.5513250450349
 30
0.0
 40
2.149999999999999
100
AcDbArc
 50
0.0
 51
180.0
  0
ARC
  5
3531
330
1F
100
AcDbEntity
  8
0
100
AcDbCircle
 10
119.487049102366
 20
181.5513250450349
 30
0.0
 40
2.149999999999999
100
AcDbArc
 50
180.0
 51
0.0
  0
ARC
  5
3532
330
1F
100
AcDbEntity
  8
0
 62
     3
100
AcDbCircle
 10
119.487049102366
 20
181.5513250450349
 30
0.0
 40
2.5
100
AcDbArc
 50
344.4632242434407
 51
243.3773293786601
  0
LINE
  5
3533
102
{ACAD_REACTORS
330
357A
102
}
330
1F
100
AcDbEntity
  8
AM_4
 62
     7
100
AcDbLine
 10
135.4870491023662
 20
185.5513250450349
 30
0.0
 11
135.487049102366
 21
177.5513250450349
 31
0.0
  0
LINE
  5
3534
330
1F
100
AcDbEntity
  8
0
 62
     3
100
AcDbLine
 10
150.2633644336018
 20
184.7750097137991
 30
0.0
 11
145.4870491023665
 21
184.7750097137991
 31
0.0
  0
LINE
  5
3535
330
1F
100
AcDbEntity
  8
0
 62
     3
100
AcDbLine
 10
140.4870491023665
 20
184.7750097137991
 30
0.0
 11
135.487049102366
 21
184.7750097137991
 31
0.0
  0
LINE
  5
3536
330
1F
100
AcDbEntity
  8
0
 62
     3
100
AcDbLine
 10
135.487049102366
 20
184.7750097137991
 30
0.0
 11
134.71073377113
 21
185.5513250450349
 31
0.0
  0
LINE
  5
3537
330
1F
100
AcDbEntity
  8
0
 62
     3
100
AcDbLine
 10
150.2633644336018
 20
178.3276403762707
 30
0.0
 11
145.4870491023665
 21
178.3276403762707
 31
0.0
  0
LINE
  5
3538
330
1F
100
AcDbEntity
  8
0
 62
     3
100
AcDbLine
 10
140.4870491023665
 20
178.3276403762707
 30
0.0
 11
135.487049102366
 21
178.3276403762707
 31
0.0
  0
LINE
  5
3539
330
1F
100
AcDbEntity
  8
0
 62
     3
100
AcDbLine
 10
135.487049102366
 20
178.3276403762707
 30
0.0
 11
134.71073377113
 21
177.5513250450349
 31
0.0
  0
SPLINE
  5
353A
330
1F
100
AcDbEntity
  8
AM_VIS
100
AcDbSpline
210
0.0
220
0.0
230
1.0
 70
    12
 71
     2
 72
     6
 73
     3
 74
     0
 42
0.0000000001
 43
0.0000000001
 40
0.0
 40
0.0
 40
0.0
 40
1.284080115715944
 40
1.284080115715944
 40
1.284080115715944
 10
133.487049102366
 20
179.4947860451493
 30
0.0
 41
1.0
 10
133.1332124306942
 20
179.0480034392946
 30
0.0
 41
1.004970604815283
 10
132.6170491023657
 20
178.5513250450349
 30
0.0
 41
1.0
  0
LINE
  5
353B
330
1F
100
AcDbEntity
  8
AM_VIS
100
AcDbLine
 10
130.487049102366
 20
184.5513250450349
 30
0.0
 11
130.487049102366
 21
178.5513250450349
 31
0.0
  0
LINE
  5
353C
330
1F
100
AcDbEntity
  8
AM_VIS
100
AcDbLine
 10
130.487049102366
 20
184.5513250450349
 30
0.0
 11
132.6170491023657
 21
184.5513250450349
 31
0.0
  0
ARC
  5
353D
102
{ACAD_REACTORS
330
359C
102
}
330
1F
100
AcDbEntity
  8
AM_VIS
100
AcDbCircle
 10
134.487049102366
 20
181.5513250450349
 30
0.0
 40
5.000000000000005
100
AcDbArc
 50
143.1301023541527
 51
216.8698976458473
  0
LINE
  5
353E
330
1F
100
AcDbEntity
  8
AM_VIS
100
AcDbLine
 10
132.6170491023657
 20
178.5513250450349
 30
0.0
 11
130.487049102366
 21
178.5513250450349
 31
0.0
  0
SPLINE
  5
353F
330
1F
100
AcDbEntity
  8
AM_VIS
100
AcDbSpline
210
0.0
220
0.0
230
1.0
 70
    12
 71
     2
 72
     6
 73
     3
 74
     0
 42
0.0000000001
 43
0.0000000001
 40
0.0
 40
0.0
 40
0.0
 40
1.284080115715944
 40
1.284080115715944
 40
1.284080115715944
 10
132.6170491023657
 20
184.5513250450349
 30
0.0
 41
1.0
 10
133.1332124306942
 20
184.0546466507753
 30
0.0
 41
1.004970604815283
 10
133.487049102366
 20
183.6078640449204
 30
0.0
 41
1.0
  0
LINE
  5
3540
102
{ACAD_REACTORS
330
3592
102
}
330
1F
100
AcDbEntity
  8
AM_VIS
100
AcDbLine
 10
129.487049102366
 20
186.5513250450348
 30
0.0
 11
130.487049102366
 21
185.5513250450348
 31
0.0
  0
LINE
  5
3541
330
1F
100
AcDbEntity
  8
AM_VIS
100
AcDbLine
 10
132.6170491023657
 20
185.5513250450349
 30
0.0
 11
133.487049102366
 21
185.5513250450349
 31
0.0
  0
LINE
  5
3542
330
1F
100
AcDbEntity
  8
AM_VIS
100
AcDbLine
 10
132.6170491023657
 20
185.5513250450349
 30
0.0
 11
130.487049102366
 21
185.5513250450349
 31
0.0
  0
LINE
  5
3543
330
1F
100
AcDbEntity
  8
AM_VIS
100
AcDbLine
 10
133.487049102366
 20
183.6078640449204
 30
0.0
 11
133.487049102366
 21
179.4947860451493
 31
0.0
  0
LINE
  5
3544
102
{ACAD_REACTORS
330
3592
102
}
330
1F
100
AcDbEntity
  8
AM_VIS
100
AcDbLine
 10
130.487049102366
 20
177.5513250450349
 30
0.0
 11
129.487049102366
 21
176.5513250450349
 31
0.0
  0
LINE
  5
3545
330
1F
100
AcDbEntity
  8
AM_VIS
100
AcDbLine
 10
130.487049102366
 20
177.5513250450349
 30
0.0
 11
132.6170491023657
 21
177.5513250450349
 31
0.0
  0
LINE
  5
3546
330
1F
100
AcDbEntity
  8
AM_VIS
100
AcDbLine
 10
132.6170491023657
 20
177.5513250450349
 30
0.0
 11
133.487049102366
 21
177.5513250450349
 31
0.0
  0
LINE
  5
3547
330
1F
100
AcDbEntity
  8
AM_VIS
100
AcDbLine
 10
133.487049102366
 20
177.5513250450349
 30
0.0
 11
135.487049102366
 21
177.5513250450349
 31
0.0
  0
LINE
  5
3548
330
1F
100
AcDbEntity
  8
AM_VIS
100
AcDbLine
 10
133.487049102366
 20
185.5513250450349
 30
0.0
 11
135.487049102366
 21
185.5513250450349
 31
0.0
  0
LINE
  5
3549
330
1F
100
AcDbEntity
  8
AM_VIS
100
AcDbLine
 10
150.487049102366
 20
184.5513250450349
 30
0.0
 11
149.487049102366
 21
185.5513250450349
 31
0.0
  0
LINE
  5
354A
330
1F
100
AcDbEntity
  8
AM_VIS
100
AcDbLine
 10
150.487049102366
 20
178.5513250450349
 30
0.0
 11
149.487049102366
 21
177.5513250450349
 31
0.0
  0
LINE
  5
354B
330
1F
100
AcDbEntity
  8
AM_VIS
100
AcDbLine
 10
135.487049102366
 20
177.5513250450349
 30
0.0
 11
140.4870491023662
 21
177.5513250450349
 31
0.0
  0
LINE
  5
354C
330
1F
100
AcDbEntity
  8
AM_VIS
100
AcDbLine
 10
145.4870491023665
 20
177.5513250450349
 30
0.0
 11
149.487049102366
 21
177.5513250450349
 31
0.0
  0
LINE
  5
354D
330
1F
100
AcDbEntity
  8
AM_VIS
100
AcDbLine
 10
135.487049102366
 20
185.5513250450349
 30
0.0
 11
140.4870491023662
 21
185.5513250450349
 31
0.0
  0
LINE
  5
354E
330
1F
100
AcDbEntity
  8
AM_VIS
100
AcDbLine
 10
145.4870491023665
 20
185.5513250450349
 30
0.0
 11
149.487049102366
 21
185.5513250450349
 31
0.0
  0
LINE
  5
354F
102
{ACAD_REACTORS
330
357A
330
357D
330
3583
330
358F
102
}
330
1F
100
AcDbEntity
  8
AM_VIS
100
AcDbLine
 10
150.487049102366
 20
184.5513250450347
 30
0.0
 11
150.487049102366
 21
181.5513250450349
 31
0.0
  0
LINE
  5
3550
330
1F
100
AcDbEntity
  8
AM_VIS
100
AcDbLine
 10
150.487049102366
 20
181.4513250450349
 30
0.0
 11
150.487049102366
 21
178.5513250450349
 31
0.0
  0
LINE
  5
3551
330
1F
100
AcDbEntity
  8
AM_VIS
100
AcDbLine
 10
132.6170491023657
 20
177.5513250450349
 30
0.0
 11
132.6170491023657
 21
178.5513250450349
 31
0.0
  0
LINE
  5
3552
330
1F
100
AcDbEntity
  8
AM_VIS
100
AcDbLine
 10
132.6170491023657
 20
184.5513250450349
 30
0.0
 11
132.6170491023657
 21
185.5513250450349
 31
0.0
  0
LINE
  5
3553
102
{ACAD_REACTORS
330
359C
102
}
330
1F
100
AcDbEntity
  8
AM_VIS
100
AcDbLine
 10
133.487049102366
 20
179.4947860451493
 30
0.0
 11
133.487049102366
 21
177.5513250450349
 31
0.0
  0
LINE
  5
3554
102
{ACAD_REACTORS
330
357D
102
}
330
1F
100
AcDbEntity
  8
AM_VIS
100
AcDbLine
 10
133.487049102366
 20
185.5513250450349
 30
0.0
 11
133.487049102366
 21
183.6078640449204
 31
0.0
  0
LINE
  5
3555
330
1F
100
AcDbEntity
  8
AM_VIS
100
AcDbLine
 10
149.487049102366
 20
177.5513250450349
 30
0.0
 11
149.487049102366
 21
181.4513250450349
 31
0.0
  0
LINE
  5
3556
330
1F
100
AcDbEntity
  8
AM_VIS
100
AcDbLine
 10
149.487049102366
 20
181.5513250450349
 30
0.0
 11
149.487049102366
 21
185.5513250450348
 31
0.0
  0
LINE
  5
3557
330
1F
100
AcDbEntity
  8
0
100
AcDbLine
 10
131.5520491023658
 20
185.5513250450349
 30
0.0
 11
140.4870491023665
 21
185.5513250450349
 31
0.0
  0
LINE
  5
3558
330
1F
100
AcDbEntity
  8
0
100
AcDbLine
 10
145.4870491023667
 20
185.5513250450349
 30
0.0
 11
149.487049102366
 21
185.5513250450349
 31
0.0
  0
LINE
  5
3559
330
1F
100
AcDbEntity
  8
CENTER
 48
0.7
100
AcDbLine
 10
230.0379358471299
 20
62.63278737860436
 30
0.0
 11
217.8299032647904
 21
62.63278737860436
 31
0.0
  0
LINE
  5
355A
330
1F
100
AcDbEntity
  8
CENTER
 48
0.7
100
AcDbLine
 10
223.9339195559601
 20
68.73680366977409
 30
0.0
 11
223.9339195559601
 21
56.52877108743464
 31
0.0
  0
LINE
  5
355B
330
1F
100
AcDbEntity
  8
CENTER
 48
0.7
100
AcDbLine
 10
230.0379358471299
 20
90.63278737860432
 30
0.0
 11
217.8299032647904
 21
90.63278737860432
 31
0.0
  0
LINE
  5
355C
330
1F
100
AcDbEntity
  8
CENTER
 48
0.7
100
AcDbLine
 10
223.9339195559601
 20
96.73680366977405
 30
0.0
 11
223.9339195559601
 21
84.52877108743459
 31
0.0
  0
LINE
  5
355D
330
1F
100
AcDbEntity
  8
CENTER
 48
0.7
100
AcDbLine
 10
202.0379358471299
 20
90.63278737860432
 30
0.0
 11
189.8299032647904
 21
90.63278737860432
 31
0.0
  0
LINE
  5
355E
330
1F
100
AcDbEntity
  8
CENTER
 48
0.7
100
AcDbLine
 10
195.9339195559601
 20
96.73680366977405
 30
0.0
 11
195.9339195559601
 21
84.52877108743459
 31
0.0
  0
LINE
  5
355F
330
1F
100
AcDbEntity
  8
CENTER
100
AcDbLine
 10
209.9339195559601
 20
204.150500782833
 30
0.0
 11
209.9339195559601
 21
158.9521493072368
 31
0.0
  0
LINE
  5
3560
330
1F
100
AcDbEntity
  8
CENTER
100
AcDbLine
 10
187.334743818162
 20
181.5513250450349
 30
0.0
 11
232.5330952937582
 21
181.5513250450349
 31
0.0
  0
LINE
  5
3561
330
1F
100
AcDbEntity
  8
CENTER
 48
0.7
100
AcDbLine
 10
202.0379358471299
 20
167.551325045035
 30
0.0
 11
189.8299032647904
 21
167.551325045035
 31
0.0
  0
LINE
  5
3562
330
1F
100
AcDbEntity
  8
CENTER
 48
0.7
100
AcDbLine
 10
195.9339195559601
 20
173.6553413362047
 30
0.0
 11
195.9339195559601
 21
161.4473087538652
 31
0.0
  0
LINE
  5
3563
330
1F
100
AcDbEntity
  8
CENTER
 48
0.7
100
AcDbLine
 10
230.0379358471299
 20
167.551325045035
 30
0.0
 11
217.8299032647904
 21
167.551325045035
 31
0.0
  0
LINE
  5
3564
330
1F
100
AcDbEntity
  8
CENTER
 48
0.7
100
AcDbLine
 10
223.9339195559601
 20
173.6553413362047
 30
0.0
 11
223.9339195559601
 21
161.4473087538652
 31
0.0
  0
LINE
  5
3565
330
1F
100
AcDbEntity
  8
CENTER
 48
0.7
100
AcDbLine
 10
230.0379358471299
 20
195.5513250450349
 30
0.0
 11
217.8299032647904
 21
195.5513250450349
 31
0.0
  0
LINE
  5
3566
102
{ACAD_REACTORS
330
35A1
102
}
330
1F
100
AcDbEntity
  8
CENTER
 48
0.7
100
AcDbLine
 10
223.9339195559601
 20
201.6553413362046
 30
0.0
 11
223.9339195559601
 21
189.4473087538652
 31
0.0
  0
LINE
  5
3567
330
1F
100
AcDbEntity
  8
CENTER
 48
0.7
100
AcDbLine
 10
202.0379358471299
 20
195.5513250450349
 30
0.0
 11
189.8299032647904
 21
195.5513250450349
 31
0.0
  0
LINE
  5
3568
102
{ACAD_REACTORS
330
35A1
102
}
330
1F
100
AcDbEntity
  8
CENTER
 48
0.7
100
AcDbLine
 10
195.9339195559601
 20
201.6553413362046
 30
0.0
 11
195.9339195559601
 21
189.4473087538652
 31
0.0
  0
ARC
  5
3569
330
1F
100
AcDbEntity
  8
0
100
AcDbCircle
 10
142.2370491023665
 20
175.9221599204362
 30
0.0
 40
3.25
100
AcDbArc
 50
324.7356103172511
 51
34.34109372674059
  0
ARC
  5
356A
330
1F
100
AcDbEntity
  8
0
100
AcDbCircle
 10
143.7370491023665
 20
175.9221599204362
 30
0.0
 40
3.25
100
AcDbArc
 50
145.6589062732594
 51
215.2643896827489
  0
LINE
  5
356B
330
1F
100
AcDbEntity
  8
0
100
AcDbLine
 10
141.0834352143513
 20
174.0457715455699
 30
0.0
 11
144.8906629903816
 21
174.0457715455699
 31
0.0
  0
ARC
  5
356C
330
1F
100
AcDbEntity
  8
0
100
AcDbCircle
 10
132.4870491023665
 20
181.5513250450349
 30
0.0
 40
13.00000000000003
100
AcDbArc
 50
343.0232811802316
 51
16.97671881976995
  0
ARC
  5
356D
330
1F
100
AcDbEntity
  8
0
100
AcDbCircle
 10
153.4870491023665
 20
181.5513250450349
 30
0.0
 40
13.00000000000003
100
AcDbArc
 50
163.0232811802301
 51
196.9767188197683
  0
LINE
  5
356E
102
{ACAD_REACTORS
330
3577
102
}
330
1F
100
AcDbEntity
  8
0
100
AcDbLine
 10
140.4870491023665
 20
175.9221599204362
 30
0.0
 11
140.4870491023665
 21
187.1804901696338
 31
0.0
  0
LINE
  5
356F
330
1F
100
AcDbEntity
  8
0
100
AcDbLine
 10
145.4870491023665
 20
175.9221599204362
 30
0.0
 11
145.4870491023665
 21
187.1804901696338
 31
0.0
  0
LINE
  5
3570
330
1F
100
AcDbEntity
  8
0
100
AcDbLine
 10
141.053543896709
 20
177.7555447167106
 30
0.0
 11
144.9205543080236
 21
177.7555447167106
 31
0.0
  0
ARC
  5
3571
102
{ACAD_REACTORS
330
3577
102
}
330
1F
100
AcDbEntity
  8
0
100
AcDbCircle
 10
142.2370491023665
 20
187.1804901696338
 30
0.0
 40
3.25
100
AcDbArc
 50
325.6589062732587
 51
35.26438968274887
  0
ARC
  5
3572
330
1F
100
AcDbEntity
  8
0
100
AcDbCircle
 10
143.7370491023665
 20
187.1804901696338
 30
0.0
 40
3.25
100
AcDbArc
 50
144.7356103172511
 51
214.3410937267406
  0
LINE
  5
3573
330
1F
100
AcDbEntity
  8
0
100
AcDbLine
 10
141.053543896709
 20
185.3471053733593
 30
0.0
 11
144.9205543080236
 21
185.3471053733593
 31
0.0
  0
LINE
  5
3574
330
1F
100
AcDbEntity
  8
0
100
AcDbLine
 10
141.0834352143513
 20
189.0568785445001
 30
0.0
 11
144.8906629903816
 21
189.0568785445001
 31
0.0
  0
DIMENSION
  5
3575
102
{ACAD_XDICTIONARY
360
3576
102
}
102
{ACAD_REACTORS
330
3577
102
}
330
1F
100
AcDbEntity
  8
DIM
100
AcDbDimension
  2
*D5
 10
145.4869436083989
 20
192.7421455916594
 30
0.0
 11
142.9869963553827
 21
194.7421455916594
 31
0.0
 70
    32
 71
     5
 42
4.999894506032433
  3
AM_ANSI
100
AcDbAlignedDimension
 13
140.4870491023665
 23
187.1804901696338
 33
0.0
 14
145.4869436083989
 24
187.2066760372062
 34
0.0
100
AcDbRotatedDimension
1001
ACAD
1000
DSTYLE
1002
{
1070
    41
1040
2.0
1070
    42
1040
1.5
1070
    43
1040
8.0
1070
    44
1040
1.5
1070
    73
1070
     0
1070
    74
1070
     0
1070
    77
1070
     3
1070
   140
1040
2.0
1070
   141
1040
3.0
1070
   146
1040
0.6
1070
   147
1040
1.0
1070
   172
1070
     1
1070
   178
1070
   256
1070
   272
1070
     8
1070
   274
1070
     2
1070
   340
1005
3151
1002
}
  0
DIMENSION
  5
3578
102
{ACAD_XDICTIONARY
360
3579
102
}
102
{ACAD_REACTORS
330
357A
102
}
330
1F
100
AcDbEntity
  8
DIM
100
AcDbDimension
  2
*D6
 10
150.487049102366
 20
197.3165895043469
 30
0.0
 11
142.9870491023661
 21
199.3165895043469
 31
0.0
 70
    32
 71
     5
 42
14.99999999999977
  3
AM_ANSI
100
AcDbAlignedDimension
 13
135.4870491023662
 23
185.5513250450349
 33
0.0
 14
150.487049102366
 24
184.5513250450347
 34
0.0
100
AcDbRotatedDimension
1001
ACAD
1000
DSTYLE
1002
{
1070
    41
1040
2.0
1070
    42
1040
1.5
1070
    43
1040
8.0
1070
    44
1040
1.5
1070
    73
1070
     0
1070
    74
1070
     0
1070
    77
1070
     3
1070
   140
1040
2.0
1070
   141
1040
3.0
1070
   146
1040
0.6
1070
   147
1040
1.0
1070
   172
1070
     1
1070
   178
1070
   256
1070
   272
1070
     8
1070
   274
1070
     2
1070
   340
1005
3151
1002
}
  0
DIMENSION
  5
357B
102
{ACAD_XDICTIONARY
360
357C
102
}
102
{ACAD_REACTORS
330
357D
102
}
330
1F
100
AcDbEntity
  8
DIM
100
AcDbDimension
  2
*D7
 10
150.487049102366
 20
202.2888109731682
 30
0.0
 11
141.987049102366
 21
204.2888109731682
 31
0.0
 70
    32
 71
     5
 42
17.0
  3
AM_ANSI
100
AcDbAlignedDimension
 13
133.487049102366
 23
185.5513250450349
 33
0.0
 14
150.487049102366
 24
184.5513250450347
 34
0.0
100
AcDbRotatedDimension
1001
ACAD
1000
DSTYLE
1002
{
1070
    41
1040
2.0
1070
    42
1040
1.5
1070
    43
1040
8.0
1070
    44
1040
1.5
1070
    73
1070
     0
1070
    74
1070
     0
1070
    77
1070
     3
1070
   140
1040
2.0
1070
   141
1040
3.0
1070
   146
1040
0.6
1070
   147
1040
1.0
1070
   172
1070
     1
1070
   178
1070
   256
1070
   272
1070
     8
1070
   274
1070
     2
1070
   340
1005
3151
1002
}
  0
DIMENSION
  5
357E
102
{ACAD_XDICTIONARY
360
357F
102
}
102
{ACAD_REACTORS
330
3580
102
}
330
1F
100
AcDbEntity
  8
DIM
100
AcDbDimension
  2
*D8
 10
129.487049102366
 20
206.9806416048522
 30
0.0
 11
135.1537157690327
 21
208.9806416048522
 31
0.0
 70
    32
 71
     5
 42
2.0
  3
AM_ANSI
100
AcDbAlignedDimension
 13
127.487049102366
 23
201.5513250450351
 33
0.0
 14
129.487049102366
 24
189.5513250450349
 34
0.0
100
AcDbRotatedDimension
1001
ACAD
1000
DSTYLE
1002
{
1070
    41
1040
2.0
1070
    42
1040
1.5
1070
    43
1040
8.0
1070
    44
1040
1.5
1070
    73
1070
     0
1070
    74
1070
     0
1070
    77
1070
     3
1070
   140
1040
2.0
1070
   141
1040
3.0
1070
   146
1040
0.6
1070
   147
1040
1.0
1070
   172
1070
     1
1070
   178
1070
   256
1070
   272
1070
     8
1070
   274
1070
     2
1070
   340
1005
3151
1002
}
  0
DIMENSION
  5
3581
102
{ACAD_XDICTIONARY
360
3582
102
}
102
{ACAD_REACTORS
330
3583
102
}
330
1F
100
AcDbEntity
  8
DIM
100
AcDbDimension
  2
*D9
 10
150.487049102366
 20
212.840988336222
 30
0.0
 11
138.987049102366
 21
214.840988336222
 31
0.0
 70
    32
 71
     5
 42
23.0
  3
AM_ANSI
100
AcDbAlignedDimension
 13
127.487049102366
 23
201.5513250450351
 33
0.0
 14
150.487049102366
 24
184.5513250450347
 34
0.0
100
AcDbRotatedDimension
1001
ACAD
1000
DSTYLE
1002
{
1070
    41
1040
2.0
1070
    42
1040
1.5
1070
    43
1040
8.0
1070
    44
1040
1.5
1070
    73
1070
     0
1070
    74
1070
     0
1070
    77
1070
     3
1070
   140
1040
2.0
1070
   141
1040
3.0
1070
   146
1040
0.6
1070
   147
1040
1.0
1070
   172
1070
     1
1070
   178
1070
   256
1070
   272
1070
     8
1070
   274
1070
     2
1070
   340
1005
3151
1002
}
  0
DIMENSION
  5
3584
102
{ACAD_XDICTIONARY
360
3585
102
}
102
{ACAD_REACTORS
330
3586
102
}
330
1F
100
AcDbEntity
  8
DIM
100
AcDbDimension
  2
*D10
 10
127.487049102366
 20
212.840988336222
 30
0.0
 11
114.487049102366
 21
214.840988336222
 31
0.0
 70
    32
  1
21+stroke=S
 71
     5
 42
26.0
  3
AM_ANSI
100
AcDbAlignedDimension
 13
101.487049102366
 23
201.5513250450351
 33
0.0
 14
127.487049102366
 24
201.5513250450351
 34
0.0
100
AcDbRotatedDimension
1001
ACAD
1000
DSTYLE
1002
{
1070
    41
1040
2.0
1070
    42
1040
1.5
1070
    43
1040
8.0
1070
    44
1040
1.5
1070
    73
1070
     0
1070
    74
1070
     0
1070
    77
1070
     3
1070
   140
1040
2.0
1070
   141
1040
3.0
1070
   146
1040
0.6
1070
   147
1040
1.0
1070
   172
1070
     1
1070
   178
1070
   256
1070
   272
1070
     8
1070
   274
1070
     2
1070
   340
1005
3151
1002
}
  0
DIMENSION
  5
3587
102
{ACAD_XDICTIONARY
360
3588
102
}
102
{ACAD_REACTORS
330
3589
102
}
330
1F
100
AcDbEntity
  8
DIM
100
AcDbDimension
  2
*D11
 10
109.487049102366
 20
206.9806416048522
 30
0.0
 11
105.487049102366
 21
208.9806416048522
 31
0.0
 70
    32
 71
     5
 42
8.0
  3
AM_ANSI
100
AcDbAlignedDimension
 13
101.487049102366
 23
201.5513250450351
 33
0.0
 14
109.487049102366
 24
185.9986357592422
 34
0.0
100
AcDbRotatedDimension
1001
ACAD
1000
DSTYLE
1002
{
1070
    41
1040
2.0
1070
    42
1040
1.5
1070
    43
1040
8.0
1070
    44
1040
1.5
1070
    73
1070
     0
1070
    74
1070
     0
1070
    77
1070
     3
1070
   140
1040
2.0
1070
   141
1040
3.0
1070
   146
1040
0.6
1070
   147
1040
1.0
1070
   172
1070
     1
1070
   178
1070
   256
1070
   272
1070
     8
1070
   274
1070
     2
1070
   340
1005
3151
1002
}
  0
DIMENSION
  5
358A
102
{ACAD_XDICTIONARY
360
358B
102
}
102
{ACAD_REACTORS
330
358C
102
}
330
1F
100
AcDbEntity
  8
DIM
100
AcDbDimension
  2
*D12
 10
127.487049102366
 20
206.9806416048522
 30
0.0
 11
123.487049102366
 21
208.9806416048522
 31
0.0
 70
    32
 71
     5
 42
8.0
  3
AM_ANSI
100
AcDbAlignedDimension
 13
119.487049102366
 23
185.9986357592422
 33
0.0
 14
127.487049102366
 24
201.5513250450351
 34
0.0
100
AcDbRotatedDimension
1001
ACAD
1000
DSTYLE
1002
{
1070
    41
1040
2.0
1070
    42
1040
1.5
1070
    43
1040
8.0
1070
    44
1040
1.5
1070
    73
1070
     0
1070
    74
1070
     0
1070
    77
1070
     3
1070
   140
1040
2.0
1070
   141
1040
3.0
1070
   146
1040
0.6
1070
   147
1040
1.0
1070
   172
1070
     1
1070
   178
1070
   256
1070
   272
1070
     8
1070
   274
1070
     2
1070
   340
1005
3151
1002
}
  0
DIMENSION
  5
358D
102
{ACAD_XDICTIONARY
360
358E
102
}
102
{ACAD_REACTORS
330
358F
102
}
330
1F
100
AcDbEntity
  8
DIM
100
AcDbDimension
  2
*D13
 10
150.487049102366
 20
218.8872096100344
 30
0.0
 11
125.987049102366
 21
220.8872096100344
 31
0.0
 70
    32
  1
44+stroke=ZZ
 71
     5
 42
49.0
  3
AM_ANSI
100
AcDbAlignedDimension
 13
101.487049102366
 23
201.5513250450351
 33
0.0
 14
150.487049102366
 24
184.5513250450347
 34
0.0
100
AcDbRotatedDimension
1001
ACAD
1000
DSTYLE
1002
{
1070
    41
1040
2.0
1070
    42
1040
1.5
1070
    43
1040
8.0
1070
    44
1040
1.5
1070
    73
1070
     0
1070
    74
1070
     0
1070
    77
1070
     3
1070
   140
1040
2.0
1070
   141
1040
3.0
1070
   146
1040
0.6
1070
   147
1040
1.0
1070
   172
1070
     1
1070
   178
1070
   256
1070
   272
1070
     8
1070
   274
1070
     2
1070
   340
1005
3151
1002
}
  0
DIMENSION
  5
3590
102
{ACAD_XDICTIONARY
360
3591
102
}
102
{ACAD_REACTORS
330
3592
102
}
330
1F
100
AcDbEntity
  8
DIM
100
AcDbDimension
  2
*D14
 10
159.517678015887
 20
186.5513250450348
 30
0.0
 11
157.517678015887
 21
181.5513250450349
 31
0.0
 70
    32
  1
%%c<>
 71
     5
 42
9.999999999999971
  3
AM_ANSI
100
AcDbAlignedDimension
 13
129.487049102366
 23
176.5513250450349
 33
0.0
 14
129.487049102366
 24
186.5513250450348
 34
0.0
 50
90.0
100
AcDbRotatedDimension
1001
ACAD
1000
DSTYLE
1002
{
1070
    41
1040
2.0
1070
    42
1040
1.5
1070
    43
1040
8.0
1070
    44
1040
1.5
1070
    73
1070
     0
1070
    74
1070
     0
1070
    77
1070
     3
1070
   140
1040
2.0
1070
   141
1040
3.0
1070
   146
1040
0.6
1070
   147
1040
1.0
1070
   172
1070
     1
1070
   178
1070
   256
1070
   272
1070
     8
1070
   274
1070
     2
1070
   340
1005
3151
1002
}
  0
DIMENSION
  5
3593
102
{ACAD_XDICTIONARY
360
3594
102
}
102
{ACAD_REACTORS
330
3595
102
}
330
1F
100
AcDbEntity
  8
DIM
100
AcDbDimension
  2
*D15
 10
166.8902898895754
 20
190.0513250450349
 30
0.0
 11
164.2336232229087
 21
181.5513250450349
 31
0.0
 70
    32
  1
%%c<>{}{\H0.71x;\C3;\S 0^ -0.05;}
 71
     5
 42
17.00000000000003
  3
AM_ANSI
100
AcDbAlignedDimension
 13
128.987049102366
 23
173.0513250450348
 33
0.0
 14
128.987049102366
 24
190.0513250450349
 34
0.0
 50
90.0
100
AcDbRotatedDimension
1001
GENIUS_GENDTOL_13
1000
TolSmNrm
1000

1000
{\H0.71x;$2\S$+$P^ $-$M;}
1040
17.0
1001
ACAD
1000
DSTYLE
1002
{
1070
   286
1070
     0
1070
   284
1070
     8
1070
    41
1040
2.0
1070
    42
1040
1.5
1070
    43
1040
8.0
1070
    44
1040
1.5
1070
    47
1040
0.0
1070
    48
1040
0.05
1070
    73
1070
     0
1070
    74
1070
     0
1070
    77
1070
     3
1070
   140
1040
2.0
1070
   141
1040
3.0
1070
   146
1040
0.6
1070
   147
1040
1.0
1070
   172
1070
     1
1070
   178
1070
   256
1070
   272
1070
     8
1070
   274
1070
     2
1070
   340
1005
3151
1002
}
  0
LEADER
  5
3596
330
1F
100
AcDbEntity
  8
DIM
100
AcDbLeader
  3
AM_ANSI$7
 73
     0
 74
     0
 75
     1
 40
2.0
 41
11.42857142857143
 76
     3
 10
147.4870491023662
 20
177.5513250450349
 30
0.0
 10
154.9826104015416
 20
166.3432170026309
 30
0.0
 10
156.9826104015416
 20
166.3432170026309
 30
0.0
340
3597
213
0.8150760156128171
223
0.3869799573012926
233
0.0
1001
ACAD
1000
DSTYLE
1002
{
1070
    41
1040
2.0
1070
    42
1040
1.5
1070
    43
1040
8.0
1070
    44
1040
1.5
1070
    73
1070
     0
1070
    74
1070
     0
1070
    77
1070
     3
1070
   140
1040
2.0
1070
   141
1040
3.0
1070
   146
1040
0.6
1070
   147
1040
1.0
1070
   172
1070
     1
1070
   178
1070
   256
1070
   272
1070
     2
1070
   274
1070
     2
1070
   340
1005
3151
1002
}
  0
MTEXT
  5
3597
102
{ACAD_REACTORS
330
3596
102
}
330
1F
100
AcDbEntity
  8
DIM
100
AcDbMText
 10
157.1675343859288
 20
168.9562370453296
 30
0.0
 40
2.0
 41
0.0
 71
     1
 72
     1
  1
M8*1.25
  7
dayus
 73
     1
 44
1.0
1001
ACAD
1000
MTEXTBEGIN
1070
    73
1070
     1
1070
    44
1040
1.0
1070
    74
1070
     0
1000
MTEXTEND
  0
LEADER
  5
3598
330
1F
100
AcDbEntity
  8
DIM
100
AcDbLeader
  3
AM_ANSI$7
 73
     0
 74
     0
 75
     1
 40
2.0
 41
2.857142857142858
 76
     3
 10
143.1801264613516
 20
175.1194279013147
 30
0.0
 10
149.8115978228534
 20
161.8701941102156
 30
0.0
 10
151.8115978228534
 20
161.8701941102156
 30
0.0
340
3599
213
1.28621199348413
223
0.2860289400440479
233
0.0
1001
ACAD
1000
DSTYLE
1002
{
1070
    41
1040
2.0
1070
    42
1040
1.5
1070
    43
1040
8.0
1070
    44
1040
1.5
1070
    73
1070
     0
1070
    74
1070
     0
1070
    77
1070
     3
1070
   140
1040
2.0
1070
   141
1040
3.0
1070
   146
1040
0.6
1070
   147
1040
1.0
1070
   172
1070
     1
1070
   178
1070
   256
1070
   272
1070
     2
1070
   274
1070
     2
1070
   340
1005
3151
1002
}
  0
MTEXT
  5
3599
102
{ACAD_REACTORS
330
3598
102
}
330
1F
100
AcDbEntity
  8
DIM
100
AcDbMText
 10
151.5253858293693
 20
164.5841651701715
 30
0.0
 40
2.0
 41
0.0
 71
     1
 72
     1
  1
13
  7
dayus
 73
     1
 44
1.0
1001
ACAD
1000
MTEXTBEGIN
1070
    73
1070
     1
1070
    44
1040
1.0
1070
    74
1070
     0
1000
MTEXTEND
  0
DIMENSION
  5
359A
102
{ACAD_XDICTIONARY
360
359B
102
}
102
{ACAD_REACTORS
330
359C
102
}
330
1F
100
AcDbEntity
  8
DIM
100
AcDbDimension
  2
*D16
 10
133.4870491023662
 20
166.3599448446658
 30
0.0
 11
131.9870491023662
 21
166.3599448446658
 31
0.0
 70
   160
 71
     5
 42
3.0
  3
AM_ANSI
100
AcDbAlignedDimension
 13
130.4870491023662
 23
178.5513250450347
 33
0.0
 14
133.4870491023662
 24
177.5513250450348
 34
0.0
100
AcDbRotatedDimension
1001
ACAD
1000
DSTYLE
1002
{
1070
    41
1040
2.0
1070
    42
1040
1.5
1070
    43
1040
8.0
1070
    44
1040
1.5
1070
    73
1070
     0
1070
    74
1070
     0
1070
    77
1070
     3
1070
   140
1040
2.0
1070
   141
1040
3.0
1070
   146
1040
0.6
1070
   147
1040
1.0
1070
   172
1070
     1
1070
   178
1070
   256
1070
   272
1070
     8
1070
   274
1070
     2
1070
   340
1005
3151
1002
}
  0
LEADER
  5
359D
330
1F
100
AcDbEntity
  8
DIM
100
AcDbLeader
  3
AM_ANSI$7
 73
     0
 75
     1
 40
2.0
 41
14.28571428571428
 76
     3
 10
107.3323691035869
 20
182.8191397408252
 30
0.0
 10
100.0086216246938
 20
188.881994045817
 30
0.0
 10
98.00862162469384
 20
188.881994045817
 30
0.0
340
359E
213
-1.486619241154016
223
0.4032735171140303
233
0.0
1001
ACAD
1000
DSTYLE
1002
{
1070
    41
1040
2.0
1070
    42
1040
1.5
1070
    43
1040
8.0
1070
    44
1040
1.5
1070
    73
1070
     0
1070
    74
1070
     0
1070
    77
1070
     2
1070
   140
1040
2.0
1070
   141
1040
3.0
1070
   146
1040
0.6
1070
   147
1040
1.0
1070
   172
1070
     1
1070
   178
1070
   256
1070
   272
1070
     2
1070
   274
1070
     2
1070
   340
1005
3151
1002
}
  0
MTEXT
  5
359E
102
{ACAD_REACTORS
330
359D
102
}
330
1F
100
AcDbEntity
  8
DIM
100
AcDbMText
 10
98.49524086584786
 20
189.478720528703
 30
0.0
 40
2.0
 41
0.0
 71
     9
 72
     1
  1
2-M5*0.8
  7
dayus
 73
     1
 44
1.0
1001
ACAD
1000
MTEXTBEGIN
1070
    73
1070
     1
1070
    44
1040
1.0
1070
    74
1070
     0
1000
MTEXTEND
  0
DIMENSION
  5
359F
102
{ACAD_XDICTIONARY
360
35A0
102
}
102
{ACAD_REACTORS
330
35A1
102
}
330
1F
100
AcDbEntity
  8
DIM
100
AcDbDimension
  2
*D17
 10
223.9339195559601
 20
206.9806416048522
 30
0.0
 11
209.9339195559601
 21
208.9806416048522
 31
0.0
 70
    32
  1
□<>
 71
     5
 42
28.0
  3
AM_ANSI
100
AcDbAlignedDimension
 13
195.9339195559601
 23
201.6553413362046
 33
0.0
 14
223.9339195559601
 24
201.6553413362046
 34
0.0
100
AcDbRotatedDimension
1001
ACAD
1000
DSTYLE
1002
{
1070
    41
1040
2.0
1070
    42
1040
1.5
1070
    43
1040
8.0
1070
    44
1040
1.5
1070
    73
1070
     0
1070
    74
1070
     0
1070
    77
1070
     3
1070
   140
1040
2.0
1070
   141
1040
3.0
1070
   146
1040
0.6
1070
   147
1040
1.0
1070
   172
1070
     1
1070
   178
1070
   256
1070
   272
1070
     8
1070
   274
1070
     2
1070
   340
1005
3151
1002
}
  0
DIMENSION
  5
35A2
102
{ACAD_XDICTIONARY
360
35A3
102
}
102
{ACAD_REACTORS
330
35A4
102
}
330
1F
100
AcDbEntity
  8
DIM
100
AcDbDimension
  2
*D18
 10
189.9339195559603
 20
212.840988336222
 30
0.0
 11
209.9339195559603
 21
214.840988336222
 31
0.0
 70
    32
  1
□<>
 71
     5
 42
40.0
  3
AM_ANSI
100
AcDbAlignedDimension
 13
229.9339195559603
 23
198.0921835475428
 33
0.0
 14
189.9339195559603
 24
198.0921835475428
 34
0.0
100
AcDbRotatedDimension
1001
ACAD
1000
DSTYLE
1002
{
1070
    41
1040
2.0
1070
    42
1040
1.5
1070
    43
1040
8.0
1070
    44
1040
1.5
1070
    73
1070
     0
1070
    74
1070
     0
1070
    77
1070
     3
1070
   140
1040
2.0
1070
   141
1040
3.0
1070
   146
1040
0.6
1070
   147
1040
1.0
1070
   172
1070
     1
1070
   178
1070
   256
1070
   272
1070
     8
1070
   274
1070
     2
1070
   340
1005
3151
1002
}
  0
DIMENSION
  5
35A5
102
{ACAD_XDICTIONARY
360
35A6
102
}
102
{ACAD_REACTORS
330
35A7
102
}
330
1F
100
AcDbEntity
  8
DIM
100
AcDbDimension
  2
*D19
 10
213.9339195559599
 20
153.3587192013492
 30
0.0
 11
209.9339195559601
 21
155.3587192013492
 31
0.0
 70
    32
  1
□<>
 71
     5
 42
7.999999999999545
  3
AM_ANSI
100
AcDbAlignedDimension
 13
205.9339195559604
 23
178.5513250450346
 33
0.0
 14
213.9339195559599
 24
178.5513250450351
 34
0.0
100
AcDbRotatedDimension
1001
ACAD
1000
DSTYLE
1002
{
1070
    41
1040
2.0
1070
    42
1040
1.5
1070
    43
1040
8.0
1070
    44
1040
1.5
1070
    73
1070
     0
1070
    74
1070
     0
1070
    77
1070
     3
1070
   140
1040
2.0
1070
   141
1040
3.0
1070
   146
1040
0.6
1070
   147
1040
1.0
1070
   172
1070
     1
1070
   178
1070
   256
1070
   272
1070
     8
1070
   274
1070
     2
1070
   340
1005
3151
1002
}
  0
LEADER
  5
35A8
330
1F
100
AcDbEntity
  8
DIM
100
AcDbLeader
  3
AM_ANSI$7
 73
     0
 74
     0
 75
     1
 40
8.666666666666666
 41
24.57142857142857
 76
     3
 10
227.4984058290718
 20
198.2980390106306
 30
0.0
 10
235.577741335971
 20
204.5237955346309
 30
0.0
 10
237.577741335971
 20
204.5237955346309
 30
0.0
340
35A9
213
-0.1905629376930165
223
0.2179465301056638
233
0.0
1001
ACAD
1000
DSTYLE
1002
{
1070
    41
1040
2.0
1070
    42
1040
1.5
1070
    43
1040
8.0
1070
    44
1040
1.5
1070
    73
1070
     0
1070
    74
1070
     0
1070
    77
1070
     3
1070
   140
1040
2.0
1070
   141
1040
3.0
1070
   146
1040
0.6
1070
   147
1040
1.0
1070
   172
1070
     1
1070
   178
1070
   256
1070
   272
1070
     2
1070
   274
1070
     2
1070
   340
1005
3151
1002
}
  0
MTEXT
  5
35A9
102
{ACAD_REACTORS
330
35A8
102
}
330
1F
100
AcDbEntity
  8
DIM
100
AcDbMText
 10
238.768304273664
 20
213.9725156711919
 30
0.0
 40
2.0
 41
0.0
 71
     1
 72
     1
  1
%%C9*7 depth\PM6*1.0*10 depth\P%%C5.1 thru
  7
dayus
 73
     1
 44
1.0
1001
ACAD
1000
MTEXTBEGIN
1070
    73
1070
     1
1070
    44
1040
1.0
1070
    74
1070
     0
1000
MTEXTEND
  0
DIMENSION
  5
35AA
102
{ACAD_XDICTIONARY
360
35AB
102
}
102
{ACAD_REACTORS
330
35AC
102
}
330
1F
100
AcDbEntity
  8
DIM
100
AcDbDimension
  2
*D20
 10
133.487049102366
 20
107.3792192192539
 30
0.0
 11
130.487049102366
 21
109.3792192192539
 31
0.0
 70
    32
 71
     5
 42
6.0
  3
AM_ANSI
100
AcDbAlignedDimension
 13
127.487049102366
 23
96.63278737860455
 33
0.0
 14
133.487049102366
 24
80.63278737860436
 34
0.0
100
AcDbRotatedDimension
1001
ACAD
1000
DSTYLE
1002
{
1070
    41
1040
2.0
1070
    42
1040
1.5
1070
    43
1040
8.0
1070
    44
1040
1.5
1070
    73
1070
     0
1070
    74
1070
     0
1070
    77
1070
     3
1070
   140
1040
2.0
1070
   141
1040
3.0
1070
   146
1040
0.6
1070
   147
1040
1.0
1070
   172
1070
     1
1070
   178
1070
   256
1070
   272
1070
     8
1070
   274
1070
     2
1070
   340
1005
3151
1002
}
  0
DIMENSION
  5
35AD
102
{ACAD_XDICTIONARY
360
35AE
102
}
102
{ACAD_REACTORS
330
35AF
102
}
330
1F
100
AcDbEntity
  8
DIM
100
AcDbDimension
  2
*D21
 10
129.487049102366
 20
101.9893601617088
 30
0.0
 11
128.487049102366
 21
101.9893601617088
 31
0.0
 70
   160
 71
     5
 42
2.0
  3
AM_ANSI
100
AcDbAlignedDimension
 13
127.487049102366
 23
96.63278737860455
 33
0.0
 14
129.487049102366
 24
84.63278737860433
 34
0.0
100
AcDbRotatedDimension
1001
ACAD
1000
DSTYLE
1002
{
1070
    41
1040
2.0
1070
    42
1040
1.5
1070
    43
1040
8.0
1070
    44
1040
1.5
1070
    73
1070
     0
1070
    74
1070
     0
1070
    77
1070
     3
1070
   140
1040
2.0
1070
   141
1040
3.0
1070
   146
1040
0.6
1070
   147
1040
1.0
1070
   172
1070
     1
1070
   178
1070
   256
1070
   272
1070
     8
1070
   274
1070
     2
1070
   340
1005
3151
1002
}
  0
DIMENSION
  5
35B0
102
{ACAD_XDICTIONARY
360
35B1
102
}
102
{ACAD_REACTORS
330
35B2
102
}
330
1F
100
AcDbEntity
  8
DIM
100
AcDbDimension
  2
*D22
 10
109.487049102366
 20
101.9893601617088
 30
0.0
 11
105.4870491023659
 21
103.9893601617088
 31
0.0
 70
    32
 71
     5
 42
8.000000000000227
  3
AM_ANSI
100
AcDbAlignedDimension
 13
101.4870491023658
 23
96.63278737860455
 33
0.0
 14
109.487049102366
 24
81.08009809281165
 34
0.0
100
AcDbRotatedDimension
1001
ACAD
1000
DSTYLE
1002
{
1070
    41
1040
2.0
1070
    42
1040
1.5
1070
    43
1040
8.0
1070
    44
1040
1.5
1070
    73
1070
     0
1070
    74
1070
     0
1070
    77
1070
     3
1070
   140
1040
2.0
1070
   141
1040
3.0
1070
   146
1040
0.6
1070
   147
1040
1.0
1070
   172
1070
     1
1070
   178
1070
   256
1070
   272
1070
     8
1070
   274
1070
     2
1070
   340
1005
3151
1002
}
  0
DIMENSION
  5
35B3
102
{ACAD_XDICTIONARY
360
35B4
102
}
102
{ACAD_REACTORS
330
35B5
102
}
330
1F
100
AcDbEntity
  8
DIM
100
AcDbDimension
  2
*D23
 10
127.487049102366
 20
101.9893601617088
 30
0.0
 11
123.487049102366
 21
103.9893601617088
 31
0.0
 70
    32
 71
     5
 42
8.0
  3
AM_ANSI
100
AcDbAlignedDimension
 13
119.487049102366
 23
81.08009809281165
 33
0.0
 14
127.487049102366
 24
96.63278737860455
 34
0.0
100
AcDbRotatedDimension
1001
ACAD
1000
DSTYLE
1002
{
1070
    41
1040
2.0
1070
    42
1040
1.5
1070
    43
1040
8.0
1070
    44
1040
1.5
1070
    73
1070
     0
1070
    74
1070
     0
1070
    77
1070
     3
1070
   140
1040
2.0
1070
   141
1040
3.0
1070
   146
1040
0.6
1070
   147
1040
1.0
1070
   172
1070
     1
1070
   178
1070
   256
1070
   272
1070
     8
1070
   274
1070
     2
1070
   340
1005
3151
1002
}
  0
DIMENSION
  5
35B6
102
{ACAD_XDICTIONARY
360
35B7
102
}
102
{ACAD_REACTORS
330
35B8
102
}
330
1F
100
AcDbEntity
  8
DIM
100
AcDbDimension
  2
*D24
 10
127.487049102366
 20
107.3792192192539
 30
0.0
 11
114.487049102366
 21
109.3792192192539
 31
0.0
 70
    32
  1
21+stroke=S
 71
     5
 42
26.0
  3
AM_ANSI
100
AcDbAlignedDimension
 13
101.487049102366
 23
96.63278737860455
 33
0.0
 14
127.487049102366
 24
96.63278737860455
 34
0.0
100
AcDbRotatedDimension
1001
ACAD
1000
DSTYLE
1002
{
1070
    41
1040
2.0
1070
    42
1040
1.5
1070
    43
1040
8.0
1070
    44
1040
1.5
1070
    73
1070
     0
1070
    74
1070
     0
1070
    77
1070
     3
1070
   140
1040
2.0
1070
   141
1040
3.0
1070
   146
1040
0.6
1070
   147
1040
1.0
1070
   172
1070
     1
1070
   178
1070
   256
1070
   272
1070
     8
1070
   274
1070
     2
1070
   340
1005
3151
1002
}
  0
DIMENSION
  5
35B9
102
{ACAD_XDICTIONARY
360
35BA
102
}
102
{ACAD_REACTORS
330
35BB
102
}
330
1F
100
AcDbEntity
  8
DIM
100
AcDbDimension
  2
*D25
 10
133.487049102366
 20
113.4379242187603
 30
0.0
 11
117.487049102366
 21
115.4379242187603
 31
0.0
 70
    32
  1
27+stroke=ZZ
 71
     5
 42
32.0
  3
AM_ANSI
100
AcDbAlignedDimension
 13
101.487049102366
 23
96.63278737860455
 33
0.0
 14
133.487049102366
 24
80.63278737860436
 34
0.0
100
AcDbRotatedDimension
1001
ACAD
1000
DSTYLE
1002
{
1070
    41
1040
2.0
1070
    42
1040
1.5
1070
    43
1040
8.0
1070
    44
1040
1.5
1070
    73
1070
     0
1070
    74
1070
     0
1070
    77
1070
     3
1070
   140
1040
2.0
1070
   141
1040
3.0
1070
   146
1040
0.6
1070
   147
1040
1.0
1070
   172
1070
     1
1070
   178
1070
   256
1070
   272
1070
     8
1070
   274
1070
     2
1070
   340
1005
3151
1002
}
  0
DIMENSION
  5
35BC
102
{ACAD_XDICTIONARY
360
35BD
102
}
102
{ACAD_REACTORS
330
35BE
102
}
330
1F
100
AcDbEntity
  8
DIM
100
AcDbDimension
  2
*D26
 10
142.7625941314223
 20
81.63278737860457
 30
0.0
 11
140.7625941314222
 21
76.63278737860436
 31
0.0
 70
    32
  1
%%c<>
 71
     5
 42
10.00000000000044
  3
AM_ANSI
100
AcDbAlignedDimension
 13
129.487049102366
 23
71.63278737860412
 33
0.0
 14
129.487049102366
 24
81.63278737860457
 34
0.0
 50
90.0
100
AcDbRotatedDimension
1001
ACAD
1000
DSTYLE
1002
{
1070
    41
1040
2.0
1070
    42
1040
1.5
1070
    43
1040
8.0
1070
    44
1040
1.5
1070
    73
1070
     0
1070
    74
1070
     0
1070
    77
1070
     3
1070
   140
1040
2.0
1070
   141
1040
3.0
1070
   146
1040
0.6
1070
   147
1040
1.0
1070
   172
1070
     1
1070
   178
1070
   256
1070
   272
1070
     8
1070
   274
1070
     2
1070
   340
1005
3151
1002
}
  0
DIMENSION
  5
35BF
102
{ACAD_XDICTIONARY
360
35C0
102
}
102
{ACAD_REACTORS
330
35C1
102
}
330
1F
100
AcDbEntity
  8
DIM
100
AcDbDimension
  2
*D27
 10
149.2508143292
 20
85.13278737860431
 30
0.0
 11
146.5941476625333
 21
76.63278737860434
 31
0.0
 70
    32
  1
%%c<>{}{\H0.71x;\C3;\S 0^ -0.05;}
 71
     5
 42
17.00000000000001
  3
AM_ANSI
100
AcDbAlignedDimension
 13
128.987049102366
 23
68.1327873786043
 33
0.0
 14
128.987049102366
 24
85.13278737860431
 34
0.0
 50
90.0
100
AcDbRotatedDimension
1001
GENIUS_GENDTOL_13
1000
TolSmNrm
1000

1000
{\H0.71x;$2\S$+$P^ $-$M;}
1040
17.0
1001
ACAD
1000
DSTYLE
1002
{
1070
   286
1070
     0
1070
   284
1070
     8
1070
    41
1040
2.0
1070
    42
1040
1.5
1070
    43
1040
8.0
1070
    44
1040
1.5
1070
    47
1040
0.0
1070
    48
1040
0.05
1070
    73
1070
     0
1070
    74
1070
     0
1070
    77
1070
     3
1070
   140
1040
2.0
1070
   141
1040
3.0
1070
   146
1040
0.6
1070
   147
1040
1.0
1070
   172
1070
     1
1070
   178
1070
   256
1070
   272
1070
     8
1070
   274
1070
     2
1070
   340
1005
3151
1002
}
  0
LEADER
  5
35C2
330
1F
100
AcDbEntity
  8
DIM
100
AcDbLeader
  3
AM_ANSI$7
 73
     0
 75
     1
 40
2.0
 41
14.28571428571428
 76
     3
 10
107.3323691035869
 20
77.90060207439457
 30
0.0
 10
100.0086216246938
 20
83.96345637938649
 30
0.0
 10
98.00862162469384
 20
83.96345637938649
 30
0.0
340
35C3
213
-1.486619241154016
223
0.4032735171140303
233
0.0
1001
ACAD
1000
DSTYLE
1002
{
1070
    41
1040
2.0
1070
    42
1040
1.5
1070
    43
1040
8.0
1070
    44
1040
1.5
1070
    73
1070
     0
1070
    74
1070
     0
1070
    77
1070
     2
1070
   140
1040
2.0
1070
   141
1040
3.0
1070
   146
1040
0.6
1070
   147
1040
1.0
1070
   172
1070
     1
1070
   178
1070
   256
1070
   272
1070
     2
1070
   274
1070
     2
1070
   340
1005
3151
1002
}
  0
MTEXT
  5
35C3
102
{ACAD_REACTORS
330
35C2
102
}
330
1F
100
AcDbEntity
  8
DIM
100
AcDbMText
 10
98.49524086584786
 20
84.56018286227246
 30
0.0
 40
2.0
 41
0.0
 71
     9
 72
     1
  1
2-M5*0.8
  7
dayus
 73
     1
 44
1.0
1001
ACAD
1000
MTEXTBEGIN
1070
    73
1070
     1
1070
    44
1040
1.0
1070
    74
1070
     0
1000
MTEXTEND
  0
DIMENSION
  5
35C4
102
{ACAD_XDICTIONARY
360
35C5
102
}
102
{ACAD_REACTORS
330
35C6
102
}
330
1F
100
AcDbEntity
  8
DIM
100
AcDbDimension
  2
*D28
 10
133.487049102366
 20
61.53153709617092
 30
0.0
 11
131.987049102366
 21
61.53153709617092
 31
0.0
 70
   160
 71
     5
 42
3.0
  3
AM_ANSI
100
AcDbAlignedDimension
 13
130.487049102366
 23
73.63278737860429
 33
0.0
 14
133.487049102366
 24
72.63278737860429
 34
0.0
100
AcDbRotatedDimension
1001
ACAD
1000
DSTYLE
1002
{
1070
    41
1040
2.0
1070
    42
1040
1.5
1070
    43
1040
8.0
1070
    44
1040
1.5
1070
    73
1070
     0
1070
    74
1070
     0
1070
    77
1070
     3
1070
   140
1040
2.0
1070
   141
1040
3.0
1070
   146
1040
0.6
1070
   147
1040
1.0
1070
   172
1070
     1
1070
   178
1070
   256
1070
   272
1070
     8
1070
   274
1070
     2
1070
   340
1005
3151
1002
}
  0
DIMENSION
  5
35C7
330
1F
100
AcDbEntity
  8
DIM
100
AcDbDimension
  2
*D2
 10
223.9339195559601
 20
102.0621039384215
 30
0.0
 11
209.9339195559601
 21
104.0621039384215
 31
0.0
 70
    32
  1
□<>
 71
     5
 42
28.0
  3
AM_ANSI
100
AcDbAlignedDimension
 13
195.9339195559601
 23
96.73680366977405
 33
0.0
 14
223.9339195559601
 24
96.73680366977405
 34
0.0
100
AcDbRotatedDimension
1001
ACAD
1000
DSTYLE
1002
{
1070
    41
1040
2.0
1070
    42
1040
1.5
1070
    43
1040
8.0
1070
    44
1040
1.5
1070
    73
1070
     0
1070
    74
1070
     0
1070
    77
1070
     3
1070
   140
1040
2.0
1070
   141
1040
3.0
1070
   146
1040
0.6
1070
   147
1040
1.0
1070
   172
1070
     1
1070
   178
1070
   256
1070
   272
1070
     8
1070
   274
1070
     2
1070
   340
1005
3151
1002
}
  0
DIMENSION
  5
35C8
330
1F
100
AcDbEntity
  8
DIM
100
AcDbDimension
  2
*D3
 10
189.9339195559603
 20
107.9224506697914
 30
0.0
 11
209.9339195559604
 21
109.9224506697914
 31
0.0
 70
    32
  1
□<>
 71
     5
 42
40.0
  3
AM_ANSI
100
AcDbAlignedDimension
 13
229.9339195559603
 23
93.17364588111221
 33
0.0
 14
189.9339195559603
 24
93.17364588111221
 34
0.0
100
AcDbRotatedDimension
1001
ACAD
1000
DSTYLE
1002
{
1070
    41
1040
2.0
1070
    42
1040
1.5
1070
    43
1040
8.0
1070
    44
1040
1.5
1070
    73
1070
     0
1070
    74
1070
     0
1070
    77
1070
     3
1070
   140
1040
2.0
1070
   141
1040
3.0
1070
   146
1040
0.6
1070
   147
1040
1.0
1070
   172
1070
     1
1070
   178
1070
   256
1070
   272
1070
     8
1070
   274
1070
     2
1070
   340
1005
3151
1002
}
  0
DIMENSION
  5
35C9
330
1F
100
AcDbEntity
  8
DIM
100
AcDbDimension
  2
*D4
 10
213.9339195559601
 20
48.44018153491839
 30
0.0
 11
209.9339195559604
 21
50.4401815349184
 31
0.0
 70
    32
  1
□<>
 71
     5
 42
7.999999999999545
  3
AM_ANSI
100
AcDbAlignedDimension
 13
205.9339195559606
 23
73.63278737860382
 33
0.0
 14
213.9339195559601
 24
73.63278737860432
 34
0.0
100
AcDbRotatedDimension
1001
ACAD
1000
DSTYLE
1002
{
1070
    41
1040
2.0
1070
    42
1040
1.5
1070
    43
1040
8.0
1070
    44
1040
1.5
1070
    73
1070
     0
1070
    74
1070
     0
1070
    77
1070
     3
1070
   140
1040
2.0
1070
   141
1040
3.0
1070
   146
1040
0.6
1070
   147
1040
1.0
1070
   172
1070
     1
1070
   178
1070
   256
1070
   272
1070
     8
1070
   274
1070
     2
1070
   340
1005
3151
1002
}
  0
LEADER
  5
35CC
330
1F
100
AcDbEntity
  8
DIM
100
AcDbLeader
  3
AM_ANSI$7
 73
     0
 75
     1
 40
2.666666666666666
 41
24.95238095238095
 76
     3
 10
207.6590265012811
 20
77.78381369879591
 30
0.0
 10
185.9710699381935
 20
88.75725650919111
 30
0.0
 10
183.9710699381934
 20
88.75725650919111
 30
0.0
340
35CD
213
-1.486619241154016
223
0.4032735171140303
233
0.0
1001
ACAD
1000
DSTYLE
1002
{
1070
    41
1040
2.0
1070
    42
1040
1.5
1070
    43
1040
8.0
1070
    44
1040
1.5
1070
    73
1070
     0
1070
    74
1070
     0
1070
    77
1070
     2
1070
   140
1040
2.0
1070
   141
1040
3.0
1070
   146
1040
0.6
1070
   147
1040
1.0
1070
   172
1070
     1
1070
   178
1070
   256
1070
   272
1070
     2
1070
   274
1070
     2
1070
   340
1005
3151
1002
}
  0
MTEXT
  5
35CD
102
{ACAD_REACTORS
330
35CC
102
}
330
1F
100
AcDbEntity
  8
DIM
100
AcDbMText
 10
184.4576891793474
 20
89.35398299207708
 30
0.0
 40
2.0
 41
0.0
 71
     9
 72
     1
  1
M5*0.8*10 depth
  7
dayus
 73
     1
 44
1.0
1001
ACAD
1000
MTEXTBEGIN
1070
    73
1070
     1
1070
    44
1040
1.0
1070
    74
1070
     0
1000
MTEXTEND
  0
LWPOLYLINE
  5
39E8
330
1F
100
AcDbEntity
  8
LOGO
 62
     4
100
AcDbPolyline
 90
        4
 70
     1
 43
0.0
 10
57.1460469314577
 20
34.87998036599757
 10
271.6277841472795
 20
34.8799803659976
 10
271.6277841472795
 20
7.034012945182624
 10
57.1460469314577
 20
7.034012945182595
1001
GENIUS_GENREC_14
1002
{
1000
PYDIR
1011
57.1460469314577
1021
7.034012945182595
1031
0.0
1002
}
1002
{
1000
PXDIR
1011
271.6277841472795
1021
34.8799803659976
1031
0.0
1002
}
1002
{
1000
PORI
1011
57.1460469314577
1021
34.87998036599757
1031
0.0
1002
}
1002
{
1000
PINS
1011
57.1460469314577
1021
34.87998036599757
1031
0.0
1002
}
1002
{
1000
PINS2
1011
271.6277841472795
1021
7.034012945182624
1031
0.0
1002
}
1002
{
1000
C
1070
     1
1002
}
1001
GENIUS_GENOBJ-N-REC_13
1002
{
1000
OWNER
1000
GEN
1002
}
1001
GENIUS_GENODEF_13
1002
{
1000
HIER
1070
     0
1002
}
1002
{
1000
MANEDIT
1070
     0
1002
}
1002
{
1000
NOSEL
1070
     0
1002
}
1002
{
1000
BEHIND
1070
     0
1002
}
1002
{
1000
OTHER
1070
     0
1002
}
1002
{
1000
REACTOR
1002
}
  0
TEXT
  5
39E9
330
1F
100
AcDbEntity
  8
LOGO
 62
     7
100
AcDbText
 10
120.0203975629077
 20
22.6811358785639
 30
0.0
 40
3.712795656108597
  1
Order example:
 41
0.8
  7
CHINESET
100
AcDbText
  0
TEXT
  5
39EA
330
1F
100
AcDbEntity
  8
LOGO
 62
     7
100
AcDbText
 10
120.6865038071846
 20
27.90798341821512
 30
0.0
 40
5.569193484162895
  1
訂購代號：
  7
CHINESET
100
AcDbText
  0
LINE
  5
39EB
330
1F
100
AcDbEntity
  8
LOGO
 62
     4
100
AcDbLine
 10
118.4071752572496
 20
7.034012945182912
 30
0.0
 11
118.4071752572496
 21
34.87998036599757
 31
0.0
  0
TEXT
  5
39EC
330
1F
100
AcDbEntity
  8
LOGO
  6
Continuous
100
AcDbText
 10
67.14844359905964
 20
12.50431122177309
 30
0.0
 40
4.176895113122172
  1
金器工業股份有限公司
  7
CHINESET
100
AcDbText
  0
TEXT
  5
39ED
330
1F
100
AcDbEntity
  8
LOGO
  6
Continuous
100
AcDbText
 10
59.47631363420078
 20
8.326597764690006
 30
0.0
 40
2.784596742081447
  1
MINDMAN INDUSTRIAL CO., LTD.
 41
0.85
  7
CHINESET
100
AcDbText
  0
LINE
  5
39EE
330
1F
100
AcDbEntity
  8
LOGO
 62
     4
100
AcDbLine
 10
118.4071752572496
 20
29.31078688183464
 30
0.0
 11
77.56642304005481
 21
29.31078688183464
 31
0.0
  0
LINE
  5
39EF
330
1F
100
AcDbEntity
  8
LOGO
 62
     4
100
AcDbLine
 10
118.4071752572496
 20
23.74159339767171
 30
0.0
 11
77.56642304005481
 21
23.74159339767171
 31
0.0
  0
LINE
  5
39F0
330
1F
100
AcDbEntity
  8
LOGO
 62
     4
100
AcDbLine
 10
118.4071752572496
 20
18.17239991350909
 30
0.0
 11
57.1460469314577
 21
18.17239991350909
 31
0.0
  0
LINE
  5
39F1
330
1F
100
AcDbEntity
  8
LOGO
 62
     4
100
AcDbLine
 10
77.56642304005481
 20
18.17239991350909
 30
0.0
 11
77.56642304005481
 21
34.87998036599757
 31
0.0
  0
TEXT
  5
39F2
330
1F
100
AcDbEntity
  8
LOGO
100
AcDbText
 10
105.4791495263646
 20
19.56469828454936
 30
0.0
 40
2.784596742081447
  1
mm
  7
CHINESET
 72
     1
 11
108.9267454927512
 21
20.95699665559008
 31
0.0
100
AcDbText
 73
     2
  0
TEXT
  5
39F3
330
1F
100
AcDbEntity
  8
LOGO
100
AcDbText
 10
104.0205512328934
 20
30.70308525287522
 30
0.0
 40
2.784596742081447
  1
1 : 1
  7
CHINESET
 72
     1
 11
108.9267454927512
 21
32.09538362391594
 31
0.0
100
AcDbText
 73
     2
  0
LINE
  5
39F4
330
1F
100
AcDbEntity
  8
LOGO
 62
     4
100
AcDbLine
 10
99.84319697670651
 20
18.17239991350909
 30
0.0
 11
99.84319697670651
 21
34.87998036599757
 31
0.0
  0
CIRCLE
  5
39F5
330
1F
100
AcDbEntity
  8
LOGO
  6
Continuous
100
AcDbCircle
 10
104.9992261365249
 20
26.53214641256174
 30
0.0
 40
1.616802410471479
  0
CIRCLE
  5
39F6
330
1F
100
AcDbEntity
  8
LOGO
  6
Continuous
100
AcDbCircle
 10
104.9992261365249
 20
26.53214641256174
 30
0.0
 40
0.947303085116844
  0
LINE
  5
39F7
330
1F
100
AcDbEntity
  8
LOGO
100
AcDbLine
 10
115.1594000897458
 20
24.91534400208995
 30
0.0
 11
115.1594000897458
 21
28.14894882303353
 31
0.0
  0
LINE
  5
39F8
330
1F
100
AcDbEntity
  8
LOGO
100
AcDbLine
 10
110.0908173418047
 20
25.58484332744506
 30
0.0
 11
110.0908173418047
 21
27.47944949767874
 31
0.0
  0
LINE
  5
39F9
330
1F
100
AcDbEntity
  8
LOGO
  6
Continuous
100
AcDbLine
 10
110.0908173418047
 20
27.47944949767874
 30
0.0
 11
115.1594000897458
 21
28.14894882303353
 31
0.0
  0
LINE
  5
39FA
330
1F
100
AcDbEntity
  8
LOGO
  6
Continuous
100
AcDbLine
 10
110.0908173418047
 20
25.58484332744506
 30
0.0
 11
115.1594000897458
 21
24.91534400208995
 31
0.0
  0
TEXT
  5
39FB
330
1F
100
AcDbEntity
  8
LOGO
100
AcDbText
 10
79.86247222872648
 20
30.70445562528766
 30
182.4978831208694
 40
2.784596742081447
  1
比例 Scale:
 41
0.9
  7
CHINESET
 72
     4
 11
88.70481000838067
 21
32.09538362391594
 31
182.4978831208694
100
AcDbText
  0
TEXT
  5
39FC
330
1F
100
AcDbEntity
  8
LOGO
100
AcDbText
 10
79.70210929134769
 20
25.17306158016791
 30
182.4978831208694
 40
2.784596742081447
  1
投影  View:
 41
0.9
  7
CHINESET
 72
     4
 11
88.70481000838067
 21
26.52619013975301
 31
182.4978831208694
100
AcDbText
  0
TEXT
  5
39FD
330
1F
100
AcDbEntity
  8
LOGO
100
AcDbText
 10
79.97435334782799
 20
19.56469828454936
 30
182.4978831208694
 40
2.784596742081447
  1
單位  Unit:
 41
0.9
  7
CHINESET
 72
     4
 11
88.70481000838067
 21
20.95699665559008
 31
182.4978831208694
100
AcDbText
  0
SOLID
  5
39FE
330
1F
100
AcDbEntity
  8
LOGO
 62
     5
100
AcDbTrace
 10
60.03511074074566
 20
22.80139564108431
 30
0.0
 11
61.23909730420314
 21
22.80139564108399
 31
0.0
 12
66.2626274482842
 22
34.21850960490574
 32
0.0
 13
67.46661401174231
 23
34.21850960490511
 33
0.0
  0
SOLID
  5
39FF
330
1F
100
AcDbEntity
  8
LOGO
 62
     5
100
AcDbTrace
 10
61.73729864080752
 20
22.80139564108431
 30
0.0
 11
62.941285204265
 21
22.80139564108431
 31
0.0
 12
67.46661401174231
 22
33.30514048779957
 32
0.0
 13
66.2626274482842
 23
28.8905230884553
 33
0.0
  0
SOLID
  5
3A00
330
1F
100
AcDbEntity
  8
LOGO
 62
     2
100
AcDbTrace
 10
61.23909730420314
 20
22.80139564108399
 30
0.0
 11
61.73729864080752
 21
22.80139564108431
 31
0.0
 12
67.46661401174231
 22
34.21850960490511
 32
0.0
 13
67.96481534834606
 23
34.21850960490511
 33
0.0
  0
SOLID
  5
3A01
330
1F
100
AcDbEntity
  8
LOGO
 62
     5
100
AcDbTrace
 10
58.10482502585131
 20
18.6497178360587
 30
0.0
 11
58.51999280635436
 21
18.6497178360587
 31
0.0
 12
59.68913759032716
 22
20.72555673857134
 32
0.0
 13
60.10430537082896
 23
20.72555673857134
 33
0.0
  0
SOLID
  5
3A02
330
1F
100
AcDbEntity
  8
LOGO
 62
     5
100
AcDbTrace
 10
59.68913759032716
 20
20.72555673857134
 30
0.0
 11
60.10430537082896
 21
20.72555673857134
 31
0.0
 12
59.68913759032716
 22
18.6497178360587
 32
0.0
 13
60.10430537082896
 23
18.6497178360587
 33
0.0
  0
SOLID
  5
3A03
330
1F
100
AcDbEntity
  8
LOGO
 62
     5
100
AcDbTrace
 10
59.68913759032716
 20
18.6497178360587
 30
0.0
 11
60.10430537082896
 21
18.6497178360587
 31
0.0
 12
61.27345015480369
 22
20.72555673857134
 32
0.0
 13
61.68861793530607
 23
20.72555673857134
 33
0.0
  0
SOLID
  5
3A04
330
1F
100
AcDbEntity
  8
LOGO
 62
     5
100
AcDbTrace
 10
61.27345015480369
 20
20.72555673857134
 30
0.0
 11
61.68861793530607
 21
20.72555673857134
 31
0.0
 12
61.27345015480369
 22
18.6497178360587
 32
0.0
 13
61.68861793530607
 23
18.6497178360587
 33
0.0
  0
POLYLINE
  5
3A05
330
1F
100
AcDbEntity
  8
LOGO
 62
     5
100
AcDb2dPolyline
 66
     1
 10
0.0
 20
0.0
 30
0.0
 40
0.4158331134841628
 41
0.4158331134841628
  0
VERTEX
  5
3A06
330
3A05
100
AcDbEntity
  8
LOGO
 62
     5
100
AcDbVertex
100
AcDb2dVertex
 10
75.18973272856334
 20
19.89522117756622
 30
0.0
 42
1.0
  0
VERTEX
  5
3A07
330
3A05
100
AcDbEntity
  8
LOGO
 62
     5
100
AcDbVertex
100
AcDb2dVertex
 10
73.94223338811059
 20
19.89522117756622
 30
0.0
 42
1.0
  0
SEQEND
  5
3A08
330
3A05
100
AcDbEntity
  8
LOGO
 62
     5
  0
POLYLINE
  5
3A09
330
1F
100
AcDbEntity
  8
LOGO
 62
     5
100
AcDb2dPolyline
 66
     1
 10
0.0
 20
0.0
 30
0.0
 70
     1
  0
VERTEX
  5
3A0A
330
3A09
100
AcDbEntity
  8
LOGO
 62
     5
100
AcDbVertex
100
AcDb2dVertex
 10
71.59064164258632
 20
19.6876372873147
 30
0.0
 42
1.000000057330635
  0
VERTEX
  5
3A0B
330
3A09
100
AcDbEntity
  8
LOGO
 62
     5
100
AcDbVertex
100
AcDb2dVertex
 10
72.83614498409412
 20
19.6876372873147
 30
0.0
 42
1.000000057330635
  0
SEQEND
  5
3A0C
330
3A09
100
AcDbEntity
  8
LOGO
 62
     5
  0
CIRCLE
  5
3A0D
330
1F
100
AcDbEntity
  8
LOGO
 62
     5
100
AcDbCircle
 10
72.21339331334116
 20
19.6876372873147
 30
0.0
 40
0.6227516707538824
  0
POLYLINE
  5
3A0E
330
1F
100
AcDbEntity
  8
LOGO
 62
     5
100
AcDb2dPolyline
 66
     1
 10
0.0
 20
0.0
 30
0.0
 70
     1
 40
0.4158331134841628
 41
0.4158331134841628
  0
VERTEX
  5
3A0F
330
3A0E
100
AcDbEntity
  8
LOGO
 62
     5
100
AcDbVertex
100
AcDb2dVertex
 10
71.38172708637222
 20
19.6876372873147
 30
0.0
 42
1.0
  0
VERTEX
  5
3A10
330
3A0E
100
AcDbEntity
  8
LOGO
 62
     5
100
AcDbVertex
100
AcDb2dVertex
 10
73.04505954030884
 20
19.6876372873147
 30
0.0
 42
1.0
  0
SEQEND
  5
3A11
330
3A0E
100
AcDbEntity
  8
LOGO
 62
     5
  0
LINE
  5
3A12
330
1F
100
AcDbEntity
  8
LOGO
100
AcDbLine
 10
75.39631861934146
 20
18.6497178360587
 30
0.0
 11
75.39631861934146
 21
19.89522117756622
 31
0.0
  0
SOLID
  5
3A13
330
1F
100
AcDbEntity
  8
LOGO
 62
     5
100
AcDbTrace
 10
72.83610346731791
 20
20.72555673857134
 30
0.0
 11
73.25127124781971
 21
20.72555673857134
 31
0.0
 12
72.83610346731791
 22
18.6497178360587
 32
0.0
 13
73.25127124781971
 23
18.6497178360587
 33
0.0
  0
SOLID
  5
3A14
330
1F
100
AcDbEntity
  8
LOGO
 62
     5
100
AcDbTrace
 10
73.73564749733123
 20
18.6497178360587
 30
0.0
 11
74.15081527783428
 21
18.6497178360587
 31
0.0
 12
73.73564749733123
 22
20.72555673857134
 32
0.0
 13
74.15081527783428
 23
20.72555673857134
 33
0.0
  0
SOLID
  5
3A15
330
1F
100
AcDbEntity
  8
LOGO
 62
     5
100
AcDbTrace
 10
74.98115083883971
 20
19.89522117756622
 30
0.0
 11
75.39631861934146
 21
19.89522117756622
 31
0.0
 12
74.98115083883971
 22
18.6497178360587
 32
0.0
 13
75.39631861934146
 23
18.6497178360587
 33
0.0
  0
SOLID
  5
3A16
330
1F
100
AcDbEntity
  8
LOGO
 62
     5
100
AcDbTrace
 10
73.69413071928085
 20
33.30514048779957
 30
0.0
 11
72.49014415582405
 21
28.8905230884553
 31
0.0
 12
73.69413071928085
 22
22.80139564108399
 32
0.0
 13
72.49014415582405
 23
22.80139564108399
 33
0.0
  0
SOLID
  5
3A17
330
1F
100
AcDbEntity
  8
LOGO
 62
     5
100
AcDbTrace
 10
74.19233205588466
 20
22.80139564108399
 30
0.0
 11
75.39631861934146
 21
22.80139564108399
 31
0.0
 12
74.19233205588466
 22
34.21850960490511
 32
0.0
 13
75.39631861934146
 23
34.21850960490574
 33
0.0
  0
SOLID
  5
3A18
330
1F
100
AcDbEntity
  8
LOGO
 62
     2
100
AcDbTrace
 10
73.69413071928085
 20
34.21850960490574
 30
0.0
 11
74.19233205588466
 21
34.21850960490511
 31
0.0
 12
73.69413071928085
 22
22.80139564108399
 32
0.0
 13
74.19233205588466
 23
22.80139564108399
 33
0.0
  0
POLYLINE
  5
3A19
330
1F
100
AcDbEntity
  8
LOGO
 62
     5
100
AcDb2dPolyline
 66
     1
 10
0.0
 20
0.0
 30
0.0
 40
0.4158331134841628
 41
0.4158331134841628
  0
VERTEX
  5
3A1A
330
3A19
100
AcDbEntity
  8
LOGO
 62
     5
100
AcDbVertex
100
AcDb2dVertex
 10
69.2389668635077
 20
19.89522117756622
 30
0.0
 42
1.0
  0
VERTEX
  5
3A1B
330
3A19
100
AcDbEntity
  8
LOGO
 62
     5
100
AcDbVertex
100
AcDb2dVertex
 10
67.99146752305495
 20
19.89522117756622
 30
0.0
 42
1.0
  0
SEQEND
  5
3A1C
330
3A19
100
AcDbEntity
  8
LOGO
 62
     5
  0
POLYLINE
  5
3A1D
330
1F
100
AcDbEntity
  8
LOGO
 62
     5
100
AcDb2dPolyline
 66
     1
 10
0.0
 20
0.0
 30
0.0
 40
0.4158331134841628
 41
0.4158331134841628
  0
VERTEX
  5
3A1E
330
3A1D
100
AcDbEntity
  8
LOGO
 62
     5
100
AcDbVertex
100
AcDb2dVertex
 10
70.48447020501424
 20
19.89522117756622
 30
0.0
 42
1.0
  0
VERTEX
  5
3A1F
330
3A1D
100
AcDbEntity
  8
LOGO
 62
     5
100
AcDbVertex
100
AcDb2dVertex
 10
69.23697086456212
 20
19.89522117756622
 30
0.0
 42
1.0
  0
SEQEND
  5
3A20
330
3A1D
100
AcDbEntity
  8
LOGO
 62
     5
  0
POLYLINE
  5
3A21
330
1F
100
AcDbEntity
  8
LOGO
 62
     5
100
AcDb2dPolyline
 66
     1
 10
0.0
 20
0.0
 30
0.0
 40
0.4158331134841628
 41
0.4158331134841628
  0
VERTEX
  5
3A22
330
3A21
100
AcDbEntity
  8
LOGO
 62
     5
100
AcDbVertex
100
AcDb2dVertex
 10
64.53370433995854
 20
19.89522117756622
 30
0.0
 42
1.0
  0
VERTEX
  5
3A23
330
3A21
100
AcDbEntity
  8
LOGO
 62
     5
100
AcDbVertex
100
AcDb2dVertex
 10
63.28620499950642
 20
19.89522117756622
 30
0.0
 42
1.0
  0
SEQEND
  5
3A24
330
3A21
100
AcDbEntity
  8
LOGO
 62
     5
  0
SOLID
  5
3A25
330
1F
100
AcDbEntity
  8
LOGO
 62
     5
100
AcDbTrace
 10
63.07961910872768
 20
20.72555673857134
 30
0.0
 11
63.49478688922949
 21
20.72555673857134
 31
0.0
 12
63.07961910872768
 22
18.6497178360587
 32
0.0
 13
63.49478688922949
 23
18.6497178360587
 33
0.0
  0
SOLID
  5
3A26
330
1F
100
AcDbEntity
  8
LOGO
 62
     5
100
AcDbTrace
 10
64.32512245023554
 20
19.89522117756622
 30
0.0
 11
64.74029023073859
 21
19.89522117756622
 31
0.0
 12
64.32512245023554
 22
18.6497178360587
 32
0.0
 13
64.74029023073859
 23
18.6497178360587
 33
0.0
  0
POLYLINE
  5
3A27
330
1F
100
AcDbEntity
  8
LOGO
 62
     5
100
AcDb2dPolyline
 66
     1
 10
0.0
 20
0.0
 30
0.0
 70
     1
 40
0.4158331134841628
 41
0.4158331134841628
  0
VERTEX
  5
3A28
330
3A27
100
AcDbEntity
  8
LOGO
 62
     5
100
AcDbVertex
100
AcDb2dVertex
 10
65.4309612213159
 20
19.6876372873147
 30
0.0
 42
1.0
  0
VERTEX
  5
3A29
330
3A27
100
AcDbEntity
  8
LOGO
 62
     5
100
AcDbVertex
100
AcDb2dVertex
 10
67.09429367525314
 20
19.6876372873147
 30
0.0
 42
1.0
  0
SEQEND
  5
3A2A
330
3A27
100
AcDbEntity
  8
LOGO
 62
     5
  0
SOLID
  5
3A2B
330
1F
100
AcDbEntity
  8
LOGO
 62
     5
100
AcDbTrace
 10
66.88533760226096
 20
21.34830840932558
 30
0.0
 11
67.30050538276339
 21
21.34830840932558
 31
0.0
 12
66.88533760226096
 22
18.6497178360587
 32
0.0
 13
67.30050538276339
 23
18.6497178360587
 33
0.0
  0
SOLID
  5
3A2C
330
1F
100
AcDbEntity
  8
LOGO
 62
     5
100
AcDbTrace
 10
67.78488163227684
 20
20.72555673857134
 30
0.0
 11
68.20004941277858
 21
20.72555673857134
 31
0.0
 12
67.78488163227684
 22
18.6497178360587
 32
0.0
 13
68.20004941277858
 23
18.6497178360587
 33
0.0
  0
SOLID
  5
3A2D
330
1F
100
AcDbEntity
  8
LOGO
 62
     5
100
AcDbTrace
 10
69.03038497378338
 20
19.89522117756622
 30
0.0
 11
69.44555275428644
 21
19.89522117756622
 31
0.0
 12
69.03038497378338
 22
18.6497178360587
 32
0.0
 13
69.44555275428644
 23
18.6497178360587
 33
0.0
  0
SOLID
  5
3A2E
330
1F
100
AcDbEntity
  8
LOGO
 62
     5
100
AcDbTrace
 10
70.27588831529124
 20
19.89522117756622
 30
0.0
 11
70.69105609579361
 21
19.89522117756622
 31
0.0
 12
70.27588831529124
 22
18.64971783605807
 32
0.0
 13
70.69105609579361
 23
18.64971783605807
 33
0.0
  0
SOLID
  5
3A2F
330
1F
100
AcDbEntity
  8
LOGO
 62
     5
100
AcDbTrace
 10
62.18007507871249
 20
21.01617418492328
 30
0.0
 11
62.59524285921617
 21
21.01617418492328
 31
0.0
 12
62.18007507871249
 22
21.34830840932558
 32
0.0
 13
62.59524285921617
 23
21.34830840932558
 33
0.0
  0
SOLID
  5
3A30
330
1F
100
AcDbEntity
  8
LOGO
 62
     5
100
AcDbTrace
 10
62.18007507871249
 20
20.72555673857134
 30
0.0
 11
62.59524285921617
 21
20.72555673857134
 31
0.0
 12
62.18007507871249
 22
18.64971783605807
 32
0.0
 13
62.59524285921617
 23
18.6497178360587
 33
0.0
  0
SOLID
  5
3A31
330
1F
100
AcDbEntity
  8
LOGO
 62
     5
100
AcDbTrace
 10
66.2626274482842
 20
22.80139564108431
 30
0.0
 11
67.46661401174231
 21
22.80139564108431
 31
0.0
 12
66.2626274482842
 22
28.8905230884553
 32
0.0
 13
67.46661401174231
 23
33.30514048779957
 33
0.0
  0
SOLID
  5
3A32
330
1F
100
AcDbEntity
  8
LOGO
 62
     5
100
AcDbTrace
 10
67.96481534834606
 20
34.21850960490511
 30
0.0
 11
69.16880191180291
 21
34.21850960490574
 31
0.0
 12
67.96481534834606
 22
23.71476475818985
 32
0.0
 13
69.16880191180291
 23
28.12938215753412
 33
0.0
  0
SOLID
  5
3A33
330
1F
100
AcDbEntity
  8
LOGO
 62
     2
100
AcDbTrace
 10
67.46661401174231
 20
34.21850960490511
 30
0.0
 11
67.96481534834606
 21
34.21850960490511
 31
0.0
 12
67.46661401174231
 22
22.80139564108431
 32
0.0
 13
67.96481534834606
 23
22.80139564108431
 33
0.0
  0
SOLID
  5
3A34
330
1F
100
AcDbEntity
  8
LOGO
 62
     5
100
AcDbTrace
 10
67.96481534834606
 20
23.71476475818985
 30
0.0
 11
69.16880191180291
 21
28.12938215753412
 31
0.0
 12
73.69413071928085
 22
34.21850960490574
 32
0.0
 13
72.49014415582405
 23
34.21850960490574
 33
0.0
  0
SOLID
  5
3A35
330
1F
100
AcDbEntity
  8
LOGO
 62
     5
100
AcDbTrace
 10
67.96481534834606
 20
22.80139564108431
 30
0.0
 11
69.16880191180291
 21
22.80139564108431
 31
0.0
 12
73.69413071928085
 22
33.30514048779957
 32
0.0
 13
72.49014415582405
 23
28.8905230884553
 33
0.0
  0
SOLID
  5
3A36
330
1F
100
AcDbEntity
  8
LOGO
 62
     2
100
AcDbTrace
 10
67.46661401174231
 20
22.80139564108431
 30
0.0
 11
67.96481534834606
 21
22.80139564108431
 31
0.0
 12
73.69413071928085
 22
34.21850960490574
 32
0.0
 13
74.19233205588466
 23
34.21850960490511
 33
0.0
  0
TEXT
  5
3A76
330
1F
100
AcDbEntity
  8
LOGO
100
AcDbText
 10
119.4652927347147
 20
8.515407421343393
 30
0.0
 40
2.785
  1
10607264
 41
0.7
  7
CHINESET
 72
     1
 11
126.4742094013814
 21
8.515407421343393
 31
0.0
100
AcDbText
  0
LINE
  5
3A77
330
1F
100
AcDbEntity
  8
LOGO
 62
     4
100
AcDbLine
 10
135.1171752572484
 20
12.60320642934647
 30
0.0
 11
135.1171752572496
 21
7.034012945183228
 31
0.0
  0
LINE
  5
3A78
330
1F
100
AcDbEntity
  8
LOGO
 62
     4
100
AcDbLine
 10
135.1171752572484
 20
12.60320642934647
 30
0.0
 11
118.4071752572496
 21
12.60320642934647
 31
0.0
  0
LINE
  5
3A79
330
1F
100
AcDbEntity
  8
LOGO
  6
AM_ISO08W050x2
 48
0.3
100
AcDbLine
 10
102.7704398039803
 20
26.53214641256174
 30
0.0
 11
107.2280124690696
 21
26.53214641256174
 31
0.0
1001
GENIUS_GENOREF_13
1005
3A7E
  0
LINE
  5
3A7A
330
1F
100
AcDbEntity
  8
LOGO
  6
AM_ISO08W050x2
 48
0.3
100
AcDbLine
 10
104.9992261365249
 20
24.30336008001711
 30
0.0
 11
104.9992261365249
 21
28.76093274510637
 31
0.0
1001
GENIUS_GENOREF_13
1005
3A7D
  0
LINE
  5
3A7B
330
1F
100
AcDbEntity
  8
LOGO
  6
CENTER
 48
0.5
100
AcDbLine
 10
109.6854716025677
 20
26.53214641256174
 30
0.0
 11
115.6697899646152
 21
26.53214641256174
 31
0.0
1001
GENIUS_GENOREF_13
1005
3A7C
  0
POINT
  5
3A7C
330
1F
100
AcDbEntity
  8
0
 60
     1
100
AcDbPoint
 10
-1753.881171233674
 20
-919.756692738434
 30
0.0
1001
GENIUS_GENOBJ-N-CRS_13
1002
{
1000
OWNER
1000
GEN
1002
}
1001
GENIUS_GENOLIS_13
1002
{
1000
ENT
1005
0
1005
0
1005
0
1005
3A7B
1002
}
1001
GENIUS_GENOENT_13
1002
{
1000
MYREF
1005
3A7C
1002
}
1002
{
1000
GRP
1005
0
1002
}
1001
GENIUS_GENODEF_13
1002
{
1000
HIER
1070
    10
1002
}
1002
{
1000
MANEDIT
1070
     1
1002
}
1002
{
1000
NOSEL
1070
     0
1002
}
1002
{
1000
BEHIND
1070
     0
1002
}
1002
{
1000
OTHER
1070
     0
1002
}
1002
{
1000
REACTOR
1002
}
  0
POINT
  5
3A7D
330
1F
100
AcDbEntity
  8
0
 60
     1
100
AcDbPoint
 10
-1765.205756456529
 20
-910.8811062597977
 30
0.0
1001
GENIUS_GENOBJ-N-CRS_13
1002
{
1000
OWNER
1000
GEN
1002
}
1001
GENIUS_GENOLIS_13
1002
{
1000
ENT
1005
0
1005
0
1005
0
1005
3A7A
1002
}
1001
GENIUS_GENOENT_13
1002
{
1000
MYREF
1005
3A7D
1002
}
1002
{
1000
GRP
1005
0
1002
}
1001
GENIUS_GENODEF_13
1002
{
1000
HIER
1070
    10
1002
}
1002
{
1000
MANEDIT
1070
     1
1002
}
1002
{
1000
NOSEL
1070
     0
1002
}
1002
{
1000
BEHIND
1070
     0
1002
}
1002
{
1000
OTHER
1070
     0
1002
}
1002
{
1000
REACTOR
1002
}
  0
POINT
  5
3A7E
330
1F
100
AcDbEntity
  8
0
 60
     1
100
AcDbPoint
 10
-1758.847082758692
 20
-919.756692738434
 30
0.0
1001
GENIUS_GENOBJ-N-CRS_13
1002
{
1000
OWNER
1000
GEN
1002
}
1001
GENIUS_GENOLIS_13
1002
{
1000
ENT
1005
0
1005
0
1005
0
1005
3A79
1002
}
1001
GENIUS_GENOENT_13
1002
{
1000
MYREF
1005
3A7E
1002
}
1002
{
1000
GRP
1005
0
1002
}
1001
GENIUS_GENODEF_13
1002
{
1000
HIER
1070
    10
1002
}
1002
{
1000
MANEDIT
1070
     1
1002
}
1002
{
1000
NOSEL
1070
     0
1002
}
1002
{
1000
BEHIND
1070
     0
1002
}
1002
{
1000
OTHER
1070
     0
1002
}
1002
{
1000
REACTOR
1002
}
  0
TEXT
  5
3B86
330
1F
100
AcDbEntity
  8
0
100
AcDbText
 10
62.28501150021305
 20
136.6199879996514
 30
0.0
 40
4.0
  1
12 type
  7
CHINESET
100
AcDbText
  0
LINE
  5
3BF2
330
1F
100
AcDbEntity
  8
0
100
AcDbLine
 10
190.9139241175519
 20
237.5035260744281
 30
0.0
 11
190.9139241175506
 21
227.4235260744286
 31
0.0
  0
LINE
  5
3BF3
330
1F
100
AcDbEntity
  8
0
100
AcDbLine
 10
215.7414048903075
 20
234.1435260744284
 30
0.0
 11
215.7414048903076
 21
227.4235260744284
 31
0.0
  0
LINE
  5
3BF4
330
1F
100
AcDbEntity
  8
0
100
AcDbLine
 10
203.0185399425125
 20
237.5035260744281
 30
0.0
 11
203.0185399425131
 21
227.4235260744286
 31
0.0
  0
LINE
  5
3BF5
330
1F
100
AcDbEntity
  8
0
100
AcDbLine
 10
190.9139241175521
 20
227.4235260744284
 30
0.0
 11
253.9099997336911
 21
227.4235260744284
 31
0.0
  0
LINE
  5
3BF6
330
1F
100
AcDbEntity
  8
0
100
AcDbLine
 10
190.9139241175521
 20
230.7835260744284
 30
0.0
 11
253.9099997336909
 21
230.7835260744284
 31
0.0
  0
TEXT
  5
3BF7
330
1F
100
AcDbEntity
  8
0
100
AcDbText
 10
196.4523459285402
 20
227.994677392813
 30
0.0
 40
2.10953224323072
  1
5
 41
0.8
  7
CHINESET
 72
     4
 11
197.0148878600683
 21
229.0494435144283
 31
0.0
100
AcDbText
  0
TEXT
  5
3BF8
330
1F
100
AcDbEntity
  8
0
100
AcDbText
 10
193.8216841039584
 20
231.5964190925225
 30
0.0
 40
1.679999999999999
  1
Stroke
 41
0.8
  7
CHINESET
100
AcDbText
  0
TEXT
  5
3BF9
330
1F
100
AcDbEntity
  8
0
100
AcDbText
 10
207.4055839013763
 20
228.0120838621725
 30
0.0
 40
2.1
  1
26
 41
0.8
  7
CHINESET
100
AcDbText
  0
LINE
  5
3BFA
330
1F
100
AcDbEntity
  8
0
100
AcDbLine
 10
190.9139241175519
 20
237.5035260744282
 30
0.0
 11
253.9099997336905
 21
237.5035260744282
 31
0.0
  0
INSERT
  5
3BFB
330
1F
100
AcDbEntity
  8
0
100
AcDbBlockReference
  2
A$C5ECF147B
 10
190.4631737046214
 20
227.7182774082744
 30
0.0
 41
0.6719999999999971
 42
0.6719999999999971
 43
0.6719999999999999
  0
LINE
  5
3BFC
330
1F
100
AcDbEntity
  8
0
100
AcDbLine
 10
190.9139241175521
 20
234.1435260744284
 30
0.0
 11
253.9099997336908
 21
234.1435260744284
 31
0.0
  0
TEXT
  5
3BFD
330
1F
100
AcDbEntity
  8
0
100
AcDbText
 10
208.223998222324
 20
231.3720838621726
 30
0.0
 40
2.1
  1
S
 41
0.8
  7
CHINESET
100
AcDbText
  0
TEXT
  5
3BFE
330
1F
100
AcDbEntity
  8
0
100
AcDbText
 10
205.9024500911593
 20
234.7473185455299
 30
0.0
 40
2.1
  1
Without magnet
 41
0.8
  7
CHINESET
100
AcDbText
  0
LINE
  5
3BFF
330
1F
100
AcDbEntity
  8
0
100
AcDbLine
 10
228.464269838102
 20
237.5035260744282
 30
0.0
 11
228.4642698381021
 21
227.4235260744282
 31
0.0
  0
TEXT
  5
3C00
330
1F
100
AcDbEntity
  8
0
100
AcDbText
 10
220.8818933109041
 20
228.0120838621723
 30
0.0
 40
2.1
  1
49
 41
0.8
  7
CHINESET
100
AcDbText
  0
TEXT
  5
3C01
330
1F
100
AcDbEntity
  8
0
100
AcDbText
 10
220.9468631701187
 20
231.3720838621726
 30
0.0
 40
2.1
  1
ZZ
 41
0.8
  7
CHINESET
100
AcDbText
  0
LINE
  5
3C02
330
1F
100
AcDbEntity
  8
0
100
AcDbLine
 10
241.1871347858966
 20
234.1435260744284
 30
0.0
 11
241.1871347858966
 21
227.4235260744284
 31
0.0
  0
TEXT
  5
3C03
330
1F
100
AcDbEntity
  8
0
100
AcDbText
 10
232.8513137969653
 20
228.0120838621725
 30
0.0
 40
2.1
  1
36
 41
0.8
  7
CHINESET
100
AcDbText
  0
TEXT
  5
3C04
330
1F
100
AcDbEntity
  8
0
100
AcDbText
 10
233.6697281179131
 20
231.3720838621726
 30
0.0
 40
2.1
  1
S
 41
0.8
  7
CHINESET
100
AcDbText
  0
TEXT
  5
3C05
330
1F
100
AcDbEntity
  8
0
100
AcDbText
 10
233.1096437221844
 20
234.7473185455299
 30
0.0
 40
2.1
  1
With magnet
 41
0.8
  7
CHINESET
100
AcDbText
  0
TEXT
  5
3C06
330
1F
100
AcDbEntity
  8
0
100
AcDbText
 10
246.3276232064932
 20
228.0120838621723
 30
0.0
 40
2.1
  1
59
 41
0.8
  7
CHINESET
100
AcDbText
  0
TEXT
  5
3C07
330
1F
100
AcDbEntity
  8
0
100
AcDbText
 10
246.3925930657077
 20
231.3720838621726
 30
0.0
 40
2.1
  1
ZZ
 41
0.8
  7
CHINESET
100
AcDbText
  0
LINE
  5
3C08
330
1F
100
AcDbEntity
  8
0
100
AcDbLine
 10
253.909999733691
 20
237.5035260744282
 30
0.0
 11
253.9099997336911
 21
227.4235260744282
 31
0.0
  0
INSERT
  5
3C09
330
1F
100
AcDbEntity
  8
0
100
AcDbBlockReference
  2
A$C5ECF147B
 10
206.4554296416395
 20
227.7182774082744
 30
0.0
 41
0.6719999999999971
 42
0.6719999999999971
 43
0.6719999999999999
  0
INSERT
  5
3C0A
330
1F
100
AcDbEntity
  8
0
100
AcDbBlockReference
  2
A$C5ECF147B
 10
219.178294589434
 20
227.7182774082742
 30
0.0
 41
0.6719999999999971
 42
0.6719999999999971
 43
0.6719999999999999
  0
LEADER
  5
3C0D
330
1F
100
AcDbEntity
  8
DIM
100
AcDbLeader
  3
AM_ANSI$7
 73
     0
 74
     0
 75
     1
 40
8.666666666666666
 41
24.57142857142857
 76
     3
 10
227.4984058290716
 20
93.3795013442001
 30
0.0
 10
235.5777413359708
 20
99.60525786820037
 30
0.0
 10
237.5777413359708
 20
99.60525786820037
 30
0.0
340
3C0E
213
-0.1905629376930165
223
0.2179465301056638
233
0.0
1001
ACAD
1000
DSTYLE
1002
{
1070
    41
1040
2.0
1070
    42
1040
1.5
1070
    43
1040
8.0
1070
    44
1040
1.5
1070
    73
1070
     0
1070
    74
1070
     0
1070
    77
1070
     3
1070
   140
1040
2.0
1070
   141
1040
3.0
1070
   146
1040
0.6
1070
   147
1040
1.0
1070
   172
1070
     1
1070
   178
1070
   256
1070
   272
1070
     2
1070
   274
1070
     2
1070
   340
1005
3151
1002
}
  0
MTEXT
  5
3C0E
102
{ACAD_REACTORS
330
3C0D
102
}
330
1F
100
AcDbEntity
  8
DIM
100
AcDbMText
 10
238.7683042736638
 20
109.0539780047613
 30
0.0
 40
2.0
 41
0.0
 71
     1
 72
     1
  1
%%C9*7 depth\PM6*1.0*10 depth\P%%C5.1 thru
  7
dayus
 73
     1
 44
1.0
1001
ACAD
1000
MTEXTBEGIN
1070
    73
1070
     1
1070
    44
1040
1.0
1070
    74
1070
     0
1000
MTEXTEND
  0
LINE
  5
3C1A
330
1F
100
AcDbEntity
  8
0
100
AcDbLine
 10
190.9139241175519
 20
130.1047533755101
 30
0.0
 11
190.9139241175506
 21
120.0247533755106
 31
0.0
  0
LINE
  5
3C1B
330
1F
100
AcDbEntity
  8
0
100
AcDbLine
 10
215.7414048903075
 20
126.7447533755105
 30
0.0
 11
215.7414048903076
 21
120.0247533755105
 31
0.0
  0
LINE
  5
3C1C
330
1F
100
AcDbEntity
  8
0
100
AcDbLine
 10
203.0185399425125
 20
130.1047533755101
 30
0.0
 11
203.0185399425131
 21
120.0247533755106
 31
0.0
  0
LINE
  5
3C1D
330
1F
100
AcDbEntity
  8
0
100
AcDbLine
 10
190.9139241175521
 20
120.0247533755105
 30
0.0
 11
253.9099997336911
 21
120.0247533755105
 31
0.0
  0
LINE
  5
3C1E
330
1F
100
AcDbEntity
  8
0
100
AcDbLine
 10
190.9139241175521
 20
123.3847533755105
 30
0.0
 11
253.9099997336909
 21
123.3847533755105
 31
0.0
  0
TEXT
  5
3C1F
330
1F
100
AcDbEntity
  8
0
100
AcDbText
 10
196.4523459285402
 20
120.595904693895
 30
0.0
 40
2.10953224323072
  1
5
 41
0.8
  7
CHINESET
 72
     4
 11
197.0148878600683
 21
121.6506708155104
 31
0.0
100
AcDbText
  0
TEXT
  5
3C20
330
1F
100
AcDbEntity
  8
0
100
AcDbText
 10
193.8216841039584
 20
124.1976463936045
 30
0.0
 40
1.679999999999999
  1
Stroke
 41
0.8
  7
CHINESET
100
AcDbText
  0
TEXT
  5
3C21
330
1F
100
AcDbEntity
  8
0
100
AcDbText
 10
207.4055839013763
 20
120.6133111632545
 30
0.0
 40
2.1
  1
26
 41
0.8
  7
CHINESET
100
AcDbText
  0
LINE
  5
3C22
330
1F
100
AcDbEntity
  8
0
100
AcDbLine
 10
190.9139241175519
 20
130.1047533755102
 30
0.0
 11
253.9099997336905
 21
130.1047533755102
 31
0.0
  0
INSERT
  5
3C23
330
1F
100
AcDbEntity
  8
0
100
AcDbBlockReference
  2
A$C5ECF147B
 10
190.4631737046214
 20
120.3195047093565
 30
0.0
 41
0.6719999999999971
 42
0.6719999999999971
 43
0.6719999999999999
  0
LINE
  5
3C24
330
1F
100
AcDbEntity
  8
0
100
AcDbLine
 10
190.9139241175521
 20
126.7447533755104
 30
0.0
 11
253.9099997336908
 21
126.7447533755104
 31
0.0
  0
TEXT
  5
3C25
330
1F
100
AcDbEntity
  8
0
100
AcDbText
 10
208.223998222324
 20
123.9733111632546
 30
0.0
 40
2.1
  1
S
 41
0.8
  7
CHINESET
100
AcDbText
  0
TEXT
  5
3C26
330
1F
100
AcDbEntity
  8
0
100
AcDbText
 10
205.9024500911593
 20
127.348545846612
 30
0.0
 40
2.1
  1
Without magnet
 41
0.8
  7
CHINESET
100
AcDbText
  0
LINE
  5
3C27
330
1F
100
AcDbEntity
  8
0
100
AcDbLine
 10
228.464269838102
 20
130.1047533755102
 30
0.0
 11
228.4642698381021
 21
120.0247533755103
 31
0.0
  0
TEXT
  5
3C28
330
1F
100
AcDbEntity
  8
0
100
AcDbText
 10
220.8818933109041
 20
120.6133111632543
 30
0.0
 40
2.1
  1
32
 41
0.8
  7
CHINESET
100
AcDbText
  0
TEXT
  5
3C29
330
1F
100
AcDbEntity
  8
0
100
AcDbText
 10
220.9468631701187
 20
123.9733111632546
 30
0.0
 40
2.1
  1
ZZ
 41
0.8
  7
CHINESET
100
AcDbText
  0
LINE
  5
3C2A
330
1F
100
AcDbEntity
  8
0
100
AcDbLine
 10
241.1871347858966
 20
126.7447533755105
 30
0.0
 11
241.1871347858966
 21
120.0247533755105
 31
0.0
  0
TEXT
  5
3C2B
330
1F
100
AcDbEntity
  8
0
100
AcDbText
 10
232.8513137969653
 20
120.6133111632545
 30
0.0
 40
2.1
  1
36
 41
0.8
  7
CHINESET
100
AcDbText
  0
TEXT
  5
3C2C
330
1F
100
AcDbEntity
  8
0
100
AcDbText
 10
233.6697281179131
 20
123.9733111632546
 30
0.0
 40
2.1
  1
S
 41
0.8
  7
CHINESET
100
AcDbText
  0
TEXT
  5
3C2D
330
1F
100
AcDbEntity
  8
0
100
AcDbText
 10
233.1096437221844
 20
127.348545846612
 30
0.0
 40
2.1
  1
With magnet
 41
0.8
  7
CHINESET
100
AcDbText
  0
TEXT
  5
3C2E
330
1F
100
AcDbEntity
  8
0
100
AcDbText
 10
246.3276232064932
 20
120.6133111632543
 30
0.0
 40
2.1
  1
42
 41
0.8
  7
CHINESET
100
AcDbText
  0
TEXT
  5
3C2F
330
1F
100
AcDbEntity
  8
0
100
AcDbText
 10
246.3925930657077
 20
123.9733111632546
 30
0.0
 40
2.1
  1
ZZ
 41
0.8
  7
CHINESET
100
AcDbText
  0
LINE
  5
3C30
330
1F
100
AcDbEntity
  8
0
100
AcDbLine
 10
253.909999733691
 20
130.1047533755102
 30
0.0
 11
253.9099997336911
 21
120.0247533755103
 31
0.0
  0
INSERT
  5
3C31
330
1F
100
AcDbEntity
  8
0
100
AcDbBlockReference
  2
A$C5ECF147B
 10
206.4554296416395
 20
120.3195047093565
 30
0.0
 41
0.6719999999999971
 42
0.6719999999999971
 43
0.6719999999999999
  0
INSERT
  5
3C32
330
1F
100
AcDbEntity
  8
0
100
AcDbBlockReference
  2
A$C5ECF147B
 10
219.178294589434
 20
120.3195047093562
 30
0.0
 41
0.6719999999999971
 42
0.6719999999999971
 43
0.6719999999999999
  0
LINE
  5
3C6B
330
1F
100
AcDbEntity
  8
AM_7
  6
ACISOTGB
 62
     2
100
AcDbLine
 10
114.4870491023659
 20
204.2759167631489
 30
0.0
 11
114.4870491023659
 21
152.4478360907113
 31
0.0
1001
GENIUS_GENOBJ-N-CEN_13
1002
{
1000
OWNER
1000
GEN
1002
}
1001
GENIUS_GENODEF_13
1002
{
1000
HIER
1070
     0
1002
}
1002
{
1000
MANEDIT
1070
     0
1002
}
1002
{
1000
NOSEL
1070
     0
1002
}
1002
{
1000
BEHIND
1070
     0
1002
}
1002
{
1000
OTHER
1070
     0
1002
}
1002
{
1000
REACTOR
1002
}
1001
GENIUS_GENCEN_19
1002
{
1040
3.0
1002
}
  0
INSERT
  5
3C6C
330
1F
100
AcDbEntity
  8
0
100
AcDbBlockReference
  2
A$C1F6E6265
 10
114.4870486381593
 20
153.6136554019691
 30
0.0
  0
LINE
  5
3C6E
330
1F
100
AcDbEntity
  8
AM_7
  6
ACISOTGB
 62
     2
100
AcDbLine
 10
114.4870491023659
 20
99.35737909671832
 30
0.0
 11
114.4870491023659
 21
47.5292984242808
 31
0.0
1001
GENIUS_GENOBJ-N-CEN_13
1002
{
1000
OWNER
1000
GEN
1002
}
1001
GENIUS_GENODEF_13
1002
{
1000
HIER
1070
     0
1002
}
1002
{
1000
MANEDIT
1070
     0
1002
}
1002
{
1000
NOSEL
1070
     0
1002
}
1002
{
1000
BEHIND
1070
     0
1002
}
1002
{
1000
OTHER
1070
     0
1002
}
1002
{
1000
REACTOR
1002
}
1001
GENIUS_GENCEN_19
1002
{
1040
3.0
1002
}
  0
INSERT
  5
3C6F
330
1F
100
AcDbEntity
  8
0
100
AcDbBlockReference
  2
A$C1F6E6265
 10
114.4870486381593
 20
48.69511773553859
 30
0.0
  0
ENDSEC
  0
SECTION
  2
OBJECTS
  0
DICTIONARY
  5
C
330
0
100
AcDbDictionary
281
     1
  3
ACAD_COLOR
350
2FEA
  3
ACAD_GROUP
350
D
  3
ACAD_LAYOUT
350
1A
  3
ACAD_MATERIAL
350
2FE9
  3
ACAD_MLINESTYLE
350
17
  3
ACAD_PLOTSETTINGS
350
19
  3
ACAD_PLOTSTYLENAME
350
E
  3
ACAD_TABLESTYLE
350
2FEB
  3
AcadDim
350
1E82
  3
ACDBHEADERROUNDTRIPXREC
350
3CB8
  3
AcDbVariableDictionary
350
1488
  3
AcmDictionary
350
3900
  3
AMG
350
38AC
  3
AMGSNAPSETTINGS
350
39E0
  0
DICTIONARY
  5
315B
330
2
100
AcDbDictionary
280
     1
281
     1
  3
ACAD_LAYERSTATES
360
315C
  0
DICTIONARY
  5
2F55
330
1F
100
AcDbDictionary
280
     1
281
     1
  3
ACAD_LAYOUTSELFREF
360
2F8F
  0
DICTIONARY
  5
2F57
330
1B
100
AcDbDictionary
280
     1
281
     1
  3
ACAD_LAYOUTSELFREF
360
2F8E
  0
DICTIONARY
  5
2F59
330
23
100
AcDbDictionary
280
     1
281
     1
  3
ACAD_LAYOUTSELFREF
360
2F90
  0
DICTIONARY
  5
3BCF
330
3BCE
100
AcDbDictionary
280
     1
281
     1
  0
DICTIONARY
  5
3C58
330
3C57
100
AcDbDictionary
280
     1
281
     1
  3
ACAD_SORTENTS
360
3C59
  0
DICTIONARY
  5
3576
330
3575
100
AcDbDictionary
280
     1
281
     1
  3
ACAD_DIMASSOC
360
3577
  0
DICTIONARY
  5
3579
330
3578
100
AcDbDictionary
280
     1
281
     1
  3
ACAD_DIMASSOC
360
357A
  0
DICTIONARY
  5
357C
330
357B
100
AcDbDictionary
280
     1
281
     1
  3
ACAD_DIMASSOC
360
357D
  0
DICTIONARY
  5
357F
330
357E
100
AcDbDictionary
280
     1
281
     1
  3
ACAD_DIMASSOC
360
3580
  0
DICTIONARY
  5
3582
330
3581
100
AcDbDictionary
280
     1
281
     1
  3
ACAD_DIMASSOC
360
3583
  0
DICTIONARY
  5
3585
330
3584
100
AcDbDictionary
280
     1
281
     1
  3
ACAD_DIMASSOC
360
3586
  0
DICTIONARY
  5
3588
330
3587
100
AcDbDictionary
280
     1
281
     1
  3
ACAD_DIMASSOC
360
3589
  0
DICTIONARY
  5
358B
330
358A
100
AcDbDictionary
280
     1
281
     1
  3
ACAD_DIMASSOC
360
358C
  0
DICTIONARY
  5
358E
330
358D
100
AcDbDictionary
280
     1
281
     1
  3
ACAD_DIMASSOC
360
358F
  0
DICTIONARY
  5
3591
330
3590
100
AcDbDictionary
280
     1
281
     1
  3
ACAD_DIMASSOC
360
3592
  0
DICTIONARY
  5
3594
330
3593
100
AcDbDictionary
280
     1
281
     1
  3
ACAD_DIMASSOC
360
3595
  0
DICTIONARY
  5
359B
330
359A
100
AcDbDictionary
280
     1
281
     1
  3
ACAD_DIMASSOC
360
359C
  0
DICTIONARY
  5
35A0
330
359F
100
AcDbDictionary
280
     1
281
     1
  3
ACAD_DIMASSOC
360
35A1
  0
DICTIONARY
  5
35A3
330
35A2
100
AcDbDictionary
280
     1
281
     1
  3
ACAD_DIMASSOC
360
35A4
  0
DICTIONARY
  5
35A6
330
35A5
100
AcDbDictionary
280
     1
281
     1
  3
ACAD_DIMASSOC
360
35A7
  0
DICTIONARY
  5
35AB
330
35AA
100
AcDbDictionary
280
     1
281
     1
  3
ACAD_DIMASSOC
360
35AC
  0
DICTIONARY
  5
35AE
330
35AD
100
AcDbDictionary
280
     1
281
     1
  3
ACAD_DIMASSOC
360
35AF
  0
DICTIONARY
  5
35B1
330
35B0
100
AcDbDictionary
280
     1
281
     1
  3
ACAD_DIMASSOC
360
35B2
  0
DICTIONARY
  5
35B4
330
35B3
100
AcDbDictionary
280
     1
281
     1
  3
ACAD_DIMASSOC
360
35B5
  0
DICTIONARY
  5
35B7
330
35B6
100
AcDbDictionary
280
     1
281
     1
  3
ACAD_DIMASSOC
360
35B8
  0
DICTIONARY
  5
35BA
330
35B9
100
AcDbDictionary
280
     1
281
     1
  3
ACAD_DIMASSOC
360
35BB
  0
DICTIONARY
  5
35BD
330
35BC
100
AcDbDictionary
280
     1
281
     1
  3
ACAD_DIMASSOC
360
35BE
  0
DICTIONARY
  5
35C0
330
35BF
100
AcDbDictionary
280
     1
281
     1
  3
ACAD_DIMASSOC
360
35C1
  0
DICTIONARY
  5
35C5
330
35C4
100
AcDbDictionary
280
     1
281
     1
  3
ACAD_DIMASSOC
360
35C6
  0
DICTIONARY
  5
2FEA
102
{ACAD_REACTORS
330
C
102
}
330
C
100
AcDbDictionary
281
     1
  0
DICTIONARY
  5
D
102
{ACAD_REACTORS
330
C
102
}
330
C
100
AcDbDictionary
281
     1
  0
DICTIONARY
  5
1A
102
{ACAD_REACTORS
330
C
102
}
330
C
100
AcDbDictionary
281
     1
  3
Layout1
350
1E
  3
Layout2
350
26
  3
Model
350
22
  0
DICTIONARY
  5
2FE9
102
{ACAD_REACTORS
330
C
102
}
330
C
100
AcDbDictionary
281
     1
  0
DICTIONARY
  5
17
102
{ACAD_REACTORS
330
C
102
}
330
C
100
AcDbDictionary
281
     1
  3
Standard
350
18
  0
DICTIONARY
  5
19
102
{ACAD_REACTORS
330
C
102
}
330
C
100
AcDbDictionary
281
     1
  0
ACDBDICTIONARYWDFLT
  5
E
102
{ACAD_REACTORS
330
C
102
}
330
C
100
AcDbDictionary
281
     1
  3
Normal
350
F
100
AcDbDictionaryWithDefault
340
F
1001
ACAD
1000
TREAT_AS_HARD
1070
     0
  0
DICTIONARY
  5
2FEB
102
{ACAD_REACTORS
330
C
102
}
330
C
100
AcDbDictionary
281
     1
  3
Standard
350
2FEC
  0
XRECORD
  5
1E82
102
{ACAD_REACTORS
330
C
102
}
330
C
100
AcDbXrecord
280
     1
 90
   990106
  3

 60
     0
 61
     0
 62
     4
 63
     4
 64
     1
 65
     0
 66
     0
 67
     3
 68
     1
 69
     0
 70
     0
 71
     0
 72
     0
 40
0.0
170
     2
340
0
  0
DICTIONARY
  5
3CB8
102
{ACAD_REACTORS
330
C
102
}
330
C
100
AcDbDictionary
281
     1
  0
DICTIONARY
  5
1488
102
{ACAD_REACTORS
330
C
102
}
330
C
100
AcDbDictionary
281
     1
  3
CTABLESTYLE
350
374E
  3
DIMASSOC
350
3B07
  3
PROJECTNAME
350
3B08
  3
SORTENTS
350
1489
  0
DICTIONARY
  5
3900
102
{ACAD_REACTORS
330
C
102
}
330
C
100
AcDbDictionary
281
     1
  3
AcmStdDictionary
350
390D
  3
AMDTSECTSYM_ARROWCOLOR
350
3928
  0
DICTIONARY
  5
38AC
102
{ACAD_REACTORS
330
C
102
}
330
C
100
AcDbDictionary
281
     1
  0
DICTIONARY
  5
39E0
102
{ACAD_REACTORS
330
C
102
}
330
C
100
AcDbDictionary
281
     1
  0
DICTIONARY
  5
315C
102
{ACAD_REACTORS
330
315B
102
}
330
315B
100
AcDbDictionary
281
     1
  0
XRECORD
  5
2F8F
102
{ACAD_REACTORS
330
2F55
102
}
330
2F55
100
AcDbXrecord
280
     1
340
1F
  0
XRECORD
  5
2F8E
102
{ACAD_REACTORS
330
2F57
102
}
330
2F57
100
AcDbXrecord
280
     1
340
1B
  0
XRECORD
  5
2F90
102
{ACAD_REACTORS
330
2F59
102
}
330
2F59
100
AcDbXrecord
280
     1
340
23
  0
SORTENTSTABLE
  5
3C59
102
{ACAD_REACTORS
330
3C58
102
}
330
3C58
100
AcDbSortentsTable
330
3C57
  0
DIMASSOC
  5
3577
102
{ACAD_REACTORS
330
3576
102
}
330
3576
100
AcDbDimAssoc
330
3575
 90
        3
 70
     0
 71
     0
  1
AcDbOsnapPointRef
 72
     1
331
356E
 73
     2
 91
        0
 40
1.0
 10
0.0
 20
0.0
 30
2.000000000000000E+50
 75
     0
  1
AcDbOsnapPointRef
 72
     2
331
3571
 73
     2
 91
        0
 40
6.291242584380931
 10
0.0
 20
0.0
 30
0.0
 75
     0
  0
DIMASSOC
  5
357A
102
{ACAD_REACTORS
330
3579
102
}
330
3579
100
AcDbDimAssoc
330
3578
 90
        3
 70
     0
 71
     0
  1
AcDbOsnapPointRef
 72
    13
331
3533
 73
     2
 91
        0
 40
0.0
 10
0.0
 20
0.0
 30
2.000000000000000E+50
 75
     0
  1
AcDbOsnapPointRef
 72
    13
331
354F
 73
     2
 91
        0
 40
0.0
 10
0.0
 20
0.0
 30
2.000000000000000E+50
 75
     0
  0
DIMASSOC
  5
357D
102
{ACAD_REACTORS
330
357C
102
}
330
357C
100
AcDbDimAssoc
330
357B
 90
        3
 70
     0
 71
     0
  1
AcDbOsnapPointRef
 72
    13
331
3554
 73
     2
 91
        0
 40
0.0
 10
0.0
 20
0.0
 30
2.000000000000000E+50
 75
     0
  1
AcDbOsnapPointRef
 72
    13
331
354F
 73
     2
 91
        0
 40
0.0
 10
0.0
 20
0.0
 30
2.000000000000000E+50
 75
     0
  0
DIMASSOC
  5
3580
102
{ACAD_REACTORS
330
357F
102
}
330
357F
100
AcDbDimAssoc
330
357E
 90
        3
 70
     0
 71
     0
  1
AcDbOsnapPointRef
 72
     1
331
3526
 73
     2
 91
        0
 40
1.0
 10
0.0
 20
0.0
 30
2.000000000000000E+50
 75
     0
  1
AcDbOsnapPointRef
 72
    13
331
3520
 73
     2
 91
        0
 40
0.0
 10
0.0
 20
0.0
 30
2.000000000000000E+50
 75
     0
  0
DIMASSOC
  5
3583
102
{ACAD_REACTORS
330
3582
102
}
330
3582
100
AcDbDimAssoc
330
3581
 90
        3
 70
     0
 71
     0
  1
AcDbOsnapPointRef
 72
    13
331
352C
 73
     2
 91
        0
 40
0.0
 10
0.0
 20
0.0
 30
2.000000000000000E+50
 75
     0
  1
AcDbOsnapPointRef
 72
    13
331
354F
 73
     2
 91
        0
 40
0.0
 10
0.0
 20
0.0
 30
2.000000000000000E+50
 75
     0
  0
DIMASSOC
  5
3586
102
{ACAD_REACTORS
330
3585
102
}
330
3585
100
AcDbDimAssoc
330
3584
 90
        3
 70
     0
 71
     0
  1
AcDbOsnapPointRef
 72
     1
331
3527
 73
     2
 91
        0
 40
1.0
 10
0.0
 20
0.0
 30
2.000000000000000E+50
 75
     0
  1
AcDbOsnapPointRef
 72
    13
331
352C
 73
     2
 91
        0
 40
0.0
 10
0.0
 20
0.0
 30
2.000000000000000E+50
 75
     0
  0
DIMASSOC
  5
3589
102
{ACAD_REACTORS
330
3588
102
}
330
3588
100
AcDbDimAssoc
330
3587
 90
        3
 70
     0
 71
     0
  1
AcDbOsnapPointRef
 72
     6
331
352C
 73
     2
 91
        0
 40
0.9999999999999912
 10
0.0
 20
0.0
 30
0.0
332
3527
 74
     2
 92
        0
 75
     0
  1
AcDbOsnapPointRef
 72
     1
331
3525
 73
     2
 91
        0
 40
1.0
 10
0.0
 20
0.0
 30
2.000000000000000E+50
 75
     0
  0
DIMASSOC
  5
358C
102
{ACAD_REACTORS
330
358B
102
}
330
358B
100
AcDbDimAssoc
330
358A
 90
        3
 70
     0
 71
     0
  1
AcDbOsnapPointRef
 72
     1
331
3528
 73
     2
 91
        0
 40
1.0
 10
0.0
 20
0.0
 30
2.000000000000000E+50
 75
     0
  1
AcDbOsnapPointRef
 72
     1
331
3526
 73
     2
 91
        0
 40
1.0
 10
0.0
 20
0.0
 30
2.000000000000000E+50
 75
     0
  0
DIMASSOC
  5
358F
102
{ACAD_REACTORS
330
358E
102
}
330
358E
100
AcDbDimAssoc
330
358D
 90
        3
 70
     0
 71
     0
  1
AcDbOsnapPointRef
 72
     1
331
3527
 73
     2
 91
        0
 40
1.0
 10
0.0
 20
0.0
 30
2.000000000000000E+50
 75
     0
  1
AcDbOsnapPointRef
 72
    13
331
354F
 73
     2
 91
        0
 40
0.0
 10
0.0
 20
0.0
 30
2.000000000000000E+50
 75
     0
  0
DIMASSOC
  5
3592
102
{ACAD_REACTORS
330
3591
102
}
330
3591
100
AcDbDimAssoc
330
3590
 90
        3
 70
     0
 71
     0
  1
AcDbOsnapPointRef
 72
     1
331
3544
 73
     2
 91
        0
 40
0.9999999999999998
 10
0.0
 20
0.0
 30
2.000000000000000E+50
 75
     0
  1
AcDbOsnapPointRef
 72
    13
331
3540
 73
     2
 91
        0
 40
0.0
 10
0.0
 20
0.0
 30
2.000000000000000E+50
 75
     0
  0
DIMASSOC
  5
3595
102
{ACAD_REACTORS
330
3594
102
}
330
3594
100
AcDbDimAssoc
330
3593
 90
        3
 70
     0
 71
     0
  1
AcDbOsnapPointRef
 72
    13
331
351C
 73
     2
 91
        0
 40
4.712388980384689
 10
0.0
 20
0.0
 30
2.000000000000000E+50
 75
     0
  1
AcDbOsnapPointRef
 72
     1
331
3520
 73
     2
 91
        0
 40
1.570796326794896
 10
0.0
 20
0.0
 30
2.000000000000000E+50
 75
     0
  0
DIMASSOC
  5
359C
102
{ACAD_REACTORS
330
359B
102
}
330
359B
100
AcDbDimAssoc
330
359A
 90
        3
 70
     0
 71
     0
  1
AcDbOsnapPointRef
 72
     1
331
353D
 73
     2
 91
        0
 40
3.785093762383093
 10
0.0
 20
0.0
 30
2.000000000000000E+50
 75
     0
  1
AcDbOsnapPointRef
 72
     1
331
3553
 73
     2
 91
        0
 40
1.0
 10
0.0
 20
0.0
 30
2.000000000000000E+50
 75
     0
  0
DIMASSOC
  5
35A1
102
{ACAD_REACTORS
330
35A0
102
}
330
35A0
100
AcDbDimAssoc
330
359F
 90
        3
 70
     0
 71
     0
  1
AcDbOsnapPointRef
 72
    13
331
3568
 73
     2
 91
        0
 40
0.0
 10
0.0
 20
0.0
 30
2.000000000000000E+50
 75
     0
  1
AcDbOsnapPointRef
 72
    13
331
3566
 73
     2
 91
        0
 40
0.0
 10
0.0
 20
0.0
 30
2.000000000000000E+50
 75
     0
  0
DIMASSOC
  5
35A4
102
{ACAD_REACTORS
330
35A3
102
}
330
35A3
100
AcDbDimAssoc
330
35A2
 90
        3
 70
     0
 71
     0
  1
AcDbOsnapPointRef
 72
    13
331
33A4
 73
     2
 91
        0
 40
0.0
 10
0.0
 20
0.0
 30
2.000000000000000E+50
 75
     0
  1
AcDbOsnapPointRef
 72
     1
331
33DA
 73
     2
 91
        0
 40
1.0
 10
0.0
 20
0.0
 30
2.000000000000000E+50
 75
     0
  0
DIMASSOC
  5
35A7
102
{ACAD_REACTORS
330
35A6
102
}
330
35A6
100
AcDbDimAssoc
330
35A5
 90
        3
 70
     0
 71
     0
  1
AcDbOsnapPointRef
 72
     6
331
3423
 73
     2
 91
        0
 40
1.0
 10
0.0
 20
0.0
 30
0.0
332
342F
 74
     2
 92
        0
 75
     0
  1
AcDbOsnapPointRef
 72
     1
331
341B
 73
     2
 91
        0
 40
0.9999999999999998
 10
0.0
 20
0.0
 30
2.000000000000000E+50
 75
     0
  0
DIMASSOC
  5
35AC
102
{ACAD_REACTORS
330
35AB
102
}
330
35AB
100
AcDbDimAssoc
330
35AA
 90
        3
 70
     0
 71
     0
  1
AcDbOsnapPointRef
 72
     1
331
3468
 73
     2
 91
        0
 40
1.0
 10
0.0
 20
0.0
 30
2.000000000000000E+50
 75
     0
  1
AcDbOsnapPointRef
 72
     1
331
3461
 73
     2
 91
        0
 40
1.0
 10
0.0
 20
0.0
 30
2.000000000000000E+50
 75
     0
  0
DIMASSOC
  5
35AF
102
{ACAD_REACTORS
330
35AE
102
}
330
35AE
100
AcDbDimAssoc
330
35AD
 90
        3
 70
     0
 71
     0
  1
AcDbOsnapPointRef
 72
     1
331
3468
 73
     2
 91
        0
 40
1.0
 10
0.0
 20
0.0
 30
2.000000000000000E+50
 75
     0
  1
AcDbOsnapPointRef
 72
    13
331
3458
 73
     2
 91
        0
 40
0.0
 10
0.0
 20
0.0
 30
2.000000000000000E+50
 75
     0
  0
DIMASSOC
  5
35B2
102
{ACAD_REACTORS
330
35B1
102
}
330
35B1
100
AcDbDimAssoc
330
35B0
 90
        3
 70
     0
 71
     0
  1
AcDbOsnapPointRef
 72
     1
331
346E
 73
     2
 91
        0
 40
1.0
 10
0.0
 20
0.0
 30
2.000000000000000E+50
 75
     0
  1
AcDbOsnapPointRef
 72
     1
331
3467
 73
     2
 91
        0
 40
1.0
 10
0.0
 20
0.0
 30
2.000000000000000E+50
 75
     0
  0
DIMASSOC
  5
35B5
102
{ACAD_REACTORS
330
35B4
102
}
330
35B4
100
AcDbDimAssoc
330
35B3
 90
        3
 70
     0
 71
     0
  1
AcDbOsnapPointRef
 72
     1
331
346A
 73
     2
 91
        0
 40
1.0
 10
0.0
 20
0.0
 30
2.000000000000000E+50
 75
     0
  1
AcDbOsnapPointRef
 72
    13
331
346E
 73
     2
 91
        0
 40
0.0
 10
0.0
 20
0.0
 30
2.000000000000000E+50
 75
     0
  0
DIMASSOC
  5
35B8
102
{ACAD_REACTORS
330
35B7
102
}
330
35B7
100
AcDbDimAssoc
330
35B6
 90
        3
 70
     0
 71
     0
  1
AcDbOsnapPointRef
 72
     1
331
3469
 73
     2
 91
        0
 40
1.0
 10
0.0
 20
0.0
 30
2.000000000000000E+50
 75
     0
  1
AcDbOsnapPointRef
 72
    13
331
346E
 73
     2
 91
        0
 40
0.0
 10
0.0
 20
0.0
 30
2.000000000000000E+50
 75
     0
  0
DIMASSOC
  5
35BB
102
{ACAD_REACTORS
330
35BA
102
}
330
35BA
100
AcDbDimAssoc
330
35B9
 90
        3
 70
     0
 71
     0
  1
AcDbOsnapPointRef
 72
     1
331
3469
 73
     2
 91
        0
 40
1.0
 10
0.0
 20
0.0
 30
2.000000000000000E+50
 75
     0
  1
AcDbOsnapPointRef
 72
     1
331
3461
 73
     2
 91
        0
 40
1.0
 10
0.0
 20
0.0
 30
2.000000000000000E+50
 75
     0
  0
DIMASSOC
  5
35BE
102
{ACAD_REACTORS
330
35BD
102
}
330
35BD
100
AcDbDimAssoc
330
35BC
 90
        3
 70
     0
 71
     0
  1
AcDbOsnapPointRef
 72
     1
331
344D
 73
     2
 91
        0
 40
0.9999999999999998
 10
0.0
 20
0.0
 30
2.000000000000000E+50
 75
     0
  1
AcDbOsnapPointRef
 72
     1
331
345B
 73
     2
 91
        0
 40
1.0
 10
0.0
 20
0.0
 30
2.000000000000000E+50
 75
     0
  0
DIMASSOC
  5
35C1
102
{ACAD_REACTORS
330
35C0
102
}
330
35C0
100
AcDbDimAssoc
330
35BF
 90
        3
 70
     0
 71
     0
  1
AcDbOsnapPointRef
 72
    13
331
344A
 73
     2
 91
        0
 40
4.712388980384689
 10
0.0
 20
0.0
 30
2.000000000000000E+50
 75
     0
  1
AcDbOsnapPointRef
 72
     1
331
3458
 73
     2
 91
        0
 40
1.570796326794896
 10
0.0
 20
0.0
 30
2.000000000000000E+50
 75
     0
  0
DIMASSOC
  5
35C6
102
{ACAD_REACTORS
330
35C5
102
}
330
35C5
100
AcDbDimAssoc
330
35C4
 90
        3
 70
     0
 71
     0
  1
AcDbOsnapPointRef
 72
     1
331
3452
 73
     2
 91
        0
 40
0.9999999999999998
 10
0.0
 20
0.0
 30
2.000000000000000E+50
 75
     0
  1
AcDbOsnapPointRef
 72
     1
331
3454
 73
     2
 91
        0
 40
1.0
 10
0.0
 20
0.0
 30
2.000000000000000E+50
 75
     0
  0
LAYOUT
  5
1E
102
{ACAD_XDICTIONARY
360
3CB9
102
}
102
{ACAD_REACTORS
330
1A
102
}
330
1A
100
AcDbPlotSettings
  1

  2

  4

  6

 40
0.0
 41
0.0
 42
0.0
 43
0.0
 44
0.0
 45
0.0
 46
0.0
 47
0.0
 48
0.0
 49
0.0
140
0.0
141
0.0
142
1.0
143
1.0
 70
   688
 72
     0
 73
     0
 74
     5
  7

 75
    16
147
1.0
148
0.0
149
0.0
100
AcDbLayout
  1
Layout1
 70
     1
 71
     1
 10
0.0
 20
0.0
 11
12.0
 21
9.0
 12
0.0
 22
0.0
 32
0.0
 14
1.000000000000000E+20
 24
1.000000000000000E+20
 34
1.000000000000000E+20
 15
-1.000000000000000E+20
 25
-1.000000000000000E+20
 35
-1.000000000000000E+20
146
0.0
 13
0.0
 23
0.0
 33
0.0
 16
1.0
 26
0.0
 36
0.0
 17
0.0
 27
1.0
 37
0.0
 76
     0
330
1B
  0
LAYOUT
  5
26
102
{ACAD_XDICTIONARY
360
3CBD
102
}
102
{ACAD_REACTORS
330
1A
102
}
330
1A
100
AcDbPlotSettings
  1

  2

  4

  6

 40
0.0
 41
0.0
 42
0.0
 43
0.0
 44
0.0
 45
0.0
 46
0.0
 47
0.0
 48
0.0
 49
0.0
140
0.0
141
0.0
142
1.0
143
1.0
 70
   688
 72
     0
 73
     0
 74
     5
  7

 75
    16
147
1.0
148
0.0
149
0.0
100
AcDbLayout
  1
Layout2
 70
     1
 71
     2
 10
0.0
 20
0.0
 11
12.0
 21
9.0
 12
0.0
 22
0.0
 32
0.0
 14
0.0
 24
0.0
 34
0.0
 15
0.0
 25
0.0
 35
0.0
146
0.0
 13
0.0
 23
0.0
 33
0.0
 16
1.0
 26
0.0
 36
0.0
 17
0.0
 27
1.0
 37
0.0
 76
     0
330
23
  0
LAYOUT
  5
22
102
{ACAD_XDICTIONARY
360
3CBB
102
}
102
{ACAD_REACTORS
330
1A
102
}
330
1A
100
AcDbPlotSettings
  1

  2
DWF Classic.pc3
  4
ISO_A3_(420.00_x_297.00_MM)
  6

 40
5.793749809265136
 41
17.79375076293945
 42
5.79376220703125
 43
17.79376220703125
 44
420.0
 45
297.0
 46
43.31
 47
0.0
 48
0.0
 49
0.0
140
0.0
141
0.0
142
1.0
143
0.8509047238274899
 70
 11956
 72
     1
 73
     1
 74
     1
  7

 75
     0
147
1.175219706739737
148
-57.1339595094488
149
-6.995449403208453
100
AcDbLayout
  1
Model
 70
     1
 71
     0
 10
0.0
 20
0.0
 11
12.0
 21
9.0
 12
0.0
 22
0.0
 32
0.0
 14
0.0
 24
0.0
 34
0.0
 15
0.0
 25
0.0
 35
0.0
146
0.0
 13
0.0
 23
0.0
 33
0.0
 16
1.0
 26
0.0
 36
0.0
 17
0.0
 27
1.0
 37
0.0
 76
     0
330
1F
  0
MLINESTYLE
  5
18
102
{ACAD_REACTORS
330
17
102
}
330
17
100
AcDbMlineStyle
  2
STANDARD
 70
     0
  3

 62
   256
 51
90.0
 52
90.0
 71
     2
 49
0.5
 62
   256
  6
BYLAYER
 49
-0.5
 62
   256
  6
BYLAYER
  0
ACDBPLACEHOLDER
  5
F
102
{ACAD_REACTORS
330
E
102
}
330
E
  0
TABLESTYLE
  5
2FEC
102
{ACAD_REACTORS
330
2FEB
102
}
330
2FEB
100
AcDbTableStyle
  3
Standard
 70
     0
 71
     0
 40
1.5
 41
1.5
280
     0
281
     0
  7
Standard
140
4.5
170
     2
 62
     0
 63
     7
283
     0
274
    -2
284
     1
 64
     0
275
    -2
285
     1
 65
     0
276
    -2
286
     1
 66
     0
277
    -2
287
     1
 67
     0
278
    -2
288
     1
 68
     0
279
    -2
289
     1
 69
     0
  7
Standard
140
6.0
170
     5
 62
     0
 63
     7
283
     0
274
    -2
284
     1
 64
     0
275
    -2
285
     1
 65
     0
276
    -2
286
     1
 66
     0
277
    -2
287
     1
 67
     0
278
    -2
288
     1
 68
     0
279
    -2
289
     1
 69
     0
  7
Standard
140
4.5
170
     5
 62
     0
 63
     7
283
     0
274
    -2
284
     1
 64
     0
275
    -2
285
     1
 65
     0
276
    -2
286
     1
 66
     0
277
    -2
287
     1
 67
     0
278
    -2
288
     1
 68
     0
279
    -2
289
     1
 69
     0
  0
DICTIONARYVAR
  5
374E
102
{ACAD_REACTORS
330
1488
102
}
330
1488
100
DictionaryVariables
280
     0
  1
STANDARD
  0
DICTIONARYVAR
  5
3B07
102
{ACAD_REACTORS
330
1488
102
}
330
1488
100
DictionaryVariables
280
     0
  1
1
  0
DICTIONARYVAR
  5
3B08
102
{ACAD_REACTORS
330
1488
102
}
330
1488
100
DictionaryVariables
280
     0
  1

  0
DICTIONARYVAR
  5
1489
102
{ACAD_REACTORS
330
1488
102
}
330
1488
100
DictionaryVariables
280
     0
  1
96
  0
DICTIONARY
  5
390D
102
{ACAD_REACTORS
330
3900
102
}
330
3900
100
AcDbDictionary
281
     1
  0
XRECORD
  5
3928
102
{ACAD_REACTORS
330
3900
102
}
330
3900
100
AcDbXrecord
280
     1
 90
-1023410169
  0
DICTIONARY
  5
3CB9
330
1E
100
AcDbDictionary
280
     1
281
     1
  3
ACAD_XREC_ROUNDTRIP
360
3CBA
  0
DICTIONARY
  5
3CBD
330
26
100
AcDbDictionary
280
     1
281
     1
  3
ACAD_XREC_ROUNDTRIP
360
3CBE
  0
DICTIONARY
  5
3CBB
330
22
100
AcDbDictionary
280
     1
281
     1
  3
ACAD_XREC_ROUNDTRIP
360
3CBC
  0
XRECORD
  5
3CBA
102
{ACAD_REACTORS
330
3CB9
102
}
330
3CB9
100
AcDbXrecord
280
     1
102
SHADEPLOT
 70
     0
102
SHADEPLOTRESLEVEL
 70
     2
102
SHADEPLOTCUSTOMDPI
 70
   300
  0
XRECORD
  5
3CBE
102
{ACAD_REACTORS
330
3CBD
102
}
330
3CBD
100
AcDbXrecord
280
     1
102
SHADEPLOT
 70
     0
102
SHADEPLOTRESLEVEL
 70
     2
102
SHADEPLOTCUSTOMDPI
 70
   300
  0
XRECORD
  5
3CBC
102
{ACAD_REACTORS
330
3CBB
102
}
330
3CBB
100
AcDbXrecord
280
     1
102
SHADEPLOT
 70
     0
102
SHADEPLOTRESLEVEL
 70
     2
102
SHADEPLOTCUSTOMDPI
 70
   300
  0
ENDSEC
  0
EOF
