  0
SECTION
  2
HEADER
  9
$ACADVER
  1
AC1015
  9
$ACADMAINTVER
 70
    20
  9
$DWGCODEPAGE
  3
ANSI_950
  9
$INSBASE
 10
0.0
 20
0.0
 30
0.0
  9
$EXTMIN
 10
54.82243348658267
 20
6.72913811387707
 30
-0.0112582583443555
  9
$EXTMAX
 10
290.3865356596464
 20
264.3970107175591
 30
184.4750089836192
  9
$LIMMIN
 10
0.0
 20
0.0
  9
$LIMMAX
 10
12.0
 20
9.0
  9
$ORTHOMODE
 70
     1
  9
$REGENMODE
 70
     1
  9
$FILLMODE
 70
     1
  9
$QTEXTMODE
 70
     0
  9
$MIRRTEXT
 70
     1
  9
$LTSCALE
 40
3.0
  9
$ATTMODE
 70
     1
  9
$TEXTSIZE
 40
4.5
  9
$TRACEWID
 40
0.05
  9
$TEXTSTYLE
  7
CHINESET
  9
$CLAYER
  8
0
  9
$CELTYPE
  6
ByLayer
  9
$CECOLOR
 62
   256
  9
$CELTSCALE
 40
1.0
  9
$DISPSILH
 70
     0
  9
$DIMSCALE
 40
1.0
  9
$DIMASZ
 40
3.0
  9
$DIMEXO
 40
3.0
  9
$DIMDLI
 40
2.0
  9
$DIMRND
 40
0.0
  9
$DIMDLE
 40
0.0
  9
$DIMEXE
 40
2.0
  9
$DIMTP
 40
0.0
  9
$DIMTM
 40
0.0
  9
$DIMTXT
 40
3.0
  9
$DIMCEN
 40
-3.0
  9
$DIMTSZ
 40
0.0
  9
$DIMTOL
 70
     0
  9
$DIMLIM
 70
     0
  9
$DIMTIH
 70
     0
  9
$DIMTOH
 70
     0
  9
$DIMSE1
 70
     0
  9
$DIMSE2
 70
     0
  9
$DIMTAD
 70
     1
  9
$DIMZIN
 70
     8
  9
$DIMBLK
  1

  9
$DIMASO
 70
     1
  9
$DIMSHO
 70
     1
  9
$DIMPOST
  1

  9
$DIMAPOST
  1

  9
$DIMALT
 70
     0
  9
$DIMALTD
 70
     2
  9
$DIMALTF
 40
25.4
  9
$DIMLFAC
 40
1.0
  9
$DIMTOFL
 70
     1
  9
$DIMTVP
 40
0.0
  9
$DIMTIX
 70
     0
  9
$DIMSOXD
 70
     0
  9
$DIMSAH
 70
     0
  9
$DIMBLK1
  1

  9
$DIMBLK2
  1

  9
$DIMSTYLE
  2
ISO-25-1
  9
$DIMCLRD
 70
   256
  9
$DIMCLRE
 70
   256
  9
$DIMCLRT
 70
   256
  9
$DIMTFAC
 40
0.7
  9
$DIMGAP
 40
1.0
  9
$DIMJUST
 70
     0
  9
$DIMSD1
 70
     0
  9
$DIMSD2
 70
     0
  9
$DIMTOLJ
 70
     1
  9
$DIMTZIN
 70
     8
  9
$DIMALTZ
 70
     0
  9
$DIMALTTZ
 70
     0
  9
$DIMUPT
 70
     0
  9
$DIMDEC
 70
     2
  9
$DIMTDEC
 70
     8
  9
$DIMALTU
 70
     2
  9
$DIMALTTD
 70
     2
  9
$DIMTXSTY
  7
CHINESET
  9
$DIMAUNIT
 70
     0
  9
$DIMADEC
 70
     0
  9
$DIMALTRND
 40
0.0
  9
$DIMAZIN
 70
     2
  9
$DIMDSEP
 70
    46
  9
$DIMATFIT
 70
     0
  9
$DIMFRAC
 70
     0
  9
$DIMLDRBLK
  1

  9
$DIMLUNIT
 70
     2
  9
$DIMLWD
 70
    -1
  9
$DIMLWE
 70
    -1
  9
$DIMTMOVE
 70
     0
  9
$LUNITS
 70
     2
  9
$LUPREC
 70
     2
  9
$SKETCHINC
 40
0.1
  9
$FILLETRAD
 40
0.5
  9
$AUNITS
 70
     0
  9
$AUPREC
 70
     0
  9
$MENU
  1
.
  9
$ELEVATION
 40
0.0
  9
$PELEVATION
 40
0.0
  9
$THICKNESS
 40
0.0
  9
$LIMCHECK
 70
     0
  9
$CHAMFERA
 40
1.0
  9
$CHAMFERB
 40
1.0
  9
$CHAMFERC
 40
1.0
  9
$CHAMFERD
 40
0.0
  9
$SKPOLY
 70
     0
  9
$TDCREATE
 40
2452019.631085301
  9
$TDUCREATE
 40
2452019.297751968
  9
$TDUPDATE
 40
2453983.674702870
  9
$TDUUPDATE
 40
2453983.341369537
  9
$TDINDWG
 40
0.3483831713
  9
$TDUSRTIMER
 40
0.3483831713
  9
$USRTIMER
 70
     1
  9
$ANGBASE
 50
0.0
  9
$ANGDIR
 70
     0
  9
$PDMODE
 70
     0
  9
$PDSIZE
 40
0.0
  9
$PLINEWID
 40
0.0
  9
$SPLFRAME
 70
     0
  9
$SPLINETYPE
 70
     6
  9
$SPLINESEGS
 70
     8
  9
$HANDSEED
  5
44C8
  9
$SURFTAB1
 70
     6
  9
$SURFTAB2
 70
     6
  9
$SURFTYPE
 70
     6
  9
$SURFU
 70
     6
  9
$SURFV
 70
     6
  9
$UCSBASE
  2

  9
$UCSNAME
  2

  9
$UCSORG
 10
0.0
 20
0.0
 30
0.0
  9
$UCSXDIR
 10
1.0
 20
0.0
 30
0.0
  9
$UCSYDIR
 10
0.0
 20
1.0
 30
0.0
  9
$UCSORTHOREF
  2

  9
$UCSORTHOVIEW
 70
     0
  9
$UCSORGTOP
 10
0.0
 20
0.0
 30
0.0
  9
$UCSORGBOTTOM
 10
0.0
 20
0.0
 30
0.0
  9
$UCSORGLEFT
 10
0.0
 20
0.0
 30
0.0
  9
$UCSORGRIGHT
 10
0.0
 20
0.0
 30
0.0
  9
$UCSORGFRONT
 10
0.0
 20
0.0
 30
0.0
  9
$UCSORGBACK
 10
0.0
 20
0.0
 30
0.0
  9
$PUCSBASE
  2

  9
$PUCSNAME
  2

  9
$PUCSORG
 10
0.0
 20
0.0
 30
0.0
  9
$PUCSXDIR
 10
1.0
 20
0.0
 30
0.0
  9
$PUCSYDIR
 10
0.0
 20
1.0
 30
0.0
  9
$PUCSORTHOREF
  2

  9
$PUCSORTHOVIEW
 70
     0
  9
$PUCSORGTOP
 10
0.0
 20
0.0
 30
0.0
  9
$PUCSORGBOTTOM
 10
0.0
 20
0.0
 30
0.0
  9
$PUCSORGLEFT
 10
0.0
 20
0.0
 30
0.0
  9
$PUCSORGRIGHT
 10
0.0
 20
0.0
 30
0.0
  9
$PUCSORGFRONT
 10
0.0
 20
0.0
 30
0.0
  9
$PUCSORGBACK
 10
0.0
 20
0.0
 30
0.0
  9
$USERI1
 70
     0
  9
$USERI2
 70
     0
  9
$USERI3
 70
     0
  9
$USERI4
 70
     0
  9
$USERI5
 70
     0
  9
$USERR1
 40
0.0
  9
$USERR2
 40
0.0
  9
$USERR3
 40
0.0
  9
$USERR4
 40
0.0
  9
$USERR5
 40
0.0
  9
$WORLDVIEW
 70
     1
  9
$SHADEDGE
 70
     3
  9
$SHADEDIF
 70
    70
  9
$TILEMODE
 70
     1
  9
$MAXACTVP
 70
    48
  9
$PINSBASE
 10
0.0
 20
0.0
 30
0.0
  9
$PLIMCHECK
 70
     0
  9
$PEXTMIN
 10
1.000000000000000E+20
 20
1.000000000000000E+20
 30
1.000000000000000E+20
  9
$PEXTMAX
 10
-1.000000000000000E+20
 20
-1.000000000000000E+20
 30
-1.000000000000000E+20
  9
$PLIMMIN
 10
0.0
 20
0.0
  9
$PLIMMAX
 10
12.0
 20
9.0
  9
$UNITMODE
 70
     0
  9
$VISRETAIN
 70
     1
  9
$PLINEGEN
 70
     0
  9
$PSLTSCALE
 70
     1
  9
$TREEDEPTH
 70
  3020
  9
$CMLSTYLE
  2
Standard
  9
$CMLJUST
 70
     0
  9
$CMLSCALE
 40
1.0
  9
$PROXYGRAPHICS
 70
     1
  9
$MEASUREMENT
 70
     1
  9
$CELWEIGHT
370
    -1
  9
$ENDCAPS
280
     0
  9
$JOINSTYLE
280
     0
  9
$LWDISPLAY
290
     0
  9
$INSUNITS
 70
     1
  9
$HYPERLINKBASE
  1

  9
$STYLESHEET
  1
彩色出圖.ctb
  9
$XEDIT
290
     1
  9
$CEPSNTYPE
380
     0
  9
$PSTYLEMODE
290
     1
  9
$FINGERPRINTGUID
  2
{FDEAD576-A652-11D2-9A35-0060089B3A3F}
  9
$VERSIONGUID
  2
{DD2BAA86-5B6C-43E6-B0AB-3AEE6B61DAAA}
  9
$EXTNAMES
290
     1
  9
$PSVPSCALE
 40
0.0
  9
$OLESTARTUP
290
     0
  0
ENDSEC
  0
SECTION
  2
CLASSES
  0
CLASS
  1
ACDBDICTIONARYWDFLT
  2
AcDbDictionaryWithDefault
  3
ObjectDBX Classes
 90
        0
280
     0
281
     0
  0
CLASS
  1
ACDBPLACEHOLDER
  2
AcDbPlaceHolder
  3
ObjectDBX Classes
 90
        0
280
     0
281
     0
  0
CLASS
  1
LAYOUT
  2
AcDbLayout
  3
ObjectDBX Classes
 90
        0
280
     0
281
     0
  0
CLASS
  1
DICTIONARYVAR
  2
AcDbDictionaryVar
  3
ObjectDBX Classes
 90
        0
280
     0
281
     0
  0
CLASS
  1
TABLESTYLE
  2
AcDbTableStyle
  3
ObjectDBX Classes
 90
     2047
280
     0
281
     0
  0
CLASS
  1
DIMASSOC
  2
AcDbDimAssoc
  3
"AcDbDimAssoc|Product Desc:     AcDim ARX App For Dimension|Company:          Autodesk, Inc.|WEB Address:      www.autodesk.com"
 90
        0
280
     0
281
     0
  0
CLASS
  1
SORTENTSTABLE
  2
AcDbSortentsTable
  3
ObjectDBX Classes
 90
        0
280
     0
281
     0
  0
CLASS
  1
ACME_DOCUMENT
  2
AcMeDbDoc
  3
AcMeServices
 90
        0
280
     0
281
     0
  0
CLASS
  1
AMGSETTINGSOBJ
  2
AmgSettingsObj
  3
"AcadM|Product Description: AutoCAD Mechanical 2000|Company: Autodesk"
 90
        0
280
     0
281
     0
  0
CLASS
  1
ACMESCOPE
  2
AcMeScope
  3
AcMeServices
 90
        0
280
     0
281
     0
  0
CLASS
  1
ACMECOMMANDHISTORY
  2
AcMeCommandHistory
  3
AcMeServices
 90
        0
280
     0
281
     0
  0
CLASS
  1
ACIMSYSVARMAN
  2
AcImSysVarManager
  3
AcMeServices
 90
        0
280
     0
281
     0
  0
CLASS
  1
ACIMINTSYSVAR
  2
AcImIntSysVar
  3
AcMeServices
 90
        0
280
     0
281
     0
  0
CLASS
  1
ACMEDRAWINGMAN
  2
AcMeDrawingMan
  3
AcMeServices
 90
        0
280
     0
281
     0
  0
CLASS
  1
ACMEVIEW
  2
AcMeView
  3
AcMeServices
 90
        0
280
     0
281
     0
  0
CLASS
  1
ACDBENTITYCACHE
  2
AcMeEntityCache
  3
AcMeServices
 90
        0
280
     0
281
     0
  0
CLASS
  1
GSMANAGER
  2
AcMeGSManager
  3
AcMeServices
 90
        0
280
     0
281
     0
  0
CLASS
  1
AMDTINTERNALREACTOR
  2
AmdtInternalReactor
  3
AcMeServices
 90
        0
280
     0
281
     0
  0
CLASS
  1
ACMESTATEMGR
  2
AcMeStateMgr
  3
AcMeServices
 90
        0
280
     0
281
     0
  0
CLASS
  1
ACGREFMASTER
  2
AcGrefMaster
  3
AcAttribServices
 90
        0
280
     0
281
     0
  0
CLASS
  1
AM_DRAWING_MGR
  2
AcDmDwgMgr
  3
AcMechDwgViewMgmt
 90
        0
280
     0
281
     0
  0
CLASS
  1
AM_DWG_DOCUMENT
  2
AcDmDwgDocument
  3
AcMechDwgViewMgmt
 90
        0
280
     0
281
     0
  0
CLASS
  1
AM_DWG_SHEET
  2
AcDmSheet
  3
AcMechDwgViewMgmt
 90
        0
280
     0
281
     0
  0
CLASS
  1
AM_VIEWDIMPARMAP
  2
AcDmViewDimParMap
  3
AcMechDwgViewMgmt
 90
        0
280
     0
281
     0
  0
CLASS
  1
ACIMREALSYSVAR
  2
AcImRealSysVar
  3
AcMeServices
 90
        0
280
     0
281
     0
  0
CLASS
  1
AM_DWGMGR_NAME
  2
AcDmDwgMgrName
  3
AcMechDwgViewMgmt
 90
        0
280
     0
281
     0
  0
CLASS
  1
ACME_DATABASE
  2
AcMeDbDatabase
  3
AcMeServices
 90
        0
280
     0
281
     0
  0
CLASS
  1
ACRFINSADJUSTERMGR
  2
AcRfInsAdjusterMgr
  3
AcMeServices
 90
        0
280
     0
281
     0
  0
CLASS
  1
ACGREFACADMASTER
  2
AcGrefacadMaster
  3
AcGrefServices
 90
        0
280
     0
281
     0
  0
CLASS
  1
AMDTMENUSTATEMGR
  2
AmdtMenuStateMgr
  3
McadcomServices
 90
        0
280
     0
281
     0
  0
CLASS
  1
AMDTMCOMMENUSTATE
  2
AmdtMcomMenuState
  3
McadcomServices
 90
        0
280
     0
281
     0
  0
CLASS
  1
AMIMASTER
  2
AmiMaster
  3
AmiServices
 90
        0
280
     0
281
     0
  0
CLASS
  1
MAPIAMMOUDLE
  2
MApiAmModule
  3
MApiAmServices
 90
        0
280
     0
281
     0
  0
CLASS
  1
AMDTADMENUSTATE
  2
AmdtAdMenuState
  3
DesignerServices
 90
        0
280
     0
281
     0
  0
CLASS
  1
ADAPPL
  2
AcAdAppl
  3
DesignerServices
 90
        0
280
     0
281
     0
  0
CLASS
  1
DEPMGR
  2
AcAdDepMgr
  3
DesignerServices
 90
        0
280
     0
281
     0
  0
CLASS
  1
PARAMMGR
  2
AcAdParamMgr
  3
DesignerServices
 90
        0
280
     0
281
     0
  0
CLASS
  1
PARAMSCOPE
  2
AcAdParamScope
  3
DesignerServices
 90
        0
280
     0
281
     0
  0
CLASS
  1
NAMEDAPPL
  2
AcAdNamedAppl
  3
DesignerServices
 90
        0
280
     0
281
     0
  0
CLASS
  1
AMDTDMMENUSTATE
  2
AmdtDmMenuState
  3
AcMechDwgViewMgmt
 90
        0
280
     0
281
     0
  0
CLASS
  1
AMDTAMMENUSTATE
  2
AmdtAmMenuState
  3
DesignerAssemblies
 90
        0
280
     0
281
     0
  0
CLASS
  1
ACIMSTRSYSVAR
  2
AcImStrSysVar
  3
AcMeServices
 90
        0
280
     0
281
     0
  0
CLASS
  1
ACAMPROJECT
  2
AcAmProject
  3
DesignerAssemblies
 90
        0
280
     0
281
     0
  0
CLASS
  1
ACAMGRCOMPDEF
  2
AcAmGrCompDef
  3
DesignerAssemblies
 90
        0
280
     0
281
     0
  0
CLASS
  1
ACCMCONTEXT
  2
AcCmContext
  3
DesignerAssemblies
 90
        0
280
     0
281
     0
  0
CLASS
  1
ACAMCOMPDEF
  2
AcAmCompDef
  3
DesignerAssemblies
 90
        0
280
     0
281
     0
  0
CLASS
  1
ACAMCOMPDEFMGR
  2
AcAmCompDefMgr
  3
DesignerAssemblies
 90
        0
280
     0
281
     0
  0
CLASS
  1
AMCONTEXTMGR
  2
AcAmContextMgr
  3
DesignerAssemblies
 90
        0
280
     0
281
     0
  0
CLASS
  1
ACAMCONTEXTMODELER
  2
AcAmContextModeler
  3
DesignerAssemblies
 90
        0
280
     0
281
     0
  0
CLASS
  1
ACMDATADICTIONARY
  2
AcmDataDictionary
  3
"AcmSymBB|Product Description: AutoCAD Mechanical 2004 DX|Company: Autodesk"
 90
        0
280
     0
281
     0
  0
CLASS
  1
CATALOGSTATE
  2
AcAmCatalogState
  3
DesignerAssemblies
 90
        0
280
     0
281
     0
  0
CLASS
  1
ACAMGRCOMPDEFSET
  2
AcAmGrCompDefSet
  3
DesignerAssemblies
 90
        0
280
     0
281
     0
  0
CLASS
  1
AMDTBROWSERDBTAB
  2
AmdtBrowserDbTab
  3
McadcomServices
 90
        0
280
     0
281
     0
  0
CLASS
  1
CBROWSERAPPOBJECT
  2
CBrowserAppObject
  3
McadcomServices
 90
        0
280
     0
281
     0
  0
CLASS
  1
DM_PLACEHOLDER
  2
AcDmSelsetPlaceholder
  3
AcMechDwgViewMgmt
 90
        0
280
     0
281
     0
  0
CLASS
  1
ACMSTANDARDISO
  2
AcmStandardISO
  3
"Amdt_StdImp|Product Description: AutoCAD Mechanical 2004 DX|Company: Autodesk"
 90
        0
280
     0
281
     0
  0
CLASS
  1
AMGOBJPROPCFG
  2
AmgObjPropCfg
  3
"AmgLay|Product Description: AutoCAD Mechanical 2000|Company: Autodesk"
 90
        1
280
     0
281
     0
  0
CLASS
  1
AMDTEDGESTANDARDISO13715
  2
AmdtEdgeStdISO13715
  3
"Amdt_StdImp|Product Description: AutoCAD Mechanical 2004 DX|Company: Autodesk"
 90
        0
280
     0
281
     0
  0
CLASS
  1
ACMSURFSTANDARDISO
  2
AcmSurfTextStdISO
  3
"Amdt_StdImp|Product Description: AutoCAD Mechanical 2004 DX|Company: Autodesk"
 90
        0
280
     0
281
     0
  0
CLASS
  1
ACMFCFSTANDARDISO
  2
AcmFCFStdISO
  3
"Amdt_StdImp|Product Description: AutoCAD Mechanical 2004 DX|Company: Autodesk"
 90
        0
280
     0
281
     0
  0
CLASS
  1
ACMWELDSTANDARDISO
  2
AcmWeldingStdISO
  3
"Amdt_StdImp|Product Description: AutoCAD Mechanical 2004 DX|Company: Autodesk"
 90
        0
280
     0
281
     0
  0
CLASS
  1
ACMIDSTANDARDISO
  2
AcmIdStdISO
  3
"Amdt_StdImp|Product Description: AutoCAD Mechanical 2004 DX|Company: Autodesk"
 90
        0
280
     0
281
     0
  0
CLASS
  1
ACMDATUMSTANDARDISO
  2
AcmDatumStdISO
  3
"Amdt_StdImp|Product Description: AutoCAD Mechanical 2004 DX|Company: Autodesk"
 90
        0
280
     0
281
     0
  0
CLASS
  1
ACMBOMSTANDARDISO
  2
AcmBOMStdISO
  3
"Amdt_StdImp|Product Description: AutoCAD Mechanical 2004 DX|Company: Autodesk"
 90
        0
280
     0
281
     0
  0
CLASS
  1
ACMDETAILSTANDARDISO
  2
AmdtDetailSymStdISO
  3
"Amdt_StdImp|Product Description: AutoCAD Mechanical 2004 DX|Company: Autodesk"
 90
        0
280
     0
281
     0
  0
CLASS
  1
ACMSECTIONSTANDARDISO
  2
AmdtSectionSymStdISO
  3
"Amdt_StdImp|Product Description: AutoCAD Mechanical 2004 DX|Company: Autodesk"
 90
        0
280
     0
281
     0
  0
CLASS
  1
ACMCENTERLINESTANDARDISO
  2
AmdtCenterLineStdISO
  3
"Amdt_StdImp|Product Description: AutoCAD Mechanical 2004 DX|Company: Autodesk"
 90
        0
280
     0
281
     0
  0
CLASS
  1
ACMTHREADLINESTANDARDISO
  2
AmdtThreadLineStdISO
  3
"Amdt_StdImp|Product Description: AutoCAD Mechanical 2004 DX|Company: Autodesk"
 90
        0
280
     0
281
     0
  0
CLASS
  1
ACMNOTESTANDARDISO
  2
AmdtNoteStdISO
  3
"Amdt_StdImp|Product Description: AutoCAD Mechanical 2004 DX|Company: Autodesk"
 90
        0
280
     0
281
     0
  0
CLASS
  1
AMDTNOTETEMPLATEDB
  2
AmdtNoteTemplateDB
  3
AMDT_STDIMP_MODULE_NAME
 90
        0
280
     0
281
     0
  0
CLASS
  1
ACAMGLAYSTD
  2
AcAmgLayStd
  3
"AcAmgLayStd|Product Description: AutoCAD Mechanical 2000|Company: Autodesk"
 90
        0
280
     0
281
     0
  0
CLASS
  1
ACAMGDIMSTD
  2
AcAmgDimStd
  3
"AcAmgDimStd|Product Description: AutoCAD Mechanical 2000|Company: Autodesk"
 90
        0
280
     0
281
     0
  0
CLASS
  1
ACAMGHOLECHARTSTDISO
  2
AcAmgHoleChartStdISO
  3
ACMSYMBB_MODULE_NAME
 90
        0
280
     0
281
     0
  0
CLASS
  1
ACAMGTITLESTD
  2
AcAmgTitleStd
  3
"TITLEAPP"
 90
        0
280
     0
281
     0
  0
CLASS
  1
ACAMGFILTERDAT
  2
AcAmgFilterDat
  3
"AcadM|Product Description: AutoCAD Mechanical 2000|Company: Autodesk"
 90
    32768
280
     0
281
     0
  0
ENDSEC
  0
SECTION
  2
TABLES
  0
TABLE
  2
VPORT
  5
8
330
0
100
AcDbSymbolTable
 70
     3
  0
VPORT
  5
44C0
330
8
100
AcDbSymbolTableRecord
100
AcDbViewportTableRecord
  2
*Active
 70
     0
 10
0.0
 20
0.0
 11
1.0
 21
1.0
 12
172.5992168611596
 22
135.5589371696348
 13
0.0
 23
0.0
 14
0.5
 24
0.5
 15
0.5
 25
0.5
 16
0.0
 26
0.0
 36
1.0
 17
0.0
 27
0.0
 37
0.0
 40
259.7491230044671
 41
1.609210526315789
 42
50.0
 43
0.0
 44
0.0
 50
0.0
 51
0.0
 71
     0
 72
   100
 73
     1
 74
     3
 75
     0
 76
     0
 77
     0
 78
     0
281
     0
 65
     1
110
0.0
120
0.0
130
0.0
111
1.0
121
0.0
131
0.0
112
0.0
122
1.0
132
0.0
 79
     0
146
0.0
  0
ENDTAB
  0
TABLE
  2
LTYPE
  5
5
330
0
100
AcDbSymbolTable
 70
    14
  0
LTYPE
  5
14
330
5
100
AcDbSymbolTableRecord
100
AcDbLinetypeTableRecord
  2
ByBlock
 70
     0
  3

 72
    65
 73
     0
 40
0.0
  0
LTYPE
  5
15
330
5
100
AcDbSymbolTableRecord
100
AcDbLinetypeTableRecord
  2
ByLayer
 70
     0
  3

 72
    65
 73
     0
 40
0.0
  0
LTYPE
  5
16
330
5
100
AcDbSymbolTableRecord
100
AcDbLinetypeTableRecord
  2
Continuous
 70
     0
  3
Solid line
 72
    65
 73
     0
 40
0.0
  0
LTYPE
  5
4F
330
5
100
AcDbSymbolTableRecord
100
AcDbLinetypeTableRecord
  2
CENTER
 70
     0
  3
Center ____ _ ____ _ ____ _ ____ _ ____ _ ____
 72
    65
 73
     4
 40
2.0
 49
1.25
 74
     0
 49
-0.25
 74
     0
 49
0.25
 74
     0
 49
-0.25
 74
     0
  0
LTYPE
  5
29BC
330
5
100
AcDbSymbolTableRecord
100
AcDbLinetypeTableRecord
  2
HIDDEN
 70
     0
  3
__ __ __ __ __ __ __ __ __ __ __ __ __ __ __ __
 72
    65
 73
     2
 40
0.375
 49
0.25
 74
     0
 49
-0.125
 74
     0
  0
LTYPE
  5
29BD
330
5
100
AcDbSymbolTableRecord
100
AcDbLinetypeTableRecord
  2
PHANTOM2
 70
     0
  3
___ _ _ ___ _ _ ___ _ _ ___ _ _ ___ _ _ ___ _ _
 72
    65
 73
     6
 40
1.25
 49
0.625
 74
     0
 49
-0.125
 74
     0
 49
0.125
 74
     0
 49
-0.125
 74
     0
 49
0.125
 74
     0
 49
-0.125
 74
     0
  0
LTYPE
  5
29C2
330
5
100
AcDbSymbolTableRecord
100
AcDbLinetypeTableRecord
  2
Amconstr
 70
     0
  3
_______________________
 72
    65
 73
     2
 40
9999.0
 49
9999.0
 74
     0
 49
0.0
 74
     0
  0
LTYPE
  5
405F
330
5
100
AcDbSymbolTableRecord
100
AcDbLinetypeTableRecord
  2
AM_ISO02W050
 70
     0
  3
__ __ __ __ __ __ __ __ __ __ __ __ __ __ __
 72
    65
 73
     2
 40
7.5
 49
6.0
 74
     0
 49
-1.5
 74
     0
  0
LTYPE
  5
4060
330
5
100
AcDbSymbolTableRecord
100
AcDbLinetypeTableRecord
  2
AM_ISO08W050
 70
     0
  3
____ . ____ . ____ . ____ . ____ . ____ . ____
 72
    65
 73
     4
 40
18.0
 49
12.0
 74
     0
 49
-1.5
 74
     0
 49
3.0
 74
     0
 49
-1.5
 74
     0
  0
LTYPE
  5
4061
330
5
100
AcDbSymbolTableRecord
100
AcDbLinetypeTableRecord
  2
AM_ISO09W050
 70
     0
  3
_____ . . _____ . . _____ . . ____ .. ____
 72
    65
 73
     6
 40
22.5
 49
12.0
 74
     0
 49
-1.5
 74
     0
 49
3.0
 74
     0
 49
-1.5
 74
     0
 49
3.0
 74
     0
 49
-1.5
 74
     0
  0
LTYPE
  5
4062
330
5
100
AcDbSymbolTableRecord
100
AcDbLinetypeTableRecord
  2
AM_ISO08W050x2
 70
     0
  3
__ . __ . __ . __ . __ . __
 72
    65
 73
     4
 40
9.0
 49
6.0
 74
     0
 49
-0.75
 74
     0
 49
1.5
 74
     0
 49
-0.75
 74
     0
  0
LTYPE
  5
4063
330
5
100
AcDbSymbolTableRecord
100
AcDbLinetypeTableRecord
  2
AM_ISO02W050x2
 70
     0
  3
 _ _ _ _ _ _ _ _ _ _ _ _
 72
    65
 73
     2
 40
3.75
 49
3.0
 74
     0
 49
-0.75
 74
     0
  0
LTYPE
  5
4064
330
5
100
AcDbSymbolTableRecord
100
AcDbLinetypeTableRecord
  2
Amzigzag
 70
     0
  3
/\/-/\/-/\/-/\/-/\/-/\/
 72
    65
 73
     2
 40
11.0001
 49
0.0001
 74
     4
 75
   135
340
29C4
 46
0.04
 50
0.0
 44
0.0
 45
0.0
 49
-11.0
 74
     0
  0
LTYPE
  5
4073
330
5
100
AcDbSymbolTableRecord
100
AcDbLinetypeTableRecord
  2
ACISOWELD
 70
     0
  3
_ _ _ _ _
 72
    65
 73
     2
 40
2.0
 49
2.0
 74
     0
 49
-1.0
 74
     0
  0
LTYPE
  5
4074
330
5
100
AcDbSymbolTableRecord
100
AcDbLinetypeTableRecord
  2
ACISOTGB
 70
     0
  3
__ . . __ . .
 72
    65
 73
     6
 40
9.0
 49
4.0
 74
     0
 49
-1.0
 74
     0
 49
1.0
 74
     0
 49
-1.0
 74
     0
 49
1.0
 74
     0
 49
-1.0
 74
     0
  0
LTYPE
  5
4075
330
5
100
AcDbSymbolTableRecord
100
AcDbLinetypeTableRecord
  2
ACISOTGL
 70
     0
  3
_ _ _ _ _
 72
    65
 73
     2
 40
3.0
 49
2.0
 74
     0
 49
-1.0
 74
     0
  0
ENDTAB
  0
TABLE
  2
LAYER
  5
2
102
{ACAD_XDICTIONARY
360
29CF
102
}
330
0
100
AcDbSymbolTable
 70
     7
  0
LAYER
  5
10
330
2
100
AcDbSymbolTableRecord
100
AcDbLayerTableRecord
  2
0
 70
     0
 62
     7
  6
Continuous
370
    -3
390
F
  0
LAYER
  5
48
330
2
100
AcDbSymbolTableRecord
100
AcDbLayerTableRecord
  2
DIM
 70
     0
 62
     5
  6
Continuous
370
    -3
390
F
  0
LAYER
  5
4A
330
2
100
AcDbSymbolTableRecord
100
AcDbLayerTableRecord
  2
CENTER
 70
     0
 62
     1
  6
CENTER
370
    -3
390
F
  0
LAYER
  5
1545
330
2
100
AcDbSymbolTableRecord
100
AcDbLayerTableRecord
  2
LOGO
 70
     0
 62
     7
  6
Continuous
370
    -3
390
F
  0
LAYER
  5
1A52
330
2
100
AcDbSymbolTableRecord
100
AcDbLayerTableRecord
  2
Defpoints
 70
     0
 62
     7
  6
Continuous
290
     0
370
    -3
390
F
  0
LAYER
  5
4449
330
2
100
AcDbSymbolTableRecord
100
AcDbLayerTableRecord
  2
AM_7
 70
     0
 62
     4
  6
AM_ISO08W050
370
    25
390
F
  0
LAYER
  5
444A
330
2
100
AcDbSymbolTableRecord
100
AcDbLayerTableRecord
  2
AM_5
 70
     0
 62
     3
  6
Continuous
370
    25
390
F
  0
ENDTAB
  0
TABLE
  2
STYLE
  5
3
330
0
100
AcDbSymbolTable
 70
     7
  0
STYLE
  5
11
330
3
100
AcDbSymbolTableRecord
100
AcDbTextStyleTableRecord
  2
Standard
 70
     0
 40
3.0
 41
1.0
 50
0.0
 71
     0
 42
3.0
  3
KAIU.TTF
  4

1001
ACAD
1000
DFKai-SB
1071
    34865
  0
STYLE
  5
5C
330
3
100
AcDbSymbolTableRecord
100
AcDbTextStyleTableRecord
  2
CHINESET
 70
     0
 40
3.0
 41
1.0
 50
0.0
 71
     0
 42
4.5
  3
simplex.shx
  4
CHINESET.shx
  0
STYLE
  5
29C4
330
3
100
AcDbSymbolTableRecord
100
AcDbTextStyleTableRecord
  2

 70
     1
 40
0.0
 41
1.0
 50
0.0
 71
     0
 42
0.12
  3
ltypeshp.shx
  4

  0
STYLE
  5
29C5
330
3
100
AcDbSymbolTableRecord
100
AcDbTextStyleTableRecord
  2
dayus
 70
     0
 40
2.0
 41
1.0
 50
0.0
 71
     0
 42
6.0
  3
simplex.shx
  4
dayus.shx
  0
STYLE
  5
4065
330
3
100
AcDbSymbolTableRecord
100
AcDbTextStyleTableRecord
  2
ACISOTS
 70
     0
 40
1.0
 41
1.0
 50
0.0
 71
     0
 42
4.5
  3
isocp.shx
  4
chineset.shx
  0
STYLE
  5
4072
330
3
100
AcDbSymbolTableRecord
100
AcDbTextStyleTableRecord
  2
ACISOGDT
 70
     0
 40
0.0
 41
1.0
 50
0.0
 71
     0
 42
4.5
  3
amgdt.shx
  4

  0
ENDTAB
  0
TABLE
  2
VIEW
  5
6
330
0
100
AcDbSymbolTable
 70
     0
  0
ENDTAB
  0
TABLE
  2
UCS
  5
7
330
0
100
AcDbSymbolTable
 70
     0
  0
ENDTAB
  0
TABLE
  2
APPID
  5
9
330
0
100
AcDbSymbolTable
 70
    21
  0
APPID
  5
12
330
9
100
AcDbSymbolTableRecord
100
AcDbRegAppTableRecord
  2
ACAD
 70
     0
  0
APPID
  5
5F
330
9
100
AcDbSymbolTableRecord
100
AcDbRegAppTableRecord
  2
AD_DRAW
 70
     0
  0
APPID
  5
60
330
9
100
AcDbSymbolTableRecord
100
AcDbRegAppTableRecord
  2
DESIGNERASSEMBLIES
 70
     0
  0
APPID
  5
61
330
9
100
AcDbSymbolTableRecord
100
AcDbRegAppTableRecord
  2
MCAD_NO_VIS
 70
     0
  0
APPID
  5
62
330
9
100
AcDbSymbolTableRecord
100
AcDbRegAppTableRecord
  2
ASURF_PCURVE_APPNAME
 70
     0
  0
APPID
  5
11A1
330
9
100
AcDbSymbolTableRecord
100
AcDbRegAppTableRecord
  2
CONTENTBLOCKICON
 70
     0
  0
APPID
  5
29CE
330
9
100
AcDbSymbolTableRecord
100
AcDbRegAppTableRecord
  2
GENIUS_GENDTOL_13
 70
     0
  0
APPID
  5
4000
330
9
100
AcDbSymbolTableRecord
100
AcDbRegAppTableRecord
  2
ACAD_TEMP_GRAPHIC
 70
     0
  0
APPID
  5
4031
330
9
100
AcDbSymbolTableRecord
100
AcDbRegAppTableRecord
  2
ACATTRIBSERVICES
 70
     0
  0
APPID
  5
4054
330
9
100
AcDbSymbolTableRecord
100
AcDbRegAppTableRecord
  2
ACADM_DIM_EDIT
 70
     0
  0
APPID
  5
4055
330
9
100
AcDbSymbolTableRecord
100
AcDbRegAppTableRecord
  2
AMDT_DM_ADJ
 70
     0
  0
APPID
  5
408B
330
9
100
AcDbSymbolTableRecord
100
AcDbRegAppTableRecord
  2
GENIUS_GENOENT_13
 70
     0
  0
APPID
  5
408C
330
9
100
AcDbSymbolTableRecord
100
AcDbRegAppTableRecord
  2
GENIUS_GENOBJ-N-CRS_13
 70
     0
  0
APPID
  5
408D
330
9
100
AcDbSymbolTableRecord
100
AcDbRegAppTableRecord
  2
GENIUS_GENOLIS_13
 70
     0
  0
APPID
  5
408E
330
9
100
AcDbSymbolTableRecord
100
AcDbRegAppTableRecord
  2
GENIUS_GENODEF_13
 70
     0
  0
APPID
  5
408F
330
9
100
AcDbSymbolTableRecord
100
AcDbRegAppTableRecord
  2
GENIUS_GENOREF_13
 70
     0
  0
APPID
  5
4090
330
9
100
AcDbSymbolTableRecord
100
AcDbRegAppTableRecord
  2
ACAD_PSEXT
 70
     0
  0
APPID
  5
4091
330
9
100
AcDbSymbolTableRecord
100
AcDbRegAppTableRecord
  2
GENIUS_GENREC_14
 70
     0
  0
APPID
  5
4092
330
9
100
AcDbSymbolTableRecord
100
AcDbRegAppTableRecord
  2
GENIUS_GENOBJ-N-REC_13
 70
     0
  0
APPID
  5
444B
330
9
100
AcDbSymbolTableRecord
100
AcDbRegAppTableRecord
  2
GENIUS_GENOBJ-N-CEN_13
 70
     0
  0
APPID
  5
444C
330
9
100
AcDbSymbolTableRecord
100
AcDbRegAppTableRecord
  2
GENIUS_GENCEN_19
 70
     0
  0
ENDTAB
  0
TABLE
  2
DIMSTYLE
  5
A
330
0
100
AcDbSymbolTable
 70
    11
100
AcDbDimStyleTable
 71
     1
340
1A4
  0
DIMSTYLE
105
1A4
330
A
100
AcDbSymbolTableRecord
100
AcDbDimStyleTableRecord
  2
ISO-25-1
 70
     0
 41
3.0
 42
3.0
 43
2.0
 44
2.0
 73
     0
 74
     0
 77
     1
 78
     8
 79
     2
140
3.0
141
-3.0
146
0.7
147
1.0
172
     1
176
   256
177
   256
178
   256
271
     2
272
     2
284
     8
289
     0
340
5C
371
    -1
372
    -1
  0
DIMSTYLE
105
29C8
102
{ACAD_REACTORS
330
3BC1
330
3BC4
330
3BC7
330
3BCA
330
3BCD
330
3BD0
330
3BD3
330
3BD6
330
3BD9
330
3BDC
330
3BDF
330
3BE6
330
3BEB
330
3BEE
330
3BF1
330
3BF6
330
3BF7
330
3BF8
330
3BFB
330
3BFE
330
3C01
330
3C04
330
3C07
330
3C0A
330
3C0D
330
3C10
330
3C13
102
}
330
A
100
AcDbSymbolTableRecord
100
AcDbDimStyleTableRecord
  2
AM_ANSI
 70
     0
  4
"
 41
2.5
 42
1.0
 43
10.0
 44
1.0
 47
0.1
 48
0.1
 78
     8
 79
     2
140
3.5
141
0.0
143
0.0393701
146
0.71
147
1.5
176
   256
177
   256
178
     2
271
     2
272
     3
274
     4
284
     8
340
11
371
    -1
372
    -1
  0
DIMSTYLE
105
29CB
330
A
100
AcDbSymbolTableRecord
100
AcDbDimStyleTableRecord
  2
AM_ANSI$7
 70
     0
  4
"
 41
2.5
 42
1.0
 43
10.0
 44
1.0
 47
0.1
 48
0.1
 78
     8
 79
     2
140
5.0
141
0.0
143
0.0393701
146
0.71
147
1.5
176
   256
177
   256
178
     2
271
     2
272
     3
274
     4
284
     8
340
11
371
    -1
372
    -1
  0
DIMSTYLE
105
407F
330
A
100
AcDbSymbolTableRecord
100
AcDbDimStyleTableRecord
  2
AM_ISO
 70
     0
  4
"
 41
2.5
 42
1.0
 43
10.0
 44
1.0
 47
0.1
 48
0.1
 73
     0
 74
     0
 77
     1
 78
     8
 79
     2
140
3.5
141
0.0
143
0.0393701
146
0.71
147
1.5
172
     1
176
   256
177
   256
178
     2
271
     2
272
     3
274
     4
283
     0
284
     8
340
11
371
    -1
372
    -1
  0
DIMSTYLE
105
4080
330
A
100
AcDbSymbolTableRecord
100
AcDbDimStyleTableRecord
  2
AM_ISO$3
 70
     0
  4
"
 41
2.5
 42
1.0
 43
10.0
 44
1.0
 47
0.1
 48
0.1
 73
     0
 77
     1
 78
     8
 79
     2
140
3.5
141
0.0
143
0.0393701
146
0.71
147
1.5
176
   256
177
   256
178
     2
271
     2
272
     3
274
     4
283
     0
284
     8
288
     1
289
     0
340
11
371
    -1
372
    -1
  0
DIMSTYLE
105
4081
330
A
100
AcDbSymbolTableRecord
100
AcDbDimStyleTableRecord
  2
AM_ISO$4
 70
     0
  4
"
 41
2.5
 42
1.0
 43
10.0
 44
1.0
 47
0.1
 48
0.1
 73
     0
 77
     1
 78
     8
 79
     2
140
3.5
141
0.0
143
0.0393701
146
0.71
147
1.5
176
   256
177
   256
178
     2
271
     2
272
     3
274
     4
283
     0
284
     8
288
     1
289
     0
340
11
371
    -1
372
    -1
  0
DIMSTYLE
105
4082
330
A
100
AcDbSymbolTableRecord
100
AcDbDimStyleTableRecord
  2
AM_ISO$6
 70
     0
  4
"
 41
2.5
 42
1.0
 43
10.0
 44
1.0
 47
0.1
 48
0.1
 73
     0
 74
     0
 78
     8
 79
     2
140
3.5
141
0.0
143
0.0393701
146
0.71
147
1.5
172
     1
176
   256
177
   256
178
     2
271
     2
272
     3
274
     4
283
     0
284
     8
340
11
371
    -1
372
    -1
  0
DIMSTYLE
105
4083
330
A
100
AcDbSymbolTableRecord
100
AcDbDimStyleTableRecord
  2
AM_ISO$7
 70
     0
  4
"
 41
2.5
 42
1.0
 43
10.0
 44
1.0
 47
0.1
 48
0.1
 73
     0
 74
     0
 77
     1
 78
     8
 79
     2
140
5.0
141
0.0
143
0.0393701
146
0.71
147
1.5
172
     1
176
   256
177
   256
178
     2
271
     2
272
     3
274
     4
283
     0
284
     8
340
11
371
    -1
372
    -1
  0
DIMSTYLE
105
4084
330
A
100
AcDbSymbolTableRecord
100
AcDbDimStyleTableRecord
  2
AM_ISO$SF
 70
     0
  4
"
 41
2.5
 42
1.0
 43
10.0
 44
1.0
 47
0.1
 48
0.1
 73
     0
 74
     0
 75
     1
 76
     1
 77
     1
 78
     8
 79
     2
140
3.5
141
0.0
143
0.0393701
146
0.71
147
1.5
172
     1
176
   256
177
   256
178
     2
271
     2
272
     3
274
     4
283
     0
284
     8
340
11
371
    -1
372
    -1
  0
DIMSTYLE
105
4085
330
A
100
AcDbSymbolTableRecord
100
AcDbDimStyleTableRecord
  2
AM_ISO$SH
 70
     0
  4
"
 41
2.5
 42
1.0
 43
10.0
 44
1.0
 47
0.1
 48
0.1
 73
     0
 74
     0
 75
     1
 76
     1
 77
     1
 78
     8
 79
     2
140
3.5
141
0.0
143
0.0393701
144
2.0
146
0.71
147
1.5
172
     1
173
     1
176
   256
177
   256
178
     2
271
     2
272
     3
274
     4
283
     0
284
     8
340
11
343
2864
371
    -1
372
    -1
  0
ENDTAB
  0
TABLE
  2
BLOCK_RECORD
  5
1
330
0
100
AcDbSymbolTable
 70
    33
  0
BLOCK_RECORD
  5
1F
102
{ACAD_XDICTIONARY
360
27C8
102
}
330
1
100
AcDbSymbolTableRecord
100
AcDbBlockTableRecord
  2
*Model_Space
340
22
  0
BLOCK_RECORD
  5
1B
102
{ACAD_XDICTIONARY
360
27CA
102
}
330
1
100
AcDbSymbolTableRecord
100
AcDbBlockTableRecord
  2
*Paper_Space
340
1E
  0
BLOCK_RECORD
  5
23
102
{ACAD_XDICTIONARY
360
27CC
102
}
330
1
100
AcDbSymbolTableRecord
100
AcDbBlockTableRecord
  2
*Paper_Space0
340
26
  0
BLOCK_RECORD
  5
2864
330
1
100
AcDbSymbolTableRecord
100
AcDbBlockTableRecord
  2
GENAXEH
340
0
  0
BLOCK_RECORD
  5
3C1A
330
1
100
AcDbSymbolTableRecord
100
AcDbBlockTableRecord
  2
*D2
340
0
  0
BLOCK_RECORD
  5
3C26
330
1
100
AcDbSymbolTableRecord
100
AcDbBlockTableRecord
  2
*D3
340
0
  0
BLOCK_RECORD
  5
3C32
330
1
100
AcDbSymbolTableRecord
100
AcDbBlockTableRecord
  2
*D4
340
0
  0
BLOCK_RECORD
  5
3C40
330
1
100
AcDbSymbolTableRecord
100
AcDbBlockTableRecord
  2
*D5
340
0
  0
BLOCK_RECORD
  5
3C4E
330
1
100
AcDbSymbolTableRecord
100
AcDbBlockTableRecord
  2
*D6
340
0
  0
BLOCK_RECORD
  5
3C5A
330
1
100
AcDbSymbolTableRecord
100
AcDbBlockTableRecord
  2
*D7
340
0
  0
BLOCK_RECORD
  5
3C66
330
1
100
AcDbSymbolTableRecord
100
AcDbBlockTableRecord
  2
*D8
340
0
  0
BLOCK_RECORD
  5
3C74
330
1
100
AcDbSymbolTableRecord
100
AcDbBlockTableRecord
  2
*D9
340
0
  0
BLOCK_RECORD
  5
3C80
330
1
100
AcDbSymbolTableRecord
100
AcDbBlockTableRecord
  2
*D10
340
0
  0
BLOCK_RECORD
  5
3C8C
330
1
100
AcDbSymbolTableRecord
100
AcDbBlockTableRecord
  2
*D11
340
0
  0
BLOCK_RECORD
  5
3C98
330
1
100
AcDbSymbolTableRecord
100
AcDbBlockTableRecord
  2
*D12
340
0
  0
BLOCK_RECORD
  5
3CA4
330
1
100
AcDbSymbolTableRecord
100
AcDbBlockTableRecord
  2
*D13
340
0
  0
BLOCK_RECORD
  5
3CB0
330
1
100
AcDbSymbolTableRecord
100
AcDbBlockTableRecord
  2
*D14
340
0
  0
BLOCK_RECORD
  5
3CBC
330
1
100
AcDbSymbolTableRecord
100
AcDbBlockTableRecord
  2
*D15
340
0
  0
BLOCK_RECORD
  5
3CC8
330
1
100
AcDbSymbolTableRecord
100
AcDbBlockTableRecord
  2
*D16
340
0
  0
BLOCK_RECORD
  5
3CD6
330
1
100
AcDbSymbolTableRecord
100
AcDbBlockTableRecord
  2
*D17
340
0
  0
BLOCK_RECORD
  5
3CE2
330
1
100
AcDbSymbolTableRecord
100
AcDbBlockTableRecord
  2
*D18
340
0
  0
BLOCK_RECORD
  5
3CEE
330
1
100
AcDbSymbolTableRecord
100
AcDbBlockTableRecord
  2
*D19
340
0
  0
BLOCK_RECORD
  5
3D19
330
1
100
AcDbSymbolTableRecord
100
AcDbBlockTableRecord
  2
*D20
340
0
  0
BLOCK_RECORD
  5
3D27
330
1
100
AcDbSymbolTableRecord
100
AcDbBlockTableRecord
  2
*D21
340
0
  0
BLOCK_RECORD
  5
3D35
330
1
100
AcDbSymbolTableRecord
100
AcDbBlockTableRecord
  2
*D22
340
0
  0
BLOCK_RECORD
  5
3D41
330
1
100
AcDbSymbolTableRecord
100
AcDbBlockTableRecord
  2
*D23
340
0
  0
BLOCK_RECORD
  5
3D4D
330
1
100
AcDbSymbolTableRecord
100
AcDbBlockTableRecord
  2
*D24
340
0
  0
BLOCK_RECORD
  5
3D59
330
1
100
AcDbSymbolTableRecord
100
AcDbBlockTableRecord
  2
*D25
340
0
  0
BLOCK_RECORD
  5
3D65
330
1
100
AcDbSymbolTableRecord
100
AcDbBlockTableRecord
  2
*D26
340
0
  0
BLOCK_RECORD
  5
3D71
330
1
100
AcDbSymbolTableRecord
100
AcDbBlockTableRecord
  2
*D27
340
0
  0
BLOCK_RECORD
  5
3D7D
330
1
100
AcDbSymbolTableRecord
100
AcDbBlockTableRecord
  2
*D28
340
0
  0
BLOCK_RECORD
  5
42E6
102
{ACAD_XDICTIONARY
360
42E7
102
}
330
1
100
AcDbSymbolTableRecord
100
AcDbBlockTableRecord
  2
A$C5ECF147B
340
0
102
{BLKREFS
331
4313
331
4321
331
4322
331
4394
331
43A2
331
43A3
102
}
  0
BLOCK_RECORD
  5
4440
102
{ACAD_XDICTIONARY
360
4441
102
}
330
1
100
AcDbSymbolTableRecord
100
AcDbBlockTableRecord
  2
A$C1F6E6265
340
0
102
{BLKREFS
331
4456
331
4459
102
}
  0
ENDTAB
  0
ENDSEC
  0
SECTION
  2
BLOCKS
  0
BLOCK
  5
20
330
1F
100
AcDbEntity
  8
0
100
AcDbBlockBegin
  2
*Model_Space
 70
     0
 10
0.0
 20
0.0
 30
0.0
  3
*Model_Space
  1

  0
ENDBLK
  5
21
330
1F
100
AcDbEntity
  8
0
100
AcDbBlockEnd
  0
BLOCK
  5
1C
330
1B
100
AcDbEntity
 67
     1
  8
0
100
AcDbBlockBegin
  2
*Paper_Space
 70
     0
 10
0.0
 20
0.0
 30
0.0
  3
*Paper_Space
  1

  0
ENDBLK
  5
1D
330
1B
100
AcDbEntity
 67
     1
  8
0
100
AcDbBlockEnd
  0
BLOCK
  5
24
330
23
100
AcDbEntity
  8
0
100
AcDbBlockBegin
  2
*Paper_Space0
 70
     0
 10
0.0
 20
0.0
 30
0.0
  3
*Paper_Space0
  1

  0
ENDBLK
  5
25
330
23
100
AcDbEntity
  8
0
100
AcDbBlockEnd
  0
BLOCK
  5
2865
330
2864
100
AcDbEntity
  8
0
100
AcDbBlockBegin
  2
GENAXEH
 70
     0
 10
0.0
 20
0.0
 30
0.0
  3
GENAXEH
  1

  0
LINE
  5
2866
330
2864
100
AcDbEntity
  8
0
100
AcDbLine
 10
-1.0
 20
0.0
 30
0.0
 11
1.0
 21
0.0
 31
0.0
  0
ENDBLK
  5
2867
330
2864
100
AcDbEntity
  8
0
100
AcDbBlockEnd
  0
BLOCK
  5
3C24
330
3C1A
100
AcDbEntity
  8
0
100
AcDbBlockBegin
  2
*D2
 70
     1
 10
0.0
 20
0.0
 30
0.0
  3
*D2
  1

  0
LINE
  5
43AA
330
3C1A
100
AcDbEntity
  8
DIM
100
AcDbLine
 10
192.6177012109331
 20
95.63887006990936
 30
0.0
 11
192.6177012109331
 21
102.0857370307462
 31
0.0
  0
LINE
  5
43AB
330
3C1A
100
AcDbEntity
  8
DIM
100
AcDbLine
 10
216.6177012109331
 20
95.63887006990936
 30
0.0
 11
216.6177012109331
 21
102.0857370307462
 31
0.0
  0
LINE
  5
43AC
330
3C1A
100
AcDbEntity
  8
DIM
100
AcDbLine
 10
194.6177012109331
 20
100.5857370307462
 30
0.0
 11
214.6177012109331
 21
100.5857370307462
 31
0.0
  0
SOLID
  5
43AD
330
3C1A
100
AcDbEntity
  8
DIM
100
AcDbTrace
 10
194.6177012109331
 20
100.9190703640795
 30
0.0
 11
194.6177012109331
 21
100.2524036974129
 31
0.0
 12
192.6177012109331
 22
100.5857370307462
 32
0.0
 13
192.6177012109331
 23
100.5857370307462
 33
0.0
  0
SOLID
  5
43AE
330
3C1A
100
AcDbEntity
  8
DIM
100
AcDbTrace
 10
214.6177012109331
 20
100.9190703640795
 30
0.0
 11
214.6177012109331
 21
100.2524036974129
 31
0.0
 12
216.6177012109331
 22
100.5857370307462
 32
0.0
 13
216.6177012109331
 23
100.5857370307462
 33
0.0
  0
MTEXT
  5
43AF
330
3C1A
100
AcDbEntity
  8
DIM
100
AcDbMText
 10
204.6177012109331
 20
102.5857370307462
 30
0.0
 40
2.0
 41
0.0
 71
     5
 72
     1
  1
\A1;□24
  7
dayus
 73
     1
 44
1.0
1001
ACAD
1000
MTEXTBEGIN
1070
    73
1070
     1
1070
    44
1040
1.0
1070
    74
1070
     0
1000
MTEXTEND
  0
POINT
  5
43B0
330
3C1A
100
AcDbEntity
  8
Defpoints
 62
     0
100
AcDbPoint
 10
192.6177012109331
 20
94.13887006990938
 30
0.0
  0
POINT
  5
43B1
330
3C1A
100
AcDbEntity
  8
Defpoints
 62
     0
100
AcDbPoint
 10
216.6177012109331
 20
94.13887006990938
 30
0.0
  0
POINT
  5
43B2
330
3C1A
100
AcDbEntity
  8
Defpoints
 62
     0
100
AcDbPoint
 10
216.6177012109331
 20
100.5857370307462
 30
0.0
  0
ENDBLK
  5
3C25
330
3C1A
100
AcDbEntity
  8
0
100
AcDbBlockEnd
  0
BLOCK
  5
3C30
330
3C26
100
AcDbEntity
  8
0
100
AcDbBlockBegin
  2
*D3
 70
     1
 10
0.0
 20
0.0
 30
0.0
  3
*D3
  1

  0
LINE
  5
43B3
330
3C26
100
AcDbEntity
  8
DIM
100
AcDbLine
 10
187.6177012109324
 20
93.67036983914205
 30
0.0
 11
187.6177012109324
 21
107.338186941952
 31
0.0
  0
LINE
  5
43B4
330
3C26
100
AcDbEntity
  8
DIM
100
AcDbLine
 10
221.6177012109331
 20
93.67036983914282
 30
0.0
 11
221.6177012109331
 21
107.338186941952
 31
0.0
  0
LINE
  5
43B5
330
3C26
100
AcDbEntity
  8
DIM
100
AcDbLine
 10
189.6177012109324
 20
105.838186941952
 30
0.0
 11
219.6177012109331
 21
105.838186941952
 31
0.0
  0
SOLID
  5
43B6
330
3C26
100
AcDbEntity
  8
DIM
100
AcDbTrace
 10
189.6177012109324
 20
106.1715202752853
 30
0.0
 11
189.6177012109324
 21
105.5048536086186
 31
0.0
 12
187.6177012109324
 22
105.838186941952
 32
0.0
 13
187.6177012109324
 23
105.838186941952
 33
0.0
  0
SOLID
  5
43B7
330
3C26
100
AcDbEntity
  8
DIM
100
AcDbTrace
 10
219.6177012109331
 20
106.1715202752853
 30
0.0
 11
219.6177012109331
 21
105.5048536086186
 31
0.0
 12
221.6177012109331
 22
105.838186941952
 32
0.0
 13
221.6177012109331
 23
105.838186941952
 33
0.0
  0
MTEXT
  5
43B8
330
3C26
100
AcDbEntity
  8
DIM
100
AcDbMText
 10
204.6177012109327
 20
107.838186941952
 30
0.0
 40
2.0
 41
0.0
 71
     5
 72
     1
  1
\A1;□34
  7
dayus
 73
     1
 44
1.0
1001
ACAD
1000
MTEXTBEGIN
1070
    73
1070
     1
1070
    44
1040
1.0
1070
    74
1070
     0
1000
MTEXTEND
  0
POINT
  5
43B9
330
3C26
100
AcDbEntity
  8
Defpoints
 62
     0
100
AcDbPoint
 10
187.6177012109324
 20
92.17036983914205
 30
0.0
  0
POINT
  5
43BA
330
3C26
100
AcDbEntity
  8
Defpoints
 62
     0
100
AcDbPoint
 10
221.6177012109331
 20
92.17036983914281
 30
0.0
  0
POINT
  5
43BB
330
3C26
100
AcDbEntity
  8
Defpoints
 62
     0
100
AcDbPoint
 10
221.6177012109331
 20
105.838186941952
 30
0.0
  0
ENDBLK
  5
3C31
330
3C26
100
AcDbEntity
  8
0
100
AcDbBlockEnd
  0
BLOCK
  5
3C3E
330
3C32
100
AcDbEntity
  8
0
100
AcDbBlockBegin
  2
*D4
 70
     1
 10
0.0
 20
0.0
 30
0.0
  3
*D4
  1

  0
LINE
  5
43BC
330
3C32
100
AcDbEntity
  8
DIM
100
AcDbLine
 10
201.6177012109331
 20
73.28521555509457
 30
0.0
 11
201.6177012109331
 21
51.78814385694725
 31
0.0
  0
LINE
  5
43BD
330
3C32
100
AcDbEntity
  8
DIM
100
AcDbLine
 10
207.6177012109331
 20
73.28521555509455
 30
0.0
 11
207.6177012109331
 21
51.78814385694725
 31
0.0
  0
LINE
  5
43BE
330
3C32
100
AcDbEntity
  8
DIM
100
AcDbLine
 10
199.6177012109331
 20
53.28814385694726
 30
0.0
 11
197.6177012109331
 21
53.28814385694726
 31
0.0
  0
LINE
  5
43BF
330
3C32
100
AcDbEntity
  8
DIM
100
AcDbLine
 10
209.6177012109331
 20
53.28814385694726
 30
0.0
 11
211.6177012109331
 21
53.28814385694726
 31
0.0
  0
LINE
  5
43C0
330
3C32
100
AcDbEntity
  8
DIM
100
AcDbLine
 10
201.6177012109331
 20
53.28814385694726
 30
0.0
 11
207.6177012109331
 21
53.28814385694726
 31
0.0
  0
SOLID
  5
43C1
330
3C32
100
AcDbEntity
  8
DIM
100
AcDbTrace
 10
199.6177012109331
 20
53.62147719028059
 30
0.0
 11
199.6177012109331
 21
52.95481052361392
 31
0.0
 12
201.6177012109331
 22
53.28814385694726
 32
0.0
 13
201.6177012109331
 23
53.28814385694726
 33
0.0
  0
SOLID
  5
43C2
330
3C32
100
AcDbEntity
  8
DIM
100
AcDbTrace
 10
209.6177012109331
 20
53.62147719028059
 30
0.0
 11
209.6177012109331
 21
52.95481052361392
 31
0.0
 12
207.6177012109331
 22
53.28814385694726
 32
0.0
 13
207.6177012109331
 23
53.28814385694726
 33
0.0
  0
MTEXT
  5
43C3
330
3C32
100
AcDbEntity
  8
DIM
100
AcDbMText
 10
204.6177012109331
 20
55.28814385694726
 30
0.0
 40
2.0
 41
0.0
 71
     5
 72
     1
  1
\A1;□6
  7
dayus
 73
     1
 44
1.0
1001
ACAD
1000
MTEXTBEGIN
1070
    73
1070
     1
1070
    44
1040
1.0
1070
    74
1070
     0
1000
MTEXTEND
  0
POINT
  5
43C4
330
3C32
100
AcDbEntity
  8
Defpoints
 62
     0
100
AcDbPoint
 10
201.6177012109331
 20
74.78521555509456
 30
0.0
  0
POINT
  5
43C5
330
3C32
100
AcDbEntity
  8
Defpoints
 62
     0
100
AcDbPoint
 10
207.6177012109331
 20
74.78521555509455
 30
0.0
  0
POINT
  5
43C6
330
3C32
100
AcDbEntity
  8
Defpoints
 62
     0
100
AcDbPoint
 10
207.6177012109331
 20
53.28814385694726
 30
0.0
  0
ENDBLK
  5
3C3F
330
3C32
100
AcDbEntity
  8
0
100
AcDbBlockEnd
  0
BLOCK
  5
3C4C
330
3C40
100
AcDbEntity
  8
0
100
AcDbBlockBegin
  2
*D5
 70
     1
 10
0.0
 20
0.0
 30
0.0
  3
*D5
  1

  0
LINE
  5
3EDE
330
3C40
100
AcDbEntity
  8
DIM
100
AcDbLine
 10
144.7644376533415
 20
199.9154256512935
 30
0.0
 11
144.7644376533415
 21
206.9433132699948
 31
0.0
  0
LINE
  5
3EDF
330
3C40
100
AcDbEntity
  8
DIM
100
AcDbLine
 10
149.7642266654064
 20
199.9154256512935
 30
0.0
 11
149.7642266654064
 21
206.9433132699948
 31
0.0
  0
LINE
  5
3EE0
330
3C40
100
AcDbEntity
  8
DIM
100
AcDbLine
 10
142.7644376533415
 20
205.4433132699948
 30
0.0
 11
140.7644376533415
 21
205.4433132699948
 31
0.0
  0
LINE
  5
3EE1
330
3C40
100
AcDbEntity
  8
DIM
100
AcDbLine
 10
151.7642266654064
 20
205.4433132699948
 30
0.0
 11
153.7642266654064
 21
205.4433132699948
 31
0.0
  0
LINE
  5
3EE2
330
3C40
100
AcDbEntity
  8
DIM
100
AcDbLine
 10
144.7644376533415
 20
205.4433132699948
 30
0.0
 11
149.7642266654064
 21
205.4433132699948
 31
0.0
  0
SOLID
  5
3EE3
330
3C40
100
AcDbEntity
  8
DIM
100
AcDbTrace
 10
142.7644376533415
 20
205.7766466033282
 30
0.0
 11
142.7644376533415
 21
205.1099799366615
 31
0.0
 12
144.7644376533415
 22
205.4433132699948
 32
0.0
 13
144.7644376533415
 23
205.4433132699948
 33
0.0
  0
SOLID
  5
3EE4
330
3C40
100
AcDbEntity
  8
DIM
100
AcDbTrace
 10
151.7642266654064
 20
205.7766466033282
 30
0.0
 11
151.7642266654064
 21
205.1099799366615
 31
0.0
 12
149.7642266654064
 22
205.4433132699948
 32
0.0
 13
149.7642266654064
 23
205.4433132699948
 33
0.0
  0
MTEXT
  5
3EE5
330
3C40
100
AcDbEntity
  8
DIM
100
AcDbMText
 10
147.2643321593739
 20
207.4433132699948
 30
0.0
 40
2.0
 41
0.0
 71
     5
 72
     1
  1
\A1;5
  7
dayus
 73
     1
 44
1.0
1001
ACAD
1000
MTEXTBEGIN
1070
    73
1070
     1
1070
    44
1040
1.0
1070
    74
1070
     0
1000
MTEXTEND
  0
POINT
  5
3EE6
330
3C40
100
AcDbEntity
  8
Defpoints
 62
     0
100
AcDbPoint
 10
144.7644376533415
 20
198.4154256512935
 30
0.0
  0
POINT
  5
3EE7
330
3C40
100
AcDbEntity
  8
Defpoints
 62
     0
100
AcDbPoint
 10
149.7642266654064
 20
198.4154256512935
 30
0.0
  0
POINT
  5
3EE8
330
3C40
100
AcDbEntity
  8
Defpoints
 62
     0
100
AcDbPoint
 10
149.7642266654064
 20
205.4433132699948
 30
0.0
  0
ENDBLK
  5
3C4D
330
3C40
100
AcDbEntity
  8
0
100
AcDbBlockEnd
  0
BLOCK
  5
3C58
330
3C4E
100
AcDbEntity
  8
0
100
AcDbBlockBegin
  2
*D6
 70
     1
 10
0.0
 20
0.0
 30
0.0
  3
*D6
  1

  0
LINE
  5
3EE9
330
3C4E
100
AcDbEntity
  8
DIM
100
AcDbLine
 10
140.7643321593739
 20
197.2600746591223
 30
0.0
 11
140.7643321593739
 21
212.0560894487525
 31
0.0
  0
LINE
  5
3EEA
330
3C4E
100
AcDbEntity
  8
DIM
100
AcDbLine
 10
153.7643321593739
 20
196.7600746591223
 30
0.0
 11
153.7643321593739
 21
212.0560894487525
 31
0.0
  0
LINE
  5
3EEB
330
3C4E
100
AcDbEntity
  8
DIM
100
AcDbLine
 10
142.7643321593739
 20
210.5560894487525
 30
0.0
 11
151.7643321593739
 21
210.5560894487525
 31
0.0
  0
SOLID
  5
3EEC
330
3C4E
100
AcDbEntity
  8
DIM
100
AcDbTrace
 10
142.7643321593739
 20
210.8894227820858
 30
0.0
 11
142.7643321593739
 21
210.2227561154191
 31
0.0
 12
140.7643321593739
 22
210.5560894487525
 32
0.0
 13
140.7643321593739
 23
210.5560894487525
 33
0.0
  0
SOLID
  5
3EED
330
3C4E
100
AcDbEntity
  8
DIM
100
AcDbTrace
 10
151.7643321593739
 20
210.8894227820858
 30
0.0
 11
151.7643321593739
 21
210.2227561154191
 31
0.0
 12
153.7643321593739
 22
210.5560894487525
 32
0.0
 13
153.7643321593739
 23
210.5560894487525
 33
0.0
  0
MTEXT
  5
3EEE
330
3C4E
100
AcDbEntity
  8
DIM
100
AcDbMText
 10
147.2643321593739
 20
212.5560894487525
 30
0.0
 40
2.0
 41
0.0
 71
     5
 72
     1
  1
\A1;13
  7
dayus
 73
     1
 44
1.0
1001
ACAD
1000
MTEXTBEGIN
1070
    73
1070
     1
1070
    44
1040
1.0
1070
    74
1070
     0
1000
MTEXTEND
  0
POINT
  5
3EEF
330
3C4E
100
AcDbEntity
  8
Defpoints
 62
     0
100
AcDbPoint
 10
140.7643321593739
 20
195.7600746591223
 30
0.0
  0
POINT
  5
3EF0
330
3C4E
100
AcDbEntity
  8
Defpoints
 62
     0
100
AcDbPoint
 10
153.7643321593739
 20
195.2600746591223
 30
0.0
  0
POINT
  5
3EF1
330
3C4E
100
AcDbEntity
  8
Defpoints
 62
     0
100
AcDbPoint
 10
153.7643321593739
 20
210.5560894487525
 30
0.0
  0
ENDBLK
  5
3C59
330
3C4E
100
AcDbEntity
  8
0
100
AcDbBlockEnd
  0
BLOCK
  5
3C64
330
3C5A
100
AcDbEntity
  8
0
100
AcDbBlockBegin
  2
*D7
 70
     1
 10
0.0
 20
0.0
 30
0.0
  3
*D7
  1

  0
LINE
  5
3EF2
330
3C5A
100
AcDbEntity
  8
DIM
100
AcDbLine
 10
138.7643321593739
 20
197.2600746591223
 30
0.0
 11
138.7643321593739
 21
217.4148448237095
 31
0.0
  0
LINE
  5
3EF3
330
3C5A
100
AcDbEntity
  8
DIM
100
AcDbLine
 10
153.7643321593739
 20
196.7600746591223
 30
0.0
 11
153.7643321593739
 21
217.4148448237095
 31
0.0
  0
LINE
  5
3EF4
330
3C5A
100
AcDbEntity
  8
DIM
100
AcDbLine
 10
140.7643321593739
 20
215.9148448237095
 30
0.0
 11
151.7643321593739
 21
215.9148448237095
 31
0.0
  0
SOLID
  5
3EF5
330
3C5A
100
AcDbEntity
  8
DIM
100
AcDbTrace
 10
140.7643321593739
 20
216.2481781570428
 30
0.0
 11
140.7643321593739
 21
215.5815114903761
 31
0.0
 12
138.7643321593739
 22
215.9148448237095
 32
0.0
 13
138.7643321593739
 23
215.9148448237095
 33
0.0
  0
SOLID
  5
3EF6
330
3C5A
100
AcDbEntity
  8
DIM
100
AcDbTrace
 10
151.7643321593739
 20
216.2481781570428
 30
0.0
 11
151.7643321593739
 21
215.5815114903761
 31
0.0
 12
153.7643321593739
 22
215.9148448237095
 32
0.0
 13
153.7643321593739
 23
215.9148448237095
 33
0.0
  0
MTEXT
  5
3EF7
330
3C5A
100
AcDbEntity
  8
DIM
100
AcDbMText
 10
146.2643321593739
 20
217.9148448237095
 30
0.0
 40
2.0
 41
0.0
 71
     5
 72
     1
  1
\A1;15
  7
dayus
 73
     1
 44
1.0
1001
ACAD
1000
MTEXTBEGIN
1070
    73
1070
     1
1070
    44
1040
1.0
1070
    74
1070
     0
1000
MTEXTEND
  0
POINT
  5
3EF8
330
3C5A
100
AcDbEntity
  8
Defpoints
 62
     0
100
AcDbPoint
 10
138.7643321593739
 20
195.7600746591223
 30
0.0
  0
POINT
  5
3EF9
330
3C5A
100
AcDbEntity
  8
Defpoints
 62
     0
100
AcDbPoint
 10
153.7643321593739
 20
195.2600746591223
 30
0.0
  0
POINT
  5
3EFA
330
3C5A
100
AcDbEntity
  8
Defpoints
 62
     0
100
AcDbPoint
 10
153.7643321593739
 20
215.9148448237095
 30
0.0
  0
ENDBLK
  5
3C65
330
3C5A
100
AcDbEntity
  8
0
100
AcDbBlockEnd
  0
BLOCK
  5
3C72
330
3C66
100
AcDbEntity
  8
0
100
AcDbBlockBegin
  2
*D8
 70
     1
 10
0.0
 20
0.0
 30
0.0
  3
*D8
  1

  0
LINE
  5
3EFB
330
3C66
100
AcDbEntity
  8
DIM
100
AcDbLine
 10
133.2643321593739
 20
211.2600746591223
 30
0.0
 11
133.2643321593739
 21
222.6672947349152
 31
0.0
  0
LINE
  5
3EFC
330
3C66
100
AcDbEntity
  8
DIM
100
AcDbLine
 10
134.7643321593739
 20
201.2600746591223
 30
0.0
 11
134.7643321593739
 21
222.6672947349152
 31
0.0
  0
LINE
  5
3EFD
330
3C66
100
AcDbEntity
  8
DIM
100
AcDbLine
 10
131.2643321593739
 20
221.1672947349152
 30
0.0
 11
129.2643321593739
 21
221.1672947349152
 31
0.0
  0
LINE
  5
3EFE
330
3C66
100
AcDbEntity
  8
DIM
100
AcDbLine
 10
136.7643321593739
 20
221.1672947349152
 30
0.0
 11
144.5738559688977
 21
221.1672947349152
 31
0.0
  0
LINE
  5
3EFF
330
3C66
100
AcDbEntity
  8
DIM
100
AcDbLine
 10
133.2643321593739
 20
221.1672947349152
 30
0.0
 11
134.7643321593739
 21
221.1672947349152
 31
0.0
  0
SOLID
  5
3F00
330
3C66
100
AcDbEntity
  8
DIM
100
AcDbTrace
 10
131.2643321593739
 20
221.5006280682486
 30
0.0
 11
131.2643321593739
 21
220.8339614015819
 31
0.0
 12
133.2643321593739
 22
221.1672947349152
 32
0.0
 13
133.2643321593739
 23
221.1672947349152
 33
0.0
  0
SOLID
  5
3F01
330
3C66
100
AcDbEntity
  8
DIM
100
AcDbTrace
 10
136.7643321593739
 20
221.5006280682486
 30
0.0
 11
136.7643321593739
 21
220.8339614015819
 31
0.0
 12
134.7643321593739
 22
221.1672947349152
 32
0.0
 13
134.7643321593739
 23
221.1672947349152
 33
0.0
  0
MTEXT
  5
3F02
330
3C66
100
AcDbEntity
  8
DIM
100
AcDbMText
 10
141.6690940641358
 20
223.1672947349153
 30
0.0
 40
2.0
 41
0.0
 71
     5
 72
     1
  1
\A1;1.5
  7
dayus
 73
     1
 44
1.0
1001
ACAD
1000
MTEXTBEGIN
1070
    73
1070
     1
1070
    44
1040
1.0
1070
    74
1070
     0
1000
MTEXTEND
  0
POINT
  5
3F03
330
3C66
100
AcDbEntity
  8
Defpoints
 62
     0
100
AcDbPoint
 10
133.2643321593739
 20
209.7600746591223
 30
0.0
  0
POINT
  5
3F04
330
3C66
100
AcDbEntity
  8
Defpoints
 62
     0
100
AcDbPoint
 10
134.7643321593739
 20
199.7600746591223
 30
0.0
  0
POINT
  5
3F05
330
3C66
100
AcDbEntity
  8
Defpoints
 62
     0
100
AcDbPoint
 10
134.7643321593739
 20
221.1672947349152
 30
0.0
  0
ENDBLK
  5
3C73
330
3C66
100
AcDbEntity
  8
0
100
AcDbBlockEnd
  0
BLOCK
  5
3C7E
330
3C74
100
AcDbEntity
  8
0
100
AcDbBlockBegin
  2
*D9
 70
     1
 10
0.0
 20
0.0
 30
0.0
  3
*D9
  1

  0
LINE
  5
3F06
330
3C74
100
AcDbEntity
  8
DIM
100
AcDbLine
 10
133.2643321593739
 20
211.2600746591223
 30
0.0
 11
133.2643321593739
 21
228.1455422720462
 31
0.0
  0
LINE
  5
3F07
330
3C74
100
AcDbEntity
  8
DIM
100
AcDbLine
 10
153.7643321593739
 20
196.7600746591223
 30
0.0
 11
153.7643321593739
 21
228.1455422720462
 31
0.0
  0
LINE
  5
3F08
330
3C74
100
AcDbEntity
  8
DIM
100
AcDbLine
 10
135.2643321593739
 20
226.6455422720462
 30
0.0
 11
151.7643321593739
 21
226.6455422720462
 31
0.0
  0
SOLID
  5
3F09
330
3C74
100
AcDbEntity
  8
DIM
100
AcDbTrace
 10
135.2643321593739
 20
226.9788756053796
 30
0.0
 11
135.2643321593739
 21
226.3122089387129
 31
0.0
 12
133.2643321593739
 22
226.6455422720462
 32
0.0
 13
133.2643321593739
 23
226.6455422720462
 33
0.0
  0
SOLID
  5
3F0A
330
3C74
100
AcDbEntity
  8
DIM
100
AcDbTrace
 10
151.7643321593739
 20
226.9788756053796
 30
0.0
 11
151.7643321593739
 21
226.3122089387129
 31
0.0
 12
153.7643321593739
 22
226.6455422720462
 32
0.0
 13
153.7643321593739
 23
226.6455422720462
 33
0.0
  0
MTEXT
  5
3F0B
330
3C74
100
AcDbEntity
  8
DIM
100
AcDbMText
 10
143.5143321593739
 20
228.6455422720462
 30
0.0
 40
2.0
 41
0.0
 71
     5
 72
     1
  1
\A1;20.5
  7
dayus
 73
     1
 44
1.0
1001
ACAD
1000
MTEXTBEGIN
1070
    73
1070
     1
1070
    44
1040
1.0
1070
    74
1070
     0
1000
MTEXTEND
  0
POINT
  5
3F0C
330
3C74
100
AcDbEntity
  8
Defpoints
 62
     0
100
AcDbPoint
 10
133.2643321593739
 20
209.7600746591223
 30
0.0
  0
POINT
  5
3F0D
330
3C74
100
AcDbEntity
  8
Defpoints
 62
     0
100
AcDbPoint
 10
153.7643321593739
 20
195.2600746591223
 30
0.0
  0
POINT
  5
3F0E
330
3C74
100
AcDbEntity
  8
Defpoints
 62
     0
100
AcDbPoint
 10
153.7643321593739
 20
226.6455422720462
 30
0.0
  0
ENDBLK
  5
3C7F
330
3C74
100
AcDbEntity
  8
0
100
AcDbBlockEnd
  0
BLOCK
  5
3C8A
330
3C80
100
AcDbEntity
  8
0
100
AcDbBlockBegin
  2
*D10
 70
     1
 10
0.0
 20
0.0
 30
0.0
  3
*D10
  1

  0
LINE
  5
3F0F
330
3C80
100
AcDbEntity
  8
DIM
100
AcDbLine
 10
108.7643321593741
 20
211.2600746591223
 30
0.0
 11
108.7643321593741
 21
217.4148448237095
 31
0.0
  0
LINE
  5
3F10
330
3C80
100
AcDbEntity
  8
DIM
100
AcDbLine
 10
116.2643321593739
 20
197.8824482835057
 30
0.0
 11
116.2643321593739
 21
217.4148448237095
 31
0.0
  0
LINE
  5
3F11
330
3C80
100
AcDbEntity
  8
DIM
100
AcDbLine
 10
110.7643321593741
 20
215.9148448237095
 30
0.0
 11
114.2643321593739
 21
215.9148448237095
 31
0.0
  0
SOLID
  5
3F12
330
3C80
100
AcDbEntity
  8
DIM
100
AcDbTrace
 10
110.7643321593741
 20
216.2481781570428
 30
0.0
 11
110.7643321593741
 21
215.5815114903761
 31
0.0
 12
108.7643321593741
 22
215.9148448237095
 32
0.0
 13
108.7643321593741
 23
215.9148448237095
 33
0.0
  0
SOLID
  5
3F13
330
3C80
100
AcDbEntity
  8
DIM
100
AcDbTrace
 10
114.2643321593739
 20
216.2481781570428
 30
0.0
 11
114.2643321593739
 21
215.5815114903761
 31
0.0
 12
116.2643321593739
 22
215.9148448237095
 32
0.0
 13
116.2643321593739
 23
215.9148448237095
 33
0.0
  0
MTEXT
  5
3F14
330
3C80
100
AcDbEntity
  8
DIM
100
AcDbMText
 10
112.514332159374
 20
217.9148448237095
 30
0.0
 40
2.0
 41
0.0
 71
     5
 72
     1
  1
\A1;7.5
  7
dayus
 73
     1
 44
1.0
1001
ACAD
1000
MTEXTBEGIN
1070
    73
1070
     1
1070
    44
1040
1.0
1070
    74
1070
     0
1000
MTEXTEND
  0
POINT
  5
3F15
330
3C80
100
AcDbEntity
  8
Defpoints
 62
     0
100
AcDbPoint
 10
108.7643321593741
 20
209.7600746591223
 30
0.0
  0
POINT
  5
3F16
330
3C80
100
AcDbEntity
  8
Defpoints
 62
     0
100
AcDbPoint
 10
116.2643321593739
 20
196.3824482835057
 30
0.0
  0
POINT
  5
3F17
330
3C80
100
AcDbEntity
  8
Defpoints
 62
     0
100
AcDbPoint
 10
116.2643321593739
 20
215.9148448237095
 30
0.0
  0
ENDBLK
  5
3C8B
330
3C80
100
AcDbEntity
  8
0
100
AcDbBlockEnd
  0
BLOCK
  5
3C96
330
3C8C
100
AcDbEntity
  8
0
100
AcDbBlockBegin
  2
*D11
 70
     1
 10
0.0
 20
0.0
 30
0.0
  3
*D11
  1

  0
LINE
  5
3F18
330
3C8C
100
AcDbEntity
  8
DIM
100
AcDbLine
 10
125.7643321593739
 20
197.8824482835057
 30
0.0
 11
125.7643321593739
 21
217.4148448237095
 31
0.0
  0
LINE
  5
3F19
330
3C8C
100
AcDbEntity
  8
DIM
100
AcDbLine
 10
133.2643321593739
 20
211.2600746591223
 30
0.0
 11
133.2643321593739
 21
217.4148448237095
 31
0.0
  0
LINE
  5
3F1A
330
3C8C
100
AcDbEntity
  8
DIM
100
AcDbLine
 10
127.7643321593739
 20
215.9148448237095
 30
0.0
 11
131.2643321593739
 21
215.9148448237095
 31
0.0
  0
SOLID
  5
3F1B
330
3C8C
100
AcDbEntity
  8
DIM
100
AcDbTrace
 10
127.7643321593739
 20
216.2481781570428
 30
0.0
 11
127.7643321593739
 21
215.5815114903761
 31
0.0
 12
125.7643321593739
 22
215.9148448237095
 32
0.0
 13
125.7643321593739
 23
215.9148448237095
 33
0.0
  0
SOLID
  5
3F1C
330
3C8C
100
AcDbEntity
  8
DIM
100
AcDbTrace
 10
131.2643321593739
 20
216.2481781570428
 30
0.0
 11
131.2643321593739
 21
215.5815114903761
 31
0.0
 12
133.2643321593739
 22
215.9148448237095
 32
0.0
 13
133.2643321593739
 23
215.9148448237095
 33
0.0
  0
MTEXT
  5
3F1D
330
3C8C
100
AcDbEntity
  8
DIM
100
AcDbMText
 10
129.5143321593739
 20
217.9148448237095
 30
0.0
 40
2.0
 41
0.0
 71
     5
 72
     1
  1
\A1;7.5
  7
dayus
 73
     1
 44
1.0
1001
ACAD
1000
MTEXTBEGIN
1070
    73
1070
     1
1070
    44
1040
1.0
1070
    74
1070
     0
1000
MTEXTEND
  0
POINT
  5
3F1E
330
3C8C
100
AcDbEntity
  8
Defpoints
 62
     0
100
AcDbPoint
 10
125.7643321593739
 20
196.3824482835057
 30
0.0
  0
POINT
  5
3F1F
330
3C8C
100
AcDbEntity
  8
Defpoints
 62
     0
100
AcDbPoint
 10
133.2643321593739
 20
209.7600746591223
 30
0.0
  0
POINT
  5
3F20
330
3C8C
100
AcDbEntity
  8
Defpoints
 62
     0
100
AcDbPoint
 10
133.2643321593739
 20
215.9148448237095
 30
0.0
  0
ENDBLK
  5
3C97
330
3C8C
100
AcDbEntity
  8
0
100
AcDbBlockEnd
  0
BLOCK
  5
3CA2
330
3C98
100
AcDbEntity
  8
0
100
AcDbBlockBegin
  2
*D12
 70
     1
 10
0.0
 20
0.0
 30
0.0
  3
*D12
  1

  0
LINE
  5
4328
330
3C98
100
AcDbEntity
  8
DIM
100
AcDbLine
 10
108.7643321593741
 20
211.2600746591223
 30
0.0
 11
108.7643321593741
 21
228.1455422720462
 31
0.0
  0
LINE
  5
4329
330
3C98
100
AcDbEntity
  8
DIM
100
AcDbLine
 10
133.2643321593739
 20
211.2600746591223
 30
0.0
 11
133.2643321593739
 21
228.1455422720462
 31
0.0
  0
LINE
  5
432A
330
3C98
100
AcDbEntity
  8
DIM
100
AcDbLine
 10
110.7643321593741
 20
226.6455422720462
 30
0.0
 11
131.2643321593739
 21
226.6455422720462
 31
0.0
  0
SOLID
  5
432B
330
3C98
100
AcDbEntity
  8
DIM
100
AcDbTrace
 10
110.7643321593741
 20
226.9788756053796
 30
0.0
 11
110.7643321593741
 21
226.3122089387129
 31
0.0
 12
108.7643321593741
 22
226.6455422720462
 32
0.0
 13
108.7643321593741
 23
226.6455422720462
 33
0.0
  0
SOLID
  5
432C
330
3C98
100
AcDbEntity
  8
DIM
100
AcDbTrace
 10
131.2643321593739
 20
226.9788756053796
 30
0.0
 11
131.2643321593739
 21
226.3122089387129
 31
0.0
 12
133.2643321593739
 22
226.6455422720462
 32
0.0
 13
133.2643321593739
 23
226.6455422720462
 33
0.0
  0
MTEXT
  5
432D
330
3C98
100
AcDbEntity
  8
DIM
100
AcDbMText
 10
121.014332159374
 20
228.6455422720462
 30
0.0
 40
2.0
 41
0.0
 71
     5
 72
     1
  1
\A1;19.5+stroke=S
  7
dayus
 73
     1
 44
1.0
1001
ACAD
1000
MTEXTBEGIN
1070
    73
1070
     1
1070
    44
1040
1.0
1070
    74
1070
     0
1000
MTEXTEND
  0
POINT
  5
432E
330
3C98
100
AcDbEntity
  8
Defpoints
 62
     0
100
AcDbPoint
 10
108.7643321593741
 20
209.7600746591223
 30
0.0
  0
POINT
  5
432F
330
3C98
100
AcDbEntity
  8
Defpoints
 62
     0
100
AcDbPoint
 10
133.2643321593739
 20
209.7600746591223
 30
0.0
  0
POINT
  5
4330
330
3C98
100
AcDbEntity
  8
Defpoints
 62
     0
100
AcDbPoint
 10
133.2643321593739
 20
226.6455422720462
 30
0.0
  0
ENDBLK
  5
3CA3
330
3C98
100
AcDbEntity
  8
0
100
AcDbBlockEnd
  0
BLOCK
  5
3CAE
330
3CA4
100
AcDbEntity
  8
0
100
AcDbBlockBegin
  2
*D13
 70
     1
 10
0.0
 20
0.0
 30
0.0
  3
*D13
  1

  0
LINE
  5
4346
330
3CA4
100
AcDbEntity
  8
DIM
100
AcDbLine
 10
108.7643321593741
 20
211.2600746591223
 30
0.0
 11
108.7643321593741
 21
233.2737212391155
 31
0.0
  0
LINE
  5
4347
330
3CA4
100
AcDbEntity
  8
DIM
100
AcDbLine
 10
153.7643321593739
 20
196.7600746591223
 30
0.0
 11
153.7643321593739
 21
233.2737212391155
 31
0.0
  0
LINE
  5
4348
330
3CA4
100
AcDbEntity
  8
DIM
100
AcDbLine
 10
110.7643321593741
 20
231.7737212391155
 30
0.0
 11
151.7643321593739
 21
231.7737212391155
 31
0.0
  0
SOLID
  5
4349
330
3CA4
100
AcDbEntity
  8
DIM
100
AcDbTrace
 10
110.7643321593741
 20
232.1070545724488
 30
0.0
 11
110.7643321593741
 21
231.4403879057822
 31
0.0
 12
108.7643321593741
 22
231.7737212391155
 32
0.0
 13
108.7643321593741
 23
231.7737212391155
 33
0.0
  0
SOLID
  5
434A
330
3CA4
100
AcDbEntity
  8
DIM
100
AcDbTrace
 10
151.7643321593739
 20
232.1070545724488
 30
0.0
 11
151.7643321593739
 21
231.4403879057822
 31
0.0
 12
153.7643321593739
 22
231.7737212391155
 32
0.0
 13
153.7643321593739
 23
231.7737212391155
 33
0.0
  0
MTEXT
  5
434B
330
3CA4
100
AcDbEntity
  8
DIM
100
AcDbMText
 10
131.264332159374
 20
233.7737212391155
 30
0.0
 40
2.0
 41
0.0
 71
     5
 72
     1
  1
\A1;40+stroke=ZZ
  7
dayus
 73
     1
 44
1.0
1001
ACAD
1000
MTEXTBEGIN
1070
    73
1070
     1
1070
    44
1040
1.0
1070
    74
1070
     0
1000
MTEXTEND
  0
POINT
  5
434C
330
3CA4
100
AcDbEntity
  8
Defpoints
 62
     0
100
AcDbPoint
 10
108.7643321593741
 20
209.7600746591223
 30
0.0
  0
POINT
  5
434D
330
3CA4
100
AcDbEntity
  8
Defpoints
 62
     0
100
AcDbPoint
 10
153.7643321593739
 20
195.2600746591223
 30
0.0
  0
POINT
  5
434E
330
3CA4
100
AcDbEntity
  8
Defpoints
 62
     0
100
AcDbPoint
 10
153.7643321593739
 20
231.7737212391155
 30
0.0
  0
ENDBLK
  5
3CAF
330
3CA4
100
AcDbEntity
  8
0
100
AcDbBlockEnd
  0
BLOCK
  5
3CBA
330
3CB0
100
AcDbEntity
  8
0
100
AcDbBlockBegin
  2
*D14
 70
     1
 10
0.0
 20
0.0
 30
0.0
  3
*D14
  1

  0
LINE
  5
3F33
330
3CB0
100
AcDbEntity
  8
DIM
100
AcDbLine
 10
136.2643321593739
 20
188.7600746591223
 30
0.0
 11
164.2821231597617
 21
188.7600746591223
 31
0.0
  0
LINE
  5
3F34
330
3CB0
100
AcDbEntity
  8
DIM
100
AcDbLine
 10
136.2643321593739
 20
196.7600746591223
 30
0.0
 11
164.2821231597618
 21
196.7600746591223
 31
0.0
  0
LINE
  5
3F35
330
3CB0
100
AcDbEntity
  8
DIM
100
AcDbLine
 10
162.7821231597617
 20
190.7600746591223
 30
0.0
 11
162.7821231597618
 21
194.7600746591223
 31
0.0
  0
SOLID
  5
3F36
330
3CB0
100
AcDbEntity
  8
DIM
100
AcDbTrace
 10
162.4487898264284
 20
190.7600746591223
 30
0.0
 11
163.1154564930951
 21
190.7600746591223
 31
0.0
 12
162.7821231597617
 22
188.7600746591223
 32
0.0
 13
162.7821231597617
 23
188.7600746591223
 33
0.0
  0
SOLID
  5
3F37
330
3CB0
100
AcDbEntity
  8
DIM
100
AcDbTrace
 10
162.4487898264284
 20
194.7600746591223
 30
0.0
 11
163.1154564930951
 21
194.7600746591223
 31
0.0
 12
162.7821231597618
 22
196.7600746591223
 32
0.0
 13
162.7821231597618
 23
196.7600746591223
 33
0.0
  0
MTEXT
  5
3F38
330
3CB0
100
AcDbEntity
  8
DIM
100
AcDbMText
 10
160.7821231597617
 20
192.7600746591223
 30
0.0
 40
2.0
 41
0.0
 71
     5
 72
     1
  1
\A1;%%c8
  7
dayus
 11
0.0000000000000001
 21
1.0
 31
0.0
 73
     1
 44
1.0
1001
ACAD
1000
MTEXTBEGIN
1070
    73
1070
     1
1070
    44
1040
1.0
1070
    74
1070
     0
1000
MTEXTEND
  0
POINT
  5
3F39
330
3CB0
100
AcDbEntity
  8
Defpoints
 62
     0
100
AcDbPoint
 10
134.7643321593739
 20
188.7600746591223
 30
0.0
  0
POINT
  5
3F3A
330
3CB0
100
AcDbEntity
  8
Defpoints
 62
     0
100
AcDbPoint
 10
134.7643321593739
 20
196.7600746591223
 30
0.0
  0
POINT
  5
3F3B
330
3CB0
100
AcDbEntity
  8
Defpoints
 62
     0
100
AcDbPoint
 10
162.7821231597618
 20
196.7600746591223
 30
0.0
  0
ENDBLK
  5
3CBB
330
3CB0
100
AcDbEntity
  8
0
100
AcDbBlockEnd
  0
BLOCK
  5
3CC6
330
3CBC
100
AcDbEntity
  8
0
100
AcDbBlockBegin
  2
*D15
 70
     1
 10
0.0
 20
0.0
 30
0.0
  3
*D15
  1

  0
LINE
  5
3F3C
330
3CBC
100
AcDbEntity
  8
DIM
100
AcDbLine
 10
135.7643321593739
 20
185.2600746591223
 30
0.0
 11
171.2918617906477
 21
185.2600746591223
 31
0.0
  0
LINE
  5
3F3D
330
3CBC
100
AcDbEntity
  8
DIM
100
AcDbLine
 10
135.7643321593739
 20
200.2600746591223
 30
0.0
 11
171.2918617906477
 21
200.2600746591223
 31
0.0
  0
LINE
  5
3F3E
330
3CBC
100
AcDbEntity
  8
DIM
100
AcDbLine
 10
169.7918617906477
 20
187.2600746591223
 30
0.0
 11
169.7918617906478
 21
198.2600746591223
 31
0.0
  0
SOLID
  5
3F3F
330
3CBC
100
AcDbEntity
  8
DIM
100
AcDbTrace
 10
169.4585284573144
 20
187.2600746591223
 30
0.0
 11
170.1251951239811
 21
187.2600746591223
 31
0.0
 12
169.7918617906477
 22
185.2600746591223
 32
0.0
 13
169.7918617906477
 23
185.2600746591223
 33
0.0
  0
SOLID
  5
3F40
330
3CBC
100
AcDbEntity
  8
DIM
100
AcDbTrace
 10
169.4585284573144
 20
198.2600746591223
 30
0.0
 11
170.1251951239811
 21
198.2600746591223
 31
0.0
 12
169.7918617906478
 22
200.2600746591223
 32
0.0
 13
169.7918617906478
 23
200.2600746591223
 33
0.0
  0
MTEXT
  5
3F41
330
3CBC
100
AcDbEntity
  8
DIM
100
AcDbMText
 10
167.135195123981
 20
192.7600746591223
 30
0.0
 40
2.0
 41
0.0
 71
     5
 72
     1
  1
\A1;%%c15{}{\H0.71x;\C3;\S 0^ -0.05;}
  7
dayus
 11
0.0000000000000001
 21
1.0
 31
0.0
 73
     1
 44
1.0
1001
ACAD
1000
MTEXTBEGIN
1070
    73
1070
     1
1070
    44
1040
1.0
1070
    74
1070
     0
1000
MTEXTEND
  0
POINT
  5
3F42
330
3CBC
100
AcDbEntity
  8
Defpoints
 62
     0
100
AcDbPoint
 10
134.2643321593739
 20
185.2600746591223
 30
0.0
  0
POINT
  5
3F43
330
3CBC
100
AcDbEntity
  8
Defpoints
 62
     0
100
AcDbPoint
 10
134.2643321593739
 20
200.2600746591223
 30
0.0
  0
POINT
  5
3F44
330
3CBC
100
AcDbEntity
  8
Defpoints
 62
     0
100
AcDbPoint
 10
169.7918617906478
 20
200.2600746591223
 30
0.0
  0
ENDBLK
  5
3CC7
330
3CBC
100
AcDbEntity
  8
0
100
AcDbBlockEnd
  0
BLOCK
  5
3CD4
330
3CC8
100
AcDbEntity
  8
0
100
AcDbBlockBegin
  2
*D16
 70
     1
 10
0.0
 20
0.0
 30
0.0
  3
*D16
  1

  0
LINE
  5
3F45
330
3CC8
100
AcDbEntity
  8
DIM
100
AcDbLine
 10
135.7643321593739
 20
188.6143233480577
 30
0.0
 11
135.7643321593739
 21
178.3403768884188
 31
0.0
  0
LINE
  5
3F46
330
3CC8
100
AcDbEntity
  8
DIM
100
AcDbLine
 10
138.7643321593739
 20
188.2600746591222
 30
0.0
 11
138.7643321593739
 21
178.3403768884188
 31
0.0
  0
LINE
  5
3F47
330
3CC8
100
AcDbEntity
  8
DIM
100
AcDbLine
 10
133.7643321593739
 20
179.8403768884188
 30
0.0
 11
131.7643321593739
 21
179.8403768884188
 31
0.0
  0
LINE
  5
3F48
330
3CC8
100
AcDbEntity
  8
DIM
100
AcDbLine
 10
140.7643321593739
 20
179.8403768884188
 30
0.0
 11
142.7643321593739
 21
179.8403768884188
 31
0.0
  0
LINE
  5
3F49
330
3CC8
100
AcDbEntity
  8
DIM
100
AcDbLine
 10
135.7643321593739
 20
179.8403768884188
 30
0.0
 11
138.7643321593739
 21
179.8403768884188
 31
0.0
  0
SOLID
  5
3F4A
330
3CC8
100
AcDbEntity
  8
DIM
100
AcDbTrace
 10
133.7643321593739
 20
180.1737102217521
 30
0.0
 11
133.7643321593739
 21
179.5070435550854
 31
0.0
 12
135.7643321593739
 22
179.8403768884188
 32
0.0
 13
135.7643321593739
 23
179.8403768884188
 33
0.0
  0
SOLID
  5
3F4B
330
3CC8
100
AcDbEntity
  8
DIM
100
AcDbTrace
 10
140.7643321593739
 20
180.1737102217521
 30
0.0
 11
140.7643321593739
 21
179.5070435550854
 31
0.0
 12
138.7643321593739
 22
179.8403768884188
 32
0.0
 13
138.7643321593739
 23
179.8403768884188
 33
0.0
  0
MTEXT
  5
3F4C
330
3CC8
100
AcDbEntity
  8
DIM
100
AcDbMText
 10
137.2643321593739
 20
181.8403768884188
 30
0.0
 40
2.0
 41
0.0
 71
     5
 72
     1
  1
\A1;3
  7
dayus
 73
     1
 44
1.0
1001
ACAD
1000
MTEXTBEGIN
1070
    73
1070
     1
1070
    44
1040
1.0
1070
    74
1070
     0
1000
MTEXTEND
  0
POINT
  5
3F4D
330
3CC8
100
AcDbEntity
  8
Defpoints
 62
     0
100
AcDbPoint
 10
135.7643321593739
 20
190.1143233480577
 30
0.0
  0
POINT
  5
3F4E
330
3CC8
100
AcDbEntity
  8
Defpoints
 62
     0
100
AcDbPoint
 10
138.7643321593739
 20
189.7600746591223
 30
0.0
  0
POINT
  5
3F4F
330
3CC8
100
AcDbEntity
  8
Defpoints
 62
     0
100
AcDbPoint
 10
138.7643321593739
 20
179.8403768884188
 30
0.0
  0
ENDBLK
  5
3CD5
330
3CC8
100
AcDbEntity
  8
0
100
AcDbBlockEnd
  0
BLOCK
  5
3CE0
330
3CD6
100
AcDbEntity
  8
0
100
AcDbBlockBegin
  2
*D17
 70
     1
 10
0.0
 20
0.0
 30
0.0
  3
*D17
  1

  0
LINE
  5
3F50
330
3CD6
100
AcDbEntity
  8
DIM
100
AcDbLine
 10
192.6177012109331
 20
210.9679778628726
 30
0.0
 11
192.6177012109331
 21
217.4148448237095
 31
0.0
  0
LINE
  5
3F51
330
3CD6
100
AcDbEntity
  8
DIM
100
AcDbLine
 10
216.6177012109331
 20
210.9679778628726
 30
0.0
 11
216.6177012109331
 21
217.4148448237095
 31
0.0
  0
LINE
  5
3F52
330
3CD6
100
AcDbEntity
  8
DIM
100
AcDbLine
 10
194.6177012109331
 20
215.9148448237095
 30
0.0
 11
214.6177012109331
 21
215.9148448237095
 31
0.0
  0
SOLID
  5
3F53
330
3CD6
100
AcDbEntity
  8
DIM
100
AcDbTrace
 10
194.6177012109331
 20
216.2481781570428
 30
0.0
 11
194.6177012109331
 21
215.5815114903761
 31
0.0
 12
192.6177012109331
 22
215.9148448237095
 32
0.0
 13
192.6177012109331
 23
215.9148448237095
 33
0.0
  0
SOLID
  5
3F54
330
3CD6
100
AcDbEntity
  8
DIM
100
AcDbTrace
 10
214.6177012109331
 20
216.2481781570428
 30
0.0
 11
214.6177012109331
 21
215.5815114903761
 31
0.0
 12
216.6177012109331
 22
215.9148448237095
 32
0.0
 13
216.6177012109331
 23
215.9148448237095
 33
0.0
  0
MTEXT
  5
3F55
330
3CD6
100
AcDbEntity
  8
DIM
100
AcDbMText
 10
204.6177012109331
 20
217.9148448237095
 30
0.0
 40
2.0
 41
0.0
 71
     5
 72
     1
  1
\A1;□24
  7
dayus
 73
     1
 44
1.0
1001
ACAD
1000
MTEXTBEGIN
1070
    73
1070
     1
1070
    44
1040
1.0
1070
    74
1070
     0
1000
MTEXTEND
  0
POINT
  5
3F56
330
3CD6
100
AcDbEntity
  8
Defpoints
 62
     0
100
AcDbPoint
 10
192.6177012109331
 20
209.4679778628726
 30
0.0
  0
POINT
  5
3F57
330
3CD6
100
AcDbEntity
  8
Defpoints
 62
     0
100
AcDbPoint
 10
216.6177012109331
 20
209.4679778628726
 30
0.0
  0
POINT
  5
3F58
330
3CD6
100
AcDbEntity
  8
Defpoints
 62
     0
100
AcDbPoint
 10
216.6177012109331
 20
215.9148448237095
 30
0.0
  0
ENDBLK
  5
3CE1
330
3CD6
100
AcDbEntity
  8
0
100
AcDbBlockEnd
  0
BLOCK
  5
3CEC
330
3CE2
100
AcDbEntity
  8
0
100
AcDbBlockBegin
  2
*D18
 70
     1
 10
0.0
 20
0.0
 30
0.0
  3
*D18
  1

  0
LINE
  5
3F59
330
3CE2
100
AcDbEntity
  8
DIM
100
AcDbLine
 10
187.6177012109323
 20
208.9994776321051
 30
0.0
 11
187.6177012109323
 21
222.6672947349151
 31
0.0
  0
LINE
  5
3F5A
330
3CE2
100
AcDbEntity
  8
DIM
100
AcDbLine
 10
221.617701210933
 20
208.9994776321059
 30
0.0
 11
221.617701210933
 21
222.6672947349151
 31
0.0
  0
LINE
  5
3F5B
330
3CE2
100
AcDbEntity
  8
DIM
100
AcDbLine
 10
189.6177012109323
 20
221.1672947349151
 30
0.0
 11
219.617701210933
 21
221.1672947349151
 31
0.0
  0
SOLID
  5
3F5C
330
3CE2
100
AcDbEntity
  8
DIM
100
AcDbTrace
 10
189.6177012109323
 20
221.5006280682484
 30
0.0
 11
189.6177012109323
 21
220.8339614015817
 31
0.0
 12
187.6177012109323
 22
221.1672947349151
 32
0.0
 13
187.6177012109323
 23
221.1672947349151
 33
0.0
  0
SOLID
  5
3F5D
330
3CE2
100
AcDbEntity
  8
DIM
100
AcDbTrace
 10
219.617701210933
 20
221.5006280682484
 30
0.0
 11
219.617701210933
 21
220.8339614015817
 31
0.0
 12
221.617701210933
 22
221.1672947349151
 32
0.0
 13
221.617701210933
 23
221.1672947349151
 33
0.0
  0
MTEXT
  5
3F5E
330
3CE2
100
AcDbEntity
  8
DIM
100
AcDbMText
 10
204.6177012109327
 20
223.1672947349151
 30
0.0
 40
2.0
 41
0.0
 71
     5
 72
     1
  1
\A1;□34
  7
dayus
 73
     1
 44
1.0
1001
ACAD
1000
MTEXTBEGIN
1070
    73
1070
     1
1070
    44
1040
1.0
1070
    74
1070
     0
1000
MTEXTEND
  0
POINT
  5
3F5F
330
3CE2
100
AcDbEntity
  8
Defpoints
 62
     0
100
AcDbPoint
 10
187.6177012109323
 20
207.4994776321051
 30
0.0
  0
POINT
  5
3F60
330
3CE2
100
AcDbEntity
  8
Defpoints
 62
     0
100
AcDbPoint
 10
221.617701210933
 20
207.4994776321059
 30
0.0
  0
POINT
  5
3F61
330
3CE2
100
AcDbEntity
  8
Defpoints
 62
     0
100
AcDbPoint
 10
221.617701210933
 20
221.1672947349151
 30
0.0
  0
ENDBLK
  5
3CED
330
3CE2
100
AcDbEntity
  8
0
100
AcDbBlockEnd
  0
BLOCK
  5
3CFA
330
3CEE
100
AcDbEntity
  8
0
100
AcDbBlockBegin
  2
*D19
 70
     1
 10
0.0
 20
0.0
 30
0.0
  3
*D19
  1

  0
LINE
  5
3F62
330
3CEE
100
AcDbEntity
  8
DIM
100
AcDbLine
 10
201.6177012109331
 20
188.6143233480578
 30
0.0
 11
201.6177012109331
 21
167.1172516499105
 31
0.0
  0
LINE
  5
3F63
330
3CEE
100
AcDbEntity
  8
DIM
100
AcDbLine
 10
207.6177012109331
 20
188.6143233480578
 30
0.0
 11
207.6177012109331
 21
167.1172516499105
 31
0.0
  0
LINE
  5
3F64
330
3CEE
100
AcDbEntity
  8
DIM
100
AcDbLine
 10
199.6177012109331
 20
168.6172516499105
 30
0.0
 11
197.6177012109331
 21
168.6172516499105
 31
0.0
  0
LINE
  5
3F65
330
3CEE
100
AcDbEntity
  8
DIM
100
AcDbLine
 10
209.6177012109331
 20
168.6172516499105
 30
0.0
 11
211.6177012109331
 21
168.6172516499105
 31
0.0
  0
LINE
  5
3F66
330
3CEE
100
AcDbEntity
  8
DIM
100
AcDbLine
 10
201.6177012109331
 20
168.6172516499105
 30
0.0
 11
207.6177012109331
 21
168.6172516499105
 31
0.0
  0
SOLID
  5
3F67
330
3CEE
100
AcDbEntity
  8
DIM
100
AcDbTrace
 10
199.6177012109331
 20
168.9505849832438
 30
0.0
 11
199.6177012109331
 21
168.2839183165771
 31
0.0
 12
201.6177012109331
 22
168.6172516499105
 32
0.0
 13
201.6177012109331
 23
168.6172516499105
 33
0.0
  0
SOLID
  5
3F68
330
3CEE
100
AcDbEntity
  8
DIM
100
AcDbTrace
 10
209.6177012109331
 20
168.9505849832438
 30
0.0
 11
209.6177012109331
 21
168.2839183165771
 31
0.0
 12
207.6177012109331
 22
168.6172516499105
 32
0.0
 13
207.6177012109331
 23
168.6172516499105
 33
0.0
  0
MTEXT
  5
3F69
330
3CEE
100
AcDbEntity
  8
DIM
100
AcDbMText
 10
204.6177012109331
 20
170.6172516499105
 30
0.0
 40
2.0
 41
0.0
 71
     5
 72
     1
  1
\A1;□6
  7
dayus
 73
     1
 44
1.0
1001
ACAD
1000
MTEXTBEGIN
1070
    73
1070
     1
1070
    44
1040
1.0
1070
    74
1070
     0
1000
MTEXTEND
  0
POINT
  5
3F6A
330
3CEE
100
AcDbEntity
  8
Defpoints
 62
     0
100
AcDbPoint
 10
201.6177012109331
 20
190.1143233480578
 30
0.0
  0
POINT
  5
3F6B
330
3CEE
100
AcDbEntity
  8
Defpoints
 62
     0
100
AcDbPoint
 10
207.6177012109331
 20
190.1143233480578
 30
0.0
  0
POINT
  5
3F6C
330
3CEE
100
AcDbEntity
  8
Defpoints
 62
     0
100
AcDbPoint
 10
207.6177012109331
 20
168.6172516499105
 30
0.0
  0
ENDBLK
  5
3CFB
330
3CEE
100
AcDbEntity
  8
0
100
AcDbBlockEnd
  0
BLOCK
  5
3D25
330
3D19
100
AcDbEntity
  8
0
100
AcDbBlockBegin
  2
*D20
 70
     1
 10
0.0
 20
0.0
 30
0.0
  3
*D20
  1

  0
LINE
  5
43C7
330
3D19
100
AcDbEntity
  8
DIM
100
AcDbLine
 10
133.2643321593739
 20
95.93096686615911
 30
0.0
 11
133.2643321593739
 21
101.3034869257791
 31
0.0
  0
LINE
  5
43C8
330
3D19
100
AcDbEntity
  8
DIM
100
AcDbLine
 10
134.7643321593739
 20
85.93096686615911
 30
0.0
 11
134.7643321593739
 21
101.3034869257791
 31
0.0
  0
LINE
  5
43C9
330
3D19
100
AcDbEntity
  8
DIM
100
AcDbLine
 10
131.2643321593739
 20
99.80348692577912
 30
0.0
 11
129.2643321593739
 21
99.80348692577912
 31
0.0
  0
LINE
  5
43CA
330
3D19
100
AcDbEntity
  8
DIM
100
AcDbLine
 10
136.7643321593739
 20
99.80348692577912
 30
0.0
 11
144.5738559688977
 21
99.80348692577912
 31
0.0
  0
LINE
  5
43CB
330
3D19
100
AcDbEntity
  8
DIM
100
AcDbLine
 10
133.2643321593739
 20
99.80348692577912
 30
0.0
 11
134.7643321593739
 21
99.80348692577912
 31
0.0
  0
SOLID
  5
43CC
330
3D19
100
AcDbEntity
  8
DIM
100
AcDbTrace
 10
131.2643321593739
 20
100.1368202591124
 30
0.0
 11
131.2643321593739
 21
99.47015359244581
 31
0.0
 12
133.2643321593739
 22
99.80348692577912
 32
0.0
 13
133.2643321593739
 23
99.80348692577912
 33
0.0
  0
SOLID
  5
43CD
330
3D19
100
AcDbEntity
  8
DIM
100
AcDbTrace
 10
136.7643321593739
 20
100.1368202591124
 30
0.0
 11
136.7643321593739
 21
99.47015359244581
 31
0.0
 12
134.7643321593739
 22
99.80348692577912
 32
0.0
 13
134.7643321593739
 23
99.80348692577912
 33
0.0
  0
MTEXT
  5
43CE
330
3D19
100
AcDbEntity
  8
DIM
100
AcDbMText
 10
141.6690940641358
 20
101.8034869257791
 30
0.0
 40
2.0
 41
0.0
 71
     5
 72
     1
  1
\A1;1.5
  7
dayus
 73
     1
 44
1.0
1001
ACAD
1000
MTEXTBEGIN
1070
    73
1070
     1
1070
    44
1040
1.0
1070
    74
1070
     0
1000
MTEXTEND
  0
POINT
  5
43CF
330
3D19
100
AcDbEntity
  8
Defpoints
 62
     0
100
AcDbPoint
 10
133.2643321593739
 20
94.43096686615911
 30
0.0
  0
POINT
  5
43D0
330
3D19
100
AcDbEntity
  8
Defpoints
 62
     0
100
AcDbPoint
 10
134.7643321593739
 20
84.43096686615911
 30
0.0
  0
POINT
  5
43D1
330
3D19
100
AcDbEntity
  8
Defpoints
 62
     0
100
AcDbPoint
 10
134.7643321593739
 20
99.80348692577912
 30
0.0
  0
ENDBLK
  5
3D26
330
3D19
100
AcDbEntity
  8
0
100
AcDbBlockEnd
  0
BLOCK
  5
3D33
330
3D27
100
AcDbEntity
  8
0
100
AcDbBlockBegin
  2
*D21
 70
     1
 10
0.0
 20
0.0
 30
0.0
  3
*D21
  1

  0
LINE
  5
43D2
330
3D27
100
AcDbEntity
  8
DIM
100
AcDbLine
 10
133.2643321593739
 20
95.93096686615913
 30
0.0
 11
133.2643321593739
 21
106.8347500200304
 31
0.0
  0
LINE
  5
43D3
330
3D27
100
AcDbEntity
  8
DIM
100
AcDbLine
 10
138.7643321593739
 20
81.93096686615911
 30
0.0
 11
138.7643321593739
 21
106.8347500200304
 31
0.0
  0
LINE
  5
43D4
330
3D27
100
AcDbEntity
  8
DIM
100
AcDbLine
 10
131.2643321593739
 20
105.3347500200303
 30
0.0
 11
129.2643321593739
 21
105.3347500200303
 31
0.0
  0
LINE
  5
43D5
330
3D27
100
AcDbEntity
  8
DIM
100
AcDbLine
 10
140.7643321593739
 20
105.3347500200303
 30
0.0
 11
148.9548083498501
 21
105.3347500200303
 31
0.0
  0
LINE
  5
43D6
330
3D27
100
AcDbEntity
  8
DIM
100
AcDbLine
 10
133.2643321593739
 20
105.3347500200303
 30
0.0
 11
138.7643321593739
 21
105.3347500200303
 31
0.0
  0
SOLID
  5
43D7
330
3D27
100
AcDbEntity
  8
DIM
100
AcDbTrace
 10
131.2643321593739
 20
105.6680833533637
 30
0.0
 11
131.2643321593739
 21
105.001416686697
 31
0.0
 12
133.2643321593739
 22
105.3347500200303
 32
0.0
 13
133.2643321593739
 23
105.3347500200303
 33
0.0
  0
SOLID
  5
43D8
330
3D27
100
AcDbEntity
  8
DIM
100
AcDbTrace
 10
140.7643321593739
 20
105.6680833533637
 30
0.0
 11
140.7643321593739
 21
105.001416686697
 31
0.0
 12
138.7643321593739
 22
105.3347500200303
 32
0.0
 13
138.7643321593739
 23
105.3347500200303
 33
0.0
  0
MTEXT
  5
43D9
330
3D27
100
AcDbEntity
  8
DIM
100
AcDbMText
 10
145.859570254612
 20
107.3347500200303
 30
0.0
 40
2.0
 41
0.0
 71
     5
 72
     1
  1
\A1;5.5
  7
dayus
 73
     1
 44
1.0
1001
ACAD
1000
MTEXTBEGIN
1070
    73
1070
     1
1070
    44
1040
1.0
1070
    74
1070
     0
1000
MTEXTEND
  0
POINT
  5
43DA
330
3D27
100
AcDbEntity
  8
Defpoints
 62
     0
100
AcDbPoint
 10
133.2643321593739
 20
94.43096686615913
 30
0.0
  0
POINT
  5
43DB
330
3D27
100
AcDbEntity
  8
Defpoints
 62
     0
100
AcDbPoint
 10
138.7643321593739
 20
80.43096686615911
 30
0.0
  0
POINT
  5
43DC
330
3D27
100
AcDbEntity
  8
Defpoints
 62
     0
100
AcDbPoint
 10
138.7643321593739
 20
105.3347500200303
 30
0.0
  0
ENDBLK
  5
3D34
330
3D27
100
AcDbEntity
  8
0
100
AcDbBlockEnd
  0
BLOCK
  5
3D3F
330
3D35
100
AcDbEntity
  8
0
100
AcDbBlockBegin
  2
*D22
 70
     1
 10
0.0
 20
0.0
 30
0.0
  3
*D22
  1

  0
LINE
  5
43DD
330
3D35
100
AcDbEntity
  8
DIM
100
AcDbLine
 10
108.7643321593739
 20
95.93096686615913
 30
0.0
 11
108.7643321593739
 21
101.4294425900689
 31
0.0
  0
LINE
  5
43DE
330
3D35
100
AcDbEntity
  8
DIM
100
AcDbLine
 10
116.2643321593739
 20
82.55334049054249
 30
0.0
 11
116.2643321593739
 21
101.4294425900689
 31
0.0
  0
LINE
  5
43DF
330
3D35
100
AcDbEntity
  8
DIM
100
AcDbLine
 10
110.7643321593739
 20
99.92944259006891
 30
0.0
 11
114.2643321593739
 21
99.92944259006891
 31
0.0
  0
SOLID
  5
43E0
330
3D35
100
AcDbEntity
  8
DIM
100
AcDbTrace
 10
110.7643321593739
 20
100.2627759234022
 30
0.0
 11
110.7643321593739
 21
99.59610925673558
 31
0.0
 12
108.7643321593739
 22
99.92944259006891
 32
0.0
 13
108.7643321593739
 23
99.92944259006891
 33
0.0
  0
SOLID
  5
43E1
330
3D35
100
AcDbEntity
  8
DIM
100
AcDbTrace
 10
114.2643321593739
 20
100.2627759234022
 30
0.0
 11
114.2643321593739
 21
99.59610925673558
 31
0.0
 12
116.2643321593739
 22
99.92944259006891
 32
0.0
 13
116.2643321593739
 23
99.92944259006891
 33
0.0
  0
MTEXT
  5
43E2
330
3D35
100
AcDbEntity
  8
DIM
100
AcDbMText
 10
112.5143321593739
 20
101.9294425900689
 30
0.0
 40
2.0
 41
0.0
 71
     5
 72
     1
  1
\A1;7.5
  7
dayus
 73
     1
 44
1.0
1001
ACAD
1000
MTEXTBEGIN
1070
    73
1070
     1
1070
    44
1040
1.0
1070
    74
1070
     0
1000
MTEXTEND
  0
POINT
  5
43E3
330
3D35
100
AcDbEntity
  8
Defpoints
 62
     0
100
AcDbPoint
 10
108.7643321593739
 20
94.43096686615913
 30
0.0
  0
POINT
  5
43E4
330
3D35
100
AcDbEntity
  8
Defpoints
 62
     0
100
AcDbPoint
 10
116.2643321593739
 20
81.05334049054249
 30
0.0
  0
POINT
  5
43E5
330
3D35
100
AcDbEntity
  8
Defpoints
 62
     0
100
AcDbPoint
 10
116.2643321593739
 20
99.92944259006891
 30
0.0
  0
ENDBLK
  5
3D40
330
3D35
100
AcDbEntity
  8
0
100
AcDbBlockEnd
  0
BLOCK
  5
3D4B
330
3D41
100
AcDbEntity
  8
0
100
AcDbBlockBegin
  2
*D23
 70
     1
 10
0.0
 20
0.0
 30
0.0
  3
*D23
  1

  0
LINE
  5
43E6
330
3D41
100
AcDbEntity
  8
DIM
100
AcDbLine
 10
125.7643321593739
 20
82.55334049054249
 30
0.0
 11
125.7643321593739
 21
101.3034869257791
 31
0.0
  0
LINE
  5
43E7
330
3D41
100
AcDbEntity
  8
DIM
100
AcDbLine
 10
133.2643321593739
 20
95.93096686615911
 30
0.0
 11
133.2643321593739
 21
101.3034869257791
 31
0.0
  0
LINE
  5
43E8
330
3D41
100
AcDbEntity
  8
DIM
100
AcDbLine
 10
127.7643321593739
 20
99.80348692577912
 30
0.0
 11
131.2643321593739
 21
99.80348692577912
 31
0.0
  0
SOLID
  5
43E9
330
3D41
100
AcDbEntity
  8
DIM
100
AcDbTrace
 10
127.7643321593739
 20
100.1368202591124
 30
0.0
 11
127.7643321593739
 21
99.47015359244581
 31
0.0
 12
125.7643321593739
 22
99.80348692577912
 32
0.0
 13
125.7643321593739
 23
99.80348692577912
 33
0.0
  0
SOLID
  5
43EA
330
3D41
100
AcDbEntity
  8
DIM
100
AcDbTrace
 10
131.2643321593739
 20
100.1368202591124
 30
0.0
 11
131.2643321593739
 21
99.47015359244581
 31
0.0
 12
133.2643321593739
 22
99.80348692577912
 32
0.0
 13
133.2643321593739
 23
99.80348692577912
 33
0.0
  0
MTEXT
  5
43EB
330
3D41
100
AcDbEntity
  8
DIM
100
AcDbMText
 10
129.5143321593739
 20
101.8034869257791
 30
0.0
 40
2.0
 41
0.0
 71
     5
 72
     1
  1
\A1;7.5
  7
dayus
 73
     1
 44
1.0
1001
ACAD
1000
MTEXTBEGIN
1070
    73
1070
     1
1070
    44
1040
1.0
1070
    74
1070
     0
1000
MTEXTEND
  0
POINT
  5
43EC
330
3D41
100
AcDbEntity
  8
Defpoints
 62
     0
100
AcDbPoint
 10
125.7643321593739
 20
81.05334049054249
 30
0.0
  0
POINT
  5
43ED
330
3D41
100
AcDbEntity
  8
Defpoints
 62
     0
100
AcDbPoint
 10
133.2643321593739
 20
94.43096686615911
 30
0.0
  0
POINT
  5
43EE
330
3D41
100
AcDbEntity
  8
Defpoints
 62
     0
100
AcDbPoint
 10
133.2643321593739
 20
99.80348692577912
 30
0.0
  0
ENDBLK
  5
3D4C
330
3D41
100
AcDbEntity
  8
0
100
AcDbBlockEnd
  0
BLOCK
  5
3D57
330
3D4D
100
AcDbEntity
  8
0
100
AcDbBlockBegin
  2
*D24
 70
     1
 10
0.0
 20
0.0
 30
0.0
  3
*D24
  1

  0
LINE
  5
43EF
330
3D4D
100
AcDbEntity
  8
DIM
100
AcDbLine
 10
108.7643321593741
 20
95.93096686615913
 30
0.0
 11
108.7643321593741
 21
106.8347500200304
 31
0.0
  0
LINE
  5
43F0
330
3D4D
100
AcDbEntity
  8
DIM
100
AcDbLine
 10
133.2643321593739
 20
95.93096686615913
 30
0.0
 11
133.2643321593739
 21
106.8347500200304
 31
0.0
  0
LINE
  5
43F1
330
3D4D
100
AcDbEntity
  8
DIM
100
AcDbLine
 10
110.7643321593741
 20
105.3347500200303
 30
0.0
 11
131.2643321593739
 21
105.3347500200303
 31
0.0
  0
SOLID
  5
43F2
330
3D4D
100
AcDbEntity
  8
DIM
100
AcDbTrace
 10
110.7643321593741
 20
105.6680833533637
 30
0.0
 11
110.7643321593741
 21
105.001416686697
 31
0.0
 12
108.7643321593741
 22
105.3347500200303
 32
0.0
 13
108.7643321593741
 23
105.3347500200303
 33
0.0
  0
SOLID
  5
43F3
330
3D4D
100
AcDbEntity
  8
DIM
100
AcDbTrace
 10
131.2643321593739
 20
105.6680833533637
 30
0.0
 11
131.2643321593739
 21
105.001416686697
 31
0.0
 12
133.2643321593739
 22
105.3347500200303
 32
0.0
 13
133.2643321593739
 23
105.3347500200303
 33
0.0
  0
MTEXT
  5
43F4
330
3D4D
100
AcDbEntity
  8
DIM
100
AcDbMText
 10
121.014332159374
 20
107.3347500200303
 30
0.0
 40
2.0
 41
0.0
 71
     5
 72
     1
  1
\A1;19.5+stroke=S
  7
dayus
 73
     1
 44
1.0
1001
ACAD
1000
MTEXTBEGIN
1070
    73
1070
     1
1070
    44
1040
1.0
1070
    74
1070
     0
1000
MTEXTEND
  0
POINT
  5
43F5
330
3D4D
100
AcDbEntity
  8
Defpoints
 62
     0
100
AcDbPoint
 10
108.7643321593741
 20
94.43096686615913
 30
0.0
  0
POINT
  5
43F6
330
3D4D
100
AcDbEntity
  8
Defpoints
 62
     0
100
AcDbPoint
 10
133.2643321593739
 20
94.43096686615913
 30
0.0
  0
POINT
  5
43F7
330
3D4D
100
AcDbEntity
  8
Defpoints
 62
     0
100
AcDbPoint
 10
133.2643321593739
 20
105.3347500200303
 30
0.0
  0
ENDBLK
  5
3D58
330
3D4D
100
AcDbEntity
  8
0
100
AcDbBlockEnd
  0
BLOCK
  5
3D63
330
3D59
100
AcDbEntity
  8
0
100
AcDbBlockBegin
  2
*D25
 70
     1
 10
0.0
 20
0.0
 30
0.0
  3
*D25
  1

  0
LINE
  5
43F8
330
3D59
100
AcDbEntity
  8
DIM
100
AcDbLine
 10
108.7643321593741
 20
95.93096686615913
 30
0.0
 11
108.7643321593741
 21
112.44409653123
 31
0.0
  0
LINE
  5
43F9
330
3D59
100
AcDbEntity
  8
DIM
100
AcDbLine
 10
138.7643321593739
 20
81.93096686615911
 30
0.0
 11
138.7643321593739
 21
112.44409653123
 31
0.0
  0
LINE
  5
43FA
330
3D59
100
AcDbEntity
  8
DIM
100
AcDbLine
 10
110.7643321593741
 20
110.94409653123
 30
0.0
 11
136.7643321593739
 21
110.94409653123
 31
0.0
  0
SOLID
  5
43FB
330
3D59
100
AcDbEntity
  8
DIM
100
AcDbTrace
 10
110.7643321593741
 20
111.2774298645633
 30
0.0
 11
110.7643321593741
 21
110.6107631978967
 31
0.0
 12
108.7643321593741
 22
110.94409653123
 32
0.0
 13
108.7643321593741
 23
110.94409653123
 33
0.0
  0
SOLID
  5
43FC
330
3D59
100
AcDbEntity
  8
DIM
100
AcDbTrace
 10
136.7643321593739
 20
111.2774298645633
 30
0.0
 11
136.7643321593739
 21
110.6107631978967
 31
0.0
 12
138.7643321593739
 22
110.94409653123
 32
0.0
 13
138.7643321593739
 23
110.94409653123
 33
0.0
  0
MTEXT
  5
43FD
330
3D59
100
AcDbEntity
  8
DIM
100
AcDbMText
 10
123.764332159374
 20
112.94409653123
 30
0.0
 40
2.0
 41
0.0
 71
     5
 72
     1
  1
\A1;25+stroke=ZZ
  7
dayus
 73
     1
 44
1.0
1001
ACAD
1000
MTEXTBEGIN
1070
    73
1070
     1
1070
    44
1040
1.0
1070
    74
1070
     0
1000
MTEXTEND
  0
POINT
  5
43FE
330
3D59
100
AcDbEntity
  8
Defpoints
 62
     0
100
AcDbPoint
 10
108.7643321593741
 20
94.43096686615913
 30
0.0
  0
POINT
  5
43FF
330
3D59
100
AcDbEntity
  8
Defpoints
 62
     0
100
AcDbPoint
 10
138.7643321593739
 20
80.43096686615911
 30
0.0
  0
POINT
  5
4400
330
3D59
100
AcDbEntity
  8
Defpoints
 62
     0
100
AcDbPoint
 10
138.7643321593739
 20
110.94409653123
 30
0.0
  0
ENDBLK
  5
3D64
330
3D59
100
AcDbEntity
  8
0
100
AcDbBlockEnd
  0
BLOCK
  5
3D6F
330
3D65
100
AcDbEntity
  8
0
100
AcDbBlockBegin
  2
*D26
 70
     1
 10
0.0
 20
0.0
 30
0.0
  3
*D26
  1

  0
LINE
  5
4401
330
3D65
100
AcDbEntity
  8
DIM
100
AcDbLine
 10
136.2643321593739
 20
81.43096686615884
 30
0.0
 11
147.2469548945889
 21
81.43096686615884
 31
0.0
  0
LINE
  5
4402
330
3D65
100
AcDbEntity
  8
DIM
100
AcDbLine
 10
136.2643321593738
 20
73.43096686615925
 30
0.0
 11
147.2469548945889
 21
73.43096686615925
 31
0.0
  0
LINE
  5
4403
330
3D65
100
AcDbEntity
  8
DIM
100
AcDbLine
 10
145.7469548945889
 20
79.43096686615884
 30
0.0
 11
145.7469548945889
 21
75.43096686615925
 31
0.0
  0
SOLID
  5
4404
330
3D65
100
AcDbEntity
  8
DIM
100
AcDbTrace
 10
145.4136215612556
 20
79.43096686615884
 30
0.0
 11
146.0802882279223
 21
79.43096686615884
 31
0.0
 12
145.7469548945889
 22
81.43096686615884
 32
0.0
 13
145.7469548945889
 23
81.43096686615884
 33
0.0
  0
SOLID
  5
4405
330
3D65
100
AcDbEntity
  8
DIM
100
AcDbTrace
 10
145.4136215612556
 20
75.43096686615925
 30
0.0
 11
146.0802882279223
 21
75.43096686615925
 31
0.0
 12
145.7469548945889
 22
73.43096686615925
 32
0.0
 13
145.7469548945889
 23
73.43096686615925
 33
0.0
  0
MTEXT
  5
4406
330
3D65
100
AcDbEntity
  8
DIM
100
AcDbMText
 10
143.7469548945889
 20
77.43096686615906
 30
0.0
 40
2.0
 41
0.0
 71
     5
 72
     1
  1
\A1;%%c8
  7
dayus
 11
0.0000000000000001
 21
1.0
 31
0.0
 73
     1
 44
1.0
1001
ACAD
1000
MTEXTBEGIN
1070
    73
1070
     1
1070
    44
1040
1.0
1070
    74
1070
     0
1000
MTEXTEND
  0
POINT
  5
4407
330
3D65
100
AcDbEntity
  8
Defpoints
 62
     0
100
AcDbPoint
 10
134.7643321593739
 20
81.43096686615884
 30
0.0
  0
POINT
  5
4408
330
3D65
100
AcDbEntity
  8
Defpoints
 62
     0
100
AcDbPoint
 10
134.7643321593738
 20
73.43096686615925
 30
0.0
  0
POINT
  5
4409
330
3D65
100
AcDbEntity
  8
Defpoints
 62
     0
100
AcDbPoint
 10
145.7469548945889
 20
73.43096686615925
 30
0.0
  0
ENDBLK
  5
3D70
330
3D65
100
AcDbEntity
  8
0
100
AcDbBlockEnd
  0
BLOCK
  5
3D7B
330
3D71
100
AcDbEntity
  8
0
100
AcDbBlockBegin
  2
*D27
 70
     1
 10
0.0
 20
0.0
 30
0.0
  3
*D27
  1

  0
LINE
  5
440A
330
3D71
100
AcDbEntity
  8
DIM
100
AcDbLine
 10
135.7643321593739
 20
69.93096686615911
 30
0.0
 11
155.022000566448
 21
69.93096686615911
 31
0.0
  0
LINE
  5
440B
330
3D71
100
AcDbEntity
  8
DIM
100
AcDbLine
 10
135.7643321593739
 20
84.93096686615912
 30
0.0
 11
155.022000566448
 21
84.93096686615912
 31
0.0
  0
LINE
  5
440C
330
3D71
100
AcDbEntity
  8
DIM
100
AcDbLine
 10
153.522000566448
 20
71.93096686615911
 30
0.0
 11
153.522000566448
 21
82.93096686615911
 31
0.0
  0
SOLID
  5
440D
330
3D71
100
AcDbEntity
  8
DIM
100
AcDbTrace
 10
153.1886672331147
 20
71.93096686615911
 30
0.0
 11
153.8553338997813
 21
71.93096686615911
 31
0.0
 12
153.522000566448
 22
69.93096686615911
 32
0.0
 13
153.522000566448
 23
69.93096686615911
 33
0.0
  0
SOLID
  5
440E
330
3D71
100
AcDbEntity
  8
DIM
100
AcDbTrace
 10
153.1886672331147
 20
82.93096686615911
 30
0.0
 11
153.8553338997813
 21
82.93096686615911
 31
0.0
 12
153.522000566448
 22
84.93096686615912
 32
0.0
 13
153.522000566448
 23
84.93096686615912
 33
0.0
  0
MTEXT
  5
440F
330
3D71
100
AcDbEntity
  8
DIM
100
AcDbMText
 10
150.8653338997813
 20
77.43096686615912
 30
0.0
 40
2.0
 41
0.0
 71
     5
 72
     1
  1
\A1;%%c15{}{\H0.71x;\C3;\S 0^ -0.05;}
  7
dayus
 11
0.0000000000000001
 21
1.0
 31
0.0
 73
     1
 44
1.0
1001
ACAD
1000
MTEXTBEGIN
1070
    73
1070
     1
1070
    44
1040
1.0
1070
    74
1070
     0
1000
MTEXTEND
  0
POINT
  5
4410
330
3D71
100
AcDbEntity
  8
Defpoints
 62
     0
100
AcDbPoint
 10
134.2643321593739
 20
69.93096686615911
 30
0.0
  0
POINT
  5
4411
330
3D71
100
AcDbEntity
  8
Defpoints
 62
     0
100
AcDbPoint
 10
134.2643321593739
 20
84.93096686615912
 30
0.0
  0
POINT
  5
4412
330
3D71
100
AcDbEntity
  8
Defpoints
 62
     0
100
AcDbPoint
 10
153.522000566448
 20
84.93096686615912
 30
0.0
  0
ENDBLK
  5
3D7C
330
3D71
100
AcDbEntity
  8
0
100
AcDbBlockEnd
  0
BLOCK
  5
3D89
330
3D7D
100
AcDbEntity
  8
0
100
AcDbBlockBegin
  2
*D28
 70
     1
 10
0.0
 20
0.0
 30
0.0
  3
*D28
  1

  0
LINE
  5
4413
330
3D7D
100
AcDbEntity
  8
DIM
100
AcDbLine
 10
135.7643321593739
 20
73.28521555509451
 30
0.0
 11
135.7643321593739
 21
60.44879843480244
 31
0.0
  0
LINE
  5
4414
330
3D7D
100
AcDbEntity
  8
DIM
100
AcDbLine
 10
138.7643321593739
 20
72.93096686615905
 30
0.0
 11
138.7643321593739
 21
60.44879843480244
 31
0.0
  0
LINE
  5
4415
330
3D7D
100
AcDbEntity
  8
DIM
100
AcDbLine
 10
133.7643321593739
 20
61.94879843480244
 30
0.0
 11
131.7643321593739
 21
61.94879843480244
 31
0.0
  0
LINE
  5
4416
330
3D7D
100
AcDbEntity
  8
DIM
100
AcDbLine
 10
140.7643321593739
 20
61.94879843480244
 30
0.0
 11
142.7643321593739
 21
61.94879843480244
 31
0.0
  0
LINE
  5
4417
330
3D7D
100
AcDbEntity
  8
DIM
100
AcDbLine
 10
135.7643321593739
 20
61.94879843480244
 30
0.0
 11
138.7643321593739
 21
61.94879843480244
 31
0.0
  0
SOLID
  5
4418
330
3D7D
100
AcDbEntity
  8
DIM
100
AcDbTrace
 10
133.7643321593739
 20
62.28213176813578
 30
0.0
 11
133.7643321593739
 21
61.6154651014691
 31
0.0
 12
135.7643321593739
 22
61.94879843480244
 32
0.0
 13
135.7643321593739
 23
61.94879843480244
 33
0.0
  0
SOLID
  5
4419
330
3D7D
100
AcDbEntity
  8
DIM
100
AcDbTrace
 10
140.7643321593739
 20
62.28213176813578
 30
0.0
 11
140.7643321593739
 21
61.6154651014691
 31
0.0
 12
138.7643321593739
 22
61.94879843480244
 32
0.0
 13
138.7643321593739
 23
61.94879843480244
 33
0.0
  0
MTEXT
  5
441A
330
3D7D
100
AcDbEntity
  8
DIM
100
AcDbMText
 10
137.2643321593739
 20
63.94879843480244
 30
0.0
 40
2.0
 41
0.0
 71
     5
 72
     1
  1
\A1;3
  7
dayus
 73
     1
 44
1.0
1001
ACAD
1000
MTEXTBEGIN
1070
    73
1070
     1
1070
    44
1040
1.0
1070
    74
1070
     0
1000
MTEXTEND
  0
POINT
  5
441B
330
3D7D
100
AcDbEntity
  8
Defpoints
 62
     0
100
AcDbPoint
 10
135.7643321593739
 20
74.78521555509451
 30
0.0
  0
POINT
  5
441C
330
3D7D
100
AcDbEntity
  8
Defpoints
 62
     0
100
AcDbPoint
 10
138.7643321593739
 20
74.43096686615906
 30
0.0
  0
POINT
  5
441D
330
3D7D
100
AcDbEntity
  8
Defpoints
 62
     0
100
AcDbPoint
 10
138.7643321593739
 20
61.94879843480244
 30
0.0
  0
ENDBLK
  5
3D8A
330
3D7D
100
AcDbEntity
  8
0
100
AcDbBlockEnd
  0
BLOCK
  5
42E8
330
42E6
100
AcDbEntity
  8
0
100
AcDbBlockBegin
  2
A$C5ECF147B
 70
     0
 10
0.0
 20
0.0
 30
0.0
  3
A$C5ECF147B
  1

  0
CIRCLE
  5
42E9
330
42E6
100
AcDbEntity
  8
0
100
AcDbCircle
 10
-3.079240456948355
 20
2.061381943681453
 30
0.0
 40
1.25
  0
CIRCLE
  5
42EA
330
42E6
100
AcDbEntity
  8
0
100
AcDbCircle
 10
-3.079240456948355
 20
2.061381943681453
 30
0.0
 40
0.75
  0
ENDBLK
  5
42EB
330
42E6
100
AcDbEntity
  8
0
100
AcDbBlockEnd
  0
BLOCK
  5
4443
330
4440
100
AcDbEntity
  8
0
100
AcDbBlockBegin
  2
A$C1F6E6265
 70
     0
 10
0.0
 20
0.0
 30
0.0
  3
A$C1F6E6265
  1

  0
LINE
  5
4444
330
4440
100
AcDbEntity
  8
AM_5
 62
     5
100
AcDbLine
 10
12.57846733029419
 20
0.460783587398737
 30
0.0
 11
7.091423997858555
 21
0.460783587398737
 31
0.0
  0
LINE
  5
4445
330
4440
100
AcDbEntity
  8
AM_5
 62
     5
100
AcDbLine
 10
7.091423997858555
 20
0.460783587398737
 30
0.0
 11
3.50000046420655
 21
0.460783587398737
 31
0.0
  0
TRACE
  5
4446
330
4440
100
AcDbEntity
  8
AM_5
 62
     5
370
    35
100
AcDbTrace
 10
3.50000046420655
 20
0.9215673268987245
 30
0.0
 11
3.50000046420655
 21
-0.0000001521012507
 31
0.0
 12
0.0000004642065505
 22
0.460783587398737
 32
0.0
 13
0.0000004642065505
 23
0.460783587398737
 33
0.0
  0
MTEXT
  5
4447
330
4440
100
AcDbEntity
  8
AM_5
 62
     5
100
AcDbMText
 10
6.603782167567317
 20
1.421084835219261
 30
0.0
 40
2.449999999999999
 41
0.0
 71
     7
 72
     5
  1
SL
  7
ACISOTS
 73
     1
 44
1.0
1001
ACAD
1000
MTEXTBEGIN
1070
    73
1070
     1
1070
    44
1040
1.0
1070
    74
1070
     0
1000
MTEXTEND
  0
ENDBLK
  5
4448
330
4440
100
AcDbEntity
  8
0
100
AcDbBlockEnd
  0
ENDSEC
  0
SECTION
  2
ENTITIES
  0
MTEXT
  5
A9
330
1F
100
AcDbEntity
  8
0
100
AcDbMText
 10
-112.8858816556399
 20
179.1757813154577
 30
0.0
 40
3.0
 41
0.0
 71
     4
 72
     5
  1

 73
     1
 44
1.0
1001
ACAD
1000
MTEXTBEGIN
1070
    73
1070
     1
1070
    44
1040
1.0
1070
    74
1070
     0
1000
MTEXTEND
  0
MTEXT
  5
AA
330
1F
100
AcDbEntity
  8
0
100
AcDbMText
 10
-176.2667196970539
 20
189.9084924046809
 30
0.0
 40
1.799999999999999
 41
0.0
 71
     9
 72
     5
  1

 73
     1
 44
1.0
1001
ACAD
1000
MTEXTBEGIN
1070
    73
1070
     1
1070
    44
1040
1.0
1070
    74
1070
     0
1000
MTEXTEND
  0
MTEXT
  5
AB
330
1F
100
AcDbEntity
  8
0
100
AcDbMText
 10
82.64233389287733
 20
174.944592339129
 30
0.0
 40
3.0
 41
0.0
 71
     4
 72
     5
  1

 73
     1
 44
1.0
1001
ACAD
1000
MTEXTBEGIN
1070
    73
1070
     1
1070
    44
1040
1.0
1070
    74
1070
     0
1000
MTEXTEND
  0
MTEXT
  5
AC
330
1F
100
AcDbEntity
  8
0
100
AcDbMText
 10
19.26149585146331
 20
185.6773034283523
 30
0.0
 40
1.799999999999999
 41
0.0
 71
     9
 72
     5
  1

 73
     1
 44
1.0
1001
ACAD
1000
MTEXTBEGIN
1070
    73
1070
     1
1070
    44
1040
1.0
1070
    74
1070
     0
1000
MTEXTEND
  0
MTEXT
  5
B1
330
1F
100
AcDbEntity
  8
0
100
AcDbMText
 10
-211.0828086697475
 20
93.72900974557683
 30
0.0
 40
3.0
 41
59.51
 71
     1
 72
     5
  1

  7
CHINESET
 73
     1
 44
1.0
1001
ACAD
1000
MTEXTBEGIN
1070
    73
1070
     1
1070
    44
1040
1.0
1070
    74
1070
     0
1000
MTEXTEND
  0
MTEXT
  5
B2
330
1F
100
AcDbEntity
  8
0
100
AcDbMText
 10
-179.9099428209695
 20
86.93407807798587
 30
0.0
 40
3.0
 41
38.26
 71
     1
 72
     5
  1

  7
CHINESET
 73
     1
 44
1.0
1001
ACAD
1000
MTEXTBEGIN
1070
    73
1070
     1
1070
    44
1040
1.0
1070
    74
1070
     0
1000
MTEXTEND
  0
MTEXT
  5
10B3
330
1F
100
AcDbEntity
  8
0
100
AcDbMText
 10
81.67014302795905
 20
125.5492500028813
 30
0.0
 40
3.0
 41
0.0
 71
     7
 72
     5
  1

  7
CHINESET
 73
     1
 44
1.0
1001
ACAD
1000
MTEXTBEGIN
1070
    73
1070
     1
1070
    44
1040
1.0
1070
    74
1070
     0
1000
MTEXTEND
  0
LINE
  5
17B4
330
1F
100
AcDbEntity
  8
0
 62
     4
100
AcDbLine
 10
290.3688113312526
 20
34.8799803659976
 30
0.0
 11
290.3688113312526
 21
264.3808727122839
 31
0.0
  0
LINE
  5
17B5
330
1F
100
AcDbEntity
  8
0
 62
     4
100
AcDbLine
 10
54.83355057409903
 20
34.87998036599757
 30
0.0
 11
54.83355057409903
 21
264.3808727122839
 31
0.0
  0
TEXT
  5
17BD
330
1F
100
AcDbEntity
  8
LOGO
  6
Continuous
 62
     7
100
AcDbText
 10
186.689067531638
 20
25.32486812293918
 30
0.0
 40
4.926249999999999
  1
11/12
  7
CHINESET
 72
     1
 11
196.541567531638
 21
27.78799312293918
 31
0.0
100
AcDbText
 73
     2
  0
TEXT
  5
17BE
330
1F
100
AcDbEntity
  8
LOGO
100
AcDbText
 10
188.0191927617445
 20
14.44058860513659
 30
0.0
 40
3.518749999999999
  1
作動型式
  7
CHINESET
 72
     4
 11
195.0200391159111
 21
16.10991685316809
 31
0.0
100
AcDbText
  0
LINE
  5
17BF
330
1F
100
AcDbEntity
  8
0
 62
     4
100
AcDbLine
 10
290.3688113312526
 20
155.3848575742212
 30
0.0
 11
54.83355057409903
 21
155.3848575742212
 31
0.0
  0
TEXT
  5
17C3
330
1F
100
AcDbEntity
  8
LOGO
  6
Continuous
100
AcDbText
 10
187.7814676873397
 20
10.71365097496072
 30
0.0
 40
2.11125
  1
Acting type
 41
0.8
  7
CHINESET
 72
     4
 11
195.0200391159111
 21
11.41740097496072
 31
0.0
100
AcDbText
  0
LINE
  5
17C4
330
1F
100
AcDbEntity
  8
LOGO
 62
     4
100
AcDbLine
 10
209.144841704883
 20
23.61794225829988
 30
0.0
 11
184.6705057608449
 21
23.61794225829988
 31
0.0
  0
LINE
  5
17C5
330
1F
100
AcDbEntity
  8
LOGO
 62
     4
100
AcDbLine
 10
209.144841704883
 20
19.39467796791325
 30
0.0
 11
184.6705057608449
 21
19.39467796791325
 31
0.0
  0
LINE
  5
17C6
330
1F
100
AcDbEntity
  8
LOGO
 62
     4
100
AcDbLine
 10
209.144841704883
 20
9.071143035857033
 30
0.0
 11
184.6705057608449
 21
9.071143035857012
 31
0.0
  0
LINE
  5
17C7
330
1F
100
AcDbEntity
  8
LOGO
 62
     4
100
AcDbLine
 10
209.144841704883
 20
32.0644708390732
 30
0.0
 11
184.6705057608449
 21
32.06447083907315
 31
0.0
  0
LINE
  5
1802
330
1F
100
AcDbEntity
  8
LOGO
 62
     4
100
AcDbLine
 10
176.1479139868309
 20
19.39467796791325
 30
0.0
 11
157.3778504740014
 21
19.39467796791325
 31
0.0
  0
TEXT
  5
1803
330
1F
100
AcDbEntity
  8
LOGO
  6
Continuous
 62
     7
100
AcDbText
 10
157.7314238970828
 20
25.37808154868652
 30
0.0
 40
4.926249999999999
  1
MCJA
  7
CHINESET
 72
     1
 11
166.7628822304161
 21
27.84120654868651
 31
0.0
100
AcDbText
 73
     2
  0
LINE
  5
1804
330
1F
100
AcDbEntity
  8
LOGO
 62
     4
100
AcDbLine
 10
176.1479139868309
 20
9.071143035857033
 30
0.0
 11
157.3778504740014
 21
9.071143035857012
 31
0.0
  0
TEXT
  5
1805
330
1F
100
AcDbEntity
  8
LOGO
  6
Continuous
100
AcDbText
 10
163.5457393732733
 20
10.36177597496072
 30
0.0
 40
2.11125
  1
Model
 41
0.8
  7
CHINESET
 72
     4
 11
166.7628822304161
 21
11.41740097496072
 31
0.0
100
AcDbText
  0
TEXT
  5
1806
330
1F
100
AcDbEntity
  8
LOGO
100
AcDbText
 10
163.2441322304161
 20
14.44058860513659
 30
0.0
 40
3.518749999999999
  1
型式
  7
CHINESET
 72
     4
 11
166.7628822304161
 21
16.10991685316809
 31
0.0
100
AcDbText
  0
LINE
  5
1807
330
1F
100
AcDbEntity
  8
LOGO
 62
     4
100
AcDbLine
 10
178.0249203381138
 20
23.61794225829988
 30
0.0
 11
155.5008441227185
 21
23.61794225829988
 31
0.0
  0
LINE
  5
1808
330
1F
100
AcDbEntity
  8
LOGO
 62
     4
100
AcDbLine
 10
178.0249203381138
 20
32.06447083907315
 30
0.0
 11
155.5008441227185
 21
32.06447083907315
 31
0.0
  0
LINE
  5
1809
330
1F
100
AcDbEntity
  8
LOGO
 62
     4
100
AcDbLine
 10
166.7628822304161
 20
23.61794225829988
 30
0.0
 11
166.7628822304161
 21
19.39467796791325
 31
0.0
  0
LINE
  5
180A
330
1F
100
AcDbEntity
  8
LOGO
 62
     4
100
AcDbLine
 10
157.3778504740014
 20
19.39467796791325
 30
0.0
 11
157.3778504740014
 21
9.071143035857012
 31
0.0
  0
LINE
  5
180B
330
1F
100
AcDbEntity
  8
LOGO
 62
     4
100
AcDbLine
 10
155.5008441227185
 20
32.06447083907315
 30
0.0
 11
155.5008441227185
 21
23.61794225829988
 31
0.0
  0
LINE
  5
180C
330
1F
100
AcDbEntity
  8
LOGO
 62
     4
100
AcDbLine
 10
176.1479139868309
 20
19.39467796791325
 30
0.0
 11
176.1479139868309
 21
9.071143035857033
 31
0.0
  0
LINE
  5
180D
330
1F
100
AcDbEntity
  8
LOGO
 62
     4
100
AcDbLine
 10
184.6705057608449
 20
19.39467796791325
 30
0.0
 11
184.6705057608449
 21
9.071143035857033
 31
0.0
  0
LINE
  5
180E
330
1F
100
AcDbEntity
  8
LOGO
  6
Continuous
 62
     7
100
AcDbLine
 10
179.4801302739741
 20
27.81128760958637
 30
0.0
 11
183.2098090951104
 21
27.81128760958637
 31
0.0
  0
LINE
  5
180F
330
1F
100
AcDbEntity
  8
LOGO
 62
     4
100
AcDbLine
 10
178.0249203381139
 20
32.06447083907315
 30
0.0
 11
178.0249203381139
 21
23.61794225829988
 31
0.0
  0
LINE
  5
1810
330
1F
100
AcDbEntity
  8
LOGO
 62
     4
100
AcDbLine
 10
184.6705057608449
 20
32.06447083907315
 30
0.0
 11
184.6705057608449
 21
23.61794225829988
 31
0.0
  0
LINE
  5
1868
330
1F
100
AcDbEntity
  8
LOGO
 62
     4
100
AcDbLine
 10
253.1380385506794
 20
32.06447083907315
 30
0.0
 11
237.5040602066287
 21
32.06447083907315
 31
0.0
  0
LINE
  5
1869
330
1F
100
AcDbEntity
  8
LOGO
 62
     4
100
AcDbLine
 10
253.1380385506794
 20
23.61794225829988
 30
0.0
 11
237.5040602066287
 21
23.61794225829988
 31
0.0
  0
LINE
  5
186A
330
1F
100
AcDbEntity
  8
LOGO
 62
     4
100
AcDbLine
 10
252.1995353750379
 20
19.39467796791325
 30
0.0
 11
238.4425633822701
 21
19.39467796791325
 31
0.0
  0
LINE
  5
186B
330
1F
100
AcDbEntity
  8
LOGO
 62
     4
100
AcDbLine
 10
252.1995353750379
 20
9.071143035857033
 30
0.0
 11
238.4425633822701
 21
9.071143035857012
 31
0.0
  0
LINE
  5
186C
330
1F
100
AcDbEntity
  8
LOGO
 62
     4
100
AcDbLine
 10
230.8584747838975
 20
23.61794225829993
 30
0.0
 11
215.790427127614
 21
23.61794225829993
 31
0.0
  0
LINE
  5
186D
330
1F
100
AcDbEntity
  8
LOGO
 62
     4
100
AcDbLine
 10
230.8584747838975
 20
19.39467796791329
 30
0.0
 11
215.790427127614
 21
19.39467796791329
 31
0.0
  0
LINE
  5
186E
330
1F
100
AcDbEntity
  8
LOGO
 62
     4
100
AcDbLine
 10
230.8584747838975
 20
32.06447083907326
 30
0.0
 11
215.790427127614
 21
32.0644708390732
 31
0.0
  0
TEXT
  5
186F
330
1F
100
AcDbEntity
  8
LOGO
  6
Continuous
 62
     7
100
AcDbText
 10
219.7745025585923
 20
25.32486812293924
 30
0.0
 40
4.926249999999999
  1
20
  7
CHINESET
 72
     1
 11
223.762419225259
 21
27.78799312293923
 31
0.0
100
AcDbText
 73
     2
  0
LINE
  5
1870
330
1F
100
AcDbEntity
  8
LOGO
 62
     4
100
AcDbLine
 10
230.8584747838975
 20
9.07114303585709
 30
0.0
 11
215.790427127614
 21
9.071143035857058
 31
0.0
  0
TEXT
  5
1871
330
1F
100
AcDbEntity
  8
LOGO
  6
Continuous
100
AcDbText
 10
220.7105223843273
 20
10.36177597496075
 30
0.0
 40
2.11125
  1
Bore
 41
0.8
  7
CHINESET
 72
     4
 11
223.3244509557559
 21
11.41740097496075
 31
0.0
100
AcDbText
  0
TEXT
  5
1872
330
1F
100
AcDbEntity
  8
LOGO
100
AcDbText
 10
219.5857790807559
 20
14.35054185316812
 30
0.0
 40
3.518749999999999
  1
內徑
  7
CHINESET
 72
     4
 11
223.3244509557559
 21
16.10991685316812
 31
0.0
100
AcDbText
  0
LINE
  5
1873
330
1F
100
AcDbEntity
  8
LOGO
 62
     4
100
AcDbLine
 10
223.3244507393516
 20
23.61794225829993
 30
0.0
 11
223.3244507393516
 21
19.39467796791329
 31
0.0
  0
LINE
  5
1874
330
1F
100
AcDbEntity
  8
LOGO
 62
     4
100
AcDbLine
 10
195.0200391159111
 20
23.61794225829988
 30
0.0
 11
195.0200391159111
 21
19.39467796791325
 31
0.0
  0
LINE
  5
1875
330
1F
100
AcDbEntity
  8
LOGO
 62
     4
100
AcDbLine
 10
209.144841704883
 20
19.39467796791325
 30
0.0
 11
209.144841704883
 21
9.071143035857058
 31
0.0
  0
LINE
  5
1876
330
1F
100
AcDbEntity
  8
LOGO
 62
     4
100
AcDbLine
 10
215.790427127614
 20
19.39467796791329
 30
0.0
 11
215.790427127614
 21
9.07114303585709
 31
0.0
  0
LINE
  5
1877
330
1F
100
AcDbEntity
  8
LOGO
 62
     4
100
AcDbLine
 10
209.144841704883
 20
32.0644708390732
 30
0.0
 11
209.144841704883
 21
23.61794225829988
 31
0.0
  0
LINE
  5
1878
330
1F
100
AcDbEntity
  8
LOGO
 62
     4
100
AcDbLine
 10
215.790427127614
 20
32.0644708390732
 30
0.0
 11
215.790427127614
 21
23.61794225829993
 31
0.0
  0
LINE
  5
1879
330
1F
100
AcDbEntity
  8
LOGO
  6
Continuous
 62
     7
100
AcDbLine
 10
210.6000516407431
 20
27.81128760958643
 30
0.0
 11
214.3297304618796
 21
27.81128760958643
 31
0.0
  0
LINE
  5
187A
330
1F
100
AcDbEntity
  8
LOGO
 62
     4
100
AcDbLine
 10
245.5198158297825
 20
23.61794225829988
 30
0.0
 11
245.5198158297825
 21
19.39467796791325
 31
0.0
  0
LINE
  5
187B
330
1F
100
AcDbEntity
  8
LOGO
 62
     4
100
AcDbLine
 10
230.8584747838975
 20
19.39467796791329
 30
0.0
 11
230.8584747838975
 21
9.071143035857115
 31
0.0
  0
LINE
  5
187C
330
1F
100
AcDbEntity
  8
LOGO
 62
     4
100
AcDbLine
 10
238.4425633822701
 20
19.39467796791325
 30
0.0
 11
238.4425633822701
 21
9.071143035857012
 31
0.0
  0
TEXT
  5
187D
330
1F
100
AcDbEntity
  8
LOGO
  6
Continuous
100
AcDbText
 10
241.5006922357969
 20
10.36177597496069
 30
0.0
 40
2.11125
  1
Stroke
 41
0.8
  7
CHINESET
 72
     4
 11
245.321049378654
 21
11.41740097496069
 31
0.0
100
AcDbText
  0
TEXT
  5
187E
330
1F
100
AcDbEntity
  8
LOGO
100
AcDbText
 10
241.802299378654
 20
14.35054185316806
 30
0.0
 40
3.518749999999999
  1
行程
  7
CHINESET
 72
     4
 11
245.321049378654
 21
16.10991685316806
 31
0.0
100
AcDbText
  0
LINE
  5
187F
330
1F
100
AcDbEntity
  8
LOGO
 62
     4
100
AcDbLine
 10
230.8584747838975
 20
32.06447083907326
 30
0.0
 11
230.8584747838975
 21
23.61794225829993
 31
0.0
  0
LINE
  5
1880
330
1F
100
AcDbEntity
  8
LOGO
  6
Continuous
 62
     7
100
AcDbLine
 10
232.3136847197578
 20
27.81128760958648
 30
0.0
 11
236.0433635408943
 21
27.81128760958648
 31
0.0
  0
LINE
  5
1881
330
1F
100
AcDbEntity
  8
LOGO
 62
     4
100
AcDbLine
 10
237.5040602066287
 20
32.06447083907315
 30
0.0
 11
237.5040602066287
 21
23.61794225829988
 31
0.0
  0
TEXT
  5
1882
330
1F
100
AcDbEntity
  8
LOGO
  6
Continuous
 62
     7
100
AcDbText
 10
244.5861009814906
 20
25.32486812293918
 30
0.0
 40
4.926249999999999
  1
*
  7
CHINESET
 72
     1
 11
245.7590176481572
 21
27.78799312293918
 31
0.0
100
AcDbText
 73
     2
  0
LINE
  5
1883
330
1F
100
AcDbEntity
  8
LOGO
 62
     4
100
AcDbLine
 10
261.2570836447125
 20
23.61794225829988
 30
0.0
 11
261.2570836447125
 21
19.39467796791325
 31
0.0
  0
LINE
  5
1885
330
1F
100
AcDbEntity
  8
LOGO
 62
     4
100
AcDbLine
 10
269.8237765391519
 20
9.071143035857033
 30
0.0
 11
254.3785976483285
 21
9.071143035857012
 31
0.0
  0
LINE
  5
1886
330
1F
100
AcDbEntity
  8
LOGO
 62
     4
100
AcDbLine
 10
269.8237765391519
 20
19.39467796791325
 30
0.0
 11
254.3785976483285
 21
19.39467796791325
 31
0.0
  0
TEXT
  5
1887
330
1F
100
AcDbEntity
  8
LOGO
  6
Continuous
100
AcDbText
 10
256.9541550732838
 20
10.7136509749607
 30
0.0
 40
2.11125
  1
Magnet
 41
0.8
  7
CHINESET
 72
     4
 11
261.2570836447125
 21
11.41740097496069
 31
0.0
100
AcDbText
  0
TEXT
  5
1888
330
1F
100
AcDbEntity
  8
LOGO
100
AcDbText
 10
255.9789586447124
 20
14.38719549900139
 30
0.0
 40
3.518749999999999
  1
附磁石
  7
CHINESET
 72
     4
 11
261.2570836447125
 21
16.10991685316806
 31
0.0
100
AcDbText
  0
LINE
  5
1889
330
1F
100
AcDbEntity
  8
LOGO
 62
     4
100
AcDbLine
 10
254.3785976483285
 20
19.39467796791325
 30
0.0
 11
254.3785976483285
 21
9.071143035857012
 31
0.0
  0
LINE
  5
188A
330
1F
100
AcDbEntity
  8
LOGO
 62
     4
100
AcDbLine
 10
252.1995353750379
 20
19.39467796791325
 30
0.0
 11
252.1995353750379
 21
9.032216463853934
 31
0.0
  0
LINE
  5
188B
330
1F
100
AcDbEntity
  8
LOGO
 62
     4
100
AcDbLine
 10
269.8237765391519
 20
19.39467796791325
 30
0.0
 11
269.8237765391519
 21
9.032216463853934
 31
0.0
  0
TEXT
  5
188C
330
1F
100
AcDbEntity
  8
LOGO
  6
Continuous
 62
     7
100
AcDbText
 10
256.8611918757213
 20
25.32486812293918
 30
0.0
 40
4.926249999999999
  1
(M)
  7
CHINESET
 72
     1
 11
262.1393168757213
 21
27.78799312293918
 31
0.0
100
AcDbText
 73
     2
  0
LINE
  5
188D
330
1F
100
AcDbEntity
  8
LOGO
 62
     4
100
AcDbLine
 10
269.1112660922773
 20
23.61794225829988
 30
0.0
 11
255.0911080952031
 21
23.61794225829988
 31
0.0
  0
LINE
  5
188E
330
1F
100
AcDbEntity
  8
LOGO
 62
     4
100
AcDbLine
 10
269.1112660922773
 20
32.0644708390732
 30
0.0
 11
255.0911080952031
 21
32.06447083907315
 31
0.0
  0
LINE
  5
188F
330
1F
100
AcDbEntity
  8
LOGO
 62
     4
100
AcDbLine
 10
255.0911080952031
 20
32.06447083907315
 30
0.0
 11
255.0911080952031
 21
23.61794225829988
 31
0.0
  0
LINE
  5
1890
330
1F
100
AcDbEntity
  8
LOGO
 62
     4
100
AcDbLine
 10
253.1380385506794
 20
32.06447083907315
 30
0.0
 11
253.1380385506794
 21
23.61794225829988
 31
0.0
  0
LINE
  5
1891
330
1F
100
AcDbEntity
  8
LOGO
 62
     4
100
AcDbLine
 10
269.1112660922772
 20
32.0644708390732
 30
0.0
 11
269.1112660922773
 21
23.61794225829988
 31
0.0
  0
LINE
  5
18E7
330
1F
100
AcDbEntity
  8
0
 62
     4
100
AcDbLine
 10
290.3688113312526
 20
264.3808727122839
 30
0.0
 11
54.83355057409903
 21
264.380872712284
 31
0.0
  0
TEXT
  5
18EA
330
1F
100
AcDbEntity
  8
0
100
AcDbText
 10
62.55913148534978
 20
253.9762093734847
 30
0.0
 40
4.0
  1
11 type
  7
CHINESET
100
AcDbText
  0
ARC
  5
3A10
330
1F
100
AcDbEntity
  8
0
100
AcDbCircle
 10
216.6177012109331
 20
89.43096686615914
 30
0.0
 40
2.5
100
AcDbArc
 50
350.0000000000014
 51
279.9999999999986
  0
ARC
  5
3A11
330
1F
100
AcDbEntity
  8
0
100
AcDbCircle
 10
192.6177012109331
 20
89.43096686615914
 30
0.0
 40
2.5
100
AcDbArc
 50
350.0000000000014
 51
279.9999999999986
  0
ARC
  5
3A13
330
1F
100
AcDbEntity
  8
0
 62
     3
100
AcDbCircle
 10
216.6177012109331
 20
89.43096686615914
 30
0.0
 40
2.5
100
AcDbArc
 50
350.0000000000014
 51
279.9999999999986
  0
ARC
  5
3A14
330
1F
100
AcDbEntity
  8
0
 62
     3
100
AcDbCircle
 10
192.6177012109331
 20
65.43096686615915
 30
0.0
 40
2.5
100
AcDbArc
 50
350.0000000000014
 51
279.9999999999986
  0
LINE
  5
3A15
330
1F
100
AcDbEntity
  8
CENTER
 48
0.8
100
AcDbLine
 10
192.6177012109331
 20
60.72306366240893
 30
0.0
 11
192.6177012109331
 21
70.13887006990938
 31
0.0
  0
LINE
  5
3A16
330
1F
100
AcDbEntity
  8
CENTER
 48
0.8
100
AcDbLine
 10
197.3256044146833
 20
65.4309668661591
 30
0.0
 11
187.9097980071828
 21
65.43096686615911
 31
0.0
  0
ARC
  5
3A17
330
1F
100
AcDbEntity
  8
0
 62
     3
100
AcDbCircle
 10
192.6177012109331
 20
89.43096686615914
 30
0.0
 40
2.5
100
AcDbArc
 50
350.0000000000014
 51
279.9999999999986
  0
ARC
  5
3A18
330
1F
100
AcDbEntity
  8
0
 62
     3
100
AcDbCircle
 10
204.6177012109331
 20
77.43096686615938
 30
0.0
 40
2.0
100
AcDbArc
 50
350.0000000000014
 51
279.9999999999986
  0
LINE
  5
3A19
330
1F
100
AcDbEntity
  8
CENTER
 48
1.3
100
AcDbLine
 10
107.270446875051
 20
77.43096686615911
 30
0.0
 11
139.7143321593739
 21
77.43096686615911
 31
0.0
  0
LINE
  5
3A1A
330
1F
100
AcDbEntity
  8
0
100
AcDbLine
 10
187.617701210933
 20
62.69156389317561
 30
0.0
 11
187.617701210933
 21
70.23096686615929
 31
0.0
  0
LINE
  5
3A1B
330
1F
100
AcDbEntity
  8
0
100
AcDbLine
 10
188.6177012109331
 20
70.23096686615929
 30
0.0
 11
187.617701210933
 21
70.23096686615929
 31
0.0
  0
LINE
  5
3A1C
330
1F
100
AcDbEntity
  8
0
100
AcDbLine
 10
188.6177012109331
 20
70.23096686615929
 30
0.0
 11
189.1177012109331
 21
69.78096686615924
 31
0.0
  0
LINE
  5
3A1D
330
1F
100
AcDbEntity
  8
0
100
AcDbLine
 10
191.217701210933
 20
69.78096686615924
 30
0.0
 11
189.1177012109331
 21
69.78096686615924
 31
0.0
  0
ARC
  5
3A1E
330
1F
100
AcDbEntity
  8
0
100
AcDbCircle
 10
191.217701210933
 20
71.48096686615933
 30
0.0
 40
1.7
100
AcDbArc
 50
270.0
 51
0.0
  0
LINE
  5
3A1F
330
1F
100
AcDbEntity
  8
0
100
AcDbLine
 10
192.917701210933
 20
72.38096686615938
 30
0.0
 11
192.917701210933
 21
71.48096686615929
 31
0.0
  0
ARC
  5
3A20
330
1F
100
AcDbEntity
  8
0
100
AcDbCircle
 10
191.217701210933
 20
72.38096686615943
 30
0.0
 40
1.7
100
AcDbArc
 50
0.0
 51
90.0
  0
LINE
  5
3A21
330
1F
100
AcDbEntity
  8
0
100
AcDbLine
 10
189.1177012109331
 20
74.0809668661592
 30
0.0
 11
191.217701210933
 21
74.0809668661592
 31
0.0
  0
LINE
  5
3A22
330
1F
100
AcDbEntity
  8
0
100
AcDbLine
 10
189.1177012109331
 20
74.0809668661592
 30
0.0
 11
188.6177012109331
 21
73.63096686615915
 31
0.0
  0
LINE
  5
3A23
330
1F
100
AcDbEntity
  8
0
100
AcDbLine
 10
187.617701210933
 20
73.63096686615915
 30
0.0
 11
188.6177012109331
 21
73.63096686615915
 31
0.0
  0
LINE
  5
3A24
330
1F
100
AcDbEntity
  8
0
100
AcDbLine
 10
188.6177012109331
 20
81.23096686615928
 30
0.0
 11
187.617701210933
 21
81.23096686615928
 31
0.0
  0
LINE
  5
3A25
330
1F
100
AcDbEntity
  8
0
100
AcDbLine
 10
188.6177012109331
 20
81.23096686615928
 30
0.0
 11
189.1177012109331
 21
80.78096686615925
 31
0.0
  0
LINE
  5
3A26
330
1F
100
AcDbEntity
  8
0
100
AcDbLine
 10
191.217701210933
 20
80.78096686615925
 30
0.0
 11
189.1177012109331
 21
80.78096686615925
 31
0.0
  0
ARC
  5
3A27
330
1F
100
AcDbEntity
  8
0
100
AcDbCircle
 10
191.217701210933
 20
82.48096686615934
 30
0.0
 40
1.7
100
AcDbArc
 50
270.0
 51
0.0
  0
LINE
  5
3A28
330
1F
100
AcDbEntity
  8
0
100
AcDbLine
 10
192.917701210933
 20
83.38096686615939
 30
0.0
 11
192.917701210933
 21
82.48096686615928
 31
0.0
  0
ARC
  5
3A29
330
1F
100
AcDbEntity
  8
0
100
AcDbCircle
 10
191.217701210933
 20
83.38096686615942
 30
0.0
 40
1.7
100
AcDbArc
 50
0.0
 51
90.0
  0
LINE
  5
3A2A
330
1F
100
AcDbEntity
  8
0
100
AcDbLine
 10
189.1177012109331
 20
85.08096686615919
 30
0.0
 11
191.217701210933
 21
85.08096686615919
 31
0.0
  0
LINE
  5
3A2B
330
1F
100
AcDbEntity
  8
0
100
AcDbLine
 10
189.1177012109331
 20
85.08096686615919
 30
0.0
 11
188.6177012109331
 21
84.63096686615916
 31
0.0
  0
LINE
  5
3A2C
330
1F
100
AcDbEntity
  8
0
100
AcDbLine
 10
187.617701210933
 20
84.63096686615916
 30
0.0
 11
188.6177012109331
 21
84.63096686615916
 31
0.0
  0
LINE
  5
3A2D
330
1F
100
AcDbEntity
  8
0
100
AcDbLine
 10
187.617701210933
 20
84.63096686615939
 30
0.0
 11
187.617701210933
 21
92.17036983914306
 31
0.0
  0
ARC
  5
3A2E
330
1F
100
AcDbEntity
  8
0
100
AcDbCircle
 10
204.6177012109331
 20
77.43096686615915
 30
0.0
 40
22.5
100
AcDbArc
 50
130.9260633096009
 51
139.0739366903985
  0
LINE
  5
3A2F
330
1F
100
AcDbEntity
  8
0
100
AcDbLine
 10
189.8782982379493
 20
94.43096686615911
 30
0.0
 11
200.767701210933
 21
94.43096686615911
 31
0.0
  0
ARC
  5
3A30
330
1F
100
AcDbEntity
  8
0
100
AcDbCircle
 10
200.767701210933
 20
94.23096686615933
 30
0.0
 40
0.2
100
AcDbArc
 50
0.0
 51
90.0
  0
LINE
  5
3A31
330
1F
100
AcDbEntity
  8
0
100
AcDbLine
 10
200.967701210933
 20
92.93096686615911
 30
0.0
 11
200.967701210933
 21
94.23096686615929
 31
0.0
  0
ARC
  5
3A32
330
1F
100
AcDbEntity
  8
0
100
AcDbCircle
 10
200.767701210933
 20
92.93096686615916
 30
0.0
 40
0.2
100
AcDbArc
 50
270.0
 51
0.0
  0
LINE
  5
3A33
330
1F
100
AcDbEntity
  8
0
100
AcDbLine
 10
199.467701210933
 20
92.73096686615929
 30
0.0
 11
200.767701210933
 21
92.73096686615929
 31
0.0
  0
ARC
  5
3A34
330
1F
100
AcDbEntity
  8
0
100
AcDbCircle
 10
199.467701210933
 20
92.53096686615929
 30
0.0
 40
0.2
100
AcDbArc
 50
90.0
 51
180.0
  0
LINE
  5
3A35
330
1F
100
AcDbEntity
  8
0
100
AcDbLine
 10
199.2677012109329
 20
91.63096686615915
 30
0.0
 11
199.2677012109329
 21
92.53096686615924
 31
0.0
  0
ARC
  5
3A36
330
1F
100
AcDbEntity
  8
0
100
AcDbCircle
 10
199.467701210933
 20
91.6309668661592
 30
0.0
 40
0.2
100
AcDbArc
 50
180.0
 51
270.0
  0
LINE
  5
3A37
330
1F
100
AcDbEntity
  8
0
100
AcDbLine
 10
209.7677012109329
 20
91.4309668661591
 30
0.0
 11
199.467701210933
 21
91.4309668661591
 31
0.0
  0
ARC
  5
3A38
330
1F
100
AcDbEntity
  8
0
100
AcDbCircle
 10
209.7677012109329
 20
91.6309668661592
 30
0.0
 40
0.2
100
AcDbArc
 50
270.0
 51
0.0
  0
LINE
  5
3A39
330
1F
100
AcDbEntity
  8
0
100
AcDbLine
 10
209.967701210933
 20
92.53096686615924
 30
0.0
 11
209.967701210933
 21
91.63096686615938
 31
0.0
  0
ARC
  5
3A3A
330
1F
100
AcDbEntity
  8
0
100
AcDbCircle
 10
209.7677012109329
 20
92.53096686615929
 30
0.0
 40
0.2
100
AcDbArc
 50
0.0
 51
90.0
  0
LINE
  5
3A3B
330
1F
100
AcDbEntity
  8
0
100
AcDbLine
 10
208.467701210933
 20
92.73096686615929
 30
0.0
 11
209.7677012109329
 21
92.73096686615929
 31
0.0
  0
ARC
  5
3A3C
330
1F
100
AcDbEntity
  8
0
100
AcDbCircle
 10
208.467701210933
 20
92.93096686615916
 30
0.0
 40
0.2
100
AcDbArc
 50
180.0
 51
270.0
  0
LINE
  5
3A3D
330
1F
100
AcDbEntity
  8
0
100
AcDbLine
 10
208.2677012109329
 20
94.23096686615929
 30
0.0
 11
208.2677012109329
 21
92.93096686615911
 31
0.0
  0
ARC
  5
3A3E
330
1F
100
AcDbEntity
  8
0
100
AcDbCircle
 10
208.467701210933
 20
94.23096686615933
 30
0.0
 40
0.2
100
AcDbArc
 50
90.0
 51
180.0
  0
LINE
  5
3A3F
330
1F
100
AcDbEntity
  8
0
100
AcDbLine
 10
208.467701210933
 20
94.43096686615911
 30
0.0
 11
219.3571041839168
 21
94.43096686615911
 31
0.0
  0
ARC
  5
3A40
330
1F
100
AcDbEntity
  8
0
100
AcDbCircle
 10
204.6177012109331
 20
77.43096686615915
 30
0.0
 40
22.5
100
AcDbArc
 50
40.92606330960151
 51
49.07393669039909
  0
LINE
  5
3A41
330
1F
100
AcDbEntity
  8
0
100
AcDbLine
 10
221.6177012109331
 20
92.17036983914283
 30
0.0
 11
221.6177012109331
 21
81.28096686615924
 31
0.0
  0
ARC
  5
3A42
330
1F
100
AcDbEntity
  8
0
100
AcDbCircle
 10
221.4177012109331
 20
81.28096686615929
 30
0.0
 40
0.2
100
AcDbArc
 50
270.0
 51
0.0
  0
LINE
  5
3A43
330
1F
100
AcDbEntity
  8
0
100
AcDbLine
 10
220.1177012109331
 20
81.08096686615921
 30
0.0
 11
221.4177012109331
 21
81.08096686615921
 31
0.0
  0
ARC
  5
3A44
330
1F
100
AcDbEntity
  8
0
100
AcDbCircle
 10
220.1177012109331
 20
81.28096686615929
 30
0.0
 40
0.2
100
AcDbArc
 50
180.0
 51
270.0
  0
LINE
  5
3A45
330
1F
100
AcDbEntity
  8
0
100
AcDbLine
 10
219.9177012109331
 20
82.58096686615919
 30
0.0
 11
219.9177012109331
 21
81.28096686615924
 31
0.0
  0
ARC
  5
3A46
330
1F
100
AcDbEntity
  8
0
100
AcDbCircle
 10
219.717701210933
 20
82.58096686615925
 30
0.0
 40
0.2
100
AcDbArc
 50
0.0
 51
90.0
  0
LINE
  5
3A47
330
1F
100
AcDbEntity
  8
0
100
AcDbLine
 10
218.8177012109331
 20
82.78096686615924
 30
0.0
 11
219.717701210933
 21
82.78096686615924
 31
0.0
  0
ARC
  5
3A48
330
1F
100
AcDbEntity
  8
0
100
AcDbCircle
 10
218.8177012109329
 20
82.58096686615925
 30
0.0
 40
0.2
100
AcDbArc
 50
90.0
 51
180.0
  0
LINE
  5
3A49
330
1F
100
AcDbEntity
  8
0
100
AcDbLine
 10
218.6177012109331
 20
72.28096686615924
 30
0.0
 11
218.6177012109331
 21
82.58096686615919
 31
0.0
  0
ARC
  5
3A4A
330
1F
100
AcDbEntity
  8
0
100
AcDbCircle
 10
218.8177012109329
 20
72.28096686615929
 30
0.0
 40
0.2
100
AcDbArc
 50
180.0
 51
270.0
  0
LINE
  5
3A4B
330
1F
100
AcDbEntity
  8
0
100
AcDbLine
 10
219.717701210933
 20
72.0809668661592
 30
0.0
 11
218.8177012109331
 21
72.0809668661592
 31
0.0
  0
ARC
  5
3A4C
330
1F
100
AcDbEntity
  8
0
100
AcDbCircle
 10
219.717701210933
 20
72.28096686615929
 30
0.0
 40
0.2
100
AcDbArc
 50
270.0
 51
0.0
  0
LINE
  5
3A4D
330
1F
100
AcDbEntity
  8
0
100
AcDbLine
 10
219.9177012109331
 20
73.5809668661592
 30
0.0
 11
219.9177012109331
 21
72.28096686615924
 31
0.0
  0
ARC
  5
3A4E
330
1F
100
AcDbEntity
  8
0
100
AcDbCircle
 10
220.1177012109331
 20
73.58096686615924
 30
0.0
 40
0.2
100
AcDbArc
 50
90.0
 51
180.0
  0
LINE
  5
3A4F
330
1F
100
AcDbEntity
  8
0
100
AcDbLine
 10
221.4177012109331
 20
73.78096686615925
 30
0.0
 11
220.1177012109331
 21
73.78096686615925
 31
0.0
  0
ARC
  5
3A50
330
1F
100
AcDbEntity
  8
0
100
AcDbCircle
 10
221.4177012109331
 20
73.58096686615924
 30
0.0
 40
0.2
100
AcDbArc
 50
0.0
 51
90.0
  0
LINE
  5
3A51
330
1F
100
AcDbEntity
  8
0
100
AcDbLine
 10
221.6177012109331
 20
73.5809668661592
 30
0.0
 11
221.6177012109331
 21
62.69156389317561
 31
0.0
  0
ARC
  5
3A52
330
1F
100
AcDbEntity
  8
0
100
AcDbCircle
 10
204.6177012109331
 20
77.43096686615915
 30
0.0
 40
22.5
100
AcDbArc
 50
310.9260633096009
 51
319.0739366903985
  0
LINE
  5
3A53
330
1F
100
AcDbEntity
  8
0
100
AcDbLine
 10
219.3571041839168
 20
60.43096686615911
 30
0.0
 11
208.467701210933
 21
60.43096686615911
 31
0.0
  0
ARC
  5
3A54
330
1F
100
AcDbEntity
  8
0
100
AcDbCircle
 10
208.467701210933
 20
60.6309668661592
 30
0.0
 40
0.2
100
AcDbArc
 50
180.0
 51
270.0
  0
LINE
  5
3A55
330
1F
100
AcDbEntity
  8
0
100
AcDbLine
 10
208.2677012109329
 20
61.93096686615911
 30
0.0
 11
208.2677012109329
 21
60.63096686615939
 31
0.0
  0
ARC
  5
3A56
330
1F
100
AcDbEntity
  8
0
100
AcDbCircle
 10
208.467701210933
 20
61.93096686615915
 30
0.0
 40
0.2
100
AcDbArc
 50
90.0
 51
180.0
  0
LINE
  5
3A57
330
1F
100
AcDbEntity
  8
0
100
AcDbLine
 10
209.7677012109329
 20
62.13096686615916
 30
0.0
 11
208.467701210933
 21
62.13096686615916
 31
0.0
  0
ARC
  5
3A58
330
1F
100
AcDbEntity
  8
0
100
AcDbCircle
 10
209.7677012109329
 20
62.33096686615924
 30
0.0
 40
0.2
100
AcDbArc
 50
270.0
 51
0.0
  0
LINE
  5
3A59
330
1F
100
AcDbEntity
  8
0
100
AcDbLine
 10
209.967701210933
 20
63.23096686615929
 30
0.0
 11
209.967701210933
 21
62.3309668661592
 31
0.0
  0
ARC
  5
3A5A
330
1F
100
AcDbEntity
  8
0
100
AcDbCircle
 10
209.7677012109329
 20
63.23096686615933
 30
0.0
 40
0.2
100
AcDbArc
 50
0.0
 51
90.0
  0
LINE
  5
3A5B
330
1F
100
AcDbEntity
  8
0
100
AcDbLine
 10
199.467701210933
 20
63.43096686615911
 30
0.0
 11
209.7677012109329
 21
63.43096686615911
 31
0.0
  0
ARC
  5
3A5C
330
1F
100
AcDbEntity
  8
0
100
AcDbCircle
 10
199.467701210933
 20
63.23096686615933
 30
0.0
 40
0.2
100
AcDbArc
 50
90.0
 51
180.0
  0
LINE
  5
3A5D
330
1F
100
AcDbEntity
  8
0
100
AcDbLine
 10
199.2677012109329
 20
62.3309668661592
 30
0.0
 11
199.2677012109329
 21
63.23096686615929
 31
0.0
  0
ARC
  5
3A5E
330
1F
100
AcDbEntity
  8
0
100
AcDbCircle
 10
199.467701210933
 20
62.33096686615924
 30
0.0
 40
0.2
100
AcDbArc
 50
180.0
 51
270.0
  0
LINE
  5
3A5F
330
1F
100
AcDbEntity
  8
0
100
AcDbLine
 10
200.767701210933
 20
62.13096686615916
 30
0.0
 11
199.467701210933
 21
62.13096686615916
 31
0.0
  0
ARC
  5
3A60
330
1F
100
AcDbEntity
  8
0
100
AcDbCircle
 10
200.767701210933
 20
61.93096686615915
 30
0.0
 40
0.2
100
AcDbArc
 50
0.0
 51
90.0
  0
LINE
  5
3A61
330
1F
100
AcDbEntity
  8
0
100
AcDbLine
 10
200.967701210933
 20
60.63096686615915
 30
0.0
 11
200.967701210933
 21
61.93096686615911
 31
0.0
  0
ARC
  5
3A62
330
1F
100
AcDbEntity
  8
0
100
AcDbCircle
 10
200.767701210933
 20
60.6309668661592
 30
0.0
 40
0.2
100
AcDbArc
 50
270.0
 51
0.0
  0
LINE
  5
3A63
330
1F
100
AcDbEntity
  8
0
100
AcDbLine
 10
200.767701210933
 20
60.43096686615911
 30
0.0
 11
189.8782982379493
 21
60.43096686615911
 31
0.0
  0
ARC
  5
3A64
330
1F
100
AcDbEntity
  8
0
100
AcDbCircle
 10
204.6177012109331
 20
77.43096686615915
 30
0.0
 40
22.5
100
AcDbArc
 50
220.9260633096015
 51
229.0739366903991
  0
CIRCLE
  5
3A65
330
1F
100
AcDbEntity
  8
0
100
AcDbCircle
 10
204.6177012109331
 20
77.43096686615915
 30
0.0
 40
11.29999999999999
  0
CIRCLE
  5
3A66
330
1F
100
AcDbEntity
  8
0
100
AcDbCircle
 10
204.6177012109331
 20
77.43096686615915
 30
0.0
 40
10.99999999999999
  0
LINE
  5
3A67
330
1F
100
AcDbEntity
  8
0
100
AcDbLine
 10
187.617701210933
 20
73.63096686615938
 30
0.0
 11
187.617701210933
 21
81.23096686615928
 31
0.0
  0
CIRCLE
  5
3A68
330
1F
100
AcDbEntity
  8
0
100
AcDbCircle
 10
192.6177012109331
 20
65.43096686615915
 30
0.0
 40
3.25
  0
CIRCLE
  5
3A69
330
1F
100
AcDbEntity
  8
0
100
AcDbCircle
 10
192.6177012109331
 20
65.43096686615915
 30
0.0
 40
2.149999999999999
  0
CIRCLE
  5
3A6A
330
1F
100
AcDbEntity
  8
0
100
AcDbCircle
 10
192.6177012109331
 20
89.43096686615914
 30
0.0
 40
3.25
  0
CIRCLE
  5
3A6B
330
1F
100
AcDbEntity
  8
0
100
AcDbCircle
 10
192.6177012109331
 20
89.43096686615914
 30
0.0
 40
2.149999999999999
  0
CIRCLE
  5
3A6C
330
1F
100
AcDbEntity
  8
0
100
AcDbCircle
 10
216.6177012109331
 20
89.43096686615914
 30
0.0
 40
3.25
  0
CIRCLE
  5
3A6D
330
1F
100
AcDbEntity
  8
0
100
AcDbCircle
 10
216.6177012109331
 20
89.43096686615914
 30
0.0
 40
2.149999999999999
  0
ARC
  5
3A6E
330
1F
100
AcDbEntity
  8
0
100
AcDbCircle
 10
204.6177012109331
 20
77.43096686615915
 30
0.0
 40
4.0
100
AcDbArc
 50
257.1614318590122
 51
270.0
  0
ARC
  5
3A6F
330
1F
100
AcDbEntity
  8
0
100
AcDbCircle
 10
204.6177012109331
 20
77.43096686615915
 30
0.0
 40
4.0
100
AcDbArc
 50
167.1614318590127
 51
192.8385681409872
  0
ARC
  5
3A70
330
1F
100
AcDbEntity
  8
0
100
AcDbCircle
 10
204.6177012109331
 20
77.43096686615915
 30
0.0
 40
4.0
100
AcDbArc
 50
77.16143185901888
 51
102.8385681409811
  0
ARC
  5
3A71
330
1F
100
AcDbEntity
  8
0
100
AcDbCircle
 10
204.6177012109331
 20
77.43096686615915
 30
0.0
 40
4.0
100
AcDbArc
 50
347.1614318590128
 51
12.83856814098722
  0
ARC
  5
3A72
330
1F
100
AcDbEntity
  8
0
100
AcDbCircle
 10
204.6177012109331
 20
77.43096686615915
 30
0.0
 40
4.0
100
AcDbArc
 50
270.0
 51
282.8385681409878
  0
CIRCLE
  5
3A73
330
1F
100
AcDbEntity
  8
0
100
AcDbCircle
 10
204.6177012109331
 20
77.43096686615915
 30
0.0
 40
7.5
  0
ARC
  5
3A7A
330
1F
100
AcDbEntity
  8
0
100
AcDbCircle
 10
205.1177012109329
 20
77.43096686615915
 30
0.0
 40
10.0
100
AcDbArc
 50
182.8659839825963
 51
221.4096221092703
  0
LINE
  5
3A7B
330
1F
100
AcDbEntity
  8
0
100
AcDbLine
 10
197.6177012109331
 20
69.43096686615911
 30
0.0
 11
197.6177012109331
 21
70.81658858849789
 31
0.0
  0
ARC
  5
3A7C
330
1F
100
AcDbEntity
  8
0
100
AcDbCircle
 10
203.6177012109328
 20
77.43096686615915
 30
0.0
 40
10.0
100
AcDbArc
 50
233.1301023541544
 51
126.8698976458456
  0
LINE
  5
3A7D
330
1F
100
AcDbEntity
  8
0
100
AcDbLine
 10
197.6177012109331
 20
84.04534514382078
 30
0.0
 11
197.6177012109331
 21
85.43096686615911
 31
0.0
  0
ARC
  5
3A7E
330
1F
100
AcDbEntity
  8
0
100
AcDbCircle
 10
205.1177012109329
 20
77.43096686615915
 30
0.0
 40
10.0
100
AcDbArc
 50
138.5903778907296
 51
177.1340160174036
  0
LINE
  5
3A7F
330
1F
100
AcDbEntity
  8
0
100
AcDbLine
 10
193.629070723015
 20
77.93096686615911
 30
0.0
 11
195.130209033214
 21
77.93096686615911
 31
0.0
  0
LINE
  5
3A80
330
1F
100
AcDbEntity
  8
0
100
AcDbLine
 10
195.130209033214
 20
76.93096686615911
 30
0.0
 11
193.629070723015
 21
76.93096686615911
 31
0.0
  0
CIRCLE
  5
3A81
330
1F
100
AcDbEntity
  8
0
100
AcDbCircle
 10
194.6177012109328
 20
79.93096686615915
 30
0.0
 40
0.6
  0
CIRCLE
  5
3A82
330
1F
100
AcDbEntity
  8
0
100
AcDbCircle
 10
194.6177012109328
 20
74.93096686615915
 30
0.0
 40
0.6
  0
LINE
  5
3A83
330
1F
100
AcDbEntity
  8
0
100
AcDbLine
 10
201.6177012109331
 20
74.78521555509463
 30
0.0
 11
201.6177012109331
 21
75.62819122842722
 31
0.0
  0
CIRCLE
  5
3A84
330
1F
100
AcDbEntity
  8
0
100
AcDbCircle
 10
204.6177012109331
 20
77.43096686615938
 30
0.0
 40
1.649999999999999
  0
ARC
  5
3A85
330
1F
100
AcDbEntity
  8
0
100
AcDbCircle
 10
204.6177012109331
 20
77.43096686615938
 30
0.0
 40
4.000000000000002
100
AcDbArc
 50
192.8385681409872
 51
221.4096221092703
  0
ARC
  5
3A86
330
1F
100
AcDbEntity
  8
0
100
AcDbCircle
 10
204.6177012109331
 20
77.43096686615938
 30
0.0
 40
4.000000000000002
100
AcDbArc
 50
138.5903778907296
 51
167.1614318590127
  0
ARC
  5
3A87
330
1F
100
AcDbEntity
  8
0
100
AcDbCircle
 10
204.6177012109331
 20
77.43096686615938
 30
0.0
 40
4.0
100
AcDbArc
 50
221.4096221092703
 51
228.5903778907308
  0
ARC
  5
3A88
330
1F
100
AcDbEntity
  8
0
100
AcDbCircle
 10
204.6177012109331
 20
77.43096686615938
 30
0.0
 40
4.0
100
AcDbArc
 50
311.4096221092692
 51
318.5903778907296
  0
LINE
  5
3A89
330
1F
100
AcDbEntity
  8
0
100
AcDbLine
 10
206.420476848665
 20
74.43096686615911
 30
0.0
 11
207.2634525219976
 21
74.43096686615911
 31
0.0
  0
LINE
  5
3A8A
330
1F
100
AcDbEntity
  8
0
100
AcDbLine
 10
201.9719498998684
 20
74.43096686615911
 30
0.0
 11
202.814925573201
 21
74.43096686615911
 31
0.0
  0
ARC
  5
3A8B
330
1F
100
AcDbEntity
  8
0
100
AcDbCircle
 10
204.6177012109331
 20
77.43096686615938
 30
0.0
 40
4.0
100
AcDbArc
 50
282.8385681409878
 51
311.4096221092692
  0
ARC
  5
3A8C
330
1F
100
AcDbEntity
  8
0
100
AcDbCircle
 10
204.6177012109331
 20
77.43096686615938
 30
0.0
 40
4.0
100
AcDbArc
 50
228.5903778907308
 51
257.1614318590189
  0
ARC
  5
3A8D
330
1F
100
AcDbEntity
  8
0
100
AcDbCircle
 10
204.6177012109331
 20
77.43096686615938
 30
0.0
 40
4.0
100
AcDbArc
 50
41.40962210927034
 51
48.5903778907308
  0
LINE
  5
3A8E
330
1F
100
AcDbEntity
  8
0
100
AcDbLine
 10
207.6177012109331
 20
79.23374250389122
 30
0.0
 11
207.6177012109331
 21
80.07671817722382
 31
0.0
  0
LINE
  5
3A8F
330
1F
100
AcDbEntity
  8
0
100
AcDbLine
 10
207.6177012109331
 20
74.78521555509463
 30
0.0
 11
207.6177012109331
 21
75.62819122842722
 31
0.0
  0
ARC
  5
3A90
330
1F
100
AcDbEntity
  8
0
100
AcDbCircle
 10
204.6177012109331
 20
77.43096686615938
 30
0.0
 40
4.0
100
AcDbArc
 50
12.83856814098722
 51
41.40962210927034
  0
ARC
  5
3A91
330
1F
100
AcDbEntity
  8
0
100
AcDbCircle
 10
204.6177012109331
 20
77.43096686615938
 30
0.0
 40
4.0
100
AcDbArc
 50
318.5903778907296
 51
347.1614318590128
  0
LINE
  5
3A92
330
1F
100
AcDbEntity
  8
0
100
AcDbLine
 10
201.6177012109331
 20
79.23374250389122
 30
0.0
 11
201.6177012109331
 21
80.07671817722382
 31
0.0
  0
ARC
  5
3A93
330
1F
100
AcDbEntity
  8
0
100
AcDbCircle
 10
204.6177012109331
 20
77.43096686615938
 30
0.0
 40
4.0
100
AcDbArc
 50
131.4096221092692
 51
138.5903778907296
  0
ARC
  5
3A94
330
1F
100
AcDbEntity
  8
0
100
AcDbCircle
 10
204.6177012109331
 20
77.43096686615938
 30
0.0
 40
3.5
100
AcDbArc
 50
31.00271913387147
 51
58.9972808661281
  0
LINE
  5
3A95
330
1F
100
AcDbEntity
  8
0
100
AcDbLine
 10
207.6177012109331
 20
75.62819122842722
 30
0.0
 11
207.6177012109331
 21
79.23374250389122
 31
0.0
  0
ARC
  5
3A96
330
1F
100
AcDbEntity
  8
0
100
AcDbCircle
 10
204.6177012109331
 20
77.43096686615938
 30
0.0
 40
3.5
100
AcDbArc
 50
301.0027191338719
 51
328.9972808661285
  0
LINE
  5
3A97
330
1F
100
AcDbEntity
  8
0
100
AcDbLine
 10
202.814925573201
 20
74.43096686615934
 30
0.0
 11
206.420476848665
 21
74.43096686615934
 31
0.0
  0
ARC
  5
3A98
330
1F
100
AcDbEntity
  8
0
100
AcDbCircle
 10
204.6177012109331
 20
77.43096686615938
 30
0.0
 40
3.5
100
AcDbArc
 50
211.0027191338715
 51
238.9972808661281
  0
LINE
  5
3A99
330
1F
100
AcDbEntity
  8
0
100
AcDbLine
 10
201.6177012109331
 20
79.23374250389122
 30
0.0
 11
201.6177012109331
 21
75.62819122842722
 31
0.0
  0
ARC
  5
3A9A
330
1F
100
AcDbEntity
  8
0
100
AcDbCircle
 10
204.6177012109331
 20
77.43096686615938
 30
0.0
 40
3.5
100
AcDbArc
 50
121.0027191338719
 51
148.9972808661285
  0
CIRCLE
  5
3A9B
330
1F
100
AcDbEntity
  8
0
100
AcDbCircle
 10
204.6177012109331
 20
77.43096686615938
 30
0.0
 40
2.149999999999999
  0
LINE
  5
3A9C
330
1F
100
AcDbEntity
  8
0
100
AcDbLine
 10
206.420476848665
 20
80.43096686615934
 30
0.0
 11
202.814925573201
 21
80.43096686615934
 31
0.0
  0
LINE
  5
3A9D
330
1F
100
AcDbEntity
  8
0
100
AcDbLine
 10
201.9719498998684
 20
80.43096686615911
 30
0.0
 11
202.814925573201
 21
80.43096686615911
 31
0.0
  0
LINE
  5
3A9E
330
1F
100
AcDbEntity
  8
0
100
AcDbLine
 10
206.420476848665
 20
80.43096686615934
 30
0.0
 11
207.2634525219976
 21
80.43096686615934
 31
0.0
  0
ARC
  5
3A9F
330
1F
100
AcDbEntity
  8
0
100
AcDbCircle
 10
204.6177012109331
 20
77.43096686615938
 30
0.0
 40
4.0
100
AcDbArc
 50
102.8385681409878
 51
131.4096221092692
  0
ARC
  5
3AA0
330
1F
100
AcDbEntity
  8
0
100
AcDbCircle
 10
204.6177012109331
 20
77.43096686615938
 30
0.0
 40
4.0
100
AcDbArc
 50
48.5903778907308
 51
77.16143185901216
  0
LINE
  5
3AA1
330
1F
100
AcDbEntity
  8
0
100
AcDbLine
 10
108.7643321593741
 20
62.69156389317544
 30
0.0
 11
133.2643321593739
 21
62.69156389317544
 31
0.0
  0
LINE
  5
3AA2
330
1F
100
AcDbEntity
  8
0
100
AcDbLine
 10
133.2643321593739
 20
60.43096686615911
 30
0.0
 11
108.7643321593741
 21
60.43096686615912
 31
0.0
  0
LINE
  5
3AA3
102
{ACAD_REACTORS
330
3C00
330
3C09
102
}
330
1F
100
AcDbEntity
  8
0
100
AcDbLine
 10
133.2643321593739
 20
60.43096686615911
 30
0.0
 11
133.2643321593739
 21
94.43096686615913
 31
0.0
  0
LINE
  5
3AA4
102
{ACAD_REACTORS
330
3C03
102
}
330
1F
100
AcDbEntity
  8
0
100
AcDbLine
 10
108.7643321593739
 20
60.43096686615911
 30
0.0
 11
108.7643321593739
 21
94.43096686615913
 31
0.0
  0
LINE
  5
3AA5
330
1F
100
AcDbEntity
  8
0
100
AcDbLine
 10
133.2643321593739
 20
69.93096686615911
 30
0.0
 11
134.2643321593739
 21
69.93096686615911
 31
0.0
  0
LINE
  5
3AA6
330
1F
100
AcDbEntity
  8
0
100
AcDbLine
 10
134.7643321593739
 20
77.43096686615911
 30
0.0
 11
134.7643321593739
 21
70.43096686615911
 31
0.0
  0
ARC
  5
3AA7
102
{ACAD_REACTORS
330
3C12
102
}
330
1F
100
AcDbEntity
  8
0
100
AcDbCircle
 10
134.2643321593739
 20
70.43096686615911
 30
0.0
 40
0.5
100
AcDbArc
 50
270.0
 51
0.0
  0
SPLINE
  5
3AA8
330
1F
100
AcDbEntity
  8
0
100
AcDbSpline
210
0.0
220
0.0
230
1.0
 70
    12
 71
     2
 72
     6
 73
     3
 74
     0
 42
0.0000000001
 43
0.0000000001
 40
0.0
 40
0.0
 40
0.0
 40
1.209131458961291
 40
1.209131458961291
 40
1.209131458961291
 10
138.7643321593739
 20
75.62819122842711
 30
0.0
 41
1.0
 10
138.4133733998634
 20
75.23480258087191
 30
0.0
 41
1.006377000071542
 10
137.8983067555894
 20
74.78521555509451
 30
0.0
 41
1.0
  0
LINE
  5
3AA9
330
1F
100
AcDbEntity
  8
0
100
AcDbLine
 10
137.8983067555894
 20
74.78521555509451
 30
0.0
 11
135.7643321593739
 21
74.78521555509451
 31
0.0
  0
LINE
  5
3AAA
102
{ACAD_REACTORS
330
3C15
102
}
330
1F
100
AcDbEntity
  8
0
100
AcDbLine
 10
135.7643321593739
 20
74.78521555509451
 30
0.0
 11
135.7643321593739
 21
77.43096686615911
 31
0.0
  0
ARC
  5
3AAB
102
{ACAD_REACTORS
330
3C15
102
}
330
1F
100
AcDbEntity
  8
0
100
AcDbCircle
 10
138.7643321593739
 20
77.43096686615911
 30
0.0
 40
4.000000000000002
100
AcDbArc
 50
180.0
 51
221.4096221092709
  0
LINE
  5
3AAC
330
1F
100
AcDbEntity
  8
0
100
AcDbLine
 10
135.7643321593739
 20
74.43096686615908
 30
0.0
 11
137.8983067555894
 21
74.43096686615908
 31
0.0
  0
LINE
  5
3AAD
330
1F
100
AcDbEntity
  8
0
100
AcDbLine
 10
137.8983067555894
 20
74.43096686615911
 30
0.0
 11
138.7643321593739
 21
74.43096686615911
 31
0.0
  0
LINE
  5
3AAE
102
{ACAD_REACTORS
330
3C0F
102
}
330
1F
100
AcDbEntity
  8
0
100
AcDbLine
 10
135.7643321593739
 20
74.43096686615911
 30
0.0
 11
134.7643321593738
 21
73.43096686615925
 31
0.0
  0
LINE
  5
3AAF
330
1F
100
AcDbEntity
  8
0
100
AcDbLine
 10
138.7643321593739
 20
77.43096686615911
 30
0.0
 11
138.7643321593739
 21
75.62819122842711
 31
0.0
  0
LINE
  5
3AB0
330
1F
100
AcDbEntity
  8
0
100
AcDbLine
 10
137.8983067555894
 20
74.78521555509451
 30
0.0
 11
137.8983067555894
 21
74.43096686615911
 31
0.0
  0
LINE
  5
3AB1
102
{ACAD_REACTORS
330
3C15
102
}
330
1F
100
AcDbEntity
  8
0
100
AcDbLine
 10
138.7643321593739
 20
74.43096686615911
 30
0.0
 11
138.7643321593739
 21
75.62819122842711
 31
0.0
  0
ARC
  5
3AB3
330
1F
100
AcDbEntity
  8
0
100
AcDbCircle
 10
116.2643321593739
 20
77.43096686615911
 30
0.0
 40
2.149999999999999
100
AcDbArc
 50
0.0
 51
180.0
  0
ARC
  5
3AB4
330
1F
100
AcDbEntity
  8
0
100
AcDbCircle
 10
125.7643321593739
 20
77.43096686615911
 30
0.0
 40
2.149999999999999
100
AcDbArc
 50
0.0
 51
180.0
  0
ARC
  5
3AB7
330
1F
100
AcDbEntity
  8
0
100
AcDbCircle
 10
116.2643321593739
 20
77.43096686615911
 30
0.0
 40
2.149999999999999
100
AcDbArc
 50
180.0
 51
0.0
  0
ARC
  5
3AB8
330
1F
100
AcDbEntity
  8
0
100
AcDbCircle
 10
125.7643321593739
 20
77.43096686615911
 30
0.0
 40
2.149999999999999
100
AcDbArc
 50
180.0
 51
0.0
  0
LINE
  5
3ABA
330
1F
100
AcDbEntity
  8
0
100
AcDbLine
 10
133.264332159374
 20
70.23096686615929
 30
0.0
 11
108.764332159374
 21
70.23096686615929
 31
0.0
  0
LINE
  5
3ABB
330
1F
100
AcDbEntity
  8
0
100
AcDbLine
 10
133.264332159374
 20
73.63096686615914
 30
0.0
 11
108.764332159374
 21
73.63096686615915
 31
0.0
  0
LINE
  5
3ABC
330
1F
100
AcDbEntity
  8
0
100
AcDbLine
 10
108.7643321593741
 20
92.1703698391428
 30
0.0
 11
133.2643321593739
 21
92.17036983914278
 31
0.0
  0
LINE
  5
3ABD
102
{ACAD_REACTORS
330
3BFD
330
3C06
330
3C09
330
3C0C
102
}
330
1F
100
AcDbEntity
  8
0
100
AcDbLine
 10
133.2643321593739
 20
94.43096686615911
 30
0.0
 11
108.7643321593741
 21
94.43096686615913
 31
0.0
  0
LINE
  5
3ABE
330
1F
100
AcDbEntity
  8
0
100
AcDbLine
 10
133.264332159374
 20
84.63096686615893
 30
0.0
 11
108.764332159374
 21
84.63096686615894
 31
0.0
  0
LINE
  5
3ABF
330
1F
100
AcDbEntity
  8
0
100
AcDbLine
 10
133.264332159374
 20
81.23096686615907
 30
0.0
 11
108.764332159374
 21
81.23096686615907
 31
0.0
  0
LINE
  5
3AC0
330
1F
100
AcDbEntity
  8
0
100
AcDbLine
 10
133.2643321593739
 20
84.93096686615912
 30
0.0
 11
134.2643321593739
 21
84.93096686615912
 31
0.0
  0
LINE
  5
3AC1
102
{ACAD_REACTORS
330
3C0F
102
}
330
1F
100
AcDbEntity
  8
0
100
AcDbLine
 10
134.7643321593739
 20
77.43096686615911
 30
0.0
 11
134.7643321593739
 21
84.43096686615911
 31
0.0
  0
ARC
  5
3AC2
102
{ACAD_REACTORS
330
3BFD
330
3C12
102
}
330
1F
100
AcDbEntity
  8
0
100
AcDbCircle
 10
134.2643321593739
 20
84.43096686615911
 30
0.0
 40
0.5
100
AcDbArc
 50
0.0
 51
90.0
  0
SPLINE
  5
3AC3
330
1F
100
AcDbEntity
  8
0
100
AcDbSpline
210
0.0
220
0.0
230
1.0
 70
    12
 71
     2
 72
     6
 73
     3
 74
     0
 42
0.0000000001
 43
0.0000000001
 40
0.0
 40
0.0
 40
0.0
 40
1.209131458961291
 40
1.209131458961291
 40
1.209131458961291
 10
138.7643321593739
 20
79.23374250389111
 30
0.0
 41
1.0
 10
138.4133733998634
 20
79.62713115144632
 30
0.0
 41
1.006377000071542
 10
137.8983067555894
 20
80.07671817722371
 30
0.0
 41
1.0
  0
LINE
  5
3AC4
330
1F
100
AcDbEntity
  8
0
100
AcDbLine
 10
137.8983067555894
 20
80.07671817722371
 30
0.0
 11
135.7643321593739
 21
80.07671817722371
 31
0.0
  0
LINE
  5
3AC5
330
1F
100
AcDbEntity
  8
0
100
AcDbLine
 10
135.7643321593739
 20
80.07671817722371
 30
0.0
 11
135.7643321593739
 21
77.43096686615911
 31
0.0
  0
ARC
  5
3AC6
330
1F
100
AcDbEntity
  8
0
100
AcDbCircle
 10
138.7643321593739
 20
77.43096686615911
 30
0.0
 40
4.000000000000002
100
AcDbArc
 50
138.590377890729
 51
180.0
  0
LINE
  5
3AC7
330
1F
100
AcDbEntity
  8
0
100
AcDbLine
 10
135.7643321593739
 20
80.43096686615914
 30
0.0
 11
137.8983067555894
 21
80.43096686615914
 31
0.0
  0
LINE
  5
3AC8
330
1F
100
AcDbEntity
  8
0
100
AcDbLine
 10
137.8983067555894
 20
80.43096686615911
 30
0.0
 11
138.7643321593739
 21
80.43096686615911
 31
0.0
  0
LINE
  5
3AC9
102
{ACAD_REACTORS
330
3C0F
102
}
330
1F
100
AcDbEntity
  8
0
100
AcDbLine
 10
135.7643321593739
 20
80.43096686615911
 30
0.0
 11
134.7643321593738
 21
81.43096686615896
 31
0.0
  0
LINE
  5
3ACA
330
1F
100
AcDbEntity
  8
0
100
AcDbLine
 10
138.7643321593739
 20
77.43096686615911
 30
0.0
 11
138.7643321593739
 21
79.23374250389111
 31
0.0
  0
LINE
  5
3ACB
330
1F
100
AcDbEntity
  8
0
100
AcDbLine
 10
137.8983067555894
 20
80.07671817722371
 30
0.0
 11
137.8983067555894
 21
80.43096686615911
 31
0.0
  0
LINE
  5
3ACC
102
{ACAD_REACTORS
330
3C00
330
3C0C
102
}
330
1F
100
AcDbEntity
  8
0
100
AcDbLine
 10
138.7643321593739
 20
80.43096686615911
 30
0.0
 11
138.7643321593739
 21
79.23374250389111
 31
0.0
  0
ARC
  5
3ACD
330
1F
100
AcDbEntity
  8
0
 62
     3
100
AcDbCircle
 10
116.2643321593739
 20
77.43096686615911
 30
0.0
 40
2.5
100
AcDbArc
 50
344.4632242434407
 51
243.3773293786605
  0
ARC
  5
3ACE
330
1F
100
AcDbEntity
  8
0
 62
     3
100
AcDbCircle
 10
125.7643321593739
 20
77.43096686615911
 30
0.0
 40
2.5
100
AcDbArc
 50
344.4632242434407
 51
243.3773293786605
  0
LINE
  5
3ACF
102
{ACAD_REACTORS
330
3C03
102
}
330
1F
100
AcDbEntity
  8
CENTER
 48
0.5
100
AcDbLine
 10
116.2643321593739
 20
73.80859324177572
 30
0.0
 11
116.2643321593739
 21
81.05334049054249
 31
0.0
  0
LINE
  5
3AD0
102
{ACAD_REACTORS
330
3C06
102
}
330
1F
100
AcDbEntity
  8
CENTER
 48
0.5
100
AcDbLine
 10
125.7643321593739
 20
73.80859324177572
 30
0.0
 11
125.7643321593739
 21
81.05334049054249
 31
0.0
  0
LINE
  5
3AD1
330
1F
100
AcDbEntity
  8
CENTER
 48
0.8
100
AcDbLine
 10
185.9504782825099
 20
77.43096686615915
 30
0.0
 11
223.2849241393562
 21
77.43096686615915
 31
0.0
  0
LINE
  5
3AD2
330
1F
100
AcDbEntity
  8
CENTER
 48
0.8
100
AcDbLine
 10
204.6177012109331
 20
58.76374393773601
 30
0.0
 11
204.6177012109331
 21
96.0981897945823
 31
0.0
  0
LINE
  5
3AD3
330
1F
100
AcDbEntity
  8
CENTER
 48
0.8
100
AcDbLine
 10
216.6177012109331
 20
60.72306366240893
 30
0.0
 11
216.6177012109331
 21
70.13887006990938
 31
0.0
  0
LINE
  5
3AD4
330
1F
100
AcDbEntity
  8
CENTER
 48
0.8
100
AcDbLine
 10
221.3256044146833
 20
65.4309668661591
 30
0.0
 11
211.9097980071829
 21
65.43096686615911
 31
0.0
  0
LINE
  5
3AD5
330
1F
100
AcDbEntity
  8
CENTER
 48
0.8
100
AcDbLine
 10
216.6177012109331
 20
84.72306366240893
 30
0.0
 11
216.6177012109331
 21
94.13887006990938
 31
0.0
  0
LINE
  5
3AD6
330
1F
100
AcDbEntity
  8
CENTER
 48
0.8
100
AcDbLine
 10
221.3256044146833
 20
89.43096686615909
 30
0.0
 11
211.9097980071829
 21
89.43096686615911
 31
0.0
  0
LINE
  5
3AD7
330
1F
100
AcDbEntity
  8
CENTER
 48
0.8
100
AcDbLine
 10
192.6177012109331
 20
84.72306366240893
 30
0.0
 11
192.6177012109331
 21
94.13887006990938
 31
0.0
  0
LINE
  5
3AD8
330
1F
100
AcDbEntity
  8
CENTER
 48
0.8
100
AcDbLine
 10
197.3256044146833
 20
89.43096686615909
 30
0.0
 11
187.9097980071828
 21
89.43096686615911
 31
0.0
  0
ARC
  5
3AD9
330
1F
100
AcDbEntity
  8
0
100
AcDbCircle
 10
216.6177012109331
 20
65.43096686615917
 30
0.0
 40
2.5
100
AcDbArc
 50
350.0000000000014
 51
279.9999999999986
  0
ARC
  5
3ADA
330
1F
100
AcDbEntity
  8
0
 62
     3
100
AcDbCircle
 10
216.6177012109331
 20
65.43096686615917
 30
0.0
 40
2.5
100
AcDbArc
 50
350.0000000000014
 51
279.9999999999986
  0
CIRCLE
  5
3ADB
330
1F
100
AcDbEntity
  8
0
100
AcDbCircle
 10
216.6177012109331
 20
65.43096686615917
 30
0.0
 40
3.25
  0
CIRCLE
  5
3ADC
330
1F
100
AcDbEntity
  8
0
100
AcDbCircle
 10
216.6177012109331
 20
65.43096686615917
 30
0.0
 40
2.149999999999999
  0
LINE
  5
3ADD
330
1F
100
AcDbEntity
  8
0
 62
     3
100
AcDbLine
 10
153.2643321593739
 20
195.2055746591223
 30
0.0
 11
149.7643321593739
 21
195.2055746591223
 31
0.0
  0
LINE
  5
3ADE
330
1F
100
AcDbEntity
  8
0
 62
     3
100
AcDbLine
 10
144.7643321593739
 20
195.2055746591223
 30
0.0
 11
140.7643321593739
 21
195.2055746591223
 31
0.0
  0
LINE
  5
3ADF
330
1F
100
AcDbEntity
  8
0
 62
     3
100
AcDbLine
 10
153.2643321593739
 20
190.3145746591223
 30
0.0
 11
149.7643321593739
 21
190.3145746591223
 31
0.0
  0
LINE
  5
3AE0
330
1F
100
AcDbEntity
  8
0
 62
     3
100
AcDbLine
 10
144.7643321593739
 20
190.3145746591223
 30
0.0
 11
140.7643321593739
 21
190.3145746591223
 31
0.0
  0
LINE
  5
3AE1
330
1F
100
AcDbEntity
  8
0
 62
     3
100
AcDbLine
 10
140.7643321593739
 20
190.3145746591223
 30
0.0
 11
140.2098321593739
 21
189.7600746591223
 31
0.0
  0
LINE
  5
3AE2
330
1F
100
AcDbEntity
  8
0
 62
     3
100
AcDbLine
 10
140.7643321593739
 20
195.2055746591223
 30
0.0
 11
140.2098321593739
 21
195.7600746591223
 31
0.0
  0
LINE
  5
3AE3
330
1F
100
AcDbEntity
  8
0
100
AcDbLine
 10
140.7643321593739
 20
195.7600746591223
 30
0.0
 11
140.7643321593739
 21
189.7600746591223
 31
0.0
  0
LINE
  5
3AE4
102
{ACAD_REACTORS
330
3BE8
102
}
330
1F
100
AcDbEntity
  8
0
100
AcDbLine
 10
135.7643321593739
 20
190.1143233480577
 30
0.0
 11
135.7643321593739
 21
195.4058259701869
 31
0.0
  0
SPLINE
  5
3AE5
330
1F
100
AcDbEntity
  8
0
100
AcDbSpline
210
0.0
220
0.0
230
1.0
 70
    12
 71
     2
 72
     6
 73
     3
 74
     0
 42
0.0000000001
 43
0.0000000001
 40
0.0
 40
0.0
 40
0.0
 40
1.2091314589613
 40
1.2091314589613
 40
1.2091314589613
 10
137.8983067555894
 20
190.1143233480577
 30
0.0
 41
1.0
 10
138.4133733998631
 20
190.5639103738351
 30
0.0
 41
1.006377000071538
 10
138.7643321593739
 20
190.9572990213903
 30
0.0
 41
1.0
  0
LINE
  5
3AE6
330
1F
100
AcDbEntity
  8
0
100
AcDbLine
 10
135.7643321593739
 20
195.4058259701869
 30
0.0
 11
137.8983067555894
 21
195.4058259701869
 31
0.0
  0
ARC
  5
3AE7
330
1F
100
AcDbEntity
  8
0
100
AcDbCircle
 10
138.7643321593739
 20
192.7600746591223
 30
0.0
 40
4.000000000000004
100
AcDbArc
 50
138.590377890729
 51
180.0
  0
ARC
  5
3AE8
102
{ACAD_REACTORS
330
3BE8
102
}
330
1F
100
AcDbEntity
  8
0
100
AcDbCircle
 10
138.7643321593739
 20
192.7600746591223
 30
0.0
 40
4.000000000000004
100
AcDbArc
 50
180.0
 51
221.4096221092709
  0
LINE
  5
3AE9
330
1F
100
AcDbEntity
  8
0
100
AcDbLine
 10
137.8983067555894
 20
190.1143233480577
 30
0.0
 11
135.7643321593739
 21
190.1143233480577
 31
0.0
  0
LINE
  5
3AEA
330
1F
100
AcDbEntity
  8
0
100
AcDbLine
 10
138.7643321593739
 20
192.7600746591223
 30
0.0
 11
138.7643321593739
 21
190.9572990213903
 31
0.0
  0
LINE
  5
3AEB
330
1F
100
AcDbEntity
  8
0
100
AcDbLine
 10
135.7643321593739
 20
189.7600746591223
 30
0.0
 11
137.8983067555894
 21
189.7600746591223
 31
0.0
  0
LINE
  5
3AEC
330
1F
100
AcDbEntity
  8
0
100
AcDbLine
 10
137.8983067555894
 20
189.7600746591223
 30
0.0
 11
138.7643321593739
 21
189.7600746591223
 31
0.0
  0
LINE
  5
3AED
102
{ACAD_REACTORS
330
3BDE
102
}
330
1F
100
AcDbEntity
  8
0
100
AcDbLine
 10
135.7643321593739
 20
189.7600746591223
 30
0.0
 11
134.7643321593739
 21
188.7600746591223
 31
0.0
  0
SPLINE
  5
3AEE
330
1F
100
AcDbEntity
  8
0
100
AcDbSpline
210
0.0
220
0.0
230
1.0
 70
    12
 71
     2
 72
     6
 73
     3
 74
     0
 42
0.0000000001
 43
0.0000000001
 40
0.0
 40
0.0
 40
0.0
 40
1.2091314589613
 40
1.2091314589613
 40
1.2091314589613
 10
138.7643321593739
 20
194.5628502968543
 30
0.0
 41
1.0
 10
138.4133733998631
 20
194.9562389444092
 30
0.0
 41
1.006377000071538
 10
137.8983067555894
 20
195.4058259701869
 30
0.0
 41
1.0
  0
LINE
  5
3AEF
330
1F
100
AcDbEntity
  8
0
100
AcDbLine
 10
138.7643321593739
 20
194.5628502968543
 30
0.0
 11
138.7643321593739
 21
192.7600746591223
 31
0.0
  0
LINE
  5
3AF0
330
1F
100
AcDbEntity
  8
0
100
AcDbLine
 10
137.8983067555894
 20
195.7600746591223
 30
0.0
 11
138.7643321593739
 21
195.7600746591223
 31
0.0
  0
LINE
  5
3AF1
330
1F
100
AcDbEntity
  8
0
100
AcDbLine
 10
137.8983067555894
 20
195.7600746591223
 30
0.0
 11
135.7643321593739
 21
195.7600746591223
 31
0.0
  0
LINE
  5
3AF2
102
{ACAD_REACTORS
330
3BDE
102
}
330
1F
100
AcDbEntity
  8
0
100
AcDbLine
 10
134.7643321593739
 20
196.7600746591223
 30
0.0
 11
135.7643321593739
 21
195.7600746591223
 31
0.0
  0
LINE
  5
3AF3
330
1F
100
AcDbEntity
  8
0
100
AcDbLine
 10
138.7643321593739
 20
189.7600746591223
 30
0.0
 11
140.7643321593739
 21
189.7600746591223
 31
0.0
  0
LINE
  5
3AF4
330
1F
100
AcDbEntity
  8
0
100
AcDbLine
 10
138.7643321593739
 20
195.7600746591223
 30
0.0
 11
140.7643321593739
 21
195.7600746591223
 31
0.0
  0
LINE
  5
3AF5
330
1F
100
AcDbEntity
  8
0
100
AcDbLine
 10
153.7643321593739
 20
195.2600746591223
 30
0.0
 11
153.2643321593739
 21
195.7600746591223
 31
0.0
  0
LINE
  5
3AF6
330
1F
100
AcDbEntity
  8
0
100
AcDbLine
 10
153.7643321593739
 20
190.2600746591223
 30
0.0
 11
153.2643321593739
 21
189.7600746591223
 31
0.0
  0
LINE
  5
3AF7
330
1F
100
AcDbEntity
  8
0
100
AcDbLine
 10
140.7643321593739
 20
189.7600746591223
 30
0.0
 11
144.7643321593739
 21
189.7600746591223
 31
0.0
  0
LINE
  5
3AF8
330
1F
100
AcDbEntity
  8
0
100
AcDbLine
 10
149.7643321593739
 20
189.7600746591223
 30
0.0
 11
153.2643321593739
 21
189.7600746591223
 31
0.0
  0
LINE
  5
3AF9
102
{ACAD_REACTORS
330
3BC6
102
}
330
1F
100
AcDbEntity
  8
0
100
AcDbLine
 10
140.7643321593739
 20
195.7600746591223
 30
0.0
 11
144.7643321593739
 21
195.7600746591223
 31
0.0
  0
LINE
  5
3AFA
330
1F
100
AcDbEntity
  8
0
100
AcDbLine
 10
149.7643321593739
 20
195.7600746591223
 30
0.0
 11
153.2643321593739
 21
195.7600746591223
 31
0.0
  0
LINE
  5
3AFB
330
1F
100
AcDbEntity
  8
0
100
AcDbLine
 10
137.8983067555894
 20
190.1143233480577
 30
0.0
 11
137.8983067555894
 21
189.7600746591223
 31
0.0
  0
LINE
  5
3AFC
102
{ACAD_REACTORS
330
3BE8
102
}
330
1F
100
AcDbEntity
  8
0
100
AcDbLine
 10
138.7643321593739
 20
189.7600746591223
 30
0.0
 11
138.7643321593739
 21
190.9572990213903
 31
0.0
  0
LINE
  5
3AFD
102
{ACAD_REACTORS
330
3BC6
330
3BC9
330
3BCF
330
3BDB
102
}
330
1F
100
AcDbEntity
  8
0
100
AcDbLine
 10
153.7643321593739
 20
195.2600746591223
 30
0.0
 11
153.7643321593739
 21
190.2600746591223
 31
0.0
  0
LINE
  5
3AFE
330
1F
100
AcDbEntity
  8
0
100
AcDbLine
 10
137.8983067555894
 20
195.7600746591223
 30
0.0
 11
137.8983067555894
 21
195.4058259701869
 31
0.0
  0
LINE
  5
3AFF
102
{ACAD_REACTORS
330
3BC9
102
}
330
1F
100
AcDbEntity
  8
0
100
AcDbLine
 10
138.7643321593739
 20
194.5628502968543
 30
0.0
 11
138.7643321593739
 21
195.7600746591223
 31
0.0
  0
LINE
  5
3B00
330
1F
100
AcDbEntity
  8
0
100
AcDbLine
 10
153.2643321593739
 20
189.7600746591223
 30
0.0
 11
153.2643321593739
 21
195.7600746591223
 31
0.0
  0
ARC
  5
3B03
330
1F
100
AcDbEntity
  8
0
100
AcDbCircle
 10
192.6177012109331
 20
180.7600746591224
 30
0.0
 40
2.5
100
AcDbArc
 50
350.0000000000014
 51
279.9999999999986
  0
ARC
  5
3B04
330
1F
100
AcDbEntity
  8
0
 62
     3
100
AcDbCircle
 10
216.6177012109331
 20
204.7600746591224
 30
0.0
 40
2.5
100
AcDbArc
 50
350.0000000000014
 51
279.9999999999986
  0
ARC
  5
3B05
330
1F
100
AcDbEntity
  8
0
100
AcDbCircle
 10
192.6177012109331
 20
180.7600746591224
 30
0.0
 40
2.5
100
AcDbArc
 50
350.0000000000014
 51
279.9999999999986
  0
LINE
  5
3B06
330
1F
100
AcDbEntity
  8
CENTER
 48
0.8
100
AcDbLine
 10
192.6177012109331
 20
176.0521714553721
 30
0.0
 11
192.6177012109331
 21
185.4679778628726
 31
0.0
  0
LINE
  5
3B07
330
1F
100
AcDbEntity
  8
CENTER
 48
0.8
100
AcDbLine
 10
197.3256044146833
 20
180.7600746591223
 30
0.0
 11
187.9097980071828
 21
180.7600746591223
 31
0.0
  0
ARC
  5
3B08
330
1F
100
AcDbEntity
  8
0
 62
     3
100
AcDbCircle
 10
192.6177012109331
 20
204.7600746591224
 30
0.0
 40
2.5
100
AcDbArc
 50
350.0000000000014
 51
279.9999999999986
  0
LINE
  5
3B09
330
1F
100
AcDbEntity
  8
CENTER
 48
1.3
100
AcDbLine
 10
107.270446875051
 20
192.7600746591223
 30
0.0
 11
155.98542066965
 21
192.7600746591223
 31
0.0
  0
LINE
  5
3B0A
330
1F
100
AcDbEntity
  8
0
100
AcDbLine
 10
187.617701210933
 20
178.0206716861388
 30
0.0
 11
187.617701210933
 21
185.5600746591225
 31
0.0
  0
LINE
  5
3B0B
330
1F
100
AcDbEntity
  8
0
100
AcDbLine
 10
188.6177012109331
 20
185.5600746591225
 30
0.0
 11
187.617701210933
 21
185.5600746591225
 31
0.0
  0
LINE
  5
3B0C
330
1F
100
AcDbEntity
  8
0
100
AcDbLine
 10
188.6177012109331
 20
185.5600746591225
 30
0.0
 11
189.1177012109331
 21
185.1100746591224
 31
0.0
  0
LINE
  5
3B0D
330
1F
100
AcDbEntity
  8
0
100
AcDbLine
 10
191.217701210933
 20
185.1100746591224
 30
0.0
 11
189.1177012109331
 21
185.1100746591224
 31
0.0
  0
ARC
  5
3B0E
330
1F
100
AcDbEntity
  8
0
100
AcDbCircle
 10
191.217701210933
 20
186.8100746591225
 30
0.0
 40
1.7
100
AcDbArc
 50
270.0
 51
0.0
  0
LINE
  5
3B0F
330
1F
100
AcDbEntity
  8
0
100
AcDbLine
 10
192.917701210933
 20
187.7100746591226
 30
0.0
 11
192.917701210933
 21
186.8100746591225
 31
0.0
  0
ARC
  5
3B10
330
1F
100
AcDbEntity
  8
0
100
AcDbCircle
 10
191.217701210933
 20
187.7100746591226
 30
0.0
 40
1.7
100
AcDbArc
 50
0.0
 51
90.0
  0
LINE
  5
3B11
330
1F
100
AcDbEntity
  8
0
100
AcDbLine
 10
189.1177012109331
 20
189.4100746591224
 30
0.0
 11
191.217701210933
 21
189.4100746591224
 31
0.0
  0
LINE
  5
3B12
330
1F
100
AcDbEntity
  8
0
100
AcDbLine
 10
189.1177012109331
 20
189.4100746591224
 30
0.0
 11
188.6177012109331
 21
188.9600746591223
 31
0.0
  0
LINE
  5
3B13
330
1F
100
AcDbEntity
  8
0
100
AcDbLine
 10
187.617701210933
 20
188.9600746591223
 30
0.0
 11
188.6177012109331
 21
188.9600746591223
 31
0.0
  0
LINE
  5
3B14
330
1F
100
AcDbEntity
  8
0
100
AcDbLine
 10
188.6177012109331
 20
196.5600746591225
 30
0.0
 11
187.617701210933
 21
196.5600746591225
 31
0.0
  0
LINE
  5
3B15
330
1F
100
AcDbEntity
  8
0
100
AcDbLine
 10
188.6177012109331
 20
196.5600746591225
 30
0.0
 11
189.1177012109331
 21
196.1100746591224
 31
0.0
  0
LINE
  5
3B16
330
1F
100
AcDbEntity
  8
0
100
AcDbLine
 10
191.217701210933
 20
196.1100746591224
 30
0.0
 11
189.1177012109331
 21
196.1100746591224
 31
0.0
  0
ARC
  5
3B17
330
1F
100
AcDbEntity
  8
0
100
AcDbCircle
 10
191.217701210933
 20
197.8100746591225
 30
0.0
 40
1.7
100
AcDbArc
 50
270.0
 51
0.0
  0
LINE
  5
3B18
330
1F
100
AcDbEntity
  8
0
100
AcDbLine
 10
192.917701210933
 20
198.7100746591226
 30
0.0
 11
192.917701210933
 21
197.8100746591225
 31
0.0
  0
ARC
  5
3B19
330
1F
100
AcDbEntity
  8
0
100
AcDbCircle
 10
191.217701210933
 20
198.7100746591226
 30
0.0
 40
1.7
100
AcDbArc
 50
0.0
 51
90.0
  0
LINE
  5
3B1A
330
1F
100
AcDbEntity
  8
0
100
AcDbLine
 10
189.1177012109331
 20
200.4100746591224
 30
0.0
 11
191.217701210933
 21
200.4100746591224
 31
0.0
  0
LINE
  5
3B1B
330
1F
100
AcDbEntity
  8
0
100
AcDbLine
 10
189.1177012109331
 20
200.4100746591224
 30
0.0
 11
188.6177012109331
 21
199.9600746591223
 31
0.0
  0
LINE
  5
3B1C
330
1F
100
AcDbEntity
  8
0
100
AcDbLine
 10
187.617701210933
 20
199.9600746591223
 30
0.0
 11
188.6177012109331
 21
199.9600746591223
 31
0.0
  0
LINE
  5
3B1D
330
1F
100
AcDbEntity
  8
0
100
AcDbLine
 10
187.617701210933
 20
199.9600746591226
 30
0.0
 11
187.617701210933
 21
207.4994776321063
 31
0.0
  0
ARC
  5
3B1E
102
{ACAD_REACTORS
330
3BF0
102
}
330
1F
100
AcDbEntity
  8
0
100
AcDbCircle
 10
204.6177012109331
 20
192.7600746591224
 30
0.0
 40
22.5
100
AcDbArc
 50
130.9260633096009
 51
139.0739366903985
  0
LINE
  5
3B1F
330
1F
100
AcDbEntity
  8
0
100
AcDbLine
 10
189.8782982379493
 20
209.7600746591223
 30
0.0
 11
200.767701210933
 21
209.7600746591223
 31
0.0
  0
ARC
  5
3B20
330
1F
100
AcDbEntity
  8
0
100
AcDbCircle
 10
200.767701210933
 20
209.5600746591226
 30
0.0
 40
0.2
100
AcDbArc
 50
0.0
 51
90.0
  0
LINE
  5
3B21
330
1F
100
AcDbEntity
  8
0
100
AcDbLine
 10
200.967701210933
 20
208.2600746591223
 30
0.0
 11
200.967701210933
 21
209.5600746591225
 31
0.0
  0
ARC
  5
3B22
330
1F
100
AcDbEntity
  8
0
100
AcDbCircle
 10
200.767701210933
 20
208.2600746591224
 30
0.0
 40
0.2
100
AcDbArc
 50
270.0
 51
0.0
  0
LINE
  5
3B23
330
1F
100
AcDbEntity
  8
0
100
AcDbLine
 10
199.467701210933
 20
208.0600746591225
 30
0.0
 11
200.767701210933
 21
208.0600746591225
 31
0.0
  0
ARC
  5
3B24
330
1F
100
AcDbEntity
  8
0
100
AcDbCircle
 10
199.467701210933
 20
207.8600746591225
 30
0.0
 40
0.2
100
AcDbArc
 50
90.0
 51
180.0
  0
LINE
  5
3B25
330
1F
100
AcDbEntity
  8
0
100
AcDbLine
 10
199.2677012109329
 20
206.9600746591224
 30
0.0
 11
199.2677012109329
 21
207.8600746591225
 31
0.0
  0
ARC
  5
3B26
330
1F
100
AcDbEntity
  8
0
100
AcDbCircle
 10
199.467701210933
 20
206.9600746591224
 30
0.0
 40
0.2
100
AcDbArc
 50
180.0
 51
270.0
  0
LINE
  5
3B27
330
1F
100
AcDbEntity
  8
0
100
AcDbLine
 10
209.7677012109329
 20
206.7600746591223
 30
0.0
 11
199.467701210933
 21
206.7600746591223
 31
0.0
  0
ARC
  5
3B28
330
1F
100
AcDbEntity
  8
0
100
AcDbCircle
 10
209.7677012109329
 20
206.9600746591224
 30
0.0
 40
0.2
100
AcDbArc
 50
270.0
 51
0.0
  0
LINE
  5
3B29
330
1F
100
AcDbEntity
  8
0
100
AcDbLine
 10
209.967701210933
 20
207.8600746591225
 30
0.0
 11
209.967701210933
 21
206.9600746591226
 31
0.0
  0
ARC
  5
3B2A
330
1F
100
AcDbEntity
  8
0
100
AcDbCircle
 10
209.7677012109329
 20
207.8600746591225
 30
0.0
 40
0.2
100
AcDbArc
 50
0.0
 51
90.0
  0
LINE
  5
3B2B
330
1F
100
AcDbEntity
  8
0
100
AcDbLine
 10
208.467701210933
 20
208.0600746591225
 30
0.0
 11
209.7677012109329
 21
208.0600746591225
 31
0.0
  0
ARC
  5
3B2C
330
1F
100
AcDbEntity
  8
0
100
AcDbCircle
 10
208.467701210933
 20
208.2600746591224
 30
0.0
 40
0.2
100
AcDbArc
 50
180.0
 51
270.0
  0
LINE
  5
3B2D
330
1F
100
AcDbEntity
  8
0
100
AcDbLine
 10
208.2677012109329
 20
209.5600746591225
 30
0.0
 11
208.2677012109329
 21
208.2600746591223
 31
0.0
  0
ARC
  5
3B2E
330
1F
100
AcDbEntity
  8
0
100
AcDbCircle
 10
208.467701210933
 20
209.5600746591226
 30
0.0
 40
0.2
100
AcDbArc
 50
90.0
 51
180.0
  0
LINE
  5
3B2F
330
1F
100
AcDbEntity
  8
0
100
AcDbLine
 10
208.467701210933
 20
209.7600746591223
 30
0.0
 11
219.3571041839168
 21
209.7600746591223
 31
0.0
  0
ARC
  5
3B30
330
1F
100
AcDbEntity
  8
0
100
AcDbCircle
 10
204.6177012109331
 20
192.7600746591224
 30
0.0
 40
22.5
100
AcDbArc
 50
40.92606330960151
 51
49.07393669039909
  0
LINE
  5
3B31
102
{ACAD_REACTORS
330
3BF0
102
}
330
1F
100
AcDbEntity
  8
0
100
AcDbLine
 10
221.6177012109331
 20
207.499477632106
 30
0.0
 11
221.6177012109331
 21
196.6100746591224
 31
0.0
  0
ARC
  5
3B32
330
1F
100
AcDbEntity
  8
0
100
AcDbCircle
 10
221.4177012109331
 20
196.6100746591225
 30
0.0
 40
0.2
100
AcDbArc
 50
270.0
 51
0.0
  0
LINE
  5
3B33
330
1F
100
AcDbEntity
  8
0
100
AcDbLine
 10
220.1177012109331
 20
196.4100746591224
 30
0.0
 11
221.4177012109331
 21
196.4100746591224
 31
0.0
  0
ARC
  5
3B34
330
1F
100
AcDbEntity
  8
0
100
AcDbCircle
 10
220.1177012109331
 20
196.6100746591225
 30
0.0
 40
0.2
100
AcDbArc
 50
180.0
 51
270.0
  0
LINE
  5
3B35
330
1F
100
AcDbEntity
  8
0
100
AcDbLine
 10
219.9177012109331
 20
197.9100746591224
 30
0.0
 11
219.9177012109331
 21
196.6100746591224
 31
0.0
  0
ARC
  5
3B36
330
1F
100
AcDbEntity
  8
0
100
AcDbCircle
 10
219.717701210933
 20
197.9100746591224
 30
0.0
 40
0.2
100
AcDbArc
 50
0.0
 51
90.0
  0
LINE
  5
3B37
330
1F
100
AcDbEntity
  8
0
100
AcDbLine
 10
218.8177012109331
 20
198.1100746591224
 30
0.0
 11
219.717701210933
 21
198.1100746591224
 31
0.0
  0
ARC
  5
3B38
330
1F
100
AcDbEntity
  8
0
100
AcDbCircle
 10
218.8177012109329
 20
197.9100746591224
 30
0.0
 40
0.2
100
AcDbArc
 50
90.0
 51
180.0
  0
LINE
  5
3B39
330
1F
100
AcDbEntity
  8
0
100
AcDbLine
 10
218.6177012109331
 20
187.6100746591225
 30
0.0
 11
218.6177012109331
 21
197.9100746591224
 31
0.0
  0
ARC
  5
3B3A
330
1F
100
AcDbEntity
  8
0
100
AcDbCircle
 10
218.8177012109329
 20
187.6100746591225
 30
0.0
 40
0.2
100
AcDbArc
 50
180.0
 51
270.0
  0
LINE
  5
3B3B
330
1F
100
AcDbEntity
  8
0
100
AcDbLine
 10
219.717701210933
 20
187.4100746591224
 30
0.0
 11
218.8177012109331
 21
187.4100746591224
 31
0.0
  0
ARC
  5
3B3C
330
1F
100
AcDbEntity
  8
0
100
AcDbCircle
 10
219.717701210933
 20
187.6100746591225
 30
0.0
 40
0.2
100
AcDbArc
 50
270.0
 51
0.0
  0
LINE
  5
3B3D
330
1F
100
AcDbEntity
  8
0
100
AcDbLine
 10
219.9177012109331
 20
188.9100746591224
 30
0.0
 11
219.9177012109331
 21
187.6100746591225
 31
0.0
  0
ARC
  5
3B3E
330
1F
100
AcDbEntity
  8
0
100
AcDbCircle
 10
220.1177012109331
 20
188.9100746591225
 30
0.0
 40
0.2
100
AcDbArc
 50
90.0
 51
180.0
  0
LINE
  5
3B3F
330
1F
100
AcDbEntity
  8
0
100
AcDbLine
 10
221.4177012109331
 20
189.1100746591224
 30
0.0
 11
220.1177012109331
 21
189.1100746591224
 31
0.0
  0
ARC
  5
3B40
330
1F
100
AcDbEntity
  8
0
100
AcDbCircle
 10
221.4177012109331
 20
188.9100746591225
 30
0.0
 40
0.2
100
AcDbArc
 50
0.0
 51
90.0
  0
LINE
  5
3B41
330
1F
100
AcDbEntity
  8
0
100
AcDbLine
 10
221.6177012109331
 20
188.9100746591224
 30
0.0
 11
221.6177012109331
 21
178.0206716861388
 31
0.0
  0
ARC
  5
3B42
330
1F
100
AcDbEntity
  8
0
100
AcDbCircle
 10
204.6177012109331
 20
192.7600746591224
 30
0.0
 40
22.5
100
AcDbArc
 50
310.9260633096009
 51
319.0739366903985
  0
LINE
  5
3B43
330
1F
100
AcDbEntity
  8
0
100
AcDbLine
 10
219.3571041839168
 20
175.7600746591223
 30
0.0
 11
208.467701210933
 21
175.7600746591223
 31
0.0
  0
ARC
  5
3B44
330
1F
100
AcDbEntity
  8
0
100
AcDbCircle
 10
208.467701210933
 20
175.9600746591224
 30
0.0
 40
0.2
100
AcDbArc
 50
180.0
 51
270.0
  0
LINE
  5
3B45
330
1F
100
AcDbEntity
  8
0
100
AcDbLine
 10
208.2677012109329
 20
177.2600746591223
 30
0.0
 11
208.2677012109329
 21
175.9600746591226
 31
0.0
  0
ARC
  5
3B46
330
1F
100
AcDbEntity
  8
0
100
AcDbCircle
 10
208.467701210933
 20
177.2600746591224
 30
0.0
 40
0.2
100
AcDbArc
 50
90.0
 51
180.0
  0
LINE
  5
3B47
330
1F
100
AcDbEntity
  8
0
100
AcDbLine
 10
209.7677012109329
 20
177.4600746591223
 30
0.0
 11
208.467701210933
 21
177.4600746591223
 31
0.0
  0
ARC
  5
3B48
330
1F
100
AcDbEntity
  8
0
100
AcDbCircle
 10
209.7677012109329
 20
177.6600746591225
 30
0.0
 40
0.2
100
AcDbArc
 50
270.0
 51
0.0
  0
LINE
  5
3B49
330
1F
100
AcDbEntity
  8
0
100
AcDbLine
 10
209.967701210933
 20
178.5600746591225
 30
0.0
 11
209.967701210933
 21
177.6600746591224
 31
0.0
  0
ARC
  5
3B4A
330
1F
100
AcDbEntity
  8
0
100
AcDbCircle
 10
209.7677012109329
 20
178.5600746591225
 30
0.0
 40
0.2
100
AcDbArc
 50
0.0
 51
90.0
  0
LINE
  5
3B4B
330
1F
100
AcDbEntity
  8
0
100
AcDbLine
 10
199.467701210933
 20
178.7600746591223
 30
0.0
 11
209.7677012109329
 21
178.7600746591223
 31
0.0
  0
ARC
  5
3B4C
330
1F
100
AcDbEntity
  8
0
100
AcDbCircle
 10
199.467701210933
 20
178.5600746591225
 30
0.0
 40
0.2
100
AcDbArc
 50
90.0
 51
180.0
  0
LINE
  5
3B4D
330
1F
100
AcDbEntity
  8
0
100
AcDbLine
 10
199.2677012109329
 20
177.6600746591224
 30
0.0
 11
199.2677012109329
 21
178.5600746591225
 31
0.0
  0
ARC
  5
3B4E
330
1F
100
AcDbEntity
  8
0
100
AcDbCircle
 10
199.467701210933
 20
177.6600746591225
 30
0.0
 40
0.2
100
AcDbArc
 50
180.0
 51
270.0
  0
LINE
  5
3B4F
330
1F
100
AcDbEntity
  8
0
100
AcDbLine
 10
200.767701210933
 20
177.4600746591223
 30
0.0
 11
199.467701210933
 21
177.4600746591223
 31
0.0
  0
ARC
  5
3B50
330
1F
100
AcDbEntity
  8
0
100
AcDbCircle
 10
200.767701210933
 20
177.2600746591224
 30
0.0
 40
0.2
100
AcDbArc
 50
0.0
 51
90.0
  0
LINE
  5
3B51
330
1F
100
AcDbEntity
  8
0
100
AcDbLine
 10
200.967701210933
 20
175.9600746591224
 30
0.0
 11
200.967701210933
 21
177.2600746591223
 31
0.0
  0
ARC
  5
3B52
330
1F
100
AcDbEntity
  8
0
100
AcDbCircle
 10
200.767701210933
 20
175.9600746591224
 30
0.0
 40
0.2
100
AcDbArc
 50
270.0
 51
0.0
  0
LINE
  5
3B53
330
1F
100
AcDbEntity
  8
0
100
AcDbLine
 10
200.767701210933
 20
175.7600746591223
 30
0.0
 11
189.8782982379493
 21
175.7600746591223
 31
0.0
  0
ARC
  5
3B54
330
1F
100
AcDbEntity
  8
0
100
AcDbCircle
 10
204.6177012109331
 20
192.7600746591224
 30
0.0
 40
22.5
100
AcDbArc
 50
220.9260633096015
 51
229.0739366903991
  0
CIRCLE
  5
3B55
330
1F
100
AcDbEntity
  8
0
100
AcDbCircle
 10
204.6177012109331
 20
192.7600746591224
 30
0.0
 40
11.29999999999999
  0
CIRCLE
  5
3B56
330
1F
100
AcDbEntity
  8
0
100
AcDbCircle
 10
204.6177012109331
 20
192.7600746591224
 30
0.0
 40
10.99999999999999
  0
LINE
  5
3B57
330
1F
100
AcDbEntity
  8
0
100
AcDbLine
 10
187.617701210933
 20
188.9600746591226
 30
0.0
 11
187.617701210933
 21
196.5600746591225
 31
0.0
  0
CIRCLE
  5
3B58
330
1F
100
AcDbEntity
  8
0
100
AcDbCircle
 10
192.6177012109331
 20
180.7600746591224
 30
0.0
 40
3.25
  0
CIRCLE
  5
3B59
330
1F
100
AcDbEntity
  8
0
 62
     3
100
AcDbCircle
 10
192.6177012109331
 20
180.7600746591224
 30
0.0
 40
2.149999999999999
  0
CIRCLE
  5
3B5A
330
1F
100
AcDbEntity
  8
0
100
AcDbCircle
 10
192.6177012109331
 20
204.7600746591224
 30
0.0
 40
3.25
  0
CIRCLE
  5
3B5B
330
1F
100
AcDbEntity
  8
0
100
AcDbCircle
 10
192.6177012109331
 20
204.7600746591224
 30
0.0
 40
2.149999999999999
  0
CIRCLE
  5
3B5C
330
1F
100
AcDbEntity
  8
0
100
AcDbCircle
 10
216.6177012109331
 20
204.7600746591224
 30
0.0
 40
3.25
  0
CIRCLE
  5
3B5D
330
1F
100
AcDbEntity
  8
0
100
AcDbCircle
 10
216.6177012109331
 20
204.7600746591224
 30
0.0
 40
2.149999999999999
  0
CIRCLE
  5
3B5E
330
1F
100
AcDbEntity
  8
0
100
AcDbCircle
 10
204.6177012109331
 20
192.7600746591224
 30
0.0
 40
7.5
  0
ARC
  5
3B5F
330
1F
100
AcDbEntity
  8
0
100
AcDbCircle
 10
204.6177012109331
 20
192.7600746591224
 30
0.0
 40
10.9
100
AcDbArc
 50
165.4436955183264
 51
166.483817545819
  0
ARC
  5
3B61
330
1F
100
AcDbEntity
  8
0
100
AcDbCircle
 10
204.6177012109331
 20
192.7600746591224
 30
0.0
 40
10.9
100
AcDbArc
 50
193.516182454181
 51
194.5563044816735
  0
ARC
  5
3B62
330
1F
100
AcDbEntity
  8
0
100
AcDbCircle
 10
204.6177012109331
 20
192.7600746591224
 30
0.0
 40
10.7
100
AcDbArc
 50
191.5589638502545
 51
196.5135230855944
  0
ARC
  5
3B64
330
1F
100
AcDbEntity
  8
0
100
AcDbCircle
 10
204.6177012109331
 20
192.7600746591224
 30
0.0
 40
10.7
100
AcDbArc
 50
163.4864769144055
 51
168.441036149739
  0
ARC
  5
3B65
330
1F
100
AcDbEntity
  8
0
100
AcDbCircle
 10
205.1177012109329
 20
192.7600746591224
 30
0.0
 40
10.0
100
AcDbArc
 50
182.8659839825963
 51
221.4096221092703
  0
LINE
  5
3B66
330
1F
100
AcDbEntity
  8
0
100
AcDbLine
 10
197.6177012109331
 20
184.7600746591223
 30
0.0
 11
197.6177012109331
 21
186.1456963814611
 31
0.0
  0
ARC
  5
3B67
330
1F
100
AcDbEntity
  8
0
100
AcDbCircle
 10
203.6177012109328
 20
192.7600746591224
 30
0.0
 40
10.0
100
AcDbArc
 50
233.1301023541544
 51
126.8698976458456
  0
LINE
  5
3B68
330
1F
100
AcDbEntity
  8
0
100
AcDbLine
 10
197.6177012109331
 20
199.374452936784
 30
0.0
 11
197.6177012109331
 21
200.7600746591223
 31
0.0
  0
ARC
  5
3B69
330
1F
100
AcDbEntity
  8
0
100
AcDbCircle
 10
205.1177012109329
 20
192.7600746591224
 30
0.0
 40
10.0
100
AcDbArc
 50
138.5903778907296
 51
177.1340160174036
  0
LINE
  5
3B6A
330
1F
100
AcDbEntity
  8
0
100
AcDbLine
 10
193.629070723015
 20
193.2600746591223
 30
0.0
 11
195.130209033214
 21
193.2600746591223
 31
0.0
  0
LINE
  5
3B6B
330
1F
100
AcDbEntity
  8
0
100
AcDbLine
 10
195.130209033214
 20
192.2600746591223
 30
0.0
 11
193.629070723015
 21
192.2600746591223
 31
0.0
  0
CIRCLE
  5
3B6C
330
1F
100
AcDbEntity
  8
0
100
AcDbCircle
 10
194.6177012109328
 20
195.2600746591224
 30
0.0
 40
0.6
  0
CIRCLE
  5
3B6D
330
1F
100
AcDbEntity
  8
0
100
AcDbCircle
 10
194.6177012109328
 20
190.2600746591224
 30
0.0
 40
0.6
  0
LINE
  5
3B6E
330
1F
100
AcDbEntity
  8
0
100
AcDbLine
 10
108.7643321593741
 20
178.0206716861386
 30
0.0
 11
133.2643321593739
 21
178.0206716861386
 31
0.0
  0
LINE
  5
3B6F
330
1F
100
AcDbEntity
  8
0
100
AcDbLine
 10
133.2643321593739
 20
175.7600746591223
 30
0.0
 11
108.7643321593741
 21
175.7600746591223
 31
0.0
  0
LINE
  5
3B70
330
1F
100
AcDbEntity
  8
0
100
AcDbLine
 10
133.2643321593739
 20
175.7600746591223
 30
0.0
 11
133.2643321593739
 21
209.7600746591223
 31
0.0
  0
LINE
  5
3B71
330
1F
100
AcDbEntity
  8
0
100
AcDbLine
 10
108.7643321593739
 20
175.7600746591223
 30
0.0
 11
108.7643321593739
 21
209.7600746591223
 31
0.0
  0
LINE
  5
3B72
330
1F
100
AcDbEntity
  8
0
100
AcDbLine
 10
133.2643321593739
 20
185.2600746591223
 30
0.0
 11
134.2643321593739
 21
185.2600746591223
 31
0.0
  0
LINE
  5
3B73
330
1F
100
AcDbEntity
  8
0
100
AcDbLine
 10
134.7643321593739
 20
192.7600746591223
 30
0.0
 11
134.7643321593739
 21
185.7600746591223
 31
0.0
  0
ARC
  5
3B74
102
{ACAD_REACTORS
330
3BE1
102
}
330
1F
100
AcDbEntity
  8
0
100
AcDbCircle
 10
134.2643321593739
 20
185.7600746591223
 30
0.0
 40
0.5
100
AcDbArc
 50
270.0
 51
0.0
  0
ARC
  5
3B76
330
1F
100
AcDbEntity
  8
0
100
AcDbCircle
 10
116.2643321593739
 20
192.7600746591223
 30
0.0
 40
2.149999999999999
100
AcDbArc
 50
0.0
 51
180.0
  0
ARC
  5
3B77
330
1F
100
AcDbEntity
  8
0
100
AcDbCircle
 10
125.7643321593739
 20
192.7600746591223
 30
0.0
 40
2.149999999999999
100
AcDbArc
 50
0.0
 51
180.0
  0
ARC
  5
3B7A
330
1F
100
AcDbEntity
  8
0
100
AcDbCircle
 10
116.2643321593739
 20
192.7600746591223
 30
0.0
 40
2.149999999999999
100
AcDbArc
 50
180.0
 51
0.0
  0
ARC
  5
3B7B
330
1F
100
AcDbEntity
  8
0
100
AcDbCircle
 10
125.7643321593739
 20
192.7600746591223
 30
0.0
 40
2.149999999999999
100
AcDbArc
 50
180.0
 51
0.0
  0
LINE
  5
3B7D
330
1F
100
AcDbEntity
  8
0
100
AcDbLine
 10
133.264332159374
 20
185.5600746591225
 30
0.0
 11
108.764332159374
 21
185.5600746591225
 31
0.0
  0
LINE
  5
3B7E
330
1F
100
AcDbEntity
  8
0
100
AcDbLine
 10
133.264332159374
 20
188.9600746591223
 30
0.0
 11
108.764332159374
 21
188.9600746591223
 31
0.0
  0
LINE
  5
3B7F
330
1F
100
AcDbEntity
  8
0
100
AcDbLine
 10
108.7643321593741
 20
207.499477632106
 30
0.0
 11
133.2643321593739
 21
207.499477632106
 31
0.0
  0
LINE
  5
3B80
102
{ACAD_REACTORS
330
3BCC
330
3BCF
330
3BD2
330
3BD5
330
3BD8
330
3BDB
102
}
330
1F
100
AcDbEntity
  8
0
100
AcDbLine
 10
133.2643321593739
 20
209.7600746591223
 30
0.0
 11
108.7643321593741
 21
209.7600746591223
 31
0.0
  0
LINE
  5
3B81
330
1F
100
AcDbEntity
  8
0
100
AcDbLine
 10
133.264332159374
 20
199.9600746591221
 30
0.0
 11
108.764332159374
 21
199.9600746591221
 31
0.0
  0
LINE
  5
3B82
330
1F
100
AcDbEntity
  8
0
100
AcDbLine
 10
133.264332159374
 20
196.5600746591223
 30
0.0
 11
108.764332159374
 21
196.5600746591223
 31
0.0
  0
LINE
  5
3B83
330
1F
100
AcDbEntity
  8
0
100
AcDbLine
 10
133.2643321593739
 20
200.2600746591223
 30
0.0
 11
134.2643321593739
 21
200.2600746591223
 31
0.0
  0
LINE
  5
3B84
102
{ACAD_REACTORS
330
3BCC
102
}
330
1F
100
AcDbEntity
  8
0
100
AcDbLine
 10
134.7643321593739
 20
192.7600746591223
 30
0.0
 11
134.7643321593739
 21
199.7600746591223
 31
0.0
  0
ARC
  5
3B85
102
{ACAD_REACTORS
330
3BE1
102
}
330
1F
100
AcDbEntity
  8
0
100
AcDbCircle
 10
134.2643321593739
 20
199.7600746591223
 30
0.0
 40
0.5
100
AcDbArc
 50
0.0
 51
90.0
  0
ARC
  5
3B86
330
1F
100
AcDbEntity
  8
0
 62
     3
100
AcDbCircle
 10
116.2643321593739
 20
192.7600746591223
 30
0.0
 40
2.5
100
AcDbArc
 50
344.4632242434407
 51
243.3773293786605
  0
ARC
  5
3B87
330
1F
100
AcDbEntity
  8
0
 62
     3
100
AcDbCircle
 10
125.7643321593739
 20
192.7600746591223
 30
0.0
 40
2.5
100
AcDbArc
 50
344.4632242434407
 51
243.3773293786605
  0
LINE
  5
3B88
102
{ACAD_REACTORS
330
3BD2
102
}
330
1F
100
AcDbEntity
  8
CENTER
 48
0.5
100
AcDbLine
 10
116.2643321593739
 20
189.1377010347389
 30
0.0
 11
116.2643321593739
 21
196.3824482835057
 31
0.0
  0
LINE
  5
3B89
102
{ACAD_REACTORS
330
3BD5
102
}
330
1F
100
AcDbEntity
  8
CENTER
 48
0.5
100
AcDbLine
 10
125.7643321593739
 20
189.1377010347389
 30
0.0
 11
125.7643321593739
 21
196.3824482835057
 31
0.0
  0
LINE
  5
3B8A
330
1F
100
AcDbEntity
  8
CENTER
 48
0.8
100
AcDbLine
 10
185.9504782825099
 20
192.7600746591224
 30
0.0
 11
223.2849241393562
 21
192.7600746591224
 31
0.0
  0
LINE
  5
3B8B
330
1F
100
AcDbEntity
  8
CENTER
 48
0.8
100
AcDbLine
 10
204.6177012109331
 20
174.0928517306992
 30
0.0
 11
204.6177012109331
 21
211.4272975875455
 31
0.0
  0
LINE
  5
3B8C
330
1F
100
AcDbEntity
  8
CENTER
 48
0.8
100
AcDbLine
 10
216.6177012109331
 20
176.0521714553721
 30
0.0
 11
216.6177012109331
 21
185.4679778628726
 31
0.0
  0
LINE
  5
3B8D
330
1F
100
AcDbEntity
  8
CENTER
 48
0.8
100
AcDbLine
 10
221.3256044146833
 20
180.7600746591223
 30
0.0
 11
211.9097980071829
 21
180.7600746591223
 31
0.0
  0
LINE
  5
3B8E
102
{ACAD_REACTORS
330
3BED
102
}
330
1F
100
AcDbEntity
  8
CENTER
 48
0.8
100
AcDbLine
 10
216.6177012109331
 20
200.0521714553721
 30
0.0
 11
216.6177012109331
 21
209.4679778628726
 31
0.0
  0
LINE
  5
3B8F
330
1F
100
AcDbEntity
  8
CENTER
 48
0.8
100
AcDbLine
 10
221.3256044146833
 20
204.7600746591223
 30
0.0
 11
211.9097980071829
 21
204.7600746591223
 31
0.0
  0
LINE
  5
3B90
102
{ACAD_REACTORS
330
3BED
102
}
330
1F
100
AcDbEntity
  8
CENTER
 48
0.8
100
AcDbLine
 10
192.6177012109331
 20
200.0521714553721
 30
0.0
 11
192.6177012109331
 21
209.4679778628726
 31
0.0
  0
LINE
  5
3B91
330
1F
100
AcDbEntity
  8
CENTER
 48
0.8
100
AcDbLine
 10
197.3256044146833
 20
204.7600746591223
 30
0.0
 11
187.9097980071828
 21
204.7600746591223
 31
0.0
  0
ARC
  5
3B93
330
1F
100
AcDbEntity
  8
0
 62
     3
100
AcDbCircle
 10
216.6177012109331
 20
180.7600746591224
 30
0.0
 40
2.5
100
AcDbArc
 50
350.0000000000014
 51
279.9999999999986
  0
CIRCLE
  5
3B94
330
1F
100
AcDbEntity
  8
0
100
AcDbCircle
 10
216.6177012109331
 20
180.7600746591224
 30
0.0
 40
3.25
  0
CIRCLE
  5
3B95
330
1F
100
AcDbEntity
  8
0
100
AcDbCircle
 10
216.6177012109331
 20
180.7600746591224
 30
0.0
 40
2.149999999999999
  0
CIRCLE
  5
3B96
330
1F
100
AcDbEntity
  8
0
 62
     3
100
AcDbCircle
 10
204.6177012109331
 20
192.7600746591224
 30
0.0
 40
2.445499999999999
  0
LINE
  5
3B97
102
{ACAD_REACTORS
330
3BF3
102
}
330
1F
100
AcDbEntity
  8
0
100
AcDbLine
 10
201.6177012109331
 20
190.9572990213904
 30
0.0
 11
201.6177012109331
 21
190.1143233480578
 31
0.0
  0
ARC
  5
3B98
330
1F
100
AcDbEntity
  8
0
100
AcDbCircle
 10
204.6177012109331
 20
192.7600746591224
 30
0.0
 40
3.999999999999997
100
AcDbArc
 50
138.590377890729
 51
221.4096221092709
  0
LINE
  5
3B99
330
1F
100
AcDbEntity
  8
0
100
AcDbLine
 10
201.6177012109331
 20
192.7600746591224
 30
0.0
 11
201.6177012109331
 21
190.9572990213904
 31
0.0
  0
LINE
  5
3B9A
330
1F
100
AcDbEntity
  8
0
100
AcDbLine
 10
202.8149255732012
 20
189.7600746591224
 30
0.0
 11
204.6177012109331
 21
189.7600746591224
 31
0.0
  0
LINE
  5
3B9B
330
1F
100
AcDbEntity
  8
0
100
AcDbLine
 10
204.6177012109331
 20
189.7600746591224
 30
0.0
 11
206.420476848665
 21
189.7600746591224
 31
0.0
  0
LINE
  5
3B9C
330
1F
100
AcDbEntity
  8
0
100
AcDbLine
 10
206.420476848665
 20
189.7600746591224
 30
0.0
 11
207.2634525219976
 21
189.7600746591224
 31
0.0
  0
LINE
  5
3B9D
330
1F
100
AcDbEntity
  8
0
100
AcDbLine
 10
201.9719498998686
 20
189.7600746591224
 30
0.0
 11
202.8149255732012
 21
189.7600746591224
 31
0.0
  0
ARC
  5
3B9E
330
1F
100
AcDbEntity
  8
0
100
AcDbCircle
 10
204.6177012109331
 20
192.7600746591224
 30
0.0
 40
3.999999999999997
100
AcDbArc
 50
228.5903778907308
 51
311.4096221092692
  0
LINE
  5
3B9F
330
1F
100
AcDbEntity
  8
0
100
AcDbLine
 10
207.6177012109331
 20
190.9572990213904
 30
0.0
 11
207.6177012109331
 21
192.7600746591224
 31
0.0
  0
LINE
  5
3BA0
330
1F
100
AcDbEntity
  8
0
100
AcDbLine
 10
207.6177012109331
 20
192.7600746591224
 30
0.0
 11
207.6177012109331
 21
194.5628502968544
 31
0.0
  0
LINE
  5
3BA1
330
1F
100
AcDbEntity
  8
0
100
AcDbLine
 10
207.6177012109331
 20
195.405825970187
 30
0.0
 11
207.6177012109331
 21
194.5628502968544
 31
0.0
  0
LINE
  5
3BA2
330
1F
100
AcDbEntity
  8
0
100
AcDbLine
 10
207.6177012109331
 20
190.9572990213904
 30
0.0
 11
207.6177012109331
 21
190.1143233480578
 31
0.0
  0
ARC
  5
3BA3
330
1F
100
AcDbEntity
  8
0
100
AcDbCircle
 10
204.6177012109331
 20
192.7600746591224
 30
0.0
 40
3.999999999999997
100
AcDbArc
 50
318.590377890729
 51
41.40962210927096
  0
LINE
  5
3BA4
330
1F
100
AcDbEntity
  8
0
100
AcDbLine
 10
201.6177012109331
 20
195.405825970187
 30
0.0
 11
201.6177012109331
 21
194.5628502968544
 31
0.0
  0
LINE
  5
3BA5
330
1F
100
AcDbEntity
  8
0
100
AcDbLine
 10
201.6177012109331
 20
194.5628502968544
 30
0.0
 11
201.6177012109331
 21
192.7600746591224
 31
0.0
  0
LINE
  5
3BA6
330
1F
100
AcDbEntity
  8
0
100
AcDbLine
 10
206.420476848665
 20
195.7600746591224
 30
0.0
 11
204.6177012109331
 21
195.7600746591224
 31
0.0
  0
LINE
  5
3BA7
330
1F
100
AcDbEntity
  8
0
100
AcDbLine
 10
204.6177012109331
 20
195.7600746591224
 30
0.0
 11
202.8149255732012
 21
195.7600746591224
 31
0.0
  0
LINE
  5
3BA8
330
1F
100
AcDbEntity
  8
0
100
AcDbLine
 10
201.9719498998686
 20
195.7600746591224
 30
0.0
 11
202.8149255732012
 21
195.7600746591224
 31
0.0
  0
LINE
  5
3BA9
330
1F
100
AcDbEntity
  8
0
100
AcDbLine
 10
206.420476848665
 20
195.7600746591224
 30
0.0
 11
207.2634525219976
 21
195.7600746591224
 31
0.0
  0
ARC
  5
3BAA
330
1F
100
AcDbEntity
  8
0
100
AcDbCircle
 10
204.6177012109331
 20
192.7600746591224
 30
0.0
 40
3.999999999999997
100
AcDbArc
 50
48.5903778907308
 51
131.4096221092692
  0
ARC
  5
3BAB
102
{ACAD_REACTORS
330
3BF3
102
}
330
1F
100
AcDbEntity
  8
0
100
AcDbCircle
 10
204.6177012109331
 20
192.7600746591224
 30
0.0
 40
3.999999999999999
100
AcDbArc
 50
221.4096221092709
 51
228.5903778907308
  0
ARC
  5
3BAC
330
1F
100
AcDbEntity
  8
0
100
AcDbCircle
 10
204.6177012109331
 20
192.7600746591224
 30
0.0
 40
3.499999999999997
100
AcDbArc
 50
211.0027191338715
 51
238.9972808661281
  0
ARC
  5
3BAE
102
{ACAD_REACTORS
330
3BF3
102
}
330
1F
100
AcDbEntity
  8
0
100
AcDbCircle
 10
204.6177012109331
 20
192.7600746591224
 30
0.0
 40
3.999999999999999
100
AcDbArc
 50
311.4096221092692
 51
318.590377890729
  0
ARC
  5
3BAF
330
1F
100
AcDbEntity
  8
0
100
AcDbCircle
 10
204.6177012109331
 20
192.7600746591224
 30
0.0
 40
3.499999999999997
100
AcDbArc
 50
301.0027191338719
 51
328.9972808661285
  0
ARC
  5
3BB0
330
1F
100
AcDbEntity
  8
0
100
AcDbCircle
 10
204.6177012109331
 20
192.7600746591224
 30
0.0
 40
3.999999999999999
100
AcDbArc
 50
41.40962210927096
 51
48.5903778907308
  0
ARC
  5
3BB1
330
1F
100
AcDbEntity
  8
0
100
AcDbCircle
 10
204.6177012109331
 20
192.7600746591224
 30
0.0
 40
3.499999999999997
100
AcDbArc
 50
31.00271913387147
 51
58.9972808661281
  0
ARC
  5
3BB2
330
1F
100
AcDbEntity
  8
0
100
AcDbCircle
 10
204.6177012109331
 20
192.7600746591224
 30
0.0
 40
3.999999999999999
100
AcDbArc
 50
131.4096221092692
 51
138.590377890729
  0
ARC
  5
3BB3
330
1F
100
AcDbEntity
  8
0
100
AcDbCircle
 10
204.6177012109331
 20
192.7600746591224
 30
0.0
 40
3.499999999999997
100
AcDbArc
 50
121.0027191338719
 51
148.9972808661285
  0
CIRCLE
  5
3BB4
330
1F
100
AcDbEntity
  8
0
100
AcDbCircle
 10
204.6177012109331
 20
192.7600746591224
 30
0.0
 40
2.999999999999999
  0
ARC
  5
3BB5
330
1F
100
AcDbEntity
  8
0
100
AcDbCircle
 10
146.5143321593739
 20
187.1309095345234
 30
0.0
 40
3.25
100
AcDbArc
 50
324.7356103172446
 51
34.34109372674646
  0
ARC
  5
3BB6
330
1F
100
AcDbEntity
  8
0
100
AcDbCircle
 10
148.0143321593739
 20
187.1309095345234
 30
0.0
 40
3.25
100
AcDbArc
 50
145.6589062732535
 51
215.2643896827554
  0
LINE
  5
3BB7
330
1F
100
AcDbEntity
  8
0
100
AcDbLine
 10
145.3607182713588
 20
185.2545211596571
 30
0.0
 11
149.167946047389
 21
185.2545211596571
 31
0.0
  0
ARC
  5
3BB8
330
1F
100
AcDbEntity
  8
0
100
AcDbCircle
 10
136.7643321593739
 20
192.7600746591222
 30
0.0
 40
13.00000000000003
100
AcDbArc
 50
343.0232811802357
 51
16.97671881976588
  0
ARC
  5
3BB9
330
1F
100
AcDbEntity
  8
0
100
AcDbCircle
 10
157.7643321593739
 20
192.7600746591221
 30
0.0
 40
13.00000000000003
100
AcDbArc
 50
163.0232811802341
 51
196.9767188197643
  0
LINE
  5
3BBA
330
1F
100
AcDbEntity
  8
0
100
AcDbLine
 10
144.7643321593739
 20
187.1309095345234
 30
0.0
 11
144.7643321593739
 21
198.3892397837211
 31
0.0
  0
LINE
  5
3BBB
330
1F
100
AcDbEntity
  8
0
100
AcDbLine
 10
149.7643321593739
 20
187.1309095345234
 30
0.0
 11
149.7643321593739
 21
198.3892397837211
 31
0.0
  0
LINE
  5
3BBC
330
1F
100
AcDbEntity
  8
0
100
AcDbLine
 10
145.3308269537167
 20
188.9642943307979
 30
0.0
 11
149.1978373650311
 21
188.9642943307979
 31
0.0
  0
ARC
  5
3BBD
102
{ACAD_REACTORS
330
3BC3
102
}
330
1F
100
AcDbEntity
  8
0
100
AcDbCircle
 10
146.5143321593739
 20
198.3892397837211
 30
0.0
 40
3.25
100
AcDbArc
 50
325.6589062732528
 51
35.2643896827554
  0
ARC
  5
3BBE
102
{ACAD_REACTORS
330
3BC3
102
}
330
1F
100
AcDbEntity
  8
0
100
AcDbCircle
 10
148.0143321593739
 20
198.3892397837211
 30
0.0
 40
3.25
100
AcDbArc
 50
144.7356103172446
 51
214.3410937267465
  0
LINE
  5
3BBF
330
1F
100
AcDbEntity
  8
0
100
AcDbLine
 10
145.3308269537167
 20
196.5558549874466
 30
0.0
 11
149.1978373650311
 21
196.5558549874466
 31
0.0
  0
LINE
  5
3BC0
330
1F
100
AcDbEntity
  8
0
100
AcDbLine
 10
145.3607182713588
 20
200.2656281585874
 30
0.0
 11
149.167946047389
 21
200.2656281585874
 31
0.0
  0
DIMENSION
  5
3BC1
102
{ACAD_XDICTIONARY
360
3BC2
102
}
102
{ACAD_REACTORS
330
3BC3
102
}
330
1F
100
AcDbEntity
  8
DIM
100
AcDbDimension
  2
*D5
 10
149.7642266654064
 20
205.4433132699948
 30
0.0
 11
147.2643321593739
 21
207.4433132699948
 31
0.0
 70
    32
 71
     5
 42
4.999789012064866
  3
AM_ANSI
100
AcDbAlignedDimension
 13
144.7644376533415
 23
198.4154256512935
 33
0.0
 14
149.7642266654064
 24
198.4154256512935
 34
0.0
100
AcDbRotatedDimension
1001
ACAD
1000
DSTYLE
1002
{
1070
    41
1040
2.0
1070
    42
1040
1.5
1070
    43
1040
8.0
1070
    44
1040
1.5
1070
    73
1070
     0
1070
    74
1070
     0
1070
    77
1070
     3
1070
   140
1040
2.0
1070
   141
1040
3.0
1070
   146
1040
0.6
1070
   147
1040
1.0
1070
   172
1070
     1
1070
   178
1070
   256
1070
   272
1070
     8
1070
   274
1070
     2
1070
   340
1005
29C5
1002
}
  0
DIMENSION
  5
3BC4
102
{ACAD_XDICTIONARY
360
3BC5
102
}
102
{ACAD_REACTORS
330
3BC6
102
}
330
1F
100
AcDbEntity
  8
DIM
100
AcDbDimension
  2
*D6
 10
153.7643321593739
 20
210.5560894487525
 30
0.0
 11
147.2643321593739
 21
212.5560894487525
 31
0.0
 70
    32
 71
     5
 42
13.0
  3
AM_ANSI
100
AcDbAlignedDimension
 13
140.7643321593739
 23
195.7600746591223
 33
0.0
 14
153.7643321593739
 24
195.2600746591223
 34
0.0
100
AcDbRotatedDimension
1001
ACAD
1000
DSTYLE
1002
{
1070
    41
1040
2.0
1070
    42
1040
1.5
1070
    43
1040
8.0
1070
    44
1040
1.5
1070
    73
1070
     0
1070
    74
1070
     0
1070
    77
1070
     3
1070
   140
1040
2.0
1070
   141
1040
3.0
1070
   146
1040
0.6
1070
   147
1040
1.0
1070
   172
1070
     1
1070
   178
1070
   256
1070
   272
1070
     8
1070
   274
1070
     2
1070
   340
1005
29C5
1002
}
  0
DIMENSION
  5
3BC7
102
{ACAD_XDICTIONARY
360
3BC8
102
}
102
{ACAD_REACTORS
330
3BC9
102
}
330
1F
100
AcDbEntity
  8
DIM
100
AcDbDimension
  2
*D7
 10
153.7643321593739
 20
215.9148448237095
 30
0.0
 11
146.2643321593739
 21
217.9148448237095
 31
0.0
 70
    32
 71
     5
 42
15.0
  3
AM_ANSI
100
AcDbAlignedDimension
 13
138.7643321593739
 23
195.7600746591223
 33
0.0
 14
153.7643321593739
 24
195.2600746591223
 34
0.0
100
AcDbRotatedDimension
1001
ACAD
1000
DSTYLE
1002
{
1070
    41
1040
2.0
1070
    42
1040
1.5
1070
    43
1040
8.0
1070
    44
1040
1.5
1070
    73
1070
     0
1070
    74
1070
     0
1070
    77
1070
     3
1070
   140
1040
2.0
1070
   141
1040
3.0
1070
   146
1040
0.6
1070
   147
1040
1.0
1070
   172
1070
     1
1070
   178
1070
   256
1070
   272
1070
     8
1070
   274
1070
     2
1070
   340
1005
29C5
1002
}
  0
DIMENSION
  5
3BCA
102
{ACAD_XDICTIONARY
360
3BCB
102
}
102
{ACAD_REACTORS
330
3BCC
102
}
330
1F
100
AcDbEntity
  8
DIM
100
AcDbDimension
  2
*D8
 10
134.7643321593739
 20
221.1672947349152
 30
0.0
 11
141.6690940641358
 21
223.1672947349153
 31
0.0
 70
    32
 71
     5
 42
1.5
  3
AM_ANSI
100
AcDbAlignedDimension
 13
133.2643321593739
 23
209.7600746591223
 33
0.0
 14
134.7643321593739
 24
199.7600746591223
 34
0.0
100
AcDbRotatedDimension
1001
ACAD
1000
DSTYLE
1002
{
1070
    41
1040
2.0
1070
    42
1040
1.5
1070
    43
1040
8.0
1070
    44
1040
1.5
1070
    73
1070
     0
1070
    74
1070
     0
1070
    77
1070
     3
1070
   140
1040
2.0
1070
   141
1040
3.0
1070
   146
1040
0.6
1070
   147
1040
1.0
1070
   172
1070
     1
1070
   178
1070
   256
1070
   272
1070
     8
1070
   274
1070
     2
1070
   340
1005
29C5
1002
}
  0
DIMENSION
  5
3BCD
102
{ACAD_XDICTIONARY
360
3BCE
102
}
102
{ACAD_REACTORS
330
3BCF
102
}
330
1F
100
AcDbEntity
  8
DIM
100
AcDbDimension
  2
*D9
 10
153.7643321593739
 20
226.6455422720462
 30
0.0
 11
143.5143321593739
 21
228.6455422720462
 31
0.0
 70
    32
 71
     5
 42
20.5
  3
AM_ANSI
100
AcDbAlignedDimension
 13
133.2643321593739
 23
209.7600746591223
 33
0.0
 14
153.7643321593739
 24
195.2600746591223
 34
0.0
100
AcDbRotatedDimension
1001
ACAD
1000
DSTYLE
1002
{
1070
    41
1040
2.0
1070
    42
1040
1.5
1070
    43
1040
8.0
1070
    44
1040
1.5
1070
    73
1070
     0
1070
    74
1070
     0
1070
    77
1070
     3
1070
   140
1040
2.0
1070
   141
1040
3.0
1070
   146
1040
0.6
1070
   147
1040
1.0
1070
   172
1070
     1
1070
   178
1070
   256
1070
   272
1070
     8
1070
   274
1070
     2
1070
   340
1005
29C5
1002
}
  0
DIMENSION
  5
3BD0
102
{ACAD_XDICTIONARY
360
3BD1
102
}
102
{ACAD_REACTORS
330
3BD2
102
}
330
1F
100
AcDbEntity
  8
DIM
100
AcDbDimension
  2
*D10
 10
116.2643321593739
 20
215.9148448237095
 30
0.0
 11
112.514332159374
 21
217.9148448237095
 31
0.0
 70
    32
 71
     5
 42
7.499999999999772
  3
AM_ANSI
100
AcDbAlignedDimension
 13
108.7643321593741
 23
209.7600746591223
 33
0.0
 14
116.2643321593739
 24
196.3824482835057
 34
0.0
100
AcDbRotatedDimension
1001
ACAD
1000
DSTYLE
1002
{
1070
    41
1040
2.0
1070
    42
1040
1.5
1070
    43
1040
8.0
1070
    44
1040
1.5
1070
    73
1070
     0
1070
    74
1070
     0
1070
    77
1070
     3
1070
   140
1040
2.0
1070
   141
1040
3.0
1070
   146
1040
0.6
1070
   147
1040
1.0
1070
   172
1070
     1
1070
   178
1070
   256
1070
   272
1070
     8
1070
   274
1070
     2
1070
   340
1005
29C5
1002
}
  0
DIMENSION
  5
3BD3
102
{ACAD_XDICTIONARY
360
3BD4
102
}
102
{ACAD_REACTORS
330
3BD5
102
}
330
1F
100
AcDbEntity
  8
DIM
100
AcDbDimension
  2
*D11
 10
133.2643321593739
 20
215.9148448237095
 30
0.0
 11
129.5143321593739
 21
217.9148448237095
 31
0.0
 70
    32
 71
     5
 42
7.5
  3
AM_ANSI
100
AcDbAlignedDimension
 13
125.7643321593739
 23
196.3824482835057
 33
0.0
 14
133.2643321593739
 24
209.7600746591223
 34
0.0
100
AcDbRotatedDimension
1001
ACAD
1000
DSTYLE
1002
{
1070
    41
1040
2.0
1070
    42
1040
1.5
1070
    43
1040
8.0
1070
    44
1040
1.5
1070
    73
1070
     0
1070
    74
1070
     0
1070
    77
1070
     3
1070
   140
1040
2.0
1070
   141
1040
3.0
1070
   146
1040
0.6
1070
   147
1040
1.0
1070
   172
1070
     1
1070
   178
1070
   256
1070
   272
1070
     8
1070
   274
1070
     2
1070
   340
1005
29C5
1002
}
  0
DIMENSION
  5
3BD6
102
{ACAD_XDICTIONARY
360
3BD7
102
}
102
{ACAD_REACTORS
330
3BD8
102
}
330
1F
100
AcDbEntity
  8
DIM
100
AcDbDimension
  2
*D12
 10
133.2643321593739
 20
226.6455422720462
 30
0.0
 11
121.014332159374
 21
228.6455422720462
 31
0.0
 70
    32
  1
19.5+stroke=S
 71
     5
 42
24.49999999999977
  3
AM_ANSI
100
AcDbAlignedDimension
 13
108.7643321593741
 23
209.7600746591223
 33
0.0
 14
133.2643321593739
 24
209.7600746591223
 34
0.0
100
AcDbRotatedDimension
1001
ACAD
1000
DSTYLE
1002
{
1070
    41
1040
2.0
1070
    42
1040
1.5
1070
    43
1040
8.0
1070
    44
1040
1.5
1070
    73
1070
     0
1070
    74
1070
     0
1070
    77
1070
     3
1070
   140
1040
2.0
1070
   141
1040
3.0
1070
   146
1040
0.6
1070
   147
1040
1.0
1070
   172
1070
     1
1070
   178
1070
   256
1070
   272
1070
     8
1070
   274
1070
     2
1070
   340
1005
29C5
1002
}
  0
DIMENSION
  5
3BD9
102
{ACAD_XDICTIONARY
360
3BDA
102
}
102
{ACAD_REACTORS
330
3BDB
102
}
330
1F
100
AcDbEntity
  8
DIM
100
AcDbDimension
  2
*D13
 10
153.7643321593739
 20
231.7737212391155
 30
0.0
 11
131.264332159374
 21
233.7737212391155
 31
0.0
 70
    32
  1
40+stroke=ZZ
 71
     5
 42
44.99999999999977
  3
AM_ANSI
100
AcDbAlignedDimension
 13
108.7643321593741
 23
209.7600746591223
 33
0.0
 14
153.7643321593739
 24
195.2600746591223
 34
0.0
100
AcDbRotatedDimension
1001
ACAD
1000
DSTYLE
1002
{
1070
    41
1040
2.0
1070
    42
1040
1.5
1070
    43
1040
8.0
1070
    44
1040
1.5
1070
    73
1070
     0
1070
    74
1070
     0
1070
    77
1070
     3
1070
   140
1040
2.0
1070
   141
1040
3.0
1070
   146
1040
0.6
1070
   147
1040
1.0
1070
   172
1070
     1
1070
   178
1070
   256
1070
   272
1070
     8
1070
   274
1070
     2
1070
   340
1005
29C5
1002
}
  0
DIMENSION
  5
3BDC
102
{ACAD_XDICTIONARY
360
3BDD
102
}
102
{ACAD_REACTORS
330
3BDE
102
}
330
1F
100
AcDbEntity
  8
DIM
100
AcDbDimension
  2
*D14
 10
162.7821231597618
 20
196.7600746591223
 30
0.0
 11
160.7821231597617
 21
192.7600746591223
 31
0.0
 70
    32
  1
%%c<>
 71
     5
 42
8.0
  3
AM_ANSI
100
AcDbAlignedDimension
 13
134.7643321593739
 23
188.7600746591223
 33
0.0
 14
134.7643321593739
 24
196.7600746591223
 34
0.0
 50
90.0
100
AcDbRotatedDimension
1001
ACAD
1000
DSTYLE
1002
{
1070
    41
1040
2.0
1070
    42
1040
1.5
1070
    43
1040
8.0
1070
    44
1040
1.5
1070
    73
1070
     0
1070
    74
1070
     0
1070
    77
1070
     3
1070
   140
1040
2.0
1070
   141
1040
3.0
1070
   146
1040
0.6
1070
   147
1040
1.0
1070
   172
1070
     1
1070
   178
1070
   256
1070
   272
1070
     8
1070
   274
1070
     2
1070
   340
1005
29C5
1002
}
  0
DIMENSION
  5
3BDF
102
{ACAD_XDICTIONARY
360
3BE0
102
}
102
{ACAD_REACTORS
330
3BE1
102
}
330
1F
100
AcDbEntity
  8
DIM
100
AcDbDimension
  2
*D15
 10
169.7918617906478
 20
200.2600746591223
 30
0.0
 11
167.135195123981
 21
192.7600746591223
 31
0.0
 70
    32
  1
%%c<>{}{\H0.71x;\C3;\S 0^ -0.05;}
 71
     5
 42
15.0
  3
AM_ANSI
100
AcDbAlignedDimension
 13
134.2643321593739
 23
185.2600746591223
 33
0.0
 14
134.2643321593739
 24
200.2600746591223
 34
0.0
 50
90.0
100
AcDbRotatedDimension
1001
GENIUS_GENDTOL_13
1000
TolSmNrm
1000

1000
{\H0.71x;$2\S$+$P^ $-$M;}
1040
15.0
1001
ACAD
1000
DSTYLE
1002
{
1070
   286
1070
     0
1070
   284
1070
     8
1070
    41
1040
2.0
1070
    42
1040
1.5
1070
    43
1040
8.0
1070
    44
1040
1.5
1070
    47
1040
0.0
1070
    48
1040
0.05
1070
    73
1070
     0
1070
    74
1070
     0
1070
    77
1070
     3
1070
   140
1040
2.0
1070
   141
1040
3.0
1070
   146
1040
0.6
1070
   147
1040
1.0
1070
   172
1070
     1
1070
   178
1070
   256
1070
   272
1070
     8
1070
   274
1070
     2
1070
   340
1005
29C5
1002
}
  0
LEADER
  5
3BE2
330
1F
100
AcDbEntity
  8
DIM
100
AcDbLeader
  3
AM_ANSI$7
 73
     0
 74
     0
 75
     1
 40
2.0
 41
9.523809523809523
 76
     3
 10
151.5143321593739
 20
189.7600746591223
 30
0.0
 10
157.1903849732845
 20
180.3449961416694
 30
0.0
 10
159.1903849732845
 20
180.3449961416694
 30
0.0
340
3BE3
213
0.8150760156128171
223
0.3869799573012926
233
0.0
1001
ACAD
1000
DSTYLE
1002
{
1070
    41
1040
2.0
1070
    42
1040
1.5
1070
    43
1040
8.0
1070
    44
1040
1.5
1070
    73
1070
     0
1070
    74
1070
     0
1070
    77
1070
     3
1070
   140
1040
2.0
1070
   141
1040
3.0
1070
   146
1040
0.6
1070
   147
1040
1.0
1070
   172
1070
     1
1070
   178
1070
   256
1070
   272
1070
     2
1070
   274
1070
     2
1070
   340
1005
29C5
1002
}
  0
MTEXT
  5
3BE3
102
{ACAD_REACTORS
330
3BE2
102
}
330
1F
100
AcDbEntity
  8
DIM
100
AcDbMText
 10
159.3753089576717
 20
182.9580161843681
 30
0.0
 40
2.0
 41
0.0
 71
     1
 72
     1
  1
M6*1.0
  7
dayus
 73
     1
 44
1.0
1001
ACAD
1000
MTEXTBEGIN
1070
    73
1070
     1
1070
    44
1040
1.0
1070
    74
1070
     0
1000
MTEXTEND
  0
LEADER
  5
3BE4
330
1F
100
AcDbEntity
  8
DIM
100
AcDbLeader
  3
AM_ANSI$7
 73
     0
 74
     0
 75
     1
 40
2.0
 41
2.857142857142856
 76
     3
 10
147.2475474190867
 20
186.83533842937
 30
0.0
 10
153.8790187805884
 20
173.5861046382708
 30
0.0
 10
155.8790187805884
 20
173.5861046382708
 30
0.0
340
3BE5
213
1.28621199348413
223
0.2860289400440479
233
0.0
1001
ACAD
1000
DSTYLE
1002
{
1070
    41
1040
2.0
1070
    42
1040
1.5
1070
    43
1040
8.0
1070
    44
1040
1.5
1070
    73
1070
     0
1070
    74
1070
     0
1070
    77
1070
     3
1070
   140
1040
2.0
1070
   141
1040
3.0
1070
   146
1040
0.6
1070
   147
1040
1.0
1070
   172
1070
     1
1070
   178
1070
   256
1070
   272
1070
     2
1070
   274
1070
     2
1070
   340
1005
29C5
1002
}
  0
MTEXT
  5
3BE5
102
{ACAD_REACTORS
330
3BE4
102
}
330
1F
100
AcDbEntity
  8
DIM
100
AcDbMText
 10
155.5928067871043
 20
176.3000756982268
 30
0.0
 40
2.0
 41
0.0
 71
     1
 72
     1
  1
10
  7
dayus
 73
     1
 44
1.0
1001
ACAD
1000
MTEXTBEGIN
1070
    73
1070
     1
1070
    44
1040
1.0
1070
    74
1070
     0
1000
MTEXTEND
  0
DIMENSION
  5
3BE6
102
{ACAD_XDICTIONARY
360
3BE7
102
}
102
{ACAD_REACTORS
330
3BE8
102
}
330
1F
100
AcDbEntity
  8
DIM
100
AcDbDimension
  2
*D16
 10
138.7643321593739
 20
179.8403768884188
 30
0.0
 11
137.2643321593739
 21
179.8403768884188
 31
0.0
 70
   160
 71
     5
 42
3.0
  3
AM_ANSI
100
AcDbAlignedDimension
 13
135.7643321593739
 23
190.1143233480577
 33
0.0
 14
138.7643321593739
 24
189.7600746591223
 34
0.0
100
AcDbRotatedDimension
1001
ACAD
1000
DSTYLE
1002
{
1070
    41
1040
2.0
1070
    42
1040
1.5
1070
    43
1040
8.0
1070
    44
1040
1.5
1070
    73
1070
     0
1070
    74
1070
     0
1070
    77
1070
     3
1070
   140
1040
2.0
1070
   141
1040
3.0
1070
   146
1040
0.6
1070
   147
1040
1.0
1070
   172
1070
     1
1070
   178
1070
   256
1070
   272
1070
     8
1070
   274
1070
     2
1070
   340
1005
29C5
1002
}
  0
LEADER
  5
3BE9
330
1F
100
AcDbEntity
  8
DIM
100
AcDbLeader
  3
AM_ANSI$7
 73
     0
 75
     1
 40
2.0
 41
14.28571428571428
 76
     3
 10
114.1096521605949
 20
194.0278893549126
 30
0.0
 10
106.7859046817017
 20
200.0907436599045
 30
0.0
 10
104.7859046817017
 20
200.0907436599045
 30
0.0
340
3BEA
213
-1.486619241154016
223
0.4032735171140303
233
0.0
1001
ACAD
1000
DSTYLE
1002
{
1070
    41
1040
2.0
1070
    42
1040
1.5
1070
    43
1040
8.0
1070
    44
1040
1.5
1070
    73
1070
     0
1070
    74
1070
     0
1070
    77
1070
     2
1070
   140
1040
2.0
1070
   141
1040
3.0
1070
   146
1040
0.6
1070
   147
1040
1.0
1070
   172
1070
     1
1070
   178
1070
   256
1070
   272
1070
     2
1070
   274
1070
     2
1070
   340
1005
29C5
1002
}
  0
MTEXT
  5
3BEA
102
{ACAD_REACTORS
330
3BE9
102
}
330
1F
100
AcDbEntity
  8
DIM
100
AcDbMText
 10
105.2725239228557
 20
200.6874701427904
 30
0.0
 40
2.0
 41
0.0
 71
     9
 72
     1
  1
2-M5*0.8
  7
dayus
 73
     1
 44
1.0
1001
ACAD
1000
MTEXTBEGIN
1070
    73
1070
     1
1070
    44
1040
1.0
1070
    74
1070
     0
1000
MTEXTEND
  0
DIMENSION
  5
3BEB
102
{ACAD_XDICTIONARY
360
3BEC
102
}
102
{ACAD_REACTORS
330
3BED
102
}
330
1F
100
AcDbEntity
  8
DIM
100
AcDbDimension
  2
*D17
 10
216.6177012109331
 20
215.9148448237095
 30
0.0
 11
204.6177012109331
 21
217.9148448237095
 31
0.0
 70
    32
  1
□<>
 71
     5
 42
24.0
  3
AM_ANSI
100
AcDbAlignedDimension
 13
192.6177012109331
 23
209.4679778628726
 33
0.0
 14
216.6177012109331
 24
209.4679778628726
 34
0.0
100
AcDbRotatedDimension
1001
ACAD
1000
DSTYLE
1002
{
1070
    41
1040
2.0
1070
    42
1040
1.5
1070
    43
1040
8.0
1070
    44
1040
1.5
1070
    73
1070
     0
1070
    74
1070
     0
1070
    77
1070
     3
1070
   140
1040
2.0
1070
   141
1040
3.0
1070
   146
1040
0.6
1070
   147
1040
1.0
1070
   172
1070
     1
1070
   178
1070
   256
1070
   272
1070
     8
1070
   274
1070
     2
1070
   340
1005
29C5
1002
}
  0
DIMENSION
  5
3BEE
102
{ACAD_XDICTIONARY
360
3BEF
102
}
102
{ACAD_REACTORS
330
3BF0
102
}
330
1F
100
AcDbEntity
  8
DIM
100
AcDbDimension
  2
*D18
 10
221.617701210933
 20
221.1672947349151
 30
0.0
 11
204.6177012109327
 21
223.1672947349151
 31
0.0
 70
    32
  1
□<>
 71
     5
 42
34.00000000000068
  3
AM_ANSI
100
AcDbAlignedDimension
 13
187.6177012109323
 23
207.4994776321051
 33
0.0
 14
221.617701210933
 24
207.4994776321059
 34
0.0
100
AcDbRotatedDimension
1001
ACAD
1000
DSTYLE
1002
{
1070
    41
1040
2.0
1070
    42
1040
1.5
1070
    43
1040
8.0
1070
    44
1040
1.5
1070
    73
1070
     0
1070
    74
1070
     0
1070
    77
1070
     3
1070
   140
1040
2.0
1070
   141
1040
3.0
1070
   146
1040
0.6
1070
   147
1040
1.0
1070
   172
1070
     1
1070
   178
1070
   256
1070
   272
1070
     8
1070
   274
1070
     2
1070
   340
1005
29C5
1002
}
  0
DIMENSION
  5
3BF1
102
{ACAD_XDICTIONARY
360
3BF2
102
}
102
{ACAD_REACTORS
330
3BF3
102
}
330
1F
100
AcDbEntity
  8
DIM
100
AcDbDimension
  2
*D19
 10
207.6177012109331
 20
168.6172516499105
 30
0.0
 11
204.6177012109331
 21
170.6172516499105
 31
0.0
 70
    32
  1
□<>
 71
     5
 42
6.0
  3
AM_ANSI
100
AcDbAlignedDimension
 13
201.6177012109331
 23
190.1143233480578
 33
0.0
 14
207.6177012109331
 24
190.1143233480578
 34
0.0
100
AcDbRotatedDimension
1001
ACAD
1000
DSTYLE
1002
{
1070
    41
1040
2.0
1070
    42
1040
1.5
1070
    43
1040
8.0
1070
    44
1040
1.5
1070
    73
1070
     0
1070
    74
1070
     0
1070
    77
1070
     3
1070
   140
1040
2.0
1070
   141
1040
3.0
1070
   146
1040
0.6
1070
   147
1040
1.0
1070
   172
1070
     1
1070
   178
1070
   256
1070
   272
1070
     8
1070
   274
1070
     2
1070
   340
1005
29C5
1002
}
  0
LEADER
  5
3BF4
330
1F
100
AcDbEntity
  8
DIM
100
AcDbLeader
  3
AM_ANSI$7
 73
     0
 74
     0
 75
     1
 40
8.666666666666666
 41
26.28571428571428
 76
     3
 10
219.1920524081804
 20
206.7438125231638
 30
0.0
 10
228.2615229909437
 20
213.7325451487184
 30
0.0
 10
230.2615229909437
 20
213.7325451487184
 30
0.0
340
3BF5
213
-0.1905629376930165
223
0.2179465301056638
233
0.0
1001
ACAD
1000
DSTYLE
1002
{
1070
    41
1040
2.0
1070
    42
1040
1.5
1070
    43
1040
8.0
1070
    44
1040
1.5
1070
    73
1070
     0
1070
    74
1070
     0
1070
    77
1070
     3
1070
   140
1040
2.0
1070
   141
1040
3.0
1070
   146
1040
0.6
1070
   147
1040
1.0
1070
   172
1070
     1
1070
   178
1070
   256
1070
   272
1070
     2
1070
   274
1070
     2
1070
   340
1005
29C5
1002
}
  0
MTEXT
  5
3BF5
102
{ACAD_REACTORS
330
3BF4
102
}
330
1F
100
AcDbEntity
  8
DIM
100
AcDbMText
 10
231.4520859286367
 20
223.1812652852795
 30
0.0
 40
2.0
 41
0.0
 71
     1
 72
     1
  1
%%C6.5*4.5 depth\PM5*0.8*7.5 depth\P%%C4.3 thru
  7
dayus
 73
     1
 44
1.0
1001
ACAD
1000
MTEXTBEGIN
1070
    73
1070
     1
1070
    44
1040
1.0
1070
    74
1070
     0
1000
MTEXTEND
  0
DIMENSION
  5
3BF6
330
1F
100
AcDbEntity
  8
DIM
100
AcDbDimension
  2
*D2
 10
216.6177012109331
 20
100.5857370307462
 30
0.0
 11
204.6177012109331
 21
102.5857370307462
 31
0.0
 70
    32
  1
□<>
 71
     5
 42
24.0
  3
AM_ANSI
100
AcDbAlignedDimension
 13
192.6177012109331
 23
94.13887006990938
 33
0.0
 14
216.6177012109331
 24
94.13887006990938
 34
0.0
100
AcDbRotatedDimension
1001
ACAD
1000
DSTYLE
1002
{
1070
    41
1040
2.0
1070
    42
1040
1.5
1070
    43
1040
8.0
1070
    44
1040
1.5
1070
    73
1070
     0
1070
    74
1070
     0
1070
    77
1070
     3
1070
   140
1040
2.0
1070
   141
1040
3.0
1070
   146
1040
0.6
1070
   147
1040
1.0
1070
   172
1070
     1
1070
   178
1070
   256
1070
   272
1070
     8
1070
   274
1070
     2
1070
   340
1005
29C5
1002
}
  0
DIMENSION
  5
3BF7
330
1F
100
AcDbEntity
  8
DIM
100
AcDbDimension
  2
*D3
 10
221.6177012109331
 20
105.838186941952
 30
0.0
 11
204.6177012109327
 21
107.838186941952
 31
0.0
 70
    32
  1
□<>
 71
     5
 42
34.00000000000068
  3
AM_ANSI
100
AcDbAlignedDimension
 13
187.6177012109324
 23
92.17036983914205
 33
0.0
 14
221.6177012109331
 24
92.17036983914281
 34
0.0
100
AcDbRotatedDimension
1001
ACAD
1000
DSTYLE
1002
{
1070
    41
1040
2.0
1070
    42
1040
1.5
1070
    43
1040
8.0
1070
    44
1040
1.5
1070
    73
1070
     0
1070
    74
1070
     0
1070
    77
1070
     3
1070
   140
1040
2.0
1070
   141
1040
3.0
1070
   146
1040
0.6
1070
   147
1040
1.0
1070
   172
1070
     1
1070
   178
1070
   256
1070
   272
1070
     8
1070
   274
1070
     2
1070
   340
1005
29C5
1002
}
  0
DIMENSION
  5
3BF8
330
1F
100
AcDbEntity
  8
DIM
100
AcDbDimension
  2
*D4
 10
207.6177012109331
 20
53.28814385694726
 30
0.0
 11
204.6177012109331
 21
55.28814385694726
 31
0.0
 70
    32
  1
□<>
 71
     5
 42
6.0
  3
AM_ANSI
100
AcDbAlignedDimension
 13
201.6177012109331
 23
74.78521555509456
 33
0.0
 14
207.6177012109331
 24
74.78521555509455
 34
0.0
100
AcDbRotatedDimension
1001
ACAD
1000
DSTYLE
1002
{
1070
    41
1040
2.0
1070
    42
1040
1.5
1070
    43
1040
8.0
1070
    44
1040
1.5
1070
    73
1070
     0
1070
    74
1070
     0
1070
    77
1070
     3
1070
   140
1040
2.0
1070
   141
1040
3.0
1070
   146
1040
0.6
1070
   147
1040
1.0
1070
   172
1070
     1
1070
   178
1070
   256
1070
   272
1070
     8
1070
   274
1070
     2
1070
   340
1005
29C5
1002
}
  0
DIMENSION
  5
3BFB
102
{ACAD_XDICTIONARY
360
3BFC
102
}
102
{ACAD_REACTORS
330
3BFD
102
}
330
1F
100
AcDbEntity
  8
DIM
100
AcDbDimension
  2
*D20
 10
134.7643321593739
 20
99.80348692577912
 30
0.0
 11
141.6690940641358
 21
101.8034869257791
 31
0.0
 70
    32
 71
     5
 42
1.5
  3
AM_ANSI
100
AcDbAlignedDimension
 13
133.2643321593739
 23
94.43096686615911
 33
0.0
 14
134.7643321593739
 24
84.43096686615911
 34
0.0
100
AcDbRotatedDimension
1001
ACAD
1000
DSTYLE
1002
{
1070
    41
1040
2.0
1070
    42
1040
1.5
1070
    43
1040
8.0
1070
    44
1040
1.5
1070
    73
1070
     0
1070
    74
1070
     0
1070
    77
1070
     3
1070
   140
1040
2.0
1070
   141
1040
3.0
1070
   146
1040
0.6
1070
   147
1040
1.0
1070
   172
1070
     1
1070
   178
1070
   256
1070
   272
1070
     8
1070
   274
1070
     2
1070
   340
1005
29C5
1002
}
  0
DIMENSION
  5
3BFE
102
{ACAD_XDICTIONARY
360
3BFF
102
}
102
{ACAD_REACTORS
330
3C00
102
}
330
1F
100
AcDbEntity
  8
DIM
100
AcDbDimension
  2
*D21
 10
138.7643321593739
 20
105.3347500200303
 30
0.0
 11
145.859570254612
 21
107.3347500200303
 31
0.0
 70
    32
 71
     5
 42
5.5
  3
AM_ANSI
100
AcDbAlignedDimension
 13
133.2643321593739
 23
94.43096686615913
 33
0.0
 14
138.7643321593739
 24
80.43096686615911
 34
0.0
100
AcDbRotatedDimension
1001
ACAD
1000
DSTYLE
1002
{
1070
    41
1040
2.0
1070
    42
1040
1.5
1070
    43
1040
8.0
1070
    44
1040
1.5
1070
    73
1070
     0
1070
    74
1070
     0
1070
    77
1070
     3
1070
   140
1040
2.0
1070
   141
1040
3.0
1070
   146
1040
0.6
1070
   147
1040
1.0
1070
   172
1070
     1
1070
   178
1070
   256
1070
   272
1070
     8
1070
   274
1070
     2
1070
   340
1005
29C5
1002
}
  0
DIMENSION
  5
3C01
102
{ACAD_XDICTIONARY
360
3C02
102
}
102
{ACAD_REACTORS
330
3C03
102
}
330
1F
100
AcDbEntity
  8
DIM
100
AcDbDimension
  2
*D22
 10
116.2643321593739
 20
99.92944259006891
 30
0.0
 11
112.5143321593739
 21
101.9294425900689
 31
0.0
 70
    32
 71
     5
 42
7.5
  3
AM_ANSI
100
AcDbAlignedDimension
 13
108.7643321593739
 23
94.43096686615913
 33
0.0
 14
116.2643321593739
 24
81.05334049054249
 34
0.0
100
AcDbRotatedDimension
1001
ACAD
1000
DSTYLE
1002
{
1070
    41
1040
2.0
1070
    42
1040
1.5
1070
    43
1040
8.0
1070
    44
1040
1.5
1070
    73
1070
     0
1070
    74
1070
     0
1070
    77
1070
     3
1070
   140
1040
2.0
1070
   141
1040
3.0
1070
   146
1040
0.6
1070
   147
1040
1.0
1070
   172
1070
     1
1070
   178
1070
   256
1070
   272
1070
     8
1070
   274
1070
     2
1070
   340
1005
29C5
1002
}
  0
DIMENSION
  5
3C04
102
{ACAD_XDICTIONARY
360
3C05
102
}
102
{ACAD_REACTORS
330
3C06
102
}
330
1F
100
AcDbEntity
  8
DIM
100
AcDbDimension
  2
*D23
 10
133.2643321593739
 20
99.80348692577912
 30
0.0
 11
129.5143321593739
 21
101.8034869257791
 31
0.0
 70
    32
 71
     5
 42
7.5
  3
AM_ANSI
100
AcDbAlignedDimension
 13
125.7643321593739
 23
81.05334049054249
 33
0.0
 14
133.2643321593739
 24
94.43096686615911
 34
0.0
100
AcDbRotatedDimension
1001
ACAD
1000
DSTYLE
1002
{
1070
    41
1040
2.0
1070
    42
1040
1.5
1070
    43
1040
8.0
1070
    44
1040
1.5
1070
    73
1070
     0
1070
    74
1070
     0
1070
    77
1070
     3
1070
   140
1040
2.0
1070
   141
1040
3.0
1070
   146
1040
0.6
1070
   147
1040
1.0
1070
   172
1070
     1
1070
   178
1070
   256
1070
   272
1070
     8
1070
   274
1070
     2
1070
   340
1005
29C5
1002
}
  0
DIMENSION
  5
3C07
102
{ACAD_XDICTIONARY
360
3C08
102
}
102
{ACAD_REACTORS
330
3C09
102
}
330
1F
100
AcDbEntity
  8
DIM
100
AcDbDimension
  2
*D24
 10
133.2643321593739
 20
105.3347500200303
 30
0.0
 11
121.014332159374
 21
107.3347500200303
 31
0.0
 70
    32
  1
19.5+stroke=S
 71
     5
 42
24.49999999999977
  3
AM_ANSI
100
AcDbAlignedDimension
 13
108.7643321593741
 23
94.43096686615913
 33
0.0
 14
133.2643321593739
 24
94.43096686615913
 34
0.0
100
AcDbRotatedDimension
1001
ACAD
1000
DSTYLE
1002
{
1070
    41
1040
2.0
1070
    42
1040
1.5
1070
    43
1040
8.0
1070
    44
1040
1.5
1070
    73
1070
     0
1070
    74
1070
     0
1070
    77
1070
     3
1070
   140
1040
2.0
1070
   141
1040
3.0
1070
   146
1040
0.6
1070
   147
1040
1.0
1070
   172
1070
     1
1070
   178
1070
   256
1070
   272
1070
     8
1070
   274
1070
     2
1070
   340
1005
29C5
1002
}
  0
DIMENSION
  5
3C0A
102
{ACAD_XDICTIONARY
360
3C0B
102
}
102
{ACAD_REACTORS
330
3C0C
102
}
330
1F
100
AcDbEntity
  8
DIM
100
AcDbDimension
  2
*D25
 10
138.7643321593739
 20
110.94409653123
 30
0.0
 11
123.764332159374
 21
112.94409653123
 31
0.0
 70
    32
  1
25+stroke=ZZ
 71
     5
 42
29.99999999999977
  3
AM_ANSI
100
AcDbAlignedDimension
 13
108.7643321593741
 23
94.43096686615913
 33
0.0
 14
138.7643321593739
 24
80.43096686615911
 34
0.0
100
AcDbRotatedDimension
1001
ACAD
1000
DSTYLE
1002
{
1070
    41
1040
2.0
1070
    42
1040
1.5
1070
    43
1040
8.0
1070
    44
1040
1.5
1070
    73
1070
     0
1070
    74
1070
     0
1070
    77
1070
     3
1070
   140
1040
2.0
1070
   141
1040
3.0
1070
   146
1040
0.6
1070
   147
1040
1.0
1070
   172
1070
     1
1070
   178
1070
   256
1070
   272
1070
     8
1070
   274
1070
     2
1070
   340
1005
29C5
1002
}
  0
DIMENSION
  5
3C0D
102
{ACAD_XDICTIONARY
360
3C0E
102
}
102
{ACAD_REACTORS
330
3C0F
102
}
330
1F
100
AcDbEntity
  8
DIM
100
AcDbDimension
  2
*D26
 10
145.7469548945889
 20
73.43096686615925
 30
0.0
 11
143.7469548945889
 21
77.43096686615906
 31
0.0
 70
    32
  1
%%c<>
 71
     5
 42
7.999999999999587
  3
AM_ANSI
100
AcDbAlignedDimension
 13
134.7643321593739
 23
81.43096686615884
 33
0.0
 14
134.7643321593738
 24
73.43096686615925
 34
0.0
 50
90.0
100
AcDbRotatedDimension
1001
ACAD
1000
DSTYLE
1002
{
1070
    41
1040
2.0
1070
    42
1040
1.5
1070
    43
1040
8.0
1070
    44
1040
1.5
1070
    73
1070
     0
1070
    74
1070
     0
1070
    77
1070
     3
1070
   140
1040
2.0
1070
   141
1040
3.0
1070
   146
1040
0.6
1070
   147
1040
1.0
1070
   172
1070
     1
1070
   178
1070
   256
1070
   272
1070
     8
1070
   274
1070
     2
1070
   340
1005
29C5
1002
}
  0
DIMENSION
  5
3C10
102
{ACAD_XDICTIONARY
360
3C11
102
}
102
{ACAD_REACTORS
330
3C12
102
}
330
1F
100
AcDbEntity
  8
DIM
100
AcDbDimension
  2
*D27
 10
153.522000566448
 20
84.93096686615912
 30
0.0
 11
150.8653338997813
 21
77.43096686615912
 31
0.0
 70
    32
  1
%%c<>{}{\H0.71x;\C3;\S 0^ -0.05;}
 71
     5
 42
15.0
  3
AM_ANSI
100
AcDbAlignedDimension
 13
134.2643321593739
 23
69.93096686615911
 33
0.0
 14
134.2643321593739
 24
84.93096686615912
 34
0.0
 50
90.0
100
AcDbRotatedDimension
1001
GENIUS_GENDTOL_13
1000
TolSmNrm
1000

1000
{\H0.71x;$2\S$+$P^ $-$M;}
1040
15.0
1001
ACAD
1000
DSTYLE
1002
{
1070
   286
1070
     0
1070
   284
1070
     8
1070
    41
1040
2.0
1070
    42
1040
1.5
1070
    43
1040
8.0
1070
    44
1040
1.5
1070
    47
1040
0.0
1070
    48
1040
0.05
1070
    73
1070
     0
1070
    74
1070
     0
1070
    77
1070
     3
1070
   140
1040
2.0
1070
   141
1040
3.0
1070
   146
1040
0.6
1070
   147
1040
1.0
1070
   172
1070
     1
1070
   178
1070
   256
1070
   272
1070
     8
1070
   274
1070
     2
1070
   340
1005
29C5
1002
}
  0
DIMENSION
  5
3C13
102
{ACAD_XDICTIONARY
360
3C14
102
}
102
{ACAD_REACTORS
330
3C15
102
}
330
1F
100
AcDbEntity
  8
DIM
100
AcDbDimension
  2
*D28
 10
138.7643321593739
 20
61.94879843480244
 30
0.0
 11
137.2643321593739
 21
61.94879843480244
 31
0.0
 70
   160
 71
     5
 42
3.0
  3
AM_ANSI
100
AcDbAlignedDimension
 13
135.7643321593739
 23
74.78521555509451
 33
0.0
 14
138.7643321593739
 24
74.43096686615906
 34
0.0
100
AcDbRotatedDimension
1001
ACAD
1000
DSTYLE
1002
{
1070
    41
1040
2.0
1070
    42
1040
1.5
1070
    43
1040
8.0
1070
    44
1040
1.5
1070
    73
1070
     0
1070
    74
1070
     0
1070
    77
1070
     3
1070
   140
1040
2.0
1070
   141
1040
3.0
1070
   146
1040
0.6
1070
   147
1040
1.0
1070
   172
1070
     1
1070
   178
1070
   256
1070
   272
1070
     8
1070
   274
1070
     2
1070
   340
1005
29C5
1002
}
  0
LEADER
  5
3C16
330
1F
100
AcDbEntity
  8
DIM
100
AcDbLeader
  3
AM_ANSI$7
 73
     0
 75
     1
 40
2.0
 41
14.28571428571428
 76
     3
 10
114.1096521605949
 20
78.69878156194936
 30
0.0
 10
106.7859046817017
 20
84.76163586694127
 30
0.0
 10
104.7859046817017
 20
84.76163586694127
 30
0.0
340
3C17
213
-1.486619241154016
223
0.4032735171140303
233
0.0
1001
ACAD
1000
DSTYLE
1002
{
1070
    41
1040
2.0
1070
    42
1040
1.5
1070
    43
1040
8.0
1070
    44
1040
1.5
1070
    73
1070
     0
1070
    74
1070
     0
1070
    77
1070
     2
1070
   140
1040
2.0
1070
   141
1040
3.0
1070
   146
1040
0.6
1070
   147
1040
1.0
1070
   172
1070
     1
1070
   178
1070
   256
1070
   272
1070
     2
1070
   274
1070
     2
1070
   340
1005
29C5
1002
}
  0
MTEXT
  5
3C17
102
{ACAD_REACTORS
330
3C16
102
}
330
1F
100
AcDbEntity
  8
DIM
100
AcDbMText
 10
105.2725239228557
 20
85.35836234982724
 30
0.0
 40
2.0
 41
0.0
 71
     9
 72
     1
  1
2-M5*0.8
  7
dayus
 73
     1
 44
1.0
1001
ACAD
1000
MTEXTBEGIN
1070
    73
1070
     1
1070
    44
1040
1.0
1070
    74
1070
     0
1000
MTEXTEND
  0
LEADER
  5
3C18
330
1F
100
AcDbEntity
  8
DIM
100
AcDbLeader
  3
AM_ANSI$7
 73
     0
 75
     1
 40
2.666666666666666
 41
23.42857142857142
 76
     3
 10
202.9169967828222
 20
78.74630121460612
 30
0.0
 10
185.2958822430386
 20
86.87367770231357
 30
0.0
 10
183.2958822430386
 20
86.87367770231357
 30
0.0
340
3C19
213
-1.486619241154016
223
0.4032735171140303
233
0.0
1001
ACAD
1000
DSTYLE
1002
{
1070
    41
1040
2.0
1070
    42
1040
1.5
1070
    43
1040
8.0
1070
    44
1040
1.5
1070
    73
1070
     0
1070
    74
1070
     0
1070
    77
1070
     2
1070
   140
1040
2.0
1070
   141
1040
3.0
1070
   146
1040
0.6
1070
   147
1040
1.0
1070
   172
1070
     1
1070
   178
1070
   256
1070
   272
1070
     2
1070
   274
1070
     2
1070
   340
1005
29C5
1002
}
  0
MTEXT
  5
3C19
102
{ACAD_REACTORS
330
3C18
102
}
330
1F
100
AcDbEntity
  8
DIM
100
AcDbMText
 10
183.7825014841926
 20
87.47040418519954
 30
0.0
 40
2.0
 41
0.0
 71
     9
 72
     1
  1
M4*0.7*8 depth
  7
dayus
 73
     1
 44
1.0
1001
ACAD
1000
MTEXTBEGIN
1070
    73
1070
     1
1070
    44
1040
1.0
1070
    74
1070
     0
1000
MTEXTEND
  0
TEXT
  5
41CE
330
1F
100
AcDbEntity
  8
LOGO
 62
     7
100
AcDbText
 10
118.3851832590296
 20
22.54973001334916
 30
0.0
 40
3.752789864253393
  1
Order example:
 41
0.8
  7
CHINESET
100
AcDbText
  0
TEXT
  5
41CF
330
1F
100
AcDbEntity
  8
LOGO
 62
     7
100
AcDbText
 10
119.0584647949864
 20
27.8328811171618
 30
0.0
 40
5.62918479638009
  1
訂購代號：
  7
CHINESET
100
AcDbText
  0
LINE
  5
41D0
330
1F
100
AcDbEntity
  8
LOGO
 62
     4
100
AcDbLine
 10
116.7545833342801
 20
6.734056384096923
 30
0.0
 11
116.7545833342801
 21
34.87998036599755
 31
0.0
  0
TEXT
  5
41D1
330
1F
100
AcDbEntity
  8
LOGO
  6
Continuous
100
AcDbText
 10
64.9436929867739
 20
12.26328067443853
 30
0.0
 40
4.221888597285068
  1
金器工業股份有限公司
  7
CHINESET
100
AcDbText
  0
TEXT
  5
41D2
330
1F
100
AcDbEntity
  8
LOGO
  6
Continuous
100
AcDbText
 10
57.18891889302961
 20
8.040564917997272
 30
0.0
 40
2.814592398190045
  1
MINDMAN INDUSTRIAL CO., LTD.
 41
0.85
  7
CHINESET
100
AcDbText
  0
LINE
  5
41D3
330
1F
100
AcDbEntity
  8
LOGO
 62
     4
100
AcDbLine
 10
116.7545833342801
 20
29.25079556961743
 30
0.0
 11
75.47389482749252
 21
29.25079556961743
 31
0.0
  0
LINE
  5
41D4
330
1F
100
AcDbEntity
  8
LOGO
 62
     4
100
AcDbLine
 10
116.7545833342801
 20
23.62161077323731
 30
0.0
 11
75.47389482749252
 21
23.62161077323731
 31
0.0
  0
LINE
  5
41D5
330
1F
100
AcDbEntity
  8
LOGO
 62
     4
100
AcDbLine
 10
116.7545833342801
 20
17.9924259768575
 30
0.0
 11
54.83355057409903
 21
17.9924259768575
 31
0.0
  0
LINE
  5
41D6
330
1F
100
AcDbEntity
  8
LOGO
 62
     4
100
AcDbLine
 10
75.47389482749252
 20
17.9924259768575
 30
0.0
 11
75.47389482749252
 21
34.87998036599755
 31
0.0
  0
TEXT
  5
41D7
330
1F
100
AcDbEntity
  8
LOGO
100
AcDbText
 10
103.6872970030623
 20
19.39972217595206
 30
0.0
 40
2.814592398190045
  1
mm
  7
CHINESET
 72
     1
 11
107.1720304484405
 21
20.80701837504708
 31
0.0
100
AcDbText
 73
     2
  0
TEXT
  5
41D8
330
1F
100
AcDbEntity
  8
LOGO
100
AcDbText
 10
102.2129866992485
 20
30.65809176871232
 30
0.0
 40
2.814592398190045
  1
1 : 1
  7
CHINESET
 72
     1
 11
107.1720304484405
 21
32.06538796780734
 31
0.0
100
AcDbText
 73
     2
  0
LINE
  5
41D9
330
1F
100
AcDbEntity
  8
LOGO
 62
     4
100
AcDbLine
 10
97.990634013013
 20
17.9924259768575
 30
0.0
 11
97.990634013013
 21
34.87998036599755
 31
0.0
  0
CIRCLE
  5
41DA
330
1F
100
AcDbEntity
  8
LOGO
  6
Continuous
100
AcDbCircle
 10
103.2022038819139
 20
26.44222360516386
 30
0.0
 40
1.634218594426288
  0
CIRCLE
  5
41DB
330
1F
100
AcDbEntity
  8
LOGO
  6
Continuous
100
AcDbCircle
 10
103.2022038819139
 20
26.44222360516386
 30
0.0
 40
0.9575074271468279
  0
LINE
  5
41DC
330
1F
100
AcDbEntity
  8
LOGO
100
AcDbLine
 10
113.4718231559952
 20
24.80800501073725
 30
0.0
 11
113.4718231559952
 21
28.07644219959046
 31
0.0
  0
LINE
  5
41DD
330
1F
100
AcDbEntity
  8
LOGO
100
AcDbLine
 10
108.3486416710925
 20
25.4847161780172
 30
0.0
 11
108.3486416710925
 21
27.39973103231084
 31
0.0
  0
LINE
  5
41DE
330
1F
100
AcDbEntity
  8
LOGO
  6
Continuous
100
AcDbLine
 10
108.3486416710925
 20
27.39973103231084
 30
0.0
 11
113.4718231559952
 21
28.07644219959046
 31
0.0
  0
LINE
  5
41DF
330
1F
100
AcDbEntity
  8
LOGO
  6
Continuous
100
AcDbLine
 10
108.3486416710925
 20
25.4847161780172
 30
0.0
 11
113.4718231559952
 21
24.80800501073725
 31
0.0
  0
TEXT
  5
41E0
330
1F
100
AcDbEntity
  8
LOGO
100
AcDbText
 10
77.79467704153589
 20
30.65947690276654
 30
184.4637490072701
 40
2.814592398190045
  1
比例 Scale:
 41
0.9
  7
CHINESET
 72
     4
 11
86.73226442025276
 21
32.06538796780734
 31
184.4637490072701
100
AcDbText
  0
TEXT
  5
41E1
330
1F
100
AcDbEntity
  8
LOGO
100
AcDbText
 10
77.63258667574726
 20
25.06849872071552
 30
184.4637490072701
 40
2.814592398190045
  1
投影  View:
 41
0.9
  7
CHINESET
 72
     4
 11
86.73226442025276
 21
26.43620317142721
 31
184.4637490072701
100
AcDbText
  0
TEXT
  5
41E2
330
1F
100
AcDbEntity
  8
LOGO
100
AcDbText
 10
77.90776334324888
 20
19.39972217595206
 30
184.4637490072701
 40
2.814592398190045
  1
單位  Unit:
 41
0.9
  7
CHINESET
 72
     4
 11
86.73226442025276
 21
20.80701837504708
 31
184.4637490072701
100
AcDbText
  0
SOLID
  5
41E3
330
1F
100
AcDbEntity
  8
LOGO
 62
     5
100
AcDbTrace
 10
57.75373535799332
 20
22.67128521316781
 30
0.0
 11
58.97069125606612
 21
22.67128521316749
 31
0.0
 12
64.04833483078363
 22
34.21138424661748
 32
0.0
 13
65.26529072885711
 23
34.21138424661684
 33
0.0
  0
SOLID
  5
41E4
330
1F
100
AcDbEntity
  8
LOGO
 62
     5
100
AcDbTrace
 10
59.47425921389066
 20
22.67128521316781
 30
0.0
 11
60.69121511196351
 21
22.67128521316781
 31
0.0
 12
65.26529072885711
 22
33.28817632394106
 32
0.0
 13
64.04833483078363
 23
28.82600469767385
 33
0.0
  0
SOLID
  5
41E5
330
1F
100
AcDbEntity
  8
LOGO
 62
     2
100
AcDbTrace
 10
58.97069125606612
 20
22.67128521316749
 30
0.0
 11
59.47425921389066
 21
22.67128521316781
 31
0.0
 12
65.26529072885711
 22
34.21138424661684
 32
0.0
 13
65.76885868668103
 23
34.21138424661684
 33
0.0
  0
SOLID
  5
41E6
330
1F
100
AcDbEntity
  8
LOGO
 62
     5
100
AcDbTrace
 10
55.80265661924016
 20
18.47488556464104
 30
0.0
 11
56.22229658409333
 21
18.47488556464104
 31
0.0
 12
57.4040353872831
 22
20.57308538890426
 32
0.0
 13
57.82367535213495
 23
20.57308538890426
 33
0.0
  0
SOLID
  5
41E7
330
1F
100
AcDbEntity
  8
LOGO
 62
     5
100
AcDbTrace
 10
57.4040353872831
 20
20.57308538890426
 30
0.0
 11
57.82367535213495
 21
20.57308538890426
 31
0.0
 12
57.4040353872831
 22
18.47488556464104
 32
0.0
 13
57.82367535213495
 23
18.47488556464104
 33
0.0
  0
SOLID
  5
41E8
330
1F
100
AcDbEntity
  8
LOGO
 62
     5
100
AcDbTrace
 10
57.4040353872831
 20
18.47488556464104
 30
0.0
 11
57.82367535213495
 21
18.47488556464104
 31
0.0
 12
59.00541415532666
 22
20.57308538890426
 32
0.0
 13
59.42505412017914
 23
20.57308538890426
 33
0.0
  0
SOLID
  5
41E9
330
1F
100
AcDbEntity
  8
LOGO
 62
     5
100
AcDbTrace
 10
59.00541415532666
 20
20.57308538890426
 30
0.0
 11
59.42505412017914
 21
20.57308538890426
 31
0.0
 12
59.00541415532666
 22
18.47488556464104
 32
0.0
 13
59.42505412017914
 23
18.47488556464104
 33
0.0
  0
POLYLINE
  5
41EA
330
1F
100
AcDbEntity
  8
LOGO
 62
     5
100
AcDb2dPolyline
 66
     1
 10
0.0
 20
0.0
 30
0.0
 40
0.42031246479638
 41
0.42031246479638
  0
VERTEX
  5
41EB
330
41EA
100
AcDbEntity
  8
LOGO
 62
     5
100
AcDbVertex
100
AcDb2dVertex
 10
73.0716028250335
 20
19.73380545919891
 30
0.0
 42
1.0
  0
VERTEX
  5
41EC
330
41EA
100
AcDbEntity
  8
LOGO
 62
     5
100
AcDbVertex
100
AcDb2dVertex
 10
71.81066543064407
 20
19.73380545919891
 30
0.0
 42
1.0
  0
SEQEND
  5
41ED
330
41EA
100
AcDbEntity
  8
LOGO
 62
     5
  0
POLYLINE
  5
41EE
330
1F
100
AcDbEntity
  8
LOGO
 62
     5
100
AcDb2dPolyline
 66
     1
 10
0.0
 20
0.0
 30
0.0
 70
     1
  0
VERTEX
  5
41EF
330
41EE
100
AcDbEntity
  8
LOGO
 62
     5
100
AcDbVertex
100
AcDb2dVertex
 10
69.43374235572452
 20
19.52398547677233
 30
0.0
 42
1.000000057330635
  0
VERTEX
  5
41F0
330
41EE
100
AcDbEntity
  8
LOGO
 62
     5
100
AcDbVertex
100
AcDb2dVertex
 10
70.69266225028269
 20
19.52398547677233
 30
0.0
 42
1.000000057330635
  0
SEQEND
  5
41F1
330
41EE
100
AcDbEntity
  8
LOGO
 62
     5
  0
CIRCLE
  5
41F2
330
1F
100
AcDbEntity
  8
LOGO
 62
     5
100
AcDbCircle
 10
70.06320230300457
 20
19.52398547677233
 30
0.0
 40
0.6294599472790589
  0
POLYLINE
  5
41F3
330
1F
100
AcDbEntity
  8
LOGO
 62
     5
100
AcDb2dPolyline
 66
     1
 10
0.0
 20
0.0
 30
0.0
 70
     1
 40
0.42031246479638
 41
0.42031246479638
  0
VERTEX
  5
41F4
330
41F3
100
AcDbEntity
  8
LOGO
 62
     5
100
AcDbVertex
100
AcDb2dVertex
 10
69.22257737341124
 20
19.52398547677233
 30
0.0
 42
1.0
  0
VERTEX
  5
41F5
330
41F3
100
AcDbEntity
  8
LOGO
 62
     5
100
AcDbVertex
100
AcDb2dVertex
 10
70.90382723259665
 20
19.52398547677233
 30
0.0
 42
1.0
  0
SEQEND
  5
41F6
330
41F3
100
AcDbEntity
  8
LOGO
 62
     5
  0
LINE
  5
41F7
330
1F
100
AcDbEntity
  8
LOGO
100
AcDbLine
 10
73.28041405754351
 20
18.47488556464104
 30
0.0
 11
73.28041405754351
 21
19.73380545919891
 31
0.0
  0
SOLID
  5
41F8
330
1F
100
AcDbEntity
  8
LOGO
 62
     5
100
AcDbTrace
 10
70.6926202862881
 20
20.57308538890426
 30
0.0
 11
71.11226025113996
 21
20.57308538890426
 31
0.0
 12
70.6926202862881
 22
18.47488556464104
 32
0.0
 13
71.11226025113996
 23
18.47488556464104
 33
0.0
  0
SOLID
  5
41F9
330
1F
100
AcDbEntity
  8
LOGO
 62
     5
100
AcDbTrace
 10
71.6018541981328
 20
18.47488556464104
 30
0.0
 11
72.02149416298595
 21
18.47488556464104
 31
0.0
 12
71.6018541981328
 22
20.57308538890426
 32
0.0
 13
72.02149416298595
 23
20.57308538890426
 33
0.0
  0
SOLID
  5
41FA
330
1F
100
AcDbEntity
  8
LOGO
 62
     5
100
AcDbTrace
 10
72.8607740926916
 20
19.73380545919891
 30
0.0
 11
73.28041405754351
 21
19.73380545919891
 31
0.0
 12
72.8607740926916
 22
18.47488556464104
 32
0.0
 13
73.28041405754351
 23
18.47488556464104
 33
0.0
  0
SOLID
  5
41FB
330
1F
100
AcDbEntity
  8
LOGO
 62
     5
100
AcDbTrace
 10
71.55989020164742
 20
33.28817632394106
 30
0.0
 11
70.34293430357525
 21
28.82600469767385
 31
0.0
 12
71.55989020164742
 22
22.67128521316749
 32
0.0
 13
70.34293430357525
 23
22.67128521316749
 33
0.0
  0
SOLID
  5
41FC
330
1F
100
AcDbEntity
  8
LOGO
 62
     5
100
AcDbTrace
 10
72.06345815947134
 20
22.67128521316749
 30
0.0
 11
73.28041405754351
 21
22.67128521316749
 31
0.0
 12
72.06345815947134
 22
34.21138424661684
 32
0.0
 13
73.28041405754351
 23
34.21138424661748
 33
0.0
  0
SOLID
  5
41FD
330
1F
100
AcDbEntity
  8
LOGO
 62
     2
100
AcDbTrace
 10
71.55989020164742
 20
34.21138424661748
 30
0.0
 11
72.06345815947134
 21
34.21138424661684
 31
0.0
 12
71.55989020164742
 22
22.67128521316749
 32
0.0
 13
72.06345815947134
 23
22.67128521316749
 33
0.0
  0
POLYLINE
  5
41FE
330
1F
100
AcDbEntity
  8
LOGO
 62
     5
100
AcDb2dPolyline
 66
     1
 10
0.0
 20
0.0
 30
0.0
 40
0.42031246479638
 41
0.42031246479638
  0
VERTEX
  5
41FF
330
41FE
100
AcDbEntity
  8
LOGO
 62
     5
100
AcDbVertex
100
AcDb2dVertex
 10
67.0567353528138
 20
19.73380545919891
 30
0.0
 42
1.0
  0
VERTEX
  5
4200
330
41FE
100
AcDbEntity
  8
LOGO
 62
     5
100
AcDbVertex
100
AcDb2dVertex
 10
65.79579795842443
 20
19.73380545919891
 30
0.0
 42
1.0
  0
SEQEND
  5
4201
330
41FE
100
AcDbEntity
  8
LOGO
 62
     5
  0
POLYLINE
  5
4202
330
1F
100
AcDbEntity
  8
LOGO
 62
     5
100
AcDb2dPolyline
 66
     1
 10
0.0
 20
0.0
 30
0.0
 40
0.42031246479638
 41
0.42031246479638
  0
VERTEX
  5
4203
330
4202
100
AcDbEntity
  8
LOGO
 62
     5
100
AcDbVertex
100
AcDb2dVertex
 10
68.31565524737072
 20
19.73380545919891
 30
0.0
 42
1.0
  0
VERTEX
  5
4204
330
4202
100
AcDbEntity
  8
LOGO
 62
     5
100
AcDbVertex
100
AcDb2dVertex
 10
67.05471785298198
 20
19.73380545919891
 30
0.0
 42
1.0
  0
SEQEND
  5
4205
330
4202
100
AcDbEntity
  8
LOGO
 62
     5
  0
POLYLINE
  5
4206
330
1F
100
AcDbEntity
  8
LOGO
 62
     5
100
AcDb2dPolyline
 66
     1
 10
0.0
 20
0.0
 30
0.0
 40
0.42031246479638
 41
0.42031246479638
  0
VERTEX
  5
4207
330
4206
100
AcDbEntity
  8
LOGO
 62
     5
100
AcDbVertex
100
AcDb2dVertex
 10
62.30078777515103
 20
19.73380545919891
 30
0.0
 42
1.0
  0
VERTEX
  5
4208
330
4206
100
AcDbEntity
  8
LOGO
 62
     5
100
AcDbVertex
100
AcDb2dVertex
 10
61.03985038076229
 20
19.73380545919891
 30
0.0
 42
1.0
  0
SEQEND
  5
4209
330
4206
100
AcDbEntity
  8
LOGO
 62
     5
  0
SOLID
  5
420A
330
1F
100
AcDbEntity
  8
LOGO
 62
     5
100
AcDbTrace
 10
60.83103914825165
 20
20.57308538890426
 30
0.0
 11
61.2506791131035
 21
20.57308538890426
 31
0.0
 12
60.83103914825165
 22
18.47488556464104
 32
0.0
 13
61.2506791131035
 23
18.47488556464104
 33
0.0
  0
SOLID
  5
420B
330
1F
100
AcDbEntity
  8
LOGO
 62
     5
100
AcDbTrace
 10
62.08995904280982
 20
19.73380545919891
 30
0.0
 11
62.50959900766298
 21
19.73380545919891
 31
0.0
 12
62.08995904280982
 22
18.47488556464104
 32
0.0
 13
62.50959900766298
 23
18.47488556464104
 33
0.0
  0
POLYLINE
  5
420C
330
1F
100
AcDbEntity
  8
LOGO
 62
     5
100
AcDb2dPolyline
 66
     1
 10
0.0
 20
0.0
 30
0.0
 70
     1
 40
0.42031246479638
 41
0.42031246479638
  0
VERTEX
  5
420D
330
420C
100
AcDbEntity
  8
LOGO
 62
     5
100
AcDbVertex
100
AcDb2dVertex
 10
63.20770990119092
 20
19.52398547677233
 30
0.0
 42
1.0
  0
VERTEX
  5
420E
330
420C
100
AcDbEntity
  8
LOGO
 62
     5
100
AcDbVertex
100
AcDb2dVertex
 10
64.88895976037702
 20
19.52398547677233
 30
0.0
 42
1.0
  0
SEQEND
  5
420F
330
420C
100
AcDbEntity
  8
LOGO
 62
     5
  0
SOLID
  5
4210
330
1F
100
AcDbEntity
  8
LOGO
 62
     5
100
AcDbTrace
 10
64.67775281406716
 20
21.20254533618368
 30
0.0
 11
65.0973927789197
 21
21.20254533618368
 31
0.0
 12
64.67775281406716
 22
18.47488556464104
 32
0.0
 13
65.0973927789197
 23
18.47488556464104
 33
0.0
  0
SOLID
  5
4211
330
1F
100
AcDbEntity
  8
LOGO
 62
     5
100
AcDbTrace
 10
65.58698672591441
 20
20.57308538890426
 30
0.0
 11
66.00662669076626
 21
20.57308538890426
 31
0.0
 12
65.58698672591441
 22
18.47488556464104
 32
0.0
 13
66.00662669076626
 23
18.47488556464104
 33
0.0
  0
SOLID
  5
4212
330
1F
100
AcDbEntity
  8
LOGO
 62
     5
100
AcDbTrace
 10
66.84590662047134
 20
19.73380545919891
 30
0.0
 11
67.2655465853245
 21
19.73380545919891
 31
0.0
 12
66.84590662047134
 22
18.47488556464104
 32
0.0
 13
67.2655465853245
 23
18.47488556464104
 33
0.0
  0
SOLID
  5
4213
330
1F
100
AcDbEntity
  8
LOGO
 62
     5
100
AcDbTrace
 10
68.10482651502951
 20
19.73380545919891
 30
0.0
 11
68.52446647988205
 21
19.73380545919891
 31
0.0
 12
68.10482651502951
 22
18.4748855646404
 32
0.0
 13
68.52446647988205
 23
18.4748855646404
 33
0.0
  0
SOLID
  5
4214
330
1F
100
AcDbEntity
  8
LOGO
 62
     5
100
AcDbTrace
 10
59.92180523640502
 20
20.86683336430128
 30
0.0
 11
60.34144520125886
 21
20.86683336430128
 31
0.0
 12
59.92180523640502
 22
21.20254533618368
 32
0.0
 13
60.34144520125886
 23
21.20254533618368
 33
0.0
  0
SOLID
  5
4215
330
1F
100
AcDbEntity
  8
LOGO
 62
     5
100
AcDbTrace
 10
59.92180523640502
 20
20.57308538890426
 30
0.0
 11
60.34144520125886
 21
20.57308538890426
 31
0.0
 12
59.92180523640502
 22
18.4748855646404
 32
0.0
 13
60.34144520125886
 23
18.47488556464104
 33
0.0
  0
SOLID
  5
4216
330
1F
100
AcDbEntity
  8
LOGO
 62
     5
100
AcDbTrace
 10
64.04833483078363
 20
22.67128521316781
 30
0.0
 11
65.26529072885711
 21
22.67128521316781
 31
0.0
 12
64.04833483078363
 22
28.82600469767385
 32
0.0
 13
65.26529072885711
 23
33.28817632394106
 33
0.0
  0
SOLID
  5
4217
330
1F
100
AcDbEntity
  8
LOGO
 62
     5
100
AcDbTrace
 10
65.76885868668103
 20
34.21138424661684
 30
0.0
 11
66.9858145847532
 21
34.21138424661748
 31
0.0
 12
65.76885868668103
 22
23.59449313584361
 32
0.0
 13
66.9858145847532
 23
28.0566647621108
 33
0.0
  0
SOLID
  5
4218
330
1F
100
AcDbEntity
  8
LOGO
 62
     2
100
AcDbTrace
 10
65.26529072885711
 20
34.21138424661684
 30
0.0
 11
65.76885868668103
 21
34.21138424661684
 31
0.0
 12
65.26529072885711
 22
22.67128521316781
 32
0.0
 13
65.76885868668103
 23
22.67128521316781
 33
0.0
  0
SOLID
  5
4219
330
1F
100
AcDbEntity
  8
LOGO
 62
     5
100
AcDbTrace
 10
65.76885868668103
 20
23.59449313584361
 30
0.0
 11
66.9858145847532
 21
28.0566647621108
 31
0.0
 12
71.55989020164742
 22
34.21138424661748
 32
0.0
 13
70.34293430357525
 23
34.21138424661748
 33
0.0
  0
SOLID
  5
421A
330
1F
100
AcDbEntity
  8
LOGO
 62
     5
100
AcDbTrace
 10
65.76885868668103
 20
22.67128521316781
 30
0.0
 11
66.9858145847532
 21
22.67128521316781
 31
0.0
 12
71.55989020164742
 22
33.28817632394106
 32
0.0
 13
70.34293430357525
 23
28.82600469767385
 33
0.0
  0
SOLID
  5
421B
330
1F
100
AcDbEntity
  8
LOGO
 62
     2
100
AcDbTrace
 10
65.26529072885711
 20
22.67128521316781
 30
0.0
 11
65.76885868668103
 21
22.67128521316781
 31
0.0
 12
71.55989020164742
 22
34.21138424661748
 32
0.0
 13
72.06345815947134
 23
34.21138424661684
 33
0.0
  0
TEXT
  5
421C
330
1F
100
AcDbEntity
  8
LOGO
100
AcDbText
 10
117.8710155122804
 20
8.231408430916225
 30
0.0
 40
2.814999999999999
  1
10607263
 41
0.7
  7
CHINESET
 72
     1
 11
124.9085155122805
 21
8.231408430916225
 31
0.0
100
AcDbText
  0
LINE
  5
421D
330
1F
100
AcDbEntity
  8
LOGO
 62
     4
100
AcDbLine
 10
133.6445833342788
 20
12.36324118047769
 30
0.0
 11
133.64458333428
 21
6.734056384097243
 31
0.0
  0
LINE
  5
421E
330
1F
100
AcDbEntity
  8
LOGO
 62
     4
100
AcDbLine
 10
133.6445833342788
 20
12.36324118047769
 30
0.0
 11
116.7545833342801
 21
12.36324118047769
 31
0.0
  0
LINE
  5
421F
330
1F
100
AcDbEntity
  8
LOGO
  6
AM_ISO08W050x2
 48
0.3
100
AcDbLine
 10
100.9494090790007
 20
26.44222360516386
 30
0.0
 11
105.454998684827
 21
26.44222360516386
 31
0.0
1001
GENIUS_GENOREF_13
1005
4224
  0
LINE
  5
4220
330
1F
100
AcDbEntity
  8
LOGO
  6
AM_ISO08W050x2
 48
0.3
100
AcDbLine
 10
103.2022038819139
 20
24.1894288022507
 30
0.0
 11
103.2022038819139
 21
28.695018408077
 31
0.0
1001
GENIUS_GENOREF_13
1005
4223
  0
LINE
  5
4221
330
1F
100
AcDbEntity
  8
LOGO
  6
CENTER
 48
0.5
100
AcDbLine
 10
107.9389295504633
 20
26.44222360516386
 30
0.0
 11
113.9877109469314
 21
26.44222360516386
 31
0.0
1001
GENIUS_GENOREF_13
1005
4222
  0
POINT
  5
4222
330
1F
100
AcDbEntity
  8
0
 60
     1
100
AcDbPoint
 10
-2015.827872058566
 20
-919.9712041172713
 30
0.0
1001
GENIUS_GENOBJ-N-CRS_13
1002
{
1000
OWNER
1000
GEN
1002
}
1001
GENIUS_GENOLIS_13
1002
{
1000
ENT
1005
0
1005
0
1005
0
1005
4221
1002
}
1001
GENIUS_GENOENT_13
1002
{
1000
MYREF
1005
4222
1002
}
1002
{
1000
GRP
1005
0
1002
}
1001
GENIUS_GENODEF_13
1002
{
1000
HIER
1070
    10
1002
}
1002
{
1000
MANEDIT
1070
     1
1002
}
1002
{
1000
NOSEL
1070
     0
1002
}
1002
{
1000
BEHIND
1070
     0
1002
}
1002
{
1000
OTHER
1070
     0
1002
}
1002
{
1000
REACTOR
1002
}
  0
POINT
  5
4223
330
1F
100
AcDbEntity
  8
0
 60
     1
100
AcDbPoint
 10
-2027.15245728142
 20
-911.095617638635
 30
0.0
1001
GENIUS_GENOBJ-N-CRS_13
1002
{
1000
OWNER
1000
GEN
1002
}
1001
GENIUS_GENOLIS_13
1002
{
1000
ENT
1005
0
1005
0
1005
0
1005
4220
1002
}
1001
GENIUS_GENOENT_13
1002
{
1000
MYREF
1005
4223
1002
}
1002
{
1000
GRP
1005
0
1002
}
1001
GENIUS_GENODEF_13
1002
{
1000
HIER
1070
    10
1002
}
1002
{
1000
MANEDIT
1070
     1
1002
}
1002
{
1000
NOSEL
1070
     0
1002
}
1002
{
1000
BEHIND
1070
     0
1002
}
1002
{
1000
OTHER
1070
     0
1002
}
1002
{
1000
REACTOR
1002
}
  0
POINT
  5
4224
330
1F
100
AcDbEntity
  8
0
 60
     1
100
AcDbPoint
 10
-2020.793783583584
 20
-919.9712041172713
 30
0.0
1001
GENIUS_GENOBJ-N-CRS_13
1002
{
1000
OWNER
1000
GEN
1002
}
1001
GENIUS_GENOLIS_13
1002
{
1000
ENT
1005
0
1005
0
1005
0
1005
421F
1002
}
1001
GENIUS_GENOENT_13
1002
{
1000
MYREF
1005
4224
1002
}
1002
{
1000
GRP
1005
0
1002
}
1001
GENIUS_GENODEF_13
1002
{
1000
HIER
1070
    10
1002
}
1002
{
1000
MANEDIT
1070
     1
1002
}
1002
{
1000
NOSEL
1070
     0
1002
}
1002
{
1000
BEHIND
1070
     0
1002
}
1002
{
1000
OTHER
1070
     0
1002
}
1002
{
1000
REACTOR
1002
}
  0
LWPOLYLINE
  5
4225
330
1F
100
AcDbEntity
  8
LOGO
 62
     4
100
AcDbPolyline
 90
        4
 70
     1
 43
0.0
 10
54.83355057409903
 20
34.87998036599757
 10
290.3688113312526
 20
34.87998036599757
 10
290.3688113312526
 20
6.734056384096611
 10
54.83355057409903
 20
6.734056384096611
1001
GENIUS_GENREC_14
1002
{
1000
PYDIR
1011
54.83355057409903
1021
6.734056384096611
1031
0.0
1002
}
1002
{
1000
PXDIR
1011
290.3688113312526
1021
34.87998036599757
1031
0.0
1002
}
1002
{
1000
PORI
1011
54.83355057409903
1021
34.87998036599757
1031
0.0
1002
}
1002
{
1000
PINS
1011
54.83355057409903
1021
34.87998036599757
1031
0.0
1002
}
1002
{
1000
PINS2
1011
290.3688113312526
1021
6.734056384096611
1031
0.0
1002
}
1002
{
1000
C
1070
     1
1002
}
1001
GENIUS_GENOBJ-N-REC_13
1002
{
1000
OWNER
1000
GEN
1002
}
1001
GENIUS_GENODEF_13
1002
{
1000
HIER
1070
     0
1002
}
1002
{
1000
MANEDIT
1070
     0
1002
}
1002
{
1000
NOSEL
1070
     0
1002
}
1002
{
1000
BEHIND
1070
     0
1002
}
1002
{
1000
OTHER
1070
     0
1002
}
1002
{
1000
REACTOR
1002
}
  0
TEXT
  5
42E3
330
1F
100
AcDbEntity
  8
0
100
AcDbText
 10
62.55913148534978
 20
144.9801942354219
 30
0.0
 40
4.0
  1
12 type
  7
CHINESET
100
AcDbText
  0
LINE
  5
430A
330
1F
100
AcDbEntity
  8
0
100
AcDbLine
 10
200.7866285928041
 20
248.9395796581947
 30
0.0
 11
200.7866285928028
 21
238.8595796581952
 31
0.0
  0
LINE
  5
430B
330
1F
100
AcDbEntity
  8
0
100
AcDbLine
 10
225.6141093655597
 20
245.579579658195
 30
0.0
 11
225.6141093655597
 21
238.859579658195
 31
0.0
  0
LINE
  5
430C
330
1F
100
AcDbEntity
  8
0
100
AcDbLine
 10
212.8912444177646
 20
248.9395796581947
 30
0.0
 11
212.8912444177653
 21
238.8595796581952
 31
0.0
  0
LINE
  5
430D
330
1F
100
AcDbEntity
  8
0
100
AcDbLine
 10
200.7866285928043
 20
238.859579658195
 30
0.0
 11
263.7827042089433
 21
238.859579658195
 31
0.0
  0
LINE
  5
430E
330
1F
100
AcDbEntity
  8
0
100
AcDbLine
 10
200.7866285928043
 20
242.219579658195
 30
0.0
 11
263.7827042089431
 21
242.219579658195
 31
0.0
  0
TEXT
  5
430F
330
1F
100
AcDbEntity
  8
0
100
AcDbText
 10
206.3250504037923
 20
239.4307309765796
 30
0.0
 40
2.10953224323072
  1
5
 41
0.8
  7
CHINESET
 72
     4
 11
206.8875923353205
 21
240.4854970981949
 31
0.0
100
AcDbText
  0
TEXT
  5
4310
330
1F
100
AcDbEntity
  8
0
100
AcDbText
 10
203.6943885792106
 20
243.032472676289
 30
0.0
 40
1.679999999999999
  1
Stroke
 41
0.8
  7
CHINESET
100
AcDbText
  0
TEXT
  5
4311
330
1F
100
AcDbEntity
  8
0
100
AcDbText
 10
217.2782883766284
 20
239.4481374459391
 30
0.0
 40
2.1
  1
24.5
 41
0.8
  7
CHINESET
100
AcDbText
  0
LINE
  5
4312
330
1F
100
AcDbEntity
  8
0
100
AcDbLine
 10
200.7866285928041
 20
248.9395796581947
 30
0.0
 11
263.7827042089427
 21
248.9395796581947
 31
0.0
  0
INSERT
  5
4313
330
1F
100
AcDbEntity
  8
0
100
AcDbBlockReference
  2
A$C5ECF147B
 10
200.3358781798735
 20
239.154330992041
 30
0.0
 41
0.6719999999999971
 42
0.6719999999999971
 43
0.6719999999999999
  0
LINE
  5
4314
330
1F
100
AcDbEntity
  8
0
100
AcDbLine
 10
200.7866285928042
 20
245.579579658195
 30
0.0
 11
263.782704208943
 21
245.579579658195
 31
0.0
  0
TEXT
  5
4315
330
1F
100
AcDbEntity
  8
0
100
AcDbText
 10
218.0967026975762
 20
242.8081374459392
 30
0.0
 40
2.1
  1
S
 41
0.8
  7
CHINESET
100
AcDbText
  0
TEXT
  5
4316
330
1F
100
AcDbEntity
  8
0
100
AcDbText
 10
215.7751545664114
 20
246.1833721292965
 30
0.0
 40
2.1
  1
Without magnet
 41
0.8
  7
CHINESET
100
AcDbText
  0
LINE
  5
4317
330
1F
100
AcDbEntity
  8
0
100
AcDbLine
 10
238.3369743133541
 20
248.9395796581947
 30
0.0
 11
238.3369743133543
 21
238.8595796581948
 31
0.0
  0
TEXT
  5
4318
330
1F
100
AcDbEntity
  8
0
100
AcDbText
 10
230.7545977861563
 20
239.4481374459389
 30
0.0
 40
2.1
  1
45
 41
0.8
  7
CHINESET
100
AcDbText
  0
TEXT
  5
4319
330
1F
100
AcDbEntity
  8
0
100
AcDbText
 10
230.8195676453708
 20
242.8081374459392
 30
0.0
 40
2.1
  1
ZZ
 41
0.8
  7
CHINESET
100
AcDbText
  0
LINE
  5
431A
330
1F
100
AcDbEntity
  8
0
100
AcDbLine
 10
251.0598392611487
 20
245.579579658195
 30
0.0
 11
251.0598392611488
 21
238.859579658195
 31
0.0
  0
TEXT
  5
431B
330
1F
100
AcDbEntity
  8
0
100
AcDbText
 10
242.7240182722175
 20
239.4481374459391
 30
0.0
 40
2.1
  1
34.5
 41
0.8
  7
CHINESET
100
AcDbText
  0
TEXT
  5
431C
330
1F
100
AcDbEntity
  8
0
100
AcDbText
 10
243.5424325931652
 20
242.8081374459392
 30
0.0
 40
2.1
  1
S
 41
0.8
  7
CHINESET
100
AcDbText
  0
TEXT
  5
431D
330
1F
100
AcDbEntity
  8
0
100
AcDbText
 10
242.9823481974366
 20
246.1833721292965
 30
0.0
 40
2.1
  1
With magnet
 41
0.8
  7
CHINESET
100
AcDbText
  0
TEXT
  5
431E
330
1F
100
AcDbEntity
  8
0
100
AcDbText
 10
256.2003276817453
 20
239.4481374459389
 30
0.0
 40
2.1
  1
55
 41
0.8
  7
CHINESET
100
AcDbText
  0
TEXT
  5
431F
330
1F
100
AcDbEntity
  8
0
100
AcDbText
 10
256.2652975409599
 20
242.8081374459392
 30
0.0
 40
2.1
  1
ZZ
 41
0.8
  7
CHINESET
100
AcDbText
  0
LINE
  5
4320
330
1F
100
AcDbEntity
  8
0
100
AcDbLine
 10
263.7827042089431
 20
248.9395796581947
 30
0.0
 11
263.7827042089433
 21
238.8595796581948
 31
0.0
  0
INSERT
  5
4321
330
1F
100
AcDbEntity
  8
0
100
AcDbBlockReference
  2
A$C5ECF147B
 10
216.3281341168917
 20
239.154330992041
 30
0.0
 41
0.6719999999999971
 42
0.6719999999999971
 43
0.6719999999999999
  0
INSERT
  5
4322
330
1F
100
AcDbEntity
  8
0
100
AcDbBlockReference
  2
A$C5ECF147B
 10
229.0509990646862
 20
239.1543309920408
 30
0.0
 41
0.6719999999999971
 42
0.6719999999999971
 43
0.6719999999999999
  0
LEADER
  5
4324
330
1F
100
AcDbEntity
  8
DIM
100
AcDbLeader
  3
AM_ANSI$7
 73
     0
 74
     0
 75
     1
 40
8.666666666666666
 41
26.28571428571428
 76
     3
 10
219.1920524081804
 20
91.41470473020058
 30
0.0
 10
228.2615229909437
 20
98.40343735575522
 30
0.0
 10
230.2615229909437
 20
98.40343735575522
 30
0.0
340
4325
213
-0.1905629376930165
223
0.2179465301056638
233
0.0
1001
ACAD
1000
DSTYLE
1002
{
1070
    41
1040
2.0
1070
    42
1040
1.5
1070
    43
1040
8.0
1070
    44
1040
1.5
1070
    73
1070
     0
1070
    74
1070
     0
1070
    77
1070
     3
1070
   140
1040
2.0
1070
   141
1040
3.0
1070
   146
1040
0.6
1070
   147
1040
1.0
1070
   172
1070
     1
1070
   178
1070
   256
1070
   272
1070
     2
1070
   274
1070
     2
1070
   340
1005
29C5
1002
}
  0
MTEXT
  5
4325
102
{ACAD_REACTORS
330
4324
102
}
330
1F
100
AcDbEntity
  8
DIM
100
AcDbMText
 10
231.4520859286367
 20
107.8521574923162
 30
0.0
 40
2.0
 41
0.0
 71
     1
 72
     1
  1
%%C6.5*4.5 depth\PM5*0.8*7.5 depth\P%%C4.3 thru
  7
dayus
 73
     1
 44
1.0
1001
ACAD
1000
MTEXTBEGIN
1070
    73
1070
     1
1070
    44
1040
1.0
1070
    74
1070
     0
1000
MTEXTEND
  0
LINE
  5
438B
330
1F
100
AcDbEntity
  8
0
100
AcDbLine
 10
200.7866285928041
 20
139.9435645201319
 30
0.0
 11
200.7866285928028
 21
129.8635645201324
 31
0.0
  0
LINE
  5
438C
330
1F
100
AcDbEntity
  8
0
100
AcDbLine
 10
225.6141093655597
 20
136.5835645201323
 30
0.0
 11
225.6141093655597
 21
129.8635645201322
 31
0.0
  0
LINE
  5
438D
330
1F
100
AcDbEntity
  8
0
100
AcDbLine
 10
212.8912444177646
 20
139.9435645201319
 30
0.0
 11
212.8912444177653
 21
129.8635645201324
 31
0.0
  0
LINE
  5
438E
330
1F
100
AcDbEntity
  8
0
100
AcDbLine
 10
200.7866285928043
 20
129.8635645201322
 30
0.0
 11
263.7827042089433
 21
129.8635645201322
 31
0.0
  0
LINE
  5
438F
330
1F
100
AcDbEntity
  8
0
100
AcDbLine
 10
200.7866285928043
 20
133.2235645201322
 30
0.0
 11
263.7827042089431
 21
133.2235645201322
 31
0.0
  0
TEXT
  5
4390
330
1F
100
AcDbEntity
  8
0
100
AcDbText
 10
206.3250504037923
 20
130.4347158385168
 30
0.0
 40
2.10953224323072
  1
5
 41
0.8
  7
CHINESET
 72
     4
 11
206.8875923353205
 21
131.4894819601322
 31
0.0
100
AcDbText
  0
TEXT
  5
4391
330
1F
100
AcDbEntity
  8
0
100
AcDbText
 10
203.6943885792106
 20
134.0364575382263
 30
0.0
 40
1.679999999999999
  1
Stroke
 41
0.8
  7
CHINESET
100
AcDbText
  0
TEXT
  5
4392
330
1F
100
AcDbEntity
  8
0
100
AcDbText
 10
217.2782883766284
 20
130.4521223078763
 30
0.0
 40
2.1
  1
24.5
 41
0.8
  7
CHINESET
100
AcDbText
  0
LINE
  5
4393
330
1F
100
AcDbEntity
  8
0
100
AcDbLine
 10
200.7866285928041
 20
139.943564520132
 30
0.0
 11
263.7827042089427
 21
139.943564520132
 31
0.0
  0
INSERT
  5
4394
330
1F
100
AcDbEntity
  8
0
100
AcDbBlockReference
  2
A$C5ECF147B
 10
200.3358781798735
 20
130.1583158539783
 30
0.0
 41
0.6719999999999971
 42
0.6719999999999971
 43
0.6719999999999999
  0
LINE
  5
4395
330
1F
100
AcDbEntity
  8
0
100
AcDbLine
 10
200.7866285928042
 20
136.5835645201322
 30
0.0
 11
263.782704208943
 21
136.5835645201322
 31
0.0
  0
TEXT
  5
4396
330
1F
100
AcDbEntity
  8
0
100
AcDbText
 10
218.0967026975762
 20
133.8121223078764
 30
0.0
 40
2.1
  1
S
 41
0.8
  7
CHINESET
100
AcDbText
  0
TEXT
  5
4397
330
1F
100
AcDbEntity
  8
0
100
AcDbText
 10
215.7751545664114
 20
137.1873569912337
 30
0.0
 40
2.1
  1
Without magnet
 41
0.8
  7
CHINESET
100
AcDbText
  0
LINE
  5
4398
330
1F
100
AcDbEntity
  8
0
100
AcDbLine
 10
238.3369743133541
 20
139.943564520132
 30
0.0
 11
238.3369743133543
 21
129.863564520132
 31
0.0
  0
TEXT
  5
4399
330
1F
100
AcDbEntity
  8
0
100
AcDbText
 10
230.7545977861563
 20
130.4521223078761
 30
0.0
 40
2.1
  1
30
 41
0.8
  7
CHINESET
100
AcDbText
  0
TEXT
  5
439A
330
1F
100
AcDbEntity
  8
0
100
AcDbText
 10
230.8195676453708
 20
133.8121223078764
 30
0.0
 40
2.1
  1
ZZ
 41
0.8
  7
CHINESET
100
AcDbText
  0
LINE
  5
439B
330
1F
100
AcDbEntity
  8
0
100
AcDbLine
 10
251.0598392611487
 20
136.5835645201323
 30
0.0
 11
251.0598392611488
 21
129.8635645201322
 31
0.0
  0
TEXT
  5
439C
330
1F
100
AcDbEntity
  8
0
100
AcDbText
 10
242.7240182722175
 20
130.4521223078763
 30
0.0
 40
2.1
  1
34.5
 41
0.8
  7
CHINESET
100
AcDbText
  0
TEXT
  5
439D
330
1F
100
AcDbEntity
  8
0
100
AcDbText
 10
243.5424325931652
 20
133.8121223078764
 30
0.0
 40
2.1
  1
S
 41
0.8
  7
CHINESET
100
AcDbText
  0
TEXT
  5
439E
330
1F
100
AcDbEntity
  8
0
100
AcDbText
 10
242.9823481974366
 20
137.1873569912337
 30
0.0
 40
2.1
  1
With magnet
 41
0.8
  7
CHINESET
100
AcDbText
  0
TEXT
  5
439F
330
1F
100
AcDbEntity
  8
0
100
AcDbText
 10
256.2003276817453
 20
130.4521223078761
 30
0.0
 40
2.1
  1
40
 41
0.8
  7
CHINESET
100
AcDbText
  0
TEXT
  5
43A0
330
1F
100
AcDbEntity
  8
0
100
AcDbText
 10
256.2652975409599
 20
133.8121223078764
 30
0.0
 40
2.1
  1
ZZ
 41
0.8
  7
CHINESET
100
AcDbText
  0
LINE
  5
43A1
330
1F
100
AcDbEntity
  8
0
100
AcDbLine
 10
263.7827042089431
 20
139.943564520132
 30
0.0
 11
263.7827042089433
 21
129.863564520132
 31
0.0
  0
INSERT
  5
43A2
330
1F
100
AcDbEntity
  8
0
100
AcDbBlockReference
  2
A$C5ECF147B
 10
216.3281341168917
 20
130.1583158539783
 30
0.0
 41
0.6719999999999971
 42
0.6719999999999971
 43
0.6719999999999999
  0
INSERT
  5
43A3
330
1F
100
AcDbEntity
  8
0
100
AcDbBlockReference
  2
A$C5ECF147B
 10
229.0509990646862
 20
130.158315853978
 30
0.0
 41
0.6719999999999971
 42
0.6719999999999971
 43
0.6719999999999999
  0
LINE
  5
4455
330
1F
100
AcDbEntity
  8
AM_7
  6
ACISOTGB
 62
     2
100
AcDbLine
 10
121.014332159374
 20
212.4387303094069
 30
0.0
 11
121.014332159374
 21
167.0636577163433
 31
0.0
1001
GENIUS_GENOBJ-N-CEN_13
1002
{
1000
OWNER
1000
GEN
1002
}
1001
GENIUS_GENODEF_13
1002
{
1000
HIER
1070
     0
1002
}
1002
{
1000
MANEDIT
1070
     0
1002
}
1002
{
1000
NOSEL
1070
     0
1002
}
1002
{
1000
BEHIND
1070
     0
1002
}
1002
{
1000
OTHER
1070
     0
1002
}
1002
{
1000
REACTOR
1002
}
1001
GENIUS_GENCEN_19
1002
{
1040
3.0
1002
}
  0
INSERT
  5
4456
330
1F
100
AcDbEntity
  8
0
100
AcDbBlockReference
  2
A$C1F6E6265
 10
121.0143316951674
 20
168.2294770276011
 30
0.0
  0
LINE
  5
4458
330
1F
100
AcDbEntity
  8
AM_7
  6
ACISOTGB
 62
     2
100
AcDbLine
 10
121.014332159374
 20
97.10962251644367
 30
0.0
 11
121.014332159374
 21
51.73454992338008
 31
0.0
1001
GENIUS_GENOBJ-N-CEN_13
1002
{
1000
OWNER
1000
GEN
1002
}
1001
GENIUS_GENODEF_13
1002
{
1000
HIER
1070
     0
1002
}
1002
{
1000
MANEDIT
1070
     0
1002
}
1002
{
1000
NOSEL
1070
     0
1002
}
1002
{
1000
BEHIND
1070
     0
1002
}
1002
{
1000
OTHER
1070
     0
1002
}
1002
{
1000
REACTOR
1002
}
1001
GENIUS_GENCEN_19
1002
{
1040
3.0
1002
}
  0
INSERT
  5
4459
330
1F
100
AcDbEntity
  8
0
100
AcDbBlockReference
  2
A$C1F6E6265
 10
121.0143316951674
 20
52.90036923463787
 30
0.0
  0
ENDSEC
  0
SECTION
  2
OBJECTS
  0
DICTIONARY
  5
C
330
0
100
AcDbDictionary
281
     1
  3
ACAD_COLOR
350
285D
  3
ACAD_GROUP
350
D
  3
ACAD_LAYOUT
350
1A
  3
ACAD_MATERIAL
350
285C
  3
ACAD_MLINESTYLE
350
17
  3
ACAD_PLOTSETTINGS
350
19
  3
ACAD_PLOTSTYLENAME
350
E
  3
ACAD_TABLESTYLE
350
285E
  3
AcadDim
350
1E82
  3
ACDBHEADERROUNDTRIPXREC
350
44C1
  3
AcDbVariableDictionary
350
1488
  3
AcmDictionary
350
404F
  3
AMG
350
3FFB
  3
AMGSNAPSETTINGS
350
412F
  0
DICTIONARY
  5
29CF
330
2
100
AcDbDictionary
280
     1
281
     1
  3
ACAD_LAYERSTATES
360
29D0
  0
DICTIONARY
  5
27C8
330
1F
100
AcDbDictionary
280
     1
281
     1
  3
ACAD_LAYOUTSELFREF
360
2802
  0
DICTIONARY
  5
27CA
330
1B
100
AcDbDictionary
280
     1
281
     1
  3
ACAD_LAYOUTSELFREF
360
2801
  0
DICTIONARY
  5
27CC
330
23
100
AcDbDictionary
280
     1
281
     1
  3
ACAD_LAYOUTSELFREF
360
2803
  0
DICTIONARY
  5
42E7
330
42E6
100
AcDbDictionary
280
     1
281
     1
  0
DICTIONARY
  5
4441
330
4440
100
AcDbDictionary
280
     1
281
     1
  3
ACAD_SORTENTS
360
4442
  0
DICTIONARY
  5
3BC2
330
3BC1
100
AcDbDictionary
280
     1
281
     1
  3
ACAD_DIMASSOC
360
3BC3
  0
DICTIONARY
  5
3BC5
330
3BC4
100
AcDbDictionary
280
     1
281
     1
  3
ACAD_DIMASSOC
360
3BC6
  0
DICTIONARY
  5
3BC8
330
3BC7
100
AcDbDictionary
280
     1
281
     1
  3
ACAD_DIMASSOC
360
3BC9
  0
DICTIONARY
  5
3BCB
330
3BCA
100
AcDbDictionary
280
     1
281
     1
  3
ACAD_DIMASSOC
360
3BCC
  0
DICTIONARY
  5
3BCE
330
3BCD
100
AcDbDictionary
280
     1
281
     1
  3
ACAD_DIMASSOC
360
3BCF
  0
DICTIONARY
  5
3BD1
330
3BD0
100
AcDbDictionary
280
     1
281
     1
  3
ACAD_DIMASSOC
360
3BD2
  0
DICTIONARY
  5
3BD4
330
3BD3
100
AcDbDictionary
280
     1
281
     1
  3
ACAD_DIMASSOC
360
3BD5
  0
DICTIONARY
  5
3BD7
330
3BD6
100
AcDbDictionary
280
     1
281
     1
  3
ACAD_DIMASSOC
360
3BD8
  0
DICTIONARY
  5
3BDA
330
3BD9
100
AcDbDictionary
280
     1
281
     1
  3
ACAD_DIMASSOC
360
3BDB
  0
DICTIONARY
  5
3BDD
330
3BDC
100
AcDbDictionary
280
     1
281
     1
  3
ACAD_DIMASSOC
360
3BDE
  0
DICTIONARY
  5
3BE0
330
3BDF
100
AcDbDictionary
280
     1
281
     1
  3
ACAD_DIMASSOC
360
3BE1
  0
DICTIONARY
  5
3BE7
330
3BE6
100
AcDbDictionary
280
     1
281
     1
  3
ACAD_DIMASSOC
360
3BE8
  0
DICTIONARY
  5
3BEC
330
3BEB
100
AcDbDictionary
280
     1
281
     1
  3
ACAD_DIMASSOC
360
3BED
  0
DICTIONARY
  5
3BEF
330
3BEE
100
AcDbDictionary
280
     1
281
     1
  3
ACAD_DIMASSOC
360
3BF0
  0
DICTIONARY
  5
3BF2
330
3BF1
100
AcDbDictionary
280
     1
281
     1
  3
ACAD_DIMASSOC
360
3BF3
  0
DICTIONARY
  5
3BFC
330
3BFB
100
AcDbDictionary
280
     1
281
     1
  3
ACAD_DIMASSOC
360
3BFD
  0
DICTIONARY
  5
3BFF
330
3BFE
100
AcDbDictionary
280
     1
281
     1
  3
ACAD_DIMASSOC
360
3C00
  0
DICTIONARY
  5
3C02
330
3C01
100
AcDbDictionary
280
     1
281
     1
  3
ACAD_DIMASSOC
360
3C03
  0
DICTIONARY
  5
3C05
330
3C04
100
AcDbDictionary
280
     1
281
     1
  3
ACAD_DIMASSOC
360
3C06
  0
DICTIONARY
  5
3C08
330
3C07
100
AcDbDictionary
280
     1
281
     1
  3
ACAD_DIMASSOC
360
3C09
  0
DICTIONARY
  5
3C0B
330
3C0A
100
AcDbDictionary
280
     1
281
     1
  3
ACAD_DIMASSOC
360
3C0C
  0
DICTIONARY
  5
3C0E
330
3C0D
100
AcDbDictionary
280
     1
281
     1
  3
ACAD_DIMASSOC
360
3C0F
  0
DICTIONARY
  5
3C11
330
3C10
100
AcDbDictionary
280
     1
281
     1
  3
ACAD_DIMASSOC
360
3C12
  0
DICTIONARY
  5
3C14
330
3C13
100
AcDbDictionary
280
     1
281
     1
  3
ACAD_DIMASSOC
360
3C15
  0
DICTIONARY
  5
285D
102
{ACAD_REACTORS
330
C
102
}
330
C
100
AcDbDictionary
281
     1
  0
DICTIONARY
  5
D
102
{ACAD_REACTORS
330
C
102
}
330
C
100
AcDbDictionary
281
     1
  0
DICTIONARY
  5
1A
102
{ACAD_REACTORS
330
C
102
}
330
C
100
AcDbDictionary
281
     1
  3
Layout1
350
1E
  3
Layout2
350
26
  3
Model
350
22
  0
DICTIONARY
  5
285C
102
{ACAD_REACTORS
330
C
102
}
330
C
100
AcDbDictionary
281
     1
  0
DICTIONARY
  5
17
102
{ACAD_REACTORS
330
C
102
}
330
C
100
AcDbDictionary
281
     1
  3
Standard
350
18
  0
DICTIONARY
  5
19
102
{ACAD_REACTORS
330
C
102
}
330
C
100
AcDbDictionary
281
     1
  0
ACDBDICTIONARYWDFLT
  5
E
102
{ACAD_REACTORS
330
C
102
}
330
C
100
AcDbDictionary
281
     1
  3
Normal
350
F
100
AcDbDictionaryWithDefault
340
F
1001
ACAD
1000
TREAT_AS_HARD
1070
     0
  0
DICTIONARY
  5
285E
102
{ACAD_REACTORS
330
C
102
}
330
C
100
AcDbDictionary
281
     1
  3
Standard
350
285F
  0
XRECORD
  5
1E82
102
{ACAD_REACTORS
330
C
102
}
330
C
100
AcDbXrecord
280
     1
 90
   990106
  3

 60
     0
 61
     0
 62
     4
 63
     4
 64
     1
 65
     0
 66
     0
 67
     3
 68
     1
 69
     0
 70
     0
 71
     0
 72
     0
 40
0.0
170
     2
340
0
  0
DICTIONARY
  5
44C1
102
{ACAD_REACTORS
330
C
102
}
330
C
100
AcDbDictionary
281
     1
  0
DICTIONARY
  5
1488
102
{ACAD_REACTORS
330
C
102
}
330
C
100
AcDbDictionary
281
     1
  3
CTABLESTYLE
350
36AB
  3
DIMASSOC
350
4264
  3
PROJECTNAME
350
4265
  3
SORTENTS
350
1489
  0
DICTIONARY
  5
404F
102
{ACAD_REACTORS
330
C
102
}
330
C
100
AcDbDictionary
281
     1
  3
AcmStdDictionary
350
405C
  3
AMDTSECTSYM_ARROWCOLOR
350
4077
  0
DICTIONARY
  5
3FFB
102
{ACAD_REACTORS
330
C
102
}
330
C
100
AcDbDictionary
281
     1
  0
DICTIONARY
  5
412F
102
{ACAD_REACTORS
330
C
102
}
330
C
100
AcDbDictionary
281
     1
  0
DICTIONARY
  5
29D0
102
{ACAD_REACTORS
330
29CF
102
}
330
29CF
100
AcDbDictionary
281
     1
  0
XRECORD
  5
2802
102
{ACAD_REACTORS
330
27C8
102
}
330
27C8
100
AcDbXrecord
280
     1
340
1F
  0
XRECORD
  5
2801
102
{ACAD_REACTORS
330
27CA
102
}
330
27CA
100
AcDbXrecord
280
     1
340
1B
  0
XRECORD
  5
2803
102
{ACAD_REACTORS
330
27CC
102
}
330
27CC
100
AcDbXrecord
280
     1
340
23
  0
SORTENTSTABLE
  5
4442
102
{ACAD_REACTORS
330
4441
102
}
330
4441
100
AcDbSortentsTable
330
4440
  0
DIMASSOC
  5
3BC3
102
{ACAD_REACTORS
330
3BC2
102
}
330
3BC2
100
AcDbDimAssoc
330
3BC1
 90
        3
 70
     0
 71
     0
  1
AcDbOsnapPointRef
 72
     2
331
3BBE
 73
     2
 91
        0
 40
3.133535376388434
 10
0.0
 20
0.0
 30
0.0
 75
     0
  1
AcDbOsnapPointRef
 72
     2
331
3BBD
 73
     2
 91
        0
 40
6.291242584380931
 10
0.0
 20
0.0
 30
0.0
 75
     0
  0
DIMASSOC
  5
3BC6
102
{ACAD_REACTORS
330
3BC5
102
}
330
3BC5
100
AcDbDimAssoc
330
3BC4
 90
        3
 70
     0
 71
     0
  1
AcDbOsnapPointRef
 72
    13
331
3AF9
 73
     2
 91
        0
 40
0.0
 10
0.0
 20
0.0
 30
2.000000000000000E+50
 75
     0
  1
AcDbOsnapPointRef
 72
    13
331
3AFD
 73
     2
 91
        0
 40
0.0
 10
0.0
 20
0.0
 30
2.000000000000000E+50
 75
     0
  0
DIMASSOC
  5
3BC9
102
{ACAD_REACTORS
330
3BC8
102
}
330
3BC8
100
AcDbDimAssoc
330
3BC7
 90
        3
 70
     0
 71
     0
  1
AcDbOsnapPointRef
 72
     1
331
3AFF
 73
     2
 91
        0
 40
1.0
 10
0.0
 20
0.0
 30
2.000000000000000E+50
 75
     0
  1
AcDbOsnapPointRef
 72
    13
331
3AFD
 73
     2
 91
        0
 40
0.0
 10
0.0
 20
0.0
 30
2.000000000000000E+50
 75
     0
  0
DIMASSOC
  5
3BCC
102
{ACAD_REACTORS
330
3BCB
102
}
330
3BCB
100
AcDbDimAssoc
330
3BCA
 90
        3
 70
     0
 71
     0
  1
AcDbOsnapPointRef
 72
    13
331
3B80
 73
     2
 91
        0
 40
0.0
 10
0.0
 20
0.0
 30
2.000000000000000E+50
 75
     0
  1
AcDbOsnapPointRef
 72
     1
331
3B84
 73
     2
 91
        0
 40
1.0
 10
0.0
 20
0.0
 30
2.000000000000000E+50
 75
     0
  0
DIMASSOC
  5
3BCF
102
{ACAD_REACTORS
330
3BCE
102
}
330
3BCE
100
AcDbDimAssoc
330
3BCD
 90
        3
 70
     0
 71
     0
  1
AcDbOsnapPointRef
 72
    13
331
3B80
 73
     2
 91
        0
 40
0.0
 10
0.0
 20
0.0
 30
2.000000000000000E+50
 75
     0
  1
AcDbOsnapPointRef
 72
    13
331
3AFD
 73
     2
 91
        0
 40
0.0
 10
0.0
 20
0.0
 30
2.000000000000000E+50
 75
     0
  0
DIMASSOC
  5
3BD2
102
{ACAD_REACTORS
330
3BD1
102
}
330
3BD1
100
AcDbDimAssoc
330
3BD0
 90
        3
 70
     0
 71
     0
  1
AcDbOsnapPointRef
 72
     1
331
3B80
 73
     2
 91
        0
 40
1.0
 10
0.0
 20
0.0
 30
2.000000000000000E+50
 75
     0
  1
AcDbOsnapPointRef
 72
     1
331
3B88
 73
     2
 91
        0
 40
1.0
 10
0.0
 20
0.0
 30
2.000000000000000E+50
 75
     0
  0
DIMASSOC
  5
3BD5
102
{ACAD_REACTORS
330
3BD4
102
}
330
3BD4
100
AcDbDimAssoc
330
3BD3
 90
        3
 70
     0
 71
     0
  1
AcDbOsnapPointRef
 72
     1
331
3B89
 73
     2
 91
        0
 40
1.0
 10
0.0
 20
0.0
 30
2.000000000000000E+50
 75
     0
  1
AcDbOsnapPointRef
 72
    13
331
3B80
 73
     2
 91
        0
 40
0.0
 10
0.0
 20
0.0
 30
2.000000000000000E+50
 75
     0
  0
DIMASSOC
  5
3BD8
102
{ACAD_REACTORS
330
3BD7
102
}
330
3BD7
100
AcDbDimAssoc
330
3BD6
 90
        3
 70
     0
 71
     0
  1
AcDbOsnapPointRef
 72
     1
331
3B80
 73
     2
 91
        0
 40
1.0
 10
0.0
 20
0.0
 30
2.000000000000000E+50
 75
     0
  1
AcDbOsnapPointRef
 72
    13
331
3B80
 73
     2
 91
        0
 40
0.0
 10
0.0
 20
0.0
 30
2.000000000000000E+50
 75
     0
  0
DIMASSOC
  5
3BDB
102
{ACAD_REACTORS
330
3BDA
102
}
330
3BDA
100
AcDbDimAssoc
330
3BD9
 90
        3
 70
     0
 71
     0
  1
AcDbOsnapPointRef
 72
     1
331
3B80
 73
     2
 91
        0
 40
1.0
 10
0.0
 20
0.0
 30
2.000000000000000E+50
 75
     0
  1
AcDbOsnapPointRef
 72
    13
331
3AFD
 73
     2
 91
        0
 40
0.0
 10
0.0
 20
0.0
 30
2.000000000000000E+50
 75
     0
  0
DIMASSOC
  5
3BDE
102
{ACAD_REACTORS
330
3BDD
102
}
330
3BDD
100
AcDbDimAssoc
330
3BDC
 90
        3
 70
     0
 71
     0
  1
AcDbOsnapPointRef
 72
     1
331
3AED
 73
     2
 91
        0
 40
0.9999999999999998
 10
0.0
 20
0.0
 30
2.000000000000000E+50
 75
     0
  1
AcDbOsnapPointRef
 72
    13
331
3AF2
 73
     2
 91
        0
 40
0.0
 10
0.0
 20
0.0
 30
2.000000000000000E+50
 75
     0
  0
DIMASSOC
  5
3BE1
102
{ACAD_REACTORS
330
3BE0
102
}
330
3BE0
100
AcDbDimAssoc
330
3BDF
 90
        3
 70
     0
 71
     0
  1
AcDbOsnapPointRef
 72
    13
331
3B74
 73
     2
 91
        0
 40
4.712388980384689
 10
0.0
 20
0.0
 30
2.000000000000000E+50
 75
     0
  1
AcDbOsnapPointRef
 72
     1
331
3B85
 73
     2
 91
        0
 40
1.570796326794896
 10
0.0
 20
0.0
 30
2.000000000000000E+50
 75
     0
  0
DIMASSOC
  5
3BE8
102
{ACAD_REACTORS
330
3BE7
102
}
330
3BE7
100
AcDbDimAssoc
330
3BE6
 90
        3
 70
     0
 71
     0
  1
AcDbOsnapPointRef
 72
     6
331
3AE4
 73
     2
 91
        0
 40
0.0000000000000107
 10
0.0
 20
0.0
 30
0.0
332
3AE8
 74
     2
 92
        0
 75
     0
  1
AcDbOsnapPointRef
 72
    13
331
3AFC
 73
     2
 91
        0
 40
0.0
 10
0.0
 20
0.0
 30
2.000000000000000E+50
 75
     0
  0
DIMASSOC
  5
3BED
102
{ACAD_REACTORS
330
3BEC
102
}
330
3BEC
100
AcDbDimAssoc
330
3BEB
 90
        3
 70
     0
 71
     0
  1
AcDbOsnapPointRef
 72
     1
331
3B90
 73
     2
 91
        0
 40
1.0
 10
0.0
 20
0.0
 30
2.000000000000000E+50
 75
     0
  1
AcDbOsnapPointRef
 72
     1
331
3B8E
 73
     2
 91
        0
 40
1.0
 10
0.0
 20
0.0
 30
2.000000000000000E+50
 75
     0
  0
DIMASSOC
  5
3BF0
102
{ACAD_REACTORS
330
3BEF
102
}
330
3BEF
100
AcDbDimAssoc
330
3BEE
 90
        3
 70
     0
 71
     0
  1
AcDbOsnapPointRef
 72
     1
331
3B1E
 73
     2
 91
        0
 40
2.427298098957592
 10
0.0
 20
0.0
 30
2.000000000000000E+50
 75
     0
  1
AcDbOsnapPointRef
 72
    13
331
3B31
 73
     2
 91
        0
 40
0.0
 10
0.0
 20
0.0
 30
2.000000000000000E+50
 75
     0
  0
DIMASSOC
  5
3BF3
102
{ACAD_REACTORS
330
3BF2
102
}
330
3BF2
100
AcDbDimAssoc
330
3BF1
 90
        3
 70
     0
 71
     0
  1
AcDbOsnapPointRef
 72
     6
331
3B97
 73
     2
 91
        0
 40
0.9999999999999833
 10
0.0
 20
0.0
 30
0.0
332
3BAB
 74
     2
 92
        0
 75
     0
  1
AcDbOsnapPointRef
 72
     1
331
3BAE
 73
     2
 91
        0
 40
5.560451059366168
 10
0.0
 20
0.0
 30
2.000000000000000E+50
 75
     0
  0
DIMASSOC
  5
3BFD
102
{ACAD_REACTORS
330
3BFC
102
}
330
3BFC
100
AcDbDimAssoc
330
3BFB
 90
        3
 70
     0
 71
     0
  1
AcDbOsnapPointRef
 72
    13
331
3ABD
 73
     2
 91
        0
 40
0.0
 10
0.0
 20
0.0
 30
2.000000000000000E+50
 75
     0
  1
AcDbOsnapPointRef
 72
    13
331
3AC2
 73
     2
 91
        0
 40
0.0
 10
0.0
 20
0.0
 30
2.000000000000000E+50
 75
     0
  0
DIMASSOC
  5
3C00
102
{ACAD_REACTORS
330
3BFF
102
}
330
3BFF
100
AcDbDimAssoc
330
3BFE
 90
        3
 70
     0
 71
     0
  1
AcDbOsnapPointRef
 72
     1
331
3AA3
 73
     2
 91
        0
 40
1.0
 10
0.0
 20
0.0
 30
2.000000000000000E+50
 75
     0
  1
AcDbOsnapPointRef
 72
    13
331
3ACC
 73
     2
 91
        0
 40
0.0
 10
0.0
 20
0.0
 30
2.000000000000000E+50
 75
     0
  0
DIMASSOC
  5
3C03
102
{ACAD_REACTORS
330
3C02
102
}
330
3C02
100
AcDbDimAssoc
330
3C01
 90
        3
 70
     0
 71
     0
  1
AcDbOsnapPointRef
 72
     1
331
3AA4
 73
     2
 91
        0
 40
1.0
 10
0.0
 20
0.0
 30
2.000000000000000E+50
 75
     0
  1
AcDbOsnapPointRef
 72
     1
331
3ACF
 73
     2
 91
        0
 40
1.0
 10
0.0
 20
0.0
 30
2.000000000000000E+50
 75
     0
  0
DIMASSOC
  5
3C06
102
{ACAD_REACTORS
330
3C05
102
}
330
3C05
100
AcDbDimAssoc
330
3C04
 90
        3
 70
     0
 71
     0
  1
AcDbOsnapPointRef
 72
     1
331
3AD0
 73
     2
 91
        0
 40
1.0
 10
0.0
 20
0.0
 30
2.000000000000000E+50
 75
     0
  1
AcDbOsnapPointRef
 72
    13
331
3ABD
 73
     2
 91
        0
 40
0.0
 10
0.0
 20
0.0
 30
2.000000000000000E+50
 75
     0
  0
DIMASSOC
  5
3C09
102
{ACAD_REACTORS
330
3C08
102
}
330
3C08
100
AcDbDimAssoc
330
3C07
 90
        3
 70
     0
 71
     0
  1
AcDbOsnapPointRef
 72
     1
331
3ABD
 73
     2
 91
        0
 40
1.0
 10
0.0
 20
0.0
 30
2.000000000000000E+50
 75
     0
  1
AcDbOsnapPointRef
 72
     1
331
3AA3
 73
     2
 91
        0
 40
1.0
 10
0.0
 20
0.0
 30
2.000000000000000E+50
 75
     0
  0
DIMASSOC
  5
3C0C
102
{ACAD_REACTORS
330
3C0B
102
}
330
3C0B
100
AcDbDimAssoc
330
3C0A
 90
        3
 70
     0
 71
     0
  1
AcDbOsnapPointRef
 72
     1
331
3ABD
 73
     2
 91
        0
 40
1.0
 10
0.0
 20
0.0
 30
2.000000000000000E+50
 75
     0
  1
AcDbOsnapPointRef
 72
    13
331
3ACC
 73
     2
 91
        0
 40
0.0
 10
0.0
 20
0.0
 30
2.000000000000000E+50
 75
     0
  0
DIMASSOC
  5
3C0F
102
{ACAD_REACTORS
330
3C0E
102
}
330
3C0E
100
AcDbDimAssoc
330
3C0D
 90
        3
 70
     0
 71
     0
  1
AcDbOsnapPointRef
 72
     6
331
3AC9
 73
     2
 91
        0
 40
0.9999999999998864
 10
0.0
 20
0.0
 30
0.0
332
3AC1
 74
     2
 92
        0
 75
     0
  1
AcDbOsnapPointRef
 72
     1
331
3AAE
 73
     2
 91
        0
 40
1.0
 10
0.0
 20
0.0
 30
2.000000000000000E+50
 75
     0
  0
DIMASSOC
  5
3C12
102
{ACAD_REACTORS
330
3C11
102
}
330
3C11
100
AcDbDimAssoc
330
3C10
 90
        3
 70
     0
 71
     0
  1
AcDbOsnapPointRef
 72
    13
331
3AA7
 73
     2
 91
        0
 40
4.712388980384689
 10
0.0
 20
0.0
 30
2.000000000000000E+50
 75
     0
  1
AcDbOsnapPointRef
 72
     1
331
3AC2
 73
     2
 91
        0
 40
1.570796326794896
 10
0.0
 20
0.0
 30
2.000000000000000E+50
 75
     0
  0
DIMASSOC
  5
3C15
102
{ACAD_REACTORS
330
3C14
102
}
330
3C14
100
AcDbDimAssoc
330
3C13
 90
        3
 70
     0
 71
     0
  1
AcDbOsnapPointRef
 72
     6
331
3AAA
 73
     2
 91
        0
 40
0.0000000000000201
 10
0.0
 20
0.0
 30
0.0
332
3AAB
 74
     2
 92
        0
 75
     0
  1
AcDbOsnapPointRef
 72
    13
331
3AB1
 73
     2
 91
        0
 40
0.0
 10
0.0
 20
0.0
 30
2.000000000000000E+50
 75
     0
  0
LAYOUT
  5
1E
102
{ACAD_XDICTIONARY
360
44C2
102
}
102
{ACAD_REACTORS
330
1A
102
}
330
1A
100
AcDbPlotSettings
  1

  2

  4

  6

 40
0.0
 41
0.0
 42
0.0
 43
0.0
 44
0.0
 45
0.0
 46
0.0
 47
0.0
 48
0.0
 49
0.0
140
0.0
141
0.0
142
1.0
143
1.0
 70
   688
 72
     0
 73
     0
 74
     5
  7

 75
    16
147
1.0
148
0.0
149
0.0
100
AcDbLayout
  1
Layout1
 70
     1
 71
     1
 10
0.0
 20
0.0
 11
12.0
 21
9.0
 12
0.0
 22
0.0
 32
0.0
 14
1.000000000000000E+20
 24
1.000000000000000E+20
 34
1.000000000000000E+20
 15
-1.000000000000000E+20
 25
-1.000000000000000E+20
 35
-1.000000000000000E+20
146
0.0
 13
0.0
 23
0.0
 33
0.0
 16
1.0
 26
0.0
 36
0.0
 17
0.0
 27
1.0
 37
0.0
 76
     0
330
1B
  0
LAYOUT
  5
26
102
{ACAD_XDICTIONARY
360
44C6
102
}
102
{ACAD_REACTORS
330
1A
102
}
330
1A
100
AcDbPlotSettings
  1

  2

  4

  6

 40
0.0
 41
0.0
 42
0.0
 43
0.0
 44
0.0
 45
0.0
 46
0.0
 47
0.0
 48
0.0
 49
0.0
140
0.0
141
0.0
142
1.0
143
1.0
 70
   688
 72
     0
 73
     0
 74
     5
  7

 75
    16
147
1.0
148
0.0
149
0.0
100
AcDbLayout
  1
Layout2
 70
     1
 71
     2
 10
0.0
 20
0.0
 11
12.0
 21
9.0
 12
0.0
 22
0.0
 32
0.0
 14
0.0
 24
0.0
 34
0.0
 15
0.0
 25
0.0
 35
0.0
146
0.0
 13
0.0
 23
0.0
 33
0.0
 16
1.0
 26
0.0
 36
0.0
 17
0.0
 27
1.0
 37
0.0
 76
     0
330
23
  0
LAYOUT
  5
22
102
{ACAD_XDICTIONARY
360
44C4
102
}
102
{ACAD_REACTORS
330
1A
102
}
330
1A
100
AcDbPlotSettings
  1

  2
DWF Classic.pc3
  4
ISO_A3_(420.00_x_297.00_MM)
  6

 40
5.793749809265136
 41
17.79375076293945
 42
5.79376220703125
 43
17.79376220703125
 44
420.0
 45
297.0
 46
32.53
 47
0.0
 48
0.0
 49
0.0
140
0.0
141
0.0
142
1.0
143
0.835589434715678
 70
 11956
 72
     1
 73
     1
 74
     1
  7

 75
     0
147
1.196759985770122
148
-53.19842586332004
149
-6.721491280199529
100
AcDbLayout
  1
Model
 70
     1
 71
     0
 10
0.0
 20
0.0
 11
12.0
 21
9.0
 12
0.0
 22
0.0
 32
0.0
 14
0.0
 24
0.0
 34
0.0
 15
0.0
 25
0.0
 35
0.0
146
0.0
 13
0.0
 23
0.0
 33
0.0
 16
1.0
 26
0.0
 36
0.0
 17
0.0
 27
1.0
 37
0.0
 76
     0
330
1F
  0
MLINESTYLE
  5
18
102
{ACAD_REACTORS
330
17
102
}
330
17
100
AcDbMlineStyle
  2
STANDARD
 70
     0
  3

 62
   256
 51
90.0
 52
90.0
 71
     2
 49
0.5
 62
   256
  6
BYLAYER
 49
-0.5
 62
   256
  6
BYLAYER
  0
ACDBPLACEHOLDER
  5
F
102
{ACAD_REACTORS
330
E
102
}
330
E
  0
TABLESTYLE
  5
285F
102
{ACAD_REACTORS
330
285E
102
}
330
285E
100
AcDbTableStyle
  3
Standard
 70
     0
 71
     0
 40
1.5
 41
1.5
280
     0
281
     0
  7
Standard
140
4.5
170
     2
 62
     0
 63
     7
283
     0
274
    -2
284
     1
 64
     0
275
    -2
285
     1
 65
     0
276
    -2
286
     1
 66
     0
277
    -2
287
     1
 67
     0
278
    -2
288
     1
 68
     0
279
    -2
289
     1
 69
     0
  7
Standard
140
6.0
170
     5
 62
     0
 63
     7
283
     0
274
    -2
284
     1
 64
     0
275
    -2
285
     1
 65
     0
276
    -2
286
     1
 66
     0
277
    -2
287
     1
 67
     0
278
    -2
288
     1
 68
     0
279
    -2
289
     1
 69
     0
  7
Standard
140
4.5
170
     5
 62
     0
 63
     7
283
     0
274
    -2
284
     1
 64
     0
275
    -2
285
     1
 65
     0
276
    -2
286
     1
 66
     0
277
    -2
287
     1
 67
     0
278
    -2
288
     1
 68
     0
279
    -2
289
     1
 69
     0
  0
DICTIONARYVAR
  5
36AB
102
{ACAD_REACTORS
330
1488
102
}
330
1488
100
DictionaryVariables
280
     0
  1
STANDARD
  0
DICTIONARYVAR
  5
4264
102
{ACAD_REACTORS
330
1488
102
}
330
1488
100
DictionaryVariables
280
     0
  1
1
  0
DICTIONARYVAR
  5
4265
102
{ACAD_REACTORS
330
1488
102
}
330
1488
100
DictionaryVariables
280
     0
  1

  0
DICTIONARYVAR
  5
1489
102
{ACAD_REACTORS
330
1488
102
}
330
1488
100
DictionaryVariables
280
     0
  1
96
  0
DICTIONARY
  5
405C
102
{ACAD_REACTORS
330
404F
102
}
330
404F
100
AcDbDictionary
281
     1
  0
XRECORD
  5
4077
102
{ACAD_REACTORS
330
404F
102
}
330
404F
100
AcDbXrecord
280
     1
 90
-1023410169
  0
DICTIONARY
  5
44C2
330
1E
100
AcDbDictionary
280
     1
281
     1
  3
ACAD_XREC_ROUNDTRIP
360
44C3
  0
DICTIONARY
  5
44C6
330
26
100
AcDbDictionary
280
     1
281
     1
  3
ACAD_XREC_ROUNDTRIP
360
44C7
  0
DICTIONARY
  5
44C4
330
22
100
AcDbDictionary
280
     1
281
     1
  3
ACAD_XREC_ROUNDTRIP
360
44C5
  0
XRECORD
  5
44C3
102
{ACAD_REACTORS
330
44C2
102
}
330
44C2
100
AcDbXrecord
280
     1
102
SHADEPLOT
 70
     0
102
SHADEPLOTRESLEVEL
 70
     2
102
SHADEPLOTCUSTOMDPI
 70
   300
  0
XRECORD
  5
44C7
102
{ACAD_REACTORS
330
44C6
102
}
330
44C6
100
AcDbXrecord
280
     1
102
SHADEPLOT
 70
     0
102
SHADEPLOTRESLEVEL
 70
     2
102
SHADEPLOTCUSTOMDPI
 70
   300
  0
XRECORD
  5
44C5
102
{ACAD_REACTORS
330
44C4
102
}
330
44C4
100
AcDbXrecord
280
     1
102
SHADEPLOT
 70
     0
102
SHADEPLOTRESLEVEL
 70
     2
102
SHADEPLOTCUSTOMDPI
 70
   300
  0
ENDSEC
  0
EOF
