  0
SECTION
  2
HEADER
  9
$ACADVER
  1
AC1015
  9
$ACADMAINTVER
 70
    20
  9
$DWGCODEPAGE
  3
ANSI_950
  9
$INSBASE
 10
0.0
 20
0.0
 30
0.0
  9
$EXTMIN
 10
74.28436295312804
 20
366.7072963322439
 30
-0.0178318934936215
  9
$EXTMAX
 10
1131.109732041412
 20
1141.544089899189
 30
507.6697122082378
  9
$LIMMIN
 10
0.0
 20
0.0
  9
$LIMMAX
 10
420.0
 20
297.0
  9
$ORTHOMODE
 70
     1
  9
$REGENMODE
 70
     1
  9
$FILLMODE
 70
     1
  9
$QTEXTMODE
 70
     0
  9
$MIRRTEXT
 70
     1
  9
$LTSCALE
 40
3.0
  9
$ATTMODE
 70
     1
  9
$TEXTSIZE
 40
3.0
  9
$TRACEWID
 40
1.0
  9
$TEXTSTYLE
  7
CHINESET
  9
$CLAYER
  8
0
  9
$CELTYPE
  6
ByLayer
  9
$CECOLOR
 62
   256
  9
$CELTSCALE
 40
1.0
  9
$DISPSILH
 70
     0
  9
$DIMSCALE
 40
1.0
  9
$DIMASZ
 40
3.0
  9
$DIMEXO
 40
1.5
  9
$DIMDLI
 40
8.0
  9
$DIMRND
 40
0.0
  9
$DIMDLE
 40
0.0
  9
$DIMEXE
 40
1.5
  9
$DIMTP
 40
0.1
  9
$DIMTM
 40
0.1
  9
$DIMTXT
 40
3.0
  9
$DIMCEN
 40
0.0
  9
$DIMTSZ
 40
0.0
  9
$DIMTOL
 70
     0
  9
$DIMLIM
 70
     0
  9
$DIMTIH
 70
     0
  9
$DIMTOH
 70
     0
  9
$DIMSE1
 70
     0
  9
$DIMSE2
 70
     0
  9
$DIMTAD
 70
     1
  9
$DIMZIN
 70
     8
  9
$DIMBLK
  1

  9
$DIMASO
 70
     1
  9
$DIMSHO
 70
     1
  9
$DIMPOST
  1

  9
$DIMAPOST
  1
"
  9
$DIMALT
 70
     0
  9
$DIMALTD
 70
     2
  9
$DIMALTF
 40
0.0393701
  9
$DIMLFAC
 40
1.0
  9
$DIMTOFL
 70
     1
  9
$DIMTVP
 40
0.0
  9
$DIMTIX
 70
     0
  9
$DIMSOXD
 70
     0
  9
$DIMSAH
 70
     0
  9
$DIMBLK1
  1

  9
$DIMBLK2
  1

  9
$DIMSTYLE
  2
AM_ISO
  9
$DIMCLRD
 70
   256
  9
$DIMCLRE
 70
   256
  9
$DIMCLRT
 70
   256
  9
$DIMTFAC
 40
0.6
  9
$DIMGAP
 40
1.0
  9
$DIMJUST
 70
     0
  9
$DIMSD1
 70
     0
  9
$DIMSD2
 70
     0
  9
$DIMTOLJ
 70
     0
  9
$DIMTZIN
 70
     8
  9
$DIMALTZ
 70
     0
  9
$DIMALTTZ
 70
     0
  9
$DIMUPT
 70
     0
  9
$DIMDEC
 70
     2
  9
$DIMTDEC
 70
     8
  9
$DIMALTU
 70
     2
  9
$DIMALTTD
 70
     2
  9
$DIMTXSTY
  7
CHINESET
  9
$DIMAUNIT
 70
     0
  9
$DIMADEC
 70
     0
  9
$DIMALTRND
 40
0.0
  9
$DIMAZIN
 70
     2
  9
$DIMDSEP
 70
    46
  9
$DIMATFIT
 70
     3
  9
$DIMFRAC
 70
     0
  9
$DIMLDRBLK
  1

  9
$DIMLUNIT
 70
     2
  9
$DIMLWD
 70
    -1
  9
$DIMLWE
 70
    -1
  9
$DIMTMOVE
 70
     0
  9
$LUNITS
 70
     2
  9
$LUPREC
 70
     2
  9
$SKETCHINC
 40
1.0
  9
$FILLETRAD
 40
2.5
  9
$AUNITS
 70
     0
  9
$AUPREC
 70
     0
  9
$MENU
  1
.
  9
$ELEVATION
 40
0.0
  9
$PELEVATION
 40
0.0
  9
$THICKNESS
 40
0.0
  9
$LIMCHECK
 70
     0
  9
$CHAMFERA
 40
2.5
  9
$CHAMFERB
 40
2.5
  9
$CHAMFERC
 40
20.0
  9
$CHAMFERD
 40
0.0
  9
$SKPOLY
 70
     0
  9
$TDCREATE
 40
2454240.587306493
  9
$TDUCREATE
 40
2454240.253973160
  9
$TDUPDATE
 40
2454240.678641123
  9
$TDUUPDATE
 40
2454240.345307789
  9
$TDINDWG
 40
0.0913353588
  9
$TDUSRTIMER
 40
0.0913353588
  9
$USRTIMER
 70
     1
  9
$ANGBASE
 50
0.0
  9
$ANGDIR
 70
     0
  9
$PDMODE
 70
     0
  9
$PDSIZE
 40
0.0
  9
$PLINEWID
 40
0.0
  9
$SPLFRAME
 70
     0
  9
$SPLINETYPE
 70
     6
  9
$SPLINESEGS
 70
     8
  9
$HANDSEED
  5
1C0B
  9
$SURFTAB1
 70
     6
  9
$SURFTAB2
 70
     6
  9
$SURFTYPE
 70
     6
  9
$SURFU
 70
     6
  9
$SURFV
 70
     6
  9
$UCSBASE
  2

  9
$UCSNAME
  2

  9
$UCSORG
 10
0.0
 20
0.0
 30
0.0
  9
$UCSXDIR
 10
1.0
 20
0.0
 30
0.0
  9
$UCSYDIR
 10
0.0
 20
1.0
 30
0.0
  9
$UCSORTHOREF
  2

  9
$UCSORTHOVIEW
 70
     0
  9
$UCSORGTOP
 10
0.0
 20
0.0
 30
0.0
  9
$UCSORGBOTTOM
 10
0.0
 20
0.0
 30
0.0
  9
$UCSORGLEFT
 10
0.0
 20
0.0
 30
0.0
  9
$UCSORGRIGHT
 10
0.0
 20
0.0
 30
0.0
  9
$UCSORGFRONT
 10
0.0
 20
0.0
 30
0.0
  9
$UCSORGBACK
 10
0.0
 20
0.0
 30
0.0
  9
$PUCSBASE
  2

  9
$PUCSNAME
  2

  9
$PUCSORG
 10
0.0
 20
0.0
 30
0.0
  9
$PUCSXDIR
 10
1.0
 20
0.0
 30
0.0
  9
$PUCSYDIR
 10
0.0
 20
1.0
 30
0.0
  9
$PUCSORTHOREF
  2

  9
$PUCSORTHOVIEW
 70
     0
  9
$PUCSORGTOP
 10
0.0
 20
0.0
 30
0.0
  9
$PUCSORGBOTTOM
 10
0.0
 20
0.0
 30
0.0
  9
$PUCSORGLEFT
 10
0.0
 20
0.0
 30
0.0
  9
$PUCSORGRIGHT
 10
0.0
 20
0.0
 30
0.0
  9
$PUCSORGFRONT
 10
0.0
 20
0.0
 30
0.0
  9
$PUCSORGBACK
 10
0.0
 20
0.0
 30
0.0
  9
$USERI1
 70
     0
  9
$USERI2
 70
     0
  9
$USERI3
 70
     0
  9
$USERI4
 70
     0
  9
$USERI5
 70
     0
  9
$USERR1
 40
0.0
  9
$USERR2
 40
0.0
  9
$USERR3
 40
0.0
  9
$USERR4
 40
0.0
  9
$USERR5
 40
0.0
  9
$WORLDVIEW
 70
     1
  9
$SHADEDGE
 70
     3
  9
$SHADEDIF
 70
    70
  9
$TILEMODE
 70
     1
  9
$MAXACTVP
 70
    64
  9
$PINSBASE
 10
0.0
 20
0.0
 30
0.0
  9
$PLIMCHECK
 70
     0
  9
$PEXTMIN
 10
1.000000000000000E+20
 20
1.000000000000000E+20
 30
1.000000000000000E+20
  9
$PEXTMAX
 10
-1.000000000000000E+20
 20
-1.000000000000000E+20
 30
-1.000000000000000E+20
  9
$PLIMMIN
 10
0.0
 20
0.0
  9
$PLIMMAX
 10
420.0
 20
297.0
  9
$UNITMODE
 70
     0
  9
$VISRETAIN
 70
     1
  9
$PLINEGEN
 70
     0
  9
$PSLTSCALE
 70
     1
  9
$TREEDEPTH
 70
  3020
  9
$CMLSTYLE
  2
Standard
  9
$CMLJUST
 70
     0
  9
$CMLSCALE
 40
20.0
  9
$PROXYGRAPHICS
 70
     1
  9
$MEASUREMENT
 70
     1
  9
$CELWEIGHT
370
    -1
  9
$ENDCAPS
280
     0
  9
$JOINSTYLE
280
     0
  9
$LWDISPLAY
290
     0
  9
$INSUNITS
 70
     4
  9
$HYPERLINKBASE
  1

  9
$STYLESHEET
  1
彩色出圖.ctb
  9
$XEDIT
290
     1
  9
$CEPSNTYPE
380
     0
  9
$PSTYLEMODE
290
     1
  9
$FINGERPRINTGUID
  2
{FB6B066C-06F9-4B4A-90D7-4BE01E6F3381}
  9
$VERSIONGUID
  2
{0B5C98D1-C038-4BEF-989D-14976F483B29}
  9
$EXTNAMES
290
     1
  9
$PSVPSCALE
 40
0.0
  9
$OLESTARTUP
290
     0
  0
ENDSEC
  0
SECTION
  2
CLASSES
  0
CLASS
  1
ACDBDICTIONARYWDFLT
  2
AcDbDictionaryWithDefault
  3
ObjectDBX Classes
 90
        0
280
     0
281
     0
  0
CLASS
  1
ACDBPLACEHOLDER
  2
AcDbPlaceHolder
  3
ObjectDBX Classes
 90
        0
280
     0
281
     0
  0
CLASS
  1
LAYOUT
  2
AcDbLayout
  3
ObjectDBX Classes
 90
        0
280
     0
281
     0
  0
CLASS
  1
ACME_DOCUMENT
  2
AcMeDbDoc
  3
AcMeServices
 90
        0
280
     0
281
     0
  0
CLASS
  1
AMGSETTINGSOBJ
  2
AmgSettingsObj
  3
"AcadM|Product Description: AutoCAD Mechanical 2000|Company: Autodesk"
 90
        0
280
     0
281
     0
  0
CLASS
  1
ACMESCOPE
  2
AcMeScope
  3
AcMeServices
 90
        0
280
     0
281
     0
  0
CLASS
  1
ACMECOMMANDHISTORY
  2
AcMeCommandHistory
  3
AcMeServices
 90
        0
280
     0
281
     0
  0
CLASS
  1
ACIMSYSVARMAN
  2
AcImSysVarManager
  3
AcMeServices
 90
        0
280
     0
281
     0
  0
CLASS
  1
ACIMREALSYSVAR
  2
AcImRealSysVar
  3
AcMeServices
 90
        0
280
     0
281
     0
  0
CLASS
  1
ACIMINTSYSVAR
  2
AcImIntSysVar
  3
AcMeServices
 90
        0
280
     0
281
     0
  0
CLASS
  1
ACMEDRAWINGMAN
  2
AcMeDrawingMan
  3
AcMeServices
 90
        0
280
     0
281
     0
  0
CLASS
  1
ACMEVIEW
  2
AcMeView
  3
AcMeServices
 90
        0
280
     0
281
     0
  0
CLASS
  1
ACDBENTITYCACHE
  2
AcMeEntityCache
  3
AcMeServices
 90
        0
280
     0
281
     0
  0
CLASS
  1
GSMANAGER
  2
AcMeGSManager
  3
AcMeServices
 90
        0
280
     0
281
     0
  0
CLASS
  1
AMDTINTERNALREACTOR
  2
AmdtInternalReactor
  3
AcMeServices
 90
        0
280
     0
281
     0
  0
CLASS
  1
ACMESTATEMGR
  2
AcMeStateMgr
  3
AcMeServices
 90
        0
280
     0
281
     0
  0
CLASS
  1
ACGREFMASTER
  2
AcGrefMaster
  3
AcAttribServices
 90
        0
280
     0
281
     0
  0
CLASS
  1
ACME_DATABASE
  2
AcMeDbDatabase
  3
AcMeServices
 90
        0
280
     0
281
     0
  0
CLASS
  1
ACRFINSADJUSTERMGR
  2
AcRfInsAdjusterMgr
  3
AcMeServices
 90
        0
280
     0
281
     0
  0
CLASS
  1
ACGREFACADMASTER
  2
AcGrefacadMaster
  3
AcGrefServices
 90
        0
280
     0
281
     0
  0
CLASS
  1
AMIMASTER
  2
AmiMaster
  3
AmiServices
 90
        0
280
     0
281
     0
  0
CLASS
  1
ACMDATADICTIONARY
  2
AcmDataDictionary
  3
"AcmSymBB|Product Description: AutoCAD Mechanical 2004 DX|Company: Autodesk"
 90
        0
280
     0
281
     0
  0
CLASS
  1
ACMDATAENTRYBLOCK
  2
AcmDataEntryBlock
  3
"AcmSymBB|Product Description: AutoCAD Mechanical 2004 DX|Company: Autodesk"
 90
        0
280
     0
281
     0
  0
CLASS
  1
ACIMSTRSYSVAR
  2
AcImStrSysVar
  3
AcMeServices
 90
        0
280
     0
281
     0
  0
CLASS
  1
ACMSTANDARDISO
  2
AcmStandardISO
  3
"Amdt_StdImp|Product Description: AutoCAD Mechanical 2004 DX|Company: Autodesk"
 90
        0
280
     0
281
     0
  0
CLASS
  1
AMGOBJPROPCFG
  2
AmgObjPropCfg
  3
"AmgLay|Product Description: AutoCAD Mechanical 2000|Company: Autodesk"
 90
        1
280
     0
281
     0
  0
CLASS
  1
AMDTEDGESTANDARDISO
  2
AmdtEdgeStdISO
  3
"Amdt_StdImp|Product Description: AutoCAD Mechanical 2004 DX|Company: Autodesk"
 90
        0
280
     0
281
     0
  0
CLASS
  1
ACMSURFSTANDARDISO
  2
AcmSurfTextStdISO
  3
"Amdt_StdImp|Product Description: AutoCAD Mechanical 2004 DX|Company: Autodesk"
 90
        0
280
     0
281
     0
  0
CLASS
  1
ACMFCFSTANDARDISO
  2
AcmFCFStdISO
  3
"Amdt_StdImp|Product Description: AutoCAD Mechanical 2004 DX|Company: Autodesk"
 90
        0
280
     0
281
     0
  0
CLASS
  1
ACMWELDSTANDARDISO
  2
AcmWeldingStdISO
  3
"Amdt_StdImp|Product Description: AutoCAD Mechanical 2004 DX|Company: Autodesk"
 90
        0
280
     0
281
     0
  0
CLASS
  1
ACMIDSTANDARDISO
  2
AcmIdStdISO
  3
"Amdt_StdImp|Product Description: AutoCAD Mechanical 2004 DX|Company: Autodesk"
 90
        0
280
     0
281
     0
  0
CLASS
  1
ACMDATUMSTANDARDISO
  2
AcmDatumStdISO
  3
"Amdt_StdImp|Product Description: AutoCAD Mechanical 2004 DX|Company: Autodesk"
 90
        0
280
     0
281
     0
  0
CLASS
  1
ACMBOMSTANDARDISO
  2
AcmBOMStdISO
  3
"Amdt_StdImp|Product Description: AutoCAD Mechanical 2004 DX|Company: Autodesk"
 90
        0
280
     0
281
     0
  0
CLASS
  1
ACMDETAILSTANDARDISO
  2
AmdtDetailSymStdISO
  3
"Amdt_StdImp|Product Description: AutoCAD Mechanical 2004 DX|Company: Autodesk"
 90
        0
280
     0
281
     0
  0
CLASS
  1
ACMSECTIONSTANDARDISO
  2
AmdtSectionSymStdISO
  3
"Amdt_StdImp|Product Description: AutoCAD Mechanical 2004 DX|Company: Autodesk"
 90
        0
280
     0
281
     0
  0
CLASS
  1
ACMCENTERLINESTANDARDISO
  2
AmdtCenterLineStdISO
  3
"Amdt_StdImp|Product Description: AutoCAD Mechanical 2004 DX|Company: Autodesk"
 90
        0
280
     0
281
     0
  0
CLASS
  1
ACMNOTESTANDARDISO
  2
AmdtNoteStdISO
  3
"Amdt_StdImp|Product Description: AutoCAD Mechanical 2004 DX|Company: Autodesk"
 90
        0
280
     0
281
     0
  0
CLASS
  1
ACAMGLAYSTD
  2
AcAmgLayStd
  3
"AcAmgLayStd|Product Description: AutoCAD Mechanical 2000|Company: Autodesk"
 90
        0
280
     0
281
     0
  0
CLASS
  1
ACAMGDIMSTD
  2
AcAmgDimStd
  3
"AcAmgDimStd|Product Description: AutoCAD Mechanical 2000|Company: Autodesk"
 90
        0
280
     0
281
     0
  0
CLASS
  1
ACAMGHOLECHARTSTDISO
  2
AcAmgHoleChartStdISO
  3
ACMSYMBB_MODULE_NAME
 90
        0
280
     0
281
     0
  0
CLASS
  1
ACAMGTITLESTD
  2
AcAmgTitleStd
  3
"TITLEAPP"
 90
        0
280
     0
281
     0
  0
CLASS
  1
LAYER_INDEX
  2
AcDbLayerIndex
  3
ObjectDBX Classes
 90
    32768
280
     0
281
     0
  0
CLASS
  1
IDBUFFER
  2
AcDbIdBuffer
  3
ObjectDBX Classes
 90
    32768
280
     0
281
     0
  0
CLASS
  1
DICTIONARYVAR
  2
AcDbDictionaryVar
  3
ObjectDBX Classes
 90
        0
280
     0
281
     0
  0
CLASS
  1
AM_DRAWING_MGR
  2
AcDmDwgMgr
  3
AcMechDwgViewMgmt
 90
        0
280
     0
281
     0
  0
CLASS
  1
AM_DWG_DOCUMENT
  2
AcDmDwgDocument
  3
AcMechDwgViewMgmt
 90
        0
280
     0
281
     0
  0
CLASS
  1
AM_DWG_SHEET
  2
AcDmSheet
  3
AcMechDwgViewMgmt
 90
        0
280
     0
281
     0
  0
CLASS
  1
AM_VIEWDIMPARMAP
  2
AcDmViewDimParMap
  3
AcMechDwgViewMgmt
 90
        0
280
     0
281
     0
  0
CLASS
  1
AM_DWGMGR_NAME
  2
AcDmDwgMgrName
  3
AcMechDwgViewMgmt
 90
        0
280
     0
281
     0
  0
CLASS
  1
AMDTMENUSTATEMGR
  2
AmdtMenuStateMgr
  3
McadcomServices
 90
        0
280
     0
281
     0
  0
CLASS
  1
AMDTMCOMMENUSTATE
  2
AmdtMcomMenuState
  3
McadcomServices
 90
        0
280
     0
281
     0
  0
CLASS
  1
MAPIAMMOUDLE
  2
MApiAmModule
  3
MApiAmServices
 90
        0
280
     0
281
     0
  0
CLASS
  1
AMDTADMENUSTATE
  2
AmdtAdMenuState
  3
DesignerServices
 90
        0
280
     0
281
     0
  0
CLASS
  1
ADAPPL
  2
AcAdAppl
  3
DesignerServices
 90
        0
280
     0
281
     0
  0
CLASS
  1
DEPMGR
  2
AcAdDepMgr
  3
DesignerServices
 90
        0
280
     0
281
     0
  0
CLASS
  1
PARAMMGR
  2
AcAdParamMgr
  3
DesignerServices
 90
        0
280
     0
281
     0
  0
CLASS
  1
PARAMSCOPE
  2
AcAdParamScope
  3
DesignerServices
 90
        0
280
     0
281
     0
  0
CLASS
  1
NAMEDAPPL
  2
AcAdNamedAppl
  3
DesignerServices
 90
        0
280
     0
281
     0
  0
CLASS
  1
AMDTDMMENUSTATE
  2
AmdtDmMenuState
  3
AcMechDwgViewMgmt
 90
        0
280
     0
281
     0
  0
CLASS
  1
AMDTAMMENUSTATE
  2
AmdtAmMenuState
  3
DesignerAssemblies
 90
        0
280
     0
281
     0
  0
CLASS
  1
ACAMPROJECT
  2
AcAmProject
  3
DesignerAssemblies
 90
        0
280
     0
281
     0
  0
CLASS
  1
ACAMGRCOMPDEF
  2
AcAmGrCompDef
  3
DesignerAssemblies
 90
        0
280
     0
281
     0
  0
CLASS
  1
ACCMCONTEXT
  2
AcCmContext
  3
DesignerAssemblies
 90
        0
280
     0
281
     0
  0
CLASS
  1
ACAMCOMPDEF
  2
AcAmCompDef
  3
DesignerAssemblies
 90
        0
280
     0
281
     0
  0
CLASS
  1
ACAMCOMPDEFMGR
  2
AcAmCompDefMgr
  3
DesignerAssemblies
 90
        0
280
     0
281
     0
  0
CLASS
  1
AMCONTEXTMGR
  2
AcAmContextMgr
  3
DesignerAssemblies
 90
        0
280
     0
281
     0
  0
CLASS
  1
ACAMCONTEXTMODELER
  2
AcAmContextModeler
  3
DesignerAssemblies
 90
        0
280
     0
281
     0
  0
CLASS
  1
ACMTHREADLINESTANDARDISO
  2
AmdtThreadLineStdISO
  3
"Amdt_StdImp|Product Description: AutoCAD Mechanical 2004 DX|Company: Autodesk"
 90
        0
280
     0
281
     0
  0
CLASS
  1
CATALOGSTATE
  2
AcAmCatalogState
  3
DesignerAssemblies
 90
        0
280
     0
281
     0
  0
CLASS
  1
ACAMGRCOMPDEFSET
  2
AcAmGrCompDefSet
  3
DesignerAssemblies
 90
        0
280
     0
281
     0
  0
CLASS
  1
AMDTBROWSERDBTAB
  2
AmdtBrowserDbTab
  3
McadcomServices
 90
        0
280
     0
281
     0
  0
CLASS
  1
CBROWSERAPPOBJECT
  2
CBrowserAppObject
  3
McadcomServices
 90
        0
280
     0
281
     0
  0
CLASS
  1
DM_PLACEHOLDER
  2
AcDmSelsetPlaceholder
  3
AcMechDwgViewMgmt
 90
        0
280
     0
281
     0
  0
CLASS
  1
TABLESTYLE
  2
AcDbTableStyle
  3
ObjectDBX Classes
 90
     2047
280
     0
281
     0
  0
CLASS
  1
VAACXREFPANELOBJECT
  2
VaAcXREFPanelObject
  3
VAAC_ADDIN
 90
    32768
280
     0
281
     0
  0
CLASS
  1
VAACIMAGEINVENTORY
  2
VaAcImageInventory
  3
VAAC_ADDIN
 90
    32768
280
     0
281
     0
  0
CLASS
  1
AMDTNOTETEMPLATEDB
  2
AmdtNoteTemplateDB
  3
AMDT_STDIMP_MODULE_NAME
 90
        0
280
     0
281
     0
  0
CLASS
  1
ACMBOM
  2
AcmBom
  3
"AcmSymBB|Product Description: AutoCAD Mechanical 2004 DX|Company: Autodesk"
 90
    32768
280
     0
281
     0
  0
CLASS
  1
AMDTFORMULAUPDATEDISPATCHER
  2
AmdtFormulaUpdateDispatcher
  3
AcMeServices
 90
    32768
280
     0
281
     0
  0
CLASS
  1
ACMPARTLIST
  2
AcmPartList
  3
"AcmSymBB|Product Description: AutoCAD Mechanical 2004 DX|Company: Autodesk"
 90
    33791
280
     0
281
     1
  0
CLASS
  1
ACAMGFILTERDAT
  2
AcAmgFilterDat
  3
"AcadM|Product Description: AutoCAD Mechanical 2000|Company: Autodesk"
 90
        0
280
     0
281
     0
  0
CLASS
  1
DIMASSOC
  2
AcDbDimAssoc
  3
"AcDbDimAssoc|Product Desc:     AcDim ARX App For Dimension|Company:          Autodesk, Inc.|WEB Address:      www.autodesk.com"
 90
        0
280
     0
281
     0
  0
CLASS
  1
ACMSTANDARDANSI
  2
AcmStandardANSI
  3
"Amdt_StdImp|Product Description: AutoCAD Mechanical 2004 DX|Company: Autodesk"
 90
        0
280
     0
281
     0
  0
CLASS
  1
ACMSURFSTANDARDANSI
  2
AcmSurfTextStdANSI
  3
"Amdt_StdImp|Product Description: AutoCAD Mechanical 2004 DX|Company: Autodesk"
 90
        0
280
     0
281
     0
  0
CLASS
  1
ACMFCFSTANDARDANSI
  2
AcmFCFStdANSI
  3
"Amdt_StdImp|Product Description: AutoCAD Mechanical 2004 DX|Company: Autodesk"
 90
        0
280
     0
281
     0
  0
CLASS
  1
ACMWELDSTANDARDANSI
  2
AcmWeldingStdANSI
  3
"Amdt_StdImp|Product Description: AutoCAD Mechanical 2004 DX|Company: Autodesk"
 90
        0
280
     0
281
     0
  0
CLASS
  1
ACMIDSTANDARDANSI
  2
AcmIdStdANSI
  3
"Amdt_StdImp|Product Description: AutoCAD Mechanical 2004 DX|Company: Autodesk"
 90
        0
280
     0
281
     0
  0
CLASS
  1
ACMDATUMSTANDARDANSI
  2
AcmDatumStdANSI
  3
"Amdt_StdImp|Product Description: AutoCAD Mechanical 2004 DX|Company: Autodesk"
 90
        0
280
     0
281
     0
  0
CLASS
  1
ACMBOMSTANDARDANSI
  2
AcmBOMStdANSI
  3
"Amdt_StdImp|Product Description: AutoCAD Mechanical 2004 DX|Company: Autodesk"
 90
        0
280
     0
281
     0
  0
CLASS
  1
ACMDETAILSTANDARDANSI
  2
AmdtDetailSymStdANSI
  3
"Amdt_StdImp|Product Description: AutoCAD Mechanical 2004 DX|Company: Autodesk"
 90
        0
280
     0
281
     0
  0
CLASS
  1
ACMSECTIONSTANDARDANSI
  2
AmdtSectionSymStdANSI
  3
"Amdt_StdImp|Product Description: AutoCAD Mechanical 2004 DX|Company: Autodesk"
 90
        0
280
     0
281
     0
  0
CLASS
  1
ACMCENTERLINESTANDARDANSI
  2
AmdtCenterLineStdANSI
  3
"Amdt_StdImp|Product Description: AutoCAD Mechanical 2004 DX|Company: Autodesk"
 90
        0
280
     0
281
     0
  0
CLASS
  1
ACMTHREADLINESTANDARDANSI
  2
AmdtThreadLineStdANSI
  3
"Amdt_StdImp|Product Description: AutoCAD Mechanical 2004 DX|Company: Autodesk"
 90
        0
280
     0
281
     0
  0
CLASS
  1
ACMNOTESTANDARDANSI
  2
AmdtNoteStdANSI
  3
"Amdt_StdImp|Product Description: AutoCAD Mechanical 2004 DX|Company: Autodesk"
 90
        0
280
     0
281
     0
  0
CLASS
  1
ACAMGHOLECHARTSTDANSI
  2
AcAmgHoleChartStdANSI
  3
ACMSYMBB_MODULE_NAME
 90
        0
280
     0
281
     0
  0
CLASS
  1
STDPART2D
  2
AmgStdPart
  3
"AmgStdPart|Product Description: AutoCAD Mechanical 2000|Company: Autodesk"
 90
     1023
280
     0
281
     1
  0
CLASS
  1
ACAMSTDPCOMPDEF
  2
AcAmStdpCompDef
  3
DesignerAssemblies
 90
        0
280
     0
281
     0
  0
CLASS
  1
ACRFATTGENMGR
  2
AcRfAttGeneralMgr
  3
AcAttribServices
 90
        0
280
     0
281
     0
  0
CLASS
  1
ACRFOBJATTMGR
  2
AcRfObjAttGroupMgr
  3
AcAttribServices
 90
        0
280
     0
281
     0
  0
CLASS
  1
ACRFMCADAPIATTHOLDER
  2
AcRfMCADAPIAttHolder
  3
AcAttribServices
 90
        0
280
     0
281
     0
  0
CLASS
  1
AMDTSYSATTR
  2
AmdtSystemAttribute
  3
AcAttribServices
 90
        0
280
     0
281
     0
  0
CLASS
  1
ACAMCOMP
  2
AcAmComp
  3
DesignerAssemblies
 90
        0
280
     0
281
     0
  0
CLASS
  1
AC_AM_STDP_VIEW_DEF
  2
AcAmStdpViewDef
  3
DesignerAssemblies
 90
        0
280
     0
281
     0
  0
CLASS
  1
AC_AM_MVD_DEP_MGR
  2
AcAmMVDdepMgr
  3
DesignerAssemblies
 90
        0
280
     0
281
     0
  0
CLASS
  1
AC_AM_MASTER_VIEW_DEF
  2
AcAmMasterViewDef
  3
DesignerAssemblies
 90
        0
280
     0
281
     0
  0
CLASS
  1
AC_AM_DIRTY_NODES
  2
AcAmDirtyNodes
  3
DesignerAssemblies
 90
        0
280
     0
281
     0
  0
CLASS
  1
AC_AM_MAPPER_CACHE
  2
AcAmMapperCache
  3
DesignerAssemblies
 90
        0
280
     0
281
     0
  0
CLASS
  1
ACAMMVDBACKUPOBJECT
  2
AcAmMVDBackupObject
  3
DesignerAssemblies
 90
        0
280
     0
281
     0
  0
CLASS
  1
AC_AM_COMP_VIEW_INST
  2
AcAmCompView
  3
DesignerAssemblies
 90
        0
280
     0
281
     0
  0
CLASS
  1
AC_AM_2D_XREF_MGR
  2
AcAmXrefMgr2d
  3
DesignerAssemblies
 90
        0
280
     0
281
     0
  0
CLASS
  1
SORTENTSTABLE
  2
AcDbSortentsTable
  3
ObjectDBX Classes
 90
        0
280
     0
281
     0
  0
ENDSEC
  0
SECTION
  2
TABLES
  0
TABLE
  2
VPORT
  5
8
330
0
100
AcDbSymbolTable
 70
   345
  0
VPORT
  5
1C02
330
8
100
AcDbSymbolTableRecord
100
AcDbViewportTableRecord
  2
*Active
 70
     0
 10
0.0
 20
0.0
 11
1.0
 21
1.0
 12
602.69704749727
 22
754.1256931157163
 13
0.0
 23
0.0
 14
2.5
 24
2.5
 15
10.0
 25
10.0
 16
0.0
 26
0.0
 36
1.0
 17
0.0
 27
0.0
 37
0.0
 40
781.1448271645049
 41
1.661684782608695
 42
50.0
 43
0.0
 44
0.0
 50
0.0
 51
0.0
 71
     0
 72
   100
 73
     1
 74
     3
 75
     0
 76
     0
 77
     0
 78
     0
281
     0
 65
     1
110
0.0
120
0.0
130
0.0
111
1.0
121
0.0
131
0.0
112
0.0
122
1.0
132
0.0
 79
     0
146
0.0
  0
ENDTAB
  0
TABLE
  2
LTYPE
  5
5
330
0
100
AcDbSymbolTable
 70
    20
  0
LTYPE
  5
14
330
5
100
AcDbSymbolTableRecord
100
AcDbLinetypeTableRecord
  2
ByBlock
 70
     0
  3

 72
    65
 73
     0
 40
0.0
  0
LTYPE
  5
15
330
5
100
AcDbSymbolTableRecord
100
AcDbLinetypeTableRecord
  2
ByLayer
 70
     0
  3

 72
    65
 73
     0
 40
0.0
  0
LTYPE
  5
16
330
5
100
AcDbSymbolTableRecord
100
AcDbLinetypeTableRecord
  2
Continuous
 70
     0
  3
Solid line
 72
    65
 73
     0
 40
0.0
  0
LTYPE
  5
64
330
5
100
AcDbSymbolTableRecord
100
AcDbLinetypeTableRecord
  2
AM_ISO02W050
 70
     0
  3
__ __ __ __ __ __ __ __ __ __ __ __ __ __ __
 72
    65
 73
     2
 40
7.5
 49
6.0
 74
     0
 49
-1.5
 74
     0
  0
LTYPE
  5
65
330
5
100
AcDbSymbolTableRecord
100
AcDbLinetypeTableRecord
  2
AM_ISO08W050
 70
     0
  3
____ . ____ . ____ . ____ . ____ . ____ . ____
 72
    65
 73
     4
 40
18.0
 49
12.0
 74
     0
 49
-1.5
 74
     0
 49
3.0
 74
     0
 49
-1.5
 74
     0
  0
LTYPE
  5
66
330
5
100
AcDbSymbolTableRecord
100
AcDbLinetypeTableRecord
  2
AM_ISO09W050
 70
     0
  3
_____ . . _____ . . _____ . . ____ .. ____
 72
    65
 73
     6
 40
22.5
 49
12.0
 74
     0
 49
-1.5
 74
     0
 49
3.0
 74
     0
 49
-1.5
 74
     0
 49
3.0
 74
     0
 49
-1.5
 74
     0
  0
LTYPE
  5
67
330
5
100
AcDbSymbolTableRecord
100
AcDbLinetypeTableRecord
  2
Amconstr
 70
     0
  3
_______________________
 72
    65
 73
     2
 40
9999.0
 49
9999.0
 74
     0
 49
0.0
 74
     0
  0
LTYPE
  5
68
330
5
100
AcDbSymbolTableRecord
100
AcDbLinetypeTableRecord
  2
AM_ISO08W050x2
 70
     0
  3
__ . __ . __ . __ . __ . __
 72
    65
 73
     4
 40
9.0
 49
6.0
 74
     0
 49
-0.75
 74
     0
 49
1.5
 74
     0
 49
-0.75
 74
     0
  0
LTYPE
  5
69
330
5
100
AcDbSymbolTableRecord
100
AcDbLinetypeTableRecord
  2
AM_ISO02W050x2
 70
     0
  3
 _ _ _ _ _ _ _ _ _ _ _ _
 72
    65
 73
     2
 40
3.75
 49
3.0
 74
     0
 49
-0.75
 74
     0
  0
LTYPE
  5
6C
330
5
100
AcDbSymbolTableRecord
100
AcDbLinetypeTableRecord
  2
Amzigzag
 70
     0
  3
/\/-/\/-/\/-/\/-/\/-/\/
 72
    65
 73
     2
 40
11.0001
 49
0.0001
 74
     4
 75
   135
340
6B
 46
0.04
 50
0.0
 44
0.0
 45
0.0
 49
-11.0
 74
     0
  0
LTYPE
  5
7A
330
5
100
AcDbSymbolTableRecord
100
AcDbLinetypeTableRecord
  2
ACISOWELD
 70
     0
  3
_ _ _ _ _
 72
    65
 73
     2
 40
2.0
 49
2.0
 74
     0
 49
-1.0
 74
     0
  0
LTYPE
  5
7B
330
5
100
AcDbSymbolTableRecord
100
AcDbLinetypeTableRecord
  2
ACISOTGB
 70
     0
  3
__ . . __ . .
 72
    65
 73
     6
 40
9.0
 49
4.0
 74
     0
 49
-1.0
 74
     0
 49
1.0
 74
     0
 49
-1.0
 74
     0
 49
1.0
 74
     0
 49
-1.0
 74
     0
  0
LTYPE
  5
7C
330
5
100
AcDbSymbolTableRecord
100
AcDbLinetypeTableRecord
  2
ACISOTGL
 70
     0
  3
_ _ _ _ _
 72
    65
 73
     2
 40
3.0
 49
2.0
 74
     0
 49
-1.0
 74
     0
  0
LTYPE
  5
7E
330
5
100
AcDbSymbolTableRecord
100
AcDbLinetypeTableRecord
  2
CENTER
 70
     0
  3
__ . __
 72
    65
 73
     4
 40
7.0
 49
4.0
 74
     0
 49
-1.0
 74
     0
 49
1.0
 74
     0
 49
-1.0
 74
     0
  0
LTYPE
  5
D8
330
5
100
AcDbSymbolTableRecord
100
AcDbLinetypeTableRecord
  2
HIDDEN
 70
     0
  3
Hidden __ __ __ __ __ __ __ __ __ __ __ __ __ _
 72
    65
 73
     2
 40
9.524999999999998
 49
6.349999999999999
 74
     0
 49
-3.174999999999999
 74
     0
  0
LTYPE
  5
D9
330
5
100
AcDbSymbolTableRecord
100
AcDbLinetypeTableRecord
  2
PHANTOM2
 70
     0
  3
Phantom (.5x) ___ _ _ ___ _ _ ___ _ _ ___ _ _
 72
    65
 73
     6
 40
31.75
 49
15.875
 74
     0
 49
-3.174999999999999
 74
     0
 49
3.174999999999999
 74
     0
 49
-3.174999999999999
 74
     0
 49
3.174999999999999
 74
     0
 49
-3.174999999999999
 74
     0
  0
LTYPE
  5
DA3
330
5
100
AcDbSymbolTableRecord
100
AcDbLinetypeTableRecord
  2
PHANTOM
 70
     0
  3
______  __  __  ______  __  __  ______  __  __ 
 72
    65
 73
     6
 40
2.5
 49
1.25
 74
     0
 49
-0.25
 74
     0
 49
0.25
 74
     0
 49
-0.25
 74
     0
 49
0.25
 74
     0
 49
-0.25
 74
     0
  0
LTYPE
  5
DA7
330
5
100
AcDbSymbolTableRecord
100
AcDbLinetypeTableRecord
  2
ACANSTGB
 70
     0
  3
__ . . __ . .
 72
    65
 73
     6
 40
0.35433070866
 49
0.15748031496
 74
     0
 49
-0.03937007874
 74
     0
 49
0.03937007874
 74
     0
 49
-0.03937007874
 74
     0
 49
0.03937007874
 74
     0
 49
-0.03937007874
 74
     0
  0
LTYPE
  5
DA8
330
5
100
AcDbSymbolTableRecord
100
AcDbLinetypeTableRecord
  2
ACANSTGL
 70
     0
  3
_ _ _ _ _
 72
    65
 73
     2
 40
0.11811023622
 49
0.07874015748
 74
     0
 49
-0.03937007874
 74
     0
  0
ENDTAB
  0
TABLE
  2
LAYER
  5
2
102
{ACAD_XDICTIONARY
360
3F9
102
}
330
0
100
AcDbSymbolTable
 70
    10
  0
LAYER
  5
10
330
2
100
AcDbSymbolTableRecord
100
AcDbLayerTableRecord
  2
0
 70
     0
 62
     7
  6
Continuous
370
    -3
390
F
  0
LAYER
  5
939
330
2
100
AcDbSymbolTableRecord
100
AcDbLayerTableRecord
  2
Defpoints
 70
     0
 62
     7
  6
Continuous
290
     0
370
    -3
390
F
  0
LAYER
  5
DA9
330
2
100
AcDbSymbolTableRecord
100
AcDbLayerTableRecord
  2
Dim
 70
     0
 62
     5
  6
Continuous
370
    13
390
F
  0
LAYER
  5
139B
330
2
100
AcDbSymbolTableRecord
100
AcDbLayerTableRecord
  2
AM_7
 70
     0
 62
     1
  6
CENTER
370
    25
390
F
  0
LAYER
  5
140F
330
2
100
AcDbSymbolTableRecord
100
AcDbLayerTableRecord
  2
AM_4
 70
     0
 62
     3
  6
Continuous
370
    25
390
F
  0
LAYER
  5
1778
330
2
100
AcDbSymbolTableRecord
100
AcDbLayerTableRecord
  2
LOGO
 70
     0
 62
     7
  6
Continuous
370
    -3
390
F
  0
LAYER
  5
1973
330
2
100
AcDbSymbolTableRecord
100
AcDbLayerTableRecord
  2
AM_5
 70
     0
 62
     5
  6
Continuous
370
    50
390
F
  0
ENDTAB
  0
TABLE
  2
STYLE
  5
3
330
0
100
AcDbSymbolTable
 70
    12
  0
STYLE
  5
11
330
3
100
AcDbSymbolTableRecord
100
AcDbTextStyleTableRecord
  2
STANDARD
 70
     0
 40
0.0
 41
1.0
 50
0.0
 71
     0
 42
3.0
  3
ISOCP.SHX
  4
CHINESET.SHX
  0
STYLE
  5
6B
330
3
100
AcDbSymbolTableRecord
100
AcDbTextStyleTableRecord
  2

 70
     1
 40
0.0
 41
1.0
 50
0.0
 71
     0
 42
2.5
  3
ltypeshp.shx
  4

  0
STYLE
  5
6D
330
3
100
AcDbSymbolTableRecord
100
AcDbTextStyleTableRecord
  2
ACISOTS
 70
     0
 40
1.0
 41
1.0
 50
0.0
 71
     0
 42
1.0
  3
isocp.shx
  4
chineset.shx
  0
STYLE
  5
79
330
3
100
AcDbSymbolTableRecord
100
AcDbTextStyleTableRecord
  2
ACISOGDT
 70
     0
 40
0.0
 41
1.0
 50
0.0
 71
     0
 42
2.5
  3
amgdt.shx
  4
chineset.shx
  0
STYLE
  5
60C
330
3
100
AcDbSymbolTableRecord
100
AcDbTextStyleTableRecord
  2
CHINESET
 70
     0
 40
0.0
 41
1.0
 50
0.0
 71
     0
 42
3.0
  3
simplex.shx
  4
CHINESET.SHX
  0
STYLE
  5
DAA
330
3
100
AcDbSymbolTableRecord
100
AcDbTextStyleTableRecord
  2
AAA
 70
     0
 40
0.0
 41
1.0
 50
0.0
 71
     0
 42
3.2
  3
TXT
  4

  0
STYLE
  5
DAB
330
3
100
AcDbSymbolTableRecord
100
AcDbTextStyleTableRecord
  2
China
 70
     0
 40
0.0
 41
1.0
 50
0.0
 71
     0
 42
3.2
  3
romans.shx
  4
chineset.shx
  0
STYLE
  5
DAC
330
3
100
AcDbSymbolTableRecord
100
AcDbTextStyleTableRecord
  2
ACANSTS
 70
     0
 40
1.0
 41
1.0
 50
0.0
 71
     0
 42
3.2
  3
romans.shx
  4
chineset.shx
  0
STYLE
  5
DAD
330
3
100
AcDbSymbolTableRecord
100
AcDbTextStyleTableRecord
  2
ACANSGDT
 70
     0
 40
0.0
 41
1.0
 50
0.0
 71
     0
 42
3.2
  3
amgdtans.shx
  4

  0
ENDTAB
  0
TABLE
  2
VIEW
  5
6
330
0
100
AcDbSymbolTable
 70
     0
  0
ENDTAB
  0
TABLE
  2
UCS
  5
7
330
0
100
AcDbSymbolTable
 70
     0
  0
ENDTAB
  0
TABLE
  2
APPID
  5
9
330
0
100
AcDbSymbolTable
 70
    26
  0
APPID
  5
12
330
9
100
AcDbSymbolTableRecord
100
AcDbRegAppTableRecord
  2
ACAD
 70
     0
  0
APPID
  5
46
330
9
100
AcDbSymbolTableRecord
100
AcDbRegAppTableRecord
  2
MCAD_NO_VIS
 70
     0
  0
APPID
  5
47
330
9
100
AcDbSymbolTableRecord
100
AcDbRegAppTableRecord
  2
ACAD_TEMP_GRAPHIC
 70
     0
  0
APPID
  5
58
330
9
100
AcDbSymbolTableRecord
100
AcDbRegAppTableRecord
  2
ACATTRIBSERVICES
 70
     0
  0
APPID
  5
EE
330
9
100
AcDbSymbolTableRecord
100
AcDbRegAppTableRecord
  2
AD_DRAW
 70
     0
  0
APPID
  5
10C
330
9
100
AcDbSymbolTableRecord
100
AcDbRegAppTableRecord
  2
DESIGNERASSEMBLIES
 70
     0
  0
APPID
  5
111
330
9
100
AcDbSymbolTableRecord
100
AcDbRegAppTableRecord
  2
ACADM_DIM_EDIT
 70
     0
  0
APPID
  5
112
330
9
100
AcDbSymbolTableRecord
100
AcDbRegAppTableRecord
  2
AMDT_DM_ADJ
 70
     0
  0
APPID
  5
22C
330
9
100
AcDbSymbolTableRecord
100
AcDbRegAppTableRecord
  2
ACAD_DSTYLE_DIMTEXT_FILL
 70
     0
  0
APPID
  5
452
330
9
100
AcDbSymbolTableRecord
100
AcDbRegAppTableRecord
  2
GENIUS_GENOENT_13
 70
     0
  0
APPID
  5
453
330
9
100
AcDbSymbolTableRecord
100
AcDbRegAppTableRecord
  2
GENIUS_GENOBJ-N-CRS_13
 70
     0
  0
APPID
  5
454
330
9
100
AcDbSymbolTableRecord
100
AcDbRegAppTableRecord
  2
GENIUS_GENOLIS_13
 70
     0
  0
APPID
  5
455
330
9
100
AcDbSymbolTableRecord
100
AcDbRegAppTableRecord
  2
GENIUS_GENODEF_13
 70
     0
  0
APPID
  5
456
330
9
100
AcDbSymbolTableRecord
100
AcDbRegAppTableRecord
  2
GENIUS_GENOREF_13
 70
     0
  0
APPID
  5
6F3
330
9
100
AcDbSymbolTableRecord
100
AcDbRegAppTableRecord
  2
ACAD_PSEXT
 70
     0
  0
APPID
  5
808
330
9
100
AcDbSymbolTableRecord
100
AcDbRegAppTableRecord
  2
GENIUS_GENDTOL_13
 70
     0
  0
APPID
  5
139D
330
9
100
AcDbSymbolTableRecord
100
AcDbRegAppTableRecord
  2
GENIUS_GENOBJ-N-CEN_13
 70
     0
  0
APPID
  5
139E
330
9
100
AcDbSymbolTableRecord
100
AcDbRegAppTableRecord
  2
GENIUS_GENCEN_19
 70
     0
  0
APPID
  5
13F0
330
9
100
AcDbSymbolTableRecord
100
AcDbRegAppTableRecord
  2
GEVID1179544131
 70
     0
  0
APPID
  5
13F1
330
9
100
AcDbSymbolTableRecord
100
AcDbRegAppTableRecord
  2
GEVDC
 70
     0
  0
APPID
  5
13F2
330
9
100
AcDbSymbolTableRecord
100
AcDbRegAppTableRecord
  2
GEVRADREF
 70
     0
  0
APPID
  5
13FB
330
9
100
AcDbSymbolTableRecord
100
AcDbRegAppTableRecord
  2
AMG_2DHIDE
 70
     0
  0
APPID
  5
13FC
330
9
100
AcDbSymbolTableRecord
100
AcDbRegAppTableRecord
  2
AMG_2DSTRUCT_BTR
 70
     0
  0
APPID
  5
140D
330
9
100
AcDbSymbolTableRecord
100
AcDbRegAppTableRecord
  2
ACADM_2DVIEW_IGN_NOTIFY
 70
     0
  0
APPID
  5
1779
330
9
100
AcDbSymbolTableRecord
100
AcDbRegAppTableRecord
  2
GENIUS_GENREC_14
 70
     0
  0
APPID
  5
177A
330
9
100
AcDbSymbolTableRecord
100
AcDbRegAppTableRecord
  2
GENIUS_GENOBJ-N-REC_13
 70
     0
  0
ENDTAB
  0
TABLE
  2
DIMSTYLE
  5
A
330
0
100
AcDbSymbolTable
 70
    18
100
AcDbDimStyleTable
 71
     4
340
81
340
DAE
340
8B
340
86
  0
DIMSTYLE
105
81
330
A
100
AcDbSymbolTableRecord
100
AcDbDimStyleTableRecord
  2
AM_ISO
 70
     0
  4
"
 41
3.0
 42
1.5
 43
8.0
 44
1.5
 47
0.1
 48
0.1
 73
     0
 74
     0
 77
     1
 78
     8
 79
     2
140
3.0
141
0.0
143
0.0393701
146
0.6
147
1.0
172
     1
176
   256
177
   256
178
   256
271
     2
272
     2
283
     0
284
     8
340
60C
371
    -1
372
    -1
  0
DIMSTYLE
105
82
330
A
100
AcDbSymbolTableRecord
100
AcDbDimStyleTableRecord
  2
AM_ISO$3
 70
     0
  4
"
 41
3.0
 42
1.5
 43
8.0
 44
1.5
 47
0.1
 48
0.1
 73
     0
 77
     1
 78
     8
 79
     2
140
3.0
141
0.0
143
0.0393701
146
0.6
147
1.0
176
   256
177
   256
178
   256
271
     2
272
     2
283
     0
284
     8
288
     1
289
     0
340
60C
371
    -1
372
    -1
  0
DIMSTYLE
105
83
330
A
100
AcDbSymbolTableRecord
100
AcDbDimStyleTableRecord
  2
AM_ISO$4
 70
     0
  4
"
 41
3.0
 42
1.5
 43
8.0
 44
1.5
 47
0.1
 48
0.1
 73
     0
 77
     1
 78
     8
 79
     2
140
3.0
141
0.0
143
0.0393701
146
0.6
147
1.0
176
   256
177
   256
178
   256
271
     2
272
     2
283
     0
284
     8
288
     1
289
     0
340
60C
371
    -1
372
    -1
  0
DIMSTYLE
105
84
330
A
100
AcDbSymbolTableRecord
100
AcDbDimStyleTableRecord
  2
AM_ISO$6
 70
     0
  4
"
 41
3.0
 42
1.5
 43
8.0
 44
1.5
 47
0.1
 48
0.1
 73
     0
 74
     0
 78
     8
 79
     2
140
3.0
141
0.0
143
0.0393701
146
0.6
147
1.0
172
     1
176
   256
177
   256
178
   256
271
     2
272
     2
283
     0
284
     8
340
60C
371
    -1
372
    -1
  0
DIMSTYLE
105
85
330
A
100
AcDbSymbolTableRecord
100
AcDbDimStyleTableRecord
  2
AM_ISO$7
 70
     0
  4
"
 41
3.0
 42
1.5
 43
8.0
 44
1.5
 47
0.1
 48
0.1
 73
     0
 74
     0
 77
     1
 78
     8
 79
     2
140
5.0
141
0.0
143
0.0393701
146
0.6
147
1.0
172
     1
176
   256
177
   256
178
   256
271
     2
272
     2
283
     0
284
     8
340
60C
371
    -1
372
    -1
  0
DIMSTYLE
105
86
330
A
100
AcDbSymbolTableRecord
100
AcDbDimStyleTableRecord
  2
AM_ISO$SF
 70
     0
  4
"
 41
2.5
 42
1.0
 43
10.0
 44
1.0
 47
0.1
 48
0.1
 73
     0
 74
     0
 75
     1
 76
     1
 77
     1
 78
     8
 79
     2
140
3.5
141
0.0
143
0.0393701
146
0.71
147
1.5
172
     1
176
   256
177
   256
178
     2
271
     2
272
     3
274
     4
283
     0
284
     8
340
11
371
    -1
372
    -1
  0
DIMSTYLE
105
8B
330
A
100
AcDbSymbolTableRecord
100
AcDbDimStyleTableRecord
  2
AM_ISO$SH
 70
     0
  4
"
 41
2.5
 42
1.0
 43
10.0
 44
1.0
 47
0.1
 48
0.1
 73
     0
 74
     0
 75
     1
 76
     1
 77
     1
 78
     8
 79
     2
140
3.5
141
0.0
143
0.0393701
144
2.0
146
0.71
147
1.5
172
     1
173
     1
176
   256
177
   256
178
     2
271
     2
272
     3
274
     4
283
     0
284
     8
340
11
343
87
371
    -1
372
    -1
  0
DIMSTYLE
105
40B
330
A
100
AcDbSymbolTableRecord
100
AcDbDimStyleTableRecord
  2
AM_ISO$0
 70
     0
  4
"
 41
3.0
 42
1.5
 43
8.0
 44
1.5
 47
0.1
 48
0.1
 73
     0
 74
     0
 77
     1
 78
     8
 79
     2
140
3.0
141
0.0
143
0.0393701
146
0.6
147
1.0
172
     1
176
   256
177
   256
178
   256
271
     2
272
     2
283
     0
284
     8
340
60C
371
    -1
372
    -1
  0
DIMSTYLE
105
DAE
102
{ACAD_REACTORS
330
E2D
330
E2E
330
E2F
330
EAB
330
EB9
330
EB8
330
E5B
330
E5C
330
E6C
330
E26
330
E5E
330
E5F
330
EE0
330
E1B
330
E1C
330
EED
330
EF0
330
ED8
330
EA2
330
F04
330
EA7
330
ECB
330
EBC
330
EAF
330
EAE
330
FF9
330
FFA
330
1004
330
100B
330
100C
330
100D
330
1039
330
103A
330
103C
330
103D
330
104A
330
1080
330
1085
330
1089
330
108C
330
108D
330
1096
330
1097
330
109A
330
10A9
330
10B6
330
10BE
330
10CB
330
10CE
330
10E2
330
148D
330
14DB
330
1505
330
1467
330
1441
330
173A
330
1982
102
}
330
A
100
AcDbSymbolTableRecord
100
AcDbDimStyleTableRecord
  2
Standard
 70
     0
340
DAA
  0
DIMSTYLE
105
DAF
330
A
100
AcDbSymbolTableRecord
100
AcDbDimStyleTableRecord
  2
AM_ANSI
 70
     0
  4
mm
 41
0.1
 42
0.05
 43
0.5
 44
0.1
 47
0.1
 48
0.1
 78
     7
 79
     2
140
0.12
141
0.0
146
0.71
147
0.06
176
   256
177
   256
178
     2
274
     4
284
     7
340
DAA
371
    -1
372
    -1
  0
DIMSTYLE
105
DB0
330
A
100
AcDbSymbolTableRecord
100
AcDbDimStyleTableRecord
  2
AM_ANSI$3
 70
     0
  4
mm
 41
0.1
 42
0.05
 43
0.5
 44
0.1
 47
0.1
 48
0.1
 78
     7
 79
     2
140
0.12
141
0.0
146
0.71
147
0.06
176
   256
177
   256
178
     2
274
     4
284
     7
288
     1
289
     0
340
DAA
371
    -1
372
    -1
  0
DIMSTYLE
105
DB1
330
A
100
AcDbSymbolTableRecord
100
AcDbDimStyleTableRecord
  2
AM_ANSI$4
 70
     0
  4
mm
 41
0.1
 42
0.05
 43
0.5
 44
0.1
 47
0.1
 48
0.1
 78
     7
 79
     2
140
0.12
141
0.0
146
0.71
147
0.06
176
   256
177
   256
178
     2
274
     4
284
     7
288
     1
289
     0
340
DAA
371
    -1
372
    -1
  0
DIMSTYLE
105
DB2
330
A
100
AcDbSymbolTableRecord
100
AcDbDimStyleTableRecord
  2
AM_ANSI$7
 70
     0
  4
mm
 41
0.1
 42
0.05
 43
0.5
 44
0.1
 47
0.1
 48
0.1
 78
     7
 79
     2
140
0.24
141
0.0
146
0.71
147
0.06
176
   256
177
   256
178
     2
274
     4
284
     7
340
DAA
371
    -1
372
    -1
  0
DIMSTYLE
105
DB3
330
A
100
AcDbSymbolTableRecord
100
AcDbDimStyleTableRecord
  2
AM_ANSI$SF
 70
     0
  4
mm
 41
0.1
 42
0.05
 43
0.5
 44
0.1
 47
0.1
 48
0.1
 75
     1
 76
     1
 78
     7
 79
     2
140
0.12
141
0.0
146
0.71
147
0.06
176
   256
177
   256
178
     2
274
     4
284
     7
340
DAA
371
    -1
372
    -1
  0
DIMSTYLE
105
DB4
330
A
100
AcDbSymbolTableRecord
100
AcDbDimStyleTableRecord
  2
AM_ANSI$SH
 70
     0
  4
mm
 41
0.1
 42
0.05
 43
0.5
 44
0.1
 47
0.1
 48
0.1
 75
     1
 76
     1
 78
     7
 79
     2
140
0.12
141
0.0
146
0.71
147
0.06
173
     1
176
   256
177
   256
178
     2
274
     4
284
     7
340
DAA
343
87
371
    -1
372
    -1
  0
ENDTAB
  0
TABLE
  2
BLOCK_RECORD
  5
1
330
0
100
AcDbSymbolTable
 70
    69
  0
BLOCK_RECORD
  5
1F
102
{ACAD_XDICTIONARY
360
8F
102
}
330
1
100
AcDbSymbolTableRecord
100
AcDbBlockTableRecord
  2
*Model_Space
340
22
  0
BLOCK_RECORD
  5
1B
330
1
100
AcDbSymbolTableRecord
100
AcDbBlockTableRecord
  2
*Paper_Space
340
1E
  0
BLOCK_RECORD
  5
23
330
1
100
AcDbSymbolTableRecord
100
AcDbBlockTableRecord
  2
*Paper_Space0
340
26
  0
BLOCK_RECORD
  5
87
330
1
100
AcDbSymbolTableRecord
100
AcDbBlockTableRecord
  2
GENAXEH
340
0
  0
BLOCK_RECORD
  5
1157
330
1
100
AcDbSymbolTableRecord
100
AcDbBlockTableRecord
  2
*D29
340
0
  0
BLOCK_RECORD
  5
1163
330
1
100
AcDbSymbolTableRecord
100
AcDbBlockTableRecord
  2
*D30
340
0
  0
BLOCK_RECORD
  5
116F
330
1
100
AcDbSymbolTableRecord
100
AcDbBlockTableRecord
  2
*D31
340
0
  0
BLOCK_RECORD
  5
117A
330
1
100
AcDbSymbolTableRecord
100
AcDbBlockTableRecord
  2
*D32
340
0
  0
BLOCK_RECORD
  5
1186
330
1
100
AcDbSymbolTableRecord
100
AcDbBlockTableRecord
  2
*D33
340
0
  0
BLOCK_RECORD
  5
1192
330
1
100
AcDbSymbolTableRecord
100
AcDbBlockTableRecord
  2
*D34
340
0
  0
BLOCK_RECORD
  5
119E
330
1
100
AcDbSymbolTableRecord
100
AcDbBlockTableRecord
  2
*D35
340
0
  0
BLOCK_RECORD
  5
11AA
330
1
100
AcDbSymbolTableRecord
100
AcDbBlockTableRecord
  2
*D36
340
0
  0
BLOCK_RECORD
  5
11B6
330
1
100
AcDbSymbolTableRecord
100
AcDbBlockTableRecord
  2
*D37
340
0
  0
BLOCK_RECORD
  5
11C4
330
1
100
AcDbSymbolTableRecord
100
AcDbBlockTableRecord
  2
*D38
340
0
  0
BLOCK_RECORD
  5
11D0
330
1
100
AcDbSymbolTableRecord
100
AcDbBlockTableRecord
  2
*D39
340
0
  0
BLOCK_RECORD
  5
11DC
330
1
100
AcDbSymbolTableRecord
100
AcDbBlockTableRecord
  2
*D40
340
0
  0
BLOCK_RECORD
  5
11E8
330
1
100
AcDbSymbolTableRecord
100
AcDbBlockTableRecord
  2
*D41
340
0
  0
BLOCK_RECORD
  5
11F4
330
1
100
AcDbSymbolTableRecord
100
AcDbBlockTableRecord
  2
*D42
340
0
  0
BLOCK_RECORD
  5
1200
330
1
100
AcDbSymbolTableRecord
100
AcDbBlockTableRecord
  2
*D43
340
0
  0
BLOCK_RECORD
  5
120C
330
1
100
AcDbSymbolTableRecord
100
AcDbBlockTableRecord
  2
*D44
340
0
  0
BLOCK_RECORD
  5
1218
330
1
100
AcDbSymbolTableRecord
100
AcDbBlockTableRecord
  2
*D45
340
0
  0
BLOCK_RECORD
  5
1223
330
1
100
AcDbSymbolTableRecord
100
AcDbBlockTableRecord
  2
*D46
340
0
  0
BLOCK_RECORD
  5
122F
330
1
100
AcDbSymbolTableRecord
100
AcDbBlockTableRecord
  2
*D47
340
0
  0
BLOCK_RECORD
  5
123B
330
1
100
AcDbSymbolTableRecord
100
AcDbBlockTableRecord
  2
*D48
340
0
  0
BLOCK_RECORD
  5
1247
330
1
100
AcDbSymbolTableRecord
100
AcDbBlockTableRecord
  2
*D49
340
0
  0
BLOCK_RECORD
  5
1253
330
1
100
AcDbSymbolTableRecord
100
AcDbBlockTableRecord
  2
*D50
340
0
  0
BLOCK_RECORD
  5
125F
330
1
100
AcDbSymbolTableRecord
100
AcDbBlockTableRecord
  2
*D51
340
0
  0
BLOCK_RECORD
  5
126B
330
1
100
AcDbSymbolTableRecord
100
AcDbBlockTableRecord
  2
*D52
340
0
  0
BLOCK_RECORD
  5
1277
330
1
100
AcDbSymbolTableRecord
100
AcDbBlockTableRecord
  2
*D53
340
0
  0
BLOCK_RECORD
  5
1412
330
1
100
AcDbSymbolTableRecord
100
AcDbBlockTableRecord
  2
*U57
340
0
  0
BLOCK_RECORD
  5
1442
330
1
100
AcDbSymbolTableRecord
100
AcDbBlockTableRecord
  2
*D58
340
0
  0
BLOCK_RECORD
  5
1468
330
1
100
AcDbSymbolTableRecord
100
AcDbBlockTableRecord
  2
*D59
340
0
  0
BLOCK_RECORD
  5
148E
330
1
100
AcDbSymbolTableRecord
100
AcDbBlockTableRecord
  2
*D60
340
0
  0
BLOCK_RECORD
  5
14DC
330
1
100
AcDbSymbolTableRecord
100
AcDbBlockTableRecord
  2
*D61
340
0
  0
BLOCK_RECORD
  5
1506
330
1
100
AcDbSymbolTableRecord
100
AcDbBlockTableRecord
  2
*D62
340
0
  0
BLOCK_RECORD
  5
173B
330
1
100
AcDbSymbolTableRecord
100
AcDbBlockTableRecord
  2
*D63
340
0
  0
BLOCK_RECORD
  5
1983
330
1
100
AcDbSymbolTableRecord
100
AcDbBlockTableRecord
  2
*D65
340
0
  0
ENDTAB
  0
ENDSEC
  0
SECTION
  2
BLOCKS
  0
BLOCK
  5
20
330
1F
100
AcDbEntity
  8
0
100
AcDbBlockBegin
  2
*Model_Space
 70
     0
 10
0.0
 20
0.0
 30
0.0
  3
*Model_Space
  1

  0
ENDBLK
  5
21
330
1F
100
AcDbEntity
  8
0
100
AcDbBlockEnd
  0
BLOCK
  5
1C
330
1B
100
AcDbEntity
 67
     1
  8
0
100
AcDbBlockBegin
  2
*Paper_Space
 70
     0
 10
0.0
 20
0.0
 30
0.0
  3
*Paper_Space
  1

  0
ENDBLK
  5
1D
330
1B
100
AcDbEntity
 67
     1
  8
0
100
AcDbBlockEnd
  0
BLOCK
  5
24
330
23
100
AcDbEntity
  8
0
100
AcDbBlockBegin
  2
*Paper_Space0
 70
     0
 10
0.0
 20
0.0
 30
0.0
  3
*Paper_Space0
  1

  0
ENDBLK
  5
25
330
23
100
AcDbEntity
  8
0
100
AcDbBlockEnd
  0
BLOCK
  5
89
330
87
100
AcDbEntity
  8
0
100
AcDbBlockBegin
  2
GENAXEH
 70
     0
 10
0.0
 20
0.0
 30
0.0
  3
GENAXEH
  1

  0
LINE
  5
88
330
87
100
AcDbEntity
  8
0
100
AcDbLine
 10
-1.0
 20
0.0
 30
0.0
 11
1.0
 21
0.0
 31
0.0
  0
ENDBLK
  5
8A
330
87
100
AcDbEntity
  8
0
100
AcDbBlockEnd
  0
BLOCK
  5
1161
330
1157
100
AcDbEntity
  8
0
100
AcDbBlockBegin
  2
*D29
 70
     1
 10
0.0
 20
0.0
 30
0.0
  3
*D29
  1

  0
LINE
  5
1AB2
330
1157
100
AcDbEntity
  8
Dim
100
AcDbLine
 10
255.0789842812172
 20
823.6898510264326
 30
0.0
 11
255.0789842812172
 21
858.9825766469752
 31
0.0
  0
LINE
  5
1AB3
330
1157
100
AcDbEntity
  8
Dim
100
AcDbLine
 10
324.0789842812172
 20
839.1508554252231
 30
0.0
 11
324.0789842812172
 21
858.9825766469752
 31
0.0
  0
LINE
  5
1AB4
330
1157
100
AcDbEntity
  8
Dim
100
AcDbLine
 10
257.0789842812172
 20
857.9825766469753
 30
0.0
 11
322.0789842812172
 21
857.9825766469753
 31
0.0
  0
SOLID
  5
1AB5
330
1157
100
AcDbEntity
  8
Dim
100
AcDbTrace
 10
257.0789842812172
 20
858.3159099803086
 30
0.0
 11
257.0789842812172
 21
857.6492433136419
 31
0.0
 12
255.0789842812172
 22
857.9825766469753
 32
0.0
 13
255.0789842812172
 23
857.9825766469753
 33
0.0
  0
SOLID
  5
1AB6
330
1157
100
AcDbEntity
  8
Dim
100
AcDbTrace
 10
322.0789842812172
 20
858.3159099803086
 30
0.0
 11
322.0789842812172
 21
857.6492433136419
 31
0.0
 12
324.0789842812172
 22
857.9825766469753
 32
0.0
 13
324.0789842812172
 23
857.9825766469753
 33
0.0
  0
MTEXT
  5
1AB7
330
1157
100
AcDbEntity
  8
Dim
100
AcDbMText
 10
289.5789842812172
 20
860.2325766469753
 30
0.0
 40
2.5
 41
0.0
 71
     5
 72
     1
  1
\A1;69
  7
China
 73
     1
 44
1.0
1001
ACAD
1000
MTEXTBEGIN
1070
    73
1070
     1
1070
    44
1040
1.0
1070
    74
1070
     0
1000
MTEXTEND
  0
POINT
  5
1AB8
330
1157
100
AcDbEntity
  8
Defpoints
 62
     0
100
AcDbPoint
 10
255.0789842812172
 20
822.6898510264327
 30
0.0
  0
POINT
  5
1AB9
330
1157
100
AcDbEntity
  8
Defpoints
 62
     0
100
AcDbPoint
 10
324.0789842812172
 20
838.1508554252231
 30
0.0
  0
POINT
  5
1ABA
330
1157
100
AcDbEntity
  8
Defpoints
 62
     0
100
AcDbPoint
 10
324.0789842812172
 20
857.9825766469753
 30
0.0
  0
ENDBLK
  5
1162
330
1157
100
AcDbEntity
  8
0
100
AcDbBlockEnd
  0
BLOCK
  5
116D
330
1163
100
AcDbEntity
  8
0
100
AcDbBlockBegin
  2
*D30
 70
     1
 10
0.0
 20
0.0
 30
0.0
  3
*D30
  1

  0
LINE
  5
1ABB
330
1163
100
AcDbEntity
  8
Dim
100
AcDbLine
 10
324.0789842812172
 20
848.8613450329175
 30
0.0
 11
324.0789842812172
 21
866.9825766469752
 31
0.0
  0
LINE
  5
1ABC
330
1163
100
AcDbEntity
  8
Dim
100
AcDbLine
 10
228.0789842812172
 20
853.3388510264327
 30
0.0
 11
228.0789842812172
 21
866.9825766469752
 31
0.0
  0
LINE
  5
1ABD
330
1163
100
AcDbEntity
  8
Dim
100
AcDbLine
 10
322.0789842812172
 20
865.9825766469753
 30
0.0
 11
230.0789842812172
 21
865.9825766469753
 31
0.0
  0
SOLID
  5
1ABE
330
1163
100
AcDbEntity
  8
Dim
100
AcDbTrace
 10
322.0789842812172
 20
866.3159099803086
 30
0.0
 11
322.0789842812172
 21
865.6492433136419
 31
0.0
 12
324.0789842812172
 22
865.9825766469753
 32
0.0
 13
324.0789842812172
 23
865.9825766469753
 33
0.0
  0
SOLID
  5
1ABF
330
1163
100
AcDbEntity
  8
Dim
100
AcDbTrace
 10
230.0789842812172
 20
866.3159099803086
 30
0.0
 11
230.0789842812172
 21
865.6492433136419
 31
0.0
 12
228.0789842812172
 22
865.9825766469753
 32
0.0
 13
228.0789842812172
 23
865.9825766469753
 33
0.0
  0
MTEXT
  5
1AC0
330
1163
100
AcDbEntity
  8
Dim
100
AcDbMText
 10
276.0789842812172
 20
868.2325766469753
 30
0.0
 40
2.5
 41
0.0
 71
     5
 72
     1
  1
\A1;96
  7
China
 73
     1
 44
1.0
1001
ACAD
1000
MTEXTBEGIN
1070
    73
1070
     1
1070
    44
1040
1.0
1070
    74
1070
     0
1000
MTEXTEND
  0
POINT
  5
1AC1
330
1163
100
AcDbEntity
  8
Defpoints
 62
     0
100
AcDbPoint
 10
324.0789842812172
 20
847.8613450329175
 30
0.0
  0
POINT
  5
1AC2
330
1163
100
AcDbEntity
  8
Defpoints
 62
     0
100
AcDbPoint
 10
228.0789842812172
 20
852.3388510264327
 30
0.0
  0
POINT
  5
1AC3
330
1163
100
AcDbEntity
  8
Defpoints
 62
     0
100
AcDbPoint
 10
228.0789842812172
 20
865.9825766469753
 30
0.0
  0
ENDBLK
  5
116E
330
1163
100
AcDbEntity
  8
0
100
AcDbBlockEnd
  0
BLOCK
  5
1178
330
116F
100
AcDbEntity
  8
0
100
AcDbBlockBegin
  2
*D31
 70
     1
 10
0.0
 20
0.0
 30
0.0
  3
*D31
  1

  0
LINE
  5
1AC4
330
116F
100
AcDbEntity
  8
Dim
100
AcDbLine
 10
198.2149842812172
 20
738.6898510264327
 30
0.0
 11
173.0789842812172
 21
738.6898510264327
 31
0.0
  0
LINE
  5
1AC5
330
116F
100
AcDbEntity
  8
Dim
100
AcDbLine
 10
201.0789842812172
 20
680.6898510264327
 30
0.0
 11
173.0789842812172
 21
680.6898510264327
 31
0.0
  0
LINE
  5
1AC6
330
116F
100
AcDbEntity
  8
Dim
100
AcDbLine
 10
174.0789842812172
 20
736.6898510264327
 30
0.0
 11
174.0789842812172
 21
682.6898510264327
 31
0.0
  0
SOLID
  5
1AC7
330
116F
100
AcDbEntity
  8
Dim
100
AcDbTrace
 10
173.7456509478839
 20
736.6898510264327
 30
0.0
 11
174.4123176145506
 21
736.6898510264327
 31
0.0
 12
174.0789842812172
 22
738.6898510264327
 32
0.0
 13
174.0789842812172
 23
738.6898510264327
 33
0.0
  0
SOLID
  5
1AC8
330
116F
100
AcDbEntity
  8
Dim
100
AcDbTrace
 10
173.7456509478839
 20
682.6898510264327
 30
0.0
 11
174.4123176145506
 21
682.6898510264327
 31
0.0
 12
174.0789842812172
 22
680.6898510264327
 32
0.0
 13
174.0789842812172
 23
680.6898510264327
 33
0.0
  0
MTEXT
  5
1AC9
330
116F
100
AcDbEntity
  8
Dim
100
AcDbMText
 10
171.8289842812171
 20
709.6898510264327
 30
0.0
 40
2.5
 41
0.0
 71
     5
 72
     1
  1
\A1;58
  7
China
 11
0.0000000000000001
 21
1.0
 31
0.0
 73
     1
 44
1.0
1001
ACAD
1000
MTEXTBEGIN
1070
    73
1070
     1
1070
    44
1040
1.0
1070
    74
1070
     0
1000
MTEXTEND
  0
POINT
  5
1ACA
330
116F
100
AcDbEntity
  8
Defpoints
 62
     0
100
AcDbPoint
 10
199.2149842812172
 20
738.6898510264327
 30
0.0
  0
POINT
  5
1ACB
330
116F
100
AcDbEntity
  8
Defpoints
 62
     0
100
AcDbPoint
 10
202.0789842812172
 20
680.6898510264327
 30
0.0
  0
POINT
  5
1ACC
330
116F
100
AcDbEntity
  8
Defpoints
 62
     0
100
AcDbPoint
 10
174.0789842812172
 20
680.6898510264327
 30
0.0
  0
ENDBLK
  5
1179
330
116F
100
AcDbEntity
  8
0
100
AcDbBlockEnd
  0
BLOCK
  5
1184
330
117A
100
AcDbEntity
  8
0
100
AcDbBlockBegin
  2
*D32
 70
     1
 10
0.0
 20
0.0
 30
0.0
  3
*D32
  1

  0
LINE
  5
1ACD
330
117A
100
AcDbEntity
  8
Dim
100
AcDbLine
 10
219.1449842812172
 20
597.8648547914126
 30
0.0
 11
175.0789842812172
 21
597.8648547914126
 31
0.0
  0
LINE
  5
1ACE
330
117A
100
AcDbEntity
  8
Dim
100
AcDbLine
 10
222.0789842812172
 20
559.8648547914126
 30
0.0
 11
175.0789842812172
 21
559.8648547914126
 31
0.0
  0
LINE
  5
1ACF
330
117A
100
AcDbEntity
  8
Dim
100
AcDbLine
 10
176.0789842812172
 20
595.8648547914126
 30
0.0
 11
176.0789842812172
 21
561.8648547914126
 31
0.0
  0
SOLID
  5
1AD0
330
117A
100
AcDbEntity
  8
Dim
100
AcDbTrace
 10
175.7456509478839
 20
595.8648547914126
 30
0.0
 11
176.4123176145506
 21
595.8648547914126
 31
0.0
 12
176.0789842812172
 22
597.8648547914126
 32
0.0
 13
176.0789842812172
 23
597.8648547914126
 33
0.0
  0
SOLID
  5
1AD1
330
117A
100
AcDbEntity
  8
Dim
100
AcDbTrace
 10
175.7456509478839
 20
561.8648547914126
 30
0.0
 11
176.4123176145506
 21
561.8648547914126
 31
0.0
 12
176.0789842812172
 22
559.8648547914126
 32
0.0
 13
176.0789842812172
 23
559.8648547914126
 33
0.0
  0
MTEXT
  5
1AD2
330
117A
100
AcDbEntity
  8
Dim
100
AcDbMText
 10
173.8289842812171
 20
578.8648547914126
 30
0.0
 40
2.5
 41
0.0
 71
     5
 72
     1
  1
\A1;38
  7
China
 11
0.0000000000000001
 21
1.0
 31
0.0
 73
     1
 44
1.0
1001
ACAD
1000
MTEXTBEGIN
1070
    73
1070
     1
1070
    44
1040
1.0
1070
    74
1070
     0
1000
MTEXTEND
  0
POINT
  5
1AD3
330
117A
100
AcDbEntity
  8
Defpoints
 62
     0
100
AcDbPoint
 10
220.1449842812173
 20
597.8648547914126
 30
0.0
  0
POINT
  5
1AD4
330
117A
100
AcDbEntity
  8
Defpoints
 62
     0
100
AcDbPoint
 10
223.0789842812172
 20
559.8648547914126
 30
0.0
  0
POINT
  5
1AD5
330
117A
100
AcDbEntity
  8
Defpoints
 62
     0
100
AcDbPoint
 10
176.0789842812172
 20
559.8648547914126
 30
0.0
  0
ENDBLK
  5
1185
330
117A
100
AcDbEntity
  8
0
100
AcDbBlockEnd
  0
BLOCK
  5
1190
330
1186
100
AcDbEntity
  8
0
100
AcDbBlockBegin
  2
*D33
 70
     1
 10
0.0
 20
0.0
 30
0.0
  3
*D33
  1

  0
LINE
  5
1AD6
330
1186
100
AcDbEntity
  8
Dim
100
AcDbLine
 10
187.0789842812172
 20
608.3648547914126
 30
0.0
 11
167.0789842812172
 21
608.3648547914126
 31
0.0
  0
LINE
  5
1AD7
330
1186
100
AcDbEntity
  8
Dim
100
AcDbLine
 10
187.0789842812172
 20
549.3648547914126
 30
0.0
 11
167.0789842812172
 21
549.3648547914126
 31
0.0
  0
LINE
  5
1AD8
330
1186
100
AcDbEntity
  8
Dim
100
AcDbLine
 10
168.0789842812172
 20
606.3648547914127
 30
0.0
 11
168.0789842812172
 21
551.3648547914126
 31
0.0
  0
SOLID
  5
1AD9
330
1186
100
AcDbEntity
  8
Dim
100
AcDbTrace
 10
167.7456509478839
 20
606.3648547914127
 30
0.0
 11
168.4123176145506
 21
606.3648547914127
 31
0.0
 12
168.0789842812172
 22
608.3648547914126
 32
0.0
 13
168.0789842812172
 23
608.3648547914126
 33
0.0
  0
SOLID
  5
1ADA
330
1186
100
AcDbEntity
  8
Dim
100
AcDbTrace
 10
167.7456509478839
 20
551.3648547914126
 30
0.0
 11
168.4123176145505
 21
551.3648547914126
 31
0.0
 12
168.0789842812172
 22
549.3648547914126
 32
0.0
 13
168.0789842812172
 23
549.3648547914126
 33
0.0
  0
MTEXT
  5
1ADB
330
1186
100
AcDbEntity
  8
Dim
100
AcDbMText
 10
165.8289842812171
 20
578.8648547914126
 30
0.0
 40
2.5
 41
0.0
 71
     5
 72
     1
  1
\A1;59
  7
China
 11
0.0000000000000001
 21
1.0
 31
0.0
 73
     1
 44
1.0
1001
ACAD
1000
MTEXTBEGIN
1070
    73
1070
     1
1070
    44
1040
1.0
1070
    74
1070
     0
1000
MTEXTEND
  0
POINT
  5
1ADC
330
1186
100
AcDbEntity
  8
Defpoints
 62
     0
100
AcDbPoint
 10
188.0789842812172
 20
608.3648547914126
 30
0.0
  0
POINT
  5
1ADD
330
1186
100
AcDbEntity
  8
Defpoints
 62
     0
100
AcDbPoint
 10
188.0789842812172
 20
549.3648547914126
 30
0.0
  0
POINT
  5
1ADE
330
1186
100
AcDbEntity
  8
Defpoints
 62
     0
100
AcDbPoint
 10
168.0789842812172
 20
549.3648547914126
 30
0.0
  0
ENDBLK
  5
1191
330
1186
100
AcDbEntity
  8
0
100
AcDbBlockEnd
  0
BLOCK
  5
119C
330
1192
100
AcDbEntity
  8
0
100
AcDbBlockBegin
  2
*D34
 70
     1
 10
0.0
 20
0.0
 30
0.0
  3
*D34
  1

  0
LINE
  5
1ADF
330
1192
100
AcDbEntity
  8
Dim
100
AcDbLine
 10
203.1339842812172
 20
615.3648547914126
 30
0.0
 11
159.0789842812172
 21
615.3648547914126
 31
0.0
  0
LINE
  5
1AE0
330
1192
100
AcDbEntity
  8
Dim
100
AcDbLine
 10
203.2219842812172
 20
542.3648547914126
 30
0.0
 11
159.0789842812172
 21
542.3648547914126
 31
0.0
  0
LINE
  5
1AE1
330
1192
100
AcDbEntity
  8
Dim
100
AcDbLine
 10
160.0789842812172
 20
613.3648547914126
 30
0.0
 11
160.0789842812172
 21
544.3648547914127
 31
0.0
  0
SOLID
  5
1AE2
330
1192
100
AcDbEntity
  8
Dim
100
AcDbTrace
 10
159.7456509478839
 20
613.3648547914126
 30
0.0
 11
160.4123176145506
 21
613.3648547914126
 31
0.0
 12
160.0789842812172
 22
615.3648547914126
 32
0.0
 13
160.0789842812172
 23
615.3648547914126
 33
0.0
  0
SOLID
  5
1AE3
330
1192
100
AcDbEntity
  8
Dim
100
AcDbTrace
 10
159.7456509478839
 20
544.3648547914127
 30
0.0
 11
160.4123176145505
 21
544.3648547914127
 31
0.0
 12
160.0789842812172
 22
542.3648547914126
 32
0.0
 13
160.0789842812172
 23
542.3648547914126
 33
0.0
  0
MTEXT
  5
1AE4
330
1192
100
AcDbEntity
  8
Dim
100
AcDbMText
 10
157.8289842812171
 20
578.8648547914126
 30
0.0
 40
2.5
 41
0.0
 71
     5
 72
     1
  1
\A1;73
  7
China
 11
0.0000000000000001
 21
1.0
 31
0.0
 73
     1
 44
1.0
1001
ACAD
1000
MTEXTBEGIN
1070
    73
1070
     1
1070
    44
1040
1.0
1070
    74
1070
     0
1000
MTEXTEND
  0
POINT
  5
1AE5
330
1192
100
AcDbEntity
  8
Defpoints
 62
     0
100
AcDbPoint
 10
204.1339842812172
 20
615.3648547914126
 30
0.0
  0
POINT
  5
1AE6
330
1192
100
AcDbEntity
  8
Defpoints
 62
     0
100
AcDbPoint
 10
204.2219842812173
 20
542.3648547914126
 30
0.0
  0
POINT
  5
1AE7
330
1192
100
AcDbEntity
  8
Defpoints
 62
     0
100
AcDbPoint
 10
160.0789842812172
 20
542.3648547914126
 30
0.0
  0
ENDBLK
  5
119D
330
1192
100
AcDbEntity
  8
0
100
AcDbBlockEnd
  0
BLOCK
  5
11A8
330
119E
100
AcDbEntity
  8
0
100
AcDbBlockBegin
  2
*D35
 70
     1
 10
0.0
 20
0.0
 30
0.0
  3
*D35
  1

  0
LINE
  5
1AE8
330
119E
100
AcDbEntity
  8
Dim
100
AcDbLine
 10
206.0789842812172
 20
679.6898510264327
 30
0.0
 11
206.0789842812172
 21
667.6898510264327
 31
0.0
  0
LINE
  5
1AE9
330
119E
100
AcDbEntity
  8
Dim
100
AcDbLine
 10
250.0789842812172
 20
679.6898510264327
 30
0.0
 11
250.0789842812172
 21
667.6898510264327
 31
0.0
  0
LINE
  5
1AEA
330
119E
100
AcDbEntity
  8
Dim
100
AcDbLine
 10
208.0789842812172
 20
668.6898510264327
 30
0.0
 11
248.0789842812172
 21
668.6898510264327
 31
0.0
  0
SOLID
  5
1AEB
330
119E
100
AcDbEntity
  8
Dim
100
AcDbTrace
 10
208.0789842812172
 20
669.023184359766
 30
0.0
 11
208.0789842812172
 21
668.3565176930994
 31
0.0
 12
206.0789842812172
 22
668.6898510264327
 32
0.0
 13
206.0789842812172
 23
668.6898510264327
 33
0.0
  0
SOLID
  5
1AEC
330
119E
100
AcDbEntity
  8
Dim
100
AcDbTrace
 10
248.0789842812172
 20
669.023184359766
 30
0.0
 11
248.0789842812172
 21
668.3565176930994
 31
0.0
 12
250.0789842812172
 22
668.6898510264327
 32
0.0
 13
250.0789842812172
 23
668.6898510264327
 33
0.0
  0
MTEXT
  5
1AED
330
119E
100
AcDbEntity
  8
Dim
100
AcDbMText
 10
228.0789842812172
 20
671.7606843597661
 30
0.0
 40
2.5
 41
0.0
 71
     5
 72
     1
  1
\A1;44{}{\H0.71x;\C3;\S+0.40^ +0.10;}
  7
China
 73
     1
 44
1.0
1001
ACAD
1000
MTEXTBEGIN
1070
    73
1070
     1
1070
    44
1040
1.0
1070
    74
1070
     0
1000
MTEXTEND
  0
POINT
  5
1AEE
330
119E
100
AcDbEntity
  8
Defpoints
 62
     0
100
AcDbPoint
 10
206.0789842812172
 20
680.6898510264327
 30
0.0
  0
POINT
  5
1AEF
330
119E
100
AcDbEntity
  8
Defpoints
 62
     0
100
AcDbPoint
 10
250.0789842812172
 20
680.6898510264327
 30
0.0
  0
POINT
  5
1AF0
330
119E
100
AcDbEntity
  8
Defpoints
 62
     0
100
AcDbPoint
 10
250.0789842812172
 20
668.6898510264327
 30
0.0
  0
ENDBLK
  5
11A9
330
119E
100
AcDbEntity
  8
0
100
AcDbBlockEnd
  0
BLOCK
  5
11B4
330
11AA
100
AcDbEntity
  8
0
100
AcDbBlockBegin
  2
*D36
 70
     1
 10
0.0
 20
0.0
 30
0.0
  3
*D36
  1

  0
LINE
  5
1AF1
330
11AA
100
AcDbEntity
  8
Dim
100
AcDbLine
 10
202.0789842812172
 20
679.6898510264327
 30
0.0
 11
202.0789842812172
 21
659.6898510264327
 31
0.0
  0
LINE
  5
1AF2
330
11AA
100
AcDbEntity
  8
Dim
100
AcDbLine
 10
254.0789842812172
 20
679.6898510264327
 30
0.0
 11
254.0789842812172
 21
659.6898510264327
 31
0.0
  0
LINE
  5
1AF3
330
11AA
100
AcDbEntity
  8
Dim
100
AcDbLine
 10
204.0789842812172
 20
660.6898510264327
 30
0.0
 11
252.0789842812172
 21
660.6898510264327
 31
0.0
  0
SOLID
  5
1AF4
330
11AA
100
AcDbEntity
  8
Dim
100
AcDbTrace
 10
204.0789842812172
 20
661.023184359766
 30
0.0
 11
204.0789842812172
 21
660.3565176930993
 31
0.0
 12
202.0789842812172
 22
660.6898510264327
 32
0.0
 13
202.0789842812172
 23
660.6898510264327
 33
0.0
  0
SOLID
  5
1AF5
330
11AA
100
AcDbEntity
  8
Dim
100
AcDbTrace
 10
252.0789842812172
 20
661.023184359766
 30
0.0
 11
252.0789842812172
 21
660.3565176930993
 31
0.0
 12
254.0789842812172
 22
660.6898510264327
 32
0.0
 13
254.0789842812172
 23
660.6898510264327
 33
0.0
  0
MTEXT
  5
1AF6
330
11AA
100
AcDbEntity
  8
Dim
100
AcDbMText
 10
228.0789842812172
 20
662.9398510264327
 30
0.0
 40
2.5
 41
0.0
 71
     5
 72
     1
  1
\A1;52
  7
China
 73
     1
 44
1.0
1001
ACAD
1000
MTEXTBEGIN
1070
    73
1070
     1
1070
    44
1040
1.0
1070
    74
1070
     0
1000
MTEXTEND
  0
POINT
  5
1AF7
330
11AA
100
AcDbEntity
  8
Defpoints
 62
     0
100
AcDbPoint
 10
202.0789842812172
 20
680.6898510264327
 30
0.0
  0
POINT
  5
1AF8
330
11AA
100
AcDbEntity
  8
Defpoints
 62
     0
100
AcDbPoint
 10
254.0789842812172
 20
680.6898510264327
 30
0.0
  0
POINT
  5
1AF9
330
11AA
100
AcDbEntity
  8
Defpoints
 62
     0
100
AcDbPoint
 10
254.0789842812172
 20
660.6898510264327
 30
0.0
  0
ENDBLK
  5
11B5
330
11AA
100
AcDbEntity
  8
0
100
AcDbBlockEnd
  0
BLOCK
  5
11C2
330
11B6
100
AcDbEntity
  8
0
100
AcDbBlockBegin
  2
*D37
 70
     1
 10
0.0
 20
0.0
 30
0.0
  3
*D37
  1

  0
LINE
  5
1AFA
330
11B6
100
AcDbEntity
  8
Dim
100
AcDbLine
 10
201.0789842812172
 20
680.6898510264327
 30
0.0
 11
189.0789842812172
 21
680.6898510264327
 31
0.0
  0
LINE
  5
1AFB
330
11B6
100
AcDbEntity
  8
Dim
100
AcDbLine
 10
205.0789842812172
 20
684.6898510264327
 30
0.0
 11
189.0789842812172
 21
684.6898510264327
 31
0.0
  0
LINE
  5
1AFC
330
11B6
100
AcDbEntity
  8
Dim
100
AcDbLine
 10
190.0789842812172
 20
678.6898510264327
 30
0.0
 11
190.0789842812172
 21
676.6898510264327
 31
0.0
  0
LINE
  5
1AFD
330
11B6
100
AcDbEntity
  8
Dim
100
AcDbLine
 10
190.0789842812172
 20
686.6898510264327
 30
0.0
 11
190.0789842812172
 21
688.6898510264327
 31
0.0
  0
LINE
  5
1AFE
330
11B6
100
AcDbEntity
  8
Dim
100
AcDbLine
 10
190.0789842812172
 20
680.6898510264327
 30
0.0
 11
190.0789842812172
 21
684.6898510264327
 31
0.0
  0
SOLID
  5
1AFF
330
11B6
100
AcDbEntity
  8
Dim
100
AcDbTrace
 10
189.7456509478839
 20
678.6898510264327
 30
0.0
 11
190.4123176145505
 21
678.6898510264327
 31
0.0
 12
190.0789842812172
 22
680.6898510264327
 32
0.0
 13
190.0789842812172
 23
680.6898510264327
 33
0.0
  0
SOLID
  5
1B00
330
11B6
100
AcDbEntity
  8
Dim
100
AcDbTrace
 10
189.7456509478839
 20
686.6898510264327
 30
0.0
 11
190.4123176145505
 21
686.6898510264327
 31
0.0
 12
190.0789842812172
 22
684.6898510264327
 32
0.0
 13
190.0789842812172
 23
684.6898510264327
 33
0.0
  0
MTEXT
  5
1B01
330
11B6
100
AcDbEntity
  8
Dim
100
AcDbMText
 10
187.8289842812171
 20
682.6898510264327
 30
0.0
 40
2.5
 41
0.0
 71
     5
 72
     1
  1
\A1;4
  7
China
 11
0.0000000000000001
 21
1.0
 31
0.0
 73
     1
 44
1.0
1001
ACAD
1000
MTEXTBEGIN
1070
    73
1070
     1
1070
    44
1040
1.0
1070
    74
1070
     0
1000
MTEXTEND
  0
POINT
  5
1B02
330
11B6
100
AcDbEntity
  8
Defpoints
 62
     0
100
AcDbPoint
 10
202.0789842812172
 20
680.6898510264327
 30
0.0
  0
POINT
  5
1B03
330
11B6
100
AcDbEntity
  8
Defpoints
 62
     0
100
AcDbPoint
 10
206.0789842812172
 20
684.6898510264327
 30
0.0
  0
POINT
  5
1B04
330
11B6
100
AcDbEntity
  8
Defpoints
 62
     0
100
AcDbPoint
 10
190.0789842812172
 20
684.6898510264327
 30
0.0
  0
ENDBLK
  5
11C3
330
11B6
100
AcDbEntity
  8
0
100
AcDbBlockEnd
  0
BLOCK
  5
11CE
330
11C4
100
AcDbEntity
  8
0
100
AcDbBlockBegin
  2
*D38
 70
     1
 10
0.0
 20
0.0
 30
0.0
  3
*D38
  1

  0
LINE
  5
1B05
330
11C4
100
AcDbEntity
  8
Dim
100
AcDbLine
 10
195.6099395184545
 20
680.6898510264327
 30
0.0
 11
181.0789842812172
 21
680.6898510264327
 31
0.0
  0
LINE
  5
1B06
330
11C4
100
AcDbEntity
  8
Dim
100
AcDbLine
 10
201.0789842812172
 20
697.6898510264327
 30
0.0
 11
181.0789842812172
 21
697.6898510264327
 31
0.0
  0
LINE
  5
1B07
330
11C4
100
AcDbEntity
  8
Dim
100
AcDbLine
 10
182.0789842812172
 20
682.6898510264327
 30
0.0
 11
182.0789842812172
 21
695.6898510264327
 31
0.0
  0
SOLID
  5
1B08
330
11C4
100
AcDbEntity
  8
Dim
100
AcDbTrace
 10
181.7456509478839
 20
682.6898510264327
 30
0.0
 11
182.4123176145505
 21
682.6898510264327
 31
0.0
 12
182.0789842812172
 22
680.6898510264327
 32
0.0
 13
182.0789842812172
 23
680.6898510264327
 33
0.0
  0
SOLID
  5
1B09
330
11C4
100
AcDbEntity
  8
Dim
100
AcDbTrace
 10
181.7456509478839
 20
695.6898510264327
 30
0.0
 11
182.4123176145505
 21
695.6898510264327
 31
0.0
 12
182.0789842812172
 22
697.6898510264327
 32
0.0
 13
182.0789842812172
 23
697.6898510264327
 33
0.0
  0
MTEXT
  5
1B0A
330
11C4
100
AcDbEntity
  8
Dim
100
AcDbMText
 10
179.8289842812171
 20
689.1898510264327
 30
0.0
 40
2.5
 41
0.0
 71
     5
 72
     1
  1
\A1;17
  7
China
 11
0.0000000000000001
 21
1.0
 31
0.0
 73
     1
 44
1.0
1001
ACAD
1000
MTEXTBEGIN
1070
    73
1070
     1
1070
    44
1040
1.0
1070
    74
1070
     0
1000
MTEXTEND
  0
POINT
  5
1B0B
330
11C4
100
AcDbEntity
  8
Defpoints
 62
     0
100
AcDbPoint
 10
196.6099395184545
 20
680.6898510264327
 30
0.0
  0
POINT
  5
1B0C
330
11C4
100
AcDbEntity
  8
Defpoints
 62
     0
100
AcDbPoint
 10
202.0789842812172
 20
697.6898510264327
 30
0.0
  0
POINT
  5
1B0D
330
11C4
100
AcDbEntity
  8
Defpoints
 62
     0
100
AcDbPoint
 10
182.0789842812172
 20
697.6898510264327
 30
0.0
  0
ENDBLK
  5
11CF
330
11C4
100
AcDbEntity
  8
0
100
AcDbBlockEnd
  0
BLOCK
  5
11DA
330
11D0
100
AcDbEntity
  8
0
100
AcDbBlockBegin
  2
*D39
 70
     1
 10
0.0
 20
0.0
 30
0.0
  3
*D39
  1

  0
LINE
  5
1B0E
330
11D0
100
AcDbEntity
  8
Dim
100
AcDbLine
 10
199.3089842812172
 20
794.6898510264327
 30
0.0
 11
173.0789842812172
 21
794.6898510264327
 31
0.0
  0
LINE
  5
1B0F
330
11D0
100
AcDbEntity
  8
Dim
100
AcDbLine
 10
198.2149842812172
 20
738.6898510264327
 30
0.0
 11
173.0789842812172
 21
738.6898510264327
 31
0.0
  0
LINE
  5
1B10
330
11D0
100
AcDbEntity
  8
Dim
100
AcDbLine
 10
174.0789842812172
 20
792.6898510264327
 30
0.0
 11
174.0789842812172
 21
740.6898510264327
 31
0.0
  0
SOLID
  5
1B11
330
11D0
100
AcDbEntity
  8
Dim
100
AcDbTrace
 10
173.7456509478839
 20
792.6898510264327
 30
0.0
 11
174.4123176145506
 21
792.6898510264327
 31
0.0
 12
174.0789842812172
 22
794.6898510264327
 32
0.0
 13
174.0789842812172
 23
794.6898510264327
 33
0.0
  0
SOLID
  5
1B12
330
11D0
100
AcDbEntity
  8
Dim
100
AcDbTrace
 10
173.7456509478839
 20
740.6898510264327
 30
0.0
 11
174.4123176145506
 21
740.6898510264327
 31
0.0
 12
174.0789842812172
 22
738.6898510264327
 32
0.0
 13
174.0789842812172
 23
738.6898510264327
 33
0.0
  0
MTEXT
  5
1B13
330
11D0
100
AcDbEntity
  8
Dim
100
AcDbMText
 10
171.8289842812171
 20
766.6898510264327
 30
0.0
 40
2.5
 41
0.0
 71
     5
 72
     1
  1
\A1;56
  7
China
 11
0.0000000000000001
 21
1.0
 31
0.0
 73
     1
 44
1.0
1001
ACAD
1000
MTEXTBEGIN
1070
    73
1070
     1
1070
    44
1040
1.0
1070
    74
1070
     0
1000
MTEXTEND
  0
POINT
  5
1B14
330
11D0
100
AcDbEntity
  8
Defpoints
 62
     0
100
AcDbPoint
 10
200.3089842812173
 20
794.6898510264327
 30
0.0
  0
POINT
  5
1B15
330
11D0
100
AcDbEntity
  8
Defpoints
 62
     0
100
AcDbPoint
 10
199.2149842812172
 20
738.6898510264327
 30
0.0
  0
POINT
  5
1B16
330
11D0
100
AcDbEntity
  8
Defpoints
 62
     0
100
AcDbPoint
 10
174.0789842812172
 20
738.6898510264327
 30
0.0
  0
ENDBLK
  5
11DB
330
11D0
100
AcDbEntity
  8
0
100
AcDbBlockEnd
  0
BLOCK
  5
11E6
330
11DC
100
AcDbEntity
  8
0
100
AcDbBlockBegin
  2
*D40
 70
     1
 10
0.0
 20
0.0
 30
0.0
  3
*D40
  1

  0
LINE
  5
1B17
330
11DC
100
AcDbEntity
  8
Dim
100
AcDbLine
 10
325.0789842812172
 20
822.6898510264327
 30
0.0
 11
345.0789842812172
 21
822.6898510264327
 31
0.0
  0
LINE
  5
1B18
330
11DC
100
AcDbEntity
  8
Dim
100
AcDbLine
 10
325.0789842812172
 20
710.6898510264327
 30
0.0
 11
345.0789842812172
 21
710.6898510264327
 31
0.0
  0
LINE
  5
1B19
330
11DC
100
AcDbEntity
  8
Dim
100
AcDbLine
 10
344.0789842812173
 20
820.6898510264327
 30
0.0
 11
344.0789842812173
 21
712.6898510264327
 31
0.0
  0
SOLID
  5
1B1A
330
11DC
100
AcDbEntity
  8
Dim
100
AcDbTrace
 10
343.7456509478839
 20
820.6898510264327
 30
0.0
 11
344.4123176145506
 21
820.6898510264327
 31
0.0
 12
344.0789842812173
 22
822.6898510264327
 32
0.0
 13
344.0789842812173
 23
822.6898510264327
 33
0.0
  0
SOLID
  5
1B1B
330
11DC
100
AcDbEntity
  8
Dim
100
AcDbTrace
 10
343.7456509478839
 20
712.6898510264327
 30
0.0
 11
344.4123176145506
 21
712.6898510264327
 31
0.0
 12
344.0789842812173
 22
710.6898510264327
 32
0.0
 13
344.0789842812173
 23
710.6898510264327
 33
0.0
  0
MTEXT
  5
1B1C
330
11DC
100
AcDbEntity
  8
Dim
100
AcDbMText
 10
341.8289842812171
 20
766.6898510264328
 30
0.0
 40
2.5
 41
0.0
 71
     5
 72
     1
  1
\A1;112
  7
China
 11
0.0000000000000001
 21
1.0
 31
0.0
 73
     1
 44
1.0
1001
ACAD
1000
MTEXTBEGIN
1070
    73
1070
     1
1070
    44
1040
1.0
1070
    74
1070
     0
1000
MTEXTEND
  0
POINT
  5
1B1D
330
11DC
100
AcDbEntity
  8
Defpoints
 62
     0
100
AcDbPoint
 10
324.0789842812172
 20
822.6898510264327
 30
0.0
  0
POINT
  5
1B1E
330
11DC
100
AcDbEntity
  8
Defpoints
 62
     0
100
AcDbPoint
 10
324.0789842812172
 20
710.6898510264327
 30
0.0
  0
POINT
  5
1B1F
330
11DC
100
AcDbEntity
  8
Defpoints
 62
     0
100
AcDbPoint
 10
344.0789842812173
 20
710.6898510264327
 30
0.0
  0
ENDBLK
  5
11E7
330
11DC
100
AcDbEntity
  8
0
100
AcDbBlockEnd
  0
BLOCK
  5
11F2
330
11E8
100
AcDbEntity
  8
0
100
AcDbBlockBegin
  2
*D41
 70
     1
 10
0.0
 20
0.0
 30
0.0
  3
*D41
  1

  0
LINE
  5
1B20
330
11E8
100
AcDbEntity
  8
Dim
100
AcDbLine
 10
455.8941674814754
 20
718.9628510264327
 30
0.0
 11
455.8941674814754
 21
663.0610303881544
 31
0.0
  0
LINE
  5
1B21
330
11E8
100
AcDbEntity
  8
Dim
100
AcDbLine
 10
495.8941674814753
 20
799.0048510264328
 30
0.0
 11
495.8941674814753
 21
663.0610303881544
 31
0.0
  0
LINE
  5
1B22
330
11E8
100
AcDbEntity
  8
Dim
100
AcDbLine
 10
457.8941674814753
 20
664.0610303881544
 30
0.0
 11
493.8941674814754
 21
664.0610303881544
 31
0.0
  0
SOLID
  5
1B23
330
11E8
100
AcDbEntity
  8
Dim
100
AcDbTrace
 10
457.8941674814753
 20
664.3943637214878
 30
0.0
 11
457.8941674814753
 21
663.727697054821
 31
0.0
 12
455.8941674814754
 22
664.0610303881544
 32
0.0
 13
455.8941674814754
 23
664.0610303881544
 33
0.0
  0
SOLID
  5
1B24
330
11E8
100
AcDbEntity
  8
Dim
100
AcDbTrace
 10
493.8941674814754
 20
664.3943637214878
 30
0.0
 11
493.8941674814754
 21
663.727697054821
 31
0.0
 12
495.8941674814753
 22
664.0610303881544
 32
0.0
 13
495.8941674814753
 23
664.0610303881544
 33
0.0
  0
MTEXT
  5
1B25
330
11E8
100
AcDbEntity
  8
Dim
100
AcDbMText
 10
475.8941674814754
 20
666.3110303881544
 30
0.0
 40
2.5
 41
0.0
 71
     5
 72
     1
  1
\A1;40
  7
China
 73
     1
 44
1.0
1001
ACAD
1000
MTEXTBEGIN
1070
    73
1070
     1
1070
    44
1040
1.0
1070
    74
1070
     0
1000
MTEXTEND
  0
POINT
  5
1B26
330
11E8
100
AcDbEntity
  8
Defpoints
 62
     0
100
AcDbPoint
 10
455.8941674814754
 20
719.9628510264327
 30
0.0
  0
POINT
  5
1B27
330
11E8
100
AcDbEntity
  8
Defpoints
 62
     0
100
AcDbPoint
 10
495.8941674814753
 20
800.0048510264328
 30
0.0
  0
POINT
  5
1B28
330
11E8
100
AcDbEntity
  8
Defpoints
 62
     0
100
AcDbPoint
 10
495.8941674814753
 20
664.0610303881544
 30
0.0
  0
ENDBLK
  5
11F3
330
11E8
100
AcDbEntity
  8
0
100
AcDbBlockEnd
  0
BLOCK
  5
11FE
330
11F4
100
AcDbEntity
  8
0
100
AcDbBlockBegin
  2
*D42
 70
     1
 10
0.0
 20
0.0
 30
0.0
  3
*D42
  1

  0
LINE
  5
1B29
330
11F4
100
AcDbEntity
  8
Dim
100
AcDbLine
 10
274.9199842812172
 20
593.8648547914126
 30
0.0
 11
337.0789842812172
 21
593.8648547914126
 31
0.0
  0
LINE
  5
1B2A
330
11F4
100
AcDbEntity
  8
Dim
100
AcDbLine
 10
321.3149842812172
 20
563.8648547914126
 30
0.0
 11
337.0789842812172
 21
563.8648547914126
 31
0.0
  0
LINE
  5
1B2B
330
11F4
100
AcDbEntity
  8
Dim
100
AcDbLine
 10
336.0789842812172
 20
591.8648547914126
 30
0.0
 11
336.0789842812172
 21
565.8648547914126
 31
0.0
  0
SOLID
  5
1B2C
330
11F4
100
AcDbEntity
  8
Dim
100
AcDbTrace
 10
335.7456509478839
 20
591.8648547914126
 30
0.0
 11
336.4123176145505
 21
591.8648547914126
 31
0.0
 12
336.0789842812172
 22
593.8648547914126
 32
0.0
 13
336.0789842812172
 23
593.8648547914126
 33
0.0
  0
SOLID
  5
1B2D
330
11F4
100
AcDbEntity
  8
Dim
100
AcDbTrace
 10
335.7456509478839
 20
565.8648547914126
 30
0.0
 11
336.4123176145505
 21
565.8648547914126
 31
0.0
 12
336.0789842812172
 22
563.8648547914126
 32
0.0
 13
336.0789842812172
 23
563.8648547914126
 33
0.0
  0
MTEXT
  5
1B2E
330
11F4
100
AcDbEntity
  8
Dim
100
AcDbMText
 10
333.8289842812172
 20
578.8648547914127
 30
0.0
 40
2.5
 41
0.0
 71
     5
 72
     1
  1
\A1;30
  7
China
 11
0.0000000000000001
 21
1.0
 31
0.0
 73
     1
 44
1.0
1001
ACAD
1000
MTEXTBEGIN
1070
    73
1070
     1
1070
    44
1040
1.0
1070
    74
1070
     0
1000
MTEXTEND
  0
POINT
  5
1B2F
330
11F4
100
AcDbEntity
  8
Defpoints
 62
     0
100
AcDbPoint
 10
273.9199842812173
 20
593.8648547914126
 30
0.0
  0
POINT
  5
1B30
330
11F4
100
AcDbEntity
  8
Defpoints
 62
     0
100
AcDbPoint
 10
320.3149842812172
 20
563.8648547914126
 30
0.0
  0
POINT
  5
1B31
330
11F4
100
AcDbEntity
  8
Defpoints
 62
     0
100
AcDbPoint
 10
336.0789842812172
 20
563.8648547914126
 30
0.0
  0
ENDBLK
  5
11FF
330
11F4
100
AcDbEntity
  8
0
100
AcDbBlockEnd
  0
BLOCK
  5
120A
330
1200
100
AcDbEntity
  8
0
100
AcDbBlockBegin
  2
*D43
 70
     1
 10
0.0
 20
0.0
 30
0.0
  3
*D43
  1

  0
LINE
  5
1B32
330
1200
100
AcDbEntity
  8
Dim
100
AcDbLine
 10
748.7368745701478
 20
849.6898510264326
 30
0.0
 11
748.7368745701478
 21
901.6898510264327
 31
0.0
  0
LINE
  5
1B33
330
1200
100
AcDbEntity
  8
Dim
100
AcDbLine
 10
833.7368745701478
 20
849.6898510264326
 30
0.0
 11
833.7368745701478
 21
901.6898510264327
 31
0.0
  0
LINE
  5
1B34
330
1200
100
AcDbEntity
  8
Dim
100
AcDbLine
 10
750.7368745701478
 20
900.6898510264328
 30
0.0
 11
831.7368745701479
 21
900.6898510264328
 31
0.0
  0
SOLID
  5
1B35
330
1200
100
AcDbEntity
  8
Dim
100
AcDbTrace
 10
750.7368745701478
 20
901.0231843597662
 30
0.0
 11
750.7368745701478
 21
900.3565176930994
 31
0.0
 12
748.7368745701478
 22
900.6898510264328
 32
0.0
 13
748.7368745701478
 23
900.6898510264328
 33
0.0
  0
SOLID
  5
1B36
330
1200
100
AcDbEntity
  8
Dim
100
AcDbTrace
 10
831.7368745701479
 20
901.0231843597662
 30
0.0
 11
831.7368745701479
 21
900.3565176930994
 31
0.0
 12
833.7368745701478
 22
900.6898510264328
 32
0.0
 13
833.7368745701478
 23
900.6898510264328
 33
0.0
  0
MTEXT
  5
1B37
330
1200
100
AcDbEntity
  8
Dim
100
AcDbMText
 10
791.2368745701479
 20
902.9398510264327
 30
0.0
 40
2.5
 41
0.0
 71
     5
 72
     1
  1
\A1;85
  7
China
 73
     1
 44
1.0
1001
ACAD
1000
MTEXTBEGIN
1070
    73
1070
     1
1070
    44
1040
1.0
1070
    74
1070
     0
1000
MTEXTEND
  0
POINT
  5
1B38
330
1200
100
AcDbEntity
  8
Defpoints
 62
     0
100
AcDbPoint
 10
748.7368745701478
 20
848.6898510264326
 30
0.0
  0
POINT
  5
1B39
330
1200
100
AcDbEntity
  8
Defpoints
 62
     0
100
AcDbPoint
 10
833.7368745701478
 20
848.6898510264326
 30
0.0
  0
POINT
  5
1B3A
330
1200
100
AcDbEntity
  8
Defpoints
 62
     0
100
AcDbPoint
 10
833.7368745701478
 20
900.6898510264328
 30
0.0
  0
ENDBLK
  5
120B
330
1200
100
AcDbEntity
  8
0
100
AcDbBlockEnd
  0
BLOCK
  5
1216
330
120C
100
AcDbEntity
  8
0
100
AcDbBlockBegin
  2
*D44
 70
     1
 10
0.0
 20
0.0
 30
0.0
  3
*D44
  1

  0
LINE
  5
1B3B
330
120C
100
AcDbEntity
  8
Dim
100
AcDbLine
 10
762.2368745701479
 20
873.6898510264326
 30
0.0
 11
762.2368745701479
 21
893.6898510264327
 31
0.0
  0
LINE
  5
1B3C
330
120C
100
AcDbEntity
  8
Dim
100
AcDbLine
 10
820.2368745701479
 20
873.6898510264326
 30
0.0
 11
820.2368745701479
 21
893.6898510264327
 31
0.0
  0
LINE
  5
1B3D
330
120C
100
AcDbEntity
  8
Dim
100
AcDbLine
 10
764.2368745701478
 20
892.6898510264328
 30
0.0
 11
818.2368745701477
 21
892.6898510264328
 31
0.0
  0
SOLID
  5
1B3E
330
120C
100
AcDbEntity
  8
Dim
100
AcDbTrace
 10
764.2368745701478
 20
893.0231843597661
 30
0.0
 11
764.2368745701478
 21
892.3565176930994
 31
0.0
 12
762.2368745701479
 22
892.6898510264328
 32
0.0
 13
762.2368745701479
 23
892.6898510264328
 33
0.0
  0
SOLID
  5
1B3F
330
120C
100
AcDbEntity
  8
Dim
100
AcDbTrace
 10
818.2368745701477
 20
893.0231843597661
 30
0.0
 11
818.2368745701477
 21
892.3565176930994
 31
0.0
 12
820.2368745701479
 22
892.6898510264328
 32
0.0
 13
820.2368745701479
 23
892.6898510264328
 33
0.0
  0
MTEXT
  5
1B40
330
120C
100
AcDbEntity
  8
Dim
100
AcDbMText
 10
791.2368745701479
 20
894.9398510264327
 30
0.0
 40
2.5
 41
0.0
 71
     5
 72
     1
  1
\A1;58
  7
China
 73
     1
 44
1.0
1001
ACAD
1000
MTEXTBEGIN
1070
    73
1070
     1
1070
    44
1040
1.0
1070
    74
1070
     0
1000
MTEXTEND
  0
POINT
  5
1B41
330
120C
100
AcDbEntity
  8
Defpoints
 62
     0
100
AcDbPoint
 10
762.2368745701479
 20
872.6898510264327
 30
0.0
  0
POINT
  5
1B42
330
120C
100
AcDbEntity
  8
Defpoints
 62
     0
100
AcDbPoint
 10
820.2368745701479
 20
872.6898510264327
 30
0.0
  0
POINT
  5
1B43
330
120C
100
AcDbEntity
  8
Defpoints
 62
     0
100
AcDbPoint
 10
820.2368745701479
 20
892.6898510264328
 30
0.0
  0
ENDBLK
  5
1217
330
120C
100
AcDbEntity
  8
0
100
AcDbBlockEnd
  0
BLOCK
  5
1221
330
1218
100
AcDbEntity
  8
0
100
AcDbBlockBegin
  2
*D45
 70
     1
 10
0.0
 20
0.0
 30
0.0
  3
*D45
  1

  0
LINE
  5
1B44
330
1218
100
AcDbEntity
  8
Dim
100
AcDbLine
 10
308.0789842812172
 20
530.903590469496
 30
0.0
 11
308.0789842812172
 21
534.8648547914126
 31
0.0
  0
LINE
  5
1B45
330
1218
100
AcDbEntity
  8
Dim
100
AcDbLine
 10
264.0789842812172
 20
581.6418547914127
 30
0.0
 11
264.0789842812172
 21
532.8648547914126
 31
0.0
  0
LINE
  5
1B46
330
1218
100
AcDbEntity
  8
Dim
100
AcDbLine
 10
306.0789842812172
 20
533.8648547914126
 30
0.0
 11
266.0789842812172
 21
533.8648547914126
 31
0.0
  0
SOLID
  5
1B47
330
1218
100
AcDbEntity
  8
Dim
100
AcDbTrace
 10
306.0789842812172
 20
534.198188124746
 30
0.0
 11
306.0789842812172
 21
533.5315214580792
 31
0.0
 12
308.0789842812172
 22
533.8648547914126
 32
0.0
 13
308.0789842812172
 23
533.8648547914126
 33
0.0
  0
SOLID
  5
1B48
330
1218
100
AcDbEntity
  8
Dim
100
AcDbTrace
 10
266.0789842812172
 20
534.198188124746
 30
0.0
 11
266.0789842812172
 21
533.5315214580792
 31
0.0
 12
264.0789842812172
 22
533.8648547914126
 32
0.0
 13
264.0789842812172
 23
533.8648547914126
 33
0.0
  0
MTEXT
  5
1B49
330
1218
100
AcDbEntity
  8
Dim
100
AcDbMText
 10
286.0789842812172
 20
536.1148547914126
 30
0.0
 40
2.5
 41
0.0
 71
     5
 72
     1
  1
\A1;44
  7
China
 73
     1
 44
1.0
1001
ACAD
1000
MTEXTBEGIN
1070
    73
1070
     1
1070
    44
1040
1.0
1070
    74
1070
     0
1000
MTEXTEND
  0
POINT
  5
1B4A
330
1218
100
AcDbEntity
  8
Defpoints
 62
     0
100
AcDbPoint
 10
308.0789842812172
 20
529.903590469496
 30
0.0
  0
POINT
  5
1B4B
330
1218
100
AcDbEntity
  8
Defpoints
 62
     0
100
AcDbPoint
 10
264.0789842812172
 20
582.6418547914126
 30
0.0
  0
POINT
  5
1B4C
330
1218
100
AcDbEntity
  8
Defpoints
 62
     0
100
AcDbPoint
 10
264.0789842812172
 20
533.8648547914126
 30
0.0
  0
ENDBLK
  5
1222
330
1218
100
AcDbEntity
  8
0
100
AcDbBlockEnd
  0
BLOCK
  5
122D
330
1223
100
AcDbEntity
  8
0
100
AcDbBlockBegin
  2
*D46
 70
     1
 10
0.0
 20
0.0
 30
0.0
  3
*D46
  1

  0
LINE
  5
1B4D
330
1223
100
AcDbEntity
  8
Dim
100
AcDbLine
 10
308.0789842812172
 20
552.7058547914126
 30
0.0
 11
308.0789842812172
 21
532.8648547914126
 31
0.0
  0
LINE
  5
1B4E
330
1223
100
AcDbEntity
  8
Dim
100
AcDbLine
 10
324.0789842812172
 20
544.8648547914126
 30
0.0
 11
324.0789842812172
 21
532.8648547914126
 31
0.0
  0
LINE
  5
1B4F
330
1223
100
AcDbEntity
  8
Dim
100
AcDbLine
 10
310.0789842812172
 20
533.8648547914126
 30
0.0
 11
322.0789842812172
 21
533.8648547914126
 31
0.0
  0
SOLID
  5
1B50
330
1223
100
AcDbEntity
  8
Dim
100
AcDbTrace
 10
310.0789842812172
 20
534.198188124746
 30
0.0
 11
310.0789842812172
 21
533.5315214580792
 31
0.0
 12
308.0789842812172
 22
533.8648547914126
 32
0.0
 13
308.0789842812172
 23
533.8648547914126
 33
0.0
  0
SOLID
  5
1B51
330
1223
100
AcDbEntity
  8
Dim
100
AcDbTrace
 10
322.0789842812172
 20
534.198188124746
 30
0.0
 11
322.0789842812172
 21
533.5315214580792
 31
0.0
 12
324.0789842812172
 22
533.8648547914126
 32
0.0
 13
324.0789842812172
 23
533.8648547914126
 33
0.0
  0
MTEXT
  5
1B52
330
1223
100
AcDbEntity
  8
Dim
100
AcDbMText
 10
316.0789842812172
 20
536.1148547914126
 30
0.0
 40
2.5
 41
0.0
 71
     5
 72
     1
  1
\A1;16
  7
China
 73
     1
 44
1.0
1001
ACAD
1000
MTEXTBEGIN
1070
    73
1070
     1
1070
    44
1040
1.0
1070
    74
1070
     0
1000
MTEXTEND
  0
POINT
  5
1B53
330
1223
100
AcDbEntity
  8
Defpoints
 62
     0
100
AcDbPoint
 10
308.0789842812172
 20
553.7058547914126
 30
0.0
  0
POINT
  5
1B54
330
1223
100
AcDbEntity
  8
Defpoints
 62
     0
100
AcDbPoint
 10
324.0789842812172
 20
545.8648547914126
 30
0.0
  0
POINT
  5
1B55
330
1223
100
AcDbEntity
  8
Defpoints
 62
     0
100
AcDbPoint
 10
324.0789842812172
 20
533.8648547914126
 30
0.0
  0
ENDBLK
  5
122E
330
1223
100
AcDbEntity
  8
0
100
AcDbBlockEnd
  0
BLOCK
  5
1239
330
122F
100
AcDbEntity
  8
0
100
AcDbBlockBegin
  2
*D47
 70
     1
 10
0.0
 20
0.0
 30
0.0
  3
*D47
  1

  0
LINE
  5
1B56
330
122F
100
AcDbEntity
  8
Dim
100
AcDbLine
 10
776.2368745701478
 20
869.1598510264327
 30
0.0
 11
776.2368745701478
 21
885.6898510264327
 31
0.0
  0
LINE
  5
1B57
330
122F
100
AcDbEntity
  8
Dim
100
AcDbLine
 10
806.2368745701478
 20
869.1598510264327
 30
0.0
 11
806.2368745701478
 21
885.6898510264327
 31
0.0
  0
LINE
  5
1B58
330
122F
100
AcDbEntity
  8
Dim
100
AcDbLine
 10
778.2368745701478
 20
884.6898510264328
 30
0.0
 11
804.2368745701478
 21
884.6898510264328
 31
0.0
  0
SOLID
  5
1B59
330
122F
100
AcDbEntity
  8
Dim
100
AcDbTrace
 10
778.2368745701478
 20
885.0231843597661
 30
0.0
 11
778.2368745701478
 21
884.3565176930994
 31
0.0
 12
776.2368745701478
 22
884.6898510264328
 32
0.0
 13
776.2368745701478
 23
884.6898510264328
 33
0.0
  0
SOLID
  5
1B5A
330
122F
100
AcDbEntity
  8
Dim
100
AcDbTrace
 10
804.2368745701478
 20
885.0231843597661
 30
0.0
 11
804.2368745701478
 21
884.3565176930994
 31
0.0
 12
806.2368745701478
 22
884.6898510264328
 32
0.0
 13
806.2368745701478
 23
884.6898510264328
 33
0.0
  0
MTEXT
  5
1B5B
330
122F
100
AcDbEntity
  8
Dim
100
AcDbMText
 10
791.2368745701479
 20
886.9398510264327
 30
0.0
 40
2.5
 41
0.0
 71
     5
 72
     1
  1
\A1;30
  7
China
 73
     1
 44
1.0
1001
ACAD
1000
MTEXTBEGIN
1070
    73
1070
     1
1070
    44
1040
1.0
1070
    74
1070
     0
1000
MTEXTEND
  0
POINT
  5
1B5C
330
122F
100
AcDbEntity
  8
Defpoints
 62
     0
100
AcDbPoint
 10
776.2368745701478
 20
868.1598510264327
 30
0.0
  0
POINT
  5
1B5D
330
122F
100
AcDbEntity
  8
Defpoints
 62
     0
100
AcDbPoint
 10
806.2368745701478
 20
868.1598510264327
 30
0.0
  0
POINT
  5
1B5E
330
122F
100
AcDbEntity
  8
Defpoints
 62
     0
100
AcDbPoint
 10
806.2368745701478
 20
884.6898510264328
 30
0.0
  0
ENDBLK
  5
123A
330
122F
100
AcDbEntity
  8
0
100
AcDbBlockEnd
  0
BLOCK
  5
1245
330
123B
100
AcDbEntity
  8
0
100
AcDbBlockBegin
  2
*D48
 70
     1
 10
0.0
 20
0.0
 30
0.0
  3
*D48
  1

  0
LINE
  5
1B5F
330
123B
100
AcDbEntity
  8
Dim
100
AcDbLine
 10
442.8941674814754
 20
712.6118510264327
 30
0.0
 11
442.8941674814754
 21
652.0041826679261
 31
0.0
  0
LINE
  5
1B60
330
123B
100
AcDbEntity
  8
Dim
100
AcDbLine
 10
508.8941674814754
 20
712.6118510264327
 30
0.0
 11
508.8941674814754
 21
652.0041826679261
 31
0.0
  0
LINE
  5
1B61
330
123B
100
AcDbEntity
  8
Dim
100
AcDbLine
 10
444.8941674814753
 20
653.0041826679262
 30
0.0
 11
506.8941674814753
 21
653.0041826679262
 31
0.0
  0
SOLID
  5
1B62
330
123B
100
AcDbEntity
  8
Dim
100
AcDbTrace
 10
444.8941674814753
 20
653.3375160012596
 30
0.0
 11
444.8941674814753
 21
652.6708493345928
 31
0.0
 12
442.8941674814754
 22
653.0041826679262
 32
0.0
 13
442.8941674814754
 23
653.0041826679262
 33
0.0
  0
SOLID
  5
1B63
330
123B
100
AcDbEntity
  8
Dim
100
AcDbTrace
 10
506.8941674814753
 20
653.3375160012596
 30
0.0
 11
506.8941674814753
 21
652.6708493345928
 31
0.0
 12
508.8941674814754
 22
653.0041826679262
 32
0.0
 13
508.8941674814754
 23
653.0041826679262
 33
0.0
  0
MTEXT
  5
1B64
330
123B
100
AcDbEntity
  8
Dim
100
AcDbMText
 10
475.8941674814754
 20
655.2541826679262
 30
0.0
 40
2.5
 41
0.0
 71
     5
 72
     1
  1
\A1;66
  7
China
 73
     1
 44
1.0
1001
ACAD
1000
MTEXTBEGIN
1070
    73
1070
     1
1070
    44
1040
1.0
1070
    74
1070
     0
1000
MTEXTEND
  0
POINT
  5
1B65
330
123B
100
AcDbEntity
  8
Defpoints
 62
     0
100
AcDbPoint
 10
442.8941674814754
 20
713.6118510264327
 30
0.0
  0
POINT
  5
1B66
330
123B
100
AcDbEntity
  8
Defpoints
 62
     0
100
AcDbPoint
 10
508.8941674814754
 20
713.6118510264327
 30
0.0
  0
POINT
  5
1B67
330
123B
100
AcDbEntity
  8
Defpoints
 62
     0
100
AcDbPoint
 10
508.8941674814754
 20
653.0041826679262
 30
0.0
  0
ENDBLK
  5
1246
330
123B
100
AcDbEntity
  8
0
100
AcDbBlockEnd
  0
BLOCK
  5
1251
330
1247
100
AcDbEntity
  8
0
100
AcDbBlockBegin
  2
*D49
 70
     1
 10
0.0
 20
0.0
 30
0.0
  3
*D49
  1

  0
LINE
  5
1B68
330
1247
100
AcDbEntity
  8
Dim
100
AcDbLine
 10
283.9779842812172
 20
801.6898510264327
 30
0.0
 11
337.0789842812172
 21
801.6898510264327
 31
0.0
  0
LINE
  5
1B69
330
1247
100
AcDbEntity
  8
Dim
100
AcDbLine
 10
284.9929842812172
 20
731.6898510264327
 30
0.0
 11
337.0789842812172
 21
731.6898510264327
 31
0.0
  0
LINE
  5
1B6A
330
1247
100
AcDbEntity
  8
Dim
100
AcDbLine
 10
336.0789842812172
 20
799.6898510264327
 30
0.0
 11
336.0789842812172
 21
733.6898510264327
 31
0.0
  0
SOLID
  5
1B6B
330
1247
100
AcDbEntity
  8
Dim
100
AcDbTrace
 10
335.7456509478839
 20
799.6898510264327
 30
0.0
 11
336.4123176145505
 21
799.6898510264327
 31
0.0
 12
336.0789842812172
 22
801.6898510264327
 32
0.0
 13
336.0789842812172
 23
801.6898510264327
 33
0.0
  0
SOLID
  5
1B6C
330
1247
100
AcDbEntity
  8
Dim
100
AcDbTrace
 10
335.7456509478839
 20
733.6898510264327
 30
0.0
 11
336.4123176145505
 21
733.6898510264327
 31
0.0
 12
336.0789842812172
 22
731.6898510264327
 32
0.0
 13
336.0789842812172
 23
731.6898510264327
 33
0.0
  0
MTEXT
  5
1B6D
330
1247
100
AcDbEntity
  8
Dim
100
AcDbMText
 10
333.8289842812171
 20
766.6898510264328
 30
0.0
 40
2.5
 41
0.0
 71
     5
 72
     1
  1
\A1;70
  7
China
 11
0.0000000000000001
 21
1.0
 31
0.0
 73
     1
 44
1.0
1001
ACAD
1000
MTEXTBEGIN
1070
    73
1070
     1
1070
    44
1040
1.0
1070
    74
1070
     0
1000
MTEXTEND
  0
POINT
  5
1B6E
330
1247
100
AcDbEntity
  8
Defpoints
 62
     0
100
AcDbPoint
 10
282.9779842812172
 20
801.6898510264327
 30
0.0
  0
POINT
  5
1B6F
330
1247
100
AcDbEntity
  8
Defpoints
 62
     0
100
AcDbPoint
 10
283.9929842812172
 20
731.6898510264327
 30
0.0
  0
POINT
  5
1B70
330
1247
100
AcDbEntity
  8
Defpoints
 62
     0
100
AcDbPoint
 10
336.0789842812172
 20
731.6898510264327
 30
0.0
  0
ENDBLK
  5
1252
330
1247
100
AcDbEntity
  8
0
100
AcDbBlockEnd
  0
BLOCK
  5
125D
330
1253
100
AcDbEntity
  8
0
100
AcDbBlockBegin
  2
*D50
 70
     1
 10
0.0
 20
0.0
 30
0.0
  3
*D50
  1

  0
LINE
  5
1B71
330
1253
100
AcDbEntity
  8
Dim
100
AcDbLine
 10
276.0789842812172
 20
809.9338510264328
 30
0.0
 11
276.0789842812172
 21
850.9825766469752
 31
0.0
  0
LINE
  5
1B72
330
1253
100
AcDbEntity
  8
Dim
100
AcDbLine
 10
324.0789842812172
 20
823.6898510264326
 30
0.0
 11
324.0789842812172
 21
850.9825766469752
 31
0.0
  0
LINE
  5
1B73
330
1253
100
AcDbEntity
  8
Dim
100
AcDbLine
 10
278.0789842812172
 20
849.9825766469752
 30
0.0
 11
322.0789842812172
 21
849.9825766469752
 31
0.0
  0
SOLID
  5
1B74
330
1253
100
AcDbEntity
  8
Dim
100
AcDbTrace
 10
278.0789842812172
 20
850.3159099803086
 30
0.0
 11
278.0789842812172
 21
849.6492433136419
 31
0.0
 12
276.0789842812172
 22
849.9825766469752
 32
0.0
 13
276.0789842812172
 23
849.9825766469752
 33
0.0
  0
SOLID
  5
1B75
330
1253
100
AcDbEntity
  8
Dim
100
AcDbTrace
 10
322.0789842812172
 20
850.3159099803086
 30
0.0
 11
322.0789842812172
 21
849.6492433136419
 31
0.0
 12
324.0789842812172
 22
849.9825766469752
 32
0.0
 13
324.0789842812172
 23
849.9825766469752
 33
0.0
  0
MTEXT
  5
1B76
330
1253
100
AcDbEntity
  8
Dim
100
AcDbMText
 10
300.0789842812172
 20
852.2325766469753
 30
0.0
 40
2.5
 41
0.0
 71
     5
 72
     1
  1
\A1;48
  7
China
 73
     1
 44
1.0
1001
ACAD
1000
MTEXTBEGIN
1070
    73
1070
     1
1070
    44
1040
1.0
1070
    74
1070
     0
1000
MTEXTEND
  0
POINT
  5
1B77
330
1253
100
AcDbEntity
  8
Defpoints
 62
     0
100
AcDbPoint
 10
276.0789842812172
 20
808.9338510264328
 30
0.0
  0
POINT
  5
1B78
330
1253
100
AcDbEntity
  8
Defpoints
 62
     0
100
AcDbPoint
 10
324.0789842812172
 20
822.6898510264327
 30
0.0
  0
POINT
  5
1B79
330
1253
100
AcDbEntity
  8
Defpoints
 62
     0
100
AcDbPoint
 10
324.0789842812172
 20
849.9825766469752
 30
0.0
  0
ENDBLK
  5
125E
330
1253
100
AcDbEntity
  8
0
100
AcDbBlockEnd
  0
BLOCK
  5
1269
330
125F
100
AcDbEntity
  8
0
100
AcDbBlockBegin
  2
*D51
 70
     1
 10
0.0
 20
0.0
 30
0.0
  3
*D51
  1

  0
LINE
  5
1B7A
330
125F
100
AcDbEntity
  8
Dim
100
AcDbLine
 10
288.0789842812172
 20
925.4416528624965
 30
0.0
 11
288.0789842812172
 21
905.9550972662746
 31
0.0
  0
LINE
  5
1B7B
330
125F
100
AcDbEntity
  8
Dim
100
AcDbLine
 10
324.0789842812172
 20
919.6576528624964
 30
0.0
 11
324.0789842812172
 21
905.9550972662746
 31
0.0
  0
LINE
  5
1B7C
330
125F
100
AcDbEntity
  8
Dim
100
AcDbLine
 10
290.0789842812173
 20
906.9550972662746
 30
0.0
 11
322.0789842812172
 21
906.9550972662746
 31
0.0
  0
SOLID
  5
1B7D
330
125F
100
AcDbEntity
  8
Dim
100
AcDbTrace
 10
290.0789842812173
 20
907.288430599608
 30
0.0
 11
290.0789842812173
 21
906.6217639329412
 31
0.0
 12
288.0789842812172
 22
906.9550972662746
 32
0.0
 13
288.0789842812172
 23
906.9550972662746
 33
0.0
  0
SOLID
  5
1B7E
330
125F
100
AcDbEntity
  8
Dim
100
AcDbTrace
 10
322.0789842812172
 20
907.288430599608
 30
0.0
 11
322.0789842812172
 21
906.6217639329412
 31
0.0
 12
324.0789842812172
 22
906.9550972662746
 32
0.0
 13
324.0789842812172
 23
906.9550972662746
 33
0.0
  0
MTEXT
  5
1B7F
330
125F
100
AcDbEntity
  8
Dim
100
AcDbMText
 10
306.0789842812172
 20
909.2050972662745
 30
0.0
 40
2.5
 41
0.0
 71
     5
 72
     1
  1
\A1;36
  7
China
 73
     1
 44
1.0
1001
ACAD
1000
MTEXTBEGIN
1070
    73
1070
     1
1070
    44
1040
1.0
1070
    74
1070
     0
1000
MTEXTEND
  0
POINT
  5
1B80
330
125F
100
AcDbEntity
  8
Defpoints
 62
     0
100
AcDbPoint
 10
288.0789842812172
 20
926.4416528624964
 30
0.0
  0
POINT
  5
1B81
330
125F
100
AcDbEntity
  8
Defpoints
 62
     0
100
AcDbPoint
 10
324.0789842812172
 20
920.6576528624964
 30
0.0
  0
POINT
  5
1B82
330
125F
100
AcDbEntity
  8
Defpoints
 62
     0
100
AcDbPoint
 10
324.0789842812172
 20
906.9550972662746
 30
0.0
  0
ENDBLK
  5
126A
330
125F
100
AcDbEntity
  8
0
100
AcDbBlockEnd
  0
BLOCK
  5
1275
330
126B
100
AcDbEntity
  8
0
100
AcDbBlockBegin
  2
*D52
 70
     1
 10
0.0
 20
0.0
 30
0.0
  3
*D52
  1

  0
LINE
  5
1B83
330
126B
100
AcDbEntity
  8
Dim
100
AcDbLine
 10
296.3009842812172
 20
973.6576528624963
 30
0.0
 11
337.0789842812172
 21
973.6576528624963
 31
0.0
  0
LINE
  5
1B84
330
126B
100
AcDbEntity
  8
Dim
100
AcDbLine
 10
294.0789842812172
 20
933.6576528624965
 30
0.0
 11
337.0789842812172
 21
933.6576528624965
 31
0.0
  0
LINE
  5
1B85
330
126B
100
AcDbEntity
  8
Dim
100
AcDbLine
 10
336.0789842812172
 20
971.6576528624964
 30
0.0
 11
336.0789842812172
 21
935.6576528624964
 31
0.0
  0
SOLID
  5
1B86
330
126B
100
AcDbEntity
  8
Dim
100
AcDbTrace
 10
335.7456509478839
 20
971.6576528624964
 30
0.0
 11
336.4123176145505
 21
971.6576528624964
 31
0.0
 12
336.0789842812172
 22
973.6576528624963
 32
0.0
 13
336.0789842812172
 23
973.6576528624963
 33
0.0
  0
SOLID
  5
1B87
330
126B
100
AcDbEntity
  8
Dim
100
AcDbTrace
 10
335.7456509478839
 20
935.6576528624964
 30
0.0
 11
336.4123176145505
 21
935.6576528624964
 31
0.0
 12
336.0789842812172
 22
933.6576528624965
 32
0.0
 13
336.0789842812172
 23
933.6576528624965
 33
0.0
  0
MTEXT
  5
1B88
330
126B
100
AcDbEntity
  8
Dim
100
AcDbMText
 10
333.8289842812171
 20
953.6576528624966
 30
0.0
 40
2.5
 41
0.0
 71
     5
 72
     1
  1
\A1;40
  7
China
 11
0.0000000000000001
 21
1.0
 31
0.0
 73
     1
 44
1.0
1001
ACAD
1000
MTEXTBEGIN
1070
    73
1070
     1
1070
    44
1040
1.0
1070
    74
1070
     0
1000
MTEXTEND
  0
POINT
  5
1B89
330
126B
100
AcDbEntity
  8
Defpoints
 62
     0
100
AcDbPoint
 10
295.3009842812172
 20
973.6576528624963
 30
0.0
  0
POINT
  5
1B8A
330
126B
100
AcDbEntity
  8
Defpoints
 62
     0
100
AcDbPoint
 10
293.0789842812172
 20
933.6576528624965
 30
0.0
  0
POINT
  5
1B8B
330
126B
100
AcDbEntity
  8
Defpoints
 62
     0
100
AcDbPoint
 10
336.0789842812172
 20
933.6576528624965
 30
0.0
  0
ENDBLK
  5
1276
330
126B
100
AcDbEntity
  8
0
100
AcDbBlockEnd
  0
BLOCK
  5
1281
330
1277
100
AcDbEntity
  8
0
100
AcDbBlockBegin
  2
*D53
 70
     1
 10
0.0
 20
0.0
 30
0.0
  3
*D53
  1

  0
LINE
  5
1B8C
330
1277
100
AcDbEntity
  8
Dim
100
AcDbLine
 10
463.5341674814754
 20
726.6898510264327
 30
0.0
 11
537.0825145226549
 21
726.6898510264327
 31
0.0
  0
LINE
  5
1B8D
330
1277
100
AcDbEntity
  8
Dim
100
AcDbLine
 10
503.2541674814752
 20
806.6898510264326
 30
0.0
 11
537.082514522655
 21
806.6898510264326
 31
0.0
  0
LINE
  5
1B8E
330
1277
100
AcDbEntity
  8
Dim
100
AcDbLine
 10
536.0825145226549
 20
728.6898510264327
 30
0.0
 11
536.082514522655
 21
804.6898510264327
 31
0.0
  0
SOLID
  5
1B8F
330
1277
100
AcDbEntity
  8
Dim
100
AcDbTrace
 10
535.7491811893216
 20
728.6898510264327
 30
0.0
 11
536.4158478559883
 21
728.6898510264327
 31
0.0
 12
536.0825145226549
 22
726.6898510264327
 32
0.0
 13
536.0825145226549
 23
726.6898510264327
 33
0.0
  0
SOLID
  5
1B90
330
1277
100
AcDbEntity
  8
Dim
100
AcDbTrace
 10
535.7491811893217
 20
804.6898510264327
 30
0.0
 11
536.4158478559884
 21
804.6898510264327
 31
0.0
 12
536.082514522655
 22
806.6898510264326
 32
0.0
 13
536.082514522655
 23
806.6898510264326
 33
0.0
  0
MTEXT
  5
1B91
330
1277
100
AcDbEntity
  8
Dim
100
AcDbMText
 10
533.8325145226548
 20
766.6898510264328
 30
0.0
 40
2.5
 41
0.0
 71
     5
 72
     1
  1
\A1;80
  7
China
 11
0.0000000000000001
 21
1.0
 31
0.0
 73
     1
 44
1.0
1001
ACAD
1000
MTEXTBEGIN
1070
    73
1070
     1
1070
    44
1040
1.0
1070
    74
1070
     0
1000
MTEXTEND
  0
POINT
  5
1B92
330
1277
100
AcDbEntity
  8
Defpoints
 62
     0
100
AcDbPoint
 10
462.5341674814754
 20
726.6898510264327
 30
0.0
  0
POINT
  5
1B93
330
1277
100
AcDbEntity
  8
Defpoints
 62
     0
100
AcDbPoint
 10
502.2541674814752
 20
806.6898510264326
 30
0.0
  0
POINT
  5
1B94
330
1277
100
AcDbEntity
  8
Defpoints
 62
     0
100
AcDbPoint
 10
536.082514522655
 20
806.6898510264326
 30
0.0
  0
ENDBLK
  5
1282
330
1277
100
AcDbEntity
  8
0
100
AcDbBlockEnd
  0
BLOCK
  5
1413
330
1412
100
AcDbEntity
  8
0
100
AcDbBlockBegin
  2
*U57
 70
     1
 10
0.0
 20
0.0
 30
0.0
  3
*U57
  1

  0
ENDBLK
  5
1414
330
1412
100
AcDbEntity
  8
0
100
AcDbBlockEnd
  0
BLOCK
  5
144C
330
1442
100
AcDbEntity
  8
0
100
AcDbBlockBegin
  2
*D58
 70
     1
 10
0.0
 20
0.0
 30
0.0
  3
*D58
  1

  0
LINE
  5
1B95
330
1442
100
AcDbEntity
  8
Dim
100
AcDbLine
 10
995.0081970786143
 20
872.6898510264327
 30
0.0
 11
933.0124415071004
 21
872.6898510264327
 31
0.0
  0
LINE
  5
1B96
330
1442
100
AcDbEntity
  8
Dim
100
AcDbLine
 10
956.0081970786143
 20
835.6898510264327
 30
0.0
 11
933.0124415071004
 21
835.6898510264327
 31
0.0
  0
LINE
  5
1B97
330
1442
100
AcDbEntity
  8
Dim
100
AcDbLine
 10
934.0124415071004
 20
870.6898510264327
 30
0.0
 11
934.0124415071004
 21
837.6898510264327
 31
0.0
  0
SOLID
  5
1B98
330
1442
100
AcDbEntity
  8
Dim
100
AcDbTrace
 10
933.679108173767
 20
870.6898510264327
 30
0.0
 11
934.3457748404338
 21
870.6898510264327
 31
0.0
 12
934.0124415071004
 22
872.6898510264327
 32
0.0
 13
934.0124415071004
 23
872.6898510264327
 33
0.0
  0
SOLID
  5
1B99
330
1442
100
AcDbEntity
  8
Dim
100
AcDbTrace
 10
933.679108173767
 20
837.6898510264327
 30
0.0
 11
934.3457748404338
 21
837.6898510264327
 31
0.0
 12
934.0124415071004
 22
835.6898510264327
 32
0.0
 13
934.0124415071004
 23
835.6898510264327
 33
0.0
  0
MTEXT
  5
1B9A
330
1442
100
AcDbEntity
  8
Dim
100
AcDbMText
 10
931.7624415071001
 20
854.1898510264328
 30
0.0
 40
2.5
 41
0.0
 71
     5
 72
     1
  1
\A1;37
  7
China
 11
0.0000000000000001
 21
1.0
 31
0.0
 73
     1
 44
1.0
1001
ACAD
1000
MTEXTBEGIN
1070
    73
1070
     1
1070
    44
1040
1.0
1070
    74
1070
     0
1000
MTEXTEND
  0
POINT
  5
1B9B
330
1442
100
AcDbEntity
  8
Defpoints
 62
     0
100
AcDbPoint
 10
996.0081970786143
 20
872.6898510264327
 30
0.0
  0
POINT
  5
1B9C
330
1442
100
AcDbEntity
  8
Defpoints
 62
     0
100
AcDbPoint
 10
957.0081970786143
 20
835.6898510264327
 30
0.0
  0
POINT
  5
1B9D
330
1442
100
AcDbEntity
  8
Defpoints
 62
     0
100
AcDbPoint
 10
934.0124415071004
 20
835.6898510264327
 30
0.0
  0
ENDBLK
  5
144D
330
1442
100
AcDbEntity
  8
0
100
AcDbBlockEnd
  0
BLOCK
  5
1472
330
1468
100
AcDbEntity
  8
0
100
AcDbBlockBegin
  2
*D59
 70
     1
 10
0.0
 20
0.0
 30
0.0
  3
*D59
  1

  0
LINE
  5
1B9E
330
1468
100
AcDbEntity
  8
Dim
100
AcDbLine
 10
996.0081970786143
 20
873.6898510264326
 30
0.0
 11
996.0081970786143
 21
885.6898510264327
 31
0.0
  0
LINE
  5
1B9F
330
1468
100
AcDbEntity
  8
Dim
100
AcDbLine
 10
1009.008197078614
 20
873.6898510264326
 30
0.0
 11
1009.008197078614
 21
885.6898510264327
 31
0.0
  0
LINE
  5
1BA0
330
1468
100
AcDbEntity
  8
Dim
100
AcDbLine
 10
998.0081970786143
 20
884.6898510264328
 30
0.0
 11
1007.008197078614
 21
884.6898510264328
 31
0.0
  0
SOLID
  5
1BA1
330
1468
100
AcDbEntity
  8
Dim
100
AcDbTrace
 10
998.0081970786143
 20
885.0231843597661
 30
0.0
 11
998.0081970786143
 21
884.3565176930994
 31
0.0
 12
996.0081970786143
 22
884.6898510264328
 32
0.0
 13
996.0081970786143
 23
884.6898510264328
 33
0.0
  0
SOLID
  5
1BA2
330
1468
100
AcDbEntity
  8
Dim
100
AcDbTrace
 10
1007.008197078614
 20
885.0231843597661
 30
0.0
 11
1007.008197078614
 21
884.3565176930994
 31
0.0
 12
1009.008197078614
 22
884.6898510264328
 32
0.0
 13
1009.008197078614
 23
884.6898510264328
 33
0.0
  0
MTEXT
  5
1BA3
330
1468
100
AcDbEntity
  8
Dim
100
AcDbMText
 10
1002.508197078614
 20
886.9398510264327
 30
0.0
 40
2.5
 41
0.0
 71
     5
 72
     1
  1
\A1;13
  7
China
 73
     1
 44
1.0
1001
ACAD
1000
MTEXTBEGIN
1070
    73
1070
     1
1070
    44
1040
1.0
1070
    74
1070
     0
1000
MTEXTEND
  0
POINT
  5
1BA4
330
1468
100
AcDbEntity
  8
Defpoints
 62
     0
100
AcDbPoint
 10
996.0081970786143
 20
872.6898510264327
 30
0.0
  0
POINT
  5
1BA5
330
1468
100
AcDbEntity
  8
Defpoints
 62
     0
100
AcDbPoint
 10
1009.008197078614
 20
872.6898510264327
 30
0.0
  0
POINT
  5
1BA6
330
1468
100
AcDbEntity
  8
Defpoints
 62
     0
100
AcDbPoint
 10
1009.008197078614
 20
884.6898510264328
 30
0.0
  0
ENDBLK
  5
1473
330
1468
100
AcDbEntity
  8
0
100
AcDbBlockEnd
  0
BLOCK
  5
1498
330
148E
100
AcDbEntity
  8
0
100
AcDbBlockBegin
  2
*D60
 70
     1
 10
0.0
 20
0.0
 30
0.0
  3
*D60
  1

  0
LINE
  5
1BA7
330
148E
100
AcDbEntity
  8
Dim
100
AcDbLine
 10
956.0081970786143
 20
848.6898510264326
 30
0.0
 11
941.0124415071004
 21
848.6898510264326
 31
0.0
  0
LINE
  5
1BA8
330
148E
100
AcDbEntity
  8
Dim
100
AcDbLine
 10
995.0081970786143
 20
872.6898510264327
 30
0.0
 11
941.0124415071004
 21
872.6898510264327
 31
0.0
  0
LINE
  5
1BA9
330
148E
100
AcDbEntity
  8
Dim
100
AcDbLine
 10
942.0124415071004
 20
850.6898510264328
 30
0.0
 11
942.0124415071004
 21
870.6898510264327
 31
0.0
  0
SOLID
  5
1BAA
330
148E
100
AcDbEntity
  8
Dim
100
AcDbTrace
 10
941.679108173767
 20
850.6898510264328
 30
0.0
 11
942.3457748404338
 21
850.6898510264328
 31
0.0
 12
942.0124415071004
 22
848.6898510264326
 32
0.0
 13
942.0124415071004
 23
848.6898510264326
 33
0.0
  0
SOLID
  5
1BAB
330
148E
100
AcDbEntity
  8
Dim
100
AcDbTrace
 10
941.679108173767
 20
870.6898510264327
 30
0.0
 11
942.3457748404338
 21
870.6898510264327
 31
0.0
 12
942.0124415071004
 22
872.6898510264327
 32
0.0
 13
942.0124415071004
 23
872.6898510264327
 33
0.0
  0
MTEXT
  5
1BAC
330
148E
100
AcDbEntity
  8
Dim
100
AcDbMText
 10
939.7624415071001
 20
860.6898510264327
 30
0.0
 40
2.5
 41
0.0
 71
     5
 72
     1
  1
\A1;24
  7
China
 11
0.0000000000000001
 21
1.0
 31
0.0
 73
     1
 44
1.0
1001
ACAD
1000
MTEXTBEGIN
1070
    73
1070
     1
1070
    44
1040
1.0
1070
    74
1070
     0
1000
MTEXTEND
  0
POINT
  5
1BAD
330
148E
100
AcDbEntity
  8
Defpoints
 62
     0
100
AcDbPoint
 10
957.0081970786143
 20
848.6898510264326
 30
0.0
  0
POINT
  5
1BAE
330
148E
100
AcDbEntity
  8
Defpoints
 62
     0
100
AcDbPoint
 10
996.0081970786143
 20
872.6898510264327
 30
0.0
  0
POINT
  5
1BAF
330
148E
100
AcDbEntity
  8
Defpoints
 62
     0
100
AcDbPoint
 10
942.0124415071004
 20
872.6898510264327
 30
0.0
  0
ENDBLK
  5
1499
330
148E
100
AcDbEntity
  8
0
100
AcDbBlockEnd
  0
BLOCK
  5
14E6
330
14DC
100
AcDbEntity
  8
0
100
AcDbBlockBegin
  2
*D61
 70
     1
 10
0.0
 20
0.0
 30
0.0
  3
*D61
  1

  0
LINE
  5
1BB0
330
14DC
100
AcDbEntity
  8
Dim
100
AcDbLine
 10
995.0081970786143
 20
872.6898510264327
 30
0.0
 11
925.0124415071004
 21
872.6898510264327
 31
0.0
  0
LINE
  5
1BB1
330
14DC
100
AcDbEntity
  8
Dim
100
AcDbLine
 10
955.0081970786143
 20
794.6898510264327
 30
0.0
 11
925.0124415071004
 21
794.6898510264327
 31
0.0
  0
LINE
  5
1BB2
330
14DC
100
AcDbEntity
  8
Dim
100
AcDbLine
 10
926.0124415071004
 20
870.6898510264327
 30
0.0
 11
926.0124415071004
 21
796.6898510264327
 31
0.0
  0
SOLID
  5
1BB3
330
14DC
100
AcDbEntity
  8
Dim
100
AcDbTrace
 10
925.679108173767
 20
870.6898510264327
 30
0.0
 11
926.3457748404338
 21
870.6898510264327
 31
0.0
 12
926.0124415071004
 22
872.6898510264327
 32
0.0
 13
926.0124415071004
 23
872.6898510264327
 33
0.0
  0
SOLID
  5
1BB4
330
14DC
100
AcDbEntity
  8
Dim
100
AcDbTrace
 10
925.679108173767
 20
796.6898510264327
 30
0.0
 11
926.3457748404338
 21
796.6898510264327
 31
0.0
 12
926.0124415071004
 22
794.6898510264327
 32
0.0
 13
926.0124415071004
 23
794.6898510264327
 33
0.0
  0
MTEXT
  5
1BB5
330
14DC
100
AcDbEntity
  8
Dim
100
AcDbMText
 10
923.7624415071001
 20
833.689851026433
 30
0.0
 40
2.5
 41
0.0
 71
     5
 72
     1
  1
\A1;78
  7
China
 11
0.0000000000000001
 21
1.0
 31
0.0
 73
     1
 44
1.0
1001
ACAD
1000
MTEXTBEGIN
1070
    73
1070
     1
1070
    44
1040
1.0
1070
    74
1070
     0
1000
MTEXTEND
  0
POINT
  5
1BB6
330
14DC
100
AcDbEntity
  8
Defpoints
 62
     0
100
AcDbPoint
 10
996.0081970786143
 20
872.6898510264327
 30
0.0
  0
POINT
  5
1BB7
330
14DC
100
AcDbEntity
  8
Defpoints
 62
     0
100
AcDbPoint
 10
956.0081970786143
 20
794.6898510264327
 30
0.0
  0
POINT
  5
1BB8
330
14DC
100
AcDbEntity
  8
Defpoints
 62
     0
100
AcDbPoint
 10
926.0124415071004
 20
794.6898510264327
 30
0.0
  0
ENDBLK
  5
14E7
330
14DC
100
AcDbEntity
  8
0
100
AcDbBlockEnd
  0
BLOCK
  5
1510
330
1506
100
AcDbEntity
  8
0
100
AcDbBlockBegin
  2
*D62
 70
     1
 10
0.0
 20
0.0
 30
0.0
  3
*D62
  1

  0
LINE
  5
1BB9
330
1506
100
AcDbEntity
  8
Dim
100
AcDbLine
 10
957.0081970786143
 20
849.6898510264326
 30
0.0
 11
957.0081970786143
 21
893.6898510264327
 31
0.0
  0
LINE
  5
1BBA
330
1506
100
AcDbEntity
  8
Dim
100
AcDbLine
 10
1009.008197078614
 20
873.6898510264326
 30
0.0
 11
1009.008197078614
 21
893.6898510264327
 31
0.0
  0
LINE
  5
1BBB
330
1506
100
AcDbEntity
  8
Dim
100
AcDbLine
 10
959.0081970786142
 20
892.6898510264328
 30
0.0
 11
1007.008197078614
 21
892.6898510264328
 31
0.0
  0
SOLID
  5
1BBC
330
1506
100
AcDbEntity
  8
Dim
100
AcDbTrace
 10
959.0081970786142
 20
893.0231843597661
 30
0.0
 11
959.0081970786142
 21
892.3565176930994
 31
0.0
 12
957.0081970786143
 22
892.6898510264328
 32
0.0
 13
957.0081970786143
 23
892.6898510264328
 33
0.0
  0
SOLID
  5
1BBD
330
1506
100
AcDbEntity
  8
Dim
100
AcDbTrace
 10
1007.008197078614
 20
893.0231843597661
 30
0.0
 11
1007.008197078614
 21
892.3565176930994
 31
0.0
 12
1009.008197078614
 22
892.6898510264328
 32
0.0
 13
1009.008197078614
 23
892.6898510264328
 33
0.0
  0
MTEXT
  5
1BBE
330
1506
100
AcDbEntity
  8
Dim
100
AcDbMText
 10
983.0081970786142
 20
894.9398510264327
 30
0.0
 40
2.5
 41
0.0
 71
     5
 72
     1
  1
\A1;52
  7
China
 73
     1
 44
1.0
1001
ACAD
1000
MTEXTBEGIN
1070
    73
1070
     1
1070
    44
1040
1.0
1070
    74
1070
     0
1000
MTEXTEND
  0
POINT
  5
1BBF
330
1506
100
AcDbEntity
  8
Defpoints
 62
     0
100
AcDbPoint
 10
957.0081970786143
 20
848.6898510264326
 30
0.0
  0
POINT
  5
1BC0
330
1506
100
AcDbEntity
  8
Defpoints
 62
     0
100
AcDbPoint
 10
1009.008197078614
 20
872.6898510264327
 30
0.0
  0
POINT
  5
1BC1
330
1506
100
AcDbEntity
  8
Defpoints
 62
     0
100
AcDbPoint
 10
1009.008197078614
 20
892.6898510264328
 30
0.0
  0
ENDBLK
  5
1511
330
1506
100
AcDbEntity
  8
0
100
AcDbBlockEnd
  0
BLOCK
  5
1745
330
173B
100
AcDbEntity
  8
0
100
AcDbBlockBegin
  2
*D63
 70
     1
 10
0.0
 20
0.0
 30
0.0
  3
*D63
  1

  0
LINE
  5
1BC2
330
173B
100
AcDbEntity
  8
Dim
100
AcDbLine
 10
821.2368745701478
 20
872.6898510264327
 30
0.0
 11
844.4040092226797
 21
872.6898510264327
 31
0.0
  0
LINE
  5
1BC3
330
173B
100
AcDbEntity
  8
Dim
100
AcDbLine
 10
814.2368745701478
 20
860.6898510264327
 30
0.0
 11
844.4040092226797
 21
860.6898510264327
 31
0.0
  0
LINE
  5
1BC4
330
173B
100
AcDbEntity
  8
Dim
100
AcDbLine
 10
843.4040092226798
 20
870.6898510264327
 30
0.0
 11
843.4040092226798
 21
862.6898510264327
 31
0.0
  0
SOLID
  5
1BC5
330
173B
100
AcDbEntity
  8
Dim
100
AcDbTrace
 10
843.0706758893464
 20
870.6898510264327
 30
0.0
 11
843.7373425560132
 21
870.6898510264327
 31
0.0
 12
843.4040092226798
 22
872.6898510264327
 32
0.0
 13
843.4040092226798
 23
872.6898510264327
 33
0.0
  0
SOLID
  5
1BC6
330
173B
100
AcDbEntity
  8
Dim
100
AcDbTrace
 10
843.0706758893464
 20
862.6898510264327
 30
0.0
 11
843.7373425560132
 21
862.6898510264327
 31
0.0
 12
843.4040092226798
 22
860.6898510264327
 32
0.0
 13
843.4040092226798
 23
860.6898510264327
 33
0.0
  0
MTEXT
  5
1BC7
330
173B
100
AcDbEntity
  8
Dim
100
AcDbMText
 10
841.1540092226797
 20
866.689851026433
 30
0.0
 40
2.5
 41
0.0
 71
     5
 72
     1
  1
\A1;12
  7
China
 11
0.0000000000000001
 21
1.0
 31
0.0
 73
     1
 44
1.0
1001
ACAD
1000
MTEXTBEGIN
1070
    73
1070
     1
1070
    44
1040
1.0
1070
    74
1070
     0
1000
MTEXTEND
  0
POINT
  5
1BC8
330
173B
100
AcDbEntity
  8
Defpoints
 62
     0
100
AcDbPoint
 10
820.2368745701479
 20
872.6898510264327
 30
0.0
  0
POINT
  5
1BC9
330
173B
100
AcDbEntity
  8
Defpoints
 62
     0
100
AcDbPoint
 10
813.2368745701478
 20
860.6898510264327
 30
0.0
  0
POINT
  5
1BCA
330
173B
100
AcDbEntity
  8
Defpoints
 62
     0
100
AcDbPoint
 10
843.4040092226798
 20
860.6898510264327
 30
0.0
  0
ENDBLK
  5
1746
330
173B
100
AcDbEntity
  8
0
100
AcDbBlockEnd
  0
BLOCK
  5
198D
330
1983
100
AcDbEntity
  8
0
100
AcDbBlockBegin
  2
*D65
 70
     1
 10
0.0
 20
0.0
 30
0.0
  3
*D65
  1

  0
LINE
  5
1BD4
330
1983
100
AcDbEntity
  8
Dim
100
AcDbLine
 10
188.0789842812173
 20
801.6968510264327
 30
0.0
 11
188.0789842812173
 21
874.9825766469752
 31
0.0
  0
LINE
  5
1BD5
330
1983
100
AcDbEntity
  8
Dim
100
AcDbLine
 10
324.0789842812173
 20
823.6898510264326
 30
0.0
 11
324.0789842812173
 21
874.9825766469752
 31
0.0
  0
LINE
  5
1BD6
330
1983
100
AcDbEntity
  8
Dim
100
AcDbLine
 10
190.0789842812173
 20
873.9825766469753
 30
0.0
 11
322.0789842812174
 21
873.9825766469753
 31
0.0
  0
SOLID
  5
1BD7
330
1983
100
AcDbEntity
  8
Dim
100
AcDbTrace
 10
190.0789842812173
 20
874.3159099803087
 30
0.0
 11
190.0789842812173
 21
873.6492433136419
 31
0.0
 12
188.0789842812173
 22
873.9825766469753
 32
0.0
 13
188.0789842812173
 23
873.9825766469753
 33
0.0
  0
SOLID
  5
1BD8
330
1983
100
AcDbEntity
  8
Dim
100
AcDbTrace
 10
322.0789842812174
 20
874.3159099803087
 30
0.0
 11
322.0789842812174
 21
873.6492433136419
 31
0.0
 12
324.0789842812173
 22
873.9825766469753
 32
0.0
 13
324.0789842812173
 23
873.9825766469753
 33
0.0
  0
MTEXT
  5
1BD9
330
1983
100
AcDbEntity
  8
Dim
100
AcDbMText
 10
256.0789842812174
 20
876.2325766469754
 30
0.0
 40
2.5
 41
0.0
 71
     5
 72
     1
  1
\A1;136
  7
China
 73
     1
 44
1.0
1001
ACAD
1000
MTEXTBEGIN
1070
    73
1070
     1
1070
    44
1040
1.0
1070
    74
1070
     0
1000
MTEXTEND
  0
POINT
  5
1BDA
330
1983
100
AcDbEntity
  8
Defpoints
 62
     0
100
AcDbPoint
 10
188.0789842812173
 20
800.6968510264327
 30
0.0
  0
POINT
  5
1BDB
330
1983
100
AcDbEntity
  8
Defpoints
 62
     0
100
AcDbPoint
 10
324.0789842812173
 20
822.6898510264327
 30
0.0
  0
POINT
  5
1BDC
330
1983
100
AcDbEntity
  8
Defpoints
 62
     0
100
AcDbPoint
 10
324.0789842812173
 20
873.9825766469753
 30
0.0
  0
ENDBLK
  5
198E
330
1983
100
AcDbEntity
  8
0
100
AcDbBlockEnd
  0
ENDSEC
  0
SECTION
  2
ENTITIES
  0
LINE
  5
F94
330
1F
100
AcDbEntity
  8
AM_7
100
AcDbLine
 10
889.7581970786143
 20
766.6898510264327
 30
0.0
 11
1084.956987098873
 21
766.6898510264327
 31
0.0
  0
LEADER
  5
F97
330
1F
100
AcDbEntity
  8
Dim
100
AcDbLeader
  3
Standard
 76
     3
 10
291.6710248267486
 20
976.7846570908648
 30
0.0
 10
310.5843305829529
 20
1009.0444149731
 30
0.0
 10
369.9537589175796
 20
1009.0444149731
 30
0.0
1001
ACAD
1000
DSTYLE
1002
{
1070
    41
1040
2.0
1070
    42
1040
1.0
1070
    44
1040
1.0
1070
    73
1070
     0
1070
    74
1070
     0
1070
    77
1070
     0
1070
    78
1070
     8
1070
    79
1070
     2
1070
   140
1040
2.5
1070
   141
1040
0.0
1070
   147
1040
1.0
1070
   172
1070
     1
1070
   174
1070
     1
1070
   176
1070
   256
1070
   177
1070
   256
1070
   178
1070
   256
1070
   271
1070
     2
1070
   272
1070
     2
1070
   340
1005
DAB
1070
   371
1070
    -1
1070
   372
1070
    -1
1002
}
  0
CIRCLE
  5
F98
330
1F
100
AcDbEntity
  8
0
  6
Continuous
 62
     7
100
AcDbCircle
 10
243.5789842812174
 20
990.1576528624964
 30
0.0
 40
5.5
  0
LINE
  5
F99
330
1F
100
AcDbEntity
  8
AM_7
100
AcDbLine
 10
243.5789842812174
 20
998.3136528624964
 30
0.0
 11
243.5789842812174
 21
982.9256528624965
 31
0.0
  0
LINE
  5
F9A
330
1F
100
AcDbEntity
  8
AM_7
100
AcDbLine
 10
212.5789842812173
 20
998.6656528624964
 30
0.0
 11
212.5789842812173
 21
982.2106528624964
 31
0.0
  0
CIRCLE
  5
F9B
330
1F
100
AcDbEntity
  8
0
  6
Continuous
 62
     7
100
AcDbCircle
 10
212.5789842812173
 20
990.1576528624964
 30
0.0
 40
5.5
  0
LINE
  5
F9C
330
1F
100
AcDbEntity
  8
0
  6
Continuous
 62
     7
100
AcDbLine
 10
206.0789842812174
 20
996.1576528624965
 30
0.0
 11
206.0789842812174
 21
911.1576528624963
 31
0.0
  0
LINE
  5
F9D
330
1F
100
AcDbEntity
  8
0
  6
Continuous
 62
     7
100
AcDbLine
 10
250.0789842812173
 20
996.1576528624965
 30
0.0
 11
250.0789842812173
 21
911.1576528624963
 31
0.0
  0
LINE
  5
F9E
330
1F
100
AcDbEntity
  8
0
  6
Continuous
 62
     7
100
AcDbLine
 10
202.0789842812173
 20
996.1576528624965
 30
0.0
 11
202.0789842812173
 21
911.1576528624963
 31
0.0
  0
LINE
  5
F9F
330
1F
100
AcDbEntity
  8
0
  6
Continuous
 62
     7
100
AcDbLine
 10
254.0789842812174
 20
996.1576528624965
 30
0.0
 11
254.0789842812174
 21
911.1576528624963
 31
0.0
  0
LINE
  5
FA0
330
1F
100
AcDbEntity
  8
0
  6
Continuous
 62
     7
100
AcDbLine
 10
748.7368745701478
 20
848.6898510264326
 30
0.0
 11
748.7368745701478
 21
769.6898510264327
 31
0.0
  0
LINE
  5
FA1
330
1F
100
AcDbEntity
  8
0
  6
Continuous
 62
     7
100
AcDbLine
 10
833.7368745701478
 20
848.6898510264326
 30
0.0
 11
833.7368745701478
 21
769.6898510264327
 31
0.0
  0
LINE
  5
FA2
330
1F
100
AcDbEntity
  8
AM_7
100
AcDbLine
 10
791.2368745701479
 20
878.6298510264328
 30
0.0
 11
791.2368745701479
 21
653.8148510264328
 31
0.0
  0
LINE
  5
FA3
330
1F
100
AcDbEntity
  8
0
  6
Continuous
 62
     7
100
AcDbLine
 10
1009.008197078614
 20
789.4098510264328
 30
0.0
 11
1009.008197078614
 21
872.6898510264327
 31
0.0
  0
LINE
  5
FA4
330
1F
100
AcDbEntity
  8
AM_7
100
AcDbLine
 10
983.0081970786142
 20
678.3428510264327
 30
0.0
 11
983.0081970786142
 21
856.3598510264327
 31
0.0
  0
LINE
  5
FA5
330
1F
100
AcDbEntity
  8
0
  6
Continuous
 62
     7
100
AcDbLine
 10
957.0081970786143
 20
789.4098510264328
 30
0.0
 11
957.0081970786143
 21
848.6898510264326
 31
0.0
  0
LINE
  5
FA6
330
1F
100
AcDbEntity
  8
0
  6
Continuous
 62
     7
100
AcDbLine
 10
759.7368745701478
 20
697.6898510264328
 30
0.0
 11
759.7368745701478
 21
763.6898510264327
 31
0.0
  0
LINE
  5
FA7
330
1F
100
AcDbEntity
  8
0
  6
Continuous
 62
     7
100
AcDbLine
 10
833.7368745701478
 20
684.6898510264328
 30
0.0
 11
833.7368745701478
 21
763.6898510264327
 31
0.0
  0
LINE
  5
FA8
330
1F
100
AcDbEntity
  8
0
  6
Continuous
 62
     7
100
AcDbLine
 10
822.7368745701479
 20
697.6898510264328
 30
0.0
 11
822.7368745701479
 21
763.6898510264327
 31
0.0
  0
LINE
  5
FA9
330
1F
100
AcDbEntity
  8
0
  6
Continuous
 62
     7
100
AcDbLine
 10
748.7368745701478
 20
684.6898510264328
 30
0.0
 11
748.7368745701478
 21
763.6898510264327
 31
0.0
  0
LINE
  5
FAA
330
1F
100
AcDbEntity
  8
0
  6
Continuous
 62
     7
100
AcDbLine
 10
833.7368745701478
 20
697.6898510264328
 30
0.0
 11
748.7368745701478
 21
697.6898510264328
 31
0.0
  0
LINE
  5
FAB
330
1F
100
AcDbEntity
  8
0
  6
Continuous
 62
     7
100
AcDbLine
 10
820.2368745701479
 20
660.6898510264328
 30
0.0
 11
762.2368745701479
 21
660.6898510264328
 31
0.0
  0
LINE
  5
FB3
330
1F
100
AcDbEntity
  8
0
  6
Continuous
 62
     7
100
AcDbLine
 10
762.2368745701479
 20
684.6898510264328
 30
0.0
 11
762.2368745701479
 21
660.6898510264328
 31
0.0
  0
LINE
  5
FB4
330
1F
100
AcDbEntity
  8
0
  6
Continuous
 62
     7
100
AcDbLine
 10
762.2368745701479
 20
684.6898510264328
 30
0.0
 11
748.7368745701478
 21
684.6898510264328
 31
0.0
  0
LINE
  5
FB5
330
1F
100
AcDbEntity
  8
AM_7
100
AcDbLine
 10
806.2368745701478
 20
680.1588510264328
 30
0.0
 11
806.2368745701478
 21
664.6828510264327
 31
0.0
  0
LINE
  5
FB6
330
1F
100
AcDbEntity
  8
AM_7
100
AcDbLine
 10
776.2368745701478
 20
680.1588510264328
 30
0.0
 11
776.2368745701478
 21
664.6828510264327
 31
0.0
  0
CIRCLE
  5
FB7
330
1F
100
AcDbEntity
  8
0
  6
Continuous
 62
     7
100
AcDbCircle
 10
776.2368745701478
 20
672.6898510264328
 30
0.0
 40
4.187999999999999
  0
CIRCLE
  5
FB9
330
1F
100
AcDbEntity
  8
0
  6
Continuous
 62
     7
100
AcDbCircle
 10
806.2368745701478
 20
672.6898510264328
 30
0.0
 40
4.187999999999999
  0
LINE
  5
FBB
330
1F
100
AcDbEntity
  8
0
  6
Continuous
 62
     7
100
AcDbLine
 10
820.2368745701479
 20
684.6898510264328
 30
0.0
 11
820.2368745701479
 21
660.6898510264328
 31
0.0
  0
LINE
  5
FBC
330
1F
100
AcDbEntity
  8
0
  6
Continuous
 62
     7
100
AcDbLine
 10
833.7368745701478
 20
684.6898510264328
 30
0.0
 11
820.2368745701479
 21
684.6898510264328
 31
0.0
  0
LINE
  5
FBD
330
1F
100
AcDbEntity
  8
0
  6
Continuous
 62
     7
100
AcDbLine
 10
833.7368745701478
 20
835.6898510264327
 30
0.0
 11
748.7368745701478
 21
835.6898510264327
 31
0.0
  0
LINE
  5
FBE
330
1F
100
AcDbEntity
  8
AM_7
100
AcDbLine
 10
833.1168745701479
 20
766.6898510264327
 30
0.0
 11
745.5668745701477
 21
766.6898510264327
 31
0.0
  0
LINE
  5
FBF
330
1F
100
AcDbEntity
  8
0
  6
Continuous
 62
     7
100
AcDbLine
 10
759.7368745701478
 20
835.6898510264327
 30
0.0
 11
759.7368745701478
 21
769.6898510264327
 31
0.0
  0
LINE
  5
FC0
330
1F
100
AcDbEntity
  8
0
  6
Continuous
 62
     7
100
AcDbLine
 10
759.7368745701478
 20
763.6898510264327
 30
0.0
 11
748.7368745701478
 21
763.6898510264327
 31
0.0
  0
LINE
  5
FC1
330
1F
100
AcDbEntity
  8
0
  6
Continuous
 62
     7
100
AcDbLine
 10
759.7368745701478
 20
769.6898510264327
 30
0.0
 11
748.7368745701478
 21
769.6898510264327
 31
0.0
  0
LINE
  5
FC2
330
1F
100
AcDbEntity
  8
0
  6
Continuous
 62
     7
100
AcDbLine
 10
822.7368745701479
 20
835.6898510264327
 30
0.0
 11
822.7368745701479
 21
769.6898510264327
 31
0.0
  0
POINT
  5
FC3
330
1F
100
AcDbEntity
  8
0
100
AcDbPoint
 10
791.2368745701479
 20
766.6898510264327
 30
0.0
  0
LINE
  5
FC4
330
1F
100
AcDbEntity
  8
0
  6
Continuous
 62
     7
100
AcDbLine
 10
833.7368745701478
 20
763.6898510264327
 30
0.0
 11
822.7368745701479
 21
763.6898510264327
 31
0.0
  0
LINE
  5
FC5
330
1F
100
AcDbEntity
  8
0
  6
Continuous
 62
     7
100
AcDbLine
 10
833.7368745701478
 20
769.6898510264327
 30
0.0
 11
822.7368745701479
 21
769.6898510264327
 31
0.0
  0
LINE
  5
FC6
330
1F
100
AcDbEntity
  8
0
  6
Continuous
 62
     7
100
AcDbLine
 10
957.0081970786143
 20
743.9698510264328
 30
0.0
 11
957.0081970786143
 21
684.6898510264328
 31
0.0
  0
LINE
  5
FC7
330
1F
100
AcDbEntity
  8
0
  6
Continuous
 62
     7
100
AcDbLine
 10
1009.008197078614
 20
743.9698510264328
 30
0.0
 11
1009.008197078614
 21
660.6898510264328
 31
0.0
  0
LINE
  5
FC8
330
1F
100
AcDbEntity
  8
0
  6
Continuous
 62
     7
100
AcDbLine
 10
978.0081970786143
 20
695.3898510264328
 30
0.0
 11
988.0081970786143
 21
695.3898510264328
 31
0.0
  0
LINE
  5
FC9
330
1F
100
AcDbEntity
  8
0
  6
Continuous
 62
     7
100
AcDbLine
 10
957.0081970786143
 20
684.6898510264328
 30
0.0
 11
1009.008197078614
 21
684.6898510264328
 31
0.0
  0
LINE
  5
FCA
330
1F
100
AcDbEntity
  8
0
  6
Continuous
 62
     7
100
AcDbLine
 10
978.0081970786143
 20
695.3898510264328
 30
0.0
 11
978.0081970786143
 21
697.6898510264328
 31
0.0
  0
LINE
  5
FCB
330
1F
100
AcDbEntity
  8
0
  6
Continuous
 62
     7
100
AcDbLine
 10
957.0081970786143
 20
697.6898510264328
 30
0.0
 11
978.0081970786143
 21
697.6898510264328
 31
0.0
  0
LINE
  5
FCC
330
1F
100
AcDbEntity
  8
0
  6
Continuous
 62
     7
100
AcDbLine
 10
996.0081970786143
 20
660.6898510264328
 30
0.0
 11
996.0081970786143
 21
684.6898510264328
 31
0.0
  0
LINE
  5
FCD
330
1F
100
AcDbEntity
  8
0
  6
Continuous
 62
     7
100
AcDbLine
 10
996.0081970786143
 20
660.6898510264328
 30
0.0
 11
1009.008197078614
 21
660.6898510264328
 31
0.0
  0
LINE
  5
FCE
330
1F
100
AcDbEntity
  8
0
  6
Continuous
 62
     7
100
AcDbLine
 10
988.0081970786143
 20
697.6898510264328
 30
0.0
 11
1009.008197078614
 21
697.6898510264328
 31
0.0
  0
LINE
  5
FCF
330
1F
100
AcDbEntity
  8
0
  6
Continuous
 62
     7
100
AcDbLine
 10
988.0081970786143
 20
695.3898510264328
 30
0.0
 11
988.0081970786143
 21
697.6898510264328
 31
0.0
  0
LINE
  5
FD0
330
1F
100
AcDbEntity
  8
0
  6
PHANTOM
 62
     2
100
AcDbLine
 10
952.4381970786141
 20
819.5698510264328
 30
0.0
 11
904.0881970786143
 21
817.7598510264328
 31
0.0
  0
LINE
  5
FD1
330
1F
100
AcDbEntity
  8
0
  6
PHANTOM
 62
     2
100
AcDbLine
 10
943.0081970786144
 20
766.1998510264327
 30
0.0
 11
930.0181970786143
 21
766.6898510264327
 31
0.0
  0
LINE
  5
FD2
330
1F
100
AcDbEntity
  8
0
  6
PHANTOM
 62
     2
100
AcDbLine
 10
943.0081970786144
 20
767.1798510264327
 30
0.0
 11
930.0181970786143
 21
766.6898510264327
 31
0.0
  0
LINE
  5
FD3
330
1F
100
AcDbEntity
  8
0
  6
PHANTOM
 62
     2
100
AcDbLine
 10
952.4481970786141
 20
713.8138510264327
 30
0.0
 11
904.0881970786143
 21
715.6218510264327
 31
0.0
  0
LINE
  5
FD4
330
1F
100
AcDbEntity
  8
0
  6
PHANTOM
 62
     2
100
AcDbLine
 10
930.0181970786143
 20
766.6898510264327
 30
0.0
 11
928.5581970786143
 21
805.6598510264327
 31
0.0
  0
LINE
  5
FD5
330
1F
100
AcDbEntity
  8
0
  6
PHANTOM
 62
     2
100
AcDbLine
 10
930.0181970786143
 20
766.6898510264327
 30
0.0
 11
928.5581970786143
 21
727.7198510264327
 31
0.0
  0
LINE
  5
FD6
330
1F
100
AcDbEntity
  8
0
  6
PHANTOM
 62
     2
100
AcDbLine
 10
904.5781970786142
 20
728.6098510264328
 30
0.0
 11
928.5581970786143
 21
727.7198510264327
 31
0.0
  0
LINE
  5
FD7
330
1F
100
AcDbEntity
  8
0
  6
PHANTOM
 62
     2
100
AcDbLine
 10
904.5781970786142
 20
728.6098510264328
 30
0.0
 11
904.0881970786143
 21
715.6218510264327
 31
0.0
  0
LINE
  5
FD8
330
1F
100
AcDbEntity
  8
0
  6
PHANTOM
 62
     2
100
AcDbLine
 10
904.0881970786143
 20
817.7598510264328
 30
0.0
 11
904.5781970786142
 21
804.7698510264329
 31
0.0
  0
LINE
  5
FD9
330
1F
100
AcDbEntity
  8
0
  6
PHANTOM
 62
     2
100
AcDbLine
 10
904.5781970786142
 20
804.7698510264329
 30
0.0
 11
928.5581970786143
 21
805.6598510264327
 31
0.0
  0
ARC
  5
FDA
330
1F
100
AcDbEntity
  8
0
  6
Continuous
 62
     7
100
AcDbCircle
 10
983.0081970786142
 20
796.6898510264327
 30
0.0
 40
27.0
100
AcDbArc
 50
195.6419999999997
 51
344.3580000000003
  0
ARC
  5
FDB
330
1F
100
AcDbEntity
  8
0
  6
Continuous
 62
     7
100
AcDbCircle
 10
983.0081970786142
 20
736.6898510264328
 30
0.0
 40
27.0
100
AcDbArc
 50
15.64250000000062
 51
164.3580000000003
  0
ARC
  5
FDD
330
1F
100
AcDbEntity
  8
0
  6
Continuous
 62
     7
100
AcDbCircle
 10
983.0081970786142
 20
738.6898510264328
 30
0.0
 40
11.0
100
AcDbArc
 50
198.5529999999993
 51
161.4469999999991
  0
LINE
  5
FDE
330
1F
100
AcDbEntity
  8
0
  6
Continuous
 62
     7
100
AcDbLine
 10
975.0081970786142
 20
735.1898510264328
 30
0.0
 11
975.0081970786142
 21
742.1898510264328
 31
0.0
  0
LINE
  5
FDF
330
1F
100
AcDbEntity
  8
0
  6
Continuous
 62
     7
100
AcDbLine
 10
969.0081970786144
 20
735.1898510264328
 30
0.0
 11
969.0081970786144
 21
742.1898510264328
 31
0.0
  0
LINE
  5
FE0
330
1F
100
AcDbEntity
  8
0
  6
Continuous
 62
     7
100
AcDbLine
 10
975.0081970786142
 20
735.1898510264328
 30
0.0
 11
969.0081970786144
 21
735.1898510264328
 31
0.0
  0
LINE
  5
FE1
330
1F
100
AcDbEntity
  8
0
  6
Continuous
 62
     7
100
AcDbLine
 10
975.0081970786142
 20
742.1898510264328
 30
0.0
 11
969.0081970786144
 21
742.1898510264328
 31
0.0
  0
LINE
  5
FE2
330
1F
100
AcDbEntity
  8
0
  6
Continuous
 62
     7
100
AcDbLine
 10
978.0081970786143
 20
837.9898510264329
 30
0.0
 11
988.0081970786143
 21
837.9898510264329
 31
0.0
  0
ARC
  5
FE3
330
1F
100
AcDbEntity
  8
0
  6
Continuous
 62
     7
100
AcDbCircle
 10
983.0081970786142
 20
794.6898510264327
 30
0.0
 40
11.0
100
AcDbArc
 50
198.5529999999993
 51
161.4469999999991
  0
LINE
  5
FE5
330
1F
100
AcDbEntity
  8
0
  6
Continuous
 62
     7
100
AcDbLine
 10
975.0081970786142
 20
791.1898510264327
 30
0.0
 11
975.0081970786142
 21
798.1898510264327
 31
0.0
  0
LINE
  5
FE6
330
1F
100
AcDbEntity
  8
0
  6
Continuous
 62
     7
100
AcDbLine
 10
969.0081970786144
 20
791.1898510264327
 30
0.0
 11
969.0081970786144
 21
798.1898510264327
 31
0.0
  0
LINE
  5
FE7
330
1F
100
AcDbEntity
  8
0
  6
Continuous
 62
     7
100
AcDbLine
 10
969.0081970786144
 20
798.1898510264327
 30
0.0
 11
975.0081970786142
 21
798.1898510264327
 31
0.0
  0
LINE
  5
FE8
330
1F
100
AcDbEntity
  8
0
  6
Continuous
 62
     7
100
AcDbLine
 10
969.0081970786144
 20
791.1898510264327
 30
0.0
 11
975.0081970786142
 21
791.1898510264327
 31
0.0
  0
LINE
  5
FE9
330
1F
100
AcDbEntity
  8
0
  6
Continuous
 62
     7
100
AcDbLine
 10
978.0081970786143
 20
837.9898510264329
 30
0.0
 11
978.0081970786143
 21
835.6898510264327
 31
0.0
  0
LINE
  5
FEA
330
1F
100
AcDbEntity
  8
0
  6
Continuous
 62
     7
100
AcDbLine
 10
957.0081970786143
 20
835.6898510264327
 30
0.0
 11
978.0081970786143
 21
835.6898510264327
 31
0.0
  0
LINE
  5
FEB
330
1F
100
AcDbEntity
  8
0
  6
Continuous
 62
     7
100
AcDbLine
 10
988.0081970786143
 20
835.6898510264327
 30
0.0
 11
1009.008197078614
 21
835.6898510264327
 31
0.0
  0
LINE
  5
FEC
330
1F
100
AcDbEntity
  8
0
  6
Continuous
 62
     7
100
AcDbLine
 10
988.0081970786143
 20
837.9898510264329
 30
0.0
 11
988.0081970786143
 21
835.6898510264327
 31
0.0
  0
LINE
  5
FED
330
1F
100
AcDbEntity
  8
0
  6
Continuous
 62
     7
100
AcDbLine
 10
255.0789842812173
 20
986.6576528624964
 30
0.0
 11
324.0789842812172
 21
986.6576528624964
 31
0.0
  0
LINE
  5
FEE
330
1F
100
AcDbEntity
  8
0
  6
Continuous
 62
     7
100
AcDbLine
 10
255.0789842812173
 20
920.6576528624964
 30
0.0
 11
324.0789842812172
 21
920.6576528624964
 31
0.0
  0
LINE
  5
FEF
330
1F
100
AcDbEntity
  8
AM_7
100
AcDbLine
 10
178.5579842812171
 20
953.6576528624964
 30
0.0
 11
326.0460394000109
 21
953.6576528624964
 31
0.0
  0
LINE
  5
FF0
330
1F
100
AcDbEntity
  8
AM_7
100
AcDbLine
 10
255.0789842812173
 20
753.6898510264327
 30
0.0
 11
325.6689842812173
 21
753.6898510264327
 31
0.0
  0
LINE
  5
FF1
330
1F
100
AcDbEntity
  8
AM_7
100
AcDbLine
 10
255.0789842812173
 20
779.6898510264327
 30
0.0
 11
326.9959842812173
 21
779.6898510264327
 31
0.0
  0
LINE
  5
FF2
330
1F
100
AcDbEntity
  8
0
  6
Continuous
 62
     7
100
AcDbLine
 10
255.0789842812173
 20
777.1898510264327
 30
0.0
 11
324.0789842812172
 21
777.1898510264327
 31
0.0
  0
LINE
  5
FF3
330
1F
100
AcDbEntity
  8
0
  6
Continuous
 62
     7
100
AcDbLine
 10
255.0789842812173
 20
782.1898510264327
 30
0.0
 11
324.0789842812172
 21
782.1898510264327
 31
0.0
  0
LINE
  5
FF4
330
1F
100
AcDbEntity
  8
0
  6
Continuous
 62
     7
100
AcDbLine
 10
255.0789842812173
 20
756.1898510264327
 30
0.0
 11
324.0789842812172
 21
756.1898510264327
 31
0.0
  0
LINE
  5
FF5
330
1F
100
AcDbEntity
  8
0
  6
Continuous
 62
     7
100
AcDbLine
 10
255.0789842812173
 20
751.1898510264327
 30
0.0
 11
324.0789842812172
 21
751.1898510264327
 31
0.0
  0
LINE
  5
FF6
330
1F
100
AcDbEntity
  8
AM_7
100
AcDbLine
 10
180.4039842812171
 20
766.6898510264327
 30
0.0
 11
326.2726134627953
 21
766.6898510264327
 31
0.0
  0
LINE
  5
FF7
330
1F
100
AcDbEntity
  8
0
  6
Continuous
 62
     7
100
AcDbLine
 10
254.0789842812174
 20
822.6898510264327
 30
0.0
 11
324.0789842812172
 21
822.6898510264327
 31
0.0
  0
LINE
  5
FF8
330
1F
100
AcDbEntity
  8
0
  6
Continuous
 62
     7
100
AcDbLine
 10
254.0789842812174
 20
710.6898510264327
 30
0.0
 11
324.0789842812172
 21
710.6898510264327
 31
0.0
  0
DIMENSION
  5
FF9
330
1F
100
AcDbEntity
  8
Dim
100
AcDbDimension
  2
*D29
 10
324.0789842812172
 20
857.9825766469753
 30
0.0
 11
289.5789842812172
 21
860.2325766469753
 31
0.0
 70
    32
 71
     5
 42
69.0
  3
Standard
100
AcDbAlignedDimension
 13
255.0789842812172
 23
822.6898510264327
 33
0.0
 14
324.0789842812172
 24
838.1508554252231
 34
0.0
100
AcDbRotatedDimension
1001
ACAD
1000
DSTYLE
1002
{
1070
    41
1040
2.0
1070
    42
1040
1.0
1070
    44
1040
1.0
1070
    73
1070
     0
1070
    74
1070
     0
1070
    77
1070
     1
1070
    78
1070
     8
1070
    79
1070
     2
1070
   140
1040
2.5
1070
   141
1040
0.0
1070
   147
1040
1.0
1070
   172
1070
     1
1070
   174
1070
     1
1070
   176
1070
   256
1070
   177
1070
   256
1070
   178
1070
   256
1070
   271
1070
     2
1070
   272
1070
     2
1070
   340
1005
DAB
1070
   371
1070
    -1
1070
   372
1070
    -1
1002
}
  0
DIMENSION
  5
FFA
330
1F
100
AcDbEntity
  8
Dim
100
AcDbDimension
  2
*D30
 10
228.0789842812172
 20
865.9825766469753
 30
0.0
 11
276.0789842812172
 21
868.2325766469753
 31
0.0
 70
    32
 71
     5
 42
96.0
  3
Standard
100
AcDbAlignedDimension
 13
324.0789842812172
 23
847.8613450329175
 33
0.0
 14
228.0789842812172
 24
852.3388510264327
 34
0.0
100
AcDbRotatedDimension
1001
ACAD
1000
DSTYLE
1002
{
1070
    41
1040
2.0
1070
    42
1040
1.0
1070
    44
1040
1.0
1070
    73
1070
     0
1070
    74
1070
     0
1070
    77
1070
     1
1070
    78
1070
     8
1070
    79
1070
     2
1070
   140
1040
2.5
1070
   141
1040
0.0
1070
   147
1040
1.0
1070
   172
1070
     1
1070
   174
1070
     1
1070
   176
1070
   256
1070
   177
1070
   256
1070
   178
1070
   256
1070
   271
1070
     2
1070
   272
1070
     2
1070
   340
1005
DAB
1070
   371
1070
    -1
1070
   372
1070
    -1
1002
}
  0
LINE
  5
FFC
330
1F
100
AcDbEntity
  8
AM_7
100
AcDbLine
 10
273.9199842812173
 20
593.8648547914126
 30
0.0
 11
253.1329842812172
 21
593.8648547914126
 31
0.0
  0
LINE
  5
FFD
330
1F
100
AcDbEntity
  8
0
  6
Continuous
 62
     7
100
AcDbLine
 10
255.0789842812173
 20
611.8648547914126
 30
0.0
 11
324.0789842812172
 21
611.8648547914126
 31
0.0
  0
ARC
  5
FFF
330
1F
100
AcDbEntity
  8
AM_4
100
AcDbCircle
 10
264.0789842812174
 20
593.8648547914126
 30
0.0
 40
6.5785
100
AcDbArc
 50
260.0
 51
170.0
  0
CIRCLE
  5
1000
330
1F
100
AcDbEntity
  8
0
  6
Continuous
 62
     7
100
AcDbCircle
 10
264.0789842812174
 20
593.8648547914126
 30
0.0
 40
5.7225
  0
LINE
  5
1001
330
1F
100
AcDbEntity
  8
AM_7
100
AcDbLine
 10
183.3769842812171
 20
578.8648547914126
 30
0.0
 11
328.5059842812172
 21
578.8648547914126
 31
0.0
  0
LINE
  5
1002
330
1F
100
AcDbEntity
  8
0
  6
Continuous
 62
     7
100
AcDbLine
 10
255.0789842812173
 20
545.8648547914126
 30
0.0
 11
324.0789842812172
 21
545.8648547914126
 31
0.0
  0
LINE
  5
1003
330
1F
100
AcDbEntity
  8
0
  6
Continuous
 62
     7
100
AcDbLine
 10
188.0789842812173
 20
732.6868510264327
 30
0.0
 11
199.0779842812171
 21
710.6898510264327
 31
0.0
  0
DIMENSION
  5
1004
330
1F
100
AcDbEntity
  8
Dim
100
AcDbDimension
  2
*D31
 10
174.0789842812172
 20
680.6898510264327
 30
0.0
 11
171.8289842812171
 21
709.6898510264327
 31
0.0
 70
    32
 71
     5
 42
58.0
  3
Standard
100
AcDbAlignedDimension
 13
199.2149842812172
 23
738.6898510264327
 33
0.0
 14
202.0789842812172
 24
680.6898510264327
 34
0.0
 50
90.0
100
AcDbRotatedDimension
1001
ACAD
1000
DSTYLE
1002
{
1070
    41
1040
2.0
1070
    42
1040
1.0
1070
    44
1040
1.0
1070
    73
1070
     0
1070
    74
1070
     0
1070
    77
1070
     1
1070
    78
1070
     8
1070
    79
1070
     2
1070
   140
1040
2.5
1070
   141
1040
0.0
1070
   147
1040
1.0
1070
   172
1070
     1
1070
   174
1070
     1
1070
   176
1070
   256
1070
   177
1070
   256
1070
   178
1070
   256
1070
   271
1070
     2
1070
   272
1070
     2
1070
   340
1005
DAB
1070
   371
1070
    -1
1070
   372
1070
    -1
1002
}
  0
LINE
  5
1005
330
1F
100
AcDbEntity
  8
AM_7
100
AcDbLine
 10
228.0789842812173
 20
678.3428510264327
 30
0.0
 11
228.0789842812173
 21
852.3388510264327
 31
0.0
  0
LINE
  5
1006
330
1F
100
AcDbEntity
  8
0
  6
Continuous
 62
     7
100
AcDbLine
 10
202.0789842812173
 20
743.9698510264327
 30
0.0
 11
202.0789842812173
 21
680.6898510264327
 31
0.0
  0
LINE
  5
1007
330
1F
100
AcDbEntity
  8
0
  6
Continuous
 62
     7
100
AcDbLine
 10
254.0789842812174
 20
743.9698510264327
 30
0.0
 11
254.0789842812174
 21
680.6898510264327
 31
0.0
  0
LINE
  5
1008
330
1F
100
AcDbEntity
  8
0
  6
Continuous
 62
     7
100
AcDbLine
 10
255.0789842812173
 20
822.6898510264327
 30
0.0
 11
255.0789842812173
 21
710.6898510264327
 31
0.0
  0
LINE
  5
1009
330
1F
100
AcDbEntity
  8
0
  6
Continuous
 62
     7
100
AcDbLine
 10
188.0789842812173
 20
608.3648547914126
 30
0.0
 11
188.0789842812173
 21
549.3648547914126
 31
0.0
  0
LINE
  5
100A
330
1F
100
AcDbEntity
  8
0
  6
Continuous
 62
     7
100
AcDbLine
 10
199.0779842812171
 20
608.3648547914126
 30
0.0
 11
199.0779842812171
 21
549.3648547914126
 31
0.0
  0
DIMENSION
  5
100B
330
1F
100
AcDbEntity
  8
Dim
100
AcDbDimension
  2
*D32
 10
176.0789842812172
 20
559.8648547914126
 30
0.0
 11
173.8289842812171
 21
578.8648547914126
 31
0.0
 70
    32
 71
     5
 42
38.0
  3
Standard
100
AcDbAlignedDimension
 13
220.1449842812173
 23
597.8648547914126
 33
0.0
 14
223.0789842812172
 24
559.8648547914126
 34
0.0
 50
90.0
100
AcDbRotatedDimension
1001
ACAD
1000
DSTYLE
1002
{
1070
    41
1040
2.0
1070
    42
1040
1.0
1070
    44
1040
1.0
1070
    73
1070
     0
1070
    74
1070
     0
1070
    77
1070
     1
1070
    78
1070
     8
1070
    79
1070
     2
1070
   140
1040
2.5
1070
   141
1040
0.0
1070
   147
1040
1.0
1070
   172
1070
     1
1070
   174
1070
     1
1070
   176
1070
   256
1070
   177
1070
   256
1070
   178
1070
   256
1070
   271
1070
     2
1070
   272
1070
     2
1070
   340
1005
DAB
1070
   371
1070
    -1
1070
   372
1070
    -1
1002
}
  0
DIMENSION
  5
100C
330
1F
100
AcDbEntity
  8
Dim
100
AcDbDimension
  2
*D33
 10
168.0789842812172
 20
549.3648547914126
 30
0.0
 11
165.8289842812171
 21
578.8648547914126
 31
0.0
 70
    32
 71
     5
 42
59.0
  3
Standard
100
AcDbAlignedDimension
 13
188.0789842812172
 23
608.3648547914126
 33
0.0
 14
188.0789842812172
 24
549.3648547914126
 34
0.0
 50
90.0
100
AcDbRotatedDimension
1001
ACAD
1000
DSTYLE
1002
{
1070
    41
1040
2.0
1070
    42
1040
1.0
1070
    44
1040
1.0
1070
    73
1070
     0
1070
    74
1070
     0
1070
    77
1070
     1
1070
    78
1070
     8
1070
    79
1070
     2
1070
   140
1040
2.5
1070
   141
1040
0.0
1070
   147
1040
1.0
1070
   172
1070
     1
1070
   174
1070
     1
1070
   176
1070
   256
1070
   177
1070
   256
1070
   178
1070
   256
1070
   271
1070
     2
1070
   272
1070
     2
1070
   340
1005
DAB
1070
   371
1070
    -1
1070
   372
1070
    -1
1002
}
  0
DIMENSION
  5
100D
330
1F
100
AcDbEntity
  8
Dim
100
AcDbDimension
  2
*D34
 10
160.0789842812172
 20
542.3648547914126
 30
0.0
 11
157.8289842812171
 21
578.8648547914126
 31
0.0
 70
    32
 71
     5
 42
73.0
  3
Standard
100
AcDbAlignedDimension
 13
204.1339842812172
 23
615.3648547914126
 33
0.0
 14
204.2219842812173
 24
542.3648547914126
 34
0.0
 50
90.0
100
AcDbRotatedDimension
1001
ACAD
1000
DSTYLE
1002
{
1070
    41
1040
2.0
1070
    42
1040
1.0
1070
    44
1040
1.0
1070
    73
1070
     0
1070
    74
1070
     0
1070
    77
1070
     1
1070
    78
1070
     8
1070
    79
1070
     2
1070
   140
1040
2.5
1070
   141
1040
0.0
1070
   147
1040
1.0
1070
   172
1070
     1
1070
   174
1070
     1
1070
   176
1070
   256
1070
   177
1070
   256
1070
   178
1070
   256
1070
   271
1070
     2
1070
   272
1070
     2
1070
   340
1005
DAB
1070
   371
1070
    -1
1070
   372
1070
    -1
1002
}
  0
LINE
  5
100E
330
1F
100
AcDbEntity
  8
0
  6
Continuous
 62
     7
100
AcDbLine
 10
254.0789842812174
 20
621.3648547914126
 30
0.0
 11
254.0789842812174
 21
536.3648547914126
 31
0.0
  0
LINE
  5
100F
330
1F
100
AcDbEntity
  8
0
  6
Continuous
 62
     7
100
AcDbLine
 10
202.0789842812173
 20
621.3648547914126
 30
0.0
 11
202.0789842812173
 21
536.3648547914126
 31
0.0
  0
LINE
  5
1010
330
1F
100
AcDbEntity
  8
0
  6
Continuous
 62
     7
100
AcDbLine
 10
250.0789842812173
 20
621.3648547914126
 30
0.0
 11
250.0789842812173
 21
536.3648547914126
 31
0.0
  0
LINE
  5
1011
330
1F
100
AcDbEntity
  8
0
  6
Continuous
 62
     7
100
AcDbLine
 10
206.0789842812174
 20
621.3648547914126
 30
0.0
 11
206.0789842812174
 21
536.3648547914126
 31
0.0
  0
LEADER
  5
1012
330
1F
100
AcDbEntity
  8
Dim
100
AcDbLeader
  3
Standard
 76
     3
 10
224.3033435962866
 20
556.8181824544645
 30
0.0
 10
208.3013709853575
 20
522.4281385557324
 30
0.0
 10
159.1153449650746
 20
522.4281385557324
 30
0.0
1001
ACAD
1000
DSTYLE
1002
{
1070
    41
1040
2.0
1070
    42
1040
1.0
1070
    44
1040
1.0
1070
    73
1070
     0
1070
    74
1070
     0
1070
    77
1070
     0
1070
    78
1070
     8
1070
    79
1070
     2
1070
   140
1040
2.5
1070
   141
1040
0.0
1070
   147
1040
1.0
1070
   172
1070
     1
1070
   174
1070
     1
1070
   176
1070
   256
1070
   177
1070
   256
1070
   178
1070
   256
1070
   271
1070
     2
1070
   272
1070
     2
1070
   340
1005
DAB
1070
   371
1070
    -1
1070
   372
1070
    -1
1002
}
  0
TEXT
  5
1013
330
1F
100
AcDbEntity
  8
Dim
100
AcDbText
 10
158.6088536233273
 20
523.7543611143093
 30
0.0
 40
3.2
  1
4-M10x1.5x13depth
  7
China
100
AcDbText
  0
LINE
  5
1017
330
1F
100
AcDbEntity
  8
AM_7
100
AcDbLine
 10
220.4889842812172
 20
542.3648547914126
 30
0.0
 11
204.2219842812174
 21
542.3648547914126
 31
0.0
  0
LINE
  5
1018
330
1F
100
AcDbEntity
  8
0
  6
Continuous
 62
     7
100
AcDbLine
 10
202.0789842812173
 20
536.3648547914126
 30
0.0
 11
254.0789842812174
 21
536.3648547914126
 31
0.0
  0
CIRCLE
  5
1019
330
1F
100
AcDbEntity
  8
0
  6
Continuous
 62
     7
100
AcDbCircle
 10
212.5789842812173
 20
542.3648547914126
 30
0.0
 40
5.5
  0
LINE
  5
101A
330
1F
100
AcDbEntity
  8
0
  6
Continuous
 62
     7
100
AcDbLine
 10
188.0789842812173
 20
549.3648547914126
 30
0.0
 11
202.0789842812173
 21
549.3648547914126
 31
0.0
  0
LINE
  5
101B
330
1F
100
AcDbEntity
  8
AM_7
100
AcDbLine
 10
212.5789842812173
 20
533.8568547914126
 30
0.0
 11
212.5789842812173
 21
550.3108547914126
 31
0.0
  0
LINE
  5
101C
330
1F
100
AcDbEntity
  8
AM_7
100
AcDbLine
 10
228.0789842812173
 20
567.3338547914126
 30
0.0
 11
228.0789842812173
 21
551.8578547914126
 31
0.0
  0
LINE
  5
101D
330
1F
100
AcDbEntity
  8
AM_7
100
AcDbLine
 10
235.6679842812173
 20
542.3648547914126
 30
0.0
 11
251.9349842812171
 21
542.3648547914126
 31
0.0
  0
LINE
  5
101E
330
1F
100
AcDbEntity
  8
0
  6
Continuous
 62
     7
100
AcDbLine
 10
255.0789842812173
 20
549.3648547914126
 30
0.0
 11
255.0789842812173
 21
545.8648547914126
 31
0.0
  0
LINE
  5
101F
330
1F
100
AcDbEntity
  8
0
  6
Continuous
 62
     7
100
AcDbLine
 10
254.0789842812174
 20
549.3648547914126
 30
0.0
 11
255.0789842812173
 21
549.3648547914126
 31
0.0
  0
LINE
  5
1020
330
1F
100
AcDbEntity
  8
AM_7
100
AcDbLine
 10
243.5789842812174
 20
534.2088547914126
 30
0.0
 11
243.5789842812174
 21
549.5968547914126
 31
0.0
  0
CIRCLE
  5
1021
330
1F
100
AcDbEntity
  8
0
  6
Continuous
 62
     7
100
AcDbCircle
 10
243.5789842812174
 20
542.3648547914126
 30
0.0
 40
5.5
  0
CIRCLE
  5
1023
330
1F
100
AcDbEntity
  8
0
  6
Continuous
 62
     7
100
AcDbCircle
 10
228.0789842812173
 20
559.8648547914126
 30
0.0
 40
4.187999999999999
  0
LINE
  5
1024
330
1F
100
AcDbEntity
  8
AM_7
100
AcDbLine
 10
220.6739842812171
 20
559.8648547914126
 30
0.0
 11
235.6669842812171
 21
559.8648547914126
 31
0.0
  0
LINE
  5
1025
330
1F
100
AcDbEntity
  8
AM_7
100
AcDbLine
 10
220.1379842812171
 20
615.3648547914126
 30
0.0
 11
204.1339842812172
 21
615.3648547914126
 31
0.0
  0
LINE
  5
1026
330
1F
100
AcDbEntity
  8
0
  6
Continuous
 62
     7
100
AcDbLine
 10
202.0789842812173
 20
621.3648547914126
 30
0.0
 11
254.0789842812174
 21
621.3648547914126
 31
0.0
  0
CIRCLE
  5
1027
330
1F
100
AcDbEntity
  8
0
  6
Continuous
 62
     7
100
AcDbCircle
 10
212.5789842812173
 20
615.3648547914126
 30
0.0
 40
5.5
  0
LINE
  5
1028
330
1F
100
AcDbEntity
  8
AM_7
100
AcDbLine
 10
212.5789842812173
 20
623.8728547914127
 30
0.0
 11
212.5789842812173
 21
607.4188547914125
 31
0.0
  0
LINE
  5
1029
330
1F
100
AcDbEntity
  8
0
  6
Continuous
 62
     7
100
AcDbLine
 10
188.0789842812173
 20
608.3648547914126
 30
0.0
 11
202.0789842812173
 21
608.3648547914126
 31
0.0
  0
LINE
  5
102A
330
1F
100
AcDbEntity
  8
AM_7
100
AcDbLine
 10
243.5789842812174
 20
623.5218547914126
 30
0.0
 11
243.5789842812174
 21
608.1328547914126
 31
0.0
  0
CIRCLE
  5
102B
330
1F
100
AcDbEntity
  8
0
  6
Continuous
 62
     7
100
AcDbCircle
 10
243.5789842812174
 20
615.3648547914126
 30
0.0
 40
5.5
  0
LINE
  5
102C
330
1F
100
AcDbEntity
  8
AM_7
100
AcDbLine
 10
251.0009842812173
 20
615.3648547914126
 30
0.0
 11
235.8769842812171
 21
615.3648547914126
 31
0.0
  0
LINE
  5
102D
330
1F
100
AcDbEntity
  8
AM_7
100
AcDbLine
 10
220.1449842812171
 20
597.8648547914126
 30
0.0
 11
235.8429842812173
 21
597.8648547914126
 31
0.0
  0
CIRCLE
  5
102F
330
1F
100
AcDbEntity
  8
0
  6
Continuous
 62
     7
100
AcDbCircle
 10
228.0789842812173
 20
597.8648547914126
 30
0.0
 40
4.187999999999999
  0
LINE
  5
1030
330
1F
100
AcDbEntity
  8
AM_7
100
AcDbLine
 10
228.0789842812173
 20
604.8798547914126
 30
0.0
 11
228.0789842812173
 21
590.8988547914126
 31
0.0
  0
LINE
  5
1031
330
1F
100
AcDbEntity
  8
0
  6
Continuous
 62
     7
100
AcDbLine
 10
254.0789842812174
 20
608.3648547914126
 30
0.0
 11
255.0789842812173
 21
608.3648547914126
 31
0.0
  0
LINE
  5
1033
330
1F
100
AcDbEntity
  8
0
  6
Continuous
 62
     7
100
AcDbLine
 10
255.0789842812173
 20
611.8648547914126
 30
0.0
 11
255.0789842812173
 21
608.3648547914126
 31
0.0
  0
TEXT
  5
1036
330
1F
100
AcDbEntity
  8
Dim
100
AcDbText
 10
288.0550852804655
 20
626.1518067902365
 30
0.0
 40
3.2
  1
Rc1/4
  7
China
100
AcDbText
  0
LINE
  5
1037
330
1F
100
AcDbEntity
  8
0
  6
Continuous
 62
     7
100
AcDbLine
 10
202.0789842812173
 20
697.6898510264327
 30
0.0
 11
223.0789842812173
 21
697.6898510264327
 31
0.0
  0
LINE
  5
1038
330
1F
100
AcDbEntity
  8
0
  6
Continuous
 62
     7
100
AcDbLine
 10
206.0789842812174
 20
684.6898510264327
 30
0.0
 11
250.0789842812173
 21
684.6898510264327
 31
0.0
  0
DIMENSION
  5
1039
330
1F
100
AcDbEntity
  8
Dim
100
AcDbDimension
  2
*D35
 10
250.0789842812172
 20
668.6898510264327
 30
0.0
 11
228.0789842812172
 21
671.7606843597661
 31
0.0
 70
    32
  1
<>{}{\H0.71x;\C3;\S+0.40^ +0.10;}
 71
     5
 42
44.0
  3
Standard
100
AcDbAlignedDimension
 13
206.0789842812172
 23
680.6898510264327
 33
0.0
 14
250.0789842812172
 24
680.6898510264327
 34
0.0
100
AcDbRotatedDimension
1001
ACAD
1000
DSTYLE
1002
{
1070
   286
1070
     0
1070
   284
1070
     0
1070
   274
1070
     2
1070
    41
1040
2.0
1070
    42
1040
1.0
1070
    44
1040
1.0
1070
    47
1040
0.4
1070
    48
1040
-0.1
1070
    73
1070
     0
1070
    74
1070
     0
1070
    77
1070
     1
1070
    78
1070
     8
1070
    79
1070
     2
1070
   140
1040
2.5
1070
   141
1040
0.0
1070
   147
1040
1.0
1070
   172
1070
     1
1070
   174
1070
     1
1070
   176
1070
   256
1070
   177
1070
   256
1070
   178
1070
   256
1070
   271
1070
     2
1070
   272
1070
     2
1070
   340
1005
DAB
1070
   371
1070
    -1
1070
   372
1070
    -1
1002
}
1001
GENIUS_GENDTOL_13
1000
TolSmNrm
1000

1000
{\H0.71x;$2\S$+$P^ $-$M;}
1040
44.0
  0
DIMENSION
  5
103A
330
1F
100
AcDbEntity
  8
Dim
100
AcDbDimension
  2
*D36
 10
254.0789842812172
 20
660.6898510264327
 30
0.0
 11
228.0789842812172
 21
662.9398510264327
 31
0.0
 70
    32
 71
     5
 42
52.0
  3
Standard
100
AcDbAlignedDimension
 13
202.0789842812172
 23
680.6898510264327
 33
0.0
 14
254.0789842812172
 24
680.6898510264327
 34
0.0
100
AcDbRotatedDimension
1001
ACAD
1000
DSTYLE
1002
{
1070
    41
1040
2.0
1070
    42
1040
1.0
1070
    44
1040
1.0
1070
    73
1070
     0
1070
    74
1070
     0
1070
    77
1070
     1
1070
    78
1070
     8
1070
    79
1070
     2
1070
   140
1040
2.5
1070
   141
1040
0.0
1070
   147
1040
1.0
1070
   172
1070
     1
1070
   174
1070
     1
1070
   176
1070
   256
1070
   177
1070
   256
1070
   178
1070
   256
1070
   271
1070
     2
1070
   272
1070
     2
1070
   340
1005
DAB
1070
   371
1070
    -1
1070
   372
1070
    -1
1002
}
  0
LINE
  5
103B
330
1F
100
AcDbEntity
  8
0
  6
Continuous
 62
     7
100
AcDbLine
 10
206.0789842812174
 20
680.6898510264327
 30
0.0
 11
206.0789842812174
 21
684.6898510264327
 31
0.0
  0
DIMENSION
  5
103C
330
1F
100
AcDbEntity
  8
Dim
100
AcDbDimension
  2
*D37
 10
190.0789842812172
 20
684.6898510264327
 30
0.0
 11
187.8289842812171
 21
682.6898510264327
 31
0.0
 70
    32
 71
     5
 42
4.0
  3
Standard
100
AcDbAlignedDimension
 13
202.0789842812172
 23
680.6898510264327
 33
0.0
 14
206.0789842812172
 24
684.6898510264327
 34
0.0
 50
90.0
100
AcDbRotatedDimension
1001
ACAD
1000
DSTYLE
1002
{
1070
    41
1040
2.0
1070
    42
1040
1.0
1070
    44
1040
1.0
1070
    73
1070
     0
1070
    74
1070
     0
1070
    77
1070
     1
1070
    78
1070
     8
1070
    79
1070
     2
1070
   140
1040
2.5
1070
   141
1040
0.0
1070
   147
1040
1.0
1070
   172
1070
     1
1070
   174
1070
     1
1070
   176
1070
   256
1070
   177
1070
   256
1070
   178
1070
   256
1070
   271
1070
     2
1070
   272
1070
     2
1070
   340
1005
DAB
1070
   371
1070
    -1
1070
   372
1070
    -1
1002
}
  0
DIMENSION
  5
103D
330
1F
100
AcDbEntity
  8
Dim
100
AcDbDimension
  2
*D38
 10
182.0789842812172
 20
697.6898510264327
 30
0.0
 11
179.8289842812171
 21
689.1898510264327
 31
0.0
 70
    32
 71
     5
 42
17.0
  3
Standard
100
AcDbAlignedDimension
 13
196.6099395184545
 23
680.6898510264327
 33
0.0
 14
202.0789842812172
 24
697.6898510264327
 34
0.0
 50
90.0
100
AcDbRotatedDimension
1001
ACAD
1000
DSTYLE
1002
{
1070
    41
1040
2.0
1070
    42
1040
1.0
1070
    44
1040
1.0
1070
    73
1070
     0
1070
    74
1070
     0
1070
    77
1070
     1
1070
    78
1070
     8
1070
    79
1070
     2
1070
   140
1040
2.5
1070
   141
1040
0.0
1070
   147
1040
1.0
1070
   172
1070
     1
1070
   174
1070
     1
1070
   176
1070
   256
1070
   177
1070
   256
1070
   178
1070
   256
1070
   271
1070
     2
1070
   272
1070
     2
1070
   340
1005
DAB
1070
   371
1070
    -1
1070
   372
1070
    -1
1002
}
  0
LINE
  5
103E
330
1F
100
AcDbEntity
  8
0
  6
Continuous
 62
     7
100
AcDbLine
 10
202.0789842812173
 20
680.6898510264327
 30
0.0
 11
206.0789842812174
 21
680.6898510264327
 31
0.0
  0
LINE
  5
103F
330
1F
100
AcDbEntity
  8
0
  6
Continuous
 62
     7
100
AcDbLine
 10
199.0779842812171
 20
710.6898510264327
 30
0.0
 11
202.0789842812173
 21
710.6898510264327
 31
0.0
  0
LINE
  5
1040
330
1F
100
AcDbEntity
  8
0
  6
Continuous
 62
     7
100
AcDbLine
 10
250.0789842812173
 20
680.6898510264327
 30
0.0
 11
250.0789842812173
 21
684.6898510264327
 31
0.0
  0
LINE
  5
1041
330
1F
100
AcDbEntity
  8
0
  6
Continuous
 62
     7
100
AcDbLine
 10
250.0789842812173
 20
680.6898510264327
 30
0.0
 11
254.0789842812174
 21
680.6898510264327
 31
0.0
  0
LINE
  5
1042
330
1F
100
AcDbEntity
  8
0
  6
Continuous
 62
     7
100
AcDbLine
 10
233.0789842812174
 20
697.6898510264327
 30
0.0
 11
254.0789842812174
 21
697.6898510264327
 31
0.0
  0
LINE
  5
1043
330
1F
100
AcDbEntity
  8
0
  6
Continuous
 62
     7
100
AcDbLine
 10
223.0789842812173
 20
695.3898510264328
 30
0.0
 11
233.0789842812174
 21
695.3898510264328
 31
0.0
  0
LINE
  5
1044
330
1F
100
AcDbEntity
  8
0
  6
Continuous
 62
     7
100
AcDbLine
 10
233.0789842812174
 20
695.3898510264328
 30
0.0
 11
233.0789842812174
 21
697.6898510264327
 31
0.0
  0
LINE
  5
1045
330
1F
100
AcDbEntity
  8
0
  6
Continuous
 62
     7
100
AcDbLine
 10
223.0789842812173
 20
695.3898510264328
 30
0.0
 11
223.0789842812173
 21
697.6898510264327
 31
0.0
  0
LINE
  5
1046
330
1F
100
AcDbEntity
  8
0
  6
Continuous
 62
     7
100
AcDbLine
 10
254.0789842812174
 20
789.4098510264328
 30
0.0
 11
254.0789842812174
 21
852.6898510264327
 31
0.0
  0
LINE
  5
1047
330
1F
100
AcDbEntity
  8
0
  6
Continuous
 62
     7
100
AcDbLine
 10
202.0789842812173
 20
789.4098510264328
 30
0.0
 11
202.0789842812173
 21
852.6898510264327
 31
0.0
  0
ARC
  5
1048
330
1F
100
AcDbEntity
  8
0
  6
Continuous
 62
     7
100
AcDbCircle
 10
255.0789842812173
 20
779.6898510264327
 30
0.0
 40
3.225
100
AcDbArc
 50
90.0
 51
270.0
  0
ARC
  5
1049
330
1F
100
AcDbEntity
  8
0
  6
Continuous
 62
     7
100
AcDbCircle
 10
228.0789842812173
 20
796.6898510264327
 30
0.0
 40
27.0
100
AcDbArc
 50
195.6419999999997
 51
344.3580000000003
  0
DIMENSION
  5
104A
330
1F
100
AcDbEntity
  8
Dim
100
AcDbDimension
  2
*D39
 10
174.0789842812172
 20
738.6898510264327
 30
0.0
 11
171.8289842812171
 21
766.6898510264327
 31
0.0
 70
    32
 71
     5
 42
56.0
  3
Standard
100
AcDbAlignedDimension
 13
200.3089842812173
 23
794.6898510264327
 33
0.0
 14
199.2149842812172
 24
738.6898510264327
 34
0.0
 50
90.0
100
AcDbRotatedDimension
1001
ACAD
1000
DSTYLE
1002
{
1070
    41
1040
2.0
1070
    42
1040
1.0
1070
    44
1040
1.0
1070
    73
1070
     0
1070
    74
1070
     0
1070
    77
1070
     1
1070
    78
1070
     8
1070
    79
1070
     2
1070
   140
1040
2.5
1070
   141
1040
0.0
1070
   147
1040
1.0
1070
   172
1070
     1
1070
   174
1070
     1
1070
   176
1070
   256
1070
   177
1070
   256
1070
   178
1070
   256
1070
   271
1070
     2
1070
   272
1070
     2
1070
   340
1005
DAB
1070
   371
1070
    -1
1070
   372
1070
    -1
1002
}
  0
LINE
  5
104B
330
1F
100
AcDbEntity
  8
0
  6
Continuous
 62
     7
100
AcDbLine
 10
188.0789842812173
 20
800.6968510264327
 30
0.0
 11
188.0789842812173
 21
732.6868510264327
 31
0.0
  0
LINE
  5
104C
330
1F
100
AcDbEntity
  8
0
  6
Continuous
 62
     7
100
AcDbLine
 10
220.0789842812174
 20
742.1898510264327
 30
0.0
 11
214.0789842812174
 21
742.1898510264327
 31
0.0
  0
ARC
  5
104D
330
1F
100
AcDbEntity
  8
0
  6
Continuous
 62
     7
100
AcDbCircle
 10
228.0789842812173
 20
736.6898510264327
 30
0.0
 40
27.0
100
AcDbArc
 50
15.64250000000062
 51
164.3580000000003
  0
LINE
  5
104E
330
1F
100
AcDbEntity
  8
AM_7
100
AcDbLine
 10
199.2149842812173
 20
738.6898510264327
 30
0.0
 11
244.0409842812173
 21
738.6898510264327
 31
0.0
  0
LINE
  5
104F
330
1F
100
AcDbEntity
  8
0
  6
Continuous
 62
     7
100
AcDbLine
 10
220.0789842812174
 20
735.1898510264327
 30
0.0
 11
214.0789842812174
 21
735.1898510264327
 31
0.0
  0
LINE
  5
1050
330
1F
100
AcDbEntity
  8
0
  6
Continuous
 62
     7
100
AcDbLine
 10
214.0789842812174
 20
735.1898510264327
 30
0.0
 11
214.0789842812174
 21
742.1898510264327
 31
0.0
  0
ARC
  5
1051
330
1F
100
AcDbEntity
  8
0
  6
Continuous
 62
     7
100
AcDbCircle
 10
228.0789842812173
 20
738.6898510264327
 30
0.0
 40
11.0
100
AcDbArc
 50
198.5529999999993
 51
161.4469999999991
  0
LINE
  5
1052
330
1F
100
AcDbEntity
  8
0
  6
Continuous
 62
     7
100
AcDbLine
 10
220.0789842812174
 20
735.1898510264327
 30
0.0
 11
220.0789842812174
 21
742.1898510264327
 31
0.0
  0
ARC
  5
1053
330
1F
100
AcDbEntity
  8
0
  6
Continuous
 62
     7
100
AcDbCircle
 10
255.0789842812173
 20
753.6898510264327
 30
0.0
 40
3.225
100
AcDbArc
 50
90.0
 51
270.0
  0
LINE
  5
1054
330
1F
100
AcDbEntity
  8
0
  6
Continuous
 62
     7
100
AcDbLine
 10
202.0789842812173
 20
835.6898510264327
 30
0.0
 11
223.0789842812173
 21
835.6898510264327
 31
0.0
  0
LINE
  5
1055
330
1F
100
AcDbEntity
  8
0
  6
Continuous
 62
     7
100
AcDbLine
 10
214.0789842812174
 20
798.1898510264327
 30
0.0
 11
220.0789842812174
 21
798.1898510264327
 31
0.0
  0
LINE
  5
1056
330
1F
100
AcDbEntity
  8
AM_7
100
AcDbLine
 10
244.0409842812173
 20
794.6898510264327
 30
0.0
 11
200.3089842812173
 21
794.6898510264327
 31
0.0
  0
LINE
  5
1057
330
1F
100
AcDbEntity
  8
0
  6
Continuous
 62
     7
100
AcDbLine
 10
214.0789842812174
 20
791.1898510264327
 30
0.0
 11
220.0789842812174
 21
791.1898510264327
 31
0.0
  0
LINE
  5
1058
102
{ACAD_REACTORS
330
1990
102
}
330
1F
100
AcDbEntity
  8
0
  6
Continuous
 62
     7
100
AcDbLine
 10
188.0789842812173
 20
800.6968510264327
 30
0.0
 11
199.0749842812172
 21
822.6898510264327
 31
0.0
  0
LINE
  5
1059
330
1F
100
AcDbEntity
  8
0
  6
Continuous
 62
     7
100
AcDbLine
 10
214.0789842812174
 20
791.1898510264327
 30
0.0
 11
214.0789842812174
 21
798.1898510264327
 31
0.0
  0
LINE
  5
105A
330
1F
100
AcDbEntity
  8
0
  6
Continuous
 62
     7
100
AcDbLine
 10
199.0749842812172
 20
822.6898510264327
 30
0.0
 11
202.0789842812173
 21
822.6898510264327
 31
0.0
  0
ARC
  5
105B
330
1F
100
AcDbEntity
  8
0
  6
Continuous
 62
     7
100
AcDbCircle
 10
228.0789842812173
 20
794.6898510264327
 30
0.0
 40
11.0
100
AcDbArc
 50
198.5529999999993
 51
161.4469999999991
  0
LINE
  5
105C
330
1F
100
AcDbEntity
  8
0
  6
Continuous
 62
     7
100
AcDbLine
 10
220.0789842812174
 20
791.1898510264327
 30
0.0
 11
220.0789842812174
 21
798.1898510264327
 31
0.0
  0
LINE
  5
105D
330
1F
100
AcDbEntity
  8
0
  6
Continuous
 62
     7
100
AcDbLine
 10
233.0789842812174
 20
835.6898510264327
 30
0.0
 11
254.0789842812174
 21
835.6898510264327
 31
0.0
  0
LINE
  5
105E
330
1F
100
AcDbEntity
  8
0
  6
Continuous
 62
     7
100
AcDbLine
 10
223.0789842812173
 20
837.9898510264327
 30
0.0
 11
233.0789842812174
 21
837.9898510264327
 31
0.0
  0
LINE
  5
105F
330
1F
100
AcDbEntity
  8
0
  6
Continuous
 62
     7
100
AcDbLine
 10
233.0789842812174
 20
837.9898510264327
 30
0.0
 11
233.0789842812174
 21
835.6898510264327
 31
0.0
  0
LINE
  5
1060
330
1F
100
AcDbEntity
  8
0
  6
Continuous
 62
     7
100
AcDbLine
 10
223.0789842812173
 20
837.9898510264327
 30
0.0
 11
223.0789842812173
 21
835.6898510264327
 31
0.0
  0
LINE
  5
1061
330
1F
100
AcDbEntity
  8
AM_7
100
AcDbLine
 10
228.0789842812173
 20
942.1266528624965
 30
0.0
 11
228.0789842812173
 21
926.6506528624965
 31
0.0
  0
LINE
  5
1062
330
1F
100
AcDbEntity
  8
0
  6
Continuous
 62
     7
100
AcDbLine
 10
199.0779842812171
 20
983.1576528624964
 30
0.0
 11
199.0779842812171
 21
924.1576528624964
 31
0.0
  0
LINE
  5
1063
330
1F
100
AcDbEntity
  8
0
  6
Continuous
 62
     7
100
AcDbLine
 10
188.0789842812173
 20
983.1576528624964
 30
0.0
 11
188.0789842812173
 21
924.1576528624964
 31
0.0
  0
CIRCLE
  5
1064
330
1F
100
AcDbEntity
  8
0
  6
Continuous
 62
     7
100
AcDbCircle
 10
212.5789842812173
 20
917.1576528624964
 30
0.0
 40
5.5
  0
LINE
  5
1065
330
1F
100
AcDbEntity
  8
AM_7
100
AcDbLine
 10
220.4889842812172
 20
917.1576528624964
 30
0.0
 11
204.2219842812174
 21
917.1576528624964
 31
0.0
  0
LINE
  5
1066
330
1F
100
AcDbEntity
  8
0
  6
Continuous
 62
     7
100
AcDbLine
 10
254.0789842812174
 20
911.1576528624963
 30
0.0
 11
202.0789842812173
 21
911.1576528624963
 31
0.0
  0
LINE
  5
1067
330
1F
100
AcDbEntity
  8
0
  6
Continuous
 62
     7
100
AcDbLine
 10
206.0789842812174
 20
848.6898510264326
 30
0.0
 11
250.0789842812173
 21
848.6898510264326
 31
0.0
  0
LINE
  5
1068
330
1F
100
AcDbEntity
  8
0
  6
Continuous
 62
     7
100
AcDbLine
 10
202.0789842812173
 20
852.6898510264327
 30
0.0
 11
206.0789842812174
 21
852.6898510264327
 31
0.0
  0
LINE
  5
1069
330
1F
100
AcDbEntity
  8
0
  6
Continuous
 62
     7
100
AcDbLine
 10
206.0789842812174
 20
852.6898510264327
 30
0.0
 11
206.0789842812174
 21
848.6898510264326
 31
0.0
  0
LINE
  5
106A
330
1F
100
AcDbEntity
  8
0
  6
Continuous
 62
     7
100
AcDbLine
 10
188.0789842812173
 20
924.1576528624964
 30
0.0
 11
202.0789842812173
 21
924.1576528624964
 31
0.0
  0
LINE
  5
106B
330
1F
100
AcDbEntity
  8
AM_7
100
AcDbLine
 10
212.5789842812173
 20
908.6496528624964
 30
0.0
 11
212.5789842812173
 21
925.1036528624965
 31
0.0
  0
LINE
  5
106C
330
1F
100
AcDbEntity
  8
0
  6
Continuous
 62
     7
100
AcDbLine
 10
250.0789842812173
 20
852.6898510264327
 30
0.0
 11
254.0789842812174
 21
852.6898510264327
 31
0.0
  0
LINE
  5
106D
330
1F
100
AcDbEntity
  8
0
  6
Continuous
 62
     7
100
AcDbLine
 10
250.0789842812173
 20
852.6898510264327
 30
0.0
 11
250.0789842812173
 21
848.6898510264326
 31
0.0
  0
LINE
  5
106E
330
1F
100
AcDbEntity
  8
AM_7
100
AcDbLine
 10
235.6679842812173
 20
917.1576528624964
 30
0.0
 11
251.9349842812171
 21
917.1576528624964
 31
0.0
  0
LINE
  5
106F
330
1F
100
AcDbEntity
  8
AM_7
100
AcDbLine
 10
243.5789842812174
 20
908.6496528624964
 30
0.0
 11
243.5789842812174
 21
925.1036528624965
 31
0.0
  0
LINE
  5
1070
330
1F
100
AcDbEntity
  8
0
  6
Continuous
 62
     7
100
AcDbLine
 10
255.0789842812173
 20
924.1576528624964
 30
0.0
 11
255.0789842812173
 21
920.6576528624964
 31
0.0
  0
CIRCLE
  5
1071
330
1F
100
AcDbEntity
  8
0
  6
Continuous
 62
     7
100
AcDbCircle
 10
243.5789842812174
 20
917.1576528624964
 30
0.0
 40
5.5
  0
LINE
  5
1072
330
1F
100
AcDbEntity
  8
0
  6
Continuous
 62
     7
100
AcDbLine
 10
254.0789842812174
 20
924.1576528624964
 30
0.0
 11
255.0789842812173
 21
924.1576528624964
 31
0.0
  0
LINE
  5
1073
330
1F
100
AcDbEntity
  8
AM_7
100
AcDbLine
 10
220.1379842812171
 20
990.1576528624964
 30
0.0
 11
204.1339842812172
 21
990.1576528624964
 31
0.0
  0
LINE
  5
1074
330
1F
100
AcDbEntity
  8
0
  6
Continuous
 62
     7
100
AcDbLine
 10
188.0789842812173
 20
983.1576528624964
 30
0.0
 11
202.0789842812173
 21
983.1576528624964
 31
0.0
  0
CIRCLE
  5
1076
330
1F
100
AcDbEntity
  8
0
  6
Continuous
 62
     7
100
AcDbCircle
 10
228.0789842812173
 20
934.6576528624964
 30
0.0
 40
4.187999999999999
  0
LINE
  5
1078
330
1F
100
AcDbEntity
  8
AM_7
100
AcDbLine
 10
234.5579842812171
 20
934.6576528624964
 30
0.0
 11
219.7859842812172
 21
934.6576528624964
 31
0.0
  0
LINE
  5
1079
330
1F
100
AcDbEntity
  8
AM_7
100
AcDbLine
 10
251.0009842812173
 20
990.1576528624964
 30
0.0
 11
235.8769842812171
 21
990.1576528624964
 31
0.0
  0
LINE
  5
107A
330
1F
100
AcDbEntity
  8
AM_7
100
AcDbLine
 10
235.0859842812172
 20
972.6576528624963
 30
0.0
 11
219.8179842812174
 21
972.6576528624963
 31
0.0
  0
LINE
  5
107B
330
1F
100
AcDbEntity
  8
AM_7
100
AcDbLine
 10
228.0789842812173
 20
979.6726528624963
 30
0.0
 11
228.0789842812173
 21
965.6916528624964
 31
0.0
  0
CIRCLE
  5
107C
330
1F
100
AcDbEntity
  8
0
  6
Continuous
 62
     7
100
AcDbCircle
 10
228.0789842812173
 20
972.6576528624963
 30
0.0
 40
4.187999999999999
  0
LINE
  5
107E
330
1F
100
AcDbEntity
  8
0
  6
Continuous
 62
     7
100
AcDbLine
 10
254.0789842812174
 20
983.1576528624964
 30
0.0
 11
255.0789842812173
 21
983.1576528624964
 31
0.0
  0
LINE
  5
107F
330
1F
100
AcDbEntity
  8
0
  6
Continuous
 62
     7
100
AcDbLine
 10
255.0789842812173
 20
986.6576528624964
 30
0.0
 11
255.0789842812173
 21
983.1576528624964
 31
0.0
  0
DIMENSION
  5
1080
330
1F
100
AcDbEntity
  8
Dim
100
AcDbDimension
  2
*D40
 10
344.0789842812173
 20
710.6898510264327
 30
0.0
 11
341.8289842812171
 21
766.6898510264328
 31
0.0
 70
    32
 71
     5
 42
112.0
  3
Standard
100
AcDbAlignedDimension
 13
324.0789842812172
 23
822.6898510264327
 33
0.0
 14
324.0789842812172
 24
710.6898510264327
 34
0.0
 50
90.0
100
AcDbRotatedDimension
1001
ACAD
1000
DSTYLE
1002
{
1070
    41
1040
2.0
1070
    42
1040
1.0
1070
    44
1040
1.0
1070
    73
1070
     0
1070
    74
1070
     0
1070
    77
1070
     1
1070
    78
1070
     8
1070
    79
1070
     2
1070
   140
1040
2.5
1070
   141
1040
0.0
1070
   147
1040
1.0
1070
   172
1070
     1
1070
   174
1070
     1
1070
   176
1070
   256
1070
   177
1070
   256
1070
   178
1070
   256
1070
   271
1070
     2
1070
   272
1070
     2
1070
   340
1005
DAB
1070
   371
1070
    -1
1070
   372
1070
    -1
1002
}
  0
LINE
  5
1081
102
{ACAD_REACTORS
330
1990
102
}
330
1F
100
AcDbEntity
  8
0
  6
Continuous
 62
     7
100
AcDbLine
 10
324.0789842812172
 20
822.6898510264327
 30
0.0
 11
324.0789842812172
 21
710.6898510264327
 31
0.0
  0
LINE
  5
1082
330
1F
100
AcDbEntity
  8
0
  6
Continuous
 62
     7
100
AcDbLine
 10
433.3941674814753
 20
680.6898510264327
 30
0.0
 11
433.3941674814753
 21
763.6898510264327
 31
0.0
  0
LINE
  5
1083
330
1F
100
AcDbEntity
  8
0
  6
Continuous
 62
     7
100
AcDbLine
 10
518.3941674814754
 20
680.6898510264327
 30
0.0
 11
518.3941674814754
 21
763.6898510264327
 31
0.0
  0
LINE
  5
1084
330
1F
100
AcDbEntity
  8
AM_7
100
AcDbLine
 10
475.8941674814754
 20
827.6558510264328
 30
0.0
 11
475.8941674814754
 21
676.9758510264328
 31
0.0
  0
DIMENSION
  5
1085
330
1F
100
AcDbEntity
  8
Dim
100
AcDbDimension
  2
*D41
 10
495.8941674814753
 20
664.0610303881544
 30
0.0
 11
475.8941674814754
 21
666.3110303881544
 31
0.0
 70
    32
 71
     5
 42
40.0
  3
Standard
100
AcDbAlignedDimension
 13
455.8941674814754
 23
719.9628510264327
 33
0.0
 14
495.8941674814753
 24
800.0048510264328
 34
0.0
100
AcDbRotatedDimension
1001
ACAD
1000
DSTYLE
1002
{
1070
    41
1040
2.0
1070
    42
1040
1.0
1070
    44
1040
1.0
1070
    73
1070
     0
1070
    74
1070
     0
1070
    77
1070
     1
1070
    78
1070
     8
1070
    79
1070
     2
1070
   140
1040
2.5
1070
   141
1040
0.0
1070
   147
1040
1.0
1070
   172
1070
     1
1070
   174
1070
     1
1070
   176
1070
   256
1070
   177
1070
   256
1070
   178
1070
   256
1070
   271
1070
     2
1070
   272
1070
     2
1070
   340
1005
DAB
1070
   371
1070
    -1
1070
   372
1070
    -1
1002
}
  0
LINE
  5
1086
330
1F
100
AcDbEntity
  8
0
  6
Continuous
 62
     7
100
AcDbLine
 10
442.8941674814754
 20
751.1898510264327
 30
0.0
 11
442.8941674814754
 21
713.6118510264327
 31
0.0
  0
LINE
  5
1087
330
1F
100
AcDbEntity
  8
0
  6
Continuous
 62
     7
100
AcDbLine
 10
508.8941674814754
 20
751.1898510264327
 30
0.0
 11
508.8941674814754
 21
713.6118510264327
 31
0.0
  0
LINE
  5
1088
330
1F
100
AcDbEntity
  8
AM_7
100
AcDbLine
 10
264.0789842812174
 20
582.6418547914126
 30
0.0
 11
264.0789842812174
 21
603.2628547914127
 31
0.0
  0
DIMENSION
  5
1089
330
1F
100
AcDbEntity
  8
Dim
100
AcDbDimension
  2
*D42
 10
336.0789842812172
 20
563.8648547914126
 30
0.0
 11
333.8289842812172
 21
578.8648547914127
 31
0.0
 70
    32
 71
     5
 42
30.0
  3
Standard
100
AcDbAlignedDimension
 13
273.9199842812173
 23
593.8648547914126
 33
0.0
 14
320.3149842812172
 24
563.8648547914126
 34
0.0
 50
90.0
100
AcDbRotatedDimension
1001
ACAD
1000
DSTYLE
1002
{
1070
    41
1040
2.0
1070
    42
1040
1.0
1070
    44
1040
1.0
1070
    73
1070
     0
1070
    74
1070
     0
1070
    77
1070
     1
1070
    78
1070
     8
1070
    79
1070
     2
1070
   140
1040
2.5
1070
   141
1040
0.0
1070
   147
1040
1.0
1070
   172
1070
     1
1070
   174
1070
     1
1070
   176
1070
   256
1070
   177
1070
   256
1070
   178
1070
   256
1070
   271
1070
     2
1070
   272
1070
     2
1070
   340
1005
DAB
1070
   371
1070
    -1
1070
   372
1070
    -1
1002
}
  0
LEADER
  5
108A
330
1F
100
AcDbEntity
  8
Dim
100
AcDbLeader
  3
Standard
 76
     3
 10
313.3163871987035
 20
559.9611842915431
 30
0.0
 10
340.2586602026103
 20
544.9554486287702
 30
0.0
 10
358.4010200926023
 20
544.9554486287702
 30
0.0
1001
ACAD
1000
DSTYLE
1002
{
1070
    41
1040
2.0
1070
    42
1040
1.0
1070
    44
1040
1.0
1070
    73
1070
     0
1070
    74
1070
     0
1070
    77
1070
     0
1070
    78
1070
     8
1070
    79
1070
     2
1070
   140
1040
2.5
1070
   141
1040
0.0
1070
   147
1040
1.0
1070
   172
1070
     1
1070
   174
1070
     1
1070
   176
1070
   256
1070
   177
1070
   256
1070
   178
1070
   256
1070
   271
1070
     2
1070
   272
1070
     2
1070
   340
1005
DAB
1070
   371
1070
    -1
1070
   372
1070
    -1
1002
}
  0
LINE
  5
108B
330
1F
100
AcDbEntity
  8
0
  6
Continuous
 62
     7
100
AcDbLine
 10
324.0789842812172
 20
611.8648547914126
 30
0.0
 11
324.0789842812172
 21
545.8648547914126
 31
0.0
  0
DIMENSION
  5
108C
330
1F
100
AcDbEntity
  8
Dim
100
AcDbDimension
  2
*D43
 10
833.7368745701478
 20
900.6898510264328
 30
0.0
 11
791.2368745701479
 21
902.9398510264327
 31
0.0
 70
    32
 71
     5
 42
85.0
  3
Standard
100
AcDbAlignedDimension
 13
748.7368745701478
 23
848.6898510264326
 33
0.0
 14
833.7368745701478
 24
848.6898510264326
 34
0.0
100
AcDbRotatedDimension
1001
ACAD
1000
DSTYLE
1002
{
1070
    41
1040
2.0
1070
    42
1040
1.0
1070
    44
1040
1.0
1070
    73
1070
     0
1070
    74
1070
     0
1070
    77
1070
     1
1070
    78
1070
     8
1070
    79
1070
     2
1070
   140
1040
2.5
1070
   141
1040
0.0
1070
   147
1040
1.0
1070
   172
1070
     1
1070
   174
1070
     1
1070
   176
1070
   256
1070
   177
1070
   256
1070
   178
1070
   256
1070
   271
1070
     2
1070
   272
1070
     2
1070
   340
1005
DAB
1070
   371
1070
    -1
1070
   372
1070
    -1
1002
}
  0
DIMENSION
  5
108D
330
1F
100
AcDbEntity
  8
Dim
100
AcDbDimension
  2
*D44
 10
820.2368745701479
 20
892.6898510264328
 30
0.0
 11
791.2368745701479
 21
894.9398510264327
 31
0.0
 70
    32
 71
     5
 42
58.0
  3
Standard
100
AcDbAlignedDimension
 13
762.2368745701479
 23
872.6898510264327
 33
0.0
 14
820.2368745701479
 24
872.6898510264327
 34
0.0
100
AcDbRotatedDimension
1001
ACAD
1000
DSTYLE
1002
{
1070
    41
1040
2.0
1070
    42
1040
1.0
1070
    44
1040
1.0
1070
    73
1070
     0
1070
    74
1070
     0
1070
    77
1070
     1
1070
    78
1070
     8
1070
    79
1070
     2
1070
   140
1040
2.5
1070
   141
1040
0.0
1070
   147
1040
1.0
1070
   172
1070
     1
1070
   174
1070
     1
1070
   176
1070
   256
1070
   177
1070
   256
1070
   178
1070
   256
1070
   271
1070
     2
1070
   272
1070
     2
1070
   340
1005
DAB
1070
   371
1070
    -1
1070
   372
1070
    -1
1002
}
  0
LINE
  5
108E
330
1F
100
AcDbEntity
  8
0
  6
Continuous
 62
     7
100
AcDbLine
 10
820.2368745701479
 20
872.6898510264327
 30
0.0
 11
762.2368745701479
 21
872.6898510264327
 31
0.0
  0
LINE
  5
1090
330
1F
100
AcDbEntity
  8
0
  6
Continuous
 62
     7
100
AcDbLine
 10
762.2368745701479
 20
872.6898510264327
 30
0.0
 11
762.2368745701479
 21
848.6898510264326
 31
0.0
  0
LINE
  5
1091
330
1F
100
AcDbEntity
  8
0
  6
Continuous
 62
     7
100
AcDbLine
 10
762.2368745701479
 20
848.6898510264326
 30
0.0
 11
748.7368745701478
 21
848.6898510264326
 31
0.0
  0
LINE
  5
1092
330
1F
100
AcDbEntity
  8
AM_7
100
AcDbLine
 10
320.3149842812172
 20
563.8648547914126
 30
0.0
 11
297.5319842812172
 21
563.8648547914126
 31
0.0
  0
CIRCLE
  5
1094
330
1F
100
AcDbEntity
  8
0
  6
Continuous
 62
     7
100
AcDbCircle
 10
308.0789842812172
 20
563.8648547914126
 30
0.0
 40
5.7225
  0
DIMENSION
  5
1096
330
1F
100
AcDbEntity
  8
Dim
100
AcDbDimension
  2
*D45
 10
264.0789842812172
 20
533.8648547914126
 30
0.0
 11
286.0789842812172
 21
536.1148547914126
 31
0.0
 70
    32
 71
     5
 42
44.0
  3
Standard
100
AcDbAlignedDimension
 13
308.0789842812172
 23
529.903590469496
 33
0.0
 14
264.0789842812172
 24
582.6418547914126
 34
0.0
100
AcDbRotatedDimension
1001
ACAD
1000
DSTYLE
1002
{
1070
    41
1040
2.0
1070
    42
1040
1.0
1070
    44
1040
1.0
1070
    73
1070
     0
1070
    74
1070
     0
1070
    77
1070
     1
1070
    78
1070
     8
1070
    79
1070
     2
1070
   140
1040
2.5
1070
   141
1040
0.0
1070
   147
1040
1.0
1070
   172
1070
     1
1070
   174
1070
     1
1070
   176
1070
   256
1070
   177
1070
   256
1070
   178
1070
   256
1070
   271
1070
     2
1070
   272
1070
     2
1070
   340
1005
DAB
1070
   371
1070
    -1
1070
   372
1070
    -1
1002
}
  0
DIMENSION
  5
1097
330
1F
100
AcDbEntity
  8
Dim
100
AcDbDimension
  2
*D46
 10
324.0789842812172
 20
533.8648547914126
 30
0.0
 11
316.0789842812172
 21
536.1148547914126
 31
0.0
 70
    32
 71
     5
 42
16.0
  3
Standard
100
AcDbAlignedDimension
 13
308.0789842812172
 23
553.7058547914126
 33
0.0
 14
324.0789842812172
 24
545.8648547914126
 34
0.0
100
AcDbRotatedDimension
1001
ACAD
1000
DSTYLE
1002
{
1070
    41
1040
2.0
1070
    42
1040
1.0
1070
    44
1040
1.0
1070
    73
1070
     0
1070
    74
1070
     0
1070
    77
1070
     1
1070
    78
1070
     8
1070
    79
1070
     2
1070
   140
1040
2.5
1070
   141
1040
0.0
1070
   147
1040
1.0
1070
   172
1070
     1
1070
   174
1070
     1
1070
   176
1070
   256
1070
   177
1070
   256
1070
   178
1070
   256
1070
   271
1070
     2
1070
   272
1070
     2
1070
   340
1005
DAB
1070
   371
1070
    -1
1070
   372
1070
    -1
1002
}
  0
POINT
  5
1098
330
1F
100
AcDbEntity
  8
0
100
AcDbPoint
 10
324.0789842812172
 20
578.8648547914126
 30
0.0
  0
LINE
  5
1099
330
1F
100
AcDbEntity
  8
AM_7
100
AcDbLine
 10
308.0789842812172
 20
553.7058547914126
 30
0.0
 11
308.0789842812172
 21
573.9938547914126
 31
0.0
  0
DIMENSION
  5
109A
330
1F
100
AcDbEntity
  8
Dim
100
AcDbDimension
  2
*D47
 10
806.2368745701478
 20
884.6898510264328
 30
0.0
 11
791.2368745701479
 21
886.9398510264327
 31
0.0
 70
    32
 71
     5
 42
30.0
  3
Standard
100
AcDbAlignedDimension
 13
776.2368745701478
 23
868.1598510264327
 33
0.0
 14
806.2368745701478
 24
868.1598510264327
 34
0.0
100
AcDbRotatedDimension
1001
ACAD
1000
DSTYLE
1002
{
1070
    41
1040
2.0
1070
    42
1040
1.0
1070
    44
1040
1.0
1070
    73
1070
     0
1070
    74
1070
     0
1070
    77
1070
     1
1070
    78
1070
     8
1070
    79
1070
     2
1070
   140
1040
2.5
1070
   141
1040
0.0
1070
   147
1040
1.0
1070
   172
1070
     1
1070
   174
1070
     1
1070
   176
1070
   256
1070
   177
1070
   256
1070
   178
1070
   256
1070
   271
1070
     2
1070
   272
1070
     2
1070
   340
1005
DAB
1070
   371
1070
    -1
1070
   372
1070
    -1
1002
}
  0
LINE
  5
109B
330
1F
100
AcDbEntity
  8
AM_7
100
AcDbLine
 10
776.2368745701478
 20
868.1598510264327
 30
0.0
 11
776.2368745701478
 21
852.6798510264328
 31
0.0
  0
CIRCLE
  5
109C
330
1F
100
AcDbEntity
  8
0
  6
Continuous
 62
     7
100
AcDbCircle
 10
776.2368745701478
 20
860.6898510264327
 30
0.0
 40
4.187999999999999
  0
CIRCLE
  5
109E
330
1F
100
AcDbEntity
  8
0
  6
Continuous
 62
     7
100
AcDbCircle
 10
806.2368745701478
 20
860.6898510264327
 30
0.0
 40
4.187999999999999
  0
LINE
  5
10A0
330
1F
100
AcDbEntity
  8
AM_7
100
AcDbLine
 10
806.2368745701478
 20
868.1598510264327
 30
0.0
 11
806.2368745701478
 21
852.6798510264328
 31
0.0
  0
LINE
  5
10A1
102
{ACAD_REACTORS
330
1748
102
}
330
1F
100
AcDbEntity
  8
0
  6
Continuous
 62
     7
100
AcDbLine
 10
820.2368745701479
 20
872.6898510264327
 30
0.0
 11
820.2368745701479
 21
848.6898510264326
 31
0.0
  0
LINE
  5
10A2
330
1F
100
AcDbEntity
  8
0
  6
Continuous
 62
     7
100
AcDbLine
 10
833.7368745701478
 20
848.6898510264326
 30
0.0
 11
820.2368745701479
 21
848.6898510264326
 31
0.0
  0
LINE
  5
10A6
102
{ACAD_REACTORS
330
149B
330
1513
102
}
330
1F
100
AcDbEntity
  8
0
  6
Continuous
 62
     7
100
AcDbLine
 10
957.0081970786143
 20
848.6898510264326
 30
0.0
 11
1009.008197078614
 21
848.6898510264326
 31
0.0
  0
LINE
  5
10A7
330
1F
100
AcDbEntity
  8
0
  6
Continuous
 62
     7
100
AcDbLine
 10
996.0081970786143
 20
872.6898510264327
 30
0.0
 11
996.0081970786143
 21
848.6898510264326
 31
0.0
  0
LINE
  5
10A8
102
{ACAD_REACTORS
330
1475
330
149B
330
14E9
330
1513
102
}
330
1F
100
AcDbEntity
  8
0
  6
Continuous
 62
     7
100
AcDbLine
 10
1009.008197078614
 20
872.6898510264327
 30
0.0
 11
996.0081970786143
 21
872.6898510264327
 31
0.0
  0
DIMENSION
  5
10A9
330
1F
100
AcDbEntity
  8
Dim
100
AcDbDimension
  2
*D48
 10
508.8941674814754
 20
653.0041826679262
 30
0.0
 11
475.8941674814754
 21
655.2541826679262
 31
0.0
 70
    32
 71
     5
 42
66.0
  3
Standard
100
AcDbAlignedDimension
 13
442.8941674814754
 23
713.6118510264327
 33
0.0
 14
508.8941674814754
 24
713.6118510264327
 34
0.0
100
AcDbRotatedDimension
1001
ACAD
1000
DSTYLE
1002
{
1070
    41
1040
2.0
1070
    42
1040
1.0
1070
    44
1040
1.0
1070
    73
1070
     0
1070
    74
1070
     0
1070
    77
1070
     1
1070
    78
1070
     8
1070
    79
1070
     2
1070
   140
1040
2.5
1070
   141
1040
0.0
1070
   147
1040
1.0
1070
   172
1070
     1
1070
   174
1070
     1
1070
   176
1070
   256
1070
   177
1070
   256
1070
   178
1070
   256
1070
   271
1070
     2
1070
   272
1070
     2
1070
   340
1005
DAB
1070
   371
1070
    -1
1070
   372
1070
    -1
1002
}
  0
LINE
  5
10AA
330
1F
100
AcDbEntity
  8
0
  6
Continuous
 62
     7
100
AcDbLine
 10
518.3941674814754
 20
697.6898510264327
 30
0.0
 11
433.3941674814753
 21
697.6898510264327
 31
0.0
  0
LINE
  5
10AB
330
1F
100
AcDbEntity
  8
0
  6
Continuous
 62
     7
100
AcDbLine
 10
518.3941674814754
 20
680.6898510264327
 30
0.0
 11
433.3941674814753
 21
680.6898510264327
 31
0.0
  0
LINE
  5
10AC
330
1F
100
AcDbEntity
  8
0
  6
Continuous
 62
     7
100
AcDbLine
 10
503.6441674814754
 20
710.6898510264327
 30
0.0
 11
448.1441674814753
 21
710.6898510264327
 31
0.0
  0
ARC
  5
10AD
330
1F
100
AcDbEntity
  8
0
  6
Continuous
 62
     7
100
AcDbCircle
 10
475.8941674814754
 20
766.6898510264327
 30
0.0
 40
62.5
100
AcDbArc
 50
238.1299999999967
 51
243.6380000000013
  0
LINE
  5
10AE
330
1F
100
AcDbEntity
  8
0
  6
Continuous
 62
     7
100
AcDbLine
 10
444.3941674814753
 20
697.6898510264327
 30
0.0
 11
444.3941674814753
 21
712.7098510264326
 31
0.0
  0
ARC
  5
10AF
330
1F
100
AcDbEntity
  8
0
  6
Continuous
 62
     7
100
AcDbCircle
 10
475.8941674814754
 20
766.6898510264327
 30
0.0
 40
62.5
100
AcDbArc
 50
296.3629999999969
 51
301.8700000000033
  0
LINE
  5
10B0
330
1F
100
AcDbEntity
  8
0
  6
Continuous
 62
     7
100
AcDbLine
 10
507.3941674814753
 20
697.6898510264327
 30
0.0
 11
507.3941674814753
 21
712.7068510264328
 31
0.0
  0
TEXT
  5
10B1
330
1F
100
AcDbEntity
  8
Dim
100
AcDbText
 10
401.1634331671428
 20
812.7452190141745
 30
0.0
 40
3.2
  1
x5depth
  7
China
100
AcDbText
  0
LEADER
  5
10B3
330
1F
100
AcDbEntity
  8
Dim
100
AcDbLeader
  3
Standard
 76
     3
 10
279.7397062717296
 20
804.8508716595694
 30
0.0
 10
333.328404486684
 20
841.1300549957987
 30
0.0
 10
394.2898615278381
 20
841.1300549957987
 30
0.0
1001
ACAD
1000
DSTYLE
1002
{
1070
    41
1040
2.0
1070
    42
1040
1.0
1070
    44
1040
1.0
1070
    73
1070
     0
1070
    74
1070
     0
1070
    77
1070
     0
1070
    78
1070
     8
1070
    79
1070
     2
1070
   140
1040
2.5
1070
   141
1040
0.0
1070
   147
1040
1.0
1070
   172
1070
     1
1070
   174
1070
     1
1070
   176
1070
   256
1070
   177
1070
   256
1070
   178
1070
   256
1070
   271
1070
     2
1070
   272
1070
     2
1070
   340
1005
DAB
1070
   371
1070
    -1
1070
   372
1070
    -1
1002
}
  0
DIMENSION
  5
10B6
330
1F
100
AcDbEntity
  8
Dim
100
AcDbDimension
  2
*D49
 10
336.0789842812172
 20
731.6898510264327
 30
0.0
 11
333.8289842812171
 21
766.6898510264328
 31
0.0
 70
    32
 71
     5
 42
70.0
  3
Standard
100
AcDbAlignedDimension
 13
282.9779842812172
 23
801.6898510264327
 33
0.0
 14
283.9929842812172
 24
731.6898510264327
 34
0.0
 50
90.0
100
AcDbRotatedDimension
1001
ACAD
1000
DSTYLE
1002
{
1070
    41
1040
2.0
1070
    42
1040
1.0
1070
    44
1040
1.0
1070
    73
1070
     0
1070
    74
1070
     0
1070
    77
1070
     1
1070
    78
1070
     8
1070
    79
1070
     2
1070
   140
1040
2.5
1070
   141
1040
0.0
1070
   147
1040
1.0
1070
   172
1070
     1
1070
   174
1070
     1
1070
   176
1070
   256
1070
   177
1070
   256
1070
   178
1070
   256
1070
   271
1070
     2
1070
   272
1070
     2
1070
   340
1005
DAB
1070
   371
1070
    -1
1070
   372
1070
    -1
1002
}
  0
LINE
  5
10B7
330
1F
100
AcDbEntity
  8
AM_7
100
AcDbLine
 10
276.0789842812173
 20
739.4918510264327
 30
0.0
 11
276.0789842812173
 21
724.4918510264327
 31
0.0
  0
LINE
  5
10B9
330
1F
100
AcDbEntity
  8
AM_7
100
AcDbLine
 10
268.1869842812171
 20
731.6898510264327
 30
0.0
 11
283.9929842812171
 21
731.6898510264327
 31
0.0
  0
CIRCLE
  5
10BA
330
1F
100
AcDbEntity
  8
0
  6
Continuous
 62
     7
100
AcDbCircle
 10
276.0789842812173
 20
731.6898510264327
 30
0.0
 40
4.187999999999999
  0
POINT
  5
10BB
330
1F
100
AcDbEntity
  8
0
100
AcDbPoint
 10
271.5789842812173
 20
779.6898510264327
 30
0.0
  0
POINT
  5
10BC
330
1F
100
AcDbEntity
  8
0
100
AcDbPoint
 10
324.0789842812172
 20
766.6898510264327
 30
0.0
  0
POINT
  5
10BD
330
1F
100
AcDbEntity
  8
0
100
AcDbPoint
 10
307.6789842812173
 20
753.6898510264327
 30
0.0
  0
DIMENSION
  5
10BE
330
1F
100
AcDbEntity
  8
Dim
100
AcDbDimension
  2
*D50
 10
324.0789842812172
 20
849.9825766469752
 30
0.0
 11
300.0789842812172
 21
852.2325766469753
 31
0.0
 70
    32
 71
     5
 42
48.0
  3
Standard
100
AcDbAlignedDimension
 13
276.0789842812172
 23
808.9338510264328
 33
0.0
 14
324.0789842812172
 24
822.6898510264327
 34
0.0
100
AcDbRotatedDimension
1001
ACAD
1000
DSTYLE
1002
{
1070
    41
1040
2.0
1070
    42
1040
1.0
1070
    44
1040
1.0
1070
    73
1070
     0
1070
    74
1070
     0
1070
    77
1070
     1
1070
    78
1070
     8
1070
    79
1070
     2
1070
   140
1040
2.5
1070
   141
1040
0.0
1070
   147
1040
1.0
1070
   172
1070
     1
1070
   174
1070
     1
1070
   176
1070
   256
1070
   177
1070
   256
1070
   178
1070
   256
1070
   271
1070
     2
1070
   272
1070
     2
1070
   340
1005
DAB
1070
   371
1070
    -1
1070
   372
1070
    -1
1002
}
  0
CIRCLE
  5
10BF
330
1F
100
AcDbEntity
  8
0
  6
Continuous
 62
     7
100
AcDbCircle
 10
276.0789842812173
 20
801.6898510264327
 30
0.0
 40
4.187999999999999
  0
LINE
  5
10C1
330
1F
100
AcDbEntity
  8
AM_7
100
AcDbLine
 10
268.6939842812171
 20
801.6898510264327
 30
0.0
 11
282.9779842812172
 21
801.6898510264327
 31
0.0
  0
LINE
  5
10C2
330
1F
100
AcDbEntity
  8
AM_7
100
AcDbLine
 10
276.0789842812173
 20
808.9338510264328
 30
0.0
 11
276.0789842812173
 21
794.1858510264327
 31
0.0
  0
LINE
  5
10C7
330
1F
100
AcDbEntity
  8
AM_7
100
AcDbLine
 10
288.0789842812172
 20
940.4506528624963
 30
0.0
 11
288.0789842812172
 21
926.4416528624964
 31
0.0
  0
CIRCLE
  5
10C8
330
1F
100
AcDbEntity
  8
0
  6
Continuous
 62
     7
100
AcDbCircle
 10
288.0789842812172
 20
933.6576528624965
 30
0.0
 40
4.187999999999999
  0
LINE
  5
10CA
330
1F
100
AcDbEntity
  8
0
  6
Continuous
 62
     7
100
AcDbLine
 10
324.0789842812172
 20
986.6576528624964
 30
0.0
 11
324.0789842812172
 21
920.6576528624964
 31
0.0
  0
DIMENSION
  5
10CB
330
1F
100
AcDbEntity
  8
Dim
100
AcDbDimension
  2
*D51
 10
324.0789842812172
 20
906.9550972662746
 30
0.0
 11
306.0789842812172
 21
909.2050972662745
 31
0.0
 70
    32
 71
     5
 42
36.0
  3
Standard
100
AcDbAlignedDimension
 13
288.0789842812172
 23
926.4416528624964
 33
0.0
 14
324.0789842812172
 24
920.6576528624964
 34
0.0
100
AcDbRotatedDimension
1001
ACAD
1000
DSTYLE
1002
{
1070
    41
1040
2.0
1070
    42
1040
1.0
1070
    44
1040
1.0
1070
    73
1070
     0
1070
    74
1070
     0
1070
    77
1070
     1
1070
    78
1070
     8
1070
    79
1070
     2
1070
   140
1040
2.5
1070
   141
1040
0.0
1070
   147
1040
1.0
1070
   172
1070
     1
1070
   174
1070
     1
1070
   176
1070
   256
1070
   177
1070
   256
1070
   178
1070
   256
1070
   271
1070
     2
1070
   272
1070
     2
1070
   340
1005
DAB
1070
   371
1070
    -1
1070
   372
1070
    -1
1002
}
  0
DIMENSION
  5
10CE
330
1F
100
AcDbEntity
  8
Dim
100
AcDbDimension
  2
*D52
 10
336.0789842812172
 20
933.6576528624965
 30
0.0
 11
333.8289842812171
 21
953.6576528624966
 31
0.0
 70
    32
 71
     5
 42
40.0
  3
Standard
100
AcDbAlignedDimension
 13
295.3009842812172
 23
973.6576528624963
 33
0.0
 14
293.0789842812172
 24
933.6576528624965
 34
0.0
 50
90.0
100
AcDbRotatedDimension
1001
ACAD
1000
DSTYLE
1002
{
1070
    41
1040
2.0
1070
    42
1040
1.0
1070
    44
1040
1.0
1070
    73
1070
     0
1070
    74
1070
     0
1070
    77
1070
     1
1070
    78
1070
     8
1070
    79
1070
     2
1070
   140
1040
2.5
1070
   141
1040
0.0
1070
   147
1040
1.0
1070
   172
1070
     1
1070
   174
1070
     1
1070
   176
1070
   256
1070
   177
1070
   256
1070
   178
1070
   256
1070
   271
1070
     2
1070
   272
1070
     2
1070
   340
1005
DAB
1070
   371
1070
    -1
1070
   372
1070
    -1
1002
}
  0
LINE
  5
10CF
330
1F
100
AcDbEntity
  8
AM_7
100
AcDbLine
 10
280.5859842812172
 20
933.6576528624965
 30
0.0
 11
295.3009842812172
 21
933.6576528624965
 31
0.0
  0
LINE
  5
10D0
330
1F
100
AcDbEntity
  8
AM_7
100
AcDbLine
 10
280.0979842812171
 20
973.6576528624963
 30
0.0
 11
295.3009842812172
 21
973.6576528624963
 31
0.0
  0
CIRCLE
  5
10D1
330
1F
100
AcDbEntity
  8
0
  6
Continuous
 62
     7
100
AcDbCircle
 10
288.0789842812172
 20
973.6576528624963
 30
0.0
 40
4.187999999999999
  0
LINE
  5
10D3
330
1F
100
AcDbEntity
  8
AM_7
100
AcDbLine
 10
288.0789842812172
 20
980.6836528624964
 30
0.0
 11
288.0789842812172
 21
966.1326528624964
 31
0.0
  0
POINT
  5
10D4
330
1F
100
AcDbEntity
  8
0
100
AcDbPoint
 10
324.0789842812172
 20
953.6576528624964
 30
0.0
  0
TEXT
  5
10D5
330
1F
100
AcDbEntity
  8
Dim
100
AcDbText
 10
375.2687562009752
 20
812.7452190141745
 30
0.0
 40
3.2
  1
%%C52H9
  7
China
100
AcDbText
  0
TEXT
  5
10D8
330
1F
100
AcDbEntity
  8
Dim
100
AcDbText
 10
392.4444331671428
 20
812.2052190141744
 30
0.0
 40
1.6
  1
0
  7
China
100
AcDbText
  0
TEXT
  5
10D9
330
1F
100
AcDbEntity
  8
Dim
100
AcDbText
 10
390.8924331671428
 20
814.3212190141746
 30
0.0
 40
1.6
  1
+0.074
  7
China
100
AcDbText
  0
LINE
  5
10DA
330
1F
100
AcDbEntity
  8
0
  6
Continuous
 62
     7
100
AcDbLine
 10
518.3941674814754
 20
852.6898510264327
 30
0.0
 11
518.3941674814754
 21
769.6898510264327
 31
0.0
  0
LINE
  5
10DB
330
1F
100
AcDbEntity
  8
0
  6
Continuous
 62
     7
100
AcDbLine
 10
433.3941674814753
 20
852.6898510264327
 30
0.0
 11
433.3941674814753
 21
769.6898510264327
 31
0.0
  0
LINE
  5
10DE
330
1F
100
AcDbEntity
  8
AM_7
100
AcDbLine
 10
517.7741674814755
 20
766.6898510264327
 30
0.0
 11
430.2241674814752
 21
766.6898510264327
 31
0.0
  0
LINE
  5
10DF
330
1F
100
AcDbEntity
  8
0
  6
Continuous
 62
     7
100
AcDbLine
 10
503.6441674814754
 20
822.6898510264327
 30
0.0
 11
448.1441674814753
 21
822.6898510264327
 31
0.0
  0
LINE
  5
10E0
330
1F
100
AcDbEntity
  8
0
  6
Continuous
 62
     7
100
AcDbLine
 10
518.3941674814754
 20
835.6898510264327
 30
0.0
 11
433.3941674814753
 21
835.6898510264327
 31
0.0
  0
CIRCLE
  5
10E1
330
1F
100
AcDbEntity
  8
0
  6
Continuous
 62
     7
100
AcDbCircle
 10
475.8941674814754
 20
766.6898510264327
 30
0.0
 40
26.0
  0
DIMENSION
  5
10E2
330
1F
100
AcDbEntity
  8
Dim
100
AcDbDimension
  2
*D53
 10
536.082514522655
 20
806.6898510264326
 30
0.0
 11
533.8325145226548
 21
766.6898510264328
 31
0.0
 70
    32
 71
     5
 42
80.0
  3
Standard
100
AcDbAlignedDimension
 13
462.5341674814754
 23
726.6898510264327
 33
0.0
 14
502.2541674814752
 24
806.6898510264326
 34
0.0
 50
90.0
100
AcDbRotatedDimension
1001
ACAD
1000
DSTYLE
1002
{
1070
    41
1040
2.0
1070
    42
1040
1.0
1070
    44
1040
1.0
1070
    73
1070
     0
1070
    74
1070
     0
1070
    77
1070
     1
1070
    78
1070
     8
1070
    79
1070
     2
1070
   140
1040
2.5
1070
   141
1040
0.0
1070
   147
1040
1.0
1070
   172
1070
     1
1070
   174
1070
     1
1070
   176
1070
   256
1070
   177
1070
   256
1070
   178
1070
   256
1070
   271
1070
     2
1070
   272
1070
     2
1070
   340
1005
DAB
1070
   371
1070
    -1
1070
   372
1070
    -1
1002
}
  0
LINE
  5
10E3
330
1F
100
AcDbEntity
  8
0
  6
Continuous
 62
     7
100
AcDbLine
 10
446.3941674814754
 20
782.9148510264327
 30
0.0
 11
446.3941674814754
 21
776.4648510264327
 31
0.0
  0
LINE
  5
10E4
330
1F
100
AcDbEntity
  8
0
  6
Continuous
 62
     7
100
AcDbLine
 10
444.7141674814755
 20
782.9148510264327
 30
0.0
 11
444.2941674814754
 21
782.1898510264327
 31
0.0
  0
LINE
  5
10E5
330
1F
100
AcDbEntity
  8
0
  6
Continuous
 62
     7
100
AcDbLine
 10
448.8941674814753
 20
782.9148510264327
 30
0.0
 11
448.8941674814753
 21
776.4648510264327
 31
0.0
  0
LINE
  5
10E6
330
1F
100
AcDbEntity
  8
0
  6
Continuous
 62
     7
100
AcDbLine
 10
442.8941674814754
 20
819.7678510264326
 30
0.0
 11
442.8941674814754
 21
782.1898510264327
 31
0.0
  0
CIRCLE
  5
10E7
330
1F
100
AcDbEntity
  8
0
  6
Continuous
 62
     7
100
AcDbCircle
 10
455.8941674814754
 20
726.6898510264327
 30
0.0
 40
4.187999999999999
  0
LINE
  5
10E8
330
1F
100
AcDbEntity
  8
AM_7
100
AcDbLine
 10
462.5341674814754
 20
726.6898510264327
 30
0.0
 11
449.2041674814753
 21
726.6898510264327
 31
0.0
  0
LINE
  5
10EA
330
1F
100
AcDbEntity
  8
AM_7
100
AcDbLine
 10
455.8941674814754
 20
733.3338510264327
 30
0.0
 11
455.8941674814754
 21
719.9628510264327
 31
0.0
  0
LINE
  5
10EB
330
1F
100
AcDbEntity
  8
0
  6
Continuous
 62
     7
100
AcDbLine
 10
448.8941674814753
 20
776.4648510264327
 30
0.0
 11
444.7141674814755
 21
776.4648510264327
 31
0.0
  0
LINE
  5
10EC
330
1F
100
AcDbEntity
  8
0
  6
Continuous
 62
     7
100
AcDbLine
 10
444.3941674814753
 20
782.3568510264326
 30
0.0
 11
444.3941674814753
 21
777.0208510264327
 31
0.0
  0
LINE
  5
10ED
330
1F
100
AcDbEntity
  8
0
  6
Continuous
 62
     7
100
AcDbLine
 10
444.2941674814754
 20
777.1898510264327
 30
0.0
 11
442.8941674814754
 21
777.1898510264327
 31
0.0
  0
LINE
  5
10EE
330
1F
100
AcDbEntity
  8
0
  6
Continuous
 62
     7
100
AcDbLine
 10
444.7141674814755
 20
776.4648510264327
 30
0.0
 11
444.2941674814754
 21
777.1898510264327
 31
0.0
  0
LINE
  5
10EF
330
1F
100
AcDbEntity
  8
0
  6
Continuous
 62
     7
100
AcDbLine
 10
444.2941674814754
 20
782.1898510264327
 30
0.0
 11
442.8941674814754
 21
782.1898510264327
 31
0.0
  0
LINE
  5
10F0
330
1F
100
AcDbEntity
  8
AM_7
100
AcDbLine
 10
450.2141674814756
 20
779.6898510264327
 30
0.0
 11
440.1741674814753
 21
779.6898510264327
 31
0.0
  0
POINT
  5
10F1
330
1F
100
AcDbEntity
  8
0
100
AcDbPoint
 10
448.8941674814753
 20
779.6898510264327
 30
0.0
  0
LINE
  5
10F2
330
1F
100
AcDbEntity
  8
0
  6
Continuous
 62
     7
100
AcDbLine
 10
448.8941674814753
 20
750.4648510264327
 30
0.0
 11
444.7141674814755
 21
750.4648510264327
 31
0.0
  0
LINE
  5
10F3
330
1F
100
AcDbEntity
  8
0
  6
Continuous
 62
     7
100
AcDbLine
 10
448.8941674814753
 20
756.9148510264327
 30
0.0
 11
444.7141674814755
 21
756.9148510264327
 31
0.0
  0
LINE
  5
10F4
330
1F
100
AcDbEntity
  8
0
  6
Continuous
 62
     7
100
AcDbLine
 10
444.3941674814753
 20
751.0198510264326
 30
0.0
 11
444.3941674814753
 21
756.3568510264326
 31
0.0
  0
LINE
  5
10F5
330
1F
100
AcDbEntity
  8
0
  6
Continuous
 62
     7
100
AcDbLine
 10
446.3941674814754
 20
750.4648510264327
 30
0.0
 11
446.3941674814754
 21
756.9148510264327
 31
0.0
  0
LINE
  5
10F6
330
1F
100
AcDbEntity
  8
0
  6
Continuous
 62
     7
100
AcDbLine
 10
442.8941674814754
 20
763.6898510264327
 30
0.0
 11
433.3941674814753
 21
763.6898510264327
 31
0.0
  0
LINE
  5
10F7
330
1F
100
AcDbEntity
  8
0
  6
Continuous
 62
     7
100
AcDbLine
 10
444.2941674814754
 20
756.1898510264327
 30
0.0
 11
442.8941674814754
 21
756.1898510264327
 31
0.0
  0
LINE
  5
10F8
330
1F
100
AcDbEntity
  8
0
  6
Continuous
 62
     7
100
AcDbLine
 10
444.7141674814755
 20
750.4648510264327
 30
0.0
 11
444.2941674814754
 21
751.1898510264327
 31
0.0
  0
LINE
  5
10F9
330
1F
100
AcDbEntity
  8
0
  6
Continuous
 62
     7
100
AcDbLine
 10
444.7141674814755
 20
756.9148510264327
 30
0.0
 11
444.2941674814754
 21
756.1898510264327
 31
0.0
  0
LINE
  5
10FA
330
1F
100
AcDbEntity
  8
0
  6
Continuous
 62
     7
100
AcDbLine
 10
444.2941674814754
 20
751.1898510264327
 30
0.0
 11
442.8941674814754
 21
751.1898510264327
 31
0.0
  0
LINE
  5
10FB
330
1F
100
AcDbEntity
  8
0
  6
Continuous
 62
     7
100
AcDbLine
 10
448.8941674814753
 20
750.4648510264327
 30
0.0
 11
448.8941674814753
 21
756.9148510264327
 31
0.0
  0
LINE
  5
10FC
330
1F
100
AcDbEntity
  8
AM_7
100
AcDbLine
 10
450.2141674814756
 20
753.6898510264327
 30
0.0
 11
440.5841674814754
 21
753.6898510264327
 31
0.0
  0
POINT
  5
10FD
330
1F
100
AcDbEntity
  8
0
100
AcDbPoint
 10
448.8941674814753
 20
753.6898510264327
 30
0.0
  0
LINE
  5
10FE
330
1F
100
AcDbEntity
  8
0
  6
Continuous
 62
     7
100
AcDbLine
 10
442.8941674814754
 20
769.6898510264327
 30
0.0
 11
433.3941674814753
 21
769.6898510264327
 31
0.0
  0
LINE
  5
10FF
330
1F
100
AcDbEntity
  8
0
  6
Continuous
 62
     7
100
AcDbLine
 10
442.8941674814754
 20
777.1898510264327
 30
0.0
 11
442.8941674814754
 21
756.1898510264327
 31
0.0
  0
POINT
  5
1100
330
1F
100
AcDbEntity
  8
AM_7
100
AcDbPoint
 10
475.8941674814754
 20
766.6898510264327
 30
0.0
  0
LINE
  5
1101
330
1F
100
AcDbEntity
  8
0
  6
Continuous
 62
     7
100
AcDbLine
 10
448.8941674814753
 20
782.9148510264327
 30
0.0
 11
444.7141674814755
 21
782.9148510264327
 31
0.0
  0
LINE
  5
1102
330
1F
100
AcDbEntity
  8
0
  6
Continuous
 62
     7
100
AcDbLine
 10
444.3941674814753
 20
835.6898510264327
 30
0.0
 11
444.3941674814753
 21
820.6698510264327
 31
0.0
  0
ARC
  5
1103
330
1F
100
AcDbEntity
  8
0
  6
Continuous
 62
     7
100
AcDbCircle
 10
475.8941674814754
 20
766.6898510264327
 30
0.0
 40
62.5
100
AcDbArc
 50
116.3629999999969
 51
121.8700000000033
  0
LINE
  5
1104
330
1F
100
AcDbEntity
  8
0
  6
Continuous
 62
     7
100
AcDbLine
 10
505.3941674814754
 20
782.9148510264327
 30
0.0
 11
505.3941674814754
 21
776.4648510264327
 31
0.0
  0
LINE
  5
1105
330
1F
100
AcDbEntity
  8
0
  6
Continuous
 62
     7
100
AcDbLine
 10
507.0741674814754
 20
782.9148510264327
 30
0.0
 11
507.4941674814753
 21
782.1898510264327
 31
0.0
  0
LINE
  5
1106
330
1F
100
AcDbEntity
  8
0
  6
Continuous
 62
     7
100
AcDbLine
 10
502.8941674814753
 20
782.9148510264327
 30
0.0
 11
502.8941674814753
 21
776.4648510264327
 31
0.0
  0
LINE
  5
1107
330
1F
100
AcDbEntity
  8
0
  6
Continuous
 62
     7
100
AcDbLine
 10
508.8941674814754
 20
819.7678510264326
 30
0.0
 11
508.8941674814754
 21
782.1898510264327
 31
0.0
  0
LINE
  5
1108
330
1F
100
AcDbEntity
  8
AM_7
100
AcDbLine
 10
501.5741674814754
 20
779.6898510264327
 30
0.0
 11
511.1641674814753
 21
779.6898510264327
 31
0.0
  0
LINE
  5
1109
330
1F
100
AcDbEntity
  8
AM_7
100
AcDbLine
 10
501.5741674814754
 20
753.6898510264327
 30
0.0
 11
510.7541674814752
 21
753.6898510264327
 31
0.0
  0
LINE
  5
110A
330
1F
100
AcDbEntity
  8
0
  6
Continuous
 62
     7
100
AcDbLine
 10
502.8941674814753
 20
776.4648510264327
 30
0.0
 11
507.0741674814754
 21
776.4648510264327
 31
0.0
  0
LINE
  5
110B
330
1F
100
AcDbEntity
  8
0
  6
Continuous
 62
     7
100
AcDbLine
 10
507.3941674814753
 20
782.3658510264326
 30
0.0
 11
507.3941674814753
 21
777.0108510264328
 31
0.0
  0
LINE
  5
110C
330
1F
100
AcDbEntity
  8
0
  6
Continuous
 62
     7
100
AcDbLine
 10
507.4941674814753
 20
777.1898510264327
 30
0.0
 11
508.8941674814754
 21
777.1898510264327
 31
0.0
  0
LINE
  5
110D
330
1F
100
AcDbEntity
  8
0
  6
Continuous
 62
     7
100
AcDbLine
 10
507.0741674814754
 20
776.4648510264327
 30
0.0
 11
507.4941674814753
 21
777.1898510264327
 31
0.0
  0
LINE
  5
110E
330
1F
100
AcDbEntity
  8
0
  6
Continuous
 62
     7
100
AcDbLine
 10
507.4941674814753
 20
782.1898510264327
 30
0.0
 11
508.8941674814754
 21
782.1898510264327
 31
0.0
  0
LINE
  5
110F
330
1F
100
AcDbEntity
  8
0
  6
Continuous
 62
     7
100
AcDbLine
 10
502.8941674814753
 20
750.4648510264327
 30
0.0
 11
507.0741674814754
 21
750.4648510264327
 31
0.0
  0
LINE
  5
1110
330
1F
100
AcDbEntity
  8
0
  6
Continuous
 62
     7
100
AcDbLine
 10
502.8941674814753
 20
756.9148510264327
 30
0.0
 11
507.0741674814754
 21
756.9148510264327
 31
0.0
  0
LINE
  5
1111
330
1F
100
AcDbEntity
  8
0
  6
Continuous
 62
     7
100
AcDbLine
 10
507.3941674814753
 20
751.0108510264327
 30
0.0
 11
507.3941674814753
 21
756.3658510264327
 31
0.0
  0
LINE
  5
1112
330
1F
100
AcDbEntity
  8
0
  6
Continuous
 62
     7
100
AcDbLine
 10
505.3941674814754
 20
750.4648510264327
 30
0.0
 11
505.3941674814754
 21
756.9148510264327
 31
0.0
  0
LINE
  5
1113
330
1F
100
AcDbEntity
  8
0
  6
Continuous
 62
     7
100
AcDbLine
 10
518.3941674814754
 20
763.6898510264327
 30
0.0
 11
508.8941674814754
 21
763.6898510264327
 31
0.0
  0
LINE
  5
1114
330
1F
100
AcDbEntity
  8
0
  6
Continuous
 62
     7
100
AcDbLine
 10
507.4941674814753
 20
756.1898510264327
 30
0.0
 11
508.8941674814754
 21
756.1898510264327
 31
0.0
  0
LINE
  5
1115
330
1F
100
AcDbEntity
  8
0
  6
Continuous
 62
     7
100
AcDbLine
 10
507.0741674814754
 20
750.4648510264327
 30
0.0
 11
507.4941674814753
 21
751.1898510264327
 31
0.0
  0
LINE
  5
1116
330
1F
100
AcDbEntity
  8
0
  6
Continuous
 62
     7
100
AcDbLine
 10
507.0741674814754
 20
756.9148510264327
 30
0.0
 11
507.4941674814753
 21
756.1898510264327
 31
0.0
  0
LINE
  5
1117
330
1F
100
AcDbEntity
  8
0
  6
Continuous
 62
     7
100
AcDbLine
 10
507.4941674814753
 20
751.1898510264327
 30
0.0
 11
508.8941674814754
 21
751.1898510264327
 31
0.0
  0
LINE
  5
1118
330
1F
100
AcDbEntity
  8
0
  6
Continuous
 62
     7
100
AcDbLine
 10
502.8941674814753
 20
750.4648510264327
 30
0.0
 11
502.8941674814753
 21
756.9148510264327
 31
0.0
  0
LINE
  5
1119
330
1F
100
AcDbEntity
  8
0
  6
Continuous
 62
     7
100
AcDbLine
 10
518.3941674814754
 20
769.6898510264327
 30
0.0
 11
508.8941674814754
 21
769.6898510264327
 31
0.0
  0
LINE
  5
111A
330
1F
100
AcDbEntity
  8
0
  6
Continuous
 62
     7
100
AcDbLine
 10
508.8941674814754
 20
777.1898510264327
 30
0.0
 11
508.8941674814754
 21
756.1898510264327
 31
0.0
  0
LINE
  5
111B
330
1F
100
AcDbEntity
  8
AM_7
100
AcDbLine
 10
502.2541674814752
 20
806.6898510264326
 30
0.0
 11
489.1641674814754
 21
806.6898510264326
 31
0.0
  0
LINE
  5
111D
330
1F
100
AcDbEntity
  8
AM_7
100
AcDbLine
 10
495.8941674814753
 20
813.0538510264328
 30
0.0
 11
495.8941674814753
 21
800.0048510264328
 31
0.0
  0
CIRCLE
  5
111E
330
1F
100
AcDbEntity
  8
0
  6
Continuous
 62
     7
100
AcDbCircle
 10
495.8941674814753
 20
806.6898510264326
 30
0.0
 40
4.187999999999999
  0
LINE
  5
111F
330
1F
100
AcDbEntity
  8
0
  6
Continuous
 62
     7
100
AcDbLine
 10
502.8941674814753
 20
782.9148510264327
 30
0.0
 11
507.0741674814754
 21
782.9148510264327
 31
0.0
  0
LINE
  5
1120
330
1F
100
AcDbEntity
  8
0
  6
Continuous
 62
     7
100
AcDbLine
 10
507.3941674814753
 20
835.6898510264327
 30
0.0
 11
507.3941674814753
 21
820.6728510264326
 31
0.0
  0
ARC
  5
1121
330
1F
100
AcDbEntity
  8
0
  6
Continuous
 62
     7
100
AcDbCircle
 10
475.8941674814754
 20
766.6898510264327
 30
0.0
 40
62.5
100
AcDbArc
 50
58.12960000000114
 51
63.6371000000003
  0
LINE
  5
1122
330
1F
100
AcDbEntity
  8
0
  6
Continuous
 62
     7
100
AcDbLine
 10
518.3941674814754
 20
852.6898510264327
 30
0.0
 11
433.3941674814753
 21
852.6898510264327
 31
0.0
  0
LINE
  5
1126
330
1F
100
AcDbEntity
  8
0
  6
Continuous
 62
     7
100
AcDbLine
 10
254.0789842812174
 20
996.1576528624965
 30
0.0
 11
202.0789842812173
 21
996.1576528624965
 31
0.0
  0
TEXT
  5
1128
330
1F
100
AcDbEntity
  8
Dim
100
AcDbText
 10
314.3835952013112
 20
1011.837450432796
 30
0.0
 40
3.2
  1
2-M10x1.5x20depth
  7
China
100
AcDbText
  0
LINE
  5
112B
330
1F
100
AcDbEntity
  8
0
  6
Continuous
 62
     7
100
AcDbLine
 10
1079.008197078614
 20
822.6898510264327
 30
0.0
 11
1079.008197078614
 21
710.6898510264327
 31
0.0
  0
LINE
  5
112C
330
1F
100
AcDbEntity
  8
0
  6
Continuous
 62
     7
100
AcDbLine
 10
1010.008197078614
 20
822.6898510264327
 30
0.0
 11
1010.008197078614
 21
710.6898510264327
 31
0.0
  0
LINE
  5
112D
330
1F
100
AcDbEntity
  8
0
  6
Continuous
 62
     7
100
AcDbLine
 10
1009.008197078614
 20
710.6898510264327
 30
0.0
 11
1079.008197078614
 21
710.6898510264327
 31
0.0
  0
LINE
  5
112E
330
1F
100
AcDbEntity
  8
0
  6
Continuous
 62
     7
100
AcDbLine
 10
1010.008197078614
 20
751.1898510264327
 30
0.0
 11
1079.008197078614
 21
751.1898510264327
 31
0.0
  0
LINE
  5
112F
330
1F
100
AcDbEntity
  8
0
  6
Continuous
 62
     7
100
AcDbLine
 10
1010.008197078614
 20
756.1898510264327
 30
0.0
 11
1079.008197078614
 21
756.1898510264327
 31
0.0
  0
LINE
  5
1130
330
1F
100
AcDbEntity
  8
0
  6
Continuous
 62
     7
100
AcDbLine
 10
1010.008197078614
 20
782.1898510264327
 30
0.0
 11
1079.008197078614
 21
782.1898510264327
 31
0.0
  0
LINE
  5
1131
330
1F
100
AcDbEntity
  8
0
  6
Continuous
 62
     7
100
AcDbLine
 10
1010.008197078614
 20
777.1898510264327
 30
0.0
 11
1079.008197078614
 21
777.1898510264327
 31
0.0
  0
LINE
  5
1132
330
1F
100
AcDbEntity
  8
AM_7
100
AcDbLine
 10
1010.008197078614
 20
779.6898510264327
 30
0.0
 11
1081.925197078614
 21
779.6898510264327
 31
0.0
  0
LINE
  5
1133
330
1F
100
AcDbEntity
  8
AM_7
100
AcDbLine
 10
1010.008197078614
 20
753.6898510264327
 30
0.0
 11
1080.598197078614
 21
753.6898510264327
 31
0.0
  0
LINE
  5
1134
330
1F
100
AcDbEntity
  8
AM_7
100
AcDbLine
 10
1023.116197078614
 20
731.6898510264327
 30
0.0
 11
1038.922197078614
 21
731.6898510264327
 31
0.0
  0
CIRCLE
  5
1135
330
1F
100
AcDbEntity
  8
0
  6
Continuous
 62
     7
100
AcDbCircle
 10
1031.008197078614
 20
731.6898510264327
 30
0.0
 40
4.187999999999999
  0
LINE
  5
1137
330
1F
100
AcDbEntity
  8
AM_7
100
AcDbLine
 10
1031.008197078614
 20
739.4918510264327
 30
0.0
 11
1031.008197078614
 21
724.4918510264327
 31
0.0
  0
ARC
  5
1138
330
1F
100
AcDbEntity
  8
0
  6
Continuous
 62
     7
100
AcDbCircle
 10
1010.008197078614
 20
753.6898510264327
 30
0.0
 40
3.225
100
AcDbArc
 50
90.0
 51
270.0
  0
ARC
  5
1139
330
1F
100
AcDbEntity
  8
0
  6
Continuous
 62
     7
100
AcDbCircle
 10
1010.008197078614
 20
779.6898510264327
 30
0.0
 40
3.225
100
AcDbArc
 50
90.0
 51
270.0
  0
POINT
  5
113A
330
1F
100
AcDbEntity
  8
0
100
AcDbPoint
 10
1026.508197078614
 20
779.6898510264327
 30
0.0
  0
POINT
  5
113B
330
1F
100
AcDbEntity
  8
0
100
AcDbPoint
 10
1062.608197078614
 20
753.6898510264327
 30
0.0
  0
POINT
  5
113C
330
1F
100
AcDbEntity
  8
0
100
AcDbPoint
 10
1079.008197078614
 20
766.6898510264327
 30
0.0
  0
LINE
  5
113D
330
1F
100
AcDbEntity
  8
0
  6
Continuous
 62
     7
100
AcDbLine
 10
1009.008197078614
 20
822.6898510264327
 30
0.0
 11
1079.008197078614
 21
822.6898510264327
 31
0.0
  0
LINE
  5
113E
330
1F
100
AcDbEntity
  8
AM_7
100
AcDbLine
 10
1023.623197078614
 20
801.6898510264327
 30
0.0
 11
1037.907197078614
 21
801.6898510264327
 31
0.0
  0
LINE
  5
113F
330
1F
100
AcDbEntity
  8
AM_7
100
AcDbLine
 10
1031.008197078614
 20
808.9338510264328
 30
0.0
 11
1031.008197078614
 21
794.1858510264327
 31
0.0
  0
CIRCLE
  5
1141
330
1F
100
AcDbEntity
  8
0
  6
Continuous
 62
     7
100
AcDbCircle
 10
1031.008197078614
 20
801.6898510264327
 30
0.0
 40
4.187999999999999
  0
LINE
  5
1142
330
1F
100
AcDbEntity
  8
0
  6
Continuous
 62
     7
100
AcDbLine
 10
943.0081970786144
 20
732.6868510264327
 30
0.0
 11
954.0071970786144
 21
710.6898510264327
 31
0.0
  0
LINE
  5
1143
330
1F
100
AcDbEntity
  8
0
  6
Continuous
 62
     7
100
AcDbLine
 10
954.0071970786144
 20
710.6898510264327
 30
0.0
 11
957.0081970786143
 21
710.6898510264327
 31
0.0
  0
LINE
  5
1144
330
1F
100
AcDbEntity
  8
0
  6
Continuous
 62
     7
100
AcDbLine
 10
943.0081970786144
 20
800.6968510264327
 30
0.0
 11
943.0081970786144
 21
732.6868510264327
 31
0.0
  0
LINE
  5
1145
330
1F
100
AcDbEntity
  8
0
  6
Continuous
 62
     7
100
AcDbLine
 10
943.0081970786144
 20
800.6968510264327
 30
0.0
 11
954.0041970786143
 21
822.6898510264327
 31
0.0
  0
LINE
  5
1146
330
1F
100
AcDbEntity
  8
0
  6
Continuous
 62
     7
100
AcDbLine
 10
954.0041970786143
 20
822.6898510264327
 30
0.0
 11
957.0081970786143
 21
822.6898510264327
 31
0.0
  0
TEXT
  5
1147
330
1F
100
AcDbEntity
  8
Dim
100
AcDbText
 10
314.0207895606528
 20
1002.848389904799
 30
0.0
 40
3.2
  1
(Mounting thred)
  7
China
100
AcDbText
  0
TEXT
  5
1148
330
1F
100
AcDbEntity
  8
Dim
100
AcDbText
 10
535.2070529567724
 20
826.7596601997542
 30
0.0
 40
3.2
  1
(Mounting thred)
  7
China
100
AcDbText
  0
TEXT
  5
1149
330
1F
100
AcDbEntity
  8
Dim
100
AcDbText
 10
334.5657626303449
 20
830.2195664659977
 30
0.0
 40
3.2
  1
4.2(Mounting hole)
  7
China
100
AcDbText
  0
TEXT
  5
114A
330
1F
100
AcDbEntity
  8
Dim
100
AcDbText
 10
334.5657626303449
 20
835.4466324119746
 30
0.0
 40
3.2
  1
Bottom through hole die.
  7
China
100
AcDbText
  0
TEXT
  5
114B
330
1F
100
AcDbEntity
  8
Dim
100
AcDbText
 10
287.338137734692
 20
619.7895154029681
 30
0.0
 40
3.2
  1
(Finger closing port)
  7
China
100
AcDbText
  0
TEXT
  5
114C
330
1F
100
AcDbEntity
  8
Dim
100
AcDbText
 10
340.3439598066431
 20
539.8266001963959
 30
0.0
 40
3.2
  1
(Finger opening port)
  7
China
100
AcDbText
  0
TEXT
  5
114D
330
1F
100
AcDbEntity
  8
Dim
100
AcDbText
 10
157.5239037657907
 20
517.6948556285099
 30
0.0
 40
3.2
  1
(Thread for mounting attachment)
  7
China
100
AcDbText
  0
LINE
  5
1151
330
1F
100
AcDbEntity
  8
0
100
AcDbLine
 10
762.2368745701479
 20
848.6898510264326
 30
0.0
 11
820.2368745701479
 21
848.6898510264326
 31
0.0
  0
LINE
  5
1152
330
1F
100
AcDbEntity
  8
0
100
AcDbLine
 10
762.2368745701479
 20
684.6898510264328
 30
0.0
 11
820.2368745701479
 21
684.6898510264328
 31
0.0
  0
LINE
  5
1153
330
1F
100
AcDbEntity
  8
0
100
AcDbLine
 10
822.7368745701479
 20
822.6898510264327
 30
0.0
 11
759.7368745701478
 21
822.6898510264327
 31
0.0
  0
LINE
  5
1154
330
1F
100
AcDbEntity
  8
0
100
AcDbLine
 10
822.7368745701479
 20
800.6968510264327
 30
0.0
 11
759.7368745701478
 21
800.6968510264327
 31
0.0
  0
LINE
  5
1155
330
1F
100
AcDbEntity
  8
0
100
AcDbLine
 10
822.7368745701479
 20
731.7478510264329
 30
0.0
 11
759.7368745701478
 21
731.7478510264329
 31
0.0
  0
LINE
  5
1156
330
1F
100
AcDbEntity
  8
0
100
AcDbLine
 10
822.7368745701479
 20
709.7548510264329
 30
0.0
 11
759.7368745701478
 21
709.7548510264329
 31
0.0
  0
TEXT
  5
138A
330
1F
100
AcDbEntity
  8
Dim
100
AcDbText
 10
335.3131049610399
 20
843.289400312479
 30
0.0
 40
3.2
  1
4-M10x1.5x20depth
  7
China
100
AcDbText
  0
LEADER
  5
138D
330
1F
100
AcDbEntity
  8
Dim
100
AcDbLeader
  3
Standard
 76
     3
 10
268.904724908346
 20
598.1740697392385
 30
0.0
 10
286.5873935500005
 20
625.1288067902365
 30
0.0
 10
304.8632903970379
 20
625.1288067902365
 30
0.0
211
-1.0
221
0.0
231
0.0
1001
ACAD
1000
DSTYLE
1002
{
1070
    41
1040
2.0
1070
    42
1040
1.0
1070
    44
1040
1.0
1070
    73
1070
     0
1070
    74
1070
     0
1070
    77
1070
     0
1070
    78
1070
     8
1070
    79
1070
     2
1070
   140
1040
2.5
1070
   141
1040
0.0
1070
   147
1040
1.0
1070
   172
1070
     1
1070
   174
1070
     1
1070
   176
1070
   256
1070
   177
1070
   256
1070
   178
1070
   256
1070
   271
1070
     2
1070
   272
1070
     2
1070
   340
1005
DAB
1070
   371
1070
    -1
1070
   372
1070
    -1
1002
}
  0
TEXT
  5
138E
330
1F
100
AcDbEntity
  8
Dim
100
AcDbText
 10
341.4789080437523
 20
546.6974957216988
 30
0.0
 40
3.2
  1
Rc1/4
  7
China
100
AcDbText
  0
TEXT
  5
13A3
330
1F
100
AcDbEntity
  8
Dim
100
AcDbText
 10
536.4054850590862
 20
834.8248107166766
 30
0.0
 40
3.2
  1
2-M10x1.5x20depth
  7
China
100
AcDbText
  0
LEADER
  5
13A5
330
1F
100
AcDbEntity
  8
Dim
100
AcDbLeader
  3
Standard
 76
     3
 10
499.8755646343395
 20
809.3487319025381
 30
0.0
 10
535.7091646880866
 20
832.6124769521046
 30
0.0
 10
586.3640046099742
 20
832.6124769521046
 30
0.0
1001
ACAD
1000
DSTYLE
1002
{
1070
    41
1040
2.0
1070
    42
1040
1.0
1070
    44
1040
1.0
1070
    73
1070
     0
1070
    74
1070
     0
1070
    77
1070
     0
1070
    78
1070
     8
1070
    79
1070
     2
1070
   140
1040
2.5
1070
   141
1040
0.0
1070
   147
1040
1.0
1070
   172
1070
     1
1070
   174
1070
     1
1070
   176
1070
   256
1070
   177
1070
   256
1070
   178
1070
   256
1070
   271
1070
     2
1070
   272
1070
     2
1070
   340
1005
DAB
1070
   371
1070
    -1
1070
   372
1070
    -1
1002
}
  0
LEADER
  5
13A7
330
1F
100
AcDbEntity
  8
Dim
100
AcDbLeader
  3
Standard
 76
     3
 10
459.634075849184
 20
787.1914763886604
 30
0.0
 10
421.2790005768068
 20
810.2767822823974
 30
0.0
 10
373.5909101254026
 20
810.2767822823974
 30
0.0
1001
ACAD
1000
DSTYLE
1002
{
1070
    41
1040
2.0
1070
    42
1040
1.0
1070
    44
1040
1.0
1070
    73
1070
     0
1070
    74
1070
     0
1070
    77
1070
     0
1070
    78
1070
     8
1070
    79
1070
     2
1070
   140
1040
2.5
1070
   141
1040
0.0
1070
   147
1040
1.0
1070
   172
1070
     1
1070
   174
1070
     1
1070
   176
1070
   256
1070
   177
1070
   256
1070
   178
1070
   256
1070
   271
1070
     2
1070
   272
1070
     2
1070
   340
1005
DAB
1070
   371
1070
    -1
1070
   372
1070
    -1
1002
}
  0
LEADER
  5
13DF
330
1F
100
AcDbEntity
  8
Dim
100
AcDbLeader
  3
Standard
 76
     3
 10
773.0031216764821
 20
669.0727727139316
 30
0.0
 10
761.095990151164
 20
639.3833120635916
 30
0.0
 10
731.8584173993111
 20
639.3833120635916
 30
0.0
1001
ACAD
1000
DSTYLE
1002
{
1070
    41
1040
2.0
1070
    42
1040
1.0
1070
    44
1040
1.0
1070
    73
1070
     0
1070
    74
1070
     0
1070
    77
1070
     0
1070
    78
1070
     8
1070
    79
1070
     2
1070
   140
1040
2.5
1070
   141
1040
0.0
1070
   147
1040
1.0
1070
   172
1070
     1
1070
   174
1070
     1
1070
   176
1070
   256
1070
   177
1070
   256
1070
   178
1070
   256
1070
   271
1070
     2
1070
   272
1070
     2
1070
   340
1005
DAB
1070
   371
1070
    -1
1070
   372
1070
    -1
1002
}
  0
TEXT
  5
13E0
330
1F
100
AcDbEntity
  8
Dim
100
AcDbText
 10
731.4936406754378
 20
640.7095346221685
 30
0.0
 40
3.2
  1
4-M10x1.5
  7
China
100
AcDbText
  0
TEXT
  5
13E1
330
1F
100
AcDbEntity
  8
Dim
100
AcDbText
 10
730.0456152741293
 20
634.6500291363691
 30
0.0
 40
3.2
  1
(Thread for mounting attachment)
  7
China
100
AcDbText
  0
ARC
  5
1423
330
1F
100
AcDbEntity
  8
AM_4
100
AcDbCircle
 10
288.0789842812172
 20
973.6576528624963
 30
0.0
 40
5.0
100
AcDbArc
 50
260.0
 51
170.0
  0
ARC
  5
1424
330
1F
100
AcDbEntity
  8
AM_4
100
AcDbCircle
 10
288.0789842812172
 20
933.6576528624965
 30
0.0
 40
5.0
100
AcDbArc
 50
260.0
 51
170.0
  0
ARC
  5
1425
330
1F
100
AcDbEntity
  8
AM_4
100
AcDbCircle
 10
276.0789842812173
 20
801.6898510264327
 30
0.0
 40
5.0
100
AcDbArc
 50
260.0
 51
170.0
  0
ARC
  5
1426
330
1F
100
AcDbEntity
  8
AM_4
100
AcDbCircle
 10
276.0899842812173
 20
731.6898510264327
 30
0.0
 40
5.0
100
AcDbArc
 50
260.0
 51
170.0
  0
ARC
  5
1427
330
1F
100
AcDbEntity
  8
AM_4
100
AcDbCircle
 10
228.0789842812173
 20
597.8648547914126
 30
0.0
 40
5.0
100
AcDbArc
 50
260.0
 51
170.0
  0
ARC
  5
1428
330
1F
100
AcDbEntity
  8
AM_4
100
AcDbCircle
 10
228.0789842812173
 20
559.8648547914126
 30
0.0
 40
5.0
100
AcDbArc
 50
260.0
 51
170.0
  0
ARC
  5
1429
330
1F
100
AcDbEntity
  8
AM_4
100
AcDbCircle
 10
455.8941674814754
 20
726.6898510264327
 30
0.0
 40
5.0
100
AcDbArc
 50
260.0
 51
170.0
  0
ARC
  5
142A
330
1F
100
AcDbEntity
  8
AM_4
100
AcDbCircle
 10
495.8941674814753
 20
806.6898510264326
 30
0.0
 40
5.0
100
AcDbArc
 50
260.0
 51
170.0
  0
ARC
  5
142B
330
1F
100
AcDbEntity
  8
AM_4
100
AcDbCircle
 10
776.2368745701478
 20
860.6898510264327
 30
0.0
 40
5.0
100
AcDbArc
 50
260.0
 51
170.0
  0
ARC
  5
142C
330
1F
100
AcDbEntity
  8
AM_4
100
AcDbCircle
 10
806.2368745701478
 20
860.6898510264327
 30
0.0
 40
5.0
100
AcDbArc
 50
260.0
 51
170.0
  0
ARC
  5
142D
330
1F
100
AcDbEntity
  8
AM_4
100
AcDbCircle
 10
806.2368745701478
 20
672.6898510264328
 30
0.0
 40
5.0
100
AcDbArc
 50
260.0
 51
170.0
  0
ARC
  5
142E
330
1F
100
AcDbEntity
  8
AM_4
100
AcDbCircle
 10
776.2368745701478
 20
672.6898510264328
 30
0.0
 40
5.0
100
AcDbArc
 50
260.0
 51
170.0
  0
ARC
  5
142F
330
1F
100
AcDbEntity
  8
AM_4
100
AcDbCircle
 10
1031.008197078614
 20
801.6898510264327
 30
0.0
 40
5.0
100
AcDbArc
 50
260.0
 51
170.0
  0
ARC
  5
1430
330
1F
100
AcDbEntity
  8
AM_4
100
AcDbCircle
 10
1031.008197078614
 20
731.6898510264327
 30
0.0
 40
5.0
100
AcDbArc
 50
260.0
 51
170.0
  0
ARC
  5
1431
330
1F
100
AcDbEntity
  8
AM_4
100
AcDbCircle
 10
308.0789842812172
 20
563.8648547914126
 30
0.0
 40
6.5785
100
AcDbArc
 50
260.0
 51
170.0
  0
DIMENSION
  5
1441
330
1F
100
AcDbEntity
  8
Dim
100
AcDbDimension
  2
*D58
 10
934.0124415071004
 20
835.6898510264327
 30
0.0
 11
931.7624415071001
 21
854.1898510264328
 31
0.0
 70
    32
 71
     5
 42
37.0
  3
Standard
100
AcDbAlignedDimension
 13
996.0081970786143
 23
872.6898510264327
 33
0.0
 14
957.0081970786143
 24
835.6898510264327
 34
0.0
 50
90.0
100
AcDbRotatedDimension
1001
ACAD
1000
DSTYLE
1002
{
1070
    41
1040
2.0
1070
    42
1040
1.0
1070
    44
1040
1.0
1070
    73
1070
     0
1070
    74
1070
     0
1070
    77
1070
     1
1070
    78
1070
     8
1070
    79
1070
     2
1070
   140
1040
2.5
1070
   141
1040
0.0
1070
   147
1040
1.0
1070
   172
1070
     1
1070
   174
1070
     1
1070
   176
1070
   256
1070
   177
1070
   256
1070
   178
1070
   256
1070
   271
1070
     2
1070
   272
1070
     2
1070
   340
1005
DAB
1070
   371
1070
    -1
1070
   372
1070
    -1
1002
}
  0
DIMENSION
  5
1467
102
{ACAD_XDICTIONARY
360
1474
102
}
102
{ACAD_REACTORS
330
1475
102
}
330
1F
100
AcDbEntity
  8
Dim
100
AcDbDimension
  2
*D59
 10
1009.008197078614
 20
884.6898510264328
 30
0.0
 11
1002.508197078614
 21
886.9398510264327
 31
0.0
 70
    32
 71
     5
 42
13.0
  3
Standard
100
AcDbAlignedDimension
 13
996.0081970786143
 23
872.6898510264327
 33
0.0
 14
1009.008197078614
 24
872.6898510264327
 34
0.0
100
AcDbRotatedDimension
1001
ACAD
1000
DSTYLE
1002
{
1070
    41
1040
2.0
1070
    42
1040
1.0
1070
    44
1040
1.0
1070
    73
1070
     0
1070
    74
1070
     0
1070
    77
1070
     1
1070
    78
1070
     8
1070
    79
1070
     2
1070
   140
1040
2.5
1070
   141
1040
0.0
1070
   147
1040
1.0
1070
   172
1070
     1
1070
   174
1070
     1
1070
   176
1070
   256
1070
   177
1070
   256
1070
   178
1070
   256
1070
   271
1070
     2
1070
   272
1070
     2
1070
   340
1005
DAB
1070
   371
1070
    -1
1070
   372
1070
    -1
1002
}
  0
DIMENSION
  5
148D
102
{ACAD_XDICTIONARY
360
149A
102
}
102
{ACAD_REACTORS
330
149B
102
}
330
1F
100
AcDbEntity
  8
Dim
100
AcDbDimension
  2
*D60
 10
942.0124415071004
 20
872.6898510264327
 30
0.0
 11
939.7624415071001
 21
860.6898510264327
 31
0.0
 70
    32
 71
     5
 42
24.0
  3
Standard
100
AcDbAlignedDimension
 13
957.0081970786143
 23
848.6898510264326
 33
0.0
 14
996.0081970786143
 24
872.6898510264327
 34
0.0
 50
90.0
100
AcDbRotatedDimension
1001
ACAD
1000
DSTYLE
1002
{
1070
    41
1040
2.0
1070
    42
1040
1.0
1070
    44
1040
1.0
1070
    73
1070
     0
1070
    74
1070
     0
1070
    77
1070
     1
1070
    78
1070
     8
1070
    79
1070
     2
1070
   140
1040
2.5
1070
   141
1040
0.0
1070
   147
1040
1.0
1070
   172
1070
     1
1070
   174
1070
     1
1070
   176
1070
   256
1070
   177
1070
   256
1070
   178
1070
   256
1070
   271
1070
     2
1070
   272
1070
     2
1070
   340
1005
DAB
1070
   371
1070
    -1
1070
   372
1070
    -1
1002
}
  0
LINE
  5
14B5
330
1F
100
AcDbEntity
  8
AM_7
100
AcDbLine
 10
983.0081970786142
 20
794.6898510264327
 30
0.0
 11
1010.008197078614
 21
794.6898510264327
 31
0.0
1001
GENIUS_GENOREF_13
1005
14B9
  0
LINE
  5
14B6
330
1F
100
AcDbEntity
  8
AM_7
100
AcDbLine
 10
983.0081970786142
 20
794.6898510264327
 30
0.0
 11
983.0081970786142
 21
821.6898510264327
 31
0.0
1001
GENIUS_GENOREF_13
1005
14B9
  0
LINE
  5
14B7
102
{ACAD_REACTORS
330
14E9
102
}
330
1F
100
AcDbEntity
  8
AM_7
100
AcDbLine
 10
983.0081970786142
 20
794.6898510264327
 30
0.0
 11
956.0081970786143
 21
794.6898510264327
 31
0.0
1001
GENIUS_GENOREF_13
1005
14B9
  0
LINE
  5
14B8
330
1F
100
AcDbEntity
  8
AM_7
100
AcDbLine
 10
983.0081970786142
 20
794.6898510264327
 30
0.0
 11
983.0081970786142
 21
767.6898510264327
 31
0.0
1001
GENIUS_GENOREF_13
1005
14B9
  0
POINT
  5
14B9
330
1F
100
AcDbEntity
  8
0
 60
     1
100
AcDbPoint
 10
0.0
 20
0.0
 30
0.0
1001
GENIUS_GENODEF_13
1002
{
1000
HIER
1070
    10
1002
}
1002
{
1000
MANEDIT
1070
     0
1002
}
1002
{
1000
NOSEL
1070
     0
1002
}
1002
{
1000
BEHIND
1070
     0
1002
}
1002
{
1000
OTHER
1070
     0
1002
}
1002
{
1000
REACTOR
1002
}
1001
GENIUS_GENOLIS_13
1002
{
1000
ENT
1005
14B8
1005
14B7
1005
14B6
1005
14B5
1002
}
1001
GENIUS_GENOENT_13
1002
{
1000
MYREF
1005
14B9
1002
}
1002
{
1000
GRP
1005
0
1002
}
1001
GENIUS_GENOBJ-N-CRS_13
1002
{
1000
OWNER
1000
GEN
1002
}
  0
LINE
  5
14C7
330
1F
100
AcDbEntity
  8
AM_7
100
AcDbLine
 10
983.0081970786142
 20
738.6898510264328
 30
0.0
 11
1010.008197078635
 21
738.6898510264328
 31
0.0
1001
GENIUS_GENOREF_13
1005
14CB
  0
LINE
  5
14C8
330
1F
100
AcDbEntity
  8
AM_7
100
AcDbLine
 10
983.0081970786142
 20
738.6898510264328
 30
0.0
 11
983.0081970786142
 21
765.6898510264534
 31
0.0
1001
GENIUS_GENOREF_13
1005
14CB
  0
LINE
  5
14C9
330
1F
100
AcDbEntity
  8
AM_7
100
AcDbLine
 10
983.0081970786142
 20
738.6898510264328
 30
0.0
 11
956.0081970785937
 21
738.6898510264328
 31
0.0
1001
GENIUS_GENOREF_13
1005
14CB
  0
LINE
  5
14CA
330
1F
100
AcDbEntity
  8
AM_7
100
AcDbLine
 10
983.0081970786142
 20
738.6898510264328
 30
0.0
 11
983.0081970786142
 21
711.6898510264122
 31
0.0
1001
GENIUS_GENOREF_13
1005
14CB
  0
POINT
  5
14CB
330
1F
100
AcDbEntity
  8
0
 60
     1
100
AcDbPoint
 10
0.0
 20
0.0
 30
0.0
1001
GENIUS_GENOLIS_13
1002
{
1000
ENT
1005
14CA
1005
14C9
1005
14C8
1005
14C7
1002
}
1001
GENIUS_GENODEF_13
1002
{
1000
HIER
1070
    10
1002
}
1002
{
1000
MANEDIT
1070
     0
1002
}
1002
{
1000
NOSEL
1070
     0
1002
}
1002
{
1000
BEHIND
1070
     0
1002
}
1002
{
1000
OTHER
1070
     0
1002
}
1002
{
1000
REACTOR
1002
}
1001
GENIUS_GENOENT_13
1002
{
1000
MYREF
1005
14CB
1002
}
1002
{
1000
GRP
1005
0
1002
}
1001
GENIUS_GENOBJ-N-CRS_13
1002
{
1000
OWNER
1000
GEN
1002
}
  0
DIMENSION
  5
14DB
102
{ACAD_XDICTIONARY
360
14E8
102
}
102
{ACAD_REACTORS
330
14E9
102
}
330
1F
100
AcDbEntity
  8
Dim
100
AcDbDimension
  2
*D61
 10
926.0124415071004
 20
794.6898510264327
 30
0.0
 11
923.7624415071001
 21
833.689851026433
 31
0.0
 70
    32
 71
     5
 42
78.0
  3
Standard
100
AcDbAlignedDimension
 13
996.0081970786143
 23
872.6898510264327
 33
0.0
 14
956.0081970786143
 24
794.6898510264327
 34
0.0
 50
90.0
100
AcDbRotatedDimension
1001
ACAD
1000
DSTYLE
1002
{
1070
    41
1040
2.0
1070
    42
1040
1.0
1070
    44
1040
1.0
1070
    73
1070
     0
1070
    74
1070
     0
1070
    77
1070
     1
1070
    78
1070
     8
1070
    79
1070
     2
1070
   140
1040
2.5
1070
   141
1040
0.0
1070
   147
1040
1.0
1070
   172
1070
     1
1070
   174
1070
     1
1070
   176
1070
   256
1070
   177
1070
   256
1070
   178
1070
   256
1070
   271
1070
     2
1070
   272
1070
     2
1070
   340
1005
DAB
1070
   371
1070
    -1
1070
   372
1070
    -1
1002
}
  0
DIMENSION
  5
1505
102
{ACAD_XDICTIONARY
360
1512
102
}
102
{ACAD_REACTORS
330
1513
102
}
330
1F
100
AcDbEntity
  8
Dim
100
AcDbDimension
  2
*D62
 10
1009.008197078614
 20
892.6898510264328
 30
0.0
 11
983.0081970786142
 21
894.9398510264327
 31
0.0
 70
    32
 71
     5
 42
52.0
  3
Standard
100
AcDbAlignedDimension
 13
957.0081970786143
 23
848.6898510264326
 33
0.0
 14
1009.008197078614
 24
872.6898510264327
 34
0.0
100
AcDbRotatedDimension
1001
ACAD
1000
DSTYLE
1002
{
1070
    41
1040
2.0
1070
    42
1040
1.0
1070
    44
1040
1.0
1070
    73
1070
     0
1070
    74
1070
     0
1070
    77
1070
     1
1070
    78
1070
     8
1070
    79
1070
     2
1070
   140
1040
2.5
1070
   141
1040
0.0
1070
   147
1040
1.0
1070
   172
1070
     1
1070
   174
1070
     1
1070
   176
1070
   256
1070
   177
1070
   256
1070
   178
1070
   256
1070
   271
1070
     2
1070
   272
1070
     2
1070
   340
1005
DAB
1070
   371
1070
    -1
1070
   372
1070
    -1
1002
}
  0
LINE
  5
152D
330
1F
100
AcDbEntity
  8
AM_7
  6
AM_ISO08W050x2
100
AcDbLine
 10
776.2368745701478
 20
672.6898510264328
 30
0.0
 11
783.2368745701479
 21
672.6898510264328
 31
0.0
1001
GENIUS_GENOREF_13
1005
1531
  0
LINE
  5
152F
330
1F
100
AcDbEntity
  8
AM_7
  6
AM_ISO08W050x2
100
AcDbLine
 10
776.2368745701478
 20
672.6898510264328
 30
0.0
 11
769.2368745701478
 21
672.6898510264328
 31
0.0
1001
GENIUS_GENOREF_13
1005
1531
  0
POINT
  5
1531
330
1F
100
AcDbEntity
  8
0
 60
     1
100
AcDbPoint
 10
0.0
 20
0.0
 30
0.0
1001
GENIUS_GENOENT_13
1002
{
1000
MYREF
1005
1531
1002
}
1002
{
1000
GRP
1005
0
1002
}
1001
GENIUS_GENOBJ-N-CRS_13
1002
{
1000
OWNER
1000
GEN
1002
}
1001
GENIUS_GENOLIS_13
1002
{
1000
ENT
1005
1530
1005
152F
1005
152E
1005
152D
1002
}
1001
GENIUS_GENODEF_13
1002
{
1000
HIER
1070
    10
1002
}
1002
{
1000
MANEDIT
1070
     1
1002
}
1002
{
1000
NOSEL
1070
     0
1002
}
1002
{
1000
BEHIND
1070
     0
1002
}
1002
{
1000
OTHER
1070
     0
1002
}
1002
{
1000
REACTOR
1002
}
  0
LINE
  5
1532
330
1F
100
AcDbEntity
  8
AM_7
  6
AM_ISO08W050x2
100
AcDbLine
 10
806.2368745701478
 20
672.6898510264328
 30
0.0
 11
813.2368745701478
 21
672.6898510264328
 31
0.0
1001
GENIUS_GENOREF_13
1005
1534
  0
LINE
  5
1533
330
1F
100
AcDbEntity
  8
AM_7
  6
AM_ISO08W050x2
100
AcDbLine
 10
806.2368745701478
 20
672.6898510264328
 30
0.0
 11
799.2368745701478
 21
672.6898510264328
 31
0.0
1001
GENIUS_GENOREF_13
1005
1534
  0
POINT
  5
1534
330
1F
100
AcDbEntity
  8
0
 60
     1
100
AcDbPoint
 10
30.0
 20
0.0
 30
0.0
1001
GENIUS_GENOENT_13
1002
{
1000
MYREF
1005
1534
1002
}
1002
{
1000
GRP
1005
0
1002
}
1001
GENIUS_GENOBJ-N-CRS_13
1002
{
1000
OWNER
1000
GEN
1002
}
1001
GENIUS_GENOLIS_13
1002
{
1000
ENT
1005
1530
1005
1533
1005
152E
1005
1532
1002
}
1001
GENIUS_GENODEF_13
1002
{
1000
HIER
1070
    10
1002
}
1002
{
1000
MANEDIT
1070
     1
1002
}
1002
{
1000
NOSEL
1070
     0
1002
}
1002
{
1000
BEHIND
1070
     0
1002
}
1002
{
1000
OTHER
1070
     0
1002
}
1002
{
1000
REACTOR
1002
}
  0
LINE
  5
1535
330
1F
100
AcDbEntity
  8
AM_7
  6
AM_ISO08W050x2
100
AcDbLine
 10
776.2368745701478
 20
860.6898510264327
 30
0.0
 11
783.2368745701479
 21
860.6898510264327
 31
0.0
1001
GENIUS_GENOREF_13
1005
1537
  0
LINE
  5
1536
330
1F
100
AcDbEntity
  8
AM_7
  6
AM_ISO08W050x2
100
AcDbLine
 10
776.2368745701478
 20
860.6898510264327
 30
0.0
 11
769.2368745701478
 21
860.6898510264327
 31
0.0
1001
GENIUS_GENOREF_13
1005
1537
  0
POINT
  5
1537
330
1F
100
AcDbEntity
  8
0
 60
     1
100
AcDbPoint
 10
0.0
 20
187.9999999999999
 30
0.0
1001
GENIUS_GENOENT_13
1002
{
1000
MYREF
1005
1537
1002
}
1002
{
1000
GRP
1005
0
1002
}
1001
GENIUS_GENOBJ-N-CRS_13
1002
{
1000
OWNER
1000
GEN
1002
}
1001
GENIUS_GENOLIS_13
1002
{
1000
ENT
1005
1530
1005
1536
1005
152E
1005
1535
1002
}
1001
GENIUS_GENODEF_13
1002
{
1000
HIER
1070
    10
1002
}
1002
{
1000
MANEDIT
1070
     1
1002
}
1002
{
1000
NOSEL
1070
     0
1002
}
1002
{
1000
BEHIND
1070
     0
1002
}
1002
{
1000
OTHER
1070
     0
1002
}
1002
{
1000
REACTOR
1002
}
  0
LINE
  5
1538
102
{ACAD_REACTORS
330
1748
102
}
330
1F
100
AcDbEntity
  8
AM_7
  6
AM_ISO08W050x2
100
AcDbLine
 10
806.2368745701478
 20
860.6898510264327
 30
0.0
 11
813.2368745701478
 21
860.6898510264327
 31
0.0
1001
GENIUS_GENOREF_13
1005
153A
  0
LINE
  5
1539
330
1F
100
AcDbEntity
  8
AM_7
  6
AM_ISO08W050x2
100
AcDbLine
 10
806.2368745701478
 20
860.6898510264327
 30
0.0
 11
799.2368745701478
 21
860.6898510264327
 31
0.0
1001
GENIUS_GENOREF_13
1005
153A
  0
POINT
  5
153A
330
1F
100
AcDbEntity
  8
0
 60
     1
100
AcDbPoint
 10
30.0
 20
187.9999999999999
 30
0.0
1001
GENIUS_GENOENT_13
1002
{
1000
MYREF
1005
153A
1002
}
1002
{
1000
GRP
1005
0
1002
}
1001
GENIUS_GENOBJ-N-CRS_13
1002
{
1000
OWNER
1000
GEN
1002
}
1001
GENIUS_GENOLIS_13
1002
{
1000
ENT
1005
1530
1005
1539
1005
152E
1005
1538
1002
}
1001
GENIUS_GENODEF_13
1002
{
1000
HIER
1070
    10
1002
}
1002
{
1000
MANEDIT
1070
     1
1002
}
1002
{
1000
NOSEL
1070
     0
1002
}
1002
{
1000
BEHIND
1070
     0
1002
}
1002
{
1000
OTHER
1070
     0
1002
}
1002
{
1000
REACTOR
1002
}
  0
LINE
  5
1728
330
1F
100
AcDbEntity
  8
0
  6
Continuous
 62
     7
100
AcDbLine
 10
758.2368745701479
 20
769.6898510264327
 30
0.0
 11
758.2368745701479
 21
763.6898510264327
 31
0.0
  0
LINE
  5
1729
330
1F
100
AcDbEntity
  8
0
  6
Continuous
 62
     7
100
AcDbLine
 10
824.2368745701478
 20
769.6898510264327
 30
0.0
 11
824.2368745701478
 21
763.6898510264327
 31
0.0
  0
DIMENSION
  5
173A
102
{ACAD_XDICTIONARY
360
1747
102
}
102
{ACAD_REACTORS
330
1748
102
}
330
1F
100
AcDbEntity
  8
Dim
100
AcDbDimension
  2
*D63
 10
843.4040092226798
 20
860.6898510264327
 30
0.0
 11
841.1540092226797
 21
866.689851026433
 31
0.0
 70
    32
 71
     5
 42
12.0
  3
Standard
100
AcDbAlignedDimension
 13
820.2368745701479
 23
872.6898510264327
 33
0.0
 14
813.2368745701478
 24
860.6898510264327
 34
0.0
 50
90.0
100
AcDbRotatedDimension
1001
ACAD
1000
DSTYLE
1002
{
1070
    41
1040
2.0
1070
    42
1040
1.0
1070
    44
1040
1.0
1070
    73
1070
     0
1070
    74
1070
     0
1070
    77
1070
     1
1070
    78
1070
     8
1070
    79
1070
     2
1070
   140
1040
2.5
1070
   141
1040
0.0
1070
   147
1040
1.0
1070
   172
1070
     1
1070
   174
1070
     1
1070
   176
1070
   256
1070
   177
1070
   256
1070
   178
1070
   256
1070
   271
1070
     2
1070
   272
1070
     2
1070
   340
1005
DAB
1070
   371
1070
    -1
1070
   372
1070
    -1
1002
}
  0
TEXT
  5
181E
330
1F
100
AcDbEntity
  8
LOGO
 62
     7
100
AcDbText
 10
249.1862204491491
 20
410.311661442415
 30
0.0
 40
10.32756715774137
  1
Order example:
 41
0.8
  7
CHINESET
100
AcDbText
  0
TEXT
  5
181F
330
1F
100
AcDbEntity
  8
LOGO
 62
     7
100
AcDbText
 10
251.0390714027533
 20
424.8507376504498
 30
0.0
 40
15.49135073661205
  1
訂購代號：
  7
CHINESET
100
AcDbText
  0
LINE
  5
1820
330
1F
100
AcDbEntity
  8
LOGO
 62
     4
100
AcDbLine
 10
244.6988574900165
 20
366.787393508613
 30
0.0
 11
244.6988574900165
 21
444.2441471916736
 31
0.0
  0
TEXT
  5
1821
330
1F
100
AcDbEntity
  8
LOGO
  6
Continuous
100
AcDbText
 10
102.1168134850833
 20
382.003655877217
 30
0.0
 40
11.61851305245904
  1
金器工業股份有限公司
  7
CHINESET
100
AcDbText
  0
TEXT
  5
1822
330
1F
100
AcDbEntity
  8
LOGO
  6
Continuous
100
AcDbText
 10
80.77590361716849
 20
370.3828665071266
 30
0.0
 40
7.745675368306025
  1
MINDMAN INDUSTRIAL CO., LTD.
 41
0.85
  7
CHINESET
100
AcDbText
  0
LINE
  5
1823
330
1F
100
AcDbEntity
  8
LOGO
 62
     4
100
AcDbLine
 10
244.6988574900165
 20
428.7527964550614
 30
0.0
 11
131.0956187548607
 21
428.7527964550614
 31
0.0
  0
LINE
  5
1824
330
1F
100
AcDbEntity
  8
LOGO
 62
     4
100
AcDbLine
 10
244.6988574900165
 20
413.2614457184494
 30
0.0
 11
131.0956187548607
 21
413.2614457184494
 31
0.0
  0
LINE
  5
1825
330
1F
100
AcDbEntity
  8
LOGO
 62
     4
100
AcDbLine
 10
244.6988574900165
 20
397.7700949818382
 30
0.0
 11
74.29399938728375
 21
397.7700949818382
 31
0.0
  0
LINE
  5
1826
330
1F
100
AcDbEntity
  8
LOGO
 62
     4
100
AcDbLine
 10
131.0956187548607
 20
397.7700949818382
 30
0.0
 11
131.0956187548607
 21
444.2441471916736
 31
0.0
  0
TEXT
  5
1827
330
1F
100
AcDbEntity
  8
LOGO
100
AcDbText
 10
208.7380704391445
 20
401.6429326659896
 30
0.0
 40
7.745675368306025
  1
mm
  7
CHINESET
 72
     1
 11
218.3279542284758
 21
405.5157703501427
 31
0.0
100
AcDbText
 73
     2
  0
TEXT
  5
1828
330
1F
100
AcDbEntity
  8
LOGO
100
AcDbText
 10
204.6808119128889
 20
432.6256341392142
 30
0.0
 40
7.745675368306025
  1
1 : 1
  7
CHINESET
 72
     1
 11
218.3279542284758
 21
436.4984718233672
 31
0.0
100
AcDbText
 73
     2
  0
LINE
  5
1829
330
1F
100
AcDbEntity
  8
LOGO
 62
     4
100
AcDbLine
 10
193.0610217013097
 20
397.7700949818382
 30
0.0
 11
193.0610217013097
 21
444.2441471916736
 31
0.0
  0
TEXT
  5
182A
330
1F
100
AcDbEntity
  8
LOGO
100
AcDbText
 10
137.4823430429239
 20
432.6294459873285
 30
507.6388033840355
 40
7.745675368306025
  1
比例 Scale:
 41
0.9
  7
CHINESET
 72
     4
 11
162.0783202280849
 21
436.4984718233672
 31
507.6388033840355
100
AcDbText
  0
TEXT
  5
182B
330
1F
100
AcDbEntity
  8
LOGO
100
AcDbText
 10
137.0362751310884
 20
417.2432387278696
 30
507.6388033840355
 40
7.745675368306025
  1
投影  View:
 41
0.9
  7
CHINESET
 72
     4
 11
162.0783202280849
 21
421.007121086755
 31
507.6388033840355
100
AcDbText
  0
TEXT
  5
182C
330
1F
100
AcDbEntity
  8
LOGO
100
AcDbText
 10
137.7935532139719
 20
401.6429326659896
 30
507.6388033840355
 40
7.745675368306025
  1
單位  Unit:
 41
0.9
  7
CHINESET
 72
     4
 11
162.0783202280849
 21
405.5157703501427
 31
507.6388033840355
100
AcDbText
  0
LWPOLYLINE
  5
182D
330
1F
100
AcDbEntity
  8
LOGO
 62
     4
100
AcDbPolyline
 90
        4
 70
     1
 43
0.0
 10
74.29399938728375
 20
444.2441471916735
 10
1131.024751387283
 20
444.2441471916735
 10
1131.024751387283
 20
1141.467101156611
 10
74.29399938728375
 20
1141.467101156611
1001
GENIUS_GENREC_14
1002
{
1000
PYDIR
1011
74.29399938728375
1021
1141.467101156611
1031
0.0
1002
}
1002
{
1000
PXDIR
1011
1131.024751387283
1021
444.2441471916735
1031
0.0
1002
}
1002
{
1000
PORI
1011
74.29399938728375
1021
444.2441471916735
1031
0.0
1002
}
1002
{
1000
PINS
1011
74.29399938728375
1021
444.2441471916735
1031
0.0
1002
}
1002
{
1000
PINS2
1011
1131.024751387283
1021
1141.467101156611
1031
0.0
1002
}
1002
{
1000
C
1070
     1
1002
}
1001
GENIUS_GENODEF_13
1002
{
1000
HIER
1070
     0
1002
}
1002
{
1000
MANEDIT
1070
     0
1002
}
1002
{
1000
NOSEL
1070
     0
1002
}
1002
{
1000
BEHIND
1070
     0
1002
}
1002
{
1000
OTHER
1070
     0
1002
}
1002
{
1000
REACTOR
1002
}
1001
GENIUS_GENOBJ-N-REC_13
1002
{
1000
OWNER
1000
GEN
1002
}
  0
SOLID
  5
182E
330
1F
100
AcDbEntity
  8
LOGO
 62
     5
100
AcDbTrace
 10
82.33026189053555
 20
410.6461777715753
 30
0.0
 11
85.67928867326898
 21
410.6461777715743
 31
0.0
 12
99.65281421501998
 22
442.404190366466
 32
0.0
 13
103.0018409977558
 23
442.4041903664642
 33
0.0
  0
SOLID
  5
182F
330
1F
100
AcDbEntity
  8
LOGO
 62
     5
100
AcDbTrace
 10
87.06509285923136
 20
410.6461777715753
 30
0.0
 11
90.41411964196525
 21
410.6461777715753
 31
0.0
 12
103.0018409977558
 22
439.8635493588736
 32
0.0
 13
99.65281421501998
 23
427.583784488849
 33
0.0
  0
SOLID
  5
1830
330
1F
100
AcDbEntity
  8
LOGO
 62
     2
100
AcDbTrace
 10
85.67928867326898
 20
410.6461777715743
 30
0.0
 11
87.06509285923136
 21
410.6461777715753
 31
0.0
 12
103.0018409977558
 22
442.4041903664642
 32
0.0
 13
104.3876451837165
 23
442.4041903664642
 33
0.0
  0
SOLID
  5
1831
330
1F
100
AcDbEntity
  8
LOGO
 62
     5
100
AcDbTrace
 10
76.96095067584426
 20
399.0978095552524
 30
0.0
 11
78.11578749747809
 21
399.0978095552524
 31
0.0
 12
81.36789787250938
 22
404.8719936634135
 32
0.0
 13
82.52273469413937
 23
404.8719936634135
 33
0.0
  0
SOLID
  5
1832
330
1F
100
AcDbEntity
  8
LOGO
 62
     5
100
AcDbTrace
 10
81.36789787250938
 20
404.8719936634135
 30
0.0
 11
82.52273469413937
 21
404.8719936634135
 31
0.0
 12
81.36789787250938
 22
399.0978095552524
 32
0.0
 13
82.52273469413937
 23
399.0978095552524
 33
0.0
  0
SOLID
  5
1833
330
1F
100
AcDbEntity
  8
LOGO
 62
     5
100
AcDbTrace
 10
81.36789787250938
 20
399.0978095552524
 30
0.0
 11
82.52273469413937
 21
399.0978095552524
 31
0.0
 12
85.77484506917631
 22
404.8719936634135
 32
0.0
 13
86.92968189080799
 23
404.8719936634135
 33
0.0
  0
SOLID
  5
1834
330
1F
100
AcDbEntity
  8
LOGO
 62
     5
100
AcDbTrace
 10
85.77484506917631
 20
404.8719936634135
 30
0.0
 11
86.92968189080799
 21
404.8719936634135
 31
0.0
 12
85.77484506917631
 22
399.0978095552524
 32
0.0
 13
86.92968189080799
 23
399.0978095552524
 33
0.0
  0
POLYLINE
  5
1835
330
1F
100
AcDbEntity
  8
LOGO
 62
     5
100
AcDb2dPolyline
 66
     1
 10
0.0
 20
0.0
 30
0.0
 40
1.156687521667033
 41
1.156687521667033
  0
VERTEX
  5
1836
330
1835
100
AcDbEntity
  8
LOGO
 62
     5
100
AcDbVertex
100
AcDb2dVertex
 10
124.4845819301712
 20
402.5623200201487
 30
0.0
 42
1.0
  0
VERTEX
  5
1837
330
1835
100
AcDbEntity
  8
LOGO
 62
     5
100
AcDbVertex
100
AcDb2dVertex
 10
121.0145193651696
 20
402.5623200201487
 30
0.0
 42
1.0
  0
SEQEND
  5
1838
330
1835
100
AcDbEntity
  8
LOGO
 62
     5
  0
POLYLINE
  5
1839
330
1F
100
AcDbEntity
  8
LOGO
 62
     5
100
AcDb2dPolyline
 66
     1
 10
0.0
 20
0.0
 30
0.0
 70
     1
  0
VERTEX
  5
183A
330
1839
100
AcDbEntity
  8
LOGO
 62
     5
100
AcDbVertex
100
AcDb2dVertex
 10
114.4732970817573
 20
401.984901609332
 30
0.0
 42
1.000000057330635
  0
VERTEX
  5
183B
330
1839
100
AcDbEntity
  8
LOGO
 62
     5
100
AcDbVertex
100
AcDb2dVertex
 10
117.9378075466547
 20
401.984901609332
 30
0.0
 42
1.000000057330635
  0
SEQEND
  5
183C
330
1839
100
AcDbEntity
  8
LOGO
 62
     5
  0
CIRCLE
  5
183D
330
1F
100
AcDbEntity
  8
LOGO
 62
     5
100
AcDbCircle
 10
116.2055523142087
 20
401.984901609332
 30
0.0
 40
1.732255232448549
  0
POLYLINE
  5
183E
330
1F
100
AcDbEntity
  8
LOGO
 62
     5
100
AcDb2dPolyline
 66
     1
 10
0.0
 20
0.0
 30
0.0
 70
     1
 40
1.156687521667033
 41
1.156687521667033
  0
VERTEX
  5
183F
330
183E
100
AcDbEntity
  8
LOGO
 62
     5
100
AcDbVertex
100
AcDb2dVertex
 10
113.8921772708729
 20
401.984901609332
 30
0.0
 42
1.0
  0
VERTEX
  5
1840
330
183E
100
AcDbEntity
  8
LOGO
 62
     5
100
AcDbVertex
100
AcDb2dVertex
 10
118.5189273575407
 20
401.984901609332
 30
0.0
 42
1.0
  0
SEQEND
  5
1841
330
183E
100
AcDbEntity
  8
LOGO
 62
     5
  0
LINE
  5
1842
330
1F
100
AcDbEntity
  8
LOGO
100
AcDbLine
 10
125.0592242909329
 20
399.0978095552524
 30
0.0
 11
125.0592242909329
 21
402.5623200201487
 31
0.0
  0
SOLID
  5
1843
330
1F
100
AcDbEntity
  8
LOGO
 62
     5
100
AcDbTrace
 10
117.9376920629778
 20
404.8719936634135
 30
0.0
 11
119.0925288846078
 21
404.8719936634135
 31
0.0
 12
117.9376920629778
 22
399.0978095552524
 32
0.0
 13
119.0925288846078
 23
399.0978095552524
 33
0.0
  0
SOLID
  5
1844
330
1F
100
AcDbEntity
  8
LOGO
 62
     5
100
AcDbTrace
 10
120.4398770044039
 20
399.0978095552524
 30
0.0
 11
121.5947138260375
 21
399.0978095552524
 31
0.0
 12
120.4398770044039
 22
404.8719936634135
 32
0.0
 13
121.5947138260375
 23
404.8719936634135
 33
0.0
  0
SOLID
  5
1845
330
1F
100
AcDbEntity
  8
LOGO
 62
     5
100
AcDbTrace
 10
123.9043874693029
 20
402.5623200201487
 30
0.0
 11
125.0592242909329
 21
402.5623200201487
 31
0.0
 12
123.9043874693029
 22
399.0978095552524
 32
0.0
 13
125.0592242909329
 23
399.0978095552524
 33
0.0
  0
SOLID
  5
1846
330
1F
100
AcDbEntity
  8
LOGO
 62
     5
100
AcDbTrace
 10
120.3243933222404
 20
439.8635493588736
 30
0.0
 11
116.9753665395085
 21
427.583784488849
 31
0.0
 12
120.3243933222404
 22
410.6461777715743
 32
0.0
 13
116.9753665395085
 23
410.6461777715743
 33
0.0
  0
SOLID
  5
1847
330
1F
100
AcDbEntity
  8
LOGO
 62
     5
100
AcDbTrace
 10
121.7101975082012
 20
410.6461777715743
 30
0.0
 11
125.0592242909329
 21
410.6461777715743
 31
0.0
 12
121.7101975082012
 22
442.4041903664642
 32
0.0
 13
125.0592242909329
 23
442.404190366466
 33
0.0
  0
SOLID
  5
1848
330
1F
100
AcDbEntity
  8
LOGO
 62
     2
100
AcDbTrace
 10
120.3243933222404
 20
442.404190366466
 30
0.0
 11
121.7101975082012
 21
442.4041903664642
 31
0.0
 12
120.3243933222404
 22
410.6461777715743
 32
0.0
 13
121.7101975082012
 23
410.6461777715743
 33
0.0
  0
POLYLINE
  5
1849
330
1F
100
AcDbEntity
  8
LOGO
 62
     5
100
AcDb2dPolyline
 66
     1
 10
0.0
 20
0.0
 30
0.0
 40
1.156687521667033
 41
1.156687521667033
  0
VERTEX
  5
184A
330
1849
100
AcDbEntity
  8
LOGO
 62
     5
100
AcDbVertex
100
AcDb2dVertex
 10
107.9318438309865
 20
402.5623200201487
 30
0.0
 42
1.0
  0
VERTEX
  5
184B
330
1849
100
AcDbEntity
  8
LOGO
 62
     5
100
AcDbVertex
100
AcDb2dVertex
 10
104.4617812659844
 20
402.5623200201487
 30
0.0
 42
1.0
  0
SEQEND
  5
184C
330
1849
100
AcDbEntity
  8
LOGO
 62
     5
  0
POLYLINE
  5
184D
330
1F
100
AcDbEntity
  8
LOGO
 62
     5
100
AcDb2dPolyline
 66
     1
 10
0.0
 20
0.0
 30
0.0
 40
1.156687521667033
 41
1.156687521667033
  0
VERTEX
  5
184E
330
184D
100
AcDbEntity
  8
LOGO
 62
     5
100
AcDbVertex
100
AcDb2dVertex
 10
111.3963542958801
 20
402.5623200201487
 30
0.0
 42
1.0
  0
VERTEX
  5
184F
330
184D
100
AcDbEntity
  8
LOGO
 62
     5
100
AcDbVertex
100
AcDb2dVertex
 10
107.9262917308799
 20
402.5623200201487
 30
0.0
 42
1.0
  0
SEQEND
  5
1850
330
184D
100
AcDbEntity
  8
LOGO
 62
     5
  0
POLYLINE
  5
1851
330
1F
100
AcDbEntity
  8
LOGO
 62
     5
100
AcDb2dPolyline
 66
     1
 10
0.0
 20
0.0
 30
0.0
 40
1.156687521667033
 41
1.156687521667033
  0
VERTEX
  5
1852
330
1851
100
AcDbEntity
  8
LOGO
 62
     5
100
AcDbVertex
100
AcDb2dVertex
 10
94.84361619669465
 20
402.5623200201487
 30
0.0
 42
1.0
  0
VERTEX
  5
1853
330
1851
100
AcDbEntity
  8
LOGO
 62
     5
100
AcDbVertex
100
AcDb2dVertex
 10
91.37355363169495
 20
402.5623200201487
 30
0.0
 42
1.0
  0
SEQEND
  5
1854
330
1851
100
AcDbEntity
  8
LOGO
 62
     5
  0
SOLID
  5
1855
330
1F
100
AcDbEntity
  8
LOGO
 62
     5
100
AcDbTrace
 10
90.79891127093112
 20
404.8719936634135
 30
0.0
 11
91.95374809256113
 21
404.8719936634135
 31
0.0
 12
90.79891127093112
 22
399.0978095552524
 32
0.0
 13
91.95374809256113
 23
399.0978095552524
 33
0.0
  0
SOLID
  5
1856
330
1F
100
AcDbEntity
  8
LOGO
 62
     5
100
AcDbTrace
 10
94.26342173582826
 20
402.5623200201487
 30
0.0
 11
95.4182585574623
 21
402.5623200201487
 31
0.0
 12
94.26342173582826
 22
399.0978095552524
 32
0.0
 13
95.4182585574623
 23
399.0978095552524
 33
0.0
  0
POLYLINE
  5
1857
330
1F
100
AcDbEntity
  8
LOGO
 62
     5
100
AcDb2dPolyline
 66
     1
 10
0.0
 20
0.0
 30
0.0
 70
     1
 40
1.156687521667033
 41
1.156687521667033
  0
VERTEX
  5
1858
330
1857
100
AcDbEntity
  8
LOGO
 62
     5
100
AcDbVertex
100
AcDb2dVertex
 10
97.3394391716863
 20
401.984901609332
 30
0.0
 42
1.0
  0
VERTEX
  5
1859
330
1857
100
AcDbEntity
  8
LOGO
 62
     5
100
AcDbVertex
100
AcDb2dVertex
 10
101.966189258356
 20
401.984901609332
 30
0.0
 42
1.0
  0
SEQEND
  5
185A
330
1857
100
AcDbEntity
  8
LOGO
 62
     5
  0
SOLID
  5
185B
330
1F
100
AcDbEntity
  8
LOGO
 62
     5
100
AcDbTrace
 10
101.3849539637893
 20
406.604248895863
 30
0.0
 11
102.5397907854212
 21
406.604248895863
 31
0.0
 12
101.3849539637893
 22
399.0978095552524
 32
0.0
 13
102.5397907854212
 23
399.0978095552524
 33
0.0
  0
SOLID
  5
185C
330
1F
100
AcDbEntity
  8
LOGO
 62
     5
100
AcDbTrace
 10
103.8871389052225
 20
404.8719936634135
 30
0.0
 11
105.0419757268525
 21
404.8719936634135
 31
0.0
 12
103.8871389052225
 22
399.0978095552524
 32
0.0
 13
105.0419757268525
 23
399.0978095552524
 33
0.0
  0
SOLID
  5
185D
330
1F
100
AcDbEntity
  8
LOGO
 62
     5
100
AcDbTrace
 10
107.3516493701158
 20
402.5623200201487
 30
0.0
 11
108.5064861917501
 21
402.5623200201487
 31
0.0
 12
107.3516493701158
 22
399.0978095552524
 32
0.0
 13
108.5064861917501
 23
399.0978095552524
 33
0.0
  0
SOLID
  5
185E
330
1F
100
AcDbEntity
  8
LOGO
 62
     5
100
AcDbTrace
 10
110.8161598350134
 20
402.5623200201487
 30
0.0
 11
111.9709966566458
 21
402.5623200201487
 31
0.0
 12
110.8161598350134
 22
399.0978095552507
 32
0.0
 13
111.9709966566458
 23
399.0978095552507
 33
0.0
  0
SOLID
  5
185F
330
1F
100
AcDbEntity
  8
LOGO
 62
     5
100
AcDbTrace
 10
88.29672632949984
 20
405.6803794385563
 30
0.0
 11
89.45156315113504
 21
405.6803794385563
 31
0.0
 12
88.29672632949984
 22
406.604248895863
 32
0.0
 13
89.45156315113504
 23
406.604248895863
 33
0.0
  0
SOLID
  5
1860
330
1F
100
AcDbEntity
  8
LOGO
 62
     5
100
AcDbTrace
 10
88.29672632949984
 20
404.8719936634135
 30
0.0
 11
89.45156315113504
 21
404.8719936634135
 31
0.0
 12
88.29672632949984
 22
399.0978095552507
 32
0.0
 13
89.45156315113504
 23
399.0978095552524
 33
0.0
  0
SOLID
  5
1861
330
1F
100
AcDbEntity
  8
LOGO
 62
     5
100
AcDbTrace
 10
99.65281421501998
 20
410.6461777715753
 30
0.0
 11
103.0018409977558
 21
410.6461777715753
 31
0.0
 12
99.65281421501998
 22
427.583784488849
 32
0.0
 13
103.0018409977558
 23
439.8635493588736
 33
0.0
  0
SOLID
  5
1862
330
1F
100
AcDbEntity
  8
LOGO
 62
     5
100
AcDbTrace
 10
104.3876451837165
 20
442.4041903664642
 30
0.0
 11
107.7366719664483
 21
442.404190366466
 31
0.0
 12
104.3876451837165
 22
413.1868187791661
 32
0.0
 13
107.7366719664483
 23
425.4665836491904
 33
0.0
  0
SOLID
  5
1863
330
1F
100
AcDbEntity
  8
LOGO
 62
     2
100
AcDbTrace
 10
103.0018409977558
 20
442.4041903664642
 30
0.0
 11
104.3876451837165
 21
442.4041903664642
 31
0.0
 12
103.0018409977558
 22
410.6461777715753
 32
0.0
 13
104.3876451837165
 23
410.6461777715753
 33
0.0
  0
SOLID
  5
1864
330
1F
100
AcDbEntity
  8
LOGO
 62
     5
100
AcDbTrace
 10
104.3876451837165
 20
413.1868187791661
 30
0.0
 11
107.7366719664483
 21
425.4665836491904
 31
0.0
 12
120.3243933222404
 22
442.404190366466
 32
0.0
 13
116.9753665395085
 23
442.404190366466
 33
0.0
  0
SOLID
  5
1865
330
1F
100
AcDbEntity
  8
LOGO
 62
     5
100
AcDbTrace
 10
104.3876451837165
 20
410.6461777715753
 30
0.0
 11
107.7366719664483
 21
410.6461777715753
 31
0.0
 12
120.3243933222404
 22
439.8635493588736
 32
0.0
 13
116.9753665395085
 23
427.583784488849
 33
0.0
  0
SOLID
  5
1866
330
1F
100
AcDbEntity
  8
LOGO
 62
     2
100
AcDbTrace
 10
103.0018409977558
 20
410.6461777715753
 30
0.0
 11
104.3876451837165
 21
410.6461777715753
 31
0.0
 12
120.3243933222404
 22
442.404190366466
 32
0.0
 13
121.7101975082012
 23
442.4041903664642
 33
0.0
  0
LWPOLYLINE
  5
1867
330
1F
100
AcDbEntity
  8
LOGO
 62
     4
100
AcDbPolyline
 90
        4
 70
     1
 43
0.0
 10
74.29399938728375
 20
444.2441471916735
 10
1131.024751387283
 20
444.2441471916735
 10
1131.024751387283
 20
366.7873935086121
 10
74.29399938728375
 20
366.7873935086121
1001
GENIUS_GENREC_14
1002
{
1000
PYDIR
1011
74.29399938728375
1021
366.7873935086121
1031
0.0
1002
}
1002
{
1000
PXDIR
1011
1131.024751387283
1021
444.2441471916735
1031
0.0
1002
}
1002
{
1000
PORI
1011
74.29399938728375
1021
444.2441471916735
1031
0.0
1002
}
1002
{
1000
PINS
1011
74.29399938728375
1021
444.2441471916735
1031
0.0
1002
}
1002
{
1000
PINS2
1011
1131.024751387283
1021
366.7873935086121
1031
0.0
1002
}
1002
{
1000
C
1070
     1
1002
}
1001
GENIUS_GENOBJ-N-REC_13
1002
{
1000
OWNER
1000
GEN
1002
}
1001
GENIUS_GENODEF_13
1002
{
1000
HIER
1070
     0
1002
}
1002
{
1000
MANEDIT
1070
     0
1002
}
1002
{
1000
NOSEL
1070
     0
1002
}
1002
{
1000
BEHIND
1070
     0
1002
}
1002
{
1000
OTHER
1070
     0
1002
}
1002
{
1000
REACTOR
1002
}
  0
LINE
  5
1868
330
1F
100
AcDbEntity
  8
LOGO
 62
     4
100
AcDbLine
 10
402.8750202645293
 20
401.6429326659912
 30
0.0
 11
402.8750202645293
 21
373.2421229822011
 31
0.0
  0
LINE
  5
1869
330
1F
100
AcDbEntity
  8
LOGO
 62
     4
100
AcDbLine
 10
351.2371844758217
 20
401.6429326659912
 30
0.0
 11
351.2371844758217
 21
373.2421229822011
 31
0.0
  0
LINE
  5
186A
330
1F
100
AcDbEntity
  8
LOGO
 62
     4
100
AcDbLine
 10
402.8750202645293
 20
373.2421229822011
 30
0.0
 11
351.2371844758217
 21
373.2421229822011
 31
0.0
  0
LINE
  5
186B
330
1F
100
AcDbEntity
  8
LOGO
 62
     4
100
AcDbLine
 10
417.9063221407342
 20
436.4984718233672
 30
0.0
 11
351.2371844758217
 21
436.4984718233672
 31
0.0
  0
LINE
  5
186C
330
1F
100
AcDbEntity
  8
LOGO
 62
     4
100
AcDbLine
 10
417.9063221407342
 20
413.2614457184494
 30
0.0
 11
351.2371844758217
 21
413.2614457184494
 31
0.0
  0
LINE
  5
186D
330
1F
100
AcDbEntity
  8
LOGO
 62
     4
100
AcDbLine
 10
351.2371844758217
 20
436.4984718233672
 30
0.0
 11
351.2371844758217
 21
413.2614457184494
 31
0.0
  0
LINE
  5
186E
330
1F
100
AcDbEntity
  8
LOGO
 62
     4
100
AcDbLine
 10
417.9063221407342
 20
436.4984718233672
 30
0.0
 11
417.9063221407342
 21
413.2614457184494
 31
0.0
  0
LINE
  5
186F
330
1F
100
AcDbEntity
  8
LOGO
 62
     4
100
AcDbLine
 10
379.7503004160887
 20
413.2614457184494
 30
0.0
 11
379.7503004160887
 21
401.6429326659912
 31
0.0
  0
TEXT
  5
1870
330
1F
100
AcDbEntity
  8
LOGO
  6
Continuous
100
AcDbText
 10
355.366040090205
 20
418.1121409453224
 30
0.0
 40
13.55689488384
  1
MCHW
  7
CHINESET
100
AcDbText
  0
LINE
  5
1871
330
1F
100
AcDbEntity
  8
LOGO
 62
     4
100
AcDbLine
 10
402.8750202645293
 20
401.6429326659912
 30
0.0
 11
351.2371844758217
 21
401.6429326659912
 31
0.0
  0
TEXT
  5
1872
330
1F
100
AcDbEntity
  8
LOGO
  6
Continuous
100
AcDbText
 10
367.8076024975176
 20
377.2508370437522
 30
507.6388033840355
 40
5.810097807359998
  1
Model
 41
0.8
  7
CHINESET
100
AcDbText
  0
TEXT
  5
1873
330
1F
100
AcDbEntity
  8
LOGO
100
AcDbText
 10
366.261143335862
 20
388.0215062131505
 30
507.6388033840355
 40
9.6834963456
  1
型號
  7
CHINESET
100
AcDbText
  0
LINE
  5
1874
330
1F
100
AcDbEntity
  8
LOGO
  6
Continuous
100
AcDbLine
 10
420.376610067063
 20
424.7976495521269
 30
0.0
 11
430.6372329135872
 21
424.7976495521269
 31
0.0
  0
LINE
  5
1875
330
1F
100
AcDbEntity
  8
LOGO
 62
     4
100
AcDbLine
 10
467.0050751963128
 20
401.6429326659912
 30
0.0
 11
467.0050751963128
 21
373.2421229822011
 31
0.0
  0
LINE
  5
1876
330
1F
100
AcDbEntity
  8
LOGO
 62
     4
100
AcDbLine
 10
415.3672394076052
 20
401.6429326659912
 30
0.0
 11
415.3672394076052
 21
373.2421229822011
 31
0.0
  0
LINE
  5
1877
330
1F
100
AcDbEntity
  8
LOGO
 62
     4
100
AcDbLine
 10
467.0050751963128
 20
373.2421229822011
 30
0.0
 11
415.3672394076052
 21
373.2421229822011
 31
0.0
  0
LINE
  5
1878
330
1F
100
AcDbEntity
  8
LOGO
 62
     4
100
AcDbLine
 10
464.4486319246789
 20
436.4984718233672
 30
0.0
 11
434.3779089456886
 21
436.4984718233672
 31
0.0
  0
LINE
  5
1879
330
1F
100
AcDbEntity
  8
LOGO
 62
     4
100
AcDbLine
 10
464.4486319246789
 20
413.2614457184494
 30
0.0
 11
434.3779089456886
 21
413.2614457184494
 31
0.0
  0
LINE
  5
187A
330
1F
100
AcDbEntity
  8
LOGO
 62
     4
100
AcDbLine
 10
434.3779089456886
 20
436.4984718233672
 30
0.0
 11
434.3779089456886
 21
413.2614457184494
 31
0.0
  0
LINE
  5
187B
330
1F
100
AcDbEntity
  8
LOGO
 62
     4
100
AcDbLine
 10
464.4486319246789
 20
436.4984718233672
 30
0.0
 11
464.4486319246789
 21
413.2614457184494
 31
0.0
  0
LINE
  5
187C
330
1F
100
AcDbEntity
  8
LOGO
 62
     4
100
AcDbLine
 10
452.2313462189276
 20
413.2614457184494
 30
0.0
 11
452.2313462189276
 21
401.6429326659912
 31
0.0
  0
TEXT
  5
187D
330
1F
100
AcDbEntity
  8
LOGO
  6
Continuous
100
AcDbText
 10
438.6276795282951
 20
418.1121409453224
 30
0.0
 40
13.55689488384
  1
50
  7
CHINESET
100
AcDbText
  0
LINE
  5
187E
330
1F
100
AcDbEntity
  8
LOGO
 62
     4
100
AcDbLine
 10
467.0050751963128
 20
401.6429326659912
 30
0.0
 11
415.3672394076052
 21
401.6429326659912
 31
0.0
  0
LINE
  5
187F
330
1F
100
AcDbEntity
  8
LOGO
  6
Continuous
100
AcDbLine
 10
511.8084810874719
 20
424.7976495521269
 30
0.0
 11
522.0691039339977
 21
424.7976495521269
 31
0.0
  0
LINE
  5
1880
330
1F
100
AcDbEntity
  8
LOGO
 62
     4
100
AcDbLine
 10
600.3360562860066
 20
401.6429326659912
 30
0.0
 11
600.3360562860066
 21
373.2421229822011
 31
0.0
  0
LINE
  5
1881
330
1F
100
AcDbEntity
  8
LOGO
 62
     4
100
AcDbLine
 10
531.4768710881464
 20
401.6429326659912
 30
0.0
 11
531.4768710881464
 21
373.2421229822011
 31
0.0
  0
LINE
  5
1882
330
1F
100
AcDbEntity
  8
LOGO
 62
     4
100
AcDbLine
 10
600.3360562860066
 20
373.2421229822011
 30
0.0
 11
531.4768710881464
 21
373.2421229822011
 31
0.0
  0
LINE
  5
1883
330
1F
100
AcDbEntity
  8
LOGO
 62
     4
100
AcDbLine
 10
558.6210094595378
 20
436.4984718233672
 30
0.0
 11
527.2769736487573
 21
436.4984718233672
 31
0.0
  0
LINE
  5
1884
330
1F
100
AcDbEntity
  8
LOGO
 62
     4
100
AcDbLine
 10
558.6210094595378
 20
413.2614457184494
 30
0.0
 11
527.2769736487573
 21
413.2614457184494
 31
0.0
  0
LINE
  5
1885
330
1F
100
AcDbEntity
  8
LOGO
 62
     4
100
AcDbLine
 10
527.2769736487573
 20
436.4984718233672
 30
0.0
 11
527.2769736487573
 21
413.2614457184494
 31
0.0
  0
LINE
  5
1886
330
1F
100
AcDbEntity
  8
LOGO
 62
     4
100
AcDbLine
 10
558.6210094595378
 20
436.4984718233672
 30
0.0
 11
558.6210094595378
 21
413.2614457184494
 31
0.0
  0
LINE
  5
1887
330
1F
100
AcDbEntity
  8
LOGO
 62
     4
100
AcDbLine
 10
545.3930657545902
 20
413.2614457184494
 30
0.0
 11
545.3930657545902
 21
401.6429326659912
 31
0.0
  0
TEXT
  5
1888
330
1F
100
AcDbEntity
  8
LOGO
  6
Continuous
100
AcDbText
 10
532.1963034896287
 20
418.1121409453224
 30
0.0
 40
13.55689488384
  1
RK
  7
CHINESET
100
AcDbText
  0
LINE
  5
1889
330
1F
100
AcDbEntity
  8
LOGO
 62
     4
100
AcDbLine
 10
600.3360562860066
 20
401.6429326659912
 30
0.0
 11
531.4768710881464
 21
401.6429326659912
 31
0.0
  0
TEXT
  5
188A
330
1F
100
AcDbEntity
  8
LOGO
  6
Continuous
100
AcDbText
 10
426.1832555108636
 20
377.2508370437522
 30
507.6388033840355
 40
5.810097807359998
  1
Tube I.D.
 41
0.8
  7
CHINESET
100
AcDbText
  0
TEXT
  5
188B
330
1F
100
AcDbEntity
  8
LOGO
100
AcDbText
 10
430.0053126906687
 20
388.0215062131505
 30
507.6388033840355
 40
9.6834963456
  1
內徑
  7
CHINESET
100
AcDbText
  0
TEXT
  5
188C
330
1F
100
AcDbEntity
  8
LOGO
  6
Continuous
100
AcDbText
 10
535.1225359600614
 20
377.2508370437522
 30
507.6388033840355
 40
5.810097807359998
  1
Auto switch type
 41
0.8
  7
CHINESET
100
AcDbText
  0
TEXT
  5
188D
330
1F
100
AcDbEntity
  8
LOGO
100
AcDbText
 10
538.873473497013
 20
388.0215062131505
 30
507.6388033840355
 40
9.6834963456
  1
感應器型式
  7
CHINESET
100
AcDbText
  0
LINE
  5
188E
330
1F
100
AcDbEntity
  8
LOGO
 62
     4
100
AcDbLine
 10
606.7811626084737
 20
436.4984718233672
 30
0.0
 11
581.5662004207935
 21
436.4984718233672
 31
0.0
  0
LINE
  5
188F
330
1F
100
AcDbEntity
  8
LOGO
 62
     4
100
AcDbLine
 10
606.7811626084737
 20
413.2614457184494
 30
0.0
 11
581.5662004207935
 21
413.2614457184494
 31
0.0
  0
LINE
  5
1890
330
1F
100
AcDbEntity
  8
LOGO
 62
     4
100
AcDbLine
 10
581.5662004207935
 20
436.4984718233672
 30
0.0
 11
581.5662004207935
 21
413.2614457184494
 31
0.0
  0
LINE
  5
1891
330
1F
100
AcDbEntity
  8
LOGO
 62
     4
100
AcDbLine
 10
606.7811626084737
 20
436.4984718233672
 30
0.0
 11
606.7811626084737
 21
413.2614457184494
 31
0.0
  0
LINE
  5
1892
330
1F
100
AcDbEntity
  8
LOGO
 62
     4
100
AcDbLine
 10
704.7367757318385
 20
401.6429326659912
 30
0.0
 11
704.7367757318385
 21
373.2421229822011
 31
0.0
  0
LINE
  5
1893
330
1F
100
AcDbEntity
  8
LOGO
 62
     4
100
AcDbLine
 10
607.2501199814275
 20
401.6429326659912
 30
0.0
 11
607.2501199814275
 21
373.2421229822011
 31
0.0
  0
LINE
  5
1894
330
1F
100
AcDbEntity
  8
LOGO
 62
     4
100
AcDbLine
 10
704.7367757318385
 20
373.2421229822011
 30
0.0
 11
607.2501199814275
 21
373.2421229822011
 31
0.0
  0
LINE
  5
1895
330
1F
100
AcDbEntity
  8
LOGO
 62
     4
100
AcDbLine
 10
704.7367757318385
 20
401.6429326659912
 30
0.0
 11
607.2501199814275
 21
401.6429326659912
 31
0.0
  0
TEXT
  5
1896
330
1F
100
AcDbEntity
  8
LOGO
  6
Continuous
100
AcDbText
 10
616.3944573695614
 20
377.2508370437522
 30
507.6388033840355
 40
5.810097807359998
  1
Number of auto switch
 41
0.8
  7
CHINESET
100
AcDbText
  0
TEXT
  5
1897
330
1F
100
AcDbEntity
  8
LOGO
100
AcDbText
 10
631.9039962153344
 20
388.0215062131505
 30
507.6388033840355
 40
9.6834963456
  1
感應器數量
  7
CHINESET
100
AcDbText
  0
LINE
  5
1898
330
1F
100
AcDbEntity
  8
LOGO
 62
     4
100
AcDbLine
 10
655.9934478566329
 20
407.4521891922205
 30
0.0
 11
655.9934478566329
 21
401.6429326659912
 31
0.0
  0
TEXT
  5
1899
330
1F
100
AcDbEntity
  8
LOGO
100
AcDbText
 10
247.9003592409198
 20
370.9080622328621
 30
0.0
 40
7.746797076479999
  1
10705209
 41
0.7
  7
CHINESET
 72
     1
 11
267.1382386475118
 21
370.9080622328621
 31
0.0
100
AcDbText
  0
LINE
  5
189A
330
1F
100
AcDbEntity
  8
LOGO
 62
     4
100
AcDbLine
 10
291.1796399488931
 20
382.2787442452268
 30
0.0
 11
291.1796399488968
 21
366.7873935086138
 31
0.0
  0
LINE
  5
189B
330
1F
100
AcDbEntity
  8
LOGO
 62
     4
100
AcDbLine
 10
291.1796399488931
 20
382.2787442452268
 30
0.0
 11
244.6988574900165
 21
382.2787442452268
 31
0.0
  0
CIRCLE
  5
189C
330
1F
100
AcDbEntity
  8
LOGO
  6
Continuous
100
AcDbCircle
 10
207.4031084594881
 20
421.0236891430499
 30
0.0
 40
4.497321431485195
  0
CIRCLE
  5
189D
330
1F
100
AcDbEntity
  8
LOGO
  6
Continuous
100
AcDbCircle
 10
207.4031084594881
 20
421.0236891430499
 30
0.0
 40
2.635032233509388
  0
LINE
  5
189E
330
1F
100
AcDbEntity
  8
LOGO
100
AcDbLine
 10
235.6647981820513
 20
416.5263677115639
 30
0.0
 11
235.6647981820513
 21
425.5210105745359
 31
0.0
  0
LINE
  5
189F
330
1F
100
AcDbEntity
  8
LOGO
100
AcDbLine
 10
221.5659536529145
 20
418.3886569095411
 30
0.0
 11
221.5659536529145
 21
423.6587213765599
 31
0.0
  0
LINE
  5
18A0
330
1F
100
AcDbEntity
  8
LOGO
  6
Continuous
100
AcDbLine
 10
221.5659536529145
 20
423.6587213765599
 30
0.0
 11
235.6647981820513
 21
425.5210105745359
 31
0.0
  0
LINE
  5
18A1
330
1F
100
AcDbEntity
  8
LOGO
  6
Continuous
100
AcDbLine
 10
221.5659536529145
 20
418.3886569095411
 30
0.0
 11
235.6647981820513
 21
416.5263677115639
 31
0.0
  0
LINE
  5
18A2
330
1F
100
AcDbEntity
  8
LOGO
  6
AM_ISO08W050x2
 48
0.3
100
AcDbLine
 10
201.2034835241002
 20
421.0236891430499
 30
0.0
 11
213.6027333948758
 21
421.0236891430499
 31
0.0
1001
GENIUS_GENOREF_13
1005
18B9
  0
LINE
  5
18A3
330
1F
100
AcDbEntity
  8
LOGO
  6
AM_ISO08W050x2
 48
0.3
100
AcDbLine
 10
207.4031084594881
 20
414.824064207662
 30
0.0
 11
207.4031084594881
 21
427.2233140784377
 31
0.0
1001
GENIUS_GENOREF_13
1005
18B8
  0
LINE
  5
18A4
330
1F
100
AcDbEntity
  8
LOGO
  6
CENTER
 48
0.5
100
AcDbLine
 10
220.438437966133
 20
421.0236891430499
 30
0.0
 11
237.0845061858226
 21
421.0236891430499
 31
0.0
1001
GENIUS_GENOREF_13
1005
18B7
  0
TEXT
  5
18A5
330
1F
100
AcDbEntity
  8
LOGO
  6
Continuous
100
AcDbText
 10
469.9632068019313
 20
418.1121409453224
 30
0.0
 40
13.55689488384
  1
D
  7
CHINESET
100
AcDbText
  0
LINE
  5
18A6
330
1F
100
AcDbEntity
  8
LOGO
 62
     4
100
AcDbLine
 10
526.7546666783621
 20
401.6429326659912
 30
0.0
 11
526.7546666783621
 21
373.2421229822011
 31
0.0
  0
LINE
  5
18A7
330
1F
100
AcDbEntity
  8
LOGO
 62
     4
100
AcDbLine
 10
472.5468600075766
 20
401.6429326659912
 30
0.0
 11
472.5468600075766
 21
373.2421229822011
 31
0.0
  0
LINE
  5
18A8
330
1F
100
AcDbEntity
  8
LOGO
 62
     4
100
AcDbLine
 10
526.7546666783621
 20
373.2421229822011
 30
0.0
 11
472.5468600075766
 21
373.2421229822011
 31
0.0
  0
LINE
  5
18A9
330
1F
100
AcDbEntity
  8
LOGO
 62
     4
100
AcDbLine
 10
507.8668367483494
 20
436.4984718233672
 30
0.0
 11
483.1432862603289
 21
436.4984718233672
 31
0.0
  0
LINE
  5
18AA
330
1F
100
AcDbEntity
  8
LOGO
 62
     4
100
AcDbLine
 10
507.8668367483494
 20
413.2614457184494
 30
0.0
 11
483.1432862603289
 21
413.2614457184494
 31
0.0
  0
LINE
  5
18AB
330
1F
100
AcDbEntity
  8
LOGO
 62
     4
100
AcDbLine
 10
483.1432862603289
 20
436.4984718233672
 30
0.0
 11
483.1432862603289
 21
413.2614457184494
 31
0.0
  0
LINE
  5
18AC
330
1F
100
AcDbEntity
  8
LOGO
 62
     4
100
AcDbLine
 10
507.8668367483494
 20
436.4984718233672
 30
0.0
 11
507.8668367483494
 21
413.2614457184494
 31
0.0
  0
LINE
  5
18AD
330
1F
100
AcDbEntity
  8
LOGO
 62
     4
100
AcDbLine
 10
495.5050615043391
 20
413.2614457184494
 30
0.0
 11
495.5050615043391
 21
401.6429326659912
 31
0.0
  0
LINE
  5
18AE
330
1F
100
AcDbEntity
  8
LOGO
 62
     4
100
AcDbLine
 10
526.7546666783621
 20
401.6429326659912
 30
0.0
 11
472.5468600075766
 21
401.6429326659912
 31
0.0
  0
TEXT
  5
18AF
330
1F
100
AcDbEntity
  8
LOGO
  6
Continuous
100
AcDbText
 10
477.2299045282283
 20
377.2508370437522
 30
507.6388033840355
 40
5.810097807359998
  1
Finger option
 41
0.8
  7
CHINESET
100
AcDbText
  0
TEXT
  5
18B0
330
1F
100
AcDbEntity
  8
LOGO
100
AcDbText
 10
478.6948312998848
 20
388.0215062131505
 30
507.6388033840355
 40
9.6834963456
  1
夾爪選配
  7
CHINESET
100
AcDbText
  0
TEXT
  5
18B1
330
1F
100
AcDbEntity
  8
LOGO
  6
Continuous
100
AcDbText
 10
567.6725517589469
 20
418.1121409453224
 30
0.0
 40
13.55689488384
  1
x
  7
CHINESET
100
AcDbText
  0
LINE
  5
18B2
330
1F
100
AcDbEntity
  8
LOGO
 62
     4
100
AcDbLine
 10
594.1736815146335
 20
413.2614457184494
 30
0.0
 11
594.1736815146335
 21
407.4521891922205
 31
0.0
  0
LINE
  5
18B3
330
1F
100
AcDbEntity
  8
LOGO
 62
     4
100
AcDbLine
 10
594.1736815146335
 20
407.4521891922205
 30
0.0
 11
655.9934478566329
 21
407.4521891922205
 31
0.0
  0
LINE
  5
18B4
330
1F
100
AcDbEntity
  8
LOGO
 62
     4
100
AcDbLine
 10
640.647968029667
 20
1141.467101156611
 30
0.0
 11
640.647968029667
 21
444.2441471916735
 31
0.0
  0
TEXT
  5
18B5
330
1F
100
AcDbEntity
  8
0
100
AcDbText
 10
656.0340433396337
 20
1108.541076701778
 30
0.0
 40
11.52797183999999
  1
Right angle finger tap mounting
 41
0.85
  7
CHINESET
100
AcDbText
  0
TEXT
  5
18B6
330
1F
100
AcDbEntity
  8
0
100
AcDbText
 10
89.6800746972505
 20
1108.541076701778
 30
0.0
 40
11.52797183999999
  1
Flat finger (standard)
 41
0.85
  7
CHINESET
100
AcDbText
  0
POINT
  5
18B7
330
1F
100
AcDbEntity
  8
0
 60
     1
100
AcDbPoint
 10
2501.57902288864
 20
-521.744248491759
 30
0.0
1001
GENIUS_GENOBJ-N-CRS_13
1002
{
1000
OWNER
1000
GEN
1002
}
1001
GENIUS_GENOLIS_13
1002
{
1000
ENT
1005
0
1005
0
1005
0
1005
18A4
1002
}
1001
GENIUS_GENOENT_13
1002
{
1000
MYREF
1005
18B7
1002
}
1002
{
1000
GRP
1005
0
1002
}
1001
GENIUS_GENODEF_13
1002
{
1000
HIER
1070
    10
1002
}
1002
{
1000
MANEDIT
1070
     1
1002
}
1002
{
1000
NOSEL
1070
     0
1002
}
1002
{
1000
BEHIND
1070
     0
1002
}
1002
{
1000
OTHER
1070
     0
1002
}
1002
{
1000
REACTOR
1002
}
  0
POINT
  5
18B8
330
1F
100
AcDbEntity
  8
0
 60
     1
100
AcDbPoint
 10
2490.254437665786
 20
-512.8686620131228
 30
0.0
1001
GENIUS_GENOBJ-N-CRS_13
1002
{
1000
OWNER
1000
GEN
1002
}
1001
GENIUS_GENOLIS_13
1002
{
1000
ENT
1005
0
1005
0
1005
0
1005
18A3
1002
}
1001
GENIUS_GENOENT_13
1002
{
1000
MYREF
1005
18B8
1002
}
1002
{
1000
GRP
1005
0
1002
}
1001
GENIUS_GENODEF_13
1002
{
1000
HIER
1070
    10
1002
}
1002
{
1000
MANEDIT
1070
     1
1002
}
1002
{
1000
NOSEL
1070
     0
1002
}
1002
{
1000
BEHIND
1070
     0
1002
}
1002
{
1000
OTHER
1070
     0
1002
}
1002
{
1000
REACTOR
1002
}
  0
POINT
  5
18B9
330
1F
100
AcDbEntity
  8
0
 60
     1
100
AcDbPoint
 10
2496.613111363622
 20
-521.744248491759
 30
0.0
1001
GENIUS_GENOBJ-N-CRS_13
1002
{
1000
OWNER
1000
GEN
1002
}
1001
GENIUS_GENOLIS_13
1002
{
1000
ENT
1005
0
1005
0
1005
0
1005
18A2
1002
}
1001
GENIUS_GENOENT_13
1002
{
1000
MYREF
1005
18B9
1002
}
1002
{
1000
GRP
1005
0
1002
}
1001
GENIUS_GENODEF_13
1002
{
1000
HIER
1070
    10
1002
}
1002
{
1000
MANEDIT
1070
     1
1002
}
1002
{
1000
NOSEL
1070
     0
1002
}
1002
{
1000
BEHIND
1070
     0
1002
}
1002
{
1000
OTHER
1070
     0
1002
}
1002
{
1000
REACTOR
1002
}
  0
DIMENSION
  5
1982
102
{ACAD_XDICTIONARY
360
198F
102
}
102
{ACAD_REACTORS
330
1990
102
}
330
1F
100
AcDbEntity
  8
Dim
100
AcDbDimension
  2
*D65
 10
324.0789842812173
 20
873.9825766469753
 30
0.0
 11
256.0789842812174
 21
876.2325766469754
 31
0.0
 70
    32
 71
     5
 42
136.0
  3
Standard
100
AcDbAlignedDimension
 13
188.0789842812173
 23
800.6968510264327
 33
0.0
 14
324.0789842812173
 24
822.6898510264327
 34
0.0
100
AcDbRotatedDimension
1001
ACAD
1000
DSTYLE
1002
{
1070
    41
1040
2.0
1070
    42
1040
1.0
1070
    44
1040
1.0
1070
    73
1070
     0
1070
    74
1070
     0
1070
    77
1070
     1
1070
    78
1070
     8
1070
    79
1070
     2
1070
   140
1040
2.5
1070
   141
1040
0.0
1070
   147
1040
1.0
1070
   172
1070
     1
1070
   174
1070
     1
1070
   176
1070
   256
1070
   177
1070
   256
1070
   178
1070
   256
1070
   271
1070
     2
1070
   272
1070
     2
1070
   340
1005
DAB
1070
   371
1070
    -1
1070
   372
1070
    -1
1002
}
  0
ENDSEC
  0
SECTION
  2
OBJECTS
  0
DICTIONARY
  5
C
330
0
100
AcDbDictionary
281
     1
  3
ACAD_COLOR
350
BE
  3
ACAD_GROUP
350
D
  3
ACAD_LAYOUT
350
1A
  3
ACAD_MATERIAL
350
BD
  3
ACAD_MLINESTYLE
350
17
  3
ACAD_PLOTSETTINGS
350
19
  3
ACAD_PLOTSTYLENAME
350
E
  3
ACAD_TABLESTYLE
350
11A
  3
ACDBHEADERROUNDTRIPXREC
350
1C04
  3
AcDbVariableDictionary
350
94
  3
AcmDictionary
350
5B
  3
AMG
350
41
  3
AMGSNAPSETTINGS
350
1B8
  3
DWGPROPS
350
1C03
  0
DICTIONARY
  5
3F9
330
2
100
AcDbDictionary
280
     1
281
     1
  3
ACAD_LAYERFILTERS
360
1387
  3
ACAD_LAYERSTATES
360
177B
  3
ACLYDICTIONARY
360
1386
  3
AMLAYER_GROUPCOLORS
360
13EA
  0
DICTIONARY
  5
8F
330
1F
100
AcDbDictionary
280
     1
281
     1
  3
ACAD_SORTENTS
360
141D
  0
DICTIONARY
  5
1474
330
1467
100
AcDbDictionary
280
     1
281
     1
  3
ACAD_DIMASSOC
360
1475
  0
DICTIONARY
  5
149A
330
148D
100
AcDbDictionary
280
     1
281
     1
  3
ACAD_DIMASSOC
360
149B
  0
DICTIONARY
  5
14E8
330
14DB
100
AcDbDictionary
280
     1
281
     1
  3
ACAD_DIMASSOC
360
14E9
  0
DICTIONARY
  5
1512
330
1505
100
AcDbDictionary
280
     1
281
     1
  3
ACAD_DIMASSOC
360
1513
  0
DICTIONARY
  5
1747
330
173A
100
AcDbDictionary
280
     1
281
     1
  3
ACAD_DIMASSOC
360
1748
  0
DICTIONARY
  5
198F
330
1982
100
AcDbDictionary
280
     1
281
     1
  3
ACAD_DIMASSOC
360
1990
  0
DICTIONARY
  5
BE
102
{ACAD_REACTORS
330
C
102
}
330
C
100
AcDbDictionary
281
     1
  0
DICTIONARY
  5
D
102
{ACAD_REACTORS
330
C
102
}
330
C
100
AcDbDictionary
281
     1
  0
DICTIONARY
  5
1A
102
{ACAD_REACTORS
330
C
102
}
330
C
100
AcDbDictionary
281
     1
  3
Model
350
22
  3
配置1
350
1E
  3
配置2
350
26
  0
DICTIONARY
  5
BD
102
{ACAD_REACTORS
330
C
102
}
330
C
100
AcDbDictionary
281
     1
  0
DICTIONARY
  5
17
102
{ACAD_REACTORS
330
C
102
}
330
C
100
AcDbDictionary
281
     1
  3
Standard
350
18
  0
DICTIONARY
  5
19
102
{ACAD_REACTORS
330
C
102
}
330
C
100
AcDbDictionary
281
     1
  0
ACDBDICTIONARYWDFLT
  5
E
102
{ACAD_REACTORS
330
C
102
}
330
C
100
AcDbDictionary
281
     1
  3
Normal
350
F
100
AcDbDictionaryWithDefault
340
F
  0
DICTIONARY
  5
11A
102
{ACAD_REACTORS
330
C
102
}
330
C
100
AcDbDictionary
281
     1
  3
Standard
350
11B
  0
DICTIONARY
  5
1C04
102
{ACAD_REACTORS
330
C
102
}
330
C
100
AcDbDictionary
281
     1
  0
DICTIONARY
  5
94
102
{ACAD_REACTORS
330
C
102
}
330
C
100
AcDbDictionary
281
     1
  3
CTABLESTYLE
350
138
  3
DIMASSOC
350
96
  3
INDEXCTL
350
95
  3
PROJECTNAME
350
1C01
  0
DICTIONARY
  5
5B
102
{ACAD_REACTORS
330
C
102
}
330
C
100
AcDbDictionary
281
     1
  3
AcmBOM
350
1B5
  3
AcmStdDictionary
350
61
  3
AMDTSECTSYM_ARROWCOLOR
350
123
  0
DICTIONARY
  5
41
102
{ACAD_REACTORS
330
C
102
}
330
C
100
AcDbDictionary
281
     1
  0
DICTIONARY
  5
1B8
102
{ACAD_REACTORS
330
C
102
}
330
C
100
AcDbDictionary
281
     1
  0
XRECORD
  5
1C03
102
{ACAD_REACTORS
330
C
102
}
330
C
100
AcDbXrecord
280
     1
  1
DWGPROPS COOKIE
  2

  3

  4

  6

  7

  8

  9

300
AmdtFileType=84
301
=
302
=
303
=
304
=
305
=
306
=
307
=
308
=
309
=
 40
0.091335
 41
2454240.587306493
 42
2454240.678641123
  1

 90
        1
  0
DICTIONARY
  5
1387
102
{ACAD_REACTORS
330
3F9
102
}
330
3F9
100
AcDbDictionary
281
     1
  0
DICTIONARY
  5
177B
102
{ACAD_REACTORS
330
3F9
102
}
330
3F9
100
AcDbDictionary
281
     1
  0
DICTIONARY
  5
1386
102
{ACAD_REACTORS
330
3F9
102
}
330
3F9
100
AcDbDictionary
281
     1
1001
ACAD
1000
<All
  0
DICTIONARY
  5
13EA
102
{ACAD_REACTORS
330
3F9
102
}
330
3F9
100
AcDbDictionary
280
     1
281
     1
  0
SORTENTSTABLE
  5
141D
102
{ACAD_REACTORS
330
8F
102
}
330
8F
100
AcDbSortentsTable
330
1F
331
1103
  5
1103
331
1147
  5
1147
331
1090
  5
1090
331
1076
  5
1076
331
1054
  5
1054
331
1010
  5
1010
331
10D4
  5
10D4
331
10F6
  5
10F6
331
13A7
  5
13A7
331
1114
  5
1114
331
10A1
  5
10A1
331
1087
  5
1087
331
1065
  5
1065
331
1043
  5
1043
331
1021
  5
1021
331
1007
  5
1007
331
FE5
  5
FE5
331
10E5
  5
10E5
331
FF6
  5
FF6
331
FD4
  5
FD4
331
FC3
  5
FC3
331
FA1
  5
FA1
331
1101
  5
1101
331
1145
  5
1145
331
108E
  5
108E
331
1074
  5
1074
331
1052
  5
1052
331
1030
  5
1030
331
10B0
  5
10B0
331
10F4
  5
10F4
331
13A5
  5
13A5
331
13E1
  5
13E1
331
1112
  5
1112
331
1134
  5
1134
331
1156
  5
1156
331
10C1
  5
10C1
331
1085
  5
1085
331
1063
  5
1063
331
1041
  5
1041
331
101F
  5
101F
331
1005
  5
1005
331
FE3
  5
FE3
331
10E3
  5
10E3
331
FF4
  5
FF4
331
FD2
  5
FD2
331
FC1
  5
FC1
331
F9F
  5
F9F
331
1121
  5
1121
331
1143
  5
1143
331
108C
  5
108C
331
1072
  5
1072
331
1050
  5
1050
331
10AE
  5
10AE
331
10D0
  5
10D0
331
10F2
  5
10F2
331
13A3
  5
13A3
331
13DF
  5
13DF
331
1110
  5
1110
331
1132
  5
1132
331
1083
  5
1083
331
1061
  5
1061
331
103F
  5
103F
331
101D
  5
101D
331
1003
  5
1003
331
FE1
  5
FE1
331
FBF
  5
FBF
331
F9D
  5
F9D
331
1154
  5
1154
331
10BF
  5
10BF
331
10E1
  5
10E1
331
FF2
  5
FF2
331
FD0
  5
FD0
331
F94
  5
F94
331
1141
  5
1141
331
108A
  5
108A
331
1070
  5
1070
331
10AC
  5
10AC
331
10CE
  5
10CE
331
10F0
  5
10F0
331
110E
  5
110E
331
1130
  5
1130
331
1152
  5
1152
331
109B
  5
109B
331
1081
  5
1081
331
105F
  5
105F
331
103D
  5
103D
331
101B
  5
101B
331
1001
  5
1001
331
FDF
  5
FDF
331
FBD
  5
FBD
331
10BD
  5
10BD
331
10DF
  5
10DF
331
111F
  5
111F
331
104E
  5
104E
331
102C
  5
102C
331
FF0
  5
FF0
331
FCE
  5
FCE
331
F9B
  5
F9B
331
1088
  5
1088
331
10AA
  5
10AA
331
10EE
  5
10EE
331
110C
  5
110C
331
112E
  5
112E
331
1099
  5
1099
331
107F
  5
107F
331
105D
  5
105D
331
103B
  5
103B
331
1019
  5
1019
331
FFF
  5
FFF
331
FDD
  5
FDD
331
FBB
  5
FBB
331
10BB
  5
10BB
331
138E
  5
138E
331
10FF
  5
10FF
331
111D
  5
111D
331
113F
  5
113F
331
106E
  5
106E
331
104C
  5
104C
331
102A
  5
102A
331
FEE
  5
FEE
331
FCC
  5
FCC
331
FAA
  5
FAA
331
F99
  5
F99
331
10A8
  5
10A8
331
10CA
  5
10CA
331
10EC
  5
10EC
331
110A
  5
110A
331
112C
  5
112C
331
1097
  5
1097
331
105B
  5
105B
331
1039
  5
1039
331
1017
  5
1017
331
FFD
  5
FFD
331
FDB
  5
FDB
331
FB9
  5
FB9
331
10B9
  5
10B9
331
10DB
  5
10DB
331
10FD
  5
10FD
331
111B
  5
111B
331
113D
  5
113D
331
106C
  5
106C
331
104A
  5
104A
331
1028
  5
1028
331
100E
  5
100E
331
FEC
  5
FEC
331
FCA
  5
FCA
331
FA8
  5
FA8
331
10C8
  5
10C8
331
10EA
  5
10EA
331
1108
  5
1108
331
114C
  5
114C
331
107B
  5
107B
331
1059
  5
1059
331
1037
  5
1037
331
FD9
  5
FD9
331
10B7
  5
10B7
331
10D9
  5
10D9
331
138A
  5
138A
331
10FB
  5
10FB
331
1119
  5
1119
331
113B
  5
113B
331
10A6
  5
10A6
331
106A
  5
106A
331
1048
  5
1048
331
1026
  5
1026
331
100C
  5
100C
331
FEA
  5
FEA
331
FC8
  5
FC8
331
FB7
  5
FB7
331
FA6
  5
FA6
331
10E8
  5
10E8
331
1106
  5
1106
331
1128
  5
1128
331
114A
  5
114A
331
1079
  5
1079
331
1057
  5
1057
331
1013
  5
1013
331
FF9
  5
FF9
331
10F9
  5
10F9
331
1117
  5
1117
331
1139
  5
1139
331
1068
  5
1068
331
1046
  5
1046
331
1024
  5
1024
331
100A
  5
100A
331
FE8
  5
FE8
331
FC6
  5
FC6
331
FD7
  5
FD7
331
FB5
  5
FB5
331
FA4
  5
FA4
331
1104
  5
1104
331
1126
  5
1126
331
1148
  5
1148
331
1091
  5
1091
331
1055
  5
1055
331
1033
  5
1033
331
1011
  5
1011
331
10B3
  5
10B3
331
10D5
  5
10D5
331
10F7
  5
10F7
331
1115
  5
1115
331
1137
  5
1137
331
10A2
  5
10A2
331
1066
  5
1066
331
1044
  5
1044
331
1008
  5
1008
331
FE6
  5
FE6
331
FC4
  5
FC4
331
10E6
  5
10E6
331
FF7
  5
FF7
331
FD5
  5
FD5
331
FB3
  5
FB3
331
FA2
  5
FA2
331
1102
  5
1102
331
1146
  5
1146
331
1053
  5
1053
331
1031
  5
1031
331
10B1
  5
10B1
331
10D3
  5
10D3
331
10F5
  5
10F5
331
1113
  5
1113
331
1135
  5
1135
331
1086
  5
1086
331
1064
  5
1064
331
1042
  5
1042
331
1020
  5
1020
331
1006
  5
1006
331
FC2
  5
FC2
331
FA0
  5
FA0
331
10C2
  5
10C2
331
10A0
  5
10A0
331
10E4
  5
10E4
331
FF5
  5
FF5
331
FD3
  5
FD3
331
F97
  5
F97
331
1100
  5
1100
331
1122
  5
1122
331
1144
  5
1144
331
108D
  5
108D
331
1073
  5
1073
331
1051
  5
1051
331
10AF
  5
10AF
331
10D1
  5
10D1
331
10F3
  5
10F3
331
13E0
  5
13E0
331
1111
  5
1111
331
1133
  5
1133
331
1155
  5
1155
331
109E
  5
109E
331
1084
  5
1084
331
1062
  5
1062
331
1040
  5
1040
331
101E
  5
101E
331
1004
  5
1004
331
FE2
  5
FE2
331
10E2
  5
10E2
331
102F
  5
102F
331
FF3
  5
FF3
331
FD1
  5
FD1
331
FC0
  5
FC0
331
F9E
  5
F9E
331
1120
  5
1120
331
1142
  5
1142
331
108B
  5
108B
331
1071
  5
1071
331
10AD
  5
10AD
331
10CF
  5
10CF
331
10F1
  5
10F1
331
110F
  5
110F
331
1131
  5
1131
331
1153
  5
1153
331
10BE
  5
10BE
331
109C
  5
109C
331
1082
  5
1082
331
1060
  5
1060
331
103E
  5
103E
331
101C
  5
101C
331
1002
  5
1002
331
FE0
  5
FE0
331
10E0
  5
10E0
331
104F
  5
104F
331
102D
  5
102D
331
FF1
  5
FF1
331
FCF
  5
FCF
331
FBE
  5
FBE
331
F9C
  5
F9C
331
1089
  5
1089
331
10AB
  5
10AB
331
10EF
  5
10EF
331
110D
  5
110D
331
112F
  5
112F
331
1151
  5
1151
331
109A
  5
109A
331
1080
  5
1080
331
105E
  5
105E
331
103C
  5
103C
331
101A
  5
101A
331
1000
  5
1000
331
FDE
  5
FDE
331
FBC
  5
FBC
331
10BC
  5
10BC
331
10DE
  5
10DE
331
111E
  5
111E
331
106F
  5
106F
331
104D
  5
104D
331
102B
  5
102B
331
FEF
  5
FEF
331
FCD
  5
FCD
331
FAB
  5
FAB
331
F9A
  5
F9A
331
10A9
  5
10A9
331
10CB
  5
10CB
331
10ED
  5
10ED
331
110B
  5
110B
331
112D
  5
112D
331
1098
  5
1098
331
107E
  5
107E
331
105C
  5
105C
331
103A
  5
103A
331
1018
  5
1018
331
10BA
  5
10BA
331
138D
  5
138D
331
10FE
  5
10FE
331
113E
  5
113E
331
106D
  5
106D
331
104B
  5
104B
331
1029
  5
1029
331
100F
  5
100F
331
FED
  5
FED
331
FCB
  5
FCB
331
FA9
  5
FA9
331
F98
  5
F98
331
10EB
  5
10EB
331
1109
  5
1109
331
112B
  5
112B
331
114D
  5
114D
331
1096
  5
1096
331
107C
  5
107C
331
105A
  5
105A
331
1038
  5
1038
331
FFC
  5
FFC
331
FDA
  5
FDA
331
10DA
  5
10DA
331
10FC
  5
10FC
331
111A
  5
111A
331
113C
  5
113C
331
10A7
  5
10A7
331
106B
  5
106B
331
1049
  5
1049
331
1027
  5
1027
331
100D
  5
100D
331
FEB
  5
FEB
331
FC9
  5
FC9
331
FA7
  5
FA7
331
1107
  5
1107
331
114B
  5
114B
331
1094
  5
1094
331
107A
  5
107A
331
1058
  5
1058
331
1036
  5
1036
331
FFA
  5
FFA
331
FD8
  5
FD8
331
10B6
  5
10B6
331
10D8
  5
10D8
331
10FA
  5
10FA
331
1118
  5
1118
331
113A
  5
113A
331
1069
  5
1069
331
1047
  5
1047
331
1025
  5
1025
331
100B
  5
100B
331
FE9
  5
FE9
331
FC7
  5
FC7
331
10C7
  5
10C7
331
FB6
  5
FB6
331
FA5
  5
FA5
331
1105
  5
1105
331
1149
  5
1149
331
1092
  5
1092
331
1078
  5
1078
331
1056
  5
1056
331
1012
  5
1012
331
FF8
  5
FF8
331
10F8
  5
10F8
331
1116
  5
1116
331
1138
  5
1138
331
1067
  5
1067
331
1045
  5
1045
331
1023
  5
1023
331
1009
  5
1009
331
FE7
  5
FE7
331
FC5
  5
FC5
331
10E7
  5
10E7
331
FD6
  5
FD6
331
FB4
  5
FB4
331
FA3
  5
FA3
  0
DIMASSOC
  5
1475
102
{ACAD_REACTORS
330
1474
102
}
330
1474
100
AcDbDimAssoc
330
1467
 90
        3
 70
     0
 71
     0
  1
AcDbOsnapPointRef
 72
     1
331
10A8
 73
     0
 91
        0
 40
0.0
 10
0.0
 20
0.0
 30
2.000000000000000E+50
 75
     0
  1
AcDbOsnapPointRef
 72
    13
331
10A8
 73
     0
 91
        0
 40
0.0
 10
0.0
 20
0.0
 30
2.000000000000000E+50
 75
     0
  0
DIMASSOC
  5
149B
102
{ACAD_REACTORS
330
149A
102
}
330
149A
100
AcDbDimAssoc
330
148D
 90
        3
 70
     0
 71
     0
  1
AcDbOsnapPointRef
 72
    13
331
10A6
 73
     0
 91
        0
 40
0.0
 10
0.0
 20
0.0
 30
2.000000000000000E+50
 75
     0
  1
AcDbOsnapPointRef
 72
     1
331
10A8
 73
     0
 91
        0
 40
0.0
 10
0.0
 20
0.0
 30
2.000000000000000E+50
 75
     0
  0
DIMASSOC
  5
14E9
102
{ACAD_REACTORS
330
14E8
102
}
330
14E8
100
AcDbDimAssoc
330
14DB
 90
        3
 70
     0
 71
     0
  1
AcDbOsnapPointRef
 72
     1
331
10A8
 73
     0
 91
        0
 40
0.0
 10
0.0
 20
0.0
 30
2.000000000000000E+50
 75
     0
  1
AcDbOsnapPointRef
 72
     1
331
14B7
 73
     0
 91
        0
 40
0.0
 10
0.0
 20
0.0
 30
2.000000000000000E+50
 75
     0
  0
DIMASSOC
  5
1513
102
{ACAD_REACTORS
330
1512
102
}
330
1512
100
AcDbDimAssoc
330
1505
 90
        3
 70
     0
 71
     0
  1
AcDbOsnapPointRef
 72
    13
331
10A6
 73
     0
 91
        0
 40
0.0
 10
0.0
 20
0.0
 30
2.000000000000000E+50
 75
     0
  1
AcDbOsnapPointRef
 72
    13
331
10A8
 73
     0
 91
        0
 40
0.0
 10
0.0
 20
0.0
 30
2.000000000000000E+50
 75
     0
  0
DIMASSOC
  5
1748
102
{ACAD_REACTORS
330
1747
102
}
330
1747
100
AcDbDimAssoc
330
173A
 90
        3
 70
     0
 71
     0
  1
AcDbOsnapPointRef
 72
    13
331
10A1
 73
     0
 91
        0
 40
0.0
 10
0.0
 20
0.0
 30
2.000000000000000E+50
 75
     0
  1
AcDbOsnapPointRef
 72
     1
331
1538
 73
     0
 91
        0
 40
0.0
 10
0.0
 20
0.0
 30
2.000000000000000E+50
 75
     0
  0
DIMASSOC
  5
1990
102
{ACAD_REACTORS
330
198F
102
}
330
198F
100
AcDbDimAssoc
330
1982
 90
        3
 70
     0
 71
     0
  1
AcDbOsnapPointRef
 72
    13
331
1058
 73
     0
 91
        0
 40
0.0
 10
0.0
 20
0.0
 30
2.000000000000000E+50
 75
     0
  1
AcDbOsnapPointRef
 72
    13
331
1081
 73
     0
 91
        0
 40
0.0
 10
0.0
 20
0.0
 30
2.000000000000000E+50
 75
     0
  0
LAYOUT
  5
22
102
{ACAD_XDICTIONARY
360
1C07
102
}
102
{ACAD_REACTORS
330
1A
102
}
330
1A
100
AcDbPlotSettings
  1

  2
\\RD\EPSON Stylus C63 Series單色
  4
A4
  6

 40
3.757083177566528
 41
3.757076978683471
 42
3.757080078125
 43
3.757080078125
 44
209.9733276367187
 45
296.9683227539062
 46
0.0
 47
0.0
 48
0.0
 49
0.0
140
0.0
141
0.0
142
1.0
143
0.3405120737814363
 70
 11952
 72
     1
 73
     0
 74
     0
  7
單色出圖.ctb
 75
     0
147
2.936753428137963
148
-2047.07469463503
149
-1261.649717473083
100
AcDbLayout
  1
Model
 70
     1
 71
     0
 10
0.0
 20
0.0
 11
12.0
 21
9.0
 12
0.0
 22
0.0
 32
0.0
 14
0.0
 24
0.0
 34
0.0
 15
0.0
 25
0.0
 35
0.0
146
0.0
 13
0.0
 23
0.0
 33
0.0
 16
1.0
 26
0.0
 36
0.0
 17
0.0
 27
1.0
 37
0.0
 76
     0
330
1F
1001
ACAD_PSEXT
1000
\\RD\EPSON Stylus C63 Series單色
1000
EPSON Stylus C63 Series
1000
\\RD
1000

1070
     0
  0
LAYOUT
  5
1E
102
{ACAD_XDICTIONARY
360
1C05
102
}
102
{ACAD_REACTORS
330
1A
102
}
330
1A
100
AcDbPlotSettings
  1

  2

  4

  6

 40
0.0
 41
0.0
 42
0.0
 43
0.0
 44
0.0
 45
0.0
 46
0.0
 47
0.0
 48
0.0
 49
0.0
140
0.0
141
0.0
142
1.0
143
1.0
 70
   688
 72
     0
 73
     0
 74
     5
  7
單色出圖.ctb
 75
    16
147
1.0
148
0.0
149
0.0
100
AcDbLayout
  1
配置1
 70
     1
 71
     1
 10
0.0
 20
0.0
 11
420.0
 21
297.0
 12
0.0
 22
0.0
 32
0.0
 14
1.000000000000000E+20
 24
1.000000000000000E+20
 34
1.000000000000000E+20
 15
-1.000000000000000E+20
 25
-1.000000000000000E+20
 35
-1.000000000000000E+20
146
0.0
 13
0.0
 23
0.0
 33
0.0
 16
1.0
 26
0.0
 36
0.0
 17
0.0
 27
1.0
 37
0.0
 76
     0
330
1B
  0
LAYOUT
  5
26
102
{ACAD_XDICTIONARY
360
1C09
102
}
102
{ACAD_REACTORS
330
1A
102
}
330
1A
100
AcDbPlotSettings
  1

  2

  4

  6

 40
0.0
 41
0.0
 42
0.0
 43
0.0
 44
0.0
 45
0.0
 46
0.0
 47
0.0
 48
0.0
 49
0.0
140
0.0
141
0.0
142
1.0
143
1.0
 70
   688
 72
     0
 73
     0
 74
     5
  7
單色出圖.ctb
 75
    16
147
1.0
148
0.0
149
0.0
100
AcDbLayout
  1
配置2
 70
     1
 71
     2
 10
0.0
 20
0.0
 11
12.0
 21
9.0
 12
0.0
 22
0.0
 32
0.0
 14
0.0
 24
0.0
 34
0.0
 15
0.0
 25
0.0
 35
0.0
146
0.0
 13
0.0
 23
0.0
 33
0.0
 16
1.0
 26
0.0
 36
0.0
 17
0.0
 27
1.0
 37
0.0
 76
     0
330
23
  0
MLINESTYLE
  5
18
102
{ACAD_REACTORS
330
17
102
}
330
17
100
AcDbMlineStyle
  2
STANDARD
 70
     0
  3

 62
   256
 51
90.0
 52
90.0
 71
     2
 49
0.5
 62
   256
  6
BYLAYER
 49
-0.5
 62
   256
  6
BYLAYER
  0
ACDBPLACEHOLDER
  5
F
102
{ACAD_REACTORS
330
E
102
}
330
E
  0
TABLESTYLE
  5
11B
102
{ACAD_REACTORS
330
11A
102
}
330
11A
100
AcDbTableStyle
  3
Standard
 70
     0
 71
     0
 40
1.5
 41
1.5
280
     0
281
     0
  7
STANDARD
140
4.5
170
     2
 62
     0
 63
     7
283
     0
274
    -2
284
     1
 64
     0
275
    -2
285
     1
 65
     0
276
    -2
286
     1
 66
     0
277
    -2
287
     1
 67
     0
278
    -2
288
     1
 68
     0
279
    -2
289
     1
 69
     0
  7
STANDARD
140
6.0
170
     5
 62
     0
 63
     7
283
     0
274
    -2
284
     1
 64
     0
275
    -2
285
     1
 65
     0
276
    -2
286
     1
 66
     0
277
    -2
287
     1
 67
     0
278
    -2
288
     1
 68
     0
279
    -2
289
     1
 69
     0
  7
STANDARD
140
4.5
170
     5
 62
     0
 63
     7
283
     0
274
    -2
284
     1
 64
     0
275
    -2
285
     1
 65
     0
276
    -2
286
     1
 66
     0
277
    -2
287
     1
 67
     0
278
    -2
288
     1
 68
     0
279
    -2
289
     1
 69
     0
  0
DICTIONARYVAR
  5
138
102
{ACAD_REACTORS
330
94
102
}
330
94
100
DictionaryVariables
280
     0
  1
STANDARD
  0
DICTIONARYVAR
  5
96
102
{ACAD_REACTORS
330
94
102
}
330
94
100
DictionaryVariables
280
     0
  1
2
  0
DICTIONARYVAR
  5
95
102
{ACAD_REACTORS
330
94
102
}
330
94
100
DictionaryVariables
280
     0
  1
0
  0
DICTIONARYVAR
  5
1C01
102
{ACAD_REACTORS
330
94
102
}
330
94
100
DictionaryVariables
280
     0
  1

  0
DICTIONARY
  5
1B5
102
{ACAD_REACTORS
330
5B
102
}
330
5B
100
AcDbDictionary
281
     1
  0
DICTIONARY
  5
61
102
{ACAD_REACTORS
330
5B
102
}
330
5B
100
AcDbDictionary
281
     1
  0
XRECORD
  5
123
102
{ACAD_REACTORS
330
5B
102
}
330
5B
100
AcDbXrecord
280
     1
 90
-1023410169
  0
DICTIONARY
  5
1C07
330
22
100
AcDbDictionary
280
     1
281
     1
  3
ACAD_XREC_ROUNDTRIP
360
1C08
  0
DICTIONARY
  5
1C05
330
1E
100
AcDbDictionary
280
     1
281
     1
  3
ACAD_XREC_ROUNDTRIP
360
1C06
  0
DICTIONARY
  5
1C09
330
26
100
AcDbDictionary
280
     1
281
     1
  3
ACAD_XREC_ROUNDTRIP
360
1C0A
  0
XRECORD
  5
1C08
102
{ACAD_REACTORS
330
1C07
102
}
330
1C07
100
AcDbXrecord
280
     1
102
SHADEPLOT
 70
     0
102
SHADEPLOTRESLEVEL
 70
     2
102
SHADEPLOTCUSTOMDPI
 70
   300
  0
XRECORD
  5
1C06
102
{ACAD_REACTORS
330
1C05
102
}
330
1C05
100
AcDbXrecord
280
     1
102
SHADEPLOT
 70
     0
102
SHADEPLOTRESLEVEL
 70
     2
102
SHADEPLOTCUSTOMDPI
 70
   300
  0
XRECORD
  5
1C0A
102
{ACAD_REACTORS
330
1C09
102
}
330
1C09
100
AcDbXrecord
280
     1
102
SHADEPLOT
 70
     0
102
SHADEPLOTRESLEVEL
 70
     2
102
SHADEPLOTCUSTOMDPI
 70
   300
  0
ENDSEC
  0
EOF
