  0
SECTION
  2
HEADER
  9
$ACADVER
  1
AC1015
  9
$ACADMAINTVER
 70
    20
  9
$DWGCODEPAGE
  3
ANSI_950
  9
$INSBASE
 10
0.0
 20
0.0
 30
0.0
  9
$EXTMIN
 10
490.815830031911
 20
445.6451255478078
 30
-0.0262327681474517
  9
$EXTMAX
 10
1333.636023858976
 20
1063.492339142708
 30
404.8403434003595
  9
$LIMMIN
 10
0.0
 20
0.0
  9
$LIMMAX
 10
420.0
 20
297.0
  9
$ORTHOMODE
 70
     1
  9
$REGENMODE
 70
     1
  9
$FILLMODE
 70
     1
  9
$QTEXTMODE
 70
     0
  9
$MIRRTEXT
 70
     1
  9
$LTSCALE
 40
3.0
  9
$ATTMODE
 70
     1
  9
$TEXTSIZE
 40
3.0
  9
$TRACEWID
 40
1.0
  9
$TEXTSTYLE
  7
CHINESET
  9
$CLAYER
  8
0
  9
$CELTYPE
  6
ByLayer
  9
$CECOLOR
 62
   256
  9
$CELTSCALE
 40
1.0
  9
$DISPSILH
 70
     0
  9
$DIMSCALE
 40
1.0
  9
$DIMASZ
 40
3.0
  9
$DIMEXO
 40
1.5
  9
$DIMDLI
 40
8.0
  9
$DIMRND
 40
0.0
  9
$DIMDLE
 40
0.0
  9
$DIMEXE
 40
1.5
  9
$DIMTP
 40
0.1
  9
$DIMTM
 40
0.1
  9
$DIMTXT
 40
3.0
  9
$DIMCEN
 40
0.0
  9
$DIMTSZ
 40
0.0
  9
$DIMTOL
 70
     0
  9
$DIMLIM
 70
     0
  9
$DIMTIH
 70
     0
  9
$DIMTOH
 70
     0
  9
$DIMSE1
 70
     0
  9
$DIMSE2
 70
     0
  9
$DIMTAD
 70
     1
  9
$DIMZIN
 70
     8
  9
$DIMBLK
  1

  9
$DIMASO
 70
     1
  9
$DIMSHO
 70
     1
  9
$DIMPOST
  1

  9
$DIMAPOST
  1
"
  9
$DIMALT
 70
     0
  9
$DIMALTD
 70
     2
  9
$DIMALTF
 40
0.0393701
  9
$DIMLFAC
 40
1.0
  9
$DIMTOFL
 70
     1
  9
$DIMTVP
 40
0.0
  9
$DIMTIX
 70
     0
  9
$DIMSOXD
 70
     0
  9
$DIMSAH
 70
     0
  9
$DIMBLK1
  1

  9
$DIMBLK2
  1

  9
$DIMSTYLE
  2
AM_ISO
  9
$DIMCLRD
 70
   256
  9
$DIMCLRE
 70
   256
  9
$DIMCLRT
 70
   256
  9
$DIMTFAC
 40
0.6
  9
$DIMGAP
 40
1.0
  9
$DIMJUST
 70
     0
  9
$DIMSD1
 70
     0
  9
$DIMSD2
 70
     0
  9
$DIMTOLJ
 70
     0
  9
$DIMTZIN
 70
     8
  9
$DIMALTZ
 70
     0
  9
$DIMALTTZ
 70
     0
  9
$DIMUPT
 70
     0
  9
$DIMDEC
 70
     2
  9
$DIMTDEC
 70
     8
  9
$DIMALTU
 70
     2
  9
$DIMALTTD
 70
     2
  9
$DIMTXSTY
  7
CHINESET
  9
$DIMAUNIT
 70
     0
  9
$DIMADEC
 70
     0
  9
$DIMALTRND
 40
0.0
  9
$DIMAZIN
 70
     2
  9
$DIMDSEP
 70
    46
  9
$DIMATFIT
 70
     3
  9
$DIMFRAC
 70
     0
  9
$DIMLDRBLK
  1

  9
$DIMLUNIT
 70
     2
  9
$DIMLWD
 70
    -1
  9
$DIMLWE
 70
    -1
  9
$DIMTMOVE
 70
     0
  9
$LUNITS
 70
     2
  9
$LUPREC
 70
     2
  9
$SKETCHINC
 40
1.0
  9
$FILLETRAD
 40
2.5
  9
$AUNITS
 70
     0
  9
$AUPREC
 70
     0
  9
$MENU
  1
.
  9
$ELEVATION
 40
0.0
  9
$PELEVATION
 40
0.0
  9
$THICKNESS
 40
0.0
  9
$LIMCHECK
 70
     0
  9
$CHAMFERA
 40
2.5
  9
$CHAMFERB
 40
2.5
  9
$CHAMFERC
 40
20.0
  9
$CHAMFERD
 40
0.0
  9
$SKPOLY
 70
     0
  9
$TDCREATE
 40
2454240.563818900
  9
$TDUCREATE
 40
2454240.230485567
  9
$TDUPDATE
 40
2454240.694148033
  9
$TDUUPDATE
 40
2454240.360814699
  9
$TDINDWG
 40
0.1004723611
  9
$TDUSRTIMER
 40
0.1004723611
  9
$USRTIMER
 70
     1
  9
$ANGBASE
 50
0.0
  9
$ANGDIR
 70
     0
  9
$PDMODE
 70
     0
  9
$PDSIZE
 40
0.0
  9
$PLINEWID
 40
0.0
  9
$SPLFRAME
 70
     0
  9
$SPLINETYPE
 70
     6
  9
$SPLINESEGS
 70
     8
  9
$HANDSEED
  5
21FC
  9
$SURFTAB1
 70
     6
  9
$SURFTAB2
 70
     6
  9
$SURFTYPE
 70
     6
  9
$SURFU
 70
     6
  9
$SURFV
 70
     6
  9
$UCSBASE
  2

  9
$UCSNAME
  2

  9
$UCSORG
 10
0.0
 20
0.0
 30
0.0
  9
$UCSXDIR
 10
1.0
 20
0.0
 30
0.0
  9
$UCSYDIR
 10
0.0
 20
1.0
 30
0.0
  9
$UCSORTHOREF
  2

  9
$UCSORTHOVIEW
 70
     0
  9
$UCSORGTOP
 10
0.0
 20
0.0
 30
0.0
  9
$UCSORGBOTTOM
 10
0.0
 20
0.0
 30
0.0
  9
$UCSORGLEFT
 10
0.0
 20
0.0
 30
0.0
  9
$UCSORGRIGHT
 10
0.0
 20
0.0
 30
0.0
  9
$UCSORGFRONT
 10
0.0
 20
0.0
 30
0.0
  9
$UCSORGBACK
 10
0.0
 20
0.0
 30
0.0
  9
$PUCSBASE
  2

  9
$PUCSNAME
  2

  9
$PUCSORG
 10
0.0
 20
0.0
 30
0.0
  9
$PUCSXDIR
 10
1.0
 20
0.0
 30
0.0
  9
$PUCSYDIR
 10
0.0
 20
1.0
 30
0.0
  9
$PUCSORTHOREF
  2

  9
$PUCSORTHOVIEW
 70
     0
  9
$PUCSORGTOP
 10
0.0
 20
0.0
 30
0.0
  9
$PUCSORGBOTTOM
 10
0.0
 20
0.0
 30
0.0
  9
$PUCSORGLEFT
 10
0.0
 20
0.0
 30
0.0
  9
$PUCSORGRIGHT
 10
0.0
 20
0.0
 30
0.0
  9
$PUCSORGFRONT
 10
0.0
 20
0.0
 30
0.0
  9
$PUCSORGBACK
 10
0.0
 20
0.0
 30
0.0
  9
$USERI1
 70
     0
  9
$USERI2
 70
     0
  9
$USERI3
 70
     0
  9
$USERI4
 70
     0
  9
$USERI5
 70
     0
  9
$USERR1
 40
0.0
  9
$USERR2
 40
0.0
  9
$USERR3
 40
0.0
  9
$USERR4
 40
0.0
  9
$USERR5
 40
0.0
  9
$WORLDVIEW
 70
     1
  9
$SHADEDGE
 70
     3
  9
$SHADEDIF
 70
    70
  9
$TILEMODE
 70
     1
  9
$MAXACTVP
 70
    64
  9
$PINSBASE
 10
0.0
 20
0.0
 30
0.0
  9
$PLIMCHECK
 70
     0
  9
$PEXTMIN
 10
1.000000000000000E+20
 20
1.000000000000000E+20
 30
1.000000000000000E+20
  9
$PEXTMAX
 10
-1.000000000000000E+20
 20
-1.000000000000000E+20
 30
-1.000000000000000E+20
  9
$PLIMMIN
 10
0.0
 20
0.0
  9
$PLIMMAX
 10
420.0
 20
297.0
  9
$UNITMODE
 70
     0
  9
$VISRETAIN
 70
     1
  9
$PLINEGEN
 70
     0
  9
$PSLTSCALE
 70
     1
  9
$TREEDEPTH
 70
  3020
  9
$CMLSTYLE
  2
Standard
  9
$CMLJUST
 70
     0
  9
$CMLSCALE
 40
20.0
  9
$PROXYGRAPHICS
 70
     1
  9
$MEASUREMENT
 70
     1
  9
$CELWEIGHT
370
    -1
  9
$ENDCAPS
280
     0
  9
$JOINSTYLE
280
     0
  9
$LWDISPLAY
290
     0
  9
$INSUNITS
 70
     4
  9
$HYPERLINKBASE
  1

  9
$STYLESHEET
  1
彩色出圖.ctb
  9
$XEDIT
290
     1
  9
$CEPSNTYPE
380
     0
  9
$PSTYLEMODE
290
     1
  9
$FINGERPRINTGUID
  2
{15EF5AD6-563C-4291-BBE6-FFF4606F738B}
  9
$VERSIONGUID
  2
{24B0C156-85BC-4F43-985C-438280680EB1}
  9
$EXTNAMES
290
     1
  9
$PSVPSCALE
 40
0.0
  9
$OLESTARTUP
290
     0
  0
ENDSEC
  0
SECTION
  2
CLASSES
  0
CLASS
  1
ACDBDICTIONARYWDFLT
  2
AcDbDictionaryWithDefault
  3
ObjectDBX Classes
 90
        0
280
     0
281
     0
  0
CLASS
  1
ACDBPLACEHOLDER
  2
AcDbPlaceHolder
  3
ObjectDBX Classes
 90
        0
280
     0
281
     0
  0
CLASS
  1
LAYOUT
  2
AcDbLayout
  3
ObjectDBX Classes
 90
        0
280
     0
281
     0
  0
CLASS
  1
ACME_DOCUMENT
  2
AcMeDbDoc
  3
AcMeServices
 90
        0
280
     0
281
     0
  0
CLASS
  1
AMGSETTINGSOBJ
  2
AmgSettingsObj
  3
"AcadM|Product Description: AutoCAD Mechanical 2000|Company: Autodesk"
 90
        0
280
     0
281
     0
  0
CLASS
  1
ACMESCOPE
  2
AcMeScope
  3
AcMeServices
 90
        0
280
     0
281
     0
  0
CLASS
  1
ACMECOMMANDHISTORY
  2
AcMeCommandHistory
  3
AcMeServices
 90
        0
280
     0
281
     0
  0
CLASS
  1
ACIMSYSVARMAN
  2
AcImSysVarManager
  3
AcMeServices
 90
        0
280
     0
281
     0
  0
CLASS
  1
ACIMREALSYSVAR
  2
AcImRealSysVar
  3
AcMeServices
 90
        0
280
     0
281
     0
  0
CLASS
  1
ACIMINTSYSVAR
  2
AcImIntSysVar
  3
AcMeServices
 90
        0
280
     0
281
     0
  0
CLASS
  1
ACMEDRAWINGMAN
  2
AcMeDrawingMan
  3
AcMeServices
 90
        0
280
     0
281
     0
  0
CLASS
  1
ACMEVIEW
  2
AcMeView
  3
AcMeServices
 90
        0
280
     0
281
     0
  0
CLASS
  1
ACDBENTITYCACHE
  2
AcMeEntityCache
  3
AcMeServices
 90
        0
280
     0
281
     0
  0
CLASS
  1
GSMANAGER
  2
AcMeGSManager
  3
AcMeServices
 90
        0
280
     0
281
     0
  0
CLASS
  1
AMDTINTERNALREACTOR
  2
AmdtInternalReactor
  3
AcMeServices
 90
        0
280
     0
281
     0
  0
CLASS
  1
ACMESTATEMGR
  2
AcMeStateMgr
  3
AcMeServices
 90
        0
280
     0
281
     0
  0
CLASS
  1
ACGREFMASTER
  2
AcGrefMaster
  3
AcAttribServices
 90
        0
280
     0
281
     0
  0
CLASS
  1
ACME_DATABASE
  2
AcMeDbDatabase
  3
AcMeServices
 90
        0
280
     0
281
     0
  0
CLASS
  1
ACRFINSADJUSTERMGR
  2
AcRfInsAdjusterMgr
  3
AcMeServices
 90
        0
280
     0
281
     0
  0
CLASS
  1
ACGREFACADMASTER
  2
AcGrefacadMaster
  3
AcGrefServices
 90
        0
280
     0
281
     0
  0
CLASS
  1
AMIMASTER
  2
AmiMaster
  3
AmiServices
 90
        0
280
     0
281
     0
  0
CLASS
  1
ACMDATADICTIONARY
  2
AcmDataDictionary
  3
"AcmSymBB|Product Description: AutoCAD Mechanical 2004 DX|Company: Autodesk"
 90
        0
280
     0
281
     0
  0
CLASS
  1
ACMDATAENTRYBLOCK
  2
AcmDataEntryBlock
  3
"AcmSymBB|Product Description: AutoCAD Mechanical 2004 DX|Company: Autodesk"
 90
        0
280
     0
281
     0
  0
CLASS
  1
ACIMSTRSYSVAR
  2
AcImStrSysVar
  3
AcMeServices
 90
        0
280
     0
281
     0
  0
CLASS
  1
ACMSTANDARDISO
  2
AcmStandardISO
  3
"Amdt_StdImp|Product Description: AutoCAD Mechanical 2004 DX|Company: Autodesk"
 90
        0
280
     0
281
     0
  0
CLASS
  1
AMGOBJPROPCFG
  2
AmgObjPropCfg
  3
"AmgLay|Product Description: AutoCAD Mechanical 2000|Company: Autodesk"
 90
        1
280
     0
281
     0
  0
CLASS
  1
AMDTEDGESTANDARDISO
  2
AmdtEdgeStdISO
  3
"Amdt_StdImp|Product Description: AutoCAD Mechanical 2004 DX|Company: Autodesk"
 90
        0
280
     0
281
     0
  0
CLASS
  1
ACMSURFSTANDARDISO
  2
AcmSurfTextStdISO
  3
"Amdt_StdImp|Product Description: AutoCAD Mechanical 2004 DX|Company: Autodesk"
 90
        0
280
     0
281
     0
  0
CLASS
  1
ACMFCFSTANDARDISO
  2
AcmFCFStdISO
  3
"Amdt_StdImp|Product Description: AutoCAD Mechanical 2004 DX|Company: Autodesk"
 90
        0
280
     0
281
     0
  0
CLASS
  1
ACMWELDSTANDARDISO
  2
AcmWeldingStdISO
  3
"Amdt_StdImp|Product Description: AutoCAD Mechanical 2004 DX|Company: Autodesk"
 90
        0
280
     0
281
     0
  0
CLASS
  1
ACMIDSTANDARDISO
  2
AcmIdStdISO
  3
"Amdt_StdImp|Product Description: AutoCAD Mechanical 2004 DX|Company: Autodesk"
 90
        0
280
     0
281
     0
  0
CLASS
  1
ACMDATUMSTANDARDISO
  2
AcmDatumStdISO
  3
"Amdt_StdImp|Product Description: AutoCAD Mechanical 2004 DX|Company: Autodesk"
 90
        0
280
     0
281
     0
  0
CLASS
  1
ACMBOMSTANDARDISO
  2
AcmBOMStdISO
  3
"Amdt_StdImp|Product Description: AutoCAD Mechanical 2004 DX|Company: Autodesk"
 90
        0
280
     0
281
     0
  0
CLASS
  1
ACMDETAILSTANDARDISO
  2
AmdtDetailSymStdISO
  3
"Amdt_StdImp|Product Description: AutoCAD Mechanical 2004 DX|Company: Autodesk"
 90
        0
280
     0
281
     0
  0
CLASS
  1
ACMSECTIONSTANDARDISO
  2
AmdtSectionSymStdISO
  3
"Amdt_StdImp|Product Description: AutoCAD Mechanical 2004 DX|Company: Autodesk"
 90
        0
280
     0
281
     0
  0
CLASS
  1
ACMCENTERLINESTANDARDISO
  2
AmdtCenterLineStdISO
  3
"Amdt_StdImp|Product Description: AutoCAD Mechanical 2004 DX|Company: Autodesk"
 90
        0
280
     0
281
     0
  0
CLASS
  1
ACMNOTESTANDARDISO
  2
AmdtNoteStdISO
  3
"Amdt_StdImp|Product Description: AutoCAD Mechanical 2004 DX|Company: Autodesk"
 90
        0
280
     0
281
     0
  0
CLASS
  1
ACAMGLAYSTD
  2
AcAmgLayStd
  3
"AcAmgLayStd|Product Description: AutoCAD Mechanical 2000|Company: Autodesk"
 90
        0
280
     0
281
     0
  0
CLASS
  1
ACAMGDIMSTD
  2
AcAmgDimStd
  3
"AcAmgDimStd|Product Description: AutoCAD Mechanical 2000|Company: Autodesk"
 90
        0
280
     0
281
     0
  0
CLASS
  1
ACAMGHOLECHARTSTDISO
  2
AcAmgHoleChartStdISO
  3
ACMSYMBB_MODULE_NAME
 90
        0
280
     0
281
     0
  0
CLASS
  1
ACAMGTITLESTD
  2
AcAmgTitleStd
  3
"TITLEAPP"
 90
        0
280
     0
281
     0
  0
CLASS
  1
LAYER_INDEX
  2
AcDbLayerIndex
  3
ObjectDBX Classes
 90
    32768
280
     0
281
     0
  0
CLASS
  1
IDBUFFER
  2
AcDbIdBuffer
  3
ObjectDBX Classes
 90
    32768
280
     0
281
     0
  0
CLASS
  1
DICTIONARYVAR
  2
AcDbDictionaryVar
  3
ObjectDBX Classes
 90
        0
280
     0
281
     0
  0
CLASS
  1
AM_DRAWING_MGR
  2
AcDmDwgMgr
  3
AcMechDwgViewMgmt
 90
        0
280
     0
281
     0
  0
CLASS
  1
AM_DWG_DOCUMENT
  2
AcDmDwgDocument
  3
AcMechDwgViewMgmt
 90
        0
280
     0
281
     0
  0
CLASS
  1
AM_DWG_SHEET
  2
AcDmSheet
  3
AcMechDwgViewMgmt
 90
        0
280
     0
281
     0
  0
CLASS
  1
AM_VIEWDIMPARMAP
  2
AcDmViewDimParMap
  3
AcMechDwgViewMgmt
 90
        0
280
     0
281
     0
  0
CLASS
  1
AM_DWGMGR_NAME
  2
AcDmDwgMgrName
  3
AcMechDwgViewMgmt
 90
        0
280
     0
281
     0
  0
CLASS
  1
AMDTMENUSTATEMGR
  2
AmdtMenuStateMgr
  3
McadcomServices
 90
        0
280
     0
281
     0
  0
CLASS
  1
AMDTMCOMMENUSTATE
  2
AmdtMcomMenuState
  3
McadcomServices
 90
        0
280
     0
281
     0
  0
CLASS
  1
MAPIAMMOUDLE
  2
MApiAmModule
  3
MApiAmServices
 90
        0
280
     0
281
     0
  0
CLASS
  1
AMDTADMENUSTATE
  2
AmdtAdMenuState
  3
DesignerServices
 90
        0
280
     0
281
     0
  0
CLASS
  1
ADAPPL
  2
AcAdAppl
  3
DesignerServices
 90
        0
280
     0
281
     0
  0
CLASS
  1
DEPMGR
  2
AcAdDepMgr
  3
DesignerServices
 90
        0
280
     0
281
     0
  0
CLASS
  1
PARAMMGR
  2
AcAdParamMgr
  3
DesignerServices
 90
        0
280
     0
281
     0
  0
CLASS
  1
PARAMSCOPE
  2
AcAdParamScope
  3
DesignerServices
 90
        0
280
     0
281
     0
  0
CLASS
  1
NAMEDAPPL
  2
AcAdNamedAppl
  3
DesignerServices
 90
        0
280
     0
281
     0
  0
CLASS
  1
AMDTDMMENUSTATE
  2
AmdtDmMenuState
  3
AcMechDwgViewMgmt
 90
        0
280
     0
281
     0
  0
CLASS
  1
AMDTAMMENUSTATE
  2
AmdtAmMenuState
  3
DesignerAssemblies
 90
        0
280
     0
281
     0
  0
CLASS
  1
ACAMPROJECT
  2
AcAmProject
  3
DesignerAssemblies
 90
        0
280
     0
281
     0
  0
CLASS
  1
ACAMGRCOMPDEF
  2
AcAmGrCompDef
  3
DesignerAssemblies
 90
        0
280
     0
281
     0
  0
CLASS
  1
ACCMCONTEXT
  2
AcCmContext
  3
DesignerAssemblies
 90
        0
280
     0
281
     0
  0
CLASS
  1
ACAMCOMPDEF
  2
AcAmCompDef
  3
DesignerAssemblies
 90
        0
280
     0
281
     0
  0
CLASS
  1
ACAMCOMPDEFMGR
  2
AcAmCompDefMgr
  3
DesignerAssemblies
 90
        0
280
     0
281
     0
  0
CLASS
  1
AMCONTEXTMGR
  2
AcAmContextMgr
  3
DesignerAssemblies
 90
        0
280
     0
281
     0
  0
CLASS
  1
ACAMCONTEXTMODELER
  2
AcAmContextModeler
  3
DesignerAssemblies
 90
        0
280
     0
281
     0
  0
CLASS
  1
ACMTHREADLINESTANDARDISO
  2
AmdtThreadLineStdISO
  3
"Amdt_StdImp|Product Description: AutoCAD Mechanical 2004 DX|Company: Autodesk"
 90
        0
280
     0
281
     0
  0
CLASS
  1
CATALOGSTATE
  2
AcAmCatalogState
  3
DesignerAssemblies
 90
        0
280
     0
281
     0
  0
CLASS
  1
ACAMGRCOMPDEFSET
  2
AcAmGrCompDefSet
  3
DesignerAssemblies
 90
        0
280
     0
281
     0
  0
CLASS
  1
AMDTBROWSERDBTAB
  2
AmdtBrowserDbTab
  3
McadcomServices
 90
        0
280
     0
281
     0
  0
CLASS
  1
CBROWSERAPPOBJECT
  2
CBrowserAppObject
  3
McadcomServices
 90
        0
280
     0
281
     0
  0
CLASS
  1
DM_PLACEHOLDER
  2
AcDmSelsetPlaceholder
  3
AcMechDwgViewMgmt
 90
        0
280
     0
281
     0
  0
CLASS
  1
TABLESTYLE
  2
AcDbTableStyle
  3
ObjectDBX Classes
 90
     2047
280
     0
281
     0
  0
CLASS
  1
VAACXREFPANELOBJECT
  2
VaAcXREFPanelObject
  3
VAAC_ADDIN
 90
    32768
280
     0
281
     0
  0
CLASS
  1
VAACIMAGEINVENTORY
  2
VaAcImageInventory
  3
VAAC_ADDIN
 90
    32768
280
     0
281
     0
  0
CLASS
  1
AMDTNOTETEMPLATEDB
  2
AmdtNoteTemplateDB
  3
AMDT_STDIMP_MODULE_NAME
 90
        0
280
     0
281
     0
  0
CLASS
  1
ACMBOM
  2
AcmBom
  3
"AcmSymBB|Product Description: AutoCAD Mechanical 2004 DX|Company: Autodesk"
 90
    32768
280
     0
281
     0
  0
CLASS
  1
AMDTFORMULAUPDATEDISPATCHER
  2
AmdtFormulaUpdateDispatcher
  3
AcMeServices
 90
    32768
280
     0
281
     0
  0
CLASS
  1
ACMPARTLIST
  2
AcmPartList
  3
"AcmSymBB|Product Description: AutoCAD Mechanical 2004 DX|Company: Autodesk"
 90
    33791
280
     0
281
     1
  0
CLASS
  1
ACAMGFILTERDAT
  2
AcAmgFilterDat
  3
"AcadM|Product Description: AutoCAD Mechanical 2000|Company: Autodesk"
 90
        0
280
     0
281
     0
  0
CLASS
  1
DIMASSOC
  2
AcDbDimAssoc
  3
"AcDbDimAssoc|Product Desc:     AcDim ARX App For Dimension|Company:          Autodesk, Inc.|WEB Address:      www.autodesk.com"
 90
        0
280
     0
281
     0
  0
CLASS
  1
ACMSTANDARDANSI
  2
AcmStandardANSI
  3
"Amdt_StdImp|Product Description: AutoCAD Mechanical 2004 DX|Company: Autodesk"
 90
        0
280
     0
281
     0
  0
CLASS
  1
ACMSURFSTANDARDANSI
  2
AcmSurfTextStdANSI
  3
"Amdt_StdImp|Product Description: AutoCAD Mechanical 2004 DX|Company: Autodesk"
 90
        0
280
     0
281
     0
  0
CLASS
  1
ACMFCFSTANDARDANSI
  2
AcmFCFStdANSI
  3
"Amdt_StdImp|Product Description: AutoCAD Mechanical 2004 DX|Company: Autodesk"
 90
        0
280
     0
281
     0
  0
CLASS
  1
ACMWELDSTANDARDANSI
  2
AcmWeldingStdANSI
  3
"Amdt_StdImp|Product Description: AutoCAD Mechanical 2004 DX|Company: Autodesk"
 90
        0
280
     0
281
     0
  0
CLASS
  1
ACMIDSTANDARDANSI
  2
AcmIdStdANSI
  3
"Amdt_StdImp|Product Description: AutoCAD Mechanical 2004 DX|Company: Autodesk"
 90
        0
280
     0
281
     0
  0
CLASS
  1
ACMDATUMSTANDARDANSI
  2
AcmDatumStdANSI
  3
"Amdt_StdImp|Product Description: AutoCAD Mechanical 2004 DX|Company: Autodesk"
 90
        0
280
     0
281
     0
  0
CLASS
  1
ACMBOMSTANDARDANSI
  2
AcmBOMStdANSI
  3
"Amdt_StdImp|Product Description: AutoCAD Mechanical 2004 DX|Company: Autodesk"
 90
        0
280
     0
281
     0
  0
CLASS
  1
ACMDETAILSTANDARDANSI
  2
AmdtDetailSymStdANSI
  3
"Amdt_StdImp|Product Description: AutoCAD Mechanical 2004 DX|Company: Autodesk"
 90
        0
280
     0
281
     0
  0
CLASS
  1
ACMSECTIONSTANDARDANSI
  2
AmdtSectionSymStdANSI
  3
"Amdt_StdImp|Product Description: AutoCAD Mechanical 2004 DX|Company: Autodesk"
 90
        0
280
     0
281
     0
  0
CLASS
  1
ACMCENTERLINESTANDARDANSI
  2
AmdtCenterLineStdANSI
  3
"Amdt_StdImp|Product Description: AutoCAD Mechanical 2004 DX|Company: Autodesk"
 90
        0
280
     0
281
     0
  0
CLASS
  1
ACMTHREADLINESTANDARDANSI
  2
AmdtThreadLineStdANSI
  3
"Amdt_StdImp|Product Description: AutoCAD Mechanical 2004 DX|Company: Autodesk"
 90
        0
280
     0
281
     0
  0
CLASS
  1
ACMNOTESTANDARDANSI
  2
AmdtNoteStdANSI
  3
"Amdt_StdImp|Product Description: AutoCAD Mechanical 2004 DX|Company: Autodesk"
 90
        0
280
     0
281
     0
  0
CLASS
  1
ACAMGHOLECHARTSTDANSI
  2
AcAmgHoleChartStdANSI
  3
ACMSYMBB_MODULE_NAME
 90
        0
280
     0
281
     0
  0
CLASS
  1
STDPART2D
  2
AmgStdPart
  3
"AmgStdPart|Product Description: AutoCAD Mechanical 2000|Company: Autodesk"
 90
    33791
280
     0
281
     1
  0
CLASS
  1
ACAMSTDPCOMPDEF
  2
AcAmStdpCompDef
  3
DesignerAssemblies
 90
    32768
280
     0
281
     0
  0
CLASS
  1
ACRFATTGENMGR
  2
AcRfAttGeneralMgr
  3
AcAttribServices
 90
        0
280
     0
281
     0
  0
CLASS
  1
ACRFOBJATTMGR
  2
AcRfObjAttGroupMgr
  3
AcAttribServices
 90
    32768
280
     0
281
     0
  0
CLASS
  1
ACRFMCADAPIATTHOLDER
  2
AcRfMCADAPIAttHolder
  3
AcAttribServices
 90
    32768
280
     0
281
     0
  0
CLASS
  1
AMDTSYSATTR
  2
AmdtSystemAttribute
  3
AcAttribServices
 90
    32768
280
     0
281
     0
  0
CLASS
  1
ACAMCOMP
  2
AcAmComp
  3
DesignerAssemblies
 90
    32768
280
     0
281
     0
  0
CLASS
  1
AC_AM_STDP_VIEW_DEF
  2
AcAmStdpViewDef
  3
DesignerAssemblies
 90
    32768
280
     0
281
     0
  0
CLASS
  1
AC_AM_MVD_DEP_MGR
  2
AcAmMVDdepMgr
  3
DesignerAssemblies
 90
        0
280
     0
281
     0
  0
CLASS
  1
AC_AM_MASTER_VIEW_DEF
  2
AcAmMasterViewDef
  3
DesignerAssemblies
 90
        0
280
     0
281
     0
  0
CLASS
  1
AC_AM_DIRTY_NODES
  2
AcAmDirtyNodes
  3
DesignerAssemblies
 90
        0
280
     0
281
     0
  0
CLASS
  1
AC_AM_MAPPER_CACHE
  2
AcAmMapperCache
  3
DesignerAssemblies
 90
        0
280
     0
281
     0
  0
CLASS
  1
ACAMMVDBACKUPOBJECT
  2
AcAmMVDBackupObject
  3
DesignerAssemblies
 90
        0
280
     0
281
     0
  0
CLASS
  1
AC_AM_COMP_VIEW_INST
  2
AcAmCompView
  3
DesignerAssemblies
 90
    32768
280
     0
281
     0
  0
CLASS
  1
AC_AM_2D_XREF_MGR
  2
AcAmXrefMgr2d
  3
DesignerAssemblies
 90
        0
280
     0
281
     0
  0
CLASS
  1
SORTENTSTABLE
  2
AcDbSortentsTable
  3
ObjectDBX Classes
 90
        0
280
     0
281
     0
  0
ENDSEC
  0
SECTION
  2
TABLES
  0
TABLE
  2
VPORT
  5
8
330
0
100
AcDbSymbolTable
 70
     6
  0
VPORT
  5
21F3
330
8
100
AcDbSymbolTableRecord
100
AcDbViewportTableRecord
  2
*Active
 70
     0
 10
0.0
 20
0.0
 11
1.0
 21
1.0
 12
912.2259269454435
 22
754.568732345258
 13
0.0
 23
0.0
 14
2.5
 24
2.5
 15
10.0
 25
10.0
 16
0.0
 26
0.0
 36
1.0
 17
0.0
 27
0.0
 37
0.0
 40
622.8771773419416
 41
1.661684782608695
 42
50.0
 43
0.0
 44
0.0
 50
0.0
 51
0.0
 71
     0
 72
   100
 73
     1
 74
     3
 75
     0
 76
     0
 77
     0
 78
     0
281
     0
 65
     1
110
0.0
120
0.0
130
0.0
111
1.0
121
0.0
131
0.0
112
0.0
122
1.0
132
0.0
 79
     0
146
0.0
  0
ENDTAB
  0
TABLE
  2
LTYPE
  5
5
330
0
100
AcDbSymbolTable
 70
    17
  0
LTYPE
  5
14
330
5
100
AcDbSymbolTableRecord
100
AcDbLinetypeTableRecord
  2
ByBlock
 70
     0
  3

 72
    65
 73
     0
 40
0.0
  0
LTYPE
  5
15
330
5
100
AcDbSymbolTableRecord
100
AcDbLinetypeTableRecord
  2
ByLayer
 70
     0
  3

 72
    65
 73
     0
 40
0.0
  0
LTYPE
  5
16
330
5
100
AcDbSymbolTableRecord
100
AcDbLinetypeTableRecord
  2
Continuous
 70
     0
  3
Solid line
 72
    65
 73
     0
 40
0.0
  0
LTYPE
  5
64
330
5
100
AcDbSymbolTableRecord
100
AcDbLinetypeTableRecord
  2
AM_ISO02W050
 70
     0
  3
__ __ __ __ __ __ __ __ __ __ __ __ __ __ __
 72
    65
 73
     2
 40
7.5
 49
6.0
 74
     0
 49
-1.5
 74
     0
  0
LTYPE
  5
65
330
5
100
AcDbSymbolTableRecord
100
AcDbLinetypeTableRecord
  2
AM_ISO08W050
 70
     0
  3
____ . ____ . ____ . ____ . ____ . ____ . ____
 72
    65
 73
     4
 40
18.0
 49
12.0
 74
     0
 49
-1.5
 74
     0
 49
3.0
 74
     0
 49
-1.5
 74
     0
  0
LTYPE
  5
66
330
5
100
AcDbSymbolTableRecord
100
AcDbLinetypeTableRecord
  2
AM_ISO09W050
 70
     0
  3
_____ . . _____ . . _____ . . ____ .. ____
 72
    65
 73
     6
 40
22.5
 49
12.0
 74
     0
 49
-1.5
 74
     0
 49
3.0
 74
     0
 49
-1.5
 74
     0
 49
3.0
 74
     0
 49
-1.5
 74
     0
  0
LTYPE
  5
67
330
5
100
AcDbSymbolTableRecord
100
AcDbLinetypeTableRecord
  2
Amconstr
 70
     0
  3
_______________________
 72
    65
 73
     2
 40
9999.0
 49
9999.0
 74
     0
 49
0.0
 74
     0
  0
LTYPE
  5
68
330
5
100
AcDbSymbolTableRecord
100
AcDbLinetypeTableRecord
  2
AM_ISO08W050x2
 70
     0
  3
__ . __ . __ . __ . __ . __
 72
    65
 73
     4
 40
9.0
 49
6.0
 74
     0
 49
-0.75
 74
     0
 49
1.5
 74
     0
 49
-0.75
 74
     0
  0
LTYPE
  5
69
330
5
100
AcDbSymbolTableRecord
100
AcDbLinetypeTableRecord
  2
AM_ISO02W050x2
 70
     0
  3
 _ _ _ _ _ _ _ _ _ _ _ _
 72
    65
 73
     2
 40
3.75
 49
3.0
 74
     0
 49
-0.75
 74
     0
  0
LTYPE
  5
6C
330
5
100
AcDbSymbolTableRecord
100
AcDbLinetypeTableRecord
  2
Amzigzag
 70
     0
  3
/\/-/\/-/\/-/\/-/\/-/\/
 72
    65
 73
     2
 40
11.0001
 49
0.0001
 74
     4
 75
   135
340
6B
 46
0.04
 50
0.0
 44
0.0
 45
0.0
 49
-11.0
 74
     0
  0
LTYPE
  5
7A
330
5
100
AcDbSymbolTableRecord
100
AcDbLinetypeTableRecord
  2
ACISOWELD
 70
     0
  3
_ _ _ _ _
 72
    65
 73
     2
 40
2.0
 49
2.0
 74
     0
 49
-1.0
 74
     0
  0
LTYPE
  5
7B
330
5
100
AcDbSymbolTableRecord
100
AcDbLinetypeTableRecord
  2
ACISOTGB
 70
     0
  3
__ . . __ . .
 72
    65
 73
     6
 40
9.0
 49
4.0
 74
     0
 49
-1.0
 74
     0
 49
1.0
 74
     0
 49
-1.0
 74
     0
 49
1.0
 74
     0
 49
-1.0
 74
     0
  0
LTYPE
  5
7C
330
5
100
AcDbSymbolTableRecord
100
AcDbLinetypeTableRecord
  2
ACISOTGL
 70
     0
  3
_ _ _ _ _
 72
    65
 73
     2
 40
3.0
 49
2.0
 74
     0
 49
-1.0
 74
     0
  0
LTYPE
  5
7E
330
5
100
AcDbSymbolTableRecord
100
AcDbLinetypeTableRecord
  2
CENTER
 70
     0
  3
__ . __
 72
    65
 73
     4
 40
7.0
 49
4.0
 74
     0
 49
-1.0
 74
     0
 49
1.0
 74
     0
 49
-1.0
 74
     0
  0
LTYPE
  5
D8
330
5
100
AcDbSymbolTableRecord
100
AcDbLinetypeTableRecord
  2
HIDDEN
 70
     0
  3
Hidden __ __ __ __ __ __ __ __ __ __ __ __ __ _
 72
    65
 73
     2
 40
9.524999999999998
 49
6.349999999999999
 74
     0
 49
-3.174999999999999
 74
     0
  0
LTYPE
  5
D9
330
5
100
AcDbSymbolTableRecord
100
AcDbLinetypeTableRecord
  2
PHANTOM2
 70
     0
  3
Phantom (.5x) ___ _ _ ___ _ _ ___ _ _ ___ _ _
 72
    65
 73
     6
 40
31.75
 49
15.875
 74
     0
 49
-3.174999999999999
 74
     0
 49
3.174999999999999
 74
     0
 49
-3.174999999999999
 74
     0
 49
3.174999999999999
 74
     0
 49
-3.174999999999999
 74
     0
  0
LTYPE
  5
DA3
330
5
100
AcDbSymbolTableRecord
100
AcDbLinetypeTableRecord
  2
PHANTOM
 70
     0
  3
______  __  __  ______  __  __  ______  __  __ 
 72
    65
 73
     6
 40
2.5
 49
1.25
 74
     0
 49
-0.25
 74
     0
 49
0.25
 74
     0
 49
-0.25
 74
     0
 49
0.25
 74
     0
 49
-0.25
 74
     0
  0
LTYPE
  5
DA7
330
5
100
AcDbSymbolTableRecord
100
AcDbLinetypeTableRecord
  2
ACANSTGB
 70
     0
  3
__ . . __ . .
 72
    65
 73
     6
 40
0.35433070866
 49
0.15748031496
 74
     0
 49
-0.03937007874
 74
     0
 49
0.03937007874
 74
     0
 49
-0.03937007874
 74
     0
 49
0.03937007874
 74
     0
 49
-0.03937007874
 74
     0
  0
LTYPE
  5
DA8
330
5
100
AcDbSymbolTableRecord
100
AcDbLinetypeTableRecord
  2
ACANSTGL
 70
     0
  3
_ _ _ _ _
 72
    65
 73
     2
 40
0.11811023622
 49
0.07874015748
 74
     0
 49
-0.03937007874
 74
     0
  0
ENDTAB
  0
TABLE
  2
LAYER
  5
2
102
{ACAD_XDICTIONARY
360
3F9
102
}
330
0
100
AcDbSymbolTable
 70
     6
  0
LAYER
  5
10
330
2
100
AcDbSymbolTableRecord
100
AcDbLayerTableRecord
  2
0
 70
     0
 62
     7
  6
Continuous
370
    -3
390
F
  0
LAYER
  5
939
330
2
100
AcDbSymbolTableRecord
100
AcDbLayerTableRecord
  2
Defpoints
 70
     0
 62
     7
  6
Continuous
290
     0
370
    -3
390
F
  0
LAYER
  5
DA9
330
2
100
AcDbSymbolTableRecord
100
AcDbLayerTableRecord
  2
Dim
 70
     0
 62
     5
  6
Continuous
370
    13
390
F
  0
LAYER
  5
1A67
330
2
100
AcDbSymbolTableRecord
100
AcDbLayerTableRecord
  2
AM_7
 70
     0
 62
     1
  6
CENTER
370
    25
390
F
  0
LAYER
  5
1AFA
330
2
100
AcDbSymbolTableRecord
100
AcDbLayerTableRecord
  2
AM_4
 70
     0
 62
     3
  6
Continuous
370
    25
390
F
  0
LAYER
  5
1E7C
330
2
100
AcDbSymbolTableRecord
100
AcDbLayerTableRecord
  2
LOGO
 70
     0
 62
     7
  6
Continuous
370
    -3
390
F
  0
ENDTAB
  0
TABLE
  2
STYLE
  5
3
330
0
100
AcDbSymbolTable
 70
    10
  0
STYLE
  5
11
330
3
100
AcDbSymbolTableRecord
100
AcDbTextStyleTableRecord
  2
STANDARD
 70
     0
 40
0.0
 41
1.0
 50
0.0
 71
     0
 42
3.0
  3
ISOCP.SHX
  4
CHINESET.SHX
  0
STYLE
  5
6B
330
3
100
AcDbSymbolTableRecord
100
AcDbTextStyleTableRecord
  2

 70
     1
 40
0.0
 41
1.0
 50
0.0
 71
     0
 42
2.5
  3
ltypeshp.shx
  4

  0
STYLE
  5
6D
330
3
100
AcDbSymbolTableRecord
100
AcDbTextStyleTableRecord
  2
ACISOTS
 70
     0
 40
1.0
 41
1.0
 50
0.0
 71
     0
 42
1.0
  3
isocp.shx
  4
chineset.shx
  0
STYLE
  5
79
330
3
100
AcDbSymbolTableRecord
100
AcDbTextStyleTableRecord
  2
ACISOGDT
 70
     0
 40
0.0
 41
1.0
 50
0.0
 71
     0
 42
2.5
  3
amgdt.shx
  4
chineset.shx
  0
STYLE
  5
60C
330
3
100
AcDbSymbolTableRecord
100
AcDbTextStyleTableRecord
  2
CHINESET
 70
     0
 40
0.0
 41
1.0
 50
0.0
 71
     0
 42
3.0
  3
simplex.shx
  4
CHINESET.SHX
  0
STYLE
  5
DAB
330
3
100
AcDbSymbolTableRecord
100
AcDbTextStyleTableRecord
  2
AAA
 70
     0
 40
0.0
 41
1.0
 50
0.0
 71
     0
 42
3.2
  3
TXT
  4

  0
STYLE
  5
DAC
330
3
100
AcDbSymbolTableRecord
100
AcDbTextStyleTableRecord
  2
China
 70
     0
 40
0.0
 41
1.0
 50
0.0
 71
     0
 42
3.2
  3
romans.shx
  4
chineset.shx
  0
STYLE
  5
DAD
330
3
100
AcDbSymbolTableRecord
100
AcDbTextStyleTableRecord
  2
ACANSTS
 70
     0
 40
1.0
 41
1.0
 50
0.0
 71
     0
 42
3.2
  3
romans.shx
  4
chineset.shx
  0
STYLE
  5
DAE
330
3
100
AcDbSymbolTableRecord
100
AcDbTextStyleTableRecord
  2
ACANSGDT
 70
     0
 40
0.0
 41
1.0
 50
0.0
 71
     0
 42
3.2
  3
amgdtans.shx
  4

  0
ENDTAB
  0
TABLE
  2
VIEW
  5
6
330
0
100
AcDbSymbolTable
 70
     0
  0
ENDTAB
  0
TABLE
  2
UCS
  5
7
330
0
100
AcDbSymbolTable
 70
     0
  0
ENDTAB
  0
TABLE
  2
APPID
  5
9
330
0
100
AcDbSymbolTable
 70
    26
  0
APPID
  5
12
330
9
100
AcDbSymbolTableRecord
100
AcDbRegAppTableRecord
  2
ACAD
 70
     0
  0
APPID
  5
46
330
9
100
AcDbSymbolTableRecord
100
AcDbRegAppTableRecord
  2
MCAD_NO_VIS
 70
     0
  0
APPID
  5
47
330
9
100
AcDbSymbolTableRecord
100
AcDbRegAppTableRecord
  2
ACAD_TEMP_GRAPHIC
 70
     0
  0
APPID
  5
58
330
9
100
AcDbSymbolTableRecord
100
AcDbRegAppTableRecord
  2
ACATTRIBSERVICES
 70
     0
  0
APPID
  5
EE
330
9
100
AcDbSymbolTableRecord
100
AcDbRegAppTableRecord
  2
AD_DRAW
 70
     0
  0
APPID
  5
10C
330
9
100
AcDbSymbolTableRecord
100
AcDbRegAppTableRecord
  2
DESIGNERASSEMBLIES
 70
     0
  0
APPID
  5
111
330
9
100
AcDbSymbolTableRecord
100
AcDbRegAppTableRecord
  2
ACADM_DIM_EDIT
 70
     0
  0
APPID
  5
112
330
9
100
AcDbSymbolTableRecord
100
AcDbRegAppTableRecord
  2
AMDT_DM_ADJ
 70
     0
  0
APPID
  5
22C
330
9
100
AcDbSymbolTableRecord
100
AcDbRegAppTableRecord
  2
ACAD_DSTYLE_DIMTEXT_FILL
 70
     0
  0
APPID
  5
452
330
9
100
AcDbSymbolTableRecord
100
AcDbRegAppTableRecord
  2
GENIUS_GENOENT_13
 70
     0
  0
APPID
  5
453
330
9
100
AcDbSymbolTableRecord
100
AcDbRegAppTableRecord
  2
GENIUS_GENOBJ-N-CRS_13
 70
     0
  0
APPID
  5
454
330
9
100
AcDbSymbolTableRecord
100
AcDbRegAppTableRecord
  2
GENIUS_GENOLIS_13
 70
     0
  0
APPID
  5
455
330
9
100
AcDbSymbolTableRecord
100
AcDbRegAppTableRecord
  2
GENIUS_GENODEF_13
 70
     0
  0
APPID
  5
456
330
9
100
AcDbSymbolTableRecord
100
AcDbRegAppTableRecord
  2
GENIUS_GENOREF_13
 70
     0
  0
APPID
  5
6F3
330
9
100
AcDbSymbolTableRecord
100
AcDbRegAppTableRecord
  2
ACAD_PSEXT
 70
     0
  0
APPID
  5
808
330
9
100
AcDbSymbolTableRecord
100
AcDbRegAppTableRecord
  2
GENIUS_GENDTOL_13
 70
     0
  0
APPID
  5
1A69
330
9
100
AcDbSymbolTableRecord
100
AcDbRegAppTableRecord
  2
GENIUS_GENOBJ-N-CEN_13
 70
     0
  0
APPID
  5
1A6A
330
9
100
AcDbSymbolTableRecord
100
AcDbRegAppTableRecord
  2
GENIUS_GENCEN_19
 70
     0
  0
APPID
  5
1ADB
330
9
100
AcDbSymbolTableRecord
100
AcDbRegAppTableRecord
  2
GEVID1179544130
 70
     0
  0
APPID
  5
1ADC
330
9
100
AcDbSymbolTableRecord
100
AcDbRegAppTableRecord
  2
GEVDC
 70
     0
  0
APPID
  5
1ADD
330
9
100
AcDbSymbolTableRecord
100
AcDbRegAppTableRecord
  2
GEVRADREF
 70
     0
  0
APPID
  5
1AE6
330
9
100
AcDbSymbolTableRecord
100
AcDbRegAppTableRecord
  2
AMG_2DHIDE
 70
     0
  0
APPID
  5
1AE7
330
9
100
AcDbSymbolTableRecord
100
AcDbRegAppTableRecord
  2
AMG_2DSTRUCT_BTR
 70
     0
  0
APPID
  5
1AF8
330
9
100
AcDbSymbolTableRecord
100
AcDbRegAppTableRecord
  2
ACADM_2DVIEW_IGN_NOTIFY
 70
     0
  0
APPID
  5
1E7D
330
9
100
AcDbSymbolTableRecord
100
AcDbRegAppTableRecord
  2
GENIUS_GENREC_14
 70
     0
  0
APPID
  5
1E7E
330
9
100
AcDbSymbolTableRecord
100
AcDbRegAppTableRecord
  2
GENIUS_GENOBJ-N-REC_13
 70
     0
  0
ENDTAB
  0
TABLE
  2
DIMSTYLE
  5
A
330
0
100
AcDbSymbolTable
 70
    16
100
AcDbDimStyleTable
 71
     4
340
81
340
DAF
340
8B
340
86
  0
DIMSTYLE
105
81
330
A
100
AcDbSymbolTableRecord
100
AcDbDimStyleTableRecord
  2
AM_ISO
 70
     0
  4
"
 41
3.0
 42
1.5
 43
8.0
 44
1.5
 47
0.1
 48
0.1
 73
     0
 74
     0
 77
     1
 78
     8
 79
     2
140
3.0
141
0.0
143
0.0393701
146
0.6
147
1.0
172
     1
176
   256
177
   256
178
   256
271
     2
272
     2
283
     0
284
     8
340
60C
371
    -1
372
    -1
  0
DIMSTYLE
105
82
330
A
100
AcDbSymbolTableRecord
100
AcDbDimStyleTableRecord
  2
AM_ISO$3
 70
     0
  4
"
 41
3.0
 42
1.5
 43
8.0
 44
1.5
 47
0.1
 48
0.1
 73
     0
 77
     1
 78
     8
 79
     2
140
3.0
141
0.0
143
0.0393701
146
0.6
147
1.0
176
   256
177
   256
178
   256
271
     2
272
     2
283
     0
284
     8
288
     1
289
     0
340
60C
371
    -1
372
    -1
  0
DIMSTYLE
105
83
330
A
100
AcDbSymbolTableRecord
100
AcDbDimStyleTableRecord
  2
AM_ISO$4
 70
     0
  4
"
 41
3.0
 42
1.5
 43
8.0
 44
1.5
 47
0.1
 48
0.1
 73
     0
 77
     1
 78
     8
 79
     2
140
3.0
141
0.0
143
0.0393701
146
0.6
147
1.0
176
   256
177
   256
178
   256
271
     2
272
     2
283
     0
284
     8
288
     1
289
     0
340
60C
371
    -1
372
    -1
  0
DIMSTYLE
105
84
330
A
100
AcDbSymbolTableRecord
100
AcDbDimStyleTableRecord
  2
AM_ISO$6
 70
     0
  4
"
 41
3.0
 42
1.5
 43
8.0
 44
1.5
 47
0.1
 48
0.1
 73
     0
 74
     0
 78
     8
 79
     2
140
3.0
141
0.0
143
0.0393701
146
0.6
147
1.0
172
     1
176
   256
177
   256
178
   256
271
     2
272
     2
283
     0
284
     8
340
60C
371
    -1
372
    -1
  0
DIMSTYLE
105
85
330
A
100
AcDbSymbolTableRecord
100
AcDbDimStyleTableRecord
  2
AM_ISO$7
 70
     0
  4
"
 41
3.0
 42
1.5
 43
8.0
 44
1.5
 47
0.1
 48
0.1
 73
     0
 74
     0
 77
     1
 78
     8
 79
     2
140
5.0
141
0.0
143
0.0393701
146
0.6
147
1.0
172
     1
176
   256
177
   256
178
   256
271
     2
272
     2
283
     0
284
     8
340
60C
371
    -1
372
    -1
  0
DIMSTYLE
105
86
330
A
100
AcDbSymbolTableRecord
100
AcDbDimStyleTableRecord
  2
AM_ISO$SF
 70
     0
  4
"
 41
2.5
 42
1.0
 43
10.0
 44
1.0
 47
0.1
 48
0.1
 73
     0
 74
     0
 75
     1
 76
     1
 77
     1
 78
     8
 79
     2
140
3.5
141
0.0
143
0.0393701
146
0.71
147
1.5
172
     1
176
   256
177
   256
178
     2
271
     2
272
     3
274
     4
283
     0
284
     8
340
11
371
    -1
372
    -1
  0
DIMSTYLE
105
8B
330
A
100
AcDbSymbolTableRecord
100
AcDbDimStyleTableRecord
  2
AM_ISO$SH
 70
     0
  4
"
 41
2.5
 42
1.0
 43
10.0
 44
1.0
 47
0.1
 48
0.1
 73
     0
 74
     0
 75
     1
 76
     1
 77
     1
 78
     8
 79
     2
140
3.5
141
0.0
143
0.0393701
144
2.0
146
0.71
147
1.5
172
     1
173
     1
176
   256
177
   256
178
     2
271
     2
272
     3
274
     4
283
     0
284
     8
340
11
343
87
371
    -1
372
    -1
  0
DIMSTYLE
105
40B
330
A
100
AcDbSymbolTableRecord
100
AcDbDimStyleTableRecord
  2
AM_ISO$0
 70
     0
  4
"
 41
3.0
 42
1.5
 43
8.0
 44
1.5
 47
0.1
 48
0.1
 73
     0
 74
     0
 77
     1
 78
     8
 79
     2
140
3.0
141
0.0
143
0.0393701
146
0.6
147
1.0
172
     1
176
   256
177
   256
178
   256
271
     2
272
     2
283
     0
284
     8
340
60C
371
    -1
372
    -1
  0
DIMSTYLE
105
DAF
102
{ACAD_REACTORS
330
1654
330
1658
330
165C
330
165F
330
1660
330
1661
330
1667
330
1668
330
168B
330
168E
330
169A
330
16A8
330
16AF
330
16F6
330
16F7
330
1701
330
1713
330
1714
330
1726
330
175A
330
176F
330
1772
330
1773
330
1783
330
1786
330
17A1
330
1B93
330
1BB9
330
1B47
330
1C14
330
1B6D
330
1C47
102
}
330
A
100
AcDbSymbolTableRecord
100
AcDbDimStyleTableRecord
  2
Standard
 70
     0
340
DAB
  0
DIMSTYLE
105
DB0
330
A
100
AcDbSymbolTableRecord
100
AcDbDimStyleTableRecord
  2
AM_ANSI
 70
     0
  4
mm
 41
0.1
 42
0.05
 43
0.5
 44
0.1
 47
0.1
 48
0.1
 78
     7
 79
     2
140
0.12
141
0.0
146
0.71
147
0.06
176
   256
177
   256
178
     2
274
     4
284
     7
340
DAB
371
    -1
372
    -1
  0
DIMSTYLE
105
DB1
330
A
100
AcDbSymbolTableRecord
100
AcDbDimStyleTableRecord
  2
AM_ANSI$3
 70
     0
  4
mm
 41
0.1
 42
0.05
 43
0.5
 44
0.1
 47
0.1
 48
0.1
 78
     7
 79
     2
140
0.12
141
0.0
146
0.71
147
0.06
176
   256
177
   256
178
     2
274
     4
284
     7
288
     1
289
     0
340
DAB
371
    -1
372
    -1
  0
DIMSTYLE
105
DB2
330
A
100
AcDbSymbolTableRecord
100
AcDbDimStyleTableRecord
  2
AM_ANSI$4
 70
     0
  4
mm
 41
0.1
 42
0.05
 43
0.5
 44
0.1
 47
0.1
 48
0.1
 78
     7
 79
     2
140
0.12
141
0.0
146
0.71
147
0.06
176
   256
177
   256
178
     2
274
     4
284
     7
288
     1
289
     0
340
DAB
371
    -1
372
    -1
  0
DIMSTYLE
105
DB3
330
A
100
AcDbSymbolTableRecord
100
AcDbDimStyleTableRecord
  2
AM_ANSI$7
 70
     0
  4
mm
 41
0.1
 42
0.05
 43
0.5
 44
0.1
 47
0.1
 48
0.1
 78
     7
 79
     2
140
0.24
141
0.0
146
0.71
147
0.06
176
   256
177
   256
178
     2
274
     4
284
     7
340
DAB
371
    -1
372
    -1
  0
DIMSTYLE
105
DB4
330
A
100
AcDbSymbolTableRecord
100
AcDbDimStyleTableRecord
  2
AM_ANSI$SF
 70
     0
  4
mm
 41
0.1
 42
0.05
 43
0.5
 44
0.1
 47
0.1
 48
0.1
 75
     1
 76
     1
 78
     7
 79
     2
140
0.12
141
0.0
146
0.71
147
0.06
176
   256
177
   256
178
     2
274
     4
284
     7
340
DAB
371
    -1
372
    -1
  0
DIMSTYLE
105
DB5
330
A
100
AcDbSymbolTableRecord
100
AcDbDimStyleTableRecord
  2
AM_ANSI$SH
 70
     0
  4
mm
 41
0.1
 42
0.05
 43
0.5
 44
0.1
 47
0.1
 48
0.1
 75
     1
 76
     1
 78
     7
 79
     2
140
0.12
141
0.0
146
0.71
147
0.06
173
     1
176
   256
177
   256
178
     2
274
     4
284
     7
340
DAB
343
87
371
    -1
372
    -1
  0
ENDTAB
  0
TABLE
  2
BLOCK_RECORD
  5
1
330
0
100
AcDbSymbolTable
 70
    38
  0
BLOCK_RECORD
  5
1F
102
{ACAD_XDICTIONARY
360
8F
102
}
330
1
100
AcDbSymbolTableRecord
100
AcDbBlockTableRecord
  2
*Model_Space
340
22
  0
BLOCK_RECORD
  5
1B
330
1
100
AcDbSymbolTableRecord
100
AcDbBlockTableRecord
  2
*Paper_Space
340
1E
  0
BLOCK_RECORD
  5
23
330
1
100
AcDbSymbolTableRecord
100
AcDbBlockTableRecord
  2
*Paper_Space0
340
26
  0
BLOCK_RECORD
  5
87
330
1
100
AcDbSymbolTableRecord
100
AcDbBlockTableRecord
  2
GENAXEH
340
0
  0
BLOCK_RECORD
  5
1818
330
1
100
AcDbSymbolTableRecord
100
AcDbBlockTableRecord
  2
*D3
340
0
  0
BLOCK_RECORD
  5
1824
330
1
100
AcDbSymbolTableRecord
100
AcDbBlockTableRecord
  2
*D4
340
0
  0
BLOCK_RECORD
  5
182F
330
1
100
AcDbSymbolTableRecord
100
AcDbBlockTableRecord
  2
*D5
340
0
  0
BLOCK_RECORD
  5
183B
330
1
100
AcDbSymbolTableRecord
100
AcDbBlockTableRecord
  2
*D6
340
0
  0
BLOCK_RECORD
  5
1847
330
1
100
AcDbSymbolTableRecord
100
AcDbBlockTableRecord
  2
*D7
340
0
  0
BLOCK_RECORD
  5
1853
330
1
100
AcDbSymbolTableRecord
100
AcDbBlockTableRecord
  2
*D8
340
0
  0
BLOCK_RECORD
  5
185F
330
1
100
AcDbSymbolTableRecord
100
AcDbBlockTableRecord
  2
*D9
340
0
  0
BLOCK_RECORD
  5
186B
330
1
100
AcDbSymbolTableRecord
100
AcDbBlockTableRecord
  2
*D10
340
0
  0
BLOCK_RECORD
  5
1877
330
1
100
AcDbSymbolTableRecord
100
AcDbBlockTableRecord
  2
*D11
340
0
  0
BLOCK_RECORD
  5
1883
330
1
100
AcDbSymbolTableRecord
100
AcDbBlockTableRecord
  2
*D12
340
0
  0
BLOCK_RECORD
  5
188F
330
1
100
AcDbSymbolTableRecord
100
AcDbBlockTableRecord
  2
*D13
340
0
  0
BLOCK_RECORD
  5
189B
330
1
100
AcDbSymbolTableRecord
100
AcDbBlockTableRecord
  2
*D14
340
0
  0
BLOCK_RECORD
  5
18A7
330
1
100
AcDbSymbolTableRecord
100
AcDbBlockTableRecord
  2
*D15
340
0
  0
BLOCK_RECORD
  5
18B5
330
1
100
AcDbSymbolTableRecord
100
AcDbBlockTableRecord
  2
*D16
340
0
  0
BLOCK_RECORD
  5
18C0
330
1
100
AcDbSymbolTableRecord
100
AcDbBlockTableRecord
  2
*D17
340
0
  0
BLOCK_RECORD
  5
18CC
330
1
100
AcDbSymbolTableRecord
100
AcDbBlockTableRecord
  2
*D18
340
0
  0
BLOCK_RECORD
  5
18D8
330
1
100
AcDbSymbolTableRecord
100
AcDbBlockTableRecord
  2
*D19
340
0
  0
BLOCK_RECORD
  5
18E4
330
1
100
AcDbSymbolTableRecord
100
AcDbBlockTableRecord
  2
*D20
340
0
  0
BLOCK_RECORD
  5
18F0
330
1
100
AcDbSymbolTableRecord
100
AcDbBlockTableRecord
  2
*D21
340
0
  0
BLOCK_RECORD
  5
18FC
330
1
100
AcDbSymbolTableRecord
100
AcDbBlockTableRecord
  2
*D22
340
0
  0
BLOCK_RECORD
  5
1908
330
1
100
AcDbSymbolTableRecord
100
AcDbBlockTableRecord
  2
*D23
340
0
  0
BLOCK_RECORD
  5
1914
330
1
100
AcDbSymbolTableRecord
100
AcDbBlockTableRecord
  2
*D24
340
0
  0
BLOCK_RECORD
  5
1920
330
1
100
AcDbSymbolTableRecord
100
AcDbBlockTableRecord
  2
*D25
340
0
  0
BLOCK_RECORD
  5
192C
330
1
100
AcDbSymbolTableRecord
100
AcDbBlockTableRecord
  2
*D26
340
0
  0
BLOCK_RECORD
  5
1938
330
1
100
AcDbSymbolTableRecord
100
AcDbBlockTableRecord
  2
*D27
340
0
  0
BLOCK_RECORD
  5
1944
330
1
100
AcDbSymbolTableRecord
100
AcDbBlockTableRecord
  2
*D28
340
0
  0
BLOCK_RECORD
  5
1AFD
330
1
100
AcDbSymbolTableRecord
100
AcDbBlockTableRecord
  2
*U30
340
0
  0
BLOCK_RECORD
  5
1B48
330
1
100
AcDbSymbolTableRecord
100
AcDbBlockTableRecord
  2
*D31
340
0
  0
BLOCK_RECORD
  5
1B6E
330
1
100
AcDbSymbolTableRecord
100
AcDbBlockTableRecord
  2
*D32
340
0
  0
BLOCK_RECORD
  5
1B94
330
1
100
AcDbSymbolTableRecord
100
AcDbBlockTableRecord
  2
*D33
340
0
  0
BLOCK_RECORD
  5
1BBA
330
1
100
AcDbSymbolTableRecord
100
AcDbBlockTableRecord
  2
*D34
340
0
  0
BLOCK_RECORD
  5
1C15
330
1
100
AcDbSymbolTableRecord
100
AcDbBlockTableRecord
  2
*D35
340
0
  0
BLOCK_RECORD
  5
1C48
330
1
100
AcDbSymbolTableRecord
100
AcDbBlockTableRecord
  2
*D36
340
0
  0
ENDTAB
  0
ENDSEC
  0
SECTION
  2
BLOCKS
  0
BLOCK
  5
20
330
1F
100
AcDbEntity
  8
0
100
AcDbBlockBegin
  2
*Model_Space
 70
     0
 10
0.0
 20
0.0
 30
0.0
  3
*Model_Space
  1

  0
ENDBLK
  5
21
330
1F
100
AcDbEntity
  8
0
100
AcDbBlockEnd
  0
BLOCK
  5
1C
330
1B
100
AcDbEntity
 67
     1
  8
0
100
AcDbBlockBegin
  2
*Paper_Space
 70
     0
 10
0.0
 20
0.0
 30
0.0
  3
*Paper_Space
  1

  0
ENDBLK
  5
1D
330
1B
100
AcDbEntity
 67
     1
  8
0
100
AcDbBlockEnd
  0
BLOCK
  5
24
330
23
100
AcDbEntity
  8
0
100
AcDbBlockBegin
  2
*Paper_Space0
 70
     0
 10
0.0
 20
0.0
 30
0.0
  3
*Paper_Space0
  1

  0
ENDBLK
  5
25
330
23
100
AcDbEntity
  8
0
100
AcDbBlockEnd
  0
BLOCK
  5
89
330
87
100
AcDbEntity
  8
0
100
AcDbBlockBegin
  2
GENAXEH
 70
     0
 10
0.0
 20
0.0
 30
0.0
  3
GENAXEH
  1

  0
LINE
  5
88
330
87
100
AcDbEntity
  8
0
100
AcDbLine
 10
-1.0
 20
0.0
 30
0.0
 11
1.0
 21
0.0
 31
0.0
  0
ENDBLK
  5
8A
330
87
100
AcDbEntity
  8
0
100
AcDbBlockEnd
  0
BLOCK
  5
1822
330
1818
100
AcDbEntity
  8
0
100
AcDbBlockBegin
  2
*D3
 70
     1
 10
0.0
 20
0.0
 30
0.0
  3
*D3
  1

  0
LINE
  5
21BE
330
1818
100
AcDbEntity
  8
Dim
100
AcDbLine
 10
775.9430052576275
 20
724.8763082477056
 30
0.0
 11
775.9430052576275
 21
682.8763082477056
 31
0.0
  0
LINE
  5
21BF
330
1818
100
AcDbEntity
  8
Dim
100
AcDbLine
 10
831.9430052576276
 20
724.8763082477056
 30
0.0
 11
831.9430052576276
 21
682.8763082477056
 31
0.0
  0
LINE
  5
21C0
330
1818
100
AcDbEntity
  8
Dim
100
AcDbLine
 10
777.9430052576275
 20
683.8763082477056
 30
0.0
 11
829.9430052576274
 21
683.8763082477056
 31
0.0
  0
SOLID
  5
21C1
330
1818
100
AcDbEntity
  8
Dim
100
AcDbTrace
 10
777.9430052576275
 20
684.209641581039
 30
0.0
 11
777.9430052576275
 21
683.5429749143722
 31
0.0
 12
775.9430052576275
 22
683.8763082477056
 32
0.0
 13
775.9430052576275
 23
683.8763082477056
 33
0.0
  0
SOLID
  5
21C2
330
1818
100
AcDbEntity
  8
Dim
100
AcDbTrace
 10
829.9430052576274
 20
684.209641581039
 30
0.0
 11
829.9430052576274
 21
683.5429749143722
 31
0.0
 12
831.9430052576276
 22
683.8763082477056
 32
0.0
 13
831.9430052576276
 23
683.8763082477056
 33
0.0
  0
MTEXT
  5
21C3
330
1818
100
AcDbEntity
  8
Dim
100
AcDbMText
 10
803.9430052576275
 20
686.1263082477056
 30
0.0
 40
2.5
 41
0.0
 71
     5
 72
     1
  1
\A1;56
  7
China
 73
     1
 44
1.0
1001
ACAD
1000
MTEXTBEGIN
1070
    73
1070
     1
1070
    44
1040
1.0
1070
    74
1070
     0
1000
MTEXTEND
  0
POINT
  5
21C4
330
1818
100
AcDbEntity
  8
Defpoints
 62
     0
100
AcDbPoint
 10
775.9430052576275
 20
725.8763082477056
 30
0.0
  0
POINT
  5
21C5
330
1818
100
AcDbEntity
  8
Defpoints
 62
     0
100
AcDbPoint
 10
831.9430052576276
 20
725.8763082477056
 30
0.0
  0
POINT
  5
21C6
330
1818
100
AcDbEntity
  8
Defpoints
 62
     0
100
AcDbPoint
 10
831.9430052576276
 20
683.8763082477056
 30
0.0
  0
ENDBLK
  5
1823
330
1818
100
AcDbEntity
  8
0
100
AcDbBlockEnd
  0
BLOCK
  5
182D
330
1824
100
AcDbEntity
  8
0
100
AcDbBlockBegin
  2
*D4
 70
     1
 10
0.0
 20
0.0
 30
0.0
  3
*D4
  1

  0
LINE
  5
2017
330
1824
100
AcDbEntity
  8
Dim
100
AcDbLine
 10
596.7274383333593
 20
703.8763082477056
 30
0.0
 11
573.6793449176652
 21
703.8763082477056
 31
0.0
  0
LINE
  5
2018
330
1824
100
AcDbEntity
  8
Dim
100
AcDbLine
 10
574.6793449176652
 20
743.8763082477056
 30
0.0
 11
574.6793449176652
 21
705.8763082477057
 31
0.0
  0
SOLID
  5
2019
330
1824
100
AcDbEntity
  8
Dim
100
AcDbTrace
 10
574.3460115843318
 20
743.8763082477056
 30
0.0
 11
575.0126782509986
 21
743.8763082477056
 31
0.0
 12
574.6793449176652
 22
745.8763082477056
 32
0.0
 13
574.6793449176652
 23
745.8763082477056
 33
0.0
  0
SOLID
  5
201A
330
1824
100
AcDbEntity
  8
Dim
100
AcDbTrace
 10
574.3460115843318
 20
705.8763082477057
 30
0.0
 11
575.0126782509986
 21
705.8763082477057
 31
0.0
 12
574.6793449176652
 22
703.8763082477056
 32
0.0
 13
574.6793449176652
 23
703.8763082477056
 33
0.0
  0
MTEXT
  5
201B
330
1824
100
AcDbEntity
  8
Dim
100
AcDbMText
 10
572.4293449176651
 20
724.8763082477057
 30
0.0
 40
2.5
 41
0.0
 71
     5
 72
     1
  1
\A1;42
  7
China
 11
0.0000000000000001
 21
1.0
 31
0.0
 73
     1
 44
1.0
1001
ACAD
1000
MTEXTBEGIN
1070
    73
1070
     1
1070
    44
1040
1.0
1070
    74
1070
     0
1000
MTEXTEND
  0
POINT
  5
201C
330
1824
100
AcDbEntity
  8
Defpoints
 62
     0
100
AcDbPoint
 10
574.6793449176654
 20
745.8763082477056
 30
0.0
  0
POINT
  5
201D
330
1824
100
AcDbEntity
  8
Defpoints
 62
     0
100
AcDbPoint
 10
597.7274383333593
 20
703.8763082477056
 30
0.0
  0
POINT
  5
201E
330
1824
100
AcDbEntity
  8
Defpoints
 62
     0
100
AcDbPoint
 10
574.6793449176652
 20
703.8763082477056
 30
0.0
  0
ENDBLK
  5
182E
330
1824
100
AcDbEntity
  8
0
100
AcDbBlockEnd
  0
BLOCK
  5
1839
330
182F
100
AcDbEntity
  8
0
100
AcDbBlockBegin
  2
*D5
 70
     1
 10
0.0
 20
0.0
 30
0.0
  3
*D5
  1

  0
LINE
  5
21C7
330
182F
100
AcDbEntity
  8
Dim
100
AcDbLine
 10
785.9430052576275
 20
729.2763082477057
 30
0.0
 11
785.9430052576275
 21
690.8763082477056
 31
0.0
  0
LINE
  5
21C8
330
182F
100
AcDbEntity
  8
Dim
100
AcDbLine
 10
821.9430052576274
 20
789.5463082477057
 30
0.0
 11
821.9430052576274
 21
690.8763082477056
 31
0.0
  0
LINE
  5
21C9
330
182F
100
AcDbEntity
  8
Dim
100
AcDbLine
 10
787.9430052576275
 20
691.8763082477056
 30
0.0
 11
819.9430052576275
 21
691.8763082477056
 31
0.0
  0
SOLID
  5
21CA
330
182F
100
AcDbEntity
  8
Dim
100
AcDbTrace
 10
787.9430052576275
 20
692.209641581039
 30
0.0
 11
787.9430052576275
 21
691.5429749143722
 31
0.0
 12
785.9430052576275
 22
691.8763082477056
 32
0.0
 13
785.9430052576275
 23
691.8763082477056
 33
0.0
  0
SOLID
  5
21CB
330
182F
100
AcDbEntity
  8
Dim
100
AcDbTrace
 10
819.9430052576275
 20
692.209641581039
 30
0.0
 11
819.9430052576275
 21
691.5429749143722
 31
0.0
 12
821.9430052576274
 22
691.8763082477056
 32
0.0
 13
821.9430052576274
 23
691.8763082477056
 33
0.0
  0
MTEXT
  5
21CC
330
182F
100
AcDbEntity
  8
Dim
100
AcDbMText
 10
803.9430052576275
 20
694.1263082477056
 30
0.0
 40
2.5
 41
0.0
 71
     5
 72
     1
  1
\A1;36
  7
China
 73
     1
 44
1.0
1001
ACAD
1000
MTEXTBEGIN
1070
    73
1070
     1
1070
    44
1040
1.0
1070
    74
1070
     0
1000
MTEXTEND
  0
POINT
  5
21CD
330
182F
100
AcDbEntity
  8
Defpoints
 62
     0
100
AcDbPoint
 10
785.9430052576275
 20
730.2763082477057
 30
0.0
  0
POINT
  5
21CE
330
182F
100
AcDbEntity
  8
Defpoints
 62
     0
100
AcDbPoint
 10
821.9430052576274
 20
790.5463082477057
 30
0.0
  0
POINT
  5
21CF
330
182F
100
AcDbEntity
  8
Defpoints
 62
     0
100
AcDbPoint
 10
821.9430052576274
 20
691.8763082477056
 30
0.0
  0
ENDBLK
  5
183A
330
182F
100
AcDbEntity
  8
0
100
AcDbBlockEnd
  0
BLOCK
  5
1845
330
183B
100
AcDbEntity
  8
0
100
AcDbBlockBegin
  2
*D6
 70
     1
 10
0.0
 20
0.0
 30
0.0
  3
*D6
  1

  0
LINE
  5
1FBD
330
183B
100
AcDbEntity
  8
Dim
100
AcDbLine
 10
1047.712259046308
 20
840.8763082477056
 30
0.0
 11
1047.712259046308
 21
858.8763082477056
 31
0.0
  0
LINE
  5
1FBE
330
183B
100
AcDbEntity
  8
Dim
100
AcDbLine
 10
1071.712259046308
 20
843.2063082477057
 30
0.0
 11
1071.712259046308
 21
858.8763082477056
 31
0.0
  0
LINE
  5
1FBF
330
183B
100
AcDbEntity
  8
Dim
100
AcDbLine
 10
1049.712259046309
 20
857.8763082477056
 30
0.0
 11
1069.712259046308
 21
857.8763082477056
 31
0.0
  0
SOLID
  5
1FC0
330
183B
100
AcDbEntity
  8
Dim
100
AcDbTrace
 10
1049.712259046309
 20
858.209641581039
 30
0.0
 11
1049.712259046309
 21
857.5429749143722
 31
0.0
 12
1047.712259046308
 22
857.8763082477056
 32
0.0
 13
1047.712259046308
 23
857.8763082477056
 33
0.0
  0
SOLID
  5
1FC1
330
183B
100
AcDbEntity
  8
Dim
100
AcDbTrace
 10
1069.712259046308
 20
858.209641581039
 30
0.0
 11
1069.712259046308
 21
857.5429749143722
 31
0.0
 12
1071.712259046308
 22
857.8763082477056
 32
0.0
 13
1071.712259046308
 23
857.8763082477056
 33
0.0
  0
MTEXT
  5
1FC2
330
183B
100
AcDbEntity
  8
Dim
100
AcDbMText
 10
1059.712259046309
 20
860.1263082477057
 30
0.0
 40
2.5
 41
0.0
 71
     5
 72
     1
  1
\A1;24
  7
China
 73
     1
 44
1.0
1001
ACAD
1000
MTEXTBEGIN
1070
    73
1070
     1
1070
    44
1040
1.0
1070
    74
1070
     0
1000
MTEXTEND
  0
POINT
  5
1FC3
330
183B
100
AcDbEntity
  8
Defpoints
 62
     0
100
AcDbPoint
 10
1047.712259046308
 20
839.8763082477056
 30
0.0
  0
POINT
  5
1FC4
330
183B
100
AcDbEntity
  8
Defpoints
 62
     0
100
AcDbPoint
 10
1071.712259046308
 20
842.2063082477057
 30
0.0
  0
POINT
  5
1FC5
330
183B
100
AcDbEntity
  8
Defpoints
 62
     0
100
AcDbPoint
 10
1071.712259046308
 20
857.8763082477056
 30
0.0
  0
ENDBLK
  5
1846
330
183B
100
AcDbEntity
  8
0
100
AcDbBlockEnd
  0
BLOCK
  5
1851
330
1847
100
AcDbEntity
  8
0
100
AcDbBlockBegin
  2
*D7
 70
     1
 10
0.0
 20
0.0
 30
0.0
  3
*D7
  1

  0
LINE
  5
1FC6
330
1847
100
AcDbEntity
  8
Dim
100
AcDbLine
 10
1081.712259046308
 20
846.8763082477057
 30
0.0
 11
1081.712259046308
 21
866.8763082477056
 31
0.0
  0
LINE
  5
1FC7
330
1847
100
AcDbEntity
  8
Dim
100
AcDbLine
 10
1037.712259046308
 20
846.8763082477057
 30
0.0
 11
1037.712259046308
 21
866.8763082477056
 31
0.0
  0
LINE
  5
1FC8
330
1847
100
AcDbEntity
  8
Dim
100
AcDbLine
 10
1079.712259046308
 20
865.8763082477056
 30
0.0
 11
1039.712259046308
 21
865.8763082477056
 31
0.0
  0
SOLID
  5
1FC9
330
1847
100
AcDbEntity
  8
Dim
100
AcDbTrace
 10
1079.712259046308
 20
866.209641581039
 30
0.0
 11
1079.712259046308
 21
865.5429749143722
 31
0.0
 12
1081.712259046308
 22
865.8763082477056
 32
0.0
 13
1081.712259046308
 23
865.8763082477056
 33
0.0
  0
SOLID
  5
1FCA
330
1847
100
AcDbEntity
  8
Dim
100
AcDbTrace
 10
1039.712259046308
 20
866.209641581039
 30
0.0
 11
1039.712259046308
 21
865.5429749143722
 31
0.0
 12
1037.712259046308
 22
865.8763082477056
 32
0.0
 13
1037.712259046308
 23
865.8763082477056
 33
0.0
  0
MTEXT
  5
1FCB
330
1847
100
AcDbEntity
  8
Dim
100
AcDbMText
 10
1059.712259046309
 20
868.1263082477057
 30
0.0
 40
2.5
 41
0.0
 71
     5
 72
     1
  1
\A1;44
  7
China
 73
     1
 44
1.0
1001
ACAD
1000
MTEXTBEGIN
1070
    73
1070
     1
1070
    44
1040
1.0
1070
    74
1070
     0
1000
MTEXTEND
  0
POINT
  5
1FCC
330
1847
100
AcDbEntity
  8
Defpoints
 62
     0
100
AcDbPoint
 10
1081.712259046308
 20
845.8763082477057
 30
0.0
  0
POINT
  5
1FCD
330
1847
100
AcDbEntity
  8
Defpoints
 62
     0
100
AcDbPoint
 10
1037.712259046308
 20
845.8763082477057
 30
0.0
  0
POINT
  5
1FCE
330
1847
100
AcDbEntity
  8
Defpoints
 62
     0
100
AcDbPoint
 10
1037.712259046308
 20
865.8763082477056
 30
0.0
  0
ENDBLK
  5
1852
330
1847
100
AcDbEntity
  8
0
100
AcDbBlockEnd
  0
BLOCK
  5
185D
330
1853
100
AcDbEntity
  8
0
100
AcDbBlockBegin
  2
*D8
 70
     1
 10
0.0
 20
0.0
 30
0.0
  3
*D8
  1

  0
LINE
  5
1FCF
330
1853
100
AcDbEntity
  8
Dim
100
AcDbLine
 10
1026.212259046308
 20
825.8763082477056
 30
0.0
 11
1026.212259046308
 21
874.8763082477056
 31
0.0
  0
LINE
  5
1FD0
330
1853
100
AcDbEntity
  8
Dim
100
AcDbLine
 10
1093.212259046308
 20
825.8763082477056
 30
0.0
 11
1093.212259046308
 21
874.8763082477056
 31
0.0
  0
LINE
  5
1FD1
330
1853
100
AcDbEntity
  8
Dim
100
AcDbLine
 10
1028.212259046308
 20
873.8763082477056
 30
0.0
 11
1091.212259046308
 21
873.8763082477056
 31
0.0
  0
SOLID
  5
1FD2
330
1853
100
AcDbEntity
  8
Dim
100
AcDbTrace
 10
1028.212259046308
 20
874.209641581039
 30
0.0
 11
1028.212259046308
 21
873.5429749143722
 31
0.0
 12
1026.212259046308
 22
873.8763082477056
 32
0.0
 13
1026.212259046308
 23
873.8763082477056
 33
0.0
  0
SOLID
  5
1FD3
330
1853
100
AcDbEntity
  8
Dim
100
AcDbTrace
 10
1091.212259046308
 20
874.209641581039
 30
0.0
 11
1091.212259046308
 21
873.5429749143722
 31
0.0
 12
1093.212259046308
 22
873.8763082477056
 32
0.0
 13
1093.212259046308
 23
873.8763082477056
 33
0.0
  0
MTEXT
  5
1FD4
330
1853
100
AcDbEntity
  8
Dim
100
AcDbMText
 10
1059.712259046309
 20
876.1263082477055
 30
0.0
 40
2.5
 41
0.0
 71
     5
 72
     1
  1
\A1;67
  7
China
 73
     1
 44
1.0
1001
ACAD
1000
MTEXTBEGIN
1070
    73
1070
     1
1070
    44
1040
1.0
1070
    74
1070
     0
1000
MTEXTEND
  0
POINT
  5
1FD5
330
1853
100
AcDbEntity
  8
Defpoints
 62
     0
100
AcDbPoint
 10
1026.212259046308
 20
824.8763082477056
 30
0.0
  0
POINT
  5
1FD6
330
1853
100
AcDbEntity
  8
Defpoints
 62
     0
100
AcDbPoint
 10
1093.212259046308
 20
824.8763082477056
 30
0.0
  0
POINT
  5
1FD7
330
1853
100
AcDbEntity
  8
Defpoints
 62
     0
100
AcDbPoint
 10
1093.212259046308
 20
873.8763082477056
 30
0.0
  0
ENDBLK
  5
185E
330
1853
100
AcDbEntity
  8
0
100
AcDbBlockEnd
  0
BLOCK
  5
1869
330
185F
100
AcDbEntity
  8
0
100
AcDbBlockBegin
  2
*D9
 70
     1
 10
0.0
 20
0.0
 30
0.0
  3
*D9
  1

  0
LINE
  5
2028
330
185F
100
AcDbEntity
  8
Dim
100
AcDbLine
 10
597.7274383333593
 20
702.8763082477056
 30
0.0
 11
597.7274383333593
 21
682.8763082477056
 31
0.0
  0
LINE
  5
2029
330
185F
100
AcDbEntity
  8
Dim
100
AcDbLine
 10
633.7274383333594
 20
702.8763082477056
 30
0.0
 11
633.7274383333594
 21
682.8763082477056
 31
0.0
  0
LINE
  5
202A
330
185F
100
AcDbEntity
  8
Dim
100
AcDbLine
 10
599.7274383333594
 20
683.8763082477056
 30
0.0
 11
631.7274383333593
 21
683.8763082477056
 31
0.0
  0
SOLID
  5
202B
330
185F
100
AcDbEntity
  8
Dim
100
AcDbTrace
 10
599.7274383333594
 20
684.209641581039
 30
0.0
 11
599.7274383333594
 21
683.5429749143722
 31
0.0
 12
597.7274383333593
 22
683.8763082477056
 32
0.0
 13
597.7274383333593
 23
683.8763082477056
 33
0.0
  0
SOLID
  5
202C
330
185F
100
AcDbEntity
  8
Dim
100
AcDbTrace
 10
631.7274383333593
 20
684.209641581039
 30
0.0
 11
631.7274383333593
 21
683.5429749143722
 31
0.0
 12
633.7274383333594
 22
683.8763082477056
 32
0.0
 13
633.7274383333594
 23
683.8763082477056
 33
0.0
  0
MTEXT
  5
202D
330
185F
100
AcDbEntity
  8
Dim
100
AcDbMText
 10
615.7274383333593
 20
686.1263082477056
 30
0.0
 40
2.5
 41
0.0
 71
     5
 72
     1
  1
\A1;36
  7
China
 73
     1
 44
1.0
1001
ACAD
1000
MTEXTBEGIN
1070
    73
1070
     1
1070
    44
1040
1.0
1070
    74
1070
     0
1000
MTEXTEND
  0
POINT
  5
202E
330
185F
100
AcDbEntity
  8
Defpoints
 62
     0
100
AcDbPoint
 10
597.7274383333593
 20
703.8763082477056
 30
0.0
  0
POINT
  5
202F
330
185F
100
AcDbEntity
  8
Defpoints
 62
     0
100
AcDbPoint
 10
633.7274383333594
 20
703.8763082477056
 30
0.0
  0
POINT
  5
2030
330
185F
100
AcDbEntity
  8
Defpoints
 62
     0
100
AcDbPoint
 10
633.7274383333594
 20
683.8763082477056
 30
0.0
  0
ENDBLK
  5
186A
330
185F
100
AcDbEntity
  8
0
100
AcDbBlockEnd
  0
BLOCK
  5
1875
330
186B
100
AcDbEntity
  8
0
100
AcDbBlockBegin
  2
*D10
 70
     1
 10
0.0
 20
0.0
 30
0.0
  3
*D10
  1

  0
LINE
  5
2194
330
186B
100
AcDbEntity
  8
Dim
100
AcDbLine
 10
600.7274383333593
 20
702.8763082477056
 30
0.0
 11
600.7274383333593
 21
690.8763082477056
 31
0.0
  0
LINE
  5
2195
330
186B
100
AcDbEntity
  8
Dim
100
AcDbLine
 10
630.7274383333593
 20
702.8763082477056
 30
0.0
 11
630.7274383333593
 21
690.8763082477056
 31
0.0
  0
LINE
  5
2196
330
186B
100
AcDbEntity
  8
Dim
100
AcDbLine
 10
602.7274383333593
 20
691.8763082477056
 30
0.0
 11
628.7274383333594
 21
691.8763082477056
 31
0.0
  0
SOLID
  5
2197
330
186B
100
AcDbEntity
  8
Dim
100
AcDbTrace
 10
602.7274383333593
 20
692.209641581039
 30
0.0
 11
602.7274383333593
 21
691.5429749143722
 31
0.0
 12
600.7274383333593
 22
691.8763082477056
 32
0.0
 13
600.7274383333593
 23
691.8763082477056
 33
0.0
  0
SOLID
  5
2198
330
186B
100
AcDbEntity
  8
Dim
100
AcDbTrace
 10
628.7274383333594
 20
692.209641581039
 30
0.0
 11
628.7274383333594
 21
691.5429749143722
 31
0.0
 12
630.7274383333593
 22
691.8763082477056
 32
0.0
 13
630.7274383333593
 23
691.8763082477056
 33
0.0
  0
MTEXT
  5
2199
330
186B
100
AcDbEntity
  8
Dim
100
AcDbMText
 10
615.7274383333593
 20
694.9471415810389
 30
0.0
 40
2.5
 41
0.0
 71
     5
 72
     1
  1
\A1;30{}{\H0.71x;\C3;\S+0.30^ +0.10;}
  7
China
 73
     1
 44
1.0
1001
ACAD
1000
MTEXTBEGIN
1070
    73
1070
     1
1070
    44
1040
1.0
1070
    74
1070
     0
1000
MTEXTEND
  0
POINT
  5
219A
330
186B
100
AcDbEntity
  8
Defpoints
 62
     0
100
AcDbPoint
 10
600.7274383333593
 20
703.8763082477056
 30
0.0
  0
POINT
  5
219B
330
186B
100
AcDbEntity
  8
Defpoints
 62
     0
100
AcDbPoint
 10
630.7274383333593
 20
703.8763082477056
 30
0.0
  0
POINT
  5
219C
330
186B
100
AcDbEntity
  8
Defpoints
 62
     0
100
AcDbPoint
 10
630.7274383333593
 20
691.8763082477056
 30
0.0
  0
ENDBLK
  5
1876
330
186B
100
AcDbEntity
  8
0
100
AcDbBlockEnd
  0
BLOCK
  5
1881
330
1877
100
AcDbEntity
  8
0
100
AcDbBlockBegin
  2
*D11
 70
     1
 10
0.0
 20
0.0
 30
0.0
  3
*D11
  1

  0
LINE
  5
203A
330
1877
100
AcDbEntity
  8
Dim
100
AcDbLine
 10
585.7274383333593
 20
632.6779528919236
 30
0.0
 11
565.7274383333593
 21
632.6779528919236
 31
0.0
  0
LINE
  5
203B
330
1877
100
AcDbEntity
  8
Dim
100
AcDbLine
 10
585.7274383333593
 20
587.6779528919236
 30
0.0
 11
565.7274383333593
 21
587.6779528919236
 31
0.0
  0
LINE
  5
203C
330
1877
100
AcDbEntity
  8
Dim
100
AcDbLine
 10
566.7274383333594
 20
630.6779528919236
 30
0.0
 11
566.7274383333594
 21
589.6779528919235
 31
0.0
  0
SOLID
  5
203D
330
1877
100
AcDbEntity
  8
Dim
100
AcDbTrace
 10
566.394105000026
 20
630.6779528919236
 30
0.0
 11
567.0607716666927
 21
630.6779528919236
 31
0.0
 12
566.7274383333594
 22
632.6779528919236
 32
0.0
 13
566.7274383333594
 23
632.6779528919236
 33
0.0
  0
SOLID
  5
203E
330
1877
100
AcDbEntity
  8
Dim
100
AcDbTrace
 10
566.394105000026
 20
589.6779528919235
 30
0.0
 11
567.0607716666927
 21
589.6779528919235
 31
0.0
 12
566.7274383333594
 22
587.6779528919236
 32
0.0
 13
566.7274383333594
 23
587.6779528919236
 33
0.0
  0
MTEXT
  5
203F
330
1877
100
AcDbEntity
  8
Dim
100
AcDbMText
 10
564.4774383333592
 20
610.1779528919237
 30
0.0
 40
2.5
 41
0.0
 71
     5
 72
     1
  1
\A1;45
  7
China
 11
0.0000000000000001
 21
1.0
 31
0.0
 73
     1
 44
1.0
1001
ACAD
1000
MTEXTBEGIN
1070
    73
1070
     1
1070
    44
1040
1.0
1070
    74
1070
     0
1000
MTEXTEND
  0
POINT
  5
2040
330
1877
100
AcDbEntity
  8
Defpoints
 62
     0
100
AcDbPoint
 10
586.7274383333593
 20
632.6779528919236
 30
0.0
  0
POINT
  5
2041
330
1877
100
AcDbEntity
  8
Defpoints
 62
     0
100
AcDbPoint
 10
586.7274383333593
 20
587.6779528919236
 30
0.0
  0
POINT
  5
2042
330
1877
100
AcDbEntity
  8
Defpoints
 62
     0
100
AcDbPoint
 10
566.7274383333594
 20
587.6779528919236
 30
0.0
  0
ENDBLK
  5
1882
330
1877
100
AcDbEntity
  8
0
100
AcDbBlockEnd
  0
BLOCK
  5
188D
330
1883
100
AcDbEntity
  8
0
100
AcDbBlockBegin
  2
*D12
 70
     1
 10
0.0
 20
0.0
 30
0.0
  3
*D12
  1

  0
LINE
  5
2043
330
1883
100
AcDbEntity
  8
Dim
100
AcDbLine
 10
596.7274383333593
 20
643.6779528919235
 30
0.0
 11
557.7274383333594
 21
643.6779528919235
 31
0.0
  0
LINE
  5
2044
330
1883
100
AcDbEntity
  8
Dim
100
AcDbLine
 10
596.7274383333593
 20
576.6779528919236
 30
0.0
 11
557.7274383333594
 21
576.6779528919236
 31
0.0
  0
LINE
  5
2045
330
1883
100
AcDbEntity
  8
Dim
100
AcDbLine
 10
558.7274383333594
 20
641.6779528919236
 30
0.0
 11
558.7274383333594
 21
578.6779528919236
 31
0.0
  0
SOLID
  5
2046
330
1883
100
AcDbEntity
  8
Dim
100
AcDbTrace
 10
558.394105000026
 20
641.6779528919236
 30
0.0
 11
559.0607716666927
 21
641.6779528919236
 31
0.0
 12
558.7274383333594
 22
643.6779528919235
 32
0.0
 13
558.7274383333594
 23
643.6779528919235
 33
0.0
  0
SOLID
  5
2047
330
1883
100
AcDbEntity
  8
Dim
100
AcDbTrace
 10
558.394105000026
 20
578.6779528919236
 30
0.0
 11
559.0607716666927
 21
578.6779528919236
 31
0.0
 12
558.7274383333594
 22
576.6779528919236
 32
0.0
 13
558.7274383333594
 23
576.6779528919236
 33
0.0
  0
MTEXT
  5
2048
330
1883
100
AcDbEntity
  8
Dim
100
AcDbMText
 10
556.4774383333592
 20
610.1779528919237
 30
0.0
 40
2.5
 41
0.0
 71
     5
 72
     1
  1
\A1;67
  7
China
 11
0.0000000000000001
 21
1.0
 31
0.0
 73
     1
 44
1.0
1001
ACAD
1000
MTEXTBEGIN
1070
    73
1070
     1
1070
    44
1040
1.0
1070
    74
1070
     0
1000
MTEXTEND
  0
POINT
  5
2049
330
1883
100
AcDbEntity
  8
Defpoints
 62
     0
100
AcDbPoint
 10
597.7274383333593
 20
643.6779528919235
 30
0.0
  0
POINT
  5
204A
330
1883
100
AcDbEntity
  8
Defpoints
 62
     0
100
AcDbPoint
 10
597.7274383333593
 20
576.6779528919236
 30
0.0
  0
POINT
  5
204B
330
1883
100
AcDbEntity
  8
Defpoints
 62
     0
100
AcDbPoint
 10
558.7274383333594
 20
576.6779528919236
 30
0.0
  0
ENDBLK
  5
188E
330
1883
100
AcDbEntity
  8
0
100
AcDbBlockEnd
  0
BLOCK
  5
1899
330
188F
100
AcDbEntity
  8
0
100
AcDbBlockBegin
  2
*D13
 70
     1
 10
0.0
 20
0.0
 30
0.0
  3
*D13
  1

  0
LINE
  5
204C
330
188F
100
AcDbEntity
  8
Dim
100
AcDbLine
 10
608.2374383333593
 20
624.1779528919236
 30
0.0
 11
573.7274383333593
 21
624.1779528919236
 31
0.0
  0
LINE
  5
204D
330
188F
100
AcDbEntity
  8
Dim
100
AcDbLine
 10
607.5344383333593
 20
596.1779528919236
 30
0.0
 11
573.7274383333593
 21
596.1779528919236
 31
0.0
  0
LINE
  5
204E
330
188F
100
AcDbEntity
  8
Dim
100
AcDbLine
 10
574.7274383333594
 20
622.1779528919236
 30
0.0
 11
574.7274383333594
 21
598.1779528919235
 31
0.0
  0
SOLID
  5
204F
330
188F
100
AcDbEntity
  8
Dim
100
AcDbTrace
 10
574.394105000026
 20
622.1779528919236
 30
0.0
 11
575.0607716666927
 21
622.1779528919236
 31
0.0
 12
574.7274383333594
 22
624.1779528919236
 32
0.0
 13
574.7274383333594
 23
624.1779528919236
 33
0.0
  0
SOLID
  5
2050
330
188F
100
AcDbEntity
  8
Dim
100
AcDbTrace
 10
574.394105000026
 20
598.1779528919235
 30
0.0
 11
575.0607716666927
 21
598.1779528919235
 31
0.0
 12
574.7274383333594
 22
596.1779528919236
 32
0.0
 13
574.7274383333594
 23
596.1779528919236
 33
0.0
  0
MTEXT
  5
2051
330
188F
100
AcDbEntity
  8
Dim
100
AcDbMText
 10
572.4774383333592
 20
610.1779528919237
 30
0.0
 40
2.5
 41
0.0
 71
     5
 72
     1
  1
\A1;28
  7
China
 11
0.0000000000000001
 21
1.0
 31
0.0
 73
     1
 44
1.0
1001
ACAD
1000
MTEXTBEGIN
1070
    73
1070
     1
1070
    44
1040
1.0
1070
    74
1070
     0
1000
MTEXTEND
  0
POINT
  5
2052
330
188F
100
AcDbEntity
  8
Defpoints
 62
     0
100
AcDbPoint
 10
609.2374383333593
 20
624.1779528919236
 30
0.0
  0
POINT
  5
2053
330
188F
100
AcDbEntity
  8
Defpoints
 62
     0
100
AcDbPoint
 10
608.5344383333594
 20
596.1779528919236
 30
0.0
  0
POINT
  5
2054
330
188F
100
AcDbEntity
  8
Defpoints
 62
     0
100
AcDbPoint
 10
574.7274383333594
 20
596.1779528919236
 30
0.0
  0
ENDBLK
  5
189A
330
188F
100
AcDbEntity
  8
0
100
AcDbBlockEnd
  0
BLOCK
  5
18A5
330
189B
100
AcDbEntity
  8
0
100
AcDbBlockBegin
  2
*D14
 70
     1
 10
0.0
 20
0.0
 30
0.0
  3
*D14
  1

  0
LINE
  5
2055
330
189B
100
AcDbEntity
  8
Dim
100
AcDbLine
 10
589.1591490376364
 20
703.8763082477056
 30
0.0
 11
581.2392471418385
 21
703.8763082477056
 31
0.0
  0
LINE
  5
2056
330
189B
100
AcDbEntity
  8
Dim
100
AcDbLine
 10
596.7274383333593
 20
715.8763082477056
 30
0.0
 11
581.2392471418385
 21
715.8763082477056
 31
0.0
  0
LINE
  5
2057
330
189B
100
AcDbEntity
  8
Dim
100
AcDbLine
 10
582.2392471418385
 20
705.8763082477057
 30
0.0
 11
582.2392471418385
 21
713.8763082477056
 31
0.0
  0
SOLID
  5
2058
330
189B
100
AcDbEntity
  8
Dim
100
AcDbTrace
 10
581.9059138085051
 20
705.8763082477057
 30
0.0
 11
582.5725804751718
 21
705.8763082477057
 31
0.0
 12
582.2392471418385
 22
703.8763082477056
 32
0.0
 13
582.2392471418385
 23
703.8763082477056
 33
0.0
  0
SOLID
  5
2059
330
189B
100
AcDbEntity
  8
Dim
100
AcDbTrace
 10
581.9059138085051
 20
713.8763082477056
 30
0.0
 11
582.5725804751718
 21
713.8763082477056
 31
0.0
 12
582.2392471418385
 22
715.8763082477056
 32
0.0
 13
582.2392471418385
 23
715.8763082477056
 33
0.0
  0
MTEXT
  5
205A
330
189B
100
AcDbEntity
  8
Dim
100
AcDbMText
 10
579.9892471418384
 20
709.8763082477058
 30
0.0
 40
2.5
 41
0.0
 71
     5
 72
     1
  1
\A1;12
  7
China
 11
0.0000000000000001
 21
1.0
 31
0.0
 73
     1
 44
1.0
1001
ACAD
1000
MTEXTBEGIN
1070
    73
1070
     1
1070
    44
1040
1.0
1070
    74
1070
     0
1000
MTEXTEND
  0
POINT
  5
205B
330
189B
100
AcDbEntity
  8
Defpoints
 62
     0
100
AcDbPoint
 10
590.1591490376364
 20
703.8763082477056
 30
0.0
  0
POINT
  5
205C
330
189B
100
AcDbEntity
  8
Defpoints
 62
     0
100
AcDbPoint
 10
597.7274383333593
 20
715.8763082477056
 30
0.0
  0
POINT
  5
205D
330
189B
100
AcDbEntity
  8
Defpoints
 62
     0
100
AcDbPoint
 10
582.2392471418385
 20
715.8763082477056
 30
0.0
  0
ENDBLK
  5
18A6
330
189B
100
AcDbEntity
  8
0
100
AcDbBlockEnd
  0
BLOCK
  5
18B3
330
18A7
100
AcDbEntity
  8
0
100
AcDbBlockBegin
  2
*D15
 70
     1
 10
0.0
 20
0.0
 30
0.0
  3
*D15
  1

  0
LINE
  5
205E
330
18A7
100
AcDbEntity
  8
Dim
100
AcDbLine
 10
596.7274383333593
 20
703.8763082477056
 30
0.0
 11
589.1591490376364
 21
703.8763082477056
 31
0.0
  0
LINE
  5
205F
330
18A7
100
AcDbEntity
  8
Dim
100
AcDbLine
 10
599.7274383333594
 20
706.8763082477056
 30
0.0
 11
589.1591490376364
 21
706.8763082477056
 31
0.0
  0
LINE
  5
2060
330
18A7
100
AcDbEntity
  8
Dim
100
AcDbLine
 10
590.1591490376364
 20
701.8763082477057
 30
0.0
 11
590.1591490376364
 21
699.8763082477056
 31
0.0
  0
LINE
  5
2061
330
18A7
100
AcDbEntity
  8
Dim
100
AcDbLine
 10
590.1591490376364
 20
708.8763082477056
 30
0.0
 11
590.1591490376364
 21
710.8763082477056
 31
0.0
  0
LINE
  5
2062
330
18A7
100
AcDbEntity
  8
Dim
100
AcDbLine
 10
590.1591490376364
 20
703.8763082477056
 30
0.0
 11
590.1591490376364
 21
706.8763082477056
 31
0.0
  0
SOLID
  5
2063
330
18A7
100
AcDbEntity
  8
Dim
100
AcDbTrace
 10
589.825815704303
 20
701.8763082477057
 30
0.0
 11
590.4924823709698
 21
701.8763082477057
 31
0.0
 12
590.1591490376364
 22
703.8763082477056
 32
0.0
 13
590.1591490376364
 23
703.8763082477056
 33
0.0
  0
SOLID
  5
2064
330
18A7
100
AcDbEntity
  8
Dim
100
AcDbTrace
 10
589.825815704303
 20
708.8763082477056
 30
0.0
 11
590.4924823709698
 21
708.8763082477056
 31
0.0
 12
590.1591490376364
 22
706.8763082477056
 32
0.0
 13
590.1591490376364
 23
706.8763082477056
 33
0.0
  0
MTEXT
  5
2065
330
18A7
100
AcDbEntity
  8
Dim
100
AcDbMText
 10
587.9091490376363
 20
705.3763082477058
 30
0.0
 40
2.5
 41
0.0
 71
     5
 72
     1
  1
\A1;3
  7
China
 11
0.0000000000000001
 21
1.0
 31
0.0
 73
     1
 44
1.0
1001
ACAD
1000
MTEXTBEGIN
1070
    73
1070
     1
1070
    44
1040
1.0
1070
    74
1070
     0
1000
MTEXTEND
  0
POINT
  5
2066
330
18A7
100
AcDbEntity
  8
Defpoints
 62
     0
100
AcDbPoint
 10
597.7274383333593
 20
703.8763082477056
 30
0.0
  0
POINT
  5
2067
330
18A7
100
AcDbEntity
  8
Defpoints
 62
     0
100
AcDbPoint
 10
600.7274383333593
 20
706.8763082477056
 30
0.0
  0
POINT
  5
2068
330
18A7
100
AcDbEntity
  8
Defpoints
 62
     0
100
AcDbPoint
 10
590.1591490376364
 20
706.8763082477056
 30
0.0
  0
ENDBLK
  5
18B4
330
18A7
100
AcDbEntity
  8
0
100
AcDbBlockEnd
  0
BLOCK
  5
18BE
330
18B5
100
AcDbEntity
  8
0
100
AcDbBlockBegin
  2
*D16
 70
     1
 10
0.0
 20
0.0
 30
0.0
  3
*D16
  1

  0
LINE
  5
2069
330
18B5
100
AcDbEntity
  8
Dim
100
AcDbLine
 10
677.2274383333593
 20
592.8479528919236
 30
0.0
 11
677.2274383333593
 21
570.1779528919236
 31
0.0
  0
LINE
  5
206A
330
18B5
100
AcDbEntity
  8
Dim
100
AcDbLine
 10
643.7274383333593
 20
612.0579528919237
 30
0.0
 11
643.7274383333593
 21
570.1779528919236
 31
0.0
  0
LINE
  5
206B
330
18B5
100
AcDbEntity
  8
Dim
100
AcDbLine
 10
675.2274383333594
 20
571.1779528919236
 30
0.0
 11
645.7274383333594
 21
571.1779528919236
 31
0.0
  0
SOLID
  5
206C
330
18B5
100
AcDbEntity
  8
Dim
100
AcDbTrace
 10
675.2274383333594
 20
571.511286225257
 30
0.0
 11
675.2274383333594
 21
570.8446195585902
 31
0.0
 12
677.2274383333593
 22
571.1779528919236
 32
0.0
 13
677.2274383333593
 23
571.1779528919236
 33
0.0
  0
SOLID
  5
206D
330
18B5
100
AcDbEntity
  8
Dim
100
AcDbTrace
 10
645.7274383333594
 20
571.511286225257
 30
0.0
 11
645.7274383333594
 21
570.8446195585902
 31
0.0
 12
643.7274383333593
 22
571.1779528919236
 32
0.0
 13
643.7274383333593
 23
571.1779528919236
 33
0.0
  0
MTEXT
  5
206E
330
18B5
100
AcDbEntity
  8
Dim
100
AcDbMText
 10
660.4774383333594
 20
573.4279528919236
 30
0.0
 40
2.5
 41
0.0
 71
     5
 72
     1
  1
\A1;33.5
  7
China
 73
     1
 44
1.0
1001
ACAD
1000
MTEXTBEGIN
1070
    73
1070
     1
1070
    44
1040
1.0
1070
    74
1070
     0
1000
MTEXTEND
  0
POINT
  5
206F
330
18B5
100
AcDbEntity
  8
Defpoints
 62
     0
100
AcDbPoint
 10
677.2274383333593
 20
593.8479528919237
 30
0.0
  0
POINT
  5
2070
330
18B5
100
AcDbEntity
  8
Defpoints
 62
     0
100
AcDbPoint
 10
643.7274383333593
 20
613.0579528919237
 30
0.0
  0
POINT
  5
2071
330
18B5
100
AcDbEntity
  8
Defpoints
 62
     0
100
AcDbPoint
 10
643.7274383333593
 20
571.1779528919236
 30
0.0
  0
ENDBLK
  5
18BF
330
18B5
100
AcDbEntity
  8
0
100
AcDbBlockEnd
  0
BLOCK
  5
18CA
330
18C0
100
AcDbEntity
  8
0
100
AcDbBlockBegin
  2
*D17
 70
     1
 10
0.0
 20
0.0
 30
0.0
  3
*D17
  1

  0
LINE
  5
2072
330
18C0
100
AcDbEntity
  8
Dim
100
AcDbLine
 10
677.2274383333593
 20
592.8479528919236
 30
0.0
 11
677.2274383333593
 21
570.1779528919236
 31
0.0
  0
LINE
  5
2073
330
18C0
100
AcDbEntity
  8
Dim
100
AcDbLine
 10
691.2274383333594
 20
582.1779528919235
 30
0.0
 11
691.2274383333594
 21
570.1779528919236
 31
0.0
  0
LINE
  5
2074
330
18C0
100
AcDbEntity
  8
Dim
100
AcDbLine
 10
679.2274383333594
 20
571.1779528919236
 30
0.0
 11
689.2274383333593
 21
571.1779528919236
 31
0.0
  0
SOLID
  5
2075
330
18C0
100
AcDbEntity
  8
Dim
100
AcDbTrace
 10
679.2274383333594
 20
571.511286225257
 30
0.0
 11
679.2274383333594
 21
570.8446195585902
 31
0.0
 12
677.2274383333593
 22
571.1779528919236
 32
0.0
 13
677.2274383333593
 23
571.1779528919236
 33
0.0
  0
SOLID
  5
2076
330
18C0
100
AcDbEntity
  8
Dim
100
AcDbTrace
 10
689.2274383333593
 20
571.511286225257
 30
0.0
 11
689.2274383333593
 21
570.8446195585902
 31
0.0
 12
691.2274383333594
 22
571.1779528919236
 32
0.0
 13
691.2274383333594
 23
571.1779528919236
 33
0.0
  0
MTEXT
  5
2077
330
18C0
100
AcDbEntity
  8
Dim
100
AcDbMText
 10
684.2274383333593
 20
573.4279528919236
 30
0.0
 40
2.5
 41
0.0
 71
     5
 72
     1
  1
\A1;14
  7
China
 73
     1
 44
1.0
1001
ACAD
1000
MTEXTBEGIN
1070
    73
1070
     1
1070
    44
1040
1.0
1070
    74
1070
     0
1000
MTEXTEND
  0
POINT
  5
2078
330
18C0
100
AcDbEntity
  8
Defpoints
 62
     0
100
AcDbPoint
 10
677.2274383333593
 20
593.8479528919237
 30
0.0
  0
POINT
  5
2079
330
18C0
100
AcDbEntity
  8
Defpoints
 62
     0
100
AcDbPoint
 10
691.2274383333594
 20
583.1779528919236
 30
0.0
  0
POINT
  5
207A
330
18C0
100
AcDbEntity
  8
Defpoints
 62
     0
100
AcDbPoint
 10
691.2274383333594
 20
571.1779528919236
 30
0.0
  0
ENDBLK
  5
18CB
330
18C0
100
AcDbEntity
  8
0
100
AcDbBlockEnd
  0
BLOCK
  5
18D6
330
18CC
100
AcDbEntity
  8
0
100
AcDbBlockBegin
  2
*D18
 70
     1
 10
0.0
 20
0.0
 30
0.0
  3
*D18
  1

  0
LINE
  5
207B
330
18CC
100
AcDbEntity
  8
Dim
100
AcDbLine
 10
685.9334383333593
 20
600.1779528919236
 30
0.0
 11
707.3866294823671
 21
600.1779528919236
 31
0.0
  0
LINE
  5
207C
330
18CC
100
AcDbEntity
  8
Dim
100
AcDbLine
 10
653.1144383333593
 20
620.1779528919236
 30
0.0
 11
707.3866294823671
 21
620.1779528919236
 31
0.0
  0
LINE
  5
207D
330
18CC
100
AcDbEntity
  8
Dim
100
AcDbLine
 10
706.3866294823671
 20
602.1779528919235
 30
0.0
 11
706.3866294823671
 21
618.1779528919236
 31
0.0
  0
SOLID
  5
207E
330
18CC
100
AcDbEntity
  8
Dim
100
AcDbTrace
 10
706.0532961490337
 20
602.1779528919235
 30
0.0
 11
706.7199628157005
 21
602.1779528919235
 31
0.0
 12
706.3866294823671
 22
600.1779528919236
 32
0.0
 13
706.3866294823671
 23
600.1779528919236
 33
0.0
  0
SOLID
  5
207F
330
18CC
100
AcDbEntity
  8
Dim
100
AcDbTrace
 10
706.0532961490337
 20
618.1779528919236
 30
0.0
 11
706.7199628157005
 21
618.1779528919236
 31
0.0
 12
706.3866294823671
 22
620.1779528919236
 32
0.0
 13
706.3866294823671
 23
620.1779528919236
 33
0.0
  0
MTEXT
  5
2080
330
18CC
100
AcDbEntity
  8
Dim
100
AcDbMText
 10
704.1366294823669
 20
610.1779528919237
 30
0.0
 40
2.5
 41
0.0
 71
     5
 72
     1
  1
\A1;20
  7
China
 11
0.0000000000000001
 21
1.0
 31
0.0
 73
     1
 44
1.0
1001
ACAD
1000
MTEXTBEGIN
1070
    73
1070
     1
1070
    44
1040
1.0
1070
    74
1070
     0
1000
MTEXTEND
  0
POINT
  5
2081
330
18CC
100
AcDbEntity
  8
Defpoints
 62
     0
100
AcDbPoint
 10
684.9334383333594
 20
600.1779528919236
 30
0.0
  0
POINT
  5
2082
330
18CC
100
AcDbEntity
  8
Defpoints
 62
     0
100
AcDbPoint
 10
652.1144383333592
 20
620.1779528919236
 30
0.0
  0
POINT
  5
2083
330
18CC
100
AcDbEntity
  8
Defpoints
 62
     0
100
AcDbPoint
 10
706.3866294823671
 20
620.1779528919236
 30
0.0
  0
ENDBLK
  5
18D7
330
18CC
100
AcDbEntity
  8
0
100
AcDbBlockEnd
  0
BLOCK
  5
18E2
330
18D8
100
AcDbEntity
  8
0
100
AcDbBlockBegin
  2
*D19
 70
     1
 10
0.0
 20
0.0
 30
0.0
  3
*D19
  1

  0
LINE
  5
2084
330
18D8
100
AcDbEntity
  8
Dim
100
AcDbLine
 10
691.2274383333594
 20
834.4144864920298
 30
0.0
 11
691.2274383333594
 21
848.2396567377286
 31
0.0
  0
LINE
  5
2085
330
18D8
100
AcDbEntity
  8
Dim
100
AcDbLine
 10
586.7274383333593
 20
790.8663082477056
 30
0.0
 11
586.7274383333593
 21
848.2396567377286
 31
0.0
  0
LINE
  5
2086
330
18D8
100
AcDbEntity
  8
Dim
100
AcDbLine
 10
689.2274383333593
 20
847.2396567377286
 30
0.0
 11
588.7274383333593
 21
847.2396567377286
 31
0.0
  0
SOLID
  5
2087
330
18D8
100
AcDbEntity
  8
Dim
100
AcDbTrace
 10
689.2274383333593
 20
847.572990071062
 30
0.0
 11
689.2274383333593
 21
846.9063234043952
 31
0.0
 12
691.2274383333594
 22
847.2396567377286
 32
0.0
 13
691.2274383333594
 23
847.2396567377286
 33
0.0
  0
SOLID
  5
2088
330
18D8
100
AcDbEntity
  8
Dim
100
AcDbTrace
 10
588.7274383333593
 20
847.572990071062
 30
0.0
 11
588.7274383333593
 21
846.9063234043952
 31
0.0
 12
586.7274383333593
 22
847.2396567377286
 32
0.0
 13
586.7274383333593
 23
847.2396567377286
 33
0.0
  0
MTEXT
  5
2089
330
18D8
100
AcDbEntity
  8
Dim
100
AcDbMText
 10
638.9774383333594
 20
849.4896567377287
 30
0.0
 40
2.5
 41
0.0
 71
     5
 72
     1
  1
\A1;104.5
  7
China
 73
     1
 44
1.0
1001
ACAD
1000
MTEXTBEGIN
1070
    73
1070
     1
1070
    44
1040
1.0
1070
    74
1070
     0
1000
MTEXTEND
  0
POINT
  5
208A
330
18D8
100
AcDbEntity
  8
Defpoints
 62
     0
100
AcDbPoint
 10
691.2274383333594
 20
833.4144864920299
 30
0.0
  0
POINT
  5
208B
330
18D8
100
AcDbEntity
  8
Defpoints
 62
     0
100
AcDbPoint
 10
586.7274383333593
 20
789.8663082477057
 30
0.0
  0
POINT
  5
208C
330
18D8
100
AcDbEntity
  8
Defpoints
 62
     0
100
AcDbPoint
 10
586.7274383333593
 20
847.2396567377286
 30
0.0
  0
ENDBLK
  5
18E3
330
18D8
100
AcDbEntity
  8
0
100
AcDbBlockEnd
  0
BLOCK
  5
18EE
330
18E4
100
AcDbEntity
  8
0
100
AcDbBlockBegin
  2
*D20
 70
     1
 10
0.0
 20
0.0
 30
0.0
  3
*D20
  1

  0
LINE
  5
208D
330
18E4
100
AcDbEntity
  8
Dim
100
AcDbLine
 10
691.2274383333594
 20
824.1562272850377
 30
0.0
 11
691.2274383333594
 21
840.2396567377286
 31
0.0
  0
LINE
  5
208E
330
18E4
100
AcDbEntity
  8
Dim
100
AcDbLine
 10
615.7274383333593
 20
830.6063082477056
 30
0.0
 11
615.7274383333593
 21
840.2396567377286
 31
0.0
  0
LINE
  5
208F
330
18E4
100
AcDbEntity
  8
Dim
100
AcDbLine
 10
689.2274383333593
 20
839.2396567377286
 30
0.0
 11
617.7274383333593
 21
839.2396567377286
 31
0.0
  0
SOLID
  5
2090
330
18E4
100
AcDbEntity
  8
Dim
100
AcDbTrace
 10
689.2274383333593
 20
839.572990071062
 30
0.0
 11
689.2274383333593
 21
838.9063234043952
 31
0.0
 12
691.2274383333594
 22
839.2396567377286
 32
0.0
 13
691.2274383333594
 23
839.2396567377286
 33
0.0
  0
SOLID
  5
2091
330
18E4
100
AcDbEntity
  8
Dim
100
AcDbTrace
 10
617.7274383333593
 20
839.572990071062
 30
0.0
 11
617.7274383333593
 21
838.9063234043952
 31
0.0
 12
615.7274383333593
 22
839.2396567377286
 32
0.0
 13
615.7274383333593
 23
839.2396567377286
 33
0.0
  0
MTEXT
  5
2092
330
18E4
100
AcDbEntity
  8
Dim
100
AcDbMText
 10
653.4774383333593
 20
841.4896567377287
 30
0.0
 40
2.5
 41
0.0
 71
     5
 72
     1
  1
\A1;75.5
  7
China
 73
     1
 44
1.0
1001
ACAD
1000
MTEXTBEGIN
1070
    73
1070
     1
1070
    44
1040
1.0
1070
    74
1070
     0
1000
MTEXTEND
  0
POINT
  5
2093
330
18E4
100
AcDbEntity
  8
Defpoints
 62
     0
100
AcDbPoint
 10
691.2274383333594
 20
823.1562272850377
 30
0.0
  0
POINT
  5
2094
330
18E4
100
AcDbEntity
  8
Defpoints
 62
     0
100
AcDbPoint
 10
615.7274383333593
 20
829.6063082477056
 30
0.0
  0
POINT
  5
2095
330
18E4
100
AcDbEntity
  8
Defpoints
 62
     0
100
AcDbPoint
 10
615.7274383333593
 20
839.2396567377286
 30
0.0
  0
ENDBLK
  5
18EF
330
18E4
100
AcDbEntity
  8
0
100
AcDbBlockEnd
  0
BLOCK
  5
18FA
330
18F0
100
AcDbEntity
  8
0
100
AcDbBlockBegin
  2
*D21
 70
     1
 10
0.0
 20
0.0
 30
0.0
  3
*D21
  1

  0
LINE
  5
2096
330
18F0
100
AcDbEntity
  8
Dim
100
AcDbLine
 10
602.0914383333594
 20
785.8763082477056
 30
0.0
 11
573.6793449176655
 21
785.8763082477056
 31
0.0
  0
LINE
  5
2097
330
18F0
100
AcDbEntity
  8
Dim
100
AcDbLine
 10
595.8864383333593
 20
745.8763082477056
 30
0.0
 11
573.6793449176653
 21
745.8763082477056
 31
0.0
  0
LINE
  5
2098
330
18F0
100
AcDbEntity
  8
Dim
100
AcDbLine
 10
574.6793449176655
 20
783.8763082477056
 30
0.0
 11
574.6793449176654
 21
747.8763082477057
 31
0.0
  0
SOLID
  5
2099
330
18F0
100
AcDbEntity
  8
Dim
100
AcDbTrace
 10
574.3460115843321
 20
783.8763082477056
 30
0.0
 11
575.0126782509989
 21
783.8763082477056
 31
0.0
 12
574.6793449176655
 22
785.8763082477056
 32
0.0
 13
574.6793449176655
 23
785.8763082477056
 33
0.0
  0
SOLID
  5
209A
330
18F0
100
AcDbEntity
  8
Dim
100
AcDbTrace
 10
574.346011584332
 20
747.8763082477057
 30
0.0
 11
575.0126782509987
 21
747.8763082477057
 31
0.0
 12
574.6793449176654
 22
745.8763082477056
 32
0.0
 13
574.6793449176654
 23
745.8763082477056
 33
0.0
  0
MTEXT
  5
209B
330
18F0
100
AcDbEntity
  8
Dim
100
AcDbMText
 10
572.4293449176652
 20
765.8763082477057
 30
0.0
 40
2.5
 41
0.0
 71
     5
 72
     1
  1
\A1;40
  7
China
 11
0.0000000000000001
 21
1.0
 31
0.0
 73
     1
 44
1.0
1001
ACAD
1000
MTEXTBEGIN
1070
    73
1070
     1
1070
    44
1040
1.0
1070
    74
1070
     0
1000
MTEXTEND
  0
POINT
  5
209C
330
18F0
100
AcDbEntity
  8
Defpoints
 62
     0
100
AcDbPoint
 10
603.0914383333594
 20
785.8763082477056
 30
0.0
  0
POINT
  5
209D
330
18F0
100
AcDbEntity
  8
Defpoints
 62
     0
100
AcDbPoint
 10
596.8864383333594
 20
745.8763082477056
 30
0.0
  0
POINT
  5
209E
330
18F0
100
AcDbEntity
  8
Defpoints
 62
     0
100
AcDbPoint
 10
574.6793449176654
 20
745.8763082477056
 30
0.0
  0
ENDBLK
  5
18FB
330
18F0
100
AcDbEntity
  8
0
100
AcDbBlockEnd
  0
BLOCK
  5
1906
330
18FC
100
AcDbEntity
  8
0
100
AcDbBlockBegin
  2
*D22
 70
     1
 10
0.0
 20
0.0
 30
0.0
  3
*D22
  1

  0
LINE
  5
209F
330
18FC
100
AcDbEntity
  8
Dim
100
AcDbLine
 10
692.2274383333594
 20
805.8763082477057
 30
0.0
 11
712.2274383333595
 21
805.8763082477057
 31
0.0
  0
LINE
  5
20A0
330
18FC
100
AcDbEntity
  8
Dim
100
AcDbLine
 10
691.3798695142186
 20
725.8763082477056
 30
0.0
 11
712.2274383333594
 21
725.8763082477056
 31
0.0
  0
LINE
  5
20A1
330
18FC
100
AcDbEntity
  8
Dim
100
AcDbLine
 10
711.2274383333595
 20
803.8763082477057
 30
0.0
 11
711.2274383333593
 21
727.8763082477056
 31
0.0
  0
SOLID
  5
20A2
330
18FC
100
AcDbEntity
  8
Dim
100
AcDbTrace
 10
710.8941050000261
 20
803.8763082477057
 30
0.0
 11
711.5607716666929
 21
803.8763082477057
 31
0.0
 12
711.2274383333595
 22
805.8763082477057
 32
0.0
 13
711.2274383333595
 23
805.8763082477057
 33
0.0
  0
SOLID
  5
20A3
330
18FC
100
AcDbEntity
  8
Dim
100
AcDbTrace
 10
710.894105000026
 20
727.8763082477056
 30
0.0
 11
711.5607716666927
 21
727.8763082477056
 31
0.0
 12
711.2274383333593
 22
725.8763082477056
 32
0.0
 13
711.2274383333593
 23
725.8763082477056
 33
0.0
  0
MTEXT
  5
20A4
330
18FC
100
AcDbEntity
  8
Dim
100
AcDbMText
 10
708.9774383333592
 20
765.8763082477058
 30
0.0
 40
2.5
 41
0.0
 71
     5
 72
     1
  1
\A1;80
  7
China
 11
0.0000000000000001
 21
1.0
 31
0.0
 73
     1
 44
1.0
1001
ACAD
1000
MTEXTBEGIN
1070
    73
1070
     1
1070
    44
1040
1.0
1070
    74
1070
     0
1000
MTEXTEND
  0
POINT
  5
20A5
330
18FC
100
AcDbEntity
  8
Defpoints
 62
     0
100
AcDbPoint
 10
691.2274383333594
 20
805.8763082477057
 30
0.0
  0
POINT
  5
20A6
330
18FC
100
AcDbEntity
  8
Defpoints
 62
     0
100
AcDbPoint
 10
690.3798695142186
 20
725.8763082477056
 30
0.0
  0
POINT
  5
20A7
330
18FC
100
AcDbEntity
  8
Defpoints
 62
     0
100
AcDbPoint
 10
711.2274383333593
 20
725.8763082477056
 30
0.0
  0
ENDBLK
  5
1907
330
18FC
100
AcDbEntity
  8
0
100
AcDbBlockEnd
  0
BLOCK
  5
1912
330
1908
100
AcDbEntity
  8
0
100
AcDbBlockBegin
  2
*D23
 70
     1
 10
0.0
 20
0.0
 30
0.0
  3
*D23
  1

  0
LINE
  5
20ED
330
1908
100
AcDbEntity
  8
Dim
100
AcDbLine
 10
662.9024383333593
 20
792.8763082477056
 30
0.0
 11
704.2274383333595
 21
792.8763082477056
 31
0.0
  0
LINE
  5
20EE
330
1908
100
AcDbEntity
  8
Dim
100
AcDbLine
 10
662.6414383333593
 20
738.8763082477056
 30
0.0
 11
704.2274383333594
 21
738.8763082477056
 31
0.0
  0
LINE
  5
20EF
330
1908
100
AcDbEntity
  8
Dim
100
AcDbLine
 10
703.2274383333595
 20
790.8763082477056
 30
0.0
 11
703.2274383333593
 21
740.8763082477056
 31
0.0
  0
SOLID
  5
20F0
330
1908
100
AcDbEntity
  8
Dim
100
AcDbTrace
 10
702.8941050000261
 20
790.8763082477056
 30
0.0
 11
703.5607716666929
 21
790.8763082477056
 31
0.0
 12
703.2274383333595
 22
792.8763082477056
 32
0.0
 13
703.2274383333595
 23
792.8763082477056
 33
0.0
  0
SOLID
  5
20F1
330
1908
100
AcDbEntity
  8
Dim
100
AcDbTrace
 10
702.894105000026
 20
740.8763082477056
 30
0.0
 11
703.5607716666927
 21
740.8763082477056
 31
0.0
 12
703.2274383333593
 22
738.8763082477056
 32
0.0
 13
703.2274383333593
 23
738.8763082477056
 33
0.0
  0
MTEXT
  5
20F2
330
1908
100
AcDbEntity
  8
Dim
100
AcDbMText
 10
700.9774383333592
 20
765.8763082477057
 30
0.0
 40
2.5
 41
0.0
 71
     5
 72
     1
  1
\A1;54
  7
China
 11
0.0000000000000001
 21
1.0
 31
0.0
 73
     1
 44
1.0
1001
ACAD
1000
MTEXTBEGIN
1070
    73
1070
     1
1070
    44
1040
1.0
1070
    74
1070
     0
1000
MTEXTEND
  0
POINT
  5
20F3
330
1908
100
AcDbEntity
  8
Defpoints
 62
     0
100
AcDbPoint
 10
661.9024383333593
 20
792.8763082477056
 30
0.0
  0
POINT
  5
20F4
330
1908
100
AcDbEntity
  8
Defpoints
 62
     0
100
AcDbPoint
 10
661.6414383333593
 20
738.8763082477056
 30
0.0
  0
POINT
  5
20F5
330
1908
100
AcDbEntity
  8
Defpoints
 62
     0
100
AcDbPoint
 10
703.2274383333593
 20
738.8763082477056
 30
0.0
  0
ENDBLK
  5
1913
330
1908
100
AcDbEntity
  8
0
100
AcDbBlockEnd
  0
BLOCK
  5
191E
330
1914
100
AcDbEntity
  8
0
100
AcDbBlockBegin
  2
*D24
 70
     1
 10
0.0
 20
0.0
 30
0.0
  3
*D24
  1

  0
LINE
  5
20B1
330
1914
100
AcDbEntity
  8
Dim
100
AcDbLine
 10
634.7274383333593
 20
806.8763082477056
 30
0.0
 11
634.7274383333593
 21
832.2396567377285
 31
0.0
  0
LINE
  5
20B2
330
1914
100
AcDbEntity
  8
Dim
100
AcDbLine
 10
691.2274383333594
 20
816.2652632478419
 30
0.0
 11
691.2274383333594
 21
832.2396567377285
 31
0.0
  0
LINE
  5
20B3
330
1914
100
AcDbEntity
  8
Dim
100
AcDbLine
 10
636.7274383333594
 20
831.2396567377286
 30
0.0
 11
689.2274383333593
 21
831.2396567377286
 31
0.0
  0
SOLID
  5
20B4
330
1914
100
AcDbEntity
  8
Dim
100
AcDbTrace
 10
636.7274383333594
 20
831.572990071062
 30
0.0
 11
636.7274383333594
 21
830.9063234043952
 31
0.0
 12
634.7274383333593
 22
831.2396567377286
 32
0.0
 13
634.7274383333593
 23
831.2396567377286
 33
0.0
  0
SOLID
  5
20B5
330
1914
100
AcDbEntity
  8
Dim
100
AcDbTrace
 10
689.2274383333593
 20
831.572990071062
 30
0.0
 11
689.2274383333593
 21
830.9063234043952
 31
0.0
 12
691.2274383333594
 22
831.2396567377286
 32
0.0
 13
691.2274383333594
 23
831.2396567377286
 33
0.0
  0
MTEXT
  5
20B6
330
1914
100
AcDbEntity
  8
Dim
100
AcDbMText
 10
662.9774383333593
 20
833.4896567377287
 30
0.0
 40
2.5
 41
0.0
 71
     5
 72
     1
  1
\A1;56.5
  7
China
 73
     1
 44
1.0
1001
ACAD
1000
MTEXTBEGIN
1070
    73
1070
     1
1070
    44
1040
1.0
1070
    74
1070
     0
1000
MTEXTEND
  0
POINT
  5
20B7
330
1914
100
AcDbEntity
  8
Defpoints
 62
     0
100
AcDbPoint
 10
634.7274383333593
 20
805.8763082477057
 30
0.0
  0
POINT
  5
20B8
330
1914
100
AcDbEntity
  8
Defpoints
 62
     0
100
AcDbPoint
 10
691.2274383333594
 20
815.2652632478419
 30
0.0
  0
POINT
  5
20B9
330
1914
100
AcDbEntity
  8
Defpoints
 62
     0
100
AcDbPoint
 10
691.2274383333594
 20
831.2396567377286
 30
0.0
  0
ENDBLK
  5
191F
330
1914
100
AcDbEntity
  8
0
100
AcDbBlockEnd
  0
BLOCK
  5
192A
330
1920
100
AcDbEntity
  8
0
100
AcDbBlockBegin
  2
*D25
 70
     1
 10
0.0
 20
0.0
 30
0.0
  3
*D25
  1

  0
LINE
  5
20BA
330
1920
100
AcDbEntity
  8
Dim
100
AcDbLine
 10
653.7274383333594
 20
801.1163082477056
 30
0.0
 11
653.7274383333594
 21
824.2396567377285
 31
0.0
  0
LINE
  5
20BB
330
1920
100
AcDbEntity
  8
Dim
100
AcDbLine
 10
691.2274383333594
 20
806.8763082477056
 30
0.0
 11
691.2274383333594
 21
824.2396567377285
 31
0.0
  0
LINE
  5
20BC
330
1920
100
AcDbEntity
  8
Dim
100
AcDbLine
 10
655.7274383333593
 20
823.2396567377286
 30
0.0
 11
689.2274383333593
 21
823.2396567377286
 31
0.0
  0
SOLID
  5
20BD
330
1920
100
AcDbEntity
  8
Dim
100
AcDbTrace
 10
655.7274383333593
 20
823.5729900710619
 30
0.0
 11
655.7274383333593
 21
822.9063234043952
 31
0.0
 12
653.7274383333594
 22
823.2396567377286
 32
0.0
 13
653.7274383333594
 23
823.2396567377286
 33
0.0
  0
SOLID
  5
20BE
330
1920
100
AcDbEntity
  8
Dim
100
AcDbTrace
 10
689.2274383333593
 20
823.5729900710619
 30
0.0
 11
689.2274383333593
 21
822.9063234043952
 31
0.0
 12
691.2274383333594
 22
823.2396567377286
 32
0.0
 13
691.2274383333594
 23
823.2396567377286
 33
0.0
  0
MTEXT
  5
20BF
330
1920
100
AcDbEntity
  8
Dim
100
AcDbMText
 10
672.4774383333594
 20
825.4896567377286
 30
0.0
 40
2.5
 41
0.0
 71
     5
 72
     1
  1
\A1;37.5
  7
China
 73
     1
 44
1.0
1001
ACAD
1000
MTEXTBEGIN
1070
    73
1070
     1
1070
    44
1040
1.0
1070
    74
1070
     0
1000
MTEXTEND
  0
POINT
  5
20C0
330
1920
100
AcDbEntity
  8
Defpoints
 62
     0
100
AcDbPoint
 10
653.7274383333594
 20
800.1163082477056
 30
0.0
  0
POINT
  5
20C1
330
1920
100
AcDbEntity
  8
Defpoints
 62
     0
100
AcDbPoint
 10
691.2274383333594
 20
805.8763082477057
 30
0.0
  0
POINT
  5
20C2
330
1920
100
AcDbEntity
  8
Defpoints
 62
     0
100
AcDbPoint
 10
691.2274383333594
 20
823.2396567377286
 30
0.0
  0
ENDBLK
  5
192B
330
1920
100
AcDbEntity
  8
0
100
AcDbBlockEnd
  0
BLOCK
  5
1936
330
192C
100
AcDbEntity
  8
0
100
AcDbBlockBegin
  2
*D26
 70
     1
 10
0.0
 20
0.0
 30
0.0
  3
*D26
  1

  0
LINE
  5
20C3
330
192C
100
AcDbEntity
  8
Dim
100
AcDbLine
 10
663.7274383333593
 20
902.063882726121
 30
0.0
 11
663.7274383333593
 21
884.933882726121
 31
0.0
  0
LINE
  5
20C4
330
192C
100
AcDbEntity
  8
Dim
100
AcDbLine
 10
691.2274383333594
 20
896.9338827261209
 30
0.0
 11
691.2274383333594
 21
884.933882726121
 31
0.0
  0
LINE
  5
20C5
330
192C
100
AcDbEntity
  8
Dim
100
AcDbLine
 10
665.7274383333593
 20
885.9338827261209
 30
0.0
 11
689.2274383333593
 21
885.9338827261209
 31
0.0
  0
SOLID
  5
20C6
330
192C
100
AcDbEntity
  8
Dim
100
AcDbTrace
 10
665.7274383333593
 20
886.2672160594543
 30
0.0
 11
665.7274383333593
 21
885.6005493927876
 31
0.0
 12
663.7274383333593
 22
885.9338827261209
 32
0.0
 13
663.7274383333593
 23
885.9338827261209
 33
0.0
  0
SOLID
  5
20C7
330
192C
100
AcDbEntity
  8
Dim
100
AcDbTrace
 10
689.2274383333593
 20
886.2672160594543
 30
0.0
 11
689.2274383333593
 21
885.6005493927876
 31
0.0
 12
691.2274383333594
 22
885.9338827261209
 32
0.0
 13
691.2274383333594
 23
885.9338827261209
 33
0.0
  0
MTEXT
  5
20C8
330
192C
100
AcDbEntity
  8
Dim
100
AcDbMText
 10
677.4774383333594
 20
888.1838827261208
 30
0.0
 40
2.5
 41
0.0
 71
     5
 72
     1
  1
\A1;27.5
  7
China
 73
     1
 44
1.0
1001
ACAD
1000
MTEXTBEGIN
1070
    73
1070
     1
1070
    44
1040
1.0
1070
    74
1070
     0
1000
MTEXTEND
  0
POINT
  5
20C9
330
192C
100
AcDbEntity
  8
Defpoints
 62
     0
100
AcDbPoint
 10
663.7274383333593
 20
903.063882726121
 30
0.0
  0
POINT
  5
20CA
330
192C
100
AcDbEntity
  8
Defpoints
 62
     0
100
AcDbPoint
 10
691.2274383333594
 20
897.9338827261209
 30
0.0
  0
POINT
  5
20CB
330
192C
100
AcDbEntity
  8
Defpoints
 62
     0
100
AcDbPoint
 10
691.2274383333594
 20
885.9338827261209
 30
0.0
  0
ENDBLK
  5
1937
330
192C
100
AcDbEntity
  8
0
100
AcDbBlockEnd
  0
BLOCK
  5
1942
330
1938
100
AcDbEntity
  8
0
100
AcDbBlockBegin
  2
*D27
 70
     1
 10
0.0
 20
0.0
 30
0.0
  3
*D27
  1

  0
LINE
  5
20CC
330
1938
100
AcDbEntity
  8
Dim
100
AcDbLine
 10
670.3454383333594
 20
939.9338827261209
 30
0.0
 11
710.434645685929
 21
939.9338827261209
 31
0.0
  0
LINE
  5
20CD
330
1938
100
AcDbEntity
  8
Dim
100
AcDbLine
 10
670.3454383333594
 20
909.933882726121
 30
0.0
 11
710.434645685929
 21
909.933882726121
 31
0.0
  0
LINE
  5
20CE
330
1938
100
AcDbEntity
  8
Dim
100
AcDbLine
 10
709.434645685929
 20
937.9338827261209
 30
0.0
 11
709.434645685929
 21
911.9338827261209
 31
0.0
  0
SOLID
  5
20CF
330
1938
100
AcDbEntity
  8
Dim
100
AcDbTrace
 10
709.1013123525956
 20
937.9338827261209
 30
0.0
 11
709.7679790192623
 21
937.9338827261209
 31
0.0
 12
709.434645685929
 22
939.9338827261209
 32
0.0
 13
709.434645685929
 23
939.9338827261209
 33
0.0
  0
SOLID
  5
20D0
330
1938
100
AcDbEntity
  8
Dim
100
AcDbTrace
 10
709.1013123525956
 20
911.9338827261209
 30
0.0
 11
709.7679790192623
 21
911.9338827261209
 31
0.0
 12
709.434645685929
 22
909.933882726121
 32
0.0
 13
709.434645685929
 23
909.933882726121
 33
0.0
  0
MTEXT
  5
20D1
330
1938
100
AcDbEntity
  8
Dim
100
AcDbMText
 10
707.1846456859288
 20
924.933882726121
 30
0.0
 40
2.5
 41
0.0
 71
     5
 72
     1
  1
\A1;30
  7
China
 11
0.0000000000000001
 21
1.0
 31
0.0
 73
     1
 44
1.0
1001
ACAD
1000
MTEXTBEGIN
1070
    73
1070
     1
1070
    44
1040
1.0
1070
    74
1070
     0
1000
MTEXTEND
  0
POINT
  5
20D2
330
1938
100
AcDbEntity
  8
Defpoints
 62
     0
100
AcDbPoint
 10
669.3454383333594
 20
939.9338827261209
 30
0.0
  0
POINT
  5
20D3
330
1938
100
AcDbEntity
  8
Defpoints
 62
     0
100
AcDbPoint
 10
669.3454383333594
 20
909.933882726121
 30
0.0
  0
POINT
  5
20D4
330
1938
100
AcDbEntity
  8
Defpoints
 62
     0
100
AcDbPoint
 10
709.434645685929
 20
909.933882726121
 30
0.0
  0
ENDBLK
  5
1943
330
1938
100
AcDbEntity
  8
0
100
AcDbBlockEnd
  0
BLOCK
  5
194E
330
1944
100
AcDbEntity
  8
0
100
AcDbBlockBegin
  2
*D28
 70
     1
 10
0.0
 20
0.0
 30
0.0
  3
*D28
  1

  0
LINE
  5
21D0
330
1944
100
AcDbEntity
  8
Dim
100
AcDbLine
 10
828.5430052576273
 20
795.8763082477056
 30
0.0
 11
852.0254355873825
 21
795.8763082477056
 31
0.0
  0
LINE
  5
21D1
330
1944
100
AcDbEntity
  8
Dim
100
AcDbLine
 10
792.3730052576274
 20
735.8763082477056
 30
0.0
 11
852.0254355873825
 21
735.8763082477056
 31
0.0
  0
LINE
  5
21D2
330
1944
100
AcDbEntity
  8
Dim
100
AcDbLine
 10
851.0254355873826
 20
793.8763082477056
 30
0.0
 11
851.0254355873824
 21
737.8763082477056
 31
0.0
  0
SOLID
  5
21D3
330
1944
100
AcDbEntity
  8
Dim
100
AcDbTrace
 10
850.6921022540492
 20
793.8763082477056
 30
0.0
 11
851.358768920716
 21
793.8763082477056
 31
0.0
 12
851.0254355873826
 22
795.8763082477056
 32
0.0
 13
851.0254355873826
 23
795.8763082477056
 33
0.0
  0
SOLID
  5
21D4
330
1944
100
AcDbEntity
  8
Dim
100
AcDbTrace
 10
850.6921022540492
 20
737.8763082477056
 30
0.0
 11
851.3587689207158
 21
737.8763082477056
 31
0.0
 12
851.0254355873824
 22
735.8763082477056
 32
0.0
 13
851.0254355873824
 23
735.8763082477056
 33
0.0
  0
MTEXT
  5
21D5
330
1944
100
AcDbEntity
  8
Dim
100
AcDbMText
 10
848.7754355873823
 20
765.8763082477058
 30
0.0
 40
2.5
 41
0.0
 71
     5
 72
     1
  1
\A1;60
  7
China
 11
0.0000000000000001
 21
1.0
 31
0.0
 73
     1
 44
1.0
1001
ACAD
1000
MTEXTBEGIN
1070
    73
1070
     1
1070
    44
1040
1.0
1070
    74
1070
     0
1000
MTEXTEND
  0
POINT
  5
21D6
330
1944
100
AcDbEntity
  8
Defpoints
 62
     0
100
AcDbPoint
 10
827.5430052576274
 20
795.8763082477056
 30
0.0
  0
POINT
  5
21D7
330
1944
100
AcDbEntity
  8
Defpoints
 62
     0
100
AcDbPoint
 10
791.3730052576275
 20
735.8763082477056
 30
0.0
  0
POINT
  5
21D8
330
1944
100
AcDbEntity
  8
Defpoints
 62
     0
100
AcDbPoint
 10
851.0254355873824
 20
735.8763082477056
 30
0.0
  0
ENDBLK
  5
194F
330
1944
100
AcDbEntity
  8
0
100
AcDbBlockEnd
  0
BLOCK
  5
1AFE
330
1AFD
100
AcDbEntity
  8
0
100
AcDbBlockBegin
  2
*U30
 70
     1
 10
0.0
 20
0.0
 30
0.0
  3
*U30
  1

  0
ENDBLK
  5
1AFF
330
1AFD
100
AcDbEntity
  8
0
100
AcDbBlockEnd
  0
BLOCK
  5
1B52
330
1B48
100
AcDbEntity
  8
0
100
AcDbBlockBegin
  2
*D31
 70
     1
 10
0.0
 20
0.0
 30
0.0
  3
*D31
  1

  0
LINE
  5
2155
330
1B48
100
AcDbEntity
  8
Dim
100
AcDbLine
 10
1192.201935817335
 20
815.8763082477056
 30
0.0
 11
1172.201935817335
 21
815.8763082477056
 31
0.0
  0
LINE
  5
2156
330
1B48
100
AcDbEntity
  8
Dim
100
AcDbLine
 10
1218.201935817335
 20
845.8763082477057
 30
0.0
 11
1172.201935817335
 21
845.8763082477057
 31
0.0
  0
LINE
  5
2157
330
1B48
100
AcDbEntity
  8
Dim
100
AcDbLine
 10
1173.201935817335
 20
817.8763082477056
 30
0.0
 11
1173.201935817335
 21
843.8763082477056
 31
0.0
  0
SOLID
  5
2158
330
1B48
100
AcDbEntity
  8
Dim
100
AcDbTrace
 10
1172.868602484002
 20
817.8763082477056
 30
0.0
 11
1173.535269150668
 21
817.8763082477056
 31
0.0
 12
1173.201935817335
 22
815.8763082477056
 32
0.0
 13
1173.201935817335
 23
815.8763082477056
 33
0.0
  0
SOLID
  5
2159
330
1B48
100
AcDbEntity
  8
Dim
100
AcDbTrace
 10
1172.868602484002
 20
843.8763082477056
 30
0.0
 11
1173.535269150668
 21
843.8763082477056
 31
0.0
 12
1173.201935817335
 22
845.8763082477057
 32
0.0
 13
1173.201935817335
 23
845.8763082477057
 33
0.0
  0
MTEXT
  5
215A
330
1B48
100
AcDbEntity
  8
Dim
100
AcDbMText
 10
1170.951935817335
 20
830.8763082477057
 30
0.0
 40
2.5
 41
0.0
 71
     5
 72
     1
  1
\A1;30
  7
China
 11
0.0000000000000001
 21
1.0
 31
0.0
 73
     1
 44
1.0
1001
ACAD
1000
MTEXTBEGIN
1070
    73
1070
     1
1070
    44
1040
1.0
1070
    74
1070
     0
1000
MTEXTEND
  0
POINT
  5
215B
330
1B48
100
AcDbEntity
  8
Defpoints
 62
     0
100
AcDbPoint
 10
1193.201935817335
 20
815.8763082477056
 30
0.0
  0
POINT
  5
215C
330
1B48
100
AcDbEntity
  8
Defpoints
 62
     0
100
AcDbPoint
 10
1219.201935817335
 20
845.8763082477057
 30
0.0
  0
POINT
  5
215D
330
1B48
100
AcDbEntity
  8
Defpoints
 62
     0
100
AcDbPoint
 10
1173.201935817335
 20
845.8763082477057
 30
0.0
  0
ENDBLK
  5
1B53
330
1B48
100
AcDbEntity
  8
0
100
AcDbBlockEnd
  0
BLOCK
  5
1B78
330
1B6E
100
AcDbEntity
  8
0
100
AcDbBlockBegin
  2
*D32
 70
     1
 10
0.0
 20
0.0
 30
0.0
  3
*D32
  1

  0
LINE
  5
1FE1
330
1B6E
100
AcDbEntity
  8
Dim
100
AcDbLine
 10
1219.201935817335
 20
846.8763082477057
 30
0.0
 11
1219.201935817335
 21
858.8763082477056
 31
0.0
  0
LINE
  5
1FE2
330
1B6E
100
AcDbEntity
  8
Dim
100
AcDbLine
 10
1229.201935817335
 20
846.8763082477057
 30
0.0
 11
1229.201935817335
 21
858.8763082477056
 31
0.0
  0
LINE
  5
1FE3
330
1B6E
100
AcDbEntity
  8
Dim
100
AcDbLine
 10
1221.201935817335
 20
857.8763082477056
 30
0.0
 11
1227.201935817335
 21
857.8763082477056
 31
0.0
  0
SOLID
  5
1FE4
330
1B6E
100
AcDbEntity
  8
Dim
100
AcDbTrace
 10
1221.201935817335
 20
858.209641581039
 30
0.0
 11
1221.201935817335
 21
857.5429749143722
 31
0.0
 12
1219.201935817335
 22
857.8763082477056
 32
0.0
 13
1219.201935817335
 23
857.8763082477056
 33
0.0
  0
SOLID
  5
1FE5
330
1B6E
100
AcDbEntity
  8
Dim
100
AcDbTrace
 10
1227.201935817335
 20
858.209641581039
 30
0.0
 11
1227.201935817335
 21
857.5429749143722
 31
0.0
 12
1229.201935817335
 22
857.8763082477056
 32
0.0
 13
1229.201935817335
 23
857.8763082477056
 33
0.0
  0
MTEXT
  5
1FE6
330
1B6E
100
AcDbEntity
  8
Dim
100
AcDbMText
 10
1224.201935817335
 20
860.1263082477057
 30
0.0
 40
2.5
 41
0.0
 71
     5
 72
     1
  1
\A1;10
  7
China
 73
     1
 44
1.0
1001
ACAD
1000
MTEXTBEGIN
1070
    73
1070
     1
1070
    44
1040
1.0
1070
    74
1070
     0
1000
MTEXTEND
  0
POINT
  5
1FE7
330
1B6E
100
AcDbEntity
  8
Defpoints
 62
     0
100
AcDbPoint
 10
1219.201935817335
 20
845.8763082477057
 30
0.0
  0
POINT
  5
1FE8
330
1B6E
100
AcDbEntity
  8
Defpoints
 62
     0
100
AcDbPoint
 10
1229.201935817335
 20
845.8763082477057
 30
0.0
  0
POINT
  5
1FE9
330
1B6E
100
AcDbEntity
  8
Defpoints
 62
     0
100
AcDbPoint
 10
1229.201935817335
 20
857.8763082477056
 30
0.0
  0
ENDBLK
  5
1B79
330
1B6E
100
AcDbEntity
  8
0
100
AcDbBlockEnd
  0
BLOCK
  5
1B9E
330
1B94
100
AcDbEntity
  8
0
100
AcDbBlockBegin
  2
*D33
 70
     1
 10
0.0
 20
0.0
 30
0.0
  3
*D33
  1

  0
LINE
  5
214C
330
1B94
100
AcDbEntity
  8
Dim
100
AcDbLine
 10
1218.201935817335
 20
845.8763082477057
 30
0.0
 11
1180.201935817335
 21
845.8763082477057
 31
0.0
  0
LINE
  5
214D
330
1B94
100
AcDbEntity
  8
Dim
100
AcDbLine
 10
1192.201935817335
 20
824.8763082477056
 30
0.0
 11
1180.201935817335
 21
824.8763082477056
 31
0.0
  0
LINE
  5
214E
330
1B94
100
AcDbEntity
  8
Dim
100
AcDbLine
 10
1181.201935817335
 20
843.8763082477056
 30
0.0
 11
1181.201935817335
 21
826.8763082477056
 31
0.0
  0
SOLID
  5
214F
330
1B94
100
AcDbEntity
  8
Dim
100
AcDbTrace
 10
1180.868602484002
 20
843.8763082477056
 30
0.0
 11
1181.535269150668
 21
843.8763082477056
 31
0.0
 12
1181.201935817335
 22
845.8763082477057
 32
0.0
 13
1181.201935817335
 23
845.8763082477057
 33
0.0
  0
SOLID
  5
2150
330
1B94
100
AcDbEntity
  8
Dim
100
AcDbTrace
 10
1180.868602484002
 20
826.8763082477056
 30
0.0
 11
1181.535269150668
 21
826.8763082477056
 31
0.0
 12
1181.201935817335
 22
824.8763082477056
 32
0.0
 13
1181.201935817335
 23
824.8763082477056
 33
0.0
  0
MTEXT
  5
2151
330
1B94
100
AcDbEntity
  8
Dim
100
AcDbMText
 10
1178.951935817335
 20
835.3763082477057
 30
0.0
 40
2.5
 41
0.0
 71
     5
 72
     1
  1
\A1;21
  7
China
 11
0.0000000000000001
 21
1.0
 31
0.0
 73
     1
 44
1.0
1001
ACAD
1000
MTEXTBEGIN
1070
    73
1070
     1
1070
    44
1040
1.0
1070
    74
1070
     0
1000
MTEXTEND
  0
POINT
  5
2152
330
1B94
100
AcDbEntity
  8
Defpoints
 62
     0
100
AcDbPoint
 10
1219.201935817335
 20
845.8763082477057
 30
0.0
  0
POINT
  5
2153
330
1B94
100
AcDbEntity
  8
Defpoints
 62
     0
100
AcDbPoint
 10
1193.201935817335
 20
824.8763082477056
 30
0.0
  0
POINT
  5
2154
330
1B94
100
AcDbEntity
  8
Defpoints
 62
     0
100
AcDbPoint
 10
1181.201935817335
 20
824.8763082477056
 30
0.0
  0
ENDBLK
  5
1B9F
330
1B94
100
AcDbEntity
  8
0
100
AcDbBlockEnd
  0
BLOCK
  5
1BC4
330
1BBA
100
AcDbEntity
  8
0
100
AcDbBlockBegin
  2
*D34
 70
     1
 10
0.0
 20
0.0
 30
0.0
  3
*D34
  1

  0
LINE
  5
216E
330
1BBA
100
AcDbEntity
  8
Dim
100
AcDbLine
 10
1218.201935817335
 20
845.8763082477057
 30
0.0
 11
1164.201935817335
 21
845.8763082477057
 31
0.0
  0
LINE
  5
216F
330
1BBA
100
AcDbEntity
  8
Dim
100
AcDbLine
 10
1197.561935817335
 20
785.8763082477056
 30
0.0
 11
1164.201935817335
 21
785.8763082477056
 31
0.0
  0
LINE
  5
2170
330
1BBA
100
AcDbEntity
  8
Dim
100
AcDbLine
 10
1165.201935817335
 20
843.8763082477056
 30
0.0
 11
1165.201935817335
 21
787.8763082477056
 31
0.0
  0
SOLID
  5
2171
330
1BBA
100
AcDbEntity
  8
Dim
100
AcDbTrace
 10
1164.868602484002
 20
843.8763082477056
 30
0.0
 11
1165.535269150668
 21
843.8763082477056
 31
0.0
 12
1165.201935817335
 22
845.8763082477057
 32
0.0
 13
1165.201935817335
 23
845.8763082477057
 33
0.0
  0
SOLID
  5
2172
330
1BBA
100
AcDbEntity
  8
Dim
100
AcDbTrace
 10
1164.868602484002
 20
787.8763082477056
 30
0.0
 11
1165.535269150668
 21
787.8763082477056
 31
0.0
 12
1165.201935817335
 22
785.8763082477056
 32
0.0
 13
1165.201935817335
 23
785.8763082477056
 33
0.0
  0
MTEXT
  5
2173
330
1BBA
100
AcDbEntity
  8
Dim
100
AcDbMText
 10
1162.951935817335
 20
815.8763082477058
 30
0.0
 40
2.5
 41
0.0
 71
     5
 72
     1
  1
\A1;60
  7
China
 11
0.0000000000000001
 21
1.0
 31
0.0
 73
     1
 44
1.0
1001
ACAD
1000
MTEXTBEGIN
1070
    73
1070
     1
1070
    44
1040
1.0
1070
    74
1070
     0
1000
MTEXTEND
  0
POINT
  5
2174
330
1BBA
100
AcDbEntity
  8
Defpoints
 62
     0
100
AcDbPoint
 10
1219.201935817335
 20
845.8763082477057
 30
0.0
  0
POINT
  5
2175
330
1BBA
100
AcDbEntity
  8
Defpoints
 62
     0
100
AcDbPoint
 10
1198.561935817335
 20
785.8763082477056
 30
0.0
  0
POINT
  5
2176
330
1BBA
100
AcDbEntity
  8
Defpoints
 62
     0
100
AcDbPoint
 10
1165.201935817335
 20
785.8763082477056
 30
0.0
  0
ENDBLK
  5
1BC5
330
1BBA
100
AcDbEntity
  8
0
100
AcDbBlockEnd
  0
BLOCK
  5
1C1F
330
1C15
100
AcDbEntity
  8
0
100
AcDbBlockBegin
  2
*D35
 70
     1
 10
0.0
 20
0.0
 30
0.0
  3
*D35
  1

  0
LINE
  5
1FFC
330
1C15
100
AcDbEntity
  8
Dim
100
AcDbLine
 10
1082.712259046308
 20
845.8763082477057
 30
0.0
 11
1106.212259046309
 21
845.8763082477057
 31
0.0
  0
LINE
  5
1FFD
330
1C15
100
AcDbEntity
  8
Dim
100
AcDbLine
 10
1078.644202092872
 20
835.8763082477056
 30
0.0
 11
1106.212259046309
 21
835.8763082477056
 31
0.0
  0
LINE
  5
1FFE
330
1C15
100
AcDbEntity
  8
Dim
100
AcDbLine
 10
1105.212259046308
 20
843.8763082477056
 30
0.0
 11
1105.212259046308
 21
837.8763082477057
 31
0.0
  0
SOLID
  5
1FFF
330
1C15
100
AcDbEntity
  8
Dim
100
AcDbTrace
 10
1104.878925712975
 20
843.8763082477056
 30
0.0
 11
1105.545592379642
 21
843.8763082477056
 31
0.0
 12
1105.212259046308
 22
845.8763082477057
 32
0.0
 13
1105.212259046308
 23
845.8763082477057
 33
0.0
  0
SOLID
  5
2000
330
1C15
100
AcDbEntity
  8
Dim
100
AcDbTrace
 10
1104.878925712975
 20
837.8763082477057
 30
0.0
 11
1105.545592379642
 21
837.8763082477057
 31
0.0
 12
1105.212259046308
 22
835.8763082477056
 32
0.0
 13
1105.212259046308
 23
835.8763082477056
 33
0.0
  0
MTEXT
  5
2001
330
1C15
100
AcDbEntity
  8
Dim
100
AcDbMText
 10
1102.962259046308
 20
840.8763082477058
 30
0.0
 40
2.5
 41
0.0
 71
     5
 72
     1
  1
\A1;10
  7
China
 11
0.0000000000000001
 21
1.0
 31
0.0
 73
     1
 44
1.0
1001
ACAD
1000
MTEXTBEGIN
1070
    73
1070
     1
1070
    44
1040
1.0
1070
    74
1070
     0
1000
MTEXTEND
  0
POINT
  5
2002
330
1C15
100
AcDbEntity
  8
Defpoints
 62
     0
100
AcDbPoint
 10
1081.712259046308
 20
845.8763082477057
 30
0.0
  0
POINT
  5
2003
330
1C15
100
AcDbEntity
  8
Defpoints
 62
     0
100
AcDbPoint
 10
1077.644202092872
 20
835.8763082477056
 30
0.0
  0
POINT
  5
2004
330
1C15
100
AcDbEntity
  8
Defpoints
 62
     0
100
AcDbPoint
 10
1105.212259046308
 20
835.8763082477056
 30
0.0
  0
ENDBLK
  5
1C20
330
1C15
100
AcDbEntity
  8
0
100
AcDbBlockEnd
  0
BLOCK
  5
1C52
330
1C48
100
AcDbEntity
  8
0
100
AcDbBlockBegin
  2
*D36
 70
     1
 10
0.0
 20
0.0
 30
0.0
  3
*D36
  1

  0
LINE
  5
2005
330
1C48
100
AcDbEntity
  8
Dim
100
AcDbLine
 10
1193.201935817335
 20
825.8763082477056
 30
0.0
 11
1193.201935817335
 21
866.8763082477049
 31
0.0
  0
LINE
  5
2006
330
1C48
100
AcDbEntity
  8
Dim
100
AcDbLine
 10
1229.201935817335
 20
846.8763082477057
 30
0.0
 11
1229.201935817335
 21
866.8763082477049
 31
0.0
  0
LINE
  5
2007
330
1C48
100
AcDbEntity
  8
Dim
100
AcDbLine
 10
1195.201935817335
 20
865.8763082477049
 30
0.0
 11
1227.201935817335
 21
865.8763082477049
 31
0.0
  0
SOLID
  5
2008
330
1C48
100
AcDbEntity
  8
Dim
100
AcDbTrace
 10
1195.201935817335
 20
866.2096415810383
 30
0.0
 11
1195.201935817335
 21
865.5429749143715
 31
0.0
 12
1193.201935817335
 22
865.8763082477049
 32
0.0
 13
1193.201935817335
 23
865.8763082477049
 33
0.0
  0
SOLID
  5
2009
330
1C48
100
AcDbEntity
  8
Dim
100
AcDbTrace
 10
1227.201935817335
 20
866.2096415810383
 30
0.0
 11
1227.201935817335
 21
865.5429749143715
 31
0.0
 12
1229.201935817335
 22
865.8763082477049
 32
0.0
 13
1229.201935817335
 23
865.8763082477049
 33
0.0
  0
MTEXT
  5
200A
330
1C48
100
AcDbEntity
  8
Dim
100
AcDbMText
 10
1211.201935817335
 20
868.126308247705
 30
0.0
 40
2.5
 41
0.0
 71
     5
 72
     1
  1
\A1;36
  7
China
 73
     1
 44
1.0
1001
ACAD
1000
MTEXTBEGIN
1070
    73
1070
     1
1070
    44
1040
1.0
1070
    74
1070
     0
1000
MTEXTEND
  0
POINT
  5
200B
330
1C48
100
AcDbEntity
  8
Defpoints
 62
     0
100
AcDbPoint
 10
1193.201935817335
 20
824.8763082477056
 30
0.0
  0
POINT
  5
200C
330
1C48
100
AcDbEntity
  8
Defpoints
 62
     0
100
AcDbPoint
 10
1229.201935817335
 20
845.8763082477057
 30
0.0
  0
POINT
  5
200D
330
1C48
100
AcDbEntity
  8
Defpoints
 62
     0
100
AcDbPoint
 10
1229.201935817335
 20
865.8763082477049
 30
0.0
  0
ENDBLK
  5
1C53
330
1C48
100
AcDbEntity
  8
0
100
AcDbBlockEnd
  0
ENDSEC
  0
SECTION
  2
ENTITIES
  0
LINE
  5
1652
330
1F
100
AcDbEntity
  8
0
  6
Continuous
 62
     7
100
AcDbLine
 10
827.4430052576274
 20
715.8763082477056
 30
0.0
 11
827.4430052576274
 21
725.8763082477056
 31
0.0
  0
LINE
  5
1653
330
1F
100
AcDbEntity
  8
0
  6
Continuous
 62
     7
100
AcDbLine
 10
780.4430052576275
 20
715.8763082477056
 30
0.0
 11
780.4430052576275
 21
725.8763082477056
 31
0.0
  0
DIMENSION
  5
1654
330
1F
100
AcDbEntity
  8
Dim
100
AcDbDimension
  2
*D3
 10
831.9430052576276
 20
683.8763082477056
 30
0.0
 11
803.9430052576275
 21
686.1263082477056
 31
0.0
 70
    32
 71
     5
 42
56.0
  3
Standard
100
AcDbAlignedDimension
 13
775.9430052576275
 23
725.8763082477056
 33
0.0
 14
831.9430052576276
 24
725.8763082477056
 34
0.0
100
AcDbRotatedDimension
1001
ACAD
1000
DSTYLE
1002
{
1070
    41
1040
2.0
1070
    42
1040
1.0
1070
    44
1040
1.0
1070
    73
1070
     0
1070
    74
1070
     0
1070
    77
1070
     1
1070
    78
1070
     8
1070
    79
1070
     2
1070
   140
1040
2.5
1070
   141
1040
0.0
1070
   147
1040
1.0
1070
   172
1070
     1
1070
   174
1070
     1
1070
   176
1070
   256
1070
   177
1070
   256
1070
   178
1070
   256
1070
   271
1070
     2
1070
   272
1070
     2
1070
   340
1005
DAC
1070
   371
1070
    -1
1070
   372
1070
    -1
1002
}
  0
LINE
  5
1655
330
1F
100
AcDbEntity
  8
0
  6
Continuous
 62
     7
100
AcDbLine
 10
837.4430052576276
 20
703.8763082477056
 30
0.0
 11
837.4430052576276
 21
763.8763082477056
 31
0.0
  0
LINE
  5
1656
330
1F
100
AcDbEntity
  8
0
  6
Continuous
 62
     7
100
AcDbLine
 10
770.4430052576275
 20
703.8763082477056
 30
0.0
 11
770.4430052576275
 21
763.8763082477056
 31
0.0
  0
LINE
  5
1657
330
1F
100
AcDbEntity
  8
0
  6
Continuous
 62
     7
100
AcDbLine
 10
633.7274383333594
 20
750.9563082477056
 30
0.0
 11
633.7274383333594
 21
703.8763082477056
 31
0.0
  0
DIMENSION
  5
1658
330
1F
100
AcDbEntity
  8
Dim
100
AcDbDimension
  2
*D4
 10
574.6793449176652
 20
703.8763082477056
 30
0.0
 11
572.4293449176651
 21
724.8763082477057
 31
0.0
 70
    32
 71
     5
 42
42.0
  3
Standard
100
AcDbAlignedDimension
 13
574.6793449176654
 23
745.8763082477056
 33
0.0
 14
597.7274383333593
 24
703.8763082477056
 34
0.0
 50
90.0
100
AcDbRotatedDimension
1001
ACAD
1000
DSTYLE
1002
{
1070
    41
1040
2.0
1070
    42
1040
1.0
1070
    44
1040
1.0
1070
    73
1070
     0
1070
    74
1070
     0
1070
    77
1070
     1
1070
    78
1070
     8
1070
    79
1070
     2
1070
   140
1040
2.5
1070
   141
1040
0.0
1070
   147
1040
1.0
1070
   172
1070
     1
1070
   174
1070
     1
1070
   176
1070
   256
1070
   177
1070
   256
1070
   178
1070
   256
1070
   271
1070
     2
1070
   272
1070
     2
1070
   340
1005
DAC
1070
   371
1070
    -1
1070
   372
1070
    -1
1002
}
  0
LINE
  5
1659
330
1F
100
AcDbEntity
  8
0
  6
Continuous
 62
     7
100
AcDbLine
 10
597.7274383333593
 20
750.9563082477056
 30
0.0
 11
597.7274383333593
 21
703.8763082477056
 31
0.0
  0
LINE
  5
165A
330
1F
100
AcDbEntity
  8
AM_7
100
AcDbLine
 10
803.9430052576275
 20
830.5563082477057
 30
0.0
 11
803.9430052576275
 21
701.5163082477057
 31
0.0
  0
LINE
  5
165B
330
1F
100
AcDbEntity
  8
AM_7
100
AcDbLine
 10
615.7274383333593
 20
829.6063082477056
 30
0.0
 11
615.7274383333593
 21
703.7563082477057
 31
0.0
  0
DIMENSION
  5
165C
330
1F
100
AcDbEntity
  8
Dim
100
AcDbDimension
  2
*D5
 10
821.9430052576274
 20
691.8763082477056
 30
0.0
 11
803.9430052576275
 21
694.1263082477056
 31
0.0
 70
    32
 71
     5
 42
36.0
  3
Standard
100
AcDbAlignedDimension
 13
785.9430052576275
 23
730.2763082477057
 33
0.0
 14
821.9430052576274
 24
790.5463082477057
 34
0.0
100
AcDbRotatedDimension
1001
ACAD
1000
DSTYLE
1002
{
1070
    41
1040
2.0
1070
    42
1040
1.0
1070
    44
1040
1.0
1070
    73
1070
     0
1070
    74
1070
     0
1070
    77
1070
     1
1070
    78
1070
     8
1070
    79
1070
     2
1070
   140
1040
2.5
1070
   141
1040
0.0
1070
   147
1040
1.0
1070
   172
1070
     1
1070
   174
1070
     1
1070
   176
1070
   256
1070
   177
1070
   256
1070
   178
1070
   256
1070
   271
1070
     2
1070
   272
1070
     2
1070
   340
1005
DAC
1070
   371
1070
    -1
1070
   372
1070
    -1
1002
}
  0
LINE
  5
165D
330
1F
100
AcDbEntity
  8
0
  6
Continuous
 62
     7
100
AcDbLine
 10
1037.712259046308
 20
845.8763082477057
 30
0.0
 11
1081.712259046308
 21
845.8763082477057
 31
0.0
  0
DIMENSION
  5
165F
330
1F
100
AcDbEntity
  8
Dim
100
AcDbDimension
  2
*D6
 10
1071.712259046308
 20
857.8763082477056
 30
0.0
 11
1059.712259046309
 21
860.1263082477057
 31
0.0
 70
    32
 71
     5
 42
24.0
  3
Standard
100
AcDbAlignedDimension
 13
1047.712259046308
 23
839.8763082477056
 33
0.0
 14
1071.712259046308
 24
842.2063082477057
 34
0.0
100
AcDbRotatedDimension
1001
ACAD
1000
DSTYLE
1002
{
1070
    41
1040
2.0
1070
    42
1040
1.0
1070
    44
1040
1.0
1070
    73
1070
     0
1070
    74
1070
     0
1070
    77
1070
     1
1070
    78
1070
     8
1070
    79
1070
     2
1070
   140
1040
2.5
1070
   141
1040
0.0
1070
   147
1040
1.0
1070
   172
1070
     1
1070
   174
1070
     1
1070
   176
1070
   256
1070
   177
1070
   256
1070
   178
1070
   256
1070
   271
1070
     2
1070
   272
1070
     2
1070
   340
1005
DAC
1070
   371
1070
    -1
1070
   372
1070
    -1
1002
}
  0
DIMENSION
  5
1660
330
1F
100
AcDbEntity
  8
Dim
100
AcDbDimension
  2
*D7
 10
1037.712259046308
 20
865.8763082477056
 30
0.0
 11
1059.712259046309
 21
868.1263082477057
 31
0.0
 70
    32
 71
     5
 42
44.0
  3
Standard
100
AcDbAlignedDimension
 13
1081.712259046308
 23
845.8763082477057
 33
0.0
 14
1037.712259046308
 24
845.8763082477057
 34
0.0
100
AcDbRotatedDimension
1001
ACAD
1000
DSTYLE
1002
{
1070
    41
1040
2.0
1070
    42
1040
1.0
1070
    44
1040
1.0
1070
    73
1070
     0
1070
    74
1070
     0
1070
    77
1070
     1
1070
    78
1070
     8
1070
    79
1070
     2
1070
   140
1040
2.5
1070
   141
1040
0.0
1070
   147
1040
1.0
1070
   172
1070
     1
1070
   174
1070
     1
1070
   176
1070
   256
1070
   177
1070
   256
1070
   178
1070
   256
1070
   271
1070
     2
1070
   272
1070
     2
1070
   340
1005
DAC
1070
   371
1070
    -1
1070
   372
1070
    -1
1002
}
  0
DIMENSION
  5
1661
330
1F
100
AcDbEntity
  8
Dim
100
AcDbDimension
  2
*D8
 10
1093.212259046308
 20
873.8763082477056
 30
0.0
 11
1059.712259046309
 21
876.1263082477055
 31
0.0
 70
    32
 71
     5
 42
67.0
  3
Standard
100
AcDbAlignedDimension
 13
1026.212259046308
 23
824.8763082477056
 33
0.0
 14
1093.212259046308
 24
824.8763082477056
 34
0.0
100
AcDbRotatedDimension
1001
ACAD
1000
DSTYLE
1002
{
1070
   144
1040
1.0
1070
    41
1040
2.0
1070
    42
1040
1.0
1070
    44
1040
1.0
1070
    73
1070
     0
1070
    74
1070
     0
1070
    77
1070
     1
1070
    78
1070
     8
1070
    79
1070
     2
1070
   140
1040
2.5
1070
   141
1040
0.0
1070
   147
1040
1.0
1070
   172
1070
     1
1070
   174
1070
     1
1070
   176
1070
   256
1070
   177
1070
   256
1070
   178
1070
   256
1070
   271
1070
     2
1070
   272
1070
     2
1070
   340
1005
DAC
1070
   371
1070
    -1
1070
   372
1070
    -1
1002
}
  0
LINE
  5
1662
330
1F
100
AcDbEntity
  8
0
  6
Continuous
 62
     7
100
AcDbLine
 10
1093.212259046308
 20
815.8763082477056
 30
0.0
 11
1026.212259046308
 21
815.8763082477056
 31
0.0
  0
LINE
  5
1663
330
1F
100
AcDbEntity
  8
AM_7
100
AcDbLine
 10
1094.352259046309
 20
765.8763082477056
 30
0.0
 11
1022.522259046309
 21
765.8763082477056
 31
0.0
  0
LINE
  5
1664
330
1F
100
AcDbEntity
  8
0
  6
Continuous
 62
     7
100
AcDbLine
 10
1093.212259046308
 20
715.8763082477056
 30
0.0
 11
1026.212259046308
 21
715.8763082477056
 31
0.0
  0
LINE
  5
1666
330
1F
100
AcDbEntity
  8
0
  6
Continuous
 62
     7
100
AcDbLine
 10
1037.712259046308
 20
685.8763082477056
 30
0.0
 11
1081.712259046308
 21
685.8763082477056
 31
0.0
  0
DIMENSION
  5
1667
330
1F
100
AcDbEntity
  8
Dim
100
AcDbDimension
  2
*D9
 10
633.7274383333594
 20
683.8763082477056
 30
0.0
 11
615.7274383333593
 21
686.1263082477056
 31
0.0
 70
    32
 71
     5
 42
36.0
  3
Standard
100
AcDbAlignedDimension
 13
597.7274383333593
 23
703.8763082477056
 33
0.0
 14
633.7274383333594
 24
703.8763082477056
 34
0.0
100
AcDbRotatedDimension
1001
ACAD
1000
DSTYLE
1002
{
1070
    41
1040
2.0
1070
    42
1040
1.0
1070
    44
1040
1.0
1070
    73
1070
     0
1070
    74
1070
     0
1070
    77
1070
     1
1070
    78
1070
     8
1070
    79
1070
     2
1070
   140
1040
2.5
1070
   141
1040
0.0
1070
   147
1040
1.0
1070
   172
1070
     1
1070
   174
1070
     1
1070
   176
1070
   256
1070
   177
1070
   256
1070
   178
1070
   256
1070
   271
1070
     2
1070
   272
1070
     2
1070
   340
1005
DAC
1070
   371
1070
    -1
1070
   372
1070
    -1
1002
}
  0
DIMENSION
  5
1668
330
1F
100
AcDbEntity
  8
Dim
100
AcDbDimension
  2
*D10
 10
630.7274383333593
 20
691.8763082477056
 30
0.0
 11
615.7274383333593
 21
694.9471415810389
 31
0.0
 70
    32
  1
<>{}{\H0.71x;\C3;\S+0.30^ +0.10;}
 71
     5
 42
30.0
  3
Standard
100
AcDbAlignedDimension
 13
600.7274383333593
 23
703.8763082477056
 33
0.0
 14
630.7274383333593
 24
703.8763082477056
 34
0.0
100
AcDbRotatedDimension
1001
ACAD
1000
DSTYLE
1002
{
1070
   286
1070
     0
1070
   284
1070
     0
1070
   274
1070
     2
1070
    41
1040
2.0
1070
    42
1040
1.0
1070
    44
1040
1.0
1070
    47
1040
0.3
1070
    48
1040
-0.1
1070
    73
1070
     0
1070
    74
1070
     0
1070
    77
1070
     1
1070
    78
1070
     8
1070
    79
1070
     2
1070
   140
1040
2.5
1070
   141
1040
0.0
1070
   147
1040
1.0
1070
   172
1070
     1
1070
   174
1070
     1
1070
   176
1070
   256
1070
   177
1070
   256
1070
   178
1070
   256
1070
   271
1070
     2
1070
   272
1070
     2
1070
   340
1005
DAC
1070
   371
1070
    -1
1070
   372
1070
    -1
1002
}
1001
GENIUS_GENDTOL_13
1000
TolSmNrm
1000

1000
{\H0.71x;$2\S$+$P^ $-$M;}
1040
30.0
  0
CIRCLE
  5
166A
330
1F
100
AcDbEntity
  8
0
  6
Continuous
 62
     7
100
AcDbCircle
 10
625.2274383333594
 20
581.6779528919235
 30
0.0
 40
4.599999999999999
  0
CIRCLE
  5
166B
330
1F
100
AcDbEntity
  8
0
  6
Continuous
 62
     7
100
AcDbCircle
 10
625.2274383333594
 20
638.6779528919236
 30
0.0
 40
4.599999999999999
  0
LINE
  5
166C
330
1F
100
AcDbEntity
  8
AM_7
100
AcDbLine
 10
580.8234383333593
 20
610.1779528919236
 30
0.0
 11
697.9634383333594
 21
610.1779528919236
 31
0.0
  0
LINE
  5
166D
330
1F
100
AcDbEntity
  8
0
  6
Continuous
 62
     7
100
AcDbLine
 10
633.7274383333594
 20
576.6779528919236
 30
0.0
 11
597.7274383333593
 21
576.6779528919236
 31
0.0
  0
LINE
  5
166E
330
1F
100
AcDbEntity
  8
0
  6
Continuous
 62
     7
100
AcDbLine
 10
633.7274383333594
 20
643.6779528919235
 30
0.0
 11
597.7274383333593
 21
643.6779528919235
 31
0.0
  0
LINE
  5
166F
330
1F
100
AcDbEntity
  8
AM_7
100
AcDbLine
 10
631.7014383333594
 20
638.6779528919236
 30
0.0
 11
618.7644383333593
 21
638.6779528919236
 31
0.0
  0
LINE
  5
1670
330
1F
100
AcDbEntity
  8
AM_7
100
AcDbLine
 10
632.1634383333594
 20
581.6779528919235
 30
0.0
 11
618.4564383333594
 21
581.6779528919235
 31
0.0
  0
LINE
  5
1671
330
1F
100
AcDbEntity
  8
0
  6
Continuous
 62
     7
100
AcDbLine
 10
600.7274383333593
 20
706.8763082477056
 30
0.0
 11
630.7274383333593
 21
706.8763082477056
 31
0.0
  0
LINE
  5
1672
330
1F
100
AcDbEntity
  8
0
  6
Continuous
 62
     7
100
AcDbLine
 10
619.7274383333593
 20
715.8763082477056
 30
0.0
 11
633.7274383333594
 21
715.8763082477056
 31
0.0
  0
LINE
  5
1673
330
1F
100
AcDbEntity
  8
0
  6
Continuous
 62
     7
100
AcDbLine
 10
1026.212259046308
 20
706.8763082477056
 30
0.0
 11
1026.212259046308
 21
763.8763082477056
 31
0.0
  0
LINE
  5
1674
330
1F
100
AcDbEntity
  8
0
  6
Continuous
 62
     7
100
AcDbLine
 10
1036.212259046308
 20
715.8763082477056
 30
0.0
 11
1036.212259046308
 21
763.8763082477056
 31
0.0
  0
LINE
  5
1677
330
1F
100
AcDbEntity
  8
AM_7
100
AcDbLine
 10
1047.712259046308
 20
702.2063082477058
 30
0.0
 11
1047.712259046308
 21
689.5763082477056
 31
0.0
  0
LINE
  5
1679
330
1F
100
AcDbEntity
  8
0
  6
Continuous
 62
     7
100
AcDbLine
 10
1037.712259046308
 20
706.8763082477056
 30
0.0
 11
1037.712259046308
 21
685.8763082477056
 31
0.0
  0
LINE
  5
167E
330
1F
100
AcDbEntity
  8
0
  6
Continuous
 62
     7
100
AcDbLine
 10
1037.712259046308
 20
706.8763082477056
 30
0.0
 11
1026.212259046308
 21
706.8763082477056
 31
0.0
  0
CIRCLE
  5
167F
330
1F
100
AcDbEntity
  8
0
  6
Continuous
 62
     7
100
AcDbCircle
 10
1047.712259046308
 20
695.8763082477056
 30
0.0
 40
3.3235
  0
LINE
  5
1680
330
1F
100
AcDbEntity
  8
0
  6
Continuous
 62
     7
100
AcDbLine
 10
1036.212259046308
 20
815.8763082477056
 30
0.0
 11
1036.212259046308
 21
767.8763082477056
 31
0.0
  0
LINE
  5
1681
330
1F
100
AcDbEntity
  8
0
  6
Continuous
 62
     7
100
AcDbLine
 10
1026.212259046308
 20
824.8763082477056
 30
0.0
 11
1026.212259046308
 21
767.8763082477056
 31
0.0
  0
LINE
  5
1682
330
1F
100
AcDbEntity
  8
0
  6
Continuous
 62
     7
100
AcDbLine
 10
1026.212259046308
 20
763.8763082477056
 30
0.0
 11
1036.212259046308
 21
763.8763082477056
 31
0.0
  0
LINE
  5
1683
330
1F
100
AcDbEntity
  8
0
  6
Continuous
 62
     7
100
AcDbLine
 10
1026.212259046308
 20
767.8763082477056
 30
0.0
 11
1036.212259046308
 21
767.8763082477056
 31
0.0
  0
LINE
  5
1684
330
1F
100
AcDbEntity
  8
0
  6
Continuous
 62
     7
100
AcDbLine
 10
1037.712259046308
 20
824.8763082477056
 30
0.0
 11
1026.212259046308
 21
824.8763082477056
 31
0.0
  0
LINE
  5
1685
330
1F
100
AcDbEntity
  8
AM_7
100
AcDbLine
 10
1047.712259046308
 20
842.2063082477057
 30
0.0
 11
1047.712259046308
 21
829.5763082477057
 31
0.0
  0
LINE
  5
1686
330
1F
100
AcDbEntity
  8
0
  6
Continuous
 62
     7
100
AcDbLine
 10
1037.712259046308
 20
845.8763082477057
 30
0.0
 11
1037.712259046308
 21
824.8763082477056
 31
0.0
  0
CIRCLE
  5
1688
330
1F
100
AcDbEntity
  8
0
  6
Continuous
 62
     7
100
AcDbCircle
 10
1047.712259046308
 20
835.8763082477056
 30
0.0
 40
3.3235
  0
LINE
  5
1689
330
1F
100
AcDbEntity
  8
0
  6
Continuous
 62
     7
100
AcDbLine
 10
594.7274383333593
 20
632.6779528919236
 30
0.0
 11
594.7274383333593
 21
587.6779528919236
 31
0.0
  0
LINE
  5
168A
330
1F
100
AcDbEntity
  8
0
  6
Continuous
 62
     7
100
AcDbLine
 10
586.7274383333593
 20
632.6779528919236
 30
0.0
 11
586.7274383333593
 21
587.6779528919236
 31
0.0
  0
DIMENSION
  5
168B
330
1F
100
AcDbEntity
  8
Dim
100
AcDbDimension
  2
*D11
 10
566.7274383333594
 20
587.6779528919236
 30
0.0
 11
564.4774383333592
 21
610.1779528919237
 31
0.0
 70
    32
 71
     5
 42
45.0
  3
Standard
100
AcDbAlignedDimension
 13
586.7274383333593
 23
632.6779528919236
 33
0.0
 14
586.7274383333593
 24
587.6779528919236
 34
0.0
 50
90.0
100
AcDbRotatedDimension
1001
ACAD
1000
DSTYLE
1002
{
1070
    41
1040
2.0
1070
    42
1040
1.0
1070
    44
1040
1.0
1070
    73
1070
     0
1070
    74
1070
     0
1070
    77
1070
     1
1070
    78
1070
     8
1070
    79
1070
     2
1070
   140
1040
2.5
1070
   141
1040
0.0
1070
   147
1040
1.0
1070
   172
1070
     1
1070
   174
1070
     1
1070
   176
1070
   256
1070
   177
1070
   256
1070
   178
1070
   256
1070
   271
1070
     2
1070
   272
1070
     2
1070
   340
1005
DAC
1070
   371
1070
    -1
1070
   372
1070
    -1
1002
}
  0
LINE
  5
168D
330
1F
100
AcDbEntity
  8
AM_7
100
AcDbLine
 10
625.2274383333594
 20
589.3079528919237
 30
0.0
 11
625.2274383333594
 21
574.4379528919235
 31
0.0
  0
DIMENSION
  5
168E
330
1F
100
AcDbEntity
  8
Dim
100
AcDbDimension
  2
*D12
 10
558.7274383333594
 20
576.6779528919236
 30
0.0
 11
556.4774383333592
 21
610.1779528919237
 31
0.0
 70
    32
 71
     5
 42
67.0
  3
Standard
100
AcDbAlignedDimension
 13
597.7274383333593
 23
643.6779528919235
 33
0.0
 14
597.7274383333593
 24
576.6779528919236
 34
0.0
 50
90.0
100
AcDbRotatedDimension
1001
ACAD
1000
DSTYLE
1002
{
1070
    41
1040
2.0
1070
    42
1040
1.0
1070
    44
1040
1.0
1070
    73
1070
     0
1070
    74
1070
     0
1070
    77
1070
     1
1070
    78
1070
     8
1070
    79
1070
     2
1070
   140
1040
2.5
1070
   141
1040
0.0
1070
   147
1040
1.0
1070
   172
1070
     1
1070
   174
1070
     1
1070
   176
1070
   256
1070
   177
1070
   256
1070
   178
1070
   256
1070
   271
1070
     2
1070
   272
1070
     2
1070
   340
1005
DAC
1070
   371
1070
    -1
1070
   372
1070
    -1
1002
}
  0
LINE
  5
168F
330
1F
100
AcDbEntity
  8
0
  6
Continuous
 62
     7
100
AcDbLine
 10
600.7274383333593
 20
643.6779528919235
 30
0.0
 11
600.7274383333593
 21
576.6779528919236
 31
0.0
  0
LINE
  5
1690
330
1F
100
AcDbEntity
  8
0
  6
Continuous
 62
     7
100
AcDbLine
 10
597.7274383333593
 20
643.6779528919235
 30
0.0
 11
597.7274383333593
 21
576.6779528919236
 31
0.0
  0
TEXT
  5
1691
330
1F
100
AcDbEntity
  8
Dim
100
AcDbText
 10
538.0909795933741
 20
565.7276454601182
 30
0.0
 40
3.2
  1
4-M8x1.25x9depth
  7
China
100
AcDbText
  0
CIRCLE
  5
1696
330
1F
100
AcDbEntity
  8
0
  6
Continuous
 62
     7
100
AcDbCircle
 10
606.2274383333593
 20
581.6779528919235
 30
0.0
 40
4.599999999999999
  0
LINE
  5
1697
330
1F
100
AcDbEntity
  8
AM_7
100
AcDbLine
 10
613.1434383333594
 20
581.6779528919235
 30
0.0
 11
599.9754383333594
 21
581.6779528919235
 31
0.0
  0
LINE
  5
1698
330
1F
100
AcDbEntity
  8
0
  6
Continuous
 62
     7
100
AcDbLine
 10
586.7274383333593
 20
587.6779528919236
 30
0.0
 11
597.7274383333593
 21
587.6779528919236
 31
0.0
  0
LINE
  5
1699
330
1F
100
AcDbEntity
  8
AM_7
100
AcDbLine
 10
606.2274383333593
 20
588.6179528919236
 30
0.0
 11
606.2274383333593
 21
574.3779528919236
 31
0.0
  0
DIMENSION
  5
169A
330
1F
100
AcDbEntity
  8
Dim
100
AcDbDimension
  2
*D13
 10
574.7274383333594
 20
596.1779528919236
 30
0.0
 11
572.4774383333592
 21
610.1779528919237
 31
0.0
 70
    32
 71
     5
 42
28.0
  3
Standard
100
AcDbAlignedDimension
 13
609.2374383333593
 23
624.1779528919236
 33
0.0
 14
608.5344383333594
 24
596.1779528919236
 34
0.0
 50
90.0
100
AcDbRotatedDimension
1001
ACAD
1000
DSTYLE
1002
{
1070
    41
1040
2.0
1070
    42
1040
1.0
1070
    44
1040
1.0
1070
    73
1070
     0
1070
    74
1070
     0
1070
    77
1070
     1
1070
    78
1070
     8
1070
    79
1070
     2
1070
   140
1040
2.5
1070
   141
1040
0.0
1070
   147
1040
1.0
1070
   172
1070
     1
1070
   174
1070
     1
1070
   176
1070
   256
1070
   177
1070
   256
1070
   178
1070
   256
1070
   271
1070
     2
1070
   272
1070
     2
1070
   340
1005
DAC
1070
   371
1070
    -1
1070
   372
1070
    -1
1002
}
  0
CIRCLE
  5
169B
330
1F
100
AcDbEntity
  8
0
  6
Continuous
 62
     7
100
AcDbCircle
 10
615.7274383333593
 20
624.1779528919236
 30
0.0
 40
3.3235
  0
LINE
  5
169D
330
1F
100
AcDbEntity
  8
AM_7
100
AcDbLine
 10
615.7274383333593
 20
630.5079528919235
 30
0.0
 11
615.7274383333593
 21
617.8779528919236
 31
0.0
  0
LINE
  5
169E
330
1F
100
AcDbEntity
  8
AM_7
100
AcDbLine
 10
615.7274383333593
 20
602.5479528919235
 30
0.0
 11
615.7274383333593
 21
589.5379528919234
 31
0.0
  0
LINE
  5
169F
330
1F
100
AcDbEntity
  8
AM_7
100
AcDbLine
 10
622.3644383333593
 20
596.1779528919236
 30
0.0
 11
608.5344383333594
 21
596.1779528919236
 31
0.0
  0
CIRCLE
  5
16A0
330
1F
100
AcDbEntity
  8
0
  6
Continuous
 62
     7
100
AcDbCircle
 10
615.7274383333593
 20
596.1779528919236
 30
0.0
 40
3.3235
  0
LINE
  5
16A2
330
1F
100
AcDbEntity
  8
AM_7
100
AcDbLine
 10
613.7594383333594
 20
638.6779528919236
 30
0.0
 11
599.8214383333594
 21
638.6779528919236
 31
0.0
  0
CIRCLE
  5
16A3
330
1F
100
AcDbEntity
  8
0
  6
Continuous
 62
     7
100
AcDbCircle
 10
606.2274383333593
 20
638.6779528919236
 30
0.0
 40
4.599999999999999
  0
LINE
  5
16A4
330
1F
100
AcDbEntity
  8
0
  6
Continuous
 62
     7
100
AcDbLine
 10
586.7274383333593
 20
632.6779528919236
 30
0.0
 11
597.7274383333593
 21
632.6779528919236
 31
0.0
  0
LINE
  5
16A5
330
1F
100
AcDbEntity
  8
AM_7
100
AcDbLine
 10
622.5994383333593
 20
624.1779528919236
 30
0.0
 11
609.2374383333593
 21
624.1779528919236
 31
0.0
  0
LINE
  5
16A6
330
1F
100
AcDbEntity
  8
AM_7
100
AcDbLine
 10
625.2274383333594
 20
645.6379528919236
 30
0.0
 11
625.2274383333594
 21
629.8879528919236
 31
0.0
  0
LINE
  5
16A7
330
1F
100
AcDbEntity
  8
AM_7
100
AcDbLine
 10
606.2274383333593
 20
645.6379528919236
 30
0.0
 11
606.2274383333593
 21
631.0479528919235
 31
0.0
  0
DIMENSION
  5
16A8
330
1F
100
AcDbEntity
  8
Dim
100
AcDbDimension
  2
*D14
 10
582.2392471418385
 20
715.8763082477056
 30
0.0
 11
579.9892471418384
 21
709.8763082477058
 31
0.0
 70
    32
 71
     5
 42
12.0
  3
Standard
100
AcDbAlignedDimension
 13
590.1591490376364
 23
703.8763082477056
 33
0.0
 14
597.7274383333593
 24
715.8763082477056
 34
0.0
 50
90.0
100
AcDbRotatedDimension
1001
ACAD
1000
DSTYLE
1002
{
1070
    41
1040
2.0
1070
    42
1040
1.0
1070
    44
1040
1.0
1070
    73
1070
     0
1070
    74
1070
     0
1070
    77
1070
     1
1070
    78
1070
     8
1070
    79
1070
     2
1070
   140
1040
2.5
1070
   141
1040
0.0
1070
   147
1040
1.0
1070
   172
1070
     1
1070
   174
1070
     1
1070
   176
1070
   256
1070
   177
1070
   256
1070
   178
1070
   256
1070
   271
1070
     2
1070
   272
1070
     2
1070
   340
1005
DAC
1070
   371
1070
    -1
1070
   372
1070
    -1
1002
}
  0
TEXT
  5
16AB
330
1F
100
AcDbEntity
  8
Dim
100
AcDbText
 10
666.03347485251
 20
652.1569580105996
 30
0.0
 40
3.2
  1
Rc1/8
  7
China
100
AcDbText
  0
LINE
  5
16AC
330
1F
100
AcDbEntity
  8
0
  6
Continuous
 62
     7
100
AcDbLine
 10
597.7274383333593
 20
715.8763082477056
 30
0.0
 11
611.7274383333594
 21
715.8763082477056
 31
0.0
  0
LINE
  5
16AD
330
1F
100
AcDbEntity
  8
0
  6
Continuous
 62
     7
100
AcDbLine
 10
597.7274383333593
 20
703.8763082477056
 30
0.0
 11
600.7274383333593
 21
703.8763082477056
 31
0.0
  0
LINE
  5
16AE
330
1F
100
AcDbEntity
  8
0
  6
Continuous
 62
     7
100
AcDbLine
 10
600.7274383333593
 20
703.8763082477056
 30
0.0
 11
600.7274383333593
 21
706.8763082477056
 31
0.0
  0
DIMENSION
  5
16AF
330
1F
100
AcDbEntity
  8
Dim
100
AcDbDimension
  2
*D15
 10
590.1591490376364
 20
706.8763082477056
 30
0.0
 11
587.9091490376363
 21
705.3763082477058
 31
0.0
 70
    32
 71
     5
 42
3.0
  3
Standard
100
AcDbAlignedDimension
 13
597.7274383333593
 23
703.8763082477056
 33
0.0
 14
600.7274383333593
 24
706.8763082477056
 34
0.0
 50
90.0
100
AcDbRotatedDimension
1001
ACAD
1000
DSTYLE
1002
{
1070
    41
1040
2.0
1070
    42
1040
1.0
1070
    44
1040
1.0
1070
    73
1070
     0
1070
    74
1070
     0
1070
    77
1070
     1
1070
    78
1070
     8
1070
    79
1070
     2
1070
   140
1040
2.5
1070
   141
1040
0.0
1070
   147
1040
1.0
1070
   172
1070
     1
1070
   174
1070
     1
1070
   176
1070
   256
1070
   177
1070
   256
1070
   178
1070
   256
1070
   271
1070
     2
1070
   272
1070
     2
1070
   340
1005
DAC
1070
   371
1070
    -1
1070
   372
1070
    -1
1002
}
  0
LINE
  5
16B0
330
1F
100
AcDbEntity
  8
0
  6
Continuous
 62
     7
100
AcDbLine
 10
611.7274383333594
 20
714.0763082477056
 30
0.0
 11
611.7274383333594
 21
715.8763082477056
 31
0.0
  0
LINE
  5
16B1
330
1F
100
AcDbEntity
  8
0
  6
Continuous
 62
     7
100
AcDbLine
 10
619.7274383333593
 20
714.0763082477056
 30
0.0
 11
619.7274383333593
 21
715.8763082477056
 31
0.0
  0
LINE
  5
16B2
330
1F
100
AcDbEntity
  8
0
  6
Continuous
 62
     7
100
AcDbLine
 10
611.7274383333594
 20
714.0763082477056
 30
0.0
 11
619.7274383333593
 21
714.0763082477056
 31
0.0
  0
LINE
  5
16B3
330
1F
100
AcDbEntity
  8
0
  6
Continuous
 62
     7
100
AcDbLine
 10
1193.201935817335
 20
824.8763082477056
 30
0.0
 11
1229.201935817335
 21
824.8763082477056
 31
0.0
  0
LINE
  5
16B4
330
1F
100
AcDbEntity
  8
0
  6
Continuous
 62
     7
100
AcDbLine
 10
1207.201935817335
 20
817.6763082477059
 30
0.0
 11
1215.201935817335
 21
817.6763082477059
 31
0.0
  0
LINE
  5
16B5
330
1F
100
AcDbEntity
  8
0
  6
Continuous
 62
     7
100
AcDbLine
 10
1207.201935817335
 20
714.0763082477056
 30
0.0
 11
1215.201935817335
 21
714.0763082477056
 31
0.0
  0
ARC
  5
16B6
330
1F
100
AcDbEntity
  8
0
  6
Continuous
 62
     7
100
AcDbCircle
 10
1211.201935817335
 20
786.8763082477056
 30
0.0
 40
19.0
100
AcDbArc
 50
198.672000000003
 51
341.327999999997
  0
LINE
  5
16B7
102
{ACAD_REACTORS
330
1BC7
102
}
330
1F
100
AcDbEntity
  8
AM_7
100
AcDbLine
 10
1198.561935817335
 20
785.8763082477056
 30
0.0
 11
1223.141935817334
 21
785.8763082477056
 31
0.0
  0
ARC
  5
16B8
330
1F
100
AcDbEntity
  8
0
  6
Continuous
 62
     7
100
AcDbCircle
 10
1211.201935817335
 20
785.8763082477056
 30
0.0
 40
8.5
100
AcDbArc
 50
200.6670000000006
 51
159.3329999999994
  0
LINE
  5
16B9
330
1F
100
AcDbEntity
  8
0
  6
Continuous
 62
     7
100
AcDbLine
 10
1193.201935817335
 20
706.8763082477056
 30
0.0
 11
1229.201935817335
 21
706.8763082477056
 31
0.0
  0
LINE
  5
16BA
330
1F
100
AcDbEntity
  8
AM_7
100
AcDbLine
 10
1192.361935817335
 20
745.8763082477056
 30
0.0
 11
1223.141935817334
 21
745.8763082477056
 31
0.0
  0
ARC
  5
16BB
330
1F
100
AcDbEntity
  8
0
  6
Continuous
 62
     7
100
AcDbCircle
 10
1211.201935817335
 20
744.8763082477056
 30
0.0
 40
19.0
100
AcDbArc
 50
18.67170000000353
 51
161.327999999997
  0
ARC
  5
16BC
330
1F
100
AcDbEntity
  8
0
  6
Continuous
 62
     7
100
AcDbCircle
 10
1211.201935817335
 20
745.8763082477056
 30
0.0
 40
8.5
100
AcDbArc
 50
200.6670000000006
 51
159.3329999999994
  0
LINE
  5
16BD
330
1F
100
AcDbEntity
  8
AM_7
100
AcDbLine
 10
1167.390072316965
 20
765.8763082477056
 30
0.0
 11
1289.811536183691
 21
765.8763082477056
 31
0.0
  0
LINE
  5
16BE
330
1F
100
AcDbEntity
  8
0
  6
Continuous
 62
     7
100
AcDbLine
 10
1193.201935817335
 20
750.9563082477058
 30
0.0
 11
1193.201935817335
 21
706.8763082477056
 31
0.0
  0
LINE
  5
16BF
330
1F
100
AcDbEntity
  8
0
  6
Continuous
 62
     7
100
AcDbLine
 10
1093.212259046308
 20
706.8763082477056
 30
0.0
 11
1093.212259046308
 21
763.8763082477056
 31
0.0
  0
LINE
  5
16C0
330
1F
100
AcDbEntity
  8
0
  6
Continuous
 62
     7
100
AcDbLine
 10
1083.212259046308
 20
715.8763082477056
 30
0.0
 11
1083.212259046308
 21
763.8763082477056
 31
0.0
  0
LINE
  5
16C1
330
1F
100
AcDbEntity
  8
AM_7
100
AcDbLine
 10
1059.712259046309
 20
848.2963082477057
 30
0.0
 11
1059.712259046309
 21
681.2863082477057
 31
0.0
  0
LINE
  5
16C2
330
1F
100
AcDbEntity
  8
AM_7
100
AcDbLine
 10
1071.712259046308
 20
702.2063082477058
 30
0.0
 11
1071.712259046308
 21
689.5763082477056
 31
0.0
  0
LINE
  5
16C4
330
1F
100
AcDbEntity
  8
0
  6
Continuous
 62
     7
100
AcDbLine
 10
1081.712259046308
 20
706.8763082477056
 30
0.0
 11
1081.712259046308
 21
685.8763082477056
 31
0.0
  0
CIRCLE
  5
16C5
330
1F
100
AcDbEntity
  8
0
  6
Continuous
 62
     7
100
AcDbCircle
 10
1071.712259046308
 20
695.8763082477056
 30
0.0
 40
3.3235
  0
LINE
  5
16C6
330
1F
100
AcDbEntity
  8
0
  6
Continuous
 62
     7
100
AcDbLine
 10
1093.212259046308
 20
706.8763082477056
 30
0.0
 11
1081.712259046308
 21
706.8763082477056
 31
0.0
  0
LINE
  5
16C7
330
1F
100
AcDbEntity
  8
0
  6
Continuous
 62
     7
100
AcDbLine
 10
1207.201935817335
 20
714.0763082477056
 30
0.0
 11
1207.201935817335
 21
715.8763082477056
 31
0.0
  0
LINE
  5
16C8
330
1F
100
AcDbEntity
  8
0
  6
Continuous
 62
     7
100
AcDbLine
 10
1193.201935817335
 20
715.8763082477056
 30
0.0
 11
1207.201935817335
 21
715.8763082477056
 31
0.0
  0
LINE
  5
16C9
330
1F
100
AcDbEntity
  8
0
  6
Continuous
 62
     7
100
AcDbLine
 10
1083.212259046308
 20
815.8763082477056
 30
0.0
 11
1083.212259046308
 21
767.8763082477056
 31
0.0
  0
LINE
  5
16CA
330
1F
100
AcDbEntity
  8
0
  6
Continuous
 62
     7
100
AcDbLine
 10
1093.212259046308
 20
824.8763082477056
 30
0.0
 11
1093.212259046308
 21
767.8763082477056
 31
0.0
  0
POINT
  5
16CB
330
1F
100
AcDbEntity
  8
AM_7
100
AcDbPoint
 10
1059.712259046309
 20
765.8763082477056
 30
0.0
  0
LINE
  5
16CC
330
1F
100
AcDbEntity
  8
0
  6
Continuous
 62
     7
100
AcDbLine
 10
1093.212259046308
 20
763.8763082477056
 30
0.0
 11
1083.212259046308
 21
763.8763082477056
 31
0.0
  0
LINE
  5
16CD
330
1F
100
AcDbEntity
  8
0
  6
Continuous
 62
     7
100
AcDbLine
 10
1093.212259046308
 20
767.8763082477056
 30
0.0
 11
1083.212259046308
 21
767.8763082477056
 31
0.0
  0
CIRCLE
  5
16CE
330
1F
100
AcDbEntity
  8
0
  6
Continuous
 62
     7
100
AcDbCircle
 10
1071.712259046308
 20
835.8763082477056
 30
0.0
 40
3.3235
  0
LINE
  5
16CF
330
1F
100
AcDbEntity
  8
AM_7
100
AcDbLine
 10
1071.712259046308
 20
842.2063082477057
 30
0.0
 11
1071.712259046308
 21
829.5763082477057
 31
0.0
  0
LINE
  5
16D1
102
{ACAD_REACTORS
330
1C22
102
}
330
1F
100
AcDbEntity
  8
0
  6
Continuous
 62
     7
100
AcDbLine
 10
1081.712259046308
 20
845.8763082477057
 30
0.0
 11
1081.712259046308
 21
824.8763082477056
 31
0.0
  0
LINE
  5
16D2
330
1F
100
AcDbEntity
  8
0
  6
Continuous
 62
     7
100
AcDbLine
 10
1093.212259046308
 20
824.8763082477056
 30
0.0
 11
1081.712259046308
 21
824.8763082477056
 31
0.0
  0
LINE
  5
16D3
330
1F
100
AcDbEntity
  8
0
  6
PHANTOM
 62
     2
 48
2.0
100
AcDbLine
 10
1173.191935817335
 20
765.8763082477056
 30
0.0
 11
1171.841935817335
 21
791.8463082477057
 31
0.0
  0
LINE
  5
16D4
102
{ACAD_REACTORS
330
1BA1
330
1C55
102
}
330
1F
100
AcDbEntity
  8
0
  6
Continuous
 62
     7
100
AcDbLine
 10
1193.201935817335
 20
780.7963082477057
 30
0.0
 11
1193.201935817335
 21
824.8763082477056
 31
0.0
  0
LINE
  5
16D5
330
1F
100
AcDbEntity
  8
0
  6
PHANTOM
 62
     2
 48
2.0
100
AcDbLine
 10
1150.871935817335
 20
740.9963082477057
 30
0.0
 11
1171.841935817335
 21
739.9063082477056
 31
0.0
  0
LINE
  5
16D6
330
1F
100
AcDbEntity
  8
0
  6
PHANTOM
 62
     2
 48
2.0
100
AcDbLine
 10
1188.621935817335
 20
729.0263082477057
 30
0.0
 11
1150.351935817335
 21
731.0163082477057
 31
0.0
  0
LINE
  5
16D7
330
1F
100
AcDbEntity
  8
0
  6
PHANTOM
 62
     2
 48
2.0
100
AcDbLine
 10
1150.871935817335
 20
740.9963082477057
 30
0.0
 11
1150.351935817335
 21
731.0163082477057
 31
0.0
  0
LINE
  5
16D8
330
1F
100
AcDbEntity
  8
0
  6
PHANTOM
 62
     2
 48
2.0
100
AcDbLine
 10
1173.191935817335
 20
765.8763082477056
 30
0.0
 11
1171.841935817335
 21
739.9063082477056
 31
0.0
  0
LINE
  5
16D9
330
1F
100
AcDbEntity
  8
0
  6
Continuous
 62
     7
100
AcDbLine
 10
1205.501935817335
 20
742.8763082477056
 30
0.0
 11
1199.901935817335
 21
742.8763082477056
 31
0.0
  0
LINE
  5
16DA
330
1F
100
AcDbEntity
  8
0
  6
Continuous
 62
     7
100
AcDbLine
 10
1205.501935817335
 20
748.8763082477056
 30
0.0
 11
1199.901935817335
 21
748.8763082477056
 31
0.0
  0
LINE
  5
16DB
330
1F
100
AcDbEntity
  8
0
  6
Continuous
 62
     7
100
AcDbLine
 10
1199.901935817335
 20
742.8763082477056
 30
0.0
 11
1199.901935817335
 21
748.8763082477056
 31
0.0
  0
LINE
  5
16DC
330
1F
100
AcDbEntity
  8
0
  6
Continuous
 62
     7
100
AcDbLine
 10
1205.501935817335
 20
742.8763082477056
 30
0.0
 11
1205.501935817335
 21
748.8763082477056
 31
0.0
  0
LINE
  5
16DD
330
1F
100
AcDbEntity
  8
0
  6
ACISOTGB
 62
     2
100
AcDbLine
 10
1182.201935817335
 20
766.3463082477057
 30
0.0
 11
1173.191935817335
 21
765.8763082477056
 31
0.0
  0
LINE
  5
16DE
330
1F
100
AcDbEntity
  8
0
  6
ACISOTGB
 62
     2
100
AcDbLine
 10
1182.201935817335
 20
765.4063082477056
 30
0.0
 11
1173.191935817335
 21
765.8763082477056
 31
0.0
  0
LINE
  5
16DF
330
1F
100
AcDbEntity
  8
0
  6
Continuous
 62
     7
100
AcDbLine
 10
1199.901935817335
 20
788.8763082477056
 30
0.0
 11
1205.501935817335
 21
788.8763082477056
 31
0.0
  0
LINE
  5
16E0
330
1F
100
AcDbEntity
  8
0
  6
Continuous
 62
     7
100
AcDbLine
 10
1199.901935817335
 20
782.8763082477056
 30
0.0
 11
1205.501935817335
 21
782.8763082477056
 31
0.0
  0
LINE
  5
16E1
330
1F
100
AcDbEntity
  8
0
  6
Continuous
 62
     7
100
AcDbLine
 10
1199.901935817335
 20
782.8763082477056
 30
0.0
 11
1199.901935817335
 21
788.8763082477056
 31
0.0
  0
LINE
  5
16E2
330
1F
100
AcDbEntity
  8
0
  6
Continuous
 62
     7
100
AcDbLine
 10
1205.501935817335
 20
782.8763082477056
 30
0.0
 11
1205.501935817335
 21
788.8763082477056
 31
0.0
  0
LINE
  5
16E3
330
1F
100
AcDbEntity
  8
0
  6
PHANTOM
 62
     2
 48
2.0
100
AcDbLine
 10
1150.871935817335
 20
790.7563082477057
 30
0.0
 11
1171.841935817335
 21
791.8463082477057
 31
0.0
  0
LINE
  5
16E4
330
1F
100
AcDbEntity
  8
0
  6
PHANTOM
 62
     2
 48
2.0
100
AcDbLine
 10
1188.631935817335
 20
802.7263082477057
 30
0.0
 11
1150.351935817335
 21
800.7363082477057
 31
0.0
  0
LINE
  5
16E5
330
1F
100
AcDbEntity
  8
0
  6
PHANTOM
 62
     2
 48
2.0
100
AcDbLine
 10
1150.871935817335
 20
790.7563082477057
 30
0.0
 11
1150.351935817335
 21
800.7363082477057
 31
0.0
  0
LINE
  5
16E6
330
1F
100
AcDbEntity
  8
0
  6
Continuous
 62
     7
100
AcDbLine
 10
1207.201935817335
 20
817.6763082477059
 30
0.0
 11
1207.201935817335
 21
815.8763082477056
 31
0.0
  0
LINE
  5
16E7
330
1F
100
AcDbEntity
  8
0
  6
Continuous
 62
     7
100
AcDbLine
 10
1193.201935817335
 20
815.8763082477056
 30
0.0
 11
1207.201935817335
 21
815.8763082477056
 31
0.0
  0
LINE
  5
16E8
330
1F
100
AcDbEntity
  8
0
  6
Continuous
 62
     7
100
AcDbLine
 10
1229.201935817335
 20
750.9563082477058
 30
0.0
 11
1229.201935817335
 21
685.8763082477056
 31
0.0
  0
LINE
  5
16E9
330
1F
100
AcDbEntity
  8
AM_7
100
AcDbLine
 10
1211.201935817335
 20
829.6063082477056
 30
0.0
 11
1211.201935817335
 21
703.7563082477057
 31
0.0
  0
LINE
  5
16EA
330
1F
100
AcDbEntity
  8
0
  6
Continuous
 62
     7
100
AcDbLine
 10
1219.201935817335
 20
685.8763082477056
 30
0.0
 11
1219.201935817335
 21
706.8763082477056
 31
0.0
  0
LINE
  5
16EB
330
1F
100
AcDbEntity
  8
0
  6
Continuous
 62
     7
100
AcDbLine
 10
1219.201935817335
 20
685.8763082477056
 30
0.0
 11
1229.201935817335
 21
685.8763082477056
 31
0.0
  0
LINE
  5
16EC
330
1F
100
AcDbEntity
  8
0
  6
Continuous
 62
     7
100
AcDbLine
 10
1215.201935817335
 20
714.0763082477056
 30
0.0
 11
1215.201935817335
 21
715.8763082477056
 31
0.0
  0
LINE
  5
16ED
330
1F
100
AcDbEntity
  8
0
  6
Continuous
 62
     7
100
AcDbLine
 10
1215.201935817335
 20
715.8763082477056
 30
0.0
 11
1229.201935817335
 21
715.8763082477056
 31
0.0
  0
LINE
  5
16EE
330
1F
100
AcDbEntity
  8
0
  6
Continuous
 62
     7
100
AcDbLine
 10
1229.201935817335
 20
780.7963082477057
 30
0.0
 11
1229.201935817335
 21
845.8763082477057
 31
0.0
  0
LINE
  5
16EF
330
1F
100
AcDbEntity
  8
0
  6
Continuous
 62
     7
100
AcDbLine
 10
1215.201935817335
 20
817.6763082477059
 30
0.0
 11
1215.201935817335
 21
815.8763082477056
 31
0.0
  0
LINE
  5
16F0
330
1F
100
AcDbEntity
  8
0
  6
Continuous
 62
     7
100
AcDbLine
 10
1215.201935817335
 20
815.8763082477056
 30
0.0
 11
1229.201935817335
 21
815.8763082477056
 31
0.0
  0
LINE
  5
16F1
330
1F
100
AcDbEntity
  8
0
  6
Continuous
 62
     7
100
AcDbLine
 10
1219.201935817335
 20
845.8763082477057
 30
0.0
 11
1219.201935817335
 21
824.8763082477056
 31
0.0
  0
LINE
  5
16F2
102
{ACAD_REACTORS
330
1B7B
330
1BA1
330
1BC7
330
1C55
102
}
330
1F
100
AcDbEntity
  8
0
  6
Continuous
 62
     7
100
AcDbLine
 10
1219.201935817335
 20
845.8763082477057
 30
0.0
 11
1229.201935817335
 21
845.8763082477057
 31
0.0
  0
LINE
  5
16F3
330
1F
100
AcDbEntity
  8
0
  6
Continuous
 62
     7
100
AcDbLine
 10
837.4430052576276
 20
715.8763082477056
 30
0.0
 11
770.4430052576275
 21
715.8763082477056
 31
0.0
  0
LINE
  5
16F4
330
1F
100
AcDbEntity
  8
0
  6
Continuous
 62
     7
100
AcDbLine
 10
837.4430052576276
 20
703.8763082477056
 30
0.0
 11
770.4430052576275
 21
703.8763082477056
 31
0.0
  0
LINE
  5
16F5
330
1F
100
AcDbEntity
  8
0
  6
Continuous
 62
     7
100
AcDbLine
 10
691.2274383333594
 20
637.1779528919236
 30
0.0
 11
691.2274383333594
 21
583.1779528919236
 31
0.0
  0
DIMENSION
  5
16F6
330
1F
100
AcDbEntity
  8
Dim
100
AcDbDimension
  2
*D16
 10
643.7274383333593
 20
571.1779528919236
 30
0.0
 11
660.4774383333594
 21
573.4279528919236
 31
0.0
 70
    32
 71
     5
 42
33.5
  3
Standard
100
AcDbAlignedDimension
 13
677.2274383333593
 23
593.8479528919237
 33
0.0
 14
643.7274383333593
 24
613.0579528919237
 34
0.0
100
AcDbRotatedDimension
1001
ACAD
1000
DSTYLE
1002
{
1070
    41
1040
2.0
1070
    42
1040
1.0
1070
    44
1040
1.0
1070
    73
1070
     0
1070
    74
1070
     0
1070
    77
1070
     1
1070
    78
1070
     8
1070
    79
1070
     2
1070
   140
1040
2.5
1070
   141
1040
0.0
1070
   147
1040
1.0
1070
   172
1070
     1
1070
   174
1070
     1
1070
   176
1070
   256
1070
   177
1070
   256
1070
   178
1070
   256
1070
   271
1070
     2
1070
   272
1070
     2
1070
   340
1005
DAC
1070
   371
1070
    -1
1070
   372
1070
    -1
1002
}
  0
DIMENSION
  5
16F7
330
1F
100
AcDbEntity
  8
Dim
100
AcDbDimension
  2
*D17
 10
691.2274383333594
 20
571.1779528919236
 30
0.0
 11
684.2274383333593
 21
573.4279528919236
 31
0.0
 70
    32
 71
     5
 42
14.0
  3
Standard
100
AcDbAlignedDimension
 13
677.2274383333593
 23
593.8479528919237
 33
0.0
 14
691.2274383333594
 24
583.1779528919236
 34
0.0
100
AcDbRotatedDimension
1001
ACAD
1000
DSTYLE
1002
{
1070
    41
1040
2.0
1070
    42
1040
1.0
1070
    44
1040
1.0
1070
    73
1070
     0
1070
    74
1070
     0
1070
    77
1070
     1
1070
    78
1070
     8
1070
    79
1070
     2
1070
   140
1040
2.5
1070
   141
1040
0.0
1070
   147
1040
1.0
1070
   172
1070
     1
1070
   174
1070
     1
1070
   176
1070
   256
1070
   177
1070
   256
1070
   178
1070
   256
1070
   271
1070
     2
1070
   272
1070
     2
1070
   340
1005
DAC
1070
   371
1070
    -1
1070
   372
1070
    -1
1002
}
  0
LEADER
  5
16F8
330
1F
100
AcDbEntity
  8
Dim
100
AcDbLeader
  3
Standard
 76
     3
 10
680.5412616933803
 20
596.7872485182818
 30
0.0
 10
699.1998999741675
 20
581.0361797943734
 30
0.0
 10
717.2018134056229
 20
581.0361797943734
 30
0.0
1001
ACAD
1000
DSTYLE
1002
{
1070
    41
1040
2.0
1070
    42
1040
1.0
1070
    44
1040
1.0
1070
    73
1070
     0
1070
    74
1070
     0
1070
    77
1070
     0
1070
    78
1070
     8
1070
    79
1070
     2
1070
   140
1040
2.5
1070
   141
1040
0.0
1070
   147
1040
1.0
1070
   172
1070
     1
1070
   174
1070
     1
1070
   176
1070
   256
1070
   177
1070
   256
1070
   178
1070
   256
1070
   271
1070
     2
1070
   272
1070
     2
1070
   340
1005
DAC
1070
   371
1070
    -1
1070
   372
1070
    -1
1002
}
  0
LINE
  5
16F9
330
1F
100
AcDbEntity
  8
0
  6
Continuous
 62
     7
100
AcDbLine
 10
630.7274383333593
 20
643.6779528919235
 30
0.0
 11
630.7274383333593
 21
576.6779528919236
 31
0.0
  0
LINE
  5
16FA
330
1F
100
AcDbEntity
  8
0
  6
Continuous
 62
     7
100
AcDbLine
 10
633.7274383333594
 20
643.6779528919235
 30
0.0
 11
633.7274383333594
 21
576.6779528919236
 31
0.0
  0
LINE
  5
16FB
330
1F
100
AcDbEntity
  8
0
  6
Continuous
 62
     7
100
AcDbLine
 10
634.7274383333593
 20
583.1779528919236
 30
0.0
 11
691.2274383333594
 21
583.1779528919236
 31
0.0
  0
LINE
  5
16FC
330
1F
100
AcDbEntity
  8
0
  6
Continuous
 62
     7
100
AcDbLine
 10
633.7274383333594
 20
587.6779528919236
 30
0.0
 11
634.7274383333593
 21
587.6779528919236
 31
0.0
  0
LINE
  5
16FD
330
1F
100
AcDbEntity
  8
0
  6
Continuous
 62
     7
100
AcDbLine
 10
634.7274383333593
 20
587.6779528919236
 30
0.0
 11
634.7274383333593
 21
583.1779528919236
 31
0.0
  0
TEXT
  5
16FF
330
1F
100
AcDbEntity
  8
Dim
100
AcDbText
 10
701.2281841141954
 20
582.2761797943732
 30
0.0
 40
3.2
  1
Rc1/8
  7
China
100
AcDbText
  0
DIMENSION
  5
1701
330
1F
100
AcDbEntity
  8
Dim
100
AcDbDimension
  2
*D18
 10
706.3866294823671
 20
620.1779528919236
 30
0.0
 11
704.1366294823669
 21
610.1779528919237
 31
0.0
 70
    32
 71
     5
 42
20.0
  3
Standard
100
AcDbAlignedDimension
 13
684.9334383333594
 23
600.1779528919236
 33
0.0
 14
652.1144383333592
 24
620.1779528919236
 34
0.0
 50
90.0
100
AcDbRotatedDimension
1001
ACAD
1000
DSTYLE
1002
{
1070
    41
1040
2.0
1070
    42
1040
1.0
1070
    44
1040
1.0
1070
    73
1070
     0
1070
    74
1070
     0
1070
    77
1070
     1
1070
    78
1070
     8
1070
    79
1070
     2
1070
   140
1040
2.5
1070
   141
1040
0.0
1070
   147
1040
1.0
1070
   172
1070
     1
1070
   174
1070
     1
1070
   176
1070
   256
1070
   177
1070
   256
1070
   178
1070
   256
1070
   271
1070
     2
1070
   272
1070
     2
1070
   340
1005
DAC
1070
   371
1070
    -1
1070
   372
1070
    -1
1002
}
  0
LINE
  5
1702
330
1F
100
AcDbEntity
  8
AM_7
100
AcDbLine
 10
684.9334383333594
 20
600.1779528919236
 30
0.0
 11
670.6344383333593
 21
600.1779528919236
 31
0.0
  0
CIRCLE
  5
1704
330
1F
100
AcDbEntity
  8
0
  6
Continuous
 62
     7
100
AcDbCircle
 10
677.2274383333593
 20
600.1779528919236
 30
0.0
 40
4.282499999999999
  0
LINE
  5
1705
330
1F
100
AcDbEntity
  8
0
  6
Continuous
 62
     7
100
AcDbLine
 10
634.7274383333593
 20
637.1779528919236
 30
0.0
 11
691.2274383333594
 21
637.1779528919236
 31
0.0
  0
CIRCLE
  5
1706
330
1F
100
AcDbEntity
  8
0
  6
Continuous
 62
     7
100
AcDbCircle
 10
643.7274383333593
 20
620.1779528919236
 30
0.0
 40
4.282499999999999
  0
ARC
  5
1707
330
1F
100
AcDbEntity
  8
AM_4
100
AcDbCircle
 10
643.7274383333594
 20
620.1779528919234
 30
0.0
 40
4.863999999999999
100
AcDbArc
 50
260.0
 51
170.0
  0
LINE
  5
1709
330
1F
100
AcDbEntity
  8
AM_7
100
AcDbLine
 10
643.7274383333593
 20
613.0579528919237
 30
0.0
 11
643.7274383333593
 21
627.7879528919235
 31
0.0
  0
LINE
  5
170A
330
1F
100
AcDbEntity
  8
AM_7
100
AcDbLine
 10
652.1144383333592
 20
620.1779528919236
 30
0.0
 11
635.6474383333593
 21
620.1779528919236
 31
0.0
  0
LINE
  5
170C
330
1F
100
AcDbEntity
  8
0
  6
Continuous
 62
     7
100
AcDbLine
 10
634.7274383333593
 20
637.1779528919236
 30
0.0
 11
634.7274383333593
 21
632.6779528919236
 31
0.0
  0
LINE
  5
170D
330
1F
100
AcDbEntity
  8
0
  6
Continuous
 62
     7
100
AcDbLine
 10
633.7274383333594
 20
632.6779528919236
 30
0.0
 11
634.7274383333593
 21
632.6779528919236
 31
0.0
  0
POINT
  5
170E
330
1F
100
AcDbEntity
  8
0
100
AcDbPoint
 10
691.2274383333594
 20
610.1779528919236
 30
0.0
  0
LINE
  5
1710
330
1F
100
AcDbEntity
  8
AM_7
100
AcDbLine
 10
677.2274383333593
 20
593.8479528919237
 30
0.0
 11
677.2274383333593
 21
606.2879528919235
 31
0.0
  0
LINE
  5
1711
330
1F
100
AcDbEntity
  8
0
  6
Continuous
 62
     7
100
AcDbLine
 10
630.7274383333593
 20
703.8763082477056
 30
0.0
 11
633.7274383333594
 21
703.8763082477056
 31
0.0
  0
LINE
  5
1712
330
1F
100
AcDbEntity
  8
0
  6
Continuous
 62
     7
100
AcDbLine
 10
630.7274383333593
 20
703.8763082477056
 30
0.0
 11
630.7274383333593
 21
706.8763082477056
 31
0.0
  0
DIMENSION
  5
1713
330
1F
100
AcDbEntity
  8
Dim
100
AcDbDimension
  2
*D19
 10
586.7274383333593
 20
847.2396567377286
 30
0.0
 11
638.9774383333594
 21
849.4896567377287
 31
0.0
 70
    32
 71
     5
 42
104.5
  3
Standard
100
AcDbAlignedDimension
 13
691.2274383333594
 23
833.4144864920299
 33
0.0
 14
586.7274383333593
 24
789.8663082477057
 34
0.0
100
AcDbRotatedDimension
1001
ACAD
1000
DSTYLE
1002
{
1070
    41
1040
2.0
1070
    42
1040
1.0
1070
    44
1040
1.0
1070
    73
1070
     0
1070
    74
1070
     0
1070
    77
1070
     1
1070
    78
1070
     8
1070
    79
1070
     2
1070
   140
1040
2.5
1070
   141
1040
0.0
1070
   147
1040
1.0
1070
   172
1070
     1
1070
   174
1070
     1
1070
   176
1070
   256
1070
   177
1070
   256
1070
   178
1070
   256
1070
   271
1070
     2
1070
   272
1070
     2
1070
   340
1005
DAC
1070
   371
1070
    -1
1070
   372
1070
    -1
1002
}
  0
DIMENSION
  5
1714
330
1F
100
AcDbEntity
  8
Dim
100
AcDbDimension
  2
*D20
 10
615.7274383333593
 20
839.2396567377286
 30
0.0
 11
653.4774383333593
 21
841.4896567377287
 31
0.0
 70
    32
 71
     5
 42
75.5
  3
Standard
100
AcDbAlignedDimension
 13
691.2274383333594
 23
823.1562272850377
 33
0.0
 14
615.7274383333593
 24
829.6063082477056
 34
0.0
100
AcDbRotatedDimension
1001
ACAD
1000
DSTYLE
1002
{
1070
    41
1040
2.0
1070
    42
1040
1.0
1070
    44
1040
1.0
1070
    73
1070
     0
1070
    74
1070
     0
1070
    77
1070
     1
1070
    78
1070
     8
1070
    79
1070
     2
1070
   140
1040
2.5
1070
   141
1040
0.0
1070
   147
1040
1.0
1070
   172
1070
     1
1070
   174
1070
     1
1070
   176
1070
   256
1070
   177
1070
   256
1070
   178
1070
   256
1070
   271
1070
     2
1070
   272
1070
     2
1070
   340
1005
DAC
1070
   371
1070
    -1
1070
   372
1070
    -1
1002
}
  0
LINE
  5
1715
330
1F
100
AcDbEntity
  8
0
  6
Continuous
 62
     7
100
AcDbLine
 10
619.7274383333593
 20
815.8763082477056
 30
0.0
 11
633.7274383333594
 21
815.8763082477056
 31
0.0
  0
LINE
  5
1716
330
1F
100
AcDbEntity
  8
0
  6
Continuous
 62
     7
100
AcDbLine
 10
600.7274383333593
 20
824.8763082477056
 30
0.0
 11
630.7274383333593
 21
824.8763082477056
 31
0.0
  0
LINE
  5
1717
330
1F
100
AcDbEntity
  8
AM_7
100
AcDbLine
 10
580.9374383333594
 20
924.933882726121
 30
0.0
 11
697.5234383333594
 21
924.933882726121
 31
0.0
  0
LINE
  5
1718
330
1F
100
AcDbEntity
  8
AM_7
100
AcDbLine
 10
632.1634383333594
 20
896.433882726121
 30
0.0
 11
618.4564383333594
 21
896.433882726121
 31
0.0
  0
LINE
  5
1719
330
1F
100
AcDbEntity
  8
AM_7
100
AcDbLine
 10
631.7014383333594
 20
953.4338827261208
 30
0.0
 11
618.7644383333593
 21
953.4338827261208
 31
0.0
  0
LINE
  5
171A
330
1F
100
AcDbEntity
  8
0
  6
Continuous
 62
     7
100
AcDbLine
 10
633.7274383333594
 20
958.4338827261209
 30
0.0
 11
597.7274383333593
 21
958.4338827261209
 31
0.0
  0
LINE
  5
171B
330
1F
100
AcDbEntity
  8
0
  6
Continuous
 62
     7
100
AcDbLine
 10
633.7274383333594
 20
891.4338827261209
 30
0.0
 11
597.7274383333593
 21
891.4338827261209
 31
0.0
  0
CIRCLE
  5
171C
330
1F
100
AcDbEntity
  8
0
  6
Continuous
 62
     7
100
AcDbCircle
 10
625.2274383333594
 20
953.4338827261208
 30
0.0
 40
4.599999999999999
  0
CIRCLE
  5
171D
330
1F
100
AcDbEntity
  8
0
  6
Continuous
 62
     7
100
AcDbCircle
 10
625.2274383333594
 20
896.433882726121
 30
0.0
 40
4.599999999999999
  0
ARC
  5
171E
330
1F
100
AcDbEntity
  8
0
  6
Continuous
 62
     7
100
AcDbCircle
 10
615.7274383333593
 20
744.8763082477056
 30
0.0
 40
19.0
100
AcDbArc
 50
18.67170000000353
 51
161.327999999997
  0
LINE
  5
171F
330
1F
100
AcDbEntity
  8
AM_7
100
AcDbLine
 10
581.1404383333593
 20
765.8763082477056
 30
0.0
 11
696.2654383333593
 21
765.8763082477056
 31
0.0
  0
ARC
  5
1720
330
1F
100
AcDbEntity
  8
0
  6
Continuous
 62
     7
100
AcDbCircle
 10
615.7274383333593
 20
786.8763082477056
 30
0.0
 40
19.0
100
AcDbArc
 50
198.672000000003
 51
341.327999999997
  0
ARC
  5
1721
330
1F
100
AcDbEntity
  8
0
  6
Continuous
 62
     7
100
AcDbCircle
 10
615.7274383333593
 20
785.8763082477056
 30
0.0
 40
8.5
100
AcDbArc
 50
200.6670000000006
 51
159.3329999999994
  0
LINE
  5
1722
330
1F
100
AcDbEntity
  8
0
  6
Continuous
 62
     7
100
AcDbLine
 10
610.0274383333593
 20
782.8763082477056
 30
0.0
 11
610.0274383333593
 21
788.8763082477056
 31
0.0
  0
LINE
  5
1723
330
1F
100
AcDbEntity
  8
0
  6
Continuous
 62
     7
100
AcDbLine
 10
604.4274383333593
 20
782.8763082477056
 30
0.0
 11
604.4274383333593
 21
788.8763082477056
 31
0.0
  0
LINE
  5
1724
330
1F
100
AcDbEntity
  8
0
  6
Continuous
 62
     7
100
AcDbLine
 10
597.7274383333593
 20
780.7963082477057
 30
0.0
 11
597.7274383333593
 21
827.8763082477055
 31
0.0
  0
LINE
  5
1725
330
1F
100
AcDbEntity
  8
0
  6
Continuous
 62
     7
100
AcDbLine
 10
586.7274383333593
 20
789.8663082477057
 30
0.0
 11
586.7274383333593
 21
741.8663082477056
 31
0.0
  0
DIMENSION
  5
1726
330
1F
100
AcDbEntity
  8
Dim
100
AcDbDimension
  2
*D21
 10
574.6793449176654
 20
745.8763082477056
 30
0.0
 11
572.4293449176652
 21
765.8763082477057
 31
0.0
 70
    32
 71
     5
 42
40.0
  3
Standard
100
AcDbAlignedDimension
 13
603.0914383333594
 23
785.8763082477056
 33
0.0
 14
596.8864383333594
 24
745.8763082477056
 34
0.0
 50
90.0
100
AcDbRotatedDimension
1001
ACAD
1000
DSTYLE
1002
{
1070
    41
1040
2.0
1070
    42
1040
1.0
1070
    44
1040
1.0
1070
    73
1070
     0
1070
    74
1070
     0
1070
    77
1070
     1
1070
    78
1070
     8
1070
    79
1070
     2
1070
   140
1040
2.5
1070
   141
1040
0.0
1070
   147
1040
1.0
1070
   172
1070
     1
1070
   174
1070
     1
1070
   176
1070
   256
1070
   177
1070
   256
1070
   178
1070
   256
1070
   271
1070
     2
1070
   272
1070
     2
1070
   340
1005
DAC
1070
   371
1070
    -1
1070
   372
1070
    -1
1002
}
  0
ARC
  5
1727
330
1F
100
AcDbEntity
  8
0
  6
Continuous
 62
     7
100
AcDbCircle
 10
615.7274383333593
 20
745.8763082477056
 30
0.0
 40
8.5
100
AcDbArc
 50
200.6670000000006
 51
159.3329999999994
  0
LINE
  5
1728
330
1F
100
AcDbEntity
  8
0
  6
Continuous
 62
     7
100
AcDbLine
 10
610.0274383333593
 20
742.8763082477056
 30
0.0
 11
604.4274383333593
 21
742.8763082477056
 31
0.0
  0
LINE
  5
1729
330
1F
100
AcDbEntity
  8
0
  6
Continuous
 62
     7
100
AcDbLine
 10
610.0274383333593
 20
748.8763082477056
 30
0.0
 11
604.4274383333593
 21
748.8763082477056
 31
0.0
  0
LINE
  5
172A
330
1F
100
AcDbEntity
  8
AM_7
100
AcDbLine
 10
596.8864383333594
 20
745.8763082477056
 30
0.0
 11
627.6694383333594
 21
745.8763082477056
 31
0.0
  0
LINE
  5
172B
330
1F
100
AcDbEntity
  8
0
  6
Continuous
 62
     7
100
AcDbLine
 10
604.4274383333593
 20
742.8763082477056
 30
0.0
 11
604.4274383333593
 21
748.8763082477056
 31
0.0
  0
LINE
  5
172C
330
1F
100
AcDbEntity
  8
0
  6
Continuous
 62
     7
100
AcDbLine
 10
594.7234383333593
 20
725.8763082477056
 30
0.0
 11
597.7274383333593
 21
725.8763082477056
 31
0.0
  0
LINE
  5
172D
330
1F
100
AcDbEntity
  8
0
  6
Continuous
 62
     7
100
AcDbLine
 10
594.7234383333593
 20
725.8763082477056
 30
0.0
 11
586.7274383333593
 21
741.8663082477056
 31
0.0
  0
LINE
  5
172E
330
1F
100
AcDbEntity
  8
0
  6
Continuous
 62
     7
100
AcDbLine
 10
610.0274383333593
 20
742.8763082477056
 30
0.0
 11
610.0274383333593
 21
748.8763082477056
 31
0.0
  0
LINE
  5
172F
330
1F
100
AcDbEntity
  8
0
  6
Continuous
 62
     7
100
AcDbLine
 10
604.4274383333593
 20
782.8763082477056
 30
0.0
 11
610.0274383333593
 21
782.8763082477056
 31
0.0
  0
LINE
  5
1730
330
1F
100
AcDbEntity
  8
AM_7
100
AcDbLine
 10
603.0914383333594
 20
785.8763082477056
 30
0.0
 11
627.6694383333594
 21
785.8763082477056
 31
0.0
  0
LINE
  5
1731
330
1F
100
AcDbEntity
  8
0
  6
Continuous
 62
     7
100
AcDbLine
 10
597.7274383333593
 20
815.8763082477056
 30
0.0
 11
611.7274383333594
 21
815.8763082477056
 31
0.0
  0
LINE
  5
1732
330
1F
100
AcDbEntity
  8
0
  6
Continuous
 62
     7
100
AcDbLine
 10
604.4274383333593
 20
788.8763082477056
 30
0.0
 11
610.0274383333593
 21
788.8763082477056
 31
0.0
  0
LINE
  5
1733
330
1F
100
AcDbEntity
  8
0
  6
Continuous
 62
     7
100
AcDbLine
 10
594.7334383333593
 20
805.8763082477057
 30
0.0
 11
586.7274383333593
 21
789.8663082477057
 31
0.0
  0
LINE
  5
1734
330
1F
100
AcDbEntity
  8
0
  6
Continuous
 62
     7
100
AcDbLine
 10
594.7334383333593
 20
805.8763082477057
 30
0.0
 11
597.7274383333593
 21
805.8763082477057
 31
0.0
  0
LINE
  5
1735
330
1F
100
AcDbEntity
  8
0
  6
Continuous
 62
     7
100
AcDbLine
 10
611.7274383333594
 20
817.6763082477055
 30
0.0
 11
611.7274383333594
 21
815.8763082477056
 31
0.0
  0
LINE
  5
1736
330
1F
100
AcDbEntity
  8
0
  6
Continuous
 62
     7
100
AcDbLine
 10
619.7274383333593
 20
817.6763082477055
 30
0.0
 11
619.7274383333593
 21
815.8763082477056
 31
0.0
  0
LINE
  5
1737
330
1F
100
AcDbEntity
  8
0
  6
Continuous
 62
     7
100
AcDbLine
 10
611.7274383333594
 20
817.6763082477055
 30
0.0
 11
619.7274383333593
 21
817.6763082477055
 31
0.0
  0
LINE
  5
1738
330
1F
100
AcDbEntity
  8
0
  6
Continuous
 62
     7
100
AcDbLine
 10
600.7274383333593
 20
827.8763082477055
 30
0.0
 11
600.7274383333593
 21
824.8763082477056
 31
0.0
  0
LINE
  5
1739
330
1F
100
AcDbEntity
  8
0
  6
Continuous
 62
     7
100
AcDbLine
 10
597.7274383333593
 20
827.8763082477055
 30
0.0
 11
600.7274383333593
 21
827.8763082477055
 31
0.0
  0
LINE
  5
173A
330
1F
100
AcDbEntity
  8
AM_7
100
AcDbLine
 10
625.2274383333594
 20
904.063882726121
 30
0.0
 11
625.2274383333594
 21
889.193882726121
 31
0.0
  0
LINE
  5
173B
330
1F
100
AcDbEntity
  8
AM_7
100
AcDbLine
 10
606.2274383333593
 20
903.373882726121
 30
0.0
 11
606.2274383333593
 21
889.1338827261209
 31
0.0
  0
CIRCLE
  5
173C
330
1F
100
AcDbEntity
  8
0
  6
Continuous
 62
     7
100
AcDbCircle
 10
606.2274383333593
 20
896.433882726121
 30
0.0
 40
4.599999999999999
  0
LINE
  5
173D
330
1F
100
AcDbEntity
  8
0
  6
Continuous
 62
     7
100
AcDbLine
 10
597.7274383333593
 20
958.4338827261209
 30
0.0
 11
597.7274383333593
 21
891.4338827261209
 31
0.0
  0
LINE
  5
173E
330
1F
100
AcDbEntity
  8
0
  6
Continuous
 62
     7
100
AcDbLine
 10
600.7274383333593
 20
958.4338827261209
 30
0.0
 11
600.7274383333593
 21
891.4338827261209
 31
0.0
  0
LINE
  5
173F
330
1F
100
AcDbEntity
  8
AM_7
100
AcDbLine
 10
613.1434383333594
 20
896.433882726121
 30
0.0
 11
599.9754383333594
 21
896.433882726121
 31
0.0
  0
LINE
  5
1740
330
1F
100
AcDbEntity
  8
0
  6
Continuous
 62
     7
100
AcDbLine
 10
586.7274383333593
 20
947.433882726121
 30
0.0
 11
586.7274383333593
 21
902.4338827261209
 31
0.0
  0
LINE
  5
1741
330
1F
100
AcDbEntity
  8
0
  6
Continuous
 62
     7
100
AcDbLine
 10
594.7274383333593
 20
947.433882726121
 30
0.0
 11
594.7274383333593
 21
902.4338827261209
 31
0.0
  0
LINE
  5
1742
330
1F
100
AcDbEntity
  8
0
  6
Continuous
 62
     7
100
AcDbLine
 10
586.7274383333593
 20
902.4338827261209
 30
0.0
 11
597.7274383333593
 21
902.4338827261209
 31
0.0
  0
LINE
  5
1743
330
1F
100
AcDbEntity
  8
AM_7
100
AcDbLine
 10
615.7274383333593
 20
917.3038827261208
 30
0.0
 11
615.7274383333593
 21
904.2938827261208
 31
0.0
  0
CIRCLE
  5
1745
330
1F
100
AcDbEntity
  8
0
  6
Continuous
 62
     7
100
AcDbCircle
 10
615.7274383333593
 20
910.9338827261209
 30
0.0
 40
3.3235
  0
LINE
  5
1746
330
1F
100
AcDbEntity
  8
AM_7
100
AcDbLine
 10
622.3644383333593
 20
910.9338827261209
 30
0.0
 11
608.5344383333594
 21
910.9338827261209
 31
0.0
  0
LINE
  5
1747
330
1F
100
AcDbEntity
  8
AM_7
100
AcDbLine
 10
613.7594383333594
 20
953.4338827261208
 30
0.0
 11
599.8214383333594
 21
953.4338827261208
 31
0.0
  0
CIRCLE
  5
1748
330
1F
100
AcDbEntity
  8
0
  6
Continuous
 62
     7
100
AcDbCircle
 10
606.2274383333593
 20
953.4338827261208
 30
0.0
 40
4.599999999999999
  0
LINE
  5
1749
330
1F
100
AcDbEntity
  8
0
  6
Continuous
 62
     7
100
AcDbLine
 10
586.7274383333593
 20
947.433882726121
 30
0.0
 11
597.7274383333593
 21
947.433882726121
 31
0.0
  0
LINE
  5
174A
330
1F
100
AcDbEntity
  8
AM_7
100
AcDbLine
 10
615.7274383333593
 20
945.2638827261209
 30
0.0
 11
615.7274383333593
 21
932.633882726121
 31
0.0
  0
LINE
  5
174B
330
1F
100
AcDbEntity
  8
AM_7
100
AcDbLine
 10
622.5994383333593
 20
938.9338827261209
 30
0.0
 11
609.2374383333593
 21
938.9338827261209
 31
0.0
  0
CIRCLE
  5
174D
330
1F
100
AcDbEntity
  8
0
  6
Continuous
 62
     7
100
AcDbCircle
 10
615.7274383333593
 20
938.9338827261209
 30
0.0
 40
3.3235
  0
LINE
  5
174E
330
1F
100
AcDbEntity
  8
AM_7
100
AcDbLine
 10
606.2274383333593
 20
960.393882726121
 30
0.0
 11
606.2274383333593
 21
945.8038827261209
 31
0.0
  0
LINE
  5
174F
330
1F
100
AcDbEntity
  8
AM_7
100
AcDbLine
 10
625.2274383333594
 20
960.393882726121
 30
0.0
 11
625.2274383333594
 21
944.6438827261209
 31
0.0
  0
LEADER
  5
1750
330
1F
100
AcDbEntity
  8
Dim
100
AcDbLeader
  3
Standard
 76
     3
 10
667.0040465105152
 20
942.228188471525
 30
0.0
 10
683.7610811946166
 20
968.6991193793234
 30
0.0
 10
735.4829808682285
 20
968.6991193793234
 30
0.0
1001
ACAD
1000
DSTYLE
1002
{
1070
    41
1040
2.0
1070
    42
1040
1.0
1070
    44
1040
1.0
1070
    73
1070
     0
1070
    74
1070
     0
1070
    77
1070
     0
1070
    78
1070
     8
1070
    79
1070
     2
1070
   140
1040
2.5
1070
   141
1040
0.0
1070
   147
1040
1.0
1070
   172
1070
     1
1070
   174
1070
     1
1070
   176
1070
   256
1070
   177
1070
   256
1070
   178
1070
   256
1070
   271
1070
     2
1070
   272
1070
     2
1070
   340
1005
DAC
1070
   371
1070
    -1
1070
   372
1070
    -1
1002
}
  0
LINE
  5
1752
330
1F
100
AcDbEntity
  8
0
  6
Continuous
 62
     7
100
AcDbLine
 10
837.4430052576276
 20
815.8763082477056
 30
0.0
 11
770.4430052576275
 21
815.8763082477056
 31
0.0
  0
LINE
  5
1753
330
1F
100
AcDbEntity
  8
0
  6
Continuous
 62
     7
100
AcDbLine
 10
837.4430052576276
 20
827.8763082477055
 30
0.0
 11
770.4430052576275
 21
827.8763082477055
 31
0.0
  0
LINE
  5
1754
330
1F
100
AcDbEntity
  8
0
  6
Continuous
 62
     7
100
AcDbLine
 10
770.4430052576275
 20
767.8763082477056
 30
0.0
 11
775.9430052576275
 21
767.8763082477056
 31
0.0
  0
LINE
  5
1755
330
1F
100
AcDbEntity
  8
0
  6
Continuous
 62
     7
100
AcDbLine
 10
770.4430052576275
 20
763.8763082477056
 30
0.0
 11
775.9430052576275
 21
763.8763082477056
 31
0.0
  0
LINE
  5
1756
330
1F
100
AcDbEntity
  8
AM_7
100
AcDbLine
 10
838.5830052576276
 20
765.8763082477056
 30
0.0
 11
766.7500052576275
 21
765.8763082477056
 31
0.0
  0
LEADER
  5
1757
330
1F
100
AcDbEntity
  8
Dim
100
AcDbLeader
  3
Standard
 76
     3
 10
656.4566591657531
 20
736.4059779234901
 30
0.0
 10
669.3886534800818
 20
712.1045092060093
 30
0.0
 10
730.9953096163159
 20
712.1045092060093
 30
0.0
1001
ACAD
1000
DSTYLE
1002
{
1070
    41
1040
2.0
1070
    42
1040
1.0
1070
    44
1040
1.0
1070
    73
1070
     0
1070
    74
1070
     0
1070
    77
1070
     0
1070
    78
1070
     8
1070
    79
1070
     2
1070
   140
1040
2.5
1070
   141
1040
0.0
1070
   147
1040
1.0
1070
   172
1070
     1
1070
   174
1070
     1
1070
   176
1070
   256
1070
   177
1070
   256
1070
   178
1070
   256
1070
   271
1070
     2
1070
   272
1070
     2
1070
   340
1005
DAC
1070
   371
1070
    -1
1070
   372
1070
    -1
1002
}
  0
DIMENSION
  5
175A
330
1F
100
AcDbEntity
  8
Dim
100
AcDbDimension
  2
*D22
 10
711.2274383333593
 20
725.8763082477056
 30
0.0
 11
711.2274383333592
 21
765.8763082477058
 31
0.0
 70
   160
 71
     5
 42
80.0
  3
Standard
100
AcDbAlignedDimension
 13
691.2274383333594
 23
805.8763082477057
 33
0.0
 14
690.3798695142186
 24
725.8763082477056
 34
0.0
 50
90.0
100
AcDbRotatedDimension
1001
ACAD
1000
DSTYLE
1002
{
1070
    41
1040
2.0
1070
    42
1040
1.0
1070
    44
1040
1.0
1070
    73
1070
     0
1070
    74
1070
     0
1070
    77
1070
     1
1070
    78
1070
     8
1070
    79
1070
     2
1070
   140
1040
2.5
1070
   141
1040
0.0
1070
   147
1040
1.0
1070
   172
1070
     1
1070
   174
1070
     1
1070
   176
1070
   256
1070
   177
1070
   256
1070
   178
1070
   256
1070
   271
1070
     2
1070
   272
1070
     2
1070
   340
1005
DAC
1070
   371
1070
    -1
1070
   372
1070
    -1
1002
}
  0
LINE
  5
175B
330
1F
100
AcDbEntity
  8
AM_7
100
AcDbLine
 10
653.7274383333594
 20
800.1163082477056
 30
0.0
 11
653.7274383333594
 21
785.4463082477056
 31
0.0
  0
LINE
  5
175C
330
1F
100
AcDbEntity
  8
0
  6
Continuous
 62
     7
100
AcDbLine
 10
633.7274383333594
 20
780.7963082477057
 30
0.0
 11
633.7274383333594
 21
827.8763082477055
 31
0.0
  0
LINE
  5
175D
330
1F
100
AcDbEntity
  8
0
  6
Continuous
 62
     7
100
AcDbLine
 10
634.7274383333593
 20
805.8763082477057
 30
0.0
 11
634.7274383333593
 21
725.8763082477056
 31
0.0
  0
LINE
  5
175E
330
1F
100
AcDbEntity
  8
0
  6
Continuous
 62
     7
100
AcDbLine
 10
691.2274383333594
 20
805.8763082477057
 30
0.0
 11
691.2274383333594
 21
725.8763082477056
 31
0.0
  0
LINE
  5
175F
330
1F
100
AcDbEntity
  8
0
  6
Continuous
 62
     7
100
AcDbLine
 10
634.7274383333593
 20
778.3763082477056
 30
0.0
 11
691.2274383333594
 21
778.3763082477056
 31
0.0
  0
LINE
  5
1760
330
1F
100
AcDbEntity
  8
0
  6
Continuous
 62
     7
100
AcDbLine
 10
634.7274383333593
 20
773.3763082477056
 30
0.0
 11
691.2274383333594
 21
773.3763082477056
 31
0.0
  0
LINE
  5
1762
330
1F
100
AcDbEntity
  8
0
  6
Continuous
 62
     7
100
AcDbLine
 10
633.7274383333594
 20
725.8763082477056
 30
0.0
 11
691.2274383333594
 21
725.8763082477056
 31
0.0
  0
LINE
  5
1763
330
1F
100
AcDbEntity
  8
0
  6
Continuous
 62
     7
100
AcDbLine
 10
634.7274383333593
 20
753.3763082477056
 30
0.0
 11
691.2274383333594
 21
753.3763082477056
 31
0.0
  0
LINE
  5
1764
330
1F
100
AcDbEntity
  8
0
  6
Continuous
 62
     7
100
AcDbLine
 10
634.7274383333593
 20
758.3763082477056
 30
0.0
 11
691.2274383333594
 21
758.3763082477056
 31
0.0
  0
ARC
  5
1766
330
1F
100
AcDbEntity
  8
0
  6
Continuous
 62
     7
100
AcDbCircle
 10
634.7274383333593
 20
755.8763082477057
 30
0.0
 40
3.225
100
AcDbArc
 50
231.9550000000014
 51
270.0
  0
LINE
  5
1767
330
1F
100
AcDbEntity
  8
AM_7
100
AcDbLine
 10
645.8354383333593
 20
738.8763082477056
 30
0.0
 11
661.6414383333593
 21
738.8763082477056
 31
0.0
  0
CIRCLE
  5
1768
330
1F
100
AcDbEntity
  8
0
  6
Continuous
 62
     7
100
AcDbCircle
 10
653.7274383333594
 20
738.8763082477056
 30
0.0
 40
3.3235
  0
LINE
  5
176A
330
1F
100
AcDbEntity
  8
AM_7
100
AcDbLine
 10
653.7274383333594
 20
745.2863082477057
 30
0.0
 11
653.7274383333594
 21
731.7963082477056
 31
0.0
  0
ARC
  5
176B
330
1F
100
AcDbEntity
  8
0
  6
Continuous
 62
     7
100
AcDbCircle
 10
634.7274383333593
 20
775.8763082477056
 30
0.0
 40
3.225
100
AcDbArc
 50
90.0
 51
128.0449999999985
  0
ARC
  5
176D
330
1F
100
AcDbEntity
  8
0
  6
Continuous
 62
     7
100
AcDbCircle
 10
634.7274383333593
 20
755.8763082477057
 30
0.0
 40
3.225
100
AcDbArc
 50
90.0
 51
188.1829999999974
  0
ARC
  5
176E
330
1F
100
AcDbEntity
  8
0
  6
Continuous
 62
     7
100
AcDbCircle
 10
634.7274383333593
 20
775.8763082477056
 30
0.0
 40
3.225
100
AcDbArc
 50
171.8170000000026
 51
270.0
  0
DIMENSION
  5
176F
330
1F
100
AcDbEntity
  8
Dim
100
AcDbDimension
  2
*D23
 10
703.2274383333593
 20
738.8763082477056
 30
0.0
 11
700.9774383333592
 21
765.8763082477057
 31
0.0
 70
    32
 71
     5
 42
54.0
  3
Standard
100
AcDbAlignedDimension
 13
661.9024383333593
 23
792.8763082477056
 33
0.0
 14
661.6414383333593
 24
738.8763082477056
 34
0.0
 50
90.0
100
AcDbRotatedDimension
1001
ACAD
1000
DSTYLE
1002
{
1070
    41
1040
2.0
1070
    42
1040
1.0
1070
    44
1040
1.0
1070
    73
1070
     0
1070
    74
1070
     0
1070
    77
1070
     1
1070
    78
1070
     8
1070
    79
1070
     2
1070
   140
1040
2.5
1070
   141
1040
0.0
1070
   147
1040
1.0
1070
   172
1070
     1
1070
   174
1070
     1
1070
   176
1070
   256
1070
   177
1070
   256
1070
   178
1070
   256
1070
   271
1070
     2
1070
   272
1070
     2
1070
   340
1005
DAC
1070
   371
1070
    -1
1070
   372
1070
    -1
1002
}
  0
POINT
  5
1771
330
1F
100
AcDbEntity
  8
0
100
AcDbPoint
 10
691.2274383333594
 20
765.8763082477056
 30
0.0
  0
DIMENSION
  5
1772
330
1F
100
AcDbEntity
  8
Dim
100
AcDbDimension
  2
*D24
 10
691.2274383333594
 20
831.2396567377286
 30
0.0
 11
662.9774383333593
 21
833.4896567377287
 31
0.0
 70
    32
 71
     5
 42
56.5
  3
Standard
100
AcDbAlignedDimension
 13
634.7274383333593
 23
805.8763082477057
 33
0.0
 14
691.2274383333594
 24
815.2652632478419
 34
0.0
100
AcDbRotatedDimension
1001
ACAD
1000
DSTYLE
1002
{
1070
    41
1040
2.0
1070
    42
1040
1.0
1070
    44
1040
1.0
1070
    73
1070
     0
1070
    74
1070
     0
1070
    77
1070
     1
1070
    78
1070
     8
1070
    79
1070
     2
1070
   140
1040
2.5
1070
   141
1040
0.0
1070
   147
1040
1.0
1070
   172
1070
     1
1070
   174
1070
     1
1070
   176
1070
   256
1070
   177
1070
   256
1070
   178
1070
   256
1070
   271
1070
     2
1070
   272
1070
     2
1070
   340
1005
DAC
1070
   371
1070
    -1
1070
   372
1070
    -1
1002
}
  0
DIMENSION
  5
1773
330
1F
100
AcDbEntity
  8
Dim
100
AcDbDimension
  2
*D25
 10
691.2274383333594
 20
823.2396567377286
 30
0.0
 11
672.4774383333594
 21
825.4896567377286
 31
0.0
 70
    32
 71
     5
 42
37.5
  3
Standard
100
AcDbAlignedDimension
 13
653.7274383333594
 23
800.1163082477056
 33
0.0
 14
691.2274383333594
 24
805.8763082477057
 34
0.0
100
AcDbRotatedDimension
1001
ACAD
1000
DSTYLE
1002
{
1070
    41
1040
2.0
1070
    42
1040
1.0
1070
    44
1040
1.0
1070
    73
1070
     0
1070
    74
1070
     0
1070
    77
1070
     1
1070
    78
1070
     8
1070
    79
1070
     2
1070
   140
1040
2.5
1070
   141
1040
0.0
1070
   147
1040
1.0
1070
   172
1070
     1
1070
   174
1070
     1
1070
   176
1070
   256
1070
   177
1070
   256
1070
   178
1070
   256
1070
   271
1070
     2
1070
   272
1070
     2
1070
   340
1005
DAC
1070
   371
1070
    -1
1070
   372
1070
    -1
1002
}
  0
LINE
  5
1774
330
1F
100
AcDbEntity
  8
0
  6
Continuous
 62
     7
100
AcDbLine
 10
633.7274383333594
 20
805.8763082477057
 30
0.0
 11
691.2274383333594
 21
805.8763082477057
 31
0.0
  0
CIRCLE
  5
1775
330
1F
100
AcDbEntity
  8
0
  6
Continuous
 62
     7
100
AcDbCircle
 10
653.7274383333594
 20
792.8763082477056
 30
0.0
 40
3.3235
  0
LINE
  5
1777
330
1F
100
AcDbEntity
  8
AM_7
100
AcDbLine
 10
646.3424383333594
 20
792.8763082477056
 30
0.0
 11
661.9024383333593
 21
792.8763082477056
 31
0.0
  0
LINE
  5
1778
330
1F
100
AcDbEntity
  8
0
  6
Continuous
 62
     7
100
AcDbLine
 10
630.7274383333593
 20
827.8763082477055
 30
0.0
 11
633.7274383333594
 21
827.8763082477055
 31
0.0
  0
LINE
  5
1779
330
1F
100
AcDbEntity
  8
0
  6
Continuous
 62
     7
100
AcDbLine
 10
630.7274383333593
 20
827.8763082477055
 30
0.0
 11
630.7274383333593
 21
824.8763082477056
 31
0.0
  0
LINE
  5
177E
330
1F
100
AcDbEntity
  8
0
  6
Continuous
 62
     7
100
AcDbLine
 10
770.4430052576275
 20
827.8763082477055
 30
0.0
 11
770.4430052576275
 21
767.8763082477056
 31
0.0
  0
LINE
  5
177F
330
1F
100
AcDbEntity
  8
0
  6
Continuous
 62
     7
100
AcDbLine
 10
634.7274383333593
 20
902.4338827261209
 30
0.0
 11
634.7274383333593
 21
897.9338827261209
 31
0.0
  0
LINE
  5
1780
330
1F
100
AcDbEntity
  8
0
  6
Continuous
 62
     7
100
AcDbLine
 10
691.2274383333594
 20
951.933882726121
 30
0.0
 11
691.2274383333594
 21
897.9338827261209
 31
0.0
  0
LINE
  5
1781
330
1F
100
AcDbEntity
  8
0
  6
Continuous
 62
     7
100
AcDbLine
 10
633.7274383333594
 20
958.4338827261209
 30
0.0
 11
633.7274383333594
 21
891.4338827261209
 31
0.0
  0
LINE
  5
1782
330
1F
100
AcDbEntity
  8
0
  6
Continuous
 62
     7
100
AcDbLine
 10
630.7274383333593
 20
958.4338827261209
 30
0.0
 11
630.7274383333593
 21
891.4338827261209
 31
0.0
  0
DIMENSION
  5
1783
330
1F
100
AcDbEntity
  8
Dim
100
AcDbDimension
  2
*D26
 10
691.2274383333594
 20
885.9338827261209
 30
0.0
 11
677.4774383333594
 21
888.1838827261208
 31
0.0
 70
    32
 71
     5
 42
27.5
  3
Standard
100
AcDbAlignedDimension
 13
663.7274383333593
 23
903.063882726121
 33
0.0
 14
691.2274383333594
 24
897.9338827261209
 34
0.0
100
AcDbRotatedDimension
1001
ACAD
1000
DSTYLE
1002
{
1070
    41
1040
2.0
1070
    42
1040
1.0
1070
    44
1040
1.0
1070
    73
1070
     0
1070
    74
1070
     0
1070
    77
1070
     1
1070
    78
1070
     8
1070
    79
1070
     2
1070
   140
1040
2.5
1070
   141
1040
0.0
1070
   147
1040
1.0
1070
   172
1070
     1
1070
   174
1070
     1
1070
   176
1070
   256
1070
   177
1070
   256
1070
   178
1070
   256
1070
   271
1070
     2
1070
   272
1070
     2
1070
   340
1005
DAC
1070
   371
1070
    -1
1070
   372
1070
    -1
1002
}
  0
LINE
  5
1784
330
1F
100
AcDbEntity
  8
0
  6
Continuous
 62
     7
100
AcDbLine
 10
634.7274383333593
 20
897.9338827261209
 30
0.0
 11
691.2274383333594
 21
897.9338827261209
 31
0.0
  0
LINE
  5
1785
330
1F
100
AcDbEntity
  8
0
  6
Continuous
 62
     7
100
AcDbLine
 10
634.7274383333593
 20
951.933882726121
 30
0.0
 11
691.2274383333594
 21
951.933882726121
 31
0.0
  0
DIMENSION
  5
1786
330
1F
100
AcDbEntity
  8
Dim
100
AcDbDimension
  2
*D27
 10
709.434645685929
 20
909.933882726121
 30
0.0
 11
707.1846456859288
 21
924.933882726121
 31
0.0
 70
    32
 71
     5
 42
30.0
  3
Standard
100
AcDbAlignedDimension
 13
669.3454383333594
 23
939.9338827261209
 33
0.0
 14
669.3454383333594
 24
909.933882726121
 34
0.0
 50
90.0
100
AcDbRotatedDimension
1001
ACAD
1000
DSTYLE
1002
{
1070
    41
1040
2.0
1070
    42
1040
1.0
1070
    44
1040
1.0
1070
    73
1070
     0
1070
    74
1070
     0
1070
    77
1070
     1
1070
    78
1070
     8
1070
    79
1070
     2
1070
   140
1040
2.5
1070
   141
1040
0.0
1070
   147
1040
1.0
1070
   172
1070
     1
1070
   174
1070
     1
1070
   176
1070
   256
1070
   177
1070
   256
1070
   178
1070
   256
1070
   271
1070
     2
1070
   272
1070
     2
1070
   340
1005
DAC
1070
   371
1070
    -1
1070
   372
1070
    -1
1002
}
  0
LINE
  5
1787
330
1F
100
AcDbEntity
  8
0
  6
Continuous
 62
     7
100
AcDbLine
 10
633.7274383333594
 20
902.4338827261209
 30
0.0
 11
634.7274383333593
 21
902.4338827261209
 31
0.0
  0
LINE
  5
1788
330
1F
100
AcDbEntity
  8
AM_7
100
AcDbLine
 10
663.7274383333593
 20
915.5538827261208
 30
0.0
 11
663.7274383333593
 21
903.063882726121
 31
0.0
  0
CIRCLE
  5
178A
330
1F
100
AcDbEntity
  8
0
  6
Continuous
 62
     7
100
AcDbCircle
 10
663.7274383333593
 20
909.933882726121
 30
0.0
 40
3.3235
  0
LINE
  5
178C
330
1F
100
AcDbEntity
  8
AM_7
100
AcDbLine
 10
657.7384383333593
 20
909.933882726121
 30
0.0
 11
669.3454383333594
 21
909.933882726121
 31
0.0
  0
LINE
  5
178D
330
1F
100
AcDbEntity
  8
0
  6
Continuous
 62
     7
100
AcDbLine
 10
633.7274383333594
 20
947.433882726121
 30
0.0
 11
634.7274383333593
 21
947.433882726121
 31
0.0
  0
LINE
  5
178E
330
1F
100
AcDbEntity
  8
0
  6
Continuous
 62
     7
100
AcDbLine
 10
634.7274383333593
 20
951.933882726121
 30
0.0
 11
634.7274383333593
 21
947.433882726121
 31
0.0
  0
LINE
  5
178F
330
1F
100
AcDbEntity
  8
AM_7
100
AcDbLine
 10
663.7274383333593
 20
945.3938827261209
 30
0.0
 11
663.7274383333593
 21
933.7638827261208
 31
0.0
  0
CIRCLE
  5
1791
330
1F
100
AcDbEntity
  8
0
  6
Continuous
 62
     7
100
AcDbCircle
 10
663.7274383333593
 20
939.9338827261209
 30
0.0
 40
3.3235
  0
LINE
  5
1792
330
1F
100
AcDbEntity
  8
AM_7
100
AcDbLine
 10
657.7384383333593
 20
939.9338827261209
 30
0.0
 11
669.3454383333594
 21
939.9338827261209
 31
0.0
  0
POINT
  5
1793
330
1F
100
AcDbEntity
  8
0
100
AcDbPoint
 10
691.2274383333594
 20
924.933882726121
 30
0.0
  0
TEXT
  5
1795
330
1F
100
AcDbEntity
  8
Dim
100
AcDbText
 10
741.5832541943427
 20
840.8345531085901
 30
0.0
 40
1.6
  1
0
  7
China
100
AcDbText
  0
TEXT
  5
1796
330
1F
100
AcDbEntity
  8
Dim
100
AcDbText
 10
740.0572541943425
 20
842.9445531085901
 30
0.0
 40
1.6
  1
+0.062
  7
China
100
AcDbText
  0
TEXT
  5
1798
330
1F
100
AcDbEntity
  8
Dim
100
AcDbText
 10
727.1092541943426
 20
841.1545531085902
 30
0.0
 40
3.2
  1
42H9
  7
China
100
AcDbText
  0
CIRCLE
  5
1799
330
1F
100
AcDbEntity
  8
Dim
  6
Continuous
100
AcDbCircle
 10
725.3642541943426
 20
842.86455310859
 30
0.0
 40
0.9
  0
LINE
  5
179A
330
1F
100
AcDbEntity
  8
Dim
  6
Continuous
100
AcDbLine
 10
724.7822541943426
 20
841.2745531085901
 30
0.0
 11
725.9452541943426
 21
844.4645531085901
 31
0.0
  0
TEXT
  5
179B
330
1F
100
AcDbEntity
  8
Dim
100
AcDbText
 10
750.1152541943426
 20
841.1545531085902
 30
0.0
 40
3.2
  1
x4depth
  7
China
100
AcDbText
  0
LINE
  5
179F
330
1F
100
AcDbEntity
  8
0
  6
Continuous
 62
     7
100
AcDbLine
 10
831.9430052576276
 20
805.8763082477057
 30
0.0
 11
831.9430052576276
 21
778.3763082477056
 31
0.0
  0
LINE
  5
17A0
330
1F
100
AcDbEntity
  8
0
  6
Continuous
 62
     7
100
AcDbLine
 10
775.9430052576275
 20
805.8763082477057
 30
0.0
 11
775.9430052576275
 21
778.3763082477056
 31
0.0
  0
DIMENSION
  5
17A1
330
1F
100
AcDbEntity
  8
Dim
100
AcDbDimension
  2
*D28
 10
851.0254355873824
 20
735.8763082477056
 30
0.0
 11
848.7754355873823
 21
765.8763082477058
 31
0.0
 70
    32
 71
     5
 42
60.0
  3
Standard
100
AcDbAlignedDimension
 13
827.5430052576274
 23
795.8763082477056
 33
0.0
 14
791.3730052576275
 24
735.8763082477056
 34
0.0
 50
90.0
100
AcDbRotatedDimension
1001
ACAD
1000
DSTYLE
1002
{
1070
    41
1040
2.0
1070
    42
1040
1.0
1070
    44
1040
1.0
1070
    73
1070
     0
1070
    74
1070
     0
1070
    77
1070
     1
1070
    78
1070
     8
1070
    79
1070
     2
1070
   140
1040
2.5
1070
   141
1040
0.0
1070
   147
1040
1.0
1070
   172
1070
     1
1070
   174
1070
     1
1070
   176
1070
   256
1070
   177
1070
   256
1070
   178
1070
   256
1070
   271
1070
     2
1070
   272
1070
     2
1070
   340
1005
DAC
1070
   371
1070
    -1
1070
   372
1070
    -1
1002
}
  0
CIRCLE
  5
17A2
330
1F
100
AcDbEntity
  8
0
  6
Continuous
 62
     7
100
AcDbCircle
 10
803.9430052576275
 20
765.8763082477056
 30
0.0
 40
21.0
  0
LINE
  5
17A3
330
1F
100
AcDbEntity
  8
0
  6
Continuous
 62
     7
100
AcDbLine
 10
837.4430052576276
 20
827.8763082477055
 30
0.0
 11
837.4430052576276
 21
767.8763082477056
 31
0.0
  0
LINE
  5
17A4
330
1F
100
AcDbEntity
  8
0
  6
Continuous
 62
     7
100
AcDbLine
 10
831.9430052576276
 20
725.8763082477056
 30
0.0
 11
775.9430052576275
 21
725.8763082477056
 31
0.0
  0
LINE
  5
17A5
330
1F
100
AcDbEntity
  8
0
  6
Continuous
 62
     7
100
AcDbLine
 10
781.9430052576275
 20
759.0963082477056
 30
0.0
 11
781.9430052576275
 21
752.6563082477056
 31
0.0
  0
LINE
  5
17A6
330
1F
100
AcDbEntity
  8
0
  6
Continuous
 62
     7
100
AcDbLine
 10
780.4430052576275
 20
752.6563082477056
 30
0.0
 11
780.4430052576275
 21
759.0963082477056
 31
0.0
  0
LINE
  5
17A7
330
1F
100
AcDbEntity
  8
0
  6
Continuous
 62
     7
100
AcDbLine
 10
781.4430052576275
 20
752.6563082477056
 30
0.0
 11
781.4430052576275
 21
759.0963082477056
 31
0.0
  0
LINE
  5
17A8
330
1F
100
AcDbEntity
  8
0
  6
Continuous
 62
     7
100
AcDbLine
 10
777.7430052576274
 20
752.6463082477056
 30
0.0
 11
777.3230052576275
 21
753.3763082477056
 31
0.0
  0
LINE
  5
17A9
330
1F
100
AcDbEntity
  8
0
  6
Continuous
 62
     7
100
AcDbLine
 10
775.9430052576275
 20
753.3763082477056
 30
0.0
 11
775.9430052576275
 21
725.8763082477056
 31
0.0
  0
LINE
  5
17AA
330
1F
100
AcDbEntity
  8
0
  6
Continuous
 62
     7
100
AcDbLine
 10
781.9230052576275
 20
752.6563082477056
 30
0.0
 11
777.7430052576274
 21
752.6563082477056
 31
0.0
  0
CIRCLE
  5
17AC
330
1F
100
AcDbEntity
  8
0
  6
Continuous
 62
     7
100
AcDbCircle
 10
785.9430052576275
 20
735.8763082477056
 30
0.0
 40
3.3235
  0
LINE
  5
17AD
330
1F
100
AcDbEntity
  8
AM_7
100
AcDbLine
 10
791.3730052576275
 20
735.8763082477056
 30
0.0
 11
780.7230052576275
 21
735.8763082477056
 31
0.0
  0
LINE
  5
17AE
330
1F
100
AcDbEntity
  8
AM_7
100
AcDbLine
 10
785.9430052576275
 20
740.6863082477055
 30
0.0
 11
785.9430052576275
 21
730.2763082477057
 31
0.0
  0
LINE
  5
17AF
330
1F
100
AcDbEntity
  8
0
  6
Continuous
 62
     7
100
AcDbLine
 10
781.9430052576275
 20
779.0963082477056
 30
0.0
 11
777.7630052576276
 21
779.0963082477056
 31
0.0
  0
LINE
  5
17B0
330
1F
100
AcDbEntity
  8
0
  6
Continuous
 62
     7
100
AcDbLine
 10
777.7630052576276
 20
779.0963082477056
 30
0.0
 11
777.3430052576275
 21
778.3763082477056
 31
0.0
  0
LINE
  5
17B1
330
1F
100
AcDbEntity
  8
0
  6
Continuous
 62
     7
100
AcDbLine
 10
777.3430052576275
 20
778.3763082477056
 30
0.0
 11
775.9630052576275
 21
778.3763082477056
 31
0.0
  0
LINE
  5
17B2
330
1F
100
AcDbEntity
  8
0
  6
Continuous
 62
     7
100
AcDbLine
 10
777.3430052576275
 20
773.3763082477056
 30
0.0
 11
775.9630052576275
 21
773.3763082477056
 31
0.0
  0
LINE
  5
17B3
330
1F
100
AcDbEntity
  8
AM_7
100
AcDbLine
 10
783.2630052576275
 20
775.8763082477056
 30
0.0
 11
773.2930052576275
 21
775.8763082477056
 31
0.0
  0
POINT
  5
17B4
330
1F
100
AcDbEntity
  8
0
100
AcDbPoint
 10
781.9430052576275
 20
775.8763082477056
 30
0.0
  0
LINE
  5
17B5
330
1F
100
AcDbEntity
  8
0
  6
Continuous
 62
     7
100
AcDbLine
 10
781.9430052576275
 20
759.0963082477056
 30
0.0
 11
777.7430052576274
 21
759.0963082477056
 31
0.0
  0
LINE
  5
17B6
330
1F
100
AcDbEntity
  8
0
  6
Continuous
 62
     7
100
AcDbLine
 10
777.3230052576275
 20
758.3763082477056
 30
0.0
 11
775.9430052576275
 21
758.3763082477056
 31
0.0
  0
LINE
  5
17B7
330
1F
100
AcDbEntity
  8
0
  6
Continuous
 62
     7
100
AcDbLine
 10
777.7430052576274
 20
759.0963082477056
 30
0.0
 11
777.3230052576275
 21
758.3763082477056
 31
0.0
  0
LINE
  5
17B8
330
1F
100
AcDbEntity
  8
0
  6
Continuous
 62
     7
100
AcDbLine
 10
777.3230052576275
 20
753.3763082477056
 30
0.0
 11
775.9430052576275
 21
753.3763082477056
 31
0.0
  0
LINE
  5
17B9
330
1F
100
AcDbEntity
  8
AM_7
100
AcDbLine
 10
783.2430052576275
 20
755.8763082477057
 30
0.0
 11
773.2830052576275
 21
755.8763082477057
 31
0.0
  0
POINT
  5
17BA
330
1F
100
AcDbEntity
  8
0
100
AcDbPoint
 10
781.9430052576275
 20
755.8763082477057
 30
0.0
  0
LINE
  5
17BB
330
1F
100
AcDbEntity
  8
0
  6
Continuous
 62
     7
100
AcDbLine
 10
781.9430052576275
 20
772.6563082477056
 30
0.0
 11
777.7630052576276
 21
772.6563082477056
 31
0.0
  0
LINE
  5
17BC
330
1F
100
AcDbEntity
  8
0
  6
Continuous
 62
     7
100
AcDbLine
 10
775.9430052576275
 20
773.3763082477056
 30
0.0
 11
775.9430052576275
 21
758.3763082477056
 31
0.0
  0
LINE
  5
17BD
330
1F
100
AcDbEntity
  8
0
  6
Continuous
 62
     7
100
AcDbLine
 10
780.4430052576275
 20
779.0963082477056
 30
0.0
 11
780.4430052576275
 21
772.6563082477056
 31
0.0
  0
LINE
  5
17BE
330
1F
100
AcDbEntity
  8
0
  6
Continuous
 62
     7
100
AcDbLine
 10
781.4430052576275
 20
779.0963082477056
 30
0.0
 11
781.4430052576275
 21
772.6563082477056
 31
0.0
  0
LINE
  5
17BF
330
1F
100
AcDbEntity
  8
0
  6
Continuous
 62
     7
100
AcDbLine
 10
777.7630052576276
 20
772.6563082477056
 30
0.0
 11
777.3430052576275
 21
773.3763082477056
 31
0.0
  0
LINE
  5
17C0
330
1F
100
AcDbEntity
  8
0
  6
Continuous
 62
     7
100
AcDbLine
 10
781.9430052576275
 20
779.0963082477056
 30
0.0
 11
781.9430052576275
 21
772.6563082477056
 31
0.0
  0
POINT
  5
17C1
330
1F
100
AcDbEntity
  8
AM_7
100
AcDbPoint
 10
803.9430052576275
 20
765.8763082477056
 30
0.0
  0
LINE
  5
17C2
330
1F
100
AcDbEntity
  8
0
  6
Continuous
 62
     7
100
AcDbLine
 10
827.4430052576274
 20
752.6563082477056
 30
0.0
 11
827.4430052576274
 21
759.0963082477056
 31
0.0
  0
LINE
  5
17C3
330
1F
100
AcDbEntity
  8
0
  6
Continuous
 62
     7
100
AcDbLine
 10
826.4430052576274
 20
752.6563082477056
 30
0.0
 11
826.4430052576274
 21
759.0963082477056
 31
0.0
  0
LINE
  5
17C4
330
1F
100
AcDbEntity
  8
0
  6
Continuous
 62
     7
100
AcDbLine
 10
830.1430052576275
 20
752.6463082477056
 30
0.0
 11
830.5630052576274
 21
753.3763082477056
 31
0.0
  0
LINE
  5
17C5
330
1F
100
AcDbEntity
  8
0
  6
Continuous
 62
     7
100
AcDbLine
 10
825.9430052576275
 20
752.6563082477056
 30
0.0
 11
825.9430052576275
 21
759.0963082477056
 31
0.0
  0
LINE
  5
17C6
330
1F
100
AcDbEntity
  8
0
  6
Continuous
 62
     7
100
AcDbLine
 10
831.9430052576276
 20
753.3763082477056
 30
0.0
 11
831.9430052576276
 21
725.8763082477056
 31
0.0
  0
LINE
  5
17C7
330
1F
100
AcDbEntity
  8
0
  6
Continuous
 62
     7
100
AcDbLine
 10
825.9430052576275
 20
752.6563082477056
 30
0.0
 11
830.1430052576275
 21
752.6563082477056
 31
0.0
  0
LINE
  5
17C8
330
1F
100
AcDbEntity
  8
0
  6
Continuous
 62
     7
100
AcDbLine
 10
825.9430052576275
 20
779.0963082477056
 30
0.0
 11
830.1430052576275
 21
779.0963082477056
 31
0.0
  0
LINE
  5
17C9
330
1F
100
AcDbEntity
  8
AM_7
100
AcDbLine
 10
824.7130052576276
 20
775.8763082477056
 30
0.0
 11
833.9230052576276
 21
775.8763082477056
 31
0.0
  0
LINE
  5
17CA
330
1F
100
AcDbEntity
  8
0
  6
Continuous
 62
     7
100
AcDbLine
 10
830.1430052576275
 20
779.0963082477056
 30
0.0
 11
830.5630052576274
 21
778.3763082477056
 31
0.0
  0
LINE
  5
17CB
330
1F
100
AcDbEntity
  8
0
  6
Continuous
 62
     7
100
AcDbLine
 10
830.5630052576274
 20
778.3763082477056
 30
0.0
 11
831.9430052576276
 21
778.3763082477056
 31
0.0
  0
LINE
  5
17CC
330
1F
100
AcDbEntity
  8
0
  6
Continuous
 62
     7
100
AcDbLine
 10
830.5630052576274
 20
773.3763082477056
 30
0.0
 11
831.9430052576276
 21
773.3763082477056
 31
0.0
  0
LINE
  5
17CD
330
1F
100
AcDbEntity
  8
0
  6
Continuous
 62
     7
100
AcDbLine
 10
825.9430052576275
 20
759.0963082477056
 30
0.0
 11
830.1430052576275
 21
759.0963082477056
 31
0.0
  0
LINE
  5
17CE
330
1F
100
AcDbEntity
  8
0
  6
Continuous
 62
     7
100
AcDbLine
 10
837.4430052576276
 20
763.8763082477056
 30
0.0
 11
831.9430052576276
 21
763.8763082477056
 31
0.0
  0
LINE
  5
17CF
330
1F
100
AcDbEntity
  8
AM_7
100
AcDbLine
 10
824.7130052576276
 20
755.8763082477057
 30
0.0
 11
833.9230052576276
 21
755.8763082477057
 31
0.0
  0
LINE
  5
17D0
330
1F
100
AcDbEntity
  8
0
  6
Continuous
 62
     7
100
AcDbLine
 10
830.1430052576275
 20
759.1063082477056
 30
0.0
 11
830.5630052576274
 21
758.3763082477056
 31
0.0
  0
LINE
  5
17D1
330
1F
100
AcDbEntity
  8
0
  6
Continuous
 62
     7
100
AcDbLine
 10
830.5630052576274
 20
753.3763082477056
 30
0.0
 11
831.9430052576276
 21
753.3763082477056
 31
0.0
  0
LINE
  5
17D2
330
1F
100
AcDbEntity
  8
0
  6
Continuous
 62
     7
100
AcDbLine
 10
830.5630052576274
 20
758.3763082477056
 30
0.0
 11
831.9430052576276
 21
758.3763082477056
 31
0.0
  0
LINE
  5
17D3
330
1F
100
AcDbEntity
  8
0
  6
Continuous
 62
     7
100
AcDbLine
 10
825.9430052576275
 20
772.6563082477056
 30
0.0
 11
830.1430052576275
 21
772.6563082477056
 31
0.0
  0
LINE
  5
17D4
330
1F
100
AcDbEntity
  8
0
  6
Continuous
 62
     7
100
AcDbLine
 10
837.4430052576276
 20
767.8763082477056
 30
0.0
 11
831.9430052576276
 21
767.8763082477056
 31
0.0
  0
LINE
  5
17D5
330
1F
100
AcDbEntity
  8
0
  6
Continuous
 62
     7
100
AcDbLine
 10
831.9430052576276
 20
773.3763082477056
 30
0.0
 11
831.9430052576276
 21
758.3763082477056
 31
0.0
  0
LINE
  5
17D6
330
1F
100
AcDbEntity
  8
0
  6
Continuous
 62
     7
100
AcDbLine
 10
827.4430052576274
 20
779.0963082477056
 30
0.0
 11
827.4430052576274
 21
772.6563082477056
 31
0.0
  0
LINE
  5
17D7
330
1F
100
AcDbEntity
  8
0
  6
Continuous
 62
     7
100
AcDbLine
 10
826.4430052576274
 20
779.0963082477056
 30
0.0
 11
826.4430052576274
 21
772.6563082477056
 31
0.0
  0
LINE
  5
17D8
330
1F
100
AcDbEntity
  8
0
  6
Continuous
 62
     7
100
AcDbLine
 10
830.1430052576275
 20
772.6463082477056
 30
0.0
 11
830.5630052576274
 21
773.3763082477056
 31
0.0
  0
LINE
  5
17D9
330
1F
100
AcDbEntity
  8
0
  6
Continuous
 62
     7
100
AcDbLine
 10
825.9430052576275
 20
779.0963082477056
 30
0.0
 11
825.9430052576275
 21
772.6563082477056
 31
0.0
  0
LINE
  5
17DB
330
1F
100
AcDbEntity
  8
0
  6
Continuous
 62
     7
100
AcDbLine
 10
831.9430052576276
 20
805.8763082477057
 30
0.0
 11
775.9430052576275
 21
805.8763082477057
 31
0.0
  0
LINE
  5
17DC
330
1F
100
AcDbEntity
  8
AM_7
100
AcDbLine
 10
827.5430052576274
 20
795.8763082477056
 30
0.0
 11
816.1330052576275
 21
795.8763082477056
 31
0.0
  0
LINE
  5
17DD
330
1F
100
AcDbEntity
  8
0
  6
Continuous
 62
     7
100
AcDbLine
 10
780.4430052576275
 20
815.8763082477056
 30
0.0
 11
780.4430052576275
 21
805.8763082477057
 31
0.0
  0
CIRCLE
  5
17DF
330
1F
100
AcDbEntity
  8
0
  6
Continuous
 62
     7
100
AcDbCircle
 10
821.9430052576274
 20
795.8763082477056
 30
0.0
 40
3.3235
  0
LINE
  5
17E0
330
1F
100
AcDbEntity
  8
AM_7
100
AcDbLine
 10
821.9430052576274
 20
801.4063082477056
 30
0.0
 11
821.9430052576274
 21
790.5463082477057
 31
0.0
  0
LINE
  5
17E1
330
1F
100
AcDbEntity
  8
0
  6
Continuous
 62
     7
100
AcDbLine
 10
827.4430052576274
 20
815.8763082477056
 30
0.0
 11
827.4430052576274
 21
805.8763082477057
 31
0.0
  0
TEXT
  5
17E2
330
1F
100
AcDbEntity
  8
Dim
100
AcDbText
 10
848.5527461900408
 20
815.6047741031258
 30
0.0
 40
3.2
  1
2-M8x1.25x15depth
  7
China
100
AcDbText
  0
TEXT
  5
17E5
330
1F
100
AcDbEntity
  8
Dim
100
AcDbText
 10
685.8993460929148
 20
970.562583968616
 30
0.0
 40
3.2
  1
2-M8x1.25x15depth
  7
China
100
AcDbText
  0
TEXT
  5
17E8
330
1F
100
AcDbEntity
  8
Dim
100
AcDbText
 10
685.3955951816125
 20
963.5884632781342
 30
0.0
 40
3.2
  1
(Mounting thred)
  7
China
100
AcDbText
  0
TEXT
  5
17E9
330
1F
100
AcDbEntity
  8
Dim
100
AcDbText
 10
699.8661553354958
 20
575.7117198992615
 30
0.0
 40
3.2
  1
(Finger opening port)
  7
China
100
AcDbText
  0
TEXT
  5
17EA
330
1F
100
AcDbEntity
  8
Dim
100
AcDbText
 10
664.527100293245
 20
644.8489787156248
 30
0.0
 40
3.2
  1
(Finger closing port)
  7
China
100
AcDbText
  0
TEXT
  5
17EB
330
1F
100
AcDbEntity
  8
Dim
100
AcDbText
 10
536.1183042785937
 20
552.717741646094
 30
0.0
 40
3.2
  1
attachment)
  7
China
100
AcDbText
  0
TEXT
  5
17EC
330
1F
100
AcDbEntity
  8
Dim
100
AcDbText
 10
536.1183042785937
 20
557.9376235357496
 30
0.0
 40
3.2
  1
(Thread for mounting 
  7
China
100
AcDbText
  0
LINE
  5
17EF
330
1F
100
AcDbEntity
  8
AM_7
100
AcDbLine
 10
1249.201935817335
 20
745.2863082477057
 30
0.0
 11
1249.201935817335
 21
731.7963082477056
 31
0.0
  0
CIRCLE
  5
17F1
330
1F
100
AcDbEntity
  8
0
  6
Continuous
 62
     7
100
AcDbCircle
 10
1249.201935817335
 20
738.8763082477056
 30
0.0
 40
3.3235
  0
LINE
  5
17F2
330
1F
100
AcDbEntity
  8
0
  6
Continuous
 62
     7
100
AcDbLine
 10
1286.701935817335
 20
805.8763082477057
 30
0.0
 11
1286.701935817335
 21
725.8763082477056
 31
0.0
  0
LINE
  5
17F3
330
1F
100
AcDbEntity
  8
0
  6
Continuous
 62
     7
100
AcDbLine
 10
1230.201935817335
 20
805.8763082477057
 30
0.0
 11
1230.201935817335
 21
725.8763082477056
 31
0.0
  0
LINE
  5
17F4
330
1F
100
AcDbEntity
  8
0
  6
Continuous
 62
     7
100
AcDbLine
 10
1229.201935817335
 20
725.8763082477056
 30
0.0
 11
1286.701935817335
 21
725.8763082477056
 31
0.0
  0
LINE
  5
17F5
330
1F
100
AcDbEntity
  8
AM_7
100
AcDbLine
 10
1241.309935817335
 20
738.8763082477056
 30
0.0
 11
1257.115935817335
 21
738.8763082477056
 31
0.0
  0
LINE
  5
17F6
330
1F
100
AcDbEntity
  8
0
  6
Continuous
 62
     7
100
AcDbLine
 10
1229.201935817335
 20
805.8763082477057
 30
0.0
 11
1286.701935817335
 21
805.8763082477057
 31
0.0
  0
LINE
  5
17F8
330
1F
100
AcDbEntity
  8
0
  6
Continuous
 62
     7
100
AcDbLine
 10
1230.201935817335
 20
758.3763082477056
 30
0.0
 11
1286.701935817335
 21
758.3763082477056
 31
0.0
  0
LINE
  5
17F9
330
1F
100
AcDbEntity
  8
0
  6
Continuous
 62
     7
100
AcDbLine
 10
1230.201935817335
 20
753.3763082477056
 30
0.0
 11
1286.701935817335
 21
753.3763082477056
 31
0.0
  0
LINE
  5
17FB
330
1F
100
AcDbEntity
  8
0
  6
Continuous
 62
     7
100
AcDbLine
 10
1230.201935817335
 20
773.3763082477056
 30
0.0
 11
1286.701935817335
 21
773.3763082477056
 31
0.0
  0
LINE
  5
17FC
330
1F
100
AcDbEntity
  8
0
  6
Continuous
 62
     7
100
AcDbLine
 10
1230.201935817335
 20
778.3763082477056
 30
0.0
 11
1286.701935817335
 21
778.3763082477056
 31
0.0
  0
ARC
  5
17FD
330
1F
100
AcDbEntity
  8
0
  6
Continuous
 62
     7
100
AcDbCircle
 10
1230.201935817335
 20
775.8763082477056
 30
0.0
 40
3.225
100
AcDbArc
 50
171.8170000000026
 51
270.0
  0
ARC
  5
17FE
330
1F
100
AcDbEntity
  8
0
  6
Continuous
 62
     7
100
AcDbCircle
 10
1230.201935817335
 20
755.8763082477057
 30
0.0
 40
3.225
100
AcDbArc
 50
90.0
 51
188.1829999999974
  0
ARC
  5
17FF
330
1F
100
AcDbEntity
  8
0
  6
Continuous
 62
     7
100
AcDbCircle
 10
1230.201935817335
 20
775.8763082477056
 30
0.0
 40
3.225
100
AcDbArc
 50
90.0
 51
128.0449999999985
  0
ARC
  5
1800
330
1F
100
AcDbEntity
  8
0
  6
Continuous
 62
     7
100
AcDbCircle
 10
1230.201935817335
 20
755.8763082477057
 30
0.0
 40
3.225
100
AcDbArc
 50
231.9550000000014
 51
270.0
  0
LINE
  5
1801
330
1F
100
AcDbEntity
  8
AM_7
100
AcDbLine
 10
1241.816935817335
 20
792.8763082477056
 30
0.0
 11
1257.376935817335
 21
792.8763082477056
 31
0.0
  0
CIRCLE
  5
1803
330
1F
100
AcDbEntity
  8
0
  6
Continuous
 62
     7
100
AcDbCircle
 10
1249.201935817335
 20
792.8763082477056
 30
0.0
 40
3.3235
  0
LINE
  5
1805
330
1F
100
AcDbEntity
  8
AM_7
100
AcDbLine
 10
1249.201935817335
 20
800.1163082477056
 30
0.0
 11
1249.201935817335
 21
785.4463082477056
 31
0.0
  0
POINT
  5
1807
330
1F
100
AcDbEntity
  8
0
100
AcDbPoint
 10
1286.701935817335
 20
765.8763082477056
 30
0.0
  0
LINE
  5
1809
330
1F
100
AcDbEntity
  8
AM_7
100
AcDbLine
 10
1211.201935817335
 20
829.6063082477056
 30
0.0
 11
1211.201935817335
 21
703.7563082477057
 31
0.0
  0
LINE
  5
180A
330
1F
100
AcDbEntity
  8
0
  6
Continuous
 62
     7
100
AcDbLine
 10
1190.197935817335
 20
725.8763082477056
 30
0.0
 11
1182.201935817335
 21
741.8663082477056
 31
0.0
  0
LINE
  5
180B
330
1F
100
AcDbEntity
  8
0
  6
Continuous
 62
     7
100
AcDbLine
 10
1190.197935817335
 20
725.8763082477056
 30
0.0
 11
1193.201935817335
 21
725.8763082477056
 31
0.0
  0
LINE
  5
180C
330
1F
100
AcDbEntity
  8
0
  6
Continuous
 62
     7
100
AcDbLine
 10
1190.207935817335
 20
805.8763082477057
 30
0.0
 11
1182.201935817335
 21
789.8663082477057
 31
0.0
  0
LINE
  5
180D
330
1F
100
AcDbEntity
  8
0
  6
Continuous
 62
     7
100
AcDbLine
 10
1182.201935817335
 20
789.8663082477057
 30
0.0
 11
1182.201935817335
 21
741.8663082477056
 31
0.0
  0
LINE
  5
180E
330
1F
100
AcDbEntity
  8
0
  6
Continuous
 62
     7
100
AcDbLine
 10
1190.207935817335
 20
805.8763082477057
 30
0.0
 11
1193.201935817335
 21
805.8763082477057
 31
0.0
  0
TEXT
  5
180F
330
1F
100
AcDbEntity
  8
Dim
100
AcDbText
 10
850.4898749345453
 20
809.2606704625822
 30
0.0
 40
3.2
  1
(Mounting thred)
  7
China
100
AcDbText
  0
TEXT
  5
1810
330
1F
100
AcDbEntity
  8
Dim
100
AcDbText
 10
671.3342334513482
 20
702.6996062732652
 30
0.0
 40
3.2
  1
6.8(Mounting hole)
  7
China
100
AcDbText
  0
TEXT
  5
1811
330
1F
100
AcDbEntity
  8
Dim
100
AcDbText
 10
671.3342334513482
 20
707.2128844247337
 30
0.0
 40
3.2
  1
Bottom through hole die.
  7
China
100
AcDbText
  0
LINE
  5
1812
330
1F
100
AcDbEntity
  8
0
 48
2.0
100
AcDbLine
 10
1037.712259046308
 20
824.8763082477056
 30
0.0
 11
1081.712259046308
 21
824.8763082477056
 31
0.0
  0
LINE
  5
1813
330
1F
100
AcDbEntity
  8
0
 48
2.0
100
AcDbLine
 10
1037.712259046308
 20
706.8763082477056
 30
0.0
 11
1081.712259046308
 21
706.8763082477056
 31
0.0
  0
LINE
  5
1814
330
1F
100
AcDbEntity
  8
0
 48
2.0
100
AcDbLine
 10
1083.212259046308
 20
805.8763082477057
 30
0.0
 11
1036.212259046308
 21
805.8763082477057
 31
0.0
  0
LINE
  5
1815
330
1F
100
AcDbEntity
  8
0
 48
2.0
100
AcDbLine
 10
1083.212259046308
 20
789.8663082477058
 30
0.0
 11
1036.212259046308
 21
789.8663082477057
 31
0.0
  0
LINE
  5
1816
330
1F
100
AcDbEntity
  8
0
 48
2.0
100
AcDbLine
 10
1083.212259046308
 20
741.8863082477054
 30
0.0
 11
1036.212259046308
 21
741.8863082477056
 31
0.0
  0
LINE
  5
1817
330
1F
100
AcDbEntity
  8
0
 48
2.0
100
AcDbLine
 10
1083.212259046308
 20
725.8763082477056
 30
0.0
 11
1036.212259046308
 21
725.8763082477056
 31
0.0
  0
LINE
  5
1A7D
330
1F
100
AcDbEntity
  8
AM_7
  6
AM_ISO08W050x2
100
AcDbLine
 10
1047.712259046308
 20
835.8763082477056
 30
0.0
 11
1053.644202092872
 21
835.8763082477056
 31
0.0
  0
LINE
  5
1A7E
330
1F
100
AcDbEntity
  8
AM_7
  6
AM_ISO08W050x2
100
AcDbLine
 10
1047.712259046308
 20
835.8763082477056
 30
0.0
 11
1041.780315999745
 21
835.8763082477056
 31
0.0
  0
LINE
  5
1A7F
102
{ACAD_REACTORS
330
1C22
102
}
330
1F
100
AcDbEntity
  8
AM_7
  6
AM_ISO08W050x2
100
AcDbLine
 10
1071.712259046308
 20
835.8763082477056
 30
0.0
 11
1077.644202092872
 21
835.8763082477056
 31
0.0
  0
LINE
  5
1A80
330
1F
100
AcDbEntity
  8
AM_7
  6
AM_ISO08W050x2
100
AcDbLine
 10
1071.712259046308
 20
835.8763082477056
 30
0.0
 11
1065.780315999745
 21
835.8763082477056
 31
0.0
  0
LINE
  5
1A81
330
1F
100
AcDbEntity
  8
AM_7
  6
AM_ISO08W050x2
100
AcDbLine
 10
1047.712259046308
 20
695.8763082477056
 30
0.0
 11
1053.644202092872
 21
695.8763082477056
 31
0.0
  0
LINE
  5
1A82
330
1F
100
AcDbEntity
  8
AM_7
  6
AM_ISO08W050x2
100
AcDbLine
 10
1047.712259046308
 20
695.8763082477056
 30
0.0
 11
1041.780315999745
 21
695.8763082477056
 31
0.0
  0
LINE
  5
1A83
330
1F
100
AcDbEntity
  8
AM_7
  6
AM_ISO08W050x2
100
AcDbLine
 10
1071.712259046308
 20
695.8763082477056
 30
0.0
 11
1077.644202092872
 21
695.8763082477056
 31
0.0
  0
LINE
  5
1A84
330
1F
100
AcDbEntity
  8
AM_7
  6
AM_ISO08W050x2
100
AcDbLine
 10
1071.712259046308
 20
695.8763082477056
 30
0.0
 11
1065.780315999745
 21
695.8763082477056
 31
0.0
  0
TEXT
  5
1A87
330
1F
100
AcDbEntity
  8
Dim
100
AcDbText
 10
670.8570322506634
 20
714.4959249340606
 30
0.0
 40
3.2
  1
4-M8x1.25x16depth
  7
China
100
AcDbText
  0
LEADER
  5
1AA5
330
1F
100
AcDbEntity
  8
Dim
100
AcDbLeader
  3
Standard
 76
     3
 10
612.8327985861419
 20
593.7178815765328
 30
0.0
 10
584.1212609715123
 20
563.6112320655663
 30
0.0
 10
537.0085707576532
 20
563.6112320655663
 30
0.0
1001
ACAD
1000
DSTYLE
1002
{
1070
    41
1040
2.0
1070
    42
1040
1.0
1070
    44
1040
1.0
1070
    73
1070
     0
1070
    74
1070
     0
1070
    77
1070
     0
1070
    78
1070
     8
1070
    79
1070
     2
1070
   140
1040
2.5
1070
   141
1040
0.0
1070
   147
1040
1.0
1070
   172
1070
     1
1070
   174
1070
     1
1070
   176
1070
   256
1070
   177
1070
   256
1070
   178
1070
   256
1070
   271
1070
     2
1070
   272
1070
     2
1070
   340
1005
DAC
1070
   371
1070
    -1
1070
   372
1070
    -1
1002
}
  0
LEADER
  5
1AA6
330
1F
100
AcDbEntity
  8
Dim
100
AcDbLeader
  3
Standard
 76
     3
 10
647.0099737280029
 20
623.74303759804
 30
0.0
 10
663.5369589631793
 20
650.3148811183806
 30
0.0
 10
681.5388723946345
 20
650.3148811183806
 30
0.0
1001
ACAD
1000
DSTYLE
1002
{
1070
    41
1040
2.0
1070
    42
1040
1.0
1070
    44
1040
1.0
1070
    73
1070
     0
1070
    74
1070
     0
1070
    77
1070
     0
1070
    78
1070
     8
1070
    79
1070
     2
1070
   140
1040
2.5
1070
   141
1040
0.0
1070
   147
1040
1.0
1070
   172
1070
     1
1070
   174
1070
     1
1070
   176
1070
   256
1070
   177
1070
   256
1070
   178
1070
   256
1070
   271
1070
     2
1070
   272
1070
     2
1070
   340
1005
DAC
1070
   371
1070
    -1
1070
   372
1070
    -1
1002
}
  0
LEADER
  5
1AA9
330
1F
100
AcDbEntity
  8
Dim
100
AcDbLeader
  3
Standard
 76
     3
 10
825.2632094274211
 20
798.2141003433817
 30
0.0
 10
847.2903237787301
 20
813.9731018703439
 30
0.0
 10
898.9120943368108
 20
813.9731018703439
 30
0.0
1001
ACAD
1000
DSTYLE
1002
{
1070
    41
1040
2.0
1070
    42
1040
1.0
1070
    44
1040
1.0
1070
    73
1070
     0
1070
    74
1070
     0
1070
    77
1070
     0
1070
    78
1070
     8
1070
    79
1070
     2
1070
   140
1040
2.5
1070
   141
1040
0.0
1070
   147
1040
1.0
1070
   172
1070
     1
1070
   174
1070
     1
1070
   176
1070
   256
1070
   177
1070
   256
1070
   178
1070
   256
1070
   271
1070
     2
1070
   272
1070
     2
1070
   340
1005
DAC
1070
   371
1070
    -1
1070
   372
1070
    -1
1002
}
  0
LEADER
  5
1AAB
330
1F
100
AcDbEntity
  8
Dim
100
AcDbLeader
  3
Standard
 76
     3
 10
792.6776131961332
 20
783.1241276623301
 30
0.0
 10
769.6996026287345
 20
838.6258295520285
 30
0.0
 10
722.6613399668604
 20
838.6258295520285
 30
0.0
1001
ACAD
1000
DSTYLE
1002
{
1070
    41
1040
2.0
1070
    42
1040
1.0
1070
    44
1040
1.0
1070
    73
1070
     0
1070
    74
1070
     0
1070
    77
1070
     0
1070
    78
1070
     8
1070
    79
1070
     2
1070
   140
1040
2.5
1070
   141
1040
0.0
1070
   147
1040
1.0
1070
   172
1070
     1
1070
   174
1070
     1
1070
   176
1070
   256
1070
   177
1070
   256
1070
   178
1070
   256
1070
   271
1070
     2
1070
   272
1070
     2
1070
   340
1005
DAC
1070
   371
1070
    -1
1070
   372
1070
    -1
1002
}
  0
TEXT
  5
1AC9
330
1F
100
AcDbEntity
  8
Dim
100
AcDbText
 10
995.7945715578503
 20
675.2491386957347
 30
0.0
 40
3.2
  1
4-M8x1.25
  7
China
100
AcDbText
  0
TEXT
  5
1ACA
330
1F
100
AcDbEntity
  8
Dim
100
AcDbText
 10
995.0772140949693
 20
662.2392348817104
 30
0.0
 40
3.2
  1
attachment)
  7
China
100
AcDbText
  0
TEXT
  5
1ACB
330
1F
100
AcDbEntity
  8
Dim
100
AcDbText
 10
995.0772140949693
 20
667.4591167713661
 30
0.0
 40
3.2
  1
(Thread for mounting 
  7
China
100
AcDbText
  0
LEADER
  5
1ACC
330
1F
100
AcDbEntity
  8
Dim
100
AcDbLeader
  3
Standard
 76
     3
 10
1044.956822367362
 20
693.4391294529336
 30
0.0
 10
1025.645139094822
 20
673.1327253011827
 30
0.0
 10
994.6109238873734
 20
673.1327253011827
 30
0.0
1001
ACAD
1000
DSTYLE
1002
{
1070
    41
1040
2.0
1070
    42
1040
1.0
1070
    44
1040
1.0
1070
    73
1070
     0
1070
    74
1070
     0
1070
    77
1070
     0
1070
    78
1070
     8
1070
    79
1070
     2
1070
   140
1040
2.5
1070
   141
1040
0.0
1070
   147
1040
1.0
1070
   172
1070
     1
1070
   174
1070
     1
1070
   176
1070
   256
1070
   177
1070
   256
1070
   178
1070
   256
1070
   271
1070
     2
1070
   272
1070
     2
1070
   340
1005
DAC
1070
   371
1070
    -1
1070
   372
1070
    -1
1002
}
  0
ARC
  5
1B0E
330
1F
100
AcDbEntity
  8
AM_4
100
AcDbCircle
 10
663.7274383333593
 20
939.9338827261209
 30
0.0
 40
4.0
100
AcDbArc
 50
260.0
 51
170.0
  0
ARC
  5
1B0F
330
1F
100
AcDbEntity
  8
AM_4
100
AcDbCircle
 10
663.7274383333593
 20
909.933882726121
 30
0.0
 40
4.0
100
AcDbArc
 50
260.0
 51
170.0
  0
ARC
  5
1B2B
330
1F
100
AcDbEntity
  8
AM_4
100
AcDbCircle
 10
615.7274383333593
 20
910.9338827261209
 30
0.0
 40
4.0
100
AcDbArc
 50
260.0
 51
170.0
  0
ARC
  5
1B2C
330
1F
100
AcDbEntity
  8
AM_4
100
AcDbCircle
 10
615.7274383333593
 20
938.9488827261208
 30
0.0
 40
4.0
100
AcDbArc
 50
260.0
 51
170.0
  0
ARC
  5
1B2D
330
1F
100
AcDbEntity
  8
AM_4
100
AcDbCircle
 10
653.7274383333594
 20
792.8763082477056
 30
0.0
 40
4.0
100
AcDbArc
 50
260.0
 51
170.0
  0
ARC
  5
1B2E
330
1F
100
AcDbEntity
  8
AM_4
100
AcDbCircle
 10
653.7274383333594
 20
738.8763082477056
 30
0.0
 40
4.0
100
AcDbArc
 50
260.0
 51
170.0
  0
ARC
  5
1B2F
330
1F
100
AcDbEntity
  8
AM_4
100
AcDbCircle
 10
615.7274383333593
 20
624.1929528919236
 30
0.0
 40
4.0
100
AcDbArc
 50
260.0
 51
170.0
  0
ARC
  5
1B30
330
1F
100
AcDbEntity
  8
AM_4
100
AcDbCircle
 10
615.7274383333593
 20
596.1779528919236
 30
0.0
 40
4.0
100
AcDbArc
 50
260.0
 51
170.0
  0
ARC
  5
1B31
330
1F
100
AcDbEntity
  8
AM_4
100
AcDbCircle
 10
1047.712259046308
 20
695.8913082477057
 30
0.0
 40
4.0
100
AcDbArc
 50
260.0
 51
170.0
  0
ARC
  5
1B32
330
1F
100
AcDbEntity
  8
AM_4
100
AcDbCircle
 10
1071.712259046308
 20
695.8763082477056
 30
0.0
 40
4.0
100
AcDbArc
 50
260.0
 51
170.0
  0
ARC
  5
1B33
330
1F
100
AcDbEntity
  8
AM_4
100
AcDbCircle
 10
1071.712259046308
 20
835.8913082477057
 30
0.0
 40
4.0
100
AcDbArc
 50
260.0
 51
170.0
  0
ARC
  5
1B34
330
1F
100
AcDbEntity
  8
AM_4
100
AcDbCircle
 10
1047.712259046308
 20
835.8763082477056
 30
0.0
 40
4.0
100
AcDbArc
 50
260.0
 51
170.0
  0
ARC
  5
1B35
330
1F
100
AcDbEntity
  8
AM_4
100
AcDbCircle
 10
1249.201935817335
 20
792.8763082477056
 30
0.0
 40
4.0
100
AcDbArc
 50
260.0
 51
170.0
  0
ARC
  5
1B36
330
1F
100
AcDbEntity
  8
AM_4
100
AcDbCircle
 10
1249.201935817335
 20
738.8763082477056
 30
0.0
 40
4.0
100
AcDbArc
 50
260.0
 51
170.0
  0
ARC
  5
1B37
330
1F
100
AcDbEntity
  8
AM_4
100
AcDbCircle
 10
677.2274383333595
 20
600.1779528919235
 30
0.0
 40
4.863999999999999
100
AcDbArc
 50
260.0
 51
170.0
  0
DIMENSION
  5
1B47
330
1F
100
AcDbEntity
  8
Dim
100
AcDbDimension
  2
*D31
 10
1173.201935817335
 20
845.8763082477057
 30
0.0
 11
1170.951935817335
 21
830.8763082477057
 31
0.0
 70
    32
 71
     5
 42
30.0
  3
Standard
100
AcDbAlignedDimension
 13
1193.201935817335
 23
815.8763082477056
 33
0.0
 14
1219.201935817335
 24
845.8763082477057
 34
0.0
 50
90.0
100
AcDbRotatedDimension
1001
ACAD
1000
DSTYLE
1002
{
1070
    41
1040
2.0
1070
    42
1040
1.0
1070
    44
1040
1.0
1070
    73
1070
     0
1070
    74
1070
     0
1070
    77
1070
     1
1070
    78
1070
     8
1070
    79
1070
     2
1070
   140
1040
2.5
1070
   141
1040
0.0
1070
   147
1040
1.0
1070
   172
1070
     1
1070
   174
1070
     1
1070
   176
1070
   256
1070
   177
1070
   256
1070
   178
1070
   256
1070
   271
1070
     2
1070
   272
1070
     2
1070
   340
1005
DAC
1070
   371
1070
    -1
1070
   372
1070
    -1
1002
}
  0
DIMENSION
  5
1B6D
102
{ACAD_XDICTIONARY
360
1B7A
102
}
102
{ACAD_REACTORS
330
1B7B
102
}
330
1F
100
AcDbEntity
  8
Dim
100
AcDbDimension
  2
*D32
 10
1229.201935817335
 20
857.8763082477056
 30
0.0
 11
1224.201935817335
 21
860.1263082477057
 31
0.0
 70
    32
 71
     5
 42
10.0
  3
Standard
100
AcDbAlignedDimension
 13
1219.201935817335
 23
845.8763082477057
 33
0.0
 14
1229.201935817335
 24
845.8763082477057
 34
0.0
 50
0.0000000000000114
100
AcDbRotatedDimension
1001
ACAD
1000
DSTYLE
1002
{
1070
    41
1040
2.0
1070
    42
1040
1.0
1070
    44
1040
1.0
1070
    73
1070
     0
1070
    74
1070
     0
1070
    77
1070
     1
1070
    78
1070
     8
1070
    79
1070
     2
1070
   140
1040
2.5
1070
   141
1040
0.0
1070
   147
1040
1.0
1070
   172
1070
     1
1070
   174
1070
     1
1070
   176
1070
   256
1070
   177
1070
   256
1070
   178
1070
   256
1070
   271
1070
     2
1070
   272
1070
     2
1070
   340
1005
DAC
1070
   371
1070
    -1
1070
   372
1070
    -1
1002
}
  0
DIMENSION
  5
1B93
102
{ACAD_XDICTIONARY
360
1BA0
102
}
102
{ACAD_REACTORS
330
1BA1
102
}
330
1F
100
AcDbEntity
  8
Dim
100
AcDbDimension
  2
*D33
 10
1181.201935817335
 20
824.8763082477056
 30
0.0
 11
1178.951935817335
 21
835.3763082477057
 31
0.0
 70
    32
 71
     5
 42
21.0
  3
Standard
100
AcDbAlignedDimension
 13
1219.201935817335
 23
845.8763082477057
 33
0.0
 14
1193.201935817335
 24
824.8763082477056
 34
0.0
 50
90.0
100
AcDbRotatedDimension
1001
ACAD
1000
DSTYLE
1002
{
1070
    41
1040
2.0
1070
    42
1040
1.0
1070
    44
1040
1.0
1070
    73
1070
     0
1070
    74
1070
     0
1070
    77
1070
     1
1070
    78
1070
     8
1070
    79
1070
     2
1070
   140
1040
2.5
1070
   141
1040
0.0
1070
   147
1040
1.0
1070
   172
1070
     1
1070
   174
1070
     1
1070
   176
1070
   256
1070
   177
1070
   256
1070
   178
1070
   256
1070
   271
1070
     2
1070
   272
1070
     2
1070
   340
1005
DAC
1070
   371
1070
    -1
1070
   372
1070
    -1
1002
}
  0
DIMENSION
  5
1BB9
102
{ACAD_XDICTIONARY
360
1BC6
102
}
102
{ACAD_REACTORS
330
1BC7
102
}
330
1F
100
AcDbEntity
  8
Dim
100
AcDbDimension
  2
*D34
 10
1165.201935817335
 20
785.8763082477056
 30
0.0
 11
1162.951935817335
 21
815.8763082477058
 31
0.0
 70
    32
 71
     5
 42
60.0
  3
Standard
100
AcDbAlignedDimension
 13
1219.201935817335
 23
845.8763082477057
 33
0.0
 14
1198.561935817335
 24
785.8763082477056
 34
0.0
 50
90.0
100
AcDbRotatedDimension
1001
ACAD
1000
DSTYLE
1002
{
1070
    41
1040
2.0
1070
    42
1040
1.0
1070
    44
1040
1.0
1070
    73
1070
     0
1070
    74
1070
     0
1070
    77
1070
     1
1070
    78
1070
     8
1070
    79
1070
     2
1070
   140
1040
2.5
1070
   141
1040
0.0
1070
   147
1040
1.0
1070
   172
1070
     1
1070
   174
1070
     1
1070
   176
1070
   256
1070
   177
1070
   256
1070
   178
1070
   256
1070
   271
1070
     2
1070
   272
1070
     2
1070
   340
1005
DAC
1070
   371
1070
    -1
1070
   372
1070
    -1
1002
}
  0
LINE
  5
1BD4
330
1F
100
AcDbEntity
  8
0
  6
Continuous
 62
     7
100
AcDbLine
 10
1031.712259046308
 20
767.8763082477055
 30
0.0
 11
1031.712259046308
 21
763.8763082477055
 31
0.0
  0
LINE
  5
1BD6
330
1F
100
AcDbEntity
  8
0
  6
Continuous
 62
     7
100
AcDbLine
 10
1087.712259046309
 20
767.8763082477055
 30
0.0
 11
1087.712259046309
 21
763.8763082477055
 31
0.0
  0
DIMENSION
  5
1C14
102
{ACAD_XDICTIONARY
360
1C21
102
}
102
{ACAD_REACTORS
330
1C22
102
}
330
1F
100
AcDbEntity
  8
Dim
100
AcDbDimension
  2
*D35
 10
1105.212259046308
 20
835.8763082477056
 30
0.0
 11
1102.962259046308
 21
840.8763082477058
 31
0.0
 70
    32
 71
     5
 42
10.0
  3
Standard
100
AcDbAlignedDimension
 13
1081.712259046308
 23
845.8763082477057
 33
0.0
 14
1077.644202092872
 24
835.8763082477056
 34
0.0
 50
90.0
100
AcDbRotatedDimension
1001
ACAD
1000
DSTYLE
1002
{
1070
    41
1040
2.0
1070
    42
1040
1.0
1070
    44
1040
1.0
1070
    73
1070
     0
1070
    74
1070
     0
1070
    77
1070
     1
1070
    78
1070
     8
1070
    79
1070
     2
1070
   140
1040
2.5
1070
   141
1040
0.0
1070
   147
1040
1.0
1070
   172
1070
     1
1070
   174
1070
     1
1070
   176
1070
   256
1070
   177
1070
   256
1070
   178
1070
   256
1070
   271
1070
     2
1070
   272
1070
     2
1070
   340
1005
DAC
1070
   371
1070
    -1
1070
   372
1070
    -1
1002
}
  0
DIMENSION
  5
1C47
102
{ACAD_XDICTIONARY
360
1C54
102
}
102
{ACAD_REACTORS
330
1C55
102
}
330
1F
100
AcDbEntity
  8
Dim
100
AcDbDimension
  2
*D36
 10
1229.201935817335
 20
865.8763082477049
 30
0.0
 11
1211.201935817335
 21
868.126308247705
 31
0.0
 70
    32
 71
     5
 42
36.0
  3
Standard
100
AcDbAlignedDimension
 13
1193.201935817335
 23
824.8763082477056
 33
0.0
 14
1229.201935817335
 24
845.8763082477057
 34
0.0
100
AcDbRotatedDimension
1001
ACAD
1000
DSTYLE
1002
{
1070
    41
1040
2.0
1070
    42
1040
1.0
1070
    44
1040
1.0
1070
    73
1070
     0
1070
    74
1070
     0
1070
    77
1070
     1
1070
    78
1070
     8
1070
    79
1070
     2
1070
   140
1040
2.5
1070
   141
1040
0.0
1070
   147
1040
1.0
1070
   172
1070
     1
1070
   174
1070
     1
1070
   176
1070
   256
1070
   177
1070
   256
1070
   178
1070
   256
1070
   271
1070
     2
1070
   272
1070
     2
1070
   340
1005
DAC
1070
   371
1070
    -1
1070
   372
1070
    -1
1002
}
  0
TEXT
  5
1F21
330
1F
100
AcDbEntity
  8
LOGO
 62
     7
100
AcDbText
 10
630.3292786086934
 20
480.3688623755779
 30
0.0
 40
8.235699487832032
  1
Order example:
 41
0.8
  7
CHINESET
100
AcDbText
  0
TEXT
  5
1F22
330
1F
100
AcDbEntity
  8
LOGO
 62
     7
100
AcDbText
 10
631.8068312032742
 20
491.9630220311081
 30
0.0
 40
12.35354923174805
  1
訂購代號：
  7
CHINESET
100
AcDbText
  0
LINE
  5
1F23
330
1F
100
AcDbEntity
  8
LOGO
 62
     4
100
AcDbLine
 10
626.7508392473437
 20
445.6605147409671
 30
0.0
 11
626.7508392473437
 21
507.4282608997076
 31
0.0
  0
TEXT
  5
1F24
330
1F
100
AcDbEntity
  8
LOGO
  6
Continuous
100
AcDbText
 10
513.0490497697255
 20
457.7946952581951
 30
0.0
 40
9.265161923811039
  1
金器工業股份有限公司
  7
CHINESET
100
AcDbText
  0
TEXT
  5
1F25
330
1F
100
AcDbEntity
  8
LOGO
  6
Continuous
100
AcDbText
 10
496.0307803375765
 20
448.527718089064
 30
0.0
 40
6.176774615874024
  1
MINDMAN INDUSTRIAL CO., LTD.
 41
0.85
  7
CHINESET
100
AcDbText
  0
LINE
  5
1F26
330
1F
100
AcDbEntity
  8
LOGO
 62
     4
100
AcDbLine
 10
626.7508392473437
 20
495.0747116679594
 30
0.0
 11
536.1581448811907
 21
495.0747116679594
 31
0.0
  0
LINE
  5
1F27
330
1F
100
AcDbEntity
  8
LOGO
 62
     4
100
AcDbLine
 10
626.7508392473437
 20
482.7211624362115
 30
0.0
 11
536.1581448811907
 21
482.7211624362115
 31
0.0
  0
LINE
  5
1F28
330
1F
100
AcDbEntity
  8
LOGO
 62
     4
100
AcDbLine
 10
626.7508392473437
 20
470.367613204464
 30
0.0
 11
490.8617976981149
 21
470.367613204464
 31
0.0
  0
LINE
  5
1F29
330
1F
100
AcDbEntity
  8
LOGO
 62
     4
100
AcDbLine
 10
536.1581448811907
 20
470.367613204464
 30
0.0
 11
536.1581448811907
 21
507.4282608997076
 31
0.0
  0
TEXT
  5
1F2A
330
1F
100
AcDbEntity
  8
LOGO
100
AcDbText
 10
598.0739755704122
 20
473.4560005123999
 30
0.0
 40
6.176774615874024
  1
mm
  7
CHINESET
 72
     1
 11
605.7214108091134
 21
476.5443878203369
 31
0.0
100
AcDbText
 73
     2
  0
TEXT
  5
1F2B
330
1F
100
AcDbEntity
  8
LOGO
100
AcDbText
 10
594.8385222001925
 20
498.1630989758963
 30
0.0
 40
6.176774615874024
  1
1 : 1
  7
CHINESET
 72
     1
 11
605.7214108091134
 21
501.2514862838333
 31
0.0
100
AcDbText
 73
     2
  0
LINE
  5
1F2C
330
1F
100
AcDbEntity
  8
LOGO
 62
     4
100
AcDbLine
 10
585.5723418081834
 20
470.367613204464
 30
0.0
 11
585.5723418081834
 21
507.4282608997076
 31
0.0
  0
TEXT
  5
1F2D
330
1F
100
AcDbEntity
  8
LOGO
100
AcDbText
 10
541.2512264506189
 20
498.1661387271836
 30
404.815632682644
 40
6.176774615874024
  1
比例 Scale:
 41
0.9
  7
CHINESET
 72
     4
 11
560.8652433446868
 21
501.2514862838333
 31
404.815632682644
100
AcDbText
  0
TEXT
  5
1F2E
330
1F
100
AcDbEntity
  8
LOGO
100
AcDbText
 10
540.8955104124727
 20
485.8964359684446
 30
404.815632682644
 40
6.176774615874024
  1
投影  View:
 41
0.9
  7
CHINESET
 72
     4
 11
560.8652433446868
 21
488.8979370520851
 31
404.815632682644
100
AcDbText
  0
TEXT
  5
1F2F
330
1F
100
AcDbEntity
  8
LOGO
100
AcDbText
 10
541.4994004307211
 20
473.4560005123999
 30
404.815632682644
 40
6.176774615874024
  1
單位  Unit:
 41
0.9
  7
CHINESET
 72
     4
 11
560.8652433446868
 21
476.5443878203369
 31
404.815632682644
100
AcDbText
  0
LWPOLYLINE
  5
1F30
330
1F
100
AcDbEntity
  8
LOGO
 62
     4
100
AcDbPolyline
 90
        4
 70
     1
 43
0.0
 10
490.8617976981149
 20
507.4282608997076
 10
1333.549797698114
 20
507.4282608997076
 10
1333.549797698114
 20
1063.427426740965
 10
490.8617976981149
 20
1063.427426740965
1001
GENIUS_GENREC_14
1002
{
1000
PYDIR
1011
490.8617976981149
1021
1063.427426740965
1031
0.0
1002
}
1002
{
1000
PXDIR
1011
1333.549797698114
1021
507.4282608997076
1031
0.0
1002
}
1002
{
1000
PORI
1011
490.8617976981149
1021
507.4282608997076
1031
0.0
1002
}
1002
{
1000
PINS
1011
490.8617976981149
1021
507.4282608997076
1031
0.0
1002
}
1002
{
1000
PINS2
1011
1333.549797698114
1021
1063.427426740965
1031
0.0
1002
}
1002
{
1000
C
1070
     1
1002
}
1001
GENIUS_GENODEF_13
1002
{
1000
HIER
1070
     0
1002
}
1002
{
1000
MANEDIT
1070
     0
1002
}
1002
{
1000
NOSEL
1070
     0
1002
}
1002
{
1000
BEHIND
1070
     0
1002
}
1002
{
1000
OTHER
1070
     0
1002
}
1002
{
1000
REACTOR
1002
}
1001
GENIUS_GENOBJ-N-REC_13
1002
{
1000
OWNER
1000
GEN
1002
}
  0
SOLID
  5
1F31
330
1F
100
AcDbEntity
  8
LOGO
 62
     5
100
AcDbTrace
 10
497.2703004917766
 20
480.6356218087201
 30
0.0
 11
499.9409757571142
 21
480.6356218087194
 31
0.0
 12
511.0841380711104
 22
505.9609907041672
 32
0.0
 13
513.7548133364498
 23
505.9609907041659
 33
0.0
  0
SOLID
  5
1F32
330
1F
100
AcDbEntity
  8
LOGO
 62
     5
100
AcDbTrace
 10
501.046082763464
 20
480.6356218087201
 30
0.0
 11
503.7167580288019
 21
480.6356218087201
 31
0.0
 12
513.7548133364498
 22
503.9349611925305
 32
0.0
 13
511.0841380711104
 23
494.1424852196242
 33
0.0
  0
SOLID
  5
1F33
330
1F
100
AcDbEntity
  8
LOGO
 62
     2
100
AcDbTrace
 10
499.9409757571142
 20
480.6356218087194
 30
0.0
 11
501.046082763464
 21
480.6356218087201
 31
0.0
 12
513.7548133364498
 22
505.9609907041659
 32
0.0
 13
514.8599203427981
 23
505.9609907041659
 33
0.0
  0
SOLID
  5
1F34
330
1F
100
AcDbEntity
  8
LOGO
 62
     5
100
AcDbTrace
 10
492.9885531116402
 20
471.426396755831
 30
0.0
 11
493.9094756169302
 21
471.426396755831
 31
0.0
 12
496.5028650707031
 22
476.0310092822753
 32
0.0
 13
497.4237875759902
 23
476.0310092822753
 33
0.0
  0
SOLID
  5
1F35
330
1F
100
AcDbEntity
  8
LOGO
 62
     5
100
AcDbTrace
 10
496.5028650707031
 20
476.0310092822753
 30
0.0
 11
497.4237875759902
 21
476.0310092822753
 31
0.0
 12
496.5028650707031
 22
471.426396755831
 32
0.0
 13
497.4237875759902
 23
471.426396755831
 33
0.0
  0
SOLID
  5
1F36
330
1F
100
AcDbEntity
  8
LOGO
 62
     5
100
AcDbTrace
 10
496.5028650707031
 20
471.426396755831
 30
0.0
 11
497.4237875759902
 21
471.426396755831
 31
0.0
 12
500.0171770297677
 22
476.0310092822753
 32
0.0
 13
500.9380995350561
 23
476.0310092822753
 33
0.0
  0
SOLID
  5
1F37
330
1F
100
AcDbEntity
  8
LOGO
 62
     5
100
AcDbTrace
 10
500.0171770297677
 20
476.0310092822753
 30
0.0
 11
500.9380995350561
 21
476.0310092822753
 31
0.0
 12
500.0171770297677
 22
471.426396755831
 32
0.0
 13
500.9380995350561
 23
471.426396755831
 33
0.0
  0
POLYLINE
  5
1F38
330
1F
100
AcDbEntity
  8
LOGO
 62
     5
100
AcDb2dPolyline
 66
     1
 10
0.0
 20
0.0
 30
0.0
 40
0.9223983426371875
 41
0.9223983426371875
  0
VERTEX
  5
1F39
330
1F38
100
AcDbEntity
  8
LOGO
 62
     5
100
AcDbVertex
100
AcDb2dVertex
 10
530.8861856908481
 20
474.1891642716973
 30
0.0
 42
1.0
  0
VERTEX
  5
1F3A
330
1F38
100
AcDbEntity
  8
LOGO
 62
     5
100
AcDbVertex
100
AcDb2dVertex
 10
528.1189906629363
 20
474.1891642716973
 30
0.0
 42
1.0
  0
SEQEND
  5
1F3B
330
1F38
100
AcDbEntity
  8
LOGO
 62
     5
  0
POLYLINE
  5
1F3C
330
1F
100
AcDbEntity
  8
LOGO
 62
     5
100
AcDb2dPolyline
 66
     1
 10
0.0
 20
0.0
 30
0.0
 70
     1
  0
VERTEX
  5
1F3D
330
1F3C
100
AcDbEntity
  8
LOGO
 62
     5
100
AcDbVertex
100
AcDb2dVertex
 10
522.9027049504861
 20
473.7287030190524
 30
0.0
 42
1.000000057330635
  0
VERTEX
  5
1F3E
330
1F3C
100
AcDbEntity
  8
LOGO
 62
     5
100
AcDbVertex
100
AcDb2dVertex
 10
525.6654724663532
 20
473.7287030190524
 30
0.0
 42
1.000000057330635
  0
SEQEND
  5
1F3F
330
1F3C
100
AcDbEntity
  8
LOGO
 62
     5
  0
CIRCLE
  5
1F40
330
1F
100
AcDbEntity
  8
LOGO
 62
     5
100
AcDbCircle
 10
524.2840887084219
 20
473.7287030190524
 30
0.0
 40
1.381383757933452
  0
POLYLINE
  5
1F41
330
1F
100
AcDbEntity
  8
LOGO
 62
     5
100
AcDb2dPolyline
 66
     1
 10
0.0
 20
0.0
 30
0.0
 70
     1
 40
0.9223983426371875
 41
0.9223983426371875
  0
VERTEX
  5
1F42
330
1F41
100
AcDbEntity
  8
LOGO
 62
     5
100
AcDbVertex
100
AcDb2dVertex
 10
522.4392920231462
 20
473.7287030190524
 30
0.0
 42
1.0
  0
VERTEX
  5
1F43
330
1F41
100
AcDbEntity
  8
LOGO
 62
     5
100
AcDbVertex
100
AcDb2dVertex
 10
526.1288853936946
 20
473.7287030190524
 30
0.0
 42
1.0
  0
SEQEND
  5
1F44
330
1F41
100
AcDbEntity
  8
LOGO
 62
     5
  0
LINE
  5
1F45
330
1F
100
AcDbEntity
  8
LOGO
100
AcDbLine
 10
531.3444331874684
 20
471.426396755831
 30
0.0
 11
531.3444331874684
 21
474.1891642716973
 31
0.0
  0
SOLID
  5
1F46
330
1F
100
AcDbEntity
  8
LOGO
 62
     5
100
AcDbTrace
 10
525.6653803741071
 20
476.0310092822753
 30
0.0
 11
526.5863028793942
 21
476.0310092822753
 31
0.0
 12
525.6653803741071
 22
471.426396755831
 32
0.0
 13
526.5863028793942
 23
471.426396755831
 33
0.0
  0
SOLID
  5
1F47
330
1F
100
AcDbEntity
  8
LOGO
 62
     5
100
AcDbTrace
 10
527.6607431663128
 20
471.426396755831
 30
0.0
 11
528.5816656716028
 21
471.426396755831
 31
0.0
 12
527.6607431663128
 22
476.0310092822753
 32
0.0
 13
528.5816656716028
 23
476.0310092822753
 33
0.0
  0
SOLID
  5
1F48
330
1F
100
AcDbEntity
  8
LOGO
 62
     5
100
AcDbTrace
 10
530.4235106821813
 20
474.1891642716973
 30
0.0
 11
531.3444331874684
 21
474.1891642716973
 31
0.0
 12
530.4235106821813
 22
471.426396755831
 32
0.0
 13
531.3444331874684
 23
471.426396755831
 33
0.0
  0
SOLID
  5
1F49
330
1F
100
AcDbEntity
  8
LOGO
 62
     5
100
AcDbTrace
 10
527.5686509157837
 20
503.9349611925305
 30
0.0
 11
524.8979756504472
 21
494.1424852196242
 31
0.0
 12
527.5686509157837
 22
480.6356218087194
 32
0.0
 13
524.8979756504472
 23
480.6356218087194
 33
0.0
  0
SOLID
  5
1F4A
330
1F
100
AcDbEntity
  8
LOGO
 62
     5
100
AcDbTrace
 10
528.6737579221322
 20
480.6356218087194
 30
0.0
 11
531.3444331874684
 21
480.6356218087194
 31
0.0
 12
528.6737579221322
 22
505.9609907041659
 32
0.0
 13
531.3444331874684
 23
505.9609907041672
 33
0.0
  0
SOLID
  5
1F4B
330
1F
100
AcDbEntity
  8
LOGO
 62
     2
100
AcDbTrace
 10
527.5686509157837
 20
505.9609907041672
 30
0.0
 11
528.6737579221322
 21
505.9609907041659
 31
0.0
 12
527.5686509157837
 22
480.6356218087194
 32
0.0
 13
528.6737579221322
 23
480.6356218087194
 33
0.0
  0
POLYLINE
  5
1F4C
330
1F
100
AcDbEntity
  8
LOGO
 62
     5
100
AcDb2dPolyline
 66
     1
 10
0.0
 20
0.0
 30
0.0
 40
0.9223983426371875
 41
0.9223983426371875
  0
VERTEX
  5
1F4D
330
1F4C
100
AcDbEntity
  8
LOGO
 62
     5
100
AcDbVertex
100
AcDb2dVertex
 10
517.6862350535397
 20
474.1891642716973
 30
0.0
 42
1.0
  0
VERTEX
  5
1F4E
330
1F4C
100
AcDbEntity
  8
LOGO
 62
     5
100
AcDbVertex
100
AcDb2dVertex
 10
514.9190400256275
 20
474.1891642716973
 30
0.0
 42
1.0
  0
SEQEND
  5
1F4F
330
1F4C
100
AcDbEntity
  8
LOGO
 62
     5
  0
POLYLINE
  5
1F50
330
1F
100
AcDbEntity
  8
LOGO
 62
     5
100
AcDb2dPolyline
 66
     1
 10
0.0
 20
0.0
 30
0.0
 40
0.9223983426371875
 41
0.9223983426371875
  0
VERTEX
  5
1F51
330
1F50
100
AcDbEntity
  8
LOGO
 62
     5
100
AcDbVertex
100
AcDb2dVertex
 10
520.449002569404
 20
474.1891642716973
 30
0.0
 42
1.0
  0
VERTEX
  5
1F52
330
1F50
100
AcDbEntity
  8
LOGO
 62
     5
100
AcDbVertex
100
AcDb2dVertex
 10
517.6818075414931
 20
474.1891642716973
 30
0.0
 42
1.0
  0
SEQEND
  5
1F53
330
1F50
100
AcDbEntity
  8
LOGO
 62
     5
  0
POLYLINE
  5
1F54
330
1F
100
AcDbEntity
  8
LOGO
 62
     5
100
AcDb2dPolyline
 66
     1
 10
0.0
 20
0.0
 30
0.0
 40
0.9223983426371875
 41
0.9223983426371875
  0
VERTEX
  5
1F55
330
1F54
100
AcDbEntity
  8
LOGO
 62
     5
100
AcDbVertex
100
AcDb2dVertex
 10
507.2490519320949
 20
474.1891642716973
 30
0.0
 42
1.0
  0
VERTEX
  5
1F56
330
1F54
100
AcDbEntity
  8
LOGO
 62
     5
100
AcDbVertex
100
AcDb2dVertex
 10
504.4818569041845
 20
474.1891642716973
 30
0.0
 42
1.0
  0
SEQEND
  5
1F57
330
1F54
100
AcDbEntity
  8
LOGO
 62
     5
  0
SOLID
  5
1F58
330
1F
100
AcDbEntity
  8
LOGO
 62
     5
100
AcDbTrace
 10
504.0236094075626
 20
476.0310092822753
 30
0.0
 11
504.9445319128497
 21
476.0310092822753
 31
0.0
 12
504.0236094075626
 22
471.426396755831
 32
0.0
 13
504.9445319128497
 23
471.426396755831
 33
0.0
  0
SOLID
  5
1F59
330
1F
100
AcDbEntity
  8
LOGO
 62
     5
100
AcDbTrace
 10
506.7863769234295
 20
474.1891642716973
 30
0.0
 11
507.7072994287198
 21
474.1891642716973
 31
0.0
 12
506.7863769234295
 22
471.426396755831
 32
0.0
 13
507.7072994287198
 23
471.426396755831
 33
0.0
  0
POLYLINE
  5
1F5A
330
1F
100
AcDbEntity
  8
LOGO
 62
     5
100
AcDb2dPolyline
 66
     1
 10
0.0
 20
0.0
 30
0.0
 70
     1
 40
0.9223983426371875
 41
0.9223983426371875
  0
VERTEX
  5
1F5B
330
1F5A
100
AcDbEntity
  8
LOGO
 62
     5
100
AcDbVertex
100
AcDb2dVertex
 10
509.2393413858363
 20
473.7287030190524
 30
0.0
 42
1.0
  0
VERTEX
  5
1F5C
330
1F5A
100
AcDbEntity
  8
LOGO
 62
     5
100
AcDbVertex
100
AcDb2dVertex
 10
512.9289347563863
 20
473.7287030190524
 30
0.0
 42
1.0
  0
SEQEND
  5
1F5D
330
1F5A
100
AcDbEntity
  8
LOGO
 62
     5
  0
SOLID
  5
1F5E
330
1F
100
AcDbEntity
  8
LOGO
 62
     5
100
AcDbTrace
 10
512.4654297367956
 20
477.4123930402096
 30
0.0
 11
513.3863522420843
 21
477.4123930402096
 31
0.0
 12
512.4654297367956
 22
471.426396755831
 32
0.0
 13
513.3863522420843
 23
471.426396755831
 33
0.0
  0
SOLID
  5
1F5F
330
1F
100
AcDbEntity
  8
LOGO
 62
     5
100
AcDbTrace
 10
514.4607925290072
 20
476.0310092822753
 30
0.0
 11
515.3817150342943
 21
476.0310092822753
 31
0.0
 12
514.4607925290072
 22
471.426396755831
 32
0.0
 13
515.3817150342943
 23
471.426396755831
 33
0.0
  0
SOLID
  5
1F60
330
1F
100
AcDbEntity
  8
LOGO
 62
     5
100
AcDbTrace
 10
517.223560044871
 20
474.1891642716973
 30
0.0
 11
518.1444825501614
 21
474.1891642716973
 31
0.0
 12
517.223560044871
 22
471.426396755831
 32
0.0
 13
518.1444825501614
 23
471.426396755831
 33
0.0
  0
SOLID
  5
1F61
330
1F
100
AcDbEntity
  8
LOGO
 62
     5
100
AcDbTrace
 10
519.9863275607383
 20
474.1891642716973
 30
0.0
 11
520.9072500660272
 21
474.1891642716973
 31
0.0
 12
519.9863275607383
 22
471.4263967558297
 32
0.0
 13
520.9072500660272
 23
471.4263967558297
 33
0.0
  0
SOLID
  5
1F62
330
1F
100
AcDbEntity
  8
LOGO
 62
     5
100
AcDbTrace
 10
502.0282466153526
 20
476.6756550359778
 30
0.0
 11
502.9491691206439
 21
476.6756550359778
 31
0.0
 12
502.0282466153526
 22
477.4123930402096
 32
0.0
 13
502.9491691206439
 23
477.4123930402096
 33
0.0
  0
SOLID
  5
1F63
330
1F
100
AcDbEntity
  8
LOGO
 62
     5
100
AcDbTrace
 10
502.0282466153526
 20
476.0310092822753
 30
0.0
 11
502.9491691206439
 21
476.0310092822753
 31
0.0
 12
502.0282466153526
 22
471.4263967558297
 32
0.0
 13
502.9491691206439
 23
471.426396755831
 33
0.0
  0
SOLID
  5
1F64
330
1F
100
AcDbEntity
  8
LOGO
 62
     5
100
AcDbTrace
 10
511.0841380711104
 20
480.6356218087201
 30
0.0
 11
513.7548133364498
 21
480.6356218087201
 31
0.0
 12
511.0841380711104
 22
494.1424852196242
 32
0.0
 13
513.7548133364498
 23
503.9349611925305
 33
0.0
  0
SOLID
  5
1F65
330
1F
100
AcDbEntity
  8
LOGO
 62
     5
100
AcDbTrace
 10
514.8599203427981
 20
505.9609907041659
 30
0.0
 11
517.5305956081344
 21
505.9609907041672
 31
0.0
 12
514.8599203427981
 22
482.6616513203555
 32
0.0
 13
517.5305956081344
 23
492.4541272932617
 33
0.0
  0
SOLID
  5
1F66
330
1F
100
AcDbEntity
  8
LOGO
 62
     2
100
AcDbTrace
 10
513.7548133364498
 20
505.9609907041659
 30
0.0
 11
514.8599203427981
 21
505.9609907041659
 31
0.0
 12
513.7548133364498
 22
480.6356218087201
 32
0.0
 13
514.8599203427981
 23
480.6356218087201
 33
0.0
  0
SOLID
  5
1F67
330
1F
100
AcDbEntity
  8
LOGO
 62
     5
100
AcDbTrace
 10
514.8599203427981
 20
482.6616513203555
 30
0.0
 11
517.5305956081344
 21
492.4541272932617
 31
0.0
 12
527.5686509157837
 22
505.9609907041672
 32
0.0
 13
524.8979756504472
 23
505.9609907041672
 33
0.0
  0
SOLID
  5
1F68
330
1F
100
AcDbEntity
  8
LOGO
 62
     5
100
AcDbTrace
 10
514.8599203427981
 20
480.6356218087201
 30
0.0
 11
517.5305956081344
 21
480.6356218087201
 31
0.0
 12
527.5686509157837
 22
503.9349611925305
 32
0.0
 13
524.8979756504472
 23
494.1424852196242
 33
0.0
  0
SOLID
  5
1F69
330
1F
100
AcDbEntity
  8
LOGO
 62
     2
100
AcDbTrace
 10
513.7548133364498
 20
480.6356218087201
 30
0.0
 11
514.8599203427981
 21
480.6356218087201
 31
0.0
 12
527.5686509157837
 22
505.9609907041672
 32
0.0
 13
528.6737579221322
 23
505.9609907041659
 33
0.0
  0
LWPOLYLINE
  5
1F6A
330
1F
100
AcDbEntity
  8
LOGO
 62
     4
100
AcDbPolyline
 90
        4
 70
     1
 43
0.0
 10
490.8617976981149
 20
507.4282608997076
 10
1333.549797698114
 20
507.4282608997076
 10
1333.549797698114
 20
445.6605147409663
 10
490.8617976981149
 20
445.6605147409663
1001
GENIUS_GENREC_14
1002
{
1000
PYDIR
1011
490.8617976981149
1021
445.6605147409663
1031
0.0
1002
}
1002
{
1000
PXDIR
1011
1333.549797698114
1021
507.4282608997076
1031
0.0
1002
}
1002
{
1000
PORI
1011
490.8617976981149
1021
507.4282608997076
1031
0.0
1002
}
1002
{
1000
PINS
1011
490.8617976981149
1021
507.4282608997076
1031
0.0
1002
}
1002
{
1000
PINS2
1011
1333.549797698114
1021
445.6605147409663
1031
0.0
1002
}
1002
{
1000
C
1070
     1
1002
}
1001
GENIUS_GENOBJ-N-REC_13
1002
{
1000
OWNER
1000
GEN
1002
}
1001
GENIUS_GENODEF_13
1002
{
1000
HIER
1070
     0
1002
}
1002
{
1000
MANEDIT
1070
     0
1002
}
1002
{
1000
NOSEL
1070
     0
1002
}
1002
{
1000
BEHIND
1070
     0
1002
}
1002
{
1000
OTHER
1070
     0
1002
}
1002
{
1000
REACTOR
1002
}
  0
LINE
  5
1F6B
330
1F
100
AcDbEntity
  8
LOGO
 62
     4
100
AcDbLine
 10
752.8881301361098
 20
473.4560005124012
 30
0.0
 11
752.8881301361098
 21
450.8078269208619
 31
0.0
  0
LINE
  5
1F6C
330
1F
100
AcDbEntity
  8
LOGO
 62
     4
100
AcDbLine
 10
711.709632696949
 20
473.4560005124012
 30
0.0
 11
711.709632696949
 21
450.8078269208619
 31
0.0
  0
LINE
  5
1F6D
330
1F
100
AcDbEntity
  8
LOGO
 62
     4
100
AcDbLine
 10
752.8881301361098
 20
450.8078269208619
 30
0.0
 11
711.709632696949
 21
450.8078269208619
 31
0.0
  0
LINE
  5
1F6E
330
1F
100
AcDbEntity
  8
LOGO
 62
     4
100
AcDbLine
 10
764.874814247916
 20
501.2514862838333
 30
0.0
 11
711.709632696949
 21
501.2514862838333
 31
0.0
  0
LINE
  5
1F6F
330
1F
100
AcDbEntity
  8
LOGO
 62
     4
100
AcDbLine
 10
764.874814247916
 20
482.7211624362115
 30
0.0
 11
711.709632696949
 21
482.7211624362115
 31
0.0
  0
LINE
  5
1F70
330
1F
100
AcDbEntity
  8
LOGO
 62
     4
100
AcDbLine
 10
711.709632696949
 20
501.2514862838333
 30
0.0
 11
711.709632696949
 21
482.7211624362115
 31
0.0
  0
LINE
  5
1F71
330
1F
100
AcDbEntity
  8
LOGO
 62
     4
100
AcDbLine
 10
764.874814247916
 20
501.2514862838333
 30
0.0
 11
764.874814247916
 21
482.7211624362115
 31
0.0
  0
LINE
  5
1F72
330
1F
100
AcDbEntity
  8
LOGO
 62
     4
100
AcDbLine
 10
734.4473647067314
 20
482.7211624362115
 30
0.0
 11
734.4473647067314
 21
473.4560005124012
 31
0.0
  0
TEXT
  5
1F73
330
1F
100
AcDbEntity
  8
LOGO
  6
Continuous
100
AcDbText
 10
715.0021810337777
 20
486.5893404480718
 30
0.0
 40
10.81092096
  1
MCHW
  7
CHINESET
100
AcDbText
  0
LINE
  5
1F74
330
1F
100
AcDbEntity
  8
LOGO
 62
     4
100
AcDbLine
 10
752.8881301361098
 20
473.4560005124012
 30
0.0
 11
711.709632696949
 21
473.4560005124012
 31
0.0
  0
TEXT
  5
1F75
330
1F
100
AcDbEntity
  8
LOGO
  6
Continuous
100
AcDbText
 10
724.9236821560366
 20
454.00456859674
 30
404.815632682644
 40
4.633251839999998
  1
Model
 41
0.8
  7
CHINESET
100
AcDbText
  0
TEXT
  5
1F76
330
1F
100
AcDbEntity
  8
LOGO
100
AcDbText
 10
723.6904611339828
 20
462.5936189710608
 30
404.815632682644
 40
7.722086399999999
  1
型號
  7
CHINESET
100
AcDbText
  0
LINE
  5
1F77
330
1F
100
AcDbEntity
  8
LOGO
  6
Continuous
100
AcDbLine
 10
766.8447408239358
 20
491.920687024471
 30
0.0
 11
775.0270556935722
 21
491.920687024471
 31
0.0
  0
LINE
  5
1F78
330
1F
100
AcDbEntity
  8
LOGO
 62
     4
100
AcDbLine
 10
804.0285248185528
 20
473.4560005124012
 30
0.0
 11
804.0285248185528
 21
450.8078269208619
 31
0.0
  0
LINE
  5
1F79
330
1F
100
AcDbEntity
  8
LOGO
 62
     4
100
AcDbLine
 10
762.850027379392
 20
473.4560005124012
 30
0.0
 11
762.850027379392
 21
450.8078269208619
 31
0.0
  0
LINE
  5
1F7A
330
1F
100
AcDbEntity
  8
LOGO
 62
     4
100
AcDbLine
 10
804.0285248185528
 20
450.8078269208619
 30
0.0
 11
762.850027379392
 21
450.8078269208619
 31
0.0
  0
LINE
  5
1F7B
330
1F
100
AcDbEntity
  8
LOGO
 62
     4
100
AcDbLine
 10
801.9898938204397
 20
501.2514862838333
 30
0.0
 11
778.0100509344824
 21
501.2514862838333
 31
0.0
  0
LINE
  5
1F7C
330
1F
100
AcDbEntity
  8
LOGO
 62
     4
100
AcDbLine
 10
801.9898938204397
 20
482.7211624362115
 30
0.0
 11
778.0100509344824
 21
482.7211624362115
 31
0.0
  0
LINE
  5
1F7D
330
1F
100
AcDbEntity
  8
LOGO
 62
     4
100
AcDbLine
 10
778.0100509344824
 20
501.2514862838333
 30
0.0
 11
778.0100509344824
 21
482.7211624362115
 31
0.0
  0
LINE
  5
1F7E
330
1F
100
AcDbEntity
  8
LOGO
 62
     4
100
AcDbLine
 10
801.9898938204397
 20
501.2514862838333
 30
0.0
 11
801.9898938204397
 21
482.7211624362115
 31
0.0
  0
LINE
  5
1F7F
330
1F
100
AcDbEntity
  8
LOGO
 62
     4
100
AcDbLine
 10
792.2472417424881
 20
482.7211624362115
 30
0.0
 11
792.2472417424881
 21
473.4560005124012
 31
0.0
  0
TEXT
  5
1F80
330
1F
100
AcDbEntity
  8
LOGO
  6
Continuous
100
AcDbText
 10
781.399022690947
 20
486.5893404480718
 30
0.0
 40
10.81092096
  1
40
  7
CHINESET
100
AcDbText
  0
LINE
  5
1F81
330
1F
100
AcDbEntity
  8
LOGO
 62
     4
100
AcDbLine
 10
804.0285248185528
 20
473.4560005124012
 30
0.0
 11
762.850027379392
 21
473.4560005124012
 31
0.0
  0
LINE
  5
1F82
330
1F
100
AcDbEntity
  8
LOGO
  6
Continuous
100
AcDbLine
 10
839.7569186711518
 20
491.920687024471
 30
0.0
 11
847.9392335407897
 21
491.920687024471
 31
0.0
  0
LINE
  5
1F83
330
1F
100
AcDbEntity
  8
LOGO
 62
     4
100
AcDbLine
 10
910.3530711420726
 20
473.4560005124012
 30
0.0
 11
910.3530711420726
 21
450.8078269208619
 31
0.0
  0
LINE
  5
1F84
330
1F
100
AcDbEntity
  8
LOGO
 62
     4
100
AcDbLine
 10
855.44144020279
 20
473.4560005124012
 30
0.0
 11
855.44144020279
 21
450.8078269208619
 31
0.0
  0
LINE
  5
1F85
330
1F
100
AcDbEntity
  8
LOGO
 62
     4
100
AcDbLine
 10
910.3530711420726
 20
450.8078269208619
 30
0.0
 11
855.44144020279
 21
450.8078269208619
 31
0.0
  0
LINE
  5
1F86
330
1F
100
AcDbEntity
  8
LOGO
 62
     4
100
AcDbLine
 10
877.0874835611564
 20
501.2514862838333
 30
0.0
 11
852.0922396929107
 21
501.2514862838333
 31
0.0
  0
LINE
  5
1F87
330
1F
100
AcDbEntity
  8
LOGO
 62
     4
100
AcDbLine
 10
877.0874835611564
 20
482.7211624362115
 30
0.0
 11
852.0922396929107
 21
482.7211624362115
 31
0.0
  0
LINE
  5
1F88
330
1F
100
AcDbEntity
  8
LOGO
 62
     4
100
AcDbLine
 10
852.0922396929107
 20
501.2514862838333
 30
0.0
 11
852.0922396929107
 21
482.7211624362115
 31
0.0
  0
LINE
  5
1F89
330
1F
100
AcDbEntity
  8
LOGO
 62
     4
100
AcDbLine
 10
877.0874835611564
 20
501.2514862838333
 30
0.0
 11
877.0874835611564
 21
482.7211624362115
 31
0.0
  0
LINE
  5
1F8A
330
1F
100
AcDbEntity
  8
LOGO
 62
     4
100
AcDbLine
 10
866.5388841154246
 20
482.7211624362115
 30
0.0
 11
866.5388841154246
 21
473.4560005124012
 31
0.0
  0
TEXT
  5
1F8B
330
1F
100
AcDbEntity
  8
LOGO
  6
Continuous
100
AcDbText
 10
856.0151502518193
 20
486.5893404480718
 30
0.0
 40
10.81092096
  1
RK
  7
CHINESET
100
AcDbText
  0
LINE
  5
1F8C
330
1F
100
AcDbEntity
  8
LOGO
 62
     4
100
AcDbLine
 10
910.3530711420726
 20
473.4560005124012
 30
0.0
 11
855.44144020279
 21
473.4560005124012
 31
0.0
  0
TEXT
  5
1F8D
330
1F
100
AcDbEntity
  8
LOGO
  6
Continuous
100
AcDbText
 10
771.4752395829475
 20
454.00456859674
 30
404.815632682644
 40
4.633251839999998
  1
Tube I.D.
 41
0.8
  7
CHINESET
100
AcDbText
  0
TEXT
  5
1F8E
330
1F
100
AcDbEntity
  8
LOGO
100
AcDbText
 10
774.5231320708303
 20
462.5936189710608
 30
404.815632682644
 40
7.722086399999999
  1
內徑
  7
CHINESET
100
AcDbText
  0
TEXT
  5
1F8F
330
1F
100
AcDbEntity
  8
LOGO
  6
Continuous
100
AcDbText
 10
858.3486689682727
 20
454.00456859674
 30
404.815632682644
 40
4.633251839999998
  1
Auto switch type
 41
0.8
  7
CHINESET
100
AcDbText
  0
TEXT
  5
1F90
330
1F
100
AcDbEntity
  8
LOGO
100
AcDbText
 10
861.3398472274047
 20
462.5936189710608
 30
404.815632682644
 40
7.722086399999999
  1
感應器型式
  7
CHINESET
100
AcDbText
  0
LINE
  5
1F91
330
1F
100
AcDbEntity
  8
LOGO
 62
     4
100
AcDbLine
 10
915.4927093577562
 20
501.2514862838333
 30
0.0
 11
895.3850840087289
 21
501.2514862838333
 31
0.0
  0
LINE
  5
1F92
330
1F
100
AcDbEntity
  8
LOGO
 62
     4
100
AcDbLine
 10
915.4927093577562
 20
482.7211624362115
 30
0.0
 11
895.3850840087289
 21
482.7211624362115
 31
0.0
  0
LINE
  5
1F93
330
1F
100
AcDbEntity
  8
LOGO
 62
     4
100
AcDbLine
 10
895.3850840087289
 20
501.2514862838333
 30
0.0
 11
895.3850840087289
 21
482.7211624362115
 31
0.0
  0
LINE
  5
1F94
330
1F
100
AcDbEntity
  8
LOGO
 62
     4
100
AcDbLine
 10
915.4927093577562
 20
501.2514862838333
 30
0.0
 11
915.4927093577562
 21
482.7211624362115
 31
0.0
  0
LINE
  5
1F95
330
1F
100
AcDbEntity
  8
LOGO
 62
     4
100
AcDbLine
 10
993.6072333795779
 20
473.4560005124012
 30
0.0
 11
993.6072333795779
 21
450.8078269208619
 31
0.0
  0
LINE
  5
1F96
330
1F
100
AcDbEntity
  8
LOGO
 62
     4
100
AcDbLine
 10
915.8666785546888
 20
473.4560005124012
 30
0.0
 11
915.8666785546888
 21
450.8078269208619
 31
0.0
  0
LINE
  5
1F97
330
1F
100
AcDbEntity
  8
LOGO
 62
     4
100
AcDbLine
 10
993.6072333795779
 20
450.8078269208619
 30
0.0
 11
915.8666785546888
 21
450.8078269208619
 31
0.0
  0
LINE
  5
1F98
330
1F
100
AcDbEntity
  8
LOGO
 62
     4
100
AcDbLine
 10
993.6072333795779
 20
473.4560005124012
 30
0.0
 11
915.8666785546888
 21
473.4560005124012
 31
0.0
  0
TEXT
  5
1F99
330
1F
100
AcDbEntity
  8
LOGO
  6
Continuous
100
AcDbText
 10
923.1588136329458
 20
454.00456859674
 30
404.815632682644
 40
4.633251839999998
  1
Number of auto switch
 41
0.8
  7
CHINESET
100
AcDbText
  0
TEXT
  5
1F9A
330
1F
100
AcDbEntity
  8
LOGO
100
AcDbText
 10
935.5268669389847
 20
462.5936189710608
 30
404.815632682644
 40
7.722086399999999
  1
感應器數量
  7
CHINESET
100
AcDbText
  0
LINE
  5
1F9B
330
1F
100
AcDbEntity
  8
LOGO
 62
     4
100
AcDbLine
 10
954.7369559671333
 20
478.0885814743064
 30
0.0
 11
954.7369559671333
 21
473.4560005124012
 31
0.0
  0
TEXT
  5
1F9C
330
1F
100
AcDbEntity
  8
LOGO
100
AcDbText
 10
629.2009097946285
 20
448.9465344572741
 30
0.0
 40
6.177669119999999
  1
10705207
 41
0.7
  7
CHINESET
 72
     1
 11
644.6450825946286
 21
448.9465344572741
 31
0.0
100
AcDbText
  0
LINE
  5
1F9D
330
1F
100
AcDbEntity
  8
LOGO
 62
     4
100
AcDbLine
 10
663.8168539673408
 20
458.0140639727166
 30
0.0
 11
663.8168539673438
 21
445.6605147409677
 31
0.0
  0
LINE
  5
1F9E
330
1F
100
AcDbEntity
  8
LOGO
 62
     4
100
AcDbLine
 10
663.8168539673408
 20
458.0140639727166
 30
0.0
 11
626.7508392473437
 21
458.0140639727166
 31
0.0
  0
CIRCLE
  5
1F9F
330
1F
100
AcDbEntity
  8
LOGO
  6
Continuous
100
AcDbCircle
 10
597.0094125882301
 20
488.9111492181895
 30
0.0
 40
3.586380726862197
  0
CIRCLE
  5
1FA0
330
1F
100
AcDbEntity
  8
LOGO
  6
Continuous
100
AcDbCircle
 10
597.0094125882301
 20
488.9111492181895
 30
0.0
 40
2.101301621618332
  0
LINE
  5
1FA1
330
1F
100
AcDbEntity
  8
LOGO
100
AcDbLine
 10
619.5466452218531
 20
485.3247684913267
 30
0.0
 11
619.5466452218531
 21
492.4975299450524
 31
0.0
  0
LINE
  5
1FA2
330
1F
100
AcDbEntity
  8
LOGO
100
AcDbLine
 10
608.3035475112176
 20
486.8098475965716
 30
0.0
 11
608.3035475112176
 21
491.0124508398083
 31
0.0
  0
LINE
  5
1FA3
330
1F
100
AcDbEntity
  8
LOGO
  6
Continuous
100
AcDbLine
 10
608.3035475112176
 20
491.0124508398083
 30
0.0
 11
619.5466452218531
 21
492.4975299450524
 31
0.0
  0
LINE
  5
1FA4
330
1F
100
AcDbEntity
  8
LOGO
  6
Continuous
100
AcDbLine
 10
608.3035475112176
 20
486.8098475965716
 30
0.0
 11
619.5466452218531
 21
485.3247684913267
 31
0.0
  0
LINE
  5
1FA5
330
1F
100
AcDbEntity
  8
LOGO
  6
AM_ISO08W050x2
 48
0.3
100
AcDbLine
 10
592.0655330544279
 20
488.9111492181895
 30
0.0
 11
601.953292122032
 21
488.9111492181895
 31
0.0
1001
GENIUS_GENOREF_13
1005
1FBC
  0
LINE
  5
1FA6
330
1F
100
AcDbEntity
  8
LOGO
  6
AM_ISO08W050x2
 48
0.3
100
AcDbLine
 10
597.0094125882301
 20
483.9672696843874
 30
0.0
 11
597.0094125882301
 21
493.8550287519916
 31
0.0
1001
GENIUS_GENOREF_13
1005
1FBB
  0
LINE
  5
1FA7
330
1F
100
AcDbEntity
  8
LOGO
  6
CENTER
 48
0.5
100
AcDbLine
 10
607.4044121948049
 20
488.9111492181895
 30
0.0
 11
620.6787887655302
 21
488.9111492181895
 31
0.0
1001
GENIUS_GENOREF_13
1005
1FBA
  0
TEXT
  5
1FA8
330
1F
100
AcDbEntity
  8
LOGO
  6
Continuous
100
AcDbText
 10
806.3874814418532
 20
486.5893404480718
 30
0.0
 40
10.81092096
  1
D
  7
CHINESET
100
AcDbText
  0
LINE
  5
1FA9
330
1F
100
AcDbEntity
  8
LOGO
 62
     4
100
AcDbLine
 10
851.6757269573481
 20
473.4560005124012
 30
0.0
 11
851.6757269573481
 21
450.8078269208619
 31
0.0
  0
LINE
  5
1FAA
330
1F
100
AcDbEntity
  8
LOGO
 62
     4
100
AcDbLine
 10
808.447810951937
 20
473.4560005124012
 30
0.0
 11
808.447810951937
 21
450.8078269208619
 31
0.0
  0
LINE
  5
1FAB
330
1F
100
AcDbEntity
  8
LOGO
 62
     4
100
AcDbLine
 10
851.6757269573481
 20
450.8078269208619
 30
0.0
 11
808.447810951937
 21
450.8078269208619
 31
0.0
  0
LINE
  5
1FAC
330
1F
100
AcDbEntity
  8
LOGO
 62
     4
100
AcDbLine
 10
836.6136616224098
 20
501.2514862838333
 30
0.0
 11
816.8979116319629
 21
501.2514862838333
 31
0.0
  0
LINE
  5
1FAD
330
1F
100
AcDbEntity
  8
LOGO
 62
     4
100
AcDbLine
 10
836.6136616224098
 20
482.7211624362115
 30
0.0
 11
816.8979116319629
 21
482.7211624362115
 31
0.0
  0
LINE
  5
1FAE
330
1F
100
AcDbEntity
  8
LOGO
 62
     4
100
AcDbLine
 10
816.8979116319629
 20
501.2514862838333
 30
0.0
 11
816.8979116319629
 21
482.7211624362115
 31
0.0
  0
LINE
  5
1FAF
330
1F
100
AcDbEntity
  8
LOGO
 62
     4
100
AcDbLine
 10
836.6136616224098
 20
501.2514862838333
 30
0.0
 11
836.6136616224098
 21
482.7211624362115
 31
0.0
  0
LINE
  5
1FB0
330
1F
100
AcDbEntity
  8
LOGO
 62
     4
100
AcDbLine
 10
826.7557866271863
 20
482.7211624362115
 30
0.0
 11
826.7557866271863
 21
473.4560005124012
 31
0.0
  0
LINE
  5
1FB1
330
1F
100
AcDbEntity
  8
LOGO
 62
     4
100
AcDbLine
 10
851.6757269573481
 20
473.4560005124012
 30
0.0
 11
808.447810951937
 21
473.4560005124012
 31
0.0
  0
TEXT
  5
1FB2
330
1F
100
AcDbEntity
  8
LOGO
  6
Continuous
100
AcDbText
 10
812.1822962156148
 20
454.00456859674
 30
404.815632682644
 40
4.633251839999998
  1
Finger option
 41
0.8
  7
CHINESET
100
AcDbText
  0
TEXT
  5
1FB3
330
1F
100
AcDbEntity
  8
LOGO
100
AcDbText
 10
813.3504993828049
 20
462.5936189710608
 30
404.815632682644
 40
7.722086399999999
  1
夾爪選配
  7
CHINESET
100
AcDbText
  0
TEXT
  5
1FB4
330
1F
100
AcDbEntity
  8
LOGO
  6
Continuous
100
AcDbText
 10
884.305619366108
 20
486.5893404480718
 30
0.0
 40
10.81092096
  1
x
  7
CHINESET
100
AcDbText
  0
LINE
  5
1FB5
330
1F
100
AcDbEntity
  8
LOGO
 62
     4
100
AcDbLine
 10
905.4388966832425
 20
482.7211624362115
 30
0.0
 11
905.4388966832425
 21
478.0885814743064
 31
0.0
  0
LINE
  5
1FB6
330
1F
100
AcDbEntity
  8
LOGO
 62
     4
100
AcDbLine
 10
905.4388966832425
 20
478.0885814743064
 30
0.0
 11
954.7369559671333
 21
478.0885814743064
 31
0.0
  0
LINE
  5
1FB7
330
1F
100
AcDbEntity
  8
LOGO
 62
     4
100
AcDbLine
 10
942.4997312247365
 20
1063.427426740966
 30
0.0
 11
942.4997312247365
 21
507.4282608997076
 31
0.0
  0
TEXT
  5
1FB8
330
1F
100
AcDbEntity
  8
0
100
AcDbText
 10
954.769328760595
 20
1037.170628930094
 30
0.0
 40
9.192959999999997
  1
Right angle finger tap mounting
 41
0.85
  7
CHINESET
100
AcDbText
  0
TEXT
  5
1FB9
330
1F
100
AcDbEntity
  8
0
100
AcDbText
 10
503.1313952339735
 20
1037.170628930094
 30
0.0
 40
9.192959999999997
  1
Flat finger (standard)
 41
0.85
  7
CHINESET
100
AcDbText
  0
POINT
  5
1FBA
330
1F
100
AcDbEntity
  8
0
 60
     1
100
AcDbPoint
 10
1694.226357761257
 20
-406.7756832390232
 30
0.0
1001
GENIUS_GENOBJ-N-CRS_13
1002
{
1000
OWNER
1000
GEN
1002
}
1001
GENIUS_GENOLIS_13
1002
{
1000
ENT
1005
0
1005
0
1005
0
1005
1FA7
1002
}
1001
GENIUS_GENOENT_13
1002
{
1000
MYREF
1005
1FBA
1002
}
1002
{
1000
GRP
1005
0
1002
}
1001
GENIUS_GENODEF_13
1002
{
1000
HIER
1070
    10
1002
}
1002
{
1000
MANEDIT
1070
     1
1002
}
1002
{
1000
NOSEL
1070
     0
1002
}
1002
{
1000
BEHIND
1070
     0
1002
}
1002
{
1000
OTHER
1070
     0
1002
}
1002
{
1000
REACTOR
1002
}
  0
POINT
  5
1FBB
330
1F
100
AcDbEntity
  8
0
 60
     1
100
AcDbPoint
 10
1682.901772538402
 20
-397.900096760387
 30
0.0
1001
GENIUS_GENOBJ-N-CRS_13
1002
{
1000
OWNER
1000
GEN
1002
}
1001
GENIUS_GENOLIS_13
1002
{
1000
ENT
1005
0
1005
0
1005
0
1005
1FA6
1002
}
1001
GENIUS_GENOENT_13
1002
{
1000
MYREF
1005
1FBB
1002
}
1002
{
1000
GRP
1005
0
1002
}
1001
GENIUS_GENODEF_13
1002
{
1000
HIER
1070
    10
1002
}
1002
{
1000
MANEDIT
1070
     1
1002
}
1002
{
1000
NOSEL
1070
     0
1002
}
1002
{
1000
BEHIND
1070
     0
1002
}
1002
{
1000
OTHER
1070
     0
1002
}
1002
{
1000
REACTOR
1002
}
  0
POINT
  5
1FBC
330
1F
100
AcDbEntity
  8
0
 60
     1
100
AcDbPoint
 10
1689.260446236239
 20
-406.7756832390232
 30
0.0
1001
GENIUS_GENOBJ-N-CRS_13
1002
{
1000
OWNER
1000
GEN
1002
}
1001
GENIUS_GENOLIS_13
1002
{
1000
ENT
1005
0
1005
0
1005
0
1005
1FA5
1002
}
1001
GENIUS_GENOENT_13
1002
{
1000
MYREF
1005
1FBC
1002
}
1002
{
1000
GRP
1005
0
1002
}
1001
GENIUS_GENODEF_13
1002
{
1000
HIER
1070
    10
1002
}
1002
{
1000
MANEDIT
1070
     1
1002
}
1002
{
1000
NOSEL
1070
     0
1002
}
1002
{
1000
BEHIND
1070
     0
1002
}
1002
{
1000
OTHER
1070
     0
1002
}
1002
{
1000
REACTOR
1002
}
  0
ARC
  5
21DA
330
1F
100
AcDbEntity
  8
AM_4
100
AcDbCircle
 10
785.9430052576275
 20
735.8763082477056
 30
0.0
 40
4.0
100
AcDbArc
 50
260.0
 51
170.0
  0
ARC
  5
21DB
330
1F
100
AcDbEntity
  8
AM_4
100
AcDbCircle
 10
821.9430052576274
 20
795.8763082477056
 30
0.0
 40
4.0
100
AcDbArc
 50
260.0
 51
170.0
  0
ENDSEC
  0
SECTION
  2
OBJECTS
  0
DICTIONARY
  5
C
330
0
100
AcDbDictionary
281
     1
  3
ACAD_COLOR
350
BE
  3
ACAD_GROUP
350
D
  3
ACAD_LAYOUT
350
1A
  3
ACAD_MATERIAL
350
BD
  3
ACAD_MLINESTYLE
350
17
  3
ACAD_PLOTSETTINGS
350
19
  3
ACAD_PLOTSTYLENAME
350
E
  3
ACAD_TABLESTYLE
350
11A
  3
ACDBHEADERROUNDTRIPXREC
350
21F5
  3
AcDbVariableDictionary
350
94
  3
AcmDictionary
350
5B
  3
AMG
350
41
  3
AMGSNAPSETTINGS
350
1B8
  3
DWGPROPS
350
21F4
  0
DICTIONARY
  5
3F9
330
2
100
AcDbDictionary
280
     1
281
     1
  3
ACAD_LAYERFILTERS
360
1A5A
  3
ACAD_LAYERSTATES
360
1E7F
  3
ACLYDICTIONARY
360
1A59
  3
AMLAYER_GROUPCOLORS
360
1AD5
  0
DICTIONARY
  5
8F
330
1F
100
AcDbDictionary
280
     1
281
     1
  3
ACAD_SORTENTS
360
1B08
  0
DICTIONARY
  5
1B7A
330
1B6D
100
AcDbDictionary
280
     1
281
     1
  3
ACAD_DIMASSOC
360
1B7B
  0
DICTIONARY
  5
1BA0
330
1B93
100
AcDbDictionary
280
     1
281
     1
  3
ACAD_DIMASSOC
360
1BA1
  0
DICTIONARY
  5
1BC6
330
1BB9
100
AcDbDictionary
280
     1
281
     1
  3
ACAD_DIMASSOC
360
1BC7
  0
DICTIONARY
  5
1C21
330
1C14
100
AcDbDictionary
280
     1
281
     1
  3
ACAD_DIMASSOC
360
1C22
  0
DICTIONARY
  5
1C54
330
1C47
100
AcDbDictionary
280
     1
281
     1
  3
ACAD_DIMASSOC
360
1C55
  0
DICTIONARY
  5
BE
102
{ACAD_REACTORS
330
C
102
}
330
C
100
AcDbDictionary
281
     1
  0
DICTIONARY
  5
D
102
{ACAD_REACTORS
330
C
102
}
330
C
100
AcDbDictionary
281
     1
  0
DICTIONARY
  5
1A
102
{ACAD_REACTORS
330
C
102
}
330
C
100
AcDbDictionary
281
     1
  3
Model
350
22
  3
配置1
350
1E
  3
配置2
350
26
  0
DICTIONARY
  5
BD
102
{ACAD_REACTORS
330
C
102
}
330
C
100
AcDbDictionary
281
     1
  0
DICTIONARY
  5
17
102
{ACAD_REACTORS
330
C
102
}
330
C
100
AcDbDictionary
281
     1
  3
Standard
350
18
  0
DICTIONARY
  5
19
102
{ACAD_REACTORS
330
C
102
}
330
C
100
AcDbDictionary
281
     1
  0
ACDBDICTIONARYWDFLT
  5
E
102
{ACAD_REACTORS
330
C
102
}
330
C
100
AcDbDictionary
281
     1
  3
Normal
350
F
100
AcDbDictionaryWithDefault
340
F
  0
DICTIONARY
  5
11A
102
{ACAD_REACTORS
330
C
102
}
330
C
100
AcDbDictionary
281
     1
  3
Standard
350
11B
  0
DICTIONARY
  5
21F5
102
{ACAD_REACTORS
330
C
102
}
330
C
100
AcDbDictionary
281
     1
  0
DICTIONARY
  5
94
102
{ACAD_REACTORS
330
C
102
}
330
C
100
AcDbDictionary
281
     1
  3
CTABLESTYLE
350
138
  3
DIMASSOC
350
96
  3
INDEXCTL
350
95
  3
PROJECTNAME
350
21F2
  0
DICTIONARY
  5
5B
102
{ACAD_REACTORS
330
C
102
}
330
C
100
AcDbDictionary
281
     1
  3
AcmBOM
350
1B5
  3
AcmStdDictionary
350
61
  3
AMDTSECTSYM_ARROWCOLOR
350
123
  0
DICTIONARY
  5
41
102
{ACAD_REACTORS
330
C
102
}
330
C
100
AcDbDictionary
281
     1
  0
DICTIONARY
  5
1B8
102
{ACAD_REACTORS
330
C
102
}
330
C
100
AcDbDictionary
281
     1
  0
XRECORD
  5
21F4
102
{ACAD_REACTORS
330
C
102
}
330
C
100
AcDbXrecord
280
     1
  1
DWGPROPS COOKIE
  2

  3

  4

  6

  7

  8

  9

300
AmdtFileType=84
301
=
302
=
303
=
304
=
305
=
306
=
307
=
308
=
309
=
 40
0.1004719907407407
 41
2454240.5638189
 42
2454240.694148033
  1

 90
        1
  0
DICTIONARY
  5
1A5A
102
{ACAD_REACTORS
330
3F9
102
}
330
3F9
100
AcDbDictionary
281
     1
  0
DICTIONARY
  5
1E7F
102
{ACAD_REACTORS
330
3F9
102
}
330
3F9
100
AcDbDictionary
281
     1
  0
DICTIONARY
  5
1A59
102
{ACAD_REACTORS
330
3F9
102
}
330
3F9
100
AcDbDictionary
281
     1
1001
ACAD
1000
<All
  0
DICTIONARY
  5
1AD5
102
{ACAD_REACTORS
330
3F9
102
}
330
3F9
100
AcDbDictionary
280
     1
281
     1
  0
SORTENTSTABLE
  5
1B08
102
{ACAD_REACTORS
330
8F
102
}
330
8F
100
AcDbSortentsTable
330
1F
331
1809
  5
1809
331
1793
  5
1793
331
17D2
  5
17D2
331
171D
  5
171D
331
175C
  5
175C
331
1811
  5
1811
331
1764
  5
1764
331
179B
  5
179B
331
1725
  5
1725
331
17E2
  5
17E2
331
172D
  5
172D
331
17A3
  5
17A3
331
17EA
  5
17EA
331
1735
  5
1735
331
1774
  5
1774
331
16E0
  5
16E0
331
166A
  5
166A
331
1A82
  5
1A82
331
16E8
  5
16E8
331
1672
  5
1672
331
16B1
  5
16B1
331
16F0
  5
16F0
331
16B9
  5
16B9
331
16F8
  5
16F8
331
1682
  5
1682
331
17B3
  5
17B3
331
173D
  5
173D
331
17F2
  5
17F2
331
1784
  5
1784
331
17BB
  5
17BB
331
1745
  5
1745
331
174D
  5
174D
331
178C
  5
178C
331
17C3
  5
17C3
331
1755
  5
1755
331
17CB
  5
17CB
331
1ACA
  5
1ACA
331
168A
  5
168A
331
16C1
  5
16C1
331
1653
  5
1653
331
16C9
  5
16C9
331
16D1
  5
16D1
331
1710
  5
1710
331
165B
  5
165B
331
169A
  5
169A
331
16D9
  5
16D9
331
1663
  5
1663
331
17D3
  5
17D3
331
171E
  5
171E
331
175D
  5
175D
331
180A
  5
180A
331
1726
  5
1726
331
17DB
  5
17DB
331
1812
  5
1812
331
17A4
  5
17A4
331
172E
  5
172E
331
176D
  5
176D
331
1775
  5
1775
331
17AC
  5
17AC
331
1736
  5
1736
331
17EB
  5
17EB
331
16A2
  5
16A2
331
16E1
  5
16E1
331
166B
  5
166B
331
1A83
  5
1A83
331
16E9
  5
16E9
331
1673
  5
1673
331
16F1
  5
16F1
331
16B2
  5
16B2
331
1AAB
  5
1AAB
331
16F9
  5
16F9
331
1683
  5
1683
331
16BA
  5
16BA
331
17F3
  5
17F3
331
173E
  5
173E
331
17B4
  5
17B4
331
17BC
  5
17BC
331
17FB
  5
17FB
331
1746
  5
1746
331
1785
  5
1785
331
17C4
  5
17C4
331
1803
  5
1803
331
174E
  5
174E
331
178D
  5
178D
331
17CC
  5
17CC
331
1756
  5
1756
331
1ACB
  5
1ACB
331
16C2
  5
16C2
331
1701
  5
1701
331
168B
  5
168B
331
16CA
  5
16CA
331
1654
  5
1654
331
1709
  5
1709
331
1711
  5
1711
331
169B
  5
169B
331
16D2
  5
16D2
331
165C
  5
165C
331
1664
  5
1664
331
16DA
  5
16DA
331
180B
  5
180B
331
175E
  5
175E
331
1795
  5
1795
331
171F
  5
171F
331
17D4
  5
17D4
331
1813
  5
1813
331
1766
  5
1766
331
1727
  5
1727
331
17DC
  5
17DC
331
172F
  5
172F
331
176E
  5
176E
331
17A5
  5
17A5
331
17AD
  5
17AD
331
1737
  5
1737
331
17EC
  5
17EC
331
16E2
  5
16E2
331
166C
  5
166C
331
1A84
  5
1A84
331
16A3
  5
16A3
331
16AB
  5
16AB
331
16EA
  5
16EA
331
1674
  5
1674
331
16B3
  5
16B3
331
16F2
  5
16F2
331
16BB
  5
16BB
331
16FA
  5
16FA
331
1684
  5
1684
331
17B5
  5
17B5
331
17F4
  5
17F4
331
173F
  5
173F
331
177E
  5
177E
331
1786
  5
1786
331
17BD
  5
17BD
331
1747
  5
1747
331
17FC
  5
17FC
331
174F
  5
174F
331
178E
  5
178E
331
17C5
  5
17C5
331
17CD
  5
17CD
331
1757
  5
1757
331
1ACC
  5
1ACC
331
1702
  5
1702
331
170A
  5
170A
331
1655
  5
1655
331
16CB
  5
16CB
331
16D3
  5
16D3
331
165D
  5
165D
331
1712
  5
1712
331
16DB
  5
16DB
331
1718
  5
1718
331
17D5
  5
17D5
331
180C
  5
180C
331
1720
  5
1720
331
175F
  5
175F
331
1796
  5
1796
331
17DD
  5
17DD
331
1728
  5
1728
331
1767
  5
1767
331
1814
  5
1814
331
176F
  5
176F
331
17A6
  5
17A6
331
1730
  5
1730
331
17E5
  5
17E5
331
1777
  5
1777
331
17AE
  5
17AE
331
1A7D
  5
1A7D
331
16A4
  5
16A4
331
16E3
  5
16E3
331
166D
  5
166D
331
16AC
  5
16AC
331
1AA5
  5
1AA5
331
16EB
  5
16EB
331
16F3
  5
16F3
331
16B4
  5
16B4
331
16BC
  5
16BC
331
16FB
  5
16FB
331
1685
  5
1685
331
1738
  5
1738
331
17F5
  5
17F5
331
1740
  5
1740
331
177F
  5
177F
331
17B6
  5
17B6
331
17BE
  5
17BE
331
17FD
  5
17FD
331
1748
  5
1748
331
1787
  5
1787
331
17C6
  5
17C6
331
1805
  5
1805
331
1750
  5
1750
331
178F
  5
178F
331
17CE
  5
17CE
331
16C4
  5
16C4
331
168D
  5
168D
331
16CC
  5
16CC
331
1656
  5
1656
331
1713
  5
1713
331
169D
  5
169D
331
16D4
  5
16D4
331
1666
  5
1666
331
16DC
  5
16DC
331
1719
  5
1719
331
180D
  5
180D
331
1760
  5
1760
331
1721
  5
1721
331
17D6
  5
17D6
331
1815
  5
1815
331
1768
  5
1768
331
179F
  5
179F
331
1729
  5
1729
331
1731
  5
1731
331
17A7
  5
17A7
331
17AF
  5
17AF
331
1A7E
  5
1A7E
331
16E4
  5
16E4
331
166E
  5
166E
331
16A5
  5
16A5
331
16AD
  5
16AD
331
1AA6
  5
1AA6
331
16EC
  5
16EC
331
16B5
  5
16B5
331
16F4
  5
16F4
331
167E
  5
167E
331
1686
  5
1686
331
16BD
  5
16BD
331
16FC
  5
16FC
331
1739
  5
1739
331
1778
  5
1778
331
1780
  5
1780
331
17B7
  5
17B7
331
1741
  5
1741
331
17F6
  5
17F6
331
1788
  5
1788
331
17BF
  5
17BF
331
1749
  5
1749
331
17FE
  5
17FE
331
17C7
  5
17C7
331
17CF
  5
17CF
331
1704
  5
1704
331
168E
  5
168E
331
16C5
  5
16C5
331
16CD
  5
16CD
331
170C
  5
170C
331
1657
  5
1657
331
1696
  5
1696
331
16D5
  5
16D5
331
1714
  5
1714
331
165F
  5
165F
331
169E
  5
169E
331
16DD
  5
16DD
331
1667
  5
1667
331
171A
  5
171A
331
17D7
  5
17D7
331
180E
  5
180E
331
1722
  5
1722
331
1798
  5
1798
331
17A0
  5
17A0
331
172A
  5
172A
331
17DF
  5
17DF
331
1816
  5
1816
331
1771
  5
1771
331
17A8
  5
17A8
331
1732
  5
1732
331
17EF
  5
17EF
331
1A7F
  5
1A7F
331
16A6
  5
16A6
331
16E5
  5
16E5
331
166F
  5
166F
331
1A87
  5
1A87
331
1677
  5
1677
331
16AE
  5
16AE
331
16ED
  5
16ED
331
16F5
  5
16F5
331
167F
  5
167F
331
16B6
  5
16B6
331
16BE
  5
16BE
331
16FD
  5
16FD
331
1779
  5
1779
331
17B0
  5
17B0
331
173A
  5
173A
331
1742
  5
1742
331
1781
  5
1781
331
17B8
  5
17B8
331
17C0
  5
17C0
331
174A
  5
174A
331
17FF
  5
17FF
331
17C8
  5
17C8
331
1752
  5
1752
331
1807
  5
1807
331
16C6
  5
16C6
331
1705
  5
1705
331
168F
  5
168F
331
1697
  5
1697
331
16CE
  5
16CE
331
1658
  5
1658
331
170D
  5
170D
331
1715
  5
1715
331
169F
  5
169F
331
16D6
  5
16D6
331
1660
  5
1660
331
16DE
  5
16DE
331
1791
  5
1791
331
17D0
  5
17D0
331
171B
  5
171B
331
175A
  5
175A
331
180F
  5
180F
331
1762
  5
1762
331
1799
  5
1799
331
1723
  5
1723
331
17D8
  5
17D8
331
17E0
  5
17E0
331
1817
  5
1817
331
172B
  5
172B
331
176A
  5
176A
331
17A1
  5
17A1
331
17E8
  5
17E8
331
1733
  5
1733
331
1772
  5
1772
331
17A9
  5
17A9
331
1668
  5
1668
331
1A80
  5
1A80
331
16E6
  5
16E6
331
1670
  5
1670
331
16A7
  5
16A7
331
16AF
  5
16AF
331
16EE
  5
16EE
331
16B7
  5
16B7
331
16F6
  5
16F6
331
1680
  5
1680
331
16BF
  5
16BF
331
17B1
  5
17B1
331
173B
  5
173B
331
1782
  5
1782
331
17B9
  5
17B9
331
1743
  5
1743
331
17F8
  5
17F8
331
1800
  5
1800
331
178A
  5
178A
331
17C1
  5
17C1
331
174B
  5
174B
331
1753
  5
1753
331
17C9
  5
17C9
331
1688
  5
1688
331
1706
  5
1706
331
1690
  5
1690
331
16C7
  5
16C7
331
16CF
  5
16CF
331
170E
  5
170E
331
1659
  5
1659
331
1698
  5
1698
331
16D7
  5
16D7
331
1661
  5
1661
331
1716
  5
1716
331
16DF
  5
16DF
331
17D1
  5
17D1
331
171C
  5
171C
331
175B
  5
175B
331
1792
  5
1792
331
179A
  5
179A
331
17D9
  5
17D9
331
1724
  5
1724
331
1763
  5
1763
331
1810
  5
1810
331
17A2
  5
17A2
331
17E1
  5
17E1
331
172C
  5
172C
331
176B
  5
176B
331
1773
  5
1773
331
17AA
  5
17AA
331
1734
  5
1734
331
17E9
  5
17E9
331
16A0
  5
16A0
331
1A81
  5
1A81
331
16A8
  5
16A8
331
16E7
  5
16E7
331
1671
  5
1671
331
16EF
  5
16EF
331
1679
  5
1679
331
16B0
  5
16B0
331
1AA9
  5
1AA9
331
16F7
  5
16F7
331
1681
  5
1681
331
16B8
  5
16B8
331
16FF
  5
16FF
331
17F1
  5
17F1
331
173C
  5
173C
331
17B2
  5
17B2
331
17F9
  5
17F9
331
1783
  5
1783
331
17BA
  5
17BA
331
17C2
  5
17C2
331
1801
  5
1801
331
17CA
  5
17CA
331
1754
  5
1754
331
1AC9
  5
1AC9
331
16C0
  5
16C0
331
1689
  5
1689
331
16C8
  5
16C8
331
1707
  5
1707
331
1652
  5
1652
331
1691
  5
1691
331
1699
  5
1699
331
165A
  5
165A
331
1717
  5
1717
331
16D8
  5
16D8
331
1662
  5
1662
  0
DIMASSOC
  5
1B7B
102
{ACAD_REACTORS
330
1B7A
102
}
330
1B7A
100
AcDbDimAssoc
330
1B6D
 90
        3
 70
     0
 71
     0
  1
AcDbOsnapPointRef
 72
    13
331
16F2
 73
     0
 91
        0
 40
0.0
 10
0.0
 20
0.0
 30
2.000000000000000E+50
 75
     0
  1
AcDbOsnapPointRef
 72
     1
331
16F2
 73
     0
 91
        0
 40
0.0
 10
0.0
 20
0.0
 30
2.000000000000000E+50
 75
     0
  0
DIMASSOC
  5
1BA1
102
{ACAD_REACTORS
330
1BA0
102
}
330
1BA0
100
AcDbDimAssoc
330
1B93
 90
        3
 70
     0
 71
     0
  1
AcDbOsnapPointRef
 72
    13
331
16F2
 73
     0
 91
        0
 40
0.0
 10
0.0
 20
0.0
 30
2.000000000000000E+50
 75
     0
  1
AcDbOsnapPointRef
 72
     1
331
16D4
 73
     0
 91
        0
 40
0.0
 10
0.0
 20
0.0
 30
2.000000000000000E+50
 75
     0
  0
DIMASSOC
  5
1BC7
102
{ACAD_REACTORS
330
1BC6
102
}
330
1BC6
100
AcDbDimAssoc
330
1BB9
 90
        3
 70
     0
 71
     0
  1
AcDbOsnapPointRef
 72
    13
331
16F2
 73
     0
 91
        0
 40
0.0
 10
0.0
 20
0.0
 30
2.000000000000000E+50
 75
     0
  1
AcDbOsnapPointRef
 72
    13
331
16B7
 73
     0
 91
        0
 40
0.0
 10
0.0
 20
0.0
 30
2.000000000000000E+50
 75
     0
  0
DIMASSOC
  5
1C22
102
{ACAD_REACTORS
330
1C21
102
}
330
1C21
100
AcDbDimAssoc
330
1C14
 90
        3
 70
     0
 71
     0
  1
AcDbOsnapPointRef
 72
    13
331
16D1
 73
     0
 91
        0
 40
0.0
 10
0.0
 20
0.0
 30
2.000000000000000E+50
 75
     0
  1
AcDbOsnapPointRef
 72
     1
331
1A7F
 73
     0
 91
        0
 40
0.0
 10
0.0
 20
0.0
 30
2.000000000000000E+50
 75
     0
  0
DIMASSOC
  5
1C55
102
{ACAD_REACTORS
330
1C54
102
}
330
1C54
100
AcDbDimAssoc
330
1C47
 90
        3
 70
     0
 71
     0
  1
AcDbOsnapPointRef
 72
     1
331
16D4
 73
     0
 91
        0
 40
0.0
 10
0.0
 20
0.0
 30
2.000000000000000E+50
 75
     0
  1
AcDbOsnapPointRef
 72
     1
331
16F2
 73
     0
 91
        0
 40
0.0
 10
0.0
 20
0.0
 30
2.000000000000000E+50
 75
     0
  0
LAYOUT
  5
22
102
{ACAD_XDICTIONARY
360
21F8
102
}
102
{ACAD_REACTORS
330
1A
102
}
330
1A
100
AcDbPlotSettings
  1

  2
\\RD\EPSON Stylus C63 Series單色
  4
A4
  6

 40
3.757083177566528
 41
3.757076978683471
 42
3.757080078125
 43
3.757080078125
 44
209.9733276367187
 45
296.9683227539062
 46
0.0
 47
0.0
 48
0.0
 49
0.0
140
0.0
141
0.0
142
1.0
143
0.3405120737814363
 70
 11952
 72
     1
 73
     0
 74
     0
  7
單色出圖.ctb
 75
     0
147
2.936753428137963
148
-2047.07469463503
149
-1261.649717473083
100
AcDbLayout
  1
Model
 70
     1
 71
     0
 10
0.0
 20
0.0
 11
12.0
 21
9.0
 12
0.0
 22
0.0
 32
0.0
 14
0.0
 24
0.0
 34
0.0
 15
0.0
 25
0.0
 35
0.0
146
0.0
 13
0.0
 23
0.0
 33
0.0
 16
1.0
 26
0.0
 36
0.0
 17
0.0
 27
1.0
 37
0.0
 76
     0
330
1F
1001
ACAD_PSEXT
1000
\\RD\EPSON Stylus C63 Series單色
1000
EPSON Stylus C63 Series
1000
\\RD
1000

1070
     0
  0
LAYOUT
  5
1E
102
{ACAD_XDICTIONARY
360
21F6
102
}
102
{ACAD_REACTORS
330
1A
102
}
330
1A
100
AcDbPlotSettings
  1

  2

  4

  6

 40
0.0
 41
0.0
 42
0.0
 43
0.0
 44
0.0
 45
0.0
 46
0.0
 47
0.0
 48
0.0
 49
0.0
140
0.0
141
0.0
142
1.0
143
1.0
 70
   688
 72
     0
 73
     0
 74
     5
  7
單色出圖.ctb
 75
    16
147
1.0
148
0.0
149
0.0
100
AcDbLayout
  1
配置1
 70
     1
 71
     1
 10
0.0
 20
0.0
 11
420.0
 21
297.0
 12
0.0
 22
0.0
 32
0.0
 14
1.000000000000000E+20
 24
1.000000000000000E+20
 34
1.000000000000000E+20
 15
-1.000000000000000E+20
 25
-1.000000000000000E+20
 35
-1.000000000000000E+20
146
0.0
 13
0.0
 23
0.0
 33
0.0
 16
1.0
 26
0.0
 36
0.0
 17
0.0
 27
1.0
 37
0.0
 76
     0
330
1B
  0
LAYOUT
  5
26
102
{ACAD_XDICTIONARY
360
21FA
102
}
102
{ACAD_REACTORS
330
1A
102
}
330
1A
100
AcDbPlotSettings
  1

  2

  4

  6

 40
0.0
 41
0.0
 42
0.0
 43
0.0
 44
0.0
 45
0.0
 46
0.0
 47
0.0
 48
0.0
 49
0.0
140
0.0
141
0.0
142
1.0
143
1.0
 70
   688
 72
     0
 73
     0
 74
     5
  7
單色出圖.ctb
 75
    16
147
1.0
148
0.0
149
0.0
100
AcDbLayout
  1
配置2
 70
     1
 71
     2
 10
0.0
 20
0.0
 11
12.0
 21
9.0
 12
0.0
 22
0.0
 32
0.0
 14
0.0
 24
0.0
 34
0.0
 15
0.0
 25
0.0
 35
0.0
146
0.0
 13
0.0
 23
0.0
 33
0.0
 16
1.0
 26
0.0
 36
0.0
 17
0.0
 27
1.0
 37
0.0
 76
     0
330
23
  0
MLINESTYLE
  5
18
102
{ACAD_REACTORS
330
17
102
}
330
17
100
AcDbMlineStyle
  2
STANDARD
 70
     0
  3

 62
   256
 51
90.0
 52
90.0
 71
     2
 49
0.5
 62
   256
  6
BYLAYER
 49
-0.5
 62
   256
  6
BYLAYER
  0
ACDBPLACEHOLDER
  5
F
102
{ACAD_REACTORS
330
E
102
}
330
E
  0
TABLESTYLE
  5
11B
102
{ACAD_REACTORS
330
11A
102
}
330
11A
100
AcDbTableStyle
  3
Standard
 70
     0
 71
     0
 40
1.5
 41
1.5
280
     0
281
     0
  7
STANDARD
140
4.5
170
     2
 62
     0
 63
     7
283
     0
274
    -2
284
     1
 64
     0
275
    -2
285
     1
 65
     0
276
    -2
286
     1
 66
     0
277
    -2
287
     1
 67
     0
278
    -2
288
     1
 68
     0
279
    -2
289
     1
 69
     0
  7
STANDARD
140
6.0
170
     5
 62
     0
 63
     7
283
     0
274
    -2
284
     1
 64
     0
275
    -2
285
     1
 65
     0
276
    -2
286
     1
 66
     0
277
    -2
287
     1
 67
     0
278
    -2
288
     1
 68
     0
279
    -2
289
     1
 69
     0
  7
STANDARD
140
4.5
170
     5
 62
     0
 63
     7
283
     0
274
    -2
284
     1
 64
     0
275
    -2
285
     1
 65
     0
276
    -2
286
     1
 66
     0
277
    -2
287
     1
 67
     0
278
    -2
288
     1
 68
     0
279
    -2
289
     1
 69
     0
  0
DICTIONARYVAR
  5
138
102
{ACAD_REACTORS
330
94
102
}
330
94
100
DictionaryVariables
280
     0
  1
STANDARD
  0
DICTIONARYVAR
  5
96
102
{ACAD_REACTORS
330
94
102
}
330
94
100
DictionaryVariables
280
     0
  1
2
  0
DICTIONARYVAR
  5
95
102
{ACAD_REACTORS
330
94
102
}
330
94
100
DictionaryVariables
280
     0
  1
0
  0
DICTIONARYVAR
  5
21F2
102
{ACAD_REACTORS
330
94
102
}
330
94
100
DictionaryVariables
280
     0
  1

  0
DICTIONARY
  5
1B5
102
{ACAD_REACTORS
330
5B
102
}
330
5B
100
AcDbDictionary
281
     1
  0
DICTIONARY
  5
61
102
{ACAD_REACTORS
330
5B
102
}
330
5B
100
AcDbDictionary
281
     1
  0
XRECORD
  5
123
102
{ACAD_REACTORS
330
5B
102
}
330
5B
100
AcDbXrecord
280
     1
 90
-1023410169
  0
DICTIONARY
  5
21F8
330
22
100
AcDbDictionary
280
     1
281
     1
  3
ACAD_XREC_ROUNDTRIP
360
21F9
  0
DICTIONARY
  5
21F6
330
1E
100
AcDbDictionary
280
     1
281
     1
  3
ACAD_XREC_ROUNDTRIP
360
21F7
  0
DICTIONARY
  5
21FA
330
26
100
AcDbDictionary
280
     1
281
     1
  3
ACAD_XREC_ROUNDTRIP
360
21FB
  0
XRECORD
  5
21F9
102
{ACAD_REACTORS
330
21F8
102
}
330
21F8
100
AcDbXrecord
280
     1
102
SHADEPLOT
 70
     0
102
SHADEPLOTRESLEVEL
 70
     2
102
SHADEPLOTCUSTOMDPI
 70
   300
  0
XRECORD
  5
21F7
102
{ACAD_REACTORS
330
21F6
102
}
330
21F6
100
AcDbXrecord
280
     1
102
SHADEPLOT
 70
     0
102
SHADEPLOTRESLEVEL
 70
     2
102
SHADEPLOTCUSTOMDPI
 70
   300
  0
XRECORD
  5
21FB
102
{ACAD_REACTORS
330
21FA
102
}
330
21FA
100
AcDbXrecord
280
     1
102
SHADEPLOT
 70
     0
102
SHADEPLOTRESLEVEL
 70
     2
102
SHADEPLOTCUSTOMDPI
 70
   300
  0
ENDSEC
  0
EOF
