  0
SECTION
  2
HEADER
  9
$ACADVER
  1
AC1015
  9
$ACADMAINTVER
 70
    20
  9
$DWGCODEPAGE
  3
ANSI_950
  9
$INSBASE
 10
0.0
 20
0.0
 30
0.0
  9
$EXTMIN
 10
128.8695495344709
 20
42.30193131753231
 30
-0.0128133765596204
  9
$EXTMAX
 10
745.0384732820812
 20
493.9561046534882
 30
295.9412614350093
  9
$LIMMIN
 10
0.0
 20
0.0
  9
$LIMMAX
 10
420.0
 20
297.0
  9
$ORTHOMODE
 70
     1
  9
$REGENMODE
 70
     1
  9
$FILLMODE
 70
     1
  9
$QTEXTMODE
 70
     0
  9
$MIRRTEXT
 70
     1
  9
$LTSCALE
 40
1.0
  9
$ATTMODE
 70
     1
  9
$TEXTSIZE
 40
3.0
  9
$TRACEWID
 40
1.0
  9
$TEXTSTYLE
  7
STANDARD
  9
$CLAYER
  8
0
  9
$CELTYPE
  6
ByLayer
  9
$CECOLOR
 62
   256
  9
$CELTSCALE
 40
1.0
  9
$DISPSILH
 70
     0
  9
$DIMSCALE
 40
1.0
  9
$DIMASZ
 40
3.0
  9
$DIMEXO
 40
1.0
  9
$DIMDLI
 40
8.0
  9
$DIMRND
 40
0.0
  9
$DIMDLE
 40
0.0
  9
$DIMEXE
 40
1.5
  9
$DIMTP
 40
0.1
  9
$DIMTM
 40
0.1
  9
$DIMTXT
 40
3.5
  9
$DIMCEN
 40
0.0
  9
$DIMTSZ
 40
0.0
  9
$DIMTOL
 70
     0
  9
$DIMLIM
 70
     0
  9
$DIMTIH
 70
     0
  9
$DIMTOH
 70
     0
  9
$DIMSE1
 70
     0
  9
$DIMSE2
 70
     0
  9
$DIMTAD
 70
     1
  9
$DIMZIN
 70
     8
  9
$DIMBLK
  1

  9
$DIMASO
 70
     1
  9
$DIMSHO
 70
     1
  9
$DIMPOST
  1

  9
$DIMAPOST
  1
"
  9
$DIMALT
 70
     0
  9
$DIMALTD
 70
     2
  9
$DIMALTF
 40
0.0393701
  9
$DIMLFAC
 40
1.0
  9
$DIMTOFL
 70
     1
  9
$DIMTVP
 40
0.0
  9
$DIMTIX
 70
     0
  9
$DIMSOXD
 70
     0
  9
$DIMSAH
 70
     0
  9
$DIMBLK1
  1

  9
$DIMBLK2
  1

  9
$DIMSTYLE
  2
AM_ISO
  9
$DIMCLRD
 70
   256
  9
$DIMCLRE
 70
   256
  9
$DIMCLRT
 70
   256
  9
$DIMTFAC
 40
0.6
  9
$DIMGAP
 40
0.7
  9
$DIMJUST
 70
     0
  9
$DIMSD1
 70
     0
  9
$DIMSD2
 70
     0
  9
$DIMTOLJ
 70
     0
  9
$DIMTZIN
 70
     8
  9
$DIMALTZ
 70
     0
  9
$DIMALTTZ
 70
     0
  9
$DIMUPT
 70
     0
  9
$DIMDEC
 70
     2
  9
$DIMTDEC
 70
     8
  9
$DIMALTU
 70
     2
  9
$DIMALTTD
 70
     2
  9
$DIMTXSTY
  7
STANDARD
  9
$DIMAUNIT
 70
     0
  9
$DIMADEC
 70
     0
  9
$DIMALTRND
 40
0.0
  9
$DIMAZIN
 70
     2
  9
$DIMDSEP
 70
    46
  9
$DIMATFIT
 70
     3
  9
$DIMFRAC
 70
     0
  9
$DIMLDRBLK
  1

  9
$DIMLUNIT
 70
     2
  9
$DIMLWD
 70
    -1
  9
$DIMLWE
 70
    -1
  9
$DIMTMOVE
 70
     0
  9
$LUNITS
 70
     2
  9
$LUPREC
 70
     2
  9
$SKETCHINC
 40
1.0
  9
$FILLETRAD
 40
2.5
  9
$AUNITS
 70
     0
  9
$AUPREC
 70
     0
  9
$MENU
  1
.
  9
$ELEVATION
 40
0.0
  9
$PELEVATION
 40
0.0
  9
$THICKNESS
 40
0.0
  9
$LIMCHECK
 70
     0
  9
$CHAMFERA
 40
2.5
  9
$CHAMFERB
 40
2.5
  9
$CHAMFERC
 40
20.0
  9
$CHAMFERD
 40
0.0
  9
$SKPOLY
 70
     0
  9
$TDCREATE
 40
2454240.456294306
  9
$TDUCREATE
 40
2454240.122960972
  9
$TDUPDATE
 40
2454240.676961806
  9
$TDUUPDATE
 40
2454240.343628472
  9
$TDINDWG
 40
0.2206684028
  9
$TDUSRTIMER
 40
0.2206684028
  9
$USRTIMER
 70
     1
  9
$ANGBASE
 50
0.0
  9
$ANGDIR
 70
     0
  9
$PDMODE
 70
     0
  9
$PDSIZE
 40
0.0
  9
$PLINEWID
 40
0.0
  9
$SPLFRAME
 70
     0
  9
$SPLINETYPE
 70
     6
  9
$SPLINESEGS
 70
     8
  9
$HANDSEED
  5
16F1
  9
$SURFTAB1
 70
     6
  9
$SURFTAB2
 70
     6
  9
$SURFTYPE
 70
     6
  9
$SURFU
 70
     6
  9
$SURFV
 70
     6
  9
$UCSBASE
  2

  9
$UCSNAME
  2

  9
$UCSORG
 10
0.0
 20
0.0
 30
0.0
  9
$UCSXDIR
 10
1.0
 20
0.0
 30
0.0
  9
$UCSYDIR
 10
0.0
 20
1.0
 30
0.0
  9
$UCSORTHOREF
  2

  9
$UCSORTHOVIEW
 70
     0
  9
$UCSORGTOP
 10
0.0
 20
0.0
 30
0.0
  9
$UCSORGBOTTOM
 10
0.0
 20
0.0
 30
0.0
  9
$UCSORGLEFT
 10
0.0
 20
0.0
 30
0.0
  9
$UCSORGRIGHT
 10
0.0
 20
0.0
 30
0.0
  9
$UCSORGFRONT
 10
0.0
 20
0.0
 30
0.0
  9
$UCSORGBACK
 10
0.0
 20
0.0
 30
0.0
  9
$PUCSBASE
  2

  9
$PUCSNAME
  2

  9
$PUCSORG
 10
0.0
 20
0.0
 30
0.0
  9
$PUCSXDIR
 10
1.0
 20
0.0
 30
0.0
  9
$PUCSYDIR
 10
0.0
 20
1.0
 30
0.0
  9
$PUCSORTHOREF
  2

  9
$PUCSORTHOVIEW
 70
     0
  9
$PUCSORGTOP
 10
0.0
 20
0.0
 30
0.0
  9
$PUCSORGBOTTOM
 10
0.0
 20
0.0
 30
0.0
  9
$PUCSORGLEFT
 10
0.0
 20
0.0
 30
0.0
  9
$PUCSORGRIGHT
 10
0.0
 20
0.0
 30
0.0
  9
$PUCSORGFRONT
 10
0.0
 20
0.0
 30
0.0
  9
$PUCSORGBACK
 10
0.0
 20
0.0
 30
0.0
  9
$USERI1
 70
     0
  9
$USERI2
 70
     0
  9
$USERI3
 70
     0
  9
$USERI4
 70
     0
  9
$USERI5
 70
     0
  9
$USERR1
 40
0.0
  9
$USERR2
 40
0.0
  9
$USERR3
 40
0.0
  9
$USERR4
 40
0.0
  9
$USERR5
 40
0.0
  9
$WORLDVIEW
 70
     1
  9
$SHADEDGE
 70
     3
  9
$SHADEDIF
 70
    70
  9
$TILEMODE
 70
     1
  9
$MAXACTVP
 70
    64
  9
$PINSBASE
 10
0.0
 20
0.0
 30
0.0
  9
$PLIMCHECK
 70
     0
  9
$PEXTMIN
 10
1.000000000000000E+20
 20
1.000000000000000E+20
 30
1.000000000000000E+20
  9
$PEXTMAX
 10
-1.000000000000000E+20
 20
-1.000000000000000E+20
 30
-1.000000000000000E+20
  9
$PLIMMIN
 10
0.0
 20
0.0
  9
$PLIMMAX
 10
420.0
 20
297.0
  9
$UNITMODE
 70
     0
  9
$VISRETAIN
 70
     1
  9
$PLINEGEN
 70
     0
  9
$PSLTSCALE
 70
     1
  9
$TREEDEPTH
 70
  3020
  9
$CMLSTYLE
  2
Standard
  9
$CMLJUST
 70
     0
  9
$CMLSCALE
 40
20.0
  9
$PROXYGRAPHICS
 70
     1
  9
$MEASUREMENT
 70
     1
  9
$CELWEIGHT
370
    -1
  9
$ENDCAPS
280
     0
  9
$JOINSTYLE
280
     0
  9
$LWDISPLAY
290
     0
  9
$INSUNITS
 70
     4
  9
$HYPERLINKBASE
  1

  9
$STYLESHEET
  1
彩色出圖.ctb
  9
$XEDIT
290
     1
  9
$CEPSNTYPE
380
     0
  9
$PSTYLEMODE
290
     1
  9
$FINGERPRINTGUID
  2
{3EAFDDA7-D042-4616-8C8E-B4957D87856D}
  9
$VERSIONGUID
  2
{0760678C-6E4C-4C2C-9139-64030C98B3D0}
  9
$EXTNAMES
290
     1
  9
$PSVPSCALE
 40
0.0
  9
$OLESTARTUP
290
     0
  0
ENDSEC
  0
SECTION
  2
CLASSES
  0
CLASS
  1
ACDBDICTIONARYWDFLT
  2
AcDbDictionaryWithDefault
  3
ObjectDBX Classes
 90
        0
280
     0
281
     0
  0
CLASS
  1
ACDBPLACEHOLDER
  2
AcDbPlaceHolder
  3
ObjectDBX Classes
 90
        0
280
     0
281
     0
  0
CLASS
  1
LAYOUT
  2
AcDbLayout
  3
ObjectDBX Classes
 90
        0
280
     0
281
     0
  0
CLASS
  1
ACME_DOCUMENT
  2
AcMeDbDoc
  3
AcMeServices
 90
        0
280
     0
281
     0
  0
CLASS
  1
AMGSETTINGSOBJ
  2
AmgSettingsObj
  3
"AcadM|Product Description: AutoCAD Mechanical 2000|Company: Autodesk"
 90
        0
280
     0
281
     0
  0
CLASS
  1
ACMESCOPE
  2
AcMeScope
  3
AcMeServices
 90
        0
280
     0
281
     0
  0
CLASS
  1
ACMECOMMANDHISTORY
  2
AcMeCommandHistory
  3
AcMeServices
 90
        0
280
     0
281
     0
  0
CLASS
  1
ACIMSYSVARMAN
  2
AcImSysVarManager
  3
AcMeServices
 90
        0
280
     0
281
     0
  0
CLASS
  1
ACIMREALSYSVAR
  2
AcImRealSysVar
  3
AcMeServices
 90
        0
280
     0
281
     0
  0
CLASS
  1
ACIMINTSYSVAR
  2
AcImIntSysVar
  3
AcMeServices
 90
        0
280
     0
281
     0
  0
CLASS
  1
ACMEDRAWINGMAN
  2
AcMeDrawingMan
  3
AcMeServices
 90
        0
280
     0
281
     0
  0
CLASS
  1
ACMEVIEW
  2
AcMeView
  3
AcMeServices
 90
        0
280
     0
281
     0
  0
CLASS
  1
ACDBENTITYCACHE
  2
AcMeEntityCache
  3
AcMeServices
 90
        0
280
     0
281
     0
  0
CLASS
  1
GSMANAGER
  2
AcMeGSManager
  3
AcMeServices
 90
        0
280
     0
281
     0
  0
CLASS
  1
AMDTINTERNALREACTOR
  2
AmdtInternalReactor
  3
AcMeServices
 90
        0
280
     0
281
     0
  0
CLASS
  1
ACMESTATEMGR
  2
AcMeStateMgr
  3
AcMeServices
 90
        0
280
     0
281
     0
  0
CLASS
  1
ACGREFMASTER
  2
AcGrefMaster
  3
AcAttribServices
 90
        0
280
     0
281
     0
  0
CLASS
  1
ACME_DATABASE
  2
AcMeDbDatabase
  3
AcMeServices
 90
        0
280
     0
281
     0
  0
CLASS
  1
ACRFINSADJUSTERMGR
  2
AcRfInsAdjusterMgr
  3
AcMeServices
 90
        0
280
     0
281
     0
  0
CLASS
  1
ACGREFACADMASTER
  2
AcGrefacadMaster
  3
AcGrefServices
 90
        0
280
     0
281
     0
  0
CLASS
  1
AMIMASTER
  2
AmiMaster
  3
AmiServices
 90
        0
280
     0
281
     0
  0
CLASS
  1
ACMDATADICTIONARY
  2
AcmDataDictionary
  3
"AcmSymBB|Product Description: AutoCAD Mechanical 2004 DX|Company: Autodesk"
 90
        0
280
     0
281
     0
  0
CLASS
  1
ACMDATAENTRYBLOCK
  2
AcmDataEntryBlock
  3
"AcmSymBB|Product Description: AutoCAD Mechanical 2004 DX|Company: Autodesk"
 90
        0
280
     0
281
     0
  0
CLASS
  1
ACIMSTRSYSVAR
  2
AcImStrSysVar
  3
AcMeServices
 90
        0
280
     0
281
     0
  0
CLASS
  1
ACMSTANDARDISO
  2
AcmStandardISO
  3
"Amdt_StdImp|Product Description: AutoCAD Mechanical 2004 DX|Company: Autodesk"
 90
        0
280
     0
281
     0
  0
CLASS
  1
AMGOBJPROPCFG
  2
AmgObjPropCfg
  3
"AmgLay|Product Description: AutoCAD Mechanical 2000|Company: Autodesk"
 90
        1
280
     0
281
     0
  0
CLASS
  1
AMDTEDGESTANDARDISO
  2
AmdtEdgeStdISO
  3
"Amdt_StdImp|Product Description: AutoCAD Mechanical 2004 DX|Company: Autodesk"
 90
        0
280
     0
281
     0
  0
CLASS
  1
ACMSURFSTANDARDISO
  2
AcmSurfTextStdISO
  3
"Amdt_StdImp|Product Description: AutoCAD Mechanical 2004 DX|Company: Autodesk"
 90
        0
280
     0
281
     0
  0
CLASS
  1
ACMFCFSTANDARDISO
  2
AcmFCFStdISO
  3
"Amdt_StdImp|Product Description: AutoCAD Mechanical 2004 DX|Company: Autodesk"
 90
        0
280
     0
281
     0
  0
CLASS
  1
ACMWELDSTANDARDISO
  2
AcmWeldingStdISO
  3
"Amdt_StdImp|Product Description: AutoCAD Mechanical 2004 DX|Company: Autodesk"
 90
        0
280
     0
281
     0
  0
CLASS
  1
ACMIDSTANDARDISO
  2
AcmIdStdISO
  3
"Amdt_StdImp|Product Description: AutoCAD Mechanical 2004 DX|Company: Autodesk"
 90
        0
280
     0
281
     0
  0
CLASS
  1
ACMDATUMSTANDARDISO
  2
AcmDatumStdISO
  3
"Amdt_StdImp|Product Description: AutoCAD Mechanical 2004 DX|Company: Autodesk"
 90
        0
280
     0
281
     0
  0
CLASS
  1
ACMBOMSTANDARDISO
  2
AcmBOMStdISO
  3
"Amdt_StdImp|Product Description: AutoCAD Mechanical 2004 DX|Company: Autodesk"
 90
        0
280
     0
281
     0
  0
CLASS
  1
ACMDETAILSTANDARDISO
  2
AmdtDetailSymStdISO
  3
"Amdt_StdImp|Product Description: AutoCAD Mechanical 2004 DX|Company: Autodesk"
 90
        0
280
     0
281
     0
  0
CLASS
  1
ACMSECTIONSTANDARDISO
  2
AmdtSectionSymStdISO
  3
"Amdt_StdImp|Product Description: AutoCAD Mechanical 2004 DX|Company: Autodesk"
 90
        0
280
     0
281
     0
  0
CLASS
  1
ACMCENTERLINESTANDARDISO
  2
AmdtCenterLineStdISO
  3
"Amdt_StdImp|Product Description: AutoCAD Mechanical 2004 DX|Company: Autodesk"
 90
        0
280
     0
281
     0
  0
CLASS
  1
ACMNOTESTANDARDISO
  2
AmdtNoteStdISO
  3
"Amdt_StdImp|Product Description: AutoCAD Mechanical 2004 DX|Company: Autodesk"
 90
        0
280
     0
281
     0
  0
CLASS
  1
ACAMGLAYSTD
  2
AcAmgLayStd
  3
"AcAmgLayStd|Product Description: AutoCAD Mechanical 2000|Company: Autodesk"
 90
        0
280
     0
281
     0
  0
CLASS
  1
ACAMGDIMSTD
  2
AcAmgDimStd
  3
"AcAmgDimStd|Product Description: AutoCAD Mechanical 2000|Company: Autodesk"
 90
        0
280
     0
281
     0
  0
CLASS
  1
ACAMGHOLECHARTSTDISO
  2
AcAmgHoleChartStdISO
  3
ACMSYMBB_MODULE_NAME
 90
        0
280
     0
281
     0
  0
CLASS
  1
ACAMGTITLESTD
  2
AcAmgTitleStd
  3
"TITLEAPP"
 90
        0
280
     0
281
     0
  0
CLASS
  1
LAYER_INDEX
  2
AcDbLayerIndex
  3
ObjectDBX Classes
 90
    32768
280
     0
281
     0
  0
CLASS
  1
IDBUFFER
  2
AcDbIdBuffer
  3
ObjectDBX Classes
 90
    32768
280
     0
281
     0
  0
CLASS
  1
DICTIONARYVAR
  2
AcDbDictionaryVar
  3
ObjectDBX Classes
 90
        0
280
     0
281
     0
  0
CLASS
  1
AM_DRAWING_MGR
  2
AcDmDwgMgr
  3
AcMechDwgViewMgmt
 90
        0
280
     0
281
     0
  0
CLASS
  1
AM_DWG_DOCUMENT
  2
AcDmDwgDocument
  3
AcMechDwgViewMgmt
 90
        0
280
     0
281
     0
  0
CLASS
  1
AM_DWG_SHEET
  2
AcDmSheet
  3
AcMechDwgViewMgmt
 90
        0
280
     0
281
     0
  0
CLASS
  1
AM_VIEWDIMPARMAP
  2
AcDmViewDimParMap
  3
AcMechDwgViewMgmt
 90
        0
280
     0
281
     0
  0
CLASS
  1
AM_DWGMGR_NAME
  2
AcDmDwgMgrName
  3
AcMechDwgViewMgmt
 90
        0
280
     0
281
     0
  0
CLASS
  1
AMDTMENUSTATEMGR
  2
AmdtMenuStateMgr
  3
McadcomServices
 90
        0
280
     0
281
     0
  0
CLASS
  1
AMDTMCOMMENUSTATE
  2
AmdtMcomMenuState
  3
McadcomServices
 90
        0
280
     0
281
     0
  0
CLASS
  1
MAPIAMMOUDLE
  2
MApiAmModule
  3
MApiAmServices
 90
        0
280
     0
281
     0
  0
CLASS
  1
AMDTADMENUSTATE
  2
AmdtAdMenuState
  3
DesignerServices
 90
        0
280
     0
281
     0
  0
CLASS
  1
ADAPPL
  2
AcAdAppl
  3
DesignerServices
 90
        0
280
     0
281
     0
  0
CLASS
  1
DEPMGR
  2
AcAdDepMgr
  3
DesignerServices
 90
        0
280
     0
281
     0
  0
CLASS
  1
PARAMMGR
  2
AcAdParamMgr
  3
DesignerServices
 90
        0
280
     0
281
     0
  0
CLASS
  1
PARAMSCOPE
  2
AcAdParamScope
  3
DesignerServices
 90
        0
280
     0
281
     0
  0
CLASS
  1
NAMEDAPPL
  2
AcAdNamedAppl
  3
DesignerServices
 90
        0
280
     0
281
     0
  0
CLASS
  1
AMDTDMMENUSTATE
  2
AmdtDmMenuState
  3
AcMechDwgViewMgmt
 90
        0
280
     0
281
     0
  0
CLASS
  1
AMDTAMMENUSTATE
  2
AmdtAmMenuState
  3
DesignerAssemblies
 90
        0
280
     0
281
     0
  0
CLASS
  1
ACAMPROJECT
  2
AcAmProject
  3
DesignerAssemblies
 90
        0
280
     0
281
     0
  0
CLASS
  1
ACAMGRCOMPDEF
  2
AcAmGrCompDef
  3
DesignerAssemblies
 90
        0
280
     0
281
     0
  0
CLASS
  1
ACCMCONTEXT
  2
AcCmContext
  3
DesignerAssemblies
 90
        0
280
     0
281
     0
  0
CLASS
  1
ACAMCOMPDEF
  2
AcAmCompDef
  3
DesignerAssemblies
 90
        0
280
     0
281
     0
  0
CLASS
  1
ACAMCOMPDEFMGR
  2
AcAmCompDefMgr
  3
DesignerAssemblies
 90
        0
280
     0
281
     0
  0
CLASS
  1
AMCONTEXTMGR
  2
AcAmContextMgr
  3
DesignerAssemblies
 90
        0
280
     0
281
     0
  0
CLASS
  1
ACAMCONTEXTMODELER
  2
AcAmContextModeler
  3
DesignerAssemblies
 90
        0
280
     0
281
     0
  0
CLASS
  1
ACMTHREADLINESTANDARDISO
  2
AmdtThreadLineStdISO
  3
"Amdt_StdImp|Product Description: AutoCAD Mechanical 2004 DX|Company: Autodesk"
 90
        0
280
     0
281
     0
  0
CLASS
  1
CATALOGSTATE
  2
AcAmCatalogState
  3
DesignerAssemblies
 90
        0
280
     0
281
     0
  0
CLASS
  1
ACAMGRCOMPDEFSET
  2
AcAmGrCompDefSet
  3
DesignerAssemblies
 90
        0
280
     0
281
     0
  0
CLASS
  1
AMDTBROWSERDBTAB
  2
AmdtBrowserDbTab
  3
McadcomServices
 90
        0
280
     0
281
     0
  0
CLASS
  1
CBROWSERAPPOBJECT
  2
CBrowserAppObject
  3
McadcomServices
 90
        0
280
     0
281
     0
  0
CLASS
  1
DM_PLACEHOLDER
  2
AcDmSelsetPlaceholder
  3
AcMechDwgViewMgmt
 90
        0
280
     0
281
     0
  0
CLASS
  1
TABLESTYLE
  2
AcDbTableStyle
  3
ObjectDBX Classes
 90
     2047
280
     0
281
     0
  0
CLASS
  1
VAACXREFPANELOBJECT
  2
VaAcXREFPanelObject
  3
VAAC_ADDIN
 90
    32768
280
     0
281
     0
  0
CLASS
  1
VAACIMAGEINVENTORY
  2
VaAcImageInventory
  3
VAAC_ADDIN
 90
    32768
280
     0
281
     0
  0
CLASS
  1
AMDTNOTETEMPLATEDB
  2
AmdtNoteTemplateDB
  3
AMDT_STDIMP_MODULE_NAME
 90
        0
280
     0
281
     0
  0
CLASS
  1
ACMBOM
  2
AcmBom
  3
"AcmSymBB|Product Description: AutoCAD Mechanical 2004 DX|Company: Autodesk"
 90
    32768
280
     0
281
     0
  0
CLASS
  1
AMDTFORMULAUPDATEDISPATCHER
  2
AmdtFormulaUpdateDispatcher
  3
AcMeServices
 90
    32768
280
     0
281
     0
  0
CLASS
  1
ACMPARTLIST
  2
AcmPartList
  3
"AcmSymBB|Product Description: AutoCAD Mechanical 2004 DX|Company: Autodesk"
 90
    33791
280
     0
281
     1
  0
CLASS
  1
ACAMGFILTERDAT
  2
AcAmgFilterDat
  3
"AcadM|Product Description: AutoCAD Mechanical 2000|Company: Autodesk"
 90
        0
280
     0
281
     0
  0
CLASS
  1
DIMASSOC
  2
AcDbDimAssoc
  3
"AcDbDimAssoc|Product Desc:     AcDim ARX App For Dimension|Company:          Autodesk, Inc.|WEB Address:      www.autodesk.com"
 90
        0
280
     0
281
     0
  0
CLASS
  1
ACMSTANDARDANSI
  2
AcmStandardANSI
  3
"Amdt_StdImp|Product Description: AutoCAD Mechanical 2004 DX|Company: Autodesk"
 90
        0
280
     0
281
     0
  0
CLASS
  1
ACMSURFSTANDARDANSI
  2
AcmSurfTextStdANSI
  3
"Amdt_StdImp|Product Description: AutoCAD Mechanical 2004 DX|Company: Autodesk"
 90
        0
280
     0
281
     0
  0
CLASS
  1
ACMFCFSTANDARDANSI
  2
AcmFCFStdANSI
  3
"Amdt_StdImp|Product Description: AutoCAD Mechanical 2004 DX|Company: Autodesk"
 90
        0
280
     0
281
     0
  0
CLASS
  1
ACMWELDSTANDARDANSI
  2
AcmWeldingStdANSI
  3
"Amdt_StdImp|Product Description: AutoCAD Mechanical 2004 DX|Company: Autodesk"
 90
        0
280
     0
281
     0
  0
CLASS
  1
ACMIDSTANDARDANSI
  2
AcmIdStdANSI
  3
"Amdt_StdImp|Product Description: AutoCAD Mechanical 2004 DX|Company: Autodesk"
 90
        0
280
     0
281
     0
  0
CLASS
  1
ACMDATUMSTANDARDANSI
  2
AcmDatumStdANSI
  3
"Amdt_StdImp|Product Description: AutoCAD Mechanical 2004 DX|Company: Autodesk"
 90
        0
280
     0
281
     0
  0
CLASS
  1
ACMBOMSTANDARDANSI
  2
AcmBOMStdANSI
  3
"Amdt_StdImp|Product Description: AutoCAD Mechanical 2004 DX|Company: Autodesk"
 90
        0
280
     0
281
     0
  0
CLASS
  1
ACMDETAILSTANDARDANSI
  2
AmdtDetailSymStdANSI
  3
"Amdt_StdImp|Product Description: AutoCAD Mechanical 2004 DX|Company: Autodesk"
 90
        0
280
     0
281
     0
  0
CLASS
  1
ACMSECTIONSTANDARDANSI
  2
AmdtSectionSymStdANSI
  3
"Amdt_StdImp|Product Description: AutoCAD Mechanical 2004 DX|Company: Autodesk"
 90
        0
280
     0
281
     0
  0
CLASS
  1
ACMCENTERLINESTANDARDANSI
  2
AmdtCenterLineStdANSI
  3
"Amdt_StdImp|Product Description: AutoCAD Mechanical 2004 DX|Company: Autodesk"
 90
        0
280
     0
281
     0
  0
CLASS
  1
ACMTHREADLINESTANDARDANSI
  2
AmdtThreadLineStdANSI
  3
"Amdt_StdImp|Product Description: AutoCAD Mechanical 2004 DX|Company: Autodesk"
 90
        0
280
     0
281
     0
  0
CLASS
  1
ACMNOTESTANDARDANSI
  2
AmdtNoteStdANSI
  3
"Amdt_StdImp|Product Description: AutoCAD Mechanical 2004 DX|Company: Autodesk"
 90
        0
280
     0
281
     0
  0
CLASS
  1
ACAMGHOLECHARTSTDANSI
  2
AcAmgHoleChartStdANSI
  3
ACMSYMBB_MODULE_NAME
 90
        0
280
     0
281
     0
  0
CLASS
  1
STDPART2D
  2
AmgStdPart
  3
"AmgStdPart|Product Description: AutoCAD Mechanical 2000|Company: Autodesk"
 90
     1023
280
     0
281
     1
  0
CLASS
  1
ACAMSTDPCOMPDEF
  2
AcAmStdpCompDef
  3
DesignerAssemblies
 90
        0
280
     0
281
     0
  0
CLASS
  1
ACRFATTGENMGR
  2
AcRfAttGeneralMgr
  3
AcAttribServices
 90
        0
280
     0
281
     0
  0
CLASS
  1
ACRFOBJATTMGR
  2
AcRfObjAttGroupMgr
  3
AcAttribServices
 90
        0
280
     0
281
     0
  0
CLASS
  1
ACRFMCADAPIATTHOLDER
  2
AcRfMCADAPIAttHolder
  3
AcAttribServices
 90
        0
280
     0
281
     0
  0
CLASS
  1
AMDTSYSATTR
  2
AmdtSystemAttribute
  3
AcAttribServices
 90
        0
280
     0
281
     0
  0
CLASS
  1
ACAMCOMP
  2
AcAmComp
  3
DesignerAssemblies
 90
        0
280
     0
281
     0
  0
CLASS
  1
AC_AM_STDP_VIEW_DEF
  2
AcAmStdpViewDef
  3
DesignerAssemblies
 90
        0
280
     0
281
     0
  0
CLASS
  1
AC_AM_MVD_DEP_MGR
  2
AcAmMVDdepMgr
  3
DesignerAssemblies
 90
        0
280
     0
281
     0
  0
CLASS
  1
AC_AM_MASTER_VIEW_DEF
  2
AcAmMasterViewDef
  3
DesignerAssemblies
 90
        0
280
     0
281
     0
  0
CLASS
  1
AC_AM_DIRTY_NODES
  2
AcAmDirtyNodes
  3
DesignerAssemblies
 90
        0
280
     0
281
     0
  0
CLASS
  1
AC_AM_MAPPER_CACHE
  2
AcAmMapperCache
  3
DesignerAssemblies
 90
        0
280
     0
281
     0
  0
CLASS
  1
ACAMMVDBACKUPOBJECT
  2
AcAmMVDBackupObject
  3
DesignerAssemblies
 90
        0
280
     0
281
     0
  0
CLASS
  1
AC_AM_COMP_VIEW_INST
  2
AcAmCompView
  3
DesignerAssemblies
 90
        0
280
     0
281
     0
  0
CLASS
  1
AC_AM_2D_XREF_MGR
  2
AcAmXrefMgr2d
  3
DesignerAssemblies
 90
        0
280
     0
281
     0
  0
CLASS
  1
SORTENTSTABLE
  2
AcDbSortentsTable
  3
ObjectDBX Classes
 90
        0
280
     0
281
     0
  0
ENDSEC
  0
SECTION
  2
TABLES
  0
TABLE
  2
VPORT
  5
8
330
0
100
AcDbSymbolTable
 70
   230
  0
VPORT
  5
16E8
330
8
100
AcDbSymbolTableRecord
100
AcDbViewportTableRecord
  2
*Active
 70
     0
 10
0.0
 20
0.0
 11
1.0
 21
1.0
 12
436.9540114082759
 22
268.1290179855102
 13
0.0
 23
0.0
 14
2.5
 24
2.5
 15
10.0
 25
10.0
 16
0.0
 26
0.0
 36
1.0
 17
0.0
 27
0.0
 37
0.0
 40
455.3311408258008
 41
1.661684782608695
 42
50.0
 43
0.0
 44
0.0
 50
0.0
 51
0.0
 71
     0
 72
   100
 73
     1
 74
     3
 75
     0
 76
     0
 77
     0
 78
     0
281
     0
 65
     1
110
0.0
120
0.0
130
0.0
111
1.0
121
0.0
131
0.0
112
0.0
122
1.0
132
0.0
 79
     0
146
0.0
  0
ENDTAB
  0
TABLE
  2
LTYPE
  5
5
330
0
100
AcDbSymbolTable
 70
    20
  0
LTYPE
  5
14
330
5
100
AcDbSymbolTableRecord
100
AcDbLinetypeTableRecord
  2
ByBlock
 70
     0
  3

 72
    65
 73
     0
 40
0.0
  0
LTYPE
  5
15
330
5
100
AcDbSymbolTableRecord
100
AcDbLinetypeTableRecord
  2
ByLayer
 70
     0
  3

 72
    65
 73
     0
 40
0.0
  0
LTYPE
  5
16
330
5
100
AcDbSymbolTableRecord
100
AcDbLinetypeTableRecord
  2
Continuous
 70
     0
  3
Solid line
 72
    65
 73
     0
 40
0.0
  0
LTYPE
  5
64
330
5
100
AcDbSymbolTableRecord
100
AcDbLinetypeTableRecord
  2
AM_ISO02W050
 70
     0
  3
__ __ __ __ __ __ __ __ __ __ __ __ __ __ __
 72
    65
 73
     2
 40
7.5
 49
6.0
 74
     0
 49
-1.5
 74
     0
  0
LTYPE
  5
65
330
5
100
AcDbSymbolTableRecord
100
AcDbLinetypeTableRecord
  2
AM_ISO08W050
 70
     0
  3
____ . ____ . ____ . ____ . ____ . ____ . ____
 72
    65
 73
     4
 40
18.0
 49
12.0
 74
     0
 49
-1.5
 74
     0
 49
3.0
 74
     0
 49
-1.5
 74
     0
  0
LTYPE
  5
66
330
5
100
AcDbSymbolTableRecord
100
AcDbLinetypeTableRecord
  2
AM_ISO09W050
 70
     0
  3
_____ . . _____ . . _____ . . ____ .. ____
 72
    65
 73
     6
 40
22.5
 49
12.0
 74
     0
 49
-1.5
 74
     0
 49
3.0
 74
     0
 49
-1.5
 74
     0
 49
3.0
 74
     0
 49
-1.5
 74
     0
  0
LTYPE
  5
67
330
5
100
AcDbSymbolTableRecord
100
AcDbLinetypeTableRecord
  2
Amconstr
 70
     0
  3
_______________________
 72
    65
 73
     2
 40
9999.0
 49
9999.0
 74
     0
 49
0.0
 74
     0
  0
LTYPE
  5
68
330
5
100
AcDbSymbolTableRecord
100
AcDbLinetypeTableRecord
  2
AM_ISO08W050x2
 70
     0
  3
__ . __ . __ . __ . __ . __
 72
    65
 73
     4
 40
9.0
 49
6.0
 74
     0
 49
-0.75
 74
     0
 49
1.5
 74
     0
 49
-0.75
 74
     0
  0
LTYPE
  5
69
330
5
100
AcDbSymbolTableRecord
100
AcDbLinetypeTableRecord
  2
AM_ISO02W050x2
 70
     0
  3
 _ _ _ _ _ _ _ _ _ _ _ _
 72
    65
 73
     2
 40
3.75
 49
3.0
 74
     0
 49
-0.75
 74
     0
  0
LTYPE
  5
6C
330
5
100
AcDbSymbolTableRecord
100
AcDbLinetypeTableRecord
  2
Amzigzag
 70
     0
  3
/\/-/\/-/\/-/\/-/\/-/\/
 72
    65
 73
     2
 40
11.0001
 49
0.0001
 74
     4
 75
   135
340
6B
 46
0.04
 50
0.0
 44
0.0
 45
0.0
 49
-11.0
 74
     0
  0
LTYPE
  5
7A
330
5
100
AcDbSymbolTableRecord
100
AcDbLinetypeTableRecord
  2
ACISOWELD
 70
     0
  3
_ _ _ _ _
 72
    65
 73
     2
 40
2.0
 49
2.0
 74
     0
 49
-1.0
 74
     0
  0
LTYPE
  5
7B
330
5
100
AcDbSymbolTableRecord
100
AcDbLinetypeTableRecord
  2
ACISOTGB
 70
     0
  3
__ . . __ . .
 72
    65
 73
     6
 40
9.0
 49
4.0
 74
     0
 49
-1.0
 74
     0
 49
1.0
 74
     0
 49
-1.0
 74
     0
 49
1.0
 74
     0
 49
-1.0
 74
     0
  0
LTYPE
  5
7C
330
5
100
AcDbSymbolTableRecord
100
AcDbLinetypeTableRecord
  2
ACISOTGL
 70
     0
  3
_ _ _ _ _
 72
    65
 73
     2
 40
3.0
 49
2.0
 74
     0
 49
-1.0
 74
     0
  0
LTYPE
  5
7E
330
5
100
AcDbSymbolTableRecord
100
AcDbLinetypeTableRecord
  2
CENTER
 70
     0
  3
__ . __
 72
    65
 73
     4
 40
7.0
 49
4.0
 74
     0
 49
-1.0
 74
     0
 49
1.0
 74
     0
 49
-1.0
 74
     0
  0
LTYPE
  5
D8
330
5
100
AcDbSymbolTableRecord
100
AcDbLinetypeTableRecord
  2
HIDDEN
 70
     0
  3
Hidden __ __ __ __ __ __ __ __ __ __ __ __ __ _
 72
    65
 73
     2
 40
9.524999999999998
 49
6.349999999999999
 74
     0
 49
-3.174999999999999
 74
     0
  0
LTYPE
  5
D9
330
5
100
AcDbSymbolTableRecord
100
AcDbLinetypeTableRecord
  2
PHANTOM2
 70
     0
  3
Phantom (.5x) ___ _ _ ___ _ _ ___ _ _ ___ _ _
 72
    65
 73
     6
 40
31.75
 49
15.875
 74
     0
 49
-3.174999999999999
 74
     0
 49
3.174999999999999
 74
     0
 49
-3.174999999999999
 74
     0
 49
3.174999999999999
 74
     0
 49
-3.174999999999999
 74
     0
  0
LTYPE
  5
BB4
330
5
100
AcDbSymbolTableRecord
100
AcDbLinetypeTableRecord
  2
PHANTOM
 70
     0
  3
______  __  __  ______  __  __  ______  __  __ 
 72
    65
 73
     6
 40
2.5
 49
1.25
 74
     0
 49
-0.25
 74
     0
 49
0.25
 74
     0
 49
-0.25
 74
     0
 49
0.25
 74
     0
 49
-0.25
 74
     0
  0
LTYPE
  5
BB8
330
5
100
AcDbSymbolTableRecord
100
AcDbLinetypeTableRecord
  2
ACANSTGB
 70
     0
  3
__ . . __ . .
 72
    65
 73
     6
 40
0.35433070866
 49
0.15748031496
 74
     0
 49
-0.03937007874
 74
     0
 49
0.03937007874
 74
     0
 49
-0.03937007874
 74
     0
 49
0.03937007874
 74
     0
 49
-0.03937007874
 74
     0
  0
LTYPE
  5
BB9
330
5
100
AcDbSymbolTableRecord
100
AcDbLinetypeTableRecord
  2
ACANSTGL
 70
     0
  3
_ _ _ _ _
 72
    65
 73
     2
 40
0.11811023622
 49
0.07874015748
 74
     0
 49
-0.03937007874
 74
     0
  0
ENDTAB
  0
TABLE
  2
LAYER
  5
2
102
{ACAD_XDICTIONARY
360
3F9
102
}
330
0
100
AcDbSymbolTable
 70
    13
  0
LAYER
  5
10
330
2
100
AcDbSymbolTableRecord
100
AcDbLayerTableRecord
  2
0
 70
     0
 62
     7
  6
Continuous
370
    -3
390
F
  0
LAYER
  5
BBA
330
2
100
AcDbSymbolTableRecord
100
AcDbLayerTableRecord
  2
Dim
 70
     0
 62
     5
  6
Continuous
370
    13
390
F
  0
LAYER
  5
BBB
330
2
100
AcDbSymbolTableRecord
100
AcDbLayerTableRecord
  2
Defpoints
 70
     0
 62
     7
  6
Continuous
290
     0
370
    -3
390
F
  0
LAYER
  5
BBC
330
2
100
AcDbSymbolTableRecord
100
AcDbLayerTableRecord
  2
圖層1
 70
     0
 62
     2
  6
PHANTOM
370
    -3
390
F
  0
LAYER
  5
1185
330
2
100
AcDbSymbolTableRecord
100
AcDbLayerTableRecord
  2
AM_7
 70
     0
 62
     1
  6
CENTER
370
    25
390
F
  0
LAYER
  5
13DE
330
2
100
AcDbSymbolTableRecord
100
AcDbLayerTableRecord
  2
LOGO
 70
     0
 62
     7
  6
Continuous
370
    -3
390
F
  0
LAYER
  5
1581
330
2
100
AcDbSymbolTableRecord
100
AcDbLayerTableRecord
  2
AM_5
 70
     0
 62
     5
  6
Continuous
370
    50
390
F
  0
ENDTAB
  0
TABLE
  2
STYLE
  5
3
330
0
100
AcDbSymbolTable
 70
    11
  0
STYLE
  5
11
330
3
100
AcDbSymbolTableRecord
100
AcDbTextStyleTableRecord
  2
STANDARD
 70
     0
 40
0.0
 41
1.0
 50
0.0
 71
     0
 42
3.0
  3
ISOCP.SHX
  4
CHINESET.SHX
  0
STYLE
  5
6B
330
3
100
AcDbSymbolTableRecord
100
AcDbTextStyleTableRecord
  2

 70
     1
 40
0.0
 41
1.0
 50
0.0
 71
     0
 42
2.5
  3
ltypeshp.shx
  4

  0
STYLE
  5
6D
330
3
100
AcDbSymbolTableRecord
100
AcDbTextStyleTableRecord
  2
ACISOTS
 70
     0
 40
1.0
 41
1.0
 50
0.0
 71
     0
 42
1.0
  3
isocp.shx
  4
chineset.shx
  0
STYLE
  5
79
330
3
100
AcDbSymbolTableRecord
100
AcDbTextStyleTableRecord
  2
ACISOGDT
 70
     0
 40
0.0
 41
1.0
 50
0.0
 71
     0
 42
2.5
  3
amgdt.shx
  4
chineset.shx
  0
STYLE
  5
BBD
330
3
100
AcDbSymbolTableRecord
100
AcDbTextStyleTableRecord
  2
AAA
 70
     0
 40
0.0
 41
1.0
 50
0.0
 71
     0
 42
3.2
  3
TXT
  4

  0
STYLE
  5
BBE
330
3
100
AcDbSymbolTableRecord
100
AcDbTextStyleTableRecord
  2
China
 70
     0
 40
0.0
 41
1.0
 50
0.0
 71
     0
 42
3.2
  3
romans.shx
  4
chineset.shx
  0
STYLE
  5
BBF
330
3
100
AcDbSymbolTableRecord
100
AcDbTextStyleTableRecord
  2
ACANSTS
 70
     0
 40
1.0
 41
1.0
 50
0.0
 71
     0
 42
3.2
  3
romans.shx
  4
chineset.shx
  0
STYLE
  5
BC0
330
3
100
AcDbSymbolTableRecord
100
AcDbTextStyleTableRecord
  2
ACANSGDT
 70
     0
 40
0.0
 41
1.0
 50
0.0
 71
     0
 42
3.2
  3
amgdtans.shx
  4

  0
STYLE
  5
13DF
330
3
100
AcDbSymbolTableRecord
100
AcDbTextStyleTableRecord
  2
CHINESET
 70
     0
 40
0.0
 41
1.0
 50
0.0
 71
     0
 42
3.0
  3
simplex.shx
  4
CHINESET.SHX
  0
ENDTAB
  0
TABLE
  2
VIEW
  5
6
330
0
100
AcDbSymbolTable
 70
     0
  0
ENDTAB
  0
TABLE
  2
UCS
  5
7
330
0
100
AcDbSymbolTable
 70
     0
  0
ENDTAB
  0
TABLE
  2
APPID
  5
9
330
0
100
AcDbSymbolTable
 70
    26
  0
APPID
  5
12
330
9
100
AcDbSymbolTableRecord
100
AcDbRegAppTableRecord
  2
ACAD
 70
     0
  0
APPID
  5
46
330
9
100
AcDbSymbolTableRecord
100
AcDbRegAppTableRecord
  2
MCAD_NO_VIS
 70
     0
  0
APPID
  5
47
330
9
100
AcDbSymbolTableRecord
100
AcDbRegAppTableRecord
  2
ACAD_TEMP_GRAPHIC
 70
     0
  0
APPID
  5
58
330
9
100
AcDbSymbolTableRecord
100
AcDbRegAppTableRecord
  2
ACATTRIBSERVICES
 70
     0
  0
APPID
  5
EE
330
9
100
AcDbSymbolTableRecord
100
AcDbRegAppTableRecord
  2
AD_DRAW
 70
     0
  0
APPID
  5
10C
330
9
100
AcDbSymbolTableRecord
100
AcDbRegAppTableRecord
  2
DESIGNERASSEMBLIES
 70
     0
  0
APPID
  5
111
330
9
100
AcDbSymbolTableRecord
100
AcDbRegAppTableRecord
  2
ACADM_DIM_EDIT
 70
     0
  0
APPID
  5
112
330
9
100
AcDbSymbolTableRecord
100
AcDbRegAppTableRecord
  2
AMDT_DM_ADJ
 70
     0
  0
APPID
  5
22C
330
9
100
AcDbSymbolTableRecord
100
AcDbRegAppTableRecord
  2
ACAD_DSTYLE_DIMTEXT_FILL
 70
     0
  0
APPID
  5
452
330
9
100
AcDbSymbolTableRecord
100
AcDbRegAppTableRecord
  2
GENIUS_GENOENT_13
 70
     0
  0
APPID
  5
453
330
9
100
AcDbSymbolTableRecord
100
AcDbRegAppTableRecord
  2
GENIUS_GENOBJ-N-CRS_13
 70
     0
  0
APPID
  5
454
330
9
100
AcDbSymbolTableRecord
100
AcDbRegAppTableRecord
  2
GENIUS_GENOLIS_13
 70
     0
  0
APPID
  5
455
330
9
100
AcDbSymbolTableRecord
100
AcDbRegAppTableRecord
  2
GENIUS_GENODEF_13
 70
     0
  0
APPID
  5
456
330
9
100
AcDbSymbolTableRecord
100
AcDbRegAppTableRecord
  2
GENIUS_GENOREF_13
 70
     0
  0
APPID
  5
6F3
330
9
100
AcDbSymbolTableRecord
100
AcDbRegAppTableRecord
  2
ACAD_PSEXT
 70
     0
  0
APPID
  5
808
330
9
100
AcDbSymbolTableRecord
100
AcDbRegAppTableRecord
  2
GENIUS_GENDTOL_13
 70
     0
  0
APPID
  5
1187
330
9
100
AcDbSymbolTableRecord
100
AcDbRegAppTableRecord
  2
GENIUS_GENOBJ-N-CEN_13
 70
     0
  0
APPID
  5
1188
330
9
100
AcDbSymbolTableRecord
100
AcDbRegAppTableRecord
  2
GENIUS_GENCEN_19
 70
     0
  0
APPID
  5
11B7
330
9
100
AcDbSymbolTableRecord
100
AcDbRegAppTableRecord
  2
GEVID1179544127
 70
     0
  0
APPID
  5
11B8
330
9
100
AcDbSymbolTableRecord
100
AcDbRegAppTableRecord
  2
GEVDC
 70
     0
  0
APPID
  5
11B9
330
9
100
AcDbSymbolTableRecord
100
AcDbRegAppTableRecord
  2
GEVRADREF
 70
     0
  0
APPID
  5
11C2
330
9
100
AcDbSymbolTableRecord
100
AcDbRegAppTableRecord
  2
AMG_2DHIDE
 70
     0
  0
APPID
  5
11C3
330
9
100
AcDbSymbolTableRecord
100
AcDbRegAppTableRecord
  2
AMG_2DSTRUCT_BTR
 70
     0
  0
APPID
  5
11D4
330
9
100
AcDbSymbolTableRecord
100
AcDbRegAppTableRecord
  2
ACADM_2DVIEW_IGN_NOTIFY
 70
     0
  0
APPID
  5
13E0
330
9
100
AcDbSymbolTableRecord
100
AcDbRegAppTableRecord
  2
GENIUS_GENREC_14
 70
     0
  0
APPID
  5
13E1
330
9
100
AcDbSymbolTableRecord
100
AcDbRegAppTableRecord
  2
GENIUS_GENOBJ-N-REC_13
 70
     0
  0
ENDTAB
  0
TABLE
  2
DIMSTYLE
  5
A
330
0
100
AcDbSymbolTable
 70
    17
100
AcDbDimStyleTable
 71
     4
340
81
340
BC1
340
8B
340
86
  0
DIMSTYLE
105
81
330
A
100
AcDbSymbolTableRecord
100
AcDbDimStyleTableRecord
  2
AM_ISO
 70
     0
  4
"
 41
3.0
 42
1.0
 43
8.0
 44
1.5
 47
0.1
 48
0.1
 73
     0
 74
     0
 77
     1
 78
     8
 79
     2
140
3.5
141
0.0
143
0.0393701
146
0.6
147
0.7
172
     1
176
   256
177
   256
178
   256
271
     2
272
     2
283
     0
284
     8
340
11
371
    -1
372
    -1
  0
DIMSTYLE
105
82
330
A
100
AcDbSymbolTableRecord
100
AcDbDimStyleTableRecord
  2
AM_ISO$3
 70
     0
  4
"
 41
3.0
 42
1.0
 43
8.0
 44
1.5
 47
0.1
 48
0.1
 73
     0
 77
     1
 78
     8
 79
     2
140
3.5
141
0.0
143
0.0393701
146
0.6
147
0.7
176
   256
177
   256
178
   256
271
     2
272
     2
283
     0
284
     8
288
     1
289
     0
340
11
371
    -1
372
    -1
  0
DIMSTYLE
105
83
330
A
100
AcDbSymbolTableRecord
100
AcDbDimStyleTableRecord
  2
AM_ISO$4
 70
     0
  4
"
 41
3.0
 42
1.0
 43
8.0
 44
1.5
 47
0.1
 48
0.1
 73
     0
 77
     1
 78
     8
 79
     2
140
3.5
141
0.0
143
0.0393701
146
0.6
147
0.7
176
   256
177
   256
178
   256
271
     2
272
     2
283
     0
284
     8
288
     1
289
     0
340
11
371
    -1
372
    -1
  0
DIMSTYLE
105
84
330
A
100
AcDbSymbolTableRecord
100
AcDbDimStyleTableRecord
  2
AM_ISO$6
 70
     0
  4
"
 41
3.0
 42
1.0
 43
8.0
 44
1.5
 47
0.1
 48
0.1
 73
     0
 74
     0
 78
     8
 79
     2
140
3.5
141
0.0
143
0.0393701
146
0.6
147
0.7
172
     1
176
   256
177
   256
178
   256
271
     2
272
     2
283
     0
284
     8
340
11
371
    -1
372
    -1
  0
DIMSTYLE
105
85
330
A
100
AcDbSymbolTableRecord
100
AcDbDimStyleTableRecord
  2
AM_ISO$7
 70
     0
  4
"
 41
3.0
 42
1.0
 43
8.0
 44
1.5
 47
0.1
 48
0.1
 73
     0
 74
     0
 77
     1
 78
     8
 79
     2
140
5.0
141
0.0
143
0.0393701
146
0.6
147
0.7
172
     1
176
   256
177
   256
178
   256
271
     2
272
     2
283
     0
284
     8
340
11
371
    -1
372
    -1
  0
DIMSTYLE
105
86
330
A
100
AcDbSymbolTableRecord
100
AcDbDimStyleTableRecord
  2
AM_ISO$SF
 70
     0
  4
"
 41
2.5
 42
1.0
 43
10.0
 44
1.0
 47
0.1
 48
0.1
 73
     0
 74
     0
 75
     1
 76
     1
 77
     1
 78
     8
 79
     2
140
3.5
141
0.0
143
0.0393701
146
0.71
147
1.5
172
     1
176
   256
177
   256
178
     2
271
     2
272
     3
274
     4
283
     0
284
     8
340
11
371
    -1
372
    -1
  0
DIMSTYLE
105
8B
330
A
100
AcDbSymbolTableRecord
100
AcDbDimStyleTableRecord
  2
AM_ISO$SH
 70
     0
  4
"
 41
2.5
 42
1.0
 43
10.0
 44
1.0
 47
0.1
 48
0.1
 73
     0
 74
     0
 75
     1
 76
     1
 77
     1
 78
     8
 79
     2
140
3.5
141
0.0
143
0.0393701
144
2.0
146
0.71
147
1.5
172
     1
173
     1
176
   256
177
   256
178
     2
271
     2
272
     3
274
     4
283
     0
284
     8
340
11
343
87
371
    -1
372
    -1
  0
DIMSTYLE
105
40B
102
{ACAD_REACTORS
330
E57
102
}
330
A
100
AcDbSymbolTableRecord
100
AcDbDimStyleTableRecord
  2
AM_ISO$0
 70
     0
  4
"
 41
3.0
 42
1.0
 43
8.0
 44
1.5
 47
0.1
 48
0.1
 73
     0
 74
     0
 77
     1
 78
     8
 79
     2
140
3.5
141
0.0
143
0.0393701
146
0.6
147
0.7
172
     1
176
   256
177
   256
178
   256
271
     2
272
     2
283
     0
284
     8
340
11
371
    -1
372
    -1
  0
DIMSTYLE
105
BC1
102
{ACAD_REACTORS
330
CDA
330
C30
330
C88
330
C8C
330
CC6
330
C8B
330
C98
330
C41
330
C7F
330
C3D
330
C83
330
C7E
330
C4E
330
C45
330
C44
330
C65
330
C4D
330
C39
330
CE1
330
CDD
330
D03
330
C3C
330
C3B
330
BD0
330
BCF
330
BCC
330
DA0
330
DA3
330
DA4
330
E04
330
E0D
330
E0F
330
E10
330
E11
330
E15
330
E18
330
E19
330
E21
330
E22
330
E39
330
E52
330
E53
330
E5C
330
E5F
330
E60
330
E6C
330
E9A
330
EAE
330
EB1
330
EB5
330
ED7
330
1330
330
135A
330
130A
330
12E4
330
1659
102
}
330
A
100
AcDbSymbolTableRecord
100
AcDbDimStyleTableRecord
  2
Standard
 70
     0
340
BBD
  0
DIMSTYLE
105
BC2
330
A
100
AcDbSymbolTableRecord
100
AcDbDimStyleTableRecord
  2
AM_ANSI
 70
     0
  4
mm
 41
0.1
 42
0.05
 43
0.5
 44
0.1
 47
0.1
 48
0.1
 78
     7
 79
     2
140
0.12
141
0.0
146
0.71
147
0.06
176
   256
177
   256
178
     2
274
     4
284
     7
340
BBD
371
    -1
372
    -1
  0
DIMSTYLE
105
BC3
330
A
100
AcDbSymbolTableRecord
100
AcDbDimStyleTableRecord
  2
AM_ANSI$3
 70
     0
  4
mm
 41
0.1
 42
0.05
 43
0.5
 44
0.1
 47
0.1
 48
0.1
 78
     7
 79
     2
140
0.12
141
0.0
146
0.71
147
0.06
176
   256
177
   256
178
     2
274
     4
284
     7
288
     1
289
     0
340
BBD
371
    -1
372
    -1
  0
DIMSTYLE
105
BC4
330
A
100
AcDbSymbolTableRecord
100
AcDbDimStyleTableRecord
  2
AM_ANSI$4
 70
     0
  4
mm
 41
0.1
 42
0.05
 43
0.5
 44
0.1
 47
0.1
 48
0.1
 78
     7
 79
     2
140
0.12
141
0.0
146
0.71
147
0.06
176
   256
177
   256
178
     2
274
     4
284
     7
288
     1
289
     0
340
BBD
371
    -1
372
    -1
  0
DIMSTYLE
105
BC5
330
A
100
AcDbSymbolTableRecord
100
AcDbDimStyleTableRecord
  2
AM_ANSI$7
 70
     0
  4
mm
 41
0.1
 42
0.05
 43
0.5
 44
0.1
 47
0.1
 48
0.1
 78
     7
 79
     2
140
0.24
141
0.0
146
0.71
147
0.06
176
   256
177
   256
178
     2
274
     4
284
     7
340
BBD
371
    -1
372
    -1
  0
DIMSTYLE
105
BC6
330
A
100
AcDbSymbolTableRecord
100
AcDbDimStyleTableRecord
  2
AM_ANSI$SF
 70
     0
  4
mm
 41
0.1
 42
0.05
 43
0.5
 44
0.1
 47
0.1
 48
0.1
 75
     1
 76
     1
 78
     7
 79
     2
140
0.12
141
0.0
146
0.71
147
0.06
176
   256
177
   256
178
     2
274
     4
284
     7
340
BBD
371
    -1
372
    -1
  0
DIMSTYLE
105
BC7
330
A
100
AcDbSymbolTableRecord
100
AcDbDimStyleTableRecord
  2
AM_ANSI$SH
 70
     0
  4
mm
 41
0.1
 42
0.05
 43
0.5
 44
0.1
 47
0.1
 48
0.1
 75
     1
 76
     1
 78
     7
 79
     2
140
0.12
141
0.0
146
0.71
147
0.06
173
     1
176
   256
177
   256
178
     2
274
     4
284
     7
340
BBD
343
87
371
    -1
372
    -1
  0
ENDTAB
  0
TABLE
  2
BLOCK_RECORD
  5
1
330
0
100
AcDbSymbolTable
 70
    70
  0
BLOCK_RECORD
  5
1F
102
{ACAD_XDICTIONARY
360
8F
102
}
330
1
100
AcDbSymbolTableRecord
100
AcDbBlockTableRecord
  2
*Model_Space
340
22
  0
BLOCK_RECORD
  5
1B
330
1
100
AcDbSymbolTableRecord
100
AcDbBlockTableRecord
  2
*Paper_Space
340
1E
  0
BLOCK_RECORD
  5
23
330
1
100
AcDbSymbolTableRecord
100
AcDbBlockTableRecord
  2
*Paper_Space0
340
26
  0
BLOCK_RECORD
  5
87
330
1
100
AcDbSymbolTableRecord
100
AcDbBlockTableRecord
  2
GENAXEH
340
0
  0
BLOCK_RECORD
  5
F56
330
1
100
AcDbSymbolTableRecord
100
AcDbBlockTableRecord
  2
*D30
340
0
  0
BLOCK_RECORD
  5
F62
330
1
100
AcDbSymbolTableRecord
100
AcDbBlockTableRecord
  2
*D31
340
0
  0
BLOCK_RECORD
  5
F6E
330
1
100
AcDbSymbolTableRecord
100
AcDbBlockTableRecord
  2
*D32
340
0
  0
BLOCK_RECORD
  5
F7A
330
1
100
AcDbSymbolTableRecord
100
AcDbBlockTableRecord
  2
*D33
340
0
  0
BLOCK_RECORD
  5
F86
330
1
100
AcDbSymbolTableRecord
100
AcDbBlockTableRecord
  2
*D34
340
0
  0
BLOCK_RECORD
  5
F92
330
1
100
AcDbSymbolTableRecord
100
AcDbBlockTableRecord
  2
*D35
340
0
  0
BLOCK_RECORD
  5
F9E
330
1
100
AcDbSymbolTableRecord
100
AcDbBlockTableRecord
  2
*D36
340
0
  0
BLOCK_RECORD
  5
FAA
330
1
100
AcDbSymbolTableRecord
100
AcDbBlockTableRecord
  2
*D37
340
0
  0
BLOCK_RECORD
  5
FB5
330
1
100
AcDbSymbolTableRecord
100
AcDbBlockTableRecord
  2
*D38
340
0
  0
BLOCK_RECORD
  5
FC0
330
1
100
AcDbSymbolTableRecord
100
AcDbBlockTableRecord
  2
*D39
340
0
  0
BLOCK_RECORD
  5
FCC
330
1
100
AcDbSymbolTableRecord
100
AcDbBlockTableRecord
  2
*D40
340
0
  0
BLOCK_RECORD
  5
FD8
330
1
100
AcDbSymbolTableRecord
100
AcDbBlockTableRecord
  2
*D41
340
0
  0
BLOCK_RECORD
  5
FE3
330
1
100
AcDbSymbolTableRecord
100
AcDbBlockTableRecord
  2
*D42
340
0
  0
BLOCK_RECORD
  5
FEF
330
1
100
AcDbSymbolTableRecord
100
AcDbBlockTableRecord
  2
*D43
340
0
  0
BLOCK_RECORD
  5
FFB
330
1
100
AcDbSymbolTableRecord
100
AcDbBlockTableRecord
  2
*D44
340
0
  0
BLOCK_RECORD
  5
1007
330
1
100
AcDbSymbolTableRecord
100
AcDbBlockTableRecord
  2
*D45
340
0
  0
BLOCK_RECORD
  5
1014
330
1
100
AcDbSymbolTableRecord
100
AcDbBlockTableRecord
  2
*D46
340
0
  0
BLOCK_RECORD
  5
1020
330
1
100
AcDbSymbolTableRecord
100
AcDbBlockTableRecord
  2
*D47
340
0
  0
BLOCK_RECORD
  5
102C
330
1
100
AcDbSymbolTableRecord
100
AcDbBlockTableRecord
  2
*D48
340
0
  0
BLOCK_RECORD
  5
1038
330
1
100
AcDbSymbolTableRecord
100
AcDbBlockTableRecord
  2
*D49
340
0
  0
BLOCK_RECORD
  5
1044
330
1
100
AcDbSymbolTableRecord
100
AcDbBlockTableRecord
  2
*D50
340
0
  0
BLOCK_RECORD
  5
1050
330
1
100
AcDbSymbolTableRecord
100
AcDbBlockTableRecord
  2
*D51
340
0
  0
BLOCK_RECORD
  5
105C
330
1
100
AcDbSymbolTableRecord
100
AcDbBlockTableRecord
  2
*D52
340
0
  0
BLOCK_RECORD
  5
1068
330
1
100
AcDbSymbolTableRecord
100
AcDbBlockTableRecord
  2
*D53
340
0
  0
BLOCK_RECORD
  5
1074
330
1
100
AcDbSymbolTableRecord
100
AcDbBlockTableRecord
  2
*D54
340
0
  0
BLOCK_RECORD
  5
1080
330
1
100
AcDbSymbolTableRecord
100
AcDbBlockTableRecord
  2
*D55
340
0
  0
BLOCK_RECORD
  5
11D9
330
1
100
AcDbSymbolTableRecord
100
AcDbBlockTableRecord
  2
*U59
340
0
  0
BLOCK_RECORD
  5
12E5
330
1
100
AcDbSymbolTableRecord
100
AcDbBlockTableRecord
  2
*D60
340
0
  0
BLOCK_RECORD
  5
130B
330
1
100
AcDbSymbolTableRecord
100
AcDbBlockTableRecord
  2
*D61
340
0
  0
BLOCK_RECORD
  5
1331
330
1
100
AcDbSymbolTableRecord
100
AcDbBlockTableRecord
  2
*D62
340
0
  0
BLOCK_RECORD
  5
135B
330
1
100
AcDbSymbolTableRecord
100
AcDbBlockTableRecord
  2
*D63
340
0
  0
BLOCK_RECORD
  5
1591
330
1
100
AcDbSymbolTableRecord
100
AcDbBlockTableRecord
  2
*D66
340
0
  0
BLOCK_RECORD
  5
165A
330
1
100
AcDbSymbolTableRecord
100
AcDbBlockTableRecord
  2
*D67
340
0
  0
ENDTAB
  0
ENDSEC
  0
SECTION
  2
BLOCKS
  0
BLOCK
  5
20
330
1F
100
AcDbEntity
  8
0
100
AcDbBlockBegin
  2
*Model_Space
 70
     0
 10
0.0
 20
0.0
 30
0.0
  3
*Model_Space
  1

  0
ENDBLK
  5
21
330
1F
100
AcDbEntity
  8
0
100
AcDbBlockEnd
  0
BLOCK
  5
1C
330
1B
100
AcDbEntity
 67
     1
  8
0
100
AcDbBlockBegin
  2
*Paper_Space
 70
     0
 10
0.0
 20
0.0
 30
0.0
  3
*Paper_Space
  1

  0
ENDBLK
  5
1D
330
1B
100
AcDbEntity
 67
     1
  8
0
100
AcDbBlockEnd
  0
BLOCK
  5
24
330
23
100
AcDbEntity
  8
0
100
AcDbBlockBegin
  2
*Paper_Space0
 70
     0
 10
0.0
 20
0.0
 30
0.0
  3
*Paper_Space0
  1

  0
ENDBLK
  5
25
330
23
100
AcDbEntity
  8
0
100
AcDbBlockEnd
  0
BLOCK
  5
89
330
87
100
AcDbEntity
  8
0
100
AcDbBlockBegin
  2
GENAXEH
 70
     0
 10
0.0
 20
0.0
 30
0.0
  3
GENAXEH
  1

  0
LINE
  5
88
330
87
100
AcDbEntity
  8
0
100
AcDbLine
 10
-1.0
 20
0.0
 30
0.0
 11
1.0
 21
0.0
 31
0.0
  0
ENDBLK
  5
8A
330
87
100
AcDbEntity
  8
0
100
AcDbBlockEnd
  0
BLOCK
  5
F60
330
F56
100
AcDbEntity
  8
0
100
AcDbBlockBegin
  2
*D30
 70
     1
 10
0.0
 20
0.0
 30
0.0
  3
*D30
  1

  0
LINE
  5
15E1
330
F56
100
AcDbEntity
  8
Dim
100
AcDbLine
 10
558.8960447280121
 20
313.3065074444733
 30
0.0
 11
558.8960447280121
 21
349.2705172888375
 31
0.0
  0
LINE
  5
15E2
330
F56
100
AcDbEntity
  8
Dim
100
AcDbLine
 10
513.8960447280121
 20
313.3065074444733
 30
0.0
 11
513.8960447280121
 21
349.2705172888375
 31
0.0
  0
LINE
  5
15E3
330
F56
100
AcDbEntity
  8
Dim
100
AcDbLine
 10
556.8960447280121
 20
348.2705172888375
 30
0.0
 11
515.8960447280121
 21
348.2705172888375
 31
0.0
  0
SOLID
  5
15E4
330
F56
100
AcDbEntity
  8
Dim
100
AcDbTrace
 10
556.8960447280121
 20
348.6038506221708
 30
0.0
 11
556.8960447280121
 21
347.9371839555042
 31
0.0
 12
558.8960447280121
 22
348.2705172888375
 32
0.0
 13
558.8960447280121
 23
348.2705172888375
 33
0.0
  0
SOLID
  5
15E5
330
F56
100
AcDbEntity
  8
Dim
100
AcDbTrace
 10
515.8960447280121
 20
348.6038506221708
 30
0.0
 11
515.8960447280121
 21
347.9371839555042
 31
0.0
 12
513.8960447280121
 22
348.2705172888375
 32
0.0
 13
513.8960447280121
 23
348.2705172888375
 33
0.0
  0
MTEXT
  5
15E6
330
F56
100
AcDbEntity
  8
Dim
100
AcDbMText
 10
536.3960447280121
 20
350.5205172888375
 30
0.0
 40
2.5
 41
0.0
 71
     5
 72
     1
  1
\A1;45
  7
China
 73
     1
 44
1.0
1001
ACAD
1000
MTEXTBEGIN
1070
    73
1070
     1
1070
    44
1040
1.0
1070
    74
1070
     0
1000
MTEXTEND
  0
POINT
  5
15E7
330
F56
100
AcDbEntity
  8
Defpoints
 62
     0
100
AcDbPoint
 10
558.8960447280121
 20
312.3065074444733
 30
0.0
  0
POINT
  5
15E8
330
F56
100
AcDbEntity
  8
Defpoints
 62
     0
100
AcDbPoint
 10
513.8960447280121
 20
312.3065074444733
 30
0.0
  0
POINT
  5
15E9
330
F56
100
AcDbEntity
  8
Defpoints
 62
     0
100
AcDbPoint
 10
513.8960447280121
 20
348.2705172888375
 30
0.0
  0
ENDBLK
  5
F61
330
F56
100
AcDbEntity
  8
0
100
AcDbBlockEnd
  0
BLOCK
  5
F6C
330
F62
100
AcDbEntity
  8
0
100
AcDbBlockBegin
  2
*D31
 70
     1
 10
0.0
 20
0.0
 30
0.0
  3
*D31
  1

  0
LINE
  5
15EA
330
F62
100
AcDbEntity
  8
Dim
100
AcDbLine
 10
521.3960447280121
 20
325.3065074444732
 30
0.0
 11
521.3960447280121
 21
339.9090608305617
 31
0.0
  0
LINE
  5
15EB
330
F62
100
AcDbEntity
  8
Dim
100
AcDbLine
 10
551.3960447280121
 20
325.3065074444732
 30
0.0
 11
551.3960447280121
 21
339.9090608305617
 31
0.0
  0
LINE
  5
15EC
330
F62
100
AcDbEntity
  8
Dim
100
AcDbLine
 10
523.3960447280121
 20
338.9090608305616
 30
0.0
 11
549.3960447280121
 21
338.9090608305616
 31
0.0
  0
SOLID
  5
15ED
330
F62
100
AcDbEntity
  8
Dim
100
AcDbTrace
 10
523.3960447280121
 20
339.242394163895
 30
0.0
 11
523.3960447280121
 21
338.5757274972283
 31
0.0
 12
521.3960447280121
 22
338.9090608305616
 32
0.0
 13
521.3960447280121
 23
338.9090608305616
 33
0.0
  0
SOLID
  5
15EE
330
F62
100
AcDbEntity
  8
Dim
100
AcDbTrace
 10
549.3960447280121
 20
339.242394163895
 30
0.0
 11
549.3960447280121
 21
338.5757274972283
 31
0.0
 12
551.3960447280121
 22
338.9090608305616
 32
0.0
 13
551.3960447280121
 23
338.9090608305616
 33
0.0
  0
MTEXT
  5
15EF
330
F62
100
AcDbEntity
  8
Dim
100
AcDbMText
 10
536.3960447280121
 20
341.1590608305616
 30
0.0
 40
2.5
 41
0.0
 71
     5
 72
     1
  1
\A1;30
  7
China
 73
     1
 44
1.0
1001
ACAD
1000
MTEXTBEGIN
1070
    73
1070
     1
1070
    44
1040
1.0
1070
    74
1070
     0
1000
MTEXTEND
  0
POINT
  5
15F0
330
F62
100
AcDbEntity
  8
Defpoints
 62
     0
100
AcDbPoint
 10
521.3960447280121
 20
324.3065074444733
 30
0.0
  0
POINT
  5
15F1
330
F62
100
AcDbEntity
  8
Defpoints
 62
     0
100
AcDbPoint
 10
551.3960447280121
 20
324.3065074444733
 30
0.0
  0
POINT
  5
15F2
330
F62
100
AcDbEntity
  8
Defpoints
 62
     0
100
AcDbPoint
 10
551.3960447280121
 20
338.9090608305616
 30
0.0
  0
ENDBLK
  5
F6D
330
F62
100
AcDbEntity
  8
0
100
AcDbBlockEnd
  0
BLOCK
  5
F78
330
F6E
100
AcDbEntity
  8
0
100
AcDbBlockBegin
  2
*D32
 70
     1
 10
0.0
 20
0.0
 30
0.0
  3
*D32
  1

  0
LINE
  5
15F3
330
F6E
100
AcDbEntity
  8
Dim
100
AcDbLine
 10
528.3960447280121
 20
323.106507444473
 30
0.0
 11
528.3960447280121
 21
332.5184396106945
 31
0.0
  0
LINE
  5
15F4
330
F6E
100
AcDbEntity
  8
Dim
100
AcDbLine
 10
544.3960447280121
 20
323.106507444473
 30
0.0
 11
544.3960447280121
 21
332.5184396106945
 31
0.0
  0
LINE
  5
15F5
330
F6E
100
AcDbEntity
  8
Dim
100
AcDbLine
 10
530.3960447280121
 20
331.5184396106945
 30
0.0
 11
542.3960447280121
 21
331.5184396106945
 31
0.0
  0
SOLID
  5
15F6
330
F6E
100
AcDbEntity
  8
Dim
100
AcDbTrace
 10
530.3960447280121
 20
331.8517729440278
 30
0.0
 11
530.3960447280121
 21
331.1851062773612
 31
0.0
 12
528.3960447280121
 22
331.5184396106945
 32
0.0
 13
528.3960447280121
 23
331.5184396106945
 33
0.0
  0
SOLID
  5
15F7
330
F6E
100
AcDbEntity
  8
Dim
100
AcDbTrace
 10
542.3960447280121
 20
331.8517729440278
 30
0.0
 11
542.3960447280121
 21
331.1851062773612
 31
0.0
 12
544.3960447280121
 22
331.5184396106945
 32
0.0
 13
544.3960447280121
 23
331.5184396106945
 33
0.0
  0
MTEXT
  5
15F8
330
F6E
100
AcDbEntity
  8
Dim
100
AcDbMText
 10
536.3960447280121
 20
333.7684396106945
 30
0.0
 40
2.5
 41
0.0
 71
     5
 72
     1
  1
\A1;16
  7
China
 73
     1
 44
1.0
1001
ACAD
1000
MTEXTBEGIN
1070
    73
1070
     1
1070
    44
1040
1.0
1070
    74
1070
     0
1000
MTEXTEND
  0
POINT
  5
15F9
330
F6E
100
AcDbEntity
  8
Defpoints
 62
     0
100
AcDbPoint
 10
528.3960447280121
 20
322.106507444473
 30
0.0
  0
POINT
  5
15FA
330
F6E
100
AcDbEntity
  8
Defpoints
 62
     0
100
AcDbPoint
 10
544.3960447280121
 20
322.106507444473
 30
0.0
  0
POINT
  5
15FB
330
F6E
100
AcDbEntity
  8
Defpoints
 62
     0
100
AcDbPoint
 10
544.3960447280121
 20
331.5184396106945
 30
0.0
  0
ENDBLK
  5
F79
330
F6E
100
AcDbEntity
  8
0
100
AcDbBlockEnd
  0
BLOCK
  5
F84
330
F7A
100
AcDbEntity
  8
0
100
AcDbBlockBegin
  2
*D33
 70
     1
 10
0.0
 20
0.0
 30
0.0
  3
*D33
  1

  0
LINE
  5
152E
330
F7A
100
AcDbEntity
  8
Dim
100
AcDbLine
 10
253.5445141293939
 20
393.5818742390434
 30
0.0
 11
278.084514129394
 21
393.5818742390434
 31
0.0
  0
LINE
  5
152F
330
F7A
100
AcDbEntity
  8
Dim
100
AcDbLine
 10
253.7775141293939
 20
369.5818742390434
 30
0.0
 11
278.0845141293939
 21
369.5818742390434
 31
0.0
  0
LINE
  5
1530
330
F7A
100
AcDbEntity
  8
Dim
100
AcDbLine
 10
277.084514129394
 20
391.5818742390434
 30
0.0
 11
277.0845141293939
 21
371.5818742390434
 31
0.0
  0
SOLID
  5
1531
330
F7A
100
AcDbEntity
  8
Dim
100
AcDbTrace
 10
276.7511807960607
 20
391.5818742390434
 30
0.0
 11
277.4178474627273
 21
391.5818742390434
 31
0.0
 12
277.084514129394
 22
393.5818742390434
 32
0.0
 13
277.084514129394
 23
393.5818742390434
 33
0.0
  0
SOLID
  5
1532
330
F7A
100
AcDbEntity
  8
Dim
100
AcDbTrace
 10
276.7511807960606
 20
371.5818742390434
 30
0.0
 11
277.4178474627273
 21
371.5818742390434
 31
0.0
 12
277.0845141293939
 22
369.5818742390434
 32
0.0
 13
277.0845141293939
 23
369.5818742390434
 33
0.0
  0
MTEXT
  5
1533
330
F7A
100
AcDbEntity
  8
Dim
100
AcDbMText
 10
274.8345141293939
 20
381.5818742390434
 30
0.0
 40
2.5
 41
0.0
 71
     5
 72
     1
  1
\A1;24
  7
China
 11
0.0000000000000001
 21
1.0
 31
0.0
 73
     1
 44
1.0
1001
ACAD
1000
MTEXTBEGIN
1070
    73
1070
     1
1070
    44
1040
1.0
1070
    74
1070
     0
1000
MTEXTEND
  0
POINT
  5
1534
330
F7A
100
AcDbEntity
  8
Defpoints
 62
     0
100
AcDbPoint
 10
252.5445141293939
 20
393.5818742390434
 30
0.0
  0
POINT
  5
1535
330
F7A
100
AcDbEntity
  8
Defpoints
 62
     0
100
AcDbPoint
 10
252.7775141293939
 20
369.5818742390434
 30
0.0
  0
POINT
  5
1536
330
F7A
100
AcDbEntity
  8
Defpoints
 62
     0
100
AcDbPoint
 10
277.0845141293939
 20
369.5818742390434
 30
0.0
  0
ENDBLK
  5
F85
330
F7A
100
AcDbEntity
  8
0
100
AcDbBlockEnd
  0
BLOCK
  5
F90
330
F86
100
AcDbEntity
  8
0
100
AcDbBlockBegin
  2
*D34
 70
     1
 10
0.0
 20
0.0
 30
0.0
  3
*D34
  1

  0
LINE
  5
1284
330
F86
100
AcDbEntity
  8
Dim
100
AcDbLine
 10
261.0555141293939
 20
161.7747576352735
 30
0.0
 11
275.436384141447
 21
161.7747576352735
 31
0.0
  0
LINE
  5
1285
330
F86
100
AcDbEntity
  8
Dim
100
AcDbLine
 10
237.210514129394
 20
177.7747576352735
 30
0.0
 11
275.436384141447
 21
177.7747576352735
 31
0.0
  0
LINE
  5
1286
330
F86
100
AcDbEntity
  8
Dim
100
AcDbLine
 10
274.436384141447
 20
163.7747576352735
 30
0.0
 11
274.436384141447
 21
175.7747576352735
 31
0.0
  0
SOLID
  5
1287
330
F86
100
AcDbEntity
  8
Dim
100
AcDbTrace
 10
274.1030508081137
 20
163.7747576352735
 30
0.0
 11
274.7697174747803
 21
163.7747576352735
 31
0.0
 12
274.436384141447
 22
161.7747576352735
 32
0.0
 13
274.436384141447
 23
161.7747576352735
 33
0.0
  0
SOLID
  5
1288
330
F86
100
AcDbEntity
  8
Dim
100
AcDbTrace
 10
274.1030508081137
 20
175.7747576352735
 30
0.0
 11
274.7697174747803
 21
175.7747576352735
 31
0.0
 12
274.436384141447
 22
177.7747576352735
 32
0.0
 13
274.436384141447
 23
177.7747576352735
 33
0.0
  0
MTEXT
  5
1289
330
F86
100
AcDbEntity
  8
Dim
100
AcDbMText
 10
272.1863841414469
 20
169.7747576352736
 30
0.0
 40
2.5
 41
0.0
 71
     5
 72
     1
  1
\A1;16
  7
China
 11
0.0000000000000001
 21
1.0
 31
0.0
 73
     1
 44
1.0
1001
ACAD
1000
MTEXTBEGIN
1070
    73
1070
     1
1070
    44
1040
1.0
1070
    74
1070
     0
1000
MTEXTEND
  0
POINT
  5
128A
330
F86
100
AcDbEntity
  8
Defpoints
 62
     0
100
AcDbPoint
 10
260.055514129394
 20
161.7747576352735
 30
0.0
  0
POINT
  5
128B
330
F86
100
AcDbEntity
  8
Defpoints
 62
     0
100
AcDbPoint
 10
236.2105141293939
 20
177.7747576352735
 30
0.0
  0
POINT
  5
128C
330
F86
100
AcDbEntity
  8
Defpoints
 62
     0
100
AcDbPoint
 10
274.436384141447
 20
177.7747576352735
 30
0.0
  0
ENDBLK
  5
F91
330
F86
100
AcDbEntity
  8
0
100
AcDbBlockEnd
  0
BLOCK
  5
F9C
330
F92
100
AcDbEntity
  8
0
100
AcDbBlockBegin
  2
*D35
 70
     1
 10
0.0
 20
0.0
 30
0.0
  3
*D35
  1

  0
LINE
  5
12CA
330
F92
100
AcDbEntity
  8
Dim
100
AcDbLine
 10
266.0845141293939
 20
297.8095074444732
 30
0.0
 11
286.0845141293939
 21
297.8095074444732
 31
0.0
  0
LINE
  5
12CB
330
F92
100
AcDbEntity
  8
Dim
100
AcDbLine
 10
266.0845141293939
 20
252.8095074444732
 30
0.0
 11
286.0845141293939
 21
252.8095074444732
 31
0.0
  0
LINE
  5
12CC
330
F92
100
AcDbEntity
  8
Dim
100
AcDbLine
 10
285.0845141293939
 20
295.8095074444732
 30
0.0
 11
285.0845141293939
 21
254.8095074444732
 31
0.0
  0
SOLID
  5
12CD
330
F92
100
AcDbEntity
  8
Dim
100
AcDbTrace
 10
284.7511807960606
 20
295.8095074444732
 30
0.0
 11
285.4178474627273
 21
295.8095074444732
 31
0.0
 12
285.0845141293939
 22
297.8095074444732
 32
0.0
 13
285.0845141293939
 23
297.8095074444732
 33
0.0
  0
SOLID
  5
12CE
330
F92
100
AcDbEntity
  8
Dim
100
AcDbTrace
 10
284.7511807960606
 20
254.8095074444732
 30
0.0
 11
285.4178474627273
 21
254.8095074444732
 31
0.0
 12
285.0845141293939
 22
252.8095074444732
 32
0.0
 13
285.0845141293939
 23
252.8095074444732
 33
0.0
  0
MTEXT
  5
12CF
330
F92
100
AcDbEntity
  8
Dim
100
AcDbMText
 10
282.8345141293939
 20
275.3095074444733
 30
0.0
 40
2.5
 41
0.0
 71
     5
 72
     1
  1
\A1;45
  7
China
 11
0.0000000000000001
 21
1.0
 31
0.0
 73
     1
 44
1.0
1001
ACAD
1000
MTEXTBEGIN
1070
    73
1070
     1
1070
    44
1040
1.0
1070
    74
1070
     0
1000
MTEXTEND
  0
POINT
  5
12D0
330
F92
100
AcDbEntity
  8
Defpoints
 62
     0
100
AcDbPoint
 10
265.0845141293939
 20
297.8095074444732
 30
0.0
  0
POINT
  5
12D1
330
F92
100
AcDbEntity
  8
Defpoints
 62
     0
100
AcDbPoint
 10
265.0845141293939
 20
252.8095074444732
 30
0.0
  0
POINT
  5
12D2
330
F92
100
AcDbEntity
  8
Defpoints
 62
     0
100
AcDbPoint
 10
285.0845141293939
 20
252.8095074444732
 30
0.0
  0
ENDBLK
  5
F9D
330
F92
100
AcDbEntity
  8
0
100
AcDbBlockEnd
  0
BLOCK
  5
FA8
330
F9E
100
AcDbEntity
  8
0
100
AcDbBlockBegin
  2
*D36
 70
     1
 10
0.0
 20
0.0
 30
0.0
  3
*D36
  1

  0
LINE
  5
1550
330
F9E
100
AcDbEntity
  8
Dim
100
AcDbLine
 10
243.7845141293939
 20
292.3095074444732
 30
0.0
 11
278.0845141293939
 21
292.3095074444732
 31
0.0
  0
LINE
  5
1551
330
F9E
100
AcDbEntity
  8
Dim
100
AcDbLine
 10
243.7515141293939
 20
258.3095074444732
 30
0.0
 11
278.0845141293939
 21
258.3095074444732
 31
0.0
  0
LINE
  5
1552
330
F9E
100
AcDbEntity
  8
Dim
100
AcDbLine
 10
277.0845141293939
 20
290.3095074444732
 30
0.0
 11
277.0845141293939
 21
260.3095074444732
 31
0.0
  0
SOLID
  5
1553
330
F9E
100
AcDbEntity
  8
Dim
100
AcDbTrace
 10
276.7511807960606
 20
290.3095074444732
 30
0.0
 11
277.4178474627273
 21
290.3095074444732
 31
0.0
 12
277.0845141293939
 22
292.3095074444732
 32
0.0
 13
277.0845141293939
 23
292.3095074444732
 33
0.0
  0
SOLID
  5
1554
330
F9E
100
AcDbEntity
  8
Dim
100
AcDbTrace
 10
276.7511807960606
 20
260.3095074444732
 30
0.0
 11
277.4178474627273
 21
260.3095074444732
 31
0.0
 12
277.0845141293939
 22
258.3095074444732
 32
0.0
 13
277.0845141293939
 23
258.3095074444732
 33
0.0
  0
MTEXT
  5
1555
330
F9E
100
AcDbEntity
  8
Dim
100
AcDbMText
 10
274.8345141293939
 20
275.3095074444733
 30
0.0
 40
2.5
 41
0.0
 71
     5
 72
     1
  1
\A1;34
  7
China
 11
0.0000000000000001
 21
1.0
 31
0.0
 73
     1
 44
1.0
1001
ACAD
1000
MTEXTBEGIN
1070
    73
1070
     1
1070
    44
1040
1.0
1070
    74
1070
     0
1000
MTEXTEND
  0
POINT
  5
1556
330
F9E
100
AcDbEntity
  8
Defpoints
 62
     0
100
AcDbPoint
 10
242.7845141293939
 20
292.3095074444732
 30
0.0
  0
POINT
  5
1557
330
F9E
100
AcDbEntity
  8
Defpoints
 62
     0
100
AcDbPoint
 10
242.7515141293939
 20
258.3095074444732
 30
0.0
  0
POINT
  5
1558
330
F9E
100
AcDbEntity
  8
Defpoints
 62
     0
100
AcDbPoint
 10
277.0845141293939
 20
258.3095074444732
 30
0.0
  0
ENDBLK
  5
FA9
330
F9E
100
AcDbEntity
  8
0
100
AcDbBlockEnd
  0
BLOCK
  5
FB3
330
FAA
100
AcDbEntity
  8
0
100
AcDbBlockBegin
  2
*D37
 70
     1
 10
0.0
 20
0.0
 30
0.0
  3
*D37
  1

  0
LINE
  5
10CB
330
FAA
100
AcDbEntity
  8
Dim
100
AcDbLine
 10
202.5845141293939
 20
244.3095074444732
 30
0.0
 11
191.5780909467921
 21
244.3095074444732
 31
0.0
  0
LINE
  5
10CC
330
FAA
100
AcDbEntity
  8
Dim
100
AcDbLine
 10
192.5780909467921
 20
238.3095074444732
 30
0.0
 11
192.5780909467921
 21
242.3095074444732
 31
0.0
  0
SOLID
  5
10CD
330
FAA
100
AcDbEntity
  8
Dim
100
AcDbTrace
 10
192.2447576134588
 20
238.3095074444732
 30
0.0
 11
192.9114242801255
 21
238.3095074444732
 31
0.0
 12
192.5780909467921
 22
236.3095074444732
 32
0.0
 13
192.5780909467921
 23
236.3095074444732
 33
0.0
  0
SOLID
  5
10CE
330
FAA
100
AcDbEntity
  8
Dim
100
AcDbTrace
 10
192.2447576134588
 20
242.3095074444732
 30
0.0
 11
192.9114242801255
 21
242.3095074444732
 31
0.0
 12
192.5780909467921
 22
244.3095074444732
 32
0.0
 13
192.5780909467921
 23
244.3095074444732
 33
0.0
  0
MTEXT
  5
10CF
330
FAA
100
AcDbEntity
  8
Dim
100
AcDbMText
 10
190.3280909467921
 20
240.3095074444733
 30
0.0
 40
2.5
 41
0.0
 71
     5
 72
     1
  1
\A1;8
  7
China
 11
0.0000000000000001
 21
1.0
 31
0.0
 73
     1
 44
1.0
1001
ACAD
1000
MTEXTBEGIN
1070
    73
1070
     1
1070
    44
1040
1.0
1070
    74
1070
     0
1000
MTEXTEND
  0
POINT
  5
10D0
330
FAA
100
AcDbEntity
  8
Defpoints
 62
     0
100
AcDbPoint
 10
192.5780909467921
 20
236.3095074444732
 30
0.0
  0
POINT
  5
10D1
330
FAA
100
AcDbEntity
  8
Defpoints
 62
     0
100
AcDbPoint
 10
203.5845141293939
 20
244.3095074444732
 30
0.0
  0
POINT
  5
10D2
330
FAA
100
AcDbEntity
  8
Defpoints
 62
     0
100
AcDbPoint
 10
192.5780909467921
 20
244.3095074444732
 30
0.0
  0
ENDBLK
  5
FB4
330
FAA
100
AcDbEntity
  8
0
100
AcDbBlockEnd
  0
BLOCK
  5
FBE
330
FB5
100
AcDbEntity
  8
0
100
AcDbBlockBegin
  2
*D38
 70
     1
 10
0.0
 20
0.0
 30
0.0
  3
*D38
  1

  0
LINE
  5
10D3
330
FB5
100
AcDbEntity
  8
Dim
100
AcDbLine
 10
202.5845141293939
 20
236.3095074444732
 30
0.0
 11
184.6234733486462
 21
236.3095074444732
 31
0.0
  0
LINE
  5
10D4
330
FB5
100
AcDbEntity
  8
Dim
100
AcDbLine
 10
185.6234733486462
 20
261.3095074444732
 30
0.0
 11
185.6234733486462
 21
238.3095074444732
 31
0.0
  0
SOLID
  5
10D5
330
FB5
100
AcDbEntity
  8
Dim
100
AcDbTrace
 10
185.2901400153129
 20
261.3095074444732
 30
0.0
 11
185.9568066819796
 21
261.3095074444732
 31
0.0
 12
185.6234733486462
 22
263.3095074444732
 32
0.0
 13
185.6234733486462
 23
263.3095074444732
 33
0.0
  0
SOLID
  5
10D6
330
FB5
100
AcDbEntity
  8
Dim
100
AcDbTrace
 10
185.2901400153129
 20
238.3095074444732
 30
0.0
 11
185.9568066819796
 21
238.3095074444732
 31
0.0
 12
185.6234733486462
 22
236.3095074444732
 32
0.0
 13
185.6234733486462
 23
236.3095074444732
 33
0.0
  0
MTEXT
  5
10D7
330
FB5
100
AcDbEntity
  8
Dim
100
AcDbMText
 10
183.3734733486462
 20
249.8095074444732
 30
0.0
 40
2.5
 41
0.0
 71
     5
 72
     1
  1
\A1;27
  7
China
 11
0.0000000000000001
 21
1.0
 31
0.0
 73
     1
 44
1.0
1001
ACAD
1000
MTEXTBEGIN
1070
    73
1070
     1
1070
    44
1040
1.0
1070
    74
1070
     0
1000
MTEXTEND
  0
POINT
  5
10D8
330
FB5
100
AcDbEntity
  8
Defpoints
 62
     0
100
AcDbPoint
 10
185.6234733486462
 20
263.3095074444732
 30
0.0
  0
POINT
  5
10D9
330
FB5
100
AcDbEntity
  8
Defpoints
 62
     0
100
AcDbPoint
 10
203.5845141293939
 20
236.3095074444732
 30
0.0
  0
POINT
  5
10DA
330
FB5
100
AcDbEntity
  8
Defpoints
 62
     0
100
AcDbPoint
 10
185.6234733486462
 20
236.3095074444732
 30
0.0
  0
ENDBLK
  5
FBF
330
FB5
100
AcDbEntity
  8
0
100
AcDbBlockEnd
  0
BLOCK
  5
FCA
330
FC0
100
AcDbEntity
  8
0
100
AcDbBlockBegin
  2
*D39
 70
     1
 10
0.0
 20
0.0
 30
0.0
  3
*D39
  1

  0
LINE
  5
128D
330
FC0
100
AcDbEntity
  8
Dim
100
AcDbLine
 10
202.5845141293939
 20
192.2747576352735
 30
0.0
 11
172.5436876692611
 21
192.2747576352735
 31
0.0
  0
LINE
  5
128E
330
FC0
100
AcDbEntity
  8
Dim
100
AcDbLine
 10
202.5845141293939
 20
147.2747576352735
 30
0.0
 11
172.5436876692611
 21
147.2747576352736
 31
0.0
  0
LINE
  5
128F
330
FC0
100
AcDbEntity
  8
Dim
100
AcDbLine
 10
173.5436876692611
 20
190.2747576352735
 30
0.0
 11
173.5436876692611
 21
149.2747576352735
 31
0.0
  0
SOLID
  5
1290
330
FC0
100
AcDbEntity
  8
Dim
100
AcDbTrace
 10
173.2103543359277
 20
190.2747576352735
 30
0.0
 11
173.8770210025944
 21
190.2747576352735
 31
0.0
 12
173.5436876692611
 22
192.2747576352735
 32
0.0
 13
173.5436876692611
 23
192.2747576352735
 33
0.0
  0
SOLID
  5
1291
330
FC0
100
AcDbEntity
  8
Dim
100
AcDbTrace
 10
173.2103543359277
 20
149.2747576352735
 30
0.0
 11
173.8770210025944
 21
149.2747576352735
 31
0.0
 12
173.5436876692611
 22
147.2747576352736
 32
0.0
 13
173.5436876692611
 23
147.2747576352736
 33
0.0
  0
MTEXT
  5
1292
330
FC0
100
AcDbEntity
  8
Dim
100
AcDbMText
 10
171.293687669261
 20
169.7747576352736
 30
0.0
 40
2.5
 41
0.0
 71
     5
 72
     1
  1
\A1;45
  7
China
 11
0.0000000000000001
 21
1.0
 31
0.0
 73
     1
 44
1.0
1001
ACAD
1000
MTEXTBEGIN
1070
    73
1070
     1
1070
    44
1040
1.0
1070
    74
1070
     0
1000
MTEXTEND
  0
POINT
  5
1293
330
FC0
100
AcDbEntity
  8
Defpoints
 62
     0
100
AcDbPoint
 10
203.5845141293939
 20
192.2747576352735
 30
0.0
  0
POINT
  5
1294
330
FC0
100
AcDbEntity
  8
Defpoints
 62
     0
100
AcDbPoint
 10
203.5845141293939
 20
147.2747576352735
 30
0.0
  0
POINT
  5
1295
330
FC0
100
AcDbEntity
  8
Defpoints
 62
     0
100
AcDbPoint
 10
173.5436876692611
 20
147.2747576352736
 30
0.0
  0
ENDBLK
  5
FCB
330
FC0
100
AcDbEntity
  8
0
100
AcDbBlockEnd
  0
BLOCK
  5
FD6
330
FCC
100
AcDbEntity
  8
0
100
AcDbBlockBegin
  2
*D40
 70
     1
 10
0.0
 20
0.0
 30
0.0
  3
*D40
  1

  0
LINE
  5
16BE
330
FCC
100
AcDbEntity
  8
Dim
100
AcDbLine
 10
195.0845141293939
 20
184.9247576352735
 30
0.0
 11
179.4929312337008
 21
184.9247576352736
 31
0.0
  0
LINE
  5
16BF
330
FCC
100
AcDbEntity
  8
Dim
100
AcDbLine
 10
195.0845141293939
 20
154.6247576352735
 30
0.0
 11
179.4929312337008
 21
154.6247576352735
 31
0.0
  0
LINE
  5
16C0
330
FCC
100
AcDbEntity
  8
Dim
100
AcDbLine
 10
180.4929312337008
 20
182.9247576352736
 30
0.0
 11
180.4929312337008
 21
156.6247576352735
 31
0.0
  0
SOLID
  5
16C1
330
FCC
100
AcDbEntity
  8
Dim
100
AcDbTrace
 10
180.1595979003674
 20
182.9247576352736
 30
0.0
 11
180.8262645670341
 21
182.9247576352736
 31
0.0
 12
180.4929312337008
 22
184.9247576352736
 32
0.0
 13
180.4929312337008
 23
184.9247576352736
 33
0.0
  0
SOLID
  5
16C2
330
FCC
100
AcDbEntity
  8
Dim
100
AcDbTrace
 10
180.1595979003674
 20
156.6247576352735
 30
0.0
 11
180.8262645670341
 21
156.6247576352735
 31
0.0
 12
180.4929312337008
 22
154.6247576352735
 32
0.0
 13
180.4929312337008
 23
154.6247576352735
 33
0.0
  0
MTEXT
  5
16C3
330
FCC
100
AcDbEntity
  8
Dim
100
AcDbMText
 10
178.2429312337008
 20
169.7747576352736
 30
0.0
 40
2.5
 41
0.0
 71
     5
 72
     1
  1
\A1;30.3
  7
China
 11
0.0000000000000001
 21
1.0
 31
0.0
 73
     1
 44
1.0
1001
ACAD
1000
MTEXTBEGIN
1070
    73
1070
     1
1070
    44
1040
1.0
1070
    74
1070
     0
1000
MTEXTEND
  0
POINT
  5
16C4
330
FCC
100
AcDbEntity
  8
Defpoints
 62
     0
100
AcDbPoint
 10
196.0845141293939
 20
184.9247576352735
 30
0.0
  0
POINT
  5
16C5
330
FCC
100
AcDbEntity
  8
Defpoints
 62
     0
100
AcDbPoint
 10
196.0845141293939
 20
154.6247576352735
 30
0.0
  0
POINT
  5
16C6
330
FCC
100
AcDbEntity
  8
Defpoints
 62
     0
100
AcDbPoint
 10
180.4929312337008
 20
154.6247576352735
 30
0.0
  0
ENDBLK
  5
FD7
330
FCC
100
AcDbEntity
  8
0
100
AcDbBlockEnd
  0
BLOCK
  5
FE1
330
FD8
100
AcDbEntity
  8
0
100
AcDbBlockBegin
  2
*D41
 70
     1
 10
0.0
 20
0.0
 30
0.0
  3
*D41
  1

  0
LINE
  5
129F
330
FD8
100
AcDbEntity
  8
Dim
100
AcDbLine
 10
232.0845141293939
 20
172.7277576352735
 30
0.0
 11
232.0845141293939
 21
138.8628301436974
 31
0.0
  0
LINE
  5
12A0
330
FD8
100
AcDbEntity
  8
Dim
100
AcDbLine
 10
253.0845141293939
 20
139.8628301436974
 30
0.0
 11
234.0845141293939
 21
139.8628301436974
 31
0.0
  0
SOLID
  5
12A1
330
FD8
100
AcDbEntity
  8
Dim
100
AcDbTrace
 10
253.0845141293939
 20
140.1961634770308
 30
0.0
 11
253.0845141293939
 21
139.5294968103641
 31
0.0
 12
255.0845141293939
 22
139.8628301436974
 32
0.0
 13
255.0845141293939
 23
139.8628301436974
 33
0.0
  0
SOLID
  5
12A2
330
FD8
100
AcDbEntity
  8
Dim
100
AcDbTrace
 10
234.0845141293939
 20
140.1961634770308
 30
0.0
 11
234.0845141293939
 21
139.5294968103641
 31
0.0
 12
232.0845141293939
 22
139.8628301436974
 32
0.0
 13
232.0845141293939
 23
139.8628301436974
 33
0.0
  0
MTEXT
  5
12A3
330
FD8
100
AcDbEntity
  8
Dim
100
AcDbMText
 10
243.5845141293939
 20
142.1128301436974
 30
0.0
 40
2.5
 41
0.0
 71
     5
 72
     1
  1
\A1;23
  7
China
 73
     1
 44
1.0
1001
ACAD
1000
MTEXTBEGIN
1070
    73
1070
     1
1070
    44
1040
1.0
1070
    74
1070
     0
1000
MTEXTEND
  0
POINT
  5
12A4
330
FD8
100
AcDbEntity
  8
Defpoints
 62
     0
100
AcDbPoint
 10
255.0845141293939
 20
139.8628301436974
 30
0.0
  0
POINT
  5
12A5
330
FD8
100
AcDbEntity
  8
Defpoints
 62
     0
100
AcDbPoint
 10
232.0845141293939
 20
173.7277576352735
 30
0.0
  0
POINT
  5
12A6
330
FD8
100
AcDbEntity
  8
Defpoints
 62
     0
100
AcDbPoint
 10
232.0845141293939
 20
139.8628301436974
 30
0.0
  0
ENDBLK
  5
FE2
330
FD8
100
AcDbEntity
  8
0
100
AcDbBlockEnd
  0
BLOCK
  5
FED
330
FE3
100
AcDbEntity
  8
0
100
AcDbBlockBegin
  2
*D42
 70
     1
 10
0.0
 20
0.0
 30
0.0
  3
*D42
  1

  0
LINE
  5
12A7
330
FE3
100
AcDbEntity
  8
Dim
100
AcDbLine
 10
209.4375141293939
 20
179.7747576352735
 30
0.0
 11
186.4421687394788
 21
179.7747576352735
 31
0.0
  0
LINE
  5
12A8
330
FE3
100
AcDbEntity
  8
Dim
100
AcDbLine
 10
209.4375141293939
 20
159.7747576352735
 30
0.0
 11
186.4421687394788
 21
159.7747576352736
 31
0.0
  0
LINE
  5
12A9
330
FE3
100
AcDbEntity
  8
Dim
100
AcDbLine
 10
187.4421687394788
 20
177.7747576352735
 30
0.0
 11
187.4421687394788
 21
161.7747576352735
 31
0.0
  0
SOLID
  5
12AA
330
FE3
100
AcDbEntity
  8
Dim
100
AcDbTrace
 10
187.1088354061454
 20
177.7747576352735
 30
0.0
 11
187.7755020728121
 21
177.7747576352735
 31
0.0
 12
187.4421687394788
 22
179.7747576352735
 32
0.0
 13
187.4421687394788
 23
179.7747576352735
 33
0.0
  0
SOLID
  5
12AB
330
FE3
100
AcDbEntity
  8
Dim
100
AcDbTrace
 10
187.1088354061454
 20
161.7747576352735
 30
0.0
 11
187.7755020728121
 21
161.7747576352735
 31
0.0
 12
187.4421687394788
 22
159.7747576352736
 32
0.0
 13
187.4421687394788
 23
159.7747576352736
 33
0.0
  0
MTEXT
  5
12AC
330
FE3
100
AcDbEntity
  8
Dim
100
AcDbMText
 10
185.1921687394787
 20
169.7747576352736
 30
0.0
 40
2.5
 41
0.0
 71
     5
 72
     1
  1
\A1;20
  7
China
 11
0.0000000000000001
 21
1.0
 31
0.0
 73
     1
 44
1.0
1001
ACAD
1000
MTEXTBEGIN
1070
    73
1070
     1
1070
    44
1040
1.0
1070
    74
1070
     0
1000
MTEXTEND
  0
POINT
  5
12AD
330
FE3
100
AcDbEntity
  8
Defpoints
 62
     0
100
AcDbPoint
 10
210.4375141293939
 20
179.7747576352735
 30
0.0
  0
POINT
  5
12AE
330
FE3
100
AcDbEntity
  8
Defpoints
 62
     0
100
AcDbPoint
 10
210.4375141293939
 20
159.7747576352735
 30
0.0
  0
POINT
  5
12AF
330
FE3
100
AcDbEntity
  8
Defpoints
 62
     0
100
AcDbPoint
 10
187.4421687394788
 20
159.7747576352736
 30
0.0
  0
ENDBLK
  5
FEE
330
FE3
100
AcDbEntity
  8
0
100
AcDbBlockEnd
  0
BLOCK
  5
FF9
330
FEF
100
AcDbEntity
  8
0
100
AcDbBlockBegin
  2
*D43
 70
     1
 10
0.0
 20
0.0
 30
0.0
  3
*D43
  1

  0
LINE
  5
12B0
330
FEF
100
AcDbEntity
  8
Dim
100
AcDbLine
 10
255.0845141293939
 20
155.9897576352736
 30
0.0
 11
255.0845141293939
 21
138.8628301436974
 31
0.0
  0
LINE
  5
12B1
330
FEF
100
AcDbEntity
  8
Dim
100
AcDbLine
 10
265.0845141293939
 20
148.7747576352735
 30
0.0
 11
265.0845141293939
 21
138.8628301436974
 31
0.0
  0
LINE
  5
12B2
330
FEF
100
AcDbEntity
  8
Dim
100
AcDbLine
 10
257.0845141293939
 20
139.8628301436974
 30
0.0
 11
263.0845141293939
 21
139.8628301436974
 31
0.0
  0
SOLID
  5
12B3
330
FEF
100
AcDbEntity
  8
Dim
100
AcDbTrace
 10
257.0845141293939
 20
140.1961634770308
 30
0.0
 11
257.0845141293939
 21
139.5294968103641
 31
0.0
 12
255.0845141293939
 22
139.8628301436974
 32
0.0
 13
255.0845141293939
 23
139.8628301436974
 33
0.0
  0
SOLID
  5
12B4
330
FEF
100
AcDbEntity
  8
Dim
100
AcDbTrace
 10
263.0845141293939
 20
140.1961634770308
 30
0.0
 11
263.0845141293939
 21
139.5294968103641
 31
0.0
 12
265.0845141293939
 22
139.8628301436974
 32
0.0
 13
265.0845141293939
 23
139.8628301436974
 33
0.0
  0
MTEXT
  5
12B5
330
FEF
100
AcDbEntity
  8
Dim
100
AcDbMText
 10
260.0845141293939
 20
142.1128301436974
 30
0.0
 40
2.5
 41
0.0
 71
     5
 72
     1
  1
\A1;10
  7
China
 73
     1
 44
1.0
1001
ACAD
1000
MTEXTBEGIN
1070
    73
1070
     1
1070
    44
1040
1.0
1070
    74
1070
     0
1000
MTEXTEND
  0
POINT
  5
12B6
330
FEF
100
AcDbEntity
  8
Defpoints
 62
     0
100
AcDbPoint
 10
255.0845141293939
 20
156.9897576352736
 30
0.0
  0
POINT
  5
12B7
330
FEF
100
AcDbEntity
  8
Defpoints
 62
     0
100
AcDbPoint
 10
265.0845141293939
 20
149.7747576352735
 30
0.0
  0
POINT
  5
12B8
330
FEF
100
AcDbEntity
  8
Defpoints
 62
     0
100
AcDbPoint
 10
265.0845141293939
 20
139.8628301436974
 30
0.0
  0
ENDBLK
  5
FFA
330
FEF
100
AcDbEntity
  8
0
100
AcDbBlockEnd
  0
BLOCK
  5
1005
330
FFB
100
AcDbEntity
  8
0
100
AcDbBlockBegin
  2
*D44
 70
     1
 10
0.0
 20
0.0
 30
0.0
  3
*D44
  1

  0
LINE
  5
1107
330
FFB
100
AcDbEntity
  8
Dim
100
AcDbLine
 10
203.5845141293939
 20
235.3095074444732
 30
0.0
 11
203.5845141293939
 21
216.9294770125489
 31
0.0
  0
LINE
  5
1108
330
FFB
100
AcDbEntity
  8
Dim
100
AcDbLine
 10
224.5845141293939
 20
235.3095074444732
 30
0.0
 11
224.5845141293939
 21
216.9294770125489
 31
0.0
  0
LINE
  5
1109
330
FFB
100
AcDbEntity
  8
Dim
100
AcDbLine
 10
205.5845141293939
 20
217.9294770125489
 30
0.0
 11
222.5845141293939
 21
217.9294770125489
 31
0.0
  0
SOLID
  5
110A
330
FFB
100
AcDbEntity
  8
Dim
100
AcDbTrace
 10
205.5845141293939
 20
218.2628103458822
 30
0.0
 11
205.5845141293939
 21
217.5961436792155
 31
0.0
 12
203.5845141293939
 22
217.9294770125489
 32
0.0
 13
203.5845141293939
 23
217.9294770125489
 33
0.0
  0
SOLID
  5
110B
330
FFB
100
AcDbEntity
  8
Dim
100
AcDbTrace
 10
222.5845141293939
 20
218.2628103458822
 30
0.0
 11
222.5845141293939
 21
217.5961436792155
 31
0.0
 12
224.5845141293939
 22
217.9294770125489
 32
0.0
 13
224.5845141293939
 23
217.9294770125489
 33
0.0
  0
MTEXT
  5
110C
330
FFB
100
AcDbEntity
  8
Dim
100
AcDbMText
 10
214.0845141293939
 20
220.1794770125489
 30
0.0
 40
2.5
 41
0.0
 71
     5
 72
     1
  1
\A1;21
  7
China
 73
     1
 44
1.0
1001
ACAD
1000
MTEXTBEGIN
1070
    73
1070
     1
1070
    44
1040
1.0
1070
    74
1070
     0
1000
MTEXTEND
  0
POINT
  5
110D
330
FFB
100
AcDbEntity
  8
Defpoints
 62
     0
100
AcDbPoint
 10
203.5845141293939
 20
236.3095074444732
 30
0.0
  0
POINT
  5
110E
330
FFB
100
AcDbEntity
  8
Defpoints
 62
     0
100
AcDbPoint
 10
224.5845141293939
 20
236.3095074444732
 30
0.0
  0
POINT
  5
110F
330
FFB
100
AcDbEntity
  8
Defpoints
 62
     0
100
AcDbPoint
 10
224.5845141293939
 20
217.9294770125489
 30
0.0
  0
ENDBLK
  5
1006
330
FFB
100
AcDbEntity
  8
0
100
AcDbBlockEnd
  0
BLOCK
  5
1012
330
1007
100
AcDbEntity
  8
0
100
AcDbBlockBegin
  2
*D45
 70
     1
 10
0.0
 20
0.0
 30
0.0
  3
*D45
  1

  0
LINE
  5
1205
330
1007
100
AcDbEntity
  8
Dim
100
AcDbLine
 10
200.1380169714011
 20
236.3095074444732
 30
0.0
 11
200.2007826154165
 21
236.3095074444732
 31
0.0
  0
LINE
  5
1206
330
1007
100
AcDbEntity
  8
Dim
100
AcDbLine
 10
204.584514129394
 20
238.3095074444732
 30
0.0
 11
198.2007826154165
 21
238.3095074444732
 31
0.0
  0
LINE
  5
1207
330
1007
100
AcDbEntity
  8
Dim
100
AcDbLine
 10
199.2007826154165
 20
240.3095074444732
 30
0.0
 11
199.2007826154165
 21
242.3095074444732
 31
0.0
  0
LINE
  5
1208
330
1007
100
AcDbEntity
  8
Dim
100
AcDbLine
 10
199.2007826154165
 20
234.3095074444732
 30
0.0
 11
199.2007826154165
 21
228.6428407778065
 31
0.0
  0
LINE
  5
1209
330
1007
100
AcDbEntity
  8
Dim
100
AcDbLine
 10
199.2007826154165
 20
238.3095074444732
 30
0.0
 11
199.2007826154165
 21
236.3095074444732
 31
0.0
  0
SOLID
  5
120A
330
1007
100
AcDbEntity
  8
Dim
100
AcDbTrace
 10
198.8674492820832
 20
240.3095074444732
 30
0.0
 11
199.5341159487499
 21
240.3095074444732
 31
0.0
 12
199.2007826154165
 22
238.3095074444732
 32
0.0
 13
199.2007826154165
 23
238.3095074444732
 33
0.0
  0
SOLID
  5
120B
330
1007
100
AcDbEntity
  8
Dim
100
AcDbTrace
 10
198.8674492820832
 20
234.3095074444732
 30
0.0
 11
199.5341159487499
 21
234.3095074444732
 31
0.0
 12
199.2007826154165
 22
236.3095074444732
 32
0.0
 13
199.2007826154165
 23
236.3095074444732
 33
0.0
  0
MTEXT
  5
120C
330
1007
100
AcDbEntity
  8
Dim
100
AcDbMText
 10
196.9507826154165
 20
230.4761741111399
 30
0.0
 40
2.5
 41
0.0
 71
     5
 72
     1
  1
\A1;2
  7
China
 11
0.0000000000000001
 21
1.0
 31
0.0
 73
     1
 44
1.0
1001
ACAD
1000
MTEXTBEGIN
1070
    73
1070
     1
1070
    44
1040
1.0
1070
    74
1070
     0
1000
MTEXTEND
  0
POINT
  5
120D
330
1007
100
AcDbEntity
  8
Defpoints
 62
     0
100
AcDbPoint
 10
199.1380169714011
 20
236.3095074444732
 30
0.0
  0
POINT
  5
120E
330
1007
100
AcDbEntity
  8
Defpoints
 62
     0
100
AcDbPoint
 10
205.5845141293939
 20
238.3095074444732
 30
0.0
  0
POINT
  5
120F
330
1007
100
AcDbEntity
  8
Defpoints
 62
     0
100
AcDbPoint
 10
199.2007826154165
 20
238.3095074444732
 30
0.0
  0
ENDBLK
  5
1013
330
1007
100
AcDbEntity
  8
0
100
AcDbBlockEnd
  0
BLOCK
  5
101E
330
1014
100
AcDbEntity
  8
0
100
AcDbBlockBegin
  2
*D46
 70
     1
 10
0.0
 20
0.0
 30
0.0
  3
*D46
  1

  0
LINE
  5
15D2
330
1014
100
AcDbEntity
  8
AM_5
100
AcDbLine
 10
205.5845141293939
 20
235.3095074444732
 30
0.0
 11
205.5845141293939
 21
224.5818305865841
 31
0.0
  0
LINE
  5
15D3
330
1014
100
AcDbEntity
  8
AM_5
100
AcDbLine
 10
222.5845141293939
 20
235.3095074444732
 30
0.0
 11
222.5845141293939
 21
224.5818305865841
 31
0.0
  0
LINE
  5
15D4
330
1014
100
AcDbEntity
  8
AM_5
100
AcDbLine
 10
208.584514129394
 20
226.0818305865841
 30
0.0
 11
219.5845141293939
 21
226.0818305865841
 31
0.0
  0
SOLID
  5
15D5
330
1014
100
AcDbEntity
  8
AM_5
100
AcDbTrace
 10
208.584514129394
 20
226.5818305865841
 30
0.0
 11
208.584514129394
 21
225.5818305865842
 31
0.0
 12
205.5845141293939
 22
226.0818305865841
 32
0.0
 13
205.5845141293939
 23
226.0818305865841
 33
0.0
  0
SOLID
  5
15D6
330
1014
100
AcDbEntity
  8
AM_5
100
AcDbTrace
 10
219.5845141293939
 20
226.5818305865841
 30
0.0
 11
219.5845141293939
 21
225.5818305865842
 31
0.0
 12
222.5845141293939
 22
226.0818305865841
 32
0.0
 13
222.5845141293939
 23
226.0818305865841
 33
0.0
  0
MTEXT
  5
15D7
330
1014
100
AcDbEntity
  8
AM_5
100
AcDbMText
 10
214.0845141293939
 20
229.0757774369779
 30
0.0
 40
3.5
 41
0.0
 71
     5
 72
     1
  1
17{\H2.100000;\S+0.2^ +0.1;}
 73
     1
 44
1.0
1001
ACAD
1000
MTEXTBEGIN
1070
    73
1070
     1
1070
    44
1040
1.0
1070
    74
1070
     0
1000
MTEXTEND
  0
POINT
  5
15D8
330
1014
100
AcDbEntity
  8
Defpoints
 62
     0
100
AcDbPoint
 10
205.5845141293939
 20
236.3095074444732
 30
0.0
  0
POINT
  5
15D9
330
1014
100
AcDbEntity
  8
Defpoints
 62
     0
100
AcDbPoint
 10
222.5845141293939
 20
236.3095074444732
 30
0.0
  0
POINT
  5
15DA
330
1014
100
AcDbEntity
  8
Defpoints
 62
     0
100
AcDbPoint
 10
222.5845141293939
 20
226.0818305865841
 30
0.0
  0
ENDBLK
  5
101F
330
1014
100
AcDbEntity
  8
0
100
AcDbBlockEnd
  0
BLOCK
  5
102A
330
1020
100
AcDbEntity
  8
0
100
AcDbBlockBegin
  2
*D47
 70
     1
 10
0.0
 20
0.0
 30
0.0
  3
*D47
  1

  0
LINE
  5
1123
330
1020
100
AcDbEntity
  8
Dim
100
AcDbLine
 10
238.0845141293939
 20
297.5455074444731
 30
0.0
 11
238.0845141293939
 21
307.0583888350793
 31
0.0
  0
LINE
  5
1124
330
1020
100
AcDbEntity
  8
Dim
100
AcDbLine
 10
265.0845141293939
 20
298.8095074444732
 30
0.0
 11
265.0845141293939
 21
307.0583888350793
 31
0.0
  0
LINE
  5
1125
330
1020
100
AcDbEntity
  8
Dim
100
AcDbLine
 10
240.0845141293939
 20
306.0583888350793
 30
0.0
 11
263.0845141293939
 21
306.0583888350793
 31
0.0
  0
SOLID
  5
1126
330
1020
100
AcDbEntity
  8
Dim
100
AcDbTrace
 10
240.0845141293939
 20
306.3917221684126
 30
0.0
 11
240.0845141293939
 21
305.725055501746
 31
0.0
 12
238.0845141293939
 22
306.0583888350793
 32
0.0
 13
238.0845141293939
 23
306.0583888350793
 33
0.0
  0
SOLID
  5
1127
330
1020
100
AcDbEntity
  8
Dim
100
AcDbTrace
 10
263.0845141293939
 20
306.3917221684126
 30
0.0
 11
263.0845141293939
 21
305.725055501746
 31
0.0
 12
265.0845141293939
 22
306.0583888350793
 32
0.0
 13
265.0845141293939
 23
306.0583888350793
 33
0.0
  0
MTEXT
  5
1128
330
1020
100
AcDbEntity
  8
Dim
100
AcDbMText
 10
251.5845141293939
 20
308.3083888350793
 30
0.0
 40
2.5
 41
0.0
 71
     5
 72
     1
  1
\A1;27
  7
China
 73
     1
 44
1.0
1001
ACAD
1000
MTEXTBEGIN
1070
    73
1070
     1
1070
    44
1040
1.0
1070
    74
1070
     0
1000
MTEXTEND
  0
POINT
  5
1129
330
1020
100
AcDbEntity
  8
Defpoints
 62
     0
100
AcDbPoint
 10
238.0845141293939
 20
296.5455074444731
 30
0.0
  0
POINT
  5
112A
330
1020
100
AcDbEntity
  8
Defpoints
 62
     0
100
AcDbPoint
 10
265.0845141293939
 20
297.8095074444732
 30
0.0
  0
POINT
  5
112B
330
1020
100
AcDbEntity
  8
Defpoints
 62
     0
100
AcDbPoint
 10
265.0845141293939
 20
306.0583888350793
 30
0.0
  0
ENDBLK
  5
102B
330
1020
100
AcDbEntity
  8
0
100
AcDbBlockEnd
  0
BLOCK
  5
1036
330
102C
100
AcDbEntity
  8
0
100
AcDbBlockBegin
  2
*D48
 70
     1
 10
0.0
 20
0.0
 30
0.0
  3
*D48
  1

  0
LINE
  5
112C
330
102C
100
AcDbEntity
  8
Dim
100
AcDbLine
 10
196.0845141293939
 20
291.3085074444732
 30
0.0
 11
196.0845141293939
 21
330.7222119004127
 31
0.0
  0
LINE
  5
112D
330
102C
100
AcDbEntity
  8
Dim
100
AcDbLine
 10
265.0845141293939
 20
323.9038224729384
 30
0.0
 11
265.0845141293939
 21
330.7222119004127
 31
0.0
  0
LINE
  5
112E
330
102C
100
AcDbEntity
  8
Dim
100
AcDbLine
 10
198.0845141293939
 20
329.7222119004127
 30
0.0
 11
263.0845141293939
 21
329.7222119004127
 31
0.0
  0
SOLID
  5
112F
330
102C
100
AcDbEntity
  8
Dim
100
AcDbTrace
 10
198.0845141293939
 20
330.055545233746
 30
0.0
 11
198.0845141293939
 21
329.3888785670794
 31
0.0
 12
196.0845141293939
 22
329.7222119004127
 32
0.0
 13
196.0845141293939
 23
329.7222119004127
 33
0.0
  0
SOLID
  5
1130
330
102C
100
AcDbEntity
  8
Dim
100
AcDbTrace
 10
263.0845141293939
 20
330.055545233746
 30
0.0
 11
263.0845141293939
 21
329.3888785670794
 31
0.0
 12
265.0845141293939
 22
329.7222119004127
 32
0.0
 13
265.0845141293939
 23
329.7222119004127
 33
0.0
  0
MTEXT
  5
1131
330
102C
100
AcDbEntity
  8
Dim
100
AcDbMText
 10
230.5845141293939
 20
331.9722119004127
 30
0.0
 40
2.5
 41
0.0
 71
     5
 72
     1
  1
\A1;69
  7
China
 73
     1
 44
1.0
1001
ACAD
1000
MTEXTBEGIN
1070
    73
1070
     1
1070
    44
1040
1.0
1070
    74
1070
     0
1000
MTEXTEND
  0
POINT
  5
1132
330
102C
100
AcDbEntity
  8
Defpoints
 62
     0
100
AcDbPoint
 10
196.0845141293939
 20
290.3085074444732
 30
0.0
  0
POINT
  5
1133
330
102C
100
AcDbEntity
  8
Defpoints
 62
     0
100
AcDbPoint
 10
265.0845141293939
 20
322.9038224729384
 30
0.0
  0
POINT
  5
1134
330
102C
100
AcDbEntity
  8
Defpoints
 62
     0
100
AcDbPoint
 10
265.0845141293939
 20
329.7222119004127
 30
0.0
  0
ENDBLK
  5
1037
330
102C
100
AcDbEntity
  8
0
100
AcDbBlockEnd
  0
BLOCK
  5
1042
330
1038
100
AcDbEntity
  8
0
100
AcDbBlockBegin
  2
*D49
 70
     1
 10
0.0
 20
0.0
 30
0.0
  3
*D49
  1

  0
LINE
  5
1135
330
1038
100
AcDbEntity
  8
Dim
100
AcDbLine
 10
225.084514129394
 20
298.8095074444732
 30
0.0
 11
225.084514129394
 21
315.0800218199329
 31
0.0
  0
LINE
  5
1136
330
1038
100
AcDbEntity
  8
Dim
100
AcDbLine
 10
265.0845141293939
 20
307.0583888350793
 30
0.0
 11
265.0845141293939
 21
315.0800218199329
 31
0.0
  0
LINE
  5
1137
330
1038
100
AcDbEntity
  8
Dim
100
AcDbLine
 10
227.0845141293939
 20
314.0800218199329
 30
0.0
 11
263.0845141293939
 21
314.0800218199329
 31
0.0
  0
SOLID
  5
1138
330
1038
100
AcDbEntity
  8
Dim
100
AcDbTrace
 10
227.0845141293939
 20
314.4133551532662
 30
0.0
 11
227.0845141293939
 21
313.7466884865996
 31
0.0
 12
225.084514129394
 22
314.0800218199329
 32
0.0
 13
225.084514129394
 23
314.0800218199329
 33
0.0
  0
SOLID
  5
1139
330
1038
100
AcDbEntity
  8
Dim
100
AcDbTrace
 10
263.0845141293939
 20
314.4133551532662
 30
0.0
 11
263.0845141293939
 21
313.7466884865996
 31
0.0
 12
265.0845141293939
 22
314.0800218199329
 32
0.0
 13
265.0845141293939
 23
314.0800218199329
 33
0.0
  0
MTEXT
  5
113A
330
1038
100
AcDbEntity
  8
Dim
100
AcDbMText
 10
245.0845141293939
 20
316.3300218199329
 30
0.0
 40
2.5
 41
0.0
 71
     5
 72
     1
  1
\A1;40
  7
China
 73
     1
 44
1.0
1001
ACAD
1000
MTEXTBEGIN
1070
    73
1070
     1
1070
    44
1040
1.0
1070
    74
1070
     0
1000
MTEXTEND
  0
POINT
  5
113B
330
1038
100
AcDbEntity
  8
Defpoints
 62
     0
100
AcDbPoint
 10
225.084514129394
 20
297.8095074444732
 30
0.0
  0
POINT
  5
113C
330
1038
100
AcDbEntity
  8
Defpoints
 62
     0
100
AcDbPoint
 10
265.0845141293939
 20
306.0583888350793
 30
0.0
  0
POINT
  5
113D
330
1038
100
AcDbEntity
  8
Defpoints
 62
     0
100
AcDbPoint
 10
265.0845141293939
 20
314.0800218199329
 30
0.0
  0
ENDBLK
  5
1043
330
1038
100
AcDbEntity
  8
0
100
AcDbBlockEnd
  0
BLOCK
  5
104E
330
1044
100
AcDbEntity
  8
0
100
AcDbBlockBegin
  2
*D50
 70
     1
 10
0.0
 20
0.0
 30
0.0
  3
*D50
  1

  0
LINE
  5
113E
330
1044
100
AcDbEntity
  8
Dim
100
AcDbLine
 10
200.9845141293939
 20
287.3095074444732
 30
0.0
 11
184.6234733486462
 21
287.3095074444732
 31
0.0
  0
LINE
  5
113F
330
1044
100
AcDbEntity
  8
Dim
100
AcDbLine
 10
201.8565141293939
 20
263.3095074444732
 30
0.0
 11
184.6234733486462
 21
263.3095074444732
 31
0.0
  0
LINE
  5
1140
330
1044
100
AcDbEntity
  8
Dim
100
AcDbLine
 10
185.6234733486462
 20
285.3095074444732
 30
0.0
 11
185.6234733486462
 21
265.3095074444732
 31
0.0
  0
SOLID
  5
1141
330
1044
100
AcDbEntity
  8
Dim
100
AcDbTrace
 10
185.2901400153129
 20
285.3095074444732
 30
0.0
 11
185.9568066819796
 21
285.3095074444732
 31
0.0
 12
185.6234733486462
 22
287.3095074444732
 32
0.0
 13
185.6234733486462
 23
287.3095074444732
 33
0.0
  0
SOLID
  5
1142
330
1044
100
AcDbEntity
  8
Dim
100
AcDbTrace
 10
185.2901400153129
 20
265.3095074444732
 30
0.0
 11
185.9568066819796
 21
265.3095074444732
 31
0.0
 12
185.6234733486462
 22
263.3095074444732
 32
0.0
 13
185.6234733486462
 23
263.3095074444732
 33
0.0
  0
MTEXT
  5
1143
330
1044
100
AcDbEntity
  8
Dim
100
AcDbMText
 10
183.3734733486462
 20
275.3095074444733
 30
0.0
 40
2.5
 41
0.0
 71
     5
 72
     1
  1
\A1;24
  7
China
 11
0.0000000000000001
 21
1.0
 31
0.0
 73
     1
 44
1.0
1001
ACAD
1000
MTEXTBEGIN
1070
    73
1070
     1
1070
    44
1040
1.0
1070
    74
1070
     0
1000
MTEXTEND
  0
POINT
  5
1144
330
1044
100
AcDbEntity
  8
Defpoints
 62
     0
100
AcDbPoint
 10
201.9845141293939
 20
287.3095074444732
 30
0.0
  0
POINT
  5
1145
330
1044
100
AcDbEntity
  8
Defpoints
 62
     0
100
AcDbPoint
 10
202.8565141293939
 20
263.3095074444732
 30
0.0
  0
POINT
  5
1146
330
1044
100
AcDbEntity
  8
Defpoints
 62
     0
100
AcDbPoint
 10
185.6234733486462
 20
263.3095074444732
 30
0.0
  0
ENDBLK
  5
104F
330
1044
100
AcDbEntity
  8
0
100
AcDbBlockEnd
  0
BLOCK
  5
105A
330
1050
100
AcDbEntity
  8
0
100
AcDbBlockBegin
  2
*D51
 70
     1
 10
0.0
 20
0.0
 30
0.0
  3
*D51
  1

  0
LINE
  5
1147
330
1050
100
AcDbEntity
  8
Dim
100
AcDbLine
 10
214.0845141293939
 20
316.2205074444732
 30
0.0
 11
214.0845141293939
 21
323.9038224729384
 31
0.0
  0
LINE
  5
1148
330
1050
100
AcDbEntity
  8
Dim
100
AcDbLine
 10
265.0845141293939
 20
315.0800218199329
 30
0.0
 11
265.0845141293939
 21
323.9038224729384
 31
0.0
  0
LINE
  5
1149
330
1050
100
AcDbEntity
  8
Dim
100
AcDbLine
 10
216.0845141293939
 20
322.9038224729384
 30
0.0
 11
263.0845141293939
 21
322.9038224729384
 31
0.0
  0
SOLID
  5
114A
330
1050
100
AcDbEntity
  8
Dim
100
AcDbTrace
 10
216.0845141293939
 20
323.2371558062717
 30
0.0
 11
216.0845141293939
 21
322.5704891396051
 31
0.0
 12
214.0845141293939
 22
322.9038224729384
 32
0.0
 13
214.0845141293939
 23
322.9038224729384
 33
0.0
  0
SOLID
  5
114B
330
1050
100
AcDbEntity
  8
Dim
100
AcDbTrace
 10
263.0845141293939
 20
323.2371558062717
 30
0.0
 11
263.0845141293939
 21
322.5704891396051
 31
0.0
 12
265.0845141293939
 22
322.9038224729384
 32
0.0
 13
265.0845141293939
 23
322.9038224729384
 33
0.0
  0
MTEXT
  5
114C
330
1050
100
AcDbEntity
  8
Dim
100
AcDbMText
 10
239.5845141293939
 20
325.1538224729384
 30
0.0
 40
2.5
 41
0.0
 71
     5
 72
     1
  1
\A1;51
  7
China
 73
     1
 44
1.0
1001
ACAD
1000
MTEXTBEGIN
1070
    73
1070
     1
1070
    44
1040
1.0
1070
    74
1070
     0
1000
MTEXTEND
  0
POINT
  5
114D
330
1050
100
AcDbEntity
  8
Defpoints
 62
     0
100
AcDbPoint
 10
214.0845141293939
 20
315.2205074444732
 30
0.0
  0
POINT
  5
114E
330
1050
100
AcDbEntity
  8
Defpoints
 62
     0
100
AcDbPoint
 10
265.0845141293939
 20
314.0800218199329
 30
0.0
  0
POINT
  5
114F
330
1050
100
AcDbEntity
  8
Defpoints
 62
     0
100
AcDbPoint
 10
265.0845141293939
 20
322.9038224729384
 30
0.0
  0
ENDBLK
  5
105B
330
1050
100
AcDbEntity
  8
0
100
AcDbBlockEnd
  0
BLOCK
  5
1066
330
105C
100
AcDbEntity
  8
0
100
AcDbBlockBegin
  2
*D52
 70
     1
 10
0.0
 20
0.0
 30
0.0
  3
*D52
  1

  0
LINE
  5
153D
330
105C
100
AcDbEntity
  8
Dim
100
AcDbLine
 10
245.0845141293939
 20
362.5867578263596
 30
0.0
 11
245.0845141293939
 21
348.5818742390434
 31
0.0
  0
LINE
  5
153E
330
105C
100
AcDbEntity
  8
Dim
100
AcDbLine
 10
265.0845141293939
 20
360.5818742390434
 30
0.0
 11
265.0845141293939
 21
348.5818742390434
 31
0.0
  0
LINE
  5
153F
330
105C
100
AcDbEntity
  8
Dim
100
AcDbLine
 10
247.0845141293939
 20
349.5818742390434
 30
0.0
 11
263.0845141293939
 21
349.5818742390434
 31
0.0
  0
SOLID
  5
1540
330
105C
100
AcDbEntity
  8
Dim
100
AcDbTrace
 10
247.0845141293939
 20
349.9152075723767
 30
0.0
 11
247.0845141293939
 21
349.24854090571
 31
0.0
 12
245.0845141293939
 22
349.5818742390434
 32
0.0
 13
245.0845141293939
 23
349.5818742390434
 33
0.0
  0
SOLID
  5
1541
330
105C
100
AcDbEntity
  8
Dim
100
AcDbTrace
 10
263.0845141293939
 20
349.9152075723767
 30
0.0
 11
263.0845141293939
 21
349.24854090571
 31
0.0
 12
265.0845141293939
 22
349.5818742390434
 32
0.0
 13
265.0845141293939
 23
349.5818742390434
 33
0.0
  0
MTEXT
  5
1542
330
105C
100
AcDbEntity
  8
Dim
100
AcDbMText
 10
255.0845141293939
 20
351.8318742390434
 30
0.0
 40
2.5
 41
0.0
 71
     5
 72
     1
  1
\A1;20
  7
China
 73
     1
 44
1.0
1001
ACAD
1000
MTEXTBEGIN
1070
    73
1070
     1
1070
    44
1040
1.0
1070
    74
1070
     0
1000
MTEXTEND
  0
POINT
  5
1543
330
105C
100
AcDbEntity
  8
Defpoints
 62
     0
100
AcDbPoint
 10
245.0845141293939
 20
363.5867578263596
 30
0.0
  0
POINT
  5
1544
330
105C
100
AcDbEntity
  8
Defpoints
 62
     0
100
AcDbPoint
 10
265.0845141293939
 20
361.5818742390434
 30
0.0
  0
POINT
  5
1545
330
105C
100
AcDbEntity
  8
Defpoints
 62
     0
100
AcDbPoint
 10
265.0845141293939
 20
349.5818742390434
 30
0.0
  0
ENDBLK
  5
1067
330
105C
100
AcDbEntity
  8
0
100
AcDbBlockEnd
  0
BLOCK
  5
1072
330
1068
100
AcDbEntity
  8
0
100
AcDbBlockBegin
  2
*D53
 70
     1
 10
0.0
 20
0.0
 30
0.0
  3
*D53
  1

  0
LINE
  5
1232
330
1068
100
AcDbEntity
  8
Dim
100
AcDbLine
 10
335.2614882341159
 20
251.3065074444731
 30
0.0
 11
335.2614882341159
 21
214.9588761472132
 31
0.0
  0
LINE
  5
1233
330
1068
100
AcDbEntity
  8
Dim
100
AcDbLine
 10
375.2614882341159
 20
251.3065074444731
 30
0.0
 11
375.2614882341159
 21
214.9588761472132
 31
0.0
  0
LINE
  5
1234
330
1068
100
AcDbEntity
  8
Dim
100
AcDbLine
 10
337.2614882341159
 20
215.9588761472132
 30
0.0
 11
373.2614882341159
 21
215.9588761472132
 31
0.0
  0
SOLID
  5
1235
330
1068
100
AcDbEntity
  8
Dim
100
AcDbTrace
 10
337.2614882341159
 20
216.2922094805466
 30
0.0
 11
337.2614882341159
 21
215.6255428138799
 31
0.0
 12
335.2614882341159
 22
215.9588761472132
 32
0.0
 13
335.2614882341159
 23
215.9588761472132
 33
0.0
  0
SOLID
  5
1236
330
1068
100
AcDbEntity
  8
Dim
100
AcDbTrace
 10
373.2614882341159
 20
216.2922094805466
 30
0.0
 11
373.2614882341159
 21
215.6255428138799
 31
0.0
 12
375.2614882341159
 22
215.9588761472132
 32
0.0
 13
375.2614882341159
 23
215.9588761472132
 33
0.0
  0
MTEXT
  5
1237
330
1068
100
AcDbEntity
  8
Dim
100
AcDbMText
 10
355.2614882341158
 20
218.2088761472132
 30
0.0
 40
2.5
 41
0.0
 71
     5
 72
     1
  1
\A1;40
  7
China
 73
     1
 44
1.0
1001
ACAD
1000
MTEXTBEGIN
1070
    73
1070
     1
1070
    44
1040
1.0
1070
    74
1070
     0
1000
MTEXTEND
  0
POINT
  5
1238
330
1068
100
AcDbEntity
  8
Defpoints
 62
     0
100
AcDbPoint
 10
335.2614882341159
 20
252.3065074444732
 30
0.0
  0
POINT
  5
1239
330
1068
100
AcDbEntity
  8
Defpoints
 62
     0
100
AcDbPoint
 10
375.2614882341159
 20
252.3065074444732
 30
0.0
  0
POINT
  5
123A
330
1068
100
AcDbEntity
  8
Defpoints
 62
     0
100
AcDbPoint
 10
375.2614882341159
 20
215.9588761472132
 30
0.0
  0
ENDBLK
  5
1073
330
1068
100
AcDbEntity
  8
0
100
AcDbBlockEnd
  0
BLOCK
  5
107E
330
1074
100
AcDbEntity
  8
0
100
AcDbBlockBegin
  2
*D54
 70
     1
 10
0.0
 20
0.0
 30
0.0
  3
*D54
  1

  0
LINE
  5
123B
330
1074
100
AcDbEntity
  8
Dim
100
AcDbLine
 10
340.2614882341159
 20
254.3475074444732
 30
0.0
 11
340.2614882341159
 21
223.5047500581422
 31
0.0
  0
LINE
  5
123C
330
1074
100
AcDbEntity
  8
Dim
100
AcDbLine
 10
370.2614882341159
 20
284.7545074444732
 30
0.0
 11
370.2614882341159
 21
223.5047500581422
 31
0.0
  0
LINE
  5
123D
330
1074
100
AcDbEntity
  8
Dim
100
AcDbLine
 10
342.2614882341159
 20
224.5047500581422
 30
0.0
 11
368.2614882341159
 21
224.5047500581422
 31
0.0
  0
SOLID
  5
123E
330
1074
100
AcDbEntity
  8
Dim
100
AcDbTrace
 10
342.2614882341159
 20
224.8380833914756
 30
0.0
 11
342.2614882341159
 21
224.1714167248089
 31
0.0
 12
340.2614882341159
 22
224.5047500581422
 32
0.0
 13
340.2614882341159
 23
224.5047500581422
 33
0.0
  0
SOLID
  5
123F
330
1074
100
AcDbEntity
  8
Dim
100
AcDbTrace
 10
368.2614882341159
 20
224.8380833914756
 30
0.0
 11
368.2614882341159
 21
224.1714167248089
 31
0.0
 12
370.2614882341159
 22
224.5047500581422
 32
0.0
 13
370.2614882341159
 23
224.5047500581422
 33
0.0
  0
MTEXT
  5
1240
330
1074
100
AcDbEntity
  8
Dim
100
AcDbMText
 10
355.2614882341158
 20
226.7547500581422
 30
0.0
 40
2.5
 41
0.0
 71
     5
 72
     1
  1
\A1;30
  7
China
 73
     1
 44
1.0
1001
ACAD
1000
MTEXTBEGIN
1070
    73
1070
     1
1070
    44
1040
1.0
1070
    74
1070
     0
1000
MTEXTEND
  0
POINT
  5
1241
330
1074
100
AcDbEntity
  8
Defpoints
 62
     0
100
AcDbPoint
 10
340.2614882341159
 20
255.3475074444732
 30
0.0
  0
POINT
  5
1242
330
1074
100
AcDbEntity
  8
Defpoints
 62
     0
100
AcDbPoint
 10
370.2614882341159
 20
285.7545074444733
 30
0.0
  0
POINT
  5
1243
330
1074
100
AcDbEntity
  8
Defpoints
 62
     0
100
AcDbPoint
 10
370.2614882341159
 20
224.5047500581422
 30
0.0
  0
ENDBLK
  5
107F
330
1074
100
AcDbEntity
  8
0
100
AcDbBlockEnd
  0
BLOCK
  5
108A
330
1080
100
AcDbEntity
  8
0
100
AcDbBlockBegin
  2
*D55
 70
     1
 10
0.0
 20
0.0
 30
0.0
  3
*D55
  1

  0
LINE
  5
1244
330
1080
100
AcDbEntity
  8
Dim
100
AcDbLine
 10
346.2884882341159
 20
260.3065074444732
 30
0.0
 11
391.8142209372108
 21
260.3065074444731
 31
0.0
  0
LINE
  5
1245
330
1080
100
AcDbEntity
  8
Dim
100
AcDbLine
 10
375.6424882341158
 20
290.3065074444732
 30
0.0
 11
391.8142209372108
 21
290.3065074444732
 31
0.0
  0
LINE
  5
1246
330
1080
100
AcDbEntity
  8
Dim
100
AcDbLine
 10
390.8142209372109
 20
262.3065074444731
 30
0.0
 11
390.8142209372109
 21
288.3065074444732
 31
0.0
  0
SOLID
  5
1247
330
1080
100
AcDbEntity
  8
Dim
100
AcDbTrace
 10
390.4808876038775
 20
262.3065074444731
 30
0.0
 11
391.1475542705442
 21
262.3065074444731
 31
0.0
 12
390.8142209372109
 22
260.3065074444731
 32
0.0
 13
390.8142209372109
 23
260.3065074444731
 33
0.0
  0
SOLID
  5
1248
330
1080
100
AcDbEntity
  8
Dim
100
AcDbTrace
 10
390.4808876038775
 20
288.3065074444732
 30
0.0
 11
391.1475542705442
 21
288.3065074444732
 31
0.0
 12
390.8142209372109
 22
290.3065074444732
 32
0.0
 13
390.8142209372109
 23
290.3065074444732
 33
0.0
  0
MTEXT
  5
1249
330
1080
100
AcDbEntity
  8
Dim
100
AcDbMText
 10
388.5642209372108
 20
275.3065074444732
 30
0.0
 40
2.5
 41
0.0
 71
     5
 72
     1
  1
\A1;30
  7
China
 11
0.0000000000000001
 21
1.0
 31
0.0
 73
     1
 44
1.0
1001
ACAD
1000
MTEXTBEGIN
1070
    73
1070
     1
1070
    44
1040
1.0
1070
    74
1070
     0
1000
MTEXTEND
  0
POINT
  5
124A
330
1080
100
AcDbEntity
  8
Defpoints
 62
     0
100
AcDbPoint
 10
345.2884882341158
 20
260.3065074444732
 30
0.0
  0
POINT
  5
124B
330
1080
100
AcDbEntity
  8
Defpoints
 62
     0
100
AcDbPoint
 10
374.6424882341159
 20
290.3065074444732
 30
0.0
  0
POINT
  5
124C
330
1080
100
AcDbEntity
  8
Defpoints
 62
     0
100
AcDbPoint
 10
390.8142209372109
 20
290.3065074444732
 30
0.0
  0
ENDBLK
  5
108B
330
1080
100
AcDbEntity
  8
0
100
AcDbBlockEnd
  0
BLOCK
  5
11DA
330
11D9
100
AcDbEntity
  8
0
100
AcDbBlockBegin
  2
*U59
 70
     1
 10
0.0
 20
0.0
 30
0.0
  3
*U59
  1

  0
ENDBLK
  5
11DB
330
11D9
100
AcDbEntity
  8
0
100
AcDbBlockEnd
  0
BLOCK
  5
12EF
330
12E5
100
AcDbEntity
  8
0
100
AcDbBlockBegin
  2
*D60
 70
     1
 10
0.0
 20
0.0
 30
0.0
  3
*D60
  1

  0
LINE
  5
1622
330
12E5
100
AcDbEntity
  8
Dim
100
AcDbLine
 10
642.7393884343175
 20
324.3065074444733
 30
0.0
 11
594.550072661819
 21
324.3065074444733
 31
0.0
  0
LINE
  5
1623
330
12E5
100
AcDbEntity
  8
Dim
100
AcDbLine
 10
626.1393884343174
 20
287.3065074444731
 30
0.0
 11
594.550072661819
 21
287.3065074444731
 31
0.0
  0
LINE
  5
1624
330
12E5
100
AcDbEntity
  8
Dim
100
AcDbLine
 10
595.550072661819
 20
322.3065074444733
 30
0.0
 11
595.550072661819
 21
289.3065074444731
 31
0.0
  0
SOLID
  5
1625
330
12E5
100
AcDbEntity
  8
Dim
100
AcDbTrace
 10
595.2167393284857
 20
322.3065074444733
 30
0.0
 11
595.8834059951524
 21
322.3065074444733
 31
0.0
 12
595.550072661819
 22
324.3065074444733
 32
0.0
 13
595.550072661819
 23
324.3065074444733
 33
0.0
  0
SOLID
  5
1626
330
12E5
100
AcDbEntity
  8
Dim
100
AcDbTrace
 10
595.2167393284857
 20
289.3065074444731
 30
0.0
 11
595.8834059951524
 21
289.3065074444731
 31
0.0
 12
595.550072661819
 22
287.3065074444731
 32
0.0
 13
595.550072661819
 23
287.3065074444731
 33
0.0
  0
MTEXT
  5
1627
330
12E5
100
AcDbEntity
  8
Dim
100
AcDbMText
 10
593.3000726618189
 20
305.8065074444733
 30
0.0
 40
2.5
 41
0.0
 71
     5
 72
     1
  1
\A1;37
  7
China
 11
0.0000000000000001
 21
1.0
 31
0.0
 73
     1
 44
1.0
1001
ACAD
1000
MTEXTBEGIN
1070
    73
1070
     1
1070
    44
1040
1.0
1070
    74
1070
     0
1000
MTEXTEND
  0
POINT
  5
1628
330
12E5
100
AcDbEntity
  8
Defpoints
 62
     0
100
AcDbPoint
 10
643.7393884343175
 20
324.3065074444733
 30
0.0
  0
POINT
  5
1629
330
12E5
100
AcDbEntity
  8
Defpoints
 62
     0
100
AcDbPoint
 10
627.1393884343174
 20
287.3065074444731
 30
0.0
  0
POINT
  5
162A
330
12E5
100
AcDbEntity
  8
Defpoints
 62
     0
100
AcDbPoint
 10
595.550072661819
 20
287.3065074444731
 30
0.0
  0
ENDBLK
  5
12F0
330
12E5
100
AcDbEntity
  8
0
100
AcDbBlockEnd
  0
BLOCK
  5
1315
330
130B
100
AcDbEntity
  8
0
100
AcDbBlockBegin
  2
*D61
 70
     1
 10
0.0
 20
0.0
 30
0.0
  3
*D61
  1

  0
LINE
  5
162B
330
130B
100
AcDbEntity
  8
Dim
100
AcDbLine
 10
642.7393884343175
 20
324.3065074444733
 30
0.0
 11
615.7393884343175
 21
324.3065074444733
 31
0.0
  0
LINE
  5
162C
330
130B
100
AcDbEntity
  8
Dim
100
AcDbLine
 10
627.7393884343175
 20
312.3065074444733
 30
0.0
 11
615.7393884343175
 21
312.3065074444733
 31
0.0
  0
LINE
  5
162D
330
130B
100
AcDbEntity
  8
Dim
100
AcDbLine
 10
616.7393884343176
 20
322.3065074444733
 30
0.0
 11
616.7393884343176
 21
314.3065074444733
 31
0.0
  0
SOLID
  5
162E
330
130B
100
AcDbEntity
  8
Dim
100
AcDbTrace
 10
616.4060551009842
 20
322.3065074444733
 30
0.0
 11
617.0727217676509
 21
322.3065074444733
 31
0.0
 12
616.7393884343176
 22
324.3065074444733
 32
0.0
 13
616.7393884343176
 23
324.3065074444733
 33
0.0
  0
SOLID
  5
162F
330
130B
100
AcDbEntity
  8
Dim
100
AcDbTrace
 10
616.4060551009842
 20
314.3065074444733
 30
0.0
 11
617.0727217676509
 21
314.3065074444733
 31
0.0
 12
616.7393884343176
 22
312.3065074444733
 32
0.0
 13
616.7393884343176
 23
312.3065074444733
 33
0.0
  0
MTEXT
  5
1630
330
130B
100
AcDbEntity
  8
Dim
100
AcDbMText
 10
614.4893884343174
 20
318.3065074444733
 30
0.0
 40
2.5
 41
0.0
 71
     5
 72
     1
  1
\A1;12
  7
China
 11
0.0000000000000001
 21
1.0
 31
0.0
 73
     1
 44
1.0
1001
ACAD
1000
MTEXTBEGIN
1070
    73
1070
     1
1070
    44
1040
1.0
1070
    74
1070
     0
1000
MTEXTEND
  0
POINT
  5
1631
330
130B
100
AcDbEntity
  8
Defpoints
 62
     0
100
AcDbPoint
 10
643.7393884343175
 20
324.3065074444733
 30
0.0
  0
POINT
  5
1632
330
130B
100
AcDbEntity
  8
Defpoints
 62
     0
100
AcDbPoint
 10
628.7393884343175
 20
312.3065074444733
 30
0.0
  0
POINT
  5
1633
330
130B
100
AcDbEntity
  8
Defpoints
 62
     0
100
AcDbPoint
 10
616.7393884343176
 20
312.3065074444733
 30
0.0
  0
ENDBLK
  5
1316
330
130B
100
AcDbEntity
  8
0
100
AcDbBlockEnd
  0
BLOCK
  5
133D
330
1331
100
AcDbEntity
  8
0
100
AcDbBlockBegin
  2
*D62
 70
     1
 10
0.0
 20
0.0
 30
0.0
  3
*D62
  1

  0
LINE
  5
1634
330
1331
100
AcDbEntity
  8
Dim
100
AcDbLine
 10
643.7393884343175
 20
325.3065074444732
 30
0.0
 11
643.7393884343175
 21
333.0800451674412
 31
0.0
  0
LINE
  5
1635
330
1331
100
AcDbEntity
  8
Dim
100
AcDbLine
 10
649.7393884343175
 20
325.3065074444732
 30
0.0
 11
649.7393884343175
 21
333.0800451674412
 31
0.0
  0
LINE
  5
1636
330
1331
100
AcDbEntity
  8
Dim
100
AcDbLine
 10
641.7393884343176
 20
332.0800451674412
 30
0.0
 11
639.7393884343175
 21
332.0800451674412
 31
0.0
  0
LINE
  5
1637
330
1331
100
AcDbEntity
  8
Dim
100
AcDbLine
 10
651.7393884343175
 20
332.0800451674412
 30
0.0
 11
653.7393884343175
 21
332.0800451674412
 31
0.0
  0
LINE
  5
1638
330
1331
100
AcDbEntity
  8
Dim
100
AcDbLine
 10
643.7393884343175
 20
332.0800451674412
 30
0.0
 11
649.7393884343175
 21
332.0800451674412
 31
0.0
  0
SOLID
  5
1639
330
1331
100
AcDbEntity
  8
Dim
100
AcDbTrace
 10
641.7393884343176
 20
332.4133785007745
 30
0.0
 11
641.7393884343176
 21
331.7467118341079
 31
0.0
 12
643.7393884343175
 22
332.0800451674412
 32
0.0
 13
643.7393884343175
 23
332.0800451674412
 33
0.0
  0
SOLID
  5
163A
330
1331
100
AcDbEntity
  8
Dim
100
AcDbTrace
 10
651.7393884343175
 20
332.4133785007745
 30
0.0
 11
651.7393884343175
 21
331.7467118341079
 31
0.0
 12
649.7393884343175
 22
332.0800451674412
 32
0.0
 13
649.7393884343175
 23
332.0800451674412
 33
0.0
  0
MTEXT
  5
163B
330
1331
100
AcDbEntity
  8
Dim
100
AcDbMText
 10
646.7393884343175
 20
334.3300451674412
 30
0.0
 40
2.5
 41
0.0
 71
     5
 72
     1
  1
\A1;6
  7
China
 73
     1
 44
1.0
1001
ACAD
1000
MTEXTBEGIN
1070
    73
1070
     1
1070
    44
1040
1.0
1070
    74
1070
     0
1000
MTEXTEND
  0
POINT
  5
163C
330
1331
100
AcDbEntity
  8
Defpoints
 62
     0
100
AcDbPoint
 10
643.7393884343175
 20
324.3065074444733
 30
0.0
  0
POINT
  5
163D
330
1331
100
AcDbEntity
  8
Defpoints
 62
     0
100
AcDbPoint
 10
649.7393884343175
 20
324.3065074444733
 30
0.0
  0
POINT
  5
163E
330
1331
100
AcDbEntity
  8
Defpoints
 62
     0
100
AcDbPoint
 10
649.7393884343175
 20
332.0800451674412
 30
0.0
  0
ENDBLK
  5
133E
330
1331
100
AcDbEntity
  8
0
100
AcDbBlockEnd
  0
BLOCK
  5
1365
330
135B
100
AcDbEntity
  8
0
100
AcDbBlockBegin
  2
*D63
 70
     1
 10
0.0
 20
0.0
 30
0.0
  3
*D63
  1

  0
LINE
  5
16AA
330
135B
100
AcDbEntity
  8
Dim
100
AcDbLine
 10
642.7393884343175
 20
324.3065074444733
 30
0.0
 11
607.7393884343175
 21
324.3065074444733
 31
0.0
  0
LINE
  5
16AB
330
135B
100
AcDbEntity
  8
Dim
100
AcDbLine
 10
627.7393884343175
 20
306.3065074444732
 30
0.0
 11
607.7393884343175
 21
306.3065074444732
 31
0.0
  0
LINE
  5
16AC
330
135B
100
AcDbEntity
  8
Dim
100
AcDbLine
 10
608.7393884343176
 20
322.3065074444733
 30
0.0
 11
608.7393884343176
 21
308.3065074444732
 31
0.0
  0
SOLID
  5
16AD
330
135B
100
AcDbEntity
  8
Dim
100
AcDbTrace
 10
608.4060551009842
 20
322.3065074444733
 30
0.0
 11
609.0727217676509
 21
322.3065074444733
 31
0.0
 12
608.7393884343176
 22
324.3065074444733
 32
0.0
 13
608.7393884343176
 23
324.3065074444733
 33
0.0
  0
SOLID
  5
16AE
330
135B
100
AcDbEntity
  8
Dim
100
AcDbTrace
 10
608.4060551009842
 20
308.3065074444732
 30
0.0
 11
609.0727217676509
 21
308.3065074444732
 31
0.0
 12
608.7393884343176
 22
306.3065074444732
 32
0.0
 13
608.7393884343176
 23
306.3065074444732
 33
0.0
  0
MTEXT
  5
16AF
330
135B
100
AcDbEntity
  8
Dim
100
AcDbMText
 10
606.4893884343174
 20
315.3065074444733
 30
0.0
 40
2.5
 41
0.0
 71
     5
 72
     1
  1
\A1;18
  7
China
 11
0.0000000000000001
 21
1.0
 31
0.0
 73
     1
 44
1.0
1001
ACAD
1000
MTEXTBEGIN
1070
    73
1070
     1
1070
    44
1040
1.0
1070
    74
1070
     0
1000
MTEXTEND
  0
POINT
  5
16B0
330
135B
100
AcDbEntity
  8
Defpoints
 62
     0
100
AcDbPoint
 10
643.7393884343175
 20
324.3065074444733
 30
0.0
  0
POINT
  5
16B1
330
135B
100
AcDbEntity
  8
Defpoints
 62
     0
100
AcDbPoint
 10
628.7393884343175
 20
306.3065074444732
 30
0.0
  0
POINT
  5
16B2
330
135B
100
AcDbEntity
  8
Defpoints
 62
     0
100
AcDbPoint
 10
608.7393884343176
 20
306.3065074444732
 30
0.0
  0
ENDBLK
  5
1366
330
135B
100
AcDbEntity
  8
0
100
AcDbBlockEnd
  0
BLOCK
  5
159D
330
1591
100
AcDbEntity
  8
0
100
AcDbBlockBegin
  2
*D66
 70
     1
 10
0.0
 20
0.0
 30
0.0
  3
*D66
  1

  0
LINE
  5
159F
330
1591
100
AcDbEntity
  8
AM_5
100
AcDbLine
 10
231.5423775931856
 20
237.219592040265
 30
0.0
 11
231.5423775931856
 21
232.6275835319276
 31
0.0
  0
LINE
  5
15A0
330
1591
100
AcDbEntity
  8
AM_5
100
AcDbLine
 10
237.5472348798037
 20
237.219592040265
 30
0.0
 11
237.5472348798037
 21
232.6275835319276
 31
0.0
  0
LINE
  5
15A1
330
1591
100
AcDbEntity
  8
AM_5
100
AcDbLine
 10
228.5423775931856
 20
234.1275835319276
 30
0.0
 11
225.5423775931856
 21
234.1275835319276
 31
0.0
  0
LINE
  5
15A2
330
1591
100
AcDbEntity
  8
AM_5
100
AcDbLine
 10
240.5472348798037
 20
234.1275835319276
 30
0.0
 11
243.5472348798037
 21
234.1275835319276
 31
0.0
  0
LINE
  5
15A3
330
1591
100
AcDbEntity
  8
AM_5
100
AcDbLine
 10
231.5423775931856
 20
234.1275835319276
 30
0.0
 11
237.5472348798037
 21
234.1275835319276
 31
0.0
  0
SOLID
  5
15A4
330
1591
100
AcDbEntity
  8
AM_5
100
AcDbTrace
 10
228.5423775931856
 20
234.6275835319276
 30
0.0
 11
228.5423775931856
 21
233.6275835319276
 31
0.0
 12
231.5423775931856
 22
234.1275835319276
 32
0.0
 13
231.5423775931856
 23
234.1275835319276
 33
0.0
  0
SOLID
  5
15A5
330
1591
100
AcDbEntity
  8
AM_5
100
AcDbTrace
 10
240.5472348798037
 20
234.6275835319276
 30
0.0
 11
240.5472348798037
 21
233.6275835319276
 31
0.0
 12
237.5472348798037
 22
234.1275835319276
 32
0.0
 13
237.5472348798037
 23
234.1275835319276
 33
0.0
  0
MTEXT
  5
15A6
330
1591
100
AcDbEntity
  8
AM_5
100
AcDbMText
 10
234.5448062364947
 20
236.5775835319276
 30
0.0
 40
3.5
 41
0.0
 71
     5
 72
     1
  1
6
 73
     1
 44
1.0
1001
ACAD
1000
MTEXTBEGIN
1070
    73
1070
     1
1070
    44
1040
1.0
1070
    74
1070
     0
1000
MTEXTEND
  0
POINT
  5
15A7
330
1591
100
AcDbEntity
  8
Defpoints
 62
     0
100
AcDbPoint
 10
231.5423775931856
 20
238.2195920402649
 30
0.0
  0
POINT
  5
15A8
330
1591
100
AcDbEntity
  8
Defpoints
 62
     0
100
AcDbPoint
 10
237.5472348798037
 20
238.2195920402649
 30
0.0
  0
POINT
  5
15A9
330
1591
100
AcDbEntity
  8
Defpoints
 62
     0
100
AcDbPoint
 10
237.5472348798037
 20
234.1275835319276
 30
0.0
  0
ENDBLK
  5
159E
330
1591
100
AcDbEntity
  8
0
100
AcDbBlockEnd
  0
BLOCK
  5
1664
330
165A
100
AcDbEntity
  8
0
100
AcDbBlockBegin
  2
*D67
 70
     1
 10
0.0
 20
0.0
 30
0.0
  3
*D67
  1

  0
LINE
  5
1674
330
165A
100
AcDbEntity
  8
Dim
100
AcDbLine
 10
628.7393884343175
 20
313.3065074444733
 30
0.0
 11
628.7393884343175
 21
341.0800451674409
 31
0.0
  0
LINE
  5
1675
330
165A
100
AcDbEntity
  8
Dim
100
AcDbLine
 10
649.7393884343175
 20
325.3065074444732
 30
0.0
 11
649.7393884343175
 21
341.0800451674409
 31
0.0
  0
LINE
  5
1676
330
165A
100
AcDbEntity
  8
Dim
100
AcDbLine
 10
630.7393884343175
 20
340.0800451674409
 30
0.0
 11
647.7393884343175
 21
340.0800451674409
 31
0.0
  0
SOLID
  5
1677
330
165A
100
AcDbEntity
  8
Dim
100
AcDbTrace
 10
630.7393884343175
 20
340.4133785007742
 30
0.0
 11
630.7393884343175
 21
339.7467118341075
 31
0.0
 12
628.7393884343175
 22
340.0800451674409
 32
0.0
 13
628.7393884343175
 23
340.0800451674409
 33
0.0
  0
SOLID
  5
1678
330
165A
100
AcDbEntity
  8
Dim
100
AcDbTrace
 10
647.7393884343175
 20
340.4133785007742
 30
0.0
 11
647.7393884343175
 21
339.7467118341075
 31
0.0
 12
649.7393884343175
 22
340.0800451674409
 32
0.0
 13
649.7393884343175
 23
340.0800451674409
 33
0.0
  0
MTEXT
  5
1679
330
165A
100
AcDbEntity
  8
Dim
100
AcDbMText
 10
639.2393884343175
 20
342.3300451674409
 30
0.0
 40
2.5
 41
0.0
 71
     5
 72
     1
  1
\A1;21
  7
China
 73
     1
 44
1.0
1001
ACAD
1000
MTEXTBEGIN
1070
    73
1070
     1
1070
    44
1040
1.0
1070
    74
1070
     0
1000
MTEXTEND
  0
POINT
  5
167A
330
165A
100
AcDbEntity
  8
Defpoints
 62
     0
100
AcDbPoint
 10
628.7393884343175
 20
312.3065074444733
 30
0.0
  0
POINT
  5
167B
330
165A
100
AcDbEntity
  8
Defpoints
 62
     0
100
AcDbPoint
 10
649.7393884343175
 20
324.3065074444733
 30
0.0
  0
POINT
  5
167C
330
165A
100
AcDbEntity
  8
Defpoints
 62
     0
100
AcDbPoint
 10
649.7393884343175
 20
340.0800451674409
 30
0.0
  0
ENDBLK
  5
1665
330
165A
100
AcDbEntity
  8
0
100
AcDbBlockEnd
  0
ENDSEC
  0
SECTION
  2
ENTITIES
  0
LINE
  5
D9D
330
1F
100
AcDbEntity
  8
0
  6
Continuous
 62
     7
100
AcDbLine
 10
513.8960447280121
 20
244.3065074444731
 30
0.0
 11
558.8960447280121
 21
244.3065074444731
 31
0.0
  0
LINE
  5
D9E
330
1F
100
AcDbEntity
  8
0
  6
Continuous
 62
     7
100
AcDbLine
 10
521.3960447280121
 20
226.3065074444731
 30
0.0
 11
551.3960447280121
 21
226.3065074444731
 31
0.0
  0
LINE
  5
D9F
330
1F
100
AcDbEntity
  8
AM_7
100
AcDbLine
 10
524.0660447280119
 20
232.3065074444731
 30
0.0
 11
548.6660447280121
 21
232.3065074444731
 31
0.0
  0
DIMENSION
  5
DA0
330
1F
100
AcDbEntity
  8
Dim
100
AcDbDimension
  2
*D30
 10
513.8960447280121
 20
348.2705172888375
 30
0.0
 11
536.3960447280121
 21
350.5205172888375
 31
0.0
 70
    32
 71
     5
 42
45.0
  3
Standard
100
AcDbAlignedDimension
 13
558.8960447280121
 23
312.3065074444733
 33
0.0
 14
513.8960447280121
 24
312.3065074444733
 34
0.0
100
AcDbRotatedDimension
1001
ACAD
1000
DSTYLE
1002
{
1070
    41
1040
2.0
1070
    42
1040
1.0
1070
    44
1040
1.0
1070
    73
1070
     0
1070
    74
1070
     0
1070
    77
1070
     1
1070
    78
1070
     8
1070
    79
1070
     2
1070
   140
1040
2.5
1070
   141
1040
0.0
1070
   147
1040
1.0
1070
   172
1070
     1
1070
   174
1070
     1
1070
   176
1070
   256
1070
   177
1070
   256
1070
   178
1070
   256
1070
   271
1070
     2
1070
   272
1070
     2
1070
   340
1005
BBE
1070
   371
1070
    -1
1070
   372
1070
    -1
1002
}
  0
LINE
  5
DA1
330
1F
100
AcDbEntity
  8
AM_7
100
AcDbLine
 10
502.1860447280121
 20
275.3065074444732
 30
0.0
 11
565.8960447280121
 21
275.3065074444732
 31
0.0
  0
LINE
  5
DA2
330
1F
100
AcDbEntity
  8
0
  6
Continuous
 62
     7
100
AcDbLine
 10
513.8960447280121
 20
306.296507444473
 30
0.0
 11
558.8960447280121
 21
306.296507444473
 31
0.0
  0
DIMENSION
  5
DA3
330
1F
100
AcDbEntity
  8
Dim
100
AcDbDimension
  2
*D31
 10
551.3960447280121
 20
338.9090608305616
 30
0.0
 11
536.3960447280121
 21
341.1590608305616
 31
0.0
 70
    32
 71
     5
 42
30.0
  3
Standard
100
AcDbAlignedDimension
 13
521.3960447280121
 23
324.3065074444733
 33
0.0
 14
551.3960447280121
 24
324.3065074444733
 34
0.0
100
AcDbRotatedDimension
1001
ACAD
1000
DSTYLE
1002
{
1070
    41
1040
2.0
1070
    42
1040
1.0
1070
    44
1040
1.0
1070
    73
1070
     0
1070
    74
1070
     0
1070
    77
1070
     1
1070
    78
1070
     8
1070
    79
1070
     2
1070
   140
1040
2.5
1070
   141
1040
0.0
1070
   147
1040
1.0
1070
   172
1070
     1
1070
   174
1070
     1
1070
   176
1070
   256
1070
   177
1070
   256
1070
   178
1070
   256
1070
   271
1070
     2
1070
   272
1070
     2
1070
   340
1005
BBE
1070
   371
1070
    -1
1070
   372
1070
    -1
1002
}
  0
DIMENSION
  5
DA4
330
1F
100
AcDbEntity
  8
Dim
100
AcDbDimension
  2
*D32
 10
544.3960447280121
 20
331.5184396106945
 30
0.0
 11
536.3960447280121
 21
333.7684396106945
 31
0.0
 70
    32
 71
     5
 42
16.0
  3
Standard
100
AcDbAlignedDimension
 13
528.3960447280121
 23
322.106507444473
 33
0.0
 14
544.3960447280121
 24
322.106507444473
 34
0.0
100
AcDbRotatedDimension
1001
ACAD
1000
DSTYLE
1002
{
1070
    41
1040
2.0
1070
    42
1040
1.0
1070
    44
1040
1.0
1070
    73
1070
     0
1070
    74
1070
     0
1070
    77
1070
     1
1070
    78
1070
     8
1070
    79
1070
     2
1070
   140
1040
2.5
1070
   141
1040
0.0
1070
   147
1040
1.0
1070
   172
1070
     1
1070
   174
1070
     1
1070
   176
1070
   256
1070
   177
1070
   256
1070
   178
1070
   256
1070
   271
1070
     2
1070
   272
1070
     2
1070
   340
1005
BBE
1070
   371
1070
    -1
1070
   372
1070
    -1
1002
}
  0
LINE
  5
DA5
330
1F
100
AcDbEntity
  8
AM_7
100
AcDbLine
 10
524.1460447280121
 20
318.3065074444733
 30
0.0
 11
548.6660447280121
 21
318.3065074444733
 31
0.0
  0
LINE
  5
DA6
330
1F
100
AcDbEntity
  8
0
  6
Continuous
 62
     7
100
AcDbLine
 10
521.3960447280121
 20
324.3065074444733
 30
0.0
 11
551.3960447280121
 21
324.3065074444733
 31
0.0
  0
LINE
  5
DA7
330
1F
100
AcDbEntity
  8
AM_7
100
AcDbLine
 10
536.3960447280121
 20
327.2065074444729
 30
0.0
 11
536.3960447280121
 21
221.6165074444731
 31
0.0
  0
LINE
  5
DA8
330
1F
100
AcDbEntity
  8
0
  6
Continuous
 62
     7
100
AcDbLine
 10
520.3960447280121
 20
244.3065074444731
 30
0.0
 11
520.3960447280121
 21
273.3065074444732
 31
0.0
  0
LINE
  5
DA9
330
1F
100
AcDbEntity
  8
0
  6
Continuous
 62
     7
100
AcDbLine
 10
513.8960447280121
 20
238.3065074444731
 30
0.0
 11
513.8960447280121
 21
273.3065074444732
 31
0.0
  0
TEXT
  5
DAB
330
1F
100
AcDbEntity
  8
Dim
100
AcDbText
 10
569.9034501888111
 20
347.2065356635218
 30
0.0
 40
3.2
  1
4-M5x0.8
  7
China
100
AcDbText
  0
LINE
  5
DB0
330
1F
100
AcDbEntity
  8
0
  6
Continuous
 62
     7
100
AcDbLine
 10
513.8960447280121
 20
238.3065074444731
 30
0.0
 11
521.3960447280121
 21
238.3065074444731
 31
0.0
  0
CIRCLE
  5
DB1
330
1F
100
AcDbEntity
  8
0
  6
Continuous
 62
     7
100
AcDbCircle
 10
528.3960447280121
 20
232.3065074444731
 30
0.0
 40
2.067
  0
LINE
  5
DB3
330
1F
100
AcDbEntity
  8
AM_7
100
AcDbLine
 10
528.3960447280121
 20
236.1065074444731
 30
0.0
 11
528.3960447280121
 21
228.1265074444731
 31
0.0
  0
LINE
  5
DB4
330
1F
100
AcDbEntity
  8
0
  6
Continuous
 62
     7
100
AcDbLine
 10
521.3960447280121
 20
238.3065074444731
 30
0.0
 11
521.3960447280121
 21
226.3065074444731
 31
0.0
  0
CIRCLE
  5
DB5
330
1F
100
AcDbEntity
  8
0
  6
Continuous
 62
     7
100
AcDbCircle
 10
528.3960447280121
 20
318.3065074444733
 30
0.0
 40
2.067
  0
LINE
  5
DB7
330
1F
100
AcDbEntity
  8
AM_7
100
AcDbLine
 10
528.3960447280121
 20
322.106507444473
 30
0.0
 11
528.3960447280121
 21
314.126507444473
 31
0.0
  0
LINE
  5
DB8
330
1F
100
AcDbEntity
  8
0
  6
Continuous
 62
     7
100
AcDbLine
 10
521.3960447280121
 20
324.3065074444733
 30
0.0
 11
521.3960447280121
 21
312.3065074444733
 31
0.0
  0
LINE
  5
DB9
330
1F
100
AcDbEntity
  8
0
  6
Continuous
 62
     7
100
AcDbLine
 10
520.3960447280121
 20
306.296507444473
 30
0.0
 11
520.3960447280121
 21
277.3065074444732
 31
0.0
  0
LINE
  5
DBA
330
1F
100
AcDbEntity
  8
0
  6
Continuous
 62
     7
100
AcDbLine
 10
513.8960447280121
 20
312.3065074444733
 30
0.0
 11
513.8960447280121
 21
277.3065074444732
 31
0.0
  0
LINE
  5
DBB
330
1F
100
AcDbEntity
  8
0
  6
Continuous
 62
     7
100
AcDbLine
 10
513.8960447280121
 20
273.3065074444732
 30
0.0
 11
520.3960447280121
 21
273.3065074444732
 31
0.0
  0
LINE
  5
DBC
330
1F
100
AcDbEntity
  8
0
  6
Continuous
 62
     7
100
AcDbLine
 10
513.8960447280121
 20
277.3065074444732
 30
0.0
 11
520.3960447280121
 21
277.3065074444732
 31
0.0
  0
POINT
  5
DBD
330
1F
100
AcDbEntity
  8
AM_7
100
AcDbPoint
 10
536.3960447280121
 20
275.3065074444732
 30
0.0
  0
LINE
  5
DBE
330
1F
100
AcDbEntity
  8
0
  6
Continuous
 62
     7
100
AcDbLine
 10
513.8960447280121
 20
312.3065074444733
 30
0.0
 11
521.3960447280121
 21
312.3065074444733
 31
0.0
  0
LINE
  5
DBF
330
1F
100
AcDbEntity
  8
0
  6
Continuous
 62
     7
100
AcDbLine
 10
649.7393884343175
 20
265.5865074444731
 30
0.0
 11
649.7393884343175
 21
226.3065074444731
 31
0.0
  0
LINE
  5
DC0
330
1F
100
AcDbEntity
  8
0
  6
Continuous
 62
     7
100
AcDbLine
 10
628.7393884343175
 20
265.5865074444731
 30
0.0
 11
628.7393884343175
 21
238.3065074444731
 31
0.0
  0
LINE
  5
DC1
330
1F
100
AcDbEntity
  8
0
  6
Continuous
 62
     7
100
AcDbLine
 10
552.3960447280122
 20
244.3065074444731
 30
0.0
 11
552.3960447280122
 21
273.3065074444732
 31
0.0
  0
LINE
  5
DC2
330
1F
100
AcDbEntity
  8
0
  6
Continuous
 62
     7
100
AcDbLine
 10
558.8960447280121
 20
238.3065074444731
 30
0.0
 11
558.8960447280121
 21
273.3065074444732
 31
0.0
  0
LINE
  5
DC3
330
1F
100
AcDbEntity
  8
AM_7
100
AcDbLine
 10
639.2393884343175
 20
233.4865074444732
 30
0.0
 11
639.2393884343175
 21
317.9965074444733
 31
0.0
  0
LINE
  5
DC4
330
1F
100
AcDbEntity
  8
0
  6
Continuous
 62
     7
100
AcDbLine
 10
551.3960447280121
 20
238.3065074444731
 30
0.0
 11
558.8960447280121
 21
238.3065074444731
 31
0.0
  0
LINE
  5
DC5
330
1F
100
AcDbEntity
  8
AM_7
100
AcDbLine
 10
544.3960447280121
 20
236.1065074444731
 30
0.0
 11
544.3960447280121
 21
228.1265074444731
 31
0.0
  0
CIRCLE
  5
DC6
330
1F
100
AcDbEntity
  8
0
  6
Continuous
 62
     7
100
AcDbCircle
 10
544.3960447280121
 20
232.3065074444731
 30
0.0
 40
2.067
  0
LINE
  5
DC8
330
1F
100
AcDbEntity
  8
0
  6
Continuous
 62
     7
100
AcDbLine
 10
551.3960447280121
 20
238.3065074444731
 30
0.0
 11
551.3960447280121
 21
226.3065074444731
 31
0.0
  0
LINE
  5
DC9
330
1F
100
AcDbEntity
  8
0
  6
Continuous
 62
     7
100
AcDbLine
 10
628.7393884343175
 20
238.3065074444731
 30
0.0
 11
649.7393884343175
 21
238.3065074444731
 31
0.0
  0
LINE
  5
DCA
330
1F
100
AcDbEntity
  8
0
  6
Continuous
 62
     7
100
AcDbLine
 10
628.7393884343175
 20
244.3065074444731
 30
0.0
 11
636.2393884343175
 21
244.3065074444731
 31
0.0
  0
LINE
  5
DCB
330
1F
100
AcDbEntity
  8
0
  6
Continuous
 62
     7
100
AcDbLine
 10
636.2393884343175
 20
243.0065074444732
 30
0.0
 11
642.2393884343176
 21
243.0065074444732
 31
0.0
  0
LINE
  5
DCC
330
1F
100
AcDbEntity
  8
0
  6
Continuous
 62
     7
100
AcDbLine
 10
636.2393884343175
 20
243.0065074444732
 30
0.0
 11
636.2393884343175
 21
244.3065074444731
 31
0.0
  0
LINE
  5
DCD
330
1F
100
AcDbEntity
  8
0
  6
Continuous
 62
     7
100
AcDbLine
 10
642.2393884343176
 20
244.3065074444731
 30
0.0
 11
649.7393884343175
 21
244.3065074444731
 31
0.0
  0
LINE
  5
DCE
330
1F
100
AcDbEntity
  8
0
  6
Continuous
 62
     7
100
AcDbLine
 10
642.2393884343176
 20
243.0065074444732
 30
0.0
 11
642.2393884343176
 21
244.3065074444731
 31
0.0
  0
LINE
  5
DCF
330
1F
100
AcDbEntity
  8
0
  6
Continuous
 62
     7
100
AcDbLine
 10
643.7393884343175
 20
226.3065074444731
 30
0.0
 11
649.7393884343175
 21
226.3065074444731
 31
0.0
  0
LINE
  5
DD0
330
1F
100
AcDbEntity
  8
0
  6
Continuous
 62
     7
100
AcDbLine
 10
643.7393884343175
 20
226.3065074444731
 30
0.0
 11
643.7393884343175
 21
238.3065074444731
 31
0.0
  0
LINE
  5
DD1
330
1F
100
AcDbEntity
  8
0
  6
Continuous
 62
     7
100
AcDbLine
 10
551.3960447280121
 20
324.3065074444733
 30
0.0
 11
551.3960447280121
 21
312.3065074444733
 31
0.0
  0
LINE
  5
DD2
330
1F
100
AcDbEntity
  8
AM_7
100
AcDbLine
 10
544.3960447280121
 20
322.106507444473
 30
0.0
 11
544.3960447280121
 21
314.126507444473
 31
0.0
  0
CIRCLE
  5
DD3
330
1F
100
AcDbEntity
  8
0
  6
Continuous
 62
     7
100
AcDbCircle
 10
544.3960447280121
 20
318.3065074444733
 30
0.0
 40
2.067
  0
LINE
  5
DD5
330
1F
100
AcDbEntity
  8
0
  6
Continuous
 62
     7
100
AcDbLine
 10
552.3960447280122
 20
306.296507444473
 30
0.0
 11
552.3960447280122
 21
277.3065074444732
 31
0.0
  0
LINE
  5
DD6
330
1F
100
AcDbEntity
  8
0
  6
Continuous
 62
     7
100
AcDbLine
 10
558.8960447280121
 20
312.3065074444733
 30
0.0
 11
558.8960447280121
 21
277.3065074444732
 31
0.0
  0
LINE
  5
DD7
330
1F
100
AcDbEntity
  8
0
  6
Continuous
 62
     7
100
AcDbLine
 10
552.3960447280122
 20
277.3065074444732
 30
0.0
 11
558.8960447280121
 21
277.3065074444732
 31
0.0
  0
LINE
  5
DD8
330
1F
100
AcDbEntity
  8
0
  6
Continuous
 62
     7
100
AcDbLine
 10
552.3960447280122
 20
273.3065074444732
 30
0.0
 11
558.8960447280121
 21
273.3065074444732
 31
0.0
  0
LINE
  5
DD9
330
1F
100
AcDbEntity
  8
0
  6
Continuous
 62
     7
100
AcDbLine
 10
551.3960447280121
 20
312.3065074444733
 30
0.0
 11
558.8960447280121
 21
312.3065074444733
 31
0.0
  0
LINE
  5
DDA
330
1F
100
AcDbEntity
  8
0
  6
Continuous
 62
     7
100
AcDbLine
 10
643.7393884343175
 20
324.3065074444733
 30
0.0
 11
643.7393884343175
 21
312.3065074444733
 31
0.0
  0
LINE
  5
DDB
330
1F
100
AcDbEntity
  8
0
  6
Continuous
 62
     7
100
AcDbLine
 10
649.7393884343175
 20
285.0265074444731
 30
0.0
 11
649.7393884343175
 21
324.3065074444733
 31
0.0
  0
LINE
  5
DDC
330
1F
100
AcDbEntity
  8
AM_7
100
AcDbLine
 10
612.5843206788557
 20
275.3065074444732
 30
0.0
 11
692.3318084626725
 21
275.3065074444732
 31
0.0
  0
ARC
  5
DDD
330
1F
100
AcDbEntity
  8
0
  6
Continuous
 62
     7
100
AcDbCircle
 10
639.2393884343175
 20
288.3065074444731
 30
0.0
 40
11.0
100
AcDbArc
 50
197.3409999999999
 51
342.659
  0
LINE
  5
DDE
102
{ACAD_REACTORS
330
12F2
102
}
330
1F
100
AcDbEntity
  8
AM_7
100
AcDbLine
 10
627.1393884343174
 20
287.3065074444731
 30
0.0
 11
645.7993884343174
 21
287.3065074444731
 31
0.0
  0
LINE
  5
DDF
330
1F
100
AcDbEntity
  8
0
  6
Continuous
 62
     7
100
AcDbLine
 10
628.7393884343175
 20
312.3065074444733
 30
0.0
 11
649.7393884343175
 21
312.3065074444733
 31
0.0
  0
LINE
  5
DE0
330
1F
100
AcDbEntity
  8
0
  6
Continuous
 62
     7
100
AcDbLine
 10
628.7393884343175
 20
306.3065074444732
 30
0.0
 11
636.2393884343175
 21
306.3065074444732
 31
0.0
  0
LINE
  5
DE1
330
1F
100
AcDbEntity
  8
AM_7
100
AcDbLine
 10
628.0093884343175
 20
263.3065074444731
 30
0.0
 11
646.8793884343174
 21
263.3065074444731
 31
0.0
  0
ARC
  5
DE2
330
1F
100
AcDbEntity
  8
0
  6
Continuous
 62
     7
100
AcDbCircle
 10
639.2393884343175
 20
262.3065074444731
 30
0.0
 40
11.0
100
AcDbArc
 50
17.34139999999761
 51
162.659
  0
LINE
  5
DE3
330
1F
100
AcDbEntity
  8
圖層1
100
AcDbLine
 10
614.9193884343174
 20
275.3065074444732
 30
0.0
 11
614.0093884343175
 21
290.276507444473
 31
0.0
  0
LINE
  5
DE4
102
{ACAD_REACTORS
330
1318
330
1667
102
}
330
1F
100
AcDbEntity
  8
0
  6
Continuous
 62
     7
100
AcDbLine
 10
628.7393884343175
 20
285.0265074444731
 30
0.0
 11
628.7393884343175
 21
312.3065074444733
 31
0.0
  0
LINE
  5
DE5
330
1F
100
AcDbEntity
  8
圖層1
100
AcDbLine
 10
623.8693884343174
 20
253.716507444473
 30
0.0
 11
601.6693884343173
 21
255.0765074444731
 31
0.0
  0
LINE
  5
DE6
330
1F
100
AcDbEntity
  8
圖層1
100
AcDbLine
 10
602.0293884343175
 20
261.0565074444731
 30
0.0
 11
614.0093884343175
 21
260.3365074444731
 31
0.0
  0
LINE
  5
DE7
330
1F
100
AcDbEntity
  8
圖層1
100
AcDbLine
 10
602.0293884343175
 20
261.0565074444731
 30
0.0
 11
601.6693884343173
 21
255.0765074444731
 31
0.0
  0
LINE
  5
DE8
330
1F
100
AcDbEntity
  8
圖層1
100
AcDbLine
 10
621.2393884343176
 20
275.686507444473
 30
0.0
 11
614.9193884343174
 21
275.3065074444732
 31
0.0
  0
LINE
  5
DE9
330
1F
100
AcDbEntity
  8
圖層1
100
AcDbLine
 10
621.2393884343176
 20
274.916507444473
 30
0.0
 11
614.9193884343174
 21
275.3065074444732
 31
0.0
  0
LINE
  5
DEA
330
1F
100
AcDbEntity
  8
圖層1
100
AcDbLine
 10
614.9193884343174
 20
275.3065074444732
 30
0.0
 11
614.0093884343175
 21
260.3365074444731
 31
0.0
  0
LINE
  5
DEB
330
1F
100
AcDbEntity
  8
圖層1
100
AcDbLine
 10
623.8693884343174
 20
296.8865074444732
 30
0.0
 11
601.6693884343173
 21
295.5365074444733
 31
0.0
  0
LINE
  5
DEC
330
1F
100
AcDbEntity
  8
圖層1
100
AcDbLine
 10
602.0293884343175
 20
289.5465074444731
 30
0.0
 11
614.0093884343175
 21
290.276507444473
 31
0.0
  0
LINE
  5
DED
330
1F
100
AcDbEntity
  8
圖層1
100
AcDbLine
 10
602.0293884343175
 20
289.5465074444731
 30
0.0
 11
601.6693884343173
 21
295.5365074444733
 31
0.0
  0
ARC
  5
DEE
330
1F
100
AcDbEntity
  8
0
  6
Continuous
 62
     7
100
AcDbCircle
 10
639.2393884343175
 20
287.3065074444731
 30
0.0
 40
5.0
100
AcDbArc
 50
197.4579999999973
 51
162.5420000000026
  0
LINE
  5
DEF
330
1F
100
AcDbEntity
  8
0
  6
Continuous
 62
     7
100
AcDbLine
 10
635.8393884343175
 20
288.8065074444731
 30
0.0
 11
635.8393884343175
 21
285.8065074444732
 31
0.0
  0
LINE
  5
DF0
330
1F
100
AcDbEntity
  8
0
  6
Continuous
 62
     7
100
AcDbLine
 10
632.8393884343174
 20
288.8065074444731
 30
0.0
 11
632.8393884343174
 21
285.8065074444732
 31
0.0
  0
LINE
  5
DF1
330
1F
100
AcDbEntity
  8
0
  6
Continuous
 62
     7
100
AcDbLine
 10
632.8393884343174
 20
285.8065074444732
 30
0.0
 11
635.8393884343175
 21
285.8065074444732
 31
0.0
  0
ARC
  5
DF2
330
1F
100
AcDbEntity
  8
0
  6
Continuous
 62
     7
100
AcDbCircle
 10
639.2393884343175
 20
263.3065074444731
 30
0.0
 40
5.0
100
AcDbArc
 50
197.4579999999973
 51
162.5420000000026
  0
LINE
  5
DF3
330
1F
100
AcDbEntity
  8
0
  6
Continuous
 62
     7
100
AcDbLine
 10
635.8393884343175
 20
261.8065074444731
 30
0.0
 11
635.8393884343175
 21
264.8065074444732
 31
0.0
  0
LINE
  5
DF4
330
1F
100
AcDbEntity
  8
0
  6
Continuous
 62
     7
100
AcDbLine
 10
632.8393884343174
 20
261.8065074444731
 30
0.0
 11
632.8393884343174
 21
264.8065074444732
 31
0.0
  0
LINE
  5
DF5
330
1F
100
AcDbEntity
  8
0
  6
Continuous
 62
     7
100
AcDbLine
 10
632.8393884343174
 20
261.8065074444731
 30
0.0
 11
635.8393884343175
 21
261.8065074444731
 31
0.0
  0
LINE
  5
DF6
330
1F
100
AcDbEntity
  8
0
  6
Continuous
 62
     7
100
AcDbLine
 10
632.8393884343174
 20
264.8065074444732
 30
0.0
 11
635.8393884343175
 21
264.8065074444732
 31
0.0
  0
LINE
  5
DF7
330
1F
100
AcDbEntity
  8
0
  6
Continuous
 62
     7
100
AcDbLine
 10
636.2393884343175
 20
307.606507444473
 30
0.0
 11
642.2393884343176
 21
307.606507444473
 31
0.0
  0
LINE
  5
DF8
330
1F
100
AcDbEntity
  8
0
  6
Continuous
 62
     7
100
AcDbLine
 10
636.2393884343175
 20
307.606507444473
 30
0.0
 11
636.2393884343175
 21
306.3065074444732
 31
0.0
  0
LINE
  5
DF9
330
1F
100
AcDbEntity
  8
0
  6
Continuous
 62
     7
100
AcDbLine
 10
642.2393884343176
 20
307.606507444473
 30
0.0
 11
642.2393884343176
 21
306.3065074444732
 31
0.0
  0
LINE
  5
DFA
330
1F
100
AcDbEntity
  8
0
  6
Continuous
 62
     7
100
AcDbLine
 10
642.2393884343176
 20
306.3065074444732
 30
0.0
 11
649.7393884343175
 21
306.3065074444732
 31
0.0
  0
LINE
  5
DFB
330
1F
100
AcDbEntity
  8
0
  6
Continuous
 62
     7
100
AcDbLine
 10
632.8393884343174
 20
288.8065074444731
 30
0.0
 11
635.8393884343175
 21
288.8065074444731
 31
0.0
  0
LINE
  5
DFC
102
{ACAD_REACTORS
330
12F2
330
1318
330
1340
330
1667
102
}
330
1F
100
AcDbEntity
  8
0
  6
Continuous
 62
     7
100
AcDbLine
 10
643.7393884343175
 20
324.3065074444733
 30
0.0
 11
649.7393884343175
 21
324.3065074444733
 31
0.0
  0
TEXT
  5
DFD
330
1F
100
AcDbEntity
  8
Dim
100
AcDbText
 10
409.0525771605951
 20
328.0785074444732
 30
0.0
 40
3.2
  1
12depth
  7
China
100
AcDbText
  0
LINE
  5
DFF
330
1F
100
AcDbEntity
  8
AM_7
100
AcDbLine
 10
245.0845141293939
 20
377.0288742390435
 30
0.0
 11
245.0845141293939
 21
363.3328742390434
 31
0.0
  0
LINE
  5
E00
330
1F
100
AcDbEntity
  8
0
  6
Continuous
 62
     7
100
AcDbLine
 10
265.0845141293939
 20
401.5818742390433
 30
0.0
 11
265.0845141293939
 21
361.5818742390434
 31
0.0
  0
LINE
  5
E01
330
1F
100
AcDbEntity
  8
0
  6
Continuous
 62
     7
100
AcDbLine
 10
196.0845141293939
 20
396.7318742390434
 30
0.0
 11
196.0845141293939
 21
366.4318742390434
 31
0.0
  0
LINE
  5
E02
330
1F
100
AcDbEntity
  8
0
  6
Continuous
 62
     7
100
AcDbLine
 10
199.0845141293939
 20
396.7318742390434
 30
0.0
 11
199.0845141293939
 21
366.4318742390434
 31
0.0
  0
LINE
  5
E03
330
1F
100
AcDbEntity
  8
AM_7
100
AcDbLine
 10
214.0845141293939
 20
375.4128742390435
 30
0.0
 11
214.0845141293939
 21
367.7888742390432
 31
0.0
  0
DIMENSION
  5
E04
330
1F
100
AcDbEntity
  8
Dim
100
AcDbDimension
  2
*D33
 10
277.0845141293939
 20
369.5818742390434
 30
0.0
 11
274.8345141293939
 21
381.5818742390434
 31
0.0
 70
    32
 71
     5
 42
24.0
  3
Standard
100
AcDbAlignedDimension
 13
252.5445141293939
 23
393.5818742390434
 33
0.0
 14
252.7775141293939
 24
369.5818742390434
 34
0.0
 50
90.0
100
AcDbRotatedDimension
1001
ACAD
1000
DSTYLE
1002
{
1070
    41
1040
2.0
1070
    42
1040
1.0
1070
    44
1040
1.0
1070
    73
1070
     0
1070
    74
1070
     0
1070
    77
1070
     1
1070
    78
1070
     8
1070
    79
1070
     2
1070
   140
1040
2.5
1070
   141
1040
0.0
1070
   147
1040
1.0
1070
   172
1070
     1
1070
   174
1070
     1
1070
   176
1070
   256
1070
   177
1070
   256
1070
   178
1070
   256
1070
   271
1070
     2
1070
   272
1070
     2
1070
   340
1005
BBE
1070
   371
1070
    -1
1070
   372
1070
    -1
1002
}
  0
LINE
  5
E05
330
1F
100
AcDbEntity
  8
0
  6
Continuous
 62
     7
100
AcDbLine
 10
203.5845141293939
 20
404.0818742390433
 30
0.0
 11
203.5845141293939
 21
359.0818742390434
 31
0.0
  0
LINE
  5
E06
330
1F
100
AcDbEntity
  8
0
  6
Continuous
 62
     7
100
AcDbLine
 10
224.5845141293939
 20
404.0818742390433
 30
0.0
 11
224.5845141293939
 21
359.0818742390434
 31
0.0
  0
LINE
  5
E07
330
1F
100
AcDbEntity
  8
0
  6
Continuous
 62
     7
100
AcDbLine
 10
205.5845141293939
 20
404.0818742390433
 30
0.0
 11
205.5845141293939
 21
359.0818742390434
 31
0.0
  0
LINE
  5
E08
330
1F
100
AcDbEntity
  8
0
  6
Continuous
 62
     7
100
AcDbLine
 10
222.5845141293939
 20
404.0818742390433
 30
0.0
 11
222.5845141293939
 21
359.0818742390434
 31
0.0
  0
LEADER
  5
E09
330
1F
100
AcDbEntity
  8
Dim
100
AcDbLeader
  3
Standard
 76
     3
 10
240.0557005594426
 20
256.4355201073738
 30
0.0
 10
252.6466026306739
 20
239.8784373681711
 30
0.0
 10
291.3422669226172
 20
239.8784373681711
 30
0.0
1001
ACAD
1000
DSTYLE
1002
{
1070
    41
1040
2.0
1070
    42
1040
1.0
1070
    44
1040
1.0
1070
    73
1070
     0
1070
    74
1070
     0
1070
    77
1070
     0
1070
    78
1070
     8
1070
    79
1070
     2
1070
   140
1040
2.5
1070
   141
1040
0.0
1070
   147
1040
1.0
1070
   172
1070
     1
1070
   174
1070
     1
1070
   176
1070
   256
1070
   177
1070
   256
1070
   178
1070
   256
1070
   271
1070
     2
1070
   272
1070
     2
1070
   340
1005
BBE
1070
   371
1070
    -1
1070
   372
1070
    -1
1002
}
  0
TEXT
  5
E0C
330
1F
100
AcDbEntity
  8
Dim
100
AcDbText
 10
253.478438750283
 20
241.5188970573894
 30
0.0
 40
3.2
  1
4-M6
  7
China
100
AcDbText
  0
DIMENSION
  5
E0D
330
1F
100
AcDbEntity
  8
Dim
100
AcDbDimension
  2
*D34
 10
274.436384141447
 20
177.7747576352735
 30
0.0
 11
272.1863841414469
 21
169.7747576352736
 31
0.0
 70
    32
 71
     5
 42
16.0
  3
Standard
100
AcDbAlignedDimension
 13
260.055514129394
 23
161.7747576352735
 33
0.0
 14
236.2105141293939
 24
177.7747576352735
 34
0.0
 50
90.0
100
AcDbRotatedDimension
1001
ACAD
1000
DSTYLE
1002
{
1070
    41
1040
2.0
1070
    42
1040
1.0
1070
    44
1040
1.0
1070
    73
1070
     0
1070
    74
1070
     0
1070
    77
1070
     1
1070
    78
1070
     8
1070
    79
1070
     2
1070
   140
1040
2.5
1070
   141
1040
0.0
1070
   147
1040
1.0
1070
   172
1070
     1
1070
   174
1070
     1
1070
   176
1070
   256
1070
   177
1070
   256
1070
   178
1070
   256
1070
   271
1070
     2
1070
   272
1070
     2
1070
   340
1005
BBE
1070
   371
1070
    -1
1070
   372
1070
    -1
1002
}
  0
LEADER
  5
E0E
330
1F
100
AcDbEntity
  8
Dim
100
AcDbLeader
  3
Standard
 76
     3
 10
256.6753783419724
 20
159.9666754504111
 30
0.0
 10
273.3216689900118
 20
146.0431508654845
 30
0.0
 10
293.1515883976242
 20
146.0431508654845
 30
0.0
1001
ACAD
1000
DSTYLE
1002
{
1070
    41
1040
2.0
1070
    42
1040
1.0
1070
    44
1040
1.0
1070
    73
1070
     0
1070
    74
1070
     0
1070
    77
1070
     0
1070
    78
1070
     8
1070
    79
1070
     2
1070
   140
1040
2.5
1070
   141
1040
0.0
1070
   147
1040
1.0
1070
   172
1070
     1
1070
   174
1070
     1
1070
   176
1070
   256
1070
   177
1070
   256
1070
   178
1070
   256
1070
   271
1070
     2
1070
   272
1070
     2
1070
   340
1005
BBE
1070
   371
1070
    -1
1070
   372
1070
    -1
1002
}
  0
DIMENSION
  5
E0F
330
1F
100
AcDbEntity
  8
Dim
100
AcDbDimension
  2
*D35
 10
285.0845141293939
 20
252.8095074444732
 30
0.0
 11
282.8345141293939
 21
275.3095074444733
 31
0.0
 70
    32
 71
     5
 42
45.0
  3
Standard
100
AcDbAlignedDimension
 13
265.0845141293939
 23
297.8095074444732
 33
0.0
 14
265.0845141293939
 24
252.8095074444732
 34
0.0
 50
90.0
100
AcDbRotatedDimension
1001
ACAD
1000
DSTYLE
1002
{
1070
    41
1040
2.0
1070
    42
1040
1.0
1070
    44
1040
1.0
1070
    73
1070
     0
1070
    74
1070
     0
1070
    77
1070
     1
1070
    78
1070
     8
1070
    79
1070
     2
1070
   140
1040
2.5
1070
   141
1040
0.0
1070
   147
1040
1.0
1070
   172
1070
     1
1070
   174
1070
     1
1070
   176
1070
   256
1070
   177
1070
   256
1070
   178
1070
   256
1070
   271
1070
     2
1070
   272
1070
     2
1070
   340
1005
BBE
1070
   371
1070
    -1
1070
   372
1070
    -1
1002
}
  0
DIMENSION
  5
E10
330
1F
100
AcDbEntity
  8
Dim
100
AcDbDimension
  2
*D36
 10
277.0845141293939
 20
258.3095074444732
 30
0.0
 11
274.8345141293939
 21
275.3095074444733
 31
0.0
 70
    32
 71
     5
 42
34.0
  3
Standard
100
AcDbAlignedDimension
 13
242.7845141293939
 23
292.3095074444732
 33
0.0
 14
242.7515141293939
 24
258.3095074444732
 34
0.0
 50
90.0
100
AcDbRotatedDimension
1001
ACAD
1000
DSTYLE
1002
{
1070
    41
1040
2.0
1070
    42
1040
1.0
1070
    44
1040
1.0
1070
    73
1070
     0
1070
    74
1070
     0
1070
    77
1070
     1
1070
    78
1070
     8
1070
    79
1070
     2
1070
   140
1040
2.5
1070
   141
1040
0.0
1070
   147
1040
1.0
1070
   172
1070
     1
1070
   174
1070
     1
1070
   176
1070
   256
1070
   177
1070
   256
1070
   178
1070
   256
1070
   271
1070
     2
1070
   272
1070
     2
1070
   340
1005
BBE
1070
   371
1070
    -1
1070
   372
1070
    -1
1002
}
  0
DIMENSION
  5
E11
330
1F
100
AcDbEntity
  8
Dim
100
AcDbDimension
  2
*D37
 10
192.5780909467921
 20
244.3095074444732
 30
0.0
 11
190.3280909467921
 21
240.3095074444733
 31
0.0
 70
    32
 71
     5
 42
8.0
  3
Standard
100
AcDbAlignedDimension
 13
192.5780909467921
 23
236.3095074444732
 33
0.0
 14
203.5845141293939
 24
244.3095074444732
 34
0.0
 50
90.0
100
AcDbRotatedDimension
1001
ACAD
1000
DSTYLE
1002
{
1070
    41
1040
2.0
1070
    42
1040
1.0
1070
    44
1040
1.0
1070
    73
1070
     0
1070
    74
1070
     0
1070
    77
1070
     1
1070
    78
1070
     8
1070
    79
1070
     2
1070
   140
1040
2.5
1070
   141
1040
0.0
1070
   147
1040
1.0
1070
   172
1070
     1
1070
   174
1070
     1
1070
   176
1070
   256
1070
   177
1070
   256
1070
   178
1070
   256
1070
   271
1070
     2
1070
   272
1070
     2
1070
   340
1005
BBE
1070
   371
1070
    -1
1070
   372
1070
    -1
1002
}
  0
LINE
  5
E12
330
1F
100
AcDbEntity
  8
0
  6
Continuous
 62
     7
100
AcDbLine
 10
203.5845141293939
 20
265.5885074444732
 30
0.0
 11
203.5845141293939
 21
236.3095074444732
 31
0.0
  0
LINE
  5
E13
330
1F
100
AcDbEntity
  8
0
  6
Continuous
 62
     7
100
AcDbLine
 10
224.5845141293939
 20
265.5885074444732
 30
0.0
 11
224.5845141293939
 21
236.3095074444732
 31
0.0
  0
LINE
  5
E14
330
1F
100
AcDbEntity
  8
AM_7
100
AcDbLine
 10
214.0845141293939
 20
233.4915074444732
 30
0.0
 11
214.0845141293939
 21
315.2205074444732
 31
0.0
  0
DIMENSION
  5
E15
330
1F
100
AcDbEntity
  8
Dim
100
AcDbDimension
  2
*D38
 10
185.6234733486462
 20
236.3095074444732
 30
0.0
 11
183.3734733486462
 21
249.8095074444732
 31
0.0
 70
    32
 71
     5
 42
27.0
  3
Standard
100
AcDbAlignedDimension
 13
185.6234733486462
 23
263.3095074444732
 33
0.0
 14
203.5845141293939
 24
236.3095074444732
 34
0.0
 50
90.0
100
AcDbRotatedDimension
1001
ACAD
1000
DSTYLE
1002
{
1070
    41
1040
2.0
1070
    42
1040
1.0
1070
    44
1040
1.0
1070
    73
1070
     0
1070
    74
1070
     0
1070
    77
1070
     1
1070
    78
1070
     8
1070
    79
1070
     2
1070
   140
1040
2.5
1070
   141
1040
0.0
1070
   147
1040
1.0
1070
   172
1070
     1
1070
   174
1070
     1
1070
   176
1070
   256
1070
   177
1070
   256
1070
   178
1070
   256
1070
   271
1070
     2
1070
   272
1070
     2
1070
   340
1005
BBE
1070
   371
1070
    -1
1070
   372
1070
    -1
1002
}
  0
TEXT
  5
E16
330
1F
100
AcDbEntity
  8
Dim
100
AcDbText
 10
152.5937173857812
 20
137.0301049966379
 30
0.0
 40
3.2
  1
4-M5x0.8x6depth
  7
China
100
AcDbText
  0
LEADER
  5
E17
330
1F
100
AcDbEntity
  8
Dim
100
AcDbLeader
  3
Standard
 76
     3
 10
212.5630957781029
 20
158.4682547370519
 30
0.0
 10
197.1087769973774
 20
136.0046481229165
 30
0.0
 10
152.4995806680685
 20
136.0046481229165
 30
0.0
1001
ACAD
1000
DSTYLE
1002
{
1070
    41
1040
2.0
1070
    42
1040
1.0
1070
    44
1040
1.0
1070
    73
1070
     0
1070
    74
1070
     0
1070
    77
1070
     0
1070
    78
1070
     8
1070
    79
1070
     2
1070
   140
1040
2.5
1070
   141
1040
0.0
1070
   147
1040
1.0
1070
   172
1070
     1
1070
   174
1070
     1
1070
   176
1070
   256
1070
   177
1070
   256
1070
   178
1070
   256
1070
   271
1070
     2
1070
   272
1070
     2
1070
   340
1005
BBE
1070
   371
1070
    -1
1070
   372
1070
    -1
1002
}
  0
DIMENSION
  5
E18
330
1F
100
AcDbEntity
  8
Dim
100
AcDbDimension
  2
*D39
 10
173.5436876692611
 20
147.2747576352736
 30
0.0
 11
171.293687669261
 21
169.7747576352736
 31
0.0
 70
    32
 71
     5
 42
45.0
  3
Standard
100
AcDbAlignedDimension
 13
203.5845141293939
 23
192.2747576352735
 33
0.0
 14
203.5845141293939
 24
147.2747576352735
 34
0.0
 50
90.0
100
AcDbRotatedDimension
1001
ACAD
1000
DSTYLE
1002
{
1070
    41
1040
2.0
1070
    42
1040
1.0
1070
    44
1040
1.0
1070
    73
1070
     0
1070
    74
1070
     0
1070
    77
1070
     1
1070
    78
1070
     8
1070
    79
1070
     2
1070
   140
1040
2.5
1070
   141
1040
0.0
1070
   147
1040
1.0
1070
   172
1070
     1
1070
   174
1070
     1
1070
   176
1070
   256
1070
   177
1070
   256
1070
   178
1070
   256
1070
   271
1070
     2
1070
   272
1070
     2
1070
   340
1005
BBE
1070
   371
1070
    -1
1070
   372
1070
    -1
1002
}
  0
DIMENSION
  5
E19
330
1F
100
AcDbEntity
  8
Dim
100
AcDbDimension
  2
*D40
 10
180.4929312337008
 20
154.6247576352735
 30
0.0
 11
178.2429312337008
 21
169.7747576352736
 31
0.0
 70
    32
 71
     5
 42
30.30000000000001
  3
Standard
100
AcDbAlignedDimension
 13
196.0845141293939
 23
184.9247576352735
 33
0.0
 14
196.0845141293939
 24
154.6247576352735
 34
0.0
 50
90.0
100
AcDbRotatedDimension
1001
ACAD
1000
DSTYLE
1002
{
1070
    41
1040
2.0
1070
    42
1040
1.0
1070
    44
1040
1.0
1070
    73
1070
     0
1070
    74
1070
     0
1070
    77
1070
     1
1070
    78
1070
     8
1070
    79
1070
     2
1070
   140
1040
2.5
1070
   141
1040
0.0
1070
   147
1040
1.0
1070
   172
1070
     1
1070
   174
1070
     1
1070
   176
1070
   256
1070
   177
1070
   256
1070
   178
1070
   256
1070
   271
1070
     2
1070
   272
1070
     2
1070
   340
1005
BBE
1070
   371
1070
    -1
1070
   372
1070
    -1
1002
}
  0
LINE
  5
E1A
330
1F
100
AcDbEntity
  8
0
  6
Continuous
 62
     7
100
AcDbLine
 10
265.0845141293939
 20
149.7747576352735
 30
0.0
 11
265.0845141293939
 21
189.7747576352735
 31
0.0
  0
LINE
  5
E1B
330
1F
100
AcDbEntity
  8
0
  6
Continuous
 62
     7
100
AcDbLine
 10
196.0845141293939
 20
154.6247576352735
 30
0.0
 11
196.0845141293939
 21
184.9247576352735
 31
0.0
  0
LINE
  5
E1C
330
1F
100
AcDbEntity
  8
0
  6
Continuous
 62
     7
100
AcDbLine
 10
199.0845141293939
 20
154.6247576352735
 30
0.0
 11
199.0845141293939
 21
184.9247576352735
 31
0.0
  0
LINE
  5
E1D
330
1F
100
AcDbEntity
  8
0
  6
Continuous
 62
     7
100
AcDbLine
 10
203.5845141293939
 20
192.2747576352735
 30
0.0
 11
203.5845141293939
 21
147.2747576352735
 31
0.0
  0
LINE
  5
E1E
330
1F
100
AcDbEntity
  8
0
  6
Continuous
 62
     7
100
AcDbLine
 10
224.5845141293939
 20
192.2747576352735
 30
0.0
 11
224.5845141293939
 21
147.2747576352735
 31
0.0
  0
LINE
  5
E1F
330
1F
100
AcDbEntity
  8
0
  6
Continuous
 62
     7
100
AcDbLine
 10
205.5845141293939
 20
192.2747576352735
 30
0.0
 11
205.5845141293939
 21
147.2747576352735
 31
0.0
  0
LINE
  5
E20
330
1F
100
AcDbEntity
  8
0
  6
Continuous
 62
     7
100
AcDbLine
 10
222.5845141293939
 20
192.2747576352735
 30
0.0
 11
222.5845141293939
 21
147.2747576352735
 31
0.0
  0
DIMENSION
  5
E21
330
1F
100
AcDbEntity
  8
Dim
100
AcDbDimension
  2
*D41
 10
232.0845141293939
 20
139.8628301436974
 30
0.0
 11
243.5845141293939
 21
142.1128301436974
 31
0.0
 70
    32
 71
     5
 42
23.0
  3
Standard
100
AcDbAlignedDimension
 13
255.0845141293939
 23
139.8628301436974
 33
0.0
 14
232.0845141293939
 24
173.7277576352735
 34
0.0
100
AcDbRotatedDimension
1001
ACAD
1000
DSTYLE
1002
{
1070
    41
1040
2.0
1070
    42
1040
1.0
1070
    44
1040
1.0
1070
    73
1070
     0
1070
    74
1070
     0
1070
    77
1070
     1
1070
    78
1070
     8
1070
    79
1070
     2
1070
   140
1040
2.5
1070
   141
1040
0.0
1070
   147
1040
1.0
1070
   172
1070
     1
1070
   174
1070
     1
1070
   176
1070
   256
1070
   177
1070
   256
1070
   178
1070
   256
1070
   271
1070
     2
1070
   272
1070
     2
1070
   340
1005
BBE
1070
   371
1070
    -1
1070
   372
1070
    -1
1002
}
  0
DIMENSION
  5
E22
330
1F
100
AcDbEntity
  8
Dim
100
AcDbDimension
  2
*D42
 10
187.4421687394788
 20
159.7747576352736
 30
0.0
 11
185.1921687394787
 21
169.7747576352736
 31
0.0
 70
    32
 71
     5
 42
20.0
  3
Standard
100
AcDbAlignedDimension
 13
210.4375141293939
 23
179.7747576352735
 33
0.0
 14
210.4375141293939
 24
159.7747576352735
 34
0.0
 50
90.0
100
AcDbRotatedDimension
1001
ACAD
1000
DSTYLE
1002
{
1070
    41
1040
2.0
1070
    42
1040
1.0
1070
    44
1040
1.0
1070
    73
1070
     0
1070
    74
1070
     0
1070
    77
1070
     1
1070
    78
1070
     8
1070
    79
1070
     2
1070
   140
1040
2.5
1070
   141
1040
0.0
1070
   147
1040
1.0
1070
   172
1070
     1
1070
   174
1070
     1
1070
   176
1070
   256
1070
   177
1070
   256
1070
   178
1070
   256
1070
   271
1070
     2
1070
   272
1070
     2
1070
   340
1005
BBE
1070
   371
1070
    -1
1070
   372
1070
    -1
1002
}
  0
LINE
  5
E23
330
1F
100
AcDbEntity
  8
AM_7
100
AcDbLine
 10
191.3725141293939
 20
169.7747576352735
 30
0.0
 11
266.633738804109
 21
169.7747576352735
 31
0.0
  0
LINE
  5
E24
330
1F
100
AcDbEntity
  8
0
  6
Continuous
 62
     7
100
AcDbLine
 10
225.084514129394
 20
149.7747576352735
 30
0.0
 11
265.0845141293939
 21
149.7747576352735
 31
0.0
  0
LINE
  5
E28
330
1F
100
AcDbEntity
  8
0
  6
Continuous
 62
     7
100
AcDbLine
 10
203.5845141293939
 20
147.2747576352735
 30
0.0
 11
224.5845141293939
 21
147.2747576352735
 31
0.0
  0
LINE
  5
E29
330
1F
100
AcDbEntity
  8
0
  6
Continuous
 62
     7
100
AcDbLine
 10
196.0845141293939
 20
154.6247576352735
 30
0.0
 11
203.5845141293939
 21
154.6247576352735
 31
0.0
  0
LINE
  5
E2A
330
1F
100
AcDbEntity
  8
AM_7
100
AcDbLine
 10
210.4375141293939
 20
159.7747576352735
 30
0.0
 11
217.6715141293939
 21
159.7747576352735
 31
0.0
  0
LINE
  5
E2B
330
1F
100
AcDbEntity
  8
AM_7
100
AcDbLine
 10
214.0845141293939
 20
163.6057576352735
 30
0.0
 11
214.0845141293939
 21
155.9817576352735
 31
0.0
  0
LINE
  5
E2C
330
1F
100
AcDbEntity
  8
0
  6
Continuous
 62
     7
100
AcDbLine
 10
224.5845141293939
 20
154.7747576352735
 30
0.0
 11
225.084514129394
 21
154.7747576352735
 31
0.0
  0
CIRCLE
  5
E2E
330
1F
100
AcDbEntity
  8
0
  6
Continuous
 62
     7
100
AcDbCircle
 10
214.0845141293939
 20
159.7747576352735
 30
0.0
 40
2.067
  0
LINE
  5
E2F
330
1F
100
AcDbEntity
  8
AM_7
100
AcDbLine
 10
215.3255141293939
 20
150.7747576352735
 30
0.0
 11
223.145514129394
 21
150.7747576352735
 31
0.0
  0
LINE
  5
E30
330
1F
100
AcDbEntity
  8
0
  6
Continuous
 62
     7
100
AcDbLine
 10
225.084514129394
 20
149.7747576352735
 30
0.0
 11
225.084514129394
 21
154.7747576352735
 31
0.0
  0
LINE
  5
E31
330
1F
100
AcDbEntity
  8
AM_7
100
AcDbLine
 10
219.084514129394
 20
155.2077576352735
 30
0.0
 11
219.084514129394
 21
147.2747576352735
 31
0.0
  0
CIRCLE
  5
E32
330
1F
100
AcDbEntity
  8
0
  6
Continuous
 62
     7
100
AcDbCircle
 10
219.084514129394
 20
150.7747576352735
 30
0.0
 40
3.0
  0
LINE
  5
E33
330
1F
100
AcDbEntity
  8
AM_7
100
AcDbLine
 10
209.0845141293939
 20
154.6507576352735
 30
0.0
 11
209.0845141293939
 21
147.2747576352735
 31
0.0
  0
LINE
  5
E34
330
1F
100
AcDbEntity
  8
AM_7
100
AcDbLine
 10
205.0045141293939
 20
150.7747576352735
 30
0.0
 11
212.751514129394
 21
150.7747576352735
 31
0.0
  0
CIRCLE
  5
E35
330
1F
100
AcDbEntity
  8
0
  6
Continuous
 62
     7
100
AcDbCircle
 10
209.0845141293939
 20
150.7747576352735
 30
0.0
 40
3.0
  0
LINE
  5
E36
330
1F
100
AcDbEntity
  8
AM_7
100
AcDbLine
 10
250.6855141293939
 20
161.7747576352735
 30
0.0
 11
260.055514129394
 21
161.7747576352735
 31
0.0
  0
POINT
  5
E37
330
1F
100
AcDbEntity
  8
0
100
AcDbPoint
 10
265.0845141293939
 20
169.7747576352735
 30
0.0
  0
LINE
  5
E38
330
1F
100
AcDbEntity
  8
AM_7
100
AcDbLine
 10
255.0845141293939
 20
156.9897576352736
 30
0.0
 11
255.0845141293939
 21
165.9377576352735
 31
0.0
  0
DIMENSION
  5
E39
330
1F
100
AcDbEntity
  8
Dim
100
AcDbDimension
  2
*D43
 10
265.0845141293939
 20
139.8628301436974
 30
0.0
 11
260.0845141293939
 21
142.1128301436974
 31
0.0
 70
    32
 71
     5
 42
10.0
  3
Standard
100
AcDbAlignedDimension
 13
255.0845141293939
 23
156.9897576352736
 33
0.0
 14
265.0845141293939
 24
149.7747576352735
 34
0.0
100
AcDbRotatedDimension
1001
ACAD
1000
DSTYLE
1002
{
1070
    41
1040
2.0
1070
    42
1040
1.0
1070
    44
1040
1.0
1070
    73
1070
     0
1070
    74
1070
     0
1070
    77
1070
     1
1070
    78
1070
     8
1070
    79
1070
     2
1070
   140
1040
2.5
1070
   141
1040
0.0
1070
   147
1040
1.0
1070
   172
1070
     1
1070
   174
1070
     1
1070
   176
1070
   256
1070
   177
1070
   256
1070
   178
1070
   256
1070
   271
1070
     2
1070
   272
1070
     2
1070
   340
1005
BBE
1070
   371
1070
    -1
1070
   372
1070
    -1
1002
}
  0
CIRCLE
  5
E3B
330
1F
100
AcDbEntity
  8
0
  6
Continuous
 62
     7
100
AcDbCircle
 10
255.0845141293939
 20
161.7747576352735
 30
0.0
 40
2.067
  0
LINE
  5
E3C
330
1F
100
AcDbEntity
  8
0
  6
Continuous
 62
     7
100
AcDbLine
 10
225.084514129394
 20
189.7747576352735
 30
0.0
 11
265.0845141293939
 21
189.7747576352735
 31
0.0
  0
LINE
  5
E3D
330
1F
100
AcDbEntity
  8
AM_7
100
AcDbLine
 10
227.9995141293939
 20
177.7747576352735
 30
0.0
 11
236.2105141293939
 21
177.7747576352735
 31
0.0
  0
TEXT
  5
E3F
330
1F
100
AcDbEntity
  8
Dim
100
AcDbText
 10
252.4256615423163
 20
200.9903176715456
 30
0.0
 40
3.2
  1
M5
  7
China
100
AcDbText
  0
TEXT
  5
E40
330
1F
100
AcDbEntity
  8
Dim
100
AcDbText
 10
262.0256615423163
 20
200.9903176715456
 30
0.0
 40
3.2
  1
0.8
  7
China
100
AcDbText
  0
LINE
  5
E41
330
1F
100
AcDbEntity
  8
0
  6
Continuous
 62
     7
100
AcDbLine
 10
203.5845141293939
 20
192.2747576352735
 30
0.0
 11
224.5845141293939
 21
192.2747576352735
 31
0.0
  0
LINE
  5
E42
330
1F
100
AcDbEntity
  8
AM_7
100
AcDbLine
 10
204.8325141293939
 20
188.7747576352735
 30
0.0
 11
212.751514129394
 21
188.7747576352735
 31
0.0
  0
LINE
  5
E43
330
1F
100
AcDbEntity
  8
Dim
  6
Continuous
100
AcDbLine
 10
259.5256615423163
 20
201.5183176715457
 30
0.0
 11
261.3256615423164
 21
203.6633176715457
 31
0.0
  0
LINE
  5
E44
330
1F
100
AcDbEntity
  8
Dim
  6
Continuous
100
AcDbLine
 10
259.5256615423163
 20
203.6623176715457
 30
0.0
 11
261.3256615423164
 21
201.5173176715457
 31
0.0
  0
LINE
  5
E45
330
1F
100
AcDbEntity
  8
0
  6
Continuous
 62
     7
100
AcDbLine
 10
196.0845141293939
 20
184.9247576352735
 30
0.0
 11
203.5845141293939
 21
184.9247576352735
 31
0.0
  0
LINE
  5
E46
330
1F
100
AcDbEntity
  8
AM_7
100
AcDbLine
 10
215.227514129394
 20
188.7747576352735
 30
0.0
 11
223.0475141293939
 21
188.7747576352735
 31
0.0
  0
LINE
  5
E47
330
1F
100
AcDbEntity
  8
AM_7
100
AcDbLine
 10
214.0845141293939
 20
183.5807576352736
 30
0.0
 11
214.0845141293939
 21
175.5977576352735
 31
0.0
  0
LINE
  5
E48
330
1F
100
AcDbEntity
  8
AM_7
100
AcDbLine
 10
210.4375141293939
 20
179.7747576352735
 30
0.0
 11
217.5405141293939
 21
179.7747576352735
 31
0.0
  0
LINE
  5
E49
330
1F
100
AcDbEntity
  8
0
  6
Continuous
 62
     7
100
AcDbLine
 10
224.5845141293939
 20
184.7747576352735
 30
0.0
 11
225.084514129394
 21
184.7747576352735
 31
0.0
  0
CIRCLE
  5
E4B
330
1F
100
AcDbEntity
  8
0
  6
Continuous
 62
     7
100
AcDbCircle
 10
214.0845141293939
 20
179.7747576352735
 30
0.0
 40
2.067
  0
LINE
  5
E4C
330
1F
100
AcDbEntity
  8
0
  6
Continuous
 62
     7
100
AcDbLine
 10
225.084514129394
 20
184.7747576352735
 30
0.0
 11
225.084514129394
 21
189.7747576352735
 31
0.0
  0
LINE
  5
E4D
330
1F
100
AcDbEntity
  8
AM_7
100
AcDbLine
 10
219.084514129394
 20
192.2747576352735
 30
0.0
 11
219.084514129394
 21
184.4467576352736
 31
0.0
  0
CIRCLE
  5
E4E
330
1F
100
AcDbEntity
  8
0
  6
Continuous
 62
     7
100
AcDbCircle
 10
219.084514129394
 20
188.7747576352735
 30
0.0
 40
3.0
  0
LINE
  5
E4F
330
1F
100
AcDbEntity
  8
AM_7
100
AcDbLine
 10
209.0845141293939
 20
192.2747576352735
 30
0.0
 11
209.0845141293939
 21
184.0977576352735
 31
0.0
  0
CIRCLE
  5
E50
330
1F
100
AcDbEntity
  8
0
  6
Continuous
 62
     7
100
AcDbCircle
 10
209.0845141293939
 20
188.7747576352735
 30
0.0
 40
3.0
  0
LINE
  5
E51
330
1F
100
AcDbEntity
  8
0
  6
Continuous
 62
     7
100
AcDbLine
 10
203.5845141293939
 20
236.3095074444732
 30
0.0
 11
205.5845141293939
 21
236.3095074444732
 31
0.0
  0
DIMENSION
  5
E52
330
1F
100
AcDbEntity
  8
Dim
100
AcDbDimension
  2
*D44
 10
224.5845141293939
 20
217.9294770125489
 30
0.0
 11
214.0845141293939
 21
220.1794770125489
 31
0.0
 70
    32
 71
     5
 42
21.0
  3
Standard
100
AcDbAlignedDimension
 13
203.5845141293939
 23
236.3095074444732
 33
0.0
 14
224.5845141293939
 24
236.3095074444732
 34
0.0
100
AcDbRotatedDimension
1001
ACAD
1000
DSTYLE
1002
{
1070
    41
1040
2.0
1070
    42
1040
1.0
1070
    44
1040
1.0
1070
    73
1070
     0
1070
    74
1070
     0
1070
    77
1070
     1
1070
    78
1070
     8
1070
    79
1070
     2
1070
   140
1040
2.5
1070
   141
1040
0.0
1070
   147
1040
1.0
1070
   172
1070
     1
1070
   174
1070
     1
1070
   176
1070
   256
1070
   177
1070
   256
1070
   178
1070
   256
1070
   271
1070
     2
1070
   272
1070
     2
1070
   340
1005
BBE
1070
   371
1070
    -1
1070
   372
1070
    -1
1002
}
  0
DIMENSION
  5
E53
330
1F
100
AcDbEntity
  8
Dim
100
AcDbDimension
  2
*D45
 10
199.2007826154165
 20
238.3095074444732
 30
0.0
 11
199.2007826154165
 21
230.4761741111399
 31
0.0
 70
   160
 71
     5
 42
2.0
  3
Standard
100
AcDbAlignedDimension
 13
199.1380169714011
 23
236.3095074444732
 33
0.0
 14
205.5845141293939
 24
238.3095074444732
 34
0.0
 50
90.0
100
AcDbRotatedDimension
1001
ACAD
1000
DSTYLE
1002
{
1070
    41
1040
2.0
1070
    42
1040
1.0
1070
    44
1040
1.0
1070
    73
1070
     0
1070
    74
1070
     0
1070
    77
1070
     1
1070
    78
1070
     8
1070
    79
1070
     2
1070
   140
1040
2.5
1070
   141
1040
0.0
1070
   147
1040
1.0
1070
   172
1070
     1
1070
   174
1070
     1
1070
   176
1070
   256
1070
   177
1070
   256
1070
   178
1070
   256
1070
   271
1070
     2
1070
   272
1070
     2
1070
   340
1005
BBE
1070
   371
1070
    -1
1070
   372
1070
    -1
1002
}
  0
LINE
  5
E54
330
1F
100
AcDbEntity
  8
0
  6
Continuous
 62
     7
100
AcDbLine
 10
222.5845141293939
 20
236.3095074444732
 30
0.0
 11
224.5845141293939
 21
236.3095074444732
 31
0.0
  0
LINE
  5
E55
330
1F
100
AcDbEntity
  8
0
  6
Continuous
 62
     7
100
AcDbLine
 10
222.5845141293939
 20
236.3095074444732
 30
0.0
 11
222.5845141293939
 21
238.3095074444732
 31
0.0
  0
LINE
  5
E56
330
1F
100
AcDbEntity
  8
0
  6
Continuous
 62
     7
100
AcDbLine
 10
205.5845141293939
 20
236.3095074444732
 30
0.0
 11
205.5845141293939
 21
238.3095074444732
 31
0.0
  0
DIMENSION
  5
E57
330
1F
100
AcDbEntity
  8
AM_5
100
AcDbDimension
  2
*D46
 10
222.5845141293939
 20
226.0818305865841
 30
0.0
 11
214.0845141293939
 21
229.0757774369779
 31
0.0
 70
    32
  1
<>
 71
     5
 42
17.0
  3
AM_ISO$0
100
AcDbAlignedDimension
 13
205.5845141293939
 23
236.3095074444732
 33
0.0
 14
222.5845141293939
 24
236.3095074444732
 34
0.0
100
AcDbRotatedDimension
1001
ACAD
1000
DSTYLE
1002
{
1070
    47
1040
0.2
1070
    48
1040
-0.1
1070
    71
1070
     1
1070
   272
1070
     8
1002
}
1001
GENIUS_GENDTOL_13
1000
TolAcTol
1000

1000

1040
17.0
  0
LINE
  5
E58
330
1F
100
AcDbEntity
  8
0
  6
Continuous
 62
     7
100
AcDbLine
 10
205.5845141293939
 20
238.3095074444732
 30
0.0
 11
222.5845141293939
 21
238.3095074444732
 31
0.0
  0
LINE
  5
E59
330
1F
100
AcDbEntity
  8
AM_7
100
AcDbLine
 10
232.0845141293939
 20
173.7277576352735
 30
0.0
 11
232.0845141293939
 21
181.4127576352736
 31
0.0
  0
ARC
  5
E5A
330
1F
100
AcDbEntity
  8
0
  6
Continuous
 62
     3
100
AcDbCircle
 10
232.0845141293939
 20
177.7747576352735
 30
0.0
 40
2.5
100
AcDbArc
 50
260.0
 51
170.0
  0
CIRCLE
  5
E5B
330
1F
100
AcDbEntity
  8
0
  6
Continuous
 62
     7
100
AcDbCircle
 10
232.0845141293939
 20
177.7747576352735
 30
0.0
 40
2.067
  0
DIMENSION
  5
E5C
330
1F
100
AcDbEntity
  8
Dim
100
AcDbDimension
  2
*D47
 10
265.0845141293939
 20
306.0583888350793
 30
0.0
 11
251.5845141293939
 21
308.3083888350793
 31
0.0
 70
    32
 71
     5
 42
27.0
  3
Standard
100
AcDbAlignedDimension
 13
238.0845141293939
 23
296.5455074444731
 33
0.0
 14
265.0845141293939
 24
297.8095074444732
 34
0.0
100
AcDbRotatedDimension
1001
ACAD
1000
DSTYLE
1002
{
1070
    41
1040
2.0
1070
    42
1040
1.0
1070
    44
1040
1.0
1070
    73
1070
     0
1070
    74
1070
     0
1070
    77
1070
     1
1070
    78
1070
     8
1070
    79
1070
     2
1070
   140
1040
2.5
1070
   141
1040
0.0
1070
   147
1040
1.0
1070
   172
1070
     1
1070
   174
1070
     1
1070
   176
1070
   256
1070
   177
1070
   256
1070
   178
1070
   256
1070
   271
1070
     2
1070
   272
1070
     2
1070
   340
1005
BBE
1070
   371
1070
    -1
1070
   372
1070
    -1
1002
}
  0
LINE
  5
E5D
330
1F
100
AcDbEntity
  8
0
  6
Continuous
 62
     7
100
AcDbLine
 10
203.5845141293939
 20
285.0305074444732
 30
0.0
 11
203.5845141293939
 21
314.3095074444732
 31
0.0
  0
LINE
  5
E5E
330
1F
100
AcDbEntity
  8
0
  6
Continuous
 62
     7
100
AcDbLine
 10
224.5845141293939
 20
285.0305074444732
 30
0.0
 11
224.5845141293939
 21
314.3095074444732
 31
0.0
  0
DIMENSION
  5
E5F
330
1F
100
AcDbEntity
  8
Dim
100
AcDbDimension
  2
*D48
 10
265.0845141293939
 20
329.7222119004127
 30
0.0
 11
230.5845141293939
 21
331.9722119004127
 31
0.0
 70
    32
 71
     5
 42
69.0
  3
Standard
100
AcDbAlignedDimension
 13
196.0845141293939
 23
290.3085074444732
 33
0.0
 14
265.0845141293939
 24
322.9038224729384
 34
0.0
100
AcDbRotatedDimension
1001
ACAD
1000
DSTYLE
1002
{
1070
    41
1040
2.0
1070
    42
1040
1.0
1070
    44
1040
1.0
1070
    73
1070
     0
1070
    74
1070
     0
1070
    77
1070
     1
1070
    78
1070
     8
1070
    79
1070
     2
1070
   140
1040
2.5
1070
   141
1040
0.0
1070
   147
1040
1.0
1070
   172
1070
     1
1070
   174
1070
     1
1070
   176
1070
   256
1070
   177
1070
   256
1070
   178
1070
   256
1070
   271
1070
     2
1070
   272
1070
     2
1070
   340
1005
BBE
1070
   371
1070
    -1
1070
   372
1070
    -1
1002
}
  0
DIMENSION
  5
E60
330
1F
100
AcDbEntity
  8
Dim
100
AcDbDimension
  2
*D49
 10
265.0845141293939
 20
314.0800218199329
 30
0.0
 11
245.0845141293939
 21
316.3300218199329
 31
0.0
 70
    32
 71
     5
 42
40.0
  3
Standard
100
AcDbAlignedDimension
 13
225.084514129394
 23
297.8095074444732
 33
0.0
 14
265.0845141293939
 24
306.0583888350793
 34
0.0
100
AcDbRotatedDimension
1001
ACAD
1000
DSTYLE
1002
{
1070
    41
1040
2.0
1070
    42
1040
1.0
1070
    44
1040
1.0
1070
    73
1070
     0
1070
    74
1070
     0
1070
    77
1070
     1
1070
    78
1070
     8
1070
    79
1070
     2
1070
   140
1040
2.5
1070
   141
1040
0.0
1070
   147
1040
1.0
1070
   172
1070
     1
1070
   174
1070
     1
1070
   176
1070
   256
1070
   177
1070
   256
1070
   178
1070
   256
1070
   271
1070
     2
1070
   272
1070
     2
1070
   340
1005
BBE
1070
   371
1070
    -1
1070
   372
1070
    -1
1002
}
  0
LINE
  5
E61
330
1F
100
AcDbEntity
  8
0
  6
Continuous
 62
     7
100
AcDbLine
 10
224.5845141293939
 20
297.8095074444732
 30
0.0
 11
265.0845141293939
 21
297.8095074444732
 31
0.0
  0
LINE
  5
E62
330
1F
100
AcDbEntity
  8
0
  6
Continuous
 62
     7
100
AcDbLine
 10
225.084514129394
 20
273.3095074444732
 30
0.0
 11
265.0845141293939
 21
273.3095074444732
 31
0.0
  0
LINE
  5
E63
330
1F
100
AcDbEntity
  8
0
  6
Continuous
 62
     7
100
AcDbLine
 10
225.084514129394
 20
282.3095074444732
 30
0.0
 11
265.0845141293939
 21
282.3095074444732
 31
0.0
  0
LINE
  5
E64
330
1F
100
AcDbEntity
  8
0
  6
Continuous
 62
     7
100
AcDbLine
 10
225.084514129394
 20
277.3095074444732
 30
0.0
 11
265.0845141293939
 21
277.3095074444732
 31
0.0
  0
LINE
  5
E66
330
1F
100
AcDbEntity
  8
AM_7
100
AcDbLine
 10
191.3725141293939
 20
275.3095074444732
 30
0.0
 11
267.0611595686514
 21
275.3095074444732
 31
0.0
  0
LINE
  5
E67
330
1F
100
AcDbEntity
  8
0
  6
Continuous
 62
     7
100
AcDbLine
 10
225.084514129394
 20
268.3095074444732
 30
0.0
 11
265.0845141293939
 21
268.3095074444732
 31
0.0
  0
LINE
  5
E69
330
1F
100
AcDbEntity
  8
0
  6
Continuous
 62
     7
100
AcDbLine
 10
265.0845141293939
 20
252.8095074444732
 30
0.0
 11
224.5845141293939
 21
252.8095074444732
 31
0.0
  0
LINE
  5
E6A
330
1F
100
AcDbEntity
  8
0
  6
Continuous
 62
     7
100
AcDbLine
 10
196.0845141293939
 20
260.3095074444732
 30
0.0
 11
196.0845141293939
 21
290.3085074444732
 31
0.0
  0
LINE
  5
E6B
330
1F
100
AcDbEntity
  8
0
  6
Continuous
 62
     7
100
AcDbLine
 10
225.084514129394
 20
252.8095074444732
 30
0.0
 11
225.084514129394
 21
297.8095074444732
 31
0.0
  0
DIMENSION
  5
E6C
330
1F
100
AcDbEntity
  8
Dim
100
AcDbDimension
  2
*D50
 10
185.6234733486462
 20
263.3095074444732
 30
0.0
 11
183.3734733486462
 21
275.3095074444733
 31
0.0
 70
    32
 71
     5
 42
24.0
  3
Standard
100
AcDbAlignedDimension
 13
201.9845141293939
 23
287.3095074444732
 33
0.0
 14
202.8565141293939
 24
263.3095074444732
 34
0.0
 50
90.0
100
AcDbRotatedDimension
1001
ACAD
1000
DSTYLE
1002
{
1070
    41
1040
2.0
1070
    42
1040
1.0
1070
    44
1040
1.0
1070
    73
1070
     0
1070
    74
1070
     0
1070
    77
1070
     1
1070
    78
1070
     8
1070
    79
1070
     2
1070
   140
1040
2.5
1070
   141
1040
0.0
1070
   147
1040
1.0
1070
   172
1070
     1
1070
   174
1070
     1
1070
   176
1070
   256
1070
   177
1070
   256
1070
   178
1070
   256
1070
   271
1070
     2
1070
   272
1070
     2
1070
   340
1005
BBE
1070
   371
1070
    -1
1070
   372
1070
    -1
1002
}
  0
LINE
  5
E6D
330
1F
100
AcDbEntity
  8
0
  6
Continuous
 62
     7
100
AcDbLine
 10
203.5845141293939
 20
244.3095074444732
 30
0.0
 11
211.0845141293939
 21
244.3095074444732
 31
0.0
  0
LINE
  5
E6E
330
1F
100
AcDbEntity
  8
AM_7
100
AcDbLine
 10
202.8565141293939
 20
263.3095074444732
 30
0.0
 11
221.7205141293939
 21
263.3095074444732
 31
0.0
  0
ARC
  5
E6F
330
1F
100
AcDbEntity
  8
0
  6
Continuous
 62
     7
100
AcDbCircle
 10
214.0845141293939
 20
262.3095074444732
 30
0.0
 40
11.0
100
AcDbArc
 50
17.34139999999761
 51
162.659
  0
LINE
  5
E70
330
1F
100
AcDbEntity
  8
0
  6
Continuous
 62
     7
100
AcDbLine
 10
196.0845141293939
 20
260.3095074444732
 30
0.0
 11
199.0845141293939
 21
252.8095074444732
 31
0.0
  0
LINE
  5
E71
330
1F
100
AcDbEntity
  8
0
  6
Continuous
 62
     7
100
AcDbLine
 10
203.5845141293939
 20
252.8095074444732
 30
0.0
 11
199.0845141293939
 21
252.8095074444732
 31
0.0
  0
ARC
  5
E72
330
1F
100
AcDbEntity
  8
0
  6
Continuous
 62
     7
100
AcDbCircle
 10
225.084514129394
 20
270.8095074444732
 30
0.0
 40
3.225
100
AcDbArc
 50
240.5070000000004
 51
270.0
  0
LINE
  5
E73
330
1F
100
AcDbEntity
  8
0
  6
Continuous
 62
     7
100
AcDbLine
 10
217.084514129394
 20
244.3095074444732
 30
0.0
 11
224.5845141293939
 21
244.3095074444732
 31
0.0
  0
LINE
  5
E74
330
1F
100
AcDbEntity
  8
0
  6
Continuous
 62
     7
100
AcDbLine
 10
210.6845141293939
 20
261.8095074444732
 30
0.0
 11
210.6845141293939
 21
264.8095074444732
 31
0.0
  0
LINE
  5
E75
330
1F
100
AcDbEntity
  8
0
  6
Continuous
 62
     7
100
AcDbLine
 10
211.0845141293939
 20
243.0095074444732
 30
0.0
 11
211.0845141293939
 21
244.3095074444732
 31
0.0
  0
LINE
  5
E76
330
1F
100
AcDbEntity
  8
0
  6
Continuous
 62
     7
100
AcDbLine
 10
217.084514129394
 20
243.0095074444732
 30
0.0
 11
217.084514129394
 21
244.3095074444732
 31
0.0
  0
LINE
  5
E77
330
1F
100
AcDbEntity
  8
0
  6
Continuous
 62
     7
100
AcDbLine
 10
211.0845141293939
 20
243.0095074444732
 30
0.0
 11
217.084514129394
 21
243.0095074444732
 31
0.0
  0
LINE
  5
E78
330
1F
100
AcDbEntity
  8
0
  6
Continuous
 62
     7
100
AcDbLine
 10
207.684514129394
 20
261.8095074444732
 30
0.0
 11
207.684514129394
 21
264.8095074444732
 31
0.0
  0
ARC
  5
E79
330
1F
100
AcDbEntity
  8
0
  6
Continuous
 62
     7
100
AcDbCircle
 10
214.0845141293939
 20
263.3095074444732
 30
0.0
 40
5.0
100
AcDbArc
 50
197.4579999999973
 51
162.5420000000026
  0
LINE
  5
E7A
330
1F
100
AcDbEntity
  8
0
  6
Continuous
 62
     7
100
AcDbLine
 10
207.684514129394
 20
261.8095074444732
 30
0.0
 11
210.6845141293939
 21
261.8095074444732
 31
0.0
  0
LINE
  5
E7B
330
1F
100
AcDbEntity
  8
0
  6
Continuous
 62
     7
100
AcDbLine
 10
207.684514129394
 20
264.8095074444732
 30
0.0
 11
210.6845141293939
 21
264.8095074444732
 31
0.0
  0
ARC
  5
E7C
330
1F
100
AcDbEntity
  8
0
  6
Continuous
 62
     7
100
AcDbCircle
 10
225.084514129394
 20
270.8095074444732
 30
0.0
 40
3.225
100
AcDbArc
 50
90.0
 51
194.8820000000027
  0
LINE
  5
E7D
330
1F
100
AcDbEntity
  8
0
  6
Continuous
 62
     7
100
AcDbLine
 10
203.5845141293939
 20
306.3095074444732
 30
0.0
 11
211.0845141293939
 21
306.3095074444732
 31
0.0
  0
ARC
  5
E7E
330
1F
100
AcDbEntity
  8
0
  6
Continuous
 62
     7
100
AcDbCircle
 10
214.0845141293939
 20
288.3095074444732
 30
0.0
 40
11.0
100
AcDbArc
 50
197.3409999999999
 51
342.659
  0
LINE
  5
E7F
330
1F
100
AcDbEntity
  8
AM_7
100
AcDbLine
 10
201.9845141293939
 20
287.3095074444732
 30
0.0
 11
220.6475141293939
 21
287.3095074444732
 31
0.0
  0
LINE
  5
E80
330
1F
100
AcDbEntity
  8
0
  6
Continuous
 62
     7
100
AcDbLine
 10
196.0845141293939
 20
290.3085074444732
 30
0.0
 11
199.0845141293939
 21
297.8095074444732
 31
0.0
  0
LINE
  5
E81
330
1F
100
AcDbEntity
  8
0
  6
Continuous
 62
     7
100
AcDbLine
 10
199.0845141293939
 20
297.8095074444732
 30
0.0
 11
203.5845141293939
 21
297.8095074444732
 31
0.0
  0
LINE
  5
E82
330
1F
100
AcDbEntity
  8
0
  6
Continuous
 62
     7
100
AcDbLine
 10
217.084514129394
 20
306.3095074444732
 30
0.0
 11
224.5845141293939
 21
306.3095074444732
 31
0.0
  0
LINE
  5
E83
330
1F
100
AcDbEntity
  8
0
  6
Continuous
 62
     7
100
AcDbLine
 10
211.0845141293939
 20
307.6095074444731
 30
0.0
 11
211.0845141293939
 21
306.3095074444732
 31
0.0
  0
LINE
  5
E84
330
1F
100
AcDbEntity
  8
0
  6
Continuous
 62
     7
100
AcDbLine
 10
217.084514129394
 20
307.6095074444731
 30
0.0
 11
217.084514129394
 21
306.3095074444732
 31
0.0
  0
LINE
  5
E85
330
1F
100
AcDbEntity
  8
0
  6
Continuous
 62
     7
100
AcDbLine
 10
211.0845141293939
 20
307.6095074444731
 30
0.0
 11
217.084514129394
 21
307.6095074444731
 31
0.0
  0
ARC
  5
E86
330
1F
100
AcDbEntity
  8
0
  6
Continuous
 62
     7
100
AcDbCircle
 10
225.084514129394
 20
279.8095074444732
 30
0.0
 40
3.225
100
AcDbArc
 50
165.1179999999972
 51
270.0
  0
ARC
  5
E87
330
1F
100
AcDbEntity
  8
0
  6
Continuous
 62
     7
100
AcDbCircle
 10
225.084514129394
 20
279.8095074444732
 30
0.0
 40
3.225
100
AcDbArc
 50
90.0
 51
119.4929999999996
  0
LINE
  5
E88
330
1F
100
AcDbEntity
  8
0
  6
Continuous
 62
     7
100
AcDbLine
 10
210.6845141293939
 20
288.8095074444732
 30
0.0
 11
210.6845141293939
 21
285.8095074444732
 31
0.0
  0
LINE
  5
E89
330
1F
100
AcDbEntity
  8
0
  6
Continuous
 62
     7
100
AcDbLine
 10
207.684514129394
 20
288.8095074444732
 30
0.0
 11
207.684514129394
 21
285.8095074444732
 31
0.0
  0
ARC
  5
E8A
330
1F
100
AcDbEntity
  8
0
  6
Continuous
 62
     7
100
AcDbCircle
 10
214.0845141293939
 20
287.3095074444732
 30
0.0
 40
5.0
100
AcDbArc
 50
197.4579999999973
 51
162.5420000000026
  0
LINE
  5
E8B
330
1F
100
AcDbEntity
  8
0
  6
Continuous
 62
     7
100
AcDbLine
 10
207.684514129394
 20
288.8095074444732
 30
0.0
 11
210.6845141293939
 21
288.8095074444732
 31
0.0
  0
LINE
  5
E8C
330
1F
100
AcDbEntity
  8
0
  6
Continuous
 62
     7
100
AcDbLine
 10
207.684514129394
 20
285.8095074444732
 30
0.0
 11
210.6845141293939
 21
285.8095074444732
 31
0.0
  0
LINE
  5
E8D
330
1F
100
AcDbEntity
  8
0
  6
Continuous
 62
     7
100
AcDbLine
 10
265.0845141293939
 20
252.8095074444732
 30
0.0
 11
265.0845141293939
 21
297.8095074444732
 31
0.0
  0
CIRCLE
  5
E8E
330
1F
100
AcDbEntity
  8
0
  6
Continuous
 62
     7
100
AcDbCircle
 10
238.0845141293939
 20
258.3095074444732
 30
0.0
 40
2.458499999999999
  0
LINE
  5
E90
330
1F
100
AcDbEntity
  8
AM_7
100
AcDbLine
 10
233.8535141293939
 20
258.3095074444732
 30
0.0
 11
242.7515141293939
 21
258.3095074444732
 31
0.0
  0
LINE
  5
E91
330
1F
100
AcDbEntity
  8
AM_7
100
AcDbLine
 10
238.0845141293939
 20
253.9415074444731
 30
0.0
 11
238.0845141293939
 21
262.3985074444732
 31
0.0
  0
POINT
  5
E92
330
1F
100
AcDbEntity
  8
0
100
AcDbPoint
 10
265.0845141293939
 20
275.3095074444732
 30
0.0
  0
CIRCLE
  5
E94
330
1F
100
AcDbEntity
  8
0
  6
Continuous
 62
     7
100
AcDbCircle
 10
238.0845141293939
 20
292.3095074444732
 30
0.0
 40
2.458499999999999
  0
LINE
  5
E96
330
1F
100
AcDbEntity
  8
AM_7
100
AcDbLine
 10
238.0845141293939
 20
287.5485074444732
 30
0.0
 11
238.0845141293939
 21
296.5455074444731
 31
0.0
  0
LINE
  5
E98
330
1F
100
AcDbEntity
  8
AM_7
100
AcDbLine
 10
232.9915141293939
 20
292.3095074444732
 30
0.0
 11
242.7845141293939
 21
292.3095074444732
 31
0.0
  0
LINE
  5
E99
330
1F
100
AcDbEntity
  8
0
  6
Continuous
 62
     7
100
AcDbLine
 10
225.084514129394
 20
361.5818742390434
 30
0.0
 11
265.0845141293939
 21
361.5818742390434
 31
0.0
  0
DIMENSION
  5
E9A
330
1F
100
AcDbEntity
  8
Dim
100
AcDbDimension
  2
*D51
 10
265.0845141293939
 20
322.9038224729384
 30
0.0
 11
239.5845141293939
 21
325.1538224729384
 31
0.0
 70
    32
 71
     5
 42
51.0
  3
Standard
100
AcDbAlignedDimension
 13
214.0845141293939
 23
315.2205074444732
 33
0.0
 14
265.0845141293939
 24
314.0800218199329
 34
0.0
100
AcDbRotatedDimension
1001
ACAD
1000
DSTYLE
1002
{
1070
    41
1040
2.0
1070
    42
1040
1.0
1070
    44
1040
1.0
1070
    73
1070
     0
1070
    74
1070
     0
1070
    77
1070
     1
1070
    78
1070
     8
1070
    79
1070
     2
1070
   140
1040
2.5
1070
   141
1040
0.0
1070
   147
1040
1.0
1070
   172
1070
     1
1070
   174
1070
     1
1070
   176
1070
   256
1070
   177
1070
   256
1070
   178
1070
   256
1070
   271
1070
     2
1070
   272
1070
     2
1070
   340
1005
BBE
1070
   371
1070
    -1
1070
   372
1070
    -1
1002
}
  0
LINE
  5
E9B
330
1F
100
AcDbEntity
  8
0
  6
Continuous
 62
     7
100
AcDbLine
 10
203.5845141293939
 20
314.3095074444732
 30
0.0
 11
205.5845141293939
 21
314.3095074444732
 31
0.0
  0
LINE
  5
E9C
330
1F
100
AcDbEntity
  8
0
  6
Continuous
 62
     7
100
AcDbLine
 10
222.5845141293939
 20
314.3095074444732
 30
0.0
 11
224.5845141293939
 21
314.3095074444732
 31
0.0
  0
LINE
  5
E9D
330
1F
100
AcDbEntity
  8
0
  6
Continuous
 62
     7
100
AcDbLine
 10
222.5845141293939
 20
314.3095074444732
 30
0.0
 11
222.5845141293939
 21
312.3095074444732
 31
0.0
  0
LINE
  5
E9E
330
1F
100
AcDbEntity
  8
0
  6
Continuous
 62
     7
100
AcDbLine
 10
205.5845141293939
 20
314.3095074444732
 30
0.0
 11
205.5845141293939
 21
312.3095074444732
 31
0.0
  0
LINE
  5
E9F
330
1F
100
AcDbEntity
  8
0
  6
Continuous
 62
     7
100
AcDbLine
 10
205.5845141293939
 20
312.3095074444732
 30
0.0
 11
222.5845141293939
 21
312.3095074444732
 31
0.0
  0
LINE
  5
EA0
330
1F
100
AcDbEntity
  8
0
  6
Continuous
 62
     7
100
AcDbLine
 10
203.5845141293939
 20
359.0818742390434
 30
0.0
 11
224.5845141293939
 21
359.0818742390434
 31
0.0
  0
LINE
  5
EA1
330
1F
100
AcDbEntity
  8
0
  6
Continuous
 62
     7
100
AcDbLine
 10
196.0845141293939
 20
366.4318742390434
 30
0.0
 11
203.5845141293939
 21
366.4318742390434
 31
0.0
  0
LINE
  5
EA2
330
1F
100
AcDbEntity
  8
AM_7
100
AcDbLine
 10
210.4375141293939
 20
371.5818742390434
 30
0.0
 11
217.6715141293939
 21
371.5818742390434
 31
0.0
  0
LINE
  5
EA3
330
1F
100
AcDbEntity
  8
0
  6
Continuous
 62
     7
100
AcDbLine
 10
224.5845141293939
 20
366.5818742390434
 30
0.0
 11
225.084514129394
 21
366.5818742390434
 31
0.0
  0
LINE
  5
EA4
330
1F
100
AcDbEntity
  8
AM_7
100
AcDbLine
 10
215.3255141293939
 20
362.5818742390434
 30
0.0
 11
223.145514129394
 21
362.5818742390434
 31
0.0
  0
LINE
  5
EA5
330
1F
100
AcDbEntity
  8
0
  6
Continuous
 62
     7
100
AcDbLine
 10
225.084514129394
 20
366.5818742390434
 30
0.0
 11
225.084514129394
 21
361.5818742390434
 31
0.0
  0
LINE
  5
EA6
330
1F
100
AcDbEntity
  8
AM_7
100
AcDbLine
 10
219.084514129394
 20
367.0148742390434
 30
0.0
 11
219.084514129394
 21
359.0818742390434
 31
0.0
  0
CIRCLE
  5
EA7
330
1F
100
AcDbEntity
  8
0
  6
Continuous
 62
     7
100
AcDbCircle
 10
219.084514129394
 20
362.5818742390434
 30
0.0
 40
3.0
  0
LINE
  5
EA8
330
1F
100
AcDbEntity
  8
AM_7
100
AcDbLine
 10
209.0845141293939
 20
366.4588742390433
 30
0.0
 11
209.0845141293939
 21
359.0818742390434
 31
0.0
  0
LINE
  5
EA9
330
1F
100
AcDbEntity
  8
AM_7
100
AcDbLine
 10
205.0045141293939
 20
362.5818742390434
 30
0.0
 11
212.751514129394
 21
362.5818742390434
 31
0.0
  0
CIRCLE
  5
EAA
330
1F
100
AcDbEntity
  8
0
  6
Continuous
 62
     7
100
AcDbCircle
 10
209.0845141293939
 20
362.5818742390434
 30
0.0
 40
3.0
  0
CIRCLE
  5
EAC
330
1F
100
AcDbEntity
  8
0
  6
Continuous
 62
     7
100
AcDbCircle
 10
214.0845141293939
 20
371.5818742390434
 30
0.0
 40
2.067
  0
LINE
  5
EAD
330
1F
100
AcDbEntity
  8
AM_7
100
AcDbLine
 10
236.9805141293939
 20
369.5818742390434
 30
0.0
 11
252.7775141293939
 21
369.5818742390434
 31
0.0
  0
DIMENSION
  5
EAE
330
1F
100
AcDbEntity
  8
Dim
100
AcDbDimension
  2
*D52
 10
265.0845141293939
 20
349.5818742390434
 30
0.0
 11
255.0845141293939
 21
351.8318742390434
 31
0.0
 70
    32
 71
     5
 42
20.0
  3
Standard
100
AcDbAlignedDimension
 13
245.0845141293939
 23
363.5867578263596
 33
0.0
 14
265.0845141293939
 24
361.5818742390434
 34
0.0
100
AcDbRotatedDimension
1001
ACAD
1000
DSTYLE
1002
{
1070
    41
1040
2.0
1070
    42
1040
1.0
1070
    44
1040
1.0
1070
    73
1070
     0
1070
    74
1070
     0
1070
    77
1070
     1
1070
    78
1070
     8
1070
    79
1070
     2
1070
   140
1040
2.5
1070
   141
1040
0.0
1070
   147
1040
1.0
1070
   172
1070
     1
1070
   174
1070
     1
1070
   176
1070
   256
1070
   177
1070
   256
1070
   178
1070
   256
1070
   271
1070
     2
1070
   272
1070
     2
1070
   340
1005
BBE
1070
   371
1070
    -1
1070
   372
1070
    -1
1002
}
  0
CIRCLE
  5
EB0
330
1F
100
AcDbEntity
  8
0
  6
Continuous
 62
     7
100
AcDbCircle
 10
245.0845141293939
 20
369.5818742390434
 30
0.0
 40
2.458499999999999
  0
DIMENSION
  5
EB1
330
1F
100
AcDbEntity
  8
Dim
100
AcDbDimension
  2
*D53
 10
375.2614882341159
 20
215.9588761472132
 30
0.0
 11
355.2614882341158
 21
218.2088761472132
 31
0.0
 70
    32
 71
     5
 42
40.0
  3
Standard
100
AcDbAlignedDimension
 13
335.2614882341159
 23
252.3065074444732
 33
0.0
 14
375.2614882341159
 24
252.3065074444732
 34
0.0
100
AcDbRotatedDimension
1001
ACAD
1000
DSTYLE
1002
{
1070
    41
1040
2.0
1070
    42
1040
1.0
1070
    44
1040
1.0
1070
    73
1070
     0
1070
    74
1070
     0
1070
    77
1070
     1
1070
    78
1070
     8
1070
    79
1070
     2
1070
   140
1040
2.5
1070
   141
1040
0.0
1070
   147
1040
1.0
1070
   172
1070
     1
1070
   174
1070
     1
1070
   176
1070
   256
1070
   177
1070
   256
1070
   178
1070
   256
1070
   271
1070
     2
1070
   272
1070
     2
1070
   340
1005
BBE
1070
   371
1070
    -1
1070
   372
1070
    -1
1002
}
  0
LINE
  5
EB2
330
1F
100
AcDbEntity
  8
0
  6
Continuous
 62
     7
100
AcDbLine
 10
377.7614882341159
 20
236.3095074444732
 30
0.0
 11
377.7614882341159
 21
273.3095074444732
 31
0.0
  0
LINE
  5
EB3
330
1F
100
AcDbEntity
  8
0
  6
Continuous
 62
     7
100
AcDbLine
 10
332.7614882341159
 20
236.3095074444732
 30
0.0
 11
332.7614882341159
 21
273.3095074444732
 31
0.0
  0
LINE
  5
EB4
330
1F
100
AcDbEntity
  8
AM_7
100
AcDbLine
 10
355.2614882341158
 20
316.4465074444731
 30
0.0
 11
355.2614882341158
 21
233.5995074444731
 31
0.0
  0
DIMENSION
  5
EB5
330
1F
100
AcDbEntity
  8
Dim
100
AcDbDimension
  2
*D54
 10
370.2614882341159
 20
224.5047500581422
 30
0.0
 11
355.2614882341158
 21
226.7547500581422
 31
0.0
 70
    32
 71
     5
 42
30.0
  3
Standard
100
AcDbAlignedDimension
 13
340.2614882341159
 23
255.3475074444732
 33
0.0
 14
370.2614882341159
 24
285.7545074444733
 34
0.0
100
AcDbRotatedDimension
1001
ACAD
1000
DSTYLE
1002
{
1070
    41
1040
2.0
1070
    42
1040
1.0
1070
    44
1040
1.0
1070
    73
1070
     0
1070
    74
1070
     0
1070
    77
1070
     1
1070
    78
1070
     8
1070
    79
1070
     2
1070
   140
1040
2.5
1070
   141
1040
0.0
1070
   147
1040
1.0
1070
   172
1070
     1
1070
   174
1070
     1
1070
   176
1070
   256
1070
   177
1070
   256
1070
   178
1070
   256
1070
   271
1070
     2
1070
   272
1070
     2
1070
   340
1005
BBE
1070
   371
1070
    -1
1070
   372
1070
    -1
1002
}
  0
TEXT
  5
EB6
330
1F
100
AcDbEntity
  8
Dim
100
AcDbText
 10
284.2976689900119
 20
147.0521508654845
 30
0.0
 40
3.2
  1
0.8
  7
China
100
AcDbText
  0
LINE
  5
EB7
330
1F
100
AcDbEntity
  8
Dim
  6
Continuous
100
AcDbLine
 10
281.7976689900119
 20
149.7251508654846
 30
0.0
 11
283.5976689900119
 21
147.5801508654846
 31
0.0
  0
LINE
  5
EB8
330
1F
100
AcDbEntity
  8
Dim
  6
Continuous
100
AcDbLine
 10
281.7976689900119
 20
147.5801508654846
 30
0.0
 11
283.5976689900119
 21
149.7251508654846
 31
0.0
  0
TEXT
  5
EB9
330
1F
100
AcDbEntity
  8
Dim
100
AcDbText
 10
274.6976689900119
 20
147.0521508654845
 30
0.0
 40
3.2
  1
M5
  7
China
100
AcDbText
  0
LINE
  5
EBA
330
1F
100
AcDbEntity
  8
0
  6
Continuous
 62
     7
100
AcDbLine
 10
332.7614882341159
 20
236.3095074444732
 30
0.0
 11
377.7614882341159
 21
236.3095074444732
 31
0.0
  0
TEXT
  5
EBB
330
1F
100
AcDbEntity
  8
Dim
100
AcDbText
 10
324.5966176941855
 20
326.0629126120484
 30
0.0
 40
3.2
  1
x3depth
  7
China
100
AcDbText
  0
LEADER
  5
EBC
330
1F
100
AcDbEntity
  8
Dim
100
AcDbLeader
  3
Standard
 76
     3
 10
351.7427008384427
 20
287.6510444771876
 30
0.0
 10
343.542851208299
 20
323.9231506980805
 30
0.0
 10
298.5312535644407
 20
323.9231506980805
 30
0.0
1001
ACAD
1000
DSTYLE
1002
{
1070
    41
1040
2.0
1070
    42
1040
1.0
1070
    44
1040
1.0
1070
    73
1070
     0
1070
    74
1070
     0
1070
    77
1070
     0
1070
    78
1070
     8
1070
    79
1070
     2
1070
   140
1040
2.5
1070
   141
1040
0.0
1070
   147
1040
1.0
1070
   172
1070
     1
1070
   174
1070
     1
1070
   176
1070
   256
1070
   177
1070
   256
1070
   178
1070
   256
1070
   271
1070
     2
1070
   272
1070
     2
1070
   340
1005
BBE
1070
   371
1070
    -1
1070
   372
1070
    -1
1002
}
  0
TEXT
  5
EBD
330
1F
100
AcDbEntity
  8
Dim
100
AcDbText
 10
270.7840208958869
 20
241.2577006419967
 30
0.0
 40
3.2
  1
12depth
  7
China
100
AcDbText
  0
LINE
  5
EBE
330
1F
100
AcDbEntity
  8
Dim
  6
Continuous
100
AcDbLine
 10
268.2840208958869
 20
243.9297006419967
 30
0.0
 11
270.0840208958869
 21
241.7847006419968
 31
0.0
  0
LINE
  5
EBF
330
1F
100
AcDbEntity
  8
Dim
  6
Continuous
100
AcDbLine
 10
268.2840208958869
 20
241.7847006419968
 30
0.0
 11
270.0830208958869
 21
243.9297006419967
 31
0.0
  0
TEXT
  5
EC0
330
1F
100
AcDbEntity
  8
Dim
100
AcDbText
 10
300.6356176941856
 20
326.0629126120484
 30
0.0
 40
3.2
  1
26H9
  7
China
100
AcDbText
  0
CIRCLE
  5
EC1
330
1F
100
AcDbEntity
  8
Dim
  6
Continuous
100
AcDbCircle
 10
298.7726176941856
 20
327.6629126120483
 30
0.0
 40
0.9
  0
LINE
  5
EC2
330
1F
100
AcDbEntity
  8
Dim
  6
Continuous
100
AcDbLine
 10
298.1916176941855
 20
326.0649126120484
 30
0.0
 11
299.3546176941856
 21
329.2599126120486
 31
0.0
  0
TEXT
  5
EC3
330
1F
100
AcDbEntity
  8
Dim
100
AcDbText
 10
314.0396176941856
 20
327.9709126120483
 30
0.0
 40
1.6
  1
+0.052
  7
China
100
AcDbText
  0
TEXT
  5
EC4
330
1F
100
AcDbEntity
  8
Dim
100
AcDbText
 10
315.7016176941855
 20
325.7549126120484
 30
0.0
 40
1.6
  1
0
  7
China
100
AcDbText
  0
LINE
  5
EC5
330
1F
100
AcDbEntity
  8
0
  6
Continuous
 62
     7
100
AcDbLine
 10
377.7614882341159
 20
314.3035074444733
 30
0.0
 11
377.7614882341159
 21
277.3035074444732
 31
0.0
  0
LINE
  5
EC6
330
1F
100
AcDbEntity
  8
0
  6
Continuous
 62
     7
100
AcDbLine
 10
332.7614882341159
 20
314.3035074444733
 30
0.0
 11
332.7614882341159
 21
277.3035074444732
 31
0.0
  0
LINE
  5
EC8
330
1F
100
AcDbEntity
  8
0
  6
Continuous
 62
     7
100
AcDbLine
 10
369.7614882341158
 20
276.5815074444732
 30
0.0
 11
373.4624882341159
 21
276.5815074444732
 31
0.0
  0
LINE
  5
EC9
330
1F
100
AcDbEntity
  8
0
  6
Continuous
 62
     7
100
AcDbLine
 10
369.7614882341158
 20
283.0315074444732
 30
0.0
 11
373.4624882341159
 21
283.0315074444732
 31
0.0
  0
LINE
  5
ECA
330
1F
100
AcDbEntity
  8
AM_7
100
AcDbLine
 10
374.6424882341159
 20
290.3065074444732
 30
0.0
 11
365.7584882341159
 21
290.3065074444732
 31
0.0
  0
CIRCLE
  5
ECC
330
1F
100
AcDbEntity
  8
0
  6
Continuous
 62
     7
100
AcDbCircle
 10
370.2614882341159
 20
290.3065074444732
 30
0.0
 40
2.458499999999999
  0
LINE
  5
ECD
330
1F
100
AcDbEntity
  8
0
  6
Continuous
 62
     7
100
AcDbLine
 10
369.7614882341158
 20
274.0315074444731
 30
0.0
 11
373.4624882341159
 21
274.0315074444731
 31
0.0
  0
LINE
  5
ECE
330
1F
100
AcDbEntity
  8
0
  6
Continuous
 62
     7
100
AcDbLine
 10
375.2614882341159
 20
298.306507444473
 30
0.0
 11
335.2614882341159
 21
298.306507444473
 31
0.0
  0
LINE
  5
ECF
330
1F
100
AcDbEntity
  8
0
  6
Continuous
 62
     7
100
AcDbLine
 10
332.7614882341159
 20
306.3035074444733
 30
0.0
 11
377.7614882341159
 21
306.3035074444733
 31
0.0
  0
LINE
  5
ED0
330
1F
100
AcDbEntity
  8
AM_7
100
AcDbLine
 10
368.0314882341158
 20
279.8065074444731
 30
0.0
 11
377.2424882341159
 21
279.8065074444731
 31
0.0
  0
LINE
  5
ED1
330
1F
100
AcDbEntity
  8
0
  6
Continuous
 62
     7
100
AcDbLine
 10
371.2614882341159
 20
277.3035074444732
 30
0.0
 11
377.7614882341159
 21
277.3035074444732
 31
0.0
  0
LINE
  5
ED2
330
1F
100
AcDbEntity
  8
0
  6
Continuous
 62
     7
100
AcDbLine
 10
371.2614882341159
 20
273.3095074444732
 30
0.0
 11
377.7614882341159
 21
273.3095074444732
 31
0.0
  0
LINE
  5
ED3
330
1F
100
AcDbEntity
  8
0
  6
Continuous
 62
     7
100
AcDbLine
 10
369.7614882341158
 20
267.5815074444732
 30
0.0
 11
373.4624882341159
 21
267.5815074444732
 31
0.0
  0
LINE
  5
ED4
330
1F
100
AcDbEntity
  8
0
  6
Continuous
 62
     7
100
AcDbLine
 10
375.2614882341159
 20
252.3065074444732
 30
0.0
 11
335.2614882341159
 21
252.3065074444732
 31
0.0
  0
LINE
  5
ED5
330
1F
100
AcDbEntity
  8
0
  6
Continuous
 62
     7
100
AcDbLine
 10
332.7614882341159
 20
244.3095074444732
 30
0.0
 11
377.7614882341159
 21
244.3095074444732
 31
0.0
  0
LINE
  5
ED6
330
1F
100
AcDbEntity
  8
AM_7
100
AcDbLine
 10
368.0314882341158
 20
270.8065074444732
 30
0.0
 11
377.2424882341159
 21
270.8065074444732
 31
0.0
  0
DIMENSION
  5
ED7
330
1F
100
AcDbEntity
  8
Dim
100
AcDbDimension
  2
*D55
 10
390.8142209372109
 20
290.3065074444732
 30
0.0
 11
388.5642209372108
 21
275.3065074444732
 31
0.0
 70
    32
 71
     5
 42
30.00000000000011
  3
Standard
100
AcDbAlignedDimension
 13
345.2884882341158
 23
260.3065074444732
 33
0.0
 14
374.6424882341159
 24
290.3065074444732
 34
0.0
 50
90.0
100
AcDbRotatedDimension
1001
ACAD
1000
DSTYLE
1002
{
1070
    41
1040
2.0
1070
    42
1040
1.0
1070
    44
1040
1.0
1070
    73
1070
     0
1070
    74
1070
     0
1070
    77
1070
     1
1070
    78
1070
     8
1070
    79
1070
     2
1070
   140
1040
2.5
1070
   141
1040
0.0
1070
   147
1040
1.0
1070
   172
1070
     1
1070
   174
1070
     1
1070
   176
1070
   256
1070
   177
1070
   256
1070
   178
1070
   256
1070
   271
1070
     2
1070
   272
1070
     2
1070
   340
1005
BBE
1070
   371
1070
    -1
1070
   372
1070
    -1
1002
}
  0
LINE
  5
ED8
330
1F
100
AcDbEntity
  8
AM_7
100
AcDbLine
 10
382.1484882341159
 20
275.3065074444732
 30
0.0
 11
330.0594882341159
 21
275.3065074444732
 31
0.0
  0
LINE
  5
ED9
330
1F
100
AcDbEntity
  8
0
  6
Continuous
 62
     7
100
AcDbLine
 10
335.2614882341159
 20
277.3035074444732
 30
0.0
 11
335.2614882341159
 21
273.3095074444732
 31
0.0
  0
CIRCLE
  5
EDA
330
1F
100
AcDbEntity
  8
0
  6
Continuous
 62
     7
100
AcDbCircle
 10
355.2614882341158
 20
275.3065074444732
 30
0.0
 40
13.0
  0
LINE
  5
EDB
330
1F
100
AcDbEntity
  8
0
  6
Continuous
 62
     7
100
AcDbLine
 10
340.7614882341158
 20
274.0315074444731
 30
0.0
 11
337.0634882341159
 21
274.0315074444731
 31
0.0
  0
LINE
  5
EDC
330
1F
100
AcDbEntity
  8
0
  6
Continuous
 62
     7
100
AcDbLine
 10
337.0634882341159
 20
274.0315074444731
 30
0.0
 11
336.6464882341158
 21
273.3095074444732
 31
0.0
  0
LINE
  5
EDD
330
1F
100
AcDbEntity
  8
0
  6
Continuous
 62
     7
100
AcDbLine
 10
332.7614882341159
 20
273.3095074444732
 30
0.0
 11
339.2614882341159
 21
273.3095074444732
 31
0.0
  0
LINE
  5
EDE
330
1F
100
AcDbEntity
  8
0
  6
Continuous
 62
     7
100
AcDbLine
 10
340.7614882341158
 20
267.5815074444732
 30
0.0
 11
337.0624882341159
 21
267.5815074444732
 31
0.0
  0
LINE
  5
EDF
330
1F
100
AcDbEntity
  8
AM_7
100
AcDbLine
 10
345.2884882341158
 20
260.3065074444732
 30
0.0
 11
335.9474882341158
 21
260.3065074444732
 31
0.0
  0
CIRCLE
  5
EE1
330
1F
100
AcDbEntity
  8
0
  6
Continuous
 62
     7
100
AcDbCircle
 10
340.2614882341159
 20
260.3065074444732
 30
0.0
 40
2.458499999999999
  0
LINE
  5
EE2
330
1F
100
AcDbEntity
  8
AM_7
100
AcDbLine
 10
342.5594882341159
 20
270.8065074444732
 30
0.0
 11
332.5964882341158
 21
270.8065074444732
 31
0.0
  0
LINE
  5
EE3
330
1F
100
AcDbEntity
  8
0
  6
Continuous
 62
     7
100
AcDbLine
 10
336.6444882341158
 20
268.3065074444731
 30
0.0
 11
335.2614882341159
 21
268.3065074444731
 31
0.0
  0
LINE
  5
EE4
330
1F
100
AcDbEntity
  8
0
  6
Continuous
 62
     7
100
AcDbLine
 10
337.0624882341159
 20
267.5815074444732
 30
0.0
 11
336.6444882341158
 21
268.3065074444731
 31
0.0
  0
LINE
  5
EE5
330
1F
100
AcDbEntity
  8
0
  6
Continuous
 62
     7
100
AcDbLine
 10
335.2614882341159
 20
268.3065074444731
 30
0.0
 11
335.2614882341159
 21
252.3065074444732
 31
0.0
  0
LINE
  5
EE6
330
1F
100
AcDbEntity
  8
0
  6
Continuous
 62
     7
100
AcDbLine
 10
339.2614882341159
 20
244.3095074444732
 30
0.0
 11
339.2614882341159
 21
252.3065074444732
 31
0.0
  0
POINT
  5
EE7
330
1F
100
AcDbEntity
  8
0
100
AcDbPoint
 10
340.7614882341158
 20
270.8065074444732
 30
0.0
  0
LINE
  5
EE8
330
1F
100
AcDbEntity
  8
AM_7
100
AcDbLine
 10
340.2614882341159
 20
264.6895074444732
 30
0.0
 11
340.2614882341159
 21
255.3475074444732
 31
0.0
  0
LINE
  5
EE9
330
1F
100
AcDbEntity
  8
0
  6
Continuous
 62
     7
100
AcDbLine
 10
340.7614882341158
 20
267.5815074444732
 30
0.0
 11
340.7614882341158
 21
274.0315074444731
 31
0.0
  0
LINE
  5
EEA
330
1F
100
AcDbEntity
  8
0
  6
Continuous
 62
     7
100
AcDbLine
 10
340.2614882341159
 20
267.5815074444732
 30
0.0
 11
340.2614882341159
 21
274.0315074444731
 31
0.0
  0
LINE
  5
EEB
330
1F
100
AcDbEntity
  8
0
  6
Continuous
 62
     7
100
AcDbLine
 10
339.2614882341159
 20
267.5815074444732
 30
0.0
 11
339.2614882341159
 21
273.3095074444732
 31
0.0
  0
POINT
  5
EEC
330
1F
100
AcDbEntity
  8
AM_7
100
AcDbPoint
 10
355.2614882341158
 20
275.3065074444732
 30
0.0
  0
LINE
  5
EED
330
1F
100
AcDbEntity
  8
0
  6
Continuous
 62
     7
100
AcDbLine
 10
371.2614882341159
 20
244.3095074444732
 30
0.0
 11
371.2614882341159
 21
252.3065074444732
 31
0.0
  0
LINE
  5
EEE
330
1F
100
AcDbEntity
  8
0
  6
Continuous
 62
     7
100
AcDbLine
 10
369.7614882341158
 20
267.5815074444732
 30
0.0
 11
369.7614882341158
 21
274.0315074444731
 31
0.0
  0
LINE
  5
EEF
330
1F
100
AcDbEntity
  8
0
  6
Continuous
 62
     7
100
AcDbLine
 10
370.2614882341159
 20
267.5815074444732
 30
0.0
 11
370.2614882341159
 21
274.0315074444731
 31
0.0
  0
LINE
  5
EF0
330
1F
100
AcDbEntity
  8
0
  6
Continuous
 62
     7
100
AcDbLine
 10
371.2614882341159
 20
267.5815074444732
 30
0.0
 11
371.2614882341159
 21
273.3095074444732
 31
0.0
  0
LINE
  5
EF1
330
1F
100
AcDbEntity
  8
0
  6
Continuous
 62
     7
100
AcDbLine
 10
340.7614882341158
 20
276.5815074444732
 30
0.0
 11
337.0634882341159
 21
276.5815074444732
 31
0.0
  0
LINE
  5
EF2
330
1F
100
AcDbEntity
  8
0
  6
Continuous
 62
     7
100
AcDbLine
 10
340.7614882341158
 20
283.0315074444732
 30
0.0
 11
337.0624882341159
 21
283.0315074444732
 31
0.0
  0
LINE
  5
EF3
330
1F
100
AcDbEntity
  8
AM_7
100
AcDbLine
 10
342.5594882341159
 20
279.8065074444731
 30
0.0
 11
332.5964882341158
 21
279.8065074444731
 31
0.0
  0
LINE
  5
EF4
330
1F
100
AcDbEntity
  8
0
  6
Continuous
 62
     7
100
AcDbLine
 10
335.2614882341159
 20
298.306507444473
 30
0.0
 11
335.2614882341159
 21
282.3065074444731
 31
0.0
  0
LINE
  5
EF5
330
1F
100
AcDbEntity
  8
0
  6
Continuous
 62
     7
100
AcDbLine
 10
336.6444882341158
 20
282.3065074444731
 30
0.0
 11
335.2614882341159
 21
282.3065074444731
 31
0.0
  0
LINE
  5
EF6
330
1F
100
AcDbEntity
  8
0
  6
Continuous
 62
     7
100
AcDbLine
 10
337.0624882341159
 20
276.5825074444732
 30
0.0
 11
336.6464882341158
 21
277.3035074444732
 31
0.0
  0
LINE
  5
EF7
330
1F
100
AcDbEntity
  8
0
  6
Continuous
 62
     7
100
AcDbLine
 10
337.0624882341159
 20
283.0315074444732
 30
0.0
 11
336.6434882341159
 21
282.3065074444731
 31
0.0
  0
LINE
  5
EF8
330
1F
100
AcDbEntity
  8
0
  6
Continuous
 62
     7
100
AcDbLine
 10
339.2614882341159
 20
283.0315074444732
 30
0.0
 11
339.2614882341159
 21
277.3035074444732
 31
0.0
  0
LINE
  5
EF9
330
1F
100
AcDbEntity
  8
0
  6
Continuous
 62
     7
100
AcDbLine
 10
332.7614882341159
 20
277.3035074444732
 30
0.0
 11
339.2614882341159
 21
277.3035074444732
 31
0.0
  0
POINT
  5
EFA
330
1F
100
AcDbEntity
  8
0
100
AcDbPoint
 10
340.7614882341158
 20
279.8065074444731
 30
0.0
  0
LINE
  5
EFB
330
1F
100
AcDbEntity
  8
0
  6
Continuous
 62
     7
100
AcDbLine
 10
340.7614882341158
 20
283.0315074444732
 30
0.0
 11
340.7614882341158
 21
276.5815074444732
 31
0.0
  0
LINE
  5
EFC
330
1F
100
AcDbEntity
  8
0
  6
Continuous
 62
     7
100
AcDbLine
 10
340.2614882341159
 20
283.0315074444732
 30
0.0
 11
340.2614882341159
 21
276.5815074444732
 31
0.0
  0
LINE
  5
EFD
330
1F
100
AcDbEntity
  8
0
  6
Continuous
 62
     7
100
AcDbLine
 10
339.2614882341159
 20
306.3035074444733
 30
0.0
 11
339.2614882341159
 21
298.306507444473
 31
0.0
  0
LINE
  5
EFE
330
1F
100
AcDbEntity
  8
0
  6
Continuous
 62
     7
100
AcDbLine
 10
369.7614882341158
 20
283.0315074444732
 30
0.0
 11
369.7614882341158
 21
276.5815074444732
 31
0.0
  0
LINE
  5
EFF
330
1F
100
AcDbEntity
  8
AM_7
100
AcDbLine
 10
370.2614882341159
 20
294.4555074444732
 30
0.0
 11
370.2614882341159
 21
285.7545074444733
 31
0.0
  0
LINE
  5
F00
330
1F
100
AcDbEntity
  8
0
  6
Continuous
 62
     7
100
AcDbLine
 10
370.2614882341159
 20
283.0315074444732
 30
0.0
 11
370.2614882341159
 21
276.5815074444732
 31
0.0
  0
LINE
  5
F01
330
1F
100
AcDbEntity
  8
0
  6
Continuous
 62
     7
100
AcDbLine
 10
371.2614882341159
 20
283.0315074444732
 30
0.0
 11
371.2614882341159
 21
277.3035074444732
 31
0.0
  0
LINE
  5
F02
330
1F
100
AcDbEntity
  8
0
  6
Continuous
 62
     7
100
AcDbLine
 10
371.2614882341159
 20
306.3035074444733
 30
0.0
 11
371.2614882341159
 21
298.306507444473
 31
0.0
  0
LINE
  5
F03
330
1F
100
AcDbEntity
  8
0
  6
Continuous
 62
     7
100
AcDbLine
 10
375.2614882341159
 20
277.3035074444732
 30
0.0
 11
375.2614882341159
 21
273.3095074444732
 31
0.0
  0
LINE
  5
F04
330
1F
100
AcDbEntity
  8
0
  6
Continuous
 62
     7
100
AcDbLine
 10
373.4624882341159
 20
274.0315074444731
 30
0.0
 11
373.8794882341159
 21
273.3095074444732
 31
0.0
  0
LINE
  5
F05
330
1F
100
AcDbEntity
  8
0
  6
Continuous
 62
     7
100
AcDbLine
 10
373.8814882341159
 20
268.3065074444731
 30
0.0
 11
375.2614882341159
 21
268.3065074444731
 31
0.0
  0
LINE
  5
F06
330
1F
100
AcDbEntity
  8
0
  6
Continuous
 62
     7
100
AcDbLine
 10
373.4624882341159
 20
267.5815074444732
 30
0.0
 11
373.8814882341159
 21
268.3055074444732
 31
0.0
  0
LINE
  5
F07
330
1F
100
AcDbEntity
  8
0
  6
Continuous
 62
     7
100
AcDbLine
 10
375.2614882341159
 20
268.3065074444731
 30
0.0
 11
375.2614882341159
 21
252.3065074444732
 31
0.0
  0
LINE
  5
F08
330
1F
100
AcDbEntity
  8
0
  6
Continuous
 62
     7
100
AcDbLine
 10
373.8814882341159
 20
282.3065074444731
 30
0.0
 11
375.2614882341159
 21
282.3065074444731
 31
0.0
  0
LINE
  5
F09
330
1F
100
AcDbEntity
  8
0
  6
Continuous
 62
     7
100
AcDbLine
 10
373.4624882341159
 20
276.5815074444732
 30
0.0
 11
373.8794882341159
 21
277.3035074444732
 31
0.0
  0
LINE
  5
F0A
330
1F
100
AcDbEntity
  8
0
  6
Continuous
 62
     7
100
AcDbLine
 10
373.4624882341159
 20
283.0315074444732
 30
0.0
 11
373.8814882341159
 21
282.3075074444732
 31
0.0
  0
LINE
  5
F0B
330
1F
100
AcDbEntity
  8
0
  6
Continuous
 62
     7
100
AcDbLine
 10
375.2614882341159
 20
298.306507444473
 30
0.0
 11
375.2614882341159
 21
282.3065074444731
 31
0.0
  0
LINE
  5
F0C
330
1F
100
AcDbEntity
  8
0
  6
Continuous
 62
     7
100
AcDbLine
 10
332.7614882341159
 20
314.3035074444733
 30
0.0
 11
377.7614882341159
 21
314.3035074444733
 31
0.0
  0
TEXT
  5
F0D
330
1F
100
AcDbEntity
  8
Dim
100
AcDbText
 10
391.6864882341159
 20
328.0785074444732
 30
0.0
 40
3.2
  1
2-M6
  7
China
100
AcDbText
  0
LINE
  5
F0E
330
1F
100
AcDbEntity
  8
Dim
100
AcDbLine
 10
406.5525771605951
 20
328.6065074444732
 30
0.0
 11
408.351577160595
 21
330.7515074444732
 31
0.0
  0
LINE
  5
F0F
330
1F
100
AcDbEntity
  8
Dim
100
AcDbLine
 10
406.5525771605951
 20
330.7505074444732
 30
0.0
 11
408.3525771605951
 21
328.6055074444732
 31
0.0
  0
TEXT
  5
F10
330
1F
100
AcDbEntity
  8
Dim
100
AcDbText
 10
268.5569193256266
 20
419.5053285986585
 30
0.0
 40
3.2
  1
2-M6
  7
China
100
AcDbText
  0
LEADER
  5
F11
330
1F
100
AcDbEntity
  8
Dim
100
AcDbLeader
  3
Standard
 76
     3
 10
245.0845141293939
 20
396.5818742390434
 30
0.0
 10
266.148200382283
 20
417.5435666628573
 30
0.0
 10
307.5690589463138
 20
417.5435666628573
 30
0.0
1001
ACAD
1000
DSTYLE
1002
{
1070
    41
1040
2.0
1070
    42
1040
1.0
1070
    44
1040
1.0
1070
    73
1070
     0
1070
    74
1070
     0
1070
    77
1070
     0
1070
    78
1070
     8
1070
    79
1070
     2
1070
   140
1040
2.5
1070
   141
1040
0.0
1070
   147
1040
1.0
1070
   172
1070
     1
1070
   174
1070
     1
1070
   176
1070
   256
1070
   177
1070
   256
1070
   178
1070
   256
1070
   271
1070
     2
1070
   272
1070
     2
1070
   340
1005
BBE
1070
   371
1070
    -1
1070
   372
1070
    -1
1002
}
  0
LINE
  5
F12
330
1F
100
AcDbEntity
  8
AM_7
100
AcDbLine
 10
191.3725141293939
 20
381.5818742390434
 30
0.0
 11
267.3453487982019
 21
381.5818742390434
 31
0.0
  0
LINE
  5
F13
330
1F
100
AcDbEntity
  8
0
  6
Continuous
 62
     7
100
AcDbLine
 10
225.084514129394
 20
401.5818742390433
 30
0.0
 11
265.0845141293939
 21
401.5818742390433
 31
0.0
  0
LINE
  5
F14
330
1F
100
AcDbEntity
  8
0
  6
Continuous
 62
     7
100
AcDbLine
 10
203.5845141293939
 20
404.0818742390433
 30
0.0
 11
224.5845141293939
 21
404.0818742390433
 31
0.0
  0
LINE
  5
F15
330
1F
100
AcDbEntity
  8
AM_7
100
AcDbLine
 10
204.8325141293939
 20
400.5818742390434
 30
0.0
 11
212.751514129394
 21
400.5818742390434
 31
0.0
  0
LINE
  5
F16
330
1F
100
AcDbEntity
  8
0
  6
Continuous
 62
     7
100
AcDbLine
 10
196.0845141293939
 20
396.7318742390434
 30
0.0
 11
203.5845141293939
 21
396.7318742390434
 31
0.0
  0
LINE
  5
F17
330
1F
100
AcDbEntity
  8
AM_7
100
AcDbLine
 10
215.227514129394
 20
400.5818742390434
 30
0.0
 11
223.0475141293939
 21
400.5818742390434
 31
0.0
  0
LINE
  5
F18
330
1F
100
AcDbEntity
  8
AM_7
100
AcDbLine
 10
214.0845141293939
 20
395.3918742390433
 30
0.0
 11
214.0845141293939
 21
387.4048742390432
 31
0.0
  0
LINE
  5
F19
330
1F
100
AcDbEntity
  8
AM_7
100
AcDbLine
 10
210.4375141293939
 20
391.5818742390434
 30
0.0
 11
217.5405141293939
 21
391.5818742390434
 31
0.0
  0
LINE
  5
F1A
330
1F
100
AcDbEntity
  8
0
  6
Continuous
 62
     7
100
AcDbLine
 10
224.5845141293939
 20
396.5818742390434
 30
0.0
 11
225.084514129394
 21
396.5818742390434
 31
0.0
  0
ARC
  5
F1B
330
1F
100
AcDbEntity
  8
0
  6
Continuous
 62
     3
100
AcDbCircle
 10
214.0845141293939
 20
391.5818742390434
 30
0.0
 40
2.5
100
AcDbArc
 50
260.0
 51
170.0
  0
CIRCLE
  5
F1C
330
1F
100
AcDbEntity
  8
0
  6
Continuous
 62
     7
100
AcDbCircle
 10
214.0845141293939
 20
391.5818742390434
 30
0.0
 40
2.067
  0
LINE
  5
F1D
330
1F
100
AcDbEntity
  8
0
  6
Continuous
 62
     7
100
AcDbLine
 10
225.084514129394
 20
401.5818742390433
 30
0.0
 11
225.084514129394
 21
396.5818742390434
 31
0.0
  0
LINE
  5
F1E
330
1F
100
AcDbEntity
  8
AM_7
100
AcDbLine
 10
219.084514129394
 20
404.0818742390433
 30
0.0
 11
219.084514129394
 21
396.2518742390435
 31
0.0
  0
LINE
  5
F1F
330
1F
100
AcDbEntity
  8
AM_7
100
AcDbLine
 10
209.0845141293939
 20
404.0818742390433
 30
0.0
 11
209.0845141293939
 21
395.9018742390435
 31
0.0
  0
CIRCLE
  5
F20
330
1F
100
AcDbEntity
  8
0
  6
Continuous
 62
     7
100
AcDbCircle
 10
219.084514129394
 20
400.5818742390434
 30
0.0
 40
3.0
  0
CIRCLE
  5
F21
330
1F
100
AcDbEntity
  8
0
  6
Continuous
 62
     7
100
AcDbCircle
 10
209.0845141293939
 20
400.5818742390434
 30
0.0
 40
3.0
  0
LINE
  5
F22
330
1F
100
AcDbEntity
  8
AM_7
100
AcDbLine
 10
236.5915141293939
 20
393.5818742390434
 30
0.0
 11
252.5445141293939
 21
393.5818742390434
 31
0.0
  0
ARC
  5
F23
330
1F
100
AcDbEntity
  8
0
  6
Continuous
 62
     3
100
AcDbCircle
 10
245.0868583797924
 20
393.5816691437091
 30
0.0
 40
3.0
100
AcDbArc
 50
260.0
 51
170.0
  0
CIRCLE
  5
F24
330
1F
100
AcDbEntity
  8
0
  6
Continuous
 62
     7
100
AcDbCircle
 10
245.0845141293939
 20
393.5818742390434
 30
0.0
 40
2.458499999999999
  0
LINE
  5
F25
330
1F
100
AcDbEntity
  8
AM_7
100
AcDbLine
 10
245.0845141293939
 20
400.3018742390434
 30
0.0
 11
245.0845141293939
 21
386.8348742390436
 31
0.0
  0
POINT
  5
F26
330
1F
100
AcDbEntity
  8
0
100
AcDbPoint
 10
265.0845141293939
 20
381.5818742390434
 30
0.0
  0
TEXT
  5
F27
330
1F
100
AcDbEntity
  8
Dim
100
AcDbText
 10
284.5569193256266
 20
419.5053285986585
 30
0.0
 40
3.2
  1
10depth
  7
China
100
AcDbText
  0
LINE
  5
F28
330
1F
100
AcDbEntity
  8
Dim
  6
Continuous
100
AcDbLine
 10
282.0569193256266
 20
420.0253285986584
 30
0.0
 11
283.8559193256266
 21
422.1753285986585
 31
0.0
  0
LINE
  5
F29
330
1F
100
AcDbEntity
  8
Dim
  6
Continuous
100
AcDbLine
 10
282.0569193256266
 20
422.1753285986585
 30
0.0
 11
283.8569193256266
 21
420.0253285986584
 31
0.0
  0
TEXT
  5
F2A
330
1F
100
AcDbEntity
  8
Dim
100
AcDbText
 10
267.6608850861377
 20
412.1144818029343
 30
0.0
 40
3.2
  1
(Mounting thred)
  7
China
100
AcDbText
  0
TEXT
  5
F2B
330
1F
100
AcDbEntity
  8
Dim
100
AcDbText
 10
252.9922101617411
 20
235.4862240078909
 30
0.0
 40
3.2
  1
Bottom through hole die.
  7
China
100
AcDbText
  0
TEXT
  5
F2C
330
1F
100
AcDbEntity
  8
Dim
100
AcDbText
 10
252.9922101617411
 20
230.9729458564224
 30
0.0
 40
3.2
  1
5.1(Mounting hole)
  7
China
100
AcDbText
  0
TEXT
  5
F2D
330
1F
100
AcDbEntity
  8
Dim
100
AcDbText
 10
392.9801729379706
 20
321.6064225845503
 30
0.0
 40
3.2
  1
(Mounting thred)
  7
China
100
AcDbText
  0
TEXT
  5
F2E
330
1F
100
AcDbEntity
  8
Dim
100
AcDbText
 10
251.7949811291678
 20
195.322013155962
 30
0.0
 40
3.2
  1
(Finger closing port)
  7
China
100
AcDbText
  0
TEXT
  5
F2F
330
1F
100
AcDbEntity
  8
Dim
100
AcDbText
 10
273.537093778361
 20
141.4677723767704
 30
0.0
 40
3.2
  1
(Finger opening port)
  7
China
100
AcDbText
  0
TEXT
  5
F30
330
1F
100
AcDbEntity
  8
Dim
100
AcDbText
 10
151.6616634971269
 20
130.5508432959758
 30
0.0
 40
3.2
  1
(Thread for mounting attachment)
  7
China
100
AcDbText
  0
TEXT
  5
F32
330
1F
100
AcDbEntity
  8
Dim
100
AcDbText
 10
569.5648509128836
 20
340.5301192486171
 30
0.0
 40
3.2
  1
(Thread for mounting 
  7
China
100
AcDbText
  0
TEXT
  5
F33
330
1F
100
AcDbEntity
  8
Dim
100
AcDbText
 10
569.5648509128836
 20
334.3096124545591
 30
0.0
 40
3.2
  1
attachment)
  7
China
100
AcDbText
  0
ARC
  5
F34
330
1F
100
AcDbEntity
  8
0
  6
Continuous
 62
     7
100
AcDbCircle
 10
650.2393884343176
 20
279.8065074444731
 30
0.0
 40
3.225
100
AcDbArc
 50
165.1179999999972
 51
270.0
  0
ARC
  5
F35
330
1F
100
AcDbEntity
  8
0
  6
Continuous
 62
     7
100
AcDbCircle
 10
650.2393884343176
 20
270.8065074444732
 30
0.0
 40
3.225
100
AcDbArc
 50
90.0
 51
194.8820000000027
  0
LINE
  5
F36
330
1F
100
AcDbEntity
  8
0
  6
Continuous
 62
     7
100
AcDbLine
 10
690.2393884343175
 20
252.8065074444731
 30
0.0
 11
649.7393884343175
 21
252.8065074444731
 31
0.0
  0
LINE
  5
F37
330
1F
100
AcDbEntity
  8
0
  6
Continuous
 62
     7
100
AcDbLine
 10
650.2393884343176
 20
268.3065074444731
 30
0.0
 11
690.2393884343175
 21
268.3065074444731
 31
0.0
  0
LINE
  5
F39
330
1F
100
AcDbEntity
  8
0
  6
Continuous
 62
     7
100
AcDbLine
 10
650.2393884343176
 20
277.3065074444732
 30
0.0
 11
690.2393884343175
 21
277.3065074444732
 31
0.0
  0
LINE
  5
F3A
330
1F
100
AcDbEntity
  8
0
  6
Continuous
 62
     7
100
AcDbLine
 10
650.2393884343176
 20
282.3065074444731
 30
0.0
 11
690.2393884343175
 21
282.3065074444731
 31
0.0
  0
LINE
  5
F3B
330
1F
100
AcDbEntity
  8
0
  6
Continuous
 62
     7
100
AcDbLine
 10
650.2393884343176
 20
273.3065074444732
 30
0.0
 11
690.2393884343175
 21
273.3065074444732
 31
0.0
  0
LINE
  5
F3C
330
1F
100
AcDbEntity
  8
0
  6
Continuous
 62
     7
100
AcDbLine
 10
649.7393884343175
 20
297.8065074444733
 30
0.0
 11
690.2393884343175
 21
297.8065074444733
 31
0.0
  0
LINE
  5
F3D
330
1F
100
AcDbEntity
  8
AM_7
100
AcDbLine
 10
658.1463884343175
 20
292.3065074444732
 30
0.0
 11
667.9393884343176
 21
292.3065074444732
 31
0.0
  0
CIRCLE
  5
F3F
330
1F
100
AcDbEntity
  8
0
  6
Continuous
 62
     7
100
AcDbCircle
 10
663.2393884343176
 20
292.3065074444732
 30
0.0
 40
2.458499999999999
  0
LINE
  5
F40
330
1F
100
AcDbEntity
  8
AM_7
100
AcDbLine
 10
659.0083884343175
 20
258.3065074444732
 30
0.0
 11
667.9063884343175
 21
258.3065074444732
 31
0.0
  0
CIRCLE
  5
F42
330
1F
100
AcDbEntity
  8
0
  6
Continuous
 62
     7
100
AcDbCircle
 10
663.2393884343176
 20
258.3065074444732
 30
0.0
 40
2.458499999999999
  0
LINE
  5
F43
330
1F
100
AcDbEntity
  8
AM_7
100
AcDbLine
 10
663.2393884343176
 20
287.5455074444732
 30
0.0
 11
663.2393884343176
 21
296.5425074444731
 31
0.0
  0
LINE
  5
F44
330
1F
100
AcDbEntity
  8
0
  6
Continuous
 62
     7
100
AcDbLine
 10
650.2393884343176
 20
252.8065074444731
 30
0.0
 11
650.2393884343176
 21
297.8065074444733
 31
0.0
  0
ARC
  5
F45
330
1F
100
AcDbEntity
  8
0
  6
Continuous
 62
     7
100
AcDbCircle
 10
650.2393884343176
 20
279.8065074444731
 30
0.0
 40
3.225
100
AcDbArc
 50
90.0
 51
119.4929999999996
  0
ARC
  5
F46
330
1F
100
AcDbEntity
  8
0
  6
Continuous
 62
     7
100
AcDbCircle
 10
650.2393884343176
 20
270.8065074444732
 30
0.0
 40
3.225
100
AcDbArc
 50
240.5070000000004
 51
270.0
  0
LINE
  5
F47
330
1F
100
AcDbEntity
  8
AM_7
100
AcDbLine
 10
663.2393884343176
 20
253.9385074444731
 30
0.0
 11
663.2393884343176
 21
262.3955074444732
 31
0.0
  0
LINE
  5
F49
330
1F
100
AcDbEntity
  8
0
  6
Continuous
 62
     7
100
AcDbLine
 10
690.2393884343175
 20
252.8065074444731
 30
0.0
 11
690.2393884343175
 21
297.8065074444733
 31
0.0
  0
POINT
  5
F4A
330
1F
100
AcDbEntity
  8
0
100
AcDbPoint
 10
690.2393884343175
 20
275.3065074444732
 30
0.0
  0
LINE
  5
F4B
330
1F
100
AcDbEntity
  8
0
  6
Continuous
 62
     7
100
AcDbLine
 10
621.2393884343176
 20
260.3065074444732
 30
0.0
 11
621.2393884343176
 21
290.3055074444731
 31
0.0
  0
LINE
  5
F4C
330
1F
100
AcDbEntity
  8
0
  6
Continuous
 62
     7
100
AcDbLine
 10
621.2393884343176
 20
260.3065074444732
 30
0.0
 11
624.2393884343175
 21
252.8065074444731
 31
0.0
  0
LINE
  5
F4D
330
1F
100
AcDbEntity
  8
0
  6
Continuous
 62
     7
100
AcDbLine
 10
628.7393884343175
 20
252.8065074444731
 30
0.0
 11
624.2393884343175
 21
252.8065074444731
 31
0.0
  0
LINE
  5
F4E
330
1F
100
AcDbEntity
  8
0
  6
Continuous
 62
     7
100
AcDbLine
 10
621.2393884343176
 20
290.3055074444731
 30
0.0
 11
624.2393884343175
 21
297.8065074444733
 31
0.0
  0
LINE
  5
F4F
330
1F
100
AcDbEntity
  8
0
  6
Continuous
 62
     7
100
AcDbLine
 10
624.2393884343175
 20
297.8065074444733
 30
0.0
 11
628.7393884343175
 21
297.8065074444733
 31
0.0
  0
LINE
  5
F50
330
1F
100
AcDbEntity
  8
0
100
AcDbLine
 10
552.3960447280122
 20
297.8065074444733
 30
0.0
 11
520.3960447280121
 21
297.8065074444733
 31
0.0
  0
LINE
  5
F51
330
1F
100
AcDbEntity
  8
0
100
AcDbLine
 10
552.3960447280122
 20
290.3055074444731
 30
0.0
 11
520.3960447280121
 21
290.3055074444731
 31
0.0
  0
LINE
  5
F52
330
1F
100
AcDbEntity
  8
0
100
AcDbLine
 10
552.3960447280122
 20
260.3075074444731
 30
0.0
 11
520.3960447280121
 21
260.3075074444731
 31
0.0
  0
LINE
  5
F53
330
1F
100
AcDbEntity
  8
0
100
AcDbLine
 10
552.3960447280122
 20
252.8065074444731
 30
0.0
 11
520.3960447280121
 21
252.8065074444731
 31
0.0
  0
LINE
  5
F54
330
1F
100
AcDbEntity
  8
0
100
AcDbLine
 10
521.3960447280121
 20
312.3065074444733
 30
0.0
 11
551.3960447280121
 21
312.3065074444733
 31
0.0
  0
LINE
  5
F55
330
1F
100
AcDbEntity
  8
0
100
AcDbLine
 10
521.3960447280121
 20
238.3065074444731
 30
0.0
 11
551.3960447280121
 21
238.3065074444731
 31
0.0
  0
LEADER
  5
1175
330
1F
100
AcDbEntity
  8
Dim
100
AcDbLeader
  3
Standard
 76
     3
 10
372.4362228580193
 20
292.2384524605269
 30
0.0
 10
390.847909762934
 20
326.69209547937
 30
0.0
 10
432.910098244347
 20
326.69209547937
 30
0.0
1001
ACAD
1000
DSTYLE
1002
{
1070
    41
1040
2.0
1070
    42
1040
1.0
1070
    44
1040
1.0
1070
    73
1070
     0
1070
    74
1070
     0
1070
    77
1070
     0
1070
    78
1070
     8
1070
    79
1070
     2
1070
   140
1040
2.5
1070
   141
1040
0.0
1070
   147
1040
1.0
1070
   172
1070
     1
1070
   174
1070
     1
1070
   176
1070
   256
1070
   177
1070
   256
1070
   178
1070
   256
1070
   271
1070
     2
1070
   272
1070
     2
1070
   340
1005
BBE
1070
   371
1070
    -1
1070
   372
1070
    -1
1002
}
  0
LEADER
  5
1177
330
1F
100
AcDbEntity
  8
Dim
100
AcDbLeader
  3
Standard
 76
     3
 10
546.4439248387346
 20
319.7404485353509
 30
0.0
 10
568.201177221385
 20
345.5893391084615
 30
0.0
 10
595.1373247925776
 20
345.5893391084615
 30
0.0
1001
ACAD
1000
DSTYLE
1002
{
1070
    41
1040
2.0
1070
    42
1040
1.0
1070
    44
1040
1.0
1070
    73
1070
     0
1070
    74
1070
     0
1070
    77
1070
     0
1070
    78
1070
     8
1070
    79
1070
     2
1070
   140
1040
2.5
1070
   141
1040
0.0
1070
   147
1040
1.0
1070
   172
1070
     1
1070
   174
1070
     1
1070
   176
1070
   256
1070
   177
1070
   256
1070
   178
1070
   256
1070
   271
1070
     2
1070
   272
1070
     2
1070
   340
1005
BBE
1070
   371
1070
    -1
1070
   372
1070
    -1
1002
}
  0
ARC
  5
11E0
330
1F
100
AcDbEntity
  8
0
  6
Continuous
 62
     3
100
AcDbCircle
 10
245.0868583797924
 20
369.595169143709
 30
0.0
 40
3.0
100
AcDbArc
 50
260.0
 51
170.0
  0
ARC
  5
11E1
330
1F
100
AcDbEntity
  8
0
  6
Continuous
 62
     3
100
AcDbCircle
 10
214.0845141293939
 20
371.6008742390434
 30
0.0
 40
2.5
100
AcDbArc
 50
260.0
 51
170.0
  0
ARC
  5
11E2
330
1F
100
AcDbEntity
  8
0
  6
Continuous
 62
     3
100
AcDbCircle
 10
238.0868583797924
 20
292.3228023491388
 30
0.0
 40
3.0
100
AcDbArc
 50
260.0
 51
170.0
  0
ARC
  5
11E3
330
1F
100
AcDbEntity
  8
0
  6
Continuous
 62
     3
100
AcDbCircle
 10
238.0868583797924
 20
258.3228023491388
 30
0.0
 40
3.0
100
AcDbArc
 50
260.0
 51
170.0
  0
ARC
  5
11E4
330
1F
100
AcDbEntity
  8
0
  6
Continuous
 62
     3
100
AcDbCircle
 10
214.0845141293939
 20
179.7747576352735
 30
0.0
 40
2.5
100
AcDbArc
 50
260.0
 51
170.0
  0
ARC
  5
11E5
330
1F
100
AcDbEntity
  8
0
  6
Continuous
 62
     3
100
AcDbCircle
 10
214.0845141293939
 20
159.7747576352736
 30
0.0
 40
2.5
100
AcDbArc
 50
260.0
 51
170.0
  0
ARC
  5
11E6
330
1F
100
AcDbEntity
  8
0
  6
Continuous
 62
     3
100
AcDbCircle
 10
255.0845141293939
 20
161.7747576352735
 30
0.0
 40
2.5
100
AcDbArc
 50
260.0
 51
170.0
  0
ARC
  5
11E7
330
1F
100
AcDbEntity
  8
0
  6
Continuous
 62
     3
100
AcDbCircle
 10
370.2638324845143
 20
290.3198023491389
 30
0.0
 40
3.0
100
AcDbArc
 50
260.0
 51
170.0
  0
ARC
  5
11E8
330
1F
100
AcDbEntity
  8
0
  6
Continuous
 62
     3
100
AcDbCircle
 10
340.2638324845144
 20
260.3198023491387
 30
0.0
 40
3.0
100
AcDbArc
 50
260.0
 51
170.0
  0
ARC
  5
11F7
330
1F
100
AcDbEntity
  8
0
  6
Continuous
 62
     3
100
AcDbCircle
 10
528.3960447280121
 20
318.3065074444733
 30
0.0
 40
2.5
100
AcDbArc
 50
260.0
 51
170.0
  0
ARC
  5
11F8
330
1F
100
AcDbEntity
  8
0
  6
Continuous
 62
     3
100
AcDbCircle
 10
544.3960447280121
 20
318.3065074444733
 30
0.0
 40
2.5
100
AcDbArc
 50
260.0
 51
170.0
  0
ARC
  5
11F9
330
1F
100
AcDbEntity
  8
0
  6
Continuous
 62
     3
100
AcDbCircle
 10
528.3960447280121
 20
232.3065074444732
 30
0.0
 40
2.5
100
AcDbArc
 50
260.0
 51
170.0
  0
ARC
  5
11FA
330
1F
100
AcDbEntity
  8
0
  6
Continuous
 62
     3
100
AcDbCircle
 10
544.3960447280121
 20
232.3065074444732
 30
0.0
 40
2.5
100
AcDbArc
 50
260.0
 51
170.0
  0
ARC
  5
11FB
330
1F
100
AcDbEntity
  8
0
  6
Continuous
 62
     3
100
AcDbCircle
 10
663.241732684716
 20
292.3198023491389
 30
0.0
 40
3.0
100
AcDbArc
 50
260.0
 51
170.0
  0
ARC
  5
11FC
330
1F
100
AcDbEntity
  8
0
  6
Continuous
 62
     3
100
AcDbCircle
 10
663.241732684716
 20
258.3198023491387
 30
0.0
 40
3.0
100
AcDbArc
 50
260.0
 51
170.0
  0
LEADER
  5
11FE
330
1F
100
AcDbEntity
  8
Dim
100
AcDbLeader
  3
Standard
 76
     3
 10
233.7033752538701
 20
179.4615615980239
 30
0.0
 10
250.9148220318106
 20
199.7623176715457
 30
0.0
 10
271.1305580793767
 20
199.7623176715457
 30
0.0
211
-1.0
221
0.0
231
0.0
1001
ACAD
1000
DSTYLE
1002
{
1070
    41
1040
2.0
1070
    42
1040
1.0
1070
    44
1040
1.0
1070
    73
1070
     0
1070
    74
1070
     0
1070
    77
1070
     0
1070
    78
1070
     8
1070
    79
1070
     2
1070
   140
1040
2.5
1070
   141
1040
0.0
1070
   147
1040
1.0
1070
   172
1070
     1
1070
   174
1070
     1
1070
   176
1070
   256
1070
   177
1070
   256
1070
   178
1070
   256
1070
   271
1070
     2
1070
   272
1070
     2
1070
   340
1005
BBE
1070
   371
1070
    -1
1070
   372
1070
    -1
1002
}
  0
DIMENSION
  5
12E4
102
{ACAD_XDICTIONARY
360
12F1
102
}
102
{ACAD_REACTORS
330
12F2
102
}
330
1F
100
AcDbEntity
  8
Dim
100
AcDbDimension
  2
*D60
 10
595.550072661819
 20
287.3065074444731
 30
0.0
 11
593.3000726618189
 21
305.8065074444733
 31
0.0
 70
    32
 71
     5
 42
37.00000000000017
  3
Standard
100
AcDbAlignedDimension
 13
643.7393884343175
 23
324.3065074444733
 33
0.0
 14
627.1393884343174
 24
287.3065074444731
 34
0.0
 50
90.0
100
AcDbRotatedDimension
1001
ACAD
1000
DSTYLE
1002
{
1070
    41
1040
2.0
1070
    42
1040
1.0
1070
    44
1040
1.0
1070
    73
1070
     0
1070
    74
1070
     0
1070
    77
1070
     1
1070
    78
1070
     8
1070
    79
1070
     2
1070
   140
1040
2.5
1070
   141
1040
0.0
1070
   147
1040
1.0
1070
   172
1070
     1
1070
   174
1070
     1
1070
   176
1070
   256
1070
   177
1070
   256
1070
   178
1070
   256
1070
   271
1070
     2
1070
   272
1070
     2
1070
   340
1005
BBE
1070
   371
1070
    -1
1070
   372
1070
    -1
1002
}
  0
DIMENSION
  5
130A
102
{ACAD_XDICTIONARY
360
1317
102
}
102
{ACAD_REACTORS
330
1318
102
}
330
1F
100
AcDbEntity
  8
Dim
100
AcDbDimension
  2
*D61
 10
616.7393884343176
 20
312.3065074444733
 30
0.0
 11
614.4893884343174
 21
318.3065074444733
 31
0.0
 70
    32
 71
     5
 42
12.00000000000005
  3
Standard
100
AcDbAlignedDimension
 13
643.7393884343175
 23
324.3065074444733
 33
0.0
 14
628.7393884343175
 24
312.3065074444733
 34
0.0
 50
90.0
100
AcDbRotatedDimension
1001
ACAD
1000
DSTYLE
1002
{
1070
    41
1040
2.0
1070
    42
1040
1.0
1070
    44
1040
1.0
1070
    73
1070
     0
1070
    74
1070
     0
1070
    77
1070
     1
1070
    78
1070
     8
1070
    79
1070
     2
1070
   140
1040
2.5
1070
   141
1040
0.0
1070
   147
1040
1.0
1070
   172
1070
     1
1070
   174
1070
     1
1070
   176
1070
   256
1070
   177
1070
   256
1070
   178
1070
   256
1070
   271
1070
     2
1070
   272
1070
     2
1070
   340
1005
BBE
1070
   371
1070
    -1
1070
   372
1070
    -1
1002
}
  0
DIMENSION
  5
1330
102
{ACAD_XDICTIONARY
360
133F
102
}
102
{ACAD_REACTORS
330
1340
102
}
330
1F
100
AcDbEntity
  8
Dim
100
AcDbDimension
  2
*D62
 10
649.7393884343175
 20
332.0800451674412
 30
0.0
 11
646.7393884343175
 21
334.3300451674412
 31
0.0
 70
    32
 71
     5
 42
6.0
  3
Standard
100
AcDbAlignedDimension
 13
643.7393884343175
 23
324.3065074444733
 33
0.0
 14
649.7393884343175
 24
324.3065074444733
 34
0.0
 50
0.0000000000000114
100
AcDbRotatedDimension
1001
ACAD
1000
DSTYLE
1002
{
1070
    41
1040
2.0
1070
    42
1040
1.0
1070
    44
1040
1.0
1070
    73
1070
     0
1070
    74
1070
     0
1070
    77
1070
     1
1070
    78
1070
     8
1070
    79
1070
     2
1070
   140
1040
2.5
1070
   141
1040
0.0
1070
   147
1040
1.0
1070
   172
1070
     1
1070
   174
1070
     1
1070
   176
1070
   256
1070
   177
1070
   256
1070
   178
1070
   256
1070
   271
1070
     2
1070
   272
1070
     2
1070
   340
1005
BBE
1070
   371
1070
    -1
1070
   372
1070
    -1
1002
}
  0
DIMENSION
  5
135A
330
1F
100
AcDbEntity
  8
Dim
100
AcDbDimension
  2
*D63
 10
608.7393884343176
 20
306.3065074444732
 30
0.0
 11
606.4893884343174
 21
315.3065074444733
 31
0.0
 70
    32
 71
     5
 42
18.00000000000006
  3
Standard
100
AcDbAlignedDimension
 13
643.7393884343175
 23
324.3065074444733
 33
0.0
 14
628.7393884343175
 24
306.3065074444732
 34
0.0
 50
90.0
100
AcDbRotatedDimension
1001
ACAD
1000
DSTYLE
1002
{
1070
    41
1040
2.0
1070
    42
1040
1.0
1070
    44
1040
1.0
1070
    73
1070
     0
1070
    74
1070
     0
1070
    77
1070
     1
1070
    78
1070
     8
1070
    79
1070
     2
1070
   140
1040
2.5
1070
   141
1040
0.0
1070
   147
1040
1.0
1070
   172
1070
     1
1070
   174
1070
     1
1070
   176
1070
   256
1070
   177
1070
   256
1070
   178
1070
   256
1070
   271
1070
     2
1070
   272
1070
     2
1070
   340
1005
BBE
1070
   371
1070
    -1
1070
   372
1070
    -1
1002
}
  0
LINE
  5
13D8
330
1F
100
AcDbEntity
  8
0
  6
Continuous
 62
     7
100
AcDbLine
 10
516.3960447280121
 20
277.3065074444732
 30
0.0
 11
516.3960447280121
 21
273.3065074444732
 31
0.0
  0
LINE
  5
13D9
330
1F
100
AcDbEntity
  8
0
  6
Continuous
 62
     7
100
AcDbLine
 10
556.3960447280122
 20
277.3065074444732
 30
0.0
 11
556.3960447280122
 21
273.3065074444732
 31
0.0
  0
TEXT
  5
1485
330
1F
100
AcDbEntity
  8
LOGO
 62
     7
100
AcDbText
 10
230.9294777555542
 20
67.7109315588525
 30
0.0
 40
6.020248163619908
  1
Order example:
 41
0.8
  7
CHINESET
100
AcDbText
  0
TEXT
  5
1486
330
1F
100
AcDbEntity
  8
LOGO
 62
     7
100
AcDbText
 10
232.0095600615346
 20
76.18619446494188
 30
0.0
 40
9.030372245429861
  1
訂購代號：
  7
CHINESET
100
AcDbText
  0
LINE
  5
1487
330
1F
100
AcDbEntity
  8
LOGO
 62
     4
100
AcDbLine
 10
228.3136595089537
 20
42.33933241074516
 30
0.0
 11
228.3136595089537
 21
87.49119363789469
 31
0.0
  0
TEXT
  5
1488
330
1F
100
AcDbEntity
  8
LOGO
  6
Continuous
100
AcDbText
 10
145.1983163235602
 20
51.20934740871888
 30
0.0
 40
6.772779184072398
  1
金器工業股份有限公司
  7
CHINESET
100
AcDbText
  0
TEXT
  5
1489
330
1F
100
AcDbEntity
  8
LOGO
  6
Continuous
100
AcDbText
 10
132.7580608907026
 20
44.43524129093293
 30
0.0
 40
4.51518612271493
  1
MINDMAN INDUSTRIAL CO., LTD.
 41
0.85
  7
CHINESET
100
AcDbText
  0
LINE
  5
148A
330
1F
100
AcDbEntity
  8
LOGO
 62
     4
100
AcDbLine
 10
228.3136595089537
 20
78.46082139246476
 30
0.0
 11
162.0909297091341
 21
78.46082139246476
 31
0.0
  0
LINE
  5
148B
330
1F
100
AcDbEntity
  8
LOGO
 62
     4
100
AcDbLine
 10
228.3136595089537
 20
69.43044914703489
 30
0.0
 11
162.0909297091341
 21
69.43044914703489
 31
0.0
  0
LINE
  5
148C
330
1F
100
AcDbEntity
  8
LOGO
 62
     4
100
AcDbLine
 10
228.3136595089537
 20
60.40007690160547
 30
0.0
 11
128.9795648092249
 21
60.40007690160547
 31
0.0
  0
LINE
  5
148D
330
1F
100
AcDbEntity
  8
LOGO
 62
     4
100
AcDbLine
 10
162.0909297091341
 20
60.40007690160547
 30
0.0
 11
162.0909297091341
 21
87.49119363789469
 31
0.0
  0
TEXT
  5
148E
330
1F
100
AcDbEntity
  8
LOGO
100
AcDbText
 10
207.3510398620739
 20
62.65766996296211
 30
0.0
 40
4.51518612271493
  1
mm
  7
CHINESET
 72
     1
 11
212.941270299721
 21
64.91526302431958
 31
0.0
100
AcDbText
 73
     2
  0
TEXT
  5
148F
330
1F
100
AcDbEntity
  8
LOGO
100
AcDbText
 10
204.9859423692232
 20
80.7184144538221
 30
0.0
 40
4.51518612271493
  1
1 : 1
  7
CHINESET
 72
     1
 11
212.941270299721
 21
82.97600751517956
 31
0.0
100
AcDbText
 73
     2
  0
LINE
  5
1490
330
1F
100
AcDbEntity
  8
LOGO
 62
     4
100
AcDbLine
 10
198.2124186908538
 20
60.40007690160547
 30
0.0
 11
198.2124186908538
 21
87.49119363789469
 31
0.0
  0
TEXT
  5
1491
330
1F
100
AcDbEntity
  8
LOGO
100
AcDbText
 10
165.8139425522836
 20
80.72063649423681
 30
295.9178601481316
 40
4.51518612271493
  1
比例 Scale:
 41
0.9
  7
CHINESET
 72
     4
 11
180.151674199994
 21
82.97600751517956
 31
295.9178601481316
100
AcDbText
  0
TEXT
  5
1492
330
1F
100
AcDbEntity
  8
LOGO
100
AcDbText
 10
165.5539162086093
 20
71.75155553024623
 30
295.9178601481316
 40
4.51518612271493
  1
投影  View:
 41
0.9
  7
CHINESET
 72
     4
 11
180.151674199994
 21
73.94563526974957
 31
295.9178601481316
100
AcDbText
  0
TEXT
  5
1493
330
1F
100
AcDbEntity
  8
LOGO
100
AcDbText
 10
165.9953562804284
 20
62.65766996296212
 30
295.9178601481316
 40
4.51518612271493
  1
單位  Unit:
 41
0.9
  7
CHINESET
 72
     4
 11
180.151674199994
 21
64.91526302431958
 31
295.9178601481316
100
AcDbText
  0
LWPOLYLINE
  5
1494
330
1F
100
AcDbEntity
  8
LOGO
 62
     4
100
AcDbPolyline
 90
        4
 70
     1
 43
0.0
 10
128.9795648092249
 20
87.49119363789464
 10
744.9795648092249
 20
87.49119363789464
 10
744.9795648092249
 20
493.9233324107442
 10
128.9795648092249
 20
493.9233324107442
1001
GENIUS_GENREC_14
1002
{
1000
PYDIR
1011
128.9795648092249
1021
493.9233324107442
1031
0.0
1002
}
1002
{
1000
PXDIR
1011
744.9795648092249
1021
87.49119363789464
1031
0.0
1002
}
1002
{
1000
PORI
1011
128.9795648092249
1021
87.49119363789464
1031
0.0
1002
}
1002
{
1000
PINS
1011
128.9795648092249
1021
87.49119363789464
1031
0.0
1002
}
1002
{
1000
PINS2
1011
744.9795648092249
1021
493.9233324107442
1031
0.0
1002
}
1002
{
1000
C
1070
     1
1002
}
1001
GENIUS_GENODEF_13
1002
{
1000
HIER
1070
     0
1002
}
1002
{
1000
MANEDIT
1070
     0
1002
}
1002
{
1000
NOSEL
1070
     0
1002
}
1002
{
1000
BEHIND
1070
     0
1002
}
1002
{
1000
OTHER
1070
     0
1002
}
1002
{
1000
REACTOR
1002
}
1001
GENIUS_GENOBJ-N-REC_13
1002
{
1000
OWNER
1000
GEN
1002
}
  0
SOLID
  5
1495
330
1F
100
AcDbEntity
  8
LOGO
 62
     5
100
AcDbTrace
 10
133.664142874767
 20
67.90593114448279
 30
0.0
 11
135.6163908757448
 21
67.90593114448222
 31
0.0
 12
143.7619773625842
 22
86.41862770548215
 32
0.0
 13
145.7142253635631
 23
86.41862770548113
 33
0.0
  0
SOLID
  5
1496
330
1F
100
AcDbEntity
  8
LOGO
 62
     5
100
AcDbTrace
 10
136.4242176347725
 20
67.90593114448279
 30
0.0
 11
138.3764656357506
 21
67.90593114448279
 31
0.0
 12
145.7142253635631
 22
84.93761198060155
 32
0.0
 13
143.7619773625842
 23
77.77936931034833
 33
0.0
  0
SOLID
  5
1497
330
1F
100
AcDbEntity
  8
LOGO
 62
     2
100
AcDbTrace
 10
135.6163908757448
 20
67.90593114448222
 30
0.0
 11
136.4242176347725
 21
67.90593114448279
 31
0.0
 12
145.7142253635631
 22
86.41862770548113
 32
0.0
 13
146.5220521225898
 23
86.41862770548113
 33
0.0
  0
SOLID
  5
1498
330
1F
100
AcDbEntity
  8
LOGO
 62
     5
100
AcDbTrace
 10
130.5342105793456
 20
61.17404148593812
 30
0.0
 11
131.207399545201
 21
61.17404148593812
 31
0.0
 12
133.1031520698889
 22
64.53998631521023
 32
0.0
 13
133.7763410357419
 23
64.53998631521023
 33
0.0
  0
SOLID
  5
1499
330
1F
100
AcDbEntity
  8
LOGO
 62
     5
100
AcDbTrace
 10
133.1031520698889
 20
64.53998631521023
 30
0.0
 11
133.7763410357419
 21
64.53998631521023
 31
0.0
 12
133.1031520698889
 22
61.17404148593812
 32
0.0
 13
133.7763410357419
 23
61.17404148593812
 33
0.0
  0
SOLID
  5
149A
330
1F
100
AcDbEntity
  8
LOGO
 62
     5
100
AcDbTrace
 10
133.1031520698889
 20
61.17404148593812
 30
0.0
 11
133.7763410357419
 21
61.17404148593812
 31
0.0
 12
135.672093560433
 22
64.53998631521023
 32
0.0
 13
136.3452825262871
 23
64.53998631521023
 33
0.0
  0
SOLID
  5
149B
330
1F
100
AcDbEntity
  8
LOGO
 62
     5
100
AcDbTrace
 10
135.672093560433
 20
64.53998631521023
 30
0.0
 11
136.3452825262871
 21
64.53998631521023
 31
0.0
 12
135.672093560433
 22
61.17404148593812
 32
0.0
 13
136.3452825262871
 23
61.17404148593812
 33
0.0
  0
POLYLINE
  5
149C
330
1F
100
AcDbEntity
  8
LOGO
 62
     5
100
AcDb2dPolyline
 66
     1
 10
0.0
 20
0.0
 30
0.0
 40
0.6742677943254297
 41
0.6742677943254297
  0
VERTEX
  5
149D
330
149C
100
AcDbEntity
  8
LOGO
 62
     5
100
AcDbVertex
100
AcDb2dVertex
 10
158.2371583711644
 20
63.19360838350121
 30
0.0
 42
1.0
  0
VERTEX
  5
149E
330
149C
100
AcDbEntity
  8
LOGO
 62
     5
100
AcDbVertex
100
AcDb2dVertex
 10
156.2143549881879
 20
63.19360838350121
 30
0.0
 42
1.0
  0
SEQEND
  5
149F
330
149C
100
AcDbEntity
  8
LOGO
 62
     5
  0
POLYLINE
  5
14A0
330
1F
100
AcDbEntity
  8
LOGO
 62
     5
100
AcDb2dPolyline
 66
     1
 10
0.0
 20
0.0
 30
0.0
 70
     1
  0
VERTEX
  5
14A1
330
14A0
100
AcDbEntity
  8
LOGO
 62
     5
100
AcDbVertex
100
AcDb2dVertex
 10
152.4012806369817
 20
62.85701390057369
 30
0.0
 42
1.000000057330635
  0
VERTEX
  5
14A2
330
14A0
100
AcDbEntity
  8
LOGO
 62
     5
100
AcDbVertex
100
AcDb2dVertex
 10
154.4208475345453
 20
62.85701390057369
 30
0.0
 42
1.000000057330635
  0
SEQEND
  5
14A3
330
14A0
100
AcDbEntity
  8
LOGO
 62
     5
  0
CIRCLE
  5
14A4
330
1F
100
AcDbEntity
  8
LOGO
 62
     5
100
AcDbCircle
 10
153.4110640857651
 20
62.85701390057369
 30
0.0
 40
1.009783448781763
  0
POLYLINE
  5
14A5
330
1F
100
AcDbEntity
  8
LOGO
 62
     5
100
AcDb2dPolyline
 66
     1
 10
0.0
 20
0.0
 30
0.0
 70
     1
 40
0.6742677943254297
 41
0.6742677943254297
  0
VERTEX
  5
14A6
330
14A5
100
AcDbEntity
  8
LOGO
 62
     5
100
AcDbVertex
100
AcDb2dVertex
 10
152.0625284971133
 20
62.85701390057369
 30
0.0
 42
1.0
  0
VERTEX
  5
14A7
330
14A5
100
AcDbEntity
  8
LOGO
 62
     5
100
AcDbVertex
100
AcDb2dVertex
 10
154.7595996744147
 20
62.85701390057369
 30
0.0
 42
1.0
  0
SEQEND
  5
14A8
330
14A5
100
AcDbEntity
  8
LOGO
 62
     5
  0
LINE
  5
14A9
330
1F
100
AcDbEntity
  8
LOGO
100
AcDbLine
 10
158.5721346113839
 20
61.17404148593812
 30
0.0
 11
158.5721346113839
 21
63.19360838350121
 31
0.0
  0
SOLID
  5
14AA
330
1F
100
AcDbEntity
  8
LOGO
 62
     5
100
AcDbTrace
 10
154.4207802156519
 20
64.53998631521023
 30
0.0
 11
155.0939691815051
 21
64.53998631521023
 31
0.0
 12
154.4207802156519
 22
61.17404148593812
 32
0.0
 13
155.0939691815051
 23
61.17404148593812
 33
0.0
  0
SOLID
  5
14AB
330
1F
100
AcDbEntity
  8
LOGO
 62
     5
100
AcDbTrace
 10
155.8793787479661
 20
61.17404148593812
 30
0.0
 11
156.5525677138214
 21
61.17404148593812
 31
0.0
 12
155.8793787479661
 22
64.53998631521023
 32
0.0
 13
156.5525677138214
 23
64.53998631521023
 33
0.0
  0
SOLID
  5
14AC
330
1F
100
AcDbEntity
  8
LOGO
 62
     5
100
AcDbTrace
 10
157.8989456455308
 20
63.19360838350121
 30
0.0
 11
158.5721346113839
 21
63.19360838350121
 31
0.0
 12
157.8989456455308
 22
61.17404148593812
 32
0.0
 13
158.5721346113839
 23
61.17404148593812
 33
0.0
  0
SOLID
  5
14AD
330
1F
100
AcDbEntity
  8
LOGO
 62
     5
100
AcDbTrace
 10
155.8120598513804
 20
84.93761198060155
 30
0.0
 11
153.8598118504036
 21
77.77936931034833
 31
0.0
 12
155.8120598513804
 22
67.90593114448222
 32
0.0
 13
153.8598118504036
 23
67.90593114448222
 33
0.0
  0
SOLID
  5
14AE
330
1F
100
AcDbEntity
  8
LOGO
 62
     5
100
AcDbTrace
 10
156.6198866104071
 20
67.90593114448222
 30
0.0
 11
158.5721346113839
 21
67.90593114448222
 31
0.0
 12
156.6198866104071
 22
86.41862770548113
 32
0.0
 13
158.5721346113839
 23
86.41862770548215
 33
0.0
  0
SOLID
  5
14AF
330
1F
100
AcDbEntity
  8
LOGO
 62
     2
100
AcDbTrace
 10
155.8120598513804
 20
86.41862770548215
 30
0.0
 11
156.6198866104071
 21
86.41862770548113
 31
0.0
 12
155.8120598513804
 22
67.90593114448222
 32
0.0
 13
156.6198866104071
 23
67.90593114448222
 33
0.0
  0
POLYLINE
  5
14B0
330
1F
100
AcDbEntity
  8
LOGO
 62
     5
100
AcDb2dPolyline
 66
     1
 10
0.0
 20
0.0
 30
0.0
 40
0.6742677943254297
 41
0.6742677943254297
  0
VERTEX
  5
14B1
330
14B0
100
AcDbEntity
  8
LOGO
 62
     5
100
AcDbVertex
100
AcDb2dVertex
 10
148.5880716479857
 20
63.19360838350121
 30
0.0
 42
1.0
  0
VERTEX
  5
14B2
330
14B0
100
AcDbEntity
  8
LOGO
 62
     5
100
AcDbVertex
100
AcDb2dVertex
 10
146.5652682650089
 20
63.19360838350121
 30
0.0
 42
1.0
  0
SEQEND
  5
14B3
330
14B0
100
AcDbEntity
  8
LOGO
 62
     5
  0
POLYLINE
  5
14B4
330
1F
100
AcDbEntity
  8
LOGO
 62
     5
100
AcDb2dPolyline
 66
     1
 10
0.0
 20
0.0
 30
0.0
 40
0.6742677943254297
 41
0.6742677943254297
  0
VERTEX
  5
14B5
330
14B4
100
AcDbEntity
  8
LOGO
 62
     5
100
AcDbVertex
100
AcDb2dVertex
 10
150.6076385455473
 20
63.19360838350121
 30
0.0
 42
1.0
  0
VERTEX
  5
14B6
330
14B4
100
AcDbEntity
  8
LOGO
 62
     5
100
AcDbVertex
100
AcDb2dVertex
 10
148.5848351625716
 20
63.19360838350121
 30
0.0
 42
1.0
  0
SEQEND
  5
14B7
330
14B4
100
AcDbEntity
  8
LOGO
 62
     5
  0
POLYLINE
  5
14B8
330
1F
100
AcDbEntity
  8
LOGO
 62
     5
100
AcDb2dPolyline
 66
     1
 10
0.0
 20
0.0
 30
0.0
 40
0.6742677943254297
 41
0.6742677943254297
  0
VERTEX
  5
14B9
330
14B8
100
AcDbEntity
  8
LOGO
 62
     5
100
AcDbVertex
100
AcDb2dVertex
 10
140.9585518223682
 20
63.19360838350121
 30
0.0
 42
1.0
  0
VERTEX
  5
14BA
330
14B8
100
AcDbEntity
  8
LOGO
 62
     5
100
AcDbVertex
100
AcDb2dVertex
 10
138.9357484393927
 20
63.19360838350121
 30
0.0
 42
1.0
  0
SEQEND
  5
14BB
330
14B8
100
AcDbEntity
  8
LOGO
 62
     5
  0
SOLID
  5
14BC
330
1F
100
AcDbEntity
  8
LOGO
 62
     5
100
AcDbTrace
 10
138.600772199172
 20
64.53998631521023
 30
0.0
 11
139.2739611650252
 21
64.53998631521023
 31
0.0
 12
138.600772199172
 22
61.17404148593812
 32
0.0
 13
139.2739611650252
 23
61.17404148593812
 33
0.0
  0
SOLID
  5
14BD
330
1F
100
AcDbEntity
  8
LOGO
 62
     5
100
AcDbTrace
 10
140.6203390967356
 20
63.19360838350121
 30
0.0
 11
141.2935280625911
 21
63.19360838350121
 31
0.0
 12
140.6203390967356
 22
61.17404148593812
 32
0.0
 13
141.2935280625911
 23
61.17404148593812
 33
0.0
  0
POLYLINE
  5
14BE
330
1F
100
AcDbEntity
  8
LOGO
 62
     5
100
AcDb2dPolyline
 66
     1
 10
0.0
 20
0.0
 30
0.0
 70
     1
 40
0.6742677943254297
 41
0.6742677943254297
  0
VERTEX
  5
14BF
330
14BE
100
AcDbEntity
  8
LOGO
 62
     5
100
AcDbVertex
100
AcDb2dVertex
 10
142.4134417739334
 20
62.85701390057369
 30
0.0
 42
1.0
  0
VERTEX
  5
14C0
330
14BE
100
AcDbEntity
  8
LOGO
 62
     5
100
AcDbVertex
100
AcDb2dVertex
 10
145.110512951236
 20
62.85701390057369
 30
0.0
 42
1.0
  0
SEQEND
  5
14C1
330
14BE
100
AcDbEntity
  8
LOGO
 62
     5
  0
SOLID
  5
14C2
330
1F
100
AcDbEntity
  8
LOGO
 62
     5
100
AcDbTrace
 10
144.771693492471
 20
65.54976976399252
 30
0.0
 11
145.4448824583253
 21
65.54976976399252
 31
0.0
 12
144.771693492471
 22
61.17404148593812
 32
0.0
 13
145.4448824583253
 23
61.17404148593812
 33
0.0
  0
SOLID
  5
14C3
330
1F
100
AcDbEntity
  8
LOGO
 62
     5
100
AcDbTrace
 10
146.2302920247894
 20
64.53998631521023
 30
0.0
 11
146.9034809906426
 21
64.53998631521023
 31
0.0
 12
146.2302920247894
 22
61.17404148593812
 32
0.0
 13
146.9034809906426
 23
61.17404148593812
 33
0.0
  0
SOLID
  5
14C4
330
1F
100
AcDbEntity
  8
LOGO
 62
     5
100
AcDbTrace
 10
148.2498589223507
 20
63.19360838350121
 30
0.0
 11
148.9230478882062
 21
63.19360838350121
 31
0.0
 12
148.2498589223507
 22
61.17404148593812
 32
0.0
 13
148.9230478882062
 23
61.17404148593812
 33
0.0
  0
SOLID
  5
14C5
330
1F
100
AcDbEntity
  8
LOGO
 62
     5
100
AcDbTrace
 10
150.2694258199145
 20
63.19360838350121
 30
0.0
 11
150.9426147857688
 21
63.19360838350121
 31
0.0
 12
150.2694258199145
 22
61.17404148593715
 32
0.0
 13
150.9426147857688
 23
61.17404148593715
 33
0.0
  0
SOLID
  5
14C6
330
1F
100
AcDbEntity
  8
LOGO
 62
     5
100
AcDbTrace
 10
137.1421736668546
 20
65.01121859130853
 30
0.0
 11
137.8153626327111
 21
65.01121859130853
 31
0.0
 12
137.1421736668546
 22
65.54976976399252
 32
0.0
 13
137.8153626327111
 23
65.54976976399252
 33
0.0
  0
SOLID
  5
14C7
330
1F
100
AcDbEntity
  8
LOGO
 62
     5
100
AcDbTrace
 10
137.1421736668546
 20
64.53998631521023
 30
0.0
 11
137.8153626327111
 21
64.53998631521023
 31
0.0
 12
137.1421736668546
 22
61.17404148593715
 32
0.0
 13
137.8153626327111
 23
61.17404148593812
 33
0.0
  0
SOLID
  5
14C8
330
1F
100
AcDbEntity
  8
LOGO
 62
     5
100
AcDbTrace
 10
143.7619773625842
 20
67.90593114448279
 30
0.0
 11
145.7142253635631
 21
67.90593114448279
 31
0.0
 12
143.7619773625842
 22
77.77936931034833
 32
0.0
 13
145.7142253635631
 23
84.93761198060155
 33
0.0
  0
SOLID
  5
14C9
330
1F
100
AcDbEntity
  8
LOGO
 62
     5
100
AcDbTrace
 10
146.5220521225898
 20
86.41862770548113
 30
0.0
 11
148.4743001235666
 21
86.41862770548215
 31
0.0
 12
146.5220521225898
 22
69.38694686936242
 32
0.0
 13
148.4743001235666
 23
76.54518953961548
 33
0.0
  0
SOLID
  5
14CA
330
1F
100
AcDbEntity
  8
LOGO
 62
     2
100
AcDbTrace
 10
145.7142253635631
 20
86.41862770548113
 30
0.0
 11
146.5220521225898
 21
86.41862770548113
 31
0.0
 12
145.7142253635631
 22
67.90593114448279
 32
0.0
 13
146.5220521225898
 23
67.90593114448279
 33
0.0
  0
SOLID
  5
14CB
330
1F
100
AcDbEntity
  8
LOGO
 62
     5
100
AcDbTrace
 10
146.5220521225898
 20
69.38694686936242
 30
0.0
 11
148.4743001235666
 21
76.54518953961548
 31
0.0
 12
155.8120598513804
 22
86.41862770548215
 32
0.0
 13
153.8598118504036
 23
86.41862770548215
 33
0.0
  0
SOLID
  5
14CC
330
1F
100
AcDbEntity
  8
LOGO
 62
     5
100
AcDbTrace
 10
146.5220521225898
 20
67.90593114448279
 30
0.0
 11
148.4743001235666
 21
67.90593114448279
 31
0.0
 12
155.8120598513804
 22
84.93761198060155
 32
0.0
 13
153.8598118504036
 23
77.77936931034833
 33
0.0
  0
SOLID
  5
14CD
330
1F
100
AcDbEntity
  8
LOGO
 62
     2
100
AcDbTrace
 10
145.7142253635631
 20
67.90593114448279
 30
0.0
 11
146.5220521225898
 21
67.90593114448279
 31
0.0
 12
155.8120598513804
 22
86.41862770548215
 32
0.0
 13
156.6198866104071
 23
86.41862770548113
 33
0.0
  0
LWPOLYLINE
  5
14CE
330
1F
100
AcDbEntity
  8
LOGO
 62
     4
100
AcDbPolyline
 90
        4
 70
     1
 43
0.0
 10
128.9795648092249
 20
87.49119363789464
 10
744.9795648092249
 20
87.49119363789464
 10
744.9795648092249
 20
42.33933241074462
 10
128.9795648092249
 20
42.33933241074462
1001
GENIUS_GENREC_14
1002
{
1000
PYDIR
1011
128.9795648092249
1021
42.33933241074462
1031
0.0
1002
}
1002
{
1000
PXDIR
1011
744.9795648092249
1021
87.49119363789464
1031
0.0
1002
}
1002
{
1000
PORI
1011
128.9795648092249
1021
87.49119363789464
1031
0.0
1002
}
1002
{
1000
PINS
1011
128.9795648092249
1021
87.49119363789464
1031
0.0
1002
}
1002
{
1000
PINS2
1011
744.9795648092249
1021
42.33933241074462
1031
0.0
1002
}
1002
{
1000
C
1070
     1
1002
}
1001
GENIUS_GENOBJ-N-REC_13
1002
{
1000
OWNER
1000
GEN
1002
}
1001
GENIUS_GENODEF_13
1002
{
1000
HIER
1070
     0
1002
}
1002
{
1000
MANEDIT
1070
     0
1002
}
1002
{
1000
NOSEL
1070
     0
1002
}
1002
{
1000
BEHIND
1070
     0
1002
}
1002
{
1000
OTHER
1070
     0
1002
}
1002
{
1000
REACTOR
1002
}
  0
LINE
  5
14CF
330
1F
100
AcDbEntity
  8
LOGO
 62
     4
100
AcDbLine
 10
320.5192815036657
 20
62.6576699629631
 30
0.0
 11
320.5192815036657
 21
46.10198751300742
 31
0.0
  0
LINE
  5
14D0
330
1F
100
AcDbEntity
  8
LOGO
 62
     4
100
AcDbLine
 10
290.4180406855658
 20
62.6576699629631
 30
0.0
 11
290.4180406855658
 21
46.10198751300742
 31
0.0
  0
LINE
  5
14D1
330
1F
100
AcDbEntity
  8
LOGO
 62
     4
100
AcDbLine
 10
320.5192815036657
 20
46.10198751300742
 30
0.0
 11
290.4180406855658
 21
46.10198751300742
 31
0.0
  0
LINE
  5
14D2
330
1F
100
AcDbEntity
  8
LOGO
 62
     4
100
AcDbLine
 10
329.2814774918281
 20
82.97600751517956
 30
0.0
 11
290.4180406855658
 21
82.97600751517956
 31
0.0
  0
LINE
  5
14D3
330
1F
100
AcDbEntity
  8
LOGO
 62
     4
100
AcDbLine
 10
329.2814774918281
 20
69.43044914703489
 30
0.0
 11
290.4180406855658
 21
69.43044914703489
 31
0.0
  0
LINE
  5
14D4
330
1F
100
AcDbEntity
  8
LOGO
 62
     4
100
AcDbLine
 10
290.4180406855658
 20
82.97600751517956
 30
0.0
 11
290.4180406855658
 21
69.43044914703489
 31
0.0
  0
LINE
  5
14D5
330
1F
100
AcDbEntity
  8
LOGO
 62
     4
100
AcDbLine
 10
329.2814774918281
 20
82.97600751517956
 30
0.0
 11
329.2814774918281
 21
69.43044914703489
 31
0.0
  0
LINE
  5
14D6
330
1F
100
AcDbEntity
  8
LOGO
 62
     4
100
AcDbLine
 10
307.0391898155234
 20
69.43044914703489
 30
0.0
 11
307.0391898155234
 21
62.6576699629631
 31
0.0
  0
TEXT
  5
14D7
330
1F
100
AcDbEntity
  8
LOGO
  6
Continuous
100
AcDbText
 10
292.824874265119
 20
72.25806465278083
 30
0.0
 40
7.902719999999998
  1
MCHW
  7
CHINESET
100
AcDbText
  0
LINE
  5
14D8
330
1F
100
AcDbEntity
  8
LOGO
 62
     4
100
AcDbLine
 10
320.5192815036657
 20
62.6576699629631
 30
0.0
 11
290.4180406855658
 21
62.6576699629631
 31
0.0
  0
TEXT
  5
14D9
330
1F
100
AcDbEntity
  8
LOGO
  6
Continuous
100
AcDbText
 10
300.0774335650158
 20
48.43878698367854
 30
295.9178601481316
 40
3.386879999999999
  1
Model
 41
0.8
  7
CHINESET
100
AcDbText
  0
TEXT
  5
14DA
330
1F
100
AcDbEntity
  8
LOGO
100
AcDbText
 10
299.1759562097129
 20
54.71733257894232
 30
295.9178601481316
 40
5.6448
  1
型號
  7
CHINESET
100
AcDbText
  0
LINE
  5
14DB
330
1F
100
AcDbEntity
  8
LOGO
  6
Continuous
100
AcDbLine
 10
330.7214822988601
 20
76.15524782266323
 30
0.0
 11
336.7027066187699
 21
76.15524782266323
 31
0.0
  0
LINE
  5
14DC
330
1F
100
AcDbEntity
  8
LOGO
 62
     4
100
AcDbLine
 10
357.9026109498957
 20
62.6576699629631
 30
0.0
 11
357.9026109498957
 21
46.10198751300742
 31
0.0
  0
LINE
  5
14DD
330
1F
100
AcDbEntity
  8
LOGO
 62
     4
100
AcDbLine
 10
327.8013701317959
 20
62.6576699629631
 30
0.0
 11
327.8013701317959
 21
46.10198751300742
 31
0.0
  0
LINE
  5
14DE
330
1F
100
AcDbEntity
  8
LOGO
 62
     4
100
AcDbLine
 10
357.9026109498957
 20
46.10198751300742
 30
0.0
 11
327.8013701317959
 21
46.10198751300742
 31
0.0
  0
LINE
  5
14DF
330
1F
100
AcDbEntity
  8
LOGO
 62
     4
100
AcDbLine
 10
356.412383612094
 20
82.97600751517956
 30
0.0
 11
338.8832586954586
 21
82.97600751517956
 31
0.0
  0
LINE
  5
14E0
330
1F
100
AcDbEntity
  8
LOGO
 62
     4
100
AcDbLine
 10
356.412383612094
 20
69.43044914703489
 30
0.0
 11
338.8832586954586
 21
69.43044914703489
 31
0.0
  0
LINE
  5
14E1
330
1F
100
AcDbEntity
  8
LOGO
 62
     4
100
AcDbLine
 10
338.8832586954586
 20
82.97600751517956
 30
0.0
 11
338.8832586954586
 21
69.43044914703489
 31
0.0
  0
LINE
  5
14E2
330
1F
100
AcDbEntity
  8
LOGO
 62
     4
100
AcDbLine
 10
356.412383612094
 20
82.97600751517956
 30
0.0
 11
356.412383612094
 21
69.43044914703489
 31
0.0
  0
LINE
  5
14E3
330
1F
100
AcDbEntity
  8
LOGO
 62
     4
100
AcDbLine
 10
349.2905619176848
 20
69.43044914703489
 30
0.0
 11
349.2905619176848
 21
62.6576699629631
 31
0.0
  0
TEXT
  5
14E4
330
1F
100
AcDbEntity
  8
LOGO
  6
Continuous
100
AcDbText
 10
341.3605772308859
 20
72.25806465278083
 30
0.0
 40
7.902719999999998
  1
25
  7
CHINESET
100
AcDbText
  0
LINE
  5
14E5
330
1F
100
AcDbEntity
  8
LOGO
 62
     4
100
AcDbLine
 10
357.9026109498957
 20
62.6576699629631
 30
0.0
 11
327.8013701317959
 21
62.6576699629631
 31
0.0
  0
LINE
  5
14E6
330
1F
100
AcDbEntity
  8
LOGO
  6
Continuous
100
AcDbLine
 10
384.0198579181699
 20
76.15524782266323
 30
0.0
 11
390.0010822380806
 21
76.15524782266323
 31
0.0
  0
LINE
  5
14E7
330
1F
100
AcDbEntity
  8
LOGO
 62
     4
100
AcDbLine
 10
435.625232531416
 20
62.6576699629631
 30
0.0
 11
435.625232531416
 21
46.10198751300742
 31
0.0
  0
LINE
  5
14E8
330
1F
100
AcDbEntity
  8
LOGO
 62
     4
100
AcDbLine
 10
395.4851514354494
 20
62.6576699629631
 30
0.0
 11
395.4851514354494
 21
46.10198751300742
 31
0.0
  0
LINE
  5
14E9
330
1F
100
AcDbEntity
  8
LOGO
 62
     4
100
AcDbLine
 10
435.625232531416
 20
46.10198751300742
 30
0.0
 11
395.4851514354494
 21
46.10198751300742
 31
0.0
  0
LINE
  5
14EA
330
1F
100
AcDbEntity
  8
LOGO
 62
     4
100
AcDbLine
 10
411.3082825453663
 20
82.97600751517956
 30
0.0
 11
393.0369054486955
 21
82.97600751517956
 31
0.0
  0
LINE
  5
14EB
330
1F
100
AcDbEntity
  8
LOGO
 62
     4
100
AcDbLine
 10
411.3082825453663
 20
69.43044914703489
 30
0.0
 11
393.0369054486955
 21
69.43044914703489
 31
0.0
  0
LINE
  5
14EC
330
1F
100
AcDbEntity
  8
LOGO
 62
     4
100
AcDbLine
 10
393.0369054486955
 20
82.97600751517956
 30
0.0
 11
393.0369054486955
 21
69.43044914703489
 31
0.0
  0
LINE
  5
14ED
330
1F
100
AcDbEntity
  8
LOGO
 62
     4
100
AcDbLine
 10
411.3082825453663
 20
82.97600751517956
 30
0.0
 11
411.3082825453663
 21
69.43044914703489
 31
0.0
  0
LINE
  5
14EE
330
1F
100
AcDbEntity
  8
LOGO
 62
     4
100
AcDbLine
 10
403.5973180382523
 20
69.43044914703489
 30
0.0
 11
403.5973180382523
 21
62.6576699629631
 31
0.0
  0
TEXT
  5
14EF
330
1F
100
AcDbEntity
  8
LOGO
  6
Continuous
100
AcDbText
 10
395.9045301262601
 20
72.25806465278083
 30
0.0
 40
7.902719999999998
  1
RK
  7
CHINESET
100
AcDbText
  0
LINE
  5
14F0
330
1F
100
AcDbEntity
  8
LOGO
 62
     4
100
AcDbLine
 10
435.625232531416
 20
62.6576699629631
 30
0.0
 11
395.4851514354494
 21
62.6576699629631
 31
0.0
  0
TEXT
  5
14F1
330
1F
100
AcDbEntity
  8
LOGO
  6
Continuous
100
AcDbText
 10
334.1063498127575
 20
48.43878698367854
 30
295.9178601481316
 40
3.386879999999999
  1
Tube I.D.
 41
0.8
  7
CHINESET
100
AcDbText
  0
TEXT
  5
14F2
330
1F
100
AcDbEntity
  8
LOGO
100
AcDbText
 10
336.3343413974673
 20
54.71733257894232
 30
295.9178601481316
 40
5.6448
  1
內徑
  7
CHINESET
100
AcDbText
  0
TEXT
  5
14F3
330
1F
100
AcDbEntity
  8
LOGO
  6
Continuous
100
AcDbText
 10
397.6103186616794
 20
48.43878698367854
 30
295.9178601481316
 40
3.386879999999999
  1
Auto switch type
 41
0.8
  7
CHINESET
100
AcDbText
  0
TEXT
  5
14F4
330
1F
100
AcDbEntity
  8
LOGO
100
AcDbText
 10
399.7968524768343
 20
54.71733257894232
 30
295.9178601481316
 40
5.6448
  1
感應器型式
  7
CHINESET
100
AcDbText
  0
LINE
  5
14F5
330
1F
100
AcDbEntity
  8
LOGO
 62
     4
100
AcDbLine
 10
439.382278010717
 20
82.97600751517956
 30
0.0
 11
424.6837214690303
 21
82.97600751517956
 31
0.0
  0
LINE
  5
14F6
330
1F
100
AcDbEntity
  8
LOGO
 62
     4
100
AcDbLine
 10
439.382278010717
 20
69.43044914703489
 30
0.0
 11
424.6837214690303
 21
69.43044914703489
 31
0.0
  0
LINE
  5
14F7
330
1F
100
AcDbEntity
  8
LOGO
 62
     4
100
AcDbLine
 10
424.6837214690303
 20
82.97600751517956
 30
0.0
 11
424.6837214690303
 21
69.43044914703489
 31
0.0
  0
LINE
  5
14F8
330
1F
100
AcDbEntity
  8
LOGO
 62
     4
100
AcDbLine
 10
439.382278010717
 20
82.97600751517956
 30
0.0
 11
439.382278010717
 21
69.43044914703489
 31
0.0
  0
LINE
  5
14F9
330
1F
100
AcDbEntity
  8
LOGO
 62
     4
100
AcDbLine
 10
496.4835382605868
 20
62.6576699629631
 30
0.0
 11
496.4835382605868
 21
46.10198751300742
 31
0.0
  0
LINE
  5
14FA
330
1F
100
AcDbEntity
  8
LOGO
 62
     4
100
AcDbLine
 10
439.6556473067203
 20
62.6576699629631
 30
0.0
 11
439.6556473067203
 21
46.10198751300742
 31
0.0
  0
LINE
  5
14FB
330
1F
100
AcDbEntity
  8
LOGO
 62
     4
100
AcDbLine
 10
496.4835382605868
 20
46.10198751300742
 30
0.0
 11
439.6556473067203
 21
46.10198751300742
 31
0.0
  0
LINE
  5
14FC
330
1F
100
AcDbEntity
  8
LOGO
 62
     4
100
AcDbLine
 10
496.4835382605868
 20
62.6576699629631
 30
0.0
 11
439.6556473067203
 21
62.6576699629631
 31
0.0
  0
TEXT
  5
14FD
330
1F
100
AcDbEntity
  8
LOGO
  6
Continuous
100
AcDbText
 10
444.9861554048614
 20
48.43878698367854
 30
295.9178601481316
 40
3.386879999999999
  1
Number of auto switch
 41
0.8
  7
CHINESET
100
AcDbText
  0
TEXT
  5
14FE
330
1F
100
AcDbEntity
  8
LOGO
100
AcDbText
 10
454.0271300437787
 20
54.71733257894232
 30
295.9178601481316
 40
5.6448
  1
感應器數量
  7
CHINESET
100
AcDbText
  0
LINE
  5
14FF
330
1F
100
AcDbEntity
  8
LOGO
 62
     4
100
AcDbLine
 10
468.0695927836536
 20
66.04405955499903
 30
0.0
 11
468.0695927836536
 21
62.6576699629631
 31
0.0
  0
TEXT
  5
1500
330
1F
100
AcDbEntity
  8
LOGO
100
AcDbText
 10
230.1046467511209
 20
44.74139360687604
 30
0.0
 40
4.515839999999999
  1
10705203
 41
0.7
  7
CHINESET
 72
     1
 11
241.3942467511209
 21
44.74139360687604
 31
0.0
100
AcDbText
  0
LINE
  5
1501
330
1F
100
AcDbEntity
  8
LOGO
 62
     4
100
AcDbLine
 10
255.4086995089512
 20
51.36970465617605
 30
0.0
 11
255.4086995089535
 21
42.33933241074561
 31
0.0
  0
LINE
  5
1502
330
1F
100
AcDbEntity
  8
LOGO
 62
     4
100
AcDbLine
 10
255.4086995089512
 20
51.36970465617605
 30
0.0
 11
228.3136595089537
 21
51.36970465617605
 31
0.0
  0
CIRCLE
  5
1503
330
1F
100
AcDbEntity
  8
LOGO
  6
Continuous
100
AcDbCircle
 10
206.5728505476132
 20
73.95529328590772
 30
0.0
 40
2.621623338349559
  0
CIRCLE
  5
1504
330
1F
100
AcDbEntity
  8
LOGO
  6
Continuous
100
AcDbCircle
 10
206.5728505476132
 20
73.95529328590772
 30
0.0
 40
1.536039197089424
  0
LINE
  5
1505
330
1F
100
AcDbEntity
  8
LOGO
100
AcDbLine
 10
223.0474358061094
 20
71.33366994755772
 30
0.0
 11
223.0474358061094
 21
76.57691662425782
 31
0.0
  0
LINE
  5
1506
330
1F
100
AcDbEntity
  8
LOGO
100
AcDbLine
 10
214.8287971287443
 20
72.41925408881866
 30
0.0
 11
214.8287971287443
 21
75.49133248299745
 31
0.0
  0
LINE
  5
1507
330
1F
100
AcDbEntity
  8
LOGO
  6
Continuous
100
AcDbLine
 10
214.8287971287443
 20
75.49133248299745
 30
0.0
 11
223.0474358061094
 21
76.57691662425782
 31
0.0
  0
LINE
  5
1508
330
1F
100
AcDbEntity
  8
LOGO
  6
Continuous
100
AcDbLine
 10
214.8287971287443
 20
72.41925408881866
 30
0.0
 11
223.0474358061094
 21
71.33366994755772
 31
0.0
  0
LINE
  5
1509
330
1F
100
AcDbEntity
  8
LOGO
  6
AM_ISO08W050x2
 48
0.3
100
AcDbLine
 10
202.9589035199799
 20
73.95529328590772
 30
0.0
 11
210.1867975752463
 21
73.95529328590772
 31
0.0
1001
GENIUS_GENOREF_13
1005
1520
  0
LINE
  5
150A
330
1F
100
AcDbEntity
  8
LOGO
  6
AM_ISO08W050x2
 48
0.3
100
AcDbLine
 10
206.5728505476132
 20
70.34134625827459
 30
0.0
 11
206.5728505476132
 21
77.56924031354088
 31
0.0
1001
GENIUS_GENOREF_13
1005
151F
  0
LINE
  5
150B
330
1F
100
AcDbEntity
  8
LOGO
  6
CENTER
 48
0.5
100
AcDbLine
 10
214.1715344705481
 20
73.95529328590772
 30
0.0
 11
223.875026115815
 21
73.95529328590772
 31
0.0
1001
GENIUS_GENOREF_13
1005
151E
  0
TEXT
  5
150C
330
1F
100
AcDbEntity
  8
LOGO
  6
Continuous
100
AcDbText
 10
359.6269944464606
 20
72.25806465278083
 30
0.0
 40
7.902719999999998
  1
D
  7
CHINESET
100
AcDbText
  0
LINE
  5
150D
330
1F
100
AcDbEntity
  8
LOGO
 62
     4
100
AcDbLine
 10
392.7324370747465
 20
62.6576699629631
 30
0.0
 11
392.7324370747465
 21
46.10198751300742
 31
0.0
  0
LINE
  5
150E
330
1F
100
AcDbEntity
  8
LOGO
 62
     4
100
AcDbLine
 10
361.133083269621
 20
62.6576699629631
 30
0.0
 11
361.133083269621
 21
46.10198751300742
 31
0.0
  0
LINE
  5
150F
330
1F
100
AcDbEntity
  8
LOGO
 62
     4
100
AcDbLine
 10
392.7324370747465
 20
46.10198751300742
 30
0.0
 11
361.133083269621
 21
46.10198751300742
 31
0.0
  0
LINE
  5
1510
330
1F
100
AcDbEntity
  8
LOGO
 62
     4
100
AcDbLine
 10
381.7221553971598
 20
82.97600751517956
 30
0.0
 11
367.3100574509263
 21
82.97600751517956
 31
0.0
  0
LINE
  5
1511
330
1F
100
AcDbEntity
  8
LOGO
 62
     4
100
AcDbLine
 10
381.7221553971598
 20
69.43044914703489
 30
0.0
 11
367.3100574509263
 21
69.43044914703489
 31
0.0
  0
LINE
  5
1512
330
1F
100
AcDbEntity
  8
LOGO
 62
     4
100
AcDbLine
 10
367.3100574509263
 20
82.97600751517956
 30
0.0
 11
367.3100574509263
 21
69.43044914703489
 31
0.0
  0
LINE
  5
1513
330
1F
100
AcDbEntity
  8
LOGO
 62
     4
100
AcDbLine
 10
381.7221553971598
 20
82.97600751517956
 30
0.0
 11
381.7221553971598
 21
69.43044914703489
 31
0.0
  0
LINE
  5
1514
330
1F
100
AcDbEntity
  8
LOGO
 62
     4
100
AcDbLine
 10
374.5161064240431
 20
69.43044914703489
 30
0.0
 11
374.5161064240431
 21
62.6576699629631
 31
0.0
  0
LINE
  5
1515
330
1F
100
AcDbEntity
  8
LOGO
 62
     4
100
AcDbLine
 10
392.7324370747465
 20
62.6576699629631
 30
0.0
 11
361.133083269621
 21
62.6576699629631
 31
0.0
  0
TEXT
  5
1516
330
1F
100
AcDbEntity
  8
LOGO
  6
Continuous
100
AcDbText
 10
363.8629701582743
 20
48.43878698367854
 30
295.9178601481316
 40
3.386879999999999
  1
Finger option
 41
0.8
  7
CHINESET
100
AcDbText
  0
TEXT
  5
1517
330
1F
100
AcDbEntity
  8
LOGO
100
AcDbText
 10
364.716919841893
 20
54.71733257894232
 30
295.9178601481316
 40
5.6448
  1
夾爪選配
  7
CHINESET
100
AcDbText
  0
TEXT
  5
1518
330
1F
100
AcDbEntity
  8
LOGO
  6
Continuous
100
AcDbText
 10
416.5846976074655
 20
72.25806465278083
 30
0.0
 40
7.902719999999998
  1
x
  7
CHINESET
100
AcDbText
  0
LINE
  5
1519
330
1F
100
AcDbEntity
  8
LOGO
 62
     4
100
AcDbLine
 10
432.0329997398736
 20
69.43044914703489
 30
0.0
 11
432.0329997398736
 21
66.04405955499903
 31
0.0
  0
LINE
  5
151A
330
1F
100
AcDbEntity
  8
LOGO
 62
     4
100
AcDbLine
 10
432.0329997398736
 20
66.04405955499903
 30
0.0
 11
468.0695927836536
 21
66.04405955499903
 31
0.0
  0
LINE
  5
151B
330
1F
100
AcDbEntity
  8
LOGO
 62
     4
100
AcDbLine
 10
459.1242530596789
 20
493.9233324107441
 30
0.0
 11
459.1242530596789
 21
87.49119363789464
 31
0.0
  0
TEXT
  5
151C
330
1F
100
AcDbEntity
  8
0
100
AcDbText
 10
468.0932571063593
 20
474.7297667595224
 30
0.0
 40
6.719999999999998
  1
Right angle finger tap mounting
 41
0.85
  7
CHINESET
100
AcDbText
  0
TEXT
  5
151D
330
1F
100
AcDbEntity
  8
0
100
AcDbText
 10
137.9485688559052
 20
474.7297667595224
 30
0.0
 40
6.719999999999998
  1
Flat finger (standard)
 41
0.85
  7
CHINESET
100
AcDbText
  0
POINT
  5
151E
330
1F
100
AcDbEntity
  8
0
 60
     1
100
AcDbPoint
 10
-427.0263019129918
 20
-767.5661480522246
 30
0.0
1001
GENIUS_GENOBJ-N-CRS_13
1002
{
1000
OWNER
1000
GEN
1002
}
1001
GENIUS_GENOLIS_13
1002
{
1000
ENT
1005
0
1005
0
1005
0
1005
150B
1002
}
1001
GENIUS_GENOENT_13
1002
{
1000
MYREF
1005
151E
1002
}
1002
{
1000
GRP
1005
0
1002
}
1001
GENIUS_GENODEF_13
1002
{
1000
HIER
1070
    10
1002
}
1002
{
1000
MANEDIT
1070
     1
1002
}
1002
{
1000
NOSEL
1070
     0
1002
}
1002
{
1000
BEHIND
1070
     0
1002
}
1002
{
1000
OTHER
1070
     0
1002
}
1002
{
1000
REACTOR
1002
}
  0
POINT
  5
151F
330
1F
100
AcDbEntity
  8
0
 60
     1
100
AcDbPoint
 10
-438.3508871358465
 20
-758.6905615735884
 30
0.0
1001
GENIUS_GENOBJ-N-CRS_13
1002
{
1000
OWNER
1000
GEN
1002
}
1001
GENIUS_GENOLIS_13
1002
{
1000
ENT
1005
0
1005
0
1005
0
1005
150A
1002
}
1001
GENIUS_GENOENT_13
1002
{
1000
MYREF
1005
151F
1002
}
1002
{
1000
GRP
1005
0
1002
}
1001
GENIUS_GENODEF_13
1002
{
1000
HIER
1070
    10
1002
}
1002
{
1000
MANEDIT
1070
     1
1002
}
1002
{
1000
NOSEL
1070
     0
1002
}
1002
{
1000
BEHIND
1070
     0
1002
}
1002
{
1000
OTHER
1070
     0
1002
}
1002
{
1000
REACTOR
1002
}
  0
POINT
  5
1520
330
1F
100
AcDbEntity
  8
0
 60
     1
100
AcDbPoint
 10
-431.9922134380097
 20
-767.5661480522246
 30
0.0
1001
GENIUS_GENOBJ-N-CRS_13
1002
{
1000
OWNER
1000
GEN
1002
}
1001
GENIUS_GENOLIS_13
1002
{
1000
ENT
1005
0
1005
0
1005
0
1005
1509
1002
}
1001
GENIUS_GENOENT_13
1002
{
1000
MYREF
1005
1520
1002
}
1002
{
1000
GRP
1005
0
1002
}
1001
GENIUS_GENODEF_13
1002
{
1000
HIER
1070
    10
1002
}
1002
{
1000
MANEDIT
1070
     1
1002
}
1002
{
1000
NOSEL
1070
     0
1002
}
1002
{
1000
BEHIND
1070
     0
1002
}
1002
{
1000
OTHER
1070
     0
1002
}
1002
{
1000
REACTOR
1002
}
  0
DIMENSION
  5
1659
102
{ACAD_XDICTIONARY
360
1666
102
}
102
{ACAD_REACTORS
330
1667
102
}
330
1F
100
AcDbEntity
  8
Dim
100
AcDbDimension
  2
*D67
 10
649.7393884343175
 20
340.0800451674409
 30
0.0
 11
639.2393884343175
 21
342.3300451674409
 31
0.0
 70
    32
 71
     5
 42
21.0
  3
Standard
100
AcDbAlignedDimension
 13
628.7393884343175
 23
312.3065074444733
 33
0.0
 14
649.7393884343175
 24
324.3065074444733
 34
0.0
100
AcDbRotatedDimension
1001
ACAD
1000
DSTYLE
1002
{
1070
    41
1040
2.0
1070
    42
1040
1.0
1070
    44
1040
1.0
1070
    73
1070
     0
1070
    74
1070
     0
1070
    77
1070
     1
1070
    78
1070
     8
1070
    79
1070
     2
1070
   140
1040
2.5
1070
   141
1040
0.0
1070
   147
1040
1.0
1070
   172
1070
     1
1070
   174
1070
     1
1070
   176
1070
   256
1070
   177
1070
   256
1070
   178
1070
   256
1070
   271
1070
     2
1070
   272
1070
     2
1070
   340
1005
BBE
1070
   371
1070
    -1
1070
   372
1070
    -1
1002
}
  0
ENDSEC
  0
SECTION
  2
OBJECTS
  0
DICTIONARY
  5
C
330
0
100
AcDbDictionary
281
     1
  3
ACAD_COLOR
350
BE
  3
ACAD_GROUP
350
D
  3
ACAD_LAYOUT
350
1A
  3
ACAD_MATERIAL
350
BD
  3
ACAD_MLINESTYLE
350
17
  3
ACAD_PLOTSETTINGS
350
19
  3
ACAD_PLOTSTYLENAME
350
E
  3
ACAD_TABLESTYLE
350
11A
  3
ACDBHEADERROUNDTRIPXREC
350
16EA
  3
AcDbVariableDictionary
350
94
  3
AcmDictionary
350
5B
  3
AMG
350
41
  3
AMGSNAPSETTINGS
350
1B8
  3
DWGPROPS
350
16E9
  0
DICTIONARY
  5
3F9
330
2
100
AcDbDictionary
280
     1
281
     1
  3
ACAD_LAYERFILTERS
360
118C
  3
ACAD_LAYERSTATES
360
13E2
  3
ACLYDICTIONARY
360
118B
  3
AMLAYER_GROUPCOLORS
360
11B1
  0
DICTIONARY
  5
8F
330
1F
100
AcDbDictionary
280
     1
281
     1
  0
DICTIONARY
  5
12F1
330
12E4
100
AcDbDictionary
280
     1
281
     1
  3
ACAD_DIMASSOC
360
12F2
  0
DICTIONARY
  5
1317
330
130A
100
AcDbDictionary
280
     1
281
     1
  3
ACAD_DIMASSOC
360
1318
  0
DICTIONARY
  5
133F
330
1330
100
AcDbDictionary
280
     1
281
     1
  3
ACAD_DIMASSOC
360
1340
  0
DICTIONARY
  5
1666
330
1659
100
AcDbDictionary
280
     1
281
     1
  3
ACAD_DIMASSOC
360
1667
  0
DICTIONARY
  5
BE
102
{ACAD_REACTORS
330
C
102
}
330
C
100
AcDbDictionary
281
     1
  0
DICTIONARY
  5
D
102
{ACAD_REACTORS
330
C
102
}
330
C
100
AcDbDictionary
281
     1
  0
DICTIONARY
  5
1A
102
{ACAD_REACTORS
330
C
102
}
330
C
100
AcDbDictionary
281
     1
  3
Model
350
22
  3
配置1
350
1E
  3
配置2
350
26
  0
DICTIONARY
  5
BD
102
{ACAD_REACTORS
330
C
102
}
330
C
100
AcDbDictionary
281
     1
  0
DICTIONARY
  5
17
102
{ACAD_REACTORS
330
C
102
}
330
C
100
AcDbDictionary
281
     1
  3
Standard
350
18
  0
DICTIONARY
  5
19
102
{ACAD_REACTORS
330
C
102
}
330
C
100
AcDbDictionary
281
     1
  0
ACDBDICTIONARYWDFLT
  5
E
102
{ACAD_REACTORS
330
C
102
}
330
C
100
AcDbDictionary
281
     1
  3
Normal
350
F
100
AcDbDictionaryWithDefault
340
F
  0
DICTIONARY
  5
11A
102
{ACAD_REACTORS
330
C
102
}
330
C
100
AcDbDictionary
281
     1
  3
Standard
350
11B
  0
DICTIONARY
  5
16EA
102
{ACAD_REACTORS
330
C
102
}
330
C
100
AcDbDictionary
281
     1
  0
DICTIONARY
  5
94
102
{ACAD_REACTORS
330
C
102
}
330
C
100
AcDbDictionary
281
     1
  3
CTABLESTYLE
350
138
  3
DIMASSOC
350
96
  3
INDEXCTL
350
95
  3
PROJECTNAME
350
16E7
  0
DICTIONARY
  5
5B
102
{ACAD_REACTORS
330
C
102
}
330
C
100
AcDbDictionary
281
     1
  3
AcmBOM
350
1B5
  3
AcmStdDictionary
350
61
  3
AMDTSECTSYM_ARROWCOLOR
350
123
  0
DICTIONARY
  5
41
102
{ACAD_REACTORS
330
C
102
}
330
C
100
AcDbDictionary
281
     1
  0
DICTIONARY
  5
1B8
102
{ACAD_REACTORS
330
C
102
}
330
C
100
AcDbDictionary
281
     1
  0
XRECORD
  5
16E9
102
{ACAD_REACTORS
330
C
102
}
330
C
100
AcDbXrecord
280
     1
  1
DWGPROPS COOKIE
  2

  3

  4

  6

  7

  8

  9

300
AmdtFileType=84
301
=
302
=
303
=
304
=
305
=
306
=
307
=
308
=
309
=
 40
0.2206678587962963
 41
2454240.456294306
 42
2454240.676961806
  1

 90
        1
  0
DICTIONARY
  5
118C
102
{ACAD_REACTORS
330
3F9
102
}
330
3F9
100
AcDbDictionary
281
     1
  0
DICTIONARY
  5
13E2
102
{ACAD_REACTORS
330
3F9
102
}
330
3F9
100
AcDbDictionary
281
     1
  0
DICTIONARY
  5
118B
102
{ACAD_REACTORS
330
3F9
102
}
330
3F9
100
AcDbDictionary
281
     1
1001
ACAD
1000
<All
  0
DICTIONARY
  5
11B1
102
{ACAD_REACTORS
330
3F9
102
}
330
3F9
100
AcDbDictionary
280
     1
281
     1
  0
DIMASSOC
  5
12F2
102
{ACAD_REACTORS
330
12F1
102
}
330
12F1
100
AcDbDimAssoc
330
12E4
 90
        3
 70
     0
 71
     0
  1
AcDbOsnapPointRef
 72
    13
331
DFC
 73
     0
 91
        0
 40
0.0
 10
0.0
 20
0.0
 30
2.000000000000000E+50
 75
     0
  1
AcDbOsnapPointRef
 72
    13
331
DDE
 73
     0
 91
        0
 40
0.0
 10
0.0
 20
0.0
 30
2.000000000000000E+50
 75
     0
  0
DIMASSOC
  5
1318
102
{ACAD_REACTORS
330
1317
102
}
330
1317
100
AcDbDimAssoc
330
130A
 90
        3
 70
     0
 71
     0
  1
AcDbOsnapPointRef
 72
    13
331
DFC
 73
     0
 91
        0
 40
0.0
 10
0.0
 20
0.0
 30
2.000000000000000E+50
 75
     0
  1
AcDbOsnapPointRef
 72
     1
331
DE4
 73
     0
 91
        0
 40
0.0
 10
0.0
 20
0.0
 30
2.000000000000000E+50
 75
     0
  0
DIMASSOC
  5
1340
102
{ACAD_REACTORS
330
133F
102
}
330
133F
100
AcDbDimAssoc
330
1330
 90
        3
 70
     0
 71
     0
  1
AcDbOsnapPointRef
 72
    13
331
DFC
 73
     0
 91
        0
 40
0.0
 10
0.0
 20
0.0
 30
2.000000000000000E+50
 75
     0
  1
AcDbOsnapPointRef
 72
     1
331
DFC
 73
     0
 91
        0
 40
0.0
 10
0.0
 20
0.0
 30
2.000000000000000E+50
 75
     0
  0
DIMASSOC
  5
1667
102
{ACAD_REACTORS
330
1666
102
}
330
1666
100
AcDbDimAssoc
330
1659
 90
        3
 70
     0
 71
     0
  1
AcDbOsnapPointRef
 72
     1
331
DE4
 73
     0
 91
        0
 40
0.0
 10
0.0
 20
0.0
 30
2.000000000000000E+50
 75
     0
  1
AcDbOsnapPointRef
 72
     1
331
DFC
 73
     0
 91
        0
 40
0.0
 10
0.0
 20
0.0
 30
2.000000000000000E+50
 75
     0
  0
LAYOUT
  5
22
102
{ACAD_XDICTIONARY
360
16ED
102
}
102
{ACAD_REACTORS
330
1A
102
}
330
1A
100
AcDbPlotSettings
  1

  2
\\RD\EPSON Stylus C63 Series單色
  4
A4
  6

 40
3.757083177566528
 41
3.757076978683471
 42
3.757080078125
 43
3.757080078125
 44
209.9733276367187
 45
296.9683227539062
 46
0.0
 47
0.0
 48
0.0
 49
0.0
140
0.0
141
0.0
142
1.0
143
0.3405120737814363
 70
 11952
 72
     1
 73
     0
 74
     0
  7
彩色出圖.ctb
 75
     0
147
2.936753428137963
148
-2047.07469463503
149
-1261.649717473083
100
AcDbLayout
  1
Model
 70
     1
 71
     0
 10
0.0
 20
0.0
 11
12.0
 21
9.0
 12
0.0
 22
0.0
 32
0.0
 14
0.0
 24
0.0
 34
0.0
 15
0.0
 25
0.0
 35
0.0
146
0.0
 13
0.0
 23
0.0
 33
0.0
 16
1.0
 26
0.0
 36
0.0
 17
0.0
 27
1.0
 37
0.0
 76
     0
330
1F
1001
ACAD_PSEXT
1000
\\RD\EPSON Stylus C63 Series單色
1000
EPSON Stylus C63 Series
1000
\\RD
1000

1070
     0
  0
LAYOUT
  5
1E
102
{ACAD_XDICTIONARY
360
16EB
102
}
102
{ACAD_REACTORS
330
1A
102
}
330
1A
100
AcDbPlotSettings
  1

  2

  4

  6

 40
0.0
 41
0.0
 42
0.0
 43
0.0
 44
0.0
 45
0.0
 46
0.0
 47
0.0
 48
0.0
 49
0.0
140
0.0
141
0.0
142
1.0
143
1.0
 70
   688
 72
     0
 73
     0
 74
     5
  7
彩色出圖.ctb
 75
    16
147
1.0
148
0.0
149
0.0
100
AcDbLayout
  1
配置1
 70
     1
 71
     1
 10
0.0
 20
0.0
 11
420.0
 21
297.0
 12
0.0
 22
0.0
 32
0.0
 14
1.000000000000000E+20
 24
1.000000000000000E+20
 34
1.000000000000000E+20
 15
-1.000000000000000E+20
 25
-1.000000000000000E+20
 35
-1.000000000000000E+20
146
0.0
 13
0.0
 23
0.0
 33
0.0
 16
1.0
 26
0.0
 36
0.0
 17
0.0
 27
1.0
 37
0.0
 76
     0
330
1B
  0
LAYOUT
  5
26
102
{ACAD_XDICTIONARY
360
16EF
102
}
102
{ACAD_REACTORS
330
1A
102
}
330
1A
100
AcDbPlotSettings
  1

  2

  4

  6

 40
0.0
 41
0.0
 42
0.0
 43
0.0
 44
0.0
 45
0.0
 46
0.0
 47
0.0
 48
0.0
 49
0.0
140
0.0
141
0.0
142
1.0
143
1.0
 70
   688
 72
     0
 73
     0
 74
     5
  7
彩色出圖.ctb
 75
    16
147
1.0
148
0.0
149
0.0
100
AcDbLayout
  1
配置2
 70
     1
 71
     2
 10
0.0
 20
0.0
 11
12.0
 21
9.0
 12
0.0
 22
0.0
 32
0.0
 14
0.0
 24
0.0
 34
0.0
 15
0.0
 25
0.0
 35
0.0
146
0.0
 13
0.0
 23
0.0
 33
0.0
 16
1.0
 26
0.0
 36
0.0
 17
0.0
 27
1.0
 37
0.0
 76
     0
330
23
  0
MLINESTYLE
  5
18
102
{ACAD_REACTORS
330
17
102
}
330
17
100
AcDbMlineStyle
  2
STANDARD
 70
     0
  3

 62
   256
 51
90.0
 52
90.0
 71
     2
 49
0.5
 62
   256
  6
BYLAYER
 49
-0.5
 62
   256
  6
BYLAYER
  0
ACDBPLACEHOLDER
  5
F
102
{ACAD_REACTORS
330
E
102
}
330
E
  0
TABLESTYLE
  5
11B
102
{ACAD_REACTORS
330
11A
102
}
330
11A
100
AcDbTableStyle
  3
Standard
 70
     0
 71
     0
 40
1.5
 41
1.5
280
     0
281
     0
  7
STANDARD
140
4.5
170
     2
 62
     0
 63
     7
283
     0
274
    -2
284
     1
 64
     0
275
    -2
285
     1
 65
     0
276
    -2
286
     1
 66
     0
277
    -2
287
     1
 67
     0
278
    -2
288
     1
 68
     0
279
    -2
289
     1
 69
     0
  7
STANDARD
140
6.0
170
     5
 62
     0
 63
     7
283
     0
274
    -2
284
     1
 64
     0
275
    -2
285
     1
 65
     0
276
    -2
286
     1
 66
     0
277
    -2
287
     1
 67
     0
278
    -2
288
     1
 68
     0
279
    -2
289
     1
 69
     0
  7
STANDARD
140
4.5
170
     5
 62
     0
 63
     7
283
     0
274
    -2
284
     1
 64
     0
275
    -2
285
     1
 65
     0
276
    -2
286
     1
 66
     0
277
    -2
287
     1
 67
     0
278
    -2
288
     1
 68
     0
279
    -2
289
     1
 69
     0
  0
DICTIONARYVAR
  5
138
102
{ACAD_REACTORS
330
94
102
}
330
94
100
DictionaryVariables
280
     0
  1
STANDARD
  0
DICTIONARYVAR
  5
96
102
{ACAD_REACTORS
330
94
102
}
330
94
100
DictionaryVariables
280
     0
  1
2
  0
DICTIONARYVAR
  5
95
102
{ACAD_REACTORS
330
94
102
}
330
94
100
DictionaryVariables
280
     0
  1
0
  0
DICTIONARYVAR
  5
16E7
102
{ACAD_REACTORS
330
94
102
}
330
94
100
DictionaryVariables
280
     0
  1

  0
DICTIONARY
  5
1B5
102
{ACAD_REACTORS
330
5B
102
}
330
5B
100
AcDbDictionary
281
     1
  0
DICTIONARY
  5
61
102
{ACAD_REACTORS
330
5B
102
}
330
5B
100
AcDbDictionary
281
     1
  0
XRECORD
  5
123
102
{ACAD_REACTORS
330
5B
102
}
330
5B
100
AcDbXrecord
280
     1
 90
-1023410169
  0
DICTIONARY
  5
16ED
330
22
100
AcDbDictionary
280
     1
281
     1
  3
ACAD_XREC_ROUNDTRIP
360
16EE
  0
DICTIONARY
  5
16EB
330
1E
100
AcDbDictionary
280
     1
281
     1
  3
ACAD_XREC_ROUNDTRIP
360
16EC
  0
DICTIONARY
  5
16EF
330
26
100
AcDbDictionary
280
     1
281
     1
  3
ACAD_XREC_ROUNDTRIP
360
16F0
  0
XRECORD
  5
16EE
102
{ACAD_REACTORS
330
16ED
102
}
330
16ED
100
AcDbXrecord
280
     1
102
SHADEPLOT
 70
     0
102
SHADEPLOTRESLEVEL
 70
     2
102
SHADEPLOTCUSTOMDPI
 70
   300
  0
XRECORD
  5
16EC
102
{ACAD_REACTORS
330
16EB
102
}
330
16EB
100
AcDbXrecord
280
     1
102
SHADEPLOT
 70
     0
102
SHADEPLOTRESLEVEL
 70
     2
102
SHADEPLOTCUSTOMDPI
 70
   300
  0
XRECORD
  5
16F0
102
{ACAD_REACTORS
330
16EF
102
}
330
16EF
100
AcDbXrecord
280
     1
102
SHADEPLOT
 70
     0
102
SHADEPLOTRESLEVEL
 70
     2
102
SHADEPLOTCUSTOMDPI
 70
   300
  0
ENDSEC
  0
EOF
