  0
SECTION
  2
HEADER
  9
$ACADVER
  1
AC1015
  9
$ACADMAINTVER
 70
    20
  9
$DWGCODEPAGE
  3
ANSI_950
  9
$INSBASE
 10
0.0
 20
0.0
 30
0.0
  9
$EXTMIN
 10
172.7779967833785
 20
181.948275469492
 30
-0.0095883739028295
  9
$EXTMAX
 10
722.8770363444014
 20
585.188976581738
 30
264.2204389158047
  9
$LIMMIN
 10
0.0
 20
0.0
  9
$LIMMAX
 10
420.0
 20
297.0
  9
$ORTHOMODE
 70
     1
  9
$REGENMODE
 70
     1
  9
$FILLMODE
 70
     1
  9
$QTEXTMODE
 70
     0
  9
$MIRRTEXT
 70
     1
  9
$LTSCALE
 40
1.0
  9
$ATTMODE
 70
     1
  9
$TEXTSIZE
 40
3.0
  9
$TRACEWID
 40
1.0
  9
$TEXTSTYLE
  7
STANDARD
  9
$CLAYER
  8
0
  9
$CELTYPE
  6
ByLayer
  9
$CECOLOR
 62
   256
  9
$CELTSCALE
 40
1.0
  9
$DISPSILH
 70
     0
  9
$DIMSCALE
 40
1.0
  9
$DIMASZ
 40
3.0
  9
$DIMEXO
 40
1.0
  9
$DIMDLI
 40
8.0
  9
$DIMRND
 40
0.0
  9
$DIMDLE
 40
0.0
  9
$DIMEXE
 40
1.5
  9
$DIMTP
 40
0.1
  9
$DIMTM
 40
0.1
  9
$DIMTXT
 40
3.5
  9
$DIMCEN
 40
0.0
  9
$DIMTSZ
 40
0.0
  9
$DIMTOL
 70
     0
  9
$DIMLIM
 70
     0
  9
$DIMTIH
 70
     0
  9
$DIMTOH
 70
     0
  9
$DIMSE1
 70
     0
  9
$DIMSE2
 70
     0
  9
$DIMTAD
 70
     1
  9
$DIMZIN
 70
     8
  9
$DIMBLK
  1

  9
$DIMASO
 70
     1
  9
$DIMSHO
 70
     1
  9
$DIMPOST
  1

  9
$DIMAPOST
  1
"
  9
$DIMALT
 70
     0
  9
$DIMALTD
 70
     2
  9
$DIMALTF
 40
0.0393701
  9
$DIMLFAC
 40
1.0
  9
$DIMTOFL
 70
     1
  9
$DIMTVP
 40
0.0
  9
$DIMTIX
 70
     0
  9
$DIMSOXD
 70
     0
  9
$DIMSAH
 70
     0
  9
$DIMBLK1
  1

  9
$DIMBLK2
  1

  9
$DIMSTYLE
  2
AM_ISO
  9
$DIMCLRD
 70
   256
  9
$DIMCLRE
 70
   256
  9
$DIMCLRT
 70
   256
  9
$DIMTFAC
 40
0.6
  9
$DIMGAP
 40
0.7
  9
$DIMJUST
 70
     0
  9
$DIMSD1
 70
     0
  9
$DIMSD2
 70
     0
  9
$DIMTOLJ
 70
     0
  9
$DIMTZIN
 70
     8
  9
$DIMALTZ
 70
     0
  9
$DIMALTTZ
 70
     0
  9
$DIMUPT
 70
     0
  9
$DIMDEC
 70
     2
  9
$DIMTDEC
 70
     8
  9
$DIMALTU
 70
     2
  9
$DIMALTTD
 70
     2
  9
$DIMTXSTY
  7
STANDARD
  9
$DIMAUNIT
 70
     0
  9
$DIMADEC
 70
     0
  9
$DIMALTRND
 40
0.0
  9
$DIMAZIN
 70
     2
  9
$DIMDSEP
 70
    46
  9
$DIMATFIT
 70
     3
  9
$DIMFRAC
 70
     0
  9
$DIMLDRBLK
  1

  9
$DIMLUNIT
 70
     2
  9
$DIMLWD
 70
    -1
  9
$DIMLWE
 70
    -1
  9
$DIMTMOVE
 70
     0
  9
$LUNITS
 70
     2
  9
$LUPREC
 70
     2
  9
$SKETCHINC
 40
1.0
  9
$FILLETRAD
 40
2.5
  9
$AUNITS
 70
     0
  9
$AUPREC
 70
     0
  9
$MENU
  1
.
  9
$ELEVATION
 40
0.0
  9
$PELEVATION
 40
0.0
  9
$THICKNESS
 40
0.0
  9
$LIMCHECK
 70
     0
  9
$CHAMFERA
 40
2.5
  9
$CHAMFERB
 40
2.5
  9
$CHAMFERC
 40
20.0
  9
$CHAMFERD
 40
0.0
  9
$SKPOLY
 70
     0
  9
$TDCREATE
 40
2454240.497225474
  9
$TDUCREATE
 40
2454240.163892141
  9
$TDUPDATE
 40
2454240.677522963
  9
$TDUUPDATE
 40
2454240.344189630
  9
$TDINDWG
 40
0.1802983912
  9
$TDUSRTIMER
 40
0.1802983912
  9
$USRTIMER
 70
     1
  9
$ANGBASE
 50
0.0
  9
$ANGDIR
 70
     0
  9
$PDMODE
 70
     0
  9
$PDSIZE
 40
0.0
  9
$PLINEWID
 40
0.0
  9
$SPLFRAME
 70
     0
  9
$SPLINETYPE
 70
     6
  9
$SPLINESEGS
 70
     8
  9
$HANDSEED
  5
196B
  9
$SURFTAB1
 70
     6
  9
$SURFTAB2
 70
     6
  9
$SURFTYPE
 70
     6
  9
$SURFU
 70
     6
  9
$SURFV
 70
     6
  9
$UCSBASE
  2

  9
$UCSNAME
  2

  9
$UCSORG
 10
0.0
 20
0.0
 30
0.0
  9
$UCSXDIR
 10
1.0
 20
0.0
 30
0.0
  9
$UCSYDIR
 10
0.0
 20
1.0
 30
0.0
  9
$UCSORTHOREF
  2

  9
$UCSORTHOVIEW
 70
     0
  9
$UCSORGTOP
 10
0.0
 20
0.0
 30
0.0
  9
$UCSORGBOTTOM
 10
0.0
 20
0.0
 30
0.0
  9
$UCSORGLEFT
 10
0.0
 20
0.0
 30
0.0
  9
$UCSORGRIGHT
 10
0.0
 20
0.0
 30
0.0
  9
$UCSORGFRONT
 10
0.0
 20
0.0
 30
0.0
  9
$UCSORGBACK
 10
0.0
 20
0.0
 30
0.0
  9
$PUCSBASE
  2

  9
$PUCSNAME
  2

  9
$PUCSORG
 10
0.0
 20
0.0
 30
0.0
  9
$PUCSXDIR
 10
1.0
 20
0.0
 30
0.0
  9
$PUCSYDIR
 10
0.0
 20
1.0
 30
0.0
  9
$PUCSORTHOREF
  2

  9
$PUCSORTHOVIEW
 70
     0
  9
$PUCSORGTOP
 10
0.0
 20
0.0
 30
0.0
  9
$PUCSORGBOTTOM
 10
0.0
 20
0.0
 30
0.0
  9
$PUCSORGLEFT
 10
0.0
 20
0.0
 30
0.0
  9
$PUCSORGRIGHT
 10
0.0
 20
0.0
 30
0.0
  9
$PUCSORGFRONT
 10
0.0
 20
0.0
 30
0.0
  9
$PUCSORGBACK
 10
0.0
 20
0.0
 30
0.0
  9
$USERI1
 70
     0
  9
$USERI2
 70
     0
  9
$USERI3
 70
     0
  9
$USERI4
 70
     0
  9
$USERI5
 70
     0
  9
$USERR1
 40
0.0
  9
$USERR2
 40
0.0
  9
$USERR3
 40
0.0
  9
$USERR4
 40
0.0
  9
$USERR5
 40
0.0
  9
$WORLDVIEW
 70
     1
  9
$SHADEDGE
 70
     3
  9
$SHADEDIF
 70
    70
  9
$TILEMODE
 70
     1
  9
$MAXACTVP
 70
    64
  9
$PINSBASE
 10
0.0
 20
0.0
 30
0.0
  9
$PLIMCHECK
 70
     0
  9
$PEXTMIN
 10
1.000000000000000E+20
 20
1.000000000000000E+20
 30
1.000000000000000E+20
  9
$PEXTMAX
 10
-1.000000000000000E+20
 20
-1.000000000000000E+20
 30
-1.000000000000000E+20
  9
$PLIMMIN
 10
0.0
 20
0.0
  9
$PLIMMAX
 10
420.0
 20
297.0
  9
$UNITMODE
 70
     0
  9
$VISRETAIN
 70
     1
  9
$PLINEGEN
 70
     0
  9
$PSLTSCALE
 70
     1
  9
$TREEDEPTH
 70
  3020
  9
$CMLSTYLE
  2
Standard
  9
$CMLJUST
 70
     0
  9
$CMLSCALE
 40
20.0
  9
$PROXYGRAPHICS
 70
     1
  9
$MEASUREMENT
 70
     1
  9
$CELWEIGHT
370
    -1
  9
$ENDCAPS
280
     0
  9
$JOINSTYLE
280
     0
  9
$LWDISPLAY
290
     0
  9
$INSUNITS
 70
     4
  9
$HYPERLINKBASE
  1

  9
$STYLESHEET
  1
彩色出圖.ctb
  9
$XEDIT
290
     1
  9
$CEPSNTYPE
380
     0
  9
$PSTYLEMODE
290
     1
  9
$FINGERPRINTGUID
  2
{8BDFBC56-0A83-46A3-A949-16ECD1BCD467}
  9
$VERSIONGUID
  2
{60F59681-1C98-4296-A3AE-777040464943}
  9
$EXTNAMES
290
     1
  9
$PSVPSCALE
 40
0.0
  9
$OLESTARTUP
290
     0
  0
ENDSEC
  0
SECTION
  2
CLASSES
  0
CLASS
  1
ACDBDICTIONARYWDFLT
  2
AcDbDictionaryWithDefault
  3
ObjectDBX Classes
 90
        0
280
     0
281
     0
  0
CLASS
  1
ACDBPLACEHOLDER
  2
AcDbPlaceHolder
  3
ObjectDBX Classes
 90
        0
280
     0
281
     0
  0
CLASS
  1
LAYOUT
  2
AcDbLayout
  3
ObjectDBX Classes
 90
        0
280
     0
281
     0
  0
CLASS
  1
ACME_DOCUMENT
  2
AcMeDbDoc
  3
AcMeServices
 90
        0
280
     0
281
     0
  0
CLASS
  1
AMGSETTINGSOBJ
  2
AmgSettingsObj
  3
"AcadM|Product Description: AutoCAD Mechanical 2000|Company: Autodesk"
 90
        0
280
     0
281
     0
  0
CLASS
  1
ACMESCOPE
  2
AcMeScope
  3
AcMeServices
 90
        0
280
     0
281
     0
  0
CLASS
  1
ACMECOMMANDHISTORY
  2
AcMeCommandHistory
  3
AcMeServices
 90
        0
280
     0
281
     0
  0
CLASS
  1
ACIMSYSVARMAN
  2
AcImSysVarManager
  3
AcMeServices
 90
        0
280
     0
281
     0
  0
CLASS
  1
ACIMREALSYSVAR
  2
AcImRealSysVar
  3
AcMeServices
 90
        0
280
     0
281
     0
  0
CLASS
  1
ACIMINTSYSVAR
  2
AcImIntSysVar
  3
AcMeServices
 90
        0
280
     0
281
     0
  0
CLASS
  1
ACMEDRAWINGMAN
  2
AcMeDrawingMan
  3
AcMeServices
 90
        0
280
     0
281
     0
  0
CLASS
  1
ACMEVIEW
  2
AcMeView
  3
AcMeServices
 90
        0
280
     0
281
     0
  0
CLASS
  1
ACDBENTITYCACHE
  2
AcMeEntityCache
  3
AcMeServices
 90
        0
280
     0
281
     0
  0
CLASS
  1
GSMANAGER
  2
AcMeGSManager
  3
AcMeServices
 90
        0
280
     0
281
     0
  0
CLASS
  1
AMDTINTERNALREACTOR
  2
AmdtInternalReactor
  3
AcMeServices
 90
        0
280
     0
281
     0
  0
CLASS
  1
ACMESTATEMGR
  2
AcMeStateMgr
  3
AcMeServices
 90
        0
280
     0
281
     0
  0
CLASS
  1
ACGREFMASTER
  2
AcGrefMaster
  3
AcAttribServices
 90
        0
280
     0
281
     0
  0
CLASS
  1
ACME_DATABASE
  2
AcMeDbDatabase
  3
AcMeServices
 90
        0
280
     0
281
     0
  0
CLASS
  1
ACRFINSADJUSTERMGR
  2
AcRfInsAdjusterMgr
  3
AcMeServices
 90
        0
280
     0
281
     0
  0
CLASS
  1
ACGREFACADMASTER
  2
AcGrefacadMaster
  3
AcGrefServices
 90
        0
280
     0
281
     0
  0
CLASS
  1
AMIMASTER
  2
AmiMaster
  3
AmiServices
 90
        0
280
     0
281
     0
  0
CLASS
  1
ACMDATADICTIONARY
  2
AcmDataDictionary
  3
"AcmSymBB|Product Description: AutoCAD Mechanical 2004 DX|Company: Autodesk"
 90
        0
280
     0
281
     0
  0
CLASS
  1
ACMDATAENTRYBLOCK
  2
AcmDataEntryBlock
  3
"AcmSymBB|Product Description: AutoCAD Mechanical 2004 DX|Company: Autodesk"
 90
        0
280
     0
281
     0
  0
CLASS
  1
ACIMSTRSYSVAR
  2
AcImStrSysVar
  3
AcMeServices
 90
        0
280
     0
281
     0
  0
CLASS
  1
ACMSTANDARDISO
  2
AcmStandardISO
  3
"Amdt_StdImp|Product Description: AutoCAD Mechanical 2004 DX|Company: Autodesk"
 90
        0
280
     0
281
     0
  0
CLASS
  1
AMGOBJPROPCFG
  2
AmgObjPropCfg
  3
"AmgLay|Product Description: AutoCAD Mechanical 2000|Company: Autodesk"
 90
        1
280
     0
281
     0
  0
CLASS
  1
AMDTEDGESTANDARDISO
  2
AmdtEdgeStdISO
  3
"Amdt_StdImp|Product Description: AutoCAD Mechanical 2004 DX|Company: Autodesk"
 90
        0
280
     0
281
     0
  0
CLASS
  1
ACMSURFSTANDARDISO
  2
AcmSurfTextStdISO
  3
"Amdt_StdImp|Product Description: AutoCAD Mechanical 2004 DX|Company: Autodesk"
 90
        0
280
     0
281
     0
  0
CLASS
  1
ACMFCFSTANDARDISO
  2
AcmFCFStdISO
  3
"Amdt_StdImp|Product Description: AutoCAD Mechanical 2004 DX|Company: Autodesk"
 90
        0
280
     0
281
     0
  0
CLASS
  1
ACMWELDSTANDARDISO
  2
AcmWeldingStdISO
  3
"Amdt_StdImp|Product Description: AutoCAD Mechanical 2004 DX|Company: Autodesk"
 90
        0
280
     0
281
     0
  0
CLASS
  1
ACMIDSTANDARDISO
  2
AcmIdStdISO
  3
"Amdt_StdImp|Product Description: AutoCAD Mechanical 2004 DX|Company: Autodesk"
 90
        0
280
     0
281
     0
  0
CLASS
  1
ACMDATUMSTANDARDISO
  2
AcmDatumStdISO
  3
"Amdt_StdImp|Product Description: AutoCAD Mechanical 2004 DX|Company: Autodesk"
 90
        0
280
     0
281
     0
  0
CLASS
  1
ACMBOMSTANDARDISO
  2
AcmBOMStdISO
  3
"Amdt_StdImp|Product Description: AutoCAD Mechanical 2004 DX|Company: Autodesk"
 90
        0
280
     0
281
     0
  0
CLASS
  1
ACMDETAILSTANDARDISO
  2
AmdtDetailSymStdISO
  3
"Amdt_StdImp|Product Description: AutoCAD Mechanical 2004 DX|Company: Autodesk"
 90
        0
280
     0
281
     0
  0
CLASS
  1
ACMSECTIONSTANDARDISO
  2
AmdtSectionSymStdISO
  3
"Amdt_StdImp|Product Description: AutoCAD Mechanical 2004 DX|Company: Autodesk"
 90
        0
280
     0
281
     0
  0
CLASS
  1
ACMCENTERLINESTANDARDISO
  2
AmdtCenterLineStdISO
  3
"Amdt_StdImp|Product Description: AutoCAD Mechanical 2004 DX|Company: Autodesk"
 90
        0
280
     0
281
     0
  0
CLASS
  1
ACMNOTESTANDARDISO
  2
AmdtNoteStdISO
  3
"Amdt_StdImp|Product Description: AutoCAD Mechanical 2004 DX|Company: Autodesk"
 90
        0
280
     0
281
     0
  0
CLASS
  1
ACAMGLAYSTD
  2
AcAmgLayStd
  3
"AcAmgLayStd|Product Description: AutoCAD Mechanical 2000|Company: Autodesk"
 90
        0
280
     0
281
     0
  0
CLASS
  1
ACAMGDIMSTD
  2
AcAmgDimStd
  3
"AcAmgDimStd|Product Description: AutoCAD Mechanical 2000|Company: Autodesk"
 90
        0
280
     0
281
     0
  0
CLASS
  1
ACAMGHOLECHARTSTDISO
  2
AcAmgHoleChartStdISO
  3
ACMSYMBB_MODULE_NAME
 90
        0
280
     0
281
     0
  0
CLASS
  1
ACAMGTITLESTD
  2
AcAmgTitleStd
  3
"TITLEAPP"
 90
        0
280
     0
281
     0
  0
CLASS
  1
LAYER_INDEX
  2
AcDbLayerIndex
  3
ObjectDBX Classes
 90
    32768
280
     0
281
     0
  0
CLASS
  1
IDBUFFER
  2
AcDbIdBuffer
  3
ObjectDBX Classes
 90
    32768
280
     0
281
     0
  0
CLASS
  1
DICTIONARYVAR
  2
AcDbDictionaryVar
  3
ObjectDBX Classes
 90
        0
280
     0
281
     0
  0
CLASS
  1
AM_DRAWING_MGR
  2
AcDmDwgMgr
  3
AcMechDwgViewMgmt
 90
        0
280
     0
281
     0
  0
CLASS
  1
AM_DWG_DOCUMENT
  2
AcDmDwgDocument
  3
AcMechDwgViewMgmt
 90
        0
280
     0
281
     0
  0
CLASS
  1
AM_DWG_SHEET
  2
AcDmSheet
  3
AcMechDwgViewMgmt
 90
        0
280
     0
281
     0
  0
CLASS
  1
AM_VIEWDIMPARMAP
  2
AcDmViewDimParMap
  3
AcMechDwgViewMgmt
 90
        0
280
     0
281
     0
  0
CLASS
  1
AM_DWGMGR_NAME
  2
AcDmDwgMgrName
  3
AcMechDwgViewMgmt
 90
        0
280
     0
281
     0
  0
CLASS
  1
AMDTMENUSTATEMGR
  2
AmdtMenuStateMgr
  3
McadcomServices
 90
        0
280
     0
281
     0
  0
CLASS
  1
AMDTMCOMMENUSTATE
  2
AmdtMcomMenuState
  3
McadcomServices
 90
        0
280
     0
281
     0
  0
CLASS
  1
MAPIAMMOUDLE
  2
MApiAmModule
  3
MApiAmServices
 90
        0
280
     0
281
     0
  0
CLASS
  1
AMDTADMENUSTATE
  2
AmdtAdMenuState
  3
DesignerServices
 90
        0
280
     0
281
     0
  0
CLASS
  1
ADAPPL
  2
AcAdAppl
  3
DesignerServices
 90
        0
280
     0
281
     0
  0
CLASS
  1
DEPMGR
  2
AcAdDepMgr
  3
DesignerServices
 90
        0
280
     0
281
     0
  0
CLASS
  1
PARAMMGR
  2
AcAdParamMgr
  3
DesignerServices
 90
        0
280
     0
281
     0
  0
CLASS
  1
PARAMSCOPE
  2
AcAdParamScope
  3
DesignerServices
 90
        0
280
     0
281
     0
  0
CLASS
  1
NAMEDAPPL
  2
AcAdNamedAppl
  3
DesignerServices
 90
        0
280
     0
281
     0
  0
CLASS
  1
AMDTDMMENUSTATE
  2
AmdtDmMenuState
  3
AcMechDwgViewMgmt
 90
        0
280
     0
281
     0
  0
CLASS
  1
AMDTAMMENUSTATE
  2
AmdtAmMenuState
  3
DesignerAssemblies
 90
        0
280
     0
281
     0
  0
CLASS
  1
ACAMPROJECT
  2
AcAmProject
  3
DesignerAssemblies
 90
        0
280
     0
281
     0
  0
CLASS
  1
ACAMGRCOMPDEF
  2
AcAmGrCompDef
  3
DesignerAssemblies
 90
        0
280
     0
281
     0
  0
CLASS
  1
ACCMCONTEXT
  2
AcCmContext
  3
DesignerAssemblies
 90
        0
280
     0
281
     0
  0
CLASS
  1
ACAMCOMPDEF
  2
AcAmCompDef
  3
DesignerAssemblies
 90
        0
280
     0
281
     0
  0
CLASS
  1
ACAMCOMPDEFMGR
  2
AcAmCompDefMgr
  3
DesignerAssemblies
 90
        0
280
     0
281
     0
  0
CLASS
  1
AMCONTEXTMGR
  2
AcAmContextMgr
  3
DesignerAssemblies
 90
        0
280
     0
281
     0
  0
CLASS
  1
ACAMCONTEXTMODELER
  2
AcAmContextModeler
  3
DesignerAssemblies
 90
        0
280
     0
281
     0
  0
CLASS
  1
ACMTHREADLINESTANDARDISO
  2
AmdtThreadLineStdISO
  3
"Amdt_StdImp|Product Description: AutoCAD Mechanical 2004 DX|Company: Autodesk"
 90
        0
280
     0
281
     0
  0
CLASS
  1
CATALOGSTATE
  2
AcAmCatalogState
  3
DesignerAssemblies
 90
        0
280
     0
281
     0
  0
CLASS
  1
ACAMGRCOMPDEFSET
  2
AcAmGrCompDefSet
  3
DesignerAssemblies
 90
        0
280
     0
281
     0
  0
CLASS
  1
AMDTBROWSERDBTAB
  2
AmdtBrowserDbTab
  3
McadcomServices
 90
        0
280
     0
281
     0
  0
CLASS
  1
CBROWSERAPPOBJECT
  2
CBrowserAppObject
  3
McadcomServices
 90
        0
280
     0
281
     0
  0
CLASS
  1
DM_PLACEHOLDER
  2
AcDmSelsetPlaceholder
  3
AcMechDwgViewMgmt
 90
        0
280
     0
281
     0
  0
CLASS
  1
TABLESTYLE
  2
AcDbTableStyle
  3
ObjectDBX Classes
 90
     2047
280
     0
281
     0
  0
CLASS
  1
VAACXREFPANELOBJECT
  2
VaAcXREFPanelObject
  3
VAAC_ADDIN
 90
    32768
280
     0
281
     0
  0
CLASS
  1
VAACIMAGEINVENTORY
  2
VaAcImageInventory
  3
VAAC_ADDIN
 90
    32768
280
     0
281
     0
  0
CLASS
  1
AMDTNOTETEMPLATEDB
  2
AmdtNoteTemplateDB
  3
AMDT_STDIMP_MODULE_NAME
 90
        0
280
     0
281
     0
  0
CLASS
  1
ACMBOM
  2
AcmBom
  3
"AcmSymBB|Product Description: AutoCAD Mechanical 2004 DX|Company: Autodesk"
 90
    32768
280
     0
281
     0
  0
CLASS
  1
AMDTFORMULAUPDATEDISPATCHER
  2
AmdtFormulaUpdateDispatcher
  3
AcMeServices
 90
    32768
280
     0
281
     0
  0
CLASS
  1
ACMPARTLIST
  2
AcmPartList
  3
"AcmSymBB|Product Description: AutoCAD Mechanical 2004 DX|Company: Autodesk"
 90
    33791
280
     0
281
     1
  0
CLASS
  1
ACAMGFILTERDAT
  2
AcAmgFilterDat
  3
"AcadM|Product Description: AutoCAD Mechanical 2000|Company: Autodesk"
 90
        0
280
     0
281
     0
  0
CLASS
  1
DIMASSOC
  2
AcDbDimAssoc
  3
"AcDbDimAssoc|Product Desc:     AcDim ARX App For Dimension|Company:          Autodesk, Inc.|WEB Address:      www.autodesk.com"
 90
        0
280
     0
281
     0
  0
CLASS
  1
ACMSTANDARDANSI
  2
AcmStandardANSI
  3
"Amdt_StdImp|Product Description: AutoCAD Mechanical 2004 DX|Company: Autodesk"
 90
        0
280
     0
281
     0
  0
CLASS
  1
ACMSURFSTANDARDANSI
  2
AcmSurfTextStdANSI
  3
"Amdt_StdImp|Product Description: AutoCAD Mechanical 2004 DX|Company: Autodesk"
 90
        0
280
     0
281
     0
  0
CLASS
  1
ACMFCFSTANDARDANSI
  2
AcmFCFStdANSI
  3
"Amdt_StdImp|Product Description: AutoCAD Mechanical 2004 DX|Company: Autodesk"
 90
        0
280
     0
281
     0
  0
CLASS
  1
ACMWELDSTANDARDANSI
  2
AcmWeldingStdANSI
  3
"Amdt_StdImp|Product Description: AutoCAD Mechanical 2004 DX|Company: Autodesk"
 90
        0
280
     0
281
     0
  0
CLASS
  1
ACMIDSTANDARDANSI
  2
AcmIdStdANSI
  3
"Amdt_StdImp|Product Description: AutoCAD Mechanical 2004 DX|Company: Autodesk"
 90
        0
280
     0
281
     0
  0
CLASS
  1
ACMDATUMSTANDARDANSI
  2
AcmDatumStdANSI
  3
"Amdt_StdImp|Product Description: AutoCAD Mechanical 2004 DX|Company: Autodesk"
 90
        0
280
     0
281
     0
  0
CLASS
  1
ACMBOMSTANDARDANSI
  2
AcmBOMStdANSI
  3
"Amdt_StdImp|Product Description: AutoCAD Mechanical 2004 DX|Company: Autodesk"
 90
        0
280
     0
281
     0
  0
CLASS
  1
ACMDETAILSTANDARDANSI
  2
AmdtDetailSymStdANSI
  3
"Amdt_StdImp|Product Description: AutoCAD Mechanical 2004 DX|Company: Autodesk"
 90
        0
280
     0
281
     0
  0
CLASS
  1
ACMSECTIONSTANDARDANSI
  2
AmdtSectionSymStdANSI
  3
"Amdt_StdImp|Product Description: AutoCAD Mechanical 2004 DX|Company: Autodesk"
 90
        0
280
     0
281
     0
  0
CLASS
  1
ACMCENTERLINESTANDARDANSI
  2
AmdtCenterLineStdANSI
  3
"Amdt_StdImp|Product Description: AutoCAD Mechanical 2004 DX|Company: Autodesk"
 90
        0
280
     0
281
     0
  0
CLASS
  1
ACMTHREADLINESTANDARDANSI
  2
AmdtThreadLineStdANSI
  3
"Amdt_StdImp|Product Description: AutoCAD Mechanical 2004 DX|Company: Autodesk"
 90
        0
280
     0
281
     0
  0
CLASS
  1
ACMNOTESTANDARDANSI
  2
AmdtNoteStdANSI
  3
"Amdt_StdImp|Product Description: AutoCAD Mechanical 2004 DX|Company: Autodesk"
 90
        0
280
     0
281
     0
  0
CLASS
  1
ACAMGHOLECHARTSTDANSI
  2
AcAmgHoleChartStdANSI
  3
ACMSYMBB_MODULE_NAME
 90
        0
280
     0
281
     0
  0
CLASS
  1
STDPART2D
  2
AmgStdPart
  3
"AmgStdPart|Product Description: AutoCAD Mechanical 2000|Company: Autodesk"
 90
     1023
280
     0
281
     1
  0
CLASS
  1
ACAMSTDPCOMPDEF
  2
AcAmStdpCompDef
  3
DesignerAssemblies
 90
        0
280
     0
281
     0
  0
CLASS
  1
ACRFATTGENMGR
  2
AcRfAttGeneralMgr
  3
AcAttribServices
 90
        0
280
     0
281
     0
  0
CLASS
  1
ACRFOBJATTMGR
  2
AcRfObjAttGroupMgr
  3
AcAttribServices
 90
        0
280
     0
281
     0
  0
CLASS
  1
ACRFMCADAPIATTHOLDER
  2
AcRfMCADAPIAttHolder
  3
AcAttribServices
 90
        0
280
     0
281
     0
  0
CLASS
  1
AMDTSYSATTR
  2
AmdtSystemAttribute
  3
AcAttribServices
 90
        0
280
     0
281
     0
  0
CLASS
  1
ACAMCOMP
  2
AcAmComp
  3
DesignerAssemblies
 90
        0
280
     0
281
     0
  0
CLASS
  1
AC_AM_STDP_VIEW_DEF
  2
AcAmStdpViewDef
  3
DesignerAssemblies
 90
        0
280
     0
281
     0
  0
CLASS
  1
AC_AM_MVD_DEP_MGR
  2
AcAmMVDdepMgr
  3
DesignerAssemblies
 90
        0
280
     0
281
     0
  0
CLASS
  1
AC_AM_MASTER_VIEW_DEF
  2
AcAmMasterViewDef
  3
DesignerAssemblies
 90
        0
280
     0
281
     0
  0
CLASS
  1
AC_AM_DIRTY_NODES
  2
AcAmDirtyNodes
  3
DesignerAssemblies
 90
        0
280
     0
281
     0
  0
CLASS
  1
AC_AM_MAPPER_CACHE
  2
AcAmMapperCache
  3
DesignerAssemblies
 90
        0
280
     0
281
     0
  0
CLASS
  1
ACAMMVDBACKUPOBJECT
  2
AcAmMVDBackupObject
  3
DesignerAssemblies
 90
        0
280
     0
281
     0
  0
CLASS
  1
AC_AM_COMP_VIEW_INST
  2
AcAmCompView
  3
DesignerAssemblies
 90
        0
280
     0
281
     0
  0
CLASS
  1
AC_AM_2D_XREF_MGR
  2
AcAmXrefMgr2d
  3
DesignerAssemblies
 90
        0
280
     0
281
     0
  0
CLASS
  1
SORTENTSTABLE
  2
AcDbSortentsTable
  3
ObjectDBX Classes
 90
        0
280
     0
281
     0
  0
ENDSEC
  0
SECTION
  2
TABLES
  0
TABLE
  2
VPORT
  5
8
330
0
100
AcDbSymbolTable
 70
   423
  0
VPORT
  5
1962
330
8
100
AcDbSymbolTableRecord
100
AcDbViewportTableRecord
  2
*Active
 70
     0
 10
0.0
 20
0.0
 11
1.0
 21
1.0
 12
447.82751656389
 22
383.568626025615
 13
0.0
 23
0.0
 14
2.5
 24
2.5
 15
10.0
 25
10.0
 16
0.0
 26
0.0
 36
1.0
 17
0.0
 27
0.0
 37
0.0
 40
406.5235290724542
 41
1.661684782608695
 42
50.0
 43
0.0
 44
0.0
 50
0.0
 51
0.0
 71
     0
 72
   100
 73
     1
 74
     3
 75
     0
 76
     0
 77
     0
 78
     0
281
     0
 65
     1
110
0.0
120
0.0
130
0.0
111
1.0
121
0.0
131
0.0
112
0.0
122
1.0
132
0.0
 79
     0
146
0.0
  0
ENDTAB
  0
TABLE
  2
LTYPE
  5
5
330
0
100
AcDbSymbolTable
 70
    20
  0
LTYPE
  5
14
330
5
100
AcDbSymbolTableRecord
100
AcDbLinetypeTableRecord
  2
ByBlock
 70
     0
  3

 72
    65
 73
     0
 40
0.0
  0
LTYPE
  5
15
330
5
100
AcDbSymbolTableRecord
100
AcDbLinetypeTableRecord
  2
ByLayer
 70
     0
  3

 72
    65
 73
     0
 40
0.0
  0
LTYPE
  5
16
330
5
100
AcDbSymbolTableRecord
100
AcDbLinetypeTableRecord
  2
Continuous
 70
     0
  3
Solid line
 72
    65
 73
     0
 40
0.0
  0
LTYPE
  5
64
330
5
100
AcDbSymbolTableRecord
100
AcDbLinetypeTableRecord
  2
AM_ISO02W050
 70
     0
  3
__ __ __ __ __ __ __ __ __ __ __ __ __ __ __
 72
    65
 73
     2
 40
7.5
 49
6.0
 74
     0
 49
-1.5
 74
     0
  0
LTYPE
  5
65
330
5
100
AcDbSymbolTableRecord
100
AcDbLinetypeTableRecord
  2
AM_ISO08W050
 70
     0
  3
____ . ____ . ____ . ____ . ____ . ____ . ____
 72
    65
 73
     4
 40
18.0
 49
12.0
 74
     0
 49
-1.5
 74
     0
 49
3.0
 74
     0
 49
-1.5
 74
     0
  0
LTYPE
  5
66
330
5
100
AcDbSymbolTableRecord
100
AcDbLinetypeTableRecord
  2
AM_ISO09W050
 70
     0
  3
_____ . . _____ . . _____ . . ____ .. ____
 72
    65
 73
     6
 40
22.5
 49
12.0
 74
     0
 49
-1.5
 74
     0
 49
3.0
 74
     0
 49
-1.5
 74
     0
 49
3.0
 74
     0
 49
-1.5
 74
     0
  0
LTYPE
  5
67
330
5
100
AcDbSymbolTableRecord
100
AcDbLinetypeTableRecord
  2
Amconstr
 70
     0
  3
_______________________
 72
    65
 73
     2
 40
9999.0
 49
9999.0
 74
     0
 49
0.0
 74
     0
  0
LTYPE
  5
68
330
5
100
AcDbSymbolTableRecord
100
AcDbLinetypeTableRecord
  2
AM_ISO08W050x2
 70
     0
  3
__ . __ . __ . __ . __ . __
 72
    65
 73
     4
 40
9.0
 49
6.0
 74
     0
 49
-0.75
 74
     0
 49
1.5
 74
     0
 49
-0.75
 74
     0
  0
LTYPE
  5
69
330
5
100
AcDbSymbolTableRecord
100
AcDbLinetypeTableRecord
  2
AM_ISO02W050x2
 70
     0
  3
 _ _ _ _ _ _ _ _ _ _ _ _
 72
    65
 73
     2
 40
3.75
 49
3.0
 74
     0
 49
-0.75
 74
     0
  0
LTYPE
  5
6C
330
5
100
AcDbSymbolTableRecord
100
AcDbLinetypeTableRecord
  2
Amzigzag
 70
     0
  3
/\/-/\/-/\/-/\/-/\/-/\/
 72
    65
 73
     2
 40
11.0001
 49
0.0001
 74
     4
 75
   135
340
6B
 46
0.04
 50
0.0
 44
0.0
 45
0.0
 49
-11.0
 74
     0
  0
LTYPE
  5
7A
330
5
100
AcDbSymbolTableRecord
100
AcDbLinetypeTableRecord
  2
ACISOWELD
 70
     0
  3
_ _ _ _ _
 72
    65
 73
     2
 40
2.0
 49
2.0
 74
     0
 49
-1.0
 74
     0
  0
LTYPE
  5
7B
330
5
100
AcDbSymbolTableRecord
100
AcDbLinetypeTableRecord
  2
ACISOTGB
 70
     0
  3
__ . . __ . .
 72
    65
 73
     6
 40
9.0
 49
4.0
 74
     0
 49
-1.0
 74
     0
 49
1.0
 74
     0
 49
-1.0
 74
     0
 49
1.0
 74
     0
 49
-1.0
 74
     0
  0
LTYPE
  5
7C
330
5
100
AcDbSymbolTableRecord
100
AcDbLinetypeTableRecord
  2
ACISOTGL
 70
     0
  3
_ _ _ _ _
 72
    65
 73
     2
 40
3.0
 49
2.0
 74
     0
 49
-1.0
 74
     0
  0
LTYPE
  5
7E
330
5
100
AcDbSymbolTableRecord
100
AcDbLinetypeTableRecord
  2
CENTER
 70
     0
  3
__ . __
 72
    65
 73
     4
 40
7.0
 49
4.0
 74
     0
 49
-1.0
 74
     0
 49
1.0
 74
     0
 49
-1.0
 74
     0
  0
LTYPE
  5
D8
330
5
100
AcDbSymbolTableRecord
100
AcDbLinetypeTableRecord
  2
HIDDEN
 70
     0
  3
Hidden __ __ __ __ __ __ __ __ __ __ __ __ __ _
 72
    65
 73
     2
 40
9.524999999999998
 49
6.349999999999999
 74
     0
 49
-3.174999999999999
 74
     0
  0
LTYPE
  5
D9
330
5
100
AcDbSymbolTableRecord
100
AcDbLinetypeTableRecord
  2
PHANTOM2
 70
     0
  3
Phantom (.5x) ___ _ _ ___ _ _ ___ _ _ ___ _ _
 72
    65
 73
     6
 40
31.75
 49
15.875
 74
     0
 49
-3.174999999999999
 74
     0
 49
3.174999999999999
 74
     0
 49
-3.174999999999999
 74
     0
 49
3.174999999999999
 74
     0
 49
-3.174999999999999
 74
     0
  0
LTYPE
  5
B87
330
5
100
AcDbSymbolTableRecord
100
AcDbLinetypeTableRecord
  2
DIVIDE
 70
     0
  3
Divide ____ . . ____ . . ____ . . ____ . . ____
 72
    65
 73
     6
 40
1.25
 49
0.5
 74
     0
 49
-0.25
 74
     0
 49
0.0
 74
     0
 49
-0.25
 74
     0
 49
0.0
 74
     0
 49
-0.25
 74
     0
  0
LTYPE
  5
B8B
330
5
100
AcDbSymbolTableRecord
100
AcDbLinetypeTableRecord
  2
ACANSTGB
 70
     0
  3
__ . . __ . .
 72
    65
 73
     6
 40
0.35433070866
 49
0.15748031496
 74
     0
 49
-0.03937007874
 74
     0
 49
0.03937007874
 74
     0
 49
-0.03937007874
 74
     0
 49
0.03937007874
 74
     0
 49
-0.03937007874
 74
     0
  0
LTYPE
  5
B8C
330
5
100
AcDbSymbolTableRecord
100
AcDbLinetypeTableRecord
  2
ACANSTGL
 70
     0
  3
_ _ _ _ _
 72
    65
 73
     2
 40
0.11811023622
 49
0.07874015748
 74
     0
 49
-0.03937007874
 74
     0
  0
ENDTAB
  0
TABLE
  2
LAYER
  5
2
102
{ACAD_XDICTIONARY
360
3F9
102
}
330
0
100
AcDbSymbolTable
 70
    13
  0
LAYER
  5
10
330
2
100
AcDbSymbolTableRecord
100
AcDbLayerTableRecord
  2
0
 70
     0
 62
     7
  6
Continuous
370
    -3
390
F
  0
LAYER
  5
B8D
330
2
100
AcDbSymbolTableRecord
100
AcDbLayerTableRecord
  2
Dim
 70
     0
 62
     5
  6
Continuous
370
    13
390
F
  0
LAYER
  5
B8E
330
2
100
AcDbSymbolTableRecord
100
AcDbLayerTableRecord
  2
Center
 70
     0
 62
     1
  6
CENTER
370
     9
390
F
  0
LAYER
  5
B8F
330
2
100
AcDbSymbolTableRecord
100
AcDbLayerTableRecord
  2
Defpoints
 70
     0
 62
     7
  6
Continuous
290
     0
370
    -3
390
F
  0
LAYER
  5
B90
330
2
100
AcDbSymbolTableRecord
100
AcDbLayerTableRecord
  2
Divide
 70
     0
 62
     2
  6
DIVIDE
370
    13
390
F
  0
LAYER
  5
119D
330
2
100
AcDbSymbolTableRecord
100
AcDbLayerTableRecord
  2
AM_0
 70
     0
 62
     7
  6
Continuous
370
    50
390
F
  0
LAYER
  5
11C3
330
2
100
AcDbSymbolTableRecord
100
AcDbLayerTableRecord
  2
AM_4
 70
     0
 62
     3
  6
Continuous
370
    25
390
F
  0
LAYER
  5
11C4
330
2
100
AcDbSymbolTableRecord
100
AcDbLayerTableRecord
  2
AM_7
 70
     0
 62
     1
  6
CENTER
370
    25
390
F
  0
LAYER
  5
11C5
330
2
100
AcDbSymbolTableRecord
100
AcDbLayerTableRecord
  2
AM_9
 70
     0
 62
   253
  6
Continuous
370
     0
390
F
  0
LAYER
  5
1692
330
2
100
AcDbSymbolTableRecord
100
AcDbLayerTableRecord
  2
LOGO
 70
     0
 62
     7
  6
Continuous
370
    -3
390
F
  0
LAYER
  5
1830
330
2
100
AcDbSymbolTableRecord
100
AcDbLayerTableRecord
  2
AM_5
 70
     0
 62
     5
  6
Continuous
370
    50
390
F
  0
ENDTAB
  0
TABLE
  2
STYLE
  5
3
330
0
100
AcDbSymbolTable
 70
    10
  0
STYLE
  5
11
330
3
100
AcDbSymbolTableRecord
100
AcDbTextStyleTableRecord
  2
STANDARD
 70
     0
 40
0.0
 41
1.0
 50
0.0
 71
     0
 42
3.0
  3
ISOCP.SHX
  4
CHINESET.SHX
  0
STYLE
  5
6B
330
3
100
AcDbSymbolTableRecord
100
AcDbTextStyleTableRecord
  2

 70
     1
 40
0.0
 41
1.0
 50
0.0
 71
     0
 42
2.5
  3
ltypeshp.shx
  4

  0
STYLE
  5
6D
330
3
100
AcDbSymbolTableRecord
100
AcDbTextStyleTableRecord
  2
ACISOTS
 70
     0
 40
1.0
 41
1.0
 50
0.0
 71
     0
 42
1.0
  3
isocp.shx
  4
chineset.shx
  0
STYLE
  5
79
330
3
100
AcDbSymbolTableRecord
100
AcDbTextStyleTableRecord
  2
ACISOGDT
 70
     0
 40
0.0
 41
1.0
 50
0.0
 71
     0
 42
2.5
  3
amgdt.shx
  4
chineset.shx
  0
STYLE
  5
B91
330
3
100
AcDbSymbolTableRecord
100
AcDbTextStyleTableRecord
  2
AAA
 70
     0
 40
0.0
 41
1.0
 50
0.0
 71
     0
 42
3.2
  3
TXT
  4

  0
STYLE
  5
B92
330
3
100
AcDbSymbolTableRecord
100
AcDbTextStyleTableRecord
  2
China
 70
     0
 40
0.0
 41
1.0
 50
0.0
 71
     0
 42
3.2
  3
romans.shx
  4
chineset.shx
  0
STYLE
  5
B93
330
3
100
AcDbSymbolTableRecord
100
AcDbTextStyleTableRecord
  2
ACANSTS
 70
     0
 40
1.0
 41
1.0
 50
0.0
 71
     0
 42
3.2
  3
romans.shx
  4
chineset.shx
  0
STYLE
  5
B94
330
3
100
AcDbSymbolTableRecord
100
AcDbTextStyleTableRecord
  2
ACANSGDT
 70
     0
 40
0.0
 41
1.0
 50
0.0
 71
     0
 42
3.2
  3
amgdtans.shx
  4

  0
STYLE
  5
1693
330
3
100
AcDbSymbolTableRecord
100
AcDbTextStyleTableRecord
  2
CHINESET
 70
     0
 40
0.0
 41
1.0
 50
0.0
 71
     0
 42
3.0
  3
simplex.shx
  4
CHINESET.SHX
  0
ENDTAB
  0
TABLE
  2
VIEW
  5
6
330
0
100
AcDbSymbolTable
 70
     0
  0
ENDTAB
  0
TABLE
  2
UCS
  5
7
330
0
100
AcDbSymbolTable
 70
     0
  0
ENDTAB
  0
TABLE
  2
APPID
  5
9
330
0
100
AcDbSymbolTable
 70
    25
  0
APPID
  5
12
330
9
100
AcDbSymbolTableRecord
100
AcDbRegAppTableRecord
  2
ACAD
 70
     0
  0
APPID
  5
46
330
9
100
AcDbSymbolTableRecord
100
AcDbRegAppTableRecord
  2
MCAD_NO_VIS
 70
     0
  0
APPID
  5
47
330
9
100
AcDbSymbolTableRecord
100
AcDbRegAppTableRecord
  2
ACAD_TEMP_GRAPHIC
 70
     0
  0
APPID
  5
58
330
9
100
AcDbSymbolTableRecord
100
AcDbRegAppTableRecord
  2
ACATTRIBSERVICES
 70
     0
  0
APPID
  5
EE
330
9
100
AcDbSymbolTableRecord
100
AcDbRegAppTableRecord
  2
AD_DRAW
 70
     0
  0
APPID
  5
10C
330
9
100
AcDbSymbolTableRecord
100
AcDbRegAppTableRecord
  2
DESIGNERASSEMBLIES
 70
     0
  0
APPID
  5
111
330
9
100
AcDbSymbolTableRecord
100
AcDbRegAppTableRecord
  2
ACADM_DIM_EDIT
 70
     0
  0
APPID
  5
112
330
9
100
AcDbSymbolTableRecord
100
AcDbRegAppTableRecord
  2
AMDT_DM_ADJ
 70
     0
  0
APPID
  5
22C
330
9
100
AcDbSymbolTableRecord
100
AcDbRegAppTableRecord
  2
ACAD_DSTYLE_DIMTEXT_FILL
 70
     0
  0
APPID
  5
452
330
9
100
AcDbSymbolTableRecord
100
AcDbRegAppTableRecord
  2
GENIUS_GENOENT_13
 70
     0
  0
APPID
  5
453
330
9
100
AcDbSymbolTableRecord
100
AcDbRegAppTableRecord
  2
GENIUS_GENOBJ-N-CRS_13
 70
     0
  0
APPID
  5
454
330
9
100
AcDbSymbolTableRecord
100
AcDbRegAppTableRecord
  2
GENIUS_GENOLIS_13
 70
     0
  0
APPID
  5
455
330
9
100
AcDbSymbolTableRecord
100
AcDbRegAppTableRecord
  2
GENIUS_GENODEF_13
 70
     0
  0
APPID
  5
456
330
9
100
AcDbSymbolTableRecord
100
AcDbRegAppTableRecord
  2
GENIUS_GENOREF_13
 70
     0
  0
APPID
  5
6F3
330
9
100
AcDbSymbolTableRecord
100
AcDbRegAppTableRecord
  2
ACAD_PSEXT
 70
     0
  0
APPID
  5
808
330
9
100
AcDbSymbolTableRecord
100
AcDbRegAppTableRecord
  2
GENIUS_GENDTOL_13
 70
     0
  0
APPID
  5
11A4
330
9
100
AcDbSymbolTableRecord
100
AcDbRegAppTableRecord
  2
GEVID1179544128
 70
     0
  0
APPID
  5
11A5
330
9
100
AcDbSymbolTableRecord
100
AcDbRegAppTableRecord
  2
GEVDC
 70
     0
  0
APPID
  5
11A6
330
9
100
AcDbSymbolTableRecord
100
AcDbRegAppTableRecord
  2
GEVRADREF
 70
     0
  0
APPID
  5
11AF
330
9
100
AcDbSymbolTableRecord
100
AcDbRegAppTableRecord
  2
AMG_2DHIDE
 70
     0
  0
APPID
  5
11B0
330
9
100
AcDbSymbolTableRecord
100
AcDbRegAppTableRecord
  2
AMG_2DSTRUCT_BTR
 70
     0
  0
APPID
  5
11C1
330
9
100
AcDbSymbolTableRecord
100
AcDbRegAppTableRecord
  2
ACADM_2DVIEW_IGN_NOTIFY
 70
     0
  0
APPID
  5
11EB
330
9
100
AcDbSymbolTableRecord
100
AcDbRegAppTableRecord
  2
GEVID1179544129
 70
     0
  0
APPID
  5
1694
330
9
100
AcDbSymbolTableRecord
100
AcDbRegAppTableRecord
  2
GENIUS_GENREC_14
 70
     0
  0
APPID
  5
1695
330
9
100
AcDbSymbolTableRecord
100
AcDbRegAppTableRecord
  2
GENIUS_GENOBJ-N-REC_13
 70
     0
  0
ENDTAB
  0
TABLE
  2
DIMSTYLE
  5
A
330
0
100
AcDbSymbolTable
 70
    16
100
AcDbDimStyleTable
 71
     4
340
81
340
B95
340
8B
340
86
  0
DIMSTYLE
105
81
330
A
100
AcDbSymbolTableRecord
100
AcDbDimStyleTableRecord
  2
AM_ISO
 70
     0
  4
"
 41
3.0
 42
1.0
 43
8.0
 44
1.5
 47
0.1
 48
0.1
 73
     0
 74
     0
 77
     1
 78
     8
 79
     2
140
3.5
141
0.0
143
0.0393701
146
0.6
147
0.7
172
     1
176
   256
177
   256
178
   256
271
     2
272
     2
283
     0
284
     8
340
11
371
    -1
372
    -1
  0
DIMSTYLE
105
82
330
A
100
AcDbSymbolTableRecord
100
AcDbDimStyleTableRecord
  2
AM_ISO$3
 70
     0
  4
"
 41
3.0
 42
1.0
 43
8.0
 44
1.5
 47
0.1
 48
0.1
 73
     0
 77
     1
 78
     8
 79
     2
140
3.5
141
0.0
143
0.0393701
146
0.6
147
0.7
176
   256
177
   256
178
   256
271
     2
272
     2
283
     0
284
     8
288
     1
289
     0
340
11
371
    -1
372
    -1
  0
DIMSTYLE
105
83
330
A
100
AcDbSymbolTableRecord
100
AcDbDimStyleTableRecord
  2
AM_ISO$4
 70
     0
  4
"
 41
3.0
 42
1.0
 43
8.0
 44
1.5
 47
0.1
 48
0.1
 73
     0
 77
     1
 78
     8
 79
     2
140
3.5
141
0.0
143
0.0393701
146
0.6
147
0.7
176
   256
177
   256
178
   256
271
     2
272
     2
283
     0
284
     8
288
     1
289
     0
340
11
371
    -1
372
    -1
  0
DIMSTYLE
105
84
330
A
100
AcDbSymbolTableRecord
100
AcDbDimStyleTableRecord
  2
AM_ISO$6
 70
     0
  4
"
 41
3.0
 42
1.0
 43
8.0
 44
1.5
 47
0.1
 48
0.1
 73
     0
 74
     0
 78
     8
 79
     2
140
3.5
141
0.0
143
0.0393701
146
0.6
147
0.7
172
     1
176
   256
177
   256
178
   256
271
     2
272
     2
283
     0
284
     8
340
11
371
    -1
372
    -1
  0
DIMSTYLE
105
85
330
A
100
AcDbSymbolTableRecord
100
AcDbDimStyleTableRecord
  2
AM_ISO$7
 70
     0
  4
"
 41
3.0
 42
1.0
 43
8.0
 44
1.5
 47
0.1
 48
0.1
 73
     0
 74
     0
 77
     1
 78
     8
 79
     2
140
5.0
141
0.0
143
0.0393701
146
0.6
147
0.7
172
     1
176
   256
177
   256
178
   256
271
     2
272
     2
283
     0
284
     8
340
11
371
    -1
372
    -1
  0
DIMSTYLE
105
86
330
A
100
AcDbSymbolTableRecord
100
AcDbDimStyleTableRecord
  2
AM_ISO$SF
 70
     0
  4
"
 41
2.5
 42
1.0
 43
10.0
 44
1.0
 47
0.1
 48
0.1
 73
     0
 74
     0
 75
     1
 76
     1
 77
     1
 78
     8
 79
     2
140
3.5
141
0.0
143
0.0393701
146
0.71
147
1.5
172
     1
176
   256
177
   256
178
     2
271
     2
272
     3
274
     4
283
     0
284
     8
340
11
371
    -1
372
    -1
  0
DIMSTYLE
105
8B
330
A
100
AcDbSymbolTableRecord
100
AcDbDimStyleTableRecord
  2
AM_ISO$SH
 70
     0
  4
"
 41
2.5
 42
1.0
 43
10.0
 44
1.0
 47
0.1
 48
0.1
 73
     0
 74
     0
 75
     1
 76
     1
 77
     1
 78
     8
 79
     2
140
3.5
141
0.0
143
0.0393701
144
2.0
146
0.71
147
1.5
172
     1
173
     1
176
   256
177
   256
178
     2
271
     2
272
     3
274
     4
283
     0
284
     8
340
11
343
87
371
    -1
372
    -1
  0
DIMSTYLE
105
40B
330
A
100
AcDbSymbolTableRecord
100
AcDbDimStyleTableRecord
  2
AM_ISO$0
 70
     0
  4
"
 41
3.0
 42
1.0
 43
8.0
 44
1.5
 47
0.1
 48
0.1
 73
     0
 74
     0
 77
     1
 78
     8
 79
     2
140
3.5
141
0.0
143
0.0393701
146
0.6
147
0.7
172
     1
176
   256
177
   256
178
   256
271
     2
272
     2
283
     0
284
     8
340
11
371
    -1
372
    -1
  0
DIMSTYLE
105
B95
102
{ACAD_REACTORS
330
CE9
330
CB3
330
CB1
330
C59
330
BCA
330
C6C
330
C6F
330
C8D
330
C5A
330
CF7
330
D03
330
BD4
330
BDC
330
BDB
330
C8C
330
C8E
330
C91
330
C5B
330
C5C
330
CB2
330
CF2
330
B9D
330
D91
330
DBE
330
DC8
330
DCF
330
DD0
330
E4D
330
E4E
330
E4F
330
E50
330
E60
330
E63
330
E80
330
E81
330
E82
330
E85
330
EA5
330
EA6
330
EA7
330
EDD
330
EE6
330
EEB
330
EF7
330
1568
330
1526
330
1500
330
14DA
330
1463
330
143D
330
1413
330
13ED
330
1618
330
1843
330
1891
102
}
330
A
100
AcDbSymbolTableRecord
100
AcDbDimStyleTableRecord
  2
Standard
 70
     0
340
B91
  0
DIMSTYLE
105
B96
330
A
100
AcDbSymbolTableRecord
100
AcDbDimStyleTableRecord
  2
AM_ANSI
 70
     0
  4
mm
 41
0.1
 42
0.05
 43
0.5
 44
0.1
 47
0.1
 48
0.1
 78
     7
 79
     2
140
0.12
141
0.0
146
0.71
147
0.06
176
   256
177
   256
178
     2
274
     4
284
     7
340
11
371
    -1
372
    -1
  0
DIMSTYLE
105
B97
330
A
100
AcDbSymbolTableRecord
100
AcDbDimStyleTableRecord
  2
AM_ANSI$3
 70
     0
  4
mm
 41
0.1
 42
0.05
 43
0.5
 44
0.1
 47
0.1
 48
0.1
 78
     7
 79
     2
140
0.12
141
0.0
146
0.71
147
0.06
176
   256
177
   256
178
     2
274
     4
284
     7
288
     1
289
     0
340
11
371
    -1
372
    -1
  0
DIMSTYLE
105
B98
330
A
100
AcDbSymbolTableRecord
100
AcDbDimStyleTableRecord
  2
AM_ANSI$4
 70
     0
  4
mm
 41
0.1
 42
0.05
 43
0.5
 44
0.1
 47
0.1
 48
0.1
 78
     7
 79
     2
140
0.12
141
0.0
146
0.71
147
0.06
176
   256
177
   256
178
     2
274
     4
284
     7
288
     1
289
     0
340
11
371
    -1
372
    -1
  0
DIMSTYLE
105
B99
330
A
100
AcDbSymbolTableRecord
100
AcDbDimStyleTableRecord
  2
AM_ANSI$7
 70
     0
  4
mm
 41
0.1
 42
0.05
 43
0.5
 44
0.1
 47
0.1
 48
0.1
 78
     7
 79
     2
140
0.24
141
0.0
146
0.71
147
0.06
176
   256
177
   256
178
     2
274
     4
284
     7
340
11
371
    -1
372
    -1
  0
DIMSTYLE
105
B9A
330
A
100
AcDbSymbolTableRecord
100
AcDbDimStyleTableRecord
  2
AM_ANSI$SF
 70
     0
  4
mm
 41
0.1
 42
0.05
 43
0.5
 44
0.1
 47
0.1
 48
0.1
 75
     1
 76
     1
 78
     7
 79
     2
140
0.12
141
0.0
146
0.71
147
0.06
176
   256
177
   256
178
     2
274
     4
284
     7
340
11
371
    -1
372
    -1
  0
DIMSTYLE
105
B9B
330
A
100
AcDbSymbolTableRecord
100
AcDbDimStyleTableRecord
  2
AM_ANSI$SH
 70
     0
  4
mm
 41
0.1
 42
0.05
 43
0.5
 44
0.1
 47
0.1
 48
0.1
 75
     1
 76
     1
 78
     7
 79
     2
140
0.12
141
0.0
146
0.71
147
0.06
173
     1
176
   256
177
   256
178
     2
274
     4
284
     7
340
11
343
87
371
    -1
372
    -1
  0
ENDTAB
  0
TABLE
  2
BLOCK_RECORD
  5
1
330
0
100
AcDbSymbolTable
 70
    72
  0
BLOCK_RECORD
  5
1F
102
{ACAD_XDICTIONARY
360
8F
102
}
330
1
100
AcDbSymbolTableRecord
100
AcDbBlockTableRecord
  2
*Model_Space
340
22
  0
BLOCK_RECORD
  5
1B
330
1
100
AcDbSymbolTableRecord
100
AcDbBlockTableRecord
  2
*Paper_Space
340
1E
  0
BLOCK_RECORD
  5
23
330
1
100
AcDbSymbolTableRecord
100
AcDbBlockTableRecord
  2
*Paper_Space0
340
26
  0
BLOCK_RECORD
  5
87
330
1
100
AcDbSymbolTableRecord
100
AcDbBlockTableRecord
  2
GENAXEH
340
0
  0
BLOCK_RECORD
  5
F6A
330
1
100
AcDbSymbolTableRecord
100
AcDbBlockTableRecord
  2
*D26
340
0
  0
BLOCK_RECORD
  5
F76
330
1
100
AcDbSymbolTableRecord
100
AcDbBlockTableRecord
  2
*D27
340
0
  0
BLOCK_RECORD
  5
F82
330
1
100
AcDbSymbolTableRecord
100
AcDbBlockTableRecord
  2
*D28
340
0
  0
BLOCK_RECORD
  5
F8E
330
1
100
AcDbSymbolTableRecord
100
AcDbBlockTableRecord
  2
*D29
340
0
  0
BLOCK_RECORD
  5
F9A
330
1
100
AcDbSymbolTableRecord
100
AcDbBlockTableRecord
  2
*D30
340
0
  0
BLOCK_RECORD
  5
FA6
330
1
100
AcDbSymbolTableRecord
100
AcDbBlockTableRecord
  2
*D31
340
0
  0
BLOCK_RECORD
  5
FB1
330
1
100
AcDbSymbolTableRecord
100
AcDbBlockTableRecord
  2
*D32
340
0
  0
BLOCK_RECORD
  5
FBD
330
1
100
AcDbSymbolTableRecord
100
AcDbBlockTableRecord
  2
*D33
340
0
  0
BLOCK_RECORD
  5
FC9
330
1
100
AcDbSymbolTableRecord
100
AcDbBlockTableRecord
  2
*D34
340
0
  0
BLOCK_RECORD
  5
FD5
330
1
100
AcDbSymbolTableRecord
100
AcDbBlockTableRecord
  2
*D35
340
0
  0
BLOCK_RECORD
  5
FE1
330
1
100
AcDbSymbolTableRecord
100
AcDbBlockTableRecord
  2
*D36
340
0
  0
BLOCK_RECORD
  5
FED
330
1
100
AcDbSymbolTableRecord
100
AcDbBlockTableRecord
  2
*D37
340
0
  0
BLOCK_RECORD
  5
FFA
330
1
100
AcDbSymbolTableRecord
100
AcDbBlockTableRecord
  2
*D38
340
0
  0
BLOCK_RECORD
  5
1005
330
1
100
AcDbSymbolTableRecord
100
AcDbBlockTableRecord
  2
*D39
340
0
  0
BLOCK_RECORD
  5
1011
330
1
100
AcDbSymbolTableRecord
100
AcDbBlockTableRecord
  2
*D40
340
0
  0
BLOCK_RECORD
  5
101D
330
1
100
AcDbSymbolTableRecord
100
AcDbBlockTableRecord
  2
*D41
340
0
  0
BLOCK_RECORD
  5
1029
330
1
100
AcDbSymbolTableRecord
100
AcDbBlockTableRecord
  2
*D42
340
0
  0
BLOCK_RECORD
  5
1035
330
1
100
AcDbSymbolTableRecord
100
AcDbBlockTableRecord
  2
*D43
340
0
  0
BLOCK_RECORD
  5
1041
330
1
100
AcDbSymbolTableRecord
100
AcDbBlockTableRecord
  2
*D44
340
0
  0
BLOCK_RECORD
  5
104D
330
1
100
AcDbSymbolTableRecord
100
AcDbBlockTableRecord
  2
*D45
340
0
  0
BLOCK_RECORD
  5
1059
330
1
100
AcDbSymbolTableRecord
100
AcDbBlockTableRecord
  2
*D46
340
0
  0
BLOCK_RECORD
  5
1065
330
1
100
AcDbSymbolTableRecord
100
AcDbBlockTableRecord
  2
*D47
340
0
  0
BLOCK_RECORD
  5
11C7
330
1
100
AcDbSymbolTableRecord
100
AcDbBlockTableRecord
  2
*U51
340
0
  0
BLOCK_RECORD
  5
13EE
330
1
100
AcDbSymbolTableRecord
100
AcDbBlockTableRecord
  2
*D59
340
0
  0
BLOCK_RECORD
  5
1414
330
1
100
AcDbSymbolTableRecord
100
AcDbBlockTableRecord
  2
*D60
340
0
  0
BLOCK_RECORD
  5
143E
330
1
100
AcDbSymbolTableRecord
100
AcDbBlockTableRecord
  2
*D61
340
0
  0
BLOCK_RECORD
  5
1464
330
1
100
AcDbSymbolTableRecord
100
AcDbBlockTableRecord
  2
*D62
340
0
  0
BLOCK_RECORD
  5
14DB
330
1
100
AcDbSymbolTableRecord
100
AcDbBlockTableRecord
  2
*D63
340
0
  0
BLOCK_RECORD
  5
1501
330
1
100
AcDbSymbolTableRecord
100
AcDbBlockTableRecord
  2
*D64
340
0
  0
BLOCK_RECORD
  5
1527
330
1
100
AcDbSymbolTableRecord
100
AcDbBlockTableRecord
  2
*D65
340
0
  0
BLOCK_RECORD
  5
1569
330
1
100
AcDbSymbolTableRecord
100
AcDbBlockTableRecord
  2
*D66
340
0
  0
BLOCK_RECORD
  5
1619
330
1
100
AcDbSymbolTableRecord
100
AcDbBlockTableRecord
  2
*D67
340
0
  0
BLOCK_RECORD
  5
1844
330
1
100
AcDbSymbolTableRecord
100
AcDbBlockTableRecord
  2
*D69
340
0
  0
BLOCK_RECORD
  5
1892
330
1
100
AcDbSymbolTableRecord
100
AcDbBlockTableRecord
  2
*D70
340
0
  0
ENDTAB
  0
ENDSEC
  0
SECTION
  2
BLOCKS
  0
BLOCK
  5
20
330
1F
100
AcDbEntity
  8
0
100
AcDbBlockBegin
  2
*Model_Space
 70
     0
 10
0.0
 20
0.0
 30
0.0
  3
*Model_Space
  1

  0
ENDBLK
  5
21
330
1F
100
AcDbEntity
  8
0
100
AcDbBlockEnd
  0
BLOCK
  5
1C
330
1B
100
AcDbEntity
 67
     1
  8
0
100
AcDbBlockBegin
  2
*Paper_Space
 70
     0
 10
0.0
 20
0.0
 30
0.0
  3
*Paper_Space
  1

  0
ENDBLK
  5
1D
330
1B
100
AcDbEntity
 67
     1
  8
0
100
AcDbBlockEnd
  0
BLOCK
  5
24
330
23
100
AcDbEntity
  8
0
100
AcDbBlockBegin
  2
*Paper_Space0
 70
     0
 10
0.0
 20
0.0
 30
0.0
  3
*Paper_Space0
  1

  0
ENDBLK
  5
25
330
23
100
AcDbEntity
  8
0
100
AcDbBlockEnd
  0
BLOCK
  5
89
330
87
100
AcDbEntity
  8
0
100
AcDbBlockBegin
  2
GENAXEH
 70
     0
 10
0.0
 20
0.0
 30
0.0
  3
GENAXEH
  1

  0
LINE
  5
88
330
87
100
AcDbEntity
  8
0
100
AcDbLine
 10
-1.0
 20
0.0
 30
0.0
 11
1.0
 21
0.0
 31
0.0
  0
ENDBLK
  5
8A
330
87
100
AcDbEntity
  8
0
100
AcDbBlockEnd
  0
BLOCK
  5
F74
330
F6A
100
AcDbEntity
  8
0
100
AcDbBlockBegin
  2
*D26
 70
     1
 10
0.0
 20
0.0
 30
0.0
  3
*D26
  1

  0
LINE
  5
139D
330
F6A
100
AcDbEntity
  8
Dim
100
AcDbLine
 10
293.4765467127005
 20
502.443923740776
 30
0.0
 11
312.3397496933927
 21
502.443923740776
 31
0.0
  0
LINE
  5
139E
330
F6A
100
AcDbEntity
  8
Dim
100
AcDbLine
 10
293.2955467127009
 20
482.443923740776
 30
0.0
 11
312.3397496933927
 21
482.443923740776
 31
0.0
  0
LINE
  5
139F
330
F6A
100
AcDbEntity
  8
Dim
100
AcDbLine
 10
311.3397496933927
 20
500.4439237407759
 30
0.0
 11
311.3397496933927
 21
484.4439237407759
 31
0.0
  0
SOLID
  5
13A0
330
F6A
100
AcDbEntity
  8
Dim
100
AcDbTrace
 10
311.0064163600594
 20
500.4439237407759
 30
0.0
 11
311.673083026726
 21
500.4439237407759
 31
0.0
 12
311.3397496933927
 22
502.443923740776
 32
0.0
 13
311.3397496933927
 23
502.443923740776
 33
0.0
  0
SOLID
  5
13A1
330
F6A
100
AcDbEntity
  8
Dim
100
AcDbTrace
 10
311.0064163600594
 20
484.4439237407759
 30
0.0
 11
311.673083026726
 21
484.4439237407759
 31
0.0
 12
311.3397496933927
 22
482.443923740776
 32
0.0
 13
311.3397496933927
 23
482.443923740776
 33
0.0
  0
MTEXT
  5
13A2
330
F6A
100
AcDbEntity
  8
Dim
100
AcDbMText
 10
309.0897496933927
 20
492.443923740776
 30
0.0
 40
2.5
 41
0.0
 71
     5
 72
     1
  1
\A1;20
  7
China
 11
0.0000000000000001
 21
1.0
 31
0.0
 73
     1
 44
1.0
1001
ACAD
1000
MTEXTBEGIN
1070
    73
1070
     1
1070
    44
1040
1.0
1070
    74
1070
     0
1000
MTEXTEND
  0
POINT
  5
13A3
330
F6A
100
AcDbEntity
  8
Defpoints
 62
     0
100
AcDbPoint
 10
292.4765467127005
 20
502.443923740776
 30
0.0
  0
POINT
  5
13A4
330
F6A
100
AcDbEntity
  8
Defpoints
 62
     0
100
AcDbPoint
 10
292.2955467127009
 20
482.443923740776
 30
0.0
  0
POINT
  5
13A5
330
F6A
100
AcDbEntity
  8
Defpoints
 62
     0
100
AcDbPoint
 10
311.3397496933927
 20
482.443923740776
 30
0.0
  0
ENDBLK
  5
F75
330
F6A
100
AcDbEntity
  8
0
100
AcDbBlockEnd
  0
BLOCK
  5
F80
330
F76
100
AcDbEntity
  8
0
100
AcDbBlockBegin
  2
*D27
 70
     1
 10
0.0
 20
0.0
 30
0.0
  3
*D27
  1

  0
LINE
  5
18B5
330
F76
100
AcDbEntity
  8
Dim
100
AcDbLine
 10
249.6775467127005
 20
315.7377732223366
 30
0.0
 11
223.0659360496053
 21
315.7377732223366
 31
0.0
  0
LINE
  5
18B6
330
F76
100
AcDbEntity
  8
Dim
100
AcDbLine
 10
249.6775467127005
 20
274.737773222337
 30
0.0
 11
223.0659360496053
 21
274.737773222337
 31
0.0
  0
LINE
  5
18B7
330
F76
100
AcDbEntity
  8
Dim
100
AcDbLine
 10
224.0659360496053
 20
313.7377732223366
 30
0.0
 11
224.0659360496053
 21
276.737773222337
 31
0.0
  0
SOLID
  5
18B8
330
F76
100
AcDbEntity
  8
Dim
100
AcDbTrace
 10
223.7326027162719
 20
313.7377732223366
 30
0.0
 11
224.3992693829386
 21
313.7377732223366
 31
0.0
 12
224.0659360496053
 22
315.7377732223366
 32
0.0
 13
224.0659360496053
 23
315.7377732223366
 33
0.0
  0
SOLID
  5
18B9
330
F76
100
AcDbEntity
  8
Dim
100
AcDbTrace
 10
223.7326027162719
 20
276.737773222337
 30
0.0
 11
224.3992693829386
 21
276.737773222337
 31
0.0
 12
224.0659360496053
 22
274.737773222337
 32
0.0
 13
224.0659360496053
 23
274.737773222337
 33
0.0
  0
MTEXT
  5
18BA
330
F76
100
AcDbEntity
  8
Dim
100
AcDbMText
 10
221.8159360496053
 20
295.2377732223368
 30
0.0
 40
2.5
 41
0.0
 71
     5
 72
     1
  1
\A1;41
  7
China
 11
0.0000000000000001
 21
1.0
 31
0.0
 73
     1
 44
1.0
1001
ACAD
1000
MTEXTBEGIN
1070
    73
1070
     1
1070
    44
1040
1.0
1070
    74
1070
     0
1000
MTEXTEND
  0
POINT
  5
18BB
330
F76
100
AcDbEntity
  8
Defpoints
 62
     0
100
AcDbPoint
 10
250.6775467127005
 20
315.7377732223366
 30
0.0
  0
POINT
  5
18BC
330
F76
100
AcDbEntity
  8
Defpoints
 62
     0
100
AcDbPoint
 10
250.6775467127005
 20
274.737773222337
 30
0.0
  0
POINT
  5
18BD
330
F76
100
AcDbEntity
  8
Defpoints
 62
     0
100
AcDbPoint
 10
224.0659360496053
 20
274.737773222337
 30
0.0
  0
ENDBLK
  5
F81
330
F76
100
AcDbEntity
  8
0
100
AcDbBlockEnd
  0
BLOCK
  5
F8C
330
F82
100
AcDbEntity
  8
0
100
AcDbBlockBegin
  2
*D28
 70
     1
 10
0.0
 20
0.0
 30
0.0
  3
*D28
  1

  0
LINE
  5
17D2
330
F82
100
AcDbEntity
  8
Dim
100
AcDbLine
 10
522.4427905053028
 20
426.9597963674345
 30
0.0
 11
522.4427905053028
 21
457.4589993819752
 31
0.0
  0
LINE
  5
17D3
330
F82
100
AcDbEntity
  8
Dim
100
AcDbLine
 10
563.4427905053028
 20
426.9597963674345
 30
0.0
 11
563.4427905053028
 21
457.4589993819752
 31
0.0
  0
LINE
  5
17D4
330
F82
100
AcDbEntity
  8
Dim
100
AcDbLine
 10
524.4427905053028
 20
456.4589993819752
 30
0.0
 11
561.4427905053028
 21
456.4589993819752
 31
0.0
  0
SOLID
  5
17D5
330
F82
100
AcDbEntity
  8
Dim
100
AcDbTrace
 10
524.4427905053028
 20
456.7923327153085
 30
0.0
 11
524.4427905053028
 21
456.1256660486419
 31
0.0
 12
522.4427905053028
 22
456.4589993819752
 32
0.0
 13
522.4427905053028
 23
456.4589993819752
 33
0.0
  0
SOLID
  5
17D6
330
F82
100
AcDbEntity
  8
Dim
100
AcDbTrace
 10
561.4427905053028
 20
456.7923327153085
 30
0.0
 11
561.4427905053028
 21
456.1256660486419
 31
0.0
 12
563.4427905053028
 22
456.4589993819752
 32
0.0
 13
563.4427905053028
 23
456.4589993819752
 33
0.0
  0
MTEXT
  5
17D7
330
F82
100
AcDbEntity
  8
Dim
100
AcDbMText
 10
542.9427905053028
 20
458.7089993819752
 30
0.0
 40
2.5
 41
0.0
 71
     5
 72
     1
  1
\A1;41
  7
China
 73
     1
 44
1.0
1001
ACAD
1000
MTEXTBEGIN
1070
    73
1070
     1
1070
    44
1040
1.0
1070
    74
1070
     0
1000
MTEXTEND
  0
POINT
  5
17D8
330
F82
100
AcDbEntity
  8
Defpoints
 62
     0
100
AcDbPoint
 10
522.4427905053028
 20
425.9597963674345
 30
0.0
  0
POINT
  5
17D9
330
F82
100
AcDbEntity
  8
Defpoints
 62
     0
100
AcDbPoint
 10
563.4427905053028
 20
425.9597963674345
 30
0.0
  0
POINT
  5
17DA
330
F82
100
AcDbEntity
  8
Defpoints
 62
     0
100
AcDbPoint
 10
563.4427905053028
 20
456.4589993819752
 30
0.0
  0
ENDBLK
  5
F8D
330
F82
100
AcDbEntity
  8
0
100
AcDbBlockEnd
  0
BLOCK
  5
F98
330
F8E
100
AcDbEntity
  8
0
100
AcDbBlockBegin
  2
*D29
 70
     1
 10
0.0
 20
0.0
 30
0.0
  3
*D29
  1

  0
LINE
  5
17DB
330
F8E
100
AcDbEntity
  8
Dim
100
AcDbLine
 10
535.9427905053028
 20
435.8397963674344
 30
0.0
 11
535.9427905053028
 21
443.9027773334216
 31
0.0
  0
LINE
  5
17DC
330
F8E
100
AcDbEntity
  8
Dim
100
AcDbLine
 10
549.9427905053027
 20
435.7597963674345
 30
0.0
 11
549.9427905053027
 21
443.9027773334216
 31
0.0
  0
LINE
  5
17DD
330
F8E
100
AcDbEntity
  8
Dim
100
AcDbLine
 10
537.9427905053027
 20
442.9027773334216
 30
0.0
 11
547.9427905053028
 21
442.9027773334216
 31
0.0
  0
SOLID
  5
17DE
330
F8E
100
AcDbEntity
  8
Dim
100
AcDbTrace
 10
537.9427905053027
 20
443.2361106667549
 30
0.0
 11
537.9427905053027
 21
442.5694440000883
 31
0.0
 12
535.9427905053028
 22
442.9027773334216
 32
0.0
 13
535.9427905053028
 23
442.9027773334216
 33
0.0
  0
SOLID
  5
17DF
330
F8E
100
AcDbEntity
  8
Dim
100
AcDbTrace
 10
547.9427905053028
 20
443.2361106667549
 30
0.0
 11
547.9427905053028
 21
442.5694440000883
 31
0.0
 12
549.9427905053027
 22
442.9027773334216
 32
0.0
 13
549.9427905053027
 23
442.9027773334216
 33
0.0
  0
MTEXT
  5
17E0
330
F8E
100
AcDbEntity
  8
Dim
100
AcDbMText
 10
542.9427905053028
 20
445.1527773334216
 30
0.0
 40
2.5
 41
0.0
 71
     5
 72
     1
  1
\A1;14
  7
China
 73
     1
 44
1.0
1001
ACAD
1000
MTEXTBEGIN
1070
    73
1070
     1
1070
    44
1040
1.0
1070
    74
1070
     0
1000
MTEXTEND
  0
POINT
  5
17E1
330
F8E
100
AcDbEntity
  8
Defpoints
 62
     0
100
AcDbPoint
 10
535.9427905053028
 20
434.8397963674345
 30
0.0
  0
POINT
  5
17E2
330
F8E
100
AcDbEntity
  8
Defpoints
 62
     0
100
AcDbPoint
 10
549.9427905053027
 20
434.7597963674345
 30
0.0
  0
POINT
  5
17E3
330
F8E
100
AcDbEntity
  8
Defpoints
 62
     0
100
AcDbPoint
 10
549.9427905053027
 20
442.9027773334216
 30
0.0
  0
ENDBLK
  5
F99
330
F8E
100
AcDbEntity
  8
0
100
AcDbBlockEnd
  0
BLOCK
  5
FA4
330
F9A
100
AcDbEntity
  8
0
100
AcDbBlockBegin
  2
*D30
 70
     1
 10
0.0
 20
0.0
 30
0.0
  3
*D30
  1

  0
LINE
  5
17E4
330
F9A
100
AcDbEntity
  8
Dim
100
AcDbLine
 10
528.9427905053027
 20
436.9597963674346
 30
0.0
 11
528.9427905053027
 21
450.3419829057954
 31
0.0
  0
LINE
  5
17E5
330
F9A
100
AcDbEntity
  8
Dim
100
AcDbLine
 10
556.9427905053028
 20
436.9597963674346
 30
0.0
 11
556.9427905053028
 21
450.3419829057954
 31
0.0
  0
LINE
  5
17E6
330
F9A
100
AcDbEntity
  8
Dim
100
AcDbLine
 10
530.9427905053028
 20
449.3419829057955
 30
0.0
 11
554.9427905053028
 21
449.3419829057955
 31
0.0
  0
SOLID
  5
17E7
330
F9A
100
AcDbEntity
  8
Dim
100
AcDbTrace
 10
530.9427905053028
 20
449.6753162391287
 30
0.0
 11
530.9427905053028
 21
449.0086495724622
 31
0.0
 12
528.9427905053027
 22
449.3419829057955
 32
0.0
 13
528.9427905053027
 23
449.3419829057955
 33
0.0
  0
SOLID
  5
17E8
330
F9A
100
AcDbEntity
  8
Dim
100
AcDbTrace
 10
554.9427905053028
 20
449.6753162391287
 30
0.0
 11
554.9427905053028
 21
449.0086495724622
 31
0.0
 12
556.9427905053028
 22
449.3419829057955
 32
0.0
 13
556.9427905053028
 23
449.3419829057955
 33
0.0
  0
MTEXT
  5
17E9
330
F9A
100
AcDbEntity
  8
Dim
100
AcDbMText
 10
542.9427905053028
 20
451.5919829057954
 30
0.0
 40
2.5
 41
0.0
 71
     5
 72
     1
  1
\A1;28
  7
China
 73
     1
 44
1.0
1001
ACAD
1000
MTEXTBEGIN
1070
    73
1070
     1
1070
    44
1040
1.0
1070
    74
1070
     0
1000
MTEXTEND
  0
POINT
  5
17EA
330
F9A
100
AcDbEntity
  8
Defpoints
 62
     0
100
AcDbPoint
 10
528.9427905053027
 20
435.9597963674345
 30
0.0
  0
POINT
  5
17EB
330
F9A
100
AcDbEntity
  8
Defpoints
 62
     0
100
AcDbPoint
 10
556.9427905053028
 20
435.9597963674345
 30
0.0
  0
POINT
  5
17EC
330
F9A
100
AcDbEntity
  8
Defpoints
 62
     0
100
AcDbPoint
 10
556.9427905053028
 20
449.3419829057955
 30
0.0
  0
ENDBLK
  5
FA5
330
F9A
100
AcDbEntity
  8
0
100
AcDbBlockEnd
  0
BLOCK
  5
FAF
330
FA6
100
AcDbEntity
  8
0
100
AcDbBlockBegin
  2
*D31
 70
     1
 10
0.0
 20
0.0
 30
0.0
  3
*D31
  1

  0
LINE
  5
109E
330
FA6
100
AcDbEntity
  8
Dim
100
AcDbLine
 10
248.215546712701
 20
404.9597963674345
 30
0.0
 11
231.4343062079676
 21
404.9597963674345
 31
0.0
  0
LINE
  5
109F
330
FA6
100
AcDbEntity
  8
Dim
100
AcDbLine
 10
232.4343062079675
 20
402.9597963674346
 30
0.0
 11
232.4343062079675
 21
397.9597963674346
 31
0.0
  0
SOLID
  5
10A0
330
FA6
100
AcDbEntity
  8
Dim
100
AcDbTrace
 10
232.1009728746342
 20
402.9597963674346
 30
0.0
 11
232.7676395413009
 21
402.9597963674346
 31
0.0
 12
232.4343062079675
 22
404.9597963674345
 32
0.0
 13
232.4343062079675
 23
404.9597963674345
 33
0.0
  0
SOLID
  5
10A1
330
FA6
100
AcDbEntity
  8
Dim
100
AcDbTrace
 10
232.1009728746342
 20
397.9597963674346
 30
0.0
 11
232.7676395413009
 21
397.9597963674346
 31
0.0
 12
232.4343062079675
 22
395.9597963674346
 32
0.0
 13
232.4343062079675
 23
395.9597963674346
 33
0.0
  0
MTEXT
  5
10A2
330
FA6
100
AcDbEntity
  8
Dim
100
AcDbMText
 10
230.1843062079675
 20
400.4597963674346
 30
0.0
 40
2.5
 41
0.0
 71
     5
 72
     1
  1
\A1;9
  7
China
 11
0.0000000000000001
 21
1.0
 31
0.0
 73
     1
 44
1.0
1001
ACAD
1000
MTEXTBEGIN
1070
    73
1070
     1
1070
    44
1040
1.0
1070
    74
1070
     0
1000
MTEXTEND
  0
POINT
  5
10A3
330
FA6
100
AcDbEntity
  8
Defpoints
 62
     0
100
AcDbPoint
 10
249.215546712701
 20
404.9597963674345
 30
0.0
  0
POINT
  5
10A4
330
FA6
100
AcDbEntity
  8
Defpoints
 62
     0
100
AcDbPoint
 10
232.4343062079675
 20
395.9597963674346
 30
0.0
  0
POINT
  5
10A5
330
FA6
100
AcDbEntity
  8
Defpoints
 62
     0
100
AcDbPoint
 10
232.4343062079675
 20
395.9597963674346
 30
0.0
  0
ENDBLK
  5
FB0
330
FA6
100
AcDbEntity
  8
0
100
AcDbBlockEnd
  0
BLOCK
  5
FBB
330
FB1
100
AcDbEntity
  8
0
100
AcDbBlockBegin
  2
*D32
 70
     1
 10
0.0
 20
0.0
 30
0.0
  3
*D32
  1

  0
LINE
  5
10A6
330
FB1
100
AcDbEntity
  8
Dim
100
AcDbLine
 10
239.3045467127009
 20
395.9597963674346
 30
0.0
 11
231.4343062079676
 21
395.9597963674346
 31
0.0
  0
LINE
  5
10A7
330
FB1
100
AcDbEntity
  8
Dim
100
AcDbLine
 10
249.6775467127005
 20
363.9597963674346
 30
0.0
 11
231.4343062079676
 21
363.9597963674346
 31
0.0
  0
LINE
  5
10A8
330
FB1
100
AcDbEntity
  8
Dim
100
AcDbLine
 10
232.4343062079675
 20
393.9597963674346
 30
0.0
 11
232.4343062079675
 21
365.9597963674346
 31
0.0
  0
SOLID
  5
10A9
330
FB1
100
AcDbEntity
  8
Dim
100
AcDbTrace
 10
232.1009728746342
 20
393.9597963674346
 30
0.0
 11
232.7676395413009
 21
393.9597963674346
 31
0.0
 12
232.4343062079675
 22
395.9597963674346
 32
0.0
 13
232.4343062079675
 23
395.9597963674346
 33
0.0
  0
SOLID
  5
10AA
330
FB1
100
AcDbEntity
  8
Dim
100
AcDbTrace
 10
232.1009728746342
 20
365.9597963674346
 30
0.0
 11
232.7676395413009
 21
365.9597963674346
 31
0.0
 12
232.4343062079675
 22
363.9597963674346
 32
0.0
 13
232.4343062079675
 23
363.9597963674346
 33
0.0
  0
MTEXT
  5
10AB
330
FB1
100
AcDbEntity
  8
Dim
100
AcDbMText
 10
230.1843062079675
 20
379.9597963674346
 30
0.0
 40
2.5
 41
0.0
 71
     5
 72
     1
  1
\A1;32
  7
China
 11
0.0000000000000001
 21
1.0
 31
0.0
 73
     1
 44
1.0
1001
ACAD
1000
MTEXTBEGIN
1070
    73
1070
     1
1070
    44
1040
1.0
1070
    74
1070
     0
1000
MTEXTEND
  0
POINT
  5
10AC
330
FB1
100
AcDbEntity
  8
Defpoints
 62
     0
100
AcDbPoint
 10
240.3045467127009
 20
395.9597963674346
 30
0.0
  0
POINT
  5
10AD
330
FB1
100
AcDbEntity
  8
Defpoints
 62
     0
100
AcDbPoint
 10
250.6775467127005
 20
363.9597963674346
 30
0.0
  0
POINT
  5
10AE
330
FB1
100
AcDbEntity
  8
Defpoints
 62
     0
100
AcDbPoint
 10
232.4343062079675
 20
363.9597963674346
 30
0.0
  0
ENDBLK
  5
FBC
330
FB1
100
AcDbEntity
  8
0
100
AcDbBlockEnd
  0
BLOCK
  5
FC7
330
FBD
100
AcDbEntity
  8
0
100
AcDbBlockBegin
  2
*D33
 70
     1
 10
0.0
 20
0.0
 30
0.0
  3
*D33
  1

  0
LINE
  5
159B
330
FBD
100
AcDbEntity
  8
Dim
100
AcDbLine
 10
306.005546712701
 20
399.9597963674346
 30
0.0
 11
316.6775467127005
 21
399.9597963674346
 31
0.0
  0
LINE
  5
159C
330
FBD
100
AcDbEntity
  8
Dim
100
AcDbLine
 10
306.3575467127008
 20
391.9597963674346
 30
0.0
 11
316.6775467127005
 21
391.9597963674346
 31
0.0
  0
LINE
  5
159D
330
FBD
100
AcDbEntity
  8
Dim
100
AcDbLine
 10
315.6775467127005
 20
397.9597963674346
 30
0.0
 11
315.6775467127005
 21
393.9597963674346
 31
0.0
  0
SOLID
  5
159E
330
FBD
100
AcDbEntity
  8
Dim
100
AcDbTrace
 10
315.3442133793672
 20
397.9597963674346
 30
0.0
 11
316.0108800460339
 21
397.9597963674346
 31
0.0
 12
315.6775467127005
 22
399.9597963674346
 32
0.0
 13
315.6775467127005
 23
399.9597963674346
 33
0.0
  0
SOLID
  5
159F
330
FBD
100
AcDbEntity
  8
Dim
100
AcDbTrace
 10
315.3442133793672
 20
393.9597963674346
 30
0.0
 11
316.0108800460339
 21
393.9597963674346
 31
0.0
 12
315.6775467127005
 22
391.9597963674346
 32
0.0
 13
315.6775467127005
 23
391.9597963674346
 33
0.0
  0
MTEXT
  5
15A0
330
FBD
100
AcDbEntity
  8
Dim
100
AcDbMText
 10
313.4275467127004
 20
395.9597963674347
 30
0.0
 40
2.5
 41
0.0
 71
     5
 72
     1
  1
\A1;8
  7
China
 11
0.0000000000000001
 21
1.0
 31
0.0
 73
     1
 44
1.0
1001
ACAD
1000
MTEXTBEGIN
1070
    73
1070
     1
1070
    44
1040
1.0
1070
    74
1070
     0
1000
MTEXTEND
  0
POINT
  5
15A1
330
FBD
100
AcDbEntity
  8
Defpoints
 62
     0
100
AcDbPoint
 10
305.0055467127009
 20
399.9597963674346
 30
0.0
  0
POINT
  5
15A2
330
FBD
100
AcDbEntity
  8
Defpoints
 62
     0
100
AcDbPoint
 10
305.3575467127008
 20
391.9597963674346
 30
0.0
  0
POINT
  5
15A3
330
FBD
100
AcDbEntity
  8
Defpoints
 62
     0
100
AcDbPoint
 10
315.6775467127005
 20
391.9597963674346
 30
0.0
  0
ENDBLK
  5
FC8
330
FBD
100
AcDbEntity
  8
0
100
AcDbBlockEnd
  0
BLOCK
  5
FD3
330
FC9
100
AcDbEntity
  8
0
100
AcDbBlockBegin
  2
*D34
 70
     1
 10
0.0
 20
0.0
 30
0.0
  3
*D34
  1

  0
LINE
  5
1592
330
FC9
100
AcDbEntity
  8
Dim
100
AcDbLine
 10
304.6775467127005
 20
413.9597963674345
 30
0.0
 11
332.6775467127006
 21
413.9597963674345
 31
0.0
  0
LINE
  5
1593
330
FC9
100
AcDbEntity
  8
Dim
100
AcDbLine
 10
304.6775467127005
 20
377.9597963674346
 30
0.0
 11
332.6775467127005
 21
377.9597963674346
 31
0.0
  0
LINE
  5
1594
330
FC9
100
AcDbEntity
  8
Dim
100
AcDbLine
 10
331.6775467127006
 20
411.9597963674346
 30
0.0
 11
331.6775467127005
 21
379.9597963674346
 31
0.0
  0
SOLID
  5
1595
330
FC9
100
AcDbEntity
  8
Dim
100
AcDbTrace
 10
331.3442133793673
 20
411.9597963674346
 30
0.0
 11
332.0108800460339
 21
411.9597963674346
 31
0.0
 12
331.6775467127006
 22
413.9597963674345
 32
0.0
 13
331.6775467127006
 23
413.9597963674345
 33
0.0
  0
SOLID
  5
1596
330
FC9
100
AcDbEntity
  8
Dim
100
AcDbTrace
 10
331.3442133793672
 20
379.9597963674346
 30
0.0
 11
332.0108800460338
 21
379.9597963674346
 31
0.0
 12
331.6775467127005
 22
377.9597963674346
 32
0.0
 13
331.6775467127005
 23
377.9597963674346
 33
0.0
  0
MTEXT
  5
1597
330
FC9
100
AcDbEntity
  8
Dim
100
AcDbMText
 10
329.4275467127004
 20
395.9597963674347
 30
0.0
 40
2.5
 41
0.0
 71
     5
 72
     1
  1
\A1;36
  7
China
 11
0.0000000000000001
 21
1.0
 31
0.0
 73
     1
 44
1.0
1001
ACAD
1000
MTEXTBEGIN
1070
    73
1070
     1
1070
    44
1040
1.0
1070
    74
1070
     0
1000
MTEXTEND
  0
POINT
  5
1598
330
FC9
100
AcDbEntity
  8
Defpoints
 62
     0
100
AcDbPoint
 10
303.6775467127005
 20
413.9597963674345
 30
0.0
  0
POINT
  5
1599
330
FC9
100
AcDbEntity
  8
Defpoints
 62
     0
100
AcDbPoint
 10
303.6775467127005
 20
377.9597963674346
 30
0.0
  0
POINT
  5
159A
330
FC9
100
AcDbEntity
  8
Defpoints
 62
     0
100
AcDbPoint
 10
331.6775467127005
 20
377.9597963674346
 30
0.0
  0
ENDBLK
  5
FD4
330
FC9
100
AcDbEntity
  8
0
100
AcDbBlockEnd
  0
BLOCK
  5
FDF
330
FD5
100
AcDbEntity
  8
0
100
AcDbBlockBegin
  2
*D35
 70
     1
 10
0.0
 20
0.0
 30
0.0
  3
*D35
  1

  0
LINE
  5
18BE
330
FD5
100
AcDbEntity
  8
Dim
100
AcDbLine
 10
254.7475467127007
 20
304.2377732223366
 30
0.0
 11
235.5086113826643
 21
304.2377732223366
 31
0.0
  0
LINE
  5
18BF
330
FD5
100
AcDbEntity
  8
Dim
100
AcDbLine
 10
254.6395467127009
 20
286.237773222337
 30
0.0
 11
235.5086113826643
 21
286.237773222337
 31
0.0
  0
LINE
  5
18C0
330
FD5
100
AcDbEntity
  8
Dim
100
AcDbLine
 10
236.5086113826643
 20
302.2377732223366
 30
0.0
 11
236.5086113826643
 21
288.237773222337
 31
0.0
  0
SOLID
  5
18C1
330
FD5
100
AcDbEntity
  8
Dim
100
AcDbTrace
 10
236.175278049331
 20
302.2377732223366
 30
0.0
 11
236.8419447159976
 21
302.2377732223366
 31
0.0
 12
236.5086113826643
 22
304.2377732223366
 32
0.0
 13
236.5086113826643
 23
304.2377732223366
 33
0.0
  0
SOLID
  5
18C2
330
FD5
100
AcDbEntity
  8
Dim
100
AcDbTrace
 10
236.175278049331
 20
288.237773222337
 30
0.0
 11
236.8419447159976
 21
288.237773222337
 31
0.0
 12
236.5086113826643
 22
286.237773222337
 32
0.0
 13
236.5086113826643
 23
286.237773222337
 33
0.0
  0
MTEXT
  5
18C3
330
FD5
100
AcDbEntity
  8
Dim
100
AcDbMText
 10
234.2586113826643
 20
295.2377732223368
 30
0.0
 40
2.5
 41
0.0
 71
     5
 72
     1
  1
\A1;18
  7
China
 11
0.0000000000000001
 21
1.0
 31
0.0
 73
     1
 44
1.0
1001
ACAD
1000
MTEXTBEGIN
1070
    73
1070
     1
1070
    44
1040
1.0
1070
    74
1070
     0
1000
MTEXTEND
  0
POINT
  5
18C4
330
FD5
100
AcDbEntity
  8
Defpoints
 62
     0
100
AcDbPoint
 10
255.7475467127007
 20
304.2377732223366
 30
0.0
  0
POINT
  5
18C5
330
FD5
100
AcDbEntity
  8
Defpoints
 62
     0
100
AcDbPoint
 10
255.639546712701
 20
286.237773222337
 30
0.0
  0
POINT
  5
18C6
330
FD5
100
AcDbEntity
  8
Defpoints
 62
     0
100
AcDbPoint
 10
236.5086113826643
 20
286.237773222337
 30
0.0
  0
ENDBLK
  5
FE0
330
FD5
100
AcDbEntity
  8
0
100
AcDbBlockEnd
  0
BLOCK
  5
FEB
330
FE1
100
AcDbEntity
  8
0
100
AcDbBlockBegin
  2
*D36
 70
     1
 10
0.0
 20
0.0
 30
0.0
  3
*D36
  1

  0
LINE
  5
18C7
330
FE1
100
AcDbEntity
  8
Dim
100
AcDbLine
 10
242.6775467127005
 20
310.2377732223366
 30
0.0
 11
229.4196433761032
 21
310.2377732223366
 31
0.0
  0
LINE
  5
18C8
330
FE1
100
AcDbEntity
  8
Dim
100
AcDbLine
 10
242.6775467127005
 20
280.237773222337
 30
0.0
 11
229.4196433761032
 21
280.237773222337
 31
0.0
  0
LINE
  5
18C9
330
FE1
100
AcDbEntity
  8
Dim
100
AcDbLine
 10
230.4196433761032
 20
308.2377732223366
 30
0.0
 11
230.4196433761032
 21
282.237773222337
 31
0.0
  0
SOLID
  5
18CA
330
FE1
100
AcDbEntity
  8
Dim
100
AcDbTrace
 10
230.0863100427698
 20
308.2377732223366
 30
0.0
 11
230.7529767094365
 21
308.2377732223366
 31
0.0
 12
230.4196433761032
 22
310.2377732223366
 32
0.0
 13
230.4196433761032
 23
310.2377732223366
 33
0.0
  0
SOLID
  5
18CB
330
FE1
100
AcDbEntity
  8
Dim
100
AcDbTrace
 10
230.0863100427698
 20
282.237773222337
 30
0.0
 11
230.7529767094365
 21
282.237773222337
 31
0.0
 12
230.4196433761032
 22
280.237773222337
 32
0.0
 13
230.4196433761032
 23
280.237773222337
 33
0.0
  0
MTEXT
  5
18CC
330
FE1
100
AcDbEntity
  8
Dim
100
AcDbMText
 10
228.1696433761032
 20
295.2377732223368
 30
0.0
 40
2.5
 41
0.0
 71
     5
 72
     1
  1
\A1;30
  7
China
 11
0.0000000000000001
 21
1.0
 31
0.0
 73
     1
 44
1.0
1001
ACAD
1000
MTEXTBEGIN
1070
    73
1070
     1
1070
    44
1040
1.0
1070
    74
1070
     0
1000
MTEXTEND
  0
POINT
  5
18CD
330
FE1
100
AcDbEntity
  8
Defpoints
 62
     0
100
AcDbPoint
 10
243.6775467127005
 20
310.2377732223366
 30
0.0
  0
POINT
  5
18CE
330
FE1
100
AcDbEntity
  8
Defpoints
 62
     0
100
AcDbPoint
 10
243.6775467127005
 20
280.237773222337
 30
0.0
  0
POINT
  5
18CF
330
FE1
100
AcDbEntity
  8
Defpoints
 62
     0
100
AcDbPoint
 10
230.4196433761032
 20
280.237773222337
 30
0.0
  0
ENDBLK
  5
FEC
330
FE1
100
AcDbEntity
  8
0
100
AcDbBlockEnd
  0
BLOCK
  5
FF8
330
FED
100
AcDbEntity
  8
0
100
AcDbBlockBegin
  2
*D37
 70
     1
 10
0.0
 20
0.0
 30
0.0
  3
*D37
  1

  0
LINE
  5
1658
330
FED
100
AcDbEntity
  8
Dim
100
AcDbLine
 10
251.6775467127005
 20
365.9597963674346
 30
0.0
 11
244.2966226870528
 21
365.9597963674346
 31
0.0
  0
LINE
  5
1659
330
FED
100
AcDbEntity
  8
Dim
100
AcDbLine
 10
245.2966226870528
 20
367.9597963674346
 30
0.0
 11
245.2966226870528
 21
369.9597963674346
 31
0.0
  0
LINE
  5
165A
330
FED
100
AcDbEntity
  8
Dim
100
AcDbLine
 10
245.2966226870528
 20
361.9597963674346
 30
0.0
 11
245.2966226870528
 21
356.2931297007679
 31
0.0
  0
LINE
  5
165B
330
FED
100
AcDbEntity
  8
Dim
100
AcDbLine
 10
245.2966226870528
 20
365.9597963674346
 30
0.0
 11
245.2966226870528
 21
363.9597963674346
 31
0.0
  0
SOLID
  5
165C
330
FED
100
AcDbEntity
  8
Dim
100
AcDbTrace
 10
244.9632893537194
 20
367.9597963674346
 30
0.0
 11
245.6299560203861
 21
367.9597963674346
 31
0.0
 12
245.2966226870528
 22
365.9597963674346
 32
0.0
 13
245.2966226870528
 23
365.9597963674346
 33
0.0
  0
SOLID
  5
165D
330
FED
100
AcDbEntity
  8
Dim
100
AcDbTrace
 10
244.9632893537194
 20
361.9597963674346
 30
0.0
 11
245.6299560203861
 21
361.9597963674346
 31
0.0
 12
245.2966226870528
 22
363.9597963674346
 32
0.0
 13
245.2966226870528
 23
363.9597963674346
 33
0.0
  0
MTEXT
  5
165E
330
FED
100
AcDbEntity
  8
Dim
100
AcDbMText
 10
243.0466226870527
 20
358.1264630341014
 30
0.0
 40
2.5
 41
0.0
 71
     5
 72
     1
  1
\A1;2
  7
China
 11
0.0000000000000001
 21
1.0
 31
0.0
 73
     1
 44
1.0
1001
ACAD
1000
MTEXTBEGIN
1070
    73
1070
     1
1070
    44
1040
1.0
1070
    74
1070
     0
1000
MTEXTEND
  0
POINT
  5
165F
330
FED
100
AcDbEntity
  8
Defpoints
 62
     0
100
AcDbPoint
 10
252.6775467127005
 20
365.9597963674346
 30
0.0
  0
POINT
  5
1660
330
FED
100
AcDbEntity
  8
Defpoints
 62
     0
100
AcDbPoint
 10
245.2966226870532
 20
363.9597963674346
 30
0.0
  0
POINT
  5
1661
330
FED
100
AcDbEntity
  8
Defpoints
 62
     0
100
AcDbPoint
 10
245.2966226870528
 20
363.9597963674346
 30
0.0
  0
ENDBLK
  5
FF9
330
FED
100
AcDbEntity
  8
0
100
AcDbBlockEnd
  0
BLOCK
  5
1003
330
FFA
100
AcDbEntity
  8
0
100
AcDbBlockBegin
  2
*D38
 70
     1
 10
0.0
 20
0.0
 30
0.0
  3
*D38
  1

  0
LINE
  5
10DD
330
FFA
100
AcDbEntity
  8
Dim
100
AcDbLine
 10
249.6775467127005
 20
370.9597963674346
 30
0.0
 11
237.6969942465809
 21
370.9597963674346
 31
0.0
  0
LINE
  5
10DE
330
FFA
100
AcDbEntity
  8
Dim
100
AcDbLine
 10
238.6969942465809
 20
365.9597963674346
 30
0.0
 11
238.6969942465809
 21
368.9597963674346
 31
0.0
  0
SOLID
  5
10DF
330
FFA
100
AcDbEntity
  8
Dim
100
AcDbTrace
 10
238.3636609132475
 20
365.9597963674346
 30
0.0
 11
239.0303275799142
 21
365.9597963674346
 31
0.0
 12
238.6969942465809
 22
363.9597963674346
 32
0.0
 13
238.6969942465809
 23
363.9597963674346
 33
0.0
  0
SOLID
  5
10E0
330
FFA
100
AcDbEntity
  8
Dim
100
AcDbTrace
 10
238.3636609132475
 20
368.9597963674346
 30
0.0
 11
239.0303275799142
 21
368.9597963674346
 31
0.0
 12
238.6969942465809
 22
370.9597963674346
 32
0.0
 13
238.6969942465809
 23
370.9597963674346
 33
0.0
  0
MTEXT
  5
10E1
330
FFA
100
AcDbEntity
  8
Dim
100
AcDbMText
 10
236.4469942465808
 20
367.4597963674346
 30
0.0
 40
2.5
 41
0.0
 71
     5
 72
     1
  1
\A1;7
  7
China
 11
0.0000000000000001
 21
1.0
 31
0.0
 73
     1
 44
1.0
1001
ACAD
1000
MTEXTBEGIN
1070
    73
1070
     1
1070
    44
1040
1.0
1070
    74
1070
     0
1000
MTEXTEND
  0
POINT
  5
10E2
330
FFA
100
AcDbEntity
  8
Defpoints
 62
     0
100
AcDbPoint
 10
238.6969942465809
 20
363.9597963674346
 30
0.0
  0
POINT
  5
10E3
330
FFA
100
AcDbEntity
  8
Defpoints
 62
     0
100
AcDbPoint
 10
250.6775467127005
 20
370.9597963674346
 30
0.0
  0
POINT
  5
10E4
330
FFA
100
AcDbEntity
  8
Defpoints
 62
     0
100
AcDbPoint
 10
238.6969942465809
 20
370.9597963674346
 30
0.0
  0
ENDBLK
  5
1004
330
FFA
100
AcDbEntity
  8
0
100
AcDbBlockEnd
  0
BLOCK
  5
100F
330
1005
100
AcDbEntity
  8
0
100
AcDbBlockBegin
  2
*D39
 70
     1
 10
0.0
 20
0.0
 30
0.0
  3
*D39
  1

  0
LINE
  5
10E5
330
1005
100
AcDbEntity
  8
Dim
100
AcDbLine
 10
252.6775467127005
 20
362.9597963674346
 30
0.0
 11
252.6775467127005
 21
352.8940491589679
 31
0.0
  0
LINE
  5
10E6
330
1005
100
AcDbEntity
  8
Dim
100
AcDbLine
 10
264.6775467127005
 20
362.9597963674346
 30
0.0
 11
264.6775467127005
 21
352.8940491589679
 31
0.0
  0
LINE
  5
10E7
330
1005
100
AcDbEntity
  8
Dim
100
AcDbLine
 10
254.6775467127005
 20
353.8940491589678
 30
0.0
 11
262.6775467127005
 21
353.8940491589678
 31
0.0
  0
SOLID
  5
10E8
330
1005
100
AcDbEntity
  8
Dim
100
AcDbTrace
 10
254.6775467127005
 20
354.2273824923011
 30
0.0
 11
254.6775467127005
 21
353.5607158256345
 31
0.0
 12
252.6775467127005
 22
353.8940491589678
 32
0.0
 13
252.6775467127005
 23
353.8940491589678
 33
0.0
  0
SOLID
  5
10E9
330
1005
100
AcDbEntity
  8
Dim
100
AcDbTrace
 10
262.6775467127005
 20
354.2273824923011
 30
0.0
 11
262.6775467127005
 21
353.5607158256345
 31
0.0
 12
264.6775467127005
 22
353.8940491589678
 32
0.0
 13
264.6775467127005
 23
353.8940491589678
 33
0.0
  0
MTEXT
  5
10EA
330
1005
100
AcDbEntity
  8
Dim
100
AcDbMText
 10
255.5770885785247
 20
356.1440491589678
 30
0.0
 40
2.5
 41
0.0
 71
     5
 72
     1
  1
\A1;12
  7
China
 73
     1
 44
1.0
1001
ACAD
1000
MTEXTBEGIN
1070
    73
1070
     1
1070
    44
1040
1.0
1070
    74
1070
     0
1000
MTEXTEND
  0
POINT
  5
10EB
330
1005
100
AcDbEntity
  8
Defpoints
 62
     0
100
AcDbPoint
 10
252.6775467127005
 20
363.9597963674346
 30
0.0
  0
POINT
  5
10EC
330
1005
100
AcDbEntity
  8
Defpoints
 62
     0
100
AcDbPoint
 10
264.6775467127005
 20
363.9597963674346
 30
0.0
  0
POINT
  5
10ED
330
1005
100
AcDbEntity
  8
Defpoints
 62
     0
100
AcDbPoint
 10
264.6775467127005
 20
353.8940491589678
 30
0.0
  0
ENDBLK
  5
1010
330
1005
100
AcDbEntity
  8
0
100
AcDbBlockEnd
  0
BLOCK
  5
101B
330
1011
100
AcDbEntity
  8
0
100
AcDbBlockBegin
  2
*D40
 70
     1
 10
0.0
 20
0.0
 30
0.0
  3
*D40
  1

  0
LINE
  5
10EE
330
1011
100
AcDbEntity
  8
Dim
100
AcDbLine
 10
250.6775467127005
 20
362.9597963674346
 30
0.0
 11
250.6775467127005
 21
346.9228389472214
 31
0.0
  0
LINE
  5
10EF
330
1011
100
AcDbEntity
  8
Dim
100
AcDbLine
 10
266.6775467127005
 20
362.9597963674346
 30
0.0
 11
266.6775467127005
 21
346.9228389472214
 31
0.0
  0
LINE
  5
10F0
330
1011
100
AcDbEntity
  8
Dim
100
AcDbLine
 10
252.6775467127005
 20
347.9228389472214
 30
0.0
 11
264.6775467127005
 21
347.9228389472214
 31
0.0
  0
SOLID
  5
10F1
330
1011
100
AcDbEntity
  8
Dim
100
AcDbTrace
 10
252.6775467127005
 20
348.2561722805547
 30
0.0
 11
252.6775467127005
 21
347.5895056138881
 31
0.0
 12
250.6775467127005
 22
347.9228389472214
 32
0.0
 13
250.6775467127005
 23
347.9228389472214
 33
0.0
  0
SOLID
  5
10F2
330
1011
100
AcDbEntity
  8
Dim
100
AcDbTrace
 10
264.6775467127005
 20
348.2561722805547
 30
0.0
 11
264.6775467127005
 21
347.5895056138881
 31
0.0
 12
266.6775467127005
 22
347.9228389472214
 32
0.0
 13
266.6775467127005
 23
347.9228389472214
 33
0.0
  0
MTEXT
  5
10F3
330
1011
100
AcDbEntity
  8
Dim
100
AcDbMText
 10
258.6775467127005
 20
350.1728389472214
 30
0.0
 40
2.5
 41
0.0
 71
     5
 72
     1
  1
\A1;16
  7
China
 73
     1
 44
1.0
1001
ACAD
1000
MTEXTBEGIN
1070
    73
1070
     1
1070
    44
1040
1.0
1070
    74
1070
     0
1000
MTEXTEND
  0
POINT
  5
10F4
330
1011
100
AcDbEntity
  8
Defpoints
 62
     0
100
AcDbPoint
 10
250.6775467127005
 20
363.9597963674346
 30
0.0
  0
POINT
  5
10F5
330
1011
100
AcDbEntity
  8
Defpoints
 62
     0
100
AcDbPoint
 10
266.6775467127005
 20
363.9597963674346
 30
0.0
  0
POINT
  5
10F6
330
1011
100
AcDbEntity
  8
Defpoints
 62
     0
100
AcDbPoint
 10
266.6775467127005
 20
347.9228389472214
 30
0.0
  0
ENDBLK
  5
101C
330
1011
100
AcDbEntity
  8
0
100
AcDbBlockEnd
  0
BLOCK
  5
1027
330
101D
100
AcDbEntity
  8
0
100
AcDbBlockBegin
  2
*D41
 70
     1
 10
0.0
 20
0.0
 30
0.0
  3
*D41
  1

  0
LINE
  5
10F7
330
101D
100
AcDbEntity
  8
Dim
100
AcDbLine
 10
303.6775467127005
 20
424.2564943973434
 30
0.0
 11
303.6775467127005
 21
430.1153684027672
 31
0.0
  0
LINE
  5
10F8
330
101D
100
AcDbEntity
  8
Dim
100
AcDbLine
 10
268.6775467127005
 20
414.9597963674345
 30
0.0
 11
268.6775467127005
 21
430.1153684027672
 31
0.0
  0
LINE
  5
10F9
330
101D
100
AcDbEntity
  8
Dim
100
AcDbLine
 10
301.6775467127005
 20
429.1153684027672
 30
0.0
 11
270.6775467127005
 21
429.1153684027672
 31
0.0
  0
SOLID
  5
10FA
330
101D
100
AcDbEntity
  8
Dim
100
AcDbTrace
 10
301.6775467127005
 20
429.4487017361005
 30
0.0
 11
301.6775467127005
 21
428.7820350694339
 31
0.0
 12
303.6775467127005
 22
429.1153684027672
 32
0.0
 13
303.6775467127005
 23
429.1153684027672
 33
0.0
  0
SOLID
  5
10FB
330
101D
100
AcDbEntity
  8
Dim
100
AcDbTrace
 10
270.6775467127005
 20
429.4487017361005
 30
0.0
 11
270.6775467127005
 21
428.7820350694339
 31
0.0
 12
268.6775467127005
 22
429.1153684027672
 32
0.0
 13
268.6775467127005
 23
429.1153684027672
 33
0.0
  0
MTEXT
  5
10FC
330
101D
100
AcDbEntity
  8
Dim
100
AcDbMText
 10
286.1775467127005
 20
431.3653684027672
 30
0.0
 40
2.5
 41
0.0
 71
     5
 72
     1
  1
\A1;35
  7
China
 73
     1
 44
1.0
1001
ACAD
1000
MTEXTBEGIN
1070
    73
1070
     1
1070
    44
1040
1.0
1070
    74
1070
     0
1000
MTEXTEND
  0
POINT
  5
10FD
330
101D
100
AcDbEntity
  8
Defpoints
 62
     0
100
AcDbPoint
 10
303.6775467127005
 20
423.2564943973434
 30
0.0
  0
POINT
  5
10FE
330
101D
100
AcDbEntity
  8
Defpoints
 62
     0
100
AcDbPoint
 10
268.6775467127005
 20
413.9597963674345
 30
0.0
  0
POINT
  5
10FF
330
101D
100
AcDbEntity
  8
Defpoints
 62
     0
100
AcDbPoint
 10
268.6775467127005
 20
429.1153684027672
 30
0.0
  0
ENDBLK
  5
1028
330
101D
100
AcDbEntity
  8
0
100
AcDbBlockEnd
  0
BLOCK
  5
1033
330
1029
100
AcDbEntity
  8
0
100
AcDbBlockBegin
  2
*D42
 70
     1
 10
0.0
 20
0.0
 30
0.0
  3
*D42
  1

  0
LINE
  5
1100
330
1029
100
AcDbEntity
  8
Dim
100
AcDbLine
 10
258.6775467127005
 20
430.9597963674345
 30
0.0
 11
258.6775467127005
 21
436.590969332909
 31
0.0
  0
LINE
  5
1101
330
1029
100
AcDbEntity
  8
Dim
100
AcDbLine
 10
303.6775467127005
 20
430.1153684027672
 30
0.0
 11
303.6775467127005
 21
436.590969332909
 31
0.0
  0
LINE
  5
1102
330
1029
100
AcDbEntity
  8
Dim
100
AcDbLine
 10
260.6775467127005
 20
435.590969332909
 30
0.0
 11
301.6775467127005
 21
435.590969332909
 31
0.0
  0
SOLID
  5
1103
330
1029
100
AcDbEntity
  8
Dim
100
AcDbTrace
 10
260.6775467127005
 20
435.9243026662423
 30
0.0
 11
260.6775467127005
 21
435.2576359995757
 31
0.0
 12
258.6775467127005
 22
435.590969332909
 32
0.0
 13
258.6775467127005
 23
435.590969332909
 33
0.0
  0
SOLID
  5
1104
330
1029
100
AcDbEntity
  8
Dim
100
AcDbTrace
 10
301.6775467127005
 20
435.9243026662423
 30
0.0
 11
301.6775467127005
 21
435.2576359995757
 31
0.0
 12
303.6775467127005
 22
435.590969332909
 32
0.0
 13
303.6775467127005
 23
435.590969332909
 33
0.0
  0
MTEXT
  5
1105
330
1029
100
AcDbEntity
  8
Dim
100
AcDbMText
 10
281.1775467127005
 20
437.840969332909
 30
0.0
 40
2.5
 41
0.0
 71
     5
 72
     1
  1
\A1;45
  7
China
 73
     1
 44
1.0
1001
ACAD
1000
MTEXTBEGIN
1070
    73
1070
     1
1070
    44
1040
1.0
1070
    74
1070
     0
1000
MTEXTEND
  0
POINT
  5
1106
330
1029
100
AcDbEntity
  8
Defpoints
 62
     0
100
AcDbPoint
 10
258.6775467127005
 20
429.9597963674345
 30
0.0
  0
POINT
  5
1107
330
1029
100
AcDbEntity
  8
Defpoints
 62
     0
100
AcDbPoint
 10
303.6775467127005
 20
429.1153684027672
 30
0.0
  0
POINT
  5
1108
330
1029
100
AcDbEntity
  8
Defpoints
 62
     0
100
AcDbPoint
 10
303.6775467127005
 20
435.590969332909
 30
0.0
  0
ENDBLK
  5
1034
330
1029
100
AcDbEntity
  8
0
100
AcDbBlockEnd
  0
BLOCK
  5
103F
330
1035
100
AcDbEntity
  8
0
100
AcDbBlockBegin
  2
*D43
 70
     1
 10
0.0
 20
0.0
 30
0.0
  3
*D43
  1

  0
LINE
  5
1109
330
1035
100
AcDbEntity
  8
Dim
100
AcDbLine
 10
303.6775467127005
 20
436.590969332909
 30
0.0
 11
303.6775467127005
 21
443.0665662906262
 31
0.0
  0
LINE
  5
110A
330
1035
100
AcDbEntity
  8
Dim
100
AcDbLine
 10
243.6775467127005
 20
407.4597963674346
 30
0.0
 11
243.6775467127005
 21
443.0665662906262
 31
0.0
  0
LINE
  5
110B
330
1035
100
AcDbEntity
  8
Dim
100
AcDbLine
 10
301.6775467127005
 20
442.0665662906262
 30
0.0
 11
245.6775467127005
 21
442.0665662906262
 31
0.0
  0
SOLID
  5
110C
330
1035
100
AcDbEntity
  8
Dim
100
AcDbTrace
 10
301.6775467127005
 20
442.3998996239595
 30
0.0
 11
301.6775467127005
 21
441.7332329572929
 31
0.0
 12
303.6775467127005
 22
442.0665662906262
 32
0.0
 13
303.6775467127005
 23
442.0665662906262
 33
0.0
  0
SOLID
  5
110D
330
1035
100
AcDbEntity
  8
Dim
100
AcDbTrace
 10
245.6775467127005
 20
442.3998996239595
 30
0.0
 11
245.6775467127005
 21
441.7332329572929
 31
0.0
 12
243.6775467127005
 22
442.0665662906262
 32
0.0
 13
243.6775467127005
 23
442.0665662906262
 33
0.0
  0
MTEXT
  5
110E
330
1035
100
AcDbEntity
  8
Dim
100
AcDbMText
 10
273.6775467127005
 20
444.3165662906262
 30
0.0
 40
2.5
 41
0.0
 71
     5
 72
     1
  1
\A1;60
  7
China
 73
     1
 44
1.0
1001
ACAD
1000
MTEXTBEGIN
1070
    73
1070
     1
1070
    44
1040
1.0
1070
    74
1070
     0
1000
MTEXTEND
  0
POINT
  5
110F
330
1035
100
AcDbEntity
  8
Defpoints
 62
     0
100
AcDbPoint
 10
303.6775467127005
 20
435.590969332909
 30
0.0
  0
POINT
  5
1110
330
1035
100
AcDbEntity
  8
Defpoints
 62
     0
100
AcDbPoint
 10
243.6775467127005
 20
406.4597963674345
 30
0.0
  0
POINT
  5
1111
330
1035
100
AcDbEntity
  8
Defpoints
 62
     0
100
AcDbPoint
 10
243.6775467127005
 20
442.0665662906262
 30
0.0
  0
ENDBLK
  5
1040
330
1035
100
AcDbEntity
  8
0
100
AcDbBlockEnd
  0
BLOCK
  5
104B
330
1041
100
AcDbEntity
  8
0
100
AcDbBlockBegin
  2
*D44
 70
     1
 10
0.0
 20
0.0
 30
0.0
  3
*D44
  1

  0
LINE
  5
1112
330
1041
100
AcDbEntity
  8
Dim
100
AcDbLine
 10
280.6775467127005
 20
414.1897963674351
 30
0.0
 11
280.6775467127005
 21
424.2564943973434
 31
0.0
  0
LINE
  5
1113
330
1041
100
AcDbEntity
  8
Dim
100
AcDbLine
 10
303.6775467127005
 20
414.9597963674345
 30
0.0
 11
303.6775467127005
 21
424.2564943973434
 31
0.0
  0
LINE
  5
1114
330
1041
100
AcDbEntity
  8
Dim
100
AcDbLine
 10
282.6775467127005
 20
423.2564943973434
 30
0.0
 11
301.6775467127005
 21
423.2564943973434
 31
0.0
  0
SOLID
  5
1115
330
1041
100
AcDbEntity
  8
Dim
100
AcDbTrace
 10
282.6775467127005
 20
423.5898277306767
 30
0.0
 11
282.6775467127005
 21
422.9231610640101
 31
0.0
 12
280.6775467127005
 22
423.2564943973434
 32
0.0
 13
280.6775467127005
 23
423.2564943973434
 33
0.0
  0
SOLID
  5
1116
330
1041
100
AcDbEntity
  8
Dim
100
AcDbTrace
 10
301.6775467127005
 20
423.5898277306767
 30
0.0
 11
301.6775467127005
 21
422.9231610640101
 31
0.0
 12
303.6775467127005
 22
423.2564943973434
 32
0.0
 13
303.6775467127005
 23
423.2564943973434
 33
0.0
  0
MTEXT
  5
1117
330
1041
100
AcDbEntity
  8
Dim
100
AcDbMText
 10
292.1775467127005
 20
425.5064943973434
 30
0.0
 40
2.5
 41
0.0
 71
     5
 72
     1
  1
\A1;23
  7
China
 73
     1
 44
1.0
1001
ACAD
1000
MTEXTBEGIN
1070
    73
1070
     1
1070
    44
1040
1.0
1070
    74
1070
     0
1000
MTEXTEND
  0
POINT
  5
1118
330
1041
100
AcDbEntity
  8
Defpoints
 62
     0
100
AcDbPoint
 10
280.6775467127005
 20
413.189796367435
 30
0.0
  0
POINT
  5
1119
330
1041
100
AcDbEntity
  8
Defpoints
 62
     0
100
AcDbPoint
 10
303.6775467127005
 20
413.9597963674345
 30
0.0
  0
POINT
  5
111A
330
1041
100
AcDbEntity
  8
Defpoints
 62
     0
100
AcDbPoint
 10
303.6775467127005
 20
423.2564943973434
 30
0.0
  0
ENDBLK
  5
104C
330
1041
100
AcDbEntity
  8
0
100
AcDbBlockEnd
  0
BLOCK
  5
1057
330
104D
100
AcDbEntity
  8
0
100
AcDbBlockBegin
  2
*D45
 70
     1
 10
0.0
 20
0.0
 30
0.0
  3
*D45
  1

  0
LINE
  5
13A6
330
104D
100
AcDbEntity
  8
Dim
100
AcDbLine
 10
286.6775467127005
 20
476.0439237407763
 30
0.0
 11
286.6775467127005
 21
464.2271085298716
 31
0.0
  0
LINE
  5
13A7
330
104D
100
AcDbEntity
  8
Dim
100
AcDbLine
 10
303.6775467127005
 20
473.443923740776
 30
0.0
 11
303.6775467127005
 21
464.2271085298716
 31
0.0
  0
LINE
  5
13A8
330
104D
100
AcDbEntity
  8
Dim
100
AcDbLine
 10
288.6775467127005
 20
465.2271085298716
 30
0.0
 11
301.6775467127005
 21
465.2271085298716
 31
0.0
  0
SOLID
  5
13A9
330
104D
100
AcDbEntity
  8
Dim
100
AcDbTrace
 10
288.6775467127005
 20
465.560441863205
 30
0.0
 11
288.6775467127005
 21
464.8937751965383
 31
0.0
 12
286.6775467127005
 22
465.2271085298716
 32
0.0
 13
286.6775467127005
 23
465.2271085298716
 33
0.0
  0
SOLID
  5
13AA
330
104D
100
AcDbEntity
  8
Dim
100
AcDbTrace
 10
301.6775467127005
 20
465.560441863205
 30
0.0
 11
301.6775467127005
 21
464.8937751965383
 31
0.0
 12
303.6775467127005
 22
465.2271085298716
 32
0.0
 13
303.6775467127005
 23
465.2271085298716
 33
0.0
  0
MTEXT
  5
13AB
330
104D
100
AcDbEntity
  8
Dim
100
AcDbMText
 10
295.1775467127005
 20
467.4771085298716
 30
0.0
 40
2.5
 41
0.0
 71
     5
 72
     1
  1
\A1;17
  7
China
 73
     1
 44
1.0
1001
ACAD
1000
MTEXTBEGIN
1070
    73
1070
     1
1070
    44
1040
1.0
1070
    74
1070
     0
1000
MTEXTEND
  0
POINT
  5
13AC
330
104D
100
AcDbEntity
  8
Defpoints
 62
     0
100
AcDbPoint
 10
286.6775467127005
 20
477.0439237407763
 30
0.0
  0
POINT
  5
13AD
330
104D
100
AcDbEntity
  8
Defpoints
 62
     0
100
AcDbPoint
 10
303.6775467127005
 20
474.4439237407759
 30
0.0
  0
POINT
  5
13AE
330
104D
100
AcDbEntity
  8
Defpoints
 62
     0
100
AcDbPoint
 10
303.6775467127005
 20
465.2271085298716
 30
0.0
  0
ENDBLK
  5
1058
330
104D
100
AcDbEntity
  8
0
100
AcDbBlockEnd
  0
BLOCK
  5
1063
330
1059
100
AcDbEntity
  8
0
100
AcDbBlockBegin
  2
*D46
 70
     1
 10
0.0
 20
0.0
 30
0.0
  3
*D46
  1

  0
LINE
  5
13AF
330
1059
100
AcDbEntity
  8
Dim
100
AcDbLine
 10
414.1609646981077
 20
408.9597963674346
 30
0.0
 11
431.5833763333448
 21
408.9597963674346
 31
0.0
  0
LINE
  5
13B0
330
1059
100
AcDbEntity
  8
Dim
100
AcDbLine
 10
388.4049646981079
 20
382.9597963674346
 30
0.0
 11
431.5833763333447
 21
382.9597963674346
 31
0.0
  0
LINE
  5
13B1
330
1059
100
AcDbEntity
  8
Dim
100
AcDbLine
 10
430.5833763333447
 20
406.9597963674345
 30
0.0
 11
430.5833763333447
 21
384.9597963674346
 31
0.0
  0
SOLID
  5
13B2
330
1059
100
AcDbEntity
  8
Dim
100
AcDbTrace
 10
430.2500430000114
 20
406.9597963674345
 30
0.0
 11
430.9167096666781
 21
406.9597963674345
 31
0.0
 12
430.5833763333447
 22
408.9597963674346
 32
0.0
 13
430.5833763333447
 23
408.9597963674346
 33
0.0
  0
SOLID
  5
13B3
330
1059
100
AcDbEntity
  8
Dim
100
AcDbTrace
 10
430.2500430000114
 20
384.9597963674346
 30
0.0
 11
430.9167096666781
 21
384.9597963674346
 31
0.0
 12
430.5833763333447
 22
382.9597963674346
 32
0.0
 13
430.5833763333447
 23
382.9597963674346
 33
0.0
  0
MTEXT
  5
13B4
330
1059
100
AcDbEntity
  8
Dim
100
AcDbMText
 10
428.3333763333446
 20
395.9597963674347
 30
0.0
 40
2.5
 41
0.0
 71
     5
 72
     1
  1
\A1;26
  7
China
 11
0.0000000000000001
 21
1.0
 31
0.0
 73
     1
 44
1.0
1001
ACAD
1000
MTEXTBEGIN
1070
    73
1070
     1
1070
    44
1040
1.0
1070
    74
1070
     0
1000
MTEXTEND
  0
POINT
  5
13B5
330
1059
100
AcDbEntity
  8
Defpoints
 62
     0
100
AcDbPoint
 10
413.1609646981076
 20
408.9597963674346
 30
0.0
  0
POINT
  5
13B6
330
1059
100
AcDbEntity
  8
Defpoints
 62
     0
100
AcDbPoint
 10
387.4049646981078
 20
382.9597963674346
 30
0.0
  0
POINT
  5
13B7
330
1059
100
AcDbEntity
  8
Defpoints
 62
     0
100
AcDbPoint
 10
430.5833763333447
 20
382.9597963674346
 30
0.0
  0
ENDBLK
  5
1064
330
1059
100
AcDbEntity
  8
0
100
AcDbBlockEnd
  0
BLOCK
  5
106F
330
1065
100
AcDbEntity
  8
0
100
AcDbBlockBegin
  2
*D47
 70
     1
 10
0.0
 20
0.0
 30
0.0
  3
*D47
  1

  0
LINE
  5
1876
330
1065
100
AcDbEntity
  8
Dim
100
AcDbLine
 10
378.9029646981079
 20
376.9597963674346
 30
0.0
 11
378.9029646981079
 21
342.9597963674345
 31
0.0
  0
LINE
  5
1877
330
1065
100
AcDbEntity
  8
Dim
100
AcDbLine
 10
414.9029646981079
 20
376.9597963674346
 30
0.0
 11
414.9029646981079
 21
342.9597963674345
 31
0.0
  0
LINE
  5
1878
330
1065
100
AcDbEntity
  8
Dim
100
AcDbLine
 10
380.9029646981079
 20
343.9597963674345
 30
0.0
 11
412.9029646981079
 21
343.9597963674345
 31
0.0
  0
SOLID
  5
1879
330
1065
100
AcDbEntity
  8
Dim
100
AcDbTrace
 10
380.9029646981079
 20
344.2931297007679
 30
0.0
 11
380.9029646981079
 21
343.6264630341012
 31
0.0
 12
378.9029646981079
 22
343.9597963674345
 32
0.0
 13
378.9029646981079
 23
343.9597963674345
 33
0.0
  0
SOLID
  5
187A
330
1065
100
AcDbEntity
  8
Dim
100
AcDbTrace
 10
412.9029646981079
 20
344.2931297007679
 30
0.0
 11
412.9029646981079
 21
343.6264630341012
 31
0.0
 12
414.9029646981079
 22
343.9597963674345
 32
0.0
 13
414.9029646981079
 23
343.9597963674345
 33
0.0
  0
MTEXT
  5
187B
330
1065
100
AcDbEntity
  8
Dim
100
AcDbMText
 10
396.9029646981079
 20
346.2097963674346
 30
0.0
 40
2.5
 41
0.0
 71
     5
 72
     1
  1
\A1;36
  7
China
 73
     1
 44
1.0
1001
ACAD
1000
MTEXTBEGIN
1070
    73
1070
     1
1070
    44
1040
1.0
1070
    74
1070
     0
1000
MTEXTEND
  0
POINT
  5
187C
330
1065
100
AcDbEntity
  8
Defpoints
 62
     0
100
AcDbPoint
 10
378.9029646981079
 20
377.9597963674346
 30
0.0
  0
POINT
  5
187D
330
1065
100
AcDbEntity
  8
Defpoints
 62
     0
100
AcDbPoint
 10
414.9029646981079
 20
377.9597963674346
 30
0.0
  0
POINT
  5
187E
330
1065
100
AcDbEntity
  8
Defpoints
 62
     0
100
AcDbPoint
 10
414.9029646981079
 20
343.9597963674345
 30
0.0
  0
ENDBLK
  5
1070
330
1065
100
AcDbEntity
  8
0
100
AcDbBlockEnd
  0
BLOCK
  5
11C8
330
11C7
100
AcDbEntity
  8
0
100
AcDbBlockBegin
  2
*U51
 70
     1
 10
0.0
 20
0.0
 30
0.0
  3
*U51
  1

  0
ENDBLK
  5
11C9
330
11C7
100
AcDbEntity
  8
0
100
AcDbBlockEnd
  0
BLOCK
  5
13F8
330
13EE
100
AcDbEntity
  8
0
100
AcDbBlockBegin
  2
*D59
 70
     1
 10
0.0
 20
0.0
 30
0.0
  3
*D59
  1

  0
LINE
  5
1921
330
13EE
100
AcDbEntity
  8
Dim
100
AcDbLine
 10
635.4796265323284
 20
435.9597963674345
 30
0.0
 11
604.4796265323284
 21
435.9597963674345
 31
0.0
  0
LINE
  5
1922
330
13EE
100
AcDbEntity
  8
Dim
100
AcDbLine
 10
624.4796265323284
 20
420.9597963674346
 30
0.0
 11
604.4796265323284
 21
420.9597963674346
 31
0.0
  0
LINE
  5
1923
330
13EE
100
AcDbEntity
  8
Dim
100
AcDbLine
 10
605.4796265323284
 20
433.9597963674346
 30
0.0
 11
605.4796265323284
 21
422.9597963674345
 31
0.0
  0
SOLID
  5
1924
330
13EE
100
AcDbEntity
  8
Dim
100
AcDbTrace
 10
605.146293198995
 20
433.9597963674346
 30
0.0
 11
605.8129598656618
 21
433.9597963674346
 31
0.0
 12
605.4796265323284
 22
435.9597963674345
 32
0.0
 13
605.4796265323284
 23
435.9597963674345
 33
0.0
  0
SOLID
  5
1925
330
13EE
100
AcDbEntity
  8
Dim
100
AcDbTrace
 10
605.146293198995
 20
422.9597963674345
 30
0.0
 11
605.8129598656618
 21
422.9597963674345
 31
0.0
 12
605.4796265323284
 22
420.9597963674346
 32
0.0
 13
605.4796265323284
 23
420.9597963674346
 33
0.0
  0
MTEXT
  5
1926
330
13EE
100
AcDbEntity
  8
Dim
100
AcDbMText
 10
603.2296265323283
 20
428.4597963674346
 30
0.0
 40
2.5
 41
0.0
 71
     5
 72
     1
  1
\A1;15
  7
China
 11
0.0000000000000001
 21
1.0
 31
0.0
 73
     1
 44
1.0
1001
ACAD
1000
MTEXTBEGIN
1070
    73
1070
     1
1070
    44
1040
1.0
1070
    74
1070
     0
1000
MTEXTEND
  0
POINT
  5
1927
330
13EE
100
AcDbEntity
  8
Defpoints
 62
     0
100
AcDbPoint
 10
636.4796265323284
 20
435.9597963674345
 30
0.0
  0
POINT
  5
1928
330
13EE
100
AcDbEntity
  8
Defpoints
 62
     0
100
AcDbPoint
 10
625.4796265323284
 20
420.9597963674346
 30
0.0
  0
POINT
  5
1929
330
13EE
100
AcDbEntity
  8
Defpoints
 62
     0
100
AcDbPoint
 10
605.4796265323284
 20
420.9597963674346
 30
0.0
  0
ENDBLK
  5
13F9
330
13EE
100
AcDbEntity
  8
0
100
AcDbBlockEnd
  0
BLOCK
  5
1420
330
1414
100
AcDbEntity
  8
0
100
AcDbBlockBegin
  2
*D60
 70
     1
 10
0.0
 20
0.0
 30
0.0
  3
*D60
  1

  0
LINE
  5
17F6
330
1414
100
AcDbEntity
  8
Dim
100
AcDbLine
 10
636.4796265323284
 20
436.9597963674346
 30
0.0
 11
636.4796265323284
 21
443.6633973611952
 31
0.0
  0
LINE
  5
17F7
330
1414
100
AcDbEntity
  8
Dim
100
AcDbLine
 10
641.4796265323284
 20
436.9597963674346
 30
0.0
 11
641.4796265323284
 21
443.6633973611952
 31
0.0
  0
LINE
  5
17F8
330
1414
100
AcDbEntity
  8
Dim
100
AcDbLine
 10
634.4796265323284
 20
442.6633973611952
 30
0.0
 11
632.4796265323284
 21
442.6633973611952
 31
0.0
  0
LINE
  5
17F9
330
1414
100
AcDbEntity
  8
Dim
100
AcDbLine
 10
643.4796265323284
 20
442.6633973611952
 30
0.0
 11
645.4796265323284
 21
442.6633973611952
 31
0.0
  0
LINE
  5
17FA
330
1414
100
AcDbEntity
  8
Dim
100
AcDbLine
 10
636.4796265323284
 20
442.6633973611952
 30
0.0
 11
641.4796265323284
 21
442.6633973611952
 31
0.0
  0
SOLID
  5
17FB
330
1414
100
AcDbEntity
  8
Dim
100
AcDbTrace
 10
634.4796265323284
 20
442.9967306945285
 30
0.0
 11
634.4796265323284
 21
442.3300640278618
 31
0.0
 12
636.4796265323284
 22
442.6633973611952
 32
0.0
 13
636.4796265323284
 23
442.6633973611952
 33
0.0
  0
SOLID
  5
17FC
330
1414
100
AcDbEntity
  8
Dim
100
AcDbTrace
 10
643.4796265323284
 20
442.9967306945285
 30
0.0
 11
643.4796265323284
 21
442.3300640278618
 31
0.0
 12
641.4796265323284
 22
442.6633973611952
 32
0.0
 13
641.4796265323284
 23
442.6633973611952
 33
0.0
  0
MTEXT
  5
17FD
330
1414
100
AcDbEntity
  8
Dim
100
AcDbMText
 10
638.9796265323284
 20
444.9133973611952
 30
0.0
 40
2.5
 41
0.0
 71
     5
 72
     1
  1
\A1;5
  7
China
 73
     1
 44
1.0
1001
ACAD
1000
MTEXTBEGIN
1070
    73
1070
     1
1070
    44
1040
1.0
1070
    74
1070
     0
1000
MTEXTEND
  0
POINT
  5
17FE
330
1414
100
AcDbEntity
  8
Defpoints
 62
     0
100
AcDbPoint
 10
636.4796265323284
 20
435.9597963674345
 30
0.0
  0
POINT
  5
17FF
330
1414
100
AcDbEntity
  8
Defpoints
 62
     0
100
AcDbPoint
 10
641.4796265323284
 20
435.9597963674345
 30
0.0
  0
POINT
  5
1800
330
1414
100
AcDbEntity
  8
Defpoints
 62
     0
100
AcDbPoint
 10
641.4796265323284
 20
442.6633973611952
 30
0.0
  0
ENDBLK
  5
1421
330
1414
100
AcDbEntity
  8
0
100
AcDbBlockEnd
  0
BLOCK
  5
1448
330
143E
100
AcDbEntity
  8
0
100
AcDbBlockBegin
  2
*D61
 70
     1
 10
0.0
 20
0.0
 30
0.0
  3
*D61
  1

  0
LINE
  5
1801
330
143E
100
AcDbEntity
  8
Dim
100
AcDbLine
 10
635.4796265323284
 20
435.9597963674345
 30
0.0
 11
612.4796265323284
 21
435.9597963674345
 31
0.0
  0
LINE
  5
1802
330
143E
100
AcDbEntity
  8
Dim
100
AcDbLine
 10
624.4796265323284
 20
425.9597963674345
 30
0.0
 11
612.4796265323284
 21
425.9597963674345
 31
0.0
  0
LINE
  5
1803
330
143E
100
AcDbEntity
  8
Dim
100
AcDbLine
 10
613.4796265323284
 20
433.9597963674346
 30
0.0
 11
613.4796265323284
 21
427.9597963674346
 31
0.0
  0
SOLID
  5
1804
330
143E
100
AcDbEntity
  8
Dim
100
AcDbTrace
 10
613.146293198995
 20
433.9597963674346
 30
0.0
 11
613.8129598656618
 21
433.9597963674346
 31
0.0
 12
613.4796265323284
 22
435.9597963674345
 32
0.0
 13
613.4796265323284
 23
435.9597963674345
 33
0.0
  0
SOLID
  5
1805
330
143E
100
AcDbEntity
  8
Dim
100
AcDbTrace
 10
613.146293198995
 20
427.9597963674346
 30
0.0
 11
613.8129598656618
 21
427.9597963674346
 31
0.0
 12
613.4796265323284
 22
425.9597963674345
 32
0.0
 13
613.4796265323284
 23
425.9597963674345
 33
0.0
  0
MTEXT
  5
1806
330
143E
100
AcDbEntity
  8
Dim
100
AcDbMText
 10
611.2296265323283
 20
430.9597963674346
 30
0.0
 40
2.5
 41
0.0
 71
     5
 72
     1
  1
\A1;10
  7
China
 11
0.0000000000000001
 21
1.0
 31
0.0
 73
     1
 44
1.0
1001
ACAD
1000
MTEXTBEGIN
1070
    73
1070
     1
1070
    44
1040
1.0
1070
    74
1070
     0
1000
MTEXTEND
  0
POINT
  5
1807
330
143E
100
AcDbEntity
  8
Defpoints
 62
     0
100
AcDbPoint
 10
636.4796265323284
 20
435.9597963674345
 30
0.0
  0
POINT
  5
1808
330
143E
100
AcDbEntity
  8
Defpoints
 62
     0
100
AcDbPoint
 10
625.4796265323284
 20
425.9597963674345
 30
0.0
  0
POINT
  5
1809
330
143E
100
AcDbEntity
  8
Defpoints
 62
     0
100
AcDbPoint
 10
613.4796265323284
 20
425.9597963674345
 30
0.0
  0
ENDBLK
  5
1449
330
143E
100
AcDbEntity
  8
0
100
AcDbBlockEnd
  0
BLOCK
  5
146E
330
1464
100
AcDbEntity
  8
0
100
AcDbBlockBegin
  2
*D62
 70
     1
 10
0.0
 20
0.0
 30
0.0
  3
*D62
  1

  0
LINE
  5
1918
330
1464
100
AcDbEntity
  8
Dim
100
AcDbLine
 10
623.0196265323284
 20
404.9597963674345
 30
0.0
 11
596.4796265323284
 21
404.9597963674345
 31
0.0
  0
LINE
  5
1919
330
1464
100
AcDbEntity
  8
Dim
100
AcDbLine
 10
635.4796265323284
 20
435.9597963674345
 30
0.0
 11
596.4796265323284
 21
435.9597963674345
 31
0.0
  0
LINE
  5
191A
330
1464
100
AcDbEntity
  8
Dim
100
AcDbLine
 10
597.4796265323284
 20
406.9597963674345
 30
0.0
 11
597.4796265323284
 21
433.9597963674346
 31
0.0
  0
SOLID
  5
191B
330
1464
100
AcDbEntity
  8
Dim
100
AcDbTrace
 10
597.146293198995
 20
406.9597963674345
 30
0.0
 11
597.8129598656618
 21
406.9597963674345
 31
0.0
 12
597.4796265323284
 22
404.9597963674345
 32
0.0
 13
597.4796265323284
 23
404.9597963674345
 33
0.0
  0
SOLID
  5
191C
330
1464
100
AcDbEntity
  8
Dim
100
AcDbTrace
 10
597.146293198995
 20
433.9597963674346
 30
0.0
 11
597.8129598656618
 21
433.9597963674346
 31
0.0
 12
597.4796265323284
 22
435.9597963674345
 32
0.0
 13
597.4796265323284
 23
435.9597963674345
 33
0.0
  0
MTEXT
  5
191D
330
1464
100
AcDbEntity
  8
Dim
100
AcDbMText
 10
595.2296265323282
 20
420.4597963674346
 30
0.0
 40
2.5
 41
0.0
 71
     5
 72
     1
  1
\A1;31
  7
China
 11
0.0000000000000001
 21
1.0
 31
0.0
 73
     1
 44
1.0
1001
ACAD
1000
MTEXTBEGIN
1070
    73
1070
     1
1070
    44
1040
1.0
1070
    74
1070
     0
1000
MTEXTEND
  0
POINT
  5
191E
330
1464
100
AcDbEntity
  8
Defpoints
 62
     0
100
AcDbPoint
 10
624.0196265323284
 20
404.9597963674345
 30
0.0
  0
POINT
  5
191F
330
1464
100
AcDbEntity
  8
Defpoints
 62
     0
100
AcDbPoint
 10
636.4796265323284
 20
435.9597963674345
 30
0.0
  0
POINT
  5
1920
330
1464
100
AcDbEntity
  8
Defpoints
 62
     0
100
AcDbPoint
 10
597.4796265323284
 20
435.9597963674345
 30
0.0
  0
ENDBLK
  5
146F
330
1464
100
AcDbEntity
  8
0
100
AcDbBlockEnd
  0
BLOCK
  5
14E5
330
14DB
100
AcDbEntity
  8
0
100
AcDbBlockBegin
  2
*D63
 70
     1
 10
0.0
 20
0.0
 30
0.0
  3
*D63
  1

  0
LINE
  5
18D0
330
14DB
100
AcDbEntity
  8
Dim
100
AcDbLine
 10
300.1955467127006
 20
289.237773222337
 30
0.0
 11
318.3262854412948
 21
289.237773222337
 31
0.0
  0
LINE
  5
18D1
330
14DB
100
AcDbEntity
  8
Dim
100
AcDbLine
 10
280.7365467127007
 20
301.237773222337
 30
0.0
 11
318.3262854412948
 21
301.237773222337
 31
0.0
  0
LINE
  5
18D2
330
14DB
100
AcDbEntity
  8
Dim
100
AcDbLine
 10
317.3262854412948
 20
291.237773222337
 30
0.0
 11
317.3262854412948
 21
299.237773222337
 31
0.0
  0
SOLID
  5
18D3
330
14DB
100
AcDbEntity
  8
Dim
100
AcDbTrace
 10
316.9929521079615
 20
291.237773222337
 30
0.0
 11
317.6596187746281
 21
291.237773222337
 31
0.0
 12
317.3262854412948
 22
289.237773222337
 32
0.0
 13
317.3262854412948
 23
289.237773222337
 33
0.0
  0
SOLID
  5
18D4
330
14DB
100
AcDbEntity
  8
Dim
100
AcDbTrace
 10
316.9929521079615
 20
299.237773222337
 30
0.0
 11
317.6596187746281
 21
299.237773222337
 31
0.0
 12
317.3262854412948
 22
301.237773222337
 32
0.0
 13
317.3262854412948
 23
301.237773222337
 33
0.0
  0
MTEXT
  5
18D5
330
14DB
100
AcDbEntity
  8
Dim
100
AcDbMText
 10
315.0762854412947
 20
295.2377732223371
 30
0.0
 40
2.5
 41
0.0
 71
     5
 72
     1
  1
\A1;12
  7
China
 11
0.0000000000000001
 21
1.0
 31
0.0
 73
     1
 44
1.0
1001
ACAD
1000
MTEXTBEGIN
1070
    73
1070
     1
1070
    44
1040
1.0
1070
    74
1070
     0
1000
MTEXTEND
  0
POINT
  5
18D6
330
14DB
100
AcDbEntity
  8
Defpoints
 62
     0
100
AcDbPoint
 10
299.1955467127005
 20
289.237773222337
 30
0.0
  0
POINT
  5
18D7
330
14DB
100
AcDbEntity
  8
Defpoints
 62
     0
100
AcDbPoint
 10
279.7365467127007
 20
301.237773222337
 30
0.0
  0
POINT
  5
18D8
330
14DB
100
AcDbEntity
  8
Defpoints
 62
     0
100
AcDbPoint
 10
317.3262854412948
 20
301.237773222337
 30
0.0
  0
ENDBLK
  5
14E6
330
14DB
100
AcDbEntity
  8
0
100
AcDbBlockEnd
  0
BLOCK
  5
150B
330
1501
100
AcDbEntity
  8
0
100
AcDbBlockBegin
  2
*D64
 70
     1
 10
0.0
 20
0.0
 30
0.0
  3
*D64
  1

  0
LINE
  5
18D9
330
1501
100
AcDbEntity
  8
Dim
100
AcDbLine
 10
274.6775467127005
 20
295.6677732223369
 30
0.0
 11
274.6775467127005
 21
264.237773222337
 31
0.0
  0
LINE
  5
18DA
330
1501
100
AcDbEntity
  8
Dim
100
AcDbLine
 10
294.6775467127005
 20
284.0177732223367
 30
0.0
 11
294.6775467127005
 21
264.237773222337
 31
0.0
  0
LINE
  5
18DB
330
1501
100
AcDbEntity
  8
Dim
100
AcDbLine
 10
276.6775467127005
 20
265.237773222337
 30
0.0
 11
292.6775467127005
 21
265.237773222337
 31
0.0
  0
SOLID
  5
18DC
330
1501
100
AcDbEntity
  8
Dim
100
AcDbTrace
 10
276.6775467127005
 20
265.5711065556703
 30
0.0
 11
276.6775467127005
 21
264.9044398890037
 31
0.0
 12
274.6775467127005
 22
265.237773222337
 32
0.0
 13
274.6775467127005
 23
265.237773222337
 33
0.0
  0
SOLID
  5
18DD
330
1501
100
AcDbEntity
  8
Dim
100
AcDbTrace
 10
292.6775467127005
 20
265.5711065556703
 30
0.0
 11
292.6775467127005
 21
264.9044398890037
 31
0.0
 12
294.6775467127005
 22
265.237773222337
 32
0.0
 13
294.6775467127005
 23
265.237773222337
 33
0.0
  0
MTEXT
  5
18DE
330
1501
100
AcDbEntity
  8
Dim
100
AcDbMText
 10
284.6775467127005
 20
267.487773222337
 30
0.0
 40
2.5
 41
0.0
 71
     5
 72
     1
  1
\A1;20
  7
China
 73
     1
 44
1.0
1001
ACAD
1000
MTEXTBEGIN
1070
    73
1070
     1
1070
    44
1040
1.0
1070
    74
1070
     0
1000
MTEXTEND
  0
POINT
  5
18DF
330
1501
100
AcDbEntity
  8
Defpoints
 62
     0
100
AcDbPoint
 10
274.6775467127005
 20
296.6677732223368
 30
0.0
  0
POINT
  5
18E0
330
1501
100
AcDbEntity
  8
Defpoints
 62
     0
100
AcDbPoint
 10
294.6775467127005
 20
285.0177732223368
 30
0.0
  0
POINT
  5
18E1
330
1501
100
AcDbEntity
  8
Defpoints
 62
     0
100
AcDbPoint
 10
294.6775467127005
 20
265.237773222337
 30
0.0
  0
ENDBLK
  5
150C
330
1501
100
AcDbEntity
  8
0
100
AcDbBlockEnd
  0
BLOCK
  5
1531
330
1527
100
AcDbEntity
  8
0
100
AcDbBlockBegin
  2
*D65
 70
     1
 10
0.0
 20
0.0
 30
0.0
  3
*D65
  1

  0
LINE
  5
18E2
330
1527
100
AcDbEntity
  8
Dim
100
AcDbLine
 10
294.6775467127005
 20
284.0177732223367
 30
0.0
 11
294.6775467127005
 21
264.237773222337
 31
0.0
  0
LINE
  5
18E3
330
1527
100
AcDbEntity
  8
Dim
100
AcDbLine
 10
303.6775467127005
 20
276.237773222337
 30
0.0
 11
303.6775467127005
 21
264.237773222337
 31
0.0
  0
LINE
  5
18E4
330
1527
100
AcDbEntity
  8
Dim
100
AcDbLine
 10
296.6775467127005
 20
265.2377732223369
 30
0.0
 11
301.6775467127005
 21
265.2377732223369
 31
0.0
  0
SOLID
  5
18E5
330
1527
100
AcDbEntity
  8
Dim
100
AcDbTrace
 10
296.6775467127005
 20
265.5711065556703
 30
0.0
 11
296.6775467127005
 21
264.9044398890036
 31
0.0
 12
294.6775467127005
 22
265.2377732223369
 32
0.0
 13
294.6775467127005
 23
265.2377732223369
 33
0.0
  0
SOLID
  5
18E6
330
1527
100
AcDbEntity
  8
Dim
100
AcDbTrace
 10
301.6775467127005
 20
265.5711065556703
 30
0.0
 11
301.6775467127005
 21
264.9044398890036
 31
0.0
 12
303.6775467127005
 22
265.2377732223369
 32
0.0
 13
303.6775467127005
 23
265.2377732223369
 33
0.0
  0
MTEXT
  5
18E7
330
1527
100
AcDbEntity
  8
Dim
100
AcDbMText
 10
299.1775467127005
 20
267.4877732223369
 30
0.0
 40
2.5
 41
0.0
 71
     5
 72
     1
  1
\A1;9
  7
China
 73
     1
 44
1.0
1001
ACAD
1000
MTEXTBEGIN
1070
    73
1070
     1
1070
    44
1040
1.0
1070
    74
1070
     0
1000
MTEXTEND
  0
POINT
  5
18E8
330
1527
100
AcDbEntity
  8
Defpoints
 62
     0
100
AcDbPoint
 10
294.6775467127005
 20
285.0177732223368
 30
0.0
  0
POINT
  5
18E9
330
1527
100
AcDbEntity
  8
Defpoints
 62
     0
100
AcDbPoint
 10
303.6775467127005
 20
277.237773222337
 30
0.0
  0
POINT
  5
18EA
330
1527
100
AcDbEntity
  8
Defpoints
 62
     0
100
AcDbPoint
 10
303.6775467127005
 20
265.2377732223369
 30
0.0
  0
ENDBLK
  5
1532
330
1527
100
AcDbEntity
  8
0
100
AcDbBlockEnd
  0
BLOCK
  5
1573
330
1569
100
AcDbEntity
  8
0
100
AcDbBlockBegin
  2
*D66
 70
     1
 10
0.0
 20
0.0
 30
0.0
  3
*D66
  1

  0
LINE
  5
15A4
330
1569
100
AcDbEntity
  8
Dim
100
AcDbLine
 10
285.2885467127004
 20
382.4597963674346
 30
0.0
 11
324.6775467127005
 21
382.4597963674346
 31
0.0
  0
LINE
  5
15A5
330
1569
100
AcDbEntity
  8
Dim
100
AcDbLine
 10
285.4005467127005
 20
409.4597963674345
 30
0.0
 11
324.6775467127005
 21
409.4597963674345
 31
0.0
  0
LINE
  5
15A6
330
1569
100
AcDbEntity
  8
Dim
100
AcDbLine
 10
323.6775467127005
 20
384.4597963674346
 30
0.0
 11
323.6775467127005
 21
407.4597963674346
 31
0.0
  0
SOLID
  5
15A7
330
1569
100
AcDbEntity
  8
Dim
100
AcDbTrace
 10
323.3442133793672
 20
384.4597963674346
 30
0.0
 11
324.0108800460338
 21
384.4597963674346
 31
0.0
 12
323.6775467127005
 22
382.4597963674346
 32
0.0
 13
323.6775467127005
 23
382.4597963674346
 33
0.0
  0
SOLID
  5
15A8
330
1569
100
AcDbEntity
  8
Dim
100
AcDbTrace
 10
323.3442133793672
 20
407.4597963674346
 30
0.0
 11
324.0108800460338
 21
407.4597963674346
 31
0.0
 12
323.6775467127005
 22
409.4597963674345
 32
0.0
 13
323.6775467127005
 23
409.4597963674345
 33
0.0
  0
MTEXT
  5
15A9
330
1569
100
AcDbEntity
  8
Dim
100
AcDbMText
 10
321.4275467127004
 20
395.9597963674347
 30
0.0
 40
2.5
 41
0.0
 71
     5
 72
     1
  1
\A1;27
  7
China
 11
0.0000000000000001
 21
1.0
 31
0.0
 73
     1
 44
1.0
1001
ACAD
1000
MTEXTBEGIN
1070
    73
1070
     1
1070
    44
1040
1.0
1070
    74
1070
     0
1000
MTEXTEND
  0
POINT
  5
15AA
330
1569
100
AcDbEntity
  8
Defpoints
 62
     0
100
AcDbPoint
 10
284.2885467127004
 20
382.4597963674346
 30
0.0
  0
POINT
  5
15AB
330
1569
100
AcDbEntity
  8
Defpoints
 62
     0
100
AcDbPoint
 10
284.4005467127005
 20
409.4597963674345
 30
0.0
  0
POINT
  5
15AC
330
1569
100
AcDbEntity
  8
Defpoints
 62
     0
100
AcDbPoint
 10
323.6775467127005
 20
409.4597963674345
 30
0.0
  0
ENDBLK
  5
1574
330
1569
100
AcDbEntity
  8
0
100
AcDbBlockEnd
  0
BLOCK
  5
1625
330
1619
100
AcDbEntity
  8
0
100
AcDbBlockBegin
  2
*D67
 70
     1
 10
0.0
 20
0.0
 30
0.0
  3
*D67
  1

  0
LINE
  5
1813
330
1619
100
AcDbEntity
  8
Dim
100
AcDbLine
 10
557.9427905053027
 20
435.9597963674345
 30
0.0
 11
573.2703075699147
 21
435.9597963674345
 31
0.0
  0
LINE
  5
1814
330
1619
100
AcDbEntity
  8
Dim
100
AcDbLine
 10
554.5844887267545
 20
430.9597963674345
 30
0.0
 11
573.2703075699147
 21
430.9597963674345
 31
0.0
  0
LINE
  5
1815
330
1619
100
AcDbEntity
  8
Dim
100
AcDbLine
 10
572.2703075699147
 20
437.9597963674346
 30
0.0
 11
572.2703075699147
 21
439.9597963674345
 31
0.0
  0
LINE
  5
1816
330
1619
100
AcDbEntity
  8
Dim
100
AcDbLine
 10
572.2703075699147
 20
428.9597963674346
 30
0.0
 11
572.2703075699147
 21
426.9597963674345
 31
0.0
  0
LINE
  5
1817
330
1619
100
AcDbEntity
  8
Dim
100
AcDbLine
 10
572.2703075699147
 20
435.9597963674345
 30
0.0
 11
572.2703075699147
 21
430.9597963674345
 31
0.0
  0
SOLID
  5
1818
330
1619
100
AcDbEntity
  8
Dim
100
AcDbTrace
 10
571.9369742365813
 20
437.9597963674346
 30
0.0
 11
572.6036409032481
 21
437.9597963674346
 31
0.0
 12
572.2703075699147
 22
435.9597963674345
 32
0.0
 13
572.2703075699147
 23
435.9597963674345
 33
0.0
  0
SOLID
  5
1819
330
1619
100
AcDbEntity
  8
Dim
100
AcDbTrace
 10
571.9369742365813
 20
428.9597963674346
 30
0.0
 11
572.6036409032481
 21
428.9597963674346
 31
0.0
 12
572.2703075699147
 22
430.9597963674345
 32
0.0
 13
572.2703075699147
 23
430.9597963674345
 33
0.0
  0
MTEXT
  5
181A
330
1619
100
AcDbEntity
  8
Dim
100
AcDbMText
 10
570.0203075699146
 20
433.4597963674347
 30
0.0
 40
2.5
 41
0.0
 71
     5
 72
     1
  1
\A1;5
  7
China
 11
0.0000000000000001
 21
1.0
 31
0.0
 73
     1
 44
1.0
1001
ACAD
1000
MTEXTBEGIN
1070
    73
1070
     1
1070
    44
1040
1.0
1070
    74
1070
     0
1000
MTEXTEND
  0
POINT
  5
181B
330
1619
100
AcDbEntity
  8
Defpoints
 62
     0
100
AcDbPoint
 10
556.9427905053028
 20
435.9597963674345
 30
0.0
  0
POINT
  5
181C
330
1619
100
AcDbEntity
  8
Defpoints
 62
     0
100
AcDbPoint
 10
553.5844887267545
 20
430.9597963674345
 30
0.0
  0
POINT
  5
181D
330
1619
100
AcDbEntity
  8
Defpoints
 62
     0
100
AcDbPoint
 10
572.2703075699147
 20
430.9597963674345
 30
0.0
  0
ENDBLK
  5
1626
330
1619
100
AcDbEntity
  8
0
100
AcDbBlockEnd
  0
BLOCK
  5
184E
330
1844
100
AcDbEntity
  8
0
100
AcDbBlockBegin
  2
*D69
 70
     1
 10
0.0
 20
0.0
 30
0.0
  3
*D69
  1

  0
LINE
  5
186D
330
1844
100
AcDbEntity
  8
Dim
100
AcDbLine
 10
383.9029646981079
 20
378.4897963674348
 30
0.0
 11
383.9029646981079
 21
350.9597963674346
 31
0.0
  0
LINE
  5
186E
330
1844
100
AcDbEntity
  8
Dim
100
AcDbLine
 10
409.9029646981079
 20
404.6197963674349
 30
0.0
 11
409.9029646981079
 21
350.9597963674346
 31
0.0
  0
LINE
  5
186F
330
1844
100
AcDbEntity
  8
Dim
100
AcDbLine
 10
385.9029646981079
 20
351.9597963674346
 30
0.0
 11
407.9029646981078
 21
351.9597963674346
 31
0.0
  0
SOLID
  5
1870
330
1844
100
AcDbEntity
  8
Dim
100
AcDbTrace
 10
385.9029646981079
 20
352.2931297007679
 30
0.0
 11
385.9029646981079
 21
351.6264630341013
 31
0.0
 12
383.9029646981079
 22
351.9597963674346
 32
0.0
 13
383.9029646981079
 23
351.9597963674346
 33
0.0
  0
SOLID
  5
1871
330
1844
100
AcDbEntity
  8
Dim
100
AcDbTrace
 10
407.9029646981078
 20
352.2931297007679
 30
0.0
 11
407.9029646981078
 21
351.6264630341013
 31
0.0
 12
409.9029646981079
 22
351.9597963674346
 32
0.0
 13
409.9029646981079
 23
351.9597963674346
 33
0.0
  0
MTEXT
  5
1872
330
1844
100
AcDbEntity
  8
Dim
100
AcDbMText
 10
396.9029646981079
 20
354.2097963674346
 30
0.0
 40
2.5
 41
0.0
 71
     5
 72
     1
  1
\A1;26
  7
China
 73
     1
 44
1.0
1001
ACAD
1000
MTEXTBEGIN
1070
    73
1070
     1
1070
    44
1040
1.0
1070
    74
1070
     0
1000
MTEXTEND
  0
POINT
  5
1873
330
1844
100
AcDbEntity
  8
Defpoints
 62
     0
100
AcDbPoint
 10
383.9029646981079
 20
379.4897963674348
 30
0.0
  0
POINT
  5
1874
330
1844
100
AcDbEntity
  8
Defpoints
 62
     0
100
AcDbPoint
 10
409.9029646981079
 20
405.6197963674349
 30
0.0
  0
POINT
  5
1875
330
1844
100
AcDbEntity
  8
Defpoints
 62
     0
100
AcDbPoint
 10
409.9029646981079
 20
351.9597963674346
 30
0.0
  0
ENDBLK
  5
184F
330
1844
100
AcDbEntity
  8
0
100
AcDbBlockEnd
  0
BLOCK
  5
189C
330
1892
100
AcDbEntity
  8
0
100
AcDbBlockBegin
  2
*D70
 70
     1
 10
0.0
 20
0.0
 30
0.0
  3
*D70
  1

  0
LINE
  5
18AC
330
1892
100
AcDbEntity
  8
Dim
100
AcDbLine
 10
625.4796265323284
 20
426.9597963674345
 30
0.0
 11
625.4796265323284
 21
451.6633973611951
 31
0.0
  0
LINE
  5
18AD
330
1892
100
AcDbEntity
  8
Dim
100
AcDbLine
 10
641.4796265323284
 20
436.9597963674346
 30
0.0
 11
641.4796265323284
 21
451.6633973611951
 31
0.0
  0
LINE
  5
18AE
330
1892
100
AcDbEntity
  8
Dim
100
AcDbLine
 10
627.4796265323284
 20
450.6633973611951
 30
0.0
 11
639.4796265323284
 21
450.6633973611951
 31
0.0
  0
SOLID
  5
18AF
330
1892
100
AcDbEntity
  8
Dim
100
AcDbTrace
 10
627.4796265323284
 20
450.9967306945284
 30
0.0
 11
627.4796265323284
 21
450.3300640278618
 31
0.0
 12
625.4796265323284
 22
450.6633973611951
 32
0.0
 13
625.4796265323284
 23
450.6633973611951
 33
0.0
  0
SOLID
  5
18B0
330
1892
100
AcDbEntity
  8
Dim
100
AcDbTrace
 10
639.4796265323284
 20
450.9967306945284
 30
0.0
 11
639.4796265323284
 21
450.3300640278618
 31
0.0
 12
641.4796265323284
 22
450.6633973611951
 32
0.0
 13
641.4796265323284
 23
450.6633973611951
 33
0.0
  0
MTEXT
  5
18B1
330
1892
100
AcDbEntity
  8
Dim
100
AcDbMText
 10
633.4796265323284
 20
452.9133973611951
 30
0.0
 40
2.5
 41
0.0
 71
     5
 72
     1
  1
\A1;16
  7
China
 73
     1
 44
1.0
1001
ACAD
1000
MTEXTBEGIN
1070
    73
1070
     1
1070
    44
1040
1.0
1070
    74
1070
     0
1000
MTEXTEND
  0
POINT
  5
18B2
330
1892
100
AcDbEntity
  8
Defpoints
 62
     0
100
AcDbPoint
 10
625.4796265323284
 20
425.9597963674345
 30
0.0
  0
POINT
  5
18B3
330
1892
100
AcDbEntity
  8
Defpoints
 62
     0
100
AcDbPoint
 10
641.4796265323284
 20
435.9597963674345
 30
0.0
  0
POINT
  5
18B4
330
1892
100
AcDbEntity
  8
Defpoints
 62
     0
100
AcDbPoint
 10
641.4796265323284
 20
450.6633973611951
 30
0.0
  0
ENDBLK
  5
189D
330
1892
100
AcDbEntity
  8
0
100
AcDbBlockEnd
  0
ENDSEC
  0
SECTION
  2
ENTITIES
  0
DIMENSION
  5
D91
330
1F
100
AcDbEntity
  8
Dim
100
AcDbDimension
  2
*D26
 10
311.3397496933927
 20
482.443923740776
 30
0.0
 11
309.0897496933927
 21
492.443923740776
 31
0.0
 70
    32
 71
     5
 42
20.0
  3
Standard
100
AcDbAlignedDimension
 13
292.4765467127005
 23
502.443923740776
 33
0.0
 14
292.2955467127009
 24
482.443923740776
 34
0.0
 50
90.0
100
AcDbRotatedDimension
1001
ACAD
1000
DSTYLE
1002
{
1070
    41
1040
2.0
1070
    42
1040
1.0
1070
    44
1040
1.0
1070
    73
1070
     0
1070
    74
1070
     0
1070
    77
1070
     1
1070
    78
1070
     8
1070
    79
1070
     2
1070
   140
1040
2.5
1070
   141
1040
0.0
1070
   147
1040
1.0
1070
   172
1070
     1
1070
   174
1070
     1
1070
   176
1070
   256
1070
   177
1070
   256
1070
   178
1070
   256
1070
   271
1070
     2
1070
   272
1070
     2
1070
   340
1005
B92
1070
   371
1070
    -1
1070
   372
1070
    -1
1002
}
  0
LINE
  5
D92
330
1F
100
AcDbEntity
  8
0
100
AcDbLine
 10
303.6775467127005
 20
474.4439237407759
 30
0.0
 11
303.6775467127005
 21
510.4439237407759
 31
0.0
  0
LINE
  5
D93
330
1F
100
AcDbEntity
  8
Center
100
AcDbLine
 10
286.6775467127005
 20
507.6239237407762
 30
0.0
 11
286.6775467127005
 21
477.0439237407763
 31
0.0
  0
LINE
  5
D94
330
1F
100
AcDbEntity
  8
0
100
AcDbLine
 10
252.6775467127005
 20
512.9439237407759
 30
0.0
 11
252.6775467127005
 21
471.9439237407759
 31
0.0
  0
LINE
  5
D95
330
1F
100
AcDbEntity
  8
0
100
AcDbLine
 10
250.6775467127005
 20
512.9439237407759
 30
0.0
 11
250.6775467127005
 21
471.9439237407759
 31
0.0
  0
LINE
  5
D96
330
1F
100
AcDbEntity
  8
0
100
AcDbLine
 10
264.6775467127005
 20
471.9439237407759
 30
0.0
 11
264.6775467127005
 21
512.9439237407759
 31
0.0
  0
LINE
  5
D97
330
1F
100
AcDbEntity
  8
0
100
AcDbLine
 10
266.6775467127005
 20
471.9439237407759
 30
0.0
 11
266.6775467127005
 21
512.9439237407759
 31
0.0
  0
LINE
  5
D98
330
1F
100
AcDbEntity
  8
0
100
AcDbLine
 10
246.6775467127005
 20
477.443923740776
 30
0.0
 11
246.6775467127005
 21
507.443923740776
 31
0.0
  0
LINE
  5
D99
330
1F
100
AcDbEntity
  8
0
100
AcDbLine
 10
243.6775467127005
 20
477.443923740776
 30
0.0
 11
243.6775467127005
 21
507.443923740776
 31
0.0
  0
TEXT
  5
D9C
330
1F
100
AcDbEntity
  8
Dim
100
AcDbText
 10
193.207204917449
 20
258.4849051065929
 30
0.0
 40
3.2
  1
(Thread for mounting attachment)
  7
China
100
AcDbText
  0
TEXT
  5
D9F
330
1F
100
AcDbEntity
  8
Dim
100
AcDbText
 10
194.8161910862869
 20
264.3458752585614
 30
0.0
 40
3.2
  1
4-M4x0.7x5dpth
  7
China
100
AcDbText
  0
LINE
  5
DA2
330
1F
100
AcDbEntity
  8
0
  6
Continuous
 62
     7
100
AcDbLine
 10
641.4796265323284
 20
390.0797963674345
 30
0.0
 11
641.4796265323284
 21
355.9597963674346
 31
0.0
  0
LINE
  5
DA3
330
1F
100
AcDbEntity
  8
0
  6
Continuous
 62
     7
100
AcDbLine
 10
636.4796265323284
 20
365.9597963674346
 30
0.0
 11
636.4796265323284
 21
355.9597963674346
 31
0.0
  0
LINE
  5
DA4
330
1F
100
AcDbEntity
  8
Center
100
AcDbLine
 10
542.9427905053028
 20
438.9297963674346
 30
0.0
 11
542.9427905053028
 21
353.4997963674346
 31
0.0
  0
CIRCLE
  5
DA6
330
1F
100
AcDbEntity
  8
0
  6
Continuous
 62
     7
100
AcDbCircle
 10
535.9427905053028
 20
360.9597963674346
 30
0.0
 40
1.620999999999999
  0
LINE
  5
DA7
330
1F
100
AcDbEntity
  8
Center
100
AcDbLine
 10
535.9427905053028
 20
364.2197963674346
 30
0.0
 11
535.9427905053028
 21
357.6697963674346
 31
0.0
  0
LINE
  5
DA8
330
1F
100
AcDbEntity
  8
Center
100
AcDbLine
 10
549.9427905053027
 20
364.2897963674345
 30
0.0
 11
549.9427905053027
 21
357.4497963674346
 31
0.0
  0
CIRCLE
  5
DA9
330
1F
100
AcDbEntity
  8
0
  6
Continuous
 62
     7
100
AcDbCircle
 10
549.9427905053027
 20
360.9597963674346
 30
0.0
 40
1.620999999999999
  0
LINE
  5
DAB
330
1F
100
AcDbEntity
  8
0
  6
Continuous
 62
     7
100
AcDbLine
 10
528.9427905053027
 20
365.9597963674346
 30
0.0
 11
528.9427905053027
 21
355.9597963674346
 31
0.0
  0
LINE
  5
DAC
330
1F
100
AcDbEntity
  8
0
  6
Continuous
 62
     7
100
AcDbLine
 10
556.9427905053028
 20
365.9597963674346
 30
0.0
 11
556.9427905053028
 21
355.9597963674346
 31
0.0
  0
LINE
  5
DAE
330
1F
100
AcDbEntity
  8
0
  6
Continuous
 62
     7
100
AcDbLine
 10
528.9427905053027
 20
355.9597963674346
 30
0.0
 11
556.9427905053028
 21
355.9597963674346
 31
0.0
  0
TEXT
  5
DAF
330
1F
100
AcDbEntity
  8
Dim
100
AcDbText
 10
495.0818370015188
 20
339.5472910274643
 30
0.0
 40
3.2
  1
(Thread for mounting attachment)
  7
China
100
AcDbText
  0
TEXT
  5
DB2
330
1F
100
AcDbEntity
  8
Dim
100
AcDbText
 10
495.6718744779425
 20
344.6997963674346
 30
0.0
 40
3.2
  1
4-M4x0.7
  7
China
100
AcDbText
  0
LINE
  5
DB7
330
1F
100
AcDbEntity
  8
0
  6
Continuous
 62
     7
100
AcDbLine
 10
636.4796265323284
 20
355.9597963674346
 30
0.0
 11
641.4796265323284
 21
355.9597963674346
 31
0.0
  0
TEXT
  5
DB9
330
1F
100
AcDbEntity
  8
Dim
100
AcDbText
 10
354.3726811612488
 20
450.8314118523252
 30
0.0
 40
3.2
  1
(Mounting thred)
  7
China
100
AcDbText
  0
LEADER
  5
DBC
330
1F
100
AcDbEntity
  8
Dim
100
AcDbLeader
  3
Standard
 76
     3
 10
276.1665024695426
 20
303.0933966663731
 30
0.0
 10
287.5344714936954
 20
324.4507025063289
 30
0.0
 10
340.1300507814048
 20
324.4507025063289
 30
0.0
1001
ACAD
1000
DSTYLE
1002
{
1070
    41
1040
2.0
1070
    42
1040
1.0
1070
    44
1040
1.0
1070
    73
1070
     0
1070
    74
1070
     0
1070
    77
1070
     0
1070
    78
1070
     8
1070
    79
1070
     2
1070
   140
1040
2.5
1070
   141
1040
0.0
1070
   147
1040
1.0
1070
   172
1070
     1
1070
   174
1070
     1
1070
   176
1070
   256
1070
   177
1070
   256
1070
   178
1070
   256
1070
   271
1070
     2
1070
   272
1070
     2
1070
   340
1005
B92
1070
   371
1070
    -1
1070
   372
1070
    -1
1002
}
  0
DIMENSION
  5
DBE
330
1F
100
AcDbEntity
  8
Dim
100
AcDbDimension
  2
*D27
 10
224.0659360496053
 20
274.737773222337
 30
0.0
 11
221.8159360496053
 21
295.2377732223368
 31
0.0
 70
    32
 71
     5
 42
40.99999999999954
  3
Standard
100
AcDbAlignedDimension
 13
250.6775467127005
 23
315.7377732223366
 33
0.0
 14
250.6775467127005
 24
274.737773222337
 34
0.0
 50
90.0
100
AcDbRotatedDimension
1001
ACAD
1000
DSTYLE
1002
{
1070
    41
1040
2.0
1070
    42
1040
1.0
1070
    44
1040
1.0
1070
    73
1070
     0
1070
    74
1070
     0
1070
    77
1070
     1
1070
    78
1070
     8
1070
    79
1070
     2
1070
   140
1040
2.5
1070
   141
1040
0.0
1070
   147
1040
1.0
1070
   172
1070
     1
1070
   174
1070
     1
1070
   176
1070
   256
1070
   177
1070
   256
1070
   178
1070
   256
1070
   271
1070
     2
1070
   272
1070
     2
1070
   340
1005
B92
1070
   371
1070
    -1
1070
   372
1070
    -1
1002
}
  0
TEXT
  5
DBF
330
1F
100
AcDbEntity
  8
Dim
100
AcDbText
 10
311.4162910894998
 20
274.3473443570686
 30
0.0
 40
3.2
  1
(Finger opening port)
  7
China
100
AcDbText
  0
LINE
  5
DC0
330
1F
100
AcDbEntity
  8
Center
100
AcDbLine
 10
262.1775467127005
 20
280.5377732223367
 30
0.0
 11
262.1775467127005
 21
274.737773222337
 31
0.0
  0
LINE
  5
DC1
330
1F
100
AcDbEntity
  8
Center
100
AcDbLine
 10
255.1775467127005
 20
280.2977732223365
 30
0.0
 11
255.1775467127005
 21
274.737773222337
 31
0.0
  0
CIRCLE
  5
DC2
330
1F
100
AcDbEntity
  8
0
100
AcDbCircle
 10
255.1775467127005
 20
277.237773222337
 30
0.0
 40
2.2
  0
CIRCLE
  5
DC3
330
1F
100
AcDbEntity
  8
0
100
AcDbCircle
 10
262.1775467127005
 20
277.237773222337
 30
0.0
 40
2.2
  0
LINE
  5
DC4
330
1F
100
AcDbEntity
  8
0
100
AcDbLine
 10
250.6775467127005
 20
315.7377732223366
 30
0.0
 11
250.6775467127005
 21
274.737773222337
 31
0.0
  0
LINE
  5
DC5
330
1F
100
AcDbEntity
  8
0
100
AcDbLine
 10
264.6775467127005
 20
274.737773222337
 30
0.0
 11
264.6775467127005
 21
315.7377732223366
 31
0.0
  0
LINE
  5
DC6
330
1F
100
AcDbEntity
  8
0
100
AcDbLine
 10
266.6775467127005
 20
274.737773222337
 30
0.0
 11
266.6775467127005
 21
315.7377732223366
 31
0.0
  0
LINE
  5
DC7
330
1F
100
AcDbEntity
  8
0
100
AcDbLine
 10
252.6775467127005
 20
315.7377732223366
 30
0.0
 11
252.6775467127005
 21
274.737773222337
 31
0.0
  0
DIMENSION
  5
DC8
330
1F
100
AcDbEntity
  8
Dim
100
AcDbDimension
  2
*D28
 10
563.4427905053028
 20
456.4589993819752
 30
0.0
 11
542.9427905053028
 21
458.7089993819752
 31
0.0
 70
    32
 71
     5
 42
41.0
  3
Standard
100
AcDbAlignedDimension
 13
522.4427905053028
 23
425.9597963674345
 33
0.0
 14
563.4427905053028
 24
425.9597963674345
 34
0.0
100
AcDbRotatedDimension
1001
ACAD
1000
DSTYLE
1002
{
1070
    41
1040
2.0
1070
    42
1040
1.0
1070
    44
1040
1.0
1070
    73
1070
     0
1070
    74
1070
     0
1070
    77
1070
     1
1070
    78
1070
     8
1070
    79
1070
     2
1070
   140
1040
2.5
1070
   141
1040
0.0
1070
   147
1040
1.0
1070
   172
1070
     1
1070
   174
1070
     1
1070
   176
1070
   256
1070
   177
1070
   256
1070
   178
1070
   256
1070
   271
1070
     2
1070
   272
1070
     2
1070
   340
1005
B92
1070
   371
1070
    -1
1070
   372
1070
    -1
1002
}
  0
LINE
  5
DC9
330
1F
100
AcDbEntity
  8
0
100
AcDbLine
 10
528.9427905053027
 20
365.9597963674346
 30
0.0
 11
556.9427905053028
 21
365.9597963674346
 31
0.0
  0
LINE
  5
DCA
330
1F
100
AcDbEntity
  8
0
100
AcDbLine
 10
528.9427905053027
 20
425.9597963674345
 30
0.0
 11
556.9427905053028
 21
425.9597963674345
 31
0.0
  0
LINE
  5
DCB
330
1F
100
AcDbEntity
  8
0
100
AcDbLine
 10
558.4427905053027
 20
378.4697963674346
 30
0.0
 11
527.4427905053028
 21
378.4697963674346
 31
0.0
  0
LINE
  5
DCC
330
1F
100
AcDbEntity
  8
0
100
AcDbLine
 10
558.4427905053027
 20
385.9697963674346
 30
0.0
 11
527.4427905053028
 21
385.9697963674346
 31
0.0
  0
LINE
  5
DCD
330
1F
100
AcDbEntity
  8
0
100
AcDbLine
 10
558.4427905053027
 20
406.4597963674345
 30
0.0
 11
527.4427905053028
 21
406.4597963674345
 31
0.0
  0
LINE
  5
DCE
330
1F
100
AcDbEntity
  8
0
100
AcDbLine
 10
558.4427905053027
 20
413.9597963674345
 30
0.0
 11
527.4427905053028
 21
413.9597963674345
 31
0.0
  0
DIMENSION
  5
DCF
330
1F
100
AcDbEntity
  8
Dim
100
AcDbDimension
  2
*D29
 10
549.9427905053027
 20
442.9027773334216
 30
0.0
 11
542.9427905053028
 21
445.1527773334216
 31
0.0
 70
    32
 71
     5
 42
14.0
  3
Standard
100
AcDbAlignedDimension
 13
535.9427905053028
 23
434.8397963674345
 33
0.0
 14
549.9427905053027
 24
434.7597963674345
 34
0.0
100
AcDbRotatedDimension
1001
ACAD
1000
DSTYLE
1002
{
1070
    41
1040
2.0
1070
    42
1040
1.0
1070
    44
1040
1.0
1070
    73
1070
     0
1070
    74
1070
     0
1070
    77
1070
     1
1070
    78
1070
     8
1070
    79
1070
     2
1070
   140
1040
2.5
1070
   141
1040
0.0
1070
   147
1040
1.0
1070
   172
1070
     1
1070
   174
1070
     1
1070
   176
1070
   256
1070
   177
1070
   256
1070
   178
1070
   256
1070
   271
1070
     2
1070
   272
1070
     2
1070
   340
1005
B92
1070
   371
1070
    -1
1070
   372
1070
    -1
1002
}
  0
DIMENSION
  5
DD0
330
1F
100
AcDbEntity
  8
Dim
100
AcDbDimension
  2
*D30
 10
556.9427905053028
 20
449.3419829057955
 30
0.0
 11
542.9427905053028
 21
451.5919829057954
 31
0.0
 70
    32
 71
     5
 42
28.0
  3
Standard
100
AcDbAlignedDimension
 13
528.9427905053027
 23
435.9597963674345
 33
0.0
 14
556.9427905053028
 24
435.9597963674345
 34
0.0
100
AcDbRotatedDimension
1001
ACAD
1000
DSTYLE
1002
{
1070
    41
1040
2.0
1070
    42
1040
1.0
1070
    44
1040
1.0
1070
    73
1070
     0
1070
    74
1070
     0
1070
    77
1070
     1
1070
    78
1070
     8
1070
    79
1070
     2
1070
   140
1040
2.5
1070
   141
1040
0.0
1070
   147
1040
1.0
1070
   172
1070
     1
1070
   174
1070
     1
1070
   176
1070
   256
1070
   177
1070
   256
1070
   178
1070
   256
1070
   271
1070
     2
1070
   272
1070
     2
1070
   340
1005
B92
1070
   371
1070
    -1
1070
   372
1070
    -1
1002
}
  0
CIRCLE
  5
DD2
330
1F
100
AcDbEntity
  8
0
  6
Continuous
 62
     7
100
AcDbCircle
 10
535.9427905053028
 20
430.9597963674345
 30
0.0
 40
1.620999999999999
  0
LINE
  5
DD3
330
1F
100
AcDbEntity
  8
Center
100
AcDbLine
 10
532.2975078425566
 20
430.9597963674345
 30
0.0
 11
539.5844887267545
 21
430.9597963674345
 31
0.0
  0
LINE
  5
DD4
330
1F
100
AcDbEntity
  8
0
  6
Continuous
 62
     7
100
AcDbLine
 10
528.9427905053027
 20
435.9597963674345
 30
0.0
 11
556.9427905053028
 21
435.9597963674345
 31
0.0
  0
LINE
  5
DD5
330
1F
100
AcDbEntity
  8
0
  6
Continuous
 62
     7
100
AcDbLine
 10
522.4427905053028
 20
370.9597963674346
 30
0.0
 11
563.4427905053028
 21
370.9597963674346
 31
0.0
  0
LINE
  5
DD6
330
1F
100
AcDbEntity
  8
0
  6
Continuous
 62
     7
100
AcDbLine
 10
522.4427905053028
 20
420.9597963674346
 30
0.0
 11
563.4427905053028
 21
420.9597963674346
 31
0.0
  0
LINE
  5
DD7
330
1F
100
AcDbEntity
  8
Center
100
AcDbLine
 10
512.4027905053028
 20
395.9597963674346
 30
0.0
 11
573.6027905053027
 21
395.9597963674346
 31
0.0
  0
LINE
  5
DD8
330
1F
100
AcDbEntity
  8
0
  6
Continuous
 62
     7
100
AcDbLine
 10
522.4427905053028
 20
396.9597963674346
 30
0.0
 11
522.4427905053028
 21
425.9597963674345
 31
0.0
  0
LINE
  5
DD9
330
1F
100
AcDbEntity
  8
0
  6
Continuous
 62
     7
100
AcDbLine
 10
527.4427905053028
 20
396.9597963674346
 30
0.0
 11
527.4427905053028
 21
420.9597963674346
 31
0.0
  0
LINE
  5
DDA
330
1F
100
AcDbEntity
  8
0
  6
Continuous
 62
     7
100
AcDbLine
 10
527.4427905053028
 20
394.9597963674346
 30
0.0
 11
527.4427905053028
 21
370.9597963674346
 31
0.0
  0
LINE
  5
DDB
330
1F
100
AcDbEntity
  8
0
  6
Continuous
 62
     7
100
AcDbLine
 10
522.4427905053028
 20
394.9597963674346
 30
0.0
 11
522.4427905053028
 21
365.9597963674346
 31
0.0
  0
LINE
  5
DDC
330
1F
100
AcDbEntity
  8
0
  6
Continuous
 62
     7
100
AcDbLine
 10
522.4427905053028
 20
365.9597963674346
 30
0.0
 11
528.9427905053027
 21
365.9597963674346
 31
0.0
  0
LINE
  5
DDD
330
1F
100
AcDbEntity
  8
0
  6
Continuous
 62
     7
100
AcDbLine
 10
522.4427905053028
 20
394.9597963674346
 30
0.0
 11
527.4427905053028
 21
394.9597963674346
 31
0.0
  0
LINE
  5
DDE
330
1F
100
AcDbEntity
  8
0
  6
Continuous
 62
     7
100
AcDbLine
 10
522.4427905053028
 20
396.9597963674346
 30
0.0
 11
527.4427905053028
 21
396.9597963674346
 31
0.0
  0
LINE
  5
DDF
330
1F
100
AcDbEntity
  8
0
  6
Continuous
 62
     7
100
AcDbLine
 10
528.9427905053027
 20
435.9597963674345
 30
0.0
 11
528.9427905053027
 21
425.9597963674345
 31
0.0
  0
LINE
  5
DE0
330
1F
100
AcDbEntity
  8
Center
100
AcDbLine
 10
535.9427905053028
 20
434.8397963674345
 30
0.0
 11
535.9427905053028
 21
427.2497963674346
 31
0.0
  0
LINE
  5
DE1
330
1F
100
AcDbEntity
  8
0
  6
Continuous
 62
     7
100
AcDbLine
 10
522.4427905053028
 20
425.9597963674345
 30
0.0
 11
528.9427905053027
 21
425.9597963674345
 31
0.0
  0
LINE
  5
DE2
330
1F
100
AcDbEntity
  8
0
  6
Continuous
 62
     7
100
AcDbLine
 10
563.4427905053028
 20
396.9597963674346
 30
0.0
 11
563.4427905053028
 21
425.9597963674345
 31
0.0
  0
LINE
  5
DE3
330
1F
100
AcDbEntity
  8
0
  6
Continuous
 62
     7
100
AcDbLine
 10
558.4427905053027
 20
396.9597963674346
 30
0.0
 11
558.4427905053027
 21
420.9597963674346
 31
0.0
  0
LINE
  5
DE4
330
1F
100
AcDbEntity
  8
0
  6
Continuous
 62
     7
100
AcDbLine
 10
556.9427905053028
 20
365.9597963674346
 30
0.0
 11
563.4427905053028
 21
365.9597963674346
 31
0.0
  0
LINE
  5
DE5
330
1F
100
AcDbEntity
  8
0
  6
Continuous
 62
     7
100
AcDbLine
 10
563.4427905053028
 20
394.9597963674346
 30
0.0
 11
563.4427905053028
 21
365.9597963674346
 31
0.0
  0
LINE
  5
DE6
330
1F
100
AcDbEntity
  8
0
  6
Continuous
 62
     7
100
AcDbLine
 10
558.4427905053027
 20
394.9597963674346
 30
0.0
 11
558.4427905053027
 21
370.9597963674346
 31
0.0
  0
LINE
  5
DE7
330
1F
100
AcDbEntity
  8
0
  6
Continuous
 62
     7
100
AcDbLine
 10
563.4427905053028
 20
394.9597963674346
 30
0.0
 11
558.4427905053027
 21
394.9597963674346
 31
0.0
  0
LINE
  5
DE8
330
1F
100
AcDbEntity
  8
0
  6
Continuous
 62
     7
100
AcDbLine
 10
558.4427905053027
 20
396.9597963674346
 30
0.0
 11
563.4427905053028
 21
396.9597963674346
 31
0.0
  0
POINT
  5
DE9
330
1F
100
AcDbEntity
  8
Center
100
AcDbPoint
 10
542.9427905053028
 20
395.9597963674346
 30
0.0
  0
LINE
  5
DEC
330
1F
100
AcDbEntity
  8
0
  6
Continuous
 62
     7
100
AcDbLine
 10
556.9427905053028
 20
425.9597963674345
 30
0.0
 11
563.4427905053028
 21
425.9597963674345
 31
0.0
  0
LINE
  5
DED
102
{ACAD_REACTORS
330
1628
102
}
330
1F
100
AcDbEntity
  8
0
  6
Continuous
 62
     7
100
AcDbLine
 10
556.9427905053028
 20
435.9597963674345
 30
0.0
 11
556.9427905053028
 21
425.9597963674345
 31
0.0
  0
CIRCLE
  5
DEE
330
1F
100
AcDbEntity
  8
0
  6
Continuous
 62
     7
100
AcDbCircle
 10
549.9427905053027
 20
430.9597963674345
 30
0.0
 40
1.620999999999999
  0
LINE
  5
DF0
330
1F
100
AcDbEntity
  8
Center
100
AcDbLine
 10
549.9427905053027
 20
434.7597963674345
 30
0.0
 11
549.9427905053027
 21
427.3197963674345
 31
0.0
  0
LINE
  5
DF7
330
1F
100
AcDbEntity
  8
0
100
AcDbLine
 10
250.6775467127005
 20
274.737773222337
 30
0.0
 11
266.6775467127005
 21
274.737773222337
 31
0.0
  0
TEXT
  5
DF8
330
1F
100
AcDbEntity
  8
Dim
100
AcDbText
 10
290.265912176047
 20
320.0507025063294
 30
0.0
 40
3.2
  1
(Finger closing port)
  7
China
100
AcDbText
  0
TEXT
  5
DFC
330
1F
100
AcDbEntity
  8
Dim
100
AcDbText
 10
290.100912176047
 20
325.5907025063292
 30
0.0
 40
3.2
  1
M5x0.8
  7
China
100
AcDbText
  0
LINE
  5
DFD
330
1F
100
AcDbEntity
  8
Center
100
AcDbLine
 10
615.1066265323288
 20
395.9597963674346
 30
0.0
 11
682.2386265323284
 21
395.9597963674346
 31
0.0
  0
ARC
  5
DFE
330
1F
100
AcDbEntity
  8
0
100
AcDbCircle
 10
643.4796265323284
 20
391.9597963674346
 30
0.0
 40
3.225
100
AcDbArc
 50
90.0
 51
181.3599999999995
  0
ARC
  5
DFF
330
1F
100
AcDbEntity
  8
0
100
AcDbCircle
 10
643.4796265323284
 20
399.9597963674346
 30
0.0
 40
3.225
100
AcDbArc
 50
178.6400000000004
 51
270.0
  0
ARC
  5
E00
330
1F
100
AcDbEntity
  8
0
100
AcDbCircle
 10
643.4796265323284
 20
399.9597963674346
 30
0.0
 40
3.225
100
AcDbArc
 50
90.0
 51
128.3270000000014
  0
LINE
  5
E01
330
1F
100
AcDbEntity
  8
0
100
AcDbLine
 10
641.4796265323284
 20
413.9597963674345
 30
0.0
 11
678.4796265323284
 21
413.9597963674345
 31
0.0
  0
ARC
  5
E02
330
1F
100
AcDbEntity
  8
0
100
AcDbCircle
 10
643.4796265323284
 20
391.9597963674346
 30
0.0
 40
3.225
100
AcDbArc
 50
231.6729999999986
 51
270.0
  0
LINE
  5
E03
330
1F
100
AcDbEntity
  8
0
100
AcDbLine
 10
641.4796265323284
 20
377.9597963674346
 30
0.0
 11
678.4796265323284
 21
377.9597963674346
 31
0.0
  0
LINE
  5
E04
330
1F
100
AcDbEntity
  8
Center
100
AcDbLine
 10
623.8396265323281
 20
386.9597963674346
 30
0.0
 11
643.1196265323283
 21
386.9597963674346
 31
0.0
  0
LINE
  5
E05
102
{ACAD_REACTORS
330
1471
102
}
330
1F
100
AcDbEntity
  8
Center
100
AcDbLine
 10
624.0196265323284
 20
404.9597963674345
 30
0.0
 11
642.9996265323284
 21
404.9597963674345
 31
0.0
  0
LINE
  5
E06
330
1F
100
AcDbEntity
  8
Center
100
AcDbLine
 10
598.0996265323283
 20
395.9597963674346
 30
0.0
 11
668.0896265323281
 21
395.9597963674346
 31
0.0
  0
LINE
  5
E08
330
1F
100
AcDbEntity
  8
0
100
AcDbLine
 10
621.4806265323286
 20
413.9597963674345
 30
0.0
 11
618.4796265323284
 21
406.4597963674345
 31
0.0
  0
LINE
  5
E0A
330
1F
100
AcDbEntity
  8
0
  6
Continuous
 62
     7
100
AcDbLine
 10
625.4796265323284
 20
401.8297963674345
 30
0.0
 11
625.4796265323284
 21
425.9597963674345
 31
0.0
  0
LINE
  5
E0B
330
1F
100
AcDbEntity
  8
0
  6
Continuous
 62
     7
100
AcDbLine
 10
641.4796265323284
 20
401.8297963674345
 30
0.0
 11
641.4796265323284
 21
435.9597963674345
 31
0.0
  0
LINE
  5
E0C
330
1F
100
AcDbEntity
  8
Divide
  6
ACISOTGB
 48
0.5
100
AcDbLine
 10
602.3696265323283
 20
406.4597963674345
 30
0.0
 11
602.1296265323281
 21
411.4597963674346
 31
0.0
  0
LINE
  5
E0D
330
1F
100
AcDbEntity
  8
Divide
  6
ACISOTGB
 48
0.5
100
AcDbLine
 10
612.3596265323286
 20
406.9397963674346
 30
0.0
 11
602.3696265323283
 21
406.4597963674345
 31
0.0
  0
LINE
  5
E0E
330
1F
100
AcDbEntity
  8
Divide
  6
ACISOTGB
 48
0.5
100
AcDbLine
 10
612.3596265323286
 20
384.9697963674346
 30
0.0
 11
602.3696265323283
 21
385.4497963674346
 31
0.0
  0
LINE
  5
E0F
330
1F
100
AcDbEntity
  8
Divide
  6
ACISOTGB
 48
0.5
100
AcDbLine
 10
620.8396265323281
 20
379.5597963674345
 30
0.0
 11
602.1296265323281
 21
380.4597963674346
 31
0.0
  0
LINE
  5
E10
330
1F
100
AcDbEntity
  8
Divide
  6
ACISOTGB
 48
0.5
100
AcDbLine
 10
602.3696265323283
 20
385.4497963674346
 30
0.0
 11
602.1296265323281
 21
380.4597963674346
 31
0.0
  0
LINE
  5
E11
330
1F
100
AcDbEntity
  8
0
100
AcDbLine
 10
621.4816265323288
 20
377.9597963674346
 30
0.0
 11
618.4796265323284
 21
385.4697963674348
 31
0.0
  0
LINE
  5
E12
330
1F
100
AcDbEntity
  8
0
100
AcDbLine
 10
621.4816265323288
 20
377.9597963674346
 30
0.0
 11
625.4796265323284
 21
377.9597963674346
 31
0.0
  0
LINE
  5
E13
330
1F
100
AcDbEntity
  8
0
100
AcDbLine
 10
618.4796265323284
 20
385.4697963674348
 30
0.0
 11
618.4796265323284
 21
406.4597963674345
 31
0.0
  0
LINE
  5
E14
330
1F
100
AcDbEntity
  8
0
  6
Continuous
 62
     7
100
AcDbLine
 10
631.4796265323284
 20
369.9597963674346
 30
0.0
 11
635.4796265323284
 21
369.9597963674346
 31
0.0
  0
LINE
  5
E15
330
1F
100
AcDbEntity
  8
0
  6
Continuous
 62
     7
100
AcDbLine
 10
631.4796265323284
 20
369.9597963674346
 30
0.0
 11
631.4796265323284
 21
370.9597963674346
 31
0.0
  0
LINE
  5
E16
330
1F
100
AcDbEntity
  8
0
  6
Continuous
 62
     7
100
AcDbLine
 10
635.4796265323284
 20
369.9597963674346
 30
0.0
 11
635.4796265323284
 21
370.9597963674346
 31
0.0
  0
LINE
  5
E17
330
1F
100
AcDbEntity
  8
0
  6
Continuous
 62
     7
100
AcDbLine
 10
635.4796265323284
 20
370.9597963674346
 30
0.0
 11
641.4796265323284
 21
370.9597963674346
 31
0.0
  0
ARC
  5
E18
330
1F
100
AcDbEntity
  8
0
  6
Continuous
 62
     7
100
AcDbCircle
 10
633.4796265323284
 20
386.9597963674346
 30
0.0
 40
3.0
100
AcDbArc
 50
199.4710000000013
 51
160.5289999999986
  0
LINE
  5
E19
330
1F
100
AcDbEntity
  8
0
  6
Continuous
 62
     7
100
AcDbLine
 10
631.4796265323284
 20
387.9597963674346
 30
0.0
 11
631.4796265323284
 21
385.9597963674346
 31
0.0
  0
ARC
  5
E1A
330
1F
100
AcDbEntity
  8
0
  6
Continuous
 62
     7
100
AcDbCircle
 10
633.4796265323284
 20
404.9597963674345
 30
0.0
 40
3.0
100
AcDbArc
 50
199.4710000000013
 51
160.5289999999986
  0
LINE
  5
E1B
330
1F
100
AcDbEntity
  8
0
  6
Continuous
 62
     7
100
AcDbLine
 10
631.4796265323284
 20
403.9597963674346
 30
0.0
 11
631.4796265323284
 21
405.9597963674345
 31
0.0
  0
LINE
  5
E1C
330
1F
100
AcDbEntity
  8
0
  6
Continuous
 62
     7
100
AcDbLine
 10
625.4796265323284
 20
390.0797963674345
 30
0.0
 11
625.4796265323284
 21
365.9597963674346
 31
0.0
  0
LINE
  5
E1D
330
1F
100
AcDbEntity
  8
0
  6
Continuous
 62
     7
100
AcDbLine
 10
629.4796265323284
 20
387.9597963674346
 30
0.0
 11
629.4796265323284
 21
385.9597963674346
 31
0.0
  0
LINE
  5
E1E
330
1F
100
AcDbEntity
  8
0
  6
Continuous
 62
     7
100
AcDbLine
 10
629.4796265323284
 20
403.9597963674346
 30
0.0
 11
629.4796265323284
 21
405.9597963674345
 31
0.0
  0
LINE
  5
E1F
330
1F
100
AcDbEntity
  8
Divide
  6
ACISOTGB
 48
0.5
100
AcDbLine
 10
612.3596265323286
 20
406.9397963674346
 30
0.0
 11
612.8896265323283
 21
395.9597963674346
 31
0.0
  0
LINE
  5
E20
330
1F
100
AcDbEntity
  8
Divide
  6
ACISOTGB
 48
0.5
100
AcDbLine
 10
618.4796265323284
 20
395.6897963674346
 30
0.0
 11
612.8896265323283
 21
395.9597963674346
 31
0.0
  0
LINE
  5
E21
330
1F
100
AcDbEntity
  8
Divide
  6
ACISOTGB
 48
0.5
100
AcDbLine
 10
618.4796265323284
 20
396.2297963674346
 30
0.0
 11
612.8896265323283
 21
395.9597963674346
 31
0.0
  0
LINE
  5
E22
330
1F
100
AcDbEntity
  8
Divide
  6
ACISOTGB
 48
0.5
100
AcDbLine
 10
612.8896265323283
 20
395.9597963674346
 30
0.0
 11
612.3596265323286
 21
384.9697963674346
 31
0.0
  0
LINE
  5
E23
330
1F
100
AcDbEntity
  8
0
  6
Continuous
 62
     7
100
AcDbLine
 10
625.4796265323284
 20
365.9597963674346
 30
0.0
 11
641.4796265323284
 21
365.9597963674346
 31
0.0
  0
LINE
  5
E24
330
1F
100
AcDbEntity
  8
0
  6
Continuous
 62
     7
100
AcDbLine
 10
625.4796265323284
 20
370.9597963674346
 30
0.0
 11
631.4796265323284
 21
370.9597963674346
 31
0.0
  0
ARC
  5
E25
330
1F
100
AcDbEntity
  8
0
  6
Continuous
 62
     7
100
AcDbCircle
 10
633.4796265323284
 20
385.9597963674346
 30
0.0
 40
9.0
100
AcDbArc
 50
27.26610000000069
 51
152.7340000000007
  0
LINE
  5
E26
330
1F
100
AcDbEntity
  8
0
  6
Continuous
 62
     7
100
AcDbLine
 10
631.4796265323284
 20
385.9597963674346
 30
0.0
 11
629.4796265323284
 21
385.9597963674346
 31
0.0
  0
LINE
  5
E27
330
1F
100
AcDbEntity
  8
0
  6
Continuous
 62
     7
100
AcDbLine
 10
631.4796265323284
 20
387.9597963674346
 30
0.0
 11
629.4796265323284
 21
387.9597963674346
 31
0.0
  0
ARC
  5
E28
330
1F
100
AcDbEntity
  8
0
  6
Continuous
 62
     7
100
AcDbCircle
 10
633.4796265323284
 20
405.9597963674345
 30
0.0
 40
9.0
100
AcDbArc
 50
207.2659999999993
 51
332.7340000000007
  0
LINE
  5
E29
330
1F
100
AcDbEntity
  8
0
  6
Continuous
 62
     7
100
AcDbLine
 10
629.4796265323284
 20
405.9597963674345
 30
0.0
 11
631.4796265323284
 21
405.9597963674345
 31
0.0
  0
LINE
  5
E2A
330
1F
100
AcDbEntity
  8
0
  6
Continuous
 62
     7
100
AcDbLine
 10
629.4796265323284
 20
403.9597963674346
 30
0.0
 11
631.4796265323284
 21
403.9597963674346
 31
0.0
  0
LINE
  5
E2B
330
1F
100
AcDbEntity
  8
Divide
  6
ACISOTGB
 48
0.5
100
AcDbLine
 10
620.8396265323281
 20
412.3597963674344
 30
0.0
 11
602.1296265323281
 21
411.4597963674346
 31
0.0
  0
LINE
  5
E2C
330
1F
100
AcDbEntity
  8
0
100
AcDbLine
 10
621.4796265323284
 20
413.9597963674345
 30
0.0
 11
625.4796265323284
 21
413.9597963674345
 31
0.0
  0
LINE
  5
E2D
102
{ACAD_REACTORS
330
1423
330
189F
102
}
330
1F
100
AcDbEntity
  8
0
  6
Continuous
 62
     7
100
AcDbLine
 10
636.4796265323284
 20
435.9597963674345
 30
0.0
 11
641.4796265323284
 21
435.9597963674345
 31
0.0
  0
LINE
  5
E2E
330
1F
100
AcDbEntity
  8
0
  6
Continuous
 62
     7
100
AcDbLine
 10
635.4796265323284
 20
421.9597963674345
 30
0.0
 11
631.4796265323284
 21
421.9597963674345
 31
0.0
  0
LINE
  5
E2F
330
1F
100
AcDbEntity
  8
0
  6
Continuous
 62
     7
100
AcDbLine
 10
631.4796265323284
 20
421.9597963674345
 30
0.0
 11
631.4796265323284
 21
420.9597963674346
 31
0.0
  0
LINE
  5
E30
330
1F
100
AcDbEntity
  8
0
  6
Continuous
 62
     7
100
AcDbLine
 10
635.4796265323284
 20
421.9597963674345
 30
0.0
 11
635.4796265323284
 21
420.9597963674346
 31
0.0
  0
LINE
  5
E31
330
1F
100
AcDbEntity
  8
0
  6
Continuous
 62
     7
100
AcDbLine
 10
641.4796265323284
 20
420.9597963674346
 30
0.0
 11
635.4796265323284
 21
420.9597963674346
 31
0.0
  0
LINE
  5
E32
102
{ACAD_REACTORS
330
1423
330
144B
330
1471
102
}
330
1F
100
AcDbEntity
  8
0
  6
Continuous
 62
     7
100
AcDbLine
 10
636.4796265323284
 20
425.9597963674345
 30
0.0
 11
636.4796265323284
 21
435.9597963674345
 31
0.0
  0
LINE
  5
E33
330
1F
100
AcDbEntity
  8
0
  6
Continuous
 62
     7
100
AcDbLine
 10
631.4796265323284
 20
420.9597963674346
 30
0.0
 11
625.4796265323284
 21
420.9597963674346
 31
0.0
  0
LINE
  5
E34
102
{ACAD_REACTORS
330
144B
330
189F
102
}
330
1F
100
AcDbEntity
  8
0
  6
Continuous
 62
     7
100
AcDbLine
 10
641.4796265323284
 20
425.9597963674345
 30
0.0
 11
625.4796265323284
 21
425.9597963674345
 31
0.0
  0
LINE
  5
E35
330
1F
100
AcDbEntity
  8
Center
100
AcDbLine
 10
655.4796265323284
 20
405.3897963674349
 30
0.0
 11
655.4796265323284
 21
413.189796367435
 31
0.0
  0
CIRCLE
  5
E37
330
1F
100
AcDbEntity
  8
0
100
AcDbCircle
 10
655.4796265323284
 20
409.4597963674345
 30
0.0
 40
2.064999999999999
  0
LINE
  5
E39
330
1F
100
AcDbEntity
  8
0
100
AcDbLine
 10
643.4796265323284
 20
377.9597963674346
 30
0.0
 11
643.4796265323284
 21
413.9597963674345
 31
0.0
  0
LINE
  5
E3A
330
1F
100
AcDbEntity
  8
0
100
AcDbLine
 10
678.4796265323284
 20
377.9597963674346
 30
0.0
 11
678.4796265323284
 21
413.9597963674345
 31
0.0
  0
LINE
  5
E3B
330
1F
100
AcDbEntity
  8
0
100
AcDbLine
 10
643.4796265323284
 20
402.4597963674345
 30
0.0
 11
678.4796265323284
 21
402.4597963674345
 31
0.0
  0
LINE
  5
E3C
330
1F
100
AcDbEntity
  8
0
100
AcDbLine
 10
643.4796265323284
 20
397.4597963674346
 30
0.0
 11
678.4796265323284
 21
397.4597963674346
 31
0.0
  0
LINE
  5
E3D
330
1F
100
AcDbEntity
  8
0
100
AcDbLine
 10
643.4796265323284
 20
394.4597963674346
 30
0.0
 11
678.4796265323284
 21
394.4597963674346
 31
0.0
  0
LINE
  5
E40
330
1F
100
AcDbEntity
  8
0
100
AcDbLine
 10
643.4796265323284
 20
389.4597963674346
 30
0.0
 11
678.4796265323284
 21
389.4597963674346
 31
0.0
  0
LINE
  5
E41
330
1F
100
AcDbEntity
  8
Center
100
AcDbLine
 10
651.9696265323286
 20
409.4597963674345
 30
0.0
 11
659.2026265323283
 21
409.4597963674345
 31
0.0
  0
LINE
  5
E42
330
1F
100
AcDbEntity
  8
Center
100
AcDbLine
 10
655.4796265323284
 20
378.6897963674351
 30
0.0
 11
655.4796265323284
 21
386.2597963674348
 31
0.0
  0
LINE
  5
E43
330
1F
100
AcDbEntity
  8
Center
100
AcDbLine
 10
651.8576265323286
 20
382.4597963674346
 30
0.0
 11
659.0906265323283
 21
382.4597963674346
 31
0.0
  0
CIRCLE
  5
E44
330
1F
100
AcDbEntity
  8
0
100
AcDbCircle
 10
655.4796265323284
 20
382.4597963674346
 30
0.0
 40
2.064999999999999
  0
POINT
  5
E47
330
1F
100
AcDbEntity
  8
0
100
AcDbPoint
 10
678.4796265323284
 20
395.9597963674346
 30
0.0
  0
TEXT
  5
E4B
330
1F
100
AcDbEntity
  8
Dim
100
AcDbText
 10
294.6450749825554
 20
356.0423170608335
 30
0.0
 40
3.2
  1
%%c4.2thru (Mounting hole)
  7
China
100
AcDbText
  0
DIMENSION
  5
E4D
330
1F
100
AcDbEntity
  8
Dim
100
AcDbDimension
  2
*D31
 10
232.4343062079675
 20
395.9597963674346
 30
0.0
 11
230.1843062079675
 21
400.4597963674346
 31
0.0
 70
    32
 71
     5
 42
9.0
  3
Standard
100
AcDbAlignedDimension
 13
249.215546712701
 23
404.9597963674345
 33
0.0
 14
232.4343062079675
 24
395.9597963674346
 34
0.0
 50
90.0
100
AcDbRotatedDimension
1001
ACAD
1000
DSTYLE
1002
{
1070
    41
1040
2.0
1070
    42
1040
1.0
1070
    44
1040
1.0
1070
    73
1070
     0
1070
    74
1070
     0
1070
    77
1070
     1
1070
    78
1070
     8
1070
    79
1070
     2
1070
   140
1040
2.5
1070
   141
1040
0.0
1070
   147
1040
1.0
1070
   172
1070
     1
1070
   174
1070
     1
1070
   176
1070
   256
1070
   177
1070
   256
1070
   178
1070
   256
1070
   271
1070
     2
1070
   272
1070
     2
1070
   340
1005
B92
1070
   371
1070
    -1
1070
   372
1070
    -1
1002
}
  0
DIMENSION
  5
E4E
330
1F
100
AcDbEntity
  8
Dim
100
AcDbDimension
  2
*D32
 10
232.4343062079675
 20
363.9597963674346
 30
0.0
 11
230.1843062079675
 21
379.9597963674346
 31
0.0
 70
    32
 71
     5
 42
32.0
  3
Standard
100
AcDbAlignedDimension
 13
240.3045467127009
 23
395.9597963674346
 33
0.0
 14
250.6775467127005
 24
363.9597963674346
 34
0.0
 50
90.0
100
AcDbRotatedDimension
1001
ACAD
1000
DSTYLE
1002
{
1070
    41
1040
2.0
1070
    42
1040
1.0
1070
    44
1040
1.0
1070
    73
1070
     0
1070
    74
1070
     0
1070
    77
1070
     1
1070
    78
1070
     8
1070
    79
1070
     2
1070
   140
1040
2.5
1070
   141
1040
0.0
1070
   147
1040
1.0
1070
   172
1070
     1
1070
   174
1070
     1
1070
   176
1070
   256
1070
   177
1070
   256
1070
   178
1070
   256
1070
   271
1070
     2
1070
   272
1070
     2
1070
   340
1005
B92
1070
   371
1070
    -1
1070
   372
1070
    -1
1002
}
  0
DIMENSION
  5
E4F
330
1F
100
AcDbEntity
  8
Dim
100
AcDbDimension
  2
*D33
 10
315.6775467127005
 20
391.9597963674346
 30
0.0
 11
313.4275467127004
 21
395.9597963674347
 31
0.0
 70
    32
 71
     5
 42
8.0
  3
Standard
100
AcDbAlignedDimension
 13
305.0055467127009
 23
399.9597963674346
 33
0.0
 14
305.3575467127008
 24
391.9597963674346
 34
0.0
 50
90.0
100
AcDbRotatedDimension
1001
ACAD
1000
DSTYLE
1002
{
1070
    41
1040
2.0
1070
    42
1040
1.0
1070
    44
1040
1.0
1070
    73
1070
     0
1070
    74
1070
     0
1070
    77
1070
     1
1070
    78
1070
     8
1070
    79
1070
     2
1070
   140
1040
2.5
1070
   141
1040
0.0
1070
   147
1040
1.0
1070
   172
1070
     1
1070
   174
1070
     1
1070
   176
1070
   256
1070
   177
1070
   256
1070
   178
1070
   256
1070
   271
1070
     2
1070
   272
1070
     2
1070
   340
1005
B92
1070
   371
1070
    -1
1070
   372
1070
    -1
1002
}
  0
DIMENSION
  5
E50
330
1F
100
AcDbEntity
  8
Dim
100
AcDbDimension
  2
*D34
 10
331.6775467127005
 20
377.9597963674346
 30
0.0
 11
329.4275467127004
 21
395.9597963674347
 31
0.0
 70
    32
 71
     5
 42
36.0
  3
Standard
100
AcDbAlignedDimension
 13
303.6775467127005
 23
413.9597963674345
 33
0.0
 14
303.6775467127005
 24
377.9597963674346
 34
0.0
 50
90.0
100
AcDbRotatedDimension
1001
ACAD
1000
DSTYLE
1002
{
1070
    41
1040
2.0
1070
    42
1040
1.0
1070
    44
1040
1.0
1070
    73
1070
     0
1070
    74
1070
     0
1070
    77
1070
     1
1070
    78
1070
     8
1070
    79
1070
     2
1070
   140
1040
2.5
1070
   141
1040
0.0
1070
   147
1040
1.0
1070
   172
1070
     1
1070
   174
1070
     1
1070
   176
1070
   256
1070
   177
1070
   256
1070
   178
1070
   256
1070
   271
1070
     2
1070
   272
1070
     2
1070
   340
1005
B92
1070
   371
1070
    -1
1070
   372
1070
    -1
1002
}
  0
LINE
  5
E51
330
1F
100
AcDbEntity
  8
0
100
AcDbLine
 10
303.6775467127005
 20
377.9597963674346
 30
0.0
 11
303.6775467127005
 21
413.9597963674345
 31
0.0
  0
ARC
  5
E52
330
1F
100
AcDbEntity
  8
0
100
AcDbCircle
 10
258.6775467127005
 20
386.9597963674346
 30
0.0
 40
3.0
100
AcDbArc
 50
199.4710000000014
 51
160.5289999999986
  0
LINE
  5
E53
330
1F
100
AcDbEntity
  8
0
100
AcDbLine
 10
268.6775467127005
 20
377.9597963674346
 30
0.0
 11
268.6775467127005
 21
413.9597963674345
 31
0.0
  0
LINE
  5
E54
330
1F
100
AcDbEntity
  8
0
100
AcDbLine
 10
243.6775467127005
 20
385.4697963674348
 30
0.0
 11
243.6775467127005
 21
406.4597963674345
 31
0.0
  0
LINE
  5
E55
330
1F
100
AcDbEntity
  8
Center
100
AcDbLine
 10
258.6775467127005
 20
363.3297963674345
 30
0.0
 11
258.6775467127005
 21
429.9597963674345
 31
0.0
  0
LINE
  5
E56
330
1F
100
AcDbEntity
  8
0
100
AcDbLine
 10
266.6775467127005
 20
390.0797963674345
 30
0.0
 11
266.6775467127005
 21
363.9597963674346
 31
0.0
  0
LINE
  5
E57
330
1F
100
AcDbEntity
  8
0
100
AcDbLine
 10
250.6775467127005
 20
390.0797963674345
 30
0.0
 11
250.6775467127005
 21
363.9597963674346
 31
0.0
  0
LINE
  5
E58
330
1F
100
AcDbEntity
  8
0
100
AcDbLine
 10
266.6775467127005
 20
377.9597963674346
 30
0.0
 11
303.6775467127005
 21
377.9597963674346
 31
0.0
  0
LINE
  5
E59
330
1F
100
AcDbEntity
  8
0
100
AcDbLine
 10
268.6775467127005
 20
389.4597963674346
 30
0.0
 11
303.6775467127005
 21
389.4597963674346
 31
0.0
  0
CIRCLE
  5
E5B
330
1F
100
AcDbEntity
  8
0
100
AcDbCircle
 10
280.6775467127005
 20
382.4597963674346
 30
0.0
 40
2.064999999999999
  0
LINE
  5
E5C
102
{ACAD_REACTORS
330
1576
102
}
330
1F
100
AcDbEntity
  8
Center
100
AcDbLine
 10
277.0555467127007
 20
382.4597963674346
 30
0.0
 11
284.2885467127004
 21
382.4597963674346
 31
0.0
  0
LINE
  5
E5D
330
1F
100
AcDbEntity
  8
0
100
AcDbLine
 10
268.6775467127005
 20
313.2377732223365
 30
0.0
 11
303.6775467127005
 21
313.2377732223365
 31
0.0
  0
LINE
  5
E5E
330
1F
100
AcDbEntity
  8
0
100
AcDbLine
 10
268.6775467127005
 20
277.237773222337
 30
0.0
 11
303.6775467127005
 21
277.237773222337
 31
0.0
  0
LINE
  5
E5F
330
1F
100
AcDbEntity
  8
Center
100
AcDbLine
 10
240.3045467127009
 20
295.237773222337
 30
0.0
 11
307.4365467127005
 21
295.237773222337
 31
0.0
  0
DIMENSION
  5
E60
330
1F
100
AcDbEntity
  8
Dim
100
AcDbDimension
  2
*D35
 10
236.5086113826643
 20
286.237773222337
 30
0.0
 11
234.2586113826643
 21
295.2377732223368
 31
0.0
 70
    32
 71
     5
 42
17.99999999999954
  3
Standard
100
AcDbAlignedDimension
 13
255.7475467127007
 23
304.2377732223366
 33
0.0
 14
255.639546712701
 24
286.237773222337
 34
0.0
 50
90.0
100
AcDbRotatedDimension
1001
ACAD
1000
DSTYLE
1002
{
1070
    41
1040
2.0
1070
    42
1040
1.0
1070
    44
1040
1.0
1070
    73
1070
     0
1070
    74
1070
     0
1070
    77
1070
     1
1070
    78
1070
     8
1070
    79
1070
     2
1070
   140
1040
2.5
1070
   141
1040
0.0
1070
   147
1040
1.0
1070
   172
1070
     1
1070
   174
1070
     1
1070
   176
1070
   256
1070
   177
1070
   256
1070
   178
1070
   256
1070
   271
1070
     2
1070
   272
1070
     2
1070
   340
1005
B92
1070
   371
1070
    -1
1070
   372
1070
    -1
1002
}
  0
LINE
  5
E61
330
1F
100
AcDbEntity
  8
0
100
AcDbLine
 10
243.6775467127005
 20
310.2377732223366
 30
0.0
 11
250.6775467127005
 21
310.2377732223366
 31
0.0
  0
LINE
  5
E62
330
1F
100
AcDbEntity
  8
0
100
AcDbLine
 10
243.6775467127005
 20
280.237773222337
 30
0.0
 11
250.6775467127005
 21
280.237773222337
 31
0.0
  0
DIMENSION
  5
E63
330
1F
100
AcDbEntity
  8
Dim
100
AcDbDimension
  2
*D36
 10
230.4196433761032
 20
280.237773222337
 30
0.0
 11
228.1696433761032
 21
295.2377732223368
 31
0.0
 70
    32
 71
     5
 42
29.99999999999955
  3
Standard
100
AcDbAlignedDimension
 13
243.6775467127005
 23
310.2377732223366
 33
0.0
 14
243.6775467127005
 24
280.237773222337
 34
0.0
 50
90.0
100
AcDbRotatedDimension
1001
ACAD
1000
DSTYLE
1002
{
1070
    41
1040
2.0
1070
    42
1040
1.0
1070
    44
1040
1.0
1070
    73
1070
     0
1070
    74
1070
     0
1070
    77
1070
     1
1070
    78
1070
     8
1070
    79
1070
     2
1070
   140
1040
2.5
1070
   141
1040
0.0
1070
   147
1040
1.0
1070
   172
1070
     1
1070
   174
1070
     1
1070
   176
1070
   256
1070
   177
1070
   256
1070
   178
1070
   256
1070
   271
1070
     2
1070
   272
1070
     2
1070
   340
1005
B92
1070
   371
1070
    -1
1070
   372
1070
    -1
1002
}
  0
LINE
  5
E64
330
1F
100
AcDbEntity
  8
0
100
AcDbLine
 10
246.6775467127005
 20
280.237773222337
 30
0.0
 11
246.6775467127005
 21
310.2377732223366
 31
0.0
  0
LINE
  5
E65
330
1F
100
AcDbEntity
  8
0
100
AcDbLine
 10
243.6775467127005
 20
280.237773222337
 30
0.0
 11
243.6775467127005
 21
310.2377732223366
 31
0.0
  0
LINE
  5
E66
330
1F
100
AcDbEntity
  8
Center
100
AcDbLine
 10
257.8885467127008
 20
313.2377732223365
 30
0.0
 11
252.4865467127007
 21
313.2377732223365
 31
0.0
  0
LINE
  5
E67
330
1F
100
AcDbEntity
  8
Center
100
AcDbLine
 10
264.7305467127004
 20
313.2377732223365
 30
0.0
 11
259.398546712701
 21
313.2377732223365
 31
0.0
  0
LINE
  5
E68
330
1F
100
AcDbEntity
  8
0
100
AcDbLine
 10
250.6775467127005
 20
315.7377732223366
 30
0.0
 11
266.6775467127005
 21
315.7377732223366
 31
0.0
  0
LINE
  5
E69
330
1F
100
AcDbEntity
  8
0
100
AcDbLine
 10
266.6775467127005
 20
310.2377732223366
 30
0.0
 11
268.6775467127005
 21
310.2377732223366
 31
0.0
  0
LINE
  5
E6A
330
1F
100
AcDbEntity
  8
0
100
AcDbLine
 10
268.6775467127005
 20
310.2377732223366
 30
0.0
 11
268.6775467127005
 21
313.2377732223365
 31
0.0
  0
LINE
  5
E6B
330
1F
100
AcDbEntity
  8
Center
100
AcDbLine
 10
262.1775467127005
 20
316.047773222337
 30
0.0
 11
262.1775467127005
 21
310.3577732223365
 31
0.0
  0
CIRCLE
  5
E6C
330
1F
100
AcDbEntity
  8
0
100
AcDbCircle
 10
262.1775467127005
 20
313.2377732223365
 30
0.0
 40
2.2
  0
LINE
  5
E6D
330
1F
100
AcDbEntity
  8
Center
100
AcDbLine
 10
255.1775467127005
 20
316.1177732223367
 30
0.0
 11
255.1775467127005
 21
310.5877732223369
 31
0.0
  0
CIRCLE
  5
E6E
330
1F
100
AcDbEntity
  8
0
100
AcDbCircle
 10
255.1775467127005
 20
313.2377732223365
 30
0.0
 40
2.2
  0
LINE
  5
E6F
102
{ACAD_REACTORS
330
150E
102
}
330
1F
100
AcDbEntity
  8
Center
100
AcDbLine
 10
274.6775467127005
 20
305.3077732223367
 30
0.0
 11
274.6775467127005
 21
296.6677732223368
 31
0.0
  0
CIRCLE
  5
E71
330
1F
100
AcDbEntity
  8
0
100
AcDbCircle
 10
274.6775467127005
 20
301.237773222337
 30
0.0
 40
2.067
  0
LINE
  5
E72
330
1F
100
AcDbEntity
  8
0
100
AcDbLine
 10
266.6775467127005
 20
280.237773222337
 30
0.0
 11
268.6775467127005
 21
280.237773222337
 31
0.0
  0
LINE
  5
E73
330
1F
100
AcDbEntity
  8
0
100
AcDbLine
 10
268.6775467127005
 20
277.237773222337
 30
0.0
 11
268.6775467127005
 21
280.237773222337
 31
0.0
  0
CIRCLE
  5
E75
330
1F
100
AcDbEntity
  8
0
100
AcDbCircle
 10
258.6775467127005
 20
304.2377732223366
 30
0.0
 40
1.620999999999999
  0
LINE
  5
E76
330
1F
100
AcDbEntity
  8
Center
100
AcDbLine
 10
258.6775467127005
 20
307.1377732223371
 30
0.0
 11
258.6775467127005
 21
300.9077732223371
 31
0.0
  0
CIRCLE
  5
E78
330
1F
100
AcDbEntity
  8
0
100
AcDbCircle
 10
258.6775467127005
 20
286.237773222337
 30
0.0
 40
1.620999999999999
  0
LINE
  5
E79
330
1F
100
AcDbEntity
  8
Center
100
AcDbLine
 10
258.6775467127005
 20
289.5377732223368
 30
0.0
 11
258.6775467127005
 21
283.5077732223366
 31
0.0
  0
LINE
  5
E7B
330
1F
100
AcDbEntity
  8
Center
100
AcDbLine
 10
257.8885467127008
 20
277.237773222337
 30
0.0
 11
252.166546712701
 21
277.237773222337
 31
0.0
  0
LINE
  5
E7C
330
1F
100
AcDbEntity
  8
Center
100
AcDbLine
 10
261.6625467127011
 20
304.2377732223366
 30
0.0
 11
255.7475467127007
 21
304.2377732223366
 31
0.0
  0
LINE
  5
E7D
330
1F
100
AcDbEntity
  8
Center
100
AcDbLine
 10
265.0475467127004
 20
277.237773222337
 30
0.0
 11
259.2765467127007
 21
277.237773222337
 31
0.0
  0
LINE
  5
E7E
330
1F
100
AcDbEntity
  8
Center
100
AcDbLine
 10
261.6265467127011
 20
286.237773222337
 30
0.0
 11
255.639546712701
 21
286.237773222337
 31
0.0
  0
LINE
  5
E7F
102
{ACAD_REACTORS
330
14E8
102
}
330
1F
100
AcDbEntity
  8
Center
100
AcDbLine
 10
269.8575467127008
 20
301.237773222337
 30
0.0
 11
279.7365467127007
 21
301.237773222337
 31
0.0
  0
DIMENSION
  5
E80
330
1F
100
AcDbEntity
  8
Dim
100
AcDbDimension
  2
*D37
 10
245.2966226870528
 20
363.9597963674346
 30
0.0
 11
245.2966226870527
 21
358.1264630341014
 31
0.0
 70
   160
 71
     5
 42
2.0
  3
Standard
100
AcDbAlignedDimension
 13
252.6775467127005
 23
365.9597963674346
 33
0.0
 14
245.2966226870532
 24
363.9597963674346
 34
0.0
 50
90.0
100
AcDbRotatedDimension
1001
ACAD
1000
DSTYLE
1002
{
1070
    41
1040
2.0
1070
    42
1040
1.0
1070
    44
1040
1.0
1070
    73
1070
     0
1070
    74
1070
     0
1070
    77
1070
     1
1070
    78
1070
     8
1070
    79
1070
     2
1070
   140
1040
2.5
1070
   141
1040
0.0
1070
   147
1040
1.0
1070
   172
1070
     1
1070
   174
1070
     1
1070
   176
1070
   256
1070
   177
1070
   256
1070
   178
1070
   256
1070
   271
1070
     2
1070
   272
1070
     2
1070
   340
1005
B92
1070
   371
1070
    -1
1070
   372
1070
    -1
1002
}
  0
DIMENSION
  5
E81
330
1F
100
AcDbEntity
  8
Dim
100
AcDbDimension
  2
*D38
 10
238.6969942465809
 20
370.9597963674346
 30
0.0
 11
236.4469942465808
 21
367.4597963674346
 31
0.0
 70
    32
 71
     5
 42
7.0
  3
Standard
100
AcDbAlignedDimension
 13
238.6969942465809
 23
363.9597963674346
 33
0.0
 14
250.6775467127005
 24
370.9597963674346
 34
0.0
 50
90.0
100
AcDbRotatedDimension
1001
ACAD
1000
DSTYLE
1002
{
1070
    41
1040
2.0
1070
    42
1040
1.0
1070
    44
1040
1.0
1070
    73
1070
     0
1070
    74
1070
     0
1070
    77
1070
     1
1070
    78
1070
     8
1070
    79
1070
     2
1070
   140
1040
2.5
1070
   141
1040
0.0
1070
   147
1040
1.0
1070
   172
1070
     1
1070
   174
1070
     1
1070
   176
1070
   256
1070
   177
1070
   256
1070
   178
1070
   256
1070
   271
1070
     2
1070
   272
1070
     2
1070
   340
1005
B92
1070
   371
1070
    -1
1070
   372
1070
    -1
1002
}
  0
DIMENSION
  5
E82
330
1F
100
AcDbEntity
  8
Dim
100
AcDbDimension
  2
*D39
 10
264.6775467127005
 20
353.8940491589678
 30
0.0
 11
255.5770885785247
 21
353.8940491589678
 31
0.0
 70
   160
 71
     5
 42
12.0
  3
Standard
100
AcDbAlignedDimension
 13
252.6775467127005
 23
363.9597963674346
 33
0.0
 14
264.6775467127005
 24
363.9597963674346
 34
0.0
100
AcDbRotatedDimension
1001
ACAD
1000
DSTYLE
1002
{
1070
    41
1040
2.0
1070
    42
1040
1.0
1070
    44
1040
1.0
1070
    73
1070
     0
1070
    74
1070
     0
1070
    77
1070
     1
1070
    78
1070
     8
1070
    79
1070
     2
1070
   140
1040
2.5
1070
   141
1040
0.0
1070
   147
1040
1.0
1070
   172
1070
     1
1070
   174
1070
     1
1070
   176
1070
   256
1070
   177
1070
   256
1070
   178
1070
   256
1070
   271
1070
     2
1070
   272
1070
     2
1070
   340
1005
B92
1070
   371
1070
    -1
1070
   372
1070
    -1
1002
}
  0
LINE
  5
E83
330
1F
100
AcDbEntity
  8
0
100
AcDbLine
 10
246.6795467127009
 20
377.9597963674346
 30
0.0
 11
250.6775467127005
 21
377.9597963674346
 31
0.0
  0
LINE
  5
E84
330
1F
100
AcDbEntity
  8
0
100
AcDbLine
 10
246.6795467127009
 20
377.9597963674346
 30
0.0
 11
243.6775467127005
 21
385.4697963674348
 31
0.0
  0
DIMENSION
  5
E85
330
1F
100
AcDbEntity
  8
Dim
100
AcDbDimension
  2
*D40
 10
266.6775467127005
 20
347.9228389472214
 30
0.0
 11
258.6775467127005
 21
350.1728389472214
 31
0.0
 70
    32
 71
     5
 42
16.0
  3
Standard
100
AcDbAlignedDimension
 13
250.6775467127005
 23
363.9597963674346
 33
0.0
 14
266.6775467127005
 24
363.9597963674346
 34
0.0
100
AcDbRotatedDimension
1001
ACAD
1000
DSTYLE
1002
{
1070
    41
1040
2.0
1070
    42
1040
1.0
1070
    44
1040
1.0
1070
    73
1070
     0
1070
    74
1070
     0
1070
    77
1070
     1
1070
    78
1070
     8
1070
    79
1070
     2
1070
   140
1040
2.5
1070
   141
1040
0.0
1070
   147
1040
1.0
1070
   172
1070
     1
1070
   174
1070
     1
1070
   176
1070
   256
1070
   177
1070
   256
1070
   178
1070
   256
1070
   271
1070
     2
1070
   272
1070
     2
1070
   340
1005
B92
1070
   371
1070
    -1
1070
   372
1070
    -1
1002
}
  0
ARC
  5
E86
330
1F
100
AcDbEntity
  8
0
100
AcDbCircle
 10
268.6775467127005
 20
391.9597963674346
 30
0.0
 40
3.225
100
AcDbArc
 50
231.6729999999986
 51
270.0
  0
LINE
  5
E87
330
1F
100
AcDbEntity
  8
0
100
AcDbLine
 10
256.6775467127005
 20
387.9597963674346
 30
0.0
 11
256.6775467127005
 21
385.9597963674346
 31
0.0
  0
LINE
  5
E88
330
1F
100
AcDbEntity
  8
0
100
AcDbLine
 10
254.6775467127005
 20
387.9597963674346
 30
0.0
 11
254.6775467127005
 21
385.9597963674346
 31
0.0
  0
LINE
  5
E89
330
1F
100
AcDbEntity
  8
0
100
AcDbLine
 10
256.6775467127005
 20
385.9597963674346
 30
0.0
 11
254.6775467127005
 21
385.9597963674346
 31
0.0
  0
LINE
  5
E8A
330
1F
100
AcDbEntity
  8
0
100
AcDbLine
 10
256.6775467127005
 20
387.9597963674346
 30
0.0
 11
254.6775467127005
 21
387.9597963674346
 31
0.0
  0
LINE
  5
E8B
330
1F
100
AcDbEntity
  8
Center
100
AcDbLine
 10
249.0355467127007
 20
386.9597963674346
 30
0.0
 11
268.3195467127008
 21
386.9597963674346
 31
0.0
  0
LINE
  5
E8C
330
1F
100
AcDbEntity
  8
0
100
AcDbLine
 10
264.6775467127005
 20
363.9597963674346
 30
0.0
 11
266.6775467127005
 21
363.9597963674346
 31
0.0
  0
LINE
  5
E8D
330
1F
100
AcDbEntity
  8
0
100
AcDbLine
 10
264.6775467127005
 20
363.9597963674346
 30
0.0
 11
264.6775467127005
 21
365.9597963674346
 31
0.0
  0
LINE
  5
E8E
330
1F
100
AcDbEntity
  8
0
100
AcDbLine
 10
256.6775467127005
 20
369.9597963674346
 30
0.0
 11
260.6775467127005
 21
369.9597963674346
 31
0.0
  0
LINE
  5
E8F
330
1F
100
AcDbEntity
  8
0
100
AcDbLine
 10
256.6775467127005
 20
369.9597963674346
 30
0.0
 11
256.6775467127005
 21
370.9597963674346
 31
0.0
  0
LINE
  5
E90
330
1F
100
AcDbEntity
  8
0
100
AcDbLine
 10
260.6775467127005
 20
369.9597963674346
 30
0.0
 11
260.6775467127005
 21
370.9597963674346
 31
0.0
  0
LINE
  5
E91
330
1F
100
AcDbEntity
  8
0
100
AcDbLine
 10
250.6775467127005
 20
363.9597963674346
 30
0.0
 11
252.6775467127005
 21
363.9597963674346
 31
0.0
  0
LINE
  5
E92
330
1F
100
AcDbEntity
  8
0
100
AcDbLine
 10
252.6775467127005
 20
363.9597963674346
 30
0.0
 11
252.6775467127005
 21
365.9597963674346
 31
0.0
  0
LINE
  5
E93
330
1F
100
AcDbEntity
  8
0
100
AcDbLine
 10
250.6775467127005
 20
370.9597963674346
 30
0.0
 11
256.6775467127005
 21
370.9597963674346
 31
0.0
  0
LINE
  5
E94
330
1F
100
AcDbEntity
  8
0
100
AcDbLine
 10
260.6775467127005
 20
370.9597963674346
 30
0.0
 11
266.6775467127005
 21
370.9597963674346
 31
0.0
  0
LINE
  5
E95
330
1F
100
AcDbEntity
  8
0
100
AcDbLine
 10
252.6775467127005
 20
365.9597963674346
 30
0.0
 11
264.6775467127005
 21
365.9597963674346
 31
0.0
  0
TEXT
  5
E96
330
1F
100
AcDbEntity
  8
Dim
100
AcDbText
 10
258.6865577965988
 20
356.3810811628469
 30
0.0
 40
1.5
  1
+0.2
  7
China
100
AcDbText
  0
TEXT
  5
E97
330
1F
100
AcDbEntity
  8
Dim
100
AcDbText
 10
258.6865577965988
 20
354.2777789375159
 30
0.0
 40
1.5
  1
+0
  7
China
100
AcDbText
  0
TEXT
  5
E98
330
1F
100
AcDbEntity
  8
Dim
100
AcDbText
 10
311.4162910894998
 20
279.7273443570687
 30
0.0
 40
3.2
  1
M5x0.8
  7
China
100
AcDbText
  0
POINT
  5
E9B
330
1F
100
AcDbEntity
  8
0
100
AcDbPoint
 10
303.6775467127005
 20
295.237773222337
 30
0.0
  0
LINE
  5
E9C
102
{ACAD_REACTORS
330
14E8
102
}
330
1F
100
AcDbEntity
  8
Center
100
AcDbLine
 10
290.0435467127005
 20
289.237773222337
 30
0.0
 11
299.1955467127005
 21
289.237773222337
 31
0.0
  0
CIRCLE
  5
E9E
330
1F
100
AcDbEntity
  8
0
100
AcDbCircle
 10
294.6775467127005
 20
289.237773222337
 30
0.0
 40
2.067
  0
LINE
  5
E9F
102
{ACAD_REACTORS
330
150E
330
1534
102
}
330
1F
100
AcDbEntity
  8
Center
100
AcDbLine
 10
294.6775467127005
 20
293.6577732223371
 30
0.0
 11
294.6775467127005
 21
285.0177732223368
 31
0.0
  0
LINE
  5
EA0
102
{ACAD_REACTORS
330
1534
102
}
330
1F
100
AcDbEntity
  8
0
100
AcDbLine
 10
303.6775467127005
 20
277.237773222337
 30
0.0
 11
303.6775467127005
 21
313.2377732223365
 31
0.0
  0
LINE
  5
EA4
330
1F
100
AcDbEntity
  8
Center
100
AcDbLine
 10
280.6775467127005
 20
378.6897963674351
 30
0.0
 11
280.6775467127005
 21
386.2597963674348
 31
0.0
  0
DIMENSION
  5
EA5
330
1F
100
AcDbEntity
  8
Dim
100
AcDbDimension
  2
*D41
 10
268.6775467127005
 20
429.1153684027672
 30
0.0
 11
286.1775467127005
 21
431.3653684027672
 31
0.0
 70
    32
 71
     5
 42
35.0
  3
Standard
100
AcDbAlignedDimension
 13
303.6775467127005
 23
423.2564943973434
 33
0.0
 14
268.6775467127005
 24
413.9597963674345
 34
0.0
100
AcDbRotatedDimension
1001
ACAD
1000
DSTYLE
1002
{
1070
    41
1040
2.0
1070
    42
1040
1.0
1070
    44
1040
1.0
1070
    73
1070
     0
1070
    74
1070
     0
1070
    77
1070
     1
1070
    78
1070
     8
1070
    79
1070
     2
1070
   140
1040
2.5
1070
   141
1040
0.0
1070
   147
1040
1.0
1070
   172
1070
     1
1070
   174
1070
     1
1070
   176
1070
   256
1070
   177
1070
   256
1070
   178
1070
   256
1070
   271
1070
     2
1070
   272
1070
     2
1070
   340
1005
B92
1070
   371
1070
    -1
1070
   372
1070
    -1
1002
}
  0
DIMENSION
  5
EA6
330
1F
100
AcDbEntity
  8
Dim
100
AcDbDimension
  2
*D42
 10
303.6775467127005
 20
435.590969332909
 30
0.0
 11
281.1775467127005
 21
437.840969332909
 31
0.0
 70
    32
 71
     5
 42
45.0
  3
Standard
100
AcDbAlignedDimension
 13
258.6775467127005
 23
429.9597963674345
 33
0.0
 14
303.6775467127005
 24
429.1153684027672
 34
0.0
100
AcDbRotatedDimension
1001
ACAD
1000
DSTYLE
1002
{
1070
    41
1040
2.0
1070
    42
1040
1.0
1070
    44
1040
1.0
1070
    73
1070
     0
1070
    74
1070
     0
1070
    77
1070
     1
1070
    78
1070
     8
1070
    79
1070
     2
1070
   140
1040
2.5
1070
   141
1040
0.0
1070
   147
1040
1.0
1070
   172
1070
     1
1070
   174
1070
     1
1070
   176
1070
   256
1070
   177
1070
   256
1070
   178
1070
   256
1070
   271
1070
     2
1070
   272
1070
     2
1070
   340
1005
B92
1070
   371
1070
    -1
1070
   372
1070
    -1
1002
}
  0
DIMENSION
  5
EA7
330
1F
100
AcDbEntity
  8
Dim
100
AcDbDimension
  2
*D43
 10
243.6775467127005
 20
442.0665662906262
 30
0.0
 11
273.6775467127005
 21
444.3165662906262
 31
0.0
 70
    32
 71
     5
 42
60.0
  3
Standard
100
AcDbAlignedDimension
 13
303.6775467127005
 23
435.590969332909
 33
0.0
 14
243.6775467127005
 24
406.4597963674345
 34
0.0
100
AcDbRotatedDimension
1001
ACAD
1000
DSTYLE
1002
{
1070
    41
1040
2.0
1070
    42
1040
1.0
1070
    44
1040
1.0
1070
    73
1070
     0
1070
    74
1070
     0
1070
    77
1070
     1
1070
    78
1070
     8
1070
    79
1070
     2
1070
   140
1040
2.5
1070
   141
1040
0.0
1070
   147
1040
1.0
1070
   172
1070
     1
1070
   174
1070
     1
1070
   176
1070
   256
1070
   177
1070
   256
1070
   178
1070
   256
1070
   271
1070
     2
1070
   272
1070
     2
1070
   340
1005
B92
1070
   371
1070
    -1
1070
   372
1070
    -1
1002
}
  0
LINE
  5
EA8
330
1F
100
AcDbEntity
  8
Center
100
AcDbLine
 10
267.6775467127005
 20
399.9597963674346
 30
0.0
 11
305.0055467127009
 21
399.9597963674346
 31
0.0
  0
LINE
  5
EA9
330
1F
100
AcDbEntity
  8
Center
100
AcDbLine
 10
267.6775467127005
 20
391.9597963674346
 30
0.0
 11
305.3575467127008
 21
391.9597963674346
 31
0.0
  0
LINE
  5
EAA
330
1F
100
AcDbEntity
  8
0
100
AcDbLine
 10
268.6775467127005
 20
394.4597963674346
 30
0.0
 11
303.6775467127005
 21
394.4597963674346
 31
0.0
  0
LINE
  5
EAB
330
1F
100
AcDbEntity
  8
0
100
AcDbLine
 10
268.6775467127005
 20
397.4597963674346
 30
0.0
 11
303.6775467127005
 21
397.4597963674346
 31
0.0
  0
LINE
  5
EAC
330
1F
100
AcDbEntity
  8
0
100
AcDbLine
 10
268.6775467127005
 20
402.4597963674345
 30
0.0
 11
303.6775467127005
 21
402.4597963674345
 31
0.0
  0
LINE
  5
EAD
330
1F
100
AcDbEntity
  8
Center
100
AcDbLine
 10
240.3045467127009
 20
395.9597963674346
 30
0.0
 11
307.4365467127005
 21
395.9597963674346
 31
0.0
  0
LINE
  5
EAE
330
1F
100
AcDbEntity
  8
0
100
AcDbLine
 10
266.6775467127005
 20
413.9597963674345
 30
0.0
 11
303.6775467127005
 21
413.9597963674345
 31
0.0
  0
CIRCLE
  5
EB0
330
1F
100
AcDbEntity
  8
0
100
AcDbCircle
 10
280.6775467127005
 20
409.4597963674345
 30
0.0
 40
2.064999999999999
  0
LINE
  5
EB1
102
{ACAD_REACTORS
330
1576
102
}
330
1F
100
AcDbEntity
  8
Center
100
AcDbLine
 10
277.1675467127007
 20
409.4597963674345
 30
0.0
 11
284.4005467127005
 21
409.4597963674345
 31
0.0
  0
LINE
  5
EB2
330
1F
100
AcDbEntity
  8
0
100
AcDbLine
 10
268.6775467127005
 20
474.4439237407759
 30
0.0
 11
303.6775467127005
 21
474.4439237407759
 31
0.0
  0
LINE
  5
EB3
330
1F
100
AcDbEntity
  8
Center
100
AcDbLine
 10
240.3045467127009
 20
492.4439237407759
 30
0.0
 11
307.4365467127005
 21
492.4439237407759
 31
0.0
  0
LINE
  5
EB4
330
1F
100
AcDbEntity
  8
0
100
AcDbLine
 10
246.6775467127005
 20
413.9597963674345
 30
0.0
 11
250.6775467127005
 21
413.9597963674345
 31
0.0
  0
LINE
  5
EB5
330
1F
100
AcDbEntity
  8
0
100
AcDbLine
 10
246.6785467127007
 20
413.9597963674345
 30
0.0
 11
243.6775467127005
 21
406.4597963674345
 31
0.0
  0
LINE
  5
EB6
330
1F
100
AcDbEntity
  8
0
100
AcDbLine
 10
266.6775467127005
 20
427.9597963674346
 30
0.0
 11
264.6775467127005
 21
427.9597963674346
 31
0.0
  0
LINE
  5
EB7
330
1F
100
AcDbEntity
  8
0
100
AcDbLine
 10
264.6775467127005
 20
427.9597963674346
 30
0.0
 11
264.6775467127005
 21
425.9597963674345
 31
0.0
  0
LINE
  5
EB8
330
1F
100
AcDbEntity
  8
0
100
AcDbLine
 10
252.6775467127005
 20
427.9597963674346
 30
0.0
 11
250.6775467127005
 21
427.9597963674346
 31
0.0
  0
LINE
  5
EB9
330
1F
100
AcDbEntity
  8
0
100
AcDbLine
 10
252.6775467127005
 20
427.9597963674346
 30
0.0
 11
252.6775467127005
 21
425.9597963674345
 31
0.0
  0
LINE
  5
EBA
330
1F
100
AcDbEntity
  8
0
100
AcDbLine
 10
264.6775467127005
 20
425.9597963674345
 30
0.0
 11
252.6775467127005
 21
425.9597963674345
 31
0.0
  0
ARC
  5
EBB
330
1F
100
AcDbEntity
  8
0
100
AcDbCircle
 10
268.6775467127005
 20
399.9597963674346
 30
0.0
 40
3.225
100
AcDbArc
 50
90.0
 51
128.3270000000014
  0
ARC
  5
EBC
330
1F
100
AcDbEntity
  8
0
100
AcDbCircle
 10
268.6775467127005
 20
399.9597963674346
 30
0.0
 40
3.225
100
AcDbArc
 50
178.6400000000004
 51
270.0
  0
ARC
  5
EBD
330
1F
100
AcDbEntity
  8
0
100
AcDbCircle
 10
268.6775467127005
 20
391.9597963674346
 30
0.0
 40
3.225
100
AcDbArc
 50
90.0
 51
181.3599999999995
  0
LINE
  5
EBE
330
1F
100
AcDbEntity
  8
0
100
AcDbLine
 10
254.6775467127005
 20
405.9597963674345
 30
0.0
 11
256.6775467127005
 21
405.9597963674345
 31
0.0
  0
LINE
  5
EBF
330
1F
100
AcDbEntity
  8
0
100
AcDbLine
 10
254.6775467127005
 20
403.9597963674346
 30
0.0
 11
256.6775467127005
 21
403.9597963674346
 31
0.0
  0
LINE
  5
EC0
330
1F
100
AcDbEntity
  8
0
100
AcDbLine
 10
254.6775467127005
 20
403.9597963674346
 30
0.0
 11
254.6775467127005
 21
405.9597963674345
 31
0.0
  0
LINE
  5
EC1
330
1F
100
AcDbEntity
  8
0
100
AcDbLine
 10
256.6775467127005
 20
403.9597963674346
 30
0.0
 11
256.6775467127005
 21
405.9597963674345
 31
0.0
  0
LINE
  5
EC2
330
1F
100
AcDbEntity
  8
Center
100
AcDbLine
 10
249.215546712701
 20
404.9597963674345
 30
0.0
 11
268.1985467127007
 21
404.9597963674345
 31
0.0
  0
ARC
  5
EC3
330
1F
100
AcDbEntity
  8
0
100
AcDbCircle
 10
258.6775467127005
 20
385.9597963674346
 30
0.0
 40
9.0
100
AcDbArc
 50
27.26610000000069
 51
152.7340000000007
  0
ARC
  5
EC4
330
1F
100
AcDbEntity
  8
0
100
AcDbCircle
 10
258.6775467127005
 20
405.9597963674345
 30
0.0
 40
9.0
100
AcDbArc
 50
207.2659999999993
 51
332.7340000000007
  0
ARC
  5
EC5
330
1F
100
AcDbEntity
  8
0
100
AcDbCircle
 10
258.6775467127005
 20
404.9597963674345
 30
0.0
 40
3.0
100
AcDbArc
 50
199.4710000000014
 51
160.5289999999986
  0
LINE
  5
EC6
330
1F
100
AcDbEntity
  8
0
100
AcDbLine
 10
260.6775467127005
 20
421.9597963674345
 30
0.0
 11
256.6775467127005
 21
421.9597963674345
 31
0.0
  0
LINE
  5
EC7
330
1F
100
AcDbEntity
  8
0
100
AcDbLine
 10
256.6775467127005
 20
421.9597963674345
 30
0.0
 11
256.6775467127005
 21
420.9597963674346
 31
0.0
  0
LINE
  5
EC8
330
1F
100
AcDbEntity
  8
0
100
AcDbLine
 10
260.6775467127005
 20
421.9597963674345
 30
0.0
 11
260.6775467127005
 21
420.9597963674346
 31
0.0
  0
LINE
  5
EC9
330
1F
100
AcDbEntity
  8
0
100
AcDbLine
 10
256.6775467127005
 20
420.9597963674346
 30
0.0
 11
250.6775467127005
 21
420.9597963674346
 31
0.0
  0
LINE
  5
ECA
330
1F
100
AcDbEntity
  8
0
100
AcDbLine
 10
266.6775467127005
 20
420.9597963674346
 30
0.0
 11
260.6775467127005
 21
420.9597963674346
 31
0.0
  0
LINE
  5
ECB
330
1F
100
AcDbEntity
  8
0
100
AcDbLine
 10
266.6775467127005
 20
401.8397963674346
 30
0.0
 11
266.6775467127005
 21
427.9597963674346
 31
0.0
  0
LINE
  5
ECC
330
1F
100
AcDbEntity
  8
0
100
AcDbLine
 10
250.6775467127005
 20
401.8397963674346
 30
0.0
 11
250.6775467127005
 21
427.9597963674346
 31
0.0
  0
LINE
  5
ECD
330
1F
100
AcDbEntity
  8
0
100
AcDbLine
 10
243.6775467127005
 20
477.443923740776
 30
0.0
 11
250.6775467127005
 21
477.443923740776
 31
0.0
  0
CIRCLE
  5
ECF
330
1F
100
AcDbEntity
  8
0
100
AcDbCircle
 10
258.6775467127005
 20
483.4439237407759
 30
0.0
 40
1.620999999999999
  0
LINE
  5
ED0
330
1F
100
AcDbEntity
  8
Center
100
AcDbLine
 10
258.6775467127005
 20
486.7439237407761
 30
0.0
 11
258.6775467127005
 21
480.7139237407763
 31
0.0
  0
LINE
  5
ED1
330
1F
100
AcDbEntity
  8
Center
100
AcDbLine
 10
261.6265467127011
 20
483.4439237407759
 30
0.0
 11
255.639546712701
 21
483.4439237407759
 31
0.0
  0
LINE
  5
ED2
330
1F
100
AcDbEntity
  8
0
100
AcDbLine
 10
266.6775467127005
 20
477.443923740776
 30
0.0
 11
268.6775467127005
 21
477.443923740776
 31
0.0
  0
LINE
  5
ED3
330
1F
100
AcDbEntity
  8
0
100
AcDbLine
 10
268.6775467127005
 20
474.4439237407759
 30
0.0
 11
268.6775467127005
 21
477.443923740776
 31
0.0
  0
LINE
  5
ED4
330
1F
100
AcDbEntity
  8
Center
100
AcDbLine
 10
262.1775467127005
 20
477.7439237407761
 30
0.0
 11
262.1775467127005
 21
471.9439237407759
 31
0.0
  0
LINE
  5
ED5
330
1F
100
AcDbEntity
  8
Center
100
AcDbLine
 10
255.1775467127005
 20
477.5039237407764
 30
0.0
 11
255.1775467127005
 21
471.9439237407759
 31
0.0
  0
LINE
  5
ED6
330
1F
100
AcDbEntity
  8
Center
100
AcDbLine
 10
257.8885467127008
 20
474.4439237407759
 30
0.0
 11
252.166546712701
 21
474.4439237407759
 31
0.0
  0
CIRCLE
  5
ED7
330
1F
100
AcDbEntity
  8
0
100
AcDbCircle
 10
255.1775467127005
 20
474.4439237407759
 30
0.0
 40
2.2
  0
LINE
  5
ED8
330
1F
100
AcDbEntity
  8
Center
100
AcDbLine
 10
265.0475467127004
 20
474.4439237407759
 30
0.0
 11
259.2765467127007
 21
474.4439237407759
 31
0.0
  0
CIRCLE
  5
ED9
330
1F
100
AcDbEntity
  8
0
100
AcDbCircle
 10
262.1775467127005
 20
474.4439237407759
 30
0.0
 40
2.2
  0
LINE
  5
EDA
330
1F
100
AcDbEntity
  8
0
100
AcDbLine
 10
266.6775467127005
 20
471.9439237407759
 30
0.0
 11
250.6775467127005
 21
471.9439237407759
 31
0.0
  0
DIMENSION
  5
EDD
330
1F
100
AcDbEntity
  8
Dim
100
AcDbDimension
  2
*D44
 10
303.6775467127005
 20
423.2564943973434
 30
0.0
 11
292.1775467127005
 21
425.5064943973434
 31
0.0
 70
    32
 71
     5
 42
23.0
  3
Standard
100
AcDbAlignedDimension
 13
280.6775467127005
 23
413.189796367435
 33
0.0
 14
303.6775467127005
 24
413.9597963674345
 34
0.0
100
AcDbRotatedDimension
1001
ACAD
1000
DSTYLE
1002
{
1070
    41
1040
2.0
1070
    42
1040
1.0
1070
    44
1040
1.0
1070
    73
1070
     0
1070
    74
1070
     0
1070
    77
1070
     1
1070
    78
1070
     8
1070
    79
1070
     2
1070
   140
1040
2.5
1070
   141
1040
0.0
1070
   147
1040
1.0
1070
   172
1070
     1
1070
   174
1070
     1
1070
   176
1070
   256
1070
   177
1070
   256
1070
   178
1070
   256
1070
   271
1070
     2
1070
   272
1070
     2
1070
   340
1005
B92
1070
   371
1070
    -1
1070
   372
1070
    -1
1002
}
  0
LINE
  5
EDF
330
1F
100
AcDbEntity
  8
Center
100
AcDbLine
 10
280.6775467127005
 20
405.3897963674349
 30
0.0
 11
280.6775467127005
 21
413.189796367435
 31
0.0
  0
POINT
  5
EE0
330
1F
100
AcDbEntity
  8
0
100
AcDbPoint
 10
303.6775467127005
 20
395.9597963674346
 30
0.0
  0
TEXT
  5
EE5
330
1F
100
AcDbEntity
  8
Dim
100
AcDbText
 10
294.980771853173
 20
361.9032872128021
 30
0.0
 40
3.2
  1
(Mounting thred)
  7
China
100
AcDbText
  0
DIMENSION
  5
EE6
330
1F
100
AcDbEntity
  8
Dim
100
AcDbDimension
  2
*D45
 10
303.6775467127005
 20
465.2271085298716
 30
0.0
 11
295.1775467127005
 21
467.4771085298716
 31
0.0
 70
    32
 71
     5
 42
17.0
  3
Standard
100
AcDbAlignedDimension
 13
286.6775467127005
 23
477.0439237407763
 33
0.0
 14
303.6775467127005
 24
474.4439237407759
 34
0.0
100
AcDbRotatedDimension
1001
ACAD
1000
DSTYLE
1002
{
1070
    41
1040
2.0
1070
    42
1040
1.0
1070
    44
1040
1.0
1070
    73
1070
     0
1070
    74
1070
     0
1070
    77
1070
     1
1070
    78
1070
     8
1070
    79
1070
     2
1070
   140
1040
2.5
1070
   141
1040
0.0
1070
   147
1040
1.0
1070
   172
1070
     1
1070
   174
1070
     1
1070
   176
1070
   256
1070
   177
1070
   256
1070
   178
1070
   256
1070
   271
1070
     2
1070
   272
1070
     2
1070
   340
1005
B92
1070
   371
1070
    -1
1070
   372
1070
    -1
1002
}
  0
CIRCLE
  5
EE8
330
1F
100
AcDbEntity
  8
0
100
AcDbCircle
 10
286.6775467127005
 20
482.443923740776
 30
0.0
 40
2.064999999999999
  0
LINE
  5
EE9
330
1F
100
AcDbEntity
  8
Center
100
AcDbLine
 10
280.6885467127009
 20
482.443923740776
 30
0.0
 11
292.2955467127009
 21
482.443923740776
 31
0.0
  0
POINT
  5
EEA
330
1F
100
AcDbEntity
  8
0
100
AcDbPoint
 10
303.6775467127005
 20
492.4439237407759
 30
0.0
  0
DIMENSION
  5
EEB
330
1F
100
AcDbEntity
  8
Dim
100
AcDbDimension
  2
*D46
 10
430.5833763333447
 20
382.9597963674346
 30
0.0
 11
428.3333763333446
 21
395.9597963674347
 31
0.0
 70
    32
 71
     5
 42
26.0
  3
Standard
100
AcDbAlignedDimension
 13
413.1609646981076
 23
408.9597963674346
 33
0.0
 14
387.4049646981078
 24
382.9597963674346
 34
0.0
 50
90.0
100
AcDbRotatedDimension
1001
ACAD
1000
DSTYLE
1002
{
1070
    41
1040
2.0
1070
    42
1040
1.0
1070
    44
1040
1.0
1070
    73
1070
     0
1070
    74
1070
     0
1070
    77
1070
     1
1070
    78
1070
     8
1070
    79
1070
     2
1070
   140
1040
2.5
1070
   141
1040
0.0
1070
   147
1040
1.0
1070
   172
1070
     1
1070
   174
1070
     1
1070
   176
1070
   256
1070
   177
1070
   256
1070
   178
1070
   256
1070
   271
1070
     2
1070
   272
1070
     2
1070
   340
1005
B92
1070
   371
1070
    -1
1070
   372
1070
    -1
1002
}
  0
CIRCLE
  5
EED
330
1F
100
AcDbEntity
  8
0
100
AcDbCircle
 10
396.9029646981079
 20
395.9597963674346
 30
0.0
 40
10.5
  0
LINE
  5
EEE
330
1F
100
AcDbEntity
  8
0
100
AcDbLine
 10
384.9029646981079
 20
388.7397963674348
 30
0.0
 11
384.9029646981079
 21
395.1897963674351
 31
0.0
  0
LINE
  5
EEF
330
1F
100
AcDbEntity
  8
0
100
AcDbLine
 10
381.4029646981079
 20
394.9597963674346
 30
0.0
 11
381.4029646981079
 21
388.7397963674348
 31
0.0
  0
LINE
  5
EF0
330
1F
100
AcDbEntity
  8
0
100
AcDbLine
 10
381.9029646981079
 20
395.1897963674351
 30
0.0
 11
381.9029646981079
 21
388.7397963674348
 31
0.0
  0
LINE
  5
EF1
330
1F
100
AcDbEntity
  8
0
100
AcDbLine
 10
408.9029646981079
 20
388.7397963674348
 30
0.0
 11
408.9029646981079
 21
395.1897963674351
 31
0.0
  0
LINE
  5
EF2
330
1F
100
AcDbEntity
  8
0
100
AcDbLine
 10
411.9029646981078
 20
395.1897963674351
 30
0.0
 11
411.9029646981078
 21
388.7397963674348
 31
0.0
  0
LINE
  5
EF3
330
1F
100
AcDbEntity
  8
0
100
AcDbLine
 10
412.4029646981078
 20
394.9597963674346
 30
0.0
 11
412.4029646981078
 21
388.7397963674348
 31
0.0
  0
LINE
  5
EF4
330
1F
100
AcDbEntity
  8
Center
100
AcDbLine
 10
396.9029646981079
 20
430.3297963674345
 30
0.0
 11
396.9029646981079
 21
361.5297963674347
 31
0.0
  0
LINE
  5
EF5
330
1F
100
AcDbEntity
  8
0
100
AcDbLine
 10
417.4029646981079
 20
394.9597963674346
 30
0.0
 11
417.4029646981079
 21
363.9597963674346
 31
0.0
  0
LINE
  5
EF6
330
1F
100
AcDbEntity
  8
0
100
AcDbLine
 10
376.4029646981079
 20
394.9597963674346
 30
0.0
 11
376.4029646981079
 21
363.9597963674346
 31
0.0
  0
DIMENSION
  5
EF7
330
1F
100
AcDbEntity
  8
Dim
100
AcDbDimension
  2
*D47
 10
414.9029646981079
 20
343.9597963674345
 30
0.0
 11
396.9029646981079
 21
346.2097963674346
 31
0.0
 70
    32
 71
     5
 42
36.0
  3
Standard
100
AcDbAlignedDimension
 13
378.9029646981079
 23
377.9597963674346
 33
0.0
 14
414.9029646981079
 24
377.9597963674346
 34
0.0
100
AcDbRotatedDimension
1001
ACAD
1000
DSTYLE
1002
{
1070
    41
1040
2.0
1070
    42
1040
1.0
1070
    44
1040
1.0
1070
    73
1070
     0
1070
    74
1070
     0
1070
    77
1070
     1
1070
    78
1070
     8
1070
    79
1070
     2
1070
   140
1040
2.5
1070
   141
1040
0.0
1070
   147
1040
1.0
1070
   172
1070
     1
1070
   174
1070
     1
1070
   176
1070
   256
1070
   177
1070
   256
1070
   178
1070
   256
1070
   271
1070
     2
1070
   272
1070
     2
1070
   340
1005
B92
1070
   371
1070
    -1
1070
   372
1070
    -1
1002
}
  0
CIRCLE
  5
EF8
330
1F
100
AcDbEntity
  8
0
100
AcDbCircle
 10
383.9029646981079
 20
382.9597963674346
 30
0.0
 40
2.067
  0
LINE
  5
EFA
330
1F
100
AcDbEntity
  8
0
100
AcDbLine
 10
414.9029646981079
 20
377.9597963674346
 30
0.0
 11
378.9029646981079
 21
377.9597963674346
 31
0.0
  0
LINE
  5
EFB
330
1F
100
AcDbEntity
  8
0
100
AcDbLine
 10
376.4029646981079
 20
363.9597963674346
 30
0.0
 11
417.4029646981079
 21
363.9597963674346
 31
0.0
  0
LINE
  5
EFC
330
1F
100
AcDbEntity
  8
0
100
AcDbLine
 10
376.4029646981079
 20
370.9597963674346
 30
0.0
 11
417.4029646981079
 21
370.9597963674346
 31
0.0
  0
LINE
  5
EFD
330
1F
100
AcDbEntity
  8
0
100
AcDbLine
 10
384.9029646981079
 20
388.7397963674348
 30
0.0
 11
381.204964698108
 21
388.7397963674348
 31
0.0
  0
LINE
  5
EFE
330
1F
100
AcDbEntity
  8
Center
100
AcDbLine
 10
387.4049646981078
 20
382.9597963674346
 30
0.0
 11
380.4299646981079
 21
382.9597963674346
 31
0.0
  0
LINE
  5
EFF
330
1F
100
AcDbEntity
  8
0
100
AcDbLine
 10
381.4029646981079
 20
377.9597963674346
 30
0.0
 11
381.4029646981079
 21
370.9597963674346
 31
0.0
  0
LINE
  5
F00
330
1F
100
AcDbEntity
  8
0
100
AcDbLine
 10
380.7859646981077
 20
389.4597963674346
 30
0.0
 11
378.9029646981079
 21
389.4597963674346
 31
0.0
  0
LINE
  5
F01
330
1F
100
AcDbEntity
  8
0
100
AcDbLine
 10
378.9029646981079
 20
389.4597963674346
 30
0.0
 11
378.9029646981079
 21
377.9597963674346
 31
0.0
  0
LINE
  5
F02
330
1F
100
AcDbEntity
  8
0
100
AcDbLine
 10
381.204964698108
 20
388.7397963674348
 30
0.0
 11
380.7859646981077
 21
389.4597963674346
 31
0.0
  0
LINE
  5
F03
330
1F
100
AcDbEntity
  8
0
100
AcDbLine
 10
413.0249646981082
 20
389.4597963674346
 30
0.0
 11
414.9029646981079
 21
389.4597963674346
 31
0.0
  0
LINE
  5
F09
102
{ACAD_REACTORS
330
1851
102
}
330
1F
100
AcDbEntity
  8
Center
100
AcDbLine
 10
383.9029646981079
 20
386.5897963674347
 30
0.0
 11
383.9029646981079
 21
379.4897963674348
 31
0.0
  0
LINE
  5
F0A
330
1F
100
AcDbEntity
  8
0
100
AcDbLine
 10
408.9029646981079
 20
388.7397963674348
 30
0.0
 11
412.6059646981079
 21
388.7397963674348
 31
0.0
  0
LINE
  5
F0B
330
1F
100
AcDbEntity
  8
0
100
AcDbLine
 10
412.6059646981079
 20
388.7397963674348
 30
0.0
 11
413.0239646981079
 21
389.4597963674346
 31
0.0
  0
LINE
  5
F0C
330
1F
100
AcDbEntity
  8
0
100
AcDbLine
 10
412.4029646981078
 20
377.9597963674346
 30
0.0
 11
412.4029646981078
 21
370.9597963674346
 31
0.0
  0
LINE
  5
F0D
330
1F
100
AcDbEntity
  8
0
100
AcDbLine
 10
414.9029646981079
 20
389.4597963674346
 30
0.0
 11
414.9029646981079
 21
377.9597963674346
 31
0.0
  0
LINE
  5
F0E
330
1F
100
AcDbEntity
  8
0
100
AcDbLine
 10
414.9029646981079
 20
413.9597963674345
 30
0.0
 11
378.9029646981079
 21
413.9597963674345
 31
0.0
  0
LINE
  5
F0F
330
1F
100
AcDbEntity
  8
Center
100
AcDbLine
 10
374.3919947990398
 20
395.9597963674346
 30
0.0
 11
419.5649010407334
 21
395.9597963674346
 31
0.0
  0
LINE
  5
F10
330
1F
100
AcDbEntity
  8
Center
100
AcDbLine
 10
386.2009646981077
 20
399.9597963674346
 30
0.0
 11
376.2379646981079
 21
399.9597963674346
 31
0.0
  0
LINE
  5
F11
330
1F
100
AcDbEntity
  8
Center
100
AcDbLine
 10
386.2009646981077
 20
391.9597963674346
 30
0.0
 11
376.2379646981079
 21
391.9597963674346
 31
0.0
  0
LINE
  5
F12
330
1F
100
AcDbEntity
  8
0
100
AcDbLine
 10
384.9029646981079
 20
396.7397963674348
 30
0.0
 11
381.204964698108
 21
396.7397963674348
 31
0.0
  0
LINE
  5
F13
330
1F
100
AcDbEntity
  8
0
100
AcDbLine
 10
384.9029646981079
 20
395.1897963674351
 30
0.0
 11
381.2059646981078
 21
395.1897963674351
 31
0.0
  0
LINE
  5
F14
330
1F
100
AcDbEntity
  8
0
100
AcDbLine
 10
384.9029646981079
 20
403.189796367435
 30
0.0
 11
381.2059646981078
 21
403.189796367435
 31
0.0
  0
LINE
  5
F15
330
1F
100
AcDbEntity
  8
0
100
AcDbLine
 10
376.4029646981079
 20
427.9597963674346
 30
0.0
 11
417.4029646981079
 21
427.9597963674346
 31
0.0
  0
LINE
  5
F16
330
1F
100
AcDbEntity
  8
0
100
AcDbLine
 10
376.4029646981079
 20
420.9597963674346
 30
0.0
 11
417.4029646981079
 21
420.9597963674346
 31
0.0
  0
TEXT
  5
F18
330
1F
100
AcDbEntity
  8
Dim
100
AcDbText
 10
357.7341733078205
 20
438.1668883898519
 30
0.0
 40
3.2
  1
x3depth
  7
China
100
AcDbText
  0
LINE
  5
F1A
330
1F
100
AcDbEntity
  8
0
100
AcDbLine
 10
381.4029646981079
 20
413.9597963674345
 30
0.0
 11
381.4029646981079
 21
420.9597963674346
 31
0.0
  0
LINE
  5
F1B
330
1F
100
AcDbEntity
  8
0
100
AcDbLine
 10
381.4029646981079
 20
396.9597963674346
 30
0.0
 11
381.4029646981079
 21
403.189796367435
 31
0.0
  0
LINE
  5
F1C
330
1F
100
AcDbEntity
  8
0
100
AcDbLine
 10
380.7859646981077
 20
397.4597963674346
 30
0.0
 11
378.9029646981079
 21
397.4597963674346
 31
0.0
  0
LINE
  5
F1D
330
1F
100
AcDbEntity
  8
0
100
AcDbLine
 10
380.7869646981079
 20
394.4597963674346
 30
0.0
 11
378.9029646981079
 21
394.4597963674346
 31
0.0
  0
LINE
  5
F1E
330
1F
100
AcDbEntity
  8
0
100
AcDbLine
 10
380.7869646981079
 20
402.4597963674345
 30
0.0
 11
378.9029646981079
 21
402.4597963674345
 31
0.0
  0
LINE
  5
F1F
330
1F
100
AcDbEntity
  8
0
100
AcDbLine
 10
378.9029646981079
 20
397.4597963674346
 30
0.0
 11
378.9029646981079
 21
394.4597963674346
 31
0.0
  0
LINE
  5
F20
330
1F
100
AcDbEntity
  8
0
100
AcDbLine
 10
376.4029646981079
 20
394.9597963674346
 30
0.0
 11
378.9029646981079
 21
394.9597963674346
 31
0.0
  0
LINE
  5
F21
330
1F
100
AcDbEntity
  8
0
100
AcDbLine
 10
376.4029646981079
 20
396.9597963674346
 30
0.0
 11
378.9029646981079
 21
396.9597963674346
 31
0.0
  0
LINE
  5
F22
330
1F
100
AcDbEntity
  8
0
100
AcDbLine
 10
381.204964698108
 20
396.7397963674348
 30
0.0
 11
380.7859646981077
 21
397.4597963674346
 31
0.0
  0
LINE
  5
F23
330
1F
100
AcDbEntity
  8
0
100
AcDbLine
 10
381.2059646981078
 20
395.1897963674351
 30
0.0
 11
380.7869646981079
 21
394.4597963674346
 31
0.0
  0
LINE
  5
F24
330
1F
100
AcDbEntity
  8
0
100
AcDbLine
 10
381.2059646981078
 20
403.189796367435
 30
0.0
 11
380.7869646981079
 21
402.4597963674345
 31
0.0
  0
LINE
  5
F25
330
1F
100
AcDbEntity
  8
0
100
AcDbLine
 10
378.9029646981079
 20
413.9597963674345
 30
0.0
 11
378.9029646981079
 21
402.4597963674345
 31
0.0
  0
LINE
  5
F26
330
1F
100
AcDbEntity
  8
0
100
AcDbLine
 10
376.4029646981079
 20
396.9597963674346
 30
0.0
 11
376.4029646981079
 21
427.9597963674346
 31
0.0
  0
LINE
  5
F27
330
1F
100
AcDbEntity
  8
0
100
AcDbLine
 10
381.0749646981079
 20
394.9597963674346
 30
0.0
 11
381.4029646981079
 21
394.9597963674346
 31
0.0
  0
LINE
  5
F28
330
1F
100
AcDbEntity
  8
0
100
AcDbLine
 10
381.0749646981079
 20
396.9597963674346
 30
0.0
 11
381.4029646981079
 21
396.9597963674346
 31
0.0
  0
TEXT
  5
F29
330
1F
100
AcDbEntity
  8
Dim
100
AcDbText
 10
332.035811318288
 20
438.3768883898519
 30
0.0
 40
3.2
  1
%%C21H9
  7
China
100
AcDbText
  0
TEXT
  5
F2C
330
1F
100
AcDbEntity
  8
Dim
100
AcDbText
 10
347.8701733078209
 20
440.8068883898518
 30
0.0
 40
1.6
  1
+0.052
  7
China
100
AcDbText
  0
TEXT
  5
F2D
330
1F
100
AcDbEntity
  8
Dim
100
AcDbText
 10
349.2001733078208
 20
437.8868883898517
 30
0.0
 40
1.6
  1
0
  7
China
100
AcDbText
  0
TEXT
  5
F2F
330
1F
100
AcDbEntity
  8
Dim
100
AcDbText
 10
354.0919377634374
 20
457.6177986822894
 30
0.0
 40
3.2
  1
2-M5x0.8x10depth
  7
China
100
AcDbText
  0
LINE
  5
F30
330
1F
100
AcDbEntity
  8
Center
100
AcDbLine
 10
407.6059646981078
 20
399.9597963674346
 30
0.0
 11
417.5679646981079
 21
399.9597963674346
 31
0.0
  0
LINE
  5
F31
330
1F
100
AcDbEntity
  8
Center
100
AcDbLine
 10
407.6059646981078
 20
391.9597963674346
 30
0.0
 11
417.5679646981079
 21
391.9597963674346
 31
0.0
  0
LINE
  5
F32
330
1F
100
AcDbEntity
  8
0
100
AcDbLine
 10
413.0249646981082
 20
397.4597963674346
 30
0.0
 11
414.9029646981079
 21
397.4597963674346
 31
0.0
  0
LINE
  5
F33
330
1F
100
AcDbEntity
  8
0
100
AcDbLine
 10
413.0229646981077
 20
394.4597963674346
 30
0.0
 11
414.9029646981079
 21
394.4597963674346
 31
0.0
  0
LINE
  5
F34
330
1F
100
AcDbEntity
  8
0
100
AcDbLine
 10
413.0229646981077
 20
402.4597963674345
 30
0.0
 11
414.9029646981079
 21
402.4597963674345
 31
0.0
  0
LINE
  5
F35
330
1F
100
AcDbEntity
  8
0
100
AcDbLine
 10
412.4029646981078
 20
413.9597963674345
 30
0.0
 11
412.4029646981078
 21
420.9597963674346
 31
0.0
  0
LINE
  5
F36
330
1F
100
AcDbEntity
  8
Center
100
AcDbLine
 10
413.1609646981076
 20
408.9597963674346
 30
0.0
 11
406.3629646981079
 21
408.9597963674346
 31
0.0
  0
LINE
  5
F38
330
1F
100
AcDbEntity
  8
0
100
AcDbLine
 10
384.9029646981079
 20
403.189796367435
 30
0.0
 11
384.9029646981079
 21
396.7397963674348
 31
0.0
  0
POINT
  5
F39
330
1F
100
AcDbEntity
  8
0
100
AcDbPoint
 10
384.9029646981079
 20
399.9597963674346
 30
0.0
  0
POINT
  5
F3A
330
1F
100
AcDbEntity
  8
0
100
AcDbPoint
 10
384.9029646981079
 20
391.9597963674346
 30
0.0
  0
POINT
  5
F3B
330
1F
100
AcDbEntity
  8
Center
100
AcDbPoint
 10
396.9029646981079
 20
395.9597963674346
 30
0.0
  0
LINE
  5
F3C
330
1F
100
AcDbEntity
  8
0
100
AcDbLine
 10
381.9029646981079
 20
396.7397963674348
 30
0.0
 11
381.9029646981079
 21
403.189796367435
 31
0.0
  0
LINE
  5
F3D
330
1F
100
AcDbEntity
  8
0
100
AcDbLine
 10
408.9029646981079
 20
396.7397963674348
 30
0.0
 11
412.6059646981079
 21
396.7397963674348
 31
0.0
  0
LINE
  5
F3E
330
1F
100
AcDbEntity
  8
0
100
AcDbLine
 10
408.9029646981079
 20
395.1897963674351
 30
0.0
 11
412.6049646981081
 21
395.1897963674351
 31
0.0
  0
LINE
  5
F3F
330
1F
100
AcDbEntity
  8
0
100
AcDbLine
 10
408.9029646981079
 20
403.189796367435
 30
0.0
 11
412.6049646981081
 21
403.189796367435
 31
0.0
  0
LINE
  5
F40
330
1F
100
AcDbEntity
  8
0
100
AcDbLine
 10
408.9029646981079
 20
403.189796367435
 30
0.0
 11
408.9029646981079
 21
396.7397963674348
 31
0.0
  0
LINE
  5
F41
330
1F
100
AcDbEntity
  8
0
100
AcDbLine
 10
411.9029646981078
 20
396.7397963674348
 30
0.0
 11
411.9029646981078
 21
403.189796367435
 31
0.0
  0
LINE
  5
F42
330
1F
100
AcDbEntity
  8
0
100
AcDbLine
 10
412.4029646981078
 20
396.9597963674346
 30
0.0
 11
412.4029646981078
 21
403.189796367435
 31
0.0
  0
LINE
  5
F43
330
1F
100
AcDbEntity
  8
0
100
AcDbLine
 10
412.6059646981079
 20
396.7397963674348
 30
0.0
 11
413.0249646981082
 21
397.4597963674346
 31
0.0
  0
LINE
  5
F44
330
1F
100
AcDbEntity
  8
0
100
AcDbLine
 10
412.6049646981081
 20
395.1897963674351
 30
0.0
 11
413.0229646981077
 21
394.4597963674346
 31
0.0
  0
LINE
  5
F45
330
1F
100
AcDbEntity
  8
0
100
AcDbLine
 10
412.7349646981078
 20
394.9597963674346
 30
0.0
 11
412.4029646981078
 21
394.9597963674346
 31
0.0
  0
LINE
  5
F46
330
1F
100
AcDbEntity
  8
0
100
AcDbLine
 10
412.7359646981079
 20
396.9597963674346
 30
0.0
 11
412.4029646981078
 21
396.9597963674346
 31
0.0
  0
LINE
  5
F47
330
1F
100
AcDbEntity
  8
0
100
AcDbLine
 10
412.6049646981081
 20
403.189796367435
 30
0.0
 11
413.0229646981077
 21
402.4597963674345
 31
0.0
  0
LINE
  5
F48
102
{ACAD_REACTORS
330
1851
102
}
330
1F
100
AcDbEntity
  8
Center
100
AcDbLine
 10
409.9029646981079
 20
412.5797963674345
 30
0.0
 11
409.9029646981079
 21
405.6197963674349
 31
0.0
  0
CIRCLE
  5
F49
330
1F
100
AcDbEntity
  8
0
100
AcDbCircle
 10
409.9029646981079
 20
408.9597963674346
 30
0.0
 40
2.067
  0
LINE
  5
F4A
330
1F
100
AcDbEntity
  8
0
100
AcDbLine
 10
414.9029646981079
 20
397.4597963674346
 30
0.0
 11
414.9029646981079
 21
394.4597963674346
 31
0.0
  0
LINE
  5
F4B
330
1F
100
AcDbEntity
  8
0
100
AcDbLine
 10
417.4029646981079
 20
394.9597963674346
 30
0.0
 11
414.9029646981079
 21
394.9597963674346
 31
0.0
  0
LINE
  5
F4C
330
1F
100
AcDbEntity
  8
0
100
AcDbLine
 10
414.9029646981079
 20
396.9597963674346
 30
0.0
 11
417.4029646981079
 21
396.9597963674346
 31
0.0
  0
LINE
  5
F4D
330
1F
100
AcDbEntity
  8
0
100
AcDbLine
 10
414.9029646981079
 20
413.9597963674345
 30
0.0
 11
414.9029646981079
 21
402.4597963674345
 31
0.0
  0
LINE
  5
F4E
330
1F
100
AcDbEntity
  8
0
100
AcDbLine
 10
417.4029646981079
 20
396.9597963674346
 30
0.0
 11
417.4029646981079
 21
427.9597963674346
 31
0.0
  0
LEADER
  5
F51
330
1F
100
AcDbEntity
  8
Dim
100
AcDbLeader
  3
Standard
 76
     3
 10
288.4039420509682
 20
504.1940625117488
 30
0.0
 10
301.4159784211957
 20
522.5138061249936
 30
0.0
 10
345.447078465672
 20
522.5138061249936
 30
0.0
1001
ACAD
1000
DSTYLE
1002
{
1070
    41
1040
2.0
1070
    42
1040
1.0
1070
    44
1040
1.0
1070
    73
1070
     0
1070
    74
1070
     0
1070
    77
1070
     0
1070
    78
1070
     8
1070
    79
1070
     2
1070
   140
1040
2.5
1070
   141
1040
0.0
1070
   147
1040
1.0
1070
   172
1070
     1
1070
   174
1070
     1
1070
   176
1070
   256
1070
   177
1070
   256
1070
   178
1070
   256
1070
   271
1070
     2
1070
   272
1070
     2
1070
   340
1005
B92
1070
   371
1070
    -1
1070
   372
1070
    -1
1002
}
  0
LINE
  5
F52
330
1F
100
AcDbEntity
  8
0
100
AcDbLine
 10
268.6775467127005
 20
510.4439237407759
 30
0.0
 11
303.6775467127005
 21
510.4439237407759
 31
0.0
  0
LINE
  5
F53
330
1F
100
AcDbEntity
  8
0
100
AcDbLine
 10
243.6775467127005
 20
507.443923740776
 30
0.0
 11
250.6775467127005
 21
507.443923740776
 31
0.0
  0
LINE
  5
F54
330
1F
100
AcDbEntity
  8
0
100
AcDbLine
 10
268.6775467127005
 20
507.443923740776
 30
0.0
 11
268.6775467127005
 21
510.4439237407759
 31
0.0
  0
LINE
  5
F55
330
1F
100
AcDbEntity
  8
Center
100
AcDbLine
 10
262.1775467127005
 20
513.2539237407764
 30
0.0
 11
262.1775467127005
 21
507.5639237407759
 31
0.0
  0
LINE
  5
F56
330
1F
100
AcDbEntity
  8
Center
100
AcDbLine
 10
255.1775467127005
 20
513.323923740776
 30
0.0
 11
255.1775467127005
 21
507.7939237407763
 31
0.0
  0
CIRCLE
  5
F57
330
1F
100
AcDbEntity
  8
0
100
AcDbCircle
 10
255.1775467127005
 20
510.4439237407759
 30
0.0
 40
2.2
  0
CIRCLE
  5
F58
330
1F
100
AcDbEntity
  8
0
100
AcDbCircle
 10
262.1775467127005
 20
510.4439237407759
 30
0.0
 40
2.2
  0
LINE
  5
F59
330
1F
100
AcDbEntity
  8
0
100
AcDbLine
 10
266.6775467127005
 20
507.443923740776
 30
0.0
 11
268.6775467127005
 21
507.443923740776
 31
0.0
  0
CIRCLE
  5
F5A
330
1F
100
AcDbEntity
  8
0
100
AcDbCircle
 10
258.6775467127005
 20
501.4439237407759
 30
0.0
 40
1.620999999999999
  0
LINE
  5
F5B
330
1F
100
AcDbEntity
  8
Center
100
AcDbLine
 10
261.6625467127011
 20
501.4439237407759
 30
0.0
 11
255.7475467127007
 21
501.4439237407759
 31
0.0
  0
LINE
  5
F5C
330
1F
100
AcDbEntity
  8
Center
100
AcDbLine
 10
258.6775467127005
 20
504.3439237407765
 30
0.0
 11
258.6775467127005
 21
498.113923740776
 31
0.0
  0
LINE
  5
F5E
330
1F
100
AcDbEntity
  8
Center
100
AcDbLine
 10
257.8885467127008
 20
510.4439237407759
 30
0.0
 11
252.4865467127007
 21
510.4439237407759
 31
0.0
  0
LINE
  5
F5F
330
1F
100
AcDbEntity
  8
Center
100
AcDbLine
 10
264.7305467127004
 20
510.4439237407759
 30
0.0
 11
259.398546712701
 21
510.4439237407759
 31
0.0
  0
LINE
  5
F60
330
1F
100
AcDbEntity
  8
0
100
AcDbLine
 10
266.6775467127005
 20
512.9439237407759
 30
0.0
 11
250.6775467127005
 21
512.9439237407759
 31
0.0
  0
TEXT
  5
F61
330
1F
100
AcDbEntity
  8
Dim
100
AcDbText
 10
303.2637979902917
 20
517.2645896730728
 30
0.0
 40
3.2
  1
(Mounting thred)
  7
China
100
AcDbText
  0
TEXT
  5
F62
330
1F
100
AcDbEntity
  8
Dim
100
AcDbText
 10
303.5994921557045
 20
524.0395285593954
 30
0.0
 40
3.2
  1
2-M5x0.8x7depth
  7
China
100
AcDbText
  0
CIRCLE
  5
F64
330
1F
100
AcDbEntity
  8
0
100
AcDbCircle
 10
286.6775467127005
 20
502.443923740776
 30
0.0
 40
2.064999999999999
  0
LINE
  5
F65
330
1F
100
AcDbEntity
  8
Center
100
AcDbLine
 10
280.5225467127008
 20
502.443923740776
 30
0.0
 11
292.4765467127005
 21
502.443923740776
 31
0.0
  0
LEADER
  5
1174
330
1F
100
AcDbEntity
  8
Dim
100
AcDbLeader
  3
Standard
 76
     3
 10
534.3457967673169
 20
359.8786309073947
 30
0.0
 10
520.3934189129076
 20
343.9614157975173
 30
0.0
 10
495.2626933830649
 20
343.9614157975173
 30
0.0
211
-1.0
221
0.0
231
0.0
1001
ACAD
1000
DSTYLE
1002
{
1070
    41
1040
2.0
1070
    42
1040
1.0
1070
    44
1040
1.0
1070
    73
1070
     0
1070
    74
1070
     0
1070
    77
1070
     0
1070
    78
1070
     8
1070
    79
1070
     2
1070
   140
1040
2.5
1070
   141
1040
0.0
1070
   147
1040
1.0
1070
   172
1070
     1
1070
   174
1070
     1
1070
   176
1070
   256
1070
   177
1070
   256
1070
   178
1070
   256
1070
   271
1070
     2
1070
   272
1070
     2
1070
   340
1005
B92
1070
   371
1070
    -1
1070
   372
1070
    -1
1002
}
  0
LEADER
  5
1175
330
1F
100
AcDbEntity
  8
Dim
100
AcDbLeader
  3
Standard
 76
     3
 10
296.5013447019639
 20
287.4389381761874
 30
0.0
 10
310.9304037559051
 20
278.9520744809816
 30
0.0
 10
363.5259830436145
 20
278.9520744809816
 30
0.0
1001
ACAD
1000
DSTYLE
1002
{
1070
    41
1040
2.0
1070
    42
1040
1.0
1070
    44
1040
1.0
1070
    73
1070
     0
1070
    74
1070
     0
1070
    77
1070
     0
1070
    78
1070
     8
1070
    79
1070
     2
1070
   140
1040
2.5
1070
   141
1040
0.0
1070
   147
1040
1.0
1070
   172
1070
     1
1070
   174
1070
     1
1070
   176
1070
   256
1070
   177
1070
   256
1070
   178
1070
   256
1070
   271
1070
     2
1070
   272
1070
     2
1070
   340
1005
B92
1070
   371
1070
    -1
1070
   372
1070
    -1
1002
}
  0
LEADER
  5
1195
330
1F
100
AcDbEntity
  8
Dim
100
AcDbLeader
  3
Standard
 76
     3
 10
282.3588328714284
 20
380.7358348921098
 30
0.0
 10
294.3087397059672
 20
360.6139964538323
 30
0.0
 10
344.1368462023535
 20
360.6139964538323
 30
0.0
1001
ACAD
1000
DSTYLE
1002
{
1070
    41
1040
2.0
1070
    42
1040
1.0
1070
    44
1040
1.0
1070
    73
1070
     0
1070
    74
1070
     0
1070
    77
1070
     0
1070
    78
1070
     8
1070
    79
1070
     2
1070
   140
1040
2.5
1070
   141
1040
0.0
1070
   147
1040
1.0
1070
   172
1070
     1
1070
   174
1070
     1
1070
   176
1070
   256
1070
   177
1070
   256
1070
   178
1070
   256
1070
   271
1070
     2
1070
   272
1070
     2
1070
   340
1005
B92
1070
   371
1070
    -1
1070
   372
1070
    -1
1002
}
  0
ARC
  5
11D8
330
1F
100
AcDbEntity
  8
AM_4
100
AcDbCircle
 10
280.6775467127005
 20
409.4597963674345
 30
0.0
 40
2.5
100
AcDbArc
 50
260.0
 51
170.0
  0
ARC
  5
11D9
330
1F
100
AcDbEntity
  8
AM_4
100
AcDbCircle
 10
280.6775467127005
 20
382.4597963674346
 30
0.0
 40
2.5
100
AcDbArc
 50
260.0
 51
170.0
  0
ARC
  5
11DA
330
1F
100
AcDbEntity
  8
AM_4
100
AcDbCircle
 10
655.4796265323284
 20
409.4597963674345
 30
0.0
 40
2.5
100
AcDbArc
 50
260.0
 51
170.0
  0
ARC
  5
11DB
330
1F
100
AcDbEntity
  8
AM_4
100
AcDbCircle
 10
655.4796265323284
 20
382.4597963674346
 30
0.0
 40
2.5
100
AcDbArc
 50
260.0
 51
170.0
  0
ARC
  5
11DC
330
1F
100
AcDbEntity
  8
AM_4
100
AcDbCircle
 10
286.6775467127005
 20
482.443923740776
 30
0.0
 40
2.5
100
AcDbArc
 50
260.0
 51
170.0
  0
ARC
  5
11DD
330
1F
100
AcDbEntity
  8
AM_4
100
AcDbCircle
 10
286.6775467127005
 20
502.443923740776
 30
0.0
 40
2.5
100
AcDbArc
 50
260.0
 51
170.0
  0
ARC
  5
11DE
330
1F
100
AcDbEntity
  8
AM_4
100
AcDbCircle
 10
274.6775467127005
 20
301.237773222337
 30
0.0
 40
2.5
100
AcDbArc
 50
260.0
 51
170.0
  0
ARC
  5
11DF
330
1F
100
AcDbEntity
  8
AM_4
100
AcDbCircle
 10
294.6775467127005
 20
289.237773222337
 30
0.0
 40
2.5
100
AcDbArc
 50
260.0
 51
170.0
  0
ARC
  5
1204
330
1F
100
AcDbEntity
  8
AM_4
100
AcDbCircle
 10
258.6775467127005
 20
286.237773222337
 30
0.0
 40
2.0
100
AcDbArc
 50
260.0
 51
170.0
  0
CIRCLE
  5
1205
330
1F
100
AcDbEntity
  8
AM_0
100
AcDbCircle
 10
269.1928371956719
 20
286.7294673549123
 30
0.0
 40
1.621113885844339
  0
LINE
  5
1206
330
1F
100
AcDbEntity
  8
AM_7
  6
AM_ISO08W050x2
100
AcDbLine
 10
265.1928371956719
 20
286.7294673549123
 30
0.0
 11
273.1928371956719
 21
286.7294673549123
 31
0.0
  0
LINE
  5
1207
330
1F
100
AcDbEntity
  8
AM_7
  6
AM_ISO08W050x2
100
AcDbLine
 10
269.1928371956719
 20
282.7294673549123
 30
0.0
 11
269.1928371956719
 21
290.7294673549123
 31
0.0
  0
ARC
  5
1208
330
1F
100
AcDbEntity
  8
AM_4
100
AcDbCircle
 10
258.6775467127005
 20
304.2377732223366
 30
0.0
 40
2.0
100
AcDbArc
 50
260.0
 51
170.0
  0
LEADER
  5
1209
330
1F
100
AcDbEntity
  8
Dim
100
AcDbLeader
  3
Standard
 76
     3
 10
257.5740461614434
 20
285.4191938961175
 30
0.0
 10
237.6541948029487
 20
263.5117036664138
 30
0.0
 10
193.6230947584724
 20
263.5117036664138
 30
0.0
211
-1.0
221
0.0
231
0.0
1001
ACAD
1000
DSTYLE
1002
{
1070
    41
1040
2.0
1070
    42
1040
1.0
1070
    44
1040
1.0
1070
    73
1070
     0
1070
    74
1070
     0
1070
    77
1070
     0
1070
    78
1070
     8
1070
    79
1070
     2
1070
   140
1040
2.5
1070
   141
1040
0.0
1070
   147
1040
1.0
1070
   172
1070
     1
1070
   174
1070
     1
1070
   176
1070
   256
1070
   177
1070
   256
1070
   178
1070
   256
1070
   271
1070
     2
1070
   272
1070
     2
1070
   340
1005
B92
1070
   371
1070
    -1
1070
   372
1070
    -1
1002
}
  0
ARC
  5
1227
330
1F
100
AcDbEntity
  8
AM_4
100
AcDbCircle
 10
258.6775467127005
 20
483.4439237407759
 30
0.0
 40
2.0
100
AcDbArc
 50
260.0
 51
170.0
  0
ARC
  5
1228
330
1F
100
AcDbEntity
  8
AM_4
100
AcDbCircle
 10
258.6775467127005
 20
501.4439237407759
 30
0.0
 40
2.0
100
AcDbArc
 50
260.0
 51
170.0
  0
LEADER
  5
1229
330
1F
100
AcDbEntity
  8
Dim
100
AcDbLeader
  3
Standard
 76
     3
 10
390.3351393809396
 20
403.7969237132143
 30
0.0
 10
376.745402086402
 20
436.4610216716238
 30
0.0
 10
332.7143020419257
 20
436.4610216716238
 30
0.0
211
-1.0
221
0.0
231
0.0
1001
ACAD
1000
DSTYLE
1002
{
1070
    41
1040
2.0
1070
    42
1040
1.0
1070
    44
1040
1.0
1070
    73
1070
     0
1070
    74
1070
     0
1070
    77
1070
     0
1070
    78
1070
     8
1070
    79
1070
     2
1070
   140
1040
2.5
1070
   141
1040
0.0
1070
   147
1040
1.0
1070
   172
1070
     1
1070
   174
1070
     1
1070
   176
1070
   256
1070
   177
1070
   256
1070
   178
1070
   256
1070
   271
1070
     2
1070
   272
1070
     2
1070
   340
1005
B92
1070
   371
1070
    -1
1070
   372
1070
    -1
1002
}
  0
TEXT
  5
1246
330
1F
100
AcDbEntity
  8
Dim
100
AcDbText
 10
294.980771853173
 20
367.0696394163203
 30
0.0
 40
3.2
  1
4-M5x0.8x10depth
  7
China
100
AcDbText
  0
ARC
  5
125C
330
1F
100
AcDbEntity
  8
AM_4
100
AcDbCircle
 10
409.9029646981079
 20
408.9597963674346
 30
0.0
 40
2.5
100
AcDbArc
 50
260.0
 51
170.0
  0
ARC
  5
125D
330
1F
100
AcDbEntity
  8
AM_4
100
AcDbCircle
 10
383.9174646981079
 20
382.9597963674346
 30
0.0
 40
2.5
100
AcDbArc
 50
260.0
 51
170.0
  0
LEADER
  5
1260
330
1F
100
AcDbEntity
  8
Dim
100
AcDbLeader
  3
Standard
 76
     3
 10
408.3474439189711
 20
410.7472583763932
 30
0.0
 10
398.0817752952554
 20
455.8449235135193
 30
0.0
 10
352.4433665972357
 20
455.8449235135193
 30
0.0
211
-1.0
221
0.0
231
0.0
1001
ACAD
1000
DSTYLE
1002
{
1070
    41
1040
2.0
1070
    42
1040
1.0
1070
    44
1040
1.0
1070
    73
1070
     0
1070
    74
1070
     0
1070
    77
1070
     0
1070
    78
1070
     8
1070
    79
1070
     2
1070
   140
1040
2.5
1070
   141
1040
0.0
1070
   147
1040
1.0
1070
   172
1070
     1
1070
   174
1070
     1
1070
   176
1070
   256
1070
   177
1070
   256
1070
   178
1070
   256
1070
   271
1070
     2
1070
   272
1070
     2
1070
   340
1005
B92
1070
   371
1070
    -1
1070
   372
1070
    -1
1002
}
  0
ARC
  5
1263
330
1F
100
AcDbEntity
  8
AM_4
100
AcDbCircle
 10
535.9427905053028
 20
360.9597963674346
 30
0.0
 40
2.0
100
AcDbArc
 50
260.0
 51
170.0
  0
ARC
  5
1264
330
1F
100
AcDbEntity
  8
AM_4
100
AcDbCircle
 10
549.9427905053027
 20
360.9597963674346
 30
0.0
 40
2.0
100
AcDbArc
 50
260.0
 51
170.0
  0
ARC
  5
1265
330
1F
100
AcDbEntity
  8
AM_4
100
AcDbCircle
 10
535.9427905053028
 20
430.9597963674345
 30
0.0
 40
2.0
100
AcDbArc
 50
260.0
 51
170.0
  0
ARC
  5
1266
330
1F
100
AcDbEntity
  8
AM_4
100
AcDbCircle
 10
549.9427905053027
 20
430.9597963674345
 30
0.0
 40
2.0
100
AcDbArc
 50
260.0
 51
170.0
  0
LINE
  5
1299
330
1F
100
AcDbEntity
  8
0
100
AcDbLine
 10
524.9427905053027
 20
396.9597963674345
 30
0.0
 11
524.9427905053027
 21
394.9597963674347
 31
0.0
  0
LINE
  5
129A
330
1F
100
AcDbEntity
  8
0
100
AcDbLine
 10
560.9427905053028
 20
396.9597963674345
 30
0.0
 11
560.9427905053028
 21
394.9597963674347
 31
0.0
  0
DIMENSION
  5
13ED
330
1F
100
AcDbEntity
  8
Dim
100
AcDbDimension
  2
*D59
 10
605.4796265323284
 20
420.9597963674346
 30
0.0
 11
603.2296265323283
 21
428.4597963674346
 31
0.0
 70
    32
 71
     5
 42
15.0
  3
Standard
100
AcDbAlignedDimension
 13
636.4796265323284
 23
435.9597963674345
 33
0.0
 14
625.4796265323284
 24
420.9597963674346
 34
0.0
 50
90.0
100
AcDbRotatedDimension
1001
ACAD
1000
DSTYLE
1002
{
1070
    41
1040
2.0
1070
    42
1040
1.0
1070
    44
1040
1.0
1070
    73
1070
     0
1070
    74
1070
     0
1070
    77
1070
     1
1070
    78
1070
     8
1070
    79
1070
     2
1070
   140
1040
2.5
1070
   141
1040
0.0
1070
   147
1040
1.0
1070
   172
1070
     1
1070
   174
1070
     1
1070
   176
1070
   256
1070
   177
1070
   256
1070
   178
1070
   256
1070
   271
1070
     2
1070
   272
1070
     2
1070
   340
1005
B92
1070
   371
1070
    -1
1070
   372
1070
    -1
1002
}
  0
DIMENSION
  5
1413
102
{ACAD_XDICTIONARY
360
1422
102
}
102
{ACAD_REACTORS
330
1423
102
}
330
1F
100
AcDbEntity
  8
Dim
100
AcDbDimension
  2
*D60
 10
641.4796265323284
 20
442.6633973611952
 30
0.0
 11
638.9796265323284
 21
444.9133973611952
 31
0.0
 70
    32
 71
     5
 42
5.0
  3
Standard
100
AcDbAlignedDimension
 13
636.4796265323284
 23
435.9597963674345
 33
0.0
 14
641.4796265323284
 24
435.9597963674345
 34
0.0
100
AcDbRotatedDimension
1001
ACAD
1000
DSTYLE
1002
{
1070
    41
1040
2.0
1070
    42
1040
1.0
1070
    44
1040
1.0
1070
    73
1070
     0
1070
    74
1070
     0
1070
    77
1070
     1
1070
    78
1070
     8
1070
    79
1070
     2
1070
   140
1040
2.5
1070
   141
1040
0.0
1070
   147
1040
1.0
1070
   172
1070
     1
1070
   174
1070
     1
1070
   176
1070
   256
1070
   177
1070
   256
1070
   178
1070
   256
1070
   271
1070
     2
1070
   272
1070
     2
1070
   340
1005
B92
1070
   371
1070
    -1
1070
   372
1070
    -1
1002
}
  0
DIMENSION
  5
143D
102
{ACAD_XDICTIONARY
360
144A
102
}
102
{ACAD_REACTORS
330
144B
102
}
330
1F
100
AcDbEntity
  8
Dim
100
AcDbDimension
  2
*D61
 10
613.4796265323284
 20
425.9597963674345
 30
0.0
 11
611.2296265323283
 21
430.9597963674346
 31
0.0
 70
    32
 71
     5
 42
10.0
  3
Standard
100
AcDbAlignedDimension
 13
636.4796265323284
 23
435.9597963674345
 33
0.0
 14
625.4796265323284
 24
425.9597963674345
 34
0.0
 50
90.0
100
AcDbRotatedDimension
1001
ACAD
1000
DSTYLE
1002
{
1070
    41
1040
2.0
1070
    42
1040
1.0
1070
    44
1040
1.0
1070
    73
1070
     0
1070
    74
1070
     0
1070
    77
1070
     1
1070
    78
1070
     8
1070
    79
1070
     2
1070
   140
1040
2.5
1070
   141
1040
0.0
1070
   147
1040
1.0
1070
   172
1070
     1
1070
   174
1070
     1
1070
   176
1070
   256
1070
   177
1070
   256
1070
   178
1070
   256
1070
   271
1070
     2
1070
   272
1070
     2
1070
   340
1005
B92
1070
   371
1070
    -1
1070
   372
1070
    -1
1002
}
  0
DIMENSION
  5
1463
102
{ACAD_XDICTIONARY
360
1470
102
}
102
{ACAD_REACTORS
330
1471
102
}
330
1F
100
AcDbEntity
  8
Dim
100
AcDbDimension
  2
*D62
 10
597.4796265323284
 20
435.9597963674345
 30
0.0
 11
595.2296265323282
 21
420.4597963674346
 31
0.0
 70
    32
 71
     5
 42
31.0
  3
Standard
100
AcDbAlignedDimension
 13
624.0196265323284
 23
404.9597963674345
 33
0.0
 14
636.4796265323284
 24
435.9597963674345
 34
0.0
 50
90.0
100
AcDbRotatedDimension
1001
ACAD
1000
DSTYLE
1002
{
1070
    41
1040
2.0
1070
    42
1040
1.0
1070
    44
1040
1.0
1070
    73
1070
     0
1070
    74
1070
     0
1070
    77
1070
     1
1070
    78
1070
     8
1070
    79
1070
     2
1070
   140
1040
2.5
1070
   141
1040
0.0
1070
   147
1040
1.0
1070
   172
1070
     1
1070
   174
1070
     1
1070
   176
1070
   256
1070
   177
1070
   256
1070
   178
1070
   256
1070
   271
1070
     2
1070
   272
1070
     2
1070
   340
1005
B92
1070
   371
1070
    -1
1070
   372
1070
    -1
1002
}
  0
DIMENSION
  5
14DA
102
{ACAD_XDICTIONARY
360
14E7
102
}
102
{ACAD_REACTORS
330
14E8
102
}
330
1F
100
AcDbEntity
  8
Dim
100
AcDbDimension
  2
*D63
 10
317.3262854412948
 20
301.237773222337
 30
0.0
 11
315.0762854412947
 21
295.2377732223371
 31
0.0
 70
    32
 71
     5
 42
12.0
  3
Standard
100
AcDbAlignedDimension
 13
299.1955467127005
 23
289.237773222337
 33
0.0
 14
279.7365467127007
 24
301.237773222337
 34
0.0
 50
90.00000000000003
100
AcDbRotatedDimension
1001
ACAD
1000
DSTYLE
1002
{
1070
    41
1040
2.0
1070
    42
1040
1.0
1070
    44
1040
1.0
1070
    73
1070
     0
1070
    74
1070
     0
1070
    77
1070
     1
1070
    78
1070
     8
1070
    79
1070
     2
1070
   140
1040
2.5
1070
   141
1040
0.0
1070
   147
1040
1.0
1070
   172
1070
     1
1070
   174
1070
     1
1070
   176
1070
   256
1070
   177
1070
   256
1070
   178
1070
   256
1070
   271
1070
     2
1070
   272
1070
     2
1070
   340
1005
B92
1070
   371
1070
    -1
1070
   372
1070
    -1
1002
}
  0
DIMENSION
  5
1500
102
{ACAD_XDICTIONARY
360
150D
102
}
102
{ACAD_REACTORS
330
150E
102
}
330
1F
100
AcDbEntity
  8
Dim
100
AcDbDimension
  2
*D64
 10
294.6775467127005
 20
265.237773222337
 30
0.0
 11
284.6775467127005
 21
267.487773222337
 31
0.0
 70
    32
 71
     5
 42
20.0
  3
Standard
100
AcDbAlignedDimension
 13
274.6775467127005
 23
296.6677732223368
 33
0.0
 14
294.6775467127005
 24
285.0177732223368
 34
0.0
 50
0.0000000000001018
100
AcDbRotatedDimension
1001
ACAD
1000
DSTYLE
1002
{
1070
    41
1040
2.0
1070
    42
1040
1.0
1070
    44
1040
1.0
1070
    73
1070
     0
1070
    74
1070
     0
1070
    77
1070
     1
1070
    78
1070
     8
1070
    79
1070
     2
1070
   140
1040
2.5
1070
   141
1040
0.0
1070
   147
1040
1.0
1070
   172
1070
     1
1070
   174
1070
     1
1070
   176
1070
   256
1070
   177
1070
   256
1070
   178
1070
   256
1070
   271
1070
     2
1070
   272
1070
     2
1070
   340
1005
B92
1070
   371
1070
    -1
1070
   372
1070
    -1
1002
}
  0
DIMENSION
  5
1526
102
{ACAD_XDICTIONARY
360
1533
102
}
102
{ACAD_REACTORS
330
1534
102
}
330
1F
100
AcDbEntity
  8
Dim
100
AcDbDimension
  2
*D65
 10
303.6775467127005
 20
265.2377732223369
 30
0.0
 11
299.1775467127005
 21
267.4877732223369
 31
0.0
 70
    32
 71
     5
 42
9.0
  3
Standard
100
AcDbAlignedDimension
 13
294.6775467127005
 23
285.0177732223368
 33
0.0
 14
303.6775467127005
 24
277.237773222337
 34
0.0
 50
0.0000000000001018
100
AcDbRotatedDimension
1001
ACAD
1000
DSTYLE
1002
{
1070
    41
1040
2.0
1070
    42
1040
1.0
1070
    44
1040
1.0
1070
    73
1070
     0
1070
    74
1070
     0
1070
    77
1070
     1
1070
    78
1070
     8
1070
    79
1070
     2
1070
   140
1040
2.5
1070
   141
1040
0.0
1070
   147
1040
1.0
1070
   172
1070
     1
1070
   174
1070
     1
1070
   176
1070
   256
1070
   177
1070
   256
1070
   178
1070
   256
1070
   271
1070
     2
1070
   272
1070
     2
1070
   340
1005
B92
1070
   371
1070
    -1
1070
   372
1070
    -1
1002
}
  0
DIMENSION
  5
1568
102
{ACAD_XDICTIONARY
360
1575
102
}
102
{ACAD_REACTORS
330
1576
102
}
330
1F
100
AcDbEntity
  8
Dim
100
AcDbDimension
  2
*D66
 10
323.6775467127005
 20
409.4597963674345
 30
0.0
 11
321.4275467127004
 21
395.9597963674347
 31
0.0
 70
    32
 71
     5
 42
27.0
  3
Standard
100
AcDbAlignedDimension
 13
284.2885467127004
 23
382.4597963674346
 33
0.0
 14
284.4005467127005
 24
409.4597963674345
 34
0.0
 50
90.00000000000003
100
AcDbRotatedDimension
1001
ACAD
1000
DSTYLE
1002
{
1070
    41
1040
2.0
1070
    42
1040
1.0
1070
    44
1040
1.0
1070
    73
1070
     0
1070
    74
1070
     0
1070
    77
1070
     1
1070
    78
1070
     8
1070
    79
1070
     2
1070
   140
1040
2.5
1070
   141
1040
0.0
1070
   147
1040
1.0
1070
   172
1070
     1
1070
   174
1070
     1
1070
   176
1070
   256
1070
   177
1070
   256
1070
   178
1070
   256
1070
   271
1070
     2
1070
   272
1070
     2
1070
   340
1005
B92
1070
   371
1070
    -1
1070
   372
1070
    -1
1002
}
  0
DIMENSION
  5
1618
102
{ACAD_XDICTIONARY
360
1627
102
}
102
{ACAD_REACTORS
330
1628
102
}
330
1F
100
AcDbEntity
  8
Dim
100
AcDbDimension
  2
*D67
 10
572.2703075699147
 20
430.9597963674345
 30
0.0
 11
570.0203075699146
 21
433.4597963674347
 31
0.0
 70
    32
 71
     5
 42
5.0
  3
Standard
100
AcDbAlignedDimension
 13
556.9427905053028
 23
435.9597963674345
 33
0.0
 14
553.5844887267545
 24
430.9597963674345
 34
0.0
 50
90.0
100
AcDbRotatedDimension
1001
ACAD
1000
DSTYLE
1002
{
1070
    41
1040
2.0
1070
    42
1040
1.0
1070
    44
1040
1.0
1070
    73
1070
     0
1070
    74
1070
     0
1070
    77
1070
     1
1070
    78
1070
     8
1070
    79
1070
     2
1070
   140
1040
2.5
1070
   141
1040
0.0
1070
   147
1040
1.0
1070
   172
1070
     1
1070
   174
1070
     1
1070
   176
1070
   256
1070
   177
1070
   256
1070
   178
1070
   256
1070
   271
1070
     2
1070
   272
1070
     2
1070
   340
1005
B92
1070
   371
1070
    -1
1070
   372
1070
    -1
1002
}
  0
LINE
  5
1669
330
1F
100
AcDbEntity
  8
Center
100
AcDbLine
 10
634.9353534746136
 20
430.9597963674345
 30
0.0
 11
642.8172131856263
 21
430.9597963674345
 31
0.0
  0
LINE
  5
166A
330
1F
100
AcDbEntity
  8
Center
100
AcDbLine
 10
634.9353534746136
 20
360.9597963674346
 30
0.0
 11
642.8172131856263
 21
360.9597963674346
 31
0.0
  0
LINE
  5
1681
330
1F
100
AcDbEntity
  8
Center
100
AcDbLine
 10
546.6845085139275
 20
430.9597963674345
 30
0.0
 11
553.5844887267545
 21
430.9597963674345
 31
0.0
  0
LINE
  5
168D
330
1F
100
AcDbEntity
  8
Center
100
AcDbLine
 10
532.2975078425566
 20
360.9597963674346
 30
0.0
 11
539.5844887267545
 21
360.9597963674346
 31
0.0
  0
LINE
  5
168E
330
1F
100
AcDbEntity
  8
Center
100
AcDbLine
 10
546.6845085139275
 20
360.9597963674346
 30
0.0
 11
553.5844887267545
 21
360.9597963674346
 31
0.0
  0
TEXT
  5
1736
330
1F
100
AcDbEntity
  8
LOGO
 62
     7
100
AcDbText
 10
263.8702582946316
 20
204.6172359052593
 30
0.0
 40
5.375221574660632
  1
Order example:
 41
0.8
  7
CHINESET
100
AcDbText
  0
TEXT
  5
1737
330
1F
100
AcDbEntity
  8
LOGO
 62
     7
100
AcDbText
 10
264.8346174963998
 20
212.1844349285534
 30
0.0
 40
8.062832361990947
  1
訂購代號：
  7
CHINESET
100
AcDbText
  0
LINE
  5
1738
330
1F
100
AcDbEntity
  8
LOGO
 62
     4
100
AcDbLine
 10
261.5347062887384
 20
181.9640223801635
 30
0.0
 11
261.5347062887384
 21
222.2781841901185
 31
0.0
  0
TEXT
  5
1739
330
1F
100
AcDbEntity
  8
LOGO
  6
Continuous
100
AcDbText
 10
187.324578444637
 20
189.8836786283543
 30
0.0
 40
6.047124271493212
  1
金器工業股份有限公司
  7
CHINESET
100
AcDbText
  0
TEXT
  5
173A
330
1F
100
AcDbEntity
  8
LOGO
  6
Continuous
100
AcDbText
 10
176.2172075224428
 20
183.8353695946168
 30
0.0
 40
4.031416180995473
  1
MINDMAN INDUSTRIAL CO., LTD.
 41
0.85
  7
CHINESET
100
AcDbText
  0
LINE
  5
173B
330
1F
100
AcDbEntity
  8
LOGO
 62
     4
100
AcDbLine
 10
261.5347062887384
 20
214.2153518281274
 30
0.0
 11
202.4072689674708
 21
214.2153518281274
 31
0.0
  0
LINE
  5
173C
330
1F
100
AcDbEntity
  8
LOGO
 62
     4
100
AcDbLine
 10
261.5347062887384
 20
206.1525194661365
 30
0.0
 11
202.4072689674708
 21
206.1525194661365
 31
0.0
  0
LINE
  5
173D
330
1F
100
AcDbEntity
  8
LOGO
 62
     4
100
AcDbLine
 10
261.5347062887384
 20
198.0896871041459
 30
0.0
 11
172.8435503068376
 21
198.0896871041459
 31
0.0
  0
LINE
  5
173E
330
1F
100
AcDbEntity
  8
LOGO
 62
     4
100
AcDbLine
 10
202.4072689674708
 20
198.0896871041459
 30
0.0
 11
202.4072689674708
 21
222.2781841901185
 31
0.0
  0
TEXT
  5
173F
330
1F
100
AcDbEntity
  8
LOGO
100
AcDbText
 10
242.8180816040242
 20
200.105395194643
 30
0.0
 40
4.031416180995473
  1
mm
  7
CHINESET
 72
     1
 11
247.8093587804948
 21
202.1211032851407
 31
0.0
100
AcDbText
 73
     2
  0
TEXT
  5
1740
330
1F
100
AcDbEntity
  8
LOGO
100
AcDbText
 10
240.7063874139789
 20
216.2310599186251
 30
0.0
 40
4.031416180995473
  1
1 : 1
  7
CHINESET
 72
     1
 11
247.8093587804948
 21
218.2467680091228
 31
0.0
100
AcDbText
 73
     2
  0
LINE
  5
1741
330
1F
100
AcDbEntity
  8
LOGO
 62
     4
100
AcDbLine
 10
234.6585984154349
 20
198.0896871041459
 30
0.0
 11
234.6585984154349
 21
222.2781841901185
 31
0.0
  0
TEXT
  5
1742
330
1F
100
AcDbEntity
  8
LOGO
100
AcDbText
 10
205.7313875774257
 20
216.233043883281
 30
264.2123751322604
 40
4.031416180995473
  1
比例 Scale:
 41
0.9
  7
CHINESET
 72
     4
 11
218.5329336914529
 21
218.2467680091228
 31
264.2123751322604
100
AcDbText
  0
TEXT
  5
1743
330
1F
100
AcDbEntity
  8
LOGO
100
AcDbText
 10
205.4992211991451
 20
208.224935879718
 30
264.2123751322604
 40
4.031416180995473
  1
投影  View:
 41
0.9
  7
CHINESET
 72
     4
 11
218.5329336914529
 21
210.1839356471318
 31
264.2123751322604
100
AcDbText
  0
TEXT
  5
1744
330
1F
100
AcDbEntity
  8
LOGO
100
AcDbText
 10
205.8933641204121
 20
200.105395194643
 30
264.2123751322604
 40
4.031416180995473
  1
單位  Unit:
 41
0.9
  7
CHINESET
 72
     4
 11
218.5329336914529
 21
202.1211032851407
 31
264.2123751322604
100
AcDbText
  0
LWPOLYLINE
  5
1745
330
1F
100
AcDbEntity
  8
LOGO
 62
     4
100
AcDbPolyline
 90
        4
 70
     1
 43
0.0
 10
172.8435503068376
 20
222.2781841901184
 10
722.8435503068376
 20
222.2781841901184
 10
722.8435503068376
 20
585.1640223801626
 10
172.8435503068376
 20
585.1640223801626
1001
GENIUS_GENREC_14
1002
{
1000
PYDIR
1011
172.8435503068376
1021
585.1640223801626
1031
0.0
1002
}
1002
{
1000
PXDIR
1011
722.8435503068376
1021
222.2781841901184
1031
0.0
1002
}
1002
{
1000
PORI
1011
172.8435503068376
1021
222.2781841901184
1031
0.0
1002
}
1002
{
1000
PINS
1011
172.8435503068376
1021
222.2781841901184
1031
0.0
1002
}
1002
{
1000
PINS2
1011
722.8435503068376
1021
585.1640223801626
1031
0.0
1002
}
1002
{
1000
C
1070
     1
1002
}
1001
GENIUS_GENODEF_13
1002
{
1000
HIER
1070
     0
1002
}
1002
{
1000
MANEDIT
1070
     0
1002
}
1002
{
1000
NOSEL
1070
     0
1002
}
1002
{
1000
BEHIND
1070
     0
1002
}
1002
{
1000
OTHER
1070
     0
1002
}
1002
{
1000
REACTOR
1002
}
1001
GENIUS_GENOBJ-N-REC_13
1002
{
1000
OWNER
1000
GEN
1002
}
  0
SOLID
  5
1746
330
1F
100
AcDbEntity
  8
LOGO
 62
     5
100
AcDbTrace
 10
177.0262092939288
 20
204.7913426781436
 30
0.0
 11
178.7692878662304
 21
204.791342678143
 31
0.0
 12
186.0421329437656
 22
221.3205360361787
 32
0.0
 13
187.7852115160682
 23
221.3205360361778
 33
0.0
  0
SOLID
  5
1747
330
1F
100
AcDbEntity
  8
LOGO
 62
     5
100
AcDbTrace
 10
179.4905617582194
 20
204.7913426781436
 30
0.0
 11
181.2336403305213
 21
204.7913426781436
 31
0.0
 12
187.7852115160682
 22
219.9982005675352
 32
0.0
 13
186.0421329437656
 23
213.606912469095
 33
0.0
  0
SOLID
  5
1748
330
1F
100
AcDbEntity
  8
LOGO
 62
     2
100
AcDbTrace
 10
178.7692878662304
 20
204.791342678143
 30
0.0
 11
179.4905617582194
 21
204.7913426781436
 31
0.0
 12
187.7852115160682
 22
221.3205360361778
 32
0.0
 13
188.5064854080562
 23
221.3205360361778
 33
0.0
  0
SOLID
  5
1749
330
1F
100
AcDbEntity
  8
LOGO
 62
     5
100
AcDbTrace
 10
174.2316268873025
 20
198.7807269115858
 30
0.0
 11
174.8326884639591
 21
198.7807269115858
 31
0.0
 12
176.5253246467161
 22
201.7860347948645
 32
0.0
 13
177.1263862233706
 23
201.7860347948645
 33
0.0
  0
SOLID
  5
174A
330
1F
100
AcDbEntity
  8
LOGO
 62
     5
100
AcDbTrace
 10
176.5253246467161
 20
201.7860347948645
 30
0.0
 11
177.1263862233706
 21
201.7860347948645
 31
0.0
 12
176.5253246467161
 22
198.7807269115858
 32
0.0
 13
177.1263862233706
 23
198.7807269115858
 33
0.0
  0
SOLID
  5
174B
330
1F
100
AcDbEntity
  8
LOGO
 62
     5
100
AcDbTrace
 10
176.5253246467161
 20
198.7807269115858
 30
0.0
 11
177.1263862233706
 21
198.7807269115858
 31
0.0
 12
178.8190224061305
 22
201.7860347948645
 32
0.0
 13
179.4200839827861
 23
201.7860347948645
 33
0.0
  0
SOLID
  5
174C
330
1F
100
AcDbEntity
  8
LOGO
 62
     5
100
AcDbTrace
 10
178.8190224061305
 20
201.7860347948645
 30
0.0
 11
179.4200839827861
 21
201.7860347948645
 31
0.0
 12
178.8190224061305
 22
198.7807269115858
 32
0.0
 13
179.4200839827861
 23
198.7807269115858
 33
0.0
  0
POLYLINE
  5
174D
330
1F
100
AcDbEntity
  8
LOGO
 62
     5
100
AcDb2dPolyline
 66
     1
 10
0.0
 20
0.0
 30
0.0
 40
0.6020248163619907
 41
0.6020248163619907
  0
VERTEX
  5
174E
330
174D
100
AcDbEntity
  8
LOGO
 62
     5
100
AcDbVertex
100
AcDb2dVertex
 10
198.9664017014264
 20
200.5839116415529
 30
0.0
 42
1.0
  0
VERTEX
  5
174F
330
174D
100
AcDbEntity
  8
LOGO
 62
     5
100
AcDbVertex
100
AcDb2dVertex
 10
197.1603272523402
 20
200.5839116415529
 30
0.0
 42
1.0
  0
SEQEND
  5
1750
330
174D
100
AcDbEntity
  8
LOGO
 62
     5
  0
POLYLINE
  5
1751
330
1F
100
AcDbEntity
  8
LOGO
 62
     5
100
AcDb2dPolyline
 66
     1
 10
0.0
 20
0.0
 30
0.0
 70
     1
  0
VERTEX
  5
1752
330
1751
100
AcDbEntity
  8
LOGO
 62
     5
100
AcDbVertex
100
AcDb2dVertex
 10
193.7557965816204
 20
200.2833808532247
 30
0.0
 42
1.000000057330635
  0
VERTEX
  5
1753
330
1751
100
AcDbEntity
  8
LOGO
 62
     5
100
AcDbVertex
100
AcDb2dVertex
 10
195.558981311588
 20
200.2833808532247
 30
0.0
 42
1.000000057330635
  0
SEQEND
  5
1754
330
1751
100
AcDbEntity
  8
LOGO
 62
     5
  0
CIRCLE
  5
1755
330
1F
100
AcDbEntity
  8
LOGO
 62
     5
100
AcDbCircle
 10
194.6573889466057
 20
200.2833808532247
 30
0.0
 40
0.9015923649837176
  0
POLYLINE
  5
1756
330
1F
100
AcDbEntity
  8
LOGO
 62
     5
100
AcDb2dPolyline
 66
     1
 10
0.0
 20
0.0
 30
0.0
 70
     1
 40
0.6020248163619907
 41
0.6020248163619907
  0
VERTEX
  5
1757
330
1756
100
AcDbEntity
  8
LOGO
 62
     5
100
AcDbVertex
100
AcDb2dVertex
 10
193.4533393138808
 20
200.2833808532247
 30
0.0
 42
1.0
  0
VERTEX
  5
1758
330
1756
100
AcDbEntity
  8
LOGO
 62
     5
100
AcDbVertex
100
AcDb2dVertex
 10
195.8614385793286
 20
200.2833808532247
 30
0.0
 42
1.0
  0
SEQEND
  5
1759
330
1756
100
AcDbEntity
  8
LOGO
 62
     5
  0
LINE
  5
175A
330
1F
100
AcDbEntity
  8
LOGO
100
AcDbLine
 10
199.2654876301939
 20
198.7807269115858
 30
0.0
 11
199.2654876301939
 21
200.5839116415529
 31
0.0
  0
SOLID
  5
175B
330
1F
100
AcDbEntity
  8
LOGO
 62
     5
100
AcDbTrace
 10
195.5589212054332
 20
201.7860347948645
 30
0.0
 11
196.1599827820878
 21
201.7860347948645
 31
0.0
 12
195.5589212054332
 22
198.7807269115858
 32
0.0
 13
196.1599827820878
 23
198.7807269115858
 33
0.0
  0
SOLID
  5
175C
330
1F
100
AcDbEntity
  8
LOGO
 62
     5
100
AcDbTrace
 10
196.8612413235709
 20
198.7807269115858
 30
0.0
 11
197.4623029002273
 21
198.7807269115858
 31
0.0
 12
196.8612413235709
 22
201.7860347948645
 32
0.0
 13
197.4623029002273
 23
201.7860347948645
 33
0.0
  0
SOLID
  5
175D
330
1F
100
AcDbEntity
  8
LOGO
 62
     5
100
AcDbTrace
 10
198.6644260535392
 20
200.5839116415529
 30
0.0
 11
199.2654876301939
 21
200.5839116415529
 31
0.0
 12
198.6644260535392
 22
198.7807269115858
 32
0.0
 13
199.2654876301939
 23
198.7807269115858
 33
0.0
  0
SOLID
  5
175E
330
1F
100
AcDbEntity
  8
LOGO
 62
     5
100
AcDbTrace
 10
196.801135165905
 20
219.9982005675352
 30
0.0
 11
195.0580565936043
 21
213.606912469095
 31
0.0
 12
196.801135165905
 22
204.791342678143
 32
0.0
 13
195.0580565936043
 23
204.791342678143
 33
0.0
  0
SOLID
  5
175F
330
1F
100
AcDbEntity
  8
LOGO
 62
     5
100
AcDbTrace
 10
197.5224090578931
 20
204.791342678143
 30
0.0
 11
199.2654876301939
 21
204.791342678143
 31
0.0
 12
197.5224090578931
 22
221.3205360361778
 32
0.0
 13
199.2654876301939
 23
221.3205360361787
 33
0.0
  0
SOLID
  5
1760
330
1F
100
AcDbEntity
  8
LOGO
 62
     2
100
AcDbTrace
 10
196.801135165905
 20
221.3205360361787
 30
0.0
 11
197.5224090578931
 21
221.3205360361778
 31
0.0
 12
196.801135165905
 22
204.791342678143
 32
0.0
 13
197.5224090578931
 23
204.791342678143
 33
0.0
  0
POLYLINE
  5
1761
330
1F
100
AcDbEntity
  8
LOGO
 62
     5
100
AcDb2dPolyline
 66
     1
 10
0.0
 20
0.0
 30
0.0
 40
0.6020248163619907
 41
0.6020248163619907
  0
VERTEX
  5
1762
330
1761
100
AcDbEntity
  8
LOGO
 62
     5
100
AcDbVertex
100
AcDb2dVertex
 10
190.3511456985884
 20
200.5839116415529
 30
0.0
 42
1.0
  0
VERTEX
  5
1763
330
1761
100
AcDbEntity
  8
LOGO
 62
     5
100
AcDbVertex
100
AcDb2dVertex
 10
188.5450712495019
 20
200.5839116415529
 30
0.0
 42
1.0
  0
SEQEND
  5
1764
330
1761
100
AcDbEntity
  8
LOGO
 62
     5
  0
POLYLINE
  5
1765
330
1F
100
AcDbEntity
  8
LOGO
 62
     5
100
AcDb2dPolyline
 66
     1
 10
0.0
 20
0.0
 30
0.0
 40
0.6020248163619907
 41
0.6020248163619907
  0
VERTEX
  5
1766
330
1765
100
AcDbEntity
  8
LOGO
 62
     5
100
AcDbVertex
100
AcDb2dVertex
 10
192.154330428554
 20
200.5839116415529
 30
0.0
 42
1.0
  0
VERTEX
  5
1767
330
1765
100
AcDbEntity
  8
LOGO
 62
     5
100
AcDbVertex
100
AcDb2dVertex
 10
190.3482559794686
 20
200.5839116415529
 30
0.0
 42
1.0
  0
SEQEND
  5
1768
330
1765
100
AcDbEntity
  8
LOGO
 62
     5
  0
POLYLINE
  5
1769
330
1F
100
AcDbEntity
  8
LOGO
 62
     5
100
AcDb2dPolyline
 66
     1
 10
0.0
 20
0.0
 30
0.0
 40
0.6020248163619907
 41
0.6020248163619907
  0
VERTEX
  5
176A
330
1769
100
AcDbEntity
  8
LOGO
 62
     5
100
AcDbVertex
100
AcDb2dVertex
 10
183.5390744257156
 20
200.5839116415529
 30
0.0
 42
1.0
  0
VERTEX
  5
176B
330
1769
100
AcDbEntity
  8
LOGO
 62
     5
100
AcDbVertex
100
AcDb2dVertex
 10
181.7329999766302
 20
200.5839116415529
 30
0.0
 42
1.0
  0
SEQEND
  5
176C
330
1769
100
AcDbEntity
  8
LOGO
 62
     5
  0
SOLID
  5
176D
330
1F
100
AcDbEntity
  8
LOGO
 62
     5
100
AcDbTrace
 10
181.4339140478619
 20
201.7860347948645
 30
0.0
 11
182.0349756245165
 21
201.7860347948645
 31
0.0
 12
181.4339140478619
 22
198.7807269115858
 32
0.0
 13
182.0349756245165
 23
198.7807269115858
 33
0.0
  0
SOLID
  5
176E
330
1F
100
AcDbEntity
  8
LOGO
 62
     5
100
AcDbTrace
 10
183.2370987778294
 20
200.5839116415529
 30
0.0
 11
183.838160354486
 21
200.5839116415529
 31
0.0
 12
183.2370987778294
 22
198.7807269115858
 32
0.0
 13
183.838160354486
 23
198.7807269115858
 33
0.0
  0
POLYLINE
  5
176F
330
1F
100
AcDbEntity
  8
LOGO
 62
     5
100
AcDb2dPolyline
 66
     1
 10
0.0
 20
0.0
 30
0.0
 70
     1
 40
0.6020248163619907
 41
0.6020248163619907
  0
VERTEX
  5
1770
330
176F
100
AcDbEntity
  8
LOGO
 62
     5
100
AcDbVertex
100
AcDb2dVertex
 10
184.8380833110416
 20
200.2833808532247
 30
0.0
 42
1.0
  0
VERTEX
  5
1771
330
176F
100
AcDbEntity
  8
LOGO
 62
     5
100
AcDbVertex
100
AcDb2dVertex
 10
187.2461825764905
 20
200.2833808532247
 30
0.0
 42
1.0
  0
SEQEND
  5
1772
330
176F
100
AcDbEntity
  8
LOGO
 62
     5
  0
SOLID
  5
1773
330
1F
100
AcDbEntity
  8
LOGO
 62
     5
100
AcDbTrace
 10
186.9436652025931
 20
202.6876271598486
 30
0.0
 11
187.5447267792486
 21
202.6876271598486
 31
0.0
 12
186.9436652025931
 22
198.7807269115858
 32
0.0
 13
187.5447267792486
 23
198.7807269115858
 33
0.0
  0
SOLID
  5
1774
330
1F
100
AcDbEntity
  8
LOGO
 62
     5
100
AcDbTrace
 10
188.2459853207344
 20
201.7860347948645
 30
0.0
 11
188.847046897389
 21
201.7860347948645
 31
0.0
 12
188.2459853207344
 22
198.7807269115858
 32
0.0
 13
188.847046897389
 23
198.7807269115858
 33
0.0
  0
SOLID
  5
1775
330
1F
100
AcDbEntity
  8
LOGO
 62
     5
100
AcDbTrace
 10
190.0491700507
 20
200.5839116415529
 30
0.0
 11
190.6502316273567
 21
200.5839116415529
 31
0.0
 12
190.0491700507
 22
198.7807269115858
 32
0.0
 13
190.6502316273567
 23
198.7807269115858
 33
0.0
  0
SOLID
  5
1776
330
1F
100
AcDbEntity
  8
LOGO
 62
     5
100
AcDbTrace
 10
191.8523547806676
 20
200.5839116415529
 30
0.0
 11
192.4534163573232
 21
200.5839116415529
 31
0.0
 12
191.8523547806676
 22
198.7807269115849
 32
0.0
 13
192.4534163573232
 23
198.7807269115849
 33
0.0
  0
SOLID
  5
1777
330
1F
100
AcDbEntity
  8
LOGO
 62
     5
100
AcDbTrace
 10
180.1315939297213
 20
202.2067778985237
 30
0.0
 11
180.7326555063788
 21
202.2067778985237
 31
0.0
 12
180.1315939297213
 22
202.6876271598486
 32
0.0
 13
180.7326555063788
 23
202.6876271598486
 33
0.0
  0
SOLID
  5
1778
330
1F
100
AcDbEntity
  8
LOGO
 62
     5
100
AcDbTrace
 10
180.1315939297213
 20
201.7860347948645
 30
0.0
 11
180.7326555063788
 21
201.7860347948645
 31
0.0
 12
180.1315939297213
 22
198.7807269115849
 32
0.0
 13
180.7326555063788
 23
198.7807269115858
 33
0.0
  0
SOLID
  5
1779
330
1F
100
AcDbEntity
  8
LOGO
 62
     5
100
AcDbTrace
 10
186.0421329437656
 20
204.7913426781436
 30
0.0
 11
187.7852115160682
 21
204.7913426781436
 31
0.0
 12
186.0421329437656
 22
213.606912469095
 32
0.0
 13
187.7852115160682
 23
219.9982005675352
 33
0.0
  0
SOLID
  5
177A
330
1F
100
AcDbEntity
  8
LOGO
 62
     5
100
AcDbTrace
 10
188.5064854080562
 20
221.3205360361778
 30
0.0
 11
190.249563980357
 21
221.3205360361787
 31
0.0
 12
188.5064854080562
 22
206.1136781467861
 32
0.0
 13
190.249563980357
 23
212.5049662452263
 33
0.0
  0
SOLID
  5
177B
330
1F
100
AcDbEntity
  8
LOGO
 62
     2
100
AcDbTrace
 10
187.7852115160682
 20
221.3205360361778
 30
0.0
 11
188.5064854080562
 21
221.3205360361778
 31
0.0
 12
187.7852115160682
 22
204.7913426781436
 32
0.0
 13
188.5064854080562
 23
204.7913426781436
 33
0.0
  0
SOLID
  5
177C
330
1F
100
AcDbEntity
  8
LOGO
 62
     5
100
AcDbTrace
 10
188.5064854080562
 20
206.1136781467861
 30
0.0
 11
190.249563980357
 21
212.5049662452263
 31
0.0
 12
196.801135165905
 22
221.3205360361787
 32
0.0
 13
195.0580565936043
 23
221.3205360361787
 33
0.0
  0
SOLID
  5
177D
330
1F
100
AcDbEntity
  8
LOGO
 62
     5
100
AcDbTrace
 10
188.5064854080562
 20
204.7913426781436
 30
0.0
 11
190.249563980357
 21
204.7913426781436
 31
0.0
 12
196.801135165905
 22
219.9982005675352
 32
0.0
 13
195.0580565936043
 23
213.606912469095
 33
0.0
  0
SOLID
  5
177E
330
1F
100
AcDbEntity
  8
LOGO
 62
     2
100
AcDbTrace
 10
187.7852115160682
 20
204.7913426781436
 30
0.0
 11
188.5064854080562
 21
204.7913426781436
 31
0.0
 12
196.801135165905
 22
221.3205360361787
 32
0.0
 13
197.5224090578931
 23
221.3205360361778
 33
0.0
  0
LWPOLYLINE
  5
177F
330
1F
100
AcDbEntity
  8
LOGO
 62
     4
100
AcDbPolyline
 90
        4
 70
     1
 43
0.0
 10
172.8435503068376
 20
222.2781841901184
 10
722.8435503068376
 20
222.2781841901184
 10
722.8435503068376
 20
181.964022380163
 10
172.8435503068376
 20
181.964022380163
1001
GENIUS_GENREC_14
1002
{
1000
PYDIR
1011
172.8435503068376
1021
181.964022380163
1031
0.0
1002
}
1002
{
1000
PXDIR
1011
722.8435503068376
1021
222.2781841901184
1031
0.0
1002
}
1002
{
1000
PORI
1011
172.8435503068376
1021
222.2781841901184
1031
0.0
1002
}
1002
{
1000
PINS
1011
172.8435503068376
1021
222.2781841901184
1031
0.0
1002
}
1002
{
1000
PINS2
1011
722.8435503068376
1021
181.964022380163
1031
0.0
1002
}
1002
{
1000
C
1070
     1
1002
}
1001
GENIUS_GENOBJ-N-REC_13
1002
{
1000
OWNER
1000
GEN
1002
}
1001
GENIUS_GENODEF_13
1002
{
1000
HIER
1070
     0
1002
}
1002
{
1000
MANEDIT
1070
     0
1002
}
1002
{
1000
NOSEL
1070
     0
1002
}
1002
{
1000
BEHIND
1070
     0
1002
}
1002
{
1000
OTHER
1070
     0
1002
}
1002
{
1000
REACTOR
1002
}
  0
LINE
  5
1780
330
1F
100
AcDbEntity
  8
LOGO
 62
     4
100
AcDbLine
 10
343.8611544983026
 20
200.1053951946438
 30
0.0
 11
343.8611544983026
 21
185.3235358643262
 31
0.0
  0
LINE
  5
1781
330
1F
100
AcDbEntity
  8
LOGO
 62
     4
100
AcDbLine
 10
316.9850466249991
 20
200.1053951946438
 30
0.0
 11
316.9850466249991
 21
185.3235358643262
 31
0.0
  0
LINE
  5
1782
330
1F
100
AcDbEntity
  8
LOGO
 62
     4
100
AcDbLine
 10
343.8611544983026
 20
185.3235358643262
 30
0.0
 11
316.9850466249991
 21
185.3235358643262
 31
0.0
  0
LINE
  5
1783
330
1F
100
AcDbEntity
  8
LOGO
 62
     4
100
AcDbLine
 10
351.6845437734476
 20
218.2467680091228
 30
0.0
 11
316.9850466249991
 21
218.2467680091228
 31
0.0
  0
LINE
  5
1784
330
1F
100
AcDbEntity
  8
LOGO
 62
     4
100
AcDbLine
 10
351.6845437734476
 20
206.1525194661365
 30
0.0
 11
316.9850466249991
 21
206.1525194661365
 31
0.0
  0
LINE
  5
1785
330
1F
100
AcDbEntity
  8
LOGO
 62
     4
100
AcDbLine
 10
316.9850466249991
 20
218.2467680091228
 30
0.0
 11
316.9850466249991
 21
206.1525194661365
 31
0.0
  0
LINE
  5
1786
330
1F
100
AcDbEntity
  8
LOGO
 62
     4
100
AcDbLine
 10
351.6845437734476
 20
218.2467680091228
 30
0.0
 11
351.6845437734476
 21
206.1525194661365
 31
0.0
  0
LINE
  5
1787
330
1F
100
AcDbEntity
  8
LOGO
 62
     4
100
AcDbLine
 10
331.8253583481756
 20
206.1525194661365
 30
0.0
 11
331.8253583481756
 21
200.1053951946438
 31
0.0
  0
TEXT
  5
1788
330
1F
100
AcDbEntity
  8
LOGO
  6
Continuous
100
AcDbText
 10
319.1340051781716
 20
208.6771761676953
 30
0.0
 40
7.055999999999998
  1
MCHW
  7
CHINESET
100
AcDbText
  0
LINE
  5
1789
330
1F
100
AcDbEntity
  8
LOGO
 62
     4
100
AcDbLine
 10
343.8611544983026
 20
200.1053951946438
 30
0.0
 11
316.9850466249991
 21
200.1053951946438
 31
0.0
  0
TEXT
  5
178A
330
1F
100
AcDbEntity
  8
LOGO
  6
Continuous
100
AcDbText
 10
325.6095045530794
 20
187.4099639631397
 30
264.2123751322604
 40
3.023999999999999
  1
Model
 41
0.8
  7
CHINESET
100
AcDbText
  0
TEXT
  5
178B
330
1F
100
AcDbEntity
  8
LOGO
100
AcDbText
 10
324.8046140572733
 20
193.0158082446252
 30
264.2123751322604
 40
5.04
  1
型號
  7
CHINESET
100
AcDbText
  0
LINE
  5
178C
330
1F
100
AcDbEntity
  8
LOGO
  6
Continuous
100
AcDbLine
 10
352.9702623511548
 20
212.1568039979475
 30
0.0
 11
358.310641208217
 21
212.1568039979475
 31
0.0
  0
LINE
  5
178D
330
1F
100
AcDbEntity
  8
LOGO
 62
     4
100
AcDbLine
 10
377.2391272181508
 20
200.1053951946438
 30
0.0
 11
377.2391272181508
 21
185.3235358643262
 31
0.0
  0
LINE
  5
178E
330
1F
100
AcDbEntity
  8
LOGO
 62
     4
100
AcDbLine
 10
350.3630193448474
 20
200.1053951946438
 30
0.0
 11
350.3630193448474
 21
185.3235358643262
 31
0.0
  0
LINE
  5
178F
330
1F
100
AcDbEntity
  8
LOGO
 62
     4
100
AcDbLine
 10
377.2391272181508
 20
185.3235358643262
 30
0.0
 11
350.3630193448474
 21
185.3235358643262
 31
0.0
  0
LINE
  5
1790
330
1F
100
AcDbEntity
  8
LOGO
 62
     4
100
AcDbLine
 10
375.9085670951135
 20
218.2467680091228
 30
0.0
 11
360.2575627052606
 21
218.2467680091228
 31
0.0
  0
LINE
  5
1791
330
1F
100
AcDbEntity
  8
LOGO
 62
     4
100
AcDbLine
 10
375.9085670951135
 20
206.1525194661365
 30
0.0
 11
360.2575627052606
 21
206.1525194661365
 31
0.0
  0
LINE
  5
1792
330
1F
100
AcDbEntity
  8
LOGO
 62
     4
100
AcDbLine
 10
360.2575627052606
 20
218.2467680091228
 30
0.0
 11
360.2575627052606
 21
206.1525194661365
 31
0.0
  0
LINE
  5
1793
330
1F
100
AcDbEntity
  8
LOGO
 62
     4
100
AcDbLine
 10
375.9085670951135
 20
218.2467680091228
 30
0.0
 11
375.9085670951135
 21
206.1525194661365
 31
0.0
  0
LINE
  5
1794
330
1F
100
AcDbEntity
  8
LOGO
 62
     4
100
AcDbLine
 10
369.5497977251055
 20
206.1525194661365
 30
0.0
 11
369.5497977251055
 21
200.1053951946438
 31
0.0
  0
TEXT
  5
1795
330
1F
100
AcDbEntity
  8
LOGO
  6
Continuous
100
AcDbText
 10
362.4694542547493
 20
208.6771761676953
 30
0.0
 40
7.055999999999998
  1
20
  7
CHINESET
100
AcDbText
  0
LINE
  5
1796
330
1F
100
AcDbEntity
  8
LOGO
 62
     4
100
AcDbLine
 10
377.2391272181508
 20
200.1053951946438
 30
0.0
 11
350.3630193448474
 21
200.1053951946438
 31
0.0
  0
LINE
  5
1797
330
1F
100
AcDbEntity
  8
LOGO
  6
Continuous
100
AcDbLine
 10
400.5580977255386
 20
212.1568039979475
 30
0.0
 11
405.8984765826015
 21
212.1568039979475
 31
0.0
  0
LINE
  5
1798
330
1F
100
AcDbEntity
  8
LOGO
 62
     4
100
AcDbLine
 10
446.634325058794
 20
200.1053951946438
 30
0.0
 11
446.634325058794
 21
185.3235358643262
 31
0.0
  0
LINE
  5
1799
330
1F
100
AcDbEntity
  8
LOGO
 62
     4
100
AcDbLine
 10
410.7949669373952
 20
200.1053951946438
 30
0.0
 11
410.7949669373952
 21
185.3235358643262
 31
0.0
  0
LINE
  5
179A
330
1F
100
AcDbEntity
  8
LOGO
 62
     4
100
AcDbLine
 10
446.634325058794
 20
185.3235358643262
 30
0.0
 11
410.7949669373952
 21
185.3235358643262
 31
0.0
  0
LINE
  5
179B
330
1F
100
AcDbEntity
  8
LOGO
 62
     4
100
AcDbLine
 10
424.9227625712495
 20
218.2467680091228
 30
0.0
 11
408.6090330206507
 21
218.2467680091228
 31
0.0
  0
LINE
  5
179C
330
1F
100
AcDbEntity
  8
LOGO
 62
     4
100
AcDbLine
 10
424.9227625712495
 20
206.1525194661365
 30
0.0
 11
408.6090330206507
 21
206.1525194661365
 31
0.0
  0
LINE
  5
179D
330
1F
100
AcDbEntity
  8
LOGO
 62
     4
100
AcDbLine
 10
408.6090330206507
 20
218.2467680091228
 30
0.0
 11
408.6090330206507
 21
206.1525194661365
 31
0.0
  0
LINE
  5
179E
330
1F
100
AcDbEntity
  8
LOGO
 62
     4
100
AcDbLine
 10
424.9227625712495
 20
218.2467680091228
 30
0.0
 11
424.9227625712495
 21
206.1525194661365
 31
0.0
  0
LINE
  5
179F
330
1F
100
AcDbEntity
  8
LOGO
 62
     4
100
AcDbLine
 10
418.0379728327549
 20
206.1525194661365
 30
0.0
 11
418.0379728327549
 21
200.1053951946438
 31
0.0
  0
TEXT
  5
17A0
330
1F
100
AcDbEntity
  8
LOGO
  6
Continuous
100
AcDbText
 10
411.1694121970475
 20
208.6771761676953
 30
0.0
 40
7.055999999999998
  1
RK
  7
CHINESET
100
AcDbText
  0
LINE
  5
17A1
330
1F
100
AcDbEntity
  8
LOGO
 62
     4
100
AcDbLine
 10
446.634325058794
 20
200.1053951946438
 30
0.0
 11
410.7949669373952
 21
200.1053951946438
 31
0.0
  0
TEXT
  5
17A2
330
1F
100
AcDbEntity
  8
LOGO
  6
Continuous
100
AcDbText
 10
355.9924654885631
 20
187.4099639631397
 30
264.2123751322604
 40
3.023999999999999
  1
Tube I.D.
 41
0.8
  7
CHINESET
100
AcDbText
  0
TEXT
  5
17A3
330
1F
100
AcDbEntity
  8
LOGO
100
AcDbText
 10
357.9817436891968
 20
193.0158082446252
 30
264.2123751322604
 40
5.04
  1
內徑
  7
CHINESET
100
AcDbText
  0
TEXT
  5
17A4
330
1F
100
AcDbEntity
  8
LOGO
  6
Continuous
100
AcDbText
 10
412.6924376751005
 20
187.4099639631397
 30
264.2123751322604
 40
3.023999999999999
  1
Auto switch type
 41
0.8
  7
CHINESET
100
AcDbText
  0
TEXT
  5
17A5
330
1F
100
AcDbEntity
  8
LOGO
100
AcDbText
 10
414.6447000100603
 20
193.0158082446252
 30
264.2123751322604
 40
5.04
  1
感應器型式
  7
CHINESET
100
AcDbText
  0
LINE
  5
17A6
330
1F
100
AcDbEntity
  8
LOGO
 62
     4
100
AcDbLine
 10
449.9888299510269
 20
218.2467680091228
 30
0.0
 11
436.8651187530924
 21
218.2467680091228
 31
0.0
  0
LINE
  5
17A7
330
1F
100
AcDbEntity
  8
LOGO
 62
     4
100
AcDbLine
 10
449.9888299510269
 20
206.1525194661365
 30
0.0
 11
436.8651187530924
 21
206.1525194661365
 31
0.0
  0
LINE
  5
17A8
330
1F
100
AcDbEntity
  8
LOGO
 62
     4
100
AcDbLine
 10
436.8651187530924
 20
218.2467680091228
 30
0.0
 11
436.8651187530924
 21
206.1525194661365
 31
0.0
  0
LINE
  5
17A9
330
1F
100
AcDbEntity
  8
LOGO
 62
     4
100
AcDbLine
 10
449.9888299510269
 20
218.2467680091228
 30
0.0
 11
449.9888299510269
 21
206.1525194661365
 31
0.0
  0
LINE
  5
17AA
330
1F
100
AcDbEntity
  8
LOGO
 62
     4
100
AcDbLine
 10
500.9720980312679
 20
200.1053951946438
 30
0.0
 11
500.9720980312679
 21
185.3235358643262
 31
0.0
  0
LINE
  5
17AB
330
1F
100
AcDbEntity
  8
LOGO
 62
     4
100
AcDbLine
 10
450.2329096796013
 20
200.1053951946438
 30
0.0
 11
450.2329096796013
 21
185.3235358643262
 31
0.0
  0
LINE
  5
17AC
330
1F
100
AcDbEntity
  8
LOGO
 62
     4
100
AcDbLine
 10
500.9720980312679
 20
185.3235358643262
 30
0.0
 11
450.2329096796013
 21
185.3235358643262
 31
0.0
  0
LINE
  5
17AD
330
1F
100
AcDbEntity
  8
LOGO
 62
     4
100
AcDbLine
 10
500.9720980312679
 20
200.1053951946438
 30
0.0
 11
450.2329096796013
 21
200.1053951946438
 31
0.0
  0
TEXT
  5
17AE
330
1F
100
AcDbEntity
  8
LOGO
  6
Continuous
100
AcDbText
 10
454.9922919100845
 20
187.4099639631397
 30
264.2123751322604
 40
3.023999999999999
  1
Number of auto switch
 41
0.8
  7
CHINESET
100
AcDbText
  0
TEXT
  5
17AF
330
1F
100
AcDbEntity
  8
LOGO
100
AcDbText
 10
463.0645906948321
 20
193.0158082446252
 30
264.2123751322604
 40
5.04
  1
感應器數量
  7
CHINESET
100
AcDbText
  0
LINE
  5
17B0
330
1F
100
AcDbEntity
  8
LOGO
 62
     4
100
AcDbLine
 10
475.6025038554346
 20
203.1289573303902
 30
0.0
 11
475.6025038554346
 21
200.1053951946438
 31
0.0
  0
TEXT
  5
17B1
330
1F
100
AcDbEntity
  8
LOGO
100
AcDbText
 10
263.7386020406734
 20
184.1087198767089
 30
0.0
 40
4.032
  1
10705201
 41
0.7
  7
CHINESET
 72
     1
 11
273.2138020406734
 21
184.1087198767089
 31
0.0
100
AcDbText
  0
LINE
  5
17B2
330
1F
100
AcDbEntity
  8
LOGO
 62
     4
100
AcDbLine
 10
285.7267062887362
 20
190.0268547421553
 30
0.0
 11
285.7267062887382
 21
181.9640223801639
 31
0.0
  0
LINE
  5
17B3
330
1F
100
AcDbEntity
  8
LOGO
 62
     4
100
AcDbLine
 10
285.7267062887362
 20
190.0268547421553
 30
0.0
 11
261.5347062887384
 21
190.0268547421553
 31
0.0
  0
CIRCLE
  5
17B4
330
1F
100
AcDbEntity
  8
LOGO
  6
Continuous
100
AcDbCircle
 10
242.1232697161129
 20
210.1925588758444
 30
0.0
 40
2.340735123526392
  0
CIRCLE
  5
17B5
330
1F
100
AcDbEntity
  8
LOGO
  6
Continuous
100
AcDbCircle
 10
242.1232697161129
 20
210.1925588758444
 30
0.0
 40
1.371463568829843
  0
LINE
  5
17B6
330
1F
100
AcDbEntity
  8
LOGO
100
AcDbLine
 10
256.8327208397702
 20
207.8518237523176
 30
0.0
 11
256.8327208397702
 21
212.5332939993713
 31
0.0
  0
LINE
  5
17B7
330
1F
100
AcDbEntity
  8
LOGO
100
AcDbLine
 10
249.4946505921228
 20
208.8210953070148
 30
0.0
 11
249.4946505921228
 21
211.5640224446745
 31
0.0
  0
LINE
  5
17B8
330
1F
100
AcDbEntity
  8
LOGO
  6
Continuous
100
AcDbLine
 10
249.4946505921228
 20
211.5640224446745
 30
0.0
 11
256.8327208397702
 21
212.5332939993713
 31
0.0
  0
LINE
  5
17B9
330
1F
100
AcDbEntity
  8
LOGO
  6
Continuous
100
AcDbLine
 10
249.4946505921228
 20
208.8210953070148
 30
0.0
 11
256.8327208397702
 21
207.8518237523176
 31
0.0
  0
LINE
  5
17BA
330
1F
100
AcDbEntity
  8
LOGO
  6
AM_ISO08W050x2
 48
0.3
100
AcDbLine
 10
238.8965312985831
 20
210.1925588758444
 30
0.0
 11
245.3500081336424
 21
210.1925588758444
 31
0.0
1001
GENIUS_GENOREF_13
1005
17CE
  0
LINE
  5
17BB
330
1F
100
AcDbEntity
  8
LOGO
  6
AM_ISO08W050x2
 48
0.3
100
AcDbLine
 10
242.1232697161129
 20
206.9658204583148
 30
0.0
 11
242.1232697161129
 21
213.419297293374
 31
0.0
1001
GENIUS_GENOREF_13
1005
17CD
  0
LINE
  5
17BC
330
1F
100
AcDbEntity
  8
LOGO
  6
CENTER
 48
0.5
100
AcDbLine
 10
248.907808933019
 20
210.1925588758444
 30
0.0
 11
257.5716407591502
 21
210.1925588758444
 31
0.0
1001
GENIUS_GENOREF_13
1005
17CC
  0
TEXT
  5
17BD
330
1F
100
AcDbEntity
  8
LOGO
  6
Continuous
100
AcDbText
 10
378.7787553400838
 20
208.6771761676953
 30
0.0
 40
7.055999999999998
  1
D
  7
CHINESET
100
AcDbText
  0
LINE
  5
17BE
330
1F
100
AcDbEntity
  8
LOGO
 62
     4
100
AcDbLine
 10
408.3371862581961
 20
200.1053951946438
 30
0.0
 11
408.3371862581961
 21
185.3235358643262
 31
0.0
  0
LINE
  5
17BF
330
1F
100
AcDbEntity
  8
LOGO
 62
     4
100
AcDbLine
 10
380.1234775036198
 20
200.1053951946438
 30
0.0
 11
380.1234775036198
 21
185.3235358643262
 31
0.0
  0
LINE
  5
17C0
330
1F
100
AcDbEntity
  8
LOGO
 62
     4
100
AcDbLine
 10
408.3371862581961
 20
185.3235358643262
 30
0.0
 11
380.1234775036198
 21
185.3235358643262
 31
0.0
  0
LINE
  5
17C1
330
1F
100
AcDbEntity
  8
LOGO
 62
     4
100
AcDbLine
 10
398.5065776174938
 20
218.2467680091228
 30
0.0
 11
385.6386330226425
 21
218.2467680091228
 31
0.0
  0
LINE
  5
17C2
330
1F
100
AcDbEntity
  8
LOGO
 62
     4
100
AcDbLine
 10
398.5065776174938
 20
206.1525194661365
 30
0.0
 11
385.6386330226425
 21
206.1525194661365
 31
0.0
  0
LINE
  5
17C3
330
1F
100
AcDbEntity
  8
LOGO
 62
     4
100
AcDbLine
 10
385.6386330226425
 20
218.2467680091228
 30
0.0
 11
385.6386330226425
 21
206.1525194661365
 31
0.0
  0
LINE
  5
17C4
330
1F
100
AcDbEntity
  8
LOGO
 62
     4
100
AcDbLine
 10
398.5065776174938
 20
218.2467680091228
 30
0.0
 11
398.5065776174938
 21
206.1525194661365
 31
0.0
  0
LINE
  5
17C5
330
1F
100
AcDbEntity
  8
LOGO
 62
     4
100
AcDbLine
 10
392.0726053200681
 20
206.1525194661365
 30
0.0
 11
392.0726053200681
 21
200.1053951946438
 31
0.0
  0
LINE
  5
17C6
330
1F
100
AcDbEntity
  8
LOGO
 62
     4
100
AcDbLine
 10
408.3371862581961
 20
200.1053951946438
 30
0.0
 11
380.1234775036198
 21
200.1053951946438
 31
0.0
  0
TEXT
  5
17C7
330
1F
100
AcDbEntity
  8
LOGO
  6
Continuous
100
AcDbText
 10
382.560876511346
 20
187.4099639631397
 30
264.2123751322604
 40
3.023999999999999
  1
Finger option
 41
0.8
  7
CHINESET
100
AcDbText
  0
TEXT
  5
17C8
330
1F
100
AcDbEntity
  8
LOGO
100
AcDbText
 10
383.3233315860054
 20
193.0158082446252
 30
264.2123751322604
 40
5.04
  1
夾爪選配
  7
CHINESET
100
AcDbText
  0
TEXT
  5
17C9
330
1F
100
AcDbEntity
  8
LOGO
  6
Continuous
100
AcDbText
 10
429.633847448124
 20
208.6771761676953
 30
0.0
 40
7.055999999999998
  1
x
  7
CHINESET
100
AcDbText
  0
LINE
  5
17CA
330
1F
100
AcDbEntity
  8
LOGO
 62
     4
100
AcDbLine
 10
443.4269743520596
 20
206.1525194661365
 30
0.0
 11
443.4269743520596
 21
203.1289573303902
 31
0.0
  0
LINE
  5
17CB
330
1F
100
AcDbEntity
  8
LOGO
 62
     4
100
AcDbLine
 10
443.4269743520596
 20
203.1289573303902
 30
0.0
 11
475.6025038554346
 21
203.1289573303902
 31
0.0
  0
POINT
  5
17CC
330
1F
100
AcDbEntity
  8
0
 60
     1
100
AcDbPoint
 10
-979.507567521639
 20
-629.2399486850873
 30
0.0
1001
GENIUS_GENOBJ-N-CRS_13
1002
{
1000
OWNER
1000
GEN
1002
}
1001
GENIUS_GENOLIS_13
1002
{
1000
ENT
1005
0
1005
0
1005
0
1005
17BC
1002
}
1001
GENIUS_GENOENT_13
1002
{
1000
MYREF
1005
17CC
1002
}
1002
{
1000
GRP
1005
0
1002
}
1001
GENIUS_GENODEF_13
1002
{
1000
HIER
1070
    10
1002
}
1002
{
1000
MANEDIT
1070
     1
1002
}
1002
{
1000
NOSEL
1070
     0
1002
}
1002
{
1000
BEHIND
1070
     0
1002
}
1002
{
1000
OTHER
1070
     0
1002
}
1002
{
1000
REACTOR
1002
}
  0
POINT
  5
17CD
330
1F
100
AcDbEntity
  8
0
 60
     1
100
AcDbPoint
 10
-990.8321527444936
 20
-620.364362206451
 30
0.0
1001
GENIUS_GENOBJ-N-CRS_13
1002
{
1000
OWNER
1000
GEN
1002
}
1001
GENIUS_GENOLIS_13
1002
{
1000
ENT
1005
0
1005
0
1005
0
1005
17BB
1002
}
1001
GENIUS_GENOENT_13
1002
{
1000
MYREF
1005
17CD
1002
}
1002
{
1000
GRP
1005
0
1002
}
1001
GENIUS_GENODEF_13
1002
{
1000
HIER
1070
    10
1002
}
1002
{
1000
MANEDIT
1070
     1
1002
}
1002
{
1000
NOSEL
1070
     0
1002
}
1002
{
1000
BEHIND
1070
     0
1002
}
1002
{
1000
OTHER
1070
     0
1002
}
1002
{
1000
REACTOR
1002
}
  0
POINT
  5
17CE
330
1F
100
AcDbEntity
  8
0
 60
     1
100
AcDbPoint
 10
-984.4734790466569
 20
-629.2399486850873
 30
0.0
1001
GENIUS_GENOBJ-N-CRS_13
1002
{
1000
OWNER
1000
GEN
1002
}
1001
GENIUS_GENOLIS_13
1002
{
1000
ENT
1005
0
1005
0
1005
0
1005
17BA
1002
}
1001
GENIUS_GENOENT_13
1002
{
1000
MYREF
1005
17CE
1002
}
1002
{
1000
GRP
1005
0
1002
}
1001
GENIUS_GENODEF_13
1002
{
1000
HIER
1070
    10
1002
}
1002
{
1000
MANEDIT
1070
     1
1002
}
1002
{
1000
NOSEL
1070
     0
1002
}
1002
{
1000
BEHIND
1070
     0
1002
}
1002
{
1000
OTHER
1070
     0
1002
}
1002
{
1000
REACTOR
1002
}
  0
LINE
  5
17D1
330
1F
100
AcDbEntity
  8
LOGO
 62
     4
100
AcDbLine
 10
467.6155933876002
 20
585.1640223801626
 30
0.0
 11
467.6155933876002
 21
222.2781841901184
 31
0.0
  0
TEXT
  5
1822
330
1F
100
AcDbEntity
  8
0
100
AcDbText
 10
475.6236327149934
 20
568.0269101915716
 30
0.0
 40
6.0
  1
Right angle finger tap mounting
 41
0.85
  7
CHINESET
100
AcDbText
  0
TEXT
  5
1823
330
1F
100
AcDbEntity
  8
0
100
AcDbText
 10
180.8515896342307
 20
568.0269101915716
 30
0.0
 40
6.0
  1
Flat finger (standard)
 41
0.85
  7
CHINESET
100
AcDbText
  0
DIMENSION
  5
1843
102
{ACAD_XDICTIONARY
360
1850
102
}
102
{ACAD_REACTORS
330
1851
102
}
330
1F
100
AcDbEntity
  8
Dim
100
AcDbDimension
  2
*D69
 10
409.9029646981079
 20
351.9597963674346
 30
0.0
 11
396.9029646981079
 21
354.2097963674346
 31
0.0
 70
    32
 71
     5
 42
26.0
  3
Standard
100
AcDbAlignedDimension
 13
383.9029646981079
 23
379.4897963674348
 33
0.0
 14
409.9029646981079
 24
405.6197963674349
 34
0.0
 50
0.0000000000001132
100
AcDbRotatedDimension
1001
ACAD
1000
DSTYLE
1002
{
1070
    41
1040
2.0
1070
    42
1040
1.0
1070
    44
1040
1.0
1070
    73
1070
     0
1070
    74
1070
     0
1070
    77
1070
     1
1070
    78
1070
     8
1070
    79
1070
     2
1070
   140
1040
2.5
1070
   141
1040
0.0
1070
   147
1040
1.0
1070
   172
1070
     1
1070
   174
1070
     1
1070
   176
1070
   256
1070
   177
1070
   256
1070
   178
1070
   256
1070
   271
1070
     2
1070
   272
1070
     2
1070
   340
1005
B92
1070
   371
1070
    -1
1070
   372
1070
    -1
1002
}
  0
DIMENSION
  5
1891
102
{ACAD_XDICTIONARY
360
189E
102
}
102
{ACAD_REACTORS
330
189F
102
}
330
1F
100
AcDbEntity
  8
Dim
100
AcDbDimension
  2
*D70
 10
641.4796265323284
 20
450.6633973611951
 30
0.0
 11
633.4796265323284
 21
452.9133973611951
 31
0.0
 70
    32
 71
     5
 42
16.0
  3
Standard
100
AcDbAlignedDimension
 13
625.4796265323284
 23
425.9597963674345
 33
0.0
 14
641.4796265323284
 24
435.9597963674345
 34
0.0
 50
0.0000000000000114
100
AcDbRotatedDimension
1001
ACAD
1000
DSTYLE
1002
{
1070
    41
1040
2.0
1070
    42
1040
1.0
1070
    44
1040
1.0
1070
    73
1070
     0
1070
    74
1070
     0
1070
    77
1070
     1
1070
    78
1070
     8
1070
    79
1070
     2
1070
   140
1040
2.5
1070
   141
1040
0.0
1070
   147
1040
1.0
1070
   172
1070
     1
1070
   174
1070
     1
1070
   176
1070
   256
1070
   177
1070
   256
1070
   178
1070
   256
1070
   271
1070
     2
1070
   272
1070
     2
1070
   340
1005
B92
1070
   371
1070
    -1
1070
   372
1070
    -1
1002
}
  0
LINE
  5
1937
330
1F
100
AcDbEntity
  8
AM_7
100
AcDbLine
 10
633.5096265323284
 20
404.9597963674345
 30
0.0
 11
643.5096827821306
 21
404.9597963674345
 31
0.0
1001
GENIUS_GENOREF_13
1005
193B
  0
LINE
  5
1938
330
1F
100
AcDbEntity
  8
AM_7
100
AcDbLine
 10
633.5096265323284
 20
404.9597963674345
 30
0.0
 11
633.5096265323284
 21
414.9598526172368
 31
0.0
1001
GENIUS_GENOREF_13
1005
193B
  0
LINE
  5
1939
330
1F
100
AcDbEntity
  8
AM_7
100
AcDbLine
 10
633.5096265323284
 20
404.9597963674345
 30
0.0
 11
623.5095702825262
 21
404.9597963674345
 31
0.0
1001
GENIUS_GENOREF_13
1005
193B
  0
LINE
  5
193A
330
1F
100
AcDbEntity
  8
AM_7
100
AcDbLine
 10
633.5096265323284
 20
404.9597963674345
 30
0.0
 11
633.5096265323284
 21
394.9597401176323
 31
0.0
1001
GENIUS_GENOREF_13
1005
193B
  0
POINT
  5
193B
330
1F
100
AcDbEntity
  8
0
 60
     1
100
AcDbPoint
 10
0.0
 20
0.0
 30
0.0
1001
GENIUS_GENOBJ-N-CRS_13
1002
{
1000
OWNER
1000
GEN
1002
}
1001
GENIUS_GENOENT_13
1002
{
1000
MYREF
1005
193B
1002
}
1002
{
1000
GRP
1005
0
1002
}
1001
GENIUS_GENOLIS_13
1002
{
1000
ENT
1005
193A
1005
1939
1005
1938
1005
1937
1002
}
1001
GENIUS_GENODEF_13
1002
{
1000
HIER
1070
    10
1002
}
1002
{
1000
MANEDIT
1070
     0
1002
}
1002
{
1000
NOSEL
1070
     0
1002
}
1002
{
1000
BEHIND
1070
     0
1002
}
1002
{
1000
OTHER
1070
     0
1002
}
1002
{
1000
REACTOR
1002
}
  0
LINE
  5
1949
330
1F
100
AcDbEntity
  8
AM_7
100
AcDbLine
 10
633.4796265323284
 20
386.9597963674346
 30
0.0
 11
643.4796265327239
 21
386.9597963674346
 31
0.0
1001
GENIUS_GENOREF_13
1005
194D
  0
LINE
  5
194A
330
1F
100
AcDbEntity
  8
AM_7
100
AcDbLine
 10
633.4796265323284
 20
386.9597963674346
 30
0.0
 11
633.4796265323284
 21
396.9597963678301
 31
0.0
1001
GENIUS_GENOREF_13
1005
194D
  0
LINE
  5
194B
330
1F
100
AcDbEntity
  8
AM_7
100
AcDbLine
 10
633.4796265323284
 20
386.9597963674346
 30
0.0
 11
623.4796265319329
 21
386.9597963674346
 31
0.0
1001
GENIUS_GENOREF_13
1005
194D
  0
LINE
  5
194C
330
1F
100
AcDbEntity
  8
AM_7
100
AcDbLine
 10
633.4796265323284
 20
386.9597963674346
 30
0.0
 11
633.4796265323284
 21
376.9597963670391
 31
0.0
1001
GENIUS_GENOREF_13
1005
194D
  0
POINT
  5
194D
330
1F
100
AcDbEntity
  8
0
 60
     1
100
AcDbPoint
 10
0.0
 20
0.0
 30
0.0
1001
GENIUS_GENODEF_13
1002
{
1000
HIER
1070
    10
1002
}
1002
{
1000
MANEDIT
1070
     0
1002
}
1002
{
1000
NOSEL
1070
     0
1002
}
1002
{
1000
BEHIND
1070
     0
1002
}
1002
{
1000
OTHER
1070
     0
1002
}
1002
{
1000
REACTOR
1002
}
1001
GENIUS_GENOENT_13
1002
{
1000
MYREF
1005
194D
1002
}
1002
{
1000
GRP
1005
0
1002
}
1001
GENIUS_GENOBJ-N-CRS_13
1002
{
1000
OWNER
1000
GEN
1002
}
1001
GENIUS_GENOLIS_13
1002
{
1000
ENT
1005
194C
1005
194B
1005
194A
1005
1949
1002
}
  0
ENDSEC
  0
SECTION
  2
OBJECTS
  0
DICTIONARY
  5
C
330
0
100
AcDbDictionary
281
     1
  3
ACAD_COLOR
350
BE
  3
ACAD_GROUP
350
D
  3
ACAD_LAYOUT
350
1A
  3
ACAD_MATERIAL
350
BD
  3
ACAD_MLINESTYLE
350
17
  3
ACAD_PLOTSETTINGS
350
19
  3
ACAD_PLOTSTYLENAME
350
E
  3
ACAD_TABLESTYLE
350
11A
  3
ACDBHEADERROUNDTRIPXREC
350
1964
  3
AcDbVariableDictionary
350
94
  3
AcmDictionary
350
5B
  3
AMG
350
41
  3
AMGSNAPSETTINGS
350
1B8
  3
DWGPROPS
350
1963
  0
DICTIONARY
  5
3F9
330
2
100
AcDbDictionary
280
     1
281
     1
  3
ACAD_LAYERFILTERS
360
1272
  3
ACAD_LAYERSTATES
360
1696
  3
ACLYDICTIONARY
360
1271
  3
AMLAYER_GROUPCOLORS
360
119E
  0
DICTIONARY
  5
8F
330
1F
100
AcDbDictionary
280
     1
281
     1
  3
ACAD_SORTENTS
360
11D2
  0
DICTIONARY
  5
1422
330
1413
100
AcDbDictionary
280
     1
281
     1
  3
ACAD_DIMASSOC
360
1423
  0
DICTIONARY
  5
144A
330
143D
100
AcDbDictionary
280
     1
281
     1
  3
ACAD_DIMASSOC
360
144B
  0
DICTIONARY
  5
1470
330
1463
100
AcDbDictionary
280
     1
281
     1
  3
ACAD_DIMASSOC
360
1471
  0
DICTIONARY
  5
14E7
330
14DA
100
AcDbDictionary
280
     1
281
     1
  3
ACAD_DIMASSOC
360
14E8
  0
DICTIONARY
  5
150D
330
1500
100
AcDbDictionary
280
     1
281
     1
  3
ACAD_DIMASSOC
360
150E
  0
DICTIONARY
  5
1533
330
1526
100
AcDbDictionary
280
     1
281
     1
  3
ACAD_DIMASSOC
360
1534
  0
DICTIONARY
  5
1575
330
1568
100
AcDbDictionary
280
     1
281
     1
  3
ACAD_DIMASSOC
360
1576
  0
DICTIONARY
  5
1627
330
1618
100
AcDbDictionary
280
     1
281
     1
  3
ACAD_DIMASSOC
360
1628
  0
DICTIONARY
  5
1850
330
1843
100
AcDbDictionary
280
     1
281
     1
  3
ACAD_DIMASSOC
360
1851
  0
DICTIONARY
  5
189E
330
1891
100
AcDbDictionary
280
     1
281
     1
  3
ACAD_DIMASSOC
360
189F
  0
DICTIONARY
  5
BE
102
{ACAD_REACTORS
330
C
102
}
330
C
100
AcDbDictionary
281
     1
  0
DICTIONARY
  5
D
102
{ACAD_REACTORS
330
C
102
}
330
C
100
AcDbDictionary
281
     1
  0
DICTIONARY
  5
1A
102
{ACAD_REACTORS
330
C
102
}
330
C
100
AcDbDictionary
281
     1
  3
Model
350
22
  3
配置1
350
1E
  3
配置2
350
26
  0
DICTIONARY
  5
BD
102
{ACAD_REACTORS
330
C
102
}
330
C
100
AcDbDictionary
281
     1
  0
DICTIONARY
  5
17
102
{ACAD_REACTORS
330
C
102
}
330
C
100
AcDbDictionary
281
     1
  3
Standard
350
18
  0
DICTIONARY
  5
19
102
{ACAD_REACTORS
330
C
102
}
330
C
100
AcDbDictionary
281
     1
  0
ACDBDICTIONARYWDFLT
  5
E
102
{ACAD_REACTORS
330
C
102
}
330
C
100
AcDbDictionary
281
     1
  3
Normal
350
F
100
AcDbDictionaryWithDefault
340
F
  0
DICTIONARY
  5
11A
102
{ACAD_REACTORS
330
C
102
}
330
C
100
AcDbDictionary
281
     1
  3
Standard
350
11B
  0
DICTIONARY
  5
1964
102
{ACAD_REACTORS
330
C
102
}
330
C
100
AcDbDictionary
281
     1
  0
DICTIONARY
  5
94
102
{ACAD_REACTORS
330
C
102
}
330
C
100
AcDbDictionary
281
     1
  3
CTABLESTYLE
350
138
  3
DIMASSOC
350
96
  3
INDEXCTL
350
95
  3
PROJECTNAME
350
1961
  0
DICTIONARY
  5
5B
102
{ACAD_REACTORS
330
C
102
}
330
C
100
AcDbDictionary
281
     1
  3
AcmBOM
350
1B5
  3
AcmStdDictionary
350
61
  3
AMDTSECTSYM_ARROWCOLOR
350
123
  0
DICTIONARY
  5
41
102
{ACAD_REACTORS
330
C
102
}
330
C
100
AcDbDictionary
281
     1
  0
DICTIONARY
  5
1B8
102
{ACAD_REACTORS
330
C
102
}
330
C
100
AcDbDictionary
281
     1
  0
XRECORD
  5
1963
102
{ACAD_REACTORS
330
C
102
}
330
C
100
AcDbXrecord
280
     1
  1
DWGPROPS COOKIE
  2

  3

  4

  6

  7

  8

  9

300
AmdtFileType=84
301
=
302
=
303
=
304
=
305
=
306
=
307
=
308
=
309
=
 40
0.1802978472222222
 41
2454240.497225474
 42
2454240.677522963
  1

 90
        1
  0
DICTIONARY
  5
1272
102
{ACAD_REACTORS
330
3F9
102
}
330
3F9
100
AcDbDictionary
281
     1
  0
DICTIONARY
  5
1696
102
{ACAD_REACTORS
330
3F9
102
}
330
3F9
100
AcDbDictionary
281
     1
  0
DICTIONARY
  5
1271
102
{ACAD_REACTORS
330
3F9
102
}
330
3F9
100
AcDbDictionary
281
     1
1001
ACAD
1000
<All
  0
DICTIONARY
  5
119E
102
{ACAD_REACTORS
330
3F9
102
}
330
3F9
100
AcDbDictionary
280
     1
281
     1
  0
SORTENTSTABLE
  5
11D2
102
{ACAD_REACTORS
330
8F
102
}
330
8F
100
AcDbSortentsTable
330
1F
331
E93
  5
E93
331
E71
  5
E71
331
EAD
  5
EAD
331
F27
  5
F27
331
ECF
  5
ECF
331
F49
  5
F49
331
EF1
  5
EF1
331
F13
  5
F13
331
E82
  5
E82
331
E60
  5
E60
331
E24
  5
E24
331
E02
  5
E02
331
DE0
  5
DE0
331
DBE
  5
DBE
331
DA4
  5
DA4
331
EA4
  5
EA4
331
EBE
  5
EBE
331
F38
  5
F38
331
EE0
  5
EE0
331
F5A
  5
F5A
331
F02
  5
F02
331
E4F
  5
E4F
331
E13
  5
E13
331
DCF
  5
DCF
331
D93
  5
D93
331
E91
  5
E91
331
EAB
  5
EAB
331
F25
  5
F25
331
ECD
  5
ECD
331
11DF
  5
11DF
331
F47
  5
F47
331
EEF
  5
EEF
331
F11
  5
F11
331
E80
  5
E80
331
E5E
  5
E5E
331
E3C
  5
E3C
331
E22
  5
E22
331
E00
  5
E00
331
DDE
  5
DDE
331
DBC
  5
DBC
331
DA2
  5
DA2
331
EBC
  5
EBC
331
F36
  5
F36
331
F58
  5
F58
331
F00
  5
F00
331
E6F
  5
E6F
331
E4D
  5
E4D
331
E11
  5
E11
331
DCD
  5
DCD
331
D91
  5
D91
331
EA9
  5
EA9
331
F23
  5
F23
331
ECB
  5
ECB
331
11DD
  5
11DD
331
F45
  5
F45
331
EED
  5
EED
331
F0F
  5
F0F
331
EA0
  5
EA0
331
E7E
  5
E7E
331
E5C
  5
E5C
331
E3A
  5
E3A
331
E20
  5
E20
331
DFE
  5
DFE
331
DDC
  5
DDC
331
EBA
  5
EBA
331
F34
  5
F34
331
F56
  5
F56
331
EFE
  5
EFE
331
E8F
  5
E8F
331
E6D
  5
E6D
331
E4B
  5
E4B
331
E0F
  5
E0F
331
DED
  5
DED
331
DCB
  5
DCB
331
F21
  5
F21
331
EC9
  5
EC9
331
11DB
  5
11DB
331
F43
  5
F43
331
EEB
  5
EEB
331
F65
  5
F65
331
F0D
  5
F0D
331
E9E
  5
E9E
331
E7C
  5
E7C
331
E1E
  5
E1E
331
DFC
  5
DFC
331
DDA
  5
DDA
331
EB8
  5
EB8
331
F32
  5
F32
331
EDA
  5
EDA
331
F54
  5
F54
331
EFC
  5
EFC
331
1206
  5
1206
331
F1E
  5
F1E
331
E8D
  5
E8D
331
E6B
  5
E6B
331
E2F
  5
E2F
331
E0D
  5
E0D
331
DC9
  5
DC9
331
DAF
  5
DAF
331
11D9
  5
11D9
331
F41
  5
F41
331
EE9
  5
EE9
331
F0B
  5
F0B
331
E9C
  5
E9C
331
E58
  5
E58
331
E1C
  5
E1C
331
DD8
  5
DD8
331
EB6
  5
EB6
331
F30
  5
F30
331
ED8
  5
ED8
331
F52
  5
F52
331
EFA
  5
EFA
331
1204
  5
1204
331
F1C
  5
F1C
331
E8B
  5
E8B
331
E69
  5
E69
331
E47
  5
E47
331
E2D
  5
E2D
331
E0B
  5
E0B
331
DE9
  5
DE9
331
DC7
  5
DC7
331
1195
  5
1195
331
EC7
  5
EC7
331
D9C
  5
D9C
331
F61
  5
F61
331
F09
  5
F09
331
E78
  5
E78
331
E56
  5
E56
331
E34
  5
E34
331
E1A
  5
E1A
331
DF8
  5
DF8
331
EB4
  5
EB4
331
ED6
  5
ED6
331
EF8
  5
EF8
331
F1A
  5
F1A
331
E89
  5
E89
331
E67
  5
E67
331
E2B
  5
E2B
331
DE7
  5
DE7
331
DC5
  5
DC5
331
DAB
  5
DAB
331
EC5
  5
EC5
331
F3F
  5
F3F
331
DD6
  5
DD6
331
E98
  5
E98
331
E76
  5
E76
331
E54
  5
E54
331
E32
  5
E32
331
E18
  5
E18
331
EB2
  5
EB2
331
F2C
  5
F2C
331
ED4
  5
ED4
331
F4E
  5
F4E
331
EF6
  5
EF6
331
F18
  5
F18
331
E87
  5
E87
331
E65
  5
E65
331
E43
  5
E43
331
E29
  5
E29
331
DE5
  5
DE5
331
DC3
  5
DC3
331
DA9
  5
DA9
331
EC3
  5
EC3
331
F3D
  5
F3D
331
EE5
  5
EE5
331
F5F
  5
F5F
331
DD4
  5
DD4
331
D98
  5
D98
331
E96
  5
E96
331
E52
  5
E52
331
E30
  5
E30
331
EB0
  5
EB0
331
ED2
  5
ED2
331
F4C
  5
F4C
331
EF4
  5
EF4
331
F16
  5
F16
331
1175
  5
1175
331
E85
  5
E85
331
E63
  5
E63
331
E41
  5
E41
331
E27
  5
E27
331
E05
  5
E05
331
DE3
  5
DE3
331
DC1
  5
DC1
331
DA7
  5
DA7
331
EC1
  5
EC1
331
EA7
  5
EA7
331
F3B
  5
F3B
331
E16
  5
E16
331
DD2
  5
DD2
331
D96
  5
D96
331
E94
  5
E94
331
E72
  5
E72
331
E50
  5
E50
331
EAE
  5
EAE
331
F28
  5
F28
331
ED0
  5
ED0
331
F4A
  5
F4A
331
EF2
  5
EF2
331
F14
  5
F14
331
E83
  5
E83
331
E61
  5
E61
331
E25
  5
E25
331
E03
  5
E03
331
DE1
  5
DE1
331
DBF
  5
DBF
331
EBF
  5
EBF
331
EA5
  5
EA5
331
F39
  5
F39
331
F5B
  5
F5B
331
F03
  5
F03
331
E14
  5
E14
331
DD0
  5
DD0
331
D94
  5
D94
331
E92
  5
E92
331
F26
  5
F26
331
EAC
  5
EAC
331
F48
  5
F48
331
EF0
  5
EF0
331
F12
  5
F12
331
E81
  5
E81
331
E5F
  5
E5F
331
E3D
  5
E3D
331
E23
  5
E23
331
E01
  5
E01
331
DDF
  5
DDF
331
DA3
  5
DA3
331
EBD
  5
EBD
331
EDF
  5
EDF
331
F59
  5
F59
331
F01
  5
F01
331
E4E
  5
E4E
331
E12
  5
E12
331
DF0
  5
DF0
331
DCE
  5
DCE
331
D92
  5
D92
331
E90
  5
E90
331
EAA
  5
EAA
331
F24
  5
F24
331
ECC
  5
ECC
331
11DE
  5
11DE
331
F46
  5
F46
331
EEE
  5
EEE
331
F10
  5
F10
331
E7F
  5
E7F
331
E5D
  5
E5D
331
E3B
  5
E3B
331
E21
  5
E21
331
DFF
  5
DFF
331
DDD
  5
DDD
331
EBB
  5
EBB
331
F35
  5
F35
331
EDD
  5
EDD
331
F57
  5
F57
331
EFF
  5
EFF
331
E6E
  5
E6E
331
E10
  5
E10
331
DEE
  5
DEE
331
DCC
  5
DCC
331
DB2
  5
DB2
331
EA8
  5
EA8
331
F22
  5
F22
331
ECA
  5
ECA
331
11DC
  5
11DC
331
F44
  5
F44
331
F0E
  5
F0E
331
EB9
  5
EB9
331
E9F
  5
E9F
331
E7D
  5
E7D
331
E5B
  5
E5B
331
E39
  5
E39
331
E1F
  5
E1F
331
DFD
  5
DFD
331
DDB
  5
DDB
331
F33
  5
F33
331
F55
  5
F55
331
EFD
  5
EFD
331
1207
  5
1207
331
F1F
  5
F1F
331
E8E
  5
E8E
331
E6C
  5
E6C
331
E0E
  5
E0E
331
DEC
  5
DEC
331
DCA
  5
DCA
331
DB9
  5
DB9
331
D9F
  5
D9F
331
F20
  5
F20
331
EC8
  5
EC8
331
11DA
  5
11DA
331
F42
  5
F42
331
EEA
  5
EEA
331
F64
  5
F64
331
F0C
  5
F0C
331
E7B
  5
E7B
331
E59
  5
E59
331
E37
  5
E37
331
E1D
  5
E1D
331
DD9
  5
DD9
331
EB7
  5
EB7
331
F31
  5
F31
331
ED9
  5
ED9
331
F53
  5
F53
331
EFB
  5
EFB
331
1205
  5
1205
331
F1D
  5
F1D
331
E8C
  5
E8C
331
E6A
  5
E6A
331
E2E
  5
E2E
331
E0C
  5
E0C
331
DC8
  5
DC8
331
DAE
  5
DAE
331
11D8
  5
11D8
331
F40
  5
F40
331
EE8
  5
EE8
331
F62
  5
F62
331
F0A
  5
F0A
331
E9B
  5
E9B
331
E79
  5
E79
331
E57
  5
E57
331
E35
  5
E35
331
E1B
  5
E1B
331
EB5
  5
EB5
331
F2F
  5
F2F
331
ED7
  5
ED7
331
F51
  5
F51
331
F1B
  5
F1B
331
E8A
  5
E8A
331
E68
  5
E68
331
E2C
  5
E2C
331
E0A
  5
E0A
331
DE8
  5
DE8
331
DC6
  5
DC6
331
DAC
  5
DAC
331
EC6
  5
EC6
331
DD7
  5
DD7
331
F60
  5
F60
331
E55
  5
E55
331
E33
  5
E33
331
E19
  5
E19
331
EB3
  5
EB3
331
F2D
  5
F2D
331
ED5
  5
ED5
331
EF7
  5
EF7
331
E88
  5
E88
331
E66
  5
E66
331
E44
  5
E44
331
E2A
  5
E2A
331
E08
  5
E08
331
DE6
  5
DE6
331
DC4
  5
DC4
331
EC4
  5
EC4
331
F3E
  5
F3E
331
EE6
  5
EE6
331
DF7
  5
DF7
331
DD5
  5
DD5
331
D99
  5
D99
331
E97
  5
E97
331
E75
  5
E75
331
E53
  5
E53
331
E31
  5
E31
331
EB1
  5
EB1
331
ED3
  5
ED3
331
F4D
  5
F4D
331
EF5
  5
EF5
331
E86
  5
E86
331
E64
  5
E64
331
E42
  5
E42
331
E28
  5
E28
331
E06
  5
E06
331
DE4
  5
DE4
331
DC2
  5
DC2
331
DA8
  5
DA8
331
EC2
  5
EC2
331
F3C
  5
F3C
331
F5E
  5
F5E
331
E17
  5
E17
331
DD3
  5
DD3
331
D97
  5
D97
331
E95
  5
E95
331
E73
  5
E73
331
E51
  5
E51
331
F29
  5
F29
331
ED1
  5
ED1
331
F4B
  5
F4B
331
EF3
  5
EF3
331
F15
  5
F15
331
1174
  5
1174
331
E84
  5
E84
331
E62
  5
E62
331
E40
  5
E40
331
E26
  5
E26
331
E04
  5
E04
331
DE2
  5
DE2
331
DC0
  5
DC0
331
DA6
  5
DA6
331
EA6
  5
EA6
331
EC0
  5
EC0
331
F3A
  5
F3A
331
F5C
  5
F5C
331
E15
  5
E15
331
DB7
  5
DB7
331
D95
  5
D95
  0
DIMASSOC
  5
1423
102
{ACAD_REACTORS
330
1422
102
}
330
1422
100
AcDbDimAssoc
330
1413
 90
        3
 70
     0
 71
     0
  1
AcDbOsnapPointRef
 72
     1
331
E32
 73
     0
 91
        0
 40
0.0
 10
0.0
 20
0.0
 30
2.000000000000000E+50
 75
     0
  1
AcDbOsnapPointRef
 72
     1
331
E2D
 73
     0
 91
        0
 40
0.0
 10
0.0
 20
0.0
 30
2.000000000000000E+50
 75
     0
  0
DIMASSOC
  5
144B
102
{ACAD_REACTORS
330
144A
102
}
330
144A
100
AcDbDimAssoc
330
143D
 90
        3
 70
     0
 71
     0
  1
AcDbOsnapPointRef
 72
     1
331
E32
 73
     0
 91
        0
 40
0.0
 10
0.0
 20
0.0
 30
2.000000000000000E+50
 75
     0
  1
AcDbOsnapPointRef
 72
     1
331
E34
 73
     0
 91
        0
 40
0.0
 10
0.0
 20
0.0
 30
2.000000000000000E+50
 75
     0
  0
DIMASSOC
  5
1471
102
{ACAD_REACTORS
330
1470
102
}
330
1470
100
AcDbDimAssoc
330
1463
 90
        3
 70
     0
 71
     0
  1
AcDbOsnapPointRef
 72
    13
331
E05
 73
     0
 91
        0
 40
0.0
 10
0.0
 20
0.0
 30
2.000000000000000E+50
 75
     0
  1
AcDbOsnapPointRef
 72
     1
331
E32
 73
     0
 91
        0
 40
0.0
 10
0.0
 20
0.0
 30
2.000000000000000E+50
 75
     0
  0
DIMASSOC
  5
14E8
102
{ACAD_REACTORS
330
14E7
102
}
330
14E7
100
AcDbDimAssoc
330
14DA
 90
        3
 70
     0
 71
     0
  1
AcDbOsnapPointRef
 72
     1
331
E9C
 73
     0
 91
        0
 40
0.0
 10
0.0
 20
0.0
 30
2.000000000000000E+50
 75
     0
  1
AcDbOsnapPointRef
 72
     1
331
E7F
 73
     0
 91
        0
 40
0.0
 10
0.0
 20
0.0
 30
2.000000000000000E+50
 75
     0
  0
DIMASSOC
  5
150E
102
{ACAD_REACTORS
330
150D
102
}
330
150D
100
AcDbDimAssoc
330
1500
 90
        3
 70
     0
 71
     0
  1
AcDbOsnapPointRef
 72
     1
331
E6F
 73
     0
 91
        0
 40
0.0
 10
0.0
 20
0.0
 30
2.000000000000000E+50
 75
     0
  1
AcDbOsnapPointRef
 72
     1
331
E9F
 73
     0
 91
        0
 40
0.0
 10
0.0
 20
0.0
 30
2.000000000000000E+50
 75
     0
  0
DIMASSOC
  5
1534
102
{ACAD_REACTORS
330
1533
102
}
330
1533
100
AcDbDimAssoc
330
1526
 90
        3
 70
     0
 71
     0
  1
AcDbOsnapPointRef
 72
     1
331
E9F
 73
     0
 91
        0
 40
0.0
 10
0.0
 20
0.0
 30
2.000000000000000E+50
 75
     0
  1
AcDbOsnapPointRef
 72
    13
331
EA0
 73
     0
 91
        0
 40
0.0
 10
0.0
 20
0.0
 30
2.000000000000000E+50
 75
     0
  0
DIMASSOC
  5
1576
102
{ACAD_REACTORS
330
1575
102
}
330
1575
100
AcDbDimAssoc
330
1568
 90
        3
 70
     0
 71
     0
  1
AcDbOsnapPointRef
 72
     1
331
E5C
 73
     0
 91
        0
 40
0.0
 10
0.0
 20
0.0
 30
2.000000000000000E+50
 75
     0
  1
AcDbOsnapPointRef
 72
     1
331
EB1
 73
     0
 91
        0
 40
0.0
 10
0.0
 20
0.0
 30
2.000000000000000E+50
 75
     0
  0
DIMASSOC
  5
1628
102
{ACAD_REACTORS
330
1627
102
}
330
1627
100
AcDbDimAssoc
330
1618
 90
        1
 70
     0
 71
     0
  1
AcDbOsnapPointRef
 72
    13
331
DED
 73
     0
 91
        0
 40
0.0
 10
0.0
 20
0.0
 30
2.000000000000000E+50
 75
     0
  0
DIMASSOC
  5
1851
102
{ACAD_REACTORS
330
1850
102
}
330
1850
100
AcDbDimAssoc
330
1843
 90
        3
 70
     0
 71
     0
  1
AcDbOsnapPointRef
 72
     1
331
F09
 73
     0
 91
        0
 40
0.0
 10
0.0
 20
0.0
 30
2.000000000000000E+50
 75
     0
  1
AcDbOsnapPointRef
 72
     1
331
F48
 73
     0
 91
        0
 40
0.0
 10
0.0
 20
0.0
 30
2.000000000000000E+50
 75
     0
  0
DIMASSOC
  5
189F
102
{ACAD_REACTORS
330
189E
102
}
330
189E
100
AcDbDimAssoc
330
1891
 90
        3
 70
     0
 71
     0
  1
AcDbOsnapPointRef
 72
     1
331
E34
 73
     0
 91
        0
 40
0.0
 10
0.0
 20
0.0
 30
2.000000000000000E+50
 75
     0
  1
AcDbOsnapPointRef
 72
     1
331
E2D
 73
     0
 91
        0
 40
0.0
 10
0.0
 20
0.0
 30
2.000000000000000E+50
 75
     0
  0
LAYOUT
  5
22
102
{ACAD_XDICTIONARY
360
1967
102
}
102
{ACAD_REACTORS
330
1A
102
}
330
1A
100
AcDbPlotSettings
  1

  2
\\RD\EPSON Stylus C63 Series單色
  4
A4
  6

 40
3.757083177566528
 41
3.757076978683471
 42
3.757080078125
 43
3.757080078125
 44
209.9733276367187
 45
296.9683227539062
 46
0.0
 47
0.0
 48
0.0
 49
0.0
140
0.0
141
0.0
142
1.0
143
0.3405120737814363
 70
 11952
 72
     1
 73
     0
 74
     0
  7
單色出圖.ctb
 75
     0
147
2.936753428137963
148
-2047.07469463503
149
-1261.649717473083
100
AcDbLayout
  1
Model
 70
     1
 71
     0
 10
0.0
 20
0.0
 11
12.0
 21
9.0
 12
0.0
 22
0.0
 32
0.0
 14
0.0
 24
0.0
 34
0.0
 15
0.0
 25
0.0
 35
0.0
146
0.0
 13
0.0
 23
0.0
 33
0.0
 16
1.0
 26
0.0
 36
0.0
 17
0.0
 27
1.0
 37
0.0
 76
     0
330
1F
1001
ACAD_PSEXT
1000
\\RD\EPSON Stylus C63 Series單色
1000
EPSON Stylus C63 Series
1000
\\RD
1000

1070
     0
  0
LAYOUT
  5
1E
102
{ACAD_XDICTIONARY
360
1965
102
}
102
{ACAD_REACTORS
330
1A
102
}
330
1A
100
AcDbPlotSettings
  1

  2

  4

  6

 40
0.0
 41
0.0
 42
0.0
 43
0.0
 44
0.0
 45
0.0
 46
0.0
 47
0.0
 48
0.0
 49
0.0
140
0.0
141
0.0
142
1.0
143
1.0
 70
   688
 72
     0
 73
     0
 74
     5
  7
單色出圖.ctb
 75
    16
147
1.0
148
0.0
149
0.0
100
AcDbLayout
  1
配置1
 70
     1
 71
     1
 10
0.0
 20
0.0
 11
420.0
 21
297.0
 12
0.0
 22
0.0
 32
0.0
 14
1.000000000000000E+20
 24
1.000000000000000E+20
 34
1.000000000000000E+20
 15
-1.000000000000000E+20
 25
-1.000000000000000E+20
 35
-1.000000000000000E+20
146
0.0
 13
0.0
 23
0.0
 33
0.0
 16
1.0
 26
0.0
 36
0.0
 17
0.0
 27
1.0
 37
0.0
 76
     0
330
1B
  0
LAYOUT
  5
26
102
{ACAD_XDICTIONARY
360
1969
102
}
102
{ACAD_REACTORS
330
1A
102
}
330
1A
100
AcDbPlotSettings
  1

  2

  4

  6

 40
0.0
 41
0.0
 42
0.0
 43
0.0
 44
0.0
 45
0.0
 46
0.0
 47
0.0
 48
0.0
 49
0.0
140
0.0
141
0.0
142
1.0
143
1.0
 70
   688
 72
     0
 73
     0
 74
     5
  7
單色出圖.ctb
 75
    16
147
1.0
148
0.0
149
0.0
100
AcDbLayout
  1
配置2
 70
     1
 71
     2
 10
0.0
 20
0.0
 11
12.0
 21
9.0
 12
0.0
 22
0.0
 32
0.0
 14
0.0
 24
0.0
 34
0.0
 15
0.0
 25
0.0
 35
0.0
146
0.0
 13
0.0
 23
0.0
 33
0.0
 16
1.0
 26
0.0
 36
0.0
 17
0.0
 27
1.0
 37
0.0
 76
     0
330
23
  0
MLINESTYLE
  5
18
102
{ACAD_REACTORS
330
17
102
}
330
17
100
AcDbMlineStyle
  2
STANDARD
 70
     0
  3

 62
   256
 51
90.0
 52
90.0
 71
     2
 49
0.5
 62
   256
  6
BYLAYER
 49
-0.5
 62
   256
  6
BYLAYER
  0
ACDBPLACEHOLDER
  5
F
102
{ACAD_REACTORS
330
E
102
}
330
E
  0
TABLESTYLE
  5
11B
102
{ACAD_REACTORS
330
11A
102
}
330
11A
100
AcDbTableStyle
  3
Standard
 70
     0
 71
     0
 40
1.5
 41
1.5
280
     0
281
     0
  7
STANDARD
140
4.5
170
     2
 62
     0
 63
     7
283
     0
274
    -2
284
     1
 64
     0
275
    -2
285
     1
 65
     0
276
    -2
286
     1
 66
     0
277
    -2
287
     1
 67
     0
278
    -2
288
     1
 68
     0
279
    -2
289
     1
 69
     0
  7
STANDARD
140
6.0
170
     5
 62
     0
 63
     7
283
     0
274
    -2
284
     1
 64
     0
275
    -2
285
     1
 65
     0
276
    -2
286
     1
 66
     0
277
    -2
287
     1
 67
     0
278
    -2
288
     1
 68
     0
279
    -2
289
     1
 69
     0
  7
STANDARD
140
4.5
170
     5
 62
     0
 63
     7
283
     0
274
    -2
284
     1
 64
     0
275
    -2
285
     1
 65
     0
276
    -2
286
     1
 66
     0
277
    -2
287
     1
 67
     0
278
    -2
288
     1
 68
     0
279
    -2
289
     1
 69
     0
  0
DICTIONARYVAR
  5
138
102
{ACAD_REACTORS
330
94
102
}
330
94
100
DictionaryVariables
280
     0
  1
STANDARD
  0
DICTIONARYVAR
  5
96
102
{ACAD_REACTORS
330
94
102
}
330
94
100
DictionaryVariables
280
     0
  1
2
  0
DICTIONARYVAR
  5
95
102
{ACAD_REACTORS
330
94
102
}
330
94
100
DictionaryVariables
280
     0
  1
0
  0
DICTIONARYVAR
  5
1961
102
{ACAD_REACTORS
330
94
102
}
330
94
100
DictionaryVariables
280
     0
  1

  0
DICTIONARY
  5
1B5
102
{ACAD_REACTORS
330
5B
102
}
330
5B
100
AcDbDictionary
281
     1
  0
DICTIONARY
  5
61
102
{ACAD_REACTORS
330
5B
102
}
330
5B
100
AcDbDictionary
281
     1
  0
XRECORD
  5
123
102
{ACAD_REACTORS
330
5B
102
}
330
5B
100
AcDbXrecord
280
     1
 90
-1023410169
  0
DICTIONARY
  5
1967
330
22
100
AcDbDictionary
280
     1
281
     1
  3
ACAD_XREC_ROUNDTRIP
360
1968
  0
DICTIONARY
  5
1965
330
1E
100
AcDbDictionary
280
     1
281
     1
  3
ACAD_XREC_ROUNDTRIP
360
1966
  0
DICTIONARY
  5
1969
330
26
100
AcDbDictionary
280
     1
281
     1
  3
ACAD_XREC_ROUNDTRIP
360
196A
  0
XRECORD
  5
1968
102
{ACAD_REACTORS
330
1967
102
}
330
1967
100
AcDbXrecord
280
     1
102
SHADEPLOT
 70
     0
102
SHADEPLOTRESLEVEL
 70
     2
102
SHADEPLOTCUSTOMDPI
 70
   300
  0
XRECORD
  5
1966
102
{ACAD_REACTORS
330
1965
102
}
330
1965
100
AcDbXrecord
280
     1
102
SHADEPLOT
 70
     0
102
SHADEPLOTRESLEVEL
 70
     2
102
SHADEPLOTCUSTOMDPI
 70
   300
  0
XRECORD
  5
196A
102
{ACAD_REACTORS
330
1969
102
}
330
1969
100
AcDbXrecord
280
     1
102
SHADEPLOT
 70
     0
102
SHADEPLOTRESLEVEL
 70
     2
102
SHADEPLOTCUSTOMDPI
 70
   300
  0
ENDSEC
  0
EOF
