  0
SECTION
  2
HEADER
  9
$ACADVER
  1
AC1015
  9
$ACADMAINTVER
 70
    20
  9
$DWGCODEPAGE
  3
ANSI_950
  9
$INSBASE
 10
0.0
 20
0.0
 30
0.0
  9
$EXTMIN
 10
83.78082382932872
 20
64.23005752897598
 30
-0.0095246764139461
  9
$EXTMAX
 10
358.8098153597789
 20
264.24371403228
 30
131.0657258363851
  9
$LIMMIN
 10
0.0
 20
0.0
  9
$LIMMAX
 10
420.0
 20
297.0
  9
$ORTHOMODE
 70
     0
  9
$REGENMODE
 70
     1
  9
$FILLMODE
 70
     1
  9
$QTEXTMODE
 70
     0
  9
$MIRRTEXT
 70
     1
  9
$LTSCALE
 40
1.0
  9
$ATTMODE
 70
     1
  9
$TEXTSIZE
 40
3.0
  9
$TRACEWID
 40
1.0
  9
$TEXTSTYLE
  7
CHINESET
  9
$CLAYER
  8
0
  9
$CELTYPE
  6
ByLayer
  9
$CECOLOR
 62
   256
  9
$CELTSCALE
 40
1.0
  9
$DISPSILH
 70
     0
  9
$DIMSCALE
 40
1.0
  9
$DIMASZ
 40
3.0
  9
$DIMEXO
 40
1.0
  9
$DIMDLI
 40
8.0
  9
$DIMRND
 40
0.0
  9
$DIMDLE
 40
0.0
  9
$DIMEXE
 40
1.5
  9
$DIMTP
 40
0.1
  9
$DIMTM
 40
0.1
  9
$DIMTXT
 40
3.5
  9
$DIMCEN
 40
0.0
  9
$DIMTSZ
 40
0.0
  9
$DIMTOL
 70
     0
  9
$DIMLIM
 70
     0
  9
$DIMTIH
 70
     0
  9
$DIMTOH
 70
     0
  9
$DIMSE1
 70
     0
  9
$DIMSE2
 70
     0
  9
$DIMTAD
 70
     1
  9
$DIMZIN
 70
     8
  9
$DIMBLK
  1

  9
$DIMASO
 70
     1
  9
$DIMSHO
 70
     1
  9
$DIMPOST
  1

  9
$DIMAPOST
  1
"
  9
$DIMALT
 70
     0
  9
$DIMALTD
 70
     2
  9
$DIMALTF
 40
0.0393701
  9
$DIMLFAC
 40
1.0
  9
$DIMTOFL
 70
     1
  9
$DIMTVP
 40
0.0
  9
$DIMTIX
 70
     0
  9
$DIMSOXD
 70
     0
  9
$DIMSAH
 70
     0
  9
$DIMBLK1
  1

  9
$DIMBLK2
  1

  9
$DIMSTYLE
  2
AM_ISO
  9
$DIMCLRD
 70
   256
  9
$DIMCLRE
 70
   256
  9
$DIMCLRT
 70
   256
  9
$DIMTFAC
 40
0.6
  9
$DIMGAP
 40
0.8
  9
$DIMJUST
 70
     0
  9
$DIMSD1
 70
     0
  9
$DIMSD2
 70
     0
  9
$DIMTOLJ
 70
     0
  9
$DIMTZIN
 70
     8
  9
$DIMALTZ
 70
     0
  9
$DIMALTTZ
 70
     0
  9
$DIMUPT
 70
     0
  9
$DIMDEC
 70
     2
  9
$DIMTDEC
 70
     8
  9
$DIMALTU
 70
     2
  9
$DIMALTTD
 70
     2
  9
$DIMTXSTY
  7
CHINESET
  9
$DIMAUNIT
 70
     0
  9
$DIMADEC
 70
     0
  9
$DIMALTRND
 40
0.0
  9
$DIMAZIN
 70
     2
  9
$DIMDSEP
 70
    46
  9
$DIMATFIT
 70
     3
  9
$DIMFRAC
 70
     0
  9
$DIMLDRBLK
  1

  9
$DIMLUNIT
 70
     2
  9
$DIMLWD
 70
    -1
  9
$DIMLWE
 70
    -1
  9
$DIMTMOVE
 70
     0
  9
$LUNITS
 70
     2
  9
$LUPREC
 70
     2
  9
$SKETCHINC
 40
1.0
  9
$FILLETRAD
 40
2.5
  9
$AUNITS
 70
     0
  9
$AUPREC
 70
     0
  9
$MENU
  1
.
  9
$ELEVATION
 40
0.0
  9
$PELEVATION
 40
0.0
  9
$THICKNESS
 40
0.0
  9
$LIMCHECK
 70
     0
  9
$CHAMFERA
 40
2.5
  9
$CHAMFERB
 40
2.5
  9
$CHAMFERC
 40
20.0
  9
$CHAMFERD
 40
0.0
  9
$SKPOLY
 70
     0
  9
$TDCREATE
 40
2454258.477603437
  9
$TDUCREATE
 40
2454258.144270105
  9
$TDUPDATE
 40
2454258.575474167
  9
$TDUUPDATE
 40
2454258.242140833
  9
$TDINDWG
 40
0.0130334954
  9
$TDUSRTIMER
 40
0.0130334954
  9
$USRTIMER
 70
     1
  9
$ANGBASE
 50
0.0
  9
$ANGDIR
 70
     0
  9
$PDMODE
 70
     0
  9
$PDSIZE
 40
0.0
  9
$PLINEWID
 40
0.0
  9
$SPLFRAME
 70
     0
  9
$SPLINETYPE
 70
     6
  9
$SPLINESEGS
 70
     8
  9
$HANDSEED
  5
12D5
  9
$SURFTAB1
 70
     6
  9
$SURFTAB2
 70
     6
  9
$SURFTYPE
 70
     6
  9
$SURFU
 70
     6
  9
$SURFV
 70
     6
  9
$UCSBASE
  2

  9
$UCSNAME
  2

  9
$UCSORG
 10
0.0
 20
0.0
 30
0.0
  9
$UCSXDIR
 10
1.0
 20
0.0
 30
0.0
  9
$UCSYDIR
 10
0.0
 20
1.0
 30
0.0
  9
$UCSORTHOREF
  2

  9
$UCSORTHOVIEW
 70
     0
  9
$UCSORGTOP
 10
0.0
 20
0.0
 30
0.0
  9
$UCSORGBOTTOM
 10
0.0
 20
0.0
 30
0.0
  9
$UCSORGLEFT
 10
0.0
 20
0.0
 30
0.0
  9
$UCSORGRIGHT
 10
0.0
 20
0.0
 30
0.0
  9
$UCSORGFRONT
 10
0.0
 20
0.0
 30
0.0
  9
$UCSORGBACK
 10
0.0
 20
0.0
 30
0.0
  9
$PUCSBASE
  2

  9
$PUCSNAME
  2

  9
$PUCSORG
 10
0.0
 20
0.0
 30
0.0
  9
$PUCSXDIR
 10
1.0
 20
0.0
 30
0.0
  9
$PUCSYDIR
 10
0.0
 20
1.0
 30
0.0
  9
$PUCSORTHOREF
  2

  9
$PUCSORTHOVIEW
 70
     0
  9
$PUCSORGTOP
 10
0.0
 20
0.0
 30
0.0
  9
$PUCSORGBOTTOM
 10
0.0
 20
0.0
 30
0.0
  9
$PUCSORGLEFT
 10
0.0
 20
0.0
 30
0.0
  9
$PUCSORGRIGHT
 10
0.0
 20
0.0
 30
0.0
  9
$PUCSORGFRONT
 10
0.0
 20
0.0
 30
0.0
  9
$PUCSORGBACK
 10
0.0
 20
0.0
 30
0.0
  9
$USERI1
 70
     0
  9
$USERI2
 70
     0
  9
$USERI3
 70
     0
  9
$USERI4
 70
     0
  9
$USERI5
 70
     0
  9
$USERR1
 40
0.0
  9
$USERR2
 40
0.0
  9
$USERR3
 40
0.0
  9
$USERR4
 40
0.0
  9
$USERR5
 40
0.0
  9
$WORLDVIEW
 70
     1
  9
$SHADEDGE
 70
     3
  9
$SHADEDIF
 70
    70
  9
$TILEMODE
 70
     1
  9
$MAXACTVP
 70
    64
  9
$PINSBASE
 10
0.0
 20
0.0
 30
0.0
  9
$PLIMCHECK
 70
     0
  9
$PEXTMIN
 10
1.000000000000000E+20
 20
1.000000000000000E+20
 30
1.000000000000000E+20
  9
$PEXTMAX
 10
-1.000000000000000E+20
 20
-1.000000000000000E+20
 30
-1.000000000000000E+20
  9
$PLIMMIN
 10
0.0
 20
0.0
  9
$PLIMMAX
 10
420.0
 20
297.0
  9
$UNITMODE
 70
     0
  9
$VISRETAIN
 70
     1
  9
$PLINEGEN
 70
     0
  9
$PSLTSCALE
 70
     1
  9
$TREEDEPTH
 70
  3020
  9
$CMLSTYLE
  2
Standard
  9
$CMLJUST
 70
     0
  9
$CMLSCALE
 40
20.0
  9
$PROXYGRAPHICS
 70
     1
  9
$MEASUREMENT
 70
     1
  9
$CELWEIGHT
370
    -1
  9
$ENDCAPS
280
     0
  9
$JOINSTYLE
280
     0
  9
$LWDISPLAY
290
     0
  9
$INSUNITS
 70
     4
  9
$HYPERLINKBASE
  1

  9
$STYLESHEET
  1
彩色出圖.ctb
  9
$XEDIT
290
     1
  9
$CEPSNTYPE
380
     0
  9
$PSTYLEMODE
290
     1
  9
$FINGERPRINTGUID
  2
{5AE30D0C-8B0C-47C6-BCF1-2EB8E1B65188}
  9
$VERSIONGUID
  2
{70AE2DBC-98E7-48FC-8485-7A00C3BD0883}
  9
$EXTNAMES
290
     1
  9
$PSVPSCALE
 40
0.0
  9
$OLESTARTUP
290
     0
  0
ENDSEC
  0
SECTION
  2
CLASSES
  0
CLASS
  1
ACDBDICTIONARYWDFLT
  2
AcDbDictionaryWithDefault
  3
ObjectDBX Classes
 90
        0
280
     0
281
     0
  0
CLASS
  1
ACDBPLACEHOLDER
  2
AcDbPlaceHolder
  3
ObjectDBX Classes
 90
        0
280
     0
281
     0
  0
CLASS
  1
LAYOUT
  2
AcDbLayout
  3
ObjectDBX Classes
 90
        0
280
     0
281
     0
  0
CLASS
  1
ACME_DOCUMENT
  2
AcMeDbDoc
  3
AcMeServices
 90
        0
280
     0
281
     0
  0
CLASS
  1
AMGSETTINGSOBJ
  2
AmgSettingsObj
  3
"AcadM|Product Description: AutoCAD Mechanical 2000|Company: Autodesk"
 90
        0
280
     0
281
     0
  0
CLASS
  1
ACMESCOPE
  2
AcMeScope
  3
AcMeServices
 90
        0
280
     0
281
     0
  0
CLASS
  1
ACMECOMMANDHISTORY
  2
AcMeCommandHistory
  3
AcMeServices
 90
        0
280
     0
281
     0
  0
CLASS
  1
ACIMSYSVARMAN
  2
AcImSysVarManager
  3
AcMeServices
 90
        0
280
     0
281
     0
  0
CLASS
  1
ACIMREALSYSVAR
  2
AcImRealSysVar
  3
AcMeServices
 90
        0
280
     0
281
     0
  0
CLASS
  1
ACIMINTSYSVAR
  2
AcImIntSysVar
  3
AcMeServices
 90
        0
280
     0
281
     0
  0
CLASS
  1
ACMEDRAWINGMAN
  2
AcMeDrawingMan
  3
AcMeServices
 90
        0
280
     0
281
     0
  0
CLASS
  1
ACMEVIEW
  2
AcMeView
  3
AcMeServices
 90
        0
280
     0
281
     0
  0
CLASS
  1
ACDBENTITYCACHE
  2
AcMeEntityCache
  3
AcMeServices
 90
        0
280
     0
281
     0
  0
CLASS
  1
GSMANAGER
  2
AcMeGSManager
  3
AcMeServices
 90
        0
280
     0
281
     0
  0
CLASS
  1
AMDTINTERNALREACTOR
  2
AmdtInternalReactor
  3
AcMeServices
 90
        0
280
     0
281
     0
  0
CLASS
  1
ACMESTATEMGR
  2
AcMeStateMgr
  3
AcMeServices
 90
        0
280
     0
281
     0
  0
CLASS
  1
ACGREFMASTER
  2
AcGrefMaster
  3
AcAttribServices
 90
        0
280
     0
281
     0
  0
CLASS
  1
ACME_DATABASE
  2
AcMeDbDatabase
  3
AcMeServices
 90
        0
280
     0
281
     0
  0
CLASS
  1
ACRFINSADJUSTERMGR
  2
AcRfInsAdjusterMgr
  3
AcMeServices
 90
        0
280
     0
281
     0
  0
CLASS
  1
ACGREFACADMASTER
  2
AcGrefacadMaster
  3
AcGrefServices
 90
        0
280
     0
281
     0
  0
CLASS
  1
AMIMASTER
  2
AmiMaster
  3
AmiServices
 90
        0
280
     0
281
     0
  0
CLASS
  1
ACMDATADICTIONARY
  2
AcmDataDictionary
  3
"AcmSymBB|Product Description: AutoCAD Mechanical 2004 DX|Company: Autodesk"
 90
        0
280
     0
281
     0
  0
CLASS
  1
ACMDATAENTRYBLOCK
  2
AcmDataEntryBlock
  3
"AcmSymBB|Product Description: AutoCAD Mechanical 2004 DX|Company: Autodesk"
 90
        0
280
     0
281
     0
  0
CLASS
  1
ACIMSTRSYSVAR
  2
AcImStrSysVar
  3
AcMeServices
 90
        0
280
     0
281
     0
  0
CLASS
  1
ACMSTANDARDISO
  2
AcmStandardISO
  3
"Amdt_StdImp|Product Description: AutoCAD Mechanical 2004 DX|Company: Autodesk"
 90
        0
280
     0
281
     0
  0
CLASS
  1
AMGOBJPROPCFG
  2
AmgObjPropCfg
  3
"AmgLay|Product Description: AutoCAD Mechanical 2000|Company: Autodesk"
 90
        1
280
     0
281
     0
  0
CLASS
  1
AMDTEDGESTANDARDISO
  2
AmdtEdgeStdISO
  3
"Amdt_StdImp|Product Description: AutoCAD Mechanical 2004 DX|Company: Autodesk"
 90
        0
280
     0
281
     0
  0
CLASS
  1
ACMSURFSTANDARDISO
  2
AcmSurfTextStdISO
  3
"Amdt_StdImp|Product Description: AutoCAD Mechanical 2004 DX|Company: Autodesk"
 90
        0
280
     0
281
     0
  0
CLASS
  1
ACMFCFSTANDARDISO
  2
AcmFCFStdISO
  3
"Amdt_StdImp|Product Description: AutoCAD Mechanical 2004 DX|Company: Autodesk"
 90
        0
280
     0
281
     0
  0
CLASS
  1
ACMWELDSTANDARDISO
  2
AcmWeldingStdISO
  3
"Amdt_StdImp|Product Description: AutoCAD Mechanical 2004 DX|Company: Autodesk"
 90
        0
280
     0
281
     0
  0
CLASS
  1
ACMIDSTANDARDISO
  2
AcmIdStdISO
  3
"Amdt_StdImp|Product Description: AutoCAD Mechanical 2004 DX|Company: Autodesk"
 90
        0
280
     0
281
     0
  0
CLASS
  1
ACMDATUMSTANDARDISO
  2
AcmDatumStdISO
  3
"Amdt_StdImp|Product Description: AutoCAD Mechanical 2004 DX|Company: Autodesk"
 90
        0
280
     0
281
     0
  0
CLASS
  1
ACMBOMSTANDARDISO
  2
AcmBOMStdISO
  3
"Amdt_StdImp|Product Description: AutoCAD Mechanical 2004 DX|Company: Autodesk"
 90
        0
280
     0
281
     0
  0
CLASS
  1
ACMDETAILSTANDARDISO
  2
AmdtDetailSymStdISO
  3
"Amdt_StdImp|Product Description: AutoCAD Mechanical 2004 DX|Company: Autodesk"
 90
        0
280
     0
281
     0
  0
CLASS
  1
ACMSECTIONSTANDARDISO
  2
AmdtSectionSymStdISO
  3
"Amdt_StdImp|Product Description: AutoCAD Mechanical 2004 DX|Company: Autodesk"
 90
        0
280
     0
281
     0
  0
CLASS
  1
ACMCENTERLINESTANDARDISO
  2
AmdtCenterLineStdISO
  3
"Amdt_StdImp|Product Description: AutoCAD Mechanical 2004 DX|Company: Autodesk"
 90
        0
280
     0
281
     0
  0
CLASS
  1
ACMNOTESTANDARDISO
  2
AmdtNoteStdISO
  3
"Amdt_StdImp|Product Description: AutoCAD Mechanical 2004 DX|Company: Autodesk"
 90
        0
280
     0
281
     0
  0
CLASS
  1
ACAMGLAYSTD
  2
AcAmgLayStd
  3
"AcAmgLayStd|Product Description: AutoCAD Mechanical 2000|Company: Autodesk"
 90
        0
280
     0
281
     0
  0
CLASS
  1
ACAMGDIMSTD
  2
AcAmgDimStd
  3
"AcAmgDimStd|Product Description: AutoCAD Mechanical 2000|Company: Autodesk"
 90
        0
280
     0
281
     0
  0
CLASS
  1
ACAMGHOLECHARTSTDISO
  2
AcAmgHoleChartStdISO
  3
ACMSYMBB_MODULE_NAME
 90
        0
280
     0
281
     0
  0
CLASS
  1
ACAMGTITLESTD
  2
AcAmgTitleStd
  3
"TITLEAPP"
 90
        0
280
     0
281
     0
  0
CLASS
  1
LAYER_INDEX
  2
AcDbLayerIndex
  3
ObjectDBX Classes
 90
    32768
280
     0
281
     0
  0
CLASS
  1
IDBUFFER
  2
AcDbIdBuffer
  3
ObjectDBX Classes
 90
    32768
280
     0
281
     0
  0
CLASS
  1
DICTIONARYVAR
  2
AcDbDictionaryVar
  3
ObjectDBX Classes
 90
        0
280
     0
281
     0
  0
CLASS
  1
AM_DRAWING_MGR
  2
AcDmDwgMgr
  3
AcMechDwgViewMgmt
 90
        0
280
     0
281
     0
  0
CLASS
  1
AM_DWG_DOCUMENT
  2
AcDmDwgDocument
  3
AcMechDwgViewMgmt
 90
        0
280
     0
281
     0
  0
CLASS
  1
AM_DWG_SHEET
  2
AcDmSheet
  3
AcMechDwgViewMgmt
 90
        0
280
     0
281
     0
  0
CLASS
  1
AM_VIEWDIMPARMAP
  2
AcDmViewDimParMap
  3
AcMechDwgViewMgmt
 90
        0
280
     0
281
     0
  0
CLASS
  1
AM_DWGMGR_NAME
  2
AcDmDwgMgrName
  3
AcMechDwgViewMgmt
 90
        0
280
     0
281
     0
  0
CLASS
  1
AMDTMENUSTATEMGR
  2
AmdtMenuStateMgr
  3
McadcomServices
 90
        0
280
     0
281
     0
  0
CLASS
  1
AMDTMCOMMENUSTATE
  2
AmdtMcomMenuState
  3
McadcomServices
 90
        0
280
     0
281
     0
  0
CLASS
  1
MAPIAMMOUDLE
  2
MApiAmModule
  3
MApiAmServices
 90
        0
280
     0
281
     0
  0
CLASS
  1
AMDTADMENUSTATE
  2
AmdtAdMenuState
  3
DesignerServices
 90
        0
280
     0
281
     0
  0
CLASS
  1
ADAPPL
  2
AcAdAppl
  3
DesignerServices
 90
        0
280
     0
281
     0
  0
CLASS
  1
DEPMGR
  2
AcAdDepMgr
  3
DesignerServices
 90
        0
280
     0
281
     0
  0
CLASS
  1
PARAMMGR
  2
AcAdParamMgr
  3
DesignerServices
 90
        0
280
     0
281
     0
  0
CLASS
  1
PARAMSCOPE
  2
AcAdParamScope
  3
DesignerServices
 90
        0
280
     0
281
     0
  0
CLASS
  1
NAMEDAPPL
  2
AcAdNamedAppl
  3
DesignerServices
 90
        0
280
     0
281
     0
  0
CLASS
  1
AMDTDMMENUSTATE
  2
AmdtDmMenuState
  3
AcMechDwgViewMgmt
 90
        0
280
     0
281
     0
  0
CLASS
  1
AMDTAMMENUSTATE
  2
AmdtAmMenuState
  3
DesignerAssemblies
 90
        0
280
     0
281
     0
  0
CLASS
  1
ACAMPROJECT
  2
AcAmProject
  3
DesignerAssemblies
 90
        0
280
     0
281
     0
  0
CLASS
  1
ACAMGRCOMPDEF
  2
AcAmGrCompDef
  3
DesignerAssemblies
 90
        0
280
     0
281
     0
  0
CLASS
  1
ACCMCONTEXT
  2
AcCmContext
  3
DesignerAssemblies
 90
        0
280
     0
281
     0
  0
CLASS
  1
ACAMCOMPDEF
  2
AcAmCompDef
  3
DesignerAssemblies
 90
        0
280
     0
281
     0
  0
CLASS
  1
ACAMCOMPDEFMGR
  2
AcAmCompDefMgr
  3
DesignerAssemblies
 90
        0
280
     0
281
     0
  0
CLASS
  1
AMCONTEXTMGR
  2
AcAmContextMgr
  3
DesignerAssemblies
 90
        0
280
     0
281
     0
  0
CLASS
  1
ACAMCONTEXTMODELER
  2
AcAmContextModeler
  3
DesignerAssemblies
 90
        0
280
     0
281
     0
  0
CLASS
  1
ACMTHREADLINESTANDARDISO
  2
AmdtThreadLineStdISO
  3
"Amdt_StdImp|Product Description: AutoCAD Mechanical 2004 DX|Company: Autodesk"
 90
        0
280
     0
281
     0
  0
CLASS
  1
CATALOGSTATE
  2
AcAmCatalogState
  3
DesignerAssemblies
 90
        0
280
     0
281
     0
  0
CLASS
  1
ACAMGRCOMPDEFSET
  2
AcAmGrCompDefSet
  3
DesignerAssemblies
 90
        0
280
     0
281
     0
  0
CLASS
  1
AMDTBROWSERDBTAB
  2
AmdtBrowserDbTab
  3
McadcomServices
 90
        0
280
     0
281
     0
  0
CLASS
  1
CBROWSERAPPOBJECT
  2
CBrowserAppObject
  3
McadcomServices
 90
        0
280
     0
281
     0
  0
CLASS
  1
DM_PLACEHOLDER
  2
AcDmSelsetPlaceholder
  3
AcMechDwgViewMgmt
 90
        0
280
     0
281
     0
  0
CLASS
  1
TABLESTYLE
  2
AcDbTableStyle
  3
ObjectDBX Classes
 90
     2047
280
     0
281
     0
  0
CLASS
  1
VAACXREFPANELOBJECT
  2
VaAcXREFPanelObject
  3
VAAC_ADDIN
 90
    32768
280
     0
281
     0
  0
CLASS
  1
VAACIMAGEINVENTORY
  2
VaAcImageInventory
  3
VAAC_ADDIN
 90
    32768
280
     0
281
     0
  0
CLASS
  1
AMDTNOTETEMPLATEDB
  2
AmdtNoteTemplateDB
  3
AMDT_STDIMP_MODULE_NAME
 90
        0
280
     0
281
     0
  0
CLASS
  1
ACMBOM
  2
AcmBom
  3
"AcmSymBB|Product Description: AutoCAD Mechanical 2004 DX|Company: Autodesk"
 90
    32768
280
     0
281
     0
  0
CLASS
  1
AMDTFORMULAUPDATEDISPATCHER
  2
AmdtFormulaUpdateDispatcher
  3
AcMeServices
 90
        0
280
     0
281
     0
  0
CLASS
  1
ACMPARTLIST
  2
AcmPartList
  3
"AcmSymBB|Product Description: AutoCAD Mechanical 2004 DX|Company: Autodesk"
 90
    33791
280
     0
281
     1
  0
CLASS
  1
ACAMGFILTERDAT
  2
AcAmgFilterDat
  3
"AcadM|Product Description: AutoCAD Mechanical 2000|Company: Autodesk"
 90
        0
280
     0
281
     0
  0
CLASS
  1
DIMASSOC
  2
AcDbDimAssoc
  3
"AcDbDimAssoc|Product Desc:     AcDim ARX App For Dimension|Company:          Autodesk, Inc.|WEB Address:      www.autodesk.com"
 90
        0
280
     0
281
     0
  0
CLASS
  1
ACMSTANDARDANSI
  2
AcmStandardANSI
  3
"Amdt_StdImp|Product Description: AutoCAD Mechanical 2004 DX|Company: Autodesk"
 90
        0
280
     0
281
     0
  0
CLASS
  1
ACMSURFSTANDARDANSI
  2
AcmSurfTextStdANSI
  3
"Amdt_StdImp|Product Description: AutoCAD Mechanical 2004 DX|Company: Autodesk"
 90
        0
280
     0
281
     0
  0
CLASS
  1
ACMFCFSTANDARDANSI
  2
AcmFCFStdANSI
  3
"Amdt_StdImp|Product Description: AutoCAD Mechanical 2004 DX|Company: Autodesk"
 90
        0
280
     0
281
     0
  0
CLASS
  1
ACMWELDSTANDARDANSI
  2
AcmWeldingStdANSI
  3
"Amdt_StdImp|Product Description: AutoCAD Mechanical 2004 DX|Company: Autodesk"
 90
        0
280
     0
281
     0
  0
CLASS
  1
ACMIDSTANDARDANSI
  2
AcmIdStdANSI
  3
"Amdt_StdImp|Product Description: AutoCAD Mechanical 2004 DX|Company: Autodesk"
 90
        0
280
     0
281
     0
  0
CLASS
  1
ACMDATUMSTANDARDANSI
  2
AcmDatumStdANSI
  3
"Amdt_StdImp|Product Description: AutoCAD Mechanical 2004 DX|Company: Autodesk"
 90
        0
280
     0
281
     0
  0
CLASS
  1
ACMBOMSTANDARDANSI
  2
AcmBOMStdANSI
  3
"Amdt_StdImp|Product Description: AutoCAD Mechanical 2004 DX|Company: Autodesk"
 90
        0
280
     0
281
     0
  0
CLASS
  1
ACMDETAILSTANDARDANSI
  2
AmdtDetailSymStdANSI
  3
"Amdt_StdImp|Product Description: AutoCAD Mechanical 2004 DX|Company: Autodesk"
 90
        0
280
     0
281
     0
  0
CLASS
  1
ACMSECTIONSTANDARDANSI
  2
AmdtSectionSymStdANSI
  3
"Amdt_StdImp|Product Description: AutoCAD Mechanical 2004 DX|Company: Autodesk"
 90
        0
280
     0
281
     0
  0
CLASS
  1
ACMCENTERLINESTANDARDANSI
  2
AmdtCenterLineStdANSI
  3
"Amdt_StdImp|Product Description: AutoCAD Mechanical 2004 DX|Company: Autodesk"
 90
        0
280
     0
281
     0
  0
CLASS
  1
ACMTHREADLINESTANDARDANSI
  2
AmdtThreadLineStdANSI
  3
"Amdt_StdImp|Product Description: AutoCAD Mechanical 2004 DX|Company: Autodesk"
 90
        0
280
     0
281
     0
  0
CLASS
  1
ACMNOTESTANDARDANSI
  2
AmdtNoteStdANSI
  3
"Amdt_StdImp|Product Description: AutoCAD Mechanical 2004 DX|Company: Autodesk"
 90
        0
280
     0
281
     0
  0
CLASS
  1
ACAMGHOLECHARTSTDANSI
  2
AcAmgHoleChartStdANSI
  3
ACMSYMBB_MODULE_NAME
 90
        0
280
     0
281
     0
  0
CLASS
  1
STDPART2D
  2
AmgStdPart
  3
"AmgStdPart|Product Description: AutoCAD Mechanical 2000|Company: Autodesk"
 90
    33791
280
     0
281
     1
  0
CLASS
  1
ACAMSTDPCOMPDEF
  2
AcAmStdpCompDef
  3
DesignerAssemblies
 90
    32768
280
     0
281
     0
  0
CLASS
  1
ACRFATTGENMGR
  2
AcRfAttGeneralMgr
  3
AcAttribServices
 90
        0
280
     0
281
     0
  0
CLASS
  1
ACRFOBJATTMGR
  2
AcRfObjAttGroupMgr
  3
AcAttribServices
 90
    32768
280
     0
281
     0
  0
CLASS
  1
ACRFMCADAPIATTHOLDER
  2
AcRfMCADAPIAttHolder
  3
AcAttribServices
 90
    32768
280
     0
281
     0
  0
CLASS
  1
AMDTSYSATTR
  2
AmdtSystemAttribute
  3
AcAttribServices
 90
    32768
280
     0
281
     0
  0
CLASS
  1
ACAMCOMP
  2
AcAmComp
  3
DesignerAssemblies
 90
    32768
280
     0
281
     0
  0
CLASS
  1
AC_AM_STDP_VIEW_DEF
  2
AcAmStdpViewDef
  3
DesignerAssemblies
 90
    32768
280
     0
281
     0
  0
CLASS
  1
AC_AM_MVD_DEP_MGR
  2
AcAmMVDdepMgr
  3
DesignerAssemblies
 90
        0
280
     0
281
     0
  0
CLASS
  1
AC_AM_MASTER_VIEW_DEF
  2
AcAmMasterViewDef
  3
DesignerAssemblies
 90
        0
280
     0
281
     0
  0
CLASS
  1
AC_AM_DIRTY_NODES
  2
AcAmDirtyNodes
  3
DesignerAssemblies
 90
        0
280
     0
281
     0
  0
CLASS
  1
AC_AM_MAPPER_CACHE
  2
AcAmMapperCache
  3
DesignerAssemblies
 90
        0
280
     0
281
     0
  0
CLASS
  1
ACAMMVDBACKUPOBJECT
  2
AcAmMVDBackupObject
  3
DesignerAssemblies
 90
        0
280
     0
281
     0
  0
CLASS
  1
AC_AM_COMP_VIEW_INST
  2
AcAmCompView
  3
DesignerAssemblies
 90
    32768
280
     0
281
     0
  0
CLASS
  1
AC_AM_2D_XREF_MGR
  2
AcAmXrefMgr2d
  3
DesignerAssemblies
 90
        0
280
     0
281
     0
  0
CLASS
  1
SORTENTSTABLE
  2
AcDbSortentsTable
  3
ObjectDBX Classes
 90
        0
280
     0
281
     0
  0
CLASS
  1
AMDTNOTE
  2
AmdtNote
  3
"AcmSymBB|Product Description: AutoCAD Mechanical 2004 DX|Company: Autodesk"
 90
     1023
280
     0
281
     1
  0
ENDSEC
  0
SECTION
  2
TABLES
  0
TABLE
  2
VPORT
  5
8
330
0
100
AcDbSymbolTable
 70
     4
  0
VPORT
  5
12CC
330
8
100
AcDbSymbolTableRecord
100
AcDbViewportTableRecord
  2
*Active
 70
     0
 10
0.0
 20
0.0
 11
1.0
 21
1.0
 12
221.2953195945538
 22
164.236885780628
 13
0.0
 23
0.0
 14
2.5
 24
2.5
 15
10.0
 25
10.0
 16
0.0
 26
0.0
 36
1.0
 17
0.0
 27
0.0
 37
0.0
 40
201.6419902061802
 41
1.661684782608695
 42
50.0
 43
0.0
 44
0.0
 50
0.0
 51
0.0
 71
     0
 72
   100
 73
     1
 74
     3
 75
     0
 76
     0
 77
     0
 78
     0
281
     0
 65
     1
110
0.0
120
0.0
130
0.0
111
1.0
121
0.0
131
0.0
112
0.0
122
1.0
132
0.0
 79
     0
146
0.0
  0
ENDTAB
  0
TABLE
  2
LTYPE
  5
5
330
0
100
AcDbSymbolTable
 70
    17
  0
LTYPE
  5
14
330
5
100
AcDbSymbolTableRecord
100
AcDbLinetypeTableRecord
  2
ByBlock
 70
     0
  3

 72
    65
 73
     0
 40
0.0
  0
LTYPE
  5
15
330
5
100
AcDbSymbolTableRecord
100
AcDbLinetypeTableRecord
  2
ByLayer
 70
     0
  3

 72
    65
 73
     0
 40
0.0
  0
LTYPE
  5
16
330
5
100
AcDbSymbolTableRecord
100
AcDbLinetypeTableRecord
  2
Continuous
 70
     0
  3
Solid line
 72
    65
 73
     0
 40
0.0
  0
LTYPE
  5
64
330
5
100
AcDbSymbolTableRecord
100
AcDbLinetypeTableRecord
  2
AM_ISO02W050
 70
     0
  3
__ __ __ __ __ __ __ __ __ __ __ __ __ __ __
 72
    65
 73
     2
 40
7.5
 49
6.0
 74
     0
 49
-1.5
 74
     0
  0
LTYPE
  5
65
330
5
100
AcDbSymbolTableRecord
100
AcDbLinetypeTableRecord
  2
AM_ISO08W050
 70
     0
  3
____ . ____ . ____ . ____ . ____ . ____ . ____
 72
    65
 73
     4
 40
18.0
 49
12.0
 74
     0
 49
-1.5
 74
     0
 49
3.0
 74
     0
 49
-1.5
 74
     0
  0
LTYPE
  5
66
330
5
100
AcDbSymbolTableRecord
100
AcDbLinetypeTableRecord
  2
AM_ISO09W050
 70
     0
  3
_____ . . _____ . . _____ . . ____ .. ____
 72
    65
 73
     6
 40
22.5
 49
12.0
 74
     0
 49
-1.5
 74
     0
 49
3.0
 74
     0
 49
-1.5
 74
     0
 49
3.0
 74
     0
 49
-1.5
 74
     0
  0
LTYPE
  5
67
330
5
100
AcDbSymbolTableRecord
100
AcDbLinetypeTableRecord
  2
Amconstr
 70
     0
  3
_______________________
 72
    65
 73
     2
 40
9999.0
 49
9999.0
 74
     0
 49
0.0
 74
     0
  0
LTYPE
  5
68
330
5
100
AcDbSymbolTableRecord
100
AcDbLinetypeTableRecord
  2
AM_ISO08W050x2
 70
     0
  3
__ . __ . __ . __ . __ . __
 72
    65
 73
     4
 40
9.0
 49
6.0
 74
     0
 49
-0.75
 74
     0
 49
1.5
 74
     0
 49
-0.75
 74
     0
  0
LTYPE
  5
69
330
5
100
AcDbSymbolTableRecord
100
AcDbLinetypeTableRecord
  2
AM_ISO02W050x2
 70
     0
  3
 _ _ _ _ _ _ _ _ _ _ _ _
 72
    65
 73
     2
 40
3.75
 49
3.0
 74
     0
 49
-0.75
 74
     0
  0
LTYPE
  5
6C
330
5
100
AcDbSymbolTableRecord
100
AcDbLinetypeTableRecord
  2
Amzigzag
 70
     0
  3
/\/-/\/-/\/-/\/-/\/-/\/
 72
    65
 73
     2
 40
11.0001
 49
0.0001
 74
     4
 75
   135
340
6B
 46
0.04
 50
0.0
 44
0.0
 45
0.0
 49
-11.0
 74
     0
  0
LTYPE
  5
7A
330
5
100
AcDbSymbolTableRecord
100
AcDbLinetypeTableRecord
  2
ACISOWELD
 70
     0
  3
_ _ _ _ _
 72
    65
 73
     2
 40
2.0
 49
2.0
 74
     0
 49
-1.0
 74
     0
  0
LTYPE
  5
7B
330
5
100
AcDbSymbolTableRecord
100
AcDbLinetypeTableRecord
  2
ACISOTGB
 70
     0
  3
__ . . __ . .
 72
    65
 73
     6
 40
9.0
 49
4.0
 74
     0
 49
-1.0
 74
     0
 49
1.0
 74
     0
 49
-1.0
 74
     0
 49
1.0
 74
     0
 49
-1.0
 74
     0
  0
LTYPE
  5
7C
330
5
100
AcDbSymbolTableRecord
100
AcDbLinetypeTableRecord
  2
ACISOTGL
 70
     0
  3
_ _ _ _ _
 72
    65
 73
     2
 40
3.0
 49
2.0
 74
     0
 49
-1.0
 74
     0
  0
LTYPE
  5
7E
330
5
100
AcDbSymbolTableRecord
100
AcDbLinetypeTableRecord
  2
CENTER
 70
     0
  3
__ . __
 72
    65
 73
     4
 40
7.0
 49
4.0
 74
     0
 49
-1.0
 74
     0
 49
1.0
 74
     0
 49
-1.0
 74
     0
  0
LTYPE
  5
D8
330
5
100
AcDbSymbolTableRecord
100
AcDbLinetypeTableRecord
  2
HIDDEN
 70
     0
  3
Hidden __ __ __ __ __ __ __ __ __ __ __ __ __ _
 72
    65
 73
     2
 40
9.524999999999998
 49
6.349999999999999
 74
     0
 49
-3.174999999999999
 74
     0
  0
LTYPE
  5
D9
330
5
100
AcDbSymbolTableRecord
100
AcDbLinetypeTableRecord
  2
PHANTOM2
 70
     0
  3
Phantom (.5x) ___ _ _ ___ _ _ ___ _ _ ___ _ _
 72
    65
 73
     6
 40
31.75
 49
15.875
 74
     0
 49
-3.174999999999999
 74
     0
 49
3.174999999999999
 74
     0
 49
-3.174999999999999
 74
     0
 49
3.174999999999999
 74
     0
 49
-3.174999999999999
 74
     0
  0
LTYPE
  5
C42
330
5
100
AcDbSymbolTableRecord
100
AcDbLinetypeTableRecord
  2
CENTER2
 70
     0
  3
___ _ ___ _ ___ _ ___ _ ___ _ ___ _ ___ _ ___ _
 72
    65
 73
     4
 40
1.125
 49
0.75
 74
     0
 49
-0.125
 74
     0
 49
0.125
 74
     0
 49
-0.125
 74
     0
  0
LTYPE
  5
C45
330
5
100
AcDbSymbolTableRecord
100
AcDbLinetypeTableRecord
  2
ACANSTGB
 70
     0
  3
__ . . __ . .
 72
    65
 73
     6
 40
0.35433070866
 49
0.15748031496
 74
     0
 49
-0.03937007874
 74
     0
 49
0.03937007874
 74
     0
 49
-0.03937007874
 74
     0
 49
0.03937007874
 74
     0
 49
-0.03937007874
 74
     0
  0
LTYPE
  5
C46
330
5
100
AcDbSymbolTableRecord
100
AcDbLinetypeTableRecord
  2
ACANSTGL
 70
     0
  3
_ _ _ _ _
 72
    65
 73
     2
 40
0.11811023622
 49
0.07874015748
 74
     0
 49
-0.03937007874
 74
     0
  0
ENDTAB
  0
TABLE
  2
LAYER
  5
2
102
{ACAD_XDICTIONARY
360
3F9
102
}
330
0
100
AcDbSymbolTable
 70
    12
  0
LAYER
  5
10
330
2
100
AcDbSymbolTableRecord
100
AcDbLayerTableRecord
  2
0
 70
     0
 62
     7
  6
Continuous
370
    -3
390
F
  0
LAYER
  5
8CB
330
2
100
AcDbSymbolTableRecord
100
AcDbLayerTableRecord
  2
AM_5
 70
     0
 62
     5
  6
Continuous
370
    50
390
F
  0
LAYER
  5
939
330
2
100
AcDbSymbolTableRecord
100
AcDbLayerTableRecord
  2
Defpoints
 70
     0
 62
     7
  6
Continuous
290
     0
370
    -3
390
F
  0
LAYER
  5
C47
330
2
100
AcDbSymbolTableRecord
100
AcDbLayerTableRecord
  2
1
 70
     0
 62
     7
  6
Continuous
370
    -3
390
F
  0
LAYER
  5
C48
330
2
100
AcDbSymbolTableRecord
100
AcDbLayerTableRecord
  2
3
 70
     0
 62
     1
  6
CENTER2
370
    -3
390
F
  0
LAYER
  5
C4A
330
2
100
AcDbSymbolTableRecord
100
AcDbLayerTableRecord
  2
Center
 70
     0
 62
     1
  6
CENTER
370
    13
390
F
  0
LAYER
  5
C4B
330
2
100
AcDbSymbolTableRecord
100
AcDbLayerTableRecord
  2
Dim
 70
     0
 62
     4
  6
Continuous
370
    18
390
F
  0
LAYER
  5
108B
330
2
100
AcDbSymbolTableRecord
100
AcDbLayerTableRecord
  2
AM_0
 70
     0
 62
     7
  6
Continuous
370
    50
390
F
  0
LAYER
  5
10B1
330
2
100
AcDbSymbolTableRecord
100
AcDbLayerTableRecord
  2
AM_4
 70
     0
 62
     3
  6
Continuous
370
    25
390
F
  0
LAYER
  5
110D
330
2
100
AcDbSymbolTableRecord
100
AcDbLayerTableRecord
  2
AM_7
 70
     0
 62
     1
  6
CENTER
370
    25
390
F
  0
LAYER
  5
110E
330
2
100
AcDbSymbolTableRecord
100
AcDbLayerTableRecord
  2
AM_9
 70
     0
 62
  -253
  6
Continuous
370
     0
390
F
  0
LAYER
  5
113E
330
2
100
AcDbSymbolTableRecord
100
AcDbLayerTableRecord
  2
LOGO
 70
     0
 62
     7
  6
Continuous
370
    -3
390
F
  0
ENDTAB
  0
TABLE
  2
STYLE
  5
3
330
0
100
AcDbSymbolTable
 70
     8
  0
STYLE
  5
11
330
3
100
AcDbSymbolTableRecord
100
AcDbTextStyleTableRecord
  2
STANDARD
 70
     0
 40
0.0
 41
1.0
 50
0.0
 71
     0
 42
3.0
  3
ISOCP.SHX
  4
CHINESET.SHX
  0
STYLE
  5
6B
330
3
100
AcDbSymbolTableRecord
100
AcDbTextStyleTableRecord
  2

 70
     1
 40
0.0
 41
1.0
 50
0.0
 71
     0
 42
2.5
  3
ltypeshp.shx
  4

  0
STYLE
  5
6D
330
3
100
AcDbSymbolTableRecord
100
AcDbTextStyleTableRecord
  2
ACISOTS
 70
     0
 40
1.0
 41
1.0
 50
0.0
 71
     0
 42
1.0
  3
isocp.shx
  4
chineset.shx
  0
STYLE
  5
79
330
3
100
AcDbSymbolTableRecord
100
AcDbTextStyleTableRecord
  2
ACISOGDT
 70
     0
 40
0.0
 41
1.0
 50
0.0
 71
     0
 42
2.5
  3
amgdt.shx
  4
chineset.shx
  0
STYLE
  5
60C
330
3
100
AcDbSymbolTableRecord
100
AcDbTextStyleTableRecord
  2
CHINESET
 70
     0
 40
0.0
 41
0.75
 50
0.0
 71
     0
 42
3.0
  3
simplex.shx
  4
CHINESET.SHX
  0
STYLE
  5
C4D
330
3
100
AcDbSymbolTableRecord
100
AcDbTextStyleTableRecord
  2
ACANSTS
 70
     0
 40
1.0
 41
1.0
 50
0.0
 71
     0
 42
2.0
  3
romans.shx
  4
chineset.shx
  0
STYLE
  5
C4E
330
3
100
AcDbSymbolTableRecord
100
AcDbTextStyleTableRecord
  2
ACANSGDT
 70
     0
 40
0.0
 41
1.0
 50
0.0
 71
     0
 42
2.0
  3
amgdtans.shx
  4

  0
ENDTAB
  0
TABLE
  2
VIEW
  5
6
330
0
100
AcDbSymbolTable
 70
     0
  0
ENDTAB
  0
TABLE
  2
UCS
  5
7
330
0
100
AcDbSymbolTable
 70
     0
  0
ENDTAB
  0
TABLE
  2
APPID
  5
9
330
0
100
AcDbSymbolTable
 70
    27
  0
APPID
  5
12
330
9
100
AcDbSymbolTableRecord
100
AcDbRegAppTableRecord
  2
ACAD
 70
     0
  0
APPID
  5
46
330
9
100
AcDbSymbolTableRecord
100
AcDbRegAppTableRecord
  2
MCAD_NO_VIS
 70
     0
  0
APPID
  5
47
330
9
100
AcDbSymbolTableRecord
100
AcDbRegAppTableRecord
  2
ACAD_TEMP_GRAPHIC
 70
     0
  0
APPID
  5
58
330
9
100
AcDbSymbolTableRecord
100
AcDbRegAppTableRecord
  2
ACATTRIBSERVICES
 70
     0
  0
APPID
  5
EE
330
9
100
AcDbSymbolTableRecord
100
AcDbRegAppTableRecord
  2
AD_DRAW
 70
     0
  0
APPID
  5
10C
330
9
100
AcDbSymbolTableRecord
100
AcDbRegAppTableRecord
  2
DESIGNERASSEMBLIES
 70
     0
  0
APPID
  5
111
330
9
100
AcDbSymbolTableRecord
100
AcDbRegAppTableRecord
  2
ACADM_DIM_EDIT
 70
     0
  0
APPID
  5
112
330
9
100
AcDbSymbolTableRecord
100
AcDbRegAppTableRecord
  2
AMDT_DM_ADJ
 70
     0
  0
APPID
  5
22C
330
9
100
AcDbSymbolTableRecord
100
AcDbRegAppTableRecord
  2
ACAD_DSTYLE_DIMTEXT_FILL
 70
     0
  0
APPID
  5
452
330
9
100
AcDbSymbolTableRecord
100
AcDbRegAppTableRecord
  2
GENIUS_GENOENT_13
 70
     0
  0
APPID
  5
453
330
9
100
AcDbSymbolTableRecord
100
AcDbRegAppTableRecord
  2
GENIUS_GENOBJ-N-CRS_13
 70
     0
  0
APPID
  5
454
330
9
100
AcDbSymbolTableRecord
100
AcDbRegAppTableRecord
  2
GENIUS_GENOLIS_13
 70
     0
  0
APPID
  5
455
330
9
100
AcDbSymbolTableRecord
100
AcDbRegAppTableRecord
  2
GENIUS_GENODEF_13
 70
     0
  0
APPID
  5
456
330
9
100
AcDbSymbolTableRecord
100
AcDbRegAppTableRecord
  2
GENIUS_GENOREF_13
 70
     0
  0
APPID
  5
6F3
330
9
100
AcDbSymbolTableRecord
100
AcDbRegAppTableRecord
  2
ACAD_PSEXT
 70
     0
  0
APPID
  5
808
330
9
100
AcDbSymbolTableRecord
100
AcDbRegAppTableRecord
  2
GENIUS_GENDTOL_13
 70
     0
  0
APPID
  5
1092
330
9
100
AcDbSymbolTableRecord
100
AcDbRegAppTableRecord
  2
GEVID1181100771
 70
     0
  0
APPID
  5
1093
330
9
100
AcDbSymbolTableRecord
100
AcDbRegAppTableRecord
  2
GEVDC
 70
     0
  0
APPID
  5
1094
330
9
100
AcDbSymbolTableRecord
100
AcDbRegAppTableRecord
  2
GEVRADREF
 70
     0
  0
APPID
  5
109D
330
9
100
AcDbSymbolTableRecord
100
AcDbRegAppTableRecord
  2
AMG_2DHIDE
 70
     0
  0
APPID
  5
109E
330
9
100
AcDbSymbolTableRecord
100
AcDbRegAppTableRecord
  2
AMG_2DSTRUCT_BTR
 70
     0
  0
APPID
  5
10AF
330
9
100
AcDbSymbolTableRecord
100
AcDbRegAppTableRecord
  2
ACADM_2DVIEW_IGN_NOTIFY
 70
     0
  0
APPID
  5
10FD
330
9
100
AcDbSymbolTableRecord
100
AcDbRegAppTableRecord
  2
GEVID1181100772
 70
     0
  0
APPID
  5
1139
330
9
100
AcDbSymbolTableRecord
100
AcDbRegAppTableRecord
  2
GENIUS_GENOBJ-N-CEN_13
 70
     0
  0
APPID
  5
113A
330
9
100
AcDbSymbolTableRecord
100
AcDbRegAppTableRecord
  2
GENIUS_GENCEN_19
 70
     0
  0
APPID
  5
113F
330
9
100
AcDbSymbolTableRecord
100
AcDbRegAppTableRecord
  2
GENIUS_GENREC_14
 70
     0
  0
APPID
  5
1140
330
9
100
AcDbSymbolTableRecord
100
AcDbRegAppTableRecord
  2
GENIUS_GENOBJ-N-REC_13
 70
     0
  0
ENDTAB
  0
TABLE
  2
DIMSTYLE
  5
A
330
0
100
AcDbSymbolTable
 70
    15
100
AcDbDimStyleTable
 71
     3
340
81
340
8B
340
86
  0
DIMSTYLE
105
81
330
A
100
AcDbSymbolTableRecord
100
AcDbDimStyleTableRecord
  2
AM_ISO
 70
     0
  4
"
 41
3.0
 42
1.0
 43
8.0
 44
1.5
 47
0.1
 48
0.1
 73
     0
 74
     0
 77
     1
 78
     8
 79
     2
140
3.5
141
0.0
143
0.0393701
146
0.6
147
0.8
172
     1
176
   256
177
   256
178
   256
271
     2
272
     2
283
     0
284
     8
340
60C
371
    -1
372
    -1
  0
DIMSTYLE
105
82
330
A
100
AcDbSymbolTableRecord
100
AcDbDimStyleTableRecord
  2
AM_ISO$3
 70
     0
  4
"
 41
3.0
 42
1.0
 43
8.0
 44
1.5
 47
0.1
 48
0.1
 73
     0
 77
     1
 78
     8
 79
     2
140
3.5
141
0.0
143
0.0393701
146
0.6
147
0.8
176
   256
177
   256
178
   256
271
     2
272
     2
283
     0
284
     8
288
     1
289
     0
340
60C
371
    -1
372
    -1
  0
DIMSTYLE
105
83
330
A
100
AcDbSymbolTableRecord
100
AcDbDimStyleTableRecord
  2
AM_ISO$4
 70
     0
  4
"
 41
3.0
 42
1.0
 43
8.0
 44
1.5
 47
0.1
 48
0.1
 73
     0
 77
     1
 78
     8
 79
     2
140
3.5
141
0.0
143
0.0393701
146
0.6
147
0.8
176
   256
177
   256
178
   256
271
     2
272
     2
283
     0
284
     8
288
     1
289
     0
340
60C
371
    -1
372
    -1
  0
DIMSTYLE
105
84
330
A
100
AcDbSymbolTableRecord
100
AcDbDimStyleTableRecord
  2
AM_ISO$6
 70
     0
  4
"
 41
3.0
 42
1.0
 43
8.0
 44
1.5
 47
0.1
 48
0.1
 73
     0
 74
     0
 78
     8
 79
     2
140
3.5
141
0.0
143
0.0393701
146
0.6
147
0.8
172
     1
176
   256
177
   256
178
   256
271
     2
272
     2
283
     0
284
     8
340
60C
371
    -1
372
    -1
  0
DIMSTYLE
105
85
330
A
100
AcDbSymbolTableRecord
100
AcDbDimStyleTableRecord
  2
AM_ISO$7
 70
     0
  4
"
 41
3.0
 42
1.0
 43
8.0
 44
1.5
 47
0.1
 48
0.1
 73
     0
 74
     0
 77
     1
 78
     8
 79
     2
140
5.0
141
0.0
143
0.0393701
146
0.6
147
0.8
172
     1
176
   256
177
   256
178
   256
271
     2
272
     2
283
     0
284
     8
340
60C
371
    -1
372
    -1
  0
DIMSTYLE
105
86
330
A
100
AcDbSymbolTableRecord
100
AcDbDimStyleTableRecord
  2
AM_ISO$SF
 70
     0
  4
"
 41
2.5
 42
1.0
 43
10.0
 44
1.0
 47
0.1
 48
0.1
 73
     0
 74
     0
 75
     1
 76
     1
 77
     1
 78
     8
 79
     2
140
3.5
141
0.0
143
0.0393701
146
0.71
147
1.5
172
     1
176
   256
177
   256
178
     2
271
     2
272
     3
274
     4
283
     0
284
     8
340
11
371
    -1
372
    -1
  0
DIMSTYLE
105
8B
330
A
100
AcDbSymbolTableRecord
100
AcDbDimStyleTableRecord
  2
AM_ISO$SH
 70
     0
  4
"
 41
2.5
 42
1.0
 43
10.0
 44
1.0
 47
0.1
 48
0.1
 73
     0
 74
     0
 75
     1
 76
     1
 77
     1
 78
     8
 79
     2
140
3.5
141
0.0
143
0.0393701
144
2.0
146
0.71
147
1.5
172
     1
173
     1
176
   256
177
   256
178
     2
271
     2
272
     3
274
     4
283
     0
284
     8
340
11
343
87
371
    -1
372
    -1
  0
DIMSTYLE
105
40B
102
{ACAD_REACTORS
330
E5E
330
E84
330
EAA
330
ED0
330
EF6
330
F42
330
F6C
330
F92
330
FC6
330
FF0
102
}
330
A
100
AcDbSymbolTableRecord
100
AcDbDimStyleTableRecord
  2
AM_ISO$0
 70
     0
  4
"
 41
3.0
 42
1.0
 43
8.0
 44
1.5
 47
0.1
 48
0.1
 73
     0
 74
     0
 77
     1
 78
     8
 79
     2
140
3.5
141
0.0
143
0.0393701
146
0.6
147
0.8
172
     1
176
   256
177
   256
178
   256
271
     2
272
     2
283
     0
284
     8
340
60C
371
    -1
372
    -1
  0
DIMSTYLE
105
C50
330
A
100
AcDbSymbolTableRecord
100
AcDbDimStyleTableRecord
  2
AM_ANSI
 70
     0
  4
mm
 41
0.1
 42
0.05
 43
0.5
 44
0.1
 47
0.1
 48
0.1
 78
     7
 79
     2
140
0.12
141
0.0
146
0.71
147
0.06
176
   256
177
   256
178
     2
274
     4
284
     7
340
11
371
    -1
372
    -1
  0
DIMSTYLE
105
C51
330
A
100
AcDbSymbolTableRecord
100
AcDbDimStyleTableRecord
  2
AM_ANSI$3
 70
     0
  4
mm
 41
0.1
 42
0.05
 43
0.5
 44
0.1
 47
0.1
 48
0.1
 78
     7
 79
     2
140
0.12
141
0.0
146
0.71
147
0.06
176
   256
177
   256
178
     2
274
     4
284
     7
288
     1
289
     0
340
11
371
    -1
372
    -1
  0
DIMSTYLE
105
C52
330
A
100
AcDbSymbolTableRecord
100
AcDbDimStyleTableRecord
  2
AM_ANSI$4
 70
     0
  4
mm
 41
0.1
 42
0.05
 43
0.5
 44
0.1
 47
0.1
 48
0.1
 78
     7
 79
     2
140
0.12
141
0.0
146
0.71
147
0.06
176
   256
177
   256
178
     2
274
     4
284
     7
288
     1
289
     0
340
11
371
    -1
372
    -1
  0
DIMSTYLE
105
C53
330
A
100
AcDbSymbolTableRecord
100
AcDbDimStyleTableRecord
  2
AM_ANSI$7
 70
     0
  4
mm
 41
0.1
 42
0.05
 43
0.5
 44
0.1
 47
0.1
 48
0.1
 78
     7
 79
     2
140
0.24
141
0.0
146
0.71
147
0.06
176
   256
177
   256
178
     2
274
     4
284
     7
340
11
371
    -1
372
    -1
  0
DIMSTYLE
105
C54
330
A
100
AcDbSymbolTableRecord
100
AcDbDimStyleTableRecord
  2
AM_ANSI$SF
 70
     0
  4
mm
 41
0.1
 42
0.05
 43
0.5
 44
0.1
 47
0.1
 48
0.1
 75
     1
 76
     1
 78
     7
 79
     2
140
0.12
141
0.0
146
0.71
147
0.06
176
   256
177
   256
178
     2
274
     4
284
     7
340
11
371
    -1
372
    -1
  0
DIMSTYLE
105
C55
330
A
100
AcDbSymbolTableRecord
100
AcDbDimStyleTableRecord
  2
AM_ANSI$SH
 70
     0
  4
mm
 41
0.1
 42
0.05
 43
0.5
 44
0.1
 47
0.1
 48
0.1
 75
     1
 76
     1
 78
     7
 79
     2
140
0.12
141
0.0
146
0.71
147
0.06
173
     1
176
   256
177
   256
178
     2
274
     4
284
     7
340
11
343
87
371
    -1
372
    -1
  0
ENDTAB
  0
TABLE
  2
BLOCK_RECORD
  5
1
330
0
100
AcDbSymbolTable
 70
    17
  0
BLOCK_RECORD
  5
1F
102
{ACAD_XDICTIONARY
360
8F
102
}
330
1
100
AcDbSymbolTableRecord
100
AcDbBlockTableRecord
  2
*Model_Space
340
22
  0
BLOCK_RECORD
  5
1B
330
1
100
AcDbSymbolTableRecord
100
AcDbBlockTableRecord
  2
*Paper_Space
340
1E
  0
BLOCK_RECORD
  5
23
330
1
100
AcDbSymbolTableRecord
100
AcDbBlockTableRecord
  2
*Paper_Space0
340
26
  0
BLOCK_RECORD
  5
87
330
1
100
AcDbSymbolTableRecord
100
AcDbBlockTableRecord
  2
GENAXEH
340
0
  0
BLOCK_RECORD
  5
E5F
330
1
100
AcDbSymbolTableRecord
100
AcDbBlockTableRecord
  2
*D3
340
0
  0
BLOCK_RECORD
  5
E85
330
1
100
AcDbSymbolTableRecord
100
AcDbBlockTableRecord
  2
*D4
340
0
  0
BLOCK_RECORD
  5
EAB
330
1
100
AcDbSymbolTableRecord
100
AcDbBlockTableRecord
  2
*D5
340
0
  0
BLOCK_RECORD
  5
ED1
330
1
100
AcDbSymbolTableRecord
100
AcDbBlockTableRecord
  2
*D6
340
0
  0
BLOCK_RECORD
  5
EF7
330
1
100
AcDbSymbolTableRecord
100
AcDbBlockTableRecord
  2
*D7
340
0
  0
BLOCK_RECORD
  5
F43
330
1
100
AcDbSymbolTableRecord
100
AcDbBlockTableRecord
  2
*D8
340
0
  0
BLOCK_RECORD
  5
F6D
330
1
100
AcDbSymbolTableRecord
100
AcDbBlockTableRecord
  2
*D9
340
0
  0
BLOCK_RECORD
  5
F93
330
1
100
AcDbSymbolTableRecord
100
AcDbBlockTableRecord
  2
*D10
340
0
  0
BLOCK_RECORD
  5
FC7
330
1
100
AcDbSymbolTableRecord
100
AcDbBlockTableRecord
  2
*D11
340
0
  0
BLOCK_RECORD
  5
FF1
330
1
100
AcDbSymbolTableRecord
100
AcDbBlockTableRecord
  2
*D12
340
0
  0
BLOCK_RECORD
  5
10B5
330
1
100
AcDbSymbolTableRecord
100
AcDbBlockTableRecord
  2
*U14
340
0
  0
BLOCK_RECORD
  5
12C2
330
1
100
AcDbSymbolTableRecord
100
AcDbBlockTableRecord
  2
*S16
340
0
  0
ENDTAB
  0
ENDSEC
  0
SECTION
  2
BLOCKS
  0
BLOCK
  5
20
330
1F
100
AcDbEntity
  8
0
100
AcDbBlockBegin
  2
*Model_Space
 70
     0
 10
0.0
 20
0.0
 30
0.0
  3
*Model_Space
  1

  0
ENDBLK
  5
21
330
1F
100
AcDbEntity
  8
0
100
AcDbBlockEnd
  0
BLOCK
  5
1C
330
1B
100
AcDbEntity
 67
     1
  8
0
100
AcDbBlockBegin
  2
*Paper_Space
 70
     0
 10
0.0
 20
0.0
 30
0.0
  3
*Paper_Space
  1

  0
ENDBLK
  5
1D
330
1B
100
AcDbEntity
 67
     1
  8
0
100
AcDbBlockEnd
  0
BLOCK
  5
24
330
23
100
AcDbEntity
  8
0
100
AcDbBlockBegin
  2
*Paper_Space0
 70
     0
 10
0.0
 20
0.0
 30
0.0
  3
*Paper_Space0
  1

  0
ENDBLK
  5
25
330
23
100
AcDbEntity
  8
0
100
AcDbBlockEnd
  0
BLOCK
  5
89
330
87
100
AcDbEntity
  8
0
100
AcDbBlockBegin
  2
GENAXEH
 70
     0
 10
0.0
 20
0.0
 30
0.0
  3
GENAXEH
  1

  0
LINE
  5
88
330
87
100
AcDbEntity
  8
0
100
AcDbLine
 10
-1.0
 20
0.0
 30
0.0
 11
1.0
 21
0.0
 31
0.0
  0
ENDBLK
  5
8A
330
87
100
AcDbEntity
  8
0
100
AcDbBlockEnd
  0
BLOCK
  5
E69
330
E5F
100
AcDbEntity
  8
0
100
AcDbBlockBegin
  2
*D3
 70
     1
 10
0.0
 20
0.0
 30
0.0
  3
*D3
  1

  0
LINE
  5
10CE
330
E5F
100
AcDbEntity
  8
AM_5
100
AcDbLine
 10
135.4477812918415
 20
148.2610203716083
 30
0.0
 11
135.4477812918415
 21
124.60543057532
 31
0.0
  0
LINE
  5
10CF
330
E5F
100
AcDbEntity
  8
AM_5
100
AcDbLine
 10
171.4477812918419
 20
148.261020371608
 30
0.0
 11
171.4477812918419
 21
124.60543057532
 31
0.0
  0
LINE
  5
10D0
330
E5F
100
AcDbEntity
  8
AM_5
100
AcDbLine
 10
138.4477812918415
 20
126.10543057532
 30
0.0
 11
168.447781291842
 21
126.10543057532
 31
0.0
  0
SOLID
  5
10D1
330
E5F
100
AcDbEntity
  8
AM_5
100
AcDbTrace
 10
138.4477812918415
 20
126.60543057532
 30
0.0
 11
138.4477812918415
 21
125.60543057532
 31
0.0
 12
135.4477812918415
 22
126.10543057532
 32
0.0
 13
135.4477812918415
 23
126.10543057532
 33
0.0
  0
SOLID
  5
10D2
330
E5F
100
AcDbEntity
  8
AM_5
100
AcDbTrace
 10
168.447781291842
 20
126.60543057532
 30
0.0
 11
168.447781291842
 21
125.60543057532
 31
0.0
 12
171.4477812918419
 22
126.10543057532
 32
0.0
 13
171.4477812918419
 23
126.10543057532
 33
0.0
  0
MTEXT
  5
10D3
330
E5F
100
AcDbEntity
  8
AM_5
100
AcDbMText
 10
153.4477812918417
 20
128.65543057532
 30
0.0
 40
3.5
 41
0.0
 71
     5
 72
     1
  1
36
  7
CHINESET
 73
     1
 44
1.0
1001
ACAD
1000
MTEXTBEGIN
1070
    73
1070
     1
1070
    44
1040
1.0
1070
    74
1070
     0
1000
MTEXTEND
  0
POINT
  5
10D4
330
E5F
100
AcDbEntity
  8
Defpoints
 62
     0
100
AcDbPoint
 10
135.4477812918415
 20
149.2610203716083
 30
0.0
  0
POINT
  5
10D5
330
E5F
100
AcDbEntity
  8
Defpoints
 62
     0
100
AcDbPoint
 10
171.4477812918419
 20
149.261020371608
 30
0.0
  0
POINT
  5
10D6
330
E5F
100
AcDbEntity
  8
Defpoints
 62
     0
100
AcDbPoint
 10
171.4477812918419
 20
126.10543057532
 30
0.0
  0
ENDBLK
  5
E6A
330
E5F
100
AcDbEntity
  8
0
100
AcDbBlockEnd
  0
BLOCK
  5
E8F
330
E85
100
AcDbEntity
  8
0
100
AcDbBlockBegin
  2
*D4
 70
     1
 10
0.0
 20
0.0
 30
0.0
  3
*D4
  1

  0
LINE
  5
10D7
330
E85
100
AcDbEntity
  8
AM_5
100
AcDbLine
 10
140.9586559987658
 20
146.1054305753199
 30
0.0
 11
113.9477812918416
 21
146.1054305753199
 31
0.0
  0
LINE
  5
10D8
330
E85
100
AcDbEntity
  8
AM_5
100
AcDbLine
 10
140.9586559987659
 20
210.1054305753199
 30
0.0
 11
113.9477812918416
 21
210.1054305753199
 31
0.0
  0
LINE
  5
10D9
330
E85
100
AcDbEntity
  8
AM_5
100
AcDbLine
 10
115.4477812918416
 20
149.1054305753199
 30
0.0
 11
115.4477812918416
 21
207.1054305753199
 31
0.0
  0
SOLID
  5
10DA
330
E85
100
AcDbEntity
  8
AM_5
100
AcDbTrace
 10
114.9477812918416
 20
149.1054305753199
 30
0.0
 11
115.9477812918416
 21
149.1054305753199
 31
0.0
 12
115.4477812918416
 22
146.1054305753199
 32
0.0
 13
115.4477812918416
 23
146.1054305753199
 33
0.0
  0
SOLID
  5
10DB
330
E85
100
AcDbEntity
  8
AM_5
100
AcDbTrace
 10
114.9477812918416
 20
207.1054305753199
 30
0.0
 11
115.9477812918416
 21
207.1054305753199
 31
0.0
 12
115.4477812918416
 22
210.1054305753199
 32
0.0
 13
115.4477812918416
 23
210.1054305753199
 33
0.0
  0
MTEXT
  5
10DC
330
E85
100
AcDbEntity
  8
AM_5
100
AcDbMText
 10
112.8977812918416
 20
178.1054305753199
 30
0.0
 40
3.5
 41
0.0
 71
     5
 72
     1
  1
64
  7
CHINESET
 11
0.0000000000000001
 21
1.0
 31
0.0
 73
     1
 44
1.0
1001
ACAD
1000
MTEXTBEGIN
1070
    73
1070
     1
1070
    44
1040
1.0
1070
    74
1070
     0
1000
MTEXTEND
  0
POINT
  5
10DD
330
E85
100
AcDbEntity
  8
Defpoints
 62
     0
100
AcDbPoint
 10
141.9586559987658
 20
146.1054305753199
 30
0.0
  0
POINT
  5
10DE
330
E85
100
AcDbEntity
  8
Defpoints
 62
     0
100
AcDbPoint
 10
141.9586559987659
 20
210.1054305753199
 30
0.0
  0
POINT
  5
10DF
330
E85
100
AcDbEntity
  8
Defpoints
 62
     0
100
AcDbPoint
 10
115.4477812918416
 20
210.1054305753199
 30
0.0
  0
ENDBLK
  5
E90
330
E85
100
AcDbEntity
  8
0
100
AcDbBlockEnd
  0
BLOCK
  5
EB5
330
EAB
100
AcDbEntity
  8
0
100
AcDbBlockBegin
  2
*D5
 70
     1
 10
0.0
 20
0.0
 30
0.0
  3
*D5
  1

  0
LINE
  5
104C
330
EAB
100
AcDbEntity
  8
AM_5
100
AcDbLine
 10
200.0422610742763
 20
145.1054305753198
 30
0.0
 11
200.0422610742763
 21
124.60543057532
 31
0.0
  0
LINE
  5
104D
330
EAB
100
AcDbEntity
  8
AM_5
100
AcDbLine
 10
242.0422610742763
 20
145.10543057532
 30
0.0
 11
242.0422610742763
 21
124.60543057532
 31
0.0
  0
LINE
  5
104E
330
EAB
100
AcDbEntity
  8
AM_5
100
AcDbLine
 10
203.0422610742763
 20
126.10543057532
 30
0.0
 11
239.0422610742763
 21
126.10543057532
 31
0.0
  0
SOLID
  5
104F
330
EAB
100
AcDbEntity
  8
AM_5
100
AcDbTrace
 10
203.0422610742763
 20
126.60543057532
 30
0.0
 11
203.0422610742763
 21
125.60543057532
 31
0.0
 12
200.0422610742763
 22
126.10543057532
 32
0.0
 13
200.0422610742763
 23
126.10543057532
 33
0.0
  0
SOLID
  5
1050
330
EAB
100
AcDbEntity
  8
AM_5
100
AcDbTrace
 10
239.0422610742763
 20
126.60543057532
 30
0.0
 11
239.0422610742763
 21
125.60543057532
 31
0.0
 12
242.0422610742763
 22
126.10543057532
 32
0.0
 13
242.0422610742763
 23
126.10543057532
 33
0.0
  0
MTEXT
  5
1051
330
EAB
100
AcDbEntity
  8
AM_5
100
AcDbMText
 10
221.0422610742763
 20
128.6554305753201
 30
0.0
 40
3.5
 41
0.0
 71
     5
 72
     1
  1
42
  7
CHINESET
 73
     1
 44
1.0
1001
ACAD
1000
MTEXTBEGIN
1070
    73
1070
     1
1070
    44
1040
1.0
1070
    74
1070
     0
1000
MTEXTEND
  0
POINT
  5
1052
330
EAB
100
AcDbEntity
  8
Defpoints
 62
     0
100
AcDbPoint
 10
200.0422610742763
 20
146.1054305753198
 30
0.0
  0
POINT
  5
1053
330
EAB
100
AcDbEntity
  8
Defpoints
 62
     0
100
AcDbPoint
 10
242.0422610742763
 20
146.10543057532
 30
0.0
  0
POINT
  5
1054
330
EAB
100
AcDbEntity
  8
Defpoints
 62
     0
100
AcDbPoint
 10
242.0422610742763
 20
126.10543057532
 30
0.0
  0
ENDBLK
  5
EB6
330
EAB
100
AcDbEntity
  8
0
100
AcDbBlockEnd
  0
BLOCK
  5
EDB
330
ED1
100
AcDbEntity
  8
0
100
AcDbBlockBegin
  2
*D6
 70
     1
 10
0.0
 20
0.0
 30
0.0
  3
*D6
  1

  0
LINE
  5
10E0
330
ED1
100
AcDbEntity
  8
AM_5
100
AcDbLine
 10
139.9477812918419
 20
151.7735705753199
 30
0.0
 11
139.9477812918419
 21
132.6054305753199
 31
0.0
  0
LINE
  5
10E1
330
ED1
100
AcDbEntity
  8
AM_5
100
AcDbLine
 10
166.9477812918419
 20
151.7735705753199
 30
0.0
 11
166.9477812918419
 21
132.6054305753199
 31
0.0
  0
LINE
  5
10E2
330
ED1
100
AcDbEntity
  8
AM_5
100
AcDbLine
 10
142.9477812918419
 20
134.1054305753199
 30
0.0
 11
163.9477812918419
 21
134.1054305753199
 31
0.0
  0
SOLID
  5
10E3
330
ED1
100
AcDbEntity
  8
AM_5
100
AcDbTrace
 10
142.9477812918419
 20
134.6054305753199
 30
0.0
 11
142.9477812918419
 21
133.6054305753199
 31
0.0
 12
139.9477812918419
 22
134.1054305753199
 32
0.0
 13
139.9477812918419
 23
134.1054305753199
 33
0.0
  0
SOLID
  5
10E4
330
ED1
100
AcDbEntity
  8
AM_5
100
AcDbTrace
 10
163.9477812918419
 20
134.6054305753199
 30
0.0
 11
163.9477812918419
 21
133.6054305753199
 31
0.0
 12
166.9477812918419
 22
134.1054305753199
 32
0.0
 13
166.9477812918419
 23
134.1054305753199
 33
0.0
  0
MTEXT
  5
10E5
330
ED1
100
AcDbEntity
  8
AM_5
100
AcDbMText
 10
153.4477812918419
 20
136.6554305753199
 30
0.0
 40
3.5
 41
0.0
 71
     5
 72
     1
  1
27
  7
CHINESET
 73
     1
 44
1.0
1001
ACAD
1000
MTEXTBEGIN
1070
    73
1070
     1
1070
    44
1040
1.0
1070
    74
1070
     0
1000
MTEXTEND
  0
POINT
  5
10E6
330
ED1
100
AcDbEntity
  8
Defpoints
 62
     0
100
AcDbPoint
 10
139.9477812918419
 20
152.7735705753199
 30
0.0
  0
POINT
  5
10E7
330
ED1
100
AcDbEntity
  8
Defpoints
 62
     0
100
AcDbPoint
 10
166.9477812918419
 20
152.7735705753199
 30
0.0
  0
POINT
  5
10E8
330
ED1
100
AcDbEntity
  8
Defpoints
 62
     0
100
AcDbPoint
 10
166.9477812918419
 20
134.1054305753199
 30
0.0
  0
ENDBLK
  5
EDC
330
ED1
100
AcDbEntity
  8
0
100
AcDbBlockEnd
  0
BLOCK
  5
F01
330
EF7
100
AcDbEntity
  8
0
100
AcDbBlockBegin
  2
*D7
 70
     1
 10
0.0
 20
0.0
 30
0.0
  3
*D7
  1

  0
LINE
  5
10E9
330
EF7
100
AcDbEntity
  8
AM_5
100
AcDbLine
 10
134.4477812918419
 20
157.1054305753199
 30
0.0
 11
121.9477812918415
 21
157.1054305753199
 31
0.0
  0
LINE
  5
10EA
330
EF7
100
AcDbEntity
  8
AM_5
100
AcDbLine
 10
134.447781291842
 20
199.1054305753198
 30
0.0
 11
121.9477812918415
 21
199.1054305753198
 31
0.0
  0
LINE
  5
10EB
330
EF7
100
AcDbEntity
  8
AM_5
100
AcDbLine
 10
123.4477812918415
 20
160.1054305753199
 30
0.0
 11
123.4477812918415
 21
196.1054305753198
 31
0.0
  0
SOLID
  5
10EC
330
EF7
100
AcDbEntity
  8
AM_5
100
AcDbTrace
 10
122.9477812918415
 20
160.1054305753199
 30
0.0
 11
123.9477812918415
 21
160.1054305753199
 31
0.0
 12
123.4477812918415
 22
157.1054305753199
 32
0.0
 13
123.4477812918415
 23
157.1054305753199
 33
0.0
  0
SOLID
  5
10ED
330
EF7
100
AcDbEntity
  8
AM_5
100
AcDbTrace
 10
122.9477812918415
 20
196.1054305753198
 30
0.0
 11
123.9477812918415
 21
196.1054305753198
 31
0.0
 12
123.4477812918415
 22
199.1054305753198
 32
0.0
 13
123.4477812918415
 23
199.1054305753198
 33
0.0
  0
MTEXT
  5
10EE
330
EF7
100
AcDbEntity
  8
AM_5
100
AcDbMText
 10
120.8977812918415
 20
178.1054305753198
 30
0.0
 40
3.5
 41
0.0
 71
     5
 72
     1
  1
42
  7
CHINESET
 11
0.0000000000000001
 21
1.0
 31
0.0
 73
     1
 44
1.0
1001
ACAD
1000
MTEXTBEGIN
1070
    73
1070
     1
1070
    44
1040
1.0
1070
    74
1070
     0
1000
MTEXTEND
  0
POINT
  5
10EF
330
EF7
100
AcDbEntity
  8
Defpoints
 62
     0
100
AcDbPoint
 10
135.4477812918419
 20
157.1054305753199
 30
0.0
  0
POINT
  5
10F0
330
EF7
100
AcDbEntity
  8
Defpoints
 62
     0
100
AcDbPoint
 10
135.447781291842
 20
199.1054305753198
 30
0.0
  0
POINT
  5
10F1
330
EF7
100
AcDbEntity
  8
Defpoints
 62
     0
100
AcDbPoint
 10
123.4477812918415
 20
199.1054305753198
 30
0.0
  0
ENDBLK
  5
F02
330
EF7
100
AcDbEntity
  8
0
100
AcDbBlockEnd
  0
BLOCK
  5
F4D
330
F43
100
AcDbEntity
  8
0
100
AcDbBlockBegin
  2
*D8
 70
     1
 10
0.0
 20
0.0
 30
0.0
  3
*D8
  1

  0
LINE
  5
1043
330
F43
100
AcDbEntity
  8
AM_5
100
AcDbLine
 10
242.0422610742763
 20
145.10543057532
 30
0.0
 11
242.0422610742763
 21
132.60543057532
 31
0.0
  0
LINE
  5
1044
330
F43
100
AcDbEntity
  8
AM_5
100
AcDbLine
 10
220.0422610742763
 20
151.10543057532
 30
0.0
 11
220.0422610742763
 21
132.60543057532
 31
0.0
  0
LINE
  5
1045
330
F43
100
AcDbEntity
  8
AM_5
100
AcDbLine
 10
239.0422610742763
 20
134.10543057532
 30
0.0
 11
223.0422610742763
 21
134.10543057532
 31
0.0
  0
SOLID
  5
1046
330
F43
100
AcDbEntity
  8
AM_5
100
AcDbTrace
 10
239.0422610742763
 20
134.60543057532
 30
0.0
 11
239.0422610742763
 21
133.60543057532
 31
0.0
 12
242.0422610742763
 22
134.10543057532
 32
0.0
 13
242.0422610742763
 23
134.10543057532
 33
0.0
  0
SOLID
  5
1047
330
F43
100
AcDbEntity
  8
AM_5
100
AcDbTrace
 10
223.0422610742763
 20
134.60543057532
 30
0.0
 11
223.0422610742763
 21
133.60543057532
 31
0.0
 12
220.0422610742763
 22
134.10543057532
 32
0.0
 13
220.0422610742763
 23
134.10543057532
 33
0.0
  0
MTEXT
  5
1048
330
F43
100
AcDbEntity
  8
AM_5
100
AcDbMText
 10
231.0422610742763
 20
136.65543057532
 30
0.0
 40
3.5
 41
0.0
 71
     5
 72
     1
  1
22
  7
CHINESET
 73
     1
 44
1.0
1001
ACAD
1000
MTEXTBEGIN
1070
    73
1070
     1
1070
    44
1040
1.0
1070
    74
1070
     0
1000
MTEXTEND
  0
POINT
  5
1049
330
F43
100
AcDbEntity
  8
Defpoints
 62
     0
100
AcDbPoint
 10
242.0422610742763
 20
146.10543057532
 30
0.0
  0
POINT
  5
104A
330
F43
100
AcDbEntity
  8
Defpoints
 62
     0
100
AcDbPoint
 10
220.0422610742763
 20
152.10543057532
 30
0.0
  0
POINT
  5
104B
330
F43
100
AcDbEntity
  8
Defpoints
 62
     0
100
AcDbPoint
 10
220.0422610742763
 20
134.10543057532
 30
0.0
  0
ENDBLK
  5
F4E
330
F43
100
AcDbEntity
  8
0
100
AcDbBlockEnd
  0
BLOCK
  5
F77
330
F6D
100
AcDbEntity
  8
0
100
AcDbBlockBegin
  2
*D9
 70
     1
 10
0.0
 20
0.0
 30
0.0
  3
*D9
  1

  0
LINE
  5
101A
330
F6D
100
AcDbEntity
  8
AM_5
100
AcDbLine
 10
225.7660810742763
 20
157.10543057532
 30
0.0
 11
263.5422610742763
 21
157.10543057532
 31
0.0
  0
LINE
  5
101B
330
F6D
100
AcDbEntity
  8
AM_5
100
AcDbLine
 10
225.7660810742763
 20
199.10543057532
 30
0.0
 11
263.5422610742763
 21
199.10543057532
 31
0.0
  0
LINE
  5
101C
330
F6D
100
AcDbEntity
  8
AM_5
100
AcDbLine
 10
262.0422610742763
 20
160.10543057532
 30
0.0
 11
262.0422610742763
 21
196.10543057532
 31
0.0
  0
SOLID
  5
101D
330
F6D
100
AcDbEntity
  8
AM_5
100
AcDbTrace
 10
261.5422610742763
 20
160.10543057532
 30
0.0
 11
262.5422610742763
 21
160.10543057532
 31
0.0
 12
262.0422610742763
 22
157.10543057532
 32
0.0
 13
262.0422610742763
 23
157.10543057532
 33
0.0
  0
SOLID
  5
101E
330
F6D
100
AcDbEntity
  8
AM_5
100
AcDbTrace
 10
261.5422610742763
 20
196.10543057532
 30
0.0
 11
262.5422610742763
 21
196.10543057532
 31
0.0
 12
262.0422610742763
 22
199.10543057532
 32
0.0
 13
262.0422610742763
 23
199.10543057532
 33
0.0
  0
MTEXT
  5
101F
330
F6D
100
AcDbEntity
  8
AM_5
100
AcDbMText
 10
259.4922610742762
 20
178.10543057532
 30
0.0
 40
3.5
 41
0.0
 71
     5
 72
     1
  1
42
  7
CHINESET
 11
0.0000000000000001
 21
1.0
 31
0.0
 73
     1
 44
1.0
1001
ACAD
1000
MTEXTBEGIN
1070
    73
1070
     1
1070
    44
1040
1.0
1070
    74
1070
     0
1000
MTEXTEND
  0
POINT
  5
1020
330
F6D
100
AcDbEntity
  8
Defpoints
 62
     0
100
AcDbPoint
 10
224.7660810742763
 20
157.10543057532
 30
0.0
  0
POINT
  5
1021
330
F6D
100
AcDbEntity
  8
Defpoints
 62
     0
100
AcDbPoint
 10
224.7660810742763
 20
199.10543057532
 30
0.0
  0
POINT
  5
1022
330
F6D
100
AcDbEntity
  8
Defpoints
 62
     0
100
AcDbPoint
 10
262.0422610742763
 20
199.10543057532
 30
0.0
  0
ENDBLK
  5
F78
330
F6D
100
AcDbEntity
  8
0
100
AcDbBlockEnd
  0
BLOCK
  5
F9D
330
F93
100
AcDbEntity
  8
0
100
AcDbBlockBegin
  2
*D10
 70
     1
 10
0.0
 20
0.0
 30
0.0
  3
*D10
  1

  0
LINE
  5
1011
330
F93
100
AcDbEntity
  8
AM_5
100
AcDbLine
 10
222.7055010742764
 20
170.10543057532
 30
0.0
 11
255.5422610742763
 21
170.10543057532
 31
0.0
  0
LINE
  5
1012
330
F93
100
AcDbEntity
  8
AM_5
100
AcDbLine
 10
239.2483410742764
 20
186.10543057532
 30
0.0
 11
255.5422610742763
 21
186.10543057532
 31
0.0
  0
LINE
  5
1013
330
F93
100
AcDbEntity
  8
AM_5
100
AcDbLine
 10
254.0422610742763
 20
173.10543057532
 30
0.0
 11
254.0422610742763
 21
183.10543057532
 31
0.0
  0
SOLID
  5
1014
330
F93
100
AcDbEntity
  8
AM_5
100
AcDbTrace
 10
253.5422610742763
 20
173.10543057532
 30
0.0
 11
254.5422610742763
 21
173.10543057532
 31
0.0
 12
254.0422610742763
 22
170.10543057532
 32
0.0
 13
254.0422610742763
 23
170.10543057532
 33
0.0
  0
SOLID
  5
1015
330
F93
100
AcDbEntity
  8
AM_5
100
AcDbTrace
 10
253.5422610742763
 20
183.10543057532
 30
0.0
 11
254.5422610742763
 21
183.10543057532
 31
0.0
 12
254.0422610742763
 22
186.10543057532
 32
0.0
 13
254.0422610742763
 23
186.10543057532
 33
0.0
  0
MTEXT
  5
1016
330
F93
100
AcDbEntity
  8
AM_5
100
AcDbMText
 10
251.4922610742763
 20
178.10543057532
 30
0.0
 40
3.5
 41
0.0
 71
     5
 72
     1
  1
16
  7
CHINESET
 11
0.0000000000000001
 21
1.0
 31
0.0
 73
     1
 44
1.0
1001
ACAD
1000
MTEXTBEGIN
1070
    73
1070
     1
1070
    44
1040
1.0
1070
    74
1070
     0
1000
MTEXTEND
  0
POINT
  5
1017
330
F93
100
AcDbEntity
  8
Defpoints
 62
     0
100
AcDbPoint
 10
221.7055010742764
 20
170.10543057532
 30
0.0
  0
POINT
  5
1018
330
F93
100
AcDbEntity
  8
Defpoints
 62
     0
100
AcDbPoint
 10
238.2483410742764
 20
186.10543057532
 30
0.0
  0
POINT
  5
1019
330
F93
100
AcDbEntity
  8
Defpoints
 62
     0
100
AcDbPoint
 10
254.0422610742763
 20
186.10543057532
 30
0.0
  0
ENDBLK
  5
F9E
330
F93
100
AcDbEntity
  8
0
100
AcDbBlockEnd
  0
BLOCK
  5
FD3
330
FC7
100
AcDbEntity
  8
0
100
AcDbBlockBegin
  2
*D11
 70
     1
 10
0.0
 20
0.0
 30
0.0
  3
*D11
  1

  0
LINE
  5
1032
330
FC7
100
AcDbEntity
  8
AM_5
100
AcDbLine
 10
242.0422610742763
 20
211.10543057532
 30
0.0
 11
242.0422610742763
 21
223.60543057532
 31
0.0
  0
LINE
  5
1033
330
FC7
100
AcDbEntity
  8
AM_5
100
AcDbLine
 10
235.0422610742763
 20
190.2166699570444
 30
0.0
 11
235.0422610742763
 21
223.60543057532
 31
0.0
  0
LINE
  5
1034
330
FC7
100
AcDbEntity
  8
AM_5
100
AcDbLine
 10
245.0422610742763
 20
222.10543057532
 30
0.0
 11
248.0422610742763
 21
222.10543057532
 31
0.0
  0
LINE
  5
1035
330
FC7
100
AcDbEntity
  8
AM_5
100
AcDbLine
 10
232.0422610742763
 20
222.10543057532
 30
0.0
 11
229.0422610742762
 21
222.10543057532
 31
0.0
  0
LINE
  5
1036
330
FC7
100
AcDbEntity
  8
AM_5
100
AcDbLine
 10
242.0422610742763
 20
222.10543057532
 30
0.0
 11
235.0422610742763
 21
222.10543057532
 31
0.0
  0
SOLID
  5
1037
330
FC7
100
AcDbEntity
  8
AM_5
100
AcDbTrace
 10
245.0422610742763
 20
222.60543057532
 30
0.0
 11
245.0422610742763
 21
221.60543057532
 31
0.0
 12
242.0422610742763
 22
222.10543057532
 32
0.0
 13
242.0422610742763
 23
222.10543057532
 33
0.0
  0
SOLID
  5
1038
330
FC7
100
AcDbEntity
  8
AM_5
100
AcDbTrace
 10
232.0422610742763
 20
222.60543057532
 30
0.0
 11
232.0422610742763
 21
221.60543057532
 31
0.0
 12
235.0422610742763
 22
222.10543057532
 32
0.0
 13
235.0422610742763
 23
222.10543057532
 33
0.0
  0
MTEXT
  5
1039
330
FC7
100
AcDbEntity
  8
AM_5
100
AcDbMText
 10
238.5422610742763
 20
224.65543057532
 30
0.0
 40
3.5
 41
0.0
 71
     5
 72
     1
  1
7
  7
CHINESET
 73
     1
 44
1.0
1001
ACAD
1000
MTEXTBEGIN
1070
    73
1070
     1
1070
    44
1040
1.0
1070
    74
1070
     0
1000
MTEXTEND
  0
POINT
  5
103A
330
FC7
100
AcDbEntity
  8
Defpoints
 62
     0
100
AcDbPoint
 10
242.0422610742763
 20
210.10543057532
 30
0.0
  0
POINT
  5
103B
330
FC7
100
AcDbEntity
  8
Defpoints
 62
     0
100
AcDbPoint
 10
235.0422610742763
 20
189.2166699570444
 30
0.0
  0
POINT
  5
103C
330
FC7
100
AcDbEntity
  8
Defpoints
 62
     0
100
AcDbPoint
 10
235.0422610742763
 20
222.10543057532
 30
0.0
  0
ENDBLK
  5
FD4
330
FC7
100
AcDbEntity
  8
0
100
AcDbBlockEnd
  0
BLOCK
  5
FFB
330
FF1
100
AcDbEntity
  8
0
100
AcDbBlockBegin
  2
*D12
 70
     1
 10
0.0
 20
0.0
 30
0.0
  3
*D12
  1

  0
LINE
  5
1029
330
FF1
100
AcDbEntity
  8
AM_5
100
AcDbLine
 10
235.0422610742763
 20
190.47052057532
 30
0.0
 11
235.0422610742763
 21
223.60543057532
 31
0.0
  0
LINE
  5
102A
330
FF1
100
AcDbEntity
  8
AM_5
100
AcDbLine
 10
218.5422610742763
 20
173.8431305753201
 30
0.0
 11
218.5422610742763
 21
223.60543057532
 31
0.0
  0
LINE
  5
102B
330
FF1
100
AcDbEntity
  8
AM_5
100
AcDbLine
 10
232.0422610742763
 20
222.10543057532
 30
0.0
 11
221.5422610742763
 21
222.10543057532
 31
0.0
  0
SOLID
  5
102C
330
FF1
100
AcDbEntity
  8
AM_5
100
AcDbTrace
 10
232.0422610742763
 20
222.60543057532
 30
0.0
 11
232.0422610742763
 21
221.60543057532
 31
0.0
 12
235.0422610742763
 22
222.10543057532
 32
0.0
 13
235.0422610742763
 23
222.10543057532
 33
0.0
  0
SOLID
  5
102D
330
FF1
100
AcDbEntity
  8
AM_5
100
AcDbTrace
 10
221.5422610742763
 20
222.60543057532
 30
0.0
 11
221.5422610742763
 21
221.60543057532
 31
0.0
 12
218.5422610742763
 22
222.10543057532
 32
0.0
 13
218.5422610742763
 23
222.10543057532
 33
0.0
  0
MTEXT
  5
102E
330
FF1
100
AcDbEntity
  8
AM_5
100
AcDbMText
 10
226.7922610742763
 20
224.65543057532
 30
0.0
 40
3.5
 41
0.0
 71
     5
 72
     1
  1
16.5
  7
CHINESET
 73
     1
 44
1.0
1001
ACAD
1000
MTEXTBEGIN
1070
    73
1070
     1
1070
    44
1040
1.0
1070
    74
1070
     0
1000
MTEXTEND
  0
POINT
  5
102F
330
FF1
100
AcDbEntity
  8
Defpoints
 62
     0
100
AcDbPoint
 10
235.0422610742763
 20
189.47052057532
 30
0.0
  0
POINT
  5
1030
330
FF1
100
AcDbEntity
  8
Defpoints
 62
     0
100
AcDbPoint
 10
218.5422610742763
 20
172.8431305753201
 30
0.0
  0
POINT
  5
1031
330
FF1
100
AcDbEntity
  8
Defpoints
 62
     0
100
AcDbPoint
 10
218.5422610742763
 20
222.10543057532
 30
0.0
  0
ENDBLK
  5
FFC
330
FF1
100
AcDbEntity
  8
0
100
AcDbBlockEnd
  0
BLOCK
  5
10B6
330
10B5
100
AcDbEntity
  8
0
100
AcDbBlockBegin
  2
*U14
 70
     1
 10
0.0
 20
0.0
 30
0.0
  3
*U14
  1

  0
ENDBLK
  5
10B7
330
10B5
100
AcDbEntity
  8
0
100
AcDbBlockEnd
  0
BLOCK
  5
12C7
330
12C2
100
AcDbEntity
  8
0
100
AcDbBlockBegin
  2
*S16
 70
     1
 10
0.0
 20
0.0
 30
0.0
  3
*S16
  1

  0
LINE
  5
12C3
330
12C2
100
AcDbEntity
  8
AM_5
 62
     5
100
AcDbLine
 10
260.0789235383806
 20
203.867152490778
 30
0.0
 11
249.1672615634605
 21
203.867152490778
 31
0.0
  0
LINE
  5
12C4
330
12C2
100
AcDbEntity
  8
AM_5
 62
     5
100
AcDbLine
 10
249.1672615634605
 20
203.867152490778
 30
0.0
 11
239.1714861534587
 21
190.3532663199234
 31
0.0
  0
TRACE
  5
12C5
330
12C2
100
AcDbEntity
  8
AM_5
 62
     5
370
    35
100
AcDbTrace
 10
238.8010298960008
 20
190.6272805821395
 30
0.0
 11
239.5419424109166
 21
190.0792520577073
 31
0.0
 12
237.0901411849988
 22
187.5393716661976
 32
0.0
 13
237.0901411849988
 23
187.5393716661976
 33
0.0
  0
MTEXT
  5
12C6
330
12C2
100
AcDbEntity
  8
AM_5
 62
     5
100
AcDbMText
 10
250.3950708387941
 20
204.5587930634805
 30
0.0
 40
3.5
 41
0.0
 71
     7
 72
     5
  1
2-M5
  7
ACISOTS
 73
     1
 44
1.0
1001
ACAD
1000
MTEXTBEGIN
1070
    73
1070
     1
1070
    44
1040
1.0
1070
    74
1070
     0
1000
MTEXTEND
  0
ENDBLK
  5
12C8
330
12C2
100
AcDbEntity
  8
0
100
AcDbBlockEnd
  0
ENDSEC
  0
SECTION
  2
ENTITIES
  0
CIRCLE
  5
D5D
330
1F
100
AcDbEntity
  8
1
100
AcDbCircle
 10
220.0422610742763
 20
199.10543057532
 30
0.0
 40
4.0
  0
LINE
  5
D5E
330
1F
100
AcDbEntity
  8
3
 62
     1
100
AcDbLine
 10
220.0422610742763
 20
194.24631057532
 30
0.0
 11
220.0422610742763
 21
203.83914057532
 31
0.0
  0
LINE
  5
D5F
102
{ACAD_REACTORS
330
FD6
102
}
330
1F
100
AcDbEntity
  8
1
100
AcDbLine
 10
242.0422610742763
 20
146.10543057532
 30
0.0
 11
242.0422610742763
 21
210.10543057532
 31
0.0
  0
LINE
  5
D60
330
1F
100
AcDbEntity
  8
1
100
AcDbLine
 10
200.0422610742763
 20
210.10543057532
 30
0.0
 11
200.0422610742763
 21
146.1054305753199
 31
0.0
  0
LINE
  5
D61
330
1F
100
AcDbEntity
  8
1
100
AcDbLine
 10
242.0422610742763
 20
166.60543057532
 30
0.0
 11
200.0422610742763
 21
166.60543057532
 31
0.0
  0
LINE
  5
D62
330
1F
100
AcDbEntity
  8
1
100
AcDbLine
 10
242.0422610742763
 20
166.9941911935955
 30
0.0
 11
200.0422610742763
 21
166.9941911935955
 31
0.0
  0
LINE
  5
D63
330
1F
100
AcDbEntity
  8
1
100
AcDbLine
 10
242.0422610742763
 20
163.2166699570445
 30
0.0
 11
200.0422610742763
 21
163.2166699570445
 31
0.0
  0
LINE
  5
D64
330
1F
100
AcDbEntity
  8
1
100
AcDbLine
 10
242.0422610742763
 20
163.60543057532
 30
0.0
 11
200.0422610742763
 21
163.6054305753201
 31
0.0
  0
LINE
  5
D65
330
1F
100
AcDbEntity
  8
1
100
AcDbLine
 10
242.0422610742763
 20
189.60543057532
 30
0.0
 11
200.0422610742763
 21
189.60543057532
 31
0.0
  0
LINE
  5
D66
102
{ACAD_REACTORS
330
FD6
102
}
330
1F
100
AcDbEntity
  8
1
100
AcDbLine
 10
242.0422610742763
 20
189.2166699570444
 30
0.0
 11
200.0422610742763
 21
189.2166699570444
 31
0.0
  0
LINE
  5
D67
330
1F
100
AcDbEntity
  8
1
100
AcDbLine
 10
242.0422610742763
 20
192.9941911935954
 30
0.0
 11
200.0422610742763
 21
192.9941911935954
 31
0.0
  0
LINE
  5
D68
330
1F
100
AcDbEntity
  8
1
100
AcDbLine
 10
242.0422610742763
 20
192.60543057532
 30
0.0
 11
200.0422610742763
 21
192.6054305753199
 31
0.0
  0
LINE
  5
D69
330
1F
100
AcDbEntity
  8
AM_7
100
AcDbLine
 10
243.3337510742763
 20
178.1054305753199
 30
0.0
 11
197.4802510742763
 21
178.1054305753199
 31
0.0
  0
LINE
  5
D6A
102
{ACAD_REACTORS
330
EB8
330
F50
102
}
330
1F
100
AcDbEntity
  8
1
100
AcDbLine
 10
242.0422610742763
 20
146.10543057532
 30
0.0
 11
200.0422610742763
 21
146.10543057532
 31
0.0
  0
LINE
  5
D6B
102
{ACAD_REACTORS
330
EB8
102
}
330
1F
100
AcDbEntity
  8
1
100
AcDbLine
 10
200.0422610742763
 20
146.1054305753198
 30
0.0
 11
202.2922610742763
 21
146.1054305753198
 31
0.0
  0
CIRCLE
  5
D6C
330
1F
100
AcDbEntity
  8
1
100
AcDbCircle
 10
220.0422610742763
 20
157.10543057532
 30
0.0
 40
4.0
  0
CIRCLE
  5
D6D
330
1F
100
AcDbEntity
  8
1
100
AcDbCircle
 10
220.0422610742763
 20
157.10543057532
 30
0.0
 40
2.25
  0
LINE
  5
D6E
102
{ACAD_REACTORS
330
F7A
102
}
330
1F
100
AcDbEntity
  8
3
100
AcDbLine
 10
224.7660810742763
 20
157.10543057532
 30
0.0
 11
215.7000910742764
 21
157.10543057532
 31
0.0
  0
LINE
  5
D6F
102
{ACAD_REACTORS
330
F50
102
}
330
1F
100
AcDbEntity
  8
3
100
AcDbLine
 10
220.0422610742763
 20
152.10543057532
 30
0.0
 11
220.0422610742763
 21
161.37298057532
 31
0.0
  0
LINE
  5
D70
330
1F
100
AcDbEntity
  8
1
100
AcDbLine
 10
198.0422610742763
 20
188.1054305753199
 30
0.0
 11
198.0422610742763
 21
168.10543057532
 31
0.0
  0
LINE
  5
D71
330
1F
100
AcDbEntity
  8
1
100
AcDbLine
 10
200.0422610742763
 20
168.10543057532
 30
0.0
 11
198.0422610742763
 21
168.1054305753199
 31
0.0
  0
LINE
  5
D72
330
1F
100
AcDbEntity
  8
1
100
AcDbLine
 10
200.0422610742763
 20
188.1054305753199
 30
0.0
 11
198.0422610742763
 21
188.1054305753199
 31
0.0
  0
LINE
  5
D74
102
{ACAD_REACTORS
330
FA0
102
}
330
1F
100
AcDbEntity
  8
3
100
AcDbLine
 10
221.7055010742764
 20
170.10543057532
 30
0.0
 11
215.3561710742764
 21
170.10543057532
 31
0.0
  0
LINE
  5
D77
102
{ACAD_REACTORS
330
FFE
102
}
330
1F
100
AcDbEntity
  8
3
100
AcDbLine
 10
218.5422610742763
 20
172.8431305753201
 30
0.0
 11
218.5422610742763
 21
167.19981057532
 31
0.0
  0
CIRCLE
  5
D78
330
1F
100
AcDbEntity
  8
1
100
AcDbCircle
 10
220.0422610742763
 20
199.10543057532
 30
0.0
 40
2.25
  0
LINE
  5
D79
102
{ACAD_REACTORS
330
F7A
102
}
330
1F
100
AcDbEntity
  8
3
100
AcDbLine
 10
224.7660810742763
 20
199.10543057532
 30
0.0
 11
215.7000910742764
 21
199.10543057532
 31
0.0
  0
LINE
  5
D7E
102
{ACAD_REACTORS
330
FD6
330
FFE
102
}
330
1F
100
AcDbEntity
  8
3
100
AcDbLine
 10
235.0422610742763
 20
189.47052057532
 30
0.0
 11
235.0422610742764
 21
183.74765057532
 31
0.0
  0
LINE
  5
D81
102
{ACAD_REACTORS
330
FA0
102
}
330
1F
100
AcDbEntity
  8
3
100
AcDbLine
 10
238.2483410742764
 20
186.10543057532
 30
0.0
 11
232.2623110742764
 21
186.10543057532
 31
0.0
  0
LINE
  5
D83
330
1F
100
AcDbEntity
  8
1
100
AcDbLine
 10
242.0422610742763
 20
210.10543057532
 30
0.0
 11
200.0422610742763
 21
210.10543057532
 31
0.0
  0
LINE
  5
D91
330
1F
100
AcDbEntity
  8
AM_7
100
AcDbLine
 10
279.4354403212349
 20
178.1054305753199
 30
0.0
 11
318.0797303212349
 21
178.1054305753199
 31
0.0
  0
LINE
  5
D92
330
1F
100
AcDbEntity
  8
1
100
AcDbLine
 10
316.223810321235
 20
165.9553151317679
 30
0.0
 11
316.223810321235
 21
190.255546018872
 31
0.0
  0
LINE
  5
D93
330
1F
100
AcDbEntity
  8
1
100
AcDbLine
 10
280.723810321235
 20
166.0525052863367
 30
0.0
 11
280.723810321235
 21
190.1583558643031
 31
0.0
  0
LINE
  5
D94
330
1F
100
AcDbEntity
  8
AM_7
100
AcDbLine
 10
298.723810321235
 20
213.20914057532
 30
0.0
 11
298.723810321235
 21
143.4563405753199
 31
0.0
  0
LINE
  5
D95
330
1F
100
AcDbEntity
  8
1
100
AcDbLine
 10
316.723810321235
 20
161.1054305753199
 30
0.0
 11
316.7238103212349
 21
149.261020371608
 31
0.0
  0
LINE
  5
D96
330
1F
100
AcDbEntity
  8
1
100
AcDbLine
 10
280.723810321235
 20
162.1583558643032
 30
0.0
 11
280.723810321235
 21
149.261020371608
 31
0.0
  0
LINE
  5
D97
330
1F
100
AcDbEntity
  8
1
100
AcDbLine
 10
287.2346850281589
 20
146.1054305753199
 30
0.0
 11
310.2129356143111
 21
146.1054305753199
 31
0.0
  0
ARC
  5
D98
330
1F
100
AcDbEntity
  8
1
100
AcDbCircle
 10
298.723810321235
 20
178.1054305753199
 30
0.0
 40
34.0
100
AcDbArc
 50
289.7499227956426
 51
301.9657187507978
  0
ARC
  5
D99
330
1F
100
AcDbEntity
  8
1
100
AcDbCircle
 10
298.723810321235
 20
178.1054305753199
 30
0.0
 40
34.0
100
AcDbArc
 50
238.0342812492036
 51
250.2500772043573
  0
LINE
  5
D9A
330
1F
100
AcDbEntity
  8
Center
100
AcDbLine
 10
281.1994091184451
 20
157.1054305753199
 30
0.0
 11
315.353170321235
 21
157.1054305753199
 31
0.0
  0
LINE
  5
D9B
330
1F
100
AcDbEntity
  8
Center
100
AcDbLine
 10
312.223810321235
 20
154.0319005753199
 30
0.0
 11
312.223810321235
 21
160.1104905753199
 31
0.0
  0
LINE
  5
D9E
330
1F
100
AcDbEntity
  8
1
100
AcDbLine
 10
308.223810321235
 20
161.9554305753199
 30
0.0
 11
312.423810321235
 21
161.9554305753199
 31
0.0
  0
LINE
  5
D9F
330
1F
100
AcDbEntity
  8
1
100
AcDbLine
 10
308.223810321235
 20
166.2554305753199
 30
0.0
 11
312.423810321235
 21
166.2554305753199
 31
0.0
  0
LINE
  5
DA0
330
1F
100
AcDbEntity
  8
1
100
AcDbLine
 10
314.423810321235
 20
162.6054305753198
 30
0.0
 11
316.223810321235
 21
162.255546018872
 31
0.0
  0
LINE
  5
DA1
330
1F
100
AcDbEntity
  8
1
100
AcDbLine
 10
316.7238103212349
 20
161.1054305753199
 30
0.0
 11
316.223810321235
 21
161.1054305753199
 31
0.0
  0
LINE
  5
DA2
330
1F
100
AcDbEntity
  8
1
100
AcDbLine
 10
316.223810321235
 20
162.255546018872
 30
0.0
 11
316.223810321235
 21
161.1054305753199
 31
0.0
  0
LINE
  5
DA3
330
1F
100
AcDbEntity
  8
1
100
AcDbLine
 10
312.423810321235
 20
162.6054305753199
 30
0.0
 11
314.423810321235
 21
162.6054305753199
 31
0.0
  0
LINE
  5
DA4
330
1F
100
AcDbEntity
  8
1
100
AcDbLine
 10
312.423810321235
 20
161.9554305753199
 30
0.0
 11
312.423810321235
 21
162.60543057532
 31
0.0
  0
LINE
  5
DA5
330
1F
100
AcDbEntity
  8
1
100
AcDbLine
 10
314.423810321235
 20
165.6054305753199
 30
0.0
 11
316.223810321235
 21
165.9553151317679
 31
0.0
  0
LINE
  5
DA6
330
1F
100
AcDbEntity
  8
1
100
AcDbLine
 10
312.423810321235
 20
165.6054305753199
 30
0.0
 11
314.4238103212345
 21
165.6054305753198
 31
0.0
  0
LINE
  5
DA7
330
1F
100
AcDbEntity
  8
1
100
AcDbLine
 10
312.423810321235
 20
165.6054305753199
 30
0.0
 11
312.423810321235
 21
166.2554305753199
 31
0.0
  0
LINE
  5
DA8
330
1F
100
AcDbEntity
  8
1
100
AcDbLine
 10
308.223810321235
 20
161.9554305753199
 30
0.0
 11
308.223810321235
 21
166.2554305753199
 31
0.0
  0
CIRCLE
  5
DA9
330
1F
100
AcDbEntity
  8
1
100
AcDbCircle
 10
298.723810321235
 20
157.1054305753199
 30
0.0
 40
2.0
  0
LINE
  5
DAA
330
1F
100
AcDbEntity
  8
1
100
AcDbLine
 10
283.023810321235
 20
165.6054305753199
 30
0.0
 11
280.723810321235
 21
166.0525052863367
 31
0.0
  0
LINE
  5
DAB
330
1F
100
AcDbEntity
  8
1
100
AcDbLine
 10
283.023810321235
 20
162.6054305753198
 30
0.0
 11
280.723810321235
 21
162.1583558643032
 31
0.0
  0
LINE
  5
DAE
330
1F
100
AcDbEntity
  8
Center
100
AcDbLine
 10
285.223810321235
 20
154.0319005753199
 30
0.0
 11
285.223810321235
 21
160.1104905753199
 31
0.0
  0
LINE
  5
DB0
330
1F
100
AcDbEntity
  8
1
100
AcDbLine
 10
289.2238103212351
 20
166.2554305753199
 30
0.0
 11
285.023810321235
 21
166.2554305753199
 31
0.0
  0
LINE
  5
DB1
330
1F
100
AcDbEntity
  8
1
100
AcDbLine
 10
289.2238103212351
 20
161.95543057532
 30
0.0
 11
285.023810321235
 21
161.9554305753198
 31
0.0
  0
LINE
  5
DB2
330
1F
100
AcDbEntity
  8
1
100
AcDbLine
 10
289.2238103212351
 20
161.95543057532
 30
0.0
 11
289.2238103212351
 21
166.2554305753199
 31
0.0
  0
LINE
  5
DB3
330
1F
100
AcDbEntity
  8
1
100
AcDbLine
 10
285.023810321235
 20
161.95543057532
 30
0.0
 11
285.023810321235
 21
162.6054305753199
 31
0.0
  0
LINE
  5
DB4
330
1F
100
AcDbEntity
  8
1
100
AcDbLine
 10
285.023810321235
 20
162.6054305753199
 30
0.0
 11
283.023810321235
 21
162.6054305753199
 31
0.0
  0
LINE
  5
DB5
330
1F
100
AcDbEntity
  8
1
100
AcDbLine
 10
285.023810321235
 20
165.6054305753199
 30
0.0
 11
283.0238103212355
 21
165.6054305753198
 31
0.0
  0
LINE
  5
DB6
330
1F
100
AcDbEntity
  8
1
100
AcDbLine
 10
285.023810321235
 20
165.6054305753199
 30
0.0
 11
285.023810321235
 21
166.2554305753199
 31
0.0
  0
LINE
  5
DB7
330
1F
100
AcDbEntity
  8
1
100
AcDbLine
 10
287.234685028159
 20
210.10543057532
 30
0.0
 11
310.2129356143111
 21
210.1054305753199
 31
0.0
  0
LINE
  5
DB8
330
1F
100
AcDbEntity
  8
AM_7
100
AcDbLine
 10
282.1264005117164
 20
199.1054305753199
 30
0.0
 11
315.086000321235
 21
199.1054305753199
 31
0.0
  0
LINE
  5
DB9
330
1F
100
AcDbEntity
  8
1
100
AcDbLine
 10
316.7238103212349
 20
206.9498407790318
 30
0.0
 11
316.7238103212349
 21
195.1054305753199
 31
0.0
  0
CIRCLE
  5
DBA
330
1F
100
AcDbEntity
  8
1
100
AcDbCircle
 10
298.7238103212351
 20
199.1054305753199
 30
0.0
 40
2.0
  0
LINE
  5
DBC
330
1F
100
AcDbEntity
  8
Center
100
AcDbLine
 10
312.2238103212351
 20
202.1789605753199
 30
0.0
 11
312.2238103212351
 21
196.1003705753199
 31
0.0
  0
LINE
  5
DBE
330
1F
100
AcDbEntity
  8
1
100
AcDbLine
 10
308.223810321235
 20
194.2554305753199
 30
0.0
 11
308.223810321235
 21
189.9554305753199
 31
0.0
  0
LINE
  5
DBF
330
1F
100
AcDbEntity
  8
1
100
AcDbLine
 10
308.223810321235
 20
189.9554305753199
 30
0.0
 11
312.423810321235
 21
189.9554305753199
 31
0.0
  0
LINE
  5
DC0
330
1F
100
AcDbEntity
  8
1
100
AcDbLine
 10
314.423810321235
 20
190.6054305753198
 30
0.0
 11
316.223810321235
 21
190.255546018872
 31
0.0
  0
LINE
  5
DC1
330
1F
100
AcDbEntity
  8
1
100
AcDbLine
 10
312.423810321235
 20
190.6054305753198
 30
0.0
 11
314.4238103212345
 21
190.6054305753199
 31
0.0
  0
LINE
  5
DC2
330
1F
100
AcDbEntity
  8
1
100
AcDbLine
 10
312.423810321235
 20
190.6054305753198
 30
0.0
 11
312.423810321235
 21
189.9554305753199
 31
0.0
  0
LINE
  5
DC3
330
1F
100
AcDbEntity
  8
1
100
AcDbLine
 10
308.223810321235
 20
194.2554305753199
 30
0.0
 11
312.423810321235
 21
194.2554305753199
 31
0.0
  0
LINE
  5
DC4
330
1F
100
AcDbEntity
  8
1
100
AcDbLine
 10
314.423810321235
 20
193.60543057532
 30
0.0
 11
316.223810321235
 21
193.9553151317678
 31
0.0
  0
LINE
  5
DC5
330
1F
100
AcDbEntity
  8
1
100
AcDbLine
 10
316.223810321235
 20
193.9553151317678
 30
0.0
 11
316.223810321235
 21
195.1054305753199
 31
0.0
  0
LINE
  5
DC6
330
1F
100
AcDbEntity
  8
1
100
AcDbLine
 10
316.7238103212349
 20
195.1054305753199
 30
0.0
 11
316.223810321235
 21
195.1054305753199
 31
0.0
  0
LINE
  5
DC7
330
1F
100
AcDbEntity
  8
1
100
AcDbLine
 10
312.423810321235
 20
193.6054305753199
 30
0.0
 11
314.423810321235
 21
193.6054305753199
 31
0.0
  0
LINE
  5
DC8
330
1F
100
AcDbEntity
  8
1
100
AcDbLine
 10
312.423810321235
 20
194.2554305753199
 30
0.0
 11
312.423810321235
 21
193.6054305753198
 31
0.0
  0
ARC
  5
DC9
330
1F
100
AcDbEntity
  8
1
100
AcDbCircle
 10
298.723810321235
 20
178.1054305753199
 30
0.0
 40
34.0
100
AcDbArc
 50
58.03428124920221
 51
70.25007720435732
  0
LINE
  5
DCB
330
1F
100
AcDbEntity
  8
1
100
AcDbLine
 10
280.723810321235
 20
206.9498407790318
 30
0.0
 11
280.723810321235
 21
194.0525052863366
 31
0.0
  0
LINE
  5
DCC
330
1F
100
AcDbEntity
  8
Center
100
AcDbLine
 10
285.223810321235
 20
202.1789605753199
 30
0.0
 11
285.223810321235
 21
196.1003705753199
 31
0.0
  0
LINE
  5
DCE
330
1F
100
AcDbEntity
  8
1
100
AcDbLine
 10
283.023810321235
 20
193.60543057532
 30
0.0
 11
280.723810321235
 21
194.0525052863366
 31
0.0
  0
LINE
  5
DCF
330
1F
100
AcDbEntity
  8
1
100
AcDbLine
 10
283.023810321235
 20
190.6054305753199
 30
0.0
 11
280.723810321235
 21
190.1583558643031
 31
0.0
  0
LINE
  5
DD1
330
1F
100
AcDbEntity
  8
1
100
AcDbLine
 10
289.2238103212351
 20
194.2554305753199
 30
0.0
 11
289.2238103212351
 21
189.9554305753199
 31
0.0
  0
LINE
  5
DD2
330
1F
100
AcDbEntity
  8
1
100
AcDbLine
 10
289.2238103212351
 20
189.9554305753199
 30
0.0
 11
285.023810321235
 21
189.9554305753199
 31
0.0
  0
LINE
  5
DD3
330
1F
100
AcDbEntity
  8
1
100
AcDbLine
 10
285.023810321235
 20
190.6054305753199
 30
0.0
 11
283.0238103212355
 21
190.60543057532
 31
0.0
  0
LINE
  5
DD4
330
1F
100
AcDbEntity
  8
1
100
AcDbLine
 10
285.023810321235
 20
190.6054305753199
 30
0.0
 11
285.023810321235
 21
189.9554305753199
 31
0.0
  0
LINE
  5
DD5
330
1F
100
AcDbEntity
  8
1
100
AcDbLine
 10
289.2238103212351
 20
194.2554305753199
 30
0.0
 11
285.023810321235
 21
194.25543057532
 31
0.0
  0
LINE
  5
DD6
330
1F
100
AcDbEntity
  8
1
100
AcDbLine
 10
285.023810321235
 20
194.2554305753199
 30
0.0
 11
285.023810321235
 21
193.6054305753199
 31
0.0
  0
LINE
  5
DD7
330
1F
100
AcDbEntity
  8
1
100
AcDbLine
 10
285.023810321235
 20
193.6054305753199
 30
0.0
 11
283.023810321235
 21
193.6054305753199
 31
0.0
  0
ARC
  5
DD8
330
1F
100
AcDbEntity
  8
1
100
AcDbCircle
 10
298.723810321235
 20
178.1054305753199
 30
0.0
 40
34.0
100
AcDbArc
 50
109.7499227956427
 51
121.9657187507978
  0
LINE
  5
DDB
330
1F
100
AcDbEntity
  8
AM_7
100
AcDbLine
 10
153.447781291842
 20
213.20914057532
 30
0.0
 11
153.447781291842
 21
143.4563405753199
 31
0.0
  0
LINE
  5
DDC
330
1F
100
AcDbEntity
  8
1
100
AcDbLine
 10
135.9477812918419
 20
165.9553151317679
 30
0.0
 11
135.9477812918419
 21
190.255546018872
 31
0.0
  0
LINE
  5
DDD
330
1F
100
AcDbEntity
  8
1
100
AcDbLine
 10
171.4477812918419
 20
166.0525052863367
 30
0.0
 11
171.4477812918419
 21
190.1583558643031
 31
0.0
  0
LINE
  5
DDE
330
1F
100
AcDbEntity
  8
1
100
AcDbLine
 10
162.9477812918418
 20
166.2554305753199
 30
0.0
 11
167.1477812918419
 21
166.2554305753199
 31
0.0
  0
LINE
  5
DDF
330
1F
100
AcDbEntity
  8
1
100
AcDbLine
 10
162.9477812918418
 20
161.95543057532
 30
0.0
 11
167.1477812918419
 21
161.9554305753198
 31
0.0
  0
ARC
  5
DE1
330
1F
100
AcDbEntity
  8
1
100
AcDbCircle
 10
153.447781291842
 20
178.1054305753199
 30
0.0
 40
34.0
100
AcDbArc
 50
289.7499227956426
 51
301.9657187507949
  0
LINE
  5
DE2
330
1F
100
AcDbEntity
  8
AM_7
100
AcDbLine
 10
172.736151291842
 20
178.1054305753199
 30
0.0
 11
134.091861291842
 21
178.1054305753199
 31
0.0
  0
LINE
  5
DE3
102
{ACAD_REACTORS
330
E6C
102
}
330
1F
100
AcDbEntity
  8
1
100
AcDbLine
 10
171.4477812918419
 20
162.1583558643032
 30
0.0
 11
171.4477812918419
 21
149.261020371608
 31
0.0
  0
LINE
  5
DE4
330
1F
100
AcDbEntity
  8
1
100
AcDbLine
 10
169.1477812918419
 20
162.6054305753198
 30
0.0
 11
171.4477812918419
 21
162.1583558643032
 31
0.0
  0
LINE
  5
DE5
330
1F
100
AcDbEntity
  8
1
100
AcDbLine
 10
167.1477812918419
 20
161.95543057532
 30
0.0
 11
167.1477812918419
 21
162.6054305753199
 31
0.0
  0
LINE
  5
DE6
330
1F
100
AcDbEntity
  8
1
100
AcDbLine
 10
167.1477812918419
 20
162.6054305753199
 30
0.0
 11
169.1477812918419
 21
162.6054305753199
 31
0.0
  0
LINE
  5
DE7
330
1F
100
AcDbEntity
  8
1
100
AcDbLine
 10
169.1477812918419
 20
165.6054305753199
 30
0.0
 11
171.4477812918419
 21
166.0525052863367
 31
0.0
  0
LINE
  5
DE8
330
1F
100
AcDbEntity
  8
1
100
AcDbLine
 10
167.1477812918419
 20
165.6054305753199
 30
0.0
 11
167.1477812918419
 21
166.2554305753199
 31
0.0
  0
LINE
  5
DE9
330
1F
100
AcDbEntity
  8
1
100
AcDbLine
 10
167.1477812918419
 20
165.6054305753199
 30
0.0
 11
169.1477812918414
 21
165.6054305753198
 31
0.0
  0
LINE
  5
DEA
102
{ACAD_REACTORS
330
F04
102
}
330
1F
100
AcDbEntity
  8
1
100
AcDbLine
 10
135.4477812918419
 20
161.1054305753199
 30
0.0
 11
135.447781291842
 21
149.261020371608
 31
0.0
  0
LINE
  5
DEB
330
1F
100
AcDbEntity
  8
1
100
AcDbLine
 10
164.936906584918
 20
146.1054305753199
 30
0.0
 11
141.9586559987659
 21
146.1054305753199
 31
0.0
  0
ARC
  5
DEC
102
{ACAD_REACTORS
330
E6C
330
E92
102
}
330
1F
100
AcDbEntity
  8
1
100
AcDbCircle
 10
153.447781291842
 20
178.1054305753199
 30
0.0
 40
34.0
100
AcDbArc
 50
238.0342812492022
 51
250.2500772043573
  0
LINE
  5
DED
330
1F
100
AcDbEntity
  8
1
100
AcDbLine
 10
143.9477812918419
 20
166.2554305753199
 30
0.0
 11
139.7477812918419
 21
166.2554305753199
 31
0.0
  0
LINE
  5
DEE
330
1F
100
AcDbEntity
  8
1
100
AcDbLine
 10
143.9477812918419
 20
161.9554305753199
 30
0.0
 11
139.7477812918419
 21
161.9554305753199
 31
0.0
  0
LINE
  5
DF0
330
1F
100
AcDbEntity
  8
1
100
AcDbLine
 10
162.9477812918418
 20
161.95543057532
 30
0.0
 11
162.9477812918418
 21
166.2554305753199
 31
0.0
  0
LINE
  5
DF1
330
1F
100
AcDbEntity
  8
1
100
AcDbLine
 10
143.9477812918419
 20
161.9554305753199
 30
0.0
 11
143.9477812918419
 21
166.2554305753199
 31
0.0
  0
LINE
  5
DF2
330
1F
100
AcDbEntity
  8
1
100
AcDbLine
 10
137.7477812918419
 20
165.6054305753199
 30
0.0
 11
135.9477812918419
 21
165.9553151317679
 31
0.0
  0
LINE
  5
DF3
330
1F
100
AcDbEntity
  8
1
100
AcDbLine
 10
137.7477812918419
 20
162.6054305753198
 30
0.0
 11
135.9477812918419
 21
162.255546018872
 31
0.0
  0
LINE
  5
DF4
330
1F
100
AcDbEntity
  8
1
100
AcDbLine
 10
139.7477812918419
 20
161.9554305753199
 30
0.0
 11
139.7477812918419
 21
162.60543057532
 31
0.0
  0
LINE
  5
DF5
330
1F
100
AcDbEntity
  8
1
100
AcDbLine
 10
139.7477812918419
 20
162.6054305753199
 30
0.0
 11
137.7477812918419
 21
162.6054305753199
 31
0.0
  0
LINE
  5
DF6
330
1F
100
AcDbEntity
  8
1
100
AcDbLine
 10
139.7477812918419
 20
165.6054305753199
 30
0.0
 11
139.7477812918419
 21
166.2554305753199
 31
0.0
  0
LINE
  5
DF7
330
1F
100
AcDbEntity
  8
1
100
AcDbLine
 10
139.7477812918419
 20
165.6054305753199
 30
0.0
 11
137.7477812918424
 21
165.6054305753198
 31
0.0
  0
LINE
  5
DF8
330
1F
100
AcDbEntity
  8
1
100
AcDbLine
 10
135.447781291842
 20
161.1054305753199
 30
0.0
 11
135.9477812918419
 21
161.1054305753199
 31
0.0
  0
LINE
  5
DF9
330
1F
100
AcDbEntity
  8
1
100
AcDbLine
 10
135.9477812918419
 20
162.255546018872
 30
0.0
 11
135.9477812918419
 21
161.1054305753199
 31
0.0
  0
ARC
  5
DFA
330
1F
100
AcDbEntity
  8
1
100
AcDbCircle
 10
153.447781291842
 20
178.1054305753199
 30
0.0
 40
34.0
100
AcDbArc
 50
58.03428124920221
 51
70.25007720435732
  0
LINE
  5
DFB
330
1F
100
AcDbEntity
  8
1
100
AcDbLine
 10
162.9477812918418
 20
194.2554305753199
 30
0.0
 11
167.1477812918419
 21
194.25543057532
 31
0.0
  0
LINE
  5
DFD
330
1F
100
AcDbEntity
  8
1
100
AcDbLine
 10
162.9477812918418
 20
189.9554305753199
 30
0.0
 11
167.1477812918419
 21
189.9554305753199
 31
0.0
  0
LINE
  5
DFE
330
1F
100
AcDbEntity
  8
1
100
AcDbLine
 10
171.4477812918419
 20
206.9498407790318
 30
0.0
 11
171.4477812918419
 21
194.0525052863366
 31
0.0
  0
LINE
  5
DFF
330
1F
100
AcDbEntity
  8
1
100
AcDbLine
 10
169.1477812918419
 20
190.6054305753199
 30
0.0
 11
171.4477812918419
 21
190.1583558643031
 31
0.0
  0
LINE
  5
E00
330
1F
100
AcDbEntity
  8
1
100
AcDbLine
 10
167.1477812918419
 20
190.6054305753199
 30
0.0
 11
167.1477812918419
 21
189.9554305753199
 31
0.0
  0
LINE
  5
E01
330
1F
100
AcDbEntity
  8
1
100
AcDbLine
 10
167.1477812918419
 20
190.6054305753199
 30
0.0
 11
169.1477812918414
 21
190.60543057532
 31
0.0
  0
LINE
  5
E02
330
1F
100
AcDbEntity
  8
1
100
AcDbLine
 10
169.1477812918419
 20
193.60543057532
 30
0.0
 11
171.4477812918419
 21
194.0525052863366
 31
0.0
  0
LINE
  5
E03
330
1F
100
AcDbEntity
  8
1
100
AcDbLine
 10
167.1477812918419
 20
194.2554305753199
 30
0.0
 11
167.1477812918419
 21
193.6054305753199
 31
0.0
  0
LINE
  5
E04
330
1F
100
AcDbEntity
  8
1
100
AcDbLine
 10
167.1477812918419
 20
193.6054305753199
 30
0.0
 11
169.1477812918419
 21
193.6054305753199
 31
0.0
  0
LINE
  5
E05
330
1F
100
AcDbEntity
  8
1
100
AcDbLine
 10
143.9477812918419
 20
194.2554305753199
 30
0.0
 11
139.7477812918419
 21
194.2554305753199
 31
0.0
  0
LINE
  5
E06
330
1F
100
AcDbEntity
  8
1
100
AcDbLine
 10
143.9477812918419
 20
189.9554305753199
 30
0.0
 11
139.7477812918419
 21
189.9554305753199
 31
0.0
  0
LINE
  5
E08
102
{ACAD_REACTORS
330
E92
102
}
330
1F
100
AcDbEntity
  8
1
100
AcDbLine
 10
164.9369065849179
 20
210.10543057532
 30
0.0
 11
141.9586559987659
 21
210.1054305753199
 31
0.0
  0
LINE
  5
E09
330
1F
100
AcDbEntity
  8
1
100
AcDbLine
 10
162.9477812918418
 20
194.2554305753199
 30
0.0
 11
162.9477812918418
 21
189.9554305753199
 31
0.0
  0
LINE
  5
E0A
330
1F
100
AcDbEntity
  8
1
100
AcDbLine
 10
143.9477812918419
 20
194.2554305753199
 30
0.0
 11
143.9477812918419
 21
189.9554305753199
 31
0.0
  0
LINE
  5
E0B
102
{ACAD_REACTORS
330
F04
102
}
330
1F
100
AcDbEntity
  8
1
100
AcDbLine
 10
135.447781291842
 20
206.9498407790318
 30
0.0
 11
135.447781291842
 21
195.1054305753199
 31
0.0
  0
LINE
  5
E0C
330
1F
100
AcDbEntity
  8
1
100
AcDbLine
 10
137.7477812918419
 20
190.6054305753198
 30
0.0
 11
135.9477812918419
 21
190.255546018872
 31
0.0
  0
LINE
  5
E0D
330
1F
100
AcDbEntity
  8
1
100
AcDbLine
 10
139.7477812918419
 20
190.6054305753198
 30
0.0
 11
139.7477812918419
 21
189.9554305753199
 31
0.0
  0
LINE
  5
E0E
330
1F
100
AcDbEntity
  8
1
100
AcDbLine
 10
139.7477812918419
 20
190.6054305753198
 30
0.0
 11
137.7477812918424
 21
190.6054305753199
 31
0.0
  0
LINE
  5
E0F
330
1F
100
AcDbEntity
  8
1
100
AcDbLine
 10
137.7477812918419
 20
193.60543057532
 30
0.0
 11
135.9477812918419
 21
193.9553151317678
 31
0.0
  0
LINE
  5
E10
330
1F
100
AcDbEntity
  8
1
100
AcDbLine
 10
139.7477812918419
 20
194.2554305753199
 30
0.0
 11
139.7477812918419
 21
193.6054305753198
 31
0.0
  0
LINE
  5
E11
330
1F
100
AcDbEntity
  8
1
100
AcDbLine
 10
139.7477812918419
 20
193.6054305753199
 30
0.0
 11
137.7477812918419
 21
193.6054305753199
 31
0.0
  0
LINE
  5
E12
330
1F
100
AcDbEntity
  8
1
100
AcDbLine
 10
135.9477812918419
 20
193.9553151317678
 30
0.0
 11
135.9477812918419
 21
195.1054305753199
 31
0.0
  0
LINE
  5
E13
330
1F
100
AcDbEntity
  8
1
100
AcDbLine
 10
135.447781291842
 20
195.1054305753199
 30
0.0
 11
135.9477812918419
 21
195.1054305753199
 31
0.0
  0
ARC
  5
E14
330
1F
100
AcDbEntity
  8
1
100
AcDbCircle
 10
153.447781291842
 20
178.1054305753199
 30
0.0
 40
34.0
100
AcDbArc
 50
109.7499227956427
 51
121.9657187507978
  0
CIRCLE
  5
E15
330
1F
100
AcDbEntity
  8
1
100
AcDbCircle
 10
139.9477812918419
 20
199.1054305753198
 30
0.0
 40
3.799999999999999
  0
CIRCLE
  5
E16
330
1F
100
AcDbEntity
  8
1
100
AcDbCircle
 10
139.9477812918419
 20
199.1054305753198
 30
0.0
 40
2.5
  0
LINE
  5
E17
330
1F
100
AcDbEntity
  8
3
100
AcDbLine
 10
139.9477812918419
 20
203.4372905753197
 30
0.0
 11
139.9477812918419
 21
194.7859805753197
 31
0.0
  0
LINE
  5
E18
102
{ACAD_REACTORS
330
F04
102
}
330
1F
100
AcDbEntity
  8
3
100
AcDbLine
 10
144.5378087567392
 20
199.1054305753198
 30
0.0
 11
135.447781291842
 21
199.1054305753198
 31
0.0
  0
CIRCLE
  5
E19
330
1F
100
AcDbEntity
  8
1
100
AcDbCircle
 10
166.9477812918419
 20
199.1054305753198
 30
0.0
 40
2.5
  0
CIRCLE
  5
E1A
330
1F
100
AcDbEntity
  8
1
100
AcDbCircle
 10
166.9477812918419
 20
199.1054305753198
 30
0.0
 40
3.799999999999999
  0
LINE
  5
E1B
330
1F
100
AcDbEntity
  8
3
100
AcDbLine
 10
166.9477812918419
 20
203.4372905753197
 30
0.0
 11
166.9477812918419
 21
194.7859805753197
 31
0.0
  0
LINE
  5
E1C
330
1F
100
AcDbEntity
  8
3
100
AcDbLine
 10
162.3577538269447
 20
199.1054305753198
 30
0.0
 11
171.4477812918419
 21
199.1054305753198
 31
0.0
  0
LINE
  5
E1D
330
1F
100
AcDbEntity
  8
3
100
AcDbLine
 10
156.0213887567392
 20
206.1054305753198
 30
0.0
 11
150.6123387567392
 21
206.1054305753198
 31
0.0
  0
LINE
  5
E1E
330
1F
100
AcDbEntity
  8
1
100
AcDbLine
 10
158.4477812918419
 20
202.1054305753198
 30
0.0
 11
148.4477812918419
 21
202.1054305753198
 31
0.0
  0
LINE
  5
E1F
330
1F
100
AcDbEntity
  8
3
100
AcDbLine
 10
156.1566187567391
 20
199.6054305753198
 30
0.0
 11
150.8827987567391
 21
199.6054305753198
 31
0.0
  0
CIRCLE
  5
E20
330
1F
100
AcDbEntity
  8
1
100
AcDbCircle
 10
153.4477812918419
 20
199.6054305753198
 30
0.0
 40
2.0
  0
LINE
  5
E21
330
1F
100
AcDbEntity
  8
1
100
AcDbLine
 10
158.4477812918419
 20
188.1054305753198
 30
0.0
 11
158.4477812918419
 21
210.1054305753198
 31
0.0
  0
LINE
  5
E24
330
1F
100
AcDbEntity
  8
1
100
AcDbLine
 10
158.4477812918419
 20
197.1054305753198
 30
0.0
 11
148.4477812918419
 21
197.1054305753198
 31
0.0
  0
LINE
  5
E25
330
1F
100
AcDbEntity
  8
1
100
AcDbLine
 10
158.4477812918419
 20
190.1054305753198
 30
0.0
 11
148.4477812918419
 21
190.1054305753198
 31
0.0
  0
LINE
  5
E26
330
1F
100
AcDbEntity
  8
1
100
AcDbLine
 10
165.4477812918419
 20
188.1054305753198
 30
0.0
 11
141.4477812918419
 21
188.1054305753198
 31
0.0
  0
LINE
  5
E27
330
1F
100
AcDbEntity
  8
1
100
AcDbLine
 10
148.4477812918419
 20
188.1054305753198
 30
0.0
 11
148.4477812918419
 21
210.1054305753198
 31
0.0
  0
LINE
  5
E28
330
1F
100
AcDbEntity
  8
3
100
AcDbLine
 10
156.1566187567391
 20
193.1054305753198
 30
0.0
 11
150.7475687567391
 21
193.1054305753198
 31
0.0
  0
LINE
  5
E2B
330
1F
100
AcDbEntity
  8
1
100
AcDbLine
 10
141.4477812918419
 20
188.1054305753198
 30
0.0
 11
141.4477812918419
 21
178.1054305753198
 31
0.0
  0
LINE
  5
E2C
330
1F
100
AcDbEntity
  8
1
100
AcDbLine
 10
165.4477812918419
 20
188.1054305753198
 30
0.0
 11
165.4477812918419
 21
178.1054305753198
 31
0.0
  0
LINE
  5
E2D
330
1F
100
AcDbEntity
  8
1
100
AcDbLine
 10
165.4477812918419
 20
168.1054305753199
 30
0.0
 11
141.4477812918419
 21
168.1054305753199
 31
0.0
  0
LINE
  5
E2E
330
1F
100
AcDbEntity
  8
1
100
AcDbLine
 10
158.4477812918419
 20
166.1054305753199
 30
0.0
 11
148.4477812918419
 21
166.1054305753199
 31
0.0
  0
LINE
  5
E2F
330
1F
100
AcDbEntity
  8
1
100
AcDbLine
 10
158.4477812918419
 20
159.1054305753198
 30
0.0
 11
148.4477812918419
 21
159.1054305753199
 31
0.0
  0
LINE
  5
E30
330
1F
100
AcDbEntity
  8
1
100
AcDbLine
 10
158.4477812918419
 20
154.1054305753199
 30
0.0
 11
148.4477812918419
 21
154.1054305753199
 31
0.0
  0
LINE
  5
E31
330
1F
100
AcDbEntity
  8
3
100
AcDbLine
 10
156.0213887567392
 20
150.1054305753199
 30
0.0
 11
150.6123387567392
 21
150.1054305753199
 31
0.0
  0
LINE
  5
E32
330
1F
100
AcDbEntity
  8
3
100
AcDbLine
 10
156.1566187567391
 20
156.6054305753199
 30
0.0
 11
150.8827987567391
 21
156.6054305753199
 31
0.0
  0
LINE
  5
E33
330
1F
100
AcDbEntity
  8
3
100
AcDbLine
 10
156.1566187567391
 20
163.1054305753199
 30
0.0
 11
150.7475687567391
 21
163.1054305753199
 31
0.0
  0
LINE
  5
E36
330
1F
100
AcDbEntity
  8
1
100
AcDbLine
 10
158.4477812918419
 20
168.1054305753199
 30
0.0
 11
158.4477812918419
 21
146.1054305753199
 31
0.0
  0
CIRCLE
  5
E37
330
1F
100
AcDbEntity
  8
1
100
AcDbCircle
 10
153.4477812918419
 20
156.6054305753199
 30
0.0
 40
2.0
  0
LINE
  5
E3A
330
1F
100
AcDbEntity
  8
1
100
AcDbLine
 10
148.4477812918419
 20
168.1054305753199
 30
0.0
 11
148.4477812918419
 21
146.1054305753199
 31
0.0
  0
CIRCLE
  5
E3B
330
1F
100
AcDbEntity
  8
1
100
AcDbCircle
 10
139.9477812918419
 20
157.1054305753199
 30
0.0
 40
2.5
  0
CIRCLE
  5
E3C
330
1F
100
AcDbEntity
  8
1
100
AcDbCircle
 10
139.9477812918419
 20
157.1054305753199
 30
0.0
 40
3.799999999999999
  0
LINE
  5
E3D
102
{ACAD_REACTORS
330
F04
102
}
330
1F
100
AcDbEntity
  8
3
100
AcDbLine
 10
144.5378087567392
 20
157.1054305753199
 30
0.0
 11
135.447781291842
 21
157.1054305753199
 31
0.0
  0
LINE
  5
E3E
102
{ACAD_REACTORS
330
EDE
102
}
330
1F
100
AcDbEntity
  8
3
100
AcDbLine
 10
139.9477812918419
 20
152.7735705753199
 30
0.0
 11
139.9477812918419
 21
161.42488057532
 31
0.0
  0
LINE
  5
E3F
330
1F
100
AcDbEntity
  8
3
100
AcDbLine
 10
162.3577538269447
 20
157.1054305753199
 30
0.0
 11
171.4477812918419
 21
157.1054305753199
 31
0.0
  0
LINE
  5
E40
102
{ACAD_REACTORS
330
EDE
102
}
330
1F
100
AcDbEntity
  8
3
100
AcDbLine
 10
166.9477812918419
 20
152.7735705753199
 30
0.0
 11
166.9477812918419
 21
161.42488057532
 31
0.0
  0
CIRCLE
  5
E41
330
1F
100
AcDbEntity
  8
1
100
AcDbCircle
 10
166.9477812918419
 20
157.1054305753199
 30
0.0
 40
2.5
  0
CIRCLE
  5
E42
330
1F
100
AcDbEntity
  8
1
100
AcDbCircle
 10
166.9477812918419
 20
157.1054305753199
 30
0.0
 40
3.799999999999999
  0
LINE
  5
E43
330
1F
100
AcDbEntity
  8
1
100
AcDbLine
 10
165.4477812918419
 20
168.1054305753201
 30
0.0
 11
165.4477812918419
 21
178.10543057532
 31
0.0
  0
LINE
  5
E44
330
1F
100
AcDbEntity
  8
1
100
AcDbLine
 10
141.4477812918419
 20
168.10543057532
 30
0.0
 11
141.4477812918419
 21
178.10543057532
 31
0.0
  0
DIMENSION
  5
E5E
102
{ACAD_XDICTIONARY
360
E6B
102
}
102
{ACAD_REACTORS
330
E6C
102
}
330
1F
100
AcDbEntity
  8
AM_5
100
AcDbDimension
  2
*D3
 10
171.4477812918419
 20
126.10543057532
 30
0.0
 11
153.4477812918417
 21
128.65543057532
 31
0.0
 70
    32
 71
     5
 42
36.00000000000043
  3
AM_ISO$0
100
AcDbAlignedDimension
 13
135.4477812918415
 23
149.2610203716083
 33
0.0
 14
171.4477812918419
 24
149.261020371608
 34
0.0
 50
0.0000000000001132
100
AcDbRotatedDimension
1001
ACAD
1000
DSTYLE
1002
{
1070
    40
1040
1.0
1070
   144
1040
1.0
1070
   272
1070
     8
1002
}
  0
DIMENSION
  5
E84
102
{ACAD_XDICTIONARY
360
E91
102
}
102
{ACAD_REACTORS
330
E92
102
}
330
1F
100
AcDbEntity
  8
AM_5
100
AcDbDimension
  2
*D4
 10
115.4477812918416
 20
210.1054305753199
 30
0.0
 11
112.8977812918416
 21
178.1054305753199
 31
0.0
 70
    32
 71
     5
 42
63.99999999999995
  3
AM_ISO$0
100
AcDbAlignedDimension
 13
141.9586559987658
 23
146.1054305753199
 33
0.0
 14
141.9586559987659
 24
210.1054305753199
 34
0.0
 50
89.99999999999991
100
AcDbRotatedDimension
1001
ACAD
1000
DSTYLE
1002
{
1070
    40
1040
1.0
1070
   144
1040
1.0
1070
   272
1070
     8
1002
}
  0
DIMENSION
  5
EAA
102
{ACAD_XDICTIONARY
360
EB7
102
}
102
{ACAD_REACTORS
330
EB8
102
}
330
1F
100
AcDbEntity
  8
AM_5
100
AcDbDimension
  2
*D5
 10
242.0422610742763
 20
126.10543057532
 30
0.0
 11
221.0422610742763
 21
128.6554305753201
 31
0.0
 70
    32
 71
     5
 42
42.0
  3
AM_ISO$0
100
AcDbAlignedDimension
 13
200.0422610742763
 23
146.1054305753198
 33
0.0
 14
242.0422610742763
 24
146.10543057532
 34
0.0
 50
0.0000000000001132
100
AcDbRotatedDimension
1001
ACAD
1000
DSTYLE
1002
{
1070
    40
1040
1.0
1070
   144
1040
1.0
1070
   272
1070
     8
1002
}
  0
DIMENSION
  5
ED0
102
{ACAD_XDICTIONARY
360
EDD
102
}
102
{ACAD_REACTORS
330
EDE
102
}
330
1F
100
AcDbEntity
  8
AM_5
100
AcDbDimension
  2
*D6
 10
166.9477812918419
 20
134.1054305753199
 30
0.0
 11
153.4477812918419
 21
136.6554305753199
 31
0.0
 70
    32
 71
     5
 42
27.0
  3
AM_ISO$0
100
AcDbAlignedDimension
 13
139.9477812918419
 23
152.7735705753199
 33
0.0
 14
166.9477812918419
 24
152.7735705753199
 34
0.0
 50
0.0000000000001132
100
AcDbRotatedDimension
1001
ACAD
1000
DSTYLE
1002
{
1070
    40
1040
1.0
1070
   144
1040
1.0
1070
   272
1070
     8
1002
}
  0
DIMENSION
  5
EF6
102
{ACAD_XDICTIONARY
360
F03
102
}
102
{ACAD_REACTORS
330
F04
102
}
330
1F
100
AcDbEntity
  8
AM_5
100
AcDbDimension
  2
*D7
 10
123.4477812918415
 20
199.1054305753198
 30
0.0
 11
120.8977812918415
 21
178.1054305753198
 31
0.0
 70
    32
 71
     5
 42
41.99999999999991
  3
AM_ISO$0
100
AcDbAlignedDimension
 13
135.4477812918419
 23
157.1054305753199
 33
0.0
 14
135.447781291842
 24
199.1054305753198
 34
0.0
 50
90.0
100
AcDbRotatedDimension
1001
ACAD
1000
DSTYLE
1002
{
1070
    40
1040
1.0
1070
   144
1040
1.0
1070
   272
1070
     8
1002
}
  0
DIMENSION
  5
F42
102
{ACAD_XDICTIONARY
360
F4F
102
}
102
{ACAD_REACTORS
330
F50
102
}
330
1F
100
AcDbEntity
  8
AM_5
100
AcDbDimension
  2
*D8
 10
220.0422610742763
 20
134.10543057532
 30
0.0
 11
231.0422610742763
 21
136.65543057532
 31
0.0
 70
    32
 71
     5
 42
22.0
  3
AM_ISO$0
100
AcDbAlignedDimension
 13
242.0422610742763
 23
146.10543057532
 33
0.0
 14
220.0422610742763
 24
152.10543057532
 34
0.0
 50
0.0000000000001132
100
AcDbRotatedDimension
1001
ACAD
1000
DSTYLE
1002
{
1070
    40
1040
1.0
1070
   144
1040
1.0
1070
   272
1070
     8
1002
}
  0
DIMENSION
  5
F6C
102
{ACAD_XDICTIONARY
360
F79
102
}
102
{ACAD_REACTORS
330
F7A
102
}
330
1F
100
AcDbEntity
  8
AM_5
100
AcDbDimension
  2
*D9
 10
262.0422610742763
 20
199.10543057532
 30
0.0
 11
259.4922610742762
 21
178.10543057532
 31
0.0
 70
    32
 71
     5
 42
41.99999999999994
  3
AM_ISO$0
100
AcDbAlignedDimension
 13
224.7660810742763
 23
157.10543057532
 33
0.0
 14
224.7660810742763
 24
199.10543057532
 34
0.0
 50
90.00000000000003
100
AcDbRotatedDimension
1001
ACAD
1000
DSTYLE
1002
{
1070
    40
1040
1.0
1070
   144
1040
1.0
1070
   272
1070
     8
1002
}
  0
DIMENSION
  5
F92
102
{ACAD_XDICTIONARY
360
F9F
102
}
102
{ACAD_REACTORS
330
FA0
102
}
330
1F
100
AcDbEntity
  8
AM_5
100
AcDbDimension
  2
*D10
 10
254.0422610742763
 20
186.10543057532
 30
0.0
 11
251.4922610742763
 21
178.10543057532
 31
0.0
 70
    32
 71
     5
 42
15.99999999999994
  3
AM_ISO$0
100
AcDbAlignedDimension
 13
221.7055010742764
 23
170.10543057532
 33
0.0
 14
238.2483410742764
 24
186.10543057532
 34
0.0
 50
90.00000000000003
100
AcDbRotatedDimension
1001
ACAD
1000
DSTYLE
1002
{
1070
    40
1040
1.0
1070
   144
1040
1.0
1070
   272
1070
     8
1002
}
  0
DIMENSION
  5
FC6
102
{ACAD_XDICTIONARY
360
FD5
102
}
102
{ACAD_REACTORS
330
FD6
102
}
330
1F
100
AcDbEntity
  8
AM_5
100
AcDbDimension
  2
*D11
 10
235.0422610742763
 20
222.10543057532
 30
0.0
 11
238.5422610742763
 21
224.65543057532
 31
0.0
 70
    32
 71
     5
 42
7.000000000000056
  3
AM_ISO$0
100
AcDbAlignedDimension
 13
242.0422610742763
 23
210.10543057532
 33
0.0
 14
235.0422610742763
 24
189.2166699570444
 34
0.0
 50
0.0000000000000623
100
AcDbRotatedDimension
1001
ACAD
1000
DSTYLE
1002
{
1070
    40
1040
1.0
1070
   144
1040
1.0
1070
   272
1070
     8
1002
}
  0
DIMENSION
  5
FF0
102
{ACAD_XDICTIONARY
360
FFD
102
}
102
{ACAD_REACTORS
330
FFE
102
}
330
1F
100
AcDbEntity
  8
AM_5
100
AcDbDimension
  2
*D12
 10
218.5422610742763
 20
222.10543057532
 30
0.0
 11
226.7922610742763
 21
224.65543057532
 31
0.0
 70
    32
 71
     5
 42
16.49999999999994
  3
AM_ISO$0
100
AcDbAlignedDimension
 13
235.0422610742763
 23
189.47052057532
 33
0.0
 14
218.5422610742763
 24
172.8431305753201
 34
0.0
100
AcDbRotatedDimension
1001
ACAD
1000
DSTYLE
1002
{
1070
    40
1040
1.0
1070
   144
1040
1.0
1070
   272
1070
     8
1002
}
  0
ARC
  5
10C8
330
1F
100
AcDbEntity
  8
AM_4
100
AcDbCircle
 10
235.0422610742763
 20
186.10543057532
 30
0.0
 40
2.5
100
AcDbArc
 50
260.0
 51
170.0
  0
CIRCLE
  5
10C9
330
1F
100
AcDbEntity
  8
AM_0
100
AcDbCircle
 10
235.0422610742763
 20
186.10543057532
 30
0.0
 40
2.066987298107819
  0
ARC
  5
10CA
330
1F
100
AcDbEntity
  8
AM_4
100
AcDbCircle
 10
218.5422610742763
 20
170.10543057532
 30
0.0
 40
2.5
100
AcDbArc
 50
260.0
 51
170.0
  0
CIRCLE
  5
10CB
330
1F
100
AcDbEntity
  8
AM_0
100
AcDbCircle
 10
218.5422610742763
 20
170.10543057532
 30
0.0
 40
2.066987298107819
  0
INSERT
  5
10CC
330
1F
100
AcDbEntity
  8
AM_5
100
AcDbBlockReference
  2
*S16
 10
0.0
 20
0.0
 30
0.0
  0
ARC
  5
1124
330
1F
100
AcDbEntity
  8
AM_4
100
AcDbCircle
 10
153.447781291842
 20
206.1054305753198
 30
0.0
 40
2.0
100
AcDbArc
 50
260.0
 51
170.0
  0
CIRCLE
  5
1125
330
1F
100
AcDbEntity
  8
AM_0
100
AcDbCircle
 10
153.447781291842
 20
206.1054305753198
 30
0.0
 40
1.621113885844339
  0
ARC
  5
1126
330
1F
100
AcDbEntity
  8
AM_4
100
AcDbCircle
 10
153.4520937567392
 20
193.1054305753198
 30
0.0
 40
2.0
100
AcDbArc
 50
260.0
 51
170.0
  0
CIRCLE
  5
1127
330
1F
100
AcDbEntity
  8
AM_0
100
AcDbCircle
 10
153.4520937567392
 20
193.1054305753198
 30
0.0
 40
1.621113885844339
  0
ARC
  5
1128
330
1F
100
AcDbEntity
  8
AM_4
100
AcDbCircle
 10
153.4520937567392
 20
163.1054305753199
 30
0.0
 40
2.0
100
AcDbArc
 50
260.0
 51
170.0
  0
CIRCLE
  5
1129
330
1F
100
AcDbEntity
  8
AM_0
100
AcDbCircle
 10
153.4520937567392
 20
163.1054305753199
 30
0.0
 40
1.621113885844339
  0
ARC
  5
112A
330
1F
100
AcDbEntity
  8
AM_4
100
AcDbCircle
 10
153.4477812918419
 20
150.1054305753199
 30
0.0
 40
2.0
100
AcDbArc
 50
260.0
 51
170.0
  0
CIRCLE
  5
112B
330
1F
100
AcDbEntity
  8
AM_0
100
AcDbCircle
 10
153.4477812918419
 20
150.1054305753199
 30
0.0
 40
1.621113885844339
  0
TEXT
  5
11DF
330
1F
100
AcDbEntity
  8
LOGO
 62
     7
100
AcDbText
 10
128.943322863576
 20
75.46821074024752
 30
0.0
 40
2.666280542986425
  1
Order example:
 41
0.8
  7
CHINESET
100
AcDbText
  0
TEXT
  5
11E0
330
1F
100
AcDbEntity
  8
LOGO
 62
     7
100
AcDbText
 10
129.4216756422308
 20
79.22178168434175
 30
0.0
 40
3.999420814479637
  1
訂購代號：
  7
CHINESET
100
AcDbText
  0
LINE
  5
11E1
330
1F
100
AcDbEntity
  8
LOGO
 62
     4
100
AcDbLine
 10
127.7848149241447
 20
64.23149768216422
 30
0.0
 11
127.7848149241447
 21
84.22860175456253
 31
0.0
  0
TEXT
  5
11E2
330
1F
100
AcDbEntity
  8
LOGO
  6
Continuous
100
AcDbText
 10
90.97423563639608
 20
68.15989859892557
 30
0.0
 40
2.999565610859728
  1
金器工業股份有限公司
  7
CHINESET
100
AcDbText
  0
TEXT
  5
11E3
330
1F
100
AcDbEntity
  8
LOGO
  6
Continuous
100
AcDbText
 10
85.46462704403779
 20
65.15974530838116
 30
0.0
 40
1.999710407239818
  1
MINDMAN INDUSTRIAL CO., LTD.
 41
0.85
  7
CHINESET
100
AcDbText
  0
LINE
  5
11E4
330
1F
100
AcDbEntity
  8
LOGO
 62
     4
100
AcDbLine
 10
127.7848149241447
 20
80.22918094008288
 30
0.0
 11
98.45572895129386
 21
80.22918094008288
 31
0.0
  0
LINE
  5
11E5
330
1F
100
AcDbEntity
  8
LOGO
 62
     4
100
AcDbLine
 10
127.7848149241447
 20
76.22976012560321
 30
0.0
 11
98.45572895129386
 21
76.22976012560321
 31
0.0
  0
LINE
  5
11E6
330
1F
100
AcDbEntity
  8
LOGO
 62
     4
100
AcDbLine
 10
127.7848149241447
 20
72.23033931112377
 30
0.0
 11
83.79118596486865
 21
72.23033931112377
 31
0.0
  0
LINE
  5
11E7
330
1F
100
AcDbEntity
  8
LOGO
 62
     4
100
AcDbLine
 10
98.45572895129386
 20
72.23033931112377
 30
0.0
 11
98.45572895129386
 21
84.22860175456253
 31
0.0
  0
TEXT
  5
11E8
330
1F
100
AcDbEntity
  8
LOGO
100
AcDbText
 10
118.5007749019652
 20
73.23019451474334
 30
0.0
 40
1.999710407239818
  1
mm
  7
CHINESET
 72
     1
 11
120.9766068347382
 21
74.23004971836326
 31
0.0
100
AcDbText
 73
     2
  0
TEXT
  5
11E9
330
1F
100
AcDbEntity
  8
LOGO
100
AcDbText
 10
117.4533075457919
 20
81.22903614370267
 30
0.0
 40
1.999710407239818
  1
1 : 1
  7
CHINESET
 72
     1
 11
120.9766068347382
 21
82.22889134732259
 31
0.0
100
AcDbText
 73
     2
  0
LINE
  5
11EA
330
1F
100
AcDbEntity
  8
LOGO
 62
     4
100
AcDbLine
 10
114.4534122092125
 20
72.23033931112377
 30
0.0
 11
114.4534122092125
 21
84.22860175456253
 31
0.0
  0
TEXT
  5
11EB
330
1F
100
AcDbEntity
  8
LOGO
100
AcDbText
 10
100.1045973094063
 20
81.23002025315505
 30
131.0577257600498
 40
1.999710407239818
  1
比例 Scale:
 41
0.9
  7
CHINESET
 72
     4
 11
106.4545705802532
 21
82.22889134732259
 31
131.0577257600498
100
AcDbText
  0
TEXT
  5
11EC
330
1F
100
AcDbEntity
  8
LOGO
100
AcDbText
 10
99.98943541541802
 20
77.25774445773693
 30
131.0577257600498
 40
1.999710407239818
  1
投影  View:
 41
0.9
  7
CHINESET
 72
     4
 11
106.4545705802532
 21
78.22947053284292
 31
131.0577257600498
100
AcDbText
  0
TEXT
  5
11ED
330
1F
100
AcDbEntity
  8
LOGO
100
AcDbText
 10
100.1849428168401
 20
73.23019451474334
 30
131.0577257600498
 40
1.999710407239818
  1
單位  Unit:
 41
0.9
  7
CHINESET
 72
     4
 11
106.4545705802532
 21
74.23004971836326
 31
131.0577257600498
100
AcDbText
  0
LWPOLYLINE
  5
11EE
330
1F
100
AcDbEntity
  8
LOGO
 62
     4
100
AcDbPolyline
 90
        4
 70
     1
 43
0.0
 10
83.79118596486865
 20
84.22860175456253
 10
358.7911859648686
 20
84.22860175456253
 10
358.7911859648686
 20
264.2314976821639
 10
83.79118596486865
 20
264.2314976821639
1001
GENIUS_GENREC_14
1002
{
1000
PYDIR
1011
83.79118596486865
1021
264.2314976821639
1031
0.0
1002
}
1002
{
1000
PXDIR
1011
358.7911859648686
1021
84.22860175456253
1031
0.0
1002
}
1002
{
1000
PORI
1011
83.79118596486865
1021
84.22860175456253
1031
0.0
1002
}
1002
{
1000
PINS
1011
83.79118596486865
1021
84.22860175456253
1031
0.0
1002
}
1002
{
1000
PINS2
1011
358.7911859648686
1021
264.2314976821639
1031
0.0
1002
}
1002
{
1000
C
1070
     1
1002
}
1001
GENIUS_GENODEF_13
1002
{
1000
HIER
1070
     0
1002
}
1002
{
1000
MANEDIT
1070
     0
1002
}
1002
{
1000
NOSEL
1070
     0
1002
}
1002
{
1000
BEHIND
1070
     0
1002
}
1002
{
1000
OTHER
1070
     0
1002
}
1002
{
1000
REACTOR
1002
}
1001
GENIUS_GENOBJ-N-REC_13
1002
{
1000
OWNER
1000
GEN
1002
}
  0
SOLID
  5
11EF
330
1F
100
AcDbEntity
  8
LOGO
 62
     5
100
AcDbTrace
 10
85.86591760529087
 20
75.55457322679718
 30
0.0
 11
86.73053991298024
 21
75.55457322679695
 31
0.0
 12
90.33810195540832
 22
83.7535778686797
 32
0.0
 13
91.20272426309815
 23
83.75357786867926
 33
0.0
  0
SOLID
  5
11F0
330
1F
100
AcDbEntity
  8
LOGO
 62
     5
100
AcDbTrace
 10
87.08831466099059
 20
75.55457322679718
 30
0.0
 11
87.95293696867998
 21
75.55457322679718
 31
0.0
 12
91.20272426309815
 22
83.09765749732878
 32
0.0
 13
90.33810195540832
 23
79.92737570246754
 33
0.0
  0
SOLID
  5
11F1
330
1F
100
AcDbEntity
  8
LOGO
 62
     2
100
AcDbTrace
 10
86.73053991298024
 20
75.55457322679695
 30
0.0
 11
87.08831466099059
 21
75.55457322679718
 31
0.0
 12
91.20272426309815
 22
83.75357786867926
 32
0.0
 13
91.56049901110804
 23
83.75357786867926
 33
0.0
  0
SOLID
  5
11F2
330
1F
100
AcDbEntity
  8
LOGO
 62
     5
100
AcDbTrace
 10
84.47971601470248
 20
72.57311699338561
 30
0.0
 11
84.77786163804399
 21
72.57311699338561
 31
0.0
 12
85.61746291917348
 22
74.06384511009128
 32
0.0
 13
85.91560854251406
 23
74.06384511009128
 33
0.0
  0
SOLID
  5
11F3
330
1F
100
AcDbEntity
  8
LOGO
 62
     5
100
AcDbTrace
 10
85.61746291917348
 20
74.06384511009128
 30
0.0
 11
85.91560854251406
 21
74.06384511009128
 31
0.0
 12
85.61746291917348
 22
72.57311699338561
 32
0.0
 13
85.91560854251406
 23
72.57311699338561
 33
0.0
  0
SOLID
  5
11F4
330
1F
100
AcDbEntity
  8
LOGO
 62
     5
100
AcDbTrace
 10
85.61746291917348
 20
72.57311699338561
 30
0.0
 11
85.91560854251406
 21
72.57311699338561
 31
0.0
 12
86.75520982364492
 22
74.06384511009128
 32
0.0
 13
87.05335544698597
 23
74.06384511009128
 33
0.0
  0
SOLID
  5
11F5
330
1F
100
AcDbEntity
  8
LOGO
 62
     5
100
AcDbTrace
 10
86.75520982364492
 20
74.06384511009128
 30
0.0
 11
87.05335544698597
 21
74.06384511009128
 31
0.0
 12
86.75520982364492
 22
72.57311699338561
 32
0.0
 13
87.05335544698597
 23
72.57311699338561
 33
0.0
  0
POLYLINE
  5
11F6
330
1F
100
AcDbEntity
  8
LOGO
 62
     5
100
AcDb2dPolyline
 66
     1
 10
0.0
 20
0.0
 30
0.0
 40
0.2986234208144796
 41
0.2986234208144796
  0
VERTEX
  5
11F7
330
11F6
100
AcDbEntity
  8
LOGO
 62
     5
100
AcDbVertex
100
AcDb2dVertex
 10
96.7489495534544
 20
73.46755386340896
 30
0.0
 42
1.0
  0
VERTEX
  5
11F8
330
11F6
100
AcDbEntity
  8
LOGO
 62
     5
100
AcDbVertex
100
AcDb2dVertex
 10
95.85307929101077
 20
73.46755386340896
 30
0.0
 42
1.0
  0
SEQEND
  5
11F9
330
11F6
100
AcDbEntity
  8
LOGO
 62
     5
  0
POLYLINE
  5
11FA
330
1F
100
AcDbEntity
  8
LOGO
 62
     5
100
AcDb2dPolyline
 66
     1
 10
0.0
 20
0.0
 30
0.0
 70
     1
  0
VERTEX
  5
11FB
330
11FA
100
AcDbEntity
  8
LOGO
 62
     5
100
AcDbVertex
100
AcDb2dVertex
 10
94.16432399799509
 20
73.31848105173822
 30
0.0
 42
1.000000057330635
  0
VERTEX
  5
11FC
330
11FA
100
AcDbEntity
  8
LOGO
 62
     5
100
AcDbVertex
100
AcDb2dVertex
 10
95.05876086801867
 20
73.31848105173822
 30
0.0
 42
1.000000057330635
  0
SEQEND
  5
11FD
330
11FA
100
AcDbEntity
  8
LOGO
 62
     5
  0
CIRCLE
  5
11FE
330
1F
100
AcDbEntity
  8
LOGO
 62
     5
100
AcDbCircle
 10
94.61154243300757
 20
73.31848105173822
 30
0.0
 40
0.4472184350117648
  0
POLYLINE
  5
11FF
330
1F
100
AcDbEntity
  8
LOGO
 62
     5
100
AcDb2dPolyline
 66
     1
 10
0.0
 20
0.0
 30
0.0
 70
     1
 40
0.2986234208144796
 41
0.2986234208144796
  0
VERTEX
  5
1200
330
11FF
100
AcDbEntity
  8
LOGO
 62
     5
100
AcDbVertex
100
AcDb2dVertex
 10
94.01429559137818
 20
73.31848105173822
 30
0.0
 42
1.0
  0
VERTEX
  5
1201
330
11FF
100
AcDbEntity
  8
LOGO
 62
     5
100
AcDbVertex
100
AcDb2dVertex
 10
95.20878927463604
 20
73.31848105173822
 30
0.0
 42
1.0
  0
SEQEND
  5
1202
330
11FF
100
AcDbEntity
  8
LOGO
 62
     5
  0
LINE
  5
1203
330
1F
100
AcDbEntity
  8
LOGO
100
AcDbLine
 10
96.89730566891444
 20
72.57311699338561
 30
0.0
 11
96.89730566891444
 21
73.46755386340896
 31
0.0
  0
SOLID
  5
1204
330
1F
100
AcDbEntity
  8
LOGO
 62
     5
100
AcDbTrace
 10
95.05873105345768
 20
74.06384511009128
 30
0.0
 11
95.35687667679827
 21
74.06384511009128
 31
0.0
 12
95.05873105345768
 22
72.57311699338561
 32
0.0
 13
95.35687667679827
 23
72.57311699338561
 33
0.0
  0
SOLID
  5
1205
330
1F
100
AcDbEntity
  8
LOGO
 62
     5
100
AcDbTrace
 10
95.70472317554981
 20
72.57311699338561
 30
0.0
 11
96.00286879889132
 21
72.57311699338561
 31
0.0
 12
95.70472317554981
 22
74.06384511009128
 32
0.0
 13
96.00286879889132
 23
74.06384511009128
 33
0.0
  0
SOLID
  5
1206
330
1F
100
AcDbEntity
  8
LOGO
 62
     5
100
AcDbTrace
 10
96.59916004557386
 20
73.46755386340896
 30
0.0
 11
96.89730566891444
 21
73.46755386340896
 31
0.0
 12
96.59916004557386
 22
72.57311699338561
 32
0.0
 13
96.89730566891444
 23
72.57311699338561
 33
0.0
  0
SOLID
  5
1207
330
1F
100
AcDbEntity
  8
LOGO
 62
     5
100
AcDbTrace
 10
95.67490861321562
 20
83.09765749732878
 30
0.0
 11
94.81028630552669
 21
79.92737570246754
 31
0.0
 12
95.67490861321562
 22
75.55457322679695
 32
0.0
 13
94.81028630552669
 23
75.55457322679695
 33
0.0
  0
SOLID
  5
1208
330
1F
100
AcDbEntity
  8
LOGO
 62
     5
100
AcDbTrace
 10
96.03268336122551
 20
75.55457322679695
 30
0.0
 11
96.89730566891444
 21
75.55457322679695
 31
0.0
 12
96.03268336122551
 22
83.75357786867926
 32
0.0
 13
96.89730566891444
 23
83.7535778686797
 33
0.0
  0
SOLID
  5
1209
330
1F
100
AcDbEntity
  8
LOGO
 62
     2
100
AcDbTrace
 10
95.67490861321562
 20
83.7535778686797
 30
0.0
 11
96.03268336122551
 21
83.75357786867926
 31
0.0
 12
95.67490861321562
 22
75.55457322679695
 32
0.0
 13
96.03268336122551
 23
75.55457322679695
 33
0.0
  0
POLYLINE
  5
120A
330
1F
100
AcDbEntity
  8
LOGO
 62
     5
100
AcDb2dPolyline
 66
     1
 10
0.0
 20
0.0
 30
0.0
 40
0.2986234208144796
 41
0.2986234208144796
  0
VERTEX
  5
120B
330
120A
100
AcDbEntity
  8
LOGO
 62
     5
100
AcDbVertex
100
AcDb2dVertex
 10
92.47550907585605
 20
73.46755386340896
 30
0.0
 42
1.0
  0
VERTEX
  5
120C
330
120A
100
AcDbEntity
  8
LOGO
 62
     5
100
AcDbVertex
100
AcDb2dVertex
 10
91.57963881341244
 20
73.46755386340896
 30
0.0
 42
1.0
  0
SEQEND
  5
120D
330
120A
100
AcDbEntity
  8
LOGO
 62
     5
  0
POLYLINE
  5
120E
330
1F
100
AcDbEntity
  8
LOGO
 62
     5
100
AcDb2dPolyline
 66
     1
 10
0.0
 20
0.0
 30
0.0
 40
0.2986234208144796
 41
0.2986234208144796
  0
VERTEX
  5
120F
330
120E
100
AcDbEntity
  8
LOGO
 62
     5
100
AcDbVertex
100
AcDb2dVertex
 10
93.36994594587872
 20
73.46755386340896
 30
0.0
 42
1.0
  0
VERTEX
  5
1210
330
120E
100
AcDbEntity
  8
LOGO
 62
     5
100
AcDbVertex
100
AcDb2dVertex
 10
92.47407568343556
 20
73.46755386340896
 30
0.0
 42
1.0
  0
SEQEND
  5
1211
330
120E
100
AcDbEntity
  8
LOGO
 62
     5
  0
POLYLINE
  5
1212
330
1F
100
AcDbEntity
  8
LOGO
 62
     5
100
AcDb2dPolyline
 66
     1
 10
0.0
 20
0.0
 30
0.0
 40
0.2986234208144796
 41
0.2986234208144796
  0
VERTEX
  5
1213
330
1212
100
AcDbEntity
  8
LOGO
 62
     5
100
AcDbVertex
100
AcDb2dVertex
 10
89.09650546828038
 20
73.46755386340896
 30
0.0
 42
1.0
  0
VERTEX
  5
1214
330
1212
100
AcDbEntity
  8
LOGO
 62
     5
100
AcDbVertex
100
AcDb2dVertex
 10
88.20063520583721
 20
73.46755386340896
 30
0.0
 42
1.0
  0
SEQEND
  5
1215
330
1212
100
AcDbEntity
  8
LOGO
 62
     5
  0
SOLID
  5
1216
330
1F
100
AcDbEntity
  8
LOGO
 62
     5
100
AcDbTrace
 10
88.05227909037672
 20
74.06384511009128
 30
0.0
 11
88.3504247137173
 21
74.06384511009128
 31
0.0
 12
88.05227909037672
 22
72.57311699338561
 32
0.0
 13
88.3504247137173
 23
72.57311699338561
 33
0.0
  0
SOLID
  5
1217
330
1F
100
AcDbEntity
  8
LOGO
 62
     5
100
AcDbTrace
 10
88.9467159604003
 20
73.46755386340896
 30
0.0
 11
89.24486158374179
 21
73.46755386340896
 31
0.0
 12
88.9467159604003
 22
72.57311699338561
 32
0.0
 13
89.24486158374179
 23
72.57311699338561
 33
0.0
  0
POLYLINE
  5
1218
330
1F
100
AcDbEntity
  8
LOGO
 62
     5
100
AcDb2dPolyline
 66
     1
 10
0.0
 20
0.0
 30
0.0
 70
     1
 40
0.2986234208144796
 41
0.2986234208144796
  0
VERTEX
  5
1219
330
1218
100
AcDbEntity
  8
LOGO
 62
     5
100
AcDbVertex
100
AcDb2dVertex
 10
89.74085511377939
 20
73.31848105173822
 30
0.0
 42
1.0
  0
VERTEX
  5
121A
330
1218
100
AcDbEntity
  8
LOGO
 62
     5
100
AcDbVertex
100
AcDb2dVertex
 10
90.93534879703771
 20
73.31848105173822
 30
0.0
 42
1.0
  0
SEQEND
  5
121B
330
1218
100
AcDbEntity
  8
LOGO
 62
     5
  0
SOLID
  5
121C
330
1F
100
AcDbEntity
  8
LOGO
 62
     5
100
AcDbTrace
 10
90.78529057585843
 20
74.51106354510329
 30
0.0
 11
91.08343619919947
 21
74.51106354510329
 31
0.0
 12
90.78529057585843
 22
72.57311699338561
 32
0.0
 13
91.08343619919947
 23
72.57311699338561
 33
0.0
  0
SOLID
  5
121D
330
1F
100
AcDbEntity
  8
LOGO
 62
     5
100
AcDbTrace
 10
91.43128269795239
 20
74.06384511009128
 30
0.0
 11
91.72942832129297
 21
74.06384511009128
 31
0.0
 12
91.43128269795239
 22
72.57311699338561
 32
0.0
 13
91.72942832129297
 23
72.57311699338561
 33
0.0
  0
SOLID
  5
121E
330
1F
100
AcDbEntity
  8
LOGO
 62
     5
100
AcDbTrace
 10
92.32571956797505
 20
73.46755386340896
 30
0.0
 11
92.62386519131656
 21
73.46755386340896
 31
0.0
 12
92.32571956797505
 22
72.57311699338561
 32
0.0
 13
92.62386519131656
 23
72.57311699338561
 33
0.0
  0
SOLID
  5
121F
330
1F
100
AcDbEntity
  8
LOGO
 62
     5
100
AcDbTrace
 10
93.22015643799863
 20
73.46755386340896
 30
0.0
 11
93.51830206133968
 21
73.46755386340896
 31
0.0
 12
93.22015643799863
 22
72.57311699338515
 32
0.0
 13
93.51830206133968
 23
72.57311699338515
 33
0.0
  0
SOLID
  5
1220
330
1F
100
AcDbEntity
  8
LOGO
 62
     5
100
AcDbTrace
 10
87.40628696828322
 20
74.27254704643019
 30
0.0
 11
87.70443259162517
 21
74.27254704643019
 31
0.0
 12
87.40628696828322
 22
74.51106354510329
 32
0.0
 13
87.70443259162517
 23
74.51106354510329
 33
0.0
  0
SOLID
  5
1221
330
1F
100
AcDbEntity
  8
LOGO
 62
     5
100
AcDbTrace
 10
87.40628696828322
 20
74.06384511009128
 30
0.0
 11
87.70443259162517
 21
74.06384511009128
 31
0.0
 12
87.40628696828322
 22
72.57311699338515
 32
0.0
 13
87.70443259162517
 23
72.57311699338561
 33
0.0
  0
SOLID
  5
1222
330
1F
100
AcDbEntity
  8
LOGO
 62
     5
100
AcDbTrace
 10
90.33810195540832
 20
75.55457322679718
 30
0.0
 11
91.20272426309815
 21
75.55457322679718
 31
0.0
 12
90.33810195540832
 22
79.92737570246754
 32
0.0
 13
91.20272426309815
 23
83.09765749732878
 33
0.0
  0
SOLID
  5
1223
330
1F
100
AcDbEntity
  8
LOGO
 62
     5
100
AcDbTrace
 10
91.56049901110804
 20
83.75357786867926
 30
0.0
 11
92.42512131879697
 21
83.7535778686797
 31
0.0
 12
91.56049901110804
 22
76.21049359814765
 32
0.0
 13
92.42512131879697
 23
79.38077539300889
 33
0.0
  0
SOLID
  5
1224
330
1F
100
AcDbEntity
  8
LOGO
 62
     2
100
AcDbTrace
 10
91.20272426309815
 20
83.75357786867926
 30
0.0
 11
91.56049901110804
 21
83.75357786867926
 31
0.0
 12
91.20272426309815
 22
75.55457322679718
 32
0.0
 13
91.56049901110804
 23
75.55457322679718
 33
0.0
  0
SOLID
  5
1225
330
1F
100
AcDbEntity
  8
LOGO
 62
     5
100
AcDbTrace
 10
91.56049901110804
 20
76.21049359814765
 30
0.0
 11
92.42512131879697
 21
79.38077539300889
 31
0.0
 12
95.67490861321562
 22
83.7535778686797
 32
0.0
 13
94.81028630552669
 23
83.7535778686797
 33
0.0
  0
SOLID
  5
1226
330
1F
100
AcDbEntity
  8
LOGO
 62
     5
100
AcDbTrace
 10
91.56049901110804
 20
75.55457322679718
 30
0.0
 11
92.42512131879697
 21
75.55457322679718
 31
0.0
 12
95.67490861321562
 22
83.09765749732878
 32
0.0
 13
94.81028630552669
 23
79.92737570246754
 33
0.0
  0
SOLID
  5
1227
330
1F
100
AcDbEntity
  8
LOGO
 62
     2
100
AcDbTrace
 10
91.20272426309815
 20
75.55457322679718
 30
0.0
 11
91.56049901110804
 21
75.55457322679718
 31
0.0
 12
95.67490861321562
 22
83.7535778686797
 32
0.0
 13
96.03268336122551
 23
83.75357786867926
 33
0.0
  0
LWPOLYLINE
  5
1228
330
1F
100
AcDbEntity
  8
LOGO
 62
     4
100
AcDbPolyline
 90
        4
 70
     1
 43
0.0
 10
83.79118596486865
 20
84.22860175456253
 10
358.7911859648686
 20
84.22860175456253
 10
358.7911859648686
 20
64.23149768216399
 10
83.79118596486865
 20
64.23149768216399
1001
GENIUS_GENREC_14
1002
{
1000
PYDIR
1011
83.79118596486865
1021
64.23149768216399
1031
0.0
1002
}
1002
{
1000
PXDIR
1011
358.7911859648686
1021
84.22860175456253
1031
0.0
1002
}
1002
{
1000
PORI
1011
83.79118596486865
1021
84.22860175456253
1031
0.0
1002
}
1002
{
1000
PINS
1011
83.79118596486865
1021
84.22860175456253
1031
0.0
1002
}
1002
{
1000
PINS2
1011
358.7911859648686
1021
64.23149768216399
1031
0.0
1002
}
1002
{
1000
C
1070
     1
1002
}
1001
GENIUS_GENOBJ-N-REC_13
1002
{
1000
OWNER
1000
GEN
1002
}
1001
GENIUS_GENODEF_13
1002
{
1000
HIER
1070
     0
1002
}
1002
{
1000
MANEDIT
1070
     0
1002
}
1002
{
1000
NOSEL
1070
     0
1002
}
1002
{
1000
BEHIND
1070
     0
1002
}
1002
{
1000
OTHER
1070
     0
1002
}
1002
{
1000
REACTOR
1002
}
  0
LINE
  5
1229
330
1F
100
AcDbEntity
  8
LOGO
 62
     4
100
AcDbLine
 10
168.621346774127
 20
73.23019451474374
 30
0.0
 11
168.621346774127
 21
65.89792302153068
 31
0.0
  0
LINE
  5
122A
330
1F
100
AcDbEntity
  8
LOGO
 62
     4
100
AcDbLine
 10
155.2899440591948
 20
73.23019451474374
 30
0.0
 11
155.2899440591948
 21
65.89792302153068
 31
0.0
  0
LINE
  5
122B
330
1F
100
AcDbEntity
  8
LOGO
 62
     4
100
AcDbLine
 10
168.621346774127
 20
65.89792302153068
 30
0.0
 11
155.2899440591948
 21
65.89792302153068
 31
0.0
  0
LINE
  5
122C
330
1F
100
AcDbEntity
  8
LOGO
 62
     4
100
AcDbLine
 10
171.0124755305999
 20
82.22889134732259
 30
0.0
 11
155.2899440591948
 21
82.22889134732259
 31
0.0
  0
LINE
  5
122D
330
1F
100
AcDbEntity
  8
LOGO
 62
     4
100
AcDbLine
 10
171.0124755305999
 20
76.22976012560321
 30
0.0
 11
155.2899440591948
 21
76.22976012560321
 31
0.0
  0
LINE
  5
122E
330
1F
100
AcDbEntity
  8
LOGO
 62
     4
100
AcDbLine
 10
155.2899440591948
 20
82.22889134732259
 30
0.0
 11
155.2899440591948
 21
76.22976012560321
 31
0.0
  0
LINE
  5
122F
330
1F
100
AcDbEntity
  8
LOGO
 62
     4
100
AcDbLine
 10
171.0124755305999
 20
82.22889134732259
 30
0.0
 11
171.0124755305999
 21
76.22976012560321
 31
0.0
  0
LINE
  5
1230
330
1F
100
AcDbEntity
  8
LOGO
 62
     4
100
AcDbLine
 10
162.6512097948973
 20
76.22976012560321
 30
0.0
 11
162.6512097948973
 21
73.23019451474374
 31
0.0
  0
TEXT
  5
1231
330
1F
100
AcDbEntity
  8
LOGO
  6
Continuous
100
AcDbText
 10
156.3558957224747
 20
77.48206999740819
 30
0.0
 40
3.5
  1
MCHQ
  7
CHINESET
100
AcDbText
  0
LINE
  5
1232
330
1F
100
AcDbEntity
  8
LOGO
 62
     4
100
AcDbLine
 10
168.621346774127
 20
73.23019451474374
 30
0.0
 11
155.2899440591948
 21
73.23019451474374
 31
0.0
  0
TEXT
  5
1233
330
1F
100
AcDbEntity
  8
LOGO
  6
Continuous
100
AcDbText
 10
159.5679489838378
 20
66.9328575943548
 30
131.0577257600498
 40
1.5
  1
Model
 41
0.8
  7
CHINESET
100
AcDbText
  0
TEXT
  5
1234
330
1F
100
AcDbEntity
  8
LOGO
100
AcDbText
 10
159.1686977458387
 20
69.71353432128217
 30
131.0577257600498
 40
2.5
  1
型號
  7
CHINESET
100
AcDbText
  0
LINE
  5
1235
330
1F
100
AcDbEntity
  8
LOGO
  6
Continuous
100
AcDbLine
 10
171.6502327616056
 20
79.20807586558885
 30
0.0
 11
174.2992302105451
 21
79.20807586558885
 31
0.0
  0
LINE
  5
1241
330
1F
100
AcDbEntity
  8
LOGO
 62
     4
100
AcDbLine
 10
183.7853165597373
 20
73.23019451474374
 30
0.0
 11
183.7853165597373
 21
65.89792302153068
 31
0.0
  0
LINE
  5
1242
330
1F
100
AcDbEntity
  8
LOGO
 62
     4
100
AcDbLine
 10
170.4539138448051
 20
73.23019451474374
 30
0.0
 11
170.4539138448051
 21
65.89792302153068
 31
0.0
  0
LINE
  5
1243
330
1F
100
AcDbEntity
  8
LOGO
 62
     4
100
AcDbLine
 10
183.7853165597373
 20
65.89792302153068
 30
0.0
 11
170.4539138448051
 21
65.89792302153068
 31
0.0
  0
LINE
  5
1244
330
1F
100
AcDbEntity
  8
LOGO
 62
     4
100
AcDbLine
 10
185.6129160473376
 20
82.22889134732259
 30
0.0
 11
175.3619214640577
 21
82.22889134732259
 31
0.0
  0
LINE
  5
1245
330
1F
100
AcDbEntity
  8
LOGO
 62
     4
100
AcDbLine
 10
185.6129160473376
 20
76.22976012560321
 30
0.0
 11
175.3619214640577
 21
76.22976012560321
 31
0.0
  0
LINE
  5
1246
330
1F
100
AcDbEntity
  8
LOGO
 62
     4
100
AcDbLine
 10
175.3619214640577
 20
82.22889134732259
 30
0.0
 11
175.3619214640577
 21
76.22976012560321
 31
0.0
  0
LINE
  5
1247
330
1F
100
AcDbEntity
  8
LOGO
 62
     4
100
AcDbLine
 10
185.6129160473376
 20
82.22889134732259
 30
0.0
 11
185.6129160473376
 21
76.22976012560321
 31
0.0
  0
LINE
  5
1248
330
1F
100
AcDbEntity
  8
LOGO
 62
     4
100
AcDbLine
 10
179.9711650254887
 20
76.22976012560321
 30
0.0
 11
179.9711650254887
 21
73.23019451474374
 31
0.0
  0
TEXT
  5
1249
330
1F
100
AcDbEntity
  8
LOGO
  6
Continuous
100
AcDbText
 10
177.879799140996
 20
77.48206999740819
 30
0.0
 40
3.5
  1
64
  7
CHINESET
100
AcDbText
  0
LINE
  5
124A
330
1F
100
AcDbEntity
  8
LOGO
 62
     4
100
AcDbLine
 10
183.7853165597373
 20
73.23019451474374
 30
0.0
 11
170.4539138448051
 21
73.23019451474374
 31
0.0
  0
TEXT
  5
1258
330
1F
100
AcDbEntity
  8
LOGO
  6
Continuous
100
AcDbText
 10
172.2839769897034
 20
66.9328575943548
 30
131.0577257600498
 40
1.5
  1
Body width
 41
0.8
  7
CHINESET
100
AcDbText
  0
TEXT
  5
1259
330
1F
100
AcDbEntity
  8
LOGO
100
AcDbText
 10
172.1159379399239
 20
69.71353432128217
 30
131.0577257600498
 40
2.5
  1
本體寬度
  7
CHINESET
100
AcDbText
  0
LINE
  5
125C
330
1F
100
AcDbEntity
  8
LOGO
 62
     4
100
AcDbLine
 10
196.3443175475122
 20
82.22889134732259
 30
0.0
 11
186.8600053323134
 21
82.22889134732259
 31
0.0
  0
LINE
  5
125D
330
1F
100
AcDbEntity
  8
LOGO
 62
     4
100
AcDbLine
 10
196.3443175475122
 20
76.22976012560321
 30
0.0
 11
186.8600053323134
 21
76.22976012560321
 31
0.0
  0
LINE
  5
125E
330
1F
100
AcDbEntity
  8
LOGO
 62
     4
100
AcDbLine
 10
186.8600053323134
 20
82.22889134732259
 30
0.0
 11
186.8600053323134
 21
76.22976012560321
 31
0.0
  0
LINE
  5
125F
330
1F
100
AcDbEntity
  8
LOGO
 62
     4
100
AcDbLine
 10
196.3443175475122
 20
82.22889134732259
 30
0.0
 11
196.3443175475122
 21
76.22976012560321
 31
0.0
  0
TEXT
  5
1260
330
1F
100
AcDbEntity
  8
LOGO
  6
Continuous
100
AcDbText
 10
188.2542190177155
 20
77.48206999740819
 30
0.0
 40
3.5
  1
(M)
  7
CHINESET
100
AcDbText
  0
LINE
  5
1261
330
1F
100
AcDbEntity
  8
LOGO
 62
     4
100
AcDbLine
 10
197.7714765682594
 20
73.23019451474374
 30
0.0
 11
197.7714765682594
 21
65.89792302153068
 31
0.0
  0
LINE
  5
1262
330
1F
100
AcDbEntity
  8
LOGO
 62
     4
100
AcDbLine
 10
186.9109237498383
 20
73.23019451474374
 30
0.0
 11
186.9109237498383
 21
65.89792302153068
 31
0.0
  0
LINE
  5
1263
330
1F
100
AcDbEntity
  8
LOGO
 62
     4
100
AcDbLine
 10
197.7714765682594
 20
65.89792302153068
 30
0.0
 11
186.9109237498383
 21
65.89792302153068
 31
0.0
  0
LINE
  5
1264
330
1F
100
AcDbEntity
  8
LOGO
 62
     4
100
AcDbLine
 10
197.7714765682594
 20
73.23019451474374
 30
0.0
 11
186.9109237498383
 21
73.23019451474374
 31
0.0
  0
TEXT
  5
1265
330
1F
100
AcDbEntity
  8
LOGO
  6
Continuous
100
AcDbText
 10
189.2717284276573
 20
66.9328575943548
 30
131.0577257600498
 40
1.5
  1
Magnet
 41
0.8
  7
CHINESET
100
AcDbText
  0
TEXT
  5
1266
330
1F
100
AcDbEntity
  8
LOGO
100
AcDbText
 10
188.471801414626
 20
69.71353432128217
 30
131.0577257600498
 40
2.5
  1
附磁石
  7
CHINESET
100
AcDbText
  0
LINE
  5
1267
330
1F
100
AcDbEntity
  8
LOGO
 62
     4
100
AcDbLine
 10
191.6021614399133
 20
76.22976012560321
 30
0.0
 11
191.6021614399133
 21
73.23019451474374
 31
0.0
  0
TEXT
  5
1268
330
1F
100
AcDbEntity
  8
LOGO
100
AcDbText
 10
128.878017182049
 20
65.29533572608556
 30
0.0
 40
2.0
  1
10706051
 41
0.7
  7
CHINESET
 72
     1
 11
133.578017182049
 21
65.29533572608556
 31
0.0
100
AcDbText
  0
LINE
  5
1269
330
1F
100
AcDbEntity
  8
LOGO
 62
     4
100
AcDbLine
 10
139.7848149241438
 20
68.23091849664433
 30
0.0
 11
139.7848149241447
 21
64.23149768216444
 31
0.0
  0
LINE
  5
126A
330
1F
100
AcDbEntity
  8
LOGO
 62
     4
100
AcDbLine
 10
139.7848149241438
 20
68.23091849664433
 30
0.0
 11
127.7848149241447
 21
68.23091849664433
 31
0.0
  0
CIRCLE
  5
126B
330
1F
100
AcDbEntity
  8
LOGO
  6
Continuous
100
AcDbCircle
 10
118.1561261480408
 20
78.2337479280377
 30
0.0
 40
1.161078930320631
  0
CIRCLE
  5
126C
330
1F
100
AcDbEntity
  8
LOGO
  6
Continuous
100
AcDbCircle
 10
118.1561261480408
 20
78.2337479280377
 30
0.0
 40
0.6802894686655972
  0
LINE
  5
126D
330
1F
100
AcDbEntity
  8
LOGO
100
AcDbLine
 10
125.4524808720773
 20
77.07266899771685
 30
0.0
 11
125.4524808720773
 21
79.39482685835855
 31
0.0
  0
LINE
  5
126E
330
1F
100
AcDbEntity
  8
LOGO
100
AcDbLine
 10
121.8125650746331
 20
77.55345845937222
 30
0.0
 11
121.8125650746331
 21
78.91403739670341
 31
0.0
  0
LINE
  5
126F
330
1F
100
AcDbEntity
  8
LOGO
  6
Continuous
100
AcDbLine
 10
121.8125650746331
 20
78.91403739670341
 30
0.0
 11
125.4524808720773
 21
79.39482685835855
 31
0.0
  0
LINE
  5
1270
330
1F
100
AcDbEntity
  8
LOGO
  6
Continuous
100
AcDbLine
 10
121.8125650746331
 20
77.55345845937222
 30
0.0
 11
125.4524808720773
 21
77.07266899771685
 31
0.0
  0
LINE
  5
1271
330
1F
100
AcDbEntity
  8
LOGO
  6
AM_ISO08W050x2
 48
0.3
100
AcDbLine
 10
116.5555614568059
 20
78.2337479280377
 30
0.0
 11
119.7566908392757
 21
78.2337479280377
 31
0.0
1001
GENIUS_GENOREF_13
1005
1276
  0
LINE
  5
1272
330
1F
100
AcDbEntity
  8
LOGO
  6
AM_ISO08W050x2
 48
0.3
100
AcDbLine
 10
118.1561261480408
 20
76.63318323680278
 30
0.0
 11
118.1561261480408
 21
79.83431261927262
 31
0.0
1001
GENIUS_GENOREF_13
1005
1275
  0
LINE
  5
1273
330
1F
100
AcDbEntity
  8
LOGO
  6
CENTER
 48
0.5
100
AcDbLine
 10
121.5214729818237
 20
78.2337479280377
 30
0.0
 11
125.819008609865
 21
78.2337479280377
 31
0.0
1001
GENIUS_GENOREF_13
1005
1274
  0
POINT
  5
1274
330
1F
100
AcDbEntity
  8
0
 60
     1
100
AcDbPoint
 10
-1988.549973775114
 20
-873.9018046235621
 30
0.0
1001
GENIUS_GENOBJ-N-CRS_13
1002
{
1000
OWNER
1000
GEN
1002
}
1001
GENIUS_GENOLIS_13
1002
{
1000
ENT
1005
0
1005
0
1005
0
1005
1273
1002
}
1001
GENIUS_GENOENT_13
1002
{
1000
MYREF
1005
1274
1002
}
1002
{
1000
GRP
1005
0
1002
}
1001
GENIUS_GENODEF_13
1002
{
1000
HIER
1070
    10
1002
}
1002
{
1000
MANEDIT
1070
     1
1002
}
1002
{
1000
NOSEL
1070
     0
1002
}
1002
{
1000
BEHIND
1070
     0
1002
}
1002
{
1000
OTHER
1070
     0
1002
}
1002
{
1000
REACTOR
1002
}
  0
POINT
  5
1275
330
1F
100
AcDbEntity
  8
0
 60
     1
100
AcDbPoint
 10
-1999.874558997969
 20
-865.0262181449258
 30
0.0
1001
GENIUS_GENOBJ-N-CRS_13
1002
{
1000
OWNER
1000
GEN
1002
}
1001
GENIUS_GENOLIS_13
1002
{
1000
ENT
1005
0
1005
0
1005
0
1005
1272
1002
}
1001
GENIUS_GENOENT_13
1002
{
1000
MYREF
1005
1275
1002
}
1002
{
1000
GRP
1005
0
1002
}
1001
GENIUS_GENODEF_13
1002
{
1000
HIER
1070
    10
1002
}
1002
{
1000
MANEDIT
1070
     1
1002
}
1002
{
1000
NOSEL
1070
     0
1002
}
1002
{
1000
BEHIND
1070
     0
1002
}
1002
{
1000
OTHER
1070
     0
1002
}
1002
{
1000
REACTOR
1002
}
  0
POINT
  5
1276
330
1F
100
AcDbEntity
  8
0
 60
     1
100
AcDbPoint
 10
-1993.515885300132
 20
-873.9018046235621
 30
0.0
1001
GENIUS_GENOBJ-N-CRS_13
1002
{
1000
OWNER
1000
GEN
1002
}
1001
GENIUS_GENOLIS_13
1002
{
1000
ENT
1005
0
1005
0
1005
0
1005
1271
1002
}
1001
GENIUS_GENOENT_13
1002
{
1000
MYREF
1005
1276
1002
}
1002
{
1000
GRP
1005
0
1002
}
1001
GENIUS_GENODEF_13
1002
{
1000
HIER
1070
    10
1002
}
1002
{
1000
MANEDIT
1070
     1
1002
}
1002
{
1000
NOSEL
1070
     0
1002
}
1002
{
1000
BEHIND
1070
     0
1002
}
1002
{
1000
OTHER
1070
     0
1002
}
1002
{
1000
REACTOR
1002
}
  0
ARC
  5
127C
330
1F
100
AcDbEntity
  8
AM_4
100
AcDbCircle
 10
285.223810321235
 20
199.1054305753199
 30
0.0
 40
2.5
100
AcDbArc
 50
260.0
 51
170.0
  0
CIRCLE
  5
127D
330
1F
100
AcDbEntity
  8
AM_0
100
AcDbCircle
 10
285.223810321235
 20
199.1054305753199
 30
0.0
 40
2.066987298107819
  0
ARC
  5
127E
330
1F
100
AcDbEntity
  8
AM_4
100
AcDbCircle
 10
312.2238103212351
 20
199.1054305753199
 30
0.0
 40
2.5
100
AcDbArc
 50
260.0
 51
170.0
  0
CIRCLE
  5
127F
330
1F
100
AcDbEntity
  8
AM_0
100
AcDbCircle
 10
312.2238103212351
 20
199.1054305753199
 30
0.0
 40
2.066987298107819
  0
ARC
  5
1280
330
1F
100
AcDbEntity
  8
AM_4
100
AcDbCircle
 10
285.223810321235
 20
157.1054305753199
 30
0.0
 40
2.5
100
AcDbArc
 50
260.0
 51
170.0
  0
CIRCLE
  5
1281
330
1F
100
AcDbEntity
  8
AM_0
100
AcDbCircle
 10
285.223810321235
 20
157.1054305753199
 30
0.0
 40
2.066987298107819
  0
ARC
  5
1282
330
1F
100
AcDbEntity
  8
AM_4
100
AcDbCircle
 10
312.223810321235
 20
157.1054305753199
 30
0.0
 40
2.5
100
AcDbArc
 50
260.0
 51
170.0
  0
CIRCLE
  5
1283
330
1F
100
AcDbEntity
  8
AM_0
100
AcDbCircle
 10
312.223810321235
 20
157.1054305753199
 30
0.0
 40
2.066987298107819
  0
ENDSEC
  0
SECTION
  2
OBJECTS
  0
DICTIONARY
  5
C
330
0
100
AcDbDictionary
281
     1
  3
ACAD_COLOR
350
BE
  3
ACAD_GROUP
350
D
  3
ACAD_LAYOUT
350
1A
  3
ACAD_MATERIAL
350
BD
  3
ACAD_MLINESTYLE
350
17
  3
ACAD_PLOTSETTINGS
350
19
  3
ACAD_PLOTSTYLENAME
350
E
  3
ACAD_TABLESTYLE
350
11A
  3
ACDBHEADERROUNDTRIPXREC
350
12CE
  3
AcDbVariableDictionary
350
94
  3
AcmDictionary
350
5B
  3
AMG
350
41
  3
AMGSNAPSETTINGS
350
1B8
  3
DWGPROPS
350
12CD
  0
DICTIONARY
  5
3F9
330
2
100
AcDbDictionary
280
     1
281
     1
  3
ACAD_LAYERFILTERS
360
5B7
  3
ACAD_LAYERSTATES
360
1141
  3
ACLYDICTIONARY
360
5B6
  3
AMLAYER_GROUPCOLORS
360
108C
  0
DICTIONARY
  5
8F
330
1F
100
AcDbDictionary
280
     1
281
     1
  3
ACAD_SORTENTS
360
10C1
  0
DICTIONARY
  5
E6B
330
E5E
100
AcDbDictionary
280
     1
281
     1
  3
ACAD_DIMASSOC
360
E6C
  0
DICTIONARY
  5
E91
330
E84
100
AcDbDictionary
280
     1
281
     1
  3
ACAD_DIMASSOC
360
E92
  0
DICTIONARY
  5
EB7
330
EAA
100
AcDbDictionary
280
     1
281
     1
  3
ACAD_DIMASSOC
360
EB8
  0
DICTIONARY
  5
EDD
330
ED0
100
AcDbDictionary
280
     1
281
     1
  3
ACAD_DIMASSOC
360
EDE
  0
DICTIONARY
  5
F03
330
EF6
100
AcDbDictionary
280
     1
281
     1
  3
ACAD_DIMASSOC
360
F04
  0
DICTIONARY
  5
F4F
330
F42
100
AcDbDictionary
280
     1
281
     1
  3
ACAD_DIMASSOC
360
F50
  0
DICTIONARY
  5
F79
330
F6C
100
AcDbDictionary
280
     1
281
     1
  3
ACAD_DIMASSOC
360
F7A
  0
DICTIONARY
  5
F9F
330
F92
100
AcDbDictionary
280
     1
281
     1
  3
ACAD_DIMASSOC
360
FA0
  0
DICTIONARY
  5
FD5
330
FC6
100
AcDbDictionary
280
     1
281
     1
  3
ACAD_DIMASSOC
360
FD6
  0
DICTIONARY
  5
FFD
330
FF0
100
AcDbDictionary
280
     1
281
     1
  3
ACAD_DIMASSOC
360
FFE
  0
DICTIONARY
  5
BE
102
{ACAD_REACTORS
330
C
102
}
330
C
100
AcDbDictionary
281
     1
  0
DICTIONARY
  5
D
102
{ACAD_REACTORS
330
C
102
}
330
C
100
AcDbDictionary
281
     1
  0
DICTIONARY
  5
1A
102
{ACAD_REACTORS
330
C
102
}
330
C
100
AcDbDictionary
281
     1
  3
Model
350
22
  3
配置1
350
1E
  3
配置2
350
26
  0
DICTIONARY
  5
BD
102
{ACAD_REACTORS
330
C
102
}
330
C
100
AcDbDictionary
281
     1
  0
DICTIONARY
  5
17
102
{ACAD_REACTORS
330
C
102
}
330
C
100
AcDbDictionary
281
     1
  3
Standard
350
18
  0
DICTIONARY
  5
19
102
{ACAD_REACTORS
330
C
102
}
330
C
100
AcDbDictionary
281
     1
  0
ACDBDICTIONARYWDFLT
  5
E
102
{ACAD_REACTORS
330
C
102
}
330
C
100
AcDbDictionary
281
     1
  3
Normal
350
F
100
AcDbDictionaryWithDefault
340
F
  0
DICTIONARY
  5
11A
102
{ACAD_REACTORS
330
C
102
}
330
C
100
AcDbDictionary
281
     1
  3
Standard
350
11B
  0
DICTIONARY
  5
12CE
102
{ACAD_REACTORS
330
C
102
}
330
C
100
AcDbDictionary
281
     1
  0
DICTIONARY
  5
94
102
{ACAD_REACTORS
330
C
102
}
330
C
100
AcDbDictionary
281
     1
  3
CTABLESTYLE
350
138
  3
DIMASSOC
350
96
  3
INDEXCTL
350
95
  3
PROJECTNAME
350
12CB
  0
DICTIONARY
  5
5B
102
{ACAD_REACTORS
330
C
102
}
330
C
100
AcDbDictionary
281
     1
  3
AcmBOM
350
1B5
  3
AcmStdDictionary
350
61
  3
AMDTSECTSYM_ARROWCOLOR
350
123
  0
DICTIONARY
  5
41
102
{ACAD_REACTORS
330
C
102
}
330
C
100
AcDbDictionary
281
     1
  0
DICTIONARY
  5
1B8
102
{ACAD_REACTORS
330
C
102
}
330
C
100
AcDbDictionary
281
     1
  0
XRECORD
  5
12CD
102
{ACAD_REACTORS
330
C
102
}
330
C
100
AcDbXrecord
280
     1
  1
DWGPROPS COOKIE
  2

  3

  4

  6

  7

  8

  9

300
AmdtFileType=84
301
=
302
=
303
=
304
=
305
=
306
=
307
=
308
=
309
=
 40
0.0130334953703704
 41
2454258.477603437
 42
2454258.575474167
  1

 90
        1
  0
DICTIONARY
  5
5B7
102
{ACAD_REACTORS
330
3F9
102
}
330
3F9
100
AcDbDictionary
281
     1
  0
DICTIONARY
  5
1141
102
{ACAD_REACTORS
330
3F9
102
}
330
3F9
100
AcDbDictionary
281
     1
  0
DICTIONARY
  5
5B6
102
{ACAD_REACTORS
330
3F9
102
}
330
3F9
100
AcDbDictionary
281
     1
1001
ACAD
1000
<All
  0
DICTIONARY
  5
108C
102
{ACAD_REACTORS
330
3F9
102
}
330
3F9
100
AcDbDictionary
280
     1
281
     1
  0
SORTENTSTABLE
  5
10C1
102
{ACAD_REACTORS
330
8F
102
}
330
8F
100
AcDbSortentsTable
330
1F
331
E40
  5
E40
331
DC4
  5
DC4
331
E03
  5
E03
331
E0B
  5
E0B
331
D95
  5
D95
331
DCC
  5
DCC
331
E13
  5
E13
331
DD4
  5
DD4
331
DDC
  5
DDC
331
D5E
  5
D5E
331
E19
  5
E19
331
E21
  5
E21
331
E31
  5
E31
331
10CB
  5
10CB
331
DE4
  5
DE4
331
D66
  5
D66
331
DA5
  5
DA5
331
DEC
  5
DEC
331
D6E
  5
D6E
331
DB5
  5
DB5
331
DF4
  5
DF4
331
D7E
  5
D7E
331
E41
  5
E41
331
FC6
  5
FC6
331
ED0
  5
ED0
331
E04
  5
E04
331
DC5
  5
DC5
331
E0C
  5
E0C
331
D96
  5
D96
331
D9E
  5
D9E
331
DD5
  5
DD5
331
E14
  5
E14
331
DDD
  5
DDD
331
D5F
  5
D5F
331
E1A
  5
E1A
331
10CC
  5
10CC
331
E32
  5
E32
331
DA6
  5
DA6
331
DE5
  5
DE5
331
D67
  5
D67
331
DED
  5
DED
331
D6F
  5
D6F
331
DAE
  5
DAE
331
DF5
  5
DF5
331
D77
  5
D77
331
DB6
  5
DB6
331
DBE
  5
DBE
331
DFD
  5
DFD
331
E3A
  5
E3A
331
E42
  5
E42
331
DC6
  5
DC6
331
E05
  5
E05
331
E0D
  5
E0D
331
D97
  5
D97
331
DCE
  5
DCE
331
E15
  5
E15
331
D9F
  5
D9F
331
DD6
  5
DD6
331
DDE
  5
DDE
331
E1B
  5
E1B
331
E2B
  5
E2B
331
E33
  5
E33
331
EAA
  5
EAA
331
D60
  5
D60
331
DE6
  5
DE6
331
D68
  5
D68
331
DA7
  5
DA7
331
DEE
  5
DEE
331
D70
  5
D70
331
DB7
  5
DB7
331
DF6
  5
DF6
331
D78
  5
D78
331
DFE
  5
DFE
331
DBF
  5
DBF
331
E3B
  5
E3B
331
E43
  5
E43
331
FF0
  5
FF0
331
E06
  5
E06
331
DC7
  5
DC7
331
D98
  5
D98
331
DCF
  5
DCF
331
E0E
  5
E0E
331
DD7
  5
DD7
331
E16
  5
E16
331
DDF
  5
DDF
331
E1C
  5
E1C
331
E24
  5
E24
331
E2C
  5
E2C
331
F42
  5
F42
331
DA0
  5
DA0
331
D61
  5
D61
331
DA8
  5
DA8
331
DE7
  5
DE7
331
D69
  5
D69
331
D71
  5
D71
331
DB0
  5
DB0
331
DF7
  5
DF7
331
D79
  5
D79
331
DB8
  5
DB8
331
DFF
  5
DFF
331
E3C
  5
E3C
331
E44
  5
E44
331
DC0
  5
DC0
331
D81
  5
D81
331
D91
  5
D91
331
DC8
  5
DC8
331
E0F
  5
E0F
331
D99
  5
D99
331
E17
  5
E17
331
DD8
  5
DD8
331
E84
  5
E84
331
E1D
  5
E1D
331
F92
  5
F92
331
E25
  5
E25
331
E2D
  5
E2D
331
D62
  5
D62
331
DA1
  5
DA1
331
DA9
  5
DA9
331
DE8
  5
DE8
331
D6A
  5
D6A
331
DB1
  5
DB1
331
DF0
  5
DF0
331
D72
  5
D72
331
DF8
  5
DF8
331
DB9
  5
DB9
331
E3D
  5
E3D
331
E00
  5
E00
331
DC1
  5
DC1
331
E08
  5
E08
331
D92
  5
D92
331
DC9
  5
DC9
331
D9A
  5
D9A
331
DD1
  5
DD1
331
E10
  5
E10
331
E1E
  5
E1E
331
E26
  5
E26
331
10C8
  5
10C8
331
E2E
  5
E2E
331
E36
  5
E36
331
DA2
  5
DA2
331
DE1
  5
DE1
331
D63
  5
D63
331
DAA
  5
DAA
331
DE9
  5
DE9
331
D6B
  5
D6B
331
DF1
  5
DF1
331
DB2
  5
DB2
331
DBA
  5
DBA
331
DF9
  5
DF9
331
E3E
  5
E3E
331
F6C
  5
F6C
331
E5E
  5
E5E
331
DC2
  5
DC2
331
E01
  5
E01
331
D83
  5
D83
331
E09
  5
E09
331
D93
  5
D93
331
E11
  5
E11
331
D9B
  5
D9B
331
DD2
  5
DD2
331
E1F
  5
E1F
331
E27
  5
E27
331
E2F
  5
E2F
331
10C9
  5
10C9
331
E37
  5
E37
331
DE2
  5
DE2
331
D64
  5
D64
331
DA3
  5
DA3
331
DAB
  5
DAB
331
DEA
  5
DEA
331
D6C
  5
D6C
331
DB3
  5
DB3
331
DF2
  5
DF2
331
D74
  5
D74
331
DFA
  5
DFA
331
E3F
  5
E3F
331
E02
  5
E02
331
DC3
  5
DC3
331
DCB
  5
DCB
331
E0A
  5
E0A
331
D94
  5
D94
331
DD3
  5
DD3
331
E12
  5
E12
331
DDB
  5
DDB
331
D5D
  5
D5D
331
E18
  5
E18
331
E20
  5
E20
331
EF6
  5
EF6
331
E28
  5
E28
331
10CA
  5
10CA
331
E30
  5
E30
331
DA4
  5
DA4
331
DE3
  5
DE3
331
D65
  5
D65
331
D6D
  5
D6D
331
DEB
  5
DEB
331
DF3
  5
DF3
331
DB4
  5
DB4
331
DBC
  5
DBC
331
DFB
  5
DFB
  0
DIMASSOC
  5
E6C
102
{ACAD_REACTORS
330
E6B
102
}
330
E6B
100
AcDbDimAssoc
330
E5E
 90
        3
 70
     0
 71
     0
  1
AcDbOsnapPointRef
 72
    13
331
DEC
 73
     0
 91
        0
 40
0.0
 10
0.0
 20
0.0
 30
2.000000000000000E+50
 75
     0
  1
AcDbOsnapPointRef
 72
     1
331
DE3
 73
     0
 91
        0
 40
0.0
 10
0.0
 20
0.0
 30
2.000000000000000E+50
 75
     0
  0
DIMASSOC
  5
E92
102
{ACAD_REACTORS
330
E91
102
}
330
E91
100
AcDbDimAssoc
330
E84
 90
        3
 70
     0
 71
     0
  1
AcDbOsnapPointRef
 72
     1
331
DEC
 73
     0
 91
        0
 40
0.0
 10
0.0
 20
0.0
 30
2.000000000000000E+50
 75
     0
  1
AcDbOsnapPointRef
 72
     1
331
E08
 73
     0
 91
        0
 40
0.0
 10
0.0
 20
0.0
 30
2.000000000000000E+50
 75
     0
  0
DIMASSOC
  5
EB8
102
{ACAD_REACTORS
330
EB7
102
}
330
EB7
100
AcDbDimAssoc
330
EAA
 90
        3
 70
     0
 71
     0
  1
AcDbOsnapPointRef
 72
    13
331
D6B
 73
     0
 91
        0
 40
0.0
 10
0.0
 20
0.0
 30
2.000000000000000E+50
 75
     0
  1
AcDbOsnapPointRef
 72
    13
331
D6A
 73
     0
 91
        0
 40
0.0
 10
0.0
 20
0.0
 30
2.000000000000000E+50
 75
     0
  0
DIMASSOC
  5
EDE
102
{ACAD_REACTORS
330
EDD
102
}
330
EDD
100
AcDbDimAssoc
330
ED0
 90
        3
 70
     0
 71
     0
  1
AcDbOsnapPointRef
 72
    13
331
E3E
 73
     0
 91
        0
 40
0.0
 10
0.0
 20
0.0
 30
2.000000000000000E+50
 75
     0
  1
AcDbOsnapPointRef
 72
    13
331
E40
 73
     0
 91
        0
 40
0.0
 10
0.0
 20
0.0
 30
2.000000000000000E+50
 75
     0
  0
DIMASSOC
  5
F04
102
{ACAD_REACTORS
330
F03
102
}
330
F03
100
AcDbDimAssoc
330
EF6
 90
        3
 70
     0
 71
     0
  1
AcDbOsnapPointRef
 72
     6
331
E3D
 73
     0
 91
        0
 40
1.0
 10
0.0
 20
0.0
 30
0.0
332
DEA
 74
     0
 92
        0
 75
     0
  1
AcDbOsnapPointRef
 72
     6
331
E18
 73
     0
 91
        0
 40
1.0
 10
0.0
 20
0.0
 30
0.0
332
E0B
 74
     0
 92
        0
 75
     0
  0
DIMASSOC
  5
F50
102
{ACAD_REACTORS
330
F4F
102
}
330
F4F
100
AcDbDimAssoc
330
F42
 90
        3
 70
     0
 71
     0
  1
AcDbOsnapPointRef
 72
    13
331
D6A
 73
     0
 91
        0
 40
0.0
 10
0.0
 20
0.0
 30
2.000000000000000E+50
 75
     0
  1
AcDbOsnapPointRef
 72
    13
331
D6F
 73
     0
 91
        0
 40
0.0
 10
0.0
 20
0.0
 30
2.000000000000000E+50
 75
     0
  0
DIMASSOC
  5
F7A
102
{ACAD_REACTORS
330
F79
102
}
330
F79
100
AcDbDimAssoc
330
F6C
 90
        3
 70
     0
 71
     0
  1
AcDbOsnapPointRef
 72
    13
331
D6E
 73
     0
 91
        0
 40
0.0
 10
0.0
 20
0.0
 30
2.000000000000000E+50
 75
     0
  1
AcDbOsnapPointRef
 72
    13
331
D79
 73
     0
 91
        0
 40
0.0
 10
0.0
 20
0.0
 30
2.000000000000000E+50
 75
     0
  0
DIMASSOC
  5
FA0
102
{ACAD_REACTORS
330
F9F
102
}
330
F9F
100
AcDbDimAssoc
330
F92
 90
        3
 70
     0
 71
     0
  1
AcDbOsnapPointRef
 72
    13
331
D74
 73
     0
 91
        0
 40
0.0
 10
0.0
 20
0.0
 30
2.000000000000000E+50
 75
     0
  1
AcDbOsnapPointRef
 72
    13
331
D81
 73
     0
 91
        0
 40
0.0
 10
0.0
 20
0.0
 30
2.000000000000000E+50
 75
     0
  0
DIMASSOC
  5
FD6
102
{ACAD_REACTORS
330
FD5
102
}
330
FD5
100
AcDbDimAssoc
330
FC6
 90
        3
 70
     0
 71
     0
  1
AcDbOsnapPointRef
 72
     1
331
D5F
 73
     0
 91
        0
 40
0.0
 10
0.0
 20
0.0
 30
2.000000000000000E+50
 75
     0
  1
AcDbOsnapPointRef
 72
     6
331
D7E
 73
     0
 91
        0
 40
0.0443572225606345
 10
0.0
 20
0.0
 30
0.0
332
D66
 74
     0
 92
        0
 75
     0
  0
DIMASSOC
  5
FFE
102
{ACAD_REACTORS
330
FFD
102
}
330
FFD
100
AcDbDimAssoc
330
FF0
 90
        3
 70
     0
 71
     0
  1
AcDbOsnapPointRef
 72
    13
331
D7E
 73
     0
 91
        0
 40
0.0
 10
0.0
 20
0.0
 30
2.000000000000000E+50
 75
     0
  1
AcDbOsnapPointRef
 72
    13
331
D77
 73
     0
 91
        0
 40
0.0
 10
0.0
 20
0.0
 30
2.000000000000000E+50
 75
     0
  0
LAYOUT
  5
22
102
{ACAD_XDICTIONARY
360
12D1
102
}
102
{ACAD_REACTORS
330
1A
102
}
330
1A
100
AcDbPlotSettings
  1

  2
\\RD\EPSON Stylus C63 Series單色
  4
A4
  6

 40
3.757083177566528
 41
3.757076978683471
 42
3.757080078125
 43
3.757080078125
 44
209.9733276367187
 45
296.9683227539062
 46
0.0
 47
0.0
 48
0.0
 49
0.0
140
0.0
141
0.0
142
1.0
143
0.3405120737814363
 70
 11952
 72
     1
 73
     0
 74
     0
  7
彩色出圖.ctb
 75
     0
147
2.936753428137963
148
-2047.07469463503
149
-1261.649717473083
100
AcDbLayout
  1
Model
 70
     1
 71
     0
 10
0.0
 20
0.0
 11
12.0
 21
9.0
 12
0.0
 22
0.0
 32
0.0
 14
0.0
 24
0.0
 34
0.0
 15
0.0
 25
0.0
 35
0.0
146
0.0
 13
0.0
 23
0.0
 33
0.0
 16
1.0
 26
0.0
 36
0.0
 17
0.0
 27
1.0
 37
0.0
 76
     0
330
1F
1001
ACAD_PSEXT
1000
\\RD\EPSON Stylus C63 Series單色
1000
EPSON Stylus C63 Series
1000
\\RD
1000

1070
     0
  0
LAYOUT
  5
1E
102
{ACAD_XDICTIONARY
360
12CF
102
}
102
{ACAD_REACTORS
330
1A
102
}
330
1A
100
AcDbPlotSettings
  1

  2

  4

  6

 40
0.0
 41
0.0
 42
0.0
 43
0.0
 44
0.0
 45
0.0
 46
0.0
 47
0.0
 48
0.0
 49
0.0
140
0.0
141
0.0
142
1.0
143
1.0
 70
   688
 72
     0
 73
     0
 74
     5
  7
彩色出圖.ctb
 75
    16
147
1.0
148
0.0
149
0.0
100
AcDbLayout
  1
配置1
 70
     1
 71
     1
 10
0.0
 20
0.0
 11
420.0
 21
297.0
 12
0.0
 22
0.0
 32
0.0
 14
1.000000000000000E+20
 24
1.000000000000000E+20
 34
1.000000000000000E+20
 15
-1.000000000000000E+20
 25
-1.000000000000000E+20
 35
-1.000000000000000E+20
146
0.0
 13
0.0
 23
0.0
 33
0.0
 16
1.0
 26
0.0
 36
0.0
 17
0.0
 27
1.0
 37
0.0
 76
     0
330
1B
  0
LAYOUT
  5
26
102
{ACAD_XDICTIONARY
360
12D3
102
}
102
{ACAD_REACTORS
330
1A
102
}
330
1A
100
AcDbPlotSettings
  1

  2

  4

  6

 40
0.0
 41
0.0
 42
0.0
 43
0.0
 44
0.0
 45
0.0
 46
0.0
 47
0.0
 48
0.0
 49
0.0
140
0.0
141
0.0
142
1.0
143
1.0
 70
   688
 72
     0
 73
     0
 74
     5
  7
彩色出圖.ctb
 75
    16
147
1.0
148
0.0
149
0.0
100
AcDbLayout
  1
配置2
 70
     1
 71
     2
 10
0.0
 20
0.0
 11
12.0
 21
9.0
 12
0.0
 22
0.0
 32
0.0
 14
0.0
 24
0.0
 34
0.0
 15
0.0
 25
0.0
 35
0.0
146
0.0
 13
0.0
 23
0.0
 33
0.0
 16
1.0
 26
0.0
 36
0.0
 17
0.0
 27
1.0
 37
0.0
 76
     0
330
23
  0
MLINESTYLE
  5
18
102
{ACAD_REACTORS
330
17
102
}
330
17
100
AcDbMlineStyle
  2
STANDARD
 70
     0
  3

 62
   256
 51
90.0
 52
90.0
 71
     2
 49
0.5
 62
   256
  6
BYLAYER
 49
-0.5
 62
   256
  6
BYLAYER
  0
ACDBPLACEHOLDER
  5
F
102
{ACAD_REACTORS
330
E
102
}
330
E
  0
TABLESTYLE
  5
11B
102
{ACAD_REACTORS
330
11A
102
}
330
11A
100
AcDbTableStyle
  3
Standard
 70
     0
 71
     0
 40
1.5
 41
1.5
280
     0
281
     0
  7
STANDARD
140
4.5
170
     2
 62
     0
 63
     7
283
     0
274
    -2
284
     1
 64
     0
275
    -2
285
     1
 65
     0
276
    -2
286
     1
 66
     0
277
    -2
287
     1
 67
     0
278
    -2
288
     1
 68
     0
279
    -2
289
     1
 69
     0
  7
STANDARD
140
6.0
170
     5
 62
     0
 63
     7
283
     0
274
    -2
284
     1
 64
     0
275
    -2
285
     1
 65
     0
276
    -2
286
     1
 66
     0
277
    -2
287
     1
 67
     0
278
    -2
288
     1
 68
     0
279
    -2
289
     1
 69
     0
  7
STANDARD
140
4.5
170
     5
 62
     0
 63
     7
283
     0
274
    -2
284
     1
 64
     0
275
    -2
285
     1
 65
     0
276
    -2
286
     1
 66
     0
277
    -2
287
     1
 67
     0
278
    -2
288
     1
 68
     0
279
    -2
289
     1
 69
     0
  0
DICTIONARYVAR
  5
138
102
{ACAD_REACTORS
330
94
102
}
330
94
100
DictionaryVariables
280
     0
  1
STANDARD
  0
DICTIONARYVAR
  5
96
102
{ACAD_REACTORS
330
94
102
}
330
94
100
DictionaryVariables
280
     0
  1
2
  0
DICTIONARYVAR
  5
95
102
{ACAD_REACTORS
330
94
102
}
330
94
100
DictionaryVariables
280
     0
  1
0
  0
DICTIONARYVAR
  5
12CB
102
{ACAD_REACTORS
330
94
102
}
330
94
100
DictionaryVariables
280
     0
  1

  0
DICTIONARY
  5
1B5
102
{ACAD_REACTORS
330
5B
102
}
330
5B
100
AcDbDictionary
281
     1
  0
DICTIONARY
  5
61
102
{ACAD_REACTORS
330
5B
102
}
330
5B
100
AcDbDictionary
281
     1
  0
XRECORD
  5
123
102
{ACAD_REACTORS
330
5B
102
}
330
5B
100
AcDbXrecord
280
     1
 90
-1023410169
  0
DICTIONARY
  5
12D1
330
22
100
AcDbDictionary
280
     1
281
     1
  3
ACAD_XREC_ROUNDTRIP
360
12D2
  0
DICTIONARY
  5
12CF
330
1E
100
AcDbDictionary
280
     1
281
     1
  3
ACAD_XREC_ROUNDTRIP
360
12D0
  0
DICTIONARY
  5
12D3
330
26
100
AcDbDictionary
280
     1
281
     1
  3
ACAD_XREC_ROUNDTRIP
360
12D4
  0
XRECORD
  5
12D2
102
{ACAD_REACTORS
330
12D1
102
}
330
12D1
100
AcDbXrecord
280
     1
102
SHADEPLOT
 70
     0
102
SHADEPLOTRESLEVEL
 70
     2
102
SHADEPLOTCUSTOMDPI
 70
   300
  0
XRECORD
  5
12D0
102
{ACAD_REACTORS
330
12CF
102
}
330
12CF
100
AcDbXrecord
280
     1
102
SHADEPLOT
 70
     0
102
SHADEPLOTRESLEVEL
 70
     2
102
SHADEPLOTCUSTOMDPI
 70
   300
  0
XRECORD
  5
12D4
102
{ACAD_REACTORS
330
12D3
102
}
330
12D3
100
AcDbXrecord
280
     1
102
SHADEPLOT
 70
     0
102
SHADEPLOTRESLEVEL
 70
     2
102
SHADEPLOTCUSTOMDPI
 70
   300
  0
ENDSEC
  0
EOF
