  0
SECTION
  2
HEADER
  9
$ACADVER
  1
AC1015
  9
$ACADMAINTVER
 70
    20
  9
$DWGCODEPAGE
  3
ANSI_950
  9
$INSBASE
 10
0.0
 20
0.0
 30
0.0
  9
$EXTMIN
 10
27.93349701334626
 20
23.03316418750103
 30
-0.0057589333155192
  9
$EXTMAX
 10
423.9706958543418
 20
311.0544959436601
 30
188.7288849065978
  9
$LIMMIN
 10
0.0
 20
0.0
  9
$LIMMAX
 10
420.0
 20
297.0
  9
$ORTHOMODE
 70
     1
  9
$REGENMODE
 70
     1
  9
$FILLMODE
 70
     1
  9
$QTEXTMODE
 70
     0
  9
$MIRRTEXT
 70
     1
  9
$LTSCALE
 40
2.0
  9
$ATTMODE
 70
     1
  9
$TEXTSIZE
 40
3.0
  9
$TRACEWID
 40
1.0
  9
$TEXTSTYLE
  7
CHINESET
  9
$CLAYER
  8
0
  9
$CELTYPE
  6
ByLayer
  9
$CECOLOR
 62
   256
  9
$CELTSCALE
 40
1.0
  9
$DISPSILH
 70
     0
  9
$DIMSCALE
 40
1.0
  9
$DIMASZ
 40
3.0
  9
$DIMEXO
 40
1.0
  9
$DIMDLI
 40
8.0
  9
$DIMRND
 40
0.0
  9
$DIMDLE
 40
0.0
  9
$DIMEXE
 40
1.5
  9
$DIMTP
 40
0.1
  9
$DIMTM
 40
0.1
  9
$DIMTXT
 40
3.5
  9
$DIMCEN
 40
0.0
  9
$DIMTSZ
 40
0.0
  9
$DIMTOL
 70
     0
  9
$DIMLIM
 70
     0
  9
$DIMTIH
 70
     0
  9
$DIMTOH
 70
     0
  9
$DIMSE1
 70
     0
  9
$DIMSE2
 70
     0
  9
$DIMTAD
 70
     1
  9
$DIMZIN
 70
     8
  9
$DIMBLK
  1

  9
$DIMASO
 70
     1
  9
$DIMSHO
 70
     1
  9
$DIMPOST
  1

  9
$DIMAPOST
  1
"
  9
$DIMALT
 70
     0
  9
$DIMALTD
 70
     2
  9
$DIMALTF
 40
0.0393701
  9
$DIMLFAC
 40
1.0
  9
$DIMTOFL
 70
     1
  9
$DIMTVP
 40
0.0
  9
$DIMTIX
 70
     0
  9
$DIMSOXD
 70
     0
  9
$DIMSAH
 70
     0
  9
$DIMBLK1
  1

  9
$DIMBLK2
  1

  9
$DIMSTYLE
  2
AM_ISO
  9
$DIMCLRD
 70
   256
  9
$DIMCLRE
 70
   256
  9
$DIMCLRT
 70
   256
  9
$DIMTFAC
 40
0.6
  9
$DIMGAP
 40
0.8
  9
$DIMJUST
 70
     0
  9
$DIMSD1
 70
     0
  9
$DIMSD2
 70
     0
  9
$DIMTOLJ
 70
     0
  9
$DIMTZIN
 70
     8
  9
$DIMALTZ
 70
     0
  9
$DIMALTTZ
 70
     0
  9
$DIMUPT
 70
     0
  9
$DIMDEC
 70
     2
  9
$DIMTDEC
 70
     8
  9
$DIMALTU
 70
     2
  9
$DIMALTTD
 70
     2
  9
$DIMTXSTY
  7
CHINESET
  9
$DIMAUNIT
 70
     0
  9
$DIMADEC
 70
     0
  9
$DIMALTRND
 40
0.0
  9
$DIMAZIN
 70
     2
  9
$DIMDSEP
 70
    46
  9
$DIMATFIT
 70
     3
  9
$DIMFRAC
 70
     0
  9
$DIMLDRBLK
  1

  9
$DIMLUNIT
 70
     2
  9
$DIMLWD
 70
    -1
  9
$DIMLWE
 70
    -1
  9
$DIMTMOVE
 70
     0
  9
$LUNITS
 70
     2
  9
$LUPREC
 70
     2
  9
$SKETCHINC
 40
1.0
  9
$FILLETRAD
 40
2.5
  9
$AUNITS
 70
     0
  9
$AUPREC
 70
     0
  9
$MENU
  1
.
  9
$ELEVATION
 40
0.0
  9
$PELEVATION
 40
0.0
  9
$THICKNESS
 40
0.0
  9
$LIMCHECK
 70
     0
  9
$CHAMFERA
 40
2.5
  9
$CHAMFERB
 40
2.5
  9
$CHAMFERC
 40
20.0
  9
$CHAMFERD
 40
0.0
  9
$SKPOLY
 70
     0
  9
$TDCREATE
 40
2454258.477603437
  9
$TDUCREATE
 40
2454258.144270105
  9
$TDUPDATE
 40
2454258.577136134
  9
$TDUUPDATE
 40
2454258.243802801
  9
$TDINDWG
 40
0.0820379398
  9
$TDUSRTIMER
 40
0.0820379398
  9
$USRTIMER
 70
     1
  9
$ANGBASE
 50
0.0
  9
$ANGDIR
 70
     0
  9
$PDMODE
 70
     0
  9
$PDSIZE
 40
0.0
  9
$PLINEWID
 40
0.0
  9
$SPLFRAME
 70
     0
  9
$SPLINETYPE
 70
     6
  9
$SPLINESEGS
 70
     8
  9
$HANDSEED
  5
1F20
  9
$SURFTAB1
 70
     6
  9
$SURFTAB2
 70
     6
  9
$SURFTYPE
 70
     6
  9
$SURFU
 70
     6
  9
$SURFV
 70
     6
  9
$UCSBASE
  2

  9
$UCSNAME
  2

  9
$UCSORG
 10
0.0
 20
0.0
 30
0.0
  9
$UCSXDIR
 10
1.0
 20
0.0
 30
0.0
  9
$UCSYDIR
 10
0.0
 20
1.0
 30
0.0
  9
$UCSORTHOREF
  2

  9
$UCSORTHOVIEW
 70
     0
  9
$UCSORGTOP
 10
0.0
 20
0.0
 30
0.0
  9
$UCSORGBOTTOM
 10
0.0
 20
0.0
 30
0.0
  9
$UCSORGLEFT
 10
0.0
 20
0.0
 30
0.0
  9
$UCSORGRIGHT
 10
0.0
 20
0.0
 30
0.0
  9
$UCSORGFRONT
 10
0.0
 20
0.0
 30
0.0
  9
$UCSORGBACK
 10
0.0
 20
0.0
 30
0.0
  9
$PUCSBASE
  2

  9
$PUCSNAME
  2

  9
$PUCSORG
 10
0.0
 20
0.0
 30
0.0
  9
$PUCSXDIR
 10
1.0
 20
0.0
 30
0.0
  9
$PUCSYDIR
 10
0.0
 20
1.0
 30
0.0
  9
$PUCSORTHOREF
  2

  9
$PUCSORTHOVIEW
 70
     0
  9
$PUCSORGTOP
 10
0.0
 20
0.0
 30
0.0
  9
$PUCSORGBOTTOM
 10
0.0
 20
0.0
 30
0.0
  9
$PUCSORGLEFT
 10
0.0
 20
0.0
 30
0.0
  9
$PUCSORGRIGHT
 10
0.0
 20
0.0
 30
0.0
  9
$PUCSORGFRONT
 10
0.0
 20
0.0
 30
0.0
  9
$PUCSORGBACK
 10
0.0
 20
0.0
 30
0.0
  9
$USERI1
 70
     0
  9
$USERI2
 70
     0
  9
$USERI3
 70
     0
  9
$USERI4
 70
     0
  9
$USERI5
 70
     0
  9
$USERR1
 40
0.0
  9
$USERR2
 40
0.0
  9
$USERR3
 40
0.0
  9
$USERR4
 40
0.0
  9
$USERR5
 40
0.0
  9
$WORLDVIEW
 70
     1
  9
$SHADEDGE
 70
     3
  9
$SHADEDIF
 70
    70
  9
$TILEMODE
 70
     1
  9
$MAXACTVP
 70
    64
  9
$PINSBASE
 10
0.0
 20
0.0
 30
0.0
  9
$PLIMCHECK
 70
     0
  9
$PEXTMIN
 10
1.000000000000000E+20
 20
1.000000000000000E+20
 30
1.000000000000000E+20
  9
$PEXTMAX
 10
-1.000000000000000E+20
 20
-1.000000000000000E+20
 30
-1.000000000000000E+20
  9
$PLIMMIN
 10
0.0
 20
0.0
  9
$PLIMMAX
 10
420.0
 20
297.0
  9
$UNITMODE
 70
     0
  9
$VISRETAIN
 70
     1
  9
$PLINEGEN
 70
     0
  9
$PSLTSCALE
 70
     1
  9
$TREEDEPTH
 70
  3020
  9
$CMLSTYLE
  2
Standard
  9
$CMLJUST
 70
     0
  9
$CMLSCALE
 40
20.0
  9
$PROXYGRAPHICS
 70
     1
  9
$MEASUREMENT
 70
     1
  9
$CELWEIGHT
370
    -1
  9
$ENDCAPS
280
     0
  9
$JOINSTYLE
280
     0
  9
$LWDISPLAY
290
     0
  9
$INSUNITS
 70
     4
  9
$HYPERLINKBASE
  1

  9
$STYLESHEET
  1
彩色出圖.ctb
  9
$XEDIT
290
     1
  9
$CEPSNTYPE
380
     0
  9
$PSTYLEMODE
290
     1
  9
$FINGERPRINTGUID
  2
{5AE30D0C-8B0C-47C6-BCF1-2EB8E1B65188}
  9
$VERSIONGUID
  2
{2E8204EE-188F-4E7D-A6C7-00E66B548C77}
  9
$EXTNAMES
290
     1
  9
$PSVPSCALE
 40
0.0
  9
$OLESTARTUP
290
     0
  0
ENDSEC
  0
SECTION
  2
CLASSES
  0
CLASS
  1
ACDBDICTIONARYWDFLT
  2
AcDbDictionaryWithDefault
  3
ObjectDBX Classes
 90
        0
280
     0
281
     0
  0
CLASS
  1
ACDBPLACEHOLDER
  2
AcDbPlaceHolder
  3
ObjectDBX Classes
 90
        0
280
     0
281
     0
  0
CLASS
  1
LAYOUT
  2
AcDbLayout
  3
ObjectDBX Classes
 90
        0
280
     0
281
     0
  0
CLASS
  1
ACME_DOCUMENT
  2
AcMeDbDoc
  3
AcMeServices
 90
        0
280
     0
281
     0
  0
CLASS
  1
AMGSETTINGSOBJ
  2
AmgSettingsObj
  3
"AcadM|Product Description: AutoCAD Mechanical 2000|Company: Autodesk"
 90
        0
280
     0
281
     0
  0
CLASS
  1
ACMESCOPE
  2
AcMeScope
  3
AcMeServices
 90
        0
280
     0
281
     0
  0
CLASS
  1
ACMECOMMANDHISTORY
  2
AcMeCommandHistory
  3
AcMeServices
 90
        0
280
     0
281
     0
  0
CLASS
  1
ACIMSYSVARMAN
  2
AcImSysVarManager
  3
AcMeServices
 90
        0
280
     0
281
     0
  0
CLASS
  1
ACIMREALSYSVAR
  2
AcImRealSysVar
  3
AcMeServices
 90
        0
280
     0
281
     0
  0
CLASS
  1
ACIMINTSYSVAR
  2
AcImIntSysVar
  3
AcMeServices
 90
        0
280
     0
281
     0
  0
CLASS
  1
ACMEDRAWINGMAN
  2
AcMeDrawingMan
  3
AcMeServices
 90
        0
280
     0
281
     0
  0
CLASS
  1
ACMEVIEW
  2
AcMeView
  3
AcMeServices
 90
        0
280
     0
281
     0
  0
CLASS
  1
ACDBENTITYCACHE
  2
AcMeEntityCache
  3
AcMeServices
 90
        0
280
     0
281
     0
  0
CLASS
  1
GSMANAGER
  2
AcMeGSManager
  3
AcMeServices
 90
        0
280
     0
281
     0
  0
CLASS
  1
AMDTINTERNALREACTOR
  2
AmdtInternalReactor
  3
AcMeServices
 90
        0
280
     0
281
     0
  0
CLASS
  1
ACMESTATEMGR
  2
AcMeStateMgr
  3
AcMeServices
 90
        0
280
     0
281
     0
  0
CLASS
  1
ACGREFMASTER
  2
AcGrefMaster
  3
AcAttribServices
 90
        0
280
     0
281
     0
  0
CLASS
  1
ACME_DATABASE
  2
AcMeDbDatabase
  3
AcMeServices
 90
        0
280
     0
281
     0
  0
CLASS
  1
ACRFINSADJUSTERMGR
  2
AcRfInsAdjusterMgr
  3
AcMeServices
 90
        0
280
     0
281
     0
  0
CLASS
  1
ACGREFACADMASTER
  2
AcGrefacadMaster
  3
AcGrefServices
 90
        0
280
     0
281
     0
  0
CLASS
  1
AMIMASTER
  2
AmiMaster
  3
AmiServices
 90
        0
280
     0
281
     0
  0
CLASS
  1
ACMDATADICTIONARY
  2
AcmDataDictionary
  3
"AcmSymBB|Product Description: AutoCAD Mechanical 2004 DX|Company: Autodesk"
 90
        0
280
     0
281
     0
  0
CLASS
  1
ACMDATAENTRYBLOCK
  2
AcmDataEntryBlock
  3
"AcmSymBB|Product Description: AutoCAD Mechanical 2004 DX|Company: Autodesk"
 90
        0
280
     0
281
     0
  0
CLASS
  1
ACIMSTRSYSVAR
  2
AcImStrSysVar
  3
AcMeServices
 90
        0
280
     0
281
     0
  0
CLASS
  1
ACMSTANDARDISO
  2
AcmStandardISO
  3
"Amdt_StdImp|Product Description: AutoCAD Mechanical 2004 DX|Company: Autodesk"
 90
        0
280
     0
281
     0
  0
CLASS
  1
AMGOBJPROPCFG
  2
AmgObjPropCfg
  3
"AmgLay|Product Description: AutoCAD Mechanical 2000|Company: Autodesk"
 90
        1
280
     0
281
     0
  0
CLASS
  1
AMDTEDGESTANDARDISO
  2
AmdtEdgeStdISO
  3
"Amdt_StdImp|Product Description: AutoCAD Mechanical 2004 DX|Company: Autodesk"
 90
        0
280
     0
281
     0
  0
CLASS
  1
ACMSURFSTANDARDISO
  2
AcmSurfTextStdISO
  3
"Amdt_StdImp|Product Description: AutoCAD Mechanical 2004 DX|Company: Autodesk"
 90
        0
280
     0
281
     0
  0
CLASS
  1
ACMFCFSTANDARDISO
  2
AcmFCFStdISO
  3
"Amdt_StdImp|Product Description: AutoCAD Mechanical 2004 DX|Company: Autodesk"
 90
        0
280
     0
281
     0
  0
CLASS
  1
ACMWELDSTANDARDISO
  2
AcmWeldingStdISO
  3
"Amdt_StdImp|Product Description: AutoCAD Mechanical 2004 DX|Company: Autodesk"
 90
        0
280
     0
281
     0
  0
CLASS
  1
ACMIDSTANDARDISO
  2
AcmIdStdISO
  3
"Amdt_StdImp|Product Description: AutoCAD Mechanical 2004 DX|Company: Autodesk"
 90
        0
280
     0
281
     0
  0
CLASS
  1
ACMDATUMSTANDARDISO
  2
AcmDatumStdISO
  3
"Amdt_StdImp|Product Description: AutoCAD Mechanical 2004 DX|Company: Autodesk"
 90
        0
280
     0
281
     0
  0
CLASS
  1
ACMBOMSTANDARDISO
  2
AcmBOMStdISO
  3
"Amdt_StdImp|Product Description: AutoCAD Mechanical 2004 DX|Company: Autodesk"
 90
        0
280
     0
281
     0
  0
CLASS
  1
ACMDETAILSTANDARDISO
  2
AmdtDetailSymStdISO
  3
"Amdt_StdImp|Product Description: AutoCAD Mechanical 2004 DX|Company: Autodesk"
 90
        0
280
     0
281
     0
  0
CLASS
  1
ACMSECTIONSTANDARDISO
  2
AmdtSectionSymStdISO
  3
"Amdt_StdImp|Product Description: AutoCAD Mechanical 2004 DX|Company: Autodesk"
 90
        0
280
     0
281
     0
  0
CLASS
  1
ACMCENTERLINESTANDARDISO
  2
AmdtCenterLineStdISO
  3
"Amdt_StdImp|Product Description: AutoCAD Mechanical 2004 DX|Company: Autodesk"
 90
        0
280
     0
281
     0
  0
CLASS
  1
ACMNOTESTANDARDISO
  2
AmdtNoteStdISO
  3
"Amdt_StdImp|Product Description: AutoCAD Mechanical 2004 DX|Company: Autodesk"
 90
        0
280
     0
281
     0
  0
CLASS
  1
ACAMGLAYSTD
  2
AcAmgLayStd
  3
"AcAmgLayStd|Product Description: AutoCAD Mechanical 2000|Company: Autodesk"
 90
        0
280
     0
281
     0
  0
CLASS
  1
ACAMGDIMSTD
  2
AcAmgDimStd
  3
"AcAmgDimStd|Product Description: AutoCAD Mechanical 2000|Company: Autodesk"
 90
        0
280
     0
281
     0
  0
CLASS
  1
ACAMGHOLECHARTSTDISO
  2
AcAmgHoleChartStdISO
  3
ACMSYMBB_MODULE_NAME
 90
        0
280
     0
281
     0
  0
CLASS
  1
ACAMGTITLESTD
  2
AcAmgTitleStd
  3
"TITLEAPP"
 90
        0
280
     0
281
     0
  0
CLASS
  1
LAYER_INDEX
  2
AcDbLayerIndex
  3
ObjectDBX Classes
 90
    32768
280
     0
281
     0
  0
CLASS
  1
IDBUFFER
  2
AcDbIdBuffer
  3
ObjectDBX Classes
 90
    32768
280
     0
281
     0
  0
CLASS
  1
DICTIONARYVAR
  2
AcDbDictionaryVar
  3
ObjectDBX Classes
 90
        0
280
     0
281
     0
  0
CLASS
  1
AM_DRAWING_MGR
  2
AcDmDwgMgr
  3
AcMechDwgViewMgmt
 90
        0
280
     0
281
     0
  0
CLASS
  1
AM_DWG_DOCUMENT
  2
AcDmDwgDocument
  3
AcMechDwgViewMgmt
 90
        0
280
     0
281
     0
  0
CLASS
  1
AM_DWG_SHEET
  2
AcDmSheet
  3
AcMechDwgViewMgmt
 90
        0
280
     0
281
     0
  0
CLASS
  1
AM_VIEWDIMPARMAP
  2
AcDmViewDimParMap
  3
AcMechDwgViewMgmt
 90
        0
280
     0
281
     0
  0
CLASS
  1
AM_DWGMGR_NAME
  2
AcDmDwgMgrName
  3
AcMechDwgViewMgmt
 90
        0
280
     0
281
     0
  0
CLASS
  1
AMDTMENUSTATEMGR
  2
AmdtMenuStateMgr
  3
McadcomServices
 90
        0
280
     0
281
     0
  0
CLASS
  1
AMDTMCOMMENUSTATE
  2
AmdtMcomMenuState
  3
McadcomServices
 90
        0
280
     0
281
     0
  0
CLASS
  1
MAPIAMMOUDLE
  2
MApiAmModule
  3
MApiAmServices
 90
        0
280
     0
281
     0
  0
CLASS
  1
AMDTADMENUSTATE
  2
AmdtAdMenuState
  3
DesignerServices
 90
        0
280
     0
281
     0
  0
CLASS
  1
ADAPPL
  2
AcAdAppl
  3
DesignerServices
 90
        0
280
     0
281
     0
  0
CLASS
  1
DEPMGR
  2
AcAdDepMgr
  3
DesignerServices
 90
        0
280
     0
281
     0
  0
CLASS
  1
PARAMMGR
  2
AcAdParamMgr
  3
DesignerServices
 90
        0
280
     0
281
     0
  0
CLASS
  1
PARAMSCOPE
  2
AcAdParamScope
  3
DesignerServices
 90
        0
280
     0
281
     0
  0
CLASS
  1
NAMEDAPPL
  2
AcAdNamedAppl
  3
DesignerServices
 90
        0
280
     0
281
     0
  0
CLASS
  1
AMDTDMMENUSTATE
  2
AmdtDmMenuState
  3
AcMechDwgViewMgmt
 90
        0
280
     0
281
     0
  0
CLASS
  1
AMDTAMMENUSTATE
  2
AmdtAmMenuState
  3
DesignerAssemblies
 90
        0
280
     0
281
     0
  0
CLASS
  1
ACAMPROJECT
  2
AcAmProject
  3
DesignerAssemblies
 90
        0
280
     0
281
     0
  0
CLASS
  1
ACAMGRCOMPDEF
  2
AcAmGrCompDef
  3
DesignerAssemblies
 90
        0
280
     0
281
     0
  0
CLASS
  1
ACCMCONTEXT
  2
AcCmContext
  3
DesignerAssemblies
 90
        0
280
     0
281
     0
  0
CLASS
  1
ACAMCOMPDEF
  2
AcAmCompDef
  3
DesignerAssemblies
 90
        0
280
     0
281
     0
  0
CLASS
  1
ACAMCOMPDEFMGR
  2
AcAmCompDefMgr
  3
DesignerAssemblies
 90
        0
280
     0
281
     0
  0
CLASS
  1
AMCONTEXTMGR
  2
AcAmContextMgr
  3
DesignerAssemblies
 90
        0
280
     0
281
     0
  0
CLASS
  1
ACAMCONTEXTMODELER
  2
AcAmContextModeler
  3
DesignerAssemblies
 90
        0
280
     0
281
     0
  0
CLASS
  1
ACMTHREADLINESTANDARDISO
  2
AmdtThreadLineStdISO
  3
"Amdt_StdImp|Product Description: AutoCAD Mechanical 2004 DX|Company: Autodesk"
 90
        0
280
     0
281
     0
  0
CLASS
  1
CATALOGSTATE
  2
AcAmCatalogState
  3
DesignerAssemblies
 90
        0
280
     0
281
     0
  0
CLASS
  1
ACAMGRCOMPDEFSET
  2
AcAmGrCompDefSet
  3
DesignerAssemblies
 90
        0
280
     0
281
     0
  0
CLASS
  1
AMDTBROWSERDBTAB
  2
AmdtBrowserDbTab
  3
McadcomServices
 90
        0
280
     0
281
     0
  0
CLASS
  1
CBROWSERAPPOBJECT
  2
CBrowserAppObject
  3
McadcomServices
 90
        0
280
     0
281
     0
  0
CLASS
  1
DM_PLACEHOLDER
  2
AcDmSelsetPlaceholder
  3
AcMechDwgViewMgmt
 90
        0
280
     0
281
     0
  0
CLASS
  1
TABLESTYLE
  2
AcDbTableStyle
  3
ObjectDBX Classes
 90
     2047
280
     0
281
     0
  0
CLASS
  1
VAACXREFPANELOBJECT
  2
VaAcXREFPanelObject
  3
VAAC_ADDIN
 90
    32768
280
     0
281
     0
  0
CLASS
  1
VAACIMAGEINVENTORY
  2
VaAcImageInventory
  3
VAAC_ADDIN
 90
    32768
280
     0
281
     0
  0
CLASS
  1
AMDTNOTETEMPLATEDB
  2
AmdtNoteTemplateDB
  3
AMDT_STDIMP_MODULE_NAME
 90
        0
280
     0
281
     0
  0
CLASS
  1
ACMBOM
  2
AcmBom
  3
"AcmSymBB|Product Description: AutoCAD Mechanical 2004 DX|Company: Autodesk"
 90
    32768
280
     0
281
     0
  0
CLASS
  1
AMDTFORMULAUPDATEDISPATCHER
  2
AmdtFormulaUpdateDispatcher
  3
AcMeServices
 90
    32768
280
     0
281
     0
  0
CLASS
  1
ACMPARTLIST
  2
AcmPartList
  3
"AcmSymBB|Product Description: AutoCAD Mechanical 2004 DX|Company: Autodesk"
 90
    33791
280
     0
281
     1
  0
CLASS
  1
ACAMGFILTERDAT
  2
AcAmgFilterDat
  3
"AcadM|Product Description: AutoCAD Mechanical 2000|Company: Autodesk"
 90
        0
280
     0
281
     0
  0
CLASS
  1
DIMASSOC
  2
AcDbDimAssoc
  3
"AcDbDimAssoc|Product Desc:     AcDim ARX App For Dimension|Company:          Autodesk, Inc.|WEB Address:      www.autodesk.com"
 90
        0
280
     0
281
     0
  0
CLASS
  1
ACMSTANDARDANSI
  2
AcmStandardANSI
  3
"Amdt_StdImp|Product Description: AutoCAD Mechanical 2004 DX|Company: Autodesk"
 90
        0
280
     0
281
     0
  0
CLASS
  1
ACMSURFSTANDARDANSI
  2
AcmSurfTextStdANSI
  3
"Amdt_StdImp|Product Description: AutoCAD Mechanical 2004 DX|Company: Autodesk"
 90
        0
280
     0
281
     0
  0
CLASS
  1
ACMFCFSTANDARDANSI
  2
AcmFCFStdANSI
  3
"Amdt_StdImp|Product Description: AutoCAD Mechanical 2004 DX|Company: Autodesk"
 90
        0
280
     0
281
     0
  0
CLASS
  1
ACMWELDSTANDARDANSI
  2
AcmWeldingStdANSI
  3
"Amdt_StdImp|Product Description: AutoCAD Mechanical 2004 DX|Company: Autodesk"
 90
        0
280
     0
281
     0
  0
CLASS
  1
ACMIDSTANDARDANSI
  2
AcmIdStdANSI
  3
"Amdt_StdImp|Product Description: AutoCAD Mechanical 2004 DX|Company: Autodesk"
 90
        0
280
     0
281
     0
  0
CLASS
  1
ACMDATUMSTANDARDANSI
  2
AcmDatumStdANSI
  3
"Amdt_StdImp|Product Description: AutoCAD Mechanical 2004 DX|Company: Autodesk"
 90
        0
280
     0
281
     0
  0
CLASS
  1
ACMBOMSTANDARDANSI
  2
AcmBOMStdANSI
  3
"Amdt_StdImp|Product Description: AutoCAD Mechanical 2004 DX|Company: Autodesk"
 90
        0
280
     0
281
     0
  0
CLASS
  1
ACMDETAILSTANDARDANSI
  2
AmdtDetailSymStdANSI
  3
"Amdt_StdImp|Product Description: AutoCAD Mechanical 2004 DX|Company: Autodesk"
 90
        0
280
     0
281
     0
  0
CLASS
  1
ACMSECTIONSTANDARDANSI
  2
AmdtSectionSymStdANSI
  3
"Amdt_StdImp|Product Description: AutoCAD Mechanical 2004 DX|Company: Autodesk"
 90
        0
280
     0
281
     0
  0
CLASS
  1
ACMCENTERLINESTANDARDANSI
  2
AmdtCenterLineStdANSI
  3
"Amdt_StdImp|Product Description: AutoCAD Mechanical 2004 DX|Company: Autodesk"
 90
        0
280
     0
281
     0
  0
CLASS
  1
ACMTHREADLINESTANDARDANSI
  2
AmdtThreadLineStdANSI
  3
"Amdt_StdImp|Product Description: AutoCAD Mechanical 2004 DX|Company: Autodesk"
 90
        0
280
     0
281
     0
  0
CLASS
  1
ACMNOTESTANDARDANSI
  2
AmdtNoteStdANSI
  3
"Amdt_StdImp|Product Description: AutoCAD Mechanical 2004 DX|Company: Autodesk"
 90
        0
280
     0
281
     0
  0
CLASS
  1
ACAMGHOLECHARTSTDANSI
  2
AcAmgHoleChartStdANSI
  3
ACMSYMBB_MODULE_NAME
 90
        0
280
     0
281
     0
  0
CLASS
  1
STDPART2D
  2
AmgStdPart
  3
"AmgStdPart|Product Description: AutoCAD Mechanical 2000|Company: Autodesk"
 90
    33791
280
     0
281
     1
  0
CLASS
  1
ACAMSTDPCOMPDEF
  2
AcAmStdpCompDef
  3
DesignerAssemblies
 90
    32768
280
     0
281
     0
  0
CLASS
  1
ACRFATTGENMGR
  2
AcRfAttGeneralMgr
  3
AcAttribServices
 90
        0
280
     0
281
     0
  0
CLASS
  1
ACRFOBJATTMGR
  2
AcRfObjAttGroupMgr
  3
AcAttribServices
 90
    32768
280
     0
281
     0
  0
CLASS
  1
ACRFMCADAPIATTHOLDER
  2
AcRfMCADAPIAttHolder
  3
AcAttribServices
 90
    32768
280
     0
281
     0
  0
CLASS
  1
AMDTSYSATTR
  2
AmdtSystemAttribute
  3
AcAttribServices
 90
    32768
280
     0
281
     0
  0
CLASS
  1
ACAMCOMP
  2
AcAmComp
  3
DesignerAssemblies
 90
    32768
280
     0
281
     0
  0
CLASS
  1
AC_AM_STDP_VIEW_DEF
  2
AcAmStdpViewDef
  3
DesignerAssemblies
 90
    32768
280
     0
281
     0
  0
CLASS
  1
AC_AM_MVD_DEP_MGR
  2
AcAmMVDdepMgr
  3
DesignerAssemblies
 90
        0
280
     0
281
     0
  0
CLASS
  1
AC_AM_MASTER_VIEW_DEF
  2
AcAmMasterViewDef
  3
DesignerAssemblies
 90
        0
280
     0
281
     0
  0
CLASS
  1
AC_AM_DIRTY_NODES
  2
AcAmDirtyNodes
  3
DesignerAssemblies
 90
        0
280
     0
281
     0
  0
CLASS
  1
AC_AM_MAPPER_CACHE
  2
AcAmMapperCache
  3
DesignerAssemblies
 90
        0
280
     0
281
     0
  0
CLASS
  1
ACAMMVDBACKUPOBJECT
  2
AcAmMVDBackupObject
  3
DesignerAssemblies
 90
        0
280
     0
281
     0
  0
CLASS
  1
AC_AM_COMP_VIEW_INST
  2
AcAmCompView
  3
DesignerAssemblies
 90
    32768
280
     0
281
     0
  0
CLASS
  1
AC_AM_2D_XREF_MGR
  2
AcAmXrefMgr2d
  3
DesignerAssemblies
 90
        0
280
     0
281
     0
  0
CLASS
  1
SORTENTSTABLE
  2
AcDbSortentsTable
  3
ObjectDBX Classes
 90
        0
280
     0
281
     0
  0
CLASS
  1
AMDTNOTE
  2
AmdtNote
  3
"AcmSymBB|Product Description: AutoCAD Mechanical 2004 DX|Company: Autodesk"
 90
     1023
280
     0
281
     1
  0
CLASS
  1
AC_AM_TRANSFORM_GHOST
  2
AcDbTransformGhost
  3
DesignerAssemblies
 90
    32768
280
     0
281
     1
  0
ENDSEC
  0
SECTION
  2
TABLES
  0
TABLE
  2
VPORT
  5
8
330
0
100
AcDbSymbolTable
 70
     6
  0
VPORT
  5
1F17
330
8
100
AcDbSymbolTableRecord
100
AcDbViewportTableRecord
  2
*Active
 70
     0
 10
0.0
 20
0.0
 11
1.0
 21
1.0
 12
225.952096433844
 22
167.0438300655805
 13
0.0
 23
0.0
 14
2.5
 24
2.5
 15
10.0
 25
10.0
 16
0.0
 26
0.0
 36
1.0
 17
0.0
 27
0.0
 37
0.0
 40
290.366145854581
 41
1.661684782608695
 42
50.0
 43
0.0
 44
0.0
 50
0.0
 51
0.0
 71
     0
 72
   100
 73
     1
 74
     3
 75
     0
 76
     0
 77
     0
 78
     0
281
     0
 65
     1
110
0.0
120
0.0
130
0.0
111
1.0
121
0.0
131
0.0
112
0.0
122
1.0
132
0.0
 79
     0
146
0.0
  0
ENDTAB
  0
TABLE
  2
LTYPE
  5
5
330
0
100
AcDbSymbolTable
 70
    17
  0
LTYPE
  5
14
330
5
100
AcDbSymbolTableRecord
100
AcDbLinetypeTableRecord
  2
ByBlock
 70
     0
  3

 72
    65
 73
     0
 40
0.0
  0
LTYPE
  5
15
330
5
100
AcDbSymbolTableRecord
100
AcDbLinetypeTableRecord
  2
ByLayer
 70
     0
  3

 72
    65
 73
     0
 40
0.0
  0
LTYPE
  5
16
330
5
100
AcDbSymbolTableRecord
100
AcDbLinetypeTableRecord
  2
Continuous
 70
     0
  3
Solid line
 72
    65
 73
     0
 40
0.0
  0
LTYPE
  5
64
330
5
100
AcDbSymbolTableRecord
100
AcDbLinetypeTableRecord
  2
AM_ISO02W050
 70
     0
  3
__ __ __ __ __ __ __ __ __ __ __ __ __ __ __
 72
    65
 73
     2
 40
7.5
 49
6.0
 74
     0
 49
-1.5
 74
     0
  0
LTYPE
  5
65
330
5
100
AcDbSymbolTableRecord
100
AcDbLinetypeTableRecord
  2
AM_ISO08W050
 70
     0
  3
____ . ____ . ____ . ____ . ____ . ____ . ____
 72
    65
 73
     4
 40
18.0
 49
12.0
 74
     0
 49
-1.5
 74
     0
 49
3.0
 74
     0
 49
-1.5
 74
     0
  0
LTYPE
  5
66
330
5
100
AcDbSymbolTableRecord
100
AcDbLinetypeTableRecord
  2
AM_ISO09W050
 70
     0
  3
_____ . . _____ . . _____ . . ____ .. ____
 72
    65
 73
     6
 40
22.5
 49
12.0
 74
     0
 49
-1.5
 74
     0
 49
3.0
 74
     0
 49
-1.5
 74
     0
 49
3.0
 74
     0
 49
-1.5
 74
     0
  0
LTYPE
  5
67
330
5
100
AcDbSymbolTableRecord
100
AcDbLinetypeTableRecord
  2
Amconstr
 70
     0
  3
_______________________
 72
    65
 73
     2
 40
9999.0
 49
9999.0
 74
     0
 49
0.0
 74
     0
  0
LTYPE
  5
68
330
5
100
AcDbSymbolTableRecord
100
AcDbLinetypeTableRecord
  2
AM_ISO08W050x2
 70
     0
  3
__ . __ . __ . __ . __ . __
 72
    65
 73
     4
 40
9.0
 49
6.0
 74
     0
 49
-0.75
 74
     0
 49
1.5
 74
     0
 49
-0.75
 74
     0
  0
LTYPE
  5
69
330
5
100
AcDbSymbolTableRecord
100
AcDbLinetypeTableRecord
  2
AM_ISO02W050x2
 70
     0
  3
 _ _ _ _ _ _ _ _ _ _ _ _
 72
    65
 73
     2
 40
3.75
 49
3.0
 74
     0
 49
-0.75
 74
     0
  0
LTYPE
  5
6C
330
5
100
AcDbSymbolTableRecord
100
AcDbLinetypeTableRecord
  2
Amzigzag
 70
     0
  3
/\/-/\/-/\/-/\/-/\/-/\/
 72
    65
 73
     2
 40
11.0001
 49
0.0001
 74
     4
 75
   135
340
6B
 46
0.04
 50
0.0
 44
0.0
 45
0.0
 49
-11.0
 74
     0
  0
LTYPE
  5
7A
330
5
100
AcDbSymbolTableRecord
100
AcDbLinetypeTableRecord
  2
ACISOWELD
 70
     0
  3
_ _ _ _ _
 72
    65
 73
     2
 40
2.0
 49
2.0
 74
     0
 49
-1.0
 74
     0
  0
LTYPE
  5
7B
330
5
100
AcDbSymbolTableRecord
100
AcDbLinetypeTableRecord
  2
ACISOTGB
 70
     0
  3
__ . . __ . .
 72
    65
 73
     6
 40
9.0
 49
4.0
 74
     0
 49
-1.0
 74
     0
 49
1.0
 74
     0
 49
-1.0
 74
     0
 49
1.0
 74
     0
 49
-1.0
 74
     0
  0
LTYPE
  5
7C
330
5
100
AcDbSymbolTableRecord
100
AcDbLinetypeTableRecord
  2
ACISOTGL
 70
     0
  3
_ _ _ _ _
 72
    65
 73
     2
 40
3.0
 49
2.0
 74
     0
 49
-1.0
 74
     0
  0
LTYPE
  5
7E
330
5
100
AcDbSymbolTableRecord
100
AcDbLinetypeTableRecord
  2
CENTER
 70
     0
  3
__ . __
 72
    65
 73
     4
 40
7.0
 49
4.0
 74
     0
 49
-1.0
 74
     0
 49
1.0
 74
     0
 49
-1.0
 74
     0
  0
LTYPE
  5
D8
330
5
100
AcDbSymbolTableRecord
100
AcDbLinetypeTableRecord
  2
HIDDEN
 70
     0
  3
Hidden __ __ __ __ __ __ __ __ __ __ __ __ __ _
 72
    65
 73
     2
 40
9.524999999999998
 49
6.349999999999999
 74
     0
 49
-3.174999999999999
 74
     0
  0
LTYPE
  5
D9
330
5
100
AcDbSymbolTableRecord
100
AcDbLinetypeTableRecord
  2
PHANTOM2
 70
     0
  3
Phantom (.5x) ___ _ _ ___ _ _ ___ _ _ ___ _ _
 72
    65
 73
     6
 40
31.75
 49
15.875
 74
     0
 49
-3.174999999999999
 74
     0
 49
3.174999999999999
 74
     0
 49
-3.174999999999999
 74
     0
 49
3.174999999999999
 74
     0
 49
-3.174999999999999
 74
     0
  0
LTYPE
  5
C42
330
5
100
AcDbSymbolTableRecord
100
AcDbLinetypeTableRecord
  2
CENTER2
 70
     0
  3
___ _ ___ _ ___ _ ___ _ ___ _ ___ _ ___ _ ___ _
 72
    65
 73
     4
 40
1.125
 49
0.75
 74
     0
 49
-0.125
 74
     0
 49
0.125
 74
     0
 49
-0.125
 74
     0
  0
LTYPE
  5
C45
330
5
100
AcDbSymbolTableRecord
100
AcDbLinetypeTableRecord
  2
ACANSTGB
 70
     0
  3
__ . . __ . .
 72
    65
 73
     6
 40
0.35433070866
 49
0.15748031496
 74
     0
 49
-0.03937007874
 74
     0
 49
0.03937007874
 74
     0
 49
-0.03937007874
 74
     0
 49
0.03937007874
 74
     0
 49
-0.03937007874
 74
     0
  0
LTYPE
  5
C46
330
5
100
AcDbSymbolTableRecord
100
AcDbLinetypeTableRecord
  2
ACANSTGL
 70
     0
  3
_ _ _ _ _
 72
    65
 73
     2
 40
0.11811023622
 49
0.07874015748
 74
     0
 49
-0.03937007874
 74
     0
  0
ENDTAB
  0
TABLE
  2
LAYER
  5
2
102
{ACAD_XDICTIONARY
360
3F9
102
}
330
0
100
AcDbSymbolTable
 70
     9
  0
LAYER
  5
10
330
2
100
AcDbSymbolTableRecord
100
AcDbLayerTableRecord
  2
0
 70
     0
 62
     7
  6
Continuous
370
    -3
390
F
  0
LAYER
  5
8CB
330
2
100
AcDbSymbolTableRecord
100
AcDbLayerTableRecord
  2
AM_5
 70
     0
 62
     5
  6
Continuous
370
    50
390
F
  0
LAYER
  5
939
330
2
100
AcDbSymbolTableRecord
100
AcDbLayerTableRecord
  2
Defpoints
 70
     0
 62
     7
  6
Continuous
290
     0
370
    -3
390
F
  0
LAYER
  5
C47
330
2
100
AcDbSymbolTableRecord
100
AcDbLayerTableRecord
  2
1
 70
     0
 62
     7
  6
Continuous
370
    -3
390
F
  0
LAYER
  5
C48
330
2
100
AcDbSymbolTableRecord
100
AcDbLayerTableRecord
  2
3
 70
     0
 62
     1
  6
CENTER2
370
    -3
390
F
  0
LAYER
  5
108B
330
2
100
AcDbSymbolTableRecord
100
AcDbLayerTableRecord
  2
AM_0
 70
     0
 62
     7
  6
Continuous
370
    50
390
F
  0
LAYER
  5
10B1
330
2
100
AcDbSymbolTableRecord
100
AcDbLayerTableRecord
  2
AM_4
 70
     0
 62
     3
  6
Continuous
370
    25
390
F
  0
LAYER
  5
110D
330
2
100
AcDbSymbolTableRecord
100
AcDbLayerTableRecord
  2
AM_7
 70
     0
 62
     1
  6
CENTER
370
    25
390
F
  0
LAYER
  5
113E
330
2
100
AcDbSymbolTableRecord
100
AcDbLayerTableRecord
  2
LOGO
 70
     0
 62
     7
  6
Continuous
370
    -3
390
F
  0
ENDTAB
  0
TABLE
  2
STYLE
  5
3
330
0
100
AcDbSymbolTable
 70
     8
  0
STYLE
  5
11
330
3
100
AcDbSymbolTableRecord
100
AcDbTextStyleTableRecord
  2
STANDARD
 70
     0
 40
0.0
 41
1.0
 50
0.0
 71
     0
 42
3.0
  3
ISOCP.SHX
  4
CHINESET.SHX
  0
STYLE
  5
6B
330
3
100
AcDbSymbolTableRecord
100
AcDbTextStyleTableRecord
  2

 70
     1
 40
0.0
 41
1.0
 50
0.0
 71
     0
 42
2.5
  3
ltypeshp.shx
  4

  0
STYLE
  5
6D
330
3
100
AcDbSymbolTableRecord
100
AcDbTextStyleTableRecord
  2
ACISOTS
 70
     0
 40
1.0
 41
1.0
 50
0.0
 71
     0
 42
1.0
  3
isocp.shx
  4
chineset.shx
  0
STYLE
  5
79
330
3
100
AcDbSymbolTableRecord
100
AcDbTextStyleTableRecord
  2
ACISOGDT
 70
     0
 40
0.0
 41
1.0
 50
0.0
 71
     0
 42
2.5
  3
amgdt.shx
  4
chineset.shx
  0
STYLE
  5
60C
330
3
100
AcDbSymbolTableRecord
100
AcDbTextStyleTableRecord
  2
CHINESET
 70
     0
 40
0.0
 41
0.75
 50
0.0
 71
     0
 42
3.0
  3
simplex.shx
  4
CHINESET.SHX
  0
STYLE
  5
C4D
330
3
100
AcDbSymbolTableRecord
100
AcDbTextStyleTableRecord
  2
ACANSTS
 70
     0
 40
1.0
 41
1.0
 50
0.0
 71
     0
 42
2.0
  3
romans.shx
  4
chineset.shx
  0
STYLE
  5
C4E
330
3
100
AcDbSymbolTableRecord
100
AcDbTextStyleTableRecord
  2
ACANSGDT
 70
     0
 40
0.0
 41
1.0
 50
0.0
 71
     0
 42
2.0
  3
amgdtans.shx
  4

  0
ENDTAB
  0
TABLE
  2
VIEW
  5
6
330
0
100
AcDbSymbolTable
 70
     0
  0
ENDTAB
  0
TABLE
  2
UCS
  5
7
330
0
100
AcDbSymbolTable
 70
     0
  0
ENDTAB
  0
TABLE
  2
APPID
  5
9
330
0
100
AcDbSymbolTable
 70
    31
  0
APPID
  5
12
330
9
100
AcDbSymbolTableRecord
100
AcDbRegAppTableRecord
  2
ACAD
 70
     0
  0
APPID
  5
46
330
9
100
AcDbSymbolTableRecord
100
AcDbRegAppTableRecord
  2
MCAD_NO_VIS
 70
     0
  0
APPID
  5
47
330
9
100
AcDbSymbolTableRecord
100
AcDbRegAppTableRecord
  2
ACAD_TEMP_GRAPHIC
 70
     0
  0
APPID
  5
58
330
9
100
AcDbSymbolTableRecord
100
AcDbRegAppTableRecord
  2
ACATTRIBSERVICES
 70
     0
  0
APPID
  5
EE
330
9
100
AcDbSymbolTableRecord
100
AcDbRegAppTableRecord
  2
AD_DRAW
 70
     0
  0
APPID
  5
10C
330
9
100
AcDbSymbolTableRecord
100
AcDbRegAppTableRecord
  2
DESIGNERASSEMBLIES
 70
     0
  0
APPID
  5
111
330
9
100
AcDbSymbolTableRecord
100
AcDbRegAppTableRecord
  2
ACADM_DIM_EDIT
 70
     0
  0
APPID
  5
112
330
9
100
AcDbSymbolTableRecord
100
AcDbRegAppTableRecord
  2
AMDT_DM_ADJ
 70
     0
  0
APPID
  5
22C
330
9
100
AcDbSymbolTableRecord
100
AcDbRegAppTableRecord
  2
ACAD_DSTYLE_DIMTEXT_FILL
 70
     0
  0
APPID
  5
452
330
9
100
AcDbSymbolTableRecord
100
AcDbRegAppTableRecord
  2
GENIUS_GENOENT_13
 70
     0
  0
APPID
  5
453
330
9
100
AcDbSymbolTableRecord
100
AcDbRegAppTableRecord
  2
GENIUS_GENOBJ-N-CRS_13
 70
     0
  0
APPID
  5
454
330
9
100
AcDbSymbolTableRecord
100
AcDbRegAppTableRecord
  2
GENIUS_GENOLIS_13
 70
     0
  0
APPID
  5
455
330
9
100
AcDbSymbolTableRecord
100
AcDbRegAppTableRecord
  2
GENIUS_GENODEF_13
 70
     0
  0
APPID
  5
456
330
9
100
AcDbSymbolTableRecord
100
AcDbRegAppTableRecord
  2
GENIUS_GENOREF_13
 70
     0
  0
APPID
  5
6F3
330
9
100
AcDbSymbolTableRecord
100
AcDbRegAppTableRecord
  2
ACAD_PSEXT
 70
     0
  0
APPID
  5
808
330
9
100
AcDbSymbolTableRecord
100
AcDbRegAppTableRecord
  2
GENIUS_GENDTOL_13
 70
     0
  0
APPID
  5
1092
330
9
100
AcDbSymbolTableRecord
100
AcDbRegAppTableRecord
  2
GEVID1181100771
 70
     0
  0
APPID
  5
1093
330
9
100
AcDbSymbolTableRecord
100
AcDbRegAppTableRecord
  2
GEVDC
 70
     0
  0
APPID
  5
1094
330
9
100
AcDbSymbolTableRecord
100
AcDbRegAppTableRecord
  2
GEVRADREF
 70
     0
  0
APPID
  5
109D
330
9
100
AcDbSymbolTableRecord
100
AcDbRegAppTableRecord
  2
AMG_2DHIDE
 70
     0
  0
APPID
  5
109E
330
9
100
AcDbSymbolTableRecord
100
AcDbRegAppTableRecord
  2
AMG_2DSTRUCT_BTR
 70
     0
  0
APPID
  5
10AF
330
9
100
AcDbSymbolTableRecord
100
AcDbRegAppTableRecord
  2
ACADM_2DVIEW_IGN_NOTIFY
 70
     0
  0
APPID
  5
10FD
330
9
100
AcDbSymbolTableRecord
100
AcDbRegAppTableRecord
  2
GEVID1181100772
 70
     0
  0
APPID
  5
1139
330
9
100
AcDbSymbolTableRecord
100
AcDbRegAppTableRecord
  2
GENIUS_GENOBJ-N-CEN_13
 70
     0
  0
APPID
  5
113A
330
9
100
AcDbSymbolTableRecord
100
AcDbRegAppTableRecord
  2
GENIUS_GENCEN_19
 70
     0
  0
APPID
  5
113F
330
9
100
AcDbSymbolTableRecord
100
AcDbRegAppTableRecord
  2
GENIUS_GENREC_14
 70
     0
  0
APPID
  5
1140
330
9
100
AcDbSymbolTableRecord
100
AcDbRegAppTableRecord
  2
GENIUS_GENOBJ-N-REC_13
 70
     0
  0
APPID
  5
15F5
330
9
100
AcDbSymbolTableRecord
100
AcDbRegAppTableRecord
  2
GEVID1181100773
 70
     0
  0
APPID
  5
1831
330
9
100
AcDbSymbolTableRecord
100
AcDbRegAppTableRecord
  2
GEVID1181100774
 70
     0
  0
APPID
  5
1968
330
9
100
AcDbSymbolTableRecord
100
AcDbRegAppTableRecord
  2
GEVID1181100775
 70
     0
  0
APPID
  5
1E71
330
9
100
AcDbSymbolTableRecord
100
AcDbRegAppTableRecord
  2
GEVID1181100776
 70
     0
  0
ENDTAB
  0
TABLE
  2
DIMSTYLE
  5
A
330
0
100
AcDbSymbolTable
 70
    15
100
AcDbDimStyleTable
 71
     3
340
81
340
8B
340
86
  0
DIMSTYLE
105
81
330
A
100
AcDbSymbolTableRecord
100
AcDbDimStyleTableRecord
  2
AM_ISO
 70
     0
  4
"
 41
3.0
 42
1.0
 43
8.0
 44
1.5
 47
0.1
 48
0.1
 73
     0
 74
     0
 77
     1
 78
     8
 79
     2
140
3.5
141
0.0
143
0.0393701
146
0.6
147
0.8
172
     1
176
   256
177
   256
178
   256
271
     2
272
     2
283
     0
284
     8
340
60C
371
    -1
372
    -1
  0
DIMSTYLE
105
82
330
A
100
AcDbSymbolTableRecord
100
AcDbDimStyleTableRecord
  2
AM_ISO$3
 70
     0
  4
"
 41
3.0
 42
1.0
 43
8.0
 44
1.5
 47
0.1
 48
0.1
 73
     0
 77
     1
 78
     8
 79
     2
140
3.5
141
0.0
143
0.0393701
146
0.6
147
0.8
176
   256
177
   256
178
   256
271
     2
272
     2
283
     0
284
     8
288
     1
289
     0
340
60C
371
    -1
372
    -1
  0
DIMSTYLE
105
83
330
A
100
AcDbSymbolTableRecord
100
AcDbDimStyleTableRecord
  2
AM_ISO$4
 70
     0
  4
"
 41
3.0
 42
1.0
 43
8.0
 44
1.5
 47
0.1
 48
0.1
 73
     0
 77
     1
 78
     8
 79
     2
140
3.5
141
0.0
143
0.0393701
146
0.6
147
0.8
176
   256
177
   256
178
   256
271
     2
272
     2
283
     0
284
     8
288
     1
289
     0
340
60C
371
    -1
372
    -1
  0
DIMSTYLE
105
84
330
A
100
AcDbSymbolTableRecord
100
AcDbDimStyleTableRecord
  2
AM_ISO$6
 70
     0
  4
"
 41
3.0
 42
1.0
 43
8.0
 44
1.5
 47
0.1
 48
0.1
 73
     0
 74
     0
 78
     8
 79
     2
140
3.5
141
0.0
143
0.0393701
146
0.6
147
0.8
172
     1
176
   256
177
   256
178
   256
271
     2
272
     2
283
     0
284
     8
340
60C
371
    -1
372
    -1
  0
DIMSTYLE
105
85
330
A
100
AcDbSymbolTableRecord
100
AcDbDimStyleTableRecord
  2
AM_ISO$7
 70
     0
  4
"
 41
3.0
 42
1.0
 43
8.0
 44
1.5
 47
0.1
 48
0.1
 73
     0
 74
     0
 77
     1
 78
     8
 79
     2
140
5.0
141
0.0
143
0.0393701
146
0.6
147
0.8
172
     1
176
   256
177
   256
178
   256
271
     2
272
     2
283
     0
284
     8
340
60C
371
    -1
372
    -1
  0
DIMSTYLE
105
86
330
A
100
AcDbSymbolTableRecord
100
AcDbDimStyleTableRecord
  2
AM_ISO$SF
 70
     0
  4
"
 41
2.5
 42
1.0
 43
10.0
 44
1.0
 47
0.1
 48
0.1
 73
     0
 74
     0
 75
     1
 76
     1
 77
     1
 78
     8
 79
     2
140
3.5
141
0.0
143
0.0393701
146
0.71
147
1.5
172
     1
176
   256
177
   256
178
     2
271
     2
272
     3
274
     4
283
     0
284
     8
340
11
371
    -1
372
    -1
  0
DIMSTYLE
105
8B
330
A
100
AcDbSymbolTableRecord
100
AcDbDimStyleTableRecord
  2
AM_ISO$SH
 70
     0
  4
"
 41
2.5
 42
1.0
 43
10.0
 44
1.0
 47
0.1
 48
0.1
 73
     0
 74
     0
 75
     1
 76
     1
 77
     1
 78
     8
 79
     2
140
3.5
141
0.0
143
0.0393701
144
2.0
146
0.71
147
1.5
172
     1
173
     1
176
   256
177
   256
178
     2
271
     2
272
     3
274
     4
283
     0
284
     8
340
11
343
87
371
    -1
372
    -1
  0
DIMSTYLE
105
40B
102
{ACAD_REACTORS
330
1C7C
330
1CA2
330
1CC8
330
1CFB
330
1D21
330
1D4C
330
1D72
330
1D98
330
1DBE
330
1DE4
102
}
330
A
100
AcDbSymbolTableRecord
100
AcDbDimStyleTableRecord
  2
AM_ISO$0
 70
     0
  4
"
 41
3.0
 42
1.0
 43
8.0
 44
1.5
 47
0.1
 48
0.1
 73
     0
 74
     0
 77
     1
 78
     8
 79
     2
140
3.5
141
0.0
143
0.0393701
146
0.6
147
0.8
172
     1
176
   256
177
   256
178
   256
271
     2
272
     2
283
     0
284
     8
340
60C
371
    -1
372
    -1
  0
DIMSTYLE
105
C50
330
A
100
AcDbSymbolTableRecord
100
AcDbDimStyleTableRecord
  2
AM_ANSI
 70
     0
  4
mm
 41
0.1
 42
0.05
 43
0.5
 44
0.1
 47
0.1
 48
0.1
 78
     7
 79
     2
140
0.12
141
0.0
146
0.71
147
0.06
176
   256
177
   256
178
     2
274
     4
284
     7
340
11
371
    -1
372
    -1
  0
DIMSTYLE
105
C51
330
A
100
AcDbSymbolTableRecord
100
AcDbDimStyleTableRecord
  2
AM_ANSI$3
 70
     0
  4
mm
 41
0.1
 42
0.05
 43
0.5
 44
0.1
 47
0.1
 48
0.1
 78
     7
 79
     2
140
0.12
141
0.0
146
0.71
147
0.06
176
   256
177
   256
178
     2
274
     4
284
     7
288
     1
289
     0
340
11
371
    -1
372
    -1
  0
DIMSTYLE
105
C52
330
A
100
AcDbSymbolTableRecord
100
AcDbDimStyleTableRecord
  2
AM_ANSI$4
 70
     0
  4
mm
 41
0.1
 42
0.05
 43
0.5
 44
0.1
 47
0.1
 48
0.1
 78
     7
 79
     2
140
0.12
141
0.0
146
0.71
147
0.06
176
   256
177
   256
178
     2
274
     4
284
     7
288
     1
289
     0
340
11
371
    -1
372
    -1
  0
DIMSTYLE
105
C53
330
A
100
AcDbSymbolTableRecord
100
AcDbDimStyleTableRecord
  2
AM_ANSI$7
 70
     0
  4
mm
 41
0.1
 42
0.05
 43
0.5
 44
0.1
 47
0.1
 48
0.1
 78
     7
 79
     2
140
0.24
141
0.0
146
0.71
147
0.06
176
   256
177
   256
178
     2
274
     4
284
     7
340
11
371
    -1
372
    -1
  0
DIMSTYLE
105
C54
330
A
100
AcDbSymbolTableRecord
100
AcDbDimStyleTableRecord
  2
AM_ANSI$SF
 70
     0
  4
mm
 41
0.1
 42
0.05
 43
0.5
 44
0.1
 47
0.1
 48
0.1
 75
     1
 76
     1
 78
     7
 79
     2
140
0.12
141
0.0
146
0.71
147
0.06
176
   256
177
   256
178
     2
274
     4
284
     7
340
11
371
    -1
372
    -1
  0
DIMSTYLE
105
C55
330
A
100
AcDbSymbolTableRecord
100
AcDbDimStyleTableRecord
  2
AM_ANSI$SH
 70
     0
  4
mm
 41
0.1
 42
0.05
 43
0.5
 44
0.1
 47
0.1
 48
0.1
 75
     1
 76
     1
 78
     7
 79
     2
140
0.12
141
0.0
146
0.71
147
0.06
173
     1
176
   256
177
   256
178
     2
274
     4
284
     7
340
11
343
87
371
    -1
372
    -1
  0
ENDTAB
  0
TABLE
  2
BLOCK_RECORD
  5
1
330
0
100
AcDbSymbolTable
 70
    17
  0
BLOCK_RECORD
  5
1F
102
{ACAD_XDICTIONARY
360
8F
102
}
330
1
100
AcDbSymbolTableRecord
100
AcDbBlockTableRecord
  2
*Model_Space
340
22
  0
BLOCK_RECORD
  5
1B
330
1
100
AcDbSymbolTableRecord
100
AcDbBlockTableRecord
  2
*Paper_Space
340
1E
  0
BLOCK_RECORD
  5
23
330
1
100
AcDbSymbolTableRecord
100
AcDbBlockTableRecord
  2
*Paper_Space0
340
26
  0
BLOCK_RECORD
  5
87
330
1
100
AcDbSymbolTableRecord
100
AcDbBlockTableRecord
  2
GENAXEH
340
0
  0
BLOCK_RECORD
  5
10B5
330
1
100
AcDbSymbolTableRecord
100
AcDbBlockTableRecord
  2
*U4
340
0
  0
BLOCK_RECORD
  5
1C7D
330
1
100
AcDbSymbolTableRecord
100
AcDbBlockTableRecord
  2
*D5
340
0
  0
BLOCK_RECORD
  5
1CA3
330
1
100
AcDbSymbolTableRecord
100
AcDbBlockTableRecord
  2
*D6
340
0
  0
BLOCK_RECORD
  5
1CC9
330
1
100
AcDbSymbolTableRecord
100
AcDbBlockTableRecord
  2
*D7
340
0
  0
BLOCK_RECORD
  5
1CFC
330
1
100
AcDbSymbolTableRecord
100
AcDbBlockTableRecord
  2
*D8
340
0
  0
BLOCK_RECORD
  5
1D22
330
1
100
AcDbSymbolTableRecord
100
AcDbBlockTableRecord
  2
*D9
340
0
  0
BLOCK_RECORD
  5
1D4D
330
1
100
AcDbSymbolTableRecord
100
AcDbBlockTableRecord
  2
*D10
340
0
  0
BLOCK_RECORD
  5
1D73
330
1
100
AcDbSymbolTableRecord
100
AcDbBlockTableRecord
  2
*D11
340
0
  0
BLOCK_RECORD
  5
1D99
330
1
100
AcDbSymbolTableRecord
100
AcDbBlockTableRecord
  2
*D12
340
0
  0
BLOCK_RECORD
  5
1DBF
330
1
100
AcDbSymbolTableRecord
100
AcDbBlockTableRecord
  2
*D13
340
0
  0
BLOCK_RECORD
  5
1DE5
330
1
100
AcDbSymbolTableRecord
100
AcDbBlockTableRecord
  2
*D14
340
0
  0
BLOCK_RECORD
  5
1F0D
330
1
100
AcDbSymbolTableRecord
100
AcDbBlockTableRecord
  2
*S16
340
0
  0
ENDTAB
  0
ENDSEC
  0
SECTION
  2
BLOCKS
  0
BLOCK
  5
20
330
1F
100
AcDbEntity
  8
0
100
AcDbBlockBegin
  2
*Model_Space
 70
     0
 10
0.0
 20
0.0
 30
0.0
  3
*Model_Space
  1

  0
ENDBLK
  5
21
330
1F
100
AcDbEntity
  8
0
100
AcDbBlockEnd
  0
BLOCK
  5
1C
330
1B
100
AcDbEntity
 67
     1
  8
0
100
AcDbBlockBegin
  2
*Paper_Space
 70
     0
 10
0.0
 20
0.0
 30
0.0
  3
*Paper_Space
  1

  0
ENDBLK
  5
1D
330
1B
100
AcDbEntity
 67
     1
  8
0
100
AcDbBlockEnd
  0
BLOCK
  5
24
330
23
100
AcDbEntity
  8
0
100
AcDbBlockBegin
  2
*Paper_Space0
 70
     0
 10
0.0
 20
0.0
 30
0.0
  3
*Paper_Space0
  1

  0
ENDBLK
  5
25
330
23
100
AcDbEntity
  8
0
100
AcDbBlockEnd
  0
BLOCK
  5
89
330
87
100
AcDbEntity
  8
0
100
AcDbBlockBegin
  2
GENAXEH
 70
     0
 10
0.0
 20
0.0
 30
0.0
  3
GENAXEH
  1

  0
LINE
  5
88
330
87
100
AcDbEntity
  8
0
100
AcDbLine
 10
-1.0
 20
0.0
 30
0.0
 11
1.0
 21
0.0
 31
0.0
  0
ENDBLK
  5
8A
330
87
100
AcDbEntity
  8
0
100
AcDbBlockEnd
  0
BLOCK
  5
10B6
330
10B5
100
AcDbEntity
  8
0
100
AcDbBlockBegin
  2
*U4
 70
     1
 10
0.0
 20
0.0
 30
0.0
  3
*U4
  1

  0
ENDBLK
  5
10B7
330
10B5
100
AcDbEntity
  8
0
100
AcDbBlockEnd
  0
BLOCK
  5
1C87
330
1C7D
100
AcDbEntity
  8
0
100
AcDbBlockBegin
  2
*D5
 70
     1
 10
0.0
 20
0.0
 30
0.0
  3
*D5
  1

  0
LINE
  5
1C8B
330
1C7D
100
AcDbEntity
  8
AM_5
100
AcDbLine
 10
217.5681178292937
 20
127.2134728174857
 30
0.0
 11
217.5681178292937
 21
102.2134728174855
 31
0.0
  0
LINE
  5
1C8C
330
1C7D
100
AcDbEntity
  8
AM_5
100
AcDbLine
 10
253.5681178292937
 20
114.7134728174856
 30
0.0
 11
253.5681178292937
 21
102.2134728174855
 31
0.0
  0
LINE
  5
1C8D
330
1C7D
100
AcDbEntity
  8
AM_5
100
AcDbLine
 10
220.5681178292937
 20
103.7134728174855
 30
0.0
 11
250.5681178292937
 21
103.7134728174855
 31
0.0
  0
SOLID
  5
1C8E
330
1C7D
100
AcDbEntity
  8
AM_5
100
AcDbTrace
 10
220.5681178292937
 20
104.2134728174855
 30
0.0
 11
220.5681178292937
 21
103.2134728174855
 31
0.0
 12
217.5681178292937
 22
103.7134728174855
 32
0.0
 13
217.5681178292937
 23
103.7134728174855
 33
0.0
  0
SOLID
  5
1C8F
330
1C7D
100
AcDbEntity
  8
AM_5
100
AcDbTrace
 10
250.5681178292937
 20
104.2134728174855
 30
0.0
 11
250.5681178292937
 21
103.2134728174855
 31
0.0
 12
253.5681178292937
 22
103.7134728174855
 32
0.0
 13
253.5681178292937
 23
103.7134728174855
 33
0.0
  0
MTEXT
  5
1C90
330
1C7D
100
AcDbEntity
  8
AM_5
100
AcDbMText
 10
235.5681178292936
 20
106.2634728174855
 30
0.0
 40
3.5
 41
0.0
 71
     5
 72
     1
  1
36
  7
CHINESET
 73
     1
 44
1.0
1001
ACAD
1000
MTEXTBEGIN
1070
    73
1070
     1
1070
    44
1040
1.0
1070
    74
1070
     0
1000
MTEXTEND
  0
POINT
  5
1C91
330
1C7D
100
AcDbEntity
  8
Defpoints
 62
     0
100
AcDbPoint
 10
217.5681178292937
 20
128.2134728174857
 30
0.0
  0
POINT
  5
1C92
330
1C7D
100
AcDbEntity
  8
Defpoints
 62
     0
100
AcDbPoint
 10
253.5681178292937
 20
115.7134728174856
 30
0.0
  0
POINT
  5
1C93
330
1C7D
100
AcDbEntity
  8
Defpoints
 62
     0
100
AcDbPoint
 10
253.5681178292937
 20
103.7134728174855
 30
0.0
  0
ENDBLK
  5
1C88
330
1C7D
100
AcDbEntity
  8
0
100
AcDbBlockEnd
  0
BLOCK
  5
1CAD
330
1CA3
100
AcDbEntity
  8
0
100
AcDbBlockBegin
  2
*D6
 70
     1
 10
0.0
 20
0.0
 30
0.0
  3
*D6
  1

  0
LINE
  5
1CB1
330
1CA3
100
AcDbEntity
  8
AM_5
100
AcDbLine
 10
243.0681178292937
 20
213.9634728174857
 30
0.0
 11
243.0681178292937
 21
254.2134728174858
 31
0.0
  0
LINE
  5
1CB2
330
1CA3
100
AcDbEntity
  8
AM_5
100
AcDbLine
 10
253.5681178292937
 20
241.7134728174858
 30
0.0
 11
253.5681178292937
 21
254.2134728174858
 31
0.0
  0
LINE
  5
1CB3
330
1CA3
100
AcDbEntity
  8
AM_5
100
AcDbLine
 10
246.0681178292936
 20
252.7134728174857
 30
0.0
 11
250.5681178292937
 21
252.7134728174857
 31
0.0
  0
SOLID
  5
1CB4
330
1CA3
100
AcDbEntity
  8
AM_5
100
AcDbTrace
 10
246.0681178292936
 20
253.2134728174857
 30
0.0
 11
246.0681178292936
 21
252.2134728174858
 31
0.0
 12
243.0681178292937
 22
252.7134728174857
 32
0.0
 13
243.0681178292937
 23
252.7134728174857
 33
0.0
  0
SOLID
  5
1CB5
330
1CA3
100
AcDbEntity
  8
AM_5
100
AcDbTrace
 10
250.5681178292937
 20
253.2134728174857
 30
0.0
 11
250.5681178292937
 21
252.2134728174858
 31
0.0
 12
253.5681178292937
 22
252.7134728174857
 32
0.0
 13
253.5681178292937
 23
252.7134728174857
 33
0.0
  0
MTEXT
  5
1CB6
330
1CA3
100
AcDbEntity
  8
AM_5
100
AcDbMText
 10
248.3181178292937
 20
255.2634728174858
 30
0.0
 40
3.5
 41
0.0
 71
     5
 72
     1
  1
10.5
  7
CHINESET
 73
     1
 44
1.0
1001
ACAD
1000
MTEXTBEGIN
1070
    73
1070
     1
1070
    44
1040
1.0
1070
    74
1070
     0
1000
MTEXTEND
  0
POINT
  5
1CB7
330
1CA3
100
AcDbEntity
  8
Defpoints
 62
     0
100
AcDbPoint
 10
243.0681178292937
 20
212.9634728174857
 30
0.0
  0
POINT
  5
1CB8
330
1CA3
100
AcDbEntity
  8
Defpoints
 62
     0
100
AcDbPoint
 10
253.5681178292937
 20
240.7134728174857
 30
0.0
  0
POINT
  5
1CB9
330
1CA3
100
AcDbEntity
  8
Defpoints
 62
     0
100
AcDbPoint
 10
253.5681178292937
 20
252.7134728174857
 30
0.0
  0
ENDBLK
  5
1CAE
330
1CA3
100
AcDbEntity
  8
0
100
AcDbBlockEnd
  0
BLOCK
  5
1CD3
330
1CC9
100
AcDbEntity
  8
0
100
AcDbBlockBegin
  2
*D7
 70
     1
 10
0.0
 20
0.0
 30
0.0
  3
*D7
  1

  0
LINE
  5
1E36
330
1CC9
100
AcDbEntity
  8
AM_5
100
AcDbLine
 10
221.0681178292936
 20
158.9634728174857
 30
0.0
 11
221.0681178292936
 21
254.2134728174858
 31
0.0
  0
LINE
  5
1E37
330
1CC9
100
AcDbEntity
  8
AM_5
100
AcDbLine
 10
243.0681178292937
 20
213.9634728174857
 30
0.0
 11
243.0681178292937
 21
254.2134728174858
 31
0.0
  0
LINE
  5
1E38
330
1CC9
100
AcDbEntity
  8
AM_5
100
AcDbLine
 10
224.0681178292937
 20
252.7134728174857
 30
0.0
 11
240.0681178292937
 21
252.7134728174857
 31
0.0
  0
SOLID
  5
1E39
330
1CC9
100
AcDbEntity
  8
AM_5
100
AcDbTrace
 10
224.0681178292937
 20
253.2134728174857
 30
0.0
 11
224.0681178292937
 21
252.2134728174858
 31
0.0
 12
221.0681178292936
 22
252.7134728174857
 32
0.0
 13
221.0681178292936
 23
252.7134728174857
 33
0.0
  0
SOLID
  5
1E3A
330
1CC9
100
AcDbEntity
  8
AM_5
100
AcDbTrace
 10
240.0681178292937
 20
253.2134728174857
 30
0.0
 11
240.0681178292937
 21
252.2134728174858
 31
0.0
 12
243.0681178292937
 22
252.7134728174857
 32
0.0
 13
243.0681178292937
 23
252.7134728174857
 33
0.0
  0
MTEXT
  5
1E3B
330
1CC9
100
AcDbEntity
  8
AM_5
100
AcDbMText
 10
232.0681178292937
 20
255.2634728174858
 30
0.0
 40
3.5
 41
0.0
 71
     5
 72
     1
  1
22
  7
CHINESET
 73
     1
 44
1.0
1001
ACAD
1000
MTEXTBEGIN
1070
    73
1070
     1
1070
    44
1040
1.0
1070
    74
1070
     0
1000
MTEXTEND
  0
POINT
  5
1E3C
330
1CC9
100
AcDbEntity
  8
Defpoints
 62
     0
100
AcDbPoint
 10
221.0681178292936
 20
157.9634728174857
 30
0.0
  0
POINT
  5
1E3D
330
1CC9
100
AcDbEntity
  8
Defpoints
 62
     0
100
AcDbPoint
 10
243.0681178292937
 20
212.9634728174857
 30
0.0
  0
POINT
  5
1E3E
330
1CC9
100
AcDbEntity
  8
Defpoints
 62
     0
100
AcDbPoint
 10
243.0681178292937
 20
252.7134728174857
 30
0.0
  0
ENDBLK
  5
1CD4
330
1CC9
100
AcDbEntity
  8
0
100
AcDbBlockEnd
  0
BLOCK
  5
1D06
330
1CFC
100
AcDbEntity
  8
0
100
AcDbBlockBegin
  2
*D8
 70
     1
 10
0.0
 20
0.0
 30
0.0
  3
*D8
  1

  0
LINE
  5
1E4E
330
1CFC
100
AcDbEntity
  8
AM_5
100
AcDbLine
 10
229.3181178292936
 20
150.7134728174857
 30
0.0
 11
267.0681178292937
 21
150.7134728174857
 31
0.0
  0
LINE
  5
1E4F
330
1CFC
100
AcDbEntity
  8
AM_5
100
AcDbLine
 10
251.3181178292937
 20
205.7134728174857
 30
0.0
 11
267.0681178292937
 21
205.7134728174857
 31
0.0
  0
LINE
  5
1E50
330
1CFC
100
AcDbEntity
  8
AM_5
100
AcDbLine
 10
265.5681178292937
 20
153.7134728174857
 30
0.0
 11
265.5681178292937
 21
202.7134728174857
 31
0.0
  0
SOLID
  5
1E51
330
1CFC
100
AcDbEntity
  8
AM_5
100
AcDbTrace
 10
265.0681178292937
 20
153.7134728174857
 30
0.0
 11
266.0681178292937
 21
153.7134728174857
 31
0.0
 12
265.5681178292937
 22
150.7134728174857
 32
0.0
 13
265.5681178292937
 23
150.7134728174857
 33
0.0
  0
SOLID
  5
1E52
330
1CFC
100
AcDbEntity
  8
AM_5
100
AcDbTrace
 10
265.0681178292937
 20
202.7134728174857
 30
0.0
 11
266.0681178292937
 21
202.7134728174857
 31
0.0
 12
265.5681178292937
 22
205.7134728174857
 32
0.0
 13
265.5681178292937
 23
205.7134728174857
 33
0.0
  0
MTEXT
  5
1E53
330
1CFC
100
AcDbEntity
  8
AM_5
100
AcDbMText
 10
263.0181178292936
 20
178.2134728174857
 30
0.0
 40
3.5
 41
0.0
 71
     5
 72
     1
  1
55
  7
CHINESET
 11
0.0000000000000001
 21
1.0
 31
0.0
 73
     1
 44
1.0
1001
ACAD
1000
MTEXTBEGIN
1070
    73
1070
     1
1070
    44
1040
1.0
1070
    74
1070
     0
1000
MTEXTEND
  0
POINT
  5
1E54
330
1CFC
100
AcDbEntity
  8
Defpoints
 62
     0
100
AcDbPoint
 10
228.3181178292937
 20
150.7134728174857
 30
0.0
  0
POINT
  5
1E55
330
1CFC
100
AcDbEntity
  8
Defpoints
 62
     0
100
AcDbPoint
 10
250.3181178292937
 20
205.7134728174857
 30
0.0
  0
POINT
  5
1E56
330
1CFC
100
AcDbEntity
  8
Defpoints
 62
     0
100
AcDbPoint
 10
265.5681178292937
 20
205.7134728174857
 30
0.0
  0
ENDBLK
  5
1D07
330
1CFC
100
AcDbEntity
  8
0
100
AcDbBlockEnd
  0
BLOCK
  5
1D2C
330
1D22
100
AcDbEntity
  8
0
100
AcDbBlockBegin
  2
*D9
 70
     1
 10
0.0
 20
0.0
 30
0.0
  3
*D9
  1

  0
LINE
  5
1E45
330
1D22
100
AcDbEntity
  8
AM_5
100
AcDbLine
 10
227.5046578292937
 20
137.2134728174857
 30
0.0
 11
275.0681178292936
 21
137.2134728174857
 31
0.0
  0
LINE
  5
1E46
330
1D22
100
AcDbEntity
  8
AM_5
100
AcDbLine
 10
227.5046578292937
 20
219.2134728174856
 30
0.0
 11
275.0681178292936
 21
219.2134728174856
 31
0.0
  0
LINE
  5
1E47
330
1D22
100
AcDbEntity
  8
AM_5
100
AcDbLine
 10
273.5681178292936
 20
140.2134728174857
 30
0.0
 11
273.5681178292936
 21
216.2134728174855
 31
0.0
  0
SOLID
  5
1E48
330
1D22
100
AcDbEntity
  8
AM_5
100
AcDbTrace
 10
273.0681178292936
 20
140.2134728174857
 30
0.0
 11
274.0681178292936
 21
140.2134728174857
 31
0.0
 12
273.5681178292936
 22
137.2134728174857
 32
0.0
 13
273.5681178292936
 23
137.2134728174857
 33
0.0
  0
SOLID
  5
1E49
330
1D22
100
AcDbEntity
  8
AM_5
100
AcDbTrace
 10
273.0681178292936
 20
216.2134728174855
 30
0.0
 11
274.0681178292936
 21
216.2134728174855
 31
0.0
 12
273.5681178292936
 22
219.2134728174856
 32
0.0
 13
273.5681178292936
 23
219.2134728174856
 33
0.0
  0
MTEXT
  5
1E4A
330
1D22
100
AcDbEntity
  8
AM_5
100
AcDbMText
 10
271.0181178292935
 20
178.2134728174856
 30
0.0
 40
3.5
 41
0.0
 71
     5
 72
     1
  1
82
  7
CHINESET
 11
0.0000000000000001
 21
1.0
 31
0.0
 73
     1
 44
1.0
1001
ACAD
1000
MTEXTBEGIN
1070
    73
1070
     1
1070
    44
1040
1.0
1070
    74
1070
     0
1000
MTEXTEND
  0
POINT
  5
1E4B
330
1D22
100
AcDbEntity
  8
Defpoints
 62
     0
100
AcDbPoint
 10
226.5046578292937
 20
137.2134728174857
 30
0.0
  0
POINT
  5
1E4C
330
1D22
100
AcDbEntity
  8
Defpoints
 62
     0
100
AcDbPoint
 10
226.5046578292937
 20
219.2134728174856
 30
0.0
  0
POINT
  5
1E4D
330
1D22
100
AcDbEntity
  8
Defpoints
 62
     0
100
AcDbPoint
 10
273.5681178292936
 20
219.2134728174856
 30
0.0
  0
ENDBLK
  5
1D2D
330
1D22
100
AcDbEntity
  8
0
100
AcDbBlockEnd
  0
BLOCK
  5
1D57
330
1D4D
100
AcDbEntity
  8
0
100
AcDbBlockBegin
  2
*D10
 70
     1
 10
0.0
 20
0.0
 30
0.0
  3
*D10
  1

  0
LINE
  5
1E5D
330
1D4D
100
AcDbEntity
  8
AM_5
100
AcDbLine
 10
185.5681178292936
 20
114.7134728174856
 30
0.0
 11
185.5681178292936
 21
94.21347281748557
 31
0.0
  0
LINE
  5
1E5E
330
1D4D
100
AcDbEntity
  8
AM_5
100
AcDbLine
 10
253.5681178292937
 20
114.7134728174857
 30
0.0
 11
253.5681178292937
 21
94.21347281748557
 31
0.0
  0
LINE
  5
1E5F
330
1D4D
100
AcDbEntity
  8
AM_5
100
AcDbLine
 10
188.5681178292936
 20
95.71347281748556
 30
0.0
 11
250.5681178292937
 21
95.71347281748556
 31
0.0
  0
SOLID
  5
1E60
330
1D4D
100
AcDbEntity
  8
AM_5
100
AcDbTrace
 10
188.5681178292936
 20
96.21347281748557
 30
0.0
 11
188.5681178292936
 21
95.21347281748557
 31
0.0
 12
185.5681178292936
 22
95.71347281748556
 32
0.0
 13
185.5681178292936
 23
95.71347281748556
 33
0.0
  0
SOLID
  5
1E61
330
1D4D
100
AcDbEntity
  8
AM_5
100
AcDbTrace
 10
250.5681178292937
 20
96.21347281748557
 30
0.0
 11
250.5681178292937
 21
95.21347281748557
 31
0.0
 12
253.5681178292937
 22
95.71347281748556
 32
0.0
 13
253.5681178292937
 23
95.71347281748556
 33
0.0
  0
MTEXT
  5
1E62
330
1D4D
100
AcDbEntity
  8
AM_5
100
AcDbMText
 10
219.5681178292937
 20
98.26347281748557
 30
0.0
 40
3.5
 41
0.0
 71
     5
 72
     1
  1
68
  7
CHINESET
 73
     1
 44
1.0
1001
ACAD
1000
MTEXTBEGIN
1070
    73
1070
     1
1070
    44
1040
1.0
1070
    74
1070
     0
1000
MTEXTEND
  0
POINT
  5
1E63
330
1D4D
100
AcDbEntity
  8
Defpoints
 62
     0
100
AcDbPoint
 10
185.5681178292936
 20
115.7134728174856
 30
0.0
  0
POINT
  5
1E64
330
1D4D
100
AcDbEntity
  8
Defpoints
 62
     0
100
AcDbPoint
 10
253.5681178292937
 20
115.7134728174857
 30
0.0
  0
POINT
  5
1E65
330
1D4D
100
AcDbEntity
  8
Defpoints
 62
     0
100
AcDbPoint
 10
253.5681178292937
 20
95.71347281748556
 30
0.0
  0
ENDBLK
  5
1D58
330
1D4D
100
AcDbEntity
  8
0
100
AcDbBlockEnd
  0
BLOCK
  5
1D7D
330
1D73
100
AcDbEntity
  8
0
100
AcDbBlockBegin
  2
*D11
 70
     1
 10
0.0
 20
0.0
 30
0.0
  3
*D11
  1

  0
LINE
  5
1E0E
330
1D73
100
AcDbEntity
  8
AM_5
100
AcDbLine
 10
80.95060782929374
 20
119.5506598441316
 30
0.0
 11
80.95060782929374
 21
94.2134728174857
 31
0.0
  0
LINE
  5
1E0F
330
1D73
100
AcDbEntity
  8
AM_5
100
AcDbLine
 10
140.9506078292932
 20
119.5506598441315
 30
0.0
 11
140.9506078292932
 21
94.2134728174857
 31
0.0
  0
LINE
  5
1E10
330
1D73
100
AcDbEntity
  8
AM_5
100
AcDbLine
 10
83.95060782929375
 20
95.7134728174857
 30
0.0
 11
137.9506078292932
 21
95.7134728174857
 31
0.0
  0
SOLID
  5
1E11
330
1D73
100
AcDbEntity
  8
AM_5
100
AcDbTrace
 10
83.95060782929375
 20
96.21347281748569
 30
0.0
 11
83.95060782929375
 21
95.21347281748569
 31
0.0
 12
80.95060782929374
 22
95.7134728174857
 32
0.0
 13
80.95060782929374
 23
95.7134728174857
 33
0.0
  0
SOLID
  5
1E12
330
1D73
100
AcDbEntity
  8
AM_5
100
AcDbTrace
 10
137.9506078292932
 20
96.21347281748569
 30
0.0
 11
137.9506078292932
 21
95.21347281748569
 31
0.0
 12
140.9506078292932
 22
95.7134728174857
 32
0.0
 13
140.9506078292932
 23
95.7134728174857
 33
0.0
  0
MTEXT
  5
1E13
330
1D73
100
AcDbEntity
  8
AM_5
100
AcDbMText
 10
110.9506078292935
 20
98.26347281748569
 30
0.0
 40
3.5
 41
0.0
 71
     5
 72
     1
  1
60
  7
CHINESET
 73
     1
 44
1.0
1001
ACAD
1000
MTEXTBEGIN
1070
    73
1070
     1
1070
    44
1040
1.0
1070
    74
1070
     0
1000
MTEXTEND
  0
POINT
  5
1E14
330
1D73
100
AcDbEntity
  8
Defpoints
 62
     0
100
AcDbPoint
 10
80.95060782929374
 20
120.5506598441316
 30
0.0
  0
POINT
  5
1E15
330
1D73
100
AcDbEntity
  8
Defpoints
 62
     0
100
AcDbPoint
 10
140.9506078292932
 20
120.5506598441315
 30
0.0
  0
POINT
  5
1E16
330
1D73
100
AcDbEntity
  8
Defpoints
 62
     0
100
AcDbPoint
 10
140.9506078292932
 20
95.7134728174857
 30
0.0
  0
ENDBLK
  5
1D7E
330
1D73
100
AcDbEntity
  8
0
100
AcDbBlockEnd
  0
BLOCK
  5
1DA3
330
1D99
100
AcDbEntity
  8
0
100
AcDbBlockBegin
  2
*D12
 70
     1
 10
0.0
 20
0.0
 30
0.0
  3
*D12
  1

  0
LINE
  5
1E05
330
1D99
100
AcDbEntity
  8
AM_5
100
AcDbLine
 10
88.45060782929364
 20
129.5750528174857
 30
0.0
 11
88.45060782929364
 21
102.2134728174856
 31
0.0
  0
LINE
  5
1E06
330
1D99
100
AcDbEntity
  8
AM_5
100
AcDbLine
 10
133.4506078292936
 20
129.5750528174857
 30
0.0
 11
133.4506078292936
 21
102.2134728174856
 31
0.0
  0
LINE
  5
1E07
330
1D99
100
AcDbEntity
  8
AM_5
100
AcDbLine
 10
91.45060782929363
 20
103.7134728174857
 30
0.0
 11
130.4506078292936
 21
103.7134728174857
 31
0.0
  0
SOLID
  5
1E08
330
1D99
100
AcDbEntity
  8
AM_5
100
AcDbTrace
 10
91.45060782929363
 20
104.2134728174856
 30
0.0
 11
91.45060782929363
 21
103.2134728174856
 31
0.0
 12
88.45060782929364
 22
103.7134728174857
 32
0.0
 13
88.45060782929364
 23
103.7134728174857
 33
0.0
  0
SOLID
  5
1E09
330
1D99
100
AcDbEntity
  8
AM_5
100
AcDbTrace
 10
130.4506078292936
 20
104.2134728174856
 30
0.0
 11
130.4506078292936
 21
103.2134728174856
 31
0.0
 12
133.4506078292936
 22
103.7134728174857
 32
0.0
 13
133.4506078292936
 23
103.7134728174857
 33
0.0
  0
MTEXT
  5
1E0A
330
1D99
100
AcDbEntity
  8
AM_5
100
AcDbMText
 10
110.9506078292936
 20
106.2634728174856
 30
0.0
 40
3.5
 41
0.0
 71
     5
 72
     1
  1
45
  7
CHINESET
 73
     1
 44
1.0
1001
ACAD
1000
MTEXTBEGIN
1070
    73
1070
     1
1070
    44
1040
1.0
1070
    74
1070
     0
1000
MTEXTEND
  0
POINT
  5
1E0B
330
1D99
100
AcDbEntity
  8
Defpoints
 62
     0
100
AcDbPoint
 10
88.45060782929364
 20
130.5750528174857
 30
0.0
  0
POINT
  5
1E0C
330
1D99
100
AcDbEntity
  8
Defpoints
 62
     0
100
AcDbPoint
 10
133.4506078292936
 20
130.5750528174857
 30
0.0
  0
POINT
  5
1E0D
330
1D99
100
AcDbEntity
  8
Defpoints
 62
     0
100
AcDbPoint
 10
133.4506078292936
 20
103.7134728174857
 30
0.0
  0
ENDBLK
  5
1DA4
330
1D99
100
AcDbEntity
  8
0
100
AcDbBlockEnd
  0
BLOCK
  5
1DC9
330
1DBF
100
AcDbEntity
  8
0
100
AcDbBlockBegin
  2
*D13
 70
     1
 10
0.0
 20
0.0
 30
0.0
  3
*D13
  1

  0
LINE
  5
1E26
330
1DBF
100
AcDbEntity
  8
AM_5
100
AcDbLine
 10
80.93860782929368
 20
137.2134728174856
 30
0.0
 11
67.45060782929371
 21
137.2134728174856
 31
0.0
  0
LINE
  5
1E27
330
1DBF
100
AcDbEntity
  8
AM_5
100
AcDbLine
 10
80.93860782929368
 20
219.2134728174857
 30
0.0
 11
67.45060782929373
 21
219.2134728174857
 31
0.0
  0
LINE
  5
1E28
330
1DBF
100
AcDbEntity
  8
AM_5
100
AcDbLine
 10
68.95060782929371
 20
140.2134728174856
 30
0.0
 11
68.95060782929373
 21
216.2134728174857
 31
0.0
  0
SOLID
  5
1E29
330
1DBF
100
AcDbEntity
  8
AM_5
100
AcDbTrace
 10
68.45060782929372
 20
140.2134728174856
 30
0.0
 11
69.45060782929371
 21
140.2134728174856
 31
0.0
 12
68.95060782929371
 22
137.2134728174856
 32
0.0
 13
68.95060782929371
 23
137.2134728174856
 33
0.0
  0
SOLID
  5
1E2A
330
1DBF
100
AcDbEntity
  8
AM_5
100
AcDbTrace
 10
68.45060782929373
 20
216.2134728174857
 30
0.0
 11
69.45060782929373
 21
216.2134728174857
 31
0.0
 12
68.95060782929373
 22
219.2134728174857
 32
0.0
 13
68.95060782929373
 23
219.2134728174857
 33
0.0
  0
MTEXT
  5
1E2B
330
1DBF
100
AcDbEntity
  8
AM_5
100
AcDbMText
 10
66.40060782929371
 20
178.2134728174857
 30
0.0
 40
3.5
 41
0.0
 71
     5
 72
     1
  1
82
  7
CHINESET
 11
0.0000000000000001
 21
1.0
 31
0.0
 73
     1
 44
1.0
1001
ACAD
1000
MTEXTBEGIN
1070
    73
1070
     1
1070
    44
1040
1.0
1070
    74
1070
     0
1000
MTEXTEND
  0
POINT
  5
1E2C
330
1DBF
100
AcDbEntity
  8
Defpoints
 62
     0
100
AcDbPoint
 10
81.93860782929368
 20
137.2134728174856
 30
0.0
  0
POINT
  5
1E2D
330
1DBF
100
AcDbEntity
  8
Defpoints
 62
     0
100
AcDbPoint
 10
81.93860782929368
 20
219.2134728174857
 30
0.0
  0
POINT
  5
1E2E
330
1DBF
100
AcDbEntity
  8
Defpoints
 62
     0
100
AcDbPoint
 10
68.95060782929373
 20
219.2134728174857
 30
0.0
  0
ENDBLK
  5
1DCA
330
1DBF
100
AcDbEntity
  8
0
100
AcDbBlockEnd
  0
BLOCK
  5
1DEF
330
1DE5
100
AcDbEntity
  8
0
100
AcDbBlockBegin
  2
*D14
 70
     1
 10
0.0
 20
0.0
 30
0.0
  3
*D14
  1

  0
LINE
  5
1E1D
330
1DE5
100
AcDbEntity
  8
AM_5
100
AcDbLine
 10
92.0970367579366
 20
115.7134728174856
 30
0.0
 11
59.4506078292937
 21
115.7134728174856
 31
0.0
  0
LINE
  5
1E1E
330
1DE5
100
AcDbEntity
  8
AM_5
100
AcDbLine
 10
92.09703675793941
 20
240.7134728174865
 30
0.0
 11
59.45060782929372
 21
240.7134728174865
 31
0.0
  0
LINE
  5
1E1F
330
1DE5
100
AcDbEntity
  8
AM_5
100
AcDbLine
 10
60.95060782929369
 20
118.7134728174856
 30
0.0
 11
60.95060782929372
 21
237.7134728174865
 31
0.0
  0
SOLID
  5
1E20
330
1DE5
100
AcDbEntity
  8
AM_5
100
AcDbTrace
 10
60.45060782929369
 20
118.7134728174856
 30
0.0
 11
61.4506078292937
 21
118.7134728174856
 31
0.0
 12
60.95060782929369
 22
115.7134728174856
 32
0.0
 13
60.95060782929369
 23
115.7134728174856
 33
0.0
  0
SOLID
  5
1E21
330
1DE5
100
AcDbEntity
  8
AM_5
100
AcDbTrace
 10
60.45060782929372
 20
237.7134728174865
 30
0.0
 11
61.45060782929371
 21
237.7134728174865
 31
0.0
 12
60.95060782929373
 22
240.7134728174865
 32
0.0
 13
60.95060782929373
 23
240.7134728174865
 33
0.0
  0
MTEXT
  5
1E22
330
1DE5
100
AcDbEntity
  8
AM_5
100
AcDbMText
 10
58.40060782929368
 20
178.2134728174861
 30
0.0
 40
3.5
 41
0.0
 71
     5
 72
     1
  1
125
  7
CHINESET
 11
0.0000000000000001
 21
1.0
 31
0.0
 73
     1
 44
1.0
1001
ACAD
1000
MTEXTBEGIN
1070
    73
1070
     1
1070
    44
1040
1.0
1070
    74
1070
     0
1000
MTEXTEND
  0
POINT
  5
1E23
330
1DE5
100
AcDbEntity
  8
Defpoints
 62
     0
100
AcDbPoint
 10
93.09703675793661
 20
115.7134728174856
 30
0.0
  0
POINT
  5
1E24
330
1DE5
100
AcDbEntity
  8
Defpoints
 62
     0
100
AcDbPoint
 10
93.0970367579394
 20
240.7134728174865
 30
0.0
  0
POINT
  5
1E25
330
1DE5
100
AcDbEntity
  8
Defpoints
 62
     0
100
AcDbPoint
 10
60.95060782929373
 20
240.7134728174865
 30
0.0
  0
ENDBLK
  5
1DF0
330
1DE5
100
AcDbEntity
  8
0
100
AcDbBlockEnd
  0
BLOCK
  5
1F12
330
1F0D
100
AcDbEntity
  8
0
100
AcDbBlockBegin
  2
*S16
 70
     1
 10
0.0
 20
0.0
 30
0.0
  3
*S16
  1

  0
LINE
  5
1F0E
330
1F0D
100
AcDbEntity
  8
AM_5
 62
     5
100
AcDbLine
 10
275.0553558340276
 20
225.9922819199799
 30
0.0
 11
257.6386686059382
 21
225.9922819199799
 31
0.0
  0
LINE
  5
1F0F
330
1F0D
100
AcDbEntity
  8
AM_5
 62
     5
100
AcDbLine
 10
257.6386686059382
 20
225.9922819199799
 30
0.0
 11
249.1577929869121
 21
211.7329088191615
 31
0.0
  0
TRACE
  5
1F10
330
1F0D
100
AcDbEntity
  8
AM_5
 62
     5
370
    35
100
AcDbTrace
 10
248.7617612496062
 20
211.968451846301
 30
0.0
 11
249.5538247242181
 21
211.497365792022
 31
0.0
 12
247.3686660618109
 22
208.7247491083286
 32
0.0
 13
247.3686660618109
 23
208.7247491083286
 33
0.0
  0
MTEXT
  5
1F11
330
1F0D
100
AcDbEntity
  8
AM_5
 62
     5
100
AcDbMText
 10
258.8664778812717
 20
226.6839224926823
 30
0.0
 40
3.5
 41
0.0
 71
     7
 72
     5
  1
2-PT1/8
  7
ACISOTS
 73
     1
 44
1.0
1001
ACAD
1000
MTEXTBEGIN
1070
    73
1070
     1
1070
    44
1040
1.0
1070
    74
1070
     0
1000
MTEXTEND
  0
ENDBLK
  5
1F13
330
1F0D
100
AcDbEntity
  8
0
100
AcDbBlockEnd
  0
ENDSEC
  0
SECTION
  2
ENTITIES
  0
TEXT
  5
11DF
330
1F
100
AcDbEntity
  8
LOGO
 62
     7
100
AcDbText
 10
92.97683383740016
 20
39.22586968290577
 30
0.0
 40
3.839443981900452
  1
Order example:
 41
0.8
  7
CHINESET
100
AcDbText
  0
TEXT
  5
11E0
330
1F
100
AcDbEntity
  8
LOGO
 62
     7
100
AcDbText
 10
93.6656618386632
 20
44.63101184240147
 30
0.0
 40
5.759165972850677
  1
訂購代號：
  7
CHINESET
100
AcDbText
  0
LINE
  5
11E1
330
1F
100
AcDbEntity
  8
LOGO
 62
     4
100
AcDbLine
 10
91.30858240461913
 20
23.04500287926581
 30
0.0
 11
91.30858240461913
 21
51.8408327435194
 31
0.0
  0
TEXT
  5
11E2
330
1F
100
AcDbEntity
  8
LOGO
  6
Continuous
100
AcDbText
 10
38.30134823026111
 20
28.70190019940216
 30
0.0
 40
4.319374479638009
  1
金器工業股份有限公司
  7
CHINESET
100
AcDbText
  0
TEXT
  5
11E3
330
1F
100
AcDbEntity
  8
LOGO
  6
Continuous
100
AcDbText
 10
30.36751185726519
 20
24.38167946101823
 30
0.0
 40
2.879582986425338
  1
MINDMAN INDUSTRIAL CO., LTD.
 41
0.85
  7
CHINESET
100
AcDbText
  0
LINE
  5
11E4
330
1F
100
AcDbEntity
  8
LOGO
 62
     4
100
AcDbLine
 10
91.30858240461913
 20
46.08166677066868
 30
0.0
 11
49.07469860371387
 21
46.08166677066868
 31
0.0
  0
LINE
  5
11E5
330
1F
100
AcDbEntity
  8
LOGO
 62
     4
100
AcDbLine
 10
91.30858240461913
 20
40.32250079781795
 30
0.0
 11
49.07469860371387
 21
40.32250079781795
 31
0.0
  0
LINE
  5
11E6
330
1F
100
AcDbEntity
  8
LOGO
 62
     4
100
AcDbLine
 10
91.30858240461913
 20
34.56333482496757
 30
0.0
 11
27.9577567032616
 21
34.56333482496757
 31
0.0
  0
LINE
  5
11E7
330
1F
100
AcDbEntity
  8
LOGO
 62
     4
100
AcDbLine
 10
49.07469860371387
 20
34.56333482496757
 30
0.0
 11
49.07469860371387
 21
51.8408327435194
 31
0.0
  0
TEXT
  5
11E8
330
1F
100
AcDbEntity
  8
LOGO
100
AcDbText
 10
77.93956477268058
 20
36.00312631817978
 30
0.0
 40
2.879582986425338
  1
mm
  7
CHINESET
 72
     1
 11
81.50476275587385
 21
37.44291781139245
 31
0.0
100
AcDbText
 73
     2
  0
TEXT
  5
11E9
330
1F
100
AcDbEntity
  8
LOGO
100
AcDbText
 10
76.43121177979111
 20
47.5214582638812
 30
0.0
 40
2.879582986425338
  1
1 : 1
  7
CHINESET
 72
     1
 11
81.50476275587385
 21
48.96124975709387
 31
0.0
100
AcDbText
 73
     2
  0
LINE
  5
11EA
330
1F
100
AcDbEntity
  8
LOGO
 62
     4
100
AcDbLine
 10
72.11136249511676
 20
34.56333482496757
 30
0.0
 11
72.11136249511676
 21
51.8408327435194
 31
0.0
  0
TEXT
  5
11EB
330
1F
100
AcDbEntity
  8
LOGO
100
AcDbText
 10
51.44906903939593
 20
47.52287538149262
 30
188.7231250944717
 40
2.879582986425338
  1
比例 Scale:
 41
0.9
  7
CHINESET
 72
     4
 11
60.59303054941532
 21
48.96124975709387
 31
188.7231250944717
100
AcDbText
  0
TEXT
  5
11EC
330
1F
100
AcDbEntity
  8
LOGO
100
AcDbText
 10
51.28323591205268
 20
41.8027982360905
 30
188.7231250944717
 40
2.879582986425338
  1
投影  View:
 41
0.9
  7
CHINESET
 72
     4
 11
60.59303054941532
 21
43.20208378424314
 31
188.7231250944717
100
AcDbText
  0
TEXT
  5
11ED
330
1F
100
AcDbEntity
  8
LOGO
100
AcDbText
 10
51.56476657010052
 20
36.00312631817978
 30
188.7231250944717
 40
2.879582986425338
  1
單位  Unit:
 41
0.9
  7
CHINESET
 72
     4
 11
60.59303054941532
 21
37.44291781139245
 31
188.7231250944717
100
AcDbText
  0
LWPOLYLINE
  5
11EE
330
1F
100
AcDbEntity
  8
LOGO
 62
     4
100
AcDbPolyline
 90
        4
 70
     1
 43
0.0
 10
27.9577567032616
 20
51.84083274351938
 10
423.9577567032615
 20
51.84083274351938
 10
423.9577567032615
 20
311.0450028792652
 10
27.9577567032616
 20
311.0450028792652
1001
GENIUS_GENREC_14
1002
{
1000
PYDIR
1011
27.9577567032616
1021
311.0450028792652
1031
0.0
1002
}
1002
{
1000
PXDIR
1011
423.9577567032615
1021
51.84083274351938
1031
0.0
1002
}
1002
{
1000
PORI
1011
27.9577567032616
1021
51.84083274351938
1031
0.0
1002
}
1002
{
1000
PINS
1011
27.9577567032616
1021
51.84083274351938
1031
0.0
1002
}
1002
{
1000
PINS2
1011
423.9577567032615
1021
311.0450028792652
1031
0.0
1002
}
1002
{
1000
C
1070
     1
1002
}
1001
GENIUS_GENODEF_13
1002
{
1000
HIER
1070
     0
1002
}
1002
{
1000
MANEDIT
1070
     0
1002
}
1002
{
1000
NOSEL
1070
     0
1002
}
1002
{
1000
BEHIND
1070
     0
1002
}
1002
{
1000
OTHER
1070
     0
1002
}
1002
{
1000
REACTOR
1002
}
1001
GENIUS_GENOBJ-N-REC_13
1002
{
1000
OWNER
1000
GEN
1002
}
  0
SOLID
  5
11EF
330
1F
100
AcDbEntity
  8
LOGO
 62
     5
100
AcDbTrace
 10
30.94537026546959
 20
39.35023166353727
 30
0.0
 11
32.19042638854231
 21
39.35023166353696
 31
0.0
 12
37.38531572963871
 22
51.15679834784812
 32
0.0
 13
38.6303718527121
 23
51.15679834784748
 33
0.0
  0
SOLID
  5
11F0
330
1F
100
AcDbEntity
  8
LOGO
 62
     5
100
AcDbTrace
 10
32.7056220256772
 20
39.35023166353727
 30
0.0
 11
33.95067814874991
 21
39.35023166353727
 31
0.0
 12
38.6303718527121
 22
50.21227301310279
 32
0.0
 13
37.38531572963871
 23
45.6470672285026
 33
0.0
  0
SOLID
  5
11F1
330
1F
100
AcDbEntity
  8
LOGO
 62
     2
100
AcDbTrace
 10
32.19042638854231
 20
39.35023166353696
 30
0.0
 11
32.7056220256772
 21
39.35023166353727
 31
0.0
 12
38.6303718527121
 22
51.15679834784748
 32
0.0
 13
39.14556748984634
 23
51.15679834784748
 33
0.0
  0
SOLID
  5
11F2
330
1F
100
AcDbEntity
  8
LOGO
 62
     5
100
AcDbTrace
 10
28.94923997502232
 20
35.05693468742462
 30
0.0
 11
29.37856967263409
 21
35.05693468742462
 31
0.0
 12
30.58759551746056
 22
37.20358317548079
 32
0.0
 13
31.01692521507099
 23
37.20358317548079
 33
0.0
  0
SOLID
  5
11F3
330
1F
100
AcDbEntity
  8
LOGO
 62
     5
100
AcDbTrace
 10
30.58759551746056
 20
37.20358317548079
 30
0.0
 11
31.01692521507099
 21
37.20358317548079
 31
0.0
 12
30.58759551746056
 22
35.05693468742462
 32
0.0
 13
31.01692521507099
 23
35.05693468742462
 33
0.0
  0
SOLID
  5
11F4
330
1F
100
AcDbEntity
  8
LOGO
 62
     5
100
AcDbTrace
 10
30.58759551746056
 20
35.05693468742462
 30
0.0
 11
31.01692521507099
 21
35.05693468742462
 31
0.0
 12
32.22595105989942
 22
37.20358317548079
 32
0.0
 13
32.65528075751055
 23
37.20358317548079
 33
0.0
  0
SOLID
  5
11F5
330
1F
100
AcDbEntity
  8
LOGO
 62
     5
100
AcDbTrace
 10
32.22595105989942
 20
37.20358317548079
 30
0.0
 11
32.65528075751055
 21
37.20358317548079
 31
0.0
 12
32.22595105989942
 22
35.05693468742462
 32
0.0
 13
32.65528075751055
 23
35.05693468742462
 33
0.0
  0
POLYLINE
  5
11F6
330
1F
100
AcDbEntity
  8
LOGO
 62
     5
100
AcDb2dPolyline
 66
     1
 10
0.0
 20
0.0
 30
0.0
 40
0.4300177259728505
 41
0.4300177259728505
  0
VERTEX
  5
11F7
330
11F6
100
AcDbEntity
  8
LOGO
 62
     5
100
AcDbVertex
100
AcDb2dVertex
 10
46.61693627082508
 20
36.34492378025826
 30
0.0
 42
1.0
  0
VERTEX
  5
11F8
330
11F6
100
AcDbEntity
  8
LOGO
 62
     5
100
AcDbVertex
100
AcDb2dVertex
 10
45.32688309290626
 20
36.34492378025826
 30
0.0
 42
1.0
  0
SEQEND
  5
11F9
330
11F6
100
AcDbEntity
  8
LOGO
 62
     5
  0
POLYLINE
  5
11FA
330
1F
100
AcDbEntity
  8
LOGO
 62
     5
100
AcDb2dPolyline
 66
     1
 10
0.0
 20
0.0
 30
0.0
 70
     1
  0
VERTEX
  5
11FB
330
11FA
100
AcDbEntity
  8
LOGO
 62
     5
100
AcDbVertex
100
AcDb2dVertex
 10
42.89507547096369
 20
36.13025893145238
 30
0.0
 42
1.000000057330635
  0
VERTEX
  5
11FC
330
11FA
100
AcDbEntity
  8
LOGO
 62
     5
100
AcDbVertex
100
AcDb2dVertex
 10
44.18306456379764
 20
36.13025893145238
 30
0.0
 42
1.000000057330635
  0
SEQEND
  5
11FD
330
11FA
100
AcDbEntity
  8
LOGO
 62
     5
  0
CIRCLE
  5
11FE
330
1F
100
AcDbEntity
  8
LOGO
 62
     5
100
AcDbCircle
 10
43.53907001738164
 20
36.13025893145238
 30
0.0
 40
0.6439945464169412
  0
POLYLINE
  5
11FF
330
1F
100
AcDbEntity
  8
LOGO
 62
     5
100
AcDb2dPolyline
 66
     1
 10
0.0
 20
0.0
 30
0.0
 70
     1
 40
0.4300177259728505
 41
0.4300177259728505
  0
VERTEX
  5
1200
330
11FF
100
AcDbEntity
  8
LOGO
 62
     5
100
AcDbVertex
100
AcDb2dVertex
 10
42.67903456543533
 20
36.13025893145238
 30
0.0
 42
1.0
  0
VERTEX
  5
1201
330
11FF
100
AcDbEntity
  8
LOGO
 62
     5
100
AcDbVertex
100
AcDb2dVertex
 10
44.39910546932665
 20
36.13025893145238
 30
0.0
 42
1.0
  0
SEQEND
  5
1202
330
11FF
100
AcDbEntity
  8
LOGO
 62
     5
  0
LINE
  5
1203
330
1F
100
AcDbEntity
  8
LOGO
100
AcDbLine
 10
46.83056907708754
 20
35.05693468742462
 30
0.0
 11
46.83056907708754
 21
36.34492378025826
 31
0.0
  0
SOLID
  5
1204
330
1F
100
AcDbEntity
  8
LOGO
 62
     5
100
AcDbTrace
 10
44.18302163082981
 20
37.20358317548079
 30
0.0
 11
44.61235132844024
 21
37.20358317548079
 31
0.0
 12
44.18302163082981
 22
35.05693468742462
 32
0.0
 13
44.61235132844024
 23
35.05693468742462
 33
0.0
  0
SOLID
  5
1205
330
1F
100
AcDbEntity
  8
LOGO
 62
     5
100
AcDbTrace
 10
45.11325028664245
 20
35.05693468742462
 30
0.0
 11
45.54257998425422
 21
35.05693468742462
 31
0.0
 12
45.11325028664245
 22
37.20358317548079
 32
0.0
 13
45.54257998425422
 23
37.20358317548079
 33
0.0
  0
SOLID
  5
1206
330
1F
100
AcDbEntity
  8
LOGO
 62
     5
100
AcDbTrace
 10
46.40123937947712
 20
36.34492378025826
 30
0.0
 11
46.83056907708754
 21
36.34492378025826
 31
0.0
 12
46.40123937947712
 22
35.05693468742462
 32
0.0
 13
46.83056907708754
 23
35.05693468742462
 33
0.0
  0
SOLID
  5
1207
330
1F
100
AcDbEntity
  8
LOGO
 62
     5
100
AcDbTrace
 10
45.07031731688124
 20
50.21227301310279
 30
0.0
 11
43.82526119380918
 21
45.6470672285026
 31
0.0
 12
45.07031731688124
 22
39.35023166353696
 32
0.0
 13
43.82526119380918
 23
39.35023166353696
 33
0.0
  0
SOLID
  5
1208
330
1F
100
AcDbEntity
  8
LOGO
 62
     5
100
AcDbTrace
 10
45.58551295401549
 20
39.35023166353696
 30
0.0
 11
46.83056907708754
 21
39.35023166353696
 31
0.0
 12
45.58551295401549
 22
51.15679834784748
 32
0.0
 13
46.83056907708754
 23
51.15679834784812
 33
0.0
  0
SOLID
  5
1209
330
1F
100
AcDbEntity
  8
LOGO
 62
     2
100
AcDbTrace
 10
45.07031731688124
 20
51.15679834784812
 30
0.0
 11
45.58551295401549
 21
51.15679834784748
 31
0.0
 12
45.07031731688124
 22
39.35023166353696
 32
0.0
 13
45.58551295401549
 23
39.35023166353696
 33
0.0
  0
POLYLINE
  5
120A
330
1F
100
AcDbEntity
  8
LOGO
 62
     5
100
AcDb2dPolyline
 66
     1
 10
0.0
 20
0.0
 30
0.0
 40
0.4300177259728505
 41
0.4300177259728505
  0
VERTEX
  5
120B
330
120A
100
AcDbEntity
  8
LOGO
 62
     5
100
AcDbVertex
100
AcDb2dVertex
 10
40.46318198308347
 20
36.34492378025826
 30
0.0
 42
1.0
  0
VERTEX
  5
120C
330
120A
100
AcDbEntity
  8
LOGO
 62
     5
100
AcDbVertex
100
AcDb2dVertex
 10
39.17312880516465
 20
36.34492378025826
 30
0.0
 42
1.0
  0
SEQEND
  5
120D
330
120A
100
AcDbEntity
  8
LOGO
 62
     5
  0
POLYLINE
  5
120E
330
1F
100
AcDbEntity
  8
LOGO
 62
     5
100
AcDb2dPolyline
 66
     1
 10
0.0
 20
0.0
 30
0.0
 40
0.4300177259728505
 41
0.4300177259728505
  0
VERTEX
  5
120F
330
120E
100
AcDbEntity
  8
LOGO
 62
     5
100
AcDbVertex
100
AcDb2dVertex
 10
41.75117107591609
 20
36.34492378025826
 30
0.0
 42
1.0
  0
VERTEX
  5
1210
330
120E
100
AcDbEntity
  8
LOGO
 62
     5
100
AcDbVertex
100
AcDb2dVertex
 10
40.46111789799792
 20
36.34492378025826
 30
0.0
 42
1.0
  0
SEQEND
  5
1211
330
120E
100
AcDbEntity
  8
LOGO
 62
     5
  0
POLYLINE
  5
1212
330
1F
100
AcDbEntity
  8
LOGO
 62
     5
100
AcDb2dPolyline
 66
     1
 10
0.0
 20
0.0
 30
0.0
 40
0.4300177259728505
 41
0.4300177259728505
  0
VERTEX
  5
1213
330
1212
100
AcDbEntity
  8
LOGO
 62
     5
100
AcDbVertex
100
AcDb2dVertex
 10
35.59741678817449
 20
36.34492378025826
 30
0.0
 42
1.0
  0
VERTEX
  5
1214
330
1212
100
AcDbEntity
  8
LOGO
 62
     5
100
AcDbVertex
100
AcDb2dVertex
 10
34.30736361025632
 20
36.34492378025826
 30
0.0
 42
1.0
  0
SEQEND
  5
1215
330
1212
100
AcDbEntity
  8
LOGO
 62
     5
  0
SOLID
  5
1216
330
1F
100
AcDbEntity
  8
LOGO
 62
     5
100
AcDbTrace
 10
34.09373080399323
 20
37.20358317548079
 30
0.0
 11
34.52306050160365
 21
37.20358317548079
 31
0.0
 12
34.09373080399323
 22
35.05693468742462
 32
0.0
 13
34.52306050160365
 23
35.05693468742462
 33
0.0
  0
SOLID
  5
1217
330
1F
100
AcDbEntity
  8
LOGO
 62
     5
100
AcDbTrace
 10
35.38171989682718
 20
36.34492378025826
 30
0.0
 11
35.81104959443894
 21
36.34492378025826
 31
0.0
 12
35.38171989682718
 22
35.05693468742462
 32
0.0
 13
35.81104959443894
 23
35.05693468742462
 33
0.0
  0
POLYLINE
  5
1218
330
1F
100
AcDbEntity
  8
LOGO
 62
     5
100
AcDb2dPolyline
 66
     1
 10
0.0
 20
0.0
 30
0.0
 70
     1
 40
0.4300177259728505
 41
0.4300177259728505
  0
VERTEX
  5
1219
330
1218
100
AcDbEntity
  8
LOGO
 62
     5
100
AcDbVertex
100
AcDb2dVertex
 10
36.52528027769307
 20
36.13025893145238
 30
0.0
 42
1.0
  0
VERTEX
  5
121A
330
1218
100
AcDbEntity
  8
LOGO
 62
     5
100
AcDbVertex
100
AcDb2dVertex
 10
38.24535118158505
 20
36.13025893145238
 30
0.0
 42
1.0
  0
SEQEND
  5
121B
330
1218
100
AcDbEntity
  8
LOGO
 62
     5
  0
SOLID
  5
121C
330
1F
100
AcDbEntity
  8
LOGO
 62
     5
100
AcDbTrace
 10
38.02926734308687
 20
37.84757772189809
 30
0.0
 11
38.45859704069798
 21
37.84757772189809
 31
0.0
 12
38.02926734308687
 22
35.05693468742462
 32
0.0
 13
38.45859704069798
 23
35.05693468742462
 33
0.0
  0
SOLID
  5
121D
330
1F
100
AcDbEntity
  8
LOGO
 62
     5
100
AcDbTrace
 10
38.95949599890219
 20
37.20358317548079
 30
0.0
 11
39.38882569651261
 21
37.20358317548079
 31
0.0
 12
38.95949599890219
 22
35.05693468742462
 32
0.0
 13
39.38882569651261
 23
35.05693468742462
 33
0.0
  0
SOLID
  5
121E
330
1F
100
AcDbEntity
  8
LOGO
 62
     5
100
AcDbTrace
 10
40.24748509173483
 20
36.34492378025826
 30
0.0
 11
40.67681478934659
 21
36.34492378025826
 31
0.0
 12
40.24748509173483
 22
35.05693468742462
 32
0.0
 13
40.67681478934659
 23
35.05693468742462
 33
0.0
  0
SOLID
  5
121F
330
1F
100
AcDbEntity
  8
LOGO
 62
     5
100
AcDbTrace
 10
41.53547418456878
 20
36.34492378025826
 30
0.0
 11
41.96480388217989
 21
36.34492378025826
 31
0.0
 12
41.53547418456878
 22
35.05693468742399
 32
0.0
 13
41.96480388217989
 23
35.05693468742399
 33
0.0
  0
SOLID
  5
1220
330
1F
100
AcDbEntity
  8
LOGO
 62
     5
100
AcDbTrace
 10
33.16350214817859
 20
37.50411396380883
 30
0.0
 11
33.59283184579098
 21
37.50411396380883
 31
0.0
 12
33.16350214817859
 22
37.84757772189809
 32
0.0
 13
33.59283184579098
 23
37.84757772189809
 33
0.0
  0
SOLID
  5
1221
330
1F
100
AcDbEntity
  8
LOGO
 62
     5
100
AcDbTrace
 10
33.16350214817859
 20
37.20358317548079
 30
0.0
 11
33.59283184579098
 21
37.20358317548079
 31
0.0
 12
33.16350214817859
 22
35.05693468742399
 32
0.0
 13
33.59283184579098
 23
35.05693468742462
 33
0.0
  0
SOLID
  5
1222
330
1F
100
AcDbEntity
  8
LOGO
 62
     5
100
AcDbTrace
 10
37.38531572963871
 20
39.35023166353727
 30
0.0
 11
38.6303718527121
 21
39.35023166353727
 31
0.0
 12
37.38531572963871
 22
45.6470672285026
 32
0.0
 13
38.6303718527121
 23
50.21227301310279
 33
0.0
  0
SOLID
  5
1223
330
1F
100
AcDbEntity
  8
LOGO
 62
     5
100
AcDbTrace
 10
39.14556748984634
 20
51.15679834784748
 30
0.0
 11
40.3906236129184
 21
51.15679834784812
 31
0.0
 12
39.14556748984634
 22
40.29475699828196
 32
0.0
 13
40.3906236129184
 23
44.85996278288214
 33
0.0
  0
SOLID
  5
1224
330
1F
100
AcDbEntity
  8
LOGO
 62
     2
100
AcDbTrace
 10
38.6303718527121
 20
51.15679834784748
 30
0.0
 11
39.14556748984634
 21
51.15679834784748
 31
0.0
 12
38.6303718527121
 22
39.35023166353727
 32
0.0
 13
39.14556748984634
 23
39.35023166353727
 33
0.0
  0
SOLID
  5
1225
330
1F
100
AcDbEntity
  8
LOGO
 62
     5
100
AcDbTrace
 10
39.14556748984634
 20
40.29475699828196
 30
0.0
 11
40.3906236129184
 21
44.85996278288214
 31
0.0
 12
45.07031731688124
 22
51.15679834784812
 32
0.0
 13
43.82526119380918
 23
51.15679834784812
 33
0.0
  0
SOLID
  5
1226
330
1F
100
AcDbEntity
  8
LOGO
 62
     5
100
AcDbTrace
 10
39.14556748984634
 20
39.35023166353727
 30
0.0
 11
40.3906236129184
 21
39.35023166353727
 31
0.0
 12
45.07031731688124
 22
50.21227301310279
 32
0.0
 13
43.82526119380918
 23
45.6470672285026
 33
0.0
  0
SOLID
  5
1227
330
1F
100
AcDbEntity
  8
LOGO
 62
     2
100
AcDbTrace
 10
38.6303718527121
 20
39.35023166353727
 30
0.0
 11
39.14556748984634
 21
39.35023166353727
 31
0.0
 12
45.07031731688124
 22
51.15679834784812
 32
0.0
 13
45.58551295401549
 23
51.15679834784748
 33
0.0
  0
LWPOLYLINE
  5
1228
330
1F
100
AcDbEntity
  8
LOGO
 62
     4
100
AcDbPolyline
 90
        4
 70
     1
 43
0.0
 10
27.9577567032616
 20
51.84083274351938
 10
423.9577567032615
 20
51.84083274351938
 10
423.9577567032615
 20
23.0450028792655
 10
27.9577567032616
 20
23.0450028792655
1001
GENIUS_GENREC_14
1002
{
1000
PYDIR
1011
27.9577567032616
1021
23.0450028792655
1031
0.0
1002
}
1002
{
1000
PXDIR
1011
423.9577567032615
1021
51.84083274351938
1031
0.0
1002
}
1002
{
1000
PORI
1011
27.9577567032616
1021
51.84083274351938
1031
0.0
1002
}
1002
{
1000
PINS
1011
27.9577567032616
1021
51.84083274351938
1031
0.0
1002
}
1002
{
1000
PINS2
1011
423.9577567032615
1021
23.0450028792655
1031
0.0
1002
}
1002
{
1000
C
1070
     1
1002
}
1001
GENIUS_GENOBJ-N-REC_13
1002
{
1000
OWNER
1000
GEN
1002
}
1001
GENIUS_GENODEF_13
1002
{
1000
HIER
1070
     0
1002
}
1002
{
1000
MANEDIT
1070
     0
1002
}
1002
{
1000
NOSEL
1070
     0
1002
}
1002
{
1000
BEHIND
1070
     0
1002
}
1002
{
1000
OTHER
1070
     0
1002
}
1002
{
1000
REACTOR
1002
}
  0
LINE
  5
1229
330
1F
100
AcDbEntity
  8
LOGO
 62
     4
100
AcDbLine
 10
150.1131882685936
 20
36.00312631818034
 30
0.0
 11
150.1131882685936
 21
25.44465536795355
 31
0.0
  0
LINE
  5
122A
330
1F
100
AcDbEntity
  8
LOGO
 62
     4
100
AcDbLine
 10
130.9159683590912
 20
36.00312631818034
 30
0.0
 11
130.9159683590912
 21
25.44465536795355
 31
0.0
  0
LINE
  5
122B
330
1F
100
AcDbEntity
  8
LOGO
 62
     4
100
AcDbLine
 10
150.1131882685936
 20
25.44465536795355
 30
0.0
 11
130.9159683590912
 21
25.44465536795355
 31
0.0
  0
LINE
  5
122C
330
1F
100
AcDbEntity
  8
LOGO
 62
     4
100
AcDbLine
 10
153.5564136779145
 20
48.96124975709387
 30
0.0
 11
130.9159683590912
 21
48.96124975709387
 31
0.0
  0
LINE
  5
122D
330
1F
100
AcDbEntity
  8
LOGO
 62
     4
100
AcDbLine
 10
153.5564136779145
 20
40.32250079781795
 30
0.0
 11
130.9159683590912
 21
40.32250079781795
 31
0.0
  0
LINE
  5
122E
330
1F
100
AcDbEntity
  8
LOGO
 62
     4
100
AcDbLine
 10
130.9159683590912
 20
48.96124975709387
 30
0.0
 11
130.9159683590912
 21
40.32250079781795
 31
0.0
  0
LINE
  5
122F
330
1F
100
AcDbEntity
  8
LOGO
 62
     4
100
AcDbLine
 10
153.5564136779145
 20
48.96124975709387
 30
0.0
 11
153.5564136779145
 21
40.32250079781795
 31
0.0
  0
LINE
  5
1230
330
1F
100
AcDbEntity
  8
LOGO
 62
     4
100
AcDbLine
 10
141.5161910185029
 20
40.32250079781795
 30
0.0
 11
141.5161910185029
 21
36.00312631818034
 31
0.0
  0
TEXT
  5
1231
330
1F
100
AcDbEntity
  8
LOGO
  6
Continuous
100
AcDbText
 10
132.4509387542144
 20
42.12582701321713
 30
0.0
 40
5.04
  1
MCHQ
  7
CHINESET
100
AcDbText
  0
LINE
  5
1232
330
1F
100
AcDbEntity
  8
LOGO
 62
     4
100
AcDbLine
 10
150.1131882685936
 20
36.00312631818034
 30
0.0
 11
130.9159683590912
 21
36.00312631818034
 31
0.0
  0
TEXT
  5
1233
330
1F
100
AcDbEntity
  8
LOGO
  6
Continuous
100
AcDbText
 10
137.0762954505772
 20
26.93496115282025
 30
188.7231250944717
 40
2.159999999999999
  1
Model
 41
0.8
  7
CHINESET
100
AcDbText
  0
TEXT
  5
1234
330
1F
100
AcDbEntity
  8
LOGO
100
AcDbText
 10
136.5013736678585
 20
30.93913563959566
 30
188.7231250944717
 40
3.599999999999999
  1
型號
  7
CHINESET
100
AcDbText
  0
LINE
  5
1235
330
1F
100
AcDbEntity
  8
LOGO
  6
Continuous
100
AcDbLine
 10
154.4747840905628
 20
44.61127546339727
 30
0.0
 11
158.2893404170357
 21
44.61127546339727
 31
0.0
  0
LINE
  5
1241
330
1F
100
AcDbEntity
  8
LOGO
 62
     4
100
AcDbLine
 10
171.9493047598725
 20
36.00312631818034
 30
0.0
 11
171.9493047598725
 21
25.44465536795355
 31
0.0
  0
LINE
  5
1242
330
1F
100
AcDbEntity
  8
LOGO
 62
     4
100
AcDbLine
 10
152.7520848503701
 20
36.00312631818034
 30
0.0
 11
152.7520848503701
 21
25.44465536795355
 31
0.0
  0
LINE
  5
1243
330
1F
100
AcDbEntity
  8
LOGO
 62
     4
100
AcDbLine
 10
171.9493047598725
 20
25.44465536795355
 30
0.0
 11
152.7520848503701
 21
25.44465536795355
 31
0.0
  0
LINE
  5
1244
330
1F
100
AcDbEntity
  8
LOGO
 62
     4
100
AcDbLine
 10
174.5810480220169
 20
48.96124975709387
 30
0.0
 11
159.8196158220939
 21
48.96124975709387
 31
0.0
  0
LINE
  5
1245
330
1F
100
AcDbEntity
  8
LOGO
 62
     4
100
AcDbLine
 10
174.5810480220169
 20
40.32250079781795
 30
0.0
 11
159.8196158220939
 21
40.32250079781795
 31
0.0
  0
LINE
  5
1246
330
1F
100
AcDbEntity
  8
LOGO
 62
     4
100
AcDbLine
 10
159.8196158220939
 20
48.96124975709387
 30
0.0
 11
159.8196158220939
 21
40.32250079781795
 31
0.0
  0
LINE
  5
1247
330
1F
100
AcDbEntity
  8
LOGO
 62
     4
100
AcDbLine
 10
174.5810480220169
 20
48.96124975709387
 30
0.0
 11
174.5810480220169
 21
40.32250079781795
 31
0.0
  0
LINE
  5
1248
330
1F
100
AcDbEntity
  8
LOGO
 62
     4
100
AcDbLine
 10
166.4569265505545
 20
40.32250079781795
 30
0.0
 11
166.4569265505545
 21
36.00312631818034
 31
0.0
  0
TEXT
  5
1249
330
1F
100
AcDbEntity
  8
LOGO
  6
Continuous
100
AcDbText
 10
160.9692473317731
 20
42.12582701321713
 30
0.0
 40
5.04
  1
125
  7
CHINESET
100
AcDbText
  0
LINE
  5
124A
330
1F
100
AcDbEntity
  8
LOGO
 62
     4
100
AcDbLine
 10
171.9493047598725
 20
36.00312631818034
 30
0.0
 11
152.7520848503701
 21
36.00312631818034
 31
0.0
  0
TEXT
  5
1258
330
1F
100
AcDbEntity
  8
LOGO
  6
Continuous
100
AcDbText
 10
155.3873757790237
 20
26.93496115282025
 30
188.7231250944717
 40
2.159999999999999
  1
Body width
 41
0.8
  7
CHINESET
100
AcDbText
  0
TEXT
  5
1259
330
1F
100
AcDbEntity
  8
LOGO
100
AcDbText
 10
155.1453995473412
 20
30.93913563959566
 30
188.7231250944717
 40
3.599999999999999
  1
本體寬度
  7
CHINESET
100
AcDbText
  0
LINE
  5
125C
330
1F
100
AcDbEntity
  8
LOGO
 62
     4
100
AcDbLine
 10
190.0342661822683
 20
48.96124975709387
 30
0.0
 11
176.3768565923821
 21
48.96124975709387
 31
0.0
  0
LINE
  5
125D
330
1F
100
AcDbEntity
  8
LOGO
 62
     4
100
AcDbLine
 10
190.0342661822683
 20
40.32250079781795
 30
0.0
 11
176.3768565923821
 21
40.32250079781795
 31
0.0
  0
LINE
  5
125E
330
1F
100
AcDbEntity
  8
LOGO
 62
     4
100
AcDbLine
 10
176.3768565923821
 20
48.96124975709387
 30
0.0
 11
176.3768565923821
 21
40.32250079781795
 31
0.0
  0
LINE
  5
125F
330
1F
100
AcDbEntity
  8
LOGO
 62
     4
100
AcDbLine
 10
190.0342661822683
 20
48.96124975709387
 30
0.0
 11
190.0342661822683
 21
40.32250079781795
 31
0.0
  0
TEXT
  5
1260
330
1F
100
AcDbEntity
  8
LOGO
  6
Continuous
100
AcDbText
 10
178.3845242993611
 20
42.12582701321713
 30
0.0
 40
5.04
  1
(M)
  7
CHINESET
100
AcDbText
  0
LINE
  5
1261
330
1F
100
AcDbEntity
  8
LOGO
 62
     4
100
AcDbLine
 10
192.0893751721443
 20
36.00312631818034
 30
0.0
 11
192.0893751721443
 21
25.44465536795355
 31
0.0
  0
LINE
  5
1262
330
1F
100
AcDbEntity
  8
LOGO
 62
     4
100
AcDbLine
 10
176.4501791136178
 20
36.00312631818034
 30
0.0
 11
176.4501791136178
 21
25.44465536795355
 31
0.0
  0
LINE
  5
1263
330
1F
100
AcDbEntity
  8
LOGO
 62
     4
100
AcDbLine
 10
192.0893751721443
 20
25.44465536795355
 30
0.0
 11
176.4501791136178
 21
25.44465536795355
 31
0.0
  0
LINE
  5
1264
330
1F
100
AcDbEntity
  8
LOGO
 62
     4
100
AcDbLine
 10
192.0893751721443
 20
36.00312631818034
 30
0.0
 11
176.4501791136178
 21
36.00312631818034
 31
0.0
  0
TEXT
  5
1265
330
1F
100
AcDbEntity
  8
LOGO
  6
Continuous
100
AcDbText
 10
179.8497378496773
 20
26.93496115282025
 30
188.7231250944717
 40
2.159999999999999
  1
Magnet
 41
0.8
  7
CHINESET
100
AcDbText
  0
TEXT
  5
1266
330
1F
100
AcDbEntity
  8
LOGO
100
AcDbText
 10
178.6978429509122
 20
30.93913563959566
 30
188.7231250944717
 40
3.599999999999999
  1
附磁石
  7
CHINESET
100
AcDbText
  0
LINE
  5
1267
330
1F
100
AcDbEntity
  8
LOGO
 62
     4
100
AcDbLine
 10
183.2055613873258
 20
40.32250079781795
 30
0.0
 11
183.2055613873258
 21
36.00312631818034
 31
0.0
  0
TEXT
  5
1268
330
1F
100
AcDbEntity
  8
LOGO
100
AcDbText
 10
92.40279365600136
 20
24.57692966251258
 30
0.0
 40
2.879999999999999
  1
10706054
 41
0.7
  7
CHINESET
 72
     1
 11
99.65079365600136
 21
24.57692966251258
 31
0.0
100
AcDbText
  0
LINE
  5
1269
330
1F
100
AcDbEntity
  8
LOGO
 62
     4
100
AcDbLine
 10
108.5885824046178
 20
28.80416885211719
 30
0.0
 11
108.5885824046191
 21
23.04500287926615
 31
0.0
  0
LINE
  5
126A
330
1F
100
AcDbEntity
  8
LOGO
 62
     4
100
AcDbLine
 10
108.5885824046178
 20
28.80416885211719
 30
0.0
 11
91.30858240461913
 21
28.80416885211719
 31
0.0
  0
CIRCLE
  5
126B
330
1F
100
AcDbEntity
  8
LOGO
  6
Continuous
100
AcDbCircle
 10
77.44327056702951
 20
43.20824323332362
 30
0.0
 40
1.671953659661709
  0
CIRCLE
  5
126C
330
1F
100
AcDbEntity
  8
LOGO
  6
Continuous
100
AcDbCircle
 10
77.44327056702951
 20
43.20824323332362
 30
0.0
 40
0.9796168348784597
  0
LINE
  5
126D
330
1F
100
AcDbEntity
  8
LOGO
100
AcDbLine
 10
87.95002136964209
 20
41.5362895736616
 30
0.0
 11
87.95002136964209
 21
44.88019689298567
 31
0.0
  0
LINE
  5
126E
330
1F
100
AcDbEntity
  8
LOGO
100
AcDbLine
 10
82.70854262132237
 20
42.22862639844535
 30
0.0
 11
82.70854262132237
 21
44.18786006820224
 31
0.0
  0
LINE
  5
126F
330
1F
100
AcDbEntity
  8
LOGO
  6
Continuous
100
AcDbLine
 10
82.70854262132237
 20
44.18786006820224
 30
0.0
 11
87.95002136964209
 21
44.88019689298567
 31
0.0
  0
LINE
  5
1270
330
1F
100
AcDbEntity
  8
LOGO
  6
Continuous
100
AcDbLine
 10
82.70854262132237
 20
42.22862639844535
 30
0.0
 11
87.95002136964209
 21
41.5362895736616
 31
0.0
  0
LINE
  5
1271
330
1F
100
AcDbEntity
  8
LOGO
  6
AM_ISO08W050x2
 48
0.3
100
AcDbLine
 10
75.13845741165124
 20
43.20824323332362
 30
0.0
 11
79.74808372240781
 21
43.20824323332362
 31
0.0
1001
GENIUS_GENOREF_13
1005
1276
  0
LINE
  5
1272
330
1F
100
AcDbEntity
  8
LOGO
  6
AM_ISO08W050x2
 48
0.3
100
AcDbLine
 10
77.44327056702951
 20
40.90343007794532
 30
0.0
 11
77.44327056702951
 21
45.51305638870192
 31
0.0
1001
GENIUS_GENOREF_13
1005
1275
  0
LINE
  5
1273
330
1F
100
AcDbEntity
  8
LOGO
  6
CENTER
 48
0.5
100
AcDbLine
 10
82.28937000767695
 20
43.20824323332362
 30
0.0
 11
88.47782131205637
 21
43.20824323332362
 31
0.0
1001
GENIUS_GENOREF_13
1005
1274
  0
POINT
  5
1274
330
1F
100
AcDbEntity
  8
0
 60
     1
100
AcDbPoint
 10
-1988.549973775114
 20
-873.9018046235621
 30
0.0
1001
GENIUS_GENOBJ-N-CRS_13
1002
{
1000
OWNER
1000
GEN
1002
}
1001
GENIUS_GENOLIS_13
1002
{
1000
ENT
1005
0
1005
0
1005
0
1005
1273
1002
}
1001
GENIUS_GENOENT_13
1002
{
1000
MYREF
1005
1274
1002
}
1002
{
1000
GRP
1005
0
1002
}
1001
GENIUS_GENODEF_13
1002
{
1000
HIER
1070
    10
1002
}
1002
{
1000
MANEDIT
1070
     1
1002
}
1002
{
1000
NOSEL
1070
     0
1002
}
1002
{
1000
BEHIND
1070
     0
1002
}
1002
{
1000
OTHER
1070
     0
1002
}
1002
{
1000
REACTOR
1002
}
  0
POINT
  5
1275
330
1F
100
AcDbEntity
  8
0
 60
     1
100
AcDbPoint
 10
-1999.874558997969
 20
-865.0262181449258
 30
0.0
1001
GENIUS_GENOBJ-N-CRS_13
1002
{
1000
OWNER
1000
GEN
1002
}
1001
GENIUS_GENOLIS_13
1002
{
1000
ENT
1005
0
1005
0
1005
0
1005
1272
1002
}
1001
GENIUS_GENOENT_13
1002
{
1000
MYREF
1005
1275
1002
}
1002
{
1000
GRP
1005
0
1002
}
1001
GENIUS_GENODEF_13
1002
{
1000
HIER
1070
    10
1002
}
1002
{
1000
MANEDIT
1070
     1
1002
}
1002
{
1000
NOSEL
1070
     0
1002
}
1002
{
1000
BEHIND
1070
     0
1002
}
1002
{
1000
OTHER
1070
     0
1002
}
1002
{
1000
REACTOR
1002
}
  0
POINT
  5
1276
330
1F
100
AcDbEntity
  8
0
 60
     1
100
AcDbPoint
 10
-1993.515885300132
 20
-873.9018046235621
 30
0.0
1001
GENIUS_GENOBJ-N-CRS_13
1002
{
1000
OWNER
1000
GEN
1002
}
1001
GENIUS_GENOLIS_13
1002
{
1000
ENT
1005
0
1005
0
1005
0
1005
1271
1002
}
1001
GENIUS_GENOENT_13
1002
{
1000
MYREF
1005
1276
1002
}
1002
{
1000
GRP
1005
0
1002
}
1001
GENIUS_GENODEF_13
1002
{
1000
HIER
1070
    10
1002
}
1002
{
1000
MANEDIT
1070
     1
1002
}
1002
{
1000
NOSEL
1070
     0
1002
}
1002
{
1000
BEHIND
1070
     0
1002
}
1002
{
1000
OTHER
1070
     0
1002
}
1002
{
1000
REACTOR
1002
}
  0
LINE
  5
1AB2
102
{ACAD_REACTORS
330
1DF2
102
}
330
1F
100
AcDbEntity
  8
1
100
AcDbLine
 10
93.09703675793651
 20
115.7134728174856
 30
0.0
 11
128.8041789006507
 21
115.7134728174856
 31
0.0
  0
LINE
  5
1AB3
330
1F
100
AcDbEntity
  8
1
100
AcDbLine
 10
102.8506078292936
 20
155.7134728174856
 30
0.0
 11
119.0506078292936
 21
155.7134728174856
 31
0.0
  0
LINE
  5
1AB4
330
1F
100
AcDbEntity
  8
1
100
AcDbLine
 10
102.8506078292936
 20
140.2134728174856
 30
0.0
 11
119.0506078292936
 21
140.2134728174856
 31
0.0
  0
LINE
  5
1AB5
330
1F
100
AcDbEntity
  8
1
100
AcDbLine
 10
102.8506078292936
 20
132.2134728174856
 30
0.0
 11
119.0506078292935
 21
132.2134728174856
 31
0.0
  0
LINE
  5
1AB6
330
1F
100
AcDbEntity
  8
1
100
AcDbLine
 10
92.95060782929363
 20
160.2134728174858
 30
0.0
 11
128.9506078292936
 21
160.2134728174857
 31
0.0
  0
LINE
  5
1AB7
330
1F
100
AcDbEntity
  8
1
100
AcDbLine
 10
102.8506078292936
 20
224.2134728174857
 30
0.0
 11
119.0506078292935
 21
224.2134728174857
 31
0.0
  0
LINE
  5
1AB8
330
1F
100
AcDbEntity
  8
1
100
AcDbLine
 10
102.8506078292936
 20
200.7134728174857
 30
0.0
 11
119.0506078292936
 21
200.7134728174857
 31
0.0
  0
LINE
  5
1AB9
330
1F
100
AcDbEntity
  8
1
100
AcDbLine
 10
102.8506078292936
 20
216.2134728174857
 30
0.0
 11
119.0506078292936
 21
216.2134728174857
 31
0.0
  0
LINE
  5
1ABA
330
1F
100
AcDbEntity
  8
AM_7
100
AcDbLine
 10
143.1824278292936
 20
178.2134728174856
 30
0.0
 11
79.77317782929367
 21
178.2134728174856
 31
0.0
  0
LINE
  5
1ABB
330
1F
100
AcDbEntity
  8
1
100
AcDbLine
 10
93.09703675793651
 20
240.7134728174856
 30
0.0
 11
128.8041789006507
 21
240.7134728174856
 31
0.0
  0
LINE
  5
1ABC
330
1F
100
AcDbEntity
  8
1
100
AcDbLine
 10
92.95060782929363
 20
196.2134728174855
 30
0.0
 11
128.9506078292936
 21
196.2134728174856
 31
0.0
  0
LINE
  5
1ABD
330
1F
100
AcDbEntity
  8
1
100
AcDbLine
 10
102.8506078292936
 20
240.7134728174856
 30
0.0
 11
102.8506078292936
 21
196.2134728174855
 31
0.0
  0
LINE
  5
1ABE
330
1F
100
AcDbEntity
  8
1
100
AcDbLine
 10
80.95060782929374
 20
235.8762857908397
 30
0.0
 11
80.95060782929374
 21
199.7134728174856
 31
0.0
  0
LINE
  5
1ABF
330
1F
100
AcDbEntity
  8
AM_7
100
AcDbLine
 10
110.9506078292936
 20
244.0281428174856
 30
0.0
 11
110.9506078292936
 21
113.0249428174857
 31
0.0
  0
LINE
  5
1AC0
102
{ACAD_REACTORS
330
1D80
102
}
330
1F
100
AcDbEntity
  8
1
100
AcDbLine
 10
80.95060782929374
 20
120.5506598441316
 30
0.0
 11
80.95060782929374
 21
156.7134728174856
 31
0.0
  0
LINE
  5
1AC1
330
1F
100
AcDbEntity
  8
1
100
AcDbLine
 10
102.8506078292936
 20
115.7134728174856
 30
0.0
 11
102.8506078292936
 21
160.2134728174858
 31
0.0
  0
ARC
  5
1AC2
102
{ACAD_REACTORS
330
1DF2
102
}
330
1F
100
AcDbEntity
  8
1
100
AcDbCircle
 10
110.9506078292936
 20
178.2134728174856
 30
0.0
 40
65.0
100
AcDbArc
 50
242.5135737496195
 51
254.0576313943709
  0
LINE
  5
1AC6
330
1F
100
AcDbEntity
  8
1
100
AcDbLine
 10
92.95060782929363
 20
160.2134728174858
 30
0.0
 11
92.95060782929363
 21
178.2134728174856
 31
0.0
  0
LINE
  5
1AC7
330
1F
100
AcDbEntity
  8
1
100
AcDbLine
 10
80.95060782929374
 20
159.7134728174856
 30
0.0
 11
80.95060782929374
 21
178.2134728174856
 31
0.0
  0
CIRCLE
  5
1AC8
330
1F
100
AcDbEntity
  8
1
100
AcDbCircle
 10
88.45060782929364
 20
137.2134728174856
 30
0.0
 40
5.5
  0
LINE
  5
1AC9
102
{ACAD_REACTORS
330
1DCC
102
}
330
1F
100
AcDbEntity
  8
3
100
AcDbLine
 10
81.93860782929368
 20
137.2134728174856
 30
0.0
 11
94.65744782929357
 21
137.2134728174856
 31
0.0
  0
CIRCLE
  5
1ACA
330
1F
100
AcDbEntity
  8
1
100
AcDbCircle
 10
88.45060782929364
 20
137.2134728174856
 30
0.0
 40
4.0
  0
LINE
  5
1ACB
102
{ACAD_REACTORS
330
1DA6
102
}
330
1F
100
AcDbEntity
  8
3
100
AcDbLine
 10
88.45060782929364
 20
130.5750528174857
 30
0.0
 11
88.45060782929364
 21
143.5257728174857
 31
0.0
  0
LINE
  5
1ACC
330
1F
100
AcDbEntity
  8
1
100
AcDbLine
 10
83.45060782929374
 20
156.0634728174856
 30
0.0
 11
88.65060782929379
 21
156.0634728174856
 31
0.0
  0
LINE
  5
1ACD
330
1F
100
AcDbEntity
  8
1
100
AcDbLine
 10
83.45060782929374
 20
156.0634728174856
 30
0.0
 11
83.45060782929374
 21
156.7134728174856
 31
0.0
  0
LINE
  5
1ACE
330
1F
100
AcDbEntity
  8
1
100
AcDbLine
 10
80.95060782929374
 20
155.7134728174856
 30
0.0
 11
80.95060782929374
 21
156.7134728174856
 31
0.0
  0
LINE
  5
1ACF
330
1F
100
AcDbEntity
  8
1
100
AcDbLine
 10
80.95060782929374
 20
156.7134728174856
 30
0.0
 11
83.45060782929374
 21
156.7134728174856
 31
0.0
  0
LINE
  5
1AD0
330
1F
100
AcDbEntity
  8
1
100
AcDbLine
 10
83.45060782929374
 20
160.3634728174857
 30
0.0
 11
88.65060782929379
 21
160.3634728174857
 31
0.0
  0
LINE
  5
1AD1
330
1F
100
AcDbEntity
  8
1
100
AcDbLine
 10
83.45060782929374
 20
160.3634728174857
 30
0.0
 11
83.45060782929374
 21
159.7134728174856
 31
0.0
  0
LINE
  5
1AD2
330
1F
100
AcDbEntity
  8
1
100
AcDbLine
 10
88.65060782929379
 20
160.3634728174857
 30
0.0
 11
88.65060782929379
 21
158.2134728174857
 31
0.0
  0
LINE
  5
1AD4
330
1F
100
AcDbEntity
  8
1
100
AcDbLine
 10
80.95060782929374
 20
159.7134728174856
 30
0.0
 11
83.45060782929374
 21
159.7134728174856
 31
0.0
  0
LINE
  5
1AD5
330
1F
100
AcDbEntity
  8
1
100
AcDbLine
 10
88.65060782929379
 20
156.0634728174856
 30
0.0
 11
88.65060782929379
 21
158.2134728174857
 31
0.0
  0
LINE
  5
1AD8
330
1F
100
AcDbEntity
  8
3
100
AcDbLine
 10
106.9106978292936
 20
136.2134728174856
 30
0.0
 11
114.9304278292936
 21
136.2134728174856
 31
0.0
  0
CIRCLE
  5
1AD9
330
1F
100
AcDbEntity
  8
1
100
AcDbCircle
 10
110.9506078292936
 20
136.2134728174856
 30
0.0
 40
3.0
  0
LINE
  5
1ADB
330
1F
100
AcDbEntity
  8
1
100
AcDbLine
 10
80.95060782929374
 20
196.7134728174857
 30
0.0
 11
80.95060782929374
 21
178.2134728174856
 31
0.0
  0
LINE
  5
1ADC
330
1F
100
AcDbEntity
  8
1
100
AcDbLine
 10
88.65060782929379
 20
200.3634728174857
 30
0.0
 11
88.65060782929379
 21
198.2134728174856
 31
0.0
  0
LINE
  5
1ADD
330
1F
100
AcDbEntity
  8
1
100
AcDbLine
 10
83.45060782929374
 20
200.3634728174857
 30
0.0
 11
83.45060782929374
 21
199.7134728174856
 31
0.0
  0
LINE
  5
1ADE
330
1F
100
AcDbEntity
  8
1
100
AcDbLine
 10
80.95060782929374
 20
200.7134728174857
 30
0.0
 11
80.95060782929374
 21
199.7134728174856
 31
0.0
  0
LINE
  5
1ADF
330
1F
100
AcDbEntity
  8
1
100
AcDbLine
 10
80.95060782929374
 20
196.7134728174857
 30
0.0
 11
83.45060782929374
 21
196.7134728174857
 31
0.0
  0
LINE
  5
1AE0
330
1F
100
AcDbEntity
  8
1
100
AcDbLine
 10
80.95060782929374
 20
199.7134728174856
 30
0.0
 11
83.45060782929374
 21
199.7134728174856
 31
0.0
  0
LINE
  5
1AE2
330
1F
100
AcDbEntity
  8
1
100
AcDbLine
 10
83.45060782929374
 20
200.3634728174857
 30
0.0
 11
88.65060782929379
 21
200.3634728174857
 31
0.0
  0
LINE
  5
1AE3
330
1F
100
AcDbEntity
  8
1
100
AcDbLine
 10
83.45060782929374
 20
196.0634728174856
 30
0.0
 11
88.65060782929379
 21
196.0634728174856
 31
0.0
  0
LINE
  5
1AE4
330
1F
100
AcDbEntity
  8
1
100
AcDbLine
 10
88.65060782929379
 20
196.0634728174856
 30
0.0
 11
88.65060782929379
 21
198.2134728174856
 31
0.0
  0
LINE
  5
1AE5
330
1F
100
AcDbEntity
  8
1
100
AcDbLine
 10
83.45060782929374
 20
196.0634728174856
 30
0.0
 11
83.45060782929374
 21
196.7134728174857
 31
0.0
  0
LINE
  5
1AE6
330
1F
100
AcDbEntity
  8
1
100
AcDbLine
 10
92.95060782929363
 20
196.2134728174855
 30
0.0
 11
92.95060782929363
 21
178.2134728174856
 31
0.0
  0
ARC
  5
1AE8
102
{ACAD_REACTORS
330
1DF2
102
}
330
1F
100
AcDbEntity
  8
1
100
AcDbCircle
 10
110.9506078292936
 20
178.2134728174856
 30
0.0
 40
65.0
100
AcDbArc
 50
105.942368605626
 51
117.4864262503805
  0
CIRCLE
  5
1AE9
330
1F
100
AcDbEntity
  8
1
100
AcDbCircle
 10
88.45060782929364
 20
219.2134728174857
 30
0.0
 40
5.5
  0
CIRCLE
  5
1AEA
330
1F
100
AcDbEntity
  8
1
100
AcDbCircle
 10
88.45060782929364
 20
219.2134728174857
 30
0.0
 40
4.0
  0
LINE
  5
1AEB
102
{ACAD_REACTORS
330
1DCC
102
}
330
1F
100
AcDbEntity
  8
3
100
AcDbLine
 10
81.93860782929368
 20
219.2134728174857
 30
0.0
 11
94.65744782929357
 21
219.2134728174857
 31
0.0
  0
LINE
  5
1AEC
330
1F
100
AcDbEntity
  8
3
100
AcDbLine
 10
88.45060782929364
 20
225.8518928174856
 30
0.0
 11
88.45060782929364
 21
212.9011728174856
 31
0.0
  0
CIRCLE
  5
1AED
330
1F
100
AcDbEntity
  8
1
100
AcDbCircle
 10
110.9506078292936
 20
220.2134728174857
 30
0.0
 40
3.0
  0
LINE
  5
1AF4
330
1F
100
AcDbEntity
  8
3
100
AcDbLine
 10
106.9106978292936
 20
220.2134728174857
 30
0.0
 11
114.9304278292936
 21
220.2134728174857
 31
0.0
  0
LINE
  5
1AF8
330
1F
100
AcDbEntity
  8
1
100
AcDbLine
 10
140.9506078292936
 20
235.8762857908396
 30
0.0
 11
140.9506078292936
 21
199.7134728174856
 31
0.0
  0
LINE
  5
1AF9
330
1F
100
AcDbEntity
  8
1
100
AcDbLine
 10
119.0506078292935
 20
240.7134728174856
 30
0.0
 11
119.0506078292936
 21
196.2134728174856
 31
0.0
  0
LINE
  5
1AFD
330
1F
100
AcDbEntity
  8
1
100
AcDbLine
 10
185.5681178292936
 20
240.7134728174857
 30
0.0
 11
185.5681178292936
 21
115.7134728174857
 31
0.0
  0
LINE
  5
1AFE
102
{ACAD_REACTORS
330
1D5A
102
}
330
1F
100
AcDbEntity
  8
1
100
AcDbLine
 10
253.5681178292937
 20
240.7134728174857
 30
0.0
 11
253.5681178292937
 21
115.7134728174857
 31
0.0
  0
LINE
  5
1AFF
330
1F
100
AcDbEntity
  8
AM_7
100
AcDbLine
 10
180.7854151092083
 20
178.2134728174856
 30
0.0
 11
256.7544078292936
 21
178.2134728174856
 31
0.0
  0
LINE
  5
1B00
330
1F
100
AcDbEntity
  8
1
100
AcDbLine
 10
185.5681178292936
 20
196.7134728174856
 30
0.0
 11
253.0681178292937
 21
196.7134728174856
 31
0.0
  0
LINE
  5
1B01
330
1F
100
AcDbEntity
  8
1
100
AcDbLine
 10
185.5681178292936
 20
199.7134728174856
 30
0.0
 11
253.0681178292937
 21
199.7134728174856
 31
0.0
  0
LINE
  5
1B02
330
1F
100
AcDbEntity
  8
1
100
AcDbLine
 10
185.5681178292936
 20
156.7134728174855
 30
0.0
 11
253.5681178292937
 21
156.7134728174855
 31
0.0
  0
LINE
  5
1B03
330
1F
100
AcDbEntity
  8
1
100
AcDbLine
 10
185.5681178292936
 20
159.7134728174856
 30
0.0
 11
253.5681178292937
 21
159.7134728174856
 31
0.0
  0
LINE
  5
1B04
102
{ACAD_REACTORS
330
1C8A
330
1D5A
102
}
330
1F
100
AcDbEntity
  8
1
100
AcDbLine
 10
185.5681178292936
 20
115.7134728174856
 30
0.0
 11
253.5681178292937
 21
115.7134728174856
 31
0.0
  0
LINE
  5
1B05
330
1F
100
AcDbEntity
  8
1
100
AcDbLine
 10
119.0506078292935
 20
115.7134728174856
 30
0.0
 11
119.0506078292936
 21
160.2134728174857
 31
0.0
  0
LINE
  5
1B06
330
1F
100
AcDbEntity
  8
1
100
AcDbLine
 10
140.9506078292936
 20
120.5506598441316
 30
0.0
 11
140.9506078292937
 21
156.7134728174856
 31
0.0
  0
ARC
  5
1B08
102
{ACAD_REACTORS
330
1D80
102
}
330
1F
100
AcDbEntity
  8
1
100
AcDbCircle
 10
110.9506078292936
 20
178.2134728174856
 30
0.0
 40
65.0
100
AcDbArc
 50
285.942368605626
 51
297.4864262503809
  0
LINE
  5
1B09
330
1F
100
AcDbEntity
  8
1
100
AcDbLine
 10
140.9506078292937
 20
159.7134728174856
 30
0.0
 11
140.9506078292936
 21
178.2134728174856
 31
0.0
  0
LINE
  5
1B0A
330
1F
100
AcDbEntity
  8
1
100
AcDbLine
 10
128.9506078292936
 20
160.2134728174858
 30
0.0
 11
128.9506078292936
 21
178.2134728174856
 31
0.0
  0
LINE
  5
1B0B
330
1F
100
AcDbEntity
  8
1
100
AcDbLine
 10
184.0681178292936
 20
160.2134728174856
 30
0.0
 11
184.0681178292936
 21
178.2134728174856
 31
0.0
  0
CIRCLE
  5
1B0D
330
1F
100
AcDbEntity
  8
1
100
AcDbCircle
 10
133.4506078292936
 20
137.2134728174856
 30
0.0
 40
5.5
  0
LINE
  5
1B0E
330
1F
100
AcDbEntity
  8
3
100
AcDbLine
 10
139.9626078292935
 20
137.2134728174856
 30
0.0
 11
127.2437678292936
 21
137.2134728174856
 31
0.0
  0
LINE
  5
1B0F
102
{ACAD_REACTORS
330
1DA6
102
}
330
1F
100
AcDbEntity
  8
3
100
AcDbLine
 10
133.4506078292936
 20
130.5750528174857
 30
0.0
 11
133.4506078292936
 21
143.5257728174857
 31
0.0
  0
CIRCLE
  5
1B10
330
1F
100
AcDbEntity
  8
1
100
AcDbCircle
 10
133.4506078292936
 20
137.2134728174856
 30
0.0
 40
4.0
  0
LINE
  5
1B11
330
1F
100
AcDbEntity
  8
1
100
AcDbLine
 10
133.2506078292934
 20
160.3634728174857
 30
0.0
 11
133.2506078292934
 21
158.2134728174857
 31
0.0
  0
LINE
  5
1B12
330
1F
100
AcDbEntity
  8
1
100
AcDbLine
 10
133.2506078292934
 20
156.0634728174856
 30
0.0
 11
133.2506078292934
 21
158.2134728174857
 31
0.0
  0
LINE
  5
1B13
330
1F
100
AcDbEntity
  8
1
100
AcDbLine
 10
138.4506078292935
 20
160.3634728174857
 30
0.0
 11
138.4506078292935
 21
159.7134728174856
 31
0.0
  0
LINE
  5
1B14
330
1F
100
AcDbEntity
  8
1
100
AcDbLine
 10
140.9506078292935
 20
159.7134728174856
 30
0.0
 11
138.4506078292935
 21
159.7134728174856
 31
0.0
  0
LINE
  5
1B15
330
1F
100
AcDbEntity
  8
1
100
AcDbLine
 10
138.4506078292935
 20
156.0634728174856
 30
0.0
 11
138.4506078292935
 21
156.7134728174856
 31
0.0
  0
LINE
  5
1B16
330
1F
100
AcDbEntity
  8
1
100
AcDbLine
 10
140.9506078292935
 20
155.7134728174856
 30
0.0
 11
140.9506078292935
 21
156.7134728174856
 31
0.0
  0
LINE
  5
1B17
330
1F
100
AcDbEntity
  8
1
100
AcDbLine
 10
140.9506078292935
 20
156.7134728174856
 30
0.0
 11
138.4506078292935
 21
156.7134728174856
 31
0.0
  0
LINE
  5
1B18
330
1F
100
AcDbEntity
  8
1
100
AcDbLine
 10
138.4506078292935
 20
160.3634728174857
 30
0.0
 11
133.2506078292934
 21
160.3634728174857
 31
0.0
  0
LINE
  5
1B19
330
1F
100
AcDbEntity
  8
1
100
AcDbLine
 10
138.4506078292935
 20
156.0634728174856
 30
0.0
 11
133.2506078292934
 21
156.0634728174856
 31
0.0
  0
LINE
  5
1B1A
330
1F
100
AcDbEntity
  8
1
100
AcDbLine
 10
184.0681178292936
 20
160.2134728174856
 30
0.0
 11
185.5681178292935
 21
160.2134728174856
 31
0.0
  0
LINE
  5
1B1C
330
1F
100
AcDbEntity
  8
1
100
AcDbLine
 10
140.9506078292936
 20
196.7134728174857
 30
0.0
 11
140.9506078292936
 21
178.2134728174856
 31
0.0
  0
LINE
  5
1B1D
330
1F
100
AcDbEntity
  8
1
100
AcDbLine
 10
128.9506078292936
 20
196.2134728174855
 30
0.0
 11
128.9506078292936
 21
178.2134728174856
 31
0.0
  0
LINE
  5
1B1E
330
1F
100
AcDbEntity
  8
1
100
AcDbLine
 10
133.2506078292934
 20
200.3634728174857
 30
0.0
 11
133.2506078292934
 21
198.2134728174856
 31
0.0
  0
LINE
  5
1B1F
330
1F
100
AcDbEntity
  8
1
100
AcDbLine
 10
133.2506078292934
 20
196.0634728174856
 30
0.0
 11
133.2506078292934
 21
198.2134728174856
 31
0.0
  0
LINE
  5
1B20
330
1F
100
AcDbEntity
  8
1
100
AcDbLine
 10
138.4506078292935
 20
196.0634728174856
 30
0.0
 11
138.4506078292935
 21
196.7134728174857
 31
0.0
  0
LINE
  5
1B21
330
1F
100
AcDbEntity
  8
1
100
AcDbLine
 10
138.4506078292935
 20
200.3634728174857
 30
0.0
 11
138.4506078292935
 21
199.7134728174856
 31
0.0
  0
LINE
  5
1B22
330
1F
100
AcDbEntity
  8
1
100
AcDbLine
 10
140.9506078292935
 20
200.7134728174857
 30
0.0
 11
140.9506078292935
 21
199.7134728174856
 31
0.0
  0
LINE
  5
1B23
330
1F
100
AcDbEntity
  8
1
100
AcDbLine
 10
140.9506078292935
 20
196.7134728174857
 30
0.0
 11
138.4506078292935
 21
196.7134728174857
 31
0.0
  0
LINE
  5
1B24
330
1F
100
AcDbEntity
  8
1
100
AcDbLine
 10
140.9506078292935
 20
199.7134728174856
 30
0.0
 11
138.4506078292935
 21
199.7134728174856
 31
0.0
  0
LINE
  5
1B25
330
1F
100
AcDbEntity
  8
1
100
AcDbLine
 10
138.4506078292935
 20
200.3634728174857
 30
0.0
 11
133.2506078292934
 21
200.3634728174857
 31
0.0
  0
LINE
  5
1B26
330
1F
100
AcDbEntity
  8
1
100
AcDbLine
 10
138.4506078292935
 20
196.0634728174856
 30
0.0
 11
133.2506078292934
 21
196.0634728174856
 31
0.0
  0
LINE
  5
1B27
330
1F
100
AcDbEntity
  8
1
100
AcDbLine
 10
184.0681178292936
 20
196.2134728174856
 30
0.0
 11
184.0681178292936
 21
178.2134728174856
 31
0.0
  0
LINE
  5
1B28
330
1F
100
AcDbEntity
  8
1
100
AcDbLine
 10
184.0681178292936
 20
196.2134728174856
 30
0.0
 11
185.5681178292935
 21
196.2134728174856
 31
0.0
  0
CIRCLE
  5
1B2A
330
1F
100
AcDbEntity
  8
1
100
AcDbCircle
 10
217.5681178292937
 20
137.2134728174857
 30
0.0
 40
7.5
  0
CIRCLE
  5
1B2B
330
1F
100
AcDbEntity
  8
1
100
AcDbCircle
 10
217.5681178292937
 20
137.2134728174857
 30
0.0
 40
4.5
  0
LINE
  5
1B2C
102
{ACAD_REACTORS
330
1D2F
102
}
330
1F
100
AcDbEntity
  8
3
100
AcDbLine
 10
208.1767578292937
 20
137.2134728174857
 30
0.0
 11
226.5046578292937
 21
137.2134728174857
 31
0.0
  0
LINE
  5
1B2F
102
{ACAD_REACTORS
330
1C8A
102
}
330
1F
100
AcDbEntity
  8
3
100
AcDbLine
 10
217.5681178292937
 20
147.354548424647
 30
0.0
 11
217.5681178292937
 21
128.2134728174857
 31
0.0
  0
LINE
  5
1B36
102
{ACAD_REACTORS
330
1CB0
102
}
330
1F
100
AcDbEntity
  8
1
100
AcDbLine
 10
185.5681178292936
 20
240.7134728174857
 30
0.0
 11
253.5681178292937
 21
240.7134728174857
 31
0.0
  0
ARC
  5
1B38
330
1F
100
AcDbEntity
  8
1
100
AcDbCircle
 10
110.9506078292936
 20
178.2134728174856
 30
0.0
 40
65.0
100
AcDbArc
 50
62.51357374961906
 51
74.057631394374
  0
LINE
  5
1B39
330
1F
100
AcDbEntity
  8
3
100
AcDbLine
 10
133.4506078292936
 20
225.8518928174856
 30
0.0
 11
133.4506078292936
 21
212.9011728174856
 31
0.0
  0
CIRCLE
  5
1B3A
330
1F
100
AcDbEntity
  8
1
100
AcDbCircle
 10
133.4506078292936
 20
219.2134728174857
 30
0.0
 40
5.5
  0
CIRCLE
  5
1B3B
330
1F
100
AcDbEntity
  8
1
100
AcDbCircle
 10
133.4506078292936
 20
219.2134728174857
 30
0.0
 40
4.0
  0
LINE
  5
1B3C
330
1F
100
AcDbEntity
  8
3
100
AcDbLine
 10
139.9626078292935
 20
219.2134728174857
 30
0.0
 11
127.2437678292936
 21
219.2134728174857
 31
0.0
  0
CIRCLE
  5
1B40
330
1F
100
AcDbEntity
  8
1
100
AcDbCircle
 10
217.5681178292937
 20
219.2134728174856
 30
0.0
 40
4.5
  0
LINE
  5
1B41
102
{ACAD_REACTORS
330
1D2F
102
}
330
1F
100
AcDbEntity
  8
3
100
AcDbLine
 10
208.1767578292937
 20
219.2134728174856
 30
0.0
 11
226.5046578292937
 21
219.2134728174856
 31
0.0
  0
CIRCLE
  5
1B42
330
1F
100
AcDbEntity
  8
1
100
AcDbCircle
 10
217.5681178292937
 20
219.2134728174856
 30
0.0
 40
7.5
  0
LINE
  5
1B43
330
1F
100
AcDbEntity
  8
3
100
AcDbLine
 10
217.5681178292937
 20
209.7158117103007
 30
0.0
 11
217.5681178292937
 21
228.2134728174856
 31
0.0
  0
ARC
  5
1B49
330
1F
100
AcDbEntity
  8
1
100
AcDbCircle
 10
342.5163791070681
 20
178.2134728174856
 30
0.0
 40
65.0
100
AcDbArc
 50
105.942368605626
 51
117.4864262503805
  0
ARC
  5
1B4A
330
1F
100
AcDbEntity
  8
1
100
AcDbCircle
 10
342.5163791070681
 20
178.2134728174856
 30
0.0
 40
65.0
100
AcDbArc
 50
62.51357374961944
 51
74.057631394374
  0
LINE
  5
1B4B
330
1F
100
AcDbEntity
  8
AM_7
100
AcDbLine
 10
342.5163791070681
 20
244.0281428174856
 30
0.0
 11
342.5163791070681
 21
113.0249428174857
 31
0.0
  0
LINE
  5
1B4C
330
1F
100
AcDbEntity
  8
1
100
AcDbLine
 10
312.5163791070681
 20
120.5506598441316
 30
0.0
 11
312.5163791070681
 21
156.7134728174856
 31
0.0
  0
LINE
  5
1B4D
330
1F
100
AcDbEntity
  8
1
100
AcDbLine
 10
372.5163791070681
 20
120.5506598441316
 30
0.0
 11
372.5163791070681
 21
156.7134728174856
 31
0.0
  0
LINE
  5
1B4E
330
1F
100
AcDbEntity
  8
1
100
AcDbLine
 10
360.3699501784254
 20
115.7134728174856
 30
0.0
 11
324.6628080357111
 21
115.7134728174856
 31
0.0
  0
ARC
  5
1B50
330
1F
100
AcDbEntity
  8
1
100
AcDbCircle
 10
342.5163791070681
 20
178.2134728174856
 30
0.0
 40
65.0
100
AcDbArc
 50
285.942368605626
 51
297.4864262503805
  0
ARC
  5
1B53
330
1F
100
AcDbEntity
  8
1
100
AcDbCircle
 10
342.5163791070681
 20
178.2134728174856
 30
0.0
 40
65.0
100
AcDbArc
 50
242.5135737496195
 51
254.0576313943709
  0
LINE
  5
1B55
330
1F
100
AcDbEntity
  8
AM_7
100
AcDbLine
 10
310.2845591070682
 20
178.2134728174856
 30
0.0
 11
373.6938091070681
 21
178.2134728174856
 31
0.0
  0
LINE
  5
1B56
330
1F
100
AcDbEntity
  8
1
100
AcDbLine
 10
372.5163791070681
 20
196.7134728174857
 30
0.0
 11
372.5163791070681
 21
178.2134728174856
 31
0.0
  0
LINE
  5
1B58
330
1F
100
AcDbEntity
  8
1
100
AcDbLine
 10
370.0163791070681
 20
160.3634728174857
 30
0.0
 11
364.8163791070681
 21
160.3634728174857
 31
0.0
  0
LINE
  5
1B59
330
1F
100
AcDbEntity
  8
1
100
AcDbLine
 10
370.0163791070681
 20
156.0634728174856
 30
0.0
 11
364.8163791070681
 21
156.0634728174856
 31
0.0
  0
LINE
  5
1B5A
330
1F
100
AcDbEntity
  8
1
100
AcDbLine
 10
372.5163791070681
 20
159.7134728174856
 30
0.0
 11
372.5163791070681
 21
178.2134728174856
 31
0.0
  0
LINE
  5
1B5B
330
1F
100
AcDbEntity
  8
1
100
AcDbLine
 10
370.0163791070681
 20
160.3634728174857
 30
0.0
 11
370.0163791070681
 21
159.7134728174856
 31
0.0
  0
LINE
  5
1B5C
330
1F
100
AcDbEntity
  8
1
100
AcDbLine
 10
372.5163791070681
 20
159.7134728174856
 30
0.0
 11
370.0163791070681
 21
159.7134728174856
 31
0.0
  0
LINE
  5
1B5D
330
1F
100
AcDbEntity
  8
1
100
AcDbLine
 10
372.5163791070681
 20
156.7134728174856
 30
0.0
 11
370.0163791070681
 21
156.7134728174856
 31
0.0
  0
LINE
  5
1B5E
330
1F
100
AcDbEntity
  8
1
100
AcDbLine
 10
372.5163791070681
 20
155.7134728174856
 30
0.0
 11
372.5163791070681
 21
156.7134728174856
 31
0.0
  0
LINE
  5
1B5F
330
1F
100
AcDbEntity
  8
1
100
AcDbLine
 10
370.0163791070681
 20
156.0634728174856
 30
0.0
 11
370.0163791070681
 21
156.7134728174856
 31
0.0
  0
LINE
  5
1B60
330
1F
100
AcDbEntity
  8
1
100
AcDbLine
 10
364.8163791070681
 20
160.3634728174857
 30
0.0
 11
364.8163791070681
 21
158.2134728174857
 31
0.0
  0
LINE
  5
1B61
330
1F
100
AcDbEntity
  8
1
100
AcDbLine
 10
364.8163791070681
 20
156.0634728174856
 30
0.0
 11
364.8163791070681
 21
158.2134728174857
 31
0.0
  0
LINE
  5
1B63
330
1F
100
AcDbEntity
  8
1
100
AcDbLine
 10
370.0163791070681
 20
196.0634728174856
 30
0.0
 11
364.8163791070681
 21
196.0634728174856
 31
0.0
  0
LINE
  5
1B64
330
1F
100
AcDbEntity
  8
1
100
AcDbLine
 10
370.0163791070681
 20
200.3634728174857
 30
0.0
 11
364.8163791070681
 21
200.3634728174857
 31
0.0
  0
LINE
  5
1B66
330
1F
100
AcDbEntity
  8
1
100
AcDbLine
 10
372.5163791070681
 20
235.8762857908398
 30
0.0
 11
372.5163791070681
 21
199.7134728174856
 31
0.0
  0
LINE
  5
1B67
330
1F
100
AcDbEntity
  8
1
100
AcDbLine
 10
370.0163791070681
 20
196.0634728174856
 30
0.0
 11
370.0163791070681
 21
196.7134728174857
 31
0.0
  0
LINE
  5
1B68
330
1F
100
AcDbEntity
  8
1
100
AcDbLine
 10
372.5163791070681
 20
199.7134728174856
 30
0.0
 11
370.0163791070681
 21
199.7134728174856
 31
0.0
  0
LINE
  5
1B69
330
1F
100
AcDbEntity
  8
1
100
AcDbLine
 10
372.5163791070681
 20
196.7134728174857
 30
0.0
 11
370.0163791070681
 21
196.7134728174857
 31
0.0
  0
LINE
  5
1B6A
330
1F
100
AcDbEntity
  8
1
100
AcDbLine
 10
372.5163791070681
 20
200.7134728174857
 30
0.0
 11
372.5163791070681
 21
199.7134728174856
 31
0.0
  0
LINE
  5
1B6B
330
1F
100
AcDbEntity
  8
1
100
AcDbLine
 10
370.0163791070681
 20
200.3634728174857
 30
0.0
 11
370.0163791070681
 21
199.7134728174856
 31
0.0
  0
LINE
  5
1B6D
330
1F
100
AcDbEntity
  8
1
100
AcDbLine
 10
364.8163791070681
 20
196.0634728174856
 30
0.0
 11
364.8163791070681
 21
198.2134728174856
 31
0.0
  0
LINE
  5
1B6E
330
1F
100
AcDbEntity
  8
1
100
AcDbLine
 10
364.8163791070681
 20
200.3634728174857
 30
0.0
 11
364.8163791070681
 21
198.2134728174856
 31
0.0
  0
LINE
  5
1B6F
330
1F
100
AcDbEntity
  8
1
100
AcDbLine
 10
312.5163791070681
 20
196.7134728174857
 30
0.0
 11
312.5163791070681
 21
178.2134728174856
 31
0.0
  0
LINE
  5
1B70
330
1F
100
AcDbEntity
  8
1
100
AcDbLine
 10
312.5163791070681
 20
159.7134728174856
 30
0.0
 11
312.5163791070681
 21
178.2134728174856
 31
0.0
  0
LINE
  5
1B71
330
1F
100
AcDbEntity
  8
1
100
AcDbLine
 10
315.0163791070684
 20
156.0634728174856
 30
0.0
 11
320.2163791070684
 21
156.0634728174856
 31
0.0
  0
LINE
  5
1B72
330
1F
100
AcDbEntity
  8
1
100
AcDbLine
 10
315.0163791070684
 20
160.3634728174857
 30
0.0
 11
320.2163791070684
 21
160.3634728174857
 31
0.0
  0
LINE
  5
1B74
330
1F
100
AcDbEntity
  8
1
100
AcDbLine
 10
320.2163791070684
 20
160.3634728174857
 30
0.0
 11
320.2163791070684
 21
158.2134728174857
 31
0.0
  0
LINE
  5
1B75
330
1F
100
AcDbEntity
  8
1
100
AcDbLine
 10
320.2163791070684
 20
156.0634728174856
 30
0.0
 11
320.2163791070684
 21
158.2134728174857
 31
0.0
  0
LINE
  5
1B76
330
1F
100
AcDbEntity
  8
1
100
AcDbLine
 10
315.0163791070684
 20
160.3634728174857
 30
0.0
 11
315.0163791070684
 21
159.7134728174856
 31
0.0
  0
LINE
  5
1B77
330
1F
100
AcDbEntity
  8
1
100
AcDbLine
 10
312.5163791070684
 20
156.7134728174856
 30
0.0
 11
315.0163791070684
 21
156.7134728174856
 31
0.0
  0
LINE
  5
1B78
330
1F
100
AcDbEntity
  8
1
100
AcDbLine
 10
312.5163791070684
 20
159.7134728174856
 30
0.0
 11
315.0163791070684
 21
159.7134728174856
 31
0.0
  0
LINE
  5
1B79
330
1F
100
AcDbEntity
  8
1
100
AcDbLine
 10
315.0163791070684
 20
156.0634728174856
 30
0.0
 11
315.0163791070684
 21
156.7134728174856
 31
0.0
  0
LINE
  5
1B7A
330
1F
100
AcDbEntity
  8
1
100
AcDbLine
 10
312.5163791070684
 20
155.7134728174856
 30
0.0
 11
312.5163791070684
 21
156.7134728174856
 31
0.0
  0
LINE
  5
1B7C
330
1F
100
AcDbEntity
  8
1
100
AcDbLine
 10
312.5163791070681
 20
235.8762857908396
 30
0.0
 11
312.5163791070681
 21
199.7134728174856
 31
0.0
  0
LINE
  5
1B7D
330
1F
100
AcDbEntity
  8
1
100
AcDbLine
 10
315.0163791070684
 20
196.0634728174856
 30
0.0
 11
320.2163791070684
 21
196.0634728174856
 31
0.0
  0
LINE
  5
1B7E
330
1F
100
AcDbEntity
  8
1
100
AcDbLine
 10
315.0163791070684
 20
200.3634728174857
 30
0.0
 11
320.2163791070684
 21
200.3634728174857
 31
0.0
  0
LINE
  5
1B80
330
1F
100
AcDbEntity
  8
1
100
AcDbLine
 10
320.2163791070684
 20
196.0634728174856
 30
0.0
 11
320.2163791070684
 21
198.2134728174856
 31
0.0
  0
LINE
  5
1B81
330
1F
100
AcDbEntity
  8
1
100
AcDbLine
 10
320.2163791070684
 20
200.3634728174857
 30
0.0
 11
320.2163791070684
 21
198.2134728174856
 31
0.0
  0
LINE
  5
1B82
330
1F
100
AcDbEntity
  8
1
100
AcDbLine
 10
312.5163791070684
 20
199.7134728174856
 30
0.0
 11
315.0163791070684
 21
199.7134728174856
 31
0.0
  0
LINE
  5
1B83
330
1F
100
AcDbEntity
  8
1
100
AcDbLine
 10
312.5163791070684
 20
196.7134728174857
 30
0.0
 11
315.0163791070684
 21
196.7134728174857
 31
0.0
  0
LINE
  5
1B84
330
1F
100
AcDbEntity
  8
1
100
AcDbLine
 10
315.0163791070684
 20
200.3634728174857
 30
0.0
 11
315.0163791070684
 21
199.7134728174856
 31
0.0
  0
LINE
  5
1B85
330
1F
100
AcDbEntity
  8
1
100
AcDbLine
 10
315.0163791070684
 20
196.0634728174856
 30
0.0
 11
315.0163791070684
 21
196.7134728174857
 31
0.0
  0
LINE
  5
1B86
330
1F
100
AcDbEntity
  8
1
100
AcDbLine
 10
312.5163791070684
 20
200.7134728174857
 30
0.0
 11
312.5163791070684
 21
199.7134728174856
 31
0.0
  0
LINE
  5
1B88
330
1F
100
AcDbEntity
  8
1
100
AcDbLine
 10
360.3699501784254
 20
240.7134728174856
 30
0.0
 11
324.6628080357111
 21
240.7134728174856
 31
0.0
  0
LINE
  5
1B91
330
1F
100
AcDbEntity
  8
3
100
AcDbLine
 10
336.4966291070682
 20
219.2134728174857
 30
0.0
 11
349.2154691070682
 21
219.2134728174857
 31
0.0
  0
CIRCLE
  5
1B92
330
1F
100
AcDbEntity
  8
1
100
AcDbCircle
 10
342.5163791070681
 20
219.2134728174857
 30
0.0
 40
3.0
  0
LINE
  5
1B93
330
1F
100
AcDbEntity
  8
3
100
AcDbLine
 10
336.4966291070682
 20
137.2134728174856
 30
0.0
 11
349.2154691070682
 21
137.2134728174856
 31
0.0
  0
CIRCLE
  5
1B94
330
1F
100
AcDbEntity
  8
1
100
AcDbCircle
 10
342.5163791070681
 20
137.2134728174856
 30
0.0
 40
3.0
  0
ARC
  5
1C65
330
1F
100
AcDbEntity
  8
AM_4
100
AcDbCircle
 10
243.0681178292937
 20
205.7134728174857
 30
0.0
 40
5.25
100
AcDbArc
 50
260.0
 51
170.0
  0
LINE
  5
1C66
102
{ACAD_REACTORS
330
1CB0
102
}
330
1F
100
AcDbEntity
  8
AM_7
  6
AM_ISO08W050x2
100
AcDbLine
 10
243.0681178292937
 20
212.9634728174857
 30
0.0
 11
243.0681178292937
 21
198.4634728174856
 31
0.0
  0
CIRCLE
  5
1C67
330
1F
100
AcDbEntity
  8
AM_0
100
AcDbCircle
 10
243.0681178292937
 20
205.7134728174857
 30
0.0
 40
4.283
  0
LINE
  5
1C68
102
{ACAD_REACTORS
330
1D09
102
}
330
1F
100
AcDbEntity
  8
AM_7
  6
AM_ISO08W050x2
100
AcDbLine
 10
235.8181178292937
 20
205.7134728174857
 30
0.0
 11
250.3181178292937
 21
205.7134728174857
 31
0.0
  0
ARC
  5
1C69
330
1F
100
AcDbEntity
  8
AM_4
100
AcDbCircle
 10
221.0681178292936
 20
150.7134728174857
 30
0.0
 40
5.25
100
AcDbArc
 50
260.0
 51
170.0
  0
LINE
  5
1C6A
102
{ACAD_REACTORS
330
1CD6
102
}
330
1F
100
AcDbEntity
  8
AM_7
  6
AM_ISO08W050x2
100
AcDbLine
 10
221.0681178292936
 20
157.9634728174857
 30
0.0
 11
221.0681178292936
 21
143.4634728174857
 31
0.0
  0
CIRCLE
  5
1C6B
330
1F
100
AcDbEntity
  8
AM_0
100
AcDbCircle
 10
221.0681178292936
 20
150.7134728174857
 30
0.0
 40
4.283
  0
LINE
  5
1C6C
102
{ACAD_REACTORS
330
1D09
102
}
330
1F
100
AcDbEntity
  8
AM_7
  6
AM_ISO08W050x2
100
AcDbLine
 10
213.8181178292937
 20
150.7134728174857
 30
0.0
 11
228.3181178292937
 21
150.7134728174857
 31
0.0
  0
DIMENSION
  5
1C7C
102
{ACAD_XDICTIONARY
360
1C89
102
}
102
{ACAD_REACTORS
330
1C8A
102
}
330
1F
100
AcDbEntity
  8
AM_5
100
AcDbDimension
  2
*D5
 10
253.5681178292937
 20
103.7134728174855
 30
0.0
 11
235.5681178292936
 21
106.2634728174855
 31
0.0
 70
    32
 71
     5
 42
36.0
  3
AM_ISO$0
100
AcDbAlignedDimension
 13
217.5681178292937
 23
128.2134728174857
 33
0.0
 14
253.5681178292937
 24
115.7134728174856
 34
0.0
 50
0.0000000000001132
100
AcDbRotatedDimension
1001
ACAD
1000
DSTYLE
1002
{
1070
    40
1040
1.0
1070
   144
1040
1.0
1070
   272
1070
     8
1002
}
  0
DIMENSION
  5
1CA2
102
{ACAD_XDICTIONARY
360
1CAF
102
}
102
{ACAD_REACTORS
330
1CB0
102
}
330
1F
100
AcDbEntity
  8
AM_5
100
AcDbDimension
  2
*D6
 10
253.5681178292937
 20
252.7134728174857
 30
0.0
 11
248.3181178292937
 21
255.2634728174858
 31
0.0
 70
    32
 71
     5
 42
10.5
  3
AM_ISO$0
100
AcDbAlignedDimension
 13
243.0681178292937
 23
212.9634728174857
 33
0.0
 14
253.5681178292937
 24
240.7134728174857
 34
0.0
100
AcDbRotatedDimension
1001
ACAD
1000
DSTYLE
1002
{
1070
    40
1040
1.0
1070
   144
1040
1.0
1070
   272
1070
     8
1002
}
  0
DIMENSION
  5
1CC8
102
{ACAD_XDICTIONARY
360
1CD5
102
}
102
{ACAD_REACTORS
330
1CD6
102
}
330
1F
100
AcDbEntity
  8
AM_5
100
AcDbDimension
  2
*D7
 10
243.0681178292937
 20
252.7134728174857
 30
0.0
 11
232.0681178292937
 21
255.2634728174858
 31
0.0
 70
    32
 71
     5
 42
22.0
  3
AM_ISO$0
100
AcDbAlignedDimension
 13
221.0681178292936
 23
157.9634728174857
 33
0.0
 14
243.0681178292937
 24
212.9634728174857
 34
0.0
100
AcDbRotatedDimension
1001
ACAD
1000
DSTYLE
1002
{
1070
    40
1040
1.0
1070
   144
1040
1.0
1070
   272
1070
     8
1002
}
  0
DIMENSION
  5
1CFB
102
{ACAD_XDICTIONARY
360
1D08
102
}
102
{ACAD_REACTORS
330
1D09
102
}
330
1F
100
AcDbEntity
  8
AM_5
100
AcDbDimension
  2
*D8
 10
265.5681178292937
 20
205.7134728174857
 30
0.0
 11
263.0181178292936
 21
178.2134728174857
 31
0.0
 70
    32
 71
     5
 42
54.99999999999997
  3
AM_ISO$0
100
AcDbAlignedDimension
 13
228.3181178292937
 23
150.7134728174857
 33
0.0
 14
250.3181178292937
 24
205.7134728174857
 34
0.0
 50
90.00000000000003
100
AcDbRotatedDimension
1001
ACAD
1000
DSTYLE
1002
{
1070
    40
1040
1.0
1070
   144
1040
1.0
1070
   272
1070
     8
1002
}
  0
DIMENSION
  5
1D21
102
{ACAD_XDICTIONARY
360
1D2E
102
}
102
{ACAD_REACTORS
330
1D2F
102
}
330
1F
100
AcDbEntity
  8
AM_5
100
AcDbDimension
  2
*D9
 10
273.5681178292936
 20
219.2134728174856
 30
0.0
 11
271.0181178292935
 21
178.2134728174856
 31
0.0
 70
    32
 71
     5
 42
81.99999999999979
  3
AM_ISO$0
100
AcDbAlignedDimension
 13
226.5046578292937
 23
137.2134728174857
 33
0.0
 14
226.5046578292937
 24
219.2134728174856
 34
0.0
 50
90.00000000000003
100
AcDbRotatedDimension
1001
ACAD
1000
DSTYLE
1002
{
1070
    40
1040
1.0
1070
   144
1040
1.0
1070
   272
1070
     8
1002
}
  0
DIMENSION
  5
1D4C
102
{ACAD_XDICTIONARY
360
1D59
102
}
102
{ACAD_REACTORS
330
1D5A
102
}
330
1F
100
AcDbEntity
  8
AM_5
100
AcDbDimension
  2
*D10
 10
253.5681178292937
 20
95.71347281748556
 30
0.0
 11
219.5681178292937
 21
98.26347281748557
 31
0.0
 70
    32
 71
     5
 42
68.0
  3
AM_ISO$0
100
AcDbAlignedDimension
 13
185.5681178292936
 23
115.7134728174856
 33
0.0
 14
253.5681178292937
 24
115.7134728174857
 34
0.0
 50
0.0000000000001132
100
AcDbRotatedDimension
1001
ACAD
1000
DSTYLE
1002
{
1070
    40
1040
1.0
1070
   144
1040
1.0
1070
   272
1070
     8
1002
}
  0
DIMENSION
  5
1D72
102
{ACAD_XDICTIONARY
360
1D7F
102
}
102
{ACAD_REACTORS
330
1D80
102
}
330
1F
100
AcDbEntity
  8
AM_5
100
AcDbDimension
  2
*D11
 10
140.9506078292932
 20
95.7134728174857
 30
0.0
 11
110.9506078292935
 21
98.26347281748569
 31
0.0
 70
    32
 71
     5
 42
59.99999999999952
  3
AM_ISO$0
100
AcDbAlignedDimension
 13
80.95060782929374
 23
120.5506598441316
 33
0.0
 14
140.9506078292932
 24
120.5506598441315
 34
0.0
 50
0.0000000000001132
100
AcDbRotatedDimension
1001
ACAD
1000
DSTYLE
1002
{
1070
    40
1040
1.0
1070
   144
1040
1.0
1070
   272
1070
     8
1002
}
  0
DIMENSION
  5
1D98
102
{ACAD_XDICTIONARY
360
1DA5
102
}
102
{ACAD_REACTORS
330
1DA6
102
}
330
1F
100
AcDbEntity
  8
AM_5
100
AcDbDimension
  2
*D12
 10
133.4506078292936
 20
103.7134728174857
 30
0.0
 11
110.9506078292936
 21
106.2634728174856
 31
0.0
 70
    32
 71
     5
 42
45.0
  3
AM_ISO$0
100
AcDbAlignedDimension
 13
88.45060782929364
 23
130.5750528174857
 33
0.0
 14
133.4506078292936
 24
130.5750528174857
 34
0.0
 50
0.0000000000001132
100
AcDbRotatedDimension
1001
ACAD
1000
DSTYLE
1002
{
1070
    40
1040
1.0
1070
   144
1040
1.0
1070
   272
1070
     8
1002
}
  0
DIMENSION
  5
1DBE
102
{ACAD_XDICTIONARY
360
1DCB
102
}
102
{ACAD_REACTORS
330
1DCC
102
}
330
1F
100
AcDbEntity
  8
AM_5
100
AcDbDimension
  2
*D13
 10
68.95060782929373
 20
219.2134728174857
 30
0.0
 11
66.40060782929371
 21
178.2134728174857
 31
0.0
 70
    32
 71
     5
 42
82.0
  3
AM_ISO$0
100
AcDbAlignedDimension
 13
81.93860782929368
 23
137.2134728174856
 33
0.0
 14
81.93860782929368
 24
219.2134728174857
 34
0.0
 50
90.00000000000003
100
AcDbRotatedDimension
1001
ACAD
1000
DSTYLE
1002
{
1070
    40
1040
1.0
1070
   144
1040
1.0
1070
   272
1070
     8
1002
}
  0
DIMENSION
  5
1DE4
102
{ACAD_XDICTIONARY
360
1DF1
102
}
102
{ACAD_REACTORS
330
1DF2
102
}
330
1F
100
AcDbEntity
  8
AM_5
100
AcDbDimension
  2
*D14
 10
60.95060782929373
 20
240.7134728174865
 30
0.0
 11
58.40060782929368
 21
178.2134728174861
 31
0.0
 70
    32
 71
     5
 42
125.0000000000008
  3
AM_ISO$0
100
AcDbAlignedDimension
 13
93.09703675793661
 23
115.7134728174856
 33
0.0
 14
93.0970367579394
 24
240.7134728174865
 34
0.0
 50
90.00000000000003
100
AcDbRotatedDimension
1001
ACAD
1000
DSTYLE
1002
{
1070
    40
1040
1.0
1070
   144
1040
1.0
1070
   272
1070
     8
1002
}
  0
ARC
  5
1E93
330
1F
100
AcDbEntity
  8
AM_4
100
AcDbCircle
 10
320.0163791070681
 20
137.2134728174856
 30
0.0
 40
4.0
100
AcDbArc
 50
260.0
 51
170.0
  0
CIRCLE
  5
1E94
330
1F
100
AcDbEntity
  8
AM_0
100
AcDbCircle
 10
320.0163791070681
 20
137.2134728174856
 30
0.0
 40
3.323417653293459
  0
LINE
  5
1E95
330
1F
100
AcDbEntity
  8
AM_7
  6
AM_ISO08W050x2
100
AcDbLine
 10
314.0163791070681
 20
137.2134728174856
 30
0.0
 11
326.0163791070681
 21
137.2134728174856
 31
0.0
  0
LINE
  5
1E96
330
1F
100
AcDbEntity
  8
AM_7
  6
AM_ISO08W050x2
100
AcDbLine
 10
320.0163791070681
 20
131.2134728174856
 30
0.0
 11
320.0163791070681
 21
143.2134728174856
 31
0.0
  0
ARC
  5
1E97
330
1F
100
AcDbEntity
  8
AM_4
100
AcDbCircle
 10
365.0163791070681
 20
137.2134728174856
 30
0.0
 40
4.0
100
AcDbArc
 50
260.0
 51
170.0
  0
CIRCLE
  5
1E98
330
1F
100
AcDbEntity
  8
AM_0
100
AcDbCircle
 10
365.0163791070681
 20
137.2134728174856
 30
0.0
 40
3.323417653293459
  0
LINE
  5
1E99
330
1F
100
AcDbEntity
  8
AM_7
  6
AM_ISO08W050x2
100
AcDbLine
 10
359.0163791070681
 20
137.2134728174856
 30
0.0
 11
371.0163791070681
 21
137.2134728174856
 31
0.0
  0
LINE
  5
1E9A
330
1F
100
AcDbEntity
  8
AM_7
  6
AM_ISO08W050x2
100
AcDbLine
 10
365.0163791070681
 20
131.2134728174856
 30
0.0
 11
365.0163791070681
 21
143.2134728174856
 31
0.0
  0
ARC
  5
1E9B
330
1F
100
AcDbEntity
  8
AM_4
100
AcDbCircle
 10
365.0163791070681
 20
219.2134728174857
 30
0.0
 40
4.0
100
AcDbArc
 50
260.0
 51
170.0
  0
CIRCLE
  5
1E9C
330
1F
100
AcDbEntity
  8
AM_0
100
AcDbCircle
 10
365.0163791070681
 20
219.2134728174857
 30
0.0
 40
3.323417653293459
  0
LINE
  5
1E9D
330
1F
100
AcDbEntity
  8
AM_7
  6
AM_ISO08W050x2
100
AcDbLine
 10
359.0163791070681
 20
219.2134728174857
 30
0.0
 11
371.0163791070681
 21
219.2134728174857
 31
0.0
  0
LINE
  5
1E9E
330
1F
100
AcDbEntity
  8
AM_7
  6
AM_ISO08W050x2
100
AcDbLine
 10
365.0163791070681
 20
213.2134728174857
 30
0.0
 11
365.0163791070681
 21
225.2134728174857
 31
0.0
  0
ARC
  5
1E9F
330
1F
100
AcDbEntity
  8
AM_4
100
AcDbCircle
 10
320.0163791070681
 20
219.2134728174857
 30
0.0
 40
4.0
100
AcDbArc
 50
260.0
 51
170.0
  0
CIRCLE
  5
1EA0
330
1F
100
AcDbEntity
  8
AM_0
100
AcDbCircle
 10
320.0163791070681
 20
219.2134728174857
 30
0.0
 40
3.323417653293459
  0
LINE
  5
1EA1
330
1F
100
AcDbEntity
  8
AM_7
  6
AM_ISO08W050x2
100
AcDbLine
 10
314.0163791070681
 20
219.2134728174857
 30
0.0
 11
326.0163791070681
 21
219.2134728174857
 31
0.0
  0
LINE
  5
1EA2
330
1F
100
AcDbEntity
  8
AM_7
  6
AM_ISO08W050x2
100
AcDbLine
 10
320.0163791070681
 20
213.2134728174857
 30
0.0
 11
320.0163791070681
 21
225.2134728174857
 31
0.0
  0
INSERT
  5
1EA3
330
1F
100
AcDbEntity
  8
AM_5
100
AcDbBlockReference
  2
*S16
 10
0.0
 20
0.0
 30
0.0
  0
ARC
  5
1EA9
330
1F
100
AcDbEntity
  8
AM_4
100
AcDbCircle
 10
110.9506078292936
 20
232.2134728174856
 30
0.0
 40
3.0
100
AcDbArc
 50
260.0
 51
170.0
  0
CIRCLE
  5
1EAA
330
1F
100
AcDbEntity
  8
AM_0
100
AcDbCircle
 10
110.9506078292936
 20
232.2134728174856
 30
0.0
 40
2.45873412263477
  0
LINE
  5
1EAB
330
1F
100
AcDbEntity
  8
AM_7
  6
AM_ISO08W050x2
100
AcDbLine
 10
105.9506078292936
 20
232.2134728174856
 30
0.0
 11
115.9506078292936
 21
232.2134728174856
 31
0.0
  0
LINE
  5
1EAC
330
1F
100
AcDbEntity
  8
AM_7
  6
AM_ISO08W050x2
100
AcDbLine
 10
110.9506078292936
 20
227.2134728174856
 30
0.0
 11
110.9506078292936
 21
237.2134728174856
 31
0.0
  0
ARC
  5
1EAD
330
1F
100
AcDbEntity
  8
AM_4
100
AcDbCircle
 10
110.9506078292936
 20
208.2134728174857
 30
0.0
 40
3.0
100
AcDbArc
 50
260.0
 51
170.0
  0
CIRCLE
  5
1EAE
330
1F
100
AcDbEntity
  8
AM_0
100
AcDbCircle
 10
110.9506078292936
 20
208.2134728174857
 30
0.0
 40
2.45873412263477
  0
LINE
  5
1EAF
330
1F
100
AcDbEntity
  8
AM_7
  6
AM_ISO08W050x2
100
AcDbLine
 10
105.9506078292936
 20
208.2134728174857
 30
0.0
 11
115.9506078292936
 21
208.2134728174857
 31
0.0
  0
LINE
  5
1EB0
330
1F
100
AcDbEntity
  8
AM_7
  6
AM_ISO08W050x2
100
AcDbLine
 10
110.9506078292936
 20
203.2134728174856
 30
0.0
 11
110.9506078292936
 21
213.2134728174857
 31
0.0
  0
ARC
  5
1EB1
330
1F
100
AcDbEntity
  8
AM_4
100
AcDbCircle
 10
110.9506078292936
 20
148.2134728174857
 30
0.0
 40
3.0
100
AcDbArc
 50
260.0
 51
170.0
  0
CIRCLE
  5
1EB2
330
1F
100
AcDbEntity
  8
AM_0
100
AcDbCircle
 10
110.9506078292936
 20
148.2134728174857
 30
0.0
 40
2.45873412263477
  0
LINE
  5
1EB3
330
1F
100
AcDbEntity
  8
AM_7
  6
AM_ISO08W050x2
100
AcDbLine
 10
105.9506078292936
 20
148.2134728174857
 30
0.0
 11
115.9506078292936
 21
148.2134728174857
 31
0.0
  0
LINE
  5
1EB4
330
1F
100
AcDbEntity
  8
AM_7
  6
AM_ISO08W050x2
100
AcDbLine
 10
110.9506078292936
 20
143.2134728174857
 30
0.0
 11
110.9506078292936
 21
153.2134728174857
 31
0.0
  0
ARC
  5
1EB5
330
1F
100
AcDbEntity
  8
AM_4
100
AcDbCircle
 10
110.9506078292936
 20
124.2134728174856
 30
0.0
 40
3.0
100
AcDbArc
 50
260.0
 51
170.0
  0
CIRCLE
  5
1EB6
330
1F
100
AcDbEntity
  8
AM_0
100
AcDbCircle
 10
110.9506078292936
 20
124.2134728174856
 30
0.0
 40
2.45873412263477
  0
LINE
  5
1EB7
330
1F
100
AcDbEntity
  8
AM_7
  6
AM_ISO08W050x2
100
AcDbLine
 10
105.9506078292936
 20
124.2134728174856
 30
0.0
 11
115.9506078292936
 21
124.2134728174856
 31
0.0
  0
LINE
  5
1EB8
330
1F
100
AcDbEntity
  8
AM_7
  6
AM_ISO08W050x2
100
AcDbLine
 10
110.9506078292936
 20
119.2134728174856
 30
0.0
 11
110.9506078292936
 21
129.2134728174856
 31
0.0
  0
ENDSEC
  0
SECTION
  2
OBJECTS
  0
DICTIONARY
  5
C
330
0
100
AcDbDictionary
281
     1
  3
ACAD_COLOR
350
BE
  3
ACAD_GROUP
350
D
  3
ACAD_LAYOUT
350
1A
  3
ACAD_MATERIAL
350
BD
  3
ACAD_MLINESTYLE
350
17
  3
ACAD_PLOTSETTINGS
350
19
  3
ACAD_PLOTSTYLENAME
350
E
  3
ACAD_TABLESTYLE
350
11A
  3
ACDBHEADERROUNDTRIPXREC
350
1F19
  3
AcDbVariableDictionary
350
94
  3
AcmDictionary
350
5B
  3
AMG
350
41
  3
AMGSNAPSETTINGS
350
1B8
  3
DWGPROPS
350
1F18
  0
DICTIONARY
  5
3F9
330
2
100
AcDbDictionary
280
     1
281
     1
  3
ACAD_LAYERFILTERS
360
5B7
  3
ACAD_LAYERSTATES
360
1141
  3
ACLYDICTIONARY
360
5B6
  3
AMLAYER_GROUPCOLORS
360
108C
  0
DICTIONARY
  5
8F
330
1F
100
AcDbDictionary
280
     1
281
     1
  3
ACAD_SORTENTS
360
10C1
  0
DICTIONARY
  5
1C89
330
1C7C
100
AcDbDictionary
280
     1
281
     1
  3
ACAD_DIMASSOC
360
1C8A
  0
DICTIONARY
  5
1CAF
330
1CA2
100
AcDbDictionary
280
     1
281
     1
  3
ACAD_DIMASSOC
360
1CB0
  0
DICTIONARY
  5
1CD5
330
1CC8
100
AcDbDictionary
280
     1
281
     1
  3
ACAD_DIMASSOC
360
1CD6
  0
DICTIONARY
  5
1D08
330
1CFB
100
AcDbDictionary
280
     1
281
     1
  3
ACAD_DIMASSOC
360
1D09
  0
DICTIONARY
  5
1D2E
330
1D21
100
AcDbDictionary
280
     1
281
     1
  3
ACAD_DIMASSOC
360
1D2F
  0
DICTIONARY
  5
1D59
330
1D4C
100
AcDbDictionary
280
     1
281
     1
  3
ACAD_DIMASSOC
360
1D5A
  0
DICTIONARY
  5
1D7F
330
1D72
100
AcDbDictionary
280
     1
281
     1
  3
ACAD_DIMASSOC
360
1D80
  0
DICTIONARY
  5
1DA5
330
1D98
100
AcDbDictionary
280
     1
281
     1
  3
ACAD_DIMASSOC
360
1DA6
  0
DICTIONARY
  5
1DCB
330
1DBE
100
AcDbDictionary
280
     1
281
     1
  3
ACAD_DIMASSOC
360
1DCC
  0
DICTIONARY
  5
1DF1
330
1DE4
100
AcDbDictionary
280
     1
281
     1
  3
ACAD_DIMASSOC
360
1DF2
  0
DICTIONARY
  5
BE
102
{ACAD_REACTORS
330
C
102
}
330
C
100
AcDbDictionary
281
     1
  0
DICTIONARY
  5
D
102
{ACAD_REACTORS
330
C
102
}
330
C
100
AcDbDictionary
281
     1
  0
DICTIONARY
  5
1A
102
{ACAD_REACTORS
330
C
102
}
330
C
100
AcDbDictionary
281
     1
  3
Model
350
22
  3
配置1
350
1E
  3
配置2
350
26
  0
DICTIONARY
  5
BD
102
{ACAD_REACTORS
330
C
102
}
330
C
100
AcDbDictionary
281
     1
  0
DICTIONARY
  5
17
102
{ACAD_REACTORS
330
C
102
}
330
C
100
AcDbDictionary
281
     1
  3
Standard
350
18
  0
DICTIONARY
  5
19
102
{ACAD_REACTORS
330
C
102
}
330
C
100
AcDbDictionary
281
     1
  0
ACDBDICTIONARYWDFLT
  5
E
102
{ACAD_REACTORS
330
C
102
}
330
C
100
AcDbDictionary
281
     1
  3
Normal
350
F
100
AcDbDictionaryWithDefault
340
F
  0
DICTIONARY
  5
11A
102
{ACAD_REACTORS
330
C
102
}
330
C
100
AcDbDictionary
281
     1
  3
Standard
350
11B
  0
DICTIONARY
  5
1F19
102
{ACAD_REACTORS
330
C
102
}
330
C
100
AcDbDictionary
281
     1
  0
DICTIONARY
  5
94
102
{ACAD_REACTORS
330
C
102
}
330
C
100
AcDbDictionary
281
     1
  3
CTABLESTYLE
350
138
  3
DIMASSOC
350
96
  3
INDEXCTL
350
95
  3
PROJECTNAME
350
1F16
  0
DICTIONARY
  5
5B
102
{ACAD_REACTORS
330
C
102
}
330
C
100
AcDbDictionary
281
     1
  3
AcmBOM
350
1B5
  3
AcmStdDictionary
350
61
  3
AMDTSECTSYM_ARROWCOLOR
350
123
  0
DICTIONARY
  5
41
102
{ACAD_REACTORS
330
C
102
}
330
C
100
AcDbDictionary
281
     1
  0
DICTIONARY
  5
1B8
102
{ACAD_REACTORS
330
C
102
}
330
C
100
AcDbDictionary
281
     1
  0
XRECORD
  5
1F18
102
{ACAD_REACTORS
330
C
102
}
330
C
100
AcDbXrecord
280
     1
  1
DWGPROPS COOKIE
  2

  3

  4

  6

  7

  8

  9

300
AmdtFileType=84
301
=
302
=
303
=
304
=
305
=
306
=
307
=
308
=
309
=
 40
0.0820377662037037
 41
2454258.477603437
 42
2454258.577136134
  1

 90
        1
  0
DICTIONARY
  5
5B7
102
{ACAD_REACTORS
330
3F9
102
}
330
3F9
100
AcDbDictionary
281
     1
  0
DICTIONARY
  5
1141
102
{ACAD_REACTORS
330
3F9
102
}
330
3F9
100
AcDbDictionary
281
     1
  0
DICTIONARY
  5
5B6
102
{ACAD_REACTORS
330
3F9
102
}
330
3F9
100
AcDbDictionary
281
     1
1001
ACAD
1000
<All
  0
DICTIONARY
  5
108C
102
{ACAD_REACTORS
330
3F9
102
}
330
3F9
100
AcDbDictionary
280
     1
281
     1
  0
SORTENTSTABLE
  5
10C1
102
{ACAD_REACTORS
330
8F
102
}
330
8F
100
AcDbSortentsTable
330
1F
331
1AE5
  5
1AE5
331
1B24
  5
1B24
331
1B5B
  5
1B5B
331
1247
  5
1247
331
1C6A
  5
1C6A
331
1AB6
  5
1AB6
331
1AED
  5
1AED
331
1B2C
  5
1B2C
331
1B63
  5
1B63
331
1B6B
  5
1B6B
331
1208
  5
1208
331
1ABE
  5
1ABE
331
125F
  5
125F
331
1B3C
  5
1B3C
331
1AC6
  5
1AC6
331
1267
  5
1267
331
1AFD
  5
1AFD
331
1218
  5
1218
331
1ACE
  5
1ACE
331
126F
  5
126F
331
1B05
  5
1B05
331
11E1
  5
11E1
331
1220
  5
1220
331
1B0D
  5
1B0D
331
1B4C
  5
1B4C
331
1B83
  5
1B83
331
1228
  5
1228
331
1CA2
  5
1CA2
331
1ADE
  5
1ADE
331
1B15
  5
1B15
331
11E9
  5
11E9
331
11F1
  5
11F1
331
1B93
  5
1B93
331
1230
  5
1230
331
1B1D
  5
1B1D
331
1D98
  5
1D98
331
1B25
  5
1B25
331
1B5C
  5
1B5C
331
1248
  5
1248
331
1AE6
  5
1AE6
331
1D21
  5
1D21
331
1B64
  5
1B64
331
1AB7
  5
1AB7
331
1258
  5
1258
331
1C6B
  5
1C6B
331
1209
  5
1209
331
1260
  5
1260
331
1ABF
  5
1ABF
331
1AC7
  5
1AC7
331
1AFE
  5
1AFE
331
1B74
  5
1B74
331
1268
  5
1268
331
1B7C
  5
1B7C
331
1ACF
  5
1ACF
331
1B06
  5
1B06
331
1270
  5
1270
331
11E2
  5
11E2
331
1B4D
  5
1B4D
331
1B84
  5
1B84
331
1221
  5
1221
331
1B0E
  5
1B0E
331
11EA
  5
11EA
331
1B55
  5
1B55
331
1229
  5
1229
331
1ADF
  5
1ADF
331
1B16
  5
1B16
331
1231
  5
1231
331
1B94
  5
1B94
331
1B1E
  5
1B1E
331
11F2
  5
11F2
331
11FA
  5
11FA
331
1241
  5
1241
331
1B26
  5
1B26
331
1B5D
  5
1B5D
331
1249
  5
1249
331
1AB8
  5
1AB8
331
1259
  5
1259
331
1C6C
  5
1C6C
331
120A
  5
120A
331
1B36
  5
1B36
331
1B6D
  5
1B6D
331
1AC0
  5
1AC0
331
1261
  5
1261
331
1C7C
  5
1C7C
331
1B75
  5
1B75
331
1212
  5
1212
331
1AFF
  5
1AFF
331
1AC8
  5
1AC8
331
1269
  5
1269
331
1B7D
  5
1B7D
331
1271
  5
1271
331
1AD0
  5
1AD0
331
11E3
  5
11E3
331
1CFB
  5
1CFB
331
1D72
  5
1D72
331
1222
  5
1222
331
1AD8
  5
1AD8
331
1B0F
  5
1B0F
331
1B4E
  5
1B4E
331
1B85
  5
1B85
331
122A
  5
122A
331
1B56
  5
1B56
331
1B17
  5
1B17
331
11EB
  5
11EB
331
11F3
  5
11F3
331
1232
  5
1232
331
1B1F
  5
1B1F
331
1242
  5
1242
331
1AE0
  5
1AE0
331
1B27
  5
1B27
331
1B5E
  5
1B5E
331
124A
  5
124A
331
1AE8
  5
1AE8
331
1C65
  5
1C65
331
1203
  5
1203
331
1B2F
  5
1B2F
331
1B66
  5
1B66
331
1AB9
  5
1AB9
331
1AF8
  5
1AF8
331
1B6E
  5
1B6E
331
1262
  5
1262
331
1AC1
  5
1AC1
331
1B76
  5
1B76
331
1AC9
  5
1AC9
331
126A
  5
126A
331
1B00
  5
1B00
331
1B7E
  5
1B7E
331
1AD1
  5
1AD1
331
1B08
  5
1B08
331
1272
  5
1272
331
11E4
  5
11E4
331
1223
  5
1223
331
1B86
  5
1B86
331
1AD9
  5
1AD9
331
1B10
  5
1B10
331
1B18
  5
1B18
331
11EC
  5
11EC
331
122B
  5
122B
331
1233
  5
1233
331
11F4
  5
11F4
331
1B20
  5
1B20
331
1243
  5
1243
331
1C66
  5
1C66
331
1AB2
  5
1AB2
331
1AE9
  5
1AE9
331
1B28
  5
1B28
331
1B5F
  5
1B5F
331
1204
  5
1204
331
1B67
  5
1B67
331
1ABA
  5
1ABA
331
1B38
  5
1B38
331
1B6F
  5
1B6F
331
1D4C
  5
1D4C
331
1AC2
  5
1AC2
331
1AF9
  5
1AF9
331
1263
  5
1263
331
1B77
  5
1B77
331
121C
  5
121C
331
1B40
  5
1B40
331
1ACA
  5
1ACA
331
126B
  5
126B
331
1B01
  5
1B01
331
1B09
  5
1B09
331
1273
  5
1273
331
1AD2
  5
1AD2
331
1224
  5
1224
331
11E5
  5
11E5
331
1B11
  5
1B11
331
1B50
  5
1B50
331
122C
  5
122C
331
1B19
  5
1B19
331
11ED
  5
11ED
331
11F5
  5
11F5
331
1234
  5
1234
331
1B21
  5
1B21
331
1B58
  5
1B58
331
1244
  5
1244
331
1AE2
  5
1AE2
331
1B60
  5
1B60
331
1AB3
  5
1AB3
331
1AEA
  5
1AEA
331
1C67
  5
1C67
331
1B68
  5
1B68
331
1205
  5
1205
331
1ABB
  5
1ABB
331
125C
  5
125C
331
1264
  5
1264
331
1B39
  5
1B39
331
1B70
  5
1B70
331
121D
  5
121D
331
1DE4
  5
1DE4
331
1B78
  5
1B78
331
1ACB
  5
1ACB
331
126C
  5
126C
331
1B02
  5
1B02
331
1B41
  5
1B41
331
1B49
  5
1B49
331
1B80
  5
1B80
331
1B0A
  5
1B0A
331
11E6
  5
11E6
331
1B88
  5
1B88
331
1225
  5
1225
331
1ADB
  5
1ADB
331
1B12
  5
1B12
331
1B1A
  5
1B1A
331
11EE
  5
11EE
331
122D
  5
122D
331
1235
  5
1235
331
11F6
  5
11F6
331
11FE
  5
11FE
331
1B22
  5
1B22
331
1B59
  5
1B59
331
1245
  5
1245
331
1AE3
  5
1AE3
331
1C68
  5
1C68
331
1AB4
  5
1AB4
331
1AEB
  5
1AEB
331
1B2A
  5
1B2A
331
1B61
  5
1B61
331
1B69
  5
1B69
331
1206
  5
1206
331
1ABC
  5
1ABC
331
125D
  5
125D
331
120E
  5
120E
331
1B3A
  5
1B3A
331
1B71
  5
1B71
331
1265
  5
1265
331
1216
  5
1216
331
11DF
  5
11DF
331
121E
  5
121E
331
1B42
  5
1B42
331
1B79
  5
1B79
331
1ACC
  5
1ACC
331
126D
  5
126D
331
1B03
  5
1B03
331
1AD4
  5
1AD4
331
1B0B
  5
1B0B
331
1B4A
  5
1B4A
331
1B81
  5
1B81
331
1226
  5
1226
331
1ADC
  5
1ADC
331
1B13
  5
1B13
331
11E7
  5
11E7
331
122E
  5
122E
331
1B91
  5
1B91
331
11EF
  5
11EF
331
11FF
  5
11FF
331
1B23
  5
1B23
331
1B5A
  5
1B5A
331
1246
  5
1246
331
1AE4
  5
1AE4
331
1B2B
  5
1B2B
331
1DBE
  5
1DBE
331
1AB5
  5
1AB5
331
1AEC
  5
1AEC
331
1C69
  5
1C69
331
1207
  5
1207
331
1B6A
  5
1B6A
331
1ABD
  5
1ABD
331
125E
  5
125E
331
1AF4
  5
1AF4
331
1CC8
  5
1CC8
331
1266
  5
1266
331
1B3B
  5
1B3B
331
1B72
  5
1B72
331
1217
  5
1217
331
121F
  5
121F
331
1B43
  5
1B43
331
1B7A
  5
1B7A
331
1ACD
  5
1ACD
331
126E
  5
126E
331
1B04
  5
1B04
331
11E0
  5
11E0
331
1B4B
  5
1B4B
331
1B82
  5
1B82
331
1AD5
  5
1AD5
331
11E8
  5
11E8
331
1B53
  5
1B53
331
1227
  5
1227
331
1ADD
  5
1ADD
331
1B14
  5
1B14
331
1B92
  5
1B92
331
1B1C
  5
1B1C
331
11F0
  5
11F0
331
122F
  5
122F
  0
DIMASSOC
  5
1C8A
102
{ACAD_REACTORS
330
1C89
102
}
330
1C89
100
AcDbDimAssoc
330
1C7C
 90
        3
 70
     0
 71
     0
  1
AcDbOsnapPointRef
 72
     1
331
1B2F
 73
     0
 91
        0
 40
0.0
 10
0.0
 20
0.0
 30
2.000000000000000E+50
 75
     0
  1
AcDbOsnapPointRef
 72
     1
331
1B04
 73
     0
 91
        0
 40
0.0
 10
0.0
 20
0.0
 30
2.000000000000000E+50
 75
     0
  0
DIMASSOC
  5
1CB0
102
{ACAD_REACTORS
330
1CAF
102
}
330
1CAF
100
AcDbDimAssoc
330
1CA2
 90
        3
 70
     0
 71
     0
  1
AcDbOsnapPointRef
 72
    13
331
1C66
 73
     0
 91
        0
 40
0.0
 10
0.0
 20
0.0
 30
2.000000000000000E+50
 75
     0
  1
AcDbOsnapPointRef
 72
     1
331
1B36
 73
     0
 91
        0
 40
0.0
 10
0.0
 20
0.0
 30
2.000000000000000E+50
 75
     0
  0
DIMASSOC
  5
1CD6
102
{ACAD_REACTORS
330
1CD5
102
}
330
1CD5
100
AcDbDimAssoc
330
1CC8
 90
        1
 70
     0
 71
     0
  1
AcDbOsnapPointRef
 72
    13
331
1C6A
 73
     0
 91
        0
 40
0.0
 10
0.0
 20
0.0
 30
2.000000000000000E+50
 75
     0
  0
DIMASSOC
  5
1D09
102
{ACAD_REACTORS
330
1D08
102
}
330
1D08
100
AcDbDimAssoc
330
1CFB
 90
        3
 70
     0
 71
     0
  1
AcDbOsnapPointRef
 72
     1
331
1C6C
 73
     0
 91
        0
 40
0.0
 10
0.0
 20
0.0
 30
2.000000000000000E+50
 75
     0
  1
AcDbOsnapPointRef
 72
     1
331
1C68
 73
     0
 91
        0
 40
0.0
 10
0.0
 20
0.0
 30
2.000000000000000E+50
 75
     0
  0
DIMASSOC
  5
1D2F
102
{ACAD_REACTORS
330
1D2E
102
}
330
1D2E
100
AcDbDimAssoc
330
1D21
 90
        3
 70
     0
 71
     0
  1
AcDbOsnapPointRef
 72
     1
331
1B2C
 73
     0
 91
        0
 40
0.0
 10
0.0
 20
0.0
 30
2.000000000000000E+50
 75
     0
  1
AcDbOsnapPointRef
 72
     1
331
1B41
 73
     0
 91
        0
 40
0.0
 10
0.0
 20
0.0
 30
2.000000000000000E+50
 75
     0
  0
DIMASSOC
  5
1D5A
102
{ACAD_REACTORS
330
1D59
102
}
330
1D59
100
AcDbDimAssoc
330
1D4C
 90
        3
 70
     0
 71
     0
  1
AcDbOsnapPointRef
 72
    13
331
1B04
 73
     0
 91
        0
 40
0.0
 10
0.0
 20
0.0
 30
2.000000000000000E+50
 75
     0
  1
AcDbOsnapPointRef
 72
     1
331
1AFE
 73
     0
 91
        0
 40
0.0
 10
0.0
 20
0.0
 30
2.000000000000000E+50
 75
     0
  0
DIMASSOC
  5
1D80
102
{ACAD_REACTORS
330
1D7F
102
}
330
1D7F
100
AcDbDimAssoc
330
1D72
 90
        3
 70
     0
 71
     0
  1
AcDbOsnapPointRef
 72
    13
331
1AC0
 73
     0
 91
        0
 40
0.0
 10
0.0
 20
0.0
 30
2.000000000000000E+50
 75
     0
  1
AcDbOsnapPointRef
 72
     1
331
1B08
 73
     0
 91
        0
 40
0.0
 10
0.0
 20
0.0
 30
2.000000000000000E+50
 75
     0
  0
DIMASSOC
  5
1DA6
102
{ACAD_REACTORS
330
1DA5
102
}
330
1DA5
100
AcDbDimAssoc
330
1D98
 90
        3
 70
     0
 71
     0
  1
AcDbOsnapPointRef
 72
    13
331
1ACB
 73
     0
 91
        0
 40
0.0
 10
0.0
 20
0.0
 30
2.000000000000000E+50
 75
     0
  1
AcDbOsnapPointRef
 72
    13
331
1B0F
 73
     0
 91
        0
 40
0.0
 10
0.0
 20
0.0
 30
2.000000000000000E+50
 75
     0
  0
DIMASSOC
  5
1DCC
102
{ACAD_REACTORS
330
1DCB
102
}
330
1DCB
100
AcDbDimAssoc
330
1DBE
 90
        3
 70
     0
 71
     0
  1
AcDbOsnapPointRef
 72
    13
331
1AC9
 73
     0
 91
        0
 40
0.0
 10
0.0
 20
0.0
 30
2.000000000000000E+50
 75
     0
  1
AcDbOsnapPointRef
 72
    13
331
1AEB
 73
     0
 91
        0
 40
0.0
 10
0.0
 20
0.0
 30
2.000000000000000E+50
 75
     0
  0
DIMASSOC
  5
1DF2
102
{ACAD_REACTORS
330
1DF1
102
}
330
1DF1
100
AcDbDimAssoc
330
1DE4
 90
        3
 70
     0
 71
     0
  1
AcDbOsnapPointRef
 72
     6
331
1AB2
 73
     0
 91
        0
 40
0.0000000000000028
 10
0.0
 20
0.0
 30
0.0
332
1AC2
 74
     0
 92
        0
 75
     0
  1
AcDbOsnapPointRef
 72
    13
331
1AE8
 73
     0
 91
        0
 40
0.0
 10
0.0
 20
0.0
 30
2.000000000000000E+50
 75
     0
  0
LAYOUT
  5
22
102
{ACAD_XDICTIONARY
360
1F1C
102
}
102
{ACAD_REACTORS
330
1A
102
}
330
1A
100
AcDbPlotSettings
  1

  2
\\RD\EPSON Stylus C63 Series單色
  4
A4
  6

 40
3.757083177566528
 41
3.757076978683471
 42
3.757080078125
 43
3.757080078125
 44
209.9733276367187
 45
296.9683227539062
 46
0.0
 47
0.0
 48
0.0
 49
0.0
140
0.0
141
0.0
142
1.0
143
0.3405120737814363
 70
 11952
 72
     1
 73
     0
 74
     0
  7
單色出圖.ctb
 75
     0
147
2.936753428137963
148
-2047.07469463503
149
-1261.649717473083
100
AcDbLayout
  1
Model
 70
     1
 71
     0
 10
0.0
 20
0.0
 11
12.0
 21
9.0
 12
0.0
 22
0.0
 32
0.0
 14
0.0
 24
0.0
 34
0.0
 15
0.0
 25
0.0
 35
0.0
146
0.0
 13
0.0
 23
0.0
 33
0.0
 16
1.0
 26
0.0
 36
0.0
 17
0.0
 27
1.0
 37
0.0
 76
     0
330
1F
1001
ACAD_PSEXT
1000
\\RD\EPSON Stylus C63 Series單色
1000
EPSON Stylus C63 Series
1000
\\RD
1000

1070
     0
  0
LAYOUT
  5
1E
102
{ACAD_XDICTIONARY
360
1F1A
102
}
102
{ACAD_REACTORS
330
1A
102
}
330
1A
100
AcDbPlotSettings
  1

  2

  4

  6

 40
0.0
 41
0.0
 42
0.0
 43
0.0
 44
0.0
 45
0.0
 46
0.0
 47
0.0
 48
0.0
 49
0.0
140
0.0
141
0.0
142
1.0
143
1.0
 70
   688
 72
     0
 73
     0
 74
     5
  7
單色出圖.ctb
 75
    16
147
1.0
148
0.0
149
0.0
100
AcDbLayout
  1
配置1
 70
     1
 71
     1
 10
0.0
 20
0.0
 11
420.0
 21
297.0
 12
0.0
 22
0.0
 32
0.0
 14
1.000000000000000E+20
 24
1.000000000000000E+20
 34
1.000000000000000E+20
 15
-1.000000000000000E+20
 25
-1.000000000000000E+20
 35
-1.000000000000000E+20
146
0.0
 13
0.0
 23
0.0
 33
0.0
 16
1.0
 26
0.0
 36
0.0
 17
0.0
 27
1.0
 37
0.0
 76
     0
330
1B
  0
LAYOUT
  5
26
102
{ACAD_XDICTIONARY
360
1F1E
102
}
102
{ACAD_REACTORS
330
1A
102
}
330
1A
100
AcDbPlotSettings
  1

  2

  4

  6

 40
0.0
 41
0.0
 42
0.0
 43
0.0
 44
0.0
 45
0.0
 46
0.0
 47
0.0
 48
0.0
 49
0.0
140
0.0
141
0.0
142
1.0
143
1.0
 70
   688
 72
     0
 73
     0
 74
     5
  7
單色出圖.ctb
 75
    16
147
1.0
148
0.0
149
0.0
100
AcDbLayout
  1
配置2
 70
     1
 71
     2
 10
0.0
 20
0.0
 11
12.0
 21
9.0
 12
0.0
 22
0.0
 32
0.0
 14
0.0
 24
0.0
 34
0.0
 15
0.0
 25
0.0
 35
0.0
146
0.0
 13
0.0
 23
0.0
 33
0.0
 16
1.0
 26
0.0
 36
0.0
 17
0.0
 27
1.0
 37
0.0
 76
     0
330
23
  0
MLINESTYLE
  5
18
102
{ACAD_REACTORS
330
17
102
}
330
17
100
AcDbMlineStyle
  2
STANDARD
 70
     0
  3

 62
   256
 51
90.0
 52
90.0
 71
     2
 49
0.5
 62
   256
  6
BYLAYER
 49
-0.5
 62
   256
  6
BYLAYER
  0
ACDBPLACEHOLDER
  5
F
102
{ACAD_REACTORS
330
E
102
}
330
E
  0
TABLESTYLE
  5
11B
102
{ACAD_REACTORS
330
11A
102
}
330
11A
100
AcDbTableStyle
  3
Standard
 70
     0
 71
     0
 40
1.5
 41
1.5
280
     0
281
     0
  7
STANDARD
140
4.5
170
     2
 62
     0
 63
     7
283
     0
274
    -2
284
     1
 64
     0
275
    -2
285
     1
 65
     0
276
    -2
286
     1
 66
     0
277
    -2
287
     1
 67
     0
278
    -2
288
     1
 68
     0
279
    -2
289
     1
 69
     0
  7
STANDARD
140
6.0
170
     5
 62
     0
 63
     7
283
     0
274
    -2
284
     1
 64
     0
275
    -2
285
     1
 65
     0
276
    -2
286
     1
 66
     0
277
    -2
287
     1
 67
     0
278
    -2
288
     1
 68
     0
279
    -2
289
     1
 69
     0
  7
STANDARD
140
4.5
170
     5
 62
     0
 63
     7
283
     0
274
    -2
284
     1
 64
     0
275
    -2
285
     1
 65
     0
276
    -2
286
     1
 66
     0
277
    -2
287
     1
 67
     0
278
    -2
288
     1
 68
     0
279
    -2
289
     1
 69
     0
  0
DICTIONARYVAR
  5
138
102
{ACAD_REACTORS
330
94
102
}
330
94
100
DictionaryVariables
280
     0
  1
STANDARD
  0
DICTIONARYVAR
  5
96
102
{ACAD_REACTORS
330
94
102
}
330
94
100
DictionaryVariables
280
     0
  1
2
  0
DICTIONARYVAR
  5
95
102
{ACAD_REACTORS
330
94
102
}
330
94
100
DictionaryVariables
280
     0
  1
0
  0
DICTIONARYVAR
  5
1F16
102
{ACAD_REACTORS
330
94
102
}
330
94
100
DictionaryVariables
280
     0
  1

  0
DICTIONARY
  5
1B5
102
{ACAD_REACTORS
330
5B
102
}
330
5B
100
AcDbDictionary
281
     1
  0
DICTIONARY
  5
61
102
{ACAD_REACTORS
330
5B
102
}
330
5B
100
AcDbDictionary
281
     1
  0
XRECORD
  5
123
102
{ACAD_REACTORS
330
5B
102
}
330
5B
100
AcDbXrecord
280
     1
 90
-1023410169
  0
DICTIONARY
  5
1F1C
330
22
100
AcDbDictionary
280
     1
281
     1
  3
ACAD_XREC_ROUNDTRIP
360
1F1D
  0
DICTIONARY
  5
1F1A
330
1E
100
AcDbDictionary
280
     1
281
     1
  3
ACAD_XREC_ROUNDTRIP
360
1F1B
  0
DICTIONARY
  5
1F1E
330
26
100
AcDbDictionary
280
     1
281
     1
  3
ACAD_XREC_ROUNDTRIP
360
1F1F
  0
XRECORD
  5
1F1D
102
{ACAD_REACTORS
330
1F1C
102
}
330
1F1C
100
AcDbXrecord
280
     1
102
SHADEPLOT
 70
     0
102
SHADEPLOTRESLEVEL
 70
     2
102
SHADEPLOTCUSTOMDPI
 70
   300
  0
XRECORD
  5
1F1B
102
{ACAD_REACTORS
330
1F1A
102
}
330
1F1A
100
AcDbXrecord
280
     1
102
SHADEPLOT
 70
     0
102
SHADEPLOTRESLEVEL
 70
     2
102
SHADEPLOTCUSTOMDPI
 70
   300
  0
XRECORD
  5
1F1F
102
{ACAD_REACTORS
330
1F1E
102
}
330
1F1E
100
AcDbXrecord
280
     1
102
SHADEPLOT
 70
     0
102
SHADEPLOTRESLEVEL
 70
     2
102
SHADEPLOTCUSTOMDPI
 70
   300
  0
ENDSEC
  0
EOF
