  0
SECTION
  2
HEADER
  9
$ACADVER
  1
AC1015
  9
$ACADMAINTVER
 70
    20
  9
$DWGCODEPAGE
  3
ANSI_950
  9
$INSBASE
 10
0.0
 20
0.0
 30
0.0
  9
$EXTMIN
 10
62.18353376512368
 20
48.23259046933685
 30
-0.0079239653563832
  9
$EXTMAX
 10
392.1990976252118
 20
288.2399146217387
 30
157.2695768269465
  9
$LIMMIN
 10
0.0
 20
0.0
  9
$LIMMAX
 10
420.0
 20
297.0
  9
$ORTHOMODE
 70
     0
  9
$REGENMODE
 70
     1
  9
$FILLMODE
 70
     1
  9
$QTEXTMODE
 70
     0
  9
$MIRRTEXT
 70
     1
  9
$LTSCALE
 40
1.0
  9
$ATTMODE
 70
     1
  9
$TEXTSIZE
 40
3.0
  9
$TRACEWID
 40
1.0
  9
$TEXTSTYLE
  7
CHINESET
  9
$CLAYER
  8
0
  9
$CELTYPE
  6
ByLayer
  9
$CECOLOR
 62
   256
  9
$CELTSCALE
 40
1.0
  9
$DISPSILH
 70
     0
  9
$DIMSCALE
 40
1.0
  9
$DIMASZ
 40
3.0
  9
$DIMEXO
 40
1.0
  9
$DIMDLI
 40
8.0
  9
$DIMRND
 40
0.0
  9
$DIMDLE
 40
0.0
  9
$DIMEXE
 40
1.5
  9
$DIMTP
 40
0.1
  9
$DIMTM
 40
0.1
  9
$DIMTXT
 40
3.5
  9
$DIMCEN
 40
0.0
  9
$DIMTSZ
 40
0.0
  9
$DIMTOL
 70
     0
  9
$DIMLIM
 70
     0
  9
$DIMTIH
 70
     0
  9
$DIMTOH
 70
     0
  9
$DIMSE1
 70
     0
  9
$DIMSE2
 70
     0
  9
$DIMTAD
 70
     1
  9
$DIMZIN
 70
     8
  9
$DIMBLK
  1

  9
$DIMASO
 70
     1
  9
$DIMSHO
 70
     1
  9
$DIMPOST
  1

  9
$DIMAPOST
  1
"
  9
$DIMALT
 70
     0
  9
$DIMALTD
 70
     2
  9
$DIMALTF
 40
0.0393701
  9
$DIMLFAC
 40
1.0
  9
$DIMTOFL
 70
     1
  9
$DIMTVP
 40
0.0
  9
$DIMTIX
 70
     0
  9
$DIMSOXD
 70
     0
  9
$DIMSAH
 70
     0
  9
$DIMBLK1
  1

  9
$DIMBLK2
  1

  9
$DIMSTYLE
  2
AM_ISO
  9
$DIMCLRD
 70
   256
  9
$DIMCLRE
 70
   256
  9
$DIMCLRT
 70
   256
  9
$DIMTFAC
 40
0.6
  9
$DIMGAP
 40
0.8
  9
$DIMJUST
 70
     0
  9
$DIMSD1
 70
     0
  9
$DIMSD2
 70
     0
  9
$DIMTOLJ
 70
     0
  9
$DIMTZIN
 70
     8
  9
$DIMALTZ
 70
     0
  9
$DIMALTTZ
 70
     0
  9
$DIMUPT
 70
     0
  9
$DIMDEC
 70
     2
  9
$DIMTDEC
 70
     8
  9
$DIMALTU
 70
     2
  9
$DIMALTTD
 70
     2
  9
$DIMTXSTY
  7
CHINESET
  9
$DIMAUNIT
 70
     0
  9
$DIMADEC
 70
     0
  9
$DIMALTRND
 40
0.0
  9
$DIMAZIN
 70
     2
  9
$DIMDSEP
 70
    46
  9
$DIMATFIT
 70
     3
  9
$DIMFRAC
 70
     0
  9
$DIMLDRBLK
  1

  9
$DIMLUNIT
 70
     2
  9
$DIMLWD
 70
    -1
  9
$DIMLWE
 70
    -1
  9
$DIMTMOVE
 70
     0
  9
$LUNITS
 70
     2
  9
$LUPREC
 70
     2
  9
$SKETCHINC
 40
1.0
  9
$FILLETRAD
 40
2.5
  9
$AUNITS
 70
     0
  9
$AUPREC
 70
     0
  9
$MENU
  1
.
  9
$ELEVATION
 40
0.0
  9
$PELEVATION
 40
0.0
  9
$THICKNESS
 40
0.0
  9
$LIMCHECK
 70
     0
  9
$CHAMFERA
 40
2.5
  9
$CHAMFERB
 40
2.5
  9
$CHAMFERC
 40
20.0
  9
$CHAMFERD
 40
0.0
  9
$SKPOLY
 70
     0
  9
$TDCREATE
 40
2454258.477603437
  9
$TDUCREATE
 40
2454258.144270105
  9
$TDUPDATE
 40
2454258.576664850
  9
$TDUUPDATE
 40
2454258.243331516
  9
$TDINDWG
 40
0.0693496875
  9
$TDUSRTIMER
 40
0.0693496875
  9
$USRTIMER
 70
     1
  9
$ANGBASE
 50
0.0
  9
$ANGDIR
 70
     0
  9
$PDMODE
 70
     0
  9
$PDSIZE
 40
0.0
  9
$PLINEWID
 40
0.0
  9
$SPLFRAME
 70
     0
  9
$SPLINETYPE
 70
     6
  9
$SPLINESEGS
 70
     8
  9
$HANDSEED
  5
1A12
  9
$SURFTAB1
 70
     6
  9
$SURFTAB2
 70
     6
  9
$SURFTYPE
 70
     6
  9
$SURFU
 70
     6
  9
$SURFV
 70
     6
  9
$UCSBASE
  2

  9
$UCSNAME
  2

  9
$UCSORG
 10
0.0
 20
0.0
 30
0.0
  9
$UCSXDIR
 10
1.0
 20
0.0
 30
0.0
  9
$UCSYDIR
 10
0.0
 20
1.0
 30
0.0
  9
$UCSORTHOREF
  2

  9
$UCSORTHOVIEW
 70
     0
  9
$UCSORGTOP
 10
0.0
 20
0.0
 30
0.0
  9
$UCSORGBOTTOM
 10
0.0
 20
0.0
 30
0.0
  9
$UCSORGLEFT
 10
0.0
 20
0.0
 30
0.0
  9
$UCSORGRIGHT
 10
0.0
 20
0.0
 30
0.0
  9
$UCSORGFRONT
 10
0.0
 20
0.0
 30
0.0
  9
$UCSORGBACK
 10
0.0
 20
0.0
 30
0.0
  9
$PUCSBASE
  2

  9
$PUCSNAME
  2

  9
$PUCSORG
 10
0.0
 20
0.0
 30
0.0
  9
$PUCSXDIR
 10
1.0
 20
0.0
 30
0.0
  9
$PUCSYDIR
 10
0.0
 20
1.0
 30
0.0
  9
$PUCSORTHOREF
  2

  9
$PUCSORTHOVIEW
 70
     0
  9
$PUCSORGTOP
 10
0.0
 20
0.0
 30
0.0
  9
$PUCSORGBOTTOM
 10
0.0
 20
0.0
 30
0.0
  9
$PUCSORGLEFT
 10
0.0
 20
0.0
 30
0.0
  9
$PUCSORGRIGHT
 10
0.0
 20
0.0
 30
0.0
  9
$PUCSORGFRONT
 10
0.0
 20
0.0
 30
0.0
  9
$PUCSORGBACK
 10
0.0
 20
0.0
 30
0.0
  9
$USERI1
 70
     0
  9
$USERI2
 70
     0
  9
$USERI3
 70
     0
  9
$USERI4
 70
     0
  9
$USERI5
 70
     0
  9
$USERR1
 40
0.0
  9
$USERR2
 40
0.0
  9
$USERR3
 40
0.0
  9
$USERR4
 40
0.0
  9
$USERR5
 40
0.0
  9
$WORLDVIEW
 70
     1
  9
$SHADEDGE
 70
     3
  9
$SHADEDIF
 70
    70
  9
$TILEMODE
 70
     1
  9
$MAXACTVP
 70
    64
  9
$PINSBASE
 10
0.0
 20
0.0
 30
0.0
  9
$PLIMCHECK
 70
     0
  9
$PEXTMIN
 10
1.000000000000000E+20
 20
1.000000000000000E+20
 30
1.000000000000000E+20
  9
$PEXTMAX
 10
-1.000000000000000E+20
 20
-1.000000000000000E+20
 30
-1.000000000000000E+20
  9
$PLIMMIN
 10
0.0
 20
0.0
  9
$PLIMMAX
 10
420.0
 20
297.0
  9
$UNITMODE
 70
     0
  9
$VISRETAIN
 70
     1
  9
$PLINEGEN
 70
     0
  9
$PSLTSCALE
 70
     1
  9
$TREEDEPTH
 70
  3020
  9
$CMLSTYLE
  2
Standard
  9
$CMLJUST
 70
     0
  9
$CMLSCALE
 40
20.0
  9
$PROXYGRAPHICS
 70
     1
  9
$MEASUREMENT
 70
     1
  9
$CELWEIGHT
370
    -1
  9
$ENDCAPS
280
     0
  9
$JOINSTYLE
280
     0
  9
$LWDISPLAY
290
     0
  9
$INSUNITS
 70
     4
  9
$HYPERLINKBASE
  1

  9
$STYLESHEET
  1
彩色出圖.ctb
  9
$XEDIT
290
     1
  9
$CEPSNTYPE
380
     0
  9
$PSTYLEMODE
290
     1
  9
$FINGERPRINTGUID
  2
{5AE30D0C-8B0C-47C6-BCF1-2EB8E1B65188}
  9
$VERSIONGUID
  2
{1C7E2F91-7826-445B-9ADE-958F9524F657}
  9
$EXTNAMES
290
     1
  9
$PSVPSCALE
 40
0.0
  9
$OLESTARTUP
290
     0
  0
ENDSEC
  0
SECTION
  2
CLASSES
  0
CLASS
  1
ACDBDICTIONARYWDFLT
  2
AcDbDictionaryWithDefault
  3
ObjectDBX Classes
 90
        0
280
     0
281
     0
  0
CLASS
  1
ACDBPLACEHOLDER
  2
AcDbPlaceHolder
  3
ObjectDBX Classes
 90
        0
280
     0
281
     0
  0
CLASS
  1
LAYOUT
  2
AcDbLayout
  3
ObjectDBX Classes
 90
        0
280
     0
281
     0
  0
CLASS
  1
ACME_DOCUMENT
  2
AcMeDbDoc
  3
AcMeServices
 90
        0
280
     0
281
     0
  0
CLASS
  1
AMGSETTINGSOBJ
  2
AmgSettingsObj
  3
"AcadM|Product Description: AutoCAD Mechanical 2000|Company: Autodesk"
 90
        0
280
     0
281
     0
  0
CLASS
  1
ACMESCOPE
  2
AcMeScope
  3
AcMeServices
 90
        0
280
     0
281
     0
  0
CLASS
  1
ACMECOMMANDHISTORY
  2
AcMeCommandHistory
  3
AcMeServices
 90
        0
280
     0
281
     0
  0
CLASS
  1
ACIMSYSVARMAN
  2
AcImSysVarManager
  3
AcMeServices
 90
        0
280
     0
281
     0
  0
CLASS
  1
ACIMREALSYSVAR
  2
AcImRealSysVar
  3
AcMeServices
 90
        0
280
     0
281
     0
  0
CLASS
  1
ACIMINTSYSVAR
  2
AcImIntSysVar
  3
AcMeServices
 90
        0
280
     0
281
     0
  0
CLASS
  1
ACMEDRAWINGMAN
  2
AcMeDrawingMan
  3
AcMeServices
 90
        0
280
     0
281
     0
  0
CLASS
  1
ACMEVIEW
  2
AcMeView
  3
AcMeServices
 90
        0
280
     0
281
     0
  0
CLASS
  1
ACDBENTITYCACHE
  2
AcMeEntityCache
  3
AcMeServices
 90
        0
280
     0
281
     0
  0
CLASS
  1
GSMANAGER
  2
AcMeGSManager
  3
AcMeServices
 90
        0
280
     0
281
     0
  0
CLASS
  1
AMDTINTERNALREACTOR
  2
AmdtInternalReactor
  3
AcMeServices
 90
        0
280
     0
281
     0
  0
CLASS
  1
ACMESTATEMGR
  2
AcMeStateMgr
  3
AcMeServices
 90
        0
280
     0
281
     0
  0
CLASS
  1
ACGREFMASTER
  2
AcGrefMaster
  3
AcAttribServices
 90
        0
280
     0
281
     0
  0
CLASS
  1
ACME_DATABASE
  2
AcMeDbDatabase
  3
AcMeServices
 90
        0
280
     0
281
     0
  0
CLASS
  1
ACRFINSADJUSTERMGR
  2
AcRfInsAdjusterMgr
  3
AcMeServices
 90
        0
280
     0
281
     0
  0
CLASS
  1
ACGREFACADMASTER
  2
AcGrefacadMaster
  3
AcGrefServices
 90
        0
280
     0
281
     0
  0
CLASS
  1
AMIMASTER
  2
AmiMaster
  3
AmiServices
 90
        0
280
     0
281
     0
  0
CLASS
  1
ACMDATADICTIONARY
  2
AcmDataDictionary
  3
"AcmSymBB|Product Description: AutoCAD Mechanical 2004 DX|Company: Autodesk"
 90
        0
280
     0
281
     0
  0
CLASS
  1
ACMDATAENTRYBLOCK
  2
AcmDataEntryBlock
  3
"AcmSymBB|Product Description: AutoCAD Mechanical 2004 DX|Company: Autodesk"
 90
        0
280
     0
281
     0
  0
CLASS
  1
ACIMSTRSYSVAR
  2
AcImStrSysVar
  3
AcMeServices
 90
        0
280
     0
281
     0
  0
CLASS
  1
ACMSTANDARDISO
  2
AcmStandardISO
  3
"Amdt_StdImp|Product Description: AutoCAD Mechanical 2004 DX|Company: Autodesk"
 90
        0
280
     0
281
     0
  0
CLASS
  1
AMGOBJPROPCFG
  2
AmgObjPropCfg
  3
"AmgLay|Product Description: AutoCAD Mechanical 2000|Company: Autodesk"
 90
        1
280
     0
281
     0
  0
CLASS
  1
AMDTEDGESTANDARDISO
  2
AmdtEdgeStdISO
  3
"Amdt_StdImp|Product Description: AutoCAD Mechanical 2004 DX|Company: Autodesk"
 90
        0
280
     0
281
     0
  0
CLASS
  1
ACMSURFSTANDARDISO
  2
AcmSurfTextStdISO
  3
"Amdt_StdImp|Product Description: AutoCAD Mechanical 2004 DX|Company: Autodesk"
 90
        0
280
     0
281
     0
  0
CLASS
  1
ACMFCFSTANDARDISO
  2
AcmFCFStdISO
  3
"Amdt_StdImp|Product Description: AutoCAD Mechanical 2004 DX|Company: Autodesk"
 90
        0
280
     0
281
     0
  0
CLASS
  1
ACMWELDSTANDARDISO
  2
AcmWeldingStdISO
  3
"Amdt_StdImp|Product Description: AutoCAD Mechanical 2004 DX|Company: Autodesk"
 90
        0
280
     0
281
     0
  0
CLASS
  1
ACMIDSTANDARDISO
  2
AcmIdStdISO
  3
"Amdt_StdImp|Product Description: AutoCAD Mechanical 2004 DX|Company: Autodesk"
 90
        0
280
     0
281
     0
  0
CLASS
  1
ACMDATUMSTANDARDISO
  2
AcmDatumStdISO
  3
"Amdt_StdImp|Product Description: AutoCAD Mechanical 2004 DX|Company: Autodesk"
 90
        0
280
     0
281
     0
  0
CLASS
  1
ACMBOMSTANDARDISO
  2
AcmBOMStdISO
  3
"Amdt_StdImp|Product Description: AutoCAD Mechanical 2004 DX|Company: Autodesk"
 90
        0
280
     0
281
     0
  0
CLASS
  1
ACMDETAILSTANDARDISO
  2
AmdtDetailSymStdISO
  3
"Amdt_StdImp|Product Description: AutoCAD Mechanical 2004 DX|Company: Autodesk"
 90
        0
280
     0
281
     0
  0
CLASS
  1
ACMSECTIONSTANDARDISO
  2
AmdtSectionSymStdISO
  3
"Amdt_StdImp|Product Description: AutoCAD Mechanical 2004 DX|Company: Autodesk"
 90
        0
280
     0
281
     0
  0
CLASS
  1
ACMCENTERLINESTANDARDISO
  2
AmdtCenterLineStdISO
  3
"Amdt_StdImp|Product Description: AutoCAD Mechanical 2004 DX|Company: Autodesk"
 90
        0
280
     0
281
     0
  0
CLASS
  1
ACMNOTESTANDARDISO
  2
AmdtNoteStdISO
  3
"Amdt_StdImp|Product Description: AutoCAD Mechanical 2004 DX|Company: Autodesk"
 90
        0
280
     0
281
     0
  0
CLASS
  1
ACAMGLAYSTD
  2
AcAmgLayStd
  3
"AcAmgLayStd|Product Description: AutoCAD Mechanical 2000|Company: Autodesk"
 90
        0
280
     0
281
     0
  0
CLASS
  1
ACAMGDIMSTD
  2
AcAmgDimStd
  3
"AcAmgDimStd|Product Description: AutoCAD Mechanical 2000|Company: Autodesk"
 90
        0
280
     0
281
     0
  0
CLASS
  1
ACAMGHOLECHARTSTDISO
  2
AcAmgHoleChartStdISO
  3
ACMSYMBB_MODULE_NAME
 90
        0
280
     0
281
     0
  0
CLASS
  1
ACAMGTITLESTD
  2
AcAmgTitleStd
  3
"TITLEAPP"
 90
        0
280
     0
281
     0
  0
CLASS
  1
LAYER_INDEX
  2
AcDbLayerIndex
  3
ObjectDBX Classes
 90
    32768
280
     0
281
     0
  0
CLASS
  1
IDBUFFER
  2
AcDbIdBuffer
  3
ObjectDBX Classes
 90
    32768
280
     0
281
     0
  0
CLASS
  1
DICTIONARYVAR
  2
AcDbDictionaryVar
  3
ObjectDBX Classes
 90
        0
280
     0
281
     0
  0
CLASS
  1
AM_DRAWING_MGR
  2
AcDmDwgMgr
  3
AcMechDwgViewMgmt
 90
        0
280
     0
281
     0
  0
CLASS
  1
AM_DWG_DOCUMENT
  2
AcDmDwgDocument
  3
AcMechDwgViewMgmt
 90
        0
280
     0
281
     0
  0
CLASS
  1
AM_DWG_SHEET
  2
AcDmSheet
  3
AcMechDwgViewMgmt
 90
        0
280
     0
281
     0
  0
CLASS
  1
AM_VIEWDIMPARMAP
  2
AcDmViewDimParMap
  3
AcMechDwgViewMgmt
 90
        0
280
     0
281
     0
  0
CLASS
  1
AM_DWGMGR_NAME
  2
AcDmDwgMgrName
  3
AcMechDwgViewMgmt
 90
        0
280
     0
281
     0
  0
CLASS
  1
AMDTMENUSTATEMGR
  2
AmdtMenuStateMgr
  3
McadcomServices
 90
        0
280
     0
281
     0
  0
CLASS
  1
AMDTMCOMMENUSTATE
  2
AmdtMcomMenuState
  3
McadcomServices
 90
        0
280
     0
281
     0
  0
CLASS
  1
MAPIAMMOUDLE
  2
MApiAmModule
  3
MApiAmServices
 90
        0
280
     0
281
     0
  0
CLASS
  1
AMDTADMENUSTATE
  2
AmdtAdMenuState
  3
DesignerServices
 90
        0
280
     0
281
     0
  0
CLASS
  1
ADAPPL
  2
AcAdAppl
  3
DesignerServices
 90
        0
280
     0
281
     0
  0
CLASS
  1
DEPMGR
  2
AcAdDepMgr
  3
DesignerServices
 90
        0
280
     0
281
     0
  0
CLASS
  1
PARAMMGR
  2
AcAdParamMgr
  3
DesignerServices
 90
        0
280
     0
281
     0
  0
CLASS
  1
PARAMSCOPE
  2
AcAdParamScope
  3
DesignerServices
 90
        0
280
     0
281
     0
  0
CLASS
  1
NAMEDAPPL
  2
AcAdNamedAppl
  3
DesignerServices
 90
        0
280
     0
281
     0
  0
CLASS
  1
AMDTDMMENUSTATE
  2
AmdtDmMenuState
  3
AcMechDwgViewMgmt
 90
        0
280
     0
281
     0
  0
CLASS
  1
AMDTAMMENUSTATE
  2
AmdtAmMenuState
  3
DesignerAssemblies
 90
        0
280
     0
281
     0
  0
CLASS
  1
ACAMPROJECT
  2
AcAmProject
  3
DesignerAssemblies
 90
        0
280
     0
281
     0
  0
CLASS
  1
ACAMGRCOMPDEF
  2
AcAmGrCompDef
  3
DesignerAssemblies
 90
        0
280
     0
281
     0
  0
CLASS
  1
ACCMCONTEXT
  2
AcCmContext
  3
DesignerAssemblies
 90
        0
280
     0
281
     0
  0
CLASS
  1
ACAMCOMPDEF
  2
AcAmCompDef
  3
DesignerAssemblies
 90
        0
280
     0
281
     0
  0
CLASS
  1
ACAMCOMPDEFMGR
  2
AcAmCompDefMgr
  3
DesignerAssemblies
 90
        0
280
     0
281
     0
  0
CLASS
  1
AMCONTEXTMGR
  2
AcAmContextMgr
  3
DesignerAssemblies
 90
        0
280
     0
281
     0
  0
CLASS
  1
ACAMCONTEXTMODELER
  2
AcAmContextModeler
  3
DesignerAssemblies
 90
        0
280
     0
281
     0
  0
CLASS
  1
ACMTHREADLINESTANDARDISO
  2
AmdtThreadLineStdISO
  3
"Amdt_StdImp|Product Description: AutoCAD Mechanical 2004 DX|Company: Autodesk"
 90
        0
280
     0
281
     0
  0
CLASS
  1
CATALOGSTATE
  2
AcAmCatalogState
  3
DesignerAssemblies
 90
        0
280
     0
281
     0
  0
CLASS
  1
ACAMGRCOMPDEFSET
  2
AcAmGrCompDefSet
  3
DesignerAssemblies
 90
        0
280
     0
281
     0
  0
CLASS
  1
AMDTBROWSERDBTAB
  2
AmdtBrowserDbTab
  3
McadcomServices
 90
        0
280
     0
281
     0
  0
CLASS
  1
CBROWSERAPPOBJECT
  2
CBrowserAppObject
  3
McadcomServices
 90
        0
280
     0
281
     0
  0
CLASS
  1
DM_PLACEHOLDER
  2
AcDmSelsetPlaceholder
  3
AcMechDwgViewMgmt
 90
        0
280
     0
281
     0
  0
CLASS
  1
TABLESTYLE
  2
AcDbTableStyle
  3
ObjectDBX Classes
 90
     2047
280
     0
281
     0
  0
CLASS
  1
VAACXREFPANELOBJECT
  2
VaAcXREFPanelObject
  3
VAAC_ADDIN
 90
    32768
280
     0
281
     0
  0
CLASS
  1
VAACIMAGEINVENTORY
  2
VaAcImageInventory
  3
VAAC_ADDIN
 90
    32768
280
     0
281
     0
  0
CLASS
  1
AMDTNOTETEMPLATEDB
  2
AmdtNoteTemplateDB
  3
AMDT_STDIMP_MODULE_NAME
 90
        0
280
     0
281
     0
  0
CLASS
  1
ACMBOM
  2
AcmBom
  3
"AcmSymBB|Product Description: AutoCAD Mechanical 2004 DX|Company: Autodesk"
 90
    32768
280
     0
281
     0
  0
CLASS
  1
AMDTFORMULAUPDATEDISPATCHER
  2
AmdtFormulaUpdateDispatcher
  3
AcMeServices
 90
    32768
280
     0
281
     0
  0
CLASS
  1
ACMPARTLIST
  2
AcmPartList
  3
"AcmSymBB|Product Description: AutoCAD Mechanical 2004 DX|Company: Autodesk"
 90
    33791
280
     0
281
     1
  0
CLASS
  1
ACAMGFILTERDAT
  2
AcAmgFilterDat
  3
"AcadM|Product Description: AutoCAD Mechanical 2000|Company: Autodesk"
 90
        0
280
     0
281
     0
  0
CLASS
  1
DIMASSOC
  2
AcDbDimAssoc
  3
"AcDbDimAssoc|Product Desc:     AcDim ARX App For Dimension|Company:          Autodesk, Inc.|WEB Address:      www.autodesk.com"
 90
        0
280
     0
281
     0
  0
CLASS
  1
ACMSTANDARDANSI
  2
AcmStandardANSI
  3
"Amdt_StdImp|Product Description: AutoCAD Mechanical 2004 DX|Company: Autodesk"
 90
        0
280
     0
281
     0
  0
CLASS
  1
ACMSURFSTANDARDANSI
  2
AcmSurfTextStdANSI
  3
"Amdt_StdImp|Product Description: AutoCAD Mechanical 2004 DX|Company: Autodesk"
 90
        0
280
     0
281
     0
  0
CLASS
  1
ACMFCFSTANDARDANSI
  2
AcmFCFStdANSI
  3
"Amdt_StdImp|Product Description: AutoCAD Mechanical 2004 DX|Company: Autodesk"
 90
        0
280
     0
281
     0
  0
CLASS
  1
ACMWELDSTANDARDANSI
  2
AcmWeldingStdANSI
  3
"Amdt_StdImp|Product Description: AutoCAD Mechanical 2004 DX|Company: Autodesk"
 90
        0
280
     0
281
     0
  0
CLASS
  1
ACMIDSTANDARDANSI
  2
AcmIdStdANSI
  3
"Amdt_StdImp|Product Description: AutoCAD Mechanical 2004 DX|Company: Autodesk"
 90
        0
280
     0
281
     0
  0
CLASS
  1
ACMDATUMSTANDARDANSI
  2
AcmDatumStdANSI
  3
"Amdt_StdImp|Product Description: AutoCAD Mechanical 2004 DX|Company: Autodesk"
 90
        0
280
     0
281
     0
  0
CLASS
  1
ACMBOMSTANDARDANSI
  2
AcmBOMStdANSI
  3
"Amdt_StdImp|Product Description: AutoCAD Mechanical 2004 DX|Company: Autodesk"
 90
        0
280
     0
281
     0
  0
CLASS
  1
ACMDETAILSTANDARDANSI
  2
AmdtDetailSymStdANSI
  3
"Amdt_StdImp|Product Description: AutoCAD Mechanical 2004 DX|Company: Autodesk"
 90
        0
280
     0
281
     0
  0
CLASS
  1
ACMSECTIONSTANDARDANSI
  2
AmdtSectionSymStdANSI
  3
"Amdt_StdImp|Product Description: AutoCAD Mechanical 2004 DX|Company: Autodesk"
 90
        0
280
     0
281
     0
  0
CLASS
  1
ACMCENTERLINESTANDARDANSI
  2
AmdtCenterLineStdANSI
  3
"Amdt_StdImp|Product Description: AutoCAD Mechanical 2004 DX|Company: Autodesk"
 90
        0
280
     0
281
     0
  0
CLASS
  1
ACMTHREADLINESTANDARDANSI
  2
AmdtThreadLineStdANSI
  3
"Amdt_StdImp|Product Description: AutoCAD Mechanical 2004 DX|Company: Autodesk"
 90
        0
280
     0
281
     0
  0
CLASS
  1
ACMNOTESTANDARDANSI
  2
AmdtNoteStdANSI
  3
"Amdt_StdImp|Product Description: AutoCAD Mechanical 2004 DX|Company: Autodesk"
 90
        0
280
     0
281
     0
  0
CLASS
  1
ACAMGHOLECHARTSTDANSI
  2
AcAmgHoleChartStdANSI
  3
ACMSYMBB_MODULE_NAME
 90
        0
280
     0
281
     0
  0
CLASS
  1
STDPART2D
  2
AmgStdPart
  3
"AmgStdPart|Product Description: AutoCAD Mechanical 2000|Company: Autodesk"
 90
    33791
280
     0
281
     1
  0
CLASS
  1
ACAMSTDPCOMPDEF
  2
AcAmStdpCompDef
  3
DesignerAssemblies
 90
    32768
280
     0
281
     0
  0
CLASS
  1
ACRFATTGENMGR
  2
AcRfAttGeneralMgr
  3
AcAttribServices
 90
        0
280
     0
281
     0
  0
CLASS
  1
ACRFOBJATTMGR
  2
AcRfObjAttGroupMgr
  3
AcAttribServices
 90
    32768
280
     0
281
     0
  0
CLASS
  1
ACRFMCADAPIATTHOLDER
  2
AcRfMCADAPIAttHolder
  3
AcAttribServices
 90
    32768
280
     0
281
     0
  0
CLASS
  1
AMDTSYSATTR
  2
AmdtSystemAttribute
  3
AcAttribServices
 90
    32768
280
     0
281
     0
  0
CLASS
  1
ACAMCOMP
  2
AcAmComp
  3
DesignerAssemblies
 90
    32768
280
     0
281
     0
  0
CLASS
  1
AC_AM_STDP_VIEW_DEF
  2
AcAmStdpViewDef
  3
DesignerAssemblies
 90
    32768
280
     0
281
     0
  0
CLASS
  1
AC_AM_MVD_DEP_MGR
  2
AcAmMVDdepMgr
  3
DesignerAssemblies
 90
        0
280
     0
281
     0
  0
CLASS
  1
AC_AM_MASTER_VIEW_DEF
  2
AcAmMasterViewDef
  3
DesignerAssemblies
 90
        0
280
     0
281
     0
  0
CLASS
  1
AC_AM_DIRTY_NODES
  2
AcAmDirtyNodes
  3
DesignerAssemblies
 90
        0
280
     0
281
     0
  0
CLASS
  1
AC_AM_MAPPER_CACHE
  2
AcAmMapperCache
  3
DesignerAssemblies
 90
        0
280
     0
281
     0
  0
CLASS
  1
ACAMMVDBACKUPOBJECT
  2
AcAmMVDBackupObject
  3
DesignerAssemblies
 90
        0
280
     0
281
     0
  0
CLASS
  1
AC_AM_COMP_VIEW_INST
  2
AcAmCompView
  3
DesignerAssemblies
 90
    32768
280
     0
281
     0
  0
CLASS
  1
AC_AM_2D_XREF_MGR
  2
AcAmXrefMgr2d
  3
DesignerAssemblies
 90
        0
280
     0
281
     0
  0
CLASS
  1
SORTENTSTABLE
  2
AcDbSortentsTable
  3
ObjectDBX Classes
 90
        0
280
     0
281
     0
  0
CLASS
  1
AMDTNOTE
  2
AmdtNote
  3
"AcmSymBB|Product Description: AutoCAD Mechanical 2004 DX|Company: Autodesk"
 90
     1023
280
     0
281
     1
  0
CLASS
  1
AC_AM_TRANSFORM_GHOST
  2
AcDbTransformGhost
  3
DesignerAssemblies
 90
    32768
280
     0
281
     1
  0
ENDSEC
  0
SECTION
  2
TABLES
  0
TABLE
  2
VPORT
  5
8
330
0
100
AcDbSymbolTable
 70
     5
  0
VPORT
  5
1A09
330
8
100
AcDbSymbolTableRecord
100
AcDbViewportTableRecord
  2
*Active
 70
     0
 10
0.0
 20
0.0
 11
1.0
 21
1.0
 12
227.1913156951677
 22
168.2362525455377
 13
0.0
 23
0.0
 14
2.5
 24
2.5
 15
10.0
 25
10.0
 16
0.0
 26
0.0
 36
1.0
 17
0.0
 27
0.0
 37
0.0
 40
241.9612508076452
 41
1.661684782608695
 42
50.0
 43
0.0
 44
0.0
 50
0.0
 51
0.0
 71
     0
 72
   100
 73
     1
 74
     3
 75
     0
 76
     0
 77
     0
 78
     0
281
     0
 65
     1
110
0.0
120
0.0
130
0.0
111
1.0
121
0.0
131
0.0
112
0.0
122
1.0
132
0.0
 79
     0
146
0.0
  0
ENDTAB
  0
TABLE
  2
LTYPE
  5
5
330
0
100
AcDbSymbolTable
 70
    17
  0
LTYPE
  5
14
330
5
100
AcDbSymbolTableRecord
100
AcDbLinetypeTableRecord
  2
ByBlock
 70
     0
  3

 72
    65
 73
     0
 40
0.0
  0
LTYPE
  5
15
330
5
100
AcDbSymbolTableRecord
100
AcDbLinetypeTableRecord
  2
ByLayer
 70
     0
  3

 72
    65
 73
     0
 40
0.0
  0
LTYPE
  5
16
330
5
100
AcDbSymbolTableRecord
100
AcDbLinetypeTableRecord
  2
Continuous
 70
     0
  3
Solid line
 72
    65
 73
     0
 40
0.0
  0
LTYPE
  5
64
330
5
100
AcDbSymbolTableRecord
100
AcDbLinetypeTableRecord
  2
AM_ISO02W050
 70
     0
  3
__ __ __ __ __ __ __ __ __ __ __ __ __ __ __
 72
    65
 73
     2
 40
7.5
 49
6.0
 74
     0
 49
-1.5
 74
     0
  0
LTYPE
  5
65
330
5
100
AcDbSymbolTableRecord
100
AcDbLinetypeTableRecord
  2
AM_ISO08W050
 70
     0
  3
____ . ____ . ____ . ____ . ____ . ____ . ____
 72
    65
 73
     4
 40
18.0
 49
12.0
 74
     0
 49
-1.5
 74
     0
 49
3.0
 74
     0
 49
-1.5
 74
     0
  0
LTYPE
  5
66
330
5
100
AcDbSymbolTableRecord
100
AcDbLinetypeTableRecord
  2
AM_ISO09W050
 70
     0
  3
_____ . . _____ . . _____ . . ____ .. ____
 72
    65
 73
     6
 40
22.5
 49
12.0
 74
     0
 49
-1.5
 74
     0
 49
3.0
 74
     0
 49
-1.5
 74
     0
 49
3.0
 74
     0
 49
-1.5
 74
     0
  0
LTYPE
  5
67
330
5
100
AcDbSymbolTableRecord
100
AcDbLinetypeTableRecord
  2
Amconstr
 70
     0
  3
_______________________
 72
    65
 73
     2
 40
9999.0
 49
9999.0
 74
     0
 49
0.0
 74
     0
  0
LTYPE
  5
68
330
5
100
AcDbSymbolTableRecord
100
AcDbLinetypeTableRecord
  2
AM_ISO08W050x2
 70
     0
  3
__ . __ . __ . __ . __ . __
 72
    65
 73
     4
 40
9.0
 49
6.0
 74
     0
 49
-0.75
 74
     0
 49
1.5
 74
     0
 49
-0.75
 74
     0
  0
LTYPE
  5
69
330
5
100
AcDbSymbolTableRecord
100
AcDbLinetypeTableRecord
  2
AM_ISO02W050x2
 70
     0
  3
 _ _ _ _ _ _ _ _ _ _ _ _
 72
    65
 73
     2
 40
3.75
 49
3.0
 74
     0
 49
-0.75
 74
     0
  0
LTYPE
  5
6C
330
5
100
AcDbSymbolTableRecord
100
AcDbLinetypeTableRecord
  2
Amzigzag
 70
     0
  3
/\/-/\/-/\/-/\/-/\/-/\/
 72
    65
 73
     2
 40
11.0001
 49
0.0001
 74
     4
 75
   135
340
6B
 46
0.04
 50
0.0
 44
0.0
 45
0.0
 49
-11.0
 74
     0
  0
LTYPE
  5
7A
330
5
100
AcDbSymbolTableRecord
100
AcDbLinetypeTableRecord
  2
ACISOWELD
 70
     0
  3
_ _ _ _ _
 72
    65
 73
     2
 40
2.0
 49
2.0
 74
     0
 49
-1.0
 74
     0
  0
LTYPE
  5
7B
330
5
100
AcDbSymbolTableRecord
100
AcDbLinetypeTableRecord
  2
ACISOTGB
 70
     0
  3
__ . . __ . .
 72
    65
 73
     6
 40
9.0
 49
4.0
 74
     0
 49
-1.0
 74
     0
 49
1.0
 74
     0
 49
-1.0
 74
     0
 49
1.0
 74
     0
 49
-1.0
 74
     0
  0
LTYPE
  5
7C
330
5
100
AcDbSymbolTableRecord
100
AcDbLinetypeTableRecord
  2
ACISOTGL
 70
     0
  3
_ _ _ _ _
 72
    65
 73
     2
 40
3.0
 49
2.0
 74
     0
 49
-1.0
 74
     0
  0
LTYPE
  5
7E
330
5
100
AcDbSymbolTableRecord
100
AcDbLinetypeTableRecord
  2
CENTER
 70
     0
  3
__ . __
 72
    65
 73
     4
 40
7.0
 49
4.0
 74
     0
 49
-1.0
 74
     0
 49
1.0
 74
     0
 49
-1.0
 74
     0
  0
LTYPE
  5
D8
330
5
100
AcDbSymbolTableRecord
100
AcDbLinetypeTableRecord
  2
HIDDEN
 70
     0
  3
Hidden __ __ __ __ __ __ __ __ __ __ __ __ __ _
 72
    65
 73
     2
 40
9.524999999999998
 49
6.349999999999999
 74
     0
 49
-3.174999999999999
 74
     0
  0
LTYPE
  5
D9
330
5
100
AcDbSymbolTableRecord
100
AcDbLinetypeTableRecord
  2
PHANTOM2
 70
     0
  3
Phantom (.5x) ___ _ _ ___ _ _ ___ _ _ ___ _ _
 72
    65
 73
     6
 40
31.75
 49
15.875
 74
     0
 49
-3.174999999999999
 74
     0
 49
3.174999999999999
 74
     0
 49
-3.174999999999999
 74
     0
 49
3.174999999999999
 74
     0
 49
-3.174999999999999
 74
     0
  0
LTYPE
  5
C42
330
5
100
AcDbSymbolTableRecord
100
AcDbLinetypeTableRecord
  2
CENTER2
 70
     0
  3
___ _ ___ _ ___ _ ___ _ ___ _ ___ _ ___ _ ___ _
 72
    65
 73
     4
 40
1.125
 49
0.75
 74
     0
 49
-0.125
 74
     0
 49
0.125
 74
     0
 49
-0.125
 74
     0
  0
LTYPE
  5
C45
330
5
100
AcDbSymbolTableRecord
100
AcDbLinetypeTableRecord
  2
ACANSTGB
 70
     0
  3
__ . . __ . .
 72
    65
 73
     6
 40
0.35433070866
 49
0.15748031496
 74
     0
 49
-0.03937007874
 74
     0
 49
0.03937007874
 74
     0
 49
-0.03937007874
 74
     0
 49
0.03937007874
 74
     0
 49
-0.03937007874
 74
     0
  0
LTYPE
  5
C46
330
5
100
AcDbSymbolTableRecord
100
AcDbLinetypeTableRecord
  2
ACANSTGL
 70
     0
  3
_ _ _ _ _
 72
    65
 73
     2
 40
0.11811023622
 49
0.07874015748
 74
     0
 49
-0.03937007874
 74
     0
  0
ENDTAB
  0
TABLE
  2
LAYER
  5
2
102
{ACAD_XDICTIONARY
360
3F9
102
}
330
0
100
AcDbSymbolTable
 70
     9
  0
LAYER
  5
10
330
2
100
AcDbSymbolTableRecord
100
AcDbLayerTableRecord
  2
0
 70
     0
 62
     7
  6
Continuous
370
    -3
390
F
  0
LAYER
  5
8CB
330
2
100
AcDbSymbolTableRecord
100
AcDbLayerTableRecord
  2
AM_5
 70
     0
 62
     5
  6
Continuous
370
    50
390
F
  0
LAYER
  5
939
330
2
100
AcDbSymbolTableRecord
100
AcDbLayerTableRecord
  2
Defpoints
 70
     0
 62
     7
  6
Continuous
290
     0
370
    -3
390
F
  0
LAYER
  5
C47
330
2
100
AcDbSymbolTableRecord
100
AcDbLayerTableRecord
  2
1
 70
     0
 62
     7
  6
Continuous
370
    -3
390
F
  0
LAYER
  5
C48
330
2
100
AcDbSymbolTableRecord
100
AcDbLayerTableRecord
  2
3
 70
     0
 62
     1
  6
CENTER2
370
    -3
390
F
  0
LAYER
  5
108B
330
2
100
AcDbSymbolTableRecord
100
AcDbLayerTableRecord
  2
AM_0
 70
     0
 62
     7
  6
Continuous
370
    50
390
F
  0
LAYER
  5
10B1
330
2
100
AcDbSymbolTableRecord
100
AcDbLayerTableRecord
  2
AM_4
 70
     0
 62
     3
  6
Continuous
370
    25
390
F
  0
LAYER
  5
110D
330
2
100
AcDbSymbolTableRecord
100
AcDbLayerTableRecord
  2
AM_7
 70
     0
 62
     1
  6
CENTER
370
    25
390
F
  0
LAYER
  5
113E
330
2
100
AcDbSymbolTableRecord
100
AcDbLayerTableRecord
  2
LOGO
 70
     0
 62
     7
  6
Continuous
370
    -3
390
F
  0
ENDTAB
  0
TABLE
  2
STYLE
  5
3
330
0
100
AcDbSymbolTable
 70
     8
  0
STYLE
  5
11
330
3
100
AcDbSymbolTableRecord
100
AcDbTextStyleTableRecord
  2
STANDARD
 70
     0
 40
0.0
 41
1.0
 50
0.0
 71
     0
 42
3.0
  3
ISOCP.SHX
  4
CHINESET.SHX
  0
STYLE
  5
6B
330
3
100
AcDbSymbolTableRecord
100
AcDbTextStyleTableRecord
  2

 70
     1
 40
0.0
 41
1.0
 50
0.0
 71
     0
 42
2.5
  3
ltypeshp.shx
  4

  0
STYLE
  5
6D
330
3
100
AcDbSymbolTableRecord
100
AcDbTextStyleTableRecord
  2
ACISOTS
 70
     0
 40
1.0
 41
1.0
 50
0.0
 71
     0
 42
1.0
  3
isocp.shx
  4
chineset.shx
  0
STYLE
  5
79
330
3
100
AcDbSymbolTableRecord
100
AcDbTextStyleTableRecord
  2
ACISOGDT
 70
     0
 40
0.0
 41
1.0
 50
0.0
 71
     0
 42
2.5
  3
amgdt.shx
  4
chineset.shx
  0
STYLE
  5
60C
330
3
100
AcDbSymbolTableRecord
100
AcDbTextStyleTableRecord
  2
CHINESET
 70
     0
 40
0.0
 41
0.75
 50
0.0
 71
     0
 42
3.0
  3
simplex.shx
  4
CHINESET.SHX
  0
STYLE
  5
C4D
330
3
100
AcDbSymbolTableRecord
100
AcDbTextStyleTableRecord
  2
ACANSTS
 70
     0
 40
1.0
 41
1.0
 50
0.0
 71
     0
 42
2.0
  3
romans.shx
  4
chineset.shx
  0
STYLE
  5
C4E
330
3
100
AcDbSymbolTableRecord
100
AcDbTextStyleTableRecord
  2
ACANSGDT
 70
     0
 40
0.0
 41
1.0
 50
0.0
 71
     0
 42
2.0
  3
amgdtans.shx
  4

  0
ENDTAB
  0
TABLE
  2
VIEW
  5
6
330
0
100
AcDbSymbolTable
 70
     0
  0
ENDTAB
  0
TABLE
  2
UCS
  5
7
330
0
100
AcDbSymbolTable
 70
     0
  0
ENDTAB
  0
TABLE
  2
APPID
  5
9
330
0
100
AcDbSymbolTable
 70
    30
  0
APPID
  5
12
330
9
100
AcDbSymbolTableRecord
100
AcDbRegAppTableRecord
  2
ACAD
 70
     0
  0
APPID
  5
46
330
9
100
AcDbSymbolTableRecord
100
AcDbRegAppTableRecord
  2
MCAD_NO_VIS
 70
     0
  0
APPID
  5
47
330
9
100
AcDbSymbolTableRecord
100
AcDbRegAppTableRecord
  2
ACAD_TEMP_GRAPHIC
 70
     0
  0
APPID
  5
58
330
9
100
AcDbSymbolTableRecord
100
AcDbRegAppTableRecord
  2
ACATTRIBSERVICES
 70
     0
  0
APPID
  5
EE
330
9
100
AcDbSymbolTableRecord
100
AcDbRegAppTableRecord
  2
AD_DRAW
 70
     0
  0
APPID
  5
10C
330
9
100
AcDbSymbolTableRecord
100
AcDbRegAppTableRecord
  2
DESIGNERASSEMBLIES
 70
     0
  0
APPID
  5
111
330
9
100
AcDbSymbolTableRecord
100
AcDbRegAppTableRecord
  2
ACADM_DIM_EDIT
 70
     0
  0
APPID
  5
112
330
9
100
AcDbSymbolTableRecord
100
AcDbRegAppTableRecord
  2
AMDT_DM_ADJ
 70
     0
  0
APPID
  5
22C
330
9
100
AcDbSymbolTableRecord
100
AcDbRegAppTableRecord
  2
ACAD_DSTYLE_DIMTEXT_FILL
 70
     0
  0
APPID
  5
452
330
9
100
AcDbSymbolTableRecord
100
AcDbRegAppTableRecord
  2
GENIUS_GENOENT_13
 70
     0
  0
APPID
  5
453
330
9
100
AcDbSymbolTableRecord
100
AcDbRegAppTableRecord
  2
GENIUS_GENOBJ-N-CRS_13
 70
     0
  0
APPID
  5
454
330
9
100
AcDbSymbolTableRecord
100
AcDbRegAppTableRecord
  2
GENIUS_GENOLIS_13
 70
     0
  0
APPID
  5
455
330
9
100
AcDbSymbolTableRecord
100
AcDbRegAppTableRecord
  2
GENIUS_GENODEF_13
 70
     0
  0
APPID
  5
456
330
9
100
AcDbSymbolTableRecord
100
AcDbRegAppTableRecord
  2
GENIUS_GENOREF_13
 70
     0
  0
APPID
  5
6F3
330
9
100
AcDbSymbolTableRecord
100
AcDbRegAppTableRecord
  2
ACAD_PSEXT
 70
     0
  0
APPID
  5
808
330
9
100
AcDbSymbolTableRecord
100
AcDbRegAppTableRecord
  2
GENIUS_GENDTOL_13
 70
     0
  0
APPID
  5
1092
330
9
100
AcDbSymbolTableRecord
100
AcDbRegAppTableRecord
  2
GEVID1181100771
 70
     0
  0
APPID
  5
1093
330
9
100
AcDbSymbolTableRecord
100
AcDbRegAppTableRecord
  2
GEVDC
 70
     0
  0
APPID
  5
1094
330
9
100
AcDbSymbolTableRecord
100
AcDbRegAppTableRecord
  2
GEVRADREF
 70
     0
  0
APPID
  5
109D
330
9
100
AcDbSymbolTableRecord
100
AcDbRegAppTableRecord
  2
AMG_2DHIDE
 70
     0
  0
APPID
  5
109E
330
9
100
AcDbSymbolTableRecord
100
AcDbRegAppTableRecord
  2
AMG_2DSTRUCT_BTR
 70
     0
  0
APPID
  5
10AF
330
9
100
AcDbSymbolTableRecord
100
AcDbRegAppTableRecord
  2
ACADM_2DVIEW_IGN_NOTIFY
 70
     0
  0
APPID
  5
10FD
330
9
100
AcDbSymbolTableRecord
100
AcDbRegAppTableRecord
  2
GEVID1181100772
 70
     0
  0
APPID
  5
1139
330
9
100
AcDbSymbolTableRecord
100
AcDbRegAppTableRecord
  2
GENIUS_GENOBJ-N-CEN_13
 70
     0
  0
APPID
  5
113A
330
9
100
AcDbSymbolTableRecord
100
AcDbRegAppTableRecord
  2
GENIUS_GENCEN_19
 70
     0
  0
APPID
  5
113F
330
9
100
AcDbSymbolTableRecord
100
AcDbRegAppTableRecord
  2
GENIUS_GENREC_14
 70
     0
  0
APPID
  5
1140
330
9
100
AcDbSymbolTableRecord
100
AcDbRegAppTableRecord
  2
GENIUS_GENOBJ-N-REC_13
 70
     0
  0
APPID
  5
15F5
330
9
100
AcDbSymbolTableRecord
100
AcDbRegAppTableRecord
  2
GEVID1181100773
 70
     0
  0
APPID
  5
1831
330
9
100
AcDbSymbolTableRecord
100
AcDbRegAppTableRecord
  2
GEVID1181100774
 70
     0
  0
APPID
  5
1968
330
9
100
AcDbSymbolTableRecord
100
AcDbRegAppTableRecord
  2
GEVID1181100775
 70
     0
  0
ENDTAB
  0
TABLE
  2
DIMSTYLE
  5
A
330
0
100
AcDbSymbolTable
 70
    15
100
AcDbDimStyleTable
 71
     3
340
81
340
8B
340
86
  0
DIMSTYLE
105
81
330
A
100
AcDbSymbolTableRecord
100
AcDbDimStyleTableRecord
  2
AM_ISO
 70
     0
  4
"
 41
3.0
 42
1.0
 43
8.0
 44
1.5
 47
0.1
 48
0.1
 73
     0
 74
     0
 77
     1
 78
     8
 79
     2
140
3.5
141
0.0
143
0.0393701
146
0.6
147
0.8
172
     1
176
   256
177
   256
178
   256
271
     2
272
     2
283
     0
284
     8
340
60C
371
    -1
372
    -1
  0
DIMSTYLE
105
82
330
A
100
AcDbSymbolTableRecord
100
AcDbDimStyleTableRecord
  2
AM_ISO$3
 70
     0
  4
"
 41
3.0
 42
1.0
 43
8.0
 44
1.5
 47
0.1
 48
0.1
 73
     0
 77
     1
 78
     8
 79
     2
140
3.5
141
0.0
143
0.0393701
146
0.6
147
0.8
176
   256
177
   256
178
   256
271
     2
272
     2
283
     0
284
     8
288
     1
289
     0
340
60C
371
    -1
372
    -1
  0
DIMSTYLE
105
83
330
A
100
AcDbSymbolTableRecord
100
AcDbDimStyleTableRecord
  2
AM_ISO$4
 70
     0
  4
"
 41
3.0
 42
1.0
 43
8.0
 44
1.5
 47
0.1
 48
0.1
 73
     0
 77
     1
 78
     8
 79
     2
140
3.5
141
0.0
143
0.0393701
146
0.6
147
0.8
176
   256
177
   256
178
   256
271
     2
272
     2
283
     0
284
     8
288
     1
289
     0
340
60C
371
    -1
372
    -1
  0
DIMSTYLE
105
84
330
A
100
AcDbSymbolTableRecord
100
AcDbDimStyleTableRecord
  2
AM_ISO$6
 70
     0
  4
"
 41
3.0
 42
1.0
 43
8.0
 44
1.5
 47
0.1
 48
0.1
 73
     0
 74
     0
 78
     8
 79
     2
140
3.5
141
0.0
143
0.0393701
146
0.6
147
0.8
172
     1
176
   256
177
   256
178
   256
271
     2
272
     2
283
     0
284
     8
340
60C
371
    -1
372
    -1
  0
DIMSTYLE
105
85
330
A
100
AcDbSymbolTableRecord
100
AcDbDimStyleTableRecord
  2
AM_ISO$7
 70
     0
  4
"
 41
3.0
 42
1.0
 43
8.0
 44
1.5
 47
0.1
 48
0.1
 73
     0
 74
     0
 77
     1
 78
     8
 79
     2
140
5.0
141
0.0
143
0.0393701
146
0.6
147
0.8
172
     1
176
   256
177
   256
178
   256
271
     2
272
     2
283
     0
284
     8
340
60C
371
    -1
372
    -1
  0
DIMSTYLE
105
86
330
A
100
AcDbSymbolTableRecord
100
AcDbDimStyleTableRecord
  2
AM_ISO$SF
 70
     0
  4
"
 41
2.5
 42
1.0
 43
10.0
 44
1.0
 47
0.1
 48
0.1
 73
     0
 74
     0
 75
     1
 76
     1
 77
     1
 78
     8
 79
     2
140
3.5
141
0.0
143
0.0393701
146
0.71
147
1.5
172
     1
176
   256
177
   256
178
     2
271
     2
272
     3
274
     4
283
     0
284
     8
340
11
371
    -1
372
    -1
  0
DIMSTYLE
105
8B
330
A
100
AcDbSymbolTableRecord
100
AcDbDimStyleTableRecord
  2
AM_ISO$SH
 70
     0
  4
"
 41
2.5
 42
1.0
 43
10.0
 44
1.0
 47
0.1
 48
0.1
 73
     0
 74
     0
 75
     1
 76
     1
 77
     1
 78
     8
 79
     2
140
3.5
141
0.0
143
0.0393701
144
2.0
146
0.71
147
1.5
172
     1
173
     1
176
   256
177
   256
178
     2
271
     2
272
     3
274
     4
283
     0
284
     8
340
11
343
87
371
    -1
372
    -1
  0
DIMSTYLE
105
40B
102
{ACAD_REACTORS
330
E5E
330
E84
330
ED0
330
EF6
330
16A8
330
16CE
330
1760
330
1786
330
17AC
330
17D2
102
}
330
A
100
AcDbSymbolTableRecord
100
AcDbDimStyleTableRecord
  2
AM_ISO$0
 70
     0
  4
"
 41
3.0
 42
1.0
 43
8.0
 44
1.5
 47
0.1
 48
0.1
 73
     0
 74
     0
 77
     1
 78
     8
 79
     2
140
3.5
141
0.0
143
0.0393701
146
0.6
147
0.8
172
     1
176
   256
177
   256
178
   256
271
     2
272
     2
283
     0
284
     8
340
60C
371
    -1
372
    -1
  0
DIMSTYLE
105
C50
330
A
100
AcDbSymbolTableRecord
100
AcDbDimStyleTableRecord
  2
AM_ANSI
 70
     0
  4
mm
 41
0.1
 42
0.05
 43
0.5
 44
0.1
 47
0.1
 48
0.1
 78
     7
 79
     2
140
0.12
141
0.0
146
0.71
147
0.06
176
   256
177
   256
178
     2
274
     4
284
     7
340
11
371
    -1
372
    -1
  0
DIMSTYLE
105
C51
330
A
100
AcDbSymbolTableRecord
100
AcDbDimStyleTableRecord
  2
AM_ANSI$3
 70
     0
  4
mm
 41
0.1
 42
0.05
 43
0.5
 44
0.1
 47
0.1
 48
0.1
 78
     7
 79
     2
140
0.12
141
0.0
146
0.71
147
0.06
176
   256
177
   256
178
     2
274
     4
284
     7
288
     1
289
     0
340
11
371
    -1
372
    -1
  0
DIMSTYLE
105
C52
330
A
100
AcDbSymbolTableRecord
100
AcDbDimStyleTableRecord
  2
AM_ANSI$4
 70
     0
  4
mm
 41
0.1
 42
0.05
 43
0.5
 44
0.1
 47
0.1
 48
0.1
 78
     7
 79
     2
140
0.12
141
0.0
146
0.71
147
0.06
176
   256
177
   256
178
     2
274
     4
284
     7
288
     1
289
     0
340
11
371
    -1
372
    -1
  0
DIMSTYLE
105
C53
330
A
100
AcDbSymbolTableRecord
100
AcDbDimStyleTableRecord
  2
AM_ANSI$7
 70
     0
  4
mm
 41
0.1
 42
0.05
 43
0.5
 44
0.1
 47
0.1
 48
0.1
 78
     7
 79
     2
140
0.24
141
0.0
146
0.71
147
0.06
176
   256
177
   256
178
     2
274
     4
284
     7
340
11
371
    -1
372
    -1
  0
DIMSTYLE
105
C54
330
A
100
AcDbSymbolTableRecord
100
AcDbDimStyleTableRecord
  2
AM_ANSI$SF
 70
     0
  4
mm
 41
0.1
 42
0.05
 43
0.5
 44
0.1
 47
0.1
 48
0.1
 75
     1
 76
     1
 78
     7
 79
     2
140
0.12
141
0.0
146
0.71
147
0.06
176
   256
177
   256
178
     2
274
     4
284
     7
340
11
371
    -1
372
    -1
  0
DIMSTYLE
105
C55
330
A
100
AcDbSymbolTableRecord
100
AcDbDimStyleTableRecord
  2
AM_ANSI$SH
 70
     0
  4
mm
 41
0.1
 42
0.05
 43
0.5
 44
0.1
 47
0.1
 48
0.1
 75
     1
 76
     1
 78
     7
 79
     2
140
0.12
141
0.0
146
0.71
147
0.06
173
     1
176
   256
177
   256
178
     2
274
     4
284
     7
340
11
343
87
371
    -1
372
    -1
  0
ENDTAB
  0
TABLE
  2
BLOCK_RECORD
  5
1
330
0
100
AcDbSymbolTable
 70
    17
  0
BLOCK_RECORD
  5
1F
102
{ACAD_XDICTIONARY
360
8F
102
}
330
1
100
AcDbSymbolTableRecord
100
AcDbBlockTableRecord
  2
*Model_Space
340
22
  0
BLOCK_RECORD
  5
1B
330
1
100
AcDbSymbolTableRecord
100
AcDbBlockTableRecord
  2
*Paper_Space
340
1E
  0
BLOCK_RECORD
  5
23
330
1
100
AcDbSymbolTableRecord
100
AcDbBlockTableRecord
  2
*Paper_Space0
340
26
  0
BLOCK_RECORD
  5
87
330
1
100
AcDbSymbolTableRecord
100
AcDbBlockTableRecord
  2
GENAXEH
340
0
  0
BLOCK_RECORD
  5
E5F
330
1
100
AcDbSymbolTableRecord
100
AcDbBlockTableRecord
  2
*D3
340
0
  0
BLOCK_RECORD
  5
E85
330
1
100
AcDbSymbolTableRecord
100
AcDbBlockTableRecord
  2
*D4
340
0
  0
BLOCK_RECORD
  5
ED1
330
1
100
AcDbSymbolTableRecord
100
AcDbBlockTableRecord
  2
*D5
340
0
  0
BLOCK_RECORD
  5
EF7
330
1
100
AcDbSymbolTableRecord
100
AcDbBlockTableRecord
  2
*D6
340
0
  0
BLOCK_RECORD
  5
10B5
330
1
100
AcDbSymbolTableRecord
100
AcDbBlockTableRecord
  2
*U8
340
0
  0
BLOCK_RECORD
  5
16A9
330
1
100
AcDbSymbolTableRecord
100
AcDbBlockTableRecord
  2
*D9
340
0
  0
BLOCK_RECORD
  5
16CF
330
1
100
AcDbSymbolTableRecord
100
AcDbBlockTableRecord
  2
*D10
340
0
  0
BLOCK_RECORD
  5
1761
330
1
100
AcDbSymbolTableRecord
100
AcDbBlockTableRecord
  2
*D11
340
0
  0
BLOCK_RECORD
  5
1787
330
1
100
AcDbSymbolTableRecord
100
AcDbBlockTableRecord
  2
*D12
340
0
  0
BLOCK_RECORD
  5
17AD
330
1
100
AcDbSymbolTableRecord
100
AcDbBlockTableRecord
  2
*D13
340
0
  0
BLOCK_RECORD
  5
17D3
330
1
100
AcDbSymbolTableRecord
100
AcDbBlockTableRecord
  2
*D14
340
0
  0
BLOCK_RECORD
  5
19FF
330
1
100
AcDbSymbolTableRecord
100
AcDbBlockTableRecord
  2
*S16
340
0
  0
ENDTAB
  0
ENDSEC
  0
SECTION
  2
BLOCKS
  0
BLOCK
  5
20
330
1F
100
AcDbEntity
  8
0
100
AcDbBlockBegin
  2
*Model_Space
 70
     0
 10
0.0
 20
0.0
 30
0.0
  3
*Model_Space
  1

  0
ENDBLK
  5
21
330
1F
100
AcDbEntity
  8
0
100
AcDbBlockEnd
  0
BLOCK
  5
1C
330
1B
100
AcDbEntity
 67
     1
  8
0
100
AcDbBlockBegin
  2
*Paper_Space
 70
     0
 10
0.0
 20
0.0
 30
0.0
  3
*Paper_Space
  1

  0
ENDBLK
  5
1D
330
1B
100
AcDbEntity
 67
     1
  8
0
100
AcDbBlockEnd
  0
BLOCK
  5
24
330
23
100
AcDbEntity
  8
0
100
AcDbBlockBegin
  2
*Paper_Space0
 70
     0
 10
0.0
 20
0.0
 30
0.0
  3
*Paper_Space0
  1

  0
ENDBLK
  5
25
330
23
100
AcDbEntity
  8
0
100
AcDbBlockEnd
  0
BLOCK
  5
89
330
87
100
AcDbEntity
  8
0
100
AcDbBlockBegin
  2
GENAXEH
 70
     0
 10
0.0
 20
0.0
 30
0.0
  3
GENAXEH
  1

  0
LINE
  5
88
330
87
100
AcDbEntity
  8
0
100
AcDbLine
 10
-1.0
 20
0.0
 30
0.0
 11
1.0
 21
0.0
 31
0.0
  0
ENDBLK
  5
8A
330
87
100
AcDbEntity
  8
0
100
AcDbBlockEnd
  0
BLOCK
  5
E69
330
E5F
100
AcDbEntity
  8
0
100
AcDbBlockBegin
  2
*D3
 70
     1
 10
0.0
 20
0.0
 30
0.0
  3
*D3
  1

  0
LINE
  5
18F1
330
E5F
100
AcDbEntity
  8
AM_5
100
AcDbLine
 10
107.4057250597396
 20
133.1062074718546
 30
0.0
 11
107.4057250597396
 21
109.3394932540462
 31
0.0
  0
LINE
  5
18F2
330
E5F
100
AcDbEntity
  8
AM_5
100
AcDbLine
 10
157.4057250597392
 20
133.1062074718543
 30
0.0
 11
157.4057250597392
 21
109.3394932540462
 31
0.0
  0
LINE
  5
18F3
330
E5F
100
AcDbEntity
  8
AM_5
100
AcDbLine
 10
110.4057250597396
 20
110.8394932540462
 30
0.0
 11
154.4057250597392
 21
110.8394932540462
 31
0.0
  0
SOLID
  5
18F4
330
E5F
100
AcDbEntity
  8
AM_5
100
AcDbTrace
 10
110.4057250597396
 20
111.3394932540462
 30
0.0
 11
110.4057250597396
 21
110.3394932540462
 31
0.0
 12
107.4057250597396
 22
110.8394932540462
 32
0.0
 13
107.4057250597396
 23
110.8394932540462
 33
0.0
  0
SOLID
  5
18F5
330
E5F
100
AcDbEntity
  8
AM_5
100
AcDbTrace
 10
154.4057250597392
 20
111.3394932540462
 30
0.0
 11
154.4057250597392
 21
110.3394932540462
 31
0.0
 12
157.4057250597392
 22
110.8394932540462
 32
0.0
 13
157.4057250597392
 23
110.8394932540462
 33
0.0
  0
MTEXT
  5
18F6
330
E5F
100
AcDbEntity
  8
AM_5
100
AcDbMText
 10
132.4057250597394
 20
113.3894932540462
 30
0.0
 40
3.5
 41
0.0
 71
     5
 72
     1
  1
50
  7
CHINESET
 73
     1
 44
1.0
1001
ACAD
1000
MTEXTBEGIN
1070
    73
1070
     1
1070
    44
1040
1.0
1070
    74
1070
     0
1000
MTEXTEND
  0
POINT
  5
18F7
330
E5F
100
AcDbEntity
  8
Defpoints
 62
     0
100
AcDbPoint
 10
107.4057250597396
 20
134.1062074718546
 30
0.0
  0
POINT
  5
18F8
330
E5F
100
AcDbEntity
  8
Defpoints
 62
     0
100
AcDbPoint
 10
157.4057250597392
 20
134.1062074718543
 30
0.0
  0
POINT
  5
18F9
330
E5F
100
AcDbEntity
  8
Defpoints
 62
     0
100
AcDbPoint
 10
157.4057250597392
 20
110.8394932540462
 30
0.0
  0
ENDBLK
  5
E6A
330
E5F
100
AcDbEntity
  8
0
100
AcDbBlockEnd
  0
BLOCK
  5
E8F
330
E85
100
AcDbEntity
  8
0
100
AcDbBlockBegin
  2
*D4
 70
     1
 10
0.0
 20
0.0
 30
0.0
  3
*D4
  1

  0
LINE
  5
18FA
330
E85
100
AcDbEntity
  8
AM_5
100
AcDbLine
 10
113.8273292284926
 20
130.8394932540462
 30
0.0
 11
85.90572505973977
 21
130.8394932540462
 31
0.0
  0
LINE
  5
18FB
330
E85
100
AcDbEntity
  8
AM_5
100
AcDbLine
 10
113.8273292284927
 20
230.8394932540462
 30
0.0
 11
85.90572505973979
 21
230.8394932540462
 31
0.0
  0
LINE
  5
18FC
330
E85
100
AcDbEntity
  8
AM_5
100
AcDbLine
 10
87.40572505973977
 20
133.8394932540462
 30
0.0
 11
87.40572505973979
 21
227.8394932540462
 31
0.0
  0
SOLID
  5
18FD
330
E85
100
AcDbEntity
  8
AM_5
100
AcDbTrace
 10
86.90572505973976
 20
133.8394932540462
 30
0.0
 11
87.90572505973976
 21
133.8394932540462
 31
0.0
 12
87.40572505973977
 22
130.8394932540462
 32
0.0
 13
87.40572505973977
 23
130.8394932540462
 33
0.0
  0
SOLID
  5
18FE
330
E85
100
AcDbEntity
  8
AM_5
100
AcDbTrace
 10
86.9057250597398
 20
227.8394932540462
 30
0.0
 11
87.9057250597398
 21
227.8394932540462
 31
0.0
 12
87.40572505973979
 22
230.8394932540462
 32
0.0
 13
87.40572505973979
 23
230.8394932540462
 33
0.0
  0
MTEXT
  5
18FF
330
E85
100
AcDbEntity
  8
AM_5
100
AcDbMText
 10
84.85572505973975
 20
180.8394932540462
 30
0.0
 40
3.5
 41
0.0
 71
     5
 72
     1
  1
100
  7
CHINESET
 11
0.0000000000000001
 21
1.0
 31
0.0
 73
     1
 44
1.0
1001
ACAD
1000
MTEXTBEGIN
1070
    73
1070
     1
1070
    44
1040
1.0
1070
    74
1070
     0
1000
MTEXTEND
  0
POINT
  5
1900
330
E85
100
AcDbEntity
  8
Defpoints
 62
     0
100
AcDbPoint
 10
114.8273292284926
 20
130.8394932540462
 30
0.0
  0
POINT
  5
1901
330
E85
100
AcDbEntity
  8
Defpoints
 62
     0
100
AcDbPoint
 10
114.8273292284927
 20
230.8394932540462
 30
0.0
  0
POINT
  5
1902
330
E85
100
AcDbEntity
  8
Defpoints
 62
     0
100
AcDbPoint
 10
87.40572505973979
 20
230.8394932540462
 30
0.0
  0
ENDBLK
  5
E90
330
E85
100
AcDbEntity
  8
0
100
AcDbBlockEnd
  0
BLOCK
  5
EDB
330
ED1
100
AcDbEntity
  8
0
100
AcDbBlockBegin
  2
*D5
 70
     1
 10
0.0
 20
0.0
 30
0.0
  3
*D5
  1

  0
LINE
  5
1903
330
ED1
100
AcDbEntity
  8
AM_5
100
AcDbLine
 10
113.4057250597396
 20
141.0035532540462
 30
0.0
 11
113.4057250597396
 21
117.3394932540462
 31
0.0
  0
LINE
  5
1904
330
ED1
100
AcDbEntity
  8
AM_5
100
AcDbLine
 10
151.4057250597396
 20
141.0035532540462
 30
0.0
 11
151.4057250597396
 21
117.3394932540462
 31
0.0
  0
LINE
  5
1905
330
ED1
100
AcDbEntity
  8
AM_5
100
AcDbLine
 10
116.4057250597396
 20
118.8394932540462
 30
0.0
 11
148.4057250597396
 21
118.8394932540462
 31
0.0
  0
SOLID
  5
1906
330
ED1
100
AcDbEntity
  8
AM_5
100
AcDbTrace
 10
116.4057250597396
 20
119.3394932540462
 30
0.0
 11
116.4057250597396
 21
118.3394932540462
 31
0.0
 12
113.4057250597396
 22
118.8394932540462
 32
0.0
 13
113.4057250597396
 23
118.8394932540462
 33
0.0
  0
SOLID
  5
1907
330
ED1
100
AcDbEntity
  8
AM_5
100
AcDbTrace
 10
148.4057250597396
 20
119.3394932540462
 30
0.0
 11
148.4057250597396
 21
118.3394932540462
 31
0.0
 12
151.4057250597396
 22
118.8394932540462
 32
0.0
 13
151.4057250597396
 23
118.8394932540462
 33
0.0
  0
MTEXT
  5
1908
330
ED1
100
AcDbEntity
  8
AM_5
100
AcDbMText
 10
132.4057250597396
 20
121.3894932540462
 30
0.0
 40
3.5
 41
0.0
 71
     5
 72
     1
  1
38
  7
CHINESET
 73
     1
 44
1.0
1001
ACAD
1000
MTEXTBEGIN
1070
    73
1070
     1
1070
    44
1040
1.0
1070
    74
1070
     0
1000
MTEXTEND
  0
POINT
  5
1909
330
ED1
100
AcDbEntity
  8
Defpoints
 62
     0
100
AcDbPoint
 10
113.4057250597396
 20
142.0035532540462
 30
0.0
  0
POINT
  5
190A
330
ED1
100
AcDbEntity
  8
Defpoints
 62
     0
100
AcDbPoint
 10
151.4057250597396
 20
142.0035532540462
 30
0.0
  0
POINT
  5
190B
330
ED1
100
AcDbEntity
  8
Defpoints
 62
     0
100
AcDbPoint
 10
151.4057250597396
 20
118.8394932540462
 30
0.0
  0
ENDBLK
  5
EDC
330
ED1
100
AcDbEntity
  8
0
100
AcDbBlockEnd
  0
BLOCK
  5
F01
330
EF7
100
AcDbEntity
  8
0
100
AcDbBlockBegin
  2
*D6
 70
     1
 10
0.0
 20
0.0
 30
0.0
  3
*D6
  1

  0
LINE
  5
190C
330
EF7
100
AcDbEntity
  8
AM_5
100
AcDbLine
 10
105.7134950597395
 20
147.8394932540462
 30
0.0
 11
93.9057250597396
 21
147.8394932540462
 31
0.0
  0
LINE
  5
190D
330
EF7
100
AcDbEntity
  8
AM_5
100
AcDbLine
 10
105.7134950597395
 20
213.8394932540462
 30
0.0
 11
93.90572505973961
 21
213.8394932540462
 31
0.0
  0
LINE
  5
190E
330
EF7
100
AcDbEntity
  8
AM_5
100
AcDbLine
 10
95.4057250597396
 20
150.8394932540462
 30
0.0
 11
95.4057250597396
 21
210.8394932540462
 31
0.0
  0
SOLID
  5
190F
330
EF7
100
AcDbEntity
  8
AM_5
100
AcDbTrace
 10
94.90572505973959
 20
150.8394932540462
 30
0.0
 11
95.90572505973959
 21
150.8394932540462
 31
0.0
 12
95.4057250597396
 22
147.8394932540462
 32
0.0
 13
95.4057250597396
 23
147.8394932540462
 33
0.0
  0
SOLID
  5
1910
330
EF7
100
AcDbEntity
  8
AM_5
100
AcDbTrace
 10
94.90572505973961
 20
210.8394932540462
 30
0.0
 11
95.90572505973961
 21
210.8394932540462
 31
0.0
 12
95.4057250597396
 22
213.8394932540462
 32
0.0
 13
95.4057250597396
 23
213.8394932540462
 33
0.0
  0
MTEXT
  5
1911
330
EF7
100
AcDbEntity
  8
AM_5
100
AcDbMText
 10
92.85572505973958
 20
180.8394932540462
 30
0.0
 40
3.5
 41
0.0
 71
     5
 72
     1
  1
66
  7
CHINESET
 11
0.0000000000000001
 21
1.0
 31
0.0
 73
     1
 44
1.0
1001
ACAD
1000
MTEXTBEGIN
1070
    73
1070
     1
1070
    44
1040
1.0
1070
    74
1070
     0
1000
MTEXTEND
  0
POINT
  5
1912
330
EF7
100
AcDbEntity
  8
Defpoints
 62
     0
100
AcDbPoint
 10
106.7134950597395
 20
147.8394932540462
 30
0.0
  0
POINT
  5
1913
330
EF7
100
AcDbEntity
  8
Defpoints
 62
     0
100
AcDbPoint
 10
106.7134950597395
 20
213.8394932540462
 30
0.0
  0
POINT
  5
1914
330
EF7
100
AcDbEntity
  8
Defpoints
 62
     0
100
AcDbPoint
 10
95.4057250597396
 20
213.8394932540462
 30
0.0
  0
ENDBLK
  5
F02
330
EF7
100
AcDbEntity
  8
0
100
AcDbBlockEnd
  0
BLOCK
  5
10B6
330
10B5
100
AcDbEntity
  8
0
100
AcDbBlockBegin
  2
*U8
 70
     1
 10
0.0
 20
0.0
 30
0.0
  3
*U8
  1

  0
ENDBLK
  5
10B7
330
10B5
100
AcDbEntity
  8
0
100
AcDbBlockEnd
  0
BLOCK
  5
16B3
330
16A9
100
AcDbEntity
  8
0
100
AcDbBlockBegin
  2
*D9
 70
     1
 10
0.0
 20
0.0
 30
0.0
  3
*D9
  1

  0
LINE
  5
1915
330
16A9
100
AcDbEntity
  8
AM_5
100
AcDbLine
 10
254.2174145569941
 20
129.8394932540462
 30
0.0
 11
254.2174145569941
 21
117.3394932540463
 31
0.0
  0
LINE
  5
1916
330
16A9
100
AcDbEntity
  8
AM_5
100
AcDbLine
 10
234.2174145569941
 20
139.3394932540462
 30
0.0
 11
234.2174145569941
 21
117.3394932540463
 31
0.0
  0
LINE
  5
1917
330
16A9
100
AcDbEntity
  8
AM_5
100
AcDbLine
 10
251.2174145569941
 20
118.8394932540463
 30
0.0
 11
237.2174145569941
 21
118.8394932540463
 31
0.0
  0
SOLID
  5
1918
330
16A9
100
AcDbEntity
  8
AM_5
100
AcDbTrace
 10
251.2174145569941
 20
119.3394932540463
 30
0.0
 11
251.2174145569941
 21
118.3394932540463
 31
0.0
 12
254.2174145569941
 22
118.8394932540463
 32
0.0
 13
254.2174145569941
 23
118.8394932540463
 33
0.0
  0
SOLID
  5
1919
330
16A9
100
AcDbEntity
  8
AM_5
100
AcDbTrace
 10
237.2174145569941
 20
119.3394932540463
 30
0.0
 11
237.2174145569941
 21
118.3394932540463
 31
0.0
 12
234.2174145569941
 22
118.8394932540463
 32
0.0
 13
234.2174145569941
 23
118.8394932540463
 33
0.0
  0
MTEXT
  5
191A
330
16A9
100
AcDbEntity
  8
AM_5
100
AcDbMText
 10
244.2174145569941
 20
121.3894932540463
 30
0.0
 40
3.5
 41
0.0
 71
     5
 72
     1
  1
20
  7
CHINESET
 73
     1
 44
1.0
1001
ACAD
1000
MTEXTBEGIN
1070
    73
1070
     1
1070
    44
1040
1.0
1070
    74
1070
     0
1000
MTEXTEND
  0
POINT
  5
191B
330
16A9
100
AcDbEntity
  8
Defpoints
 62
     0
100
AcDbPoint
 10
254.2174145569941
 20
130.8394932540462
 30
0.0
  0
POINT
  5
191C
330
16A9
100
AcDbEntity
  8
Defpoints
 62
     0
100
AcDbPoint
 10
234.2174145569941
 20
140.3394932540462
 30
0.0
  0
POINT
  5
191D
330
16A9
100
AcDbEntity
  8
Defpoints
 62
     0
100
AcDbPoint
 10
234.2174145569941
 20
118.8394932540463
 30
0.0
  0
ENDBLK
  5
16B4
330
16A9
100
AcDbEntity
  8
0
100
AcDbBlockEnd
  0
BLOCK
  5
16D9
330
16CF
100
AcDbEntity
  8
0
100
AcDbBlockBegin
  2
*D10
 70
     1
 10
0.0
 20
0.0
 30
0.0
  3
*D10
  1

  0
LINE
  5
191E
330
16CF
100
AcDbEntity
  8
AM_5
100
AcDbLine
 10
254.2174145569941
 20
129.8394932540462
 30
0.0
 11
254.2174145569941
 21
109.3394932540462
 31
0.0
  0
LINE
  5
191F
330
16CF
100
AcDbEntity
  8
AM_5
100
AcDbLine
 10
195.2174145569941
 20
129.8394932540462
 30
0.0
 11
195.2174145569941
 21
109.3394932540462
 31
0.0
  0
LINE
  5
1920
330
16CF
100
AcDbEntity
  8
AM_5
100
AcDbLine
 10
251.2174145569941
 20
110.8394932540462
 30
0.0
 11
198.2174145569941
 21
110.8394932540462
 31
0.0
  0
SOLID
  5
1921
330
16CF
100
AcDbEntity
  8
AM_5
100
AcDbTrace
 10
251.2174145569941
 20
111.3394932540462
 30
0.0
 11
251.2174145569941
 21
110.3394932540462
 31
0.0
 12
254.2174145569941
 22
110.8394932540462
 32
0.0
 13
254.2174145569941
 23
110.8394932540462
 33
0.0
  0
SOLID
  5
1922
330
16CF
100
AcDbEntity
  8
AM_5
100
AcDbTrace
 10
198.2174145569941
 20
111.3394932540462
 30
0.0
 11
198.2174145569941
 21
110.3394932540462
 31
0.0
 12
195.2174145569941
 22
110.8394932540462
 32
0.0
 13
195.2174145569941
 23
110.8394932540462
 33
0.0
  0
MTEXT
  5
1923
330
16CF
100
AcDbEntity
  8
AM_5
100
AcDbMText
 10
224.7174145569941
 20
113.3894932540462
 30
0.0
 40
3.5
 41
0.0
 71
     5
 72
     1
  1
59
  7
CHINESET
 73
     1
 44
1.0
1001
ACAD
1000
MTEXTBEGIN
1070
    73
1070
     1
1070
    44
1040
1.0
1070
    74
1070
     0
1000
MTEXTEND
  0
POINT
  5
1924
330
16CF
100
AcDbEntity
  8
Defpoints
 62
     0
100
AcDbPoint
 10
254.2174145569941
 20
130.8394932540462
 30
0.0
  0
POINT
  5
1925
330
16CF
100
AcDbEntity
  8
Defpoints
 62
     0
100
AcDbPoint
 10
195.2174145569941
 20
130.8394932540462
 30
0.0
  0
POINT
  5
1926
330
16CF
100
AcDbEntity
  8
Defpoints
 62
     0
100
AcDbPoint
 10
195.2174145569941
 20
110.8394932540462
 30
0.0
  0
ENDBLK
  5
16DA
330
16CF
100
AcDbEntity
  8
0
100
AcDbBlockEnd
  0
BLOCK
  5
176B
330
1761
100
AcDbEntity
  8
0
100
AcDbBlockBegin
  2
*D11
 70
     1
 10
0.0
 20
0.0
 30
0.0
  3
*D11
  1

  0
LINE
  5
1927
330
1761
100
AcDbEntity
  8
AM_5
100
AcDbLine
 10
254.2174145569941
 20
231.8394932540462
 30
0.0
 11
254.2174145569941
 21
244.3394932540462
 31
0.0
  0
LINE
  5
1928
330
1761
100
AcDbEntity
  8
AM_5
100
AcDbLine
 10
244.7174145569941
 20
212.0894932540462
 30
0.0
 11
244.7174145569941
 21
244.3394932540462
 31
0.0
  0
LINE
  5
1929
330
1761
100
AcDbEntity
  8
AM_5
100
AcDbLine
 10
251.2174145569941
 20
242.8394932540462
 30
0.0
 11
247.7174145569941
 21
242.8394932540462
 31
0.0
  0
SOLID
  5
192A
330
1761
100
AcDbEntity
  8
AM_5
100
AcDbTrace
 10
251.2174145569941
 20
243.3394932540462
 30
0.0
 11
251.2174145569941
 21
242.3394932540462
 31
0.0
 12
254.2174145569941
 22
242.8394932540462
 32
0.0
 13
254.2174145569941
 23
242.8394932540462
 33
0.0
  0
SOLID
  5
192B
330
1761
100
AcDbEntity
  8
AM_5
100
AcDbTrace
 10
247.7174145569941
 20
243.3394932540462
 30
0.0
 11
247.7174145569941
 21
242.3394932540462
 31
0.0
 12
244.7174145569941
 22
242.8394932540462
 32
0.0
 13
244.7174145569941
 23
242.8394932540462
 33
0.0
  0
MTEXT
  5
192C
330
1761
100
AcDbEntity
  8
AM_5
100
AcDbMText
 10
249.4674145569941
 20
245.3894932540462
 30
0.0
 40
3.5
 41
0.0
 71
     5
 72
     1
  1
9.5
  7
CHINESET
 73
     1
 44
1.0
1001
ACAD
1000
MTEXTBEGIN
1070
    73
1070
     1
1070
    44
1040
1.0
1070
    74
1070
     0
1000
MTEXTEND
  0
POINT
  5
192D
330
1761
100
AcDbEntity
  8
Defpoints
 62
     0
100
AcDbPoint
 10
254.2174145569941
 20
230.8394932540462
 30
0.0
  0
POINT
  5
192E
330
1761
100
AcDbEntity
  8
Defpoints
 62
     0
100
AcDbPoint
 10
244.7174145569941
 20
211.0894932540462
 30
0.0
  0
POINT
  5
192F
330
1761
100
AcDbEntity
  8
Defpoints
 62
     0
100
AcDbPoint
 10
244.7174145569941
 20
242.8394932540462
 30
0.0
  0
ENDBLK
  5
176C
330
1761
100
AcDbEntity
  8
0
100
AcDbBlockEnd
  0
BLOCK
  5
1791
330
1787
100
AcDbEntity
  8
0
100
AcDbBlockBegin
  2
*D12
 70
     1
 10
0.0
 20
0.0
 30
0.0
  3
*D12
  1

  0
LINE
  5
1930
330
1787
100
AcDbEntity
  8
AM_5
100
AcDbLine
 10
244.7174145569941
 20
212.0894932540462
 30
0.0
 11
244.7174145569941
 21
244.3394932540462
 31
0.0
  0
LINE
  5
1931
330
1787
100
AcDbEntity
  8
AM_5
100
AcDbLine
 10
223.2174145569941
 20
166.0894932540462
 30
0.0
 11
223.2174145569941
 21
244.3394932540462
 31
0.0
  0
LINE
  5
1932
330
1787
100
AcDbEntity
  8
AM_5
100
AcDbLine
 10
241.7174145569941
 20
242.8394932540462
 30
0.0
 11
226.2174145569941
 21
242.8394932540462
 31
0.0
  0
SOLID
  5
1933
330
1787
100
AcDbEntity
  8
AM_5
100
AcDbTrace
 10
241.7174145569941
 20
243.3394932540462
 30
0.0
 11
241.7174145569941
 21
242.3394932540462
 31
0.0
 12
244.7174145569941
 22
242.8394932540462
 32
0.0
 13
244.7174145569941
 23
242.8394932540462
 33
0.0
  0
SOLID
  5
1934
330
1787
100
AcDbEntity
  8
AM_5
100
AcDbTrace
 10
226.2174145569941
 20
243.3394932540462
 30
0.0
 11
226.2174145569941
 21
242.3394932540462
 31
0.0
 12
223.2174145569941
 22
242.8394932540462
 32
0.0
 13
223.2174145569941
 23
242.8394932540462
 33
0.0
  0
MTEXT
  5
1935
330
1787
100
AcDbEntity
  8
AM_5
100
AcDbMText
 10
233.9674145569941
 20
245.3894932540462
 30
0.0
 40
3.5
 41
0.0
 71
     5
 72
     1
  1
21.5
  7
CHINESET
 73
     1
 44
1.0
1001
ACAD
1000
MTEXTBEGIN
1070
    73
1070
     1
1070
    44
1040
1.0
1070
    74
1070
     0
1000
MTEXTEND
  0
POINT
  5
1936
330
1787
100
AcDbEntity
  8
Defpoints
 62
     0
100
AcDbPoint
 10
244.7174145569941
 20
211.0894932540462
 30
0.0
  0
POINT
  5
1937
330
1787
100
AcDbEntity
  8
Defpoints
 62
     0
100
AcDbPoint
 10
223.2174145569941
 20
165.0894932540462
 30
0.0
  0
POINT
  5
1938
330
1787
100
AcDbEntity
  8
Defpoints
 62
     0
100
AcDbPoint
 10
223.2174145569941
 20
242.8394932540462
 30
0.0
  0
ENDBLK
  5
1792
330
1787
100
AcDbEntity
  8
0
100
AcDbBlockEnd
  0
BLOCK
  5
17B7
330
17AD
100
AcDbEntity
  8
0
100
AcDbBlockBegin
  2
*D13
 70
     1
 10
0.0
 20
0.0
 30
0.0
  3
*D13
  1

  0
LINE
  5
1939
330
17AD
100
AcDbEntity
  8
AM_5
100
AcDbLine
 10
231.4674145569941
 20
157.8394932540462
 30
0.0
 11
267.7174145569941
 21
157.8394932540462
 31
0.0
  0
LINE
  5
193A
330
17AD
100
AcDbEntity
  8
AM_5
100
AcDbLine
 10
252.9674145569941
 20
203.8394932540462
 30
0.0
 11
267.7174145569941
 21
203.8394932540462
 31
0.0
  0
LINE
  5
193B
330
17AD
100
AcDbEntity
  8
AM_5
100
AcDbLine
 10
266.2174145569941
 20
160.8394932540462
 30
0.0
 11
266.2174145569941
 21
200.8394932540462
 31
0.0
  0
SOLID
  5
193C
330
17AD
100
AcDbEntity
  8
AM_5
100
AcDbTrace
 10
265.7174145569941
 20
160.8394932540462
 30
0.0
 11
266.7174145569941
 21
160.8394932540462
 31
0.0
 12
266.2174145569941
 22
157.8394932540462
 32
0.0
 13
266.2174145569941
 23
157.8394932540462
 33
0.0
  0
SOLID
  5
193D
330
17AD
100
AcDbEntity
  8
AM_5
100
AcDbTrace
 10
265.7174145569941
 20
200.8394932540462
 30
0.0
 11
266.7174145569941
 21
200.8394932540462
 31
0.0
 12
266.2174145569941
 22
203.8394932540462
 32
0.0
 13
266.2174145569941
 23
203.8394932540462
 33
0.0
  0
MTEXT
  5
193E
330
17AD
100
AcDbEntity
  8
AM_5
100
AcDbMText
 10
263.667414556994
 20
180.8394932540462
 30
0.0
 40
3.5
 41
0.0
 71
     5
 72
     1
  1
46
  7
CHINESET
 11
0.0000000000000001
 21
1.0
 31
0.0
 73
     1
 44
1.0
1001
ACAD
1000
MTEXTBEGIN
1070
    73
1070
     1
1070
    44
1040
1.0
1070
    74
1070
     0
1000
MTEXTEND
  0
POINT
  5
193F
330
17AD
100
AcDbEntity
  8
Defpoints
 62
     0
100
AcDbPoint
 10
230.4674145569941
 20
157.8394932540462
 30
0.0
  0
POINT
  5
1940
330
17AD
100
AcDbEntity
  8
Defpoints
 62
     0
100
AcDbPoint
 10
251.9674145569941
 20
203.8394932540462
 30
0.0
  0
POINT
  5
1941
330
17AD
100
AcDbEntity
  8
Defpoints
 62
     0
100
AcDbPoint
 10
266.2174145569941
 20
203.8394932540462
 30
0.0
  0
ENDBLK
  5
17B8
330
17AD
100
AcDbEntity
  8
0
100
AcDbBlockEnd
  0
BLOCK
  5
17DD
330
17D3
100
AcDbEntity
  8
0
100
AcDbBlockBegin
  2
*D14
 70
     1
 10
0.0
 20
0.0
 30
0.0
  3
*D14
  1

  0
LINE
  5
1942
330
17D3
100
AcDbEntity
  8
AM_5
100
AcDbLine
 10
242.7174145569941
 20
147.8394932540462
 30
0.0
 11
275.7174145569941
 21
147.8394932540462
 31
0.0
  0
LINE
  5
1943
330
17D3
100
AcDbEntity
  8
AM_5
100
AcDbLine
 10
242.7174145569941
 20
213.8394932540462
 30
0.0
 11
275.7174145569941
 21
213.8394932540462
 31
0.0
  0
LINE
  5
1944
330
17D3
100
AcDbEntity
  8
AM_5
100
AcDbLine
 10
274.2174145569941
 20
150.8394932540462
 30
0.0
 11
274.2174145569941
 21
210.8394932540463
 31
0.0
  0
SOLID
  5
1945
330
17D3
100
AcDbEntity
  8
AM_5
100
AcDbTrace
 10
273.7174145569941
 20
150.8394932540462
 30
0.0
 11
274.7174145569941
 21
150.8394932540462
 31
0.0
 12
274.2174145569941
 22
147.8394932540462
 32
0.0
 13
274.2174145569941
 23
147.8394932540462
 33
0.0
  0
SOLID
  5
1946
330
17D3
100
AcDbEntity
  8
AM_5
100
AcDbTrace
 10
273.7174145569941
 20
210.8394932540463
 30
0.0
 11
274.7174145569941
 21
210.8394932540463
 31
0.0
 12
274.2174145569941
 22
213.8394932540462
 32
0.0
 13
274.2174145569941
 23
213.8394932540462
 33
0.0
  0
MTEXT
  5
1947
330
17D3
100
AcDbEntity
  8
AM_5
100
AcDbMText
 10
271.667414556994
 20
180.8394932540463
 30
0.0
 40
3.5
 41
0.0
 71
     5
 72
     1
  1
66
  7
CHINESET
 11
0.0000000000000001
 21
1.0
 31
0.0
 73
     1
 44
1.0
1001
ACAD
1000
MTEXTBEGIN
1070
    73
1070
     1
1070
    44
1040
1.0
1070
    74
1070
     0
1000
MTEXTEND
  0
POINT
  5
1948
330
17D3
100
AcDbEntity
  8
Defpoints
 62
     0
100
AcDbPoint
 10
241.7174145569941
 20
147.8394932540462
 30
0.0
  0
POINT
  5
1949
330
17D3
100
AcDbEntity
  8
Defpoints
 62
     0
100
AcDbPoint
 10
241.7174145569941
 20
213.8394932540462
 30
0.0
  0
POINT
  5
194A
330
17D3
100
AcDbEntity
  8
Defpoints
 62
     0
100
AcDbPoint
 10
274.2174145569941
 20
213.8394932540462
 30
0.0
  0
ENDBLK
  5
17DE
330
17D3
100
AcDbEntity
  8
0
100
AcDbBlockEnd
  0
BLOCK
  5
1A04
330
19FF
100
AcDbEntity
  8
0
100
AcDbBlockBegin
  2
*S16
 70
     1
 10
0.0
 20
0.0
 30
0.0
  3
*S16
  1

  0
LINE
  5
1A00
330
19FF
100
AcDbEntity
  8
AM_5
 62
     5
100
AcDbLine
 10
278.8677242342693
 20
221.3036644552086
 30
0.0
 11
261.4510370061798
 21
221.3036644552086
 31
0.0
  0
LINE
  5
1A01
330
19FF
100
AcDbEntity
  8
AM_5
 62
     5
100
AcDbLine
 10
261.4510370061798
 20
221.3036644552086
 30
0.0
 11
251.3004784980374
 21
209.5040923749142
 31
0.0
  0
TRACE
  5
1A02
330
19FF
100
AcDbEntity
  8
AM_5
 62
     5
370
    35
100
AcDbTrace
 10
250.9511619221175
 20
209.8045912673834
 30
0.0
 11
251.6497950739573
 21
209.203593482445
 31
0.0
 12
249.0179627895113
 22
206.8507695448893
 32
0.0
 13
249.0179627895113
 23
206.8507695448893
 33
0.0
  0
MTEXT
  5
1A03
330
19FF
100
AcDbEntity
  8
AM_5
 62
     5
100
AcDbMText
 10
262.6788462815134
 20
221.995305027911
 30
0.0
 40
3.5
 41
0.0
 71
     7
 72
     5
  1
2-PT1/8
  7
ACISOTS
 73
     1
 44
1.0
1001
ACAD
1000
MTEXTBEGIN
1070
    73
1070
     1
1070
    44
1040
1.0
1070
    74
1070
     0
1000
MTEXTEND
  0
ENDBLK
  5
1A05
330
19FF
100
AcDbEntity
  8
0
100
AcDbBlockEnd
  0
ENDSEC
  0
SECTION
  2
ENTITIES
  0
DIMENSION
  5
E5E
330
1F
100
AcDbEntity
  8
AM_5
100
AcDbDimension
  2
*D3
 10
157.4057250597392
 20
110.8394932540462
 30
0.0
 11
132.4057250597394
 21
113.3894932540462
 31
0.0
 70
    32
 71
     5
 42
49.99999999999964
  3
AM_ISO$0
100
AcDbAlignedDimension
 13
107.4057250597396
 23
134.1062074718546
 33
0.0
 14
157.4057250597392
 24
134.1062074718543
 34
0.0
100
AcDbRotatedDimension
1001
ACAD
1000
DSTYLE
1002
{
1070
    40
1040
1.0
1070
   144
1040
1.0
1070
   272
1070
     8
1002
}
  0
DIMENSION
  5
E84
330
1F
100
AcDbEntity
  8
AM_5
100
AcDbDimension
  2
*D4
 10
87.40572505973979
 20
230.8394932540462
 30
0.0
 11
84.85572505973975
 21
180.8394932540462
 31
0.0
 70
    32
 71
     5
 42
99.99999999999998
  3
AM_ISO$0
100
AcDbAlignedDimension
 13
114.8273292284926
 23
130.8394932540462
 33
0.0
 14
114.8273292284927
 24
230.8394932540462
 34
0.0
 50
89.99999999999991
100
AcDbRotatedDimension
1001
ACAD
1000
DSTYLE
1002
{
1070
    40
1040
1.0
1070
   144
1040
1.0
1070
   272
1070
     8
1002
}
  0
DIMENSION
  5
ED0
330
1F
100
AcDbEntity
  8
AM_5
100
AcDbDimension
  2
*D5
 10
151.4057250597396
 20
118.8394932540462
 30
0.0
 11
132.4057250597396
 21
121.3894932540462
 31
0.0
 70
    32
 71
     5
 42
38.0
  3
AM_ISO$0
100
AcDbAlignedDimension
 13
113.4057250597396
 23
142.0035532540462
 33
0.0
 14
151.4057250597396
 24
142.0035532540462
 34
0.0
100
AcDbRotatedDimension
1001
ACAD
1000
DSTYLE
1002
{
1070
    40
1040
1.0
1070
   144
1040
1.0
1070
   272
1070
     8
1002
}
  0
DIMENSION
  5
EF6
330
1F
100
AcDbEntity
  8
AM_5
100
AcDbDimension
  2
*D6
 10
95.4057250597396
 20
213.8394932540462
 30
0.0
 11
92.85572505973958
 21
180.8394932540462
 31
0.0
 70
    32
 71
     5
 42
65.99999999999997
  3
AM_ISO$0
100
AcDbAlignedDimension
 13
106.7134950597395
 23
147.8394932540462
 33
0.0
 14
106.7134950597395
 24
213.8394932540462
 34
0.0
 50
90.0
100
AcDbRotatedDimension
1001
ACAD
1000
DSTYLE
1002
{
1070
    40
1040
1.0
1070
   144
1040
1.0
1070
   272
1070
     8
1002
}
  0
TEXT
  5
11DF
330
1F
100
AcDbEntity
  8
LOGO
 62
     7
100
AcDbText
 10
116.3752862114891
 20
61.72346802718493
 30
0.0
 40
3.19953665158371
  1
Order example:
 41
0.8
  7
CHINESET
100
AcDbText
  0
TEXT
  5
11E0
330
1F
100
AcDbEntity
  8
LOGO
 62
     7
100
AcDbText
 10
116.9493095458749
 20
66.22775316009802
 30
0.0
 40
4.799304977375564
  1
訂購代號：
  7
CHINESET
100
AcDbText
  0
LINE
  5
11E1
330
1F
100
AcDbEntity
  8
LOGO
 62
     4
100
AcDbLine
 10
114.9850766841715
 20
48.23941235748498
 30
0.0
 11
114.9850766841715
 21
72.23593724436295
 31
0.0
  0
TEXT
  5
11E2
330
1F
100
AcDbEntity
  8
LOGO
  6
Continuous
100
AcDbText
 10
70.81238153887321
 20
52.95349345759859
 30
0.0
 40
3.599478733031674
  1
金器工業股份有限公司
  7
CHINESET
100
AcDbText
  0
TEXT
  5
11E3
330
1F
100
AcDbEntity
  8
LOGO
  6
Continuous
100
AcDbText
 10
64.20085122804326
 20
49.35330950894531
 30
0.0
 40
2.399652488687782
  1
MINDMAN INDUSTRIAL CO., LTD.
 41
0.85
  7
CHINESET
100
AcDbText
  0
LINE
  5
11E4
330
1F
100
AcDbEntity
  8
LOGO
 62
     4
100
AcDbLine
 10
114.9850766841715
 20
67.43663226698735
 30
0.0
 11
79.79017351675051
 21
67.43663226698735
 31
0.0
  0
LINE
  5
11E5
330
1F
100
AcDbEntity
  8
LOGO
 62
     4
100
AcDbLine
 10
114.9850766841715
 20
62.63732728961176
 30
0.0
 11
79.79017351675051
 21
62.63732728961176
 31
0.0
  0
LINE
  5
11E6
330
1F
100
AcDbEntity
  8
LOGO
 62
     4
100
AcDbLine
 10
114.9850766841715
 20
57.83802231223645
 30
0.0
 11
62.19272193304028
 21
57.83802231223645
 31
0.0
  0
LINE
  5
11E7
330
1F
100
AcDbEntity
  8
LOGO
 62
     4
100
AcDbLine
 10
79.79017351675051
 20
57.83802231223645
 30
0.0
 11
79.79017351675051
 21
72.23593724436295
 31
0.0
  0
TEXT
  5
11E8
330
1F
100
AcDbEntity
  8
LOGO
100
AcDbText
 10
103.8442286575561
 20
59.03784855657994
 30
0.0
 40
2.399652488687782
  1
mm
  7
CHINESET
 72
     1
 11
106.8152269768838
 21
60.23767480092383
 31
0.0
100
AcDbText
 73
     2
  0
TEXT
  5
11E9
330
1F
100
AcDbEntity
  8
LOGO
100
AcDbText
 10
102.5872678301482
 20
68.63645851133113
 30
0.0
 40
2.399652488687782
  1
1 : 1
  7
CHINESET
 72
     1
 11
106.8152269768838
 21
69.83628475567503
 31
0.0
100
AcDbText
 73
     2
  0
LINE
  5
11EA
330
1F
100
AcDbEntity
  8
LOGO
 62
     4
100
AcDbLine
 10
98.9873934262529
 20
57.83802231223645
 30
0.0
 11
98.9873934262529
 21
72.23593724436295
 31
0.0
  0
TEXT
  5
11EB
330
1F
100
AcDbEntity
  8
LOGO
100
AcDbText
 10
81.76881554648556
 20
68.63763944267398
 30
157.2692709120597
 40
2.399652488687782
  1
比例 Scale:
 41
0.9
  7
CHINESET
 72
     4
 11
89.3887834715017
 21
69.83628475567503
 31
157.2692709120597
100
AcDbText
  0
TEXT
  5
11EC
330
1F
100
AcDbEntity
  8
LOGO
100
AcDbText
 10
81.63062127369952
 20
63.87090848817223
 30
157.2692709120597
 40
2.399652488687782
  1
投影  View:
 41
0.9
  7
CHINESET
 72
     4
 11
89.3887834715017
 21
65.03697977829943
 31
157.2692709120597
100
AcDbText
  0
TEXT
  5
11ED
330
1F
100
AcDbEntity
  8
LOGO
100
AcDbText
 10
81.86523015540604
 20
59.03784855657994
 30
157.2692709120597
 40
2.399652488687782
  1
單位  Unit:
 41
0.9
  7
CHINESET
 72
     4
 11
89.3887834715017
 21
60.23767480092383
 31
157.2692709120597
100
AcDbText
  0
LWPOLYLINE
  5
11EE
330
1F
100
AcDbEntity
  8
LOGO
 62
     4
100
AcDbPolyline
 90
        4
 70
     1
 43
0.0
 10
62.19272193304028
 20
72.23593724436295
 10
392.1927219330402
 20
72.23593724436295
 10
392.1927219330402
 20
288.2394123574845
 10
62.19272193304028
 20
288.2394123574845
1001
GENIUS_GENREC_14
1002
{
1000
PYDIR
1011
62.19272193304028
1021
288.2394123574845
1031
0.0
1002
}
1002
{
1000
PXDIR
1011
392.1927219330402
1021
72.23593724436295
1031
0.0
1002
}
1002
{
1000
PORI
1011
62.19272193304028
1021
72.23593724436295
1031
0.0
1002
}
1002
{
1000
PINS
1011
62.19272193304028
1021
72.23593724436295
1031
0.0
1002
}
1002
{
1000
PINS2
1011
392.1927219330402
1021
288.2394123574845
1031
0.0
1002
}
1002
{
1000
C
1070
     1
1002
}
1001
GENIUS_GENODEF_13
1002
{
1000
HIER
1070
     0
1002
}
1002
{
1000
MANEDIT
1070
     0
1002
}
1002
{
1000
NOSEL
1070
     0
1002
}
1002
{
1000
BEHIND
1070
     0
1002
}
1002
{
1000
OTHER
1070
     0
1002
}
1002
{
1000
REACTOR
1002
}
1001
GENIUS_GENOBJ-N-REC_13
1002
{
1000
OWNER
1000
GEN
1002
}
  0
SOLID
  5
11EF
330
1F
100
AcDbEntity
  8
LOGO
 62
     5
100
AcDbTrace
 10
64.68239990154694
 20
61.82710301104453
 30
0.0
 11
65.71994667077419
 21
61.82710301104425
 31
0.0
 12
70.04902112168787
 22
71.66590858130357
 32
0.0
 13
71.08656789091568
 23
71.66590858130303
 33
0.0
  0
SOLID
  5
11F0
330
1F
100
AcDbEntity
  8
LOGO
 62
     5
100
AcDbTrace
 10
66.14927636838661
 20
61.82710301104453
 30
0.0
 11
67.18682313761388
 21
61.82710301104453
 31
0.0
 12
71.08656789091568
 22
70.87880413568246
 32
0.0
 13
70.04902112168787
 23
67.07446598184898
 33
0.0
  0
SOLID
  5
11F1
330
1F
100
AcDbEntity
  8
LOGO
 62
     2
100
AcDbTrace
 10
65.71994667077419
 20
61.82710301104425
 30
0.0
 11
66.14927636838661
 21
61.82710301104453
 31
0.0
 12
71.08656789091568
 22
71.66590858130303
 32
0.0
 13
71.51589758852757
 23
71.66590858130303
 33
0.0
  0
SOLID
  5
11F2
330
1F
100
AcDbEntity
  8
LOGO
 62
     5
100
AcDbTrace
 10
63.01895799284088
 20
58.24935553095065
 30
0.0
 11
63.37673274085068
 21
58.24935553095065
 31
0.0
 12
64.38425427820607
 22
60.03822927099744
 32
0.0
 13
64.74202902621477
 23
60.03822927099744
 33
0.0
  0
SOLID
  5
11F3
330
1F
100
AcDbEntity
  8
LOGO
 62
     5
100
AcDbTrace
 10
64.38425427820607
 20
60.03822927099744
 30
0.0
 11
64.74202902621477
 21
60.03822927099744
 31
0.0
 12
64.38425427820607
 22
58.24935553095065
 32
0.0
 13
64.74202902621477
 23
58.24935553095065
 33
0.0
  0
SOLID
  5
11F4
330
1F
100
AcDbEntity
  8
LOGO
 62
     5
100
AcDbTrace
 10
64.38425427820607
 20
58.24935553095065
 30
0.0
 11
64.74202902621477
 21
58.24935553095065
 31
0.0
 12
65.7495505635718
 22
60.03822927099744
 32
0.0
 13
66.10732531158106
 23
60.03822927099744
 33
0.0
  0
SOLID
  5
11F5
330
1F
100
AcDbEntity
  8
LOGO
 62
     5
100
AcDbTrace
 10
65.7495505635718
 20
60.03822927099744
 30
0.0
 11
66.10732531158106
 21
60.03822927099744
 31
0.0
 12
65.7495505635718
 22
58.24935553095065
 32
0.0
 13
66.10732531158106
 23
58.24935553095065
 33
0.0
  0
POLYLINE
  5
11F6
330
1F
100
AcDbEntity
  8
LOGO
 62
     5
100
AcDb2dPolyline
 66
     1
 10
0.0
 20
0.0
 30
0.0
 40
0.3583481049773755
 41
0.3583481049773755
  0
VERTEX
  5
11F7
330
11F6
100
AcDbEntity
  8
LOGO
 62
     5
100
AcDbVertex
100
AcDb2dVertex
 10
77.74203823934318
 20
59.32267977497868
 30
0.0
 42
1.0
  0
VERTEX
  5
11F8
330
11F6
100
AcDbEntity
  8
LOGO
 62
     5
100
AcDbVertex
100
AcDb2dVertex
 10
76.66699392441083
 20
59.32267977497868
 30
0.0
 42
1.0
  0
SEQEND
  5
11F9
330
11F6
100
AcDbEntity
  8
LOGO
 62
     5
  0
POLYLINE
  5
11FA
330
1F
100
AcDbEntity
  8
LOGO
 62
     5
100
AcDb2dPolyline
 66
     1
 10
0.0
 20
0.0
 30
0.0
 70
     1
  0
VERTEX
  5
11FB
330
11FA
100
AcDbEntity
  8
LOGO
 62
     5
100
AcDbVertex
100
AcDb2dVertex
 10
74.64048757279201
 20
59.14379240097378
 30
0.0
 42
1.000000057330635
  0
VERTEX
  5
11FC
330
11FA
100
AcDbEntity
  8
LOGO
 62
     5
100
AcDbVertex
100
AcDb2dVertex
 10
75.71381181682031
 20
59.14379240097378
 30
0.0
 42
1.000000057330635
  0
SEQEND
  5
11FD
330
11FA
100
AcDbEntity
  8
LOGO
 62
     5
  0
CIRCLE
  5
11FE
330
1F
100
AcDbEntity
  8
LOGO
 62
     5
100
AcDbCircle
 10
75.17714969480699
 20
59.14379240097378
 30
0.0
 40
0.5366621220141177
  0
POLYLINE
  5
11FF
330
1F
100
AcDbEntity
  8
LOGO
 62
     5
100
AcDb2dPolyline
 66
     1
 10
0.0
 20
0.0
 30
0.0
 70
     1
 40
0.3583481049773755
 41
0.3583481049773755
  0
VERTEX
  5
1200
330
11FF
100
AcDbEntity
  8
LOGO
 62
     5
100
AcDbVertex
100
AcDb2dVertex
 10
74.46045348485172
 20
59.14379240097378
 30
0.0
 42
1.0
  0
VERTEX
  5
1201
330
11FF
100
AcDbEntity
  8
LOGO
 62
     5
100
AcDbVertex
100
AcDb2dVertex
 10
75.89384590476115
 20
59.14379240097378
 30
0.0
 42
1.0
  0
SEQEND
  5
1202
330
11FF
100
AcDbEntity
  8
LOGO
 62
     5
  0
LINE
  5
1203
330
1F
100
AcDbEntity
  8
LOGO
100
AcDbLine
 10
77.92006557789523
 20
58.24935553095065
 30
0.0
 11
77.92006557789523
 21
59.32267977497868
 31
0.0
  0
SOLID
  5
1204
330
1F
100
AcDbEntity
  8
LOGO
 62
     5
100
AcDbTrace
 10
75.71377603934711
 20
60.03822927099744
 30
0.0
 11
76.07155078735582
 21
60.03822927099744
 31
0.0
 12
75.71377603934711
 22
58.24935553095065
 32
0.0
 13
76.07155078735582
 23
58.24935553095065
 33
0.0
  0
SOLID
  5
1205
330
1F
100
AcDbEntity
  8
LOGO
 62
     5
100
AcDbTrace
 10
76.48896658585768
 20
58.24935553095065
 30
0.0
 11
76.84674133386747
 21
58.24935553095065
 31
0.0
 12
76.48896658585768
 22
60.03822927099744
 32
0.0
 13
76.84674133386747
 23
60.03822927099744
 33
0.0
  0
SOLID
  5
1206
330
1F
100
AcDbEntity
  8
LOGO
 62
     5
100
AcDbTrace
 10
77.56229082988652
 20
59.32267977497868
 30
0.0
 11
77.92006557789523
 21
59.32267977497868
 31
0.0
 12
77.56229082988652
 22
58.24935553095065
 32
0.0
 13
77.92006557789523
 23
58.24935553095065
 33
0.0
  0
SOLID
  5
1207
330
1F
100
AcDbEntity
  8
LOGO
 62
     5
100
AcDbTrace
 10
76.45318911105665
 20
70.87880413568246
 30
0.0
 11
75.41564234182992
 21
67.07446598184898
 31
0.0
 12
76.45318911105665
 22
61.82710301104425
 32
0.0
 13
75.41564234182992
 23
61.82710301104425
 33
0.0
  0
SOLID
  5
1208
330
1F
100
AcDbEntity
  8
LOGO
 62
     5
100
AcDbTrace
 10
76.8825188086685
 20
61.82710301104425
 30
0.0
 11
77.92006557789523
 21
61.82710301104425
 31
0.0
 12
76.8825188086685
 22
71.66590858130303
 32
0.0
 13
77.92006557789523
 23
71.66590858130357
 33
0.0
  0
SOLID
  5
1209
330
1F
100
AcDbEntity
  8
LOGO
 62
     2
100
AcDbTrace
 10
76.45318911105665
 20
71.66590858130357
 30
0.0
 11
76.8825188086685
 21
71.66590858130303
 31
0.0
 12
76.45318911105665
 22
61.82710301104425
 32
0.0
 13
76.8825188086685
 23
61.82710301104425
 33
0.0
  0
POLYLINE
  5
120A
330
1F
100
AcDbEntity
  8
LOGO
 62
     5
100
AcDb2dPolyline
 66
     1
 10
0.0
 20
0.0
 30
0.0
 40
0.3583481049773755
 41
0.3583481049773755
  0
VERTEX
  5
120B
330
120A
100
AcDbEntity
  8
LOGO
 62
     5
100
AcDbVertex
100
AcDb2dVertex
 10
72.61390966622517
 20
59.32267977497868
 30
0.0
 42
1.0
  0
VERTEX
  5
120C
330
120A
100
AcDbEntity
  8
LOGO
 62
     5
100
AcDbVertex
100
AcDb2dVertex
 10
71.53886535129281
 20
59.32267977497868
 30
0.0
 42
1.0
  0
SEQEND
  5
120D
330
120A
100
AcDbEntity
  8
LOGO
 62
     5
  0
POLYLINE
  5
120E
330
1F
100
AcDbEntity
  8
LOGO
 62
     5
100
AcDb2dPolyline
 66
     1
 10
0.0
 20
0.0
 30
0.0
 40
0.3583481049773755
 41
0.3583481049773755
  0
VERTEX
  5
120F
330
120E
100
AcDbEntity
  8
LOGO
 62
     5
100
AcDbVertex
100
AcDb2dVertex
 10
73.68723391025238
 20
59.32267977497868
 30
0.0
 42
1.0
  0
VERTEX
  5
1210
330
120E
100
AcDbEntity
  8
LOGO
 62
     5
100
AcDbVertex
100
AcDb2dVertex
 10
72.61218959532057
 20
59.32267977497868
 30
0.0
 42
1.0
  0
SEQEND
  5
1211
330
120E
100
AcDbEntity
  8
LOGO
 62
     5
  0
POLYLINE
  5
1212
330
1F
100
AcDbEntity
  8
LOGO
 62
     5
100
AcDb2dPolyline
 66
     1
 10
0.0
 20
0.0
 30
0.0
 40
0.3583481049773755
 41
0.3583481049773755
  0
VERTEX
  5
1213
330
1212
100
AcDbEntity
  8
LOGO
 62
     5
100
AcDbVertex
100
AcDb2dVertex
 10
68.55910533713435
 20
59.32267977497868
 30
0.0
 42
1.0
  0
VERTEX
  5
1214
330
1212
100
AcDbEntity
  8
LOGO
 62
     5
100
AcDbVertex
100
AcDb2dVertex
 10
67.48406102220255
 20
59.32267977497868
 30
0.0
 42
1.0
  0
SEQEND
  5
1215
330
1212
100
AcDbEntity
  8
LOGO
 62
     5
  0
SOLID
  5
1216
330
1F
100
AcDbEntity
  8
LOGO
 62
     5
100
AcDbTrace
 10
67.30603368364995
 20
60.03822927099744
 30
0.0
 11
67.66380843165865
 21
60.03822927099744
 31
0.0
 12
67.30603368364995
 22
58.24935553095065
 32
0.0
 13
67.66380843165865
 23
58.24935553095065
 33
0.0
  0
SOLID
  5
1217
330
1F
100
AcDbEntity
  8
LOGO
 62
     5
100
AcDbTrace
 10
68.37935792767826
 20
59.32267977497868
 30
0.0
 11
68.73713267568806
 21
59.32267977497868
 31
0.0
 12
68.37935792767826
 22
58.24935553095065
 32
0.0
 13
68.73713267568806
 23
58.24935553095065
 33
0.0
  0
POLYLINE
  5
1218
330
1F
100
AcDbEntity
  8
LOGO
 62
     5
100
AcDb2dPolyline
 66
     1
 10
0.0
 20
0.0
 30
0.0
 70
     1
 40
0.3583481049773755
 41
0.3583481049773755
  0
VERTEX
  5
1219
330
1218
100
AcDbEntity
  8
LOGO
 62
     5
100
AcDbVertex
100
AcDb2dVertex
 10
69.33232491173317
 20
59.14379240097378
 30
0.0
 42
1.0
  0
VERTEX
  5
121A
330
1218
100
AcDbEntity
  8
LOGO
 62
     5
100
AcDbVertex
100
AcDb2dVertex
 10
70.76571733164314
 20
59.14379240097378
 30
0.0
 42
1.0
  0
SEQEND
  5
121B
330
1218
100
AcDbEntity
  8
LOGO
 62
     5
  0
SOLID
  5
121C
330
1F
100
AcDbEntity
  8
LOGO
 62
     5
100
AcDbTrace
 10
70.58564746622801
 20
60.57489139301188
 30
0.0
 11
70.94342221423726
 21
60.57489139301188
 31
0.0
 12
70.58564746622801
 22
58.24935553095065
 32
0.0
 13
70.94342221423726
 23
58.24935553095065
 33
0.0
  0
SOLID
  5
121D
330
1F
100
AcDbEntity
  8
LOGO
 62
     5
100
AcDbTrace
 10
71.36083801274075
 20
60.03822927099744
 30
0.0
 11
71.71861276074946
 21
60.03822927099744
 31
0.0
 12
71.36083801274075
 22
58.24935553095065
 32
0.0
 13
71.71861276074946
 23
58.24935553095065
 33
0.0
  0
SOLID
  5
121E
330
1F
100
AcDbEntity
  8
LOGO
 62
     5
100
AcDbTrace
 10
72.43416225676796
 20
59.32267977497868
 30
0.0
 11
72.79193700477776
 21
59.32267977497868
 31
0.0
 12
72.43416225676796
 22
58.24935553095065
 32
0.0
 13
72.79193700477776
 23
58.24935553095065
 33
0.0
  0
SOLID
  5
121F
330
1F
100
AcDbEntity
  8
LOGO
 62
     5
100
AcDbTrace
 10
73.50748650079626
 20
59.32267977497868
 30
0.0
 11
73.86526124880552
 21
59.32267977497868
 31
0.0
 12
73.50748650079626
 22
58.24935553095011
 32
0.0
 13
73.86526124880552
 23
58.24935553095011
 33
0.0
  0
SOLID
  5
1220
330
1F
100
AcDbEntity
  8
LOGO
 62
     5
100
AcDbTrace
 10
66.53084313713776
 20
60.28867159460415
 30
0.0
 11
66.8886178851481
 21
60.28867159460415
 31
0.0
 12
66.53084313713776
 22
60.57489139301188
 32
0.0
 13
66.8886178851481
 23
60.57489139301188
 33
0.0
  0
SOLID
  5
1221
330
1F
100
AcDbEntity
  8
LOGO
 62
     5
100
AcDbTrace
 10
66.53084313713776
 20
60.03822927099744
 30
0.0
 11
66.8886178851481
 21
60.03822927099744
 31
0.0
 12
66.53084313713776
 22
58.24935553095011
 32
0.0
 13
66.8886178851481
 23
58.24935553095065
 33
0.0
  0
SOLID
  5
1222
330
1F
100
AcDbEntity
  8
LOGO
 62
     5
100
AcDbTrace
 10
70.04902112168787
 20
61.82710301104453
 30
0.0
 11
71.08656789091568
 21
61.82710301104453
 31
0.0
 12
70.04902112168787
 22
67.07446598184898
 32
0.0
 13
71.08656789091568
 23
70.87880413568246
 33
0.0
  0
SOLID
  5
1223
330
1F
100
AcDbEntity
  8
LOGO
 62
     5
100
AcDbTrace
 10
71.51589758852757
 20
71.66590858130303
 30
0.0
 11
72.55344435775427
 21
71.66590858130357
 31
0.0
 12
71.51589758852757
 22
62.6142074566651
 32
0.0
 13
72.55344435775427
 23
66.41854561049858
 33
0.0
  0
SOLID
  5
1224
330
1F
100
AcDbEntity
  8
LOGO
 62
     2
100
AcDbTrace
 10
71.08656789091568
 20
71.66590858130303
 30
0.0
 11
71.51589758852757
 21
71.66590858130303
 31
0.0
 12
71.08656789091568
 22
61.82710301104453
 32
0.0
 13
71.51589758852757
 23
61.82710301104453
 33
0.0
  0
SOLID
  5
1225
330
1F
100
AcDbEntity
  8
LOGO
 62
     5
100
AcDbTrace
 10
71.51589758852757
 20
62.6142074566651
 30
0.0
 11
72.55344435775427
 21
66.41854561049858
 31
0.0
 12
76.45318911105665
 22
71.66590858130357
 32
0.0
 13
75.41564234182992
 23
71.66590858130357
 33
0.0
  0
SOLID
  5
1226
330
1F
100
AcDbEntity
  8
LOGO
 62
     5
100
AcDbTrace
 10
71.51589758852757
 20
61.82710301104453
 30
0.0
 11
72.55344435775427
 21
61.82710301104453
 31
0.0
 12
76.45318911105665
 22
70.87880413568246
 32
0.0
 13
75.41564234182992
 23
67.07446598184898
 33
0.0
  0
SOLID
  5
1227
330
1F
100
AcDbEntity
  8
LOGO
 62
     2
100
AcDbTrace
 10
71.08656789091568
 20
61.82710301104453
 30
0.0
 11
71.51589758852757
 21
61.82710301104453
 31
0.0
 12
76.45318911105665
 22
71.66590858130357
 32
0.0
 13
76.8825188086685
 23
71.66590858130303
 33
0.0
  0
LWPOLYLINE
  5
1228
330
1F
100
AcDbEntity
  8
LOGO
 62
     4
100
AcDbPolyline
 90
        4
 70
     1
 43
0.0
 10
62.19272193304028
 20
72.23593724436295
 10
392.1927219330402
 20
72.23593724436295
 10
392.1927219330402
 20
48.23941235748471
 10
62.19272193304028
 20
48.23941235748471
1001
GENIUS_GENREC_14
1002
{
1000
PYDIR
1011
62.19272193304028
1021
48.23941235748471
1031
0.0
1002
}
1002
{
1000
PXDIR
1011
392.1927219330402
1021
72.23593724436295
1031
0.0
1002
}
1002
{
1000
PORI
1011
62.19272193304028
1021
72.23593724436295
1031
0.0
1002
}
1002
{
1000
PINS
1011
62.19272193304028
1021
72.23593724436295
1031
0.0
1002
}
1002
{
1000
PINS2
1011
392.1927219330402
1021
48.23941235748471
1031
0.0
1002
}
1002
{
1000
C
1070
     1
1002
}
1001
GENIUS_GENOBJ-N-REC_13
1002
{
1000
OWNER
1000
GEN
1002
}
1001
GENIUS_GENODEF_13
1002
{
1000
HIER
1070
     0
1002
}
1002
{
1000
MANEDIT
1070
     0
1002
}
1002
{
1000
NOSEL
1070
     0
1002
}
1002
{
1000
BEHIND
1070
     0
1002
}
1002
{
1000
OTHER
1070
     0
1002
}
1002
{
1000
REACTOR
1002
}
  0
LINE
  5
1229
330
1F
100
AcDbEntity
  8
LOGO
 62
     4
100
AcDbLine
 10
163.9889149041503
 20
59.03784855658042
 30
0.0
 11
163.9889149041503
 21
50.23912276472474
 31
0.0
  0
LINE
  5
122A
330
1F
100
AcDbEntity
  8
LOGO
 62
     4
100
AcDbLine
 10
147.9912316462316
 20
59.03784855658042
 30
0.0
 11
147.9912316462316
 21
50.23912276472474
 31
0.0
  0
LINE
  5
122B
330
1F
100
AcDbEntity
  8
LOGO
 62
     4
100
AcDbLine
 10
163.9889149041503
 20
50.23912276472474
 30
0.0
 11
147.9912316462316
 21
50.23912276472474
 31
0.0
  0
LINE
  5
122C
330
1F
100
AcDbEntity
  8
LOGO
 62
     4
100
AcDbLine
 10
166.8582694119177
 20
69.83628475567503
 30
0.0
 11
147.9912316462316
 21
69.83628475567503
 31
0.0
  0
LINE
  5
122D
330
1F
100
AcDbEntity
  8
LOGO
 62
     4
100
AcDbLine
 10
166.8582694119177
 20
62.63732728961176
 30
0.0
 11
147.9912316462316
 21
62.63732728961176
 31
0.0
  0
LINE
  5
122E
330
1F
100
AcDbEntity
  8
LOGO
 62
     4
100
AcDbLine
 10
147.9912316462316
 20
69.83628475567503
 30
0.0
 11
147.9912316462316
 21
62.63732728961176
 31
0.0
  0
LINE
  5
122F
330
1F
100
AcDbEntity
  8
LOGO
 62
     4
100
AcDbLine
 10
166.8582694119177
 20
69.83628475567503
 30
0.0
 11
166.8582694119177
 21
62.63732728961176
 31
0.0
  0
LINE
  5
1230
330
1F
100
AcDbEntity
  8
LOGO
 62
     4
100
AcDbLine
 10
156.8247505290747
 20
62.63732728961176
 30
0.0
 11
156.8247505290747
 21
59.03784855658042
 31
0.0
  0
TEXT
  5
1231
330
1F
100
AcDbEntity
  8
LOGO
  6
Continuous
100
AcDbText
 10
149.2703736421676
 20
64.14009913577775
 30
0.0
 40
4.2
  1
MCHQ
  7
CHINESET
100
AcDbText
  0
LINE
  5
1232
330
1F
100
AcDbEntity
  8
LOGO
 62
     4
100
AcDbLine
 10
163.9889149041503
 20
59.03784855658042
 30
0.0
 11
147.9912316462316
 21
59.03784855658042
 31
0.0
  0
TEXT
  5
1233
330
1F
100
AcDbEntity
  8
LOGO
  6
Continuous
100
AcDbText
 10
153.1248375558033
 20
51.48104425211368
 30
157.2692709120597
 40
1.799999999999999
  1
Model
 41
0.8
  7
CHINESET
100
AcDbText
  0
TEXT
  5
1234
330
1F
100
AcDbEntity
  8
LOGO
100
AcDbText
 10
152.6457360702043
 20
54.81785632442651
 30
157.2692709120597
 40
3.0
  1
型號
  7
CHINESET
100
AcDbText
  0
LINE
  5
1235
330
1F
100
AcDbEntity
  8
LOGO
  6
Continuous
100
AcDbLine
 10
167.6235780891246
 20
66.21130617759454
 30
0.0
 11
170.802375027852
 21
66.21130617759454
 31
0.0
  0
LINE
  5
1241
330
1F
100
AcDbEntity
  8
LOGO
 62
     4
100
AcDbLine
 10
182.1856786468827
 20
59.03784855658042
 30
0.0
 11
182.1856786468827
 21
50.23912276472474
 31
0.0
  0
LINE
  5
1242
330
1F
100
AcDbEntity
  8
LOGO
 62
     4
100
AcDbLine
 10
166.187995388964
 20
59.03784855658042
 30
0.0
 11
166.187995388964
 21
50.23912276472474
 31
0.0
  0
LINE
  5
1243
330
1F
100
AcDbEntity
  8
LOGO
 62
     4
100
AcDbLine
 10
182.1856786468827
 20
50.23912276472474
 30
0.0
 11
166.187995388964
 21
50.23912276472474
 31
0.0
  0
LINE
  5
1244
330
1F
100
AcDbEntity
  8
LOGO
 62
     4
100
AcDbLine
 10
184.3787980320031
 20
69.83628475567503
 30
0.0
 11
172.0776045320672
 21
69.83628475567503
 31
0.0
  0
LINE
  5
1245
330
1F
100
AcDbEntity
  8
LOGO
 62
     4
100
AcDbLine
 10
184.3787980320031
 20
62.63732728961176
 30
0.0
 11
172.0776045320672
 21
62.63732728961176
 31
0.0
  0
LINE
  5
1246
330
1F
100
AcDbEntity
  8
LOGO
 62
     4
100
AcDbLine
 10
172.0776045320672
 20
69.83628475567503
 30
0.0
 11
172.0776045320672
 21
62.63732728961176
 31
0.0
  0
LINE
  5
1247
330
1F
100
AcDbEntity
  8
LOGO
 62
     4
100
AcDbLine
 10
184.3787980320031
 20
69.83628475567503
 30
0.0
 11
184.3787980320031
 21
62.63732728961176
 31
0.0
  0
LINE
  5
1248
330
1F
100
AcDbEntity
  8
LOGO
 62
     4
100
AcDbLine
 10
177.6086968057844
 20
62.63732728961176
 30
0.0
 11
177.6086968057844
 21
59.03784855658042
 31
0.0
  0
TEXT
  5
1249
330
1F
100
AcDbEntity
  8
LOGO
  6
Continuous
100
AcDbText
 10
173.0356307901332
 20
64.14009913577775
 30
0.0
 40
4.2
  1
100
  7
CHINESET
100
AcDbText
  0
LINE
  5
124A
330
1F
100
AcDbEntity
  8
LOGO
 62
     4
100
AcDbLine
 10
182.1856786468827
 20
59.03784855658042
 30
0.0
 11
166.187995388964
 21
59.03784855658042
 31
0.0
  0
TEXT
  5
1258
330
1F
100
AcDbEntity
  8
LOGO
  6
Continuous
100
AcDbText
 10
168.384071162842
 20
51.48104425211368
 30
157.2692709120597
 40
1.799999999999999
  1
Body width
 41
0.8
  7
CHINESET
100
AcDbText
  0
TEXT
  5
1259
330
1F
100
AcDbEntity
  8
LOGO
100
AcDbText
 10
168.1824243031066
 20
54.81785632442651
 30
157.2692709120597
 40
3.0
  1
本體寬度
  7
CHINESET
100
AcDbText
  0
LINE
  5
125C
330
1F
100
AcDbEntity
  8
LOGO
 62
     4
100
AcDbLine
 10
197.2564798322125
 20
69.83628475567503
 30
0.0
 11
185.875305173974
 21
69.83628475567503
 31
0.0
  0
LINE
  5
125D
330
1F
100
AcDbEntity
  8
LOGO
 62
     4
100
AcDbLine
 10
197.2564798322125
 20
62.63732728961176
 30
0.0
 11
185.875305173974
 21
62.63732728961176
 31
0.0
  0
LINE
  5
125E
330
1F
100
AcDbEntity
  8
LOGO
 62
     4
100
AcDbLine
 10
185.875305173974
 20
69.83628475567503
 30
0.0
 11
185.875305173974
 21
62.63732728961176
 31
0.0
  0
LINE
  5
125F
330
1F
100
AcDbEntity
  8
LOGO
 62
     4
100
AcDbLine
 10
197.2564798322125
 20
69.83628475567503
 30
0.0
 11
197.2564798322125
 21
62.63732728961176
 31
0.0
  0
TEXT
  5
1260
330
1F
100
AcDbEntity
  8
LOGO
  6
Continuous
100
AcDbText
 10
187.5483615964565
 20
64.14009913577775
 30
0.0
 40
4.2
  1
(M)
  7
CHINESET
100
AcDbText
  0
LINE
  5
1261
330
1F
100
AcDbEntity
  8
LOGO
 62
     4
100
AcDbLine
 10
198.9690706571092
 20
59.03784855658042
 30
0.0
 11
198.9690706571092
 21
50.23912276472474
 31
0.0
  0
LINE
  5
1262
330
1F
100
AcDbEntity
  8
LOGO
 62
     4
100
AcDbLine
 10
185.9364072750038
 20
59.03784855658042
 30
0.0
 11
185.9364072750038
 21
50.23912276472474
 31
0.0
  0
LINE
  5
1263
330
1F
100
AcDbEntity
  8
LOGO
 62
     4
100
AcDbLine
 10
198.9690706571092
 20
50.23912276472474
 30
0.0
 11
185.9364072750038
 21
50.23912276472474
 31
0.0
  0
LINE
  5
1264
330
1F
100
AcDbEntity
  8
LOGO
 62
     4
100
AcDbLine
 10
198.9690706571092
 20
59.03784855658042
 30
0.0
 11
185.9364072750038
 21
59.03784855658042
 31
0.0
  0
TEXT
  5
1265
330
1F
100
AcDbEntity
  8
LOGO
  6
Continuous
100
AcDbText
 10
188.7693728883866
 20
51.48104425211368
 30
157.2692709120597
 40
1.799999999999999
  1
Magnet
 41
0.8
  7
CHINESET
100
AcDbText
  0
TEXT
  5
1266
330
1F
100
AcDbEntity
  8
LOGO
100
AcDbText
 10
187.8094604727491
 20
54.81785632442651
 30
157.2692709120597
 40
3.0
  1
附磁石
  7
CHINESET
100
AcDbText
  0
LINE
  5
1267
330
1F
100
AcDbEntity
  8
LOGO
 62
     4
100
AcDbLine
 10
191.5658925030938
 20
62.63732728961176
 30
0.0
 11
191.5658925030938
 21
59.03784855658042
 31
0.0
  0
TEXT
  5
1268
330
1F
100
AcDbEntity
  8
LOGO
100
AcDbText
 10
115.9369193936567
 20
49.5160180101906
 30
0.0
 40
2.399999999999999
  1
10706053
 41
0.7
  7
CHINESET
 72
     1
 11
121.9369193936567
 21
49.5160180101906
 31
0.0
100
AcDbText
  0
LINE
  5
1269
330
1F
100
AcDbEntity
  8
LOGO
 62
     4
100
AcDbLine
 10
129.3850766841704
 20
53.03871733486111
 30
0.0
 11
129.3850766841715
 21
48.23941235748525
 31
0.0
  0
LINE
  5
126A
330
1F
100
AcDbEntity
  8
LOGO
 62
     4
100
AcDbLine
 10
129.3850766841704
 20
53.03871733486111
 30
0.0
 11
114.9850766841715
 21
53.03871733486111
 31
0.0
  0
CIRCLE
  5
126B
330
1F
100
AcDbEntity
  8
LOGO
  6
Continuous
100
AcDbCircle
 10
103.4306501528469
 20
65.04211265253316
 30
0.0
 40
1.393294716384757
  0
CIRCLE
  5
126C
330
1F
100
AcDbEntity
  8
LOGO
  6
Continuous
100
AcDbCircle
 10
103.4306501528469
 20
65.04211265253316
 30
0.0
 40
0.8163473623987165
  0
LINE
  5
126D
330
1F
100
AcDbEntity
  8
LOGO
100
AcDbLine
 10
112.1862758216907
 20
63.64881793614813
 30
0.0
 11
112.1862758216907
 21
66.43540736891819
 31
0.0
  0
LINE
  5
126E
330
1F
100
AcDbEntity
  8
LOGO
100
AcDbLine
 10
107.8183768647576
 20
64.22576529013459
 30
0.0
 11
107.8183768647576
 21
65.85846001493201
 31
0.0
  0
LINE
  5
126F
330
1F
100
AcDbEntity
  8
LOGO
  6
Continuous
100
AcDbLine
 10
107.8183768647576
 20
65.85846001493201
 30
0.0
 11
112.1862758216907
 21
66.43540736891819
 31
0.0
  0
LINE
  5
1270
330
1F
100
AcDbEntity
  8
LOGO
  6
Continuous
100
AcDbLine
 10
107.8183768647576
 20
64.22576529013459
 30
0.0
 11
112.1862758216907
 21
63.64881793614813
 31
0.0
  0
LINE
  5
1271
330
1F
100
AcDbEntity
  8
LOGO
  6
AM_ISO08W050x2
 48
0.3
100
AcDbLine
 10
101.5099725233649
 20
65.04211265253316
 30
0.0
 11
105.3513277823288
 21
65.04211265253316
 31
0.0
1001
GENIUS_GENOREF_13
1005
1276
  0
LINE
  5
1272
330
1F
100
AcDbEntity
  8
LOGO
  6
AM_ISO08W050x2
 48
0.3
100
AcDbLine
 10
103.4306501528469
 20
63.12143502305125
 30
0.0
 11
103.4306501528469
 21
66.96279028201506
 31
0.0
1001
GENIUS_GENOREF_13
1005
1275
  0
LINE
  5
1273
330
1F
100
AcDbEntity
  8
LOGO
  6
CENTER
 48
0.5
100
AcDbLine
 10
107.4690663533864
 20
65.04211265253316
 30
0.0
 11
112.6261091070359
 21
65.04211265253316
 31
0.0
1001
GENIUS_GENOREF_13
1005
1274
  0
POINT
  5
1274
330
1F
100
AcDbEntity
  8
0
 60
     1
100
AcDbPoint
 10
-1988.549973775114
 20
-873.9018046235621
 30
0.0
1001
GENIUS_GENOBJ-N-CRS_13
1002
{
1000
OWNER
1000
GEN
1002
}
1001
GENIUS_GENOLIS_13
1002
{
1000
ENT
1005
0
1005
0
1005
0
1005
1273
1002
}
1001
GENIUS_GENOENT_13
1002
{
1000
MYREF
1005
1274
1002
}
1002
{
1000
GRP
1005
0
1002
}
1001
GENIUS_GENODEF_13
1002
{
1000
HIER
1070
    10
1002
}
1002
{
1000
MANEDIT
1070
     1
1002
}
1002
{
1000
NOSEL
1070
     0
1002
}
1002
{
1000
BEHIND
1070
     0
1002
}
1002
{
1000
OTHER
1070
     0
1002
}
1002
{
1000
REACTOR
1002
}
  0
POINT
  5
1275
330
1F
100
AcDbEntity
  8
0
 60
     1
100
AcDbPoint
 10
-1999.874558997969
 20
-865.0262181449258
 30
0.0
1001
GENIUS_GENOBJ-N-CRS_13
1002
{
1000
OWNER
1000
GEN
1002
}
1001
GENIUS_GENOLIS_13
1002
{
1000
ENT
1005
0
1005
0
1005
0
1005
1272
1002
}
1001
GENIUS_GENOENT_13
1002
{
1000
MYREF
1005
1275
1002
}
1002
{
1000
GRP
1005
0
1002
}
1001
GENIUS_GENODEF_13
1002
{
1000
HIER
1070
    10
1002
}
1002
{
1000
MANEDIT
1070
     1
1002
}
1002
{
1000
NOSEL
1070
     0
1002
}
1002
{
1000
BEHIND
1070
     0
1002
}
1002
{
1000
OTHER
1070
     0
1002
}
1002
{
1000
REACTOR
1002
}
  0
POINT
  5
1276
330
1F
100
AcDbEntity
  8
0
 60
     1
100
AcDbPoint
 10
-1993.515885300132
 20
-873.9018046235621
 30
0.0
1001
GENIUS_GENOBJ-N-CRS_13
1002
{
1000
OWNER
1000
GEN
1002
}
1001
GENIUS_GENOLIS_13
1002
{
1000
ENT
1005
0
1005
0
1005
0
1005
1271
1002
}
1001
GENIUS_GENOENT_13
1002
{
1000
MYREF
1005
1276
1002
}
1002
{
1000
GRP
1005
0
1002
}
1001
GENIUS_GENODEF_13
1002
{
1000
HIER
1070
    10
1002
}
1002
{
1000
MANEDIT
1070
     1
1002
}
1002
{
1000
NOSEL
1070
     0
1002
}
1002
{
1000
BEHIND
1070
     0
1002
}
1002
{
1000
OTHER
1070
     0
1002
}
1002
{
1000
REACTOR
1002
}
  0
LINE
  5
136D
330
1F
100
AcDbEntity
  8
1
100
AcDbLine
 10
139.5057250597396
 20
230.8394932540462
 30
0.0
 11
139.5057250597395
 21
193.3394932540462
 31
0.0
  0
LINE
  5
136E
330
1F
100
AcDbEntity
  8
1
100
AcDbLine
 10
157.4057250597396
 20
227.5727790362379
 30
0.0
 11
157.4057250597395
 21
195.0394932540462
 31
0.0
  0
LINE
  5
136F
330
1F
100
AcDbEntity
  8
1
100
AcDbLine
 10
107.9057250597395
 20
203.8394932540462
 30
0.0
 11
107.9057250597395
 21
195.0394932540462
 31
0.0
  0
LINE
  5
1370
330
1F
100
AcDbEntity
  8
1
100
AcDbLine
 10
125.3057250597396
 20
230.8394932540462
 30
0.0
 11
125.3057250597396
 21
193.3394932540462
 31
0.0
  0
LINE
  5
1371
330
1F
100
AcDbEntity
  8
1
100
AcDbLine
 10
254.2174145569941
 20
230.8394932540462
 30
0.0
 11
254.2174145569941
 21
130.8394932540462
 31
0.0
  0
LINE
  5
1374
330
1F
100
AcDbEntity
  8
1
100
AcDbLine
 10
195.2174145569941
 20
230.8394932540462
 30
0.0
 11
195.2174145569941
 21
130.8394932540462
 31
0.0
  0
LINE
  5
1375
330
1F
100
AcDbEntity
  8
AM_7
100
AcDbLine
 10
132.4057250597396
 20
129.0947432540462
 30
0.0
 11
132.4057250597396
 21
233.1658412540463
 31
0.0
  0
CIRCLE
  5
1376
330
1F
100
AcDbEntity
  8
1
100
AcDbCircle
 10
113.4057250597396
 20
147.8394932540462
 30
0.0
 40
4.549999999999999
  0
LINE
  5
1377
330
1F
100
AcDbEntity
  8
AM_7
100
AcDbLine
 10
106.7134950597395
 20
147.8394932540462
 30
0.0
 11
119.5240950597395
 21
147.8394932540462
 31
0.0
  0
LINE
  5
1378
330
1F
100
AcDbEntity
  8
1
100
AcDbLine
 10
149.9841208909865
 20
130.8394932540462
 30
0.0
 11
114.8273292284927
 21
130.8394932540462
 31
0.0
  0
LINE
  5
1379
330
1F
100
AcDbEntity
  8
AM_7
100
AcDbLine
 10
157.9891550597396
 20
180.8394932540462
 30
0.0
 11
106.6153050597395
 21
180.8394932540462
 31
0.0
  0
LINE
  5
137A
330
1F
100
AcDbEntity
  8
1
100
AcDbLine
 10
107.9057250597395
 20
157.8394932540462
 30
0.0
 11
107.9057250597395
 21
166.6394932540462
 31
0.0
  0
LINE
  5
137B
330
1F
100
AcDbEntity
  8
AM_7
100
AcDbLine
 10
113.4057250597396
 20
142.0035532540462
 30
0.0
 11
113.4057250597396
 21
153.3361532540463
 31
0.0
  0
LINE
  5
137C
330
1F
100
AcDbEntity
  8
1
100
AcDbLine
 10
107.4057250597396
 20
134.1062074718546
 30
0.0
 11
107.4057250597396
 21
157.8394932540462
 31
0.0
  0
ARC
  5
137D
330
1F
100
AcDbEntity
  8
1
100
AcDbCircle
 10
132.4057250597396
 20
180.8394932540462
 30
0.0
 40
53.0
100
AcDbArc
 50
241.8554186914947
 51
250.6299617544599
  0
CIRCLE
  5
137E
330
1F
100
AcDbEntity
  8
1
100
AcDbCircle
 10
113.4057250597396
 20
147.8394932540462
 30
0.0
 40
3.299999999999999
  0
LINE
  5
137F
330
1F
100
AcDbEntity
  8
1
100
AcDbLine
 10
107.9057250597395
 20
157.8394932540462
 30
0.0
 11
107.4057250597396
 21
157.8394932540462
 31
0.0
  0
LINE
  5
1380
330
1F
100
AcDbEntity
  8
1
100
AcDbLine
 10
107.9057250597395
 20
192.0394932540462
 30
0.0
 11
107.9057250597395
 21
180.8394932540463
 31
0.0
  0
LINE
  5
1381
330
1F
100
AcDbEntity
  8
1
100
AcDbLine
 10
107.9057250597395
 20
169.6394932540463
 30
0.0
 11
107.9057250597395
 21
180.8394932540462
 31
0.0
  0
LINE
  5
1382
330
1F
100
AcDbEntity
  8
1
100
AcDbLine
 10
108.6969941361496
 20
169.6394932540463
 30
0.0
 11
108.6969941361496
 21
170.2894932540462
 31
0.0
  0
LINE
  5
1383
330
1F
100
AcDbEntity
  8
1
100
AcDbLine
 10
108.6969941361496
 20
165.9894932540462
 30
0.0
 11
108.6969941361496
 21
166.6394932540463
 31
0.0
  0
LINE
  5
1384
330
1F
100
AcDbEntity
  8
1
100
AcDbLine
 10
108.6969941361496
 20
166.6394932540463
 30
0.0
 11
107.9057250597395
 21
166.6394932540462
 31
0.0
  0
LINE
  5
1385
330
1F
100
AcDbEntity
  8
1
100
AcDbLine
 10
108.6969941361497
 20
169.6394932540463
 30
0.0
 11
107.9057250597395
 21
169.6394932540463
 31
0.0
  0
LINE
  5
1386
330
1F
100
AcDbEntity
  8
1
100
AcDbLine
 10
113.8969941361496
 20
165.9894932540463
 30
0.0
 11
113.8969941361496
 21
170.2894932540462
 31
0.0
  0
LINE
  5
1387
330
1F
100
AcDbEntity
  8
1
100
AcDbLine
 10
113.8969941361496
 20
165.9894932540462
 30
0.0
 11
108.6969941361497
 21
165.9894932540462
 31
0.0
  0
LINE
  5
1388
330
1F
100
AcDbEntity
  8
3
100
AcDbLine
 10
106.8222950597396
 20
168.1394932540462
 30
0.0
 11
114.6546470597398
 21
168.1394932540462
 31
0.0
  0
LINE
  5
1389
330
1F
100
AcDbEntity
  8
1
100
AcDbLine
 10
113.8969941361496
 20
170.2894932540462
 30
0.0
 11
108.6969941361497
 21
170.2894932540462
 31
0.0
  0
LINE
  5
138A
330
1F
100
AcDbEntity
  8
1
100
AcDbLine
 10
108.6969941361496
 20
192.0394932540462
 30
0.0
 11
108.6969941361496
 21
191.3894932540462
 31
0.0
  0
LINE
  5
138B
330
1F
100
AcDbEntity
  8
1
100
AcDbLine
 10
113.8969941361496
 20
195.6894932540462
 30
0.0
 11
113.8969941361496
 21
191.3894932540462
 31
0.0
  0
LINE
  5
138C
330
1F
100
AcDbEntity
  8
1
100
AcDbLine
 10
108.6969941361497
 20
192.0394932540462
 30
0.0
 11
107.9057250597395
 21
192.0394932540462
 31
0.0
  0
LINE
  5
138D
330
1F
100
AcDbEntity
  8
1
100
AcDbLine
 10
108.6969941361496
 20
195.0394932540462
 30
0.0
 11
107.9057250597395
 21
195.0394932540462
 31
0.0
  0
LINE
  5
138E
330
1F
100
AcDbEntity
  8
1
100
AcDbLine
 10
108.6969941361496
 20
195.6894932540462
 30
0.0
 11
108.6969941361496
 21
195.0394932540462
 31
0.0
  0
LINE
  5
138F
330
1F
100
AcDbEntity
  8
1
100
AcDbLine
 10
113.8969941361496
 20
195.6894932540462
 30
0.0
 11
108.6969941361497
 21
195.6894932540462
 31
0.0
  0
LINE
  5
1390
330
1F
100
AcDbEntity
  8
1
100
AcDbLine
 10
113.8969941361496
 20
191.3894932540462
 30
0.0
 11
108.6969941361497
 21
191.3894932540462
 31
0.0
  0
LINE
  5
1391
330
1F
100
AcDbEntity
  8
3
100
AcDbLine
 10
106.8222950597396
 20
193.5394932540462
 30
0.0
 11
114.6546470597398
 21
193.5394932540462
 31
0.0
  0
CIRCLE
  5
1393
330
1F
100
AcDbEntity
  8
1
100
AcDbCircle
 10
234.2174145569941
 20
147.8394932540462
 30
0.0
 40
5.5
  0
CIRCLE
  5
1394
330
1F
100
AcDbEntity
  8
1
100
AcDbCircle
 10
234.2174145569941
 20
147.8394932540462
 30
0.0
 40
3.299999999999999
  0
LINE
  5
1396
102
{ACAD_REACTORS
330
16B6
330
16DC
102
}
330
1F
100
AcDbEntity
  8
1
100
AcDbLine
 10
254.2174145569941
 20
130.8394932540462
 30
0.0
 11
195.2174145569941
 21
130.8394932540462
 31
0.0
  0
LINE
  5
1397
330
1F
100
AcDbEntity
  8
1
100
AcDbLine
 10
254.2174145569941
 20
166.6394932540463
 30
0.0
 11
195.2174145569941
 21
166.6394932540463
 31
0.0
  0
LINE
  5
1398
330
1F
100
AcDbEntity
  8
1
100
AcDbLine
 10
254.2174145569941
 20
169.6394932540462
 30
0.0
 11
195.2174145569941
 21
169.6394932540463
 31
0.0
  0
LINE
  5
1399
330
1F
100
AcDbEntity
  8
1
100
AcDbLine
 10
254.2174145569941
 20
195.0394932540462
 30
0.0
 11
195.2174145569941
 21
195.0394932540462
 31
0.0
  0
LINE
  5
139A
330
1F
100
AcDbEntity
  8
1
100
AcDbLine
 10
254.2174145569941
 20
192.0394932540463
 30
0.0
 11
195.2174145569941
 21
192.0394932540462
 31
0.0
  0
LINE
  5
139B
330
1F
100
AcDbEntity
  8
1
100
AcDbLine
 10
125.3057250597396
 20
130.8394932540462
 30
0.0
 11
125.3057250597396
 21
168.3394932540462
 31
0.0
  0
LINE
  5
139C
330
1F
100
AcDbEntity
  8
1
100
AcDbLine
 10
139.5057250597396
 20
130.8394932540462
 30
0.0
 11
139.5057250597395
 21
168.3394932540462
 31
0.0
  0
LINE
  5
139D
330
1F
100
AcDbEntity
  8
1
100
AcDbLine
 10
157.4057250597396
 20
134.1062074718546
 30
0.0
 11
157.4057250597395
 21
166.6394932540463
 31
0.0
  0
LINE
  5
139F
330
1F
100
AcDbEntity
  8
1
100
AcDbLine
 10
139.5057250597396
 20
142.8394932540462
 30
0.0
 11
125.3057250597396
 21
142.8394932540462
 31
0.0
  0
LINE
  5
13A3
330
1F
100
AcDbEntity
  8
AM_7
100
AcDbLine
 10
137.1962850597395
 20
146.8394932540462
 30
0.0
 11
128.1738050597395
 21
146.8394932540462
 31
0.0
  0
LINE
  5
13A4
330
1F
100
AcDbEntity
  8
1
100
AcDbLine
 10
139.5057250597396
 20
150.8394932540462
 30
0.0
 11
125.3057250597396
 21
150.8394932540462
 31
0.0
  0
LINE
  5
13A8
330
1F
100
AcDbEntity
  8
3
100
AcDbLine
 10
151.4057250597396
 20
142.0035532540462
 30
0.0
 11
151.4057250597396
 21
153.3361532540463
 31
0.0
  0
CIRCLE
  5
13A9
330
1F
100
AcDbEntity
  8
1
100
AcDbCircle
 10
151.4057250597396
 20
147.8394932540462
 30
0.0
 40
4.549999999999999
  0
ARC
  5
13AA
330
1F
100
AcDbEntity
  8
1
100
AcDbCircle
 10
132.4057250597396
 20
180.8394932540462
 30
0.0
 40
53.0
100
AcDbArc
 50
289.3700382455401
 51
298.1445813085053
  0
LINE
  5
13AB
330
1F
100
AcDbEntity
  8
3
100
AcDbLine
 10
158.0979550597396
 20
147.8394932540462
 30
0.0
 11
145.2873550597397
 21
147.8394932540462
 31
0.0
  0
CIRCLE
  5
13AC
330
1F
100
AcDbEntity
  8
1
100
AcDbCircle
 10
151.4057250597396
 20
147.8394932540462
 30
0.0
 40
3.299999999999999
  0
LINE
  5
13AD
330
1F
100
AcDbEntity
  8
1
100
AcDbLine
 10
147.4057250597396
 20
193.3394932540462
 30
0.0
 11
117.4057250597396
 21
193.3394932540463
 31
0.0
  0
LINE
  5
13AE
330
1F
100
AcDbEntity
  8
1
100
AcDbLine
 10
147.4057250597396
 20
168.3394932540462
 30
0.0
 11
117.4057250597396
 21
168.3394932540462
 31
0.0
  0
LINE
  5
13AF
330
1F
100
AcDbEntity
  8
1
100
AcDbLine
 10
117.4057250597396
 20
193.3394932540462
 30
0.0
 11
117.4057250597396
 21
180.8394932540462
 31
0.0
  0
LINE
  5
13B0
330
1F
100
AcDbEntity
  8
1
100
AcDbLine
 10
139.5057250597396
 20
162.8394932540462
 30
0.0
 11
125.3057250597396
 21
162.8394932540463
 31
0.0
  0
LINE
  5
13B1
330
1F
100
AcDbEntity
  8
1
100
AcDbLine
 10
117.4057250597396
 20
168.3394932540462
 30
0.0
 11
117.4057250597396
 21
180.8394932540462
 31
0.0
  0
LINE
  5
13B2
330
1F
100
AcDbEntity
  8
1
100
AcDbLine
 10
139.5057250597396
 20
198.8394932540462
 30
0.0
 11
125.3057250597396
 21
198.8394932540462
 31
0.0
  0
LINE
  5
13B3
330
1F
100
AcDbEntity
  8
1
100
AcDbLine
 10
157.4057250597395
 20
192.0394932540462
 30
0.0
 11
157.4057250597395
 21
180.8394932540463
 31
0.0
  0
LINE
  5
13B4
330
1F
100
AcDbEntity
  8
1
100
AcDbLine
 10
147.4057250597396
 20
193.3394932540462
 30
0.0
 11
147.4057250597396
 21
180.8394932540462
 31
0.0
  0
LINE
  5
13B5
330
1F
100
AcDbEntity
  8
1
100
AcDbLine
 10
150.9144559833295
 20
170.2894932540462
 30
0.0
 11
156.1144559833295
 21
170.2894932540462
 31
0.0
  0
LINE
  5
13B6
330
1F
100
AcDbEntity
  8
1
100
AcDbLine
 10
150.9144559833295
 20
165.9894932540462
 30
0.0
 11
156.1144559833295
 21
165.9894932540462
 31
0.0
  0
LINE
  5
13B7
330
1F
100
AcDbEntity
  8
3
100
AcDbLine
 10
157.9891550597396
 20
168.1394932540462
 30
0.0
 11
149.8899470597397
 21
168.1394932540462
 31
0.0
  0
LINE
  5
13B8
330
1F
100
AcDbEntity
  8
1
100
AcDbLine
 10
150.9144559833295
 20
165.9894932540463
 30
0.0
 11
150.9144559833295
 21
170.2894932540462
 31
0.0
  0
LINE
  5
13B9
330
1F
100
AcDbEntity
  8
1
100
AcDbLine
 10
147.4057250597396
 20
168.3394932540462
 30
0.0
 11
147.4057250597396
 21
180.8394932540462
 31
0.0
  0
LINE
  5
13BA
330
1F
100
AcDbEntity
  8
1
100
AcDbLine
 10
156.1144559833295
 20
165.9894932540462
 30
0.0
 11
156.1144559833295
 21
166.6394932540463
 31
0.0
  0
LINE
  5
13BB
330
1F
100
AcDbEntity
  8
1
100
AcDbLine
 10
156.1144559833295
 20
166.6394932540463
 30
0.0
 11
157.4057250597395
 21
166.6394932540463
 31
0.0
  0
LINE
  5
13BC
330
1F
100
AcDbEntity
  8
1
100
AcDbLine
 10
156.1144559833295
 20
169.6394932540463
 30
0.0
 11
157.4057250597395
 21
169.6394932540463
 31
0.0
  0
LINE
  5
13BD
330
1F
100
AcDbEntity
  8
1
100
AcDbLine
 10
156.1144559833295
 20
169.6394932540463
 30
0.0
 11
156.1144559833296
 21
170.2894932540462
 31
0.0
  0
LINE
  5
13BE
330
1F
100
AcDbEntity
  8
1
100
AcDbLine
 10
157.4057250597395
 20
169.6394932540463
 30
0.0
 11
157.4057250597395
 21
180.8394932540462
 31
0.0
  0
LINE
  5
13BF
330
1F
100
AcDbEntity
  8
1
100
AcDbLine
 10
150.9144559833295
 20
195.6894932540462
 30
0.0
 11
156.1144559833295
 21
195.6894932540462
 31
0.0
  0
LINE
  5
13C0
330
1F
100
AcDbEntity
  8
1
100
AcDbLine
 10
150.9144559833295
 20
191.3894932540462
 30
0.0
 11
156.1144559833295
 21
191.3894932540462
 31
0.0
  0
LINE
  5
13C1
330
1F
100
AcDbEntity
  8
3
100
AcDbLine
 10
157.9891550597396
 20
193.5394932540462
 30
0.0
 11
149.8899470597397
 21
193.5394932540462
 31
0.0
  0
LINE
  5
13C2
330
1F
100
AcDbEntity
  8
1
100
AcDbLine
 10
150.9144559833295
 20
195.6894932540462
 30
0.0
 11
150.9144559833295
 21
191.3894932540462
 31
0.0
  0
LINE
  5
13C3
330
1F
100
AcDbEntity
  8
1
100
AcDbLine
 10
156.1144559833295
 20
192.0394932540462
 30
0.0
 11
156.1144559833296
 21
191.3894932540462
 31
0.0
  0
LINE
  5
13C4
330
1F
100
AcDbEntity
  8
1
100
AcDbLine
 10
156.1144559833295
 20
192.0394932540462
 30
0.0
 11
157.4057250597395
 21
192.0394932540462
 31
0.0
  0
LINE
  5
13C5
330
1F
100
AcDbEntity
  8
1
100
AcDbLine
 10
156.1144559833295
 20
195.0394932540462
 30
0.0
 11
157.4057250597395
 21
195.0394932540462
 31
0.0
  0
LINE
  5
13C6
330
1F
100
AcDbEntity
  8
1
100
AcDbLine
 10
156.1144559833295
 20
195.6894932540462
 30
0.0
 11
156.1144559833295
 21
195.0394932540462
 31
0.0
  0
LINE
  5
13C9
102
{ACAD_REACTORS
330
16DC
102
}
330
1F
100
AcDbEntity
  8
1
100
AcDbLine
 10
195.2174145569941
 20
179.9036316361682
 30
0.0
 11
195.2174145569941
 21
130.8394932540462
 31
0.0
  0
LINE
  5
13CD
330
1F
100
AcDbEntity
  8
1
100
AcDbLine
 10
193.2174145569939
 20
193.3394932540462
 30
0.0
 11
193.2174145569939
 21
168.3394932540462
 31
0.0
  0
LINE
  5
13CE
330
1F
100
AcDbEntity
  8
1
100
AcDbLine
 10
193.2174145569939
 20
168.3394932540462
 30
0.0
 11
195.2174145569941
 21
168.3394932540462
 31
0.0
  0
LINE
  5
13CF
330
1F
100
AcDbEntity
  8
1
100
AcDbLine
 10
193.2174145569939
 20
193.3394932540463
 30
0.0
 11
195.2174145569941
 21
193.3394932540462
 31
0.0
  0
LINE
  5
13D4
330
1F
100
AcDbEntity
  8
AM_7
100
AcDbLine
 10
106.7134950597395
 20
213.8394932540462
 30
0.0
 11
119.5240950597395
 21
213.8394932540462
 31
0.0
  0
CIRCLE
  5
13D5
330
1F
100
AcDbEntity
  8
1
100
AcDbCircle
 10
113.4057250597396
 20
213.8394932540462
 30
0.0
 40
4.549999999999999
  0
LINE
  5
13D6
330
1F
100
AcDbEntity
  8
1
100
AcDbLine
 10
149.9841208909865
 20
230.8394932540462
 30
0.0
 11
114.8273292284927
 21
230.8394932540462
 31
0.0
  0
LINE
  5
13D8
330
1F
100
AcDbEntity
  8
AM_7
100
AcDbLine
 10
113.4057250597396
 20
219.6754332540463
 30
0.0
 11
113.4057250597396
 21
208.3428332540462
 31
0.0
  0
LINE
  5
13D9
330
1F
100
AcDbEntity
  8
1
100
AcDbLine
 10
107.4057250597396
 20
227.5727790362379
 30
0.0
 11
107.4057250597396
 21
203.8394932540462
 31
0.0
  0
LINE
  5
13DA
330
1F
100
AcDbEntity
  8
1
100
AcDbLine
 10
107.9057250597395
 20
203.8394932540462
 30
0.0
 11
107.4057250597396
 21
203.8394932540462
 31
0.0
  0
CIRCLE
  5
13DB
330
1F
100
AcDbEntity
  8
1
100
AcDbCircle
 10
113.4057250597396
 20
213.8394932540462
 30
0.0
 40
3.299999999999999
  0
ARC
  5
13DC
330
1F
100
AcDbEntity
  8
1
100
AcDbCircle
 10
132.4057250597396
 20
180.8394932540462
 30
0.0
 40
53.0
100
AcDbArc
 50
109.3700382455401
 51
118.1445813085053
  0
LINE
  5
13DF
102
{ACAD_REACTORS
330
176E
102
}
330
1F
100
AcDbEntity
  8
1
100
AcDbLine
 10
254.2174145569941
 20
230.8394932540462
 30
0.0
 11
195.2174145569941
 21
230.8394932540462
 31
0.0
  0
CIRCLE
  5
13E4
330
1F
100
AcDbEntity
  8
1
100
AcDbCircle
 10
132.4057250597396
 20
214.8394932540462
 30
0.0
 40
3.0
  0
LINE
  5
13E7
330
1F
100
AcDbEntity
  8
AM_7
100
AcDbLine
 10
137.1962850597395
 20
214.8394932540462
 30
0.0
 11
128.1738050597395
 21
214.8394932540462
 31
0.0
  0
LINE
  5
13E8
330
1F
100
AcDbEntity
  8
1
100
AcDbLine
 10
139.5057250597396
 20
210.8394932540462
 30
0.0
 11
125.3057250597396
 21
210.8394932540462
 31
0.0
  0
LINE
  5
13EC
330
1F
100
AcDbEntity
  8
1
100
AcDbLine
 10
139.5057250597396
 20
218.8394932540462
 30
0.0
 11
125.3057250597396
 21
218.8394932540462
 31
0.0
  0
LINE
  5
13EE
330
1F
100
AcDbEntity
  8
AM_7
100
AcDbLine
 10
151.4057250597396
 20
219.6754332540463
 30
0.0
 11
151.4057250597396
 21
208.3428332540462
 31
0.0
  0
CIRCLE
  5
13EF
330
1F
100
AcDbEntity
  8
1
100
AcDbCircle
 10
151.4057250597396
 20
213.8394932540462
 30
0.0
 40
4.549999999999999
  0
CIRCLE
  5
13F0
330
1F
100
AcDbEntity
  8
1
100
AcDbCircle
 10
151.4057250597396
 20
213.8394932540462
 30
0.0
 40
3.299999999999999
  0
LINE
  5
13F1
330
1F
100
AcDbEntity
  8
AM_7
100
AcDbLine
 10
158.0979550597396
 20
213.8394932540462
 30
0.0
 11
145.2873550597397
 21
213.8394932540462
 31
0.0
  0
ARC
  5
13F2
330
1F
100
AcDbEntity
  8
1
100
AcDbCircle
 10
132.4057250597396
 20
180.8394932540462
 30
0.0
 40
53.0
100
AcDbArc
 50
61.85541869149467
 51
70.62996175445992
  0
LINE
  5
13FF
330
1F
100
AcDbEntity
  8
1
100
AcDbLine
 10
309.4435994211699
 20
230.8394932540462
 30
0.0
 11
344.6003910836638
 21
230.8394932540462
 31
0.0
  0
LINE
  5
1400
330
1F
100
AcDbEntity
  8
AM_7
100
AcDbLine
 10
301.438565252417
 20
180.8394932540462
 30
0.0
 11
352.8124152524169
 21
180.8394932540462
 31
0.0
  0
LINE
  5
1401
330
1F
100
AcDbEntity
  8
1
100
AcDbLine
 10
309.4435994211699
 20
130.8394932540462
 30
0.0
 11
344.6003910836638
 21
130.8394932540462
 31
0.0
  0
LINE
  5
1402
330
1F
100
AcDbEntity
  8
1
100
AcDbLine
 10
351.5219952524169
 20
157.8394932540462
 30
0.0
 11
351.5219952524169
 21
166.6394932540462
 31
0.0
  0
LINE
  5
1403
330
1F
100
AcDbEntity
  8
AM_7
100
AcDbLine
 10
327.0219952524169
 20
129.0947432540462
 30
0.0
 11
327.0219952524169
 21
233.1658412540463
 31
0.0
  0
ARC
  5
1404
330
1F
100
AcDbEntity
  8
1
100
AcDbCircle
 10
327.0219952524169
 20
180.8394932540462
 30
0.0
 40
53.0
100
AcDbArc
 50
289.3700382455401
 51
298.1445813085053
  0
LINE
  5
1406
330
1F
100
AcDbEntity
  8
1
100
AcDbLine
 10
352.0219952524169
 20
134.1062074718546
 30
0.0
 11
352.0219952524169
 21
157.8394932540462
 31
0.0
  0
LINE
  5
1407
330
1F
100
AcDbEntity
  8
1
100
AcDbLine
 10
351.5219952524169
 20
157.8394932540462
 30
0.0
 11
352.0219952524169
 21
157.8394932540462
 31
0.0
  0
LINE
  5
1409
330
1F
100
AcDbEntity
  8
1
100
AcDbLine
 10
351.5219952524169
 20
203.8394932540462
 30
0.0
 11
351.5219952524169
 21
195.0394932540462
 31
0.0
  0
LINE
  5
140A
330
1F
100
AcDbEntity
  8
3
100
AcDbLine
 10
352.6054252524169
 20
193.5394932540462
 30
0.0
 11
344.7730732524167
 21
193.5394932540462
 31
0.0
  0
LINE
  5
140B
330
1F
100
AcDbEntity
  8
1
100
AcDbLine
 10
345.5307261760069
 20
191.3894932540462
 30
0.0
 11
350.7307261760068
 21
191.3894932540462
 31
0.0
  0
LINE
  5
140C
330
1F
100
AcDbEntity
  8
1
100
AcDbLine
 10
345.5307261760069
 20
195.6894932540462
 30
0.0
 11
350.7307261760068
 21
195.6894932540462
 31
0.0
  0
LINE
  5
140D
330
1F
100
AcDbEntity
  8
1
100
AcDbLine
 10
345.5307261760069
 20
170.2894932540462
 30
0.0
 11
350.7307261760068
 21
170.2894932540462
 31
0.0
  0
LINE
  5
140E
330
1F
100
AcDbEntity
  8
3
100
AcDbLine
 10
352.6054252524169
 20
168.1394932540462
 30
0.0
 11
344.7730732524167
 21
168.1394932540462
 31
0.0
  0
LINE
  5
140F
330
1F
100
AcDbEntity
  8
1
100
AcDbLine
 10
345.5307261760069
 20
165.9894932540462
 30
0.0
 11
350.7307261760068
 21
165.9894932540462
 31
0.0
  0
LINE
  5
1410
330
1F
100
AcDbEntity
  8
1
100
AcDbLine
 10
351.5219952524169
 20
192.0394932540462
 30
0.0
 11
351.521995252417
 21
180.8394932540463
 31
0.0
  0
LINE
  5
1411
330
1F
100
AcDbEntity
  8
1
100
AcDbLine
 10
351.5219952524169
 20
169.6394932540463
 30
0.0
 11
351.521995252417
 21
180.8394932540462
 31
0.0
  0
LINE
  5
1412
330
1F
100
AcDbEntity
  8
1
100
AcDbLine
 10
350.7307261760069
 20
166.6394932540463
 30
0.0
 11
351.521995252417
 21
166.6394932540462
 31
0.0
  0
LINE
  5
1413
330
1F
100
AcDbEntity
  8
1
100
AcDbLine
 10
350.7307261760069
 20
165.9894932540462
 30
0.0
 11
350.7307261760069
 21
166.6394932540463
 31
0.0
  0
LINE
  5
1414
330
1F
100
AcDbEntity
  8
1
100
AcDbLine
 10
350.7307261760068
 20
169.6394932540463
 30
0.0
 11
351.521995252417
 21
169.6394932540463
 31
0.0
  0
LINE
  5
1415
330
1F
100
AcDbEntity
  8
1
100
AcDbLine
 10
350.7307261760069
 20
169.6394932540463
 30
0.0
 11
350.7307261760069
 21
170.2894932540462
 31
0.0
  0
LINE
  5
1416
330
1F
100
AcDbEntity
  8
1
100
AcDbLine
 10
350.7307261760068
 20
192.0394932540462
 30
0.0
 11
351.521995252417
 21
192.0394932540462
 31
0.0
  0
LINE
  5
1417
330
1F
100
AcDbEntity
  8
1
100
AcDbLine
 10
350.7307261760069
 20
192.0394932540462
 30
0.0
 11
350.7307261760069
 21
191.3894932540462
 31
0.0
  0
LINE
  5
1418
330
1F
100
AcDbEntity
  8
1
100
AcDbLine
 10
350.7307261760069
 20
195.6894932540462
 30
0.0
 11
350.7307261760069
 21
195.0394932540462
 31
0.0
  0
LINE
  5
1419
330
1F
100
AcDbEntity
  8
1
100
AcDbLine
 10
350.7307261760069
 20
195.0394932540462
 30
0.0
 11
351.521995252417
 21
195.0394932540462
 31
0.0
  0
LINE
  5
141A
330
1F
100
AcDbEntity
  8
1
100
AcDbLine
 10
345.5307261760069
 20
165.9894932540463
 30
0.0
 11
345.5307261760069
 21
170.2894932540462
 31
0.0
  0
LINE
  5
141B
330
1F
100
AcDbEntity
  8
1
100
AcDbLine
 10
345.5307261760069
 20
195.6894932540462
 30
0.0
 11
345.5307261760069
 21
191.3894932540462
 31
0.0
  0
ARC
  5
141C
330
1F
100
AcDbEntity
  8
1
100
AcDbCircle
 10
327.0219952524169
 20
180.8394932540462
 30
0.0
 40
53.0
100
AcDbArc
 50
61.85541869149467
 51
70.62996175445992
  0
LINE
  5
141E
330
1F
100
AcDbEntity
  8
1
100
AcDbLine
 10
352.0219952524169
 20
227.5727790362379
 30
0.0
 11
352.0219952524169
 21
203.8394932540462
 31
0.0
  0
LINE
  5
141F
330
1F
100
AcDbEntity
  8
1
100
AcDbLine
 10
351.5219952524169
 20
203.8394932540462
 30
0.0
 11
352.0219952524169
 21
203.8394932540462
 31
0.0
  0
LINE
  5
1421
330
1F
100
AcDbEntity
  8
1
100
AcDbLine
 10
302.0219952524169
 20
134.1062074718546
 30
0.0
 11
302.0219952524169
 21
166.6394932540463
 31
0.0
  0
ARC
  5
1423
330
1F
100
AcDbEntity
  8
1
100
AcDbCircle
 10
327.0219952524169
 20
180.8394932540462
 30
0.0
 40
53.0
100
AcDbArc
 50
241.8554186914947
 51
250.6299617544599
  0
LINE
  5
1425
330
1F
100
AcDbEntity
  8
1
100
AcDbLine
 10
302.0219952524169
 20
227.5727790362379
 30
0.0
 11
302.0219952524169
 21
195.0394932540462
 31
0.0
  0
LINE
  5
1426
330
1F
100
AcDbEntity
  8
1
100
AcDbLine
 10
303.313264328827
 20
195.0394932540462
 30
0.0
 11
302.0219952524169
 21
195.0394932540462
 31
0.0
  0
LINE
  5
1427
330
1F
100
AcDbEntity
  8
1
100
AcDbLine
 10
303.313264328827
 20
192.0394932540462
 30
0.0
 11
302.0219952524169
 21
192.0394932540462
 31
0.0
  0
LINE
  5
1428
330
1F
100
AcDbEntity
  8
3
100
AcDbLine
 10
301.438565252417
 20
193.5394932540462
 30
0.0
 11
309.5377732524168
 21
193.5394932540462
 31
0.0
  0
LINE
  5
1429
330
1F
100
AcDbEntity
  8
1
100
AcDbLine
 10
303.313264328827
 20
169.6394932540463
 30
0.0
 11
302.0219952524169
 21
169.6394932540463
 31
0.0
  0
LINE
  5
142A
330
1F
100
AcDbEntity
  8
1
100
AcDbLine
 10
303.313264328827
 20
166.6394932540463
 30
0.0
 11
302.0219952524169
 21
166.6394932540463
 31
0.0
  0
LINE
  5
142B
330
1F
100
AcDbEntity
  8
3
100
AcDbLine
 10
301.438565252417
 20
168.1394932540462
 30
0.0
 11
309.5377732524168
 21
168.1394932540462
 31
0.0
  0
LINE
  5
142C
330
1F
100
AcDbEntity
  8
1
100
AcDbLine
 10
308.5132643288269
 20
165.9894932540462
 30
0.0
 11
303.313264328827
 21
165.9894932540462
 31
0.0
  0
LINE
  5
142D
330
1F
100
AcDbEntity
  8
1
100
AcDbLine
 10
308.5132643288271
 20
170.2894932540462
 30
0.0
 11
303.313264328827
 21
170.2894932540462
 31
0.0
  0
LINE
  5
142E
330
1F
100
AcDbEntity
  8
1
100
AcDbLine
 10
308.5132643288269
 20
165.9894932540463
 30
0.0
 11
308.5132643288271
 21
170.2894932540462
 31
0.0
  0
LINE
  5
142F
330
1F
100
AcDbEntity
  8
1
100
AcDbLine
 10
303.313264328827
 20
165.9894932540462
 30
0.0
 11
303.313264328827
 21
166.6394932540463
 31
0.0
  0
LINE
  5
1430
330
1F
100
AcDbEntity
  8
1
100
AcDbLine
 10
303.313264328827
 20
169.6394932540463
 30
0.0
 11
303.3132643288269
 21
170.2894932540462
 31
0.0
  0
LINE
  5
1431
330
1F
100
AcDbEntity
  8
1
100
AcDbLine
 10
308.5132643288269
 20
195.6894932540462
 30
0.0
 11
308.5132643288271
 21
191.3894932540462
 31
0.0
  0
LINE
  5
1432
330
1F
100
AcDbEntity
  8
1
100
AcDbLine
 10
308.5132643288271
 20
191.3894932540462
 30
0.0
 11
303.313264328827
 21
191.3894932540462
 31
0.0
  0
LINE
  5
1433
330
1F
100
AcDbEntity
  8
1
100
AcDbLine
 10
303.313264328827
 20
192.0394932540462
 30
0.0
 11
303.3132643288269
 21
191.3894932540462
 31
0.0
  0
LINE
  5
1434
330
1F
100
AcDbEntity
  8
1
100
AcDbLine
 10
308.5132643288269
 20
195.6894932540462
 30
0.0
 11
303.313264328827
 21
195.6894932540462
 31
0.0
  0
LINE
  5
1435
330
1F
100
AcDbEntity
  8
1
100
AcDbLine
 10
303.313264328827
 20
195.6894932540462
 30
0.0
 11
303.313264328827
 21
195.0394932540462
 31
0.0
  0
LINE
  5
1436
330
1F
100
AcDbEntity
  8
1
100
AcDbLine
 10
302.0219952524169
 20
192.0394932540462
 30
0.0
 11
302.0219952524169
 21
180.8394932540463
 31
0.0
  0
LINE
  5
1437
330
1F
100
AcDbEntity
  8
1
100
AcDbLine
 10
302.0219952524169
 20
169.6394932540463
 30
0.0
 11
302.0219952524169
 21
180.8394932540462
 31
0.0
  0
ARC
  5
1438
330
1F
100
AcDbEntity
  8
1
100
AcDbCircle
 10
327.0219952524169
 20
180.8394932540462
 30
0.0
 40
53.0
100
AcDbArc
 50
109.3700382455401
 51
118.1445813085053
  0
CIRCLE
  5
1444
330
1F
100
AcDbEntity
  8
1
100
AcDbCircle
 10
327.0219952524169
 20
213.8394932540462
 30
0.0
 40
2.5
  0
CIRCLE
  5
1446
330
1F
100
AcDbEntity
  8
1
100
AcDbCircle
 10
327.0219952524169
 20
147.8394932540463
 30
0.0
 40
2.5
  0
ARC
  5
1611
330
1F
100
AcDbEntity
  8
AM_4
100
AcDbCircle
 10
244.7174145569941
 20
203.8394932540462
 30
0.0
 40
5.25
100
AcDbArc
 50
260.0
 51
170.0
  0
LINE
  5
1612
102
{ACAD_REACTORS
330
176E
330
1794
102
}
330
1F
100
AcDbEntity
  8
AM_7
  6
AM_ISO08W050x2
100
AcDbLine
 10
244.7174145569941
 20
211.0894932540462
 30
0.0
 11
244.7174145569941
 21
196.5894932540462
 31
0.0
  0
CIRCLE
  5
1613
330
1F
100
AcDbEntity
  8
AM_0
100
AcDbCircle
 10
244.7174145569941
 20
203.8394932540462
 30
0.0
 40
4.283
  0
LINE
  5
1614
102
{ACAD_REACTORS
330
17BA
102
}
330
1F
100
AcDbEntity
  8
AM_7
  6
AM_ISO08W050x2
100
AcDbLine
 10
237.4674145569941
 20
203.8394932540462
 30
0.0
 11
251.9674145569941
 21
203.8394932540462
 31
0.0
  0
LINE
  5
168C
102
{ACAD_REACTORS
330
17E0
102
}
330
1F
100
AcDbEntity
  8
AM_7
  6
AM_ISO08W050x2
100
AcDbLine
 10
234.2174145569941
 20
147.8394932540462
 30
0.0
 11
241.7174145569941
 21
147.8394932540462
 31
0.0
1001
GENIUS_GENOREF_13
1005
1690
  0
LINE
  5
168D
330
1F
100
AcDbEntity
  8
AM_7
  6
AM_ISO08W050x2
100
AcDbLine
 10
234.2174145569941
 20
147.8394932540462
 30
0.0
 11
234.2174145569941
 21
155.3394932540462
 31
0.0
1001
GENIUS_GENOREF_13
1005
1690
  0
LINE
  5
168E
330
1F
100
AcDbEntity
  8
AM_7
  6
AM_ISO08W050x2
100
AcDbLine
 10
234.2174145569941
 20
147.8394932540462
 30
0.0
 11
226.7174145569941
 21
147.8394932540462
 31
0.0
1001
GENIUS_GENOREF_13
1005
1690
  0
LINE
  5
168F
102
{ACAD_REACTORS
330
16B6
102
}
330
1F
100
AcDbEntity
  8
AM_7
  6
AM_ISO08W050x2
100
AcDbLine
 10
234.2174145569941
 20
147.8394932540462
 30
0.0
 11
234.2174145569941
 21
140.3394932540462
 31
0.0
1001
GENIUS_GENOREF_13
1005
1690
  0
POINT
  5
1690
330
1F
100
AcDbEntity
  8
0
 60
     1
100
AcDbPoint
 10
0.0
 20
0.0
 30
0.0
1001
GENIUS_GENOLIS_13
1002
{
1000
ENT
1005
168F
1005
168E
1005
168D
1005
168C
1002
}
1001
GENIUS_GENOENT_13
1002
{
1000
MYREF
1005
1690
1002
}
1002
{
1000
GRP
1005
0
1002
}
1001
GENIUS_GENODEF_13
1002
{
1000
HIER
1070
    10
1002
}
1002
{
1000
MANEDIT
1070
     0
1002
}
1002
{
1000
NOSEL
1070
     0
1002
}
1002
{
1000
BEHIND
1070
     0
1002
}
1002
{
1000
OTHER
1070
     0
1002
}
1002
{
1000
REACTOR
1002
}
1001
GENIUS_GENOBJ-N-CRS_13
1002
{
1000
OWNER
1000
GEN
1002
}
  0
CIRCLE
  5
1692
330
1F
100
AcDbEntity
  8
1
100
AcDbCircle
 10
234.2174145569941
 20
213.8394932540462
 30
0.0
 40
5.5
  0
CIRCLE
  5
1693
330
1F
100
AcDbEntity
  8
1
100
AcDbCircle
 10
234.2174145569941
 20
213.8394932540462
 30
0.0
 40
3.299999999999999
  0
LINE
  5
1694
102
{ACAD_REACTORS
330
17E0
102
}
330
1F
100
AcDbEntity
  8
AM_7
  6
AM_ISO08W050x2
100
AcDbLine
 10
234.2174145569941
 20
213.8394932540462
 30
0.0
 11
241.7174145569941
 21
213.8394932540462
 31
0.0
1001
GENIUS_GENOREF_13
1005
1698
  0
LINE
  5
1695
330
1F
100
AcDbEntity
  8
AM_7
  6
AM_ISO08W050x2
100
AcDbLine
 10
234.2174145569941
 20
213.8394932540462
 30
0.0
 11
234.2174145569941
 21
221.3394932540463
 31
0.0
1001
GENIUS_GENOREF_13
1005
1698
  0
LINE
  5
1696
330
1F
100
AcDbEntity
  8
AM_7
  6
AM_ISO08W050x2
100
AcDbLine
 10
234.2174145569941
 20
213.8394932540462
 30
0.0
 11
226.7174145569941
 21
213.8394932540462
 31
0.0
1001
GENIUS_GENOREF_13
1005
1698
  0
LINE
  5
1697
330
1F
100
AcDbEntity
  8
AM_7
  6
AM_ISO08W050x2
100
AcDbLine
 10
234.2174145569941
 20
213.8394932540462
 30
0.0
 11
234.2174145569941
 21
206.3394932540463
 31
0.0
1001
GENIUS_GENOREF_13
1005
1698
  0
POINT
  5
1698
330
1F
100
AcDbEntity
  8
0
 60
     1
100
AcDbPoint
 10
0.0
 20
66.0
 30
0.0
1001
GENIUS_GENOLIS_13
1002
{
1000
ENT
1005
1697
1005
1696
1005
1695
1005
1694
1002
}
1001
GENIUS_GENOENT_13
1002
{
1000
MYREF
1005
1698
1002
}
1002
{
1000
GRP
1005
0
1002
}
1001
GENIUS_GENODEF_13
1002
{
1000
HIER
1070
    10
1002
}
1002
{
1000
MANEDIT
1070
     0
1002
}
1002
{
1000
NOSEL
1070
     0
1002
}
1002
{
1000
BEHIND
1070
     0
1002
}
1002
{
1000
OTHER
1070
     0
1002
}
1002
{
1000
REACTOR
1002
}
1001
GENIUS_GENOBJ-N-CRS_13
1002
{
1000
OWNER
1000
GEN
1002
}
  0
DIMENSION
  5
16A8
102
{ACAD_XDICTIONARY
360
16B5
102
}
102
{ACAD_REACTORS
330
16B6
102
}
330
1F
100
AcDbEntity
  8
AM_5
100
AcDbDimension
  2
*D9
 10
234.2174145569941
 20
118.8394932540463
 30
0.0
 11
244.2174145569941
 21
121.3894932540463
 31
0.0
 70
    32
 71
     5
 42
20.0
  3
AM_ISO$0
100
AcDbAlignedDimension
 13
254.2174145569941
 23
130.8394932540462
 33
0.0
 14
234.2174145569941
 24
140.3394932540462
 34
0.0
 50
0.0000000000001018
100
AcDbRotatedDimension
1001
ACAD
1000
DSTYLE
1002
{
1070
    40
1040
1.0
1070
   144
1040
1.0
1070
   272
1070
     8
1002
}
  0
DIMENSION
  5
16CE
102
{ACAD_XDICTIONARY
360
16DB
102
}
102
{ACAD_REACTORS
330
16DC
102
}
330
1F
100
AcDbEntity
  8
AM_5
100
AcDbDimension
  2
*D10
 10
195.2174145569941
 20
110.8394932540462
 30
0.0
 11
224.7174145569941
 21
113.3894932540462
 31
0.0
 70
    32
 71
     5
 42
59.0
  3
AM_ISO$0
100
AcDbAlignedDimension
 13
254.2174145569941
 23
130.8394932540462
 33
0.0
 14
195.2174145569941
 24
130.8394932540462
 34
0.0
 50
0.0000000000001018
100
AcDbRotatedDimension
1001
ACAD
1000
DSTYLE
1002
{
1070
    40
1040
1.0
1070
   144
1040
1.0
1070
   272
1070
     8
1002
}
  0
LINE
  5
1744
330
1F
100
AcDbEntity
  8
AM_7
100
AcDbLine
 10
191.217414556994
 20
180.8394932540462
 30
0.0
 11
257.9474312277241
 21
180.8394932540462
 31
0.0
1001
GENIUS_GENODEF_13
1002
{
1000
HIER
1070
     0
1002
}
1002
{
1000
MANEDIT
1070
     0
1002
}
1002
{
1000
NOSEL
1070
     0
1002
}
1002
{
1000
BEHIND
1070
     0
1002
}
1002
{
1000
OTHER
1070
     0
1002
}
1002
{
1000
REACTOR
1002
}
1001
GENIUS_GENOBJ-N-CEN_13
1002
{
1000
OWNER
1000
GEN
1002
}
1001
GENIUS_GENCEN_19
1002
{
1040
2.0
1002
}
  0
ARC
  5
174D
330
1F
100
AcDbEntity
  8
AM_4
100
AcDbCircle
 10
223.2174145569941
 20
157.8394932540462
 30
0.0
 40
5.25
100
AcDbArc
 50
260.0
 51
170.0
  0
LINE
  5
174E
102
{ACAD_REACTORS
330
1794
102
}
330
1F
100
AcDbEntity
  8
AM_7
  6
AM_ISO08W050x2
100
AcDbLine
 10
223.2174145569941
 20
165.0894932540462
 30
0.0
 11
223.2174145569941
 21
150.5894932540462
 31
0.0
  0
CIRCLE
  5
174F
330
1F
100
AcDbEntity
  8
AM_0
100
AcDbCircle
 10
223.2174145569941
 20
157.8394932540462
 30
0.0
 40
4.283
  0
LINE
  5
1750
102
{ACAD_REACTORS
330
17BA
102
}
330
1F
100
AcDbEntity
  8
AM_7
  6
AM_ISO08W050x2
100
AcDbLine
 10
215.9674145569941
 20
157.8394932540462
 30
0.0
 11
230.4674145569941
 21
157.8394932540462
 31
0.0
  0
DIMENSION
  5
1760
102
{ACAD_XDICTIONARY
360
176D
102
}
102
{ACAD_REACTORS
330
176E
102
}
330
1F
100
AcDbEntity
  8
AM_5
100
AcDbDimension
  2
*D11
 10
244.7174145569941
 20
242.8394932540462
 30
0.0
 11
249.4674145569941
 21
245.3894932540462
 31
0.0
 70
    32
 71
     5
 42
9.5
  3
AM_ISO$0
100
AcDbAlignedDimension
 13
254.2174145569941
 23
230.8394932540462
 33
0.0
 14
244.7174145569941
 24
211.0894932540462
 34
0.0
100
AcDbRotatedDimension
1001
ACAD
1000
DSTYLE
1002
{
1070
    40
1040
1.0
1070
   144
1040
1.0
1070
   272
1070
     8
1002
}
  0
DIMENSION
  5
1786
102
{ACAD_XDICTIONARY
360
1793
102
}
102
{ACAD_REACTORS
330
1794
102
}
330
1F
100
AcDbEntity
  8
AM_5
100
AcDbDimension
  2
*D12
 10
223.2174145569941
 20
242.8394932540462
 30
0.0
 11
233.9674145569941
 21
245.3894932540462
 31
0.0
 70
    32
 71
     5
 42
21.5
  3
AM_ISO$0
100
AcDbAlignedDimension
 13
244.7174145569941
 23
211.0894932540462
 33
0.0
 14
223.2174145569941
 24
165.0894932540462
 34
0.0
100
AcDbRotatedDimension
1001
ACAD
1000
DSTYLE
1002
{
1070
    40
1040
1.0
1070
   144
1040
1.0
1070
   272
1070
     8
1002
}
  0
DIMENSION
  5
17AC
102
{ACAD_XDICTIONARY
360
17B9
102
}
102
{ACAD_REACTORS
330
17BA
102
}
330
1F
100
AcDbEntity
  8
AM_5
100
AcDbDimension
  2
*D13
 10
266.2174145569941
 20
203.8394932540462
 30
0.0
 11
263.667414556994
 21
180.8394932540462
 31
0.0
 70
    32
 71
     5
 42
46.0
  3
AM_ISO$0
100
AcDbAlignedDimension
 13
230.4674145569941
 23
157.8394932540462
 33
0.0
 14
251.9674145569941
 24
203.8394932540462
 34
0.0
 50
90.0
100
AcDbRotatedDimension
1001
ACAD
1000
DSTYLE
1002
{
1070
    40
1040
1.0
1070
   144
1040
1.0
1070
   272
1070
     8
1002
}
  0
DIMENSION
  5
17D2
102
{ACAD_XDICTIONARY
360
17DF
102
}
102
{ACAD_REACTORS
330
17E0
102
}
330
1F
100
AcDbEntity
  8
AM_5
100
AcDbDimension
  2
*D14
 10
274.2174145569941
 20
213.8394932540462
 30
0.0
 11
271.667414556994
 21
180.8394932540463
 31
0.0
 70
    32
 71
     5
 42
66.0
  3
AM_ISO$0
100
AcDbAlignedDimension
 13
241.7174145569941
 23
147.8394932540462
 33
0.0
 14
241.7174145569941
 24
213.8394932540462
 34
0.0
 50
90.0
100
AcDbRotatedDimension
1001
ACAD
1000
DSTYLE
1002
{
1070
    40
1040
1.0
1070
   144
1040
1.0
1070
   272
1070
     8
1002
}
  0
INSERT
  5
17ED
330
1F
100
AcDbEntity
  8
AM_5
100
AcDbBlockReference
  2
*S16
 10
0.0
 20
0.0
 30
0.0
  0
ARC
  5
18A1
330
1F
100
AcDbEntity
  8
AM_4
100
AcDbCircle
 10
321.9119219933589
 20
198.0943034929687
 30
0.0
 40
3.0
100
AcDbArc
 50
260.0
 51
170.0
  0
CIRCLE
  5
18A2
330
1F
100
AcDbEntity
  8
AM_0
100
AcDbCircle
 10
321.9119219933589
 20
198.0943034929687
 30
0.0
 40
2.45873412263477
  0
LINE
  5
18A3
330
1F
100
AcDbEntity
  8
AM_7
  6
AM_ISO08W050x2
100
AcDbLine
 10
316.9119219933589
 20
198.0943034929687
 30
0.0
 11
326.9119219933589
 21
198.0943034929687
 31
0.0
  0
LINE
  5
18A4
330
1F
100
AcDbEntity
  8
AM_7
  6
AM_ISO08W050x2
100
AcDbLine
 10
321.9119219933589
 20
193.0943034929687
 30
0.0
 11
321.9119219933589
 21
203.0943034929687
 31
0.0
  0
ARC
  5
18A5
330
1F
100
AcDbEntity
  8
AM_4
100
AcDbCircle
 10
336.019744079629
 20
203.2561001929563
 30
0.0
 40
3.0
100
AcDbArc
 50
260.0
 51
170.0
  0
CIRCLE
  5
18A6
330
1F
100
AcDbEntity
  8
AM_0
100
AcDbCircle
 10
336.019744079629
 20
203.2561001929563
 30
0.0
 40
2.45873412263477
  0
LINE
  5
18A7
330
1F
100
AcDbEntity
  8
AM_7
  6
AM_ISO08W050x2
100
AcDbLine
 10
331.0197440796289
 20
203.2561001929563
 30
0.0
 11
341.0197440796289
 21
203.2561001929563
 31
0.0
  0
LINE
  5
18A8
330
1F
100
AcDbEntity
  8
AM_7
  6
AM_ISO08W050x2
100
AcDbLine
 10
336.019744079629
 20
198.2561001929563
 30
0.0
 11
336.019744079629
 21
208.2561001929563
 31
0.0
  0
ARC
  5
18A9
330
1F
100
AcDbEntity
  8
AM_4
100
AcDbCircle
 10
316.2755350530558
 20
154.5520389120218
 30
0.0
 40
3.0
100
AcDbArc
 50
260.0
 51
170.0
  0
CIRCLE
  5
18AA
330
1F
100
AcDbEntity
  8
AM_0
100
AcDbCircle
 10
316.2755350530558
 20
154.5520389120218
 30
0.0
 40
2.45873412263477
  0
LINE
  5
18AB
330
1F
100
AcDbEntity
  8
AM_7
  6
AM_ISO08W050x2
100
AcDbLine
 10
311.2755350530558
 20
154.5520389120218
 30
0.0
 11
321.2755350530558
 21
154.5520389120218
 31
0.0
  0
LINE
  5
18AC
330
1F
100
AcDbEntity
  8
AM_7
  6
AM_ISO08W050x2
100
AcDbLine
 10
316.2755350530558
 20
149.5520389120217
 30
0.0
 11
316.2755350530558
 21
159.5520389120217
 31
0.0
  0
ARC
  5
18AD
330
1F
100
AcDbEntity
  8
AM_4
100
AcDbCircle
 10
333.8057012572861
 20
159.0698224169504
 30
0.0
 40
3.0
100
AcDbArc
 50
260.0
 51
170.0
  0
CIRCLE
  5
18AE
330
1F
100
AcDbEntity
  8
AM_0
100
AcDbCircle
 10
333.8057012572861
 20
159.0698224169504
 30
0.0
 40
2.45873412263477
  0
LINE
  5
18AF
330
1F
100
AcDbEntity
  8
AM_7
  6
AM_ISO08W050x2
100
AcDbLine
 10
328.805701257286
 20
159.0698224169504
 30
0.0
 11
338.805701257286
 21
159.0698224169504
 31
0.0
  0
LINE
  5
18B0
330
1F
100
AcDbEntity
  8
AM_7
  6
AM_ISO08W050x2
100
AcDbLine
 10
333.8057012572861
 20
154.0698224169504
 30
0.0
 11
333.8057012572861
 21
164.0698224169504
 31
0.0
  0
ARC
  5
1986
330
1F
100
AcDbEntity
  8
AM_4
100
AcDbCircle
 10
132.4057250597396
 20
224.8394932540462
 30
0.0
 40
3.0
100
AcDbArc
 50
260.0
 51
170.0
  0
CIRCLE
  5
1987
330
1F
100
AcDbEntity
  8
AM_0
100
AcDbCircle
 10
132.4057250597396
 20
224.8394932540462
 30
0.0
 40
2.45873412263477
  0
ARC
  5
1988
330
1F
100
AcDbEntity
  8
AM_4
100
AcDbCircle
 10
132.4057250597396
 20
204.8394932540462
 30
0.0
 40
3.0
100
AcDbArc
 50
260.0
 51
170.0
  0
CIRCLE
  5
1989
330
1F
100
AcDbEntity
  8
AM_0
100
AcDbCircle
 10
132.4057250597396
 20
204.8394932540462
 30
0.0
 40
2.45873412263477
  0
ARC
  5
198A
330
1F
100
AcDbEntity
  8
AM_4
100
AcDbCircle
 10
132.4057250597396
 20
156.8394932540462
 30
0.0
 40
3.0
100
AcDbArc
 50
260.0
 51
170.0
  0
CIRCLE
  5
198B
330
1F
100
AcDbEntity
  8
AM_0
100
AcDbCircle
 10
132.4057250597396
 20
156.8394932540462
 30
0.0
 40
2.45873412263477
  0
ARC
  5
198E
330
1F
100
AcDbEntity
  8
AM_4
100
AcDbCircle
 10
132.4057250597396
 20
136.8394932540462
 30
0.0
 40
3.0
100
AcDbArc
 50
260.0
 51
170.0
  0
CIRCLE
  5
198F
330
1F
100
AcDbEntity
  8
AM_0
100
AcDbCircle
 10
132.4057250597396
 20
136.8394932540462
 30
0.0
 40
2.45873412263477
  0
CIRCLE
  5
1990
330
1F
100
AcDbEntity
  8
1
100
AcDbCircle
 10
132.4057250597396
 20
146.8394932540462
 30
0.0
 40
3.0
  0
LINE
  5
1991
330
1F
100
AcDbEntity
  8
AM_7
  6
AM_ISO08W050x2
100
AcDbLine
 10
127.4057250597396
 20
224.8394932540462
 30
0.0
 11
137.4057250597396
 21
224.8394932540462
 31
0.0
  0
LINE
  5
1992
330
1F
100
AcDbEntity
  8
AM_7
  6
AM_ISO08W050x2
100
AcDbLine
 10
132.4057250597396
 20
219.8394932540463
 30
0.0
 11
132.4057250597396
 21
229.8394932540462
 31
0.0
  0
LINE
  5
1993
330
1F
100
AcDbEntity
  8
AM_7
  6
AM_ISO08W050x2
100
AcDbLine
 10
127.4057250597396
 20
204.8394932540462
 30
0.0
 11
137.4057250597396
 21
204.8394932540462
 31
0.0
  0
LINE
  5
1994
330
1F
100
AcDbEntity
  8
AM_7
  6
AM_ISO08W050x2
100
AcDbLine
 10
132.4057250597396
 20
199.8394932540462
 30
0.0
 11
132.4057250597396
 21
209.8394932540462
 31
0.0
  0
LINE
  5
1995
330
1F
100
AcDbEntity
  8
AM_7
  6
AM_ISO08W050x2
100
AcDbLine
 10
127.4057250597396
 20
156.8394932540462
 30
0.0
 11
137.4057250597396
 21
156.8394932540462
 31
0.0
  0
LINE
  5
1996
330
1F
100
AcDbEntity
  8
AM_7
  6
AM_ISO08W050x2
100
AcDbLine
 10
132.4057250597396
 20
151.8394932540462
 30
0.0
 11
132.4057250597396
 21
161.8394932540462
 31
0.0
  0
LINE
  5
1997
330
1F
100
AcDbEntity
  8
AM_7
  6
AM_ISO08W050x2
100
AcDbLine
 10
127.4057250597396
 20
136.8394932540462
 30
0.0
 11
137.4057250597396
 21
136.8394932540462
 31
0.0
  0
LINE
  5
1998
330
1F
100
AcDbEntity
  8
AM_7
  6
AM_ISO08W050x2
100
AcDbLine
 10
132.4057250597396
 20
131.8394932540462
 30
0.0
 11
132.4057250597396
 21
141.8394932540462
 31
0.0
  0
LINE
  5
19AA
330
1F
100
AcDbEntity
  8
AM_7
  6
AM_ISO08W050x2
100
AcDbLine
 10
327.0219952524169
 20
213.8394932540462
 30
0.0
 11
331.5219952524169
 21
213.8394932540462
 31
0.0
1001
GENIUS_GENOREF_13
1005
19AE
  0
LINE
  5
19AB
330
1F
100
AcDbEntity
  8
AM_7
  6
AM_ISO08W050x2
100
AcDbLine
 10
327.0219952524169
 20
213.8394932540462
 30
0.0
 11
327.0219952524169
 21
218.3394932540462
 31
0.0
1001
GENIUS_GENOREF_13
1005
19AE
  0
LINE
  5
19AC
330
1F
100
AcDbEntity
  8
AM_7
  6
AM_ISO08W050x2
100
AcDbLine
 10
327.0219952524169
 20
213.8394932540462
 30
0.0
 11
322.5219952524169
 21
213.8394932540462
 31
0.0
1001
GENIUS_GENOREF_13
1005
19AE
  0
LINE
  5
19AD
330
1F
100
AcDbEntity
  8
AM_7
  6
AM_ISO08W050x2
100
AcDbLine
 10
327.0219952524169
 20
213.8394932540462
 30
0.0
 11
327.0219952524169
 21
209.3394932540462
 31
0.0
1001
GENIUS_GENOREF_13
1005
19AE
  0
POINT
  5
19AE
330
1F
100
AcDbEntity
  8
0
 60
     1
100
AcDbPoint
 10
0.0
 20
0.0
 30
0.0
1001
GENIUS_GENODEF_13
1002
{
1000
HIER
1070
    10
1002
}
1002
{
1000
MANEDIT
1070
     0
1002
}
1002
{
1000
NOSEL
1070
     0
1002
}
1002
{
1000
BEHIND
1070
     0
1002
}
1002
{
1000
OTHER
1070
     0
1002
}
1002
{
1000
REACTOR
1002
}
1001
GENIUS_GENOENT_13
1002
{
1000
MYREF
1005
19AE
1002
}
1002
{
1000
GRP
1005
0
1002
}
1001
GENIUS_GENOBJ-N-CRS_13
1002
{
1000
OWNER
1000
GEN
1002
}
1001
GENIUS_GENOLIS_13
1002
{
1000
ENT
1005
19AD
1005
19AC
1005
19AB
1005
19AA
1002
}
  0
LINE
  5
19BC
330
1F
100
AcDbEntity
  8
AM_7
  6
AM_ISO08W050x2
100
AcDbLine
 10
327.0219952524169
 20
147.8394932540463
 30
0.0
 11
331.5219952524169
 21
147.8394932540463
 31
0.0
1001
GENIUS_GENOREF_13
1005
19C0
  0
LINE
  5
19BD
330
1F
100
AcDbEntity
  8
AM_7
  6
AM_ISO08W050x2
100
AcDbLine
 10
327.0219952524169
 20
147.8394932540463
 30
0.0
 11
327.0219952524169
 21
152.3394932540463
 31
0.0
1001
GENIUS_GENOREF_13
1005
19C0
  0
LINE
  5
19BE
330
1F
100
AcDbEntity
  8
AM_7
  6
AM_ISO08W050x2
100
AcDbLine
 10
327.0219952524169
 20
147.8394932540463
 30
0.0
 11
322.5219952524169
 21
147.8394932540463
 31
0.0
1001
GENIUS_GENOREF_13
1005
19C0
  0
LINE
  5
19BF
330
1F
100
AcDbEntity
  8
AM_7
  6
AM_ISO08W050x2
100
AcDbLine
 10
327.0219952524169
 20
147.8394932540463
 30
0.0
 11
327.0219952524169
 21
143.3394932540463
 31
0.0
1001
GENIUS_GENOREF_13
1005
19C0
  0
POINT
  5
19C0
330
1F
100
AcDbEntity
  8
0
 60
     1
100
AcDbPoint
 10
0.0
 20
0.0
 30
0.0
1001
GENIUS_GENOBJ-N-CRS_13
1002
{
1000
OWNER
1000
GEN
1002
}
1001
GENIUS_GENOLIS_13
1002
{
1000
ENT
1005
19BF
1005
19BE
1005
19BD
1005
19BC
1002
}
1001
GENIUS_GENODEF_13
1002
{
1000
HIER
1070
    10
1002
}
1002
{
1000
MANEDIT
1070
     0
1002
}
1002
{
1000
NOSEL
1070
     0
1002
}
1002
{
1000
BEHIND
1070
     0
1002
}
1002
{
1000
OTHER
1070
     0
1002
}
1002
{
1000
REACTOR
1002
}
1001
GENIUS_GENOENT_13
1002
{
1000
MYREF
1005
19C0
1002
}
1002
{
1000
GRP
1005
0
1002
}
  0
ENDSEC
  0
SECTION
  2
OBJECTS
  0
DICTIONARY
  5
C
330
0
100
AcDbDictionary
281
     1
  3
ACAD_COLOR
350
BE
  3
ACAD_GROUP
350
D
  3
ACAD_LAYOUT
350
1A
  3
ACAD_MATERIAL
350
BD
  3
ACAD_MLINESTYLE
350
17
  3
ACAD_PLOTSETTINGS
350
19
  3
ACAD_PLOTSTYLENAME
350
E
  3
ACAD_TABLESTYLE
350
11A
  3
ACDBHEADERROUNDTRIPXREC
350
1A0B
  3
AcDbVariableDictionary
350
94
  3
AcmDictionary
350
5B
  3
AMG
350
41
  3
AMGSNAPSETTINGS
350
1B8
  3
DWGPROPS
350
1A0A
  0
DICTIONARY
  5
3F9
330
2
100
AcDbDictionary
280
     1
281
     1
  3
ACAD_LAYERFILTERS
360
5B7
  3
ACAD_LAYERSTATES
360
1141
  3
ACLYDICTIONARY
360
5B6
  3
AMLAYER_GROUPCOLORS
360
108C
  0
DICTIONARY
  5
8F
330
1F
100
AcDbDictionary
280
     1
281
     1
  3
ACAD_SORTENTS
360
10C1
  0
DICTIONARY
  5
16B5
330
16A8
100
AcDbDictionary
280
     1
281
     1
  3
ACAD_DIMASSOC
360
16B6
  0
DICTIONARY
  5
16DB
330
16CE
100
AcDbDictionary
280
     1
281
     1
  3
ACAD_DIMASSOC
360
16DC
  0
DICTIONARY
  5
176D
330
1760
100
AcDbDictionary
280
     1
281
     1
  3
ACAD_DIMASSOC
360
176E
  0
DICTIONARY
  5
1793
330
1786
100
AcDbDictionary
280
     1
281
     1
  3
ACAD_DIMASSOC
360
1794
  0
DICTIONARY
  5
17B9
330
17AC
100
AcDbDictionary
280
     1
281
     1
  3
ACAD_DIMASSOC
360
17BA
  0
DICTIONARY
  5
17DF
330
17D2
100
AcDbDictionary
280
     1
281
     1
  3
ACAD_DIMASSOC
360
17E0
  0
DICTIONARY
  5
BE
102
{ACAD_REACTORS
330
C
102
}
330
C
100
AcDbDictionary
281
     1
  0
DICTIONARY
  5
D
102
{ACAD_REACTORS
330
C
102
}
330
C
100
AcDbDictionary
281
     1
  0
DICTIONARY
  5
1A
102
{ACAD_REACTORS
330
C
102
}
330
C
100
AcDbDictionary
281
     1
  3
Model
350
22
  3
配置1
350
1E
  3
配置2
350
26
  0
DICTIONARY
  5
BD
102
{ACAD_REACTORS
330
C
102
}
330
C
100
AcDbDictionary
281
     1
  0
DICTIONARY
  5
17
102
{ACAD_REACTORS
330
C
102
}
330
C
100
AcDbDictionary
281
     1
  3
Standard
350
18
  0
DICTIONARY
  5
19
102
{ACAD_REACTORS
330
C
102
}
330
C
100
AcDbDictionary
281
     1
  0
ACDBDICTIONARYWDFLT
  5
E
102
{ACAD_REACTORS
330
C
102
}
330
C
100
AcDbDictionary
281
     1
  3
Normal
350
F
100
AcDbDictionaryWithDefault
340
F
  0
DICTIONARY
  5
11A
102
{ACAD_REACTORS
330
C
102
}
330
C
100
AcDbDictionary
281
     1
  3
Standard
350
11B
  0
DICTIONARY
  5
1A0B
102
{ACAD_REACTORS
330
C
102
}
330
C
100
AcDbDictionary
281
     1
  0
DICTIONARY
  5
94
102
{ACAD_REACTORS
330
C
102
}
330
C
100
AcDbDictionary
281
     1
  3
CTABLESTYLE
350
138
  3
DIMASSOC
350
96
  3
INDEXCTL
350
95
  3
PROJECTNAME
350
1A08
  0
DICTIONARY
  5
5B
102
{ACAD_REACTORS
330
C
102
}
330
C
100
AcDbDictionary
281
     1
  3
AcmBOM
350
1B5
  3
AcmStdDictionary
350
61
  3
AMDTSECTSYM_ARROWCOLOR
350
123
  0
DICTIONARY
  5
41
102
{ACAD_REACTORS
330
C
102
}
330
C
100
AcDbDictionary
281
     1
  0
DICTIONARY
  5
1B8
102
{ACAD_REACTORS
330
C
102
}
330
C
100
AcDbDictionary
281
     1
  0
XRECORD
  5
1A0A
102
{ACAD_REACTORS
330
C
102
}
330
C
100
AcDbXrecord
280
     1
  1
DWGPROPS COOKIE
  2

  3

  4

  6

  7

  8

  9

300
AmdtFileType=84
301
=
302
=
303
=
304
=
305
=
306
=
307
=
308
=
309
=
 40
0.0693495023148148
 41
2454258.477603437
 42
2454258.57666485
  1

 90
        1
  0
DICTIONARY
  5
5B7
102
{ACAD_REACTORS
330
3F9
102
}
330
3F9
100
AcDbDictionary
281
     1
  0
DICTIONARY
  5
1141
102
{ACAD_REACTORS
330
3F9
102
}
330
3F9
100
AcDbDictionary
281
     1
  0
DICTIONARY
  5
5B6
102
{ACAD_REACTORS
330
3F9
102
}
330
3F9
100
AcDbDictionary
281
     1
1001
ACAD
1000
<All
  0
DICTIONARY
  5
108C
102
{ACAD_REACTORS
330
3F9
102
}
330
3F9
100
AcDbDictionary
280
     1
281
     1
  0
SORTENTSTABLE
  5
10C1
102
{ACAD_REACTORS
330
8F
102
}
330
8F
100
AcDbSortentsTable
330
1F
331
18AA
  5
18AA
331
E84
  5
E84
331
13AA
  5
13AA
331
11F5
  5
11F5
331
1234
  5
1234
331
1428
  5
1428
331
1244
  5
1244
331
13B2
  5
13B2
331
168F
  5
168F
331
174E
  5
174E
331
1430
  5
1430
331
13BA
  5
13BA
331
13F1
  5
13F1
331
1697
  5
1697
331
1205
  5
1205
331
137B
  5
137B
331
1438
  5
1438
331
1383
  5
1383
331
13C2
  5
13C2
331
125C
  5
125C
331
18A3
  5
18A3
331
11E2
  5
11E2
331
1401
  5
1401
331
1264
  5
1264
331
11EA
  5
11EA
331
138B
  5
138B
331
1409
  5
1409
331
121D
  5
121D
331
126C
  5
126C
331
1393
  5
1393
331
1786
  5
1786
331
139B
  5
139B
331
13DA
  5
13DA
331
1225
  5
1225
331
1411
  5
1411
331
1419
  5
1419
331
13A3
  5
13A3
331
122D
  5
122D
331
18AB
  5
18AB
331
1421
  5
1421
331
1235
  5
1235
331
13AB
  5
13AB
331
11F6
  5
11F6
331
174F
  5
174F
331
1429
  5
1429
331
1374
  5
1374
331
1245
  5
1245
331
13B3
  5
13B3
331
11FE
  5
11FE
331
13BB
  5
13BB
331
13F2
  5
13F2
331
1206
  5
1206
331
137C
  5
137C
331
1431
  5
1431
331
13C3
  5
13C3
331
120E
  5
120E
331
125D
  5
125D
331
1384
  5
1384
331
16A8
  5
16A8
331
18A4
  5
18A4
331
11E3
  5
11E3
331
1402
  5
1402
331
1216
  5
1216
331
1265
  5
1265
331
11EB
  5
11EB
331
138C
  5
138C
331
1394
  5
1394
331
E5E
  5
E5E
331
121E
  5
121E
331
126D
  5
126D
331
140A
  5
140A
331
13DB
  5
13DB
331
1412
  5
1412
331
1226
  5
1226
331
139C
  5
139C
331
1611
  5
1611
331
141A
  5
141A
331
122E
  5
122E
331
13A4
  5
13A4
331
18AC
  5
18AC
331
13AC
  5
13AC
331
136D
  5
136D
331
142A
  5
142A
331
13B4
  5
13B4
331
1246
  5
1246
331
11FF
  5
11FF
331
1375
  5
1375
331
1750
  5
1750
331
1432
  5
1432
331
137D
  5
137D
331
13BC
  5
13BC
331
1207
  5
1207
331
1760
  5
1760
331
1385
  5
1385
331
13C4
  5
13C4
331
125E
  5
125E
331
17ED
  5
17ED
331
18A5
  5
18A5
331
11E4
  5
11E4
331
1403
  5
1403
331
1217
  5
1217
331
1266
  5
1266
331
11EC
  5
11EC
331
EF6
  5
EF6
331
138D
  5
138D
331
13D4
  5
13D4
331
121F
  5
121F
331
126E
  5
126E
331
140B
  5
140B
331
1612
  5
1612
331
139D
  5
139D
331
13DC
  5
13DC
331
1227
  5
1227
331
1413
  5
1413
331
141B
  5
141B
331
122F
  5
122F
331
18AD
  5
18AD
331
11F0
  5
11F0
331
1423
  5
1423
331
136E
  5
136E
331
13AD
  5
13AD
331
13E4
  5
13E4
331
1692
  5
1692
331
13EC
  5
13EC
331
142B
  5
142B
331
1376
  5
1376
331
1247
  5
1247
331
13B5
  5
13B5
331
13BD
  5
13BD
331
1208
  5
1208
331
137E
  5
137E
331
1433
  5
1433
331
13C5
  5
13C5
331
125F
  5
125F
331
1386
  5
1386
331
18A6
  5
18A6
331
11E5
  5
11E5
331
138E
  5
138E
331
13CD
  5
13CD
331
1218
  5
1218
331
1267
  5
1267
331
1404
  5
1404
331
11ED
  5
11ED
331
1396
  5
1396
331
13D5
  5
13D5
331
1220
  5
1220
331
126F
  5
126F
331
140C
  5
140C
331
1613
  5
1613
331
1228
  5
1228
331
1414
  5
1414
331
141C
  5
141C
331
18AE
  5
18AE
331
11F1
  5
11F1
331
1230
  5
1230
331
13AE
  5
13AE
331
136F
  5
136F
331
142C
  5
142C
331
13B6
  5
13B6
331
1693
  5
1693
331
1248
  5
1248
331
1377
  5
1377
331
1434
  5
1434
331
137F
  5
137F
331
13BE
  5
13BE
331
1209
  5
1209
331
1258
  5
1258
331
1387
  5
1387
331
13C6
  5
13C6
331
ED0
  5
ED0
331
18A7
  5
18A7
331
1260
  5
1260
331
11E6
  5
11E6
331
13CE
  5
13CE
331
1268
  5
1268
331
11EE
  5
11EE
331
138F
  5
138F
331
1444
  5
1444
331
13D6
  5
13D6
331
140D
  5
140D
331
1221
  5
1221
331
1270
  5
1270
331
1397
  5
1397
331
1614
  5
1614
331
139F
  5
139F
331
1229
  5
1229
331
1415
  5
1415
331
18AF
  5
18AF
331
1231
  5
1231
331
11F2
  5
11F2
331
1425
  5
1425
331
1370
  5
1370
331
1241
  5
1241
331
13AF
  5
13AF
331
11FA
  5
11FA
331
168C
  5
168C
331
1694
  5
1694
331
13EE
  5
13EE
331
142D
  5
142D
331
1378
  5
1378
331
1249
  5
1249
331
13B7
  5
13B7
331
13BF
  5
13BF
331
120A
  5
120A
331
1259
  5
1259
331
1380
  5
1380
331
1435
  5
1435
331
11DF
  5
11DF
331
1212
  5
1212
331
1261
  5
1261
331
11E7
  5
11E7
331
1388
  5
1388
331
1390
  5
1390
331
13CF
  5
13CF
331
1269
  5
1269
331
1406
  5
1406
331
11EF
  5
11EF
331
140E
  5
140E
331
1271
  5
1271
331
1398
  5
1398
331
1222
  5
1222
331
13DF
  5
13DF
331
122A
  5
122A
331
1416
  5
1416
331
1744
  5
1744
331
141E
  5
141E
331
18A8
  5
18A8
331
18B0
  5
18B0
331
13A8
  5
13A8
331
11F3
  5
11F3
331
1232
  5
1232
331
168D
  5
168D
331
13B0
  5
13B0
331
13E7
  5
13E7
331
1242
  5
1242
331
1371
  5
1371
331
1426
  5
1426
331
142E
  5
142E
331
13B8
  5
13B8
331
13EF
  5
13EF
331
1695
  5
1695
331
124A
  5
124A
331
1203
  5
1203
331
1379
  5
1379
331
1436
  5
1436
331
1381
  5
1381
331
13C0
  5
13C0
331
13FF
  5
13FF
331
18A1
  5
18A1
331
11E0
  5
11E0
331
1262
  5
1262
331
11E8
  5
11E8
331
1389
  5
1389
331
1407
  5
1407
331
126A
  5
126A
331
1391
  5
1391
331
1446
  5
1446
331
1399
  5
1399
331
13D8
  5
13D8
331
140F
  5
140F
331
1223
  5
1223
331
1272
  5
1272
331
1417
  5
1417
331
122B
  5
122B
331
17AC
  5
17AC
331
141F
  5
141F
331
18A9
  5
18A9
331
17D2
  5
17D2
331
1233
  5
1233
331
13A9
  5
13A9
331
11F4
  5
11F4
331
168E
  5
168E
331
174D
  5
174D
331
1427
  5
1427
331
1243
  5
1243
331
13B1
  5
13B1
331
13E8
  5
13E8
331
1696
  5
1696
331
13B9
  5
13B9
331
13F0
  5
13F0
331
1204
  5
1204
331
137A
  5
137A
331
142F
  5
142F
331
13C1
  5
13C1
331
1382
  5
1382
331
1437
  5
1437
331
18A2
  5
18A2
331
11E1
  5
11E1
331
13C9
  5
13C9
331
1400
  5
1400
331
1263
  5
1263
331
11E9
  5
11E9
331
138A
  5
138A
331
121C
  5
121C
331
126B
  5
126B
331
1410
  5
1410
331
16CE
  5
16CE
331
1224
  5
1224
331
1273
  5
1273
331
139A
  5
139A
331
13D9
  5
13D9
331
122C
  5
122C
331
1418
  5
1418
  0
DIMASSOC
  5
16B6
102
{ACAD_REACTORS
330
16B5
102
}
330
16B5
100
AcDbDimAssoc
330
16A8
 90
        3
 70
     0
 71
     0
  1
AcDbOsnapPointRef
 72
    13
331
1396
 73
     0
 91
        0
 40
0.0
 10
0.0
 20
0.0
 30
2.000000000000000E+50
 75
     0
  1
AcDbOsnapPointRef
 72
     1
331
168F
 73
     0
 91
        0
 40
0.0
 10
0.0
 20
0.0
 30
2.000000000000000E+50
 75
     0
  0
DIMASSOC
  5
16DC
102
{ACAD_REACTORS
330
16DB
102
}
330
16DB
100
AcDbDimAssoc
330
16CE
 90
        3
 70
     0
 71
     0
  1
AcDbOsnapPointRef
 72
    13
331
1396
 73
     0
 91
        0
 40
0.0
 10
0.0
 20
0.0
 30
2.000000000000000E+50
 75
     0
  1
AcDbOsnapPointRef
 72
     1
331
13C9
 73
     0
 91
        0
 40
0.0
 10
0.0
 20
0.0
 30
2.000000000000000E+50
 75
     0
  0
DIMASSOC
  5
176E
102
{ACAD_REACTORS
330
176D
102
}
330
176D
100
AcDbDimAssoc
330
1760
 90
        3
 70
     0
 71
     0
  1
AcDbOsnapPointRef
 72
    13
331
13DF
 73
     0
 91
        0
 40
0.0
 10
0.0
 20
0.0
 30
2.000000000000000E+50
 75
     0
  1
AcDbOsnapPointRef
 72
    13
331
1612
 73
     0
 91
        0
 40
0.0
 10
0.0
 20
0.0
 30
2.000000000000000E+50
 75
     0
  0
DIMASSOC
  5
1794
102
{ACAD_REACTORS
330
1793
102
}
330
1793
100
AcDbDimAssoc
330
1786
 90
        3
 70
     0
 71
     0
  1
AcDbOsnapPointRef
 72
    13
331
1612
 73
     0
 91
        0
 40
0.0
 10
0.0
 20
0.0
 30
2.000000000000000E+50
 75
     0
  1
AcDbOsnapPointRef
 72
    13
331
174E
 73
     0
 91
        0
 40
0.0
 10
0.0
 20
0.0
 30
2.000000000000000E+50
 75
     0
  0
DIMASSOC
  5
17BA
102
{ACAD_REACTORS
330
17B9
102
}
330
17B9
100
AcDbDimAssoc
330
17AC
 90
        3
 70
     0
 71
     0
  1
AcDbOsnapPointRef
 72
     1
331
1750
 73
     0
 91
        0
 40
0.0
 10
0.0
 20
0.0
 30
2.000000000000000E+50
 75
     0
  1
AcDbOsnapPointRef
 72
     1
331
1614
 73
     0
 91
        0
 40
0.0
 10
0.0
 20
0.0
 30
2.000000000000000E+50
 75
     0
  0
DIMASSOC
  5
17E0
102
{ACAD_REACTORS
330
17DF
102
}
330
17DF
100
AcDbDimAssoc
330
17D2
 90
        3
 70
     0
 71
     0
  1
AcDbOsnapPointRef
 72
     1
331
168C
 73
     0
 91
        0
 40
0.0
 10
0.0
 20
0.0
 30
2.000000000000000E+50
 75
     0
  1
AcDbOsnapPointRef
 72
     1
331
1694
 73
     0
 91
        0
 40
0.0
 10
0.0
 20
0.0
 30
2.000000000000000E+50
 75
     0
  0
LAYOUT
  5
22
102
{ACAD_XDICTIONARY
360
1A0E
102
}
102
{ACAD_REACTORS
330
1A
102
}
330
1A
100
AcDbPlotSettings
  1

  2
\\RD\EPSON Stylus C63 Series單色
  4
A4
  6

 40
3.757083177566528
 41
3.757076978683471
 42
3.757080078125
 43
3.757080078125
 44
209.9733276367187
 45
296.9683227539062
 46
0.0
 47
0.0
 48
0.0
 49
0.0
140
0.0
141
0.0
142
1.0
143
0.3405120737814363
 70
 11952
 72
     1
 73
     0
 74
     0
  7
單色出圖.ctb
 75
     0
147
2.936753428137963
148
-2047.07469463503
149
-1261.649717473083
100
AcDbLayout
  1
Model
 70
     1
 71
     0
 10
0.0
 20
0.0
 11
12.0
 21
9.0
 12
0.0
 22
0.0
 32
0.0
 14
0.0
 24
0.0
 34
0.0
 15
0.0
 25
0.0
 35
0.0
146
0.0
 13
0.0
 23
0.0
 33
0.0
 16
1.0
 26
0.0
 36
0.0
 17
0.0
 27
1.0
 37
0.0
 76
     0
330
1F
1001
ACAD_PSEXT
1000
\\RD\EPSON Stylus C63 Series單色
1000
EPSON Stylus C63 Series
1000
\\RD
1000

1070
     0
  0
LAYOUT
  5
1E
102
{ACAD_XDICTIONARY
360
1A0C
102
}
102
{ACAD_REACTORS
330
1A
102
}
330
1A
100
AcDbPlotSettings
  1

  2

  4

  6

 40
0.0
 41
0.0
 42
0.0
 43
0.0
 44
0.0
 45
0.0
 46
0.0
 47
0.0
 48
0.0
 49
0.0
140
0.0
141
0.0
142
1.0
143
1.0
 70
   688
 72
     0
 73
     0
 74
     5
  7
單色出圖.ctb
 75
    16
147
1.0
148
0.0
149
0.0
100
AcDbLayout
  1
配置1
 70
     1
 71
     1
 10
0.0
 20
0.0
 11
420.0
 21
297.0
 12
0.0
 22
0.0
 32
0.0
 14
1.000000000000000E+20
 24
1.000000000000000E+20
 34
1.000000000000000E+20
 15
-1.000000000000000E+20
 25
-1.000000000000000E+20
 35
-1.000000000000000E+20
146
0.0
 13
0.0
 23
0.0
 33
0.0
 16
1.0
 26
0.0
 36
0.0
 17
0.0
 27
1.0
 37
0.0
 76
     0
330
1B
  0
LAYOUT
  5
26
102
{ACAD_XDICTIONARY
360
1A10
102
}
102
{ACAD_REACTORS
330
1A
102
}
330
1A
100
AcDbPlotSettings
  1

  2

  4

  6

 40
0.0
 41
0.0
 42
0.0
 43
0.0
 44
0.0
 45
0.0
 46
0.0
 47
0.0
 48
0.0
 49
0.0
140
0.0
141
0.0
142
1.0
143
1.0
 70
   688
 72
     0
 73
     0
 74
     5
  7
單色出圖.ctb
 75
    16
147
1.0
148
0.0
149
0.0
100
AcDbLayout
  1
配置2
 70
     1
 71
     2
 10
0.0
 20
0.0
 11
12.0
 21
9.0
 12
0.0
 22
0.0
 32
0.0
 14
0.0
 24
0.0
 34
0.0
 15
0.0
 25
0.0
 35
0.0
146
0.0
 13
0.0
 23
0.0
 33
0.0
 16
1.0
 26
0.0
 36
0.0
 17
0.0
 27
1.0
 37
0.0
 76
     0
330
23
  0
MLINESTYLE
  5
18
102
{ACAD_REACTORS
330
17
102
}
330
17
100
AcDbMlineStyle
  2
STANDARD
 70
     0
  3

 62
   256
 51
90.0
 52
90.0
 71
     2
 49
0.5
 62
   256
  6
BYLAYER
 49
-0.5
 62
   256
  6
BYLAYER
  0
ACDBPLACEHOLDER
  5
F
102
{ACAD_REACTORS
330
E
102
}
330
E
  0
TABLESTYLE
  5
11B
102
{ACAD_REACTORS
330
11A
102
}
330
11A
100
AcDbTableStyle
  3
Standard
 70
     0
 71
     0
 40
1.5
 41
1.5
280
     0
281
     0
  7
STANDARD
140
4.5
170
     2
 62
     0
 63
     7
283
     0
274
    -2
284
     1
 64
     0
275
    -2
285
     1
 65
     0
276
    -2
286
     1
 66
     0
277
    -2
287
     1
 67
     0
278
    -2
288
     1
 68
     0
279
    -2
289
     1
 69
     0
  7
STANDARD
140
6.0
170
     5
 62
     0
 63
     7
283
     0
274
    -2
284
     1
 64
     0
275
    -2
285
     1
 65
     0
276
    -2
286
     1
 66
     0
277
    -2
287
     1
 67
     0
278
    -2
288
     1
 68
     0
279
    -2
289
     1
 69
     0
  7
STANDARD
140
4.5
170
     5
 62
     0
 63
     7
283
     0
274
    -2
284
     1
 64
     0
275
    -2
285
     1
 65
     0
276
    -2
286
     1
 66
     0
277
    -2
287
     1
 67
     0
278
    -2
288
     1
 68
     0
279
    -2
289
     1
 69
     0
  0
DICTIONARYVAR
  5
138
102
{ACAD_REACTORS
330
94
102
}
330
94
100
DictionaryVariables
280
     0
  1
STANDARD
  0
DICTIONARYVAR
  5
96
102
{ACAD_REACTORS
330
94
102
}
330
94
100
DictionaryVariables
280
     0
  1
2
  0
DICTIONARYVAR
  5
95
102
{ACAD_REACTORS
330
94
102
}
330
94
100
DictionaryVariables
280
     0
  1
0
  0
DICTIONARYVAR
  5
1A08
102
{ACAD_REACTORS
330
94
102
}
330
94
100
DictionaryVariables
280
     0
  1

  0
DICTIONARY
  5
1B5
102
{ACAD_REACTORS
330
5B
102
}
330
5B
100
AcDbDictionary
281
     1
  0
DICTIONARY
  5
61
102
{ACAD_REACTORS
330
5B
102
}
330
5B
100
AcDbDictionary
281
     1
  0
XRECORD
  5
123
102
{ACAD_REACTORS
330
5B
102
}
330
5B
100
AcDbXrecord
280
     1
 90
-1023410169
  0
DICTIONARY
  5
1A0E
330
22
100
AcDbDictionary
280
     1
281
     1
  3
ACAD_XREC_ROUNDTRIP
360
1A0F
  0
DICTIONARY
  5
1A0C
330
1E
100
AcDbDictionary
280
     1
281
     1
  3
ACAD_XREC_ROUNDTRIP
360
1A0D
  0
DICTIONARY
  5
1A10
330
26
100
AcDbDictionary
280
     1
281
     1
  3
ACAD_XREC_ROUNDTRIP
360
1A11
  0
XRECORD
  5
1A0F
102
{ACAD_REACTORS
330
1A0E
102
}
330
1A0E
100
AcDbXrecord
280
     1
102
SHADEPLOT
 70
     0
102
SHADEPLOTRESLEVEL
 70
     2
102
SHADEPLOTCUSTOMDPI
 70
   300
  0
XRECORD
  5
1A0D
102
{ACAD_REACTORS
330
1A0C
102
}
330
1A0C
100
AcDbXrecord
280
     1
102
SHADEPLOT
 70
     0
102
SHADEPLOTRESLEVEL
 70
     2
102
SHADEPLOTCUSTOMDPI
 70
   300
  0
XRECORD
  5
1A11
102
{ACAD_REACTORS
330
1A10
102
}
330
1A10
100
AcDbXrecord
280
     1
102
SHADEPLOT
 70
     0
102
SHADEPLOTRESLEVEL
 70
     2
102
SHADEPLOTCUSTOMDPI
 70
   300
  0
ENDSEC
  0
EOF
