  0
SECTION
  2
HEADER
  9
$ACADVER
  1
AC1015
  9
$ACADMAINTVER
 70
    20
  9
$DWGCODEPAGE
  3
ANSI_950
  9
$INSBASE
 10
0.0
 20
0.0
 30
0.0
  9
$EXTMIN
 10
636.5888285060369
 20
35.41207054829066
 30
0.0
  9
$EXTMAX
 10
1463.180718702048
 20
567.0683229082528
 30
242.3567274613197
  9
$LIMMIN
 10
0.0
 20
0.0
  9
$LIMMAX
 10
420.0
 20
297.0
  9
$ORTHOMODE
 70
     0
  9
$REGENMODE
 70
     1
  9
$FILLMODE
 70
     1
  9
$QTEXTMODE
 70
     0
  9
$MIRRTEXT
 70
     1
  9
$LTSCALE
 40
1.0
  9
$ATTMODE
 70
     1
  9
$TEXTSIZE
 40
3.0
  9
$TRACEWID
 40
1.0
  9
$TEXTSTYLE
  7
STANDARD
  9
$CLAYER
  8
AM_REFDIM
  9
$CELTYPE
  6
ByLayer
  9
$CECOLOR
 62
   256
  9
$CELTSCALE
 40
1.0
  9
$DISPSILH
 70
     0
  9
$DIMSCALE
 40
1.0
  9
$DIMASZ
 40
3.5
  9
$DIMEXO
 40
1.0
  9
$DIMDLI
 40
12.0
  9
$DIMRND
 40
0.0
  9
$DIMDLE
 40
0.0
  9
$DIMEXE
 40
1.0
  9
$DIMTP
 40
0.1
  9
$DIMTM
 40
0.1
  9
$DIMTXT
 40
3.5
  9
$DIMCEN
 40
0.0
  9
$DIMTSZ
 40
0.0
  9
$DIMTOL
 70
     0
  9
$DIMLIM
 70
     0
  9
$DIMTIH
 70
     0
  9
$DIMTOH
 70
     0
  9
$DIMSE1
 70
     0
  9
$DIMSE2
 70
     0
  9
$DIMTAD
 70
     1
  9
$DIMZIN
 70
     8
  9
$DIMBLK
  1

  9
$DIMASO
 70
     1
  9
$DIMSHO
 70
     1
  9
$DIMPOST
  1

  9
$DIMAPOST
  1
"
  9
$DIMALT
 70
     0
  9
$DIMALTD
 70
     2
  9
$DIMALTF
 40
0.0393701
  9
$DIMLFAC
 40
1.0
  9
$DIMTOFL
 70
     1
  9
$DIMTVP
 40
0.0
  9
$DIMTIX
 70
     0
  9
$DIMSOXD
 70
     0
  9
$DIMSAH
 70
     0
  9
$DIMBLK1
  1

  9
$DIMBLK2
  1

  9
$DIMSTYLE
  2
AM_ISO
  9
$DIMCLRD
 70
   256
  9
$DIMCLRE
 70
   256
  9
$DIMCLRT
 70
   256
  9
$DIMTFAC
 40
0.6
  9
$DIMGAP
 40
1.0
  9
$DIMJUST
 70
     0
  9
$DIMSD1
 70
     0
  9
$DIMSD2
 70
     0
  9
$DIMTOLJ
 70
     0
  9
$DIMTZIN
 70
     8
  9
$DIMALTZ
 70
     0
  9
$DIMALTTZ
 70
     0
  9
$DIMUPT
 70
     0
  9
$DIMDEC
 70
     0
  9
$DIMTDEC
 70
     8
  9
$DIMALTU
 70
     2
  9
$DIMALTTD
 70
     2
  9
$DIMTXSTY
  7
STANDARD
  9
$DIMAUNIT
 70
     0
  9
$DIMADEC
 70
     0
  9
$DIMALTRND
 40
0.0
  9
$DIMAZIN
 70
     2
  9
$DIMDSEP
 70
    46
  9
$DIMATFIT
 70
     3
  9
$DIMFRAC
 70
     0
  9
$DIMLDRBLK
  1

  9
$DIMLUNIT
 70
     2
  9
$DIMLWD
 70
    -1
  9
$DIMLWE
 70
    -1
  9
$DIMTMOVE
 70
     0
  9
$LUNITS
 70
     2
  9
$LUPREC
 70
     2
  9
$SKETCHINC
 40
1.0
  9
$FILLETRAD
 40
2.5
  9
$AUNITS
 70
     0
  9
$AUPREC
 70
     0
  9
$MENU
  1
.
  9
$ELEVATION
 40
0.0
  9
$PELEVATION
 40
0.0
  9
$THICKNESS
 40
0.0
  9
$LIMCHECK
 70
     0
  9
$CHAMFERA
 40
0.2
  9
$CHAMFERB
 40
0.2
  9
$CHAMFERC
 40
20.0
  9
$CHAMFERD
 40
0.0
  9
$SKPOLY
 70
     0
  9
$TDCREATE
 40
2454422.344345151
  9
$TDUCREATE
 40
2454422.011011817
  9
$TDUPDATE
 40
2456140.357442663
  9
$TDUUPDATE
 40
2456140.024109329
  9
$TDINDWG
 40
1.1456009722
  9
$TDUSRTIMER
 40
1.1456009722
  9
$USRTIMER
 70
     1
  9
$ANGBASE
 50
0.0
  9
$ANGDIR
 70
     0
  9
$PDMODE
 70
     0
  9
$PDSIZE
 40
0.0
  9
$PLINEWID
 40
0.0
  9
$SPLFRAME
 70
     0
  9
$SPLINETYPE
 70
     6
  9
$SPLINESEGS
 70
     8
  9
$HANDSEED
  5
CF7B
  9
$SURFTAB1
 70
     6
  9
$SURFTAB2
 70
     6
  9
$SURFTYPE
 70
     6
  9
$SURFU
 70
     6
  9
$SURFV
 70
     6
  9
$UCSBASE
  2

  9
$UCSNAME
  2

  9
$UCSORG
 10
0.0
 20
0.0
 30
0.0
  9
$UCSXDIR
 10
1.0
 20
0.0
 30
0.0
  9
$UCSYDIR
 10
0.0
 20
1.0
 30
0.0
  9
$UCSORTHOREF
  2

  9
$UCSORTHOVIEW
 70
     0
  9
$UCSORGTOP
 10
0.0
 20
0.0
 30
0.0
  9
$UCSORGBOTTOM
 10
0.0
 20
0.0
 30
0.0
  9
$UCSORGLEFT
 10
0.0
 20
0.0
 30
0.0
  9
$UCSORGRIGHT
 10
0.0
 20
0.0
 30
0.0
  9
$UCSORGFRONT
 10
0.0
 20
0.0
 30
0.0
  9
$UCSORGBACK
 10
0.0
 20
0.0
 30
0.0
  9
$PUCSBASE
  2

  9
$PUCSNAME
  2

  9
$PUCSORG
 10
0.0
 20
0.0
 30
0.0
  9
$PUCSXDIR
 10
1.0
 20
0.0
 30
0.0
  9
$PUCSYDIR
 10
0.0
 20
1.0
 30
0.0
  9
$PUCSORTHOREF
  2

  9
$PUCSORTHOVIEW
 70
     0
  9
$PUCSORGTOP
 10
0.0
 20
0.0
 30
0.0
  9
$PUCSORGBOTTOM
 10
0.0
 20
0.0
 30
0.0
  9
$PUCSORGLEFT
 10
0.0
 20
0.0
 30
0.0
  9
$PUCSORGRIGHT
 10
0.0
 20
0.0
 30
0.0
  9
$PUCSORGFRONT
 10
0.0
 20
0.0
 30
0.0
  9
$PUCSORGBACK
 10
0.0
 20
0.0
 30
0.0
  9
$USERI1
 70
     0
  9
$USERI2
 70
     0
  9
$USERI3
 70
     0
  9
$USERI4
 70
     0
  9
$USERI5
 70
     0
  9
$USERR1
 40
0.0
  9
$USERR2
 40
0.0
  9
$USERR3
 40
0.0
  9
$USERR4
 40
0.0
  9
$USERR5
 40
0.0
  9
$WORLDVIEW
 70
     1
  9
$SHADEDGE
 70
     3
  9
$SHADEDIF
 70
    70
  9
$TILEMODE
 70
     1
  9
$MAXACTVP
 70
    64
  9
$PINSBASE
 10
0.0
 20
0.0
 30
0.0
  9
$PLIMCHECK
 70
     0
  9
$PEXTMIN
 10
1.000000000000000E+20
 20
1.000000000000000E+20
 30
1.000000000000000E+20
  9
$PEXTMAX
 10
-1.000000000000000E+20
 20
-1.000000000000000E+20
 30
-1.000000000000000E+20
  9
$PLIMMIN
 10
0.0
 20
0.0
  9
$PLIMMAX
 10
420.0
 20
297.0
  9
$UNITMODE
 70
     0
  9
$VISRETAIN
 70
     1
  9
$PLINEGEN
 70
     0
  9
$PSLTSCALE
 70
     1
  9
$TREEDEPTH
 70
  3020
  9
$CMLSTYLE
  2
Standard
  9
$CMLJUST
 70
     0
  9
$CMLSCALE
 40
20.0
  9
$PROXYGRAPHICS
 70
     1
  9
$MEASUREMENT
 70
     1
  9
$CELWEIGHT
370
    -1
  9
$ENDCAPS
280
     0
  9
$JOINSTYLE
280
     0
  9
$LWDISPLAY
290
     0
  9
$INSUNITS
 70
     4
  9
$HYPERLINKBASE
  1

  9
$STYLESHEET
  1
acad.ctb
  9
$XEDIT
290
     1
  9
$CEPSNTYPE
380
     0
  9
$PSTYLEMODE
290
     1
  9
$FINGERPRINTGUID
  2
{B705A112-77C7-4534-AADA-B7988B84DA3D}
  9
$VERSIONGUID
  2
{56C965A1-ED64-4EDA-9D60-D2C000FBC247}
  9
$EXTNAMES
290
     1
  9
$PSVPSCALE
 40
0.0
  9
$OLESTARTUP
290
     0
  0
ENDSEC
  0
SECTION
  2
CLASSES
  0
CLASS
  1
ACDBDICTIONARYWDFLT
  2
AcDbDictionaryWithDefault
  3
ObjectDBX Classes
 90
        0
280
     0
281
     0
  0
CLASS
  1
ACDBPLACEHOLDER
  2
AcDbPlaceHolder
  3
ObjectDBX Classes
 90
        0
280
     0
281
     0
  0
CLASS
  1
LAYOUT
  2
AcDbLayout
  3
ObjectDBX Classes
 90
        0
280
     0
281
     0
  0
CLASS
  1
ACME_DOCUMENT
  2
AcMeDbDoc
  3
AcMeServices
 90
        0
280
     0
281
     0
  0
CLASS
  1
AMGSETTINGSOBJ
  2
AmgSettingsObj
  3
"AcadM|Product Description: AutoCAD Mechanical 2000|Company: Autodesk"
 90
        0
280
     0
281
     0
  0
CLASS
  1
ACMESCOPE
  2
AcMeScope
  3
AcMeServices
 90
        0
280
     0
281
     0
  0
CLASS
  1
ACMECOMMANDHISTORY
  2
AcMeCommandHistory
  3
AcMeServices
 90
        0
280
     0
281
     0
  0
CLASS
  1
ACIMSYSVARMAN
  2
AcImSysVarManager
  3
AcMeServices
 90
        0
280
     0
281
     0
  0
CLASS
  1
ACIMREALSYSVAR
  2
AcImRealSysVar
  3
AcMeServices
 90
        0
280
     0
281
     0
  0
CLASS
  1
ACIMINTSYSVAR
  2
AcImIntSysVar
  3
AcMeServices
 90
        0
280
     0
281
     0
  0
CLASS
  1
ACMEDRAWINGMAN
  2
AcMeDrawingMan
  3
AcMeServices
 90
        0
280
     0
281
     0
  0
CLASS
  1
ACMEVIEW
  2
AcMeView
  3
AcMeServices
 90
        0
280
     0
281
     0
  0
CLASS
  1
ACDBENTITYCACHE
  2
AcMeEntityCache
  3
AcMeServices
 90
        0
280
     0
281
     0
  0
CLASS
  1
GSMANAGER
  2
AcMeGSManager
  3
AcMeServices
 90
        0
280
     0
281
     0
  0
CLASS
  1
AMDTINTERNALREACTOR
  2
AmdtInternalReactor
  3
AcMeServices
 90
        0
280
     0
281
     0
  0
CLASS
  1
ACMESTATEMGR
  2
AcMeStateMgr
  3
AcMeServices
 90
        0
280
     0
281
     0
  0
CLASS
  1
ACGREFMASTER
  2
AcGrefMaster
  3
AcAttribServices
 90
        0
280
     0
281
     0
  0
CLASS
  1
ACME_DATABASE
  2
AcMeDbDatabase
  3
AcMeServices
 90
        0
280
     0
281
     0
  0
CLASS
  1
ACRFINSADJUSTERMGR
  2
AcRfInsAdjusterMgr
  3
AcMeServices
 90
        0
280
     0
281
     0
  0
CLASS
  1
ACGREFACADMASTER
  2
AcGrefacadMaster
  3
AcGrefServices
 90
        0
280
     0
281
     0
  0
CLASS
  1
AMIMASTER
  2
AmiMaster
  3
AmiServices
 90
        0
280
     0
281
     0
  0
CLASS
  1
ACMDATADICTIONARY
  2
AcmDataDictionary
  3
"AcmSymBB|Product Description: AutoCAD Mechanical 2004 DX|Company: Autodesk"
 90
        0
280
     0
281
     0
  0
CLASS
  1
ACMDATAENTRYBLOCK
  2
AcmDataEntryBlock
  3
"AcmSymBB|Product Description: AutoCAD Mechanical 2004 DX|Company: Autodesk"
 90
        0
280
     0
281
     0
  0
CLASS
  1
ACIMSTRSYSVAR
  2
AcImStrSysVar
  3
AcMeServices
 90
        0
280
     0
281
     0
  0
CLASS
  1
ACMSTANDARDISO
  2
AcmStandardISO
  3
"Amdt_StdImp|Product Description: AutoCAD Mechanical 2004 DX|Company: Autodesk"
 90
        0
280
     0
281
     0
  0
CLASS
  1
AMGOBJPROPCFG
  2
AmgObjPropCfg
  3
"AmgLay|Product Description: AutoCAD Mechanical 2000|Company: Autodesk"
 90
        1
280
     0
281
     0
  0
CLASS
  1
AMDTEDGESTANDARDISO
  2
AmdtEdgeStdISO
  3
"Amdt_StdImp|Product Description: AutoCAD Mechanical 2004 DX|Company: Autodesk"
 90
    32768
280
     0
281
     0
  0
CLASS
  1
ACMSURFSTANDARDISO
  2
AcmSurfTextStdISO
  3
"Amdt_StdImp|Product Description: AutoCAD Mechanical 2004 DX|Company: Autodesk"
 90
        0
280
     0
281
     0
  0
CLASS
  1
ACMFCFSTANDARDISO
  2
AcmFCFStdISO
  3
"Amdt_StdImp|Product Description: AutoCAD Mechanical 2004 DX|Company: Autodesk"
 90
        0
280
     0
281
     0
  0
CLASS
  1
ACMWELDSTANDARDISO
  2
AcmWeldingStdISO
  3
"Amdt_StdImp|Product Description: AutoCAD Mechanical 2004 DX|Company: Autodesk"
 90
        0
280
     0
281
     0
  0
CLASS
  1
ACMIDSTANDARDISO
  2
AcmIdStdISO
  3
"Amdt_StdImp|Product Description: AutoCAD Mechanical 2004 DX|Company: Autodesk"
 90
        0
280
     0
281
     0
  0
CLASS
  1
ACMDATUMSTANDARDISO
  2
AcmDatumStdISO
  3
"Amdt_StdImp|Product Description: AutoCAD Mechanical 2004 DX|Company: Autodesk"
 90
        0
280
     0
281
     0
  0
CLASS
  1
ACMBOMSTANDARDISO
  2
AcmBOMStdISO
  3
"Amdt_StdImp|Product Description: AutoCAD Mechanical 2004 DX|Company: Autodesk"
 90
        0
280
     0
281
     0
  0
CLASS
  1
ACMDETAILSTANDARDISO
  2
AmdtDetailSymStdISO
  3
"Amdt_StdImp|Product Description: AutoCAD Mechanical 2004 DX|Company: Autodesk"
 90
        0
280
     0
281
     0
  0
CLASS
  1
ACMSECTIONSTANDARDISO
  2
AmdtSectionSymStdISO
  3
"Amdt_StdImp|Product Description: AutoCAD Mechanical 2004 DX|Company: Autodesk"
 90
        0
280
     0
281
     0
  0
CLASS
  1
ACMCENTERLINESTANDARDISO
  2
AmdtCenterLineStdISO
  3
"Amdt_StdImp|Product Description: AutoCAD Mechanical 2004 DX|Company: Autodesk"
 90
        0
280
     0
281
     0
  0
CLASS
  1
ACMNOTESTANDARDISO
  2
AmdtNoteStdISO
  3
"Amdt_StdImp|Product Description: AutoCAD Mechanical 2004 DX|Company: Autodesk"
 90
        0
280
     0
281
     0
  0
CLASS
  1
ACAMGLAYSTD
  2
AcAmgLayStd
  3
"AcAmgLayStd|Product Description: AutoCAD Mechanical 2000|Company: Autodesk"
 90
        0
280
     0
281
     0
  0
CLASS
  1
ACAMGDIMSTD
  2
AcAmgDimStd
  3
"AcAmgDimStd|Product Description: AutoCAD Mechanical 2000|Company: Autodesk"
 90
        0
280
     0
281
     0
  0
CLASS
  1
ACAMGHOLECHARTSTDISO
  2
AcAmgHoleChartStdISO
  3
ACMSYMBB_MODULE_NAME
 90
        0
280
     0
281
     0
  0
CLASS
  1
ACAMGTITLESTD
  2
AcAmgTitleStd
  3
"TITLEAPP"
 90
        0
280
     0
281
     0
  0
CLASS
  1
LAYER_INDEX
  2
AcDbLayerIndex
  3
ObjectDBX Classes
 90
        0
280
     0
281
     0
  0
CLASS
  1
IDBUFFER
  2
AcDbIdBuffer
  3
ObjectDBX Classes
 90
        0
280
     0
281
     0
  0
CLASS
  1
DICTIONARYVAR
  2
AcDbDictionaryVar
  3
ObjectDBX Classes
 90
        0
280
     0
281
     0
  0
CLASS
  1
AM_DRAWING_MGR
  2
AcDmDwgMgr
  3
AcMechDwgViewMgmt
 90
        0
280
     0
281
     0
  0
CLASS
  1
AM_DWG_DOCUMENT
  2
AcDmDwgDocument
  3
AcMechDwgViewMgmt
 90
        0
280
     0
281
     0
  0
CLASS
  1
AM_DWG_SHEET
  2
AcDmSheet
  3
AcMechDwgViewMgmt
 90
        0
280
     0
281
     0
  0
CLASS
  1
AM_VIEWDIMPARMAP
  2
AcDmViewDimParMap
  3
AcMechDwgViewMgmt
 90
        0
280
     0
281
     0
  0
CLASS
  1
AM_DWGMGR_NAME
  2
AcDmDwgMgrName
  3
AcMechDwgViewMgmt
 90
        0
280
     0
281
     0
  0
CLASS
  1
AMDTMENUSTATEMGR
  2
AmdtMenuStateMgr
  3
McadcomServices
 90
        0
280
     0
281
     0
  0
CLASS
  1
AMDTMCOMMENUSTATE
  2
AmdtMcomMenuState
  3
McadcomServices
 90
        0
280
     0
281
     0
  0
CLASS
  1
MAPIAMMOUDLE
  2
MApiAmModule
  3
MApiAmServices
 90
        0
280
     0
281
     0
  0
CLASS
  1
AMDTADMENUSTATE
  2
AmdtAdMenuState
  3
DesignerServices
 90
        0
280
     0
281
     0
  0
CLASS
  1
ADAPPL
  2
AcAdAppl
  3
DesignerServices
 90
        0
280
     0
281
     0
  0
CLASS
  1
DEPMGR
  2
AcAdDepMgr
  3
DesignerServices
 90
        0
280
     0
281
     0
  0
CLASS
  1
PARAMMGR
  2
AcAdParamMgr
  3
DesignerServices
 90
        0
280
     0
281
     0
  0
CLASS
  1
PARAMSCOPE
  2
AcAdParamScope
  3
DesignerServices
 90
        0
280
     0
281
     0
  0
CLASS
  1
NAMEDAPPL
  2
AcAdNamedAppl
  3
DesignerServices
 90
        0
280
     0
281
     0
  0
CLASS
  1
AMDTDMMENUSTATE
  2
AmdtDmMenuState
  3
AcMechDwgViewMgmt
 90
        0
280
     0
281
     0
  0
CLASS
  1
AMDTAMMENUSTATE
  2
AmdtAmMenuState
  3
DesignerAssemblies
 90
        0
280
     0
281
     0
  0
CLASS
  1
ACAMPROJECT
  2
AcAmProject
  3
DesignerAssemblies
 90
        0
280
     0
281
     0
  0
CLASS
  1
ACAMGRCOMPDEF
  2
AcAmGrCompDef
  3
DesignerAssemblies
 90
        0
280
     0
281
     0
  0
CLASS
  1
ACCMCONTEXT
  2
AcCmContext
  3
DesignerAssemblies
 90
        0
280
     0
281
     0
  0
CLASS
  1
ACAMCOMPDEF
  2
AcAmCompDef
  3
DesignerAssemblies
 90
        0
280
     0
281
     0
  0
CLASS
  1
ACAMCOMPDEFMGR
  2
AcAmCompDefMgr
  3
DesignerAssemblies
 90
        0
280
     0
281
     0
  0
CLASS
  1
AMCONTEXTMGR
  2
AcAmContextMgr
  3
DesignerAssemblies
 90
        0
280
     0
281
     0
  0
CLASS
  1
ACAMCONTEXTMODELER
  2
AcAmContextModeler
  3
DesignerAssemblies
 90
        0
280
     0
281
     0
  0
CLASS
  1
ACMTHREADLINESTANDARDISO
  2
AmdtThreadLineStdISO
  3
"Amdt_StdImp|Product Description: AutoCAD Mechanical 2004 DX|Company: Autodesk"
 90
        0
280
     0
281
     0
  0
CLASS
  1
CATALOGSTATE
  2
AcAmCatalogState
  3
DesignerAssemblies
 90
        0
280
     0
281
     0
  0
CLASS
  1
ACAMGRCOMPDEFSET
  2
AcAmGrCompDefSet
  3
DesignerAssemblies
 90
        0
280
     0
281
     0
  0
CLASS
  1
AMDTBROWSERDBTAB
  2
AmdtBrowserDbTab
  3
McadcomServices
 90
        0
280
     0
281
     0
  0
CLASS
  1
CBROWSERAPPOBJECT
  2
CBrowserAppObject
  3
McadcomServices
 90
        0
280
     0
281
     0
  0
CLASS
  1
DM_PLACEHOLDER
  2
AcDmSelsetPlaceholder
  3
AcMechDwgViewMgmt
 90
        0
280
     0
281
     0
  0
CLASS
  1
TABLESTYLE
  2
AcDbTableStyle
  3
ObjectDBX Classes
 90
     2047
280
     0
281
     0
  0
CLASS
  1
VAACXREFPANELOBJECT
  2
VaAcXREFPanelObject
  3
VAAC_ADDIN
 90
    32768
280
     0
281
     0
  0
CLASS
  1
VAACIMAGEINVENTORY
  2
VaAcImageInventory
  3
VAAC_ADDIN
 90
    32768
280
     0
281
     0
  0
CLASS
  1
AMDTNOTETEMPLATEDB
  2
AmdtNoteTemplateDB
  3
AMDT_STDIMP_MODULE_NAME
 90
        0
280
     0
281
     0
  0
CLASS
  1
ACMBOM
  2
AcmBom
  3
"AcmSymBB|Product Description: AutoCAD Mechanical 2004 DX|Company: Autodesk"
 90
    32768
280
     0
281
     0
  0
CLASS
  1
AMDTFORMULAUPDATEDISPATCHER
  2
AmdtFormulaUpdateDispatcher
  3
AcMeServices
 90
    32768
280
     0
281
     0
  0
CLASS
  1
ACMPARTLIST
  2
AcmPartList
  3
"AcmSymBB|Product Description: AutoCAD Mechanical 2004 DX|Company: Autodesk"
 90
    33791
280
     0
281
     1
  0
CLASS
  1
ACAMGFILTERDAT
  2
AcAmgFilterDat
  3
"AcadM|Product Description: AutoCAD Mechanical 2000|Company: Autodesk"
 90
    32768
280
     0
281
     0
  0
CLASS
  1
DIMASSOC
  2
AcDbDimAssoc
  3
"AcDbDimAssoc|Product Desc:     AcDim ARX App For Dimension|Company:          Autodesk, Inc.|WEB Address:      www.autodesk.com"
 90
        0
280
     0
281
     0
  0
CLASS
  1
SORTENTSTABLE
  2
AcDbSortentsTable
  3
ObjectDBX Classes
 90
        0
280
     0
281
     0
  0
CLASS
  1
STDPART2D
  2
AmgStdPart
  3
"AmgStdPart|Product Description: AutoCAD Mechanical 2000|Company: Autodesk"
 90
    33791
280
     0
281
     1
  0
CLASS
  1
ACAMSTDPCOMPDEF
  2
AcAmStdpCompDef
  3
DesignerAssemblies
 90
    32768
280
     0
281
     0
  0
CLASS
  1
ACRFATTGENMGR
  2
AcRfAttGeneralMgr
  3
AcAttribServices
 90
    32768
280
     0
281
     0
  0
CLASS
  1
ACRFOBJATTMGR
  2
AcRfObjAttGroupMgr
  3
AcAttribServices
 90
    32768
280
     0
281
     0
  0
CLASS
  1
ACRFMCADAPIATTHOLDER
  2
AcRfMCADAPIAttHolder
  3
AcAttribServices
 90
    32768
280
     0
281
     0
  0
CLASS
  1
AMDTSYSATTR
  2
AmdtSystemAttribute
  3
AcAttribServices
 90
    32768
280
     0
281
     0
  0
CLASS
  1
ACAMCOMP
  2
AcAmComp
  3
DesignerAssemblies
 90
    32768
280
     0
281
     0
  0
CLASS
  1
AC_AM_STDP_VIEW_DEF
  2
AcAmStdpViewDef
  3
DesignerAssemblies
 90
    32768
280
     0
281
     0
  0
CLASS
  1
AC_AM_MVD_DEP_MGR
  2
AcAmMVDdepMgr
  3
DesignerAssemblies
 90
    32768
280
     0
281
     0
  0
CLASS
  1
AC_AM_MASTER_VIEW_DEF
  2
AcAmMasterViewDef
  3
DesignerAssemblies
 90
    32768
280
     0
281
     0
  0
CLASS
  1
AC_AM_DIRTY_NODES
  2
AcAmDirtyNodes
  3
DesignerAssemblies
 90
    32768
280
     0
281
     0
  0
CLASS
  1
AC_AM_MAPPER_CACHE
  2
AcAmMapperCache
  3
DesignerAssemblies
 90
    32768
280
     0
281
     0
  0
CLASS
  1
ACAMMVDBACKUPOBJECT
  2
AcAmMVDBackupObject
  3
DesignerAssemblies
 90
    32768
280
     0
281
     0
  0
CLASS
  1
AC_AM_COMP_VIEW_INST
  2
AcAmCompView
  3
DesignerAssemblies
 90
    32768
280
     0
281
     0
  0
CLASS
  1
AC_AM_2D_XREF_MGR
  2
AcAmXrefMgr2d
  3
DesignerAssemblies
 90
    32768
280
     0
281
     0
  0
CLASS
  1
AMDTNOTE
  2
AmdtNote
  3
"AcmSymBB|Product Description: AutoCAD Mechanical 2004 DX|Company: Autodesk"
 90
    33791
280
     0
281
     1
  0
CLASS
  1
AMDTEDGESTANDARDISO13715
  2
AmdtEdgeStdISO13715
  3
"Amdt_StdImp|Product Description: AutoCAD Mechanical 2004 DX|Company: Autodesk"
 90
        0
280
     0
281
     0
  0
CLASS
  1
ASAPP
  2
AcAsAppObject
  3
AutoSurfServices
 90
        0
280
     0
281
     0
  0
CLASS
  1
IM_STATIC_MAN
  2
AcImStaticVarManager
  3
AcMeServices
 90
        0
280
     0
281
     0
  0
CLASS
  1
ACIMDBLSTATICVAR
  2
AcImDblStaticVar
  3
AcMeServices
 90
        0
280
     0
281
     0
  0
CLASS
  1
ACIMSTRSTATICVAR
  2
AcImStrStaticVar
  3
AcMeServices
 90
        0
280
     0
281
     0
  0
CLASS
  1
ACIMINTSTATICVAR
  2
AcImIntStaticVar
  3
AcMeServices
 90
        0
280
     0
281
     0
  0
CLASS
  1
ACASGREFMASTER
  2
AcAsGrefMaster
  3
AutoSurfResolverServices
 90
        0
280
     0
281
     0
  0
CLASS
  1
ACADGREFMODULE
  2
AcAdGrefModule
  3
AdGrefServices
 90
        0
280
     0
281
     0
  0
CLASS
  1
AMDTMAPISURFMOUDULE
  2
AmdtMApiSurfModule
  3
MApiSurfServices
 90
        0
280
     0
281
     0
  0
CLASS
  1
MAPIADMODULE
  2
MApiAdModule
  3
MApiAdServices
 90
        0
280
     0
281
     0
  0
ENDSEC
  0
SECTION
  2
TABLES
  0
TABLE
  2
VPORT
  5
8
330
0
100
AcDbSymbolTable
 70
    17
  0
VPORT
  5
CF72
330
8
100
AcDbSymbolTableRecord
100
AcDbViewportTableRecord
  2
*Active
 70
     0
 10
0.0
 20
0.0
 11
1.0
 21
1.0
 12
348.8159242185676
 22
-110.3567403476013
 13
0.0
 23
0.0
 14
2.5
 24
2.5
 15
10.0
 25
10.0
 16
0.0
 26
0.0
 36
1.0
 17
493.6788805944727
 27
316.1094665189255
 37
0.0
 40
359.5828144232228
 41
1.263157894736842
 42
50.0
 43
0.0
 44
0.0
 50
0.0
 51
0.0
 71
     0
 72
  2000
 73
     1
 74
     3
 75
     0
 76
     0
 77
     0
 78
     0
281
     0
 65
     0
110
0.0
120
0.0
130
0.0
111
1.0
121
0.0
131
0.0
112
0.0
122
1.0
132
0.0
 79
     0
146
0.0
  0
ENDTAB
  0
TABLE
  2
LTYPE
  5
5
330
0
100
AcDbSymbolTable
 70
    16
  0
LTYPE
  5
14
330
5
100
AcDbSymbolTableRecord
100
AcDbLinetypeTableRecord
  2
ByBlock
 70
     0
  3

 72
    65
 73
     0
 40
0.0
  0
LTYPE
  5
15
330
5
100
AcDbSymbolTableRecord
100
AcDbLinetypeTableRecord
  2
ByLayer
 70
     0
  3

 72
    65
 73
     0
 40
0.0
  0
LTYPE
  5
16
330
5
100
AcDbSymbolTableRecord
100
AcDbLinetypeTableRecord
  2
Continuous
 70
     0
  3
Solid line
 72
    65
 73
     0
 40
0.0
  0
LTYPE
  5
64
330
5
100
AcDbSymbolTableRecord
100
AcDbLinetypeTableRecord
  2
AM_ISO02W050
 70
     0
  3
__ __ __ __ __ __ __ __ __ __ __ __ __ __ __
 72
    65
 73
     2
 40
7.5
 49
6.0
 74
     0
 49
-1.5
 74
     0
  0
LTYPE
  5
65
330
5
100
AcDbSymbolTableRecord
100
AcDbLinetypeTableRecord
  2
AM_ISO08W050
 70
     0
  3
____ . ____ . ____ . ____ . ____ . ____ . ____
 72
    65
 73
     4
 40
18.0
 49
12.0
 74
     0
 49
-1.5
 74
     0
 49
3.0
 74
     0
 49
-1.5
 74
     0
  0
LTYPE
  5
66
330
5
100
AcDbSymbolTableRecord
100
AcDbLinetypeTableRecord
  2
AM_ISO09W050
 70
     0
  3
_____ . . _____ . . _____ . . ____ .. ____
 72
    65
 73
     6
 40
22.5
 49
12.0
 74
     0
 49
-1.5
 74
     0
 49
3.0
 74
     0
 49
-1.5
 74
     0
 49
3.0
 74
     0
 49
-1.5
 74
     0
  0
LTYPE
  5
67
330
5
100
AcDbSymbolTableRecord
100
AcDbLinetypeTableRecord
  2
Amconstr
 70
     0
  3
_______________________
 72
    65
 73
     2
 40
9999.0
 49
9999.0
 74
     0
 49
0.0
 74
     0
  0
LTYPE
  5
68
330
5
100
AcDbSymbolTableRecord
100
AcDbLinetypeTableRecord
  2
AM_ISO08W050x2
 70
     0
  3
__ . __ . __ . __ . __ . __
 72
    65
 73
     4
 40
9.0
 49
6.0
 74
     0
 49
-0.75
 74
     0
 49
1.5
 74
     0
 49
-0.75
 74
     0
  0
LTYPE
  5
69
330
5
100
AcDbSymbolTableRecord
100
AcDbLinetypeTableRecord
  2
AM_ISO02W050x2
 70
     0
  3
 _ _ _ _ _ _ _ _ _ _ _ _
 72
    65
 73
     2
 40
3.75
 49
3.0
 74
     0
 49
-0.75
 74
     0
  0
LTYPE
  5
6C
330
5
100
AcDbSymbolTableRecord
100
AcDbLinetypeTableRecord
  2
Amzigzag
 70
     0
  3
/\/-/\/-/\/-/\/-/\/-/\/
 72
    65
 73
     2
 40
11.0001
 49
0.0001
 74
     4
 75
   135
340
6B
 46
0.04
 50
0.0
 44
0.0
 45
0.0
 49
-11.0
 74
     0
  0
LTYPE
  5
7A
330
5
100
AcDbSymbolTableRecord
100
AcDbLinetypeTableRecord
  2
ACISOWELD
 70
     0
  3
_ _ _ _ _
 72
    65
 73
     2
 40
2.0
 49
2.0
 74
     0
 49
-1.0
 74
     0
  0
LTYPE
  5
7B
330
5
100
AcDbSymbolTableRecord
100
AcDbLinetypeTableRecord
  2
ACISOTGB
 70
     0
  3
__ . . __ . .
 72
    65
 73
     6
 40
9.0
 49
4.0
 74
     0
 49
-1.0
 74
     0
 49
1.0
 74
     0
 49
-1.0
 74
     0
 49
1.0
 74
     0
 49
-1.0
 74
     0
  0
LTYPE
  5
7C
330
5
100
AcDbSymbolTableRecord
100
AcDbLinetypeTableRecord
  2
ACISOTGL
 70
     0
  3
_ _ _ _ _
 72
    65
 73
     2
 40
3.0
 49
2.0
 74
     0
 49
-1.0
 74
     0
  0
LTYPE
  5
7E
330
5
100
AcDbSymbolTableRecord
100
AcDbLinetypeTableRecord
  2
CENTER
 70
     0
  3
__ . __
 72
    65
 73
     4
 40
7.0
 49
4.0
 74
     0
 49
-1.0
 74
     0
 49
1.0
 74
     0
 49
-1.0
 74
     0
  0
LTYPE
  5
D8
330
5
100
AcDbSymbolTableRecord
100
AcDbLinetypeTableRecord
  2
HIDDEN
 70
     0
  3
Hidden __ __ __ __ __ __ __ __ __ __ __ __ __ _
 72
    65
 73
     2
 40
9.524999999999998
 49
6.349999999999999
 74
     0
 49
-3.174999999999999
 74
     0
  0
LTYPE
  5
D9
330
5
100
AcDbSymbolTableRecord
100
AcDbLinetypeTableRecord
  2
PHANTOM2
 70
     0
  3
Phantom (.5x) ___ _ _ ___ _ _ ___ _ _ ___ _ _
 72
    65
 73
     6
 40
31.75
 49
15.875
 74
     0
 49
-3.174999999999999
 74
     0
 49
3.174999999999999
 74
     0
 49
-3.174999999999999
 74
     0
 49
3.174999999999999
 74
     0
 49
-3.174999999999999
 74
     0
  0
LTYPE
  5
7C98
330
5
100
AcDbSymbolTableRecord
100
AcDbLinetypeTableRecord
  2
ASULTYPE
 70
     0
  3
實線
 72
    65
 73
     2
 40
3.0
 49
2.5
 74
     0
 49
0.5
 74
     0
  0
LTYPE
  5
7C99
330
5
100
AcDbSymbolTableRecord
100
AcDbLinetypeTableRecord
  2
ASVLTYPE
 70
     0
  3
__ __ __ __ __ __ __ __ __ __ __ __ __ __ __ __ __ __ __ __ __
 72
    65
 73
     2
 40
0.75
 49
0.5
 74
     0
 49
-0.25
 74
     0
  0
ENDTAB
  0
TABLE
  2
LAYER
  5
2
102
{ACAD_XDICTIONARY
360
3F9
102
}
330
0
100
AcDbSymbolTable
 70
    13
  0
LAYER
  5
10
330
2
100
AcDbSymbolTableRecord
100
AcDbLayerTableRecord
  2
0
 70
     0
 62
     7
  6
Continuous
370
    -3
390
F
  0
LAYER
  5
C92
330
2
100
AcDbSymbolTableRecord
100
AcDbLayerTableRecord
  2
Defpoints
 70
     0
 62
     7
  6
Continuous
290
     0
370
    -3
390
F
  0
LAYER
  5
C93
330
2
100
AcDbSymbolTableRecord
100
AcDbLayerTableRecord
  2
AM_5
 70
     0
 62
     3
  6
Continuous
370
    25
390
F
  0
LAYER
  5
C94
330
2
100
AcDbSymbolTableRecord
100
AcDbLayerTableRecord
  2
AM_4
 70
     0
 62
     3
  6
Continuous
370
    25
390
F
  0
LAYER
  5
C95
330
2
100
AcDbSymbolTableRecord
100
AcDbLayerTableRecord
  2
AM_VIS
 70
     0
 62
     7
  6
Continuous
370
    50
390
F
  0
LAYER
  5
C96
330
2
100
AcDbSymbolTableRecord
100
AcDbLayerTableRecord
  2
AM_HID
 70
     0
 62
     3
  6
AM_ISO02W050x2
370
    25
390
F
  0
LAYER
  5
C97
330
2
100
AcDbSymbolTableRecord
100
AcDbLayerTableRecord
  2
AM_7
 70
     0
 62
     1
  6
CENTER
370
    25
390
F
  0
LAYER
  5
C99
330
2
100
AcDbSymbolTableRecord
100
AcDbLayerTableRecord
  2
LOGO
 70
     0
 62
     7
  6
Continuous
370
    -3
390
F
  0
LAYER
  5
2AA5
330
2
100
AcDbSymbolTableRecord
100
AcDbLayerTableRecord
  2
AM_REFDIM
 70
     0
 62
     5
  6
Continuous
370
    25
390
F
  0
LAYER
  5
79D1
330
2
100
AcDbSymbolTableRecord
100
AcDbLayerTableRecord
  2
CEN
 70
     0
 62
     1
  6
CENTER
370
    -3
390
F
  0
LAYER
  5
79D3
330
2
100
AcDbSymbolTableRecord
100
AcDbLayerTableRecord
  2
HATCH
 70
     0
 62
     4
  6
Continuous
370
    -3
390
F
  0
LAYER
  5
7BB8
330
2
100
AcDbSymbolTableRecord
100
AcDbLayerTableRecord
  2
SL
 70
     0
 62
     2
  6
Continuous
370
    -3
390
F
1001
AcAecLayerStandard
1000

1000

  0
LAYER
  5
7DF7
330
2
100
AcDbSymbolTableRecord
100
AcDbLayerTableRecord
  2
AM_10
 70
     0
 62
     7
  6
AM_ISO08W050
370
    50
390
F
  0
ENDTAB
  0
TABLE
  2
STYLE
  5
3
330
0
100
AcDbSymbolTable
 70
     6
  0
STYLE
  5
11
330
3
100
AcDbSymbolTableRecord
100
AcDbTextStyleTableRecord
  2
STANDARD
 70
     0
 40
0.0
 41
1.0
 50
0.0
 71
     0
 42
3.0
  3
ISOCP.SHX
  4
CHINESET.SHX
  0
STYLE
  5
6B
330
3
100
AcDbSymbolTableRecord
100
AcDbTextStyleTableRecord
  2

 70
     1
 40
0.0
 41
1.0
 50
0.0
 71
     0
 42
2.5
  3
ltypeshp.shx
  4

  0
STYLE
  5
6D
330
3
100
AcDbSymbolTableRecord
100
AcDbTextStyleTableRecord
  2
ACISOTS
 70
     0
 40
1.0
 41
1.0
 50
0.0
 71
     0
 42
1.0
  3
isocp.shx
  4
chineset.shx
  0
STYLE
  5
79
330
3
100
AcDbSymbolTableRecord
100
AcDbTextStyleTableRecord
  2
ACISOGDT
 70
     0
 40
0.0
 41
1.0
 50
0.0
 71
     0
 42
2.5
  3
amgdt.shx
  4
chineset.shx
  0
STYLE
  5
C9B
330
3
100
AcDbSymbolTableRecord
100
AcDbTextStyleTableRecord
  2
CHINESET
 70
     0
 40
0.0
 41
1.0
 50
0.0
 71
     0
 42
2.5
  3
simplex.shx
  4
CHINESET.shx
  0
STYLE
  5
7DF8
330
3
100
AcDbSymbolTableRecord
100
AcDbTextStyleTableRecord
  2
DAYUS
 70
     0
 40
0.0
 41
1.0
 50
0.0
 71
     0
 42
2.0
  3
simplex.shx
  4
dayus.shx
  0
ENDTAB
  0
TABLE
  2
VIEW
  5
6
330
0
100
AcDbSymbolTable
 70
     0
  0
ENDTAB
  0
TABLE
  2
UCS
  5
7
330
0
100
AcDbSymbolTable
 70
     0
  0
ENDTAB
  0
TABLE
  2
APPID
  5
9
330
0
100
AcDbSymbolTable
 70
    39
  0
APPID
  5
12
330
9
100
AcDbSymbolTableRecord
100
AcDbRegAppTableRecord
  2
ACAD
 70
     0
  0
APPID
  5
46
330
9
100
AcDbSymbolTableRecord
100
AcDbRegAppTableRecord
  2
MCAD_NO_VIS
 70
     0
  0
APPID
  5
47
330
9
100
AcDbSymbolTableRecord
100
AcDbRegAppTableRecord
  2
ACAD_TEMP_GRAPHIC
 70
     0
  0
APPID
  5
58
330
9
100
AcDbSymbolTableRecord
100
AcDbRegAppTableRecord
  2
ACATTRIBSERVICES
 70
     0
  0
APPID
  5
EE
330
9
100
AcDbSymbolTableRecord
100
AcDbRegAppTableRecord
  2
AD_DRAW
 70
     0
  0
APPID
  5
10C
330
9
100
AcDbSymbolTableRecord
100
AcDbRegAppTableRecord
  2
DESIGNERASSEMBLIES
 70
     0
  0
APPID
  5
111
330
9
100
AcDbSymbolTableRecord
100
AcDbRegAppTableRecord
  2
ACADM_DIM_EDIT
 70
     0
  0
APPID
  5
112
330
9
100
AcDbSymbolTableRecord
100
AcDbRegAppTableRecord
  2
AMDT_DM_ADJ
 70
     0
  0
APPID
  5
22C
330
9
100
AcDbSymbolTableRecord
100
AcDbRegAppTableRecord
  2
ACAD_DSTYLE_DIMTEXT_FILL
 70
     0
  0
APPID
  5
452
330
9
100
AcDbSymbolTableRecord
100
AcDbRegAppTableRecord
  2
GENIUS_GENOENT_13
 70
     0
  0
APPID
  5
453
330
9
100
AcDbSymbolTableRecord
100
AcDbRegAppTableRecord
  2
GENIUS_GENOBJ-N-CRS_13
 70
     0
  0
APPID
  5
454
330
9
100
AcDbSymbolTableRecord
100
AcDbRegAppTableRecord
  2
GENIUS_GENOLIS_13
 70
     0
  0
APPID
  5
455
330
9
100
AcDbSymbolTableRecord
100
AcDbRegAppTableRecord
  2
GENIUS_GENODEF_13
 70
     0
  0
APPID
  5
456
330
9
100
AcDbSymbolTableRecord
100
AcDbRegAppTableRecord
  2
GENIUS_GENOREF_13
 70
     0
  0
APPID
  5
6F3
330
9
100
AcDbSymbolTableRecord
100
AcDbRegAppTableRecord
  2
ACAD_PSEXT
 70
     0
  0
APPID
  5
808
330
9
100
AcDbSymbolTableRecord
100
AcDbRegAppTableRecord
  2
GENIUS_GENDTOL_13
 70
     0
  0
APPID
  5
C9C
330
9
100
AcDbSymbolTableRecord
100
AcDbRegAppTableRecord
  2
GENIUS_GENOBJ-N-CEN_13
 70
     0
  0
APPID
  5
C9D
330
9
100
AcDbSymbolTableRecord
100
AcDbRegAppTableRecord
  2
GENIUS_GENCEN_19
 70
     0
  0
APPID
  5
C9E
330
9
100
AcDbSymbolTableRecord
100
AcDbRegAppTableRecord
  2
GENIUS_GENREC_14
 70
     0
  0
APPID
  5
C9F
330
9
100
AcDbSymbolTableRecord
100
AcDbRegAppTableRecord
  2
GENIUS_GENOBJ-N-REC_13
 70
     0
  0
APPID
  5
18AD
330
9
100
AcDbSymbolTableRecord
100
AcDbRegAppTableRecord
  2
GEVID1195260822
 70
     0
  0
APPID
  5
18AE
330
9
100
AcDbSymbolTableRecord
100
AcDbRegAppTableRecord
  2
GEVDC
 70
     0
  0
APPID
  5
18AF
330
9
100
AcDbSymbolTableRecord
100
AcDbRegAppTableRecord
  2
GEVRADREF
 70
     0
  0
APPID
  5
18B8
330
9
100
AcDbSymbolTableRecord
100
AcDbRegAppTableRecord
  2
AMG_2DHIDE
 70
     0
  0
APPID
  5
18B9
330
9
100
AcDbSymbolTableRecord
100
AcDbRegAppTableRecord
  2
AMG_2DSTRUCT_BTR
 70
     0
  0
APPID
  5
18CA
330
9
100
AcDbSymbolTableRecord
100
AcDbRegAppTableRecord
  2
ACADM_2DVIEW_IGN_NOTIFY
 70
     0
  0
APPID
  5
3621
330
9
100
AcDbSymbolTableRecord
100
AcDbRegAppTableRecord
  2
GENIUS_GENDIMSH_14
 70
     0
  0
APPID
  5
3FD8
330
9
100
AcDbSymbolTableRecord
100
AcDbRegAppTableRecord
  2
AD_SKETCHDIM
 70
     0
  0
APPID
  5
42D5
330
9
100
AcDbSymbolTableRecord
100
AcDbRegAppTableRecord
  2
ACAD_DSTYLE_DIMEXT_LENGTH
 70
     0
  0
APPID
  5
42D6
330
9
100
AcDbSymbolTableRecord
100
AcDbRegAppTableRecord
  2
ACAD_DSTYLE_DIMEXT_ENABLED
 70
     0
  0
APPID
  5
42D7
330
9
100
AcDbSymbolTableRecord
100
AcDbRegAppTableRecord
  2
ACAD_DSTYLE_DIM_EXT1_LINETYPE
 70
     0
  0
APPID
  5
42D8
330
9
100
AcDbSymbolTableRecord
100
AcDbRegAppTableRecord
  2
ACAD_DSTYLE_DIMJOGGED_JOGANGLE_SYMBOL
 70
     0
  0
APPID
  5
42D9
330
9
100
AcDbSymbolTableRecord
100
AcDbRegAppTableRecord
  2
ACAD_DSTYLE_DIMARC_LENGTH_SYMBOL
 70
     0
  0
APPID
  5
5E72
330
9
100
AcDbSymbolTableRecord
100
AcDbRegAppTableRecord
  2
AcAecLayerStandard
 70
     0
  0
APPID
  5
7C19
330
9
100
AcDbSymbolTableRecord
100
AcDbRegAppTableRecord
  2
GENIUS_GENDIM_13
 70
     0
  0
APPID
  5
7C1A
330
9
100
AcDbSymbolTableRecord
100
AcDbRegAppTableRecord
  2
GENIUS_GE3DTOL_13
 70
     0
  0
APPID
  5
7C9A
330
9
100
AcDbSymbolTableRecord
100
AcDbRegAppTableRecord
  2
ASURF_PCURVE_APPNAME
 70
     0
  0
APPID
  5
7C9F
330
9
100
AcDbSymbolTableRecord
100
AcDbRegAppTableRecord
  2
AMG_3D2D_5.0
 70
     0
  0
APPID
  5
A993
330
9
100
AcDbSymbolTableRecord
100
AcDbRegAppTableRecord
  2
DCO15
 70
     0
  0
ENDTAB
  0
TABLE
  2
DIMSTYLE
  5
A
330
0
100
AcDbSymbolTable
 70
    16
100
AcDbDimStyleTable
 71
     3
340
81
340
8B
340
86
  0
DIMSTYLE
105
81
330
A
100
AcDbSymbolTableRecord
100
AcDbDimStyleTableRecord
  2
AM_ISO
 70
     0
  4
"
 41
3.5
 42
1.0
 43
8.0
 44
1.0
 47
0.1
 48
0.1
 73
     0
 74
     0
 77
     1
 78
     8
 79
     2
140
3.5
141
0.0
143
0.0393701
146
0.6
147
1.0
172
     1
176
   256
177
   256
178
   256
271
     2
272
     2
283
     0
284
     8
340
11
371
    -1
372
    -1
  0
DIMSTYLE
105
82
330
A
100
AcDbSymbolTableRecord
100
AcDbDimStyleTableRecord
  2
AM_ISO$3
 70
     0
  4
"
 41
3.5
 42
1.0
 43
8.0
 44
1.0
 47
0.1
 48
0.1
 73
     0
 77
     1
 78
     8
 79
     2
140
3.5
141
0.0
143
0.0393701
146
0.6
147
1.0
176
   256
177
   256
178
   256
271
     2
272
     2
283
     0
284
     8
288
     1
289
     0
340
11
371
    -1
372
    -1
  0
DIMSTYLE
105
83
330
A
100
AcDbSymbolTableRecord
100
AcDbDimStyleTableRecord
  2
AM_ISO$4
 70
     0
  4
"
 41
3.5
 42
1.0
 43
8.0
 44
1.0
 47
0.1
 48
0.1
 73
     0
 77
     1
 78
     8
 79
     2
140
3.5
141
0.0
143
0.0393701
146
0.6
147
1.0
176
   256
177
   256
178
   256
271
     2
272
     2
283
     0
284
     8
288
     1
289
     0
340
11
371
    -1
372
    -1
  0
DIMSTYLE
105
84
330
A
100
AcDbSymbolTableRecord
100
AcDbDimStyleTableRecord
  2
AM_ISO$6
 70
     0
  4
"
 41
3.5
 42
1.0
 43
8.0
 44
1.0
 47
0.1
 48
0.1
 73
     0
 74
     0
 78
     8
 79
     2
140
3.5
141
0.0
143
0.0393701
146
0.6
147
1.0
172
     1
176
   256
177
   256
178
   256
271
     2
272
     2
283
     0
284
     8
340
11
371
    -1
372
    -1
  0
DIMSTYLE
105
85
330
A
100
AcDbSymbolTableRecord
100
AcDbDimStyleTableRecord
  2
AM_ISO$7
 70
     0
  4
"
 41
3.5
 42
1.0
 43
8.0
 44
1.0
 47
0.1
 48
0.1
 73
     0
 74
     0
 77
     1
 78
     8
 79
     2
140
3.5
141
0.0
143
0.0393701
146
0.6
147
1.0
172
     1
176
   256
177
   256
178
   256
271
     2
272
     2
283
     0
284
     8
340
11
371
    -1
372
    -1
  0
DIMSTYLE
105
86
330
A
100
AcDbSymbolTableRecord
100
AcDbDimStyleTableRecord
  2
AM_ISO$SF
 70
     0
  4
"
 41
2.5
 42
1.0
 43
10.0
 44
1.0
 47
0.1
 48
0.1
 73
     0
 74
     0
 75
     1
 76
     1
 77
     1
 78
     8
 79
     2
140
3.5
141
0.0
143
0.0393701
146
0.71
147
1.5
172
     1
176
   256
177
   256
178
     2
271
     2
272
     3
274
     4
283
     0
284
     8
340
11
371
    -1
372
    -1
  0
DIMSTYLE
105
8B
330
A
100
AcDbSymbolTableRecord
100
AcDbDimStyleTableRecord
  2
AM_ISO$SH
 70
     0
  4
"
 41
2.5
 42
1.0
 43
10.0
 44
1.0
 47
0.1
 48
0.1
 73
     0
 74
     0
 75
     1
 76
     1
 77
     1
 78
     8
 79
     2
140
3.5
141
0.0
143
0.0393701
144
2.0
146
0.71
147
1.5
172
     1
173
     1
176
   256
177
   256
178
     2
271
     2
272
     3
274
     4
283
     0
284
     8
340
11
343
87
371
    -1
372
    -1
  0
DIMSTYLE
105
40B
102
{ACAD_REACTORS
330
A57E
330
A516
330
A540
330
A622
330
A724
330
A67B
330
A6A1
330
A7A5
330
A77B
330
A7CB
330
B250
102
}
330
A
100
AcDbSymbolTableRecord
100
AcDbDimStyleTableRecord
  2
AM_ISO$0
 70
     0
  4
"
 41
3.5
 42
1.0
 43
8.0
 44
1.0
 47
0.1
 48
0.1
 73
     0
 74
     0
 77
     1
 78
     8
 79
     2
140
3.5
141
0.0
143
0.0393701
146
0.6
147
1.0
172
     1
176
   256
177
   256
178
   256
271
     2
272
     2
283
     0
284
     8
340
11
371
    -1
372
    -1
  0
DIMSTYLE
105
2AAB
330
A
100
AcDbSymbolTableRecord
100
AcDbDimStyleTableRecord
  2
AM_ISO$SH$3
 70
     0
  4
"
 40
1.3
 41
2.5
 42
1.0
 43
10.0
 44
1.0
 47
0.1
 48
0.1
 73
     0
 74
     0
 75
     1
 76
     1
 77
     1
 78
     8
 79
     2
140
3.5
141
0.0
143
0.0393701
144
2.0
146
0.71
147
1.5
172
     1
173
     1
176
   256
177
   256
178
     2
271
     2
272
     3
274
     4
283
     0
284
     8
340
11
343
87
371
    -1
372
    -1
  0
DIMSTYLE
105
3FD7
330
A
100
AcDbSymbolTableRecord
100
AcDbDimStyleTableRecord
  2
AM_ISO$2
 70
     0
  4
"
 41
2.5
 42
1.0
 43
10.0
 44
1.0
 47
0.1
 48
0.1
 73
     0
 74
     0
 77
     1
 78
     8
 79
     2
140
3.5
141
0.0
143
0.0393701
146
0.71
147
1.5
172
     1
176
   256
177
   256
178
     2
271
     2
272
     3
274
     4
283
     0
284
     8
340
11
371
    -1
372
    -1
  0
DIMSTYLE
105
6430
330
A
100
AcDbSymbolTableRecord
100
AcDbDimStyleTableRecord
  2
AM_ISO$SH$0
 70
     0
  4
"
 40
1.5
 41
2.5
 42
1.0
 43
10.0
 44
1.0
 47
0.1
 48
0.1
 73
     0
 74
     0
 75
     1
 76
     1
 77
     1
 78
     8
 79
     2
140
3.5
141
0.0
143
0.0393701
144
2.0
146
0.71
147
1.5
172
     1
173
     1
176
   256
177
   256
178
     2
271
     2
272
     3
274
     4
283
     0
284
     8
340
11
343
87
371
    -1
372
    -1
  0
DIMSTYLE
105
7DF9
330
A
100
AcDbSymbolTableRecord
100
AcDbDimStyleTableRecord
  2
STANDARD
 70
     0
 41
2.5
 42
0.625
 43
3.75
 44
1.25
 73
     0
 74
     0
 77
     1
 78
     8
140
2.5
141
2.5
143
0.0394
147
0.625
171
     4
172
     1
273
     8
274
     4
277
     6
340
11
  0
DIMSTYLE
105
7DFA
330
A
100
AcDbSymbolTableRecord
100
AcDbDimStyleTableRecord
  2
AM_ANSI
 70
     0
  4
mm
 41
0.1
 42
0.05
 43
0.5
 44
0.1
 47
0.1
 48
0.1
 78
     7
 79
     2
140
0.12
141
0.0
146
0.71
147
0.06
176
   256
177
   256
178
     2
274
     4
284
     7
340
11
371
    -1
372
    -1
  0
DIMSTYLE
105
7DFB
330
A
100
AcDbSymbolTableRecord
100
AcDbDimStyleTableRecord
  2
DAYUS
 70
     0
  4
"
 40
0.6666666666666666
 41
3.0
 42
2.0
 43
10.0
 44
1.0
 47
0.1
 48
0.1
 73
     0
 74
     0
 77
     1
 78
     8
 79
     2
140
3.5
141
0.0
143
0.0393701
146
0.71
147
1.5
172
     1
176
   256
177
   256
178
     3
271
     2
272
     8
283
     0
284
     8
340
7DF8
371
    -1
372
    -1
  0
DIMSTYLE
105
857F
330
A
100
AcDbSymbolTableRecord
100
AcDbDimStyleTableRecord
  2
ISO-25$0
 70
     0
 40
5.0
 41
2.5
 42
0.625
 43
3.75
 44
1.25
 73
     0
 74
     0
 77
     1
 78
     8
140
2.5
141
2.5
143
0.03937007874016
147
0.625
171
     3
172
     1
271
     2
272
     2
274
     3
278
    44
283
     0
284
     8
340
11
  0
DIMSTYLE
105
968B
330
A
100
AcDbSymbolTableRecord
100
AcDbDimStyleTableRecord
  2
ISO-25
 70
     0
 41
2.5
 42
0.625
 43
3.75
 44
1.25
 73
     0
 74
     0
 77
     1
 78
     8
140
2.5
141
2.5
143
0.03937007874016
147
0.625
171
     3
172
     1
271
     2
272
     2
274
     3
278
    44
283
     0
284
     8
340
11
  0
ENDTAB
  0
TABLE
  2
BLOCK_RECORD
  5
1
330
0
100
AcDbSymbolTable
 70
    47
  0
BLOCK_RECORD
  5
1F
102
{ACAD_XDICTIONARY
360
8F
102
}
330
1
100
AcDbSymbolTableRecord
100
AcDbBlockTableRecord
  2
*Model_Space
340
22
  0
BLOCK_RECORD
  5
1B
330
1
100
AcDbSymbolTableRecord
100
AcDbBlockTableRecord
  2
*Paper_Space
340
1E
  0
BLOCK_RECORD
  5
23
330
1
100
AcDbSymbolTableRecord
100
AcDbBlockTableRecord
  2
*Paper_Space0
340
26
  0
BLOCK_RECORD
  5
87
330
1
100
AcDbSymbolTableRecord
100
AcDbBlockTableRecord
  2
GENAXEH
340
0
  0
BLOCK_RECORD
  5
7CF2
102
{ACAD_XDICTIONARY
360
7CF3
102
}
330
1
100
AcDbSymbolTableRecord
100
AcDbBlockTableRecord
  2
S2
340
0
1001
ACAD
1000
DesignCenter Data
1002
{
1070
     1
1070
     4
1002
}
  0
BLOCK_RECORD
  5
8569
330
1
100
AcDbSymbolTableRecord
100
AcDbBlockTableRecord
  2
SW_CENTERMARKSYMBOL_0
340
0
  0
BLOCK_RECORD
  5
8574
330
1
100
AcDbSymbolTableRecord
100
AcDbBlockTableRecord
  2
SW_CENTERMARKSYMBOL_1
340
0
  0
BLOCK_RECORD
  5
A517
330
1
100
AcDbSymbolTableRecord
100
AcDbBlockTableRecord
  2
*D6
340
0
  0
BLOCK_RECORD
  5
A541
330
1
100
AcDbSymbolTableRecord
100
AcDbBlockTableRecord
  2
*D7
340
0
  0
BLOCK_RECORD
  5
A57F
330
1
100
AcDbSymbolTableRecord
100
AcDbBlockTableRecord
  2
*D8
340
0
  0
BLOCK_RECORD
  5
A623
330
1
100
AcDbSymbolTableRecord
100
AcDbBlockTableRecord
  2
*D9
340
0
  0
BLOCK_RECORD
  5
A67C
330
1
100
AcDbSymbolTableRecord
100
AcDbBlockTableRecord
  2
*D10
340
0
  0
BLOCK_RECORD
  5
A6A2
330
1
100
AcDbSymbolTableRecord
100
AcDbBlockTableRecord
  2
*D11
340
0
  0
BLOCK_RECORD
  5
A725
330
1
100
AcDbSymbolTableRecord
100
AcDbBlockTableRecord
  2
*D12
340
0
  0
BLOCK_RECORD
  5
A77C
330
1
100
AcDbSymbolTableRecord
100
AcDbBlockTableRecord
  2
*D13
340
0
  0
BLOCK_RECORD
  5
A7A6
330
1
100
AcDbSymbolTableRecord
100
AcDbBlockTableRecord
  2
*D14
340
0
  0
BLOCK_RECORD
  5
A7CC
330
1
100
AcDbSymbolTableRecord
100
AcDbBlockTableRecord
  2
*D15
340
0
  0
BLOCK_RECORD
  5
B251
330
1
100
AcDbSymbolTableRecord
100
AcDbBlockTableRecord
  2
*D16
340
0
  0
BLOCK_RECORD
  5
B2BC
330
1
100
AcDbSymbolTableRecord
100
AcDbBlockTableRecord
  2
SW_CENTERMARKSYMBOL_2
340
0
  0
BLOCK_RECORD
  5
B2C7
330
1
100
AcDbSymbolTableRecord
100
AcDbBlockTableRecord
  2
SW_CENTERMARKSYMBOL_3
340
0
  0
BLOCK_RECORD
  5
B2D2
330
1
100
AcDbSymbolTableRecord
100
AcDbBlockTableRecord
  2
SW_CENTERMARKSYMBOL_4
340
0
  0
BLOCK_RECORD
  5
B2DD
330
1
100
AcDbSymbolTableRecord
100
AcDbBlockTableRecord
  2
SW_CENTERMARKSYMBOL_5
340
0
  0
BLOCK_RECORD
  5
B2E8
330
1
100
AcDbSymbolTableRecord
100
AcDbBlockTableRecord
  2
SW_CENTERMARKSYMBOL_6
340
0
102
{BLKREFS
331
C41D
102
}
  0
BLOCK_RECORD
  5
B2F3
330
1
100
AcDbSymbolTableRecord
100
AcDbBlockTableRecord
  2
SW_CENTERMARKSYMBOL_7
340
0
102
{BLKREFS
331
C41E
102
}
  0
BLOCK_RECORD
  5
B2FE
330
1
100
AcDbSymbolTableRecord
100
AcDbBlockTableRecord
  2
SW_CENTERMARKSYMBOL_8
340
0
102
{BLKREFS
331
C41F
102
}
  0
BLOCK_RECORD
  5
B309
330
1
100
AcDbSymbolTableRecord
100
AcDbBlockTableRecord
  2
SW_CENTERMARKSYMBOL_9
340
0
102
{BLKREFS
331
C420
102
}
  0
BLOCK_RECORD
  5
B314
330
1
100
AcDbSymbolTableRecord
100
AcDbBlockTableRecord
  2
SW_CENTERMARKSYMBOL_10
340
0
102
{BLKREFS
331
C421
102
}
  0
BLOCK_RECORD
  5
B31F
330
1
100
AcDbSymbolTableRecord
100
AcDbBlockTableRecord
  2
SW_CENTERMARKSYMBOL_11
340
0
102
{BLKREFS
331
C422
102
}
  0
BLOCK_RECORD
  5
B32A
330
1
100
AcDbSymbolTableRecord
100
AcDbBlockTableRecord
  2
SW_CENTERMARKSYMBOL_12
340
0
102
{BLKREFS
331
C423
102
}
  0
BLOCK_RECORD
  5
B335
330
1
100
AcDbSymbolTableRecord
100
AcDbBlockTableRecord
  2
SW_CENTERMARKSYMBOL_13
340
0
102
{BLKREFS
331
C424
102
}
  0
BLOCK_RECORD
  5
B340
330
1
100
AcDbSymbolTableRecord
100
AcDbBlockTableRecord
  2
SW_CENTERMARKSYMBOL_14
340
0
102
{BLKREFS
331
C425
102
}
  0
BLOCK_RECORD
  5
B34B
330
1
100
AcDbSymbolTableRecord
100
AcDbBlockTableRecord
  2
SW_CENTERMARKSYMBOL_15
340
0
102
{BLKREFS
331
C426
331
CA26
102
}
  0
BLOCK_RECORD
  5
B356
330
1
100
AcDbSymbolTableRecord
100
AcDbBlockTableRecord
  2
SW_CENTERMARKSYMBOL_16
340
0
102
{BLKREFS
331
C427
331
CA27
102
}
  0
BLOCK_RECORD
  5
B361
330
1
100
AcDbSymbolTableRecord
100
AcDbBlockTableRecord
  2
SW_CENTERMARKSYMBOL_17
340
0
102
{BLKREFS
331
C428
331
CA28
102
}
  0
BLOCK_RECORD
  5
B36C
330
1
100
AcDbSymbolTableRecord
100
AcDbBlockTableRecord
  2
SW_CENTERMARKSYMBOL_18
340
0
102
{BLKREFS
331
C429
331
CA29
102
}
  0
BLOCK_RECORD
  5
B377
330
1
100
AcDbSymbolTableRecord
100
AcDbBlockTableRecord
  2
SW_CENTERMARKSYMBOL_19
340
0
102
{BLKREFS
331
CA2A
102
}
  0
BLOCK_RECORD
  5
B382
330
1
100
AcDbSymbolTableRecord
100
AcDbBlockTableRecord
  2
SW_CENTERMARKSYMBOL_20
340
0
102
{BLKREFS
331
CA2B
102
}
  0
BLOCK_RECORD
  5
B38D
330
1
100
AcDbSymbolTableRecord
100
AcDbBlockTableRecord
  2
SW_CENTERMARKSYMBOL_21
340
0
102
{BLKREFS
331
CA2C
102
}
  0
BLOCK_RECORD
  5
B398
330
1
100
AcDbSymbolTableRecord
100
AcDbBlockTableRecord
  2
SW_CENTERMARKSYMBOL_22
340
0
102
{BLKREFS
331
CA2D
102
}
  0
BLOCK_RECORD
  5
B3A3
330
1
100
AcDbSymbolTableRecord
100
AcDbBlockTableRecord
  2
SW_CENTERMARKSYMBOL_23
340
0
102
{BLKREFS
331
CA2E
102
}
  0
BLOCK_RECORD
  5
B3AE
330
1
100
AcDbSymbolTableRecord
100
AcDbBlockTableRecord
  2
SW_CENTERMARKSYMBOL_24
340
0
102
{BLKREFS
331
CA2F
102
}
  0
BLOCK_RECORD
  5
B3B9
330
1
100
AcDbSymbolTableRecord
100
AcDbBlockTableRecord
  2
SW_CENTERMARKSYMBOL_25
340
0
102
{BLKREFS
331
CA30
102
}
  0
BLOCK_RECORD
  5
B3C4
330
1
100
AcDbSymbolTableRecord
100
AcDbBlockTableRecord
  2
SW_CENTERMARKSYMBOL_26
340
0
102
{BLKREFS
331
CA31
102
}
  0
BLOCK_RECORD
  5
B3CF
330
1
100
AcDbSymbolTableRecord
100
AcDbBlockTableRecord
  2
SW_CENTERMARKSYMBOL_27
340
0
102
{BLKREFS
331
CA32
102
}
  0
BLOCK_RECORD
  5
B3DA
330
1
100
AcDbSymbolTableRecord
100
AcDbBlockTableRecord
  2
SW_CENTERMARKSYMBOL_28
340
0
102
{BLKREFS
331
CA33
102
}
  0
BLOCK_RECORD
  5
B3E5
330
1
100
AcDbSymbolTableRecord
100
AcDbBlockTableRecord
  2
SW_CENTERMARKSYMBOL_29
340
0
102
{BLKREFS
331
CA34
102
}
  0
ENDTAB
  0
ENDSEC
  0
SECTION
  2
BLOCKS
  0
BLOCK
  5
20
330
1F
100
AcDbEntity
  8
0
100
AcDbBlockBegin
  2
*Model_Space
 70
     0
 10
0.0
 20
0.0
 30
0.0
  3
*Model_Space
  1

  0
ENDBLK
  5
21
330
1F
100
AcDbEntity
  8
0
100
AcDbBlockEnd
  0
BLOCK
  5
1C
330
1B
100
AcDbEntity
 67
     1
  8
0
100
AcDbBlockBegin
  2
*Paper_Space
 70
     0
 10
0.0
 20
0.0
 30
0.0
  3
*Paper_Space
  1

  0
ENDBLK
  5
1D
330
1B
100
AcDbEntity
 67
     1
  8
0
100
AcDbBlockEnd
  0
BLOCK
  5
24
330
23
100
AcDbEntity
  8
0
100
AcDbBlockBegin
  2
*Paper_Space0
 70
     0
 10
0.0
 20
0.0
 30
0.0
  3
*Paper_Space0
  1

  0
ENDBLK
  5
25
330
23
100
AcDbEntity
  8
0
100
AcDbBlockEnd
  0
BLOCK
  5
89
330
87
100
AcDbEntity
  8
0
100
AcDbBlockBegin
  2
GENAXEH
 70
     0
 10
0.0
 20
0.0
 30
0.0
  3
GENAXEH
  1

  0
LINE
  5
88
330
87
100
AcDbEntity
  8
0
100
AcDbLine
 10
-1.0
 20
0.0
 30
0.0
 11
1.0
 21
0.0
 31
0.0
  0
ENDBLK
  5
8A
330
87
100
AcDbEntity
  8
0
100
AcDbBlockEnd
  0
BLOCK
  5
7CF4
330
7CF2
100
AcDbEntity
  8
0
100
AcDbBlockBegin
  2
S2
 70
     0
 10
0.0
 20
0.0
 30
0.0
  3
S2
  1

  0
LINE
  5
7CF5
330
7CF2
100
AcDbEntity
  8
AM_5
100
AcDbLine
 10
0.0000000000000284
 20
4.000000000000028
 30
0.0
 11
4.0
 21
4.0
 31
0.0
  0
LINE
  5
7CF6
330
7CF2
100
AcDbEntity
  8
AM_5
100
AcDbLine
 10
0.0000000000000284
 20
0.0
 30
0.0
 11
4.0
 21
0.0
 31
0.0
  0
TEXT
  5
7CF7
330
7CF2
100
AcDbEntity
  8
AM_5
100
AcDbText
 10
1.099999999999999
 20
0.5
 30
0.0
 40
3.0
  1
2
 41
0.9
  7
DAYUS
 72
     4
 11
2.0
 21
2.0
 31
0.0
100
AcDbText
  0
LINE
  5
7CF8
330
7CF2
100
AcDbEntity
  8
AM_5
100
AcDbLine
 10
0.0
 20
4.0
 30
0.0
 11
0.0
 21
0.0
 31
0.0
  0
LINE
  5
7CF9
330
7CF2
100
AcDbEntity
  8
AM_5
100
AcDbLine
 10
4.0
 20
4.0
 30
0.0
 11
4.0
 21
0.0
 31
0.0
  0
ENDBLK
  5
7CFA
330
7CF2
100
AcDbEntity
  8
0
100
AcDbBlockEnd
  0
BLOCK
  5
856A
330
8569
100
AcDbEntity
  8
0
100
AcDbBlockBegin
  2
SW_CENTERMARKSYMBOL_0
 70
     0
 10
0.0
 20
0.0
 30
0.0
  3
SW_CENTERMARKSYMBOL_0
  1

  0
LINE
  5
856B
330
8569
100
AcDbEntity
  8
0
  6
Continuous
 62
     0
370
     0
100
AcDbLine
 10
0.0
 20
0.0
 30
0.0
 11
0.0
 21
2.500000000000002
 31
0.0
  0
LINE
  5
856C
330
8569
100
AcDbEntity
  8
0
  6
Continuous
 62
     0
370
     0
100
AcDbLine
 10
0.0
 20
0.0
 30
0.0
 11
-2.500000000000002
 21
0.0
 31
0.0
  0
LINE
  5
856D
330
8569
100
AcDbEntity
  8
0
  6
Continuous
 62
     0
370
     0
100
AcDbLine
 10
0.0
 20
0.0
 30
0.0
 11
0.0
 21
-2.500000000000002
 31
0.0
  0
LINE
  5
856E
330
8569
100
AcDbEntity
  8
0
  6
Continuous
 62
     0
370
     0
100
AcDbLine
 10
0.0
 20
0.0
 30
0.0
 11
2.500000000000002
 21
0.0
 31
0.0
  0
LINE
  5
856F
330
8569
100
AcDbEntity
  8
0
  6
Continuous
 62
     0
370
     0
100
AcDbLine
 10
0.0
 20
2.500000000000002
 30
0.0
 11
0.0
 21
4.500000000000003
 31
0.0
  0
LINE
  5
8570
330
8569
100
AcDbEntity
  8
0
  6
Continuous
 62
     0
370
     0
100
AcDbLine
 10
-2.500000000000002
 20
0.0
 30
0.0
 11
-4.500000000000003
 21
0.0
 31
0.0
  0
LINE
  5
8571
330
8569
100
AcDbEntity
  8
0
  6
Continuous
 62
     0
370
     0
100
AcDbLine
 10
0.0
 20
-2.500000000000002
 30
0.0
 11
0.0
 21
-4.500000000000003
 31
0.0
  0
LINE
  5
8572
330
8569
100
AcDbEntity
  8
0
  6
Continuous
 62
     0
370
     0
100
AcDbLine
 10
2.500000000000002
 20
0.0
 30
0.0
 11
4.500000000000003
 21
0.0
 31
0.0
  0
ENDBLK
  5
8573
330
8569
100
AcDbEntity
  8
0
100
AcDbBlockEnd
  0
BLOCK
  5
8575
330
8574
100
AcDbEntity
  8
0
100
AcDbBlockBegin
  2
SW_CENTERMARKSYMBOL_1
 70
     0
 10
0.0
 20
0.0
 30
0.0
  3
SW_CENTERMARKSYMBOL_1
  1

  0
LINE
  5
8576
330
8574
100
AcDbEntity
  8
0
  6
Continuous
 62
     0
370
     0
100
AcDbLine
 10
0.0
 20
0.0
 30
0.0
 11
0.0
 21
2.500000000000002
 31
0.0
  0
LINE
  5
8577
330
8574
100
AcDbEntity
  8
0
  6
Continuous
 62
     0
370
     0
100
AcDbLine
 10
0.0
 20
0.0
 30
0.0
 11
-2.500000000000002
 21
0.0
 31
0.0
  0
LINE
  5
8578
330
8574
100
AcDbEntity
  8
0
  6
Continuous
 62
     0
370
     0
100
AcDbLine
 10
0.0
 20
0.0
 30
0.0
 11
0.0
 21
-2.500000000000002
 31
0.0
  0
LINE
  5
8579
330
8574
100
AcDbEntity
  8
0
  6
Continuous
 62
     0
370
     0
100
AcDbLine
 10
0.0
 20
0.0
 30
0.0
 11
2.500000000000002
 21
0.0
 31
0.0
  0
LINE
  5
857A
330
8574
100
AcDbEntity
  8
0
  6
Continuous
 62
     0
370
     0
100
AcDbLine
 10
0.0
 20
5.000000000000004
 30
0.0
 11
0.0
 21
5.500000000000005
 31
0.0
  0
LINE
  5
857B
330
8574
100
AcDbEntity
  8
0
  6
Continuous
 62
     0
370
     0
100
AcDbLine
 10
-5.000000000000004
 20
0.0
 30
0.0
 11
-5.500000000000005
 21
0.0
 31
0.0
  0
LINE
  5
857C
330
8574
100
AcDbEntity
  8
0
  6
Continuous
 62
     0
370
     0
100
AcDbLine
 10
0.0
 20
-5.000000000000004
 30
0.0
 11
0.0
 21
-5.500000000000005
 31
0.0
  0
LINE
  5
857D
330
8574
100
AcDbEntity
  8
0
  6
Continuous
 62
     0
370
     0
100
AcDbLine
 10
5.000000000000004
 20
0.0
 30
0.0
 11
5.500000000000005
 21
0.0
 31
0.0
  0
ENDBLK
  5
857E
330
8574
100
AcDbEntity
  8
0
100
AcDbBlockEnd
  0
BLOCK
  5
A523
330
A517
100
AcDbEntity
  8
0
100
AcDbBlockBegin
  2
*D6
 70
     1
 10
0.0
 20
0.0
 30
0.0
  3
*D6
  1

  0
LINE
  5
CEFB
330
A517
100
AcDbEntity
  8
AM_REFDIM
100
AcDbLine
 10
761.4348770718781
 20
133.9989387998018
 30
0.0
 11
761.4348770718781
 21
114.3928024657897
 31
0.0
  0
LINE
  5
CEFC
330
A517
100
AcDbEntity
  8
AM_REFDIM
100
AcDbLine
 10
781.6348764566551
 20
133.9989387215034
 30
0.0
 11
781.6348764566551
 21
114.3928024657897
 31
0.0
  0
LINE
  5
CEFD
330
A517
100
AcDbEntity
  8
AM_REFDIM
100
AcDbLine
 10
764.9552989620153
 20
115.3986372915431
 30
0.0
 11
778.1144545665179
 21
115.3986372915431
 31
0.0
  0
SOLID
  5
CEFE
330
A517
100
AcDbEntity
  8
AM_REFDIM
100
AcDbTrace
 10
764.9552989620153
 20
115.9853742732327
 30
0.0
 11
764.9552989620153
 21
114.8119003098536
 31
0.0
 12
761.4348770718781
 22
115.3986372915431
 32
0.0
 13
761.4348770718781
 23
115.3986372915431
 33
0.0
  0
SOLID
  5
CEFF
330
A517
100
AcDbEntity
  8
AM_REFDIM
100
AcDbTrace
 10
778.1144545665179
 20
115.9853742732327
 30
0.0
 11
778.1144545665179
 21
114.8119003098536
 31
0.0
 12
781.6348764566551
 22
115.3986372915431
 32
0.0
 13
781.6348764566551
 23
115.3986372915431
 33
0.0
  0
MTEXT
  5
CF00
330
A517
100
AcDbEntity
  8
AM_REFDIM
100
AcDbMText
 10
771.534877071878
 20
118.1650295605828
 30
0.0
 40
3.520421890137194
 41
0.0
 71
     5
 72
     1
  1
20.2
 73
     1
 44
1.0
1001
ACAD
1000
MTEXTBEGIN
1070
    73
1070
     1
1070
    44
1040
1.0
1070
    74
1070
     0
1000
MTEXTEND
  0
POINT
  5
CF01
330
A517
100
AcDbEntity
  8
Defpoints
 62
     0
100
AcDbPoint
 10
761.4348770718781
 20
135.0047736255552
 30
0.0
  0
POINT
  5
CF02
330
A517
100
AcDbEntity
  8
Defpoints
 62
     0
100
AcDbPoint
 10
781.6348764566551
 20
135.0047735472569
 30
0.0
  0
POINT
  5
CF03
330
A517
100
AcDbEntity
  8
Defpoints
 62
     0
100
AcDbPoint
 10
781.6348764566551
 20
115.3986372915431
 30
0.0
  0
ENDBLK
  5
A524
330
A517
100
AcDbEntity
  8
0
100
AcDbBlockEnd
  0
BLOCK
  5
A54B
330
A541
100
AcDbEntity
  8
0
100
AcDbBlockBegin
  2
*D7
 70
     1
 10
0.0
 20
0.0
 30
0.0
  3
*D7
  1

  0
LINE
  5
CF04
330
A541
100
AcDbEntity
  8
AM_REFDIM
100
AcDbLine
 10
751.5348772970805
 20
129.342714470357
 30
0.0
 11
751.5348772970805
 21
106.0190921744825
 31
0.0
  0
LINE
  5
CF05
330
A541
100
AcDbEntity
  8
AM_REFDIM
100
AcDbLine
 10
791.5348764030109
 20
129.342714470357
 30
0.0
 11
791.5348764030109
 21
106.0190921744825
 31
0.0
  0
LINE
  5
CF06
330
A541
100
AcDbEntity
  8
AM_REFDIM
100
AcDbLine
 10
755.0552991872177
 20
107.024927000236
 30
0.0
 11
788.0144545128737
 21
107.024927000236
 31
0.0
  0
SOLID
  5
CF07
330
A541
100
AcDbEntity
  8
AM_REFDIM
100
AcDbTrace
 10
755.0552991872177
 20
107.6116639819255
 30
0.0
 11
755.0552991872177
 21
106.4381900185465
 31
0.0
 12
751.5348772970805
 22
107.024927000236
 32
0.0
 13
751.5348772970805
 23
107.024927000236
 33
0.0
  0
SOLID
  5
CF08
330
A541
100
AcDbEntity
  8
AM_REFDIM
100
AcDbTrace
 10
788.0144545128737
 20
107.6116639819255
 30
0.0
 11
788.0144545128737
 21
106.4381900185465
 31
0.0
 12
791.5348764030109
 22
107.024927000236
 32
0.0
 13
791.5348764030109
 23
107.024927000236
 33
0.0
  0
MTEXT
  5
CF09
330
A541
100
AcDbEntity
  8
AM_REFDIM
100
AcDbMText
 10
771.5348768500457
 20
109.7909727710581
 30
0.0
 40
3.520421890137194
 41
0.0
 71
     5
 72
     1
  1
40
 73
     1
 44
1.0
1001
ACAD
1000
MTEXTBEGIN
1070
    73
1070
     1
1070
    44
1040
1.0
1070
    74
1070
     0
1000
MTEXTEND
  0
POINT
  5
CF0A
330
A541
100
AcDbEntity
  8
Defpoints
 62
     0
100
AcDbPoint
 10
751.5348772970805
 20
130.3485492961105
 30
0.0
  0
POINT
  5
CF0B
330
A541
100
AcDbEntity
  8
Defpoints
 62
     0
100
AcDbPoint
 10
791.5348764030109
 20
130.3485492961105
 30
0.0
  0
POINT
  5
CF0C
330
A541
100
AcDbEntity
  8
Defpoints
 62
     0
100
AcDbPoint
 10
791.5348764030109
 20
107.024927000236
 30
0.0
  0
ENDBLK
  5
A54C
330
A541
100
AcDbEntity
  8
0
100
AcDbBlockEnd
  0
BLOCK
  5
A589
330
A57F
100
AcDbEntity
  8
0
100
AcDbBlockBegin
  2
*D8
 70
     1
 10
0.0
 20
0.0
 30
0.0
  3
*D8
  1

  0
LINE
  5
CF0D
330
A57F
100
AcDbEntity
  8
AM_REFDIM
100
AcDbLine
 10
860.1213745972831
 20
214.3646501375561
 30
0.0
 11
875.5253779912949
 21
214.3646501375561
 31
0.0
  0
LINE
  5
CF0E
330
A57F
100
AcDbEntity
  8
AM_REFDIM
100
AcDbLine
 10
792.5407112287643
 20
130.3485492961105
 30
0.0
 11
875.5253779912949
 21
130.3485492961105
 31
0.0
  0
LINE
  5
CF0F
330
A57F
100
AcDbEntity
  8
AM_REFDIM
100
AcDbLine
 10
874.5195431655414
 20
210.8442282474189
 30
0.0
 11
874.5195431655414
 21
133.8689711862476
 31
0.0
  0
SOLID
  5
CF10
330
A57F
100
AcDbEntity
  8
AM_REFDIM
100
AcDbTrace
 10
873.9328061838518
 20
210.8442282474189
 30
0.0
 11
875.1062801472309
 21
210.8442282474189
 31
0.0
 12
874.5195431655414
 22
214.3646501375561
 32
0.0
 13
874.5195431655414
 23
214.3646501375561
 33
0.0
  0
SOLID
  5
CF11
330
A57F
100
AcDbEntity
  8
AM_REFDIM
100
AcDbTrace
 10
873.9328061838518
 20
133.8689711862476
 30
0.0
 11
875.1062801472309
 21
133.8689711862476
 31
0.0
 12
874.5195431655414
 22
130.3485492961105
 32
0.0
 13
874.5195431655414
 23
130.3485492961105
 33
0.0
  0
MTEXT
  5
CF12
330
A57F
100
AcDbEntity
  8
AM_REFDIM
100
AcDbMText
 10
871.7534973947193
 20
172.3565997168333
 30
0.0
 40
3.520421890137194
 41
0.0
 71
     5
 72
     1
  1
84
 11
0.0000000000000001
 21
1.0
 31
0.0
 73
     1
 44
1.0
1001
ACAD
1000
MTEXTBEGIN
1070
    73
1070
     1
1070
    44
1040
1.0
1070
    74
1070
     0
1000
MTEXTEND
  0
POINT
  5
CF13
330
A57F
100
AcDbEntity
  8
Defpoints
 62
     0
100
AcDbPoint
 10
859.1155397715295
 20
214.3646501375561
 30
0.0
  0
POINT
  5
CF14
330
A57F
100
AcDbEntity
  8
Defpoints
 62
     0
100
AcDbPoint
 10
791.5348764030109
 20
130.3485492961105
 30
0.0
  0
POINT
  5
CF15
330
A57F
100
AcDbEntity
  8
Defpoints
 62
     0
100
AcDbPoint
 10
874.5195431655414
 20
130.3485492961105
 30
0.0
  0
ENDBLK
  5
A58A
330
A57F
100
AcDbEntity
  8
0
100
AcDbBlockEnd
  0
BLOCK
  5
A62D
330
A623
100
AcDbEntity
  8
0
100
AcDbBlockBegin
  2
*D9
 70
     1
 10
0.0
 20
0.0
 30
0.0
  3
*D9
  1

  0
LINE
  5
CF16
330
A623
100
AcDbEntity
  8
AM_REFDIM
100
AcDbLine
 10
920.3799275536015
 20
294.3211566642478
 30
0.0
 11
920.3799275536015
 21
312.2373131771433
 31
0.0
  0
LINE
  5
CF17
330
A623
100
AcDbEntity
  8
AM_REFDIM
100
AcDbLine
 10
1015.379927553601
 20
294.3704849633093
 30
0.0
 11
1015.379927553601
 21
312.2373131771433
 31
0.0
  0
LINE
  5
CF18
330
A623
100
AcDbEntity
  8
AM_REFDIM
100
AcDbLine
 10
923.9003494437387
 20
311.2314783513898
 30
0.0
 11
1011.859505663464
 21
311.2314783513898
 31
0.0
  0
SOLID
  5
CF19
330
A623
100
AcDbEntity
  8
AM_REFDIM
100
AcDbTrace
 10
923.9003494437387
 20
311.8182153330793
 30
0.0
 11
923.9003494437387
 21
310.6447413697003
 31
0.0
 12
920.3799275536015
 22
311.2314783513898
 32
0.0
 13
920.3799275536015
 23
311.2314783513898
 33
0.0
  0
SOLID
  5
CF1A
330
A623
100
AcDbEntity
  8
AM_REFDIM
100
AcDbTrace
 10
1011.859505663464
 20
311.8182153330793
 30
0.0
 11
1011.859505663464
 21
310.6447413697003
 31
0.0
 12
1015.379927553601
 22
311.2314783513898
 32
0.0
 13
1015.379927553601
 23
311.2314783513898
 33
0.0
  0
MTEXT
  5
CF1B
330
A623
100
AcDbEntity
  8
AM_REFDIM
100
AcDbMText
 10
967.8799275536015
 20
313.9975241222119
 30
0.0
 40
3.520421890137194
 41
0.0
 71
     5
 72
     1
  1
95
 73
     1
 44
1.0
1001
ACAD
1000
MTEXTBEGIN
1070
    73
1070
     1
1070
    44
1040
1.0
1070
    74
1070
     0
1000
MTEXTEND
  0
POINT
  5
CF1C
330
A623
100
AcDbEntity
  8
Defpoints
 62
     0
100
AcDbPoint
 10
920.3799275536015
 20
293.3153218384944
 30
0.0
  0
POINT
  5
CF1D
330
A623
100
AcDbEntity
  8
Defpoints
 62
     0
100
AcDbPoint
 10
1015.379927553601
 20
293.3646501375558
 30
0.0
  0
POINT
  5
CF1E
330
A623
100
AcDbEntity
  8
Defpoints
 62
     0
100
AcDbPoint
 10
1015.379927553601
 20
311.2314783513898
 30
0.0
  0
ENDBLK
  5
A62E
330
A623
100
AcDbEntity
  8
0
100
AcDbBlockEnd
  0
BLOCK
  5
A686
330
A67C
100
AcDbEntity
  8
0
100
AcDbBlockBegin
  2
*D10
 70
     1
 10
0.0
 20
0.0
 30
0.0
  3
*D10
  1

  0
LINE
  5
CF1F
330
A67C
100
AcDbEntity
  8
AM_REFDIM
100
AcDbLine
 10
1015.385762379355
 20
294.3646501375558
 30
0.0
 11
1025.800170662245
 21
294.3646501375558
 31
0.0
  0
LINE
  5
CF20
330
A67C
100
AcDbEntity
  8
AM_REFDIM
100
AcDbLine
 10
1015.385762379355
 20
134.3646501375559
 30
0.0
 11
1025.800170662245
 21
134.3646501375559
 31
0.0
  0
LINE
  5
CF21
330
A67C
100
AcDbEntity
  8
AM_REFDIM
100
AcDbLine
 10
1024.794335836492
 20
290.8442282474187
 30
0.0
 11
1024.794335836492
 21
137.885072027693
 31
0.0
  0
SOLID
  5
CF22
330
A67C
100
AcDbEntity
  8
AM_REFDIM
100
AcDbTrace
 10
1024.207598854802
 20
290.8442282474187
 30
0.0
 11
1025.381072818182
 21
290.8442282474187
 31
0.0
 12
1024.794335836492
 22
294.3646501375558
 32
0.0
 13
1024.794335836492
 23
294.3646501375558
 33
0.0
  0
SOLID
  5
CF23
330
A67C
100
AcDbEntity
  8
AM_REFDIM
100
AcDbTrace
 10
1024.207598854802
 20
137.885072027693
 30
0.0
 11
1025.381072818182
 21
137.885072027693
 31
0.0
 12
1024.794335836492
 22
134.3646501375559
 32
0.0
 13
1024.794335836492
 23
134.3646501375559
 33
0.0
  0
MTEXT
  5
CF24
330
A67C
100
AcDbEntity
  8
AM_REFDIM
100
AcDbMText
 10
1022.02829006567
 20
214.3646501375559
 30
0.0
 40
3.520421890137194
 41
0.0
 71
     5
 72
     1
  1
%%c160
 11
0.0000000000000001
 21
1.0
 31
0.0
 73
     1
 44
1.0
1001
ACAD
1000
MTEXTBEGIN
1070
    73
1070
     1
1070
    44
1040
1.0
1070
    74
1070
     0
1000
MTEXTEND
  0
POINT
  5
CF25
330
A67C
100
AcDbEntity
  8
Defpoints
 62
     0
100
AcDbPoint
 10
1014.379927553601
 20
294.3646501375558
 30
0.0
  0
POINT
  5
CF26
330
A67C
100
AcDbEntity
  8
Defpoints
 62
     0
100
AcDbPoint
 10
1014.379927553601
 20
134.3646501375559
 30
0.0
  0
POINT
  5
CF27
330
A67C
100
AcDbEntity
  8
Defpoints
 62
     0
100
AcDbPoint
 10
1024.794335836492
 20
134.3646501375559
 30
0.0
  0
ENDBLK
  5
A687
330
A67C
100
AcDbEntity
  8
0
100
AcDbBlockEnd
  0
BLOCK
  5
A6AC
330
A6A2
100
AcDbEntity
  8
0
100
AcDbBlockBegin
  2
*D11
 70
     1
 10
0.0
 20
0.0
 30
0.0
  3
*D11
  1

  0
LINE
  5
CF28
330
A6A2
100
AcDbEntity
  8
AM_REFDIM
100
AcDbLine
 10
1015.379927553601
 20
134.3588153118024
 30
0.0
 11
1015.379927553601
 21
118.4550449982915
 31
0.0
  0
LINE
  5
CF29
330
A6A2
100
AcDbEntity
  8
AM_REFDIM
100
AcDbLine
 10
948.3799282539447
 20
132.1219296730726
 30
0.0
 11
948.3799282539447
 21
118.4550449982915
 31
0.0
  0
LINE
  5
CF2A
330
A6A2
100
AcDbEntity
  8
AM_REFDIM
100
AcDbLine
 10
1011.859505663464
 20
119.460879824045
 30
0.0
 11
951.9003501440819
 21
119.460879824045
 31
0.0
  0
SOLID
  5
CF2B
330
A6A2
100
AcDbEntity
  8
AM_REFDIM
100
AcDbTrace
 10
1011.859505663464
 20
120.0476168057345
 30
0.0
 11
1011.859505663464
 21
118.8741428423555
 31
0.0
 12
1015.379927553601
 22
119.460879824045
 32
0.0
 13
1015.379927553601
 23
119.460879824045
 33
0.0
  0
SOLID
  5
CF2C
330
A6A2
100
AcDbEntity
  8
AM_REFDIM
100
AcDbTrace
 10
951.9003501440819
 20
120.0476168057345
 30
0.0
 11
951.9003501440819
 21
118.8741428423555
 31
0.0
 12
948.3799282539447
 22
119.460879824045
 32
0.0
 13
948.3799282539447
 23
119.460879824045
 33
0.0
  0
MTEXT
  5
CF2D
330
A6A2
100
AcDbEntity
  8
AM_REFDIM
100
AcDbMText
 10
981.3799279037731
 20
122.226925594867
 30
0.0
 40
3.520421890137194
 41
0.0
 71
     5
 72
     1
  1
67
 73
     1
 44
1.0
1001
ACAD
1000
MTEXTBEGIN
1070
    73
1070
     1
1070
    44
1040
1.0
1070
    74
1070
     0
1000
MTEXTEND
  0
POINT
  5
CF2E
330
A6A2
100
AcDbEntity
  8
Defpoints
 62
     0
100
AcDbPoint
 10
1015.379927553601
 20
135.3646501375559
 30
0.0
  0
POINT
  5
CF2F
330
A6A2
100
AcDbEntity
  8
Defpoints
 62
     0
100
AcDbPoint
 10
948.3799282539447
 20
133.1277644988261
 30
0.0
  0
POINT
  5
CF30
330
A6A2
100
AcDbEntity
  8
Defpoints
 62
     0
100
AcDbPoint
 10
948.3799282539447
 20
119.460879824045
 30
0.0
  0
ENDBLK
  5
A6AD
330
A6A2
100
AcDbEntity
  8
0
100
AcDbBlockEnd
  0
BLOCK
  5
A731
330
A725
100
AcDbEntity
  8
0
100
AcDbBlockBegin
  2
*D12
 70
     1
 10
0.0
 20
0.0
 30
0.0
  3
*D12
  1

  0
LINE
  5
CF31
330
A725
100
AcDbEntity
  8
AM_REFDIM
100
AcDbLine
 10
918.3799274585952
 20
252.8704848126129
 30
0.0
 11
918.3799274585952
 21
312.2373131771434
 31
0.0
  0
LINE
  5
CF32
330
A725
100
AcDbEntity
  8
AM_REFDIM
100
AcDbLine
 10
920.3799274585952
 20
294.3211566642478
 30
0.0
 11
920.3799274585952
 21
312.2373131771434
 31
0.0
  0
LINE
  5
CF33
330
A725
100
AcDbEntity
  8
AM_REFDIM
100
AcDbLine
 10
914.859505568458
 20
311.2314783513899
 30
0.0
 11
911.3390836783208
 21
311.2314783513899
 31
0.0
  0
LINE
  5
CF34
330
A725
100
AcDbEntity
  8
AM_REFDIM
100
AcDbLine
 10
923.9003493487324
 20
311.2314783513899
 30
0.0
 11
927.4207712388696
 21
311.2314783513899
 31
0.0
  0
LINE
  5
CF35
330
A725
100
AcDbEntity
  8
AM_REFDIM
100
AcDbLine
 10
918.3799274585952
 20
311.2314783513899
 30
0.0
 11
920.3799274585952
 21
311.2314783513899
 31
0.0
  0
SOLID
  5
CF36
330
A725
100
AcDbEntity
  8
AM_REFDIM
100
AcDbTrace
 10
914.859505568458
 20
311.8182153330794
 30
0.0
 11
914.859505568458
 21
310.6447413697004
 31
0.0
 12
918.3799274585952
 22
311.2314783513899
 32
0.0
 13
918.3799274585952
 23
311.2314783513899
 33
0.0
  0
SOLID
  5
CF37
330
A725
100
AcDbEntity
  8
AM_REFDIM
100
AcDbTrace
 10
923.9003493487324
 20
311.8182153330794
 30
0.0
 11
923.9003493487324
 21
310.6447413697004
 31
0.0
 12
920.3799274585952
 22
311.2314783513899
 32
0.0
 13
920.3799274585952
 23
311.2314783513899
 33
0.0
  0
MTEXT
  5
CF38
330
A725
100
AcDbEntity
  8
AM_REFDIM
100
AcDbMText
 10
919.3799274585952
 20
313.9978706204295
 30
0.0
 40
3.520421890137194
 41
0.0
 71
     5
 72
     1
  1
2
 73
     1
 44
1.0
1001
ACAD
1000
MTEXTBEGIN
1070
    73
1070
     1
1070
    44
1040
1.0
1070
    74
1070
     0
1000
MTEXTEND
  0
POINT
  5
CF39
330
A725
100
AcDbEntity
  8
Defpoints
 62
     0
100
AcDbPoint
 10
918.3799274585952
 20
251.8646499868594
 30
0.0
  0
POINT
  5
CF3A
330
A725
100
AcDbEntity
  8
Defpoints
 62
     0
100
AcDbPoint
 10
920.3799274585952
 20
293.3153218384944
 30
0.0
  0
POINT
  5
CF3B
330
A725
100
AcDbEntity
  8
Defpoints
 62
     0
100
AcDbPoint
 10
920.3799274585952
 20
311.2314783513899
 30
0.0
  0
ENDBLK
  5
A732
330
A725
100
AcDbEntity
  8
0
100
AcDbBlockEnd
  0
BLOCK
  5
A788
330
A77C
100
AcDbEntity
  8
0
100
AcDbBlockBegin
  2
*D13
 70
     1
 10
0.0
 20
0.0
 30
0.0
  3
*D13
  1

  0
LINE
  5
CF3C
330
A77C
100
AcDbEntity
  8
AM_REFDIM
100
AcDbLine
 10
772.5407118976315
 20
162.8485487826569
 30
0.0
 11
851.1621658951472
 21
162.8485487826569
 31
0.0
  0
LINE
  5
CF3D
330
A77C
100
AcDbEntity
  8
AM_REFDIM
100
AcDbLine
 10
782.6407112824085
 20
154.8485505180057
 30
0.0
 11
851.1621658951472
 21
154.8485505180057
 31
0.0
  0
LINE
  5
CF3E
330
A77C
100
AcDbEntity
  8
AM_REFDIM
100
AcDbLine
 10
850.1563310693937
 20
166.3689706727941
 30
0.0
 11
850.1563310693937
 21
169.8893925629313
 31
0.0
  0
LINE
  5
CF3F
330
A77C
100
AcDbEntity
  8
AM_REFDIM
100
AcDbLine
 10
850.1563310693937
 20
151.3281286278685
 30
0.0
 11
850.1563310693937
 21
147.8077067377313
 31
0.0
  0
LINE
  5
CF40
330
A77C
100
AcDbEntity
  8
AM_REFDIM
100
AcDbLine
 10
850.1563310693937
 20
162.8485487826569
 30
0.0
 11
850.1563310693937
 21
154.8485505180057
 31
0.0
  0
SOLID
  5
CF41
330
A77C
100
AcDbEntity
  8
AM_REFDIM
100
AcDbTrace
 10
849.5695940877041
 20
166.3689706727941
 30
0.0
 11
850.7430680510832
 21
166.3689706727941
 31
0.0
 12
850.1563310693937
 22
162.8485487826569
 32
0.0
 13
850.1563310693937
 23
162.8485487826569
 33
0.0
  0
SOLID
  5
CF42
330
A77C
100
AcDbEntity
  8
AM_REFDIM
100
AcDbTrace
 10
849.5695940877041
 20
151.3281286278685
 30
0.0
 11
850.7430680510832
 21
151.3281286278685
 31
0.0
 12
850.1563310693937
 22
154.8485505180057
 32
0.0
 13
850.1563310693937
 23
154.8485505180057
 33
0.0
  0
MTEXT
  5
CF43
330
A77C
100
AcDbEntity
  8
AM_REFDIM
100
AcDbMText
 10
847.3902852985716
 20
158.8485496503314
 30
0.0
 40
3.520421890137194
 41
0.0
 71
     5
 72
     1
  1
8
 11
0.0000000000000001
 21
1.0
 31
0.0
 73
     1
 44
1.0
1001
ACAD
1000
MTEXTBEGIN
1070
    73
1070
     1
1070
    44
1040
1.0
1070
    74
1070
     0
1000
MTEXTEND
  0
POINT
  5
CF44
330
A77C
100
AcDbEntity
  8
Defpoints
 62
     0
100
AcDbPoint
 10
771.534877071878
 20
162.8485487826569
 30
0.0
  0
POINT
  5
CF45
330
A77C
100
AcDbEntity
  8
Defpoints
 62
     0
100
AcDbPoint
 10
781.6348764566551
 20
154.8485505180057
 30
0.0
  0
POINT
  5
CF46
330
A77C
100
AcDbEntity
  8
Defpoints
 62
     0
100
AcDbPoint
 10
850.1563310693937
 20
154.8485505180057
 30
0.0
  0
ENDBLK
  5
A789
330
A77C
100
AcDbEntity
  8
0
100
AcDbBlockEnd
  0
BLOCK
  5
A7B0
330
A7A6
100
AcDbEntity
  8
0
100
AcDbBlockBegin
  2
*D14
 70
     1
 10
0.0
 20
0.0
 30
0.0
  3
*D14
  1

  0
LINE
  5
CF47
330
A7A6
100
AcDbEntity
  8
AM_REFDIM
100
AcDbLine
 10
772.5407118976315
 20
162.8485487826569
 30
0.0
 11
862.713537124377
 21
162.8485487826569
 31
0.0
  0
LINE
  5
CF48
330
A7A6
100
AcDbEntity
  8
AM_REFDIM
100
AcDbLine
 10
772.5407118976315
 20
138.8485487826571
 30
0.0
 11
862.713537124377
 21
138.8485487826571
 31
0.0
  0
LINE
  5
CF49
330
A7A6
100
AcDbEntity
  8
AM_REFDIM
100
AcDbLine
 10
861.7077022986237
 20
159.3281268925197
 30
0.0
 11
861.7077022986237
 21
142.3689706727943
 31
0.0
  0
SOLID
  5
CF4A
330
A7A6
100
AcDbEntity
  8
AM_REFDIM
100
AcDbTrace
 10
861.1209653169341
 20
159.3281268925197
 30
0.0
 11
862.2944392803132
 21
159.3281268925197
 31
0.0
 12
861.7077022986237
 22
162.8485487826569
 32
0.0
 13
861.7077022986237
 23
162.8485487826569
 33
0.0
  0
SOLID
  5
CF4B
330
A7A6
100
AcDbEntity
  8
AM_REFDIM
100
AcDbTrace
 10
861.1209653169341
 20
142.3689706727943
 30
0.0
 11
862.2944392803132
 21
142.3689706727943
 31
0.0
 12
861.7077022986237
 22
138.8485487826571
 32
0.0
 13
861.7077022986237
 23
138.8485487826571
 33
0.0
  0
MTEXT
  5
CF4C
330
A7A6
100
AcDbEntity
  8
AM_REFDIM
100
AcDbMText
 10
858.9413100295839
 20
150.848548782657
 30
0.0
 40
3.520421890137194
 41
0.0
 71
     5
 72
     1
  1
24
 11
0.0000000000000001
 21
1.0
 31
0.0
 73
     1
 44
1.0
1001
ACAD
1000
MTEXTBEGIN
1070
    73
1070
     1
1070
    44
1040
1.0
1070
    74
1070
     0
1000
MTEXTEND
  0
POINT
  5
CF4D
330
A7A6
100
AcDbEntity
  8
Defpoints
 62
     0
100
AcDbPoint
 10
771.534877071878
 20
162.8485487826569
 30
0.0
  0
POINT
  5
CF4E
330
A7A6
100
AcDbEntity
  8
Defpoints
 62
     0
100
AcDbPoint
 10
771.534877071878
 20
138.8485487826571
 30
0.0
  0
POINT
  5
CF4F
330
A7A6
100
AcDbEntity
  8
Defpoints
 62
     0
100
AcDbPoint
 10
861.7077022986237
 20
138.8485487826571
 30
0.0
  0
ENDBLK
  5
A7B1
330
A7A6
100
AcDbEntity
  8
0
100
AcDbBlockEnd
  0
BLOCK
  5
A7D8
330
A7CC
100
AcDbEntity
  8
0
100
AcDbBlockBegin
  2
*D15
 70
     1
 10
0.0
 20
0.0
 30
0.0
  3
*D15
  1

  0
LINE
  5
CF50
330
A7CC
100
AcDbEntity
  8
AM_REFDIM
100
AcDbLine
 10
772.5407118976315
 20
138.8485487826571
 30
0.0
 11
851.1621658951471
 21
138.8485487826571
 31
0.0
  0
LINE
  5
CF51
330
A7CC
100
AcDbEntity
  8
AM_REFDIM
100
AcDbLine
 10
792.5407112287643
 20
130.3485492961105
 30
0.0
 11
851.1621658951471
 21
130.3485492961105
 31
0.0
  0
LINE
  5
CF52
330
A7CC
100
AcDbEntity
  8
AM_REFDIM
100
AcDbLine
 10
850.1563310693937
 20
142.3689706727943
 30
0.0
 11
850.1563310693937
 21
145.8893925629315
 31
0.0
  0
LINE
  5
CF53
330
A7CC
100
AcDbEntity
  8
AM_REFDIM
100
AcDbLine
 10
850.1563310693937
 20
126.8281274059733
 30
0.0
 11
850.1563310693937
 21
123.3077055158361
 31
0.0
  0
LINE
  5
CF54
330
A7CC
100
AcDbEntity
  8
AM_REFDIM
100
AcDbLine
 10
850.1563310693937
 20
138.8485487826571
 30
0.0
 11
850.1563310693937
 21
130.3485492961105
 31
0.0
  0
SOLID
  5
CF55
330
A7CC
100
AcDbEntity
  8
AM_REFDIM
100
AcDbTrace
 10
849.5695940877041
 20
142.3689706727943
 30
0.0
 11
850.7430680510832
 21
142.3689706727943
 31
0.0
 12
850.1563310693937
 22
138.8485487826571
 32
0.0
 13
850.1563310693937
 23
138.8485487826571
 33
0.0
  0
SOLID
  5
CF56
330
A7CC
100
AcDbEntity
  8
AM_REFDIM
100
AcDbTrace
 10
849.5695940877041
 20
126.8281274059733
 30
0.0
 11
850.7430680510832
 21
126.8281274059733
 31
0.0
 12
850.1563310693937
 22
130.3485492961105
 32
0.0
 13
850.1563310693937
 23
130.3485492961105
 33
0.0
  0
MTEXT
  5
CF57
330
A7CC
100
AcDbEntity
  8
AM_REFDIM
100
AcDbMText
 10
847.3902852985716
 20
134.5985490393839
 30
0.0
 40
3.520421890137194
 41
0.0
 71
     5
 72
     1
  1
8.5
 11
0.0000000000000001
 21
1.0
 31
0.0
 73
     1
 44
1.0
1001
ACAD
1000
MTEXTBEGIN
1070
    73
1070
     1
1070
    44
1040
1.0
1070
    74
1070
     0
1000
MTEXTEND
  0
POINT
  5
CF58
330
A7CC
100
AcDbEntity
  8
Defpoints
 62
     0
100
AcDbPoint
 10
771.534877071878
 20
138.8485487826571
 30
0.0
  0
POINT
  5
CF59
330
A7CC
100
AcDbEntity
  8
Defpoints
 62
     0
100
AcDbPoint
 10
791.5348764030109
 20
130.3485492961105
 30
0.0
  0
POINT
  5
CF5A
330
A7CC
100
AcDbEntity
  8
Defpoints
 62
     0
100
AcDbPoint
 10
850.1563310693937
 20
130.3485492961105
 30
0.0
  0
ENDBLK
  5
A7D9
330
A7CC
100
AcDbEntity
  8
0
100
AcDbBlockEnd
  0
BLOCK
  5
B25B
330
B251
100
AcDbEntity
  8
0
100
AcDbBlockBegin
  2
*D16
 70
     1
 10
0.0
 20
0.0
 30
0.0
  3
*D16
  1

  0
LINE
  5
CF5B
330
B251
100
AcDbEntity
  8
AM_REFDIM
100
AcDbLine
 10
760.4290421848522
 20
170.3485484020408
 30
0.0
 11
682.9483795464732
 21
170.3485484020409
 31
0.0
  0
LINE
  5
CF5C
330
B251
100
AcDbEntity
  8
AM_REFDIM
100
AcDbLine
 10
750.5290424713271
 20
130.3485492961105
 30
0.0
 11
682.9483795464732
 21
130.3485492961105
 31
0.0
  0
LINE
  5
CF5D
330
B251
100
AcDbEntity
  8
AM_REFDIM
100
AcDbLine
 10
683.9542143722267
 20
166.8281265119037
 30
0.0
 11
683.9542143722267
 21
133.8689711862477
 31
0.0
  0
SOLID
  5
CF5E
330
B251
100
AcDbEntity
  8
AM_REFDIM
100
AcDbTrace
 10
683.3674773905372
 20
166.8281265119037
 30
0.0
 11
684.5409513539163
 21
166.8281265119037
 31
0.0
 12
683.9542143722267
 22
170.3485484020409
 32
0.0
 13
683.9542143722267
 23
170.3485484020409
 33
0.0
  0
SOLID
  5
CF5F
330
B251
100
AcDbEntity
  8
AM_REFDIM
100
AcDbTrace
 10
683.3674773905372
 20
133.8689711862477
 30
0.0
 11
684.5409513539163
 21
133.8689711862477
 31
0.0
 12
683.9542143722267
 22
130.3485492961105
 32
0.0
 13
683.9542143722267
 23
130.3485492961105
 33
0.0
  0
MTEXT
  5
CF60
330
B251
100
AcDbEntity
  8
AM_REFDIM
100
AcDbMText
 10
681.1881686014046
 20
150.3485488490757
 30
0.0
 40
3.520421890137194
 41
0.0
 71
     5
 72
     1
  1
40
 11
0.0000000000000001
 21
1.0
 31
0.0
 73
     1
 44
1.0
1001
ACAD
1000
MTEXTBEGIN
1070
    73
1070
     1
1070
    44
1040
1.0
1070
    74
1070
     0
1000
MTEXTEND
  0
POINT
  5
CF61
330
B251
100
AcDbEntity
  8
Defpoints
 62
     0
100
AcDbPoint
 10
761.4348770106057
 20
170.3485484020408
 30
0.0
  0
POINT
  5
CF62
330
B251
100
AcDbEntity
  8
Defpoints
 62
     0
100
AcDbPoint
 10
751.5348772970805
 20
130.3485492961105
 30
0.0
  0
POINT
  5
CF63
330
B251
100
AcDbEntity
  8
Defpoints
 62
     0
100
AcDbPoint
 10
683.9542143722267
 20
130.3485492961105
 30
0.0
  0
ENDBLK
  5
B25C
330
B251
100
AcDbEntity
  8
0
100
AcDbBlockEnd
  0
BLOCK
  5
B2BD
330
B2BC
100
AcDbEntity
  8
0
100
AcDbBlockBegin
  2
SW_CENTERMARKSYMBOL_2
 70
     0
 10
0.0
 20
0.0
 30
0.0
  3
SW_CENTERMARKSYMBOL_2
  1

  0
LINE
  5
B2BE
330
B2BC
100
AcDbEntity
  8
0
  6
Continuous
 62
     0
370
     0
100
AcDbLine
 10
0.0
 20
0.0
 30
0.0
 11
0.0
 21
2.500000000000002
 31
0.0
  0
LINE
  5
B2BF
330
B2BC
100
AcDbEntity
  8
0
  6
Continuous
 62
     0
370
     0
100
AcDbLine
 10
0.0
 20
0.0
 30
0.0
 11
-2.500000000000002
 21
0.0
 31
0.0
  0
LINE
  5
B2C0
330
B2BC
100
AcDbEntity
  8
0
  6
Continuous
 62
     0
370
     0
100
AcDbLine
 10
0.0
 20
0.0
 30
0.0
 11
0.0
 21
-2.500000000000002
 31
0.0
  0
LINE
  5
B2C1
330
B2BC
100
AcDbEntity
  8
0
  6
Continuous
 62
     0
370
     0
100
AcDbLine
 10
0.0
 20
0.0
 30
0.0
 11
2.500000000000002
 21
0.0
 31
0.0
  0
LINE
  5
B2C2
330
B2BC
100
AcDbEntity
  8
0
  6
Continuous
 62
     0
370
     0
100
AcDbLine
 10
0.0
 20
2.500000000000002
 30
0.0
 11
0.0
 21
4.599999999999992
 31
0.0
  0
LINE
  5
B2C3
330
B2BC
100
AcDbEntity
  8
0
  6
Continuous
 62
     0
370
     0
100
AcDbLine
 10
-2.500000000000002
 20
0.0
 30
0.0
 11
-4.599999999999992
 21
0.0
 31
0.0
  0
LINE
  5
B2C4
330
B2BC
100
AcDbEntity
  8
0
  6
Continuous
 62
     0
370
     0
100
AcDbLine
 10
0.0
 20
-2.500000000000002
 30
0.0
 11
0.0
 21
-4.60000000000002
 31
0.0
  0
LINE
  5
B2C5
330
B2BC
100
AcDbEntity
  8
0
  6
Continuous
 62
     0
370
     0
100
AcDbLine
 10
2.500000000000002
 20
0.0
 30
0.0
 11
4.60000000000002
 21
0.0
 31
0.0
  0
ENDBLK
  5
B2C6
330
B2BC
100
AcDbEntity
  8
0
100
AcDbBlockEnd
  0
BLOCK
  5
B2C8
330
B2C7
100
AcDbEntity
  8
0
100
AcDbBlockBegin
  2
SW_CENTERMARKSYMBOL_3
 70
     0
 10
0.0
 20
0.0
 30
0.0
  3
SW_CENTERMARKSYMBOL_3
  1

  0
LINE
  5
B2C9
330
B2C7
100
AcDbEntity
  8
0
  6
Continuous
 62
     0
370
     0
100
AcDbLine
 10
0.0
 20
0.0
 30
0.0
 11
0.0
 21
2.500000000000002
 31
0.0
  0
LINE
  5
B2CA
330
B2C7
100
AcDbEntity
  8
0
  6
Continuous
 62
     0
370
     0
100
AcDbLine
 10
0.0
 20
0.0
 30
0.0
 11
-2.500000000000002
 21
0.0
 31
0.0
  0
LINE
  5
B2CB
330
B2C7
100
AcDbEntity
  8
0
  6
Continuous
 62
     0
370
     0
100
AcDbLine
 10
0.0
 20
0.0
 30
0.0
 11
0.0
 21
-2.500000000000002
 31
0.0
  0
LINE
  5
B2CC
330
B2C7
100
AcDbEntity
  8
0
  6
Continuous
 62
     0
370
     0
100
AcDbLine
 10
0.0
 20
0.0
 30
0.0
 11
2.500000000000002
 21
0.0
 31
0.0
  0
LINE
  5
B2CD
330
B2C7
100
AcDbEntity
  8
0
  6
Continuous
 62
     0
370
     0
100
AcDbLine
 10
0.0
 20
2.500000000000002
 30
0.0
 11
0.0
 21
4.599999999999992
 31
0.0
  0
LINE
  5
B2CE
330
B2C7
100
AcDbEntity
  8
0
  6
Continuous
 62
     0
370
     0
100
AcDbLine
 10
-2.500000000000002
 20
0.0
 30
0.0
 11
-4.599999999999992
 21
0.0
 31
0.0
  0
LINE
  5
B2CF
330
B2C7
100
AcDbEntity
  8
0
  6
Continuous
 62
     0
370
     0
100
AcDbLine
 10
0.0
 20
-2.500000000000002
 30
0.0
 11
0.0
 21
-4.60000000000002
 31
0.0
  0
LINE
  5
B2D0
330
B2C7
100
AcDbEntity
  8
0
  6
Continuous
 62
     0
370
     0
100
AcDbLine
 10
2.500000000000002
 20
0.0
 30
0.0
 11
4.60000000000002
 21
0.0
 31
0.0
  0
ENDBLK
  5
B2D1
330
B2C7
100
AcDbEntity
  8
0
100
AcDbBlockEnd
  0
BLOCK
  5
B2D3
330
B2D2
100
AcDbEntity
  8
0
100
AcDbBlockBegin
  2
SW_CENTERMARKSYMBOL_4
 70
     0
 10
0.0
 20
0.0
 30
0.0
  3
SW_CENTERMARKSYMBOL_4
  1

  0
LINE
  5
B2D4
330
B2D2
100
AcDbEntity
  8
0
  6
Continuous
 62
     0
370
     0
100
AcDbLine
 10
0.0
 20
0.0
 30
0.0
 11
0.0
 21
2.500000000000002
 31
0.0
  0
LINE
  5
B2D5
330
B2D2
100
AcDbEntity
  8
0
  6
Continuous
 62
     0
370
     0
100
AcDbLine
 10
0.0
 20
0.0
 30
0.0
 11
-2.500000000000002
 21
0.0
 31
0.0
  0
LINE
  5
B2D6
330
B2D2
100
AcDbEntity
  8
0
  6
Continuous
 62
     0
370
     0
100
AcDbLine
 10
0.0
 20
0.0
 30
0.0
 11
0.0
 21
-2.500000000000002
 31
0.0
  0
LINE
  5
B2D7
330
B2D2
100
AcDbEntity
  8
0
  6
Continuous
 62
     0
370
     0
100
AcDbLine
 10
0.0
 20
0.0
 30
0.0
 11
2.500000000000002
 21
0.0
 31
0.0
  0
LINE
  5
B2D8
330
B2D2
100
AcDbEntity
  8
0
  6
Continuous
 62
     0
370
     0
100
AcDbLine
 10
0.0
 20
5.000000000000004
 30
0.0
 11
0.0
 21
33.00000001079223
 31
0.0
  0
LINE
  5
B2D9
330
B2D2
100
AcDbEntity
  8
0
  6
Continuous
 62
     0
370
     0
100
AcDbLine
 10
-5.000000000000004
 20
0.0
 30
0.0
 11
-33.00000001079223
 21
0.0
 31
0.0
  0
LINE
  5
B2DA
330
B2D2
100
AcDbEntity
  8
0
  6
Continuous
 62
     0
370
     0
100
AcDbLine
 10
0.0
 20
-5.000000000000004
 30
0.0
 11
0.0
 21
-33.00000001079223
 31
0.0
  0
LINE
  5
B2DB
330
B2D2
100
AcDbEntity
  8
0
  6
Continuous
 62
     0
370
     0
100
AcDbLine
 10
5.000000000000004
 20
0.0
 30
0.0
 11
33.00000001079223
 21
0.0
 31
0.0
  0
ENDBLK
  5
B2DC
330
B2D2
100
AcDbEntity
  8
0
100
AcDbBlockEnd
  0
BLOCK
  5
B2DE
330
B2DD
100
AcDbEntity
  8
0
100
AcDbBlockBegin
  2
SW_CENTERMARKSYMBOL_5
 70
     0
 10
0.0
 20
0.0
 30
0.0
  3
SW_CENTERMARKSYMBOL_5
  1

  0
LINE
  5
B2DF
330
B2DD
100
AcDbEntity
  8
0
  6
Continuous
 62
     0
370
     0
100
AcDbLine
 10
0.0
 20
0.0
 30
0.0
 11
0.0
 21
2.500000000000002
 31
0.0
  0
LINE
  5
B2E0
330
B2DD
100
AcDbEntity
  8
0
  6
Continuous
 62
     0
370
     0
100
AcDbLine
 10
0.0
 20
0.0
 30
0.0
 11
-2.500000000000002
 21
0.0
 31
0.0
  0
LINE
  5
B2E1
330
B2DD
100
AcDbEntity
  8
0
  6
Continuous
 62
     0
370
     0
100
AcDbLine
 10
0.0
 20
0.0
 30
0.0
 11
0.0
 21
-2.500000000000002
 31
0.0
  0
LINE
  5
B2E2
330
B2DD
100
AcDbEntity
  8
0
  6
Continuous
 62
     0
370
     0
100
AcDbLine
 10
0.0
 20
0.0
 30
0.0
 11
2.500000000000002
 21
0.0
 31
0.0
  0
LINE
  5
B2E3
330
B2DD
100
AcDbEntity
  8
0
  6
Continuous
 62
     0
370
     0
100
AcDbLine
 10
0.0
 20
2.500000000000002
 30
0.0
 11
0.0
 21
4.60000000000002
 31
0.0
  0
LINE
  5
B2E4
330
B2DD
100
AcDbEntity
  8
0
  6
Continuous
 62
     0
370
     0
100
AcDbLine
 10
-2.500000000000002
 20
0.0
 30
0.0
 11
-4.599999999999992
 21
0.0
 31
0.0
  0
LINE
  5
B2E5
330
B2DD
100
AcDbEntity
  8
0
  6
Continuous
 62
     0
370
     0
100
AcDbLine
 10
0.0
 20
-2.500000000000002
 30
0.0
 11
0.0
 21
-4.599999999999992
 31
0.0
  0
LINE
  5
B2E6
330
B2DD
100
AcDbEntity
  8
0
  6
Continuous
 62
     0
370
     0
100
AcDbLine
 10
2.500000000000002
 20
0.0
 30
0.0
 11
4.60000000000002
 21
0.0
 31
0.0
  0
ENDBLK
  5
B2E7
330
B2DD
100
AcDbEntity
  8
0
100
AcDbBlockEnd
  0
BLOCK
  5
B2E9
330
B2E8
100
AcDbEntity
  8
0
100
AcDbBlockBegin
  2
SW_CENTERMARKSYMBOL_6
 70
     0
 10
0.0
 20
0.0
 30
0.0
  3
SW_CENTERMARKSYMBOL_6
  1

  0
LINE
  5
B2EA
330
B2E8
100
AcDbEntity
  8
0
  6
Continuous
 62
     0
370
     0
100
AcDbLine
 10
0.0
 20
0.0
 30
0.0
 11
0.0
 21
2.500000000000002
 31
0.0
  0
LINE
  5
B2EB
330
B2E8
100
AcDbEntity
  8
0
  6
Continuous
 62
     0
370
     0
100
AcDbLine
 10
0.0
 20
0.0
 30
0.0
 11
-2.500000000000002
 21
0.0
 31
0.0
  0
LINE
  5
B2EC
330
B2E8
100
AcDbEntity
  8
0
  6
Continuous
 62
     0
370
     0
100
AcDbLine
 10
0.0
 20
0.0
 30
0.0
 11
0.0
 21
-2.500000000000002
 31
0.0
  0
LINE
  5
B2ED
330
B2E8
100
AcDbEntity
  8
0
  6
Continuous
 62
     0
370
     0
100
AcDbLine
 10
0.0
 20
0.0
 30
0.0
 11
2.500000000000002
 21
0.0
 31
0.0
  0
LINE
  5
B2EE
330
B2E8
100
AcDbEntity
  8
0
  6
Continuous
 62
     0
370
     0
100
AcDbLine
 10
0.0
 20
2.500000000000002
 30
0.0
 11
0.0
 21
4.500000000000031
 31
0.0
  0
LINE
  5
B2EF
330
B2E8
100
AcDbEntity
  8
0
  6
Continuous
 62
     0
370
     0
100
AcDbLine
 10
-2.500000000000002
 20
0.0
 30
0.0
 11
-4.500000000000031
 21
0.0
 31
0.0
  0
LINE
  5
B2F0
330
B2E8
100
AcDbEntity
  8
0
  6
Continuous
 62
     0
370
     0
100
AcDbLine
 10
0.0
 20
-2.500000000000002
 30
0.0
 11
0.0
 21
-4.500000000000003
 31
0.0
  0
LINE
  5
B2F1
330
B2E8
100
AcDbEntity
  8
0
  6
Continuous
 62
     0
370
     0
100
AcDbLine
 10
2.500000000000002
 20
0.0
 30
0.0
 11
4.500000000000003
 21
0.0
 31
0.0
  0
ENDBLK
  5
B2F2
330
B2E8
100
AcDbEntity
  8
0
100
AcDbBlockEnd
  0
BLOCK
  5
B2F4
330
B2F3
100
AcDbEntity
  8
0
100
AcDbBlockBegin
  2
SW_CENTERMARKSYMBOL_7
 70
     0
 10
0.0
 20
0.0
 30
0.0
  3
SW_CENTERMARKSYMBOL_7
  1

  0
LINE
  5
B2F5
330
B2F3
100
AcDbEntity
  8
0
  6
Continuous
 62
     0
370
     0
100
AcDbLine
 10
0.0
 20
0.0
 30
0.0
 11
0.0
 21
2.499999999999974
 31
0.0
  0
LINE
  5
B2F6
330
B2F3
100
AcDbEntity
  8
0
  6
Continuous
 62
     0
370
     0
100
AcDbLine
 10
0.0
 20
0.0
 30
0.0
 11
-2.500000000000002
 21
0.0
 31
0.0
  0
LINE
  5
B2F7
330
B2F3
100
AcDbEntity
  8
0
  6
Continuous
 62
     0
370
     0
100
AcDbLine
 10
0.0
 20
0.0
 30
0.0
 11
0.0
 21
-2.500000000000002
 31
0.0
  0
LINE
  5
B2F8
330
B2F3
100
AcDbEntity
  8
0
  6
Continuous
 62
     0
370
     0
100
AcDbLine
 10
0.0
 20
0.0
 30
0.0
 11
2.500000000000002
 21
0.0
 31
0.0
  0
LINE
  5
B2F9
330
B2F3
100
AcDbEntity
  8
0
  6
Continuous
 62
     0
370
     0
100
AcDbLine
 10
0.0
 20
2.499999999999974
 30
0.0
 11
0.0
 21
4.599999999999992
 31
0.0
  0
LINE
  5
B2FA
330
B2F3
100
AcDbEntity
  8
0
  6
Continuous
 62
     0
370
     0
100
AcDbLine
 10
-2.500000000000002
 20
0.0
 30
0.0
 11
-4.599999999999992
 21
0.0
 31
0.0
  0
LINE
  5
B2FB
330
B2F3
100
AcDbEntity
  8
0
  6
Continuous
 62
     0
370
     0
100
AcDbLine
 10
0.0
 20
-2.500000000000002
 30
0.0
 11
0.0
 21
-4.60000000000002
 31
0.0
  0
LINE
  5
B2FC
330
B2F3
100
AcDbEntity
  8
0
  6
Continuous
 62
     0
370
     0
100
AcDbLine
 10
2.500000000000002
 20
0.0
 30
0.0
 11
4.599999999999992
 21
0.0
 31
0.0
  0
ENDBLK
  5
B2FD
330
B2F3
100
AcDbEntity
  8
0
100
AcDbBlockEnd
  0
BLOCK
  5
B2FF
330
B2FE
100
AcDbEntity
  8
0
100
AcDbBlockBegin
  2
SW_CENTERMARKSYMBOL_8
 70
     0
 10
0.0
 20
0.0
 30
0.0
  3
SW_CENTERMARKSYMBOL_8
  1

  0
LINE
  5
B300
330
B2FE
100
AcDbEntity
  8
0
  6
Continuous
 62
     0
370
     0
100
AcDbLine
 10
0.0
 20
0.0
 30
0.0
 11
0.0
 21
2.500000000000002
 31
0.0
  0
LINE
  5
B301
330
B2FE
100
AcDbEntity
  8
0
  6
Continuous
 62
     0
370
     0
100
AcDbLine
 10
0.0
 20
0.0
 30
0.0
 11
-2.500000000000002
 21
0.0
 31
0.0
  0
LINE
  5
B302
330
B2FE
100
AcDbEntity
  8
0
  6
Continuous
 62
     0
370
     0
100
AcDbLine
 10
0.0
 20
0.0
 30
0.0
 11
0.0
 21
-2.500000000000002
 31
0.0
  0
LINE
  5
B303
330
B2FE
100
AcDbEntity
  8
0
  6
Continuous
 62
     0
370
     0
100
AcDbLine
 10
0.0
 20
0.0
 30
0.0
 11
2.499999999999946
 21
0.0
 31
0.0
  0
LINE
  5
B304
330
B2FE
100
AcDbEntity
  8
0
  6
Continuous
 62
     0
370
     0
100
AcDbLine
 10
0.0
 20
2.500000000000002
 30
0.0
 11
0.0
 21
4.500000000000031
 31
0.0
  0
LINE
  5
B305
330
B2FE
100
AcDbEntity
  8
0
  6
Continuous
 62
     0
370
     0
100
AcDbLine
 10
-2.500000000000002
 20
0.0
 30
0.0
 11
-4.500000000000031
 21
0.0
 31
0.0
  0
LINE
  5
B306
330
B2FE
100
AcDbEntity
  8
0
  6
Continuous
 62
     0
370
     0
100
AcDbLine
 10
0.0
 20
-2.500000000000002
 30
0.0
 11
0.0
 21
-4.500000000000003
 31
0.0
  0
LINE
  5
B307
330
B2FE
100
AcDbEntity
  8
0
  6
Continuous
 62
     0
370
     0
100
AcDbLine
 10
2.499999999999946
 20
0.0
 30
0.0
 11
4.500000000000003
 21
0.0
 31
0.0
  0
ENDBLK
  5
B308
330
B2FE
100
AcDbEntity
  8
0
100
AcDbBlockEnd
  0
BLOCK
  5
B30A
330
B309
100
AcDbEntity
  8
0
100
AcDbBlockBegin
  2
SW_CENTERMARKSYMBOL_9
 70
     0
 10
0.0
 20
0.0
 30
0.0
  3
SW_CENTERMARKSYMBOL_9
  1

  0
LINE
  5
B30B
330
B309
100
AcDbEntity
  8
0
  6
Continuous
 62
     0
370
     0
100
AcDbLine
 10
0.0
 20
0.0
 30
0.0
 11
0.0
 21
2.500000000000002
 31
0.0
  0
LINE
  5
B30C
330
B309
100
AcDbEntity
  8
0
  6
Continuous
 62
     0
370
     0
100
AcDbLine
 10
0.0
 20
0.0
 30
0.0
 11
-2.500000000000002
 21
0.0
 31
0.0
  0
LINE
  5
B30D
330
B309
100
AcDbEntity
  8
0
  6
Continuous
 62
     0
370
     0
100
AcDbLine
 10
0.0
 20
0.0
 30
0.0
 11
0.0
 21
-2.500000000000002
 31
0.0
  0
LINE
  5
B30E
330
B309
100
AcDbEntity
  8
0
  6
Continuous
 62
     0
370
     0
100
AcDbLine
 10
0.0
 20
0.0
 30
0.0
 11
2.500000000000002
 21
0.0
 31
0.0
  0
LINE
  5
B30F
330
B309
100
AcDbEntity
  8
0
  6
Continuous
 62
     0
370
     0
100
AcDbLine
 10
0.0
 20
2.500000000000002
 30
0.0
 11
0.0
 21
4.500000000000003
 31
0.0
  0
LINE
  5
B310
330
B309
100
AcDbEntity
  8
0
  6
Continuous
 62
     0
370
     0
100
AcDbLine
 10
-2.500000000000002
 20
0.0
 30
0.0
 11
-4.500000000000031
 21
0.0
 31
0.0
  0
LINE
  5
B311
330
B309
100
AcDbEntity
  8
0
  6
Continuous
 62
     0
370
     0
100
AcDbLine
 10
0.0
 20
-2.500000000000002
 30
0.0
 11
0.0
 21
-4.500000000000003
 31
0.0
  0
LINE
  5
B312
330
B309
100
AcDbEntity
  8
0
  6
Continuous
 62
     0
370
     0
100
AcDbLine
 10
2.500000000000002
 20
0.0
 30
0.0
 11
4.500000000000003
 21
0.0
 31
0.0
  0
ENDBLK
  5
B313
330
B309
100
AcDbEntity
  8
0
100
AcDbBlockEnd
  0
BLOCK
  5
B315
330
B314
100
AcDbEntity
  8
0
100
AcDbBlockBegin
  2
SW_CENTERMARKSYMBOL_10
 70
     0
 10
0.0
 20
0.0
 30
0.0
  3
SW_CENTERMARKSYMBOL_10
  1

  0
LINE
  5
B316
330
B314
100
AcDbEntity
  8
0
  6
Continuous
 62
     0
370
     0
100
AcDbLine
 10
0.0
 20
0.0
 30
0.0
 11
0.0
 21
2.499999999999974
 31
0.0
  0
LINE
  5
B317
330
B314
100
AcDbEntity
  8
0
  6
Continuous
 62
     0
370
     0
100
AcDbLine
 10
0.0
 20
0.0
 30
0.0
 11
-2.500000000000002
 21
0.0
 31
0.0
  0
LINE
  5
B318
330
B314
100
AcDbEntity
  8
0
  6
Continuous
 62
     0
370
     0
100
AcDbLine
 10
0.0
 20
0.0
 30
0.0
 11
0.0
 21
-2.500000000000002
 31
0.0
  0
LINE
  5
B319
330
B314
100
AcDbEntity
  8
0
  6
Continuous
 62
     0
370
     0
100
AcDbLine
 10
0.0
 20
0.0
 30
0.0
 11
2.500000000000002
 21
0.0
 31
0.0
  0
LINE
  5
B31A
330
B314
100
AcDbEntity
  8
0
  6
Continuous
 62
     0
370
     0
100
AcDbLine
 10
0.0
 20
4.999999999999976
 30
0.0
 11
0.0
 21
5.699999999999983
 31
0.0
  0
LINE
  5
B31B
330
B314
100
AcDbEntity
  8
0
  6
Continuous
 62
     0
370
     0
100
AcDbLine
 10
-5.000000000000004
 20
0.0
 30
0.0
 11
-5.70000000000001
 21
0.0
 31
0.0
  0
LINE
  5
B31C
330
B314
100
AcDbEntity
  8
0
  6
Continuous
 62
     0
370
     0
100
AcDbLine
 10
0.0
 20
-5.000000000000004
 30
0.0
 11
0.0
 21
-5.70000000000001
 31
0.0
  0
LINE
  5
B31D
330
B314
100
AcDbEntity
  8
0
  6
Continuous
 62
     0
370
     0
100
AcDbLine
 10
5.000000000000004
 20
0.0
 30
0.0
 11
5.699999999999983
 21
0.0
 31
0.0
  0
ENDBLK
  5
B31E
330
B314
100
AcDbEntity
  8
0
100
AcDbBlockEnd
  0
BLOCK
  5
B320
330
B31F
100
AcDbEntity
  8
0
100
AcDbBlockBegin
  2
SW_CENTERMARKSYMBOL_11
 70
     0
 10
0.0
 20
0.0
 30
0.0
  3
SW_CENTERMARKSYMBOL_11
  1

  0
LINE
  5
B321
330
B31F
100
AcDbEntity
  8
0
  6
Continuous
 62
     0
370
     0
100
AcDbLine
 10
0.0
 20
0.0
 30
0.0
 11
0.0
 21
2.500000000000002
 31
0.0
  0
LINE
  5
B322
330
B31F
100
AcDbEntity
  8
0
  6
Continuous
 62
     0
370
     0
100
AcDbLine
 10
0.0
 20
0.0
 30
0.0
 11
-2.500000000000002
 21
0.0
 31
0.0
  0
LINE
  5
B323
330
B31F
100
AcDbEntity
  8
0
  6
Continuous
 62
     0
370
     0
100
AcDbLine
 10
0.0
 20
0.0
 30
0.0
 11
0.0
 21
-2.500000000000002
 31
0.0
  0
LINE
  5
B324
330
B31F
100
AcDbEntity
  8
0
  6
Continuous
 62
     0
370
     0
100
AcDbLine
 10
0.0
 20
0.0
 30
0.0
 11
2.500000000000002
 21
0.0
 31
0.0
  0
LINE
  5
B325
330
B31F
100
AcDbEntity
  8
0
  6
Continuous
 62
     0
370
     0
100
AcDbLine
 10
0.0
 20
5.000000000000004
 30
0.0
 11
0.0
 21
5.699999999999983
 31
0.0
  0
LINE
  5
B326
330
B31F
100
AcDbEntity
  8
0
  6
Continuous
 62
     0
370
     0
100
AcDbLine
 10
-5.000000000000004
 20
0.0
 30
0.0
 11
-5.70000000000001
 21
0.0
 31
0.0
  0
LINE
  5
B327
330
B31F
100
AcDbEntity
  8
0
  6
Continuous
 62
     0
370
     0
100
AcDbLine
 10
0.0
 20
-5.000000000000004
 30
0.0
 11
0.0
 21
-5.70000000000001
 31
0.0
  0
LINE
  5
B328
330
B31F
100
AcDbEntity
  8
0
  6
Continuous
 62
     0
370
     0
100
AcDbLine
 10
5.000000000000004
 20
0.0
 30
0.0
 11
5.699999999999983
 21
0.0
 31
0.0
  0
ENDBLK
  5
B329
330
B31F
100
AcDbEntity
  8
0
100
AcDbBlockEnd
  0
BLOCK
  5
B32B
330
B32A
100
AcDbEntity
  8
0
100
AcDbBlockBegin
  2
SW_CENTERMARKSYMBOL_12
 70
     0
 10
0.0
 20
0.0
 30
0.0
  3
SW_CENTERMARKSYMBOL_12
  1

  0
LINE
  5
B32C
330
B32A
100
AcDbEntity
  8
0
  6
Continuous
 62
     0
370
     0
100
AcDbLine
 10
0.0
 20
0.0
 30
0.0
 11
0.0
 21
2.500000000000002
 31
0.0
  0
LINE
  5
B32D
330
B32A
100
AcDbEntity
  8
0
  6
Continuous
 62
     0
370
     0
100
AcDbLine
 10
0.0
 20
0.0
 30
0.0
 11
-2.500000000000002
 21
0.0
 31
0.0
  0
LINE
  5
B32E
330
B32A
100
AcDbEntity
  8
0
  6
Continuous
 62
     0
370
     0
100
AcDbLine
 10
0.0
 20
0.0
 30
0.0
 11
0.0
 21
-2.500000000000002
 31
0.0
  0
LINE
  5
B32F
330
B32A
100
AcDbEntity
  8
0
  6
Continuous
 62
     0
370
     0
100
AcDbLine
 10
0.0
 20
0.0
 30
0.0
 11
2.500000000000002
 21
0.0
 31
0.0
  0
LINE
  5
B330
330
B32A
100
AcDbEntity
  8
0
  6
Continuous
 62
     0
370
     0
100
AcDbLine
 10
0.0
 20
2.500000000000002
 30
0.0
 11
0.0
 21
5.000000000000004
 31
0.0
  0
LINE
  5
B331
330
B32A
100
AcDbEntity
  8
0
  6
Continuous
 62
     0
370
     0
100
AcDbLine
 10
-2.500000000000002
 20
0.0
 30
0.0
 11
-5.000000000000004
 21
0.0
 31
0.0
  0
LINE
  5
B332
330
B32A
100
AcDbEntity
  8
0
  6
Continuous
 62
     0
370
     0
100
AcDbLine
 10
0.0
 20
-2.500000000000002
 30
0.0
 11
0.0
 21
-5.000000000000004
 31
0.0
  0
LINE
  5
B333
330
B32A
100
AcDbEntity
  8
0
  6
Continuous
 62
     0
370
     0
100
AcDbLine
 10
2.500000000000002
 20
0.0
 30
0.0
 11
5.000000000000004
 21
0.0
 31
0.0
  0
ENDBLK
  5
B334
330
B32A
100
AcDbEntity
  8
0
100
AcDbBlockEnd
  0
BLOCK
  5
B336
330
B335
100
AcDbEntity
  8
0
100
AcDbBlockBegin
  2
SW_CENTERMARKSYMBOL_13
 70
     0
 10
0.0
 20
0.0
 30
0.0
  3
SW_CENTERMARKSYMBOL_13
  1

  0
LINE
  5
B337
330
B335
100
AcDbEntity
  8
0
  6
Continuous
 62
     0
370
     0
100
AcDbLine
 10
0.0
 20
0.0
 30
0.0
 11
0.0
 21
2.500000000000002
 31
0.0
  0
LINE
  5
B338
330
B335
100
AcDbEntity
  8
0
  6
Continuous
 62
     0
370
     0
100
AcDbLine
 10
0.0
 20
0.0
 30
0.0
 11
-2.500000000000002
 21
0.0
 31
0.0
  0
LINE
  5
B339
330
B335
100
AcDbEntity
  8
0
  6
Continuous
 62
     0
370
     0
100
AcDbLine
 10
0.0
 20
0.0
 30
0.0
 11
0.0
 21
-2.500000000000002
 31
0.0
  0
LINE
  5
B33A
330
B335
100
AcDbEntity
  8
0
  6
Continuous
 62
     0
370
     0
100
AcDbLine
 10
0.0
 20
0.0
 30
0.0
 11
2.500000000000002
 21
0.0
 31
0.0
  0
LINE
  5
B33B
330
B335
100
AcDbEntity
  8
0
  6
Continuous
 62
     0
370
     0
100
AcDbLine
 10
0.0
 20
2.500000000000002
 30
0.0
 11
0.0
 21
5.000000000000004
 31
0.0
  0
LINE
  5
B33C
330
B335
100
AcDbEntity
  8
0
  6
Continuous
 62
     0
370
     0
100
AcDbLine
 10
-2.500000000000002
 20
0.0
 30
0.0
 11
-5.000000000000004
 21
0.0
 31
0.0
  0
LINE
  5
B33D
330
B335
100
AcDbEntity
  8
0
  6
Continuous
 62
     0
370
     0
100
AcDbLine
 10
0.0
 20
-2.500000000000002
 30
0.0
 11
0.0
 21
-5.000000000000004
 31
0.0
  0
LINE
  5
B33E
330
B335
100
AcDbEntity
  8
0
  6
Continuous
 62
     0
370
     0
100
AcDbLine
 10
2.500000000000002
 20
0.0
 30
0.0
 11
5.000000000000004
 21
0.0
 31
0.0
  0
ENDBLK
  5
B33F
330
B335
100
AcDbEntity
  8
0
100
AcDbBlockEnd
  0
BLOCK
  5
B341
330
B340
100
AcDbEntity
  8
0
100
AcDbBlockBegin
  2
SW_CENTERMARKSYMBOL_14
 70
     0
 10
0.0
 20
0.0
 30
0.0
  3
SW_CENTERMARKSYMBOL_14
  1

  0
LINE
  5
B342
330
B340
100
AcDbEntity
  8
0
  6
Continuous
 62
     0
370
     0
100
AcDbLine
 10
0.0
 20
0.0
 30
0.0
 11
0.0
 21
2.500000000000002
 31
0.0
  0
LINE
  5
B343
330
B340
100
AcDbEntity
  8
0
  6
Continuous
 62
     0
370
     0
100
AcDbLine
 10
0.0
 20
0.0
 30
0.0
 11
-2.500000000000002
 21
0.0
 31
0.0
  0
LINE
  5
B344
330
B340
100
AcDbEntity
  8
0
  6
Continuous
 62
     0
370
     0
100
AcDbLine
 10
0.0
 20
0.0
 30
0.0
 11
0.0
 21
-2.500000000000002
 31
0.0
  0
LINE
  5
B345
330
B340
100
AcDbEntity
  8
0
  6
Continuous
 62
     0
370
     0
100
AcDbLine
 10
0.0
 20
0.0
 30
0.0
 11
2.500000000000002
 21
0.0
 31
0.0
  0
LINE
  5
B346
330
B340
100
AcDbEntity
  8
0
  6
Continuous
 62
     0
370
     0
100
AcDbLine
 10
0.0
 20
5.000000000000004
 30
0.0
 11
0.0
 21
5.699999999999983
 31
0.0
  0
LINE
  5
B347
330
B340
100
AcDbEntity
  8
0
  6
Continuous
 62
     0
370
     0
100
AcDbLine
 10
-4.999999999999976
 20
0.0
 30
0.0
 11
-5.699999999999983
 21
0.0
 31
0.0
  0
LINE
  5
B348
330
B340
100
AcDbEntity
  8
0
  6
Continuous
 62
     0
370
     0
100
AcDbLine
 10
0.0
 20
-5.000000000000004
 30
0.0
 11
0.0
 21
-5.70000000000001
 31
0.0
  0
LINE
  5
B349
330
B340
100
AcDbEntity
  8
0
  6
Continuous
 62
     0
370
     0
100
AcDbLine
 10
5.000000000000004
 20
0.0
 30
0.0
 11
5.70000000000001
 21
0.0
 31
0.0
  0
ENDBLK
  5
B34A
330
B340
100
AcDbEntity
  8
0
100
AcDbBlockEnd
  0
BLOCK
  5
B34C
330
B34B
100
AcDbEntity
  8
0
100
AcDbBlockBegin
  2
SW_CENTERMARKSYMBOL_15
 70
     0
 10
0.0
 20
0.0
 30
0.0
  3
SW_CENTERMARKSYMBOL_15
  1

  0
LINE
  5
B34D
330
B34B
100
AcDbEntity
  8
0
  6
Continuous
 62
     0
370
     0
100
AcDbLine
 10
0.0
 20
0.0
 30
0.0
 11
0.0
 21
2.5
 31
0.0
  0
LINE
  5
B34E
330
B34B
100
AcDbEntity
  8
0
  6
Continuous
 62
     0
370
     0
100
AcDbLine
 10
0.0
 20
0.0
 30
0.0
 11
-2.500000000000002
 21
0.0
 31
0.0
  0
LINE
  5
B34F
330
B34B
100
AcDbEntity
  8
0
  6
Continuous
 62
     0
370
     0
100
AcDbLine
 10
0.0
 20
0.0
 30
0.0
 11
0.0
 21
-2.5
 31
0.0
  0
LINE
  5
B350
330
B34B
100
AcDbEntity
  8
0
  6
Continuous
 62
     0
370
     0
100
AcDbLine
 10
0.0
 20
0.0
 30
0.0
 11
2.500000000000002
 21
0.0
 31
0.0
  0
LINE
  5
B351
330
B34B
100
AcDbEntity
  8
0
  6
Continuous
 62
     0
370
     0
100
AcDbLine
 10
0.0
 20
2.5
 30
0.0
 11
0.0
 21
4.600000000000004
 31
0.0
  0
LINE
  5
B352
330
B34B
100
AcDbEntity
  8
0
  6
Continuous
 62
     0
370
     0
100
AcDbLine
 10
-2.500000000000002
 20
0.0
 30
0.0
 11
-4.60000000000002
 21
0.0
 31
0.0
  0
LINE
  5
B353
330
B34B
100
AcDbEntity
  8
0
  6
Continuous
 62
     0
370
     0
100
AcDbLine
 10
0.0
 20
-2.5
 30
0.0
 11
0.0
 21
-4.600000000000004
 31
0.0
  0
LINE
  5
B354
330
B34B
100
AcDbEntity
  8
0
  6
Continuous
 62
     0
370
     0
100
AcDbLine
 10
2.500000000000002
 20
0.0
 30
0.0
 11
4.599999999999992
 21
0.0
 31
0.0
  0
ENDBLK
  5
B355
330
B34B
100
AcDbEntity
  8
0
100
AcDbBlockEnd
  0
BLOCK
  5
B357
330
B356
100
AcDbEntity
  8
0
100
AcDbBlockBegin
  2
SW_CENTERMARKSYMBOL_16
 70
     0
 10
0.0
 20
0.0
 30
0.0
  3
SW_CENTERMARKSYMBOL_16
  1

  0
LINE
  5
B358
330
B356
100
AcDbEntity
  8
0
  6
Continuous
 62
     0
370
     0
100
AcDbLine
 10
0.0
 20
0.0
 30
0.0
 11
0.0
 21
2.499999999999998
 31
0.0
  0
LINE
  5
B359
330
B356
100
AcDbEntity
  8
0
  6
Continuous
 62
     0
370
     0
100
AcDbLine
 10
0.0
 20
0.0
 30
0.0
 11
-2.500000000000002
 21
0.0
 31
0.0
  0
LINE
  5
B35A
330
B356
100
AcDbEntity
  8
0
  6
Continuous
 62
     0
370
     0
100
AcDbLine
 10
0.0
 20
0.0
 30
0.0
 11
0.0
 21
-2.5
 31
0.0
  0
LINE
  5
B35B
330
B356
100
AcDbEntity
  8
0
  6
Continuous
 62
     0
370
     0
100
AcDbLine
 10
0.0
 20
0.0
 30
0.0
 11
2.499999999999974
 21
0.0
 31
0.0
  0
LINE
  5
B35C
330
B356
100
AcDbEntity
  8
0
  6
Continuous
 62
     0
370
     0
100
AcDbLine
 10
0.0
 20
2.499999999999998
 30
0.0
 11
0.0
 21
4.600000000000003
 31
0.0
  0
LINE
  5
B35D
330
B356
100
AcDbEntity
  8
0
  6
Continuous
 62
     0
370
     0
100
AcDbLine
 10
-2.500000000000002
 20
0.0
 30
0.0
 11
-4.60000000000002
 21
0.0
 31
0.0
  0
LINE
  5
B35E
330
B356
100
AcDbEntity
  8
0
  6
Continuous
 62
     0
370
     0
100
AcDbLine
 10
0.0
 20
-2.5
 30
0.0
 11
0.0
 21
-4.600000000000004
 31
0.0
  0
LINE
  5
B35F
330
B356
100
AcDbEntity
  8
0
  6
Continuous
 62
     0
370
     0
100
AcDbLine
 10
2.499999999999974
 20
0.0
 30
0.0
 11
4.60000000000002
 21
0.0
 31
0.0
  0
ENDBLK
  5
B360
330
B356
100
AcDbEntity
  8
0
100
AcDbBlockEnd
  0
BLOCK
  5
B362
330
B361
100
AcDbEntity
  8
0
100
AcDbBlockBegin
  2
SW_CENTERMARKSYMBOL_17
 70
     0
 10
0.0
 20
0.0
 30
0.0
  3
SW_CENTERMARKSYMBOL_17
  1

  0
LINE
  5
B363
330
B361
100
AcDbEntity
  8
0
  6
Continuous
 62
     0
370
     0
100
AcDbLine
 10
0.0
 20
0.0
 30
0.0
 11
0.0
 21
2.500000000000002
 31
0.0
  0
LINE
  5
B364
330
B361
100
AcDbEntity
  8
0
  6
Continuous
 62
     0
370
     0
100
AcDbLine
 10
0.0
 20
0.0
 30
0.0
 11
-2.500000000000002
 21
0.0
 31
0.0
  0
LINE
  5
B365
330
B361
100
AcDbEntity
  8
0
  6
Continuous
 62
     0
370
     0
100
AcDbLine
 10
0.0
 20
0.0
 30
0.0
 11
0.0
 21
-2.500000000000002
 31
0.0
  0
LINE
  5
B366
330
B361
100
AcDbEntity
  8
0
  6
Continuous
 62
     0
370
     0
100
AcDbLine
 10
0.0
 20
0.0
 30
0.0
 11
2.500000000000002
 21
0.0
 31
0.0
  0
LINE
  5
B367
330
B361
100
AcDbEntity
  8
0
  6
Continuous
 62
     0
370
     0
100
AcDbLine
 10
0.0
 20
2.500000000000002
 30
0.0
 11
0.0
 21
4.600000000000006
 31
0.0
  0
LINE
  5
B368
330
B361
100
AcDbEntity
  8
0
  6
Continuous
 62
     0
370
     0
100
AcDbLine
 10
-2.500000000000002
 20
0.0
 30
0.0
 11
-4.599999999999992
 21
0.0
 31
0.0
  0
LINE
  5
B369
330
B361
100
AcDbEntity
  8
0
  6
Continuous
 62
     0
370
     0
100
AcDbLine
 10
0.0
 20
-2.500000000000002
 30
0.0
 11
0.0
 21
-4.600000000000006
 31
0.0
  0
LINE
  5
B36A
330
B361
100
AcDbEntity
  8
0
  6
Continuous
 62
     0
370
     0
100
AcDbLine
 10
2.500000000000002
 20
0.0
 30
0.0
 11
4.60000000000002
 21
0.0
 31
0.0
  0
ENDBLK
  5
B36B
330
B361
100
AcDbEntity
  8
0
100
AcDbBlockEnd
  0
BLOCK
  5
B36D
330
B36C
100
AcDbEntity
  8
0
100
AcDbBlockBegin
  2
SW_CENTERMARKSYMBOL_18
 70
     0
 10
0.0
 20
0.0
 30
0.0
  3
SW_CENTERMARKSYMBOL_18
  1

  0
LINE
  5
B36E
330
B36C
100
AcDbEntity
  8
0
  6
Continuous
 62
     0
370
     0
100
AcDbLine
 10
0.0
 20
0.0
 30
0.0
 11
0.0
 21
2.500000000000002
 31
0.0
  0
LINE
  5
B36F
330
B36C
100
AcDbEntity
  8
0
  6
Continuous
 62
     0
370
     0
100
AcDbLine
 10
0.0
 20
0.0
 30
0.0
 11
-2.500000000000002
 21
0.0
 31
0.0
  0
LINE
  5
B370
330
B36C
100
AcDbEntity
  8
0
  6
Continuous
 62
     0
370
     0
100
AcDbLine
 10
0.0
 20
0.0
 30
0.0
 11
0.0
 21
-2.499999999999995
 31
0.0
  0
LINE
  5
B371
330
B36C
100
AcDbEntity
  8
0
  6
Continuous
 62
     0
370
     0
100
AcDbLine
 10
0.0
 20
0.0
 30
0.0
 11
2.500000000000002
 21
0.0
 31
0.0
  0
LINE
  5
B372
330
B36C
100
AcDbEntity
  8
0
  6
Continuous
 62
     0
370
     0
100
AcDbLine
 10
0.0
 20
2.500000000000002
 30
0.0
 11
0.0
 21
4.600000000000006
 31
0.0
  0
LINE
  5
B373
330
B36C
100
AcDbEntity
  8
0
  6
Continuous
 62
     0
370
     0
100
AcDbLine
 10
-2.500000000000002
 20
0.0
 30
0.0
 11
-4.599999999999992
 21
0.0
 31
0.0
  0
LINE
  5
B374
330
B36C
100
AcDbEntity
  8
0
  6
Continuous
 62
     0
370
     0
100
AcDbLine
 10
0.0
 20
-2.499999999999995
 30
0.0
 11
0.0
 21
-4.599999999999999
 31
0.0
  0
LINE
  5
B375
330
B36C
100
AcDbEntity
  8
0
  6
Continuous
 62
     0
370
     0
100
AcDbLine
 10
2.500000000000002
 20
0.0
 30
0.0
 11
4.60000000000002
 21
0.0
 31
0.0
  0
ENDBLK
  5
B376
330
B36C
100
AcDbEntity
  8
0
100
AcDbBlockEnd
  0
BLOCK
  5
B378
330
B377
100
AcDbEntity
  8
0
100
AcDbBlockBegin
  2
SW_CENTERMARKSYMBOL_19
 70
     0
 10
0.0
 20
0.0
 30
0.0
  3
SW_CENTERMARKSYMBOL_19
  1

  0
LINE
  5
B379
330
B377
100
AcDbEntity
  8
0
  6
Continuous
 62
     0
370
     0
100
AcDbLine
 10
0.0
 20
0.0
 30
0.0
 11
0.0
 21
2.5
 31
0.0
  0
LINE
  5
B37A
330
B377
100
AcDbEntity
  8
0
  6
Continuous
 62
     0
370
     0
100
AcDbLine
 10
0.0
 20
0.0
 30
0.0
 11
-2.500000000000002
 21
0.0
 31
0.0
  0
LINE
  5
B37B
330
B377
100
AcDbEntity
  8
0
  6
Continuous
 62
     0
370
     0
100
AcDbLine
 10
0.0
 20
0.0
 30
0.0
 11
0.0
 21
-2.499999999999998
 31
0.0
  0
LINE
  5
B37C
330
B377
100
AcDbEntity
  8
0
  6
Continuous
 62
     0
370
     0
100
AcDbLine
 10
0.0
 20
0.0
 30
0.0
 11
2.500000000000002
 21
0.0
 31
0.0
  0
LINE
  5
B37D
330
B377
100
AcDbEntity
  8
0
  6
Continuous
 62
     0
370
     0
100
AcDbLine
 10
0.0
 20
5.0
 30
0.0
 11
0.0
 21
33.00000001079222
 31
0.0
  0
LINE
  5
B37E
330
B377
100
AcDbEntity
  8
0
  6
Continuous
 62
     0
370
     0
100
AcDbLine
 10
-5.000000000000004
 20
0.0
 30
0.0
 11
-33.00000001079223
 21
0.0
 31
0.0
  0
LINE
  5
B37F
330
B377
100
AcDbEntity
  8
0
  6
Continuous
 62
     0
370
     0
100
AcDbLine
 10
0.0
 20
-4.999999999999997
 30
0.0
 11
0.0
 21
-33.00000001079222
 31
0.0
  0
LINE
  5
B380
330
B377
100
AcDbEntity
  8
0
  6
Continuous
 62
     0
370
     0
100
AcDbLine
 10
5.000000000000004
 20
0.0
 30
0.0
 11
33.00000001079223
 21
0.0
 31
0.0
  0
ENDBLK
  5
B381
330
B377
100
AcDbEntity
  8
0
100
AcDbBlockEnd
  0
BLOCK
  5
B383
330
B382
100
AcDbEntity
  8
0
100
AcDbBlockBegin
  2
SW_CENTERMARKSYMBOL_20
 70
     0
 10
0.0
 20
0.0
 30
0.0
  3
SW_CENTERMARKSYMBOL_20
  1

  0
LINE
  5
B384
330
B382
100
AcDbEntity
  8
0
  6
Continuous
 62
     0
370
     0
100
AcDbLine
 10
0.0
 20
0.0
 30
0.0
 11
0.0
 21
2.499999999999998
 31
0.0
  0
LINE
  5
B385
330
B382
100
AcDbEntity
  8
0
  6
Continuous
 62
     0
370
     0
100
AcDbLine
 10
0.0
 20
0.0
 30
0.0
 11
-2.500000000000002
 21
0.0
 31
0.0
  0
LINE
  5
B386
330
B382
100
AcDbEntity
  8
0
  6
Continuous
 62
     0
370
     0
100
AcDbLine
 10
0.0
 20
0.0
 30
0.0
 11
0.0
 21
-2.499999999999998
 31
0.0
  0
LINE
  5
B387
330
B382
100
AcDbEntity
  8
0
  6
Continuous
 62
     0
370
     0
100
AcDbLine
 10
0.0
 20
0.0
 30
0.0
 11
2.500000000000002
 21
0.0
 31
0.0
  0
LINE
  5
B388
330
B382
100
AcDbEntity
  8
0
  6
Continuous
 62
     0
370
     0
100
AcDbLine
 10
0.0
 20
2.499999999999998
 30
0.0
 11
0.0
 21
4.600000000000003
 31
0.0
  0
LINE
  5
B389
330
B382
100
AcDbEntity
  8
0
  6
Continuous
 62
     0
370
     0
100
AcDbLine
 10
-2.500000000000002
 20
0.0
 30
0.0
 11
-4.599999999999992
 21
0.0
 31
0.0
  0
LINE
  5
B38A
330
B382
100
AcDbEntity
  8
0
  6
Continuous
 62
     0
370
     0
100
AcDbLine
 10
0.0
 20
-2.499999999999998
 30
0.0
 11
0.0
 21
-4.600000000000004
 31
0.0
  0
LINE
  5
B38B
330
B382
100
AcDbEntity
  8
0
  6
Continuous
 62
     0
370
     0
100
AcDbLine
 10
2.500000000000002
 20
0.0
 30
0.0
 11
4.60000000000002
 21
0.0
 31
0.0
  0
ENDBLK
  5
B38C
330
B382
100
AcDbEntity
  8
0
100
AcDbBlockEnd
  0
BLOCK
  5
B38E
330
B38D
100
AcDbEntity
  8
0
100
AcDbBlockBegin
  2
SW_CENTERMARKSYMBOL_21
 70
     0
 10
0.0
 20
0.0
 30
0.0
  3
SW_CENTERMARKSYMBOL_21
  1

  0
LINE
  5
B38F
330
B38D
100
AcDbEntity
  8
0
  6
Continuous
 62
     0
370
     0
100
AcDbLine
 10
0.0
 20
0.0
 30
0.0
 11
0.0
 21
2.499999999999998
 31
0.0
  0
LINE
  5
B390
330
B38D
100
AcDbEntity
  8
0
  6
Continuous
 62
     0
370
     0
100
AcDbLine
 10
0.0
 20
0.0
 30
0.0
 11
-2.500000000000002
 21
0.0
 31
0.0
  0
LINE
  5
B391
330
B38D
100
AcDbEntity
  8
0
  6
Continuous
 62
     0
370
     0
100
AcDbLine
 10
0.0
 20
0.0
 30
0.0
 11
0.0
 21
-2.5
 31
0.0
  0
LINE
  5
B392
330
B38D
100
AcDbEntity
  8
0
  6
Continuous
 62
     0
370
     0
100
AcDbLine
 10
0.0
 20
0.0
 30
0.0
 11
2.500000000000002
 21
0.0
 31
0.0
  0
LINE
  5
B393
330
B38D
100
AcDbEntity
  8
0
  6
Continuous
 62
     0
370
     0
100
AcDbLine
 10
0.0
 20
2.499999999999998
 30
0.0
 11
0.0
 21
4.50000000000001
 31
0.0
  0
LINE
  5
B394
330
B38D
100
AcDbEntity
  8
0
  6
Continuous
 62
     0
370
     0
100
AcDbLine
 10
-2.500000000000002
 20
0.0
 30
0.0
 11
-4.500000000000031
 21
0.0
 31
0.0
  0
LINE
  5
B395
330
B38D
100
AcDbEntity
  8
0
  6
Continuous
 62
     0
370
     0
100
AcDbLine
 10
0.0
 20
-2.5
 30
0.0
 11
0.0
 21
-4.500000000000008
 31
0.0
  0
LINE
  5
B396
330
B38D
100
AcDbEntity
  8
0
  6
Continuous
 62
     0
370
     0
100
AcDbLine
 10
2.500000000000002
 20
0.0
 30
0.0
 11
4.500000000000003
 21
0.0
 31
0.0
  0
ENDBLK
  5
B397
330
B38D
100
AcDbEntity
  8
0
100
AcDbBlockEnd
  0
BLOCK
  5
B399
330
B398
100
AcDbEntity
  8
0
100
AcDbBlockBegin
  2
SW_CENTERMARKSYMBOL_22
 70
     0
 10
0.0
 20
0.0
 30
0.0
  3
SW_CENTERMARKSYMBOL_22
  1

  0
LINE
  5
B39A
330
B398
100
AcDbEntity
  8
0
  6
Continuous
 62
     0
370
     0
100
AcDbLine
 10
0.0
 20
0.0
 30
0.0
 11
0.0
 21
2.499999999999998
 31
0.0
  0
LINE
  5
B39B
330
B398
100
AcDbEntity
  8
0
  6
Continuous
 62
     0
370
     0
100
AcDbLine
 10
0.0
 20
0.0
 30
0.0
 11
-2.500000000000002
 21
0.0
 31
0.0
  0
LINE
  5
B39C
330
B398
100
AcDbEntity
  8
0
  6
Continuous
 62
     0
370
     0
100
AcDbLine
 10
0.0
 20
0.0
 30
0.0
 11
0.0
 21
-2.499999999999998
 31
0.0
  0
LINE
  5
B39D
330
B398
100
AcDbEntity
  8
0
  6
Continuous
 62
     0
370
     0
100
AcDbLine
 10
0.0
 20
0.0
 30
0.0
 11
2.500000000000002
 21
0.0
 31
0.0
  0
LINE
  5
B39E
330
B398
100
AcDbEntity
  8
0
  6
Continuous
 62
     0
370
     0
100
AcDbLine
 10
0.0
 20
2.499999999999998
 30
0.0
 11
0.0
 21
4.600000000000003
 31
0.0
  0
LINE
  5
B39F
330
B398
100
AcDbEntity
  8
0
  6
Continuous
 62
     0
370
     0
100
AcDbLine
 10
-2.500000000000002
 20
0.0
 30
0.0
 11
-4.599999999999992
 21
0.0
 31
0.0
  0
LINE
  5
B3A0
330
B398
100
AcDbEntity
  8
0
  6
Continuous
 62
     0
370
     0
100
AcDbLine
 10
0.0
 20
-2.499999999999998
 30
0.0
 11
0.0
 21
-4.600000000000004
 31
0.0
  0
LINE
  5
B3A1
330
B398
100
AcDbEntity
  8
0
  6
Continuous
 62
     0
370
     0
100
AcDbLine
 10
2.500000000000002
 20
0.0
 30
0.0
 11
4.599999999999992
 21
0.0
 31
0.0
  0
ENDBLK
  5
B3A2
330
B398
100
AcDbEntity
  8
0
100
AcDbBlockEnd
  0
BLOCK
  5
B3A4
330
B3A3
100
AcDbEntity
  8
0
100
AcDbBlockBegin
  2
SW_CENTERMARKSYMBOL_23
 70
     0
 10
0.0
 20
0.0
 30
0.0
  3
SW_CENTERMARKSYMBOL_23
  1

  0
LINE
  5
B3A5
330
B3A3
100
AcDbEntity
  8
0
  6
Continuous
 62
     0
370
     0
100
AcDbLine
 10
0.0
 20
0.0
 30
0.0
 11
0.0
 21
2.499999999999998
 31
0.0
  0
LINE
  5
B3A6
330
B3A3
100
AcDbEntity
  8
0
  6
Continuous
 62
     0
370
     0
100
AcDbLine
 10
0.0
 20
0.0
 30
0.0
 11
-2.500000000000002
 21
0.0
 31
0.0
  0
LINE
  5
B3A7
330
B3A3
100
AcDbEntity
  8
0
  6
Continuous
 62
     0
370
     0
100
AcDbLine
 10
0.0
 20
0.0
 30
0.0
 11
0.0
 21
-2.5
 31
0.0
  0
LINE
  5
B3A8
330
B3A3
100
AcDbEntity
  8
0
  6
Continuous
 62
     0
370
     0
100
AcDbLine
 10
0.0
 20
0.0
 30
0.0
 11
2.499999999999946
 21
0.0
 31
0.0
  0
LINE
  5
B3A9
330
B3A3
100
AcDbEntity
  8
0
  6
Continuous
 62
     0
370
     0
100
AcDbLine
 10
0.0
 20
2.499999999999998
 30
0.0
 11
0.0
 21
4.50000000000001
 31
0.0
  0
LINE
  5
B3AA
330
B3A3
100
AcDbEntity
  8
0
  6
Continuous
 62
     0
370
     0
100
AcDbLine
 10
-2.500000000000002
 20
0.0
 30
0.0
 11
-4.500000000000031
 21
0.0
 31
0.0
  0
LINE
  5
B3AB
330
B3A3
100
AcDbEntity
  8
0
  6
Continuous
 62
     0
370
     0
100
AcDbLine
 10
0.0
 20
-2.5
 30
0.0
 11
0.0
 21
-4.500000000000012
 31
0.0
  0
LINE
  5
B3AC
330
B3A3
100
AcDbEntity
  8
0
  6
Continuous
 62
     0
370
     0
100
AcDbLine
 10
2.499999999999946
 20
0.0
 30
0.0
 11
4.500000000000003
 21
0.0
 31
0.0
  0
ENDBLK
  5
B3AD
330
B3A3
100
AcDbEntity
  8
0
100
AcDbBlockEnd
  0
BLOCK
  5
B3AF
330
B3AE
100
AcDbEntity
  8
0
100
AcDbBlockBegin
  2
SW_CENTERMARKSYMBOL_24
 70
     0
 10
0.0
 20
0.0
 30
0.0
  3
SW_CENTERMARKSYMBOL_24
  1

  0
LINE
  5
B3B0
330
B3AE
100
AcDbEntity
  8
0
  6
Continuous
 62
     0
370
     0
100
AcDbLine
 10
0.0
 20
0.0
 30
0.0
 11
0.0
 21
2.499999999999995
 31
0.0
  0
LINE
  5
B3B1
330
B3AE
100
AcDbEntity
  8
0
  6
Continuous
 62
     0
370
     0
100
AcDbLine
 10
0.0
 20
0.0
 30
0.0
 11
-2.500000000000002
 21
0.0
 31
0.0
  0
LINE
  5
B3B2
330
B3AE
100
AcDbEntity
  8
0
  6
Continuous
 62
     0
370
     0
100
AcDbLine
 10
0.0
 20
0.0
 30
0.0
 11
0.0
 21
-2.500000000000002
 31
0.0
  0
LINE
  5
B3B3
330
B3AE
100
AcDbEntity
  8
0
  6
Continuous
 62
     0
370
     0
100
AcDbLine
 10
0.0
 20
0.0
 30
0.0
 11
2.500000000000002
 21
0.0
 31
0.0
  0
LINE
  5
B3B4
330
B3AE
100
AcDbEntity
  8
0
  6
Continuous
 62
     0
370
     0
100
AcDbLine
 10
0.0
 20
2.499999999999995
 30
0.0
 11
0.0
 21
4.50000000000001
 31
0.0
  0
LINE
  5
B3B5
330
B3AE
100
AcDbEntity
  8
0
  6
Continuous
 62
     0
370
     0
100
AcDbLine
 10
-2.500000000000002
 20
0.0
 30
0.0
 11
-4.500000000000031
 21
0.0
 31
0.0
  0
LINE
  5
B3B6
330
B3AE
100
AcDbEntity
  8
0
  6
Continuous
 62
     0
370
     0
100
AcDbLine
 10
0.0
 20
-2.500000000000002
 30
0.0
 11
0.0
 21
-4.50000000000001
 31
0.0
  0
LINE
  5
B3B7
330
B3AE
100
AcDbEntity
  8
0
  6
Continuous
 62
     0
370
     0
100
AcDbLine
 10
2.500000000000002
 20
0.0
 30
0.0
 11
4.500000000000003
 21
0.0
 31
0.0
  0
ENDBLK
  5
B3B8
330
B3AE
100
AcDbEntity
  8
0
100
AcDbBlockEnd
  0
BLOCK
  5
B3BA
330
B3B9
100
AcDbEntity
  8
0
100
AcDbBlockBegin
  2
SW_CENTERMARKSYMBOL_25
 70
     0
 10
0.0
 20
0.0
 30
0.0
  3
SW_CENTERMARKSYMBOL_25
  1

  0
LINE
  5
B3BB
330
B3B9
100
AcDbEntity
  8
0
  6
Continuous
 62
     0
370
     0
100
AcDbLine
 10
0.0
 20
0.0
 30
0.0
 11
0.0
 21
2.500000000000002
 31
0.0
  0
LINE
  5
B3BC
330
B3B9
100
AcDbEntity
  8
0
  6
Continuous
 62
     0
370
     0
100
AcDbLine
 10
0.0
 20
0.0
 30
0.0
 11
-2.500000000000002
 21
0.0
 31
0.0
  0
LINE
  5
B3BD
330
B3B9
100
AcDbEntity
  8
0
  6
Continuous
 62
     0
370
     0
100
AcDbLine
 10
0.0
 20
0.0
 30
0.0
 11
0.0
 21
-2.500000000000002
 31
0.0
  0
LINE
  5
B3BE
330
B3B9
100
AcDbEntity
  8
0
  6
Continuous
 62
     0
370
     0
100
AcDbLine
 10
0.0
 20
0.0
 30
0.0
 11
2.500000000000002
 21
0.0
 31
0.0
  0
LINE
  5
B3BF
330
B3B9
100
AcDbEntity
  8
0
  6
Continuous
 62
     0
370
     0
100
AcDbLine
 10
0.0
 20
5.0
 30
0.0
 11
0.0
 21
5.699999999999996
 31
0.0
  0
LINE
  5
B3C0
330
B3B9
100
AcDbEntity
  8
0
  6
Continuous
 62
     0
370
     0
100
AcDbLine
 10
-5.000000000000004
 20
0.0
 30
0.0
 11
-5.70000000000001
 21
0.0
 31
0.0
  0
LINE
  5
B3C1
330
B3B9
100
AcDbEntity
  8
0
  6
Continuous
 62
     0
370
     0
100
AcDbLine
 10
0.0
 20
-5.000000000000004
 30
0.0
 11
0.0
 21
-5.699999999999996
 31
0.0
  0
LINE
  5
B3C2
330
B3B9
100
AcDbEntity
  8
0
  6
Continuous
 62
     0
370
     0
100
AcDbLine
 10
5.000000000000004
 20
0.0
 30
0.0
 11
5.699999999999983
 21
0.0
 31
0.0
  0
ENDBLK
  5
B3C3
330
B3B9
100
AcDbEntity
  8
0
100
AcDbBlockEnd
  0
BLOCK
  5
B3C5
330
B3C4
100
AcDbEntity
  8
0
100
AcDbBlockBegin
  2
SW_CENTERMARKSYMBOL_26
 70
     0
 10
0.0
 20
0.0
 30
0.0
  3
SW_CENTERMARKSYMBOL_26
  1

  0
LINE
  5
B3C6
330
B3C4
100
AcDbEntity
  8
0
  6
Continuous
 62
     0
370
     0
100
AcDbLine
 10
0.0
 20
0.0
 30
0.0
 11
0.0
 21
2.499999999999998
 31
0.0
  0
LINE
  5
B3C7
330
B3C4
100
AcDbEntity
  8
0
  6
Continuous
 62
     0
370
     0
100
AcDbLine
 10
0.0
 20
0.0
 30
0.0
 11
-2.500000000000002
 21
0.0
 31
0.0
  0
LINE
  5
B3C8
330
B3C4
100
AcDbEntity
  8
0
  6
Continuous
 62
     0
370
     0
100
AcDbLine
 10
0.0
 20
0.0
 30
0.0
 11
0.0
 21
-2.499999999999998
 31
0.0
  0
LINE
  5
B3C9
330
B3C4
100
AcDbEntity
  8
0
  6
Continuous
 62
     0
370
     0
100
AcDbLine
 10
0.0
 20
0.0
 30
0.0
 11
2.500000000000002
 21
0.0
 31
0.0
  0
LINE
  5
B3CA
330
B3C4
100
AcDbEntity
  8
0
  6
Continuous
 62
     0
370
     0
100
AcDbLine
 10
0.0
 20
5.0
 30
0.0
 11
0.0
 21
5.7
 31
0.0
  0
LINE
  5
B3CB
330
B3C4
100
AcDbEntity
  8
0
  6
Continuous
 62
     0
370
     0
100
AcDbLine
 10
-5.000000000000004
 20
0.0
 30
0.0
 11
-5.70000000000001
 21
0.0
 31
0.0
  0
LINE
  5
B3CC
330
B3C4
100
AcDbEntity
  8
0
  6
Continuous
 62
     0
370
     0
100
AcDbLine
 10
0.0
 20
-5.0
 30
0.0
 11
0.0
 21
-5.7
 31
0.0
  0
LINE
  5
B3CD
330
B3C4
100
AcDbEntity
  8
0
  6
Continuous
 62
     0
370
     0
100
AcDbLine
 10
5.000000000000004
 20
0.0
 30
0.0
 11
5.699999999999983
 21
0.0
 31
0.0
  0
ENDBLK
  5
B3CE
330
B3C4
100
AcDbEntity
  8
0
100
AcDbBlockEnd
  0
BLOCK
  5
B3D0
330
B3CF
100
AcDbEntity
  8
0
100
AcDbBlockBegin
  2
SW_CENTERMARKSYMBOL_27
 70
     0
 10
0.0
 20
0.0
 30
0.0
  3
SW_CENTERMARKSYMBOL_27
  1

  0
LINE
  5
B3D1
330
B3CF
100
AcDbEntity
  8
0
  6
Continuous
 62
     0
370
     0
100
AcDbLine
 10
0.0
 20
0.0
 30
0.0
 11
0.0
 21
2.5
 31
0.0
  0
LINE
  5
B3D2
330
B3CF
100
AcDbEntity
  8
0
  6
Continuous
 62
     0
370
     0
100
AcDbLine
 10
0.0
 20
0.0
 30
0.0
 11
-2.500000000000002
 21
0.0
 31
0.0
  0
LINE
  5
B3D3
330
B3CF
100
AcDbEntity
  8
0
  6
Continuous
 62
     0
370
     0
100
AcDbLine
 10
0.0
 20
0.0
 30
0.0
 11
0.0
 21
-2.5
 31
0.0
  0
LINE
  5
B3D4
330
B3CF
100
AcDbEntity
  8
0
  6
Continuous
 62
     0
370
     0
100
AcDbLine
 10
0.0
 20
0.0
 30
0.0
 11
2.500000000000002
 21
0.0
 31
0.0
  0
LINE
  5
B3D5
330
B3CF
100
AcDbEntity
  8
0
  6
Continuous
 62
     0
370
     0
100
AcDbLine
 10
0.0
 20
2.5
 30
0.0
 11
0.0
 21
5.000000000000002
 31
0.0
  0
LINE
  5
B3D6
330
B3CF
100
AcDbEntity
  8
0
  6
Continuous
 62
     0
370
     0
100
AcDbLine
 10
-2.500000000000002
 20
0.0
 30
0.0
 11
-5.000000000000004
 21
0.0
 31
0.0
  0
LINE
  5
B3D7
330
B3CF
100
AcDbEntity
  8
0
  6
Continuous
 62
     0
370
     0
100
AcDbLine
 10
0.0
 20
-2.5
 30
0.0
 11
0.0
 21
-5.000000000000002
 31
0.0
  0
LINE
  5
B3D8
330
B3CF
100
AcDbEntity
  8
0
  6
Continuous
 62
     0
370
     0
100
AcDbLine
 10
2.500000000000002
 20
0.0
 30
0.0
 11
5.000000000000004
 21
0.0
 31
0.0
  0
ENDBLK
  5
B3D9
330
B3CF
100
AcDbEntity
  8
0
100
AcDbBlockEnd
  0
BLOCK
  5
B3DB
330
B3DA
100
AcDbEntity
  8
0
100
AcDbBlockBegin
  2
SW_CENTERMARKSYMBOL_28
 70
     0
 10
0.0
 20
0.0
 30
0.0
  3
SW_CENTERMARKSYMBOL_28
  1

  0
LINE
  5
B3DC
330
B3DA
100
AcDbEntity
  8
0
  6
Continuous
 62
     0
370
     0
100
AcDbLine
 10
0.0
 20
0.0
 30
0.0
 11
0.0
 21
2.5
 31
0.0
  0
LINE
  5
B3DD
330
B3DA
100
AcDbEntity
  8
0
  6
Continuous
 62
     0
370
     0
100
AcDbLine
 10
0.0
 20
0.0
 30
0.0
 11
-2.500000000000002
 21
0.0
 31
0.0
  0
LINE
  5
B3DE
330
B3DA
100
AcDbEntity
  8
0
  6
Continuous
 62
     0
370
     0
100
AcDbLine
 10
0.0
 20
0.0
 30
0.0
 11
0.0
 21
-2.5
 31
0.0
  0
LINE
  5
B3DF
330
B3DA
100
AcDbEntity
  8
0
  6
Continuous
 62
     0
370
     0
100
AcDbLine
 10
0.0
 20
0.0
 30
0.0
 11
2.500000000000002
 21
0.0
 31
0.0
  0
LINE
  5
B3E0
330
B3DA
100
AcDbEntity
  8
0
  6
Continuous
 62
     0
370
     0
100
AcDbLine
 10
0.0
 20
2.5
 30
0.0
 11
0.0
 21
5.000000000000002
 31
0.0
  0
LINE
  5
B3E1
330
B3DA
100
AcDbEntity
  8
0
  6
Continuous
 62
     0
370
     0
100
AcDbLine
 10
-2.500000000000002
 20
0.0
 30
0.0
 11
-5.000000000000004
 21
0.0
 31
0.0
  0
LINE
  5
B3E2
330
B3DA
100
AcDbEntity
  8
0
  6
Continuous
 62
     0
370
     0
100
AcDbLine
 10
0.0
 20
-2.5
 30
0.0
 11
0.0
 21
-5.000000000000002
 31
0.0
  0
LINE
  5
B3E3
330
B3DA
100
AcDbEntity
  8
0
  6
Continuous
 62
     0
370
     0
100
AcDbLine
 10
2.500000000000002
 20
0.0
 30
0.0
 11
5.000000000000004
 21
0.0
 31
0.0
  0
ENDBLK
  5
B3E4
330
B3DA
100
AcDbEntity
  8
0
100
AcDbBlockEnd
  0
BLOCK
  5
B3E6
330
B3E5
100
AcDbEntity
  8
0
100
AcDbBlockBegin
  2
SW_CENTERMARKSYMBOL_29
 70
     0
 10
0.0
 20
0.0
 30
0.0
  3
SW_CENTERMARKSYMBOL_29
  1

  0
LINE
  5
B3E7
330
B3E5
100
AcDbEntity
  8
0
  6
Continuous
 62
     0
370
     0
100
AcDbLine
 10
0.0
 20
0.0
 30
0.0
 11
0.0
 21
2.500000000000002
 31
0.0
  0
LINE
  5
B3E8
330
B3E5
100
AcDbEntity
  8
0
  6
Continuous
 62
     0
370
     0
100
AcDbLine
 10
0.0
 20
0.0
 30
0.0
 11
-2.500000000000002
 21
0.0
 31
0.0
  0
LINE
  5
B3E9
330
B3E5
100
AcDbEntity
  8
0
  6
Continuous
 62
     0
370
     0
100
AcDbLine
 10
0.0
 20
0.0
 30
0.0
 11
0.0
 21
-2.500000000000002
 31
0.0
  0
LINE
  5
B3EA
330
B3E5
100
AcDbEntity
  8
0
  6
Continuous
 62
     0
370
     0
100
AcDbLine
 10
0.0
 20
0.0
 30
0.0
 11
2.500000000000002
 21
0.0
 31
0.0
  0
LINE
  5
B3EB
330
B3E5
100
AcDbEntity
  8
0
  6
Continuous
 62
     0
370
     0
100
AcDbLine
 10
0.0
 20
4.999999999999997
 30
0.0
 11
0.0
 21
5.700000000000003
 31
0.0
  0
LINE
  5
B3EC
330
B3E5
100
AcDbEntity
  8
0
  6
Continuous
 62
     0
370
     0
100
AcDbLine
 10
-4.999999999999976
 20
0.0
 30
0.0
 11
-5.699999999999983
 21
0.0
 31
0.0
  0
LINE
  5
B3ED
330
B3E5
100
AcDbEntity
  8
0
  6
Continuous
 62
     0
370
     0
100
AcDbLine
 10
0.0
 20
-5.0
 30
0.0
 11
0.0
 21
-5.700000000000003
 31
0.0
  0
LINE
  5
B3EE
330
B3E5
100
AcDbEntity
  8
0
  6
Continuous
 62
     0
370
     0
100
AcDbLine
 10
5.000000000000004
 20
0.0
 30
0.0
 11
5.70000000000001
 21
0.0
 31
0.0
  0
ENDBLK
  5
B3EF
330
B3E5
100
AcDbEntity
  8
0
100
AcDbBlockEnd
  0
ENDSEC
  0
SECTION
  2
ENTITIES
  0
TEXT
  5
1599
330
1F
100
AcDbEntity
  8
LOGO
 62
     7
100
AcDbText
 10
719.1682579925636
 20
68.78559407287503
 30
0.0
 40
4.876401012532124
  1
Order example:
 41
0.8
  7
CHINESET
100
AcDbText
  0
TEXT
  5
159A
330
1F
100
AcDbEntity
  8
LOGO
 62
     7
100
AcDbText
 10
720.0431246604077
 20
75.65055702680732
 30
0.0
 40
7.314601518798188
  1
訂購代號：
  7
CHINESET
100
AcDbText
  0
LINE
  5
159B
330
1F
100
AcDbEntity
  8
LOGO
 62
     4
100
AcDbLine
 10
717.049445212817
 20
48.23459876290801
 30
0.0
 11
717.049445212817
 21
84.80760635689918
 31
0.0
  0
TEXT
  5
159C
330
1F
100
AcDbEntity
  8
LOGO
  6
Continuous
100
AcDbText
 10
649.7260172326483
 20
55.41931091126675
 30
0.0
 40
5.485951139098641
  1
金器工業股份有限公司
  7
CHINESET
100
AcDbText
  0
TEXT
  5
159D
330
1F
100
AcDbEntity
  8
LOGO
  6
Continuous
100
AcDbText
 10
639.6494103320341
 20
49.9322849558601
 30
0.0
 40
3.657300759399094
  1
MINDMAN INDUSTRIAL CO., LTD.
 41
0.85
  7
CHINESET
100
AcDbText
  0
LINE
  5
159E
330
1F
100
AcDbEntity
  8
LOGO
 62
     4
100
AcDbLine
 10
717.049445212817
 20
77.49300483810094
 30
0.0
 11
663.4090340749633
 21
77.49300483810094
 31
0.0
  0
LINE
  5
159F
330
1F
100
AcDbEntity
  8
LOGO
 62
     4
100
AcDbLine
 10
717.049445212817
 20
70.1784033193027
 30
0.0
 11
663.4090340749633
 21
70.1784033193027
 31
0.0
  0
LINE
  5
15A0
330
1F
100
AcDbEntity
  8
LOGO
 62
     4
100
AcDbLine
 10
717.049445212817
 20
62.86380180050489
 30
0.0
 11
636.5888285060369
 21
62.86380180050489
 31
0.0
  0
LINE
  5
15A1
330
1F
100
AcDbEntity
  8
LOGO
 62
     4
100
AcDbLine
 10
663.4090340749633
 20
62.86380180050489
 30
0.0
 11
663.4090340749633
 21
84.80760635689918
 31
0.0
  0
TEXT
  5
15A2
330
1F
100
AcDbEntity
  8
LOGO
100
AcDbText
 10
700.0697232988446
 20
64.69245218020382
 30
0.0
 40
3.657300759399094
  1
mm
  7
CHINESET
 72
     1
 11
704.5978099533388
 21
66.52110255990338
 31
0.0
100
AcDbText
 73
     2
  0
TEXT
  5
15A3
330
1F
100
AcDbEntity
  8
LOGO
100
AcDbText
 10
698.1539943296357
 20
79.3216552178003
 30
0.0
 40
3.657300759399094
  1
1 : 1
  7
CHINESET
 72
     1
 11
704.5978099533388
 21
81.15030559749985
 31
0.0
100
AcDbText
 73
     2
  0
LINE
  5
15A4
330
1F
100
AcDbEntity
  8
LOGO
 62
     4
100
AcDbLine
 10
692.6674401501564
 20
62.86380180050489
 30
0.0
 11
692.6674401501564
 21
84.80760635689918
 31
0.0
  0
TEXT
  5
15A5
330
1F
100
AcDbEntity
  8
LOGO
100
AcDbText
 10
666.4246744779144
 20
79.32345507053622
 30
239.6934667199865
 40
3.657300759399094
  1
比例 Scale:
 41
0.9
  7
CHINESET
 72
     4
 11
678.0382371125598
 21
81.15030559749985
 31
239.6934667199865
100
AcDbText
  0
TEXT
  5
15A6
330
1F
100
AcDbEntity
  8
LOGO
100
AcDbText
 10
666.2140531395383
 20
72.05849948970392
 30
239.6934667199865
 40
3.657300759399094
  1
投影  View:
 41
0.9
  7
CHINESET
 72
     4
 11
678.0382371125598
 21
73.83570407870161
 31
239.6934667199865
100
AcDbText
  0
TEXT
  5
15A7
330
1F
100
AcDbEntity
  8
LOGO
100
AcDbText
 10
666.5716195977116
 20
64.69245218020382
 30
239.6934667199865
 40
3.657300759399094
  1
單位  Unit:
 41
0.9
  7
CHINESET
 72
     4
 11
678.0382371125598
 21
66.52110255990338
 31
239.6934667199865
100
AcDbText
  0
LWPOLYLINE
  5
15A8
330
1F
100
AcDbEntity
  8
LOGO
 62
     4
100
AcDbPolyline
 90
        4
 70
     1
 43
0.0
 10
636.5888285060369
 20
84.80760635689916
 10
1069.043755462255
 20
84.8076063568992
 10
1069.043755462255
 20
336.290382126672
 10
636.5888285060369
 20
336.290382126672
1001
GENIUS_GENREC_14
1002
{
1000
PYDIR
1011
636.5888285060369
1021
336.290382126672
1031
0.0
1002
}
1002
{
1000
PXDIR
1011
1069.043755462255
1021
84.8076063568992
1031
0.0
1002
}
1002
{
1000
PORI
1011
636.5888285060369
1021
84.80760635689916
1031
0.0
1002
}
1002
{
1000
PINS
1011
636.5888285060369
1021
84.80760635689916
1031
0.0
1002
}
1002
{
1000
PINS2
1011
1069.043755462255
1021
336.290382126672
1031
0.0
1002
}
1002
{
1000
C
1070
     1
1002
}
1001
GENIUS_GENODEF_13
1002
{
1000
HIER
1070
     0
1002
}
1002
{
1000
MANEDIT
1070
     0
1002
}
1002
{
1000
NOSEL
1070
     0
1002
}
1002
{
1000
BEHIND
1070
     0
1002
}
1002
{
1000
OTHER
1070
     0
1002
}
1002
{
1000
REACTOR
1002
}
1001
GENIUS_GENOBJ-N-REC_13
1002
{
1000
OWNER
1000
GEN
1002
}
  0
SOLID
  5
15A9
330
1F
100
AcDbEntity
  8
LOGO
 62
     5
100
AcDbTrace
 10
640.3833367391261
 20
68.9435437372355
 30
0.0
 11
641.9646576199182
 21
68.94354373723508
 31
0.0
 12
648.5625826742581
 22
83.938827951645
 32
0.0
 13
650.1439035550512
 23
83.93882795164421
 33
0.0
  0
SOLID
  5
15AA
330
1F
100
AcDbEntity
  8
LOGO
 62
     5
100
AcDbTrace
 10
642.6189972947306
 20
68.9435437372355
 30
0.0
 11
644.2003181755228
 21
68.9435437372355
 31
0.0
 12
650.1439035550512
 22
82.73920521449165
 32
0.0
 13
648.5625826742581
 23
76.94102865158663
 33
0.0
  0
SOLID
  5
15AB
330
1F
100
AcDbEntity
  8
LOGO
 62
     2
100
AcDbTrace
 10
641.9646576199182
 20
68.94354373723508
 30
0.0
 11
642.6189972947306
 21
68.9435437372355
 31
0.0
 12
650.1439035550512
 22
83.93882795164421
 32
0.0
 13
650.7982432298622
 23
83.93882795164421
 33
0.0
  0
SOLID
  5
15AC
330
1F
100
AcDbEntity
  8
LOGO
 62
     5
100
AcDbTrace
 10
637.8480915798349
 20
63.49071311381436
 30
0.0
 11
638.3933746421777
 21
63.49071311381436
 31
0.0
 12
639.928934187175
 22
66.21712842552469
 32
0.0
 13
640.4742172495158
 23
66.21712842552469
 33
0.0
  0
SOLID
  5
15AD
330
1F
100
AcDbEntity
  8
LOGO
 62
     5
100
AcDbTrace
 10
639.928934187175
 20
66.21712842552469
 30
0.0
 11
640.4742172495158
 21
66.21712842552469
 31
0.0
 12
639.928934187175
 22
63.49071311381436
 32
0.0
 13
640.4742172495158
 23
63.49071311381436
 33
0.0
  0
SOLID
  5
15AE
330
1F
100
AcDbEntity
  8
LOGO
 62
     5
100
AcDbTrace
 10
639.928934187175
 20
63.49071311381436
 30
0.0
 11
640.4742172495158
 21
63.49071311381436
 31
0.0
 12
642.0097767945155
 22
66.21712842552469
 32
0.0
 13
642.5550598568571
 23
66.21712842552469
 33
0.0
  0
SOLID
  5
15AF
330
1F
100
AcDbEntity
  8
LOGO
 62
     5
100
AcDbTrace
 10
642.0097767945155
 20
66.21712842552469
 30
0.0
 11
642.5550598568571
 21
66.21712842552469
 31
0.0
 12
642.0097767945155
 22
63.49071311381436
 32
0.0
 13
642.5550598568571
 23
63.49071311381436
 33
0.0
  0
POLYLINE
  5
15B0
330
1F
100
AcDbEntity
  8
LOGO
 62
     5
100
AcDb2dPolyline
 66
     1
 10
0.0
 20
0.0
 30
0.0
 40
0.546156913403598
 41
0.546156913403598
  0
VERTEX
  5
15B1
330
15B0
100
AcDbEntity
  8
LOGO
 62
     5
100
AcDbVertex
100
AcDb2dVertex
 10
660.2874792912081
 20
65.12656230084049
 30
0.0
 42
1.0
  0
VERTEX
  5
15B2
330
15B0
100
AcDbEntity
  8
LOGO
 62
     5
100
AcDbVertex
100
AcDb2dVertex
 10
658.6490085509969
 20
65.12656230084049
 30
0.0
 42
1.0
  0
SEQEND
  5
15B3
330
15B0
100
AcDbEntity
  8
LOGO
 62
     5
  0
POLYLINE
  5
15B4
330
1F
100
AcDbEntity
  8
LOGO
 62
     5
100
AcDb2dPolyline
 66
     1
 10
0.0
 20
0.0
 30
0.0
 70
     1
  0
VERTEX
  5
15B5
330
15B4
100
AcDbEntity
  8
LOGO
 62
     5
100
AcDbVertex
100
AcDb2dVertex
 10
655.5604183265202
 20
64.8539207696691
 30
0.0
 42
1.000000057330635
  0
VERTEX
  5
15B6
330
15B4
100
AcDbEntity
  8
LOGO
 62
     5
100
AcDbVertex
100
AcDb2dVertex
 10
657.1962675135466
 20
64.8539207696691
 30
0.0
 42
1.000000057330635
  0
SEQEND
  5
15B7
330
15B4
100
AcDbEntity
  8
LOGO
 62
     5
  0
CIRCLE
  5
15B8
330
1F
100
AcDbEntity
  8
LOGO
 62
     5
100
AcDbCircle
 10
656.3783429200346
 20
64.8539207696691
 30
0.0
 40
0.8179245935132282
  0
POLYLINE
  5
15B9
330
1F
100
AcDbEntity
  8
LOGO
 62
     5
100
AcDb2dPolyline
 66
     1
 10
0.0
 20
0.0
 30
0.0
 70
     1
 40
0.546156913403598
 41
0.546156913403598
  0
VERTEX
  5
15BA
330
15B9
100
AcDbEntity
  8
LOGO
 62
     5
100
AcDbVertex
100
AcDb2dVertex
 10
655.2860290932264
 20
64.8539207696691
 30
0.0
 42
1.0
  0
VERTEX
  5
15BB
330
15B9
100
AcDbEntity
  8
LOGO
 62
     5
100
AcDbVertex
100
AcDb2dVertex
 10
657.4706567468409
 20
64.8539207696691
 30
0.0
 42
1.0
  0
SEQEND
  5
15BC
330
15B9
100
AcDbEntity
  8
LOGO
 62
     5
  0
LINE
  5
15BD
330
1F
100
AcDbEntity
  8
LOGO
100
AcDbLine
 10
660.5588100457858
 20
63.49071311381436
 30
0.0
 11
660.5588100457858
 21
65.12656230084049
 31
0.0
  0
SOLID
  5
15BE
330
1F
100
AcDbEntity
  8
LOGO
 62
     5
100
AcDbTrace
 10
657.1962129852427
 20
66.21712842552469
 30
0.0
 11
657.7414960475839
 21
66.21712842552469
 31
0.0
 12
657.1962129852427
 22
63.49071311381436
 32
0.0
 13
657.7414960475839
 23
63.49071311381436
 33
0.0
  0
SOLID
  5
15BF
330
1F
100
AcDbEntity
  8
LOGO
 62
     5
100
AcDbTrace
 10
658.3776777964174
 20
63.49071311381436
 30
0.0
 11
658.9229608587597
 21
63.49071311381436
 31
0.0
 12
658.3776777964174
 22
66.21712842552469
 32
0.0
 13
658.9229608587597
 23
66.21712842552469
 33
0.0
  0
SOLID
  5
15C0
330
1F
100
AcDbEntity
  8
LOGO
 62
     5
100
AcDbTrace
 10
660.0135269834447
 20
65.12656230084049
 30
0.0
 11
660.5588100457858
 21
65.12656230084049
 31
0.0
 12
660.0135269834447
 22
63.49071311381436
 32
0.0
 13
660.5588100457858
 23
63.49071311381436
 33
0.0
  0
SOLID
  5
15C1
330
1F
100
AcDbEntity
  8
LOGO
 62
     5
100
AcDbTrace
 10
658.323149490183
 20
82.73920521449165
 30
0.0
 11
656.7418286093917
 21
76.94102865158663
 31
0.0
 12
658.323149490183
 22
68.94354373723508
 32
0.0
 13
656.7418286093917
 23
68.94354373723508
 33
0.0
  0
SOLID
  5
15C2
330
1F
100
AcDbEntity
  8
LOGO
 62
     5
100
AcDbTrace
 10
658.9774891649944
 20
68.94354373723508
 30
0.0
 11
660.5588100457858
 21
68.94354373723508
 31
0.0
 12
658.9774891649944
 22
83.93882795164421
 32
0.0
 13
660.5588100457858
 23
83.938827951645
 33
0.0
  0
SOLID
  5
15C3
330
1F
100
AcDbEntity
  8
LOGO
 62
     2
100
AcDbTrace
 10
658.323149490183
 20
83.938827951645
 30
0.0
 11
658.9774891649944
 21
83.93882795164421
 31
0.0
 12
658.323149490183
 22
68.94354373723508
 32
0.0
 13
658.9774891649944
 23
68.94354373723508
 33
0.0
  0
POLYLINE
  5
15C4
330
1F
100
AcDbEntity
  8
LOGO
 62
     5
100
AcDb2dPolyline
 66
     1
 10
0.0
 20
0.0
 30
0.0
 40
0.546156913403598
 41
0.546156913403598
  0
VERTEX
  5
15C5
330
15C4
100
AcDbEntity
  8
LOGO
 62
     5
100
AcDbVertex
100
AcDb2dVertex
 10
652.4717190454331
 20
65.12656230084049
 30
0.0
 42
1.0
  0
VERTEX
  5
15C6
330
15C4
100
AcDbEntity
  8
LOGO
 62
     5
100
AcDbVertex
100
AcDb2dVertex
 10
650.833248305222
 20
65.12656230084049
 30
0.0
 42
1.0
  0
SEQEND
  5
15C7
330
15C4
100
AcDbEntity
  8
LOGO
 62
     5
  0
POLYLINE
  5
15C8
330
1F
100
AcDbEntity
  8
LOGO
 62
     5
100
AcDb2dPolyline
 66
     1
 10
0.0
 20
0.0
 30
0.0
 40
0.546156913403598
 41
0.546156913403598
  0
VERTEX
  5
15C9
330
15C8
100
AcDbEntity
  8
LOGO
 62
     5
100
AcDbVertex
100
AcDb2dVertex
 10
654.107568232458
 20
65.12656230084049
 30
0.0
 42
1.0
  0
VERTEX
  5
15CA
330
15C8
100
AcDbEntity
  8
LOGO
 62
     5
100
AcDbVertex
100
AcDb2dVertex
 10
652.4690974922479
 20
65.12656230084049
 30
0.0
 42
1.0
  0
SEQEND
  5
15CB
330
15C8
100
AcDbEntity
  8
LOGO
 62
     5
  0
POLYLINE
  5
15CC
330
1F
100
AcDbEntity
  8
LOGO
 62
     5
100
AcDb2dPolyline
 66
     1
 10
0.0
 20
0.0
 30
0.0
 40
0.546156913403598
 41
0.546156913403598
  0
VERTEX
  5
15CD
330
15CC
100
AcDbEntity
  8
LOGO
 62
     5
100
AcDbVertex
100
AcDb2dVertex
 10
646.291807986683
 20
65.12656230084049
 30
0.0
 42
1.0
  0
VERTEX
  5
15CE
330
15CC
100
AcDbEntity
  8
LOGO
 62
     5
100
AcDbVertex
100
AcDb2dVertex
 10
644.6533372464728
 20
65.12656230084049
 30
0.0
 42
1.0
  0
SEQEND
  5
15CF
330
15CC
100
AcDbEntity
  8
LOGO
 62
     5
  0
SOLID
  5
15D0
330
1F
100
AcDbEntity
  8
LOGO
 62
     5
100
AcDbTrace
 10
644.3820064918944
 20
66.21712842552469
 30
0.0
 11
644.9272895542356
 21
66.21712842552469
 31
0.0
 12
644.3820064918944
 22
63.49071311381436
 32
0.0
 13
644.9272895542356
 23
63.49071311381436
 33
0.0
  0
SOLID
  5
15D1
330
1F
100
AcDbEntity
  8
LOGO
 62
     5
100
AcDbTrace
 10
646.0178556789205
 20
65.12656230084049
 30
0.0
 11
646.5631387412636
 21
65.12656230084049
 31
0.0
 12
646.0178556789205
 22
63.49071311381436
 32
0.0
 13
646.5631387412636
 23
63.49071311381436
 33
0.0
  0
POLYLINE
  5
15D2
330
1F
100
AcDbEntity
  8
LOGO
 62
     5
100
AcDb2dPolyline
 66
     1
 10
0.0
 20
0.0
 30
0.0
 70
     1
 40
0.546156913403598
 41
0.546156913403598
  0
VERTEX
  5
15D3
330
15D2
100
AcDbEntity
  8
LOGO
 62
     5
100
AcDbVertex
100
AcDb2dVertex
 10
647.470268847451
 20
64.8539207696691
 30
0.0
 42
1.0
  0
VERTEX
  5
15D4
330
15D2
100
AcDbEntity
  8
LOGO
 62
     5
100
AcDbVertex
100
AcDb2dVertex
 10
649.6548965010658
 20
64.8539207696691
 30
0.0
 42
1.0
  0
SEQEND
  5
15D5
330
15D2
100
AcDbEntity
  8
LOGO
 62
     5
  0
SOLID
  5
15D6
330
1F
100
AcDbEntity
  8
LOGO
 62
     5
100
AcDbTrace
 10
649.3804527394659
 20
67.03505301903842
 30
0.0
 11
649.9257358018081
 21
67.03505301903842
 31
0.0
 12
649.3804527394659
 22
63.49071311381436
 32
0.0
 13
649.9257358018081
 23
63.49071311381436
 33
0.0
  0
SOLID
  5
15D7
330
1F
100
AcDbEntity
  8
LOGO
 62
     5
100
AcDbTrace
 10
650.5619175506439
 20
66.21712842552469
 30
0.0
 11
651.1072006129853
 21
66.21712842552469
 31
0.0
 12
650.5619175506439
 22
63.49071311381436
 32
0.0
 13
651.1072006129853
 23
63.49071311381436
 33
0.0
  0
SOLID
  5
15D8
330
1F
100
AcDbEntity
  8
LOGO
 62
     5
100
AcDbTrace
 10
652.1977667376693
 20
65.12656230084049
 30
0.0
 11
652.7430498000118
 21
65.12656230084049
 31
0.0
 12
652.1977667376693
 22
63.49071311381436
 32
0.0
 13
652.7430498000118
 23
63.49071311381436
 33
0.0
  0
SOLID
  5
15D9
330
1F
100
AcDbEntity
  8
LOGO
 62
     5
100
AcDbTrace
 10
653.8336159246957
 20
65.12656230084049
 30
0.0
 11
654.3788989870375
 21
65.12656230084049
 31
0.0
 12
653.8336159246957
 22
63.49071311381353
 32
0.0
 13
654.3788989870375
 23
63.49071311381353
 33
0.0
  0
SOLID
  5
15DA
330
1F
100
AcDbEntity
  8
LOGO
 62
     5
100
AcDbTrace
 10
643.2005416807172
 20
66.59882656916437
 30
0.0
 11
643.7458247430607
 21
66.59882656916437
 31
0.0
 12
643.2005416807172
 22
67.03505301903842
 32
0.0
 13
643.7458247430607
 23
67.03505301903842
 33
0.0
  0
SOLID
  5
15DB
330
1F
100
AcDbEntity
  8
LOGO
 62
     5
100
AcDbTrace
 10
643.2005416807172
 20
66.21712842552469
 30
0.0
 11
643.7458247430607
 21
66.21712842552469
 31
0.0
 12
643.2005416807172
 22
63.49071311381353
 32
0.0
 13
643.7458247430607
 23
63.49071311381436
 33
0.0
  0
SOLID
  5
15DC
330
1F
100
AcDbEntity
  8
LOGO
 62
     5
100
AcDbTrace
 10
648.5625826742581
 20
68.9435437372355
 30
0.0
 11
650.1439035550512
 21
68.9435437372355
 31
0.0
 12
648.5625826742581
 22
76.94102865158663
 32
0.0
 13
650.1439035550512
 23
82.73920521449165
 33
0.0
  0
SOLID
  5
15DD
330
1F
100
AcDbEntity
  8
LOGO
 62
     5
100
AcDbTrace
 10
650.7982432298622
 20
83.93882795164421
 30
0.0
 11
652.379564110654
 21
83.938827951645
 31
0.0
 12
650.7982432298622
 22
70.14316647438803
 32
0.0
 13
652.379564110654
 23
75.94134303729302
 33
0.0
  0
SOLID
  5
15DE
330
1F
100
AcDbEntity
  8
LOGO
 62
     2
100
AcDbTrace
 10
650.1439035550512
 20
83.93882795164421
 30
0.0
 11
650.7982432298622
 21
83.93882795164421
 31
0.0
 12
650.1439035550512
 22
68.9435437372355
 32
0.0
 13
650.7982432298622
 23
68.9435437372355
 33
0.0
  0
SOLID
  5
15DF
330
1F
100
AcDbEntity
  8
LOGO
 62
     5
100
AcDbTrace
 10
650.7982432298622
 20
70.14316647438803
 30
0.0
 11
652.379564110654
 21
75.94134303729302
 31
0.0
 12
658.323149490183
 22
83.938827951645
 32
0.0
 13
656.7418286093917
 23
83.938827951645
 33
0.0
  0
SOLID
  5
15E0
330
1F
100
AcDbEntity
  8
LOGO
 62
     5
100
AcDbTrace
 10
650.7982432298622
 20
68.9435437372355
 30
0.0
 11
652.379564110654
 21
68.9435437372355
 31
0.0
 12
658.323149490183
 22
82.73920521449165
 32
0.0
 13
656.7418286093917
 23
76.94102865158663
 33
0.0
  0
SOLID
  5
15E1
330
1F
100
AcDbEntity
  8
LOGO
 62
     2
100
AcDbTrace
 10
650.1439035550512
 20
68.9435437372355
 30
0.0
 11
650.7982432298622
 21
68.9435437372355
 31
0.0
 12
658.323149490183
 22
83.938827951645
 32
0.0
 13
658.9774891649944
 23
83.93882795164421
 33
0.0
  0
LWPOLYLINE
  5
15E2
330
1F
100
AcDbEntity
  8
LOGO
 62
     4
100
AcDbPolyline
 90
        4
 70
     1
 43
0.0
 10
636.5888285060369
 20
84.80760635689916
 10
1069.043755462255
 20
84.8076063568992
 10
1069.043755462256
 20
48.23459876290762
 10
636.5888285060369
 20
48.23459876290759
1001
GENIUS_GENREC_14
1002
{
1000
PYDIR
1011
636.5888285060369
1021
48.23459876290759
1031
0.0
1002
}
1002
{
1000
PXDIR
1011
1069.043755462255
1021
84.8076063568992
1031
0.0
1002
}
1002
{
1000
PORI
1011
636.5888285060369
1021
84.80760635689916
1031
0.0
1002
}
1002
{
1000
PINS
1011
636.5888285060369
1021
84.80760635689916
1031
0.0
1002
}
1002
{
1000
PINS2
1011
1069.043755462256
1021
48.23459876290762
1031
0.0
1002
}
1002
{
1000
C
1070
     1
1002
}
1001
GENIUS_GENOBJ-N-REC_13
1002
{
1000
OWNER
1000
GEN
1002
}
1001
GENIUS_GENODEF_13
1002
{
1000
HIER
1070
     0
1002
}
1002
{
1000
MANEDIT
1070
     0
1002
}
1002
{
1000
NOSEL
1070
     0
1002
}
1002
{
1000
BEHIND
1070
     0
1002
}
1002
{
1000
OTHER
1070
     0
1002
}
1002
{
1000
REACTOR
1002
}
  0
LINE
  5
15E3
330
1F
100
AcDbEntity
  8
LOGO
 62
     4
100
AcDbLine
 10
795.5752797027045
 20
64.69245218020457
 30
0.0
 11
795.5752797027045
 21
51.28234939574053
 31
0.0
  0
LINE
  5
15E4
330
1F
100
AcDbEntity
  8
LOGO
 62
     4
100
AcDbLine
 10
779.329952063211
 20
64.69245218020457
 30
0.0
 11
779.329952063211
 21
51.28234939574053
 31
0.0
  0
LINE
  5
15E5
330
1F
100
AcDbEntity
  8
LOGO
 62
     4
100
AcDbLine
 10
795.5752797027045
 20
51.28234939574053
 30
0.0
 11
779.329952063211
 21
51.28234939574053
 31
0.0
  0
LINE
  5
15E6
330
1F
100
AcDbEntity
  8
LOGO
 62
     4
100
AcDbLine
 10
807.5335158781822
 20
81.15030559749985
 30
0.0
 11
767.353993965873
 21
81.15030559749985
 31
0.0
  0
LINE
  5
15E7
330
1F
100
AcDbEntity
  8
LOGO
 62
     4
100
AcDbLine
 10
807.5335158781822
 20
70.1784033193027
 30
0.0
 11
767.353993965873
 21
70.1784033193027
 31
0.0
  0
LINE
  5
15E8
330
1F
100
AcDbEntity
  8
LOGO
 62
     4
100
AcDbLine
 10
767.353993965873
 20
81.15030559749985
 30
0.0
 11
767.353993965873
 21
70.1784033193027
 31
0.0
  0
LINE
  5
15E9
330
1F
100
AcDbEntity
  8
LOGO
 62
     4
100
AcDbLine
 10
807.5335158781822
 20
81.15030559749985
 30
0.0
 11
807.5335158781822
 21
70.1784033193027
 31
0.0
  0
LINE
  5
15EA
330
1F
100
AcDbEntity
  8
LOGO
 62
     4
100
AcDbLine
 10
787.5155419390957
 20
70.1784033193027
 30
0.0
 11
787.5155419390957
 21
64.69245218020457
 31
0.0
  0
TEXT
  5
15EB
330
1F
100
AcDbEntity
  8
LOGO
  6
Continuous
100
AcDbText
 10
772.7807593022327
 20
72.46877187895688
 30
0.0
 40
6.401203199999998
  1
MCHGH
  7
CHINESET
100
AcDbText
  0
LINE
  5
15EC
330
1F
100
AcDbEntity
  8
LOGO
 62
     4
100
AcDbLine
 10
795.5752797027045
 20
64.69245218020457
 30
0.0
 11
779.329952063211
 21
64.69245218020457
 31
0.0
  0
TEXT
  5
15ED
330
1F
100
AcDbEntity
  8
LOGO
  6
Continuous
100
AcDbText
 10
783.529538353302
 20
53.17515696698403
 30
239.6934667199865
 40
2.743372799999999
  1
Model
 41
0.8
  7
CHINESET
100
AcDbText
  0
TEXT
  5
15EE
330
1F
100
AcDbEntity
  8
LOGO
100
AcDbText
 10
782.7993416955068
 20
58.26077889914774
 30
239.6934667199865
 40
4.572287999999998
  1
型號
  7
CHINESET
100
AcDbText
  0
TEXT
  5
15F0
330
1F
100
AcDbEntity
  8
LOGO
100
AcDbText
 10
718.7440002389727
 20
50.18026833177405
 30
0.0
 40
3.657830399999998
  1
01206190
 41
0.7
  7
CHINESET
 72
     1
 11
727.6447208789727
 21
50.18026833177405
 31
0.0
100
AcDbText
  0
LINE
  5
15F1
330
1F
100
AcDbEntity
  8
LOGO
 62
     4
100
AcDbLine
 10
738.9964276128154
 20
55.54920028170708
 30
0.0
 11
738.996427612817
 21
48.23459876290844
 31
0.0
  0
LINE
  5
15F2
330
1F
100
AcDbEntity
  8
LOGO
 62
     4
100
AcDbLine
 10
738.9964276128154
 20
55.54920028170708
 30
0.0
 11
717.049445212817
 21
55.54920028170708
 31
0.0
  0
CIRCLE
  5
15F3
330
1F
100
AcDbEntity
  8
LOGO
  6
Continuous
100
AcDbCircle
 10
699.4393899541312
 20
73.84352707178975
 30
0.0
 40
2.123514904063143
  0
CIRCLE
  5
15F4
330
1F
100
AcDbEntity
  8
LOGO
  6
Continuous
100
AcDbCircle
 10
699.4393899541312
 20
73.84352707178975
 30
0.0
 40
1.244191749642433
  0
LINE
  5
15F5
330
1F
100
AcDbEntity
  8
LOGO
100
AcDbLine
 10
712.7838040135136
 20
71.7200121677262
 30
0.0
 11
712.7838040135136
 21
75.96704197585329
 31
0.0
  0
LINE
  5
15F6
330
1F
100
AcDbEntity
  8
LOGO
100
AcDbLine
 10
706.1267066848476
 20
72.59933532214754
 30
0.0
 11
706.1267066848476
 21
75.08771882143239
 31
0.0
  0
LINE
  5
15F7
330
1F
100
AcDbEntity
  8
LOGO
  6
Continuous
100
AcDbLine
 10
706.1267066848476
 20
75.08771882143239
 30
0.0
 11
712.7838040135136
 21
75.96704197585329
 31
0.0
  0
LINE
  5
15F8
330
1F
100
AcDbEntity
  8
LOGO
  6
Continuous
100
AcDbLine
 10
706.1267066848476
 20
72.59933532214754
 30
0.0
 11
712.7838040135136
 21
71.7200121677262
 31
0.0
  0
LINE
  5
15F9
330
1F
100
AcDbEntity
  8
LOGO
  6
AM_ISO08W050x2
 48
0.3
100
AcDbLine
 10
696.5120928617485
 20
73.84352707178975
 30
0.0
 11
702.3666870465143
 21
73.84352707178975
 31
0.0
1001
GENIUS_GENOREF_13
1005
16B6
  0
LINE
  5
15FA
330
1F
100
AcDbEntity
  8
LOGO
  6
AM_ISO08W050x2
 48
0.3
100
AcDbLine
 10
699.4393899541312
 20
70.91622997940689
 30
0.0
 11
699.4393899541312
 21
76.77082416417261
 31
0.0
1001
GENIUS_GENOREF_13
1005
16B5
  0
LINE
  5
15FB
330
1F
100
AcDbEntity
  8
LOGO
  6
CENTER
 48
0.5
100
AcDbLine
 10
705.5943239317086
 20
73.84352707178975
 30
0.0
 11
713.4541521643752
 21
73.84352707178975
 31
0.0
1001
GENIUS_GENOREF_13
1005
16B4
  0
POINT
  5
16B4
330
1F
100
AcDbEntity
  8
0
 60
     1
100
AcDbPoint
 10
-1930.92695728958
 20
-494.9154325062304
 30
0.0
1001
GENIUS_GENOBJ-N-CRS_13
1002
{
1000
OWNER
1000
GEN
1002
}
1001
GENIUS_GENOLIS_13
1002
{
1000
ENT
1005
0
1005
0
1005
0
1005
15FB
1002
}
1001
GENIUS_GENOENT_13
1002
{
1000
MYREF
1005
16B4
1002
}
1002
{
1000
GRP
1005
0
1002
}
1001
GENIUS_GENODEF_13
1002
{
1000
HIER
1070
    10
1002
}
1002
{
1000
MANEDIT
1070
     1
1002
}
1002
{
1000
NOSEL
1070
     0
1002
}
1002
{
1000
BEHIND
1070
     0
1002
}
1002
{
1000
OTHER
1070
     0
1002
}
1002
{
1000
REACTOR
1002
}
  0
POINT
  5
16B5
330
1F
100
AcDbEntity
  8
0
 60
     1
100
AcDbPoint
 10
-1942.251542512434
 20
-486.0398460275941
 30
0.0
1001
GENIUS_GENOBJ-N-CRS_13
1002
{
1000
OWNER
1000
GEN
1002
}
1001
GENIUS_GENOLIS_13
1002
{
1000
ENT
1005
0
1005
0
1005
0
1005
15FA
1002
}
1001
GENIUS_GENOENT_13
1002
{
1000
MYREF
1005
16B5
1002
}
1002
{
1000
GRP
1005
0
1002
}
1001
GENIUS_GENODEF_13
1002
{
1000
HIER
1070
    10
1002
}
1002
{
1000
MANEDIT
1070
     1
1002
}
1002
{
1000
NOSEL
1070
     0
1002
}
1002
{
1000
BEHIND
1070
     0
1002
}
1002
{
1000
OTHER
1070
     0
1002
}
1002
{
1000
REACTOR
1002
}
  0
POINT
  5
16B6
330
1F
100
AcDbEntity
  8
0
 60
     1
100
AcDbPoint
 10
-1935.892868814597
 20
-494.9154325062304
 30
0.0
1001
GENIUS_GENOBJ-N-CRS_13
1002
{
1000
OWNER
1000
GEN
1002
}
1001
GENIUS_GENOLIS_13
1002
{
1000
ENT
1005
0
1005
0
1005
0
1005
15F9
1002
}
1001
GENIUS_GENOENT_13
1002
{
1000
MYREF
1005
16B6
1002
}
1002
{
1000
GRP
1005
0
1002
}
1001
GENIUS_GENODEF_13
1002
{
1000
HIER
1070
    10
1002
}
1002
{
1000
MANEDIT
1070
     1
1002
}
1002
{
1000
NOSEL
1070
     0
1002
}
1002
{
1000
BEHIND
1070
     0
1002
}
1002
{
1000
OTHER
1070
     0
1002
}
1002
{
1000
REACTOR
1002
}
  0
MTEXT
  5
7BA1
330
1F
100
AcDbEntity
  8
AM_VIS
100
AcDbMText
 10
315.4333775501655
 20
376.163241097652
 30
0.0
 40
3.5
 41
0.0
 71
     9
 72
     1
  1

 73
     1
 44
1.0
1001
ACAD
1000
MTEXTBEGIN
1070
    73
1070
     1
1070
    44
1040
1.0
1070
    74
1070
     0
1000
MTEXTEND
  0
LINE
  5
99DA
102
{ACAD_REACTORS
330
A58C
102
}
330
1F
100
AcDbEntity
  8
AM_7
100
AcDbLine
 10
683.9542143722265
 20
214.3646501375561
 30
0.0
 11
859.1155397715295
 21
214.3646501375561
 31
0.0
  0
LINE
  5
99DB
330
1F
100
AcDbEntity
  8
AM_7
100
AcDbLine
 10
771.534877071878
 20
301.9453128372076
 30
0.0
 11
771.534877071878
 21
126.7839874379045
 31
0.0
  0
LINE
  5
9C94
330
1F
100
AcDbEntity
  8
LOGO
  6
Continuous
 62
     7
100
AcDbLine
 10
810.5393939784754
 20
75.56410340932906
 30
0.0
 11
815.4380166964811
 21
75.56410340932906
 31
0.0
  0
LINE
  5
9C95
330
1F
100
AcDbEntity
  8
LOGO
 62
     4
100
AcDbLine
 10
842.9645384271255
 20
64.5095871422346
 30
0.0
 11
842.9645384271255
 21
50.95048321572137
 31
0.0
  0
LINE
  5
9C96
330
1F
100
AcDbEntity
  8
LOGO
 62
     4
100
AcDbLine
 10
814.7923046079084
 20
64.5095871422346
 30
0.0
 11
814.7923046079084
 21
50.95048321572137
 31
0.0
  0
LINE
  5
9C97
330
1F
100
AcDbEntity
  8
LOGO
 62
     4
100
AcDbLine
 10
842.9645384271255
 20
50.95048321572137
 30
0.0
 11
814.7923046079084
 21
50.95048321572137
 31
0.0
  0
LINE
  5
9C98
330
1F
100
AcDbEntity
  8
LOGO
 62
     4
100
AcDbLine
 10
837.4252051801901
 20
81.15030559749982
 30
0.0
 11
818.568884758724
 21
81.15030559749985
 31
0.0
  0
LINE
  5
9C99
330
1F
100
AcDbEntity
  8
LOGO
 62
     4
100
AcDbLine
 10
837.4252051801901
 20
70.05649329398941
 30
0.0
 11
818.568884758724
 21
70.05649329398941
 31
0.0
  0
LINE
  5
9C9A
330
1F
100
AcDbEntity
  8
LOGO
 62
     4
100
AcDbLine
 10
818.568884758724
 20
81.15030559749985
 30
0.0
 11
818.568884758724
 21
70.05649329398941
 31
0.0
  0
LINE
  5
9C9B
330
1F
100
AcDbEntity
  8
LOGO
 62
     4
100
AcDbLine
 10
837.4252051801901
 20
81.15030559749985
 30
0.0
 11
837.4252051801901
 21
70.05649329398941
 31
0.0
  0
LINE
  5
9C9C
330
1F
100
AcDbEntity
  8
LOGO
 62
     4
100
AcDbLine
 10
827.9970449694573
 20
70.05649329398941
 30
0.0
 11
827.9970449694573
 21
64.5095871422346
 31
0.0
  0
LINE
  5
9C9E
330
1F
100
AcDbEntity
  8
LOGO
 62
     4
100
AcDbLine
 10
842.9645384271255
 20
64.5095871422346
 30
0.0
 11
814.7923046079084
 21
64.5095871422346
 31
0.0
  0
TEXT
  5
9C9F
330
1F
100
AcDbEntity
  8
LOGO
  6
Continuous
100
AcDbText
 10
817.227722374673
 20
52.86432198220095
 30
242.3567274613197
 40
2.773854719999999
  1
Body diameter
 41
0.8
  7
CHINESET
100
AcDbText
  0
TEXT
  5
9CA0
330
1F
100
AcDbEntity
  8
LOGO
100
AcDbText
 10
819.4715777799727
 20
58.00645082472158
 30
242.3567274613197
 40
4.623091199999999
  1
本體寬度
  7
CHINESET
100
AcDbText
  0
TEXT
  5
9CA2
330
1F
100
AcDbEntity
  8
LOGO
  6
Continuous
 62
     7
100
AcDbText
 10
820.3972282248933
 20
72.37231039319573
 30
0.0
 40
6.472327679999997
  1
160
  7
CHINESET
100
AcDbText
  0
DIMENSION
  5
A516
330
1F
100
AcDbEntity
  8
AM_REFDIM
100
AcDbDimension
  2
*D6
 10
781.6348764566551
 20
115.3986372915431
 30
0.0
 11
771.534877071878
 21
115.3986372915431
 31
0.0
 70
   160
 71
     5
 42
20.1999993847769
  3
AM_ISO$0
100
AcDbAlignedDimension
 13
761.4348770718781
 23
135.0047736255552
 33
0.0
 14
781.6348764566551
 24
135.0047735472569
 34
0.0
100
AcDbRotatedDimension
1001
ACAD
1000
DSTYLE
1002
{
1070
    40
1040
1.005834825753484
1070
   271
1070
     1
1002
}
  0
DIMENSION
  5
A540
330
1F
100
AcDbEntity
  8
AM_REFDIM
100
AcDbDimension
  2
*D7
 10
791.5348764030109
 20
107.024927000236
 30
0.0
 11
771.5348768500457
 21
107.024927000236
 31
0.0
 70
   160
 71
     5
 42
39.99999910593033
  3
AM_ISO$0
100
AcDbAlignedDimension
 13
751.5348772970805
 23
130.3485492961105
 33
0.0
 14
791.5348764030109
 24
130.3485492961105
 34
0.0
100
AcDbRotatedDimension
1001
ACAD
1000
DSTYLE
1002
{
1070
    40
1040
1.005834825753484
1002
}
  0
DIMENSION
  5
A57E
102
{ACAD_XDICTIONARY
360
A58B
102
}
102
{ACAD_REACTORS
330
A58C
102
}
330
1F
100
AcDbEntity
  8
AM_REFDIM
100
AcDbDimension
  2
*D8
 10
874.5195431655414
 20
130.3485492961105
 30
0.0
 11
874.5195431655414
 21
172.3565997168333
 31
0.0
 70
   160
 71
     5
 42
84.01610084144556
  3
AM_ISO$0
100
AcDbAlignedDimension
 13
859.1155397715295
 23
214.3646501375561
 33
0.0
 14
791.5348764030109
 24
130.3485492961105
 34
0.0
 50
89.99999999999959
100
AcDbRotatedDimension
1001
ACAD
1000
DSTYLE
1002
{
1070
    40
1040
1.005834825753484
1070
   271
1070
     0
1002
}
  0
DIMENSION
  5
A622
330
1F
100
AcDbEntity
  8
AM_REFDIM
100
AcDbDimension
  2
*D9
 10
1015.379927553601
 20
311.2314783513898
 30
0.0
 11
967.8799275536015
 21
311.2314783513898
 31
0.0
 70
   160
 71
     5
 42
95.0
  3
AM_ISO$0
100
AcDbAlignedDimension
 13
920.3799275536015
 23
293.3153218384944
 33
0.0
 14
1015.379927553601
 24
293.3646501375558
 34
0.0
100
AcDbRotatedDimension
1001
ACAD
1000
DSTYLE
1002
{
1070
    40
1040
1.005834825753484
1002
}
  0
DIMENSION
  5
A67B
330
1F
100
AcDbEntity
  8
AM_REFDIM
100
AcDbDimension
  2
*D10
 10
1024.794335836492
 20
134.3646501375559
 30
0.0
 11
1024.794335836492
 21
214.3646501375559
 31
0.0
 70
   160
  1
%%c<>
 71
     5
 42
159.9999999999999
  3
AM_ISO$0
100
AcDbAlignedDimension
 13
1014.379927553601
 23
294.3646501375558
 33
0.0
 14
1014.379927553601
 24
134.3646501375559
 34
0.0
 50
90.0
100
AcDbRotatedDimension
1001
ACAD
1000
DSTYLE
1002
{
1070
    40
1040
1.005834825753484
1002
}
  0
DIMENSION
  5
A6A1
330
1F
100
AcDbEntity
  8
AM_REFDIM
100
AcDbDimension
  2
*D11
 10
948.3799282539447
 20
119.460879824045
 30
0.0
 11
981.3799279037731
 21
119.460879824045
 31
0.0
 70
   160
 71
     5
 42
66.99999929965679
  3
AM_ISO$0
100
AcDbAlignedDimension
 13
1015.379927553601
 23
135.3646501375559
 33
0.0
 14
948.3799282539447
 24
133.1277644988261
 34
0.0
100
AcDbRotatedDimension
1001
ACAD
1000
DSTYLE
1002
{
1070
    40
1040
1.005834825753484
1070
   271
1070
     0
1002
}
  0
DIMENSION
  5
A724
330
1F
100
AcDbEntity
  8
AM_REFDIM
100
AcDbDimension
  2
*D12
 10
920.3799274585952
 20
311.2314783513899
 30
0.0
 11
919.3799274585952
 21
311.2314783513899
 31
0.0
 70
   160
 71
     5
 42
2.0
  3
AM_ISO$0
100
AcDbAlignedDimension
 13
918.3799274585952
 23
251.8646499868594
 33
0.0
 14
920.3799274585952
 24
293.3153218384944
 34
0.0
100
AcDbRotatedDimension
1001
ACAD
1000
DSTYLE
1002
{
1070
    40
1040
1.005834825753484
1070
   271
1070
     0
1002
}
  0
DIMENSION
  5
A77B
330
1F
100
AcDbEntity
  8
AM_REFDIM
100
AcDbDimension
  2
*D13
 10
850.1563310693937
 20
154.8485505180057
 30
0.0
 11
850.1563310693937
 21
158.8485496503314
 31
0.0
 70
   160
 71
     5
 42
7.999998264651196
  3
AM_ISO$0
100
AcDbAlignedDimension
 13
771.534877071878
 23
162.8485487826569
 33
0.0
 14
781.6348764566551
 24
154.8485505180057
 34
0.0
 50
90.0
100
AcDbRotatedDimension
1001
ACAD
1000
DSTYLE
1002
{
1070
    40
1040
1.005834825753484
1070
   271
1070
     0
1002
}
  0
DIMENSION
  5
A7A5
330
1F
100
AcDbEntity
  8
AM_REFDIM
100
AcDbDimension
  2
*D14
 10
861.7077022986237
 20
138.8485487826571
 30
0.0
 11
861.7077022986237
 21
150.848548782657
 31
0.0
 70
   160
 71
     5
 42
23.99999999999977
  3
AM_ISO$0
100
AcDbAlignedDimension
 13
771.534877071878
 23
162.8485487826569
 33
0.0
 14
771.534877071878
 24
138.8485487826571
 34
0.0
 50
90.0
100
AcDbRotatedDimension
1001
ACAD
1000
DSTYLE
1002
{
1070
    40
1040
1.005834825753484
1002
}
  0
DIMENSION
  5
A7CB
330
1F
100
AcDbEntity
  8
AM_REFDIM
100
AcDbDimension
  2
*D15
 10
850.1563310693937
 20
130.3485492961105
 30
0.0
 11
850.1563310693937
 21
134.5985490393839
 31
0.0
 70
   160
 71
     5
 42
8.499999486546641
  3
AM_ISO$0
100
AcDbAlignedDimension
 13
771.534877071878
 23
138.8485487826571
 33
0.0
 14
791.5348764030109
 24
130.3485492961105
 34
0.0
 50
90.0
100
AcDbRotatedDimension
1001
ACAD
1000
DSTYLE
1002
{
1070
    40
1040
1.005834825753484
1070
   271
1070
     1
1002
}
  0
LEADER
  5
A889
330
1F
100
AcDbEntity
  8
AM_REFDIM
100
AcDbLeader
  3
AM_ISO$7
 76
     3
 10
838.9789290422095
 20
253.579823570114
 30
0.0
 10
849.4327098010739
 20
268.4982698787013
 30
0.0
 10
881.1803786541938
 20
268.4982698787013
 30
0.0
1001
ACAD
1000
DSTYLE
1002
{
1070
   147
1040
1.0
1070
    77
1070
     1
1070
    43
1040
12.0
1070
   271
1070
     1
1070
   272
1070
     8
1002
}
  0
MTEXT
  5
A88C
330
1F
100
AcDbEntity
  8
AM_REFDIM
100
AcDbMText
 10
851.052001638196
 20
272.2284094320206
 30
0.0
 40
3.0
 41
33.65203381816716
 71
     1
 72
     5
  1
3X2-M6X1.0 DP12
 73
     1
 44
1.0
1001
ACAD
1000
MTEXTBEGIN
1070
    73
1070
     1
1070
    44
1040
1.0
1070
    74
1070
     0
1000
MTEXTEND
  0
LEADER
  5
A890
330
1F
100
AcDbEntity
  8
AM_REFDIM
100
AcDbLeader
  3
AM_ISO$7
 76
     3
 10
771.534877071878
 20
291.6146501375563
 30
0.0
 10
782.5509909759406
 20
302.6524981916131
 30
0.0
 10
820.0009377766358
 20
302.6524981916131
 30
0.0
1001
ACAD
1000
DSTYLE
1002
{
1070
   147
1040
1.0
1070
    77
1070
     1
1070
    43
1040
12.0
1070
   271
1070
     1
1070
   272
1070
     8
1002
}
  0
MTEXT
  5
A895
330
1F
100
AcDbEntity
  8
AM_REFDIM
100
AcDbMText
 10
783.2014376467987
 20
306.9170875794184
 30
0.0
 40
3.0
 41
38.59614173293908
 71
     1
 72
     5
  1
3-%%C9 thru\P%%C15 C/B DP9 P.C.D 146
 73
     1
 44
1.0
1001
ACAD
1000
MTEXTBEGIN
1070
    73
1070
     1
1070
    44
1040
1.0
1070
    74
1070
     0
1000
MTEXTEND
  0
DIMENSION
  5
B250
330
1F
100
AcDbEntity
  8
AM_REFDIM
100
AcDbDimension
  2
*D16
 10
683.9542143722267
 20
130.3485492961105
 30
0.0
 11
683.9542143722267
 21
150.3485488490757
 31
0.0
 70
   160
 71
     5
 42
39.99999910593033
  3
AM_ISO$0
100
AcDbAlignedDimension
 13
761.4348770106057
 23
170.3485484020408
 33
0.0
 14
751.5348772970805
 24
130.3485492961105
 34
0.0
 50
90.0
100
AcDbRotatedDimension
1001
ACAD
1000
DSTYLE
1002
{
1070
    40
1040
1.005834825753484
1070
   271
1070
     0
1002
}
  0
ARC
  5
CA38
330
1F
100
AcDbEntity
  8
0
  6
Continuous
 62
     7
370
    15
100
AcDbCircle
 10
1014.379927553601
 20
135.3646501375559
 30
0.0
 40
1.0
100
AcDbArc
 50
270.0
 51
0.0
  0
ARC
  5
CA39
330
1F
100
AcDbEntity
  8
0
  6
Continuous
 62
     7
370
    15
100
AcDbCircle
 10
1014.379927553601
 20
293.3646501375558
 30
0.0
 40
1.0
100
AcDbArc
 50
359.9999999999992
 51
90.0
  0
SPLINE
  5
CA3A
330
1F
100
AcDbEntity
  8
0
  6
Continuous
 62
     7
370
    15
100
AcDbSpline
210
0.0
220
0.0
230
1.0
 70
    24
 71
     1
 72
     4
 73
     2
 74
     0
 42
0.0000000001
 43
0.0000000001
 40
0.0
 40
0.0
 40
1.0
 40
1.0
 10
921.3799276010876
 20
134.3646502848826
 30
0.0
 10
931.3799274939855
 20
134.3646502848826
 30
0.0
  0
SPLINE
  5
CA3B
330
1F
100
AcDbEntity
  8
0
  6
Continuous
 62
     7
370
    15
100
AcDbSpline
210
0.0
220
0.0
230
1.0
 70
    24
 71
     1
 72
     4
 73
     2
 74
     0
 42
0.0000000001
 43
0.0000000001
 40
0.0
 40
0.0
 40
1.0
 40
1.0
 10
948.3799282539447
 20
134.3646502848826
 30
0.0
 10
1014.379924334939
 20
134.3646502848826
 30
0.0
  0
SPLINE
  5
CA3C
330
1F
100
AcDbEntity
  8
0
  6
Continuous
 62
     7
370
    15
100
AcDbSpline
210
0.0
220
0.0
230
1.0
 70
    24
 71
     1
 72
     4
 73
     2
 74
     0
 42
0.0000000001
 43
0.0000000001
 40
0.0
 40
0.0
 40
1.0
 40
1.0
 10
1014.379924334939
 20
294.3646467086039
 30
0.0
 10
947.3799282539447
 20
294.3646467086039
 30
0.0
  0
SPLINE
  5
CA3D
330
1F
100
AcDbEntity
  8
0
  6
Continuous
 62
     7
370
    15
100
AcDbSpline
210
0.0
220
0.0
230
1.0
 70
    24
 71
     1
 72
     4
 73
     2
 74
     0
 42
0.0000000001
 43
0.0000000001
 40
0.0
 40
0.0
 40
1.0
 40
1.0
 10
931.3799274939855
 20
294.3646467086039
 30
0.0
 10
921.3799276010876
 20
294.3646467086039
 30
0.0
  0
SPLINE
  5
CA3E
330
1F
100
AcDbEntity
  8
0
  6
Continuous
 62
     7
370
    15
100
AcDbSpline
210
0.0
220
0.0
230
1.0
 70
    24
 71
     1
 72
     4
 73
     2
 74
     0
 42
0.0000000001
 43
0.0000000001
 40
0.0
 40
0.0
 40
1.0
 40
1.0
 10
920.7154291478262
 20
222.0291485339515
 30
0.0
 10
920.8884509833341
 20
221.8646501371807
 30
0.0
  0
SPLINE
  5
CA3F
330
1F
100
AcDbEntity
  8
0
  6
Continuous
 62
     7
370
    15
100
AcDbSpline
210
0.0
220
0.0
230
1.0
 70
    24
 71
     1
 72
     4
 73
     2
 74
     0
 42
0.0000000001
 43
0.0000000001
 40
0.0
 40
0.0
 40
1.0
 40
1.0
 10
920.8884972002168
 20
206.8646500613652
 30
0.0
 10
920.7155575539262
 20
206.7002800088487
 30
0.0
  0
ARC
  5
CA40
330
1F
100
AcDbEntity
  8
0
  6
Continuous
 62
     7
370
    15
100
AcDbCircle
 10
921.3799275536015
 20
135.3646501375559
 30
0.0
 40
1.0
100
AcDbArc
 50
180.0
 51
270.0
  0
ARC
  5
CA41
330
1F
100
AcDbEntity
  8
0
  6
Continuous
 62
     7
370
    15
100
AcDbCircle
 10
921.3799275536015
 20
293.3646501375558
 30
0.0
 40
1.0
100
AcDbArc
 50
90.0
 51
180.0000000000024
  0
SPLINE
  5
CA42
330
1F
100
AcDbEntity
  8
0
  6
Continuous
 62
     7
370
    15
100
AcDbSpline
210
0.0
220
0.0
230
1.0
 70
    24
 71
     1
 72
     4
 73
     2
 74
     0
 42
0.0000000001
 43
0.0000000001
 40
0.0
 40
0.0
 40
1.0
 40
1.0
 10
920.3799275536015
 20
251.8646499868594
 30
0.0
 10
918.3799274585952
 20
251.8646499868594
 30
0.0
  0
SPLINE
  5
CA43
330
1F
100
AcDbEntity
  8
0
  6
Continuous
 62
     7
370
    15
100
AcDbSpline
210
0.0
220
0.0
230
1.0
 70
    24
 71
     1
 72
     4
 73
     2
 74
     0
 42
0.0000000001
 43
0.0000000001
 40
0.0
 40
0.0
 40
1.0
 40
1.0
 10
918.3799274585952
 20
176.8646507319174
 30
0.0
 10
920.3799275536015
 20
176.8646507319174
 30
0.0
  0
SPLINE
  5
CA44
330
1F
100
AcDbEntity
  8
0
  6
Continuous
 62
     7
370
    15
100
AcDbSpline
210
0.0
220
0.0
230
1.0
 70
    24
 71
     3
 72
    29
 73
    25
 74
     0
 42
0.0000000001
 43
0.0000000001
 40
0.0
 40
0.0
 40
0.0
 40
0.0
 40
0.0457215555455124
 40
0.0918746802032656
 40
0.138437603726232
 40
0.1855745414346462
 40
0.2328768202227724
 40
0.2803117656164949
 40
0.3277429652978597
 40
0.3750453109518448
 40
0.4221859627949643
 40
0.4687452124515929
 40
0.5149011642671665
 40
0.5606235603250324
 40
0.606342203196892
 40
0.6524982518990833
 40
0.6990611686178651
 40
0.74619813029198
 40
0.7935004052884937
 40
0.8409353532065377
 40
0.8883665543842026
 40
0.9356688698994673
 40
0.9828095338001674
 40
1.0
 40
1.0
 40
1.0
 40
1.0
 10
1015.379926361497
 20
214.3646503593884
 30
0.0
 10
1015.379926361497
 20
216.2558676768271
 30
0.0
 10
1015.379926361497
 20
220.0561536505097
 30
0.0
 10
1015.379926361497
 20
225.7528413795578
 30
0.0
 10
1015.379926361497
 20
231.4471319597782
 30
0.0
 10
1015.379926361497
 20
237.0956783099194
 30
0.0
 10
1015.379926361497
 20
242.6539843967713
 30
0.0
 10
1015.379926361497
 20
248.0671609670483
 30
0.0
 10
1015.379926361497
 20
253.2936304722094
 30
0.0
 10
1015.379926361497
 20
258.2941227349626
 30
0.0
 10
1015.379926361497
 20
263.0232956935191
 30
0.0
 10
1015.379926361497
 20
267.4519493712178
 30
0.0
 10
1015.379926361497
 20
271.5554554739316
 30
0.0
 10
1015.379926361497
 20
275.3366614708113
 30
0.0
 10
1015.379926361497
 20
278.8027269782704
 30
0.0
 10
1015.379926361497
 20
281.9530813789804
 30
0.0
 10
1015.379926361497
 20
284.7753703648994
 30
0.0
 10
1015.379926361497
 20
287.2386278844591
 30
0.0
 10
1015.379926361497
 20
289.3162069474607
 30
0.0
 10
1015.379926361497
 20
290.9809515647055
 30
0.0
 10
1015.379926361497
 20
292.228850062089
 30
0.0
 10
1015.379926361497
 20
293.0155639536573
 30
0.0
 10
1015.379926361497
 20
293.3766076090794
 30
0.0
 10
1015.379926361497
 20
293.3283686433375
 30
0.0
 10
1015.379926361497
 20
293.3154783006869
 30
0.0
  0
SPLINE
  5
CA45
330
1F
100
AcDbEntity
  8
0
  6
Continuous
 62
     7
370
    15
100
AcDbSpline
210
0.0
220
0.0
230
1.0
 70
    24
 71
     3
 72
    29
 73
    25
 74
     0
 42
0.0000000001
 43
0.0000000001
 40
0.0
 40
0.0
 40
0.0
 40
0.0
 40
0.0171904662415477
 40
0.0643274103148834
 40
0.1116297043708586
 40
0.1590646512045636
 40
0.2064958491784095
 40
0.2537981653606638
 40
0.3009388114891077
 40
0.3474980563663459
 40
0.3936540159805188
 40
0.4393764176667735
 40
0.4850950734605807
 40
0.5312511054028969
 40
0.5778140348667045
 40
0.6249509733430178
 40
0.6722532720216234
 40
0.7196882332911228
 40
0.7671194232783897
 40
0.8144217312910909
 40
0.8615623842502486
 40
0.9081216332500567
 40
0.9542766176305256
 40
1.0
 40
1.0
 40
1.0
 40
1.0
 10
1015.379926361497
 20
135.4138261433802
 30
0.0
 10
1015.379926361497
 20
135.400935265434
 30
0.0
 10
1015.379926361497
 20
135.3526970860085
 30
0.0
 10
1015.379926361497
 20
135.7137384702356
 30
0.0
 10
1015.379926361497
 20
136.5003633923405
 30
0.0
 10
1015.379926361497
 20
137.7482808882788
 30
0.0
 10
1015.379926361497
 20
139.4130164599861
 30
0.0
 10
1015.379926361497
 20
141.4905389138739
 30
0.0
 10
1015.379926361497
 20
143.9537850383999
 30
0.0
 10
1015.379926361497
 20
146.7760784690832
 30
0.0
 10
1015.379926361497
 20
149.9263750598955
 30
0.0
 10
1015.379926361497
 20
153.392437761348
 30
0.0
 10
1015.379926361497
 20
157.1736470147939
 30
0.0
 10
1015.379926361497
 20
161.2771095482753
 30
0.0
 10
1015.379926361497
 20
165.7057649417344
 30
0.0
 10
1015.379926361497
 20
170.4349299882836
 30
0.0
 10
1015.379926361497
 20
175.435391158041
 30
0.0
 10
1015.379926361497
 20
180.661857996596
 30
0.0
 10
1015.379926361497
 20
186.0750375866672
 30
0.0
 10
1015.379926361497
 20
191.6333191061309
 30
0.0
 10
1015.379926361497
 20
197.2818698738846
 30
0.0
 10
1015.379926361497
 20
202.9762362885222
 30
0.0
 10
1015.379926361497
 20
208.6729172436645
 30
0.0
 10
1015.379926361497
 20
212.4733568892059
 30
0.0
 10
1015.379926361497
 20
214.3646503593884
 30
0.0
  0
SPLINE
  5
CA46
330
1F
100
AcDbEntity
  8
0
  6
Continuous
 62
     7
370
    15
100
AcDbSpline
210
0.0
220
0.0
230
1.0
 70
    11
 71
     3
 72
    88
 73
    84
 74
     0
 42
0.0000000001
 43
0.0000000001
 40
0.0
 40
0.0
 40
0.0
 40
0.0
 40
0.0312500000000011
 40
0.0312500000000011
 40
0.0468750000000017
 40
0.0468750000000017
 40
0.0625000000000023
 40
0.0625000000000023
 40
0.0937500000000034
 40
0.0937500000000034
 40
0.1250000000000043
 40
0.1250000000000043
 40
0.1562500000000054
 40
0.1562500000000054
 40
0.1718750000000059
 40
0.1718750000000059
 40
0.1875000000000065
 40
0.203125000000007
 40
0.203125000000007
 40
0.2187500000000075
 40
0.2187500000000075
 40
0.2500000000000082
 40
0.2500000000000082
 40
0.2812500000000089
 40
0.2812500000000089
 40
0.3125000000000095
 40
0.3125000000000095
 40
0.3281250000000098
 40
0.3281250000000098
 40
0.34375000000001
 40
0.34375000000001
 40
0.3750000000000104
 40
0.3750000000000104
 40
0.4062500000000108
 40
0.4062500000000108
 40
0.421875000000011
 40
0.421875000000011
 40
0.4375000000000111
 40
0.4375000000000111
 40
0.4687500000000115
 40
0.4687500000000115
 40
0.5000000000000118
 40
0.5000000000000118
 40
0.5312500000000121
 40
0.5312500000000121
 40
0.5468750000000118
 40
0.5468750000000118
 40
0.5625000000000115
 40
0.5625000000000115
 40
0.5937500000000103
 40
0.5937500000000103
 40
0.6250000000000093
 40
0.6250000000000093
 40
0.6562500000000081
 40
0.6562500000000081
 40
0.6718750000000076
 40
0.6718750000000076
 40
0.6875000000000071
 40
0.7031250000000064
 40
0.7031250000000064
 40
0.7187500000000059
 40
0.7187500000000059
 40
0.7500000000000046
 40
0.7500000000000046
 40
0.7812500000000032
 40
0.7812500000000032
 40
0.8125000000000019
 40
0.8125000000000019
 40
0.8281250000000014
 40
0.8281250000000014
 40
0.8437500000000007
 40
0.8437500000000007
 40
0.8750000000000005
 40
0.8750000000000005
 40
0.9062500000000003
 40
0.9062500000000003
 40
0.9218750000000005
 40
0.9218750000000005
 40
0.9375000000000007
 40
0.9375000000000007
 40
0.9687500000000003
 40
0.9687500000000003
 40
1.0
 40
1.0
 40
1.0
 40
1.0
 10
998.3799275536014
 20
200.9947621120792
 30
0.0
 10
998.8756548307193
 20
200.9947621120792
 30
0.0
 10
999.363044300405
 20
200.9465581733726
 30
0.0
 10
1000.082145916114
 20
200.8050416513602
 30
0.0
 10
1000.319834581502
 20
200.7462502562171
 30
0.0
 10
1000.791099648344
 20
200.6049448118242
 30
0.0
 10
1001.025259904086
 20
200.5220502340843
 30
0.0
 10
1001.706300925065
 20
200.242966412614
 30
0.0
 10
1002.136939162635
 20
200.0154607360463
 30
0.0
 10
1002.95194588992
 20
199.4788450039939
 30
0.0
 10
1003.337628685325
 20
199.1670471488408
 30
0.0
 10
1004.02903826223
 20
198.4872811148562
 30
0.0
 10
1004.33939921493
 20
198.1169017701612
 30
0.0
 10
1004.750628140642
 20
197.5148600186839
 30
0.0
 10
1004.878233227073
 20
197.3066024181828
 30
0.0
 10
1005.109584193314
 20
196.883689979679
 30
0.0
 10
1005.318652282104
 20
196.4521820439584
 30
0.0
 10
1005.483786503022
 20
196.0038394354148
 30
0.0
 10
1005.626630109184
 20
195.5470024606638
 30
0.0
 10
1005.687144527051
 20
195.3130465259796
 30
0.0
 10
1005.831806848853
 20
194.6082490340669
 30
0.0
 10
1005.879581281867
 20
194.1369188699967
 30
0.0
 10
1005.880270110268
 20
193.1915316375961
 30
0.0
 10
1005.831625075979
 20
192.712554772143
 30
0.0
 10
1005.640393576069
 20
191.7878412975411
 30
0.0
 10
1005.498864954422
 20
191.3394874562856
 30
0.0
 10
1005.217275635734
 20
190.6877812360438
 30
0.0
 10
1005.111101415592
 20
190.4729651122113
 30
0.0
 10
1004.879114644842
 20
190.0584868703867
 30
0.0
 10
1004.753199017366
 20
189.8582372292087
 30
0.0
 10
1004.34636996641
 20
189.2778406627086
 30
0.0
 10
1004.036661955832
 20
188.9178508161704
 30
0.0
 10
1003.337045579016
 20
188.253186689322
 30
0.0
 10
1002.958447632728
 20
187.9593061266938
 30
0.0
 10
1002.34973788048
 20
187.5738701709676
 30
0.0
 10
1002.13994384684
 20
187.4546568286502
 30
0.0
 10
1001.706247510831
 20
187.2351017608951
 30
0.0
 10
1001.481527080296
 20
187.1345632616425
 30
0.0
 10
1000.80042084445
 20
186.8679171348141
 30
0.0
 10
1000.3330275475
 20
186.734000691695
 30
0.0
 10
999.371797840919
 20
186.5526920410978
 30
0.0
 10
998.8756334627161
 20
186.5058734548789
 30
0.0
 10
997.8841810591077
 20
186.5058759806591
 30
0.0
 10
997.3967926251525
 20
186.5516868615262
 30
0.0
 10
996.677692524924
 20
186.6863708009706
 30
0.0
 10
996.4400043581923
 20
186.7423438778089
 30
0.0
 10
995.9687402779701
 20
186.876989346423
 30
0.0
 10
995.7345806349787
 20
186.956025566208
 30
0.0
 10
995.0535415006241
 20
187.2224049848812
 30
0.0
 10
994.6229044253424
 20
187.4398776286575
 30
0.0
 10
993.8078998849899
 20
187.9544653018608
 30
0.0
 10
993.4222182694961
 20
188.25418961018
 30
0.0
 10
992.7308108458834
 20
188.9101769568834
 30
0.0
 10
992.4204508420576
 20
189.2687357933088
 30
0.0
 10
992.0092231790299
 20
189.8541677347811
 30
0.0
 10
991.8816185328436
 20
190.0570886961547
 30
0.0
 10
991.6502683421921
 20
190.4700900970362
 30
0.0
 10
991.4412009477217
 20
190.8923860920204
 30
0.0
 10
991.2760672716554
 20
191.333154484081
 30
0.0
 10
991.1332241378046
 20
191.7833564482692
 30
0.0
 10
991.0727099206088
 20
192.0144530408858
 30
0.0
 10
990.9280480970007
 20
192.7123632655833
 30
0.0
 10
990.8802738247489
 20
193.1813517989777
 30
0.0
 10
990.8795849975209
 20
194.1267039911
 30
0.0
 10
990.9282298631874
 20
194.6080625499872
 30
0.0
 10
991.1194607206512
 20
195.5418781474481
 30
0.0
 10
991.260988870049
 20
195.9969015098625
 30
0.0
 10
991.5425772310962
 20
196.661243613066
 30
0.0
 10
991.6487510914727
 20
196.8807388788336
 30
0.0
 10
991.8807371272167
 20
197.3051561436894
 30
0.0
 10
992.0066523566317
 20
197.510671383867
 30
0.0
 10
992.4134801169532
 20
198.1075095094384
 30
0.0
 10
992.7231871409011
 20
198.479323663021
 30
0.0
 10
993.4228012191633
 20
199.1680639245357
 30
0.0
 10
993.8013982555562
 20
199.4737928175717
 30
0.0
 10
994.4101062626232
 20
199.875713980285
 30
0.0
 10
994.6198996900715
 20
200.0002100379611
 30
0.0
 10
995.0535947556394
 20
200.2297424792223
 30
0.0
 10
995.2783146111636
 20
200.3349861260366
 30
0.0
 10
995.95941927234
 20
200.6143493909005
 30
0.0
 10
996.4268114833719
 20
200.754988066676
 30
0.0
 10
997.3880389129513
 20
200.9454958113452
 30
0.0
 10
997.8842002764837
 20
200.9947621120792
 30
0.0
 10
998.3799275536014
 20
200.9947621120792
 30
0.0
  0
LWPOLYLINE
  5
CA47
330
1F
100
AcDbEntity
  8
0
  6
Continuous
 62
     7
370
    15
100
AcDbPolyline
 90
       18
 70
   128
 43
0.0
 10
921.3799276010876
 20
278.0423207935057
 10
921.3799276010876
 20
275.6338535603247
 10
921.3799276010876
 20
273.0829349514209
 10
921.3799276010876
 20
270.3954844530783
 10
921.3799276010876
 20
267.5777568277083
 10
921.3799276010876
 20
264.6363048609458
 10
921.3799276010876
 20
261.5779644604884
 10
921.3799276010876
 20
258.4098472055159
 10
921.3799276010876
 20
255.1393179949485
 10
921.3799276010876
 20
251.7739838715754
 10
921.3799276010876
 20
248.3216698076688
 10
921.3799276010876
 20
244.7904019411765
 10
921.3799276010876
 20
241.1883889492713
 10
921.3799276010876
 20
237.5240090098344
 10
921.3799276010876
 20
233.8057809304558
 10
921.3799276010876
 20
230.042349247273
 10
921.3799276010876
 20
226.2424655985199
 10
921.3799256220271
 20
222.4149645683467
  0
LINE
  5
CA48
330
1F
100
AcDbEntity
  8
0
  6
Continuous
 62
     7
370
    15
100
AcDbLine
 10
926.3799276057442
 20
278.0423207935057
 30
0.0
 11
921.3799276010876
 21
278.0423207935057
 31
0.0
  0
LINE
  5
CA49
330
1F
100
AcDbEntity
  8
0
  6
Continuous
 62
     7
370
    15
100
AcDbLine
 10
930.2485568303426
 20
278.0423207935057
 30
0.0
 11
926.3799276057442
 21
278.0423207935057
 31
0.0
  0
LINE
  5
CA4A
330
1F
100
AcDbEntity
  8
0
  6
Continuous
 62
     7
370
    15
100
AcDbLine
 10
930.8799274120291
 20
278.0423207935057
 30
0.0
 11
930.2485568303426
 21
278.0423207935057
 31
0.0
  0
ELLIPSE
  5
CA4B
330
1F
100
AcDbEntity
  8
0
  6
Continuous
 62
     7
370
    15
100
AcDbEllipse
 10
920.7799275536016
 20
214.3646501375559
 30
0.0
 11
-69.28203230275511
 21
69.28203230275517
 31
0.0
210
0.0
220
0.0
230
1.0
 40
0.5773502691896232
 41
5.103096960111106
 42
5.109399942898336
  0
LINE
  5
CA4C
330
1F
100
AcDbEntity
  8
0
  6
Continuous
 62
     7
370
    15
100
AcDbLine
 10
931.3799274939855
 20
271.4466905947886
 30
0.0
 11
931.3799274939855
 21
272.1643528696261
 31
0.0
  0
LINE
  5
CA4D
330
1F
100
AcDbEntity
  8
0
  6
Continuous
 62
     7
370
    15
100
AcDbLine
 10
932.3799276578982
 20
271.4466905947886
 30
0.0
 11
931.3799274939855
 21
271.4466905947886
 31
0.0
  0
LINE
  5
CA4E
330
1F
100
AcDbEntity
  8
0
  6
Continuous
 62
     7
370
    15
100
AcDbLine
 10
946.3799280900319
 20
271.4466905947886
 30
0.0
 11
932.3799276578982
 21
271.4466905947886
 31
0.0
  0
LINE
  5
CA4F
330
1F
100
AcDbEntity
  8
0
  6
Continuous
 62
     7
370
    15
100
AcDbLine
 10
947.3799282539447
 20
271.4466905947886
 30
0.0
 11
946.3799280900319
 21
271.4466905947886
 31
0.0
  0
LINE
  5
CA50
330
1F
100
AcDbEntity
  8
0
  6
Continuous
 62
     7
370
    15
100
AcDbLine
 10
947.3799282539447
 20
273.6096425708495
 30
0.0
 11
947.3799282539447
 21
271.4466905947886
 31
0.0
  0
LINE
  5
CA51
330
1F
100
AcDbEntity
  8
0
  6
Continuous
 62
     7
370
    15
100
AcDbLine
 10
921.3799276010876
 20
288.1423166748248
 30
0.0
 11
926.3799276057442
 21
288.1423166748248
 31
0.0
  0
LINE
  5
CA52
330
1F
100
AcDbEntity
  8
0
  6
Continuous
 62
     7
370
    15
100
AcDbLine
 10
926.3799276057442
 20
140.5869803186617
 30
0.0
 11
921.3799276010876
 21
140.5869803186617
 31
0.0
  0
LINE
  5
CA53
330
1F
100
AcDbEntity
  8
0
  6
Continuous
 62
     7
370
    15
100
AcDbLine
 10
948.3799282539447
 20
157.2826138492785
 30
0.0
 11
948.3799282539447
 21
155.1196581479273
 31
0.0
  0
LINE
  5
CA54
330
1F
100
AcDbEntity
  8
0
  6
Continuous
 62
     7
370
    15
100
AcDbLine
 10
946.3799280900319
 20
157.2826138492785
 30
0.0
 11
948.3799282539447
 21
157.2826138492785
 31
0.0
  0
LINE
  5
CA55
330
1F
100
AcDbEntity
  8
0
  6
Continuous
 62
     7
370
    15
100
AcDbLine
 10
932.3799276578982
 20
157.2826138492785
 30
0.0
 11
946.3799280900319
 21
157.2826138492785
 31
0.0
  0
LINE
  5
CA56
330
1F
100
AcDbEntity
  8
0
  6
Continuous
 62
     7
370
    15
100
AcDbLine
 10
931.3799274939855
 20
157.2826138492785
 30
0.0
 11
932.3799276578982
 21
157.2826138492785
 31
0.0
  0
LINE
  5
CA57
330
1F
100
AcDbEntity
  8
0
  6
Continuous
 62
     7
370
    15
100
AcDbLine
 10
931.3799274939855
 20
156.5649441238604
 30
0.0
 11
931.3799274939855
 21
157.2826138492785
 31
0.0
  0
ELLIPSE
  5
CA58
330
1F
100
AcDbEntity
  8
0
  6
Continuous
 62
     7
370
    15
100
AcDbEllipse
 10
920.7799275536016
 20
214.3646501375559
 30
0.0
 11
69.28203230275489
 21
69.28203230275489
 31
0.0
210
0.0
220
0.0
230
1.0
 40
0.5773502691896323
 41
4.315378017871056
 42
4.321681000658286
  0
LINE
  5
CA59
330
1F
100
AcDbEntity
  8
0
  6
Continuous
 62
     7
370
    15
100
AcDbLine
 10
930.2485568303426
 20
150.6869799252711
 30
0.0
 11
930.8799274120291
 21
150.6869799252711
 31
0.0
  0
LINE
  5
CA5A
330
1F
100
AcDbEntity
  8
0
  6
Continuous
 62
     7
370
    15
100
AcDbLine
 10
926.3799276057442
 20
150.6869799252711
 30
0.0
 11
930.2485568303426
 21
150.6869799252711
 31
0.0
  0
LINE
  5
CA5B
330
1F
100
AcDbEntity
  8
0
  6
Continuous
 62
     7
370
    15
100
AcDbLine
 10
921.3799276010876
 20
150.6869799252711
 30
0.0
 11
926.3799276057442
 21
150.6869799252711
 31
0.0
  0
LINE
  5
CA5C
330
1F
100
AcDbEntity
  8
0
  6
Continuous
 62
     7
370
    15
100
AcDbLine
 10
921.3799276010876
 20
206.3143352773152
 30
0.0
 11
921.3799276010876
 21
150.6869799252711
 31
0.0
  0
LINE
  5
CA5D
330
1F
100
AcDbEntity
  8
0
  6
Continuous
 62
     7
370
    15
100
AcDbLine
 10
947.3799282539447
 20
206.3143352773152
 30
0.0
 11
921.3799276010876
 21
206.3143352773152
 31
0.0
  0
LINE
  5
CA5E
330
1F
100
AcDbEntity
  8
0
  6
Continuous
 62
     7
370
    15
100
AcDbLine
 10
921.3799256220271
 20
222.4149645683467
 30
0.0
 11
947.3799282539447
 21
222.4149646265544
 31
0.0
  0
SPLINE
  5
CA5F
330
1F
100
AcDbEntity
  8
0
  6
Continuous
 62
     7
370
    15
100
AcDbSpline
210
0.0
220
0.0
230
1.0
 70
    11
 71
     3
 72
    88
 73
    84
 74
     0
 42
0.0000000001
 43
0.0000000001
 40
0.0
 40
0.0
 40
0.0
 40
0.0
 40
0.0312499999999997
 40
0.0312499999999997
 40
0.0468749999999995
 40
0.0468749999999995
 40
0.0624999999999994
 40
0.0624999999999994
 40
0.0937499999999994
 40
0.0937499999999994
 40
0.1249999999999995
 40
0.1249999999999995
 40
0.1562499999999995
 40
0.1562499999999995
 40
0.1718749999999996
 40
0.1718749999999996
 40
0.1874999999999996
 40
0.2031249999999996
 40
0.2031249999999996
 40
0.2187499999999996
 40
0.2187499999999996
 40
0.2499999999999996
 40
0.2499999999999996
 40
0.2812499999999997
 40
0.2812499999999997
 40
0.3124999999999998
 40
0.3124999999999998
 40
0.3281249999999999
 40
0.3281249999999999
 40
0.34375
 40
0.34375
 40
0.3750000000000006
 40
0.3750000000000006
 40
0.4062500000000013
 40
0.4062500000000013
 40
0.4218750000000015
 40
0.4218750000000015
 40
0.4375000000000015
 40
0.4375000000000015
 40
0.4687500000000014
 40
0.4687500000000014
 40
0.5000000000000013
 40
0.5000000000000013
 40
0.5312500000000011
 40
0.5312500000000011
 40
0.5468750000000008
 40
0.5468750000000008
 40
0.5625000000000006
 40
0.5625000000000006
 40
0.5937500000000002
 40
0.5937500000000002
 40
0.625
 40
0.625
 40
0.6562499999999996
 40
0.6562499999999996
 40
0.6718749999999993
 40
0.6718749999999993
 40
0.6874999999999992
 40
0.7031249999999991
 40
0.7031249999999991
 40
0.718749999999999
 40
0.718749999999999
 40
0.749999999999999
 40
0.749999999999999
 40
0.7812499999999991
 40
0.7812499999999991
 40
0.8124999999999991
 40
0.8124999999999991
 40
0.8281249999999992
 40
0.8281249999999992
 40
0.8437499999999994
 40
0.8437499999999994
 40
0.8749999999999996
 40
0.8749999999999996
 40
0.9062499999999998
 40
0.9062499999999998
 40
0.9218749999999998
 40
0.9218749999999998
 40
0.9374999999999998
 40
0.9374999999999998
 40
0.9687499999999998
 40
0.9687499999999998
 40
1.0
 40
1.0
 40
1.0
 40
1.0
 10
961.8799275536016
 20
227.7345381630326
 30
0.0
 10
961.3842002764837
 20
227.7345381630326
 30
0.0
 10
960.896810806798
 20
227.7827421017391
 30
0.0
 10
960.1777091910891
 20
227.9242586237515
 30
0.0
 10
959.9400205257003
 20
227.9830500188947
 30
0.0
 10
959.4687554588592
 20
228.1243554632875
 30
0.0
 10
959.2345952031163
 20
228.2072500410274
 30
0.0
 10
958.553554182138
 20
228.4863338624977
 30
0.0
 10
958.1229159445676
 20
228.7138395390654
 30
0.0
 10
957.3079092172823
 20
229.2504552711179
 30
0.0
 10
956.9222264218781
 20
229.562253126271
 30
0.0
 10
956.230816844973
 20
230.2420191602556
 30
0.0
 10
955.9204558922727
 20
230.6123985049506
 30
0.0
 10
955.5092269665605
 20
231.2144402564278
 30
0.0
 10
955.3816218801294
 20
231.422697856929
 30
0.0
 10
955.1502709138885
 20
231.8456102954328
 30
0.0
 10
954.9412028250987
 20
232.2771182311534
 30
0.0
 10
954.7760686041808
 20
232.7254608396969
 30
0.0
 10
954.6332249980183
 20
233.182297814448
 30
0.0
 10
954.5727105801516
 20
233.4162537491322
 30
0.0
 10
954.42804825835
 20
234.1210512410448
 30
0.0
 10
954.3802738253351
 20
234.5923814051151
 30
0.0
 10
954.3795849969345
 20
235.5377686375156
 30
0.0
 10
954.4282300312241
 20
236.0167455029687
 30
0.0
 10
954.6194615311335
 20
236.9414589775706
 30
0.0
 10
954.7609901527803
 20
237.3898128188261
 30
0.0
 10
955.0425794714691
 20
238.041519039068
 30
0.0
 10
955.1487536916107
 20
238.2563351629005
 30
0.0
 10
955.3807404623606
 20
238.670813404725
 30
0.0
 10
955.5066560898373
 20
238.8710630459031
 30
0.0
 10
955.9134851407927
 20
239.4514596124032
 30
0.0
 10
956.2231931513704
 20
239.8114494589413
 30
0.0
 10
956.9228095281868
 20
240.4761135857897
 30
0.0
 10
957.3014074744747
 20
240.7699941484179
 30
0.0
 10
957.9101172267231
 20
241.1554301041442
 30
0.0
 10
958.1199112603625
 20
241.2746434464615
 30
0.0
 10
958.553607596372
 20
241.4941985142166
 30
0.0
 10
958.7783280269064
 20
241.5947370134692
 30
0.0
 10
959.4594342627528
 20
241.8613831402977
 30
0.0
 10
959.9268275597029
 20
241.9952995834168
 30
0.0
 10
960.888057266284
 20
242.176608234014
 30
0.0
 10
961.3842216444869
 20
242.2234268202329
 30
0.0
 10
962.3756740480949
 20
242.2234242944528
 30
0.0
 10
962.8630624820505
 20
242.1776134135856
 30
0.0
 10
963.582162582279
 20
242.0429294741412
 30
0.0
 10
963.8198507490104
 20
241.9869563973028
 30
0.0
 10
964.2911148292329
 20
241.8523109286888
 30
0.0
 10
964.5252744722244
 20
241.7732747089038
 30
0.0
 10
965.2063136065789
 20
241.5068952902306
 30
0.0
 10
965.6369506818606
 20
241.2894226464543
 30
0.0
 10
966.4519552222131
 20
240.774834973251
 30
0.0
 10
966.8376368377069
 20
240.4751106649318
 30
0.0
 10
967.5290442613196
 20
239.8191233182284
 30
0.0
 10
967.8394042651454
 20
239.4605644818029
 30
0.0
 10
968.2506319281731
 20
238.8751325403307
 30
0.0
 10
968.3782365743594
 20
238.6722115789571
 30
0.0
 10
968.6095867650109
 20
238.2592101780756
 30
0.0
 10
968.8186541594813
 20
237.8369141830914
 30
0.0
 10
968.9837878355477
 20
237.3961457910308
 30
0.0
 10
969.1266309693986
 20
236.9459438268426
 30
0.0
 10
969.1871451865942
 20
236.714847234226
 30
0.0
 10
969.3318070102023
 20
236.0169370095285
 30
0.0
 10
969.3795812824541
 20
235.5479484761342
 30
0.0
 10
969.3802701096821
 20
234.6025962840118
 30
0.0
 10
969.3316252440157
 20
234.1212377251246
 30
0.0
 10
969.1403943865518
 20
233.1874221276637
 30
0.0
 10
968.998866237154
 20
232.7323987652493
 30
0.0
 10
968.7172778761068
 20
232.0680566620457
 30
0.0
 10
968.6111040157303
 20
231.8485613962782
 30
0.0
 10
968.3791179799863
 20
231.4241441314224
 30
0.0
 10
968.2532027505713
 20
231.2186288912447
 30
0.0
 10
967.8463749902498
 20
230.6217907656733
 30
0.0
 10
967.5366679663019
 20
230.2499766120907
 30
0.0
 10
966.8370538880397
 20
229.5612363505761
 30
0.0
 10
966.4584568516469
 20
229.2555074575401
 30
0.0
 10
965.8497488445798
 20
228.8535862948267
 30
0.0
 10
965.6399554171315
 20
228.7290902371507
 30
0.0
 10
965.2062603515636
 20
228.4995577958895
 30
0.0
 10
964.9815404960394
 20
228.3943141490752
 30
0.0
 10
964.300435834863
 20
228.1149508842113
 30
0.0
 10
963.8330436238311
 20
227.9743122084357
 30
0.0
 10
962.8718161942517
 20
227.7838044637666
 30
0.0
 10
962.3756548307193
 20
227.7345381630326
 30
0.0
 10
961.8799275536016
 20
227.7345381630326
 30
0.0
  0
LINE
  5
CA60
330
1F
100
AcDbEntity
  8
0
  6
Continuous
 62
     7
370
    15
100
AcDbLine
 10
947.3799282539447
 20
222.4149646265544
 30
0.0
 11
947.3799282539447
 21
206.3143352773152
 31
0.0
  0
SPLINE
  5
CA61
330
1F
100
AcDbEntity
  8
0
  6
Continuous
 62
     7
370
    15
100
AcDbSpline
210
0.0
220
0.0
230
1.0
 70
    24
 71
     3
 72
    12
 73
     8
 74
     0
 42
0.0000000001
 43
0.0000000001
 40
0.0
 40
0.0
 40
0.0
 40
0.0
 40
0.2320476974749
 40
0.4634264796233604
 40
0.707440393338851
 40
0.9654509171442398
 40
0.9999999999999998
 40
0.9999999999999998
 40
0.9999999999999998
 40
0.9999999999999998
 10
921.3799276010876
 20
221.8646501371807
 30
0.0
 10
921.3265283706558
 20
221.8646501371807
 30
0.0
 10
921.2198838417814
 20
221.8646501371807
 30
0.0
 10
921.0743746202545
 20
221.8646501371807
 30
0.0
 10
920.9597447886052
 20
221.8646501371807
 30
0.0
 10
920.8979012052926
 20
221.8646501371807
 30
0.0
 10
920.8915462884878
 20
221.8646501371807
 30
0.0
 10
920.8907958207463
 20
221.8646501371807
 30
0.0
  0
LINE
  5
CA62
330
1F
100
AcDbEntity
  8
0
  6
Continuous
 62
     7
370
    15
100
AcDbLine
 10
920.3799275536015
 20
222.3646501572914
 30
0.0
 11
920.8799275773388
 21
221.8646501371807
 31
0.0
  0
SPLINE
  5
CA63
330
1F
100
AcDbEntity
  8
0
  6
Continuous
 62
     7
370
    15
100
AcDbSpline
210
0.0
220
0.0
230
1.0
 70
     8
 71
     3
 72
    14
 73
    10
 74
     0
 42
0.0000000001
 43
0.0000000001
 40
0.0
 40
0.0
 40
0.0
 40
0.0
 40
0.25
 40
0.25
 40
0.5
 40
0.5
 40
0.75
 40
0.75
 40
1.0
 40
1.0
 40
1.0
 40
1.0
 10
920.3799275536015
 20
222.3646501375559
 30
0.0
 10
920.3799275536015
 20
222.3680275748278
 30
0.0
 10
920.4061610037397
 20
222.3754644690632
 30
0.0
 10
920.5061009931435
 20
222.3904574609339
 30
0.0
 10
920.5805787630774
 20
222.397706669755
 30
0.0
 10
920.7646062738525
 20
222.4068766434595
 30
0.0
 10
920.8760516918065
 20
222.40891821901
 30
0.0
 10
921.1166543539341
 20
222.4112577922582
 30
0.0
 10
921.2478308445517
 20
222.4119876229101
 30
0.0
 10
921.3799235973743
 20
222.4149645138052
 30
0.0
  0
LINE
  5
CA64
330
1F
100
AcDbEntity
  8
0
  6
Continuous
 62
     7
370
    15
100
AcDbLine
 10
921.3799276010876
 20
221.8646501371807
 30
0.0
 11
921.3799256220271
 21
222.4149645683467
 31
0.0
  0
SPLINE
  5
CA65
330
1F
100
AcDbEntity
  8
0
  6
Continuous
 62
     7
370
    15
100
AcDbSpline
210
0.0
220
0.0
230
1.0
 70
    24
 71
     3
 72
    22
 73
    18
 74
     0
 42
0.0000000001
 43
0.0000000001
 40
0.0
 40
0.0
 40
0.0
 40
0.0
 40
0.056451882399587
 40
0.112901577106129
 40
0.2233340090871876
 40
0.2784028253276853
 40
0.3334656233454784
 40
0.3885282524192355
 40
0.4988734421250192
 40
0.5539313552729311
 40
0.6089889921773485
 40
0.664048593889877
 40
0.7743966418414714
 40
0.8294514588836655
 40
0.884522298991027
 40
0.9395802088264703
 40
1.0
 40
1.0
 40
1.0
 40
1.0
 10
921.3799276010876
 20
206.8646500613652
 30
0.0
 10
921.3668410051997
 20
206.8646500613652
 30
0.0
 10
921.340668320572
 20
206.8646500613652
 30
0.0
 10
921.289181815554
 20
206.8646500613652
 30
0.0
 10
921.2389430878159
 20
206.8646500613652
 30
0.0
 10
921.1910885770548
 20
206.8646500613652
 30
0.0
 10
921.1563962617033
 20
206.8646500613652
 30
0.0
 10
921.111914578597
 20
206.8646500613652
 30
0.0
 10
921.0703825128922
 20
206.8646500613652
 30
0.0
 10
921.0325234304091
 20
206.8646500613652
 30
0.0
 10
921.006078554698
 20
206.8646500613652
 30
0.0
 10
920.9735545149001
 20
206.8646500613652
 30
0.0
 10
920.9454493439601
 20
206.8646500613652
 30
0.0
 10
920.9223707635473
 20
206.8646500613652
 30
0.0
 10
920.9079317210997
 20
206.8646500613652
 30
0.0
 10
920.8952860706441
 20
206.8646500613652
 30
0.0
 10
920.8906752140935
 20
206.8646500613652
 30
0.0
 10
920.8882627397587
 20
206.8646500613652
 30
0.0
  0
LINE
  5
CA66
330
1F
100
AcDbEntity
  8
0
  6
Continuous
 62
     7
370
    15
100
AcDbLine
 10
921.3799276010876
 20
206.8646500613652
 30
0.0
 11
921.3799276010876
 21
206.3143352773152
 31
0.0
  0
SPLINE
  5
CA67
330
1F
100
AcDbEntity
  8
0
  6
Continuous
 62
     7
370
    15
100
AcDbSpline
210
0.0
220
0.0
230
1.0
 70
     8
 71
     3
 72
    14
 73
    10
 74
     0
 42
0.0000000001
 43
0.0000000001
 40
0.0
 40
0.0
 40
0.0
 40
0.0
 40
0.25
 40
0.25
 40
0.5
 40
0.5
 40
0.75
 40
0.75
 40
1.0
 40
1.0
 40
1.0
 40
1.0
 10
921.3799275536015
 20
206.3143356721471
 30
0.0
 10
921.2478129982049
 20
206.3173545355835
 30
0.0
 10
921.1177420697753
 20
206.3179814765657
 30
0.0
 10
920.8760002690906
 20
206.3202808886887
 30
0.0
 10
920.7649297082619
 20
206.3223479056291
 30
0.0
 10
920.5806935528084
 20
206.331623225413
 30
0.0
 10
920.506138428697
 20
206.3389383191895
 30
0.0
 10
920.406371417039
 20
206.353881063033
 30
0.0
 10
920.3799255050871
 20
206.3612687602685
 30
0.0
 10
920.3799275537225
 20
206.364650536536
 30
0.0
  0
LINE
  5
CA68
330
1F
100
AcDbEntity
  8
0
  6
Continuous
 62
     7
370
    15
100
AcDbLine
 10
920.3798306029613
 20
206.3645531218611
 30
0.0
 11
920.8799275773388
 21
206.8646500613652
 31
0.0
  0
SPLINE
  5
CA69
330
1F
100
AcDbEntity
  8
0
  6
Continuous
 62
     7
370
    15
100
AcDbSpline
210
0.0
220
0.0
230
1.0
 70
    24
 71
     3
 72
     8
 73
     4
 74
     0
 42
0.0000000001
 43
0.0000000001
 40
0.0
 40
0.0
 40
0.0
 40
0.0
 40
0.9999999999999998
 40
0.9999999999999998
 40
0.9999999999999998
 40
0.9999999999999998
 10
920.3799275536015
 20
276.9852222377672
 30
0.0
 10
920.3799275536015
 20
263.7387741920274
 30
0.0
 10
920.3799275536015
 20
243.9806686975712
 30
0.0
 10
920.3799275536015
 20
222.3646501375559
 30
0.0
  0
SPLINE
  5
CA6A
330
1F
100
AcDbEntity
  8
0
  6
Continuous
 62
     7
370
    15
100
AcDbSpline
210
0.0
220
0.0
230
1.0
 70
     8
 71
     3
 72
    10
 73
     6
 74
     0
 42
0.0000000001
 43
0.0000000001
 40
0.0
 40
0.0
 40
0.0
 40
0.0
 40
0.5
 40
0.5
 40
1.0
 40
1.0
 40
1.0
 40
1.0
 10
920.6799275536015
 20
277.7927555938124
 30
0.0
 10
920.5962763890699
 20
277.6700902891732
 30
0.0
 10
920.5232709615527
 20
277.5384782421872
 30
0.0
 10
920.4141083186918
 20
277.2605775339323
 30
0.0
 10
920.3799275536015
 20
277.1165043225739
 30
0.0
 10
920.3799275536015
 20
276.9852222377677
 30
0.0
  0
SPLINE
  5
CA6B
330
1F
100
AcDbEntity
  8
0
  6
Continuous
 62
     7
370
    15
100
AcDbSpline
210
0.0
220
0.0
230
1.0
 70
     8
 71
     3
 72
    10
 73
     6
 74
     0
 42
0.0000000001
 43
0.0000000001
 40
0.0
 40
0.0
 40
0.0
 40
0.0
 40
0.5
 40
0.5
 40
1.0
 40
1.0
 40
1.0
 40
1.0
 10
921.3799275536015
 20
278.0423192381443
 30
0.0
 10
921.2494167022683
 20
278.0423192381443
 30
0.0
 10
921.1214090010393
 20
278.0201720761914
 30
0.0
 10
920.8818880872108
 20
277.9347213957456
 30
0.0
 10
920.7727520943425
 20
277.8721921976825
 30
0.0
 10
920.6799275536015
 20
277.7927555938124
 30
0.0
  0
SPLINE
  5
CA6C
330
1F
100
AcDbEntity
  8
0
  6
Continuous
 62
     7
370
    15
100
AcDbSpline
210
0.0
220
0.0
230
1.0
 70
    24
 71
     3
 72
     8
 73
     4
 74
     0
 42
0.0000000001
 43
0.0000000001
 40
0.0
 40
0.0
 40
0.0
 40
0.0
 40
1.0
 40
1.0
 40
1.0
 40
1.0
 10
920.3799275536015
 20
206.3644562362727
 30
0.0
 10
920.3799275536015
 20
184.7485104590093
 30
0.0
 10
920.3799275536015
 20
164.990484808061
 30
0.0
 10
920.3799275536015
 20
151.7440780375344
 30
0.0
  0
SPLINE
  5
CA6D
330
1F
100
AcDbEntity
  8
0
  6
Continuous
 62
     7
370
    15
100
AcDbSpline
210
0.0
220
0.0
230
1.0
 70
     8
 71
     3
 72
    10
 73
     6
 74
     0
 42
0.0000000001
 43
0.0000000001
 40
0.0
 40
0.0
 40
0.0
 40
0.0
 40
0.5
 40
0.5
 40
1.0
 40
1.0
 40
1.0
 40
1.0
 10
920.6799275536015
 20
150.9365446812986
 30
0.0
 10
920.772756805109
 20
150.8571040460883
 30
0.0
 10
920.8815914446653
 20
150.7947233931512
 30
0.0
 10
921.1211195225443
 20
150.7091928822554
 30
0.0
 10
921.2494074139923
 20
150.6869810369668
 30
0.0
 10
921.3799275536015
 20
150.6869810369668
 30
0.0
  0
SPLINE
  5
CA6E
330
1F
100
AcDbEntity
  8
0
  6
Continuous
 62
     7
370
    15
100
AcDbSpline
210
0.0
220
0.0
230
1.0
 70
     8
 71
     3
 72
    10
 73
     6
 74
     0
 42
0.0000000001
 43
0.0000000001
 40
0.0
 40
0.0
 40
0.0
 40
0.0
 40
0.5
 40
0.5
 40
1.0
 40
1.0
 40
1.0
 40
1.0
 10
920.3799275536015
 20
151.7440780373851
 30
0.0
 10
920.3799275535944
 20
151.612770683339
 30
0.0
 10
920.4140238282402
 20
151.4692425525099
 30
0.0
 10
920.5224644548573
 20
151.1925729673428
 30
0.0
 10
920.5962244810976
 20
151.0592861033148
 30
0.0
 10
920.6799275536015
 20
150.9365446812986
 30
0.0
  0
LINE
  5
CA6F
330
1F
100
AcDbEntity
  8
0
  6
Continuous
 62
     7
370
    15
100
AcDbLine
 10
947.3799282539447
 20
221.8646501371807
 30
0.0
 11
921.3799276010876
 21
221.8646501371807
 31
0.0
  0
LINE
  5
CA70
330
1F
100
AcDbEntity
  8
0
  6
Continuous
 62
     7
370
    15
100
AcDbLine
 10
921.3799276010876
 20
206.8646500613652
 30
0.0
 11
947.3799282539447
 21
206.8646500613652
 31
0.0
  0
ARC
  5
CA71
330
1F
100
AcDbEntity
  8
0
  6
Continuous
 62
     7
370
    15
100
AcDbCircle
 10
961.8799278367122
 20
234.6095733134768
 30
0.0
 40
7.502712336475048
100
AcDbArc
 50
1.541127545379894
 51
178.4588724546201
  0
ARC
  5
CA72
330
1F
100
AcDbEntity
  8
0
  6
Continuous
 62
     7
370
    15
100
AcDbCircle
 10
998.5276302976341
 20
194.0250966112958
 30
0.0
 40
7.353079920234271
100
AcDbArc
 50
268.8490236828345
 51
359.1650417625261
  0
ARC
  5
CA73
330
1F
100
AcDbEntity
  8
0
  6
Continuous
 62
     7
370
    15
100
AcDbCircle
 10
998.2574945197095
 20
194.0512544030715
 30
0.0
 40
7.378769966087648
100
AcDbArc
 50
181.0351920473344
 51
270.9507425073044
  0
LWPOLYLINE
  5
CA74
330
1F
100
AcDbEntity
  8
0
  6
Continuous
 62
     7
370
    15
100
AcDbPolyline
 90
       31
 70
   128
 43
0.0
 10
998.3799291629155
 20
189.9576491471491
 10
999.2323649901708
 20
190.0441913660727
 10
1000.047547914441
 20
190.3000368531905
 10
1000.789849259313
 20
190.7139985617361
 10
1001.426821746286
 20
191.2679902073107
 10
1001.93063000625
 20
191.9377974029742
 10
1002.279257573541
 20
192.6941468175612
 10
1002.457468010839
 20
193.5039820876084
 10
1002.457468010839
 20
194.33190922999
 10
1002.279257573541
 20
195.1417445000372
 10
1001.93063000625
 20
195.8980939146242
 10
1001.426821746286
 20
196.5679011102877
 10
1000.789849259313
 20
197.1218927558623
 10
1000.047547914441
 20
197.5358563270531
 10
999.2323649901708
 20
197.7916999515257
 10
998.3799291629155
 20
197.8782421704493
 10
997.5274933356603
 20
197.7916999515257
 10
996.7123104113897
 20
197.5358563270531
 10
995.9700090665181
 20
197.1218927558623
 10
995.3330365795453
 20
196.5679011102877
 10
994.8292208690007
 20
195.8980939146242
 10
994.4805933017095
 20
195.1417445000372
 10
994.3023903149923
 20
194.33190922999
 10
994.3023903149923
 20
193.5039820876084
 10
994.4805933017095
 20
192.6941468175612
 10
994.8292208690007
 20
191.9377974029742
 10
995.3330365795453
 20
191.2679902073107
 10
995.9700090665181
 20
190.7139985617361
 10
996.7123104113897
 20
190.3000368531905
 10
997.5274933356603
 20
190.0441913660727
 10
998.3799291629155
 20
189.9576491471491
  0
LWPOLYLINE
  5
CA75
330
1F
100
AcDbEntity
  8
0
  6
Continuous
 62
     7
370
    15
100
AcDbPolyline
 90
       31
 70
   128
 43
0.0
 10
961.879925974067
 20
230.8510585483275
 10
962.7323655266126
 20
230.9376007672511
 10
963.5475484508832
 20
231.1934443917237
 10
964.2898460704644
 20
231.6074079629145
 10
964.9268222827275
 20
232.1613996084891
 10
965.4306305426915
 20
232.8312068041526
 10
965.7792581099828
 20
233.5875562187396
 10
965.9574685472806
 20
234.3973914887868
 10
965.9574685472806
 20
235.2253186311684
 10
965.7792581099828
 20
236.0351529698931
 10
965.4306305426915
 20
236.7915023844801
 10
964.9268222827275
 20
237.4613105114661
 10
964.2898460704644
 20
238.0153021570407
 10
963.5475484508832
 20
238.4292657282315
 10
962.7323655266126
 20
238.6851093527041
 10
961.879925974067
 20
238.7716497089825
 10
961.0274901468118
 20
238.6851093527041
 10
960.2123072225412
 20
238.4292657282315
 10
959.4700096029599
 20
238.0153021570407
 10
958.8330333906968
 20
237.4613105114661
 10
958.3292251307328
 20
236.7915023844801
 10
957.9805975634416
 20
236.0351529698931
 10
957.8023871261438
 20
235.2253186311684
 10
957.8023871261438
 20
234.3973914887868
 10
957.9805975634416
 20
233.5875562187396
 10
958.3292251307328
 20
232.8312068041526
 10
958.8330333906968
 20
232.1613996084891
 10
959.4700096029599
 20
231.6074079629145
 10
960.2123072225412
 20
231.1934443917237
 10
961.0274901468118
 20
230.9376007672511
 10
961.879925974067
 20
230.8510585483275
  0
LINE
  5
CA87
330
1F
100
AcDbEntity
  8
0
  6
Continuous
 62
     7
370
    15
100
AcDbLine
 10
920.8799275773388
 20
206.8646500613652
 30
0.0
 11
920.8799275773388
 21
221.8646501371807
 31
0.0
  0
LINE
  5
CA88
330
1F
100
AcDbEntity
  8
0
  6
Continuous
 62
     7
370
    15
100
AcDbLine
 10
920.3799275536015
 20
222.3646501572914
 30
0.0
 11
920.3799275536015
 21
206.3646499794088
 31
0.0
  0
ARC
  5
CA9B
330
1F
100
AcDbEntity
  8
0
  6
Continuous
 62
     7
370
    15
100
AcDbCircle
 10
961.8417692413528
 20
231.5690666779895
 30
0.0
 40
1.456151274053592
100
AcDbArc
 50
88.49845956805785
 51
199.0289774327771
  0
ARC
  5
CA9C
330
1F
100
AcDbEntity
  8
0
  6
Continuous
 62
     7
370
    15
100
AcDbCircle
 10
961.918078703262
 20
231.5690610874596
 30
0.0
 40
1.456156757762239
100
AcDbArc
 50
340.9713296717469
 51
91.50137719440827
  0
SPLINE
  5
CA9D
330
1F
100
AcDbEntity
  8
0
  6
Continuous
 62
     7
370
    15
100
AcDbSpline
210
0.0
220
0.0
230
1.0
 70
     8
 71
     3
 72
    12
 73
     8
 74
     0
 42
0.0000000001
 43
0.0000000001
 40
0.0
 40
0.0
 40
0.0
 40
0.0
 40
0.214705662273149
 40
0.4294119794354669
 40
0.6441532109470341
 40
0.8589160147446584
 40
1.0
 40
1.0
 40
1.0
 40
1.0
 10
961.879925974067
 20
232.8646245207749
 30
0.0
 10
961.7113726159262
 20
232.8487072926989
 30
0.0
 10
961.3742653855275
 20
232.8168727879966
 30
0.0
 10
960.9239474072916
 20
232.568617192516
 30
0.0
 10
960.5879439495865
 20
232.2023016256014
 30
0.0
 10
960.3974419577316
 20
231.7969882787717
 30
0.0
 10
960.3986297857927
 20
231.5263612897544
 30
0.0
 10
960.3991007286866
 20
231.4190647360049
 30
0.0
  0
SPLINE
  5
CA9E
330
1F
100
AcDbEntity
  8
0
  6
Continuous
 62
     7
370
    15
100
AcDbSpline
210
0.0
220
0.0
230
1.0
 70
     8
 71
     3
 72
    13
 73
     9
 74
     0
 42
0.0000000001
 43
0.0000000001
 40
0.0
 40
0.0
 40
0.0
 40
0.0
 40
0.0736415200776261
 40
0.2883274261095206
 40
0.5030337015804644
 40
0.7177882760776127
 40
0.9325445463740821
 40
1.0
 40
1.0
 40
1.0
 40
1.0
 10
963.3607512194474
 20
231.4210214447342
 30
0.0
 10
963.365968052291
 20
231.4766835542972
 30
0.0
 10
963.3863934316789
 20
231.6946164916565
 30
0.0
 10
963.2470606671398
 20
232.0660629510394
 30
0.0
 10
962.9572213006571
 20
232.4676110689632
 30
0.0
 10
962.534811875283
 20
232.7496413832301
 30
0.0
 10
962.1533172993844
 20
232.8560680653563
 30
0.0
 10
961.9326668003465
 20
232.8629738666136
 30
0.0
 10
961.879925974067
 20
232.8646245207749
 30
0.0
  0
LINE
  5
CA9F
330
1F
100
AcDbEntity
  8
0
  6
Continuous
 62
     7
370
    15
100
AcDbLine
 10
932.3799276578982
 20
271.4466905947886
 30
0.0
 11
932.3799276578982
 21
277.1639643963538
 31
0.0
  0
LINE
  5
CAA0
330
1F
100
AcDbEntity
  8
0
  6
Continuous
 62
     7
370
    15
100
AcDbLine
 10
932.3799276578982
 20
277.1639643963538
 30
0.0
 11
946.3799280900319
 21
277.1639643963538
 31
0.0
  0
LINE
  5
CAA1
330
1F
100
AcDbEntity
  8
0
  6
Continuous
 62
     7
370
    15
100
AcDbLine
 10
946.3799280900319
 20
277.1639643963538
 30
0.0
 11
946.3799280900319
 21
271.4466905947886
 31
0.0
  0
LINE
  5
CAA2
330
1F
100
AcDbEntity
  8
0
  6
Continuous
 62
     7
370
    15
100
AcDbLine
 10
947.3799282539447
 20
278.6968803759776
 30
0.0
 11
946.3799280900319
 21
277.1639643963538
 31
0.0
  0
LINE
  5
CAA3
330
1F
100
AcDbEntity
  8
0
  6
Continuous
 62
     7
370
    15
100
AcDbLine
 10
947.3799282539447
 20
273.6096425708495
 30
0.0
 11
947.3799282539447
 21
278.6968803759776
 31
0.0
  0
LINE
  5
CAA4
330
1F
100
AcDbEntity
  8
0
  6
Continuous
 62
     7
370
    15
100
AcDbLine
 10
926.3799276057442
 20
282.1139662321769
 30
0.0
 11
926.3799276057442
 21
292.2139621134959
 31
0.0
  0
LINE
  5
CAA5
330
1F
100
AcDbEntity
  8
0
  6
Continuous
 62
     7
370
    15
100
AcDbLine
 10
930.2485568303426
 20
292.2139621134959
 30
0.0
 11
926.3799276057442
 21
292.2139621134959
 31
0.0
  0
LINE
  5
CAA6
330
1F
100
AcDbEntity
  8
0
  6
Continuous
 62
     7
370
    15
100
AcDbLine
 10
930.2485568303426
 20
292.2139621134959
 30
0.0
 11
931.3799274939855
 21
291.8239614721499
 31
0.0
  0
LINE
  5
CAA7
330
1F
100
AcDbEntity
  8
0
  6
Continuous
 62
     7
370
    15
100
AcDbLine
 10
932.3799276578982
 20
292.3035553451739
 30
0.0
 11
931.3799274939855
 21
291.8239614721499
 31
0.0
  0
LINE
  5
CAA8
330
1F
100
AcDbEntity
  8
0
  6
Continuous
 62
     7
370
    15
100
AcDbLine
 10
932.3799276578982
 20
292.3035553451739
 30
0.0
 11
931.3799274939855
 21
292.6935559865199
 31
0.0
  0
LINE
  5
CAA9
330
1F
100
AcDbEntity
  8
0
  6
Continuous
 62
     7
370
    15
100
AcDbLine
 10
931.3799274939855
 20
296.66396293604
 30
0.0
 11
931.3799274939855
 21
292.6935559865199
 31
0.0
  0
LINE
  5
CAAA
330
1F
100
AcDbEntity
  8
0
  6
Continuous
 62
     7
370
    15
100
AcDbLine
 10
931.3799274939855
 20
296.66396293604
 30
0.0
 11
932.3799276578982
 21
297.163963949319
 31
0.0
  0
LINE
  5
CAAB
330
1F
100
AcDbEntity
  8
0
  6
Continuous
 62
     7
370
    15
100
AcDbLine
 10
946.3799280900319
 20
297.163963949319
 30
0.0
 11
932.3799276578982
 21
297.163963949319
 31
0.0
  0
LINE
  5
CAAC
330
1F
100
AcDbEntity
  8
0
  6
Continuous
 62
     7
370
    15
100
AcDbLine
 10
946.3799280900319
 20
297.163963949319
 30
0.0
 11
947.3799282539447
 21
295.6310516949855
 31
0.0
  0
LINE
  5
CAAD
330
1F
100
AcDbEntity
  8
0
  6
Continuous
 62
     7
370
    15
100
AcDbLine
 10
947.3799282539447
 20
278.6968803759776
 30
0.0
 11
947.3799282539447
 21
295.6310516949855
 31
0.0
  0
LINE
  5
CAAE
330
1F
100
AcDbEntity
  8
0
  6
Continuous
 62
     7
370
    15
100
AcDbLine
 10
932.3799276578982
 20
277.1639643963538
 30
0.0
 11
931.3799274939855
 21
277.6639654096328
 31
0.0
  0
LINE
  5
CAAF
330
1F
100
AcDbEntity
  8
0
  6
Continuous
 62
     7
370
    15
100
AcDbLine
 10
931.3799274939855
 20
281.6343723591529
 30
0.0
 11
931.3799274939855
 21
277.6639654096328
 31
0.0
  0
LINE
  5
CAB0
330
1F
100
AcDbEntity
  8
0
  6
Continuous
 62
     7
370
    15
100
AcDbLine
 10
931.3799274939855
 20
281.6343723591529
 30
0.0
 11
932.3799276578982
 21
282.0243730004989
 31
0.0
  0
LINE
  5
CAB1
330
1F
100
AcDbEntity
  8
0
  6
Continuous
 62
     7
370
    15
100
AcDbLine
 10
932.3799276578982
 20
282.0243730004989
 30
0.0
 11
931.3799274939855
 21
282.5039631482325
 31
0.0
  0
LINE
  5
CAB2
330
1F
100
AcDbEntity
  8
0
  6
Continuous
 62
     7
370
    15
100
AcDbLine
 10
930.2485568303426
 20
282.1139662321769
 30
0.0
 11
931.3799274939855
 21
282.5039631482325
 31
0.0
  0
LINE
  5
CAB3
330
1F
100
AcDbEntity
  8
0
  6
Continuous
 62
     7
370
    15
100
AcDbLine
 10
926.3799276057442
 20
282.1139662321769
 30
0.0
 11
930.2485568303426
 21
282.1139662321769
 31
0.0
  0
LINE
  5
CAB4
330
1F
100
AcDbEntity
  8
0
  6
Continuous
 62
     7
370
    15
100
AcDbLine
 10
931.3799274939855
 20
277.6639654096328
 30
0.0
 11
931.3799274939855
 21
272.1643528696261
 31
0.0
  0
LINE
  5
CAB5
330
1F
100
AcDbEntity
  8
0
  6
Continuous
 62
     7
370
    15
100
AcDbLine
 10
948.3799282539447
 20
150.0619358178339
 30
0.0
 11
948.3799282539447
 21
155.1196581479273
 31
0.0
  0
LINE
  5
CAB6
330
1F
100
AcDbEntity
  8
0
  6
Continuous
 62
     7
370
    15
100
AcDbLine
 10
946.3799280900319
 20
151.5948480721674
 30
0.0
 11
948.3799282539447
 21
150.0619358178339
 31
0.0
  0
LINE
  5
CAB7
330
1F
100
AcDbEntity
  8
0
  6
Continuous
 62
     7
370
    15
100
AcDbLine
 10
946.3799280900319
 20
157.2826138492785
 30
0.0
 11
946.3799280900319
 21
151.5948480721674
 31
0.0
  0
LINE
  5
CAB8
330
1F
100
AcDbEntity
  8
0
  6
Continuous
 62
     7
370
    15
100
AcDbLine
 10
946.3799280900319
 20
151.5948480721674
 30
0.0
 11
932.3799276578982
 21
151.5948480721674
 31
0.0
  0
LINE
  5
CAB9
330
1F
100
AcDbEntity
  8
0
  6
Continuous
 62
     7
370
    15
100
AcDbLine
 10
932.3799276578982
 20
151.5948480721674
 30
0.0
 11
932.3799276578982
 21
157.2826138492785
 31
0.0
  0
LINE
  5
CABA
330
1F
100
AcDbEntity
  8
0
  6
Continuous
 62
     7
370
    15
100
AcDbLine
 10
931.3799274939855
 20
151.0948470588885
 30
0.0
 11
932.3799276578982
 21
151.5948480721674
 31
0.0
  0
LINE
  5
CABB
330
1F
100
AcDbEntity
  8
0
  6
Continuous
 62
     7
370
    15
100
AcDbLine
 10
931.3799274939855
 20
156.5649441238604
 30
0.0
 11
931.3799274939855
 21
151.0948470588885
 31
0.0
  0
LINE
  5
CABC
330
1F
100
AcDbEntity
  8
0
  6
Continuous
 62
     7
370
    15
100
AcDbLine
 10
926.3799276057442
 20
136.544846629735
 30
0.0
 11
926.3799276057442
 21
146.6448462363444
 31
0.0
  0
LINE
  5
CABD
330
1F
100
AcDbEntity
  8
0
  6
Continuous
 62
     7
370
    15
100
AcDbLine
 10
930.2485568303426
 20
146.6448462363444
 30
0.0
 11
926.3799276057442
 21
146.6448462363444
 31
0.0
  0
LINE
  5
CABE
330
1F
100
AcDbEntity
  8
0
  6
Continuous
 62
     7
370
    15
100
AcDbLine
 10
930.2485568303426
 20
146.6448462363444
 30
0.0
 11
931.3799274939855
 21
146.2548455949984
 31
0.0
  0
LINE
  5
CABF
330
1F
100
AcDbEntity
  8
0
  6
Continuous
 62
     7
370
    15
100
AcDbLine
 10
932.3799276578982
 20
146.7344394680224
 30
0.0
 11
931.3799274939855
 21
146.2548455949984
 31
0.0
  0
LINE
  5
CAC0
330
1F
100
AcDbEntity
  8
0
  6
Continuous
 62
     7
370
    15
100
AcDbLine
 10
932.3799276578982
 20
146.7344394680224
 30
0.0
 11
931.3799274939855
 21
147.1244401093684
 31
0.0
  0
LINE
  5
CAC1
330
1F
100
AcDbEntity
  8
0
  6
Continuous
 62
     7
370
    15
100
AcDbLine
 10
931.3799274939855
 20
151.0948470588885
 30
0.0
 11
931.3799274939855
 21
147.1244401093684
 31
0.0
  0
LINE
  5
CAC2
330
1F
100
AcDbEntity
  8
0
  6
Continuous
 62
     7
370
    15
100
AcDbLine
 10
948.3799282539447
 20
133.1277644988261
 30
0.0
 11
948.3799282539447
 21
150.0619358178339
 31
0.0
  0
LINE
  5
CAC3
330
1F
100
AcDbEntity
  8
0
  6
Continuous
 62
     7
370
    15
100
AcDbLine
 10
948.3799282539447
 20
133.1277644988261
 30
0.0
 11
946.3799280900319
 21
131.594844793912
 31
0.0
  0
LINE
  5
CAC4
330
1F
100
AcDbEntity
  8
0
  6
Continuous
 62
     7
370
    15
100
AcDbLine
 10
932.3799276578982
 20
131.594844793912
 30
0.0
 11
946.3799280900319
 21
131.594844793912
 31
0.0
  0
LINE
  5
CAC5
330
1F
100
AcDbEntity
  8
0
  6
Continuous
 62
     7
370
    15
100
AcDbLine
 10
932.3799276578982
 20
131.594844793912
 30
0.0
 11
931.3799274939855
 21
132.0948458071909
 31
0.0
  0
LINE
  5
CAC6
330
1F
100
AcDbEntity
  8
0
  6
Continuous
 62
     7
370
    15
100
AcDbLine
 10
931.3799274939855
 20
136.0652527567111
 30
0.0
 11
931.3799274939855
 21
132.0948458071909
 31
0.0
  0
LINE
  5
CAC7
330
1F
100
AcDbEntity
  8
0
  6
Continuous
 62
     7
370
    15
100
AcDbLine
 10
931.3799274939855
 20
136.0652527567111
 30
0.0
 11
932.3799276578982
 21
136.455253398057
 31
0.0
  0
LINE
  5
CAC8
330
1F
100
AcDbEntity
  8
0
  6
Continuous
 62
     7
370
    15
100
AcDbLine
 10
932.3799276578982
 20
136.455253398057
 30
0.0
 11
931.3799274939855
 21
136.934847271081
 31
0.0
  0
LINE
  5
CAC9
330
1F
100
AcDbEntity
  8
0
  6
Continuous
 62
     7
370
    15
100
AcDbLine
 10
930.2485568303426
 20
136.544846629735
 30
0.0
 11
931.3799274939855
 21
136.934847271081
 31
0.0
  0
LINE
  5
CACA
330
1F
100
AcDbEntity
  8
0
  6
Continuous
 62
     7
370
    15
100
AcDbLine
 10
926.3799276057442
 20
136.544846629735
 30
0.0
 11
930.2485568303426
 21
136.544846629735
 31
0.0
  0
LINE
  5
CACB
330
1F
100
AcDbEntity
  8
0
  6
Continuous
 62
     7
370
    15
100
AcDbLine
 10
931.3799274939855
 20
282.5039631482325
 30
0.0
 11
931.3799274939855
 21
281.6343723591529
 31
0.0
  0
LINE
  5
CACC
330
1F
100
AcDbEntity
  8
0
  6
Continuous
 62
     7
370
    15
100
AcDbLine
 10
931.3799274939855
 20
147.1244401093684
 30
0.0
 11
931.3799274939855
 21
146.2548455949984
 31
0.0
  0
LINE
  5
CACD
330
1F
100
AcDbEntity
  8
0
  6
Continuous
 62
     7
370
    15
100
AcDbLine
 10
930.2485568303426
 20
282.1139662321769
 30
0.0
 11
930.2485568303426
 21
278.0423207935057
 31
0.0
  0
LINE
  5
CACE
330
1F
100
AcDbEntity
  8
0
  6
Continuous
 62
     7
370
    15
100
AcDbLine
 10
926.3799276057442
 20
278.0423207935057
 30
0.0
 11
926.3799276057442
 21
282.1139662321769
 31
0.0
  0
LINE
  5
CACF
330
1F
100
AcDbEntity
  8
0
  6
Continuous
 62
     7
370
    15
100
AcDbLine
 10
930.2485568303426
 20
150.6869799252711
 30
0.0
 11
930.2485568303426
 21
146.6448462363444
 31
0.0
  0
LINE
  5
CAD0
330
1F
100
AcDbEntity
  8
0
  6
Continuous
 62
     7
370
    15
100
AcDbLine
 10
926.3799276057442
 20
146.6448462363444
 30
0.0
 11
926.3799276057442
 21
150.6869799252711
 31
0.0
  0
LINE
  5
CAD1
330
1F
100
AcDbEntity
  8
0
  6
Continuous
 62
     7
370
    15
100
AcDbLine
 10
918.3799274585952
 20
190.785216799017
 30
0.0
 11
920.3799275536015
 21
190.785216799017
 31
0.0
  0
LINE
  5
CAD2
330
1F
100
AcDbEntity
  8
0
  6
Continuous
 62
     7
370
    15
100
AcDbLine
 10
918.3799274585952
 20
237.9440839197598
 30
0.0
 11
918.3799274585952
 21
190.785216799017
 31
0.0
  0
LINE
  5
CAD3
330
1F
100
AcDbEntity
  8
0
  6
Continuous
 62
     7
370
    15
100
AcDbLine
 10
918.3799274585952
 20
237.9440839197598
 30
0.0
 11
920.3799275536015
 21
237.9440839197598
 31
0.0
  0
LINE
  5
CAD4
330
1F
100
AcDbEntity
  8
0
  6
Continuous
 62
     7
370
    15
100
AcDbLine
 10
931.3799274939855
 20
292.6935559865199
 30
0.0
 11
931.3799274939855
 21
291.8239614721499
 31
0.0
  0
LINE
  5
CAD5
330
1F
100
AcDbEntity
  8
0
  6
Continuous
 62
     7
370
    15
100
AcDbLine
 10
931.3799274939855
 20
136.934847271081
 30
0.0
 11
931.3799274939855
 21
136.0652527567111
 31
0.0
  0
SPLINE
  5
CAD6
330
1F
100
AcDbEntity
  8
0
  6
Continuous
 62
     7
370
    15
100
AcDbSpline
210
0.0
220
0.0
230
1.0
 70
    24
 71
     3
 72
    13
 73
     9
 74
     0
 42
0.0000000001
 43
0.0000000001
 40
0.0
 40
0.0
 40
0.0
 40
0.0
 40
0.1848142631249019
 40
0.3696200142995309
 40
0.5563977669744626
 40
0.7431929805741902
 40
0.9299707539180371
 40
1.0
 40
1.0
 40
1.0
 40
1.0
 10
920.3799275536015
 20
141.3440785165987
 30
0.0
 10
920.3799275536015
 20
140.6533787069601
 30
0.0
 10
920.3799275536015
 20
139.2720108990938
 30
0.0
 10
920.3799275536015
 20
137.6926818909152
 30
0.0
 10
920.3799275536015
 20
136.4776597426099
 30
0.0
 10
920.3799275536015
 20
135.7113877774848
 30
0.0
 10
920.3799275536015
 20
135.3535347513608
 30
0.0
 10
920.3799275536015
 20
135.4010366606368
 30
0.0
 10
920.3799275536015
 20
135.4139900561533
 30
0.0
  0
SPLINE
  5
CAD7
330
1F
100
AcDbEntity
  8
0
  6
Continuous
 62
     7
370
    15
100
AcDbSpline
210
0.0
220
0.0
230
1.0
 70
     8
 71
     3
 72
    10
 73
     6
 74
     0
 42
0.0000000001
 43
0.0000000001
 40
0.0
 40
0.0
 40
0.0
 40
0.0
 40
0.5
 40
0.5
 40
1.0
 40
1.0
 40
1.0
 40
1.0
 10
920.6799275536015
 20
140.8365446812987
 30
0.0
 10
920.5962763890696
 20
140.8755588214064
 30
0.0
 10
920.5232709615527
 20
140.9341654408754
 30
0.0
 10
920.4141083186918
 20
141.1029035062695
 30
0.0
 10
920.3799275536015
 20
141.2127959525378
 30
0.0
 10
920.3799275536015
 20
141.344078037344
 30
0.0
  0
SPLINE
  5
CAD8
330
1F
100
AcDbEntity
  8
0
  6
Continuous
 62
     7
370
    15
100
AcDbSpline
210
0.0
220
0.0
230
1.0
 70
     8
 71
     3
 72
    10
 73
     6
 74
     0
 42
0.0000000001
 43
0.0000000001
 40
0.0
 40
0.0
 40
0.0
 40
0.0
 40
0.5
 40
0.5
 40
1.0
 40
1.0
 40
1.0
 40
1.0
 10
921.3799275536015
 20
140.586981036967
 30
0.0
 10
921.2494167022683
 20
140.586981036967
 30
0.0
 10
921.1214090010393
 20
140.6091281989198
 30
0.0
 10
920.8818880872108
 20
140.6945788793656
 30
0.0
 10
920.7727520943425
 20
140.7571080774287
 30
0.0
 10
920.6799275536015
 20
140.8365446812987
 30
0.0
  0
SPLINE
  5
CAD9
330
1F
100
AcDbEntity
  8
0
  6
Continuous
 62
     7
370
    15
100
AcDbSpline
210
0.0
220
0.0
230
1.0
 70
     8
 71
     3
 72
    10
 73
     6
 74
     0
 42
0.0000000001
 43
0.0000000001
 40
0.0
 40
0.0
 40
0.0
 40
0.0
 40
0.5
 40
0.5
 40
1.0
 40
1.0
 40
1.0
 40
1.0
 10
920.3799275536015
 20
287.3852222377673
 30
0.0
 10
920.3799275536015
 20
287.5165295918099
 30
0.0
 10
920.4140238282494
 20
287.6259614479831
 30
0.0
 10
920.5224644548652
 20
287.7941904065184
 30
0.0
 10
920.596224481102
 20
287.8537172443023
 30
0.0
 10
920.6799275536015
 20
287.8927555938126
 30
0.0
  0
SPLINE
  5
CADA
330
1F
100
AcDbEntity
  8
0
  6
Continuous
 62
     7
370
    15
100
AcDbSpline
210
0.0
220
0.0
230
1.0
 70
    24
 71
     3
 72
    13
 73
     9
 74
     0
 42
0.0000000001
 43
0.0000000001
 40
0.0
 40
0.0
 40
0.0
 40
0.0
 40
0.0700118571485085
 40
0.2568070185343993
 40
0.4435848028169226
 40
0.6303799477993849
 40
0.8151771352097226
 40
1.0
 40
1.0
 40
1.0
 40
1.0
 10
920.3799275536015
 20
293.3153218384944
 30
0.0
 10
920.3799275536015
 20
293.3282719400416
 30
0.0
 10
920.3799275536015
 20
293.3757735648171
 30
0.0
 10
920.3799275536015
 20
293.0179452288619
 30
0.0
 10
920.3799275536015
 20
292.2516739469037
 30
0.0
 10
920.3799275536015
 20
291.0366856298795
 30
0.0
 10
920.3799275536015
 20
289.4573426843212
 30
0.0
 10
920.3799275536015
 20
288.0759635010674
 30
0.0
 10
920.3799275536015
 20
287.3852259274684
 30
0.0
  0
SPLINE
  5
CADB
330
1F
100
AcDbEntity
  8
0
  6
Continuous
 62
     7
370
    15
100
AcDbSpline
210
0.0
220
0.0
230
1.0
 70
     8
 71
     3
 72
    10
 73
     6
 74
     0
 42
0.0000000001
 43
0.0000000001
 40
0.0
 40
0.0
 40
0.0
 40
0.0
 40
0.5
 40
0.5
 40
1.0
 40
1.0
 40
1.0
 40
1.0
 10
920.6799275536015
 20
287.8927555938126
 30
0.0
 10
920.772756805109
 20
287.9721962290227
 30
0.0
 10
920.8815914446653
 20
288.0345768819599
 30
0.0
 10
921.1211195225443
 20
288.1201073928556
 30
0.0
 10
921.2494074139923
 20
288.1423192381443
 30
0.0
 10
921.3799275536015
 20
288.1423192381443
 30
0.0
  0
LINE
  5
CADC
330
1F
100
AcDbEntity
  8
0
  6
Continuous
 62
     7
370
    15
100
AcDbLine
 10
920.6799275678394
 20
277.7927561458312
 30
0.0
 11
920.6799275678394
 21
287.8927520271502
 31
0.0
  0
LINE
  5
CADD
330
1F
100
AcDbEntity
  8
0
  6
Continuous
 62
     7
370
    15
100
AcDbLine
 10
920.6799275678394
 20
140.8365449663363
 30
0.0
 11
920.6799275678394
 21
150.9365445729456
 31
0.0
  0
LINE
  5
CADE
330
1F
100
AcDbEntity
  8
0
  6
Continuous
 62
     7
370
    15
100
AcDbLine
 10
920.3799275536015
 20
277.0713834818564
 30
0.0
 11
920.3799275536015
 21
287.3852259274684
 31
0.0
  0
LINE
  5
CADF
330
1F
100
AcDbEntity
  8
0
  6
Continuous
 62
     7
370
    15
100
AcDbLine
 10
920.3799275536015
 20
151.6579172369204
 30
0.0
 11
920.3799275536015
 21
141.3440785165987
 31
0.0
  0
LINE
  5
CAE0
330
1F
100
AcDbEntity
  8
0
  6
Continuous
 62
     7
370
    15
100
AcDbLine
 10
920.3799275536015
 20
251.4069943484031
 30
0.0
 11
918.3799274585952
 21
251.4069943484031
 31
0.0
  0
LINE
  5
CAE1
330
1F
100
AcDbEntity
  8
0
  6
Continuous
 62
     7
370
    15
100
AcDbLine
 10
918.3799274585952
 20
251.4069943484031
 30
0.0
 11
918.3799274585952
 21
237.9440839197598
 31
0.0
  0
LINE
  5
CAE2
330
1F
100
AcDbEntity
  8
0
  6
Continuous
 62
     7
370
    15
100
AcDbLine
 10
918.3799274585952
 20
177.3223063703738
 30
0.0
 11
920.3799275536015
 21
177.3223063703738
 31
0.0
  0
LINE
  5
CAE3
330
1F
100
AcDbEntity
  8
0
  6
Continuous
 62
     7
370
    15
100
AcDbLine
 10
918.3799274585952
 20
190.785216799017
 30
0.0
 11
918.3799274585952
 21
177.3223063703738
 31
0.0
  0
LINE
  5
CAE4
330
1F
100
AcDbEntity
  8
0
  6
Continuous
 62
     7
370
    15
100
AcDbLine
 10
918.3799274585952
 20
251.4069943484031
 30
0.0
 11
918.3799274585952
 21
251.8646499868594
 31
0.0
  0
LINE
  5
CAE5
330
1F
100
AcDbEntity
  8
0
  6
Continuous
 62
     7
370
    15
100
AcDbLine
 10
918.3799274585952
 20
176.8646507319174
 30
0.0
 11
918.3799274585952
 21
177.3223063703738
 31
0.0
  0
LINE
  5
CAE6
330
1F
100
AcDbEntity
  8
0
  6
Continuous
 62
     7
370
    15
100
AcDbLine
 10
920.3799275536015
 20
288.547360038396
 30
0.0
 11
920.3799275536015
 21
284.4391396995746
 31
0.0
  0
LINE
  5
CAE7
330
1F
100
AcDbEntity
  8
0
  6
Continuous
 62
     7
370
    15
100
AcDbLine
 10
920.3799275536015
 20
140.1819369550906
 30
0.0
 11
920.3799275536015
 21
144.290157293912
 31
0.0
  0
LINE
  5
CAE8
330
1F
100
AcDbEntity
  8
0
  6
Continuous
 62
     7
370
    15
100
AcDbLine
 10
920.3799275536015
 20
278.4289574977122
 30
0.0
 11
920.3799275536015
 21
277.0713834818564
 31
0.0
  0
LINE
  5
CAE9
330
1F
100
AcDbEntity
  8
0
  6
Continuous
 62
     7
370
    15
100
AcDbLine
 10
920.3799275536015
 20
151.6579172369204
 30
0.0
 11
920.3799275536015
 21
150.3003618475161
 31
0.0
  0
LINE
  5
CAEA
330
1F
100
AcDbEntity
  8
0
  6
Continuous
 62
     7
370
    15
100
AcDbLine
 10
1014.379924334939
 20
134.3646502848826
 30
0.0
 11
1014.379924334939
 21
294.3646467086039
 31
0.0
  0
LINE
  5
CAEB
330
1F
100
AcDbEntity
  8
0
  6
Continuous
 62
     7
370
    15
100
AcDbLine
 10
921.3799276010876
 20
294.3646467086039
 30
0.0
 11
921.3799276010876
 21
288.1423166748248
 31
0.0
  0
LINE
  5
CAEC
330
1F
100
AcDbEntity
  8
0
  6
Continuous
 62
     7
370
    15
100
AcDbLine
 10
921.3799276010876
 20
140.5869803186617
 30
0.0
 11
921.3799276010876
 21
134.3646502848826
 31
0.0
  0
SPLINE
  5
CAED
330
1F
100
AcDbEntity
  8
0
  6
Continuous
 62
     7
370
    15
100
AcDbSpline
210
0.0
220
0.0
230
1.0
 70
    24
 71
     1
 72
     4
 73
     2
 74
     0
 42
0.0000000001
 43
0.0000000001
 40
0.0
 40
0.0
 40
1.0
 40
1.0
 10
706.792943131722
 20
168.3256226377185
 30
0.0
 10
706.6428921637903
 20
167.5982075528797
 30
0.0
  0
SPLINE
  5
CAEE
330
1F
100
AcDbEntity
  8
0
  6
Continuous
 62
     7
370
    15
100
AcDbSpline
210
0.0
220
0.0
230
1.0
 70
    24
 71
     1
 72
     4
 73
     2
 74
     0
 42
0.0000000001
 43
0.0000000001
 40
0.0
 40
0.0
 40
1.0
 40
1.0
 10
764.0348770722535
 20
293.4523234860595
 30
0.0
 10
763.4799418841335
 20
293.9459766046699
 30
0.0
  0
SPLINE
  5
CAEF
330
1F
100
AcDbEntity
  8
0
  6
Continuous
 62
     7
370
    15
100
AcDbSpline
210
0.0
220
0.0
230
1.0
 70
    24
 71
     1
 72
     4
 73
     2
 74
     0
 42
0.0000000001
 43
0.0000000001
 40
0.0
 40
0.0
 40
1.0
 40
1.0
 10
843.7768108663927
 20
181.3160042063888
 30
0.0
 10
844.4817922530543
 20
181.5497643099721
 30
0.0
  0
SPLINE
  5
CAF0
330
1F
100
AcDbEntity
  8
0
  6
Continuous
 62
     7
370
    15
100
AcDbSpline
210
0.0
220
0.0
230
1.0
 70
    24
 71
     1
 72
     4
 73
     2
 74
     0
 42
0.0000000001
 43
0.0000000001
 40
0.0
 40
0.0
 40
1.0
 40
1.0
 10
779.5898187426696
 20
293.9461107151207
 30
0.0
 10
779.0348771480689
 20
293.4523905412849
 30
0.0
  0
SPLINE
  5
CAF1
330
1F
100
AcDbEntity
  8
0
  6
Continuous
 62
     7
370
    15
100
AcDbSpline
210
0.0
220
0.0
230
1.0
 70
    24
 71
     1
 72
     4
 73
     2
 74
     0
 42
0.0000000001
 43
0.0000000001
 40
0.0
 40
0.0
 40
1.0
 40
1.0
 10
698.5878385124574
 20
181.5497028426822
 30
0.0
 10
699.2928869543443
 20
181.315968816131
 30
0.0
  0
SPLINE
  5
CAF2
330
1F
100
AcDbEntity
  8
0
  6
Continuous
 62
     7
370
    15
100
AcDbSpline
210
0.0
220
0.0
230
1.0
 70
    24
 71
     1
 72
     4
 73
     2
 74
     0
 42
0.0000000001
 43
0.0000000001
 40
0.0
 40
0.0
 40
1.0
 40
1.0
 10
836.4269770203005
 20
167.5981330470737
 30
0.0
 10
836.2768701730143
 20
168.3255891101059
 30
0.0
  0
LINE
  5
CAF3
330
1F
100
AcDbEntity
  8
0
  6
Continuous
 62
     7
370
    15
100
AcDbLine
 10
758.0719650244186
 20
179.3646505819257
 30
0.0
 11
784.9977891413341
 21
179.3646505819257
 31
0.0
  0
ARC
  5
CAF4
330
1F
100
AcDbEntity
  8
0
  6
Continuous
 62
     7
370
    15
100
AcDbCircle
 10
771.534877071878
 20
214.364650137556
 30
0.0
 40
37.50000000000007
100
AcDbArc
 50
171.039469781319
 51
248.9605302186833
  0
LINE
  5
CAF5
330
1F
100
AcDbEntity
  8
0
  6
Continuous
 62
     7
370
    15
100
AcDbLine
 10
734.4925328610311
 20
220.2054262877997
 30
0.0
 11
747.9554432896743
 21
243.523874391764
 31
0.0
  0
ARC
  5
CAF6
330
1F
100
AcDbEntity
  8
0
  6
Continuous
 62
     7
370
    15
100
AcDbCircle
 10
771.534877071878
 20
214.364650137556
 30
0.0
 40
37.50000000000002
100
AcDbArc
 50
51.03946978132039
 51
128.9605302186789
  0
LINE
  5
CAF7
330
1F
100
AcDbEntity
  8
0
  6
Continuous
 62
     7
370
    15
100
AcDbLine
 10
795.1143104104171
 20
243.523874391764
 30
0.0
 11
808.5772208390604
 21
220.2054262877997
 31
0.0
  0
ARC
  5
CAF8
330
1F
100
AcDbEntity
  8
0
  6
Continuous
 62
     7
370
    15
100
AcDbCircle
 10
771.534877071878
 20
214.364650137556
 30
0.0
 40
37.50000000000006
100
AcDbArc
 50
291.0394697813166
 51
8.960530218680986
  0
CIRCLE
  5
CAF9
330
1F
100
AcDbEntity
  8
0
  6
Continuous
 62
     7
370
    15
100
AcDbCircle
 10
771.534877071878
 20
214.364650137556
 30
0.0
 40
18.24999999999997
  0
LINE
  5
CAFA
330
1F
100
AcDbEntity
  8
0
  6
Continuous
 62
     7
370
    15
100
AcDbLine
 10
845.0629822430979
 20
245.1536479191478
 30
0.0
 11
806.8957663593661
 21
223.1177939818796
 31
0.0
  0
SPLINE
  5
CAFB
330
1F
100
AcDbEntity
  8
0
  6
Continuous
 62
     7
370
    15
100
AcDbSpline
210
0.0
220
0.0
230
1.0
 70
     8
 71
     3
 72
    10
 73
     6
 74
     0
 42
0.0000000001
 43
0.0000000001
 40
0.0
 40
0.0
 40
0.0
 40
0.0
 40
0.5
 40
0.5
 40
1.0
 40
1.0
 40
1.0
 40
1.0
 10
845.0629825281353
 20
245.153646178098
 30
0.0
 10
845.0239683880276
 20
245.0345293090837
 30
0.0
 10
844.9653617685587
 20
244.9163933550987
 30
0.0
 10
844.7966237031646
 20
244.692922225138
 30
0.0
 10
844.6867312568963
 20
244.5900072438514
 30
0.0
 10
844.5554491720901
 20
244.5142114968489
 30
0.0
  0
LINE
  5
CAFC
330
1F
100
AcDbEntity
  8
0
  6
Continuous
 62
     7
370
    15
100
AcDbLine
 10
807.0457651732336
 20
222.8579857172068
 30
0.0
 11
844.5554486928354
 21
244.5142130152877
 31
0.0
  0
LINE
  5
CAFD
330
1F
100
AcDbEntity
  8
0
  6
Continuous
 62
     7
370
    15
100
AcDbLine
 10
708.106771063603
 20
262.6473578409847
 30
0.0
 11
746.2739888099799
 21
240.6115076290067
 31
0.0
  0
SPLINE
  5
CAFE
330
1F
100
AcDbEntity
  8
0
  6
Continuous
 62
     7
370
    15
100
AcDbSpline
210
0.0
220
0.0
230
1.0
 70
     8
 71
     3
 72
    10
 73
     6
 74
     0
 42
0.0000000001
 43
0.0000000001
 40
0.0
 40
0.0
 40
0.0
 40
0.0
 40
0.5
 40
0.5
 40
1.0
 40
1.0
 40
1.0
 40
1.0
 10
708.1067716156216
 20
262.6473593345446
 30
0.0
 10
708.2294369202609
 20
262.6731305326117
 30
0.0
 10
708.3610489672468
 20
262.6814436883143
 30
0.0
 10
708.6389496755018
 20
262.647047802078
 30
0.0
 10
708.7830228868601
 20
262.6033356425688
 30
0.0
 10
708.9143049716662
 20
262.5275398955665
 30
0.0
  0
LINE
  5
CAFF
330
1F
100
AcDbEntity
  8
0
  6
Continuous
 62
     7
370
    15
100
AcDbLine
 10
746.4239876238475
 20
240.8713149623569
 30
0.0
 11
708.9143059668908
 21
262.5275413291153
 31
0.0
  0
LINE
  5
CB00
330
1F
100
AcDbEntity
  8
0
  6
Continuous
 62
     7
370
    15
100
AcDbLine
 10
761.4348770106057
 20
179.3646505819257
 30
0.0
 11
761.4348770106057
 21
135.2929482953247
 31
0.0
  0
SPLINE
  5
CB01
330
1F
100
AcDbEntity
  8
0
  6
Continuous
 62
     7
370
    15
100
AcDbSpline
210
0.0
220
0.0
230
1.0
 70
     8
 71
     3
 72
    10
 73
     6
 74
     0
 42
0.0000000001
 43
0.0000000001
 40
0.0
 40
0.0
 40
0.0
 40
0.0
 40
0.5
 40
0.5
 40
1.0
 40
1.0
 40
1.0
 40
1.0
 10
761.4348770718781
 20
135.2929449000252
 30
0.0
 10
761.3512259073464
 20
135.3862905709722
 30
0.0
 10
761.2782204798294
 20
135.4961133692549
 30
0.0
 10
761.1690578369682
 20
135.7539803854519
 30
0.0
 10
761.1348770718782
 20
135.9006075262477
 30
0.0
 10
761.1348770718782
 20
136.0521990202527
 30
0.0
  0
LINE
  5
CB02
330
1F
100
AcDbEntity
  8
0
  6
Continuous
 62
     7
370
    15
100
AcDbLine
 10
761.1348770545641
 20
179.3646505819257
 30
0.0
 11
761.1348770545641
 21
136.0521997110542
 31
0.0
  0
SPLINE
  5
CB03
330
1F
100
AcDbEntity
  8
0
  6
Continuous
 62
     7
370
    15
100
AcDbSpline
210
0.0
220
0.0
230
1.0
 70
     8
 71
     3
 72
    12
 73
     8
 74
     0
 42
0.0000000001
 43
0.0000000001
 40
0.0
 40
0.0
 40
0.0
 40
0.0
 40
0.0873169931369893
 40
0.3195380647660453
 40
0.5642193344556514
 40
0.8228869785492655
 40
1.0
 40
1.0
 40
1.0
 40
1.0
 10
706.7986689029107
 20
168.3289269702133
 30
0.0
 10
706.8006494240087
 20
168.3300710043399
 30
0.0
 10
706.8078971756328
 20
168.3342576172519
 30
0.0
 10
706.8693276875628
 20
168.3697249477897
 30
0.0
 10
706.9734498813495
 20
168.4298401960635
 30
0.0
 10
707.0990554180816
 20
168.5023555339066
 30
0.0
 10
707.1854543484273
 20
168.5522386731419
 30
0.0
 10
707.2205692050824
 20
168.5725125269588
 30
0.0
  0
LINE
  5
CB04
330
1F
100
AcDbEntity
  8
0
  6
Continuous
 62
     7
370
    15
100
AcDbLine
 10
707.4705697117219
 20
168.1394996838268
 30
0.0
 11
707.2205692050824
 21
168.5725125269588
 31
0.0
  0
SPLINE
  5
CB05
330
1F
100
AcDbEntity
  8
0
  6
Continuous
 62
     7
370
    15
100
AcDbSpline
210
0.0
220
0.0
230
1.0
 70
     8
 71
     3
 72
    14
 73
    10
 74
     0
 42
0.0000000001
 43
0.0000000001
 40
0.0
 40
0.0
 40
0.0
 40
0.0
 40
0.25
 40
0.25
 40
0.5
 40
0.5
 40
0.75
 40
0.75
 40
1.0
 40
1.0
 40
1.0
 40
1.0
 10
707.4705692446473
 20
168.1395004610241
 30
0.0
 10
707.3578690564813
 20
168.0705327308712
 30
0.0
 10
707.2488702105381
 20
167.999039285192
 30
0.0
 10
707.0474876219434
 20
167.8654340979909
 30
0.0
 10
706.9549326967753
 20
167.8036351565253
 30
0.0
 10
706.7999390382472
 20
167.7035530700906
 30
0.0
 10
706.7362096038935
 20
167.6644017760658
 30
0.0
 10
706.6506190738384
 20
167.612285189941
 30
0.0
 10
706.6279268576315
 20
167.5983402846449
 30
0.0
 10
706.629675716028
 20
167.5959123209842
 30
0.0
  0
SPLINE
  5
CB06
330
1F
100
AcDbEntity
  8
0
  6
Continuous
 62
     7
370
    15
100
AcDbSpline
210
0.0
220
0.0
230
1.0
 70
    24
 71
     3
 72
    12
 73
     8
 74
     0
 42
0.0000000001
 43
0.0000000001
 40
0.0
 40
0.0
 40
0.0
 40
0.0
 40
0.0870680232948141
 40
0.3190436718637378
 40
0.5636870456786819
 40
0.8223631353425975
 40
1.0
 40
1.0
 40
1.0
 40
1.0
 10
764.0348770722535
 20
293.4457297222312
 30
0.0
 10
764.0348770722535
 20
293.4434499619571
 30
0.0
 10
764.0348770722535
 20
293.4350962281602
 30
0.0
 10
764.0348770722535
 20
293.3642985335192
 30
0.0
 10
764.0348770722535
 20
293.2441909837074
 30
0.0
 10
764.0348770722535
 20
293.0991002104926
 30
0.0
 10
764.0348770722535
 20
292.9992115532447
 30
0.0
 10
764.0348770722535
 20
292.958543707579
 30
0.0
  0
LINE
  5
CB07
330
1F
100
AcDbEntity
  8
0
  6
Continuous
 62
     7
370
    15
100
AcDbLine
 10
763.5348770521427
 20
292.958543707579
 30
0.0
 11
764.0348770722535
 21
292.958543707579
 31
0.0
  0
SPLINE
  5
CB08
330
1F
100
AcDbEntity
  8
0
  6
Continuous
 62
     7
370
    15
100
AcDbSpline
210
0.0
220
0.0
230
1.0
 70
     8
 71
     3
 72
    14
 73
    10
 74
     0
 42
0.0000000001
 43
0.0000000001
 40
0.0
 40
0.0
 40
0.0
 40
0.0
 40
0.25
 40
0.25
 40
0.5
 40
0.5
 40
0.75
 40
0.75
 40
1.0
 40
1.0
 40
1.0
 40
1.0
 10
763.5348770718782
 20
292.9585430300705
 30
0.0
 10
763.5314996346063
 20
293.0906173673117
 30
0.0
 10
763.5240627403709
 20
293.2211156314867
 30
0.0
 10
763.5090697485002
 20
293.4619616211918
 30
0.0
 10
763.501820539679
 20
293.5731549997107
 30
0.0
 10
763.4926505659746
 20
293.7573154049727
 30
0.0
 10
763.4906089904241
 20
293.8320818986014
 30
0.0
 10
763.4882694171759
 20
293.9322883208732
 30
0.0
 10
763.487539586524
 20
293.9588728219541
 30
0.0
 10
763.4845626956289
 20
293.9585722575413
 30
0.0
  0
SPLINE
  5
CB09
330
1F
100
AcDbEntity
  8
0
  6
Continuous
 62
     7
370
    15
100
AcDbSpline
210
0.0
220
0.0
230
1.0
 70
     8
 71
     3
 72
    12
 73
     8
 74
     0
 42
0.0000000001
 43
0.0000000001
 40
0.0
 40
0.0
 40
0.0
 40
0.0
 40
0.2351719515004231
 40
0.4696235075793862
 40
0.7175427909965859
 40
0.9762937639406661
 40
0.9999999999999998
 40
0.9999999999999998
 40
0.9999999999999998
 40
0.9999999999999998
 10
843.3491847930323
 20
181.5628940956291
 30
0.0
 10
843.3958749778836
 20
181.5359381127479
 30
0.0
 10
843.4891123228968
 20
181.4821087204667
 30
0.0
 10
843.6165922097083
 20
181.4085061558015
 30
0.0
 10
843.7165378326339
 20
181.3508104142887
 30
0.0
 10
843.7692597489759
 20
181.3203508568159
 30
0.0
 10
843.7746314891047
 20
181.3172635593643
 30
0.0
 10
843.7750823316942
 20
181.3170044468339
 30
0.0
  0
LINE
  5
CB0A
330
1F
100
AcDbEntity
  8
0
  6
Continuous
 62
     7
370
    15
100
AcDbLine
 10
843.3491847930323
 20
181.5628940956291
 30
0.0
 11
843.5991815743815
 21
181.9959069387611
 31
0.0
  0
SPLINE
  5
CB0B
330
1F
100
AcDbEntity
  8
0
  6
Continuous
 62
     7
370
    15
100
AcDbSpline
210
0.0
220
0.0
230
1.0
 70
     8
 71
     3
 72
    14
 73
    10
 74
     0
 42
0.0000000001
 43
0.0000000001
 40
0.0
 40
0.0
 40
0.0
 40
0.0
 40
0.25
 40
0.25
 40
0.5
 40
0.5
 40
0.75
 40
0.75
 40
1.0
 40
1.0
 40
1.0
 40
1.0
 10
843.5991848991086
 20
181.9959069215741
 30
0.0
 10
843.7152533787546
 20
181.9327946832426
 30
0.0
 10
843.8319866685846
 20
181.873986076207
 30
0.0
 10
844.0480619551554
 20
181.7665473714589
 30
0.0
 10
844.1479828668841
 20
181.7172286721553
 30
0.0
 10
844.3120554505743
 20
181.6330898927046
 30
0.0
 10
844.3778259127459
 20
181.597474704024
 30
0.0
 10
844.4657769665736
 20
181.5493976445717
 30
0.0
 10
844.4891647014333
 20
181.5367374679453
 30
0.0
 10
844.4903928064642
 20
181.5394658440965
 30
0.0
  0
SPLINE
  5
CB0C
330
1F
100
AcDbEntity
  8
0
  6
Continuous
 62
     7
370
    15
100
AcDbSpline
210
0.0
220
0.0
230
1.0
 70
    24
 71
     3
 72
    22
 73
    18
 74
     0
 42
0.0000000001
 43
0.0000000001
 40
0.0
 40
0.0
 40
0.0
 40
0.0
 40
0.0814567825477214
 40
0.137064299283592
 40
0.192665738924609
 40
0.2482670079689264
 40
0.3596916290555647
 40
0.4152881360413658
 40
0.4708843640813715
 40
0.5264825761498595
 40
0.6379100834425691
 40
0.6935034640355716
 40
0.7491130244364088
 40
0.8047095280773374
 40
0.9012625268603541
 40
0.950489386108021
 40
1.0
 40
1.0
 40
1.0
 40
1.0
 10
779.0348771480689
 20
293.4511760966476
 30
0.0
 10
779.0348771480689
 20
293.4473901591042
 30
0.0
 10
779.0348771480689
 20
293.4410197027684
 30
0.0
 10
779.0348771480689
 20
293.4249311542945
 30
0.0
 10
779.0348771480689
 20
293.4087938092895
 30
0.0
 10
779.0348771480689
 20
293.3835847507424
 30
0.0
 10
779.0348771480689
 20
293.3534968382388
 30
0.0
 10
779.0348771480689
 20
293.3191701421339
 30
0.0
 10
779.0348771480689
 20
293.2914643503251
 30
0.0
 10
779.0348771480689
 20
293.2520441580919
 30
0.0
 10
779.0348771480689
 20
293.2091456547802
 30
0.0
 10
779.0348771480689
 20
293.163519406338
 30
0.0
 10
779.0348771480689
 20
293.1280913849574
 30
0.0
 10
779.0348771480689
 20
293.0826870924363
 30
0.0
 10
779.0348771480689
 20
293.0372306578764
 30
0.0
 10
779.0348771480689
 20
292.9925711264246
 30
0.0
 10
779.0348771480689
 20
292.969907890618
 30
0.0
 10
779.0348771480689
 20
292.958543707579
 30
0.0
  0
LINE
  5
CB0D
330
1F
100
AcDbEntity
  8
0
  6
Continuous
 62
     7
370
    15
100
AcDbLine
 10
779.0348771480689
 20
293.4611077205833
 30
0.0
 11
779.5851919321189
 21
293.9585755364593
 31
0.0
  0
SPLINE
  5
CB0E
330
1F
100
AcDbEntity
  8
0
  6
Continuous
 62
     7
370
    15
100
AcDbSpline
210
0.0
220
0.0
230
1.0
 70
     8
 71
     3
 72
    12
 73
     8
 74
     0
 42
0.0000000001
 43
0.0000000001
 40
0.0
 40
0.0
 40
0.0
 40
0.0
 40
0.0909219369733564
 40
0.3337793486749618
 40
0.5792992924670603
 40
0.8250761407196176
 40
1.0
 40
1.0
 40
1.0
 40
1.0
 10
779.5826009927163
 20
293.9269105689224
 30
0.0
 10
779.5820290136417
 20
293.9218400818614
 30
0.0
 10
779.5799292475199
 20
293.9032260495934
 30
0.0
 10
779.578255764558
 20
293.7601990440504
 30
0.0
 10
779.5647290181848
 20
293.5154115763682
 30
0.0
 10
779.5447714464095
 20
293.2302437306631
 30
0.0
 10
779.5377823195781
 20
293.0383264269682
 30
0.0
 10
779.5348762987027
 20
292.9585288064178
 30
0.0
  0
LINE
  5
CB0F
330
1F
100
AcDbEntity
  8
0
  6
Continuous
 62
     7
370
    15
100
AcDbLine
 10
779.5349740875731
 20
292.9585213558372
 30
0.0
 11
779.0348771480689
 21
292.958543707579
 31
0.0
  0
SPLINE
  5
CB10
330
1F
100
AcDbEntity
  8
0
  6
Continuous
 62
     7
370
    15
100
AcDbSpline
210
0.0
220
0.0
230
1.0
 70
     8
 71
     3
 72
    22
 73
    18
 74
     0
 42
0.0000000001
 43
0.0000000001
 40
0.0
 40
0.0
 40
0.0
 40
0.0
 40
0.0814577317862376
 40
0.1370615117482425
 40
0.1926624498301636
 40
0.2482659600290311
 40
0.3596882924572418
 40
0.4152850258616961
 40
0.4708858404859767
 40
0.5264823920898302
 40
0.6379065784221451
 40
0.6935043980442205
 40
0.7491069679998163
 40
0.8047057972825058
 40
0.9012588981550365
 40
0.9504833820562057
 40
0.9999999999999998
 40
0.9999999999999998
 40
0.9999999999999998
 40
0.9999999999999998
 10
699.2939374862085
 20
181.3165760384496
 30
0.0
 10
699.2972187175237
 20
181.3184702086827
 30
0.0
 10
699.3027397468304
 20
181.3216573565443
 30
0.0
 10
699.3166619719029
 20
181.3296971957235
 30
0.0
 10
699.3306355558748
 20
181.3377708508063
 30
0.0
 10
699.3524770438473
 20
181.3503687896165
 30
0.0
 10
699.3785266732345
 20
181.365418277048
 30
0.0
 10
699.408255144745
 20
181.3825815272834
 30
0.0
 10
699.4322550954307
 20
181.3964326240595
 30
0.0
 10
699.4663906338084
 20
181.4161448211888
 30
0.0
 10
699.5035437074989
 20
181.4375894459234
 30
0.0
 10
699.5430548670156
 20
181.4604085901746
 30
0.0
 10
699.573737622591
 20
181.4781175098884
 30
0.0
 10
699.6130547555756
 20
181.5008269829078
 30
0.0
 10
699.6524248433821
 20
181.5235486927646
 30
0.0
 10
699.6911001942706
 20
181.5458822712438
 30
0.0
 10
699.71072912836
 20
181.5572123138653
 30
0.0
 10
699.7205726323495
 20
181.5628940956291
 30
0.0
  0
LINE
  5
CB11
330
1F
100
AcDbEntity
  8
0
  6
Continuous
 62
     7
370
    15
100
AcDbLine
 10
698.5793597517381
 20
181.539465744942
 30
0.0
 11
699.285332065619
 21
181.3116102264818
 31
0.0
  0
SPLINE
  5
CB12
330
1F
100
AcDbEntity
  8
0
  6
Continuous
 62
     7
370
    15
100
AcDbSpline
210
0.0
220
0.0
230
1.0
 70
     8
 71
     3
 72
    12
 73
     8
 74
     0
 42
0.0000000001
 43
0.0000000001
 40
0.0
 40
0.0
 40
0.0
 40
0.0
 40
0.0909220953882525
 40
0.3337763018426817
 40
0.579299831277059
 40
0.8250770056190328
 40
1.0
 40
1.0
 40
1.0
 40
1.0
 10
698.6080817399392
 20
181.5530556039508
 30
0.0
 10
698.6127595111827
 20
181.5550952800726
 30
0.0
 10
698.6299316757688
 20
181.5625829600475
 30
0.0
 10
698.7546194568308
 20
181.6326447183818
 30
0.0
 10
698.9733845395542
 20
181.7433261063806
 30
0.0
 10
699.2303255543661
 20
181.8686240113849
 30
0.0
 10
699.4000242515483
 20
181.9585316691129
 30
0.0
 10
699.4705833015809
 20
181.9959143893417
 30
0.0
  0
LINE
  5
CB13
330
1F
100
AcDbEntity
  8
0
  6
Continuous
 62
     7
370
    15
100
AcDbLine
 10
699.4705385980974
 20
181.9960000710186
 30
0.0
 11
699.7205726323495
 21
181.5628940956291
 31
0.0
  0
SPLINE
  5
CB14
330
1F
100
AcDbEntity
  8
0
  6
Continuous
 62
     7
370
    15
100
AcDbSpline
210
0.0
220
0.0
230
1.0
 70
     8
 71
     3
 72
    12
 73
     8
 74
     0
 42
0.0000000001
 43
0.0000000001
 40
0.0
 40
0.0
 40
0.0
 40
0.0
 40
0.2348787406099794
 40
0.469073807215272
 40
0.7163881739984554
 40
0.9751110762941523
 40
1.0
 40
1.0
 40
1.0
 40
1.0
 10
835.8491844950091
 20
168.5725125269588
 30
0.0
 10
835.8958453882063
 20
168.5455718244744
 30
0.0
 10
835.9890313562654
 20
168.4917688372371
 30
0.0
 10
836.116410562329
 20
168.4182333101727
 30
0.0
 10
836.2162969839996
 20
168.3605648412787
 30
0.0
 10
836.2692073765257
 20
168.329997445538
 30
0.0
 10
836.2745943848105
 20
168.3269036900935
 30
0.0
 10
836.2750671325098
 20
168.3266321913894
 30
0.0
  0
LINE
  5
CB15
330
1F
100
AcDbEntity
  8
0
  6
Continuous
 62
     7
370
    15
100
AcDbLine
 10
836.284417611159
 20
168.3212305204567
 30
0.0
 11
836.4400751409899
 21
167.5959127740558
 31
0.0
  0
SPLINE
  5
CB16
330
1F
100
AcDbEntity
  8
0
  6
Continuous
 62
     7
370
    15
100
AcDbSpline
210
0.0
220
0.0
230
1.0
 70
     8
 71
     3
 72
    14
 73
    10
 74
     0
 42
0.0000000001
 43
0.0000000001
 40
0.0
 40
0.0
 40
0.0
 40
0.0
 40
0.25
 40
0.25
 40
0.5
 40
0.5
 40
0.75
 40
0.75
 40
1.0
 40
1.0
 40
1.0
 40
1.0
 10
836.4400783741183
 20
167.5959122465705
 30
0.0
 10
836.4418519517053
 20
167.5983736003617
 30
0.0
 10
836.4192866706389
 20
167.6121312736192
 30
0.0
 10
836.3335149817116
 20
167.6643027916021
 30
0.0
 10
836.2698645544412
 20
167.7034460661645
 30
0.0
 10
836.1150457203899
 20
167.8035365646934
 30
0.0
 10
836.0222706646709
 20
167.8655447580128
 30
0.0
 10
835.8215832048118
 20
167.9986763956857
 30
0.0
 10
835.7118587641519
 20
168.0705442460734
 30
0.0
 10
835.5991716457364
 20
168.1395085719236
 30
0.0
  0
LINE
  5
CB17
330
1F
100
AcDbEntity
  8
0
  6
Continuous
 62
     7
370
    15
100
AcDbLine
 10
835.5991206584345
 20
168.1394251780208
 30
0.0
 11
835.8491844950091
 21
168.5725125269588
 31
0.0
  0
LINE
  5
CB18
330
1F
100
AcDbEntity
  8
0
  6
Continuous
 62
     7
370
    15
100
AcDbLine
 10
736.0239885268579
 20
222.8579857172068
 30
0.0
 11
698.5143012819658
 21
244.5142130152877
 31
0.0
  0
SPLINE
  5
CB19
330
1F
100
AcDbEntity
  8
0
  6
Continuous
 62
     7
370
    15
100
AcDbSpline
210
0.0
220
0.0
230
1.0
 70
     8
 71
     3
 72
    10
 73
     6
 74
     0
 42
0.0000000001
 43
0.0000000001
 40
0.0
 40
0.0
 40
0.0
 40
0.0
 40
0.5
 40
0.5
 40
1.0
 40
1.0
 40
1.0
 40
1.0
 10
698.5143049716668
 20
244.5142114968497
 30
0.0
 10
698.3829976176241
 20
244.5900218330529
 30
0.0
 10
698.273565761451
 20
244.692573331365
 30
0.0
 10
698.1053368029156
 20
244.9149168157962
 30
0.0
 10
698.0458099651318
 20
245.0344553936217
 30
0.0
 10
698.0067716156216
 20
245.153646178099
 30
0.0
  0
LINE
  5
CB1A
330
1F
100
AcDbEntity
  8
0
  6
Continuous
 62
     7
370
    15
100
AcDbLine
 10
736.1739873407254
 20
223.1177939818796
 30
0.0
 11
698.0067751822839
 21
245.1536479191478
 31
0.0
  0
LINE
  5
CB1B
330
1F
100
AcDbEntity
  8
0
  6
Continuous
 62
     7
370
    15
100
AcDbLine
 10
781.9348778096805
 20
136.0521997110542
 30
0.0
 11
781.9348778096805
 21
179.3646505819257
 31
0.0
  0
SPLINE
  5
CB1C
330
1F
100
AcDbEntity
  8
0
  6
Continuous
 62
     7
370
    15
100
AcDbSpline
210
0.0
220
0.0
230
1.0
 70
     8
 71
     3
 72
    10
 73
     6
 74
     0
 42
0.0000000001
 43
0.0000000001
 40
0.0
 40
0.0
 40
0.0
 40
0.0
 40
0.5
 40
0.5
 40
1.0
 40
1.0
 40
1.0
 40
1.0
 10
781.9348770718781
 20
136.052199020253
 30
0.0
 10
781.9348770718781
 20
135.9005783478466
 30
0.0
 10
781.9007807972302
 20
135.7545318312615
 30
0.0
 10
781.7923401706146
 20
135.4976695373019
 30
0.0
 10
781.7185801443776
 20
135.3863484946616
 30
0.0
 10
781.6348770718782
 20
135.2929449000252
 30
0.0
  0
LINE
  5
CB1D
330
1F
100
AcDbEntity
  8
0
  6
Continuous
 62
     7
370
    15
100
AcDbLine
 10
781.6348764566551
 20
179.3646505819257
 30
0.0
 11
781.6348764566551
 21
135.2929482953247
 31
0.0
  0
LINE
  5
CB1E
330
1F
100
AcDbEntity
  8
0
  6
Continuous
 62
     7
370
    15
100
AcDbLine
 10
834.155451458491
 20
262.5275413291153
 30
0.0
 11
796.6457679388891
 21
240.8713149623569
 31
0.0
  0
SPLINE
  5
CB1F
330
1F
100
AcDbEntity
  8
0
  6
Continuous
 62
     7
370
    15
100
AcDbSpline
210
0.0
220
0.0
230
1.0
 70
     8
 71
     3
 72
    10
 73
     6
 74
     0
 42
0.0000000001
 43
0.0000000001
 40
0.0
 40
0.0
 40
0.0
 40
0.0
 40
0.5
 40
0.5
 40
1.0
 40
1.0
 40
1.0
 40
1.0
 10
834.155449172049
 20
262.5275398955415
 30
0.0
 10
834.286756526095
 20
262.6033502317547
 30
0.0
 10
834.4302846569242
 20
262.646845250035
 30
0.0
 10
834.7069542420912
 20
262.6813640595705
 30
0.0
 10
834.8402411061194
 20
262.6731465243862
 30
0.0
 10
834.9629825281354
 20
262.6473593345437
 30
0.0
  0
LINE
  5
CB20
330
1F
100
AcDbEntity
  8
0
  6
Continuous
 62
     7
370
    15
100
AcDbLine
 10
796.7957667527566
 20
240.6115076290067
 30
0.0
 11
834.9629826364886
 21
262.6473578409847
 31
0.0
  0
SPLINE
  5
CB21
330
1F
100
AcDbEntity
  8
0
  6
Continuous
 62
     7
370
    15
100
AcDbSpline
210
0.0
220
0.0
230
1.0
 70
     8
 71
     3
 72
     8
 73
     4
 74
     0
 42
0.0000000001
 43
0.0000000001
 40
0.0
 40
0.0
 40
0.0
 40
0.0
 40
1.0
 40
1.0
 40
1.0
 40
1.0
 10
761.1348770718782
 20
136.0521990202527
 30
0.0
 10
745.8341059058725
 20
138.0841622375464
 30
0.0
 10
731.4623599237952
 20
144.5546519839428
 30
0.0
 10
719.7978060253594
 20
154.6630967278878
 30
0.0
  0
LINE
  5
CB22
330
1F
100
AcDbEntity
  8
0
  6
Continuous
 62
     7
370
    15
100
AcDbLine
 10
721.5969413040052
 20
156.6612395243343
 30
0.0
 11
722.0799847958455
 21
156.2263044314083
 31
0.0
  0
LINE
  5
CB23
330
1F
100
AcDbEntity
  8
0
  6
Continuous
 62
     7
370
    15
100
AcDbLine
 10
722.0799847958455
 20
156.2263044314083
 30
0.0
 11
724.8903326211343
 21
159.3475128309425
 31
0.0
  0
LINE
  5
CB24
330
1F
100
AcDbEntity
  8
0
  6
Continuous
 62
     7
370
    15
100
AcDbLine
 10
724.8903326211343
 20
159.3475128309425
 30
0.0
 11
721.6948121307264
 21
162.2247743205722
 31
0.0
  0
LINE
  5
CB25
330
1F
100
AcDbEntity
  8
0
  6
Continuous
 62
     7
370
    15
100
AcDbLine
 10
721.6948121307264
 20
162.2247743205722
 30
0.0
 11
718.8844605801473
 21
159.103565921038
 31
0.0
  0
LINE
  5
CB26
330
1F
100
AcDbEntity
  8
0
  6
Continuous
 62
     7
370
    15
100
AcDbLine
 10
718.8844605801473
 20
159.103565921038
 30
0.0
 11
719.367507797278
 21
158.668630828112
 31
0.0
  0
SPLINE
  5
CB27
330
1F
100
AcDbEntity
  8
0
  6
Continuous
 62
     7
370
    15
100
AcDbSpline
210
0.0
220
0.0
230
1.0
 70
     8
 71
     3
 72
     8
 73
     4
 74
     0
 42
0.0000000001
 43
0.0000000001
 40
0.0
 40
0.0
 40
0.0
 40
0.0
 40
1.0
 40
1.0
 40
1.0
 40
1.0
 10
717.5683715489267
 20
156.6704885469647
 30
0.0
 10
713.839726802418
 20
160.1582232112363
 30
0.0
 10
710.4579973785555
 20
163.9991673972762
 30
0.0
 10
707.4705692446471
 20
168.1395004610241
 30
0.0
  0
LINE
  5
CB28
330
1F
100
AcDbEntity
  8
0
  6
Continuous
 62
     7
370
    15
100
AcDbLine
 10
707.4705697117219
 20
168.1394996838268
 30
0.0
 11
712.3150228975187
 21
170.936447639912
 31
0.0
  0
ARC
  5
CB29
330
1F
100
AcDbEntity
  8
0
  6
Continuous
 62
     7
370
    15
100
AcDbCircle
 10
708.3150225956138
 20
177.8646501375567
 30
0.0
 40
7.999999999999973
100
AcDbArc
 50
299.9999999999973
 51
119.9999999999965
  0
LINE
  5
CB2A
330
1F
100
AcDbEntity
  8
0
  6
Continuous
 62
     7
370
    15
100
AcDbLine
 10
704.3150215862165
 20
184.7928530322012
 30
0.0
 11
699.4705833015809
 21
181.9959162519868
 31
0.0
  0
SPLINE
  5
CB2B
330
1F
100
AcDbEntity
  8
0
  6
Continuous
 62
     7
370
    15
100
AcDbSpline
210
0.0
220
0.0
230
1.0
 70
     8
 71
     3
 72
     8
 73
     4
 74
     0
 42
0.0000000001
 43
0.0000000001
 40
0.0
 40
0.0
 40
0.0
 40
0.0
 40
1.0
 40
1.0
 40
1.0
 40
1.0
 10
699.4704893871965
 20
181.9960847137701
 30
0.0
 10
697.3786080066948
 20
186.6533856729305
 30
0.0
 10
695.7431444278934
 20
191.5024612065062
 30
0.0
 10
694.5870147231403
 20
196.4753661965571
 30
0.0
  0
LINE
  5
CB2C
330
1F
100
AcDbEntity
  8
0
  6
Continuous
 62
     7
370
    15
100
AcDbLine
 10
697.2170210895906
 20
197.0343916462358
 30
0.0
 11
697.3521671710382
 21
196.3985954196747
 31
0.0
  0
LINE
  5
CB2D
330
1F
100
AcDbEntity
  8
0
  6
Continuous
 62
     7
370
    15
100
AcDbLine
 10
697.3521671710382
 20
196.3985954196747
 30
0.0
 11
701.4603875098596
 21
197.2718248860534
 31
0.0
  0
LINE
  5
CB2E
330
1F
100
AcDbEntity
  8
0
  6
Continuous
 62
     7
370
    15
100
AcDbLine
 10
701.4603875098596
 20
197.2718248860534
 30
0.0
 11
700.5663625417123
 21
201.477859240919
 31
0.0
  0
LINE
  5
CB2F
330
1F
100
AcDbEntity
  8
0
  6
Continuous
 62
     7
370
    15
100
AcDbLine
 10
700.5663625417123
 20
201.477859240919
 30
0.0
 11
696.4581422028909
 21
200.6046307058629
 31
0.0
  0
LINE
  5
CB30
330
1F
100
AcDbEntity
  8
0
  6
Continuous
 62
     7
370
    15
100
AcDbLine
 10
696.4581422028909
 20
200.6046307058629
 30
0.0
 11
696.5932882843385
 21
199.9688344793018
 31
0.0
  0
SPLINE
  5
CB31
330
1F
100
AcDbEntity
  8
0
  6
Continuous
 62
     7
370
    15
100
AcDbSpline
210
0.0
220
0.0
230
1.0
 70
     8
 71
     3
 72
     8
 73
     4
 74
     0
 42
0.0000000001
 43
0.0000000001
 40
0.0
 40
0.0
 40
0.0
 40
0.0
 40
1.0
 40
1.0
 40
1.0
 40
1.0
 10
693.9632796504526
 20
199.4098089987046
 30
0.0
 10
691.0413866586627
 20
214.5658313705355
 30
0.0
 10
692.6236511543956
 20
230.2473733609496
 30
0.0
 10
698.5143049716668
 20
244.5142114968497
 30
0.0
  0
LINE
  5
CB32
330
1F
100
AcDbEntity
  8
0
  6
Continuous
 62
     7
370
    15
100
AcDbLine
 10
694.5870182929406
 20
196.4753662021454
 30
0.0
 11
697.2170210895906
 21
197.0343916462358
 31
0.0
  0
LINE
  5
CB33
330
1F
100
AcDbEntity
  8
0
  6
Continuous
 62
     7
370
    15
100
AcDbLine
 10
719.367507797278
 20
158.668630828112
 30
0.0
 11
717.5683713970552
 21
156.6704894201454
 31
0.0
  0
LINE
  5
CB34
330
1F
100
AcDbEntity
  8
0
  6
Continuous
 62
     7
370
    15
100
AcDbLine
 10
719.7978049037824
 20
154.6630981163677
 30
0.0
 11
721.5969413040052
 21
156.6612395243343
 31
0.0
  0
LINE
  5
CB35
330
1F
100
AcDbEntity
  8
0
  6
Continuous
 62
     7
370
    15
100
AcDbLine
 10
696.5932882843385
 20
199.9688344793018
 30
0.0
 11
693.963278037108
 21
199.4098090352114
 31
0.0
  0
LINE
  5
CB36
330
1F
100
AcDbEntity
  8
0
  6
Continuous
 62
     7
370
    15
100
AcDbLine
 10
712.0650223908792
 20
171.369460483044
 30
0.0
 11
707.2205692050824
 21
168.5725125269588
 31
0.0
  0
LINE
  5
CB37
330
1F
100
AcDbEntity
  8
0
  6
Continuous
 62
     7
370
    15
100
AcDbLine
 10
712.3150228975187
 20
170.936447639912
 30
0.0
 11
712.0650223908792
 21
171.369460483044
 31
0.0
  0
SPLINE
  5
CB38
330
1F
100
AcDbEntity
  8
0
  6
Continuous
 62
     7
370
    15
100
AcDbSpline
210
0.0
220
0.0
230
1.0
 70
     8
 71
     3
 72
     8
 73
     4
 74
     0
 42
0.0000000001
 43
0.0000000001
 40
0.0
 40
0.0
 40
0.0
 40
0.0
 40
1.0
 40
1.0
 40
1.0
 40
1.0
 10
844.5554491720901
 20
244.5142114968489
 30
0.0
 10
850.446102989361
 20
230.2473733609487
 30
0.0
 10
852.0283674850935
 20
214.565831370535
 30
0.0
 10
849.1064744933037
 20
199.4098089987046
 30
0.0
  0
LINE
  5
CB39
330
1F
100
AcDbEntity
  8
0
  6
Continuous
 62
     7
370
    15
100
AcDbLine
 10
846.4764691410433
 20
199.9688344793018
 30
0.0
 11
846.6116077719103
 21
200.6046307058629
 31
0.0
  0
LINE
  5
CB3A
330
1F
100
AcDbEntity
  8
0
  6
Continuous
 62
     7
370
    15
100
AcDbLine
 10
842.5033874330889
 20
201.477859240919
 30
0.0
 11
846.6116077719103
 21
200.6046307058629
 31
0.0
  0
LINE
  5
CB3B
330
1F
100
AcDbEntity
  8
0
  6
Continuous
 62
     7
370
    15
100
AcDbLine
 10
841.6093699155222
 20
197.2718248860534
 30
0.0
 11
842.5033874330889
 21
201.477859240919
 31
0.0
  0
LINE
  5
CB3C
330
1F
100
AcDbEntity
  8
0
  6
Continuous
 62
     7
370
    15
100
AcDbLine
 10
845.7175902543436
 20
196.3985954196747
 30
0.0
 11
841.6093699155222
 21
197.2718248860534
 31
0.0
  0
LINE
  5
CB3D
330
1F
100
AcDbEntity
  8
0
  6
Continuous
 62
     7
370
    15
100
AcDbLine
 10
845.7175902543436
 20
196.3985954196747
 30
0.0
 11
845.8527288852106
 21
197.0343916462358
 31
0.0
  0
SPLINE
  5
CB3E
330
1F
100
AcDbEntity
  8
0
  6
Continuous
 62
     7
370
    15
100
AcDbSpline
210
0.0
220
0.0
230
1.0
 70
     8
 71
     3
 72
     8
 73
     4
 74
     0
 42
0.0000000001
 43
0.0000000001
 40
0.0
 40
0.0
 40
0.0
 40
0.0
 40
1.0
 40
1.0
 40
1.0
 40
1.0
 10
848.4827394208503
 20
196.4753661965025
 30
0.0
 10
847.326594973186
 20
191.5023977922027
 30
0.0
 10
845.6911044454885
 20
186.6532621093928
 30
0.0
 10
843.5991848991086
 20
181.9959069215741
 30
0.0
  0
LINE
  5
CB3F
330
1F
100
AcDbEntity
  8
0
  6
Continuous
 62
     7
370
    15
100
AcDbLine
 10
843.5991815743815
 20
181.9959069387611
 30
0.0
 11
838.754732113875
 21
184.7928530322012
 31
0.0
  0
ARC
  5
CB40
330
1F
100
AcDbEntity
  8
0
  6
Continuous
 62
     7
370
    15
100
AcDbCircle
 10
834.7547315481419
 20
177.8646501375558
 30
0.0
 40
8.000000000000037
100
AcDbArc
 50
60.00000000000338
 51
240.0000000000027
  0
LINE
  5
CB41
330
1F
100
AcDbEntity
  8
0
  6
Continuous
 62
     7
370
    15
100
AcDbLine
 10
830.7547308025728
 20
170.936447639912
 30
0.0
 11
835.5991653619181
 21
168.1395108596977
 31
0.0
  0
SPLINE
  5
CB42
330
1F
100
AcDbEntity
  8
0
  6
Continuous
 62
     7
370
    15
100
AcDbSpline
210
0.0
220
0.0
230
1.0
 70
     8
 71
     3
 72
     8
 73
     4
 74
     0
 42
0.0000000001
 43
0.0000000001
 40
0.0
 40
0.0
 40
0.0
 40
0.0
 40
1.0
 40
1.0
 40
1.0
 40
1.0
 10
835.5990712612474
 20
168.1393429689814
 30
0.0
 10
832.6116709085471
 20
163.9990698580028
 30
0.0
 10
829.2299799635364
 20
160.1581788948707
 30
0.0
 10
825.5013825946663
 20
156.6704885471389
 30
0.0
  0
LINE
  5
CB43
330
1F
100
AcDbEntity
  8
0
  6
Continuous
 62
     7
370
    15
100
AcDbLine
 10
823.7022496281038
 20
158.668630828112
 30
0.0
 11
824.1852931199442
 21
159.103565921038
 31
0.0
  0
LINE
  5
CB44
330
1F
100
AcDbEntity
  8
0
  6
Continuous
 62
     7
370
    15
100
AcDbLine
 10
821.3749452946554
 20
162.2247743205722
 30
0.0
 11
824.1852931199442
 21
159.103565921038
 31
0.0
  0
LINE
  5
CB45
330
1F
100
AcDbEntity
  8
0
  6
Continuous
 62
     7
370
    15
100
AcDbLine
 10
818.1794210789572
 20
159.3475128309425
 30
0.0
 11
821.3749452946554
 21
162.2247743205722
 31
0.0
  0
LINE
  5
CB46
330
1F
100
AcDbEntity
  8
0
  6
Continuous
 62
     7
370
    15
100
AcDbLine
 10
820.989768904246
 20
156.2263044314083
 30
0.0
 11
818.1794210789572
 21
159.3475128309425
 31
0.0
  0
LINE
  5
CB47
330
1F
100
AcDbEntity
  8
0
  6
Continuous
 62
     7
370
    15
100
AcDbLine
 10
820.989768904246
 20
156.2263044314083
 30
0.0
 11
821.4728123960863
 21
156.6612395243343
 31
0.0
  0
SPLINE
  5
CB48
330
1F
100
AcDbEntity
  8
0
  6
Continuous
 62
     7
370
    15
100
AcDbSpline
210
0.0
220
0.0
230
1.0
 70
     8
 71
     3
 72
     8
 73
     4
 74
     0
 42
0.0000000001
 43
0.0000000001
 40
0.0
 40
0.0
 40
0.0
 40
0.0
 40
1.0
 40
1.0
 40
1.0
 40
1.0
 10
823.271948118397
 20
154.6630967278878
 30
0.0
 10
811.6073942199612
 20
144.5546519839428
 30
0.0
 10
797.2356482378838
 20
138.0841622375464
 30
0.0
 10
781.9348770718781
 20
136.052199020253
 30
0.0
  0
LINE
  5
CB49
330
1F
100
AcDbEntity
  8
0
  6
Continuous
 62
     7
370
    15
100
AcDbLine
 10
848.4827391324412
 20
196.4753662021454
 30
0.0
 11
845.8527288852106
 21
197.0343916462358
 31
0.0
  0
LINE
  5
CB4A
330
1F
100
AcDbEntity
  8
0
  6
Continuous
 62
     7
370
    15
100
AcDbLine
 10
823.7022496281038
 20
158.668630828112
 30
0.0
 11
825.5013823030363
 21
156.6704894201454
 31
0.0
  0
LINE
  5
CB4B
330
1F
100
AcDbEntity
  8
0
  6
Continuous
 62
     7
370
    15
100
AcDbLine
 10
823.2719487963091
 20
154.6630981163677
 30
0.0
 11
821.4728123960863
 21
156.6612395243343
 31
0.0
  0
LINE
  5
CB4C
330
1F
100
AcDbEntity
  8
0
  6
Continuous
 62
     7
370
    15
100
AcDbLine
 10
846.4764691410433
 20
199.9688344793018
 30
0.0
 11
849.1064719376932
 21
199.4098090352114
 31
0.0
  0
LINE
  5
CB4D
330
1F
100
AcDbEntity
  8
0
  6
Continuous
 62
     7
370
    15
100
AcDbLine
 10
838.5047278819452
 20
184.3598401890691
 30
0.0
 11
843.3491847930323
 21
181.5628940956291
 31
0.0
  0
LINE
  5
CB4E
330
1F
100
AcDbEntity
  8
0
  6
Continuous
 62
     7
370
    15
100
AcDbLine
 10
838.754732113875
 20
184.7928530322012
 30
0.0
 11
838.5047278819452
 21
184.3598401890691
 31
0.0
  0
SPLINE
  5
CB4F
330
1F
100
AcDbEntity
  8
0
  6
Continuous
 62
     7
370
    15
100
AcDbSpline
210
0.0
220
0.0
230
1.0
 70
     8
 71
     3
 72
     8
 73
     4
 74
     0
 42
0.0000000001
 43
0.0000000001
 40
0.0
 40
0.0
 40
0.0
 40
0.0
 40
0.9999999999999998
 40
0.9999999999999998
 40
0.9999999999999998
 40
0.9999999999999998
 10
708.9143049716669
 20
262.5275398955674
 30
0.0
 10
722.1607530174066
 20
279.7503468967185
 30
0.0
 10
741.9188585118629
 20
290.7582684016517
 30
0.0
 10
763.5348770718782
 20
292.9585430300709
 30
0.0
  0
LINE
  5
CB50
330
1F
100
AcDbEntity
  8
0
  6
Continuous
 62
     7
370
    15
100
AcDbLine
 10
763.5348770521427
 20
292.958543707579
 30
0.0
 11
763.5348770521427
 21
287.3646477954086
 31
0.0
  0
ARC
  5
CB51
330
1F
100
AcDbEntity
  8
0
  6
Continuous
 62
     7
370
    15
100
AcDbCircle
 10
771.534877071878
 20
287.3646501375563
 30
0.0
 40
8.000000000000028
100
AcDbArc
 50
180.0
 51
0.0
  0
LINE
  5
CB52
330
1F
100
AcDbEntity
  8
0
  6
Continuous
 62
     7
370
    15
100
AcDbLine
 10
779.5348772300253
 20
287.3646477954086
 30
0.0
 11
779.5348772300253
 21
292.9585213558372
 31
0.0
  0
SPLINE
  5
CB53
330
1F
100
AcDbEntity
  8
0
  6
Continuous
 62
     7
370
    15
100
AcDbSpline
210
0.0
220
0.0
230
1.0
 70
     8
 71
     3
 72
     8
 73
     4
 74
     0
 42
0.0000000001
 43
0.0000000001
 40
0.0
 40
0.0
 40
0.0
 40
0.0
 40
1.0
 40
1.0
 40
1.0
 40
1.0
 10
779.5350709731613
 20
292.9585232925539
 30
0.0
 10
801.1510167504248
 20
290.7582021907207
 30
0.0
 10
820.909042401373
 20
279.750293231239
 30
0.0
 10
834.1554491718996
 20
262.5275398954187
 30
0.0
  0
LINE
  5
CB54
330
1F
100
AcDbEntity
  8
0
  6
Continuous
 62
     7
370
    15
100
AcDbLine
 10
764.0348770722535
 20
292.958543707579
 30
0.0
 11
764.0348770722535
 21
287.3646477954086
 31
0.0
  0
LINE
  5
CB55
330
1F
100
AcDbEntity
  8
0
  6
Continuous
 62
     7
370
    15
100
AcDbLine
 10
763.5348770521427
 20
287.3646477954086
 30
0.0
 11
764.0348770722535
 21
287.3646477954086
 31
0.0
  0
LINE
  5
CB56
330
1F
100
AcDbEntity
  8
0
  6
Continuous
 62
     7
370
    15
100
AcDbLine
 10
835.8491844950091
 20
168.5725125269588
 30
0.0
 11
831.0047350345026
 21
171.369460483044
 31
0.0
  0
LINE
  5
CB57
330
1F
100
AcDbEntity
  8
0
  6
Continuous
 62
     7
370
    15
100
AcDbLine
 10
831.0047350345026
 20
171.369460483044
 30
0.0
 11
830.7547308025728
 21
170.936447639912
 31
0.0
  0
LINE
  5
CB58
330
1F
100
AcDbEntity
  8
0
  6
Continuous
 62
     7
370
    15
100
AcDbLine
 10
779.0348771480689
 20
287.3646477954086
 30
0.0
 11
779.0348771480689
 21
292.958543707579
 31
0.0
  0
LINE
  5
CB59
330
1F
100
AcDbEntity
  8
0
  6
Continuous
 62
     7
370
    15
100
AcDbLine
 10
779.0348771480689
 20
287.3646477954086
 30
0.0
 11
779.5348772300253
 21
287.3646477954086
 31
0.0
  0
LINE
  5
CB5A
330
1F
100
AcDbEntity
  8
0
  6
Continuous
 62
     7
370
    15
100
AcDbLine
 10
699.7205726323495
 20
181.5628940956291
 30
0.0
 11
704.565022092856
 21
184.3598401890691
 31
0.0
  0
LINE
  5
CB5B
330
1F
100
AcDbEntity
  8
0
  6
Continuous
 62
     7
370
    15
100
AcDbLine
 10
704.565022092856
 20
184.3598401890691
 30
0.0
 11
704.3150215862165
 21
184.7928530322012
 31
0.0
  0
ARC
  5
CB5C
330
1F
100
AcDbEntity
  8
0
  6
Continuous
 62
     7
370
    15
100
AcDbCircle
 10
771.534877071878
 20
214.364650137556
 30
0.0
 40
80.00000000000001
100
AcDbArc
 50
215.7753882168389
 51
226.9256411771486
  0
SPLINE
  5
CB5D
330
1F
100
AcDbEntity
  8
0
  6
Continuous
 62
     7
370
    15
100
AcDbSpline
210
0.0
220
0.0
230
1.0
 70
    24
 71
     3
 72
    12
 73
     8
 74
     0
 42
0.0000000001
 43
0.0000000001
 40
0.0
 40
0.0
 40
0.0
 40
0.0
 40
0.2500000000000016
 40
0.2500000000000016
 40
0.5000000000000032
 40
0.5000000000000032
 40
1.0
 40
1.0
 40
1.0
 40
1.0
 10
716.8991218012704
 20
155.9272114016714
 30
0.0
 10
716.8991218012704
 20
155.9272114016714
 30
0.0
 10
716.9165122893364
 20
155.9465254953563
 30
0.0
 10
716.9836318262881
 20
156.0210692930842
 30
0.0
 10
717.0333017312682
 20
156.0762333111658
 30
0.0
 10
717.2183734474672
 20
156.2817762753172
 30
0.0
 10
717.3916334144562
 20
156.4742009629743
 30
0.0
 10
717.5683715489267
 20
156.6704885469647
 30
0.0
  0
ARC
  5
CB5E
330
1F
100
AcDbEntity
  8
0
  6
Continuous
 62
     7
370
    15
100
AcDbCircle
 10
771.534877071878
 20
214.364650137556
 30
0.0
 40
80.00000000000003
100
AcDbArc
 50
335.7753882208309
 51
346.9256411771397
  0
SPLINE
  5
CB5F
330
1F
100
AcDbEntity
  8
0
  6
Continuous
 62
     7
370
    15
100
AcDbSpline
210
0.0
220
0.0
230
1.0
 70
    24
 71
     3
 72
    12
 73
     8
 74
     0
 42
0.0000000001
 43
0.0000000001
 40
0.0
 40
0.0
 40
0.0
 40
0.0
 40
0.2499999999999953
 40
0.2499999999999953
 40
0.4999999999999907
 40
0.4999999999999907
 40
1.0
 40
1.0
 40
1.0
 40
1.0
 10
849.4610611845549
 20
196.2674174862026
 30
0.0
 10
849.4610611845549
 20
196.2674174862026
 30
0.0
 10
849.43563944474
 20
196.2728210438094
 30
0.0
 10
849.337522853737
 20
196.2936763690358
 30
0.0
 10
849.2649144602134
 20
196.3091097595114
 30
0.0
 10
848.9943731735897
 20
196.366615085186
 30
0.0
 10
848.7410985222689
 20
196.420450274229
 30
0.0
 10
848.4827394208505
 20
196.4753661965025
 30
0.0
  0
ARC
  5
CB60
330
1F
100
AcDbEntity
  8
0
  6
Continuous
 62
     7
370
    15
100
AcDbCircle
 10
771.534877071878
 20
214.364650137556
 30
0.0
 40
79.99999999999999
100
AcDbArc
 50
95.77538821759038
 51
142.7470525724531
  0
SPLINE
  5
CB61
330
1F
100
AcDbEntity
  8
0
  6
Continuous
 62
     7
370
    15
100
AcDbSpline
210
0.0
220
0.0
230
1.0
 70
    24
 71
     3
 72
    10
 73
     6
 74
     0
 42
0.0000000001
 43
0.0000000001
 40
0.0
 40
0.0
 40
0.0
 40
0.0
 40
0.5
 40
0.5
 40
1.0
 40
1.0
 40
1.0
 40
1.0
 10
707.8572079712898
 20
262.7914449717795
 30
0.0
 10
707.8572079712898
 20
262.7914449717795
 30
0.0
 10
707.8793551332426
 20
262.7786583018643
 30
0.0
 10
707.9648058136886
 20
262.7293233285064
 30
0.0
 10
708.0273350117515
 20
262.6932220791724
 30
0.0
 10
708.1067716156216
 20
262.6473593345446
 30
0.0
  0
ARC
  5
CB62
330
1F
100
AcDbEntity
  8
0
  6
Continuous
 62
     7
370
    15
100
AcDbCircle
 10
771.534877071878
 20
214.364650137556
 30
0.0
 40
80.00000000000005
100
AcDbArc
 50
313.4248967053558
 51
324.2246117503224
  0
SPLINE
  5
CB63
330
1F
100
AcDbEntity
  8
0
  6
Continuous
 62
     7
370
    15
100
AcDbSpline
210
0.0
220
0.0
230
1.0
 70
    24
 71
     3
 72
    10
 73
     6
 74
     0
 42
0.0000000001
 43
0.0000000001
 40
0.0
 40
0.0
 40
0.0
 40
0.0
 40
0.5
 40
0.5
 40
1.0
 40
1.0
 40
1.0
 40
1.0
 10
826.5271301953145
 20
156.2625667290594
 30
0.0
 10
826.5271301953145
 20
156.2625667290594
 30
0.0
 10
826.4426906947026
 20
156.2669920157701
 30
0.0
 10
826.1849610160803
 20
156.2804990558822
 30
0.0
 10
826.0175870064182
 20
156.2892707560383
 30
0.0
 10
825.8360670393066
 20
156.2987838144101
 30
0.0
  0
SPLINE
  5
CB64
330
1F
100
AcDbEntity
  8
0
  6
Continuous
 62
     7
370
    15
100
AcDbSpline
210
0.0
220
0.0
230
1.0
 70
    24
 71
     3
 72
     8
 73
     4
 74
     0
 42
0.0000000001
 43
0.0000000001
 40
0.0
 40
0.0
 40
0.0
 40
0.0
 40
1.0
 40
1.0
 40
1.0
 40
1.0
 10
825.5013825947976
 20
156.6704885470002
 30
0.0
 10
825.6190524477778
 20
156.5398029356624
 30
0.0
 10
825.7341633458485
 20
156.4119593316717
 30
0.0
 10
825.8360670393065
 20
156.2987838144101
 30
0.0
  0
ARC
  5
CB65
330
1F
100
AcDbEntity
  8
0
  6
Continuous
 62
     7
370
    15
100
AcDbCircle
 10
771.534877071878
 20
214.364650137556
 30
0.0
 40
80.0
100
AcDbArc
 50
37.2529474275469
 51
84.22461175032013
  0
SPLINE
  5
CB66
330
1F
100
AcDbEntity
  8
0
  6
Continuous
 62
     7
370
    15
100
AcDbSpline
210
0.0
220
0.0
230
1.0
 70
    24
 71
     3
 72
    10
 73
     6
 74
     0
 42
0.0000000001
 43
0.0000000001
 40
0.0
 40
0.0
 40
0.0
 40
0.0
 40
0.5
 40
0.5
 40
1.0
 40
1.0
 40
1.0
 40
1.0
 10
834.9629825281354
 20
262.6473593345437
 30
0.0
 10
835.0424231633457
 20
262.6932244066669
 30
0.0
 10
835.1048038162829
 20
262.7292398934325
 30
0.0
 10
835.1903343271786
 20
262.7786209569221
 30
0.0
 10
835.2125461724671
 20
262.7914449717788
 30
0.0
 10
835.2125461724671
 20
262.7914449717788
 30
0.0
  0
ARC
  5
CB67
330
1F
100
AcDbEntity
  8
0
  6
Continuous
 62
     7
370
    15
100
AcDbCircle
 10
771.534877071878
 20
214.364650137556
 30
0.0
 40
80.00000000000001
100
AcDbArc
 50
193.0743588228603
 51
204.2246117503134
  0
SPLINE
  5
CB68
330
1F
100
AcDbEntity
  8
0
  6
Continuous
 62
     7
370
    15
100
AcDbSpline
210
0.0
220
0.0
230
1.0
 70
    24
 71
     3
 72
    12
 73
     8
 74
     0
 42
0.0000000001
 43
0.0000000001
 40
0.0
 40
0.0
 40
0.0
 40
0.0
 40
0.2500000000000047
 40
0.2500000000000047
 40
0.5000000000000095
 40
0.5000000000000095
 40
1.0
 40
1.0
 40
1.0
 40
1.0
 10
693.6086929592015
 20
196.2674174862026
 30
0.0
 10
693.6086929592015
 20
196.2674174862026
 30
0.0
 10
693.6341146990182
 20
196.2728210438096
 30
0.0
 10
693.7322312900269
 20
196.2936763690374
 30
0.0
 10
693.8048396835547
 20
196.3091097595139
 30
0.0
 10
694.075380970193
 20
196.3666150851915
 30
0.0
 10
694.3286556215266
 20
196.4204502742372
 30
0.0
 10
694.5870147229531
 20
196.4753661965125
 30
0.0
  0
ARC
  5
CB69
330
1F
100
AcDbEntity
  8
0
  6
Continuous
 62
     7
370
    15
100
AcDbCircle
 10
771.534877071878
 20
214.364650137556
 30
0.0
 40
79.99999999999997
100
AcDbArc
 50
157.2529474275424
 51
190.9256411771417
  0
SPLINE
  5
CB6A
330
1F
100
AcDbEntity
  8
0
  6
Continuous
 62
     7
370
    15
100
AcDbSpline
210
0.0
220
0.0
230
1.0
 70
    24
 71
     3
 72
    10
 73
     6
 74
     0
 42
0.0000000001
 43
0.0000000001
 40
0.0
 40
0.0
 40
0.0
 40
0.0
 40
0.5
 40
0.5
 40
1.0
 40
1.0
 40
1.0
 40
1.0
 10
698.0067716156216
 20
245.153646178099
 30
0.0
 10
697.9273309804113
 20
245.1995112502224
 30
0.0
 10
697.8649503274741
 20
245.2355267369878
 30
0.0
 10
697.7794198165784
 20
245.2849078004773
 30
0.0
 10
697.7572079712897
 20
245.2977318153341
 30
0.0
 10
697.7572079712897
 20
245.2977318153341
 30
0.0
  0
SPLINE
  5
CB6B
330
1F
100
AcDbEntity
  8
0
  6
Continuous
 62
     7
370
    15
100
AcDbSpline
210
0.0
220
0.0
230
1.0
 70
    24
 71
     3
 72
    12
 73
     8
 74
     0
 42
0.0000000001
 43
0.0000000001
 40
0.0
 40
0.0
 40
0.0
 40
0.0
 40
0.25
 40
0.25
 40
0.5
 40
0.5
 40
1.0
 40
1.0
 40
1.0
 40
1.0
 10
692.9849578867481
 20
199.2018602884046
 30
0.0
 10
692.9849578867481
 20
199.2018602884046
 30
0.0
 10
693.0103796265632
 20
199.2072638460114
 30
0.0
 10
693.1084962175662
 20
199.2281191712378
 30
0.0
 10
693.1811046110895
 20
199.2435525617135
 30
0.0
 10
693.4516458977134
 20
199.3010578873878
 30
0.0
 10
693.7049205490341
 20
199.3548930764308
 30
0.0
 10
693.9632796504526
 20
199.4098089987046
 30
0.0
  0
SPLINE
  5
CB6C
330
1F
100
AcDbEntity
  8
0
  6
Continuous
 62
     7
370
    15
100
AcDbSpline
210
0.0
220
0.0
230
1.0
 70
    24
 71
     3
 72
    10
 73
     6
 74
     0
 42
0.0000000001
 43
0.0000000001
 40
0.0
 40
0.0
 40
0.0
 40
0.0
 40
0.5
 40
0.5
 40
1.0
 40
1.0
 40
1.0
 40
1.0
 10
761.4348770718781
 20
135.0047736255552
 30
0.0
 10
761.4348770718781
 20
135.0047736255552
 30
0.0
 10
761.4348770718781
 20
135.0303469653858
 30
0.0
 10
761.4348770718781
 20
135.1290169121015
 30
0.0
 10
761.4348770718781
 20
135.2012194107693
 30
0.0
 10
761.4348770718781
 20
135.292944900025
 30
0.0
  0
ARC
  5
CB6D
330
1F
100
AcDbEntity
  8
0
  6
Continuous
 62
     7
370
    15
100
AcDbCircle
 10
771.534877071878
 20
214.364650137556
 30
0.0
 40
80.00000000000001
100
AcDbArc
 50
229.0743588228499
 51
262.7470525724588
  0
SPLINE
  5
CB6E
330
1F
100
AcDbEntity
  8
0
  6
Continuous
 62
     7
370
    15
100
AcDbSpline
210
0.0
220
0.0
230
1.0
 70
    24
 71
     3
 72
    12
 73
     8
 74
     0
 42
0.0000000001
 43
0.0000000001
 40
0.0
 40
0.0
 40
0.0
 40
0.0
 40
0.25
 40
0.25
 40
0.5
 40
0.5
 40
1.0
 40
1.0
 40
1.0
 40
1.0
 10
719.1285562777031
 20
153.9198195825944
 30
0.0
 10
719.1285562777031
 20
153.9198195825944
 30
0.0
 10
719.1459467657689
 20
153.9391336762793
 30
0.0
 10
719.2130663027206
 20
154.0136774740073
 30
0.0
 10
719.2627362077009
 20
154.0688414920888
 30
0.0
 10
719.4478079238999
 20
154.2743844562402
 30
0.0
 10
719.6210678908889
 20
154.4668091438972
 30
0.0
 10
719.7978060253594
 20
154.6630967278878
 30
0.0
  0
ARC
  5
CB6F
330
1F
100
AcDbEntity
  8
0
  6
Continuous
 62
     7
370
    15
100
AcDbCircle
 10
771.534877071878
 20
214.364650137556
 30
0.0
 40
80.00000000000001
100
AcDbArc
 50
349.0743588228583
 51
22.74705257245761
  0
SPLINE
  5
CB70
330
1F
100
AcDbEntity
  8
0
  6
Continuous
 62
     7
370
    15
100
AcDbSpline
210
0.0
220
0.0
230
1.0
 70
    24
 71
     3
 72
    10
 73
     6
 74
     0
 42
0.0000000001
 43
0.0000000001
 40
0.0
 40
0.0
 40
0.0
 40
0.0
 40
0.5
 40
0.5
 40
1.0
 40
1.0
 40
1.0
 40
1.0
 10
845.312546172467
 20
245.2977318153327
 30
0.0
 10
845.312546172467
 20
245.2977318153327
 30
0.0
 10
845.2903990105143
 20
245.2849451454178
 30
0.0
 10
845.2049483300683
 20
245.2356101720599
 30
0.0
 10
845.1424191320054
 20
245.1995089227259
 30
0.0
 10
845.0629825281353
 20
245.153646178098
 30
0.0
  0
SPLINE
  5
CB71
330
1F
100
AcDbEntity
  8
0
  6
Continuous
 62
     7
370
    15
100
AcDbSpline
210
0.0
220
0.0
230
1.0
 70
    24
 71
     3
 72
    12
 73
     8
 74
     0
 42
0.0000000001
 43
0.0000000001
 40
0.0
 40
0.0
 40
0.0
 40
0.0
 40
0.25
 40
0.25
 40
0.5
 40
0.5
 40
1.0
 40
1.0
 40
1.0
 40
1.0
 10
849.1064744933037
 20
199.4098089987046
 30
0.0
 10
849.2356544405401
 20
199.3823509532832
 30
0.0
 10
849.3624097754063
 20
199.3554082751308
 30
0.0
 10
849.5992475155452
 20
199.3050668594132
 30
0.0
 10
849.7077282144609
 20
199.2820085750442
 30
0.0
 10
849.9784669117868
 20
199.2244612884296
 30
0.0
 10
850.0847962570082
 20
199.2018602884046
 30
0.0
 10
850.0847962570082
 20
199.2018602884046
 30
0.0
  0
SPLINE
  5
CB72
330
1F
100
AcDbEntity
  8
0
  6
Continuous
 62
     7
370
    15
100
AcDbSpline
210
0.0
220
0.0
230
1.0
 70
    24
 71
     3
 72
    10
 73
     6
 74
     0
 42
0.0000000001
 43
0.0000000001
 40
0.0
 40
0.0
 40
0.0
 40
0.0
 40
0.5
 40
0.5
 40
1.0
 40
1.0
 40
1.0
 40
1.0
 10
823.570415477523
 20
153.600328839325
 30
0.0
 10
823.570415477523
 20
153.600328839325
 30
0.0
 10
823.574840764234
 20
153.684768339937
 30
0.0
 10
823.5883478043458
 20
153.9424980185594
 30
0.0
 10
823.5971195045019
 20
154.1098720282215
 30
0.0
 10
823.6066325628737
 20
154.2913919953331
 30
0.0
  0
ARC
  5
CB73
330
1F
100
AcDbEntity
  8
0
  6
Continuous
 62
     7
370
    15
100
AcDbCircle
 10
771.534877071878
 20
214.364650137556
 30
0.0
 40
80.00000000000001
100
AcDbArc
 50
277.252947427542
 51
310.5751032946428
  0
SPLINE
  5
CB74
330
1F
100
AcDbEntity
  8
0
  6
Continuous
 62
     7
370
    15
100
AcDbSpline
210
0.0
220
0.0
230
1.0
 70
    24
 71
     3
 72
    10
 73
     6
 74
     0
 42
0.0000000001
 43
0.0000000001
 40
0.0
 40
0.0
 40
0.0
 40
0.0
 40
0.5
 40
0.5
 40
1.0
 40
1.0
 40
1.0
 40
1.0
 10
781.6348770718782
 20
135.2929449000252
 30
0.0
 10
781.6348770718782
 20
135.2012147557785
 30
0.0
 10
781.6348770718782
 20
135.1291837822476
 30
0.0
 10
781.6348770718782
 20
135.0304216552685
 30
0.0
 10
781.6348770718782
 20
135.0047736255552
 30
0.0
 10
781.6348770718782
 20
135.0047736255552
 30
0.0
  0
SPLINE
  5
CB75
330
1F
100
AcDbEntity
  8
0
  6
Continuous
 62
     7
370
    15
100
AcDbSpline
210
0.0
220
0.0
230
1.0
 70
    24
 71
     3
 72
     8
 73
     4
 74
     0
 42
0.0000000001
 43
0.0000000001
 40
0.0
 40
0.0
 40
0.0
 40
0.0
 40
1.0
 40
1.0
 40
1.0
 40
1.0
 10
823.6066325628737
 20
154.2913919953331
 30
0.0
 10
823.5047287837746
 20
154.4045676077091
 30
0.0
 10
823.3896180259803
 20
154.5324110559069
 30
0.0
 10
823.271948118397
 20
154.6630967278878
 30
0.0
  0
ARC
  5
CB76
330
1F
100
AcDbEntity
  8
0
  6
Continuous
 62
     7
370
    15
100
AcDbCircle
 10
771.534877071878
 20
287.3646501375563
 30
0.0
 40
7.5
100
AcDbArc
 50
180.0
 51
0.0
  0
ARC
  5
CB77
330
1F
100
AcDbEntity
  8
0
  6
Continuous
 62
     7
370
    15
100
AcDbCircle
 10
834.7547315481419
 20
177.8646501375558
 30
0.0
 40
7.499999999999989
100
AcDbArc
 50
60.00000000000338
 51
240.0000000000027
  0
ARC
  5
CB78
330
1F
100
AcDbEntity
  8
0
  6
Continuous
 62
     7
370
    15
100
AcDbCircle
 10
708.3150225956138
 20
177.8646501375567
 30
0.0
 40
7.499999999999996
100
AcDbArc
 50
299.9999999999973
 51
119.9999999999965
  0
LINE
  5
CB79
330
1F
100
AcDbEntity
  8
0
  6
Continuous
 62
     7
370
    15
100
AcDbLine
 10
804.6136609731089
 20
245.1251718001064
 30
0.0
 11
814.7136643050085
 21
227.6314581529792
 31
0.0
  0
LINE
  5
CB7A
330
1F
100
AcDbEntity
  8
0
  6
Continuous
 62
     7
370
    15
100
AcDbLine
 10
781.6348764566551
 20
170.3485484020408
 30
0.0
 11
761.4348770106057
 21
170.3485484020408
 31
0.0
  0
LINE
  5
CB7B
330
1F
100
AcDbEntity
  8
0
  6
Continuous
 62
     7
370
    15
100
AcDbLine
 10
728.3265776453386
 20
227.6484976308044
 30
0.0
 11
738.4265791145931
 21
245.1422112779316
 31
0.0
  0
CIRCLE
  5
CB7C
330
1F
100
AcDbEntity
  8
0
  6
Continuous
 62
     7
370
    15
100
AcDbCircle
 10
836.9434629356627
 20
252.1283147933238
 30
0.0
 40
2.5
  0
LINE
  5
CB7D
330
1F
100
AcDbEntity
  8
0
  6
Continuous
 62
     7
370
    15
100
AcDbLine
 10
839.2546809730898
 20
265.1251713530716
 30
0.0
 11
835.2125472841631
 21
262.7914446191486
 31
0.0
  0
LINE
  5
CB7E
330
1F
100
AcDbEntity
  8
0
  6
Continuous
 62
     7
370
    15
100
AcDbLine
 10
849.3546805796992
 20
247.6314577059444
 30
0.0
 11
839.2546809730898
 21
265.1251713530716
 31
0.0
  0
LINE
  5
CB7F
330
1F
100
AcDbEntity
  8
0
  6
Continuous
 62
     7
370
    15
100
AcDbLine
 10
845.3125468907725
 20
245.2977309720214
 30
0.0
 11
849.3546805796992
 21
247.6314577059444
 31
0.0
  0
LINE
  5
CB80
330
1F
100
AcDbEntity
  8
0
  6
Continuous
 62
     7
370
    15
100
AcDbLine
 10
824.9652608750235
 20
256.8751695351299
 30
0.0
 11
835.0652567563425
 21
239.3814577506479
 31
0.0
  0
CIRCLE
  5
CB81
330
1F
100
AcDbEntity
  8
0
  6
Continuous
 62
     7
370
    15
100
AcDbCircle
 10
771.534877071878
 20
138.8485487826571
 30
0.0
 40
2.499999999999943
  0
LINE
  5
CB83
330
1F
100
AcDbEntity
  8
0
  6
Continuous
 62
     7
370
    15
100
AcDbLine
 10
760.4756925241868
 20
130.3485492961105
 30
0.0
 11
781.6348764566551
 21
130.3485492961105
 31
0.0
  0
LINE
  5
CB85
330
1F
100
AcDbEntity
  8
0
  6
Continuous
 62
     7
370
    15
100
AcDbLine
 10
781.6348764566551
 20
146.8485454814132
 30
0.0
 11
761.4348770106057
 21
146.8485454814132
 31
0.0
  0
CIRCLE
  5
CB86
330
1F
100
AcDbEntity
  8
0
  6
Continuous
 62
     7
370
    15
100
AcDbCircle
 10
706.096778532232
 20
252.1453539446786
 30
0.0
 40
2.5
  0
LINE
  5
CB87
330
1F
100
AcDbEntity
  8
0
  6
Continuous
 62
     7
370
    15
100
AcDbLine
 10
693.6855650959382
 20
247.6484971837696
 30
0.0
 11
697.7572105346093
 21
245.2977309720214
 31
0.0
  0
LINE
  5
CB88
330
1F
100
AcDbEntity
  8
0
  6
Continuous
 62
     7
370
    15
100
AcDbLine
 10
703.7855609772573
 20
265.1422108308967
 30
0.0
 11
693.6855650959382
 21
247.6484971837696
 31
0.0
  0
LINE
  5
CB89
330
1F
100
AcDbEntity
  8
0
  6
Continuous
 62
     7
370
    15
100
AcDbLine
 10
707.8572064159284
 20
262.7914446191486
 30
0.0
 11
703.7855609772573
 21
265.1422108308967
 31
0.0
  0
LINE
  5
CB8A
330
1F
100
AcDbEntity
  8
0
  6
Continuous
 62
     7
370
    15
100
AcDbLine
 10
707.9749814687143
 20
239.3984972284731
 30
0.0
 11
718.0749810753236
 21
256.8922090129551
 31
0.0
  0
CIRCLE
  5
CB8B
330
1F
100
AcDbEntity
  8
0
  6
Continuous
 62
     7
370
    15
100
AcDbCircle
 10
726.8813882230586
 20
240.1453539446784
 30
0.0
 40
2.5
  0
LINE
  5
CB8C
330
1F
100
AcDbEntity
  8
0
  6
Continuous
 62
     7
370
    15
100
AcDbLine
 10
714.9031832335363
 20
235.398496572822
 30
0.0
 11
725.0031865654359
 21
252.8922120825943
 31
0.0
  0
CIRCLE
  5
CB8D
330
1F
100
AcDbEntity
  8
0
  6
Continuous
 62
     7
370
    15
100
AcDbCircle
 10
816.1588532448359
 20
240.1283147933243
 30
0.0
 40
2.5
  0
LINE
  5
CB8E
330
1F
100
AcDbEntity
  8
0
  6
Continuous
 62
     7
370
    15
100
AcDbLine
 10
818.0370553849112
 20
252.8751726047691
 30
0.0
 11
828.1370587168108
 21
235.3814589576419
 31
0.0
  0
CIRCLE
  5
CB8F
330
1F
100
AcDbEntity
  8
0
  6
Continuous
 62
     7
370
    15
100
AcDbCircle
 10
771.534877071878
 20
162.8485487826569
 30
0.0
 40
2.5
  0
LINE
  5
CB90
330
1F
100
AcDbEntity
  8
0
  6
Continuous
 62
     7
370
    15
100
AcDbLine
 10
781.6348764566551
 20
154.8485505180057
 30
0.0
 11
761.4348770106057
 21
154.8485505180057
 31
0.0
  0
CIRCLE
  5
CB91
330
1F
100
AcDbEntity
  8
0
  6
Continuous
 62
     7
370
    15
100
AcDbCircle
 10
826.5823328508881
 20
246.0746395983385
 30
0.0
 40
3.000000000000014
  0
CIRCLE
  5
CB92
330
1F
100
AcDbEntity
  8
0
  6
Continuous
 62
     7
370
    15
100
AcDbCircle
 10
716.5199800797364
 20
246.1991896768415
 30
0.0
 40
3.0
  0
CIRCLE
  5
CB93
330
1F
100
AcDbEntity
  8
0
  6
Continuous
 62
     7
370
    15
100
AcDbCircle
 10
771.472805609148
 20
150.8483882454795
 30
0.0
 40
3.0
  0
LINE
  5
CB94
330
1F
100
AcDbEntity
  8
0
  6
Continuous
 62
     7
370
    15
100
AcDbLine
 10
781.8140610573659
 20
130.3485492961105
 30
0.0
 11
781.8140610573659
 21
135.0277821318802
 31
0.0
  0
LINE
  5
CB95
330
1F
100
AcDbEntity
  8
0
  6
Continuous
 62
     7
370
    15
100
AcDbLine
 10
781.8140610573659
 20
130.3485492961105
 30
0.0
 11
780.8548770366082
 21
130.3485492961105
 31
0.0
  0
LINE
  5
CB96
330
1F
100
AcDbEntity
  8
0
  6
Continuous
 62
     7
370
    15
100
AcDbLine
 10
761.2556924098949
 20
135.0277821318802
 30
0.0
 11
761.2556924098949
 21
130.3485492961105
 31
0.0
  0
LINE
  5
CB98
330
1F
100
AcDbEntity
  8
0
  6
Continuous
 62
     7
370
    15
100
AcDbLine
 10
693.5959718642602
 20
247.4933202163871
 30
0.0
 11
697.6875401554475
 21
245.1310465829071
 31
0.0
  0
LINE
  5
CB99
330
1F
100
AcDbEntity
  8
0
  6
Continuous
 62
     7
370
    15
100
AcDbLine
 10
693.5959718642602
 20
247.4933202163871
 30
0.0
 11
694.0755657372842
 21
248.3239966230091
 31
0.0
  0
LINE
  5
CB9A
330
1F
100
AcDbEntity
  8
0
  6
Continuous
 62
     7
370
    15
100
AcDbLine
 10
845.3822098193537
 20
245.1310465829071
 30
0.0
 11
849.4442738113772
 21
247.476280738562
 31
0.0
  0
LINE
  5
CB9B
330
1F
100
AcDbEntity
  8
0
  6
Continuous
 62
     7
370
    15
100
AcDbLine
 10
845.6813133774172
 20
244.4030652539428
 30
0.0
 11
849.8342744527231
 21
246.8007812993225
 31
0.0
  0
LINE
  5
CB9C
330
1F
100
AcDbEntity
  8
0
  6
Continuous
 62
     7
370
    15
100
AcDbLine
 10
849.8342744527231
 20
246.8007812993225
 30
0.0
 11
849.4442738113772
 21
247.476280738562
 31
0.0
  0
LINE
  5
CB9D
330
1F
100
AcDbEntity
  8
0
  6
Continuous
 62
     7
370
    15
100
AcDbLine
 10
829.3345830855738
 20
269.6746337012943
 30
0.0
 11
834.8046801505457
 21
272.8327969805893
 31
0.0
  0
LINE
  5
CB9E
330
1F
100
AcDbEntity
  8
0
  6
Continuous
 62
     7
370
    15
100
AcDbLine
 10
838.7750871000658
 20
265.9558514849838
 30
0.0
 11
834.6221260247599
 21
263.5581354396042
 31
0.0
  0
LINE
  5
CB9F
330
1F
100
AcDbEntity
  8
0
  6
Continuous
 62
     7
370
    15
100
AcDbLine
 10
834.8046801505457
 20
272.8327969805893
 30
0.0
 11
838.7750871000658
 21
265.9558514849838
 31
0.0
  0
LINE
  5
CBA0
330
1F
100
AcDbEntity
  8
0
  6
Continuous
 62
     7
370
    15
100
AcDbLine
 10
839.1650877414118
 20
265.280348320454
 30
0.0
 11
835.1030237493883
 21
262.9351178900894
 31
0.0
  0
LINE
  5
CBA1
330
1F
100
AcDbEntity
  8
0
  6
Continuous
 62
     7
370
    15
100
AcDbLine
 10
839.1650877414118
 20
265.280348320454
 30
0.0
 11
838.7750871000658
 21
265.9558514849838
 31
0.0
  0
LINE
  5
CBA2
330
1F
100
AcDbEntity
  8
0
  6
Continuous
 62
     7
370
    15
100
AcDbLine
 10
707.9667262254129
 20
262.9351178900894
 30
0.0
 11
703.8751542089353
 21
265.2973877982792
 31
0.0
  0
LINE
  5
CBA3
330
1F
100
AcDbEntity
  8
0
  6
Continuous
 62
     7
370
    15
100
AcDbLine
 10
708.4476276753316
 20
263.5581354396042
 30
0.0
 11
704.2651548502813
 21
265.9728872375187
 31
0.0
  0
LINE
  5
CBA4
330
1F
100
AcDbEntity
  8
0
  6
Continuous
 62
     7
370
    15
100
AcDbLine
 10
704.2651548502813
 20
265.9728872375187
 30
0.0
 11
703.8751542089353
 21
265.2973877982792
 31
0.0
  0
LINE
  5
CBA5
330
1F
100
AcDbEntity
  8
0
  6
Continuous
 62
     7
370
    15
100
AcDbLine
 10
849.4442738113772
 20
247.476280738562
 30
0.0
 11
848.9646799383532
 21
248.3069571451839
 31
0.0
  0
LINE
  5
CBA6
330
1F
100
AcDbEntity
  8
0
  6
Continuous
 62
     7
370
    15
100
AcDbLine
 10
694.7351730881105
 20
236.7656687991317
 30
0.0
 11
689.2355642733941
 21
239.9408715562519
 31
0.0
  0
LINE
  5
CBA7
330
1F
100
AcDbEntity
  8
0
  6
Continuous
 62
     7
370
    15
100
AcDbLine
 10
693.2059712229142
 20
246.8178207771476
 30
0.0
 11
697.3884440479646
 21
244.4030652539428
 31
0.0
  0
LINE
  5
CBA8
330
1F
100
AcDbEntity
  8
0
  6
Continuous
 62
     7
370
    15
100
AcDbLine
 10
689.2355642733941
 20
239.9408715562519
 30
0.0
 11
693.2059712229142
 21
246.8178207771476
 31
0.0
  0
LINE
  5
CBA9
330
1F
100
AcDbEntity
  8
0
  6
Continuous
 62
     7
370
    15
100
AcDbLine
 10
688.7355632601152
 20
239.0748458699878
 30
0.0
 11
694.4528407869706
 21
235.7739760325845
 31
0.0
  0
LINE
  5
CBAA
330
1F
100
AcDbEntity
  8
0
  6
Continuous
 62
     7
370
    15
100
AcDbLine
 10
689.2355642733941
 20
239.9408715562519
 30
0.0
 11
688.7355632601152
 21
239.0748458699878
 31
0.0
  0
LINE
  5
CBAB
330
1F
100
AcDbEntity
  8
0
  6
Continuous
 62
     7
370
    15
100
AcDbLine
 10
839.1650877414118
 20
265.280348320454
 30
0.0
 11
839.6446816144358
 21
264.4496719138321
 31
0.0
  0
LINE
  5
CBAC
330
1F
100
AcDbEntity
  8
0
  6
Continuous
 62
     7
370
    15
100
AcDbLine
 10
760.4756925241868
 20
135.1327459113296
 30
0.0
 11
760.4756925241868
 21
130.3485492961105
 31
0.0
  0
LINE
  5
CBAE
330
1F
100
AcDbEntity
  8
0
  6
Continuous
 62
     7
370
    15
100
AcDbLine
 10
693.5959718642602
 20
247.4933202163871
 30
0.0
 11
693.2059712229142
 21
246.8178207771476
 31
0.0
  0
LINE
  5
CBAF
330
1F
100
AcDbEntity
  8
0
  6
Continuous
 62
     7
370
    15
100
AcDbLine
 10
708.2355617998014
 20
272.8498364584144
 30
0.0
 11
713.735174339808
 21
269.6746337012943
 31
0.0
  0
LINE
  5
CBB0
330
1F
100
AcDbEntity
  8
0
  6
Continuous
 62
     7
370
    15
100
AcDbLine
 10
714.4528366146455
 20
270.41499044463
 30
0.0
 11
708.7355628130803
 21
273.7158621446785
 31
0.0
  0
LINE
  5
CBB1
330
1F
100
AcDbEntity
  8
0
  6
Continuous
 62
     7
370
    15
100
AcDbLine
 10
708.7355628130803
 20
273.7158621446785
 30
0.0
 11
708.2355617998014
 21
272.8498364584144
 31
0.0
  0
LINE
  5
CBB2
330
1F
100
AcDbEntity
  8
0
  6
Continuous
 62
     7
370
    15
100
AcDbLine
 10
704.2651548502813
 20
265.9728872375187
 30
0.0
 11
708.2355617998014
 21
272.8498364584144
 31
0.0
  0
LINE
  5
CBB3
330
1F
100
AcDbEntity
  8
0
  6
Continuous
 62
     7
370
    15
100
AcDbLine
 10
703.8751542089353
 20
265.2973877982792
 30
0.0
 11
703.3955640612016
 21
264.4667113916572
 31
0.0
  0
LINE
  5
CBB4
330
1F
100
AcDbEntity
  8
0
  6
Continuous
 62
     7
370
    15
100
AcDbLine
 10
782.5940623400579
 20
130.3485492961105
 30
0.0
 11
782.5940623400579
 21
135.1327459113296
 31
0.0
  0
LINE
  5
CBB5
330
1F
100
AcDbEntity
  8
0
  6
Continuous
 62
     7
370
    15
100
AcDbLine
 10
781.8140610573659
 20
130.3485492961105
 30
0.0
 11
782.5940623400579
 21
130.3485492961105
 31
0.0
  0
LINE
  5
CBB6
330
1F
100
AcDbEntity
  8
0
  6
Continuous
 62
     7
370
    15
100
AcDbLine
 10
752.5348774609933
 20
130.3485492961105
 30
0.0
 11
752.5348774609933
 21
136.6536478297409
 31
0.0
  0
LINE
  5
CBB7
330
1F
100
AcDbEntity
  8
0
  6
Continuous
 62
     7
370
    15
100
AcDbLine
 10
760.4756925241868
 20
130.3485492961105
 30
0.0
 11
752.5348774609933
 21
130.3485492961105
 31
0.0
  0
LINE
  5
CBB8
330
1F
100
AcDbEntity
  8
0
  6
Continuous
 62
     7
370
    15
100
AcDbLine
 10
791.5348764030109
 20
130.3485492961105
 30
0.0
 11
791.5348764030109
 21
136.9049857155975
 31
0.0
  0
LINE
  5
CBB9
330
1F
100
AcDbEntity
  8
0
  6
Continuous
 62
     7
370
    15
100
AcDbLine
 10
790.5348762390981
 20
136.6536478297409
 30
0.0
 11
790.5348762390981
 21
130.3485492961105
 31
0.0
  0
LINE
  5
CBBA
330
1F
100
AcDbEntity
  8
0
  6
Continuous
 62
     7
370
    15
100
AcDbLine
 10
790.5348762390981
 20
130.3485492961105
 30
0.0
 11
791.5348764030109
 21
130.3485492961105
 31
0.0
  0
LINE
  5
CBBB
330
1F
100
AcDbEntity
  8
0
  6
Continuous
 62
     7
370
    15
100
AcDbLine
 10
790.5348762390981
 20
130.3485492961105
 30
0.0
 11
782.5940623400579
 21
130.3485492961105
 31
0.0
  0
LINE
  5
CBBC
330
1F
100
AcDbEntity
  8
0
  6
Continuous
 62
     7
370
    15
100
AcDbLine
 10
751.5348772970805
 20
136.9049857155975
 30
0.0
 11
751.5348772970805
 21
130.3485492961105
 31
0.0
  0
LINE
  5
CBBD
330
1F
100
AcDbEntity
  8
0
  6
Continuous
 62
     7
370
    15
100
AcDbLine
 10
751.5348772970805
 20
130.3485492961105
 30
0.0
 11
752.5348774609933
 21
130.3485492961105
 31
0.0
  0
LINE
  5
CBBE
330
1F
100
AcDbEntity
  8
0
  6
Continuous
 62
     7
370
    15
100
AcDbLine
 10
834.3046791372668
 20
273.6988226668533
 30
0.0
 11
828.6169133601557
 21
270.41499044463
 31
0.0
  0
LINE
  5
CBBF
330
1F
100
AcDbEntity
  8
0
  6
Continuous
 62
     7
370
    15
100
AcDbLine
 10
834.8046801505457
 20
272.8327969805893
 30
0.0
 11
834.3046791372668
 21
273.6988226668533
 31
0.0
  0
LINE
  5
CBC0
330
1F
100
AcDbEntity
  8
0
  6
Continuous
 62
     7
370
    15
100
AcDbLine
 10
853.8046814022433
 20
239.9238320784267
 30
0.0
 11
848.3345768866907
 21
236.7656687991317
 31
0.0
  0
LINE
  5
CBC1
330
1F
100
AcDbEntity
  8
0
  6
Continuous
 62
     7
370
    15
100
AcDbLine
 10
848.6169166384112
 20
235.7739760325845
 30
0.0
 11
854.3046824155222
 21
239.0578063921627
 31
0.0
  0
LINE
  5
CBC2
330
1F
100
AcDbEntity
  8
0
  6
Continuous
 62
     7
370
    15
100
AcDbLine
 10
854.3046824155222
 20
239.0578063921627
 30
0.0
 11
853.8046814022433
 21
239.9238320784267
 31
0.0
  0
LINE
  5
CBC3
330
1F
100
AcDbEntity
  8
0
  6
Continuous
 62
     7
370
    15
100
AcDbLine
 10
849.8342744527231
 20
246.8007812993225
 30
0.0
 11
853.8046814022433
 21
239.9238320784267
 31
0.0
  0
CIRCLE
  5
CBC4
330
1F
100
AcDbEntity
  8
0
  6
Continuous
 62
     7
370
    15
100
AcDbCircle
 10
834.7547315481419
 20
177.8646501375558
 30
0.0
 40
4.25
  0
ARC
  5
CBC5
330
1F
100
AcDbEntity
  8
0
  6
Continuous
 62
     7
370
    15
100
AcDbCircle
 10
771.534877071878
 20
214.364650137556
 30
0.0
 40
80.00000000000003
100
AcDbArc
 50
324.2246117503224
 51
335.7753882496866
  0
CIRCLE
  5
CBC6
330
1F
100
AcDbEntity
  8
0
  6
Continuous
 62
     7
370
    15
100
AcDbCircle
 10
771.534877071878
 20
287.3646501375563
 30
0.0
 40
4.250000000000056
  0
ARC
  5
CBC7
330
1F
100
AcDbEntity
  8
0
  6
Continuous
 62
     7
370
    15
100
AcDbCircle
 10
771.534877071878
 20
214.364650137556
 30
0.0
 40
80.00000000000001
100
AcDbArc
 50
84.22461175032013
 51
95.77538824968071
  0
CIRCLE
  5
CBC8
330
1F
100
AcDbEntity
  8
0
  6
Continuous
 62
     7
370
    15
100
AcDbCircle
 10
708.3150225956138
 20
177.8646501375567
 30
0.0
 40
4.250000000000056
  0
ARC
  5
CBC9
330
1F
100
AcDbEntity
  8
0
  6
Continuous
 62
     7
370
    15
100
AcDbCircle
 10
771.534877071878
 20
214.364650137556
 30
0.0
 40
80.00000000000001
100
AcDbArc
 50
204.2246117503134
 51
215.7753882496776
  0
ENDSEC
  0
SECTION
  2
OBJECTS
  0
DICTIONARY
  5
C
330
0
100
AcDbDictionary
281
     1
  3
ACAD_COLOR
350
BE
  3
ACAD_GROUP
350
D
  3
ACAD_LAYOUT
350
1A
  3
ACAD_MATERIAL
350
BD
  3
ACAD_MLINESTYLE
350
17
  3
ACAD_PLOTSETTINGS
350
19
  3
ACAD_PLOTSTYLENAME
350
E
  3
ACAD_TABLESTYLE
350
11A
  3
AcadDim
350
7BA5
  3
ACDBHEADERROUNDTRIPXREC
350
CF74
  3
AcDbVariableDictionary
350
94
  3
AcmDictionary
350
5B
  3
AMG
350
41
  3
AMGSNAPSETTINGS
350
1B8
  3
ASE_INDEX_DICTIONARY
350
AFCA
  3
DWGPROPS
350
CF73
  3
MAPISURF_MODULE
350
7C9D
  0
DICTIONARY
  5
3F9
330
2
100
AcDbDictionary
280
     1
281
     1
  3
ACAD_LAYERFILTERS
360
99D5
  3
ACAD_LAYERSTATES
360
CA0
  3
ACLYDICTIONARY
360
99D4
  3
AMLAYER_GROUPCOLORS
360
18A7
  0
DICTIONARY
  5
8F
330
1F
100
AcDbDictionary
280
     1
281
     1
  3
ACAD_INDEX
360
B065
  3
ACAD_SORTENTS
360
18D9
  0
DICTIONARY
  5
7CF3
330
7CF2
100
AcDbDictionary
280
     1
281
     1
  0
DICTIONARY
  5
A58B
330
A57E
100
AcDbDictionary
280
     1
281
     1
  3
ACAD_DIMASSOC
360
A58C
  0
DICTIONARY
  5
BE
102
{ACAD_REACTORS
330
C
102
}
330
C
100
AcDbDictionary
281
     1
  0
DICTIONARY
  5
D
102
{ACAD_REACTORS
330
C
102
}
330
C
100
AcDbDictionary
281
     1
  0
DICTIONARY
  5
1A
102
{ACAD_REACTORS
330
C
102
}
330
C
100
AcDbDictionary
281
     1
  3
Model
350
22
  3
配置1
350
1E
  3
配置2
350
26
  0
DICTIONARY
  5
BD
102
{ACAD_REACTORS
330
C
102
}
330
C
100
AcDbDictionary
281
     1
  0
DICTIONARY
  5
17
102
{ACAD_REACTORS
330
C
102
}
330
C
100
AcDbDictionary
281
     1
  3
Standard
350
18
  0
DICTIONARY
  5
19
102
{ACAD_REACTORS
330
C
102
}
330
C
100
AcDbDictionary
281
     1
  0
ACDBDICTIONARYWDFLT
  5
E
102
{ACAD_REACTORS
330
C
102
}
330
C
100
AcDbDictionary
281
     1
  3
Normal
350
F
100
AcDbDictionaryWithDefault
340
F
  0
DICTIONARY
  5
11A
102
{ACAD_REACTORS
330
C
102
}
330
C
100
AcDbDictionary
281
     1
  3
Standard
350
11B
  0
XRECORD
  5
7BA5
102
{ACAD_REACTORS
330
C
102
}
330
C
100
AcDbXrecord
280
     1
 90
   990106
  3

 60
     4
 61
     0
 62
     4
 63
     4
 64
     1
 65
     0
 66
     0
 67
     3
 68
     0
 69
     0
 70
     0
 71
     0
 72
     0
 40
0.0
170
     0
340
7BA1
  0
DICTIONARY
  5
CF74
102
{ACAD_REACTORS
330
C
102
}
330
C
100
AcDbDictionary
281
     1
  0
DICTIONARY
  5
94
102
{ACAD_REACTORS
330
C
102
}
330
C
100
AcDbDictionary
281
     1
  3
CTABLESTYLE
350
138
  3
DIMASSOC
350
96
  3
INDEXCTL
350
95
  3
PROJECTNAME
350
1BA0
  0
DICTIONARY
  5
5B
102
{ACAD_REACTORS
330
C
102
}
330
C
100
AcDbDictionary
281
     1
  3
AcmBOM
350
1B5
  3
AcmStdDictionary
350
61
  3
AMDTSECTSYM_ARROWCOLOR
350
123
  0
DICTIONARY
  5
41
102
{ACAD_REACTORS
330
C
102
}
330
C
100
AcDbDictionary
281
     1
  3
AcMgSettings
350
7C17
  0
DICTIONARY
  5
1B8
102
{ACAD_REACTORS
330
C
102
}
330
C
100
AcDbDictionary
281
     1
  0
DICTIONARY
  5
AFCA
102
{ACAD_REACTORS
330
C
102
}
330
C
100
AcDbDictionary
281
     1
  3
ASEBlockHierarchyIndexRecord
350
AFCB
1001
DCO15
1040
1757073594.046
  0
XRECORD
  5
CF73
102
{ACAD_REACTORS
330
C
102
}
330
C
100
AcDbXrecord
280
     1
  1
DWGPROPS COOKIE
  2

  3

  4

  6

  7

  8

  9

300
AmdtFileType=84
301
=
302
=
303
=
304
=
305
=
306
=
307
=
308
=
309
=
 40
1.145600798611111
 41
2454422.344345151
 42
2456140.357442663
  1

 90
        1
  0
DICTIONARY
  5
99D5
102
{ACAD_REACTORS
330
3F9
102
}
330
3F9
100
AcDbDictionary
281
     1
  0
DICTIONARY
  5
CA0
102
{ACAD_REACTORS
330
3F9
102
}
330
3F9
100
AcDbDictionary
281
     1
  0
DICTIONARY
  5
99D4
102
{ACAD_REACTORS
330
3F9
102
}
330
3F9
100
AcDbDictionary
281
     1
1001
ACAD
1000
<All
  0
DICTIONARY
  5
18A7
102
{ACAD_REACTORS
330
3F9
102
}
330
3F9
100
AcDbDictionary
280
     1
281
     1
  0
DICTIONARY
  5
B065
102
{ACAD_REACTORS
330
8F
102
}
330
8F
100
AcDbDictionary
281
     1
  3
*A1
350
B066
  0
SORTENTSTABLE
  5
18D9
102
{ACAD_REACTORS
330
8F
102
}
330
8F
100
AcDbSortentsTable
330
1F
331
15F9
  5
15F9
331
15DB
  5
15DB
331
15BD
  5
15BD
331
159F
  5
159F
331
7BA1
  5
7BA1
331
15E5
  5
15E5
331
15AA
  5
15AA
331
15C8
  5
15C8
331
15D2
  5
15D2
331
15B4
  5
15B4
331
15F0
  5
15F0
331
15FA
  5
15FA
331
15DC
  5
15DC
331
15BE
  5
15BE
331
15A0
  5
15A0
331
15E6
  5
15E6
331
15AB
  5
15AB
331
15F1
  5
15F1
331
15FB
  5
15FB
331
15DD
  5
15DD
331
15BF
  5
15BF
331
15A1
  5
15A1
331
15E7
  5
15E7
331
15AC
  5
15AC
331
15E8
  5
15E8
331
15F2
  5
15F2
331
15DE
  5
15DE
331
15C0
  5
15C0
331
15A2
  5
15A2
331
15E9
  5
15E9
331
15AD
  5
15AD
331
15F3
  5
15F3
331
1599
  5
1599
331
15DF
  5
15DF
331
15A3
  5
15A3
331
15C1
  5
15C1
331
15EA
  5
15EA
331
15CC
  5
15CC
331
15AE
  5
15AE
331
15F4
  5
15F4
331
15D6
  5
15D6
331
15B8
  5
15B8
331
159A
  5
159A
331
15C2
  5
15C2
331
15A4
  5
15A4
331
15E0
  5
15E0
331
15EB
  5
15EB
331
15AF
  5
15AF
331
15F5
  5
15F5
331
15D7
  5
15D7
331
159B
  5
159B
331
15B9
  5
15B9
331
15C3
  5
15C3
331
15A5
  5
15A5
331
15E1
  5
15E1
331
15EC
  5
15EC
331
15B0
  5
15B0
331
15F6
  5
15F6
331
159C
  5
159C
331
15D8
  5
15D8
331
15E2
  5
15E2
331
15C4
  5
15C4
331
15A6
  5
15A6
331
15ED
  5
15ED
331
15F7
  5
15F7
331
159D
  5
159D
331
15D9
  5
15D9
331
15E3
  5
15E3
331
15A7
  5
15A7
331
15A8
  5
15A8
331
15EE
  5
15EE
331
15D0
  5
15D0
331
15DA
  5
15DA
331
159E
  5
159E
331
15F8
  5
15F8
331
15E4
  5
15E4
331
15A9
  5
15A9
331
15D1
  5
15D1
  0
DIMASSOC
  5
A58C
102
{ACAD_REACTORS
330
A58B
102
}
330
A58B
100
AcDbDimAssoc
330
A57E
 90
        1
 70
     0
 71
     0
  1
AcDbOsnapPointRef
 72
     1
331
99DA
 73
     0
 91
        0
 40
0.0
 10
0.0
 20
0.0
 30
2.000000000000000E+50
 75
     0
  0
LAYOUT
  5
22
102
{ACAD_XDICTIONARY
360
CF77
102
}
102
{ACAD_REACTORS
330
1A
102
}
330
1A
100
AcDbPlotSettings
  1

  2
\\RD\EPSON Stylus C63 Series單色
  4
A4
  6

 40
3.757083177566528
 41
3.757076978683471
 42
3.757080078125
 43
3.757080078125
 44
209.9733276367187
 45
296.9683227539062
 46
0.0
 47
0.0
 48
0.0
 49
0.0
140
0.0
141
0.0
142
1.0
143
0.3405120737814363
 70
 11952
 72
     1
 73
     0
 74
     0
  7
acad.ctb
 75
     0
147
2.936753428137963
148
-2047.07469463503
149
-1261.649717473083
100
AcDbLayout
  1
Model
 70
     1
 71
     0
 10
0.0
 20
0.0
 11
12.0
 21
9.0
 12
0.0
 22
0.0
 32
0.0
 14
0.0
 24
0.0
 34
0.0
 15
0.0
 25
0.0
 35
0.0
146
0.0
 13
0.0
 23
0.0
 33
0.0
 16
1.0
 26
0.0
 36
0.0
 17
0.0
 27
1.0
 37
0.0
 76
     0
330
1F
1001
ACAD_PSEXT
1000
\\RD\EPSON Stylus C63 Series單色
1000
EPSON Stylus C63 Series
1000
\\RD
1000

1070
     0
  0
LAYOUT
  5
1E
102
{ACAD_XDICTIONARY
360
CF75
102
}
102
{ACAD_REACTORS
330
1A
102
}
330
1A
100
AcDbPlotSettings
  1

  2

  4

  6

 40
0.0
 41
0.0
 42
0.0
 43
0.0
 44
0.0
 45
0.0
 46
0.0
 47
0.0
 48
0.0
 49
0.0
140
0.0
141
0.0
142
1.0
143
1.0
 70
   688
 72
     0
 73
     0
 74
     5
  7
acad.ctb
 75
    16
147
1.0
148
0.0
149
0.0
100
AcDbLayout
  1
配置1
 70
     1
 71
     1
 10
0.0
 20
0.0
 11
420.0
 21
297.0
 12
0.0
 22
0.0
 32
0.0
 14
1.000000000000000E+20
 24
1.000000000000000E+20
 34
1.000000000000000E+20
 15
-1.000000000000000E+20
 25
-1.000000000000000E+20
 35
-1.000000000000000E+20
146
0.0
 13
0.0
 23
0.0
 33
0.0
 16
1.0
 26
0.0
 36
0.0
 17
0.0
 27
1.0
 37
0.0
 76
     0
330
1B
  0
LAYOUT
  5
26
102
{ACAD_XDICTIONARY
360
CF79
102
}
102
{ACAD_REACTORS
330
1A
102
}
330
1A
100
AcDbPlotSettings
  1

  2

  4

  6

 40
0.0
 41
0.0
 42
0.0
 43
0.0
 44
0.0
 45
0.0
 46
0.0
 47
0.0
 48
0.0
 49
0.0
140
0.0
141
0.0
142
1.0
143
1.0
 70
   688
 72
     0
 73
     0
 74
     5
  7
acad.ctb
 75
    16
147
1.0
148
0.0
149
0.0
100
AcDbLayout
  1
配置2
 70
     1
 71
     2
 10
0.0
 20
0.0
 11
12.0
 21
9.0
 12
0.0
 22
0.0
 32
0.0
 14
0.0
 24
0.0
 34
0.0
 15
0.0
 25
0.0
 35
0.0
146
0.0
 13
0.0
 23
0.0
 33
0.0
 16
1.0
 26
0.0
 36
0.0
 17
0.0
 27
1.0
 37
0.0
 76
     0
330
23
  0
MLINESTYLE
  5
18
102
{ACAD_REACTORS
330
17
102
}
330
17
100
AcDbMlineStyle
  2
STANDARD
 70
     0
  3

 62
   256
 51
90.0
 52
90.0
 71
     2
 49
0.5
 62
   256
  6
BYLAYER
 49
-0.5
 62
   256
  6
BYLAYER
  0
ACDBPLACEHOLDER
  5
F
102
{ACAD_REACTORS
330
E
102
}
330
E
  0
TABLESTYLE
  5
11B
102
{ACAD_REACTORS
330
11A
102
}
330
11A
100
AcDbTableStyle
  3
Standard
 70
     0
 71
     0
 40
1.5
 41
1.5
280
     0
281
     0
  7
STANDARD
140
4.5
170
     2
 62
     0
 63
     7
283
     0
274
    -2
284
     1
 64
     0
275
    -2
285
     1
 65
     0
276
    -2
286
     1
 66
     0
277
    -2
287
     1
 67
     0
278
    -2
288
     1
 68
     0
279
    -2
289
     1
 69
     0
  7
STANDARD
140
6.0
170
     5
 62
     0
 63
     7
283
     0
274
    -2
284
     1
 64
     0
275
    -2
285
     1
 65
     0
276
    -2
286
     1
 66
     0
277
    -2
287
     1
 67
     0
278
    -2
288
     1
 68
     0
279
    -2
289
     1
 69
     0
  7
STANDARD
140
4.5
170
     5
 62
     0
 63
     7
283
     0
274
    -2
284
     1
 64
     0
275
    -2
285
     1
 65
     0
276
    -2
286
     1
 66
     0
277
    -2
287
     1
 67
     0
278
    -2
288
     1
 68
     0
279
    -2
289
     1
 69
     0
  0
DICTIONARYVAR
  5
138
102
{ACAD_REACTORS
330
94
102
}
330
94
100
DictionaryVariables
280
     0
  1
STANDARD
  0
DICTIONARYVAR
  5
96
102
{ACAD_REACTORS
330
94
102
}
330
94
100
DictionaryVariables
280
     0
  1
2
  0
DICTIONARYVAR
  5
95
102
{ACAD_REACTORS
330
94
102
}
330
94
100
DictionaryVariables
280
     0
  1
1
  0
DICTIONARYVAR
  5
1BA0
102
{ACAD_REACTORS
330
94
102
}
330
94
100
DictionaryVariables
280
     0
  1

  0
DICTIONARY
  5
1B5
102
{ACAD_REACTORS
330
5B
102
}
330
5B
100
AcDbDictionary
281
     1
  0
DICTIONARY
  5
61
102
{ACAD_REACTORS
330
5B
102
}
330
5B
100
AcDbDictionary
281
     1
  0
XRECORD
  5
123
102
{ACAD_REACTORS
330
5B
102
}
330
5B
100
AcDbXrecord
280
     1
 90
-1023410169
  0
DICTIONARY
  5
7C17
102
{ACAD_REACTORS
330
41
102
}
330
41
100
AcDbDictionary
281
     1
  3
DWGSETTINGS
350
7C18
  3
Shaft
350
8D15
  3
TRANSSETTINGS
350
7C1B
  0
XRECORD
  5
AFCB
102
{ACAD_REACTORS
330
AFCA
102
}
330
AFCA
100
AcDbXrecord
280
     1
330
0
330
0
330
0
330
0
330
0
330
0
330
0
330
0
330
0
330
0
330
0
330
0
330
0
330
0
330
0
330
0
330
0
330
0
330
0
330
0
330
0
330
0
330
0
330
0
330
0
330
0
330
0
330
0
330
0
330
0
330
0
330
0
330
0
330
0
330
0
330
0
330
0
330
0
330
0
330
0
330
0
330
0
330
0
330
0
330
0
  0
LAYER_INDEX
  5
B066
102
{ACAD_REACTORS
330
B065
102
}
330
B065
100
AcDbIndex
 40
2456140.357442663
100
AcDbLayerIndex
  8
0
360
CF64
 90
      366
  8
Defpoints
360
CF65
 90
        0
  8
AM_5
360
CF66
 90
        0
  8
AM_4
360
CF67
 90
        0
  8
AM_VIS
360
CF68
 90
        1
  8
AM_HID
360
CF69
 90
        0
  8
AM_7
360
CF6A
 90
        2
  8
LOGO
360
CF6B
 90
       90
  8
AM_REFDIM
360
CF6C
 90
       15
  8
CEN
360
CF6D
 90
        0
  8
HATCH
360
CF6E
 90
        0
  8
SL
360
CF6F
 90
        0
  8
AM_10
360
CF70
 90
        0
  0
DICTIONARY
  5
CF77
330
22
100
AcDbDictionary
280
     1
281
     1
  3
ACAD_XREC_ROUNDTRIP
360
CF78
  0
DICTIONARY
  5
CF75
330
1E
100
AcDbDictionary
280
     1
281
     1
  3
ACAD_XREC_ROUNDTRIP
360
CF76
  0
DICTIONARY
  5
CF79
330
26
100
AcDbDictionary
280
     1
281
     1
  3
ACAD_XREC_ROUNDTRIP
360
CF7A
  0
IDBUFFER
  5
CF64
330
0
100
AcDbIdBuffer
330
CB48
330
CB49
330
CB4A
330
CB4B
330
CB4C
330
CB4D
330
CB4E
330
CB4F
330
CB50
330
CB51
330
CB52
330
CB53
330
CB54
330
CB55
330
CB56
330
CB57
330
CB58
330
CB59
330
CB5A
330
CB5B
330
CB5C
330
CB5D
330
CB5E
330
CB5F
330
CB60
330
CB61
330
CB62
330
CB63
330
CB64
330
CB65
330
CB66
330
CB67
330
CB68
330
CB69
330
CB6A
330
CB6B
330
CB6C
330
CB6D
330
CB6E
330
CB6F
330
CB70
330
CB71
330
CB72
330
CB73
330
CB74
330
CB75
330
CB76
330
CB77
330
CB78
330
CB79
330
CB7A
330
CB7B
330
CB7C
330
CB7D
330
CB7E
330
CB7F
330
CB80
330
CB81
330
CB83
330
CB85
330
CB86
330
CB87
330
CB88
330
CB89
330
CB8A
330
CB8B
330
CB8C
330
CB8D
330
CB8E
330
CB8F
330
CB90
330
CB91
330
CB92
330
CB93
330
CB94
330
CB95
330
CB96
330
CB98
330
CB99
330
CB9A
330
CB9B
330
CB9C
330
CB9D
330
CB9E
330
CB9F
330
CBA0
330
CBA1
330
CBA2
330
CBA3
330
CBA4
330
CBA5
330
CBA6
330
CBA7
330
CBA8
330
CBA9
330
CBAA
330
CBAB
330
CBAC
330
CBAE
330
CBAF
330
CBB0
330
CBB1
330
CBB2
330
CBB3
330
CBB4
330
CBB5
330
CBB6
330
CBB7
330
CBB8
330
CBB9
330
CBBA
330
CBBB
330
CBBC
330
CBBD
330
CBBE
330
CBBF
330
CBC0
330
CBC1
330
CBC2
330
CBC3
330
CBC4
330
CBC5
330
CBC6
330
CBC7
330
CBC8
330
CBC9
330
16B4
330
16B5
330
16B6
330
CA38
330
CA39
330
CA3A
330
CA3B
330
CA3C
330
CA3D
330
CA3E
330
CA3F
330
CA40
330
CA41
330
CA42
330
CA43
330
CA44
330
CA45
330
CA46
330
CA47
330
CA48
330
CA49
330
CA4A
330
CA4B
330
CA4C
330
CA4D
330
CA4E
330
CA4F
330
CA50
330
CA51
330
CA52
330
CA53
330
CA54
330
CA55
330
CA56
330
CA57
330
CA58
330
CA59
330
CA5A
330
CA5B
330
CA5C
330
CA5D
330
CA5E
330
CA5F
330
CA60
330
CA61
330
CA62
330
CA63
330
CA64
330
CA65
330
CA66
330
CA67
330
CA68
330
CA69
330
CA6A
330
CA6B
330
CA6C
330
CA6D
330
CA6E
330
CA6F
330
CA70
330
CA71
330
CA72
330
CA73
330
CA74
330
CA75
330
CA87
330
CA88
330
CA9B
330
CA9C
330
CA9D
330
CA9E
330
CA9F
330
CAA0
330
CAA1
330
CAA2
330
CAA3
330
CAA4
330
CAA5
330
CAA6
330
CAA7
330
CAA8
330
CAA9
330
CAAA
330
CAAB
330
CAAC
330
CAAD
330
CAAE
330
CAAF
330
CAB0
330
CAB1
330
CAB2
330
CAB3
330
CAB4
330
CAB5
330
CAB6
330
CAB7
330
CAB8
330
CAB9
330
CABA
330
CABB
330
CABC
330
CABD
330
CABE
330
CABF
330
CAC0
330
CAC1
330
CAC2
330
CAC3
330
CAC4
330
CAC5
330
CAC6
330
CAC7
330
CAC8
330
CAC9
330
CACA
330
CACB
330
CACC
330
CACD
330
CACE
330
CACF
330
CAD0
330
CAD1
330
CAD2
330
CAD3
330
CAD4
330
CAD5
330
CAD6
330
CAD7
330
CAD8
330
CAD9
330
CADA
330
CADB
330
CADC
330
CADD
330
CADE
330
CADF
330
CAE0
330
CAE1
330
CAE2
330
CAE3
330
CAE4
330
CAE5
330
CAE6
330
CAE7
330
CAE8
330
CAE9
330
CAEA
330
CAEB
330
CAEC
330
CAED
330
CAEE
330
CAEF
330
CAF0
330
CAF1
330
CAF2
330
CAF3
330
CAF4
330
CAF5
330
CAF6
330
CAF7
330
CAF8
330
CAF9
330
CAFA
330
CAFB
330
CAFC
330
CAFD
330
CAFE
330
CAFF
330
CB00
330
CB01
330
CB02
330
CB03
330
CB04
330
CB05
330
CB06
330
CB07
330
CB08
330
CB09
330
CB0A
330
CB0B
330
CB0C
330
CB0D
330
CB0E
330
CB0F
330
CB10
330
CB11
330
CB12
330
CB13
330
CB14
330
CB15
330
CB16
330
CB17
330
CB18
330
CB19
330
CB1A
330
CB1B
330
CB1C
330
CB1D
330
CB1E
330
CB1F
330
CB20
330
CB21
330
CB22
330
CB23
330
CB24
330
CB25
330
CB26
330
CB27
330
CB28
330
CB29
330
CB2A
330
CB2B
330
CB2C
330
CB2D
330
CB2E
330
CB2F
330
CB30
330
CB31
330
CB32
330
CB33
330
CB34
330
CB35
330
CB36
330
CB37
330
CB38
330
CB39
330
CB3A
330
CB3B
330
CB3C
330
CB3D
330
CB3E
330
CB3F
330
CB40
330
CB41
330
CB42
330
CB43
330
CB44
330
CB45
330
CB46
330
CB47
  0
IDBUFFER
  5
CF65
330
0
100
AcDbIdBuffer
  0
IDBUFFER
  5
CF66
330
0
100
AcDbIdBuffer
  0
IDBUFFER
  5
CF67
330
0
100
AcDbIdBuffer
  0
IDBUFFER
  5
CF68
330
0
100
AcDbIdBuffer
330
7BA1
  0
IDBUFFER
  5
CF69
330
0
100
AcDbIdBuffer
  0
IDBUFFER
  5
CF6A
330
0
100
AcDbIdBuffer
330
99DA
330
99DB
  0
IDBUFFER
  5
CF6B
330
0
100
AcDbIdBuffer
330
15DE
330
15DF
330
15E0
330
15E1
330
15E2
330
15E3
330
15E4
330
15E5
330
15E6
330
15E7
330
15E8
330
15E9
330
15EA
330
15EB
330
15EC
330
15ED
330
15EE
330
15F0
330
15F1
330
15F2
330
15F3
330
15F4
330
15F5
330
15F6
330
15F7
330
15F8
330
15F9
330
15FA
330
15FB
330
9C94
330
9C95
330
9C96
330
9C97
330
9C98
330
9C99
330
9C9A
330
9C9B
330
9C9C
330
9C9E
330
9C9F
330
9CA0
330
9CA2
330
1599
330
159A
330
159B
330
159C
330
159D
330
159E
330
159F
330
15A0
330
15A1
330
15A2
330
15A3
330
15A4
330
15A5
330
15A6
330
15A7
330
15A8
330
15A9
330
15AA
330
15AB
330
15AC
330
15AD
330
15AE
330
15AF
330
15B0
330
15B4
330
15B8
330
15B9
330
15BD
330
15BE
330
15BF
330
15C0
330
15C1
330
15C2
330
15C3
330
15C4
330
15C8
330
15CC
330
15D0
330
15D1
330
15D2
330
15D6
330
15D7
330
15D8
330
15D9
330
15DA
330
15DB
330
15DC
330
15DD
  0
IDBUFFER
  5
CF6C
330
0
100
AcDbIdBuffer
330
A516
330
A540
330
A57E
330
A622
330
A67B
330
A6A1
330
A724
330
A77B
330
A7A5
330
A7CB
330
A889
330
A88C
330
A890
330
A895
330
B250
  0
IDBUFFER
  5
CF6D
330
0
100
AcDbIdBuffer
  0
IDBUFFER
  5
CF6E
330
0
100
AcDbIdBuffer
  0
IDBUFFER
  5
CF6F
330
0
100
AcDbIdBuffer
  0
IDBUFFER
  5
CF70
330
0
100
AcDbIdBuffer
  0
XRECORD
  5
CF78
102
{ACAD_REACTORS
330
CF77
102
}
330
CF77
100
AcDbXrecord
280
     1
102
SHADEPLOT
 70
     0
102
SHADEPLOTRESLEVEL
 70
     2
102
SHADEPLOTCUSTOMDPI
 70
   300
  0
XRECORD
  5
CF76
102
{ACAD_REACTORS
330
CF75
102
}
330
CF75
100
AcDbXrecord
280
     1
102
SHADEPLOT
 70
     0
102
SHADEPLOTRESLEVEL
 70
     2
102
SHADEPLOTCUSTOMDPI
 70
   300
  0
XRECORD
  5
CF7A
102
{ACAD_REACTORS
330
CF79
102
}
330
CF79
100
AcDbXrecord
280
     1
102
SHADEPLOT
 70
     0
102
SHADEPLOTRESLEVEL
 70
     2
102
SHADEPLOTCUSTOMDPI
 70
   300
  0
ENDSEC
  0
EOF
