  0
SECTION
  2
HEADER
  9
$ACADVER
  1
AC1015
  9
$ACADMAINTVER
 70
    20
  9
$DWGCODEPAGE
  3
ANSI_950
  9
$INSBASE
 10
0.0
 20
0.0
 30
0.0
  9
$EXTMIN
 10
636.5888285060369
 20
48.23459876290759
 30
0.0
  9
$EXTMAX
 10
945.4852049033361
 20
253.988729737025
 30
173.111948186657
  9
$LIMMIN
 10
0.0
 20
0.0
  9
$LIMMAX
 10
420.0
 20
297.0
  9
$ORTHOMODE
 70
     0
  9
$REGENMODE
 70
     1
  9
$FILLMODE
 70
     1
  9
$QTEXTMODE
 70
     0
  9
$MIRRTEXT
 70
     1
  9
$LTSCALE
 40
1.0
  9
$ATTMODE
 70
     1
  9
$TEXTSIZE
 40
3.0
  9
$TRACEWID
 40
1.0
  9
$TEXTSTYLE
  7
STANDARD
  9
$CLAYER
  8
AM_REFDIM
  9
$CELTYPE
  6
ByLayer
  9
$CECOLOR
 62
   256
  9
$CELTSCALE
 40
1.0
  9
$DISPSILH
 70
     0
  9
$DIMSCALE
 40
1.0
  9
$DIMASZ
 40
3.5
  9
$DIMEXO
 40
1.0
  9
$DIMDLI
 40
12.0
  9
$DIMRND
 40
0.0
  9
$DIMDLE
 40
0.0
  9
$DIMEXE
 40
1.0
  9
$DIMTP
 40
0.1
  9
$DIMTM
 40
0.1
  9
$DIMTXT
 40
3.5
  9
$DIMCEN
 40
0.0
  9
$DIMTSZ
 40
0.0
  9
$DIMTOL
 70
     0
  9
$DIMLIM
 70
     0
  9
$DIMTIH
 70
     0
  9
$DIMTOH
 70
     0
  9
$DIMSE1
 70
     0
  9
$DIMSE2
 70
     0
  9
$DIMTAD
 70
     1
  9
$DIMZIN
 70
     8
  9
$DIMBLK
  1

  9
$DIMASO
 70
     1
  9
$DIMSHO
 70
     1
  9
$DIMPOST
  1

  9
$DIMAPOST
  1
"
  9
$DIMALT
 70
     0
  9
$DIMALTD
 70
     2
  9
$DIMALTF
 40
0.0393701
  9
$DIMLFAC
 40
1.0
  9
$DIMTOFL
 70
     1
  9
$DIMTVP
 40
0.0
  9
$DIMTIX
 70
     0
  9
$DIMSOXD
 70
     0
  9
$DIMSAH
 70
     0
  9
$DIMBLK1
  1

  9
$DIMBLK2
  1

  9
$DIMSTYLE
  2
AM_ISO
  9
$DIMCLRD
 70
   256
  9
$DIMCLRE
 70
   256
  9
$DIMCLRT
 70
   256
  9
$DIMTFAC
 40
0.6
  9
$DIMGAP
 40
1.0
  9
$DIMJUST
 70
     0
  9
$DIMSD1
 70
     0
  9
$DIMSD2
 70
     0
  9
$DIMTOLJ
 70
     0
  9
$DIMTZIN
 70
     8
  9
$DIMALTZ
 70
     0
  9
$DIMALTTZ
 70
     0
  9
$DIMUPT
 70
     0
  9
$DIMDEC
 70
     0
  9
$DIMTDEC
 70
     8
  9
$DIMALTU
 70
     2
  9
$DIMALTTD
 70
     2
  9
$DIMTXSTY
  7
STANDARD
  9
$DIMAUNIT
 70
     0
  9
$DIMADEC
 70
     0
  9
$DIMALTRND
 40
0.0
  9
$DIMAZIN
 70
     2
  9
$DIMDSEP
 70
    46
  9
$DIMATFIT
 70
     3
  9
$DIMFRAC
 70
     0
  9
$DIMLDRBLK
  1

  9
$DIMLUNIT
 70
     2
  9
$DIMLWD
 70
    -1
  9
$DIMLWE
 70
    -1
  9
$DIMTMOVE
 70
     0
  9
$LUNITS
 70
     2
  9
$LUPREC
 70
     2
  9
$SKETCHINC
 40
1.0
  9
$FILLETRAD
 40
2.5
  9
$AUNITS
 70
     0
  9
$AUPREC
 70
     0
  9
$MENU
  1
.
  9
$ELEVATION
 40
0.0
  9
$PELEVATION
 40
0.0
  9
$THICKNESS
 40
0.0
  9
$LIMCHECK
 70
     0
  9
$CHAMFERA
 40
0.2
  9
$CHAMFERB
 40
0.2
  9
$CHAMFERC
 40
20.0
  9
$CHAMFERD
 40
0.0
  9
$SKPOLY
 70
     0
  9
$TDCREATE
 40
2454422.344345151
  9
$TDUCREATE
 40
2454422.011011817
  9
$TDUPDATE
 40
2456140.358131690
  9
$TDUUPDATE
 40
2456140.024798357
  9
$TDINDWG
 40
1.1304864931
  9
$TDUSRTIMER
 40
1.1304864931
  9
$USRTIMER
 70
     1
  9
$ANGBASE
 50
0.0
  9
$ANGDIR
 70
     0
  9
$PDMODE
 70
     0
  9
$PDSIZE
 40
0.0
  9
$PLINEWID
 40
0.0
  9
$SPLFRAME
 70
     0
  9
$SPLINETYPE
 70
     6
  9
$SPLINESEGS
 70
     8
  9
$HANDSEED
  5
C84E
  9
$SURFTAB1
 70
     6
  9
$SURFTAB2
 70
     6
  9
$SURFTYPE
 70
     6
  9
$SURFU
 70
     6
  9
$SURFV
 70
     6
  9
$UCSBASE
  2

  9
$UCSNAME
  2

  9
$UCSORG
 10
0.0
 20
0.0
 30
0.0
  9
$UCSXDIR
 10
1.0
 20
0.0
 30
0.0
  9
$UCSYDIR
 10
0.0
 20
1.0
 30
0.0
  9
$UCSORTHOREF
  2

  9
$UCSORTHOVIEW
 70
     0
  9
$UCSORGTOP
 10
0.0
 20
0.0
 30
0.0
  9
$UCSORGBOTTOM
 10
0.0
 20
0.0
 30
0.0
  9
$UCSORGLEFT
 10
0.0
 20
0.0
 30
0.0
  9
$UCSORGRIGHT
 10
0.0
 20
0.0
 30
0.0
  9
$UCSORGFRONT
 10
0.0
 20
0.0
 30
0.0
  9
$UCSORGBACK
 10
0.0
 20
0.0
 30
0.0
  9
$PUCSBASE
  2

  9
$PUCSNAME
  2

  9
$PUCSORG
 10
0.0
 20
0.0
 30
0.0
  9
$PUCSXDIR
 10
1.0
 20
0.0
 30
0.0
  9
$PUCSYDIR
 10
0.0
 20
1.0
 30
0.0
  9
$PUCSORTHOREF
  2

  9
$PUCSORTHOVIEW
 70
     0
  9
$PUCSORGTOP
 10
0.0
 20
0.0
 30
0.0
  9
$PUCSORGBOTTOM
 10
0.0
 20
0.0
 30
0.0
  9
$PUCSORGLEFT
 10
0.0
 20
0.0
 30
0.0
  9
$PUCSORGRIGHT
 10
0.0
 20
0.0
 30
0.0
  9
$PUCSORGFRONT
 10
0.0
 20
0.0
 30
0.0
  9
$PUCSORGBACK
 10
0.0
 20
0.0
 30
0.0
  9
$USERI1
 70
     0
  9
$USERI2
 70
     0
  9
$USERI3
 70
     0
  9
$USERI4
 70
     0
  9
$USERI5
 70
     0
  9
$USERR1
 40
0.0
  9
$USERR2
 40
0.0
  9
$USERR3
 40
0.0
  9
$USERR4
 40
0.0
  9
$USERR5
 40
0.0
  9
$WORLDVIEW
 70
     1
  9
$SHADEDGE
 70
     3
  9
$SHADEDIF
 70
    70
  9
$TILEMODE
 70
     1
  9
$MAXACTVP
 70
    64
  9
$PINSBASE
 10
0.0
 20
0.0
 30
0.0
  9
$PLIMCHECK
 70
     0
  9
$PEXTMIN
 10
1.000000000000000E+20
 20
1.000000000000000E+20
 30
1.000000000000000E+20
  9
$PEXTMAX
 10
-1.000000000000000E+20
 20
-1.000000000000000E+20
 30
-1.000000000000000E+20
  9
$PLIMMIN
 10
0.0
 20
0.0
  9
$PLIMMAX
 10
420.0
 20
297.0
  9
$UNITMODE
 70
     0
  9
$VISRETAIN
 70
     1
  9
$PLINEGEN
 70
     0
  9
$PSLTSCALE
 70
     1
  9
$TREEDEPTH
 70
  3020
  9
$CMLSTYLE
  2
Standard
  9
$CMLJUST
 70
     0
  9
$CMLSCALE
 40
20.0
  9
$PROXYGRAPHICS
 70
     1
  9
$MEASUREMENT
 70
     1
  9
$CELWEIGHT
370
    -1
  9
$ENDCAPS
280
     0
  9
$JOINSTYLE
280
     0
  9
$LWDISPLAY
290
     0
  9
$INSUNITS
 70
     4
  9
$HYPERLINKBASE
  1

  9
$STYLESHEET
  1
acad.ctb
  9
$XEDIT
290
     1
  9
$CEPSNTYPE
380
     0
  9
$PSTYLEMODE
290
     1
  9
$FINGERPRINTGUID
  2
{B705A112-77C7-4534-AADA-B7988B84DA3D}
  9
$VERSIONGUID
  2
{F55E9B7D-6748-40C8-95D0-4DE9E9100BE5}
  9
$EXTNAMES
290
     1
  9
$PSVPSCALE
 40
0.0
  9
$OLESTARTUP
290
     0
  0
ENDSEC
  0
SECTION
  2
CLASSES
  0
CLASS
  1
ACDBDICTIONARYWDFLT
  2
AcDbDictionaryWithDefault
  3
ObjectDBX Classes
 90
        0
280
     0
281
     0
  0
CLASS
  1
ACDBPLACEHOLDER
  2
AcDbPlaceHolder
  3
ObjectDBX Classes
 90
        0
280
     0
281
     0
  0
CLASS
  1
LAYOUT
  2
AcDbLayout
  3
ObjectDBX Classes
 90
        0
280
     0
281
     0
  0
CLASS
  1
ACME_DOCUMENT
  2
AcMeDbDoc
  3
AcMeServices
 90
        0
280
     0
281
     0
  0
CLASS
  1
AMGSETTINGSOBJ
  2
AmgSettingsObj
  3
"AcadM|Product Description: AutoCAD Mechanical 2000|Company: Autodesk"
 90
        0
280
     0
281
     0
  0
CLASS
  1
ACMESCOPE
  2
AcMeScope
  3
AcMeServices
 90
        0
280
     0
281
     0
  0
CLASS
  1
ACMECOMMANDHISTORY
  2
AcMeCommandHistory
  3
AcMeServices
 90
        0
280
     0
281
     0
  0
CLASS
  1
ACIMSYSVARMAN
  2
AcImSysVarManager
  3
AcMeServices
 90
        0
280
     0
281
     0
  0
CLASS
  1
ACIMREALSYSVAR
  2
AcImRealSysVar
  3
AcMeServices
 90
        0
280
     0
281
     0
  0
CLASS
  1
ACIMINTSYSVAR
  2
AcImIntSysVar
  3
AcMeServices
 90
        0
280
     0
281
     0
  0
CLASS
  1
ACMEDRAWINGMAN
  2
AcMeDrawingMan
  3
AcMeServices
 90
        0
280
     0
281
     0
  0
CLASS
  1
ACMEVIEW
  2
AcMeView
  3
AcMeServices
 90
        0
280
     0
281
     0
  0
CLASS
  1
ACDBENTITYCACHE
  2
AcMeEntityCache
  3
AcMeServices
 90
        0
280
     0
281
     0
  0
CLASS
  1
GSMANAGER
  2
AcMeGSManager
  3
AcMeServices
 90
        0
280
     0
281
     0
  0
CLASS
  1
AMDTINTERNALREACTOR
  2
AmdtInternalReactor
  3
AcMeServices
 90
        0
280
     0
281
     0
  0
CLASS
  1
ACMESTATEMGR
  2
AcMeStateMgr
  3
AcMeServices
 90
        0
280
     0
281
     0
  0
CLASS
  1
ACGREFMASTER
  2
AcGrefMaster
  3
AcAttribServices
 90
        0
280
     0
281
     0
  0
CLASS
  1
ACME_DATABASE
  2
AcMeDbDatabase
  3
AcMeServices
 90
        0
280
     0
281
     0
  0
CLASS
  1
ACRFINSADJUSTERMGR
  2
AcRfInsAdjusterMgr
  3
AcMeServices
 90
        0
280
     0
281
     0
  0
CLASS
  1
ACGREFACADMASTER
  2
AcGrefacadMaster
  3
AcGrefServices
 90
        0
280
     0
281
     0
  0
CLASS
  1
AMIMASTER
  2
AmiMaster
  3
AmiServices
 90
        0
280
     0
281
     0
  0
CLASS
  1
ACMDATADICTIONARY
  2
AcmDataDictionary
  3
"AcmSymBB|Product Description: AutoCAD Mechanical 2004 DX|Company: Autodesk"
 90
        0
280
     0
281
     0
  0
CLASS
  1
ACMDATAENTRYBLOCK
  2
AcmDataEntryBlock
  3
"AcmSymBB|Product Description: AutoCAD Mechanical 2004 DX|Company: Autodesk"
 90
        0
280
     0
281
     0
  0
CLASS
  1
ACIMSTRSYSVAR
  2
AcImStrSysVar
  3
AcMeServices
 90
        0
280
     0
281
     0
  0
CLASS
  1
ACMSTANDARDISO
  2
AcmStandardISO
  3
"Amdt_StdImp|Product Description: AutoCAD Mechanical 2004 DX|Company: Autodesk"
 90
        0
280
     0
281
     0
  0
CLASS
  1
AMGOBJPROPCFG
  2
AmgObjPropCfg
  3
"AmgLay|Product Description: AutoCAD Mechanical 2000|Company: Autodesk"
 90
        1
280
     0
281
     0
  0
CLASS
  1
AMDTEDGESTANDARDISO
  2
AmdtEdgeStdISO
  3
"Amdt_StdImp|Product Description: AutoCAD Mechanical 2004 DX|Company: Autodesk"
 90
    32768
280
     0
281
     0
  0
CLASS
  1
ACMSURFSTANDARDISO
  2
AcmSurfTextStdISO
  3
"Amdt_StdImp|Product Description: AutoCAD Mechanical 2004 DX|Company: Autodesk"
 90
        0
280
     0
281
     0
  0
CLASS
  1
ACMFCFSTANDARDISO
  2
AcmFCFStdISO
  3
"Amdt_StdImp|Product Description: AutoCAD Mechanical 2004 DX|Company: Autodesk"
 90
        0
280
     0
281
     0
  0
CLASS
  1
ACMWELDSTANDARDISO
  2
AcmWeldingStdISO
  3
"Amdt_StdImp|Product Description: AutoCAD Mechanical 2004 DX|Company: Autodesk"
 90
        0
280
     0
281
     0
  0
CLASS
  1
ACMIDSTANDARDISO
  2
AcmIdStdISO
  3
"Amdt_StdImp|Product Description: AutoCAD Mechanical 2004 DX|Company: Autodesk"
 90
        0
280
     0
281
     0
  0
CLASS
  1
ACMDATUMSTANDARDISO
  2
AcmDatumStdISO
  3
"Amdt_StdImp|Product Description: AutoCAD Mechanical 2004 DX|Company: Autodesk"
 90
        0
280
     0
281
     0
  0
CLASS
  1
ACMBOMSTANDARDISO
  2
AcmBOMStdISO
  3
"Amdt_StdImp|Product Description: AutoCAD Mechanical 2004 DX|Company: Autodesk"
 90
        0
280
     0
281
     0
  0
CLASS
  1
ACMDETAILSTANDARDISO
  2
AmdtDetailSymStdISO
  3
"Amdt_StdImp|Product Description: AutoCAD Mechanical 2004 DX|Company: Autodesk"
 90
        0
280
     0
281
     0
  0
CLASS
  1
ACMSECTIONSTANDARDISO
  2
AmdtSectionSymStdISO
  3
"Amdt_StdImp|Product Description: AutoCAD Mechanical 2004 DX|Company: Autodesk"
 90
        0
280
     0
281
     0
  0
CLASS
  1
ACMCENTERLINESTANDARDISO
  2
AmdtCenterLineStdISO
  3
"Amdt_StdImp|Product Description: AutoCAD Mechanical 2004 DX|Company: Autodesk"
 90
        0
280
     0
281
     0
  0
CLASS
  1
ACMNOTESTANDARDISO
  2
AmdtNoteStdISO
  3
"Amdt_StdImp|Product Description: AutoCAD Mechanical 2004 DX|Company: Autodesk"
 90
        0
280
     0
281
     0
  0
CLASS
  1
ACAMGLAYSTD
  2
AcAmgLayStd
  3
"AcAmgLayStd|Product Description: AutoCAD Mechanical 2000|Company: Autodesk"
 90
        0
280
     0
281
     0
  0
CLASS
  1
ACAMGDIMSTD
  2
AcAmgDimStd
  3
"AcAmgDimStd|Product Description: AutoCAD Mechanical 2000|Company: Autodesk"
 90
        0
280
     0
281
     0
  0
CLASS
  1
ACAMGHOLECHARTSTDISO
  2
AcAmgHoleChartStdISO
  3
ACMSYMBB_MODULE_NAME
 90
        0
280
     0
281
     0
  0
CLASS
  1
ACAMGTITLESTD
  2
AcAmgTitleStd
  3
"TITLEAPP"
 90
        0
280
     0
281
     0
  0
CLASS
  1
LAYER_INDEX
  2
AcDbLayerIndex
  3
ObjectDBX Classes
 90
        0
280
     0
281
     0
  0
CLASS
  1
IDBUFFER
  2
AcDbIdBuffer
  3
ObjectDBX Classes
 90
        0
280
     0
281
     0
  0
CLASS
  1
DICTIONARYVAR
  2
AcDbDictionaryVar
  3
ObjectDBX Classes
 90
        0
280
     0
281
     0
  0
CLASS
  1
AM_DRAWING_MGR
  2
AcDmDwgMgr
  3
AcMechDwgViewMgmt
 90
        0
280
     0
281
     0
  0
CLASS
  1
AM_DWG_DOCUMENT
  2
AcDmDwgDocument
  3
AcMechDwgViewMgmt
 90
        0
280
     0
281
     0
  0
CLASS
  1
AM_DWG_SHEET
  2
AcDmSheet
  3
AcMechDwgViewMgmt
 90
        0
280
     0
281
     0
  0
CLASS
  1
AM_VIEWDIMPARMAP
  2
AcDmViewDimParMap
  3
AcMechDwgViewMgmt
 90
        0
280
     0
281
     0
  0
CLASS
  1
AM_DWGMGR_NAME
  2
AcDmDwgMgrName
  3
AcMechDwgViewMgmt
 90
        0
280
     0
281
     0
  0
CLASS
  1
AMDTMENUSTATEMGR
  2
AmdtMenuStateMgr
  3
McadcomServices
 90
        0
280
     0
281
     0
  0
CLASS
  1
AMDTMCOMMENUSTATE
  2
AmdtMcomMenuState
  3
McadcomServices
 90
        0
280
     0
281
     0
  0
CLASS
  1
MAPIAMMOUDLE
  2
MApiAmModule
  3
MApiAmServices
 90
        0
280
     0
281
     0
  0
CLASS
  1
AMDTADMENUSTATE
  2
AmdtAdMenuState
  3
DesignerServices
 90
        0
280
     0
281
     0
  0
CLASS
  1
ADAPPL
  2
AcAdAppl
  3
DesignerServices
 90
        0
280
     0
281
     0
  0
CLASS
  1
DEPMGR
  2
AcAdDepMgr
  3
DesignerServices
 90
        0
280
     0
281
     0
  0
CLASS
  1
PARAMMGR
  2
AcAdParamMgr
  3
DesignerServices
 90
        0
280
     0
281
     0
  0
CLASS
  1
PARAMSCOPE
  2
AcAdParamScope
  3
DesignerServices
 90
        0
280
     0
281
     0
  0
CLASS
  1
NAMEDAPPL
  2
AcAdNamedAppl
  3
DesignerServices
 90
        0
280
     0
281
     0
  0
CLASS
  1
AMDTDMMENUSTATE
  2
AmdtDmMenuState
  3
AcMechDwgViewMgmt
 90
        0
280
     0
281
     0
  0
CLASS
  1
AMDTAMMENUSTATE
  2
AmdtAmMenuState
  3
DesignerAssemblies
 90
        0
280
     0
281
     0
  0
CLASS
  1
ACAMPROJECT
  2
AcAmProject
  3
DesignerAssemblies
 90
        0
280
     0
281
     0
  0
CLASS
  1
ACAMGRCOMPDEF
  2
AcAmGrCompDef
  3
DesignerAssemblies
 90
        0
280
     0
281
     0
  0
CLASS
  1
ACCMCONTEXT
  2
AcCmContext
  3
DesignerAssemblies
 90
        0
280
     0
281
     0
  0
CLASS
  1
ACAMCOMPDEF
  2
AcAmCompDef
  3
DesignerAssemblies
 90
        0
280
     0
281
     0
  0
CLASS
  1
ACAMCOMPDEFMGR
  2
AcAmCompDefMgr
  3
DesignerAssemblies
 90
        0
280
     0
281
     0
  0
CLASS
  1
AMCONTEXTMGR
  2
AcAmContextMgr
  3
DesignerAssemblies
 90
        0
280
     0
281
     0
  0
CLASS
  1
ACAMCONTEXTMODELER
  2
AcAmContextModeler
  3
DesignerAssemblies
 90
        0
280
     0
281
     0
  0
CLASS
  1
ACMTHREADLINESTANDARDISO
  2
AmdtThreadLineStdISO
  3
"Amdt_StdImp|Product Description: AutoCAD Mechanical 2004 DX|Company: Autodesk"
 90
        0
280
     0
281
     0
  0
CLASS
  1
CATALOGSTATE
  2
AcAmCatalogState
  3
DesignerAssemblies
 90
        0
280
     0
281
     0
  0
CLASS
  1
ACAMGRCOMPDEFSET
  2
AcAmGrCompDefSet
  3
DesignerAssemblies
 90
        0
280
     0
281
     0
  0
CLASS
  1
AMDTBROWSERDBTAB
  2
AmdtBrowserDbTab
  3
McadcomServices
 90
        0
280
     0
281
     0
  0
CLASS
  1
CBROWSERAPPOBJECT
  2
CBrowserAppObject
  3
McadcomServices
 90
        0
280
     0
281
     0
  0
CLASS
  1
DM_PLACEHOLDER
  2
AcDmSelsetPlaceholder
  3
AcMechDwgViewMgmt
 90
        0
280
     0
281
     0
  0
CLASS
  1
TABLESTYLE
  2
AcDbTableStyle
  3
ObjectDBX Classes
 90
     2047
280
     0
281
     0
  0
CLASS
  1
VAACXREFPANELOBJECT
  2
VaAcXREFPanelObject
  3
VAAC_ADDIN
 90
    32768
280
     0
281
     0
  0
CLASS
  1
VAACIMAGEINVENTORY
  2
VaAcImageInventory
  3
VAAC_ADDIN
 90
    32768
280
     0
281
     0
  0
CLASS
  1
AMDTNOTETEMPLATEDB
  2
AmdtNoteTemplateDB
  3
AMDT_STDIMP_MODULE_NAME
 90
        0
280
     0
281
     0
  0
CLASS
  1
ACMBOM
  2
AcmBom
  3
"AcmSymBB|Product Description: AutoCAD Mechanical 2004 DX|Company: Autodesk"
 90
    32768
280
     0
281
     0
  0
CLASS
  1
AMDTFORMULAUPDATEDISPATCHER
  2
AmdtFormulaUpdateDispatcher
  3
AcMeServices
 90
    32768
280
     0
281
     0
  0
CLASS
  1
ACMPARTLIST
  2
AcmPartList
  3
"AcmSymBB|Product Description: AutoCAD Mechanical 2004 DX|Company: Autodesk"
 90
    33791
280
     0
281
     1
  0
CLASS
  1
ACAMGFILTERDAT
  2
AcAmgFilterDat
  3
"AcadM|Product Description: AutoCAD Mechanical 2000|Company: Autodesk"
 90
    32768
280
     0
281
     0
  0
CLASS
  1
DIMASSOC
  2
AcDbDimAssoc
  3
"AcDbDimAssoc|Product Desc:     AcDim ARX App For Dimension|Company:          Autodesk, Inc.|WEB Address:      www.autodesk.com"
 90
        0
280
     0
281
     0
  0
CLASS
  1
SORTENTSTABLE
  2
AcDbSortentsTable
  3
ObjectDBX Classes
 90
        0
280
     0
281
     0
  0
CLASS
  1
STDPART2D
  2
AmgStdPart
  3
"AmgStdPart|Product Description: AutoCAD Mechanical 2000|Company: Autodesk"
 90
    33791
280
     0
281
     1
  0
CLASS
  1
ACAMSTDPCOMPDEF
  2
AcAmStdpCompDef
  3
DesignerAssemblies
 90
    32768
280
     0
281
     0
  0
CLASS
  1
ACRFATTGENMGR
  2
AcRfAttGeneralMgr
  3
AcAttribServices
 90
    32768
280
     0
281
     0
  0
CLASS
  1
ACRFOBJATTMGR
  2
AcRfObjAttGroupMgr
  3
AcAttribServices
 90
    32768
280
     0
281
     0
  0
CLASS
  1
ACRFMCADAPIATTHOLDER
  2
AcRfMCADAPIAttHolder
  3
AcAttribServices
 90
    32768
280
     0
281
     0
  0
CLASS
  1
AMDTSYSATTR
  2
AmdtSystemAttribute
  3
AcAttribServices
 90
    32768
280
     0
281
     0
  0
CLASS
  1
ACAMCOMP
  2
AcAmComp
  3
DesignerAssemblies
 90
    32768
280
     0
281
     0
  0
CLASS
  1
AC_AM_STDP_VIEW_DEF
  2
AcAmStdpViewDef
  3
DesignerAssemblies
 90
    32768
280
     0
281
     0
  0
CLASS
  1
AC_AM_MVD_DEP_MGR
  2
AcAmMVDdepMgr
  3
DesignerAssemblies
 90
    32768
280
     0
281
     0
  0
CLASS
  1
AC_AM_MASTER_VIEW_DEF
  2
AcAmMasterViewDef
  3
DesignerAssemblies
 90
    32768
280
     0
281
     0
  0
CLASS
  1
AC_AM_DIRTY_NODES
  2
AcAmDirtyNodes
  3
DesignerAssemblies
 90
    32768
280
     0
281
     0
  0
CLASS
  1
AC_AM_MAPPER_CACHE
  2
AcAmMapperCache
  3
DesignerAssemblies
 90
    32768
280
     0
281
     0
  0
CLASS
  1
ACAMMVDBACKUPOBJECT
  2
AcAmMVDBackupObject
  3
DesignerAssemblies
 90
    32768
280
     0
281
     0
  0
CLASS
  1
AC_AM_COMP_VIEW_INST
  2
AcAmCompView
  3
DesignerAssemblies
 90
    32768
280
     0
281
     0
  0
CLASS
  1
AC_AM_2D_XREF_MGR
  2
AcAmXrefMgr2d
  3
DesignerAssemblies
 90
    32768
280
     0
281
     0
  0
CLASS
  1
AMDTNOTE
  2
AmdtNote
  3
"AcmSymBB|Product Description: AutoCAD Mechanical 2004 DX|Company: Autodesk"
 90
    33791
280
     0
281
     1
  0
CLASS
  1
AMDTEDGESTANDARDISO13715
  2
AmdtEdgeStdISO13715
  3
"Amdt_StdImp|Product Description: AutoCAD Mechanical 2004 DX|Company: Autodesk"
 90
        0
280
     0
281
     0
  0
CLASS
  1
ASAPP
  2
AcAsAppObject
  3
AutoSurfServices
 90
        0
280
     0
281
     0
  0
CLASS
  1
IM_STATIC_MAN
  2
AcImStaticVarManager
  3
AcMeServices
 90
        0
280
     0
281
     0
  0
CLASS
  1
ACIMDBLSTATICVAR
  2
AcImDblStaticVar
  3
AcMeServices
 90
        0
280
     0
281
     0
  0
CLASS
  1
ACIMSTRSTATICVAR
  2
AcImStrStaticVar
  3
AcMeServices
 90
        0
280
     0
281
     0
  0
CLASS
  1
ACIMINTSTATICVAR
  2
AcImIntStaticVar
  3
AcMeServices
 90
        0
280
     0
281
     0
  0
CLASS
  1
ACASGREFMASTER
  2
AcAsGrefMaster
  3
AutoSurfResolverServices
 90
        0
280
     0
281
     0
  0
CLASS
  1
ACADGREFMODULE
  2
AcAdGrefModule
  3
AdGrefServices
 90
        0
280
     0
281
     0
  0
CLASS
  1
AMDTMAPISURFMOUDULE
  2
AmdtMApiSurfModule
  3
MApiSurfServices
 90
        0
280
     0
281
     0
  0
CLASS
  1
MAPIADMODULE
  2
MApiAdModule
  3
MApiAdServices
 90
        0
280
     0
281
     0
  0
ENDSEC
  0
SECTION
  2
TABLES
  0
TABLE
  2
VPORT
  5
8
330
0
100
AcDbSymbolTable
 70
     4
  0
VPORT
  5
C845
330
8
100
AcDbSymbolTableRecord
100
AcDbViewportTableRecord
  2
*Active
 70
     0
 10
0.0
 20
0.0
 11
1.0
 21
1.0
 12
277.5995579507896
 22
-141.5880723774088
 13
0.0
 23
0.0
 14
2.5
 24
2.5
 15
10.0
 25
10.0
 16
0.0
 26
0.0
 36
1.0
 17
493.6788805944727
 27
316.1094665189255
 37
0.0
 40
356.6390444623023
 41
1.263157894736842
 42
50.0
 43
0.0
 44
0.0
 50
0.0
 51
0.0
 71
     0
 72
  2000
 73
     1
 74
     3
 75
     0
 76
     0
 77
     0
 78
     0
281
     0
 65
     0
110
0.0
120
0.0
130
0.0
111
1.0
121
0.0
131
0.0
112
0.0
122
1.0
132
0.0
 79
     0
146
0.0
  0
ENDTAB
  0
TABLE
  2
LTYPE
  5
5
330
0
100
AcDbSymbolTable
 70
    16
  0
LTYPE
  5
14
330
5
100
AcDbSymbolTableRecord
100
AcDbLinetypeTableRecord
  2
ByBlock
 70
     0
  3

 72
    65
 73
     0
 40
0.0
  0
LTYPE
  5
15
330
5
100
AcDbSymbolTableRecord
100
AcDbLinetypeTableRecord
  2
ByLayer
 70
     0
  3

 72
    65
 73
     0
 40
0.0
  0
LTYPE
  5
16
330
5
100
AcDbSymbolTableRecord
100
AcDbLinetypeTableRecord
  2
Continuous
 70
     0
  3
Solid line
 72
    65
 73
     0
 40
0.0
  0
LTYPE
  5
64
330
5
100
AcDbSymbolTableRecord
100
AcDbLinetypeTableRecord
  2
AM_ISO02W050
 70
     0
  3
__ __ __ __ __ __ __ __ __ __ __ __ __ __ __
 72
    65
 73
     2
 40
7.5
 49
6.0
 74
     0
 49
-1.5
 74
     0
  0
LTYPE
  5
65
330
5
100
AcDbSymbolTableRecord
100
AcDbLinetypeTableRecord
  2
AM_ISO08W050
 70
     0
  3
____ . ____ . ____ . ____ . ____ . ____ . ____
 72
    65
 73
     4
 40
18.0
 49
12.0
 74
     0
 49
-1.5
 74
     0
 49
3.0
 74
     0
 49
-1.5
 74
     0
  0
LTYPE
  5
66
330
5
100
AcDbSymbolTableRecord
100
AcDbLinetypeTableRecord
  2
AM_ISO09W050
 70
     0
  3
_____ . . _____ . . _____ . . ____ .. ____
 72
    65
 73
     6
 40
22.5
 49
12.0
 74
     0
 49
-1.5
 74
     0
 49
3.0
 74
     0
 49
-1.5
 74
     0
 49
3.0
 74
     0
 49
-1.5
 74
     0
  0
LTYPE
  5
67
330
5
100
AcDbSymbolTableRecord
100
AcDbLinetypeTableRecord
  2
Amconstr
 70
     0
  3
_______________________
 72
    65
 73
     2
 40
9999.0
 49
9999.0
 74
     0
 49
0.0
 74
     0
  0
LTYPE
  5
68
330
5
100
AcDbSymbolTableRecord
100
AcDbLinetypeTableRecord
  2
AM_ISO08W050x2
 70
     0
  3
__ . __ . __ . __ . __ . __
 72
    65
 73
     4
 40
9.0
 49
6.0
 74
     0
 49
-0.75
 74
     0
 49
1.5
 74
     0
 49
-0.75
 74
     0
  0
LTYPE
  5
69
330
5
100
AcDbSymbolTableRecord
100
AcDbLinetypeTableRecord
  2
AM_ISO02W050x2
 70
     0
  3
 _ _ _ _ _ _ _ _ _ _ _ _
 72
    65
 73
     2
 40
3.75
 49
3.0
 74
     0
 49
-0.75
 74
     0
  0
LTYPE
  5
6C
330
5
100
AcDbSymbolTableRecord
100
AcDbLinetypeTableRecord
  2
Amzigzag
 70
     0
  3
/\/-/\/-/\/-/\/-/\/-/\/
 72
    65
 73
     2
 40
11.0001
 49
0.0001
 74
     4
 75
   135
340
6B
 46
0.04
 50
0.0
 44
0.0
 45
0.0
 49
-11.0
 74
     0
  0
LTYPE
  5
7A
330
5
100
AcDbSymbolTableRecord
100
AcDbLinetypeTableRecord
  2
ACISOWELD
 70
     0
  3
_ _ _ _ _
 72
    65
 73
     2
 40
2.0
 49
2.0
 74
     0
 49
-1.0
 74
     0
  0
LTYPE
  5
7B
330
5
100
AcDbSymbolTableRecord
100
AcDbLinetypeTableRecord
  2
ACISOTGB
 70
     0
  3
__ . . __ . .
 72
    65
 73
     6
 40
9.0
 49
4.0
 74
     0
 49
-1.0
 74
     0
 49
1.0
 74
     0
 49
-1.0
 74
     0
 49
1.0
 74
     0
 49
-1.0
 74
     0
  0
LTYPE
  5
7C
330
5
100
AcDbSymbolTableRecord
100
AcDbLinetypeTableRecord
  2
ACISOTGL
 70
     0
  3
_ _ _ _ _
 72
    65
 73
     2
 40
3.0
 49
2.0
 74
     0
 49
-1.0
 74
     0
  0
LTYPE
  5
7E
330
5
100
AcDbSymbolTableRecord
100
AcDbLinetypeTableRecord
  2
CENTER
 70
     0
  3
__ . __
 72
    65
 73
     4
 40
7.0
 49
4.0
 74
     0
 49
-1.0
 74
     0
 49
1.0
 74
     0
 49
-1.0
 74
     0
  0
LTYPE
  5
D8
330
5
100
AcDbSymbolTableRecord
100
AcDbLinetypeTableRecord
  2
HIDDEN
 70
     0
  3
Hidden __ __ __ __ __ __ __ __ __ __ __ __ __ _
 72
    65
 73
     2
 40
9.524999999999998
 49
6.349999999999999
 74
     0
 49
-3.174999999999999
 74
     0
  0
LTYPE
  5
D9
330
5
100
AcDbSymbolTableRecord
100
AcDbLinetypeTableRecord
  2
PHANTOM2
 70
     0
  3
Phantom (.5x) ___ _ _ ___ _ _ ___ _ _ ___ _ _
 72
    65
 73
     6
 40
31.75
 49
15.875
 74
     0
 49
-3.174999999999999
 74
     0
 49
3.174999999999999
 74
     0
 49
-3.174999999999999
 74
     0
 49
3.174999999999999
 74
     0
 49
-3.174999999999999
 74
     0
  0
LTYPE
  5
7C98
330
5
100
AcDbSymbolTableRecord
100
AcDbLinetypeTableRecord
  2
ASULTYPE
 70
     0
  3
實線
 72
    65
 73
     2
 40
3.0
 49
2.5
 74
     0
 49
0.5
 74
     0
  0
LTYPE
  5
7C99
330
5
100
AcDbSymbolTableRecord
100
AcDbLinetypeTableRecord
  2
ASVLTYPE
 70
     0
  3
__ __ __ __ __ __ __ __ __ __ __ __ __ __ __ __ __ __ __ __ __
 72
    65
 73
     2
 40
0.75
 49
0.5
 74
     0
 49
-0.25
 74
     0
  0
ENDTAB
  0
TABLE
  2
LAYER
  5
2
102
{ACAD_XDICTIONARY
360
3F9
102
}
330
0
100
AcDbSymbolTable
 70
    13
  0
LAYER
  5
10
330
2
100
AcDbSymbolTableRecord
100
AcDbLayerTableRecord
  2
0
 70
     0
 62
     7
  6
Continuous
370
    -3
390
F
  0
LAYER
  5
C92
330
2
100
AcDbSymbolTableRecord
100
AcDbLayerTableRecord
  2
Defpoints
 70
     0
 62
     7
  6
Continuous
290
     0
370
    -3
390
F
  0
LAYER
  5
C93
330
2
100
AcDbSymbolTableRecord
100
AcDbLayerTableRecord
  2
AM_5
 70
     0
 62
     3
  6
Continuous
370
    25
390
F
  0
LAYER
  5
C94
330
2
100
AcDbSymbolTableRecord
100
AcDbLayerTableRecord
  2
AM_4
 70
     0
 62
     3
  6
Continuous
370
    25
390
F
  0
LAYER
  5
C95
330
2
100
AcDbSymbolTableRecord
100
AcDbLayerTableRecord
  2
AM_VIS
 70
     0
 62
     7
  6
Continuous
370
    50
390
F
  0
LAYER
  5
C96
330
2
100
AcDbSymbolTableRecord
100
AcDbLayerTableRecord
  2
AM_HID
 70
     0
 62
     3
  6
AM_ISO02W050x2
370
    25
390
F
  0
LAYER
  5
C97
330
2
100
AcDbSymbolTableRecord
100
AcDbLayerTableRecord
  2
AM_7
 70
     0
 62
     1
  6
CENTER
370
    25
390
F
  0
LAYER
  5
C99
330
2
100
AcDbSymbolTableRecord
100
AcDbLayerTableRecord
  2
LOGO
 70
     0
 62
     7
  6
Continuous
370
    -3
390
F
  0
LAYER
  5
2AA5
330
2
100
AcDbSymbolTableRecord
100
AcDbLayerTableRecord
  2
AM_REFDIM
 70
     0
 62
     5
  6
Continuous
370
    25
390
F
  0
LAYER
  5
79D1
330
2
100
AcDbSymbolTableRecord
100
AcDbLayerTableRecord
  2
CEN
 70
     0
 62
     1
  6
CENTER
370
    -3
390
F
  0
LAYER
  5
79D3
330
2
100
AcDbSymbolTableRecord
100
AcDbLayerTableRecord
  2
HATCH
 70
     0
 62
     4
  6
Continuous
370
    -3
390
F
  0
LAYER
  5
7BB8
330
2
100
AcDbSymbolTableRecord
100
AcDbLayerTableRecord
  2
SL
 70
     0
 62
     2
  6
Continuous
370
    -3
390
F
1001
AcAecLayerStandard
1000

1000

  0
LAYER
  5
7DF7
330
2
100
AcDbSymbolTableRecord
100
AcDbLayerTableRecord
  2
AM_10
 70
     0
 62
     7
  6
AM_ISO08W050
370
    50
390
F
  0
ENDTAB
  0
TABLE
  2
STYLE
  5
3
330
0
100
AcDbSymbolTable
 70
     6
  0
STYLE
  5
11
330
3
100
AcDbSymbolTableRecord
100
AcDbTextStyleTableRecord
  2
STANDARD
 70
     0
 40
0.0
 41
1.0
 50
0.0
 71
     0
 42
3.0
  3
ISOCP.SHX
  4
CHINESET.SHX
  0
STYLE
  5
6B
330
3
100
AcDbSymbolTableRecord
100
AcDbTextStyleTableRecord
  2

 70
     1
 40
0.0
 41
1.0
 50
0.0
 71
     0
 42
2.5
  3
ltypeshp.shx
  4

  0
STYLE
  5
6D
330
3
100
AcDbSymbolTableRecord
100
AcDbTextStyleTableRecord
  2
ACISOTS
 70
     0
 40
1.0
 41
1.0
 50
0.0
 71
     0
 42
1.0
  3
isocp.shx
  4
chineset.shx
  0
STYLE
  5
79
330
3
100
AcDbSymbolTableRecord
100
AcDbTextStyleTableRecord
  2
ACISOGDT
 70
     0
 40
0.0
 41
1.0
 50
0.0
 71
     0
 42
2.5
  3
amgdt.shx
  4
chineset.shx
  0
STYLE
  5
C9B
330
3
100
AcDbSymbolTableRecord
100
AcDbTextStyleTableRecord
  2
CHINESET
 70
     0
 40
0.0
 41
1.0
 50
0.0
 71
     0
 42
2.5
  3
simplex.shx
  4
CHINESET.shx
  0
STYLE
  5
7DF8
330
3
100
AcDbSymbolTableRecord
100
AcDbTextStyleTableRecord
  2
DAYUS
 70
     0
 40
0.0
 41
1.0
 50
0.0
 71
     0
 42
2.0
  3
simplex.shx
  4
dayus.shx
  0
ENDTAB
  0
TABLE
  2
VIEW
  5
6
330
0
100
AcDbSymbolTable
 70
     0
  0
ENDTAB
  0
TABLE
  2
UCS
  5
7
330
0
100
AcDbSymbolTable
 70
     0
  0
ENDTAB
  0
TABLE
  2
APPID
  5
9
330
0
100
AcDbSymbolTable
 70
    39
  0
APPID
  5
12
330
9
100
AcDbSymbolTableRecord
100
AcDbRegAppTableRecord
  2
ACAD
 70
     0
  0
APPID
  5
46
330
9
100
AcDbSymbolTableRecord
100
AcDbRegAppTableRecord
  2
MCAD_NO_VIS
 70
     0
  0
APPID
  5
47
330
9
100
AcDbSymbolTableRecord
100
AcDbRegAppTableRecord
  2
ACAD_TEMP_GRAPHIC
 70
     0
  0
APPID
  5
58
330
9
100
AcDbSymbolTableRecord
100
AcDbRegAppTableRecord
  2
ACATTRIBSERVICES
 70
     0
  0
APPID
  5
EE
330
9
100
AcDbSymbolTableRecord
100
AcDbRegAppTableRecord
  2
AD_DRAW
 70
     0
  0
APPID
  5
10C
330
9
100
AcDbSymbolTableRecord
100
AcDbRegAppTableRecord
  2
DESIGNERASSEMBLIES
 70
     0
  0
APPID
  5
111
330
9
100
AcDbSymbolTableRecord
100
AcDbRegAppTableRecord
  2
ACADM_DIM_EDIT
 70
     0
  0
APPID
  5
112
330
9
100
AcDbSymbolTableRecord
100
AcDbRegAppTableRecord
  2
AMDT_DM_ADJ
 70
     0
  0
APPID
  5
22C
330
9
100
AcDbSymbolTableRecord
100
AcDbRegAppTableRecord
  2
ACAD_DSTYLE_DIMTEXT_FILL
 70
     0
  0
APPID
  5
452
330
9
100
AcDbSymbolTableRecord
100
AcDbRegAppTableRecord
  2
GENIUS_GENOENT_13
 70
     0
  0
APPID
  5
453
330
9
100
AcDbSymbolTableRecord
100
AcDbRegAppTableRecord
  2
GENIUS_GENOBJ-N-CRS_13
 70
     0
  0
APPID
  5
454
330
9
100
AcDbSymbolTableRecord
100
AcDbRegAppTableRecord
  2
GENIUS_GENOLIS_13
 70
     0
  0
APPID
  5
455
330
9
100
AcDbSymbolTableRecord
100
AcDbRegAppTableRecord
  2
GENIUS_GENODEF_13
 70
     0
  0
APPID
  5
456
330
9
100
AcDbSymbolTableRecord
100
AcDbRegAppTableRecord
  2
GENIUS_GENOREF_13
 70
     0
  0
APPID
  5
6F3
330
9
100
AcDbSymbolTableRecord
100
AcDbRegAppTableRecord
  2
ACAD_PSEXT
 70
     0
  0
APPID
  5
808
330
9
100
AcDbSymbolTableRecord
100
AcDbRegAppTableRecord
  2
GENIUS_GENDTOL_13
 70
     0
  0
APPID
  5
C9C
330
9
100
AcDbSymbolTableRecord
100
AcDbRegAppTableRecord
  2
GENIUS_GENOBJ-N-CEN_13
 70
     0
  0
APPID
  5
C9D
330
9
100
AcDbSymbolTableRecord
100
AcDbRegAppTableRecord
  2
GENIUS_GENCEN_19
 70
     0
  0
APPID
  5
C9E
330
9
100
AcDbSymbolTableRecord
100
AcDbRegAppTableRecord
  2
GENIUS_GENREC_14
 70
     0
  0
APPID
  5
C9F
330
9
100
AcDbSymbolTableRecord
100
AcDbRegAppTableRecord
  2
GENIUS_GENOBJ-N-REC_13
 70
     0
  0
APPID
  5
18AD
330
9
100
AcDbSymbolTableRecord
100
AcDbRegAppTableRecord
  2
GEVID1195260822
 70
     0
  0
APPID
  5
18AE
330
9
100
AcDbSymbolTableRecord
100
AcDbRegAppTableRecord
  2
GEVDC
 70
     0
  0
APPID
  5
18AF
330
9
100
AcDbSymbolTableRecord
100
AcDbRegAppTableRecord
  2
GEVRADREF
 70
     0
  0
APPID
  5
18B8
330
9
100
AcDbSymbolTableRecord
100
AcDbRegAppTableRecord
  2
AMG_2DHIDE
 70
     0
  0
APPID
  5
18B9
330
9
100
AcDbSymbolTableRecord
100
AcDbRegAppTableRecord
  2
AMG_2DSTRUCT_BTR
 70
     0
  0
APPID
  5
18CA
330
9
100
AcDbSymbolTableRecord
100
AcDbRegAppTableRecord
  2
ACADM_2DVIEW_IGN_NOTIFY
 70
     0
  0
APPID
  5
3621
330
9
100
AcDbSymbolTableRecord
100
AcDbRegAppTableRecord
  2
GENIUS_GENDIMSH_14
 70
     0
  0
APPID
  5
3FD8
330
9
100
AcDbSymbolTableRecord
100
AcDbRegAppTableRecord
  2
AD_SKETCHDIM
 70
     0
  0
APPID
  5
42D5
330
9
100
AcDbSymbolTableRecord
100
AcDbRegAppTableRecord
  2
ACAD_DSTYLE_DIMEXT_LENGTH
 70
     0
  0
APPID
  5
42D6
330
9
100
AcDbSymbolTableRecord
100
AcDbRegAppTableRecord
  2
ACAD_DSTYLE_DIMEXT_ENABLED
 70
     0
  0
APPID
  5
42D7
330
9
100
AcDbSymbolTableRecord
100
AcDbRegAppTableRecord
  2
ACAD_DSTYLE_DIM_EXT1_LINETYPE
 70
     0
  0
APPID
  5
42D8
330
9
100
AcDbSymbolTableRecord
100
AcDbRegAppTableRecord
  2
ACAD_DSTYLE_DIMJOGGED_JOGANGLE_SYMBOL
 70
     0
  0
APPID
  5
42D9
330
9
100
AcDbSymbolTableRecord
100
AcDbRegAppTableRecord
  2
ACAD_DSTYLE_DIMARC_LENGTH_SYMBOL
 70
     0
  0
APPID
  5
5E72
330
9
100
AcDbSymbolTableRecord
100
AcDbRegAppTableRecord
  2
AcAecLayerStandard
 70
     0
  0
APPID
  5
7C19
330
9
100
AcDbSymbolTableRecord
100
AcDbRegAppTableRecord
  2
GENIUS_GENDIM_13
 70
     0
  0
APPID
  5
7C1A
330
9
100
AcDbSymbolTableRecord
100
AcDbRegAppTableRecord
  2
GENIUS_GE3DTOL_13
 70
     0
  0
APPID
  5
7C9A
330
9
100
AcDbSymbolTableRecord
100
AcDbRegAppTableRecord
  2
ASURF_PCURVE_APPNAME
 70
     0
  0
APPID
  5
7C9F
330
9
100
AcDbSymbolTableRecord
100
AcDbRegAppTableRecord
  2
AMG_3D2D_5.0
 70
     0
  0
APPID
  5
A993
330
9
100
AcDbSymbolTableRecord
100
AcDbRegAppTableRecord
  2
DCO15
 70
     0
  0
ENDTAB
  0
TABLE
  2
DIMSTYLE
  5
A
330
0
100
AcDbSymbolTable
 70
    16
100
AcDbDimStyleTable
 71
     3
340
81
340
8B
340
86
  0
DIMSTYLE
105
81
330
A
100
AcDbSymbolTableRecord
100
AcDbDimStyleTableRecord
  2
AM_ISO
 70
     0
  4
"
 41
3.5
 42
1.0
 43
8.0
 44
1.0
 47
0.1
 48
0.1
 73
     0
 74
     0
 77
     1
 78
     8
 79
     2
140
3.5
141
0.0
143
0.0393701
146
0.6
147
1.0
172
     1
176
   256
177
   256
178
   256
271
     2
272
     2
283
     0
284
     8
340
11
371
    -1
372
    -1
  0
DIMSTYLE
105
82
330
A
100
AcDbSymbolTableRecord
100
AcDbDimStyleTableRecord
  2
AM_ISO$3
 70
     0
  4
"
 41
3.5
 42
1.0
 43
8.0
 44
1.0
 47
0.1
 48
0.1
 73
     0
 77
     1
 78
     8
 79
     2
140
3.5
141
0.0
143
0.0393701
146
0.6
147
1.0
176
   256
177
   256
178
   256
271
     2
272
     2
283
     0
284
     8
288
     1
289
     0
340
11
371
    -1
372
    -1
  0
DIMSTYLE
105
83
330
A
100
AcDbSymbolTableRecord
100
AcDbDimStyleTableRecord
  2
AM_ISO$4
 70
     0
  4
"
 41
3.5
 42
1.0
 43
8.0
 44
1.0
 47
0.1
 48
0.1
 73
     0
 77
     1
 78
     8
 79
     2
140
3.5
141
0.0
143
0.0393701
146
0.6
147
1.0
176
   256
177
   256
178
   256
271
     2
272
     2
283
     0
284
     8
288
     1
289
     0
340
11
371
    -1
372
    -1
  0
DIMSTYLE
105
84
330
A
100
AcDbSymbolTableRecord
100
AcDbDimStyleTableRecord
  2
AM_ISO$6
 70
     0
  4
"
 41
3.5
 42
1.0
 43
8.0
 44
1.0
 47
0.1
 48
0.1
 73
     0
 74
     0
 78
     8
 79
     2
140
3.5
141
0.0
143
0.0393701
146
0.6
147
1.0
172
     1
176
   256
177
   256
178
   256
271
     2
272
     2
283
     0
284
     8
340
11
371
    -1
372
    -1
  0
DIMSTYLE
105
85
330
A
100
AcDbSymbolTableRecord
100
AcDbDimStyleTableRecord
  2
AM_ISO$7
 70
     0
  4
"
 41
3.5
 42
1.0
 43
8.0
 44
1.0
 47
0.1
 48
0.1
 73
     0
 74
     0
 77
     1
 78
     8
 79
     2
140
3.5
141
0.0
143
0.0393701
146
0.6
147
1.0
172
     1
176
   256
177
   256
178
   256
271
     2
272
     2
283
     0
284
     8
340
11
371
    -1
372
    -1
  0
DIMSTYLE
105
86
330
A
100
AcDbSymbolTableRecord
100
AcDbDimStyleTableRecord
  2
AM_ISO$SF
 70
     0
  4
"
 41
2.5
 42
1.0
 43
10.0
 44
1.0
 47
0.1
 48
0.1
 73
     0
 74
     0
 75
     1
 76
     1
 77
     1
 78
     8
 79
     2
140
3.5
141
0.0
143
0.0393701
146
0.71
147
1.5
172
     1
176
   256
177
   256
178
     2
271
     2
272
     3
274
     4
283
     0
284
     8
340
11
371
    -1
372
    -1
  0
DIMSTYLE
105
8B
330
A
100
AcDbSymbolTableRecord
100
AcDbDimStyleTableRecord
  2
AM_ISO$SH
 70
     0
  4
"
 41
2.5
 42
1.0
 43
10.0
 44
1.0
 47
0.1
 48
0.1
 73
     0
 74
     0
 75
     1
 76
     1
 77
     1
 78
     8
 79
     2
140
3.5
141
0.0
143
0.0393701
144
2.0
146
0.71
147
1.5
172
     1
173
     1
176
   256
177
   256
178
     2
271
     2
272
     3
274
     4
283
     0
284
     8
340
11
343
87
371
    -1
372
    -1
  0
DIMSTYLE
105
40B
102
{ACAD_REACTORS
330
A57E
330
A516
330
A540
330
A622
330
A724
330
A67B
330
A6A1
330
A7A5
330
A77B
330
A7CB
330
B250
102
}
330
A
100
AcDbSymbolTableRecord
100
AcDbDimStyleTableRecord
  2
AM_ISO$0
 70
     0
  4
"
 41
3.5
 42
1.0
 43
8.0
 44
1.0
 47
0.1
 48
0.1
 73
     0
 74
     0
 77
     1
 78
     8
 79
     2
140
3.5
141
0.0
143
0.0393701
146
0.6
147
1.0
172
     1
176
   256
177
   256
178
   256
271
     2
272
     2
283
     0
284
     8
340
11
371
    -1
372
    -1
  0
DIMSTYLE
105
2AAB
330
A
100
AcDbSymbolTableRecord
100
AcDbDimStyleTableRecord
  2
AM_ISO$SH$3
 70
     0
  4
"
 40
1.3
 41
2.5
 42
1.0
 43
10.0
 44
1.0
 47
0.1
 48
0.1
 73
     0
 74
     0
 75
     1
 76
     1
 77
     1
 78
     8
 79
     2
140
3.5
141
0.0
143
0.0393701
144
2.0
146
0.71
147
1.5
172
     1
173
     1
176
   256
177
   256
178
     2
271
     2
272
     3
274
     4
283
     0
284
     8
340
11
343
87
371
    -1
372
    -1
  0
DIMSTYLE
105
3FD7
330
A
100
AcDbSymbolTableRecord
100
AcDbDimStyleTableRecord
  2
AM_ISO$2
 70
     0
  4
"
 41
2.5
 42
1.0
 43
10.0
 44
1.0
 47
0.1
 48
0.1
 73
     0
 74
     0
 77
     1
 78
     8
 79
     2
140
3.5
141
0.0
143
0.0393701
146
0.71
147
1.5
172
     1
176
   256
177
   256
178
     2
271
     2
272
     3
274
     4
283
     0
284
     8
340
11
371
    -1
372
    -1
  0
DIMSTYLE
105
6430
330
A
100
AcDbSymbolTableRecord
100
AcDbDimStyleTableRecord
  2
AM_ISO$SH$0
 70
     0
  4
"
 40
1.5
 41
2.5
 42
1.0
 43
10.0
 44
1.0
 47
0.1
 48
0.1
 73
     0
 74
     0
 75
     1
 76
     1
 77
     1
 78
     8
 79
     2
140
3.5
141
0.0
143
0.0393701
144
2.0
146
0.71
147
1.5
172
     1
173
     1
176
   256
177
   256
178
     2
271
     2
272
     3
274
     4
283
     0
284
     8
340
11
343
87
371
    -1
372
    -1
  0
DIMSTYLE
105
7DF9
330
A
100
AcDbSymbolTableRecord
100
AcDbDimStyleTableRecord
  2
STANDARD
 70
     0
 41
2.5
 42
0.625
 43
3.75
 44
1.25
 73
     0
 74
     0
 77
     1
 78
     8
140
2.5
141
2.5
143
0.0394
147
0.625
171
     4
172
     1
273
     8
274
     4
277
     6
340
11
  0
DIMSTYLE
105
7DFA
330
A
100
AcDbSymbolTableRecord
100
AcDbDimStyleTableRecord
  2
AM_ANSI
 70
     0
  4
mm
 41
0.1
 42
0.05
 43
0.5
 44
0.1
 47
0.1
 48
0.1
 78
     7
 79
     2
140
0.12
141
0.0
146
0.71
147
0.06
176
   256
177
   256
178
     2
274
     4
284
     7
340
11
371
    -1
372
    -1
  0
DIMSTYLE
105
7DFB
330
A
100
AcDbSymbolTableRecord
100
AcDbDimStyleTableRecord
  2
DAYUS
 70
     0
  4
"
 40
0.6666666666666666
 41
3.0
 42
2.0
 43
10.0
 44
1.0
 47
0.1
 48
0.1
 73
     0
 74
     0
 77
     1
 78
     8
 79
     2
140
3.5
141
0.0
143
0.0393701
146
0.71
147
1.5
172
     1
176
   256
177
   256
178
     3
271
     2
272
     8
283
     0
284
     8
340
7DF8
371
    -1
372
    -1
  0
DIMSTYLE
105
857F
330
A
100
AcDbSymbolTableRecord
100
AcDbDimStyleTableRecord
  2
ISO-25$0
 70
     0
 40
5.0
 41
2.5
 42
0.625
 43
3.75
 44
1.25
 73
     0
 74
     0
 77
     1
 78
     8
140
2.5
141
2.5
143
0.03937007874016
147
0.625
171
     3
172
     1
271
     2
272
     2
274
     3
278
    44
283
     0
284
     8
340
11
  0
DIMSTYLE
105
968B
330
A
100
AcDbSymbolTableRecord
100
AcDbDimStyleTableRecord
  2
ISO-25
 70
     0
 41
2.5
 42
0.625
 43
3.75
 44
1.25
 73
     0
 74
     0
 77
     1
 78
     8
140
2.5
141
2.5
143
0.03937007874016
147
0.625
171
     3
172
     1
271
     2
272
     2
274
     3
278
    44
283
     0
284
     8
340
11
  0
ENDTAB
  0
TABLE
  2
BLOCK_RECORD
  5
1
330
0
100
AcDbSymbolTable
 70
    45
  0
BLOCK_RECORD
  5
1F
102
{ACAD_XDICTIONARY
360
8F
102
}
330
1
100
AcDbSymbolTableRecord
100
AcDbBlockTableRecord
  2
*Model_Space
340
22
  0
BLOCK_RECORD
  5
1B
330
1
100
AcDbSymbolTableRecord
100
AcDbBlockTableRecord
  2
*Paper_Space
340
1E
  0
BLOCK_RECORD
  5
23
330
1
100
AcDbSymbolTableRecord
100
AcDbBlockTableRecord
  2
*Paper_Space0
340
26
  0
BLOCK_RECORD
  5
87
330
1
100
AcDbSymbolTableRecord
100
AcDbBlockTableRecord
  2
GENAXEH
340
0
  0
BLOCK_RECORD
  5
7CF2
102
{ACAD_XDICTIONARY
360
7CF3
102
}
330
1
100
AcDbSymbolTableRecord
100
AcDbBlockTableRecord
  2
S2
340
0
1001
ACAD
1000
DesignCenter Data
1002
{
1070
     1
1070
     4
1002
}
  0
BLOCK_RECORD
  5
8569
330
1
100
AcDbSymbolTableRecord
100
AcDbBlockTableRecord
  2
SW_CENTERMARKSYMBOL_0
340
0
  0
BLOCK_RECORD
  5
8574
330
1
100
AcDbSymbolTableRecord
100
AcDbBlockTableRecord
  2
SW_CENTERMARKSYMBOL_1
340
0
  0
BLOCK_RECORD
  5
A517
330
1
100
AcDbSymbolTableRecord
100
AcDbBlockTableRecord
  2
*D6
340
0
  0
BLOCK_RECORD
  5
A541
330
1
100
AcDbSymbolTableRecord
100
AcDbBlockTableRecord
  2
*D7
340
0
  0
BLOCK_RECORD
  5
A57F
330
1
100
AcDbSymbolTableRecord
100
AcDbBlockTableRecord
  2
*D8
340
0
  0
BLOCK_RECORD
  5
A623
330
1
100
AcDbSymbolTableRecord
100
AcDbBlockTableRecord
  2
*D9
340
0
  0
BLOCK_RECORD
  5
A67C
330
1
100
AcDbSymbolTableRecord
100
AcDbBlockTableRecord
  2
*D10
340
0
  0
BLOCK_RECORD
  5
A6A2
330
1
100
AcDbSymbolTableRecord
100
AcDbBlockTableRecord
  2
*D11
340
0
  0
BLOCK_RECORD
  5
A725
330
1
100
AcDbSymbolTableRecord
100
AcDbBlockTableRecord
  2
*D12
340
0
  0
BLOCK_RECORD
  5
A77C
330
1
100
AcDbSymbolTableRecord
100
AcDbBlockTableRecord
  2
*D13
340
0
  0
BLOCK_RECORD
  5
A7A6
330
1
100
AcDbSymbolTableRecord
100
AcDbBlockTableRecord
  2
*D14
340
0
  0
BLOCK_RECORD
  5
A7CC
330
1
100
AcDbSymbolTableRecord
100
AcDbBlockTableRecord
  2
*D15
340
0
  0
BLOCK_RECORD
  5
B251
330
1
100
AcDbSymbolTableRecord
100
AcDbBlockTableRecord
  2
*D16
340
0
  0
BLOCK_RECORD
  5
B2BC
330
1
100
AcDbSymbolTableRecord
100
AcDbBlockTableRecord
  2
SW_CENTERMARKSYMBOL_2
340
0
  0
BLOCK_RECORD
  5
B2C7
330
1
100
AcDbSymbolTableRecord
100
AcDbBlockTableRecord
  2
SW_CENTERMARKSYMBOL_3
340
0
  0
BLOCK_RECORD
  5
B2D2
330
1
100
AcDbSymbolTableRecord
100
AcDbBlockTableRecord
  2
SW_CENTERMARKSYMBOL_4
340
0
  0
BLOCK_RECORD
  5
B2DD
330
1
100
AcDbSymbolTableRecord
100
AcDbBlockTableRecord
  2
SW_CENTERMARKSYMBOL_5
340
0
  0
BLOCK_RECORD
  5
B2E8
330
1
100
AcDbSymbolTableRecord
100
AcDbBlockTableRecord
  2
SW_CENTERMARKSYMBOL_6
340
0
  0
BLOCK_RECORD
  5
B2F3
330
1
100
AcDbSymbolTableRecord
100
AcDbBlockTableRecord
  2
SW_CENTERMARKSYMBOL_7
340
0
  0
BLOCK_RECORD
  5
B2FE
330
1
100
AcDbSymbolTableRecord
100
AcDbBlockTableRecord
  2
SW_CENTERMARKSYMBOL_8
340
0
  0
BLOCK_RECORD
  5
B309
330
1
100
AcDbSymbolTableRecord
100
AcDbBlockTableRecord
  2
SW_CENTERMARKSYMBOL_9
340
0
  0
BLOCK_RECORD
  5
B314
330
1
100
AcDbSymbolTableRecord
100
AcDbBlockTableRecord
  2
SW_CENTERMARKSYMBOL_10
340
0
  0
BLOCK_RECORD
  5
B31F
330
1
100
AcDbSymbolTableRecord
100
AcDbBlockTableRecord
  2
SW_CENTERMARKSYMBOL_11
340
0
  0
BLOCK_RECORD
  5
B32A
330
1
100
AcDbSymbolTableRecord
100
AcDbBlockTableRecord
  2
SW_CENTERMARKSYMBOL_12
340
0
  0
BLOCK_RECORD
  5
B335
330
1
100
AcDbSymbolTableRecord
100
AcDbBlockTableRecord
  2
SW_CENTERMARKSYMBOL_13
340
0
  0
BLOCK_RECORD
  5
B340
330
1
100
AcDbSymbolTableRecord
100
AcDbBlockTableRecord
  2
SW_CENTERMARKSYMBOL_14
340
0
  0
BLOCK_RECORD
  5
B34B
330
1
100
AcDbSymbolTableRecord
100
AcDbBlockTableRecord
  2
SW_CENTERMARKSYMBOL_15
340
0
  0
BLOCK_RECORD
  5
B356
330
1
100
AcDbSymbolTableRecord
100
AcDbBlockTableRecord
  2
SW_CENTERMARKSYMBOL_16
340
0
  0
BLOCK_RECORD
  5
B361
330
1
100
AcDbSymbolTableRecord
100
AcDbBlockTableRecord
  2
SW_CENTERMARKSYMBOL_17
340
0
  0
BLOCK_RECORD
  5
B36C
330
1
100
AcDbSymbolTableRecord
100
AcDbBlockTableRecord
  2
SW_CENTERMARKSYMBOL_18
340
0
  0
BLOCK_RECORD
  5
B377
330
1
100
AcDbSymbolTableRecord
100
AcDbBlockTableRecord
  2
SW_CENTERMARKSYMBOL_19
340
0
  0
BLOCK_RECORD
  5
B382
330
1
100
AcDbSymbolTableRecord
100
AcDbBlockTableRecord
  2
SW_CENTERMARKSYMBOL_20
340
0
  0
BLOCK_RECORD
  5
B38D
330
1
100
AcDbSymbolTableRecord
100
AcDbBlockTableRecord
  2
SW_CENTERMARKSYMBOL_21
340
0
  0
BLOCK_RECORD
  5
B398
330
1
100
AcDbSymbolTableRecord
100
AcDbBlockTableRecord
  2
SW_CENTERMARKSYMBOL_22
340
0
  0
BLOCK_RECORD
  5
B3A3
330
1
100
AcDbSymbolTableRecord
100
AcDbBlockTableRecord
  2
SW_CENTERMARKSYMBOL_23
340
0
  0
BLOCK_RECORD
  5
B3AE
330
1
100
AcDbSymbolTableRecord
100
AcDbBlockTableRecord
  2
SW_CENTERMARKSYMBOL_24
340
0
  0
BLOCK_RECORD
  5
B3B9
330
1
100
AcDbSymbolTableRecord
100
AcDbBlockTableRecord
  2
SW_CENTERMARKSYMBOL_25
340
0
  0
BLOCK_RECORD
  5
B3C4
330
1
100
AcDbSymbolTableRecord
100
AcDbBlockTableRecord
  2
SW_CENTERMARKSYMBOL_26
340
0
  0
BLOCK_RECORD
  5
B3CF
330
1
100
AcDbSymbolTableRecord
100
AcDbBlockTableRecord
  2
SW_CENTERMARKSYMBOL_27
340
0
  0
BLOCK_RECORD
  5
B3DA
330
1
100
AcDbSymbolTableRecord
100
AcDbBlockTableRecord
  2
SW_CENTERMARKSYMBOL_28
340
0
  0
BLOCK_RECORD
  5
B3E5
330
1
100
AcDbSymbolTableRecord
100
AcDbBlockTableRecord
  2
SW_CENTERMARKSYMBOL_29
340
0
  0
ENDTAB
  0
ENDSEC
  0
SECTION
  2
BLOCKS
  0
BLOCK
  5
20
330
1F
100
AcDbEntity
  8
0
100
AcDbBlockBegin
  2
*Model_Space
 70
     0
 10
0.0
 20
0.0
 30
0.0
  3
*Model_Space
  1

  0
ENDBLK
  5
21
330
1F
100
AcDbEntity
  8
0
100
AcDbBlockEnd
  0
BLOCK
  5
1C
330
1B
100
AcDbEntity
 67
     1
  8
0
100
AcDbBlockBegin
  2
*Paper_Space
 70
     0
 10
0.0
 20
0.0
 30
0.0
  3
*Paper_Space
  1

  0
ENDBLK
  5
1D
330
1B
100
AcDbEntity
 67
     1
  8
0
100
AcDbBlockEnd
  0
BLOCK
  5
24
330
23
100
AcDbEntity
  8
0
100
AcDbBlockBegin
  2
*Paper_Space0
 70
     0
 10
0.0
 20
0.0
 30
0.0
  3
*Paper_Space0
  1

  0
ENDBLK
  5
25
330
23
100
AcDbEntity
  8
0
100
AcDbBlockEnd
  0
BLOCK
  5
89
330
87
100
AcDbEntity
  8
0
100
AcDbBlockBegin
  2
GENAXEH
 70
     0
 10
0.0
 20
0.0
 30
0.0
  3
GENAXEH
  1

  0
LINE
  5
88
330
87
100
AcDbEntity
  8
0
100
AcDbLine
 10
-1.0
 20
0.0
 30
0.0
 11
1.0
 21
0.0
 31
0.0
  0
ENDBLK
  5
8A
330
87
100
AcDbEntity
  8
0
100
AcDbBlockEnd
  0
BLOCK
  5
7CF4
330
7CF2
100
AcDbEntity
  8
0
100
AcDbBlockBegin
  2
S2
 70
     0
 10
0.0
 20
0.0
 30
0.0
  3
S2
  1

  0
LINE
  5
7CF5
330
7CF2
100
AcDbEntity
  8
AM_5
100
AcDbLine
 10
0.0000000000000284
 20
4.000000000000028
 30
0.0
 11
4.0
 21
4.0
 31
0.0
  0
LINE
  5
7CF6
330
7CF2
100
AcDbEntity
  8
AM_5
100
AcDbLine
 10
0.0000000000000284
 20
0.0
 30
0.0
 11
4.0
 21
0.0
 31
0.0
  0
TEXT
  5
7CF7
330
7CF2
100
AcDbEntity
  8
AM_5
100
AcDbText
 10
1.099999999999999
 20
0.5
 30
0.0
 40
3.0
  1
2
 41
0.9
  7
DAYUS
 72
     4
 11
2.0
 21
2.0
 31
0.0
100
AcDbText
  0
LINE
  5
7CF8
330
7CF2
100
AcDbEntity
  8
AM_5
100
AcDbLine
 10
0.0
 20
4.0
 30
0.0
 11
0.0
 21
0.0
 31
0.0
  0
LINE
  5
7CF9
330
7CF2
100
AcDbEntity
  8
AM_5
100
AcDbLine
 10
4.0
 20
4.0
 30
0.0
 11
4.0
 21
0.0
 31
0.0
  0
ENDBLK
  5
7CFA
330
7CF2
100
AcDbEntity
  8
0
100
AcDbBlockEnd
  0
BLOCK
  5
856A
330
8569
100
AcDbEntity
  8
0
100
AcDbBlockBegin
  2
SW_CENTERMARKSYMBOL_0
 70
     0
 10
0.0
 20
0.0
 30
0.0
  3
SW_CENTERMARKSYMBOL_0
  1

  0
LINE
  5
856B
330
8569
100
AcDbEntity
  8
0
  6
Continuous
 62
     0
370
     0
100
AcDbLine
 10
0.0
 20
0.0
 30
0.0
 11
0.0
 21
2.500000000000002
 31
0.0
  0
LINE
  5
856C
330
8569
100
AcDbEntity
  8
0
  6
Continuous
 62
     0
370
     0
100
AcDbLine
 10
0.0
 20
0.0
 30
0.0
 11
-2.500000000000002
 21
0.0
 31
0.0
  0
LINE
  5
856D
330
8569
100
AcDbEntity
  8
0
  6
Continuous
 62
     0
370
     0
100
AcDbLine
 10
0.0
 20
0.0
 30
0.0
 11
0.0
 21
-2.500000000000002
 31
0.0
  0
LINE
  5
856E
330
8569
100
AcDbEntity
  8
0
  6
Continuous
 62
     0
370
     0
100
AcDbLine
 10
0.0
 20
0.0
 30
0.0
 11
2.500000000000002
 21
0.0
 31
0.0
  0
LINE
  5
856F
330
8569
100
AcDbEntity
  8
0
  6
Continuous
 62
     0
370
     0
100
AcDbLine
 10
0.0
 20
2.500000000000002
 30
0.0
 11
0.0
 21
4.500000000000003
 31
0.0
  0
LINE
  5
8570
330
8569
100
AcDbEntity
  8
0
  6
Continuous
 62
     0
370
     0
100
AcDbLine
 10
-2.500000000000002
 20
0.0
 30
0.0
 11
-4.500000000000003
 21
0.0
 31
0.0
  0
LINE
  5
8571
330
8569
100
AcDbEntity
  8
0
  6
Continuous
 62
     0
370
     0
100
AcDbLine
 10
0.0
 20
-2.500000000000002
 30
0.0
 11
0.0
 21
-4.500000000000003
 31
0.0
  0
LINE
  5
8572
330
8569
100
AcDbEntity
  8
0
  6
Continuous
 62
     0
370
     0
100
AcDbLine
 10
2.500000000000002
 20
0.0
 30
0.0
 11
4.500000000000003
 21
0.0
 31
0.0
  0
ENDBLK
  5
8573
330
8569
100
AcDbEntity
  8
0
100
AcDbBlockEnd
  0
BLOCK
  5
8575
330
8574
100
AcDbEntity
  8
0
100
AcDbBlockBegin
  2
SW_CENTERMARKSYMBOL_1
 70
     0
 10
0.0
 20
0.0
 30
0.0
  3
SW_CENTERMARKSYMBOL_1
  1

  0
LINE
  5
8576
330
8574
100
AcDbEntity
  8
0
  6
Continuous
 62
     0
370
     0
100
AcDbLine
 10
0.0
 20
0.0
 30
0.0
 11
0.0
 21
2.500000000000002
 31
0.0
  0
LINE
  5
8577
330
8574
100
AcDbEntity
  8
0
  6
Continuous
 62
     0
370
     0
100
AcDbLine
 10
0.0
 20
0.0
 30
0.0
 11
-2.500000000000002
 21
0.0
 31
0.0
  0
LINE
  5
8578
330
8574
100
AcDbEntity
  8
0
  6
Continuous
 62
     0
370
     0
100
AcDbLine
 10
0.0
 20
0.0
 30
0.0
 11
0.0
 21
-2.500000000000002
 31
0.0
  0
LINE
  5
8579
330
8574
100
AcDbEntity
  8
0
  6
Continuous
 62
     0
370
     0
100
AcDbLine
 10
0.0
 20
0.0
 30
0.0
 11
2.500000000000002
 21
0.0
 31
0.0
  0
LINE
  5
857A
330
8574
100
AcDbEntity
  8
0
  6
Continuous
 62
     0
370
     0
100
AcDbLine
 10
0.0
 20
5.000000000000004
 30
0.0
 11
0.0
 21
5.500000000000005
 31
0.0
  0
LINE
  5
857B
330
8574
100
AcDbEntity
  8
0
  6
Continuous
 62
     0
370
     0
100
AcDbLine
 10
-5.000000000000004
 20
0.0
 30
0.0
 11
-5.500000000000005
 21
0.0
 31
0.0
  0
LINE
  5
857C
330
8574
100
AcDbEntity
  8
0
  6
Continuous
 62
     0
370
     0
100
AcDbLine
 10
0.0
 20
-5.000000000000004
 30
0.0
 11
0.0
 21
-5.500000000000005
 31
0.0
  0
LINE
  5
857D
330
8574
100
AcDbEntity
  8
0
  6
Continuous
 62
     0
370
     0
100
AcDbLine
 10
5.000000000000004
 20
0.0
 30
0.0
 11
5.500000000000005
 21
0.0
 31
0.0
  0
ENDBLK
  5
857E
330
8574
100
AcDbEntity
  8
0
100
AcDbBlockEnd
  0
BLOCK
  5
A523
330
A517
100
AcDbEntity
  8
0
100
AcDbBlockBegin
  2
*D6
 70
     1
 10
0.0
 20
0.0
 30
0.0
  3
*D6
  1

  0
LINE
  5
C7BD
330
A517
100
AcDbEntity
  8
AM_REFDIM
100
AcDbLine
 10
710.6800732389577
 20
109.1070166916279
 30
0.0
 11
710.6800732389577
 21
95.21144901947474
 31
0.0
  0
LINE
  5
C7BE
330
A517
100
AcDbEntity
  8
AM_REFDIM
100
AcDbLine
 10
726.8800732389564
 20
109.1070166916278
 30
0.0
 11
726.8800732389564
 21
95.21144901947474
 31
0.0
  0
LINE
  5
C7BF
330
A517
100
AcDbEntity
  8
AM_REFDIM
100
AcDbLine
 10
714.2004951290949
 20
96.21728384522823
 30
0.0
 11
723.3596513488192
 21
96.21728384522823
 31
0.0
  0
SOLID
  5
C7C0
330
A517
100
AcDbEntity
  8
AM_REFDIM
100
AcDbTrace
 10
714.2004951290949
 20
96.80402082691776
 30
0.0
 11
714.2004951290949
 21
95.6305468635387
 31
0.0
 12
710.6800732389577
 22
96.21728384522823
 32
0.0
 13
710.6800732389577
 23
96.21728384522823
 33
0.0
  0
SOLID
  5
C7C1
330
A517
100
AcDbEntity
  8
AM_REFDIM
100
AcDbTrace
 10
723.3596513488192
 20
96.80402082691776
 30
0.0
 11
723.3596513488192
 21
95.6305468635387
 31
0.0
 12
726.8800732389564
 22
96.21728384522823
 32
0.0
 13
726.8800732389564
 23
96.21728384522823
 33
0.0
  0
MTEXT
  5
C7C2
330
A517
100
AcDbEntity
  8
AM_REFDIM
100
AcDbMText
 10
718.7800732389571
 20
98.98367611426785
 30
0.0
 40
3.520421890137194
 41
0.0
 71
     5
 72
     1
  1
16.2
 73
     1
 44
1.0
1001
ACAD
1000
MTEXTBEGIN
1070
    73
1070
     1
1070
    44
1040
1.0
1070
    74
1070
     0
1000
MTEXTEND
  0
POINT
  5
C7C3
330
A517
100
AcDbEntity
  8
Defpoints
 62
     0
100
AcDbPoint
 10
710.6800732389577
 20
110.1128515173814
 30
0.0
  0
POINT
  5
C7C4
330
A517
100
AcDbEntity
  8
Defpoints
 62
     0
100
AcDbPoint
 10
726.8800732389564
 20
110.1128515173813
 30
0.0
  0
POINT
  5
C7C5
330
A517
100
AcDbEntity
  8
Defpoints
 62
     0
100
AcDbPoint
 10
726.8800732389564
 20
96.21728384522823
 30
0.0
  0
ENDBLK
  5
A524
330
A517
100
AcDbEntity
  8
0
100
AcDbBlockEnd
  0
BLOCK
  5
A54B
330
A541
100
AcDbEntity
  8
0
100
AcDbBlockBegin
  2
*D7
 70
     1
 10
0.0
 20
0.0
 30
0.0
  3
*D7
  1

  0
LINE
  5
C7C6
330
A541
100
AcDbEntity
  8
AM_REFDIM
100
AcDbLine
 10
703.7800732389576
 20
107.5799139935937
 30
0.0
 11
703.7800732389576
 21
87.97803640539546
 31
0.0
  0
LINE
  5
C7C7
330
A541
100
AcDbEntity
  8
AM_REFDIM
100
AcDbLine
 10
733.7800732389576
 20
107.5799139935937
 30
0.0
 11
733.7800732389576
 21
87.97803640539546
 31
0.0
  0
LINE
  5
C7C8
330
A541
100
AcDbEntity
  8
AM_REFDIM
100
AcDbLine
 10
707.3004951290947
 20
88.98387123114895
 30
0.0
 11
730.2596513488204
 21
88.98387123114895
 31
0.0
  0
SOLID
  5
C7C9
330
A541
100
AcDbEntity
  8
AM_REFDIM
100
AcDbTrace
 10
707.3004951290947
 20
89.57060821283848
 30
0.0
 11
707.3004951290947
 21
88.39713424945943
 31
0.0
 12
703.7800732389576
 22
88.98387123114895
 32
0.0
 13
703.7800732389576
 23
88.98387123114895
 33
0.0
  0
SOLID
  5
C7CA
330
A541
100
AcDbEntity
  8
AM_REFDIM
100
AcDbTrace
 10
730.2596513488204
 20
89.57060821283848
 30
0.0
 11
730.2596513488204
 21
88.39713424945943
 31
0.0
 12
733.7800732389576
 22
88.98387123114895
 32
0.0
 13
733.7800732389576
 23
88.98387123114895
 33
0.0
  0
MTEXT
  5
C7CB
330
A541
100
AcDbEntity
  8
AM_REFDIM
100
AcDbMText
 10
718.7800732389575
 20
91.74991700197102
 30
0.0
 40
3.520421890137194
 41
0.0
 71
     5
 72
     1
  1
30
 73
     1
 44
1.0
1001
ACAD
1000
MTEXTBEGIN
1070
    73
1070
     1
1070
    44
1040
1.0
1070
    74
1070
     0
1000
MTEXTEND
  0
POINT
  5
C7CC
330
A541
100
AcDbEntity
  8
Defpoints
 62
     0
100
AcDbPoint
 10
703.7800732389576
 20
108.5857488193472
 30
0.0
  0
POINT
  5
C7CD
330
A541
100
AcDbEntity
  8
Defpoints
 62
     0
100
AcDbPoint
 10
733.7800732389576
 20
108.5857488193472
 30
0.0
  0
POINT
  5
C7CE
330
A541
100
AcDbEntity
  8
Defpoints
 62
     0
100
AcDbPoint
 10
733.7800732389576
 20
88.98387123114895
 30
0.0
  0
ENDBLK
  5
A54C
330
A541
100
AcDbEntity
  8
0
100
AcDbBlockEnd
  0
BLOCK
  5
A589
330
A57F
100
AcDbEntity
  8
0
100
AcDbBlockBegin
  2
*D8
 70
     1
 10
0.0
 20
0.0
 30
0.0
  3
*D8
  1

  0
LINE
  5
C7CF
330
A57F
100
AcDbEntity
  8
AM_REFDIM
100
AcDbLine
 10
788.7346351285218
 20
172.0857488193472
 30
0.0
 11
804.1386385225337
 21
172.0857488193472
 31
0.0
  0
LINE
  5
C7D0
330
A57F
100
AcDbEntity
  8
AM_REFDIM
100
AcDbLine
 10
734.785908064711
 20
108.5857488193472
 30
0.0
 11
804.1386385225337
 21
108.5857488193471
 31
0.0
  0
LINE
  5
C7D1
330
A57F
100
AcDbEntity
  8
AM_REFDIM
100
AcDbLine
 10
803.1328036967803
 20
168.56532692921
 30
0.0
 11
803.1328036967803
 21
112.1061707094844
 31
0.0
  0
SOLID
  5
C7D2
330
A57F
100
AcDbEntity
  8
AM_REFDIM
100
AcDbTrace
 10
802.5460667150905
 20
168.56532692921
 30
0.0
 11
803.7195406784698
 21
168.56532692921
 31
0.0
 12
803.1328036967803
 22
172.0857488193472
 32
0.0
 13
803.1328036967803
 23
172.0857488193472
 33
0.0
  0
SOLID
  5
C7D3
330
A57F
100
AcDbEntity
  8
AM_REFDIM
100
AcDbTrace
 10
802.5460667150905
 20
112.1061707094844
 30
0.0
 11
803.7195406784698
 21
112.1061707094844
 31
0.0
 12
803.1328036967803
 22
108.5857488193471
 32
0.0
 13
803.1328036967803
 23
108.5857488193471
 33
0.0
  0
MTEXT
  5
C7D4
330
A57F
100
AcDbEntity
  8
AM_REFDIM
100
AcDbMText
 10
800.366757925958
 20
140.3357488193472
 30
0.0
 40
3.520421890137194
 41
0.0
 71
     5
 72
     1
  1
64
 11
0.0000000000000001
 21
1.0
 31
0.0
 73
     1
 44
1.0
1001
ACAD
1000
MTEXTBEGIN
1070
    73
1070
     1
1070
    44
1040
1.0
1070
    74
1070
     0
1000
MTEXTEND
  0
POINT
  5
C7D5
330
A57F
100
AcDbEntity
  8
Defpoints
 62
     0
100
AcDbPoint
 10
787.7288003027683
 20
172.0857488193472
 30
0.0
  0
POINT
  5
C7D6
330
A57F
100
AcDbEntity
  8
Defpoints
 62
     0
100
AcDbPoint
 10
733.7800732389576
 20
108.5857488193472
 30
0.0
  0
POINT
  5
C7D7
330
A57F
100
AcDbEntity
  8
Defpoints
 62
     0
100
AcDbPoint
 10
803.1328036967803
 20
108.5857488193471
 30
0.0
  0
ENDBLK
  5
A58A
330
A57F
100
AcDbEntity
  8
0
100
AcDbBlockEnd
  0
BLOCK
  5
A62D
330
A623
100
AcDbEntity
  8
0
100
AcDbBlockBegin
  2
*D9
 70
     1
 10
0.0
 20
0.0
 30
0.0
  3
*D9
  1

  0
LINE
  5
C7D8
330
A623
100
AcDbEntity
  8
AM_REFDIM
100
AcDbLine
 10
834.5117433904533
 20
235.5915836451007
 30
0.0
 11
834.5117433904533
 21
245.5622436268966
 31
0.0
  0
LINE
  5
C7D9
330
A623
100
AcDbEntity
  8
AM_REFDIM
100
AcDbLine
 10
910.5117433904533
 20
235.0432260025751
 30
0.0
 11
910.5117433904533
 21
245.5622436268966
 31
0.0
  0
LINE
  5
C7DA
330
A623
100
AcDbEntity
  8
AM_REFDIM
100
AcDbLine
 10
838.0321652805905
 20
244.5564088011431
 30
0.0
 11
906.9913215003161
 21
244.5564088011431
 31
0.0
  0
SOLID
  5
C7DB
330
A623
100
AcDbEntity
  8
AM_REFDIM
100
AcDbTrace
 10
838.0321652805905
 20
245.1431457828327
 30
0.0
 11
838.0321652805905
 21
243.9696718194536
 31
0.0
 12
834.5117433904533
 22
244.5564088011431
 32
0.0
 13
834.5117433904533
 23
244.5564088011431
 33
0.0
  0
SOLID
  5
C7DC
330
A623
100
AcDbEntity
  8
AM_REFDIM
100
AcDbTrace
 10
906.9913215003161
 20
245.1431457828327
 30
0.0
 11
906.9913215003161
 21
243.9696718194536
 31
0.0
 12
910.5117433904533
 22
244.5564088011431
 32
0.0
 13
910.5117433904533
 23
244.5564088011431
 33
0.0
  0
MTEXT
  5
C7DD
330
A623
100
AcDbEntity
  8
AM_REFDIM
100
AcDbMText
 10
872.5117433904534
 20
247.3224545719652
 30
0.0
 40
3.520421890137194
 41
0.0
 71
     5
 72
     1
  1
76
 73
     1
 44
1.0
1001
ACAD
1000
MTEXTBEGIN
1070
    73
1070
     1
1070
    44
1040
1.0
1070
    74
1070
     0
1000
MTEXTEND
  0
POINT
  5
C7DE
330
A623
100
AcDbEntity
  8
Defpoints
 62
     0
100
AcDbPoint
 10
834.5117433904533
 20
234.5857488193472
 30
0.0
  0
POINT
  5
C7DF
330
A623
100
AcDbEntity
  8
Defpoints
 62
     0
100
AcDbPoint
 10
910.5117433904533
 20
234.0373911768216
 30
0.0
  0
POINT
  5
C7E0
330
A623
100
AcDbEntity
  8
Defpoints
 62
     0
100
AcDbPoint
 10
910.5117433904533
 20
244.5564088011431
 30
0.0
  0
ENDBLK
  5
A62E
330
A623
100
AcDbEntity
  8
0
100
AcDbBlockEnd
  0
BLOCK
  5
A686
330
A67C
100
AcDbEntity
  8
0
100
AcDbBlockBegin
  2
*D10
 70
     1
 10
0.0
 20
0.0
 30
0.0
  3
*D10
  1

  0
LINE
  5
C7E1
330
A67C
100
AcDbEntity
  8
AM_REFDIM
100
AcDbLine
 10
911.5175782162069
 20
234.5857488193472
 30
0.0
 11
922.4302079230453
 21
234.5857488193472
 31
0.0
  0
LINE
  5
C7E2
330
A67C
100
AcDbEntity
  8
AM_REFDIM
100
AcDbLine
 10
911.5175782162069
 20
109.5857488193472
 30
0.0
 11
922.4302079230453
 21
109.5857488193472
 31
0.0
  0
LINE
  5
C7E3
330
A67C
100
AcDbEntity
  8
AM_REFDIM
100
AcDbLine
 10
921.4243730972919
 20
231.06532692921
 30
0.0
 11
921.4243730972919
 21
113.1061707094844
 31
0.0
  0
SOLID
  5
C7E4
330
A67C
100
AcDbEntity
  8
AM_REFDIM
100
AcDbTrace
 10
920.8376361156023
 20
231.06532692921
 30
0.0
 11
922.0111100789814
 21
231.06532692921
 31
0.0
 12
921.4243730972919
 22
234.5857488193472
 32
0.0
 13
921.4243730972919
 23
234.5857488193472
 33
0.0
  0
SOLID
  5
C7E5
330
A67C
100
AcDbEntity
  8
AM_REFDIM
100
AcDbTrace
 10
920.8376361156023
 20
113.1061707094844
 30
0.0
 11
922.0111100789814
 21
113.1061707094844
 31
0.0
 12
921.4243730972919
 22
109.5857488193472
 32
0.0
 13
921.4243730972919
 23
109.5857488193472
 33
0.0
  0
MTEXT
  5
C7E6
330
A67C
100
AcDbEntity
  8
AM_REFDIM
100
AcDbMText
 10
918.6579808282521
 20
172.0857488193472
 30
0.0
 40
3.520421890137194
 41
0.0
 71
     5
 72
     1
  1
%%c125
 11
0.0000000000000001
 21
1.0
 31
0.0
 73
     1
 44
1.0
1001
ACAD
1000
MTEXTBEGIN
1070
    73
1070
     1
1070
    44
1040
1.0
1070
    74
1070
     0
1000
MTEXTEND
  0
POINT
  5
C7E7
330
A67C
100
AcDbEntity
  8
Defpoints
 62
     0
100
AcDbPoint
 10
910.5117433904533
 20
234.5857488193472
 30
0.0
  0
POINT
  5
C7E8
330
A67C
100
AcDbEntity
  8
Defpoints
 62
     0
100
AcDbPoint
 10
910.5117433904533
 20
109.5857488193472
 30
0.0
  0
POINT
  5
C7E9
330
A67C
100
AcDbEntity
  8
Defpoints
 62
     0
100
AcDbPoint
 10
921.4243730972919
 20
109.5857488193472
 30
0.0
  0
ENDBLK
  5
A687
330
A67C
100
AcDbEntity
  8
0
100
AcDbBlockEnd
  0
BLOCK
  5
A6AC
330
A6A2
100
AcDbEntity
  8
0
100
AcDbBlockBegin
  2
*D11
 70
     1
 10
0.0
 20
0.0
 30
0.0
  3
*D11
  1

  0
LINE
  5
C7EA
330
A6A2
100
AcDbEntity
  8
AM_REFDIM
100
AcDbLine
 10
910.5117433904533
 20
108.5799139935937
 30
0.0
 11
910.5117433904533
 21
97.66875697109078
 31
0.0
  0
LINE
  5
C7EB
330
A6A2
100
AcDbEntity
  8
AM_REFDIM
100
AcDbLine
 10
857.0117433904533
 20
156.0799139935937
 30
0.0
 11
857.0117433904533
 21
97.66875697109078
 31
0.0
  0
LINE
  5
C7EC
330
A6A2
100
AcDbEntity
  8
AM_REFDIM
100
AcDbLine
 10
906.9913215003161
 20
98.67459179684425
 30
0.0
 11
860.5321652805905
 21
98.67459179684425
 31
0.0
  0
SOLID
  5
C7ED
330
A6A2
100
AcDbEntity
  8
AM_REFDIM
100
AcDbTrace
 10
906.9913215003161
 20
99.26132877853378
 30
0.0
 11
906.9913215003161
 21
98.08785481515473
 31
0.0
 12
910.5117433904533
 22
98.67459179684425
 32
0.0
 13
910.5117433904533
 23
98.67459179684425
 33
0.0
  0
SOLID
  5
C7EE
330
A6A2
100
AcDbEntity
  8
AM_REFDIM
100
AcDbTrace
 10
860.5321652805905
 20
99.26132877853378
 30
0.0
 11
860.5321652805905
 21
98.08785481515473
 31
0.0
 12
857.0117433904533
 22
98.67459179684425
 32
0.0
 13
857.0117433904533
 23
98.67459179684425
 33
0.0
  0
MTEXT
  5
C7EF
330
A6A2
100
AcDbEntity
  8
AM_REFDIM
100
AcDbMText
 10
883.7617433904533
 20
101.4406375676663
 30
0.0
 40
3.520421890137194
 41
0.0
 71
     5
 72
     1
  1
53.5
 73
     1
 44
1.0
1001
ACAD
1000
MTEXTBEGIN
1070
    73
1070
     1
1070
    44
1040
1.0
1070
    74
1070
     0
1000
MTEXTEND
  0
POINT
  5
C7F0
330
A6A2
100
AcDbEntity
  8
Defpoints
 62
     0
100
AcDbPoint
 10
910.5117433904533
 20
109.5857488193472
 30
0.0
  0
POINT
  5
C7F1
330
A6A2
100
AcDbEntity
  8
Defpoints
 62
     0
100
AcDbPoint
 10
857.0117433904533
 20
157.0857488193472
 30
0.0
  0
POINT
  5
C7F2
330
A6A2
100
AcDbEntity
  8
Defpoints
 62
     0
100
AcDbPoint
 10
857.0117433904533
 20
98.67459179684425
 30
0.0
  0
ENDBLK
  5
A6AD
330
A6A2
100
AcDbEntity
  8
0
100
AcDbBlockEnd
  0
BLOCK
  5
A731
330
A725
100
AcDbEntity
  8
0
100
AcDbBlockBegin
  2
*D12
 70
     1
 10
0.0
 20
0.0
 30
0.0
  3
*D12
  1

  0
LINE
  5
C7F3
330
A725
100
AcDbEntity
  8
AM_REFDIM
100
AcDbLine
 10
832.5117433904534
 20
232.0841967854122
 30
0.0
 11
832.5117433904534
 21
245.5622436268967
 31
0.0
  0
LINE
  5
C7F4
330
A725
100
AcDbEntity
  8
AM_REFDIM
100
AcDbLine
 10
834.5117433904533
 20
235.5915836451007
 30
0.0
 11
834.5117433904533
 21
245.5622436268967
 31
0.0
  0
LINE
  5
C7F5
330
A725
100
AcDbEntity
  8
AM_REFDIM
100
AcDbLine
 10
828.9913215003162
 20
244.5564088011431
 30
0.0
 11
825.470899610179
 21
244.5564088011431
 31
0.0
  0
LINE
  5
C7F6
330
A725
100
AcDbEntity
  8
AM_REFDIM
100
AcDbLine
 10
838.0321652805905
 20
244.5564088011431
 30
0.0
 11
841.5525871707277
 21
244.5564088011431
 31
0.0
  0
LINE
  5
C7F7
330
A725
100
AcDbEntity
  8
AM_REFDIM
100
AcDbLine
 10
832.5117433904534
 20
244.5564088011431
 30
0.0
 11
834.5117433904533
 21
244.5564088011431
 31
0.0
  0
SOLID
  5
C7F8
330
A725
100
AcDbEntity
  8
AM_REFDIM
100
AcDbTrace
 10
828.9913215003162
 20
245.1431457828327
 30
0.0
 11
828.9913215003162
 21
243.9696718194536
 31
0.0
 12
832.5117433904534
 22
244.5564088011431
 32
0.0
 13
832.5117433904534
 23
244.5564088011431
 33
0.0
  0
SOLID
  5
C7F9
330
A725
100
AcDbEntity
  8
AM_REFDIM
100
AcDbTrace
 10
838.0321652805905
 20
245.1431457828327
 30
0.0
 11
838.0321652805905
 21
243.9696718194536
 31
0.0
 12
834.5117433904533
 22
244.5564088011431
 32
0.0
 13
834.5117433904533
 23
244.5564088011431
 33
0.0
  0
MTEXT
  5
C7FA
330
A725
100
AcDbEntity
  8
AM_REFDIM
100
AcDbMText
 10
833.5117433904533
 20
247.3228010701828
 30
0.0
 40
3.520421890137194
 41
0.0
 71
     5
 72
     1
  1
2
 73
     1
 44
1.0
1001
ACAD
1000
MTEXTBEGIN
1070
    73
1070
     1
1070
    44
1040
1.0
1070
    74
1070
     0
1000
MTEXTEND
  0
POINT
  5
C7FB
330
A725
100
AcDbEntity
  8
Defpoints
 62
     0
100
AcDbPoint
 10
832.5117433904534
 20
231.0783619596587
 30
0.0
  0
POINT
  5
C7FC
330
A725
100
AcDbEntity
  8
Defpoints
 62
     0
100
AcDbPoint
 10
834.5117433904533
 20
234.5857488193472
 30
0.0
  0
POINT
  5
C7FD
330
A725
100
AcDbEntity
  8
Defpoints
 62
     0
100
AcDbPoint
 10
834.5117433904533
 20
244.5564088011431
 30
0.0
  0
ENDBLK
  5
A732
330
A725
100
AcDbEntity
  8
0
100
AcDbBlockEnd
  0
BLOCK
  5
A788
330
A77C
100
AcDbEntity
  8
0
100
AcDbBlockBegin
  2
*D13
 70
     1
 10
0.0
 20
0.0
 30
0.0
  3
*D13
  1

  0
LINE
  5
C7FE
330
A77C
100
AcDbEntity
  8
AM_REFDIM
100
AcDbLine
 10
719.785908064711
 20
134.5857488193472
 30
0.0
 11
782.468790861684
 21
134.5857488193472
 31
0.0
  0
LINE
  5
C7FF
330
A77C
100
AcDbEntity
  8
AM_REFDIM
100
AcDbLine
 10
727.785908064711
 20
128.5857488193472
 30
0.0
 11
782.468790861684
 21
128.5857488193472
 31
0.0
  0
LINE
  5
C800
330
A77C
100
AcDbEntity
  8
AM_REFDIM
100
AcDbLine
 10
781.4629560359305
 20
138.1061707094844
 30
0.0
 11
781.4629560359305
 21
141.6265925996216
 31
0.0
  0
LINE
  5
C801
330
A77C
100
AcDbEntity
  8
AM_REFDIM
100
AcDbLine
 10
781.4629560359305
 20
125.06532692921
 30
0.0
 11
781.4629560359305
 21
121.5449050390728
 31
0.0
  0
LINE
  5
C802
330
A77C
100
AcDbEntity
  8
AM_REFDIM
100
AcDbLine
 10
781.4629560359305
 20
134.5857488193472
 30
0.0
 11
781.4629560359305
 21
128.5857488193472
 31
0.0
  0
SOLID
  5
C803
330
A77C
100
AcDbEntity
  8
AM_REFDIM
100
AcDbTrace
 10
780.876219054241
 20
138.1061707094844
 30
0.0
 11
782.0496930176201
 21
138.1061707094844
 31
0.0
 12
781.4629560359305
 22
134.5857488193472
 32
0.0
 13
781.4629560359305
 23
134.5857488193472
 33
0.0
  0
SOLID
  5
C804
330
A77C
100
AcDbEntity
  8
AM_REFDIM
100
AcDbTrace
 10
780.876219054241
 20
125.06532692921
 30
0.0
 11
782.0496930176201
 21
125.06532692921
 31
0.0
 12
781.4629560359305
 22
128.5857488193472
 32
0.0
 13
781.4629560359305
 23
128.5857488193472
 33
0.0
  0
MTEXT
  5
C805
330
A77C
100
AcDbEntity
  8
AM_REFDIM
100
AcDbMText
 10
778.6969102651084
 20
131.5857488193473
 30
0.0
 40
3.520421890137194
 41
0.0
 71
     5
 72
     1
  1
6
 11
0.0000000000000001
 21
1.0
 31
0.0
 73
     1
 44
1.0
1001
ACAD
1000
MTEXTBEGIN
1070
    73
1070
     1
1070
    44
1040
1.0
1070
    74
1070
     0
1000
MTEXTEND
  0
POINT
  5
C806
330
A77C
100
AcDbEntity
  8
Defpoints
 62
     0
100
AcDbPoint
 10
718.7800732389575
 20
134.5857488193472
 30
0.0
  0
POINT
  5
C807
330
A77C
100
AcDbEntity
  8
Defpoints
 62
     0
100
AcDbPoint
 10
726.7800732389575
 20
128.5857488193472
 30
0.0
  0
POINT
  5
C808
330
A77C
100
AcDbEntity
  8
Defpoints
 62
     0
100
AcDbPoint
 10
781.4629560359305
 20
128.5857488193472
 30
0.0
  0
ENDBLK
  5
A789
330
A77C
100
AcDbEntity
  8
0
100
AcDbBlockEnd
  0
BLOCK
  5
A7B0
330
A7A6
100
AcDbEntity
  8
0
100
AcDbBlockBegin
  2
*D14
 70
     1
 10
0.0
 20
0.0
 30
0.0
  3
*D14
  1

  0
LINE
  5
C809
330
A7A6
100
AcDbEntity
  8
AM_REFDIM
100
AcDbLine
 10
719.785908064711
 20
134.5857488193472
 30
0.0
 11
793.2107055043914
 21
134.5857488193472
 31
0.0
  0
LINE
  5
C80A
330
A7A6
100
AcDbEntity
  8
AM_REFDIM
100
AcDbLine
 10
719.785908064711
 20
114.5857488193472
 30
0.0
 11
793.2107055043914
 21
114.5857488193472
 31
0.0
  0
LINE
  5
C80B
330
A7A6
100
AcDbEntity
  8
AM_REFDIM
100
AcDbLine
 10
792.2048706786378
 20
131.06532692921
 30
0.0
 11
792.2048706786378
 21
118.1061707094844
 31
0.0
  0
SOLID
  5
C80C
330
A7A6
100
AcDbEntity
  8
AM_REFDIM
100
AcDbTrace
 10
791.6181336969483
 20
131.06532692921
 30
0.0
 11
792.7916076603275
 21
131.06532692921
 31
0.0
 12
792.2048706786378
 22
134.5857488193472
 32
0.0
 13
792.2048706786378
 23
134.5857488193472
 33
0.0
  0
SOLID
  5
C80D
330
A7A6
100
AcDbEntity
  8
AM_REFDIM
100
AcDbTrace
 10
791.6181336969483
 20
118.1061707094844
 30
0.0
 11
792.7916076603275
 21
118.1061707094844
 31
0.0
 12
792.2048706786378
 22
114.5857488193472
 32
0.0
 13
792.2048706786378
 23
114.5857488193472
 33
0.0
  0
MTEXT
  5
C80E
330
A7A6
100
AcDbEntity
  8
AM_REFDIM
100
AcDbMText
 10
789.4384784095982
 20
124.5857488193472
 30
0.0
 40
3.520421890137194
 41
0.0
 71
     5
 72
     1
  1
20
 11
0.0000000000000001
 21
1.0
 31
0.0
 73
     1
 44
1.0
1001
ACAD
1000
MTEXTBEGIN
1070
    73
1070
     1
1070
    44
1040
1.0
1070
    74
1070
     0
1000
MTEXTEND
  0
POINT
  5
C80F
330
A7A6
100
AcDbEntity
  8
Defpoints
 62
     0
100
AcDbPoint
 10
718.7800732389575
 20
134.5857488193472
 30
0.0
  0
POINT
  5
C810
330
A7A6
100
AcDbEntity
  8
Defpoints
 62
     0
100
AcDbPoint
 10
718.7800732389575
 20
114.5857488193472
 30
0.0
  0
POINT
  5
C811
330
A7A6
100
AcDbEntity
  8
Defpoints
 62
     0
100
AcDbPoint
 10
792.2048706786378
 20
114.5857488193472
 30
0.0
  0
ENDBLK
  5
A7B1
330
A7A6
100
AcDbEntity
  8
0
100
AcDbBlockEnd
  0
BLOCK
  5
A7D8
330
A7CC
100
AcDbEntity
  8
0
100
AcDbBlockBegin
  2
*D15
 70
     1
 10
0.0
 20
0.0
 30
0.0
  3
*D15
  1

  0
LINE
  5
C812
330
A7CC
100
AcDbEntity
  8
AM_REFDIM
100
AcDbLine
 10
719.785908064711
 20
114.5857488193472
 30
0.0
 11
782.4687908616842
 21
114.5857488193472
 31
0.0
  0
LINE
  5
C813
330
A7CC
100
AcDbEntity
  8
AM_REFDIM
100
AcDbLine
 10
734.785908064711
 20
108.5857488193472
 30
0.0
 11
782.4687908616842
 21
108.5857488193472
 31
0.0
  0
LINE
  5
C814
330
A7CC
100
AcDbEntity
  8
AM_REFDIM
100
AcDbLine
 10
781.4629560359307
 20
118.1061707094844
 30
0.0
 11
781.4629560359307
 21
121.6265925996216
 31
0.0
  0
LINE
  5
C815
330
A7CC
100
AcDbEntity
  8
AM_REFDIM
100
AcDbLine
 10
781.4629560359307
 20
105.06532692921
 30
0.0
 11
781.4629560359307
 21
101.5449050390728
 31
0.0
  0
LINE
  5
C816
330
A7CC
100
AcDbEntity
  8
AM_REFDIM
100
AcDbLine
 10
781.4629560359307
 20
114.5857488193472
 30
0.0
 11
781.4629560359307
 21
108.5857488193472
 31
0.0
  0
SOLID
  5
C817
330
A7CC
100
AcDbEntity
  8
AM_REFDIM
100
AcDbTrace
 10
780.876219054241
 20
118.1061707094844
 30
0.0
 11
782.0496930176203
 21
118.1061707094844
 31
0.0
 12
781.4629560359307
 22
114.5857488193472
 32
0.0
 13
781.4629560359307
 23
114.5857488193472
 33
0.0
  0
SOLID
  5
C818
330
A7CC
100
AcDbEntity
  8
AM_REFDIM
100
AcDbTrace
 10
780.876219054241
 20
105.06532692921
 30
0.0
 11
782.0496930176203
 21
105.06532692921
 31
0.0
 12
781.4629560359307
 22
108.5857488193472
 32
0.0
 13
781.4629560359307
 23
108.5857488193472
 33
0.0
  0
MTEXT
  5
C819
330
A7CC
100
AcDbEntity
  8
AM_REFDIM
100
AcDbMText
 10
778.6969102651085
 20
111.5857488193473
 30
0.0
 40
3.520421890137194
 41
0.0
 71
     5
 72
     1
  1
6
 11
0.0000000000000001
 21
1.0
 31
0.0
 73
     1
 44
1.0
1001
ACAD
1000
MTEXTBEGIN
1070
    73
1070
     1
1070
    44
1040
1.0
1070
    74
1070
     0
1000
MTEXTEND
  0
POINT
  5
C81A
330
A7CC
100
AcDbEntity
  8
Defpoints
 62
     0
100
AcDbPoint
 10
718.7800732389575
 20
114.5857488193472
 30
0.0
  0
POINT
  5
C81B
330
A7CC
100
AcDbEntity
  8
Defpoints
 62
     0
100
AcDbPoint
 10
733.7800732389576
 20
108.5857488193472
 30
0.0
  0
POINT
  5
C81C
330
A7CC
100
AcDbEntity
  8
Defpoints
 62
     0
100
AcDbPoint
 10
781.4629560359307
 20
108.5857488193472
 30
0.0
  0
ENDBLK
  5
A7D9
330
A7CC
100
AcDbEntity
  8
0
100
AcDbBlockEnd
  0
BLOCK
  5
B25B
330
B251
100
AcDbEntity
  8
0
100
AcDbBlockBegin
  2
*D16
 70
     1
 10
0.0
 20
0.0
 30
0.0
  3
*D16
  1

  0
LINE
  5
C81D
330
B251
100
AcDbEntity
  8
AM_REFDIM
100
AcDbLine
 10
709.6742384132043
 20
140.6113147497724
 30
0.0
 11
652.2788828593172
 21
140.6113147497724
 31
0.0
  0
LINE
  5
C81E
330
B251
100
AcDbEntity
  8
AM_REFDIM
100
AcDbLine
 10
702.774238413204
 20
108.5857488193472
 30
0.0
 11
652.2788828593172
 21
108.5857488193472
 31
0.0
  0
LINE
  5
C81F
330
B251
100
AcDbEntity
  8
AM_REFDIM
100
AcDbLine
 10
653.2847176850707
 20
137.0908928596352
 30
0.0
 11
653.2847176850707
 21
112.1061707094844
 31
0.0
  0
SOLID
  5
C820
330
B251
100
AcDbEntity
  8
AM_REFDIM
100
AcDbTrace
 10
652.6979807033812
 20
137.0908928596352
 30
0.0
 11
653.8714546667603
 21
137.0908928596352
 31
0.0
 12
653.2847176850707
 22
140.6113147497724
 32
0.0
 13
653.2847176850707
 23
140.6113147497724
 33
0.0
  0
SOLID
  5
C821
330
B251
100
AcDbEntity
  8
AM_REFDIM
100
AcDbTrace
 10
652.6979807033812
 20
112.1061707094844
 30
0.0
 11
653.8714546667603
 21
112.1061707094844
 31
0.0
 12
653.2847176850707
 22
108.5857488193472
 32
0.0
 13
653.2847176850707
 23
108.5857488193472
 33
0.0
  0
MTEXT
  5
C822
330
B251
100
AcDbEntity
  8
AM_REFDIM
100
AcDbMText
 10
650.5183254160311
 20
124.5985317845598
 30
0.0
 40
3.520421890137194
 41
0.0
 71
     5
 72
     1
  1
32
 11
0.0000000000000001
 21
1.0
 31
0.0
 73
     1
 44
1.0
1001
ACAD
1000
MTEXTBEGIN
1070
    73
1070
     1
1070
    44
1040
1.0
1070
    74
1070
     0
1000
MTEXTEND
  0
POINT
  5
C823
330
B251
100
AcDbEntity
  8
Defpoints
 62
     0
100
AcDbPoint
 10
710.6800732389578
 20
140.6113147497724
 30
0.0
  0
POINT
  5
C824
330
B251
100
AcDbEntity
  8
Defpoints
 62
     0
100
AcDbPoint
 10
703.7800732389576
 20
108.5857488193472
 30
0.0
  0
POINT
  5
C825
330
B251
100
AcDbEntity
  8
Defpoints
 62
     0
100
AcDbPoint
 10
653.2847176850707
 20
108.5857488193472
 30
0.0
  0
ENDBLK
  5
B25C
330
B251
100
AcDbEntity
  8
0
100
AcDbBlockEnd
  0
BLOCK
  5
B2BD
330
B2BC
100
AcDbEntity
  8
0
100
AcDbBlockBegin
  2
SW_CENTERMARKSYMBOL_2
 70
     0
 10
0.0
 20
0.0
 30
0.0
  3
SW_CENTERMARKSYMBOL_2
  1

  0
LINE
  5
B2BE
330
B2BC
100
AcDbEntity
  8
0
  6
Continuous
 62
     0
370
     0
100
AcDbLine
 10
0.0
 20
0.0
 30
0.0
 11
0.0
 21
2.500000000000002
 31
0.0
  0
LINE
  5
B2BF
330
B2BC
100
AcDbEntity
  8
0
  6
Continuous
 62
     0
370
     0
100
AcDbLine
 10
0.0
 20
0.0
 30
0.0
 11
-2.500000000000002
 21
0.0
 31
0.0
  0
LINE
  5
B2C0
330
B2BC
100
AcDbEntity
  8
0
  6
Continuous
 62
     0
370
     0
100
AcDbLine
 10
0.0
 20
0.0
 30
0.0
 11
0.0
 21
-2.500000000000002
 31
0.0
  0
LINE
  5
B2C1
330
B2BC
100
AcDbEntity
  8
0
  6
Continuous
 62
     0
370
     0
100
AcDbLine
 10
0.0
 20
0.0
 30
0.0
 11
2.500000000000002
 21
0.0
 31
0.0
  0
LINE
  5
B2C2
330
B2BC
100
AcDbEntity
  8
0
  6
Continuous
 62
     0
370
     0
100
AcDbLine
 10
0.0
 20
2.500000000000002
 30
0.0
 11
0.0
 21
4.599999999999992
 31
0.0
  0
LINE
  5
B2C3
330
B2BC
100
AcDbEntity
  8
0
  6
Continuous
 62
     0
370
     0
100
AcDbLine
 10
-2.500000000000002
 20
0.0
 30
0.0
 11
-4.599999999999992
 21
0.0
 31
0.0
  0
LINE
  5
B2C4
330
B2BC
100
AcDbEntity
  8
0
  6
Continuous
 62
     0
370
     0
100
AcDbLine
 10
0.0
 20
-2.500000000000002
 30
0.0
 11
0.0
 21
-4.60000000000002
 31
0.0
  0
LINE
  5
B2C5
330
B2BC
100
AcDbEntity
  8
0
  6
Continuous
 62
     0
370
     0
100
AcDbLine
 10
2.500000000000002
 20
0.0
 30
0.0
 11
4.60000000000002
 21
0.0
 31
0.0
  0
ENDBLK
  5
B2C6
330
B2BC
100
AcDbEntity
  8
0
100
AcDbBlockEnd
  0
BLOCK
  5
B2C8
330
B2C7
100
AcDbEntity
  8
0
100
AcDbBlockBegin
  2
SW_CENTERMARKSYMBOL_3
 70
     0
 10
0.0
 20
0.0
 30
0.0
  3
SW_CENTERMARKSYMBOL_3
  1

  0
LINE
  5
B2C9
330
B2C7
100
AcDbEntity
  8
0
  6
Continuous
 62
     0
370
     0
100
AcDbLine
 10
0.0
 20
0.0
 30
0.0
 11
0.0
 21
2.500000000000002
 31
0.0
  0
LINE
  5
B2CA
330
B2C7
100
AcDbEntity
  8
0
  6
Continuous
 62
     0
370
     0
100
AcDbLine
 10
0.0
 20
0.0
 30
0.0
 11
-2.500000000000002
 21
0.0
 31
0.0
  0
LINE
  5
B2CB
330
B2C7
100
AcDbEntity
  8
0
  6
Continuous
 62
     0
370
     0
100
AcDbLine
 10
0.0
 20
0.0
 30
0.0
 11
0.0
 21
-2.500000000000002
 31
0.0
  0
LINE
  5
B2CC
330
B2C7
100
AcDbEntity
  8
0
  6
Continuous
 62
     0
370
     0
100
AcDbLine
 10
0.0
 20
0.0
 30
0.0
 11
2.500000000000002
 21
0.0
 31
0.0
  0
LINE
  5
B2CD
330
B2C7
100
AcDbEntity
  8
0
  6
Continuous
 62
     0
370
     0
100
AcDbLine
 10
0.0
 20
2.500000000000002
 30
0.0
 11
0.0
 21
4.599999999999992
 31
0.0
  0
LINE
  5
B2CE
330
B2C7
100
AcDbEntity
  8
0
  6
Continuous
 62
     0
370
     0
100
AcDbLine
 10
-2.500000000000002
 20
0.0
 30
0.0
 11
-4.599999999999992
 21
0.0
 31
0.0
  0
LINE
  5
B2CF
330
B2C7
100
AcDbEntity
  8
0
  6
Continuous
 62
     0
370
     0
100
AcDbLine
 10
0.0
 20
-2.500000000000002
 30
0.0
 11
0.0
 21
-4.60000000000002
 31
0.0
  0
LINE
  5
B2D0
330
B2C7
100
AcDbEntity
  8
0
  6
Continuous
 62
     0
370
     0
100
AcDbLine
 10
2.500000000000002
 20
0.0
 30
0.0
 11
4.60000000000002
 21
0.0
 31
0.0
  0
ENDBLK
  5
B2D1
330
B2C7
100
AcDbEntity
  8
0
100
AcDbBlockEnd
  0
BLOCK
  5
B2D3
330
B2D2
100
AcDbEntity
  8
0
100
AcDbBlockBegin
  2
SW_CENTERMARKSYMBOL_4
 70
     0
 10
0.0
 20
0.0
 30
0.0
  3
SW_CENTERMARKSYMBOL_4
  1

  0
LINE
  5
B2D4
330
B2D2
100
AcDbEntity
  8
0
  6
Continuous
 62
     0
370
     0
100
AcDbLine
 10
0.0
 20
0.0
 30
0.0
 11
0.0
 21
2.500000000000002
 31
0.0
  0
LINE
  5
B2D5
330
B2D2
100
AcDbEntity
  8
0
  6
Continuous
 62
     0
370
     0
100
AcDbLine
 10
0.0
 20
0.0
 30
0.0
 11
-2.500000000000002
 21
0.0
 31
0.0
  0
LINE
  5
B2D6
330
B2D2
100
AcDbEntity
  8
0
  6
Continuous
 62
     0
370
     0
100
AcDbLine
 10
0.0
 20
0.0
 30
0.0
 11
0.0
 21
-2.500000000000002
 31
0.0
  0
LINE
  5
B2D7
330
B2D2
100
AcDbEntity
  8
0
  6
Continuous
 62
     0
370
     0
100
AcDbLine
 10
0.0
 20
0.0
 30
0.0
 11
2.500000000000002
 21
0.0
 31
0.0
  0
LINE
  5
B2D8
330
B2D2
100
AcDbEntity
  8
0
  6
Continuous
 62
     0
370
     0
100
AcDbLine
 10
0.0
 20
5.000000000000004
 30
0.0
 11
0.0
 21
33.00000001079223
 31
0.0
  0
LINE
  5
B2D9
330
B2D2
100
AcDbEntity
  8
0
  6
Continuous
 62
     0
370
     0
100
AcDbLine
 10
-5.000000000000004
 20
0.0
 30
0.0
 11
-33.00000001079223
 21
0.0
 31
0.0
  0
LINE
  5
B2DA
330
B2D2
100
AcDbEntity
  8
0
  6
Continuous
 62
     0
370
     0
100
AcDbLine
 10
0.0
 20
-5.000000000000004
 30
0.0
 11
0.0
 21
-33.00000001079223
 31
0.0
  0
LINE
  5
B2DB
330
B2D2
100
AcDbEntity
  8
0
  6
Continuous
 62
     0
370
     0
100
AcDbLine
 10
5.000000000000004
 20
0.0
 30
0.0
 11
33.00000001079223
 21
0.0
 31
0.0
  0
ENDBLK
  5
B2DC
330
B2D2
100
AcDbEntity
  8
0
100
AcDbBlockEnd
  0
BLOCK
  5
B2DE
330
B2DD
100
AcDbEntity
  8
0
100
AcDbBlockBegin
  2
SW_CENTERMARKSYMBOL_5
 70
     0
 10
0.0
 20
0.0
 30
0.0
  3
SW_CENTERMARKSYMBOL_5
  1

  0
LINE
  5
B2DF
330
B2DD
100
AcDbEntity
  8
0
  6
Continuous
 62
     0
370
     0
100
AcDbLine
 10
0.0
 20
0.0
 30
0.0
 11
0.0
 21
2.500000000000002
 31
0.0
  0
LINE
  5
B2E0
330
B2DD
100
AcDbEntity
  8
0
  6
Continuous
 62
     0
370
     0
100
AcDbLine
 10
0.0
 20
0.0
 30
0.0
 11
-2.500000000000002
 21
0.0
 31
0.0
  0
LINE
  5
B2E1
330
B2DD
100
AcDbEntity
  8
0
  6
Continuous
 62
     0
370
     0
100
AcDbLine
 10
0.0
 20
0.0
 30
0.0
 11
0.0
 21
-2.500000000000002
 31
0.0
  0
LINE
  5
B2E2
330
B2DD
100
AcDbEntity
  8
0
  6
Continuous
 62
     0
370
     0
100
AcDbLine
 10
0.0
 20
0.0
 30
0.0
 11
2.500000000000002
 21
0.0
 31
0.0
  0
LINE
  5
B2E3
330
B2DD
100
AcDbEntity
  8
0
  6
Continuous
 62
     0
370
     0
100
AcDbLine
 10
0.0
 20
2.500000000000002
 30
0.0
 11
0.0
 21
4.60000000000002
 31
0.0
  0
LINE
  5
B2E4
330
B2DD
100
AcDbEntity
  8
0
  6
Continuous
 62
     0
370
     0
100
AcDbLine
 10
-2.500000000000002
 20
0.0
 30
0.0
 11
-4.599999999999992
 21
0.0
 31
0.0
  0
LINE
  5
B2E5
330
B2DD
100
AcDbEntity
  8
0
  6
Continuous
 62
     0
370
     0
100
AcDbLine
 10
0.0
 20
-2.500000000000002
 30
0.0
 11
0.0
 21
-4.599999999999992
 31
0.0
  0
LINE
  5
B2E6
330
B2DD
100
AcDbEntity
  8
0
  6
Continuous
 62
     0
370
     0
100
AcDbLine
 10
2.500000000000002
 20
0.0
 30
0.0
 11
4.60000000000002
 21
0.0
 31
0.0
  0
ENDBLK
  5
B2E7
330
B2DD
100
AcDbEntity
  8
0
100
AcDbBlockEnd
  0
BLOCK
  5
B2E9
330
B2E8
100
AcDbEntity
  8
0
100
AcDbBlockBegin
  2
SW_CENTERMARKSYMBOL_6
 70
     0
 10
0.0
 20
0.0
 30
0.0
  3
SW_CENTERMARKSYMBOL_6
  1

  0
LINE
  5
B2EA
330
B2E8
100
AcDbEntity
  8
0
  6
Continuous
 62
     0
370
     0
100
AcDbLine
 10
0.0
 20
0.0
 30
0.0
 11
0.0
 21
2.500000000000002
 31
0.0
  0
LINE
  5
B2EB
330
B2E8
100
AcDbEntity
  8
0
  6
Continuous
 62
     0
370
     0
100
AcDbLine
 10
0.0
 20
0.0
 30
0.0
 11
-2.500000000000002
 21
0.0
 31
0.0
  0
LINE
  5
B2EC
330
B2E8
100
AcDbEntity
  8
0
  6
Continuous
 62
     0
370
     0
100
AcDbLine
 10
0.0
 20
0.0
 30
0.0
 11
0.0
 21
-2.500000000000002
 31
0.0
  0
LINE
  5
B2ED
330
B2E8
100
AcDbEntity
  8
0
  6
Continuous
 62
     0
370
     0
100
AcDbLine
 10
0.0
 20
0.0
 30
0.0
 11
2.500000000000002
 21
0.0
 31
0.0
  0
LINE
  5
B2EE
330
B2E8
100
AcDbEntity
  8
0
  6
Continuous
 62
     0
370
     0
100
AcDbLine
 10
0.0
 20
2.500000000000002
 30
0.0
 11
0.0
 21
4.500000000000031
 31
0.0
  0
LINE
  5
B2EF
330
B2E8
100
AcDbEntity
  8
0
  6
Continuous
 62
     0
370
     0
100
AcDbLine
 10
-2.500000000000002
 20
0.0
 30
0.0
 11
-4.500000000000031
 21
0.0
 31
0.0
  0
LINE
  5
B2F0
330
B2E8
100
AcDbEntity
  8
0
  6
Continuous
 62
     0
370
     0
100
AcDbLine
 10
0.0
 20
-2.500000000000002
 30
0.0
 11
0.0
 21
-4.500000000000003
 31
0.0
  0
LINE
  5
B2F1
330
B2E8
100
AcDbEntity
  8
0
  6
Continuous
 62
     0
370
     0
100
AcDbLine
 10
2.500000000000002
 20
0.0
 30
0.0
 11
4.500000000000003
 21
0.0
 31
0.0
  0
ENDBLK
  5
B2F2
330
B2E8
100
AcDbEntity
  8
0
100
AcDbBlockEnd
  0
BLOCK
  5
B2F4
330
B2F3
100
AcDbEntity
  8
0
100
AcDbBlockBegin
  2
SW_CENTERMARKSYMBOL_7
 70
     0
 10
0.0
 20
0.0
 30
0.0
  3
SW_CENTERMARKSYMBOL_7
  1

  0
LINE
  5
B2F5
330
B2F3
100
AcDbEntity
  8
0
  6
Continuous
 62
     0
370
     0
100
AcDbLine
 10
0.0
 20
0.0
 30
0.0
 11
0.0
 21
2.499999999999974
 31
0.0
  0
LINE
  5
B2F6
330
B2F3
100
AcDbEntity
  8
0
  6
Continuous
 62
     0
370
     0
100
AcDbLine
 10
0.0
 20
0.0
 30
0.0
 11
-2.500000000000002
 21
0.0
 31
0.0
  0
LINE
  5
B2F7
330
B2F3
100
AcDbEntity
  8
0
  6
Continuous
 62
     0
370
     0
100
AcDbLine
 10
0.0
 20
0.0
 30
0.0
 11
0.0
 21
-2.500000000000002
 31
0.0
  0
LINE
  5
B2F8
330
B2F3
100
AcDbEntity
  8
0
  6
Continuous
 62
     0
370
     0
100
AcDbLine
 10
0.0
 20
0.0
 30
0.0
 11
2.500000000000002
 21
0.0
 31
0.0
  0
LINE
  5
B2F9
330
B2F3
100
AcDbEntity
  8
0
  6
Continuous
 62
     0
370
     0
100
AcDbLine
 10
0.0
 20
2.499999999999974
 30
0.0
 11
0.0
 21
4.599999999999992
 31
0.0
  0
LINE
  5
B2FA
330
B2F3
100
AcDbEntity
  8
0
  6
Continuous
 62
     0
370
     0
100
AcDbLine
 10
-2.500000000000002
 20
0.0
 30
0.0
 11
-4.599999999999992
 21
0.0
 31
0.0
  0
LINE
  5
B2FB
330
B2F3
100
AcDbEntity
  8
0
  6
Continuous
 62
     0
370
     0
100
AcDbLine
 10
0.0
 20
-2.500000000000002
 30
0.0
 11
0.0
 21
-4.60000000000002
 31
0.0
  0
LINE
  5
B2FC
330
B2F3
100
AcDbEntity
  8
0
  6
Continuous
 62
     0
370
     0
100
AcDbLine
 10
2.500000000000002
 20
0.0
 30
0.0
 11
4.599999999999992
 21
0.0
 31
0.0
  0
ENDBLK
  5
B2FD
330
B2F3
100
AcDbEntity
  8
0
100
AcDbBlockEnd
  0
BLOCK
  5
B2FF
330
B2FE
100
AcDbEntity
  8
0
100
AcDbBlockBegin
  2
SW_CENTERMARKSYMBOL_8
 70
     0
 10
0.0
 20
0.0
 30
0.0
  3
SW_CENTERMARKSYMBOL_8
  1

  0
LINE
  5
B300
330
B2FE
100
AcDbEntity
  8
0
  6
Continuous
 62
     0
370
     0
100
AcDbLine
 10
0.0
 20
0.0
 30
0.0
 11
0.0
 21
2.500000000000002
 31
0.0
  0
LINE
  5
B301
330
B2FE
100
AcDbEntity
  8
0
  6
Continuous
 62
     0
370
     0
100
AcDbLine
 10
0.0
 20
0.0
 30
0.0
 11
-2.500000000000002
 21
0.0
 31
0.0
  0
LINE
  5
B302
330
B2FE
100
AcDbEntity
  8
0
  6
Continuous
 62
     0
370
     0
100
AcDbLine
 10
0.0
 20
0.0
 30
0.0
 11
0.0
 21
-2.500000000000002
 31
0.0
  0
LINE
  5
B303
330
B2FE
100
AcDbEntity
  8
0
  6
Continuous
 62
     0
370
     0
100
AcDbLine
 10
0.0
 20
0.0
 30
0.0
 11
2.499999999999946
 21
0.0
 31
0.0
  0
LINE
  5
B304
330
B2FE
100
AcDbEntity
  8
0
  6
Continuous
 62
     0
370
     0
100
AcDbLine
 10
0.0
 20
2.500000000000002
 30
0.0
 11
0.0
 21
4.500000000000031
 31
0.0
  0
LINE
  5
B305
330
B2FE
100
AcDbEntity
  8
0
  6
Continuous
 62
     0
370
     0
100
AcDbLine
 10
-2.500000000000002
 20
0.0
 30
0.0
 11
-4.500000000000031
 21
0.0
 31
0.0
  0
LINE
  5
B306
330
B2FE
100
AcDbEntity
  8
0
  6
Continuous
 62
     0
370
     0
100
AcDbLine
 10
0.0
 20
-2.500000000000002
 30
0.0
 11
0.0
 21
-4.500000000000003
 31
0.0
  0
LINE
  5
B307
330
B2FE
100
AcDbEntity
  8
0
  6
Continuous
 62
     0
370
     0
100
AcDbLine
 10
2.499999999999946
 20
0.0
 30
0.0
 11
4.500000000000003
 21
0.0
 31
0.0
  0
ENDBLK
  5
B308
330
B2FE
100
AcDbEntity
  8
0
100
AcDbBlockEnd
  0
BLOCK
  5
B30A
330
B309
100
AcDbEntity
  8
0
100
AcDbBlockBegin
  2
SW_CENTERMARKSYMBOL_9
 70
     0
 10
0.0
 20
0.0
 30
0.0
  3
SW_CENTERMARKSYMBOL_9
  1

  0
LINE
  5
B30B
330
B309
100
AcDbEntity
  8
0
  6
Continuous
 62
     0
370
     0
100
AcDbLine
 10
0.0
 20
0.0
 30
0.0
 11
0.0
 21
2.500000000000002
 31
0.0
  0
LINE
  5
B30C
330
B309
100
AcDbEntity
  8
0
  6
Continuous
 62
     0
370
     0
100
AcDbLine
 10
0.0
 20
0.0
 30
0.0
 11
-2.500000000000002
 21
0.0
 31
0.0
  0
LINE
  5
B30D
330
B309
100
AcDbEntity
  8
0
  6
Continuous
 62
     0
370
     0
100
AcDbLine
 10
0.0
 20
0.0
 30
0.0
 11
0.0
 21
-2.500000000000002
 31
0.0
  0
LINE
  5
B30E
330
B309
100
AcDbEntity
  8
0
  6
Continuous
 62
     0
370
     0
100
AcDbLine
 10
0.0
 20
0.0
 30
0.0
 11
2.500000000000002
 21
0.0
 31
0.0
  0
LINE
  5
B30F
330
B309
100
AcDbEntity
  8
0
  6
Continuous
 62
     0
370
     0
100
AcDbLine
 10
0.0
 20
2.500000000000002
 30
0.0
 11
0.0
 21
4.500000000000003
 31
0.0
  0
LINE
  5
B310
330
B309
100
AcDbEntity
  8
0
  6
Continuous
 62
     0
370
     0
100
AcDbLine
 10
-2.500000000000002
 20
0.0
 30
0.0
 11
-4.500000000000031
 21
0.0
 31
0.0
  0
LINE
  5
B311
330
B309
100
AcDbEntity
  8
0
  6
Continuous
 62
     0
370
     0
100
AcDbLine
 10
0.0
 20
-2.500000000000002
 30
0.0
 11
0.0
 21
-4.500000000000003
 31
0.0
  0
LINE
  5
B312
330
B309
100
AcDbEntity
  8
0
  6
Continuous
 62
     0
370
     0
100
AcDbLine
 10
2.500000000000002
 20
0.0
 30
0.0
 11
4.500000000000003
 21
0.0
 31
0.0
  0
ENDBLK
  5
B313
330
B309
100
AcDbEntity
  8
0
100
AcDbBlockEnd
  0
BLOCK
  5
B315
330
B314
100
AcDbEntity
  8
0
100
AcDbBlockBegin
  2
SW_CENTERMARKSYMBOL_10
 70
     0
 10
0.0
 20
0.0
 30
0.0
  3
SW_CENTERMARKSYMBOL_10
  1

  0
LINE
  5
B316
330
B314
100
AcDbEntity
  8
0
  6
Continuous
 62
     0
370
     0
100
AcDbLine
 10
0.0
 20
0.0
 30
0.0
 11
0.0
 21
2.499999999999974
 31
0.0
  0
LINE
  5
B317
330
B314
100
AcDbEntity
  8
0
  6
Continuous
 62
     0
370
     0
100
AcDbLine
 10
0.0
 20
0.0
 30
0.0
 11
-2.500000000000002
 21
0.0
 31
0.0
  0
LINE
  5
B318
330
B314
100
AcDbEntity
  8
0
  6
Continuous
 62
     0
370
     0
100
AcDbLine
 10
0.0
 20
0.0
 30
0.0
 11
0.0
 21
-2.500000000000002
 31
0.0
  0
LINE
  5
B319
330
B314
100
AcDbEntity
  8
0
  6
Continuous
 62
     0
370
     0
100
AcDbLine
 10
0.0
 20
0.0
 30
0.0
 11
2.500000000000002
 21
0.0
 31
0.0
  0
LINE
  5
B31A
330
B314
100
AcDbEntity
  8
0
  6
Continuous
 62
     0
370
     0
100
AcDbLine
 10
0.0
 20
4.999999999999976
 30
0.0
 11
0.0
 21
5.699999999999983
 31
0.0
  0
LINE
  5
B31B
330
B314
100
AcDbEntity
  8
0
  6
Continuous
 62
     0
370
     0
100
AcDbLine
 10
-5.000000000000004
 20
0.0
 30
0.0
 11
-5.70000000000001
 21
0.0
 31
0.0
  0
LINE
  5
B31C
330
B314
100
AcDbEntity
  8
0
  6
Continuous
 62
     0
370
     0
100
AcDbLine
 10
0.0
 20
-5.000000000000004
 30
0.0
 11
0.0
 21
-5.70000000000001
 31
0.0
  0
LINE
  5
B31D
330
B314
100
AcDbEntity
  8
0
  6
Continuous
 62
     0
370
     0
100
AcDbLine
 10
5.000000000000004
 20
0.0
 30
0.0
 11
5.699999999999983
 21
0.0
 31
0.0
  0
ENDBLK
  5
B31E
330
B314
100
AcDbEntity
  8
0
100
AcDbBlockEnd
  0
BLOCK
  5
B320
330
B31F
100
AcDbEntity
  8
0
100
AcDbBlockBegin
  2
SW_CENTERMARKSYMBOL_11
 70
     0
 10
0.0
 20
0.0
 30
0.0
  3
SW_CENTERMARKSYMBOL_11
  1

  0
LINE
  5
B321
330
B31F
100
AcDbEntity
  8
0
  6
Continuous
 62
     0
370
     0
100
AcDbLine
 10
0.0
 20
0.0
 30
0.0
 11
0.0
 21
2.500000000000002
 31
0.0
  0
LINE
  5
B322
330
B31F
100
AcDbEntity
  8
0
  6
Continuous
 62
     0
370
     0
100
AcDbLine
 10
0.0
 20
0.0
 30
0.0
 11
-2.500000000000002
 21
0.0
 31
0.0
  0
LINE
  5
B323
330
B31F
100
AcDbEntity
  8
0
  6
Continuous
 62
     0
370
     0
100
AcDbLine
 10
0.0
 20
0.0
 30
0.0
 11
0.0
 21
-2.500000000000002
 31
0.0
  0
LINE
  5
B324
330
B31F
100
AcDbEntity
  8
0
  6
Continuous
 62
     0
370
     0
100
AcDbLine
 10
0.0
 20
0.0
 30
0.0
 11
2.500000000000002
 21
0.0
 31
0.0
  0
LINE
  5
B325
330
B31F
100
AcDbEntity
  8
0
  6
Continuous
 62
     0
370
     0
100
AcDbLine
 10
0.0
 20
5.000000000000004
 30
0.0
 11
0.0
 21
5.699999999999983
 31
0.0
  0
LINE
  5
B326
330
B31F
100
AcDbEntity
  8
0
  6
Continuous
 62
     0
370
     0
100
AcDbLine
 10
-5.000000000000004
 20
0.0
 30
0.0
 11
-5.70000000000001
 21
0.0
 31
0.0
  0
LINE
  5
B327
330
B31F
100
AcDbEntity
  8
0
  6
Continuous
 62
     0
370
     0
100
AcDbLine
 10
0.0
 20
-5.000000000000004
 30
0.0
 11
0.0
 21
-5.70000000000001
 31
0.0
  0
LINE
  5
B328
330
B31F
100
AcDbEntity
  8
0
  6
Continuous
 62
     0
370
     0
100
AcDbLine
 10
5.000000000000004
 20
0.0
 30
0.0
 11
5.699999999999983
 21
0.0
 31
0.0
  0
ENDBLK
  5
B329
330
B31F
100
AcDbEntity
  8
0
100
AcDbBlockEnd
  0
BLOCK
  5
B32B
330
B32A
100
AcDbEntity
  8
0
100
AcDbBlockBegin
  2
SW_CENTERMARKSYMBOL_12
 70
     0
 10
0.0
 20
0.0
 30
0.0
  3
SW_CENTERMARKSYMBOL_12
  1

  0
LINE
  5
B32C
330
B32A
100
AcDbEntity
  8
0
  6
Continuous
 62
     0
370
     0
100
AcDbLine
 10
0.0
 20
0.0
 30
0.0
 11
0.0
 21
2.500000000000002
 31
0.0
  0
LINE
  5
B32D
330
B32A
100
AcDbEntity
  8
0
  6
Continuous
 62
     0
370
     0
100
AcDbLine
 10
0.0
 20
0.0
 30
0.0
 11
-2.500000000000002
 21
0.0
 31
0.0
  0
LINE
  5
B32E
330
B32A
100
AcDbEntity
  8
0
  6
Continuous
 62
     0
370
     0
100
AcDbLine
 10
0.0
 20
0.0
 30
0.0
 11
0.0
 21
-2.500000000000002
 31
0.0
  0
LINE
  5
B32F
330
B32A
100
AcDbEntity
  8
0
  6
Continuous
 62
     0
370
     0
100
AcDbLine
 10
0.0
 20
0.0
 30
0.0
 11
2.500000000000002
 21
0.0
 31
0.0
  0
LINE
  5
B330
330
B32A
100
AcDbEntity
  8
0
  6
Continuous
 62
     0
370
     0
100
AcDbLine
 10
0.0
 20
2.500000000000002
 30
0.0
 11
0.0
 21
5.000000000000004
 31
0.0
  0
LINE
  5
B331
330
B32A
100
AcDbEntity
  8
0
  6
Continuous
 62
     0
370
     0
100
AcDbLine
 10
-2.500000000000002
 20
0.0
 30
0.0
 11
-5.000000000000004
 21
0.0
 31
0.0
  0
LINE
  5
B332
330
B32A
100
AcDbEntity
  8
0
  6
Continuous
 62
     0
370
     0
100
AcDbLine
 10
0.0
 20
-2.500000000000002
 30
0.0
 11
0.0
 21
-5.000000000000004
 31
0.0
  0
LINE
  5
B333
330
B32A
100
AcDbEntity
  8
0
  6
Continuous
 62
     0
370
     0
100
AcDbLine
 10
2.500000000000002
 20
0.0
 30
0.0
 11
5.000000000000004
 21
0.0
 31
0.0
  0
ENDBLK
  5
B334
330
B32A
100
AcDbEntity
  8
0
100
AcDbBlockEnd
  0
BLOCK
  5
B336
330
B335
100
AcDbEntity
  8
0
100
AcDbBlockBegin
  2
SW_CENTERMARKSYMBOL_13
 70
     0
 10
0.0
 20
0.0
 30
0.0
  3
SW_CENTERMARKSYMBOL_13
  1

  0
LINE
  5
B337
330
B335
100
AcDbEntity
  8
0
  6
Continuous
 62
     0
370
     0
100
AcDbLine
 10
0.0
 20
0.0
 30
0.0
 11
0.0
 21
2.500000000000002
 31
0.0
  0
LINE
  5
B338
330
B335
100
AcDbEntity
  8
0
  6
Continuous
 62
     0
370
     0
100
AcDbLine
 10
0.0
 20
0.0
 30
0.0
 11
-2.500000000000002
 21
0.0
 31
0.0
  0
LINE
  5
B339
330
B335
100
AcDbEntity
  8
0
  6
Continuous
 62
     0
370
     0
100
AcDbLine
 10
0.0
 20
0.0
 30
0.0
 11
0.0
 21
-2.500000000000002
 31
0.0
  0
LINE
  5
B33A
330
B335
100
AcDbEntity
  8
0
  6
Continuous
 62
     0
370
     0
100
AcDbLine
 10
0.0
 20
0.0
 30
0.0
 11
2.500000000000002
 21
0.0
 31
0.0
  0
LINE
  5
B33B
330
B335
100
AcDbEntity
  8
0
  6
Continuous
 62
     0
370
     0
100
AcDbLine
 10
0.0
 20
2.500000000000002
 30
0.0
 11
0.0
 21
5.000000000000004
 31
0.0
  0
LINE
  5
B33C
330
B335
100
AcDbEntity
  8
0
  6
Continuous
 62
     0
370
     0
100
AcDbLine
 10
-2.500000000000002
 20
0.0
 30
0.0
 11
-5.000000000000004
 21
0.0
 31
0.0
  0
LINE
  5
B33D
330
B335
100
AcDbEntity
  8
0
  6
Continuous
 62
     0
370
     0
100
AcDbLine
 10
0.0
 20
-2.500000000000002
 30
0.0
 11
0.0
 21
-5.000000000000004
 31
0.0
  0
LINE
  5
B33E
330
B335
100
AcDbEntity
  8
0
  6
Continuous
 62
     0
370
     0
100
AcDbLine
 10
2.500000000000002
 20
0.0
 30
0.0
 11
5.000000000000004
 21
0.0
 31
0.0
  0
ENDBLK
  5
B33F
330
B335
100
AcDbEntity
  8
0
100
AcDbBlockEnd
  0
BLOCK
  5
B341
330
B340
100
AcDbEntity
  8
0
100
AcDbBlockBegin
  2
SW_CENTERMARKSYMBOL_14
 70
     0
 10
0.0
 20
0.0
 30
0.0
  3
SW_CENTERMARKSYMBOL_14
  1

  0
LINE
  5
B342
330
B340
100
AcDbEntity
  8
0
  6
Continuous
 62
     0
370
     0
100
AcDbLine
 10
0.0
 20
0.0
 30
0.0
 11
0.0
 21
2.500000000000002
 31
0.0
  0
LINE
  5
B343
330
B340
100
AcDbEntity
  8
0
  6
Continuous
 62
     0
370
     0
100
AcDbLine
 10
0.0
 20
0.0
 30
0.0
 11
-2.500000000000002
 21
0.0
 31
0.0
  0
LINE
  5
B344
330
B340
100
AcDbEntity
  8
0
  6
Continuous
 62
     0
370
     0
100
AcDbLine
 10
0.0
 20
0.0
 30
0.0
 11
0.0
 21
-2.500000000000002
 31
0.0
  0
LINE
  5
B345
330
B340
100
AcDbEntity
  8
0
  6
Continuous
 62
     0
370
     0
100
AcDbLine
 10
0.0
 20
0.0
 30
0.0
 11
2.500000000000002
 21
0.0
 31
0.0
  0
LINE
  5
B346
330
B340
100
AcDbEntity
  8
0
  6
Continuous
 62
     0
370
     0
100
AcDbLine
 10
0.0
 20
5.000000000000004
 30
0.0
 11
0.0
 21
5.699999999999983
 31
0.0
  0
LINE
  5
B347
330
B340
100
AcDbEntity
  8
0
  6
Continuous
 62
     0
370
     0
100
AcDbLine
 10
-4.999999999999976
 20
0.0
 30
0.0
 11
-5.699999999999983
 21
0.0
 31
0.0
  0
LINE
  5
B348
330
B340
100
AcDbEntity
  8
0
  6
Continuous
 62
     0
370
     0
100
AcDbLine
 10
0.0
 20
-5.000000000000004
 30
0.0
 11
0.0
 21
-5.70000000000001
 31
0.0
  0
LINE
  5
B349
330
B340
100
AcDbEntity
  8
0
  6
Continuous
 62
     0
370
     0
100
AcDbLine
 10
5.000000000000004
 20
0.0
 30
0.0
 11
5.70000000000001
 21
0.0
 31
0.0
  0
ENDBLK
  5
B34A
330
B340
100
AcDbEntity
  8
0
100
AcDbBlockEnd
  0
BLOCK
  5
B34C
330
B34B
100
AcDbEntity
  8
0
100
AcDbBlockBegin
  2
SW_CENTERMARKSYMBOL_15
 70
     0
 10
0.0
 20
0.0
 30
0.0
  3
SW_CENTERMARKSYMBOL_15
  1

  0
LINE
  5
B34D
330
B34B
100
AcDbEntity
  8
0
  6
Continuous
 62
     0
370
     0
100
AcDbLine
 10
0.0
 20
0.0
 30
0.0
 11
0.0
 21
2.5
 31
0.0
  0
LINE
  5
B34E
330
B34B
100
AcDbEntity
  8
0
  6
Continuous
 62
     0
370
     0
100
AcDbLine
 10
0.0
 20
0.0
 30
0.0
 11
-2.500000000000002
 21
0.0
 31
0.0
  0
LINE
  5
B34F
330
B34B
100
AcDbEntity
  8
0
  6
Continuous
 62
     0
370
     0
100
AcDbLine
 10
0.0
 20
0.0
 30
0.0
 11
0.0
 21
-2.5
 31
0.0
  0
LINE
  5
B350
330
B34B
100
AcDbEntity
  8
0
  6
Continuous
 62
     0
370
     0
100
AcDbLine
 10
0.0
 20
0.0
 30
0.0
 11
2.500000000000002
 21
0.0
 31
0.0
  0
LINE
  5
B351
330
B34B
100
AcDbEntity
  8
0
  6
Continuous
 62
     0
370
     0
100
AcDbLine
 10
0.0
 20
2.5
 30
0.0
 11
0.0
 21
4.600000000000004
 31
0.0
  0
LINE
  5
B352
330
B34B
100
AcDbEntity
  8
0
  6
Continuous
 62
     0
370
     0
100
AcDbLine
 10
-2.500000000000002
 20
0.0
 30
0.0
 11
-4.60000000000002
 21
0.0
 31
0.0
  0
LINE
  5
B353
330
B34B
100
AcDbEntity
  8
0
  6
Continuous
 62
     0
370
     0
100
AcDbLine
 10
0.0
 20
-2.5
 30
0.0
 11
0.0
 21
-4.600000000000004
 31
0.0
  0
LINE
  5
B354
330
B34B
100
AcDbEntity
  8
0
  6
Continuous
 62
     0
370
     0
100
AcDbLine
 10
2.500000000000002
 20
0.0
 30
0.0
 11
4.599999999999992
 21
0.0
 31
0.0
  0
ENDBLK
  5
B355
330
B34B
100
AcDbEntity
  8
0
100
AcDbBlockEnd
  0
BLOCK
  5
B357
330
B356
100
AcDbEntity
  8
0
100
AcDbBlockBegin
  2
SW_CENTERMARKSYMBOL_16
 70
     0
 10
0.0
 20
0.0
 30
0.0
  3
SW_CENTERMARKSYMBOL_16
  1

  0
LINE
  5
B358
330
B356
100
AcDbEntity
  8
0
  6
Continuous
 62
     0
370
     0
100
AcDbLine
 10
0.0
 20
0.0
 30
0.0
 11
0.0
 21
2.499999999999998
 31
0.0
  0
LINE
  5
B359
330
B356
100
AcDbEntity
  8
0
  6
Continuous
 62
     0
370
     0
100
AcDbLine
 10
0.0
 20
0.0
 30
0.0
 11
-2.500000000000002
 21
0.0
 31
0.0
  0
LINE
  5
B35A
330
B356
100
AcDbEntity
  8
0
  6
Continuous
 62
     0
370
     0
100
AcDbLine
 10
0.0
 20
0.0
 30
0.0
 11
0.0
 21
-2.5
 31
0.0
  0
LINE
  5
B35B
330
B356
100
AcDbEntity
  8
0
  6
Continuous
 62
     0
370
     0
100
AcDbLine
 10
0.0
 20
0.0
 30
0.0
 11
2.499999999999974
 21
0.0
 31
0.0
  0
LINE
  5
B35C
330
B356
100
AcDbEntity
  8
0
  6
Continuous
 62
     0
370
     0
100
AcDbLine
 10
0.0
 20
2.499999999999998
 30
0.0
 11
0.0
 21
4.600000000000003
 31
0.0
  0
LINE
  5
B35D
330
B356
100
AcDbEntity
  8
0
  6
Continuous
 62
     0
370
     0
100
AcDbLine
 10
-2.500000000000002
 20
0.0
 30
0.0
 11
-4.60000000000002
 21
0.0
 31
0.0
  0
LINE
  5
B35E
330
B356
100
AcDbEntity
  8
0
  6
Continuous
 62
     0
370
     0
100
AcDbLine
 10
0.0
 20
-2.5
 30
0.0
 11
0.0
 21
-4.600000000000004
 31
0.0
  0
LINE
  5
B35F
330
B356
100
AcDbEntity
  8
0
  6
Continuous
 62
     0
370
     0
100
AcDbLine
 10
2.499999999999974
 20
0.0
 30
0.0
 11
4.60000000000002
 21
0.0
 31
0.0
  0
ENDBLK
  5
B360
330
B356
100
AcDbEntity
  8
0
100
AcDbBlockEnd
  0
BLOCK
  5
B362
330
B361
100
AcDbEntity
  8
0
100
AcDbBlockBegin
  2
SW_CENTERMARKSYMBOL_17
 70
     0
 10
0.0
 20
0.0
 30
0.0
  3
SW_CENTERMARKSYMBOL_17
  1

  0
LINE
  5
B363
330
B361
100
AcDbEntity
  8
0
  6
Continuous
 62
     0
370
     0
100
AcDbLine
 10
0.0
 20
0.0
 30
0.0
 11
0.0
 21
2.500000000000002
 31
0.0
  0
LINE
  5
B364
330
B361
100
AcDbEntity
  8
0
  6
Continuous
 62
     0
370
     0
100
AcDbLine
 10
0.0
 20
0.0
 30
0.0
 11
-2.500000000000002
 21
0.0
 31
0.0
  0
LINE
  5
B365
330
B361
100
AcDbEntity
  8
0
  6
Continuous
 62
     0
370
     0
100
AcDbLine
 10
0.0
 20
0.0
 30
0.0
 11
0.0
 21
-2.500000000000002
 31
0.0
  0
LINE
  5
B366
330
B361
100
AcDbEntity
  8
0
  6
Continuous
 62
     0
370
     0
100
AcDbLine
 10
0.0
 20
0.0
 30
0.0
 11
2.500000000000002
 21
0.0
 31
0.0
  0
LINE
  5
B367
330
B361
100
AcDbEntity
  8
0
  6
Continuous
 62
     0
370
     0
100
AcDbLine
 10
0.0
 20
2.500000000000002
 30
0.0
 11
0.0
 21
4.600000000000006
 31
0.0
  0
LINE
  5
B368
330
B361
100
AcDbEntity
  8
0
  6
Continuous
 62
     0
370
     0
100
AcDbLine
 10
-2.500000000000002
 20
0.0
 30
0.0
 11
-4.599999999999992
 21
0.0
 31
0.0
  0
LINE
  5
B369
330
B361
100
AcDbEntity
  8
0
  6
Continuous
 62
     0
370
     0
100
AcDbLine
 10
0.0
 20
-2.500000000000002
 30
0.0
 11
0.0
 21
-4.600000000000006
 31
0.0
  0
LINE
  5
B36A
330
B361
100
AcDbEntity
  8
0
  6
Continuous
 62
     0
370
     0
100
AcDbLine
 10
2.500000000000002
 20
0.0
 30
0.0
 11
4.60000000000002
 21
0.0
 31
0.0
  0
ENDBLK
  5
B36B
330
B361
100
AcDbEntity
  8
0
100
AcDbBlockEnd
  0
BLOCK
  5
B36D
330
B36C
100
AcDbEntity
  8
0
100
AcDbBlockBegin
  2
SW_CENTERMARKSYMBOL_18
 70
     0
 10
0.0
 20
0.0
 30
0.0
  3
SW_CENTERMARKSYMBOL_18
  1

  0
LINE
  5
B36E
330
B36C
100
AcDbEntity
  8
0
  6
Continuous
 62
     0
370
     0
100
AcDbLine
 10
0.0
 20
0.0
 30
0.0
 11
0.0
 21
2.500000000000002
 31
0.0
  0
LINE
  5
B36F
330
B36C
100
AcDbEntity
  8
0
  6
Continuous
 62
     0
370
     0
100
AcDbLine
 10
0.0
 20
0.0
 30
0.0
 11
-2.500000000000002
 21
0.0
 31
0.0
  0
LINE
  5
B370
330
B36C
100
AcDbEntity
  8
0
  6
Continuous
 62
     0
370
     0
100
AcDbLine
 10
0.0
 20
0.0
 30
0.0
 11
0.0
 21
-2.499999999999995
 31
0.0
  0
LINE
  5
B371
330
B36C
100
AcDbEntity
  8
0
  6
Continuous
 62
     0
370
     0
100
AcDbLine
 10
0.0
 20
0.0
 30
0.0
 11
2.500000000000002
 21
0.0
 31
0.0
  0
LINE
  5
B372
330
B36C
100
AcDbEntity
  8
0
  6
Continuous
 62
     0
370
     0
100
AcDbLine
 10
0.0
 20
2.500000000000002
 30
0.0
 11
0.0
 21
4.600000000000006
 31
0.0
  0
LINE
  5
B373
330
B36C
100
AcDbEntity
  8
0
  6
Continuous
 62
     0
370
     0
100
AcDbLine
 10
-2.500000000000002
 20
0.0
 30
0.0
 11
-4.599999999999992
 21
0.0
 31
0.0
  0
LINE
  5
B374
330
B36C
100
AcDbEntity
  8
0
  6
Continuous
 62
     0
370
     0
100
AcDbLine
 10
0.0
 20
-2.499999999999995
 30
0.0
 11
0.0
 21
-4.599999999999999
 31
0.0
  0
LINE
  5
B375
330
B36C
100
AcDbEntity
  8
0
  6
Continuous
 62
     0
370
     0
100
AcDbLine
 10
2.500000000000002
 20
0.0
 30
0.0
 11
4.60000000000002
 21
0.0
 31
0.0
  0
ENDBLK
  5
B376
330
B36C
100
AcDbEntity
  8
0
100
AcDbBlockEnd
  0
BLOCK
  5
B378
330
B377
100
AcDbEntity
  8
0
100
AcDbBlockBegin
  2
SW_CENTERMARKSYMBOL_19
 70
     0
 10
0.0
 20
0.0
 30
0.0
  3
SW_CENTERMARKSYMBOL_19
  1

  0
LINE
  5
B379
330
B377
100
AcDbEntity
  8
0
  6
Continuous
 62
     0
370
     0
100
AcDbLine
 10
0.0
 20
0.0
 30
0.0
 11
0.0
 21
2.5
 31
0.0
  0
LINE
  5
B37A
330
B377
100
AcDbEntity
  8
0
  6
Continuous
 62
     0
370
     0
100
AcDbLine
 10
0.0
 20
0.0
 30
0.0
 11
-2.500000000000002
 21
0.0
 31
0.0
  0
LINE
  5
B37B
330
B377
100
AcDbEntity
  8
0
  6
Continuous
 62
     0
370
     0
100
AcDbLine
 10
0.0
 20
0.0
 30
0.0
 11
0.0
 21
-2.499999999999998
 31
0.0
  0
LINE
  5
B37C
330
B377
100
AcDbEntity
  8
0
  6
Continuous
 62
     0
370
     0
100
AcDbLine
 10
0.0
 20
0.0
 30
0.0
 11
2.500000000000002
 21
0.0
 31
0.0
  0
LINE
  5
B37D
330
B377
100
AcDbEntity
  8
0
  6
Continuous
 62
     0
370
     0
100
AcDbLine
 10
0.0
 20
5.0
 30
0.0
 11
0.0
 21
33.00000001079222
 31
0.0
  0
LINE
  5
B37E
330
B377
100
AcDbEntity
  8
0
  6
Continuous
 62
     0
370
     0
100
AcDbLine
 10
-5.000000000000004
 20
0.0
 30
0.0
 11
-33.00000001079223
 21
0.0
 31
0.0
  0
LINE
  5
B37F
330
B377
100
AcDbEntity
  8
0
  6
Continuous
 62
     0
370
     0
100
AcDbLine
 10
0.0
 20
-4.999999999999997
 30
0.0
 11
0.0
 21
-33.00000001079222
 31
0.0
  0
LINE
  5
B380
330
B377
100
AcDbEntity
  8
0
  6
Continuous
 62
     0
370
     0
100
AcDbLine
 10
5.000000000000004
 20
0.0
 30
0.0
 11
33.00000001079223
 21
0.0
 31
0.0
  0
ENDBLK
  5
B381
330
B377
100
AcDbEntity
  8
0
100
AcDbBlockEnd
  0
BLOCK
  5
B383
330
B382
100
AcDbEntity
  8
0
100
AcDbBlockBegin
  2
SW_CENTERMARKSYMBOL_20
 70
     0
 10
0.0
 20
0.0
 30
0.0
  3
SW_CENTERMARKSYMBOL_20
  1

  0
LINE
  5
B384
330
B382
100
AcDbEntity
  8
0
  6
Continuous
 62
     0
370
     0
100
AcDbLine
 10
0.0
 20
0.0
 30
0.0
 11
0.0
 21
2.499999999999998
 31
0.0
  0
LINE
  5
B385
330
B382
100
AcDbEntity
  8
0
  6
Continuous
 62
     0
370
     0
100
AcDbLine
 10
0.0
 20
0.0
 30
0.0
 11
-2.500000000000002
 21
0.0
 31
0.0
  0
LINE
  5
B386
330
B382
100
AcDbEntity
  8
0
  6
Continuous
 62
     0
370
     0
100
AcDbLine
 10
0.0
 20
0.0
 30
0.0
 11
0.0
 21
-2.499999999999998
 31
0.0
  0
LINE
  5
B387
330
B382
100
AcDbEntity
  8
0
  6
Continuous
 62
     0
370
     0
100
AcDbLine
 10
0.0
 20
0.0
 30
0.0
 11
2.500000000000002
 21
0.0
 31
0.0
  0
LINE
  5
B388
330
B382
100
AcDbEntity
  8
0
  6
Continuous
 62
     0
370
     0
100
AcDbLine
 10
0.0
 20
2.499999999999998
 30
0.0
 11
0.0
 21
4.600000000000003
 31
0.0
  0
LINE
  5
B389
330
B382
100
AcDbEntity
  8
0
  6
Continuous
 62
     0
370
     0
100
AcDbLine
 10
-2.500000000000002
 20
0.0
 30
0.0
 11
-4.599999999999992
 21
0.0
 31
0.0
  0
LINE
  5
B38A
330
B382
100
AcDbEntity
  8
0
  6
Continuous
 62
     0
370
     0
100
AcDbLine
 10
0.0
 20
-2.499999999999998
 30
0.0
 11
0.0
 21
-4.600000000000004
 31
0.0
  0
LINE
  5
B38B
330
B382
100
AcDbEntity
  8
0
  6
Continuous
 62
     0
370
     0
100
AcDbLine
 10
2.500000000000002
 20
0.0
 30
0.0
 11
4.60000000000002
 21
0.0
 31
0.0
  0
ENDBLK
  5
B38C
330
B382
100
AcDbEntity
  8
0
100
AcDbBlockEnd
  0
BLOCK
  5
B38E
330
B38D
100
AcDbEntity
  8
0
100
AcDbBlockBegin
  2
SW_CENTERMARKSYMBOL_21
 70
     0
 10
0.0
 20
0.0
 30
0.0
  3
SW_CENTERMARKSYMBOL_21
  1

  0
LINE
  5
B38F
330
B38D
100
AcDbEntity
  8
0
  6
Continuous
 62
     0
370
     0
100
AcDbLine
 10
0.0
 20
0.0
 30
0.0
 11
0.0
 21
2.499999999999998
 31
0.0
  0
LINE
  5
B390
330
B38D
100
AcDbEntity
  8
0
  6
Continuous
 62
     0
370
     0
100
AcDbLine
 10
0.0
 20
0.0
 30
0.0
 11
-2.500000000000002
 21
0.0
 31
0.0
  0
LINE
  5
B391
330
B38D
100
AcDbEntity
  8
0
  6
Continuous
 62
     0
370
     0
100
AcDbLine
 10
0.0
 20
0.0
 30
0.0
 11
0.0
 21
-2.5
 31
0.0
  0
LINE
  5
B392
330
B38D
100
AcDbEntity
  8
0
  6
Continuous
 62
     0
370
     0
100
AcDbLine
 10
0.0
 20
0.0
 30
0.0
 11
2.500000000000002
 21
0.0
 31
0.0
  0
LINE
  5
B393
330
B38D
100
AcDbEntity
  8
0
  6
Continuous
 62
     0
370
     0
100
AcDbLine
 10
0.0
 20
2.499999999999998
 30
0.0
 11
0.0
 21
4.50000000000001
 31
0.0
  0
LINE
  5
B394
330
B38D
100
AcDbEntity
  8
0
  6
Continuous
 62
     0
370
     0
100
AcDbLine
 10
-2.500000000000002
 20
0.0
 30
0.0
 11
-4.500000000000031
 21
0.0
 31
0.0
  0
LINE
  5
B395
330
B38D
100
AcDbEntity
  8
0
  6
Continuous
 62
     0
370
     0
100
AcDbLine
 10
0.0
 20
-2.5
 30
0.0
 11
0.0
 21
-4.500000000000008
 31
0.0
  0
LINE
  5
B396
330
B38D
100
AcDbEntity
  8
0
  6
Continuous
 62
     0
370
     0
100
AcDbLine
 10
2.500000000000002
 20
0.0
 30
0.0
 11
4.500000000000003
 21
0.0
 31
0.0
  0
ENDBLK
  5
B397
330
B38D
100
AcDbEntity
  8
0
100
AcDbBlockEnd
  0
BLOCK
  5
B399
330
B398
100
AcDbEntity
  8
0
100
AcDbBlockBegin
  2
SW_CENTERMARKSYMBOL_22
 70
     0
 10
0.0
 20
0.0
 30
0.0
  3
SW_CENTERMARKSYMBOL_22
  1

  0
LINE
  5
B39A
330
B398
100
AcDbEntity
  8
0
  6
Continuous
 62
     0
370
     0
100
AcDbLine
 10
0.0
 20
0.0
 30
0.0
 11
0.0
 21
2.499999999999998
 31
0.0
  0
LINE
  5
B39B
330
B398
100
AcDbEntity
  8
0
  6
Continuous
 62
     0
370
     0
100
AcDbLine
 10
0.0
 20
0.0
 30
0.0
 11
-2.500000000000002
 21
0.0
 31
0.0
  0
LINE
  5
B39C
330
B398
100
AcDbEntity
  8
0
  6
Continuous
 62
     0
370
     0
100
AcDbLine
 10
0.0
 20
0.0
 30
0.0
 11
0.0
 21
-2.499999999999998
 31
0.0
  0
LINE
  5
B39D
330
B398
100
AcDbEntity
  8
0
  6
Continuous
 62
     0
370
     0
100
AcDbLine
 10
0.0
 20
0.0
 30
0.0
 11
2.500000000000002
 21
0.0
 31
0.0
  0
LINE
  5
B39E
330
B398
100
AcDbEntity
  8
0
  6
Continuous
 62
     0
370
     0
100
AcDbLine
 10
0.0
 20
2.499999999999998
 30
0.0
 11
0.0
 21
4.600000000000003
 31
0.0
  0
LINE
  5
B39F
330
B398
100
AcDbEntity
  8
0
  6
Continuous
 62
     0
370
     0
100
AcDbLine
 10
-2.500000000000002
 20
0.0
 30
0.0
 11
-4.599999999999992
 21
0.0
 31
0.0
  0
LINE
  5
B3A0
330
B398
100
AcDbEntity
  8
0
  6
Continuous
 62
     0
370
     0
100
AcDbLine
 10
0.0
 20
-2.499999999999998
 30
0.0
 11
0.0
 21
-4.600000000000004
 31
0.0
  0
LINE
  5
B3A1
330
B398
100
AcDbEntity
  8
0
  6
Continuous
 62
     0
370
     0
100
AcDbLine
 10
2.500000000000002
 20
0.0
 30
0.0
 11
4.599999999999992
 21
0.0
 31
0.0
  0
ENDBLK
  5
B3A2
330
B398
100
AcDbEntity
  8
0
100
AcDbBlockEnd
  0
BLOCK
  5
B3A4
330
B3A3
100
AcDbEntity
  8
0
100
AcDbBlockBegin
  2
SW_CENTERMARKSYMBOL_23
 70
     0
 10
0.0
 20
0.0
 30
0.0
  3
SW_CENTERMARKSYMBOL_23
  1

  0
LINE
  5
B3A5
330
B3A3
100
AcDbEntity
  8
0
  6
Continuous
 62
     0
370
     0
100
AcDbLine
 10
0.0
 20
0.0
 30
0.0
 11
0.0
 21
2.499999999999998
 31
0.0
  0
LINE
  5
B3A6
330
B3A3
100
AcDbEntity
  8
0
  6
Continuous
 62
     0
370
     0
100
AcDbLine
 10
0.0
 20
0.0
 30
0.0
 11
-2.500000000000002
 21
0.0
 31
0.0
  0
LINE
  5
B3A7
330
B3A3
100
AcDbEntity
  8
0
  6
Continuous
 62
     0
370
     0
100
AcDbLine
 10
0.0
 20
0.0
 30
0.0
 11
0.0
 21
-2.5
 31
0.0
  0
LINE
  5
B3A8
330
B3A3
100
AcDbEntity
  8
0
  6
Continuous
 62
     0
370
     0
100
AcDbLine
 10
0.0
 20
0.0
 30
0.0
 11
2.499999999999946
 21
0.0
 31
0.0
  0
LINE
  5
B3A9
330
B3A3
100
AcDbEntity
  8
0
  6
Continuous
 62
     0
370
     0
100
AcDbLine
 10
0.0
 20
2.499999999999998
 30
0.0
 11
0.0
 21
4.50000000000001
 31
0.0
  0
LINE
  5
B3AA
330
B3A3
100
AcDbEntity
  8
0
  6
Continuous
 62
     0
370
     0
100
AcDbLine
 10
-2.500000000000002
 20
0.0
 30
0.0
 11
-4.500000000000031
 21
0.0
 31
0.0
  0
LINE
  5
B3AB
330
B3A3
100
AcDbEntity
  8
0
  6
Continuous
 62
     0
370
     0
100
AcDbLine
 10
0.0
 20
-2.5
 30
0.0
 11
0.0
 21
-4.500000000000012
 31
0.0
  0
LINE
  5
B3AC
330
B3A3
100
AcDbEntity
  8
0
  6
Continuous
 62
     0
370
     0
100
AcDbLine
 10
2.499999999999946
 20
0.0
 30
0.0
 11
4.500000000000003
 21
0.0
 31
0.0
  0
ENDBLK
  5
B3AD
330
B3A3
100
AcDbEntity
  8
0
100
AcDbBlockEnd
  0
BLOCK
  5
B3AF
330
B3AE
100
AcDbEntity
  8
0
100
AcDbBlockBegin
  2
SW_CENTERMARKSYMBOL_24
 70
     0
 10
0.0
 20
0.0
 30
0.0
  3
SW_CENTERMARKSYMBOL_24
  1

  0
LINE
  5
B3B0
330
B3AE
100
AcDbEntity
  8
0
  6
Continuous
 62
     0
370
     0
100
AcDbLine
 10
0.0
 20
0.0
 30
0.0
 11
0.0
 21
2.499999999999995
 31
0.0
  0
LINE
  5
B3B1
330
B3AE
100
AcDbEntity
  8
0
  6
Continuous
 62
     0
370
     0
100
AcDbLine
 10
0.0
 20
0.0
 30
0.0
 11
-2.500000000000002
 21
0.0
 31
0.0
  0
LINE
  5
B3B2
330
B3AE
100
AcDbEntity
  8
0
  6
Continuous
 62
     0
370
     0
100
AcDbLine
 10
0.0
 20
0.0
 30
0.0
 11
0.0
 21
-2.500000000000002
 31
0.0
  0
LINE
  5
B3B3
330
B3AE
100
AcDbEntity
  8
0
  6
Continuous
 62
     0
370
     0
100
AcDbLine
 10
0.0
 20
0.0
 30
0.0
 11
2.500000000000002
 21
0.0
 31
0.0
  0
LINE
  5
B3B4
330
B3AE
100
AcDbEntity
  8
0
  6
Continuous
 62
     0
370
     0
100
AcDbLine
 10
0.0
 20
2.499999999999995
 30
0.0
 11
0.0
 21
4.50000000000001
 31
0.0
  0
LINE
  5
B3B5
330
B3AE
100
AcDbEntity
  8
0
  6
Continuous
 62
     0
370
     0
100
AcDbLine
 10
-2.500000000000002
 20
0.0
 30
0.0
 11
-4.500000000000031
 21
0.0
 31
0.0
  0
LINE
  5
B3B6
330
B3AE
100
AcDbEntity
  8
0
  6
Continuous
 62
     0
370
     0
100
AcDbLine
 10
0.0
 20
-2.500000000000002
 30
0.0
 11
0.0
 21
-4.50000000000001
 31
0.0
  0
LINE
  5
B3B7
330
B3AE
100
AcDbEntity
  8
0
  6
Continuous
 62
     0
370
     0
100
AcDbLine
 10
2.500000000000002
 20
0.0
 30
0.0
 11
4.500000000000003
 21
0.0
 31
0.0
  0
ENDBLK
  5
B3B8
330
B3AE
100
AcDbEntity
  8
0
100
AcDbBlockEnd
  0
BLOCK
  5
B3BA
330
B3B9
100
AcDbEntity
  8
0
100
AcDbBlockBegin
  2
SW_CENTERMARKSYMBOL_25
 70
     0
 10
0.0
 20
0.0
 30
0.0
  3
SW_CENTERMARKSYMBOL_25
  1

  0
LINE
  5
B3BB
330
B3B9
100
AcDbEntity
  8
0
  6
Continuous
 62
     0
370
     0
100
AcDbLine
 10
0.0
 20
0.0
 30
0.0
 11
0.0
 21
2.500000000000002
 31
0.0
  0
LINE
  5
B3BC
330
B3B9
100
AcDbEntity
  8
0
  6
Continuous
 62
     0
370
     0
100
AcDbLine
 10
0.0
 20
0.0
 30
0.0
 11
-2.500000000000002
 21
0.0
 31
0.0
  0
LINE
  5
B3BD
330
B3B9
100
AcDbEntity
  8
0
  6
Continuous
 62
     0
370
     0
100
AcDbLine
 10
0.0
 20
0.0
 30
0.0
 11
0.0
 21
-2.500000000000002
 31
0.0
  0
LINE
  5
B3BE
330
B3B9
100
AcDbEntity
  8
0
  6
Continuous
 62
     0
370
     0
100
AcDbLine
 10
0.0
 20
0.0
 30
0.0
 11
2.500000000000002
 21
0.0
 31
0.0
  0
LINE
  5
B3BF
330
B3B9
100
AcDbEntity
  8
0
  6
Continuous
 62
     0
370
     0
100
AcDbLine
 10
0.0
 20
5.0
 30
0.0
 11
0.0
 21
5.699999999999996
 31
0.0
  0
LINE
  5
B3C0
330
B3B9
100
AcDbEntity
  8
0
  6
Continuous
 62
     0
370
     0
100
AcDbLine
 10
-5.000000000000004
 20
0.0
 30
0.0
 11
-5.70000000000001
 21
0.0
 31
0.0
  0
LINE
  5
B3C1
330
B3B9
100
AcDbEntity
  8
0
  6
Continuous
 62
     0
370
     0
100
AcDbLine
 10
0.0
 20
-5.000000000000004
 30
0.0
 11
0.0
 21
-5.699999999999996
 31
0.0
  0
LINE
  5
B3C2
330
B3B9
100
AcDbEntity
  8
0
  6
Continuous
 62
     0
370
     0
100
AcDbLine
 10
5.000000000000004
 20
0.0
 30
0.0
 11
5.699999999999983
 21
0.0
 31
0.0
  0
ENDBLK
  5
B3C3
330
B3B9
100
AcDbEntity
  8
0
100
AcDbBlockEnd
  0
BLOCK
  5
B3C5
330
B3C4
100
AcDbEntity
  8
0
100
AcDbBlockBegin
  2
SW_CENTERMARKSYMBOL_26
 70
     0
 10
0.0
 20
0.0
 30
0.0
  3
SW_CENTERMARKSYMBOL_26
  1

  0
LINE
  5
B3C6
330
B3C4
100
AcDbEntity
  8
0
  6
Continuous
 62
     0
370
     0
100
AcDbLine
 10
0.0
 20
0.0
 30
0.0
 11
0.0
 21
2.499999999999998
 31
0.0
  0
LINE
  5
B3C7
330
B3C4
100
AcDbEntity
  8
0
  6
Continuous
 62
     0
370
     0
100
AcDbLine
 10
0.0
 20
0.0
 30
0.0
 11
-2.500000000000002
 21
0.0
 31
0.0
  0
LINE
  5
B3C8
330
B3C4
100
AcDbEntity
  8
0
  6
Continuous
 62
     0
370
     0
100
AcDbLine
 10
0.0
 20
0.0
 30
0.0
 11
0.0
 21
-2.499999999999998
 31
0.0
  0
LINE
  5
B3C9
330
B3C4
100
AcDbEntity
  8
0
  6
Continuous
 62
     0
370
     0
100
AcDbLine
 10
0.0
 20
0.0
 30
0.0
 11
2.500000000000002
 21
0.0
 31
0.0
  0
LINE
  5
B3CA
330
B3C4
100
AcDbEntity
  8
0
  6
Continuous
 62
     0
370
     0
100
AcDbLine
 10
0.0
 20
5.0
 30
0.0
 11
0.0
 21
5.7
 31
0.0
  0
LINE
  5
B3CB
330
B3C4
100
AcDbEntity
  8
0
  6
Continuous
 62
     0
370
     0
100
AcDbLine
 10
-5.000000000000004
 20
0.0
 30
0.0
 11
-5.70000000000001
 21
0.0
 31
0.0
  0
LINE
  5
B3CC
330
B3C4
100
AcDbEntity
  8
0
  6
Continuous
 62
     0
370
     0
100
AcDbLine
 10
0.0
 20
-5.0
 30
0.0
 11
0.0
 21
-5.7
 31
0.0
  0
LINE
  5
B3CD
330
B3C4
100
AcDbEntity
  8
0
  6
Continuous
 62
     0
370
     0
100
AcDbLine
 10
5.000000000000004
 20
0.0
 30
0.0
 11
5.699999999999983
 21
0.0
 31
0.0
  0
ENDBLK
  5
B3CE
330
B3C4
100
AcDbEntity
  8
0
100
AcDbBlockEnd
  0
BLOCK
  5
B3D0
330
B3CF
100
AcDbEntity
  8
0
100
AcDbBlockBegin
  2
SW_CENTERMARKSYMBOL_27
 70
     0
 10
0.0
 20
0.0
 30
0.0
  3
SW_CENTERMARKSYMBOL_27
  1

  0
LINE
  5
B3D1
330
B3CF
100
AcDbEntity
  8
0
  6
Continuous
 62
     0
370
     0
100
AcDbLine
 10
0.0
 20
0.0
 30
0.0
 11
0.0
 21
2.5
 31
0.0
  0
LINE
  5
B3D2
330
B3CF
100
AcDbEntity
  8
0
  6
Continuous
 62
     0
370
     0
100
AcDbLine
 10
0.0
 20
0.0
 30
0.0
 11
-2.500000000000002
 21
0.0
 31
0.0
  0
LINE
  5
B3D3
330
B3CF
100
AcDbEntity
  8
0
  6
Continuous
 62
     0
370
     0
100
AcDbLine
 10
0.0
 20
0.0
 30
0.0
 11
0.0
 21
-2.5
 31
0.0
  0
LINE
  5
B3D4
330
B3CF
100
AcDbEntity
  8
0
  6
Continuous
 62
     0
370
     0
100
AcDbLine
 10
0.0
 20
0.0
 30
0.0
 11
2.500000000000002
 21
0.0
 31
0.0
  0
LINE
  5
B3D5
330
B3CF
100
AcDbEntity
  8
0
  6
Continuous
 62
     0
370
     0
100
AcDbLine
 10
0.0
 20
2.5
 30
0.0
 11
0.0
 21
5.000000000000002
 31
0.0
  0
LINE
  5
B3D6
330
B3CF
100
AcDbEntity
  8
0
  6
Continuous
 62
     0
370
     0
100
AcDbLine
 10
-2.500000000000002
 20
0.0
 30
0.0
 11
-5.000000000000004
 21
0.0
 31
0.0
  0
LINE
  5
B3D7
330
B3CF
100
AcDbEntity
  8
0
  6
Continuous
 62
     0
370
     0
100
AcDbLine
 10
0.0
 20
-2.5
 30
0.0
 11
0.0
 21
-5.000000000000002
 31
0.0
  0
LINE
  5
B3D8
330
B3CF
100
AcDbEntity
  8
0
  6
Continuous
 62
     0
370
     0
100
AcDbLine
 10
2.500000000000002
 20
0.0
 30
0.0
 11
5.000000000000004
 21
0.0
 31
0.0
  0
ENDBLK
  5
B3D9
330
B3CF
100
AcDbEntity
  8
0
100
AcDbBlockEnd
  0
BLOCK
  5
B3DB
330
B3DA
100
AcDbEntity
  8
0
100
AcDbBlockBegin
  2
SW_CENTERMARKSYMBOL_28
 70
     0
 10
0.0
 20
0.0
 30
0.0
  3
SW_CENTERMARKSYMBOL_28
  1

  0
LINE
  5
B3DC
330
B3DA
100
AcDbEntity
  8
0
  6
Continuous
 62
     0
370
     0
100
AcDbLine
 10
0.0
 20
0.0
 30
0.0
 11
0.0
 21
2.5
 31
0.0
  0
LINE
  5
B3DD
330
B3DA
100
AcDbEntity
  8
0
  6
Continuous
 62
     0
370
     0
100
AcDbLine
 10
0.0
 20
0.0
 30
0.0
 11
-2.500000000000002
 21
0.0
 31
0.0
  0
LINE
  5
B3DE
330
B3DA
100
AcDbEntity
  8
0
  6
Continuous
 62
     0
370
     0
100
AcDbLine
 10
0.0
 20
0.0
 30
0.0
 11
0.0
 21
-2.5
 31
0.0
  0
LINE
  5
B3DF
330
B3DA
100
AcDbEntity
  8
0
  6
Continuous
 62
     0
370
     0
100
AcDbLine
 10
0.0
 20
0.0
 30
0.0
 11
2.500000000000002
 21
0.0
 31
0.0
  0
LINE
  5
B3E0
330
B3DA
100
AcDbEntity
  8
0
  6
Continuous
 62
     0
370
     0
100
AcDbLine
 10
0.0
 20
2.5
 30
0.0
 11
0.0
 21
5.000000000000002
 31
0.0
  0
LINE
  5
B3E1
330
B3DA
100
AcDbEntity
  8
0
  6
Continuous
 62
     0
370
     0
100
AcDbLine
 10
-2.500000000000002
 20
0.0
 30
0.0
 11
-5.000000000000004
 21
0.0
 31
0.0
  0
LINE
  5
B3E2
330
B3DA
100
AcDbEntity
  8
0
  6
Continuous
 62
     0
370
     0
100
AcDbLine
 10
0.0
 20
-2.5
 30
0.0
 11
0.0
 21
-5.000000000000002
 31
0.0
  0
LINE
  5
B3E3
330
B3DA
100
AcDbEntity
  8
0
  6
Continuous
 62
     0
370
     0
100
AcDbLine
 10
2.500000000000002
 20
0.0
 30
0.0
 11
5.000000000000004
 21
0.0
 31
0.0
  0
ENDBLK
  5
B3E4
330
B3DA
100
AcDbEntity
  8
0
100
AcDbBlockEnd
  0
BLOCK
  5
B3E6
330
B3E5
100
AcDbEntity
  8
0
100
AcDbBlockBegin
  2
SW_CENTERMARKSYMBOL_29
 70
     0
 10
0.0
 20
0.0
 30
0.0
  3
SW_CENTERMARKSYMBOL_29
  1

  0
LINE
  5
B3E7
330
B3E5
100
AcDbEntity
  8
0
  6
Continuous
 62
     0
370
     0
100
AcDbLine
 10
0.0
 20
0.0
 30
0.0
 11
0.0
 21
2.500000000000002
 31
0.0
  0
LINE
  5
B3E8
330
B3E5
100
AcDbEntity
  8
0
  6
Continuous
 62
     0
370
     0
100
AcDbLine
 10
0.0
 20
0.0
 30
0.0
 11
-2.500000000000002
 21
0.0
 31
0.0
  0
LINE
  5
B3E9
330
B3E5
100
AcDbEntity
  8
0
  6
Continuous
 62
     0
370
     0
100
AcDbLine
 10
0.0
 20
0.0
 30
0.0
 11
0.0
 21
-2.500000000000002
 31
0.0
  0
LINE
  5
B3EA
330
B3E5
100
AcDbEntity
  8
0
  6
Continuous
 62
     0
370
     0
100
AcDbLine
 10
0.0
 20
0.0
 30
0.0
 11
2.500000000000002
 21
0.0
 31
0.0
  0
LINE
  5
B3EB
330
B3E5
100
AcDbEntity
  8
0
  6
Continuous
 62
     0
370
     0
100
AcDbLine
 10
0.0
 20
4.999999999999997
 30
0.0
 11
0.0
 21
5.700000000000003
 31
0.0
  0
LINE
  5
B3EC
330
B3E5
100
AcDbEntity
  8
0
  6
Continuous
 62
     0
370
     0
100
AcDbLine
 10
-4.999999999999976
 20
0.0
 30
0.0
 11
-5.699999999999983
 21
0.0
 31
0.0
  0
LINE
  5
B3ED
330
B3E5
100
AcDbEntity
  8
0
  6
Continuous
 62
     0
370
     0
100
AcDbLine
 10
0.0
 20
-5.0
 30
0.0
 11
0.0
 21
-5.700000000000003
 31
0.0
  0
LINE
  5
B3EE
330
B3E5
100
AcDbEntity
  8
0
  6
Continuous
 62
     0
370
     0
100
AcDbLine
 10
5.000000000000004
 20
0.0
 30
0.0
 11
5.70000000000001
 21
0.0
 31
0.0
  0
ENDBLK
  5
B3EF
330
B3E5
100
AcDbEntity
  8
0
100
AcDbBlockEnd
  0
ENDSEC
  0
SECTION
  2
ENTITIES
  0
TEXT
  5
1599
330
1F
100
AcDbEntity
  8
LOGO
 62
     7
100
AcDbText
 10
695.5741352821275
 20
62.91388112717005
 30
0.0
 40
3.483143580380088
  1
Order example:
 41
0.8
  7
CHINESET
100
AcDbText
  0
TEXT
  5
159A
330
1F
100
AcDbEntity
  8
LOGO
 62
     7
100
AcDbText
 10
696.1990400448732
 20
67.81742609426455
 30
0.0
 40
5.224715370570135
  1
訂購代號：
  7
CHINESET
100
AcDbText
  0
LINE
  5
159B
330
1F
100
AcDbEntity
  8
LOGO
 62
     4
100
AcDbLine
 10
694.0606975823084
 20
48.23459876290789
 30
0.0
 11
694.0606975823084
 21
74.35817561575873
 31
0.0
  0
TEXT
  5
159C
330
1F
100
AcDbEntity
  8
LOGO
  6
Continuous
100
AcDbText
 10
645.9725347393308
 20
53.36653601173557
 30
0.0
 40
3.918536527927601
  1
金器工業股份有限公司
  7
CHINESET
100
AcDbText
  0
TEXT
  5
159D
330
1F
100
AcDbEntity
  8
LOGO
  6
Continuous
100
AcDbText
 10
638.7749583817492
 20
49.44723175787367
 30
0.0
 40
2.612357685285067
  1
MINDMAN INDUSTRIAL CO., LTD.
 41
0.85
  7
CHINESET
100
AcDbText
  0
LINE
  5
159E
330
1F
100
AcDbEntity
  8
LOGO
 62
     4
100
AcDbLine
 10
694.0606975823084
 20
69.13346024518856
 30
0.0
 11
655.7461181981271
 21
69.13346024518856
 31
0.0
  0
LINE
  5
159F
330
1F
100
AcDbEntity
  8
LOGO
 62
     4
100
AcDbLine
 10
694.0606975823084
 20
63.90874487461839
 30
0.0
 11
655.7461181981271
 21
63.90874487461839
 31
0.0
  0
LINE
  5
15A0
330
1F
100
AcDbEntity
  8
LOGO
 62
     4
100
AcDbLine
 10
694.0606975823084
 20
58.68402950404853
 30
0.0
 11
636.5888285060369
 21
58.68402950404853
 31
0.0
  0
LINE
  5
15A1
330
1F
100
AcDbEntity
  8
LOGO
 62
     4
100
AcDbLine
 10
655.7461181981271
 20
58.68402950404853
 30
0.0
 11
655.7461181981271
 21
74.35817561575873
 31
0.0
  0
TEXT
  5
15A2
330
1F
100
AcDbEntity
  8
LOGO
100
AcDbText
 10
681.9323247866138
 20
59.99020834669063
 30
0.0
 40
2.612357685285067
  1
mm
  7
CHINESET
 72
     1
 11
685.1666723969668
 21
61.29638718933316
 31
0.0
100
AcDbText
 73
     2
  0
TEXT
  5
15A3
330
1F
100
AcDbEntity
  8
LOGO
100
AcDbText
 10
680.5639469514646
 20
70.43963908783095
 30
0.0
 40
2.612357685285067
  1
1 : 1
  7
CHINESET
 72
     1
 11
685.1666723969668
 21
71.74581793047349
 31
0.0
100
AcDbText
 73
     2
  0
LINE
  5
15A4
330
1F
100
AcDbEntity
  8
LOGO
 62
     4
100
AcDbLine
 10
676.644979680408
 20
58.68402950404853
 30
0.0
 11
676.644979680408
 21
74.35817561575873
 31
0.0
  0
TEXT
  5
15A5
330
1F
100
AcDbEntity
  8
LOGO
100
AcDbText
 10
657.900147057378
 20
70.44092469692805
 30
171.2096190857047
 40
2.612357685285067
  1
比例 Scale:
 41
0.9
  7
CHINESET
 72
     4
 11
666.1955489392676
 21
71.74581793047349
 31
171.2096190857047
100
AcDbText
  0
TEXT
  5
15A6
330
1F
100
AcDbEntity
  8
LOGO
100
AcDbText
 10
657.7497032442522
 20
65.25167071061925
 30
171.2096190857047
 40
2.612357685285067
  1
投影  View:
 41
0.9
  7
CHINESET
 72
     4
 11
666.1955489392676
 21
66.52110255990333
 31
171.2096190857047
100
AcDbText
  0
TEXT
  5
15A7
330
1F
100
AcDbEntity
  8
LOGO
100
AcDbText
 10
658.0051078572332
 20
59.99020834669063
 30
171.2096190857047
 40
2.612357685285067
  1
單位  Unit:
 41
0.9
  7
CHINESET
 72
     4
 11
666.1955489392676
 21
61.29638718933316
 31
171.2096190857047
100
AcDbText
  0
LWPOLYLINE
  5
15A8
330
1F
100
AcDbEntity
  8
LOGO
 62
     4
100
AcDbPolyline
 90
        4
 70
     1
 43
0.0
 10
636.5888285060369
 20
74.35817561575871
 10
945.4852049033357
 20
74.35817561575873
 10
945.4852049033357
 20
253.988729737025
 10
636.5888285060369
 20
253.988729737025
1001
GENIUS_GENREC_14
1002
{
1000
PYDIR
1011
636.5888285060369
1021
253.988729737025
1031
0.0
1002
}
1002
{
1000
PXDIR
1011
945.4852049033357
1021
74.35817561575873
1031
0.0
1002
}
1002
{
1000
PORI
1011
636.5888285060369
1021
74.35817561575871
1031
0.0
1002
}
1002
{
1000
PINS
1011
636.5888285060369
1021
74.35817561575871
1031
0.0
1002
}
1002
{
1000
PINS2
1011
945.4852049033357
1021
253.988729737025
1031
0.0
1002
}
1002
{
1000
C
1070
     1
1002
}
1001
GENIUS_GENODEF_13
1002
{
1000
HIER
1070
     0
1002
}
1002
{
1000
MANEDIT
1070
     0
1002
}
1002
{
1000
NOSEL
1070
     0
1002
}
1002
{
1000
BEHIND
1070
     0
1002
}
1002
{
1000
OTHER
1070
     0
1002
}
1002
{
1000
REACTOR
1002
}
1001
GENIUS_GENOBJ-N-REC_13
1002
{
1000
OWNER
1000
GEN
1002
}
  0
SOLID
  5
15A9
330
1F
100
AcDbEntity
  8
LOGO
 62
     5
100
AcDbTrace
 10
639.2991915296721
 20
63.02670231599896
 30
0.0
 11
640.4287064445236
 21
63.02670231599865
 31
0.0
 12
645.1415100547664
 22
73.73761961200575
 32
0.0
 13
646.2710249696185
 23
73.73761961200518
 33
0.0
  0
SOLID
  5
15AA
330
1F
100
AcDbEntity
  8
LOGO
 62
     5
100
AcDbTrace
 10
640.8960919265324
 20
63.02670231599896
 30
0.0
 11
642.025606841384
 21
63.02670231599896
 31
0.0
 12
646.2710249696185
 22
72.88074622832478
 32
0.0
 13
645.1415100547664
 23
68.73919154053549
 33
0.0
  0
SOLID
  5
15AB
330
1F
100
AcDbEntity
  8
LOGO
 62
     2
100
AcDbTrace
 10
640.4287064445236
 20
63.02670231599865
 30
0.0
 11
640.8960919265324
 21
63.02670231599896
 31
0.0
 12
646.2710249696185
 22
73.73761961200518
 32
0.0
 13
646.7384104516264
 23
73.73761961200518
 33
0.0
  0
SOLID
  5
15AC
330
1F
100
AcDbEntity
  8
LOGO
 62
     5
100
AcDbTrace
 10
637.4883021301784
 20
59.13182329926957
 30
0.0
 11
637.8777900318517
 21
59.13182329926957
 31
0.0
 12
638.9746182782784
 22
61.07926280763409
 32
0.0
 13
639.3641061799504
 23
61.07926280763409
 33
0.0
  0
SOLID
  5
15AD
330
1F
100
AcDbEntity
  8
LOGO
 62
     5
100
AcDbTrace
 10
638.9746182782784
 20
61.07926280763409
 30
0.0
 11
639.3641061799504
 21
61.07926280763409
 31
0.0
 12
638.9746182782784
 22
59.13182329926957
 32
0.0
 13
639.3641061799504
 23
59.13182329926957
 33
0.0
  0
SOLID
  5
15AE
330
1F
100
AcDbEntity
  8
LOGO
 62
     5
100
AcDbTrace
 10
638.9746182782784
 20
59.13182329926957
 30
0.0
 11
639.3641061799504
 21
59.13182329926957
 31
0.0
 12
640.4609344263787
 22
61.07926280763409
 32
0.0
 13
640.8504223280514
 23
61.07926280763409
 33
0.0
  0
SOLID
  5
15AF
330
1F
100
AcDbEntity
  8
LOGO
 62
     5
100
AcDbTrace
 10
640.4609344263787
 20
61.07926280763409
 30
0.0
 11
640.8504223280514
 21
61.07926280763409
 31
0.0
 12
640.4609344263787
 22
59.13182329926957
 32
0.0
 13
640.8504223280514
 23
59.13182329926957
 33
0.0
  0
POLYLINE
  5
15B0
330
1F
100
AcDbEntity
  8
LOGO
 62
     5
100
AcDb2dPolyline
 66
     1
 10
0.0
 20
0.0
 30
0.0
 40
0.39011208100257
 41
0.39011208100257
  0
VERTEX
  5
15B1
330
15B0
100
AcDbEntity
  8
LOGO
 62
     5
100
AcDbVertex
100
AcDb2dVertex
 10
653.5164362097305
 20
60.30028700428823
 30
0.0
 42
1.0
  0
VERTEX
  5
15B2
330
15B0
100
AcDbEntity
  8
LOGO
 62
     5
100
AcDbVertex
100
AcDb2dVertex
 10
652.3460999667226
 20
60.30028700428823
 30
0.0
 42
1.0
  0
SEQEND
  5
15B3
330
15B0
100
AcDbEntity
  8
LOGO
 62
     5
  0
POLYLINE
  5
15B4
330
1F
100
AcDbEntity
  8
LOGO
 62
     5
100
AcDb2dPolyline
 66
     1
 10
0.0
 20
0.0
 30
0.0
 70
     1
  0
VERTEX
  5
15B5
330
15B4
100
AcDbEntity
  8
LOGO
 62
     5
100
AcDbVertex
100
AcDb2dVertex
 10
650.1399640920964
 20
60.10554305345152
 30
0.0
 42
1.000000057330635
  0
VERTEX
  5
15B6
330
15B4
100
AcDbEntity
  8
LOGO
 62
     5
100
AcDbVertex
100
AcDb2dVertex
 10
651.3084277971152
 20
60.10554305345152
 30
0.0
 42
1.000000057330635
  0
SEQEND
  5
15B7
330
15B4
100
AcDbEntity
  8
LOGO
 62
     5
  0
CIRCLE
  5
15B8
330
1F
100
AcDbEntity
  8
LOGO
 62
     5
100
AcDbCircle
 10
650.7241959446067
 20
60.10554305345152
 30
0.0
 40
0.5842318525094489
  0
POLYLINE
  5
15B9
330
1F
100
AcDbEntity
  8
LOGO
 62
     5
100
AcDb2dPolyline
 66
     1
 10
0.0
 20
0.0
 30
0.0
 70
     1
 40
0.39011208100257
 41
0.39011208100257
  0
VERTEX
  5
15BA
330
15B9
100
AcDbEntity
  8
LOGO
 62
     5
100
AcDbVertex
100
AcDb2dVertex
 10
649.9439717826009
 20
60.10554305345152
 30
0.0
 42
1.0
  0
VERTEX
  5
15BB
330
15B9
100
AcDbEntity
  8
LOGO
 62
     5
100
AcDbVertex
100
AcDb2dVertex
 10
651.5044201066112
 20
60.10554305345152
 30
0.0
 42
1.0
  0
SEQEND
  5
15BC
330
15B9
100
AcDbEntity
  8
LOGO
 62
     5
  0
LINE
  5
15BD
330
1F
100
AcDbEntity
  8
LOGO
100
AcDbLine
 10
653.7102438915718
 20
59.13182329926957
 30
0.0
 11
653.7102438915718
 21
60.30028700428823
 31
0.0
  0
SOLID
  5
15BE
330
1F
100
AcDbEntity
  8
LOGO
 62
     5
100
AcDbTrace
 10
651.3083888483268
 20
61.07926280763409
 30
0.0
 11
651.697876749999
 21
61.07926280763409
 31
0.0
 12
651.3083888483268
 22
59.13182329926957
 32
0.0
 13
651.697876749999
 23
59.13182329926957
 33
0.0
  0
SOLID
  5
15BF
330
1F
100
AcDbEntity
  8
LOGO
 62
     5
100
AcDbTrace
 10
652.15229228488
 20
59.13182329926957
 30
0.0
 11
652.5417801865533
 21
59.13182329926957
 31
0.0
 12
652.15229228488
 22
61.07926280763409
 32
0.0
 13
652.5417801865533
 23
61.07926280763409
 33
0.0
  0
SOLID
  5
15C0
330
1F
100
AcDbEntity
  8
LOGO
 62
     5
100
AcDbTrace
 10
653.3207559898997
 20
60.30028700428823
 30
0.0
 11
653.7102438915718
 21
60.30028700428823
 31
0.0
 12
653.3207559898997
 22
59.13182329926957
 32
0.0
 13
653.7102438915718
 23
59.13182329926957
 33
0.0
  0
SOLID
  5
15C1
330
1F
100
AcDbEntity
  8
LOGO
 62
     5
100
AcDbTrace
 10
652.1133434947127
 20
72.88074622832478
 30
0.0
 11
650.9838285798617
 21
68.73919154053549
 31
0.0
 12
652.1133434947127
 22
63.02670231599865
 32
0.0
 13
650.9838285798617
 23
63.02670231599865
 33
0.0
  0
SOLID
  5
15C2
330
1F
100
AcDbEntity
  8
LOGO
 62
     5
100
AcDbTrace
 10
652.5807289767207
 20
63.02670231599865
 30
0.0
 11
653.7102438915718
 21
63.02670231599865
 31
0.0
 12
652.5807289767207
 22
73.73761961200518
 32
0.0
 13
653.7102438915718
 23
73.73761961200575
 33
0.0
  0
SOLID
  5
15C3
330
1F
100
AcDbEntity
  8
LOGO
 62
     2
100
AcDbTrace
 10
652.1133434947127
 20
73.73761961200575
 30
0.0
 11
652.5807289767207
 21
73.73761961200518
 31
0.0
 12
652.1133434947127
 22
63.02670231599865
 32
0.0
 13
652.5807289767207
 23
63.02670231599865
 33
0.0
  0
POLYLINE
  5
15C4
330
1F
100
AcDbEntity
  8
LOGO
 62
     5
100
AcDb2dPolyline
 66
     1
 10
0.0
 20
0.0
 30
0.0
 40
0.39011208100257
 41
0.39011208100257
  0
VERTEX
  5
15C5
330
15C4
100
AcDbEntity
  8
LOGO
 62
     5
100
AcDbVertex
100
AcDb2dVertex
 10
647.9337503198913
 20
60.30028700428823
 30
0.0
 42
1.0
  0
VERTEX
  5
15C6
330
15C4
100
AcDbEntity
  8
LOGO
 62
     5
100
AcDbVertex
100
AcDb2dVertex
 10
646.7634140768835
 20
60.30028700428823
 30
0.0
 42
1.0
  0
SEQEND
  5
15C7
330
15C4
100
AcDbEntity
  8
LOGO
 62
     5
  0
POLYLINE
  5
15C8
330
1F
100
AcDbEntity
  8
LOGO
 62
     5
100
AcDb2dPolyline
 66
     1
 10
0.0
 20
0.0
 30
0.0
 40
0.39011208100257
 41
0.39011208100257
  0
VERTEX
  5
15C9
330
15C8
100
AcDbEntity
  8
LOGO
 62
     5
100
AcDbVertex
100
AcDb2dVertex
 10
649.1022140249091
 20
60.30028700428823
 30
0.0
 42
1.0
  0
VERTEX
  5
15CA
330
15C8
100
AcDbEntity
  8
LOGO
 62
     5
100
AcDbVertex
100
AcDb2dVertex
 10
647.9318777819019
 20
60.30028700428823
 30
0.0
 42
1.0
  0
SEQEND
  5
15CB
330
15C8
100
AcDbEntity
  8
LOGO
 62
     5
  0
POLYLINE
  5
15CC
330
1F
100
AcDbEntity
  8
LOGO
 62
     5
100
AcDb2dPolyline
 66
     1
 10
0.0
 20
0.0
 30
0.0
 40
0.39011208100257
 41
0.39011208100257
  0
VERTEX
  5
15CD
330
15CC
100
AcDbEntity
  8
LOGO
 62
     5
100
AcDbVertex
100
AcDb2dVertex
 10
643.5195281350699
 20
60.30028700428823
 30
0.0
 42
1.0
  0
VERTEX
  5
15CE
330
15CC
100
AcDbEntity
  8
LOGO
 62
     5
100
AcDbVertex
100
AcDb2dVertex
 10
642.3491918920625
 20
60.30028700428823
 30
0.0
 42
1.0
  0
SEQEND
  5
15CF
330
15CC
100
AcDbEntity
  8
LOGO
 62
     5
  0
SOLID
  5
15D0
330
1F
100
AcDbEntity
  8
LOGO
 62
     5
100
AcDbTrace
 10
642.1553842102208
 20
61.07926280763409
 30
0.0
 11
642.5448721118931
 21
61.07926280763409
 31
0.0
 12
642.1553842102208
 22
59.13182329926957
 32
0.0
 13
642.5448721118931
 23
59.13182329926957
 33
0.0
  0
SOLID
  5
15D1
330
1F
100
AcDbEntity
  8
LOGO
 62
     5
100
AcDbTrace
 10
643.3238479152395
 20
60.30028700428823
 30
0.0
 11
643.7133358169131
 21
60.30028700428823
 31
0.0
 12
643.3238479152395
 22
59.13182329926957
 32
0.0
 13
643.7133358169131
 23
59.13182329926957
 33
0.0
  0
POLYLINE
  5
15D2
330
1F
100
AcDbEntity
  8
LOGO
 62
     5
100
AcDb2dPolyline
 66
     1
 10
0.0
 20
0.0
 30
0.0
 70
     1
 40
0.39011208100257
 41
0.39011208100257
  0
VERTEX
  5
15D3
330
15D2
100
AcDbEntity
  8
LOGO
 62
     5
100
AcDbVertex
100
AcDb2dVertex
 10
644.3612858927613
 20
60.10554305345152
 30
0.0
 42
1.0
  0
VERTEX
  5
15D4
330
15D2
100
AcDbEntity
  8
LOGO
 62
     5
100
AcDbVertex
100
AcDb2dVertex
 10
645.9217342167719
 20
60.10554305345152
 30
0.0
 42
1.0
  0
SEQEND
  5
15D5
330
15D2
100
AcDbEntity
  8
LOGO
 62
     5
  0
SOLID
  5
15D6
330
1F
100
AcDbEntity
  8
LOGO
 62
     5
100
AcDbTrace
 10
645.7257029584861
 20
61.6634946601439
 30
0.0
 11
646.1151908601593
 21
61.6634946601439
 31
0.0
 12
645.7257029584861
 22
59.13182329926957
 32
0.0
 13
646.1151908601593
 23
59.13182329926957
 33
0.0
  0
SOLID
  5
15D7
330
1F
100
AcDbEntity
  8
LOGO
 62
     5
100
AcDbTrace
 10
646.569606395042
 20
61.07926280763409
 30
0.0
 11
646.9590942967144
 21
61.07926280763409
 31
0.0
 12
646.569606395042
 22
59.13182329926957
 32
0.0
 13
646.9590942967144
 23
59.13182329926957
 33
0.0
  0
SOLID
  5
15D8
330
1F
100
AcDbEntity
  8
LOGO
 62
     5
100
AcDbTrace
 10
647.73807010006
 20
60.30028700428823
 30
0.0
 11
648.1275580017332
 21
60.30028700428823
 31
0.0
 12
647.73807010006
 22
59.13182329926957
 32
0.0
 13
648.1275580017332
 23
59.13182329926957
 33
0.0
  0
SOLID
  5
15D9
330
1F
100
AcDbEntity
  8
LOGO
 62
     5
100
AcDbTrace
 10
648.906533805079
 20
60.30028700428823
 30
0.0
 11
649.2960217067516
 21
60.30028700428823
 31
0.0
 12
648.906533805079
 22
59.13182329926897
 32
0.0
 13
649.2960217067516
 23
59.13182329926897
 33
0.0
  0
SOLID
  5
15DA
330
1F
100
AcDbEntity
  8
LOGO
 62
     5
100
AcDbTrace
 10
641.3114807736657
 20
61.3519043388053
 30
0.0
 11
641.7009686753395
 21
61.3519043388053
 31
0.0
 12
641.3114807736657
 22
61.6634946601439
 32
0.0
 13
641.7009686753395
 23
61.6634946601439
 33
0.0
  0
SOLID
  5
15DB
330
1F
100
AcDbEntity
  8
LOGO
 62
     5
100
AcDbTrace
 10
641.3114807736657
 20
61.07926280763409
 30
0.0
 11
641.7009686753395
 21
61.07926280763409
 31
0.0
 12
641.3114807736657
 22
59.13182329926897
 32
0.0
 13
641.7009686753395
 23
59.13182329926957
 33
0.0
  0
SOLID
  5
15DC
330
1F
100
AcDbEntity
  8
LOGO
 62
     5
100
AcDbTrace
 10
645.1415100547664
 20
63.02670231599896
 30
0.0
 11
646.2710249696185
 21
63.02670231599896
 31
0.0
 12
645.1415100547664
 22
68.73919154053549
 32
0.0
 13
646.2710249696185
 23
72.88074622832478
 33
0.0
  0
SOLID
  5
15DD
330
1F
100
AcDbEntity
  8
LOGO
 62
     5
100
AcDbTrace
 10
646.7384104516264
 20
73.73761961200518
 30
0.0
 11
647.8679253664777
 21
73.73761961200575
 31
0.0
 12
646.7384104516264
 22
63.88357569967934
 32
0.0
 13
647.8679253664777
 23
68.02513038746862
 33
0.0
  0
SOLID
  5
15DE
330
1F
100
AcDbEntity
  8
LOGO
 62
     2
100
AcDbTrace
 10
646.2710249696185
 20
73.73761961200518
 30
0.0
 11
646.7384104516264
 21
73.73761961200518
 31
0.0
 12
646.2710249696185
 22
63.02670231599896
 32
0.0
 13
646.7384104516264
 23
63.02670231599896
 33
0.0
  0
SOLID
  5
15DF
330
1F
100
AcDbEntity
  8
LOGO
 62
     5
100
AcDbTrace
 10
646.7384104516264
 20
63.88357569967934
 30
0.0
 11
647.8679253664777
 21
68.02513038746862
 31
0.0
 12
652.1133434947127
 22
73.73761961200575
 32
0.0
 13
650.9838285798617
 23
73.73761961200575
 33
0.0
  0
SOLID
  5
15E0
330
1F
100
AcDbEntity
  8
LOGO
 62
     5
100
AcDbTrace
 10
646.7384104516264
 20
63.02670231599896
 30
0.0
 11
647.8679253664777
 21
63.02670231599896
 31
0.0
 12
652.1133434947127
 22
72.88074622832478
 32
0.0
 13
650.9838285798617
 23
68.73919154053549
 33
0.0
  0
SOLID
  5
15E1
330
1F
100
AcDbEntity
  8
LOGO
 62
     2
100
AcDbTrace
 10
646.2710249696185
 20
63.02670231599896
 30
0.0
 11
646.7384104516264
 21
63.02670231599896
 31
0.0
 12
652.1133434947127
 22
73.73761961200575
 32
0.0
 13
652.5807289767207
 23
73.73761961200518
 33
0.0
  0
LWPOLYLINE
  5
15E2
330
1F
100
AcDbEntity
  8
LOGO
 62
     4
100
AcDbPolyline
 90
        4
 70
     1
 43
0.0
 10
636.5888285060369
 20
74.35817561575871
 10
945.4852049033357
 20
74.35817561575873
 10
945.4852049033361
 20
48.23459876290762
 10
636.5888285060369
 20
48.23459876290759
1001
GENIUS_GENREC_14
1002
{
1000
PYDIR
1011
636.5888285060369
1021
48.23459876290759
1031
0.0
1002
}
1002
{
1000
PXDIR
1011
945.4852049033357
1021
74.35817561575873
1031
0.0
1002
}
1002
{
1000
PORI
1011
636.5888285060369
1021
74.35817561575871
1031
0.0
1002
}
1002
{
1000
PINS
1011
636.5888285060369
1021
74.35817561575871
1031
0.0
1002
}
1002
{
1000
PINS2
1011
945.4852049033361
1021
48.23459876290762
1031
0.0
1002
}
1002
{
1000
C
1070
     1
1002
}
1001
GENIUS_GENOBJ-N-REC_13
1002
{
1000
OWNER
1000
GEN
1002
}
1001
GENIUS_GENODEF_13
1002
{
1000
HIER
1070
     0
1002
}
1002
{
1000
MANEDIT
1070
     0
1002
}
1002
{
1000
NOSEL
1070
     0
1002
}
1002
{
1000
BEHIND
1070
     0
1002
}
1002
{
1000
OTHER
1070
     0
1002
}
1002
{
1000
REACTOR
1002
}
  0
LINE
  5
15E3
330
1F
100
AcDbEntity
  8
LOGO
 62
     4
100
AcDbLine
 10
750.1505793607995
 20
59.99020834669114
 30
0.0
 11
750.1505793607995
 21
50.41156350064539
 31
0.0
  0
LINE
  5
15E4
330
1F
100
AcDbEntity
  8
LOGO
 62
     4
100
AcDbLine
 10
738.5467739040184
 20
59.99020834669114
 30
0.0
 11
738.5467739040184
 21
50.41156350064539
 31
0.0
  0
LINE
  5
15E5
330
1F
100
AcDbEntity
  8
LOGO
 62
     4
100
AcDbLine
 10
750.1505793607995
 20
50.41156350064539
 30
0.0
 11
738.5467739040184
 21
50.41156350064539
 31
0.0
  0
LINE
  5
15E6
330
1F
100
AcDbEntity
  8
LOGO
 62
     4
100
AcDbLine
 10
758.6921766289979
 20
71.74581793047349
 30
0.0
 11
729.9925181202056
 21
71.74581793047349
 31
0.0
  0
LINE
  5
15E7
330
1F
100
AcDbEntity
  8
LOGO
 62
     4
100
AcDbLine
 10
758.6921766289979
 20
63.90874487461839
 30
0.0
 11
729.9925181202056
 21
63.90874487461839
 31
0.0
  0
LINE
  5
15E8
330
1F
100
AcDbEntity
  8
LOGO
 62
     4
100
AcDbLine
 10
729.9925181202056
 20
71.74581793047349
 30
0.0
 11
729.9925181202056
 21
63.90874487461839
 31
0.0
  0
LINE
  5
15E9
330
1F
100
AcDbEntity
  8
LOGO
 62
     4
100
AcDbLine
 10
758.6921766289979
 20
71.74581793047349
 30
0.0
 11
758.6921766289979
 21
63.90874487461839
 31
0.0
  0
LINE
  5
15EA
330
1F
100
AcDbEntity
  8
LOGO
 62
     4
100
AcDbLine
 10
744.3936238153646
 20
63.90874487461839
 30
0.0
 11
744.3936238153646
 21
59.99020834669114
 31
0.0
  0
TEXT
  5
15EB
330
1F
100
AcDbEntity
  8
LOGO
  6
Continuous
100
AcDbText
 10
733.8687790747481
 20
65.54472241722852
 30
0.0
 40
4.572287999999999
  1
MCHGH
  7
CHINESET
100
AcDbText
  0
LINE
  5
15EC
330
1F
100
AcDbEntity
  8
LOGO
 62
     4
100
AcDbLine
 10
750.1505793607995
 20
59.99020834669114
 30
0.0
 11
738.5467739040184
 21
59.99020834669114
 31
0.0
  0
TEXT
  5
15ED
330
1F
100
AcDbEntity
  8
LOGO
  6
Continuous
100
AcDbText
 10
741.5464783969406
 20
51.76356890867648
 30
171.2096190857047
 40
1.959551999999999
  1
Model
 41
0.8
  7
CHINESET
100
AcDbText
  0
TEXT
  5
15EE
330
1F
100
AcDbEntity
  8
LOGO
100
AcDbText
 10
741.0249093556583
 20
55.39615600307913
 30
171.2096190857047
 40
3.265919999999999
  1
型號
  7
CHINESET
100
AcDbText
  0
TEXT
  5
15F0
330
1F
100
AcDbEntity
  8
LOGO
100
AcDbText
 10
695.2710940295625
 20
49.62436274066934
 30
0.0
 40
2.612735999999999
  1
01206190
 41
0.7
  7
CHINESET
 72
     1
 11
701.6287516295625
 21
49.62436274066934
 31
0.0
100
AcDbText
  0
LINE
  5
15F1
330
1F
100
AcDbEntity
  8
LOGO
 62
     4
100
AcDbLine
 10
709.7371135823074
 20
53.45931413347866
 30
0.0
 11
709.7371135823085
 21
48.23459876290819
 31
0.0
  0
LINE
  5
15F2
330
1F
100
AcDbEntity
  8
LOGO
 62
     4
100
AcDbLine
 10
709.7371135823074
 20
53.45931413347866
 30
0.0
 11
694.0606975823084
 21
53.45931413347866
 31
0.0
  0
CIRCLE
  5
15F3
330
1F
100
AcDbEntity
  8
LOGO
  6
Continuous
100
AcDbCircle
 10
681.4820866832471
 20
66.52669041210913
 30
0.0
 40
1.516796360045102
  0
CIRCLE
  5
15F4
330
1F
100
AcDbEntity
  8
LOGO
  6
Continuous
100
AcDbCircle
 10
681.4820866832471
 20
66.52669041210913
 30
0.0
 40
0.8887083926017385
  0
LINE
  5
15F5
330
1F
100
AcDbEntity
  8
LOGO
100
AcDbLine
 10
691.0138110113774
 20
65.00989405206374
 30
0.0
 11
691.0138110113774
 21
68.04348677215452
 31
0.0
  0
LINE
  5
15F6
330
1F
100
AcDbEntity
  8
LOGO
100
AcDbLine
 10
686.2587414909017
 20
65.63798201950756
 30
0.0
 11
686.2587414909017
 21
67.41539880471101
 31
0.0
  0
LINE
  5
15F7
330
1F
100
AcDbEntity
  8
LOGO
  6
Continuous
100
AcDbLine
 10
686.2587414909017
 20
67.41539880471101
 30
0.0
 11
691.0138110113774
 21
68.04348677215452
 31
0.0
  0
LINE
  5
15F8
330
1F
100
AcDbEntity
  8
LOGO
  6
Continuous
100
AcDbLine
 10
686.2587414909017
 20
65.63798201950756
 30
0.0
 11
691.0138110113774
 21
65.00989405206374
 31
0.0
  0
LINE
  5
15F9
330
1F
100
AcDbEntity
  8
LOGO
  6
AM_ISO08W050x2
 48
0.3
100
AcDbLine
 10
679.3911601886881
 20
66.52669041210913
 30
0.0
 11
683.5730131778064
 21
66.52669041210913
 31
0.0
1001
GENIUS_GENOREF_13
1005
16B6
  0
LINE
  5
15FA
330
1F
100
AcDbEntity
  8
LOGO
  6
AM_ISO08W050x2
 48
0.3
100
AcDbLine
 10
681.4820866832471
 20
64.43576391754994
 30
0.0
 11
681.4820866832471
 21
68.61761690666831
 31
0.0
1001
GENIUS_GENOREF_13
1005
16B5
  0
LINE
  5
15FB
330
1F
100
AcDbEntity
  8
LOGO
  6
CENTER
 48
0.5
100
AcDbLine
 10
685.8784680958024
 20
66.52669041210913
 30
0.0
 11
691.4926311191358
 21
66.52669041210913
 31
0.0
1001
GENIUS_GENOREF_13
1005
16B4
  0
POINT
  5
16B4
330
1F
100
AcDbEntity
  8
0
 60
     1
100
AcDbPoint
 10
-1930.92695728958
 20
-494.9154325062304
 30
0.0
1001
GENIUS_GENOBJ-N-CRS_13
1002
{
1000
OWNER
1000
GEN
1002
}
1001
GENIUS_GENOLIS_13
1002
{
1000
ENT
1005
0
1005
0
1005
0
1005
15FB
1002
}
1001
GENIUS_GENOENT_13
1002
{
1000
MYREF
1005
16B4
1002
}
1002
{
1000
GRP
1005
0
1002
}
1001
GENIUS_GENODEF_13
1002
{
1000
HIER
1070
    10
1002
}
1002
{
1000
MANEDIT
1070
     1
1002
}
1002
{
1000
NOSEL
1070
     0
1002
}
1002
{
1000
BEHIND
1070
     0
1002
}
1002
{
1000
OTHER
1070
     0
1002
}
1002
{
1000
REACTOR
1002
}
  0
POINT
  5
16B5
330
1F
100
AcDbEntity
  8
0
 60
     1
100
AcDbPoint
 10
-1942.251542512434
 20
-486.0398460275941
 30
0.0
1001
GENIUS_GENOBJ-N-CRS_13
1002
{
1000
OWNER
1000
GEN
1002
}
1001
GENIUS_GENOLIS_13
1002
{
1000
ENT
1005
0
1005
0
1005
0
1005
15FA
1002
}
1001
GENIUS_GENOENT_13
1002
{
1000
MYREF
1005
16B5
1002
}
1002
{
1000
GRP
1005
0
1002
}
1001
GENIUS_GENODEF_13
1002
{
1000
HIER
1070
    10
1002
}
1002
{
1000
MANEDIT
1070
     1
1002
}
1002
{
1000
NOSEL
1070
     0
1002
}
1002
{
1000
BEHIND
1070
     0
1002
}
1002
{
1000
OTHER
1070
     0
1002
}
1002
{
1000
REACTOR
1002
}
  0
POINT
  5
16B6
330
1F
100
AcDbEntity
  8
0
 60
     1
100
AcDbPoint
 10
-1935.892868814597
 20
-494.9154325062304
 30
0.0
1001
GENIUS_GENOBJ-N-CRS_13
1002
{
1000
OWNER
1000
GEN
1002
}
1001
GENIUS_GENOLIS_13
1002
{
1000
ENT
1005
0
1005
0
1005
0
1005
15F9
1002
}
1001
GENIUS_GENOENT_13
1002
{
1000
MYREF
1005
16B6
1002
}
1002
{
1000
GRP
1005
0
1002
}
1001
GENIUS_GENODEF_13
1002
{
1000
HIER
1070
    10
1002
}
1002
{
1000
MANEDIT
1070
     1
1002
}
1002
{
1000
NOSEL
1070
     0
1002
}
1002
{
1000
BEHIND
1070
     0
1002
}
1002
{
1000
OTHER
1070
     0
1002
}
1002
{
1000
REACTOR
1002
}
  0
MTEXT
  5
7BA1
330
1F
100
AcDbEntity
  8
AM_VIS
100
AcDbMText
 10
315.4333775501655
 20
376.163241097652
 30
0.0
 40
3.5
 41
0.0
 71
     9
 72
     1
  1

 73
     1
 44
1.0
1001
ACAD
1000
MTEXTBEGIN
1070
    73
1070
     1
1070
    44
1040
1.0
1070
    74
1070
     0
1000
MTEXTEND
  0
LINE
  5
99DA
102
{ACAD_REACTORS
330
A58C
102
}
330
1F
100
AcDbEntity
  8
AM_7
100
AcDbLine
 10
649.8313461751467
 20
172.0857488193473
 30
0.0
 11
787.7288003027683
 21
172.0857488193472
 31
0.0
  0
LINE
  5
99DB
330
1F
100
AcDbEntity
  8
AM_7
100
AcDbLine
 10
718.7800732389575
 20
241.034475883158
 30
0.0
 11
718.7800732389575
 21
103.1370217555364
 31
0.0
  0
LINE
  5
9C94
330
1F
100
AcDbEntity
  8
LOGO
  6
Continuous
 62
     7
100
AcDbLine
 10
760.8392324149215
 20
67.75567351035149
 30
0.0
 11
764.3382486420684
 21
67.75567351035149
 31
0.0
  0
LINE
  5
9C95
330
1F
100
AcDbEntity
  8
LOGO
 62
     4
100
AcDbLine
 10
784.0000498782431
 20
59.85959046242689
 30
0.0
 11
784.0000498782431
 21
50.17451622920315
 31
0.0
  0
LINE
  5
9C96
330
1F
100
AcDbEntity
  8
LOGO
 62
     4
100
AcDbLine
 10
763.8770257216593
 20
59.85959046242689
 30
0.0
 11
763.8770257216593
 21
50.17451622920315
 31
0.0
  0
LINE
  5
9C97
330
1F
100
AcDbEntity
  8
LOGO
 62
     4
100
AcDbLine
 10
784.0000498782431
 20
50.17451622920315
 30
0.0
 11
763.8770257216593
 21
50.17451622920315
 31
0.0
  0
LINE
  5
9C98
330
1F
100
AcDbEntity
  8
LOGO
 62
     4
100
AcDbLine
 10
780.0433832732893
 20
71.74581793047348
 30
0.0
 11
766.5745829722419
 21
71.74581793047349
 31
0.0
  0
LINE
  5
9C99
330
1F
100
AcDbEntity
  8
LOGO
 62
     4
100
AcDbLine
 10
780.0433832732893
 20
63.82166628510889
 30
0.0
 11
766.5745829722419
 21
63.82166628510889
 31
0.0
  0
LINE
  5
9C9A
330
1F
100
AcDbEntity
  8
LOGO
 62
     4
100
AcDbLine
 10
766.5745829722419
 20
71.74581793047349
 30
0.0
 11
766.5745829722419
 21
63.82166628510889
 31
0.0
  0
LINE
  5
9C9B
330
1F
100
AcDbEntity
  8
LOGO
 62
     4
100
AcDbLine
 10
780.0433832732893
 20
71.74581793047349
 30
0.0
 11
780.0433832732893
 21
63.82166628510889
 31
0.0
  0
LINE
  5
9C9C
330
1F
100
AcDbEntity
  8
LOGO
 62
     4
100
AcDbLine
 10
773.3089831227657
 20
63.82166628510889
 30
0.0
 11
773.3089831227657
 21
59.85959046242689
 31
0.0
  0
LINE
  5
9C9E
330
1F
100
AcDbEntity
  8
LOGO
 62
     4
100
AcDbLine
 10
784.0000498782431
 20
59.85959046242689
 30
0.0
 11
763.8770257216593
 21
59.85959046242689
 31
0.0
  0
TEXT
  5
9C9F
330
1F
100
AcDbEntity
  8
LOGO
  6
Continuous
100
AcDbText
 10
765.616609840777
 20
51.5415439195457
 30
173.111948186657
 40
1.981324799999999
  1
Body diameter
 41
0.8
  7
CHINESET
100
AcDbText
  0
TEXT
  5
9CA0
330
1F
100
AcDbEntity
  8
LOGO
100
AcDbText
 10
767.2193637017053
 20
55.21449309277473
 30
173.111948186657
 40
3.302207999999999
  1
本體寬度
  7
CHINESET
100
AcDbText
  0
TEXT
  5
9CA2
330
1F
100
AcDbEntity
  8
LOGO
  6
Continuous
 62
     7
100
AcDbText
 10
767.8805425909343
 20
65.47582135597055
 30
0.0
 40
4.623091199999998
  1
125
  7
CHINESET
100
AcDbText
  0
DIMENSION
  5
A516
330
1F
100
AcDbEntity
  8
AM_REFDIM
100
AcDbDimension
  2
*D6
 10
726.8800732389564
 20
96.21728384522823
 30
0.0
 11
718.7800732389571
 21
96.21728384522823
 31
0.0
 70
   160
 71
     5
 42
16.19999999999879
  3
AM_ISO$0
100
AcDbAlignedDimension
 13
710.6800732389577
 23
110.1128515173814
 33
0.0
 14
726.8800732389564
 24
110.1128515173813
 34
0.0
100
AcDbRotatedDimension
1001
ACAD
1000
DSTYLE
1002
{
1070
    40
1040
1.005834825753484
1070
   271
1070
     1
1002
}
  0
DIMENSION
  5
A540
330
1F
100
AcDbEntity
  8
AM_REFDIM
100
AcDbDimension
  2
*D7
 10
733.7800732389576
 20
88.98387123114895
 30
0.0
 11
718.7800732389575
 21
88.98387123114895
 31
0.0
 70
   160
 71
     5
 42
30.0
  3
AM_ISO$0
100
AcDbAlignedDimension
 13
703.7800732389576
 23
108.5857488193472
 33
0.0
 14
733.7800732389576
 24
108.5857488193472
 34
0.0
100
AcDbRotatedDimension
1001
ACAD
1000
DSTYLE
1002
{
1070
    40
1040
1.005834825753484
1002
}
  0
DIMENSION
  5
A57E
102
{ACAD_XDICTIONARY
360
A58B
102
}
102
{ACAD_REACTORS
330
A58C
102
}
330
1F
100
AcDbEntity
  8
AM_REFDIM
100
AcDbDimension
  2
*D8
 10
803.1328036967803
 20
108.5857488193471
 30
0.0
 11
803.1328036967803
 21
140.3357488193472
 31
0.0
 70
   160
 71
     5
 42
63.50000000000001
  3
AM_ISO$0
100
AcDbAlignedDimension
 13
787.7288003027683
 23
172.0857488193472
 33
0.0
 14
733.7800732389576
 24
108.5857488193472
 34
0.0
 50
89.9999999999998
100
AcDbRotatedDimension
1001
ACAD
1000
DSTYLE
1002
{
1070
    40
1040
1.005834825753484
1070
   271
1070
     0
1002
}
  0
DIMENSION
  5
A622
330
1F
100
AcDbEntity
  8
AM_REFDIM
100
AcDbDimension
  2
*D9
 10
910.5117433904533
 20
244.5564088011431
 30
0.0
 11
872.5117433904534
 21
244.5564088011431
 31
0.0
 70
   160
 71
     5
 42
76.0
  3
AM_ISO$0
100
AcDbAlignedDimension
 13
834.5117433904533
 23
234.5857488193472
 33
0.0
 14
910.5117433904533
 24
234.0373911768216
 34
0.0
100
AcDbRotatedDimension
1001
ACAD
1000
DSTYLE
1002
{
1070
    40
1040
1.005834825753484
1002
}
  0
DIMENSION
  5
A67B
330
1F
100
AcDbEntity
  8
AM_REFDIM
100
AcDbDimension
  2
*D10
 10
921.4243730972919
 20
109.5857488193472
 30
0.0
 11
921.4243730972919
 21
172.0857488193472
 31
0.0
 70
   160
  1
%%c<>
 71
     5
 42
125.0
  3
AM_ISO$0
100
AcDbAlignedDimension
 13
910.5117433904533
 23
234.5857488193472
 33
0.0
 14
910.5117433904533
 24
109.5857488193472
 34
0.0
 50
90.0
100
AcDbRotatedDimension
1001
ACAD
1000
DSTYLE
1002
{
1070
    40
1040
1.005834825753484
1002
}
  0
DIMENSION
  5
A6A1
330
1F
100
AcDbEntity
  8
AM_REFDIM
100
AcDbDimension
  2
*D11
 10
857.0117433904533
 20
98.67459179684425
 30
0.0
 11
883.7617433904533
 21
98.67459179684425
 31
0.0
 70
   160
 71
     5
 42
53.5
  3
AM_ISO$0
100
AcDbAlignedDimension
 13
910.5117433904533
 23
109.5857488193472
 33
0.0
 14
857.0117433904533
 24
157.0857488193472
 34
0.0
100
AcDbRotatedDimension
1001
ACAD
1000
DSTYLE
1002
{
1070
    40
1040
1.005834825753484
1070
   271
1070
     1
1002
}
  0
DIMENSION
  5
A724
330
1F
100
AcDbEntity
  8
AM_REFDIM
100
AcDbDimension
  2
*D12
 10
834.5117433904533
 20
244.5564088011431
 30
0.0
 11
833.5117433904533
 21
244.5564088011431
 31
0.0
 70
   160
 71
     5
 42
2.0
  3
AM_ISO$0
100
AcDbAlignedDimension
 13
832.5117433904534
 23
231.0783619596587
 33
0.0
 14
834.5117433904533
 24
234.5857488193472
 34
0.0
100
AcDbRotatedDimension
1001
ACAD
1000
DSTYLE
1002
{
1070
    40
1040
1.005834825753484
1070
   271
1070
     0
1002
}
  0
DIMENSION
  5
A77B
330
1F
100
AcDbEntity
  8
AM_REFDIM
100
AcDbDimension
  2
*D13
 10
781.4629560359305
 20
128.5857488193472
 30
0.0
 11
781.4629560359305
 21
131.5857488193473
 31
0.0
 70
   160
 71
     5
 42
6.0
  3
AM_ISO$0
100
AcDbAlignedDimension
 13
718.7800732389575
 23
134.5857488193472
 33
0.0
 14
726.7800732389575
 24
128.5857488193472
 34
0.0
 50
90.0
100
AcDbRotatedDimension
1001
ACAD
1000
DSTYLE
1002
{
1070
    40
1040
1.005834825753484
1070
   271
1070
     0
1002
}
  0
DIMENSION
  5
A7A5
330
1F
100
AcDbEntity
  8
AM_REFDIM
100
AcDbDimension
  2
*D14
 10
792.2048706786378
 20
114.5857488193472
 30
0.0
 11
792.2048706786378
 21
124.5857488193472
 31
0.0
 70
   160
 71
     5
 42
20.00000000000001
  3
AM_ISO$0
100
AcDbAlignedDimension
 13
718.7800732389575
 23
134.5857488193472
 33
0.0
 14
718.7800732389575
 24
114.5857488193472
 34
0.0
 50
90.0
100
AcDbRotatedDimension
1001
ACAD
1000
DSTYLE
1002
{
1070
    40
1040
1.005834825753484
1002
}
  0
DIMENSION
  5
A7CB
330
1F
100
AcDbEntity
  8
AM_REFDIM
100
AcDbDimension
  2
*D15
 10
781.4629560359307
 20
108.5857488193472
 30
0.0
 11
781.4629560359307
 21
111.5857488193473
 31
0.0
 70
   160
 71
     5
 42
6.0
  3
AM_ISO$0
100
AcDbAlignedDimension
 13
718.7800732389575
 23
114.5857488193472
 33
0.0
 14
733.7800732389576
 24
108.5857488193472
 34
0.0
 50
90.0
100
AcDbRotatedDimension
1001
ACAD
1000
DSTYLE
1002
{
1070
    40
1040
1.005834825753484
1070
   271
1070
     0
1002
}
  0
LEADER
  5
A889
330
1F
100
AcDbEntity
  8
AM_REFDIM
100
AcDbLeader
  3
AM_ISO$7
 76
     3
 10
769.0788349875832
 20
203.9450162123038
 30
0.0
 10
772.9630827995255
 20
211.2425807094969
 30
0.0
 10
803.1793684201833
 20
211.2425807094969
 30
0.0
1001
ACAD
1000
DSTYLE
1002
{
1070
   147
1040
1.0
1070
    77
1070
     1
1070
    43
1040
12.0
1070
   271
1070
     1
1070
   272
1070
     8
1002
}
  0
MTEXT
  5
A88C
330
1F
100
AcDbEntity
  8
AM_REFDIM
100
AcDbMText
 10
773.7798261200449
 20
214.9667475426682
 30
0.0
 40
3.0
 41
33.65203381816716
 71
     1
 72
     5
  1
3X2-M6X1.0 DP12
 73
     1
 44
1.0
1001
ACAD
1000
MTEXTBEGIN
1070
    73
1070
     1
1070
    44
1040
1.0
1070
    74
1070
     0
1000
MTEXTEND
  0
LEADER
  5
A890
330
1F
100
AcDbEntity
  8
AM_REFDIM
100
AcDbLeader
  3
AM_ISO$7
 76
     3
 10
720.7535223637843
 20
231.780316036341
 30
0.0
 10
726.4221487276171
 20
239.5489403692524
 30
0.0
 10
763.8720955283122
 20
239.5489403692524
 30
0.0
1001
ACAD
1000
DSTYLE
1002
{
1070
   147
1040
1.0
1070
    77
1070
     1
1070
    43
1040
12.0
1070
   271
1070
     1
1070
   272
1070
     8
1002
}
  0
MTEXT
  5
A895
330
1F
100
AcDbEntity
  8
AM_REFDIM
100
AcDbMText
 10
727.0725953984752
 20
243.8135297570577
 30
0.0
 40
3.0
 41
38.59614173293908
 71
     1
 72
     5
  1
3-%%C9 thru\P%%C15 C/B DP9 P.C.D 112
 73
     1
 44
1.0
1001
ACAD
1000
MTEXTBEGIN
1070
    73
1070
     1
1070
    44
1040
1.0
1070
    74
1070
     0
1000
MTEXTEND
  0
DIMENSION
  5
B250
330
1F
100
AcDbEntity
  8
AM_REFDIM
100
AcDbDimension
  2
*D16
 10
653.2847176850707
 20
108.5857488193472
 30
0.0
 11
653.2847176850707
 21
124.5985317845598
 31
0.0
 70
   160
 71
     5
 42
32.02556593042523
  3
AM_ISO$0
100
AcDbAlignedDimension
 13
710.6800732389578
 23
140.6113147497724
 33
0.0
 14
703.7800732389576
 24
108.5857488193472
 34
0.0
 50
90.0
100
AcDbRotatedDimension
1001
ACAD
1000
DSTYLE
1002
{
1070
    40
1040
1.005834825753484
1070
   271
1070
     0
1002
}
  0
SPLINE
  5
C42D
330
1F
100
AcDbEntity
  8
0
  6
Continuous
 62
     7
370
    15
100
AcDbSpline
210
0.0
220
0.0
230
1.0
 70
    24
 71
     1
 72
     4
 73
     2
 74
     0
 42
0.0000000001
 43
0.0000000001
 40
0.0
 40
0.0
 40
1.0
 40
1.0
 10
833.0117433904533
 20
139.5857488193472
 30
0.0
 10
834.5117433904533
 20
139.5857488193472
 30
0.0
  0
SPLINE
  5
C42E
330
1F
100
AcDbEntity
  8
0
  6
Continuous
 62
     7
370
    15
100
AcDbSpline
210
0.0
220
0.0
230
1.0
 70
    24
 71
     1
 72
     4
 73
     2
 74
     0
 42
0.0000000001
 43
0.0000000001
 40
0.0
 40
0.0
 40
1.0
 40
1.0
 10
834.5117433904533
 20
204.5857488193472
 30
0.0
 10
833.0117433904533
 20
204.5857488193472
 30
0.0
  0
SPLINE
  5
C42F
330
1F
100
AcDbEntity
  8
0
  6
Continuous
 62
     7
370
    15
100
AcDbSpline
210
0.0
220
0.0
230
1.0
 70
    24
 71
     1
 72
     4
 73
     2
 74
     0
 42
0.0000000001
 43
0.0000000001
 40
0.0
 40
0.0
 40
1.0
 40
1.0
 10
834.5117433904533
 20
109.5857488193472
 30
0.0
 10
910.5117433904533
 20
109.5857488193472
 30
0.0
  0
SPLINE
  5
C430
330
1F
100
AcDbEntity
  8
0
  6
Continuous
 62
     7
370
    15
100
AcDbSpline
210
0.0
220
0.0
230
1.0
 70
    24
 71
     1
 72
     4
 73
     2
 74
     0
 42
0.0000000001
 43
0.0000000001
 40
0.0
 40
0.0
 40
1.0
 40
1.0
 10
910.5117433904533
 20
234.5857488193472
 30
0.0
 10
834.5117433904533
 20
234.5857488193472
 30
0.0
  0
LINE
  5
C431
330
1F
100
AcDbEntity
  8
0
  6
Continuous
 62
     7
370
    15
100
AcDbLine
 10
843.0117433904534
 20
164.0857488193472
 30
0.0
 11
843.0117433904534
 21
157.0857488193472
 31
0.0
  0
LINE
  5
C432
330
1F
100
AcDbEntity
  8
0
  6
Continuous
 62
     7
370
    15
100
AcDbLine
 10
832.5117433904534
 20
164.0857488193472
 30
0.0
 11
843.0117433904534
 21
164.0857488193472
 31
0.0
  0
LINE
  5
C433
330
1F
100
AcDbEntity
  8
0
  6
Continuous
 62
     7
370
    15
100
AcDbLine
 10
832.5117433904534
 20
180.0857488193472
 30
0.0
 11
832.5117433904534
 21
164.0857488193472
 31
0.0
  0
LINE
  5
C434
330
1F
100
AcDbEntity
  8
0
  6
Continuous
 62
     7
370
    15
100
AcDbLine
 10
843.0117433904534
 20
180.0857488193472
 30
0.0
 11
832.5117433904534
 21
180.0857488193472
 31
0.0
  0
LINE
  5
C435
330
1F
100
AcDbEntity
  8
0
  6
Continuous
 62
     7
370
    15
100
AcDbLine
 10
843.0117433904534
 20
187.0857488193472
 30
0.0
 11
843.0117433904534
 21
180.0857488193472
 31
0.0
  0
LINE
  5
C436
330
1F
100
AcDbEntity
  8
0
  6
Continuous
 62
     7
370
    15
100
AcDbLine
 10
857.0117433904533
 20
157.0857488193472
 30
0.0
 11
857.0117433904533
 21
187.0857488193472
 31
0.0
  0
LINE
  5
C437
330
1F
100
AcDbEntity
  8
0
  6
Continuous
 62
     7
370
    15
100
AcDbLine
 10
843.0117433904534
 20
157.0857488193472
 30
0.0
 11
857.0117433904533
 21
157.0857488193472
 31
0.0
  0
LINE
  5
C438
330
1F
100
AcDbEntity
  8
0
  6
Continuous
 62
     7
370
    15
100
AcDbLine
 10
857.0117433904533
 20
187.0857488193472
 30
0.0
 11
843.0117433904534
 21
187.0857488193472
 31
0.0
  0
LINE
  5
C439
330
1F
100
AcDbEntity
  8
0
  6
Continuous
 62
     7
370
    15
100
AcDbLine
 10
834.5117433904533
 20
163.9857488193473
 30
0.0
 11
843.0117433904534
 21
163.9857488193473
 31
0.0
  0
LINE
  5
C43A
330
1F
100
AcDbEntity
  8
0
  6
Continuous
 62
     7
370
    15
100
AcDbLine
 10
834.5117433904533
 20
180.1857488193471
 30
0.0
 11
843.0117433904534
 21
180.1857488193471
 31
0.0
  0
LINE
  5
C43B
330
1F
100
AcDbEntity
  8
0
  6
Continuous
 62
     7
370
    15
100
AcDbLine
 10
834.5117433904533
 20
180.1857488193471
 30
0.0
 11
834.5117433904533
 21
210.215799999188
 31
0.0
  0
LINE
  5
C43C
330
1F
100
AcDbEntity
  8
0
  6
Continuous
 62
     7
370
    15
100
AcDbLine
 10
910.5117433904533
 20
210.215799999188
 30
0.0
 11
834.5117433904533
 21
210.215799999188
 31
0.0
  0
LINE
  5
C43D
330
1F
100
AcDbEntity
  8
0
  6
Continuous
 62
     7
370
    15
100
AcDbLine
 10
834.5117433904533
 20
133.9556976395063
 30
0.0
 11
910.5117433904533
 21
133.9556976395063
 31
0.0
  0
LINE
  5
C43E
330
1F
100
AcDbEntity
  8
0
  6
Continuous
 62
     7
370
    15
100
AcDbLine
 10
834.5117433904533
 20
133.9556976395063
 30
0.0
 11
834.5117433904533
 21
163.9857488193473
 31
0.0
  0
LINE
  5
C43F
330
1F
100
AcDbEntity
  8
0
  6
Continuous
 62
     7
370
    15
100
AcDbLine
 10
910.5117433904533
 20
210.215799999188
 30
0.0
 11
910.5117433904533
 21
133.9556976395063
 31
0.0
  0
LINE
  5
C440
330
1F
100
AcDbEntity
  8
0
  6
Continuous
 62
     7
370
    15
100
AcDbLine
 10
834.5117433904533
 20
210.5835634775754
 30
0.0
 11
910.5117433904533
 21
210.5835634775754
 31
0.0
  0
LINE
  5
C441
330
1F
100
AcDbEntity
  8
0
  6
Continuous
 62
     7
370
    15
100
AcDbLine
 10
834.5117433904533
 20
210.215799999188
 30
0.0
 11
834.5117433904533
 21
210.5835634775754
 31
0.0
  0
LINE
  5
C442
330
1F
100
AcDbEntity
  8
0
  6
Continuous
 62
     7
370
    15
100
AcDbLine
 10
910.5117433904533
 20
210.5835634775754
 30
0.0
 11
910.5117433904533
 21
210.215799999188
 31
0.0
  0
LINE
  5
C443
330
1F
100
AcDbEntity
  8
0
  6
Continuous
 62
     7
370
    15
100
AcDbLine
 10
834.5117433904533
 20
133.587934161119
 30
0.0
 11
910.5117433904533
 21
133.587934161119
 31
0.0
  0
LINE
  5
C444
330
1F
100
AcDbEntity
  8
0
  6
Continuous
 62
     7
370
    15
100
AcDbLine
 10
834.5117433904533
 20
133.587934161119
 30
0.0
 11
834.5117433904533
 21
133.9556976395063
 31
0.0
  0
LINE
  5
C445
330
1F
100
AcDbEntity
  8
0
  6
Continuous
 62
     7
370
    15
100
AcDbLine
 10
910.5117433904533
 20
133.9556976395063
 30
0.0
 11
910.5117433904533
 21
133.587934161119
 31
0.0
  0
LINE
  5
C446
330
1F
100
AcDbEntity
  8
0
  6
Continuous
 62
     7
370
    15
100
AcDbLine
 10
836.0117433904534
 20
180.0857488193472
 30
0.0
 11
832.5117433904534
 21
180.0857488193472
 31
0.0
  0
LINE
  5
C447
330
1F
100
AcDbEntity
  8
0
  6
Continuous
 62
     7
370
    15
100
AcDbLine
 10
832.5117433904534
 20
164.0857488193472
 30
0.0
 11
836.0117433904534
 21
164.0857488193472
 31
0.0
  0
LINE
  5
C448
330
1F
100
AcDbEntity
  8
0
  6
Continuous
 62
     7
370
    15
100
AcDbLine
 10
910.5117433904533
 20
212.8129979540077
 30
0.0
 11
834.5117433904533
 21
212.8129979540077
 31
0.0
  0
LINE
  5
C449
330
1F
100
AcDbEntity
  8
0
  6
Continuous
 62
     7
370
    15
100
AcDbLine
 10
910.5117433904533
 20
217.349990323771
 30
0.0
 11
834.5117433904533
 21
217.349990323771
 31
0.0
  0
LINE
  5
C44A
330
1F
100
AcDbEntity
  8
0
  6
Continuous
 62
     7
370
    15
100
AcDbLine
 10
834.5117433904533
 20
212.8129979540077
 30
0.0
 11
834.5117433904533
 21
217.349990323771
 31
0.0
  0
LINE
  5
C44B
330
1F
100
AcDbEntity
  8
0
  6
Continuous
 62
     7
370
    15
100
AcDbLine
 10
910.5117433904533
 20
217.349990323771
 30
0.0
 11
910.5117433904533
 21
212.8129979540077
 31
0.0
  0
LINE
  5
C44C
330
1F
100
AcDbEntity
  8
0
  6
Continuous
 62
     7
370
    15
100
AcDbLine
 10
910.5117433904533
 20
131.3584996846867
 30
0.0
 11
834.5117433904533
 21
131.3584996846867
 31
0.0
  0
LINE
  5
C44D
330
1F
100
AcDbEntity
  8
0
  6
Continuous
 62
     7
370
    15
100
AcDbLine
 10
910.5117433904533
 20
126.8215073149234
 30
0.0
 11
834.5117433904533
 21
126.8215073149234
 31
0.0
  0
LINE
  5
C44E
330
1F
100
AcDbEntity
  8
0
  6
Continuous
 62
     7
370
    15
100
AcDbLine
 10
834.5117433904533
 20
126.8215073149234
 30
0.0
 11
834.5117433904533
 21
131.3584996846867
 31
0.0
  0
LINE
  5
C44F
330
1F
100
AcDbEntity
  8
0
  6
Continuous
 62
     7
370
    15
100
AcDbLine
 10
910.5117433904533
 20
131.3584996846867
 30
0.0
 11
910.5117433904533
 21
126.8215073149234
 31
0.0
  0
LINE
  5
C450
330
1F
100
AcDbEntity
  8
0
  6
Continuous
 62
     7
370
    15
100
AcDbLine
 10
843.5117433904533
 20
222.0712119698593
 30
0.0
 11
834.5117433904533
 21
222.0712119698593
 31
0.0
  0
LINE
  5
C451
330
1F
100
AcDbEntity
  8
0
  6
Continuous
 62
     7
370
    15
100
AcDbLine
 10
843.5117433904533
 20
229.571211969859
 30
0.0
 11
843.5117433904533
 21
222.0712119698593
 31
0.0
  0
LINE
  5
C452
330
1F
100
AcDbEntity
  8
0
  6
Continuous
 62
     7
370
    15
100
AcDbLine
 10
834.5117433904533
 20
229.571211969859
 30
0.0
 11
843.5117433904533
 21
229.571211969859
 31
0.0
  0
LINE
  5
C453
330
1F
100
AcDbEntity
  8
0
  6
Continuous
 62
     7
370
    15
100
AcDbLine
 10
910.5117433904533
 20
232.0414389449709
 30
0.0
 11
834.5117433904533
 21
232.0414389449709
 31
0.0
  0
LINE
  5
C454
330
1F
100
AcDbEntity
  8
0
  6
Continuous
 62
     7
370
    15
100
AcDbLine
 10
834.5117433904533
 20
229.571211969859
 30
0.0
 11
834.5117433904533
 21
232.0414389449709
 31
0.0
  0
LINE
  5
C455
330
1F
100
AcDbEntity
  8
0
  6
Continuous
 62
     7
370
    15
100
AcDbLine
 10
834.5117433904533
 20
217.349990323771
 30
0.0
 11
834.5117433904533
 21
222.0712119698593
 31
0.0
  0
LINE
  5
C456
330
1F
100
AcDbEntity
  8
0
  6
Continuous
 62
     7
370
    15
100
AcDbLine
 10
910.5117433904533
 20
232.0414389449709
 30
0.0
 11
910.5117433904533
 21
217.349990323771
 31
0.0
  0
LINE
  5
C457
330
1F
100
AcDbEntity
  8
0
  6
Continuous
 62
     7
370
    15
100
AcDbLine
 10
834.5117433904533
 20
112.1300586937234
 30
0.0
 11
910.5117433904533
 21
112.1300586937234
 31
0.0
  0
LINE
  5
C458
330
1F
100
AcDbEntity
  8
0
  6
Continuous
 62
     7
370
    15
100
AcDbLine
 10
843.5117433904533
 20
114.6002856688356
 30
0.0
 11
834.5117433904533
 21
114.6002856688356
 31
0.0
  0
LINE
  5
C459
330
1F
100
AcDbEntity
  8
0
  6
Continuous
 62
     7
370
    15
100
AcDbLine
 10
843.5117433904533
 20
122.1002856688358
 30
0.0
 11
843.5117433904533
 21
114.6002856688356
 31
0.0
  0
LINE
  5
C45A
330
1F
100
AcDbEntity
  8
0
  6
Continuous
 62
     7
370
    15
100
AcDbLine
 10
834.5117433904533
 20
122.1002856688358
 30
0.0
 11
843.5117433904533
 21
122.1002856688358
 31
0.0
  0
LINE
  5
C45B
330
1F
100
AcDbEntity
  8
0
  6
Continuous
 62
     7
370
    15
100
AcDbLine
 10
834.5117433904533
 20
122.1002856688358
 30
0.0
 11
834.5117433904533
 21
126.8215073149234
 31
0.0
  0
LINE
  5
C45C
330
1F
100
AcDbEntity
  8
0
  6
Continuous
 62
     7
370
    15
100
AcDbLine
 10
834.5117433904533
 20
112.1300586937234
 30
0.0
 11
834.5117433904533
 21
114.6002856688356
 31
0.0
  0
LINE
  5
C45D
330
1F
100
AcDbEntity
  8
0
  6
Continuous
 62
     7
370
    15
100
AcDbLine
 10
910.5117433904533
 20
126.8215073149234
 30
0.0
 11
910.5117433904533
 21
112.1300586937234
 31
0.0
  0
LINE
  5
C45E
330
1F
100
AcDbEntity
  8
0
  6
Continuous
 62
     7
370
    15
100
AcDbLine
 10
834.5117433904533
 20
211.47473674129
 30
0.0
 11
910.5117433904533
 21
211.47473674129
 31
0.0
  0
LINE
  5
C45F
330
1F
100
AcDbEntity
  8
0
  6
Continuous
 62
     7
370
    15
100
AcDbLine
 10
834.5117433904533
 20
211.47473674129
 30
0.0
 11
834.5117433904533
 21
212.8129979540077
 31
0.0
  0
LINE
  5
C460
330
1F
100
AcDbEntity
  8
0
  6
Continuous
 62
     7
370
    15
100
AcDbLine
 10
910.5117433904533
 20
212.8129979540077
 30
0.0
 11
910.5117433904533
 21
211.47473674129
 31
0.0
  0
LINE
  5
C461
330
1F
100
AcDbEntity
  8
0
  6
Continuous
 62
     7
370
    15
100
AcDbLine
 10
834.5117433904533
 20
132.6967608974044
 30
0.0
 11
910.5117433904533
 21
132.6967608974044
 31
0.0
  0
LINE
  5
C462
330
1F
100
AcDbEntity
  8
0
  6
Continuous
 62
     7
370
    15
100
AcDbLine
 10
834.5117433904533
 20
131.3584996846867
 30
0.0
 11
834.5117433904533
 21
132.6967608974044
 31
0.0
  0
LINE
  5
C463
330
1F
100
AcDbEntity
  8
0
  6
Continuous
 62
     7
370
    15
100
AcDbLine
 10
910.5117433904533
 20
132.6967608974044
 30
0.0
 11
910.5117433904533
 21
131.3584996846867
 31
0.0
  0
LINE
  5
C464
330
1F
100
AcDbEntity
  8
0
  6
Continuous
 62
     7
370
    15
100
AcDbLine
 10
834.5117433904533
 20
209.147432331143
 30
0.0
 11
834.5117433904533
 21
211.9577808778502
 31
0.0
  0
LINE
  5
C465
330
1F
100
AcDbEntity
  8
0
  6
Continuous
 62
     7
370
    15
100
AcDbLine
 10
910.5117433904533
 20
211.9577808778502
 30
0.0
 11
910.5117433904533
 21
209.147432331143
 31
0.0
  0
LINE
  5
C466
330
1F
100
AcDbEntity
  8
0
  6
Continuous
 62
     7
370
    15
100
AcDbLine
 10
834.5117433904533
 20
132.2137167608442
 30
0.0
 11
834.5117433904533
 21
135.0240653075514
 31
0.0
  0
LINE
  5
C467
330
1F
100
AcDbEntity
  8
0
  6
Continuous
 62
     7
370
    15
100
AcDbLine
 10
910.5117433904533
 20
135.0240653075514
 30
0.0
 11
910.5117433904533
 21
132.2137167608442
 31
0.0
  0
LINE
  5
C468
330
1F
100
AcDbEntity
  8
0
  6
Continuous
 62
     7
370
    15
100
AcDbLine
 10
834.5117433904533
 20
205.9519095815902
 30
0.0
 11
834.5117433904533
 21
209.147432331143
 31
0.0
  0
LINE
  5
C469
330
1F
100
AcDbEntity
  8
0
  6
Continuous
 62
     7
370
    15
100
AcDbLine
 10
910.5117433904533
 20
209.147432331143
 30
0.0
 11
910.5117433904533
 21
205.9519095815902
 31
0.0
  0
LINE
  5
C46A
330
1F
100
AcDbEntity
  8
0
  6
Continuous
 62
     7
370
    15
100
AcDbLine
 10
834.5117433904533
 20
135.0240653075514
 30
0.0
 11
834.5117433904533
 21
138.2195880571042
 31
0.0
  0
LINE
  5
C46B
330
1F
100
AcDbEntity
  8
0
  6
Continuous
 62
     7
370
    15
100
AcDbLine
 10
910.5117433904533
 20
138.2195880571042
 30
0.0
 11
910.5117433904533
 21
135.0240653075514
 31
0.0
  0
LINE
  5
C46C
330
1F
100
AcDbEntity
  8
0
  6
Continuous
 62
     7
370
    15
100
AcDbLine
 10
834.5117433904533
 20
119.8383262074188
 30
0.0
 11
843.5117433904533
 21
119.8383262074188
 31
0.0
  0
LINE
  5
C46D
330
1F
100
AcDbEntity
  8
0
  6
Continuous
 62
     7
370
    15
100
AcDbLine
 10
834.5117433904533
 20
119.8383262074188
 30
0.0
 11
834.5117433904533
 21
131.0883262074188
 31
0.0
  0
LINE
  5
C46E
330
1F
100
AcDbEntity
  8
0
  6
Continuous
 62
     7
370
    15
100
AcDbLine
 10
834.5117433904533
 20
224.3331714312761
 30
0.0
 11
843.5117433904533
 21
224.3331714312761
 31
0.0
  0
LINE
  5
C46F
330
1F
100
AcDbEntity
  8
0
  6
Continuous
 62
     7
370
    15
100
AcDbLine
 10
834.5117433904533
 20
213.0831714312761
 30
0.0
 11
834.5117433904533
 21
224.3331714312761
 31
0.0
  0
LINE
  5
C470
330
1F
100
AcDbEntity
  8
0
  6
Continuous
 62
     7
370
    15
100
AcDbLine
 10
833.0117433904533
 20
164.0857488193472
 30
0.0
 11
833.0117433904533
 21
139.5857488193472
 31
0.0
  0
LINE
  5
C471
330
1F
100
AcDbEntity
  8
0
  6
Continuous
 62
     7
370
    15
100
AcDbLine
 10
833.0117433904533
 20
204.5857488193472
 30
0.0
 11
833.0117433904533
 21
180.0857488193472
 31
0.0
  0
LINE
  5
C472
330
1F
100
AcDbEntity
  8
0
  6
Continuous
 62
     7
370
    15
100
AcDbLine
 10
834.5117433904533
 20
114.6002856688356
 30
0.0
 11
834.5117433904533
 21
119.8383262074188
 31
0.0
  0
LINE
  5
C473
330
1F
100
AcDbEntity
  8
0
  6
Continuous
 62
     7
370
    15
100
AcDbLine
 10
834.5117433904533
 20
224.3331714312761
 30
0.0
 11
834.5117433904533
 21
229.571211969859
 31
0.0
  0
LINE
  5
C474
330
1F
100
AcDbEntity
  8
0
  6
Continuous
 62
     7
370
    15
100
AcDbLine
 10
834.5117433904533
 20
223.4805615229807
 30
0.0
 11
834.5117433904533
 21
224.3745817934971
 31
0.0
  0
LINE
  5
C475
330
1F
100
AcDbEntity
  8
0
  6
Continuous
 62
     7
370
    15
100
AcDbLine
 10
910.5117433904533
 20
224.3745817934971
 30
0.0
 11
910.5117433904533
 21
223.4805615229807
 31
0.0
  0
LINE
  5
C476
330
1F
100
AcDbEntity
  8
0
  6
Continuous
 62
     7
370
    15
100
AcDbLine
 10
834.5117433904533
 20
119.7969158451972
 30
0.0
 11
834.5117433904533
 21
120.6909361157136
 31
0.0
  0
LINE
  5
C477
330
1F
100
AcDbEntity
  8
0
  6
Continuous
 62
     7
370
    15
100
AcDbLine
 10
910.5117433904533
 20
120.6909361157136
 30
0.0
 11
910.5117433904533
 21
119.7969158451972
 31
0.0
  0
LINE
  5
C478
330
1F
100
AcDbEntity
  8
0
  6
Continuous
 62
     7
370
    15
100
AcDbLine
 10
834.5117433904533
 20
228.3476591175475
 30
0.0
 11
834.5117433904533
 21
230.3039543190151
 31
0.0
  0
LINE
  5
C479
330
1F
100
AcDbEntity
  8
0
  6
Continuous
 62
     7
370
    15
100
AcDbLine
 10
910.5117433904533
 20
230.3039543190151
 30
0.0
 11
910.5117433904533
 21
228.3476591175475
 31
0.0
  0
LINE
  5
C47A
330
1F
100
AcDbEntity
  8
0
  6
Continuous
 62
     7
370
    15
100
AcDbLine
 10
834.5117433904533
 20
234.0373911768216
 30
0.0
 11
910.5117433904533
 21
234.0373911768216
 31
0.0
  0
LINE
  5
C47B
330
1F
100
AcDbEntity
  8
0
  6
Continuous
 62
     7
370
    15
100
AcDbLine
 10
834.5117433904533
 20
234.0373911768216
 30
0.0
 11
834.5117433904533
 21
230.3039543190151
 31
0.0
  0
LINE
  5
C47C
330
1F
100
AcDbEntity
  8
0
  6
Continuous
 62
     7
370
    15
100
AcDbLine
 10
910.5117433904533
 20
234.0373911768216
 30
0.0
 11
910.5117433904533
 21
230.3039543190151
 31
0.0
  0
LINE
  5
C47D
330
1F
100
AcDbEntity
  8
0
  6
Continuous
 62
     7
370
    15
100
AcDbLine
 10
910.5117433904533
 20
110.1341064618729
 30
0.0
 11
834.5117433904533
 21
110.1341064618729
 31
0.0
  0
LINE
  5
C47E
330
1F
100
AcDbEntity
  8
0
  6
Continuous
 62
     7
370
    15
100
AcDbLine
 10
834.5117433904533
 20
110.1341064618729
 30
0.0
 11
834.5117433904533
 21
113.8675433196793
 31
0.0
  0
LINE
  5
C47F
330
1F
100
AcDbEntity
  8
0
  6
Continuous
 62
     7
370
    15
100
AcDbLine
 10
910.5117433904533
 20
113.8675433196793
 30
0.0
 11
910.5117433904533
 21
110.1341064618729
 31
0.0
  0
LINE
  5
C480
330
1F
100
AcDbEntity
  8
0
  6
Continuous
 62
     7
370
    15
100
AcDbLine
 10
834.5117433904533
 20
113.8675433196793
 30
0.0
 11
834.5117433904533
 21
115.8238385211469
 31
0.0
  0
LINE
  5
C481
330
1F
100
AcDbEntity
  8
0
  6
Continuous
 62
     7
370
    15
100
AcDbLine
 10
910.5117433904533
 20
115.8238385211469
 30
0.0
 11
910.5117433904533
 21
113.8675433196793
 31
0.0
  0
LINE
  5
C482
330
1F
100
AcDbEntity
  8
0
  6
Continuous
 62
     7
370
    15
100
AcDbLine
 10
834.5117433904533
 20
224.3745817934971
 30
0.0
 11
834.5117433904533
 21
228.482801716579
 31
0.0
  0
LINE
  5
C483
330
1F
100
AcDbEntity
  8
0
  6
Continuous
 62
     7
370
    15
100
AcDbLine
 10
910.5117433904533
 20
228.482801716579
 30
0.0
 11
910.5117433904533
 21
224.3745817934971
 31
0.0
  0
LINE
  5
C484
330
1F
100
AcDbEntity
  8
0
  6
Continuous
 62
     7
370
    15
100
AcDbLine
 10
834.5117433904533
 20
115.6886959221154
 30
0.0
 11
834.5117433904533
 21
119.7969158451972
 31
0.0
  0
LINE
  5
C485
330
1F
100
AcDbEntity
  8
0
  6
Continuous
 62
     7
370
    15
100
AcDbLine
 10
910.5117433904533
 20
119.7969158451972
 30
0.0
 11
910.5117433904533
 21
115.6886959221154
 31
0.0
  0
LINE
  5
C486
330
1F
100
AcDbEntity
  8
0
  6
Continuous
 62
     7
370
    15
100
AcDbLine
 10
834.5117433904533
 20
234.5857488193472
 30
0.0
 11
834.5117433904533
 21
234.0373911768216
 31
0.0
  0
LINE
  5
C487
330
1F
100
AcDbEntity
  8
0
  6
Continuous
 62
     7
370
    15
100
AcDbLine
 10
834.5117433904533
 20
110.1341064618729
 30
0.0
 11
834.5117433904533
 21
109.5857488193472
 31
0.0
  0
LINE
  5
C488
330
1F
100
AcDbEntity
  8
0
  6
Continuous
 62
     7
370
    15
100
AcDbLine
 10
910.5117433904533
 20
234.0373911768216
 30
0.0
 11
910.5117433904533
 21
234.5857488193472
 31
0.0
  0
LINE
  5
C489
330
1F
100
AcDbEntity
  8
0
  6
Continuous
 62
     7
370
    15
100
AcDbLine
 10
910.5117433904533
 20
109.5857488193472
 30
0.0
 11
910.5117433904533
 21
110.1341064618729
 31
0.0
  0
LINE
  5
C48A
330
1F
100
AcDbEntity
  8
0
  6
Continuous
 62
     7
370
    15
100
AcDbLine
 10
833.0117433904533
 20
140.8059486001373
 30
0.0
 11
832.5117433904534
 21
140.8059486001371
 31
0.0
  0
LINE
  5
C48B
330
1F
100
AcDbEntity
  8
0
  6
Continuous
 62
     7
370
    15
100
AcDbLine
 10
832.5117433904534
 20
148.8059486001371
 30
0.0
 11
832.5117433904534
 21
140.8059486001371
 31
0.0
  0
LINE
  5
C48C
330
1F
100
AcDbEntity
  8
0
  6
Continuous
 62
     7
370
    15
100
AcDbLine
 10
832.5117433904534
 20
148.8059486001371
 30
0.0
 11
833.0117433904533
 21
148.8059486001371
 31
0.0
  0
LINE
  5
C48D
330
1F
100
AcDbEntity
  8
0
  6
Continuous
 62
     7
370
    15
100
AcDbLine
 10
834.5117433904533
 20
113.093135679035
 30
0.0
 11
832.5117433904534
 21
113.093135679035
 31
0.0
  0
LINE
  5
C48E
330
1F
100
AcDbEntity
  8
0
  6
Continuous
 62
     7
370
    15
100
AcDbLine
 10
832.5117433904534
 20
113.093135679035
 30
0.0
 11
832.5117433904534
 21
123.4854405244482
 31
0.0
  0
LINE
  5
C48F
330
1F
100
AcDbEntity
  8
0
  6
Continuous
 62
     7
370
    15
100
AcDbLine
 10
832.5117433904534
 20
123.4854405244482
 30
0.0
 11
834.5117433904533
 21
123.4854405244482
 31
0.0
  0
LINE
  5
C490
330
1F
100
AcDbEntity
  8
0
  6
Continuous
 62
     7
370
    15
100
AcDbLine
 10
834.5117433904533
 20
130.4136437547238
 30
0.0
 11
832.5117433904534
 21
130.4136437547238
 31
0.0
  0
LINE
  5
C491
330
1F
100
AcDbEntity
  8
0
  6
Continuous
 62
     7
370
    15
100
AcDbLine
 10
832.5117433904534
 20
130.4136437547238
 30
0.0
 11
832.5117433904534
 21
140.8059486001371
 31
0.0
  0
LINE
  5
C492
330
1F
100
AcDbEntity
  8
0
  6
Continuous
 62
     7
370
    15
100
AcDbLine
 10
833.0117433904533
 20
195.3655490385566
 30
0.0
 11
832.5117433904534
 21
195.365549038557
 31
0.0
  0
LINE
  5
C493
330
1F
100
AcDbEntity
  8
0
  6
Continuous
 62
     7
370
    15
100
AcDbLine
 10
832.5117433904534
 20
203.3655490385566
 30
0.0
 11
832.5117433904534
 21
195.3655490385566
 31
0.0
  0
LINE
  5
C494
330
1F
100
AcDbEntity
  8
0
  6
Continuous
 62
     7
370
    15
100
AcDbLine
 10
832.5117433904534
 20
203.3655490385566
 30
0.0
 11
833.0117433904533
 21
203.3655490385568
 31
0.0
  0
LINE
  5
C495
330
1F
100
AcDbEntity
  8
0
  6
Continuous
 62
     7
370
    15
100
AcDbLine
 10
832.5117433904534
 20
213.7578538839699
 30
0.0
 11
834.5117433904533
 21
213.7578538839699
 31
0.0
  0
LINE
  5
C496
330
1F
100
AcDbEntity
  8
0
  6
Continuous
 62
     7
370
    15
100
AcDbLine
 10
834.5117433904533
 20
220.6860571142454
 30
0.0
 11
832.5117433904534
 21
220.6860571142454
 31
0.0
  0
LINE
  5
C497
330
1F
100
AcDbEntity
  8
0
  6
Continuous
 62
     7
370
    15
100
AcDbLine
 10
832.5117433904534
 20
220.6860571142454
 30
0.0
 11
832.5117433904534
 21
231.0783619596587
 31
0.0
  0
LINE
  5
C498
330
1F
100
AcDbEntity
  8
0
  6
Continuous
 62
     7
370
    15
100
AcDbLine
 10
832.5117433904534
 20
231.0783619596587
 30
0.0
 11
834.5117433904533
 21
231.0783619596587
 31
0.0
  0
LINE
  5
C499
330
1F
100
AcDbEntity
  8
0
  6
Continuous
 62
     7
370
    15
100
AcDbLine
 10
832.5117433904534
 20
203.3655490385566
 30
0.0
 11
832.5117433904534
 21
213.7578538839699
 31
0.0
  0
LINE
  5
C49A
330
1F
100
AcDbEntity
  8
0
  6
Continuous
 62
     7
370
    15
100
AcDbLine
 10
832.5117433904534
 20
123.4854405244482
 30
0.0
 11
832.5117433904534
 21
130.4136437547238
 31
0.0
  0
LINE
  5
C49B
330
1F
100
AcDbEntity
  8
0
  6
Continuous
 62
     7
370
    15
100
AcDbLine
 10
832.5117433904534
 20
220.6860571142454
 30
0.0
 11
832.5117433904534
 21
213.7578538839699
 31
0.0
  0
CIRCLE
  5
C49C
330
1F
100
AcDbEntity
  8
0
  6
Continuous
 62
     7
370
    15
100
AcDbCircle
 10
751.2560258808737
 20
190.8357488193481
 30
0.0
 40
3.099999999995967
  0
LINE
  5
C49D
330
1F
100
AcDbEntity
  8
0
  6
Continuous
 62
     7
370
    15
100
AcDbLine
 10
760.4521783035802
 20
186.9075455890725
 30
0.0
 11
752.4521783035802
 21
200.7639520496235
 31
0.0
  0
LINE
  5
C49E
330
1F
100
AcDbEntity
  8
0
  6
Continuous
 62
     7
370
    15
100
AcDbLine
 10
750.059873458167
 20
180.9075455890725
 30
0.0
 11
760.4521783035802
 21
186.9075455890725
 31
0.0
  0
LINE
  5
C49F
330
1F
100
AcDbEntity
  8
0
  6
Continuous
 62
     7
370
    15
100
AcDbLine
 10
750.059873458167
 20
180.9075455890725
 30
0.0
 11
742.059873458167
 21
194.7639520496234
 31
0.0
  0
LINE
  5
C4A0
330
1F
100
AcDbEntity
  8
0
  6
Continuous
 62
     7
370
    15
100
AcDbLine
 10
752.4521783035802
 20
200.7639520496235
 30
0.0
 11
742.059873458167
 21
194.7639520496234
 31
0.0
  0
CIRCLE
  5
C4A1
330
1F
100
AcDbEntity
  8
0
  6
Continuous
 62
     7
370
    15
100
AcDbCircle
 10
686.304120597041
 20
190.8357488193472
 30
0.0
 40
3.100000000043735
  0
LINE
  5
C4A2
330
1F
100
AcDbEntity
  8
0
  6
Continuous
 62
     7
370
    15
100
AcDbLine
 10
677.1079681743342
 20
186.9075455890716
 30
0.0
 11
687.5002730197475
 21
180.9075455890716
 31
0.0
  0
LINE
  5
C4A3
330
1F
100
AcDbEntity
  8
0
  6
Continuous
 62
     7
370
    15
100
AcDbLine
 10
677.1079681743342
 20
186.9075455890714
 30
0.0
 11
685.1079681743343
 21
200.7639520496226
 31
0.0
  0
LINE
  5
C4A4
330
1F
100
AcDbEntity
  8
0
  6
Continuous
 62
     7
370
    15
100
AcDbLine
 10
695.5002730197475
 20
194.7639520496225
 30
0.0
 11
687.5002730197475
 21
180.9075455890716
 31
0.0
  0
LINE
  5
C4A5
330
1F
100
AcDbEntity
  8
0
  6
Continuous
 62
     7
370
    15
100
AcDbLine
 10
695.5002730197477
 20
194.7639520496225
 30
0.0
 11
685.1079681743343
 21
200.7639520496226
 31
0.0
  0
CIRCLE
  5
C4A6
330
1F
100
AcDbEntity
  8
0
  6
Continuous
 62
     7
370
    15
100
AcDbCircle
 10
768.5765339565623
 20
200.8357488193481
 30
0.0
 40
3.100000000016564
  0
LINE
  5
C4A7
330
1F
100
AcDbEntity
  8
0
  6
Continuous
 62
     7
370
    15
100
AcDbLine
 10
767.3803815338558
 20
190.9075455890725
 30
0.0
 11
777.7726863792691
 21
196.9075455890727
 31
0.0
  0
LINE
  5
C4A8
330
1F
100
AcDbEntity
  8
0
  6
Continuous
 62
     7
370
    15
100
AcDbLine
 10
767.3803815338558
 20
190.9075455890725
 30
0.0
 11
759.3803815338558
 21
204.7639520496235
 31
0.0
  0
LINE
  5
C4A9
330
1F
100
AcDbEntity
  8
0
  6
Continuous
 62
     7
370
    15
100
AcDbLine
 10
769.7726863792689
 20
210.7639520496237
 30
0.0
 11
777.7726863792691
 21
196.9075455890727
 31
0.0
  0
LINE
  5
C4AA
330
1F
100
AcDbEntity
  8
0
  6
Continuous
 62
     7
370
    15
100
AcDbLine
 10
769.772686379269
 20
210.7639520496237
 30
0.0
 11
759.3803815338558
 21
204.7639520496235
 31
0.0
  0
CIRCLE
  5
C4AB
330
1F
100
AcDbEntity
  8
0
  6
Continuous
 62
     7
370
    15
100
AcDbCircle
 10
668.9836125213521
 20
200.835748819347
 30
0.0
 40
3.100000000015143
  0
LINE
  5
C4AC
330
1F
100
AcDbEntity
  8
0
  6
Continuous
 62
     7
370
    15
100
AcDbLine
 10
670.1797649440586
 20
190.9075455890714
 30
0.0
 11
678.1797649440586
 21
204.7639520496225
 31
0.0
  0
LINE
  5
C4AD
330
1F
100
AcDbEntity
  8
0
  6
Continuous
 62
     7
370
    15
100
AcDbLine
 10
659.7874600986454
 20
196.9075455890714
 30
0.0
 11
667.7874600986454
 21
210.7639520496225
 31
0.0
  0
LINE
  5
C4AE
330
1F
100
AcDbEntity
  8
0
  6
Continuous
 62
     7
370
    15
100
AcDbLine
 10
659.7874600986454
 20
196.9075455890714
 30
0.0
 11
670.1797649440586
 21
190.9075455890714
 31
0.0
  0
LINE
  5
C4AF
330
1F
100
AcDbEntity
  8
0
  6
Continuous
 62
     7
370
    15
100
AcDbLine
 10
678.1797649440586
 20
204.7639520496225
 30
0.0
 11
667.7874600986454
 21
210.7639520496225
 31
0.0
  0
CIRCLE
  5
C4B0
330
1F
100
AcDbEntity
  8
0
  6
Continuous
 62
     7
370
    15
100
AcDbCircle
 10
718.7800732389575
 20
134.5857488193472
 30
0.0
 40
3.099999999994878
  0
LINE
  5
C4B1
330
1F
100
AcDbEntity
  8
0
  6
Continuous
 62
     7
370
    15
100
AcDbLine
 10
726.7800732389575
 20
128.5857488193472
 30
0.0
 11
726.7800732389575
 21
140.5857488193472
 31
0.0
  0
LINE
  5
C4B2
330
1F
100
AcDbEntity
  8
0
  6
Continuous
 62
     7
370
    15
100
AcDbLine
 10
710.7800732389575
 20
128.5857488193472
 30
0.0
 11
726.7800732389575
 21
128.5857488193472
 31
0.0
  0
LINE
  5
C4B3
330
1F
100
AcDbEntity
  8
0
  6
Continuous
 62
     7
370
    15
100
AcDbLine
 10
710.7800732389575
 20
140.5857488193472
 30
0.0
 11
710.7800732389575
 21
128.5857488193472
 31
0.0
  0
LINE
  5
C4B4
330
1F
100
AcDbEntity
  8
0
  6
Continuous
 62
     7
370
    15
100
AcDbLine
 10
726.7800732389575
 20
140.5857488193472
 30
0.0
 11
710.7800732389575
 21
140.5857488193472
 31
0.0
  0
CIRCLE
  5
C4B5
330
1F
100
AcDbEntity
  8
0
  6
Continuous
 62
     7
370
    15
100
AcDbCircle
 10
718.7800732389575
 20
114.5857488193472
 30
0.0
 40
3.100000000013068
  0
LINE
  5
C4B6
330
1F
100
AcDbEntity
  8
0
  6
Continuous
 62
     7
370
    15
100
AcDbLine
 10
726.7800732389575
 20
108.5857488193472
 30
0.0
 11
710.7800732389575
 21
108.5857488193472
 31
0.0
  0
LINE
  5
C4B7
330
1F
100
AcDbEntity
  8
0
  6
Continuous
 62
     7
370
    15
100
AcDbLine
 10
710.7800732389575
 20
120.5857488193472
 30
0.0
 11
726.7800732389575
 21
120.5857488193472
 31
0.0
  0
LINE
  5
C4B8
330
1F
100
AcDbEntity
  8
0
  6
Continuous
 62
     7
370
    15
100
AcDbLine
 10
710.7800732389575
 20
120.5857488193472
 30
0.0
 11
710.7800732389575
 21
108.5857488193472
 31
0.0
  0
LINE
  5
C4B9
330
1F
100
AcDbEntity
  8
0
  6
Continuous
 62
     7
370
    15
100
AcDbLine
 10
726.7800732389575
 20
108.5857488193472
 30
0.0
 11
726.7800732389575
 21
120.5857488193472
 31
0.0
  0
CIRCLE
  5
C4BA
330
1F
100
AcDbEntity
  8
0
  6
Continuous
 62
     7
370
    15
100
AcDbCircle
 10
686.304120597041
 20
190.8357488193472
 30
0.0
 40
2.500000000016087
  0
CIRCLE
  5
C4BB
330
1F
100
AcDbEntity
  8
0
  6
Continuous
 62
     7
370
    15
100
AcDbCircle
 10
768.5765339565623
 20
200.8357488193481
 30
0.0
 40
2.499999999988931
  0
CIRCLE
  5
C4BC
330
1F
100
AcDbEntity
  8
0
  6
Continuous
 62
     7
370
    15
100
AcDbCircle
 10
751.2560258808737
 20
190.8357488193481
 30
0.0
 40
2.499999999968341
  0
CIRCLE
  5
C4BD
330
1F
100
AcDbEntity
  8
0
  6
Continuous
 62
     7
370
    15
100
AcDbCircle
 10
718.7800732389575
 20
134.5857488193472
 30
0.0
 40
2.499999999974974
  0
CIRCLE
  5
C4BE
330
1F
100
AcDbEntity
  8
0
  6
Continuous
 62
     7
370
    15
100
AcDbCircle
 10
718.7800732389575
 20
114.5857488193472
 30
0.0
 40
2.499999999993164
  0
CIRCLE
  5
C4BF
330
1F
100
AcDbEntity
  8
0
  6
Continuous
 62
     7
370
    15
100
AcDbCircle
 10
668.9836125213521
 20
200.835748819347
 30
0.0
 40
2.499999999987474
  0
CIRCLE
  5
C4C0
330
1F
100
AcDbEntity
  8
0
  6
Continuous
 62
     7
370
    15
100
AcDbCircle
 10
718.7800732389575
 20
172.0857488193472
 30
0.0
 40
12.5
  0
ARC
  5
C4C1
330
1F
100
AcDbEntity
  8
0
  6
Continuous
 62
     7
370
    15
100
AcDbCircle
 10
718.7800732389575
 20
172.0857488193472
 30
0.0
 40
32.50000000000011
100
AcDbArc
 50
164.2500326978046
 51
255.7499673021996
  0
ARC
  5
C4C2
330
1F
100
AcDbEntity
  8
0
  6
Continuous
 62
     7
370
    15
100
AcDbCircle
 10
718.7800732389575
 20
172.0857488193472
 30
0.0
 40
32.50000000000009
100
AcDbArc
 50
44.25003269780531
 51
135.7499673021955
  0
ARC
  5
C4C3
330
1F
100
AcDbEntity
  8
0
  6
Continuous
 62
     7
370
    15
100
AcDbCircle
 10
718.7800732389575
 20
172.0857488193472
 30
0.0
 40
32.5
100
AcDbArc
 50
284.2500326978068
 51
15.74996730219685
  0
LINE
  5
C4C4
330
1F
100
AcDbEntity
  8
0
  6
Continuous
 62
     7
370
    15
100
AcDbLine
 10
759.507322373618
 20
129.0952710606237
 30
0.0
 11
764.0443147433813
 21
128.9882031696329
 31
0.0
  0
LINE
  5
C4C5
330
1F
100
AcDbEntity
  8
0
  6
Continuous
 62
     7
370
    15
100
AcDbLine
 10
758.1690611609003
 20
130.5815607115783
 30
0.0
 11
759.507322373618
 21
129.0952710606237
 31
0.0
  0
LINE
  5
C4C6
330
1F
100
AcDbEntity
  8
0
  6
Continuous
 62
     7
370
    15
100
AcDbLine
 10
758.1690611609003
 20
130.5815607115785
 30
0.0
 11
758.6521052974606
 21
131.0164956057118
 31
0.0
  0
LINE
  5
C4C7
330
1F
100
AcDbEntity
  8
0
  6
Continuous
 62
     7
370
    15
100
AcDbLine
 10
755.8417567507535
 20
134.1377038727167
 30
0.0
 11
758.6521052974606
 21
131.0164956057118
 31
0.0
  0
LINE
  5
C4C8
330
1F
100
AcDbEntity
  8
0
  6
Continuous
 62
     7
370
    15
100
AcDbLine
 10
752.6462340012005
 20
131.2604422653738
 30
0.0
 11
755.8417567507535
 21
134.1377038727167
 31
0.0
  0
LINE
  5
C4C9
330
1F
100
AcDbEntity
  8
0
  6
Continuous
 62
     7
370
    15
100
AcDbLine
 10
755.4565825479078
 20
128.1392339983686
 30
0.0
 11
752.6462340012005
 21
131.2604422653738
 31
0.0
  0
LINE
  5
C4CA
330
1F
100
AcDbEntity
  8
0
  6
Continuous
 62
     7
370
    15
100
AcDbLine
 10
755.9396266844681
 20
128.5741688925018
 30
0.0
 11
755.4565825479078
 21
128.1392339983686
 31
0.0
  0
LINE
  5
C4CB
330
1F
100
AcDbEntity
  8
0
  6
Continuous
 62
     7
370
    15
100
AcDbLine
 10
757.2778878971858
 20
127.087879241547
 30
0.0
 11
755.9396266844681
 21
128.5741688925018
 31
0.0
  0
LINE
  5
C4CC
330
1F
100
AcDbEntity
  8
0
  6
Continuous
 62
     7
370
    15
100
AcDbLine
 10
756.9101244187984
 20
122.5645493485882
 30
0.0
 11
757.2778878971858
 21
127.087879241547
 31
0.0
  0
ARC
  5
C4CD
330
1F
100
AcDbEntity
  8
0
  6
Continuous
 62
     7
370
    15
100
AcDbCircle
 10
718.7800732389575
 20
172.0857488193472
 30
0.0
 40
62.49999999999997
100
AcDbArc
 50
277.4464784657981
 51
307.5953469251431
  0
LINE
  5
C4CE
330
1F
100
AcDbEntity
  8
0
  6
Continuous
 62
     7
370
    15
100
AcDbLine
 10
726.8800732389575
 20
140.6113147497725
 30
0.0
 11
726.8800732389575
 21
110.1128515173814
 31
0.0
  0
LINE
  5
C4CF
330
1F
100
AcDbEntity
  8
0
  6
Continuous
 62
     7
370
    15
100
AcDbLine
 10
776.5001766485839
 20
196.0573916996764
 30
0.0
 11
750.0877327129476
 21
180.8081600834808
 31
0.0
  0
ARC
  5
C4D0
330
1F
100
AcDbEntity
  8
0
  6
Continuous
 62
     7
370
    15
100
AcDbCircle
 10
718.7800732389575
 20
172.0857488193472
 30
0.0
 40
62.49999999999995
100
AcDbArc
 50
352.4046530748588
 51
22.55352153420036
  0
LINE
  5
C4D1
330
1F
100
AcDbEntity
  8
0
  6
Continuous
 62
     7
370
    15
100
AcDbLine
 10
780.7317155964319
 20
163.8247555853837
 30
0.0
 11
776.9982787386257
 21
161.2445981240365
 31
0.0
  0
LINE
  5
C4D2
330
1F
100
AcDbEntity
  8
0
  6
Continuous
 62
     7
370
    15
100
AcDbLine
 10
775.0419835371578
 20
161.6604215056721
 30
0.0
 11
776.9982787386254
 21
161.2445981240365
 31
0.0
  0
LINE
  5
C4D3
330
1F
100
AcDbEntity
  8
0
  6
Continuous
 62
     7
370
    15
100
AcDbLine
 10
775.0419835371578
 20
161.6604215056721
 30
0.0
 11
775.1771261361893
 21
162.2962174461491
 31
0.0
  0
LINE
  5
C4D4
330
1F
100
AcDbEntity
  8
0
  6
Continuous
 62
     7
370
    15
100
AcDbLine
 10
771.0689062131075
 20
163.1694465475835
 30
0.0
 11
775.1771261361893
 21
162.2962174461491
 31
0.0
  0
LINE
  5
C4D5
330
1F
100
AcDbEntity
  8
0
  6
Continuous
 62
     7
370
    15
100
AcDbLine
 10
770.1748859425911
 20
158.9634118644283
 30
0.0
 11
771.0689062131075
 21
163.1694465475835
 31
0.0
  0
LINE
  5
C4D6
330
1F
100
AcDbEntity
  8
0
  6
Continuous
 62
     7
370
    15
100
AcDbLine
 10
774.2831058656731
 20
158.0901827629937
 30
0.0
 11
770.1748859425911
 21
158.9634118644283
 31
0.0
  0
LINE
  5
C4D7
330
1F
100
AcDbEntity
  8
0
  6
Continuous
 62
     7
370
    15
100
AcDbLine
 10
774.4182484647047
 20
158.7259787034707
 30
0.0
 11
774.2831058656731
 21
158.0901827629937
 31
0.0
  0
LINE
  5
C4D8
330
1F
100
AcDbEntity
  8
0
  6
Continuous
 62
     7
370
    15
100
AcDbLine
 10
776.3745436661722
 20
158.3101553218351
 30
0.0
 11
774.4182484647047
 21
158.7259787034707
 31
0.0
  0
LINE
  5
C4D9
330
1F
100
AcDbEntity
  8
0
  6
Continuous
 62
     7
370
    15
100
AcDbLine
 10
778.7357633645813
 20
154.4345386183391
 30
0.0
 11
776.3745436661722
 21
158.3101553218351
 31
0.0
  0
ARC
  5
C4DA
330
1F
100
AcDbEntity
  8
0
  6
Continuous
 62
     7
370
    15
100
AcDbCircle
 10
718.7800732389575
 20
172.0857488193472
 30
0.0
 40
62.49999999999999
100
AcDbArc
 50
336.8921025793476
 51
343.5953469251434
  0
LINE
  5
C4DB
330
1F
100
AcDbEntity
  8
0
  6
Continuous
 62
     7
370
    15
100
AcDbLine
 10
771.0274958508864
 20
150.580939347731
 30
0.0
 11
776.2655363894696
 21
147.5567552327539
 31
0.0
  0
ARC
  5
C4DC
330
1F
100
AcDbEntity
  8
0
  6
Continuous
 62
     7
370
    15
100
AcDbCircle
 10
767.2774958508864
 20
144.0857488193476
 30
0.0
 40
7.500000000000023
100
AcDbArc
 50
60.00000000000007
 51
240.0000000000004
  0
LINE
  5
C4DD
330
1F
100
AcDbEntity
  8
0
  6
Continuous
 62
     7
370
    15
100
AcDbLine
 10
768.7655363894696
 20
134.5663741759873
 30
0.0
 11
763.5274958508865
 21
137.5905582909643
 31
0.0
  0
ARC
  5
C4DE
330
1F
100
AcDbEntity
  8
0
  6
Continuous
 62
     7
370
    15
100
AcDbCircle
 10
718.7800732389575
 20
172.0857488193472
 30
0.0
 40
62.50000000000004
100
AcDbArc
 50
316.4046530748598
 51
323.1078974206553
  0
LINE
  5
C4DF
330
1F
100
AcDbEntity
  8
0
  6
Continuous
 62
     7
370
    15
100
AcDbLine
 10
661.1856028117429
 20
158.3101553218351
 30
0.0
 11
658.8243831133338
 21
154.4345386183391
 31
0.0
  0
LINE
  5
C4E0
330
1F
100
AcDbEntity
  8
0
  6
Continuous
 62
     7
370
    15
100
AcDbLine
 10
663.1418980132105
 20
158.7259787034707
 30
0.0
 11
661.1856028117429
 21
158.3101553218351
 31
0.0
  0
LINE
  5
C4E1
330
1F
100
AcDbEntity
  8
0
  6
Continuous
 62
     7
370
    15
100
AcDbLine
 10
663.1418980132105
 20
158.7259787034707
 30
0.0
 11
663.2770406122422
 21
158.0901827629937
 31
0.0
  0
LINE
  5
C4E2
330
1F
100
AcDbEntity
  8
0
  6
Continuous
 62
     7
370
    15
100
AcDbLine
 10
667.385260535324
 20
158.9634118644283
 30
0.0
 11
663.2770406122422
 21
158.0901827629937
 31
0.0
  0
LINE
  5
C4E3
330
1F
100
AcDbEntity
  8
0
  6
Continuous
 62
     7
370
    15
100
AcDbLine
 10
666.4912402648076
 20
163.1694465475837
 30
0.0
 11
667.385260535324
 21
158.9634118644283
 31
0.0
  0
LINE
  5
C4E4
330
1F
100
AcDbEntity
  8
0
  6
Continuous
 62
     7
370
    15
100
AcDbLine
 10
662.3830203417258
 20
162.2962174461491
 30
0.0
 11
666.4912402648076
 21
163.1694465475837
 31
0.0
  0
LINE
  5
C4E5
330
1F
100
AcDbEntity
  8
0
  6
Continuous
 62
     7
370
    15
100
AcDbLine
 10
662.5181629407572
 20
161.6604215056721
 30
0.0
 11
662.3830203417258
 21
162.2962174461491
 31
0.0
  0
LINE
  5
C4E6
330
1F
100
AcDbEntity
  8
0
  6
Continuous
 62
     7
370
    15
100
AcDbLine
 10
660.5618677392897
 20
161.2445981240365
 30
0.0
 11
662.5181629407572
 21
161.6604215056721
 31
0.0
  0
LINE
  5
C4E7
330
1F
100
AcDbEntity
  8
0
  6
Continuous
 62
     7
370
    15
100
AcDbLine
 10
656.8284308814834
 20
163.8247555853837
 30
0.0
 11
660.5618677392897
 21
161.2445981240365
 31
0.0
  0
ARC
  5
C4E8
330
1F
100
AcDbEntity
  8
0
  6
Continuous
 62
     7
370
    15
100
AcDbCircle
 10
718.7800732389575
 20
172.0857488193472
 30
0.0
 40
62.49999999999996
100
AcDbArc
 50
157.4464784658007
 51
187.5953469251435
  0
LINE
  5
C4E9
330
1F
100
AcDbEntity
  8
0
  6
Continuous
 62
     7
370
    15
100
AcDbLine
 10
661.059969829331
 20
196.0573916996755
 30
0.0
 11
687.4724137649675
 21
180.8081600834803
 31
0.0
  0
LINE
  5
C4EA
330
1F
100
AcDbEntity
  8
0
  6
Continuous
 62
     7
370
    15
100
AcDbLine
 10
710.6800732389577
 20
110.1128515173814
 30
0.0
 11
710.6800732389577
 21
140.6113147497725
 31
0.0
  0
ARC
  5
C4EB
330
1F
100
AcDbEntity
  8
0
  6
Continuous
 62
     7
370
    15
100
AcDbCircle
 10
718.7800732389575
 20
172.0857488193472
 30
0.0
 40
62.49999999999994
100
AcDbArc
 50
232.4046530748576
 51
262.5535215342019
  0
LINE
  5
C4EC
330
1F
100
AcDbEntity
  8
0
  6
Continuous
 62
     7
370
    15
100
AcDbLine
 10
680.2822585807294
 20
127.087879241547
 30
0.0
 11
680.6500220591167
 21
122.5645493485882
 31
0.0
  0
LINE
  5
C4ED
330
1F
100
AcDbEntity
  8
0
  6
Continuous
 62
     7
370
    15
100
AcDbLine
 10
681.6205197934471
 20
128.5741688925018
 30
0.0
 11
680.2822585807294
 21
127.087879241547
 31
0.0
  0
LINE
  5
C4EE
330
1F
100
AcDbEntity
  8
0
  6
Continuous
 62
     7
370
    15
100
AcDbLine
 10
681.6205197934471
 20
128.5741688925018
 30
0.0
 11
682.1035639300073
 21
128.1392339983686
 31
0.0
  0
LINE
  5
C4EF
330
1F
100
AcDbEntity
  8
0
  6
Continuous
 62
     7
370
    15
100
AcDbLine
 10
684.9139124767146
 20
131.2604422653738
 30
0.0
 11
682.1035639300073
 21
128.1392339983686
 31
0.0
  0
LINE
  5
C4F0
330
1F
100
AcDbEntity
  8
0
  6
Continuous
 62
     7
370
    15
100
AcDbLine
 10
681.7183897271618
 20
134.1377038727167
 30
0.0
 11
684.9139124767146
 21
131.2604422653738
 31
0.0
  0
LINE
  5
C4F1
330
1F
100
AcDbEntity
  8
0
  6
Continuous
 62
     7
370
    15
100
AcDbLine
 10
678.9080411804546
 20
131.0164956057118
 30
0.0
 11
681.7183897271618
 21
134.1377038727167
 31
0.0
  0
LINE
  5
C4F2
330
1F
100
AcDbEntity
  8
0
  6
Continuous
 62
     7
370
    15
100
AcDbLine
 10
679.3910853170148
 20
130.5815607115785
 30
0.0
 11
678.9080411804546
 21
131.0164956057118
 31
0.0
  0
LINE
  5
C4F3
330
1F
100
AcDbEntity
  8
0
  6
Continuous
 62
     7
370
    15
100
AcDbLine
 10
678.052824104297
 20
129.0952710606237
 30
0.0
 11
679.3910853170148
 21
130.5815607115783
 31
0.0
  0
LINE
  5
C4F4
330
1F
100
AcDbEntity
  8
0
  6
Continuous
 62
     7
370
    15
100
AcDbLine
 10
673.5158317345337
 20
128.9882031696329
 30
0.0
 11
678.052824104297
 21
129.0952710606237
 31
0.0
  0
ARC
  5
C4F5
330
1F
100
AcDbEntity
  8
0
  6
Continuous
 62
     7
370
    15
100
AcDbCircle
 10
718.7800732389575
 20
172.0857488193472
 30
0.0
 40
62.49999999999995
100
AcDbArc
 50
216.8921025793463
 51
223.5953469251459
  0
LINE
  5
C4F6
330
1F
100
AcDbEntity
  8
0
  6
Continuous
 62
     7
370
    15
100
AcDbLine
 10
674.0326506270291
 20
137.5905582909636
 30
0.0
 11
668.7946100884462
 21
134.5663741759866
 31
0.0
  0
ARC
  5
C4F7
330
1F
100
AcDbEntity
  8
0
  6
Continuous
 62
     7
370
    15
100
AcDbCircle
 10
670.2826506270291
 20
144.085748819347
 30
0.0
 40
7.500000000000007
100
AcDbArc
 50
300.0000000000003
 51
120.0000000000001
  0
LINE
  5
C4F8
330
1F
100
AcDbEntity
  8
0
  6
Continuous
 62
     7
370
    15
100
AcDbLine
 10
661.2946100884459
 20
147.5567552327532
 30
0.0
 11
666.5326506270291
 21
150.5809393477303
 31
0.0
  0
ARC
  5
C4F9
330
1F
100
AcDbEntity
  8
0
  6
Continuous
 62
     7
370
    15
100
AcDbCircle
 10
718.7800732389575
 20
172.0857488193472
 30
0.0
 40
62.49999999999996
100
AcDbArc
 50
196.4046530748577
 51
203.1078974206543
  0
LINE
  5
C4FA
330
1F
100
AcDbEntity
  8
0
  6
Continuous
 62
     7
370
    15
100
AcDbLine
 10
711.2800732389575
 20
228.0857488193472
 30
0.0
 11
711.2800732389575
 21
234.1341170493013
 31
0.0
  0
ARC
  5
C4FB
330
1F
100
AcDbEntity
  8
0
  6
Continuous
 62
     7
370
    15
100
AcDbCircle
 10
718.7800732389575
 20
228.0857488193472
 30
0.0
 40
7.5
100
AcDbArc
 50
180.0
 51
0.0
  0
LINE
  5
C4FC
330
1F
100
AcDbEntity
  8
0
  6
Continuous
 62
     7
370
    15
100
AcDbLine
 10
726.2800732389576
 20
234.1341170493013
 30
0.0
 11
726.2800732389576
 21
228.0857488193472
 31
0.0
  0
LINE
  5
C4FD
330
1F
100
AcDbEntity
  8
0
  6
Continuous
 62
     7
370
    15
100
AcDbLine
 10
768.4001766485839
 20
210.0870032409842
 30
0.0
 11
741.9877327129475
 21
194.8377716247885
 31
0.0
  0
LINE
  5
C4FE
330
1F
100
AcDbEntity
  8
0
  6
Continuous
 62
     7
370
    15
100
AcDbLine
 10
669.1599698293307
 20
210.0870032409835
 30
0.0
 11
695.5724137649674
 21
194.8377716247883
 31
0.0
  0
ARC
  5
C4FF
330
1F
100
AcDbEntity
  8
0
  6
Continuous
 62
     7
370
    15
100
AcDbCircle
 10
718.7800732389575
 20
172.0857488193472
 30
0.0
 40
62.49999999999996
100
AcDbArc
 50
37.44647846580111
 51
83.10789742065336
  0
ARC
  5
C500
330
1F
100
AcDbEntity
  8
0
  6
Continuous
 62
     7
370
    15
100
AcDbCircle
 10
718.7800732389575
 20
172.0857488193472
 30
0.0
 40
62.49999999999995
100
AcDbArc
 50
96.89210257934664
 51
142.5535215342035
  0
CIRCLE
  5
C501
330
1F
100
AcDbEntity
  8
0
  6
Continuous
 62
     7
370
    15
100
AcDbCircle
 10
677.6438665591966
 20
195.8357488193472
 30
0.0
 40
3.100000000015199
  0
LINE
  5
C502
330
1F
100
AcDbEntity
  8
0
  6
Continuous
 62
     7
370
    15
100
AcDbLine
 10
670.1797649440586
 20
190.9075455890714
 30
0.0
 11
677.1079681743342
 21
186.9075455890716
 31
0.0
  0
LINE
  5
C503
330
1F
100
AcDbEntity
  8
0
  6
Continuous
 62
     7
370
    15
100
AcDbLine
 10
685.1079681743343
 20
200.7639520496226
 30
0.0
 11
678.1797649440586
 21
204.7639520496225
 31
0.0
  0
CIRCLE
  5
C504
330
1F
100
AcDbEntity
  8
0
  6
Continuous
 62
     7
370
    15
100
AcDbCircle
 10
759.9162799187181
 20
195.8357488193481
 30
0.0
 40
3.099999999893924
  0
LINE
  5
C505
330
1F
100
AcDbEntity
  8
0
  6
Continuous
 62
     7
370
    15
100
AcDbLine
 10
760.4521783035802
 20
186.9075455890725
 30
0.0
 11
767.3803815338558
 21
190.9075455890725
 31
0.0
  0
LINE
  5
C506
330
1F
100
AcDbEntity
  8
0
  6
Continuous
 62
     7
370
    15
100
AcDbLine
 10
759.3803815338558
 20
204.7639520496235
 30
0.0
 11
752.4521783035802
 21
200.7639520496235
 31
0.0
  0
CIRCLE
  5
C507
330
1F
100
AcDbEntity
  8
0
  6
Continuous
 62
     7
370
    15
100
AcDbCircle
 10
718.7800732389575
 20
124.5857488193472
 30
0.0
 40
3.100000000003973
  0
LINE
  5
C508
330
1F
100
AcDbEntity
  8
0
  6
Continuous
 62
     7
370
    15
100
AcDbLine
 10
710.7800732389575
 20
128.5857488193472
 30
0.0
 11
710.7800732389575
 21
120.5857488193472
 31
0.0
  0
LINE
  5
C509
330
1F
100
AcDbEntity
  8
0
  6
Continuous
 62
     7
370
    15
100
AcDbLine
 10
726.7800732389575
 20
120.5857488193472
 30
0.0
 11
726.7800732389575
 21
128.5857488193472
 31
0.0
  0
CIRCLE
  5
C50A
330
1F
100
AcDbEntity
  8
0
  6
Continuous
 62
     7
370
    15
100
AcDbCircle
 10
677.6438665591966
 20
195.8357488193472
 30
0.0
 40
2.999999999984886
  0
CIRCLE
  5
C50B
330
1F
100
AcDbEntity
  8
0
  6
Continuous
 62
     7
370
    15
100
AcDbCircle
 10
718.7800732389575
 20
124.5857488193472
 30
0.0
 40
3.000000000029075
  0
CIRCLE
  5
C50C
330
1F
100
AcDbEntity
  8
0
  6
Continuous
 62
     7
370
    15
100
AcDbCircle
 10
759.9162799187181
 20
195.8357488193481
 30
0.0
 40
2.999999999986354
  0
LINE
  5
C50D
330
1F
100
AcDbEntity
  8
0
  6
Continuous
 62
     7
370
    15
100
AcDbLine
 10
766.2726863792689
 20
216.8261298761148
 30
0.0
 11
763.8246971314161
 21
215.4127826248938
 31
0.0
  0
LINE
  5
C50E
330
1F
100
AcDbEntity
  8
0
  6
Continuous
 62
     7
370
    15
100
AcDbLine
 10
766.2726863792689
 20
216.8261298761148
 30
0.0
 11
769.7726863792689
 21
210.7639520496237
 31
0.0
  0
LINE
  5
C50F
330
1F
100
AcDbEntity
  8
0
  6
Continuous
 62
     7
370
    15
100
AcDbLine
 10
671.2874600986451
 20
216.8261298761136
 30
0.0
 11
673.7354493464981
 21
215.4127826248924
 31
0.0
  0
LINE
  5
C510
330
1F
100
AcDbEntity
  8
0
  6
Continuous
 62
     7
370
    15
100
AcDbLine
 10
667.7874600986454
 20
210.7639520496225
 30
0.0
 11
671.2874600986451
 21
216.8261298761136
 31
0.0
  0
LINE
  5
C511
330
1F
100
AcDbEntity
  8
0
  6
Continuous
 62
     7
370
    15
100
AcDbLine
 10
658.7354493464983
 20
189.4320205113591
 30
0.0
 11
656.2874600986454
 21
190.8453677625803
 31
0.0
  0
LINE
  5
C512
330
1F
100
AcDbEntity
  8
0
  6
Continuous
 62
     7
370
    15
100
AcDbLine
 10
656.2874600986454
 20
190.8453677625803
 30
0.0
 11
659.7874600986454
 21
196.9075455890714
 31
0.0
  0
LINE
  5
C513
330
1F
100
AcDbEntity
  8
0
  6
Continuous
 62
     7
370
    15
100
AcDbLine
 10
781.2726863792691
 20
190.8453677625817
 30
0.0
 11
778.8246971314165
 21
189.4320205113607
 31
0.0
  0
LINE
  5
C514
330
1F
100
AcDbEntity
  8
0
  6
Continuous
 62
     7
370
    15
100
AcDbLine
 10
777.7726863792691
 20
196.9075455890727
 30
0.0
 11
781.2726863792691
 21
190.8453677625817
 31
0.0
  0
LINE
  5
C515
330
1F
100
AcDbEntity
  8
0
  6
Continuous
 62
     7
370
    15
100
AcDbLine
 10
733.7800732389576
 20
108.5857488193472
 30
0.0
 11
733.7800732389576
 21
111.4124433217892
 31
0.0
  0
LINE
  5
C516
330
1F
100
AcDbEntity
  8
0
  6
Continuous
 62
     7
370
    15
100
AcDbLine
 10
733.7800732389576
 20
108.5857488193472
 30
0.0
 11
726.7800732389575
 21
108.5857488193472
 31
0.0
  0
LINE
  5
C517
330
1F
100
AcDbEntity
  8
0
  6
Continuous
 62
     7
370
    15
100
AcDbLine
 10
703.7800732389576
 20
108.5857488193472
 30
0.0
 11
703.7800732389576
 21
111.4124433217892
 31
0.0
  0
LINE
  5
C518
330
1F
100
AcDbEntity
  8
0
  6
Continuous
 62
     7
370
    15
100
AcDbLine
 10
710.7800732389575
 20
108.5857488193472
 30
0.0
 11
703.7800732389576
 21
108.5857488193472
 31
0.0
  0
CIRCLE
  5
C519
330
1F
100
AcDbEntity
  8
0
  6
Continuous
 62
     7
370
    15
100
AcDbCircle
 10
718.7800732389575
 20
228.0857488193472
 30
0.0
 40
4.250000000000003
  0
ARC
  5
C51A
330
1F
100
AcDbEntity
  8
0
  6
Continuous
 62
     7
370
    15
100
AcDbCircle
 10
718.7800732389575
 20
172.0857488193472
 30
0.0
 40
62.49999999999995
100
AcDbArc
 50
83.10789742065336
 51
96.89210257934664
  0
CIRCLE
  5
C51B
330
1F
100
AcDbEntity
  8
0
  6
Continuous
 62
     7
370
    15
100
AcDbCircle
 10
767.2774958508864
 20
144.0857488193476
 30
0.0
 40
4.250000000000007
  0
ARC
  5
C51C
330
1F
100
AcDbEntity
  8
0
  6
Continuous
 62
     7
370
    15
100
AcDbCircle
 10
718.7800732389575
 20
172.0857488193472
 30
0.0
 40
62.49999999999998
100
AcDbArc
 50
323.1078974206553
 51
336.8921025793476
  0
CIRCLE
  5
C51D
330
1F
100
AcDbEntity
  8
0
  6
Continuous
 62
     7
370
    15
100
AcDbCircle
 10
670.2826506270291
 20
144.085748819347
 30
0.0
 40
4.250000000000014
  0
ARC
  5
C51E
330
1F
100
AcDbEntity
  8
0
  6
Continuous
 62
     7
370
    15
100
AcDbCircle
 10
718.7800732389575
 20
172.0857488193472
 30
0.0
 40
62.49999999999993
100
AcDbArc
 50
203.1078974206543
 51
216.8921025793463
  0
ENDSEC
  0
SECTION
  2
OBJECTS
  0
DICTIONARY
  5
C
330
0
100
AcDbDictionary
281
     1
  3
ACAD_COLOR
350
BE
  3
ACAD_GROUP
350
D
  3
ACAD_LAYOUT
350
1A
  3
ACAD_MATERIAL
350
BD
  3
ACAD_MLINESTYLE
350
17
  3
ACAD_PLOTSETTINGS
350
19
  3
ACAD_PLOTSTYLENAME
350
E
  3
ACAD_TABLESTYLE
350
11A
  3
AcadDim
350
7BA5
  3
ACDBHEADERROUNDTRIPXREC
350
C847
  3
AcDbVariableDictionary
350
94
  3
AcmDictionary
350
5B
  3
AMG
350
41
  3
AMGSNAPSETTINGS
350
1B8
  3
ASE_INDEX_DICTIONARY
350
AFCA
  3
DWGPROPS
350
C846
  3
MAPISURF_MODULE
350
7C9D
  0
DICTIONARY
  5
3F9
330
2
100
AcDbDictionary
280
     1
281
     1
  3
ACAD_LAYERFILTERS
360
99D5
  3
ACAD_LAYERSTATES
360
CA0
  3
ACLYDICTIONARY
360
99D4
  3
AMLAYER_GROUPCOLORS
360
18A7
  0
DICTIONARY
  5
8F
330
1F
100
AcDbDictionary
280
     1
281
     1
  3
ACAD_INDEX
360
B065
  3
ACAD_SORTENTS
360
18D9
  0
DICTIONARY
  5
7CF3
330
7CF2
100
AcDbDictionary
280
     1
281
     1
  0
DICTIONARY
  5
A58B
330
A57E
100
AcDbDictionary
280
     1
281
     1
  3
ACAD_DIMASSOC
360
A58C
  0
DICTIONARY
  5
BE
102
{ACAD_REACTORS
330
C
102
}
330
C
100
AcDbDictionary
281
     1
  0
DICTIONARY
  5
D
102
{ACAD_REACTORS
330
C
102
}
330
C
100
AcDbDictionary
281
     1
  0
DICTIONARY
  5
1A
102
{ACAD_REACTORS
330
C
102
}
330
C
100
AcDbDictionary
281
     1
  3
Model
350
22
  3
配置1
350
1E
  3
配置2
350
26
  0
DICTIONARY
  5
BD
102
{ACAD_REACTORS
330
C
102
}
330
C
100
AcDbDictionary
281
     1
  0
DICTIONARY
  5
17
102
{ACAD_REACTORS
330
C
102
}
330
C
100
AcDbDictionary
281
     1
  3
Standard
350
18
  0
DICTIONARY
  5
19
102
{ACAD_REACTORS
330
C
102
}
330
C
100
AcDbDictionary
281
     1
  0
ACDBDICTIONARYWDFLT
  5
E
102
{ACAD_REACTORS
330
C
102
}
330
C
100
AcDbDictionary
281
     1
  3
Normal
350
F
100
AcDbDictionaryWithDefault
340
F
  0
DICTIONARY
  5
11A
102
{ACAD_REACTORS
330
C
102
}
330
C
100
AcDbDictionary
281
     1
  3
Standard
350
11B
  0
XRECORD
  5
7BA5
102
{ACAD_REACTORS
330
C
102
}
330
C
100
AcDbXrecord
280
     1
 90
   990106
  3

 60
     4
 61
     0
 62
     4
 63
     4
 64
     1
 65
     0
 66
     0
 67
     3
 68
     0
 69
     0
 70
     0
 71
     0
 72
     0
 40
0.0
170
     0
340
7BA1
  0
DICTIONARY
  5
C847
102
{ACAD_REACTORS
330
C
102
}
330
C
100
AcDbDictionary
281
     1
  0
DICTIONARY
  5
94
102
{ACAD_REACTORS
330
C
102
}
330
C
100
AcDbDictionary
281
     1
  3
CTABLESTYLE
350
138
  3
DIMASSOC
350
96
  3
INDEXCTL
350
95
  3
PROJECTNAME
350
1BA0
  0
DICTIONARY
  5
5B
102
{ACAD_REACTORS
330
C
102
}
330
C
100
AcDbDictionary
281
     1
  3
AcmBOM
350
1B5
  3
AcmStdDictionary
350
61
  3
AMDTSECTSYM_ARROWCOLOR
350
123
  0
DICTIONARY
  5
41
102
{ACAD_REACTORS
330
C
102
}
330
C
100
AcDbDictionary
281
     1
  3
AcMgSettings
350
7C17
  0
DICTIONARY
  5
1B8
102
{ACAD_REACTORS
330
C
102
}
330
C
100
AcDbDictionary
281
     1
  0
DICTIONARY
  5
AFCA
102
{ACAD_REACTORS
330
C
102
}
330
C
100
AcDbDictionary
281
     1
  3
ASEBlockHierarchyIndexRecord
350
AFCB
1001
DCO15
1040
1757073594.046
  0
XRECORD
  5
C846
102
{ACAD_REACTORS
330
C
102
}
330
C
100
AcDbXrecord
280
     1
  1
DWGPROPS COOKIE
  2

  3

  4

  6

  7

  8

  9

300
AmdtFileType=84
301
=
302
=
303
=
304
=
305
=
306
=
307
=
308
=
309
=
 40
1.130486493055555
 41
2454422.344345151
 42
2456140.35813169
  1

 90
        1
  0
DICTIONARY
  5
99D5
102
{ACAD_REACTORS
330
3F9
102
}
330
3F9
100
AcDbDictionary
281
     1
  0
DICTIONARY
  5
CA0
102
{ACAD_REACTORS
330
3F9
102
}
330
3F9
100
AcDbDictionary
281
     1
  0
DICTIONARY
  5
99D4
102
{ACAD_REACTORS
330
3F9
102
}
330
3F9
100
AcDbDictionary
281
     1
1001
ACAD
1000
<All
  0
DICTIONARY
  5
18A7
102
{ACAD_REACTORS
330
3F9
102
}
330
3F9
100
AcDbDictionary
280
     1
281
     1
  0
DICTIONARY
  5
B065
102
{ACAD_REACTORS
330
8F
102
}
330
8F
100
AcDbDictionary
281
     1
  3
*A1
350
B066
  0
SORTENTSTABLE
  5
18D9
102
{ACAD_REACTORS
330
8F
102
}
330
8F
100
AcDbSortentsTable
330
1F
331
15AF
  5
15AF
331
15EB
  5
15EB
331
15B9
  5
15B9
331
159B
  5
159B
331
15D7
  5
15D7
331
15F5
  5
15F5
331
15E1
  5
15E1
331
15A5
  5
15A5
331
15C3
  5
15C3
331
15B0
  5
15B0
331
15EC
  5
15EC
331
15D8
  5
15D8
331
159C
  5
159C
331
15F6
  5
15F6
331
15A6
  5
15A6
331
15C4
  5
15C4
331
15E2
  5
15E2
331
15ED
  5
15ED
331
15D9
  5
15D9
331
159D
  5
159D
331
15F7
  5
15F7
331
15A7
  5
15A7
331
15E3
  5
15E3
331
15A8
  5
15A8
331
15D0
  5
15D0
331
15EE
  5
15EE
331
15F8
  5
15F8
331
159E
  5
159E
331
15DA
  5
15DA
331
15E4
  5
15E4
331
15A9
  5
15A9
331
15D1
  5
15D1
331
159F
  5
159F
331
15BD
  5
15BD
331
15DB
  5
15DB
331
15F9
  5
15F9
331
15E5
  5
15E5
331
7BA1
  5
7BA1
331
15C8
  5
15C8
331
15AA
  5
15AA
331
15F0
  5
15F0
331
15B4
  5
15B4
331
15D2
  5
15D2
331
15A0
  5
15A0
331
15BE
  5
15BE
331
15DC
  5
15DC
331
15FA
  5
15FA
331
15E6
  5
15E6
331
15AB
  5
15AB
331
15F1
  5
15F1
331
15A1
  5
15A1
331
15BF
  5
15BF
331
15DD
  5
15DD
331
15FB
  5
15FB
331
15E7
  5
15E7
331
15E8
  5
15E8
331
15AC
  5
15AC
331
15F2
  5
15F2
331
15A2
  5
15A2
331
15C0
  5
15C0
331
15DE
  5
15DE
331
15AD
  5
15AD
331
15E9
  5
15E9
331
1599
  5
1599
331
15F3
  5
15F3
331
15C1
  5
15C1
331
15A3
  5
15A3
331
15DF
  5
15DF
331
15AE
  5
15AE
331
15CC
  5
15CC
331
15EA
  5
15EA
331
159A
  5
159A
331
15B8
  5
15B8
331
15D6
  5
15D6
331
15F4
  5
15F4
331
15E0
  5
15E0
331
15A4
  5
15A4
331
15C2
  5
15C2
  0
DIMASSOC
  5
A58C
102
{ACAD_REACTORS
330
A58B
102
}
330
A58B
100
AcDbDimAssoc
330
A57E
 90
        1
 70
     0
 71
     0
  1
AcDbOsnapPointRef
 72
     1
331
99DA
 73
     0
 91
        0
 40
0.0
 10
0.0
 20
0.0
 30
2.000000000000000E+50
 75
     0
  0
LAYOUT
  5
22
102
{ACAD_XDICTIONARY
360
C84A
102
}
102
{ACAD_REACTORS
330
1A
102
}
330
1A
100
AcDbPlotSettings
  1

  2
\\RD\EPSON Stylus C63 Series單色
  4
A4
  6

 40
3.757083177566528
 41
3.757076978683471
 42
3.757080078125
 43
3.757080078125
 44
209.9733276367187
 45
296.9683227539062
 46
0.0
 47
0.0
 48
0.0
 49
0.0
140
0.0
141
0.0
142
1.0
143
0.3405120737814363
 70
 11952
 72
     1
 73
     0
 74
     0
  7
acad.ctb
 75
     0
147
2.936753428137963
148
-2047.07469463503
149
-1261.649717473083
100
AcDbLayout
  1
Model
 70
     1
 71
     0
 10
0.0
 20
0.0
 11
12.0
 21
9.0
 12
0.0
 22
0.0
 32
0.0
 14
0.0
 24
0.0
 34
0.0
 15
0.0
 25
0.0
 35
0.0
146
0.0
 13
0.0
 23
0.0
 33
0.0
 16
1.0
 26
0.0
 36
0.0
 17
0.0
 27
1.0
 37
0.0
 76
     0
330
1F
1001
ACAD_PSEXT
1000
\\RD\EPSON Stylus C63 Series單色
1000
EPSON Stylus C63 Series
1000
\\RD
1000

1070
     0
  0
LAYOUT
  5
1E
102
{ACAD_XDICTIONARY
360
C848
102
}
102
{ACAD_REACTORS
330
1A
102
}
330
1A
100
AcDbPlotSettings
  1

  2

  4

  6

 40
0.0
 41
0.0
 42
0.0
 43
0.0
 44
0.0
 45
0.0
 46
0.0
 47
0.0
 48
0.0
 49
0.0
140
0.0
141
0.0
142
1.0
143
1.0
 70
   688
 72
     0
 73
     0
 74
     5
  7
acad.ctb
 75
    16
147
1.0
148
0.0
149
0.0
100
AcDbLayout
  1
配置1
 70
     1
 71
     1
 10
0.0
 20
0.0
 11
420.0
 21
297.0
 12
0.0
 22
0.0
 32
0.0
 14
1.000000000000000E+20
 24
1.000000000000000E+20
 34
1.000000000000000E+20
 15
-1.000000000000000E+20
 25
-1.000000000000000E+20
 35
-1.000000000000000E+20
146
0.0
 13
0.0
 23
0.0
 33
0.0
 16
1.0
 26
0.0
 36
0.0
 17
0.0
 27
1.0
 37
0.0
 76
     0
330
1B
  0
LAYOUT
  5
26
102
{ACAD_XDICTIONARY
360
C84C
102
}
102
{ACAD_REACTORS
330
1A
102
}
330
1A
100
AcDbPlotSettings
  1

  2

  4

  6

 40
0.0
 41
0.0
 42
0.0
 43
0.0
 44
0.0
 45
0.0
 46
0.0
 47
0.0
 48
0.0
 49
0.0
140
0.0
141
0.0
142
1.0
143
1.0
 70
   688
 72
     0
 73
     0
 74
     5
  7
acad.ctb
 75
    16
147
1.0
148
0.0
149
0.0
100
AcDbLayout
  1
配置2
 70
     1
 71
     2
 10
0.0
 20
0.0
 11
12.0
 21
9.0
 12
0.0
 22
0.0
 32
0.0
 14
0.0
 24
0.0
 34
0.0
 15
0.0
 25
0.0
 35
0.0
146
0.0
 13
0.0
 23
0.0
 33
0.0
 16
1.0
 26
0.0
 36
0.0
 17
0.0
 27
1.0
 37
0.0
 76
     0
330
23
  0
MLINESTYLE
  5
18
102
{ACAD_REACTORS
330
17
102
}
330
17
100
AcDbMlineStyle
  2
STANDARD
 70
     0
  3

 62
   256
 51
90.0
 52
90.0
 71
     2
 49
0.5
 62
   256
  6
BYLAYER
 49
-0.5
 62
   256
  6
BYLAYER
  0
ACDBPLACEHOLDER
  5
F
102
{ACAD_REACTORS
330
E
102
}
330
E
  0
TABLESTYLE
  5
11B
102
{ACAD_REACTORS
330
11A
102
}
330
11A
100
AcDbTableStyle
  3
Standard
 70
     0
 71
     0
 40
1.5
 41
1.5
280
     0
281
     0
  7
STANDARD
140
4.5
170
     2
 62
     0
 63
     7
283
     0
274
    -2
284
     1
 64
     0
275
    -2
285
     1
 65
     0
276
    -2
286
     1
 66
     0
277
    -2
287
     1
 67
     0
278
    -2
288
     1
 68
     0
279
    -2
289
     1
 69
     0
  7
STANDARD
140
6.0
170
     5
 62
     0
 63
     7
283
     0
274
    -2
284
     1
 64
     0
275
    -2
285
     1
 65
     0
276
    -2
286
     1
 66
     0
277
    -2
287
     1
 67
     0
278
    -2
288
     1
 68
     0
279
    -2
289
     1
 69
     0
  7
STANDARD
140
4.5
170
     5
 62
     0
 63
     7
283
     0
274
    -2
284
     1
 64
     0
275
    -2
285
     1
 65
     0
276
    -2
286
     1
 66
     0
277
    -2
287
     1
 67
     0
278
    -2
288
     1
 68
     0
279
    -2
289
     1
 69
     0
  0
DICTIONARYVAR
  5
138
102
{ACAD_REACTORS
330
94
102
}
330
94
100
DictionaryVariables
280
     0
  1
STANDARD
  0
DICTIONARYVAR
  5
96
102
{ACAD_REACTORS
330
94
102
}
330
94
100
DictionaryVariables
280
     0
  1
2
  0
DICTIONARYVAR
  5
95
102
{ACAD_REACTORS
330
94
102
}
330
94
100
DictionaryVariables
280
     0
  1
1
  0
DICTIONARYVAR
  5
1BA0
102
{ACAD_REACTORS
330
94
102
}
330
94
100
DictionaryVariables
280
     0
  1

  0
DICTIONARY
  5
1B5
102
{ACAD_REACTORS
330
5B
102
}
330
5B
100
AcDbDictionary
281
     1
  0
DICTIONARY
  5
61
102
{ACAD_REACTORS
330
5B
102
}
330
5B
100
AcDbDictionary
281
     1
  0
XRECORD
  5
123
102
{ACAD_REACTORS
330
5B
102
}
330
5B
100
AcDbXrecord
280
     1
 90
-1023410169
  0
DICTIONARY
  5
7C17
102
{ACAD_REACTORS
330
41
102
}
330
41
100
AcDbDictionary
281
     1
  3
DWGSETTINGS
350
7C18
  3
Shaft
350
8D15
  3
TRANSSETTINGS
350
7C1B
  0
XRECORD
  5
AFCB
102
{ACAD_REACTORS
330
AFCA
102
}
330
AFCA
100
AcDbXrecord
280
     1
330
0
330
0
330
0
330
0
330
0
330
0
330
0
330
0
330
0
330
0
330
0
330
0
330
0
330
0
330
0
330
0
330
0
330
0
330
0
330
0
330
0
330
0
330
0
330
0
330
0
330
0
330
0
330
0
330
0
330
0
330
0
330
0
330
0
330
0
330
0
330
0
330
0
330
0
330
0
330
0
330
0
330
0
330
0
330
0
330
0
  0
LAYER_INDEX
  5
B066
102
{ACAD_REACTORS
330
B065
102
}
330
B065
100
AcDbIndex
 40
2456140.35813169
100
AcDbLayerIndex
  8
0
360
B067
 90
      245
  8
Defpoints
360
B068
 90
        0
  8
AM_5
360
B069
 90
        0
  8
AM_4
360
B06A
 90
        0
  8
AM_VIS
360
B06B
 90
        1
  8
AM_HID
360
B06C
 90
        0
  8
AM_7
360
B06D
 90
        2
  8
LOGO
360
B06E
 90
       90
  8
AM_REFDIM
360
B06F
 90
       15
  8
CEN
360
B070
 90
        0
  8
HATCH
360
B071
 90
        0
  8
SL
360
B072
 90
        0
  8
AM_10
360
B073
 90
        0
  0
DICTIONARY
  5
C84A
330
22
100
AcDbDictionary
280
     1
281
     1
  3
ACAD_XREC_ROUNDTRIP
360
C84B
  0
DICTIONARY
  5
C848
330
1E
100
AcDbDictionary
280
     1
281
     1
  3
ACAD_XREC_ROUNDTRIP
360
C849
  0
DICTIONARY
  5
C84C
330
26
100
AcDbDictionary
280
     1
281
     1
  3
ACAD_XREC_ROUNDTRIP
360
C84D
  0
IDBUFFER
  5
B067
330
0
100
AcDbIdBuffer
330
16B4
330
16B5
330
16B6
330
C42D
330
C42E
330
C42F
330
C430
330
C431
330
C432
330
C433
330
C434
330
C435
330
C436
330
C437
330
C438
330
C439
330
C43A
330
C43B
330
C43C
330
C43D
330
C43E
330
C43F
330
C440
330
C441
330
C442
330
C443
330
C444
330
C445
330
C446
330
C447
330
C448
330
C449
330
C44A
330
C44B
330
C44C
330
C44D
330
C44E
330
C44F
330
C450
330
C451
330
C452
330
C453
330
C454
330
C455
330
C456
330
C457
330
C458
330
C459
330
C45A
330
C45B
330
C45C
330
C45D
330
C45E
330
C45F
330
C460
330
C461
330
C462
330
C463
330
C464
330
C465
330
C466
330
C467
330
C468
330
C469
330
C46A
330
C46B
330
C46C
330
C46D
330
C46E
330
C46F
330
C470
330
C471
330
C472
330
C473
330
C474
330
C475
330
C476
330
C477
330
C478
330
C479
330
C47A
330
C47B
330
C47C
330
C47D
330
C47E
330
C47F
330
C480
330
C481
330
C482
330
C483
330
C484
330
C485
330
C486
330
C487
330
C488
330
C489
330
C48A
330
C48B
330
C48C
330
C48D
330
C48E
330
C48F
330
C490
330
C491
330
C492
330
C493
330
C494
330
C495
330
C496
330
C497
330
C498
330
C499
330
C49A
330
C49B
330
C49C
330
C49D
330
C49E
330
C49F
330
C4A0
330
C4A1
330
C4A2
330
C4A3
330
C4A4
330
C4A5
330
C4A6
330
C4A7
330
C4A8
330
C4A9
330
C4AA
330
C4AB
330
C4AC
330
C4AD
330
C4AE
330
C4AF
330
C4B0
330
C4B1
330
C4B2
330
C4B3
330
C4B4
330
C4B5
330
C4B6
330
C4B7
330
C4B8
330
C4B9
330
C4BA
330
C4BB
330
C4BC
330
C4BD
330
C4BE
330
C4BF
330
C4C0
330
C4C1
330
C4C2
330
C4C3
330
C4C4
330
C4C5
330
C4C6
330
C4C7
330
C4C8
330
C4C9
330
C4CA
330
C4CB
330
C4CC
330
C4CD
330
C4CE
330
C4CF
330
C4D0
330
C4D1
330
C4D2
330
C4D3
330
C4D4
330
C4D5
330
C4D6
330
C4D7
330
C4D8
330
C4D9
330
C4DA
330
C4DB
330
C4DC
330
C4DD
330
C4DE
330
C4DF
330
C4E0
330
C4E1
330
C4E2
330
C4E3
330
C4E4
330
C4E5
330
C4E6
330
C4E7
330
C4E8
330
C4E9
330
C4EA
330
C4EB
330
C4EC
330
C4ED
330
C4EE
330
C4EF
330
C4F0
330
C4F1
330
C4F2
330
C4F3
330
C4F4
330
C4F5
330
C4F6
330
C4F7
330
C4F8
330
C4F9
330
C4FA
330
C4FB
330
C4FC
330
C4FD
330
C4FE
330
C4FF
330
C500
330
C501
330
C502
330
C503
330
C504
330
C505
330
C506
330
C507
330
C508
330
C509
330
C50A
330
C50B
330
C50C
330
C50D
330
C50E
330
C50F
330
C510
330
C511
330
C512
330
C513
330
C514
330
C515
330
C516
330
C517
330
C518
330
C519
330
C51A
330
C51B
330
C51C
330
C51D
330
C51E
  0
IDBUFFER
  5
B068
330
0
100
AcDbIdBuffer
  0
IDBUFFER
  5
B069
330
0
100
AcDbIdBuffer
  0
IDBUFFER
  5
B06A
330
0
100
AcDbIdBuffer
  0
IDBUFFER
  5
B06B
330
0
100
AcDbIdBuffer
330
7BA1
  0
IDBUFFER
  5
B06C
330
0
100
AcDbIdBuffer
  0
IDBUFFER
  5
B06D
330
0
100
AcDbIdBuffer
330
99DA
330
99DB
  0
IDBUFFER
  5
B06E
330
0
100
AcDbIdBuffer
330
1599
330
159A
330
159B
330
159C
330
159D
330
159E
330
159F
330
15A0
330
15A1
330
15A2
330
15A3
330
15A4
330
15A5
330
15A6
330
15A7
330
15A8
330
15A9
330
15AA
330
15AB
330
15AC
330
15AD
330
15AE
330
15AF
330
15B0
330
15B4
330
15B8
330
15B9
330
15BD
330
15BE
330
15BF
330
15C0
330
15C1
330
15C2
330
15C3
330
15C4
330
15C8
330
15CC
330
15D0
330
15D1
330
15D2
330
15D6
330
15D7
330
15D8
330
15D9
330
15DA
330
15DB
330
15DC
330
15DD
330
15DE
330
15DF
330
15E0
330
15E1
330
15E2
330
15E3
330
15E4
330
15E5
330
15E6
330
15E7
330
15E8
330
15E9
330
15EA
330
15EB
330
15EC
330
15ED
330
15EE
330
15F0
330
15F1
330
15F2
330
15F3
330
15F4
330
15F5
330
15F6
330
15F7
330
15F8
330
15F9
330
15FA
330
15FB
330
9C94
330
9C95
330
9C96
330
9C97
330
9C98
330
9C99
330
9C9A
330
9C9B
330
9C9C
330
9C9E
330
9C9F
330
9CA0
330
9CA2
  0
IDBUFFER
  5
B06F
330
0
100
AcDbIdBuffer
330
A516
330
A540
330
A57E
330
A622
330
A67B
330
A6A1
330
A724
330
A77B
330
A7A5
330
A7CB
330
A889
330
A88C
330
A890
330
A895
330
B250
  0
IDBUFFER
  5
B070
330
0
100
AcDbIdBuffer
  0
IDBUFFER
  5
B071
330
0
100
AcDbIdBuffer
  0
IDBUFFER
  5
B072
330
0
100
AcDbIdBuffer
  0
IDBUFFER
  5
B073
330
0
100
AcDbIdBuffer
  0
XRECORD
  5
C84B
102
{ACAD_REACTORS
330
C84A
102
}
330
C84A
100
AcDbXrecord
280
     1
102
SHADEPLOT
 70
     0
102
SHADEPLOTRESLEVEL
 70
     2
102
SHADEPLOTCUSTOMDPI
 70
   300
  0
XRECORD
  5
C849
102
{ACAD_REACTORS
330
C848
102
}
330
C848
100
AcDbXrecord
280
     1
102
SHADEPLOT
 70
     0
102
SHADEPLOTRESLEVEL
 70
     2
102
SHADEPLOTCUSTOMDPI
 70
   300
  0
XRECORD
  5
C84D
102
{ACAD_REACTORS
330
C84C
102
}
330
C84C
100
AcDbXrecord
280
     1
102
SHADEPLOT
 70
     0
102
SHADEPLOTRESLEVEL
 70
     2
102
SHADEPLOTCUSTOMDPI
 70
   300
  0
ENDSEC
  0
EOF
