  0
SECTION
  2
HEADER
  9
$ACADVER
  1
AC1015
  9
$ACADMAINTVER
 70
    20
  9
$DWGCODEPAGE
  3
ANSI_950
  9
$INSBASE
 10
0.0
 20
0.0
 30
0.0
  9
$EXTMIN
 10
636.5888285060369
 20
52.58852823838278
 30
0.0
  9
$EXTMAX
 10
894.002475503786
 20
220.4220294872513
 30
120.2166306851784
  9
$LIMMIN
 10
0.0
 20
0.0
  9
$LIMMAX
 10
420.0
 20
297.0
  9
$ORTHOMODE
 70
     0
  9
$REGENMODE
 70
     1
  9
$FILLMODE
 70
     1
  9
$QTEXTMODE
 70
     0
  9
$MIRRTEXT
 70
     1
  9
$LTSCALE
 40
1.0
  9
$ATTMODE
 70
     1
  9
$TEXTSIZE
 40
3.0
  9
$TRACEWID
 40
1.0
  9
$TEXTSTYLE
  7
STANDARD
  9
$CLAYER
  8
AM_REFDIM
  9
$CELTYPE
  6
ByLayer
  9
$CECOLOR
 62
   256
  9
$CELTSCALE
 40
1.0
  9
$DISPSILH
 70
     0
  9
$DIMSCALE
 40
1.0
  9
$DIMASZ
 40
3.5
  9
$DIMEXO
 40
1.0
  9
$DIMDLI
 40
12.0
  9
$DIMRND
 40
0.0
  9
$DIMDLE
 40
0.0
  9
$DIMEXE
 40
1.0
  9
$DIMTP
 40
0.1
  9
$DIMTM
 40
0.1
  9
$DIMTXT
 40
3.5
  9
$DIMCEN
 40
0.0
  9
$DIMTSZ
 40
0.0
  9
$DIMTOL
 70
     0
  9
$DIMLIM
 70
     0
  9
$DIMTIH
 70
     0
  9
$DIMTOH
 70
     0
  9
$DIMSE1
 70
     0
  9
$DIMSE2
 70
     0
  9
$DIMTAD
 70
     1
  9
$DIMZIN
 70
     8
  9
$DIMBLK
  1

  9
$DIMASO
 70
     1
  9
$DIMSHO
 70
     1
  9
$DIMPOST
  1

  9
$DIMAPOST
  1
"
  9
$DIMALT
 70
     0
  9
$DIMALTD
 70
     2
  9
$DIMALTF
 40
0.0393701
  9
$DIMLFAC
 40
1.0
  9
$DIMTOFL
 70
     1
  9
$DIMTVP
 40
0.0
  9
$DIMTIX
 70
     0
  9
$DIMSOXD
 70
     0
  9
$DIMSAH
 70
     0
  9
$DIMBLK1
  1

  9
$DIMBLK2
  1

  9
$DIMSTYLE
  2
AM_ISO
  9
$DIMCLRD
 70
   256
  9
$DIMCLRE
 70
   256
  9
$DIMCLRT
 70
   256
  9
$DIMTFAC
 40
0.6
  9
$DIMGAP
 40
1.0
  9
$DIMJUST
 70
     0
  9
$DIMSD1
 70
     0
  9
$DIMSD2
 70
     0
  9
$DIMTOLJ
 70
     0
  9
$DIMTZIN
 70
     8
  9
$DIMALTZ
 70
     0
  9
$DIMALTTZ
 70
     0
  9
$DIMUPT
 70
     0
  9
$DIMDEC
 70
     0
  9
$DIMTDEC
 70
     8
  9
$DIMALTU
 70
     2
  9
$DIMALTTD
 70
     2
  9
$DIMTXSTY
  7
STANDARD
  9
$DIMAUNIT
 70
     0
  9
$DIMADEC
 70
     0
  9
$DIMALTRND
 40
0.0
  9
$DIMAZIN
 70
     2
  9
$DIMDSEP
 70
    46
  9
$DIMATFIT
 70
     3
  9
$DIMFRAC
 70
     0
  9
$DIMLDRBLK
  1

  9
$DIMLUNIT
 70
     2
  9
$DIMLWD
 70
    -1
  9
$DIMLWE
 70
    -1
  9
$DIMTMOVE
 70
     0
  9
$LUNITS
 70
     2
  9
$LUPREC
 70
     2
  9
$SKETCHINC
 40
1.0
  9
$FILLETRAD
 40
2.5
  9
$AUNITS
 70
     0
  9
$AUPREC
 70
     0
  9
$MENU
  1
.
  9
$ELEVATION
 40
0.0
  9
$PELEVATION
 40
0.0
  9
$THICKNESS
 40
0.0
  9
$LIMCHECK
 70
     0
  9
$CHAMFERA
 40
0.2
  9
$CHAMFERB
 40
0.2
  9
$CHAMFERC
 40
20.0
  9
$CHAMFERD
 40
0.0
  9
$SKPOLY
 70
     0
  9
$TDCREATE
 40
2454422.344345151
  9
$TDUCREATE
 40
2454422.011011817
  9
$TDUPDATE
 40
2456140.358718530
  9
$TDUUPDATE
 40
2456140.025385197
  9
$TDINDWG
 40
1.1199012847
  9
$TDUSRTIMER
 40
1.1199012847
  9
$USRTIMER
 70
     1
  9
$ANGBASE
 50
0.0
  9
$ANGDIR
 70
     0
  9
$PDMODE
 70
     0
  9
$PDSIZE
 40
0.0
  9
$PLINEWID
 40
0.0
  9
$SPLFRAME
 70
     0
  9
$SPLINETYPE
 70
     6
  9
$SPLINESEGS
 70
     8
  9
$HANDSEED
  5
C2E6
  9
$SURFTAB1
 70
     6
  9
$SURFTAB2
 70
     6
  9
$SURFTYPE
 70
     6
  9
$SURFU
 70
     6
  9
$SURFV
 70
     6
  9
$UCSBASE
  2

  9
$UCSNAME
  2

  9
$UCSORG
 10
0.0
 20
0.0
 30
0.0
  9
$UCSXDIR
 10
1.0
 20
0.0
 30
0.0
  9
$UCSYDIR
 10
0.0
 20
1.0
 30
0.0
  9
$UCSORTHOREF
  2

  9
$UCSORTHOVIEW
 70
     0
  9
$UCSORGTOP
 10
0.0
 20
0.0
 30
0.0
  9
$UCSORGBOTTOM
 10
0.0
 20
0.0
 30
0.0
  9
$UCSORGLEFT
 10
0.0
 20
0.0
 30
0.0
  9
$UCSORGRIGHT
 10
0.0
 20
0.0
 30
0.0
  9
$UCSORGFRONT
 10
0.0
 20
0.0
 30
0.0
  9
$UCSORGBACK
 10
0.0
 20
0.0
 30
0.0
  9
$PUCSBASE
  2

  9
$PUCSNAME
  2

  9
$PUCSORG
 10
0.0
 20
0.0
 30
0.0
  9
$PUCSXDIR
 10
1.0
 20
0.0
 30
0.0
  9
$PUCSYDIR
 10
0.0
 20
1.0
 30
0.0
  9
$PUCSORTHOREF
  2

  9
$PUCSORTHOVIEW
 70
     0
  9
$PUCSORGTOP
 10
0.0
 20
0.0
 30
0.0
  9
$PUCSORGBOTTOM
 10
0.0
 20
0.0
 30
0.0
  9
$PUCSORGLEFT
 10
0.0
 20
0.0
 30
0.0
  9
$PUCSORGRIGHT
 10
0.0
 20
0.0
 30
0.0
  9
$PUCSORGFRONT
 10
0.0
 20
0.0
 30
0.0
  9
$PUCSORGBACK
 10
0.0
 20
0.0
 30
0.0
  9
$USERI1
 70
     0
  9
$USERI2
 70
     0
  9
$USERI3
 70
     0
  9
$USERI4
 70
     0
  9
$USERI5
 70
     0
  9
$USERR1
 40
0.0
  9
$USERR2
 40
0.0
  9
$USERR3
 40
0.0
  9
$USERR4
 40
0.0
  9
$USERR5
 40
0.0
  9
$WORLDVIEW
 70
     1
  9
$SHADEDGE
 70
     3
  9
$SHADEDIF
 70
    70
  9
$TILEMODE
 70
     1
  9
$MAXACTVP
 70
    64
  9
$PINSBASE
 10
0.0
 20
0.0
 30
0.0
  9
$PLIMCHECK
 70
     0
  9
$PEXTMIN
 10
1.000000000000000E+20
 20
1.000000000000000E+20
 30
1.000000000000000E+20
  9
$PEXTMAX
 10
-1.000000000000000E+20
 20
-1.000000000000000E+20
 30
-1.000000000000000E+20
  9
$PLIMMIN
 10
0.0
 20
0.0
  9
$PLIMMAX
 10
420.0
 20
297.0
  9
$UNITMODE
 70
     0
  9
$VISRETAIN
 70
     1
  9
$PLINEGEN
 70
     0
  9
$PSLTSCALE
 70
     1
  9
$TREEDEPTH
 70
  3020
  9
$CMLSTYLE
  2
Standard
  9
$CMLJUST
 70
     0
  9
$CMLSCALE
 40
20.0
  9
$PROXYGRAPHICS
 70
     1
  9
$MEASUREMENT
 70
     1
  9
$CELWEIGHT
370
    -1
  9
$ENDCAPS
280
     0
  9
$JOINSTYLE
280
     0
  9
$LWDISPLAY
290
     0
  9
$INSUNITS
 70
     4
  9
$HYPERLINKBASE
  1

  9
$STYLESHEET
  1
acad.ctb
  9
$XEDIT
290
     1
  9
$CEPSNTYPE
380
     0
  9
$PSTYLEMODE
290
     1
  9
$FINGERPRINTGUID
  2
{B705A112-77C7-4534-AADA-B7988B84DA3D}
  9
$VERSIONGUID
  2
{5A9A6A6E-1F0C-40FC-B807-7713E2B2ED86}
  9
$EXTNAMES
290
     1
  9
$PSVPSCALE
 40
0.0
  9
$OLESTARTUP
290
     0
  0
ENDSEC
  0
SECTION
  2
CLASSES
  0
CLASS
  1
ACDBDICTIONARYWDFLT
  2
AcDbDictionaryWithDefault
  3
ObjectDBX Classes
 90
        0
280
     0
281
     0
  0
CLASS
  1
ACDBPLACEHOLDER
  2
AcDbPlaceHolder
  3
ObjectDBX Classes
 90
        0
280
     0
281
     0
  0
CLASS
  1
LAYOUT
  2
AcDbLayout
  3
ObjectDBX Classes
 90
        0
280
     0
281
     0
  0
CLASS
  1
ACME_DOCUMENT
  2
AcMeDbDoc
  3
AcMeServices
 90
        0
280
     0
281
     0
  0
CLASS
  1
AMGSETTINGSOBJ
  2
AmgSettingsObj
  3
"AcadM|Product Description: AutoCAD Mechanical 2000|Company: Autodesk"
 90
        0
280
     0
281
     0
  0
CLASS
  1
ACMESCOPE
  2
AcMeScope
  3
AcMeServices
 90
        0
280
     0
281
     0
  0
CLASS
  1
ACMECOMMANDHISTORY
  2
AcMeCommandHistory
  3
AcMeServices
 90
        0
280
     0
281
     0
  0
CLASS
  1
ACIMSYSVARMAN
  2
AcImSysVarManager
  3
AcMeServices
 90
        0
280
     0
281
     0
  0
CLASS
  1
ACIMREALSYSVAR
  2
AcImRealSysVar
  3
AcMeServices
 90
        0
280
     0
281
     0
  0
CLASS
  1
ACIMINTSYSVAR
  2
AcImIntSysVar
  3
AcMeServices
 90
        0
280
     0
281
     0
  0
CLASS
  1
ACMEDRAWINGMAN
  2
AcMeDrawingMan
  3
AcMeServices
 90
        0
280
     0
281
     0
  0
CLASS
  1
ACMEVIEW
  2
AcMeView
  3
AcMeServices
 90
        0
280
     0
281
     0
  0
CLASS
  1
ACDBENTITYCACHE
  2
AcMeEntityCache
  3
AcMeServices
 90
        0
280
     0
281
     0
  0
CLASS
  1
GSMANAGER
  2
AcMeGSManager
  3
AcMeServices
 90
        0
280
     0
281
     0
  0
CLASS
  1
AMDTINTERNALREACTOR
  2
AmdtInternalReactor
  3
AcMeServices
 90
        0
280
     0
281
     0
  0
CLASS
  1
ACMESTATEMGR
  2
AcMeStateMgr
  3
AcMeServices
 90
        0
280
     0
281
     0
  0
CLASS
  1
ACGREFMASTER
  2
AcGrefMaster
  3
AcAttribServices
 90
        0
280
     0
281
     0
  0
CLASS
  1
ACME_DATABASE
  2
AcMeDbDatabase
  3
AcMeServices
 90
        0
280
     0
281
     0
  0
CLASS
  1
ACRFINSADJUSTERMGR
  2
AcRfInsAdjusterMgr
  3
AcMeServices
 90
        0
280
     0
281
     0
  0
CLASS
  1
ACGREFACADMASTER
  2
AcGrefacadMaster
  3
AcGrefServices
 90
        0
280
     0
281
     0
  0
CLASS
  1
AMIMASTER
  2
AmiMaster
  3
AmiServices
 90
        0
280
     0
281
     0
  0
CLASS
  1
ACMDATADICTIONARY
  2
AcmDataDictionary
  3
"AcmSymBB|Product Description: AutoCAD Mechanical 2004 DX|Company: Autodesk"
 90
        0
280
     0
281
     0
  0
CLASS
  1
ACMDATAENTRYBLOCK
  2
AcmDataEntryBlock
  3
"AcmSymBB|Product Description: AutoCAD Mechanical 2004 DX|Company: Autodesk"
 90
        0
280
     0
281
     0
  0
CLASS
  1
ACIMSTRSYSVAR
  2
AcImStrSysVar
  3
AcMeServices
 90
        0
280
     0
281
     0
  0
CLASS
  1
ACMSTANDARDISO
  2
AcmStandardISO
  3
"Amdt_StdImp|Product Description: AutoCAD Mechanical 2004 DX|Company: Autodesk"
 90
        0
280
     0
281
     0
  0
CLASS
  1
AMGOBJPROPCFG
  2
AmgObjPropCfg
  3
"AmgLay|Product Description: AutoCAD Mechanical 2000|Company: Autodesk"
 90
        1
280
     0
281
     0
  0
CLASS
  1
AMDTEDGESTANDARDISO
  2
AmdtEdgeStdISO
  3
"Amdt_StdImp|Product Description: AutoCAD Mechanical 2004 DX|Company: Autodesk"
 90
    32768
280
     0
281
     0
  0
CLASS
  1
ACMSURFSTANDARDISO
  2
AcmSurfTextStdISO
  3
"Amdt_StdImp|Product Description: AutoCAD Mechanical 2004 DX|Company: Autodesk"
 90
        0
280
     0
281
     0
  0
CLASS
  1
ACMFCFSTANDARDISO
  2
AcmFCFStdISO
  3
"Amdt_StdImp|Product Description: AutoCAD Mechanical 2004 DX|Company: Autodesk"
 90
        0
280
     0
281
     0
  0
CLASS
  1
ACMWELDSTANDARDISO
  2
AcmWeldingStdISO
  3
"Amdt_StdImp|Product Description: AutoCAD Mechanical 2004 DX|Company: Autodesk"
 90
        0
280
     0
281
     0
  0
CLASS
  1
ACMIDSTANDARDISO
  2
AcmIdStdISO
  3
"Amdt_StdImp|Product Description: AutoCAD Mechanical 2004 DX|Company: Autodesk"
 90
        0
280
     0
281
     0
  0
CLASS
  1
ACMDATUMSTANDARDISO
  2
AcmDatumStdISO
  3
"Amdt_StdImp|Product Description: AutoCAD Mechanical 2004 DX|Company: Autodesk"
 90
        0
280
     0
281
     0
  0
CLASS
  1
ACMBOMSTANDARDISO
  2
AcmBOMStdISO
  3
"Amdt_StdImp|Product Description: AutoCAD Mechanical 2004 DX|Company: Autodesk"
 90
        0
280
     0
281
     0
  0
CLASS
  1
ACMDETAILSTANDARDISO
  2
AmdtDetailSymStdISO
  3
"Amdt_StdImp|Product Description: AutoCAD Mechanical 2004 DX|Company: Autodesk"
 90
        0
280
     0
281
     0
  0
CLASS
  1
ACMSECTIONSTANDARDISO
  2
AmdtSectionSymStdISO
  3
"Amdt_StdImp|Product Description: AutoCAD Mechanical 2004 DX|Company: Autodesk"
 90
        0
280
     0
281
     0
  0
CLASS
  1
ACMCENTERLINESTANDARDISO
  2
AmdtCenterLineStdISO
  3
"Amdt_StdImp|Product Description: AutoCAD Mechanical 2004 DX|Company: Autodesk"
 90
        0
280
     0
281
     0
  0
CLASS
  1
ACMNOTESTANDARDISO
  2
AmdtNoteStdISO
  3
"Amdt_StdImp|Product Description: AutoCAD Mechanical 2004 DX|Company: Autodesk"
 90
        0
280
     0
281
     0
  0
CLASS
  1
ACAMGLAYSTD
  2
AcAmgLayStd
  3
"AcAmgLayStd|Product Description: AutoCAD Mechanical 2000|Company: Autodesk"
 90
        0
280
     0
281
     0
  0
CLASS
  1
ACAMGDIMSTD
  2
AcAmgDimStd
  3
"AcAmgDimStd|Product Description: AutoCAD Mechanical 2000|Company: Autodesk"
 90
        0
280
     0
281
     0
  0
CLASS
  1
ACAMGHOLECHARTSTDISO
  2
AcAmgHoleChartStdISO
  3
ACMSYMBB_MODULE_NAME
 90
        0
280
     0
281
     0
  0
CLASS
  1
ACAMGTITLESTD
  2
AcAmgTitleStd
  3
"TITLEAPP"
 90
        0
280
     0
281
     0
  0
CLASS
  1
LAYER_INDEX
  2
AcDbLayerIndex
  3
ObjectDBX Classes
 90
        0
280
     0
281
     0
  0
CLASS
  1
IDBUFFER
  2
AcDbIdBuffer
  3
ObjectDBX Classes
 90
        0
280
     0
281
     0
  0
CLASS
  1
DICTIONARYVAR
  2
AcDbDictionaryVar
  3
ObjectDBX Classes
 90
        0
280
     0
281
     0
  0
CLASS
  1
AM_DRAWING_MGR
  2
AcDmDwgMgr
  3
AcMechDwgViewMgmt
 90
        0
280
     0
281
     0
  0
CLASS
  1
AM_DWG_DOCUMENT
  2
AcDmDwgDocument
  3
AcMechDwgViewMgmt
 90
        0
280
     0
281
     0
  0
CLASS
  1
AM_DWG_SHEET
  2
AcDmSheet
  3
AcMechDwgViewMgmt
 90
        0
280
     0
281
     0
  0
CLASS
  1
AM_VIEWDIMPARMAP
  2
AcDmViewDimParMap
  3
AcMechDwgViewMgmt
 90
        0
280
     0
281
     0
  0
CLASS
  1
AM_DWGMGR_NAME
  2
AcDmDwgMgrName
  3
AcMechDwgViewMgmt
 90
        0
280
     0
281
     0
  0
CLASS
  1
AMDTMENUSTATEMGR
  2
AmdtMenuStateMgr
  3
McadcomServices
 90
        0
280
     0
281
     0
  0
CLASS
  1
AMDTMCOMMENUSTATE
  2
AmdtMcomMenuState
  3
McadcomServices
 90
        0
280
     0
281
     0
  0
CLASS
  1
MAPIAMMOUDLE
  2
MApiAmModule
  3
MApiAmServices
 90
        0
280
     0
281
     0
  0
CLASS
  1
AMDTADMENUSTATE
  2
AmdtAdMenuState
  3
DesignerServices
 90
        0
280
     0
281
     0
  0
CLASS
  1
ADAPPL
  2
AcAdAppl
  3
DesignerServices
 90
        0
280
     0
281
     0
  0
CLASS
  1
DEPMGR
  2
AcAdDepMgr
  3
DesignerServices
 90
        0
280
     0
281
     0
  0
CLASS
  1
PARAMMGR
  2
AcAdParamMgr
  3
DesignerServices
 90
        0
280
     0
281
     0
  0
CLASS
  1
PARAMSCOPE
  2
AcAdParamScope
  3
DesignerServices
 90
        0
280
     0
281
     0
  0
CLASS
  1
NAMEDAPPL
  2
AcAdNamedAppl
  3
DesignerServices
 90
        0
280
     0
281
     0
  0
CLASS
  1
AMDTDMMENUSTATE
  2
AmdtDmMenuState
  3
AcMechDwgViewMgmt
 90
        0
280
     0
281
     0
  0
CLASS
  1
AMDTAMMENUSTATE
  2
AmdtAmMenuState
  3
DesignerAssemblies
 90
        0
280
     0
281
     0
  0
CLASS
  1
ACAMPROJECT
  2
AcAmProject
  3
DesignerAssemblies
 90
        0
280
     0
281
     0
  0
CLASS
  1
ACAMGRCOMPDEF
  2
AcAmGrCompDef
  3
DesignerAssemblies
 90
        0
280
     0
281
     0
  0
CLASS
  1
ACCMCONTEXT
  2
AcCmContext
  3
DesignerAssemblies
 90
        0
280
     0
281
     0
  0
CLASS
  1
ACAMCOMPDEF
  2
AcAmCompDef
  3
DesignerAssemblies
 90
        0
280
     0
281
     0
  0
CLASS
  1
ACAMCOMPDEFMGR
  2
AcAmCompDefMgr
  3
DesignerAssemblies
 90
        0
280
     0
281
     0
  0
CLASS
  1
AMCONTEXTMGR
  2
AcAmContextMgr
  3
DesignerAssemblies
 90
        0
280
     0
281
     0
  0
CLASS
  1
ACAMCONTEXTMODELER
  2
AcAmContextModeler
  3
DesignerAssemblies
 90
        0
280
     0
281
     0
  0
CLASS
  1
ACMTHREADLINESTANDARDISO
  2
AmdtThreadLineStdISO
  3
"Amdt_StdImp|Product Description: AutoCAD Mechanical 2004 DX|Company: Autodesk"
 90
        0
280
     0
281
     0
  0
CLASS
  1
CATALOGSTATE
  2
AcAmCatalogState
  3
DesignerAssemblies
 90
        0
280
     0
281
     0
  0
CLASS
  1
ACAMGRCOMPDEFSET
  2
AcAmGrCompDefSet
  3
DesignerAssemblies
 90
        0
280
     0
281
     0
  0
CLASS
  1
AMDTBROWSERDBTAB
  2
AmdtBrowserDbTab
  3
McadcomServices
 90
        0
280
     0
281
     0
  0
CLASS
  1
CBROWSERAPPOBJECT
  2
CBrowserAppObject
  3
McadcomServices
 90
        0
280
     0
281
     0
  0
CLASS
  1
DM_PLACEHOLDER
  2
AcDmSelsetPlaceholder
  3
AcMechDwgViewMgmt
 90
        0
280
     0
281
     0
  0
CLASS
  1
TABLESTYLE
  2
AcDbTableStyle
  3
ObjectDBX Classes
 90
     2047
280
     0
281
     0
  0
CLASS
  1
VAACXREFPANELOBJECT
  2
VaAcXREFPanelObject
  3
VAAC_ADDIN
 90
    32768
280
     0
281
     0
  0
CLASS
  1
VAACIMAGEINVENTORY
  2
VaAcImageInventory
  3
VAAC_ADDIN
 90
    32768
280
     0
281
     0
  0
CLASS
  1
AMDTNOTETEMPLATEDB
  2
AmdtNoteTemplateDB
  3
AMDT_STDIMP_MODULE_NAME
 90
        0
280
     0
281
     0
  0
CLASS
  1
ACMBOM
  2
AcmBom
  3
"AcmSymBB|Product Description: AutoCAD Mechanical 2004 DX|Company: Autodesk"
 90
    32768
280
     0
281
     0
  0
CLASS
  1
AMDTFORMULAUPDATEDISPATCHER
  2
AmdtFormulaUpdateDispatcher
  3
AcMeServices
 90
    32768
280
     0
281
     0
  0
CLASS
  1
ACMPARTLIST
  2
AcmPartList
  3
"AcmSymBB|Product Description: AutoCAD Mechanical 2004 DX|Company: Autodesk"
 90
    33791
280
     0
281
     1
  0
CLASS
  1
ACAMGFILTERDAT
  2
AcAmgFilterDat
  3
"AcadM|Product Description: AutoCAD Mechanical 2000|Company: Autodesk"
 90
    32768
280
     0
281
     0
  0
CLASS
  1
DIMASSOC
  2
AcDbDimAssoc
  3
"AcDbDimAssoc|Product Desc:     AcDim ARX App For Dimension|Company:          Autodesk, Inc.|WEB Address:      www.autodesk.com"
 90
        0
280
     0
281
     0
  0
CLASS
  1
SORTENTSTABLE
  2
AcDbSortentsTable
  3
ObjectDBX Classes
 90
        0
280
     0
281
     0
  0
CLASS
  1
STDPART2D
  2
AmgStdPart
  3
"AmgStdPart|Product Description: AutoCAD Mechanical 2000|Company: Autodesk"
 90
    33791
280
     0
281
     1
  0
CLASS
  1
ACAMSTDPCOMPDEF
  2
AcAmStdpCompDef
  3
DesignerAssemblies
 90
    32768
280
     0
281
     0
  0
CLASS
  1
ACRFATTGENMGR
  2
AcRfAttGeneralMgr
  3
AcAttribServices
 90
    32768
280
     0
281
     0
  0
CLASS
  1
ACRFOBJATTMGR
  2
AcRfObjAttGroupMgr
  3
AcAttribServices
 90
    32768
280
     0
281
     0
  0
CLASS
  1
ACRFMCADAPIATTHOLDER
  2
AcRfMCADAPIAttHolder
  3
AcAttribServices
 90
    32768
280
     0
281
     0
  0
CLASS
  1
AMDTSYSATTR
  2
AmdtSystemAttribute
  3
AcAttribServices
 90
    32768
280
     0
281
     0
  0
CLASS
  1
ACAMCOMP
  2
AcAmComp
  3
DesignerAssemblies
 90
    32768
280
     0
281
     0
  0
CLASS
  1
AC_AM_STDP_VIEW_DEF
  2
AcAmStdpViewDef
  3
DesignerAssemblies
 90
    32768
280
     0
281
     0
  0
CLASS
  1
AC_AM_MVD_DEP_MGR
  2
AcAmMVDdepMgr
  3
DesignerAssemblies
 90
    32768
280
     0
281
     0
  0
CLASS
  1
AC_AM_MASTER_VIEW_DEF
  2
AcAmMasterViewDef
  3
DesignerAssemblies
 90
    32768
280
     0
281
     0
  0
CLASS
  1
AC_AM_DIRTY_NODES
  2
AcAmDirtyNodes
  3
DesignerAssemblies
 90
    32768
280
     0
281
     0
  0
CLASS
  1
AC_AM_MAPPER_CACHE
  2
AcAmMapperCache
  3
DesignerAssemblies
 90
    32768
280
     0
281
     0
  0
CLASS
  1
ACAMMVDBACKUPOBJECT
  2
AcAmMVDBackupObject
  3
DesignerAssemblies
 90
    32768
280
     0
281
     0
  0
CLASS
  1
AC_AM_COMP_VIEW_INST
  2
AcAmCompView
  3
DesignerAssemblies
 90
    32768
280
     0
281
     0
  0
CLASS
  1
AC_AM_2D_XREF_MGR
  2
AcAmXrefMgr2d
  3
DesignerAssemblies
 90
    32768
280
     0
281
     0
  0
CLASS
  1
AMDTNOTE
  2
AmdtNote
  3
"AcmSymBB|Product Description: AutoCAD Mechanical 2004 DX|Company: Autodesk"
 90
    33791
280
     0
281
     1
  0
CLASS
  1
AMDTEDGESTANDARDISO13715
  2
AmdtEdgeStdISO13715
  3
"Amdt_StdImp|Product Description: AutoCAD Mechanical 2004 DX|Company: Autodesk"
 90
        0
280
     0
281
     0
  0
CLASS
  1
ASAPP
  2
AcAsAppObject
  3
AutoSurfServices
 90
        0
280
     0
281
     0
  0
CLASS
  1
IM_STATIC_MAN
  2
AcImStaticVarManager
  3
AcMeServices
 90
        0
280
     0
281
     0
  0
CLASS
  1
ACIMDBLSTATICVAR
  2
AcImDblStaticVar
  3
AcMeServices
 90
        0
280
     0
281
     0
  0
CLASS
  1
ACIMSTRSTATICVAR
  2
AcImStrStaticVar
  3
AcMeServices
 90
        0
280
     0
281
     0
  0
CLASS
  1
ACIMINTSTATICVAR
  2
AcImIntStaticVar
  3
AcMeServices
 90
        0
280
     0
281
     0
  0
CLASS
  1
ACASGREFMASTER
  2
AcAsGrefMaster
  3
AutoSurfResolverServices
 90
        0
280
     0
281
     0
  0
CLASS
  1
ACADGREFMODULE
  2
AcAdGrefModule
  3
AdGrefServices
 90
        0
280
     0
281
     0
  0
CLASS
  1
AMDTMAPISURFMOUDULE
  2
AmdtMApiSurfModule
  3
MApiSurfServices
 90
        0
280
     0
281
     0
  0
CLASS
  1
MAPIADMODULE
  2
MApiAdModule
  3
MApiAdServices
 90
        0
280
     0
281
     0
  0
ENDSEC
  0
SECTION
  2
TABLES
  0
TABLE
  2
VPORT
  5
8
330
0
100
AcDbSymbolTable
 70
     3
  0
VPORT
  5
C2DD
330
8
100
AcDbSymbolTableRecord
100
AcDbViewportTableRecord
  2
*Active
 70
     0
 10
0.0
 20
0.0
 11
1.0
 21
1.0
 12
277.407430189077
 22
-165.177081371043
 13
0.0
 23
0.0
 14
2.5
 24
2.5
 15
10.0
 25
10.0
 16
0.0
 26
0.0
 36
1.0
 17
493.6788805944727
 27
316.1094665189255
 37
0.0
 40
249.670599604246
 41
1.263157894736842
 42
50.0
 43
0.0
 44
0.0
 50
0.0
 51
0.0
 71
     0
 72
  2000
 73
     1
 74
     3
 75
     0
 76
     0
 77
     0
 78
     0
281
     0
 65
     0
110
0.0
120
0.0
130
0.0
111
1.0
121
0.0
131
0.0
112
0.0
122
1.0
132
0.0
 79
     0
146
0.0
  0
ENDTAB
  0
TABLE
  2
LTYPE
  5
5
330
0
100
AcDbSymbolTable
 70
    16
  0
LTYPE
  5
14
330
5
100
AcDbSymbolTableRecord
100
AcDbLinetypeTableRecord
  2
ByBlock
 70
     0
  3

 72
    65
 73
     0
 40
0.0
  0
LTYPE
  5
15
330
5
100
AcDbSymbolTableRecord
100
AcDbLinetypeTableRecord
  2
ByLayer
 70
     0
  3

 72
    65
 73
     0
 40
0.0
  0
LTYPE
  5
16
330
5
100
AcDbSymbolTableRecord
100
AcDbLinetypeTableRecord
  2
Continuous
 70
     0
  3
Solid line
 72
    65
 73
     0
 40
0.0
  0
LTYPE
  5
64
330
5
100
AcDbSymbolTableRecord
100
AcDbLinetypeTableRecord
  2
AM_ISO02W050
 70
     0
  3
__ __ __ __ __ __ __ __ __ __ __ __ __ __ __
 72
    65
 73
     2
 40
7.5
 49
6.0
 74
     0
 49
-1.5
 74
     0
  0
LTYPE
  5
65
330
5
100
AcDbSymbolTableRecord
100
AcDbLinetypeTableRecord
  2
AM_ISO08W050
 70
     0
  3
____ . ____ . ____ . ____ . ____ . ____ . ____
 72
    65
 73
     4
 40
18.0
 49
12.0
 74
     0
 49
-1.5
 74
     0
 49
3.0
 74
     0
 49
-1.5
 74
     0
  0
LTYPE
  5
66
330
5
100
AcDbSymbolTableRecord
100
AcDbLinetypeTableRecord
  2
AM_ISO09W050
 70
     0
  3
_____ . . _____ . . _____ . . ____ .. ____
 72
    65
 73
     6
 40
22.5
 49
12.0
 74
     0
 49
-1.5
 74
     0
 49
3.0
 74
     0
 49
-1.5
 74
     0
 49
3.0
 74
     0
 49
-1.5
 74
     0
  0
LTYPE
  5
67
330
5
100
AcDbSymbolTableRecord
100
AcDbLinetypeTableRecord
  2
Amconstr
 70
     0
  3
_______________________
 72
    65
 73
     2
 40
9999.0
 49
9999.0
 74
     0
 49
0.0
 74
     0
  0
LTYPE
  5
68
330
5
100
AcDbSymbolTableRecord
100
AcDbLinetypeTableRecord
  2
AM_ISO08W050x2
 70
     0
  3
__ . __ . __ . __ . __ . __
 72
    65
 73
     4
 40
9.0
 49
6.0
 74
     0
 49
-0.75
 74
     0
 49
1.5
 74
     0
 49
-0.75
 74
     0
  0
LTYPE
  5
69
330
5
100
AcDbSymbolTableRecord
100
AcDbLinetypeTableRecord
  2
AM_ISO02W050x2
 70
     0
  3
 _ _ _ _ _ _ _ _ _ _ _ _
 72
    65
 73
     2
 40
3.75
 49
3.0
 74
     0
 49
-0.75
 74
     0
  0
LTYPE
  5
6C
330
5
100
AcDbSymbolTableRecord
100
AcDbLinetypeTableRecord
  2
Amzigzag
 70
     0
  3
/\/-/\/-/\/-/\/-/\/-/\/
 72
    65
 73
     2
 40
11.0001
 49
0.0001
 74
     4
 75
   135
340
6B
 46
0.04
 50
0.0
 44
0.0
 45
0.0
 49
-11.0
 74
     0
  0
LTYPE
  5
7A
330
5
100
AcDbSymbolTableRecord
100
AcDbLinetypeTableRecord
  2
ACISOWELD
 70
     0
  3
_ _ _ _ _
 72
    65
 73
     2
 40
2.0
 49
2.0
 74
     0
 49
-1.0
 74
     0
  0
LTYPE
  5
7B
330
5
100
AcDbSymbolTableRecord
100
AcDbLinetypeTableRecord
  2
ACISOTGB
 70
     0
  3
__ . . __ . .
 72
    65
 73
     6
 40
9.0
 49
4.0
 74
     0
 49
-1.0
 74
     0
 49
1.0
 74
     0
 49
-1.0
 74
     0
 49
1.0
 74
     0
 49
-1.0
 74
     0
  0
LTYPE
  5
7C
330
5
100
AcDbSymbolTableRecord
100
AcDbLinetypeTableRecord
  2
ACISOTGL
 70
     0
  3
_ _ _ _ _
 72
    65
 73
     2
 40
3.0
 49
2.0
 74
     0
 49
-1.0
 74
     0
  0
LTYPE
  5
7E
330
5
100
AcDbSymbolTableRecord
100
AcDbLinetypeTableRecord
  2
CENTER
 70
     0
  3
__ . __
 72
    65
 73
     4
 40
7.0
 49
4.0
 74
     0
 49
-1.0
 74
     0
 49
1.0
 74
     0
 49
-1.0
 74
     0
  0
LTYPE
  5
D8
330
5
100
AcDbSymbolTableRecord
100
AcDbLinetypeTableRecord
  2
HIDDEN
 70
     0
  3
Hidden __ __ __ __ __ __ __ __ __ __ __ __ __ _
 72
    65
 73
     2
 40
9.524999999999998
 49
6.349999999999999
 74
     0
 49
-3.174999999999999
 74
     0
  0
LTYPE
  5
D9
330
5
100
AcDbSymbolTableRecord
100
AcDbLinetypeTableRecord
  2
PHANTOM2
 70
     0
  3
Phantom (.5x) ___ _ _ ___ _ _ ___ _ _ ___ _ _
 72
    65
 73
     6
 40
31.75
 49
15.875
 74
     0
 49
-3.174999999999999
 74
     0
 49
3.174999999999999
 74
     0
 49
-3.174999999999999
 74
     0
 49
3.174999999999999
 74
     0
 49
-3.174999999999999
 74
     0
  0
LTYPE
  5
7C98
330
5
100
AcDbSymbolTableRecord
100
AcDbLinetypeTableRecord
  2
ASULTYPE
 70
     0
  3
實線
 72
    65
 73
     2
 40
3.0
 49
2.5
 74
     0
 49
0.5
 74
     0
  0
LTYPE
  5
7C99
330
5
100
AcDbSymbolTableRecord
100
AcDbLinetypeTableRecord
  2
ASVLTYPE
 70
     0
  3
__ __ __ __ __ __ __ __ __ __ __ __ __ __ __ __ __ __ __ __ __
 72
    65
 73
     2
 40
0.75
 49
0.5
 74
     0
 49
-0.25
 74
     0
  0
ENDTAB
  0
TABLE
  2
LAYER
  5
2
102
{ACAD_XDICTIONARY
360
3F9
102
}
330
0
100
AcDbSymbolTable
 70
    13
  0
LAYER
  5
10
330
2
100
AcDbSymbolTableRecord
100
AcDbLayerTableRecord
  2
0
 70
     0
 62
     7
  6
Continuous
370
    -3
390
F
  0
LAYER
  5
C92
330
2
100
AcDbSymbolTableRecord
100
AcDbLayerTableRecord
  2
Defpoints
 70
     0
 62
     7
  6
Continuous
290
     0
370
    -3
390
F
  0
LAYER
  5
C93
330
2
100
AcDbSymbolTableRecord
100
AcDbLayerTableRecord
  2
AM_5
 70
     0
 62
     3
  6
Continuous
370
    25
390
F
  0
LAYER
  5
C94
330
2
100
AcDbSymbolTableRecord
100
AcDbLayerTableRecord
  2
AM_4
 70
     0
 62
     3
  6
Continuous
370
    25
390
F
  0
LAYER
  5
C95
330
2
100
AcDbSymbolTableRecord
100
AcDbLayerTableRecord
  2
AM_VIS
 70
     0
 62
     7
  6
Continuous
370
    50
390
F
  0
LAYER
  5
C96
330
2
100
AcDbSymbolTableRecord
100
AcDbLayerTableRecord
  2
AM_HID
 70
     0
 62
     3
  6
AM_ISO02W050x2
370
    25
390
F
  0
LAYER
  5
C97
330
2
100
AcDbSymbolTableRecord
100
AcDbLayerTableRecord
  2
AM_7
 70
     0
 62
     1
  6
CENTER
370
    25
390
F
  0
LAYER
  5
C99
330
2
100
AcDbSymbolTableRecord
100
AcDbLayerTableRecord
  2
LOGO
 70
     0
 62
     7
  6
Continuous
370
    -3
390
F
  0
LAYER
  5
2AA5
330
2
100
AcDbSymbolTableRecord
100
AcDbLayerTableRecord
  2
AM_REFDIM
 70
     0
 62
     5
  6
Continuous
370
    25
390
F
  0
LAYER
  5
79D1
330
2
100
AcDbSymbolTableRecord
100
AcDbLayerTableRecord
  2
CEN
 70
     0
 62
     1
  6
CENTER
370
    -3
390
F
  0
LAYER
  5
79D3
330
2
100
AcDbSymbolTableRecord
100
AcDbLayerTableRecord
  2
HATCH
 70
     0
 62
     4
  6
Continuous
370
    -3
390
F
  0
LAYER
  5
7BB8
330
2
100
AcDbSymbolTableRecord
100
AcDbLayerTableRecord
  2
SL
 70
     0
 62
     2
  6
Continuous
370
    -3
390
F
1001
AcAecLayerStandard
1000

1000

  0
LAYER
  5
7DF7
330
2
100
AcDbSymbolTableRecord
100
AcDbLayerTableRecord
  2
AM_10
 70
     0
 62
     7
  6
AM_ISO08W050
370
    50
390
F
  0
ENDTAB
  0
TABLE
  2
STYLE
  5
3
330
0
100
AcDbSymbolTable
 70
     6
  0
STYLE
  5
11
330
3
100
AcDbSymbolTableRecord
100
AcDbTextStyleTableRecord
  2
STANDARD
 70
     0
 40
0.0
 41
1.0
 50
0.0
 71
     0
 42
3.0
  3
ISOCP.SHX
  4
CHINESET.SHX
  0
STYLE
  5
6B
330
3
100
AcDbSymbolTableRecord
100
AcDbTextStyleTableRecord
  2

 70
     1
 40
0.0
 41
1.0
 50
0.0
 71
     0
 42
2.5
  3
ltypeshp.shx
  4

  0
STYLE
  5
6D
330
3
100
AcDbSymbolTableRecord
100
AcDbTextStyleTableRecord
  2
ACISOTS
 70
     0
 40
1.0
 41
1.0
 50
0.0
 71
     0
 42
1.0
  3
isocp.shx
  4
chineset.shx
  0
STYLE
  5
79
330
3
100
AcDbSymbolTableRecord
100
AcDbTextStyleTableRecord
  2
ACISOGDT
 70
     0
 40
0.0
 41
1.0
 50
0.0
 71
     0
 42
2.5
  3
amgdt.shx
  4
chineset.shx
  0
STYLE
  5
C9B
330
3
100
AcDbSymbolTableRecord
100
AcDbTextStyleTableRecord
  2
CHINESET
 70
     0
 40
0.0
 41
1.0
 50
0.0
 71
     0
 42
2.5
  3
simplex.shx
  4
CHINESET.shx
  0
STYLE
  5
7DF8
330
3
100
AcDbSymbolTableRecord
100
AcDbTextStyleTableRecord
  2
DAYUS
 70
     0
 40
0.0
 41
1.0
 50
0.0
 71
     0
 42
2.0
  3
simplex.shx
  4
dayus.shx
  0
ENDTAB
  0
TABLE
  2
VIEW
  5
6
330
0
100
AcDbSymbolTable
 70
     0
  0
ENDTAB
  0
TABLE
  2
UCS
  5
7
330
0
100
AcDbSymbolTable
 70
     0
  0
ENDTAB
  0
TABLE
  2
APPID
  5
9
330
0
100
AcDbSymbolTable
 70
    39
  0
APPID
  5
12
330
9
100
AcDbSymbolTableRecord
100
AcDbRegAppTableRecord
  2
ACAD
 70
     0
  0
APPID
  5
46
330
9
100
AcDbSymbolTableRecord
100
AcDbRegAppTableRecord
  2
MCAD_NO_VIS
 70
     0
  0
APPID
  5
47
330
9
100
AcDbSymbolTableRecord
100
AcDbRegAppTableRecord
  2
ACAD_TEMP_GRAPHIC
 70
     0
  0
APPID
  5
58
330
9
100
AcDbSymbolTableRecord
100
AcDbRegAppTableRecord
  2
ACATTRIBSERVICES
 70
     0
  0
APPID
  5
EE
330
9
100
AcDbSymbolTableRecord
100
AcDbRegAppTableRecord
  2
AD_DRAW
 70
     0
  0
APPID
  5
10C
330
9
100
AcDbSymbolTableRecord
100
AcDbRegAppTableRecord
  2
DESIGNERASSEMBLIES
 70
     0
  0
APPID
  5
111
330
9
100
AcDbSymbolTableRecord
100
AcDbRegAppTableRecord
  2
ACADM_DIM_EDIT
 70
     0
  0
APPID
  5
112
330
9
100
AcDbSymbolTableRecord
100
AcDbRegAppTableRecord
  2
AMDT_DM_ADJ
 70
     0
  0
APPID
  5
22C
330
9
100
AcDbSymbolTableRecord
100
AcDbRegAppTableRecord
  2
ACAD_DSTYLE_DIMTEXT_FILL
 70
     0
  0
APPID
  5
452
330
9
100
AcDbSymbolTableRecord
100
AcDbRegAppTableRecord
  2
GENIUS_GENOENT_13
 70
     0
  0
APPID
  5
453
330
9
100
AcDbSymbolTableRecord
100
AcDbRegAppTableRecord
  2
GENIUS_GENOBJ-N-CRS_13
 70
     0
  0
APPID
  5
454
330
9
100
AcDbSymbolTableRecord
100
AcDbRegAppTableRecord
  2
GENIUS_GENOLIS_13
 70
     0
  0
APPID
  5
455
330
9
100
AcDbSymbolTableRecord
100
AcDbRegAppTableRecord
  2
GENIUS_GENODEF_13
 70
     0
  0
APPID
  5
456
330
9
100
AcDbSymbolTableRecord
100
AcDbRegAppTableRecord
  2
GENIUS_GENOREF_13
 70
     0
  0
APPID
  5
6F3
330
9
100
AcDbSymbolTableRecord
100
AcDbRegAppTableRecord
  2
ACAD_PSEXT
 70
     0
  0
APPID
  5
808
330
9
100
AcDbSymbolTableRecord
100
AcDbRegAppTableRecord
  2
GENIUS_GENDTOL_13
 70
     0
  0
APPID
  5
C9C
330
9
100
AcDbSymbolTableRecord
100
AcDbRegAppTableRecord
  2
GENIUS_GENOBJ-N-CEN_13
 70
     0
  0
APPID
  5
C9D
330
9
100
AcDbSymbolTableRecord
100
AcDbRegAppTableRecord
  2
GENIUS_GENCEN_19
 70
     0
  0
APPID
  5
C9E
330
9
100
AcDbSymbolTableRecord
100
AcDbRegAppTableRecord
  2
GENIUS_GENREC_14
 70
     0
  0
APPID
  5
C9F
330
9
100
AcDbSymbolTableRecord
100
AcDbRegAppTableRecord
  2
GENIUS_GENOBJ-N-REC_13
 70
     0
  0
APPID
  5
18AD
330
9
100
AcDbSymbolTableRecord
100
AcDbRegAppTableRecord
  2
GEVID1195260822
 70
     0
  0
APPID
  5
18AE
330
9
100
AcDbSymbolTableRecord
100
AcDbRegAppTableRecord
  2
GEVDC
 70
     0
  0
APPID
  5
18AF
330
9
100
AcDbSymbolTableRecord
100
AcDbRegAppTableRecord
  2
GEVRADREF
 70
     0
  0
APPID
  5
18B8
330
9
100
AcDbSymbolTableRecord
100
AcDbRegAppTableRecord
  2
AMG_2DHIDE
 70
     0
  0
APPID
  5
18B9
330
9
100
AcDbSymbolTableRecord
100
AcDbRegAppTableRecord
  2
AMG_2DSTRUCT_BTR
 70
     0
  0
APPID
  5
18CA
330
9
100
AcDbSymbolTableRecord
100
AcDbRegAppTableRecord
  2
ACADM_2DVIEW_IGN_NOTIFY
 70
     0
  0
APPID
  5
3621
330
9
100
AcDbSymbolTableRecord
100
AcDbRegAppTableRecord
  2
GENIUS_GENDIMSH_14
 70
     0
  0
APPID
  5
3FD8
330
9
100
AcDbSymbolTableRecord
100
AcDbRegAppTableRecord
  2
AD_SKETCHDIM
 70
     0
  0
APPID
  5
42D5
330
9
100
AcDbSymbolTableRecord
100
AcDbRegAppTableRecord
  2
ACAD_DSTYLE_DIMEXT_LENGTH
 70
     0
  0
APPID
  5
42D6
330
9
100
AcDbSymbolTableRecord
100
AcDbRegAppTableRecord
  2
ACAD_DSTYLE_DIMEXT_ENABLED
 70
     0
  0
APPID
  5
42D7
330
9
100
AcDbSymbolTableRecord
100
AcDbRegAppTableRecord
  2
ACAD_DSTYLE_DIM_EXT1_LINETYPE
 70
     0
  0
APPID
  5
42D8
330
9
100
AcDbSymbolTableRecord
100
AcDbRegAppTableRecord
  2
ACAD_DSTYLE_DIMJOGGED_JOGANGLE_SYMBOL
 70
     0
  0
APPID
  5
42D9
330
9
100
AcDbSymbolTableRecord
100
AcDbRegAppTableRecord
  2
ACAD_DSTYLE_DIMARC_LENGTH_SYMBOL
 70
     0
  0
APPID
  5
5E72
330
9
100
AcDbSymbolTableRecord
100
AcDbRegAppTableRecord
  2
AcAecLayerStandard
 70
     0
  0
APPID
  5
7C19
330
9
100
AcDbSymbolTableRecord
100
AcDbRegAppTableRecord
  2
GENIUS_GENDIM_13
 70
     0
  0
APPID
  5
7C1A
330
9
100
AcDbSymbolTableRecord
100
AcDbRegAppTableRecord
  2
GENIUS_GE3DTOL_13
 70
     0
  0
APPID
  5
7C9A
330
9
100
AcDbSymbolTableRecord
100
AcDbRegAppTableRecord
  2
ASURF_PCURVE_APPNAME
 70
     0
  0
APPID
  5
7C9F
330
9
100
AcDbSymbolTableRecord
100
AcDbRegAppTableRecord
  2
AMG_3D2D_5.0
 70
     0
  0
APPID
  5
A993
330
9
100
AcDbSymbolTableRecord
100
AcDbRegAppTableRecord
  2
DCO15
 70
     0
  0
ENDTAB
  0
TABLE
  2
DIMSTYLE
  5
A
330
0
100
AcDbSymbolTable
 70
    16
100
AcDbDimStyleTable
 71
     3
340
81
340
8B
340
86
  0
DIMSTYLE
105
81
330
A
100
AcDbSymbolTableRecord
100
AcDbDimStyleTableRecord
  2
AM_ISO
 70
     0
  4
"
 41
3.5
 42
1.0
 43
8.0
 44
1.0
 47
0.1
 48
0.1
 73
     0
 74
     0
 77
     1
 78
     8
 79
     2
140
3.5
141
0.0
143
0.0393701
146
0.6
147
1.0
172
     1
176
   256
177
   256
178
   256
271
     2
272
     2
283
     0
284
     8
340
11
371
    -1
372
    -1
  0
DIMSTYLE
105
82
330
A
100
AcDbSymbolTableRecord
100
AcDbDimStyleTableRecord
  2
AM_ISO$3
 70
     0
  4
"
 41
3.5
 42
1.0
 43
8.0
 44
1.0
 47
0.1
 48
0.1
 73
     0
 77
     1
 78
     8
 79
     2
140
3.5
141
0.0
143
0.0393701
146
0.6
147
1.0
176
   256
177
   256
178
   256
271
     2
272
     2
283
     0
284
     8
288
     1
289
     0
340
11
371
    -1
372
    -1
  0
DIMSTYLE
105
83
330
A
100
AcDbSymbolTableRecord
100
AcDbDimStyleTableRecord
  2
AM_ISO$4
 70
     0
  4
"
 41
3.5
 42
1.0
 43
8.0
 44
1.0
 47
0.1
 48
0.1
 73
     0
 77
     1
 78
     8
 79
     2
140
3.5
141
0.0
143
0.0393701
146
0.6
147
1.0
176
   256
177
   256
178
   256
271
     2
272
     2
283
     0
284
     8
288
     1
289
     0
340
11
371
    -1
372
    -1
  0
DIMSTYLE
105
84
330
A
100
AcDbSymbolTableRecord
100
AcDbDimStyleTableRecord
  2
AM_ISO$6
 70
     0
  4
"
 41
3.5
 42
1.0
 43
8.0
 44
1.0
 47
0.1
 48
0.1
 73
     0
 74
     0
 78
     8
 79
     2
140
3.5
141
0.0
143
0.0393701
146
0.6
147
1.0
172
     1
176
   256
177
   256
178
   256
271
     2
272
     2
283
     0
284
     8
340
11
371
    -1
372
    -1
  0
DIMSTYLE
105
85
330
A
100
AcDbSymbolTableRecord
100
AcDbDimStyleTableRecord
  2
AM_ISO$7
 70
     0
  4
"
 41
3.5
 42
1.0
 43
8.0
 44
1.0
 47
0.1
 48
0.1
 73
     0
 74
     0
 77
     1
 78
     8
 79
     2
140
3.5
141
0.0
143
0.0393701
146
0.6
147
1.0
172
     1
176
   256
177
   256
178
   256
271
     2
272
     2
283
     0
284
     8
340
11
371
    -1
372
    -1
  0
DIMSTYLE
105
86
330
A
100
AcDbSymbolTableRecord
100
AcDbDimStyleTableRecord
  2
AM_ISO$SF
 70
     0
  4
"
 41
2.5
 42
1.0
 43
10.0
 44
1.0
 47
0.1
 48
0.1
 73
     0
 74
     0
 75
     1
 76
     1
 77
     1
 78
     8
 79
     2
140
3.5
141
0.0
143
0.0393701
146
0.71
147
1.5
172
     1
176
   256
177
   256
178
     2
271
     2
272
     3
274
     4
283
     0
284
     8
340
11
371
    -1
372
    -1
  0
DIMSTYLE
105
8B
330
A
100
AcDbSymbolTableRecord
100
AcDbDimStyleTableRecord
  2
AM_ISO$SH
 70
     0
  4
"
 41
2.5
 42
1.0
 43
10.0
 44
1.0
 47
0.1
 48
0.1
 73
     0
 74
     0
 75
     1
 76
     1
 77
     1
 78
     8
 79
     2
140
3.5
141
0.0
143
0.0393701
144
2.0
146
0.71
147
1.5
172
     1
173
     1
176
   256
177
   256
178
     2
271
     2
272
     3
274
     4
283
     0
284
     8
340
11
343
87
371
    -1
372
    -1
  0
DIMSTYLE
105
40B
102
{ACAD_REACTORS
330
A57E
330
A516
330
A540
330
A622
330
A724
330
A67B
330
A6A1
330
A7A5
330
A77B
330
A7CB
330
B250
102
}
330
A
100
AcDbSymbolTableRecord
100
AcDbDimStyleTableRecord
  2
AM_ISO$0
 70
     0
  4
"
 41
3.5
 42
1.0
 43
8.0
 44
1.0
 47
0.1
 48
0.1
 73
     0
 74
     0
 77
     1
 78
     8
 79
     2
140
3.5
141
0.0
143
0.0393701
146
0.6
147
1.0
172
     1
176
   256
177
   256
178
   256
271
     2
272
     2
283
     0
284
     8
340
11
371
    -1
372
    -1
  0
DIMSTYLE
105
2AAB
330
A
100
AcDbSymbolTableRecord
100
AcDbDimStyleTableRecord
  2
AM_ISO$SH$3
 70
     0
  4
"
 40
1.3
 41
2.5
 42
1.0
 43
10.0
 44
1.0
 47
0.1
 48
0.1
 73
     0
 74
     0
 75
     1
 76
     1
 77
     1
 78
     8
 79
     2
140
3.5
141
0.0
143
0.0393701
144
2.0
146
0.71
147
1.5
172
     1
173
     1
176
   256
177
   256
178
     2
271
     2
272
     3
274
     4
283
     0
284
     8
340
11
343
87
371
    -1
372
    -1
  0
DIMSTYLE
105
3FD7
330
A
100
AcDbSymbolTableRecord
100
AcDbDimStyleTableRecord
  2
AM_ISO$2
 70
     0
  4
"
 41
2.5
 42
1.0
 43
10.0
 44
1.0
 47
0.1
 48
0.1
 73
     0
 74
     0
 77
     1
 78
     8
 79
     2
140
3.5
141
0.0
143
0.0393701
146
0.71
147
1.5
172
     1
176
   256
177
   256
178
     2
271
     2
272
     3
274
     4
283
     0
284
     8
340
11
371
    -1
372
    -1
  0
DIMSTYLE
105
6430
330
A
100
AcDbSymbolTableRecord
100
AcDbDimStyleTableRecord
  2
AM_ISO$SH$0
 70
     0
  4
"
 40
1.5
 41
2.5
 42
1.0
 43
10.0
 44
1.0
 47
0.1
 48
0.1
 73
     0
 74
     0
 75
     1
 76
     1
 77
     1
 78
     8
 79
     2
140
3.5
141
0.0
143
0.0393701
144
2.0
146
0.71
147
1.5
172
     1
173
     1
176
   256
177
   256
178
     2
271
     2
272
     3
274
     4
283
     0
284
     8
340
11
343
87
371
    -1
372
    -1
  0
DIMSTYLE
105
7DF9
330
A
100
AcDbSymbolTableRecord
100
AcDbDimStyleTableRecord
  2
STANDARD
 70
     0
 41
2.5
 42
0.625
 43
3.75
 44
1.25
 73
     0
 74
     0
 77
     1
 78
     8
140
2.5
141
2.5
143
0.0394
147
0.625
171
     4
172
     1
273
     8
274
     4
277
     6
340
11
  0
DIMSTYLE
105
7DFA
330
A
100
AcDbSymbolTableRecord
100
AcDbDimStyleTableRecord
  2
AM_ANSI
 70
     0
  4
mm
 41
0.1
 42
0.05
 43
0.5
 44
0.1
 47
0.1
 48
0.1
 78
     7
 79
     2
140
0.12
141
0.0
146
0.71
147
0.06
176
   256
177
   256
178
     2
274
     4
284
     7
340
11
371
    -1
372
    -1
  0
DIMSTYLE
105
7DFB
330
A
100
AcDbSymbolTableRecord
100
AcDbDimStyleTableRecord
  2
DAYUS
 70
     0
  4
"
 40
0.6666666666666666
 41
3.0
 42
2.0
 43
10.0
 44
1.0
 47
0.1
 48
0.1
 73
     0
 74
     0
 77
     1
 78
     8
 79
     2
140
3.5
141
0.0
143
0.0393701
146
0.71
147
1.5
172
     1
176
   256
177
   256
178
     3
271
     2
272
     8
283
     0
284
     8
340
7DF8
371
    -1
372
    -1
  0
DIMSTYLE
105
857F
330
A
100
AcDbSymbolTableRecord
100
AcDbDimStyleTableRecord
  2
ISO-25$0
 70
     0
 40
5.0
 41
2.5
 42
0.625
 43
3.75
 44
1.25
 73
     0
 74
     0
 77
     1
 78
     8
140
2.5
141
2.5
143
0.03937007874016
147
0.625
171
     3
172
     1
271
     2
272
     2
274
     3
278
    44
283
     0
284
     8
340
11
  0
DIMSTYLE
105
968B
330
A
100
AcDbSymbolTableRecord
100
AcDbDimStyleTableRecord
  2
ISO-25
 70
     0
 41
2.5
 42
0.625
 43
3.75
 44
1.25
 73
     0
 74
     0
 77
     1
 78
     8
140
2.5
141
2.5
143
0.03937007874016
147
0.625
171
     3
172
     1
271
     2
272
     2
274
     3
278
    44
283
     0
284
     8
340
11
  0
ENDTAB
  0
TABLE
  2
BLOCK_RECORD
  5
1
330
0
100
AcDbSymbolTable
 70
    45
  0
BLOCK_RECORD
  5
1F
102
{ACAD_XDICTIONARY
360
8F
102
}
330
1
100
AcDbSymbolTableRecord
100
AcDbBlockTableRecord
  2
*Model_Space
340
22
  0
BLOCK_RECORD
  5
1B
330
1
100
AcDbSymbolTableRecord
100
AcDbBlockTableRecord
  2
*Paper_Space
340
1E
  0
BLOCK_RECORD
  5
23
330
1
100
AcDbSymbolTableRecord
100
AcDbBlockTableRecord
  2
*Paper_Space0
340
26
  0
BLOCK_RECORD
  5
87
330
1
100
AcDbSymbolTableRecord
100
AcDbBlockTableRecord
  2
GENAXEH
340
0
  0
BLOCK_RECORD
  5
7CF2
102
{ACAD_XDICTIONARY
360
7CF3
102
}
330
1
100
AcDbSymbolTableRecord
100
AcDbBlockTableRecord
  2
S2
340
0
1001
ACAD
1000
DesignCenter Data
1002
{
1070
     1
1070
     4
1002
}
  0
BLOCK_RECORD
  5
8569
330
1
100
AcDbSymbolTableRecord
100
AcDbBlockTableRecord
  2
SW_CENTERMARKSYMBOL_0
340
0
  0
BLOCK_RECORD
  5
8574
330
1
100
AcDbSymbolTableRecord
100
AcDbBlockTableRecord
  2
SW_CENTERMARKSYMBOL_1
340
0
  0
BLOCK_RECORD
  5
A517
330
1
100
AcDbSymbolTableRecord
100
AcDbBlockTableRecord
  2
*D6
340
0
  0
BLOCK_RECORD
  5
A541
330
1
100
AcDbSymbolTableRecord
100
AcDbBlockTableRecord
  2
*D7
340
0
  0
BLOCK_RECORD
  5
A57F
330
1
100
AcDbSymbolTableRecord
100
AcDbBlockTableRecord
  2
*D8
340
0
  0
BLOCK_RECORD
  5
A623
330
1
100
AcDbSymbolTableRecord
100
AcDbBlockTableRecord
  2
*D9
340
0
  0
BLOCK_RECORD
  5
A67C
330
1
100
AcDbSymbolTableRecord
100
AcDbBlockTableRecord
  2
*D10
340
0
  0
BLOCK_RECORD
  5
A6A2
330
1
100
AcDbSymbolTableRecord
100
AcDbBlockTableRecord
  2
*D11
340
0
  0
BLOCK_RECORD
  5
A725
330
1
100
AcDbSymbolTableRecord
100
AcDbBlockTableRecord
  2
*D12
340
0
  0
BLOCK_RECORD
  5
A77C
330
1
100
AcDbSymbolTableRecord
100
AcDbBlockTableRecord
  2
*D13
340
0
  0
BLOCK_RECORD
  5
A7A6
330
1
100
AcDbSymbolTableRecord
100
AcDbBlockTableRecord
  2
*D14
340
0
  0
BLOCK_RECORD
  5
A7CC
330
1
100
AcDbSymbolTableRecord
100
AcDbBlockTableRecord
  2
*D15
340
0
  0
BLOCK_RECORD
  5
B251
330
1
100
AcDbSymbolTableRecord
100
AcDbBlockTableRecord
  2
*D16
340
0
  0
BLOCK_RECORD
  5
B2BC
330
1
100
AcDbSymbolTableRecord
100
AcDbBlockTableRecord
  2
SW_CENTERMARKSYMBOL_2
340
0
  0
BLOCK_RECORD
  5
B2C7
330
1
100
AcDbSymbolTableRecord
100
AcDbBlockTableRecord
  2
SW_CENTERMARKSYMBOL_3
340
0
  0
BLOCK_RECORD
  5
B2D2
330
1
100
AcDbSymbolTableRecord
100
AcDbBlockTableRecord
  2
SW_CENTERMARKSYMBOL_4
340
0
  0
BLOCK_RECORD
  5
B2DD
330
1
100
AcDbSymbolTableRecord
100
AcDbBlockTableRecord
  2
SW_CENTERMARKSYMBOL_5
340
0
  0
BLOCK_RECORD
  5
B2E8
330
1
100
AcDbSymbolTableRecord
100
AcDbBlockTableRecord
  2
SW_CENTERMARKSYMBOL_6
340
0
  0
BLOCK_RECORD
  5
B2F3
330
1
100
AcDbSymbolTableRecord
100
AcDbBlockTableRecord
  2
SW_CENTERMARKSYMBOL_7
340
0
  0
BLOCK_RECORD
  5
B2FE
330
1
100
AcDbSymbolTableRecord
100
AcDbBlockTableRecord
  2
SW_CENTERMARKSYMBOL_8
340
0
  0
BLOCK_RECORD
  5
B309
330
1
100
AcDbSymbolTableRecord
100
AcDbBlockTableRecord
  2
SW_CENTERMARKSYMBOL_9
340
0
  0
BLOCK_RECORD
  5
B314
330
1
100
AcDbSymbolTableRecord
100
AcDbBlockTableRecord
  2
SW_CENTERMARKSYMBOL_10
340
0
  0
BLOCK_RECORD
  5
B31F
330
1
100
AcDbSymbolTableRecord
100
AcDbBlockTableRecord
  2
SW_CENTERMARKSYMBOL_11
340
0
  0
BLOCK_RECORD
  5
B32A
330
1
100
AcDbSymbolTableRecord
100
AcDbBlockTableRecord
  2
SW_CENTERMARKSYMBOL_12
340
0
  0
BLOCK_RECORD
  5
B335
330
1
100
AcDbSymbolTableRecord
100
AcDbBlockTableRecord
  2
SW_CENTERMARKSYMBOL_13
340
0
  0
BLOCK_RECORD
  5
B340
330
1
100
AcDbSymbolTableRecord
100
AcDbBlockTableRecord
  2
SW_CENTERMARKSYMBOL_14
340
0
  0
BLOCK_RECORD
  5
B34B
330
1
100
AcDbSymbolTableRecord
100
AcDbBlockTableRecord
  2
SW_CENTERMARKSYMBOL_15
340
0
  0
BLOCK_RECORD
  5
B356
330
1
100
AcDbSymbolTableRecord
100
AcDbBlockTableRecord
  2
SW_CENTERMARKSYMBOL_16
340
0
  0
BLOCK_RECORD
  5
B361
330
1
100
AcDbSymbolTableRecord
100
AcDbBlockTableRecord
  2
SW_CENTERMARKSYMBOL_17
340
0
  0
BLOCK_RECORD
  5
B36C
330
1
100
AcDbSymbolTableRecord
100
AcDbBlockTableRecord
  2
SW_CENTERMARKSYMBOL_18
340
0
  0
BLOCK_RECORD
  5
B377
330
1
100
AcDbSymbolTableRecord
100
AcDbBlockTableRecord
  2
SW_CENTERMARKSYMBOL_19
340
0
  0
BLOCK_RECORD
  5
B382
330
1
100
AcDbSymbolTableRecord
100
AcDbBlockTableRecord
  2
SW_CENTERMARKSYMBOL_20
340
0
  0
BLOCK_RECORD
  5
B38D
330
1
100
AcDbSymbolTableRecord
100
AcDbBlockTableRecord
  2
SW_CENTERMARKSYMBOL_21
340
0
  0
BLOCK_RECORD
  5
B398
330
1
100
AcDbSymbolTableRecord
100
AcDbBlockTableRecord
  2
SW_CENTERMARKSYMBOL_22
340
0
  0
BLOCK_RECORD
  5
B3A3
330
1
100
AcDbSymbolTableRecord
100
AcDbBlockTableRecord
  2
SW_CENTERMARKSYMBOL_23
340
0
  0
BLOCK_RECORD
  5
B3AE
330
1
100
AcDbSymbolTableRecord
100
AcDbBlockTableRecord
  2
SW_CENTERMARKSYMBOL_24
340
0
  0
BLOCK_RECORD
  5
B3B9
330
1
100
AcDbSymbolTableRecord
100
AcDbBlockTableRecord
  2
SW_CENTERMARKSYMBOL_25
340
0
  0
BLOCK_RECORD
  5
B3C4
330
1
100
AcDbSymbolTableRecord
100
AcDbBlockTableRecord
  2
SW_CENTERMARKSYMBOL_26
340
0
  0
BLOCK_RECORD
  5
B3CF
330
1
100
AcDbSymbolTableRecord
100
AcDbBlockTableRecord
  2
SW_CENTERMARKSYMBOL_27
340
0
  0
BLOCK_RECORD
  5
B3DA
330
1
100
AcDbSymbolTableRecord
100
AcDbBlockTableRecord
  2
SW_CENTERMARKSYMBOL_28
340
0
  0
BLOCK_RECORD
  5
B3E5
330
1
100
AcDbSymbolTableRecord
100
AcDbBlockTableRecord
  2
SW_CENTERMARKSYMBOL_29
340
0
  0
ENDTAB
  0
ENDSEC
  0
SECTION
  2
BLOCKS
  0
BLOCK
  5
20
330
1F
100
AcDbEntity
  8
0
100
AcDbBlockBegin
  2
*Model_Space
 70
     0
 10
0.0
 20
0.0
 30
0.0
  3
*Model_Space
  1

  0
ENDBLK
  5
21
330
1F
100
AcDbEntity
  8
0
100
AcDbBlockEnd
  0
BLOCK
  5
1C
330
1B
100
AcDbEntity
 67
     1
  8
0
100
AcDbBlockBegin
  2
*Paper_Space
 70
     0
 10
0.0
 20
0.0
 30
0.0
  3
*Paper_Space
  1

  0
ENDBLK
  5
1D
330
1B
100
AcDbEntity
 67
     1
  8
0
100
AcDbBlockEnd
  0
BLOCK
  5
24
330
23
100
AcDbEntity
  8
0
100
AcDbBlockBegin
  2
*Paper_Space0
 70
     0
 10
0.0
 20
0.0
 30
0.0
  3
*Paper_Space0
  1

  0
ENDBLK
  5
25
330
23
100
AcDbEntity
  8
0
100
AcDbBlockEnd
  0
BLOCK
  5
89
330
87
100
AcDbEntity
  8
0
100
AcDbBlockBegin
  2
GENAXEH
 70
     0
 10
0.0
 20
0.0
 30
0.0
  3
GENAXEH
  1

  0
LINE
  5
88
330
87
100
AcDbEntity
  8
0
100
AcDbLine
 10
-1.0
 20
0.0
 30
0.0
 11
1.0
 21
0.0
 31
0.0
  0
ENDBLK
  5
8A
330
87
100
AcDbEntity
  8
0
100
AcDbBlockEnd
  0
BLOCK
  5
7CF4
330
7CF2
100
AcDbEntity
  8
0
100
AcDbBlockBegin
  2
S2
 70
     0
 10
0.0
 20
0.0
 30
0.0
  3
S2
  1

  0
LINE
  5
7CF5
330
7CF2
100
AcDbEntity
  8
AM_5
100
AcDbLine
 10
0.0000000000000284
 20
4.000000000000028
 30
0.0
 11
4.0
 21
4.0
 31
0.0
  0
LINE
  5
7CF6
330
7CF2
100
AcDbEntity
  8
AM_5
100
AcDbLine
 10
0.0000000000000284
 20
0.0
 30
0.0
 11
4.0
 21
0.0
 31
0.0
  0
TEXT
  5
7CF7
330
7CF2
100
AcDbEntity
  8
AM_5
100
AcDbText
 10
1.099999999999999
 20
0.5
 30
0.0
 40
3.0
  1
2
 41
0.9
  7
DAYUS
 72
     4
 11
2.0
 21
2.0
 31
0.0
100
AcDbText
  0
LINE
  5
7CF8
330
7CF2
100
AcDbEntity
  8
AM_5
100
AcDbLine
 10
0.0
 20
4.0
 30
0.0
 11
0.0
 21
0.0
 31
0.0
  0
LINE
  5
7CF9
330
7CF2
100
AcDbEntity
  8
AM_5
100
AcDbLine
 10
4.0
 20
4.0
 30
0.0
 11
4.0
 21
0.0
 31
0.0
  0
ENDBLK
  5
7CFA
330
7CF2
100
AcDbEntity
  8
0
100
AcDbBlockEnd
  0
BLOCK
  5
856A
330
8569
100
AcDbEntity
  8
0
100
AcDbBlockBegin
  2
SW_CENTERMARKSYMBOL_0
 70
     0
 10
0.0
 20
0.0
 30
0.0
  3
SW_CENTERMARKSYMBOL_0
  1

  0
LINE
  5
856B
330
8569
100
AcDbEntity
  8
0
  6
Continuous
 62
     0
370
     0
100
AcDbLine
 10
0.0
 20
0.0
 30
0.0
 11
0.0
 21
2.500000000000002
 31
0.0
  0
LINE
  5
856C
330
8569
100
AcDbEntity
  8
0
  6
Continuous
 62
     0
370
     0
100
AcDbLine
 10
0.0
 20
0.0
 30
0.0
 11
-2.500000000000002
 21
0.0
 31
0.0
  0
LINE
  5
856D
330
8569
100
AcDbEntity
  8
0
  6
Continuous
 62
     0
370
     0
100
AcDbLine
 10
0.0
 20
0.0
 30
0.0
 11
0.0
 21
-2.500000000000002
 31
0.0
  0
LINE
  5
856E
330
8569
100
AcDbEntity
  8
0
  6
Continuous
 62
     0
370
     0
100
AcDbLine
 10
0.0
 20
0.0
 30
0.0
 11
2.500000000000002
 21
0.0
 31
0.0
  0
LINE
  5
856F
330
8569
100
AcDbEntity
  8
0
  6
Continuous
 62
     0
370
     0
100
AcDbLine
 10
0.0
 20
2.500000000000002
 30
0.0
 11
0.0
 21
4.500000000000003
 31
0.0
  0
LINE
  5
8570
330
8569
100
AcDbEntity
  8
0
  6
Continuous
 62
     0
370
     0
100
AcDbLine
 10
-2.500000000000002
 20
0.0
 30
0.0
 11
-4.500000000000003
 21
0.0
 31
0.0
  0
LINE
  5
8571
330
8569
100
AcDbEntity
  8
0
  6
Continuous
 62
     0
370
     0
100
AcDbLine
 10
0.0
 20
-2.500000000000002
 30
0.0
 11
0.0
 21
-4.500000000000003
 31
0.0
  0
LINE
  5
8572
330
8569
100
AcDbEntity
  8
0
  6
Continuous
 62
     0
370
     0
100
AcDbLine
 10
2.500000000000002
 20
0.0
 30
0.0
 11
4.500000000000003
 21
0.0
 31
0.0
  0
ENDBLK
  5
8573
330
8569
100
AcDbEntity
  8
0
100
AcDbBlockEnd
  0
BLOCK
  5
8575
330
8574
100
AcDbEntity
  8
0
100
AcDbBlockBegin
  2
SW_CENTERMARKSYMBOL_1
 70
     0
 10
0.0
 20
0.0
 30
0.0
  3
SW_CENTERMARKSYMBOL_1
  1

  0
LINE
  5
8576
330
8574
100
AcDbEntity
  8
0
  6
Continuous
 62
     0
370
     0
100
AcDbLine
 10
0.0
 20
0.0
 30
0.0
 11
0.0
 21
2.500000000000002
 31
0.0
  0
LINE
  5
8577
330
8574
100
AcDbEntity
  8
0
  6
Continuous
 62
     0
370
     0
100
AcDbLine
 10
0.0
 20
0.0
 30
0.0
 11
-2.500000000000002
 21
0.0
 31
0.0
  0
LINE
  5
8578
330
8574
100
AcDbEntity
  8
0
  6
Continuous
 62
     0
370
     0
100
AcDbLine
 10
0.0
 20
0.0
 30
0.0
 11
0.0
 21
-2.500000000000002
 31
0.0
  0
LINE
  5
8579
330
8574
100
AcDbEntity
  8
0
  6
Continuous
 62
     0
370
     0
100
AcDbLine
 10
0.0
 20
0.0
 30
0.0
 11
2.500000000000002
 21
0.0
 31
0.0
  0
LINE
  5
857A
330
8574
100
AcDbEntity
  8
0
  6
Continuous
 62
     0
370
     0
100
AcDbLine
 10
0.0
 20
5.000000000000004
 30
0.0
 11
0.0
 21
5.500000000000005
 31
0.0
  0
LINE
  5
857B
330
8574
100
AcDbEntity
  8
0
  6
Continuous
 62
     0
370
     0
100
AcDbLine
 10
-5.000000000000004
 20
0.0
 30
0.0
 11
-5.500000000000005
 21
0.0
 31
0.0
  0
LINE
  5
857C
330
8574
100
AcDbEntity
  8
0
  6
Continuous
 62
     0
370
     0
100
AcDbLine
 10
0.0
 20
-5.000000000000004
 30
0.0
 11
0.0
 21
-5.500000000000005
 31
0.0
  0
LINE
  5
857D
330
8574
100
AcDbEntity
  8
0
  6
Continuous
 62
     0
370
     0
100
AcDbLine
 10
5.000000000000004
 20
0.0
 30
0.0
 11
5.500000000000005
 21
0.0
 31
0.0
  0
ENDBLK
  5
857E
330
8574
100
AcDbEntity
  8
0
100
AcDbBlockEnd
  0
BLOCK
  5
A523
330
A517
100
AcDbEntity
  8
0
100
AcDbBlockBegin
  2
*D6
 70
     1
 10
0.0
 20
0.0
 30
0.0
  3
*D6
  1

  0
LINE
  5
C298
330
A517
100
AcDbEntity
  8
AM_REFDIM
100
AcDbLine
 10
697.7514226023088
 20
94.59724299301663
 30
0.0
 11
697.7514226023088
 21
85.4934967449779
 31
0.0
  0
LINE
  5
C299
330
A517
100
AcDbEntity
  8
AM_REFDIM
100
AcDbLine
 10
711.9514231603573
 20
94.59724299301663
 30
0.0
 11
711.9514231603573
 21
85.4934967449779
 31
0.0
  0
LINE
  5
C29A
330
A517
100
AcDbEntity
  8
AM_REFDIM
100
AcDbLine
 10
701.271844492446
 20
86.49933157073139
 30
0.0
 11
708.4310012702201
 21
86.49933157073139
 31
0.0
  0
SOLID
  5
C29B
330
A517
100
AcDbEntity
  8
AM_REFDIM
100
AcDbTrace
 10
701.271844492446
 20
87.08606855242091
 30
0.0
 11
701.271844492446
 21
85.91259458904186
 31
0.0
 12
697.7514226023088
 22
86.49933157073139
 32
0.0
 13
697.7514226023088
 23
86.49933157073139
 33
0.0
  0
SOLID
  5
C29C
330
A517
100
AcDbEntity
  8
AM_REFDIM
100
AcDbTrace
 10
708.4310012702201
 20
87.08606855242091
 30
0.0
 11
708.4310012702201
 21
85.91259458904186
 31
0.0
 12
711.9514231603573
 22
86.49933157073139
 32
0.0
 13
711.9514231603573
 23
86.49933157073139
 33
0.0
  0
MTEXT
  5
C29D
330
A517
100
AcDbEntity
  8
AM_REFDIM
100
AcDbMText
 10
704.8514224324078
 20
89.265723839771
 30
0.0
 40
3.520421890137194
 41
0.0
 71
     5
 72
     1
  1
14.2
 73
     1
 44
1.0
1001
ACAD
1000
MTEXTBEGIN
1070
    73
1070
     1
1070
    44
1040
1.0
1070
    74
1070
     0
1000
MTEXTEND
  0
POINT
  5
C29E
330
A517
100
AcDbEntity
  8
Defpoints
 62
     0
100
AcDbPoint
 10
697.7514226023088
 20
95.60307781877012
 30
0.0
  0
POINT
  5
C29F
330
A517
100
AcDbEntity
  8
Defpoints
 62
     0
100
AcDbPoint
 10
711.9514231603573
 20
95.60307781877012
 30
0.0
  0
POINT
  5
C2A0
330
A517
100
AcDbEntity
  8
Defpoints
 62
     0
100
AcDbPoint
 10
711.9514231603573
 20
86.49933157073139
 30
0.0
  0
ENDBLK
  5
A524
330
A517
100
AcDbEntity
  8
0
100
AcDbBlockEnd
  0
BLOCK
  5
A54B
330
A541
100
AcDbEntity
  8
0
100
AcDbBlockBegin
  2
*D7
 70
     1
 10
0.0
 20
0.0
 30
0.0
  3
*D7
  1

  0
LINE
  5
C28F
330
A541
100
AcDbEntity
  8
AM_REFDIM
100
AcDbLine
 10
691.3514224147404
 20
94.59724299301663
 30
0.0
 11
691.3514224147404
 21
77.80721306365791
 31
0.0
  0
LINE
  5
C290
330
A541
100
AcDbEntity
  8
AM_REFDIM
100
AcDbLine
 10
718.3514216016958
 20
94.59724299301663
 30
0.0
 11
718.3514216016958
 21
77.80721306365791
 31
0.0
  0
LINE
  5
C291
330
A541
100
AcDbEntity
  8
AM_REFDIM
100
AcDbLine
 10
694.8718443048776
 20
78.8130478894114
 30
0.0
 11
714.8309997115586
 21
78.8130478894114
 31
0.0
  0
SOLID
  5
C292
330
A541
100
AcDbEntity
  8
AM_REFDIM
100
AcDbTrace
 10
694.8718443048776
 20
79.39978487110092
 30
0.0
 11
694.8718443048776
 21
78.22631090772187
 31
0.0
 12
691.3514224147404
 22
78.8130478894114
 32
0.0
 13
691.3514224147404
 23
78.8130478894114
 33
0.0
  0
SOLID
  5
C293
330
A541
100
AcDbEntity
  8
AM_REFDIM
100
AcDbTrace
 10
714.8309997115586
 20
79.39978487110092
 30
0.0
 11
714.8309997115586
 21
78.22631090772187
 31
0.0
 12
718.3514216016958
 22
78.8130478894114
 32
0.0
 13
718.3514216016958
 23
78.8130478894114
 33
0.0
  0
MTEXT
  5
C294
330
A541
100
AcDbEntity
  8
AM_REFDIM
100
AcDbMText
 10
704.8514224324085
 20
81.57944015845101
 30
0.0
 40
3.520421890137194
 41
0.0
 71
     5
 72
     1
  1
27
 73
     1
 44
1.0
1001
ACAD
1000
MTEXTBEGIN
1070
    73
1070
     1
1070
    44
1040
1.0
1070
    74
1070
     0
1000
MTEXTEND
  0
POINT
  5
C295
330
A541
100
AcDbEntity
  8
Defpoints
 62
     0
100
AcDbPoint
 10
691.3514224147404
 20
95.60307781877012
 30
0.0
  0
POINT
  5
C296
330
A541
100
AcDbEntity
  8
Defpoints
 62
     0
100
AcDbPoint
 10
718.3514216016958
 20
95.60307781877012
 30
0.0
  0
POINT
  5
C297
330
A541
100
AcDbEntity
  8
Defpoints
 62
     0
100
AcDbPoint
 10
718.3514216016958
 20
78.8130478894114
 30
0.0
  0
ENDBLK
  5
A54C
330
A541
100
AcDbEntity
  8
0
100
AcDbBlockEnd
  0
BLOCK
  5
A589
330
A57F
100
AcDbEntity
  8
0
100
AcDbBlockBegin
  2
*D8
 70
     1
 10
0.0
 20
0.0
 30
0.0
  3
*D8
  1

  0
LINE
  5
C237
330
A57F
100
AcDbEntity
  8
AM_REFDIM
100
AcDbLine
 10
759.9826056666399
 20
147.6919056247454
 30
0.0
 11
775.3866090606518
 21
147.6919056247454
 31
0.0
  0
LINE
  5
C238
330
A57F
100
AcDbEntity
  8
AM_REFDIM
100
AcDbLine
 10
719.3572564274493
 20
95.60307781877012
 30
0.0
 11
775.3866090606518
 21
95.60307781877011
 31
0.0
  0
LINE
  5
C239
330
A57F
100
AcDbEntity
  8
AM_REFDIM
100
AcDbLine
 10
774.3807742348983
 20
144.1714837346082
 30
0.0
 11
774.3807742348983
 21
99.1234997089073
 31
0.0
  0
SOLID
  5
C23A
330
A57F
100
AcDbEntity
  8
AM_REFDIM
100
AcDbTrace
 10
773.7940372532087
 20
144.1714837346082
 30
0.0
 11
774.9675112165879
 21
144.1714837346082
 31
0.0
 12
774.3807742348983
 22
147.6919056247454
 32
0.0
 13
774.3807742348983
 23
147.6919056247454
 33
0.0
  0
SOLID
  5
C23B
330
A57F
100
AcDbEntity
  8
AM_REFDIM
100
AcDbTrace
 10
773.7940372532087
 20
99.1234997089073
 30
0.0
 11
774.9675112165879
 21
99.1234997089073
 31
0.0
 12
774.3807742348983
 22
95.60307781877011
 32
0.0
 13
774.3807742348983
 23
95.60307781877011
 33
0.0
  0
MTEXT
  5
C23C
330
A57F
100
AcDbEntity
  8
AM_REFDIM
100
AcDbMText
 10
771.6143819658586
 20
126.5635249536018
 30
0.0
 40
3.520421890137194
 41
0.0
 71
     5
 72
     1
  1
52
 11
0.0000000000000001
 21
1.0
 31
0.0
 73
     1
 44
1.0
1001
ACAD
1000
MTEXTBEGIN
1070
    73
1070
     1
1070
    44
1040
1.0
1070
    74
1070
     0
1000
MTEXTEND
  0
POINT
  5
C23D
330
A57F
100
AcDbEntity
  8
Defpoints
 62
     0
100
AcDbPoint
 10
758.9767708408865
 20
147.6919056247454
 30
0.0
  0
POINT
  5
C23E
330
A57F
100
AcDbEntity
  8
Defpoints
 62
     0
100
AcDbPoint
 10
718.3514216016958
 20
95.60307781877012
 30
0.0
  0
POINT
  5
C23F
330
A57F
100
AcDbEntity
  8
Defpoints
 62
     0
100
AcDbPoint
 10
774.3807742348983
 20
95.60307781877011
 30
0.0
  0
ENDBLK
  5
A58A
330
A57F
100
AcDbEntity
  8
0
100
AcDbBlockEnd
  0
BLOCK
  5
A62D
330
A623
100
AcDbEntity
  8
0
100
AcDbBlockBegin
  2
*D9
 70
     1
 10
0.0
 20
0.0
 30
0.0
  3
*D9
  1

  0
LINE
  5
C240
330
A623
100
AcDbEntity
  8
AM_REFDIM
100
AcDbLine
 10
802.9963327085772
 20
197.391234299221
 30
0.0
 11
802.9963327085772
 21
207.0227389572429
 31
0.0
  0
LINE
  5
C241
330
A623
100
AcDbEntity
  8
AM_REFDIM
100
AcDbLine
 10
867.9963327085772
 20
197.6977387942256
 30
0.0
 11
867.9963327085772
 21
207.0227389572429
 31
0.0
  0
LINE
  5
C242
330
A623
100
AcDbEntity
  8
AM_REFDIM
100
AcDbLine
 10
806.5167545987144
 20
206.0169041314894
 30
0.0
 11
864.47591081844
 21
206.0169041314894
 31
0.0
  0
SOLID
  5
C243
330
A623
100
AcDbEntity
  8
AM_REFDIM
100
AcDbTrace
 10
806.5167545987144
 20
206.6036411131789
 30
0.0
 11
806.5167545987144
 21
205.4301671497998
 31
0.0
 12
802.9963327085772
 22
206.0169041314894
 32
0.0
 13
802.9963327085772
 23
206.0169041314894
 33
0.0
  0
SOLID
  5
C244
330
A623
100
AcDbEntity
  8
AM_REFDIM
100
AcDbTrace
 10
864.47591081844
 20
206.6036411131789
 30
0.0
 11
864.47591081844
 21
205.4301671497998
 31
0.0
 12
867.9963327085772
 22
206.0169041314894
 32
0.0
 13
867.9963327085772
 23
206.0169041314894
 33
0.0
  0
MTEXT
  5
C245
330
A623
100
AcDbEntity
  8
AM_REFDIM
100
AcDbMText
 10
835.4963327085773
 20
208.7829499023114
 30
0.0
 40
3.520421890137194
 41
0.0
 71
     5
 72
     1
  1
65
 73
     1
 44
1.0
1001
ACAD
1000
MTEXTBEGIN
1070
    73
1070
     1
1070
    44
1040
1.0
1070
    74
1070
     0
1000
MTEXTEND
  0
POINT
  5
C246
330
A623
100
AcDbEntity
  8
Defpoints
 62
     0
100
AcDbPoint
 10
802.9963327085772
 20
196.3853994734676
 30
0.0
  0
POINT
  5
C247
330
A623
100
AcDbEntity
  8
Defpoints
 62
     0
100
AcDbPoint
 10
867.9963327085772
 20
196.6919039684721
 30
0.0
  0
POINT
  5
C248
330
A623
100
AcDbEntity
  8
Defpoints
 62
     0
100
AcDbPoint
 10
867.9963327085772
 20
206.0169041314894
 30
0.0
  0
ENDBLK
  5
A62E
330
A623
100
AcDbEntity
  8
0
100
AcDbBlockEnd
  0
BLOCK
  5
A686
330
A67C
100
AcDbEntity
  8
0
100
AcDbBlockBegin
  2
*D10
 70
     1
 10
0.0
 20
0.0
 30
0.0
  3
*D10
  1

  0
LINE
  5
C249
330
A67C
100
AcDbEntity
  8
AM_REFDIM
100
AcDbLine
 10
868.5021658879517
 20
197.191903802315
 30
0.0
 11
881.7520490470499
 21
197.191903802315
 31
0.0
  0
LINE
  5
C24A
330
A67C
100
AcDbEntity
  8
AM_REFDIM
100
AcDbLine
 10
868.5021658879517
 20
97.1919023121989
 30
0.0
 11
881.7520490470499
 21
97.1919023121989
 31
0.0
  0
LINE
  5
C24B
330
A67C
100
AcDbEntity
  8
AM_REFDIM
100
AcDbLine
 10
880.7462142212964
 20
193.6714819121778
 30
0.0
 11
880.7462142212964
 21
100.7123242023361
 31
0.0
  0
SOLID
  5
C24C
330
A67C
100
AcDbEntity
  8
AM_REFDIM
100
AcDbTrace
 10
880.1594772396068
 20
193.6714819121778
 30
0.0
 11
881.3329512029859
 21
193.6714819121778
 31
0.0
 12
880.7462142212964
 22
197.191903802315
 32
0.0
 13
880.7462142212964
 23
197.191903802315
 33
0.0
  0
SOLID
  5
C24D
330
A67C
100
AcDbEntity
  8
AM_REFDIM
100
AcDbTrace
 10
880.1594772396068
 20
100.7123242023361
 30
0.0
 11
881.3329512029859
 21
100.7123242023361
 31
0.0
 12
880.7462142212964
 22
97.1919023121989
 32
0.0
 13
880.7462142212964
 23
97.1919023121989
 33
0.0
  0
MTEXT
  5
C24E
330
A67C
100
AcDbEntity
  8
AM_REFDIM
100
AcDbMText
 10
877.9801684504743
 20
147.191903057257
 30
0.0
 40
3.520421890137194
 41
0.0
 71
     5
 72
     1
  1
%%c100
 11
0.0000000000000001
 21
1.0
 31
0.0
 73
     1
 44
1.0
1001
ACAD
1000
MTEXTBEGIN
1070
    73
1070
     1
1070
    44
1040
1.0
1070
    74
1070
     0
1000
MTEXTEND
  0
POINT
  5
C24F
330
A67C
100
AcDbEntity
  8
Defpoints
 62
     0
100
AcDbPoint
 10
867.4963310621981
 20
197.191903802315
 30
0.0
  0
POINT
  5
C250
330
A67C
100
AcDbEntity
  8
Defpoints
 62
     0
100
AcDbPoint
 10
867.4963310621981
 20
97.1919023121989
 30
0.0
  0
POINT
  5
C251
330
A67C
100
AcDbEntity
  8
Defpoints
 62
     0
100
AcDbPoint
 10
880.7462142212964
 20
97.1919023121989
 30
0.0
  0
ENDBLK
  5
A687
330
A67C
100
AcDbEntity
  8
0
100
AcDbBlockEnd
  0
BLOCK
  5
A6AC
330
A6A2
100
AcDbEntity
  8
0
100
AcDbBlockBegin
  2
*D11
 70
     1
 10
0.0
 20
0.0
 30
0.0
  3
*D11
  1

  0
LINE
  5
C252
330
A6A2
100
AcDbEntity
  8
AM_REFDIM
100
AcDbLine
 10
867.9963327085772
 20
96.68606914271871
 30
0.0
 11
867.9963327085772
 21
85.37971468782032
 31
0.0
  0
LINE
  5
C253
330
A6A2
100
AcDbEntity
  8
AM_REFDIM
100
AcDbLine
 10
821.9963329173927
 20
94.09724133674334
 30
0.0
 11
821.9963329173927
 21
85.37971468782032
 31
0.0
  0
LINE
  5
C254
330
A6A2
100
AcDbEntity
  8
AM_REFDIM
100
AcDbLine
 10
864.47591081844
 20
86.38554951357381
 30
0.0
 11
825.5167548075299
 21
86.38554951357381
 31
0.0
  0
SOLID
  5
C255
330
A6A2
100
AcDbEntity
  8
AM_REFDIM
100
AcDbTrace
 10
864.47591081844
 20
86.97228649526334
 30
0.0
 11
864.47591081844
 21
85.79881253188428
 31
0.0
 12
867.9963327085772
 22
86.38554951357381
 32
0.0
 13
867.9963327085772
 23
86.38554951357381
 33
0.0
  0
SOLID
  5
C256
330
A6A2
100
AcDbEntity
  8
AM_REFDIM
100
AcDbTrace
 10
825.5167548075299
 20
86.97228649526334
 30
0.0
 11
825.5167548075299
 21
85.79881253188428
 31
0.0
 12
821.9963329173927
 22
86.38554951357381
 32
0.0
 13
821.9963329173927
 23
86.38554951357381
 33
0.0
  0
MTEXT
  5
C257
330
A6A2
100
AcDbEntity
  8
AM_REFDIM
100
AcDbMText
 10
844.996332812985
 20
89.15159528439588
 30
0.0
 40
3.520421890137194
 41
0.0
 71
     5
 72
     1
  1
46
 73
     1
 44
1.0
1001
ACAD
1000
MTEXTBEGIN
1070
    73
1070
     1
1070
    44
1040
1.0
1070
    74
1070
     0
1000
MTEXTEND
  0
POINT
  5
C258
330
A6A2
100
AcDbEntity
  8
Defpoints
 62
     0
100
AcDbPoint
 10
867.9963327085772
 20
97.6919039684722
 30
0.0
  0
POINT
  5
C259
330
A6A2
100
AcDbEntity
  8
Defpoints
 62
     0
100
AcDbPoint
 10
821.9963329173927
 20
95.10307616249681
 30
0.0
  0
POINT
  5
C25A
330
A6A2
100
AcDbEntity
  8
Defpoints
 62
     0
100
AcDbPoint
 10
821.9963329173927
 20
86.38554951357381
 30
0.0
  0
ENDBLK
  5
A6AD
330
A6A2
100
AcDbEntity
  8
0
100
AcDbBlockEnd
  0
BLOCK
  5
A731
330
A725
100
AcDbEntity
  8
0
100
AcDbBlockBegin
  2
*D12
 70
     1
 10
0.0
 20
0.0
 30
0.0
  3
*D12
  1

  0
LINE
  5
C25B
330
A725
100
AcDbEntity
  8
AM_REFDIM
100
AcDbLine
 10
800.9963341318373
 20
166.1977389707952
 30
0.0
 11
800.9963341318373
 21
207.0227389572429
 31
0.0
  0
LINE
  5
C25C
330
A725
100
AcDbEntity
  8
AM_REFDIM
100
AcDbLine
 10
802.9963327085772
 20
197.391234299221
 30
0.0
 11
802.9963327085772
 21
207.0227389572429
 31
0.0
  0
LINE
  5
C25D
330
A725
100
AcDbEntity
  8
AM_REFDIM
100
AcDbLine
 10
797.4759122417001
 20
206.0169041314894
 30
0.0
 11
793.9554903515629
 21
206.0169041314894
 31
0.0
  0
LINE
  5
C25E
330
A725
100
AcDbEntity
  8
AM_REFDIM
100
AcDbLine
 10
806.5167545987144
 20
206.0169041314894
 30
0.0
 11
810.0371764888516
 21
206.0169041314894
 31
0.0
  0
LINE
  5
C25F
330
A725
100
AcDbEntity
  8
AM_REFDIM
100
AcDbLine
 10
800.9963341318373
 20
206.0169041314894
 30
0.0
 11
802.9963327085772
 21
206.0169041314894
 31
0.0
  0
SOLID
  5
C260
330
A725
100
AcDbEntity
  8
AM_REFDIM
100
AcDbTrace
 10
797.4759122417001
 20
206.6036411131789
 30
0.0
 11
797.4759122417001
 21
205.4301671497998
 31
0.0
 12
800.9963341318373
 22
206.0169041314894
 32
0.0
 13
800.9963341318373
 23
206.0169041314894
 33
0.0
  0
SOLID
  5
C261
330
A725
100
AcDbEntity
  8
AM_REFDIM
100
AcDbTrace
 10
806.5167545987144
 20
206.6036411131789
 30
0.0
 11
806.5167545987144
 21
205.4301671497998
 31
0.0
 12
802.9963327085772
 22
206.0169041314894
 32
0.0
 13
802.9963327085772
 23
206.0169041314894
 33
0.0
  0
MTEXT
  5
C262
330
A725
100
AcDbEntity
  8
AM_REFDIM
100
AcDbMText
 10
801.9963334202072
 20
208.783296400529
 30
0.0
 40
3.520421890137194
 41
0.0
 71
     5
 72
     1
  1
2
 73
     1
 44
1.0
1001
ACAD
1000
MTEXTBEGIN
1070
    73
1070
     1
1070
    44
1040
1.0
1070
    74
1070
     0
1000
MTEXTEND
  0
POINT
  5
C263
330
A725
100
AcDbEntity
  8
Defpoints
 62
     0
100
AcDbPoint
 10
800.9963341318373
 20
165.1919041450417
 30
0.0
  0
POINT
  5
C264
330
A725
100
AcDbEntity
  8
Defpoints
 62
     0
100
AcDbPoint
 10
802.9963327085772
 20
196.3853994734675
 30
0.0
  0
POINT
  5
C265
330
A725
100
AcDbEntity
  8
Defpoints
 62
     0
100
AcDbPoint
 10
802.9963327085772
 20
206.0169041314894
 30
0.0
  0
ENDBLK
  5
A732
330
A725
100
AcDbEntity
  8
0
100
AcDbBlockEnd
  0
BLOCK
  5
A788
330
A77C
100
AcDbEntity
  8
0
100
AcDbBlockBegin
  2
*D13
 70
     1
 10
0.0
 20
0.0
 30
0.0
  3
*D13
  1

  0
LINE
  5
C266
330
A77C
100
AcDbEntity
  8
AM_REFDIM
100
AcDbLine
 10
705.8572572581615
 20
116.6030791620896
 30
0.0
 11
756.2538481548438
 21
116.6030791620896
 31
0.0
  0
LINE
  5
C267
330
A77C
100
AcDbEntity
  8
AM_REFDIM
100
AcDbLine
 10
712.9572579861108
 20
112.6030787426421
 30
0.0
 11
756.2538481548438
 21
112.6030787426421
 31
0.0
  0
LINE
  5
C268
330
A77C
100
AcDbEntity
  8
AM_REFDIM
100
AcDbLine
 10
755.2480133290903
 20
120.1235010522268
 30
0.0
 11
755.2480133290903
 21
123.643922942364
 31
0.0
  0
LINE
  5
C269
330
A77C
100
AcDbEntity
  8
AM_REFDIM
100
AcDbLine
 10
755.2480133290903
 20
109.0826568525049
 30
0.0
 11
755.2480133290903
 21
105.5622349623677
 31
0.0
  0
LINE
  5
C26A
330
A77C
100
AcDbEntity
  8
AM_REFDIM
100
AcDbLine
 10
755.2480133290903
 20
116.6030791620896
 30
0.0
 11
755.2480133290903
 21
112.6030787426421
 31
0.0
  0
SOLID
  5
C26B
330
A77C
100
AcDbEntity
  8
AM_REFDIM
100
AcDbTrace
 10
754.6612763474008
 20
120.1235010522268
 30
0.0
 11
755.8347503107799
 21
120.1235010522268
 31
0.0
 12
755.2480133290903
 22
116.6030791620896
 32
0.0
 13
755.2480133290903
 23
116.6030791620896
 33
0.0
  0
SOLID
  5
C26C
330
A77C
100
AcDbEntity
  8
AM_REFDIM
100
AcDbTrace
 10
754.6612763474008
 20
109.0826568525049
 30
0.0
 11
755.8347503107799
 21
109.0826568525049
 31
0.0
 12
755.2480133290903
 22
112.6030787426421
 32
0.0
 13
755.2480133290903
 23
112.6030787426421
 33
0.0
  0
MTEXT
  5
C26D
330
A77C
100
AcDbEntity
  8
AM_REFDIM
100
AcDbMText
 10
752.4819675582683
 20
114.603078952366
 30
0.0
 40
3.520421890137194
 41
0.0
 71
     5
 72
     1
  1
4
 11
0.0000000000000001
 21
1.0
 31
0.0
 73
     1
 44
1.0
1001
ACAD
1000
MTEXTBEGIN
1070
    73
1070
     1
1070
    44
1040
1.0
1070
    74
1070
     0
1000
MTEXTEND
  0
POINT
  5
C26E
330
A77C
100
AcDbEntity
  8
Defpoints
 62
     0
100
AcDbPoint
 10
704.8514224324081
 20
116.6030791620896
 30
0.0
  0
POINT
  5
C26F
330
A77C
100
AcDbEntity
  8
Defpoints
 62
     0
100
AcDbPoint
 10
711.9514231603573
 20
112.6030787426421
 30
0.0
  0
POINT
  5
C270
330
A77C
100
AcDbEntity
  8
Defpoints
 62
     0
100
AcDbPoint
 10
755.2480133290903
 20
112.6030787426421
 30
0.0
  0
ENDBLK
  5
A789
330
A77C
100
AcDbEntity
  8
0
100
AcDbBlockEnd
  0
BLOCK
  5
A7B0
330
A7A6
100
AcDbEntity
  8
0
100
AcDbBlockBegin
  2
*D14
 70
     1
 10
0.0
 20
0.0
 30
0.0
  3
*D14
  1

  0
LINE
  5
C271
330
A7A6
100
AcDbEntity
  8
AM_REFDIM
100
AcDbLine
 10
705.8572572581615
 20
116.6030791620896
 30
0.0
 11
765.9868437957527
 21
116.6030791620896
 31
0.0
  0
LINE
  5
C272
330
A7A6
100
AcDbEntity
  8
AM_REFDIM
100
AcDbLine
 10
705.8572572581615
 20
100.6030791620897
 30
0.0
 11
765.9868437957527
 21
100.6030791620897
 31
0.0
  0
LINE
  5
C273
330
A7A6
100
AcDbEntity
  8
AM_REFDIM
100
AcDbLine
 10
764.9810089699992
 20
113.0826572719524
 30
0.0
 11
764.9810089699992
 21
104.1235010522269
 31
0.0
  0
SOLID
  5
C274
330
A7A6
100
AcDbEntity
  8
AM_REFDIM
100
AcDbTrace
 10
764.3942719883097
 20
113.0826572719524
 30
0.0
 11
765.5677459516888
 21
113.0826572719524
 31
0.0
 12
764.9810089699992
 22
116.6030791620896
 32
0.0
 13
764.9810089699992
 23
116.6030791620896
 33
0.0
  0
SOLID
  5
C275
330
A7A6
100
AcDbEntity
  8
AM_REFDIM
100
AcDbTrace
 10
764.3942719883097
 20
104.1235010522269
 30
0.0
 11
765.5677459516888
 21
104.1235010522269
 31
0.0
 12
764.9810089699992
 22
100.6030791620897
 32
0.0
 13
764.9810089699992
 23
100.6030791620897
 33
0.0
  0
MTEXT
  5
C276
330
A7A6
100
AcDbEntity
  8
AM_REFDIM
100
AcDbMText
 10
762.2149631991772
 20
108.6030791620896
 30
0.0
 40
3.520421890137194
 41
0.0
 71
     5
 72
     1
  1
16
 11
0.0000000000000001
 21
1.0
 31
0.0
 73
     1
 44
1.0
1001
ACAD
1000
MTEXTBEGIN
1070
    73
1070
     1
1070
    44
1040
1.0
1070
    74
1070
     0
1000
MTEXTEND
  0
POINT
  5
C277
330
A7A6
100
AcDbEntity
  8
Defpoints
 62
     0
100
AcDbPoint
 10
704.8514224324081
 20
116.6030791620896
 30
0.0
  0
POINT
  5
C278
330
A7A6
100
AcDbEntity
  8
Defpoints
 62
     0
100
AcDbPoint
 10
704.8514224324081
 20
100.6030791620897
 30
0.0
  0
POINT
  5
C279
330
A7A6
100
AcDbEntity
  8
Defpoints
 62
     0
100
AcDbPoint
 10
764.9810089699992
 20
100.6030791620897
 30
0.0
  0
ENDBLK
  5
A7B1
330
A7A6
100
AcDbEntity
  8
0
100
AcDbBlockEnd
  0
BLOCK
  5
A7D8
330
A7CC
100
AcDbEntity
  8
0
100
AcDbBlockBegin
  2
*D15
 70
     1
 10
0.0
 20
0.0
 30
0.0
  3
*D15
  1

  0
LINE
  5
C27A
330
A7CC
100
AcDbEntity
  8
AM_REFDIM
100
AcDbLine
 10
705.8572572581615
 20
100.6030791620897
 30
0.0
 11
756.2538481548438
 21
100.6030791620897
 31
0.0
  0
LINE
  5
C27B
330
A7CC
100
AcDbEntity
  8
AM_REFDIM
100
AcDbLine
 10
719.3572564274493
 20
95.60307781877012
 30
0.0
 11
756.2538481548438
 21
95.60307781877011
 31
0.0
  0
LINE
  5
C27C
330
A7CC
100
AcDbEntity
  8
AM_REFDIM
100
AcDbLine
 10
755.2480133290903
 20
104.1235010522269
 30
0.0
 11
755.2480133290903
 21
107.643922942364
 31
0.0
  0
LINE
  5
C27D
330
A7CC
100
AcDbEntity
  8
AM_REFDIM
100
AcDbLine
 10
755.2480133290903
 20
92.08265592863289
 30
0.0
 11
755.2480133290903
 21
88.56223403849572
 31
0.0
  0
LINE
  5
C27E
330
A7CC
100
AcDbEntity
  8
AM_REFDIM
100
AcDbLine
 10
755.2480133290903
 20
100.6030791620897
 30
0.0
 11
755.2480133290903
 21
95.60307781877011
 31
0.0
  0
SOLID
  5
C27F
330
A7CC
100
AcDbEntity
  8
AM_REFDIM
100
AcDbTrace
 10
754.6612763474008
 20
104.1235010522269
 30
0.0
 11
755.8347503107799
 21
104.1235010522269
 31
0.0
 12
755.2480133290903
 22
100.6030791620897
 32
0.0
 13
755.2480133290903
 23
100.6030791620897
 33
0.0
  0
SOLID
  5
C280
330
A7CC
100
AcDbEntity
  8
AM_REFDIM
100
AcDbTrace
 10
754.6612763474008
 20
92.08265592863289
 30
0.0
 11
755.8347503107799
 21
92.08265592863289
 31
0.0
 12
755.2480133290903
 22
95.60307781877011
 32
0.0
 13
755.2480133290903
 23
95.60307781877011
 33
0.0
  0
MTEXT
  5
C281
330
A7CC
100
AcDbEntity
  8
AM_REFDIM
100
AcDbMText
 10
752.4819675582683
 20
98.10307849043002
 30
0.0
 40
3.520421890137194
 41
0.0
 71
     5
 72
     1
  1
5
 11
0.0000000000000001
 21
1.0
 31
0.0
 73
     1
 44
1.0
1001
ACAD
1000
MTEXTBEGIN
1070
    73
1070
     1
1070
    44
1040
1.0
1070
    74
1070
     0
1000
MTEXTEND
  0
POINT
  5
C282
330
A7CC
100
AcDbEntity
  8
Defpoints
 62
     0
100
AcDbPoint
 10
704.8514224324081
 20
100.6030791620897
 30
0.0
  0
POINT
  5
C283
330
A7CC
100
AcDbEntity
  8
Defpoints
 62
     0
100
AcDbPoint
 10
718.3514216016958
 20
95.60307781877012
 30
0.0
  0
POINT
  5
C284
330
A7CC
100
AcDbEntity
  8
Defpoints
 62
     0
100
AcDbPoint
 10
755.2480133290903
 20
95.60307781877011
 30
0.0
  0
ENDBLK
  5
A7D9
330
A7CC
100
AcDbEntity
  8
0
100
AcDbBlockEnd
  0
BLOCK
  5
B25B
330
B251
100
AcDbEntity
  8
0
100
AcDbBlockBegin
  2
*D16
 70
     1
 10
0.0
 20
0.0
 30
0.0
  3
*D16
  1

  0
LINE
  5
C285
330
B251
100
AcDbEntity
  8
AM_REFDIM
100
AcDbLine
 10
696.7455877765553
 20
120.6030800539443
 30
0.0
 11
651.4714049318097
 21
120.6030800539443
 31
0.0
  0
LINE
  5
C286
330
B251
100
AcDbEntity
  8
AM_REFDIM
100
AcDbLine
 10
690.345587588987
 20
95.60307781877012
 30
0.0
 11
651.4714049318097
 21
95.60307781877012
 31
0.0
  0
LINE
  5
C287
330
B251
100
AcDbEntity
  8
AM_REFDIM
100
AcDbLine
 10
652.4772397575632
 20
117.0826581638071
 30
0.0
 11
652.4772397575632
 21
99.12349970890733
 31
0.0
  0
SOLID
  5
C288
330
B251
100
AcDbEntity
  8
AM_REFDIM
100
AcDbTrace
 10
651.8905027758736
 20
117.0826581638071
 30
0.0
 11
653.0639767392528
 21
117.0826581638071
 31
0.0
 12
652.4772397575632
 22
120.6030800539443
 32
0.0
 13
652.4772397575632
 23
120.6030800539443
 33
0.0
  0
SOLID
  5
C289
330
B251
100
AcDbEntity
  8
AM_REFDIM
100
AcDbTrace
 10
651.8905027758736
 20
99.12349970890733
 30
0.0
 11
653.0639767392528
 21
99.12349970890733
 31
0.0
 12
652.4772397575632
 22
95.60307781877012
 32
0.0
 13
652.4772397575632
 23
95.60307781877012
 33
0.0
  0
MTEXT
  5
C28A
330
B251
100
AcDbEntity
  8
AM_REFDIM
100
AcDbMText
 10
649.7108474885235
 20
108.1030789363572
 30
0.0
 40
3.520421890137194
 41
0.0
 71
     5
 72
     1
  1
25
 11
0.0000000000000001
 21
1.0
 31
0.0
 73
     1
 44
1.0
1001
ACAD
1000
MTEXTBEGIN
1070
    73
1070
     1
1070
    44
1040
1.0
1070
    74
1070
     0
1000
MTEXTEND
  0
POINT
  5
C28B
330
B251
100
AcDbEntity
  8
Defpoints
 62
     0
100
AcDbPoint
 10
697.7514226023088
 20
120.6030800539443
 30
0.0
  0
POINT
  5
C28C
330
B251
100
AcDbEntity
  8
Defpoints
 62
     0
100
AcDbPoint
 10
691.3514224147404
 20
95.60307781877012
 30
0.0
  0
POINT
  5
C28D
330
B251
100
AcDbEntity
  8
Defpoints
 62
     0
100
AcDbPoint
 10
652.4772397575632
 20
95.60307781877012
 30
0.0
  0
ENDBLK
  5
B25C
330
B251
100
AcDbEntity
  8
0
100
AcDbBlockEnd
  0
BLOCK
  5
B2BD
330
B2BC
100
AcDbEntity
  8
0
100
AcDbBlockBegin
  2
SW_CENTERMARKSYMBOL_2
 70
     0
 10
0.0
 20
0.0
 30
0.0
  3
SW_CENTERMARKSYMBOL_2
  1

  0
LINE
  5
B2BE
330
B2BC
100
AcDbEntity
  8
0
  6
Continuous
 62
     0
370
     0
100
AcDbLine
 10
0.0
 20
0.0
 30
0.0
 11
0.0
 21
2.500000000000002
 31
0.0
  0
LINE
  5
B2BF
330
B2BC
100
AcDbEntity
  8
0
  6
Continuous
 62
     0
370
     0
100
AcDbLine
 10
0.0
 20
0.0
 30
0.0
 11
-2.500000000000002
 21
0.0
 31
0.0
  0
LINE
  5
B2C0
330
B2BC
100
AcDbEntity
  8
0
  6
Continuous
 62
     0
370
     0
100
AcDbLine
 10
0.0
 20
0.0
 30
0.0
 11
0.0
 21
-2.500000000000002
 31
0.0
  0
LINE
  5
B2C1
330
B2BC
100
AcDbEntity
  8
0
  6
Continuous
 62
     0
370
     0
100
AcDbLine
 10
0.0
 20
0.0
 30
0.0
 11
2.500000000000002
 21
0.0
 31
0.0
  0
LINE
  5
B2C2
330
B2BC
100
AcDbEntity
  8
0
  6
Continuous
 62
     0
370
     0
100
AcDbLine
 10
0.0
 20
2.500000000000002
 30
0.0
 11
0.0
 21
4.599999999999992
 31
0.0
  0
LINE
  5
B2C3
330
B2BC
100
AcDbEntity
  8
0
  6
Continuous
 62
     0
370
     0
100
AcDbLine
 10
-2.500000000000002
 20
0.0
 30
0.0
 11
-4.599999999999992
 21
0.0
 31
0.0
  0
LINE
  5
B2C4
330
B2BC
100
AcDbEntity
  8
0
  6
Continuous
 62
     0
370
     0
100
AcDbLine
 10
0.0
 20
-2.500000000000002
 30
0.0
 11
0.0
 21
-4.60000000000002
 31
0.0
  0
LINE
  5
B2C5
330
B2BC
100
AcDbEntity
  8
0
  6
Continuous
 62
     0
370
     0
100
AcDbLine
 10
2.500000000000002
 20
0.0
 30
0.0
 11
4.60000000000002
 21
0.0
 31
0.0
  0
ENDBLK
  5
B2C6
330
B2BC
100
AcDbEntity
  8
0
100
AcDbBlockEnd
  0
BLOCK
  5
B2C8
330
B2C7
100
AcDbEntity
  8
0
100
AcDbBlockBegin
  2
SW_CENTERMARKSYMBOL_3
 70
     0
 10
0.0
 20
0.0
 30
0.0
  3
SW_CENTERMARKSYMBOL_3
  1

  0
LINE
  5
B2C9
330
B2C7
100
AcDbEntity
  8
0
  6
Continuous
 62
     0
370
     0
100
AcDbLine
 10
0.0
 20
0.0
 30
0.0
 11
0.0
 21
2.500000000000002
 31
0.0
  0
LINE
  5
B2CA
330
B2C7
100
AcDbEntity
  8
0
  6
Continuous
 62
     0
370
     0
100
AcDbLine
 10
0.0
 20
0.0
 30
0.0
 11
-2.500000000000002
 21
0.0
 31
0.0
  0
LINE
  5
B2CB
330
B2C7
100
AcDbEntity
  8
0
  6
Continuous
 62
     0
370
     0
100
AcDbLine
 10
0.0
 20
0.0
 30
0.0
 11
0.0
 21
-2.500000000000002
 31
0.0
  0
LINE
  5
B2CC
330
B2C7
100
AcDbEntity
  8
0
  6
Continuous
 62
     0
370
     0
100
AcDbLine
 10
0.0
 20
0.0
 30
0.0
 11
2.500000000000002
 21
0.0
 31
0.0
  0
LINE
  5
B2CD
330
B2C7
100
AcDbEntity
  8
0
  6
Continuous
 62
     0
370
     0
100
AcDbLine
 10
0.0
 20
2.500000000000002
 30
0.0
 11
0.0
 21
4.599999999999992
 31
0.0
  0
LINE
  5
B2CE
330
B2C7
100
AcDbEntity
  8
0
  6
Continuous
 62
     0
370
     0
100
AcDbLine
 10
-2.500000000000002
 20
0.0
 30
0.0
 11
-4.599999999999992
 21
0.0
 31
0.0
  0
LINE
  5
B2CF
330
B2C7
100
AcDbEntity
  8
0
  6
Continuous
 62
     0
370
     0
100
AcDbLine
 10
0.0
 20
-2.500000000000002
 30
0.0
 11
0.0
 21
-4.60000000000002
 31
0.0
  0
LINE
  5
B2D0
330
B2C7
100
AcDbEntity
  8
0
  6
Continuous
 62
     0
370
     0
100
AcDbLine
 10
2.500000000000002
 20
0.0
 30
0.0
 11
4.60000000000002
 21
0.0
 31
0.0
  0
ENDBLK
  5
B2D1
330
B2C7
100
AcDbEntity
  8
0
100
AcDbBlockEnd
  0
BLOCK
  5
B2D3
330
B2D2
100
AcDbEntity
  8
0
100
AcDbBlockBegin
  2
SW_CENTERMARKSYMBOL_4
 70
     0
 10
0.0
 20
0.0
 30
0.0
  3
SW_CENTERMARKSYMBOL_4
  1

  0
LINE
  5
B2D4
330
B2D2
100
AcDbEntity
  8
0
  6
Continuous
 62
     0
370
     0
100
AcDbLine
 10
0.0
 20
0.0
 30
0.0
 11
0.0
 21
2.500000000000002
 31
0.0
  0
LINE
  5
B2D5
330
B2D2
100
AcDbEntity
  8
0
  6
Continuous
 62
     0
370
     0
100
AcDbLine
 10
0.0
 20
0.0
 30
0.0
 11
-2.500000000000002
 21
0.0
 31
0.0
  0
LINE
  5
B2D6
330
B2D2
100
AcDbEntity
  8
0
  6
Continuous
 62
     0
370
     0
100
AcDbLine
 10
0.0
 20
0.0
 30
0.0
 11
0.0
 21
-2.500000000000002
 31
0.0
  0
LINE
  5
B2D7
330
B2D2
100
AcDbEntity
  8
0
  6
Continuous
 62
     0
370
     0
100
AcDbLine
 10
0.0
 20
0.0
 30
0.0
 11
2.500000000000002
 21
0.0
 31
0.0
  0
LINE
  5
B2D8
330
B2D2
100
AcDbEntity
  8
0
  6
Continuous
 62
     0
370
     0
100
AcDbLine
 10
0.0
 20
5.000000000000004
 30
0.0
 11
0.0
 21
33.00000001079223
 31
0.0
  0
LINE
  5
B2D9
330
B2D2
100
AcDbEntity
  8
0
  6
Continuous
 62
     0
370
     0
100
AcDbLine
 10
-5.000000000000004
 20
0.0
 30
0.0
 11
-33.00000001079223
 21
0.0
 31
0.0
  0
LINE
  5
B2DA
330
B2D2
100
AcDbEntity
  8
0
  6
Continuous
 62
     0
370
     0
100
AcDbLine
 10
0.0
 20
-5.000000000000004
 30
0.0
 11
0.0
 21
-33.00000001079223
 31
0.0
  0
LINE
  5
B2DB
330
B2D2
100
AcDbEntity
  8
0
  6
Continuous
 62
     0
370
     0
100
AcDbLine
 10
5.000000000000004
 20
0.0
 30
0.0
 11
33.00000001079223
 21
0.0
 31
0.0
  0
ENDBLK
  5
B2DC
330
B2D2
100
AcDbEntity
  8
0
100
AcDbBlockEnd
  0
BLOCK
  5
B2DE
330
B2DD
100
AcDbEntity
  8
0
100
AcDbBlockBegin
  2
SW_CENTERMARKSYMBOL_5
 70
     0
 10
0.0
 20
0.0
 30
0.0
  3
SW_CENTERMARKSYMBOL_5
  1

  0
LINE
  5
B2DF
330
B2DD
100
AcDbEntity
  8
0
  6
Continuous
 62
     0
370
     0
100
AcDbLine
 10
0.0
 20
0.0
 30
0.0
 11
0.0
 21
2.500000000000002
 31
0.0
  0
LINE
  5
B2E0
330
B2DD
100
AcDbEntity
  8
0
  6
Continuous
 62
     0
370
     0
100
AcDbLine
 10
0.0
 20
0.0
 30
0.0
 11
-2.500000000000002
 21
0.0
 31
0.0
  0
LINE
  5
B2E1
330
B2DD
100
AcDbEntity
  8
0
  6
Continuous
 62
     0
370
     0
100
AcDbLine
 10
0.0
 20
0.0
 30
0.0
 11
0.0
 21
-2.500000000000002
 31
0.0
  0
LINE
  5
B2E2
330
B2DD
100
AcDbEntity
  8
0
  6
Continuous
 62
     0
370
     0
100
AcDbLine
 10
0.0
 20
0.0
 30
0.0
 11
2.500000000000002
 21
0.0
 31
0.0
  0
LINE
  5
B2E3
330
B2DD
100
AcDbEntity
  8
0
  6
Continuous
 62
     0
370
     0
100
AcDbLine
 10
0.0
 20
2.500000000000002
 30
0.0
 11
0.0
 21
4.60000000000002
 31
0.0
  0
LINE
  5
B2E4
330
B2DD
100
AcDbEntity
  8
0
  6
Continuous
 62
     0
370
     0
100
AcDbLine
 10
-2.500000000000002
 20
0.0
 30
0.0
 11
-4.599999999999992
 21
0.0
 31
0.0
  0
LINE
  5
B2E5
330
B2DD
100
AcDbEntity
  8
0
  6
Continuous
 62
     0
370
     0
100
AcDbLine
 10
0.0
 20
-2.500000000000002
 30
0.0
 11
0.0
 21
-4.599999999999992
 31
0.0
  0
LINE
  5
B2E6
330
B2DD
100
AcDbEntity
  8
0
  6
Continuous
 62
     0
370
     0
100
AcDbLine
 10
2.500000000000002
 20
0.0
 30
0.0
 11
4.60000000000002
 21
0.0
 31
0.0
  0
ENDBLK
  5
B2E7
330
B2DD
100
AcDbEntity
  8
0
100
AcDbBlockEnd
  0
BLOCK
  5
B2E9
330
B2E8
100
AcDbEntity
  8
0
100
AcDbBlockBegin
  2
SW_CENTERMARKSYMBOL_6
 70
     0
 10
0.0
 20
0.0
 30
0.0
  3
SW_CENTERMARKSYMBOL_6
  1

  0
LINE
  5
B2EA
330
B2E8
100
AcDbEntity
  8
0
  6
Continuous
 62
     0
370
     0
100
AcDbLine
 10
0.0
 20
0.0
 30
0.0
 11
0.0
 21
2.500000000000002
 31
0.0
  0
LINE
  5
B2EB
330
B2E8
100
AcDbEntity
  8
0
  6
Continuous
 62
     0
370
     0
100
AcDbLine
 10
0.0
 20
0.0
 30
0.0
 11
-2.500000000000002
 21
0.0
 31
0.0
  0
LINE
  5
B2EC
330
B2E8
100
AcDbEntity
  8
0
  6
Continuous
 62
     0
370
     0
100
AcDbLine
 10
0.0
 20
0.0
 30
0.0
 11
0.0
 21
-2.500000000000002
 31
0.0
  0
LINE
  5
B2ED
330
B2E8
100
AcDbEntity
  8
0
  6
Continuous
 62
     0
370
     0
100
AcDbLine
 10
0.0
 20
0.0
 30
0.0
 11
2.500000000000002
 21
0.0
 31
0.0
  0
LINE
  5
B2EE
330
B2E8
100
AcDbEntity
  8
0
  6
Continuous
 62
     0
370
     0
100
AcDbLine
 10
0.0
 20
2.500000000000002
 30
0.0
 11
0.0
 21
4.500000000000031
 31
0.0
  0
LINE
  5
B2EF
330
B2E8
100
AcDbEntity
  8
0
  6
Continuous
 62
     0
370
     0
100
AcDbLine
 10
-2.500000000000002
 20
0.0
 30
0.0
 11
-4.500000000000031
 21
0.0
 31
0.0
  0
LINE
  5
B2F0
330
B2E8
100
AcDbEntity
  8
0
  6
Continuous
 62
     0
370
     0
100
AcDbLine
 10
0.0
 20
-2.500000000000002
 30
0.0
 11
0.0
 21
-4.500000000000003
 31
0.0
  0
LINE
  5
B2F1
330
B2E8
100
AcDbEntity
  8
0
  6
Continuous
 62
     0
370
     0
100
AcDbLine
 10
2.500000000000002
 20
0.0
 30
0.0
 11
4.500000000000003
 21
0.0
 31
0.0
  0
ENDBLK
  5
B2F2
330
B2E8
100
AcDbEntity
  8
0
100
AcDbBlockEnd
  0
BLOCK
  5
B2F4
330
B2F3
100
AcDbEntity
  8
0
100
AcDbBlockBegin
  2
SW_CENTERMARKSYMBOL_7
 70
     0
 10
0.0
 20
0.0
 30
0.0
  3
SW_CENTERMARKSYMBOL_7
  1

  0
LINE
  5
B2F5
330
B2F3
100
AcDbEntity
  8
0
  6
Continuous
 62
     0
370
     0
100
AcDbLine
 10
0.0
 20
0.0
 30
0.0
 11
0.0
 21
2.499999999999974
 31
0.0
  0
LINE
  5
B2F6
330
B2F3
100
AcDbEntity
  8
0
  6
Continuous
 62
     0
370
     0
100
AcDbLine
 10
0.0
 20
0.0
 30
0.0
 11
-2.500000000000002
 21
0.0
 31
0.0
  0
LINE
  5
B2F7
330
B2F3
100
AcDbEntity
  8
0
  6
Continuous
 62
     0
370
     0
100
AcDbLine
 10
0.0
 20
0.0
 30
0.0
 11
0.0
 21
-2.500000000000002
 31
0.0
  0
LINE
  5
B2F8
330
B2F3
100
AcDbEntity
  8
0
  6
Continuous
 62
     0
370
     0
100
AcDbLine
 10
0.0
 20
0.0
 30
0.0
 11
2.500000000000002
 21
0.0
 31
0.0
  0
LINE
  5
B2F9
330
B2F3
100
AcDbEntity
  8
0
  6
Continuous
 62
     0
370
     0
100
AcDbLine
 10
0.0
 20
2.499999999999974
 30
0.0
 11
0.0
 21
4.599999999999992
 31
0.0
  0
LINE
  5
B2FA
330
B2F3
100
AcDbEntity
  8
0
  6
Continuous
 62
     0
370
     0
100
AcDbLine
 10
-2.500000000000002
 20
0.0
 30
0.0
 11
-4.599999999999992
 21
0.0
 31
0.0
  0
LINE
  5
B2FB
330
B2F3
100
AcDbEntity
  8
0
  6
Continuous
 62
     0
370
     0
100
AcDbLine
 10
0.0
 20
-2.500000000000002
 30
0.0
 11
0.0
 21
-4.60000000000002
 31
0.0
  0
LINE
  5
B2FC
330
B2F3
100
AcDbEntity
  8
0
  6
Continuous
 62
     0
370
     0
100
AcDbLine
 10
2.500000000000002
 20
0.0
 30
0.0
 11
4.599999999999992
 21
0.0
 31
0.0
  0
ENDBLK
  5
B2FD
330
B2F3
100
AcDbEntity
  8
0
100
AcDbBlockEnd
  0
BLOCK
  5
B2FF
330
B2FE
100
AcDbEntity
  8
0
100
AcDbBlockBegin
  2
SW_CENTERMARKSYMBOL_8
 70
     0
 10
0.0
 20
0.0
 30
0.0
  3
SW_CENTERMARKSYMBOL_8
  1

  0
LINE
  5
B300
330
B2FE
100
AcDbEntity
  8
0
  6
Continuous
 62
     0
370
     0
100
AcDbLine
 10
0.0
 20
0.0
 30
0.0
 11
0.0
 21
2.500000000000002
 31
0.0
  0
LINE
  5
B301
330
B2FE
100
AcDbEntity
  8
0
  6
Continuous
 62
     0
370
     0
100
AcDbLine
 10
0.0
 20
0.0
 30
0.0
 11
-2.500000000000002
 21
0.0
 31
0.0
  0
LINE
  5
B302
330
B2FE
100
AcDbEntity
  8
0
  6
Continuous
 62
     0
370
     0
100
AcDbLine
 10
0.0
 20
0.0
 30
0.0
 11
0.0
 21
-2.500000000000002
 31
0.0
  0
LINE
  5
B303
330
B2FE
100
AcDbEntity
  8
0
  6
Continuous
 62
     0
370
     0
100
AcDbLine
 10
0.0
 20
0.0
 30
0.0
 11
2.499999999999946
 21
0.0
 31
0.0
  0
LINE
  5
B304
330
B2FE
100
AcDbEntity
  8
0
  6
Continuous
 62
     0
370
     0
100
AcDbLine
 10
0.0
 20
2.500000000000002
 30
0.0
 11
0.0
 21
4.500000000000031
 31
0.0
  0
LINE
  5
B305
330
B2FE
100
AcDbEntity
  8
0
  6
Continuous
 62
     0
370
     0
100
AcDbLine
 10
-2.500000000000002
 20
0.0
 30
0.0
 11
-4.500000000000031
 21
0.0
 31
0.0
  0
LINE
  5
B306
330
B2FE
100
AcDbEntity
  8
0
  6
Continuous
 62
     0
370
     0
100
AcDbLine
 10
0.0
 20
-2.500000000000002
 30
0.0
 11
0.0
 21
-4.500000000000003
 31
0.0
  0
LINE
  5
B307
330
B2FE
100
AcDbEntity
  8
0
  6
Continuous
 62
     0
370
     0
100
AcDbLine
 10
2.499999999999946
 20
0.0
 30
0.0
 11
4.500000000000003
 21
0.0
 31
0.0
  0
ENDBLK
  5
B308
330
B2FE
100
AcDbEntity
  8
0
100
AcDbBlockEnd
  0
BLOCK
  5
B30A
330
B309
100
AcDbEntity
  8
0
100
AcDbBlockBegin
  2
SW_CENTERMARKSYMBOL_9
 70
     0
 10
0.0
 20
0.0
 30
0.0
  3
SW_CENTERMARKSYMBOL_9
  1

  0
LINE
  5
B30B
330
B309
100
AcDbEntity
  8
0
  6
Continuous
 62
     0
370
     0
100
AcDbLine
 10
0.0
 20
0.0
 30
0.0
 11
0.0
 21
2.500000000000002
 31
0.0
  0
LINE
  5
B30C
330
B309
100
AcDbEntity
  8
0
  6
Continuous
 62
     0
370
     0
100
AcDbLine
 10
0.0
 20
0.0
 30
0.0
 11
-2.500000000000002
 21
0.0
 31
0.0
  0
LINE
  5
B30D
330
B309
100
AcDbEntity
  8
0
  6
Continuous
 62
     0
370
     0
100
AcDbLine
 10
0.0
 20
0.0
 30
0.0
 11
0.0
 21
-2.500000000000002
 31
0.0
  0
LINE
  5
B30E
330
B309
100
AcDbEntity
  8
0
  6
Continuous
 62
     0
370
     0
100
AcDbLine
 10
0.0
 20
0.0
 30
0.0
 11
2.500000000000002
 21
0.0
 31
0.0
  0
LINE
  5
B30F
330
B309
100
AcDbEntity
  8
0
  6
Continuous
 62
     0
370
     0
100
AcDbLine
 10
0.0
 20
2.500000000000002
 30
0.0
 11
0.0
 21
4.500000000000003
 31
0.0
  0
LINE
  5
B310
330
B309
100
AcDbEntity
  8
0
  6
Continuous
 62
     0
370
     0
100
AcDbLine
 10
-2.500000000000002
 20
0.0
 30
0.0
 11
-4.500000000000031
 21
0.0
 31
0.0
  0
LINE
  5
B311
330
B309
100
AcDbEntity
  8
0
  6
Continuous
 62
     0
370
     0
100
AcDbLine
 10
0.0
 20
-2.500000000000002
 30
0.0
 11
0.0
 21
-4.500000000000003
 31
0.0
  0
LINE
  5
B312
330
B309
100
AcDbEntity
  8
0
  6
Continuous
 62
     0
370
     0
100
AcDbLine
 10
2.500000000000002
 20
0.0
 30
0.0
 11
4.500000000000003
 21
0.0
 31
0.0
  0
ENDBLK
  5
B313
330
B309
100
AcDbEntity
  8
0
100
AcDbBlockEnd
  0
BLOCK
  5
B315
330
B314
100
AcDbEntity
  8
0
100
AcDbBlockBegin
  2
SW_CENTERMARKSYMBOL_10
 70
     0
 10
0.0
 20
0.0
 30
0.0
  3
SW_CENTERMARKSYMBOL_10
  1

  0
LINE
  5
B316
330
B314
100
AcDbEntity
  8
0
  6
Continuous
 62
     0
370
     0
100
AcDbLine
 10
0.0
 20
0.0
 30
0.0
 11
0.0
 21
2.499999999999974
 31
0.0
  0
LINE
  5
B317
330
B314
100
AcDbEntity
  8
0
  6
Continuous
 62
     0
370
     0
100
AcDbLine
 10
0.0
 20
0.0
 30
0.0
 11
-2.500000000000002
 21
0.0
 31
0.0
  0
LINE
  5
B318
330
B314
100
AcDbEntity
  8
0
  6
Continuous
 62
     0
370
     0
100
AcDbLine
 10
0.0
 20
0.0
 30
0.0
 11
0.0
 21
-2.500000000000002
 31
0.0
  0
LINE
  5
B319
330
B314
100
AcDbEntity
  8
0
  6
Continuous
 62
     0
370
     0
100
AcDbLine
 10
0.0
 20
0.0
 30
0.0
 11
2.500000000000002
 21
0.0
 31
0.0
  0
LINE
  5
B31A
330
B314
100
AcDbEntity
  8
0
  6
Continuous
 62
     0
370
     0
100
AcDbLine
 10
0.0
 20
4.999999999999976
 30
0.0
 11
0.0
 21
5.699999999999983
 31
0.0
  0
LINE
  5
B31B
330
B314
100
AcDbEntity
  8
0
  6
Continuous
 62
     0
370
     0
100
AcDbLine
 10
-5.000000000000004
 20
0.0
 30
0.0
 11
-5.70000000000001
 21
0.0
 31
0.0
  0
LINE
  5
B31C
330
B314
100
AcDbEntity
  8
0
  6
Continuous
 62
     0
370
     0
100
AcDbLine
 10
0.0
 20
-5.000000000000004
 30
0.0
 11
0.0
 21
-5.70000000000001
 31
0.0
  0
LINE
  5
B31D
330
B314
100
AcDbEntity
  8
0
  6
Continuous
 62
     0
370
     0
100
AcDbLine
 10
5.000000000000004
 20
0.0
 30
0.0
 11
5.699999999999983
 21
0.0
 31
0.0
  0
ENDBLK
  5
B31E
330
B314
100
AcDbEntity
  8
0
100
AcDbBlockEnd
  0
BLOCK
  5
B320
330
B31F
100
AcDbEntity
  8
0
100
AcDbBlockBegin
  2
SW_CENTERMARKSYMBOL_11
 70
     0
 10
0.0
 20
0.0
 30
0.0
  3
SW_CENTERMARKSYMBOL_11
  1

  0
LINE
  5
B321
330
B31F
100
AcDbEntity
  8
0
  6
Continuous
 62
     0
370
     0
100
AcDbLine
 10
0.0
 20
0.0
 30
0.0
 11
0.0
 21
2.500000000000002
 31
0.0
  0
LINE
  5
B322
330
B31F
100
AcDbEntity
  8
0
  6
Continuous
 62
     0
370
     0
100
AcDbLine
 10
0.0
 20
0.0
 30
0.0
 11
-2.500000000000002
 21
0.0
 31
0.0
  0
LINE
  5
B323
330
B31F
100
AcDbEntity
  8
0
  6
Continuous
 62
     0
370
     0
100
AcDbLine
 10
0.0
 20
0.0
 30
0.0
 11
0.0
 21
-2.500000000000002
 31
0.0
  0
LINE
  5
B324
330
B31F
100
AcDbEntity
  8
0
  6
Continuous
 62
     0
370
     0
100
AcDbLine
 10
0.0
 20
0.0
 30
0.0
 11
2.500000000000002
 21
0.0
 31
0.0
  0
LINE
  5
B325
330
B31F
100
AcDbEntity
  8
0
  6
Continuous
 62
     0
370
     0
100
AcDbLine
 10
0.0
 20
5.000000000000004
 30
0.0
 11
0.0
 21
5.699999999999983
 31
0.0
  0
LINE
  5
B326
330
B31F
100
AcDbEntity
  8
0
  6
Continuous
 62
     0
370
     0
100
AcDbLine
 10
-5.000000000000004
 20
0.0
 30
0.0
 11
-5.70000000000001
 21
0.0
 31
0.0
  0
LINE
  5
B327
330
B31F
100
AcDbEntity
  8
0
  6
Continuous
 62
     0
370
     0
100
AcDbLine
 10
0.0
 20
-5.000000000000004
 30
0.0
 11
0.0
 21
-5.70000000000001
 31
0.0
  0
LINE
  5
B328
330
B31F
100
AcDbEntity
  8
0
  6
Continuous
 62
     0
370
     0
100
AcDbLine
 10
5.000000000000004
 20
0.0
 30
0.0
 11
5.699999999999983
 21
0.0
 31
0.0
  0
ENDBLK
  5
B329
330
B31F
100
AcDbEntity
  8
0
100
AcDbBlockEnd
  0
BLOCK
  5
B32B
330
B32A
100
AcDbEntity
  8
0
100
AcDbBlockBegin
  2
SW_CENTERMARKSYMBOL_12
 70
     0
 10
0.0
 20
0.0
 30
0.0
  3
SW_CENTERMARKSYMBOL_12
  1

  0
LINE
  5
B32C
330
B32A
100
AcDbEntity
  8
0
  6
Continuous
 62
     0
370
     0
100
AcDbLine
 10
0.0
 20
0.0
 30
0.0
 11
0.0
 21
2.500000000000002
 31
0.0
  0
LINE
  5
B32D
330
B32A
100
AcDbEntity
  8
0
  6
Continuous
 62
     0
370
     0
100
AcDbLine
 10
0.0
 20
0.0
 30
0.0
 11
-2.500000000000002
 21
0.0
 31
0.0
  0
LINE
  5
B32E
330
B32A
100
AcDbEntity
  8
0
  6
Continuous
 62
     0
370
     0
100
AcDbLine
 10
0.0
 20
0.0
 30
0.0
 11
0.0
 21
-2.500000000000002
 31
0.0
  0
LINE
  5
B32F
330
B32A
100
AcDbEntity
  8
0
  6
Continuous
 62
     0
370
     0
100
AcDbLine
 10
0.0
 20
0.0
 30
0.0
 11
2.500000000000002
 21
0.0
 31
0.0
  0
LINE
  5
B330
330
B32A
100
AcDbEntity
  8
0
  6
Continuous
 62
     0
370
     0
100
AcDbLine
 10
0.0
 20
2.500000000000002
 30
0.0
 11
0.0
 21
5.000000000000004
 31
0.0
  0
LINE
  5
B331
330
B32A
100
AcDbEntity
  8
0
  6
Continuous
 62
     0
370
     0
100
AcDbLine
 10
-2.500000000000002
 20
0.0
 30
0.0
 11
-5.000000000000004
 21
0.0
 31
0.0
  0
LINE
  5
B332
330
B32A
100
AcDbEntity
  8
0
  6
Continuous
 62
     0
370
     0
100
AcDbLine
 10
0.0
 20
-2.500000000000002
 30
0.0
 11
0.0
 21
-5.000000000000004
 31
0.0
  0
LINE
  5
B333
330
B32A
100
AcDbEntity
  8
0
  6
Continuous
 62
     0
370
     0
100
AcDbLine
 10
2.500000000000002
 20
0.0
 30
0.0
 11
5.000000000000004
 21
0.0
 31
0.0
  0
ENDBLK
  5
B334
330
B32A
100
AcDbEntity
  8
0
100
AcDbBlockEnd
  0
BLOCK
  5
B336
330
B335
100
AcDbEntity
  8
0
100
AcDbBlockBegin
  2
SW_CENTERMARKSYMBOL_13
 70
     0
 10
0.0
 20
0.0
 30
0.0
  3
SW_CENTERMARKSYMBOL_13
  1

  0
LINE
  5
B337
330
B335
100
AcDbEntity
  8
0
  6
Continuous
 62
     0
370
     0
100
AcDbLine
 10
0.0
 20
0.0
 30
0.0
 11
0.0
 21
2.500000000000002
 31
0.0
  0
LINE
  5
B338
330
B335
100
AcDbEntity
  8
0
  6
Continuous
 62
     0
370
     0
100
AcDbLine
 10
0.0
 20
0.0
 30
0.0
 11
-2.500000000000002
 21
0.0
 31
0.0
  0
LINE
  5
B339
330
B335
100
AcDbEntity
  8
0
  6
Continuous
 62
     0
370
     0
100
AcDbLine
 10
0.0
 20
0.0
 30
0.0
 11
0.0
 21
-2.500000000000002
 31
0.0
  0
LINE
  5
B33A
330
B335
100
AcDbEntity
  8
0
  6
Continuous
 62
     0
370
     0
100
AcDbLine
 10
0.0
 20
0.0
 30
0.0
 11
2.500000000000002
 21
0.0
 31
0.0
  0
LINE
  5
B33B
330
B335
100
AcDbEntity
  8
0
  6
Continuous
 62
     0
370
     0
100
AcDbLine
 10
0.0
 20
2.500000000000002
 30
0.0
 11
0.0
 21
5.000000000000004
 31
0.0
  0
LINE
  5
B33C
330
B335
100
AcDbEntity
  8
0
  6
Continuous
 62
     0
370
     0
100
AcDbLine
 10
-2.500000000000002
 20
0.0
 30
0.0
 11
-5.000000000000004
 21
0.0
 31
0.0
  0
LINE
  5
B33D
330
B335
100
AcDbEntity
  8
0
  6
Continuous
 62
     0
370
     0
100
AcDbLine
 10
0.0
 20
-2.500000000000002
 30
0.0
 11
0.0
 21
-5.000000000000004
 31
0.0
  0
LINE
  5
B33E
330
B335
100
AcDbEntity
  8
0
  6
Continuous
 62
     0
370
     0
100
AcDbLine
 10
2.500000000000002
 20
0.0
 30
0.0
 11
5.000000000000004
 21
0.0
 31
0.0
  0
ENDBLK
  5
B33F
330
B335
100
AcDbEntity
  8
0
100
AcDbBlockEnd
  0
BLOCK
  5
B341
330
B340
100
AcDbEntity
  8
0
100
AcDbBlockBegin
  2
SW_CENTERMARKSYMBOL_14
 70
     0
 10
0.0
 20
0.0
 30
0.0
  3
SW_CENTERMARKSYMBOL_14
  1

  0
LINE
  5
B342
330
B340
100
AcDbEntity
  8
0
  6
Continuous
 62
     0
370
     0
100
AcDbLine
 10
0.0
 20
0.0
 30
0.0
 11
0.0
 21
2.500000000000002
 31
0.0
  0
LINE
  5
B343
330
B340
100
AcDbEntity
  8
0
  6
Continuous
 62
     0
370
     0
100
AcDbLine
 10
0.0
 20
0.0
 30
0.0
 11
-2.500000000000002
 21
0.0
 31
0.0
  0
LINE
  5
B344
330
B340
100
AcDbEntity
  8
0
  6
Continuous
 62
     0
370
     0
100
AcDbLine
 10
0.0
 20
0.0
 30
0.0
 11
0.0
 21
-2.500000000000002
 31
0.0
  0
LINE
  5
B345
330
B340
100
AcDbEntity
  8
0
  6
Continuous
 62
     0
370
     0
100
AcDbLine
 10
0.0
 20
0.0
 30
0.0
 11
2.500000000000002
 21
0.0
 31
0.0
  0
LINE
  5
B346
330
B340
100
AcDbEntity
  8
0
  6
Continuous
 62
     0
370
     0
100
AcDbLine
 10
0.0
 20
5.000000000000004
 30
0.0
 11
0.0
 21
5.699999999999983
 31
0.0
  0
LINE
  5
B347
330
B340
100
AcDbEntity
  8
0
  6
Continuous
 62
     0
370
     0
100
AcDbLine
 10
-4.999999999999976
 20
0.0
 30
0.0
 11
-5.699999999999983
 21
0.0
 31
0.0
  0
LINE
  5
B348
330
B340
100
AcDbEntity
  8
0
  6
Continuous
 62
     0
370
     0
100
AcDbLine
 10
0.0
 20
-5.000000000000004
 30
0.0
 11
0.0
 21
-5.70000000000001
 31
0.0
  0
LINE
  5
B349
330
B340
100
AcDbEntity
  8
0
  6
Continuous
 62
     0
370
     0
100
AcDbLine
 10
5.000000000000004
 20
0.0
 30
0.0
 11
5.70000000000001
 21
0.0
 31
0.0
  0
ENDBLK
  5
B34A
330
B340
100
AcDbEntity
  8
0
100
AcDbBlockEnd
  0
BLOCK
  5
B34C
330
B34B
100
AcDbEntity
  8
0
100
AcDbBlockBegin
  2
SW_CENTERMARKSYMBOL_15
 70
     0
 10
0.0
 20
0.0
 30
0.0
  3
SW_CENTERMARKSYMBOL_15
  1

  0
LINE
  5
B34D
330
B34B
100
AcDbEntity
  8
0
  6
Continuous
 62
     0
370
     0
100
AcDbLine
 10
0.0
 20
0.0
 30
0.0
 11
0.0
 21
2.5
 31
0.0
  0
LINE
  5
B34E
330
B34B
100
AcDbEntity
  8
0
  6
Continuous
 62
     0
370
     0
100
AcDbLine
 10
0.0
 20
0.0
 30
0.0
 11
-2.500000000000002
 21
0.0
 31
0.0
  0
LINE
  5
B34F
330
B34B
100
AcDbEntity
  8
0
  6
Continuous
 62
     0
370
     0
100
AcDbLine
 10
0.0
 20
0.0
 30
0.0
 11
0.0
 21
-2.5
 31
0.0
  0
LINE
  5
B350
330
B34B
100
AcDbEntity
  8
0
  6
Continuous
 62
     0
370
     0
100
AcDbLine
 10
0.0
 20
0.0
 30
0.0
 11
2.500000000000002
 21
0.0
 31
0.0
  0
LINE
  5
B351
330
B34B
100
AcDbEntity
  8
0
  6
Continuous
 62
     0
370
     0
100
AcDbLine
 10
0.0
 20
2.5
 30
0.0
 11
0.0
 21
4.600000000000004
 31
0.0
  0
LINE
  5
B352
330
B34B
100
AcDbEntity
  8
0
  6
Continuous
 62
     0
370
     0
100
AcDbLine
 10
-2.500000000000002
 20
0.0
 30
0.0
 11
-4.60000000000002
 21
0.0
 31
0.0
  0
LINE
  5
B353
330
B34B
100
AcDbEntity
  8
0
  6
Continuous
 62
     0
370
     0
100
AcDbLine
 10
0.0
 20
-2.5
 30
0.0
 11
0.0
 21
-4.600000000000004
 31
0.0
  0
LINE
  5
B354
330
B34B
100
AcDbEntity
  8
0
  6
Continuous
 62
     0
370
     0
100
AcDbLine
 10
2.500000000000002
 20
0.0
 30
0.0
 11
4.599999999999992
 21
0.0
 31
0.0
  0
ENDBLK
  5
B355
330
B34B
100
AcDbEntity
  8
0
100
AcDbBlockEnd
  0
BLOCK
  5
B357
330
B356
100
AcDbEntity
  8
0
100
AcDbBlockBegin
  2
SW_CENTERMARKSYMBOL_16
 70
     0
 10
0.0
 20
0.0
 30
0.0
  3
SW_CENTERMARKSYMBOL_16
  1

  0
LINE
  5
B358
330
B356
100
AcDbEntity
  8
0
  6
Continuous
 62
     0
370
     0
100
AcDbLine
 10
0.0
 20
0.0
 30
0.0
 11
0.0
 21
2.499999999999998
 31
0.0
  0
LINE
  5
B359
330
B356
100
AcDbEntity
  8
0
  6
Continuous
 62
     0
370
     0
100
AcDbLine
 10
0.0
 20
0.0
 30
0.0
 11
-2.500000000000002
 21
0.0
 31
0.0
  0
LINE
  5
B35A
330
B356
100
AcDbEntity
  8
0
  6
Continuous
 62
     0
370
     0
100
AcDbLine
 10
0.0
 20
0.0
 30
0.0
 11
0.0
 21
-2.5
 31
0.0
  0
LINE
  5
B35B
330
B356
100
AcDbEntity
  8
0
  6
Continuous
 62
     0
370
     0
100
AcDbLine
 10
0.0
 20
0.0
 30
0.0
 11
2.499999999999974
 21
0.0
 31
0.0
  0
LINE
  5
B35C
330
B356
100
AcDbEntity
  8
0
  6
Continuous
 62
     0
370
     0
100
AcDbLine
 10
0.0
 20
2.499999999999998
 30
0.0
 11
0.0
 21
4.600000000000003
 31
0.0
  0
LINE
  5
B35D
330
B356
100
AcDbEntity
  8
0
  6
Continuous
 62
     0
370
     0
100
AcDbLine
 10
-2.500000000000002
 20
0.0
 30
0.0
 11
-4.60000000000002
 21
0.0
 31
0.0
  0
LINE
  5
B35E
330
B356
100
AcDbEntity
  8
0
  6
Continuous
 62
     0
370
     0
100
AcDbLine
 10
0.0
 20
-2.5
 30
0.0
 11
0.0
 21
-4.600000000000004
 31
0.0
  0
LINE
  5
B35F
330
B356
100
AcDbEntity
  8
0
  6
Continuous
 62
     0
370
     0
100
AcDbLine
 10
2.499999999999974
 20
0.0
 30
0.0
 11
4.60000000000002
 21
0.0
 31
0.0
  0
ENDBLK
  5
B360
330
B356
100
AcDbEntity
  8
0
100
AcDbBlockEnd
  0
BLOCK
  5
B362
330
B361
100
AcDbEntity
  8
0
100
AcDbBlockBegin
  2
SW_CENTERMARKSYMBOL_17
 70
     0
 10
0.0
 20
0.0
 30
0.0
  3
SW_CENTERMARKSYMBOL_17
  1

  0
LINE
  5
B363
330
B361
100
AcDbEntity
  8
0
  6
Continuous
 62
     0
370
     0
100
AcDbLine
 10
0.0
 20
0.0
 30
0.0
 11
0.0
 21
2.500000000000002
 31
0.0
  0
LINE
  5
B364
330
B361
100
AcDbEntity
  8
0
  6
Continuous
 62
     0
370
     0
100
AcDbLine
 10
0.0
 20
0.0
 30
0.0
 11
-2.500000000000002
 21
0.0
 31
0.0
  0
LINE
  5
B365
330
B361
100
AcDbEntity
  8
0
  6
Continuous
 62
     0
370
     0
100
AcDbLine
 10
0.0
 20
0.0
 30
0.0
 11
0.0
 21
-2.500000000000002
 31
0.0
  0
LINE
  5
B366
330
B361
100
AcDbEntity
  8
0
  6
Continuous
 62
     0
370
     0
100
AcDbLine
 10
0.0
 20
0.0
 30
0.0
 11
2.500000000000002
 21
0.0
 31
0.0
  0
LINE
  5
B367
330
B361
100
AcDbEntity
  8
0
  6
Continuous
 62
     0
370
     0
100
AcDbLine
 10
0.0
 20
2.500000000000002
 30
0.0
 11
0.0
 21
4.600000000000006
 31
0.0
  0
LINE
  5
B368
330
B361
100
AcDbEntity
  8
0
  6
Continuous
 62
     0
370
     0
100
AcDbLine
 10
-2.500000000000002
 20
0.0
 30
0.0
 11
-4.599999999999992
 21
0.0
 31
0.0
  0
LINE
  5
B369
330
B361
100
AcDbEntity
  8
0
  6
Continuous
 62
     0
370
     0
100
AcDbLine
 10
0.0
 20
-2.500000000000002
 30
0.0
 11
0.0
 21
-4.600000000000006
 31
0.0
  0
LINE
  5
B36A
330
B361
100
AcDbEntity
  8
0
  6
Continuous
 62
     0
370
     0
100
AcDbLine
 10
2.500000000000002
 20
0.0
 30
0.0
 11
4.60000000000002
 21
0.0
 31
0.0
  0
ENDBLK
  5
B36B
330
B361
100
AcDbEntity
  8
0
100
AcDbBlockEnd
  0
BLOCK
  5
B36D
330
B36C
100
AcDbEntity
  8
0
100
AcDbBlockBegin
  2
SW_CENTERMARKSYMBOL_18
 70
     0
 10
0.0
 20
0.0
 30
0.0
  3
SW_CENTERMARKSYMBOL_18
  1

  0
LINE
  5
B36E
330
B36C
100
AcDbEntity
  8
0
  6
Continuous
 62
     0
370
     0
100
AcDbLine
 10
0.0
 20
0.0
 30
0.0
 11
0.0
 21
2.500000000000002
 31
0.0
  0
LINE
  5
B36F
330
B36C
100
AcDbEntity
  8
0
  6
Continuous
 62
     0
370
     0
100
AcDbLine
 10
0.0
 20
0.0
 30
0.0
 11
-2.500000000000002
 21
0.0
 31
0.0
  0
LINE
  5
B370
330
B36C
100
AcDbEntity
  8
0
  6
Continuous
 62
     0
370
     0
100
AcDbLine
 10
0.0
 20
0.0
 30
0.0
 11
0.0
 21
-2.499999999999995
 31
0.0
  0
LINE
  5
B371
330
B36C
100
AcDbEntity
  8
0
  6
Continuous
 62
     0
370
     0
100
AcDbLine
 10
0.0
 20
0.0
 30
0.0
 11
2.500000000000002
 21
0.0
 31
0.0
  0
LINE
  5
B372
330
B36C
100
AcDbEntity
  8
0
  6
Continuous
 62
     0
370
     0
100
AcDbLine
 10
0.0
 20
2.500000000000002
 30
0.0
 11
0.0
 21
4.600000000000006
 31
0.0
  0
LINE
  5
B373
330
B36C
100
AcDbEntity
  8
0
  6
Continuous
 62
     0
370
     0
100
AcDbLine
 10
-2.500000000000002
 20
0.0
 30
0.0
 11
-4.599999999999992
 21
0.0
 31
0.0
  0
LINE
  5
B374
330
B36C
100
AcDbEntity
  8
0
  6
Continuous
 62
     0
370
     0
100
AcDbLine
 10
0.0
 20
-2.499999999999995
 30
0.0
 11
0.0
 21
-4.599999999999999
 31
0.0
  0
LINE
  5
B375
330
B36C
100
AcDbEntity
  8
0
  6
Continuous
 62
     0
370
     0
100
AcDbLine
 10
2.500000000000002
 20
0.0
 30
0.0
 11
4.60000000000002
 21
0.0
 31
0.0
  0
ENDBLK
  5
B376
330
B36C
100
AcDbEntity
  8
0
100
AcDbBlockEnd
  0
BLOCK
  5
B378
330
B377
100
AcDbEntity
  8
0
100
AcDbBlockBegin
  2
SW_CENTERMARKSYMBOL_19
 70
     0
 10
0.0
 20
0.0
 30
0.0
  3
SW_CENTERMARKSYMBOL_19
  1

  0
LINE
  5
B379
330
B377
100
AcDbEntity
  8
0
  6
Continuous
 62
     0
370
     0
100
AcDbLine
 10
0.0
 20
0.0
 30
0.0
 11
0.0
 21
2.5
 31
0.0
  0
LINE
  5
B37A
330
B377
100
AcDbEntity
  8
0
  6
Continuous
 62
     0
370
     0
100
AcDbLine
 10
0.0
 20
0.0
 30
0.0
 11
-2.500000000000002
 21
0.0
 31
0.0
  0
LINE
  5
B37B
330
B377
100
AcDbEntity
  8
0
  6
Continuous
 62
     0
370
     0
100
AcDbLine
 10
0.0
 20
0.0
 30
0.0
 11
0.0
 21
-2.499999999999998
 31
0.0
  0
LINE
  5
B37C
330
B377
100
AcDbEntity
  8
0
  6
Continuous
 62
     0
370
     0
100
AcDbLine
 10
0.0
 20
0.0
 30
0.0
 11
2.500000000000002
 21
0.0
 31
0.0
  0
LINE
  5
B37D
330
B377
100
AcDbEntity
  8
0
  6
Continuous
 62
     0
370
     0
100
AcDbLine
 10
0.0
 20
5.0
 30
0.0
 11
0.0
 21
33.00000001079222
 31
0.0
  0
LINE
  5
B37E
330
B377
100
AcDbEntity
  8
0
  6
Continuous
 62
     0
370
     0
100
AcDbLine
 10
-5.000000000000004
 20
0.0
 30
0.0
 11
-33.00000001079223
 21
0.0
 31
0.0
  0
LINE
  5
B37F
330
B377
100
AcDbEntity
  8
0
  6
Continuous
 62
     0
370
     0
100
AcDbLine
 10
0.0
 20
-4.999999999999997
 30
0.0
 11
0.0
 21
-33.00000001079222
 31
0.0
  0
LINE
  5
B380
330
B377
100
AcDbEntity
  8
0
  6
Continuous
 62
     0
370
     0
100
AcDbLine
 10
5.000000000000004
 20
0.0
 30
0.0
 11
33.00000001079223
 21
0.0
 31
0.0
  0
ENDBLK
  5
B381
330
B377
100
AcDbEntity
  8
0
100
AcDbBlockEnd
  0
BLOCK
  5
B383
330
B382
100
AcDbEntity
  8
0
100
AcDbBlockBegin
  2
SW_CENTERMARKSYMBOL_20
 70
     0
 10
0.0
 20
0.0
 30
0.0
  3
SW_CENTERMARKSYMBOL_20
  1

  0
LINE
  5
B384
330
B382
100
AcDbEntity
  8
0
  6
Continuous
 62
     0
370
     0
100
AcDbLine
 10
0.0
 20
0.0
 30
0.0
 11
0.0
 21
2.499999999999998
 31
0.0
  0
LINE
  5
B385
330
B382
100
AcDbEntity
  8
0
  6
Continuous
 62
     0
370
     0
100
AcDbLine
 10
0.0
 20
0.0
 30
0.0
 11
-2.500000000000002
 21
0.0
 31
0.0
  0
LINE
  5
B386
330
B382
100
AcDbEntity
  8
0
  6
Continuous
 62
     0
370
     0
100
AcDbLine
 10
0.0
 20
0.0
 30
0.0
 11
0.0
 21
-2.499999999999998
 31
0.0
  0
LINE
  5
B387
330
B382
100
AcDbEntity
  8
0
  6
Continuous
 62
     0
370
     0
100
AcDbLine
 10
0.0
 20
0.0
 30
0.0
 11
2.500000000000002
 21
0.0
 31
0.0
  0
LINE
  5
B388
330
B382
100
AcDbEntity
  8
0
  6
Continuous
 62
     0
370
     0
100
AcDbLine
 10
0.0
 20
2.499999999999998
 30
0.0
 11
0.0
 21
4.600000000000003
 31
0.0
  0
LINE
  5
B389
330
B382
100
AcDbEntity
  8
0
  6
Continuous
 62
     0
370
     0
100
AcDbLine
 10
-2.500000000000002
 20
0.0
 30
0.0
 11
-4.599999999999992
 21
0.0
 31
0.0
  0
LINE
  5
B38A
330
B382
100
AcDbEntity
  8
0
  6
Continuous
 62
     0
370
     0
100
AcDbLine
 10
0.0
 20
-2.499999999999998
 30
0.0
 11
0.0
 21
-4.600000000000004
 31
0.0
  0
LINE
  5
B38B
330
B382
100
AcDbEntity
  8
0
  6
Continuous
 62
     0
370
     0
100
AcDbLine
 10
2.500000000000002
 20
0.0
 30
0.0
 11
4.60000000000002
 21
0.0
 31
0.0
  0
ENDBLK
  5
B38C
330
B382
100
AcDbEntity
  8
0
100
AcDbBlockEnd
  0
BLOCK
  5
B38E
330
B38D
100
AcDbEntity
  8
0
100
AcDbBlockBegin
  2
SW_CENTERMARKSYMBOL_21
 70
     0
 10
0.0
 20
0.0
 30
0.0
  3
SW_CENTERMARKSYMBOL_21
  1

  0
LINE
  5
B38F
330
B38D
100
AcDbEntity
  8
0
  6
Continuous
 62
     0
370
     0
100
AcDbLine
 10
0.0
 20
0.0
 30
0.0
 11
0.0
 21
2.499999999999998
 31
0.0
  0
LINE
  5
B390
330
B38D
100
AcDbEntity
  8
0
  6
Continuous
 62
     0
370
     0
100
AcDbLine
 10
0.0
 20
0.0
 30
0.0
 11
-2.500000000000002
 21
0.0
 31
0.0
  0
LINE
  5
B391
330
B38D
100
AcDbEntity
  8
0
  6
Continuous
 62
     0
370
     0
100
AcDbLine
 10
0.0
 20
0.0
 30
0.0
 11
0.0
 21
-2.5
 31
0.0
  0
LINE
  5
B392
330
B38D
100
AcDbEntity
  8
0
  6
Continuous
 62
     0
370
     0
100
AcDbLine
 10
0.0
 20
0.0
 30
0.0
 11
2.500000000000002
 21
0.0
 31
0.0
  0
LINE
  5
B393
330
B38D
100
AcDbEntity
  8
0
  6
Continuous
 62
     0
370
     0
100
AcDbLine
 10
0.0
 20
2.499999999999998
 30
0.0
 11
0.0
 21
4.50000000000001
 31
0.0
  0
LINE
  5
B394
330
B38D
100
AcDbEntity
  8
0
  6
Continuous
 62
     0
370
     0
100
AcDbLine
 10
-2.500000000000002
 20
0.0
 30
0.0
 11
-4.500000000000031
 21
0.0
 31
0.0
  0
LINE
  5
B395
330
B38D
100
AcDbEntity
  8
0
  6
Continuous
 62
     0
370
     0
100
AcDbLine
 10
0.0
 20
-2.5
 30
0.0
 11
0.0
 21
-4.500000000000008
 31
0.0
  0
LINE
  5
B396
330
B38D
100
AcDbEntity
  8
0
  6
Continuous
 62
     0
370
     0
100
AcDbLine
 10
2.500000000000002
 20
0.0
 30
0.0
 11
4.500000000000003
 21
0.0
 31
0.0
  0
ENDBLK
  5
B397
330
B38D
100
AcDbEntity
  8
0
100
AcDbBlockEnd
  0
BLOCK
  5
B399
330
B398
100
AcDbEntity
  8
0
100
AcDbBlockBegin
  2
SW_CENTERMARKSYMBOL_22
 70
     0
 10
0.0
 20
0.0
 30
0.0
  3
SW_CENTERMARKSYMBOL_22
  1

  0
LINE
  5
B39A
330
B398
100
AcDbEntity
  8
0
  6
Continuous
 62
     0
370
     0
100
AcDbLine
 10
0.0
 20
0.0
 30
0.0
 11
0.0
 21
2.499999999999998
 31
0.0
  0
LINE
  5
B39B
330
B398
100
AcDbEntity
  8
0
  6
Continuous
 62
     0
370
     0
100
AcDbLine
 10
0.0
 20
0.0
 30
0.0
 11
-2.500000000000002
 21
0.0
 31
0.0
  0
LINE
  5
B39C
330
B398
100
AcDbEntity
  8
0
  6
Continuous
 62
     0
370
     0
100
AcDbLine
 10
0.0
 20
0.0
 30
0.0
 11
0.0
 21
-2.499999999999998
 31
0.0
  0
LINE
  5
B39D
330
B398
100
AcDbEntity
  8
0
  6
Continuous
 62
     0
370
     0
100
AcDbLine
 10
0.0
 20
0.0
 30
0.0
 11
2.500000000000002
 21
0.0
 31
0.0
  0
LINE
  5
B39E
330
B398
100
AcDbEntity
  8
0
  6
Continuous
 62
     0
370
     0
100
AcDbLine
 10
0.0
 20
2.499999999999998
 30
0.0
 11
0.0
 21
4.600000000000003
 31
0.0
  0
LINE
  5
B39F
330
B398
100
AcDbEntity
  8
0
  6
Continuous
 62
     0
370
     0
100
AcDbLine
 10
-2.500000000000002
 20
0.0
 30
0.0
 11
-4.599999999999992
 21
0.0
 31
0.0
  0
LINE
  5
B3A0
330
B398
100
AcDbEntity
  8
0
  6
Continuous
 62
     0
370
     0
100
AcDbLine
 10
0.0
 20
-2.499999999999998
 30
0.0
 11
0.0
 21
-4.600000000000004
 31
0.0
  0
LINE
  5
B3A1
330
B398
100
AcDbEntity
  8
0
  6
Continuous
 62
     0
370
     0
100
AcDbLine
 10
2.500000000000002
 20
0.0
 30
0.0
 11
4.599999999999992
 21
0.0
 31
0.0
  0
ENDBLK
  5
B3A2
330
B398
100
AcDbEntity
  8
0
100
AcDbBlockEnd
  0
BLOCK
  5
B3A4
330
B3A3
100
AcDbEntity
  8
0
100
AcDbBlockBegin
  2
SW_CENTERMARKSYMBOL_23
 70
     0
 10
0.0
 20
0.0
 30
0.0
  3
SW_CENTERMARKSYMBOL_23
  1

  0
LINE
  5
B3A5
330
B3A3
100
AcDbEntity
  8
0
  6
Continuous
 62
     0
370
     0
100
AcDbLine
 10
0.0
 20
0.0
 30
0.0
 11
0.0
 21
2.499999999999998
 31
0.0
  0
LINE
  5
B3A6
330
B3A3
100
AcDbEntity
  8
0
  6
Continuous
 62
     0
370
     0
100
AcDbLine
 10
0.0
 20
0.0
 30
0.0
 11
-2.500000000000002
 21
0.0
 31
0.0
  0
LINE
  5
B3A7
330
B3A3
100
AcDbEntity
  8
0
  6
Continuous
 62
     0
370
     0
100
AcDbLine
 10
0.0
 20
0.0
 30
0.0
 11
0.0
 21
-2.5
 31
0.0
  0
LINE
  5
B3A8
330
B3A3
100
AcDbEntity
  8
0
  6
Continuous
 62
     0
370
     0
100
AcDbLine
 10
0.0
 20
0.0
 30
0.0
 11
2.499999999999946
 21
0.0
 31
0.0
  0
LINE
  5
B3A9
330
B3A3
100
AcDbEntity
  8
0
  6
Continuous
 62
     0
370
     0
100
AcDbLine
 10
0.0
 20
2.499999999999998
 30
0.0
 11
0.0
 21
4.50000000000001
 31
0.0
  0
LINE
  5
B3AA
330
B3A3
100
AcDbEntity
  8
0
  6
Continuous
 62
     0
370
     0
100
AcDbLine
 10
-2.500000000000002
 20
0.0
 30
0.0
 11
-4.500000000000031
 21
0.0
 31
0.0
  0
LINE
  5
B3AB
330
B3A3
100
AcDbEntity
  8
0
  6
Continuous
 62
     0
370
     0
100
AcDbLine
 10
0.0
 20
-2.5
 30
0.0
 11
0.0
 21
-4.500000000000012
 31
0.0
  0
LINE
  5
B3AC
330
B3A3
100
AcDbEntity
  8
0
  6
Continuous
 62
     0
370
     0
100
AcDbLine
 10
2.499999999999946
 20
0.0
 30
0.0
 11
4.500000000000003
 21
0.0
 31
0.0
  0
ENDBLK
  5
B3AD
330
B3A3
100
AcDbEntity
  8
0
100
AcDbBlockEnd
  0
BLOCK
  5
B3AF
330
B3AE
100
AcDbEntity
  8
0
100
AcDbBlockBegin
  2
SW_CENTERMARKSYMBOL_24
 70
     0
 10
0.0
 20
0.0
 30
0.0
  3
SW_CENTERMARKSYMBOL_24
  1

  0
LINE
  5
B3B0
330
B3AE
100
AcDbEntity
  8
0
  6
Continuous
 62
     0
370
     0
100
AcDbLine
 10
0.0
 20
0.0
 30
0.0
 11
0.0
 21
2.499999999999995
 31
0.0
  0
LINE
  5
B3B1
330
B3AE
100
AcDbEntity
  8
0
  6
Continuous
 62
     0
370
     0
100
AcDbLine
 10
0.0
 20
0.0
 30
0.0
 11
-2.500000000000002
 21
0.0
 31
0.0
  0
LINE
  5
B3B2
330
B3AE
100
AcDbEntity
  8
0
  6
Continuous
 62
     0
370
     0
100
AcDbLine
 10
0.0
 20
0.0
 30
0.0
 11
0.0
 21
-2.500000000000002
 31
0.0
  0
LINE
  5
B3B3
330
B3AE
100
AcDbEntity
  8
0
  6
Continuous
 62
     0
370
     0
100
AcDbLine
 10
0.0
 20
0.0
 30
0.0
 11
2.500000000000002
 21
0.0
 31
0.0
  0
LINE
  5
B3B4
330
B3AE
100
AcDbEntity
  8
0
  6
Continuous
 62
     0
370
     0
100
AcDbLine
 10
0.0
 20
2.499999999999995
 30
0.0
 11
0.0
 21
4.50000000000001
 31
0.0
  0
LINE
  5
B3B5
330
B3AE
100
AcDbEntity
  8
0
  6
Continuous
 62
     0
370
     0
100
AcDbLine
 10
-2.500000000000002
 20
0.0
 30
0.0
 11
-4.500000000000031
 21
0.0
 31
0.0
  0
LINE
  5
B3B6
330
B3AE
100
AcDbEntity
  8
0
  6
Continuous
 62
     0
370
     0
100
AcDbLine
 10
0.0
 20
-2.500000000000002
 30
0.0
 11
0.0
 21
-4.50000000000001
 31
0.0
  0
LINE
  5
B3B7
330
B3AE
100
AcDbEntity
  8
0
  6
Continuous
 62
     0
370
     0
100
AcDbLine
 10
2.500000000000002
 20
0.0
 30
0.0
 11
4.500000000000003
 21
0.0
 31
0.0
  0
ENDBLK
  5
B3B8
330
B3AE
100
AcDbEntity
  8
0
100
AcDbBlockEnd
  0
BLOCK
  5
B3BA
330
B3B9
100
AcDbEntity
  8
0
100
AcDbBlockBegin
  2
SW_CENTERMARKSYMBOL_25
 70
     0
 10
0.0
 20
0.0
 30
0.0
  3
SW_CENTERMARKSYMBOL_25
  1

  0
LINE
  5
B3BB
330
B3B9
100
AcDbEntity
  8
0
  6
Continuous
 62
     0
370
     0
100
AcDbLine
 10
0.0
 20
0.0
 30
0.0
 11
0.0
 21
2.500000000000002
 31
0.0
  0
LINE
  5
B3BC
330
B3B9
100
AcDbEntity
  8
0
  6
Continuous
 62
     0
370
     0
100
AcDbLine
 10
0.0
 20
0.0
 30
0.0
 11
-2.500000000000002
 21
0.0
 31
0.0
  0
LINE
  5
B3BD
330
B3B9
100
AcDbEntity
  8
0
  6
Continuous
 62
     0
370
     0
100
AcDbLine
 10
0.0
 20
0.0
 30
0.0
 11
0.0
 21
-2.500000000000002
 31
0.0
  0
LINE
  5
B3BE
330
B3B9
100
AcDbEntity
  8
0
  6
Continuous
 62
     0
370
     0
100
AcDbLine
 10
0.0
 20
0.0
 30
0.0
 11
2.500000000000002
 21
0.0
 31
0.0
  0
LINE
  5
B3BF
330
B3B9
100
AcDbEntity
  8
0
  6
Continuous
 62
     0
370
     0
100
AcDbLine
 10
0.0
 20
5.0
 30
0.0
 11
0.0
 21
5.699999999999996
 31
0.0
  0
LINE
  5
B3C0
330
B3B9
100
AcDbEntity
  8
0
  6
Continuous
 62
     0
370
     0
100
AcDbLine
 10
-5.000000000000004
 20
0.0
 30
0.0
 11
-5.70000000000001
 21
0.0
 31
0.0
  0
LINE
  5
B3C1
330
B3B9
100
AcDbEntity
  8
0
  6
Continuous
 62
     0
370
     0
100
AcDbLine
 10
0.0
 20
-5.000000000000004
 30
0.0
 11
0.0
 21
-5.699999999999996
 31
0.0
  0
LINE
  5
B3C2
330
B3B9
100
AcDbEntity
  8
0
  6
Continuous
 62
     0
370
     0
100
AcDbLine
 10
5.000000000000004
 20
0.0
 30
0.0
 11
5.699999999999983
 21
0.0
 31
0.0
  0
ENDBLK
  5
B3C3
330
B3B9
100
AcDbEntity
  8
0
100
AcDbBlockEnd
  0
BLOCK
  5
B3C5
330
B3C4
100
AcDbEntity
  8
0
100
AcDbBlockBegin
  2
SW_CENTERMARKSYMBOL_26
 70
     0
 10
0.0
 20
0.0
 30
0.0
  3
SW_CENTERMARKSYMBOL_26
  1

  0
LINE
  5
B3C6
330
B3C4
100
AcDbEntity
  8
0
  6
Continuous
 62
     0
370
     0
100
AcDbLine
 10
0.0
 20
0.0
 30
0.0
 11
0.0
 21
2.499999999999998
 31
0.0
  0
LINE
  5
B3C7
330
B3C4
100
AcDbEntity
  8
0
  6
Continuous
 62
     0
370
     0
100
AcDbLine
 10
0.0
 20
0.0
 30
0.0
 11
-2.500000000000002
 21
0.0
 31
0.0
  0
LINE
  5
B3C8
330
B3C4
100
AcDbEntity
  8
0
  6
Continuous
 62
     0
370
     0
100
AcDbLine
 10
0.0
 20
0.0
 30
0.0
 11
0.0
 21
-2.499999999999998
 31
0.0
  0
LINE
  5
B3C9
330
B3C4
100
AcDbEntity
  8
0
  6
Continuous
 62
     0
370
     0
100
AcDbLine
 10
0.0
 20
0.0
 30
0.0
 11
2.500000000000002
 21
0.0
 31
0.0
  0
LINE
  5
B3CA
330
B3C4
100
AcDbEntity
  8
0
  6
Continuous
 62
     0
370
     0
100
AcDbLine
 10
0.0
 20
5.0
 30
0.0
 11
0.0
 21
5.7
 31
0.0
  0
LINE
  5
B3CB
330
B3C4
100
AcDbEntity
  8
0
  6
Continuous
 62
     0
370
     0
100
AcDbLine
 10
-5.000000000000004
 20
0.0
 30
0.0
 11
-5.70000000000001
 21
0.0
 31
0.0
  0
LINE
  5
B3CC
330
B3C4
100
AcDbEntity
  8
0
  6
Continuous
 62
     0
370
     0
100
AcDbLine
 10
0.0
 20
-5.0
 30
0.0
 11
0.0
 21
-5.7
 31
0.0
  0
LINE
  5
B3CD
330
B3C4
100
AcDbEntity
  8
0
  6
Continuous
 62
     0
370
     0
100
AcDbLine
 10
5.000000000000004
 20
0.0
 30
0.0
 11
5.699999999999983
 21
0.0
 31
0.0
  0
ENDBLK
  5
B3CE
330
B3C4
100
AcDbEntity
  8
0
100
AcDbBlockEnd
  0
BLOCK
  5
B3D0
330
B3CF
100
AcDbEntity
  8
0
100
AcDbBlockBegin
  2
SW_CENTERMARKSYMBOL_27
 70
     0
 10
0.0
 20
0.0
 30
0.0
  3
SW_CENTERMARKSYMBOL_27
  1

  0
LINE
  5
B3D1
330
B3CF
100
AcDbEntity
  8
0
  6
Continuous
 62
     0
370
     0
100
AcDbLine
 10
0.0
 20
0.0
 30
0.0
 11
0.0
 21
2.5
 31
0.0
  0
LINE
  5
B3D2
330
B3CF
100
AcDbEntity
  8
0
  6
Continuous
 62
     0
370
     0
100
AcDbLine
 10
0.0
 20
0.0
 30
0.0
 11
-2.500000000000002
 21
0.0
 31
0.0
  0
LINE
  5
B3D3
330
B3CF
100
AcDbEntity
  8
0
  6
Continuous
 62
     0
370
     0
100
AcDbLine
 10
0.0
 20
0.0
 30
0.0
 11
0.0
 21
-2.5
 31
0.0
  0
LINE
  5
B3D4
330
B3CF
100
AcDbEntity
  8
0
  6
Continuous
 62
     0
370
     0
100
AcDbLine
 10
0.0
 20
0.0
 30
0.0
 11
2.500000000000002
 21
0.0
 31
0.0
  0
LINE
  5
B3D5
330
B3CF
100
AcDbEntity
  8
0
  6
Continuous
 62
     0
370
     0
100
AcDbLine
 10
0.0
 20
2.5
 30
0.0
 11
0.0
 21
5.000000000000002
 31
0.0
  0
LINE
  5
B3D6
330
B3CF
100
AcDbEntity
  8
0
  6
Continuous
 62
     0
370
     0
100
AcDbLine
 10
-2.500000000000002
 20
0.0
 30
0.0
 11
-5.000000000000004
 21
0.0
 31
0.0
  0
LINE
  5
B3D7
330
B3CF
100
AcDbEntity
  8
0
  6
Continuous
 62
     0
370
     0
100
AcDbLine
 10
0.0
 20
-2.5
 30
0.0
 11
0.0
 21
-5.000000000000002
 31
0.0
  0
LINE
  5
B3D8
330
B3CF
100
AcDbEntity
  8
0
  6
Continuous
 62
     0
370
     0
100
AcDbLine
 10
2.500000000000002
 20
0.0
 30
0.0
 11
5.000000000000004
 21
0.0
 31
0.0
  0
ENDBLK
  5
B3D9
330
B3CF
100
AcDbEntity
  8
0
100
AcDbBlockEnd
  0
BLOCK
  5
B3DB
330
B3DA
100
AcDbEntity
  8
0
100
AcDbBlockBegin
  2
SW_CENTERMARKSYMBOL_28
 70
     0
 10
0.0
 20
0.0
 30
0.0
  3
SW_CENTERMARKSYMBOL_28
  1

  0
LINE
  5
B3DC
330
B3DA
100
AcDbEntity
  8
0
  6
Continuous
 62
     0
370
     0
100
AcDbLine
 10
0.0
 20
0.0
 30
0.0
 11
0.0
 21
2.5
 31
0.0
  0
LINE
  5
B3DD
330
B3DA
100
AcDbEntity
  8
0
  6
Continuous
 62
     0
370
     0
100
AcDbLine
 10
0.0
 20
0.0
 30
0.0
 11
-2.500000000000002
 21
0.0
 31
0.0
  0
LINE
  5
B3DE
330
B3DA
100
AcDbEntity
  8
0
  6
Continuous
 62
     0
370
     0
100
AcDbLine
 10
0.0
 20
0.0
 30
0.0
 11
0.0
 21
-2.5
 31
0.0
  0
LINE
  5
B3DF
330
B3DA
100
AcDbEntity
  8
0
  6
Continuous
 62
     0
370
     0
100
AcDbLine
 10
0.0
 20
0.0
 30
0.0
 11
2.500000000000002
 21
0.0
 31
0.0
  0
LINE
  5
B3E0
330
B3DA
100
AcDbEntity
  8
0
  6
Continuous
 62
     0
370
     0
100
AcDbLine
 10
0.0
 20
2.5
 30
0.0
 11
0.0
 21
5.000000000000002
 31
0.0
  0
LINE
  5
B3E1
330
B3DA
100
AcDbEntity
  8
0
  6
Continuous
 62
     0
370
     0
100
AcDbLine
 10
-2.500000000000002
 20
0.0
 30
0.0
 11
-5.000000000000004
 21
0.0
 31
0.0
  0
LINE
  5
B3E2
330
B3DA
100
AcDbEntity
  8
0
  6
Continuous
 62
     0
370
     0
100
AcDbLine
 10
0.0
 20
-2.5
 30
0.0
 11
0.0
 21
-5.000000000000002
 31
0.0
  0
LINE
  5
B3E3
330
B3DA
100
AcDbEntity
  8
0
  6
Continuous
 62
     0
370
     0
100
AcDbLine
 10
2.500000000000002
 20
0.0
 30
0.0
 11
5.000000000000004
 21
0.0
 31
0.0
  0
ENDBLK
  5
B3E4
330
B3DA
100
AcDbEntity
  8
0
100
AcDbBlockEnd
  0
BLOCK
  5
B3E6
330
B3E5
100
AcDbEntity
  8
0
100
AcDbBlockBegin
  2
SW_CENTERMARKSYMBOL_29
 70
     0
 10
0.0
 20
0.0
 30
0.0
  3
SW_CENTERMARKSYMBOL_29
  1

  0
LINE
  5
B3E7
330
B3E5
100
AcDbEntity
  8
0
  6
Continuous
 62
     0
370
     0
100
AcDbLine
 10
0.0
 20
0.0
 30
0.0
 11
0.0
 21
2.500000000000002
 31
0.0
  0
LINE
  5
B3E8
330
B3E5
100
AcDbEntity
  8
0
  6
Continuous
 62
     0
370
     0
100
AcDbLine
 10
0.0
 20
0.0
 30
0.0
 11
-2.500000000000002
 21
0.0
 31
0.0
  0
LINE
  5
B3E9
330
B3E5
100
AcDbEntity
  8
0
  6
Continuous
 62
     0
370
     0
100
AcDbLine
 10
0.0
 20
0.0
 30
0.0
 11
0.0
 21
-2.500000000000002
 31
0.0
  0
LINE
  5
B3EA
330
B3E5
100
AcDbEntity
  8
0
  6
Continuous
 62
     0
370
     0
100
AcDbLine
 10
0.0
 20
0.0
 30
0.0
 11
2.500000000000002
 21
0.0
 31
0.0
  0
LINE
  5
B3EB
330
B3E5
100
AcDbEntity
  8
0
  6
Continuous
 62
     0
370
     0
100
AcDbLine
 10
0.0
 20
4.999999999999997
 30
0.0
 11
0.0
 21
5.700000000000003
 31
0.0
  0
LINE
  5
B3EC
330
B3E5
100
AcDbEntity
  8
0
  6
Continuous
 62
     0
370
     0
100
AcDbLine
 10
-4.999999999999976
 20
0.0
 30
0.0
 11
-5.699999999999983
 21
0.0
 31
0.0
  0
LINE
  5
B3ED
330
B3E5
100
AcDbEntity
  8
0
  6
Continuous
 62
     0
370
     0
100
AcDbLine
 10
0.0
 20
-5.0
 30
0.0
 11
0.0
 21
-5.700000000000003
 31
0.0
  0
LINE
  5
B3EE
330
B3E5
100
AcDbEntity
  8
0
  6
Continuous
 62
     0
370
     0
100
AcDbLine
 10
5.000000000000004
 20
0.0
 30
0.0
 11
5.70000000000001
 21
0.0
 31
0.0
  0
ENDBLK
  5
B3EF
330
B3E5
100
AcDbEntity
  8
0
100
AcDbBlockEnd
  0
ENDSEC
  0
SECTION
  2
ENTITIES
  0
TEXT
  5
1599
330
1F
100
AcDbEntity
  8
LOGO
 62
     7
100
AcDbText
 10
677.5508471005442
 20
62.78247432467615
 30
0.0
 40
2.418849708597284
  1
Order example:
 41
0.8
  7
CHINESET
100
AcDbText
  0
TEXT
  5
159A
330
1F
100
AcDbEntity
  8
LOGO
 62
     7
100
AcDbText
 10
677.9848087413399
 20
66.18771388515845
 30
0.0
 40
3.628274562895926
  1
訂購代號：
  7
CHINESET
100
AcDbText
  0
LINE
  5
159B
330
1F
100
AcDbEntity
  8
LOGO
 62
     4
100
AcDbLine
 10
676.4998486978921
 20
52.58852823838298
 30
0.0
 11
676.4998486978921
 21
70.72990105286274
 31
0.0
  0
TEXT
  5
159C
330
1F
100
AcDbEntity
  8
LOGO
  6
Continuous
100
AcDbText
 10
643.1052911680466
 20
56.15237355006887
 30
0.0
 40
2.721205922171945
  1
金器工業股份有限公司
  7
CHINESET
100
AcDbText
  0
TEXT
  5
159D
330
1F
100
AcDbEntity
  8
LOGO
  6
Continuous
100
AcDbText
 10
638.1069742530593
 20
53.430634484887
 30
0.0
 40
1.814137281447963
  1
MINDMAN INDUSTRIAL CO., LTD.
 41
0.85
  7
CHINESET
100
AcDbText
  0
LINE
  5
159E
330
1F
100
AcDbEntity
  8
LOGO
 62
     4
100
AcDbLine
 10
676.4998486978921
 20
67.10162648996679
 30
0.0
 11
649.8925019033219
 21
67.10162648996679
 31
0.0
  0
LINE
  5
159F
330
1F
100
AcDbEntity
  8
LOGO
 62
     4
100
AcDbLine
 10
676.4998486978921
 20
63.47335192707084
 30
0.0
 11
649.8925019033219
 21
63.47335192707084
 31
0.0
  0
LINE
  5
15A0
330
1F
100
AcDbEntity
  8
LOGO
 62
     4
100
AcDbLine
 10
676.4998486978921
 20
59.84507736417508
 30
0.0
 11
636.5888285060369
 21
59.84507736417508
 31
0.0
  0
LINE
  5
15A1
330
1F
100
AcDbEntity
  8
LOGO
 62
     4
100
AcDbLine
 10
649.8925019033219
 20
59.84507736417508
 30
0.0
 11
649.8925019033219
 21
70.72990105286274
 31
0.0
  0
TEXT
  5
15A2
330
1F
100
AcDbEntity
  8
LOGO
100
AcDbText
 10
668.0773675897709
 20
60.75214600489877
 30
0.0
 40
1.814137281447963
  1
mm
  7
CHINESET
 72
     1
 11
670.3234423191827
 21
61.65921464562275
 31
0.0
100
AcDbText
 73
     2
  0
TEXT
  5
15A3
330
1F
100
AcDbEntity
  8
LOGO
100
AcDbText
 10
667.1271052042506
 20
68.00869513069068
 30
0.0
 40
1.814137281447963
  1
1 : 1
  7
CHINESET
 72
     1
 11
670.3234423191827
 21
68.91576377141466
 31
0.0
100
AcDbText
 73
     2
  0
LINE
  5
15A4
330
1F
100
AcDbEntity
  8
LOGO
 62
     4
100
AcDbLine
 10
664.4056001549057
 20
59.84507736417508
 30
0.0
 11
664.4056001549057
 21
70.72990105286274
 31
0.0
  0
TEXT
  5
15A5
330
1F
100
AcDbEntity
  8
LOGO
100
AcDbText
 10
651.3883552778016
 20
68.00958791478588
 30
118.8955688095171
 40
1.814137281447963
  1
比例 Scale:
 41
0.9
  7
CHINESET
 72
     4
 11
657.1490510291138
 21
68.91576377141466
 31
118.8955688095171
100
AcDbText
  0
TEXT
  5
15A6
330
1F
100
AcDbEntity
  8
LOGO
100
AcDbText
 10
651.2838804075753
 20
64.40593931318254
 30
118.8955688095171
 40
1.814137281447963
  1
投影  View:
 41
0.9
  7
CHINESET
 72
     4
 11
657.1490510291138
 21
65.28748920851871
 31
118.8955688095171
100
AcDbText
  0
TEXT
  5
15A7
330
1F
100
AcDbEntity
  8
LOGO
100
AcDbText
 10
651.4612447221455
 20
60.75214600489877
 30
118.8955688095171
 40
1.814137281447963
  1
單位  Unit:
 41
0.9
  7
CHINESET
 72
     4
 11
657.1490510291138
 21
61.65921464562275
 31
118.8955688095171
100
AcDbText
  0
LWPOLYLINE
  5
15A8
330
1F
100
AcDbEntity
  8
LOGO
 62
     4
100
AcDbPolyline
 90
        4
 70
     1
 43
0.0
 10
636.5888285060369
 20
70.72990105286272
 10
894.0024755037859
 20
70.72990105286274
 10
894.0024755037859
 20
220.4220294872513
 10
636.5888285060369
 20
220.4220294872513
1001
GENIUS_GENREC_14
1002
{
1000
PYDIR
1011
636.5888285060369
1021
220.4220294872513
1031
0.0
1002
}
1002
{
1000
PXDIR
1011
894.0024755037859
1021
70.72990105286274
1031
0.0
1002
}
1002
{
1000
PORI
1011
636.5888285060369
1021
70.72990105286272
1031
0.0
1002
}
1002
{
1000
PINS
1011
636.5888285060369
1021
70.72990105286272
1031
0.0
1002
}
1002
{
1000
PINS2
1011
894.0024755037859
1021
220.4220294872513
1031
0.0
1002
}
1002
{
1000
C
1070
     1
1002
}
1001
GENIUS_GENODEF_13
1002
{
1000
HIER
1070
     0
1002
}
1002
{
1000
MANEDIT
1070
     0
1002
}
1002
{
1000
NOSEL
1070
     0
1002
}
1002
{
1000
BEHIND
1070
     0
1002
}
1002
{
1000
OTHER
1070
     0
1002
}
1002
{
1000
REACTOR
1002
}
1001
GENIUS_GENOBJ-N-REC_13
1002
{
1000
OWNER
1000
GEN
1002
}
  0
SOLID
  5
15A9
330
1F
100
AcDbEntity
  8
LOGO
 62
     5
100
AcDbTrace
 10
638.471025050228
 20
62.860822372474
 30
0.0
 11
639.2554104077638
 21
62.8608223724738
 31
0.0
 12
642.5281906926545
 22
70.29895938358983
 32
0.0
 13
643.3125760501908
 23
70.29895938358944
 33
0.0
  0
SOLID
  5
15AA
330
1F
100
AcDbEntity
  8
LOGO
 62
     5
100
AcDbTrace
 10
639.5799836591589
 20
62.860822372474
 30
0.0
 11
640.3643690166947
 21
62.860822372474
 31
0.0
 12
643.3125760501908
 22
69.70390842270028
 32
0.0
 13
642.5281906926545
 23
66.82782877840215
 33
0.0
  0
SOLID
  5
15AB
330
1F
100
AcDbEntity
  8
LOGO
 62
     2
100
AcDbTrace
 10
639.2554104077638
 20
62.8608223724738
 30
0.0
 11
639.5799836591589
 21
62.860822372474
 31
0.0
 12
643.3125760501908
 22
70.29895938358944
 32
0.0
 13
643.6371493015853
 23
70.29895938358944
 33
0.0
  0
SOLID
  5
15AC
330
1F
100
AcDbEntity
  8
LOGO
 62
     5
100
AcDbTrace
 10
637.2134629672463
 20
60.15604527752303
 30
0.0
 11
637.4839406767416
 21
60.15604527752303
 31
0.0
 12
638.2456269589823
 22
61.5084338249984
 32
0.0
 13
638.5161046684769
 23
61.5084338249984
 33
0.0
  0
SOLID
  5
15AD
330
1F
100
AcDbEntity
  8
LOGO
 62
     5
100
AcDbTrace
 10
638.2456269589823
 20
61.5084338249984
 30
0.0
 11
638.5161046684769
 21
61.5084338249984
 31
0.0
 12
638.2456269589823
 22
60.15604527752303
 32
0.0
 13
638.5161046684769
 23
60.15604527752303
 33
0.0
  0
SOLID
  5
15AE
330
1F
100
AcDbEntity
  8
LOGO
 62
     5
100
AcDbTrace
 10
638.2456269589823
 20
60.15604527752303
 30
0.0
 11
638.5161046684769
 21
60.15604527752303
 31
0.0
 12
639.2777909507188
 22
61.5084338249984
 32
0.0
 13
639.5482686602137
 23
61.5084338249984
 33
0.0
  0
SOLID
  5
15AF
330
1F
100
AcDbEntity
  8
LOGO
 62
     5
100
AcDbTrace
 10
639.2777909507188
 20
61.5084338249984
 30
0.0
 11
639.5482686602137
 21
61.5084338249984
 31
0.0
 12
639.2777909507188
 22
60.15604527752303
 32
0.0
 13
639.5482686602137
 23
60.15604527752303
 33
0.0
  0
POLYLINE
  5
15B0
330
1F
100
AcDbEntity
  8
LOGO
 62
     5
100
AcDb2dPolyline
 66
     1
 10
0.0
 20
0.0
 30
0.0
 40
0.2709111673628958
 41
0.2709111673628958
  0
VERTEX
  5
15B1
330
15B0
100
AcDbEntity
  8
LOGO
 62
     5
100
AcDbVertex
100
AcDb2dVertex
 10
648.3441116336019
 20
60.96747840600823
 30
0.0
 42
1.0
  0
VERTEX
  5
15B2
330
15B0
100
AcDbEntity
  8
LOGO
 62
     5
100
AcDbVertex
100
AcDb2dVertex
 10
647.531378131513
 20
60.96747840600823
 30
0.0
 42
1.0
  0
SEQEND
  5
15B3
330
15B0
100
AcDbEntity
  8
LOGO
 62
     5
  0
POLYLINE
  5
15B4
330
1F
100
AcDbEntity
  8
LOGO
 62
     5
100
AcDb2dPolyline
 66
     1
 10
0.0
 20
0.0
 30
0.0
 70
     1
  0
VERTEX
  5
15B5
330
15B4
100
AcDbEntity
  8
LOGO
 62
     5
100
AcDbVertex
100
AcDb2dVertex
 10
645.9993393296894
 20
60.83223955126051
 30
0.0
 42
1.000000057330635
  0
VERTEX
  5
15B6
330
15B4
100
AcDbEntity
  8
LOGO
 62
     5
100
AcDbVertex
100
AcDb2dVertex
 10
646.8107724581747
 20
60.83223955126051
 30
0.0
 42
1.000000057330635
  0
SEQEND
  5
15B7
330
15B4
100
AcDbEntity
  8
LOGO
 62
     5
  0
CIRCLE
  5
15B8
330
1F
100
AcDbEntity
  8
LOGO
 62
     5
100
AcDbCircle
 10
646.4050558939326
 20
60.83223955126051
 30
0.0
 40
0.4057165642426729
  0
POLYLINE
  5
15B9
330
1F
100
AcDbEntity
  8
LOGO
 62
     5
100
AcDb2dPolyline
 66
     1
 10
0.0
 20
0.0
 30
0.0
 70
     1
 40
0.2709111673628958
 41
0.2709111673628958
  0
VERTEX
  5
15BA
330
15B9
100
AcDbEntity
  8
LOGO
 62
     5
100
AcDbVertex
100
AcDb2dVertex
 10
645.8632335592064
 20
60.83223955126051
 30
0.0
 42
1.0
  0
VERTEX
  5
15BB
330
15B9
100
AcDbEntity
  8
LOGO
 62
     5
100
AcDbVertex
100
AcDb2dVertex
 10
646.9468782286581
 20
60.83223955126051
 30
0.0
 42
1.0
  0
SEQEND
  5
15BC
330
15B9
100
AcDbEntity
  8
LOGO
 62
     5
  0
LINE
  5
15BD
330
1F
100
AcDbEntity
  8
LOGO
100
AcDbLine
 10
648.4787003015473
 20
60.15604527752303
 30
0.0
 11
648.4787003015473
 21
60.96747840600823
 31
0.0
  0
SOLID
  5
15BE
330
1F
100
AcDbEntity
  8
LOGO
 62
     5
100
AcDbTrace
 10
646.8107454104049
 20
61.5084338249984
 30
0.0
 11
647.0812231198995
 21
61.5084338249984
 31
0.0
 12
646.8107454104049
 22
60.15604527752303
 32
0.0
 13
647.0812231198995
 23
60.15604527752303
 33
0.0
  0
SOLID
  5
15BF
330
1F
100
AcDbEntity
  8
LOGO
 62
     5
100
AcDbTrace
 10
647.3967894635669
 20
60.15604527752303
 30
0.0
 11
647.6672671730621
 21
60.15604527752303
 31
0.0
 12
647.3967894635669
 22
61.5084338249984
 32
0.0
 13
647.6672671730621
 23
61.5084338249984
 33
0.0
  0
SOLID
  5
15C0
330
1F
100
AcDbEntity
  8
LOGO
 62
     5
100
AcDbTrace
 10
648.2082225920527
 20
60.96747840600823
 30
0.0
 11
648.4787003015473
 21
60.96747840600823
 31
0.0
 12
648.2082225920527
 22
60.15604527752303
 32
0.0
 13
648.4787003015473
 23
60.15604527752303
 33
0.0
  0
SOLID
  5
15C1
330
1F
100
AcDbEntity
  8
LOGO
 62
     5
100
AcDbTrace
 10
647.3697416926174
 20
69.70390842270028
 30
0.0
 11
646.585356335082
 21
66.82782877840215
 31
0.0
 12
647.3697416926174
 22
62.8608223724738
 32
0.0
 13
646.585356335082
 23
62.8608223724738
 33
0.0
  0
SOLID
  5
15C2
330
1F
100
AcDbEntity
  8
LOGO
 62
     5
100
AcDbTrace
 10
647.6943149440119
 20
62.8608223724738
 30
0.0
 11
648.4787003015473
 21
62.8608223724738
 31
0.0
 12
647.6943149440119
 22
70.29895938358944
 32
0.0
 13
648.4787003015473
 23
70.29895938358983
 33
0.0
  0
SOLID
  5
15C3
330
1F
100
AcDbEntity
  8
LOGO
 62
     2
100
AcDbTrace
 10
647.3697416926174
 20
70.29895938358983
 30
0.0
 11
647.6943149440119
 21
70.29895938358944
 31
0.0
 12
647.3697416926174
 22
62.8608223724738
 32
0.0
 13
647.6943149440119
 23
62.8608223724738
 33
0.0
  0
POLYLINE
  5
15C4
330
1F
100
AcDbEntity
  8
LOGO
 62
     5
100
AcDb2dPolyline
 66
     1
 10
0.0
 20
0.0
 30
0.0
 40
0.2709111673628958
 41
0.2709111673628958
  0
VERTEX
  5
15C5
330
15C4
100
AcDbEntity
  8
LOGO
 62
     5
100
AcDbVertex
100
AcDb2dVertex
 10
644.4672464323247
 20
60.96747840600823
 30
0.0
 42
1.0
  0
VERTEX
  5
15C6
330
15C4
100
AcDbEntity
  8
LOGO
 62
     5
100
AcDbVertex
100
AcDb2dVertex
 10
643.6545129302359
 20
60.96747840600823
 30
0.0
 42
1.0
  0
SEQEND
  5
15C7
330
15C4
100
AcDbEntity
  8
LOGO
 62
     5
  0
POLYLINE
  5
15C8
330
1F
100
AcDbEntity
  8
LOGO
 62
     5
100
AcDb2dPolyline
 66
     1
 10
0.0
 20
0.0
 30
0.0
 40
0.2709111673628958
 41
0.2709111673628958
  0
VERTEX
  5
15C9
330
15C8
100
AcDbEntity
  8
LOGO
 62
     5
100
AcDbVertex
100
AcDb2dVertex
 10
645.2786795608093
 20
60.96747840600823
 30
0.0
 42
1.0
  0
VERTEX
  5
15CA
330
15C8
100
AcDbEntity
  8
LOGO
 62
     5
100
AcDbVertex
100
AcDb2dVertex
 10
644.4659460587209
 20
60.96747840600823
 30
0.0
 42
1.0
  0
SEQEND
  5
15CB
330
15C8
100
AcDbEntity
  8
LOGO
 62
     5
  0
POLYLINE
  5
15CC
330
1F
100
AcDbEntity
  8
LOGO
 62
     5
100
AcDb2dPolyline
 66
     1
 10
0.0
 20
0.0
 30
0.0
 40
0.2709111673628958
 41
0.2709111673628958
  0
VERTEX
  5
15CD
330
15CC
100
AcDbEntity
  8
LOGO
 62
     5
100
AcDbVertex
100
AcDb2dVertex
 10
641.401814359532
 20
60.96747840600823
 30
0.0
 42
1.0
  0
VERTEX
  5
15CE
330
15CC
100
AcDbEntity
  8
LOGO
 62
     5
100
AcDbVertex
100
AcDb2dVertex
 10
640.5890808574436
 20
60.96747840600823
 30
0.0
 42
1.0
  0
SEQEND
  5
15CF
330
15CC
100
AcDbEntity
  8
LOGO
 62
     5
  0
SOLID
  5
15D0
330
1F
100
AcDbEntity
  8
LOGO
 62
     5
100
AcDbTrace
 10
640.4544921894979
 20
61.5084338249984
 30
0.0
 11
640.7249698989926
 21
61.5084338249984
 31
0.0
 12
640.4544921894979
 22
60.15604527752303
 32
0.0
 13
640.7249698989926
 23
60.15604527752303
 33
0.0
  0
SOLID
  5
15D1
330
1F
100
AcDbEntity
  8
LOGO
 62
     5
100
AcDbTrace
 10
641.2659253179832
 20
60.96747840600823
 30
0.0
 11
641.5364030274787
 21
60.96747840600823
 31
0.0
 12
641.2659253179832
 22
60.15604527752303
 32
0.0
 13
641.5364030274787
 23
60.15604527752303
 33
0.0
  0
POLYLINE
  5
15D2
330
1F
100
AcDbEntity
  8
LOGO
 62
     5
100
AcDb2dPolyline
 66
     1
 10
0.0
 20
0.0
 30
0.0
 70
     1
 40
0.2709111673628958
 41
0.2709111673628958
  0
VERTEX
  5
15D3
330
15D2
100
AcDbEntity
  8
LOGO
 62
     5
100
AcDbVertex
100
AcDb2dVertex
 10
641.9863683579288
 20
60.83223955126051
 30
0.0
 42
1.0
  0
VERTEX
  5
15D4
330
15D2
100
AcDbEntity
  8
LOGO
 62
     5
100
AcDbVertex
100
AcDb2dVertex
 10
643.0700130273806
 20
60.83223955126051
 30
0.0
 42
1.0
  0
SEQEND
  5
15D5
330
15D2
100
AcDbEntity
  8
LOGO
 62
     5
  0
SOLID
  5
15D6
330
1F
100
AcDbEntity
  8
LOGO
 62
     5
100
AcDbTrace
 10
642.9338802091267
 20
61.91415038924132
 30
0.0
 11
643.2043579186219
 21
61.91415038924132
 31
0.0
 12
642.9338802091267
 22
60.15604527752303
 32
0.0
 13
643.2043579186219
 23
60.15604527752303
 33
0.0
  0
SOLID
  5
15D7
330
1F
100
AcDbEntity
  8
LOGO
 62
     5
100
AcDbTrace
 10
643.5199242622904
 20
61.5084338249984
 30
0.0
 11
643.7904019717851
 21
61.5084338249984
 31
0.0
 12
643.5199242622904
 22
60.15604527752303
 32
0.0
 13
643.7904019717851
 23
60.15604527752303
 33
0.0
  0
SOLID
  5
15D8
330
1F
100
AcDbEntity
  8
LOGO
 62
     5
100
AcDbTrace
 10
644.3313573907752
 20
60.96747840600823
 30
0.0
 11
644.6018351002704
 21
60.96747840600823
 31
0.0
 12
644.3313573907752
 22
60.15604527752303
 32
0.0
 13
644.6018351002704
 23
60.15604527752303
 33
0.0
  0
SOLID
  5
15D9
330
1F
100
AcDbEntity
  8
LOGO
 62
     5
100
AcDbTrace
 10
645.1427905192605
 20
60.96747840600823
 30
0.0
 11
645.4132682287554
 21
60.96747840600823
 31
0.0
 12
645.1427905192605
 22
60.15604527752262
 32
0.0
 13
645.4132682287554
 23
60.15604527752262
 33
0.0
  0
SOLID
  5
15DA
330
1F
100
AcDbEntity
  8
LOGO
 62
     5
100
AcDbTrace
 10
639.8684481363346
 20
61.69776822164507
 30
0.0
 11
640.1389258458305
 21
61.69776822164507
 31
0.0
 12
639.8684481363346
 22
61.91415038924132
 32
0.0
 13
640.1389258458305
 23
61.91415038924132
 33
0.0
  0
SOLID
  5
15DB
330
1F
100
AcDbEntity
  8
LOGO
 62
     5
100
AcDbTrace
 10
639.8684481363346
 20
61.5084338249984
 30
0.0
 11
640.1389258458305
 21
61.5084338249984
 31
0.0
 12
639.8684481363346
 22
60.15604527752262
 32
0.0
 13
640.1389258458305
 23
60.15604527752303
 33
0.0
  0
SOLID
  5
15DC
330
1F
100
AcDbEntity
  8
LOGO
 62
     5
100
AcDbTrace
 10
642.5281906926545
 20
62.860822372474
 30
0.0
 11
643.3125760501908
 21
62.860822372474
 31
0.0
 12
642.5281906926545
 22
66.82782877840215
 32
0.0
 13
643.3125760501908
 23
69.70390842270028
 33
0.0
  0
SOLID
  5
15DD
330
1F
100
AcDbEntity
  8
LOGO
 62
     5
100
AcDbTrace
 10
643.6371493015853
 20
70.29895938358944
 30
0.0
 11
644.4215346591208
 21
70.29895938358983
 31
0.0
 12
643.6371493015853
 22
63.45587333336315
 32
0.0
 13
644.4215346591208
 23
66.33195297766127
 33
0.0
  0
SOLID
  5
15DE
330
1F
100
AcDbEntity
  8
LOGO
 62
     2
100
AcDbTrace
 10
643.3125760501908
 20
70.29895938358944
 30
0.0
 11
643.6371493015853
 21
70.29895938358944
 31
0.0
 12
643.3125760501908
 22
62.860822372474
 32
0.0
 13
643.6371493015853
 23
62.860822372474
 33
0.0
  0
SOLID
  5
15DF
330
1F
100
AcDbEntity
  8
LOGO
 62
     5
100
AcDbTrace
 10
643.6371493015853
 20
63.45587333336315
 30
0.0
 11
644.4215346591208
 21
66.33195297766127
 31
0.0
 12
647.3697416926174
 22
70.29895938358983
 32
0.0
 13
646.585356335082
 23
70.29895938358983
 33
0.0
  0
SOLID
  5
15E0
330
1F
100
AcDbEntity
  8
LOGO
 62
     5
100
AcDbTrace
 10
643.6371493015853
 20
62.860822372474
 30
0.0
 11
644.4215346591208
 21
62.860822372474
 31
0.0
 12
647.3697416926174
 22
69.70390842270028
 32
0.0
 13
646.585356335082
 23
66.82782877840215
 33
0.0
  0
SOLID
  5
15E1
330
1F
100
AcDbEntity
  8
LOGO
 62
     2
100
AcDbTrace
 10
643.3125760501908
 20
62.860822372474
 30
0.0
 11
643.6371493015853
 21
62.860822372474
 31
0.0
 12
647.3697416926174
 22
70.29895938358983
 32
0.0
 13
647.6943149440119
 23
70.29895938358944
 33
0.0
  0
LWPOLYLINE
  5
15E2
330
1F
100
AcDbEntity
  8
LOGO
 62
     4
100
AcDbPolyline
 90
        4
 70
     1
 43
0.0
 10
636.5888285060369
 20
70.72990105286272
 10
894.0024755037859
 20
70.72990105286274
 10
894.002475503786
 20
52.58852823838278
 10
636.5888285060369
 20
52.58852823838278
1001
GENIUS_GENREC_14
1002
{
1000
PYDIR
1011
636.5888285060369
1021
52.58852823838278
1031
0.0
1002
}
1002
{
1000
PXDIR
1011
894.0024755037859
1021
70.72990105286274
1031
0.0
1002
}
1002
{
1000
PORI
1011
636.5888285060369
1021
70.72990105286272
1031
0.0
1002
}
1002
{
1000
PINS
1011
636.5888285060369
1021
70.72990105286272
1031
0.0
1002
}
1002
{
1000
PINS2
1011
894.002475503786
1021
52.58852823838278
1031
0.0
1002
}
1002
{
1000
C
1070
     1
1002
}
1001
GENIUS_GENOBJ-N-REC_13
1002
{
1000
OWNER
1000
GEN
1002
}
1001
GENIUS_GENODEF_13
1002
{
1000
HIER
1070
     0
1002
}
1002
{
1000
MANEDIT
1070
     0
1002
}
1002
{
1000
NOSEL
1070
     0
1002
}
1002
{
1000
BEHIND
1070
     0
1002
}
1002
{
1000
OTHER
1070
     0
1002
}
1002
{
1000
REACTOR
1002
}
  0
LINE
  5
15E3
330
1F
100
AcDbEntity
  8
LOGO
 62
     4
100
AcDbLine
 10
715.4511554885109
 20
60.75214600489913
 30
0.0
 11
715.4511554885109
 21
54.10030930625625
 31
0.0
  0
LINE
  5
15E4
330
1F
100
AcDbEntity
  8
LOGO
 62
     4
100
AcDbLine
 10
707.3929572546352
 20
60.75214600489913
 30
0.0
 11
707.3929572546352
 21
54.10030930625625
 31
0.0
  0
LINE
  5
15E5
330
1F
100
AcDbEntity
  8
LOGO
 62
     4
100
AcDbLine
 10
715.4511554885109
 20
54.10030930625625
 30
0.0
 11
707.3929572546352
 21
54.10030930625625
 31
0.0
  0
LINE
  5
15E6
330
1F
100
AcDbEntity
  8
LOGO
 62
     4
100
AcDbLine
 10
721.3828202580931
 20
68.91576377141466
 30
0.0
 11
701.4525018492096
 21
68.91576377141466
 31
0.0
  0
LINE
  5
15E7
330
1F
100
AcDbEntity
  8
LOGO
 62
     4
100
AcDbLine
 10
721.3828202580931
 20
63.47335192707084
 30
0.0
 11
701.4525018492096
 21
63.47335192707084
 31
0.0
  0
LINE
  5
15E8
330
1F
100
AcDbEntity
  8
LOGO
 62
     4
100
AcDbLine
 10
701.4525018492096
 20
68.91576377141466
 30
0.0
 11
701.4525018492096
 21
63.47335192707084
 31
0.0
  0
LINE
  5
15E9
330
1F
100
AcDbEntity
  8
LOGO
 62
     4
100
AcDbLine
 10
721.3828202580931
 20
68.91576377141466
 30
0.0
 11
721.3828202580931
 21
63.47335192707084
 31
0.0
  0
LINE
  5
15EA
330
1F
100
AcDbEntity
  8
LOGO
 62
     4
100
AcDbLine
 10
711.4532696930701
 20
63.47335192707084
 30
0.0
 11
711.4532696930701
 21
60.75214600489913
 31
0.0
  0
TEXT
  5
15EB
330
1F
100
AcDbEntity
  8
LOGO
  6
Continuous
100
AcDbText
 10
704.1443497343086
 20
64.60944744277231
 30
0.0
 40
3.175199999999999
  1
MCHGH
  7
CHINESET
100
AcDbText
  0
LINE
  5
15EC
330
1F
100
AcDbEntity
  8
LOGO
 62
     4
100
AcDbLine
 10
715.4511554885109
 20
60.75214600489913
 30
0.0
 11
707.3929572546352
 21
60.75214600489913
 31
0.0
  0
TEXT
  5
15ED
330
1F
100
AcDbEntity
  8
LOGO
  6
Continuous
100
AcDbText
 10
709.4760853747201
 20
55.03920195072228
 30
118.8955688095171
 40
1.360799999999999
  1
Model
 41
0.8
  7
CHINESET
100
AcDbText
  0
TEXT
  5
15EE
330
1F
100
AcDbEntity
  8
LOGO
100
AcDbText
 10
709.1138846516074
 20
57.56183187739079
 30
118.8955688095171
 40
2.267999999999999
  1
型號
  7
CHINESET
100
AcDbText
  0
TEXT
  5
15F0
330
1F
100
AcDbEntity
  8
LOGO
100
AcDbText
 10
677.3404017862631
 20
53.55364211182844
 30
0.0
 40
1.814399999999999
  1
01206190
 41
0.7
  7
CHINESET
 72
     1
 11
681.7554417862631
 21
53.55364211182844
 31
0.0
100
AcDbText
  0
LINE
  5
15F1
330
1F
100
AcDbEntity
  8
LOGO
 62
     4
100
AcDbLine
 10
687.3862486978914
 20
56.21680280127935
 30
0.0
 11
687.3862486978922
 21
52.58852823838319
 31
0.0
  0
LINE
  5
15F2
330
1F
100
AcDbEntity
  8
LOGO
 62
     4
100
AcDbLine
 10
687.3862486978914
 20
56.21680280127935
 30
0.0
 11
676.4998486978921
 21
56.21680280127935
 31
0.0
  0
CIRCLE
  5
15F3
330
1F
100
AcDbEntity
  8
LOGO
  6
Continuous
100
AcDbCircle
 10
667.7647022402107
 20
65.29136966143941
 30
0.0
 40
1.053330805586876
  0
CIRCLE
  5
15F4
330
1F
100
AcDbEntity
  8
LOGO
  6
Continuous
100
AcDbCircle
 10
667.7647022402107
 20
65.29136966143941
 30
0.0
 40
0.6171586059734297
  0
LINE
  5
15F5
330
1F
100
AcDbEntity
  8
LOGO
100
AcDbLine
 10
674.3839552458568
 20
64.23803885585233
 30
0.0
 11
674.3839552458568
 21
66.34470046702649
 31
0.0
  0
LINE
  5
15F6
330
1F
100
AcDbEntity
  8
LOGO
100
AcDbLine
 10
671.0818236344152
 20
64.67421105546609
 30
0.0
 11
671.0818236344152
 21
65.90852826741294
 31
0.0
  0
LINE
  5
15F7
330
1F
100
AcDbEntity
  8
LOGO
  6
Continuous
100
AcDbLine
 10
671.0818236344152
 20
65.90852826741294
 30
0.0
 11
674.3839552458568
 21
66.34470046702649
 31
0.0
  0
LINE
  5
15F8
330
1F
100
AcDbEntity
  8
LOGO
  6
Continuous
100
AcDbLine
 10
671.0818236344152
 20
64.67421105546609
 30
0.0
 11
674.3839552458568
 21
64.23803885585233
 31
0.0
  0
LINE
  5
15F9
330
1F
100
AcDbEntity
  8
LOGO
  6
AM_ISO08W050x2
 48
0.3
100
AcDbLine
 10
666.3126699523225
 20
65.29136966143941
 30
0.0
 11
669.216734528099
 21
65.29136966143941
 31
0.0
1001
GENIUS_GENOREF_13
1005
16B6
  0
LINE
  5
15FA
330
1F
100
AcDbEntity
  8
LOGO
  6
AM_ISO08W050x2
 48
0.3
100
AcDbLine
 10
667.7647022402107
 20
63.83933737355108
 30
0.0
 11
667.7647022402107
 21
66.74340194932773
 31
0.0
1001
GENIUS_GENOREF_13
1005
16B5
  0
LINE
  5
15FB
330
1F
100
AcDbEntity
  8
LOGO
  6
CENTER
 48
0.5
100
AcDbLine
 10
670.8177448878185
 20
65.29136966143941
 30
0.0
 11
674.7164692095777
 21
65.29136966143941
 31
0.0
1001
GENIUS_GENOREF_13
1005
16B4
  0
POINT
  5
16B4
330
1F
100
AcDbEntity
  8
0
 60
     1
100
AcDbPoint
 10
-1930.92695728958
 20
-494.9154325062304
 30
0.0
1001
GENIUS_GENOBJ-N-CRS_13
1002
{
1000
OWNER
1000
GEN
1002
}
1001
GENIUS_GENOLIS_13
1002
{
1000
ENT
1005
0
1005
0
1005
0
1005
15FB
1002
}
1001
GENIUS_GENOENT_13
1002
{
1000
MYREF
1005
16B4
1002
}
1002
{
1000
GRP
1005
0
1002
}
1001
GENIUS_GENODEF_13
1002
{
1000
HIER
1070
    10
1002
}
1002
{
1000
MANEDIT
1070
     1
1002
}
1002
{
1000
NOSEL
1070
     0
1002
}
1002
{
1000
BEHIND
1070
     0
1002
}
1002
{
1000
OTHER
1070
     0
1002
}
1002
{
1000
REACTOR
1002
}
  0
POINT
  5
16B5
330
1F
100
AcDbEntity
  8
0
 60
     1
100
AcDbPoint
 10
-1942.251542512434
 20
-486.0398460275941
 30
0.0
1001
GENIUS_GENOBJ-N-CRS_13
1002
{
1000
OWNER
1000
GEN
1002
}
1001
GENIUS_GENOLIS_13
1002
{
1000
ENT
1005
0
1005
0
1005
0
1005
15FA
1002
}
1001
GENIUS_GENOENT_13
1002
{
1000
MYREF
1005
16B5
1002
}
1002
{
1000
GRP
1005
0
1002
}
1001
GENIUS_GENODEF_13
1002
{
1000
HIER
1070
    10
1002
}
1002
{
1000
MANEDIT
1070
     1
1002
}
1002
{
1000
NOSEL
1070
     0
1002
}
1002
{
1000
BEHIND
1070
     0
1002
}
1002
{
1000
OTHER
1070
     0
1002
}
1002
{
1000
REACTOR
1002
}
  0
POINT
  5
16B6
330
1F
100
AcDbEntity
  8
0
 60
     1
100
AcDbPoint
 10
-1935.892868814597
 20
-494.9154325062304
 30
0.0
1001
GENIUS_GENOBJ-N-CRS_13
1002
{
1000
OWNER
1000
GEN
1002
}
1001
GENIUS_GENOLIS_13
1002
{
1000
ENT
1005
0
1005
0
1005
0
1005
15F9
1002
}
1001
GENIUS_GENOENT_13
1002
{
1000
MYREF
1005
16B6
1002
}
1002
{
1000
GRP
1005
0
1002
}
1001
GENIUS_GENODEF_13
1002
{
1000
HIER
1070
    10
1002
}
1002
{
1000
MANEDIT
1070
     1
1002
}
1002
{
1000
NOSEL
1070
     0
1002
}
1002
{
1000
BEHIND
1070
     0
1002
}
1002
{
1000
OTHER
1070
     0
1002
}
1002
{
1000
REACTOR
1002
}
  0
MTEXT
  5
7BA1
330
1F
100
AcDbEntity
  8
AM_VIS
100
AcDbMText
 10
315.4333775501655
 20
376.163241097652
 30
0.0
 40
3.5
 41
0.0
 71
     9
 72
     1
  1

 73
     1
 44
1.0
1001
ACAD
1000
MTEXTBEGIN
1070
    73
1070
     1
1070
    44
1040
1.0
1070
    74
1070
     0
1000
MTEXTEND
  0
LINE
  5
99DA
102
{ACAD_REACTORS
330
A58C
102
}
330
1F
100
AcDbEntity
  8
AM_7
100
AcDbLine
 10
650.7260740239291
 20
147.6919056247456
 30
0.0
 11
758.9767708408865
 21
147.6919056247454
 31
0.0
  0
LINE
  5
99DB
330
1F
100
AcDbEntity
  8
AM_7
100
AcDbLine
 10
704.8514224324078
 20
201.8172540332244
 30
0.0
 11
704.8514224324078
 21
93.56655721626694
 31
0.0
  0
LINE
  5
9C94
330
1F
100
AcDbEntity
  8
LOGO
  6
Continuous
 62
     7
100
AcDbLine
 10
722.8738312205401
 20
66.14483014632994
 30
0.0
 11
725.3037036005033
 21
66.14483014632994
 31
0.0
  0
LINE
  5
9C95
330
1F
100
AcDbEntity
  8
LOGO
 62
     4
100
AcDbLine
 10
738.9577322367357
 20
60.66143914082673
 30
0.0
 11
738.9577322367357
 21
53.93569314553246
 31
0.0
  0
LINE
  5
9C96
330
1F
100
AcDbEntity
  8
LOGO
 62
     4
100
AcDbLine
 10
724.9834099057748
 20
60.66143914082673
 30
0.0
 11
724.9834099057748
 21
53.93569314553246
 31
0.0
  0
LINE
  5
9C97
330
1F
100
AcDbEntity
  8
LOGO
 62
     4
100
AcDbLine
 10
738.9577322367357
 20
53.93569314553246
 30
0.0
 11
724.9834099057748
 21
53.93569314553246
 31
0.0
  0
LINE
  5
9C98
330
1F
100
AcDbEntity
  8
LOGO
 62
     4
100
AcDbLine
 10
736.2100470944067
 20
68.91576377141465
 30
0.0
 11
726.8567135520127
 21
68.91576377141466
 31
0.0
  0
LINE
  5
9C99
330
1F
100
AcDbEntity
  8
LOGO
 62
     4
100
AcDbLine
 10
736.2100470944067
 20
63.41288068435591
 30
0.0
 11
726.8567135520127
 21
63.41288068435591
 31
0.0
  0
LINE
  5
9C9A
330
1F
100
AcDbEntity
  8
LOGO
 62
     4
100
AcDbLine
 10
726.8567135520127
 20
68.91576377141466
 30
0.0
 11
726.8567135520127
 21
63.41288068435591
 31
0.0
  0
LINE
  5
9C9B
330
1F
100
AcDbEntity
  8
LOGO
 62
     4
100
AcDbLine
 10
736.2100470944067
 20
68.91576377141466
 30
0.0
 11
736.2100470944067
 21
63.41288068435591
 31
0.0
  0
LINE
  5
9C9C
330
1F
100
AcDbEntity
  8
LOGO
 62
     4
100
AcDbLine
 10
731.5333803232097
 20
63.41288068435591
 30
0.0
 11
731.5333803232097
 21
60.66143914082673
 31
0.0
  0
LINE
  5
9C9E
330
1F
100
AcDbEntity
  8
LOGO
 62
     4
100
AcDbLine
 10
738.9577322367357
 20
60.66143914082673
 30
0.0
 11
724.9834099057748
 21
60.66143914082673
 31
0.0
  0
TEXT
  5
9C9F
330
1F
100
AcDbEntity
  8
LOGO
  6
Continuous
100
AcDbText
 10
726.1914544329398
 20
54.88501793049257
 30
120.2166306851784
 40
1.37592
  1
Body diameter
 41
0.8
  7
CHINESET
100
AcDbText
  0
TEXT
  5
9CA0
330
1F
100
AcDbEntity
  8
LOGO
100
AcDbText
 10
727.3044779474734
 20
57.43567707856829
 30
120.2166306851784
 40
2.2932
  1
本體寬度
  7
CHINESET
100
AcDbText
  0
TEXT
  5
9CA2
330
1F
100
AcDbEntity
  8
LOGO
  6
Continuous
 62
     7
100
AcDbText
 10
727.7636299538824
 20
64.56159948356539
 30
0.0
 40
3.210479999999999
  1
100
  7
CHINESET
100
AcDbText
  0
DIMENSION
  5
A516
330
1F
100
AcDbEntity
  8
AM_REFDIM
100
AcDbDimension
  2
*D6
 10
711.9514231603573
 20
86.49933157073139
 30
0.0
 11
704.8514224324078
 21
86.49933157073139
 31
0.0
 70
   160
 71
     5
 42
14.20000055804848
  3
AM_ISO$0
100
AcDbAlignedDimension
 13
697.7514226023088
 23
95.60307781877012
 33
0.0
 14
711.9514231603573
 24
95.60307781877012
 34
0.0
100
AcDbRotatedDimension
1001
ACAD
1000
DSTYLE
1002
{
1070
    40
1040
1.005834825753484
1070
   271
1070
     1
1002
}
  0
DIMENSION
  5
A540
330
1F
100
AcDbEntity
  8
AM_REFDIM
100
AcDbDimension
  2
*D7
 10
718.3514216016958
 20
78.8130478894114
 30
0.0
 11
704.8514224324085
 21
78.8130478894114
 31
0.0
 70
   160
 71
     5
 42
26.99999918695539
  3
AM_ISO$0
100
AcDbAlignedDimension
 13
691.3514224147404
 23
95.60307781877012
 33
0.0
 14
718.3514216016958
 24
95.60307781877012
 34
0.0
100
AcDbRotatedDimension
1001
ACAD
1000
DSTYLE
1002
{
1070
    40
1040
1.005834825753484
1002
}
  0
DIMENSION
  5
A57E
102
{ACAD_XDICTIONARY
360
A58B
102
}
102
{ACAD_REACTORS
330
A58C
102
}
330
1F
100
AcDbEntity
  8
AM_REFDIM
100
AcDbDimension
  2
*D8
 10
774.3807742348983
 20
95.60307781877011
 30
0.0
 11
774.3807742348983
 21
126.5635249536018
 31
0.0
 70
   160
 71
     5
 42
52.0888278059753
  3
AM_ISO$0
100
AcDbAlignedDimension
 13
758.9767708408865
 23
147.6919056247454
 33
0.0
 14
718.3514216016958
 24
95.60307781877012
 34
0.0
 50
89.9999999999998
100
AcDbRotatedDimension
1001
ACAD
1000
DSTYLE
1002
{
1070
    40
1040
1.005834825753484
1070
   271
1070
     0
1002
}
  0
DIMENSION
  5
A622
330
1F
100
AcDbEntity
  8
AM_REFDIM
100
AcDbDimension
  2
*D9
 10
867.9963327085772
 20
206.0169041314894
 30
0.0
 11
835.4963327085773
 21
206.0169041314894
 31
0.0
 70
   160
 71
     5
 42
65.0
  3
AM_ISO$0
100
AcDbAlignedDimension
 13
802.9963327085772
 23
196.3853994734676
 33
0.0
 14
867.9963327085772
 24
196.6919039684721
 34
0.0
100
AcDbRotatedDimension
1001
ACAD
1000
DSTYLE
1002
{
1070
    40
1040
1.005834825753484
1002
}
  0
DIMENSION
  5
A67B
330
1F
100
AcDbEntity
  8
AM_REFDIM
100
AcDbDimension
  2
*D10
 10
880.7462142212964
 20
97.1919023121989
 30
0.0
 11
880.7462142212964
 21
147.191903057257
 31
0.0
 70
   160
  1
%%c<>
 71
     5
 42
100.0000014901161
  3
AM_ISO$0
100
AcDbAlignedDimension
 13
867.4963310621981
 23
197.191903802315
 33
0.0
 14
867.4963310621981
 24
97.1919023121989
 34
0.0
 50
90.0
100
AcDbRotatedDimension
1001
ACAD
1000
DSTYLE
1002
{
1070
    40
1040
1.005834825753484
1002
}
  0
DIMENSION
  5
A6A1
330
1F
100
AcDbEntity
  8
AM_REFDIM
100
AcDbDimension
  2
*D11
 10
821.9963329173927
 20
86.38554951357381
 30
0.0
 11
844.996332812985
 21
86.38554951357381
 31
0.0
 70
   160
 71
     5
 42
45.99999979118456
  3
AM_ISO$0
100
AcDbAlignedDimension
 13
867.9963327085772
 23
97.6919039684722
 33
0.0
 14
821.9963329173927
 24
95.10307616249681
 34
0.0
100
AcDbRotatedDimension
1001
ACAD
1000
DSTYLE
1002
{
1070
    40
1040
1.005834825753484
1070
   271
1070
     1
1002
}
  0
DIMENSION
  5
A724
330
1F
100
AcDbEntity
  8
AM_REFDIM
100
AcDbDimension
  2
*D12
 10
802.9963327085772
 20
206.0169041314894
 30
0.0
 11
801.9963334202072
 21
206.0169041314894
 31
0.0
 70
   160
 71
     5
 42
1.999998576739926
  3
AM_ISO$0
100
AcDbAlignedDimension
 13
800.9963341318373
 23
165.1919041450417
 33
0.0
 14
802.9963327085772
 24
196.3853994734675
 34
0.0
100
AcDbRotatedDimension
1001
ACAD
1000
DSTYLE
1002
{
1070
    40
1040
1.005834825753484
1070
   271
1070
     0
1002
}
  0
DIMENSION
  5
A77B
330
1F
100
AcDbEntity
  8
AM_REFDIM
100
AcDbDimension
  2
*D13
 10
755.2480133290903
 20
112.6030787426421
 30
0.0
 11
755.2480133290903
 21
114.603078952366
 31
0.0
 70
   160
 71
     5
 42
4.000000419447559
  3
AM_ISO$0
100
AcDbAlignedDimension
 13
704.8514224324081
 23
116.6030791620896
 33
0.0
 14
711.9514231603573
 24
112.6030787426421
 34
0.0
 50
90.0
100
AcDbRotatedDimension
1001
ACAD
1000
DSTYLE
1002
{
1070
    40
1040
1.005834825753484
1070
   271
1070
     0
1002
}
  0
DIMENSION
  5
A7A5
330
1F
100
AcDbEntity
  8
AM_REFDIM
100
AcDbDimension
  2
*D14
 10
764.9810089699992
 20
100.6030791620897
 30
0.0
 11
764.9810089699992
 21
108.6030791620896
 31
0.0
 70
   160
 71
     5
 42
15.99999999999997
  3
AM_ISO$0
100
AcDbAlignedDimension
 13
704.8514224324081
 23
116.6030791620896
 33
0.0
 14
704.8514224324081
 24
100.6030791620897
 34
0.0
 50
90.0
100
AcDbRotatedDimension
1001
ACAD
1000
DSTYLE
1002
{
1070
    40
1040
1.005834825753484
1002
}
  0
DIMENSION
  5
A7CB
330
1F
100
AcDbEntity
  8
AM_REFDIM
100
AcDbDimension
  2
*D15
 10
755.2480133290903
 20
95.60307781877011
 30
0.0
 11
755.2480133290903
 21
98.10307849043002
 31
0.0
 70
   160
 71
     5
 42
5.000001343319581
  3
AM_ISO$0
100
AcDbAlignedDimension
 13
704.8514224324081
 23
100.6030791620897
 33
0.0
 14
718.3514216016958
 24
95.60307781877012
 34
0.0
 50
90.0
100
AcDbRotatedDimension
1001
ACAD
1000
DSTYLE
1002
{
1070
    40
1040
1.005834825753484
1070
   271
1070
     0
1002
}
  0
LEADER
  5
A889
330
1F
100
AcDbEntity
  8
AM_REFDIM
100
AcDbLeader
  3
AM_ISO$7
 76
     3
 10
747.5634399842572
 20
171.328466424595
 30
0.0
 10
751.4476877961994
 20
178.6260309217881
 30
0.0
 10
781.6639734168573
 20
178.6260309217881
 30
0.0
1001
ACAD
1000
DSTYLE
1002
{
1070
   147
1040
1.0
1070
    77
1070
     1
1070
    43
1040
12.0
1070
   271
1070
     1
1070
   272
1070
     8
1002
}
  0
MTEXT
  5
A88C
330
1F
100
AcDbEntity
  8
AM_REFDIM
100
AcDbMText
 10
752.2644311167189
 20
182.3501977549593
 30
0.0
 40
3.0
 41
33.65203381816716
 71
     1
 72
     5
  1
3X2-M5X0.8 DP12
 73
     1
 44
1.0
1001
ACAD
1000
MTEXTBEGIN
1070
    73
1070
     1
1070
    44
1040
1.0
1070
    74
1070
     0
1000
MTEXTEND
  0
LEADER
  5
A890
330
1F
100
AcDbEntity
  8
AM_REFDIM
100
AcDbLeader
  3
AM_ISO$7
 76
     3
 10
706.1118372413373
 20
195.7417178336252
 30
0.0
 10
711.7804636051701
 20
203.5103421665366
 30
0.0
 10
749.2304104058652
 20
203.5103421665366
 30
0.0
1001
ACAD
1000
DSTYLE
1002
{
1070
   147
1040
1.0
1070
    77
1070
     1
1070
    43
1040
12.0
1070
   271
1070
     1
1070
   272
1070
     8
1002
}
  0
MTEXT
  5
A895
330
1F
100
AcDbEntity
  8
AM_REFDIM
100
AcDbMText
 10
713.7088023129567
 20
207.774931554342
 30
0.0
 40
3.0
 41
38.59614173293908
 71
     1
 72
     5
  1
3-%%C6.6 thru\P%%C11 C/B DP7 P.C.D 90
 73
     1
 44
1.0
1001
ACAD
1000
MTEXTBEGIN
1070
    73
1070
     1
1070
    44
1040
1.0
1070
    74
1070
     0
1000
MTEXTEND
  0
DIMENSION
  5
B250
330
1F
100
AcDbEntity
  8
AM_REFDIM
100
AcDbDimension
  2
*D16
 10
652.4772397575632
 20
95.60307781877012
 30
0.0
 11
652.4772397575632
 21
108.1030789363572
 31
0.0
 70
   160
 71
     5
 42
25.00000223517418
  3
AM_ISO$0
100
AcDbAlignedDimension
 13
697.7514226023088
 23
120.6030800539443
 33
0.0
 14
691.3514224147404
 24
95.60307781877012
 34
0.0
 50
90.0
100
AcDbRotatedDimension
1001
ACAD
1000
DSTYLE
1002
{
1070
    40
1040
1.005834825753484
1070
   271
1070
     0
1002
}
  0
ARC
  5
BD8A
330
1F
100
AcDbEntity
  8
0
  6
Continuous
 62
     7
370
    15
100
AcDbCircle
 10
867.4963327085773
 20
196.6919039684721
 30
0.0
 40
0.5
100
AcDbArc
 50
0.0
 51
90.0
  0
SPLINE
  5
BD8B
330
1F
100
AcDbEntity
  8
0
  6
Continuous
 62
     7
370
    15
100
AcDbSpline
210
0.0
220
0.0
230
1.0
 70
    24
 71
     1
 72
     4
 73
     2
 74
     0
 42
0.0000000001
 43
0.0000000001
 40
0.0
 40
0.0
 40
1.0
 40
1.0
 10
867.4963310621981
 20
197.191903802315
 30
0.0
 10
809.996331881762
 20
197.191903802315
 30
0.0
  0
SPLINE
  5
BD8C
330
1F
100
AcDbEntity
  8
0
  6
Continuous
 62
     7
370
    15
100
AcDbSpline
210
0.0
220
0.0
230
1.0
 70
    24
 71
     1
 72
     4
 73
     2
 74
     0
 42
0.0000000001
 43
0.0000000001
 40
0.0
 40
0.0
 40
1.0
 40
1.0
 10
803.1494662426714
 20
111.6530098642504
 30
0.0
 10
867.8431965671782
 20
111.6530098642504
 30
0.0
  0
ARC
  5
BD8D
330
1F
100
AcDbEntity
  8
0
  6
Continuous
 62
     7
370
    15
100
AcDbCircle
 10
867.4963327085773
 20
97.6919039684722
 30
0.0
 40
0.5000000000000142
100
AcDbArc
 50
270.0
 51
0.0
  0
SPLINE
  5
BD8E
330
1F
100
AcDbEntity
  8
0
  6
Continuous
 62
     7
370
    15
100
AcDbSpline
210
0.0
220
0.0
230
1.0
 70
    24
 71
     1
 72
     4
 73
     2
 74
     0
 42
0.0000000001
 43
0.0000000001
 40
0.0
 40
0.0
 40
1.0
 40
1.0
 10
821.9963329173927
 20
97.1919023121989
 30
0.0
 10
867.4963310621981
 20
97.1919023121989
 30
0.0
  0
SPLINE
  5
BD8F
330
1F
100
AcDbEntity
  8
0
  6
Continuous
 62
     7
370
    15
100
AcDbSpline
210
0.0
220
0.0
230
1.0
 70
    24
 71
     1
 72
     4
 73
     2
 74
     0
 42
0.0000000001
 43
0.0000000001
 40
0.0
 40
0.0
 40
1.0
 40
1.0
 10
802.9963344596628
 20
165.1919041450417
 30
0.0
 10
800.9963341318373
 20
165.1919041450417
 30
0.0
  0
LINE
  5
BD90
330
1F
100
AcDbEntity
  8
0
  6
Continuous
 62
     7
370
    15
100
AcDbLine
 10
810.4963328950409
 20
184.7151354576743
 30
0.0
 11
821.4963328354363
 21
184.7151354576743
 31
0.0
  0
LINE
  5
BD91
330
1F
100
AcDbEntity
  8
0
  6
Continuous
 62
     7
370
    15
100
AcDbLine
 10
821.4963328354363
 20
184.7151354576743
 30
0.0
 11
821.9963329173927
 21
184.2821226145423
 31
0.0
  0
LINE
  5
BD92
330
1F
100
AcDbEntity
  8
0
  6
Continuous
 62
     7
370
    15
100
AcDbLine
 10
821.9963329173927
 20
161.7654622222579
 30
0.0
 11
821.9963329173927
 21
184.2821226145423
 31
0.0
  0
LINE
  5
BD93
330
1F
100
AcDbEntity
  8
0
  6
Continuous
 62
     7
370
    15
100
AcDbLine
 10
821.9963329173927
 20
161.7654622222579
 30
0.0
 11
821.4963328354363
 21
161.3324493791258
 31
0.0
  0
LINE
  5
BD94
330
1F
100
AcDbEntity
  8
0
  6
Continuous
 62
     7
370
    15
100
AcDbLine
 10
810.4963328950409
 20
161.3324493791258
 30
0.0
 11
821.4963328354363
 21
161.3324493791258
 31
0.0
  0
LINE
  5
BD95
330
1F
100
AcDbEntity
  8
0
  6
Continuous
 62
     7
370
    15
100
AcDbLine
 10
810.4963328950409
 20
161.3324493791258
 30
0.0
 11
809.996331881762
 21
161.7654622222579
 31
0.0
  0
LINE
  5
BD96
330
1F
100
AcDbEntity
  8
0
  6
Continuous
 62
     7
370
    15
100
AcDbLine
 10
809.996331881762
 20
166.2626401211417
 30
0.0
 11
809.996331881762
 21
161.7654622222579
 31
0.0
  0
LINE
  5
BD97
330
1F
100
AcDbEntity
  8
0
  6
Continuous
 62
     7
370
    15
100
AcDbLine
 10
809.996331881762
 20
166.2626401211417
 30
0.0
 11
810.420595880628
 21
166.6300636406338
 31
0.0
  0
LINE
  5
BD98
330
1F
100
AcDbEntity
  8
0
  6
Continuous
 62
     7
370
    15
100
AcDbLine
 10
810.420595880628
 20
166.6300636406338
 30
0.0
 11
809.7134892158512
 21
167.2424361731208
 31
0.0
  0
LINE
  5
BD99
330
1F
100
AcDbEntity
  8
0
  6
Continuous
 62
     7
370
    15
100
AcDbLine
 10
809.2892252169852
 20
166.8750126536286
 30
0.0
 11
809.7134892158512
 21
167.2424361731208
 31
0.0
  0
LINE
  5
BD9A
330
1F
100
AcDbEntity
  8
0
  6
Continuous
 62
     7
370
    15
100
AcDbLine
 10
806.4963322393898
 20
166.8750126536286
 30
0.0
 11
809.2892252169852
 21
166.8750126536286
 31
0.0
  0
LINE
  5
BD9B
330
1F
100
AcDbEntity
  8
0
  6
Continuous
 62
     7
370
    15
100
AcDbLine
 10
806.4963322393898
 20
166.8750126536286
 30
0.0
 11
806.4963322393898
 21
179.1725740458167
 31
0.0
  0
LINE
  5
BD9C
330
1F
100
AcDbEntity
  8
0
  6
Continuous
 62
     7
370
    15
100
AcDbLine
 10
809.2892252169852
 20
179.1725740458167
 30
0.0
 11
806.4963322393898
 21
179.1725740458167
 31
0.0
  0
LINE
  5
BD9D
330
1F
100
AcDbEntity
  8
0
  6
Continuous
 62
     7
370
    15
100
AcDbLine
 10
809.2892252169852
 20
179.1725740458167
 30
0.0
 11
809.7134892158512
 21
178.8051486636794
 31
0.0
  0
LINE
  5
BD9E
330
1F
100
AcDbEntity
  8
0
  6
Continuous
 62
     7
370
    15
100
AcDbLine
 10
810.420595880628
 20
179.4175230588114
 30
0.0
 11
809.7134892158512
 21
178.8051486636794
 31
0.0
  0
LINE
  5
BD9F
330
1F
100
AcDbEntity
  8
0
  6
Continuous
 62
     7
370
    15
100
AcDbLine
 10
810.420595880628
 20
179.4175230588114
 30
0.0
 11
809.996331881762
 21
179.7849447156584
 31
0.0
  0
LINE
  5
BDA0
330
1F
100
AcDbEntity
  8
0
  6
Continuous
 62
     7
370
    15
100
AcDbLine
 10
809.996331881762
 20
184.2821226145423
 30
0.0
 11
809.996331881762
 21
179.7849447156584
 31
0.0
  0
LINE
  5
BDA1
330
1F
100
AcDbEntity
  8
0
  6
Continuous
 62
     7
370
    15
100
AcDbLine
 10
809.996331881762
 20
184.2821226145423
 30
0.0
 11
810.4963328950409
 21
184.7151354576743
 31
0.0
  0
LINE
  5
BDA2
330
1F
100
AcDbEntity
  8
0
  6
Continuous
 62
     7
370
    15
100
AcDbLine
 10
809.996331881762
 20
161.7654622222579
 30
0.0
 11
809.996331881762
 21
160.0737892712748
 31
0.0
  0
LINE
  5
BDA3
330
1F
100
AcDbEntity
  8
0
  6
Continuous
 62
     7
370
    15
100
AcDbLine
 10
810.4963328950409
 20
159.5720690365231
 30
0.0
 11
810.4963328950409
 21
161.3324493791258
 31
0.0
  0
LINE
  5
BDA4
330
1F
100
AcDbEntity
  8
0
  6
Continuous
 62
     7
370
    15
100
AcDbLine
 10
821.9963329173927
 20
160.0737892712748
 30
0.0
 11
821.9963329173927
 21
161.7654622222579
 31
0.0
  0
LINE
  5
BDA5
330
1F
100
AcDbEntity
  8
0
  6
Continuous
 62
     7
370
    15
100
AcDbLine
 10
821.4963328354363
 20
161.3324493791258
 30
0.0
 11
821.4963328354363
 21
159.5720690365231
 31
0.0
  0
LINE
  5
BDA6
330
1F
100
AcDbEntity
  8
0
  6
Continuous
 62
     7
370
    15
100
AcDbLine
 10
821.4963328354363
 20
159.5720690365231
 30
0.0
 11
810.4963328950409
 21
159.5720690365231
 31
0.0
  0
SPLINE
  5
BDA7
330
1F
100
AcDbEntity
  8
0
  6
Continuous
 62
     7
370
    15
100
AcDbSpline
210
0.0
220
0.0
230
1.0
 70
    24
 71
     3
 72
    10
 73
     6
 74
     0
 42
0.0000000001
 43
0.0000000001
 40
0.0
 40
0.0
 40
0.0
 40
0.0
 40
0.5
 40
0.5
 40
1.0
 40
1.0
 40
1.0
 40
1.0
 10
867.9963327085772
 20
147.1919039684722
 30
0.0
 10
867.9963327085772
 20
160.3197487196878
 30
0.0
 10
867.9963327085772
 20
172.910901702894
 30
0.0
 10
867.9963327085772
 20
191.4764777479898
 30
0.0
 10
867.9963327085772
 20
196.6919040346598
 30
0.0
 10
867.9963327085772
 20
196.6919039684721
 30
0.0
  0
SPLINE
  5
BDA8
330
1F
100
AcDbEntity
  8
0
  6
Continuous
 62
     7
370
    15
100
AcDbSpline
210
0.0
220
0.0
230
1.0
 70
    24
 71
     3
 72
     8
 73
     4
 74
     0
 42
0.0000000001
 43
0.0000000001
 40
0.0
 40
0.0
 40
0.0
 40
0.0
 40
1.0
 40
1.0
 40
1.0
 40
1.0
 10
867.9963327085772
 20
138.873616471867
 30
0.0
 10
867.9963327085772
 20
141.6217701225873
 30
0.0
 10
867.9963327085772
 20
144.4041053643607
 30
0.0
 10
867.9963327085772
 20
147.1919039684721
 30
0.0
  0
SPLINE
  5
BDA9
330
1F
100
AcDbEntity
  8
0
  6
Continuous
 62
     7
370
    15
100
AcDbSpline
210
0.0
220
0.0
230
1.0
 70
     8
 71
     3
 72
     8
 73
     4
 74
     0
 42
0.0000000001
 43
0.0000000001
 40
0.0
 40
0.0
 40
0.0
 40
0.0
 40
1.0
 40
1.0
 40
1.0
 40
1.0
 10
867.9681361773257
 20
138.9041367301737
 30
0.0
 10
867.9869979272011
 20
138.8942269271663
 30
0.0
 10
867.996332708577
 20
138.8840517230895
 30
0.0
 10
867.9963327085772
 20
138.8736164718671
 30
0.0
  0
SPLINE
  5
BDAA
330
1F
100
AcDbEntity
  8
0
  6
Continuous
 62
     7
370
    15
100
AcDbSpline
210
0.0
220
0.0
230
1.0
 70
     8
 71
     3
 72
    15
 73
    11
 74
     0
 42
0.0000000001
 43
0.0000000001
 40
0.0
 40
0.0
 40
0.0
 40
0.0
 40
0.070204779849432
 40
0.1452106387130355
 40
0.2254428856837035
 40
0.3112491306251233
 40
0.4029135741310432
 40
0.500669318927979
 40
0.7053799611537701
 40
1.0
 40
1.0
 40
1.0
 40
1.0
 10
867.9681361773257
 20
138.9041367301737
 30
0.0
 10
867.9618962985895
 20
138.9076574260279
 30
0.0
 10
867.9489898158861
 20
138.9149395867982
 30
0.0
 10
867.9232066824965
 20
138.9326488412008
 30
0.0
 10
867.8921497054206
 20
138.9559710701907
 30
0.0
 10
867.8553106336577
 20
138.9856517014401
 30
0.0
 10
867.8128278810202
 20
139.0216139289878
 30
0.0
 10
867.7482047459307
 20
139.0784704986849
 30
0.0
 10
867.6423726141525
 20
139.173653089288
 30
0.0
 10
867.5505253449388
 20
139.2643095430173
 30
0.0
 10
867.4963327085773
 20
139.3177995626213
 30
0.0
  0
LINE
  5
BDAB
330
1F
100
AcDbEntity
  8
0
  6
Continuous
 62
     7
370
    15
100
AcDbLine
 10
803.4963317476515
 20
165.7897908862031
 30
0.0
 11
803.4963317476515
 21
139.3177995614058
 31
0.0
  0
SPLINE
  5
BDAC
330
1F
100
AcDbEntity
  8
0
  6
Continuous
 62
     7
370
    15
100
AcDbSpline
210
0.0
220
0.0
230
1.0
 70
     8
 71
     3
 72
    15
 73
    11
 74
     0
 42
0.0000000001
 43
0.0000000001
 40
0.0
 40
0.0
 40
0.0
 40
0.0
 40
0.1288991289315658
 40
0.2433453494951157
 40
0.3433502773172735
 40
0.4289333142414219
 40
0.5001276655972266
 40
0.6892816909514999
 40
0.8550586103343562
 40
1.0
 40
1.0
 40
1.0
 40
1.0
 10
803.4963327085772
 20
139.3177995626213
 30
0.0
 10
803.4726122836312
 20
139.2943107848507
 30
0.0
 10
803.4278311035992
 20
139.249966925562
 30
0.0
 10
803.3654041009365
 20
139.1896843147906
 30
0.0
 10
803.311543737101
 20
139.1392036254537
 30
0.0
 10
803.2662531988819
 20
139.0981038400334
 30
0.0
 10
803.2068747878494
 20
139.0452262077964
 30
0.0
 10
803.1388563652626
 20
138.9860991126289
 30
0.0
 10
803.0683658457419
 20
138.9305005101511
 30
0.0
 10
803.0384732831512
 20
138.9125228194362
 30
0.0
 10
803.0245292398285
 20
138.9041367301737
 30
0.0
  0
SPLINE
  5
BDAD
330
1F
100
AcDbEntity
  8
0
  6
Continuous
 62
     7
370
    15
100
AcDbSpline
210
0.0
220
0.0
230
1.0
 70
     8
 71
     3
 72
     8
 73
     4
 74
     0
 42
0.0000000001
 43
0.0000000001
 40
0.0
 40
0.0
 40
0.0
 40
0.0
 40
1.0
 40
1.0
 40
1.0
 40
1.0
 10
802.9963327085772
 20
138.873616471867
 30
0.0
 10
802.9963327085772
 20
138.8840517230893
 30
0.0
 10
803.0056674899523
 20
138.8942269271683
 30
0.0
 10
803.0245292398271
 20
138.9041367301758
 30
0.0
  0
SPLINE
  5
BDAE
330
1F
100
AcDbEntity
  8
0
  6
Continuous
 62
     7
370
    15
100
AcDbSpline
210
0.0
220
0.0
230
1.0
 70
    24
 71
     3
 72
     8
 73
     4
 74
     0
 42
0.0000000001
 43
0.0000000001
 40
0.0
 40
0.0
 40
0.0
 40
0.0
 40
1.0
 40
1.0
 40
1.0
 40
1.0
 10
802.9963327085772
 20
147.1919039684722
 30
0.0
 10
802.9963327085772
 20
144.4041053643607
 30
0.0
 10
802.9963327085772
 20
141.6217701225873
 30
0.0
 10
802.9963327085772
 20
138.873616471867
 30
0.0
  0
SPLINE
  5
BDAF
330
1F
100
AcDbEntity
  8
0
  6
Continuous
 62
     7
370
    15
100
AcDbSpline
210
0.0
220
0.0
230
1.0
 70
    24
 71
     3
 72
     8
 73
     4
 74
     0
 42
0.0000000001
 43
0.0000000001
 40
0.0
 40
0.0
 40
0.0
 40
0.0
 40
1.0
 40
1.0
 40
1.0
 40
1.0
 10
802.9963327085772
 20
165.0666539914881
 30
0.0
 10
802.9963327085772
 20
159.3657913323561
 30
0.0
 10
802.9963327085772
 20
153.3052673385391
 30
0.0
 10
802.9963327085772
 20
147.1919039684722
 30
0.0
  0
SPLINE
  5
BDB0
330
1F
100
AcDbEntity
  8
0
  6
Continuous
 62
     7
370
    15
100
AcDbSpline
210
0.0
220
0.0
230
1.0
 70
     8
 71
     3
 72
    14
 73
    10
 74
     0
 42
0.0000000001
 43
0.0000000001
 40
0.0
 40
0.0
 40
0.0
 40
0.0
 40
0.25
 40
0.25
 40
0.5
 40
0.5
 40
0.75
 40
0.75
 40
1.0
 40
1.0
 40
1.0
 40
1.0
 10
803.4963327085772
 20
165.7897900437718
 30
0.0
 10
803.4377754259221
 20
165.7348778210084
 30
0.0
 10
803.3811571965307
 20
165.6766897455005
 30
0.0
 10
803.2717229842264
 20
165.5538900475956
 30
0.0
 10
803.2187565401558
 20
165.4889222943407
 30
0.0
 10
803.1241302772665
 20
165.3589509185509
 30
0.0
 10
803.0812309999086
 20
165.2922848605306
 30
0.0
 10
803.0173021543818
 20
165.1674406894328
 30
0.0
 10
802.9963327085772
 20
165.1086151015069
 30
0.0
 10
802.9963327085772
 20
165.0666539914881
 30
0.0
  0
SPLINE
  5
BDB1
330
1F
100
AcDbEntity
  8
0
  6
Continuous
 62
     7
370
    15
100
AcDbSpline
210
0.0
220
0.0
230
1.0
 70
    11
 71
     3
 72
    62
 73
    58
 74
     0
 42
0.0000000001
 43
0.0000000001
 40
0.0
 40
0.0
 40
0.0
 40
0.0
 40
0.0312499999999999
 40
0.0312499999999999
 40
0.0624999999999999
 40
0.0624999999999999
 40
0.0937499999999998
 40
0.0937499999999998
 40
0.1249999999999997
 40
0.1249999999999997
 40
0.1874999999999996
 40
0.1874999999999996
 40
0.2499999999999995
 40
0.2499999999999995
 40
0.2812499999999998
 40
0.2812499999999998
 40
0.3125
 40
0.3125
 40
0.3437500000000004
 40
0.3437500000000004
 40
0.3750000000000007
 40
0.3750000000000007
 40
0.4062500000000011
 40
0.4062500000000011
 40
0.4375000000000014
 40
0.4375000000000014
 40
0.4687500000000017
 40
0.4687500000000017
 40
0.500000000000002
 40
0.500000000000002
 40
0.5312500000000023
 40
0.5312500000000023
 40
0.5625000000000026
 40
0.5625000000000026
 40
0.5937500000000028
 40
0.5937500000000028
 40
0.6250000000000031
 40
0.6250000000000031
 40
0.6875000000000031
 40
0.6875000000000031
 40
0.7500000000000032
 40
0.7500000000000032
 40
0.7812500000000028
 40
0.7812500000000028
 40
0.8125000000000024
 40
0.8125000000000024
 40
0.8437500000000019
 40
0.8437500000000019
 40
0.8750000000000015
 40
0.8750000000000015
 40
0.9062500000000012
 40
0.9062500000000012
 40
0.9375000000000007
 40
0.9375000000000007
 40
0.9687500000000003
 40
0.9687500000000003
 40
1.0
 40
1.0
 40
1.0
 40
1.0
 10
855.9963327085773
 20
195.9890991466924
 30
0.0
 10
856.1350721700735
 20
195.9890991466924
 30
0.0
 10
856.2714903628696
 20
195.9861334994595
 30
0.0
 10
856.5398750163785
 20
195.9744525451367
 30
0.0
 10
856.6732320959056
 20
195.9655944173736
 30
0.0
 10
856.9275206710397
 20
195.9422696527808
 30
0.0
 10
857.0481247579376
 20
195.9279199476703
 30
0.0
 10
857.2763749789897
 20
195.8936293282198
 30
0.0
 10
857.3844353985967
 20
195.8735000098525
 30
0.0
 10
857.6749804838332
 20
195.8066372525266
 30
0.0
 10
857.8314400778356
 20
195.7515837247957
 30
0.0
 10
858.0409502517406
 20
195.6286558643959
 30
0.0
 10
858.0961456232444
 20
195.5594513312678
 30
0.0
 10
858.0964255203136
 20
195.4531226271731
 30
0.0
 10
858.0828192846407
 20
195.4165610270368
 30
0.0
 10
858.0292989314369
 20
195.3447234148097
 30
0.0
 10
857.9896886760392
 20
195.3092820206041
 30
0.0
 10
857.8846237477373
 20
195.2395362063461
 30
0.0
 10
857.8189085909691
 20
195.2053208409937
 30
0.0
 10
857.6669865178272
 20
195.1412884817726
 30
0.0
 10
857.5802559419919
 20
195.1110681981519
 30
0.0
 10
857.3844054460252
 20
195.0546801609224
 30
0.0
 10
857.2781893528771
 20
195.0293691880872
 30
0.0
 10
857.0508677402884
 20
194.9848504194348
 30
0.0
 10
856.9282083632874
 20
194.9654393538744
 30
0.0
 10
856.6737982145319
 20
194.9341659905615
 30
0.0
 10
856.5429216357555
 20
194.922306447903
 30
0.0
 10
856.27391017965
 20
194.9062296001552
 30
0.0
 10
856.1350704674644
 20
194.9020591252745
 30
0.0
 10
855.8575917156536
 20
194.9020591892496
 30
0.0
 10
855.7211736053156
 20
194.90614062306
 30
0.0
 10
855.4527891127083
 20
194.9220700192777
 30
0.0
 10
855.3194321096164
 20
194.934110562773
 30
0.0
 10
855.0651437349342
 20
194.9653409990289
 30
0.0
 10
854.9445397406921
 20
194.9843748015741
 30
0.0
 10
854.7162896940196
 20
195.0289538304881
 30
0.0
 10
854.6082293682056
 20
195.0547264961672
 30
0.0
 10
854.3176845408641
 20
195.1382663592475
 30
0.0
 10
854.1612250878484
 20
195.2044558996787
 30
0.0
 10
853.9517151116521
 20
195.3430886306901
 30
0.0
 10
853.8965197938196
 20
195.4169240893316
 30
0.0
 10
853.8962398968861
 20
195.5232754519978
 30
0.0
 10
853.9098461191239
 20
195.5587227663024
 30
0.0
 10
853.9633664211343
 20
195.6263009642664
 30
0.0
 10
854.0029766389025
 20
195.6586217120045
 30
0.0
 10
854.1080414654944
 20
195.7204879146283
 30
0.0
 10
854.1737565627654
 20
195.7499332270805
 30
0.0
 10
854.3256784987478
 20
195.8037104731532
 30
0.0
 10
854.4124089959765
 20
195.8284019783762
 30
0.0
 10
854.6082593089886
 20
195.8735403865935
 30
0.0
 10
854.7144753288428
 20
195.893305564797
 30
0.0
 10
854.9417967563936
 20
195.9275577852657
 30
0.0
 10
855.0644560253049
 20
195.9421955052051
 30
0.0
 10
855.318866007307
 20
195.9655533004023
 30
0.0
 10
855.4497424999153
 20
195.9742785220869
 30
0.0
 10
855.7187537755574
 20
195.9860686539448
 30
0.0
 10
855.8575932470811
 20
195.9890991466924
 30
0.0
 10
855.9963327085773
 20
195.9890991466924
 30
0.0
  0
LINE
  5
BDB2
330
1F
100
AcDbEntity
  8
0
  6
Continuous
 62
     7
370
    15
100
AcDbLine
 10
805.996333088756
 20
165.7897908862031
 30
0.0
 11
803.4963317476515
 21
165.7897908862031
 31
0.0
  0
LINE
  5
BDB3
330
1F
100
AcDbEntity
  8
0
  6
Continuous
 62
     7
370
    15
100
AcDbLine
 10
809.2892252169852
 20
165.7897908862031
 30
0.0
 11
805.996333088756
 21
165.7897908862031
 31
0.0
  0
LINE
  5
BDB4
330
1F
100
AcDbEntity
  8
0
  6
Continuous
 62
     7
370
    15
100
AcDbLine
 10
809.7963322215084
 20
165.7897908862031
 30
0.0
 11
809.2892252169852
 21
165.7897908862031
 31
0.0
  0
ELLIPSE
  5
BDB5
330
1F
100
AcDbEntity
  8
0
  6
Continuous
 62
     7
370
    15
100
AcDbEllipse
 10
802.6963327085773
 20
147.1919039684722
 30
0.0
 11
48.29629131445349
 21
-48.29629131445347
 31
0.0
210
0.0
220
0.0
230
1.0
 40
0.2679491924311178
 41
1.686071985830496
 42
1.69011411708086
  0
LINE
  5
BDB6
330
1F
100
AcDbEntity
  8
0
  6
Continuous
 62
     7
370
    15
100
AcDbLine
 10
809.996331881762
 20
159.5720690365231
 30
0.0
 11
809.996331881762
 21
160.0737892712748
 31
0.0
  0
LINE
  5
BDB7
330
1F
100
AcDbEntity
  8
0
  6
Continuous
 62
     7
370
    15
100
AcDbLine
 10
810.4963328950409
 20
159.5720690365231
 30
0.0
 11
809.996331881762
 21
159.5720690365231
 31
0.0
  0
LINE
  5
BDB8
330
1F
100
AcDbEntity
  8
0
  6
Continuous
 62
     7
370
    15
100
AcDbLine
 10
821.9963329173927
 20
159.5720690365231
 30
0.0
 11
821.4963328354363
 21
159.5720690365231
 31
0.0
  0
LINE
  5
BDB9
330
1F
100
AcDbEntity
  8
0
  6
Continuous
 62
     7
370
    15
100
AcDbLine
 10
821.9963329173927
 20
160.0737892712748
 30
0.0
 11
821.9963329173927
 21
159.5720690365231
 31
0.0
  0
LINE
  5
BDBA
330
1F
100
AcDbEntity
  8
0
  6
Continuous
 62
     7
370
    15
100
AcDbLine
 10
803.4963317476515
 20
178.0873522783911
 30
0.0
 11
805.996333088756
 21
178.0873522783911
 31
0.0
  0
LINE
  5
BDBB
330
1F
100
AcDbEntity
  8
0
  6
Continuous
 62
     7
370
    15
100
AcDbLine
 10
803.4963317476515
 20
196.8884826327956
 30
0.0
 11
803.4963317476515
 21
178.0873522783911
 31
0.0
  0
LINE
  5
BDBC
330
1F
100
AcDbEntity
  8
0
  6
Continuous
 62
     7
370
    15
100
AcDbLine
 10
809.996331881762
 20
196.8884826327956
 30
0.0
 11
803.4963317476515
 21
196.8884826327956
 31
0.0
  0
LINE
  5
BDBD
330
1F
100
AcDbEntity
  8
0
  6
Continuous
 62
     7
370
    15
100
AcDbLine
 10
809.996331881762
 20
197.191903802315
 30
0.0
 11
809.996331881762
 21
196.8884826327956
 31
0.0
  0
LINE
  5
BDBE
330
1F
100
AcDbEntity
  8
0
  6
Continuous
 62
     7
370
    15
100
AcDbLine
 10
803.4963317476515
 20
139.3177995614058
 30
0.0
 11
867.4963310621981
 21
139.3177995614058
 31
0.0
  0
LINE
  5
BDBF
330
1F
100
AcDbEntity
  8
0
  6
Continuous
 62
     7
370
    15
100
AcDbLine
 10
803.0245274566416
 20
138.9041366909912
 30
0.0
 11
867.968135353208
 21
138.9041366909912
 31
0.0
  0
LINE
  5
BDC0
330
1F
100
AcDbEntity
  8
0
  6
Continuous
 62
     7
370
    15
100
AcDbLine
 10
867.9963320754771
 20
138.6377819271109
 30
0.0
 11
802.9963344596628
 21
138.6377819271109
 31
0.0
  0
LINE
  5
BDC1
330
1F
100
AcDbEntity
  8
0
  6
Continuous
 62
     7
370
    15
100
AcDbLine
 10
802.9963344596628
 20
138.8736164353138
 30
0.0
 11
802.9963344596628
 21
138.6377819271109
 31
0.0
  0
LINE
  5
BDC2
330
1F
100
AcDbEntity
  8
0
  6
Continuous
 62
     7
370
    15
100
AcDbLine
 10
867.9963320754771
 20
138.6377819271109
 30
0.0
 11
867.9963320754771
 21
138.8736164353138
 31
0.0
  0
SPLINE
  5
BDC3
330
1F
100
AcDbEntity
  8
0
  6
Continuous
 62
     7
370
    15
100
AcDbSpline
210
0.0
220
0.0
230
1.0
 70
     8
 71
     3
 72
     8
 73
     4
 74
     0
 42
0.0000000001
 43
0.0000000001
 40
0.0
 40
0.0
 40
0.0
 40
0.0
 40
1.0
 40
1.0
 40
1.0
 40
1.0
 10
867.9963327085772
 20
134.9438894959802
 30
0.0
 10
867.9963327085772
 20
134.9102852364488
 30
0.0
 10
867.9869979272021
 20
134.8775183972704
 30
0.0
 10
867.9681361773273
 20
134.8456062194924
 30
0.0
  0
SPLINE
  5
BDC4
330
1F
100
AcDbEntity
  8
0
  6
Continuous
 62
     7
370
    15
100
AcDbSpline
210
0.0
220
0.0
230
1.0
 70
     8
 71
     3
 72
     8
 73
     4
 74
     0
 42
0.0000000001
 43
0.0000000001
 40
0.0
 40
0.0
 40
0.0
 40
0.0
 40
1.0
 40
1.0
 40
1.0
 40
1.0
 10
867.9681361773257
 20
111.7036120921219
 30
0.0
 10
867.9869979272011
 20
111.7286291799322
 30
0.0
 10
867.996332708577
 20
111.7543162671216
 30
0.0
 10
867.9963327085772
 20
111.780659837822
 30
0.0
  0
SPLINE
  5
BDC5
330
1F
100
AcDbEntity
  8
0
  6
Continuous
 62
     7
370
    15
100
AcDbSpline
210
0.0
220
0.0
230
1.0
 70
     8
 71
     3
 72
    15
 73
    11
 74
     0
 42
0.0000000001
 43
0.0000000001
 40
0.0
 40
0.0
 40
0.0
 40
0.0
 40
0.0702047799470347
 40
0.1452106388683024
 40
0.2254428858571678
 40
0.3112491307782545
 40
0.4029135742264745
 40
0.500669318929547
 40
0.7053799623970844
 40
1.0
 40
1.0
 40
1.0
 40
1.0
 10
867.9681361773257
 20
111.7036120921218
 30
0.0
 10
867.9618962985815
 20
111.6965168136132
 30
0.0
 10
867.9489898158662
 20
111.681841033332
 30
0.0
 10
867.9232066824633
 20
111.6666588222361
 30
0.0
 10
867.8921497053831
 20
111.6563008038083
 30
0.0
 10
867.8553106336249
 20
111.6520164935913
 30
0.0
 10
867.8128278810046
 20
111.6541941718083
 30
0.0
 10
867.7482047456921
 20
111.6668468795723
 30
0.0
 10
867.6423726139626
 20
111.7041123496626
 30
0.0
 10
867.5505253447248
 20
111.7638398642688
 30
0.0
 10
867.4963327085773
 20
111.799080884431
 30
0.0
  0
LINE
  5
BDC6
330
1F
100
AcDbEntity
  8
0
  6
Continuous
 62
     7
370
    15
100
AcDbLine
 10
867.4963310621981
 20
134.3021904739833
 30
0.0
 11
867.4963310621981
 21
111.7990803594983
 31
0.0
  0
SPLINE
  5
BDC7
330
1F
100
AcDbEntity
  8
0
  6
Continuous
 62
     7
370
    15
100
AcDbSpline
210
0.0
220
0.0
230
1.0
 70
     8
 71
     3
 72
     8
 73
     4
 74
     0
 42
0.0000000001
 43
0.0000000001
 40
0.0
 40
0.0
 40
0.0
 40
0.0
 40
1.0
 40
1.0
 40
1.0
 40
1.0
 10
867.4963327085773
 20
134.3021902964953
 30
0.0
 10
867.5390902436188
 20
134.3441778977017
 30
0.0
 10
867.5818477786604
 20
134.387630997105
 30
0.0
 10
867.6246053137019
 20
134.4310874332151
 30
0.0
  0
SPLINE
  5
BDC8
330
1F
100
AcDbEntity
  8
0
  6
Continuous
 62
     7
370
    15
100
AcDbSpline
210
0.0
220
0.0
230
1.0
 70
     8
 71
     3
 72
    10
 73
     6
 74
     0
 42
0.0000000001
 43
0.0000000001
 40
0.0
 40
0.0
 40
0.0
 40
0.0
 40
0.499999999999994
 40
0.499999999999994
 40
1.0
 40
1.0
 40
1.0
 40
1.0
 10
867.6246053136983
 20
134.4310874332233
 30
0.0
 10
867.6945437861837
 20
134.5038000674552
 30
0.0
 10
867.7619607954946
 20
134.577934916483
 30
0.0
 10
867.8828707563985
 20
134.7218933767055
 30
0.0
 10
867.9362625300296
 20
134.7916792240827
 30
0.0
 10
867.9681361773257
 20
134.8456062194925
 30
0.0
  0
SPLINE
  5
BDC9
330
1F
100
AcDbEntity
  8
0
  6
Continuous
 62
     7
370
    15
100
AcDbSpline
210
0.0
220
0.0
230
1.0
 70
    24
 71
     3
 72
     8
 73
     4
 74
     0
 42
0.0000000001
 43
0.0000000001
 40
0.0
 40
0.0
 40
0.0
 40
0.0
 40
1.0
 40
1.0
 40
1.0
 40
1.0
 10
867.9963327085772
 20
111.7806598378222
 30
0.0
 10
867.9963327085772
 20
118.1280433181689
 30
0.0
 10
867.9963327085772
 20
126.1422814493101
 30
0.0
 10
867.9963327085772
 20
134.9438894959802
 30
0.0
  0
SPLINE
  5
BDCA
330
1F
100
AcDbEntity
  8
0
  6
Continuous
 62
     7
370
    15
100
AcDbSpline
210
0.0
220
0.0
230
1.0
 70
     8
 71
     3
 72
    10
 73
     6
 74
     0
 42
0.0000000001
 43
0.0000000001
 40
0.0
 40
0.0
 40
0.0
 40
0.0
 40
0.4999999999999939
 40
0.4999999999999939
 40
1.0
 40
1.0
 40
1.0
 40
1.0
 10
803.0245292398285
 20
134.8456062194925
 30
0.0
 10
803.0564344320897
 20
134.7916258531847
 30
0.0
 10
803.1098535806817
 20
134.7218400687991
 30
0.0
 10
803.230163168622
 20
134.5785628079301
 30
0.0
 10
803.2980993608228
 20
134.5038232209651
 30
0.0
 10
803.3680601034559
 20
134.4310874332233
 30
0.0
  0
SPLINE
  5
BDCB
330
1F
100
AcDbEntity
  8
0
  6
Continuous
 62
     7
370
    15
100
AcDbSpline
210
0.0
220
0.0
230
1.0
 70
     8
 71
     3
 72
     8
 73
     4
 74
     0
 42
0.0000000001
 43
0.0000000001
 40
0.0
 40
0.0
 40
0.0
 40
0.0
 40
1.0
 40
1.0
 40
1.0
 40
1.0
 10
803.3680601034523
 20
134.4310874332151
 30
0.0
 10
803.4108176384938
 20
134.387630997105
 30
0.0
 10
803.4535751735356
 20
134.3441778977017
 30
0.0
 10
803.4963327085772
 20
134.3021902964953
 30
0.0
  0
LINE
  5
BDCC
330
1F
100
AcDbEntity
  8
0
  6
Continuous
 62
     7
370
    15
100
AcDbLine
 10
803.4963317476515
 20
127.1067536126173
 30
0.0
 11
803.4963317476515
 21
134.3021904739833
 31
0.0
  0
SPLINE
  5
BDCD
330
1F
100
AcDbEntity
  8
0
  6
Continuous
 62
     7
370
    15
100
AcDbSpline
210
0.0
220
0.0
230
1.0
 70
     8
 71
     3
 72
    10
 73
     6
 74
     0
 42
0.0000000001
 43
0.0000000001
 40
0.0
 40
0.0
 40
0.0
 40
0.0
 40
0.5
 40
0.5
 40
1.0
 40
1.0
 40
1.0
 40
1.0
 10
803.4963327085772
 20
127.1067540097128
 30
0.0
 10
803.363865777416
 20
127.1067540097128
 30
0.0
 10
803.2344359706517
 20
127.1342056210911
 30
0.0
 10
803.0502804860912
 20
127.2270699639172
 30
0.0
 10
802.9963327085772
 20
127.2920738618891
 30
0.0
 10
802.9963327085772
 20
127.3582959367887
 30
0.0
  0
SPLINE
  5
BDCE
330
1F
100
AcDbEntity
  8
0
  6
Continuous
 62
     7
370
    15
100
AcDbSpline
210
0.0
220
0.0
230
1.0
 70
     8
 71
     3
 72
     8
 73
     4
 74
     0
 42
0.0000000001
 43
0.0000000001
 40
0.0
 40
0.0
 40
0.0
 40
0.0
 40
1.0
 40
1.0
 40
1.0
 40
1.0
 10
803.0245292398285
 20
134.8456062194925
 30
0.0
 10
803.0056674899533
 20
134.8775183972705
 30
0.0
 10
802.9963327085772
 20
134.9102852364484
 30
0.0
 10
802.9963327085772
 20
134.9438894959798
 30
0.0
  0
SPLINE
  5
BDCF
330
1F
100
AcDbEntity
  8
0
  6
Continuous
 62
     7
370
    15
100
AcDbSpline
210
0.0
220
0.0
230
1.0
 70
    24
 71
     3
 72
     8
 73
     4
 74
     0
 42
0.0000000001
 43
0.0000000001
 40
0.0
 40
0.0
 40
0.0
 40
0.0
 40
1.0
 40
1.0
 40
1.0
 40
1.0
 10
802.9963327085772
 20
134.9438894959802
 30
0.0
 10
802.9963327085772
 20
132.3487538651101
 30
0.0
 10
802.9963327085772
 20
129.8123160327748
 30
0.0
 10
802.9963327085772
 20
127.3582959367887
 30
0.0
  0
LINE
  5
BDD0
330
1F
100
AcDbEntity
  8
0
  6
Continuous
 62
     7
370
    15
100
AcDbLine
 10
809.7134892158512
 20
167.2424361731208
 30
0.0
 11
809.7134892158512
 21
165.7897908862031
 31
0.0
  0
LINE
  5
BDD1
330
1F
100
AcDbEntity
  8
0
  6
Continuous
 62
     7
370
    15
100
AcDbLine
 10
867.968135353208
 20
134.8456060204005
 30
0.0
 11
803.0245274566416
 21
134.8456060204005
 31
0.0
  0
LINE
  5
BDD2
330
1F
100
AcDbEntity
  8
0
  6
Continuous
 62
     7
370
    15
100
AcDbLine
 10
867.4963310621981
 20
134.3021904739833
 30
0.0
 11
803.4963317476515
 21
134.3021904739833
 31
0.0
  0
LINE
  5
BDD3
330
1F
100
AcDbEntity
  8
0
  6
Continuous
 62
     7
370
    15
100
AcDbLine
 10
803.4963317476515
 20
111.7990803594983
 30
0.0
 11
867.4963310621981
 21
111.7990803594983
 31
0.0
  0
LINE
  5
BDD4
330
1F
100
AcDbEntity
  8
0
  6
Continuous
 62
     7
370
    15
100
AcDbLine
 10
803.4963317476515
 20
111.7990803594983
 30
0.0
 11
803.4963317476515
 21
117.5804738576806
 31
0.0
  0
LINE
  5
BDD5
330
1F
100
AcDbEntity
  8
0
  6
Continuous
 62
     7
370
    15
100
AcDbLine
 10
803.4963317476515
 20
117.5804738576806
 30
0.0
 11
809.996331881762
 21
117.5804738576806
 31
0.0
  0
LINE
  5
BDD6
330
1F
100
AcDbEntity
  8
0
  6
Continuous
 62
     7
370
    15
100
AcDbLine
 10
809.996331881762
 20
127.1067536126173
 30
0.0
 11
809.996331881762
 21
117.5804738576806
 31
0.0
  0
LINE
  5
BDD7
330
1F
100
AcDbEntity
  8
0
  6
Continuous
 62
     7
370
    15
100
AcDbLine
 10
809.996331881762
 20
127.1067536126173
 30
0.0
 11
803.4963317476515
 21
127.1067536126173
 31
0.0
  0
LINE
  5
BDD8
330
1F
100
AcDbEntity
  8
0
  6
Continuous
 62
     7
370
    15
100
AcDbLine
 10
805.996333088756
 20
178.9225735391772
 30
0.0
 11
805.996333088756
 21
166.6250121469891
 31
0.0
  0
LINE
  5
BDD9
330
1F
100
AcDbEntity
  8
0
  6
Continuous
 62
     7
370
    15
100
AcDbLine
 10
805.996333088756
 20
178.9225735391772
 30
0.0
 11
806.4963322393898
 21
179.1725740458167
 31
0.0
  0
LINE
  5
BDDA
330
1F
100
AcDbEntity
  8
0
  6
Continuous
 62
     7
370
    15
100
AcDbLine
 10
806.4963322393898
 20
166.8750126536286
 30
0.0
 11
805.996333088756
 21
166.6250121469891
 31
0.0
  0
LINE
  5
BDDB
330
1F
100
AcDbEntity
  8
0
  6
Continuous
 62
     7
370
    15
100
AcDbLine
 10
805.996333088756
 20
165.7897908862031
 30
0.0
 11
805.996333088756
 21
166.6250121469891
 31
0.0
  0
LINE
  5
BDDC
330
1F
100
AcDbEntity
  8
0
  6
Continuous
 62
     7
370
    15
100
AcDbLine
 10
809.2892252169852
 20
166.8750126536286
 30
0.0
 11
809.2892252169852
 21
165.7897908862031
 31
0.0
  0
LINE
  5
BDDD
330
1F
100
AcDbEntity
  8
0
  6
Continuous
 62
     7
370
    15
100
AcDbLine
 10
867.9963320754771
 20
135.7033392104602
 30
0.0
 11
802.9963344596628
 21
135.7033392104602
 31
0.0
  0
LINE
  5
BDDE
330
1F
100
AcDbEntity
  8
0
  6
Continuous
 62
     7
370
    15
100
AcDbLine
 10
802.9963344596628
 20
134.9438894230223
 30
0.0
 11
802.9963344596628
 21
135.7033392104602
 31
0.0
  0
LINE
  5
BDDF
330
1F
100
AcDbEntity
  8
0
  6
Continuous
 62
     7
370
    15
100
AcDbLine
 10
867.9963320754771
 20
135.7033392104602
 30
0.0
 11
867.9963320754771
 21
134.9438894230223
 31
0.0
  0
LINE
  5
BDE0
330
1F
100
AcDbEntity
  8
0
  6
Continuous
 62
     7
370
    15
100
AcDbLine
 10
802.9963344596628
 20
136.1191626328325
 30
0.0
 11
867.9963320754771
 21
136.1191626328325
 31
0.0
  0
LINE
  5
BDE1
330
1F
100
AcDbEntity
  8
0
  6
Continuous
 62
     7
370
    15
100
AcDbLine
 10
802.9963344596628
 20
136.1191626328325
 30
0.0
 11
802.9963344596628
 21
135.7033392104602
 31
0.0
  0
LINE
  5
BDE2
330
1F
100
AcDbEntity
  8
0
  6
Continuous
 62
     7
370
    15
100
AcDbLine
 10
867.9963320754771
 20
135.7033392104602
 30
0.0
 11
867.9963320754771
 21
136.1191626328325
 31
0.0
  0
LINE
  5
BDE3
330
1F
100
AcDbEntity
  8
0
  6
Continuous
 62
     7
370
    15
100
AcDbLine
 10
802.9963344596628
 20
136.3565954069889
 30
0.0
 11
867.9963320754771
 21
136.3565954069889
 31
0.0
  0
LINE
  5
BDE4
330
1F
100
AcDbEntity
  8
0
  6
Continuous
 62
     7
370
    15
100
AcDbLine
 10
802.9963344596628
 20
136.3565954069889
 30
0.0
 11
802.9963344596628
 21
135.4833664062715
 31
0.0
  0
LINE
  5
BDE5
330
1F
100
AcDbEntity
  8
0
  6
Continuous
 62
     7
370
    15
100
AcDbLine
 10
867.9963320754771
 20
135.4833664062715
 30
0.0
 11
867.9963320754771
 21
136.3565954069889
 31
0.0
  0
LINE
  5
BDE6
330
1F
100
AcDbEntity
  8
0
  6
Continuous
 62
     7
370
    15
100
AcDbLine
 10
809.996331881762
 20
119.9287646140253
 30
0.0
 11
802.9963344596628
 21
119.9287646140253
 31
0.0
  0
LINE
  5
BDE7
330
1F
100
AcDbEntity
  8
0
  6
Continuous
 62
     7
370
    15
100
AcDbLine
 10
802.9963344596628
 20
127.3845140512383
 30
0.0
 11
802.9963344596628
 21
119.9287646140253
 31
0.0
  0
LINE
  5
BDE8
330
1F
100
AcDbEntity
  8
0
  6
Continuous
 62
     7
370
    15
100
AcDbLine
 10
802.9963344596628
 20
138.6377819271109
 30
0.0
 11
802.9963344596628
 21
136.3565954069889
 31
0.0
  0
LINE
  5
BDE9
330
1F
100
AcDbEntity
  8
0
  6
Continuous
 62
     7
370
    15
100
AcDbLine
 10
867.9963320754771
 20
136.3565954069889
 30
0.0
 11
867.9963320754771
 21
138.6377819271109
 31
0.0
  0
LINE
  5
BDEA
330
1F
100
AcDbEntity
  8
0
  6
Continuous
 62
     7
370
    15
100
AcDbLine
 10
809.996331881762
 20
179.7849447156584
 30
0.0
 11
809.996331881762
 21
179.0500976766741
 31
0.0
  0
SPLINE
  5
BDEB
330
1F
100
AcDbEntity
  8
0
  6
Continuous
 62
     7
370
    15
100
AcDbSpline
210
0.0
220
0.0
230
1.0
 70
     8
 71
     3
 72
     8
 73
     4
 74
     0
 42
0.0000000001
 43
0.0000000001
 40
0.0
 40
0.0
 40
0.0
 40
0.0
 40
1.0
 40
1.0
 40
1.0
 40
1.0
 10
802.9963327085772
 20
111.7806598378222
 30
0.0
 10
802.9963327085772
 20
111.7543162671218
 30
0.0
 10
803.0056674899523
 20
111.7286291799366
 30
0.0
 10
803.0245292398271
 20
111.7036120921262
 30
0.0
  0
SPLINE
  5
BDEC
330
1F
100
AcDbEntity
  8
0
  6
Continuous
 62
     7
370
    15
100
AcDbSpline
210
0.0
220
0.0
230
1.0
 70
     8
 71
     3
 72
    10
 73
     6
 74
     0
 42
0.0000000001
 43
0.0000000001
 40
0.0
 40
0.0
 40
0.0
 40
0.0
 40
0.5
 40
0.5
 40
1.0
 40
1.0
 40
1.0
 40
1.0
 10
803.4963327085772
 20
117.5804745680841
 30
0.0
 10
803.363865777416
 20
117.5804745680841
 30
0.0
 10
803.2344359706517
 20
117.6079261794622
 30
0.0
 10
803.0502804860912
 20
117.7007905222885
 30
0.0
 10
802.9963327085772
 20
117.7657944202603
 30
0.0
 10
802.9963327085772
 20
117.8320164951599
 30
0.0
  0
SPLINE
  5
BDED
330
1F
100
AcDbEntity
  8
0
  6
Continuous
 62
     7
370
    15
100
AcDbSpline
210
0.0
220
0.0
230
1.0
 70
     8
 71
     3
 72
    15
 73
    11
 74
     0
 42
0.0000000001
 43
0.0000000001
 40
0.0
 40
0.0
 40
0.0
 40
0.0
 40
0.1288991288407129
 40
0.2433453493588283
 40
0.3433502771811394
 40
0.4289333141512272
 40
0.5001276655990102
 40
0.6892816909998629
 40
0.8550586103829799
 40
1.0
 40
1.0
 40
1.0
 40
1.0
 10
803.4963327085772
 20
111.799080884431
 30
0.0
 10
803.4726122836451
 20
111.7828633421906
 30
0.0
 10
803.4278311036326
 20
111.7522466613973
 30
0.0
 10
803.365404100991
 20
111.7173551600532
 30
0.0
 10
803.3115437371558
 20
111.6921753536112
 30
0.0
 10
803.2662531989153
 20
111.6752611609265
 30
0.0
 10
803.2068747878597
 20
111.6578668510202
 30
0.0
 10
803.1388563652591
 20
111.6490476095649
 30
0.0
 10
803.0683658457364
 20
111.6613518853345
 30
0.0
 10
803.038473283148
 20
111.690169487661
 30
0.0
 10
803.0245292398285
 20
111.7036120921218
 30
0.0
  0
SPLINE
  5
BDEE
330
1F
100
AcDbEntity
  8
0
  6
Continuous
 62
     7
370
    15
100
AcDbSpline
210
0.0
220
0.0
230
1.0
 70
    24
 71
     3
 72
     8
 73
     4
 74
     0
 42
0.0000000001
 43
0.0000000001
 40
0.0
 40
0.0
 40
0.0
 40
0.0
 40
1.0
 40
1.0
 40
1.0
 40
1.0
 10
802.9963327085772
 20
117.8320164951599
 30
0.0
 10
802.9963327085772
 20
115.67559887412
 30
0.0
 10
802.9963327085772
 20
113.6521725142899
 30
0.0
 10
802.9963327085772
 20
111.7806598378222
 30
0.0
  0
LINE
  5
BDEF
330
1F
100
AcDbEntity
  8
0
  6
Continuous
 62
     7
370
    15
100
AcDbLine
 10
802.9963344596628
 20
119.9287646140253
 30
0.0
 11
802.9963344596628
 21
117.8320166345036
 31
0.0
  0
SPLINE
  5
BDF0
330
1F
100
AcDbEntity
  8
0
  6
Continuous
 62
     7
370
    15
100
AcDbSpline
210
0.0
220
0.0
230
1.0
 70
     8
 71
     3
 72
    12
 73
     8
 74
     0
 42
0.0000000001
 43
0.0000000001
 40
0.0
 40
0.0
 40
0.0
 40
0.0
 40
0.250000000000003
 40
0.250000000000003
 40
0.5000000000000061
 40
0.5000000000000061
 40
1.0
 40
1.0
 40
1.0
 40
1.0
 10
802.9963327085772
 20
178.2302401290117
 30
0.0
 10
802.9963327085772
 20
178.2722172760956
 30
0.0
 10
803.0169833055715
 20
178.2944939218368
 30
0.0
 10
803.0807676662949
 20
178.3088611574255
 30
0.0
 10
803.1231749006192
 20
178.3014538981425
 30
0.0
 10
803.2659903119769
 20
178.250470526247
 30
0.0
 10
803.3792919810956
 20
178.1803160601261
 30
0.0
 10
803.4963327085772
 20
178.0873507775108
 30
0.0
  0
SPLINE
  5
BDF1
330
1F
100
AcDbEntity
  8
0
  6
Continuous
 62
     7
370
    15
100
AcDbSpline
210
0.0
220
0.0
230
1.0
 70
    24
 71
     3
 72
     8
 73
     4
 74
     0
 42
0.0000000001
 43
0.0000000001
 40
0.0
 40
0.0
 40
0.0
 40
0.0
 40
1.0
 40
1.0
 40
1.0
 40
1.0
 10
802.9963327085772
 20
196.3853994734676
 30
0.0
 10
802.9963327085772
 20
194.9337753723341
 30
0.0
 10
802.9963327085772
 20
188.4074381940139
 30
0.0
 10
802.9963327085772
 20
178.2302401290117
 30
0.0
  0
SPLINE
  5
BDF2
330
1F
100
AcDbEntity
  8
0
  6
Continuous
 62
     7
370
    15
100
AcDbSpline
210
0.0
220
0.0
230
1.0
 70
     8
 71
     3
 72
    10
 73
     6
 74
     0
 42
0.0000000001
 43
0.0000000001
 40
0.0
 40
0.0
 40
0.0
 40
0.0
 40
0.5
 40
0.5
 40
1.0
 40
1.0
 40
1.0
 40
1.0
 10
803.4963327085772
 20
196.8884833276192
 30
0.0
 10
803.363865777416
 20
196.8884833276192
 30
0.0
 10
803.2344359706517
 20
196.8335801048627
 30
0.0
 10
803.0502804860912
 20
196.6478514192104
 30
0.0
 10
802.9963327085772
 20
196.5178436232667
 30
0.0
 10
802.9963327085772
 20
196.3853994734676
 30
0.0
  0
LINE
  5
BDF3
330
1F
100
AcDbEntity
  8
0
  6
Continuous
 62
     7
370
    15
100
AcDbLine
 10
805.996333088756
 20
166.6725729282296
 30
0.0
 11
803.4963317476515
 21
166.6725729282296
 31
0.0
  0
LINE
  5
BDF4
330
1F
100
AcDbEntity
  8
0
  6
Continuous
 62
     7
370
    15
100
AcDbLine
 10
803.4963317476515
 20
166.6725729282296
 30
0.0
 11
803.4963317476515
 21
178.0873522783911
 31
0.0
  0
LINE
  5
BDF5
330
1F
100
AcDbEntity
  8
0
  6
Continuous
 62
     7
370
    15
100
AcDbLine
 10
802.9963344596628
 20
166.4225742842353
 30
0.0
 11
802.9963344596628
 21
178.2302395130789
 31
0.0
  0
SPLINE
  5
BDF6
330
1F
100
AcDbEntity
  8
0
  6
Continuous
 62
     7
370
    15
100
AcDbSpline
210
0.0
220
0.0
230
1.0
 70
     8
 71
     3
 72
     8
 73
     4
 74
     0
 42
0.0000000001
 43
0.0000000001
 40
0.0
 40
0.0
 40
0.0
 40
0.0
 40
1.0
 40
1.0
 40
1.0
 40
1.0
 10
867.9963327085772
 20
109.09241463615
 30
0.0
 10
867.9963327085772
 20
109.0359445441431
 30
0.0
 10
867.9869979272021
 20
108.9808816905381
 30
0.0
 10
867.9681361773273
 20
108.9272550479519
 30
0.0
  0
SPLINE
  5
BDF7
330
1F
100
AcDbEntity
  8
0
  6
Continuous
 62
     7
370
    15
100
AcDbSpline
210
0.0
220
0.0
230
1.0
 70
     8
 71
     3
 72
    13
 73
     9
 74
     0
 42
0.0000000001
 43
0.0000000001
 40
0.0
 40
0.0
 40
0.0
 40
0.0
 40
0.1577506610650962
 40
0.2936979311708882
 40
0.4078467565073979
 40
0.5002099895104099
 40
0.7710545828331883
 40
1.0
 40
1.0
 40
1.0
 40
1.0
 10
867.4963327085773
 20
108.3680059965672
 30
0.0
 10
867.5181919016511
 20
108.3825327815931
 30
0.0
 10
867.5588890355937
 20
108.4095785427954
 30
0.0
 10
867.6149007107895
 20
108.4539029376873
 30
0.0
 10
867.661520524512
 20
108.4942042511778
 30
0.0
 10
867.7253358414038
 20
108.5544944791066
 30
0.0
 10
867.8022058152999
 20
108.6378402474751
 30
0.0
 10
867.8578495618024
 20
108.7190459888302
 30
0.0
 10
867.883339028355
 20
108.7562449762863
 30
0.0
  0
SPLINE
  5
BDF8
330
1F
100
AcDbEntity
  8
0
  6
Continuous
 62
     7
370
    15
100
AcDbSpline
210
0.0
220
0.0
230
1.0
 70
     8
 71
     3
 72
     8
 73
     4
 74
     0
 42
0.0000000001
 43
0.0000000001
 40
0.0
 40
0.0
 40
0.0
 40
0.0
 40
1.0
 40
1.0
 40
1.0
 40
1.0
 10
867.883339028355
 20
108.7562449762864
 30
0.0
 10
867.9183304173234
 20
108.811685640755
 30
0.0
 10
867.9474653999921
 20
108.8684850825231
 30
0.0
 10
867.9681361773257
 20
108.9272550479491
 30
0.0
  0
SPLINE
  5
BDF9
330
1F
100
AcDbEntity
  8
0
  6
Continuous
 62
     7
370
    15
100
AcDbSpline
210
0.0
220
0.0
230
1.0
 70
    24
 71
     3
 72
     8
 73
     4
 74
     0
 42
0.0000000001
 43
0.0000000001
 40
0.0
 40
0.0
 40
0.0
 40
0.0
 40
1.0
 40
1.0
 40
1.0
 40
1.0
 10
867.9963327085772
 20
97.6919039684722
 30
0.0
 10
867.9963327085772
 20
97.6919039102885
 30
0.0
 10
867.9963327085772
 20
101.7247984012344
 30
0.0
 10
867.9963327085772
 20
109.09241463615
 30
0.0
  0
SPLINE
  5
BDFA
330
1F
100
AcDbEntity
  8
0
  6
Continuous
 62
     7
370
    15
100
AcDbSpline
210
0.0
220
0.0
230
1.0
 70
     8
 71
     3
 72
    13
 73
     9
 74
     0
 42
0.0000000001
 43
0.0000000001
 40
0.0
 40
0.0
 40
0.0
 40
0.0
 40
0.1094596682181619
 40
0.2291638175608718
 40
0.3593694130587424
 40
0.5002758569044215
 40
0.7066053676608674
 40
1.0
 40
1.0
 40
1.0
 40
1.0
 10
803.1093263887992
 20
108.7562449762863
 30
0.0
 10
803.1211565520706
 20
108.7382410831317
 30
0.0
 10
803.1459240798891
 20
108.7005482876624
 30
0.0
 10
803.1886418547681
 20
108.6448319752799
 30
0.0
 10
803.2373417951752
 20
108.5875177884841
 30
0.0
 10
803.2994569529195
 20
108.5226847768214
 30
0.0
 10
803.3864115211377
 20
108.4439374566685
 30
0.0
 10
803.4556700898447
 20
108.3960949581571
 30
0.0
 10
803.4963327085772
 20
108.3680059965672
 30
0.0
  0
LINE
  5
BDFB
330
1F
100
AcDbEntity
  8
0
  6
Continuous
 62
     7
370
    15
100
AcDbLine
 10
803.4963317476515
 20
97.69857159511211
 30
0.0
 11
803.4963317476515
 21
108.3680041755831
 31
0.0
  0
SPLINE
  5
BDFC
330
1F
100
AcDbEntity
  8
0
  6
Continuous
 62
     7
370
    15
100
AcDbSpline
210
0.0
220
0.0
230
1.0
 70
     8
 71
     3
 72
    12
 73
     8
 74
     0
 42
0.0000000001
 43
0.0000000001
 40
0.0
 40
0.0
 40
0.0
 40
0.0
 40
0.250000000000006
 40
0.250000000000006
 40
0.5000000000000121
 40
0.5000000000000121
 40
1.0
 40
1.0
 40
1.0
 40
1.0
 10
802.9963327085772
 20
98.27881778491594
 30
0.0
 10
802.9963327085772
 20
98.19486349074802
 30
0.0
 10
803.0169833055715
 20
98.11454231606498
 30
0.0
 10
803.0807676662949
 20
97.97533009138684
 30
0.0
 10
803.1231749006192
 20
97.91669312549391
 30
0.0
 10
803.2659903119769
 20
97.77129632070959
 30
0.0
 10
803.3792919810956
 20
97.71536100545567
 30
0.0
 10
803.4963327085772
 20
97.69857108413308
 30
0.0
  0
SPLINE
  5
BDFD
330
1F
100
AcDbEntity
  8
0
  6
Continuous
 62
     7
370
    15
100
AcDbSpline
210
0.0
220
0.0
230
1.0
 70
     8
 71
     3
 72
     8
 73
     4
 74
     0
 42
0.0000000001
 43
0.0000000001
 40
0.0
 40
0.0
 40
0.0
 40
0.0
 40
1.0
 40
1.0
 40
1.0
 40
1.0
 10
803.0245292398285
 20
108.9272550479491
 30
0.0
 10
803.0056674899533
 20
108.9808816905352
 30
0.0
 10
802.9963327085772
 20
109.0359445441425
 30
0.0
 10
802.9963327085772
 20
109.0924146361494
 30
0.0
  0
SPLINE
  5
BDFE
330
1F
100
AcDbEntity
  8
0
  6
Continuous
 62
     7
370
    15
100
AcDbSpline
210
0.0
220
0.0
230
1.0
 70
     8
 71
     3
 72
     8
 73
     4
 74
     0
 42
0.0000000001
 43
0.0000000001
 40
0.0
 40
0.0
 40
0.0
 40
0.0
 40
1.0
 40
1.0
 40
1.0
 40
1.0
 10
803.0245292398285
 20
108.9272550479491
 30
0.0
 10
803.0452000171621
 20
108.8684850825231
 30
0.0
 10
803.074334999831
 20
108.811685640755
 30
0.0
 10
803.1093263887994
 20
108.7562449762864
 30
0.0
  0
SPLINE
  5
BDFF
330
1F
100
AcDbEntity
  8
0
  6
Continuous
 62
     7
370
    15
100
AcDbSpline
210
0.0
220
0.0
230
1.0
 70
    24
 71
     3
 72
     8
 73
     4
 74
     0
 42
0.0000000001
 43
0.0000000001
 40
0.0
 40
0.0
 40
0.0
 40
0.0
 40
1.0
 40
1.0
 40
1.0
 40
1.0
 10
802.9963327085772
 20
109.09241463615
 30
0.0
 10
802.9963327085772
 20
103.3877068247
 30
0.0
 10
802.9963327085772
 20
99.65075443382838
 30
0.0
 10
802.9963327085772
 20
98.27881778491594
 30
0.0
  0
LINE
  5
BE00
330
1F
100
AcDbEntity
  8
0
  6
Continuous
 62
     7
370
    15
100
AcDbLine
 10
867.968135353208
 20
108.9272559310591
 30
0.0
 11
803.0245274566416
 21
108.9272559310591
 31
0.0
  0
LINE
  5
BE01
330
1F
100
AcDbEntity
  8
0
  6
Continuous
 62
     7
370
    15
100
AcDbLine
 10
867.4963310621981
 20
108.3680041755831
 30
0.0
 11
803.4963317476515
 21
108.3680041755831
 31
0.0
  0
LINE
  5
BE02
330
1F
100
AcDbEntity
  8
0
  6
Continuous
 62
     7
370
    15
100
AcDbLine
 10
867.9963320754771
 20
110.3686266268885
 30
0.0
 11
802.9963344596628
 21
110.3686266268885
 31
0.0
  0
LINE
  5
BE03
330
1F
100
AcDbEntity
  8
0
  6
Continuous
 62
     7
370
    15
100
AcDbLine
 10
802.9963344596628
 20
109.0924148137963
 30
0.0
 11
802.9963344596628
 21
110.3686266268885
 31
0.0
  0
LINE
  5
BE04
330
1F
100
AcDbEntity
  8
0
  6
Continuous
 62
     7
370
    15
100
AcDbLine
 10
867.9963320754771
 20
110.3686266268885
 30
0.0
 11
867.9963320754771
 21
109.0924148137963
 31
0.0
  0
LINE
  5
BE05
330
1F
100
AcDbEntity
  8
0
  6
Continuous
 62
     7
370
    15
100
AcDbLine
 10
809.996331881762
 20
99.04888874546649
 30
0.0
 11
810.4963328950409
 21
99.04888874546649
 31
0.0
  0
LINE
  5
BE06
330
1F
100
AcDbEntity
  8
0
  6
Continuous
 62
     7
370
    15
100
AcDbLine
 10
809.996331881762
 20
98.91147396222713
 30
0.0
 11
809.996331881762
 21
99.04888874546649
 31
0.0
  0
ARC
  5
BE07
330
1F
100
AcDbEntity
  8
0
  6
Continuous
 62
     7
370
    15
100
AcDbCircle
 10
802.6963327085773
 20
147.1919039684722
 30
0.0
 40
50.00000000000003
100
AcDbArc
 50
278.16359419579
 51
278.3951912566747
  0
LINE
  5
BE08
330
1F
100
AcDbEntity
  8
0
  6
Continuous
 62
     7
370
    15
100
AcDbLine
 10
809.2892252169852
 20
97.69857159511211
 30
0.0
 11
809.7963322215084
 21
97.69857159511211
 31
0.0
  0
LINE
  5
BE09
330
1F
100
AcDbEntity
  8
0
  6
Continuous
 62
     7
370
    15
100
AcDbLine
 10
805.996333088756
 20
97.69857159511211
 30
0.0
 11
809.2892252169852
 21
97.69857159511211
 31
0.0
  0
LINE
  5
BE0A
330
1F
100
AcDbEntity
  8
0
  6
Continuous
 62
     7
370
    15
100
AcDbLine
 10
803.4963317476515
 20
97.69857159511211
 30
0.0
 11
805.996333088756
 21
97.69857159511211
 31
0.0
  0
LINE
  5
BE0B
330
1F
100
AcDbEntity
  8
0
  6
Continuous
 62
     7
370
    15
100
AcDbLine
 10
821.9963329173927
 20
99.04888874546649
 30
0.0
 11
821.9963329173927
 21
98.91147396222713
 31
0.0
  0
LINE
  5
BE0C
330
1F
100
AcDbEntity
  8
0
  6
Continuous
 62
     7
370
    15
100
AcDbLine
 10
821.4963328354363
 20
99.04888874546649
 30
0.0
 11
821.9963329173927
 21
99.04888874546649
 31
0.0
  0
LINE
  5
BE0D
330
1F
100
AcDbEntity
  8
0
  6
Continuous
 62
     7
370
    15
100
AcDbLine
 10
810.4963328950409
 20
99.04888874546649
 30
0.0
 11
821.4963328354363
 21
99.04888874546649
 31
0.0
  0
LINE
  5
BE0E
330
1F
100
AcDbEntity
  8
0
  6
Continuous
 62
     7
370
    15
100
AcDbLine
 10
802.9963344596628
 20
111.7806606616175
 30
0.0
 11
802.9963344596628
 21
110.3686266268885
 31
0.0
  0
LINE
  5
BE0F
330
1F
100
AcDbEntity
  8
0
  6
Continuous
 62
     7
370
    15
100
AcDbLine
 10
867.9963320754771
 20
110.3686266268885
 30
0.0
 11
867.9963320754771
 21
111.7806606616175
 31
0.0
  0
LINE
  5
BE10
330
1F
100
AcDbEntity
  8
0
  6
Continuous
 62
     7
370
    15
100
AcDbLine
 10
802.9963344596628
 20
111.7806606616175
 30
0.0
 11
802.9963344596628
 21
111.4199817802107
 31
0.0
  0
LINE
  5
BE11
330
1F
100
AcDbEntity
  8
0
  6
Continuous
 62
     7
370
    15
100
AcDbLine
 10
867.9963320754771
 20
111.4199817802107
 30
0.0
 11
867.9963320754771
 21
111.7806606616175
 31
0.0
  0
LINE
  5
BE12
330
1F
100
AcDbEntity
  8
0
  6
Continuous
 62
     7
370
    15
100
AcDbLine
 10
802.9963344596628
 20
165.1211776460803
 30
0.0
 11
802.9963344596628
 21
166.4225742842353
 31
0.0
  0
LINE
  5
BE13
330
1F
100
AcDbEntity
  8
0
  6
Continuous
 62
     7
370
    15
100
AcDbLine
 10
802.9963344596628
 20
166.4225742842353
 30
0.0
 11
803.4963317476515
 21
166.6725729282296
 31
0.0
  0
LINE
  5
BE14
330
1F
100
AcDbEntity
  8
0
  6
Continuous
 62
     7
370
    15
100
AcDbLine
 10
803.4963317476515
 20
165.7897908862031
 30
0.0
 11
803.4963317476515
 21
166.6725729282296
 31
0.0
  0
LINE
  5
BE15
330
1F
100
AcDbEntity
  8
0
  6
Continuous
 62
     7
370
    15
100
AcDbLine
 10
800.9963341318373
 20
129.6919039140737
 30
0.0
 11
802.9963344596628
 21
129.6919039140737
 31
0.0
  0
LINE
  5
BE16
330
1F
100
AcDbEntity
  8
0
  6
Continuous
 62
     7
370
    15
100
AcDbLine
 10
802.9963344596628
 20
152.2932736824548
 30
0.0
 11
800.9963341318373
 21
152.2932736824548
 31
0.0
  0
LINE
  5
BE17
330
1F
100
AcDbEntity
  8
0
  6
Continuous
 62
     7
370
    15
100
AcDbLine
 10
800.9963341318373
 20
152.2932736824548
 30
0.0
 11
800.9963341318373
 21
129.6919039140737
 31
0.0
  0
LINE
  5
BE18
330
1F
100
AcDbEntity
  8
0
  6
Continuous
 62
     7
370
    15
100
AcDbLine
 10
800.9963341318373
 20
159.5905334378874
 30
0.0
 11
802.9963344596628
 21
159.5905334378874
 31
0.0
  0
LINE
  5
BE19
330
1F
100
AcDbEntity
  8
0
  6
Continuous
 62
     7
370
    15
100
AcDbLine
 10
800.9963341318373
 20
152.2932736824548
 30
0.0
 11
800.9963341318373
 21
159.5905334378874
 31
0.0
  0
LINE
  5
BE1A
330
1F
100
AcDbEntity
  8
0
  6
Continuous
 62
     7
370
    15
100
AcDbLine
 10
810.4963328950409
 20
99.04888874546649
 30
0.0
 11
810.4963328950409
 21
95.10307616249681
 31
0.0
  0
LINE
  5
BE1B
330
1F
100
AcDbEntity
  8
0
  6
Continuous
 62
     7
370
    15
100
AcDbLine
 10
809.996331881762
 20
95.10307616249681
 30
0.0
 11
810.4963328950409
 21
95.10307616249681
 31
0.0
  0
LINE
  5
BE1C
330
1F
100
AcDbEntity
  8
0
  6
Continuous
 62
     7
370
    15
100
AcDbLine
 10
809.996331881762
 20
98.91147396222713
 30
0.0
 11
809.996331881762
 21
95.10307616249681
 31
0.0
  0
LINE
  5
BE1D
330
1F
100
AcDbEntity
  8
0
  6
Continuous
 62
     7
370
    15
100
AcDbLine
 10
821.4963328354363
 20
95.10307616249681
 30
0.0
 11
821.9963329173927
 21
95.10307616249681
 31
0.0
  0
LINE
  5
BE1E
330
1F
100
AcDbEntity
  8
0
  6
Continuous
 62
     7
370
    15
100
AcDbLine
 10
821.4963328354363
 20
95.10307616249681
 30
0.0
 11
821.4963328354363
 21
99.04888874546649
 31
0.0
  0
LINE
  5
BE1F
330
1F
100
AcDbEntity
  8
0
  6
Continuous
 62
     7
370
    15
100
AcDbLine
 10
821.9963329173927
 20
95.10307616249681
 30
0.0
 11
821.9963329173927
 21
98.91147396222713
 31
0.0
  0
LINE
  5
BE20
330
1F
100
AcDbEntity
  8
0
  6
Continuous
 62
     7
370
    15
100
AcDbLine
 10
810.4963328950409
 20
95.10307616249681
 30
0.0
 11
821.4963328354363
 21
95.10307616249681
 31
0.0
  0
LINE
  5
BE21
330
1F
100
AcDbEntity
  8
0
  6
Continuous
 62
     7
370
    15
100
AcDbLine
 10
800.9963341318373
 20
165.1919041450417
 30
0.0
 11
800.9963341318373
 21
159.5905334378874
 31
0.0
  0
LINE
  5
BE22
330
1F
100
AcDbEntity
  8
0
  6
Continuous
 62
     7
370
    15
100
AcDbLine
 10
809.7134892158512
 20
97.69857159511211
 30
0.0
 11
809.7134892158512
 21
95.10307616249681
 31
0.0
  0
LINE
  5
BE23
330
1F
100
AcDbEntity
  8
0
  6
Continuous
 62
     7
370
    15
100
AcDbLine
 10
810.420595880628
 20
95.10307616249681
 30
0.0
 11
809.7134892158512
 21
95.10307616249681
 31
0.0
  0
LINE
  5
BE24
330
1F
100
AcDbEntity
  8
0
  6
Continuous
 62
     7
370
    15
100
AcDbLine
 10
809.2892252169852
 20
97.69857159511211
 30
0.0
 11
809.2892252169852
 21
95.10307616249681
 31
0.0
  0
LINE
  5
BE25
330
1F
100
AcDbEntity
  8
0
  6
Continuous
 62
     7
370
    15
100
AcDbLine
 10
806.4963322393898
 20
95.10307616249681
 30
0.0
 11
805.996333088756
 21
95.60307717577577
 31
0.0
  0
LINE
  5
BE26
330
1F
100
AcDbEntity
  8
0
  6
Continuous
 62
     7
370
    15
100
AcDbLine
 10
805.996333088756
 20
97.69857159511211
 30
0.0
 11
805.996333088756
 21
95.60307717577577
 31
0.0
  0
LINE
  5
BE27
330
1F
100
AcDbEntity
  8
0
  6
Continuous
 62
     7
370
    15
100
AcDbLine
 10
809.2892252169852
 20
95.10307616249681
 30
0.0
 11
806.4963322393898
 21
95.10307616249681
 31
0.0
  0
LINE
  5
BE28
330
1F
100
AcDbEntity
  8
0
  6
Continuous
 62
     7
370
    15
100
AcDbLine
 10
809.2892252169852
 20
95.10307616249681
 30
0.0
 11
809.7134892158512
 21
95.10307616249681
 31
0.0
  0
LINE
  5
BE29
330
1F
100
AcDbEntity
  8
0
  6
Continuous
 62
     7
370
    15
100
AcDbLine
 10
809.996331881762
 20
95.10307616249681
 30
0.0
 11
810.420595880628
 21
95.10307616249681
 31
0.0
  0
LINE
  5
BE2A
330
1F
100
AcDbEntity
  8
0
  6
Continuous
 62
     7
370
    15
100
AcDbLine
 10
867.4963310621981
 20
139.3177995614058
 30
0.0
 11
867.4963310621981
 21
197.191903802315
 31
0.0
  0
LINE
  5
BE2B
330
1F
100
AcDbEntity
  8
0
  6
Continuous
 62
     7
370
    15
100
AcDbLine
 10
867.4963310621981
 20
108.3680041755831
 30
0.0
 11
867.4963310621981
 21
97.1919023121989
 31
0.0
  0
LINE
  5
BE2C
330
1F
100
AcDbEntity
  8
0
  6
Continuous
 62
     7
370
    15
100
AcDbLine
 10
722.1134060095976
 20
152.7932753387282
 30
0.0
 11
717.9003299247454
 21
160.0905350941608
 31
0.0
  0
ARC
  5
BE2D
330
1F
100
AcDbEntity
  8
0
  6
Continuous
 62
     7
370
    15
100
AcDbCircle
 10
704.8514224324078
 20
147.6919056247456
 30
0.0
 40
18.00000000000111
100
AcDbArc
 50
283.536202737397
 51
16.46379726261141
  0
LINE
  5
BE2E
330
1F
100
AcDbEntity
  8
0
  6
Continuous
 62
     7
370
    15
100
AcDbLine
 10
709.0644964050482
 20
130.191905570347
 30
0.0
 11
700.638347960634
 21
130.191905570347
 31
0.0
  0
ARC
  5
BE2F
330
1F
100
AcDbEntity
  8
0
  6
Continuous
 62
     7
370
    15
100
AcDbCircle
 10
704.8514224324078
 20
147.6919056247456
 30
0.0
 40
17.99999999999904
100
AcDbArc
 50
163.5362027373774
 51
256.4637972626299
  0
LINE
  5
BE30
330
1F
100
AcDbEntity
  8
0
  6
Continuous
 62
     7
370
    15
100
AcDbLine
 10
691.8025152558441
 20
160.0905350941608
 30
0.0
 11
687.5894404515604
 21
152.7932753387282
 31
0.0
  0
ARC
  5
BE31
330
1F
100
AcDbEntity
  8
0
  6
Continuous
 62
     7
370
    15
100
AcDbCircle
 10
704.8514224324078
 20
147.6919056247456
 30
0.0
 40
18.00000000000047
100
AcDbArc
 50
43.53620273737949
 51
136.4637972626101
  0
CIRCLE
  5
BE32
330
1F
100
AcDbEntity
  8
0
  6
Continuous
 62
     7
370
    15
100
AcDbCircle
 10
704.8514224324081
 20
147.6919056247455
 30
0.0
 40
10.00000000000005
  0
LINE
  5
BE33
330
1F
100
AcDbEntity
  8
0
  6
Continuous
 62
     7
370
    15
100
AcDbLine
 10
697.7514226023088
 20
120.6030800539443
 30
0.0
 11
697.7514226023088
 21
98.1985732513854
 31
0.0
  0
SPLINE
  5
BE34
330
1F
100
AcDbEntity
  8
0
  6
Continuous
 62
     7
370
    15
100
AcDbSpline
210
0.0
220
0.0
230
1.0
 70
     8
 71
     3
 72
    14
 73
    10
 74
     0
 42
0.0000000001
 43
0.0000000001
 40
0.0
 40
0.0
 40
0.0
 40
0.0
 40
0.25
 40
0.25
 40
0.5
 40
0.5
 40
0.75
 40
0.75
 40
1.0
 40
1.0
 40
1.0
 40
1.0
 10
697.7514224324079
 20
98.19857274040638
 30
0.0
 10
697.6928651497528
 20
98.20697299722125
 30
0.0
 10
697.6362469203616
 20
98.22528349829681
 30
0.0
 10
697.5268127080571
 20
98.28133727830895
 30
0.0
 10
697.4738462639868
 20
98.31953221259276
 30
0.0
 10
697.379220001097
 20
98.41557746911711
 30
0.0
 10
697.3363207237394
 20
98.47460585716621
 30
0.0
 10
697.2723918782128
 20
98.61356619084046
 30
0.0
 10
697.2514224324079
 20
98.69489722115162
 30
0.0
 10
697.2514224324079
 20
98.77881944118923
 30
0.0
  0
LINE
  5
BE35
330
1F
100
AcDbEntity
  8
0
  6
Continuous
 62
     7
370
    15
100
AcDbLine
 10
697.2514225203524
 20
131.3750428679773
 30
0.0
 11
697.2514225203524
 21
98.77882074298353
 31
0.0
  0
LINE
  5
BE36
330
1F
100
AcDbEntity
  8
0
  6
Continuous
 62
     7
370
    15
100
AcDbLine
 10
665.538938440008
 20
178.5873539346644
 30
0.0
 11
685.3225302916
 21
167.1652897793243
 31
0.0
  0
SPLINE
  5
BE37
330
1F
100
AcDbEntity
  8
0
  6
Continuous
 62
     7
370
    15
100
AcDbSpline
210
0.0
220
0.0
230
1.0
 70
     8
 71
     3
 72
    14
 73
    10
 74
     0
 42
0.0000000001
 43
0.0000000001
 40
0.0
 40
0.0
 40
0.0
 40
0.0
 40
0.25
 40
0.25
 40
0.5
 40
0.5
 40
0.75
 40
0.75
 40
1.0
 40
1.0
 40
1.0
 40
1.0
 10
665.5389388366106
 20
178.5873524337847
 30
0.0
 10
665.5754923137383
 20
178.6338643997332
 30
0.0
 10
665.6196587875212
 20
178.6737419741655
 30
0.0
 10
665.7229198911423
 20
178.7404878920583
 30
0.0
 10
665.7824808965631
 20
178.7672607110294
 30
0.0
 10
665.9129716600709
 20
178.8011868302949
 30
0.0
 10
665.9855413823447
 20
178.808824500266
 30
0.0
 10
666.1378489841884
 20
178.7947083376896
 30
0.0
 10
666.2187684454561
 20
178.7722028953043
 30
0.0
 10
666.2914472199506
 20
178.7302417852855
 30
0.0
  0
LINE
  5
BE38
330
1F
100
AcDbEntity
  8
0
  6
Continuous
 62
     7
370
    15
100
AcDbLine
 10
694.5206049863229
 20
162.4321296411941
 30
0.0
 11
666.2914470802973
 21
178.7302411693523
 31
0.0
  0
LINE
  5
BE39
330
1F
100
AcDbEntity
  8
0
  6
Continuous
 62
     7
370
    15
100
AcDbLine
 10
751.2639069031904
 20
166.2897925424764
 30
0.0
 11
731.4929307471941
 21
154.8750141236374
 31
0.0
  0
SPLINE
  5
BE3A
330
1F
100
AcDbEntity
  8
0
  6
Continuous
 62
     7
370
    15
100
AcDbSpline
210
0.0
220
0.0
230
1.0
 70
     8
 71
     3
 72
    14
 73
    10
 74
     0
 42
0.0000000001
 43
0.0000000001
 40
0.0
 40
0.0
 40
0.0
 40
0.0
 40
0.25
 40
0.25
 40
0.5
 40
0.5
 40
0.75
 40
0.75
 40
1.0
 40
1.0
 40
1.0
 40
1.0
 10
751.2639060282055
 20
166.2897917000451
 30
0.0
 10
751.285909833733
 20
166.2348794772817
 30
0.0
 10
751.2983615893412
 20
166.1766914017738
 30
0.0
 10
751.3045346980248
 20
166.0538917038689
 30
0.0
 10
751.2979401366744
 20
165.988923950614
 30
0.0
 10
751.2620756360561
 20
165.8589525748242
 30
0.0
 10
751.23240519114
 20
165.7922865168039
 30
0.0
 10
751.1440264348229
 20
165.6674423457061
 30
0.0
 10
751.0840764193601
 20
165.6086167577802
 30
0.0
 10
751.0113976448653
 20
165.5666556477614
 30
0.0
  0
LINE
  5
BE3B
330
1F
100
AcDbEntity
  8
0
  6
Continuous
 62
     7
370
    15
100
AcDbLine
 10
722.7822409044931
 20
149.2685434940645
 30
0.0
 11
751.0113992761801
 21
165.5666559535453
 31
0.0
  0
LINE
  5
BE3C
330
1F
100
AcDbEntity
  8
0
  6
Continuous
 62
     7
370
    15
100
AcDbLine
 10
715.182238913698
 20
162.4321296411941
 30
0.0
 11
743.4113972853849
 21
178.7302411693523
 31
0.0
  0
SPLINE
  5
BE3D
330
1F
100
AcDbEntity
  8
0
  6
Continuous
 62
     7
370
    15
100
AcDbSpline
210
0.0
220
0.0
230
1.0
 70
     8
 71
     3
 72
    12
 73
     8
 74
     0
 42
0.0000000001
 43
0.0000000001
 40
0.0
 40
0.0
 40
0.0
 40
0.0
 40
0.250000000000003
 40
0.250000000000003
 40
0.5000000000000061
 40
0.5000000000000061
 40
1.0
 40
1.0
 40
1.0
 40
1.0
 10
743.4113976448657
 20
178.730241785285
 30
0.0
 10
743.4841041963718
 20
178.7722189323689
 30
0.0
 10
743.5639896726061
 20
178.7944955781101
 30
0.0
 10
743.7164431760564
 20
178.8088628136987
 30
0.0
 10
743.7884278952829
 20
178.8014555544158
 30
0.0
 10
743.9857529275341
 20
178.7504721825203
 30
0.0
 10
744.0908451660718
 20
178.6803177163994
 30
0.0
 10
744.1639060282057
 20
178.5873524337841
 30
0.0
  0
LINE
  5
BE3E
330
1F
100
AcDbEntity
  8
0
  6
Continuous
 62
     7
370
    15
100
AcDbLine
 10
724.3929334949682
 20
167.1725745845029
 30
0.0
 11
744.1639059256742
 21
178.5873539346644
 31
0.0
  0
LINE
  5
BE3F
330
1F
100
AcDbEntity
  8
0
  6
Continuous
 62
     7
370
    15
100
AcDbLine
 10
712.4514223109911
 20
98.77882074298353
 30
0.0
 11
712.4514223109911
 21
131.3750428679773
 31
0.0
  0
SPLINE
  5
BE40
330
1F
100
AcDbEntity
  8
0
  6
Continuous
 62
     7
370
    15
100
AcDbSpline
210
0.0
220
0.0
230
1.0
 70
     8
 71
     3
 72
    12
 73
     8
 74
     0
 42
0.0000000001
 43
0.0000000001
 40
0.0
 40
0.0
 40
0.0
 40
0.0
 40
0.250000000000006
 40
0.250000000000006
 40
0.5000000000000121
 40
0.5000000000000121
 40
1.0
 40
1.0
 40
1.0
 40
1.0
 10
712.4514224324079
 20
98.77881944118923
 30
0.0
 10
712.4514224324079
 20
98.69486514702131
 30
0.0
 10
712.4307718354138
 20
98.61454397233828
 30
0.0
 10
712.3669874746906
 20
98.47533174766013
 30
0.0
 10
712.3245802403659
 20
98.4166947817672
 30
0.0
 10
712.1817648290082
 20
98.27129797698288
 30
0.0
 10
712.0684631598897
 20
98.21536266172897
 30
0.0
 10
711.9514224324079
 20
98.19857274040638
 30
0.0
  0
LINE
  5
BE41
330
1F
100
AcDbEntity
  8
0
  6
Continuous
 62
     7
370
    15
100
AcDbLine
 10
711.9514231603573
 20
98.1985732513854
 30
0.0
 11
711.9514231603573
 21
120.6030800539443
 31
0.0
  0
LINE
  5
BE42
330
1F
100
AcDbEntity
  8
0
  6
Continuous
 62
     7
370
    15
100
AcDbLine
 10
686.9206050910036
 20
149.2685434940645
 30
0.0
 11
658.6914488147924
 21
165.5666559535453
 31
0.0
  0
SPLINE
  5
BE43
330
1F
100
AcDbEntity
  8
0
  6
Continuous
 62
     7
370
    15
100
AcDbSpline
210
0.0
220
0.0
230
1.0
 70
     8
 71
     3
 72
    12
 73
     8
 74
     0
 42
0.0000000001
 43
0.0000000001
 40
0.0
 40
0.0
 40
0.0
 40
0.0
 40
0.2500000000000039
 40
0.2500000000000039
 40
0.5000000000000079
 40
0.5000000000000079
 40
1.0
 40
1.0
 40
1.0
 40
1.0
 10
658.6914472199508
 20
165.5666556477621
 30
0.0
 10
658.6187406684445
 20
165.608632794846
 30
0.0
 10
658.5595057892041
 20
165.6666773237878
 30
0.0
 10
658.4708366464772
 20
165.7915223128773
 30
0.0
 10
658.4412591615755
 20
165.8575665380532
 30
0.0
 10
658.3867495406821
 20
166.0539467147331
 30
0.0
 10
658.3949589712626
 20
166.1800364961079
 30
0.0
 10
658.4389388366107
 20
166.2897917000457
 30
0.0
  0
LINE
  5
BE44
330
1F
100
AcDbEntity
  8
0
  6
Continuous
 62
     7
370
    15
100
AcDbLine
 10
678.2225302454064
 20
154.8677293184588
 30
0.0
 11
658.4389374624918
 21
166.2897925424764
 31
0.0
  0
SPLINE
  5
BE45
330
1F
100
AcDbEntity
  8
0
  6
Continuous
 62
     7
370
    15
100
AcDbSpline
210
0.0
220
0.0
230
1.0
 70
     8
 71
     3
 72
     8
 73
     4
 74
     0
 42
0.0000000001
 43
0.0000000001
 40
0.0
 40
0.0
 40
0.0
 40
0.0
 40
0.9999999999999998
 40
0.9999999999999998
 40
0.9999999999999998
 40
0.9999999999999998
 10
666.2914472199506
 20
178.7302417852855
 30
0.0
 10
674.4834466435364
 20
188.9074398502874
 30
0.0
 10
686.3677017607624
 20
195.4337770286074
 30
0.0
 10
699.351422432408
 20
196.8854011297408
 30
0.0
  0
ARC
  5
BE46
330
1F
100
AcDbEntity
  8
0
  6
Continuous
 62
     7
370
    15
100
AcDbCircle
 10
704.8514224324081
 20
192.6919056247454
 30
0.0
 40
5.5
100
AcDbArc
 50
180.0
 51
0.0
  0
SPLINE
  5
BE47
330
1F
100
AcDbEntity
  8
0
  6
Continuous
 62
     7
370
    15
100
AcDbSpline
210
0.0
220
0.0
230
1.0
 70
     8
 71
     3
 72
     8
 73
     4
 74
     0
 42
0.0000000001
 43
0.0000000001
 40
0.0
 40
0.0
 40
0.0
 40
0.0
 40
1.0
 40
1.0
 40
1.0
 40
1.0
 10
710.351422432408
 20
196.8854011297408
 30
0.0
 10
723.3351431040537
 20
195.4337770286073
 30
0.0
 10
735.21939822128
 20
188.9074398502872
 30
0.0
 10
743.4113976448657
 20
178.7302417852849
 30
0.0
  0
LINE
  5
BE48
330
1F
100
AcDbEntity
  8
0
  6
Continuous
 62
     7
370
    15
100
AcDbLine
 10
699.3514222126434
 20
196.8854024607131
 30
0.0
 11
699.3514222126434
 21
192.6919065016696
 31
0.0
  0
LINE
  5
BE49
330
1F
100
AcDbEntity
  8
0
  6
Continuous
 62
     7
370
    15
100
AcDbLine
 10
710.3514221530388
 20
192.6919065016696
 30
0.0
 11
710.3514221530388
 21
196.8854024607131
 31
0.0
  0
SPLINE
  5
BE4A
330
1F
100
AcDbEntity
  8
0
  6
Continuous
 62
     7
370
    15
100
AcDbSpline
210
0.0
220
0.0
230
1.0
 70
     8
 71
     3
 72
     8
 73
     4
 74
     0
 42
0.0000000001
 43
0.0000000001
 40
0.0
 40
0.0
 40
0.0
 40
0.0
 40
1.0
 40
1.0
 40
1.0
 40
1.0
 10
697.2514224324079
 20
98.77881944118923
 30
0.0
 10
688.4217309131143
 20
100.1507560901016
 30
0.0
 10
680.1271838175575
 20
103.8877084809732
 30
0.0
 10
673.2495409596813
 20
109.5924162924233
 30
0.0
  0
LINE
  5
BE4B
330
1F
100
AcDbEntity
  8
0
  6
Continuous
 62
     7
370
    15
100
AcDbLine
 10
673.7140451591442
 20
110.8686282831618
 30
0.0
 11
675.0523054074476
 21
112.35491852941
 31
0.0
  0
LINE
  5
BE4C
330
1F
100
AcDbEntity
  8
0
  6
Continuous
 62
     7
370
    15
100
AcDbLine
 10
675.5353498306106
 20
111.919983436484
 30
0.0
 11
675.0523054074476
 21
112.35491852941
 31
0.0
  0
LINE
  5
BE4D
330
1F
100
AcDbEntity
  8
0
  6
Continuous
 62
     7
370
    15
100
AcDbLine
 10
675.5353498306106
 20
111.919983436484
 30
0.0
 11
678.3456985872219
 21
115.0411918360182
 31
0.0
  0
LINE
  5
BE4E
330
1F
100
AcDbEntity
  8
0
  6
Continuous
 62
     7
370
    15
100
AcDbLine
 10
678.3456985872219
 20
115.0411918360182
 30
0.0
 11
675.1501753028462
 21
117.918453325648
 31
0.0
  0
LINE
  5
BE4F
330
1F
100
AcDbEntity
  8
0
  6
Continuous
 62
     7
370
    15
100
AcDbLine
 10
675.1501753028462
 20
117.918453325648
 30
0.0
 11
672.3398265462349
 21
114.7972449261138
 31
0.0
  0
LINE
  5
BE50
330
1F
100
AcDbEntity
  8
0
  6
Continuous
 62
     7
370
    15
100
AcDbLine
 10
672.8228719007204
 20
114.3623098331877
 30
0.0
 11
672.3398265462349
 21
114.7972449261138
 31
0.0
  0
LINE
  5
BE51
330
1F
100
AcDbEntity
  8
0
  6
Continuous
 62
     7
370
    15
100
AcDbLine
 10
672.8228719007204
 20
114.3623098331877
 30
0.0
 11
671.4846097897718
 21
112.8760214495846
 31
0.0
  0
SPLINE
  5
BE52
330
1F
100
AcDbEntity
  8
0
  6
Continuous
 62
     7
370
    15
100
AcDbSpline
210
0.0
220
0.0
230
1.0
 70
     8
 71
     3
 72
     8
 73
     4
 74
     0
 42
0.0000000001
 43
0.0000000001
 40
0.0
 40
0.0
 40
0.0
 40
0.0
 40
1.0
 40
1.0
 40
1.0
 40
1.0
 10
670.2639421957744
 20
112.2806614940955
 30
0.0
 10
668.3478560331918
 20
114.1521741705634
 30
0.0
 10
666.5872556561621
 20
116.1756005303936
 30
0.0
 10
664.9986056241259
 20
118.3320181514337
 30
0.0
  0
ARC
  5
BE53
330
1F
100
AcDbEntity
  8
0
  6
Continuous
 62
     7
370
    15
100
AcDbCircle
 10
665.8802792621079
 20
125.1919056247458
 30
0.0
 40
5.499999999999979
100
AcDbArc
 50
299.9999999999997
 51
119.9999999999997
  0
SPLINE
  5
BE54
330
1F
100
AcDbEntity
  8
0
  6
Continuous
 62
     7
370
    15
100
AcDbSpline
210
0.0
220
0.0
230
1.0
 70
     8
 71
     3
 72
     8
 73
     4
 74
     0
 42
0.0000000001
 43
0.0000000001
 40
0.0
 40
0.0
 40
0.0
 40
0.0
 40
1.0
 40
1.0
 40
1.0
 40
1.0
 10
659.4986056241261
 20
127.8582975930626
 30
0.0
 10
658.4254181991552
 20
130.3123176890485
 30
0.0
 10
657.5533797573703
 20
132.8487555213836
 30
0.0
 10
656.8906453173358
 20
135.4438911522535
 30
0.0
  0
LINE
  5
BE55
330
1F
100
AcDbEntity
  8
0
  6
Continuous
 62
     7
370
    15
100
AcDbLine
 10
658.0165752243231
 20
136.2033408667335
 30
0.0
 11
659.9728704463671
 21
136.6191642891058
 31
0.0
  0
LINE
  5
BE56
330
1F
100
AcDbEntity
  8
0
  6
Continuous
 62
     7
370
    15
100
AcDbLine
 10
660.1080128025244
 20
135.9833680625448
 30
0.0
 11
659.9728704463671
 21
136.6191642891058
 31
0.0
  0
LINE
  5
BE57
330
1F
100
AcDbEntity
  8
0
  6
Continuous
 62
     7
370
    15
100
AcDbLine
 10
660.1080128025244
 20
135.9833680625448
 30
0.0
 11
664.2162331413458
 21
136.8565970632622
 31
0.0
  0
LINE
  5
BE58
330
1F
100
AcDbEntity
  8
0
  6
Continuous
 62
     7
370
    15
100
AcDbLine
 10
664.2162331413458
 20
136.8565970632622
 30
0.0
 11
663.322213761134
 21
141.0626319419967
 31
0.0
  0
LINE
  5
BE59
330
1F
100
AcDbEntity
  8
0
  6
Continuous
 62
     7
370
    15
100
AcDbLine
 10
663.322213761134
 20
141.0626319419967
 30
0.0
 11
659.2139915596674
 21
140.189402824864
 31
0.0
  0
LINE
  5
BE5A
330
1F
100
AcDbEntity
  8
0
  6
Continuous
 62
     7
370
    15
100
AcDbLine
 10
659.3491339158247
 20
139.5536068893412
 30
0.0
 11
659.2139915596674
 21
140.189402824864
 31
0.0
  0
LINE
  5
BE5B
330
1F
100
AcDbEntity
  8
0
  6
Continuous
 62
     7
370
    15
100
AcDbLine
 10
659.3491339158247
 20
139.5536068893412
 30
0.0
 11
657.3928386937807
 21
139.1377835833842
 31
0.0
  0
SPLINE
  5
BE5C
330
1F
100
AcDbEntity
  8
0
  6
Continuous
 62
     7
370
    15
100
AcDbSpline
210
0.0
220
0.0
230
1.0
 70
     8
 71
     3
 72
     8
 73
     4
 74
     0
 42
0.0000000001
 43
0.0000000001
 40
0.0
 40
0.0
 40
0.0
 40
0.0
 40
1.0
 40
1.0
 40
1.0
 40
1.0
 10
656.0553560630394
 20
139.3736181281403
 30
0.0
 10
654.5537556060942
 20
148.182185466943
 30
0.0
 10
655.4647334506448
 20
157.2339501600174
 30
0.0
 10
658.6914472199508
 20
165.566655647762
 30
0.0
  0
LINE
  5
BE5D
330
1F
100
AcDbEntity
  8
0
  6
Continuous
 62
     7
370
    15
100
AcDbLine
 10
664.9986055713127
 20
118.3320182907769
 30
0.0
 11
668.6302793245743
 21
120.4287662702986
 31
0.0
  0
LINE
  5
BE5E
330
1F
100
AcDbEntity
  8
0
  6
Continuous
 62
     7
370
    15
100
AcDbLine
 10
663.1302793543766
 20
129.9550450939128
 30
0.0
 11
659.498605601115
 21
127.8582980457136
 31
0.0
  0
LINE
  5
BE5F
330
1F
100
AcDbEntity
  8
0
  6
Continuous
 62
     7
370
    15
100
AcDbLine
 10
658.0165752243231
 20
136.2033408667335
 30
0.0
 11
656.890643484516
 21
135.4438910792956
 31
0.0
  0
LINE
  5
BE60
330
1F
100
AcDbEntity
  8
0
  6
Continuous
 62
     7
370
    15
100
AcDbLine
 10
673.7140451591442
 20
110.8686282831618
 30
0.0
 11
673.2495405744741
 21
109.5924164700696
 31
0.0
  0
LINE
  5
BE61
330
1F
100
AcDbEntity
  8
0
  6
Continuous
 62
     7
370
    15
100
AcDbLine
 10
656.0553551685045
 20
139.3736180915871
 30
0.0
 11
657.3928386937807
 21
139.1377835833842
 31
0.0
  0
LINE
  5
BE62
330
1F
100
AcDbEntity
  8
0
  6
Continuous
 62
     7
370
    15
100
AcDbLine
 10
670.2639420550297
 20
112.2806623178908
 30
0.0
 11
671.4846097897718
 21
112.8760214495846
 31
0.0
  0
SPLINE
  5
BE63
330
1F
100
AcDbEntity
  8
0
  6
Continuous
 62
     7
370
    15
100
AcDbSpline
210
0.0
220
0.0
230
1.0
 70
     8
 71
     3
 72
     8
 73
     4
 74
     0
 42
0.0000000001
 43
0.0000000001
 40
0.0
 40
0.0
 40
0.0
 40
0.0
 40
1.0
 40
1.0
 40
1.0
 40
1.0
 10
751.0113976448653
 20
165.5666556477614
 30
0.0
 10
753.2189702113262
 20
159.8657929886294
 30
0.0
 10
754.3514224324078
 20
153.8052689948124
 30
0.0
 10
754.3514224324078
 20
147.6919056247455
 30
0.0
  0
SPLINE
  5
BE64
330
1F
100
AcDbEntity
  8
0
  6
Continuous
 62
     7
370
    15
100
AcDbSpline
210
0.0
220
0.0
230
1.0
 70
     8
 71
     3
 72
     8
 73
     4
 74
     0
 42
0.0000000001
 43
0.0000000001
 40
0.0
 40
0.0
 40
0.0
 40
0.0
 40
1.0
 40
1.0
 40
1.0
 40
1.0
 10
754.3514224324078
 20
147.6919056247455
 30
0.0
 10
754.3514224324078
 20
144.904107020634
 30
0.0
 10
754.1159677971629
 20
142.1217717788606
 30
0.0
 10
753.6474888017765
 20
139.3736181281403
 30
0.0
  0
LINE
  5
BE65
330
1F
100
AcDbEntity
  8
0
  6
Continuous
 62
     7
370
    15
100
AcDbLine
 10
752.3100056719015
 20
139.1377835833842
 30
0.0
 11
750.3537104498575
 21
139.5536068893412
 31
0.0
  0
LINE
  5
BE66
330
1F
100
AcDbEntity
  8
0
  6
Continuous
 62
     7
370
    15
100
AcDbLine
 10
750.4888528060148
 20
140.189402824864
 30
0.0
 11
750.3537104498575
 21
139.5536068893412
 31
0.0
  0
LINE
  5
BE67
330
1F
100
AcDbEntity
  8
0
  6
Continuous
 62
     7
370
    15
100
AcDbLine
 10
750.4888528060148
 20
140.189402824864
 30
0.0
 11
746.3806324671934
 21
141.0626319419967
 31
0.0
  0
LINE
  5
BE68
330
1F
100
AcDbEntity
  8
0
  6
Continuous
 62
     7
370
    15
100
AcDbLine
 10
746.3806324671934
 20
141.0626319419967
 30
0.0
 11
745.4866112243364
 21
136.8565970632622
 31
0.0
  0
LINE
  5
BE69
330
1F
100
AcDbEntity
  8
0
  6
Continuous
 62
     7
370
    15
100
AcDbLine
 10
745.4866112243364
 20
136.8565970632622
 30
0.0
 11
749.5948315631578
 21
135.9833680625448
 31
0.0
  0
LINE
  5
BE6A
330
1F
100
AcDbEntity
  8
0
  6
Continuous
 62
     7
370
    15
100
AcDbLine
 10
749.7299739193151
 20
136.6191642891058
 30
0.0
 11
749.5948315631578
 21
135.9833680625448
 31
0.0
  0
LINE
  5
BE6B
330
1F
100
AcDbEntity
  8
0
  6
Continuous
 62
     7
370
    15
100
AcDbLine
 10
749.7299739193151
 20
136.6191642891058
 30
0.0
 11
751.6862691413591
 21
136.2033408667335
 31
0.0
  0
SPLINE
  5
BE6C
330
1F
100
AcDbEntity
  8
0
  6
Continuous
 62
     7
370
    15
100
AcDbSpline
210
0.0
220
0.0
230
1.0
 70
     8
 71
     3
 72
     8
 73
     4
 74
     0
 42
0.0000000001
 43
0.0000000001
 40
0.0
 40
0.0
 40
0.0
 40
0.0
 40
1.0
 40
1.0
 40
1.0
 40
1.0
 10
752.81219954748
 20
135.4438911522535
 30
0.0
 10
752.1494651074456
 20
132.8487555213834
 30
0.0
 10
751.2774266656604
 20
130.3123176890481
 30
0.0
 10
750.2042392406894
 20
127.858297593062
 30
0.0
  0
ARC
  5
BE6D
330
1F
100
AcDbEntity
  8
0
  6
Continuous
 62
     7
370
    15
100
AcDbCircle
 10
743.8225656027075
 20
125.1919056247453
 30
0.0
 40
5.500000000000024
100
AcDbArc
 50
60.00000000000028
 51
240.0000000000002
  0
SPLINE
  5
BE6E
330
1F
100
AcDbEntity
  8
0
  6
Continuous
 62
     7
370
    15
100
AcDbSpline
210
0.0
220
0.0
230
1.0
 70
     8
 71
     3
 72
     8
 73
     4
 74
     0
 42
0.0000000001
 43
0.0000000001
 40
0.0
 40
0.0
 40
0.0
 40
0.0
 40
1.0
 40
1.0
 40
1.0
 40
1.0
 10
744.7042392406895
 20
118.3320181514332
 30
0.0
 10
743.1155892086535
 20
116.1756005303933
 30
0.0
 10
741.3549888316238
 20
114.1521741705632
 30
0.0
 10
739.4389026690414
 20
112.2806614940955
 30
0.0
  0
LINE
  5
BE6F
330
1F
100
AcDbEntity
  8
0
  6
Continuous
 62
     7
370
    15
100
AcDbLine
 10
738.2182345759104
 20
112.8760214495846
 30
0.0
 11
736.8799724649618
 21
114.3623098331877
 31
0.0
  0
LINE
  5
BE70
330
1F
100
AcDbEntity
  8
0
  6
Continuous
 62
     7
370
    15
100
AcDbLine
 10
737.3630196820925
 20
114.7972449261138
 30
0.0
 11
736.8799724649618
 21
114.3623098331877
 31
0.0
  0
LINE
  5
BE71
330
1F
100
AcDbEntity
  8
0
  6
Continuous
 62
     7
370
    15
100
AcDbLine
 10
737.3630196820925
 20
114.7972449261138
 30
0.0
 11
734.5526681315134
 21
117.918453325648
 31
0.0
  0
LINE
  5
BE72
330
1F
100
AcDbEntity
  8
0
  6
Continuous
 62
     7
370
    15
100
AcDbLine
 10
734.5526681315134
 20
117.918453325648
 30
0.0
 11
731.3571476411055
 21
115.0411918360182
 31
0.0
  0
LINE
  5
BE73
330
1F
100
AcDbEntity
  8
0
  6
Continuous
 62
     7
370
    15
100
AcDbLine
 10
731.3571476411055
 20
115.0411918360182
 30
0.0
 11
734.1674954663942
 21
111.919983436484
 31
0.0
  0
LINE
  5
BE74
330
1F
100
AcDbEntity
  8
0
  6
Continuous
 62
     7
370
    15
100
AcDbLine
 10
734.6505389582346
 20
112.35491852941
 30
0.0
 11
734.1674954663942
 21
111.919983436484
 31
0.0
  0
LINE
  5
BE75
330
1F
100
AcDbEntity
  8
0
  6
Continuous
 62
     7
370
    15
100
AcDbLine
 10
734.6505389582346
 20
112.35491852941
 30
0.0
 11
735.9888010691832
 21
110.8686282831618
 31
0.0
  0
SPLINE
  5
BE76
330
1F
100
AcDbEntity
  8
0
  6
Continuous
 62
     7
370
    15
100
AcDbSpline
210
0.0
220
0.0
230
1.0
 70
     8
 71
     3
 72
     8
 73
     4
 74
     0
 42
0.0000000001
 43
0.0000000001
 40
0.0
 40
0.0
 40
0.0
 40
0.0
 40
1.0
 40
1.0
 40
1.0
 40
1.0
 10
736.4533039051348
 20
109.5924162924233
 30
0.0
 10
729.5756610472583
 20
103.8877084809733
 30
0.0
 10
721.2811139517016
 20
100.1507560901017
 30
0.0
 10
712.4514224324079
 20
98.77881944118923
 30
0.0
  0
LINE
  5
BE77
330
1F
100
AcDbEntity
  8
0
  6
Continuous
 62
     7
370
    15
100
AcDbLine
 10
750.2042406272123
 20
127.8582980457136
 30
0.0
 11
746.5725668739508
 21
129.9550450939128
 31
0.0
  0
LINE
  5
BE78
330
1F
100
AcDbEntity
  8
0
  6
Continuous
 62
     7
370
    15
100
AcDbLine
 10
741.0725669037531
 20
120.4287662702986
 30
0.0
 11
744.7042406570147
 21
118.3320182907769
 31
0.0
  0
LINE
  5
BE79
330
1F
100
AcDbEntity
  8
0
  6
Continuous
 62
     7
370
    15
100
AcDbLine
 10
753.6474854718874
 20
139.3736180915871
 30
0.0
 11
752.3100056719015
 21
139.1377835833842
 31
0.0
  0
LINE
  5
BE7A
330
1F
100
AcDbEntity
  8
0
  6
Continuous
 62
     7
370
    15
100
AcDbLine
 10
738.2182345759104
 20
112.8760214495846
 30
0.0
 11
739.4389041732977
 21
112.2806623178908
 31
0.0
  0
LINE
  5
BE7B
330
1F
100
AcDbEntity
  8
0
  6
Continuous
 62
     7
370
    15
100
AcDbLine
 10
736.4533037912081
 20
109.5924164700696
 30
0.0
 11
735.9888010691832
 21
110.8686282831618
 31
0.0
  0
LINE
  5
BE7C
330
1F
100
AcDbEntity
  8
0
  6
Continuous
 62
     7
370
    15
100
AcDbLine
 10
752.8122008811663
 20
135.4438910792956
 30
0.0
 11
751.6862691413591
 21
136.2033408667335
 31
0.0
  0
ARC
  5
BE7D
330
1F
100
AcDbEntity
  8
0
  6
Continuous
 62
     7
370
    15
100
AcDbCircle
 10
704.8514224324081
 20
147.6919056247455
 30
0.0
 40
50.00000000000003
100
AcDbArc
 50
230.9392222907046
 51
261.8364058042164
  0
SPLINE
  5
BE7E
330
1F
100
AcDbEntity
  8
0
  6
Continuous
 62
     7
370
    15
100
AcDbSpline
210
0.0
220
0.0
230
1.0
 70
     8
 71
     3
 72
    15
 73
    11
 74
     0
 42
0.0000000001
 43
0.0000000001
 40
0.0
 40
0.0
 40
0.0
 40
0.0
 40
0.1288991288650875
 40
0.2433453493954331
 40
0.3433502772178146
 40
0.4289333141758273
 40
0.500127665599422
 40
0.6892816910141214
 40
0.8550586103973625
 40
1.0
 40
1.0
 40
1.0
 40
1.0
 10
673.3442018906478
 20
108.8680076528405
 30
0.0
 10
673.3262293115071
 20
108.8838557881371
 30
0.0
 10
673.2922993417005
 20
108.913775075063
 30
0.0
 10
673.251898533337
 20
108.9643640438167
 30
0.0
 10
673.221502105336
 20
109.0126772648313
 30
0.0
 10
673.1998050761854
 20
109.0572964788535
 30
0.0
 10
673.1756051280931
 20
109.1211362037594
 30
0.0
 10
673.1575881991496
 20
109.208184157808
 30
0.0
 10
673.1581674947497
 20
109.3203847321517
 30
0.0
 10
673.1794841588391
 20
109.3932616588201
 30
0.0
 10
673.1894277856724
 20
109.4272567042223
 30
0.0
  0
SPLINE
  5
BE7F
330
1F
100
AcDbEntity
  8
0
  6
Continuous
 62
     7
370
    15
100
AcDbSpline
210
0.0
220
0.0
230
1.0
 70
    24
 71
     3
 72
     8
 73
     4
 74
     0
 42
0.0000000001
 43
0.0000000001
 40
0.0
 40
0.0
 40
0.0
 40
0.0
 40
1.0
 40
1.0
 40
1.0
 40
1.0
 10
673.2495409596813
 20
109.5924162924233
 30
0.0
 10
673.2289875270644
 20
109.5359462004164
 30
0.0
 10
673.2089462873416
 20
109.4808833468113
 30
0.0
 10
673.1894277856765
 20
109.4272567042251
 30
0.0
  0
ARC
  5
BE80
330
1F
100
AcDbEntity
  8
0
  6
Continuous
 62
     7
370
    15
100
AcDbCircle
 10
704.8514224324081
 20
147.6919056247455
 30
0.0
 40
50.0
100
AcDbArc
 50
38.16359419578783
 51
83.68468443064186
  0
SPLINE
  5
BE81
330
1F
100
AcDbEntity
  8
0
  6
Continuous
 62
     7
370
    15
100
AcDbSpline
210
0.0
220
0.0
230
1.0
 70
    24
 71
     3
 72
    10
 73
     6
 74
     0
 42
0.0000000001
 43
0.0000000001
 40
0.0
 40
0.0
 40
0.0
 40
0.0
 40
0.5
 40
0.5
 40
1.0
 40
1.0
 40
1.0
 40
1.0
 10
710.351422432408
 20
197.3884849838925
 30
0.0
 10
710.351422432408
 20
197.3884849838925
 30
0.0
 10
710.351422432408
 20
197.333581761136
 30
0.0
 10
710.351422432408
 20
197.1478530754836
 30
0.0
 10
710.351422432408
 20
197.01784527954
 30
0.0
 10
710.351422432408
 20
196.8854011297408
 30
0.0
  0
ARC
  5
BE82
330
1F
100
AcDbEntity
  8
0
  6
Continuous
 62
     7
370
    15
100
AcDbCircle
 10
704.8514224324081
 20
147.6919056247455
 30
0.0
 40
50.00000000000006
100
AcDbArc
 50
158.163594195788
 51
189.0607777092966
  0
SPLINE
  5
BE83
330
1F
100
AcDbEntity
  8
0
  6
Continuous
 62
     7
370
    15
100
AcDbSpline
210
0.0
220
0.0
230
1.0
 70
     8
 71
     3
 72
    15
 73
    11
 74
     0
 42
0.0000000001
 43
0.0000000001
 40
0.0
 40
0.0
 40
0.0
 40
0.0
 40
0.0702047799156361
 40
0.1452106388182869
 40
0.2254428858011651
 40
0.311249130728594
 40
0.4029135741951045
 40
0.5006693189280358
 40
0.7053799623538494
 40
1.0
 40
1.0
 40
1.0
 40
1.0
 10
655.8822670769743
 20
139.404138386447
 30
0.0
 10
655.8653500460552
 20
139.4076590823051
 30
0.0
 10
655.8303590829093
 20
139.4149412430819
 30
0.0
 10
655.7801548650202
 20
139.4326504975015
 30
0.0
 10
655.7304324571726
 20
139.4559727265044
 30
0.0
 10
655.6822916690216
 20
139.4856533577567
 30
0.0
 10
655.6364987966853
 20
139.521615585294
 30
0.0
 10
655.5797685140744
 20
139.5784721551321
 30
0.0
 10
655.5121607216285
 20
139.6736547458166
 30
0.0
 10
655.4889973349304
 20
139.7643111995224
 30
0.0
 10
655.475330243923
 20
139.8178012188946
 30
0.0
  0
SPLINE
  5
BE84
330
1F
100
AcDbEntity
  8
0
  6
Continuous
 62
     7
370
    15
100
AcDbSpline
210
0.0
220
0.0
230
1.0
 70
    24
 71
     3
 72
     8
 73
     4
 74
     0
 42
0.0000000001
 43
0.0000000001
 40
0.0
 40
0.0
 40
0.0
 40
0.0
 40
1.0
 40
1.0
 40
1.0
 40
1.0
 10
655.8822670769743
 20
139.404138386447
 30
0.0
 10
655.938468362606
 20
139.3942285834396
 30
0.0
 10
655.9961748124983
 20
139.3840533793628
 30
0.0
 10
656.0553560630387
 20
139.3736181281404
 30
0.0
  0
ARC
  5
BE85
330
1F
100
AcDbEntity
  8
0
  6
Continuous
 62
     7
370
    15
100
AcDbCircle
 10
704.8514224324081
 20
147.6919056247455
 30
0.0
 40
50.0
100
AcDbArc
 50
350.9392222907049
 51
21.83640580421198
  0
SPLINE
  5
BE86
330
1F
100
AcDbEntity
  8
0
  6
Continuous
 62
     7
370
    15
100
AcDbSpline
210
0.0
220
0.0
230
1.0
 70
     8
 71
     3
 72
    15
 73
    11
 74
     0
 42
0.0000000001
 43
0.0000000001
 40
0.0
 40
0.0
 40
0.0
 40
0.0
 40
0.1288991289315658
 40
0.2433453494951157
 40
0.3433502773172735
 40
0.4289333142414219
 40
0.5001276655972266
 40
0.6892816909514999
 40
0.8550586103343562
 40
1.0
 40
1.0
 40
1.0
 40
1.0
 10
754.2275146208928
 20
139.8178012188946
 30
0.0
 10
754.2227760226901
 20
139.7943124411241
 30
0.0
 10
754.2138301450465
 20
139.7499685818353
 30
0.0
 10
754.1902192171205
 20
139.6896859710639
 30
0.0
 10
754.1635769543768
 20
139.639205281727
 30
0.0
 10
754.1357840961198
 20
139.5981054963067
 30
0.0
 10
754.0925972466505
 20
139.5452278640697
 30
0.0
 10
754.0262199715985
 20
139.4861007689022
 30
0.0
 10
753.9287617761003
 20
139.4305021664244
 30
0.0
 10
753.8549901741949
 20
139.4125244757095
 30
0.0
 10
753.8205777878415
 20
139.404138386447
 30
0.0
  0
SPLINE
  5
BE87
330
1F
100
AcDbEntity
  8
0
  6
Continuous
 62
     7
370
    15
100
AcDbSpline
210
0.0
220
0.0
230
1.0
 70
    24
 71
     3
 72
     8
 73
     4
 74
     0
 42
0.0000000001
 43
0.0000000001
 40
0.0
 40
0.0
 40
0.0
 40
0.0
 40
1.0
 40
1.0
 40
1.0
 40
1.0
 10
753.6474888017765
 20
139.3736181281402
 30
0.0
 10
753.7066700523169
 20
139.3840533793626
 30
0.0
 10
753.7643765022051
 20
139.3942285834417
 30
0.0
 10
753.820577787837
 20
139.4041383864491
 30
0.0
  0
ARC
  5
BE88
330
1F
100
AcDbEntity
  8
0
  6
Continuous
 62
     7
370
    15
100
AcDbCircle
 10
704.8514224324081
 20
147.6919056247455
 30
0.0
 40
50.00000000000007
100
AcDbArc
 50
194.9392222907042
 51
203.6846844306431
  0
SPLINE
  5
BE89
330
1F
100
AcDbEntity
  8
0
  6
Continuous
 62
     7
370
    15
100
AcDbSpline
210
0.0
220
0.0
230
1.0
 70
     8
 71
     3
 72
    15
 73
    11
 74
     0
 42
0.0000000001
 43
0.0000000001
 40
0.0
 40
0.0
 40
0.0
 40
0.0
 40
0.1288991289581339
 40
0.2433453495351026
 40
0.3433502773576416
 40
0.4289333142692902
 40
0.500127665600013
 40
0.6892816910397434
 40
0.8550586104232484
 40
1.0
 40
1.0
 40
1.0
 40
1.0
 10
656.5414309042109
 20
134.8021919527685
 30
0.0
 10
656.5362060824541
 20
134.8255773805349
 30
0.0
 10
656.5263422758712
 20
134.8697261280079
 30
0.0
 10
656.5233927850888
 20
134.9344004628217
 30
0.0
 10
656.5271993570799
 20
134.9913532517764
 30
0.0
 10
656.5358726077424
 20
135.0402041479208
 30
0.0
 10
656.5538184872812
 20
135.1060759428601
 30
0.0
 10
656.5904079892095
 20
135.1870893021267
 30
0.0
 10
656.6568264920959
 20
135.2775209721344
 30
0.0
 10
656.7169080183305
 20
135.3239500235221
 30
0.0
 10
656.7449343677576
 20
135.3456078757658
 30
0.0
  0
SPLINE
  5
BE8A
330
1F
100
AcDbEntity
  8
0
  6
Continuous
 62
     7
370
    15
100
AcDbSpline
210
0.0
220
0.0
230
1.0
 70
    24
 71
     3
 72
    10
 73
     6
 74
     0
 42
0.0000000001
 43
0.0000000001
 40
0.0
 40
0.0
 40
0.0
 40
0.0
 40
0.5
 40
0.5
 40
1.0
 40
1.0
 40
1.0
 40
1.0
 10
659.0629222261971
 20
127.6067556659868
 30
0.0
 10
659.0629222261971
 20
127.6067556659868
 30
0.0
 10
659.1104698118538
 20
127.634207277365
 30
0.0
 10
659.2713155718402
 20
127.7270716201911
 30
0.0
 10
659.3839056258175
 20
127.792075518163
 30
0.0
 10
659.4986056241261
 20
127.8582975930626
 30
0.0
  0
SPLINE
  5
BE8B
330
1F
100
AcDbEntity
  8
0
  6
Continuous
 62
     7
370
    15
100
AcDbSpline
210
0.0
220
0.0
230
1.0
 70
    24
 71
     3
 72
     8
 73
     4
 74
     0
 42
0.0000000001
 43
0.0000000001
 40
0.0
 40
0.0
 40
0.0
 40
0.0
 40
1.0
 40
1.0
 40
1.0
 40
1.0
 10
656.8906453173358
 20
135.4438911522535
 30
0.0
 10
656.8408249537788
 20
135.4102868927221
 30
0.0
 10
656.7922461169565
 20
135.3775200535437
 30
0.0
 10
656.7449343677626
 20
135.3456078757657
 30
0.0
  0
SPLINE
  5
BE8C
330
1F
100
AcDbEntity
  8
0
  6
Continuous
 62
     7
370
    15
100
AcDbSpline
210
0.0
220
0.0
230
1.0
 70
     8
 71
     3
 72
    13
 73
     9
 74
     0
 42
0.0000000001
 43
0.0000000001
 40
0.0
 40
0.0
 40
0.0
 40
0.0
 40
0.1094596682181619
 40
0.2291638175608718
 40
0.3593694130587424
 40
0.5002758569044215
 40
0.7066053676608674
 40
1.0
 40
1.0
 40
1.0
 40
1.0
 10
736.5435707687506
 20
109.2562466325596
 30
0.0
 10
736.5429934474846
 20
109.2382427394049
 30
0.0
 10
736.5417847726603
 20
109.2005499439357
 30
0.0
 10
736.5320502939677
 20
109.1448336315532
 30
0.0
 10
736.5156184477002
 20
109.0875194447574
 30
0.0
 10
736.4877056811974
 20
109.0226864330947
 30
0.0
 10
736.4400225218217
 20
108.9439391129418
 30
0.0
 10
736.3887473207089
 20
108.8960966144304
 30
0.0
 10
736.3586429741681
 20
108.8680076528405
 30
0.0
  0
ARC
  5
BE8D
330
1F
100
AcDbEntity
  8
0
  6
Continuous
 62
     7
370
    15
100
AcDbCircle
 10
704.8514224324081
 20
147.6919056247455
 30
0.0
 40
50.00000000000003
100
AcDbArc
 50
278.16359419579
 51
309.0607777092964
  0
SPLINE
  5
BE8E
330
1F
100
AcDbEntity
  8
0
  6
Continuous
 62
     7
370
    15
100
AcDbSpline
210
0.0
220
0.0
230
1.0
 70
     8
 71
     3
 72
     8
 73
     4
 74
     0
 42
0.0000000001
 43
0.0000000001
 40
0.0
 40
0.0
 40
0.0
 40
0.0
 40
1.0
 40
1.0
 40
1.0
 40
1.0
 10
736.5134170791434
 20
109.4272567042224
 30
0.0
 10
736.5348075972274
 20
109.3684867387964
 30
0.0
 10
736.5435707687506
 20
109.3116872970283
 30
0.0
 10
736.5435707687506
 20
109.2562466325597
 30
0.0
  0
SPLINE
  5
BE8F
330
1F
100
AcDbEntity
  8
0
  6
Continuous
 62
     7
370
    15
100
AcDbSpline
210
0.0
220
0.0
230
1.0
 70
    24
 71
     3
 72
     8
 73
     4
 74
     0
 42
0.0000000001
 43
0.0000000001
 40
0.0
 40
0.0
 40
0.0
 40
0.0
 40
1.0
 40
1.0
 40
1.0
 40
1.0
 10
736.5134170791434
 20
109.4272567042224
 30
0.0
 10
736.4938985774785
 20
109.4808833468085
 30
0.0
 10
736.4738573377517
 20
109.5359462004158
 30
0.0
 10
736.4533039051348
 20
109.5924162924228
 30
0.0
  0
ARC
  5
BE90
330
1F
100
AcDbEntity
  8
0
  6
Continuous
 62
     7
370
    15
100
AcDbCircle
 10
704.8514224324081
 20
147.6919056247455
 30
0.0
 40
50.00000000000002
100
AcDbArc
 50
96.31531556935815
 51
141.8364058042121
  0
SPLINE
  5
BE91
330
1F
100
AcDbEntity
  8
0
  6
Continuous
 62
     7
370
    15
100
AcDbSpline
210
0.0
220
0.0
230
1.0
 70
    24
 71
     3
 72
    10
 73
     6
 74
     0
 42
0.0000000001
 43
0.0000000001
 40
0.0
 40
0.0
 40
0.0
 40
0.0
 40
0.5
 40
0.5
 40
1.0
 40
1.0
 40
1.0
 40
1.0
 10
699.351422432408
 20
197.3884849838925
 30
0.0
 10
699.351422432408
 20
197.3884849838925
 30
0.0
 10
699.351422432408
 20
197.333581761136
 30
0.0
 10
699.351422432408
 20
197.1478530754836
 30
0.0
 10
699.351422432408
 20
197.01784527954
 30
0.0
 10
699.351422432408
 20
196.8854011297408
 30
0.0
  0
ARC
  5
BE92
330
1F
100
AcDbEntity
  8
0
  6
Continuous
 62
     7
370
    15
100
AcDbCircle
 10
704.8514224324081
 20
147.6919056247455
 30
0.0
 40
50.0
100
AcDbArc
 50
336.3153155693569
 51
345.0607777092957
  0
SPLINE
  5
BE93
330
1F
100
AcDbEntity
  8
0
  6
Continuous
 62
     7
370
    15
100
AcDbSpline
210
0.0
220
0.0
230
1.0
 70
     8
 71
     3
 72
    10
 73
     6
 74
     0
 42
0.0000000001
 43
0.0000000001
 40
0.0
 40
0.0
 40
0.0
 40
0.0
 40
0.4999999999999939
 40
0.4999999999999939
 40
1.0
 40
1.0
 40
1.0
 40
1.0
 10
752.9579104970582
 20
135.3456078757658
 30
0.0
 10
753.0379396812122
 20
135.291627509458
 30
0.0
 10
753.0928195939545
 20
135.2218417250724
 30
0.0
 10
753.1626723412134
 20
135.0785644642034
 30
0.0
 10
753.1783140453216
 20
135.0038248772384
 30
0.0
 10
753.1783140453228
 20
134.9310890894966
 30
0.0
  0
SPLINE
  5
BE94
330
1F
100
AcDbEntity
  8
0
  6
Continuous
 62
     7
370
    15
100
AcDbSpline
210
0.0
220
0.0
230
1.0
 70
     8
 71
     3
 72
     8
 73
     4
 74
     0
 42
0.0000000001
 43
0.0000000001
 40
0.0
 40
0.0
 40
0.0
 40
0.0
 40
1.0
 40
1.0
 40
1.0
 40
1.0
 10
753.1783140453228
 20
134.9310890894884
 30
0.0
 10
753.1783140453228
 20
134.8876326533783
 30
0.0
 10
753.1726167809781
 20
134.844179553975
 30
0.0
 10
753.1614139606049
 20
134.8021919527686
 30
0.0
  0
SPLINE
  5
BE95
330
1F
100
AcDbEntity
  8
0
  6
Continuous
 62
     7
370
    15
100
AcDbSpline
210
0.0
220
0.0
230
1.0
 70
    24
 71
     3
 72
    10
 73
     6
 74
     0
 42
0.0000000001
 43
0.0000000001
 40
0.0
 40
0.0
 40
0.0
 40
0.0
 40
0.5
 40
0.5
 40
1.0
 40
1.0
 40
1.0
 40
1.0
 10
750.6399226386186
 20
127.6067556659861
 30
0.0
 10
750.6399226386186
 20
127.6067556659861
 30
0.0
 10
750.5923750529619
 20
127.6342072773643
 30
0.0
 10
750.4315292929755
 20
127.7270716201905
 30
0.0
 10
750.3189392389981
 20
127.7920755181624
 30
0.0
 10
750.2042392406894
 20
127.858297593062
 30
0.0
  0
SPLINE
  5
BE96
330
1F
100
AcDbEntity
  8
0
  6
Continuous
 62
     7
370
    15
100
AcDbSpline
210
0.0
220
0.0
230
1.0
 70
    24
 71
     3
 72
     8
 73
     4
 74
     0
 42
0.0000000001
 43
0.0000000001
 40
0.0
 40
0.0
 40
0.0
 40
0.0
 40
1.0
 40
1.0
 40
1.0
 40
1.0
 10
752.9579104970582
 20
135.3456078757658
 30
0.0
 10
752.9105987478645
 20
135.3775200535437
 30
0.0
 10
752.8620199110376
 20
135.4102868927217
 30
0.0
 10
752.8121995474805
 20
135.4438911522531
 30
0.0
  0
SPLINE
  5
BE97
330
1F
100
AcDbEntity
  8
0
  6
Continuous
 62
     7
370
    15
100
AcDbSpline
210
0.0
220
0.0
230
1.0
 70
     8
 71
     3
 72
    15
 73
    11
 74
     0
 42
0.0000000001
 43
0.0000000001
 40
0.0
 40
0.0
 40
0.0
 40
0.0
 40
0.0702047799118371
 40
0.1452106388122671
 40
0.2254428857944669
 40
0.3112491307227291
 40
0.402913574191527
 40
0.5006693189281594
 40
0.7053799622376654
 40
1.0
 40
1.0
 40
1.0
 40
1.0
 10
670.1059709067799
 20
112.2036137483951
 30
0.0
 10
670.0902153281697
 20
112.1965184698898
 30
0.0
 10
670.0576266976272
 20
112.181842689614
 30
0.0
 10
670.0066013935904
 20
112.166660478519
 30
0.0
 10
669.9526666583828
 20
112.1563024600874
 30
0.0
 10
669.8962741053167
 20
112.1520181498649
 30
0.0
 10
669.8380888263877
 20
112.1541958280782
 30
0.0
 10
669.7587736104333
 20
112.1668485358388
 30
0.0
 10
669.648130834315
 20
112.204114005922
 30
0.0
 10
669.5761047343103
 20
112.2638415205249
 30
0.0
 10
669.5336071808701
 20
112.2990825407043
 30
0.0
  0
ARC
  5
BE98
330
1F
100
AcDbEntity
  8
0
  6
Continuous
 62
     7
370
    15
100
AcDbCircle
 10
704.8514224324081
 20
147.6919056247455
 30
0.0
 40
50.00000000000006
100
AcDbArc
 50
216.3153155693561
 51
225.0607777092958
  0
SPLINE
  5
BE99
330
1F
100
AcDbEntity
  8
0
  6
Continuous
 62
     7
370
    15
100
AcDbSpline
210
0.0
220
0.0
230
1.0
 70
    24
 71
     3
 72
    10
 73
     6
 74
     0
 42
0.0000000001
 43
0.0000000001
 40
0.0
 40
0.0
 40
0.0
 40
0.0
 40
0.5
 40
0.5
 40
1.0
 40
1.0
 40
1.0
 40
1.0
 10
664.5629222261968
 20
118.0804762243579
 30
0.0
 10
664.5629222261968
 20
118.0804762243579
 30
0.0
 10
664.6104698118535
 20
118.1079278357361
 30
0.0
 10
664.7713155718402
 20
118.2007921785623
 30
0.0
 10
664.8839056258172
 20
118.2657960765341
 30
0.0
 10
664.9986056241261
 20
118.3320181514337
 30
0.0
  0
SPLINE
  5
BE9A
330
1F
100
AcDbEntity
  8
0
  6
Continuous
 62
     7
370
    15
100
AcDbSpline
210
0.0
220
0.0
230
1.0
 70
    24
 71
     3
 72
     8
 73
     4
 74
     0
 42
0.0000000001
 43
0.0000000001
 40
0.0
 40
0.0
 40
0.0
 40
0.0
 40
1.0
 40
1.0
 40
1.0
 40
1.0
 10
670.1059709067799
 20
112.2036137483951
 30
0.0
 10
670.1572635380225
 20
112.2286308362054
 30
0.0
 10
670.2099298715658
 20
112.2543179233948
 30
0.0
 10
670.263942195774
 20
112.2806614940952
 30
0.0
  0
ARC
  5
BE9B
330
1F
100
AcDbEntity
  8
0
  6
Continuous
 62
     7
370
    15
100
AcDbCircle
 10
704.8514224324081
 20
147.6919056247455
 30
0.0
 40
50.0
100
AcDbArc
 50
314.9392222907054
 51
323.6846844306439
  0
SPLINE
  5
BE9C
330
1F
100
AcDbEntity
  8
0
  6
Continuous
 62
     7
370
    15
100
AcDbSpline
210
0.0
220
0.0
230
1.0
 70
     8
 71
     3
 72
    15
 73
    11
 74
     0
 42
0.0000000001
 43
0.0000000001
 40
0.0
 40
0.0
 40
0.0
 40
0.0
 40
0.1288991288407129
 40
0.2433453493588283
 40
0.3433502771811394
 40
0.4289333141512272
 40
0.5001276655990102
 40
0.6892816909998629
 40
0.8550586103829799
 40
1.0
 40
1.0
 40
1.0
 40
1.0
 10
740.1692376839459
 20
112.2990825407043
 30
0.0
 10
740.1515977203175
 20
112.2828649984639
 30
0.0
 10
740.1182956867785
 20
112.2522483176706
 30
0.0
 10
740.0637608152829
 20
112.2173568163265
 30
0.0
 10
740.0125349672411
 20
112.1921770098845
 30
0.0
 10
739.9658922248213
 20
112.1752628171998
 30
0.0
 10
739.8998726372203
 20
112.1578685072935
 30
0.0
 10
739.8114182590775
 20
112.1490492658383
 30
0.0
 10
739.6998928840972
 20
112.1613535416078
 30
0.0
 10
739.6296433829938
 20
112.1901711439343
 30
0.0
 10
739.596873958036
 20
112.2036137483951
 30
0.0
  0
SPLINE
  5
BE9D
330
1F
100
AcDbEntity
  8
0
  6
Continuous
 62
     7
370
    15
100
AcDbSpline
210
0.0
220
0.0
230
1.0
 70
    24
 71
     3
 72
    10
 73
     6
 74
     0
 42
0.0000000001
 43
0.0000000001
 40
0.0
 40
0.0
 40
0.0
 40
0.0
 40
0.5
 40
0.5
 40
1.0
 40
1.0
 40
1.0
 40
1.0
 10
745.1399226386186
 20
118.0804762243574
 30
0.0
 10
745.1399226386186
 20
118.0804762243574
 30
0.0
 10
745.0923750529618
 20
118.1079278357356
 30
0.0
 10
744.9315292929754
 20
118.2007921785618
 30
0.0
 10
744.8189392389982
 20
118.2657960765336
 30
0.0
 10
744.7042392406895
 20
118.3320181514332
 30
0.0
  0
SPLINE
  5
BE9E
330
1F
100
AcDbEntity
  8
0
  6
Continuous
 62
     7
370
    15
100
AcDbSpline
210
0.0
220
0.0
230
1.0
 70
    24
 71
     3
 72
     8
 73
     4
 74
     0
 42
0.0000000001
 43
0.0000000001
 40
0.0
 40
0.0
 40
0.0
 40
0.0
 40
1.0
 40
1.0
 40
1.0
 40
1.0
 10
739.4389026690414
 20
112.2806614940955
 30
0.0
 10
739.4929149932495
 20
112.2543179233951
 30
0.0
 10
739.5455813267908
 20
112.2286308362099
 30
0.0
 10
739.5968739580337
 20
112.2036137483995
 30
0.0
  0
LINE
  5
BE9F
330
1F
100
AcDbEntity
  8
0
  6
Continuous
 62
     7
370
    15
100
AcDbLine
 10
678.6555430885385
 20
154.6177297431419
 30
0.0
 11
686.9768804904054
 21
149.813403521795
 31
0.0
  0
LINE
  5
BEA0
330
1F
100
AcDbEntity
  8
0
  6
Continuous
 62
     7
370
    15
100
AcDbLine
 10
685.7555431347321
 20
166.9152911353299
 30
0.0
 11
678.6555430885385
 21
154.6177297431419
 31
0.0
  0
LINE
  5
BEA1
330
1F
100
AcDbEntity
  8
0
  6
Continuous
 62
     7
370
    15
100
AcDbLine
 10
694.076880536599
 20
162.1109649139831
 30
0.0
 11
685.7555431347321
 21
166.9152911353299
 31
0.0
  0
LINE
  5
BEA2
330
1F
100
AcDbEntity
  8
0
  6
Continuous
 62
     7
370
    15
100
AcDbLine
 10
685.3225302916
 20
167.1652897793243
 30
0.0
 11
678.2225302454064
 21
154.8677293184588
 31
0.0
  0
LINE
  5
BEA3
330
1F
100
AcDbEntity
  8
0
  6
Continuous
 62
     7
370
    15
100
AcDbLine
 10
685.3225302916
 20
167.1652897793243
 30
0.0
 11
685.7555431347321
 21
166.9152911353299
 31
0.0
  0
LINE
  5
BEA4
330
1F
100
AcDbEntity
  8
0
  6
Continuous
 62
     7
370
    15
100
AcDbLine
 10
678.6555430885385
 20
154.6177297431419
 30
0.0
 11
678.2225302454064
 21
154.8677293184588
 31
0.0
  0
LINE
  5
BEA5
330
1F
100
AcDbEntity
  8
0
  6
Continuous
 62
     7
370
    15
100
AcDbLine
 10
711.9514231603573
 20
121.1030792045781
 30
0.0
 11
697.7514226023088
 21
121.1030792045781
 31
0.0
  0
LINE
  5
BEA6
330
1F
100
AcDbEntity
  8
0
  6
Continuous
 62
     7
370
    15
100
AcDbLine
 10
711.9514231603573
 20
120.6030800539443
 30
0.0
 11
711.9514231603573
 21
121.1030792045781
 31
0.0
  0
LINE
  5
BEA7
330
1F
100
AcDbEntity
  8
0
  6
Continuous
 62
     7
370
    15
100
AcDbLine
 10
711.9514231603573
 20
120.6030800539443
 30
0.0
 11
697.7514226023088
 21
120.6030800539443
 31
0.0
  0
LINE
  5
BEA8
330
1F
100
AcDbEntity
  8
0
  6
Continuous
 62
     7
370
    15
100
AcDbLine
 10
697.7514226023088
 20
121.1030792045781
 30
0.0
 11
697.7514226023088
 21
120.6030800539443
 31
0.0
  0
LINE
  5
BEA9
330
1F
100
AcDbEntity
  8
0
  6
Continuous
 62
     7
370
    15
100
AcDbLine
 10
711.9514231603573
 20
131.151349430103
 30
0.0
 11
711.9514231603573
 21
121.1030792045781
 31
0.0
  0
LINE
  5
BEAA
330
1F
100
AcDbEntity
  8
0
  6
Continuous
 62
     7
370
    15
100
AcDbLine
 10
697.7514226023088
 20
121.1030792045781
 30
0.0
 11
697.7514226023088
 21
131.151349430103
 31
0.0
  0
LINE
  5
BEAB
330
1F
100
AcDbEntity
  8
0
  6
Continuous
 62
     7
370
    15
100
AcDbLine
 10
731.0599179040621
 20
154.6250145483205
 30
0.0
 11
723.9599206518362
 21
166.9225759405086
 31
0.0
  0
LINE
  5
BEAC
330
1F
100
AcDbEntity
  8
0
  6
Continuous
 62
     7
370
    15
100
AcDbLine
 10
722.7259629439543
 20
149.813403521795
 30
0.0
 11
731.0599179040621
 21
154.6250145483205
 31
0.0
  0
LINE
  5
BEAD
330
1F
100
AcDbEntity
  8
0
  6
Continuous
 62
     7
370
    15
100
AcDbLine
 10
723.9599206518362
 20
166.9225759405086
 30
0.0
 11
715.6259638290833
 21
162.1109649139831
 31
0.0
  0
LINE
  5
BEAE
330
1F
100
AcDbEntity
  8
0
  6
Continuous
 62
     7
370
    15
100
AcDbLine
 10
731.4929307471941
 20
154.8750141236374
 30
0.0
 11
724.3929334949682
 21
167.1725745845029
 31
0.0
  0
LINE
  5
BEAF
330
1F
100
AcDbEntity
  8
0
  6
Continuous
 62
     7
370
    15
100
AcDbLine
 10
731.4929307471941
 20
154.8750141236374
 30
0.0
 11
731.0599179040621
 21
154.6250145483205
 31
0.0
  0
LINE
  5
BEB0
330
1F
100
AcDbEntity
  8
0
  6
Continuous
 62
     7
370
    15
100
AcDbLine
 10
723.9599206518362
 20
166.9225759405086
 30
0.0
 11
724.3929334949682
 21
167.1725745845029
 31
0.0
  0
LINE
  5
BEB1
330
1F
100
AcDbEntity
  8
0
  6
Continuous
 62
     7
370
    15
100
AcDbLine
 10
745.6105553578566
 20
179.4225751954505
 30
0.0
 11
752.7105526100824
 21
167.1250138032624
 31
0.0
  0
LINE
  5
BEB2
330
1F
100
AcDbEntity
  8
0
  6
Continuous
 62
     7
370
    15
100
AcDbLine
 10
745.6105553578566
 20
179.4225751954505
 30
0.0
 11
746.0435682009886
 21
179.67257570209
 31
0.0
  0
LINE
  5
BEB3
330
1F
100
AcDbEntity
  8
0
  6
Continuous
 62
     7
370
    15
100
AcDbLine
 10
753.1435654532145
 20
167.3750143099019
 30
0.0
 11
746.0435682009886
 21
179.67257570209
 31
0.0
  0
LINE
  5
BEB4
330
1F
100
AcDbEntity
  8
0
  6
Continuous
 62
     7
370
    15
100
AcDbLine
 10
753.1435654532145
 20
167.3750143099019
 30
0.0
 11
752.7105526100824
 21
167.1250138032624
 31
0.0
  0
CIRCLE
  5
BEB5
330
1F
100
AcDbEntity
  8
0
  6
Continuous
 62
     7
370
    15
100
AcDbCircle
 10
745.2634399842184
 20
171.0237948367786
 30
0.0
 40
2.099999999999965
  0
LINE
  5
BEB6
330
1F
100
AcDbEntity
  8
0
  6
Continuous
 62
     7
370
    15
100
AcDbLine
 10
745.7823508452604
 20
163.1250150102565
 30
0.0
 11
738.6823498677443
 21
175.4225745397994
 31
0.0
  0
LINE
  5
BEB7
330
1F
100
AcDbEntity
  8
0
  6
Continuous
 62
     7
370
    15
100
AcDbLine
 10
745.6105553578566
 20
179.4225751954505
 30
0.0
 11
744.1639059256742
 21
178.5873539346644
 31
0.0
  0
LINE
  5
BEB8
330
1F
100
AcDbEntity
  8
0
  6
Continuous
 62
     7
370
    15
100
AcDbLine
 10
751.2639069031904
 20
166.2897925424764
 30
0.0
 11
752.7105526100824
 21
167.1250138032624
 31
0.0
  0
LINE
  5
BEB9
330
1F
100
AcDbEntity
  8
0
  6
Continuous
 62
     7
370
    15
100
AcDbLine
 10
664.3661239217947
 20
162.8677296984384
 30
0.0
 11
671.4661248993109
 21
175.1652910906264
 31
0.0
  0
LINE
  5
BEBA
330
1F
100
AcDbEntity
  8
0
  6
Continuous
 62
     7
370
    15
100
AcDbLine
 10
671.0331120561789
 20
175.4152915972659
 30
0.0
 11
663.9331110786627
 21
163.1177302050778
 31
0.0
  0
CIRCLE
  5
BEBB
330
1F
100
AcDbEntity
  8
0
  6
Continuous
 62
     7
370
    15
100
AcDbCircle
 10
664.4520224391058
 20
171.0165100859781
 30
0.0
 40
2.100000000000022
  0
LINE
  5
BEBC
330
1F
100
AcDbEntity
  8
0
  6
Continuous
 62
     7
370
    15
100
AcDbLine
 10
657.0049093138407
 20
167.1177289980838
 30
0.0
 11
658.4389374624918
 21
166.2897925424764
 31
0.0
  0
LINE
  5
BEBD
330
1F
100
AcDbEntity
  8
0
  6
Continuous
 62
     7
370
    15
100
AcDbLine
 10
657.0049093138407
 20
167.1177289980838
 30
0.0
 11
664.1049084287117
 21
179.415292252917
 31
0.0
  0
LINE
  5
BEBE
330
1F
100
AcDbEntity
  8
0
  6
Continuous
 62
     7
370
    15
100
AcDbLine
 10
665.538938440008
 20
178.5873539346644
 30
0.0
 11
664.1049084287117
 21
179.415292252917
 31
0.0
  0
CIRCLE
  5
BEBF
330
1F
100
AcDbEntity
  8
0
  6
Continuous
 62
     7
370
    15
100
AcDbCircle
 10
704.8514224324081
 20
100.6030791620897
 30
0.0
 40
2.100000000000008
  0
LINE
  5
BEC0
330
1F
100
AcDbEntity
  8
0
  6
Continuous
 62
     7
370
    15
100
AcDbLine
 10
697.7514226023088
 20
104.1030801433512
 30
0.0
 11
711.9514231603573
 21
104.1030801433512
 31
0.0
  0
LINE
  5
BEC1
330
1F
100
AcDbEntity
  8
0
  6
Continuous
 62
     7
370
    15
100
AcDbLine
 10
711.9514231603573
 20
98.1985732513854
 30
0.0
 11
711.9514231603573
 21
96.10307883204908
 31
0.0
  0
LINE
  5
BEC2
330
1F
100
AcDbEntity
  8
0
  6
Continuous
 62
     7
370
    15
100
AcDbLine
 10
711.9514231603573
 20
96.10307883204908
 30
0.0
 11
697.7514226023088
 21
96.10307883204908
 31
0.0
  0
LINE
  5
BEC3
330
1F
100
AcDbEntity
  8
0
  6
Continuous
 62
     7
370
    15
100
AcDbLine
 10
697.7514226023088
 20
96.10307883204908
 30
0.0
 11
697.7514226023088
 21
98.1985732513854
 31
0.0
  0
CIRCLE
  5
BEC4
330
1F
100
AcDbEntity
  8
0
  6
Continuous
 62
     7
370
    15
100
AcDbCircle
 10
704.8514224324081
 20
116.6030791620896
 30
0.0
 40
2.099999999999994
  0
LINE
  5
BEC5
330
1F
100
AcDbEntity
  8
0
  6
Continuous
 62
     7
370
    15
100
AcDbLine
 10
711.9514231603573
 20
113.103079755921
 30
0.0
 11
697.7514226023088
 21
113.103079755921
 31
0.0
  0
LINE
  5
BEC6
330
1F
100
AcDbEntity
  8
0
  6
Continuous
 62
     7
370
    15
100
AcDbLine
 10
697.7514226023088
 20
112.6030787426421
 30
0.0
 11
711.9514231603573
 21
112.6030787426421
 31
0.0
  0
LINE
  5
BEC7
330
1F
100
AcDbEntity
  8
0
  6
Continuous
 62
     7
370
    15
100
AcDbLine
 10
738.2493370246122
 20
175.1725740331599
 30
0.0
 11
745.3493380021284
 21
162.875014503617
 31
0.0
  0
LINE
  5
BEC8
330
1F
100
AcDbEntity
  8
0
  6
Continuous
 62
     7
370
    15
100
AcDbLine
 10
711.9514231603573
 20
104.6030774313399
 30
0.0
 11
697.7514226023088
 21
104.6030774313399
 31
0.0
  0
LINE
  5
BEC9
330
1F
100
AcDbEntity
  8
0
  6
Continuous
 62
     7
370
    15
100
AcDbLine
 10
657.0049093138407
 20
167.1177289980838
 30
0.0
 11
656.5718964707087
 21
167.3677295047233
 31
0.0
  0
LINE
  5
BECA
330
1F
100
AcDbEntity
  8
0
  6
Continuous
 62
     7
370
    15
100
AcDbLine
 10
663.6718955855797
 20
179.6652890342662
 30
0.0
 11
656.5718964707087
 21
167.3677295047233
 31
0.0
  0
LINE
  5
BECB
330
1F
100
AcDbEntity
  8
0
  6
Continuous
 62
     7
370
    15
100
AcDbLine
 10
663.6718955855797
 20
179.6652890342662
 30
0.0
 11
664.1049084287117
 21
179.415292252917
 31
0.0
  0
LINE
  5
BECC
330
1F
100
AcDbEntity
  8
0
  6
Continuous
 62
     7
370
    15
100
AcDbLine
 10
711.9514231603573
 20
95.60307781877012
 30
0.0
 11
697.7514226023088
 21
95.60307781877012
 31
0.0
  0
LINE
  5
BECD
330
1F
100
AcDbEntity
  8
0
  6
Continuous
 62
     7
370
    15
100
AcDbLine
 10
711.9514231603573
 20
95.60307781877012
 30
0.0
 11
711.9514231603573
 21
96.10307883204908
 31
0.0
  0
LINE
  5
BECE
330
1F
100
AcDbEntity
  8
0
  6
Continuous
 62
     7
370
    15
100
AcDbLine
 10
697.7514226023088
 20
96.10307883204908
 30
0.0
 11
697.7514226023088
 21
95.60307781877012
 31
0.0
  0
CIRCLE
  5
BECF
330
1F
100
AcDbEntity
  8
0
  6
Continuous
 62
     7
370
    15
100
AcDbCircle
 10
678.3084288996567
 20
163.0165100859781
 30
0.0
 40
2.099999999999965
  0
LINE
  5
BED0
330
1F
100
AcDbEntity
  8
0
  6
Continuous
 62
     7
370
    15
100
AcDbLine
 10
671.7273403923939
 20
158.6177303987929
 30
0.0
 11
678.8273404385875
 21
170.9152899283359
 31
0.0
  0
LINE
  5
BED1
330
1F
100
AcDbEntity
  8
0
  6
Continuous
 62
     7
370
    15
100
AcDbLine
 10
678.3943275954555
 20
171.1652904349753
 30
0.0
 11
671.2943275492619
 21
158.8677290427873
 31
0.0
  0
CIRCLE
  5
BED2
330
1F
100
AcDbEntity
  8
0
  6
Continuous
 62
     7
370
    15
100
AcDbCircle
 10
731.4070335236672
 20
163.0237948367787
 30
0.0
 40
2.100000000000079
  0
LINE
  5
BED3
330
1F
100
AcDbEntity
  8
0
  6
Continuous
 62
     7
370
    15
100
AcDbLine
 10
730.8881224166582
 20
170.9225747335145
 30
0.0
 11
737.9881233941744
 21
158.6250152039716
 31
0.0
  0
LINE
  5
BED4
330
1F
100
AcDbEntity
  8
0
  6
Continuous
 62
     7
370
    15
100
AcDbLine
 10
738.4211362373064
 20
158.8750138479659
 30
0.0
 11
731.3211352597902
 21
171.172575240154
 31
0.0
  0
CIRCLE
  5
BED5
330
1F
100
AcDbEntity
  8
0
  6
Continuous
 62
     7
370
    15
100
AcDbCircle
 10
671.3802256693811
 20
167.0165100859781
 30
0.0
 40
3.199999999988278
  0
CIRCLE
  5
BED6
330
1F
100
AcDbEntity
  8
0
  6
Continuous
 62
     7
370
    15
100
AcDbCircle
 10
671.3802256693811
 20
167.0165100859781
 30
0.0
 40
3.000000000025131
  0
CIRCLE
  5
BED7
330
1F
100
AcDbEntity
  8
0
  6
Continuous
 62
     7
370
    15
100
AcDbCircle
 10
704.8514224324081
 20
108.6030791620897
 30
0.0
 40
3.199999999897897
  0
CIRCLE
  5
BED8
330
1F
100
AcDbEntity
  8
0
  6
Continuous
 62
     7
370
    15
100
AcDbCircle
 10
738.3352367539428
 20
167.0237948367786
 30
0.0
 40
3.200000000027102
  0
CIRCLE
  5
BED9
330
1F
100
AcDbEntity
  8
0
  6
Continuous
 62
     7
370
    15
100
AcDbCircle
 10
738.3352367539428
 20
167.0237948367786
 30
0.0
 40
2.999999999987279
  0
CIRCLE
  5
BEDA
330
1F
100
AcDbEntity
  8
0
  6
Continuous
 62
     7
370
    15
100
AcDbCircle
 10
704.8514224324081
 20
108.6030791620897
 30
0.0
 40
3.000000000004973
  0
LINE
  5
BEDB
330
1F
100
AcDbEntity
  8
0
  6
Continuous
 62
     7
370
    15
100
AcDbLine
 10
656.4304732751081
 20
167.1227804917285
 30
0.0
 11
658.333370186014
 21
166.0241420912931
 31
0.0
  0
LINE
  5
BEDC
330
1F
100
AcDbEntity
  8
0
  6
Continuous
 62
     7
370
    15
100
AcDbLine
 10
656.4304732751081
 20
167.1227804917285
 30
0.0
 11
656.784025676174
 21
167.7351530242154
 31
0.0
  0
LINE
  5
BEDD
330
1F
100
AcDbEntity
  8
0
  6
Continuous
 62
     7
370
    15
100
AcDbLine
 10
745.9021450053881
 20
179.9175247150848
 30
0.0
 11
743.9866305362413
 21
178.8116015094707
 31
0.0
  0
LINE
  5
BEDE
330
1F
100
AcDbEntity
  8
0
  6
Continuous
 62
     7
370
    15
100
AcDbLine
 10
745.9021450053881
 20
179.9175247150848
 30
0.0
 11
746.2556974064539
 21
179.3051503199527
 31
0.0
  0
LINE
  5
BEDF
330
1F
100
AcDbEntity
  8
0
  6
Continuous
 62
     7
370
    15
100
AcDbLine
 10
751.3694741796682
 20
166.0241420912931
 30
0.0
 11
753.2849849235247
 21
167.1300652969071
 31
0.0
  0
LINE
  5
BEE0
330
1F
100
AcDbEntity
  8
0
  6
Continuous
 62
     7
370
    15
100
AcDbLine
 10
753.2849849235247
 20
167.1300652969071
 30
0.0
 11
752.9314362477491
 21
167.7424378293941
 31
0.0
  0
LINE
  5
BEE1
330
1F
100
AcDbEntity
  8
0
  6
Continuous
 62
     7
370
    15
100
AcDbLine
 10
665.7162138294409
 20
178.8116015094707
 30
0.0
 11
663.813316918535
 21
179.910238047261
 31
0.0
  0
LINE
  5
BEE2
330
1F
100
AcDbEntity
  8
0
  6
Continuous
 62
     7
370
    15
100
AcDbLine
 10
663.813316918535
 20
179.910238047261
 30
0.0
 11
663.4597626548241
 21
179.2978673774192
 31
0.0
  0
LINE
  5
BEE3
330
1F
100
AcDbEntity
  8
0
  6
Continuous
 62
     7
370
    15
100
AcDbLine
 10
697.4685799363981
 20
98.23997240247221
 30
0.0
 11
697.4685799363981
 21
95.60307781877012
 31
0.0
  0
LINE
  5
BEE4
330
1F
100
AcDbEntity
  8
0
  6
Continuous
 62
     7
370
    15
100
AcDbLine
 10
698.1756866011749
 20
95.60307781877012
 30
0.0
 11
697.4685799363981
 21
95.60307781877012
 31
0.0
  0
LINE
  5
BEE5
330
1F
100
AcDbEntity
  8
0
  6
Continuous
 62
     7
370
    15
100
AcDbLine
 10
712.234265826268
 20
95.60307781877012
 30
0.0
 11
712.234265826268
 21
98.23997240247221
 31
0.0
  0
LINE
  5
BEE6
330
1F
100
AcDbEntity
  8
0
  6
Continuous
 62
     7
370
    15
100
AcDbLine
 10
712.234265826268
 20
95.60307781877012
 30
0.0
 11
711.5271591614912
 21
95.60307781877012
 31
0.0
  0
LINE
  5
BEE7
330
1F
100
AcDbEntity
  8
0
  6
Continuous
 62
     7
370
    15
100
AcDbLine
 10
751.5251391600798
 20
165.6241185563991
 30
0.0
 11
753.4971178542803
 21
166.762641777415
 31
0.0
  0
LINE
  5
BEE8
330
1F
100
AcDbEntity
  8
0
  6
Continuous
 62
     7
370
    15
100
AcDbLine
 10
756.0935706865023
 20
162.2654638785312
 30
0.0
 11
753.1635032068918
 21
160.5737909275481
 31
0.0
  0
LINE
  5
BEE9
330
1F
100
AcDbEntity
  8
0
  6
Continuous
 62
     7
370
    15
100
AcDbLine
 10
753.4971178542803
 20
166.762641777415
 30
0.0
 11
756.0935706865023
 21
162.2654638785312
 31
0.0
  0
LINE
  5
BEEA
330
1F
100
AcDbEntity
  8
0
  6
Continuous
 62
     7
370
    15
100
AcDbLine
 10
753.2944993149469
 20
160.0720706927964
 30
0.0
 11
756.3435674678514
 21
161.8324510353992
 31
0.0
  0
LINE
  5
BEEB
330
1F
100
AcDbEntity
  8
0
  6
Continuous
 62
     7
370
    15
100
AcDbLine
 10
756.3435674678514
 20
161.8324510353992
 30
0.0
 11
756.0935706865023
 21
162.2654638785312
 31
0.0
  0
LINE
  5
BEEC
330
1F
100
AcDbEntity
  8
0
  6
Continuous
 62
     7
370
    15
100
AcDbLine
 10
740.1635029386709
 20
183.0904513198325
 30
0.0
 11
743.0935666929911
 21
184.7821242708156
 31
0.0
  0
LINE
  5
BEED
330
1F
100
AcDbEntity
  8
0
  6
Continuous
 62
     7
370
    15
100
AcDbLine
 10
745.6900120746325
 20
180.2849463719318
 30
0.0
 11
743.7180333804319
 21
179.1464231509158
 31
0.0
  0
LINE
  5
BEEE
330
1F
100
AcDbEntity
  8
0
  6
Continuous
 62
     7
370
    15
100
AcDbLine
 10
743.0935666929911
 20
184.7821242708156
 30
0.0
 11
745.6900120746325
 21
180.2849463719318
 31
0.0
  0
LINE
  5
BEEF
330
1F
100
AcDbEntity
  8
0
  6
Continuous
 62
     7
370
    15
100
AcDbLine
 10
739.7944980334471
 20
183.4547549086997
 30
0.0
 11
742.8435661863516
 21
185.2151371139476
 31
0.0
  0
LINE
  5
BEF0
330
1F
100
AcDbEntity
  8
0
  6
Continuous
 62
     7
370
    15
100
AcDbLine
 10
743.0935666929911
 20
184.7821242708156
 30
0.0
 11
742.8435661863516
 21
185.2151371139476
 31
0.0
  0
LINE
  5
BEF1
330
1F
100
AcDbEntity
  8
0
  6
Continuous
 62
     7
370
    15
100
AcDbLine
 10
666.621895230932
 20
184.7748413282821
 30
0.0
 11
669.5393432896564
 21
183.0904513198325
 31
0.0
  0
LINE
  5
BEF2
330
1F
100
AcDbEntity
  8
0
  6
Continuous
 62
     7
370
    15
100
AcDbLine
 10
669.9083481948803
 20
183.4547549086997
 30
0.0
 11
666.8718957375715
 21
185.2078541714141
 31
0.0
  0
LINE
  5
BEF3
330
1F
100
AcDbEntity
  8
0
  6
Continuous
 62
     7
370
    15
100
AcDbLine
 10
666.8718957375715
 20
185.2078541714141
 30
0.0
 11
666.621895230932
 21
184.7748413282821
 31
0.0
  0
LINE
  5
BEF4
330
1F
100
AcDbEntity
  8
0
  6
Continuous
 62
     7
370
    15
100
AcDbLine
 10
665.9848128478954
 20
179.1464231509158
 30
0.0
 11
664.0254479866455
 21
180.2776634293983
 31
0.0
  0
LINE
  5
BEF5
330
1F
100
AcDbEntity
  8
0
  6
Continuous
 62
     7
370
    15
100
AcDbLine
 10
664.0254479866455
 20
180.2776634293983
 30
0.0
 11
666.621895230932
 21
184.7748413282821
 31
0.0
  0
LINE
  5
BEF6
330
1F
100
AcDbEntity
  8
0
  6
Continuous
 62
     7
370
    15
100
AcDbLine
 10
656.5393411587904
 20
160.5737909275481
 30
0.0
 11
653.6218949627111
 21
162.2581790733525
 31
0.0
  0
LINE
  5
BEF7
330
1F
100
AcDbEntity
  8
0
  6
Continuous
 62
     7
370
    15
100
AcDbLine
 10
656.4083487760256
 20
160.0720706927964
 30
0.0
 11
653.3718944560717
 21
161.8251662302205
 31
0.0
  0
LINE
  5
BEF8
330
1F
100
AcDbEntity
  8
0
  6
Continuous
 62
     7
370
    15
100
AcDbLine
 10
653.6218949627111
 20
162.2581790733525
 30
0.0
 11
653.3718944560717
 21
161.8251662302205
 31
0.0
  0
LINE
  5
BEF9
330
1F
100
AcDbEntity
  8
0
  6
Continuous
 62
     7
370
    15
100
AcDbLine
 10
656.2183403443525
 20
166.7553569722364
 30
0.0
 11
658.1777052056025
 21
165.6241185563991
 31
0.0
  0
LINE
  5
BEFA
330
1F
100
AcDbEntity
  8
0
  6
Continuous
 62
     7
370
    15
100
AcDbLine
 10
653.6218949627111
 20
162.2581790733525
 30
0.0
 11
656.2183403443525
 21
166.7553569722364
 31
0.0
  0
LINE
  5
BEFB
330
1F
100
AcDbEntity
  8
0
  6
Continuous
 62
     7
370
    15
100
AcDbLine
 10
718.3514216016958
 20
99.54889040173979
 30
0.0
 11
718.3514216016958
 21
95.60307781877012
 31
0.0
  0
LINE
  5
BEFC
330
1F
100
AcDbEntity
  8
0
  6
Continuous
 62
     7
370
    15
100
AcDbLine
 10
717.851422451062
 20
99.41147561850042
 30
0.0
 11
717.851422451062
 21
95.60307781877012
 31
0.0
  0
LINE
  5
BEFD
330
1F
100
AcDbEntity
  8
0
  6
Continuous
 62
     7
370
    15
100
AcDbLine
 10
717.851422451062
 20
95.60307781877012
 30
0.0
 11
718.3514216016958
 21
95.60307781877012
 31
0.0
  0
LINE
  5
BEFE
330
1F
100
AcDbEntity
  8
0
  6
Continuous
 62
     7
370
    15
100
AcDbLine
 10
656.4304732751081
 20
167.1227804917285
 30
0.0
 11
656.2183403443525
 21
166.7553569722364
 31
0.0
  0
LINE
  5
BEFF
330
1F
100
AcDbEntity
  8
0
  6
Continuous
 62
     7
370
    15
100
AcDbLine
 10
664.0254479866455
 20
180.2776634293983
 30
0.0
 11
663.813316918535
 21
179.910238047261
 31
0.0
  0
LINE
  5
BF00
330
1F
100
AcDbEntity
  8
0
  6
Continuous
 62
     7
370
    15
100
AcDbLine
 10
712.6585298251341
 20
95.60307781877012
 30
0.0
 11
712.6585298251341
 21
98.30517615856619
 31
0.0
  0
LINE
  5
BF01
330
1F
100
AcDbEntity
  8
0
  6
Continuous
 62
     7
370
    15
100
AcDbLine
 10
717.851422451062
 20
95.60307781877012
 30
0.0
 11
712.6585298251341
 21
95.60307781877012
 31
0.0
  0
LINE
  5
BF02
330
1F
100
AcDbEntity
  8
0
  6
Continuous
 62
     7
370
    15
100
AcDbLine
 10
745.9021450053881
 20
179.9175247150848
 30
0.0
 11
745.6900120746325
 21
180.2849463719318
 31
0.0
  0
LINE
  5
BF03
330
1F
100
AcDbEntity
  8
0
  6
Continuous
 62
     7
370
    15
100
AcDbLine
 10
753.4971178542803
 20
166.762641777415
 30
0.0
 11
753.2849849235247
 21
167.1300652969071
 31
0.0
  0
LINE
  5
BF04
330
1F
100
AcDbEntity
  8
0
  6
Continuous
 62
     7
370
    15
100
AcDbLine
 10
712.234265826268
 20
95.60307781877012
 30
0.0
 11
712.6585298251341
 21
95.60307781877012
 31
0.0
  0
LINE
  5
BF05
330
1F
100
AcDbEntity
  8
0
  6
Continuous
 62
     7
370
    15
100
AcDbLine
 10
697.0443154718707
 20
98.30517615856619
 30
0.0
 11
697.0443154718707
 21
95.60307781877012
 31
0.0
  0
LINE
  5
BF06
330
1F
100
AcDbEntity
  8
0
  6
Continuous
 62
     7
370
    15
100
AcDbLine
 10
697.0443154718707
 20
95.60307781877012
 30
0.0
 11
697.4685799363981
 21
95.60307781877012
 31
0.0
  0
LINE
  5
BF07
330
1F
100
AcDbEntity
  8
0
  6
Continuous
 62
     7
370
    15
100
AcDbLine
 10
691.8514223802815
 20
95.60307781877012
 30
0.0
 11
691.8514223802815
 21
99.41147561850042
 31
0.0
  0
LINE
  5
BF08
330
1F
100
AcDbEntity
  8
0
  6
Continuous
 62
     7
370
    15
100
AcDbLine
 10
697.0443154718707
 20
95.60307781877012
 30
0.0
 11
691.8514223802815
 21
95.60307781877012
 31
0.0
  0
LINE
  5
BF09
330
1F
100
AcDbEntity
  8
0
  6
Continuous
 62
     7
370
    15
100
AcDbLine
 10
691.3514224147404
 20
99.54889040173979
 30
0.0
 11
691.3514224147404
 21
95.60307781877012
 31
0.0
  0
LINE
  5
BF0A
330
1F
100
AcDbEntity
  8
0
  6
Continuous
 62
     7
370
    15
100
AcDbLine
 10
691.3514224147404
 20
95.60307781877012
 30
0.0
 11
691.8514223802815
 21
95.60307781877012
 31
0.0
  0
CIRCLE
  5
BF0B
330
1F
100
AcDbEntity
  8
0
  6
Continuous
 62
     7
370
    15
100
AcDbCircle
 10
665.8802792621079
 20
125.1919056247458
 30
0.0
 40
3.300000000000011
  0
ARC
  5
BF0C
330
1F
100
AcDbEntity
  8
0
  6
Continuous
 62
     7
370
    15
100
AcDbCircle
 10
704.8514224324081
 20
147.6919056247455
 30
0.0
 40
50.00000000000005
100
AcDbArc
 50
203.6846844306431
 51
216.3153155693561
  0
CIRCLE
  5
BF0D
330
1F
100
AcDbEntity
  8
0
  6
Continuous
 62
     7
370
    15
100
AcDbCircle
 10
704.8514224324081
 20
192.6919056247454
 30
0.0
 40
3.300000000000011
  0
ARC
  5
BF0E
330
1F
100
AcDbEntity
  8
0
  6
Continuous
 62
     7
370
    15
100
AcDbCircle
 10
704.8514224324081
 20
147.6919056247455
 30
0.0
 40
49.99999999999998
100
AcDbArc
 50
83.68468443064186
 51
96.31531556935815
  0
CIRCLE
  5
BF0F
330
1F
100
AcDbEntity
  8
0
  6
Continuous
 62
     7
370
    15
100
AcDbCircle
 10
743.8225656027075
 20
125.1919056247453
 30
0.0
 40
3.300000000000011
  0
ARC
  5
BF10
330
1F
100
AcDbEntity
  8
0
  6
Continuous
 62
     7
370
    15
100
AcDbCircle
 10
704.8514224324081
 20
147.6919056247455
 30
0.0
 40
50.0
100
AcDbArc
 50
323.6846844306439
 51
336.3153155693569
  0
ENDSEC
  0
SECTION
  2
OBJECTS
  0
DICTIONARY
  5
C
330
0
100
AcDbDictionary
281
     1
  3
ACAD_COLOR
350
BE
  3
ACAD_GROUP
350
D
  3
ACAD_LAYOUT
350
1A
  3
ACAD_MATERIAL
350
BD
  3
ACAD_MLINESTYLE
350
17
  3
ACAD_PLOTSETTINGS
350
19
  3
ACAD_PLOTSTYLENAME
350
E
  3
ACAD_TABLESTYLE
350
11A
  3
AcadDim
350
7BA5
  3
ACDBHEADERROUNDTRIPXREC
350
C2DF
  3
AcDbVariableDictionary
350
94
  3
AcmDictionary
350
5B
  3
AMG
350
41
  3
AMGSNAPSETTINGS
350
1B8
  3
ASE_INDEX_DICTIONARY
350
AFCA
  3
DWGPROPS
350
C2DE
  3
MAPISURF_MODULE
350
7C9D
  0
DICTIONARY
  5
3F9
330
2
100
AcDbDictionary
280
     1
281
     1
  3
ACAD_LAYERFILTERS
360
99D5
  3
ACAD_LAYERSTATES
360
CA0
  3
ACLYDICTIONARY
360
99D4
  3
AMLAYER_GROUPCOLORS
360
18A7
  0
DICTIONARY
  5
8F
330
1F
100
AcDbDictionary
280
     1
281
     1
  3
ACAD_INDEX
360
B065
  3
ACAD_SORTENTS
360
18D9
  0
DICTIONARY
  5
7CF3
330
7CF2
100
AcDbDictionary
280
     1
281
     1
  0
DICTIONARY
  5
A58B
330
A57E
100
AcDbDictionary
280
     1
281
     1
  3
ACAD_DIMASSOC
360
A58C
  0
DICTIONARY
  5
BE
102
{ACAD_REACTORS
330
C
102
}
330
C
100
AcDbDictionary
281
     1
  0
DICTIONARY
  5
D
102
{ACAD_REACTORS
330
C
102
}
330
C
100
AcDbDictionary
281
     1
  0
DICTIONARY
  5
1A
102
{ACAD_REACTORS
330
C
102
}
330
C
100
AcDbDictionary
281
     1
  3
Model
350
22
  3
配置1
350
1E
  3
配置2
350
26
  0
DICTIONARY
  5
BD
102
{ACAD_REACTORS
330
C
102
}
330
C
100
AcDbDictionary
281
     1
  0
DICTIONARY
  5
17
102
{ACAD_REACTORS
330
C
102
}
330
C
100
AcDbDictionary
281
     1
  3
Standard
350
18
  0
DICTIONARY
  5
19
102
{ACAD_REACTORS
330
C
102
}
330
C
100
AcDbDictionary
281
     1
  0
ACDBDICTIONARYWDFLT
  5
E
102
{ACAD_REACTORS
330
C
102
}
330
C
100
AcDbDictionary
281
     1
  3
Normal
350
F
100
AcDbDictionaryWithDefault
340
F
  0
DICTIONARY
  5
11A
102
{ACAD_REACTORS
330
C
102
}
330
C
100
AcDbDictionary
281
     1
  3
Standard
350
11B
  0
XRECORD
  5
7BA5
102
{ACAD_REACTORS
330
C
102
}
330
C
100
AcDbXrecord
280
     1
 90
   990106
  3

 60
     4
 61
     0
 62
     4
 63
     4
 64
     1
 65
     0
 66
     0
 67
     3
 68
     0
 69
     0
 70
     0
 71
     0
 72
     0
 40
0.0
170
     0
340
7BA1
  0
DICTIONARY
  5
C2DF
102
{ACAD_REACTORS
330
C
102
}
330
C
100
AcDbDictionary
281
     1
  0
DICTIONARY
  5
94
102
{ACAD_REACTORS
330
C
102
}
330
C
100
AcDbDictionary
281
     1
  3
CTABLESTYLE
350
138
  3
DIMASSOC
350
96
  3
INDEXCTL
350
95
  3
PROJECTNAME
350
1BA0
  0
DICTIONARY
  5
5B
102
{ACAD_REACTORS
330
C
102
}
330
C
100
AcDbDictionary
281
     1
  3
AcmBOM
350
1B5
  3
AcmStdDictionary
350
61
  3
AMDTSECTSYM_ARROWCOLOR
350
123
  0
DICTIONARY
  5
41
102
{ACAD_REACTORS
330
C
102
}
330
C
100
AcDbDictionary
281
     1
  3
AcMgSettings
350
7C17
  0
DICTIONARY
  5
1B8
102
{ACAD_REACTORS
330
C
102
}
330
C
100
AcDbDictionary
281
     1
  0
DICTIONARY
  5
AFCA
102
{ACAD_REACTORS
330
C
102
}
330
C
100
AcDbDictionary
281
     1
  3
ASEBlockHierarchyIndexRecord
350
AFCB
1001
DCO15
1040
1757073594.046
  0
XRECORD
  5
C2DE
102
{ACAD_REACTORS
330
C
102
}
330
C
100
AcDbXrecord
280
     1
  1
DWGPROPS COOKIE
  2

  3

  4

  6

  7

  8

  9

300
AmdtFileType=84
301
=
302
=
303
=
304
=
305
=
306
=
307
=
308
=
309
=
 40
1.119901111111111
 41
2454422.344345151
 42
2456140.35871853
  1

 90
        1
  0
DICTIONARY
  5
99D5
102
{ACAD_REACTORS
330
3F9
102
}
330
3F9
100
AcDbDictionary
281
     1
  0
DICTIONARY
  5
CA0
102
{ACAD_REACTORS
330
3F9
102
}
330
3F9
100
AcDbDictionary
281
     1
  0
DICTIONARY
  5
99D4
102
{ACAD_REACTORS
330
3F9
102
}
330
3F9
100
AcDbDictionary
281
     1
1001
ACAD
1000
<All
  0
DICTIONARY
  5
18A7
102
{ACAD_REACTORS
330
3F9
102
}
330
3F9
100
AcDbDictionary
280
     1
281
     1
  0
DICTIONARY
  5
B065
102
{ACAD_REACTORS
330
8F
102
}
330
8F
100
AcDbDictionary
281
     1
  3
*A1
350
B066
  0
SORTENTSTABLE
  5
18D9
102
{ACAD_REACTORS
330
8F
102
}
330
8F
100
AcDbSortentsTable
330
1F
331
15F2
  5
15F2
331
15A2
  5
15A2
331
15C0
  5
15C0
331
15DE
  5
15DE
331
15AD
  5
15AD
331
15E9
  5
15E9
331
1599
  5
1599
331
15F3
  5
15F3
331
15C1
  5
15C1
331
15A3
  5
15A3
331
15DF
  5
15DF
331
15AE
  5
15AE
331
15CC
  5
15CC
331
15EA
  5
15EA
331
159A
  5
159A
331
15B8
  5
15B8
331
15D6
  5
15D6
331
15F4
  5
15F4
331
15E0
  5
15E0
331
15A4
  5
15A4
331
15C2
  5
15C2
331
15AF
  5
15AF
331
15EB
  5
15EB
331
15B9
  5
15B9
331
159B
  5
159B
331
15D7
  5
15D7
331
15F5
  5
15F5
331
15E1
  5
15E1
331
15A5
  5
15A5
331
15C3
  5
15C3
331
15B0
  5
15B0
331
15EC
  5
15EC
331
15D8
  5
15D8
331
159C
  5
159C
331
15F6
  5
15F6
331
15A6
  5
15A6
331
15C4
  5
15C4
331
15E2
  5
15E2
331
15ED
  5
15ED
331
15D9
  5
15D9
331
159D
  5
159D
331
15F7
  5
15F7
331
15A7
  5
15A7
331
15E3
  5
15E3
331
15A8
  5
15A8
331
15D0
  5
15D0
331
15EE
  5
15EE
331
15F8
  5
15F8
331
159E
  5
159E
331
15DA
  5
15DA
331
15E4
  5
15E4
331
15A9
  5
15A9
331
15D1
  5
15D1
331
159F
  5
159F
331
15BD
  5
15BD
331
15DB
  5
15DB
331
15F9
  5
15F9
331
15E5
  5
15E5
331
7BA1
  5
7BA1
331
15C8
  5
15C8
331
15AA
  5
15AA
331
15F0
  5
15F0
331
15B4
  5
15B4
331
15D2
  5
15D2
331
15A0
  5
15A0
331
15BE
  5
15BE
331
15DC
  5
15DC
331
15FA
  5
15FA
331
15E6
  5
15E6
331
15AB
  5
15AB
331
15F1
  5
15F1
331
15A1
  5
15A1
331
15BF
  5
15BF
331
15DD
  5
15DD
331
15FB
  5
15FB
331
15E7
  5
15E7
331
15E8
  5
15E8
331
15AC
  5
15AC
  0
DIMASSOC
  5
A58C
102
{ACAD_REACTORS
330
A58B
102
}
330
A58B
100
AcDbDimAssoc
330
A57E
 90
        1
 70
     0
 71
     0
  1
AcDbOsnapPointRef
 72
     1
331
99DA
 73
     0
 91
        0
 40
0.0
 10
0.0
 20
0.0
 30
2.000000000000000E+50
 75
     0
  0
LAYOUT
  5
22
102
{ACAD_XDICTIONARY
360
C2E2
102
}
102
{ACAD_REACTORS
330
1A
102
}
330
1A
100
AcDbPlotSettings
  1

  2
\\RD\EPSON Stylus C63 Series單色
  4
A4
  6

 40
3.757083177566528
 41
3.757076978683471
 42
3.757080078125
 43
3.757080078125
 44
209.9733276367187
 45
296.9683227539062
 46
0.0
 47
0.0
 48
0.0
 49
0.0
140
0.0
141
0.0
142
1.0
143
0.3405120737814363
 70
 11952
 72
     1
 73
     0
 74
     0
  7
acad.ctb
 75
     0
147
2.936753428137963
148
-2047.07469463503
149
-1261.649717473083
100
AcDbLayout
  1
Model
 70
     1
 71
     0
 10
0.0
 20
0.0
 11
12.0
 21
9.0
 12
0.0
 22
0.0
 32
0.0
 14
0.0
 24
0.0
 34
0.0
 15
0.0
 25
0.0
 35
0.0
146
0.0
 13
0.0
 23
0.0
 33
0.0
 16
1.0
 26
0.0
 36
0.0
 17
0.0
 27
1.0
 37
0.0
 76
     0
330
1F
1001
ACAD_PSEXT
1000
\\RD\EPSON Stylus C63 Series單色
1000
EPSON Stylus C63 Series
1000
\\RD
1000

1070
     0
  0
LAYOUT
  5
1E
102
{ACAD_XDICTIONARY
360
C2E0
102
}
102
{ACAD_REACTORS
330
1A
102
}
330
1A
100
AcDbPlotSettings
  1

  2

  4

  6

 40
0.0
 41
0.0
 42
0.0
 43
0.0
 44
0.0
 45
0.0
 46
0.0
 47
0.0
 48
0.0
 49
0.0
140
0.0
141
0.0
142
1.0
143
1.0
 70
   688
 72
     0
 73
     0
 74
     5
  7
acad.ctb
 75
    16
147
1.0
148
0.0
149
0.0
100
AcDbLayout
  1
配置1
 70
     1
 71
     1
 10
0.0
 20
0.0
 11
420.0
 21
297.0
 12
0.0
 22
0.0
 32
0.0
 14
1.000000000000000E+20
 24
1.000000000000000E+20
 34
1.000000000000000E+20
 15
-1.000000000000000E+20
 25
-1.000000000000000E+20
 35
-1.000000000000000E+20
146
0.0
 13
0.0
 23
0.0
 33
0.0
 16
1.0
 26
0.0
 36
0.0
 17
0.0
 27
1.0
 37
0.0
 76
     0
330
1B
  0
LAYOUT
  5
26
102
{ACAD_XDICTIONARY
360
C2E4
102
}
102
{ACAD_REACTORS
330
1A
102
}
330
1A
100
AcDbPlotSettings
  1

  2

  4

  6

 40
0.0
 41
0.0
 42
0.0
 43
0.0
 44
0.0
 45
0.0
 46
0.0
 47
0.0
 48
0.0
 49
0.0
140
0.0
141
0.0
142
1.0
143
1.0
 70
   688
 72
     0
 73
     0
 74
     5
  7
acad.ctb
 75
    16
147
1.0
148
0.0
149
0.0
100
AcDbLayout
  1
配置2
 70
     1
 71
     2
 10
0.0
 20
0.0
 11
12.0
 21
9.0
 12
0.0
 22
0.0
 32
0.0
 14
0.0
 24
0.0
 34
0.0
 15
0.0
 25
0.0
 35
0.0
146
0.0
 13
0.0
 23
0.0
 33
0.0
 16
1.0
 26
0.0
 36
0.0
 17
0.0
 27
1.0
 37
0.0
 76
     0
330
23
  0
MLINESTYLE
  5
18
102
{ACAD_REACTORS
330
17
102
}
330
17
100
AcDbMlineStyle
  2
STANDARD
 70
     0
  3

 62
   256
 51
90.0
 52
90.0
 71
     2
 49
0.5
 62
   256
  6
BYLAYER
 49
-0.5
 62
   256
  6
BYLAYER
  0
ACDBPLACEHOLDER
  5
F
102
{ACAD_REACTORS
330
E
102
}
330
E
  0
TABLESTYLE
  5
11B
102
{ACAD_REACTORS
330
11A
102
}
330
11A
100
AcDbTableStyle
  3
Standard
 70
     0
 71
     0
 40
1.5
 41
1.5
280
     0
281
     0
  7
STANDARD
140
4.5
170
     2
 62
     0
 63
     7
283
     0
274
    -2
284
     1
 64
     0
275
    -2
285
     1
 65
     0
276
    -2
286
     1
 66
     0
277
    -2
287
     1
 67
     0
278
    -2
288
     1
 68
     0
279
    -2
289
     1
 69
     0
  7
STANDARD
140
6.0
170
     5
 62
     0
 63
     7
283
     0
274
    -2
284
     1
 64
     0
275
    -2
285
     1
 65
     0
276
    -2
286
     1
 66
     0
277
    -2
287
     1
 67
     0
278
    -2
288
     1
 68
     0
279
    -2
289
     1
 69
     0
  7
STANDARD
140
4.5
170
     5
 62
     0
 63
     7
283
     0
274
    -2
284
     1
 64
     0
275
    -2
285
     1
 65
     0
276
    -2
286
     1
 66
     0
277
    -2
287
     1
 67
     0
278
    -2
288
     1
 68
     0
279
    -2
289
     1
 69
     0
  0
DICTIONARYVAR
  5
138
102
{ACAD_REACTORS
330
94
102
}
330
94
100
DictionaryVariables
280
     0
  1
STANDARD
  0
DICTIONARYVAR
  5
96
102
{ACAD_REACTORS
330
94
102
}
330
94
100
DictionaryVariables
280
     0
  1
2
  0
DICTIONARYVAR
  5
95
102
{ACAD_REACTORS
330
94
102
}
330
94
100
DictionaryVariables
280
     0
  1
1
  0
DICTIONARYVAR
  5
1BA0
102
{ACAD_REACTORS
330
94
102
}
330
94
100
DictionaryVariables
280
     0
  1

  0
DICTIONARY
  5
1B5
102
{ACAD_REACTORS
330
5B
102
}
330
5B
100
AcDbDictionary
281
     1
  0
DICTIONARY
  5
61
102
{ACAD_REACTORS
330
5B
102
}
330
5B
100
AcDbDictionary
281
     1
  0
XRECORD
  5
123
102
{ACAD_REACTORS
330
5B
102
}
330
5B
100
AcDbXrecord
280
     1
 90
-1023410169
  0
DICTIONARY
  5
7C17
102
{ACAD_REACTORS
330
41
102
}
330
41
100
AcDbDictionary
281
     1
  3
DWGSETTINGS
350
7C18
  3
Shaft
350
8D15
  3
TRANSSETTINGS
350
7C1B
  0
XRECORD
  5
AFCB
102
{ACAD_REACTORS
330
AFCA
102
}
330
AFCA
100
AcDbXrecord
280
     1
330
0
330
0
330
0
330
0
330
0
330
0
330
0
330
0
330
0
330
0
330
0
330
0
330
0
330
0
330
0
330
0
330
0
330
0
330
0
330
0
330
0
330
0
330
0
330
0
330
0
330
0
330
0
330
0
330
0
330
0
330
0
330
0
330
0
330
0
330
0
330
0
330
0
330
0
330
0
330
0
330
0
330
0
330
0
330
0
330
0
  0
LAYER_INDEX
  5
B066
102
{ACAD_REACTORS
330
B065
102
}
330
B065
100
AcDbIndex
 40
2456140.35871853
100
AcDbLayerIndex
  8
0
360
B067
 90
      394
  8
Defpoints
360
B068
 90
        0
  8
AM_5
360
B069
 90
        0
  8
AM_4
360
B06A
 90
        0
  8
AM_VIS
360
B06B
 90
        1
  8
AM_HID
360
B06C
 90
        0
  8
AM_7
360
B06D
 90
        2
  8
LOGO
360
B06E
 90
       90
  8
AM_REFDIM
360
B06F
 90
       15
  8
CEN
360
B070
 90
        0
  8
HATCH
360
B071
 90
        0
  8
SL
360
B072
 90
        0
  8
AM_10
360
B073
 90
        0
  0
DICTIONARY
  5
C2E2
330
22
100
AcDbDictionary
280
     1
281
     1
  3
ACAD_XREC_ROUNDTRIP
360
C2E3
  0
DICTIONARY
  5
C2E0
330
1E
100
AcDbDictionary
280
     1
281
     1
  3
ACAD_XREC_ROUNDTRIP
360
C2E1
  0
DICTIONARY
  5
C2E4
330
26
100
AcDbDictionary
280
     1
281
     1
  3
ACAD_XREC_ROUNDTRIP
360
C2E5
  0
IDBUFFER
  5
B067
330
0
100
AcDbIdBuffer
330
16B4
330
16B5
330
16B6
330
BD8A
330
BD8B
330
BD8C
330
BD8D
330
BD8E
330
BD8F
330
BD90
330
BD91
330
BD92
330
BD93
330
BD94
330
BD95
330
BD96
330
BD97
330
BD98
330
BD99
330
BD9A
330
BD9B
330
BD9C
330
BD9D
330
BD9E
330
BD9F
330
BDA0
330
BDA1
330
BDA2
330
BDA3
330
BDA4
330
BDA5
330
BDA6
330
BDA7
330
BDA8
330
BDA9
330
BDAA
330
BDAB
330
BDAC
330
BDAD
330
BDAE
330
BDAF
330
BDB0
330
BDB1
330
BDB2
330
BDB3
330
BDB4
330
BDB5
330
BDB6
330
BDB7
330
BDB8
330
BDB9
330
BDBA
330
BDBB
330
BDBC
330
BDBD
330
BDBE
330
BDBF
330
BDC0
330
BDC1
330
BDC2
330
BDC3
330
BDC4
330
BDC5
330
BDC6
330
BDC7
330
BDC8
330
BDC9
330
BDCA
330
BDCB
330
BDCC
330
BDCD
330
BDCE
330
BDCF
330
BDD0
330
BDD1
330
BDD2
330
BDD3
330
BDD4
330
BDD5
330
BDD6
330
BDD7
330
BDD8
330
BDD9
330
BDDA
330
BDDB
330
BDDC
330
BDDD
330
BDDE
330
BDDF
330
BDE0
330
BDE1
330
BDE2
330
BDE3
330
BDE4
330
BDE5
330
BDE6
330
BDE7
330
BDE8
330
BDE9
330
BDEA
330
BDEB
330
BDEC
330
BDED
330
BDEE
330
BDEF
330
BDF0
330
BDF1
330
BDF2
330
BDF3
330
BDF4
330
BDF5
330
BDF6
330
BDF7
330
BDF8
330
BDF9
330
BDFA
330
BDFB
330
BDFC
330
BDFD
330
BDFE
330
BDFF
330
BE00
330
BE01
330
BE02
330
BE03
330
BE04
330
BE05
330
BE06
330
BE07
330
BE08
330
BE09
330
BE0A
330
BE0B
330
BE0C
330
BE0D
330
BE0E
330
BE0F
330
BE10
330
BE11
330
BE12
330
BE13
330
BE14
330
BE15
330
BE16
330
BE17
330
BE18
330
BE19
330
BE1A
330
BE1B
330
BE1C
330
BE1D
330
BE1E
330
BE1F
330
BE20
330
BE21
330
BE22
330
BE23
330
BE24
330
BE25
330
BE26
330
BE27
330
BE28
330
BE29
330
BE2A
330
BE2B
330
BE2C
330
BE2D
330
BE2E
330
BE2F
330
BE30
330
BE31
330
BE32
330
BE33
330
BE34
330
BE35
330
BE36
330
BE37
330
BE38
330
BE39
330
BE3A
330
BE3B
330
BE3C
330
BE3D
330
BE3E
330
BE3F
330
BE40
330
BE41
330
BE42
330
BE43
330
BE44
330
BE45
330
BE46
330
BE47
330
BE48
330
BE49
330
BE4A
330
BE4B
330
BE4C
330
BE4D
330
BE4E
330
BE4F
330
BE50
330
BE51
330
BE52
330
BE53
330
BE54
330
BE55
330
BE56
330
BE57
330
BE58
330
BE59
330
BE5A
330
BE5B
330
BE5C
330
BE5D
330
BE5E
330
BE5F
330
BE60
330
BE61
330
BE62
330
BE63
330
BE64
330
BE65
330
BE66
330
BE67
330
BE68
330
BE69
330
BE6A
330
BE6B
330
BE6C
330
BE6D
330
BE6E
330
BE6F
330
BE70
330
BE71
330
BE72
330
BE73
330
BE74
330
BE75
330
BE76
330
BE77
330
BE78
330
BE79
330
BE7A
330
BE7B
330
BE7C
330
BE7D
330
BE7E
330
BE7F
330
BE80
330
BE81
330
BE82
330
BE83
330
BE84
330
BE85
330
BE86
330
BE87
330
BE88
330
BE89
330
BE8A
330
BE8B
330
BE8C
330
BE8D
330
BE8E
330
BE8F
330
BE90
330
BE91
330
BE92
330
BE93
330
BE94
330
BE95
330
BE96
330
BE97
330
BE98
330
BE99
330
BE9A
330
BE9B
330
BE9C
330
BE9D
330
BE9E
330
BE9F
330
BEA0
330
BEA1
330
BEA2
330
BEA3
330
BEA4
330
BEA5
330
BEA6
330
BEA7
330
BEA8
330
BEA9
330
BEAA
330
BEAB
330
BEAC
330
BEAD
330
BEAE
330
BEAF
330
BEB0
330
BEB1
330
BEB2
330
BEB3
330
BEB4
330
BEB5
330
BEB6
330
BEB7
330
BEB8
330
BEB9
330
BEBA
330
BEBB
330
BEBC
330
BEBD
330
BEBE
330
BEBF
330
BEC0
330
BEC1
330
BEC2
330
BEC3
330
BEC4
330
BEC5
330
BEC6
330
BEC7
330
BEC8
330
BEC9
330
BECA
330
BECB
330
BECC
330
BECD
330
BECE
330
BECF
330
BED0
330
BED1
330
BED2
330
BED3
330
BED4
330
BED5
330
BED6
330
BED7
330
BED8
330
BED9
330
BEDA
330
BEDB
330
BEDC
330
BEDD
330
BEDE
330
BEDF
330
BEE0
330
BEE1
330
BEE2
330
BEE3
330
BEE4
330
BEE5
330
BEE6
330
BEE7
330
BEE8
330
BEE9
330
BEEA
330
BEEB
330
BEEC
330
BEED
330
BEEE
330
BEEF
330
BEF0
330
BEF1
330
BEF2
330
BEF3
330
BEF4
330
BEF5
330
BEF6
330
BEF7
330
BEF8
330
BEF9
330
BEFA
330
BEFB
330
BEFC
330
BEFD
330
BEFE
330
BEFF
330
BF00
330
BF01
330
BF02
330
BF03
330
BF04
330
BF05
330
BF06
330
BF07
330
BF08
330
BF09
330
BF0A
330
BF0B
330
BF0C
330
BF0D
330
BF0E
330
BF0F
330
BF10
  0
IDBUFFER
  5
B068
330
0
100
AcDbIdBuffer
  0
IDBUFFER
  5
B069
330
0
100
AcDbIdBuffer
  0
IDBUFFER
  5
B06A
330
0
100
AcDbIdBuffer
  0
IDBUFFER
  5
B06B
330
0
100
AcDbIdBuffer
330
7BA1
  0
IDBUFFER
  5
B06C
330
0
100
AcDbIdBuffer
  0
IDBUFFER
  5
B06D
330
0
100
AcDbIdBuffer
330
99DA
330
99DB
  0
IDBUFFER
  5
B06E
330
0
100
AcDbIdBuffer
330
1599
330
159A
330
159B
330
159C
330
159D
330
159E
330
159F
330
15A0
330
15A1
330
15A2
330
15A3
330
15A4
330
15A5
330
15A6
330
15A7
330
15A8
330
15A9
330
15AA
330
15AB
330
15AC
330
15AD
330
15AE
330
15AF
330
15B0
330
15B4
330
15B8
330
15B9
330
15BD
330
15BE
330
15BF
330
15C0
330
15C1
330
15C2
330
15C3
330
15C4
330
15C8
330
15CC
330
15D0
330
15D1
330
15D2
330
15D6
330
15D7
330
15D8
330
15D9
330
15DA
330
15DB
330
15DC
330
15DD
330
15DE
330
15DF
330
15E0
330
15E1
330
15E2
330
15E3
330
15E4
330
15E5
330
15E6
330
15E7
330
15E8
330
15E9
330
15EA
330
15EB
330
15EC
330
15ED
330
15EE
330
15F0
330
15F1
330
15F2
330
15F3
330
15F4
330
15F5
330
15F6
330
15F7
330
15F8
330
15F9
330
15FA
330
15FB
330
9C94
330
9C95
330
9C96
330
9C97
330
9C98
330
9C99
330
9C9A
330
9C9B
330
9C9C
330
9C9E
330
9C9F
330
9CA0
330
9CA2
  0
IDBUFFER
  5
B06F
330
0
100
AcDbIdBuffer
330
A516
330
A540
330
A57E
330
A622
330
A67B
330
A6A1
330
A724
330
A77B
330
A7A5
330
A7CB
330
A889
330
A88C
330
A890
330
A895
330
B250
  0
IDBUFFER
  5
B070
330
0
100
AcDbIdBuffer
  0
IDBUFFER
  5
B071
330
0
100
AcDbIdBuffer
  0
IDBUFFER
  5
B072
330
0
100
AcDbIdBuffer
  0
IDBUFFER
  5
B073
330
0
100
AcDbIdBuffer
  0
XRECORD
  5
C2E3
102
{ACAD_REACTORS
330
C2E2
102
}
330
C2E2
100
AcDbXrecord
280
     1
102
SHADEPLOT
 70
     0
102
SHADEPLOTRESLEVEL
 70
     2
102
SHADEPLOTCUSTOMDPI
 70
   300
  0
XRECORD
  5
C2E1
102
{ACAD_REACTORS
330
C2E0
102
}
330
C2E0
100
AcDbXrecord
280
     1
102
SHADEPLOT
 70
     0
102
SHADEPLOTRESLEVEL
 70
     2
102
SHADEPLOTCUSTOMDPI
 70
   300
  0
XRECORD
  5
C2E5
102
{ACAD_REACTORS
330
C2E4
102
}
330
C2E4
100
AcDbXrecord
280
     1
102
SHADEPLOT
 70
     0
102
SHADEPLOTRESLEVEL
 70
     2
102
SHADEPLOTCUSTOMDPI
 70
   300
  0
ENDSEC
  0
EOF
