  0
SECTION
  2
HEADER
  9
$ACADVER
  1
AC1015
  9
$ACADMAINTVER
 70
    20
  9
$DWGCODEPAGE
  3
ANSI_950
  9
$INSBASE
 10
0.0
 20
0.0
 30
0.0
  9
$EXTMIN
 10
950.2153358679079
 20
199.5248020925448
 30
-0.0156349355596603
  9
$EXTMAX
 10
1613.572486395019
 20
674.1941365996021
 30
265.2356086956313
  9
$LIMMIN
 10
0.0
 20
0.0
  9
$LIMMAX
 10
0.0
 20
0.0
  9
$ORTHOMODE
 70
     0
  9
$REGENMODE
 70
     1
  9
$FILLMODE
 70
     1
  9
$QTEXTMODE
 70
     0
  9
$MIRRTEXT
 70
     1
  9
$LTSCALE
 40
1.0
  9
$ATTMODE
 70
     1
  9
$TEXTSIZE
 40
3.5
  9
$TRACEWID
 40
0.05
  9
$TEXTSTYLE
  7
STANDARD
  9
$CLAYER
  8
0
  9
$CELTYPE
  6
CONTINUOUS
  9
$CECOLOR
 62
   256
  9
$CELTSCALE
 40
1.0
  9
$DISPSILH
 70
     0
  9
$DIMSCALE
 40
1.0
  9
$DIMASZ
 40
3.0
  9
$DIMEXO
 40
1.0
  9
$DIMDLI
 40
6.5
  9
$DIMRND
 40
0.0
  9
$DIMDLE
 40
0.0
  9
$DIMEXE
 40
1.0
  9
$DIMTP
 40
0.1
  9
$DIMTM
 40
0.1
  9
$DIMTXT
 40
3.5
  9
$DIMCEN
 40
0.0
  9
$DIMTSZ
 40
0.0
  9
$DIMTOL
 70
     0
  9
$DIMLIM
 70
     0
  9
$DIMTIH
 70
     0
  9
$DIMTOH
 70
     0
  9
$DIMSE1
 70
     0
  9
$DIMSE2
 70
     0
  9
$DIMTAD
 70
     1
  9
$DIMZIN
 70
     8
  9
$DIMBLK
  1

  9
$DIMASO
 70
     1
  9
$DIMSHO
 70
     1
  9
$DIMPOST
  1

  9
$DIMAPOST
  1
"
  9
$DIMALT
 70
     0
  9
$DIMALTD
 70
     2
  9
$DIMALTF
 40
0.0393701
  9
$DIMLFAC
 40
1.0
  9
$DIMTOFL
 70
     1
  9
$DIMTVP
 40
0.0
  9
$DIMTIX
 70
     0
  9
$DIMSOXD
 70
     0
  9
$DIMSAH
 70
     0
  9
$DIMBLK1
  1

  9
$DIMBLK2
  1

  9
$DIMSTYLE
  2
AM_ISO
  9
$DIMCLRD
 70
   256
  9
$DIMCLRE
 70
   256
  9
$DIMCLRT
 70
   256
  9
$DIMTFAC
 40
0.71
  9
$DIMGAP
 40
1.0
  9
$DIMJUST
 70
     0
  9
$DIMSD1
 70
     0
  9
$DIMSD2
 70
     0
  9
$DIMTOLJ
 70
     0
  9
$DIMTZIN
 70
     8
  9
$DIMALTZ
 70
     0
  9
$DIMALTTZ
 70
     0
  9
$DIMUPT
 70
     0
  9
$DIMDEC
 70
     2
  9
$DIMTDEC
 70
     8
  9
$DIMALTU
 70
     2
  9
$DIMALTTD
 70
     2
  9
$DIMTXSTY
  7
STANDARD
  9
$DIMAUNIT
 70
     0
  9
$DIMADEC
 70
     0
  9
$DIMALTRND
 40
0.0
  9
$DIMAZIN
 70
     2
  9
$DIMDSEP
 70
    46
  9
$DIMATFIT
 70
     3
  9
$DIMFRAC
 70
     0
  9
$DIMLDRBLK
  1

  9
$DIMLUNIT
 70
     2
  9
$DIMLWD
 70
    -1
  9
$DIMLWE
 70
    -1
  9
$DIMTMOVE
 70
     0
  9
$LUNITS
 70
     2
  9
$LUPREC
 70
     2
  9
$SKETCHINC
 40
0.1
  9
$FILLETRAD
 40
2.5
  9
$AUNITS
 70
     0
  9
$AUPREC
 70
     0
  9
$MENU
  1
acad
  9
$ELEVATION
 40
0.0
  9
$PELEVATION
 40
0.0
  9
$THICKNESS
 40
0.0
  9
$LIMCHECK
 70
     0
  9
$CHAMFERA
 40
2.5
  9
$CHAMFERB
 40
2.5
  9
$CHAMFERC
 40
0.0
  9
$CHAMFERD
 40
0.0
  9
$SKPOLY
 70
     0
  9
$TDCREATE
 40
2452359.824870255
  9
$TDUCREATE
 40
2452359.491536922
  9
$TDUPDATE
 40
2455323.699593808
  9
$TDUUPDATE
 40
2455323.366260475
  9
$TDINDWG
 40
0.3630988079
  9
$TDUSRTIMER
 40
0.3630975347
  9
$USRTIMER
 70
     1
  9
$ANGBASE
 50
0.0
  9
$ANGDIR
 70
     0
  9
$PDMODE
 70
     0
  9
$PDSIZE
 40
-1.0
  9
$PLINEWID
 40
0.0
  9
$SPLFRAME
 70
     0
  9
$SPLINETYPE
 70
     6
  9
$SPLINESEGS
 70
     8
  9
$HANDSEED
  5
8350
  9
$SURFTAB1
 70
     6
  9
$SURFTAB2
 70
     6
  9
$SURFTYPE
 70
     6
  9
$SURFU
 70
     6
  9
$SURFV
 70
     6
  9
$UCSBASE
  2

  9
$UCSNAME
  2

  9
$UCSORG
 10
0.0
 20
0.0
 30
0.0
  9
$UCSXDIR
 10
1.0
 20
0.0
 30
0.0
  9
$UCSYDIR
 10
0.0
 20
1.0
 30
0.0
  9
$UCSORTHOREF
  2

  9
$UCSORTHOVIEW
 70
     0
  9
$UCSORGTOP
 10
0.0
 20
0.0
 30
0.0
  9
$UCSORGBOTTOM
 10
0.0
 20
0.0
 30
0.0
  9
$UCSORGLEFT
 10
0.0
 20
0.0
 30
0.0
  9
$UCSORGRIGHT
 10
0.0
 20
0.0
 30
0.0
  9
$UCSORGFRONT
 10
0.0
 20
0.0
 30
0.0
  9
$UCSORGBACK
 10
0.0
 20
0.0
 30
0.0
  9
$PUCSBASE
  2

  9
$PUCSNAME
  2

  9
$PUCSORG
 10
0.0
 20
0.0
 30
0.0
  9
$PUCSXDIR
 10
1.0
 20
0.0
 30
0.0
  9
$PUCSYDIR
 10
0.0
 20
1.0
 30
0.0
  9
$PUCSORTHOREF
  2

  9
$PUCSORTHOVIEW
 70
     0
  9
$PUCSORGTOP
 10
0.0
 20
0.0
 30
0.0
  9
$PUCSORGBOTTOM
 10
0.0
 20
0.0
 30
0.0
  9
$PUCSORGLEFT
 10
0.0
 20
0.0
 30
0.0
  9
$PUCSORGRIGHT
 10
0.0
 20
0.0
 30
0.0
  9
$PUCSORGFRONT
 10
0.0
 20
0.0
 30
0.0
  9
$PUCSORGBACK
 10
0.0
 20
0.0
 30
0.0
  9
$USERI1
 70
     0
  9
$USERI2
 70
     0
  9
$USERI3
 70
     0
  9
$USERI4
 70
     0
  9
$USERI5
 70
     0
  9
$USERR1
 40
0.0
  9
$USERR2
 40
0.0
  9
$USERR3
 40
0.0
  9
$USERR4
 40
0.0
  9
$USERR5
 40
0.0
  9
$WORLDVIEW
 70
     1
  9
$SHADEDGE
 70
     3
  9
$SHADEDIF
 70
    70
  9
$TILEMODE
 70
     1
  9
$MAXACTVP
 70
    16
  9
$PINSBASE
 10
0.0
 20
0.0
 30
0.0
  9
$PLIMCHECK
 70
     0
  9
$PEXTMIN
 10
1.000000000000000E+20
 20
1.000000000000000E+20
 30
1.000000000000000E+20
  9
$PEXTMAX
 10
-1.000000000000000E+20
 20
-1.000000000000000E+20
 30
-1.000000000000000E+20
  9
$PLIMMIN
 10
0.0
 20
0.0
  9
$PLIMMAX
 10
12.0
 20
9.0
  9
$UNITMODE
 70
     0
  9
$VISRETAIN
 70
     0
  9
$PLINEGEN
 70
     1
  9
$PSLTSCALE
 70
     1
  9
$TREEDEPTH
 70
  3020
  9
$CMLSTYLE
  2
STANDARD
  9
$CMLJUST
 70
     0
  9
$CMLSCALE
 40
1.0
  9
$PROXYGRAPHICS
 70
     0
  9
$MEASUREMENT
 70
     1
  9
$CELWEIGHT
370
     0
  9
$ENDCAPS
280
     0
  9
$JOINSTYLE
280
     0
  9
$LWDISPLAY
290
     0
  9
$INSUNITS
 70
     4
  9
$HYPERLINKBASE
  1

  9
$STYLESHEET
  1

  9
$XEDIT
290
     1
  9
$CEPSNTYPE
380
     0
  9
$PSTYLEMODE
290
     1
  9
$FINGERPRINTGUID
  2

  9
$VERSIONGUID
  2
{D240BF10-74BF-4C36-928C-77282411683F}
  9
$EXTNAMES
290
     1
  9
$PSVPSCALE
 40
0.0
  9
$OLESTARTUP
290
     0
  0
ENDSEC
  0
SECTION
  2
CLASSES
  0
CLASS
  1
IMAGE
  2
AcDbRasterImage
  3
ISM
 90
    32895
280
     0
281
     1
  0
CLASS
  1
DICTIONARYVAR
  2
AcDbDictionaryVar
  3
ObjectDBX Classes
 90
        0
280
     0
281
     0
  0
CLASS
  1
RASTERVARIABLES
  2
AcDbRasterVariables
  3
ISM
 90
    32768
280
     0
281
     0
  0
CLASS
  1
IMAGEDEF
  2
AcDbRasterImageDef
  3
ISM
 90
    32768
280
     0
281
     0
  0
CLASS
  1
IMAGEDEF_REACTOR
  2
AcDbRasterImageDefReactor
  3
ISM
 90
    32769
280
     0
281
     0
  0
CLASS
  1
IDBUFFER
  2
AcDbIdBuffer
  3
ObjectDBX Classes
 90
        0
280
     0
281
     0
  0
CLASS
  1
SPATIAL_FILTER
  2
AcDbSpatialFilter
  3
ObjectDBX Classes
 90
    32768
280
     0
281
     0
  0
CLASS
  1
SORTENTSTABLE
  2
AcDbSortentsTable
  3
ObjectDBX Classes
 90
        0
280
     0
281
     0
  0
CLASS
  1
LAYER_INDEX
  2
AcDbLayerIndex
  3
ObjectDBX Classes
 90
        0
280
     0
281
     0
  0
CLASS
  1
SPATIAL_INDEX
  2
AcDbSpatialIndex
  3
ObjectDBX Classes
 90
    32768
280
     0
281
     0
  0
CLASS
  1
OBJECT_PTR
  2
CAseDLPNTableRecord
  3
"ASE-LPNTableRecord"
 90
    32769
280
     0
281
     0
  0
CLASS
  1
LAYOUT
  2
AcDbLayout
  3
ObjectDBX Classes
 90
        0
280
     0
281
     0
  0
CLASS
  1
PLOTSETTINGS
  2
AcDbPlotSettings
  3
ObjectDBX Classes
 90
    32768
280
     0
281
     0
  0
CLASS
  1
ACDBDICTIONARYWDFLT
  2
AcDbDictionaryWithDefault
  3
ObjectDBX Classes
 90
        0
280
     0
281
     0
  0
CLASS
  1
ACDBPLACEHOLDER
  2
AcDbPlaceHolder
  3
ObjectDBX Classes
 90
        0
280
     0
281
     0
  0
CLASS
  1
VBA_PROJECT
  2
AcDbVbaProject
  3
acad
 90
    32768
280
     0
281
     0
  0
CLASS
  1
WIPEOUT
  2
AcDbWipeout
  3
"WipeOut|Product Desc: Object Enabler for WipeOut entity^I^I^I^I^I^I|Company: Autodesk, Inc.^I^I^I^I^I^I|WEB Address: www.autodesk.com"
 90
    32895
280
     0
281
     1
  0
CLASS
  1
WIPEOUTVARIABLES
  2
AcDbWipeoutVariables
  3
"WipeOut|Product Desc:     WipeOut Dbx Application|Company:          Autodesk, Inc.|WEB Address:      www.autodesk.com"
 90
        0
280
     0
281
     0
  0
CLASS
  1
RTEXT
  2
RText
  3
RText|AutoCAD Express Tool|expresstools@autodesk.com
 90
    32768
280
     0
281
     1
  0
CLASS
  1
ARCALIGNEDTEXT
  2
AcDbArcAlignedText
  3
ATEXT|AutoCAD Express Tool|expresstools@autodesk.com
 90
    32768
280
     0
281
     0
  0
CLASS
  1
ACAD_PROXY_OBJECT_WRAPPER
  2
AcDbProxyObjectWrapper
  3
ObjectDBX Classes
 90
    32768
280
     0
281
     0
  0
CLASS
  1
TABLESTYLE
  2
AcDbTableStyle
  3
ObjectDBX Classes
 90
     2047
280
     0
281
     0
  0
CLASS
  1
ACME_DOCUMENT
  2
AcMeDbDoc
  3
AcMeServices
 90
        0
280
     0
281
     0
  0
CLASS
  1
AMGSETTINGSOBJ
  2
AmgSettingsObj
  3
"AcadM|Product Description: AutoCAD Mechanical 2000|Company: Autodesk"
 90
        0
280
     0
281
     0
  0
CLASS
  1
ACMESCOPE
  2
AcMeScope
  3
AcMeServices
 90
        0
280
     0
281
     0
  0
CLASS
  1
ACMECOMMANDHISTORY
  2
AcMeCommandHistory
  3
AcMeServices
 90
        0
280
     0
281
     0
  0
CLASS
  1
ACIMSYSVARMAN
  2
AcImSysVarManager
  3
AcMeServices
 90
        0
280
     0
281
     0
  0
CLASS
  1
ACIMREALSYSVAR
  2
AcImRealSysVar
  3
AcMeServices
 90
        0
280
     0
281
     0
  0
CLASS
  1
ACIMINTSYSVAR
  2
AcImIntSysVar
  3
AcMeServices
 90
        0
280
     0
281
     0
  0
CLASS
  1
ACMEDRAWINGMAN
  2
AcMeDrawingMan
  3
AcMeServices
 90
        0
280
     0
281
     0
  0
CLASS
  1
ACMEVIEW
  2
AcMeView
  3
AcMeServices
 90
        0
280
     0
281
     0
  0
CLASS
  1
ACDBENTITYCACHE
  2
AcMeEntityCache
  3
AcMeServices
 90
        0
280
     0
281
     0
  0
CLASS
  1
GSMANAGER
  2
AcMeGSManager
  3
AcMeServices
 90
        0
280
     0
281
     0
  0
CLASS
  1
AMDTINTERNALREACTOR
  2
AmdtInternalReactor
  3
AcMeServices
 90
        0
280
     0
281
     0
  0
CLASS
  1
ACMESTATEMGR
  2
AcMeStateMgr
  3
AcMeServices
 90
        0
280
     0
281
     0
  0
CLASS
  1
ACGREFMASTER
  2
AcGrefMaster
  3
AcAttribServices
 90
        0
280
     0
281
     0
  0
CLASS
  1
AM_DRAWING_MGR
  2
AcDmDwgMgr
  3
AcMechDwgViewMgmt
 90
        0
280
     0
281
     0
  0
CLASS
  1
AM_DWG_DOCUMENT
  2
AcDmDwgDocument
  3
AcMechDwgViewMgmt
 90
        0
280
     0
281
     0
  0
CLASS
  1
AM_DWG_SHEET
  2
AcDmSheet
  3
AcMechDwgViewMgmt
 90
        0
280
     0
281
     0
  0
CLASS
  1
AM_VIEWDIMPARMAP
  2
AcDmViewDimParMap
  3
AcMechDwgViewMgmt
 90
        0
280
     0
281
     0
  0
CLASS
  1
AM_DWGMGR_NAME
  2
AcDmDwgMgrName
  3
AcMechDwgViewMgmt
 90
        0
280
     0
281
     0
  0
CLASS
  1
ACME_DATABASE
  2
AcMeDbDatabase
  3
AcMeServices
 90
        0
280
     0
281
     0
  0
CLASS
  1
ACRFINSADJUSTERMGR
  2
AcRfInsAdjusterMgr
  3
AcMeServices
 90
        0
280
     0
281
     0
  0
CLASS
  1
ACGREFACADMASTER
  2
AcGrefacadMaster
  3
AcGrefServices
 90
        0
280
     0
281
     0
  0
CLASS
  1
AMDTMENUSTATEMGR
  2
AmdtMenuStateMgr
  3
McadcomServices
 90
        0
280
     0
281
     0
  0
CLASS
  1
AMDTMCOMMENUSTATE
  2
AmdtMcomMenuState
  3
McadcomServices
 90
        0
280
     0
281
     0
  0
CLASS
  1
AMIMASTER
  2
AmiMaster
  3
AmiServices
 90
        0
280
     0
281
     0
  0
CLASS
  1
ASAPP
  2
AcAsAppObject
  3
AutoSurfServices
 90
        0
280
     0
281
     0
  0
CLASS
  1
IM_STATIC_MAN
  2
AcImStaticVarManager
  3
AcMeServices
 90
        0
280
     0
281
     0
  0
CLASS
  1
ACIMSTRSYSVAR
  2
AcImStrSysVar
  3
AcMeServices
 90
        0
280
     0
281
     0
  0
CLASS
  1
ACIMDBLSTATICVAR
  2
AcImDblStaticVar
  3
AcMeServices
 90
        0
280
     0
281
     0
  0
CLASS
  1
ACIMSTRSTATICVAR
  2
AcImStrStaticVar
  3
AcMeServices
 90
        0
280
     0
281
     0
  0
CLASS
  1
ACIMINTSTATICVAR
  2
AcImIntStaticVar
  3
AcMeServices
 90
        0
280
     0
281
     0
  0
CLASS
  1
ACASGREFMASTER
  2
AcAsGrefMaster
  3
AutoSurfResolverServices
 90
        0
280
     0
281
     0
  0
CLASS
  1
ACADGREFMODULE
  2
AcAdGrefModule
  3
AdGrefServices
 90
        0
280
     0
281
     0
  0
CLASS
  1
AMDTMAPISURFMOUDULE
  2
AmdtMApiSurfModule
  3
MApiSurfServices
 90
        0
280
     0
281
     0
  0
CLASS
  1
MAPIAMMOUDLE
  2
MApiAmModule
  3
MApiAmServices
 90
        0
280
     0
281
     0
  0
CLASS
  1
AMDTADMENUSTATE
  2
AmdtAdMenuState
  3
DesignerServices
 90
        0
280
     0
281
     0
  0
CLASS
  1
ADAPPL
  2
AcAdAppl
  3
DesignerServices
 90
        0
280
     0
281
     0
  0
CLASS
  1
DEPMGR
  2
AcAdDepMgr
  3
DesignerServices
 90
        0
280
     0
281
     0
  0
CLASS
  1
PARAMMGR
  2
AcAdParamMgr
  3
DesignerServices
 90
        0
280
     0
281
     0
  0
CLASS
  1
PARAMSCOPE
  2
AcAdParamScope
  3
DesignerServices
 90
        0
280
     0
281
     0
  0
CLASS
  1
NAMEDAPPL
  2
AcAdNamedAppl
  3
DesignerServices
 90
        0
280
     0
281
     0
  0
CLASS
  1
AMDTDMMENUSTATE
  2
AmdtDmMenuState
  3
AcMechDwgViewMgmt
 90
        0
280
     0
281
     0
  0
CLASS
  1
MAPIADMODULE
  2
MApiAdModule
  3
MApiAdServices
 90
        0
280
     0
281
     0
  0
CLASS
  1
AMDTAMMENUSTATE
  2
AmdtAmMenuState
  3
DesignerAssemblies
 90
        0
280
     0
281
     0
  0
CLASS
  1
ACAMPROJECT
  2
AcAmProject
  3
DesignerAssemblies
 90
        0
280
     0
281
     0
  0
CLASS
  1
ACAMGRCOMPDEF
  2
AcAmGrCompDef
  3
DesignerAssemblies
 90
        0
280
     0
281
     0
  0
CLASS
  1
ACCMCONTEXT
  2
AcCmContext
  3
DesignerAssemblies
 90
        0
280
     0
281
     0
  0
CLASS
  1
ACAMCOMPDEF
  2
AcAmCompDef
  3
DesignerAssemblies
 90
        0
280
     0
281
     0
  0
CLASS
  1
ACAMCOMPDEFMGR
  2
AcAmCompDefMgr
  3
DesignerAssemblies
 90
        0
280
     0
281
     0
  0
CLASS
  1
AMCONTEXTMGR
  2
AcAmContextMgr
  3
DesignerAssemblies
 90
        0
280
     0
281
     0
  0
CLASS
  1
ACAMCONTEXTMODELER
  2
AcAmContextModeler
  3
DesignerAssemblies
 90
        0
280
     0
281
     0
  0
CLASS
  1
ACMDATADICTIONARY
  2
AcmDataDictionary
  3
"AcmSymBB|Product Description: AutoCAD Mechanical 2004 DX|Company: Autodesk"
 90
        0
280
     0
281
     0
  0
CLASS
  1
ACMDATAENTRYBLOCK
  2
AcmDataEntryBlock
  3
"AcmSymBB|Product Description: AutoCAD Mechanical 2004 DX|Company: Autodesk"
 90
        0
280
     0
281
     0
  0
CLASS
  1
CATALOGSTATE
  2
AcAmCatalogState
  3
DesignerAssemblies
 90
        0
280
     0
281
     0
  0
CLASS
  1
ACAMGRCOMPDEFSET
  2
AcAmGrCompDefSet
  3
DesignerAssemblies
 90
        0
280
     0
281
     0
  0
CLASS
  1
AMDTBROWSERDBTAB
  2
AmdtBrowserDbTab
  3
McadcomServices
 90
        0
280
     0
281
     0
  0
CLASS
  1
CBROWSERAPPOBJECT
  2
CBrowserAppObject
  3
McadcomServices
 90
        0
280
     0
281
     0
  0
CLASS
  1
DM_PLACEHOLDER
  2
AcDmSelsetPlaceholder
  3
AcMechDwgViewMgmt
 90
        0
280
     0
281
     0
  0
CLASS
  1
ACMSTANDARDANSI
  2
AcmStandardANSI
  3
"Amdt_StdImp|Product Description: AutoCAD Mechanical 2004 DX|Company: Autodesk"
 90
        0
280
     0
281
     0
  0
CLASS
  1
AMGOBJPROPCFG
  2
AmgObjPropCfg
  3
"AmgLay|Product Description: AutoCAD Mechanical 2000|Company: Autodesk"
 90
        1
280
     0
281
     0
  0
CLASS
  1
ACMSURFSTANDARDANSI
  2
AcmSurfTextStdANSI
  3
"Amdt_StdImp|Product Description: AutoCAD Mechanical 2004 DX|Company: Autodesk"
 90
        0
280
     0
281
     0
  0
CLASS
  1
ACMFCFSTANDARDANSI
  2
AcmFCFStdANSI
  3
"Amdt_StdImp|Product Description: AutoCAD Mechanical 2004 DX|Company: Autodesk"
 90
        0
280
     0
281
     0
  0
CLASS
  1
ACMWELDSTANDARDANSI
  2
AcmWeldingStdANSI
  3
"Amdt_StdImp|Product Description: AutoCAD Mechanical 2004 DX|Company: Autodesk"
 90
        0
280
     0
281
     0
  0
CLASS
  1
ACMIDSTANDARDANSI
  2
AcmIdStdANSI
  3
"Amdt_StdImp|Product Description: AutoCAD Mechanical 2004 DX|Company: Autodesk"
 90
        0
280
     0
281
     0
  0
CLASS
  1
ACMDATUMSTANDARDANSI
  2
AcmDatumStdANSI
  3
"Amdt_StdImp|Product Description: AutoCAD Mechanical 2004 DX|Company: Autodesk"
 90
        0
280
     0
281
     0
  0
CLASS
  1
ACMBOMSTANDARDANSI
  2
AcmBOMStdANSI
  3
"Amdt_StdImp|Product Description: AutoCAD Mechanical 2004 DX|Company: Autodesk"
 90
        0
280
     0
281
     0
  0
CLASS
  1
ACMDETAILSTANDARDANSI
  2
AmdtDetailSymStdANSI
  3
"Amdt_StdImp|Product Description: AutoCAD Mechanical 2004 DX|Company: Autodesk"
 90
        0
280
     0
281
     0
  0
CLASS
  1
ACMSECTIONSTANDARDANSI
  2
AmdtSectionSymStdANSI
  3
"Amdt_StdImp|Product Description: AutoCAD Mechanical 2004 DX|Company: Autodesk"
 90
        0
280
     0
281
     0
  0
CLASS
  1
ACMCENTERLINESTANDARDANSI
  2
AmdtCenterLineStdANSI
  3
"Amdt_StdImp|Product Description: AutoCAD Mechanical 2004 DX|Company: Autodesk"
 90
        0
280
     0
281
     0
  0
CLASS
  1
ACMTHREADLINESTANDARDANSI
  2
AmdtThreadLineStdANSI
  3
"Amdt_StdImp|Product Description: AutoCAD Mechanical 2004 DX|Company: Autodesk"
 90
        0
280
     0
281
     0
  0
CLASS
  1
ACMNOTESTANDARDANSI
  2
AmdtNoteStdANSI
  3
"Amdt_StdImp|Product Description: AutoCAD Mechanical 2004 DX|Company: Autodesk"
 90
        0
280
     0
281
     0
  0
CLASS
  1
AMDTNOTETEMPLATEDB
  2
AmdtNoteTemplateDB
  3
AMDT_STDIMP_MODULE_NAME
 90
        0
280
     0
281
     0
  0
CLASS
  1
ACAMGLAYSTD
  2
AcAmgLayStd
  3
"AcAmgLayStd|Product Description: AutoCAD Mechanical 2000|Company: Autodesk"
 90
        0
280
     0
281
     0
  0
CLASS
  1
ACAMGDIMSTD
  2
AcAmgDimStd
  3
"AcAmgDimStd|Product Description: AutoCAD Mechanical 2000|Company: Autodesk"
 90
        0
280
     0
281
     0
  0
CLASS
  1
ACAMGHOLECHARTSTDANSI
  2
AcAmgHoleChartStdANSI
  3
ACMSYMBB_MODULE_NAME
 90
        0
280
     0
281
     0
  0
CLASS
  1
ACAMGTITLESTD
  2
AcAmgTitleStd
  3
"TITLEAPP"
 90
        0
280
     0
281
     0
  0
CLASS
  1
ACAMGFILTERDAT
  2
AcAmgFilterDat
  3
"AcadM|Product Description: AutoCAD Mechanical 2000|Company: Autodesk"
 90
        0
280
     0
281
     0
  0
CLASS
  1
ACMSTANDARDISO
  2
AcmStandardISO
  3
"Amdt_StdImp|Product Description: AutoCAD Mechanical 2004 DX|Company: Autodesk"
 90
        0
280
     0
281
     0
  0
CLASS
  1
AMDTEDGESTANDARDISO13715
  2
AmdtEdgeStdISO13715
  3
"Amdt_StdImp|Product Description: AutoCAD Mechanical 2004 DX|Company: Autodesk"
 90
        0
280
     0
281
     0
  0
CLASS
  1
ACMSURFSTANDARDISO
  2
AcmSurfTextStdISO
  3
"Amdt_StdImp|Product Description: AutoCAD Mechanical 2004 DX|Company: Autodesk"
 90
        0
280
     0
281
     0
  0
CLASS
  1
ACMFCFSTANDARDISO
  2
AcmFCFStdISO
  3
"Amdt_StdImp|Product Description: AutoCAD Mechanical 2004 DX|Company: Autodesk"
 90
        0
280
     0
281
     0
  0
CLASS
  1
ACMWELDSTANDARDISO
  2
AcmWeldingStdISO
  3
"Amdt_StdImp|Product Description: AutoCAD Mechanical 2004 DX|Company: Autodesk"
 90
        0
280
     0
281
     0
  0
CLASS
  1
ACMIDSTANDARDISO
  2
AcmIdStdISO
  3
"Amdt_StdImp|Product Description: AutoCAD Mechanical 2004 DX|Company: Autodesk"
 90
        0
280
     0
281
     0
  0
CLASS
  1
ACMDATUMSTANDARDISO
  2
AcmDatumStdISO
  3
"Amdt_StdImp|Product Description: AutoCAD Mechanical 2004 DX|Company: Autodesk"
 90
        0
280
     0
281
     0
  0
CLASS
  1
ACMBOMSTANDARDISO
  2
AcmBOMStdISO
  3
"Amdt_StdImp|Product Description: AutoCAD Mechanical 2004 DX|Company: Autodesk"
 90
        0
280
     0
281
     0
  0
CLASS
  1
ACMDETAILSTANDARDISO
  2
AmdtDetailSymStdISO
  3
"Amdt_StdImp|Product Description: AutoCAD Mechanical 2004 DX|Company: Autodesk"
 90
        0
280
     0
281
     0
  0
CLASS
  1
ACMSECTIONSTANDARDISO
  2
AmdtSectionSymStdISO
  3
"Amdt_StdImp|Product Description: AutoCAD Mechanical 2004 DX|Company: Autodesk"
 90
        0
280
     0
281
     0
  0
CLASS
  1
ACMCENTERLINESTANDARDISO
  2
AmdtCenterLineStdISO
  3
"Amdt_StdImp|Product Description: AutoCAD Mechanical 2004 DX|Company: Autodesk"
 90
        0
280
     0
281
     0
  0
CLASS
  1
ACMTHREADLINESTANDARDISO
  2
AmdtThreadLineStdISO
  3
"Amdt_StdImp|Product Description: AutoCAD Mechanical 2004 DX|Company: Autodesk"
 90
        0
280
     0
281
     0
  0
CLASS
  1
ACMNOTESTANDARDISO
  2
AmdtNoteStdISO
  3
"Amdt_StdImp|Product Description: AutoCAD Mechanical 2004 DX|Company: Autodesk"
 90
        0
280
     0
281
     0
  0
CLASS
  1
ACAMGHOLECHARTSTDISO
  2
AcAmgHoleChartStdISO
  3
ACMSYMBB_MODULE_NAME
 90
        0
280
     0
281
     0
  0
CLASS
  1
ACMDIMBREAKPERSREACTOR
  2
AcmDimBreakPersReactor
  3
amgDimApp().moduleName()
 90
    33791
280
     0
281
     0
  0
ENDSEC
  0
SECTION
  2
TABLES
  0
TABLE
  2
VPORT
  5
7
330
0
100
AcDbSymbolTable
 70
   558
  0
VPORT
  5
8349
330
7
100
AcDbSymbolTableRecord
100
AcDbViewportTableRecord
  2
*Active
 70
     0
 10
0.0
 20
0.0
 11
1.0
 21
1.0
 12
619.4440009902898
 22
30.65191554907119
 13
0.0
 23
0.0
 14
2.5
 24
2.5
 15
10.0
 25
10.0
 16
0.0
 26
0.0
 36
1.0
 17
662.4499101411736
 27
406.2075537970023
 37
0.0
 40
681.6704653045105
 41
0.9815602836879431
 42
50.0
 43
0.0
 44
0.0
 50
0.0
 51
0.0
 71
     0
 72
  2000
 73
     1
 74
     1
 75
     0
 76
     0
 77
     0
 78
     0
281
     0
 65
     0
110
0.0
120
0.0
130
0.0
111
1.0
121
0.0
131
0.0
112
0.0
122
1.0
132
0.0
 79
     0
146
0.0
  0
ENDTAB
  0
TABLE
  2
LTYPE
  5
4
330
0
100
AcDbSymbolTable
 70
    21
  0
LTYPE
  5
11
330
4
100
AcDbSymbolTableRecord
100
AcDbLinetypeTableRecord
  2
BYBLOCK
 70
     0
  3

 72
    65
 73
     0
 40
0.0
  0
LTYPE
  5
12
330
4
100
AcDbSymbolTableRecord
100
AcDbLinetypeTableRecord
  2
BYLAYER
 70
     0
  3

 72
    65
 73
     0
 40
0.0
  0
LTYPE
  5
13
330
4
100
AcDbSymbolTableRecord
100
AcDbLinetypeTableRecord
  2
CONTINUOUS
 70
     0
  3
Solid line
 72
    65
 73
     0
 40
0.0
  0
LTYPE
  5
27
330
4
100
AcDbSymbolTableRecord
100
AcDbLinetypeTableRecord
  2
CENTER
 70
     0
  3
Center ____ _ ____ _ ____ _ ____ _ ____ _ ____
 72
    65
 73
     4
 40
10.16
 49
6.349999999999997
 74
     0
 49
-1.27
 74
     0
 49
1.27
 74
     0
 49
-1.27
 74
     0
  0
LTYPE
  5
F09
330
4
100
AcDbSymbolTableRecord
100
AcDbLinetypeTableRecord
  2
HIDDEN
 70
     0
  3
Hidden __ __ __ __ __ __ __ __ __ __ __ __ __ _
 72
    65
 73
     2
 40
0.375
 49
0.25
 74
     0
 49
-0.125
 74
     0
  0
LTYPE
  5
F0A
330
4
100
AcDbSymbolTableRecord
100
AcDbLinetypeTableRecord
  2
PHANTOM2
 70
     0
  3
Phantom (.5x) ___ _ _ ___ _ _ ___ _ _ ___ _ _
 72
    65
 73
     6
 40
1.25
 49
0.625
 74
     0
 49
-0.125
 74
     0
 49
0.125
 74
     0
 49
-0.125
 74
     0
 49
0.125
 74
     0
 49
-0.125
 74
     0
  0
LTYPE
  5
FA1
330
4
100
AcDbSymbolTableRecord
100
AcDbLinetypeTableRecord
  2
AM_ISO02W050
 70
     0
  3
__ __ __ __ __ __ __ __ __ __ __ __ __ __ __
 72
    65
 73
     2
 40
7.5
 49
6.0
 74
     0
 49
-1.5
 74
     0
  0
LTYPE
  5
FA2
330
4
100
AcDbSymbolTableRecord
100
AcDbLinetypeTableRecord
  2
AM_ISO08W050
 70
     0
  3
____ . ____ . ____ . ____ . ____ . ____ . ____
 72
    65
 73
     4
 40
18.0
 49
12.0
 74
     0
 49
-1.5
 74
     0
 49
3.0
 74
     0
 49
-1.5
 74
     0
  0
LTYPE
  5
FA3
330
4
100
AcDbSymbolTableRecord
100
AcDbLinetypeTableRecord
  2
AM_ISO09W050
 70
     0
  3
_____ . . _____ . . _____ . . ____ .. ____
 72
    65
 73
     6
 40
22.5
 49
12.0
 74
     0
 49
-1.5
 74
     0
 49
3.0
 74
     0
 49
-1.5
 74
     0
 49
3.0
 74
     0
 49
-1.5
 74
     0
  0
LTYPE
  5
FA4
330
4
100
AcDbSymbolTableRecord
100
AcDbLinetypeTableRecord
  2
Amconstr
 70
     0
  3
_______________________
 72
    65
 73
     2
 40
9999.0
 49
9999.0
 74
     0
 49
0.0
 74
     0
  0
LTYPE
  5
FA5
330
4
100
AcDbSymbolTableRecord
100
AcDbLinetypeTableRecord
  2
AM_ISO08W050x2
 70
     0
  3
__ . __ . __ . __ . __ . __
 72
    65
 73
     4
 40
9.0
 49
6.0
 74
     0
 49
-0.75
 74
     0
 49
1.5
 74
     0
 49
-0.75
 74
     0
  0
LTYPE
  5
FA6
330
4
100
AcDbSymbolTableRecord
100
AcDbLinetypeTableRecord
  2
AM_ISO02W050x2
 70
     0
  3
 _ _ _ _ _ _ _ _ _ _ _ _
 72
    65
 73
     2
 40
3.75
 49
3.0
 74
     0
 49
-0.75
 74
     0
  0
LTYPE
  5
FA9
330
4
100
AcDbSymbolTableRecord
100
AcDbLinetypeTableRecord
  2
Amzigzag
 70
     0
  3
/\/-/\/-/\/-/\/-/\/-/\/
 72
    65
 73
     2
 40
11.0001
 49
0.0001
 74
     4
 75
   135
340
FA8
 46
0.04
 50
0.0
 44
0.0
 45
0.0
 49
-11.0
 74
     0
  0
LTYPE
  5
FAA
330
4
100
AcDbSymbolTableRecord
100
AcDbLinetypeTableRecord
  2
CENTER2
 70
     0
  3
Center (.5x) ___ _ ___ _ ___ _ ___ _ ___ _ ___
 72
    65
 73
     4
 40
1.125
 49
0.75
 74
     0
 49
-0.125
 74
     0
 49
0.125
 74
     0
 49
-0.125
 74
     0
  0
LTYPE
  5
FAB
330
4
100
AcDbSymbolTableRecord
100
AcDbLinetypeTableRecord
  2
HIDDEN2
 70
     0
  3
Hidden (.5x) _ _ _ _ _ _ _ _ _ _ _ _ _ _ _ _ _
 72
    65
 73
     2
 40
0.1875
 49
0.125
 74
     0
 49
-0.0625
 74
     0
  0
LTYPE
  5
FAC
330
4
100
AcDbSymbolTableRecord
100
AcDbLinetypeTableRecord
  2
Amzigzag2
 70
     0
  3
/\/-/\/-/\/-/\/-/\/-/\/
 72
    65
 73
     2
 40
0.4401
 49
0.0001
 74
     4
 75
   135
340
FA8
 46
0.0016
 50
0.0
 44
0.0
 45
0.0
 49
-0.4400000000000001
 74
     0
  0
LTYPE
  5
FBA
330
4
100
AcDbSymbolTableRecord
100
AcDbLinetypeTableRecord
  2
ACANSTGB
 70
     0
  3
__ . . __ . .
 72
    65
 73
     6
 40
0.35433070866
 49
0.15748031496
 74
     0
 49
-0.03937007874
 74
     0
 49
0.03937007874
 74
     0
 49
-0.03937007874
 74
     0
 49
0.03937007874
 74
     0
 49
-0.03937007874
 74
     0
  0
LTYPE
  5
FBB
330
4
100
AcDbSymbolTableRecord
100
AcDbLinetypeTableRecord
  2
ACANSTGL
 70
     0
  3
_ _ _ _ _
 72
    65
 73
     2
 40
0.11811023622
 49
0.07874015748
 74
     0
 49
-0.03937007874
 74
     0
  0
LTYPE
  5
10A3
330
4
100
AcDbSymbolTableRecord
100
AcDbLinetypeTableRecord
  2
ACISOWELD
 70
     0
  3
_ _ _ _ _
 72
    65
 73
     2
 40
2.0
 49
2.0
 74
     0
 49
-1.0
 74
     0
  0
LTYPE
  5
10A4
330
4
100
AcDbSymbolTableRecord
100
AcDbLinetypeTableRecord
  2
ACISOTGB
 70
     0
  3
__ . . __ . .
 72
    65
 73
     6
 40
9.0
 49
4.0
 74
     0
 49
-1.0
 74
     0
 49
1.0
 74
     0
 49
-1.0
 74
     0
 49
1.0
 74
     0
 49
-1.0
 74
     0
  0
LTYPE
  5
10A5
330
4
100
AcDbSymbolTableRecord
100
AcDbLinetypeTableRecord
  2
ACISOTGL
 70
     0
  3
_ _ _ _ _
 72
    65
 73
     2
 40
3.0
 49
2.0
 74
     0
 49
-1.0
 74
     0
  0
ENDTAB
  0
TABLE
  2
LAYER
  5
2
102
{ACAD_XDICTIONARY
360
1002
102
}
330
0
100
AcDbSymbolTable
 70
     7
  0
LAYER
  5
14
330
2
100
AcDbSymbolTableRecord
100
AcDbLayerTableRecord
  2
0
 70
     0
 62
     7
  6
CONTINUOUS
370
    -3
390
1D
  0
LAYER
  5
A05
330
2
100
AcDbSymbolTableRecord
100
AcDbLayerTableRecord
  2
CENTER
 70
     0
 62
     1
  6
CENTER
370
    -3
390
1D
  0
LAYER
  5
A16
330
2
100
AcDbSymbolTableRecord
100
AcDbLayerTableRecord
  2
DIM
 70
     0
 62
     4
  6
CONTINUOUS
370
    -3
390
1D
  0
LAYER
  5
D20
330
2
100
AcDbSymbolTableRecord
100
AcDbLayerTableRecord
  2
Defpoints
 70
     0
 62
     7
  6
CONTINUOUS
290
     0
370
    -3
390
1D
  0
LAYER
  5
FD9
330
2
100
AcDbSymbolTableRecord
100
AcDbLayerTableRecord
  2
AM_5
 70
     0
 62
     5
  6
CONTINUOUS
370
    50
390
1D
  0
LAYER
  5
1B6F
330
2
100
AcDbSymbolTableRecord
100
AcDbLayerTableRecord
  2
LOGO
 70
     0
 62
     7
  6
CONTINUOUS
370
    -3
390
1D
  0
ENDTAB
  0
TABLE
  2
STYLE
  5
3
330
0
100
AcDbSymbolTable
 70
     8
  0
STYLE
  5
17
330
3
100
AcDbSymbolTableRecord
100
AcDbTextStyleTableRecord
  2
STANDARD
 70
     0
 40
0.0
 41
1.0
 50
0.0
 71
     0
 42
3.5
  3
ISOCP.SHX
  4

  0
STYLE
  5
9F7
330
3
100
AcDbSymbolTableRecord
100
AcDbTextStyleTableRecord
  2
CHINA
 70
     0
 40
0.0
 41
1.0
 50
0.0
 71
     0
 42
2.5
  3
romans.shx
  4
chineset.shx
  0
STYLE
  5
FA8
330
3
100
AcDbSymbolTableRecord
100
AcDbTextStyleTableRecord
  2

 70
     1
 40
0.0
 41
1.0
 50
0.0
 71
     0
 42
0.2
  3
ltypeshp.shx
  4

  0
STYLE
  5
FAD
330
3
100
AcDbSymbolTableRecord
100
AcDbTextStyleTableRecord
  2
ACANSTS
 70
     0
 40
1.0
 41
1.0
 50
0.0
 71
     0
 42
0.2
  3
romans.shx
  4
chineset.shx
  0
STYLE
  5
FB9
330
3
100
AcDbSymbolTableRecord
100
AcDbTextStyleTableRecord
  2
ACANSGDT
 70
     0
 40
0.0
 41
1.0
 50
0.0
 71
     0
 42
0.2
  3
amgdtans.shx
  4

  0
STYLE
  5
1095
330
3
100
AcDbSymbolTableRecord
100
AcDbTextStyleTableRecord
  2
ACISOTS
 70
     0
 40
1.0
 41
1.0
 50
0.0
 71
     0
 42
0.2
  3
isocp.shx
  4
chineset.shx
  0
STYLE
  5
10A2
330
3
100
AcDbSymbolTableRecord
100
AcDbTextStyleTableRecord
  2
ACISOGDT
 70
     0
 40
0.0
 41
1.0
 50
0.0
 71
     0
 42
0.2
  3
amgdt.shx
  4

  0
STYLE
  5
1B70
330
3
100
AcDbSymbolTableRecord
100
AcDbTextStyleTableRecord
  2
CHINESET
 70
     0
 40
0.0
 41
0.75
 50
0.0
 71
     0
 42
3.0
  3
simplex.shx
  4
CHINESET.SHX
  0
ENDTAB
  0
TABLE
  2
VIEW
  5
5
330
0
100
AcDbSymbolTable
 70
     0
  0
ENDTAB
  0
TABLE
  2
UCS
  5
6
330
0
100
AcDbSymbolTable
 70
     0
  0
ENDTAB
  0
TABLE
  2
APPID
  5
8
330
0
100
AcDbSymbolTable
 70
    22
  0
APPID
  5
16
330
8
100
AcDbSymbolTableRecord
100
AcDbRegAppTableRecord
  2
ACAD
 70
     0
  0
APPID
  5
ED5
330
8
100
AcDbSymbolTableRecord
100
AcDbRegAppTableRecord
  2
GENIUS_GENDIM_13
 70
     0
  0
APPID
  5
ED6
330
8
100
AcDbSymbolTableRecord
100
AcDbRegAppTableRecord
  2
GENIUS_GENDTOL_13
 70
     0
  0
APPID
  5
ED7
330
8
100
AcDbSymbolTableRecord
100
AcDbRegAppTableRecord
  2
GENIUS_GE3DTOL_13
 70
     0
  0
APPID
  5
EDA
330
8
100
AcDbSymbolTableRecord
100
AcDbRegAppTableRecord
  2
MCAD_NO_VIS
 70
     0
  0
APPID
  5
EDB
330
8
100
AcDbSymbolTableRecord
100
AcDbRegAppTableRecord
  2
ACAD_TEMP_GRAPHIC
 70
     0
  0
APPID
  5
F0C
330
8
100
AcDbSymbolTableRecord
100
AcDbRegAppTableRecord
  2
AD_DRAW
 70
     0
  0
APPID
  5
F0F
330
8
100
AcDbSymbolTableRecord
100
AcDbRegAppTableRecord
  2
ACATTRIBSERVICES
 70
     0
  0
APPID
  5
F5B
330
8
100
AcDbSymbolTableRecord
100
AcDbRegAppTableRecord
  2
ASURF_PCURVE_APPNAME
 70
     0
  0
APPID
  5
F60
330
8
100
AcDbSymbolTableRecord
100
AcDbRegAppTableRecord
  2
AMG_3D2D_5.0
 70
     0
  0
APPID
  5
F8F
330
8
100
AcDbSymbolTableRecord
100
AcDbRegAppTableRecord
  2
DESIGNERASSEMBLIES
 70
     0
  0
APPID
  5
F96
330
8
100
AcDbSymbolTableRecord
100
AcDbRegAppTableRecord
  2
ACADM_DIM_EDIT
 70
     0
  0
APPID
  5
F97
330
8
100
AcDbSymbolTableRecord
100
AcDbRegAppTableRecord
  2
AMDT_DM_ADJ
 70
     0
  0
APPID
  5
1052
330
8
100
AcDbSymbolTableRecord
100
AcDbRegAppTableRecord
  2
GENIUS_GENDIMSH_14
 70
     0
  0
APPID
  5
108A
330
8
100
AcDbSymbolTableRecord
100
AcDbRegAppTableRecord
  2
ACAD_DSTYLE_DIMTEXT_FILL
 70
     0
  0
APPID
  5
1B72
330
8
100
AcDbSymbolTableRecord
100
AcDbRegAppTableRecord
  2
GENIUS_GENODEF_13
 70
     0
  0
APPID
  5
1B73
330
8
100
AcDbSymbolTableRecord
100
AcDbRegAppTableRecord
  2
GENIUS_GENOENT_13
 70
     0
  0
APPID
  5
1B74
330
8
100
AcDbSymbolTableRecord
100
AcDbRegAppTableRecord
  2
GENIUS_GENOBJ-N-CRS_13
 70
     0
  0
APPID
  5
1B75
330
8
100
AcDbSymbolTableRecord
100
AcDbRegAppTableRecord
  2
GENIUS_GENOLIS_13
 70
     0
  0
APPID
  5
1B76
330
8
100
AcDbSymbolTableRecord
100
AcDbRegAppTableRecord
  2
GENIUS_GENOREF_13
 70
     0
  0
APPID
  5
1B77
330
8
100
AcDbSymbolTableRecord
100
AcDbRegAppTableRecord
  2
GENIUS_GENREC_14
 70
     0
  0
APPID
  5
1B78
330
8
100
AcDbSymbolTableRecord
100
AcDbRegAppTableRecord
  2
GENIUS_GENOBJ-N-REC_13
 70
     0
  0
ENDTAB
  0
TABLE
  2
DIMSTYLE
  5
9
330
0
100
AcDbSymbolTable
 70
    18
100
AcDbDimStyleTable
 71
     2
340
10AE
340
9F8
  0
DIMSTYLE
105
18
330
9
100
AcDbSymbolTableRecord
100
AcDbDimStyleTableRecord
  2
STANDARD
 70
     0
340
17
  0
DIMSTYLE
105
9F8
330
9
100
AcDbSymbolTableRecord
100
AcDbDimStyleTableRecord
  2
ISO-25
 70
     0
 41
2.0
 42
1.0
 44
1.0
 73
     0
 74
     0
 77
     1
 78
     8
140
2.5
141
1.0
143
0.03937007874016
147
1.0
171
     3
172
     1
174
     1
176
   256
177
   256
178
   256
271
     2
272
     2
274
     3
283
     0
284
     8
340
9F7
  0
DIMSTYLE
105
FC4
330
9
100
AcDbSymbolTableRecord
100
AcDbDimStyleTableRecord
  2
AM_ANSI
 70
     0
  4
mm
 41
0.1
 42
0.05
 43
0.5
 44
0.1
 47
0.1
 48
0.1
 78
     7
 79
     2
140
0.12
141
0.0
146
0.71
147
0.06
176
   256
177
   256
178
     2
274
     4
284
     7
340
17
371
    -1
372
    -1
  0
DIMSTYLE
105
FC5
330
9
100
AcDbSymbolTableRecord
100
AcDbDimStyleTableRecord
  2
AM_ANSI$3
 70
     0
  4
mm
 41
0.1
 42
0.05
 43
0.5
 44
0.1
 47
0.1
 48
0.1
 78
     7
 79
     2
140
0.12
141
0.0
146
0.71
147
0.06
176
   256
177
   256
178
     2
274
     4
284
     7
288
     1
289
     0
340
17
371
    -1
372
    -1
  0
DIMSTYLE
105
FC6
330
9
100
AcDbSymbolTableRecord
100
AcDbDimStyleTableRecord
  2
AM_ANSI$4
 70
     0
  4
mm
 41
0.1
 42
0.05
 43
0.5
 44
0.1
 47
0.1
 48
0.1
 78
     7
 79
     2
140
0.12
141
0.0
146
0.71
147
0.06
176
   256
177
   256
178
     2
274
     4
284
     7
288
     1
289
     0
340
17
371
    -1
372
    -1
  0
DIMSTYLE
105
FC7
330
9
100
AcDbSymbolTableRecord
100
AcDbDimStyleTableRecord
  2
AM_ANSI$7
 70
     0
  4
mm
 41
0.1
 42
0.05
 43
0.5
 44
0.1
 47
0.1
 48
0.1
 78
     7
 79
     2
140
0.24
141
0.0
146
0.71
147
0.06
176
   256
177
   256
178
     2
274
     4
284
     7
340
17
371
    -1
372
    -1
  0
DIMSTYLE
105
FC8
330
9
100
AcDbSymbolTableRecord
100
AcDbDimStyleTableRecord
  2
AM_ANSI$SF
 70
     0
  4
mm
 41
0.1
 42
0.05
 43
0.5
 44
0.1
 47
0.1
 48
0.1
 75
     1
 76
     1
 78
     7
 79
     2
140
0.12
141
0.0
146
0.71
147
0.06
176
   256
177
   256
178
     2
274
     4
284
     7
340
17
371
    -1
372
    -1
  0
DIMSTYLE
105
FCD
330
9
100
AcDbSymbolTableRecord
100
AcDbDimStyleTableRecord
  2
AM_ANSI$SH
 70
     0
  4
mm
 41
0.1
 42
0.05
 43
0.5
 44
0.1
 47
0.1
 48
0.1
 75
     1
 76
     1
 78
     7
 79
     2
140
0.12
141
0.0
146
0.71
147
0.06
173
     1
176
   256
177
   256
178
     2
274
     4
284
     7
340
17
343
FC9
371
    -1
372
    -1
  0
DIMSTYLE
105
FE5
330
9
100
AcDbSymbolTableRecord
100
AcDbDimStyleTableRecord
  2
ISO-25$0
 70
     0
 41
2.0
 42
1.0
 44
1.0
 73
     0
 74
     0
 77
     1
 78
     8
140
2.5
141
1.0
143
0.03937007874016
147
1.0
171
     3
172
     1
174
     1
176
   256
177
   256
178
   256
271
     2
272
     2
274
     3
283
     0
284
     8
340
9F7
  0
DIMSTYLE
105
10AE
330
9
100
AcDbSymbolTableRecord
100
AcDbDimStyleTableRecord
  2
AM_ISO
 70
     0
  4
"
 41
3.0
 42
1.0
 43
6.5
 44
1.0
 47
0.1
 48
0.1
 73
     0
 74
     0
 77
     1
 78
     8
 79
     2
140
3.5
141
0.0
143
0.0393701
146
0.71
147
1.0
172
     1
176
   256
177
   256
178
   256
271
     2
272
     2
283
     0
284
     8
340
17
371
    -1
372
    -1
  0
DIMSTYLE
105
10AF
102
{ACAD_REACTORS
330
79AA
330
7AEA
330
7B41
330
7B7E
330
7C7E
330
7CBC
102
}
330
9
100
AcDbSymbolTableRecord
100
AcDbDimStyleTableRecord
  2
AM_ISO$3
 70
     0
  4
"
 41
3.0
 42
1.0
 43
6.5
 44
1.0
 47
0.1
 48
0.1
 73
     0
 77
     1
 78
     8
 79
     2
140
3.5
141
0.0
143
0.0393701
146
0.71
147
1.0
176
   256
177
   256
178
   256
271
     2
272
     2
283
     0
284
     8
288
     1
289
     0
340
17
371
    -1
372
    -1
  0
DIMSTYLE
105
10B0
330
9
100
AcDbSymbolTableRecord
100
AcDbDimStyleTableRecord
  2
AM_ISO$4
 70
     0
  4
"
 41
3.0
 42
1.0
 43
6.5
 44
1.0
 47
0.1
 48
0.1
 73
     0
 77
     1
 78
     8
 79
     2
140
3.5
141
0.0
143
0.0393701
146
0.71
147
1.0
176
   256
177
   256
178
   256
271
     2
272
     2
283
     0
284
     8
288
     1
289
     0
340
17
371
    -1
372
    -1
  0
DIMSTYLE
105
10B1
330
9
100
AcDbSymbolTableRecord
100
AcDbDimStyleTableRecord
  2
AM_ISO$6
 70
     0
  4
"
 41
3.0
 42
1.0
 43
6.5
 44
1.0
 47
0.1
 48
0.1
 73
     0
 74
     0
 78
     8
 79
     2
140
3.5
141
0.0
143
0.0393701
146
0.71
147
1.0
172
     1
176
   256
177
   256
178
   256
271
     2
272
     2
283
     0
284
     8
340
17
371
    -1
372
    -1
  0
DIMSTYLE
105
10B2
102
{ACAD_REACTORS
330
28D6
330
3FEB
102
}
330
9
100
AcDbSymbolTableRecord
100
AcDbDimStyleTableRecord
  2
AM_ISO$7
 70
     0
  4
"
 41
3.0
 42
1.0
 43
6.5
 44
1.0
 47
0.1
 48
0.1
 73
     0
 74
     0
 77
     1
 78
     8
 79
     2
140
5.0
141
0.0
143
0.0393701
146
0.71
147
1.0
172
     1
176
   256
177
   256
178
   256
271
     2
272
     2
283
     0
284
     8
340
17
371
    -1
372
    -1
  0
DIMSTYLE
105
10B3
330
9
100
AcDbSymbolTableRecord
100
AcDbDimStyleTableRecord
  2
AM_ISO$SF
 70
     0
  4
"
 41
2.5
 42
1.0
 43
10.0
 44
1.0
 47
0.1
 48
0.1
 73
     0
 74
     0
 75
     1
 76
     1
 77
     1
 78
     8
 79
     2
140
3.5
141
0.0
143
0.0393701
146
0.71
147
1.5
172
     1
176
   256
177
   256
178
     2
271
     2
272
     3
274
     4
283
     0
284
     8
340
17
371
    -1
372
    -1
  0
DIMSTYLE
105
10B4
330
9
100
AcDbSymbolTableRecord
100
AcDbDimStyleTableRecord
  2
AM_ISO$SH
 70
     0
  4
"
 41
2.5
 42
1.0
 43
10.0
 44
1.0
 47
0.1
 48
0.1
 73
     0
 74
     0
 75
     1
 76
     1
 77
     1
 78
     8
 79
     2
140
3.5
141
0.0
143
0.0393701
144
2.0
146
0.71
147
1.5
172
     1
173
     1
176
   256
177
   256
178
     2
271
     2
272
     3
274
     4
283
     0
284
     8
340
17
343
FC9
371
    -1
372
    -1
  0
DIMSTYLE
105
1182
102
{ACAD_REACTORS
330
79EF
330
7A4E
330
7A8E
330
7ACD
330
7BE0
330
7C12
330
7C3A
330
7CF2
330
7D1A
330
7D4D
330
7D7E
330
7D9D
330
7DD6
330
7E02
330
7E4B
330
7E73
330
7E9B
330
7EDA
330
7F10
330
7FA5
330
7FD1
330
7FF9
102
}
330
9
100
AcDbSymbolTableRecord
100
AcDbDimStyleTableRecord
  2
AM_ISO$0
 70
     0
  4
"
 41
3.0
 42
1.0
 43
6.5
 44
1.0
 47
0.1
 48
0.1
 73
     0
 74
     0
 77
     1
 78
     8
 79
     2
140
3.5
141
0.0
143
0.0393701
146
0.71
147
1.0
172
     1
176
   256
177
   256
178
   256
271
     2
272
     2
283
     0
284
     8
340
17
371
    -1
372
    -1
  0
DIMSTYLE
105
2CDA
102
{ACAD_REACTORS
330
4F0F
330
4F10
330
4F11
102
}
330
9
100
AcDbSymbolTableRecord
100
AcDbDimStyleTableRecord
  2
AM_ISO$2
 70
     0
  4
"
 41
3.0
 42
1.0
 43
6.5
 44
1.0
 47
0.1
 48
0.1
 73
     0
 74
     0
 77
     1
 78
     8
 79
     2
140
3.5
141
0.0
143
0.0393701
146
0.71
147
1.0
172
     1
176
   256
177
   256
178
   256
271
     2
272
     2
283
     0
284
     8
340
17
371
    -1
372
    -1
  0
ENDTAB
  0
TABLE
  2
BLOCK_RECORD
  5
1
330
0
100
AcDbSymbolTable
 70
    67
  0
BLOCK_RECORD
  5
A
102
{ACAD_XDICTIONARY
360
9C9
102
}
330
1
100
AcDbSymbolTableRecord
100
AcDbBlockTableRecord
  2
*MODEL_SPACE
340
A68
  0
BLOCK_RECORD
  5
B
102
{ACAD_XDICTIONARY
360
9CB
102
}
330
1
100
AcDbSymbolTableRecord
100
AcDbBlockTableRecord
  2
*PAPER_SPACE
340
A69
  0
BLOCK_RECORD
  5
FC9
330
1
100
AcDbSymbolTableRecord
100
AcDbBlockTableRecord
  2
GENAXEH
340
0
  0
BLOCK_RECORD
  5
4F12
330
1
100
AcDbSymbolTableRecord
100
AcDbBlockTableRecord
  2
*D2
340
0
  0
BLOCK_RECORD
  5
4F20
330
1
100
AcDbSymbolTableRecord
100
AcDbBlockTableRecord
  2
*D3
340
0
  0
BLOCK_RECORD
  5
4F2E
330
1
100
AcDbSymbolTableRecord
100
AcDbBlockTableRecord
  2
*D4
340
0
  0
BLOCK_RECORD
  5
79AB
330
1
100
AcDbSymbolTableRecord
100
AcDbBlockTableRecord
  2
*D35
340
0
  0
BLOCK_RECORD
  5
79F0
330
1
100
AcDbSymbolTableRecord
100
AcDbBlockTableRecord
  2
*D36
340
0
  0
BLOCK_RECORD
  5
7A4F
330
1
100
AcDbSymbolTableRecord
100
AcDbBlockTableRecord
  2
*D37
340
0
  0
BLOCK_RECORD
  5
7A8F
330
1
100
AcDbSymbolTableRecord
100
AcDbBlockTableRecord
  2
*D38
340
0
  0
BLOCK_RECORD
  5
7ACE
330
1
100
AcDbSymbolTableRecord
100
AcDbBlockTableRecord
  2
*D40
340
0
  0
BLOCK_RECORD
  5
7AEB
330
1
100
AcDbSymbolTableRecord
100
AcDbBlockTableRecord
  2
*D41
340
0
  0
BLOCK_RECORD
  5
7B42
330
1
100
AcDbSymbolTableRecord
100
AcDbBlockTableRecord
  2
*D42
340
0
  0
BLOCK_RECORD
  5
7B7F
330
1
100
AcDbSymbolTableRecord
100
AcDbBlockTableRecord
  2
*D43
340
0
  0
BLOCK_RECORD
  5
7BE1
330
1
100
AcDbSymbolTableRecord
100
AcDbBlockTableRecord
  2
*D44
340
0
  0
BLOCK_RECORD
  5
7C13
330
1
100
AcDbSymbolTableRecord
100
AcDbBlockTableRecord
  2
*D45
340
0
  0
BLOCK_RECORD
  5
7C3B
330
1
100
AcDbSymbolTableRecord
100
AcDbBlockTableRecord
  2
*D46
340
0
  0
BLOCK_RECORD
  5
7C7F
330
1
100
AcDbSymbolTableRecord
100
AcDbBlockTableRecord
  2
*D49
340
0
  0
BLOCK_RECORD
  5
7CBD
330
1
100
AcDbSymbolTableRecord
100
AcDbBlockTableRecord
  2
*D51
340
0
  0
BLOCK_RECORD
  5
7CF3
330
1
100
AcDbSymbolTableRecord
100
AcDbBlockTableRecord
  2
*D52
340
0
  0
BLOCK_RECORD
  5
7D1B
330
1
100
AcDbSymbolTableRecord
100
AcDbBlockTableRecord
  2
*D53
340
0
  0
BLOCK_RECORD
  5
7D4E
330
1
100
AcDbSymbolTableRecord
100
AcDbBlockTableRecord
  2
*D54
340
0
  0
BLOCK_RECORD
  5
7D7F
330
1
100
AcDbSymbolTableRecord
100
AcDbBlockTableRecord
  2
*D55
340
0
  0
BLOCK_RECORD
  5
7D9E
330
1
100
AcDbSymbolTableRecord
100
AcDbBlockTableRecord
  2
*D56
340
0
  0
BLOCK_RECORD
  5
7DD7
330
1
100
AcDbSymbolTableRecord
100
AcDbBlockTableRecord
  2
*D57
340
0
  0
BLOCK_RECORD
  5
7E03
330
1
100
AcDbSymbolTableRecord
100
AcDbBlockTableRecord
  2
*D58
340
0
  0
BLOCK_RECORD
  5
7E4C
330
1
100
AcDbSymbolTableRecord
100
AcDbBlockTableRecord
  2
*D59
340
0
  0
BLOCK_RECORD
  5
7E74
330
1
100
AcDbSymbolTableRecord
100
AcDbBlockTableRecord
  2
*D60
340
0
  0
BLOCK_RECORD
  5
7E9C
330
1
100
AcDbSymbolTableRecord
100
AcDbBlockTableRecord
  2
*D61
340
0
  0
BLOCK_RECORD
  5
7EDB
330
1
100
AcDbSymbolTableRecord
100
AcDbBlockTableRecord
  2
*D62
340
0
  0
BLOCK_RECORD
  5
7F11
330
1
100
AcDbSymbolTableRecord
100
AcDbBlockTableRecord
  2
*D63
340
0
  0
BLOCK_RECORD
  5
7FA6
330
1
100
AcDbSymbolTableRecord
100
AcDbBlockTableRecord
  2
*D64
340
0
  0
BLOCK_RECORD
  5
7FD2
330
1
100
AcDbSymbolTableRecord
100
AcDbBlockTableRecord
  2
*D65
340
0
  0
BLOCK_RECORD
  5
7FFA
330
1
100
AcDbSymbolTableRecord
100
AcDbBlockTableRecord
  2
*D66
340
0
  0
ENDTAB
  0
ENDSEC
  0
SECTION
  2
BLOCKS
  0
BLOCK
  5
D
330
A
100
AcDbEntity
  8
0
100
AcDbBlockBegin
  2
*MODEL_SPACE
 70
     0
 71
     1
 10
0.0
 20
0.0
 30
0.0
  3
*MODEL_SPACE
  1

  0
ENDBLK
  5
E
330
A
100
AcDbEntity
  8
0
100
AcDbBlockEnd
  0
BLOCK
  5
F
330
B
100
AcDbEntity
 67
     1
  8
0
100
AcDbBlockBegin
  2
*PAPER_SPACE
 70
     0
 71
     1
 10
0.0
 20
0.0
 30
0.0
  3
*PAPER_SPACE
  1

  0
ENDBLK
  5
10
330
B
100
AcDbEntity
 67
     1
  8
0
100
AcDbBlockEnd
  0
BLOCK
  5
FCB
330
FC9
100
AcDbEntity
  8
0
370
     0
100
AcDbBlockBegin
  2
GENAXEH
 70
     0
 10
0.0
 20
0.0
 30
0.0
  3
GENAXEH
  1

  0
LINE
  5
FCA
330
FC9
100
AcDbEntity
  8
0
100
AcDbLine
 10
-1.0
 20
0.0
 30
0.0
 11
1.0
 21
0.0
 31
0.0
  0
ENDBLK
  5
FCC
330
FC9
100
AcDbEntity
  8
0
370
     0
100
AcDbBlockEnd
  0
BLOCK
  5
4F1E
330
4F12
100
AcDbEntity
  8
0
370
     0
100
AcDbBlockBegin
  2
*D2
 70
     1
 10
0.0
 20
0.0
 30
0.0
  3
*D2
  1

  0
LINE
  5
8225
330
4F12
100
AcDbEntity
  8
AM_5
100
AcDbLine
 10
1497.85498390926
 20
433.0073921875164
 30
0.0
 11
1503.280280529979
 21
447.9132721467864
 31
0.0
  0
LINE
  5
8226
330
4F12
100
AcDbEntity
  8
AM_5
100
AcDbLine
 10
1479.385896169674
 20
440.1264967969257
 30
0.0
 11
1479.385896169674
 21
452.1264967969265
 31
0.0
  0
ARC
  5
8227
330
4F12
100
AcDbEntity
  8
AM_5
100
AcDbCircle
 10
1479.385896169674
 20
382.263990665078
 30
0.0
 40
68.86250613184845
100
AcDbArc
 50
72.49629216124318
 51
87.50370783875654
  0
SOLID
  5
8228
330
4F12
100
AcDbEntity
  8
AM_5
370
     0
100
AcDbTrace
 10
1500.258236254578
 20
448.4114497049436
 30
0.0
 11
1499.936766149628
 21
447.4645299767601
 31
0.0
 12
1502.938260386653
 22
446.9735795260005
 32
0.0
 13
1502.938260386653
 23
446.9735795260005
 33
0.0
  0
SOLID
  5
8229
330
4F12
100
AcDbEntity
  8
AM_5
370
     0
100
AcDbTrace
 10
1482.374293099073
 20
450.5612678235381
 30
0.0
 11
1482.396075634799
 21
451.5610305559587
 31
0.0
 12
1479.385896169674
 22
451.1264967969264
 32
0.0
 13
1479.385896169674
 23
451.1264967969264
 33
0.0
  0
MTEXT
  5
822A
330
4F12
100
AcDbEntity
  8
AM_5
100
AcDbMText
 10
1491.821337177378
 20
452.7888811709959
 30
0.0
 40
3.5
 41
0.0
 71
     5
 72
     1
  1
20°
 11
0.9848077530122075
 21
-0.1736481776669332
 31
0.0
 73
     1
 44
1.0
1001
ACAD
1000
MTEXTBEGIN
1070
    73
1070
     1
1070
    44
1040
1.0
1070
    74
1070
     0
1000
MTEXTEND
  0
POINT
  5
822B
330
4F12
100
AcDbEntity
  8
Defpoints
 62
     0
370
     0
100
AcDbPoint
 10
1495.266682982777
 20
449.2702990319449
 30
0.0
  0
POINT
  5
822C
330
4F12
100
AcDbEntity
  8
Defpoints
 62
     0
370
     0
100
AcDbPoint
 10
1479.385896169673
 20
336.7125447138969
 30
0.0
  0
POINT
  5
822D
330
4F12
100
AcDbEntity
  8
Defpoints
 62
     0
370
     0
100
AcDbPoint
 10
1479.385896169673
 20
382.2639906650774
 30
0.0
  0
POINT
  5
822E
330
4F12
100
AcDbEntity
  8
Defpoints
 62
     0
370
     0
100
AcDbPoint
 10
1497.512963765934
 20
432.0676995667305
 30
0.0
  0
POINT
  5
822F
330
4F12
100
AcDbEntity
  8
Defpoints
 62
     0
370
     0
100
AcDbPoint
 10
1479.385896169674
 20
439.1264967969256
 30
0.0
  0
ENDBLK
  5
4F1F
330
4F12
100
AcDbEntity
  8
0
370
     0
100
AcDbBlockEnd
  0
BLOCK
  5
4F2C
330
4F20
100
AcDbEntity
  8
0
370
     0
100
AcDbBlockBegin
  2
*D3
 70
     1
 10
0.0
 20
0.0
 30
0.0
  3
*D3
  1

  0
LINE
  5
8230
330
4F20
100
AcDbEntity
  8
AM_5
100
AcDbLine
 10
1479.385896169674
 20
440.1264967969256
 30
0.0
 11
1479.385896169674
 21
452.1264967969253
 31
0.0
  0
LINE
  5
8231
330
4F20
100
AcDbEntity
  8
AM_5
100
AcDbLine
 10
1460.916808430087
 20
433.0073921875163
 30
0.0
 11
1455.491511809368
 21
447.9132721467849
 31
0.0
  0
ARC
  5
8232
330
4F20
100
AcDbEntity
  8
AM_5
100
AcDbCircle
 10
1479.385896169674
 20
382.2639906650769
 30
0.0
 40
68.86250613184843
100
AcDbArc
 50
92.49629216124292
 51
107.5037078387573
  0
SOLID
  5
8233
330
4F20
100
AcDbEntity
  8
AM_5
370
     0
100
AcDbTrace
 10
1476.375716704549
 20
451.5610305559577
 30
0.0
 11
1476.397499240275
 21
450.561267823537
 31
0.0
 12
1479.385896169674
 22
451.1264967969253
 32
0.0
 13
1479.385896169674
 23
451.1264967969253
 33
0.0
  0
SOLID
  5
8234
330
4F20
100
AcDbEntity
  8
AM_5
370
     0
100
AcDbTrace
 10
1458.835026189719
 20
447.4645299767587
 30
0.0
 11
1458.513556084769
 21
448.4114497049422
 31
0.0
 12
1455.833531952693
 22
446.9735795259991
 32
0.0
 13
1455.833531952693
 23
446.9735795259991
 33
0.0
  0
MTEXT
  5
8235
330
4F20
100
AcDbEntity
  8
AM_5
100
AcDbMText
 10
1466.95045516197
 20
452.7888811709948
 30
0.0
 40
3.5
 41
0.0
 71
     5
 72
     1
  1
20°
 11
0.9848077530122074
 21
0.1736481776669339
 31
0.0
 73
     1
 44
1.0
1001
ACAD
1000
MTEXTBEGIN
1070
    73
1070
     1
1070
    44
1040
1.0
1070
    74
1070
     0
1000
MTEXTEND
  0
POINT
  5
8236
330
4F20
100
AcDbEntity
  8
Defpoints
 62
     0
370
     0
100
AcDbPoint
 10
1471.39144715886
 20
450.6608731654686
 30
0.0
  0
POINT
  5
8237
330
4F20
100
AcDbEntity
  8
Defpoints
 62
     0
370
     0
100
AcDbPoint
 10
1479.385896169674
 20
382.2639906650774
 30
0.0
  0
POINT
  5
8238
330
4F20
100
AcDbEntity
  8
Defpoints
 62
     0
370
     0
100
AcDbPoint
 10
1479.385896169674
 20
336.7125447138968
 30
0.0
  0
POINT
  5
8239
330
4F20
100
AcDbEntity
  8
Defpoints
 62
     0
370
     0
100
AcDbPoint
 10
1479.385896169674
 20
439.1264967969256
 30
0.0
  0
POINT
  5
823A
330
4F20
100
AcDbEntity
  8
Defpoints
 62
     0
370
     0
100
AcDbPoint
 10
1461.258828573412
 20
432.0676995667303
 30
0.0
  0
ENDBLK
  5
4F2D
330
4F20
100
AcDbEntity
  8
0
370
     0
100
AcDbBlockEnd
  0
BLOCK
  5
4F3A
330
4F2E
100
AcDbEntity
  8
0
370
     0
100
AcDbBlockBegin
  2
*D4
 70
     1
 10
0.0
 20
0.0
 30
0.0
  3
*D4
  1

  0
LINE
  5
823B
330
4F2E
100
AcDbEntity
  8
AM_5
100
AcDbLine
 10
1479.385896169674
 20
440.1264967969256
 30
0.0
 11
1479.385896169674
 21
458.6264967969256
 31
0.0
  0
LINE
  5
823C
330
4F2E
100
AcDbEntity
  8
AM_5
100
AcDbLine
 10
1460.825749699967
 20
427.072147991875
 30
0.0
 11
1450.163230219138
 21
452.8137471315599
 31
0.0
  0
ARC
  5
823D
330
4F2E
100
AcDbEntity
  8
AM_5
100
AcDbCircle
 10
1479.385896169674
 20
382.2639906650769
 30
0.0
 40
75.3625061318488
100
AcDbArc
 50
92.28095771446842
 51
110.2190422855307
  0
SOLID
  5
823E
330
4F2E
100
AcDbEntity
  8
AM_5
370
     0
100
AcDbTrace
 10
1476.376538571879
 20
458.066686356768
 30
0.0
 11
1476.396442368567
 21
457.0668844569511
 31
0.0
 12
1479.385896169674
 22
457.6264967969257
 32
0.0
 13
1479.385896169674
 23
457.6264967969257
 33
0.0
  0
SOLID
  5
823F
330
4F2E
100
AcDbEntity
  8
AM_5
370
     0
100
AcDbTrace
 10
1453.521963202789
 20
452.5168676535095
 30
0.0
 11
1453.157744290462
 21
453.4481810185502
 31
0.0
 12
1450.545913651503
 22
451.8898675990486
 32
0.0
 13
1450.545913651503
 23
451.8898675990486
 33
0.0
  0
MTEXT
  5
8240
330
4F2E
100
AcDbEntity
  8
AM_5
100
AcDbMText
 10
1464.146834988613
 20
458.8759247635463
 30
0.0
 40
3.5
 41
0.0
 71
     5
 72
     1
  1
22.5°
 11
0.9807852804032314
 21
0.1950903220161228
 31
0.0
 73
     1
 44
1.0
1001
ACAD
1000
MTEXTBEGIN
1070
    73
1070
     1
1070
    44
1040
1.0
1070
    74
1070
     0
1000
MTEXTEND
  0
POINT
  5
8241
330
4F2E
100
AcDbEntity
  8
Defpoints
 62
     0
370
     0
100
AcDbPoint
 10
1469.549115208123
 20
456.9817601097507
 30
0.0
  0
POINT
  5
8242
330
4F2E
100
AcDbEntity
  8
Defpoints
 62
     0
370
     0
100
AcDbPoint
 10
1461.208433132332
 20
426.1482684593637
 30
0.0
  0
POINT
  5
8243
330
4F2E
100
AcDbEntity
  8
Defpoints
 62
     0
370
     0
100
AcDbPoint
 10
1479.385896169674
 20
336.7125447138968
 30
0.0
  0
POINT
  5
8244
330
4F2E
100
AcDbEntity
  8
Defpoints
 62
     0
370
     0
100
AcDbPoint
 10
1479.385896169674
 20
439.1264967969256
 30
0.0
  0
POINT
  5
8245
330
4F2E
100
AcDbEntity
  8
Defpoints
 62
     0
370
     0
100
AcDbPoint
 10
1479.385896169673
 20
382.2639906650774
 30
0.0
  0
ENDBLK
  5
4F3B
330
4F2E
100
AcDbEntity
  8
0
370
     0
100
AcDbBlockEnd
  0
BLOCK
  5
79B1
330
79AB
100
AcDbEntity
  8
0
370
     0
100
AcDbBlockBegin
  2
*D35
 70
     1
 10
0.0
 20
0.0
 30
0.0
  3
*D35
  1

  0
LINE
  5
8246
330
79AB
100
AcDbEntity
  8
AM_5
100
AcDbLine
 10
1446.132992763622
 20
411.0779528200446
 30
0.0
 11
1443.865749349574
 21
413.0425411487924
 31
0.0
  0
LINE
  5
8247
330
79AB
100
AcDbEntity
  8
AM_5
100
AcDbLine
 10
1512.638799575725
 20
353.4500285101096
 30
0.0
 11
1526.54812566799
 21
341.3974630324526
 31
0.0
  0
LINE
  5
8248
330
79AB
100
AcDbEntity
  8
AM_5
100
AcDbLine
 10
1526.54812566799
 20
341.3974630324526
 30
0.0
 11
1551.474978571467
 21
341.3974630324525
 31
0.0
  0
LINE
  5
8249
330
79AB
100
AcDbEntity
  8
AM_5
100
AcDbLine
 10
1448.400236177671
 20
409.1133644912969
 30
0.0
 11
1510.371556161676
 21
355.4146168388574
 31
0.0
  0
SOLID
  5
824A
330
79AB
100
AcDbEntity
  8
AM_5
370
     0
100
AcDbTrace
 10
1446.460424151747
 20
411.455826722386
 30
0.0
 11
1445.805561375498
 21
410.700078917703
 31
0.0
 12
1448.400236177671
 22
409.1133644912969
 32
0.0
 13
1448.400236177671
 23
409.1133644912969
 33
0.0
  0
SOLID
  5
824B
330
79AB
100
AcDbEntity
  8
AM_5
370
     0
100
AcDbTrace
 10
1512.966230963849
 20
353.8279024124511
 30
0.0
 11
1512.3113681876
 21
353.0721546077681
 31
0.0
 12
1510.371556161676
 22
355.4146168388574
 32
0.0
 13
1510.371556161676
 23
355.4146168388574
 33
0.0
  0
MTEXT
  5
824C
330
79AB
100
AcDbEntity
  8
AM_5
100
AcDbMText
 10
1539.511552119728
 20
344.5853075206414
 30
0.0
 40
3.5
 41
0.0
 71
     5
 72
     1
  1
\U+220582*3depth
 73
     1
 44
1.0
1001
ACAD
1000
MTEXTBEGIN
1070
    73
1070
     1
1070
    44
1040
1.0
1070
    74
1070
     0
1000
MTEXTEND
  0
POINT
  5
824D
330
79AB
100
AcDbEntity
  8
Defpoints
 62
     0
370
     0
100
AcDbPoint
 10
1510.371556161676
 20
355.4146168388574
 30
0.0
  0
POINT
  5
824E
330
79AB
100
AcDbEntity
  8
Defpoints
 62
     0
370
     0
100
AcDbPoint
 10
1448.400236177671
 20
409.1133644912969
 30
0.0
  0
ENDBLK
  5
79B2
330
79AB
100
AcDbEntity
  8
0
370
     0
100
AcDbBlockEnd
  0
BLOCK
  5
79FC
330
79F0
100
AcDbEntity
  8
0
370
     0
100
AcDbBlockBegin
  2
*D36
 70
     1
 10
0.0
 20
0.0
 30
0.0
  3
*D36
  1

  0
LINE
  5
824F
330
79F0
100
AcDbEntity
  8
AM_5
100
AcDbLine
 10
1501.100364669279
 20
337.6800041028637
 30
0.0
 11
1516.83900466324
 21
299.6835659761408
 31
0.0
  0
LINE
  5
8250
330
79F0
100
AcDbEntity
  8
AM_5
100
AcDbLine
 10
1495.557087474212
 20
335.3839035086729
 30
0.0
 11
1511.295727468173
 21
297.3874653819501
 31
0.0
  0
LINE
  5
8251
330
79F0
100
AcDbEntity
  8
AM_5
100
AcDbLine
 10
1519.227959828409
 20
301.7554958057475
 30
0.0
 11
1521.999598425943
 21
302.903546102843
 31
0.0
  0
LINE
  5
8252
330
79F0
100
AcDbEntity
  8
AM_5
100
AcDbLine
 10
1508.141405438274
 20
297.163294617366
 30
0.0
 11
1486.396698005963
 21
288.1563418890661
 31
0.0
  0
LINE
  5
8253
330
79F0
100
AcDbEntity
  8
AM_5
100
AcDbLine
 10
1516.456321230875
 20
300.6074455086521
 30
0.0
 11
1510.913044035808
 21
298.3113449144613
 31
0.0
  0
SOLID
  5
8254
330
79F0
100
AcDbEntity
  8
AM_5
370
     0
100
AcDbTrace
 10
1519.036618112227
 20
302.2174355720032
 30
0.0
 11
1519.419301544592
 21
301.2935560394919
 31
0.0
 12
1516.456321230875
 22
300.6074455086521
 32
0.0
 13
1516.456321230875
 23
300.6074455086521
 33
0.0
  0
SOLID
  5
8255
330
79F0
100
AcDbEntity
  8
AM_5
370
     0
100
AcDbTrace
 10
1507.950063722091
 20
297.6252343836216
 30
0.0
 11
1508.332747154456
 21
296.7013548511104
 31
0.0
 12
1510.913044035808
 22
298.3113449144613
 32
0.0
 13
1510.913044035808
 23
298.3113449144613
 33
0.0
  0
MTEXT
  5
8256
330
79F0
100
AcDbEntity
  8
AM_5
100
AcDbMText
 10
1494.663428982687
 20
295.0306591145479
 30
0.0
 40
3.5
 41
0.0
 71
     5
 72
     1
  1
6*6depth
 11
0.9238795325112661
 21
0.3826834323651394
 31
0.0
 73
     1
 44
1.0
1001
ACAD
1000
MTEXTBEGIN
1070
    73
1070
     1
1070
    44
1040
1.0
1070
    74
1070
     0
1000
MTEXTEND
  0
POINT
  5
8257
330
79F0
100
AcDbEntity
  8
Defpoints
 62
     0
370
     0
100
AcDbPoint
 10
1500.717681236914
 20
338.603883635375
 30
0.0
  0
POINT
  5
8258
330
79F0
100
AcDbEntity
  8
Defpoints
 62
     0
370
     0
100
AcDbPoint
 10
1495.174404041847
 20
336.3077830411842
 30
0.0
  0
POINT
  5
8259
330
79F0
100
AcDbEntity
  8
Defpoints
 62
     0
370
     0
100
AcDbPoint
 10
1510.913044035808
 20
298.3113449144613
 30
0.0
  0
ENDBLK
  5
79FD
330
79F0
100
AcDbEntity
  8
0
370
     0
100
AcDbBlockEnd
  0
BLOCK
  5
7A5B
330
7A4F
100
AcDbEntity
  8
0
370
     0
100
AcDbBlockBegin
  2
*D37
 70
     1
 10
0.0
 20
0.0
 30
0.0
  3
*D37
  1

  0
LINE
  5
825A
330
7A4F
100
AcDbEntity
  8
AM_5
100
AcDbLine
 10
1498.170213403964
 20
334.3015113083811
 30
0.0
 11
1433.371779573878
 21
307.46112119543
 31
0.0
  0
LINE
  5
825B
330
7A4F
100
AcDbEntity
  8
AM_5
100
AcDbLine
 10
1495.108745945043
 20
341.6925475684715
 30
0.0
 11
1430.310312114958
 21
314.8521574555204
 31
0.0
  0
LINE
  5
825C
330
7A4F
100
AcDbEntity
  8
AM_5
100
AcDbLine
 10
1435.443709403485
 20
305.0721660302611
 30
0.0
 11
1436.59175970058
 21
302.3005274327271
 31
0.0
  0
LINE
  5
825D
330
7A4F
100
AcDbEntity
  8
AM_5
100
AcDbLine
 10
1430.086141350375
 20
318.0064794854195
 30
0.0
 11
1428.93809105328
 21
320.7781180829535
 31
0.0
  0
LINE
  5
825E
330
7A4F
100
AcDbEntity
  8
AM_5
100
AcDbLine
 10
1434.29565910639
 20
307.8438046277951
 30
0.0
 11
1431.23419164747
 21
315.2348408878855
 31
0.0
  0
SOLID
  5
825F
330
7A4F
100
AcDbEntity
  8
AM_5
370
     0
100
AcDbTrace
 10
1435.905649169741
 20
305.2635077464436
 30
0.0
 11
1434.981769637229
 21
304.8808243140786
 31
0.0
 12
1434.29565910639
 22
307.8438046277951
 32
0.0
 13
1434.29565910639
 23
307.8438046277951
 33
0.0
  0
SOLID
  5
8260
330
7A4F
100
AcDbEntity
  8
AM_5
370
     0
100
AcDbTrace
 10
1430.54808111663
 20
318.197821201602
 30
0.0
 11
1429.624201584119
 21
317.815137769237
 31
0.0
 12
1431.23419164747
 22
315.2348408878855
 32
0.0
 13
1431.23419164747
 23
315.2348408878855
 33
0.0
  0
MTEXT
  5
8261
330
7A4F
100
AcDbEntity
  8
AM_5
100
AcDbMText
 10
1435.305594091336
 20
312.5917021968442
 30
0.0
 40
3.5
 41
0.0
 71
     5
 72
     1
  1
8
 11
0.3826834323650172
 21
-0.9238795325113168
 31
0.0
 73
     1
 44
1.0
1001
ACAD
1000
MTEXTBEGIN
1070
    73
1070
     1
1070
    44
1040
1.0
1070
    74
1070
     0
1000
MTEXTEND
  0
POINT
  5
8262
330
7A4F
100
AcDbEntity
  8
Defpoints
 62
     0
370
     0
100
AcDbPoint
 10
1499.094092936475
 20
334.6841947407461
 30
0.0
  0
POINT
  5
8263
330
7A4F
100
AcDbEntity
  8
Defpoints
 62
     0
370
     0
100
AcDbPoint
 10
1496.032625477555
 20
342.0752310008364
 30
0.0
  0
POINT
  5
8264
330
7A4F
100
AcDbEntity
  8
Defpoints
 62
     0
370
     0
100
AcDbPoint
 10
1431.23419164747
 20
315.2348408878855
 30
0.0
  0
ENDBLK
  5
7A5C
330
7A4F
100
AcDbEntity
  8
0
370
     0
100
AcDbBlockEnd
  0
BLOCK
  5
7A99
330
7A8F
100
AcDbEntity
  8
0
370
     0
100
AcDbBlockBegin
  2
*D38
 70
     1
 10
0.0
 20
0.0
 30
0.0
  3
*D38
  1

  0
LINE
  5
8265
330
7A8F
100
AcDbEntity
  8
AM_5
100
AcDbLine
 10
1478.462016637162
 20
381.8813072327123
 30
0.0
 11
1413.663582807079
 21
355.0409171197674
 31
0.0
  0
LINE
  5
8266
330
7A8F
100
AcDbEntity
  8
AM_5
100
AcDbLine
 10
1495.108745945044
 20
341.6925475684714
 30
0.0
 11
1430.310312114955
 21
314.8521574555239
 31
0.0
  0
LINE
  5
8267
330
7A8F
100
AcDbEntity
  8
AM_5
100
AcDbLine
 10
1415.735512636685
 20
352.6519619545984
 30
0.0
 11
1430.086141350371
 21
318.0064794854229
 31
0.0
  0
SOLID
  5
8268
330
7A8F
100
AcDbEntity
  8
AM_5
370
     0
100
AcDbTrace
 10
1416.197452402941
 20
352.8433036707809
 30
0.0
 11
1415.27357287043
 21
352.4606202384159
 31
0.0
 12
1414.587462339591
 22
355.4236005521324
 32
0.0
 13
1414.587462339591
 23
355.4236005521324
 33
0.0
  0
SOLID
  5
8269
330
7A8F
100
AcDbEntity
  8
AM_5
370
     0
100
AcDbTrace
 10
1430.548081116627
 20
318.1978212016054
 30
0.0
 11
1429.624201584116
 21
317.8151377692405
 31
0.0
 12
1431.234191647466
 22
315.2348408878888
 32
0.0
 13
1431.234191647466
 23
315.2348408878888
 33
0.0
  0
MTEXT
  5
826A
330
7A8F
100
AcDbEntity
  8
AM_5
100
AcDbMText
 10
1425.451495707934
 20
336.3816001590144
 30
0.0
 40
3.5
 41
0.0
 71
     5
 72
     1
  1
43.5
 11
0.3826834323649566
 21
-0.9238795325113422
 31
0.0
 73
     1
 44
1.0
1001
ACAD
1000
MTEXTBEGIN
1070
    73
1070
     1
1070
    44
1040
1.0
1070
    74
1070
     0
1000
MTEXTEND
  0
POINT
  5
826B
330
7A8F
100
AcDbEntity
  8
Defpoints
 62
     0
370
     0
100
AcDbPoint
 10
1479.385896169673
 20
382.2639906650772
 30
0.0
  0
POINT
  5
826C
330
7A8F
100
AcDbEntity
  8
Defpoints
 62
     0
370
     0
100
AcDbPoint
 10
1496.032625477555
 20
342.0752310008363
 30
0.0
  0
POINT
  5
826D
330
7A8F
100
AcDbEntity
  8
Defpoints
 62
     0
370
     0
100
AcDbPoint
 10
1431.234191647466
 20
315.2348408878888
 30
0.0
  0
ENDBLK
  5
7A9A
330
7A8F
100
AcDbEntity
  8
0
370
     0
100
AcDbBlockEnd
  0
BLOCK
  5
7AD8
330
7ACE
100
AcDbEntity
  8
0
370
     0
100
AcDbBlockBegin
  2
*D40
 70
     1
 10
0.0
 20
0.0
 30
0.0
  3
*D40
  1

  0
LINE
  5
826E
330
7ACE
100
AcDbEntity
  8
AM_5
100
AcDbLine
 10
1460.28455359982
 20
425.7655850269988
 30
0.0
 11
1395.486119769743
 21
398.9251949140561
 31
0.0
  0
LINE
  5
826F
330
7ACE
100
AcDbEntity
  8
AM_5
100
AcDbLine
 10
1478.462016637162
 20
381.8813072327123
 30
0.0
 11
1413.663582807079
 21
355.0409171197673
 31
0.0
  0
LINE
  5
8270
330
7ACE
100
AcDbEntity
  8
AM_5
100
AcDbLine
 10
1397.55804959935
 20
396.536239748887
 30
0.0
 11
1413.439412042496
 21
358.1952391496663
 31
0.0
  0
SOLID
  5
8271
330
7ACE
100
AcDbEntity
  8
AM_5
370
     0
100
AcDbTrace
 10
1398.019989365605
 20
396.7275814650695
 30
0.0
 11
1397.096109833094
 21
396.3448980327046
 31
0.0
 12
1396.409999302255
 22
399.3078783464211
 32
0.0
 13
1396.409999302255
 23
399.3078783464211
 33
0.0
  0
SOLID
  5
8272
330
7ACE
100
AcDbEntity
  8
AM_5
370
     0
100
AcDbTrace
 10
1413.901351808751
 20
358.3865808658488
 30
0.0
 11
1412.97747227624
 21
358.0038974334838
 31
0.0
 12
1414.58746233959
 22
355.4236005521322
 32
0.0
 13
1414.58746233959
 23
355.4236005521322
 33
0.0
  0
MTEXT
  5
8273
330
7ACE
100
AcDbEntity
  8
AM_5
100
AcDbMText
 10
1408.039399535329
 20
378.4181188882805
 30
0.0
 40
3.5
 41
0.0
 71
     5
 72
     1
  1
47.5
 11
0.3826834323649566
 21
-0.9238795325113422
 31
0.0
 73
     1
 44
1.0
1001
ACAD
1000
MTEXTBEGIN
1070
    73
1070
     1
1070
    44
1040
1.0
1070
    74
1070
     0
1000
MTEXTEND
  0
POINT
  5
8274
330
7ACE
100
AcDbEntity
  8
Defpoints
 62
     0
370
     0
100
AcDbPoint
 10
1461.208433132332
 20
426.1482684593637
 30
0.0
  0
POINT
  5
8275
330
7ACE
100
AcDbEntity
  8
Defpoints
 62
     0
370
     0
100
AcDbPoint
 10
1479.385896169673
 20
382.2639906650772
 30
0.0
  0
POINT
  5
8276
330
7ACE
100
AcDbEntity
  8
Defpoints
 62
     0
370
     0
100
AcDbPoint
 10
1414.58746233959
 20
355.4236005521322
 30
0.0
  0
ENDBLK
  5
7AD9
330
7ACE
100
AcDbEntity
  8
0
370
     0
100
AcDbBlockEnd
  0
BLOCK
  5
7AF4
330
7AEB
100
AcDbEntity
  8
0
370
     0
100
AcDbBlockBegin
  2
*D41
 70
     1
 10
0.0
 20
0.0
 30
0.0
  3
*D41
  1

  0
LINE
  5
8277
330
7AEB
100
AcDbEntity
  8
AM_5
100
AcDbLine
 10
1456.552095457719
 20
429.9322504175627
 30
0.0
 11
1434.352140748397
 21
447.9730872217646
 31
0.0
  0
LINE
  5
8278
330
7AEB
100
AcDbEntity
  8
AM_5
100
AcDbLine
 10
1434.352140748397
 20
447.9730872217646
 30
0.0
 11
1411.875287844921
 21
447.9730872217646
 31
0.0
  0
SOLID
  5
8279
330
7AEB
100
AcDbEntity
  8
AM_5
370
     0
100
AcDbTrace
 10
1456.867427287569
 20
430.3202785571137
 30
0.0
 11
1456.236763627869
 21
429.5442222780116
 31
0.0
 12
1458.880264295025
 22
428.0402594384626
 32
0.0
 13
1458.880264295025
 23
428.0402594384626
 33
0.0
  0
MTEXT
  5
827A
330
7AEB
100
AcDbEntity
  8
AM_5
100
AcDbMText
 10
1422.613714296659
 20
451.1605872217645
 30
0.0
 40
3.5
 41
0.0
 71
     5
 72
     1
  1
\U+22056*6depth
 73
     1
 44
1.0
1001
ACAD
1000
MTEXTBEGIN
1070
    73
1070
     1
1070
    44
1040
1.0
1070
    74
1070
     0
1000
MTEXTEND
  0
POINT
  5
827B
330
7AEB
100
AcDbEntity
  8
Defpoints
 62
     0
370
     0
100
AcDbPoint
 10
1458.880264295025
 20
428.0402594384626
 30
0.0
  0
POINT
  5
827C
330
7AEB
100
AcDbEntity
  8
Defpoints
 62
     0
370
     0
100
AcDbPoint
 10
1463.536601969637
 20
424.2562774802629
 30
0.0
  0
ENDBLK
  5
7AF5
330
7AEB
100
AcDbEntity
  8
0
370
     0
100
AcDbBlockEnd
  0
BLOCK
  5
7B4B
330
7B42
100
AcDbEntity
  8
0
370
     0
100
AcDbBlockBegin
  2
*D42
 70
     1
 10
0.0
 20
0.0
 30
0.0
  3
*D42
  1

  0
LINE
  5
827D
330
7B42
100
AcDbEntity
  8
AM_5
100
AcDbLine
 10
1523.905068898859
 20
410.3505262303013
 30
0.0
 11
1546.891639239907
 21
439.8164086394431
 31
0.0
  0
LINE
  5
827E
330
7B42
100
AcDbEntity
  8
AM_5
100
AcDbLine
 10
1546.891639239907
 20
439.8164086394431
 30
0.0
 11
1580.218492143384
 21
439.8164086394432
 31
0.0
  0
SOLID
  5
827F
330
7B42
100
AcDbEntity
  8
AM_5
370
     0
100
AcDbTrace
 10
1523.510838392929
 20
410.6580685984306
 30
0.0
 11
1524.299299404788
 21
410.0429838621717
 31
0.0
 12
1522.059814690082
 22
407.985143194725
 32
0.0
 13
1522.059814690082
 23
407.985143194725
 33
0.0
  0
MTEXT
  5
8280
330
7B42
100
AcDbEntity
  8
AM_5
100
AcDbMText
 10
1564.055065691646
 20
443.0042531276315
 30
0.0
 40
3.5
 41
0.0
 71
     5
 72
     1
  1
3-M6*1*12depth
 73
     1
 44
1.0
1001
ACAD
1000
MTEXTBEGIN
1070
    73
1070
     1
1070
    44
1040
1.0
1070
    74
1070
     0
1000
MTEXTEND
  0
POINT
  5
8281
330
7B42
100
AcDbEntity
  8
Defpoints
 62
     0
370
     0
100
AcDbPoint
 10
1522.059814690082
 20
407.985143194725
 30
0.0
  0
POINT
  5
8282
330
7B42
100
AcDbEntity
  8
Defpoints
 62
     0
370
     0
100
AcDbPoint
 10
1518.984391008786
 20
404.0428381354306
 30
0.0
  0
ENDBLK
  5
7B4C
330
7B42
100
AcDbEntity
  8
0
370
     0
100
AcDbBlockEnd
  0
BLOCK
  5
7B88
330
7B7F
100
AcDbEntity
  8
0
370
     0
100
AcDbBlockBegin
  2
*D43
 70
     1
 10
0.0
 20
0.0
 30
0.0
  3
*D43
  1

  0
LINE
  5
8283
330
7B7F
100
AcDbEntity
  8
AM_5
100
AcDbLine
 10
1090.927724591219
 20
435.1373683608622
 30
0.0
 11
1073.59577353651
 21
463.4542339027554
 31
0.0
  0
LINE
  5
8284
330
7B7F
100
AcDbEntity
  8
AM_5
100
AcDbLine
 10
1073.59577353651
 20
463.4542339027554
 30
0.0
 11
1047.618920633034
 21
463.4542339027554
 31
0.0
  0
SOLID
  5
8285
330
7B7F
100
AcDbEntity
  8
AM_5
370
     0
100
AcDbTrace
 10
1091.354183138504
 20
435.3983915541767
 30
0.0
 11
1090.501266043935
 21
434.876345167548
 31
0.0
 12
1092.493863751105
 22
432.5786170771553
 32
0.0
 13
1092.493863751105
 23
432.5786170771553
 33
0.0
  0
MTEXT
  5
8286
330
7B7F
100
AcDbEntity
  8
AM_5
100
AcDbMText
 10
1060.107347084772
 20
469.5587450576107
 30
0.0
 40
3.5
 41
0.0
 71
     5
 72
     1
  1
3-\U+22056.6\P%%c11*23depth
 73
     1
 44
1.0
1001
ACAD
1000
MTEXTBEGIN
1070
    73
1070
     1
1070
    44
1040
1.0
1070
    74
1070
     0
1000
MTEXTEND
  0
POINT
  5
8287
330
7B7F
100
AcDbEntity
  8
Defpoints
 62
     0
370
     0
100
AcDbPoint
 10
1092.493863751105
 20
432.5786170771553
 30
0.0
  0
POINT
  5
8288
330
7B7F
100
AcDbEntity
  8
Defpoints
 62
     0
370
     0
100
AcDbPoint
 10
1095.939369902854
 20
426.9493642529994
 30
0.0
  0
ENDBLK
  5
7B89
330
7B7F
100
AcDbEntity
  8
0
370
     0
100
AcDbBlockEnd
  0
BLOCK
  5
7BEB
330
7BE1
100
AcDbEntity
  8
0
370
     0
100
AcDbBlockBegin
  2
*D44
 70
     1
 10
0.0
 20
0.0
 30
0.0
  3
*D44
  1

  0
LINE
  5
8289
330
7BE1
100
AcDbEntity
  8
AM_5
100
AcDbLine
 10
1020.135546418547
 20
416.9518128385867
 30
0.0
 11
1009.743241573135
 21
422.951812838586
 31
0.0
  0
LINE
  5
828A
330
7BE1
100
AcDbEntity
  8
AM_5
100
AcDbLine
 10
1027.135546418547
 20
429.0761684915688
 30
0.0
 11
1016.743241573135
 21
435.0761684915681
 31
0.0
  0
LINE
  5
828B
330
7BE1
100
AcDbEntity
  8
AM_5
100
AcDbLine
 10
1012.109266976919
 20
425.0498890499395
 30
0.0
 11
1016.109266976919
 21
431.9780922802149
 31
0.0
  0
SOLID
  5
828C
330
7BE1
100
AcDbEntity
  8
AM_5
370
     0
100
AcDbTrace
 10
1011.676254275027
 20
425.2998890499394
 30
0.0
 11
1012.542279678812
 21
424.7998890499395
 31
0.0
 12
1010.609266976919
 22
422.4518128385861
 32
0.0
 13
1010.609266976919
 23
422.4518128385861
 33
0.0
  0
SOLID
  5
828D
330
7BE1
100
AcDbEntity
  8
AM_5
370
     0
100
AcDbTrace
 10
1015.676254275027
 20
432.2280922802148
 30
0.0
 11
1016.542279678811
 21
431.7280922802148
 31
0.0
 12
1017.609266976919
 22
434.5761684915682
 32
0.0
 13
1017.609266976919
 23
434.5761684915682
 33
0.0
  0
MTEXT
  5
828E
330
7BE1
100
AcDbEntity
  8
AM_5
100
AcDbMText
 10
1011.727697116512
 20
429.888990665077
 30
0.0
 40
3.5
 41
0.0
 71
     5
 72
     1
  1
14
 11
0.499999999999989
 21
0.8660254037844449
 31
0.0
 73
     1
 44
1.0
1001
ACAD
1000
MTEXTBEGIN
1070
    73
1070
     1
1070
    44
1040
1.0
1070
    74
1070
     0
1000
MTEXTEND
  0
POINT
  5
828F
330
7BE1
100
AcDbEntity
  8
Defpoints
 62
     0
370
     0
100
AcDbPoint
 10
1021.001571822332
 20
416.4518128385867
 30
0.0
  0
POINT
  5
8290
330
7BE1
100
AcDbEntity
  8
Defpoints
 62
     0
370
     0
100
AcDbPoint
 10
1028.001571822332
 20
428.5761684915688
 30
0.0
  0
POINT
  5
8291
330
7BE1
100
AcDbEntity
  8
Defpoints
 62
     0
370
     0
100
AcDbPoint
 10
1017.609266976919
 20
434.5761684915682
 30
0.0
  0
ENDBLK
  5
7BEC
330
7BE1
100
AcDbEntity
  8
0
370
     0
100
AcDbBlockEnd
  0
BLOCK
  5
7C1D
330
7C13
100
AcDbEntity
  8
0
370
     0
100
AcDbBlockBegin
  2
*D45
 70
     1
 10
0.0
 20
0.0
 30
0.0
  3
*D45
  1

  0
LINE
  5
8292
330
7C13
100
AcDbEntity
  8
AM_5
100
AcDbLine
 10
1079.216616826979
 20
300.7639906650773
 30
0.0
 11
1079.216616826979
 21
284.9199055110558
 31
0.0
  0
LINE
  5
8293
330
7C13
100
AcDbEntity
  8
AM_5
100
AcDbLine
 10
1109.216616826979
 20
300.7639906650773
 30
0.0
 11
1109.216616826979
 21
284.9199055110558
 31
0.0
  0
LINE
  5
8294
330
7C13
100
AcDbEntity
  8
AM_5
100
AcDbLine
 10
1082.216616826979
 20
285.9199055110557
 30
0.0
 11
1106.216616826979
 21
285.9199055110557
 31
0.0
  0
SOLID
  5
8295
330
7C13
100
AcDbEntity
  8
AM_5
370
     0
100
AcDbTrace
 10
1082.216616826979
 20
286.4199055110557
 30
0.0
 11
1082.216616826979
 21
285.4199055110557
 31
0.0
 12
1079.216616826979
 22
285.9199055110557
 32
0.0
 13
1079.216616826979
 23
285.9199055110557
 33
0.0
  0
SOLID
  5
8296
330
7C13
100
AcDbEntity
  8
AM_5
370
     0
100
AcDbTrace
 10
1106.216616826979
 20
286.4199055110557
 30
0.0
 11
1106.216616826979
 21
285.4199055110557
 31
0.0
 12
1109.216616826979
 22
285.9199055110557
 32
0.0
 13
1109.216616826979
 23
285.9199055110557
 33
0.0
  0
MTEXT
  5
8297
330
7C13
100
AcDbEntity
  8
AM_5
100
AcDbMText
 10
1094.216616826979
 20
288.6699055110558
 30
0.0
 40
3.5
 41
0.0
 71
     5
 72
     1
  1
30
 73
     1
 44
1.0
1001
ACAD
1000
MTEXTBEGIN
1070
    73
1070
     1
1070
    44
1040
1.0
1070
    74
1070
     0
1000
MTEXTEND
  0
POINT
  5
8298
330
7C13
100
AcDbEntity
  8
Defpoints
 62
     0
370
     0
100
AcDbPoint
 10
1079.216616826979
 20
301.7639906650773
 30
0.0
  0
POINT
  5
8299
330
7C13
100
AcDbEntity
  8
Defpoints
 62
     0
370
     0
100
AcDbPoint
 10
1109.216616826979
 20
301.7639906650773
 30
0.0
  0
POINT
  5
829A
330
7C13
100
AcDbEntity
  8
Defpoints
 62
     0
370
     0
100
AcDbPoint
 10
1109.216616826979
 20
285.9199055110557
 30
0.0
  0
ENDBLK
  5
7C1E
330
7C13
100
AcDbEntity
  8
0
370
     0
100
AcDbBlockEnd
  0
BLOCK
  5
7C45
330
7C3B
100
AcDbEntity
  8
0
370
     0
100
AcDbBlockBegin
  2
*D46
 70
     1
 10
0.0
 20
0.0
 30
0.0
  3
*D46
  1

  0
LINE
  5
829B
330
7C3B
100
AcDbEntity
  8
AM_5
100
AcDbLine
 10
1069.216616826977
 20
315.8805065119679
 30
0.0
 11
1069.216616826977
 21
278.4199055110543
 31
0.0
  0
LINE
  5
829C
330
7C3B
100
AcDbEntity
  8
AM_5
100
AcDbLine
 10
1119.216616826979
 20
315.8805065119672
 30
0.0
 11
1119.216616826979
 21
278.4199055110543
 31
0.0
  0
LINE
  5
829D
330
7C3B
100
AcDbEntity
  8
AM_5
100
AcDbLine
 10
1072.216616826977
 20
279.4199055110543
 30
0.0
 11
1116.216616826979
 21
279.4199055110543
 31
0.0
  0
SOLID
  5
829E
330
7C3B
100
AcDbEntity
  8
AM_5
370
     0
100
AcDbTrace
 10
1072.216616826977
 20
279.9199055110543
 30
0.0
 11
1072.216616826977
 21
278.9199055110543
 31
0.0
 12
1069.216616826977
 22
279.4199055110543
 32
0.0
 13
1069.216616826977
 23
279.4199055110543
 33
0.0
  0
SOLID
  5
829F
330
7C3B
100
AcDbEntity
  8
AM_5
370
     0
100
AcDbTrace
 10
1116.216616826979
 20
279.9199055110543
 30
0.0
 11
1116.216616826979
 21
278.9199055110543
 31
0.0
 12
1119.216616826979
 22
279.4199055110543
 32
0.0
 13
1119.216616826979
 23
279.4199055110543
 33
0.0
  0
MTEXT
  5
82A0
330
7C3B
100
AcDbEntity
  8
AM_5
100
AcDbMText
 10
1094.216616826978
 20
282.1699055110543
 30
0.0
 40
3.5
 41
0.0
 71
     5
 72
     1
  1
50
 73
     1
 44
1.0
1001
ACAD
1000
MTEXTBEGIN
1070
    73
1070
     1
1070
    44
1040
1.0
1070
    74
1070
     0
1000
MTEXTEND
  0
POINT
  5
82A1
330
7C3B
100
AcDbEntity
  8
Defpoints
 62
     0
370
     0
100
AcDbPoint
 10
1069.216616826977
 20
316.880506511968
 30
0.0
  0
POINT
  5
82A2
330
7C3B
100
AcDbEntity
  8
Defpoints
 62
     0
370
     0
100
AcDbPoint
 10
1119.216616826979
 20
316.8805065119672
 30
0.0
  0
POINT
  5
82A3
330
7C3B
100
AcDbEntity
  8
Defpoints
 62
     0
370
     0
100
AcDbPoint
 10
1119.216616826979
 20
279.4199055110543
 30
0.0
  0
ENDBLK
  5
7C46
330
7C3B
100
AcDbEntity
  8
0
370
     0
100
AcDbBlockEnd
  0
BLOCK
  5
7C88
330
7C7F
100
AcDbEntity
  8
0
370
     0
100
AcDbBlockBegin
  2
*D49
 70
     1
 10
0.0
 20
0.0
 30
0.0
  3
*D49
  1

  0
LINE
  5
82A4
330
7C7F
100
AcDbEntity
  8
AM_5
100
AcDbLine
 10
1142.852440727956
 20
410.6232331350923
 30
0.0
 11
1145.444047685379
 21
412.1343828226597
 31
0.0
  0
LINE
  5
82A5
330
7C7F
100
AcDbEntity
  8
AM_5
100
AcDbLine
 10
1045.580792926001
 20
353.9047481950622
 30
0.0
 11
1039.42989673357
 21
350.3181993810812
 31
0.0
  0
LINE
  5
82A6
330
7C7F
100
AcDbEntity
  8
AM_5
100
AcDbLine
 10
1039.42989673357
 20
350.3181993810812
 30
0.0
 11
1026.006274686326
 21
350.3181993810811
 31
0.0
  0
LINE
  5
82A7
330
7C7F
100
AcDbEntity
  8
AM_5
100
AcDbLine
 10
1140.260833770532
 20
409.1120834475248
 30
0.0
 11
1048.172399883424
 21
355.4158978826296
 31
0.0
  0
SOLID
  5
82A8
330
7C7F
100
AcDbEntity
  8
AM_5
370
     0
100
AcDbTrace
 10
1142.600582446695
 20
411.0551676279962
 30
0.0
 11
1143.104299009217
 21
410.1912986421885
 31
0.0
 12
1140.260833770532
 22
409.1120834475248
 32
0.0
 13
1140.260833770532
 23
409.1120834475248
 33
0.0
  0
SOLID
  5
82A9
330
7C7F
100
AcDbEntity
  8
AM_5
370
     0
100
AcDbTrace
 10
1045.32893464474
 20
354.3366826879661
 30
0.0
 11
1045.832651207262
 21
353.4728137021584
 31
0.0
 12
1048.172399883424
 22
355.4158978826296
 32
0.0
 13
1048.172399883424
 23
355.4158978826296
 33
0.0
  0
MTEXT
  5
82AA
330
7C7F
100
AcDbEntity
  8
AM_5
100
AcDbMText
 10
1032.218085709948
 20
353.0681993810812
 30
0.0
 40
3.5
 41
0.0
 71
     5
 72
     1
  1
\U+2205106.6
 73
     1
 44
1.0
1001
ACAD
1000
MTEXTBEGIN
1070
    73
1070
     1
1070
    44
1040
1.0
1070
    74
1070
     0
1000
MTEXTEND
  0
POINT
  5
82AB
330
7C7F
100
AcDbEntity
  8
Defpoints
 62
     0
370
     0
100
AcDbPoint
 10
1048.172399883424
 20
355.4158978826296
 30
0.0
  0
POINT
  5
82AC
330
7C7F
100
AcDbEntity
  8
Defpoints
 62
     0
370
     0
100
AcDbPoint
 10
1140.260833770532
 20
409.1120834475248
 30
0.0
  0
ENDBLK
  5
7C89
330
7C7F
100
AcDbEntity
  8
0
370
     0
100
AcDbBlockEnd
  0
BLOCK
  5
7CC6
330
7CBD
100
AcDbEntity
  8
0
370
     0
100
AcDbBlockBegin
  2
*D51
 70
     1
 10
0.0
 20
0.0
 30
0.0
  3
*D51
  1

  0
LINE
  5
82AD
330
7CBD
100
AcDbEntity
  8
AM_5
100
AcDbLine
 10
1146.686727983513
 20
433.01719189634
 30
0.0
 11
1148.843033921452
 21
435.1029398921454
 31
0.0
  0
LINE
  5
82AE
330
7CBD
100
AcDbEntity
  8
AM_5
100
AcDbLine
 10
1041.746505670447
 20
331.5107894338148
 30
0.0
 11
1038.639520641274
 21
328.5054701590435
 31
0.0
  0
LINE
  5
82AF
330
7CBD
100
AcDbEntity
  8
AM_5
100
AcDbLine
 10
1038.639520641274
 20
328.5054701590435
 30
0.0
 11
1028.536764735762
 21
328.5054701590435
 31
0.0
  0
LINE
  5
82B0
330
7CBD
100
AcDbEntity
  8
AM_5
100
AcDbLine
 10
1144.530422045573
 20
430.9314439005348
 30
0.0
 11
1043.902811608386
 21
333.5965374296199
 31
0.0
  0
SOLID
  5
82B1
330
7CBD
100
AcDbEntity
  8
AM_5
370
     0
100
AcDbTrace
 10
1146.339103317545
 20
433.37657621933
 30
0.0
 11
1147.03435264948
 21
432.65780757335
 31
0.0
 12
1144.530422045573
 22
430.9314439005348
 32
0.0
 13
1144.530422045573
 23
430.9314439005348
 33
0.0
  0
SOLID
  5
82B2
330
7CBD
100
AcDbEntity
  8
AM_5
370
     0
100
AcDbTrace
 10
1041.398881004479
 20
331.8701737568046
 30
0.0
 11
1042.094130336414
 21
331.1514051108247
 31
0.0
 12
1043.902811608386
 22
333.5965374296199
 32
0.0
 13
1043.902811608386
 23
333.5965374296199
 33
0.0
  0
MTEXT
  5
82B3
330
7CBD
100
AcDbEntity
  8
AM_5
100
AcDbMText
 10
1033.088142688518
 20
331.2554701590433
 30
0.0
 40
3.5
 41
0.0
 71
     5
 72
     1
  1
\U+2205140
 73
     1
 44
1.0
1001
ACAD
1000
MTEXTBEGIN
1070
    73
1070
     1
1070
    44
1040
1.0
1070
    74
1070
     0
1000
MTEXTEND
  0
POINT
  5
82B4
330
7CBD
100
AcDbEntity
  8
Defpoints
 62
     0
370
     0
100
AcDbPoint
 10
1043.902811608386
 20
333.5965374296199
 30
0.0
  0
POINT
  5
82B5
330
7CBD
100
AcDbEntity
  8
Defpoints
 62
     0
370
     0
100
AcDbPoint
 10
1144.530422045573
 20
430.9314439005348
 30
0.0
  0
ENDBLK
  5
7CC7
330
7CBD
100
AcDbEntity
  8
0
370
     0
100
AcDbBlockEnd
  0
BLOCK
  5
7CFD
330
7CF3
100
AcDbEntity
  8
0
370
     0
100
AcDbBlockBegin
  2
*D52
 70
     1
 10
0.0
 20
0.0
 30
0.0
  3
*D52
  1

  0
LINE
  5
82B6
330
7CF3
100
AcDbEntity
  8
AM_5
100
AcDbLine
 10
1159.23550940892
 20
418.6479652612931
 30
0.0
 11
1191.189345248546
 21
363.3022980903472
 31
0.0
  0
LINE
  5
82B7
330
7CF3
100
AcDbEntity
  8
AM_5
100
AcDbLine
 10
1141.915001333231
 20
408.6479652612928
 30
0.0
 11
1173.868837172857
 21
353.302298090347
 31
0.0
  0
LINE
  5
82B8
330
7CF3
100
AcDbEntity
  8
AM_5
100
AcDbLine
 10
1188.091269037192
 20
362.6683234941316
 30
0.0
 11
1175.96691338421
 21
355.6683234941315
 31
0.0
  0
SOLID
  5
82B9
330
7CF3
100
AcDbEntity
  8
AM_5
370
     0
100
AcDbTrace
 10
1187.841269037193
 20
363.1013361960238
 30
0.0
 11
1188.341269037192
 21
362.2353107922394
 31
0.0
 12
1190.689345248546
 22
364.1683234941317
 32
0.0
 13
1190.689345248546
 23
364.1683234941317
 33
0.0
  0
SOLID
  5
82BA
330
7CF3
100
AcDbEntity
  8
AM_5
370
     0
100
AcDbTrace
 10
1175.71691338421
 20
356.1013361960237
 30
0.0
 11
1176.21691338421
 21
355.2353107922393
 31
0.0
 12
1173.368837172857
 22
354.1683234941315
 32
0.0
 13
1173.368837172857
 23
354.1683234941315
 33
0.0
  0
MTEXT
  5
82BB
330
7CF3
100
AcDbEntity
  8
AM_5
100
AcDbMText
 10
1180.653918966607
 20
361.5501916900618
 30
0.0
 40
3.5
 41
0.0
 71
     5
 72
     1
  1
20
 11
0.8660254037844318
 21
0.5000000000000118
 31
0.0
 73
     1
 44
1.0
1001
ACAD
1000
MTEXTBEGIN
1070
    73
1070
     1
1070
    44
1040
1.0
1070
    74
1070
     0
1000
MTEXTEND
  0
POINT
  5
82BC
330
7CF3
100
AcDbEntity
  8
Defpoints
 62
     0
370
     0
100
AcDbPoint
 10
1158.73550940892
 20
419.5139906650775
 30
0.0
  0
POINT
  5
82BD
330
7CF3
100
AcDbEntity
  8
Defpoints
 62
     0
370
     0
100
AcDbPoint
 10
1141.415001333231
 20
409.5139906650772
 30
0.0
  0
POINT
  5
82BE
330
7CF3
100
AcDbEntity
  8
Defpoints
 62
     0
370
     0
100
AcDbPoint
 10
1173.368837172857
 20
354.1683234941315
 30
0.0
  0
ENDBLK
  5
7CFE
330
7CF3
100
AcDbEntity
  8
0
370
     0
100
AcDbBlockEnd
  0
BLOCK
  5
7D27
330
7D1B
100
AcDbEntity
  8
0
370
     0
100
AcDbBlockBegin
  2
*D53
 70
     1
 10
0.0
 20
0.0
 30
0.0
  3
*D53
  1

  0
LINE
  5
82BF
330
7D1B
100
AcDbEntity
  8
AM_5
100
AcDbLine
 10
1140.218848910524
 20
399.5857874348013
 30
0.0
 11
1168.672684750148
 21
350.3022980903454
 31
0.0
  0
LINE
  5
82C0
330
7D1B
100
AcDbEntity
  8
AM_5
100
AcDbLine
 10
1141.915001333231
 20
408.6479652612927
 30
0.0
 11
1173.868837172855
 21
353.3022980903453
 31
0.0
  0
LINE
  5
82C1
330
7D1B
100
AcDbEntity
  8
AM_5
100
AcDbLine
 10
1165.574608538795
 20
349.6683234941298
 30
0.0
 11
1162.976532327442
 21
348.16832349413
 31
0.0
  0
LINE
  5
82C2
330
7D1B
100
AcDbEntity
  8
AM_5
100
AcDbLine
 10
1175.966913384209
 20
355.6683234941296
 30
0.0
 11
1178.564989595562
 21
357.1683234941296
 31
0.0
  0
LINE
  5
82C3
330
7D1B
100
AcDbEntity
  8
AM_5
100
AcDbLine
 10
1168.172684750149
 20
351.1683234941298
 30
0.0
 11
1173.368837172855
 21
354.1683234941297
 31
0.0
  0
SOLID
  5
82C4
330
7D1B
100
AcDbEntity
  8
AM_5
370
     0
100
AcDbTrace
 10
1165.324608538795
 20
350.1013361960221
 30
0.0
 11
1165.824608538795
 21
349.2353107922376
 31
0.0
 12
1168.172684750149
 22
351.1683234941298
 32
0.0
 13
1168.172684750149
 23
351.1683234941298
 33
0.0
  0
SOLID
  5
82C5
330
7D1B
100
AcDbEntity
  8
AM_5
370
     0
100
AcDbTrace
 10
1175.716913384208
 20
356.1013361960219
 30
0.0
 11
1176.216913384209
 21
355.2353107922374
 31
0.0
 12
1173.368837172855
 22
354.1683234941297
 32
0.0
 13
1173.368837172855
 23
354.1683234941297
 33
0.0
  0
MTEXT
  5
82C6
330
7D1B
100
AcDbEntity
  8
AM_5
100
AcDbMText
 10
1169.395760961502
 20
355.049893354537
 30
0.0
 40
3.5
 41
0.0
 71
     5
 72
     1
  1
6
 11
0.86602540378445
 21
0.4999999999999803
 31
0.0
 73
     1
 44
1.0
1001
ACAD
1000
MTEXTBEGIN
1070
    73
1070
     1
1070
    44
1040
1.0
1070
    74
1070
     0
1000
MTEXTEND
  0
POINT
  5
82C7
330
7D1B
100
AcDbEntity
  8
Defpoints
 62
     0
370
     0
100
AcDbPoint
 10
1139.718848910524
 20
400.4518128385857
 30
0.0
  0
POINT
  5
82C8
330
7D1B
100
AcDbEntity
  8
Defpoints
 62
     0
370
     0
100
AcDbPoint
 10
1141.415001333231
 20
409.5139906650771
 30
0.0
  0
POINT
  5
82C9
330
7D1B
100
AcDbEntity
  8
Defpoints
 62
     0
370
     0
100
AcDbPoint
 10
1173.368837172855
 20
354.1683234941297
 30
0.0
  0
ENDBLK
  5
7D28
330
7D1B
100
AcDbEntity
  8
0
370
     0
100
AcDbBlockEnd
  0
BLOCK
  5
7D58
330
7D4E
100
AcDbEntity
  8
0
370
     0
100
AcDbBlockBegin
  2
*D54
 70
     1
 10
0.0
 20
0.0
 30
0.0
  3
*D54
  1

  0
LINE
  5
82CA
330
7D4E
100
AcDbEntity
  8
AM_5
100
AcDbLine
 10
1240.579910632499
 20
429.5761684915675
 30
0.0
 11
1240.579910632499
 21
447.0068813050203
 31
0.0
  0
LINE
  5
82CB
330
7D4E
100
AcDbEntity
  8
AM_5
100
AcDbLine
 10
1356.5799106325
 20
436.2639906650773
 30
0.0
 11
1356.5799106325
 21
447.0068813050203
 31
0.0
  0
LINE
  5
82CC
330
7D4E
100
AcDbEntity
  8
AM_5
100
AcDbLine
 10
1243.579910632499
 20
446.0068813050203
 30
0.0
 11
1353.5799106325
 21
446.0068813050203
 31
0.0
  0
SOLID
  5
82CD
330
7D4E
100
AcDbEntity
  8
AM_5
370
     0
100
AcDbTrace
 10
1243.579910632499
 20
446.5068813050203
 30
0.0
 11
1243.579910632499
 21
445.5068813050202
 31
0.0
 12
1240.579910632499
 22
446.0068813050203
 32
0.0
 13
1240.579910632499
 23
446.0068813050203
 33
0.0
  0
SOLID
  5
82CE
330
7D4E
100
AcDbEntity
  8
AM_5
370
     0
100
AcDbTrace
 10
1353.5799106325
 20
446.5068813050203
 30
0.0
 11
1353.5799106325
 21
445.5068813050202
 31
0.0
 12
1356.5799106325
 22
446.0068813050203
 32
0.0
 13
1356.5799106325
 23
446.0068813050203
 33
0.0
  0
MTEXT
  5
82CF
330
7D4E
100
AcDbEntity
  8
AM_5
100
AcDbMText
 10
1298.5799106325
 20
448.9318813050203
 30
0.0
 40
3.5
 41
0.0
 71
     5
 72
     1
  1
(116)
 73
     1
 44
1.0
1001
ACAD
1000
MTEXTBEGIN
1070
    73
1070
     1
1070
    44
1040
1.0
1070
    74
1070
     0
1000
MTEXTEND
  0
POINT
  5
82D0
330
7D4E
100
AcDbEntity
  8
Defpoints
 62
     0
370
     0
100
AcDbPoint
 10
1240.579910632499
 20
428.5761684915676
 30
0.0
  0
POINT
  5
82D1
330
7D4E
100
AcDbEntity
  8
Defpoints
 62
     0
370
     0
100
AcDbPoint
 10
1356.5799106325
 20
435.2639906650773
 30
0.0
  0
POINT
  5
82D2
330
7D4E
100
AcDbEntity
  8
Defpoints
 62
     0
370
     0
100
AcDbPoint
 10
1356.5799106325
 20
446.0068813050203
 30
0.0
  0
ENDBLK
  5
7D59
330
7D4E
100
AcDbEntity
  8
0
370
     0
100
AcDbBlockEnd
  0
BLOCK
  5
7D89
330
7D7F
100
AcDbEntity
  8
0
370
     0
100
AcDbBlockBegin
  2
*D55
 70
     1
 10
0.0
 20
0.0
 30
0.0
  3
*D55
  1

  0
LINE
  5
82D3
330
7D7F
100
AcDbEntity
  8
AM_5
100
AcDbLine
 10
1356.5799106325
 20
328.2639906650773
 30
0.0
 11
1356.5799106325
 21
288.7639906650774
 31
0.0
  0
LINE
  5
82D4
330
7D7F
100
AcDbEntity
  8
AM_5
100
AcDbLine
 10
1286.5799106325
 20
311.2639906650773
 30
0.0
 11
1286.5799106325
 21
288.7639906650774
 31
0.0
  0
LINE
  5
82D5
330
7D7F
100
AcDbEntity
  8
AM_5
100
AcDbLine
 10
1353.5799106325
 20
289.7639906650773
 30
0.0
 11
1289.5799106325
 21
289.7639906650773
 31
0.0
  0
SOLID
  5
82D6
330
7D7F
100
AcDbEntity
  8
AM_5
370
     0
100
AcDbTrace
 10
1353.5799106325
 20
290.2639906650774
 30
0.0
 11
1353.5799106325
 21
289.2639906650773
 31
0.0
 12
1356.5799106325
 22
289.7639906650773
 32
0.0
 13
1356.5799106325
 23
289.7639906650773
 33
0.0
  0
SOLID
  5
82D7
330
7D7F
100
AcDbEntity
  8
AM_5
370
     0
100
AcDbTrace
 10
1289.5799106325
 20
290.2639906650774
 30
0.0
 11
1289.5799106325
 21
289.2639906650773
 31
0.0
 12
1286.5799106325
 22
289.7639906650773
 32
0.0
 13
1286.5799106325
 23
289.7639906650773
 33
0.0
  0
MTEXT
  5
82D8
330
7D7F
100
AcDbEntity
  8
AM_5
100
AcDbMText
 10
1321.5799106325
 20
292.5139906650774
 30
0.0
 40
3.5
 41
0.0
 71
     5
 72
     1
  1
70
 73
     1
 44
1.0
1001
ACAD
1000
MTEXTBEGIN
1070
    73
1070
     1
1070
    44
1040
1.0
1070
    74
1070
     0
1000
MTEXTEND
  0
POINT
  5
82D9
330
7D7F
100
AcDbEntity
  8
Defpoints
 62
     0
370
     0
100
AcDbPoint
 10
1356.5799106325
 20
329.2639906650773
 30
0.0
  0
POINT
  5
82DA
330
7D7F
100
AcDbEntity
  8
Defpoints
 62
     0
370
     0
100
AcDbPoint
 10
1286.5799106325
 20
312.2639906650773
 30
0.0
  0
POINT
  5
82DB
330
7D7F
100
AcDbEntity
  8
Defpoints
 62
     0
370
     0
100
AcDbPoint
 10
1286.5799106325
 20
289.7639906650773
 30
0.0
  0
ENDBLK
  5
7D8A
330
7D7F
100
AcDbEntity
  8
0
370
     0
100
AcDbBlockEnd
  0
BLOCK
  5
7DA8
330
7D9E
100
AcDbEntity
  8
0
370
     0
100
AcDbBlockBegin
  2
*D56
 70
     1
 10
0.0
 20
0.0
 30
0.0
  3
*D56
  1

  0
LINE
  5
82DC
330
7D9E
100
AcDbEntity
  8
AM_5
100
AcDbLine
 10
1356.5799106325
 20
328.2639906650773
 30
0.0
 11
1356.5799106325
 21
282.2639906650774
 31
0.0
  0
LINE
  5
82DD
330
7D9E
100
AcDbEntity
  8
AM_5
100
AcDbLine
 10
1278.0799106325
 20
300.7639906650773
 30
0.0
 11
1278.0799106325
 21
282.2639906650774
 31
0.0
  0
LINE
  5
82DE
330
7D9E
100
AcDbEntity
  8
AM_5
100
AcDbLine
 10
1353.5799106325
 20
283.2639906650774
 30
0.0
 11
1281.079910632499
 21
283.2639906650774
 31
0.0
  0
SOLID
  5
82DF
330
7D9E
100
AcDbEntity
  8
AM_5
370
     0
100
AcDbTrace
 10
1353.5799106325
 20
283.7639906650774
 30
0.0
 11
1353.5799106325
 21
282.7639906650773
 31
0.0
 12
1356.5799106325
 22
283.2639906650774
 32
0.0
 13
1356.5799106325
 23
283.2639906650774
 33
0.0
  0
SOLID
  5
82E0
330
7D9E
100
AcDbEntity
  8
AM_5
370
     0
100
AcDbTrace
 10
1281.079910632499
 20
283.7639906650774
 30
0.0
 11
1281.079910632499
 21
282.7639906650773
 31
0.0
 12
1278.0799106325
 22
283.2639906650774
 32
0.0
 13
1278.0799106325
 23
283.2639906650774
 33
0.0
  0
MTEXT
  5
82E1
330
7D9E
100
AcDbEntity
  8
AM_5
100
AcDbMText
 10
1317.3299106325
 20
286.0139906650774
 30
0.0
 40
3.5
 41
0.0
 71
     5
 72
     1
  1
78.5
 73
     1
 44
1.0
1001
ACAD
1000
MTEXTBEGIN
1070
    73
1070
     1
1070
    44
1040
1.0
1070
    74
1070
     0
1000
MTEXTEND
  0
POINT
  5
82E2
330
7D9E
100
AcDbEntity
  8
Defpoints
 62
     0
370
     0
100
AcDbPoint
 10
1356.5799106325
 20
329.2639906650773
 30
0.0
  0
POINT
  5
82E3
330
7D9E
100
AcDbEntity
  8
Defpoints
 62
     0
370
     0
100
AcDbPoint
 10
1278.0799106325
 20
301.7639906650773
 30
0.0
  0
POINT
  5
82E4
330
7D9E
100
AcDbEntity
  8
Defpoints
 62
     0
370
     0
100
AcDbPoint
 10
1278.0799106325
 20
283.2639906650774
 30
0.0
  0
ENDBLK
  5
7DA9
330
7D9E
100
AcDbEntity
  8
0
370
     0
100
AcDbBlockEnd
  0
BLOCK
  5
7DE1
330
7DD7
100
AcDbEntity
  8
0
370
     0
100
AcDbBlockBegin
  2
*D57
 70
     1
 10
0.0
 20
0.0
 30
0.0
  3
*D57
  1

  0
LINE
  5
82E5
330
7DD7
100
AcDbEntity
  8
AM_5
100
AcDbLine
 10
1254.5799106325
 20
300.7639906650773
 30
0.0
 11
1254.5799106325
 21
282.2639906650773
 31
0.0
  0
LINE
  5
82E6
330
7DD7
100
AcDbEntity
  8
AM_5
100
AcDbLine
 10
1278.0799106325
 20
300.7639906650773
 30
0.0
 11
1278.0799106325
 21
282.2639906650773
 31
0.0
  0
LINE
  5
82E7
330
7DD7
100
AcDbEntity
  8
AM_5
100
AcDbLine
 10
1257.5799106325
 20
283.2639906650773
 30
0.0
 11
1275.079910632499
 21
283.2639906650773
 31
0.0
  0
SOLID
  5
82E8
330
7DD7
100
AcDbEntity
  8
AM_5
370
     0
100
AcDbTrace
 10
1257.5799106325
 20
283.7639906650773
 30
0.0
 11
1257.5799106325
 21
282.7639906650773
 31
0.0
 12
1254.5799106325
 22
283.2639906650773
 32
0.0
 13
1254.5799106325
 23
283.2639906650773
 33
0.0
  0
SOLID
  5
82E9
330
7DD7
100
AcDbEntity
  8
AM_5
370
     0
100
AcDbTrace
 10
1275.079910632499
 20
283.7639906650773
 30
0.0
 11
1275.079910632499
 21
282.7639906650773
 31
0.0
 12
1278.0799106325
 22
283.2639906650773
 32
0.0
 13
1278.0799106325
 23
283.2639906650773
 33
0.0
  0
MTEXT
  5
82EA
330
7DD7
100
AcDbEntity
  8
AM_5
100
AcDbMText
 10
1266.3299106325
 20
286.0143351532663
 30
0.0
 40
3.5
 41
0.0
 71
     5
 72
     1
  1
23.5
 73
     1
 44
1.0
1001
ACAD
1000
MTEXTBEGIN
1070
    73
1070
     1
1070
    44
1040
1.0
1070
    74
1070
     0
1000
MTEXTEND
  0
POINT
  5
82EB
330
7DD7
100
AcDbEntity
  8
Defpoints
 62
     0
370
     0
100
AcDbPoint
 10
1254.5799106325
 20
301.7639906650773
 30
0.0
  0
POINT
  5
82EC
330
7DD7
100
AcDbEntity
  8
Defpoints
 62
     0
370
     0
100
AcDbPoint
 10
1278.0799106325
 20
301.7639906650773
 30
0.0
  0
POINT
  5
82ED
330
7DD7
100
AcDbEntity
  8
Defpoints
 62
     0
370
     0
100
AcDbPoint
 10
1278.0799106325
 20
283.2639906650773
 30
0.0
  0
ENDBLK
  5
7DE2
330
7DD7
100
AcDbEntity
  8
0
370
     0
100
AcDbBlockEnd
  0
BLOCK
  5
7E0D
330
7E03
100
AcDbEntity
  8
0
370
     0
100
AcDbBlockBegin
  2
*D58
 70
     1
 10
0.0
 20
0.0
 30
0.0
  3
*D58
  1

  0
LINE
  5
82EE
330
7E03
100
AcDbEntity
  8
AM_5
100
AcDbLine
 10
1254.5799106325
 20
300.7639906650773
 30
0.0
 11
1254.5799106325
 21
288.7639906650773
 31
0.0
  0
LINE
  5
82EF
330
7E03
100
AcDbEntity
  8
AM_5
100
AcDbLine
 10
1265.5799106325
 20
300.7639906650773
 30
0.0
 11
1265.5799106325
 21
288.7639906650773
 31
0.0
  0
LINE
  5
82F0
330
7E03
100
AcDbEntity
  8
AM_5
100
AcDbLine
 10
1257.5799106325
 20
289.7639906650773
 30
0.0
 11
1262.5799106325
 21
289.7639906650773
 31
0.0
  0
SOLID
  5
82F1
330
7E03
100
AcDbEntity
  8
AM_5
370
     0
100
AcDbTrace
 10
1257.5799106325
 20
290.2639906650773
 30
0.0
 11
1257.5799106325
 21
289.2639906650773
 31
0.0
 12
1254.5799106325
 22
289.7639906650773
 32
0.0
 13
1254.5799106325
 23
289.7639906650773
 33
0.0
  0
SOLID
  5
82F2
330
7E03
100
AcDbEntity
  8
AM_5
370
     0
100
AcDbTrace
 10
1262.5799106325
 20
290.2639906650773
 30
0.0
 11
1262.5799106325
 21
289.2639906650773
 31
0.0
 12
1265.5799106325
 22
289.7639906650773
 32
0.0
 13
1265.5799106325
 23
289.7639906650773
 33
0.0
  0
MTEXT
  5
82F3
330
7E03
100
AcDbEntity
  8
AM_5
100
AcDbMText
 10
1260.0799106325
 20
292.5139906650773
 30
0.0
 40
3.5
 41
0.0
 71
     5
 72
     1
  1
11
 73
     1
 44
1.0
1001
ACAD
1000
MTEXTBEGIN
1070
    73
1070
     1
1070
    44
1040
1.0
1070
    74
1070
     0
1000
MTEXTEND
  0
POINT
  5
82F4
330
7E03
100
AcDbEntity
  8
Defpoints
 62
     0
370
     0
100
AcDbPoint
 10
1254.5799106325
 20
301.7639906650773
 30
0.0
  0
POINT
  5
82F5
330
7E03
100
AcDbEntity
  8
Defpoints
 62
     0
370
     0
100
AcDbPoint
 10
1265.5799106325
 20
301.7639906650773
 30
0.0
  0
POINT
  5
82F6
330
7E03
100
AcDbEntity
  8
Defpoints
 62
     0
370
     0
100
AcDbPoint
 10
1265.5799106325
 20
289.7639906650773
 30
0.0
  0
ENDBLK
  5
7E0E
330
7E03
100
AcDbEntity
  8
0
370
     0
100
AcDbBlockEnd
  0
BLOCK
  5
7E56
330
7E4C
100
AcDbEntity
  8
0
370
     0
100
AcDbBlockBegin
  2
*D59
 70
     1
 10
0.0
 20
0.0
 30
0.0
  3
*D59
  1

  0
LINE
  5
82F7
330
7E4C
100
AcDbEntity
  8
AM_5
100
AcDbLine
 10
1221.513930867456
 20
382.2639906650774
 30
0.0
 11
1223.0799106325
 21
382.2639906650774
 31
0.0
  0
LINE
  5
82F8
330
7E4C
100
AcDbEntity
  8
AM_5
100
AcDbLine
 10
1239.5799106325
 20
301.7639906650773
 30
0.0
 11
1221.0799106325
 21
301.7639906650773
 31
0.0
  0
LINE
  5
82F9
330
7E4C
100
AcDbEntity
  8
AM_5
100
AcDbLine
 10
1222.0799106325
 20
379.2639906650773
 30
0.0
 11
1222.0799106325
 21
304.7639906650773
 31
0.0
  0
SOLID
  5
82FA
330
7E4C
100
AcDbEntity
  8
AM_5
370
     0
100
AcDbTrace
 10
1221.5799106325
 20
379.2639906650773
 30
0.0
 11
1222.5799106325
 21
379.2639906650773
 31
0.0
 12
1222.0799106325
 22
382.2639906650774
 32
0.0
 13
1222.0799106325
 23
382.2639906650774
 33
0.0
  0
SOLID
  5
82FB
330
7E4C
100
AcDbEntity
  8
AM_5
370
     0
100
AcDbTrace
 10
1221.5799106325
 20
304.7639906650773
 30
0.0
 11
1222.5799106325
 21
304.7639906650773
 31
0.0
 12
1222.0799106325
 22
301.7639906650773
 32
0.0
 13
1222.0799106325
 23
301.7639906650773
 33
0.0
  0
MTEXT
  5
82FC
330
7E4C
100
AcDbEntity
  8
AM_5
100
AcDbMText
 10
1219.3299106325
 20
342.0139906650775
 30
0.0
 40
3.5
 41
0.0
 71
     5
 72
     1
  1
80.5
 11
0.0000000000000001
 21
1.0
 31
0.0
 73
     1
 44
1.0
1001
ACAD
1000
MTEXTBEGIN
1070
    73
1070
     1
1070
    44
1040
1.0
1070
    74
1070
     0
1000
MTEXTEND
  0
POINT
  5
82FD
330
7E4C
100
AcDbEntity
  8
Defpoints
 62
     0
370
     0
100
AcDbPoint
 10
1220.513930867456
 20
382.2639906650774
 30
0.0
  0
POINT
  5
82FE
330
7E4C
100
AcDbEntity
  8
Defpoints
 62
     0
370
     0
100
AcDbPoint
 10
1240.5799106325
 20
301.7639906650773
 30
0.0
  0
POINT
  5
82FF
330
7E4C
100
AcDbEntity
  8
Defpoints
 62
     0
370
     0
100
AcDbPoint
 10
1222.0799106325
 20
301.7639906650773
 30
0.0
  0
ENDBLK
  5
7E57
330
7E4C
100
AcDbEntity
  8
0
370
     0
100
AcDbBlockEnd
  0
BLOCK
  5
7E7E
330
7E74
100
AcDbEntity
  8
0
370
     0
100
AcDbBlockBegin
  2
*D60
 70
     1
 10
0.0
 20
0.0
 30
0.0
  3
*D60
  1

  0
LINE
  5
8300
330
7E74
100
AcDbEntity
  8
AM_5
100
AcDbLine
 10
1239.5799106325
 20
333.7639906650773
 30
0.0
 11
1227.5799106325
 21
333.7639906650773
 31
0.0
  0
LINE
  5
8301
330
7E74
100
AcDbEntity
  8
AM_5
100
AcDbLine
 10
1239.5799106325
 20
321.7639906650774
 30
0.0
 11
1227.5799106325
 21
321.7639906650774
 31
0.0
  0
LINE
  5
8302
330
7E74
100
AcDbEntity
  8
AM_5
100
AcDbLine
 10
1228.5799106325
 20
330.7639906650773
 30
0.0
 11
1228.5799106325
 21
324.7639906650774
 31
0.0
  0
SOLID
  5
8303
330
7E74
100
AcDbEntity
  8
AM_5
370
     0
100
AcDbTrace
 10
1228.0799106325
 20
330.7639906650773
 30
0.0
 11
1229.0799106325
 21
330.7639906650773
 31
0.0
 12
1228.5799106325
 22
333.7639906650773
 32
0.0
 13
1228.5799106325
 23
333.7639906650773
 33
0.0
  0
SOLID
  5
8304
330
7E74
100
AcDbEntity
  8
AM_5
370
     0
100
AcDbTrace
 10
1228.0799106325
 20
324.7639906650774
 30
0.0
 11
1229.0799106325
 21
324.7639906650774
 31
0.0
 12
1228.5799106325
 22
321.7639906650774
 32
0.0
 13
1228.5799106325
 23
321.7639906650774
 33
0.0
  0
MTEXT
  5
8305
330
7E74
100
AcDbEntity
  8
AM_5
100
AcDbMText
 10
1225.829566144311
 20
327.7639906650776
 30
0.0
 40
3.5
 41
0.0
 71
     5
 72
     1
  1
12
 11
0.0000000000000001
 21
1.0
 31
0.0
 73
     1
 44
1.0
1001
ACAD
1000
MTEXTBEGIN
1070
    73
1070
     1
1070
    44
1040
1.0
1070
    74
1070
     0
1000
MTEXTEND
  0
POINT
  5
8306
330
7E74
100
AcDbEntity
  8
Defpoints
 62
     0
370
     0
100
AcDbPoint
 10
1240.5799106325
 20
333.7639906650773
 30
0.0
  0
POINT
  5
8307
330
7E74
100
AcDbEntity
  8
Defpoints
 62
     0
370
     0
100
AcDbPoint
 10
1240.5799106325
 20
321.7639906650774
 30
0.0
  0
POINT
  5
8308
330
7E74
100
AcDbEntity
  8
Defpoints
 62
     0
370
     0
100
AcDbPoint
 10
1228.5799106325
 20
321.7639906650774
 30
0.0
  0
ENDBLK
  5
7E7F
330
7E74
100
AcDbEntity
  8
0
370
     0
100
AcDbBlockEnd
  0
BLOCK
  5
7EA8
330
7E9C
100
AcDbEntity
  8
0
370
     0
100
AcDbBlockBegin
  2
*D61
 70
     1
 10
0.0
 20
0.0
 30
0.0
  3
*D61
  1

  0
LINE
  5
8309
330
7E9C
100
AcDbEntity
  8
AM_5
100
AcDbLine
 10
1239.5799106325
 20
321.7639906650774
 30
0.0
 11
1227.5799106325
 21
321.7639906650774
 31
0.0
  0
LINE
  5
830A
330
7E9C
100
AcDbEntity
  8
AM_5
100
AcDbLine
 10
1239.5799106325
 20
313.7639906650774
 30
0.0
 11
1227.5799106325
 21
313.7639906650774
 31
0.0
  0
LINE
  5
830B
330
7E9C
100
AcDbEntity
  8
AM_5
100
AcDbLine
 10
1228.5799106325
 20
324.7639906650774
 30
0.0
 11
1228.5799106325
 21
327.7639906650774
 31
0.0
  0
LINE
  5
830C
330
7E9C
100
AcDbEntity
  8
AM_5
100
AcDbLine
 10
1228.5799106325
 20
310.7639906650774
 30
0.0
 11
1228.5799106325
 21
307.7639906650774
 31
0.0
  0
LINE
  5
830D
330
7E9C
100
AcDbEntity
  8
AM_5
100
AcDbLine
 10
1228.5799106325
 20
321.7639906650774
 30
0.0
 11
1228.5799106325
 21
313.7639906650774
 31
0.0
  0
SOLID
  5
830E
330
7E9C
100
AcDbEntity
  8
AM_5
370
     0
100
AcDbTrace
 10
1228.0799106325
 20
324.7639906650774
 30
0.0
 11
1229.0799106325
 21
324.7639906650774
 31
0.0
 12
1228.5799106325
 22
321.7639906650774
 32
0.0
 13
1228.5799106325
 23
321.7639906650774
 33
0.0
  0
SOLID
  5
830F
330
7E9C
100
AcDbEntity
  8
AM_5
370
     0
100
AcDbTrace
 10
1228.0799106325
 20
310.7639906650774
 30
0.0
 11
1229.0799106325
 21
310.7639906650774
 31
0.0
 12
1228.5799106325
 22
313.7639906650774
 32
0.0
 13
1228.5799106325
 23
313.7639906650774
 33
0.0
  0
MTEXT
  5
8310
330
7E9C
100
AcDbEntity
  8
AM_5
100
AcDbMText
 10
1225.8299106325
 20
317.7639906650776
 30
0.0
 40
3.5
 41
0.0
 71
     5
 72
     1
  1
8
 11
0.0000000000000001
 21
1.0
 31
0.0
 73
     1
 44
1.0
1001
ACAD
1000
MTEXTBEGIN
1070
    73
1070
     1
1070
    44
1040
1.0
1070
    74
1070
     0
1000
MTEXTEND
  0
POINT
  5
8311
330
7E9C
100
AcDbEntity
  8
Defpoints
 62
     0
370
     0
100
AcDbPoint
 10
1240.5799106325
 20
321.7639906650774
 30
0.0
  0
POINT
  5
8312
330
7E9C
100
AcDbEntity
  8
Defpoints
 62
     0
370
     0
100
AcDbPoint
 10
1240.5799106325
 20
313.7639906650774
 30
0.0
  0
POINT
  5
8313
330
7E9C
100
AcDbEntity
  8
Defpoints
 62
     0
370
     0
100
AcDbPoint
 10
1228.5799106325
 20
313.7639906650774
 30
0.0
  0
ENDBLK
  5
7EA9
330
7E9C
100
AcDbEntity
  8
0
370
     0
100
AcDbBlockEnd
  0
BLOCK
  5
7EE7
330
7EDB
100
AcDbEntity
  8
0
370
     0
100
AcDbBlockBegin
  2
*D62
 70
     1
 10
0.0
 20
0.0
 30
0.0
  3
*D62
  1

  0
LINE
  5
8314
330
7EDB
100
AcDbEntity
  8
AM_5
100
AcDbLine
 10
1244.5799106325
 20
623.4253948850539
 30
0.0
 11
1244.5799106325
 21
652.8177007304673
 31
0.0
  0
LINE
  5
8315
330
7EDB
100
AcDbEntity
  8
AM_5
100
AcDbLine
 10
1240.5799106325
 20
640.8176997304673
 30
0.0
 11
1240.5799106325
 21
652.8177007304673
 31
0.0
  0
LINE
  5
8316
330
7EDB
100
AcDbEntity
  8
AM_5
100
AcDbLine
 10
1247.5799106325
 20
651.8177007304672
 30
0.0
 11
1250.5799106325
 21
651.8177007304672
 31
0.0
  0
LINE
  5
8317
330
7EDB
100
AcDbEntity
  8
AM_5
100
AcDbLine
 10
1237.5799106325
 20
651.8177007304672
 30
0.0
 11
1234.5799106325
 21
651.8177007304672
 31
0.0
  0
LINE
  5
8318
330
7EDB
100
AcDbEntity
  8
AM_5
100
AcDbLine
 10
1244.5799106325
 20
651.8177007304672
 30
0.0
 11
1240.5799106325
 21
651.8177007304672
 31
0.0
  0
SOLID
  5
8319
330
7EDB
100
AcDbEntity
  8
AM_5
370
     0
100
AcDbTrace
 10
1247.5799106325
 20
652.3177007304673
 30
0.0
 11
1247.5799106325
 21
651.3177007304673
 31
0.0
 12
1244.5799106325
 22
651.8177007304672
 32
0.0
 13
1244.5799106325
 23
651.8177007304672
 33
0.0
  0
SOLID
  5
831A
330
7EDB
100
AcDbEntity
  8
AM_5
370
     0
100
AcDbTrace
 10
1237.5799106325
 20
652.3177007304673
 30
0.0
 11
1237.5799106325
 21
651.3177007304673
 31
0.0
 12
1240.5799106325
 22
651.8177007304672
 32
0.0
 13
1240.5799106325
 23
651.8177007304672
 33
0.0
  0
MTEXT
  5
831B
330
7EDB
100
AcDbEntity
  8
AM_5
100
AcDbMText
 10
1242.5799106325
 20
654.5677007304673
 30
0.0
 40
3.5
 41
0.0
 71
     5
 72
     1
  1
4
 73
     1
 44
1.0
1001
ACAD
1000
MTEXTBEGIN
1070
    73
1070
     1
1070
    44
1040
1.0
1070
    74
1070
     0
1000
MTEXTEND
  0
POINT
  5
831C
330
7EDB
100
AcDbEntity
  8
Defpoints
 62
     0
370
     0
100
AcDbPoint
 10
1244.5799106325
 20
622.4253948850539
 30
0.0
  0
POINT
  5
831D
330
7EDB
100
AcDbEntity
  8
Defpoints
 62
     0
370
     0
100
AcDbPoint
 10
1240.5799106325
 20
639.8176997304673
 30
0.0
  0
POINT
  5
831E
330
7EDB
100
AcDbEntity
  8
Defpoints
 62
     0
370
     0
100
AcDbPoint
 10
1240.5799106325
 20
651.8177007304672
 30
0.0
  0
ENDBLK
  5
7EE8
330
7EDB
100
AcDbEntity
  8
0
370
     0
100
AcDbBlockEnd
  0
BLOCK
  5
7F1D
330
7F11
100
AcDbEntity
  8
0
370
     0
100
AcDbBlockBegin
  2
*D63
 70
     1
 10
0.0
 20
0.0
 30
0.0
  3
*D63
  1

  0
LINE
  5
831F
330
7F11
100
AcDbEntity
  8
AM_5
100
AcDbLine
 10
1245.5799106325
 20
621.8088069108339
 30
0.0
 11
1245.5799106325
 21
659.3177007304673
 31
0.0
  0
LINE
  5
8320
330
7F11
100
AcDbEntity
  8
AM_5
100
AcDbLine
 10
1240.5799106325
 20
640.8176997304673
 30
0.0
 11
1240.5799106325
 21
659.3177007304673
 31
0.0
  0
LINE
  5
8321
330
7F11
100
AcDbEntity
  8
AM_5
100
AcDbLine
 10
1248.5799106325
 20
658.3177007304673
 30
0.0
 11
1251.5799106325
 21
658.3177007304673
 31
0.0
  0
LINE
  5
8322
330
7F11
100
AcDbEntity
  8
AM_5
100
AcDbLine
 10
1237.5799106325
 20
658.3177007304673
 30
0.0
 11
1234.5799106325
 21
658.3177007304673
 31
0.0
  0
LINE
  5
8323
330
7F11
100
AcDbEntity
  8
AM_5
100
AcDbLine
 10
1245.5799106325
 20
658.3177007304673
 30
0.0
 11
1240.5799106325
 21
658.3177007304673
 31
0.0
  0
SOLID
  5
8324
330
7F11
100
AcDbEntity
  8
AM_5
370
     0
100
AcDbTrace
 10
1248.5799106325
 20
658.8177007304673
 30
0.0
 11
1248.5799106325
 21
657.8177007304673
 31
0.0
 12
1245.5799106325
 22
658.3177007304673
 32
0.0
 13
1245.5799106325
 23
658.3177007304673
 33
0.0
  0
SOLID
  5
8325
330
7F11
100
AcDbEntity
  8
AM_5
370
     0
100
AcDbTrace
 10
1237.5799106325
 20
658.8177007304673
 30
0.0
 11
1237.5799106325
 21
657.8177007304673
 31
0.0
 12
1240.5799106325
 22
658.3177007304673
 32
0.0
 13
1240.5799106325
 23
658.3177007304673
 33
0.0
  0
MTEXT
  5
8326
330
7F11
100
AcDbEntity
  8
AM_5
100
AcDbMText
 10
1243.0799106325
 20
661.0677007304673
 30
0.0
 40
3.5
 41
0.0
 71
     5
 72
     1
  1
5
 73
     1
 44
1.0
1001
ACAD
1000
MTEXTBEGIN
1070
    73
1070
     1
1070
    44
1040
1.0
1070
    74
1070
     0
1000
MTEXTEND
  0
POINT
  5
8327
330
7F11
100
AcDbEntity
  8
Defpoints
 62
     0
370
     0
100
AcDbPoint
 10
1245.5799106325
 20
620.8088069108339
 30
0.0
  0
POINT
  5
8328
330
7F11
100
AcDbEntity
  8
Defpoints
 62
     0
370
     0
100
AcDbPoint
 10
1240.5799106325
 20
639.8176997304673
 30
0.0
  0
POINT
  5
8329
330
7F11
100
AcDbEntity
  8
Defpoints
 62
     0
370
     0
100
AcDbPoint
 10
1240.5799106325
 20
658.3177007304673
 30
0.0
  0
ENDBLK
  5
7F1E
330
7F11
100
AcDbEntity
  8
0
370
     0
100
AcDbBlockEnd
  0
BLOCK
  5
7FB0
330
7FA6
100
AcDbEntity
  8
0
370
     0
100
AcDbBlockBegin
  2
*D64
 70
     1
 10
0.0
 20
0.0
 30
0.0
  3
*D64
  1

  0
LINE
  5
832A
330
7FA6
100
AcDbEntity
  8
AM_5
100
AcDbLine
 10
1342.5799106325
 20
581.006727199095
 30
0.0
 11
1342.5799106325
 21
632.6026547258196
 31
0.0
  0
LINE
  5
832B
330
7FA6
100
AcDbEntity
  8
AM_5
100
AcDbLine
 10
1356.5799106325
 20
620.6026547258196
 30
0.0
 11
1356.5799106325
 21
632.6026547258196
 31
0.0
  0
LINE
  5
832C
330
7FA6
100
AcDbEntity
  8
AM_5
100
AcDbLine
 10
1345.5799106325
 20
631.6026547258196
 30
0.0
 11
1353.5799106325
 21
631.6026547258196
 31
0.0
  0
SOLID
  5
832D
330
7FA6
100
AcDbEntity
  8
AM_5
370
     0
100
AcDbTrace
 10
1345.5799106325
 20
632.1026547258196
 30
0.0
 11
1345.5799106325
 21
631.1026547258197
 31
0.0
 12
1342.5799106325
 22
631.6026547258196
 32
0.0
 13
1342.5799106325
 23
631.6026547258196
 33
0.0
  0
SOLID
  5
832E
330
7FA6
100
AcDbEntity
  8
AM_5
370
     0
100
AcDbTrace
 10
1353.5799106325
 20
632.1026547258196
 30
0.0
 11
1353.5799106325
 21
631.1026547258197
 31
0.0
 12
1356.5799106325
 22
631.6026547258196
 32
0.0
 13
1356.5799106325
 23
631.6026547258196
 33
0.0
  0
MTEXT
  5
832F
330
7FA6
100
AcDbEntity
  8
AM_5
100
AcDbMText
 10
1349.5799106325
 20
634.3526547258196
 30
0.0
 40
3.5
 41
0.0
 71
     5
 72
     1
  1
14
 73
     1
 44
1.0
1001
ACAD
1000
MTEXTBEGIN
1070
    73
1070
     1
1070
    44
1040
1.0
1070
    74
1070
     0
1000
MTEXTEND
  0
POINT
  5
8330
330
7FA6
100
AcDbEntity
  8
Defpoints
 62
     0
370
     0
100
AcDbPoint
 10
1342.5799106325
 20
580.006727199095
 30
0.0
  0
POINT
  5
8331
330
7FA6
100
AcDbEntity
  8
Defpoints
 62
     0
370
     0
100
AcDbPoint
 10
1356.5799106325
 20
619.6026547258196
 30
0.0
  0
POINT
  5
8332
330
7FA6
100
AcDbEntity
  8
Defpoints
 62
     0
370
     0
100
AcDbPoint
 10
1356.5799106325
 20
631.6026547258196
 30
0.0
  0
ENDBLK
  5
7FB1
330
7FA6
100
AcDbEntity
  8
0
370
     0
100
AcDbBlockEnd
  0
BLOCK
  5
7FDC
330
7FD2
100
AcDbEntity
  8
0
370
     0
100
AcDbBlockBegin
  2
*D65
 70
     1
 10
0.0
 20
0.0
 30
0.0
  3
*D65
  1

  0
LINE
  5
8333
330
7FD2
100
AcDbEntity
  8
AM_5
100
AcDbLine
 10
1342.5799106325
 20
581.0067271990952
 30
0.0
 11
1342.5799106325
 21
632.6026547258197
 31
0.0
  0
LINE
  5
8334
330
7FD2
100
AcDbEntity
  8
AM_5
100
AcDbLine
 10
1305.0799106325
 20
554.1985822525448
 30
0.0
 11
1305.0799106325
 21
632.6026547258197
 31
0.0
  0
LINE
  5
8335
330
7FD2
100
AcDbEntity
  8
AM_5
100
AcDbLine
 10
1339.5799106325
 20
631.6026547258197
 30
0.0
 11
1308.0799106325
 21
631.6026547258197
 31
0.0
  0
SOLID
  5
8336
330
7FD2
100
AcDbEntity
  8
AM_5
370
     0
100
AcDbTrace
 10
1339.5799106325
 20
632.1026547258197
 30
0.0
 11
1339.5799106325
 21
631.1026547258197
 31
0.0
 12
1342.5799106325
 22
631.6026547258197
 32
0.0
 13
1342.5799106325
 23
631.6026547258197
 33
0.0
  0
SOLID
  5
8337
330
7FD2
100
AcDbEntity
  8
AM_5
370
     0
100
AcDbTrace
 10
1308.0799106325
 20
632.1026547258197
 30
0.0
 11
1308.0799106325
 21
631.1026547258197
 31
0.0
 12
1305.0799106325
 22
631.6026547258197
 32
0.0
 13
1305.0799106325
 23
631.6026547258197
 33
0.0
  0
MTEXT
  5
8338
330
7FD2
100
AcDbEntity
  8
AM_5
100
AcDbMText
 10
1323.8299106325
 20
634.3526547258197
 30
0.0
 40
3.5
 41
0.0
 71
     5
 72
     1
  1
37.5
 73
     1
 44
1.0
1001
ACAD
1000
MTEXTBEGIN
1070
    73
1070
     1
1070
    44
1040
1.0
1070
    74
1070
     0
1000
MTEXTEND
  0
POINT
  5
8339
330
7FD2
100
AcDbEntity
  8
Defpoints
 62
     0
370
     0
100
AcDbPoint
 10
1342.5799106325
 20
580.0067271990952
 30
0.0
  0
POINT
  5
833A
330
7FD2
100
AcDbEntity
  8
Defpoints
 62
     0
370
     0
100
AcDbPoint
 10
1305.0799106325
 20
553.1985822525448
 30
0.0
  0
POINT
  5
833B
330
7FD2
100
AcDbEntity
  8
Defpoints
 62
     0
370
     0
100
AcDbPoint
 10
1305.0799106325
 20
631.6026547258197
 30
0.0
  0
ENDBLK
  5
7FDD
330
7FD2
100
AcDbEntity
  8
0
370
     0
100
AcDbBlockEnd
  0
BLOCK
  5
8004
330
7FFA
100
AcDbEntity
  8
0
370
     0
100
AcDbBlockBegin
  2
*D66
 70
     1
 10
0.0
 20
0.0
 30
0.0
  3
*D66
  1

  0
LINE
  5
833C
330
7FFA
100
AcDbEntity
  8
AM_5
100
AcDbLine
 10
1357.5799106325
 20
619.6026547258196
 30
0.0
 11
1373.914939304259
 21
619.6026547258196
 31
0.0
  0
LINE
  5
833D
330
7FFA
100
AcDbEntity
  8
AM_5
100
AcDbLine
 10
1357.5799106325
 20
513.6026547258196
 30
0.0
 11
1373.914939304259
 21
513.6026547258196
 31
0.0
  0
LINE
  5
833E
330
7FFA
100
AcDbEntity
  8
AM_5
100
AcDbLine
 10
1372.914939304259
 20
616.6026547258196
 30
0.0
 11
1372.914939304259
 21
516.6026547258196
 31
0.0
  0
SOLID
  5
833F
330
7FFA
100
AcDbEntity
  8
AM_5
370
     0
100
AcDbTrace
 10
1372.414939304259
 20
616.6026547258196
 30
0.0
 11
1373.414939304259
 21
616.6026547258196
 31
0.0
 12
1372.914939304259
 22
619.6026547258196
 32
0.0
 13
1372.914939304259
 23
619.6026547258196
 33
0.0
  0
SOLID
  5
8340
330
7FFA
100
AcDbEntity
  8
AM_5
370
     0
100
AcDbTrace
 10
1372.414939304259
 20
516.6026547258196
 30
0.0
 11
1373.414939304259
 21
516.6026547258196
 31
0.0
 12
1372.914939304259
 22
513.6026547258196
 32
0.0
 13
1372.914939304259
 23
513.6026547258196
 33
0.0
  0
MTEXT
  5
8341
330
7FFA
100
AcDbEntity
  8
AM_5
100
AcDbMText
 10
1370.164939304258
 20
566.60265472582
 30
0.0
 40
3.5
 41
0.0
 71
     5
 72
     1
  1
%%c106
 11
0.0000000000000001
 21
1.0
 31
0.0
 73
     1
 44
1.0
1001
ACAD
1000
MTEXTBEGIN
1070
    73
1070
     1
1070
    44
1040
1.0
1070
    74
1070
     0
1000
MTEXTEND
  0
POINT
  5
8342
330
7FFA
100
AcDbEntity
  8
Defpoints
 62
     0
370
     0
100
AcDbPoint
 10
1356.5799106325
 20
619.6026547258196
 30
0.0
  0
POINT
  5
8343
330
7FFA
100
AcDbEntity
  8
Defpoints
 62
     0
370
     0
100
AcDbPoint
 10
1356.5799106325
 20
513.6026547258196
 30
0.0
  0
POINT
  5
8344
330
7FFA
100
AcDbEntity
  8
Defpoints
 62
     0
370
     0
100
AcDbPoint
 10
1372.914939304259
 20
513.6026547258196
 30
0.0
  0
ENDBLK
  5
8005
330
7FFA
100
AcDbEntity
  8
0
370
     0
100
AcDbBlockEnd
  0
ENDSEC
  0
SECTION
  2
ENTITIES
  0
LWPOLYLINE
  5
1C11
330
A
100
AcDbEntity
  8
0
 62
     4
100
AcDbPolyline
 90
        4
 70
     1
 43
0.0
 10
950.3426984649234
 20
240.0202664908585
 10
1613.552846064923
 20
240.0202664908585
 10
1613.552846064923
 20
674.1284380420291
 10
950.3426984649234
 20
674.1284380420291
1001
GENIUS_GENREC_14
1002
{
1000
PYDIR
1011
950.3426984649234
1021
674.1284380420291
1031
0.0
1002
}
1002
{
1000
PXDIR
1011
1613.552846064923
1021
240.0202664908585
1031
0.0
1002
}
1002
{
1000
PORI
1011
950.3426984649234
1021
240.0202664908585
1031
0.0
1002
}
1002
{
1000
PINS
1011
950.3426984649234
1021
240.0202664908585
1031
0.0
1002
}
1002
{
1000
PINS2
1011
1613.552846064923
1021
674.1284380420291
1031
0.0
1002
}
1002
{
1000
C
1070
     1
1002
}
1001
GENIUS_GENODEF_13
1002
{
1000
HIER
1070
     0
1002
}
1002
{
1000
MANEDIT
1070
     0
1002
}
1002
{
1000
NOSEL
1070
     0
1002
}
1002
{
1000
BEHIND
1070
     0
1002
}
1002
{
1000
OTHER
1070
     0
1002
}
1002
{
1000
REACTOR
1002
}
1001
GENIUS_GENOBJ-N-REC_13
1002
{
1000
OWNER
1000
GEN
1002
}
  0
LWPOLYLINE
  5
1C12
330
A
100
AcDbEntity
  8
LOGO
 62
     4
100
AcDbPolyline
 90
        4
 70
     1
 43
0.0
 10
950.3426984649232
 20
240.0202664908586
 10
1613.552846064923
 20
240.0202664908585
 10
1613.552846064923
 20
199.5504920163167
 10
950.3426984649232
 20
199.5504920163167
1001
GENIUS_GENREC_14
1002
{
1000
PYDIR
1011
950.3426984649232
1021
199.5504920163167
1031
0.0
1002
}
1002
{
1000
PXDIR
1011
1613.552846064923
1021
240.0202664908585
1031
0.0
1002
}
1002
{
1000
PORI
1011
950.3426984649232
1021
240.0202664908586
1031
0.0
1002
}
1002
{
1000
PINS
1011
950.3426984649232
1021
240.0202664908586
1031
0.0
1002
}
1002
{
1000
PINS2
1011
1613.552846064923
1021
199.5504920163167
1031
0.0
1002
}
1002
{
1000
C
1070
     1
1002
}
1001
GENIUS_GENOBJ-N-REC_13
1002
{
1000
OWNER
1000
GEN
1002
}
1001
GENIUS_GENODEF_13
1002
{
1000
HIER
1070
     0
1002
}
1002
{
1000
MANEDIT
1070
     0
1002
}
1002
{
1000
NOSEL
1070
     0
1002
}
1002
{
1000
BEHIND
1070
     0
1002
}
1002
{
1000
OTHER
1070
     0
1002
}
1002
{
1000
REACTOR
1002
}
  0
LINE
  5
1C13
330
A
100
AcDbEntity
  8
LOGO
 62
     4
100
AcDbLine
 10
1122.020430608567
 20
217.7618905298614
 30
0.0
 11
1122.020430608567
 21
202.9229732225289
 31
0.0
  0
LINE
  5
1C14
330
A
100
AcDbEntity
  8
LOGO
 62
     4
100
AcDbLine
 10
1095.040580958873
 20
217.7618905298614
 30
0.0
 11
1095.040580958873
 21
202.9229732225289
 31
0.0
  0
LINE
  5
1C15
330
A
100
AcDbEntity
  8
LOGO
 62
     4
100
AcDbLine
 10
1122.020430608567
 20
202.9229732225289
 30
0.0
 11
1095.040580958873
 21
202.9229732225289
 31
0.0
  0
LINE
  5
1C16
330
A
100
AcDbEntity
  8
LOGO
 62
     4
100
AcDbLine
 10
1134.581821003526
 20
235.9732890434042
 30
0.0
 11
1095.040580958873
 21
235.9732890434042
 31
0.0
  0
LINE
  5
1C17
330
A
100
AcDbEntity
  8
LOGO
 62
     4
100
AcDbLine
 10
1134.581821003526
 20
223.8323567010421
 30
0.0
 11
1095.040580958873
 21
223.8323567010421
 31
0.0
  0
LINE
  5
1C18
330
A
100
AcDbEntity
  8
LOGO
 62
     4
100
AcDbLine
 10
1095.040580958873
 20
235.9732890434042
 30
0.0
 11
1095.040580958873
 21
223.8323567010421
 31
0.0
  0
LINE
  5
1C19
330
A
100
AcDbEntity
  8
LOGO
 62
     4
100
AcDbLine
 10
1134.581821003526
 20
235.9732890434042
 30
0.0
 11
1134.581821003526
 21
223.8323567010421
 31
0.0
  0
LINE
  5
1C1A
330
A
100
AcDbEntity
  8
LOGO
 62
     4
100
AcDbLine
 10
1109.9381762853
 20
223.8323567010421
 30
0.0
 11
1109.9381762853
 21
217.7618905298614
 31
0.0
  0
TEXT
  5
1C1B
330
A
100
AcDbEntity
  8
LOGO
  6
Continuous
100
AcDbText
 10
1097.063037551305
 20
227.3039275096631
 30
0.0
 40
6.157008
  1
MCHG2L
  7
CHINESET
100
AcDbText
  0
LINE
  5
1C1C
330
A
100
AcDbEntity
  8
LOGO
 62
     4
100
AcDbLine
 10
1122.020430608567
 20
217.7618905298614
 30
0.0
 11
1095.040580958873
 21
217.7618905298614
 31
0.0
  0
TEXT
  5
1C1D
330
A
100
AcDbEntity
  8
LOGO
  6
Continuous
100
AcDbText
 10
1103.698329294555
 20
205.0174549338037
 30
265.232234900271
 40
3.03567264
  1
Model
 41
0.8
  7
CHINESET
100
AcDbText
  0
TEXT
  5
1C1E
330
A
100
AcDbEntity
  8
LOGO
100
AcDbText
 10
1102.890331921436
 20
210.6449377742158
 30
265.232234900271
 40
5.0594544
  1
型號
  7
CHINESET
100
AcDbText
  0
LINE
  5
1C1F
330
A
100
AcDbEntity
  8
LOGO
  6
Continuous
100
AcDbLine
 10
1136.302052542478
 20
229.8598177711458
 30
0.0
 11
1141.663045261929
 21
229.8598177711458
 31
0.0
  0
LINE
  5
1C20
330
A
100
AcDbEntity
  8
LOGO
 62
     4
100
AcDbLine
 10
1152.531070523735
 20
217.7618905298614
 30
0.0
 11
1152.531070523735
 21
202.9229732225289
 31
0.0
  0
LINE
  5
1C21
330
A
100
AcDbEntity
  8
LOGO
 62
     4
100
AcDbLine
 10
1125.551220874041
 20
217.7618905298614
 30
0.0
 11
1125.551220874041
 21
202.9229732225289
 31
0.0
  0
LINE
  5
1C22
330
A
100
AcDbEntity
  8
LOGO
 62
     4
100
AcDbLine
 10
1152.531070523735
 20
202.9229732225289
 30
0.0
 11
1125.551220874041
 21
202.9229732225289
 31
0.0
  0
LINE
  5
1C23
330
A
100
AcDbEntity
  8
LOGO
 62
     4
100
AcDbLine
 10
1164.099931729625
 20
235.9732890434042
 30
0.0
 11
1143.354155870125
 21
235.9732890434042
 31
0.0
  0
LINE
  5
1C24
330
A
100
AcDbEntity
  8
LOGO
 62
     4
100
AcDbLine
 10
1164.099931729625
 20
223.8323567010421
 30
0.0
 11
1143.354155870125
 21
223.8323567010421
 31
0.0
  0
LINE
  5
1C25
330
A
100
AcDbEntity
  8
LOGO
 62
     4
100
AcDbLine
 10
1143.354155870125
 20
235.9732890434042
 30
0.0
 11
1143.354155870125
 21
223.8323567010421
 31
0.0
  0
LINE
  5
1C26
330
A
100
AcDbEntity
  8
LOGO
 62
     4
100
AcDbLine
 10
1164.099931729625
 20
235.9732890434042
 30
0.0
 11
1164.099931729625
 21
223.8323567010421
 31
0.0
  0
LINE
  5
1C27
330
A
100
AcDbEntity
  8
LOGO
 62
     4
100
AcDbLine
 10
1152.682258917146
 20
223.8323567010421
 30
0.0
 11
1152.682258917146
 21
220.7971236154517
 31
0.0
  0
TEXT
  5
1C28
330
A
100
AcDbEntity
  8
LOGO
  6
Continuous
100
AcDbText
 10
1147.943297253644
 20
226.7365810686409
 30
0.0
 40
6.157008
  1
80
  7
CHINESET
100
AcDbText
  0
LINE
  5
1C29
330
A
100
AcDbEntity
  8
LOGO
 62
     4
100
AcDbLine
 10
1152.531070523735
 20
217.7618905298614
 30
0.0
 11
1125.551220874041
 21
217.7618905298614
 31
0.0
  0
LINE
  5
1C2A
330
A
100
AcDbEntity
  8
LOGO
  6
Continuous
100
AcDbLine
 10
1187.341269159846
 20
229.8598177711458
 30
0.0
 11
1192.702261879298
 21
229.8598177711458
 31
0.0
  0
LINE
  5
1C2B
330
A
100
AcDbEntity
  8
LOGO
 62
     4
100
AcDbLine
 10
1215.519196116011
 20
217.7618905298614
 30
0.0
 11
1215.519196116011
 21
202.9229732225289
 31
0.0
  0
LINE
  5
1C2C
330
A
100
AcDbEntity
  8
LOGO
 62
     4
100
AcDbLine
 10
1184.460636189708
 20
217.7618905298614
 30
0.0
 11
1184.460636189708
 21
202.9229732225289
 31
0.0
  0
LINE
  5
1C2D
330
A
100
AcDbEntity
  8
LOGO
 62
     4
100
AcDbLine
 10
1215.519196116011
 20
202.9229732225289
 30
0.0
 11
1184.460636189708
 21
202.9229732225289
 31
0.0
  0
LINE
  5
1C2E
330
A
100
AcDbEntity
  8
LOGO
 62
     4
100
AcDbLine
 10
1207.31098734848
 20
235.9732890434042
 30
0.0
 11
1194.393372487493
 21
235.9732890434042
 31
0.0
  0
LINE
  5
1C2F
330
A
100
AcDbEntity
  8
LOGO
 62
     4
100
AcDbLine
 10
1207.31098734848
 20
223.8323567010421
 30
0.0
 11
1194.393372487493
 21
223.8323567010421
 31
0.0
  0
LINE
  5
1C30
330
A
100
AcDbEntity
  8
LOGO
 62
     4
100
AcDbLine
 10
1194.393372487493
 20
235.9732890434042
 30
0.0
 11
1194.393372487493
 21
223.8323567010421
 31
0.0
  0
LINE
  5
1C31
330
A
100
AcDbEntity
  8
LOGO
 62
     4
100
AcDbLine
 10
1207.31098734848
 20
235.9732890434042
 30
0.0
 11
1207.31098734848
 21
223.8323567010421
 31
0.0
  0
LINE
  5
1C32
330
A
100
AcDbEntity
  8
LOGO
 62
     4
100
AcDbLine
 10
1200.852179917986
 20
223.8323567010421
 30
0.0
 11
1200.852179917986
 21
217.7618905298614
 31
0.0
  0
LINE
  5
1C33
330
A
100
AcDbEntity
  8
LOGO
 62
     4
100
AcDbLine
 10
1215.519196116011
 20
217.7618905298614
 30
0.0
 11
1184.460636189708
 21
217.7618905298614
 31
0.0
  0
TEXT
  5
1C34
330
A
100
AcDbEntity
  8
LOGO
  6
Continuous
100
AcDbText
 10
1131.202396679871
 20
205.0174549338037
 30
265.232234900271
 40
3.03567264
  1
Tube I.D.
 41
0.8
  7
CHINESET
100
AcDbText
  0
TEXT
  5
1C35
330
A
100
AcDbEntity
  8
LOGO
100
AcDbText
 10
1132.426412594607
 20
210.6449377742158
 30
265.232234900271
 40
5.0594544
  1
內徑
  7
CHINESET
100
AcDbText
  0
TEXT
  5
1C36
330
A
100
AcDbEntity
  8
LOGO
  6
Continuous
100
AcDbText
 10
1187.281955342079
 20
205.0174549338037
 30
265.232234900271
 40
3.03567264
  1
Sensor switch
 41
0.8
  7
CHINESET
100
AcDbText
  0
TEXT
  5
1C37
330
A
100
AcDbEntity
  8
LOGO
100
AcDbText
 10
1187.071471780315
 20
210.6449377742158
 30
265.232234900271
 40
5.0594544
  1
感應器型式
  7
CHINESET
100
AcDbText
  0
LINE
  5
1C38
330
A
100
AcDbEntity
  8
LOGO
 62
     4
100
AcDbLine
 10
1185.007773158634
 20
235.9732890434042
 30
0.0
 11
1165.81359509137
 21
235.9732890434042
 31
0.0
  0
LINE
  5
1C39
330
A
100
AcDbEntity
  8
LOGO
 62
     4
100
AcDbLine
 10
1185.007773158634
 20
223.8323567010421
 30
0.0
 11
1165.81359509137
 21
223.8323567010421
 31
0.0
  0
LINE
  5
1C3A
330
A
100
AcDbEntity
  8
LOGO
 62
     4
100
AcDbLine
 10
1165.81359509137
 20
235.9732890434042
 30
0.0
 11
1165.81359509137
 21
223.8323567010421
 31
0.0
  0
LINE
  5
1C3B
330
A
100
AcDbEntity
  8
LOGO
 62
     4
100
AcDbLine
 10
1185.007773158634
 20
235.9732890434042
 30
0.0
 11
1185.007773158634
 21
223.8323567010421
 31
0.0
  0
TEXT
  5
1C3C
330
A
100
AcDbEntity
  8
LOGO
  6
Continuous
100
AcDbText
 10
1168.279638277554
 20
226.95934328405
 30
0.0
 40
6.157008
  1
(M)
  7
CHINESET
100
AcDbText
  0
LINE
  5
1C3D
330
A
100
AcDbEntity
  8
LOGO
 62
     4
100
AcDbLine
 10
1180.025832855143
 20
217.7618905298614
 30
0.0
 11
1180.025832855143
 21
202.9229732225289
 31
0.0
  0
LINE
  5
1C3E
330
A
100
AcDbEntity
  8
LOGO
 62
     4
100
AcDbLine
 10
1158.046444157706
 20
217.7618905298614
 30
0.0
 11
1158.046444157706
 21
202.9229732225289
 31
0.0
  0
LINE
  5
1C3F
330
A
100
AcDbEntity
  8
LOGO
 62
     4
100
AcDbLine
 10
1180.025832855143
 20
202.9229732225289
 30
0.0
 11
1158.046444157706
 21
202.9229732225289
 31
0.0
  0
LINE
  5
1C40
330
A
100
AcDbEntity
  8
LOGO
 62
     4
100
AcDbLine
 10
1180.025832855143
 20
217.7618905298614
 30
0.0
 11
1158.046444157706
 21
217.7618905298614
 31
0.0
  0
TEXT
  5
1C41
330
A
100
AcDbEntity
  8
LOGO
  6
Continuous
100
AcDbText
 10
1162.824197603598
 20
205.0174549338037
 30
265.232234900271
 40
3.03567264
  1
Magnet
 41
0.8
  7
CHINESET
100
AcDbText
  0
TEXT
  5
1C42
330
A
100
AcDbEntity
  8
LOGO
100
AcDbText
 10
1161.205319905294
 20
210.6449377742158
 30
265.232234900271
 40
5.0594544
  1
附磁石
  7
CHINESET
100
AcDbText
  0
LINE
  5
1C43
330
A
100
AcDbEntity
  8
LOGO
 62
     4
100
AcDbLine
 10
1175.410684125003
 20
223.8323567010421
 30
0.0
 11
1175.410684125003
 21
220.7971236154517
 31
0.0
  0
LINE
  5
1C44
330
A
100
AcDbEntity
  8
LOGO
 62
     4
100
AcDbLine
 10
1152.682258917146
 20
220.7971236154517
 30
0.0
 11
1139.041145698888
 21
220.7971236154517
 31
0.0
  0
LINE
  5
1C45
330
A
100
AcDbEntity
  8
LOGO
 62
     4
100
AcDbLine
 10
1139.041145698888
 20
217.7618905298614
 30
0.0
 11
1139.041145698888
 21
220.7971236154517
 31
0.0
  0
LINE
  5
1C46
330
A
100
AcDbEntity
  8
LOGO
 62
     4
100
AcDbLine
 10
1175.410684125003
 20
220.7971236154517
 30
0.0
 11
1169.036138506425
 21
220.7971236154517
 31
0.0
  0
LINE
  5
1C47
330
A
100
AcDbEntity
  8
LOGO
 62
     4
100
AcDbLine
 10
1169.036138506424
 20
217.7618905298614
 30
0.0
 11
1169.036138506425
 21
220.7971236154517
 31
0.0
  0
TEXT
  5
1C48
330
A
100
AcDbEntity
  8
LOGO
 62
     7
100
AcDbText
 10
1041.72076954555
 20
222.2911469456199
 30
0.0
 40
5.395969929938822
  1
Order example:
 41
0.8
  7
CHINESET
100
AcDbText
  0
TEXT
  5
1C49
330
A
100
AcDbEntity
  8
LOGO
 62
     7
100
AcDbText
 10
1042.688851173837
 20
229.8875553571439
 30
0.0
 40
8.093954894908232
  1
訂購代號:
  7
CHINESET
100
AcDbText
  0
LINE
  5
1C4A
330
A
100
AcDbEntity
  8
LOGO
 62
     4
100
AcDbLine
 10
1039.376202308914
 20
199.5504920163172
 30
0.0
 11
1039.376202308914
 21
240.0202664908586
 31
0.0
  0
TEXT
  5
1C4B
330
A
100
AcDbEntity
  8
LOGO
  6
Continuous
100
AcDbText
 10
964.8796233713346
 20
207.500718137626
 30
0.0
 40
6.070466171181177
  1
金器工業股份有限公司
  7
CHINESET
100
AcDbText
  0
TEXT
  5
1C4C
330
A
100
AcDbEntity
  8
LOGO
  6
Continuous
100
AcDbText
 10
953.7293779973806
 20
201.4290626310183
 30
0.0
 40
4.046977447454116
  1
MINDMAN INDUSTRIAL CO., LTD.
 41
0.85
  7
CHINESET
100
AcDbText
  0
LINE
  5
1C4D
330
A
100
AcDbEntity
  8
LOGO
100
AcDbLine
 10
1039.376202308914
 20
231.9263115959503
 30
0.0
 11
980.0205330795865
 21
231.9263115959503
 31
0.0
  0
LINE
  5
1C4E
330
A
100
AcDbEntity
  8
LOGO
100
AcDbLine
 10
1039.376202308914
 20
223.8323567010422
 30
0.0
 11
980.0205330795865
 21
223.8323567010422
 31
0.0
  0
LINE
  5
1C4F
330
A
100
AcDbEntity
  8
LOGO
 62
     4
100
AcDbLine
 10
1039.376202308914
 20
215.7384018061342
 30
0.0
 11
950.3426984649232
 21
215.7384018061342
 31
0.0
  0
LINE
  5
1C50
330
A
100
AcDbEntity
  8
LOGO
 62
     4
100
AcDbLine
 10
980.0205330795865
 20
215.7384018061342
 30
0.0
 11
980.0205330795865
 21
240.0202664908586
 31
0.0
  0
TEXT
  5
1C51
330
A
100
AcDbEntity
  8
LOGO
100
AcDbText
 10
1020.587331452917
 20
217.7618905298607
 30
0.0
 40
4.046977447454116
  1
mm
  7
CHINESET
 72
     1
 11
1025.597874959288
 21
219.7853792535878
 31
0.0
100
AcDbText
 73
     2
  0
TEXT
  5
1C52
330
A
100
AcDbEntity
  8
LOGO
100
AcDbText
 10
1018.467486123298
 20
233.9498003196773
 30
0.0
 40
4.046977447454116
  1
1 : 1
  7
CHINESET
 72
     1
 11
1025.597874959288
 21
235.9732890434043
 31
0.0
100
AcDbText
 73
     2
  0
LINE
  5
1C53
330
A
100
AcDbEntity
  8
LOGO
 62
     4
100
AcDbLine
 10
1012.396352659219
 20
215.7384018061342
 30
0.0
 11
1012.396352659219
 21
240.0202664908586
 31
0.0
  0
CIRCLE
  5
1C54
330
A
100
AcDbEntity
  8
LOGO
  6
Continuous
100
AcDbCircle
 10
1019.889837591118
 20
227.8879906628715
 30
0.0
 40
2.349770361103205
  0
CIRCLE
  5
1C55
330
A
100
AcDbEntity
  8
LOGO
  6
Continuous
100
AcDbCircle
 10
1019.889837591118
 20
227.8879906628715
 30
0.0
 40
1.376757418205527
  0
LINE
  5
1C56
330
A
100
AcDbEntity
  8
LOGO
100
AcDbLine
 10
1034.656067196113
 20
225.538220301768
 30
0.0
 11
1034.656067196113
 21
230.2377610239751
 31
0.0
  0
LINE
  5
1C57
330
A
100
AcDbEntity
  8
LOGO
100
AcDbLine
 10
1027.289671997309
 20
226.5112332446661
 30
0.0
 11
1027.289671997309
 21
229.2647480810773
 31
0.0
  0
LINE
  5
1C58
330
A
100
AcDbEntity
  8
LOGO
  6
Continuous
100
AcDbLine
 10
1027.289671997309
 20
229.2647480810773
 30
0.0
 11
1034.656067196113
 21
230.2377610239751
 31
0.0
  0
LINE
  5
1C59
330
A
100
AcDbEntity
  8
LOGO
  6
Continuous
100
AcDbLine
 10
1027.289671997309
 20
226.5112332446661
 30
0.0
 11
1034.656067196113
 21
225.538220301768
 31
0.0
  0
TEXT
  5
1C5A
330
A
100
AcDbEntity
  8
LOGO
100
AcDbText
 10
983.3574827873755
 20
233.9517919424369
 30
265.232234900271
 40
4.046977447454116
  1
比例 Scale:
 41
0.9
  7
CHINESET
 72
     4
 11
996.2084428694028
 21
235.9732890434043
 31
265.232234900271
100
AcDbText
  0
TEXT
  5
1C5B
330
A
100
AcDbEntity
  8
LOGO
100
AcDbText
 10
983.1244202468749
 20
225.9127726419801
 30
265.232234900271
 40
4.046977447454116
  1
投影  View:
 41
0.9
  7
CHINESET
 72
     4
 11
996.2084428694028
 21
227.879334148496
 31
265.232234900271
100
AcDbText
  0
TEXT
  5
1C5C
330
A
100
AcDbEntity
  8
LOGO
100
AcDbText
 10
983.520084559818
 20
217.7618905298607
 30
265.232234900271
 40
4.046977447454116
  1
單位  Unit:
 41
0.9
  7
CHINESET
 72
     4
 11
996.2084428694028
 21
219.7853792535878
 31
265.232234900271
100
AcDbText
  0
SOLID
  5
1C5D
330
A
100
AcDbEntity
  8
LOGO
 62
     5
100
AcDbTrace
 10
954.5415025157042
 20
222.4659257706474
 30
0.0
 11
956.2913093712953
 21
222.465925770647
 31
0.0
 12
963.5922276308297
 22
239.0589218150447
 32
0.0
 13
965.3420344864215
 23
239.0589218150437
 33
0.0
  0
SOLID
  5
1C5E
330
A
100
AcDbEntity
  8
LOGO
 62
     5
100
AcDbTrace
 10
957.0153673805075
 20
222.4659257706474
 30
0.0
 11
958.7651742360984
 21
222.4659257706474
 31
0.0
 12
965.3420344864215
 22
237.7314821314923
 32
0.0
 13
963.5922276308297
 23
231.315523660992
 33
0.0
  0
SOLID
  5
1C5F
330
A
100
AcDbEntity
  8
LOGO
 62
     2
100
AcDbTrace
 10
956.2913093712953
 20
222.465925770647
 30
0.0
 11
957.0153673805075
 21
222.4659257706474
 31
0.0
 12
965.3420344864215
 22
239.0589218150437
 32
0.0
 13
966.0660924956326
 23
239.0589218150437
 33
0.0
  0
SOLID
  5
1C60
330
A
100
AcDbEntity
  8
LOGO
 62
     5
100
AcDbTrace
 10
951.736133020989
 20
216.432109027231
 30
0.0
 11
952.339514695331
 21
216.432109027231
 31
0.0
 12
954.0386844537536
 22
219.449017398939
 32
0.0
 13
954.6420661280942
 23
219.449017398939
 33
0.0
  0
SOLID
  5
1C61
330
A
100
AcDbEntity
  8
LOGO
 62
     5
100
AcDbTrace
 10
954.0386844537536
 20
219.449017398939
 30
0.0
 11
954.6420661280942
 21
219.449017398939
 31
0.0
 12
954.0386844537536
 22
216.432109027231
 32
0.0
 13
954.6420661280942
 23
216.432109027231
 33
0.0
  0
SOLID
  5
1C62
330
A
100
AcDbEntity
  8
LOGO
 62
     5
100
AcDbTrace
 10
954.0386844537536
 20
216.432109027231
 30
0.0
 11
954.6420661280942
 21
216.432109027231
 31
0.0
 12
956.3412358865193
 22
219.449017398939
 32
0.0
 13
956.9446175608607
 23
219.449017398939
 33
0.0
  0
SOLID
  5
1C63
330
A
100
AcDbEntity
  8
LOGO
 62
     5
100
AcDbTrace
 10
956.3412358865193
 20
219.449017398939
 30
0.0
 11
956.9446175608607
 21
219.449017398939
 31
0.0
 12
956.3412358865193
 22
216.432109027231
 32
0.0
 13
956.9446175608607
 23
216.432109027231
 33
0.0
  0
POLYLINE
  5
1C64
330
A
100
AcDbEntity
  8
LOGO
 62
     5
100
AcDb2dPolyline
 66
     1
 10
0.0
 20
0.0
 30
0.0
 40
0.6043486321531482
 41
0.6043486321531482
  0
VERTEX
  5
1C65
330
1C64
100
AcDbEntity
  8
LOGO
 62
     5
100
AcDbVertex
100
AcDb2dVertex
 10
976.5663840658955
 20
218.2422540502555
 30
0.0
 42
1.0
  0
VERTEX
  5
1C66
330
1C64
100
AcDbEntity
  8
LOGO
 62
     5
100
AcDbVertex
100
AcDb2dVertex
 10
974.7533381694351
 20
218.2422540502555
 30
0.0
 42
1.0
  0
SEQEND
  5
1C67
330
1C64
100
AcDbEntity
  8
LOGO
 62
     5
  0
POLYLINE
  5
1C68
330
A
100
AcDbEntity
  8
LOGO
 62
     5
100
AcDb2dPolyline
 66
     1
 10
0.0
 20
0.0
 30
0.0
 70
     1
  0
VERTEX
  5
1C69
330
1C68
100
AcDbEntity
  8
LOGO
 62
     5
100
AcDbVertex
100
AcDb2dVertex
 10
971.3356660103267
 20
217.9405632130845
 30
0.0
 42
1.000000057330635
  0
VERTEX
  5
1C6A
330
1C68
100
AcDbEntity
  8
LOGO
 62
     5
100
AcDbVertex
100
AcDb2dVertex
 10
973.1458110333521
 20
217.9405632130845
 30
0.0
 42
1.000000057330635
  0
SEQEND
  5
1C6B
330
1C68
100
AcDbEntity
  8
LOGO
 62
     5
  0
CIRCLE
  5
1C6C
330
A
100
AcDbEntity
  8
LOGO
 62
     5
100
AcDbCircle
 10
972.240738521841
 20
217.9405632130845
 30
0.0
 40
0.9050725115125548
  0
POLYLINE
  5
1C6D
330
A
100
AcDbEntity
  8
LOGO
 62
     5
100
AcDb2dPolyline
 66
     1
 10
0.0
 20
0.0
 30
0.0
 70
     1
 40
0.6043486321531482
 41
0.6043486321531482
  0
VERTEX
  5
1C6E
330
1C6D
100
AcDbEntity
  8
LOGO
 62
     5
100
AcDbVertex
100
AcDb2dVertex
 10
971.032041257534
 20
217.9405632130845
 30
0.0
 42
1.0
  0
VERTEX
  5
1C6F
330
1C6D
100
AcDbEntity
  8
LOGO
 62
     5
100
AcDbVertex
100
AcDb2dVertex
 10
973.4494357861459
 20
217.9405632130845
 30
0.0
 42
1.0
  0
SEQEND
  5
1C70
330
1C6D
100
AcDbEntity
  8
LOGO
 62
     5
  0
LINE
  5
1C71
330
A
100
AcDbEntity
  8
LOGO
100
AcDbLine
 10
976.8666244663476
 20
216.432109027231
 30
0.0
 11
976.8666244663476
 21
218.2422540502555
 31
0.0
  0
SOLID
  5
1C72
330
A
100
AcDbEntity
  8
LOGO
 62
     5
100
AcDbTrace
 10
973.1457506951873
 20
219.449017398939
 30
0.0
 11
973.7491323695277
 21
219.449017398939
 31
0.0
 12
973.1457506951873
 22
216.432109027231
 32
0.0
 13
973.7491323695277
 23
216.432109027231
 33
0.0
  0
SOLID
  5
1C73
330
A
100
AcDbEntity
  8
LOGO
 62
     5
100
AcDbTrace
 10
974.4530977689811
 20
216.432109027231
 30
0.0
 11
975.0564794433234
 21
216.432109027231
 31
0.0
 12
974.4530977689811
 22
219.449017398939
 32
0.0
 13
975.0564794433234
 23
219.449017398939
 33
0.0
  0
SOLID
  5
1C74
330
A
100
AcDbEntity
  8
LOGO
 62
     5
100
AcDbTrace
 10
976.2632427920072
 20
218.2422540502555
 30
0.0
 11
976.8666244663476
 21
218.2422540502555
 31
0.0
 12
976.2632427920072
 22
216.432109027231
 32
0.0
 13
976.8666244663476
 23
216.432109027231
 33
0.0
  0
SOLID
  5
1C75
330
A
100
AcDbEntity
  8
LOGO
 62
     5
100
AcDbTrace
 10
974.392759601547
 20
237.7314821314923
 30
0.0
 11
972.6429527459565
 21
231.315523660992
 31
0.0
 12
974.392759601547
 22
222.465925770647
 32
0.0
 13
972.6429527459565
 23
222.465925770647
 33
0.0
  0
SOLID
  5
1C76
330
A
100
AcDbEntity
  8
LOGO
 62
     5
100
AcDbTrace
 10
975.1168176107574
 20
222.465925770647
 30
0.0
 11
976.8666244663476
 21
222.465925770647
 31
0.0
 12
975.1168176107574
 22
239.0589218150437
 32
0.0
 13
976.8666244663476
 23
239.0589218150447
 33
0.0
  0
SOLID
  5
1C77
330
A
100
AcDbEntity
  8
LOGO
 62
     2
100
AcDbTrace
 10
974.392759601547
 20
239.0589218150447
 30
0.0
 11
975.1168176107574
 21
239.0589218150437
 31
0.0
 12
974.392759601547
 22
222.465925770647
 32
0.0
 13
975.1168176107574
 23
222.465925770647
 33
0.0
  0
POLYLINE
  5
1C78
330
A
100
AcDbEntity
  8
LOGO
 62
     5
100
AcDb2dPolyline
 66
     1
 10
0.0
 20
0.0
 30
0.0
 40
0.6043486321531482
 41
0.6043486321531482
  0
VERTEX
  5
1C79
330
1C78
100
AcDbEntity
  8
LOGO
 62
     5
100
AcDbVertex
100
AcDb2dVertex
 10
967.917873174886
 20
218.2422540502555
 30
0.0
 42
1.0
  0
VERTEX
  5
1C7A
330
1C78
100
AcDbEntity
  8
LOGO
 62
     5
100
AcDbVertex
100
AcDb2dVertex
 10
966.1048272784263
 20
218.2422540502555
 30
0.0
 42
1.0
  0
SEQEND
  5
1C7B
330
1C78
100
AcDbEntity
  8
LOGO
 62
     5
  0
POLYLINE
  5
1C7C
330
A
100
AcDbEntity
  8
LOGO
 62
     5
100
AcDb2dPolyline
 66
     1
 10
0.0
 20
0.0
 30
0.0
 40
0.6043486321531482
 41
0.6043486321531482
  0
VERTEX
  5
1C7D
330
1C7C
100
AcDbEntity
  8
LOGO
 62
     5
100
AcDbVertex
100
AcDb2dVertex
 10
969.7280181979092
 20
218.2422540502555
 30
0.0
 42
1.0
  0
VERTEX
  5
1C7E
330
1C7C
100
AcDbEntity
  8
LOGO
 62
     5
100
AcDbVertex
100
AcDb2dVertex
 10
967.9149723014502
 20
218.2422540502555
 30
0.0
 42
1.0
  0
SEQEND
  5
1C7F
330
1C7C
100
AcDbEntity
  8
LOGO
 62
     5
  0
POLYLINE
  5
1C80
330
A
100
AcDbEntity
  8
LOGO
 62
     5
100
AcDb2dPolyline
 66
     1
 10
0.0
 20
0.0
 30
0.0
 40
0.6043486321531482
 41
0.6043486321531482
  0
VERTEX
  5
1C81
330
1C80
100
AcDbEntity
  8
LOGO
 62
     5
100
AcDbVertex
100
AcDb2dVertex
 10
961.0795073069001
 20
218.2422540502555
 30
0.0
 42
1.0
  0
VERTEX
  5
1C82
330
1C80
100
AcDbEntity
  8
LOGO
 62
     5
100
AcDbVertex
100
AcDb2dVertex
 10
959.2664614104414
 20
218.2422540502555
 30
0.0
 42
1.0
  0
SEQEND
  5
1C83
330
1C80
100
AcDbEntity
  8
LOGO
 62
     5
  0
SOLID
  5
1C84
330
A
100
AcDbEntity
  8
LOGO
 62
     5
100
AcDbTrace
 10
958.9662210099875
 20
219.449017398939
 30
0.0
 11
959.5696026843283
 21
219.449017398939
 31
0.0
 12
958.9662210099875
 22
216.432109027231
 32
0.0
 13
959.5696026843283
 23
216.432109027231
 33
0.0
  0
SOLID
  5
1C85
330
A
100
AcDbEntity
  8
LOGO
 62
     5
100
AcDbTrace
 10
960.7763660330132
 20
218.2422540502555
 30
0.0
 11
961.3797477073555
 21
218.2422540502555
 31
0.0
 12
960.7763660330132
 22
216.432109027231
 32
0.0
 13
961.3797477073555
 23
216.432109027231
 33
0.0
  0
POLYLINE
  5
1C86
330
A
100
AcDbEntity
  8
LOGO
 62
     5
100
AcDb2dPolyline
 66
     1
 10
0.0
 20
0.0
 30
0.0
 70
     1
 40
0.6043486321531482
 41
0.6043486321531482
  0
VERTEX
  5
1C87
330
1C86
100
AcDbEntity
  8
LOGO
 62
     5
100
AcDbVertex
100
AcDb2dVertex
 10
962.3835303665234
 20
217.9405632130845
 30
0.0
 42
1.0
  0
VERTEX
  5
1C88
330
1C86
100
AcDbEntity
  8
LOGO
 62
     5
100
AcDbVertex
100
AcDb2dVertex
 10
964.8009248951368
 20
217.9405632130845
 30
0.0
 42
1.0
  0
SEQEND
  5
1C89
330
1C86
100
AcDbEntity
  8
LOGO
 62
     5
  0
SOLID
  5
1C8A
330
A
100
AcDbEntity
  8
LOGO
 62
     5
100
AcDbTrace
 10
964.4972398041762
 20
220.354089910452
 30
0.0
 11
965.1006214785175
 21
220.354089910452
 31
0.0
 12
964.4972398041762
 22
216.432109027231
 32
0.0
 13
965.1006214785175
 23
216.432109027231
 33
0.0
  0
SOLID
  5
1C8B
330
A
100
AcDbEntity
  8
LOGO
 62
     5
100
AcDbTrace
 10
965.8045868779735
 20
219.449017398939
 30
0.0
 11
966.4079685523141
 21
219.449017398939
 31
0.0
 12
965.8045868779735
 22
216.432109027231
 32
0.0
 13
966.4079685523141
 23
216.432109027231
 33
0.0
  0
SOLID
  5
1C8C
330
A
100
AcDbEntity
  8
LOGO
 62
     5
100
AcDbTrace
 10
967.6147319009968
 20
218.2422540502555
 30
0.0
 11
968.2181135753396
 21
218.2422540502555
 31
0.0
 12
967.6147319009968
 22
216.432109027231
 32
0.0
 13
968.2181135753396
 23
216.432109027231
 33
0.0
  0
SOLID
  5
1C8D
330
A
100
AcDbEntity
  8
LOGO
 62
     5
100
AcDbTrace
 10
969.4248769240221
 20
218.2422540502555
 30
0.0
 11
970.0282585983638
 21
218.2422540502555
 31
0.0
 12
969.4248769240221
 22
216.43210902723
 32
0.0
 13
970.0282585983638
 23
216.43210902723
 33
0.0
  0
SOLID
  5
1C8E
330
A
100
AcDbEntity
  8
LOGO
 62
     5
100
AcDbTrace
 10
957.6588739361909
 20
219.8713845709782
 30
0.0
 11
958.2622556105345
 21
219.8713845709782
 31
0.0
 12
957.6588739361909
 22
220.354089910452
 32
0.0
 13
958.2622556105345
 23
220.354089910452
 33
0.0
  0
SOLID
  5
1C8F
330
A
100
AcDbEntity
  8
LOGO
 62
     5
100
AcDbTrace
 10
957.6588739361909
 20
219.449017398939
 30
0.0
 11
958.2622556105345
 21
219.449017398939
 31
0.0
 12
957.6588739361909
 22
216.43210902723
 32
0.0
 13
958.2622556105345
 23
216.432109027231
 33
0.0
  0
SOLID
  5
1C90
330
A
100
AcDbEntity
  8
LOGO
 62
     5
100
AcDbTrace
 10
963.5922276308297
 20
222.4659257706474
 30
0.0
 11
965.3420344864215
 21
222.4659257706474
 31
0.0
 12
963.5922276308297
 22
231.315523660992
 32
0.0
 13
965.3420344864215
 23
237.7314821314923
 33
0.0
  0
SOLID
  5
1C91
330
A
100
AcDbEntity
  8
LOGO
 62
     5
100
AcDbTrace
 10
966.0660924956326
 20
239.0589218150437
 30
0.0
 11
967.8158993512225
 21
239.0589218150447
 31
0.0
 12
966.0660924956326
 22
223.7933654541989
 32
0.0
 13
967.8158993512225
 23
230.2093239246992
 33
0.0
  0
SOLID
  5
1C92
330
A
100
AcDbEntity
  8
LOGO
 62
     2
100
AcDbTrace
 10
965.3420344864215
 20
239.0589218150437
 30
0.0
 11
966.0660924956326
 21
239.0589218150437
 31
0.0
 12
965.3420344864215
 22
222.4659257706474
 32
0.0
 13
966.0660924956326
 23
222.4659257706474
 33
0.0
  0
SOLID
  5
1C93
330
A
100
AcDbEntity
  8
LOGO
 62
     5
100
AcDbTrace
 10
966.0660924956326
 20
223.7933654541989
 30
0.0
 11
967.8158993512225
 21
230.2093239246992
 31
0.0
 12
974.392759601547
 22
239.0589218150447
 32
0.0
 13
972.6429527459565
 23
239.0589218150447
 33
0.0
  0
SOLID
  5
1C94
330
A
100
AcDbEntity
  8
LOGO
 62
     5
100
AcDbTrace
 10
966.0660924956326
 20
222.4659257706474
 30
0.0
 11
967.8158993512225
 21
222.4659257706474
 31
0.0
 12
974.392759601547
 22
237.7314821314923
 32
0.0
 13
972.6429527459565
 23
231.315523660992
 33
0.0
  0
SOLID
  5
1C95
330
A
100
AcDbEntity
  8
LOGO
 62
     2
100
AcDbTrace
 10
965.3420344864215
 20
222.4659257706474
 30
0.0
 11
966.0660924956326
 21
222.4659257706474
 31
0.0
 12
974.392759601547
 22
239.0589218150447
 32
0.0
 13
975.1168176107574
 23
239.0589218150437
 33
0.0
  0
TEXT
  5
1C96
330
A
100
AcDbEntity
  8
LOGO
100
AcDbText
 10
1040.981470570451
 20
201.7034680451993
 30
0.0
 40
4.04756352
  1
01005060
 41
0.7
  7
CHINESET
 72
     1
 11
1051.100379370452
 21
201.7034680451993
 31
0.0
100
AcDbText
  0
LINE
  5
1C97
330
A
100
AcDbEntity
  8
LOGO
 62
     4
100
AcDbLine
 10
1063.661583428912
 20
207.6444469112264
 30
0.0
 11
1063.661583428914
 21
199.5504920163175
 31
0.0
  0
LINE
  5
1C98
330
A
100
AcDbEntity
  8
LOGO
 62
     4
100
AcDbLine
 10
1063.661583428912
 20
207.6444469112264
 30
0.0
 11
1039.376202308914
 21
207.6444469112264
 31
0.0
  0
LINE
  5
1C99
330
A
100
AcDbEntity
  8
LOGO
  6
AM_ISO08W050x2
 48
0.2
100
AcDbLine
 10
1016.650643963297
 20
227.8879906628715
 30
0.0
 11
1023.12903121894
 21
227.8879906628715
 31
0.0
1001
GENIUS_GENOREF_13
1005
1C9E
  0
LINE
  5
1C9A
330
A
100
AcDbEntity
  8
LOGO
  6
AM_ISO08W050x2
 48
0.2
100
AcDbLine
 10
1019.889837591118
 20
224.64879703505
 30
0.0
 11
1019.889837591118
 21
231.1271842906927
 31
0.0
1001
GENIUS_GENOREF_13
1005
1C9D
  0
LINE
  5
1C9B
330
A
100
AcDbEntity
  8
LOGO
  6
AM_ISO08W050x2
 48
0.3
100
AcDbLine
 10
1026.700565129401
 20
227.8879906628715
 30
0.0
 11
1035.397839346382
 21
227.8879906628715
 31
0.0
1001
GENIUS_GENOREF_13
1005
1C9C
  0
POINT
  5
1C9C
330
A
100
AcDbEntity
  8
0
 60
     1
100
AcDbPoint
 10
-1593.379040456162
 20
-905.8533651541795
 30
0.0
1001
GENIUS_GENOBJ-N-CRS_13
1002
{
1000
OWNER
1000
GEN
1002
}
1001
GENIUS_GENOLIS_13
1002
{
1000
ENT
1005
0
1005
0
1005
0
1005
1C9B
1002
}
1001
GENIUS_GENOENT_13
1002
{
1000
MYREF
1005
1C9C
1002
}
1002
{
1000
GRP
1005
0
1002
}
1001
GENIUS_GENODEF_13
1002
{
1000
HIER
1070
    10
1002
}
1002
{
1000
MANEDIT
1070
     1
1002
}
1002
{
1000
NOSEL
1070
     0
1002
}
1002
{
1000
BEHIND
1070
     0
1002
}
1002
{
1000
OTHER
1070
     0
1002
}
1002
{
1000
REACTOR
1002
}
  0
POINT
  5
1C9D
330
A
100
AcDbEntity
  8
0
 60
     1
100
AcDbPoint
 10
-1604.703625679017
 20
-896.9777786755432
 30
0.0
1001
GENIUS_GENOBJ-N-CRS_13
1002
{
1000
OWNER
1000
GEN
1002
}
1001
GENIUS_GENOLIS_13
1002
{
1000
ENT
1005
0
1005
0
1005
0
1005
1C9A
1002
}
1001
GENIUS_GENOENT_13
1002
{
1000
MYREF
1005
1C9D
1002
}
1002
{
1000
GRP
1005
0
1002
}
1001
GENIUS_GENODEF_13
1002
{
1000
HIER
1070
    10
1002
}
1002
{
1000
MANEDIT
1070
     1
1002
}
1002
{
1000
NOSEL
1070
     0
1002
}
1002
{
1000
BEHIND
1070
     0
1002
}
1002
{
1000
OTHER
1070
     0
1002
}
1002
{
1000
REACTOR
1002
}
  0
POINT
  5
1C9E
330
A
100
AcDbEntity
  8
0
 60
     1
100
AcDbPoint
 10
-1598.34495198118
 20
-905.8533651541795
 30
0.0
1001
GENIUS_GENOBJ-N-CRS_13
1002
{
1000
OWNER
1000
GEN
1002
}
1001
GENIUS_GENOLIS_13
1002
{
1000
ENT
1005
0
1005
0
1005
0
1005
1C99
1002
}
1001
GENIUS_GENOENT_13
1002
{
1000
MYREF
1005
1C9E
1002
}
1002
{
1000
GRP
1005
0
1002
}
1001
GENIUS_GENODEF_13
1002
{
1000
HIER
1070
    10
1002
}
1002
{
1000
MANEDIT
1070
     1
1002
}
1002
{
1000
NOSEL
1070
     0
1002
}
1002
{
1000
BEHIND
1070
     0
1002
}
1002
{
1000
OTHER
1070
     0
1002
}
1002
{
1000
REACTOR
1002
}
  0
LEADER
  5
28D6
330
A
100
AcDbEntity
  8
AM_5
100
AcDbLeader
  3
AM_ISO$7
 73
     0
 74
     0
 75
     1
 40
4.676852903476759
 41
52.84862204724414
 76
     3
 10
1346.333139771121
 20
590.6614505817792
 30
0.0
 10
1362.734054261149
 20
625.3467715463791
 30
0.0
 10
1365.734054261149
 20
625.3467715463791
 30
0.0
340
28D7
1001
ACAD
1000
DSTYLE
1002
{
1070
   140
1040
3.5
1070
   174
1070
     1
1002
}
  0
MTEXT
  5
28D7
102
{ACAD_REACTORS
330
28D6
102
}
330
A
100
AcDbEntity
  8
AM_5
100
AcDbMText
 10
1366.734054261149
 20
626.3467715463791
 30
0.0
 40
3.5
 41
0.0
 71
     7
 72
     1
  1
Rc1/8(Finger Openingport)
 73
     1
 44
1.0
1001
ACAD
1000
MTEXTBEGIN
1070
    73
1070
     1
1070
    44
1040
1.0
1070
    74
1070
     0
1000
MTEXTEND
  0
LEADER
  5
3FEB
330
A
100
AcDbEntity
  8
AM_5
100
AcDbLeader
  3
AM_ISO$7
 73
     0
 74
     0
 75
     1
 40
14.76553601884006
 41
95.50000000000006
 76
     3
 10
1159.309337768711
 20
422.4585994699102
 30
0.0
 10
1181.907439964197
 20
470.0289215737558
 30
0.0
 10
1184.907439964197
 20
470.0289215737558
 30
0.0
340
3FEC
213
1.512345450629709
223
9.377176379185129
233
0.0
1001
ACAD
1000
DSTYLE
1002
{
1070
   140
1040
3.5
1070
   272
1070
     8
1002
}
  0
MTEXT
  5
3FEC
102
{ACAD_REACTORS
330
3FEB
102
}
330
A
100
AcDbEntity
  8
AM_5
100
AcDbMText
 10
1184.395094513567
 20
461.6517451945707
 30
0.0
 40
5.0
 41
0.0
 71
     7
 72
     1
  1
6-M6*1*12depth\PThread for mounting attachment
 73
     1
 44
1.0
1001
ACAD
1000
MTEXTBEGIN
1070
    73
1070
     1
1070
    44
1040
1.0
1070
    74
1070
     0
1000
MTEXTEND
  0
LINE
  5
4F0C
330
A
100
AcDbEntity
  8
CENTER
100
AcDbLine
 10
1459.103674254325
 20
431.2296058881762
 30
0.0
 11
1479.385896169673
 21
382.2639906650774
 31
0.0
  0
LINE
  5
4F0D
330
A
100
AcDbEntity
  8
CENTER
100
AcDbLine
 10
1479.385896169673
 20
382.2639906650774
 30
0.0
 11
1497.512963765934
 21
432.0676995667305
 31
0.0
  0
LINE
  5
4F0E
330
A
100
AcDbEntity
  8
CENTER
100
AcDbLine
 10
1479.385896169673
 20
382.2639906650774
 30
0.0
 11
1461.258828573412
 21
432.0676995667303
 31
0.0
  0
DIMENSION
  5
4F0F
330
A
100
AcDbEntity
  8
AM_5
100
AcDbDimension
  2
*D2
 10
1479.385896169674
 20
439.1264967969256
 30
0.0
 11
1491.821337177378
 21
452.7888811709959
 31
0.0
 70
    34
 71
     5
 42
0.3490658503988606
  3
AM_ISO$2
100
AcDb2LineAngularDimension
 13
1479.385896169673
 23
382.2639906650774
 33
0.0
 14
1497.512963765934
 24
432.0676995667305
 34
0.0
 15
1479.385896169673
 25
336.7125447138968
 35
0.0
 16
1495.266682982777
 26
449.2702990319449
 36
0.0
1001
ACAD
1000
DSTYLE
1002
{
1070
   179
1070
     2
1070
   272
1070
     8
1002
}
  0
DIMENSION
  5
4F10
330
A
100
AcDbEntity
  8
AM_5
100
AcDbDimension
  2
*D3
 10
1461.258828573412
 20
432.0676995667303
 30
0.0
 11
1466.95045516197
 21
452.7888811709948
 31
0.0
 70
    34
 71
     5
 42
0.3490658503988786
  3
AM_ISO$2
100
AcDb2LineAngularDimension
 13
1479.385896169673
 23
336.7125447138968
 33
0.0
 14
1479.385896169674
 24
439.1264967969256
 34
0.0
 15
1479.385896169673
 25
382.2639906650774
 35
0.0
 16
1471.39144715886
 26
450.6608731654686
 36
0.0
1001
ACAD
1000
DSTYLE
1002
{
1070
   179
1070
     2
1070
   272
1070
     8
1002
}
  0
DIMENSION
  5
4F11
330
A
100
AcDbEntity
  8
AM_5
100
AcDbDimension
  2
*D4
 10
1479.385896169673
 20
382.2639906650774
 30
0.0
 11
1464.146834988613
 21
458.8759247635464
 31
0.0
 70
    34
 71
     5
 42
0.3926990816987199
  3
AM_ISO$2
100
AcDb2LineAngularDimension
 13
1479.385896169673
 23
336.7125447138968
 33
0.0
 14
1479.385896169674
 24
439.1264967969256
 34
0.0
 15
1461.208433132332
 25
426.1482684593635
 35
0.0
 16
1469.549115208123
 26
456.9817601097507
 36
0.0
1001
ACAD
1000
DSTYLE
1002
{
1070
   179
1070
     2
1070
   272
1070
     8
1002
}
  0
MTEXT
  5
708A
330
A
100
AcDbEntity
  8
AM_5
100
AcDbMText
 10
1045.29935745274
 20
461.736773821183
 30
0.0
 40
3.5
 41
61.42888888888889
 71
     1
 72
     5
  1
P.C.D%%C95\P(mounting hole)
 73
     1
 44
1.0
1001
ACAD
1000
MTEXTBEGIN
1070
    73
1070
     1
1070
    44
1040
1.0
1070
    74
1070
     0
1000
MTEXTEND
  0
LINE
  5
7691
330
A
100
AcDbEntity
  8
0
100
AcDbLine
 10
1065.018143150183
 20
343.5772951953379
 30
0.0
 11
1065.814153780006
 21
343.4369370443694
 31
0.0
  0
LINE
  5
7692
330
A
100
AcDbEntity
  8
0
100
AcDbLine
 10
1065.814153780006
 20
343.4369370443694
 30
0.0
 11
1068.192467935846
 21
346.2713014839096
 31
0.0
  0
LINE
  5
7693
330
A
100
AcDbEntity
  8
0
100
AcDbLine
 10
1068.192467935846
 20
346.2713014839096
 30
0.0
 11
1063.289783499884
 21
350.3851421859033
 31
0.0
  0
LINE
  5
7694
330
A
100
AcDbEntity
  8
0
100
AcDbLine
 10
1063.289783499884
 20
350.3851421859033
 30
0.0
 11
1060.911469344044
 21
347.5507777463632
 31
0.0
  0
LINE
  5
7695
330
A
100
AcDbEntity
  8
0
100
AcDbLine
 10
1060.911469344044
 20
347.5507777463632
 30
0.0
 11
1061.187920934589
 21
346.7912332437705
 31
0.0
  0
LINE
  5
7696
330
A
100
AcDbEntity
  8
0
100
AcDbLine
 10
1061.187920934589
 20
346.7912332437705
 30
0.0
 11
1058.078633764462
 21
343.0857290883653
 31
0.0
  0
ARC
  5
7697
330
A
100
AcDbEntity
  8
0
100
AcDbCircle
 10
1094.216616826979
 20
382.2639906650774
 30
0.0
 40
53.3
100
AcDbArc
 50
215.9228655329844
 51
227.3115943277397
  0
LINE
  5
7698
330
A
100
AcDbEntity
  8
0
100
AcDbLine
 10
1051.05387349792
 20
350.9931162239973
 30
0.0
 11
1055.830410147218
 21
353.7508509442633
 31
0.0
  0
ARC
  5
7699
330
A
100
AcDbEntity
  8
0
100
AcDbCircle
 10
1053.080410147218
 20
358.5139906650777
 30
0.0
 40
5.500000000000007
100
AcDbArc
 50
300.0000000000005
 51
120.0000000000005
  0
LINE
  5
769A
330
A
100
AcDbEntity
  8
0
100
AcDbLine
 10
1050.330410147218
 20
363.2771303858922
 30
0.0
 11
1045.55387349792
 21
360.5193956656261
 31
0.0
  0
ARC
  5
769B
330
A
100
AcDbEntity
  8
0
100
AcDbCircle
 10
1094.216616826979
 20
382.2639906650774
 30
0.0
 40
53.30000000000004
100
AcDbArc
 50
192.6884056722656
 51
204.0771344670147
  0
LINE
  5
769C
330
A
100
AcDbEntity
  8
0
100
AcDbLine
 10
1042.218255494176
 20
370.5567100797621
 30
0.0
 11
1046.981959811649
 21
371.3966796790499
 31
0.0
  0
LINE
  5
769D
330
A
100
AcDbEntity
  8
0
100
AcDbLine
 10
1046.981959811649
 20
371.3966796790499
 30
0.0
 11
1047.501518850927
 21
370.7774933274257
 31
0.0
  0
LINE
  5
769E
330
A
100
AcDbEntity
  8
0
100
AcDbLine
 10
1047.501518850927
 20
370.7774933274257
 30
0.0
 11
1051.145307537072
 21
371.4199915847932
 31
0.0
  0
LINE
  5
769F
330
A
100
AcDbEntity
  8
0
100
AcDbLine
 10
1051.145307537072
 20
371.4199915847932
 30
0.0
 11
1050.033959200004
 21
377.7227612040713
 31
0.0
  0
LINE
  5
76A0
330
A
100
AcDbEntity
  8
0
100
AcDbLine
 10
1050.033959200004
 20
377.7227612040713
 30
0.0
 11
1046.390170513859
 21
377.0802629467037
 31
0.0
  0
LINE
  5
76A1
330
A
100
AcDbEntity
  8
0
100
AcDbLine
 10
1046.390170513859
 20
377.0802629467037
 30
0.0
 11
1046.113718923314
 21
376.3207184441109
 31
0.0
  0
LINE
  5
76A2
330
A
100
AcDbEntity
  8
0
100
AcDbLine
 10
1046.113718923314
 20
376.3207184441109
 30
0.0
 11
1041.350014605842
 21
375.480748844823
 31
0.0
  0
ARC
  5
76A3
330
A
100
AcDbEntity
  8
0
100
AcDbCircle
 10
1094.216616826979
 20
382.2639906650774
 30
0.0
 40
53.30000000000001
100
AcDbArc
 50
180.4049449763325
 51
187.3115943277359
  0
ARC
  5
76A4
330
A
100
AcDbEntity
  8
0
100
AcDbCircle
 10
1036.918047925671
 20
381.8590192314298
 30
0.0
 40
4.000000000000004
100
AcDbArc
 50
0.4049449763325218
 51
59.99999999999946
  0
LINE
  5
76A5
330
A
100
AcDbEntity
  8
0
100
AcDbLine
 10
1027.8835414922
 20
391.6938961063069
 30
0.0
 11
1038.918047925671
 21
385.3231208465675
 31
0.0
  0
ARC
  5
76A6
330
A
100
AcDbEntity
  8
0
100
AcDbCircle
 10
1094.216616826979
 20
382.2639906650774
 30
0.0
 40
67.0
100
AcDbArc
 50
155.9970703926931
 51
171.9090497880524
  0
LINE
  5
76A7
330
A
100
AcDbEntity
  8
0
100
AcDbLine
 10
1066.034892819122
 20
390.4518128385864
 30
0.0
 11
1048.714384743433
 21
400.4518128385864
 31
0.0
  0
LINE
  5
76A8
330
A
100
AcDbEntity
  8
0
100
AcDbLine
 10
1073.034892819122
 20
402.5761684915685
 30
0.0
 11
1066.034892819122
 21
390.4518128385864
 31
0.0
  0
LINE
  5
76A9
330
A
100
AcDbEntity
  8
0
100
AcDbLine
 10
1073.034892819122
 20
402.5761684915685
 30
0.0
 11
1055.714384743434
 21
412.5761684915687
 31
0.0
  0
ARC
  5
76AA
330
A
100
AcDbEntity
  8
0
100
AcDbCircle
 10
1094.216616826979
 20
382.2639906650774
 30
0.0
 40
67.0
100
AcDbArc
 50
128.0909502119466
 51
144.002929607305
  0
LINE
  5
76AB
330
A
100
AcDbEntity
  8
0
100
AcDbLine
 10
1063.918047925671
 20
428.6243910357893
 30
0.0
 11
1052.8835414922
 21
434.9951662955286
 31
0.0
  0
ARC
  5
76AC
330
A
100
AcDbEntity
  8
0
100
AcDbCircle
 10
1065.918047925671
 20
432.088492650927
 30
0.0
 40
4.000000000000035
100
AcDbArc
 50
239.9999999999995
 51
299.5950550236628
  0
ARC
  5
76AD
330
A
100
AcDbEntity
  8
0
100
AcDbCircle
 10
1094.216616826979
 20
382.2639906650774
 30
0.0
 40
53.3
100
AcDbArc
 50
95.92286553298212
 51
119.5950550236628
  0
LINE
  5
76AE
330
A
100
AcDbEntity
  8
0
100
AcDbLine
 10
1088.716616826979
 20
435.2794601056094
 30
0.0
 11
1088.716616826979
 21
429.7639906650773
 31
0.0
  0
ARC
  5
76AF
330
A
100
AcDbEntity
  8
0
100
AcDbCircle
 10
1094.216616826979
 20
429.7639906650773
 30
0.0
 40
5.5
100
AcDbArc
 50
180.0
 51
0.0
  0
LINE
  5
76B0
330
A
100
AcDbEntity
  8
0
100
AcDbLine
 10
1099.716616826979
 20
429.7639906650773
 30
0.0
 11
1099.716616826979
 21
435.2794601056094
 31
0.0
  0
ARC
  5
76B1
330
A
100
AcDbEntity
  8
0
100
AcDbCircle
 10
1094.216616826979
 20
382.2639906650774
 30
0.0
 40
53.30000000000001
100
AcDbArc
 50
60.40494497633718
 51
84.07713446701789
  0
ARC
  5
76B2
330
A
100
AcDbEntity
  8
0
100
AcDbCircle
 10
1122.515185728286
 20
432.088492650927
 30
0.0
 40
3.999999999999984
100
AcDbArc
 50
240.4049449763371
 51
300.0000000000005
  0
LINE
  5
76B3
330
A
100
AcDbEntity
  8
0
100
AcDbLine
 10
1135.549692161758
 20
434.9951662955286
 30
0.0
 11
1124.515185728286
 21
428.6243910357893
 31
0.0
  0
ARC
  5
76B4
330
A
100
AcDbEntity
  8
0
100
AcDbCircle
 10
1094.216616826979
 20
382.2639906650774
 30
0.0
 40
67.0
100
AcDbArc
 50
35.99707039269498
 51
51.90904978805337
  0
LINE
  5
76B5
330
A
100
AcDbEntity
  8
0
100
AcDbLine
 10
1115.398340834836
 20
402.5761684915683
 30
0.0
 11
1132.718848910524
 21
412.576168491568
 31
0.0
  0
LINE
  5
76B6
330
A
100
AcDbEntity
  8
0
100
AcDbLine
 10
1122.398340834835
 20
390.451812838586
 30
0.0
 11
1115.398340834836
 21
402.5761684915683
 31
0.0
  0
LINE
  5
76B7
330
A
100
AcDbEntity
  8
0
100
AcDbLine
 10
1122.398340834835
 20
390.451812838586
 30
0.0
 11
1139.718848910524
 21
400.4518128385857
 31
0.0
  0
ARC
  5
76B8
330
A
100
AcDbEntity
  8
0
100
AcDbCircle
 10
1094.216616826979
 20
382.2639906650774
 30
0.0
 40
66.99999999999999
100
AcDbArc
 50
8.090950211947598
 51
24.00292960730684
  0
LINE
  5
76B9
330
A
100
AcDbEntity
  8
0
100
AcDbLine
 10
1149.515185728287
 20
385.3231208465675
 30
0.0
 11
1160.549692161758
 21
391.6938961063069
 31
0.0
  0
ARC
  5
76BA
330
A
100
AcDbEntity
  8
0
100
AcDbCircle
 10
1151.515185728287
 20
381.8590192314298
 30
0.0
 40
4.000000000000004
100
AcDbArc
 50
120.0000000000005
 51
179.5950550236675
  0
ARC
  5
76BB
330
A
100
AcDbEntity
  8
0
100
AcDbCircle
 10
1094.216616826979
 20
382.2639906650774
 30
0.0
 40
53.30000000000001
100
AcDbArc
 50
352.6884056722641
 51
359.5950550236675
  0
LINE
  5
76BC
330
A
100
AcDbEntity
  8
0
100
AcDbLine
 10
1142.319514730643
 20
376.3207184441109
 30
0.0
 11
1147.083219048116
 21
375.480748844823
 31
0.0
  0
LINE
  5
76BD
330
A
100
AcDbEntity
  8
0
100
AcDbLine
 10
1142.043063140099
 20
377.0802629467037
 30
0.0
 11
1142.319514730643
 21
376.3207184441109
 31
0.0
  0
LINE
  5
76BE
330
A
100
AcDbEntity
  8
0
100
AcDbLine
 10
1138.399274453954
 20
377.7227612040713
 30
0.0
 11
1142.043063140099
 21
377.0802629467037
 31
0.0
  0
LINE
  5
76BF
330
A
100
AcDbEntity
  8
0
100
AcDbLine
 10
1137.287926116886
 20
371.4199915847932
 30
0.0
 11
1138.399274453954
 21
377.7227612040713
 31
0.0
  0
LINE
  5
76C0
330
A
100
AcDbEntity
  8
0
100
AcDbLine
 10
1140.931714803031
 20
370.7774933274257
 30
0.0
 11
1137.287926116886
 21
371.4199915847932
 31
0.0
  0
LINE
  5
76C1
330
A
100
AcDbEntity
  8
0
100
AcDbLine
 10
1141.451273842309
 20
371.3966796790499
 30
0.0
 11
1140.931714803031
 21
370.7774933274257
 31
0.0
  0
LINE
  5
76C2
330
A
100
AcDbEntity
  8
0
100
AcDbLine
 10
1146.214978159781
 20
370.5567100797621
 30
0.0
 11
1141.451273842309
 21
371.3966796790499
 31
0.0
  0
ARC
  5
76C3
330
A
100
AcDbEntity
  8
0
100
AcDbCircle
 10
1094.216616826979
 20
382.2639906650774
 30
0.0
 40
53.30000000000004
100
AcDbArc
 50
335.9228655329882
 51
347.3115943277376
  0
LINE
  5
76C4
330
A
100
AcDbEntity
  8
0
100
AcDbLine
 10
1142.879360156037
 20
360.5193956656253
 30
0.0
 11
1138.10282350674
 21
363.2771303858915
 31
0.0
  0
ARC
  5
76C5
330
A
100
AcDbEntity
  8
0
100
AcDbCircle
 10
1135.35282350674
 20
358.5139906650771
 30
0.0
 40
5.500000000000035
100
AcDbArc
 50
59.99999999999946
 51
239.9999999999995
  0
LINE
  5
76C6
330
A
100
AcDbEntity
  8
0
100
AcDbLine
 10
1132.60282350674
 20
353.7508509442627
 30
0.0
 11
1137.379360156037
 21
350.9931162239966
 31
0.0
  0
ARC
  5
76C7
330
A
100
AcDbEntity
  8
0
100
AcDbCircle
 10
1094.216616826979
 20
382.2639906650774
 30
0.0
 40
53.3
100
AcDbArc
 50
312.6884056722603
 51
324.0771344670156
  0
LINE
  5
76C8
330
A
100
AcDbEntity
  8
0
100
AcDbLine
 10
1127.245312719369
 20
346.7912332437705
 30
0.0
 11
1130.354599889495
 21
343.0857290883653
 31
0.0
  0
LINE
  5
76C9
330
A
100
AcDbEntity
  8
0
100
AcDbLine
 10
1127.521764309913
 20
347.5507777463632
 30
0.0
 11
1127.245312719369
 21
346.7912332437705
 31
0.0
  0
LINE
  5
76CA
330
A
100
AcDbEntity
  8
0
100
AcDbLine
 10
1125.143450154073
 20
350.3851421859033
 30
0.0
 11
1127.521764309913
 21
347.5507777463632
 31
0.0
  0
LINE
  5
76CB
330
A
100
AcDbEntity
  8
0
100
AcDbLine
 10
1120.240765718112
 20
346.2713014839096
 30
0.0
 11
1125.143450154073
 21
350.3851421859033
 31
0.0
  0
LINE
  5
76CC
330
A
100
AcDbEntity
  8
0
100
AcDbLine
 10
1122.619079873952
 20
343.4369370443694
 30
0.0
 11
1120.240765718112
 21
346.2713014839096
 31
0.0
  0
LINE
  5
76CD
330
A
100
AcDbEntity
  8
0
100
AcDbLine
 10
1123.415090503774
 20
343.5772951953379
 30
0.0
 11
1122.619079873952
 21
343.4369370443694
 31
0.0
  0
LINE
  5
76CE
330
A
100
AcDbEntity
  8
0
100
AcDbLine
 10
1126.5243776739
 20
339.8717910399327
 30
0.0
 11
1123.415090503774
 21
343.5772951953379
 31
0.0
  0
ARC
  5
76CF
330
A
100
AcDbEntity
  8
0
100
AcDbCircle
 10
1094.216616826979
 20
382.2639906650774
 30
0.0
 40
53.3
100
AcDbArc
 50
300.4049449763335
 51
307.3115943277434
  0
ARC
  5
76D0
330
A
100
AcDbEntity
  8
0
100
AcDbCircle
 10
1123.216616826979
 20
332.8444601128757
 30
0.0
 40
3.999999999999978
100
AcDbArc
 50
120.4049449763335
 51
180.0
  0
LINE
  5
76D1
330
A
100
AcDbEntity
  8
0
100
AcDbLine
 10
1119.216616826979
 20
320.1029095933972
 30
0.0
 11
1119.216616826979
 21
332.8444601128757
 31
0.0
  0
ARC
  5
76D2
330
A
100
AcDbEntity
  8
0
100
AcDbCircle
 10
1094.216616826979
 20
382.2639906650774
 30
0.0
 40
67.0
100
AcDbArc
 50
275.9970703926987
 51
291.9090497880544
  0
LINE
  5
76D3
330
A
100
AcDbEntity
  8
0
100
AcDbLine
 10
1101.216616826979
 20
353.7639906650773
 30
0.0
 11
1101.216616826979
 21
333.7639906650774
 31
0.0
  0
LINE
  5
76D4
330
A
100
AcDbEntity
  8
0
100
AcDbLine
 10
1087.216616826979
 20
353.7639906650773
 30
0.0
 11
1101.216616826979
 21
353.7639906650773
 31
0.0
  0
LINE
  5
76D5
330
A
100
AcDbEntity
  8
0
100
AcDbLine
 10
1087.216616826979
 20
353.7639906650773
 30
0.0
 11
1087.216616826979
 21
333.7639906650774
 31
0.0
  0
ARC
  5
76D6
330
A
100
AcDbEntity
  8
0
100
AcDbCircle
 10
1094.216616826979
 20
382.2639906650774
 30
0.0
 40
67.0
100
AcDbArc
 50
248.0909502119457
 51
264.0029296073013
  0
LINE
  5
76D7
330
A
100
AcDbEntity
  8
0
100
AcDbLine
 10
1069.216616826979
 20
332.8444601128757
 30
0.0
 11
1069.216616826979
 21
320.1029095933972
 31
0.0
  0
ARC
  5
76D8
330
A
100
AcDbEntity
  8
0
100
AcDbCircle
 10
1065.216616826979
 20
332.8444601128757
 30
0.0
 40
4.0
100
AcDbArc
 50
0.0
 51
59.59505502366652
  0
ARC
  5
76D9
330
A
100
AcDbEntity
  8
0
100
AcDbCircle
 10
1094.216616826979
 20
382.2639906650774
 30
0.0
 40
53.3
100
AcDbArc
 50
232.6884056722689
 51
239.5950550236665
  0
LINE
  5
76DA
330
A
100
AcDbEntity
  8
0
100
AcDbLine
 10
1061.908855980057
 20
339.8717910399327
 30
0.0
 11
1065.018143150183
 21
343.5772951953379
 31
0.0
  0
ARC
  5
76DB
330
A
100
AcDbEntity
  8
0
100
AcDbCircle
 10
1094.216616826979
 20
382.2639906650774
 30
0.0
 40
70.00000000000001
100
AcDbArc
 50
9.075167572364058
 51
24.26082952273133
  0
LINE
  5
76DC
330
A
100
AcDbEntity
  8
0
100
AcDbLine
 10
1163.340375091509
 20
393.3050976470219
 30
0.0
 11
1160.549692161758
 21
391.6938961063069
 31
0.0
  0
LINE
  5
76DD
330
A
100
AcDbEntity
  8
0
100
AcDbLine
 10
1135.549692161758
 20
434.9951662955286
 30
0.0
 11
1138.340375091509
 21
436.6063678362436
 31
0.0
  0
ARC
  5
76DE
330
A
100
AcDbEntity
  8
0
100
AcDbCircle
 10
1094.216616826979
 20
382.2639906650774
 30
0.0
 40
69.99999999999999
100
AcDbArc
 50
35.73917047726383
 51
50.92483242763423
  0
ARC
  5
76DF
330
A
100
AcDbEntity
  8
0
100
AcDbCircle
 10
1094.216616826979
 20
382.2639906650774
 30
0.0
 40
69.99999999999999
100
AcDbArc
 50
275.7391704772747
 51
290.9248324276398
  0
LINE
  5
76E0
330
A
100
AcDbEntity
  8
0
100
AcDbLine
 10
1119.216616826979
 20
320.1029095933972
 30
0.0
 11
1119.216616826979
 21
316.8805065119672
 31
0.0
  0
ARC
  5
76E1
330
A
100
AcDbEntity
  8
CENTER
100
AcDbCircle
 10
1094.216616826979
 20
382.2639906650774
 30
0.0
 40
69.99999999999997
100
AcDbArc
 50
213.4803988805712
 51
243.3278992456853
  0
LINE
  5
76E2
330
A
100
AcDbEntity
  8
0
100
AcDbLine
 10
1069.216616826979
 20
316.8805065119672
 30
0.0
 11
1069.216616826979
 21
320.1029095933972
 31
0.0
  0
ARC
  5
76E3
330
A
100
AcDbEntity
  8
0
100
AcDbCircle
 10
1094.216616826979
 20
382.2639906650774
 30
0.0
 40
69.99999999999999
100
AcDbArc
 50
129.0751675723658
 51
144.2608295227362
  0
LINE
  5
76E4
330
A
100
AcDbEntity
  8
0
100
AcDbLine
 10
1050.092858562448
 20
436.6063678362436
 30
0.0
 11
1052.8835414922
 21
434.9951662955286
 31
0.0
  0
ARC
  5
76E5
330
A
100
AcDbEntity
  8
0
100
AcDbCircle
 10
1094.216616826979
 20
382.2639906650774
 30
0.0
 40
70.0
100
AcDbArc
 50
155.7391704772657
 51
170.9248324276359
  0
LINE
  5
76E6
330
A
100
AcDbEntity
  8
0
100
AcDbLine
 10
1027.8835414922
 20
391.6938961063069
 30
0.0
 11
1025.092858562448
 21
393.3050976470217
 31
0.0
  0
CIRCLE
  5
76E7
330
A
100
AcDbEntity
  8
0
100
AcDbCircle
 10
1135.35282350674
 20
358.5139906650771
 30
0.0
 40
3.300000000000011
  0
ARC
  5
76E8
330
A
100
AcDbEntity
  8
0
100
AcDbCircle
 10
1094.216616826979
 20
382.2639906650774
 30
0.0
 40
53.30000000000005
100
AcDbArc
 50
324.0771344670156
 51
335.9228655329882
  0
CIRCLE
  5
76E9
330
A
100
AcDbEntity
  8
0
100
AcDbCircle
 10
1094.216616826979
 20
429.7639906650773
 30
0.0
 40
3.300000000000011
  0
ARC
  5
76EA
330
A
100
AcDbEntity
  8
0
100
AcDbCircle
 10
1094.216616826979
 20
382.2639906650774
 30
0.0
 40
53.30000000000001
100
AcDbArc
 50
84.07713446701789
 51
95.92286553298212
  0
CIRCLE
  5
76EB
330
A
100
AcDbEntity
  8
0
100
AcDbCircle
 10
1053.080410147218
 20
358.5139906650777
 30
0.0
 40
3.300000000000011
  0
ARC
  5
76EC
330
A
100
AcDbEntity
  8
0
100
AcDbCircle
 10
1094.216616826979
 20
382.2639906650774
 30
0.0
 40
53.3
100
AcDbArc
 50
204.0771344670147
 51
215.9228655329844
  0
LINE
  5
76ED
330
A
100
AcDbEntity
  8
0
100
AcDbLine
 10
1045.322079898021
 20
418.5761684915688
 30
0.0
 11
1038.32207989802
 21
406.4518128385864
 31
0.0
  0
LINE
  5
76EE
330
A
100
AcDbEntity
  8
0
100
AcDbLine
 10
1038.32207989802
 20
406.4518128385864
 30
0.0
 11
1048.714384743433
 21
400.4518128385864
 31
0.0
  0
LINE
  5
76EF
330
A
100
AcDbEntity
  8
0
100
AcDbLine
 10
1055.714384743434
 20
412.5761684915687
 30
0.0
 11
1048.714384743433
 21
400.4518128385864
 31
0.0
  0
LINE
  5
76F0
330
A
100
AcDbEntity
  8
0
100
AcDbLine
 10
1045.322079898021
 20
418.5761684915688
 30
0.0
 11
1055.714384743434
 21
412.5761684915687
 31
0.0
  0
LINE
  5
76F1
330
A
100
AcDbEntity
  8
0
100
AcDbLine
 10
1028.001571822332
 20
428.5761684915687
 30
0.0
 11
1021.001571822332
 21
416.4518128385866
 31
0.0
  0
LINE
  5
76F2
330
A
100
AcDbEntity
  8
0
100
AcDbLine
 10
1038.393876667745
 20
422.5761684915687
 30
0.0
 11
1031.393876667745
 21
410.4518128385866
 31
0.0
  0
LINE
  5
76F3
330
A
100
AcDbEntity
  8
0
100
AcDbLine
 10
1021.001571822332
 20
416.4518128385866
 30
0.0
 11
1031.393876667745
 21
410.4518128385866
 31
0.0
  0
LINE
  5
76F4
330
A
100
AcDbEntity
  8
0
100
AcDbLine
 10
1028.001571822332
 20
428.5761684915687
 30
0.0
 11
1038.393876667745
 21
422.5761684915687
 31
0.0
  0
LINE
  5
76F5
330
A
100
AcDbEntity
  8
0
100
AcDbLine
 10
1031.393876667745
 20
410.4518128385866
 30
0.0
 11
1038.32207989802
 21
406.4518128385864
 31
0.0
  0
LINE
  5
76F6
330
A
100
AcDbEntity
  8
0
100
AcDbLine
 10
1038.393876667745
 20
422.5761684915687
 30
0.0
 11
1045.322079898021
 21
418.5761684915688
 31
0.0
  0
LINE
  5
76F7
330
A
100
AcDbEntity
  8
0
100
AcDbLine
 10
1032.001571822332
 20
435.5043717218443
 30
0.0
 11
1042.503020415344
 21
429.4413575497875
 31
0.0
  0
LINE
  5
76F8
330
A
100
AcDbEntity
  8
0
100
AcDbLine
 10
1032.001571822332
 20
435.5043717218443
 30
0.0
 11
1028.001571822332
 21
428.5761684915687
 31
0.0
  0
LINE
  5
76F9
330
A
100
AcDbEntity
  8
0
100
AcDbLine
 10
1017.001571822332
 20
409.5236096083112
 30
0.0
 11
1027.503020415344
 21
403.4605954362543
 31
0.0
  0
LINE
  5
76FA
330
A
100
AcDbEntity
  8
0
100
AcDbLine
 10
1021.001571822332
 20
416.4518128385866
 30
0.0
 11
1017.001571822332
 21
409.5236096083112
 31
0.0
  0
LINE
  5
76FB
330
A
100
AcDbEntity
  8
0
100
AcDbLine
 10
1167.431661831627
 20
416.4518128385855
 30
0.0
 11
1160.431661831627
 21
428.5761684915676
 31
0.0
  0
LINE
  5
76FC
330
A
100
AcDbEntity
  8
0
100
AcDbLine
 10
1157.039356986213
 20
410.4518128385857
 30
0.0
 11
1150.039356986213
 21
422.5761684915678
 31
0.0
  0
LINE
  5
76FD
330
A
100
AcDbEntity
  8
0
100
AcDbLine
 10
1160.431661831627
 20
428.5761684915676
 30
0.0
 11
1150.039356986213
 21
422.5761684915678
 31
0.0
  0
LINE
  5
76FE
330
A
100
AcDbEntity
  8
0
100
AcDbLine
 10
1167.431661831627
 20
416.4518128385855
 30
0.0
 11
1157.039356986213
 21
410.4518128385857
 31
0.0
  0
LINE
  5
76FF
330
A
100
AcDbEntity
  8
0
100
AcDbLine
 10
1150.111153755938
 20
406.4518128385857
 30
0.0
 11
1143.111153755938
 21
418.5761684915678
 31
0.0
  0
LINE
  5
7700
330
A
100
AcDbEntity
  8
0
100
AcDbLine
 10
1143.111153755938
 20
418.5761684915678
 30
0.0
 11
1132.718848910524
 21
412.576168491568
 31
0.0
  0
LINE
  5
7701
330
A
100
AcDbEntity
  8
0
100
AcDbLine
 10
1139.718848910524
 20
400.4518128385857
 30
0.0
 11
1132.718848910524
 21
412.576168491568
 31
0.0
  0
LINE
  5
7702
330
A
100
AcDbEntity
  8
0
100
AcDbLine
 10
1150.111153755938
 20
406.4518128385857
 30
0.0
 11
1139.718848910524
 21
400.4518128385857
 31
0.0
  0
LINE
  5
7703
330
A
100
AcDbEntity
  8
0
100
AcDbLine
 10
1150.039356986213
 20
422.5761684915678
 30
0.0
 11
1143.111153755938
 21
418.5761684915678
 31
0.0
  0
LINE
  5
7704
330
A
100
AcDbEntity
  8
0
100
AcDbLine
 10
1157.039356986213
 20
410.4518128385857
 30
0.0
 11
1150.111153755938
 21
406.4518128385857
 31
0.0
  0
LINE
  5
7705
330
A
100
AcDbEntity
  8
0
100
AcDbLine
 10
1171.431661831626
 20
409.52360960831
 30
0.0
 11
1160.930213238614
 21
403.4605954362534
 31
0.0
  0
LINE
  5
7706
330
A
100
AcDbEntity
  8
0
100
AcDbLine
 10
1171.431661831626
 20
409.52360960831
 30
0.0
 11
1167.431661831627
 21
416.4518128385855
 31
0.0
  0
LINE
  5
7707
330
A
100
AcDbEntity
  8
0
100
AcDbLine
 10
1156.431661831627
 20
435.5043717218433
 30
0.0
 11
1145.930213238615
 21
429.4413575497867
 31
0.0
  0
LINE
  5
7708
330
A
100
AcDbEntity
  8
0
100
AcDbLine
 10
1160.431661831627
 20
428.5761684915676
 30
0.0
 11
1156.431661831627
 21
435.5043717218433
 31
0.0
  0
LINE
  5
7709
330
A
100
AcDbEntity
  8
0
100
AcDbLine
 10
1087.216616826979
 20
321.7639906650774
 30
0.0
 11
1101.216616826979
 21
321.7639906650774
 31
0.0
  0
LINE
  5
770A
330
A
100
AcDbEntity
  8
0
100
AcDbLine
 10
1101.216616826979
 20
321.7639906650774
 30
0.0
 11
1101.216616826979
 21
333.7639906650773
 31
0.0
  0
ARC
  5
770B
330
A
100
AcDbEntity
  8
DIM
100
AcDbCircle
 10
1094.216616826979
 20
327.7639906650774
 30
0.0
 40
3.0
100
AcDbArc
 50
90.0
 51
0.0
  0
LINE
  5
770C
330
A
100
AcDbEntity
  8
0
100
AcDbLine
 10
1087.216616826979
 20
333.7639906650773
 30
0.0
 11
1101.216616826979
 21
333.7639906650773
 31
0.0
  0
LINE
  5
770D
330
A
100
AcDbEntity
  8
0
100
AcDbLine
 10
1087.216616826979
 20
321.7639906650774
 30
0.0
 11
1087.216616826979
 21
333.7639906650773
 31
0.0
  0
LINE
  5
770E
330
A
100
AcDbEntity
  8
0
100
AcDbLine
 10
1087.216616826979
 20
301.7639906650773
 30
0.0
 11
1101.216616826979
 21
301.7639906650773
 31
0.0
  0
ARC
  5
770F
330
A
100
AcDbEntity
  8
DIM
100
AcDbCircle
 10
1094.216616826979
 20
307.7639906650774
 30
0.0
 40
3.0
100
AcDbArc
 50
90.0
 51
0.0
  0
LINE
  5
7710
330
A
100
AcDbEntity
  8
0
100
AcDbLine
 10
1087.216616826979
 20
313.7639906650774
 30
0.0
 11
1101.216616826979
 21
313.7639906650774
 31
0.0
  0
LINE
  5
7711
330
A
100
AcDbEntity
  8
0
100
AcDbLine
 10
1101.216616826979
 20
301.7639906650773
 30
0.0
 11
1101.216616826979
 21
313.7639906650774
 31
0.0
  0
LINE
  5
7712
330
A
100
AcDbEntity
  8
0
100
AcDbLine
 10
1087.216616826979
 20
301.7639906650773
 30
0.0
 11
1087.216616826979
 21
313.7639906650774
 31
0.0
  0
LINE
  5
7713
330
A
100
AcDbEntity
  8
0
100
AcDbLine
 10
1101.216616826979
 20
313.7639906650774
 30
0.0
 11
1101.216616826979
 21
321.7639906650774
 31
0.0
  0
LINE
  5
7714
330
A
100
AcDbEntity
  8
0
100
AcDbLine
 10
1087.216616826979
 20
313.7639906650774
 30
0.0
 11
1087.216616826979
 21
321.7639906650774
 31
0.0
  0
LINE
  5
7715
330
A
100
AcDbEntity
  8
0
100
AcDbLine
 10
1109.216616826979
 20
301.7639906650773
 30
0.0
 11
1109.216616826979
 21
313.8900190091906
 31
0.0
  0
LINE
  5
7716
330
A
100
AcDbEntity
  8
0
100
AcDbLine
 10
1101.216616826979
 20
301.7639906650773
 30
0.0
 11
1109.216616826979
 21
301.7639906650773
 31
0.0
  0
LINE
  5
7717
330
A
100
AcDbEntity
  8
0
100
AcDbLine
 10
1079.216616826979
 20
301.7639906650773
 30
0.0
 11
1079.216616826979
 21
313.8900190091906
 31
0.0
  0
LINE
  5
7718
330
A
100
AcDbEntity
  8
0
100
AcDbLine
 10
1079.216616826979
 20
301.7639906650773
 30
0.0
 11
1087.216616826979
 21
301.7639906650773
 31
0.0
  0
LINE
  5
7719
330
A
100
AcDbEntity
  8
0
100
AcDbLine
 10
1356.5799106325
 20
435.2639906650773
 30
0.0
 11
1286.5799106325
 21
435.2639906650773
 31
0.0
  0
LINE
  5
771A
330
A
100
AcDbEntity
  8
0
100
AcDbLine
 10
1286.5799106325
 20
329.2639906650773
 30
0.0
 11
1356.5799106325
 21
329.2639906650773
 31
0.0
  0
LINE
  5
771B
330
A
100
AcDbEntity
  8
0
100
AcDbLine
 10
1278.0799106325
 20
312.2639906650773
 30
0.0
 11
1286.5799106325
 21
312.2639906650773
 31
0.0
  0
LINE
  5
771C
330
A
100
AcDbEntity
  8
0
100
AcDbLine
 10
1247.311961440068
 20
428.5761684915676
 30
0.0
 11
1247.311961440068
 21
436.6063678362436
 31
0.0
  0
LINE
  5
771D
330
A
100
AcDbEntity
  8
0
100
AcDbLine
 10
1286.579910632499
 20
436.6063678362436
 30
0.0
 11
1247.311961440068
 21
436.6063678362436
 31
0.0
  0
LINE
  5
771E
330
A
100
AcDbEntity
  8
0
100
AcDbLine
 10
1286.579910632499
 20
393.3050976470219
 30
0.0
 11
1286.579910632499
 21
436.6063678362436
 31
0.0
  0
LINE
  5
771F
330
A
100
AcDbEntity
  8
0
100
AcDbLine
 10
1286.579910632499
 20
393.3050976470219
 30
0.0
 11
1247.311961440068
 21
393.3050976470217
 31
0.0
  0
LINE
  5
7720
330
A
100
AcDbEntity
  8
0
100
AcDbLine
 10
1247.311961440068
 20
393.3050976470217
 30
0.0
 11
1247.311961440068
 21
411.0263731373173
 31
0.0
  0
LINE
  5
7721
330
A
100
AcDbEntity
  8
0
100
AcDbLine
 10
1247.311961440068
 20
411.0263731373173
 30
0.0
 11
1254.579910632499
 21
411.0263731373173
 31
0.0
  0
LINE
  5
7722
330
A
100
AcDbEntity
  8
0
100
AcDbLine
 10
1265.5799106325
 20
403.4605954362533
 30
0.0
 11
1254.579910632499
 21
403.4605954362533
 31
0.0
  0
LINE
  5
7723
330
A
100
AcDbEntity
  8
0
100
AcDbLine
 10
1265.5799106325
 20
410.1064647362283
 30
0.0
 11
1278.0799106325
 21
410.1064647362283
 31
0.0
  0
LINE
  5
7724
330
A
100
AcDbEntity
  8
0
100
AcDbLine
 10
1286.579910632499
 20
385.3231208465675
 30
0.0
 11
1245.579910632499
 21
385.3231208465675
 31
0.0
  0
LINE
  5
7725
330
A
100
AcDbEntity
  8
0
100
AcDbLine
 10
1245.579910632499
 20
385.3231208465675
 30
0.0
 11
1245.579910632499
 21
391.6938961063067
 31
0.0
  0
LINE
  5
7726
330
A
100
AcDbEntity
  8
0
100
AcDbLine
 10
1247.311961440068
 20
393.3050976470217
 30
0.0
 11
1245.579910632499
 21
391.6938961063067
 31
0.0
  0
LINE
  5
7727
330
A
100
AcDbEntity
  8
0
100
AcDbLine
 10
1286.579910632499
 20
385.3231208465675
 30
0.0
 11
1286.579910632499
 21
393.3050976470219
 31
0.0
  0
LINE
  5
7728
330
A
100
AcDbEntity
  8
0
100
AcDbLine
 10
1245.579910632499
 20
391.6938961063067
 30
0.0
 11
1245.579910632499
 21
409.518475336501
 31
0.0
  0
LINE
  5
7729
330
A
100
AcDbEntity
  8
0
100
AcDbLine
 10
1245.579910632499
 20
409.518475336501
 30
0.0
 11
1247.311961440068
 21
411.0263731373173
 31
0.0
  0
LINE
  5
772A
330
A
100
AcDbEntity
  8
0
100
AcDbLine
 10
1245.5799106325
 20
434.9951662955286
 30
0.0
 11
1247.311961440068
 21
436.6063678362436
 31
0.0
  0
LINE
  5
772B
330
A
100
AcDbEntity
  8
0
100
AcDbLine
 10
1245.5799106325
 20
428.6243910357893
 30
0.0
 11
1245.5799106325
 21
434.9951662955286
 31
0.0
  0
LINE
  5
772C
330
A
100
AcDbEntity
  8
0
100
AcDbLine
 10
1286.579910632499
 20
381.8872894885778
 30
0.0
 11
1245.5799106325
 21
381.8872894885778
 31
0.0
  0
LINE
  5
772D
330
A
100
AcDbEntity
  8
0
100
AcDbLine
 10
1245.5799106325
 20
381.8872894885778
 30
0.0
 11
1245.579910632499
 21
385.3231208465675
 31
0.0
  0
LINE
  5
772E
330
A
100
AcDbEntity
  8
0
100
AcDbLine
 10
1286.579910632499
 20
381.8872894885778
 30
0.0
 11
1286.579910632499
 21
385.3231208465675
 31
0.0
  0
LINE
  5
772F
330
A
100
AcDbEntity
  8
0
100
AcDbLine
 10
1245.5799106325
 20
375.480748844823
 30
0.0
 11
1286.579910632499
 21
375.480748844823
 31
0.0
  0
LINE
  5
7730
330
A
100
AcDbEntity
  8
0
100
AcDbLine
 10
1245.5799106325
 20
375.480748844823
 30
0.0
 11
1245.5799106325
 21
381.8872894885778
 31
0.0
  0
LINE
  5
7731
330
A
100
AcDbEntity
  8
0
100
AcDbLine
 10
1286.579910632499
 20
375.480748844823
 30
0.0
 11
1286.579910632499
 21
381.8872894885778
 31
0.0
  0
LINE
  5
7732
330
A
100
AcDbEntity
  8
0
100
AcDbLine
 10
1356.5799106325
 20
375.5329010225746
 30
0.0
 11
1356.5799106325
 21
435.2639906650773
 31
0.0
  0
LINE
  5
7733
330
A
100
AcDbEntity
  8
0
100
AcDbLine
 10
1286.579910632499
 20
375.5329010225746
 30
0.0
 11
1356.5799106325
 21
375.5329010225746
 31
0.0
  0
LWPOLYLINE
  5
7734
330
A
100
AcDbEntity
  8
0
100
AcDbPolyline
 90
       20
 70
   128
 43
0.0
 10
1305.0799106325
 20
434.1316712937647
 10
1302.611487964928
 20
434.0432936681204
 10
1300.421558354954
 20
433.7708290356816
 10
1298.741227088084
 20
433.2961411052566
 10
1297.769638956397
 20
432.6161061438215
 10
1297.626251166949
 20
431.7768439605942
 10
1298.311061545473
 20
430.8704140260058
 10
1299.747534266413
 20
430.016662166123
 10
1301.79548603579
 20
429.3569263640073
 10
1304.219415534856
 20
429.0249387741295
 10
1306.720999752937
 20
429.0876421426876
 10
1309.027637151992
 20
429.5248406545518
 10
1310.907540597052
 20
430.2550066504909
 10
1312.144059155853
 20
431.1496795980188
 10
1312.579818092877
 20
432.0549446088651
 10
1312.175944732643
 20
432.8459047725034
 10
1310.987736319912
 20
433.4583430201958
 10
1309.130105852122
 20
433.8721579628067
 10
1306.803895726595
 20
434.0895918324808
 10
1305.0799106325
 20
434.1316712937647
  0
LINE
  5
7735
330
A
100
AcDbEntity
  8
0
100
AcDbLine
 10
1356.5799106325
 20
370.6088622575135
 30
0.0
 11
1286.579910632499
 21
370.6088622575135
 31
0.0
  0
LINE
  5
7736
330
A
100
AcDbEntity
  8
0
100
AcDbLine
 10
1286.579910632499
 20
370.6088622575135
 30
0.0
 11
1286.579910632499
 21
370.5567100797621
 31
0.0
  0
LINE
  5
7737
330
A
100
AcDbEntity
  8
0
100
AcDbLine
 10
1245.5799106325
 20
370.5567100797618
 30
0.0
 11
1286.579910632499
 21
370.5567100797621
 31
0.0
  0
LINE
  5
7738
330
A
100
AcDbEntity
  8
0
100
AcDbLine
 10
1245.5799106325
 20
371.3966796790499
 30
0.0
 11
1356.5799106325
 21
371.3966796790499
 31
0.0
  0
LINE
  5
7739
330
A
100
AcDbEntity
  8
0
100
AcDbLine
 10
1356.5799106325
 20
370.6088622575135
 30
0.0
 11
1356.5799106325
 21
371.3966796790499
 31
0.0
  0
LINE
  5
773A
330
A
100
AcDbEntity
  8
0
100
AcDbLine
 10
1245.5799106325
 20
370.5567100797618
 30
0.0
 11
1245.5799106325
 21
371.3966796790499
 31
0.0
  0
LINE
  5
773B
330
A
100
AcDbEntity
  8
0
100
AcDbLine
 10
1268.579910632499
 20
350.9931162239966
 30
0.0
 11
1245.5799106325
 21
350.9931162239965
 31
0.0
  0
LINE
  5
773C
330
A
100
AcDbEntity
  8
0
100
AcDbLine
 10
1268.579910632499
 20
350.9931162239966
 30
0.0
 11
1268.579910632499
 21
360.5193956656253
 31
0.0
  0
LINE
  5
773D
330
A
100
AcDbEntity
  8
0
100
AcDbLine
 10
1268.579910632499
 20
360.5193956656253
 30
0.0
 11
1245.5799106325
 21
360.5193956656253
 31
0.0
  0
LINE
  5
773E
330
A
100
AcDbEntity
  8
0
100
AcDbLine
 10
1245.5799106325
 20
343.0857290883653
 30
0.0
 11
1286.579910632499
 21
343.0857290883653
 31
0.0
  0
LINE
  5
773F
330
A
100
AcDbEntity
  8
0
100
AcDbLine
 10
1286.579910632499
 20
343.0857290883653
 30
0.0
 11
1286.579910632499
 21
370.5567100797621
 31
0.0
  0
LINE
  5
7740
330
A
100
AcDbEntity
  8
0
100
AcDbLine
 10
1245.5799106325
 20
360.5193956656253
 30
0.0
 11
1245.5799106325
 21
370.5567100797618
 31
0.0
  0
LINE
  5
7741
330
A
100
AcDbEntity
  8
0
100
AcDbLine
 10
1245.5799106325
 20
343.0857290883653
 30
0.0
 11
1245.5799106325
 21
350.9931162239965
 31
0.0
  0
LINE
  5
7742
330
A
100
AcDbEntity
  8
0
100
AcDbLine
 10
1286.579910632499
 20
343.3157970712249
 30
0.0
 11
1356.5799106325
 21
343.3157970712249
 31
0.0
  0
LINE
  5
7743
330
A
100
AcDbEntity
  8
0
100
AcDbLine
 10
1356.5799106325
 20
343.3157970712249
 30
0.0
 11
1356.5799106325
 21
370.6088622575135
 31
0.0
  0
LINE
  5
7744
330
A
100
AcDbEntity
  8
0
100
AcDbLine
 10
1245.5799106325
 20
371.4199915847932
 30
0.0
 11
1356.5799106325
 21
371.4199915847932
 31
0.0
  0
LINE
  5
7745
330
A
100
AcDbEntity
  8
0
100
AcDbLine
 10
1356.5799106325
 20
371.3966796790499
 30
0.0
 11
1356.5799106325
 21
371.4199915847932
 31
0.0
  0
LINE
  5
7746
330
A
100
AcDbEntity
  8
0
100
AcDbLine
 10
1245.5799106325
 20
371.3966796790499
 30
0.0
 11
1245.5799106325
 21
371.4199915847932
 31
0.0
  0
LINE
  5
7747
330
A
100
AcDbEntity
  8
0
100
AcDbLine
 10
1356.5799106325
 20
371.4199915847932
 30
0.0
 11
1356.5799106325
 21
375.5329010225746
 31
0.0
  0
LINE
  5
7748
330
A
100
AcDbEntity
  8
0
100
AcDbLine
 10
1245.5799106325
 20
371.4199915847932
 30
0.0
 11
1245.5799106325
 21
375.480748844823
 31
0.0
  0
LINE
  5
7749
330
A
100
AcDbEntity
  8
0
100
AcDbLine
 10
1268.579910632499
 20
353.7508509442627
 30
0.0
 11
1245.5799106325
 21
353.7508509442627
 31
0.0
  0
LINE
  5
774A
330
A
100
AcDbEntity
  8
0
100
AcDbLine
 10
1245.5799106325
 20
360.5193956656253
 30
0.0
 11
1245.5799106325
 21
353.7508509442627
 31
0.0
  0
LINE
  5
774B
330
A
100
AcDbEntity
  8
0
100
AcDbLine
 10
1245.5799106325
 20
353.7508509442627
 30
0.0
 11
1245.5799106325
 21
350.9931162239965
 31
0.0
  0
LINE
  5
774C
330
A
100
AcDbEntity
  8
0
100
AcDbLine
 10
1356.5799106325
 20
340.1018590227923
 30
0.0
 11
1286.5799106325
 21
340.1018590227923
 31
0.0
  0
LINE
  5
774D
330
A
100
AcDbEntity
  8
0
100
AcDbLine
 10
1286.5799106325
 20
340.1018590227923
 30
0.0
 11
1286.5799106325
 21
339.8717910399327
 31
0.0
  0
LINE
  5
774E
330
A
100
AcDbEntity
  8
0
100
AcDbLine
 10
1245.5799106325
 20
339.8717910399327
 30
0.0
 11
1286.5799106325
 21
339.8717910399327
 31
0.0
  0
LINE
  5
774F
330
A
100
AcDbEntity
  8
0
100
AcDbLine
 10
1356.5799106325
 20
340.1018590227923
 30
0.0
 11
1356.5799106325
 21
343.3157970712249
 31
0.0
  0
LINE
  5
7750
330
A
100
AcDbEntity
  8
0
100
AcDbLine
 10
1245.5799106325
 20
339.8717910399327
 30
0.0
 11
1245.5799106325
 21
343.0857290883653
 31
0.0
  0
LINE
  5
7751
330
A
100
AcDbEntity
  8
0
100
AcDbLine
 10
1286.5799106325
 20
336.2943400816157
 30
0.0
 11
1286.5799106325
 21
339.8717910399327
 31
0.0
  0
LINE
  5
7752
330
A
100
AcDbEntity
  8
0
100
AcDbLine
 10
1286.5799106325
 20
336.2943400816157
 30
0.0
 11
1245.5799106325
 21
336.2943400816157
 31
0.0
  0
LINE
  5
7753
330
A
100
AcDbEntity
  8
0
100
AcDbLine
 10
1245.5799106325
 20
336.2943400816157
 30
0.0
 11
1245.5799106325
 21
339.8717910399327
 31
0.0
  0
LINE
  5
7754
330
A
100
AcDbEntity
  8
0
100
AcDbLine
 10
1356.5799106325
 20
329.2639906650773
 30
0.0
 11
1356.5799106325
 21
340.1018590227923
 31
0.0
  0
LINE
  5
7755
330
A
100
AcDbEntity
  8
0
100
AcDbLine
 10
1286.5799106325
 20
332.8444601128757
 30
0.0
 11
1245.5799106325
 21
332.8444601128755
 31
0.0
  0
LINE
  5
7756
330
A
100
AcDbEntity
  8
0
100
AcDbLine
 10
1286.5799106325
 20
332.8444601128757
 30
0.0
 11
1286.5799106325
 21
336.2943400816157
 31
0.0
  0
LINE
  5
7757
330
A
100
AcDbEntity
  8
0
100
AcDbLine
 10
1245.5799106325
 20
332.8444601128755
 30
0.0
 11
1245.5799106325
 21
336.2943400816157
 31
0.0
  0
LINE
  5
7758
330
A
100
AcDbEntity
  8
0
100
AcDbLine
 10
1245.885528093069
 20
435.2794601056094
 30
0.0
 11
1245.5799106325
 21
435.2794601056094
 31
0.0
  0
LINE
  5
7759
330
A
100
AcDbEntity
  8
0
100
AcDbLine
 10
1245.5799106325
 20
435.0559519918763
 30
0.0
 11
1245.5799106325
 21
435.2794601056094
 31
0.0
  0
LWPOLYLINE
  5
775A
330
A
100
AcDbEntity
  8
0
100
AcDbPolyline
 90
        9
 70
   128
 43
0.0
 10
1305.0799106325
 20
433.6618249833718
 10
1306.419087343489
 20
433.6206019502906
 10
1307.71522181311
 20
433.4982577932493
 10
1308.926655213044
 20
433.2987247541202
 10
1310.014451077048
 20
433.0284159889568
 10
1310.94364675101
 20
432.696019443883
 10
1311.684377121425
 20
432.3122186173534
 10
1312.212834504714
 20
431.8893491837257
 10
1312.423859587528
 20
431.6172206728497
  0
LWPOLYLINE
  5
775B
330
A
100
AcDbEntity
  8
0
100
AcDbPolyline
 90
        9
 70
   128
 43
0.0
 10
1297.709575437243
 20
431.5715968170326
 10
1297.946986760286
 20
431.8893491837257
 10
1298.475444143574
 20
432.3122186173534
 10
1299.21617451399
 20
432.696019443883
 10
1300.145370187952
 20
433.028415988957
 10
1301.233166051956
 20
433.2987247541202
 10
1302.44459945189
 20
433.4982577932493
 10
1303.74073392151
 20
433.6206019502906
 10
1305.0799106325
 20
433.6618249833718
  0
LINE
  5
775C
330
A
100
AcDbEntity
  8
0
100
AcDbLine
 10
1286.5799106325
 20
316.8805065119672
 30
0.0
 11
1247.311961440068
 21
316.8805065119672
 31
0.0
  0
LWPOLYLINE
  5
775D
330
A
100
AcDbEntity
  8
0
100
AcDbPolyline
 90
        3
 70
   128
 43
0.0
 10
1245.5799106325
 20
320.1029095933972
 10
1246.284552767393
 20
318.7893237280027
 10
1247.311961440068
 20
316.8805065119672
  0
LINE
  5
775E
330
A
100
AcDbEntity
  8
0
100
AcDbLine
 10
1286.5799106325
 20
316.8805065119672
 30
0.0
 11
1286.5799106325
 21
332.8444601128757
 31
0.0
  0
LINE
  5
775F
330
A
100
AcDbEntity
  8
0
100
AcDbLine
 10
1245.5799106325
 20
320.1029095933972
 30
0.0
 11
1245.5799106325
 21
332.8444601128755
 31
0.0
  0
LINE
  5
7760
330
A
100
AcDbEntity
  8
0
100
AcDbLine
 10
1278.0799106325
 20
312.7226360622224
 30
0.0
 11
1265.5799106325
 21
312.7226360622224
 31
0.0
  0
LINE
  5
7761
330
A
100
AcDbEntity
  8
0
100
AcDbLine
 10
1265.5799106325
 20
313.8900190091906
 30
0.0
 11
1254.5799106325
 21
313.8900190091906
 31
0.0
  0
LINE
  5
7762
330
A
100
AcDbEntity
  8
0
100
AcDbLine
 10
1247.311961440069
 20
312.6148700676139
 30
0.0
 11
1254.5799106325
 21
312.6148700676139
 31
0.0
  0
LINE
  5
7763
330
A
100
AcDbEntity
  8
0
100
AcDbLine
 10
1247.311961440069
 20
312.6148700676139
 30
0.0
 11
1247.311961440068
 21
316.8805065119672
 31
0.0
  0
LINE
  5
7764
330
A
100
AcDbEntity
  8
0
100
AcDbLine
 10
1286.5799106325
 20
312.2639906650773
 30
0.0
 11
1286.5799106325
 21
316.8805065119672
 31
0.0
  0
LINE
  5
7765
330
A
100
AcDbEntity
  8
0
100
AcDbLine
 10
1245.5799106325
 20
315.6306656692465
 30
0.0
 11
1247.311961440069
 21
312.6148700676139
 31
0.0
  0
LINE
  5
7766
330
A
100
AcDbEntity
  8
0
100
AcDbLine
 10
1245.5799106325
 20
315.6306656692465
 30
0.0
 11
1245.5799106325
 21
320.1029095933972
 31
0.0
  0
LWPOLYLINE
  5
7767
330
A
100
AcDbEntity
  8
0
100
AcDbPolyline
 90
       28
 70
   128
 43
0.0
 10
1305.0799106325
 20
432.6870675748937
 10
1306.152274431452
 20
432.6441983077851
 10
1307.166826820432
 20
432.5179015997455
 10
1308.068873017543
 20
432.3149861389959
 10
1308.809783478811
 20
432.0463911505481
 10
1309.349615529493
 20
431.7265966597526
 10
1309.659266684007
 20
431.3728428703838
 10
1309.722043568461
 20
431.0042007407924
 10
1309.534561864767
 20
430.6405438636041
 10
1309.106928760097
 20
430.3014770751972
 10
1308.462198065815
 20
430.0052795538986
 10
1307.635127380529
 20
429.7679193847501
 10
1306.670304298964
 20
429.6021927159081
 10
1305.619742683182
 20
429.5170339149871
 10
1304.540078581817
 20
429.5170339149871
 10
1303.489516966035
 20
429.6021927159081
 10
1302.524693884471
 20
429.7679193847501
 10
1301.697623199185
 20
430.0052795538986
 10
1301.052892504902
 20
430.3014770751972
 10
1300.625259400233
 20
430.6405438636041
 10
1300.437777696539
 20
431.0042007407925
 10
1300.500554580993
 20
431.3728428703838
 10
1300.810205735507
 20
431.7265966597526
 10
1301.350037786189
 20
432.0463911505481
 10
1302.090948247458
 20
432.3149861389959
 10
1302.992994444568
 20
432.5179015997455
 10
1304.007546833548
 20
432.6441983077851
 10
1305.0799106325
 20
432.6870675748937
  0
LINE
  5
7768
330
A
100
AcDbEntity
  8
0
100
AcDbLine
 10
1265.5799106325
 20
409.5236096083099
 30
0.0
 11
1254.579910632499
 21
409.5236096083099
 31
0.0
  0
LINE
  5
7769
330
A
100
AcDbEntity
  8
0
100
AcDbLine
 10
1254.579910632499
 20
409.5236096083099
 30
0.0
 11
1254.579910632499
 21
416.4518128385855
 31
0.0
  0
LINE
  5
776A
330
A
100
AcDbEntity
  8
0
100
AcDbLine
 10
1254.579910632499
 20
416.4518128385855
 30
0.0
 11
1240.579910632499
 21
416.4518128385855
 31
0.0
  0
LINE
  5
776B
330
A
100
AcDbEntity
  8
0
100
AcDbLine
 10
1240.579910632499
 20
416.4518128385855
 30
0.0
 11
1240.579910632499
 21
428.5761684915676
 31
0.0
  0
LINE
  5
776C
330
A
100
AcDbEntity
  8
0
100
AcDbLine
 10
1254.5799106325
 20
428.5761684915676
 30
0.0
 11
1240.579910632499
 21
428.5761684915676
 31
0.0
  0
LINE
  5
776D
330
A
100
AcDbEntity
  8
0
100
AcDbLine
 10
1254.5799106325
 20
428.5761684915676
 30
0.0
 11
1254.5799106325
 21
435.5043717218433
 31
0.0
  0
LINE
  5
776E
330
A
100
AcDbEntity
  8
0
100
AcDbLine
 10
1265.5799106325
 20
435.5043717218433
 30
0.0
 11
1254.5799106325
 21
435.5043717218433
 31
0.0
  0
LINE
  5
776F
330
A
100
AcDbEntity
  8
0
100
AcDbLine
 10
1265.5799106325
 20
429.4421938953521
 30
0.0
 11
1265.5799106325
 21
435.5043717218433
 31
0.0
  0
LINE
  5
7770
330
A
100
AcDbEntity
  8
0
100
AcDbLine
 10
1278.0799106325
 20
429.4421938953521
 30
0.0
 11
1265.5799106325
 21
429.4421938953521
 31
0.0
  0
LINE
  5
7771
330
A
100
AcDbEntity
  8
0
100
AcDbLine
 10
1278.0799106325
 20
415.5857874348011
 30
0.0
 11
1278.0799106325
 21
429.4421938953521
 31
0.0
  0
LINE
  5
7772
330
A
100
AcDbEntity
  8
0
100
AcDbLine
 10
1265.5799106325
 20
415.5857874348011
 30
0.0
 11
1278.0799106325
 21
415.5857874348011
 31
0.0
  0
LINE
  5
7773
330
A
100
AcDbEntity
  8
0
100
AcDbLine
 10
1265.5799106325
 20
409.5236096083099
 30
0.0
 11
1265.5799106325
 21
415.5857874348011
 31
0.0
  0
LINE
  5
7774
330
A
100
AcDbEntity
  8
0
100
AcDbLine
 10
1254.579910632499
 20
409.5236096083099
 30
0.0
 11
1254.579910632499
 21
403.4605954362533
 31
0.0
  0
LINE
  5
7775
330
A
100
AcDbEntity
  8
0
100
AcDbLine
 10
1265.5799106325
 20
403.4605954362533
 30
0.0
 11
1265.5799106325
 21
409.5236096083099
 31
0.0
  0
LINE
  5
7776
330
A
100
AcDbEntity
  8
0
100
AcDbLine
 10
1278.0799106325
 20
410.1064647362286
 30
0.0
 11
1278.0799106325
 21
415.5857874348011
 31
0.0
  0
LINE
  5
7777
330
A
100
AcDbEntity
  8
0
100
AcDbLine
 10
1240.579910632499
 20
406.4518128385857
 30
0.0
 11
1240.5799106325
 21
400.4518128385857
 31
0.0
  0
LINE
  5
7778
330
A
100
AcDbEntity
  8
0
100
AcDbLine
 10
1244.579910632499
 20
406.4518128385857
 30
0.0
 11
1240.579910632499
 21
406.4518128385857
 31
0.0
  0
LINE
  5
7779
330
A
100
AcDbEntity
  8
0
100
AcDbLine
 10
1244.579910632499
 20
410.4518128385857
 30
0.0
 11
1244.579910632499
 21
406.4518128385857
 31
0.0
  0
LINE
  5
777A
330
A
100
AcDbEntity
  8
0
100
AcDbLine
 10
1240.579910632499
 20
410.4518128385857
 30
0.0
 11
1244.579910632499
 21
410.4518128385857
 31
0.0
  0
LINE
  5
777B
330
A
100
AcDbEntity
  8
0
100
AcDbLine
 10
1240.579910632499
 20
416.4518128385855
 30
0.0
 11
1240.579910632499
 21
410.4518128385857
 31
0.0
  0
LINE
  5
777C
330
A
100
AcDbEntity
  8
0
100
AcDbLine
 10
1240.5799106325
 20
400.4518128385857
 30
0.0
 11
1245.5799106325
 21
400.4518128385857
 31
0.0
  0
LINE
  5
777D
330
A
100
AcDbEntity
  8
0
100
AcDbLine
 10
1240.579910632499
 20
406.4518128385857
 30
0.0
 11
1240.579910632499
 21
410.4518128385857
 31
0.0
  0
LINE
  5
777E
330
A
100
AcDbEntity
  8
0
100
AcDbLine
 10
1254.5799106325
 20
301.7639906650773
 30
0.0
 11
1254.5799106325
 21
313.8900190091905
 31
0.0
  0
LINE
  5
777F
330
A
100
AcDbEntity
  8
0
100
AcDbLine
 10
1265.5799106325
 20
313.8900190091905
 30
0.0
 11
1265.5799106325
 21
301.7639906650773
 31
0.0
  0
LINE
  5
7780
330
A
100
AcDbEntity
  8
0
100
AcDbLine
 10
1265.5799106325
 20
301.7639906650773
 30
0.0
 11
1254.5799106325
 21
301.7639906650773
 31
0.0
  0
LINE
  5
7781
330
A
100
AcDbEntity
  8
0
100
AcDbLine
 10
1278.0799106325
 20
312.7226360622224
 30
0.0
 11
1278.0799106325
 21
301.7639906650773
 31
0.0
  0
LINE
  5
7782
330
A
100
AcDbEntity
  8
0
100
AcDbLine
 10
1278.0799106325
 20
301.7639906650773
 30
0.0
 11
1265.5799106325
 21
301.7639906650773
 31
0.0
  0
LINE
  5
7783
330
A
100
AcDbEntity
  8
0
100
AcDbLine
 10
1240.5799106325
 20
301.7639906650773
 30
0.0
 11
1240.5799106325
 21
313.7639906650774
 31
0.0
  0
LINE
  5
7784
330
A
100
AcDbEntity
  8
0
100
AcDbLine
 10
1240.5799106325
 20
313.7639906650774
 30
0.0
 11
1244.5799106325
 21
313.7639906650774
 31
0.0
  0
LINE
  5
7785
330
A
100
AcDbEntity
  8
0
100
AcDbLine
 10
1244.5799106325
 20
313.7639906650774
 30
0.0
 11
1244.5799106325
 21
321.7639906650774
 31
0.0
  0
LINE
  5
7786
330
A
100
AcDbEntity
  8
0
100
AcDbLine
 10
1244.5799106325
 20
321.7639906650774
 30
0.0
 11
1240.5799106325
 21
321.7639906650774
 31
0.0
  0
LINE
  5
7787
330
A
100
AcDbEntity
  8
0
100
AcDbLine
 10
1240.5799106325
 20
321.7639906650774
 30
0.0
 11
1240.5799106325
 21
333.7639906650773
 31
0.0
  0
LINE
  5
7788
330
A
100
AcDbEntity
  8
0
100
AcDbLine
 10
1254.5799106325
 20
301.7639906650773
 30
0.0
 11
1240.5799106325
 21
301.7639906650773
 31
0.0
  0
LINE
  5
7789
330
A
100
AcDbEntity
  8
0
100
AcDbLine
 10
1240.5799106325
 20
333.7639906650773
 30
0.0
 11
1245.5799106325
 21
333.7639906650774
 31
0.0
  0
ARC
  5
778A
330
A
100
AcDbEntity
  8
0
100
AcDbCircle
 10
1479.385896169673
 20
382.2639906650774
 30
0.0
 40
52.99999999999997
100
AcDbArc
 50
232.7036343356049
 51
307.2963656643951
  0
LINE
  5
778B
330
A
100
AcDbEntity
  8
0
100
AcDbLine
 10
1447.271185282315
 20
340.1018590227923
 30
0.0
 11
1450.187422492878
 21
343.5772951953379
 31
0.0
  0
LINE
  5
778C
330
A
100
AcDbEntity
  8
0
100
AcDbLine
 10
1450.187422492878
 20
343.5772951953379
 30
0.0
 11
1450.9834331227
 21
343.4369370443694
 31
0.0
  0
LINE
  5
778D
330
A
100
AcDbEntity
  8
0
100
AcDbLine
 10
1450.9834331227
 20
343.4369370443694
 30
0.0
 11
1453.36174727854
 21
346.2713014839096
 31
0.0
  0
LINE
  5
778E
330
A
100
AcDbEntity
  8
0
100
AcDbLine
 10
1453.36174727854
 20
346.2713014839096
 30
0.0
 11
1448.459062842579
 21
350.3851421859034
 31
0.0
  0
LINE
  5
778F
330
A
100
AcDbEntity
  8
0
100
AcDbLine
 10
1448.459062842579
 20
350.3851421859034
 30
0.0
 11
1446.080748686739
 21
347.5507777463632
 31
0.0
  0
LINE
  5
7790
330
A
100
AcDbEntity
  8
0
100
AcDbLine
 10
1446.080748686739
 20
347.5507777463632
 30
0.0
 11
1446.357200277283
 21
346.7912332437705
 31
0.0
  0
LINE
  5
7791
330
A
100
AcDbEntity
  8
0
100
AcDbLine
 10
1446.357200277283
 20
346.7912332437705
 30
0.0
 11
1443.44096306672
 21
343.3157970712249
 31
0.0
  0
ARC
  5
7792
330
A
100
AcDbEntity
  8
0
100
AcDbCircle
 10
1479.385896169673
 20
382.2639906650774
 30
0.0
 40
52.99999999999999
100
AcDbArc
 50
192.7036343356056
 51
227.2963656644003
  0
LINE
  5
7793
330
A
100
AcDbEntity
  8
0
100
AcDbLine
 10
1427.683304534406
 20
370.6088622575135
 30
0.0
 11
1432.151239154343
 21
371.3966796790499
 31
0.0
  0
LINE
  5
7794
330
A
100
AcDbEntity
  8
0
100
AcDbLine
 10
1432.151239154343
 20
371.3966796790499
 30
0.0
 11
1432.670798193622
 21
370.7774933274257
 31
0.0
  0
LINE
  5
7795
330
A
100
AcDbEntity
  8
0
100
AcDbLine
 10
1432.670798193622
 20
370.7774933274257
 30
0.0
 11
1436.314586879767
 21
371.4199915847932
 31
0.0
  0
LINE
  5
7796
330
A
100
AcDbEntity
  8
0
100
AcDbLine
 10
1436.314586879767
 20
371.4199915847932
 30
0.0
 11
1435.203238542698
 21
377.7227612040713
 31
0.0
  0
LINE
  5
7797
330
A
100
AcDbEntity
  8
0
100
AcDbLine
 10
1435.203238542698
 20
377.7227612040713
 30
0.0
 11
1431.559449856553
 21
377.0802629467037
 31
0.0
  0
LINE
  5
7798
330
A
100
AcDbEntity
  8
0
100
AcDbLine
 10
1431.559449856553
 20
377.0802629467037
 30
0.0
 11
1431.282998266009
 21
376.3207184441109
 31
0.0
  0
LINE
  5
7799
330
A
100
AcDbEntity
  8
0
100
AcDbLine
 10
1431.282998266009
 20
376.3207184441109
 30
0.0
 11
1426.815063646072
 21
375.5329010225746
 31
0.0
  0
ARC
  5
779A
330
A
100
AcDbEntity
  8
0
100
AcDbCircle
 10
1479.385896169673
 20
382.2639906650774
 30
0.0
 40
53.00000000000006
100
AcDbArc
 50
352.7036343356032
 51
187.2963656643968
  0
LINE
  5
779B
330
A
100
AcDbEntity
  8
0
100
AcDbLine
 10
1527.488794073337
 20
376.3207184441109
 30
0.0
 11
1531.956728693275
 21
375.5329010225746
 31
0.0
  0
LINE
  5
779C
330
A
100
AcDbEntity
  8
0
100
AcDbLine
 10
1527.212342482793
 20
377.0802629467037
 30
0.0
 11
1527.488794073337
 21
376.3207184441109
 31
0.0
  0
LINE
  5
779D
330
A
100
AcDbEntity
  8
0
100
AcDbLine
 10
1523.568553796648
 20
377.7227612040713
 30
0.0
 11
1527.212342482793
 21
377.0802629467037
 31
0.0
  0
LINE
  5
779E
330
A
100
AcDbEntity
  8
0
100
AcDbLine
 10
1522.45720545958
 20
371.4199915847932
 30
0.0
 11
1523.568553796648
 21
377.7227612040713
 31
0.0
  0
LINE
  5
779F
330
A
100
AcDbEntity
  8
0
100
AcDbLine
 10
1526.100994145725
 20
370.7774933274257
 30
0.0
 11
1522.45720545958
 21
371.4199915847932
 31
0.0
  0
LINE
  5
77A0
330
A
100
AcDbEntity
  8
0
100
AcDbLine
 10
1526.620553185003
 20
371.3966796790499
 30
0.0
 11
1526.100994145725
 21
370.7774933274257
 31
0.0
  0
LINE
  5
77A1
330
A
100
AcDbEntity
  8
0
100
AcDbLine
 10
1531.088487804941
 20
370.6088622575135
 30
0.0
 11
1526.620553185003
 21
371.3966796790499
 31
0.0
  0
ARC
  5
77A2
330
A
100
AcDbEntity
  8
0
100
AcDbCircle
 10
1479.385896169673
 20
382.2639906650774
 30
0.0
 40
53.00000000000007
100
AcDbArc
 50
312.7036343356019
 51
347.2963656643976
  0
LINE
  5
77A3
330
A
100
AcDbEntity
  8
0
100
AcDbLine
 10
1512.414592062064
 20
346.7912332437705
 30
0.0
 11
1515.330829272627
 21
343.3157970712249
 31
0.0
  0
LINE
  5
77A4
330
A
100
AcDbEntity
  8
0
100
AcDbLine
 10
1512.691043652608
 20
347.5507777463632
 30
0.0
 11
1512.414592062064
 21
346.7912332437705
 31
0.0
  0
LINE
  5
77A5
330
A
100
AcDbEntity
  8
0
100
AcDbLine
 10
1510.312729496767
 20
350.3851421859034
 30
0.0
 11
1512.691043652608
 21
347.5507777463632
 31
0.0
  0
LINE
  5
77A6
330
A
100
AcDbEntity
  8
0
100
AcDbLine
 10
1505.410045060806
 20
346.2713014839096
 30
0.0
 11
1510.312729496767
 21
350.3851421859034
 31
0.0
  0
LINE
  5
77A7
330
A
100
AcDbEntity
  8
0
100
AcDbLine
 10
1507.788359216647
 20
343.4369370443694
 30
0.0
 11
1505.410045060806
 21
346.2713014839096
 31
0.0
  0
LINE
  5
77A8
330
A
100
AcDbEntity
  8
0
100
AcDbLine
 10
1508.584369846468
 20
343.5772951953379
 30
0.0
 11
1507.788359216647
 21
343.4369370443694
 31
0.0
  0
LINE
  5
77A9
330
A
100
AcDbEntity
  8
0
100
AcDbLine
 10
1511.500607057032
 20
340.1018590227923
 30
0.0
 11
1508.584369846468
 21
343.5772951953379
 31
0.0
  0
CIRCLE
  5
77AA
330
A
100
AcDbEntity
  8
0
100
AcDbCircle
 10
1479.385896169673
 20
382.2639906650774
 30
0.0
 40
41.0
  0
CIRCLE
  5
77AB
330
A
100
AcDbEntity
  8
0
100
AcDbCircle
 10
1479.385896169673
 20
429.7639906650773
 30
0.0
 40
3.300000000000068
  0
ARC
  5
77AC
330
A
100
AcDbEntity
  8
DIM
100
AcDbCircle
 10
1479.385896169673
 20
334.7639906650774
 30
0.0
 40
3.000000000000113
100
AcDbArc
 50
89.99999999998697
 51
1.80964126209956
  0
CIRCLE
  5
77AD
330
A
100
AcDbEntity
  8
0
100
AcDbCircle
 10
1438.249689489913
 20
358.5139906650771
 30
0.0
 40
3.299999999999936
  0
CIRCLE
  5
77AE
330
A
100
AcDbEntity
  8
0
100
AcDbCircle
 10
1520.522102849434
 20
358.5139906650777
 30
0.0
 40
3.300000000000098
  0
CIRCLE
  5
77AF
330
A
100
AcDbEntity
  8
0
100
AcDbCircle
 10
1461.208433132332
 20
426.1482684593635
 30
0.0
 40
2.999999999999886
  0
LINE
  5
77B0
330
A
100
AcDbEntity
  8
0
100
AcDbLine
 10
1494.409037177116
 20
338.1555421062073
 30
0.0
 11
1495.174404041846
 21
336.3077830411847
 31
0.0
  0
ARC
  5
77B1
330
A
100
AcDbEntity
  8
0
100
AcDbCircle
 10
1497.94604263938
 20
337.4558333382799
 30
0.0
 40
3.000000000000003
100
AcDbArc
 50
202.5000000000083
 51
22.49999999999726
  0
LINE
  5
77B2
330
A
100
AcDbEntity
  8
0
100
AcDbLine
 10
1500.717681236914
 20
338.6038836353753
 30
0.0
 11
1499.952314372183
 21
340.4516427003978
 31
0.0
  0
ARC
  5
77B3
330
A
100
AcDbEntity
  8
0
100
AcDbCircle
 10
1497.18067577465
 20
339.3035924033025
 30
0.0
 40
3.000000000000087
100
AcDbArc
 50
22.50000000000027
 51
202.4999999999972
  0
ARC
  5
77B4
330
A
100
AcDbEntity
  8
0
100
AcDbCircle
 10
1479.385896169674
 20
382.2639906650774
 30
0.0
 40
53.29999999999997
100
AcDbArc
 50
180.4049449763422
 51
187.3115943277359
  0
ARC
  5
77B5
330
A
100
AcDbEntity
  8
0
100
AcDbCircle
 10
1422.087327268366
 20
381.8590192314298
 30
0.0
 40
4.000000000000004
100
AcDbArc
 50
0.4049449763325218
 51
59.99999999999946
  0
LINE
  5
77B6
330
A
100
AcDbEntity
  8
0
100
AcDbLine
 10
1424.087327268366
 20
385.3231208465675
 30
0.0
 11
1410.262137905143
 21
393.3050976470217
 31
0.0
  0
ARC
  5
77B7
330
A
100
AcDbEntity
  8
0
100
AcDbCircle
 10
1479.385896169674
 20
382.2639906650774
 30
0.0
 40
69.99999999999992
100
AcDbArc
 50
129.0751675723658
 51
170.9248324276359
  0
LINE
  5
77B8
330
A
100
AcDbEntity
  8
0
100
AcDbLine
 10
1435.262137905144
 20
436.6063678362436
 30
0.0
 11
1449.087327268366
 21
428.6243910357893
 31
0.0
  0
ARC
  5
77B9
330
A
100
AcDbEntity
  8
0
100
AcDbCircle
 10
1451.087327268366
 20
432.088492650927
 30
0.0
 40
4.000000000000063
100
AcDbArc
 50
239.9999999999995
 51
299.5950550236758
  0
ARC
  5
77BA
330
A
100
AcDbEntity
  8
0
100
AcDbCircle
 10
1479.385896169674
 20
382.2639906650774
 30
0.0
 40
53.29999999999997
100
AcDbArc
 50
60.40494497633718
 51
119.5950550236628
  0
ARC
  5
77BB
330
A
100
AcDbEntity
  8
0
100
AcDbCircle
 10
1507.684465070981
 20
432.088492650927
 30
0.0
 40
4.000000000000063
100
AcDbArc
 50
240.4049449763371
 51
300.0000000000005
  0
LINE
  5
77BC
330
A
100
AcDbEntity
  8
0
100
AcDbLine
 10
1509.684465070981
 20
428.6243910357893
 30
0.0
 11
1523.509654434204
 21
436.6063678362436
 31
0.0
  0
ARC
  5
77BD
330
A
100
AcDbEntity
  8
0
100
AcDbCircle
 10
1479.385896169674
 20
382.2639906650774
 30
0.0
 40
70.00000000000013
100
AcDbArc
 50
9.075167572364058
 51
50.92483242763423
  0
LINE
  5
77BE
330
A
100
AcDbEntity
  8
0
100
AcDbLine
 10
1548.509654434204
 20
393.3050976470217
 30
0.0
 11
1534.684465070982
 21
385.3231208465675
 31
0.0
  0
ARC
  5
77BF
330
A
100
AcDbEntity
  8
0
100
AcDbCircle
 10
1536.684465070982
 20
381.8590192314298
 30
0.0
 40
3.999999999999933
100
AcDbArc
 50
120.0000000000005
 51
179.5950550235828
  0
ARC
  5
77C0
330
A
100
AcDbEntity
  8
0
100
AcDbCircle
 10
1479.385896169674
 20
382.2639906650774
 30
0.0
 40
53.30000000000013
100
AcDbArc
 50
352.6884056722641
 51
359.5950550236707
  0
LINE
  5
77C1
330
A
100
AcDbEntity
  8
0
100
AcDbLine
 10
1426.519293948536
 20
375.480748844823
 30
0.0
 11
1426.815063646072
 21
375.5329010225746
 31
0.0
  0
LINE
  5
77C2
330
A
100
AcDbEntity
  8
0
100
AcDbLine
 10
1532.252498390811
 20
375.480748844823
 30
0.0
 11
1531.956728693276
 21
375.5329010225746
 31
0.0
  0
ARC
  5
77C3
330
A
100
AcDbEntity
  8
0
100
AcDbCircle
 10
1479.385896169674
 20
382.2639906650774
 30
0.0
 40
53.30000000000013
100
AcDbArc
 50
312.6884056722603
 51
347.3115943277376
  0
LINE
  5
77C4
330
A
100
AcDbEntity
  8
0
100
AcDbLine
 10
1515.523879232191
 20
343.0857290883653
 30
0.0
 11
1515.330829272627
 21
343.3157970712249
 31
0.0
  0
LINE
  5
77C5
330
A
100
AcDbEntity
  8
0
100
AcDbLine
 10
1531.088487804941
 20
370.6088622575135
 30
0.0
 11
1531.384257502477
 21
370.5567100797621
 31
0.0
  0
ARC
  5
77C6
330
A
100
AcDbEntity
  8
0
100
AcDbCircle
 10
1508.385896169674
 20
332.8444601128757
 30
0.0
 40
4.000000000000006
100
AcDbArc
 50
120.4049449763335
 51
180.0
  0
LINE
  5
77C7
330
A
100
AcDbEntity
  8
0
100
AcDbLine
 10
1504.385896169674
 20
332.8444601128757
 30
0.0
 11
1504.385896169674
 21
316.8805065119672
 31
0.0
  0
ARC
  5
77C8
330
A
100
AcDbEntity
  8
0
100
AcDbCircle
 10
1479.385896169674
 20
382.2639906650774
 30
0.0
 40
70.00000000000007
100
AcDbArc
 50
249.0751675723601
 51
290.9248324276398
  0
LINE
  5
77C9
330
A
100
AcDbEntity
  8
0
100
AcDbLine
 10
1454.385896169674
 20
316.8805065119672
 30
0.0
 11
1454.385896169674
 21
332.8444601128757
 31
0.0
  0
ARC
  5
77CA
330
A
100
AcDbEntity
  8
0
100
AcDbCircle
 10
1450.385896169674
 20
332.8444601128757
 30
0.0
 40
4.000000000000006
100
AcDbArc
 50
0.0
 51
59.59505502366652
  0
ARC
  5
77CB
330
A
100
AcDbEntity
  8
0
100
AcDbCircle
 10
1479.385896169674
 20
382.2639906650774
 30
0.0
 40
53.29999999999998
100
AcDbArc
 50
232.6884056722689
 51
239.5950550236665
  0
ARC
  5
77CC
330
A
100
AcDbEntity
  8
0
100
AcDbCircle
 10
1479.385896169674
 20
382.2639906650774
 30
0.0
 40
53.30000000000002
100
AcDbArc
 50
300.4049449763335
 51
307.3115943277434
  0
LINE
  5
77CD
330
A
100
AcDbEntity
  8
0
100
AcDbLine
 10
1447.271185282315
 20
340.1018590227923
 30
0.0
 11
1447.078135322752
 21
339.8717910399327
 31
0.0
  0
LINE
  5
77CE
330
A
100
AcDbEntity
  8
0
100
AcDbLine
 10
1511.500607057033
 20
340.1018590227923
 30
0.0
 11
1511.693657016596
 21
339.8717910399327
 31
0.0
  0
ARC
  5
77CF
330
A
100
AcDbEntity
  8
0
100
AcDbCircle
 10
1479.385896169674
 20
382.2639906650774
 30
0.0
 40
53.30000000000005
100
AcDbArc
 50
192.6884056722656
 51
227.3115943277397
  0
LINE
  5
77D0
330
A
100
AcDbEntity
  8
0
100
AcDbLine
 10
1427.683304534407
 20
370.6088622575135
 30
0.0
 11
1427.387534836872
 21
370.5567100797621
 31
0.0
  0
LINE
  5
77D1
330
A
100
AcDbEntity
  8
0
100
AcDbLine
 10
1443.247913107157
 20
343.0857290883653
 30
0.0
 11
1443.440963066721
 21
343.3157970712249
 31
0.0
  0
LINE
  5
77D2
330
A
100
AcDbEntity
  8
0
100
AcDbLine
 10
1535.610475869328
 20
423.9628711967806
 30
0.0
 11
1545.100941174321
 21
429.4421938953532
 31
0.0
  0
LINE
  5
77D3
330
A
100
AcDbEntity
  8
0
100
AcDbLine
 10
1543.610475869329
 20
410.1064647362298
 30
0.0
 11
1553.100941174321
 21
415.585787434802
 31
0.0
  0
LINE
  5
77D4
330
A
100
AcDbEntity
  8
0
100
AcDbLine
 10
1545.100941174321
 20
429.4421938953532
 30
0.0
 11
1553.100941174321
 21
415.585787434802
 31
0.0
  0
LINE
  5
77D5
330
A
100
AcDbEntity
  8
0
100
AcDbLine
 10
1546.099492581309
 20
403.4605954362545
 30
0.0
 11
1556.600941174321
 21
409.5236096083112
 31
0.0
  0
LINE
  5
77D6
330
A
100
AcDbEntity
  8
0
100
AcDbLine
 10
1553.100941174321
 20
415.585787434802
 30
0.0
 11
1556.600941174321
 21
409.5236096083112
 31
0.0
  0
LINE
  5
77D7
330
A
100
AcDbEntity
  8
0
100
AcDbLine
 10
1531.099492581309
 20
429.4413575497875
 30
0.0
 11
1541.600941174321
 21
435.5043717218443
 31
0.0
  0
LINE
  5
77D8
330
A
100
AcDbEntity
  8
0
100
AcDbLine
 10
1541.600941174321
 20
435.5043717218443
 30
0.0
 11
1545.100941174321
 21
429.4421938953532
 31
0.0
  0
LINE
  5
77D9
330
A
100
AcDbEntity
  8
0
100
AcDbLine
 10
1415.16131647002
 20
410.1064647362283
 30
0.0
 11
1405.670851165027
 21
415.5857874348011
 31
0.0
  0
LINE
  5
77DA
330
A
100
AcDbEntity
  8
0
100
AcDbLine
 10
1423.16131647002
 20
423.9628711967795
 30
0.0
 11
1413.670851165026
 21
429.4421938953521
 31
0.0
  0
LINE
  5
77DB
330
A
100
AcDbEntity
  8
0
100
AcDbLine
 10
1405.670851165027
 20
415.5857874348011
 30
0.0
 11
1413.670851165026
 21
429.4421938953521
 31
0.0
  0
LINE
  5
77DC
330
A
100
AcDbEntity
  8
0
100
AcDbLine
 10
1427.672299758039
 20
429.4413575497867
 30
0.0
 11
1417.170851165026
 21
435.5043717218433
 31
0.0
  0
LINE
  5
77DD
330
A
100
AcDbEntity
  8
0
100
AcDbLine
 10
1413.670851165026
 20
429.4421938953521
 30
0.0
 11
1417.170851165026
 21
435.5043717218433
 31
0.0
  0
LINE
  5
77DE
330
A
100
AcDbEntity
  8
0
100
AcDbLine
 10
1412.672299758039
 20
403.4605954362533
 30
0.0
 11
1402.170851165027
 21
409.5236096083099
 31
0.0
  0
LINE
  5
77DF
330
A
100
AcDbEntity
  8
0
100
AcDbLine
 10
1402.170851165027
 20
409.5236096083099
 30
0.0
 11
1405.670851165027
 21
415.5857874348011
 31
0.0
  0
LINE
  5
77E0
330
A
100
AcDbEntity
  8
0
100
AcDbLine
 10
1487.385896169674
 20
312.7226360622224
 30
0.0
 11
1487.385896169674
 21
301.7639906650773
 31
0.0
  0
LINE
  5
77E1
330
A
100
AcDbEntity
  8
0
100
AcDbLine
 10
1471.385896169674
 20
312.7226360622225
 30
0.0
 11
1471.385896169674
 21
301.7639906650773
 31
0.0
  0
LINE
  5
77E2
330
A
100
AcDbEntity
  8
0
100
AcDbLine
 10
1487.385896169674
 20
301.7639906650773
 30
0.0
 11
1471.385896169674
 21
301.7639906650773
 31
0.0
  0
LINE
  5
77E3
330
A
100
AcDbEntity
  8
0
100
AcDbLine
 10
1494.385896169674
 20
313.8900190091906
 30
0.0
 11
1494.385896169675
 21
301.7639906650773
 31
0.0
  0
LINE
  5
77E4
330
A
100
AcDbEntity
  8
0
100
AcDbLine
 10
1494.385896169675
 20
301.7639906650773
 30
0.0
 11
1487.385896169674
 21
301.7639906650773
 31
0.0
  0
LINE
  5
77E5
330
A
100
AcDbEntity
  8
0
100
AcDbLine
 10
1464.385896169674
 20
313.8900190091906
 30
0.0
 11
1464.385896169674
 21
301.7639906650773
 31
0.0
  0
LINE
  5
77E6
330
A
100
AcDbEntity
  8
0
100
AcDbLine
 10
1471.385896169674
 20
301.7639906650773
 30
0.0
 11
1464.385896169674
 21
301.7639906650773
 31
0.0
  0
LINE
  5
77E7
330
A
100
AcDbEntity
  8
CENTER
100
AcDbLine
 10
1009.872532672957
 20
382.2639906650774
 30
0.0
 11
1178.560700981001
 21
382.2639906650774
 31
0.0
  0
LINE
  5
77E8
330
A
100
AcDbEntity
  8
CENTER
100
AcDbLine
 10
1094.216616826979
 20
297.9199065110557
 30
0.0
 11
1094.216616826979
 21
466.608074819099
 31
0.0
  0
CIRCLE
  5
77E9
330
A
100
AcDbEntity
  8
CENTER
100
AcDbCircle
 10
1094.216616826979
 20
382.2639906650774
 30
0.0
 40
47.50000000000006
  0
CIRCLE
  5
77EA
330
A
100
AcDbEntity
  8
0
100
AcDbCircle
 10
1094.216616826979
 20
327.7639906650774
 30
0.0
 40
2.5
  0
CIRCLE
  5
77EB
330
A
100
AcDbEntity
  8
0
100
AcDbCircle
 10
1094.216616826979
 20
307.7639906650774
 30
0.0
 40
2.5
  0
LINE
  5
77EC
330
A
100
AcDbEntity
  8
CENTER
100
AcDbLine
 10
1094.126616826979
 20
327.7639906650774
 30
0.0
 11
1094.306616826979
 21
327.7639906650774
 31
0.0
  0
LINE
  5
77ED
330
A
100
AcDbEntity
  8
CENTER
100
AcDbLine
 10
1094.216616826979
 20
327.6739906650774
 30
0.0
 11
1094.216616826979
 21
327.8539906650773
 31
0.0
  0
LINE
  5
77EE
330
A
100
AcDbEntity
  8
CENTER
100
AcDbLine
 10
1094.126616826979
 20
307.7639906650774
 30
0.0
 11
1094.306616826979
 21
307.7639906650774
 31
0.0
  0
LINE
  5
77EF
330
A
100
AcDbEntity
  8
CENTER
100
AcDbLine
 10
1094.216616826979
 20
307.6739906650774
 30
0.0
 11
1094.216616826979
 21
307.8539906650773
 31
0.0
  0
ARC
  5
77F0
330
A
100
AcDbEntity
  8
DIM
100
AcDbCircle
 10
1158.73550940892
 20
419.5139906650773
 30
0.0
 40
3.0
100
AcDbArc
 50
209.9999999999973
 51
120.0000000000005
  0
CIRCLE
  5
77F1
330
A
100
AcDbEntity
  8
0
100
AcDbCircle
 10
1158.73550940892
 20
419.5139906650773
 30
0.0
 40
2.5
  0
LINE
  5
77F2
330
A
100
AcDbEntity
  8
CENTER
100
AcDbLine
 10
1158.81345169526
 20
419.5589906650772
 30
0.0
 11
1158.657567122579
 21
419.4689906650771
 31
0.0
  0
LINE
  5
77F3
330
A
100
AcDbEntity
  8
CENTER
100
AcDbLine
 10
1158.780509408919
 20
419.4360483787366
 30
0.0
 11
1158.69050940892
 21
419.5919329514176
 31
0.0
  0
ARC
  5
77F4
330
A
100
AcDbEntity
  8
DIM
100
AcDbCircle
 10
1141.415001333231
 20
409.5139906650773
 30
0.0
 40
3.0
100
AcDbArc
 50
209.9999999999973
 51
120.0000000000005
  0
CIRCLE
  5
77F5
330
A
100
AcDbEntity
  8
0
100
AcDbCircle
 10
1141.415001333231
 20
409.5139906650773
 30
0.0
 40
2.5
  0
LINE
  5
77F6
330
A
100
AcDbEntity
  8
CENTER
100
AcDbLine
 10
1141.492943619571
 20
409.5589906650773
 30
0.0
 11
1141.33705904689
 21
409.4689906650772
 31
0.0
  0
LINE
  5
77F7
330
A
100
AcDbEntity
  8
CENTER
100
AcDbLine
 10
1141.460001333231
 20
409.4360483787365
 30
0.0
 11
1141.370001333231
 21
409.5919329514178
 31
0.0
  0
ARC
  5
77F8
330
A
100
AcDbEntity
  8
DIM
100
AcDbCircle
 10
1029.697724245038
 20
419.5139906650773
 30
0.0
 40
3.0
100
AcDbArc
 50
330.0000000000027
 51
239.9999999999995
  0
CIRCLE
  5
77F9
330
A
100
AcDbEntity
  8
0
100
AcDbCircle
 10
1029.697724245038
 20
419.5139906650773
 30
0.0
 40
2.5
  0
LINE
  5
77FA
330
A
100
AcDbEntity
  8
CENTER
100
AcDbLine
 10
1029.619781958698
 20
419.5589906650773
 30
0.0
 11
1029.775666531379
 21
419.4689906650774
 31
0.0
  0
LINE
  5
77FB
330
A
100
AcDbEntity
  8
CENTER
100
AcDbLine
 10
1029.742724245038
 20
419.5919329514179
 30
0.0
 11
1029.652724245038
 21
419.4360483787368
 31
0.0
  0
ARC
  5
77FC
330
A
100
AcDbEntity
  8
DIM
100
AcDbCircle
 10
1047.018232320727
 20
409.5139906650772
 30
0.0
 40
3.0
100
AcDbArc
 50
330.0000000000027
 51
239.9999999999995
  0
CIRCLE
  5
77FD
330
A
100
AcDbEntity
  8
0
100
AcDbCircle
 10
1047.018232320727
 20
409.5139906650772
 30
0.0
 40
2.5
  0
LINE
  5
77FE
330
A
100
AcDbEntity
  8
CENTER
100
AcDbLine
 10
1046.940290034386
 20
409.5589906650773
 30
0.0
 11
1047.096174607068
 21
409.4689906650773
 31
0.0
  0
LINE
  5
77FF
330
A
100
AcDbEntity
  8
CENTER
100
AcDbLine
 10
1047.063232320727
 20
409.5919329514178
 30
0.0
 11
1046.973232320727
 21
409.4360483787367
 31
0.0
  0
LINE
  5
7800
330
A
100
AcDbEntity
  8
CENTER
100
AcDbLine
 10
1479.385896169674
 20
295.7389032968028
 30
0.0
 11
1479.385896169674
 21
439.1264967969256
 31
0.0
  0
LINE
  5
7801
330
A
100
AcDbEntity
  8
CENTER
100
AcDbLine
 10
1420.315611742986
 20
382.2639906650774
 30
0.0
 11
1537.468573579633
 21
382.2639906650774
 31
0.0
  0
CIRCLE
  5
7802
330
A
100
AcDbEntity
  8
CENTER
100
AcDbCircle
 10
1479.385896169674
 20
382.2639906650774
 30
0.0
 40
47.50000000000006
  0
LINE
  5
7803
330
A
100
AcDbEntity
  8
CENTER
100
AcDbLine
 10
1220.513930867456
 20
382.2639906650774
 30
0.0
 11
1362.083347681206
 21
382.2639906650774
 31
0.0
  0
LINE
  5
7804
330
A
100
AcDbEntity
  8
CENTER
  6
CENTER
100
AcDbLine
 10
1221.644920877879
 20
566.6026547258196
 30
0.0
 11
1361.962896859631
 21
566.6026547258196
 31
0.0
  0
CIRCLE
  5
7805
330
A
100
AcDbEntity
  8
0
100
AcDbCircle
 10
1479.385896169674
 20
334.7639906650772
 30
0.0
 40
2.5
  0
ARC
  5
7806
330
A
100
AcDbEntity
  8
DIM
100
AcDbCircle
 10
1520.522102849435
 20
406.0139906650769
 30
0.0
 40
3.000000000000113
100
AcDbArc
 50
209.9999999999888
 51
121.8096412620993
  0
CIRCLE
  5
7807
330
A
100
AcDbEntity
  8
0
100
AcDbCircle
 10
1520.522102849435
 20
406.0139906650777
 30
0.0
 40
2.5
  0
ARC
  5
7808
330
A
100
AcDbEntity
  8
DIM
100
AcDbCircle
 10
1438.249689489914
 20
406.013990665078
 30
0.0
 40
3.000000000000113
100
AcDbArc
 50
329.9999999999849
 51
241.8096412621068
  0
CIRCLE
  5
7809
330
A
100
AcDbEntity
  8
0
100
AcDbCircle
 10
1438.249689489913
 20
406.0139906650773
 30
0.0
 40
2.5
  0
LINE
  5
780A
330
A
100
AcDbEntity
  8
0
  6
Continuous
 62
     7
370
    15
100
AcDbLine
 10
1356.5799106325
 20
513.6026547258196
 30
0.0
 11
1356.5799106325
 21
619.6026547258196
 31
0.0
  0
LINE
  5
780B
330
A
100
AcDbEntity
  8
0
  6
Continuous
 62
     7
370
    15
100
AcDbLine
 10
1245.5799106325
 20
572.1026547258201
 30
0.0
 11
1245.5799106325
 21
592.9257563390783
 31
0.0
  0
LINE
  5
780C
330
A
100
AcDbEntity
  8
0
  6
Continuous
 62
     7
370
    15
100
AcDbLine
 10
1286.5799106325
 20
540.2795531125617
 30
0.0
 11
1286.5799106325
 21
592.9257563390782
 31
0.0
  0
POLYLINE
  5
780D
330
A
100
AcDbEntity
  8
0
  6
Continuous
 62
     7
370
    15
100
AcDb2dPolyline
 66
     1
 10
0.0
 20
0.0
 30
0.0
 70
   128
  0
VERTEX
  5
780E
330
780D
100
AcDbEntity
  8
0
100
AcDbVertex
100
AcDb2dVertex
 10
1342.5799106325
 20
577.4996133015179
 30
0.0
  0
VERTEX
  5
780F
330
780D
100
AcDbEntity
  8
0
100
AcDbVertex
100
AcDb2dVertex
 10
1340.111487964928
 20
577.9121100849007
 30
0.0
  0
VERTEX
  5
7810
330
780D
100
AcDbEntity
  8
0
100
AcDbVertex
100
AcDb2dVertex
 10
1337.921558354954
 20
579.0944760927963
 30
0.0
  0
VERTEX
  5
7811
330
780D
100
AcDbEntity
  8
0
100
AcDbVertex
100
AcDb2dVertex
 10
1336.241227088085
 20
580.9106811952848
 30
0.0
  0
VERTEX
  5
7812
330
780D
100
AcDbEntity
  8
0
100
AcDbVertex
100
AcDb2dVertex
 10
1335.269638956398
 20
583.1454618278569
 30
0.0
  0
VERTEX
  5
7813
330
780D
100
AcDbEntity
  8
0
100
AcDbVertex
100
AcDb2dVertex
 10
1335.126251166949
 20
585.5097263800079
 30
0.0
  0
VERTEX
  5
7814
330
780D
100
AcDbEntity
  8
0
100
AcDbVertex
100
AcDb2dVertex
 10
1335.811061545473
 20
587.7312043224716
 30
0.0
  0
VERTEX
  5
7815
330
780D
100
AcDbEntity
  8
0
100
AcDbVertex
100
AcDb2dVertex
 10
1337.247534266413
 20
589.5957485696938
 30
0.0
  0
VERTEX
  5
7816
330
780D
100
AcDbEntity
  8
0
100
AcDbVertex
100
AcDb2dVertex
 10
1339.29548603579
 20
590.9183987460314
 30
0.0
  0
VERTEX
  5
7817
330
780D
100
AcDbEntity
  8
0
100
AcDbVertex
100
AcDb2dVertex
 10
1341.719415534856
 20
591.5508757434098
 30
0.0
  0
VERTEX
  5
7818
330
780D
100
AcDbEntity
  8
0
100
AcDbVertex
100
AcDb2dVertex
 10
1344.220999752938
 20
591.4329922648724
 30
0.0
  0
VERTEX
  5
7819
330
780D
100
AcDbEntity
  8
0
100
AcDbVertex
100
AcDb2dVertex
 10
1346.527637151992
 20
590.5904028125489
 30
0.0
  0
VERTEX
  5
781A
330
780D
100
AcDbEntity
  8
0
100
AcDbVertex
100
AcDb2dVertex
 10
1348.407540597052
 20
589.0940394027971
 30
0.0
  0
VERTEX
  5
781B
330
780D
100
AcDbEntity
  8
0
100
AcDbVertex
100
AcDb2dVertex
 10
1349.644059155854
 20
587.0767705199553
 30
0.0
  0
VERTEX
  5
781C
330
780D
100
AcDbEntity
  8
0
100
AcDbVertex
100
AcDb2dVertex
 10
1350.079818092877
 20
584.7647279931424
 30
0.0
  0
VERTEX
  5
781D
330
780D
100
AcDbEntity
  8
0
100
AcDbVertex
100
AcDb2dVertex
 10
1349.675944732644
 20
582.4288976542267
 30
0.0
  0
VERTEX
  5
781E
330
780D
100
AcDbEntity
  8
0
100
AcDbVertex
100
AcDb2dVertex
 10
1348.487736319912
 20
580.3190058054605
 30
0.0
  0
VERTEX
  5
781F
330
780D
100
AcDbEntity
  8
0
100
AcDbVertex
100
AcDb2dVertex
 10
1346.630105852122
 20
578.6690157418661
 30
0.0
  0
VERTEX
  5
7820
330
780D
100
AcDbEntity
  8
0
100
AcDbVertex
100
AcDb2dVertex
 10
1344.303895726595
 20
577.6980169838631
 30
0.0
  0
VERTEX
  5
7821
330
780D
100
AcDbEntity
  8
0
100
AcDbVertex
100
AcDb2dVertex
 10
1342.5799106325
 20
577.4996133015179
 30
0.0
  0
SEQEND
  5
7822
330
780D
100
AcDbEntity
  8
0
  0
LINE
  5
7823
330
A
100
AcDbEntity
  8
0
  6
Continuous
 62
     7
370
    15
100
AcDbLine
 10
1265.5799106325
 20
618.316251137455
 30
0.0
 11
1254.5799106325
 21
618.316251137455
 31
0.0
  0
LINE
  5
7824
330
A
100
AcDbEntity
  8
0
  6
Continuous
 62
     7
370
    15
100
AcDbLine
 10
1265.5799106325
 20
628.817699730467
 30
0.0
 11
1254.5799106325
 21
628.817699730467
 31
0.0
  0
LINE
  5
7825
330
A
100
AcDbEntity
  8
0
  6
Continuous
 62
     7
370
    15
100
AcDbLine
 10
1265.5799106325
 20
643.8176997304672
 30
0.0
 11
1254.5799106325
 21
643.8176997304672
 31
0.0
  0
LINE
  5
7826
330
A
100
AcDbEntity
  8
0
  6
Continuous
 62
     7
370
    15
100
AcDbLine
 10
1286.5799106325
 20
610.7264129903502
 30
0.0
 11
1247.311961440069
 21
610.7264129903504
 31
0.0
  0
LINE
  5
7827
330
A
100
AcDbEntity
  8
0
  6
Continuous
 62
     7
370
    15
100
AcDbLine
 10
1286.5799106325
 20
596.9012236271277
 30
0.0
 11
1245.5799106325
 21
596.9012236271277
 31
0.0
  0
LINE
  5
7828
330
A
100
AcDbEntity
  8
0
  6
Continuous
 62
     7
370
    15
100
AcDbLine
 10
1286.5799106325
 20
592.9257563390782
 30
0.0
 11
1245.5799106325
 21
592.9257563390783
 31
0.0
  0
LINE
  5
7829
330
A
100
AcDbEntity
  8
0
  6
Continuous
 62
     7
370
    15
100
AcDbLine
 10
1245.5799106325
 20
607.9357300605989
 30
0.0
 11
1245.5799106325
 21
620.8088069108339
 31
0.0
  0
LINE
  5
782A
330
A
100
AcDbEntity
  8
0
  6
Continuous
 62
     7
370
    15
100
AcDbLine
 10
1240.5799106325
 20
615.4971916547784
 30
0.0
 11
1240.5799106325
 21
605.1048868093651
 31
0.0
  0
LINE
  5
782B
330
A
100
AcDbEntity
  8
0
  6
Continuous
 62
     7
370
    15
100
AcDbLine
 10
1247.311961440069
 20
610.7264129903504
 30
0.0
 11
1247.311961440069
 21
623.4205625144692
 31
0.0
  0
LINE
  5
782C
330
A
100
AcDbEntity
  8
0
  6
Continuous
 62
     7
370
    15
100
AcDbLine
 10
1240.5799106325
 20
632.8176997304672
 30
0.0
 11
1240.5799106325
 21
639.8176997304673
 31
0.0
  0
LINE
  5
782D
330
A
100
AcDbEntity
  8
0
  6
Continuous
 62
     7
370
    15
100
AcDbLine
 10
1254.5799106325
 20
639.8176997304672
 30
0.0
 11
1254.5799106325
 21
643.8176997304672
 31
0.0
  0
LINE
  5
782E
330
A
100
AcDbEntity
  8
0
  6
Continuous
 62
     7
370
    15
100
AcDbLine
 10
1254.5799106325
 20
639.8176997304672
 30
0.0
 11
1240.5799106325
 21
639.8176997304673
 31
0.0
  0
LINE
  5
782F
330
A
100
AcDbEntity
  8
0
  6
Continuous
 62
     7
370
    15
100
AcDbLine
 10
1254.5799106325
 20
628.817699730467
 30
0.0
 11
1254.5799106325
 21
618.316251137455
 31
0.0
  0
LINE
  5
7830
330
A
100
AcDbEntity
  8
0
  6
Continuous
 62
     7
370
    15
100
AcDbLine
 10
1240.5799106325
 20
632.8176997304672
 30
0.0
 11
1240.5799106325
 21
622.4253948850539
 31
0.0
  0
LINE
  5
7831
330
A
100
AcDbEntity
  8
0
  6
Continuous
 62
     7
370
    15
100
AcDbLine
 10
1254.5799106325
 20
632.817699730467
 30
0.0
 11
1240.5799106325
 21
632.8176997304672
 31
0.0
  0
LINE
  5
7832
330
A
100
AcDbEntity
  8
0
  6
Continuous
 62
     7
370
    15
100
AcDbLine
 10
1254.5799106325
 20
628.817699730467
 30
0.0
 11
1254.5799106325
 21
632.817699730467
 31
0.0
  0
LINE
  5
7833
330
A
100
AcDbEntity
  8
0
  6
Continuous
 62
     7
370
    15
100
AcDbLine
 10
1247.311961440069
 20
623.4205625144692
 30
0.0
 11
1254.5799106325
 21
623.4205625144692
 31
0.0
  0
LINE
  5
7834
330
A
100
AcDbEntity
  8
0
  6
Continuous
 62
     7
370
    15
100
AcDbLine
 10
1244.5799106325
 20
622.4253948850539
 30
0.0
 11
1244.5799106325
 21
615.4971916547784
 31
0.0
  0
LINE
  5
7835
330
A
100
AcDbEntity
  8
0
  6
Continuous
 62
     7
370
    15
100
AcDbLine
 10
1240.5799106325
 20
615.4971916547784
 30
0.0
 11
1240.5799106325
 21
622.4253948850539
 31
0.0
  0
LINE
  5
7836
330
A
100
AcDbEntity
  8
0
  6
Continuous
 62
     7
370
    15
100
AcDbLine
 10
1240.5799106325
 20
622.4253948850539
 30
0.0
 11
1244.5799106325
 21
622.4253948850539
 31
0.0
  0
LINE
  5
7837
330
A
100
AcDbEntity
  8
0
  6
Continuous
 62
     7
370
    15
100
AcDbLine
 10
1245.5799106325
 20
620.8088069108339
 30
0.0
 11
1247.311961440069
 21
623.4205625144692
 31
0.0
  0
LINE
  5
7838
330
A
100
AcDbEntity
  8
0
  6
Continuous
 62
     7
370
    15
100
AcDbLine
 10
1244.5799106325
 20
615.4971916547784
 30
0.0
 11
1240.5799106325
 21
615.4971916547784
 31
0.0
  0
LINE
  5
7839
330
A
100
AcDbEntity
  8
0
  6
Continuous
 62
     7
370
    15
100
AcDbLine
 10
1245.5799106325
 20
592.9257563390783
 30
0.0
 11
1245.5799106325
 21
596.9012236271277
 31
0.0
  0
LINE
  5
783A
330
A
100
AcDbEntity
  8
0
  6
Continuous
 62
     7
370
    15
100
AcDbLine
 10
1245.5799106325
 20
596.9012236271277
 30
0.0
 11
1245.5799106325
 21
607.9357300605989
 31
0.0
  0
LINE
  5
783B
330
A
100
AcDbEntity
  8
0
  6
Continuous
 62
     7
370
    15
100
AcDbLine
 10
1247.311961440069
 20
610.7264129903504
 30
0.0
 11
1245.5799106325
 21
607.9357300605989
 31
0.0
  0
LINE
  5
783C
330
A
100
AcDbEntity
  8
0
  6
Continuous
 62
     7
370
    15
100
AcDbLine
 10
1240.5799106325
 20
605.1048868093651
 30
0.0
 11
1245.5799106325
 21
605.1048868093651
 31
0.0
  0
LINE
  5
783D
330
A
100
AcDbEntity
  8
0
  6
Continuous
 62
     7
370
    15
100
AcDbLine
 10
1286.5799106325
 20
610.7264129903502
 30
0.0
 11
1286.5799106325
 21
635.7264129903504
 31
0.0
  0
LINE
  5
783E
330
A
100
AcDbEntity
  8
0
  6
Continuous
 62
     7
370
    15
100
AcDbLine
 10
1356.5799106325
 20
619.6026547258196
 30
0.0
 11
1286.5799106325
 21
619.60265472582
 31
0.0
  0
LINE
  5
783F
330
A
100
AcDbEntity
  8
0
  6
Continuous
 62
     7
370
    15
100
AcDbLine
 10
1278.0799106325
 20
632.317699730467
 30
0.0
 11
1278.0799106325
 21
640.3176997304671
 31
0.0
  0
LINE
  5
7840
330
A
100
AcDbEntity
  8
0
  6
Continuous
 62
     7
370
    15
100
AcDbLine
 10
1265.5799106325
 20
640.3176997304671
 30
0.0
 11
1265.5799106325
 21
643.8176997304672
 31
0.0
  0
LINE
  5
7841
330
A
100
AcDbEntity
  8
0
  6
Continuous
 62
     7
370
    15
100
AcDbLine
 10
1278.0799106325
 20
640.3176997304671
 30
0.0
 11
1265.5799106325
 21
640.3176997304671
 31
0.0
  0
LINE
  5
7842
330
A
100
AcDbEntity
  8
0
  6
Continuous
 62
     7
370
    15
100
AcDbLine
 10
1286.5799106325
 20
635.7264129903504
 30
0.0
 11
1278.0799106325
 21
635.7264129903504
 31
0.0
  0
LINE
  5
7843
330
A
100
AcDbEntity
  8
0
  6
Continuous
 62
     7
370
    15
100
AcDbLine
 10
1265.5799106325
 20
618.3162511374548
 30
0.0
 11
1265.5799106325
 21
628.817699730467
 31
0.0
  0
LINE
  5
7844
330
A
100
AcDbEntity
  8
0
  6
Continuous
 62
     7
370
    15
100
AcDbLine
 10
1278.0799106325
 20
622.8272344254739
 30
0.0
 11
1278.0799106325
 21
632.317699730467
 31
0.0
  0
LINE
  5
7845
330
A
100
AcDbEntity
  8
0
  6
Continuous
 62
     7
370
    15
100
AcDbLine
 10
1265.5799106325
 20
632.317699730467
 30
0.0
 11
1278.0799106325
 21
632.317699730467
 31
0.0
  0
LINE
  5
7846
330
A
100
AcDbEntity
  8
0
  6
Continuous
 62
     7
370
    15
100
AcDbLine
 10
1265.5799106325
 20
628.817699730467
 30
0.0
 11
1265.5799106325
 21
632.317699730467
 31
0.0
  0
LINE
  5
7847
330
A
100
AcDbEntity
  8
0
  6
Continuous
 62
     7
370
    15
100
AcDbLine
 10
1265.5799106325
 20
622.827234425474
 30
0.0
 11
1278.0799106325
 21
622.8272344254738
 31
0.0
  0
LINE
  5
7848
330
A
100
AcDbEntity
  8
0
  6
Continuous
 62
     7
370
    15
100
AcDbLine
 10
1286.5799106325
 20
592.9257563390782
 30
0.0
 11
1286.5799106325
 21
596.9012236271277
 31
0.0
  0
LINE
  5
7849
330
A
100
AcDbEntity
  8
0
  6
Continuous
 62
     7
370
    15
100
AcDbLine
 10
1286.5799106325
 20
596.9012236271277
 30
0.0
 11
1286.5799106325
 21
610.7264129903502
 31
0.0
  0
POLYLINE
  5
784A
330
A
100
AcDbEntity
  8
0
  6
Continuous
 62
     7
370
    15
100
AcDb2dPolyline
 66
     1
 10
0.0
 20
0.0
 30
0.0
 70
   128
  0
VERTEX
  5
784B
330
784A
100
AcDbEntity
  8
0
100
AcDbVertex
100
AcDb2dVertex
 10
1342.5799106325
 20
580.006727199095
 30
0.0
  0
VERTEX
  5
784C
330
784A
100
AcDbEntity
  8
0
100
AcDbVertex
100
AcDb2dVertex
 10
1343.652274431453
 20
580.1245095424643
 30
0.0
  0
VERTEX
  5
784D
330
784A
100
AcDbEntity
  8
0
100
AcDbVertex
100
AcDb2dVertex
 10
1344.666826820432
 20
580.4715068959547
 30
0.0
  0
VERTEX
  5
784E
330
784A
100
AcDbEntity
  8
0
100
AcDbVertex
100
AcDb2dVertex
 10
1345.568873017543
 20
581.0290125424223
 30
0.0
  0
VERTEX
  5
784F
330
784A
100
AcDbEntity
  8
0
100
AcDbVertex
100
AcDb2dVertex
 10
1346.309783478811
 20
581.7669712081611
 30
0.0
  0
VERTEX
  5
7850
330
784A
100
AcDbEntity
  8
0
100
AcDbVertex
100
AcDb2dVertex
 10
1346.849615529494
 20
582.6455993504878
 30
0.0
  0
VERTEX
  5
7851
330
784A
100
AcDbEntity
  8
0
100
AcDbVertex
100
AcDb2dVertex
 10
1347.159266684007
 20
583.617529898825
 30
0.0
  0
VERTEX
  5
7852
330
784A
100
AcDbEntity
  8
0
100
AcDbVertex
100
AcDb2dVertex
 10
1347.222043568461
 20
584.6303658257371
 30
0.0
  0
VERTEX
  5
7853
330
784A
100
AcDbEntity
  8
0
100
AcDbVertex
100
AcDb2dVertex
 10
1347.034561864767
 20
585.6295048842416
 30
0.0
  0
VERTEX
  5
7854
330
784A
100
AcDbEntity
  8
0
100
AcDbVertex
100
AcDb2dVertex
 10
1346.606928760098
 20
586.5610832290768
 30
0.0
  0
VERTEX
  5
7855
330
784A
100
AcDbEntity
  8
0
100
AcDbVertex
100
AcDb2dVertex
 10
1345.962198065814
 20
587.3748792305424
 30
0.0
  0
VERTEX
  5
7856
330
784A
100
AcDbEntity
  8
0
100
AcDbVertex
100
AcDb2dVertex
 10
1345.13512738053
 20
588.0270209355566
 30
0.0
  0
VERTEX
  5
7857
330
784A
100
AcDbEntity
  8
0
100
AcDbVertex
100
AcDb2dVertex
 10
1344.170304298965
 20
588.4823512160011
 30
0.0
  0
VERTEX
  5
7858
330
784A
100
AcDbEntity
  8
0
100
AcDbVertex
100
AcDb2dVertex
 10
1343.119742683182
 20
588.7163230985995
 30
0.0
  0
VERTEX
  5
7859
330
784A
100
AcDbEntity
  8
0
100
AcDbVertex
100
AcDb2dVertex
 10
1342.040078581818
 20
588.7163230985995
 30
0.0
  0
VERTEX
  5
785A
330
784A
100
AcDbEntity
  8
0
100
AcDbVertex
100
AcDb2dVertex
 10
1340.989516966035
 20
588.4823512160011
 30
0.0
  0
VERTEX
  5
785B
330
784A
100
AcDbEntity
  8
0
100
AcDbVertex
100
AcDb2dVertex
 10
1340.024693884471
 20
588.0270209355566
 30
0.0
  0
VERTEX
  5
785C
330
784A
100
AcDbEntity
  8
0
100
AcDbVertex
100
AcDb2dVertex
 10
1339.197623199185
 20
587.3748792305424
 30
0.0
  0
VERTEX
  5
785D
330
784A
100
AcDbEntity
  8
0
100
AcDbVertex
100
AcDb2dVertex
 10
1338.552892504903
 20
586.5610832290768
 30
0.0
  0
VERTEX
  5
785E
330
784A
100
AcDbEntity
  8
0
100
AcDbVertex
100
AcDb2dVertex
 10
1338.125259400233
 20
585.6295048842415
 30
0.0
  0
VERTEX
  5
785F
330
784A
100
AcDbEntity
  8
0
100
AcDbVertex
100
AcDb2dVertex
 10
1337.937777696538
 20
584.6303658257371
 30
0.0
  0
VERTEX
  5
7860
330
784A
100
AcDbEntity
  8
0
100
AcDbVertex
100
AcDb2dVertex
 10
1338.000554580993
 20
583.617529898825
 30
0.0
  0
VERTEX
  5
7861
330
784A
100
AcDbEntity
  8
0
100
AcDbVertex
100
AcDb2dVertex
 10
1338.310205735507
 20
582.6455993504878
 30
0.0
  0
VERTEX
  5
7862
330
784A
100
AcDbEntity
  8
0
100
AcDbVertex
100
AcDb2dVertex
 10
1338.850037786189
 20
581.7669712081611
 30
0.0
  0
VERTEX
  5
7863
330
784A
100
AcDbEntity
  8
0
100
AcDbVertex
100
AcDb2dVertex
 10
1339.590948247458
 20
581.0290125424223
 30
0.0
  0
VERTEX
  5
7864
330
784A
100
AcDbEntity
  8
0
100
AcDbVertex
100
AcDb2dVertex
 10
1340.492994444568
 20
580.4715068959547
 30
0.0
  0
VERTEX
  5
7865
330
784A
100
AcDbEntity
  8
0
100
AcDbVertex
100
AcDb2dVertex
 10
1341.507546833548
 20
580.1245095424643
 30
0.0
  0
VERTEX
  5
7866
330
784A
100
AcDbEntity
  8
0
100
AcDbVertex
100
AcDb2dVertex
 10
1342.5799106325
 20
580.006727199095
 30
0.0
  0
SEQEND
  5
7867
330
784A
100
AcDbEntity
  8
0
  0
POLYLINE
  5
7868
330
A
100
AcDbEntity
  8
0
  6
Continuous
 62
     7
370
    15
100
AcDb2dPolyline
 66
     1
 10
0.0
 20
0.0
 30
0.0
 70
   128
  0
VERTEX
  5
7869
330
7868
100
AcDbEntity
  8
0
100
AcDbVertex
100
AcDb2dVertex
 10
1346.473770084832
 20
581.9878590289721
 30
0.0
  0
VERTEX
  5
786A
330
7868
100
AcDbEntity
  8
0
100
AcDbVertex
100
AcDb2dVertex
 10
1345.962198065814
 20
582.5980015169879
 30
0.0
  0
VERTEX
  5
786B
330
7868
100
AcDbEntity
  8
0
100
AcDbVertex
100
AcDb2dVertex
 10
1345.13512738053
 20
583.250143222002
 30
0.0
  0
VERTEX
  5
786C
330
7868
100
AcDbEntity
  8
0
100
AcDbVertex
100
AcDb2dVertex
 10
1344.170304298965
 20
583.7054735024465
 30
0.0
  0
VERTEX
  5
786D
330
7868
100
AcDbEntity
  8
0
100
AcDbVertex
100
AcDb2dVertex
 10
1343.119742683182
 20
583.939445385045
 30
0.0
  0
VERTEX
  5
786E
330
7868
100
AcDbEntity
  8
0
100
AcDbVertex
100
AcDb2dVertex
 10
1342.040078581818
 20
583.939445385045
 30
0.0
  0
VERTEX
  5
786F
330
7868
100
AcDbEntity
  8
0
100
AcDbVertex
100
AcDb2dVertex
 10
1340.989516966036
 20
583.7054735024465
 30
0.0
  0
VERTEX
  5
7870
330
7868
100
AcDbEntity
  8
0
100
AcDbVertex
100
AcDb2dVertex
 10
1340.024693884471
 20
583.250143222002
 30
0.0
  0
VERTEX
  5
7871
330
7868
100
AcDbEntity
  8
0
100
AcDbVertex
100
AcDb2dVertex
 10
1339.197623199185
 20
582.5980015169879
 30
0.0
  0
VERTEX
  5
7872
330
7868
100
AcDbEntity
  8
0
100
AcDbVertex
100
AcDb2dVertex
 10
1338.686051180168
 20
581.9878590289721
 30
0.0
  0
SEQEND
  5
7873
330
7868
100
AcDbEntity
  8
0
  0
POLYLINE
  5
7874
330
A
100
AcDbEntity
  8
0
  6
Continuous
 62
     7
370
    15
100
AcDb2dPolyline
 66
     1
 10
0.0
 20
0.0
 30
0.0
 70
   128
  0
VERTEX
  5
7875
330
7874
100
AcDbEntity
  8
0
100
AcDbVertex
100
AcDb2dVertex
 10
1350.0799106325
 20
584.3762978857495
 30
0.0
  0
VERTEX
  5
7876
330
7874
100
AcDbEntity
  8
0
100
AcDbVertex
100
AcDb2dVertex
 10
1350.07235863156
 20
584.6924915108485
 30
0.0
  0
VERTEX
  5
7877
330
7874
100
AcDbEntity
  8
0
100
AcDbVertex
100
AcDb2dVertex
 10
1349.891869973864
 20
585.944557482818
 30
0.0
  0
VERTEX
  5
7878
330
7874
100
AcDbEntity
  8
0
100
AcDbVertex
100
AcDb2dVertex
 10
1349.476368926636
 20
587.1462183009695
 30
0.0
  0
VERTEX
  5
7879
330
7874
100
AcDbEntity
  8
0
100
AcDbVertex
100
AcDb2dVertex
 10
1348.83921003541
 20
588.2588515978778
 30
0.0
  0
VERTEX
  5
787A
330
7874
100
AcDbEntity
  8
0
100
AcDbVertex
100
AcDb2dVertex
 10
1348.000872111206
 20
589.2466964239024
 30
0.0
  0
VERTEX
  5
787B
330
7874
100
AcDbEntity
  8
0
100
AcDbVertex
100
AcDb2dVertex
 10
1346.988300024694
 20
590.0780026335334
 30
0.0
  0
VERTEX
  5
787C
330
7874
100
AcDbEntity
  8
0
100
AcDbVertex
100
AcDb2dVertex
 10
1345.834038675882
 20
590.7260513611926
 30
0.0
  0
VERTEX
  5
787D
330
7874
100
AcDbEntity
  8
0
100
AcDbVertex
100
AcDb2dVertex
 10
1344.57518697425
 20
591.1700137875563
 30
0.0
  0
VERTEX
  5
787E
330
7874
100
AcDbEntity
  8
0
100
AcDbVertex
100
AcDb2dVertex
 10
1343.252205449276
 20
591.3956205949479
 30
0.0
  0
VERTEX
  5
787F
330
7874
100
AcDbEntity
  8
0
100
AcDbVertex
100
AcDb2dVertex
 10
1341.907615815724
 20
591.3956205949479
 30
0.0
  0
VERTEX
  5
7880
330
7874
100
AcDbEntity
  8
0
100
AcDbVertex
100
AcDb2dVertex
 10
1340.58463429075
 20
591.1700137875563
 30
0.0
  0
VERTEX
  5
7881
330
7874
100
AcDbEntity
  8
0
100
AcDbVertex
100
AcDb2dVertex
 10
1339.325782589118
 20
590.7260513611926
 30
0.0
  0
VERTEX
  5
7882
330
7874
100
AcDbEntity
  8
0
100
AcDbVertex
100
AcDb2dVertex
 10
1338.171521240307
 20
590.0780026335334
 30
0.0
  0
VERTEX
  5
7883
330
7874
100
AcDbEntity
  8
0
100
AcDbVertex
100
AcDb2dVertex
 10
1337.158949153795
 20
589.2466964239023
 30
0.0
  0
VERTEX
  5
7884
330
7874
100
AcDbEntity
  8
0
100
AcDbVertex
100
AcDb2dVertex
 10
1336.32061122959
 20
588.2588515978778
 30
0.0
  0
VERTEX
  5
7885
330
7874
100
AcDbEntity
  8
0
100
AcDbVertex
100
AcDb2dVertex
 10
1335.683452338364
 20
587.1462183009695
 30
0.0
  0
VERTEX
  5
7886
330
7874
100
AcDbEntity
  8
0
100
AcDbVertex
100
AcDb2dVertex
 10
1335.267951291136
 20
585.9445574828178
 30
0.0
  0
VERTEX
  5
7887
330
7874
100
AcDbEntity
  8
0
100
AcDbVertex
100
AcDb2dVertex
 10
1335.08746263344
 20
584.6924915108484
 30
0.0
  0
VERTEX
  5
7888
330
7874
100
AcDbEntity
  8
0
100
AcDbVertex
100
AcDb2dVertex
 10
1335.0799106325
 20
584.3762978857495
 30
0.0
  0
SEQEND
  5
7889
330
7874
100
AcDbEntity
  8
0
  0
LINE
  5
788A
330
A
100
AcDbEntity
  8
0
  6
Continuous
 62
     7
370
    15
100
AcDbLine
 10
1286.5799106325
 20
497.4788964612894
 30
0.0
 11
1286.5799106325
 21
522.4788964612896
 31
0.0
  0
LINE
  5
788B
330
A
100
AcDbEntity
  8
0
  6
Continuous
 62
     7
370
    15
100
AcDbLine
 10
1265.5799106325
 20
500.8876097211722
 30
0.0
 11
1265.5799106325
 21
504.3876097211722
 31
0.0
  0
LINE
  5
788C
330
A
100
AcDbEntity
  8
0
  6
Continuous
 62
     7
370
    15
100
AcDbLine
 10
1278.0799106325
 20
510.3780750261655
 30
0.0
 11
1278.0799106325
 21
500.8876097211722
 31
0.0
  0
LINE
  5
788D
330
A
100
AcDbEntity
  8
0
  6
Continuous
 62
     7
370
    15
100
AcDbLine
 10
1254.5799106325
 20
500.3876097211723
 30
0.0
 11
1254.5799106325
 21
504.3876097211722
 31
0.0
  0
LINE
  5
788E
330
A
100
AcDbEntity
  8
0
  6
Continuous
 62
     7
370
    15
100
AcDbLine
 10
1240.5799106325
 20
500.3876097211723
 30
0.0
 11
1240.5799106325
 21
510.7799145665857
 31
0.0
  0
LINE
  5
788F
330
A
100
AcDbEntity
  8
0
  6
Continuous
 62
     7
370
    15
100
AcDbLine
 10
1265.5799106325
 20
504.3876097211722
 30
0.0
 11
1254.5799106325
 21
504.3876097211722
 31
0.0
  0
LINE
  5
7890
330
A
100
AcDbEntity
  8
0
  6
Continuous
 62
     7
370
    15
100
AcDbLine
 10
1265.5799106325
 20
514.8890583141845
 30
0.0
 11
1254.5799106325
 21
514.8890583141845
 31
0.0
  0
LINE
  5
7891
330
A
100
AcDbEntity
  8
0
  6
Continuous
 62
     7
370
    15
100
AcDbLine
 10
1286.5799106325
 20
536.3040858245122
 30
0.0
 11
1245.5799106325
 21
536.3040858245125
 31
0.0
  0
LINE
  5
7892
330
A
100
AcDbEntity
  8
0
  6
Continuous
 62
     7
370
    15
100
AcDbLine
 10
1286.5799106325
 20
522.4788964612896
 30
0.0
 11
1247.311961440069
 21
522.4788964612897
 31
0.0
  0
LINE
  5
7893
330
A
100
AcDbEntity
  8
0
  6
Continuous
 62
     7
370
    15
100
AcDbLine
 10
1286.5799106325
 20
540.2795531125617
 30
0.0
 11
1245.5799106325
 21
540.2795531125618
 31
0.0
  0
LINE
  5
7894
330
A
100
AcDbEntity
  8
0
  6
Continuous
 62
     7
370
    15
100
AcDbLine
 10
1268.5799106325
 20
561.10265472582
 30
0.0
 11
1245.5799106325
 21
561.1026547258201
 31
0.0
  0
LINE
  5
7895
330
A
100
AcDbEntity
  8
0
  6
Continuous
 62
     7
370
    15
100
AcDbLine
 10
1268.5799106325
 20
572.1026547258199
 30
0.0
 11
1245.5799106325
 21
572.1026547258201
 31
0.0
  0
LINE
  5
7896
330
A
100
AcDbEntity
  8
0
  6
Continuous
 62
     7
370
    15
100
AcDbLine
 10
1245.5799106325
 20
540.2795531125618
 30
0.0
 11
1245.5799106325
 21
561.1026547258201
 31
0.0
  0
LINE
  5
7897
330
A
100
AcDbEntity
  8
0
  6
Continuous
 62
     7
370
    15
100
AcDbLine
 10
1245.5799106325
 20
572.1026547258201
 30
0.0
 11
1245.5799106325
 21
561.1026547258201
 31
0.0
  0
LINE
  5
7898
330
A
100
AcDbEntity
  8
0
  6
Continuous
 62
     7
370
    15
100
AcDbLine
 10
1240.5799106325
 20
573.6026547258201
 30
0.0
 11
1240.5799106325
 21
559.6026547258201
 31
0.0
  0
LINE
  5
7899
330
A
100
AcDbEntity
  8
0
  6
Continuous
 62
     7
370
    15
100
AcDbLine
 10
1240.5799106325
 20
573.6026547258201
 30
0.0
 11
1245.5799106325
 21
573.6026547258201
 31
0.0
  0
LINE
  5
789A
330
A
100
AcDbEntity
  8
0
  6
Continuous
 62
     7
370
    15
100
AcDbLine
 10
1240.5799106325
 20
559.6026547258201
 30
0.0
 11
1245.5799106325
 21
559.6026547258201
 31
0.0
  0
LINE
  5
789B
330
A
100
AcDbEntity
  8
0
  6
Continuous
 62
     7
370
    15
100
AcDbLine
 10
1245.5799106325
 20
525.2695793910413
 30
0.0
 11
1247.311961440069
 21
522.4788964612897
 31
0.0
  0
LINE
  5
789C
330
A
100
AcDbEntity
  8
0
  6
Continuous
 62
     7
370
    15
100
AcDbLine
 10
1240.5799106325
 20
517.7081177968611
 30
0.0
 11
1240.5799106325
 21
528.1004226422745
 31
0.0
  0
LINE
  5
789D
330
A
100
AcDbEntity
  8
0
  6
Continuous
 62
     7
370
    15
100
AcDbLine
 10
1245.5799106325
 20
512.3965025408057
 30
0.0
 11
1245.5799106325
 21
525.2695793910413
 31
0.0
  0
LINE
  5
789E
330
A
100
AcDbEntity
  8
0
  6
Continuous
 62
     7
370
    15
100
AcDbLine
 10
1245.5799106325
 20
525.2695793910413
 30
0.0
 11
1245.5799106325
 21
536.3040858245125
 31
0.0
  0
LINE
  5
789F
330
A
100
AcDbEntity
  8
0
  6
Continuous
 62
     7
370
    15
100
AcDbLine
 10
1245.5799106325
 20
536.3040858245125
 30
0.0
 11
1245.5799106325
 21
540.2795531125618
 31
0.0
  0
LINE
  5
78A0
330
A
100
AcDbEntity
  8
0
  6
Continuous
 62
     7
370
    15
100
AcDbLine
 10
1240.5799106325
 20
528.1004226422745
 30
0.0
 11
1245.5799106325
 21
528.1004226422745
 31
0.0
  0
LINE
  5
78A1
330
A
100
AcDbEntity
  8
0
  6
Continuous
 62
     7
370
    15
100
AcDbLine
 10
1247.311961440069
 20
509.7847469371704
 30
0.0
 11
1247.311961440069
 21
522.4788964612897
 31
0.0
  0
LINE
  5
78A2
330
A
100
AcDbEntity
  8
0
  6
Continuous
 62
     7
370
    15
100
AcDbLine
 10
1254.5799106325
 20
504.3876097211722
 30
0.0
 11
1254.5799106325
 21
514.8890583141845
 31
0.0
  0
LINE
  5
78A3
330
A
100
AcDbEntity
  8
0
  6
Continuous
 62
     7
370
    15
100
AcDbLine
 10
1244.5799106325
 20
510.7799145665857
 30
0.0
 11
1244.5799106325
 21
517.7081177968611
 31
0.0
  0
LINE
  5
78A4
330
A
100
AcDbEntity
  8
0
  6
Continuous
 62
     7
370
    15
100
AcDbLine
 10
1240.5799106325
 20
510.7799145665857
 30
0.0
 11
1240.5799106325
 21
517.7081177968611
 31
0.0
  0
LINE
  5
78A5
330
A
100
AcDbEntity
  8
0
  6
Continuous
 62
     7
370
    15
100
AcDbLine
 10
1244.5799106325
 20
517.7081177968611
 30
0.0
 11
1240.5799106325
 21
517.7081177968611
 31
0.0
  0
LINE
  5
78A6
330
A
100
AcDbEntity
  8
0
  6
Continuous
 62
     7
370
    15
100
AcDbLine
 10
1247.311961440069
 20
509.7847469371704
 30
0.0
 11
1254.5799106325
 21
509.7847469371703
 31
0.0
  0
LINE
  5
78A7
330
A
100
AcDbEntity
  8
0
  6
Continuous
 62
     7
370
    15
100
AcDbLine
 10
1245.5799106325
 20
512.3965025408057
 30
0.0
 11
1247.311961440069
 21
509.7847469371704
 31
0.0
  0
LINE
  5
78A8
330
A
100
AcDbEntity
  8
0
  6
Continuous
 62
     7
370
    15
100
AcDbLine
 10
1240.5799106325
 20
510.7799145665857
 30
0.0
 11
1244.5799106325
 21
510.7799145665857
 31
0.0
  0
LINE
  5
78A9
330
A
100
AcDbEntity
  8
0
  6
Continuous
 62
     7
370
    15
100
AcDbLine
 10
1268.5799106325
 20
561.10265472582
 30
0.0
 11
1268.5799106325
 21
572.1026547258199
 31
0.0
  0
POLYLINE
  5
78AA
330
A
100
AcDbEntity
  8
0
  6
Continuous
 62
     7
370
    15
100
AcDb2dPolyline
 66
     1
 10
0.0
 20
0.0
 30
0.0
 70
   128
  0
VERTEX
  5
78AB
330
78AA
100
AcDbEntity
  8
0
100
AcDbVertex
100
AcDb2dVertex
 10
1308.973770084829
 20
551.2174504226623
 30
0.0
  0
VERTEX
  5
78AC
330
78AA
100
AcDbEntity
  8
0
100
AcDbVertex
100
AcDb2dVertex
 10
1308.462198065815
 20
550.6073079346516
 30
0.0
  0
VERTEX
  5
78AD
330
78AA
100
AcDbEntity
  8
0
100
AcDbVertex
100
AcDb2dVertex
 10
1307.635127380529
 20
549.9551662296376
 30
0.0
  0
VERTEX
  5
78AE
330
78AA
100
AcDbEntity
  8
0
100
AcDbVertex
100
AcDb2dVertex
 10
1306.670304298964
 20
549.4998359491929
 30
0.0
  0
VERTEX
  5
78AF
330
78AA
100
AcDbEntity
  8
0
100
AcDbVertex
100
AcDb2dVertex
 10
1305.619742683182
 20
549.2658640665946
 30
0.0
  0
VERTEX
  5
78B0
330
78AA
100
AcDbEntity
  8
0
100
AcDbVertex
100
AcDb2dVertex
 10
1304.540078581818
 20
549.2658640665946
 30
0.0
  0
VERTEX
  5
78B1
330
78AA
100
AcDbEntity
  8
0
100
AcDbVertex
100
AcDb2dVertex
 10
1303.489516966035
 20
549.4998359491931
 30
0.0
  0
VERTEX
  5
78B2
330
78AA
100
AcDbEntity
  8
0
100
AcDbVertex
100
AcDb2dVertex
 10
1302.524693884471
 20
549.9551662296377
 30
0.0
  0
VERTEX
  5
78B3
330
78AA
100
AcDbEntity
  8
0
100
AcDbVertex
100
AcDb2dVertex
 10
1301.697623199185
 20
550.6073079346516
 30
0.0
  0
VERTEX
  5
78B4
330
78AA
100
AcDbEntity
  8
0
100
AcDbVertex
100
AcDb2dVertex
 10
1301.186051180172
 20
551.2174504226606
 30
0.0
  0
SEQEND
  5
78B5
330
78AA
100
AcDbEntity
  8
0
  0
POLYLINE
  5
78B6
330
A
100
AcDbEntity
  8
0
  6
Continuous
 62
     7
370
    15
100
AcDb2dPolyline
 66
     1
 10
0.0
 20
0.0
 30
0.0
 70
   128
  0
VERTEX
  5
78B7
330
78B6
100
AcDbEntity
  8
0
100
AcDbVertex
100
AcDb2dVertex
 10
1305.0799106325
 20
553.1985822525447
 30
0.0
  0
VERTEX
  5
78B8
330
78B6
100
AcDbEntity
  8
0
100
AcDbVertex
100
AcDb2dVertex
 10
1306.152274431452
 20
553.0807999091751
 30
0.0
  0
VERTEX
  5
78B9
330
78B6
100
AcDbEntity
  8
0
100
AcDbVertex
100
AcDb2dVertex
 10
1307.166826820432
 20
552.733802555685
 30
0.0
  0
VERTEX
  5
78BA
330
78B6
100
AcDbEntity
  8
0
100
AcDbVertex
100
AcDb2dVertex
 10
1308.068873017542
 20
552.1762969092174
 30
0.0
  0
VERTEX
  5
78BB
330
78B6
100
AcDbEntity
  8
0
100
AcDbVertex
100
AcDb2dVertex
 10
1308.809783478811
 20
551.4383382434784
 30
0.0
  0
VERTEX
  5
78BC
330
78B6
100
AcDbEntity
  8
0
100
AcDbVertex
100
AcDb2dVertex
 10
1309.349615529493
 20
550.5597101011518
 30
0.0
  0
VERTEX
  5
78BD
330
78B6
100
AcDbEntity
  8
0
100
AcDbVertex
100
AcDb2dVertex
 10
1309.659266684007
 20
549.5877795528145
 30
0.0
  0
VERTEX
  5
78BE
330
78B6
100
AcDbEntity
  8
0
100
AcDbVertex
100
AcDb2dVertex
 10
1309.722043568461
 20
548.5749436259023
 30
0.0
  0
VERTEX
  5
78BF
330
78B6
100
AcDbEntity
  8
0
100
AcDbVertex
100
AcDb2dVertex
 10
1309.534561864767
 20
547.575804567398
 30
0.0
  0
VERTEX
  5
78C0
330
78B6
100
AcDbEntity
  8
0
100
AcDbVertex
100
AcDb2dVertex
 10
1309.106928760098
 20
546.6442262225629
 30
0.0
  0
VERTEX
  5
78C1
330
78B6
100
AcDbEntity
  8
0
100
AcDbVertex
100
AcDb2dVertex
 10
1308.462198065815
 20
545.830430221097
 30
0.0
  0
VERTEX
  5
78C2
330
78B6
100
AcDbEntity
  8
0
100
AcDbVertex
100
AcDb2dVertex
 10
1307.635127380529
 20
545.178288516083
 30
0.0
  0
VERTEX
  5
78C3
330
78B6
100
AcDbEntity
  8
0
100
AcDbVertex
100
AcDb2dVertex
 10
1306.670304298964
 20
544.7229582356384
 30
0.0
  0
VERTEX
  5
78C4
330
78B6
100
AcDbEntity
  8
0
100
AcDbVertex
100
AcDb2dVertex
 10
1305.619742683182
 20
544.48898635304
 30
0.0
  0
VERTEX
  5
78C5
330
78B6
100
AcDbEntity
  8
0
100
AcDbVertex
100
AcDb2dVertex
 10
1304.540078581817
 20
544.48898635304
 30
0.0
  0
VERTEX
  5
78C6
330
78B6
100
AcDbEntity
  8
0
100
AcDbVertex
100
AcDb2dVertex
 10
1303.489516966035
 20
544.7229582356385
 30
0.0
  0
VERTEX
  5
78C7
330
78B6
100
AcDbEntity
  8
0
100
AcDbVertex
100
AcDb2dVertex
 10
1302.524693884471
 20
545.178288516083
 30
0.0
  0
VERTEX
  5
78C8
330
78B6
100
AcDbEntity
  8
0
100
AcDbVertex
100
AcDb2dVertex
 10
1301.697623199185
 20
545.8304302210972
 30
0.0
  0
VERTEX
  5
78C9
330
78B6
100
AcDbEntity
  8
0
100
AcDbVertex
100
AcDb2dVertex
 10
1301.052892504903
 20
546.6442262225629
 30
0.0
  0
VERTEX
  5
78CA
330
78B6
100
AcDbEntity
  8
0
100
AcDbVertex
100
AcDb2dVertex
 10
1300.625259400233
 20
547.575804567398
 30
0.0
  0
VERTEX
  5
78CB
330
78B6
100
AcDbEntity
  8
0
100
AcDbVertex
100
AcDb2dVertex
 10
1300.437777696539
 20
548.5749436259023
 30
0.0
  0
VERTEX
  5
78CC
330
78B6
100
AcDbEntity
  8
0
100
AcDbVertex
100
AcDb2dVertex
 10
1300.500554580993
 20
549.5877795528145
 30
0.0
  0
VERTEX
  5
78CD
330
78B6
100
AcDbEntity
  8
0
100
AcDbVertex
100
AcDb2dVertex
 10
1300.810205735507
 20
550.5597101011518
 30
0.0
  0
VERTEX
  5
78CE
330
78B6
100
AcDbEntity
  8
0
100
AcDbVertex
100
AcDb2dVertex
 10
1301.350037786189
 20
551.4383382434785
 30
0.0
  0
VERTEX
  5
78CF
330
78B6
100
AcDbEntity
  8
0
100
AcDbVertex
100
AcDb2dVertex
 10
1302.090948247458
 20
552.1762969092175
 30
0.0
  0
VERTEX
  5
78D0
330
78B6
100
AcDbEntity
  8
0
100
AcDbVertex
100
AcDb2dVertex
 10
1302.992994444568
 20
552.733802555685
 30
0.0
  0
VERTEX
  5
78D1
330
78B6
100
AcDbEntity
  8
0
100
AcDbVertex
100
AcDb2dVertex
 10
1304.007546833548
 20
553.0807999091753
 30
0.0
  0
VERTEX
  5
78D2
330
78B6
100
AcDbEntity
  8
0
100
AcDbVertex
100
AcDb2dVertex
 10
1305.0799106325
 20
553.1985822525447
 30
0.0
  0
SEQEND
  5
78D3
330
78B6
100
AcDbEntity
  8
0
  0
POLYLINE
  5
78D4
330
A
100
AcDbEntity
  8
0
  6
Continuous
 62
     7
370
    15
100
AcDb2dPolyline
 66
     1
 10
0.0
 20
0.0
 30
0.0
 70
   128
  0
VERTEX
  5
78D5
330
78D4
100
AcDbEntity
  8
0
100
AcDbVertex
100
AcDb2dVertex
 10
1305.0799106325
 20
555.7056961501216
 30
0.0
  0
VERTEX
  5
78D6
330
78D4
100
AcDbEntity
  8
0
100
AcDbVertex
100
AcDb2dVertex
 10
1302.611487964928
 20
555.293199366739
 30
0.0
  0
VERTEX
  5
78D7
330
78D4
100
AcDbEntity
  8
0
100
AcDbVertex
100
AcDb2dVertex
 10
1300.421558354954
 20
554.1108333588432
 30
0.0
  0
VERTEX
  5
78D8
330
78D4
100
AcDbEntity
  8
0
100
AcDbVertex
100
AcDb2dVertex
 10
1298.741227088084
 20
552.2946282563549
 30
0.0
  0
VERTEX
  5
78D9
330
78D4
100
AcDbEntity
  8
0
100
AcDbVertex
100
AcDb2dVertex
 10
1297.769638956397
 20
550.0598476237827
 30
0.0
  0
VERTEX
  5
78DA
330
78D4
100
AcDbEntity
  8
0
100
AcDbVertex
100
AcDb2dVertex
 10
1297.626251166949
 20
547.6955830716319
 30
0.0
  0
VERTEX
  5
78DB
330
78D4
100
AcDbEntity
  8
0
100
AcDbVertex
100
AcDb2dVertex
 10
1298.311061545473
 20
545.4741051291681
 30
0.0
  0
VERTEX
  5
78DC
330
78D4
100
AcDbEntity
  8
0
100
AcDbVertex
100
AcDb2dVertex
 10
1299.747534266413
 20
543.6095608819458
 30
0.0
  0
VERTEX
  5
78DD
330
78D4
100
AcDbEntity
  8
0
100
AcDbVertex
100
AcDb2dVertex
 10
1301.79548603579
 20
542.2869107056084
 30
0.0
  0
VERTEX
  5
78DE
330
78D4
100
AcDbEntity
  8
0
100
AcDbVertex
100
AcDb2dVertex
 10
1304.219415534856
 20
541.6544337082298
 30
0.0
  0
VERTEX
  5
78DF
330
78D4
100
AcDbEntity
  8
0
100
AcDbVertex
100
AcDb2dVertex
 10
1306.720999752937
 20
541.7723171867672
 30
0.0
  0
VERTEX
  5
78E0
330
78D4
100
AcDbEntity
  8
0
100
AcDbVertex
100
AcDb2dVertex
 10
1309.027637151992
 20
542.6149066390906
 30
0.0
  0
VERTEX
  5
78E1
330
78D4
100
AcDbEntity
  8
0
100
AcDbVertex
100
AcDb2dVertex
 10
1310.907540597052
 20
544.1112700488424
 30
0.0
  0
VERTEX
  5
78E2
330
78D4
100
AcDbEntity
  8
0
100
AcDbVertex
100
AcDb2dVertex
 10
1312.144059155853
 20
546.1285389316841
 30
0.0
  0
VERTEX
  5
78E3
330
78D4
100
AcDbEntity
  8
0
100
AcDbVertex
100
AcDb2dVertex
 10
1312.579818092876
 20
548.4405814584971
 30
0.0
  0
VERTEX
  5
78E4
330
78D4
100
AcDbEntity
  8
0
100
AcDbVertex
100
AcDb2dVertex
 10
1312.175944732644
 20
550.7764117974128
 30
0.0
  0
VERTEX
  5
78E5
330
78D4
100
AcDbEntity
  8
0
100
AcDbVertex
100
AcDb2dVertex
 10
1310.987736319912
 20
552.8863036461793
 30
0.0
  0
VERTEX
  5
78E6
330
78D4
100
AcDbEntity
  8
0
100
AcDbVertex
100
AcDb2dVertex
 10
1309.130105852122
 20
554.5362937097735
 30
0.0
  0
VERTEX
  5
78E7
330
78D4
100
AcDbEntity
  8
0
100
AcDbVertex
100
AcDb2dVertex
 10
1306.803895726595
 20
555.5072924677765
 30
0.0
  0
VERTEX
  5
78E8
330
78D4
100
AcDbEntity
  8
0
100
AcDbVertex
100
AcDb2dVertex
 10
1305.0799106325
 20
555.7056961501216
 30
0.0
  0
SEQEND
  5
78E9
330
78D4
100
AcDbEntity
  8
0
  0
POLYLINE
  5
78EA
330
A
100
AcDbEntity
  8
0
  6
Continuous
 62
     7
370
    15
100
AcDb2dPolyline
 66
     1
 10
0.0
 20
0.0
 30
0.0
 70
   128
  0
VERTEX
  5
78EB
330
78EA
100
AcDbEntity
  8
0
100
AcDbVertex
100
AcDb2dVertex
 10
1312.5799106325
 20
548.82901156589
 30
0.0
  0
VERTEX
  5
78EC
330
78EA
100
AcDbEntity
  8
0
100
AcDbVertex
100
AcDb2dVertex
 10
1312.57235863156
 20
548.5128179407911
 30
0.0
  0
VERTEX
  5
78ED
330
78EA
100
AcDbEntity
  8
0
100
AcDbVertex
100
AcDb2dVertex
 10
1312.391869973864
 20
547.2607519688216
 30
0.0
  0
VERTEX
  5
78EE
330
78EA
100
AcDbEntity
  8
0
100
AcDbVertex
100
AcDb2dVertex
 10
1311.976368926636
 20
546.05909115067
 30
0.0
  0
VERTEX
  5
78EF
330
78EA
100
AcDbEntity
  8
0
100
AcDbVertex
100
AcDb2dVertex
 10
1311.339210035409
 20
544.9464578537619
 30
0.0
  0
VERTEX
  5
78F0
330
78EA
100
AcDbEntity
  8
0
100
AcDbVertex
100
AcDb2dVertex
 10
1310.500872111205
 20
543.9586130277372
 30
0.0
  0
VERTEX
  5
78F1
330
78EA
100
AcDbEntity
  8
0
100
AcDbVertex
100
AcDb2dVertex
 10
1309.488300024693
 20
543.1273068181061
 30
0.0
  0
VERTEX
  5
78F2
330
78EA
100
AcDbEntity
  8
0
100
AcDbVertex
100
AcDb2dVertex
 10
1308.334038675881
 20
542.479258090447
 30
0.0
  0
VERTEX
  5
78F3
330
78EA
100
AcDbEntity
  8
0
100
AcDbVertex
100
AcDb2dVertex
 10
1307.07518697425
 20
542.0352956640833
 30
0.0
  0
VERTEX
  5
78F4
330
78EA
100
AcDbEntity
  8
0
100
AcDbVertex
100
AcDb2dVertex
 10
1305.752205449276
 20
541.8096888566918
 30
0.0
  0
VERTEX
  5
78F5
330
78EA
100
AcDbEntity
  8
0
100
AcDbVertex
100
AcDb2dVertex
 10
1304.407615815724
 20
541.8096888566918
 30
0.0
  0
VERTEX
  5
78F6
330
78EA
100
AcDbEntity
  8
0
100
AcDbVertex
100
AcDb2dVertex
 10
1303.08463429075
 20
542.0352956640835
 30
0.0
  0
VERTEX
  5
78F7
330
78EA
100
AcDbEntity
  8
0
100
AcDbVertex
100
AcDb2dVertex
 10
1301.825782589118
 20
542.4792580904472
 30
0.0
  0
VERTEX
  5
78F8
330
78EA
100
AcDbEntity
  8
0
100
AcDbVertex
100
AcDb2dVertex
 10
1300.671521240307
 20
543.1273068181061
 30
0.0
  0
VERTEX
  5
78F9
330
78EA
100
AcDbEntity
  8
0
100
AcDbVertex
100
AcDb2dVertex
 10
1299.658949153794
 20
543.9586130277372
 30
0.0
  0
VERTEX
  5
78FA
330
78EA
100
AcDbEntity
  8
0
100
AcDbVertex
100
AcDb2dVertex
 10
1298.82061122959
 20
544.9464578537619
 30
0.0
  0
VERTEX
  5
78FB
330
78EA
100
AcDbEntity
  8
0
100
AcDbVertex
100
AcDb2dVertex
 10
1298.183452338364
 20
546.0590911506702
 30
0.0
  0
VERTEX
  5
78FC
330
78EA
100
AcDbEntity
  8
0
100
AcDbVertex
100
AcDb2dVertex
 10
1297.767951291136
 20
547.2607519688217
 30
0.0
  0
VERTEX
  5
78FD
330
78EA
100
AcDbEntity
  8
0
100
AcDbVertex
100
AcDb2dVertex
 10
1297.58746263344
 20
548.5128179407912
 30
0.0
  0
VERTEX
  5
78FE
330
78EA
100
AcDbEntity
  8
0
100
AcDbVertex
100
AcDb2dVertex
 10
1297.5799106325
 20
548.8290115658903
 30
0.0
  0
SEQEND
  5
78FF
330
78EA
100
AcDbEntity
  8
0
  0
LINE
  5
7900
330
A
100
AcDbEntity
  8
0
  6
Continuous
 62
     7
370
    15
100
AcDbLine
 10
1286.5799106325
 20
513.6026547258198
 30
0.0
 11
1356.5799106325
 21
513.6026547258196
 31
0.0
  0
LINE
  5
7901
330
A
100
AcDbEntity
  8
0
  6
Continuous
 62
     7
370
    15
100
AcDbLine
 10
1286.5799106325
 20
522.4788964612896
 30
0.0
 11
1286.5799106325
 21
536.3040858245122
 31
0.0
  0
LINE
  5
7902
330
A
100
AcDbEntity
  8
0
  6
Continuous
 62
     7
370
    15
100
AcDbLine
 10
1286.5799106325
 20
536.3040858245122
 30
0.0
 11
1286.5799106325
 21
540.2795531125617
 31
0.0
  0
LINE
  5
7903
330
A
100
AcDbEntity
  8
0
  6
Continuous
 62
     7
370
    15
100
AcDbLine
 10
1265.5799106325
 20
514.8890583141845
 30
0.0
 11
1265.5799106325
 21
504.3876097211722
 31
0.0
  0
LINE
  5
7904
330
A
100
AcDbEntity
  8
0
  6
Continuous
 62
     7
370
    15
100
AcDbLine
 10
1278.0799106325
 20
510.3780750261655
 30
0.0
 11
1265.5799106325
 21
510.3780750261655
 31
0.0
  0
LINE
  5
7905
330
A
100
AcDbEntity
  8
0
  6
Continuous
 62
     7
370
    15
100
AcDbLine
 10
1265.5799106325
 20
489.3876097211724
 30
0.0
 11
1254.5799106325
 21
489.3876097211724
 31
0.0
  0
LINE
  5
7906
330
A
100
AcDbEntity
  8
0
  6
Continuous
 62
     7
370
    15
100
AcDbLine
 10
1240.5799106325
 20
493.3876097211724
 30
0.0
 11
1240.5799106325
 21
500.3876097211723
 31
0.0
  0
LINE
  5
7907
330
A
100
AcDbEntity
  8
0
  6
Continuous
 62
     7
370
    15
100
AcDbLine
 10
1254.5799106325
 20
500.3876097211723
 30
0.0
 11
1240.5799106325
 21
500.3876097211723
 31
0.0
  0
LINE
  5
7908
330
A
100
AcDbEntity
  8
0
  6
Continuous
 62
     7
370
    15
100
AcDbLine
 10
1254.5799106325
 20
493.3876097211724
 30
0.0
 11
1240.5799106325
 21
493.3876097211724
 31
0.0
  0
LINE
  5
7909
330
A
100
AcDbEntity
  8
0
  6
Continuous
 62
     7
370
    15
100
AcDbLine
 10
1254.5799106325
 20
489.3876097211724
 30
0.0
 11
1254.5799106325
 21
493.3876097211724
 31
0.0
  0
LINE
  5
790A
330
A
100
AcDbEntity
  8
0
  6
Continuous
 62
     7
370
    15
100
AcDbLine
 10
1278.0799106325
 20
492.8876097211724
 30
0.0
 11
1278.0799106325
 21
500.8876097211722
 31
0.0
  0
LINE
  5
790B
330
A
100
AcDbEntity
  8
0
  6
Continuous
 62
     7
370
    15
100
AcDbLine
 10
1278.0799106325
 20
500.8876097211722
 30
0.0
 11
1265.5799106325
 21
500.8876097211722
 31
0.0
  0
LINE
  5
790C
330
A
100
AcDbEntity
  8
0
  6
Continuous
 62
     7
370
    15
100
AcDbLine
 10
1286.5799106325
 20
497.4788964612894
 30
0.0
 11
1278.0799106325
 21
497.4788964612895
 31
0.0
  0
LINE
  5
790D
330
A
100
AcDbEntity
  8
0
  6
Continuous
 62
     7
370
    15
100
AcDbLine
 10
1265.5799106325
 20
492.8876097211724
 30
0.0
 11
1278.0799106325
 21
492.8876097211724
 31
0.0
  0
LINE
  5
790E
330
A
100
AcDbEntity
  8
0
  6
Continuous
 62
     7
370
    15
100
AcDbLine
 10
1265.5799106325
 20
489.3876097211724
 30
0.0
 11
1265.5799106325
 21
492.8876097211724
 31
0.0
  0
DIMENSION
  5
79AA
330
A
100
AcDbEntity
  8
AM_5
100
AcDbDimension
  2
*D35
 10
1448.400236177671
 20
409.1133644912969
 30
0.0
 11
1539.511552119728
 21
341.3974630324524
 31
0.0
 70
   163
  1
<>*3depth
 71
     5
 42
82.00000000000125
  3
AM_ISO$3
100
AcDbDiametricDimension
 15
1510.371556161676
 25
355.4146168388574
 35
0.0
 40
0.0
1001
ACAD
1000
DSTYLE
1002
{
1070
   172
1070
     1
1070
   272
1070
     8
1002
}
  0
DIMENSION
  5
79EF
330
A
100
AcDbEntity
  8
AM_5
100
AcDbDimension
  2
*D36
 10
1510.913044035808
 20
298.3113449144613
 30
0.0
 11
1495.883232423351
 21
292.0857931046683
 31
0.0
 70
   161
  1
<>*6depth
 71
     5
 42
5.999999999999772
  3
AM_ISO$0
100
AcDbAlignedDimension
 13
1500.717681236914
 23
338.603883635375
 33
0.0
 14
1495.174404041847
 24
336.3077830411843
 34
0.0
1001
ACAD
1000
DSTYLE
1002
{
1070
   272
1070
     8
1002
}
  0
DIMENSION
  5
7A4E
330
A
100
AcDbEntity
  8
AM_5
100
AcDbDimension
  2
*D37
 10
1431.23419164747
 20
315.2348408878855
 30
0.0
 11
1432.76492537693
 21
311.5393227578404
 31
0.0
 70
   161
 71
     5
 42
7.999999999999943
  3
AM_ISO$0
100
AcDbAlignedDimension
 13
1499.094092936475
 23
334.6841947407461
 33
0.0
 14
1496.032625477555
 24
342.0752310008365
 34
0.0
1001
ACAD
1000
DSTYLE
1002
{
1070
   174
1070
     1
1070
   272
1070
     8
1002
}
  0
DIMENSION
  5
7A8E
330
A
100
AcDbEntity
  8
AM_5
100
AcDbDimension
  2
*D38
 10
1431.234191647466
 20
315.2348408878888
 30
0.0
 11
1425.451495707934
 21
336.3816001590144
 31
0.0
 70
    32
 71
     5
 42
43.50000000000017
  3
AM_ISO$0
100
AcDbAlignedDimension
 13
1479.385896169673
 23
382.2639906650772
 33
0.0
 14
1496.032625477555
 24
342.0752310008364
 34
0.0
 50
112.4999999999917
100
AcDbRotatedDimension
1001
ACAD
1000
DSTYLE
1002
{
1070
   174
1070
     1
1070
   272
1070
     8
1002
}
  0
DIMENSION
  5
7ACD
330
A
100
AcDbEntity
  8
AM_5
100
AcDbDimension
  2
*D40
 10
1414.58746233959
 20
355.4236005521322
 30
0.0
 11
1408.039399535329
 21
378.4181188882805
 31
0.0
 70
    32
 71
     5
 42
47.50000000000006
  3
AM_ISO$0
100
AcDbAlignedDimension
 13
1461.208433132332
 23
426.1482684593638
 33
0.0
 14
1479.385896169673
 24
382.2639906650772
 34
0.0
 50
112.4999999999917
100
AcDbRotatedDimension
1001
ACAD
1000
DSTYLE
1002
{
1070
   174
1070
     1
1070
   272
1070
     8
1002
}
  0
DIMENSION
  5
7AEA
330
A
100
AcDbEntity
  8
AM_5
100
AcDbDimension
  2
*D41
 10
1463.536601969637
 20
424.2562774802629
 30
0.0
 11
1422.613714296659
 21
447.9730872217645
 31
0.0
 70
   163
  1
<>*6depth
 71
     5
 42
5.999999999999317
  3
AM_ISO$3
100
AcDbDiametricDimension
 15
1458.880264295025
 25
428.0402594384626
 35
0.0
 40
0.0
1001
ACAD
1000
DSTYLE
1002
{
1070
   272
1070
     8
1002
}
  0
DIMENSION
  5
7B41
330
A
100
AcDbEntity
  8
AM_5
100
AcDbDimension
  2
*D42
 10
1518.984391008786
 20
404.0428381354306
 30
0.0
 11
1564.055065691646
 21
439.8164086394425
 31
0.0
 70
   163
  1
3-M6*1*12depth
 71
     5
 42
5.000000000000909
  3
AM_ISO$3
100
AcDbDiametricDimension
 15
1522.059814690082
 25
407.985143194725
 35
0.0
 40
0.0
1001
ACAD
1000
DSTYLE
1002
{
1070
   272
1070
     8
1002
}
  0
MTEXT
  5
7B77
330
A
100
AcDbEntity
  8
AM_5
100
AcDbMText
 10
1556.804686882706
 20
437.8624787790879
 30
0.0
 40
3.5
 41
38.43995361238103
 71
     1
 72
     5
  1
P.C.D%%C95
 73
     1
 44
1.0
1001
ACAD
1000
MTEXTBEGIN
1070
    73
1070
     1
1070
    44
1040
1.0
1070
    74
1070
     0
1000
MTEXTEND
  0
DIMENSION
  5
7B7E
330
A
100
AcDbEntity
  8
AM_5
100
AcDbDimension
  2
*D43
 10
1095.939369902854
 20
426.9493642529994
 30
0.0
 11
1060.107347084772
 21
463.4542339027551
 31
0.0
 70
   163
  1
3-<>\P%%c11*23depth
 71
     5
 42
6.600000000000761
  3
AM_ISO$3
100
AcDbDiametricDimension
 15
1092.493863751105
 25
432.5786170771553
 35
0.0
 40
0.0
1001
ACAD
1000
DSTYLE
1002
{
1070
   272
1070
     8
1002
}
  0
DIMENSION
  5
7BE0
330
A
100
AcDbEntity
  8
AM_5
100
AcDbDimension
  2
*D44
 10
1017.609266976919
 20
434.5761684915682
 30
0.0
 11
1011.727697116512
 21
429.888990665077
 31
0.0
 70
    33
 71
     5
 42
13.99999999999977
  3
AM_ISO$0
100
AcDbAlignedDimension
 13
1021.001571822332
 23
416.4518128385866
 33
0.0
 14
1028.001571822332
 24
428.5761684915687
 34
0.0
1001
ACAD
1000
DSTYLE
1002
{
1070
   272
1070
     8
1002
}
  0
DIMENSION
  5
7C12
330
A
100
AcDbEntity
  8
AM_5
100
AcDbDimension
  2
*D45
 10
1109.216616826979
 20
285.9199055110557
 30
0.0
 11
1094.216616826979
 21
288.6699055110558
 31
0.0
 70
    32
 71
     5
 42
30.0
  3
AM_ISO$0
100
AcDbAlignedDimension
 13
1079.216616826979
 23
301.7639906650773
 33
0.0
 14
1109.216616826979
 24
301.7639906650773
 34
0.0
100
AcDbRotatedDimension
1001
ACAD
1000
DSTYLE
1002
{
1070
   272
1070
     8
1002
}
  0
DIMENSION
  5
7C3A
330
A
100
AcDbEntity
  8
AM_5
100
AcDbDimension
  2
*D46
 10
1119.216616826979
 20
279.4199055110543
 30
0.0
 11
1094.216616826978
 21
282.1699055110543
 31
0.0
 70
    32
 71
     5
 42
50.00000000000182
  3
AM_ISO$0
100
AcDbAlignedDimension
 13
1069.216616826977
 23
316.880506511968
 33
0.0
 14
1119.216616826979
 24
316.8805065119672
 34
0.0
100
AcDbRotatedDimension
1001
ACAD
1000
DSTYLE
1002
{
1070
   272
1070
     8
1002
}
  0
DIMENSION
  5
7C7E
330
A
100
AcDbEntity
  8
AM_5
100
AcDbDimension
  2
*D49
 10
1140.260833770532
 20
409.1120834475248
 30
0.0
 11
1032.218085709948
 21
350.3181993810812
 31
0.0
 70
   163
 71
     5
 42
106.5999999999996
  3
AM_ISO$3
100
AcDbDiametricDimension
 15
1048.172399883424
 25
355.4158978826296
 35
0.0
 40
0.0
1001
ACAD
1000
DSTYLE
1002
{
1070
   172
1070
     1
1070
   272
1070
     8
1002
}
  0
ARC
  5
7CA5
330
A
100
AcDbEntity
  8
0
100
AcDbCircle
 10
1094.216616826979
 20
382.2639906650774
 30
0.0
 40
69.99999999999997
100
AcDbArc
 50
249.0751675723619
 51
264.2608295227383
  0
DIMENSION
  5
7CBC
330
A
100
AcDbEntity
  8
AM_5
100
AcDbDimension
  2
*D51
 10
1144.530422045573
 20
430.9314439005348
 30
0.0
 11
1033.088142688518
 21
328.5054701590433
 31
0.0
 70
   163
 71
     5
 42
139.9999999999997
  3
AM_ISO$3
100
AcDbDiametricDimension
 15
1043.902811608386
 25
333.5965374296199
 35
0.0
 40
0.0
1001
ACAD
1000
DSTYLE
1002
{
1070
   172
1070
     1
1070
   272
1070
     8
1002
}
  0
DIMENSION
  5
7CF2
330
A
100
AcDbEntity
  8
AM_5
100
AcDbDimension
  2
*D52
 10
1173.368837172857
 20
354.1683234941315
 30
0.0
 11
1180.653918966607
 21
361.5501916900618
 31
0.0
 70
    33
 71
     5
 42
20.0
  3
AM_ISO$0
100
AcDbAlignedDimension
 13
1158.73550940892
 23
419.5139906650775
 33
0.0
 14
1141.415001333231
 24
409.5139906650772
 34
0.0
1001
ACAD
1000
DSTYLE
1002
{
1070
   174
1070
     1
1070
   272
1070
     8
1002
}
  0
DIMENSION
  5
7D1A
330
A
100
AcDbEntity
  8
AM_5
100
AcDbDimension
  2
*D53
 10
1173.368837172855
 20
354.1683234941297
 30
0.0
 11
1169.395760961502
 21
355.049893354537
 31
0.0
 70
    32
 71
     5
 42
6.0
  3
AM_ISO$0
100
AcDbAlignedDimension
 13
1139.718848910524
 23
400.4518128385856
 33
0.0
 14
1141.415001333231
 24
409.5139906650772
 34
0.0
 50
29.99999999999869
100
AcDbRotatedDimension
1001
ACAD
1000
DSTYLE
1002
{
1070
   174
1070
     1
1070
   272
1070
     8
1002
}
  0
DIMENSION
  5
7D4D
330
A
100
AcDbEntity
  8
AM_5
100
AcDbDimension
  2
*D54
 10
1356.5799106325
 20
446.0068813050203
 30
0.0
 11
1298.5799106325
 21
446.0068813050203
 31
0.0
 70
   160
  1
(<>)
 71
     5
 42
116.0000000000004
  3
AM_ISO$0
100
AcDbAlignedDimension
 13
1240.579910632499
 23
428.5761684915676
 33
0.0
 14
1356.5799106325
 24
435.2639906650773
 34
0.0
100
AcDbRotatedDimension
1001
ACAD
1000
DSTYLE
1002
{
1070
   272
1070
     8
1002
}
  0
DIMENSION
  5
7D7E
330
A
100
AcDbEntity
  8
AM_5
100
AcDbDimension
  2
*D55
 10
1286.5799106325
 20
289.7639906650773
 30
0.0
 11
1321.5799106325
 21
292.5139906650774
 31
0.0
 70
    32
 71
     5
 42
70.0
  3
AM_ISO$0
100
AcDbAlignedDimension
 13
1356.5799106325
 23
329.2639906650773
 33
0.0
 14
1286.5799106325
 24
312.2639906650773
 34
0.0
100
AcDbRotatedDimension
1001
ACAD
1000
DSTYLE
1002
{
1070
   272
1070
     8
1002
}
  0
DIMENSION
  5
7D9D
330
A
100
AcDbEntity
  8
AM_5
100
AcDbDimension
  2
*D56
 10
1278.0799106325
 20
283.2639906650774
 30
0.0
 11
1317.3299106325
 21
286.0139906650774
 31
0.0
 70
    32
 71
     5
 42
78.50000000000045
  3
AM_ISO$0
100
AcDbAlignedDimension
 13
1356.5799106325
 23
329.2639906650773
 33
0.0
 14
1278.0799106325
 24
301.7639906650773
 34
0.0
100
AcDbRotatedDimension
1001
ACAD
1000
DSTYLE
1002
{
1070
   174
1070
     1
1070
   272
1070
     8
1002
}
  0
DIMENSION
  5
7DD6
330
A
100
AcDbEntity
  8
AM_5
100
AcDbDimension
  2
*D57
 10
1278.0799106325
 20
283.2639906650773
 30
0.0
 11
1266.3299106325
 21
286.0143351532663
 31
0.0
 70
    32
 71
     5
 42
23.49999999999955
  3
AM_ISO$0
100
AcDbAlignedDimension
 13
1254.5799106325
 23
301.7639906650773
 33
0.0
 14
1278.0799106325
 24
301.7639906650773
 34
0.0
100
AcDbRotatedDimension
1001
ACAD
1000
DSTYLE
1002
{
1070
   174
1070
     1
1070
   272
1070
     8
1002
}
  0
DIMENSION
  5
7E02
330
A
100
AcDbEntity
  8
AM_5
100
AcDbDimension
  2
*D58
 10
1265.5799106325
 20
289.7639906650773
 30
0.0
 11
1260.0799106325
 21
292.5139906650773
 31
0.0
 70
    32
 71
     5
 42
11.0
  3
AM_ISO$0
100
AcDbAlignedDimension
 13
1254.5799106325
 23
301.7639906650773
 33
0.0
 14
1265.5799106325
 24
301.7639906650773
 34
0.0
100
AcDbRotatedDimension
1001
ACAD
1000
DSTYLE
1002
{
1070
   272
1070
     8
1002
}
  0
DIMENSION
  5
7E4B
330
A
100
AcDbEntity
  8
AM_5
100
AcDbDimension
  2
*D59
 10
1222.0799106325
 20
301.7639906650773
 30
0.0
 11
1219.3299106325
 21
342.0139906650775
 31
0.0
 70
    32
 71
     5
 42
80.50000000000006
  3
AM_ISO$0
100
AcDbAlignedDimension
 13
1220.513930867456
 23
382.2639906650774
 33
0.0
 14
1240.5799106325
 24
301.7639906650773
 34
0.0
 50
90.0
100
AcDbRotatedDimension
1001
ACAD
1000
DSTYLE
1002
{
1070
   272
1070
     8
1002
}
  0
DIMENSION
  5
7E73
330
A
100
AcDbEntity
  8
AM_5
100
AcDbDimension
  2
*D60
 10
1228.5799106325
 20
321.7639906650774
 30
0.0
 11
1225.829566144311
 21
327.7639906650776
 31
0.0
 70
    32
 71
     5
 42
11.99999999999988
  3
AM_ISO$0
100
AcDbAlignedDimension
 13
1240.5799106325
 23
333.7639906650773
 33
0.0
 14
1240.5799106325
 24
321.7639906650774
 34
0.0
 50
90.0
100
AcDbRotatedDimension
1001
ACAD
1000
DSTYLE
1002
{
1070
   174
1070
     1
1070
   272
1070
     8
1002
}
  0
DIMENSION
  5
7E9B
330
A
100
AcDbEntity
  8
AM_5
100
AcDbDimension
  2
*D61
 10
1228.5799106325
 20
313.7639906650774
 30
0.0
 11
1225.8299106325
 21
317.7639906650776
 31
0.0
 70
    32
 71
     5
 42
8.0
  3
AM_ISO$0
100
AcDbAlignedDimension
 13
1240.5799106325
 23
321.7639906650774
 33
0.0
 14
1240.5799106325
 24
313.7639906650774
 34
0.0
 50
90.0
100
AcDbRotatedDimension
1001
ACAD
1000
DSTYLE
1002
{
1070
   174
1070
     1
1070
   272
1070
     8
1002
}
  0
DIMENSION
  5
7EDA
330
A
100
AcDbEntity
  8
AM_5
100
AcDbDimension
  2
*D62
 10
1240.5799106325
 20
651.8177007304672
 30
0.0
 11
1242.5799106325
 21
654.5677007304673
 31
0.0
 70
    32
 71
     5
 42
4.0
  3
AM_ISO$0
100
AcDbAlignedDimension
 13
1244.5799106325
 23
622.4253948850539
 33
0.0
 14
1240.5799106325
 24
639.8176997304673
 34
0.0
100
AcDbRotatedDimension
1001
ACAD
1000
DSTYLE
1002
{
1070
   272
1070
     8
1002
}
  0
DIMENSION
  5
7F10
330
A
100
AcDbEntity
  8
AM_5
100
AcDbDimension
  2
*D63
 10
1240.5799106325
 20
658.3177007304673
 30
0.0
 11
1243.0799106325
 21
661.0677007304673
 31
0.0
 70
    32
 71
     5
 42
4.999999999999545
  3
AM_ISO$0
100
AcDbAlignedDimension
 13
1245.5799106325
 23
620.8088069108339
 33
0.0
 14
1240.5799106325
 24
639.8176997304673
 34
0.0
100
AcDbRotatedDimension
1001
ACAD
1000
DSTYLE
1002
{
1070
   272
1070
     8
1002
}
  0
DIMENSION
  5
7FA5
330
A
100
AcDbEntity
  8
AM_5
100
AcDbDimension
  2
*D64
 10
1356.5799106325
 20
631.6026547258196
 30
0.0
 11
1349.5799106325
 21
634.3526547258196
 31
0.0
 70
    32
 71
     5
 42
14.00000000000045
  3
AM_ISO$0
100
AcDbAlignedDimension
 13
1342.5799106325
 23
580.006727199095
 33
0.0
 14
1356.5799106325
 24
619.6026547258196
 34
0.0
100
AcDbRotatedDimension
1001
ACAD
1000
DSTYLE
1002
{
1070
   174
1070
     1
1070
   272
1070
     8
1002
}
  0
DIMENSION
  5
7FD1
330
A
100
AcDbEntity
  8
AM_5
100
AcDbDimension
  2
*D65
 10
1305.0799106325
 20
631.6026547258197
 30
0.0
 11
1323.8299106325
 21
634.3526547258197
 31
0.0
 70
    32
 71
     5
 42
37.50000000000046
  3
AM_ISO$0
100
AcDbAlignedDimension
 13
1342.5799106325
 23
580.0067271990952
 33
0.0
 14
1305.0799106325
 24
553.1985822525448
 34
0.0
100
AcDbRotatedDimension
1001
ACAD
1000
DSTYLE
1002
{
1070
   174
1070
     1
1070
   272
1070
     8
1002
}
  0
DIMENSION
  5
7FF9
330
A
100
AcDbEntity
  8
AM_5
100
AcDbDimension
  2
*D66
 10
1372.914939304259
 20
513.6026547258196
 30
0.0
 11
1372.914939304259
 21
566.60265472582
 31
0.0
 70
   160
  1
%%c<>
 71
     5
 42
106.0
  3
AM_ISO$0
100
AcDbAlignedDimension
 13
1356.5799106325
 23
619.6026547258196
 33
0.0
 14
1356.5799106325
 24
513.6026547258196
 34
0.0
 50
90.0
100
AcDbRotatedDimension
1001
ACAD
1000
DSTYLE
1002
{
1070
   272
1070
     8
1002
}
  0
LEADER
  5
8025
330
A
100
AcDbEntity
  8
AM_5
100
AcDbLeader
  3
AM_ISO$7
 73
     0
 74
     0
 75
     1
 40
4.676852903476759
 41
52.84862204724414
 76
     3
 10
1308.544079704286
 20
542.4382683841155
 30
0.0
 10
1324.944994194314
 20
497.7993110408284
 30
0.0
 10
1327.944994194314
 20
497.7993110408284
 30
0.0
340
8026
1001
ACAD
1000
DSTYLE
1002
{
1070
   140
1040
3.5
1070
   174
1070
     1
1002
}
  0
MTEXT
  5
8026
102
{ACAD_REACTORS
330
8025
102
}
330
A
100
AcDbEntity
  8
AM_5
100
AcDbMText
 10
1328.944994194314
 20
498.7993110408284
 30
0.0
 40
3.5
 41
0.0
 71
     7
 72
     1
  1
Rc1/8(Finger Openingport)
 73
     1
 44
1.0
1001
ACAD
1000
MTEXTBEGIN
1070
    73
1070
     1
1070
    44
1040
1.0
1070
    74
1070
     0
1000
MTEXTEND
  0
ENDSEC
  0
SECTION
  2
OBJECTS
  0
DICTIONARY
  5
19
330
0
100
AcDbDictionary
281
     1
  3
ACAD_COLOR
350
ECA
  3
ACAD_GROUP
350
1A
  3
ACAD_LAYOUT
350
1E
  3
ACAD_MATERIAL
350
EC9
  3
ACAD_MLINESTYLE
350
1B
  3
ACAD_PLOTSETTINGS
350
22
  3
ACAD_PLOTSTYLENAME
350
1F
  3
ACAD_TABLESTYLE
350
ECB
  3
ACAD_WIPEOUT_VARS
350
23
  3
AcadDim
350
28D5
  3
ACDBHEADERROUNDTRIPXREC
350
834B
  3
AcDbVariableDictionary
350
1257
  3
AcmDictionary
350
F90
  3
AMG
350
ED2
  3
AMGSNAPSETTINGS
350
FD1
  3
DWGPROPS
350
834A
  3
MAPISURF_MODULE
350
F5E
  0
DICTIONARY
  5
1002
330
2
100
AcDbDictionary
280
     1
281
     1
  3
ACAD_LAYERFILTERS
360
1004
  3
ACAD_LAYERSTATES
360
1B79
  3
ACLYDICTIONARY
360
1003
  3
AMLAYER_GROUPCOLORS
360
16D2
  0
DICTIONARY
  5
9C9
330
A
100
AcDbDictionary
280
     1
281
     1
  3
ACAD_INDEX
360
124F
  3
ACAD_LAYOUTSELFREF
360
A64
  3
ACAD_SORTENTS
360
1711
  0
DICTIONARY
  5
9CB
330
B
100
AcDbDictionary
280
     1
281
     1
  3
ACAD_LAYOUTSELFREF
360
A65
  0
DICTIONARY
  5
ECA
102
{ACAD_REACTORS
330
19
102
}
330
19
100
AcDbDictionary
281
     1
  0
DICTIONARY
  5
1A
102
{ACAD_REACTORS
330
19
102
}
330
19
100
AcDbDictionary
281
     1
  0
DICTIONARY
  5
1E
102
{ACAD_REACTORS
330
19
102
}
330
19
100
AcDbDictionary
281
     1
  3
Model
350
A68
  3
配置1
350
A69
  0
DICTIONARY
  5
EC9
102
{ACAD_REACTORS
330
19
102
}
330
19
100
AcDbDictionary
281
     1
  0
DICTIONARY
  5
1B
102
{ACAD_REACTORS
330
19
102
}
330
19
100
AcDbDictionary
281
     1
  3
STANDARD
350
1C
  0
DICTIONARY
  5
22
102
{ACAD_REACTORS
330
19
102
}
330
19
100
AcDbDictionary
281
     1
  0
ACDBDICTIONARYWDFLT
  5
1F
102
{ACAD_REACTORS
330
19
102
}
330
19
100
AcDbDictionary
281
     1
  3
Normal
350
1D
100
AcDbDictionaryWithDefault
340
1D
  0
DICTIONARY
  5
ECB
102
{ACAD_REACTORS
330
19
102
}
330
19
100
AcDbDictionary
281
     1
  3
Standard
350
ECC
  0
WIPEOUTVARIABLES
  5
23
330
19
100
AcDbWipeoutVariables
 70
     1
  0
XRECORD
  5
28D5
102
{ACAD_REACTORS
330
19
102
}
330
19
100
AcDbXrecord
280
     1
 90
   990106
  3

 60
     0
 61
     0
 62
     4
 63
     4
 64
     1
 65
     0
 66
     0
 67
     3
 68
     0
 69
     0
 70
     0
 71
     0
 72
     0
 40
0.0
170
     2
340
3FEC
  0
DICTIONARY
  5
834B
102
{ACAD_REACTORS
330
19
102
}
330
19
100
AcDbDictionary
281
     1
  0
DICTIONARY
  5
1257
102
{ACAD_REACTORS
330
19
102
}
330
19
100
AcDbDictionary
281
     1
  3
CTABLESTYLE
350
1258
  3
DIMASSOC
350
8347
  3
INDEXCTL
350
8346
  3
PROJECTNAME
350
8348
  0
DICTIONARY
  5
F90
102
{ACAD_REACTORS
330
19
102
}
330
19
100
AcDbDictionary
281
     1
  3
AcmStdDictionary
350
F9E
  3
AMDTSECTSYM_ARROWCOLOR
350
FBC
  0
DICTIONARY
  5
ED2
102
{ACAD_REACTORS
330
19
102
}
330
19
100
AcDbDictionary
281
     1
  3
AcMgSettings
350
ED3
  0
DICTIONARY
  5
FD1
102
{ACAD_REACTORS
330
19
102
}
330
19
100
AcDbDictionary
281
     1
  3
DIMENSION
350
FD6
  3
FEA
350
FD5
  3
HATCH (1)
350
FD2
  3
HATCH (2)
350
FD3
  3
SIMPLE WELD
350
FD7
  3
SYMBOLS
350
FD4
  0
XRECORD
  5
834A
102
{ACAD_REACTORS
330
19
102
}
330
19
100
AcDbXrecord
280
     1
  1
DWGPROPS COOKIE
  2

  3

  4

  6

  7

  8

  9

300
AmdtFileType=84
301
=
302
=
303
=
304
=
305
=
306
=
307
=
308
=
309
=
 40
0.3630980787037037
 41
2452359.824870255
 42
2455323.699593808
  1

 90
        1
  0
DICTIONARY
  5
1004
102
{ACAD_REACTORS
330
1002
102
}
330
1002
100
AcDbDictionary
281
     1
  0
DICTIONARY
  5
1B79
102
{ACAD_REACTORS
330
1002
102
}
330
1002
100
AcDbDictionary
281
     1
  0
DICTIONARY
  5
1003
102
{ACAD_REACTORS
330
1002
102
}
330
1002
100
AcDbDictionary
281
     1
1001
ACAD
1000
<All
  0
DICTIONARY
  5
16D2
102
{ACAD_REACTORS
330
1002
102
}
330
1002
100
AcDbDictionary
280
     1
281
     1
  0
DICTIONARY
  5
124F
102
{ACAD_REACTORS
330
9C9
102
}
330
9C9
100
AcDbDictionary
281
     1
  3
*A1
350
1250
  0
XRECORD
  5
A64
102
{ACAD_REACTORS
330
9C9
102
}
330
9C9
100
AcDbXrecord
280
     1
340
A
  0
SORTENTSTABLE
  5
1711
102
{ACAD_REACTORS
330
9C9
102
}
330
9C9
100
AcDbSortentsTable
330
A
331
76ED
  5
76EE
331
76CE
  5
76CE
331
76AF
  5
76AF
331
7903
  5
7904
331
1C1E
  5
1C1F
331
1C3D
  5
1C3E
331
76EE
  5
76EF
331
76CF
  5
76CF
331
76B0
  5
76B0
331
7691
  5
7691
331
7904
  5
7905
331
7CA5
  5
76E2
331
1C1F
  5
1C20
331
1C3E
  5
1C3F
331
76EF
  5
76F0
331
76D0
  5
76D0
331
76B1
  5
76B1
331
7692
  5
7692
331
7905
  5
7906
331
1C20
  5
1C21
331
1C3F
  5
1C40
331
76D1
  5
76D1
331
76B2
  5
76B2
331
7693
  5
7693
331
7906
  5
7907
331
1C21
  5
1C22
331
1C40
  5
1C41
331
76D2
  5
76D2
331
76B3
  5
76B3
331
7694
  5
7694
331
79EF
  5
7A4E
331
7907
  5
7908
331
1C22
  5
1C23
331
1C41
  5
1C42
331
76D3
  5
76D3
331
76B4
  5
76B4
331
7695
  5
7695
331
7908
  5
7909
331
1C23
  5
1C24
331
1C42
  5
1C43
331
76D4
  5
76D4
331
76B5
  5
76B5
331
7696
  5
7696
331
7909
  5
790A
331
78EA
  5
7900
331
1C24
  5
1C25
331
1C43
  5
1C44
331
76D5
  5
76D5
331
76B6
  5
76B6
331
7697
  5
7697
331
790A
  5
790B
331
1C25
  5
1C26
331
1C44
  5
1C45
331
76D6
  5
76D6
331
76B7
  5
76B7
331
790B
  5
790C
331
1C26
  5
1C27
331
1C45
  5
1C46
331
76D7
  5
76D7
331
790C
  5
790D
331
1C27
  5
1C28
331
1C46
  5
1C47
331
790D
  5
790E
331
1C28
  5
1C29
331
1C47
  5
1C48
331
790E
  5
79AA
331
1C29
  5
1C2A
331
1C48
  5
1C49
331
76F0
  5
76F1
331
1C2A
  5
1C2B
331
1C49
  5
1C4A
331
7710
  5
7711
331
76F1
  5
76F2
331
1C2B
  5
1C2C
331
1C4A
  5
1C4B
331
7730
  5
7731
331
7711
  5
7712
331
7A4E
  5
7A8E
331
76F2
  5
76F3
331
1C2C
  5
1C2D
331
1C4B
  5
1C4C
331
7750
  5
7751
331
7731
  5
7732
331
7712
  5
7713
331
76F3
  5
76F4
331
1C2D
  5
1C2E
331
1C4C
  5
1C4D
331
7768
  5
7769
331
7751
  5
7752
331
7732
  5
7733
331
7713
  5
7714
331
7A8E
  5
7ACD
331
76F4
  5
76F5
331
1C2E
  5
1C2F
331
1C4D
  5
1C4E
331
7788
  5
7789
331
7769
  5
776A
331
7752
  5
7753
331
7733
  5
7734
331
7714
  5
7715
331
76F5
  5
76F6
331
1C2F
  5
1C30
331
1C4E
  5
1C4F
331
77A8
  5
77A9
331
7789
  5
778A
331
776A
  5
776B
331
7753
  5
7754
331
7734
  5
7735
331
7715
  5
7716
331
76F6
  5
76F7
331
1C11
  5
1C12
331
1C30
  5
1C31
331
1C4F
  5
1C50
331
77C8
  5
77C9
331
77A9
  5
77AA
331
778A
  5
778B
331
776B
  5
776C
331
7754
  5
7755
331
7735
  5
7736
331
7716
  5
7717
331
76F7
  5
76F8
331
1C12
  5
1C13
331
1C31
  5
1C32
331
77E0
  5
77E1
331
77C9
  5
77CA
331
77AA
  5
77AB
331
778B
  5
778C
331
776C
  5
776D
331
7755
  5
7756
331
7736
  5
7737
331
7717
  5
7718
331
76F8
  5
76F9
331
1C13
  5
1C14
331
1C32
  5
1C33
331
7800
  5
7801
331
77E1
  5
77E2
331
77CA
  5
77CB
331
77AB
  5
77AC
331
778C
  5
778D
331
776D
  5
776E
331
7756
  5
7757
331
7737
  5
7738
331
7718
  5
7719
331
76F9
  5
76FA
331
1C14
  5
1C15
331
1C33
  5
1C34
331
7BE0
  5
7C12
331
7801
  5
7802
331
77E2
  5
77E3
331
77CB
  5
77CC
331
77AC
  5
77AD
331
778D
  5
778E
331
776E
  5
776F
331
7757
  5
7758
331
7738
  5
7739
331
7719
  5
771A
331
76FA
  5
76FB
331
1C15
  5
1C16
331
1C34
  5
1C35
331
7840
  5
7841
331
7802
  5
7803
331
77E3
  5
77E4
331
77CC
  5
77CD
331
77AD
  5
77AE
331
778E
  5
778F
331
776F
  5
7770
331
7758
  5
7759
331
7739
  5
773A
331
771A
  5
771B
331
76FB
  5
76FC
331
1C35
  5
1C36
331
1C16
  5
1C17
331
7841
  5
7842
331
7803
  5
7804
331
77E4
  5
77E5
331
77CD
  5
77CE
331
77AE
  5
77AF
331
778F
  5
7790
331
7770
  5
7771
331
7759
  5
775A
331
773A
  5
773B
331
771B
  5
771C
331
76FC
  5
76FD
331
1C17
  5
1C18
331
1C36
  5
1C37
331
7842
  5
7843
331
7823
  5
7824
331
7804
  5
7805
331
77E5
  5
77E6
331
77CE
  5
77CF
331
77AF
  5
77B0
331
7790
  5
7791
331
7771
  5
7772
331
775A
  5
775B
331
773B
  5
773C
331
771C
  5
771D
331
76FD
  5
76FE
331
1C37
  5
1C38
331
7898
  5
7899
331
7843
  5
7844
331
7824
  5
7825
331
7805
  5
7806
331
77E6
  5
77E7
331
77CF
  5
77D0
331
77B0
  5
77B1
331
7791
  5
7792
331
7772
  5
7773
331
775B
  5
775C
331
773C
  5
773D
331
771D
  5
771E
331
76FE
  5
76FF
331
7C3A
  5
7C7E
331
7899
  5
789A
331
7844
  5
7845
331
7825
  5
7826
331
7806
  5
7807
331
77E7
  5
77E8
331
77D0
  5
77D1
331
77B1
  5
77B2
331
7792
  5
7793
331
7773
  5
7774
331
775C
  5
775D
331
773D
  5
773E
331
771E
  5
771F
331
76FF
  5
7700
331
789A
  5
789B
331
7845
  5
7846
331
7826
  5
7827
331
7807
  5
7808
331
77E8
  5
77E9
331
77D1
  5
77D2
331
77B2
  5
77B3
331
7793
  5
7794
331
7774
  5
7775
331
775D
  5
775E
331
773E
  5
773F
331
771F
  5
7720
331
7700
  5
7701
331
1C50
  5
1C51
331
789B
  5
789C
331
7846
  5
7847
331
7827
  5
7828
331
7808
  5
7809
331
77E9
  5
77EA
331
77D2
  5
77D3
331
77B3
  5
77B4
331
7794
  5
7795
331
7775
  5
7776
331
775E
  5
775F
331
773F
  5
7740
331
7720
  5
7721
331
7701
  5
7702
331
1C51
  5
1C52
331
789C
  5
789D
331
7847
  5
7848
331
7828
  5
7829
331
7809
  5
780A
331
77EA
  5
77EB
331
77D3
  5
77D4
331
77B4
  5
77B5
331
7795
  5
7796
331
7776
  5
7777
331
775F
  5
7760
331
7740
  5
7741
331
7721
  5
7722
331
7702
  5
7703
331
1C52
  5
1C53
331
1C71
  5
1C72
331
1C90
  5
1C91
331
789D
  5
789E
331
7848
  5
7849
331
7829
  5
782A
331
780A
  5
780B
331
77EB
  5
77EC
331
77D4
  5
77D5
331
77B5
  5
77B6
331
7796
  5
7797
331
7777
  5
7778
331
7760
  5
7761
331
7741
  5
7742
331
7722
  5
7723
331
7703
  5
7704
331
1C53
  5
1C54
331
1C72
  5
1C73
331
1C91
  5
1C92
331
789E
  5
789F
331
7849
  5
784A
331
782A
  5
782B
331
780B
  5
780C
331
77EC
  5
77ED
331
77D5
  5
77D6
331
77B6
  5
77B7
331
7797
  5
7798
331
7778
  5
7779
331
7761
  5
7762
331
7742
  5
7743
331
7723
  5
7724
331
7704
  5
7705
331
1C54
  5
1C55
331
1C73
  5
1C74
331
1C92
  5
1C93
331
7C7E
  5
7CA5
331
7B77
  5
7B7E
331
789F
  5
78A0
331
784A
  5
7868
331
782B
  5
782C
331
780C
  5
780D
331
77ED
  5
77EE
331
77D6
  5
77D7
331
77B7
  5
77B8
331
7798
  5
7799
331
7779
  5
777A
331
7762
  5
7763
331
7743
  5
7744
331
7724
  5
7725
331
7705
  5
7706
331
1C93
  5
1C94
331
1C55
  5
1C56
331
1C74
  5
1C75
331
78A0
  5
78A1
331
782C
  5
782D
331
780D
  5
7823
331
77EE
  5
77EF
331
77D7
  5
77D8
331
77B8
  5
77B9
331
7799
  5
779A
331
777A
  5
777B
331
7763
  5
7764
331
7744
  5
7745
331
7725
  5
7726
331
7706
  5
7707
331
1C56
  5
1C57
331
1C75
  5
1C76
331
1C94
  5
1C95
331
78A1
  5
78A2
331
782D
  5
782E
331
77EF
  5
77F0
331
77D8
  5
77D9
331
77B9
  5
77BA
331
779A
  5
779B
331
777B
  5
777C
331
7764
  5
7765
331
7745
  5
7746
331
7726
  5
7727
331
7707
  5
7708
331
1C57
  5
1C58
331
1C76
  5
1C77
331
1C95
  5
1C96
331
78A2
  5
78A3
331
782E
  5
782F
331
77F0
  5
77F1
331
77D9
  5
77DA
331
77BA
  5
77BB
331
779B
  5
779C
331
777C
  5
777D
331
7765
  5
7766
331
7746
  5
7747
331
7727
  5
7728
331
7708
  5
7709
331
4F0C
  5
4F0D
331
1C58
  5
1C59
331
1C77
  5
1C78
331
1C96
  5
1C97
331
78A3
  5
78A4
331
782F
  5
7830
331
77F1
  5
77F2
331
77DA
  5
77DB
331
77BB
  5
77BC
331
779C
  5
779D
331
777D
  5
777E
331
7766
  5
7767
331
7747
  5
7748
331
7728
  5
7729
331
7709
  5
770A
331
4F0D
  5
4F0E
331
1C59
  5
1C5A
331
1C78
  5
1C7C
331
1C97
  5
1C98
331
78A4
  5
78A5
331
7830
  5
7831
331
77F2
  5
77F3
331
77DB
  5
77DC
331
77BC
  5
77BD
331
779D
  5
779E
331
777E
  5
777F
331
7767
  5
7768
331
7748
  5
7749
331
7729
  5
772A
331
770A
  5
770B
331
4F0E
  5
4F0F
331
1C5A
  5
1C5B
331
1C98
  5
1C99
331
7AEA
  5
7B41
331
78A5
  5
78A6
331
7831
  5
7832
331
77F3
  5
77F4
331
77DC
  5
77DD
331
77BD
  5
77BE
331
779E
  5
779F
331
777F
  5
7780
331
7749
  5
774A
331
772A
  5
772B
331
770B
  5
770C
331
4F0F
  5
4F10
331
1C5B
  5
1C5C
331
1C99
  5
1C9A
331
7B7E
  5
7BE0
331
78A6
  5
78A7
331
7868
  5
7874
331
7832
  5
7833
331
77F4
  5
77F5
331
77DD
  5
77DE
331
77BE
  5
77BF
331
779F
  5
77A0
331
7780
  5
7781
331
774A
  5
774B
331
772B
  5
772C
331
770C
  5
770D
331
1C5C
  5
1C5D
331
1C9A
  5
1C9B
331
4F10
  5
4F11
331
7698
  5
7698
331
7C12
  5
7C3A
331
7B41
  5
7B77
331
7ACD
  5
7AEA
331
78A7
  5
78A8
331
7833
  5
7834
331
77F5
  5
77F6
331
77DE
  5
77DF
331
77BF
  5
77C0
331
77A0
  5
77A1
331
7781
  5
7782
331
774B
  5
774C
331
772C
  5
772D
331
770D
  5
770E
331
1C9B
  5
2171
331
1C5D
  5
1C5E
331
1C7C
  5
1C80
331
4F11
  5
4FDC
331
76B8
  5
76B8
331
7699
  5
7699
331
78A8
  5
78A9
331
7834
  5
7835
331
77F6
  5
77F7
331
77DF
  5
77E0
331
77C0
  5
77C1
331
77A1
  5
77A2
331
7782
  5
7783
331
774C
  5
774D
331
772D
  5
772E
331
770E
  5
770F
331
3FEB
  5
3FEB
331
1C5E
  5
1C5F
331
76D8
  5
76D8
331
76B9
  5
76B9
331
769A
  5
769A
331
78A9
  5
78AA
331
788A
  5
788B
331
7835
  5
7836
331
77F7
  5
77F8
331
77C1
  5
77C2
331
77A2
  5
77A3
331
7783
  5
7784
331
774D
  5
774E
331
772E
  5
772F
331
770F
  5
7710
331
1C5F
  5
1C60
331
3FEC
  5
3FEC
331
76D9
  5
76D9
331
76BA
  5
76BA
331
769B
  5
769B
331
78AA
  5
78B6
331
788B
  5
788C
331
7836
  5
7837
331
77F8
  5
77F9
331
77C2
  5
77C3
331
77A3
  5
77A4
331
7784
  5
7785
331
774E
  5
774F
331
772F
  5
7730
331
1C60
  5
1C61
331
76DA
  5
76DA
331
76BB
  5
76BB
331
769C
  5
769C
331
788C
  5
788D
331
7837
  5
7838
331
77F9
  5
77FA
331
77C3
  5
77C4
331
77A4
  5
77A5
331
7785
  5
7786
331
774F
  5
7750
331
1C61
  5
1C62
331
1C80
  5
1C84
331
76DB
  5
76DB
331
76BC
  5
76BC
331
769D
  5
769D
331
788D
  5
788E
331
7838
  5
7839
331
77FA
  5
77FB
331
77C4
  5
77C5
331
77A5
  5
77A6
331
7786
  5
7787
331
1C62
  5
1C63
331
76DC
  5
76DC
331
76BD
  5
76BD
331
769E
  5
769E
331
788E
  5
788F
331
7839
  5
783A
331
77FB
  5
77FC
331
77C5
  5
77C6
331
77A6
  5
77A7
331
7787
  5
7788
331
1C63
  5
1C64
331
76DD
  5
76DD
331
76BE
  5
76BE
331
769F
  5
769F
331
78D4
  5
78EA
331
788F
  5
7890
331
783A
  5
783B
331
77FC
  5
77FD
331
77C6
  5
77C7
331
77A7
  5
77A8
331
1C64
  5
1C68
331
76DE
  5
76DE
331
76BF
  5
76BF
331
76A0
  5
76A0
331
7890
  5
7891
331
783B
  5
783C
331
77FD
  5
77FE
331
77C7
  5
77C8
331
1C84
  5
1C85
331
76DF
  5
76DF
331
76C0
  5
76C0
331
76A1
  5
76A1
331
7891
  5
7892
331
783C
  5
783D
331
77FE
  5
77FF
331
1C85
  5
1C86
331
76E0
  5
76E0
331
76C1
  5
76C1
331
76A2
  5
76A2
331
7892
  5
7893
331
783D
  5
783E
331
77FF
  5
7800
331
1C86
  5
1C8A
331
76E1
  5
76E1
331
76C2
  5
76C2
331
76A3
  5
76A3
331
7893
  5
7894
331
7874
  5
788A
331
783E
  5
783F
331
1C68
  5
1C6C
331
28D6
  5
2907
331
76E2
  5
76E3
331
76C3
  5
76C3
331
76A4
  5
76A4
331
79AA
  5
79EF
331
7894
  5
7895
331
783F
  5
7840
331
28D7
  5
2945
331
76E3
  5
76E4
331
76C4
  5
76C4
331
76A5
  5
76A5
331
7895
  5
7896
331
76E4
  5
76E5
331
76C5
  5
76C5
331
76A6
  5
76A6
331
7896
  5
7897
331
1C8A
  5
1C8B
331
76E5
  5
76E6
331
76C6
  5
76C6
331
76A7
  5
76A7
331
78B6
  5
78D4
331
7897
  5
7898
331
1C6C
  5
1C6D
331
1C8B
  5
1C8C
331
76E6
  5
76E7
331
76C7
  5
76C7
331
76A8
  5
76A8
331
1C6D
  5
1C71
331
1C8C
  5
1C8D
331
76E7
  5
76E8
331
76C8
  5
76C8
331
76A9
  5
76A9
331
1C18
  5
1C19
331
1C8D
  5
1C8E
331
76E8
  5
76E9
331
76C9
  5
76C9
331
76AA
  5
76AA
331
1C19
  5
1C1A
331
1C38
  5
1C39
331
1C8E
  5
1C8F
331
76E9
  5
76EA
331
76CA
  5
76CA
331
76AB
  5
76AB
331
1C1A
  5
1C1B
331
1C39
  5
1C3A
331
1C8F
  5
1C90
331
76EA
  5
76EB
331
76CB
  5
76CB
331
76AC
  5
76AC
331
7900
  5
7901
331
708A
  5
709B
331
1C1B
  5
1C1C
331
1C3A
  5
1C3B
331
76EB
  5
76EC
331
76CC
  5
76CC
331
76AD
  5
76AD
331
7901
  5
7902
331
1C1C
  5
1C1D
331
1C3B
  5
1C3C
331
76EC
  5
76ED
331
76CD
  5
76CD
331
76AE
  5
76AE
331
7902
  5
7903
331
1C1D
  5
1C1E
331
1C3C
  5
1C3D
  0
XRECORD
  5
A65
102
{ACAD_REACTORS
330
9CB
102
}
330
9CB
100
AcDbXrecord
280
     1
340
B
  0
LAYOUT
  5
A68
102
{ACAD_XDICTIONARY
360
834C
102
}
102
{ACAD_REACTORS
330
1E
102
}
330
1E
100
AcDbPlotSettings
  1

  2
自動 設計一 上的 HP DeskJet 930C/932C/935C
  4

  6

 40
0.0
 41
0.0
 42
0.0
 43
0.0
 44
0.0
 45
0.0
 46
0.0
 47
0.0
 48
0.0
 49
0.0
140
0.0
141
0.0
142
1.0
143
1.0
 70
  1712
 72
     0
 73
     0
 74
     0
  7

 75
     0
147
1.0
148
0.0
149
0.0
100
AcDbLayout
  1
Model
 70
     1
 71
     0
 10
0.0
 20
0.0
 11
12.0
 21
9.0
 12
0.0
 22
0.0
 32
0.0
 14
0.0
 24
0.0
 34
0.0
 15
0.0
 25
0.0
 35
0.0
146
0.0
 13
0.0
 23
0.0
 33
0.0
 16
1.0
 26
0.0
 36
0.0
 17
0.0
 27
1.0
 37
0.0
 76
     0
330
A
  0
LAYOUT
  5
A69
102
{ACAD_XDICTIONARY
360
834E
102
}
102
{ACAD_REACTORS
330
1E
102
}
330
1E
100
AcDbPlotSettings
  1

  2
自動 設計一 上的 HP DeskJet 930C/932C/935C
  4

  6

 40
0.0
 41
0.0
 42
0.0
 43
0.0
 44
0.0
 45
0.0
 46
0.0
 47
0.0
 48
0.0
 49
0.0
140
0.0
141
0.0
142
1.0
143
1.0
 70
   688
 72
     0
 73
     0
 74
     5
  7

 75
    16
147
1.0
148
0.0
149
0.0
100
AcDbLayout
  1
配置1
 70
     1
 71
     1
 10
0.0
 20
0.0
 11
12.0
 21
9.0
 12
0.0
 22
0.0
 32
0.0
 14
1.000000000000000E+20
 24
1.000000000000000E+20
 34
1.000000000000000E+20
 15
-1.000000000000000E+20
 25
-1.000000000000000E+20
 35
-1.000000000000000E+20
146
0.0
 13
0.0
 23
0.0
 33
0.0
 16
1.0
 26
0.0
 36
0.0
 17
0.0
 27
1.0
 37
0.0
 76
     0
330
B
  0
MLINESTYLE
  5
1C
102
{ACAD_REACTORS
330
1B
102
}
330
1B
100
AcDbMlineStyle
  2
STANDARD
 70
     0
  3

 62
     0
 51
90.00000000000019
 52
90.00000000000019
 71
     2
 49
0.5
 62
   256
  6
BYLAYER
 49
-0.5
 62
   256
  6
BYLAYER
  0
ACDBPLACEHOLDER
  5
1D
102
{ACAD_REACTORS
330
1F
102
}
330
1F
  0
TABLESTYLE
  5
ECC
102
{ACAD_REACTORS
330
ECB
102
}
330
ECB
100
AcDbTableStyle
  3
Standard
 70
     0
 71
     0
 40
0.06
 41
0.06
280
     0
281
     0
  7
STANDARD
140
0.18
170
     2
 62
     0
 63
     7
283
     0
274
    -2
284
     1
 64
     0
275
    -2
285
     1
 65
     0
276
    -2
286
     1
 66
     0
277
    -2
287
     1
 67
     0
278
    -2
288
     1
 68
     0
279
    -2
289
     1
 69
     0
  7
STANDARD
140
0.25
170
     5
 62
     0
 63
     7
283
     0
274
    -2
284
     1
 64
     0
275
    -2
285
     1
 65
     0
276
    -2
286
     1
 66
     0
277
    -2
287
     1
 67
     0
278
    -2
288
     1
 68
     0
279
    -2
289
     1
 69
     0
  7
STANDARD
140
0.18
170
     5
 62
     0
 63
     7
283
     0
274
    -2
284
     1
 64
     0
275
    -2
285
     1
 65
     0
276
    -2
286
     1
 66
     0
277
    -2
287
     1
 67
     0
278
    -2
288
     1
 68
     0
279
    -2
289
     1
 69
     0
  0
DICTIONARYVAR
  5
1258
102
{ACAD_REACTORS
330
1257
102
}
330
1257
100
DictionaryVariables
280
     0
  1
STANDARD
  0
DICTIONARYVAR
  5
8347
102
{ACAD_REACTORS
330
1257
102
}
330
1257
100
DictionaryVariables
280
     0
  1
1
  0
DICTIONARYVAR
  5
8346
102
{ACAD_REACTORS
330
1257
102
}
330
1257
100
DictionaryVariables
280
     0
  1
1
  0
DICTIONARYVAR
  5
8348
102
{ACAD_REACTORS
330
1257
102
}
330
1257
100
DictionaryVariables
280
     0
  1

  0
DICTIONARY
  5
F9E
102
{ACAD_REACTORS
330
F90
102
}
330
F90
100
AcDbDictionary
281
     1
  0
XRECORD
  5
FBC
102
{ACAD_REACTORS
330
F90
102
}
330
F90
100
AcDbXrecord
280
     1
 90
-1023410169
  0
DICTIONARY
  5
ED3
102
{ACAD_REACTORS
330
ED2
102
}
330
ED2
100
AcDbDictionary
281
     1
  3
DWGSETTINGS
350
ED4
  3
Shaft
350
1093
  3
TRANSSETTINGS
350
ED8
  0
ACAMGFILTERDAT
  5
FD6
102
{ACAD_REACTORS
330
FD1
102
}
330
FD1
100
AcAmgFilterDat
 70
    15
  1
DIMENSION,AMDT_*_DIM
  2
*
  3
*
  4
*
  5
*
290
     1
  0
ACAMGFILTERDAT
  5
FD5
102
{ACAD_REACTORS
330
FD1
102
}
330
FD1
100
AcAmgFilterDat
 70
    15
  1
*
  2
AM_FEA-AM_*
  3
*
  4
*
  5
*
290
     1
  0
ACAMGFILTERDAT
  5
FD2
102
{ACAD_REACTORS
330
FD1
102
}
330
FD1
100
AcAmgFilterDat
 70
    15
  1
HATCH
  2
*
  3
*
  4
*
  5
*
290
     1
  0
ACAMGFILTERDAT
  5
FD3
102
{ACAD_REACTORS
330
FD1
102
}
330
FD1
100
AcAmgFilterDat
 70
    15
  1
LINE
  2
8,8N,*-8,*-8N,AM_8,AM_8N,*-AM_8,*-AM_8N
  3
*
  4
*
  5
INSERT,STDPART2D
290
     1
  0
ACAMGFILTERDAT
  5
FD7
102
{ACAD_REACTORS
330
FD1
102
}
330
FD1
100
AcAmgFilterDat
 70
    15
  1
ARC
  2
AM_5
  3
*
  4
2
  5
INSERT
290
     0
  0
ACAMGFILTERDAT
  5
FD4
102
{ACAD_REACTORS
330
FD1
102
}
330
FD1
100
AcAmgFilterDat
 70
    15
  1
ACMFCFRAME,ACMDATUMTARGET,ACMDATUMID,ACMWELDSYM,ACMSURFSYM,ACMFEATID,ACMPARTREF,ACMBALLOON,AMDTEDGESYM,AMGSCREWCALCTABLE
  2
*
  3
*
  4
*
  5
*
290
     1
  0
LAYER_INDEX
  5
1250
102
{ACAD_REACTORS
330
124F
102
}
330
124F
100
AcDbIndex
 40
2455323.699593808
100
AcDbLayerIndex
  8
0
360
1251
 90
      449
  8
CENTER
360
1252
 90
       24
  8
DIM
360
1253
 90
        9
  8
Defpoints
360
1254
 90
        0
  8
AM_5
360
1255
 90
       39
  8
LOGO
360
191C
 90
      117
  0
DICTIONARY
  5
834C
330
A68
100
AcDbDictionary
280
     1
281
     1
  3
ACAD_XREC_ROUNDTRIP
360
834D
  0
DICTIONARY
  5
834E
330
A69
100
AcDbDictionary
280
     1
281
     1
  3
ACAD_XREC_ROUNDTRIP
360
834F
  0
IDBUFFER
  5
1251
330
0
100
AcDbIdBuffer
330
1C11
330
1C9C
330
1C9D
330
1C9E
330
7691
330
7692
330
7693
330
7694
330
7695
330
7696
330
7697
330
7698
330
7699
330
769A
330
769B
330
769C
330
769D
330
769E
330
769F
330
76A0
330
76A1
330
76A2
330
76A3
330
76A4
330
76A5
330
76A6
330
76A7
330
76A8
330
76A9
330
76AA
330
76AB
330
76AC
330
76AD
330
76AE
330
76AF
330
76B0
330
76B1
330
76B2
330
76B3
330
76B4
330
76B5
330
76B6
330
76B7
330
76B8
330
76B9
330
76BA
330
76BB
330
76BC
330
76BD
330
76BE
330
76BF
330
76C0
330
76C1
330
76C2
330
76C3
330
76C4
330
76C5
330
76C6
330
76C7
330
76C8
330
76C9
330
76CA
330
76CB
330
76CC
330
76CD
330
76CE
330
76CF
330
76D0
330
76D1
330
76D2
330
76D3
330
76D4
330
76D5
330
76D6
330
76D7
330
76D8
330
76D9
330
76DA
330
76DB
330
76DC
330
76DD
330
76DE
330
76DF
330
76E0
330
76E2
330
76E3
330
76E4
330
76E5
330
76E6
330
76E7
330
76E8
330
76E9
330
76EA
330
76EB
330
76EC
330
76ED
330
76EE
330
76EF
330
76F0
330
76F1
330
76F2
330
76F3
330
76F4
330
76F5
330
76F6
330
76F7
330
76F8
330
76F9
330
76FA
330
76FB
330
76FC
330
76FD
330
76FE
330
76FF
330
7700
330
7701
330
7702
330
7703
330
7704
330
7705
330
7706
330
7707
330
7708
330
7709
330
770A
330
770C
330
770D
330
770E
330
7710
330
7711
330
7712
330
7713
330
7714
330
7715
330
7716
330
7717
330
7718
330
7719
330
771A
330
771B
330
771C
330
771D
330
771E
330
771F
330
7720
330
7721
330
7722
330
7723
330
7724
330
7725
330
7726
330
7727
330
7728
330
7729
330
772A
330
772B
330
772C
330
772D
330
772E
330
772F
330
7730
330
7731
330
7732
330
7733
330
7734
330
7735
330
7736
330
7737
330
7738
330
7739
330
773A
330
773B
330
773C
330
773D
330
773E
330
773F
330
7740
330
7741
330
7742
330
7743
330
7744
330
7745
330
7746
330
7747
330
7748
330
7749
330
774A
330
774B
330
774C
330
774D
330
774E
330
774F
330
7750
330
7751
330
7752
330
7753
330
7754
330
7755
330
7756
330
7757
330
7758
330
7759
330
775A
330
775B
330
775C
330
775D
330
775E
330
775F
330
7760
330
7761
330
7762
330
7763
330
7764
330
7765
330
7766
330
7767
330
7768
330
7769
330
776A
330
776B
330
776C
330
776D
330
776E
330
776F
330
7770
330
7771
330
7772
330
7773
330
7774
330
7775
330
7776
330
7777
330
7778
330
7779
330
777A
330
777B
330
777C
330
777D
330
777E
330
777F
330
7780
330
7781
330
7782
330
7783
330
7784
330
7785
330
7786
330
7787
330
7788
330
7789
330
778A
330
778B
330
778C
330
778D
330
778E
330
778F
330
7790
330
7791
330
7792
330
7793
330
7794
330
7795
330
7796
330
7797
330
7798
330
7799
330
779A
330
779B
330
779C
330
779D
330
779E
330
779F
330
77A0
330
77A1
330
77A2
330
77A3
330
77A4
330
77A5
330
77A6
330
77A7
330
77A8
330
77A9
330
77AA
330
77AB
330
77AD
330
77AE
330
77AF
330
77B0
330
77B1
330
77B2
330
77B3
330
77B4
330
77B5
330
77B6
330
77B7
330
77B8
330
77B9
330
77BA
330
77BB
330
77BC
330
77BD
330
77BE
330
77BF
330
77C0
330
77C1
330
77C2
330
77C3
330
77C4
330
77C5
330
77C6
330
77C7
330
77C8
330
77C9
330
77CA
330
77CB
330
77CC
330
77CD
330
77CE
330
77CF
330
77D0
330
77D1
330
77D2
330
77D3
330
77D4
330
77D5
330
77D6
330
77D7
330
77D8
330
77D9
330
77DA
330
77DB
330
77DC
330
77DD
330
77DE
330
77DF
330
77E0
330
77E1
330
77E2
330
77E3
330
77E4
330
77E5
330
77E6
330
77EA
330
77EB
330
77F1
330
77F5
330
77F9
330
77FD
330
7805
330
7807
330
7809
330
780A
330
780B
330
780C
330
780D
330
7823
330
7824
330
7825
330
7826
330
7827
330
7828
330
7829
330
782A
330
782B
330
782C
330
782D
330
782E
330
782F
330
7830
330
7831
330
7832
330
7833
330
7834
330
7835
330
7836
330
7837
330
7838
330
7839
330
783A
330
783B
330
783C
330
783D
330
783E
330
783F
330
7840
330
7841
330
7842
330
7843
330
7844
330
7845
330
7846
330
7847
330
7848
330
7849
330
784A
330
7868
330
7874
330
788A
330
788B
330
788C
330
788D
330
788E
330
788F
330
7890
330
7891
330
7892
330
7893
330
7894
330
7895
330
7896
330
7897
330
7898
330
7899
330
789A
330
789B
330
789C
330
789D
330
789E
330
789F
330
78A0
330
78A1
330
78A2
330
78A3
330
78A4
330
78A5
330
78A6
330
78A7
330
78A8
330
78A9
330
78AA
330
78B6
330
78D4
330
78EA
330
7900
330
7901
330
7902
330
7903
330
7904
330
7905
330
7906
330
7907
330
7908
330
7909
330
790A
330
790B
330
790C
330
790D
330
790E
330
7CA5
  0
IDBUFFER
  5
1252
330
0
100
AcDbIdBuffer
330
4F0C
330
4F0D
330
4F0E
330
76E1
330
77E7
330
77E8
330
77E9
330
77EC
330
77ED
330
77EE
330
77EF
330
77F2
330
77F3
330
77F6
330
77F7
330
77FA
330
77FB
330
77FE
330
77FF
330
7800
330
7801
330
7802
330
7803
330
7804
  0
IDBUFFER
  5
1253
330
0
100
AcDbIdBuffer
330
770B
330
770F
330
77AC
330
77F0
330
77F4
330
77F8
330
77FC
330
7806
330
7808
  0
IDBUFFER
  5
1254
330
0
100
AcDbIdBuffer
  0
IDBUFFER
  5
1255
330
0
100
AcDbIdBuffer
330
28D6
330
28D7
330
3FEB
330
3FEC
330
4F0F
330
4F10
330
4F11
330
708A
330
79AA
330
79EF
330
7A4E
330
7A8E
330
7ACD
330
7AEA
330
7B41
330
7B77
330
7B7E
330
7BE0
330
7C12
330
7C3A
330
7C7E
330
7CBC
330
7CF2
330
7D1A
330
7D4D
330
7D7E
330
7D9D
330
7DD6
330
7E02
330
7E4B
330
7E73
330
7E9B
330
7EDA
330
7F10
330
7FA5
330
7FD1
330
7FF9
330
8025
330
8026
  0
IDBUFFER
  5
191C
330
0
100
AcDbIdBuffer
330
1C12
330
1C13
330
1C14
330
1C15
330
1C16
330
1C17
330
1C18
330
1C19
330
1C1A
330
1C1B
330
1C1C
330
1C1D
330
1C1E
330
1C1F
330
1C20
330
1C21
330
1C22
330
1C23
330
1C24
330
1C25
330
1C26
330
1C27
330
1C28
330
1C29
330
1C2A
330
1C2B
330
1C2C
330
1C2D
330
1C2E
330
1C2F
330
1C30
330
1C31
330
1C32
330
1C33
330
1C34
330
1C35
330
1C36
330
1C37
330
1C38
330
1C39
330
1C3A
330
1C3B
330
1C3C
330
1C3D
330
1C3E
330
1C3F
330
1C40
330
1C41
330
1C42
330
1C43
330
1C44
330
1C45
330
1C46
330
1C47
330
1C48
330
1C49
330
1C4A
330
1C4B
330
1C4C
330
1C4D
330
1C4E
330
1C4F
330
1C50
330
1C51
330
1C52
330
1C53
330
1C54
330
1C55
330
1C56
330
1C57
330
1C58
330
1C59
330
1C5A
330
1C5B
330
1C5C
330
1C5D
330
1C5E
330
1C5F
330
1C60
330
1C61
330
1C62
330
1C63
330
1C64
330
1C68
330
1C6C
330
1C6D
330
1C71
330
1C72
330
1C73
330
1C74
330
1C75
330
1C76
330
1C77
330
1C78
330
1C7C
330
1C80
330
1C84
330
1C85
330
1C86
330
1C8A
330
1C8B
330
1C8C
330
1C8D
330
1C8E
330
1C8F
330
1C90
330
1C91
330
1C92
330
1C93
330
1C94
330
1C95
330
1C96
330
1C97
330
1C98
330
1C99
330
1C9A
330
1C9B
  0
XRECORD
  5
834D
102
{ACAD_REACTORS
330
834C
102
}
330
834C
100
AcDbXrecord
280
     1
102
SHADEPLOT
 70
     0
102
SHADEPLOTRESLEVEL
 70
     2
102
SHADEPLOTCUSTOMDPI
 70
   300
  0
XRECORD
  5
834F
102
{ACAD_REACTORS
330
834E
102
}
330
834E
100
AcDbXrecord
280
     1
102
SHADEPLOT
 70
     0
102
SHADEPLOTRESLEVEL
 70
     2
102
SHADEPLOTCUSTOMDPI
 70
   300
  0
ENDSEC
  0
EOF
